  0
SECTION
  2
HEADER
  9
$ACADVER
  1
AC1015
  9
$ACADMAINTVER
 70
     6
  9
$DWGCODEPAGE
  3
ANSI_1252
  9
$INSBASE
 10
0.0
 20
0.0
 30
0.0
  9
$EXTMIN
 10
0.0
 20
0.0
 30
0.0
  9
$EXTMAX
 10
297.0
 20
210.0
 30
0.0
  9
$LIMMIN
 10
0.0
 20
0.0
  9
$LIMMAX
 10
297.0
 20
210.0
  9
$ORTHOMODE
 70
     0
  9
$REGENMODE
 70
     1
  9
$FILLMODE
 70
     1
  9
$QTEXTMODE
 70
     0
  9
$MIRRTEXT
 70
     1
  9
$LTSCALE
 40
1.0
  9
$ATTMODE
 70
     1
  9
$TEXTSIZE
 40
2.0
  9
$TRACEWID
 40
1.0
  9
$TEXTSTYLE
  7
Standard
  9
$CLAYER
  8
0
  9
$CELTYPE
  6
ByLayer
  9
$CECOLOR
 62
   256
  9
$CELTSCALE
 40
1.0
  9
$DISPSILH
 70
     0
  9
$DIMSCALE
 40
1.0
  9
$DIMASZ
 40
3.0
  9
$DIMEXO
 40
0.0
  9
$DIMDLI
 40
3.75
  9
$DIMRND
 40
0.0
  9
$DIMDLE
 40
0.0
  9
$DIMEXE
 40
1.0
  9
$DIMTP
 40
0.0
  9
$DIMTM
 40
0.0
  9
$DIMTXT
 40
2.0
  9
$DIMCEN
 40
2.5
  9
$DIMTSZ
 40
0.0
  9
$DIMTOL
 70
     0
  9
$DIMLIM
 70
     0
  9
$DIMTIH
 70
     1
  9
$DIMTOH
 70
     1
  9
$DIMSE1
 70
     0
  9
$DIMSE2
 70
     0
  9
$DIMTAD
 70
     1
  9
$DIMZIN
 70
     0
  9
$DIMBLK
  1

  9
$DIMASO
 70
     1
  9
$DIMSHO
 70
     1
  9
$DIMPOST
  1

  9
$DIMAPOST
  1

  9
$DIMALT
 70
     0
  9
$DIMALTD
 70
     3
  9
$DIMALTF
 40
0.0393700787
  9
$DIMLFAC
 40
1.0
  9
$DIMTOFL
 70
     1
  9
$DIMTVP
 40
0.0
  9
$DIMTIX
 70
     0
  9
$DIMSOXD
 70
     0
  9
$DIMSAH
 70
     0
  9
$DIMBLK1
  1

  9
$DIMBLK2
  1

  9
$DIMSTYLE
  2
ISO-25
  9
$DIMCLRD
 70
     0
  9
$DIMCLRE
 70
     0
  9
$DIMCLRT
 70
     0
  9
$DIMTFAC
 40
1.0
  9
$DIMGAP
 40
1.524
  9
$DIMJUST
 70
     0
  9
$DIMSD1
 70
     0
  9
$DIMSD2
 70
     0
  9
$DIMTOLJ
 70
     0
  9
$DIMTZIN
 70
     0
  9
$DIMALTZ
 70
     0
  9
$DIMALTTZ
 70
     0
  9
$DIMUPT
 70
     0
  9
$DIMDEC
 70
     2
  9
$DIMTDEC
 70
     3
  9
$DIMALTU
 70
     2
  9
$DIMALTTD
 70
     3
  9
$DIMTXSTY
  7
Standard
  9
$DIMAUNIT
 70
     0
  9
$DIMADEC
 70
     2
  9
$DIMALTRND
 40
0.0
  9
$DIMAZIN
 70
     0
  9
$DIMDSEP
 70
    44
  9
$DIMATFIT
 70
     3
  9
$DIMFRAC
 70
     0
  9
$DIMLDRBLK
  1

  9
$DIMLUNIT
 70
     2
  9
$DIMLWD
 70
    -2
  9
$DIMLWE
 70
    -2
  9
$DIMTMOVE
 70
     0
  9
$LUNITS
 70
     2
  9
$LUPREC
 70
     2
  9
$SKETCHINC
 40
1.0
  9
$FILLETRAD
 40
10.0
  9
$AUNITS
 70
     0
  9
$AUPREC
 70
     2
  9
$MENU
  1
.
  9
$ELEVATION
 40
0.0
  9
$PELEVATION
 40
0.0
  9
$THICKNESS
 40
0.0
  9
$LIMCHECK
 70
     0
  9
$CHAMFERA
 40
10.0
  9
$CHAMFERB
 40
10.0
  9
$CHAMFERC
 40
20.0
  9
$CHAMFERD
 40
0.0
  9
$SKPOLY
 70
     0
  9
$TDCREATE
 40
2455680.570200417
  9
$TDUCREATE
 40
2455680.486867083
  9
$TDUPDATE
 40
2455680.570200428
  9
$TDUUPDATE
 40
2455680.486867095
  9
$TDINDWG
 40
0.0000000116
  9
$TDUSRTIMER
 40
0.0000000116
  9
$USRTIMER
 70
     1
  9
$ANGBASE
 50
0.0
  9
$ANGDIR
 70
     0
  9
$PDMODE
 70
     0
  9
$PDSIZE
 40
-1.0
  9
$PLINEWID
 40
0.0
  9
$SPLFRAME
 70
     0
  9
$SPLINETYPE
 70
     6
  9
$SPLINESEGS
 70
     8
  9
$HANDSEED
  5
204
  9
$SURFTAB1
 70
     6
  9
$SURFTAB2
 70
     6
  9
$SURFTYPE
 70
     6
  9
$SURFU
 70
     6
  9
$SURFV
 70
     6
  9
$UCSBASE
  2

  9
$UCSNAME
  2

  9
$UCSORG
 10
0.0
 20
0.0
 30
0.0
  9
$UCSXDIR
 10
1.0
 20
0.0
 30
0.0
  9
$UCSYDIR
 10
0.0
 20
1.0
 30
0.0
  9
$UCSORTHOREF
  2

  9
$UCSORTHOVIEW
 70
     0
  9
$UCSORGTOP
 10
0.0
 20
0.0
 30
0.0
  9
$UCSORGBOTTOM
 10
0.0
 20
0.0
 30
0.0
  9
$UCSORGLEFT
 10
0.0
 20
0.0
 30
0.0
  9
$UCSORGRIGHT
 10
0.0
 20
0.0
 30
0.0
  9
$UCSORGFRONT
 10
0.0
 20
0.0
 30
0.0
  9
$UCSORGBACK
 10
0.0
 20
0.0
 30
0.0
  9
$PUCSBASE
  2

  9
$PUCSNAME
  2

  9
$PUCSORG
 10
0.0
 20
0.0
 30
0.0
  9
$PUCSXDIR
 10
1.0
 20
0.0
 30
0.0
  9
$PUCSYDIR
 10
0.0
 20
1.0
 30
0.0
  9
$PUCSORTHOREF
  2

  9
$PUCSORTHOVIEW
 70
     0
  9
$PUCSORGTOP
 10
0.0
 20
0.0
 30
0.0
  9
$PUCSORGBOTTOM
 10
0.0
 20
0.0
 30
0.0
  9
$PUCSORGLEFT
 10
0.0
 20
0.0
 30
0.0
  9
$PUCSORGRIGHT
 10
0.0
 20
0.0
 30
0.0
  9
$PUCSORGFRONT
 10
0.0
 20
0.0
 30
0.0
  9
$PUCSORGBACK
 10
0.0
 20
0.0
 30
0.0
  9
$USERI1
 70
     0
  9
$USERI2
 70
     0
  9
$USERI3
 70
     0
  9
$USERI4
 70
     0
  9
$USERI5
 70
     0
  9
$USERR1
 40
0.0
  9
$USERR2
 40
0.0
  9
$USERR3
 40
0.0
  9
$USERR4
 40
0.0
  9
$USERR5
 40
0.0
  9
$WORLDVIEW
 70
     1
  9
$SHADEDGE
 70
     3
  9
$SHADEDIF
 70
    70
  9
$TILEMODE
 70
     1
  9
$MAXACTVP
 70
    64
  9
$PINSBASE
 10
0.0
 20
0.0
 30
0.0
  9
$PLIMCHECK
 70
     0
  9
$PEXTMIN
 10
1.0000000000E+20
 20
1.0000000000E+20
 30
1.0000000000E+20
  9
$PEXTMAX
 10
-1.0000000000E+20
 20
-1.0000000000E+20
 30
-1.0000000000E+20
  9
$PLIMMIN
 10
0.0
 20
0.0
  9
$PLIMMAX
 10
420.0
 20
297.0
  9
$UNITMODE
 70
     0
  9
$VISRETAIN
 70
     1
  9
$PLINEGEN
 70
     0
  9
$PSLTSCALE
 70
     1
  9
$TREEDEPTH
 70
  3020
  9
$CMLSTYLE
  2
Standard
  9
$CMLJUST
 70
     0
  9
$CMLSCALE
 40
20.0
  9
$PROXYGRAPHICS
 70
     1
  9
$MEASUREMENT
 70
     1
  9
$CELWEIGHT
370
    -1
  9
$ENDCAPS
280
     0
  9
$JOINSTYLE
280
     0
  9
$LWDISPLAY
290
     1
  9
$INSUNITS
 70
     4
  9
$HYPERLINKBASE
  1

  9
$STYLESHEET
  1

  9
$XEDIT
290
     1
  9
$CEPSNTYPE
380
     0
  9
$PSTYLEMODE
290
     1
  9
$FINGERPRINTGUID
  2
{AD05EA8D-9680-4198-A99F-25D8BA942529}
  9
$VERSIONGUID
  2
{FAEB1C32-E019-11D5-929B-00C0DF256EC4}
  9
$EXTNAMES
290
     1
  9
$PSVPSCALE
 40
0.0
  9
$OLESTARTUP
290
     0
  0
ENDSEC
  0
SECTION
  2
CLASSES
  0
CLASS
  1
ACDBDICTIONARYWDFLT
  2
AcDbDictionaryWithDefault
  3
ObjectDBX Classes
 90
        0
280
     0
281
     0
  0
CLASS
  1
VISUALSTYLE
  2
AcDbVisualStyle
  3
ObjectDBX Classes
 90
     4095
280
     0
281
     0
  0
CLASS
  1
DICTIONARYVAR
  2
AcDbDictionaryVar
  3
ObjectDBX Classes
 90
        0
280
     0
281
     0
  0
CLASS
  1
ACDBPLACEHOLDER
  2
AcDbPlaceHolder
  3
ObjectDBX Classes
 90
        0
280
     0
281
     0
  0
CLASS
  1
LAYOUT
  2
AcDbLayout
  3
ObjectDBX Classes
 90
        0
280
     0
281
     0
  0
ENDSEC
  0
SECTION
  2
TABLES
  0
TABLE
  2
VPORT
  5
8
330
0
100
AcDbSymbolTable
 70
     1
  0
VPORT
  5
29
330
8
100
AcDbSymbolTableRecord
100
AcDbViewportTableRecord
  2
*Active
 70
     0
 10
0.0
 20
0.0
 11
1.0
 21
1.0
 12
148.5
 22
105.0
 13
0.0
 23
0.0
 14
10.0
 24
10.0
 15
10.0
 25
10.0
 16
0.0
 26
0.0
 36
1.0
 17
0.0
 27
0.0
 37
0.0
 40
210.0
 41
1.4142857143
 42
50.0
 43
0.0
 44
0.0
 50
0.0
 51
0.0
 71
     0
 72
  2000
 73
     1
 74
     3
 75
     0
 76
     0
 77
     0
 78
     0
281
     0
 65
     1
110
0.0
120
0.0
130
0.0
111
1.0
121
0.0
131
0.0
112
0.0
122
1.0
132
0.0
 79
     0
146
0.0
  0
ENDTAB
  0
TABLE
  2
LTYPE
  5
5
330
0
100
AcDbSymbolTable
 70
     6
  0
LTYPE
  5
14
330
5
100
AcDbSymbolTableRecord
100
AcDbLinetypeTableRecord
  2
ByBlock
 70
     0
  3

 72
    65
 73
     0
 40
0.0
  0
LTYPE
  5
15
330
5
100
AcDbSymbolTableRecord
100
AcDbLinetypeTableRecord
  2
ByLayer
 70
     0
  3

 72
    65
 73
     0
 40
0.0
  0
LTYPE
  5
16
330
5
100
AcDbSymbolTableRecord
100
AcDbLinetypeTableRecord
  2
Continuous
 70
     0
  3
Solid line
 72
    65
 73
     0
 40
0.0
  0
LTYPE
  5
3B
330
5
100
AcDbSymbolTableRecord
100
AcDbLinetypeTableRecord
  2
HIDDEN
 70
     0
  3
Hidden __ __ __ __ __ __ __ __ __ __ __ __ __ __
 72
    65
 73
     2
 40
1.905
 49
1.27
 74
     0
 49
-0.635
 74
     0
  0
LTYPE
  5
3C
330
5
100
AcDbSymbolTableRecord
100
AcDbLinetypeTableRecord
  2
PHANTOM
 70
     0
  3
Phantom ______  __  __  ______  __  __  ______
 72
    65
 73
     6
 40
12.7
 49
6.35
 74
     0
 49
-1.27
 74
     0
 49
1.27
 74
     0
 49
-1.27
 74
     0
 49
1.27
 74
     0
 49
-1.27
 74
     0
  0
LTYPE
  5
3D
330
5
100
AcDbSymbolTableRecord
100
AcDbLinetypeTableRecord
  2
CENTER
 70
     0
  3
Center ____ _ ____ _ ____ _ ____ _ ____ _ ____
 72
    65
 73
     4
 40
10.16
 49
6.35
 74
     0
 49
-1.27
 74
     0
 49
1.27
 74
     0
 49
-1.27
 74
     0
  0
LTYPE
  5
3E
330
5
100
AcDbSymbolTableRecord
100
AcDbLinetypeTableRecord
  2
CENTERX2
 70
     0
  3
Center (2x) ________  __  ________  __  _____
 72
    65
 73
     4
 40
20.32
 49
12.7
 74
     0
 49
-2.54
 74
     0
 49
2.54
 74
     0
 49
-2.54
 74
     0
  0
LTYPE
  5
3F
330
5
100
AcDbSymbolTableRecord
100
AcDbLinetypeTableRecord
  2
DOT2
 70
     0
  3
Dot (.5x) ........................................
 72
    65
 73
     2
 40
0.635
 49
0.0
 74
     0
 49
-0.635
 74
     0
  0
ENDTAB
  0
TABLE
  2
LAYER
  5
2
330
0
100
AcDbSymbolTable
 70
     5
  0
LAYER
  5
10
330
2
100
AcDbSymbolTableRecord
100
AcDbLayerTableRecord
  2
0
 70
     0
 62
     7
  6
Continuous
370
    -3
390
F
  0
LAYER
  5
40
330
2
100
AcDbSymbolTableRecord
100
AcDbLayerTableRecord
  2
FORMAT
 70
     0
 62
     7
  6
Continuous
370
    -3
390
F
  0
LAYER
  5
41
330
2
100
AcDbSymbolTableRecord
100
AcDbLayerTableRecord
  2
VERMASSUNG
 70
     0
 62
     7
  6
Continuous
370
    -3
390
F
  0
LAYER
  5
42
330
2
100
AcDbSymbolTableRecord
100
AcDbLayerTableRecord
  2
KOPF_DÜNN
 70
     0
 62
     7
  6
Continuous
370
    -3
390
F
  0
LAYER
  5
43
330
2
100
AcDbSymbolTableRecord
100
AcDbLayerTableRecord
  2
KOPF_DICK
 70
     0
 62
     7
  6
Continuous
370
    15
390
F
  0
ENDTAB
  0
TABLE
  2
STYLE
  5
3
330
0
100
AcDbSymbolTable
 70
     3
  0
STYLE
  5
11
330
3
100
AcDbSymbolTableRecord
100
AcDbTextStyleTableRecord
  2
Standard
 70
     0
 40
0.0
 41
1.0
 50
0.0
 71
     0
 42
2.5
  3
txt
  4

  0
STYLE
  5
44
330
3
100
AcDbSymbolTableRecord
100
AcDbTextStyleTableRecord
  2
SLDTEXTSTYLE0
 70
     0
 40
0.0
 41
0.7
 50
0.0
 71
     0
 42
0.2
  3
TXT
  4

  0
STYLE
  5
48
330
3
100
AcDbSymbolTableRecord
100
AcDbTextStyleTableRecord
  2
SLDTEXTSTYLE1
 70
     0
 40
0.0
 41
0.65
 50
0.0
 71
     0
 42
0.2
  3
TXT
  4

  0
ENDTAB
  0
TABLE
  2
VIEW
  5
6
330
0
100
AcDbSymbolTable
 70
     0
  0
ENDTAB
  0
TABLE
  2
UCS
  5
7
330
0
100
AcDbSymbolTable
 70
     0
  0
ENDTAB
  0
TABLE
  2
APPID
  5
9
330
0
100
AcDbSymbolTable
 70
     1
  0
APPID
  5
12
330
9
100
AcDbSymbolTableRecord
100
AcDbRegAppTableRecord
  2
ACAD
 70
     0
  0
ENDTAB
  0
TABLE
  2
DIMSTYLE
  5
A
330
0
100
AcDbSymbolTable
 70
     5
100
AcDbDimStyleTable
  0
DIMSTYLE
105
27
330
A
100
AcDbSymbolTableRecord
100
AcDbDimStyleTableRecord
  2
ISO-25
 70
     0
 41
2.5
 42
0.625
 43
3.75
 44
1.25
 73
     0
 74
     0
 77
     1
 78
     8
140
2.5
141
2.5
143
0.0393700787
147
0.625
171
     3
172
     1
271
     2
272
     2
274
     3
278
    44
283
     0
284
     8
340
11
  0
DIMSTYLE
105
1A4
102
{ACAD_REACTORS
330
1A3
330
1D4
330
1DE
330
1E8
330
1F2
102
}
330
A
100
AcDbSymbolTableRecord
100
AcDbDimStyleTableRecord
  2
SLDDIMSTYLE0
 70
     0
 41
3.0
 44
0.0
 45
0.000000001
 73
     0
 74
     0
 77
     1
 78
    12
140
2.0
147
0.5
173
     1
271
     2
272
     3
284
    12
340
44
  0
DIMSTYLE
105
1B1
102
{ACAD_REACTORS
330
1B0
102
}
330
A
100
AcDbSymbolTableRecord
100
AcDbDimStyleTableRecord
  2
SLDDIMSTYLE1
 70
     0
 41
3.0
 44
0.0
 45
0.000000001
 73
     0
 74
     0
 77
     1
 78
    12
140
2.0
147
0.5
173
     1
271
     2
272
     2
284
    12
340
44
  0
DIMSTYLE
105
1BC
102
{ACAD_REACTORS
330
1BB
102
}
330
A
100
AcDbSymbolTableRecord
100
AcDbDimStyleTableRecord
  2
SLDDIMSTYLE2
 70
     0
 41
3.0
 44
0.0
 45
0.000000001
 73
     0
 74
     0
 77
     1
 78
    12
140
2.0
147
0.5
173
     1
271
     2
272
     2
284
    12
340
44
  0
DIMSTYLE
105
1C9
102
{ACAD_REACTORS
330
1C8
102
}
330
A
100
AcDbSymbolTableRecord
100
AcDbDimStyleTableRecord
  2
SLDDIMSTYLE3
 70
     0
 41
3.0
 44
0.0
 45
0.000000001
 73
     0
 74
     0
 77
     1
 78
    12
140
2.0
147
0.5
173
     1
271
     2
272
     3
284
    12
340
44
  0
ENDTAB
  0
TABLE
  2
BLOCK_RECORD
  5
1
330
0
100
AcDbSymbolTable
 70
     9
  0
BLOCK_RECORD
  5
1F
330
1
100
AcDbSymbolTableRecord
100
AcDbBlockTableRecord
  2
*Model_Space
340
22
  0
BLOCK_RECORD
  5
1B
330
1
100
AcDbSymbolTableRecord
100
AcDbBlockTableRecord
  2
*Paper_Space
340
1E
  0
BLOCK_RECORD
  5
23
330
1
100
AcDbSymbolTableRecord
100
AcDbBlockTableRecord
  2
*Paper_Space0
340
26
  0
BLOCK_RECORD
  5
1A5
330
1
100
AcDbSymbolTableRecord
100
AcDbBlockTableRecord
  2
*D1
340
0
  0
BLOCK_RECORD
  5
1B2
330
1
100
AcDbSymbolTableRecord
100
AcDbBlockTableRecord
  2
*D2
340
0
  0
BLOCK_RECORD
  5
1BD
330
1
100
AcDbSymbolTableRecord
100
AcDbBlockTableRecord
  2
*D3
340
0
  0
BLOCK_RECORD
  5
1CA
330
1
100
AcDbSymbolTableRecord
100
AcDbBlockTableRecord
  2
*D4
340
0
  0
BLOCK_RECORD
  5
1D5
330
1
100
AcDbSymbolTableRecord
100
AcDbBlockTableRecord
  2
*D5
340
0
  0
BLOCK_RECORD
  5
1DF
330
1
100
AcDbSymbolTableRecord
100
AcDbBlockTableRecord
  2
*D6
340
0
  0
BLOCK_RECORD
  5
1E9
330
1
100
AcDbSymbolTableRecord
100
AcDbBlockTableRecord
  2
*D7
340
0
  0
BLOCK_RECORD
  5
1F3
330
1
100
AcDbSymbolTableRecord
100
AcDbBlockTableRecord
  2
*D8
340
0
  0
ENDTAB
  0
ENDSEC
  0
SECTION
  2
BLOCKS
  0
BLOCK
  5
20
330
1F
100
AcDbEntity
  8
0
100
AcDbBlockBegin
  2
*Model_Space
 70
     0
 10
0.0
 20
0.0
 30
0.0
  3
*Model_Space
  1

  0
ENDBLK
  5
21
330
1F
100
AcDbEntity
  8
0
100
AcDbBlockEnd
  0
BLOCK
  5
1C
330
1B
100
AcDbEntity
 67
     1
  8
0
100
AcDbBlockBegin
  2
*Paper_Space
 70
     0
 10
0.0
 20
0.0
 30
0.0
  3
*Paper_Space
  1

  0
ENDBLK
  5
1D
330
1B
100
AcDbEntity
 67
     1
  8
0
100
AcDbBlockEnd
  0
BLOCK
  5
24
330
23
100
AcDbEntity
  8
0
100
AcDbBlockBegin
  2
*Paper_Space0
 70
     0
 10
0.0
 20
0.0
 30
0.0
  3
*Paper_Space0
  1

  0
ENDBLK
  5
25
330
23
100
AcDbEntity
  8
0
100
AcDbBlockEnd
  0
BLOCK
  5
1A6
330
1A5
100
AcDbEntity
  8
0
100
AcDbBlockBegin
  2
*D1
 70
     1
 10
0.0
 20
0.0
 30
0.0
  3
*D1
  1

  0
SOLID
  5
1A8
330
1A5
100
AcDbEntity
  8
VERMASSUNG
100
AcDbTrace
 10
73.3095341278
 20
156.9725893824
 30
0.0
 11
72.8595341278
 21
153.9725893824
 31
0.0
 12
73.7595341278
 22
153.9725893824
 32
0.0
 13
73.7595341278
 23
153.9725893824
 33
0.0
  0
SOLID
  5
1A9
330
1A5
100
AcDbEntity
  8
VERMASSUNG
100
AcDbTrace
 10
73.3095341278
 20
56.9725893824
 30
0.0
 11
73.7595341278
 21
59.9725893824
 31
0.0
 12
72.8595341278
 22
59.9725893824
 32
0.0
 13
72.8595341278
 23
59.9725893824
 33
0.0
  0
LINE
  5
1AA
330
1A5
100
AcDbEntity
  8
VERMASSUNG
100
AcDbLine
 10
129.495206066
 20
156.9725893824
 30
0.0
 11
72.3095341278
 21
156.9725893824
 31
0.0
  0
LINE
  5
1AB
330
1A5
100
AcDbEntity
  8
VERMASSUNG
100
AcDbLine
 10
129.495206066
 20
56.9725893824
 30
0.0
 11
72.3095341278
 21
56.9725893824
 31
0.0
  0
LINE
  5
1AC
330
1A5
100
AcDbEntity
  8
VERMASSUNG
100
AcDbLine
 10
73.3095341278
 20
156.9725893824
 30
0.0
 11
73.3095341278
 21
56.9725893824
 31
0.0
  0
MTEXT
  5
1AD
330
1A5
100
AcDbEntity
  8
VERMASSUNG
100
AcDbMText
 10
70.5313986388
 20
98.7689382449
 30
0.0
 40
2.0
 41
0.0
 71
     1
 72
     1
  1
HSK A 
  7
SLDTEXTSTYLE0
 11
-7.044195017643634E-15
 21
1.0
 31
0.0
 73
     1
 44
1.0
  0
MTEXT
  5
1AE
330
1A5
100
AcDbEntity
  8
VERMASSUNG
100
AcDbMText
 10
70.7313986483
 20
107.7689387887
 30
0.0
 40
2.0
 41
0.0
 71
     1
 72
     1
  1
%%c
  7
SLDTEXTSTYLE0
 11
-7.044195017643634E-15
 21
1.0
 31
0.0
 73
     1
 44
1.0
  0
MTEXT
  5
1AF
330
1A5
100
AcDbEntity
  8
VERMASSUNG
100
AcDbMText
 10
70.7313987647
 20
111.3772654388
 30
0.0
 40
2.0
 41
0.0
 71
     1
 72
     1
  1
100
  7
SLDTEXTSTYLE0
 11
-7.044195017643634E-15
 21
1.0
 31
0.0
 73
     1
 44
1.0
  0
ENDBLK
  5
1A7
330
1A5
100
AcDbEntity
  8
0
100
AcDbBlockEnd
  0
BLOCK
  5
1B3
330
1B2
100
AcDbEntity
  8
0
100
AcDbBlockBegin
  2
*D2
 70
     1
 10
0.0
 20
0.0
 30
0.0
  3
*D2
  1

  0
SOLID
  5
1B5
330
1B2
100
AcDbEntity
  8
VERMASSUNG
100
AcDbTrace
 10
177.495206066
 20
154.9725893824
 30
0.0
 11
180.495206066
 21
154.5225893824
 31
0.0
 12
180.495206066
 22
155.4225893824
 32
0.0
 13
180.495206066
 23
155.4225893824
 33
0.0
  0
SOLID
  5
1B6
330
1B2
100
AcDbEntity
  8
VERMASSUNG
100
AcDbTrace
 10
218.995206066
 20
154.9725893824
 30
0.0
 11
215.995206066
 21
155.4225893824
 31
0.0
 12
215.995206066
 22
154.5225893824
 32
0.0
 13
215.995206066
 23
154.5225893824
 33
0.0
  0
LINE
  5
1B7
330
1B2
100
AcDbEntity
  8
VERMASSUNG
100
AcDbLine
 10
177.495206066
 20
111.8725893824
 30
0.0
 11
177.495206066
 21
155.9725893824
 31
0.0
  0
LINE
  5
1B8
330
1B2
100
AcDbEntity
  8
VERMASSUNG
100
AcDbLine
 10
218.995206066
 20
117.1238083991
 30
0.0
 11
218.995206066
 21
155.9725893824
 31
0.0
  0
LINE
  5
1B9
330
1B2
100
AcDbEntity
  8
VERMASSUNG
100
AcDbLine
 10
177.495206066
 20
154.9725893824
 30
0.0
 11
218.995206066
 21
154.9725893824
 31
0.0
  0
MTEXT
  5
1BA
330
1B2
100
AcDbEntity
  8
VERMASSUNG
100
AcDbMText
 10
195.9453989154
 20
157.5507247456
 30
0.0
 40
2.0
 41
0.0
 71
     1
 72
     1
  1
41.5
  7
SLDTEXTSTYLE0
 73
     1
 44
1.0
  0
ENDBLK
  5
1B4
330
1B2
100
AcDbEntity
  8
0
100
AcDbBlockEnd
  0
BLOCK
  5
1BE
330
1BD
100
AcDbEntity
  8
0
100
AcDbBlockBegin
  2
*D3
 70
     1
 10
0.0
 20
0.0
 30
0.0
  3
*D3
  1

  0
SOLID
  5
1C0
330
1BD
100
AcDbEntity
  8
VERMASSUNG
100
AcDbTrace
 10
226.4752979415
 20
101.9725893824
 30
0.0
 11
226.9252979415
 21
104.9725893824
 31
0.0
 12
226.0252979415
 22
104.9725893824
 32
0.0
 13
226.0252979415
 23
104.9725893824
 33
0.0
  0
SOLID
  5
1C1
330
1BD
100
AcDbEntity
  8
VERMASSUNG
100
AcDbTrace
 10
226.4752979415
 20
111.9725893824
 30
0.0
 11
226.0252979415
 21
108.9725893824
 31
0.0
 12
226.9252979415
 22
108.9725893824
 32
0.0
 13
226.9252979415
 23
108.9725893824
 33
0.0
  0
LINE
  5
1C2
330
1BD
100
AcDbEntity
  8
VERMASSUNG
100
AcDbLine
 10
215.495206066
 20
101.9725893824
 30
0.0
 11
227.4752979415
 21
101.9725893824
 31
0.0
  0
LINE
  5
1C3
330
1BD
100
AcDbEntity
  8
VERMASSUNG
100
AcDbLine
 10
215.495206066
 20
111.9725893824
 30
0.0
 11
227.4752979415
 21
111.9725893824
 31
0.0
  0
LINE
  5
1C4
330
1BD
100
AcDbEntity
  8
VERMASSUNG
100
AcDbLine
 10
226.4752979415
 20
101.9725893824
 30
0.0
 11
226.4752979415
 21
111.9725893824
 31
0.0
  0
MTEXT
  5
1C5
330
1BD
100
AcDbEntity
  8
VERMASSUNG
100
AcDbMText
 10
223.897162462
 20
103.368552546
 30
0.0
 40
2.0
 41
0.0
 71
     1
 72
     1
  1
%%c
  7
SLDTEXTSTYLE0
 11
6.123233995736766E-17
 21
1.0
 31
0.0
 73
     1
 44
1.0
  0
MTEXT
  5
1C6
330
1BD
100
AcDbEntity
  8
VERMASSUNG
100
AcDbMText
 10
223.8971625784
 20
106.9772307692
 30
0.0
 40
2.0
 41
0.0
 71
     1
 72
     1
  1
10
  7
SLDTEXTSTYLE0
 11
6.123233995736766E-17
 21
1.0
 31
0.0
 73
     1
 44
1.0
  0
MTEXT
  5
1C7
330
1BD
100
AcDbEntity
  8
VERMASSUNG
100
AcDbMText
 10
223.8971625784
 20
109.3768277356
 30
0.0
 40
2.0
 41
0.0
 71
     1
 72
     1
  1
 
  7
SLDTEXTSTYLE0
 11
6.123233995736766E-17
 21
1.0
 31
0.0
 73
     1
 44
1.0
  0
ENDBLK
  5
1BF
330
1BD
100
AcDbEntity
  8
0
100
AcDbBlockEnd
  0
BLOCK
  5
1CB
330
1CA
100
AcDbEntity
  8
0
100
AcDbBlockBegin
  2
*D4
 70
     1
 10
0.0
 20
0.0
 30
0.0
  3
*D4
  1

  0
SOLID
  5
1CD
330
1CA
100
AcDbEntity
  8
VERMASSUNG
100
AcDbTrace
 10
232.4752979415
 20
94.9725893824
 30
0.0
 11
232.9252979415
 21
97.9725893824
 31
0.0
 12
232.0252979415
 22
97.9725893824
 32
0.0
 13
232.0252979415
 23
97.9725893824
 33
0.0
  0
SOLID
  5
1CE
330
1CA
100
AcDbEntity
  8
VERMASSUNG
100
AcDbTrace
 10
232.4752979415
 20
118.9725893824
 30
0.0
 11
232.0252979415
 21
115.9725893824
 31
0.0
 12
232.9252979415
 22
115.9725893824
 32
0.0
 13
232.9252979415
 23
115.9725893824
 33
0.0
  0
LINE
  5
1CF
330
1CA
100
AcDbEntity
  8
VERMASSUNG
100
AcDbLine
 10
218.995206066
 20
94.9725893824
 30
0.0
 11
233.4752979415
 21
94.9725893824
 31
0.0
  0
LINE
  5
1D0
330
1CA
100
AcDbEntity
  8
VERMASSUNG
100
AcDbLine
 10
218.995206066
 20
118.9725893824
 30
0.0
 11
233.4752979415
 21
118.9725893824
 31
0.0
  0
LINE
  5
1D1
330
1CA
100
AcDbEntity
  8
VERMASSUNG
100
AcDbLine
 10
232.4752979415
 20
94.9725893824
 30
0.0
 11
232.4752979415
 21
118.9725893824
 31
0.0
  0
MTEXT
  5
1D2
330
1CA
100
AcDbEntity
  8
VERMASSUNG
100
AcDbMText
 10
229.897162462
 20
103.6690823402
 30
0.0
 40
2.0
 41
0.0
 71
     1
 72
     1
  1
%%c
  7
SLDTEXTSTYLE0
 11
6.123233995736766E-17
 21
1.0
 31
0.0
 73
     1
 44
1.0
  0
MTEXT
  5
1D3
330
1CA
100
AcDbEntity
  8
VERMASSUNG
100
AcDbMText
 10
229.8971625784
 20
107.2777605634
 30
0.0
 40
2.0
 41
0.0
 71
     1
 72
     1
  1
24
  7
SLDTEXTSTYLE0
 11
6.123233995736766E-17
 21
1.0
 31
0.0
 73
     1
 44
1.0
  0
ENDBLK
  5
1CC
330
1CA
100
AcDbEntity
  8
0
100
AcDbBlockEnd
  0
BLOCK
  5
1D6
330
1D5
100
AcDbEntity
  8
0
100
AcDbBlockBegin
  2
*D5
 70
     1
 10
0.0
 20
0.0
 30
0.0
  3
*D5
  1

  0
SOLID
  5
1D8
330
1D5
100
AcDbEntity
  8
VERMASSUNG
100
AcDbTrace
 10
128.995206066
 20
166.9725893824
 30
0.0
 11
131.995206066
 21
166.5225893824
 31
0.0
 12
131.995206066
 22
167.4225893824
 32
0.0
 13
131.995206066
 23
167.4225893824
 33
0.0
  0
SOLID
  5
1D9
330
1D5
100
AcDbEntity
  8
VERMASSUNG
100
AcDbTrace
 10
218.995206066
 20
166.9725893824
 30
0.0
 11
215.995206066
 21
167.4225893824
 31
0.0
 12
215.995206066
 22
166.5225893824
 32
0.0
 13
215.995206066
 23
166.5225893824
 33
0.0
  0
LINE
  5
1DA
330
1D5
100
AcDbEntity
  8
VERMASSUNG
100
AcDbLine
 10
128.995206066
 20
156.4725893824
 30
0.0
 11
128.995206066
 21
167.9725893824
 31
0.0
  0
LINE
  5
1DB
330
1D5
100
AcDbEntity
  8
VERMASSUNG
100
AcDbLine
 10
218.995206066
 20
117.1238083991
 30
0.0
 11
218.995206066
 21
167.9725893824
 31
0.0
  0
LINE
  5
1DC
330
1D5
100
AcDbEntity
  8
VERMASSUNG
100
AcDbLine
 10
128.995206066
 20
166.9725893824
 30
0.0
 11
218.995206066
 21
166.9725893824
 31
0.0
  0
MTEXT
  5
1DD
330
1D5
100
AcDbEntity
  8
VERMASSUNG
100
AcDbMText
 10
172.5958279511
 20
169.5507247456
 30
0.0
 40
2.0
 41
0.0
 71
     1
 72
     1
  1
90
  7
SLDTEXTSTYLE0
 73
     1
 44
1.0
  0
ENDBLK
  5
1D7
330
1D5
100
AcDbEntity
  8
0
100
AcDbBlockEnd
  0
BLOCK
  5
1E0
330
1DF
100
AcDbEntity
  8
0
100
AcDbBlockBegin
  2
*D6
 70
     1
 10
0.0
 20
0.0
 30
0.0
  3
*D6
  1

  0
SOLID
  5
1E2
330
1DF
100
AcDbEntity
  8
VERMASSUNG
100
AcDbTrace
 10
157.945206066
 20
160.9725893824
 30
0.0
 11
160.945206066
 21
160.5225893824
 31
0.0
 12
160.945206066
 22
161.4225893824
 32
0.0
 13
160.945206066
 23
161.4225893824
 33
0.0
  0
SOLID
  5
1E3
330
1DF
100
AcDbEntity
  8
VERMASSUNG
100
AcDbTrace
 10
218.995206066
 20
160.9725893824
 30
0.0
 11
215.995206066
 21
161.4225893824
 31
0.0
 12
215.995206066
 22
160.5225893824
 32
0.0
 13
215.995206066
 23
160.5225893824
 33
0.0
  0
LINE
  5
1E4
330
1DF
100
AcDbEntity
  8
VERMASSUNG
100
AcDbLine
 10
157.945206066
 20
154.9413292033
 30
0.0
 11
157.945206066
 21
161.9725893824
 31
0.0
  0
LINE
  5
1E5
330
1DF
100
AcDbEntity
  8
VERMASSUNG
100
AcDbLine
 10
218.995206066
 20
117.1238083991
 30
0.0
 11
218.995206066
 21
161.9725893824
 31
0.0
  0
LINE
  5
1E6
330
1DF
100
AcDbEntity
  8
VERMASSUNG
100
AcDbLine
 10
157.945206066
 20
160.9725893824
 30
0.0
 11
218.995206066
 21
160.9725893824
 31
0.0
  0
MTEXT
  5
1E7
330
1DF
100
AcDbEntity
  8
VERMASSUNG
100
AcDbMText
 10
185.5704996738
 20
163.5507247456
 30
0.0
 40
2.0
 41
0.0
 71
     1
 72
     1
  1
61.05
  7
SLDTEXTSTYLE0
 73
     1
 44
1.0
  0
ENDBLK
  5
1E1
330
1DF
100
AcDbEntity
  8
0
100
AcDbBlockEnd
  0
BLOCK
  5
1EA
330
1E9
100
AcDbEntity
  8
0
100
AcDbBlockBegin
  2
*D7
 70
     1
 10
0.0
 20
0.0
 30
0.0
  3
*D7
  1

  0
SOLID
  5
1EC
330
1E9
100
AcDbEntity
  8
VERMASSUNG
100
AcDbTrace
 10
79.095206066
 20
172.9725893824
 30
0.0
 11
82.095206066
 21
172.5225893824
 31
0.0
 12
82.095206066
 22
173.4225893824
 32
0.0
 13
82.095206066
 23
173.4225893824
 33
0.0
  0
SOLID
  5
1ED
330
1E9
100
AcDbEntity
  8
VERMASSUNG
100
AcDbTrace
 10
218.995206066
 20
172.9725893824
 30
0.0
 11
215.995206066
 21
173.4225893824
 31
0.0
 12
215.995206066
 22
172.5225893824
 32
0.0
 13
215.995206066
 23
172.5225893824
 33
0.0
  0
LINE
  5
1EE
330
1E9
100
AcDbEntity
  8
VERMASSUNG
100
AcDbLine
 10
79.095206066
 20
137.475259125
 30
0.0
 11
79.095206066
 21
173.9725893824
 31
0.0
  0
LINE
  5
1EF
330
1E9
100
AcDbEntity
  8
VERMASSUNG
100
AcDbLine
 10
218.995206066
 20
117.1238083991
 30
0.0
 11
218.995206066
 21
173.9725893824
 31
0.0
  0
LINE
  5
1F0
330
1E9
100
AcDbEntity
  8
VERMASSUNG
100
AcDbLine
 10
79.095206066
 20
172.9725893824
 30
0.0
 11
218.995206066
 21
172.9725893824
 31
0.0
  0
MTEXT
  5
1F1
330
1E9
100
AcDbEntity
  8
VERMASSUNG
100
AcDbMText
 10
146.1454996738
 20
175.5507247456
 30
0.0
 40
2.0
 41
0.0
 71
     1
 72
     1
  1
139.9
  7
SLDTEXTSTYLE0
 73
     1
 44
1.0
  0
ENDBLK
  5
1EB
330
1E9
100
AcDbEntity
  8
0
100
AcDbBlockEnd
  0
BLOCK
  5
1F4
330
1F3
100
AcDbEntity
  8
0
100
AcDbBlockBegin
  2
*D8
 70
     1
 10
0.0
 20
0.0
 30
0.0
  3
*D8
  1

  0
SOLID
  5
1F6
330
1F3
100
AcDbEntity
  8
VERMASSUNG
100
AcDbTrace
 10
238.4752979415
 20
121.9725893824
 30
0.0
 11
238.0252979415
 21
118.9725893824
 31
0.0
 12
238.9252979415
 22
118.9725893824
 32
0.0
 13
238.9252979415
 23
118.9725893824
 33
0.0
  0
SOLID
  5
1F7
330
1F3
100
AcDbEntity
  8
VERMASSUNG
100
AcDbTrace
 10
238.4752979415
 20
91.9725893824
 30
0.0
 11
238.9252979415
 21
94.9725893824
 31
0.0
 12
238.0252979415
 22
94.9725893824
 32
0.0
 13
238.0252979415
 23
94.9725893824
 33
0.0
  0
LINE
  5
1F8
330
1F3
100
AcDbEntity
  8
VERMASSUNG
100
AcDbLine
 10
180.995206066
 20
121.9725893824
 30
0.0
 11
239.4752979415
 21
121.9725893824
 31
0.0
  0
LINE
  5
1F9
330
1F3
100
AcDbEntity
  8
VERMASSUNG
100
AcDbLine
 10
180.8765918575
 20
91.9725893824
 30
0.0
 11
239.4752979415
 21
91.9725893824
 31
0.0
  0
LINE
  5
1FA
330
1F3
100
AcDbEntity
  8
VERMASSUNG
100
AcDbLine
 10
238.4752979415
 20
121.9725893824
 30
0.0
 11
238.4752979415
 21
91.9725893824
 31
0.0
  0
MTEXT
  5
1FB
330
1F3
100
AcDbEntity
  8
VERMASSUNG
100
AcDbMText
 10
235.897162462
 20
103.768872156
 30
0.0
 40
2.0
 41
0.0
 71
     1
 72
     1
  1
%%c
  7
SLDTEXTSTYLE0
 11
-7.044195017643634E-15
 21
1.0
 31
0.0
 73
     1
 44
1.0
  0
MTEXT
  5
1FC
330
1F3
100
AcDbEntity
  8
VERMASSUNG
100
AcDbMText
 10
235.8971625784
 20
107.3775503792
 30
0.0
 40
2.0
 41
0.0
 71
     1
 72
     1
  1
30
  7
SLDTEXTSTYLE0
 11
-7.044195017643634E-15
 21
1.0
 31
0.0
 73
     1
 44
1.0
  0
ENDBLK
  5
1F5
330
1F3
100
AcDbEntity
  8
0
100
AcDbBlockEnd
  0
ENDSEC
  0
SECTION
  2
ENTITIES
  0
MTEXT
  5
45
330
1F
100
AcDbEntity
  8
KOPF_DÜNN
100
AcDbMText
 10
13.8892156294
 20
23.8442973028
 30
0.0
 40
3.0
 41
0.0
 71
     1
 72
     1
  1
HA0.S10.K21.090
  7
SLDTEXTSTYLE0
 73
     1
 44
1.0
  0
MTEXT
  5
46
330
1F
100
AcDbEntity
  8
VERMASSUNG
100
AcDbMText
 10
13.9329988022
 20
28.8834360957
 30
0.0
 40
3.0
 41
0.0
 71
     1
 72
     1
  1
Schrumpffutter_Heat shrink chuck
  7
SLDTEXTSTYLE0
 73
     1
 44
1.0
  0
MTEXT
  5
47
330
1F
100
AcDbEntity
  8
VERMASSUNG
100
AcDbMText
 10
98.8601118557
 20
13.8365368179
 30
0.0
 40
2.0
 41
0.0
 71
     1
 72
     1
  1
Datum: 28.04.2011
  7
SLDTEXTSTYLE0
 73
     1
 44
1.0
  0
MTEXT
  5
49
330
1F
100
AcDbEntity
  8
VERMASSUNG
100
AcDbMText
 10
13.933048693
 20
18.0482802738
 30
0.0
 40
2.0
 41
0.0
 71
     1
 72
     1
  1
DIN 69 893 HSK A 100
  7
SLDTEXTSTYLE1
 73
     1
 44
1.0
  0
MTEXT
  5
4A
330
1F
100
AcDbEntity
  8
VERMASSUNG
100
AcDbMText
 10
13.9808475933
 20
13.9090973692
 30
0.0
 40
2.0
 41
0.0
 71
     1
 72
     1
  1
Gewicht: 2252g
  7
SLDTEXTSTYLE0
 73
     1
 44
1.0
  0
LINE
  5
4B
330
1F
100
AcDbEntity
  8
0
  6
Continuous
 62
     7
370
    15
100
AcDbLine
 10
219.0136385495
 20
116.1923060839
 30
0.0
 11
218.995206066
 21
116.2273404725
 31
0.0
  0
LINE
  5
4C
330
1F
100
AcDbEntity
  8
0
  6
Continuous
 62
     7
370
    15
100
AcDbLine
 10
218.995206066
 20
97.6082211221
 30
0.0
 11
219.0725282731
 21
97.7551864645
 31
0.0
  0
ARC
  5
4D
330
1F
100
AcDbEntity
  8
0
  6
Continuous
 62
     7
370
    15
100
AcDbCircle
 10
129.495206066
 20
57.4725893824
 30
0.0
 40
0.5
100
AcDbArc
 50
180.0
 51
270.0
  0
ARC
  5
4E
330
1F
100
AcDbEntity
  8
0
  6
Continuous
 62
     7
370
    15
100
AcDbCircle
 10
129.495206066
 20
156.4725893824
 30
0.0
 40
0.5
100
AcDbArc
 50
90.0
 51
180.0
  0
LINE
  5
4F
330
1F
100
AcDbEntity
  8
0
  6
Continuous
 62
     7
370
    15
100
AcDbLine
 10
129.495206066
 20
56.9725893824
 30
0.0
 11
133.945206066
 21
56.9725893824
 31
0.0
  0
LINE
  5
50
330
1F
100
AcDbEntity
  8
0
  6
Continuous
 62
     7
370
    15
100
AcDbLine
 10
133.9605840375
 20
156.9725893824
 30
0.0
 11
129.495206066
 21
156.9725893824
 31
0.0
  0
ARC
  5
51
330
1F
100
AcDbEntity
  8
0
  6
Continuous
 62
     7
370
    15
100
AcDbCircle
 10
128.0982691475
 20
68.344104058
 30
0.0
 40
0.9962338214386921
100
AcDbArc
 50
25.7988228126
 51
90.0
  0
ARC
  5
52
330
1F
100
AcDbEntity
  8
0
  6
Continuous
 62
     7
370
    15
100
AcDbCircle
 10
128.0982691475
 20
145.6010747069
 30
0.0
 40
0.9962338214386921
100
AcDbArc
 50
270.0
 51
334.2011771874
  0
LINE
  5
53
330
1F
100
AcDbEntity
  8
0
  6
Continuous
 62
     7
370
    15
100
AcDbLine
 10
107.5145106447
 20
143.9039042411
 30
0.0
 11
89.195206066
 21
142.9861034105
 31
0.0
  0
LINE
  5
54
330
1F
100
AcDbEntity
  8
0
  6
Continuous
 62
     7
370
    15
100
AcDbLine
 10
126.495206066
 20
144.8548408855
 30
0.0
 11
120.4271669115
 21
144.5508309078
 31
0.0
  0
LINE
  5
55
330
1F
100
AcDbEntity
  8
0
  6
Continuous
 62
     7
370
    15
100
AcDbLine
 10
120.427290188
 20
69.3943416809
 30
0.0
 11
126.495206066
 21
69.0903378794
 31
0.0
  0
LINE
  5
56
330
1F
100
AcDbEntity
  8
0
  6
Continuous
 62
     7
370
    15
100
AcDbLine
 10
94.195206066
 20
70.7085743524
 30
0.0
 11
107.5151572199
 21
70.0412421302
 31
0.0
  0
LINE
  5
57
330
1F
100
AcDbEntity
  8
0
  6
Continuous
 62
     7
370
    15
100
AcDbLine
 10
126.495206066
 20
69.0903378794
 30
0.0
 11
127.3010522204
 21
69.3062637057
 31
0.0
  0
LINE
  5
58
330
1F
100
AcDbEntity
  8
0
  6
Continuous
 62
     7
370
    15
100
AcDbLine
 10
127.3010522204
 20
144.6389150592
 30
0.0
 11
126.495206066
 21
144.8548408855
 31
0.0
  0
ARC
  5
59
330
1F
100
AcDbEntity
  8
0
  6
Continuous
 62
     7
370
    15
100
AcDbCircle
 10
127.5598712655
 20
68.3403378794
 30
0.0
 40
0.9999999999999993
100
AcDbArc
 50
90.0
 51
105.0
  0
ARC
  5
5A
330
1F
100
AcDbEntity
  8
0
  6
Continuous
 62
     7
370
    15
100
AcDbCircle
 10
127.5598712655
 20
145.6048408855
 30
0.0
 40
1.000000000000027
100
AcDbArc
 50
255.0
 51
270.0
  0
LINE
  5
5B
330
1F
100
AcDbEntity
  8
0
  6
Continuous
 62
     7
370
    15
100
AcDbLine
 10
127.5598712655
 20
69.3403378794
 30
0.0
 11
128.0982691475
 21
69.3403378794
 31
0.0
  0
LINE
  5
5C
330
1F
100
AcDbEntity
  8
0
  6
Continuous
 62
     7
370
    15
100
AcDbLine
 10
128.0982691475
 20
144.6048408855
 30
0.0
 11
127.5598712655
 21
144.6048408855
 31
0.0
  0
ARC
  5
5D
330
1F
100
AcDbEntity
  8
0
  6
Continuous
 62
     7
370
    15
100
AcDbCircle
 10
162.945206066
 20
86.9725893824
 30
0.0
 40
5.0
100
AcDbArc
 50
90.0
 51
180.0
  0
ARC
  5
5E
330
1F
100
AcDbEntity
  8
0
  6
Continuous
 62
     7
370
    15
100
AcDbCircle
 10
162.945206066
 20
126.9725893824
 30
0.0
 40
5.000000000000014
100
AcDbArc
 50
180.0
 51
270.0
  0
LINE
  5
5F
330
1F
100
AcDbEntity
  8
0
  6
Continuous
 62
     7
370
    15
100
AcDbLine
 10
80.745206066
 20
74.7225893824
 30
0.0
 11
92.295206066
 21
74.7225893824
 31
0.0
  0
ARC
  5
60
330
1F
100
AcDbEntity
  8
0
  6
Continuous
 62
     7
370
    15
100
AcDbCircle
 10
92.295206066
 20
72.8225893824
 30
0.0
 40
1.899999999999996
100
AcDbArc
 50
35.6630613694
 51
90.0
  0
ARC
  5
61
330
1F
100
AcDbEntity
  8
0
  6
Continuous
 62
     7
370
    15
100
AcDbCircle
 10
87.295206066
 20
141.1225893824
 30
0.0
 40
1.900000000000006
100
AcDbArc
 50
270.0
 51
312.7708047792
  0
LINE
  5
62
330
1F
100
AcDbEntity
  8
0
  6
Continuous
 62
     7
370
    15
100
AcDbLine
 10
80.745206066
 20
139.2225893824
 30
0.0
 11
79.1529196011
 21
137.6303029175
 31
0.0
  0
LINE
  5
63
330
1F
100
AcDbEntity
  8
0
  6
Continuous
 62
     7
370
    15
100
AcDbLine
 10
79.1527289664
 20
76.315066482
 30
0.0
 11
80.745206066
 21
74.7225893824
 31
0.0
  0
LINE
  5
64
330
1F
100
AcDbEntity
  8
0
  6
Continuous
 62
     7
370
    15
100
AcDbLine
 10
87.295206066
 20
139.2225893824
 30
0.0
 11
80.745206066
 21
139.2225893824
 31
0.0
  0
LINE
  5
65
330
1F
100
AcDbEntity
  8
0
  6
Continuous
 62
     7
370
    15
100
AcDbLine
 10
174.4441934423
 20
91.9725893824
 30
0.0
 11
180.8765918575
 21
91.9725893824
 31
0.0
  0
LINE
  5
66
330
1F
100
AcDbEntity
  8
0
  6
Continuous
 62
     7
370
    15
100
AcDbLine
 10
162.945206066
 20
91.9725893824
 30
0.0
 11
167.4500564345
 21
91.9725893824
 31
0.0
  0
LINE
  5
67
330
1F
100
AcDbEntity
  8
0
  6
Continuous
 62
     7
370
    15
100
AcDbLine
 10
167.4463329539
 20
121.9725893824
 30
0.0
 11
162.945206066
 21
121.9725893824
 31
0.0
  0
LINE
  5
68
330
1F
100
AcDbEntity
  8
0
  6
Continuous
 62
     7
370
    15
100
AcDbLine
 10
180.995206066
 20
121.9725893824
 30
0.0
 11
174.4354439064
 21
121.9725893824
 31
0.0
  0
LINE
  5
69
330
1F
100
AcDbEntity
  8
0
  6
Continuous
 62
     7
370
    15
100
AcDbLine
 10
180.8765918575
 20
91.9725893824
 30
0.0
 11
217.1521242574
 21
94.8275356983
 31
0.0
  0
LINE
  5
6A
330
1F
100
AcDbEntity
  8
0
  6
Continuous
 62
     7
370
    15
100
AcDbLine
 10
217.1521242574
 20
119.1176430666
 30
0.0
 11
180.9903568008
 21
121.9636358872
 31
0.0
  0
ARC
  5
6B
330
1F
100
AcDbEntity
  8
0
  6
Continuous
 62
     7
370
    15
100
AcDbCircle
 10
216.995206066
 20
96.8213703658
 30
0.0
 40
2.000000000000002
100
AcDbArc
 50
274.5
 51
0.0
  0
ARC
  5
6C
330
1F
100
AcDbEntity
  8
0
  6
Continuous
 62
     7
370
    15
100
AcDbCircle
 10
216.995206066
 20
117.1238083991
 30
0.0
 40
2.000000000000002
100
AcDbArc
 50
0.0
 51
85.5
  0
LINE
  5
6D
330
1F
100
AcDbEntity
  8
0
  6
Continuous
 62
     7
370
    15
100
AcDbLine
 10
219.0136385495
 20
116.1923060839
 30
0.0
 11
218.995206066
 21
115.7231680514
 31
0.0
  0
LINE
  5
6E
330
1F
100
AcDbEntity
  8
0
  6
Continuous
 62
     7
370
    15
100
AcDbLine
 10
219.0246509278
 20
98.9737462742
 30
0.0
 11
219.0725282731
 21
97.7551864645
 31
0.0
  0
LINE
  5
6F
330
1F
100
AcDbEntity
  8
0
  6
Continuous
 62
     7
370
    15
100
AcDbLine
 10
218.995206066
 20
99.7231680514
 30
0.0
 11
219.0246509278
 21
98.9737462742
 31
0.0
  0
LINE
  5
70
330
1F
100
AcDbEntity
  8
0
  6
Continuous
 62
     7
370
    15
100
AcDbLine
 10
147.085206066
 20
60.6012010954
 30
0.0
 11
147.085206066
 21
138.3225893824
 31
0.0
  0
SPLINE
  5
71
330
1F
100
AcDbEntity
  8
0
  6
Continuous
 62
     7
370
    15
100
AcDbSpline
210
0.0
220
0.0
230
1.0
 70
     8
 71
     3
 72
     8
 73
     4
 74
     0
 42
0.00000001
 43
0.00000001
 40
0.0
 40
0.0
 40
0.0
 40
0.0
 40
1.0
 40
1.0
 40
1.0
 40
1.0
 10
147.08520606598
 20
60.60120109542513
 30
0.0
 10
146.6349796017022
 20
59.79974573280037
 30
0.0
 10
146.1842817744588
 20
58.99855572123971
 30
0.0
 10
145.7331770450586
 20
58.19759578941979
 30
0.0
  0
LINE
  5
72
330
1F
100
AcDbEntity
  8
0
  6
Continuous
 62
     7
370
    15
100
AcDbLine
 10
145.7331770451
 20
58.1975957894
 30
0.0
 11
145.7331770451
 21
138.3225893824
 31
0.0
  0
SPLINE
  5
73
330
1F
100
AcDbEntity
  8
0
  6
Continuous
 62
     7
370
    15
100
AcDbSpline
210
0.0
220
0.0
230
1.0
 70
    24
 71
     3
 72
     8
 73
     4
 74
     0
 42
0.00000001
 43
0.00000001
 40
0.0
 40
0.0
 40
0.0
 40
0.0
 40
1.0
 40
1.0
 40
1.0
 40
1.0
 10
145.7331770450586
 20
138.3225893824486
 30
0.0
 10
146.1899786173868
 20
138.3225893824486
 30
0.0
 10
146.640993183626
 20
138.3225893824486
 30
0.0
 10
147.08520606598
 20
138.3225893824486
 30
0.0
  0
LINE
  5
74
330
1F
100
AcDbEntity
  8
0
  6
Continuous
 62
     7
370
    15
100
AcDbLine
 10
152.2572350869
 20
58.1975957894
 30
0.0
 11
152.2572350869
 21
138.3225893824
 31
0.0
  0
SPLINE
  5
75
330
1F
100
AcDbEntity
  8
0
  6
Continuous
 62
     7
370
    15
100
AcDbSpline
210
0.0
220
0.0
230
1.0
 70
     8
 71
     3
 72
     8
 73
     4
 74
     0
 42
0.00000001
 43
0.00000001
 40
0.0
 40
0.0
 40
0.0
 40
0.0
 40
1.0
 40
1.0
 40
1.0
 40
1.0
 10
152.2572350869014
 20
58.19759578941979
 30
0.0
 10
151.8061303575012
 20
58.99855572123971
 30
0.0
 10
151.3554325302578
 20
59.79974573280037
 30
0.0
 10
150.90520606598
 20
60.60120109542513
 30
0.0
  0
LINE
  5
76
330
1F
100
AcDbEntity
  8
0
  6
Continuous
 62
     7
370
    15
100
AcDbLine
 10
150.905206066
 20
60.6012010954
 30
0.0
 11
150.905206066
 21
138.3225893824
 31
0.0
  0
SPLINE
  5
77
330
1F
100
AcDbEntity
  8
0
  6
Continuous
 62
     7
370
    15
100
AcDbSpline
210
0.0
220
0.0
230
1.0
 70
    24
 71
     3
 72
     8
 73
     4
 74
     0
 42
0.00000001
 43
0.00000001
 40
0.0
 40
0.0
 40
0.0
 40
0.0
 40
1.0
 40
1.0
 40
1.0
 40
1.0
 10
150.90520606598
 20
138.3225893824486
 30
0.0
 10
151.3494189483339
 20
138.3225893824486
 30
0.0
 10
151.8004335145731
 20
138.3225893824486
 30
0.0
 10
152.2572350869014
 20
138.3225893824486
 30
0.0
  0
LINE
  5
78
330
1F
100
AcDbEntity
  8
0
  6
Continuous
 62
     7
370
    15
100
AcDbLine
 10
128.995206066
 20
57.4725893824
 30
0.0
 11
128.995206066
 21
156.472589376
 31
0.0
  0
SPLINE
  5
79
330
1F
100
AcDbEntity
  8
0
  6
Continuous
 62
     7
370
    15
100
AcDbSpline
210
0.0
220
0.0
230
1.0
 70
     8
 71
     3
 72
    80
 73
    76
 74
     0
 42
0.00000001
 43
0.00000001
 40
-0.0312500000000001
 40
-0.0312500000000001
 40
0.0
 40
0.0
 40
0.0312499999999995
 40
0.0312499999999995
 40
0.0468749999999993
 40
0.0468749999999993
 40
0.0624999999999991
 40
0.0624999999999991
 40
0.0937499999999988
 40
0.0937499999999988
 40
0.1249999999999986
 40
0.1249999999999986
 40
0.1562499999999983
 40
0.1562499999999983
 40
0.1874999999999981
 40
0.1874999999999981
 40
0.2187499999999978
 40
0.2187499999999978
 40
0.2499999999999976
 40
0.2499999999999976
 40
0.2812499999999973
 40
0.2812499999999973
 40
0.3124999999999971
 40
0.3124999999999971
 40
0.3281249999999971
 40
0.3281249999999971
 40
0.3437499999999971
 40
0.3437499999999971
 40
0.3749999999999973
 40
0.3749999999999973
 40
0.4062499999999975
 40
0.4062499999999975
 40
0.4218749999999975
 40
0.4218749999999975
 40
0.4374999999999974
 40
0.4374999999999974
 40
0.4687499999999973
 40
0.4687499999999973
 40
0.4999999999999972
 40
0.4999999999999972
 40
0.531249999999997
 40
0.531249999999997
 40
0.562499999999997
 40
0.562499999999997
 40
0.5937499999999969
 40
0.5937499999999969
 40
0.6249999999999969
 40
0.6249999999999969
 40
0.6562499999999968
 40
0.6562499999999968
 40
0.6874999999999968
 40
0.6874999999999968
 40
0.7031249999999968
 40
0.7031249999999968
 40
0.7187499999999969
 40
0.7187499999999969
 40
0.7499999999999973
 40
0.7499999999999973
 40
0.7812499999999979
 40
0.7812499999999979
 40
0.7968749999999982
 40
0.7968749999999982
 40
0.8124999999999984
 40
0.8124999999999984
 40
0.8437499999999988
 40
0.8437499999999988
 40
0.874999999999999
 40
0.874999999999999
 40
0.9062499999999993
 40
0.9062499999999993
 40
0.9374999999999996
 40
0.9374999999999996
 40
0.9687499999999999
 40
0.9687499999999999
 40
1.0
 40
1.0
 40
1.03125
 40
1.03125
 10
137.6646607532037
 20
150.3872188460799
 30
0.0
 10
138.3257513787563
 20
150.3872188460799
 30
0.0
 10
138.6507315080079
 20
150.4034270774621
 30
0.0
 10
139.1302049192543
 20
150.4507917094816
 30
0.0
 10
139.2886867370952
 20
150.4704459213723
 30
0.0
 10
139.6029062695994
 20
150.5175570775649
 30
0.0
 10
139.7590265532798
 20
150.5451383970596
 30
0.0
 10
140.2130805822364
 20
150.6376741838534
 30
0.0
 10
140.5001839651762
 20
150.7127446174499
 30
0.0
 10
141.0435385212032
 20
150.8879829260605
 30
0.0
 10
141.3006421324088
 20
150.9889842238987
 30
0.0
 10
141.7615483873476
 20
151.2063404223596
 30
0.0
 10
141.9684460965626
 20
151.3235047541318
 30
0.0
 10
142.3339714105548
 20
151.5735746783605
 30
0.0
 10
142.4891769326807
 20
151.7045207671195
 30
0.0
 10
142.7386073192804
 20
151.9702557108319
 30
0.0
 10
142.8346972750656
 20
152.1070093041428
 30
0.0
 10
142.9632161242592
 20
152.3810748789818
 30
0.0
 10
142.995026994437
 20
152.5160149694506
 30
0.0
 10
142.9953836442102
 20
152.7814866065194
 30
0.0
 10
142.9628863920132
 20
152.9133110836606
 30
0.0
 10
142.8352609182987
 20
153.162760683281
 30
0.0
 10
142.7408325172468
 20
153.281193375209
 30
0.0
 10
142.5529716972613
 20
153.4500625723031
 30
0.0
 10
142.4821436984581
 20
153.5051485674233
 30
0.0
 10
142.3274218064928
 20
153.6104013959117
 30
0.0
 10
142.2434453363094
 20
153.660736624672
 30
0.0
 10
141.9721216666649
 20
153.8053124572101
 30
0.0
 10
141.7655724480626
 20
153.8931740436271
 30
0.0
 10
141.2989623078736
 20
154.0528951366266
 30
0.0
 10
141.0465967382482
 20
154.1221334330938
 30
0.0
 10
140.6406953965694
 20
154.2119208223236
 30
0.0
 10
140.5007947790919
 20
154.2394867844098
 30
0.0
 10
140.211570843845
 20
154.2899775853362
 30
0.0
 10
140.0617313875557
 20
154.3129410241869
 30
0.0
 10
139.6076148179449
 20
154.3735715406057
 30
0.0
 10
139.2959635992081
 20
154.4036455694015
 30
0.0
 10
138.6549671342957
 20
154.4442351566602
 30
0.0
 10
138.3234395063435
 20
154.4545473868762
 30
0.0
 10
137.6706484612721
 20
154.454622954042
 30
0.0
 10
137.3461122562402
 20
154.4447213485742
 30
0.0
 10
136.7008428068238
 20
154.404234818049
 30
0.0
 10
136.3850998006611
 20
154.3737735181643
 30
0.0
 10
135.7832105056774
 20
154.2936228467277
 30
0.0
 10
135.4924612748659
 20
154.2433406149206
 30
0.0
 10
134.9455494831814
 20
154.1226704321476
 30
0.0
 10
134.6937721193445
 20
154.0534465729776
 30
0.0
 10
134.2323841267234
 20
153.8959948453369
 30
0.0
 10
134.0211148471253
 20
153.8066463706631
 30
0.0
 10
133.6578104947491
 20
153.6133984999623
 30
0.0
 10
133.5040038463063
 20
153.5092705080831
 30
0.0
 10
133.3153843767089
 20
153.3406461218996
 30
0.0
 10
133.2593538904998
 20
153.2820177202246
 30
0.0
 10
133.1637801287636
 20
153.1625628053984
 30
0.0
 10
133.1240172117386
 20
153.1016430165602
 30
0.0
 10
133.0282454614265
 20
152.9152382903863
 30
0.0
 10
132.9955226223004
 20
152.7861254725913
 30
0.0
 10
132.9948940359713
 20
152.5174685496354
 30
0.0
 10
133.0270801807061
 20
152.3820978088787
 30
0.0
 10
133.1219908825616
 20
152.1785475006427
 30
0.0
 10
133.1614576659606
 20
152.1105755765793
 30
0.0
 10
133.2563876646815
 20
151.9744833534483
 30
0.0
 10
133.3121444924448
 20
151.9061332532389
 30
0.0
 10
133.5000846104148
 20
151.7054302401968
 30
0.0
 10
133.6534460801309
 20
151.5760419663841
 30
0.0
 10
134.0157103150113
 20
151.3273765343343
 30
0.0
 10
134.2265587884772
 20
151.2075668919661
 30
0.0
 10
134.6872287587961
 20
150.9900446043934
 30
0.0
 10
134.9386031383799
 20
150.8909595045575
 30
0.0
 10
135.4845110252781
 20
150.7142870306406
 30
0.0
 10
135.7753335999293
 20
150.6382299425066
 30
0.0
 10
136.3766602147093
 20
150.5153849651536
 30
0.0
 10
136.6911787993217
 20
150.4676788401005
 30
0.0
 10
137.3377602554417
 20
150.4034303049809
 30
0.0
 10
137.6646607532037
 20
150.3872188460799
 30
0.0
 10
138.3257513787563
 20
150.3872188460799
 30
0.0
  0
LINE
  5
7A
330
1F
100
AcDbEntity
  8
0
  6
Continuous
 62
     7
370
    15
100
AcDbLine
 10
133.945206066
 20
138.3225893824
 30
0.0
 11
145.7331770451
 21
138.3225893824
 31
0.0
  0
LINE
  5
7B
330
1F
100
AcDbEntity
  8
0
  6
Continuous
 62
     7
370
    15
100
AcDbLine
 10
145.7331770451
 20
58.1975957894
 30
0.0
 11
143.945206066
 21
58.1975957894
 31
0.0
  0
SPLINE
  5
7C
330
1F
100
AcDbEntity
  8
0
  6
Continuous
 62
     7
370
    15
100
AcDbSpline
210
0.0
220
0.0
230
1.0
 70
     8
 71
     3
 72
    30
 73
    26
 74
     0
 42
0.00000001
 43
0.00000001
 40
0.0
 40
0.0
 40
0.0
 40
0.0
 40
0.1250000000000002
 40
0.1250000000000002
 40
0.1875000000000003
 40
0.1875000000000003
 40
0.2500000000000004
 40
0.2500000000000004
 40
0.3750000000000001
 40
0.3750000000000001
 40
0.4374999999999998
 40
0.4374999999999998
 40
0.4999999999999996
 40
0.4999999999999996
 40
0.6249999999999996
 40
0.6249999999999996
 40
0.6874999999999997
 40
0.6874999999999997
 40
0.7499999999999997
 40
0.7499999999999997
 40
0.8124999999999998
 40
0.8124999999999998
 40
0.8749999999999999
 40
0.8749999999999999
 40
1.0
 40
1.0
 40
1.0
 40
1.0
 10
143.94520606598
 20
58.19759578941979
 30
0.0
 10
143.2824613721349
 20
58.1975957894198
 30
0.0
 10
142.6312055130192
 20
58.18275571283098
 30
0.0
 10
141.6707549747609
 20
58.14038614860137
 30
0.0
 10
141.353363531528
 20
58.12290804582219
 30
0.0
 10
140.7242000299731
 20
58.08157975926989
 30
0.0
 10
140.4120518435314
 20
58.05765448581219
 30
0.0
 10
139.5047445416832
 20
57.97884796934527
 30
0.0
 10
138.9313195840419
 20
57.91654194936881
 30
0.0
 10
138.1174427144672
 20
57.81341262912945
 30
0.0
 10
137.8526365178974
 20
57.77722871008294
 30
0.0
 10
137.345729107083
 20
57.70343392588244
 30
0.0
 10
137.1043349557295
 20
57.66596006711079
 30
0.0
 10
136.4151934835972
 20
57.55324812377106
 30
0.0
 10
136.002138668733
 20
57.47771202629728
 30
0.0
 10
135.4539838493579
 20
57.36931876927978
 30
0.0
 10
135.2845212420123
 20
57.33424653761652
 30
0.0
 10
134.9765039939969
 20
57.26801107701667
 30
0.0
 10
134.8371239733886
 20
57.23668438026195
 30
0.0
 10
134.5873384607619
 20
57.17827560868101
 30
0.0
 10
134.4769323481079
 20
57.15119237349817
 30
0.0
 10
134.2856744944702
 20
57.10193261888458
 30
0.0
 10
134.2045549761859
 20
57.07967063907694
 30
0.0
 10
134.0104080560775
 20
57.02210373190866
 30
0.0
 10
133.94520606598
 20
56.99584412712267
 30
0.0
 10
133.94520606598
 20
56.98259038264864
 30
0.0
  0
LINE
  5
7D
330
1F
100
AcDbEntity
  8
0
  6
Continuous
 62
     7
370
    15
100
AcDbLine
 10
133.945206066
 20
56.9825903826
 30
0.0
 11
133.945206066
 21
56.9725893824
 31
0.0
  0
SPLINE
  5
7E
330
1F
100
AcDbEntity
  8
0
  6
Continuous
 62
     7
370
    15
100
AcDbSpline
210
0.0
220
0.0
230
1.0
 70
     8
 71
     3
 72
    23
 73
    19
 74
     0
 42
0.00000001
 43
0.00000001
 40
0.0
 40
0.0
 40
0.0
 40
0.0
 40
0.0520256687590417
 40
0.1044186119084699
 40
0.1579654762732603
 40
0.2119084390155455
 40
0.2639329008030786
 40
0.3697142245600881
 40
0.4235868577364621
 40
0.4762679679182533
 40
0.5833878371337101
 40
0.6379530306539528
 40
0.6910551819358521
 40
0.7445319929992287
 40
0.7992014233075218
 40
0.8542881036302091
 40
0.9066815619543741
 40
1.0
 40
1.0
 40
1.0
 40
1.0
 10
143.94520606598
 20
155.9623842381122
 30
0.0
 10
143.672193668785
 20
155.963705806619
 30
0.0
 10
143.1242415476707
 20
155.9663582732247
 30
0.0
 10
142.3010951902156
 20
155.9878331616523
 30
0.0
 10
141.4798500896233
 20
156.0220508803204
 30
0.0
 10
140.6784212795152
 20
156.0691027904877
 30
0.0
 10
139.6460380253722
 20
156.1460917413136
 30
0.0
 10
138.6687900107482
 20
156.2419689919741
 30
0.0
 10
137.7677429994922
 20
156.3488984397623
 30
0.0
 10
136.9187692203908
 20
156.4607452476027
 30
0.0
 10
136.1612007747826
 20
156.5749738463321
 30
0.0
 10
135.5162124843331
 20
156.6815535926959
 30
0.0
 10
135.0916386111353
 20
156.7554835490971
 30
0.0
 10
134.7290819614862
 20
156.8213741071538
 30
0.0
 10
134.4278804043625
 20
156.878070458368
 30
0.0
 10
134.2006268323278
 20
156.9220067046027
 30
0.0
 10
133.9945195351053
 20
156.9626651514307
 30
0.0
 10
133.9738325970722
 20
156.9668485908202
 30
0.0
 10
133.9605840374605
 20
156.969527795739
 30
0.0
  0
LINE
  5
7F
330
1F
100
AcDbEntity
  8
0
  6
Continuous
 62
     7
370
    15
100
AcDbLine
 10
145.7331770451
 20
155.9623842381
 30
0.0
 11
143.945206066
 21
155.9623842381
 31
0.0
  0
LINE
  5
80
330
1F
100
AcDbEntity
  8
0
  6
Continuous
 62
     7
370
    15
100
AcDbLine
 10
145.7331770451
 20
145.9235521433
 30
0.0
 11
145.7331770451
 21
155.9623842381
 31
0.0
  0
LINE
  5
81
330
1F
100
AcDbEntity
  8
0
  6
Continuous
 62
     7
370
    15
100
AcDbLine
 10
143.6531729142
 20
145.9235521433
 30
0.0
 11
145.7331770451
 21
145.9235521433
 31
0.0
  0
SPLINE
  5
82
330
1F
100
AcDbEntity
  8
0
  6
Continuous
 62
     7
370
    15
100
AcDbSpline
210
0.0
220
0.0
230
1.0
 70
     8
 71
     3
 72
    22
 73
    18
 74
     0
 42
0.00000001
 43
0.00000001
 40
0.0
 40
0.0
 40
0.0
 40
0.0
 40
0.2500000000000002
 40
0.2500000000000002
 40
0.3750000000000003
 40
0.3750000000000003
 40
0.5000000000000004
 40
0.5000000000000004
 40
0.6250000000000004
 40
0.6250000000000004
 40
0.7500000000000004
 40
0.7500000000000004
 40
0.8750000000000004
 40
0.8750000000000004
 40
0.9375000000000002
 40
0.9375000000000002
 40
1.0
 40
1.0
 40
1.0
 40
1.0
 10
133.94520606598
 20
138.3225893824486
 30
0.0
 10
134.1479310218991
 20
139.3418357243132
 30
0.0
 10
134.4626747436944
 20
140.3009438742525
 30
0.0
 10
135.1707302133654
 20
141.6434229517618
 30
0.0
 10
135.449192843583
 20
142.0776315345018
 30
0.0
 10
136.0879602502202
 20
142.8892592500039
 30
0.0
 10
136.4483739300104
 20
143.2685395429407
 30
0.0
 10
137.2659061619997
 20
143.9714981219618
 30
0.0
 10
137.7270741452868
 20
144.2965269396624
 30
0.0
 10
138.7250643917706
 20
144.8615422630533
 30
0.0
 10
139.2648235857629
 20
145.1052458572597
 30
0.0
 10
140.4394165497943
 20
145.5094457849047
 30
0.0
 10
141.0511527357861
 20
145.6618829779502
 30
0.0
 10
142.0030619606478
 20
145.8172105255589
 30
0.0
 10
142.3262951249085
 20
145.856715305609
 30
0.0
 10
142.9853582961838
 20
145.9100244262777
 30
0.0
 10
143.3194223067577
 20
145.9235521433355
 30
0.0
 10
143.6531729141593
 20
145.9235521433355
 30
0.0
  0
LINE
  5
83
330
1F
100
AcDbEntity
  8
0
  6
Continuous
 62
     7
370
    15
100
AcDbLine
 10
156.945206066
 20
58.1975957894
 30
0.0
 11
152.2572350869
 21
58.1975957894
 31
0.0
  0
LINE
  5
84
330
1F
100
AcDbEntity
  8
0
  6
Continuous
 62
     7
370
    15
100
AcDbLine
 10
152.2572350869
 20
138.3225893824
 30
0.0
 11
156.945206066
 21
138.3225893824
 31
0.0
  0
LINE
  5
85
330
1F
100
AcDbEntity
  8
0
  6
Continuous
 62
     7
370
    15
100
AcDbLine
 10
157.945206066
 20
59.2232438372
 30
0.0
 11
157.945206066
 21
138.3225893824
 31
0.0
  0
SPLINE
  5
86
330
1F
100
AcDbEntity
  8
0
  6
Continuous
 62
     7
370
    15
100
AcDbSpline
210
0.0
220
0.0
230
1.0
 70
     8
 71
     3
 72
    14
 73
    10
 74
     0
 42
0.00000001
 43
0.00000001
 40
0.0
 40
0.0
 40
0.0
 40
0.0
 40
0.25
 40
0.25
 40
0.5
 40
0.5
 40
0.75
 40
0.75
 40
1.0
 40
1.0
 40
1.0
 40
1.0
 10
157.94520606598
 20
59.2232438371953
 30
0.0
 10
157.94520606598
 20
59.08981814114076
 30
0.0
 10
157.9198949660691
 20
58.95797033329641
 30
0.0
 10
157.8215602022244
 20
58.71144778460231
 30
0.0
 10
157.7484161979683
 20
58.59764259636177
 30
0.0
 10
157.5649781368726
 20
58.40718541941449
 30
0.0
 10
157.453291802534
 20
58.32955055556457
 30
0.0
 10
157.2107883722277
 20
58.22525914545211
 30
0.0
 10
157.0774139435335
 20
58.19759578941975
 30
0.0
 10
156.94520606598
 20
58.19759578941976
 30
0.0
  0
SPLINE
  5
87
330
1F
100
AcDbEntity
  8
0
  6
Continuous
 62
     7
370
    15
100
AcDbSpline
210
0.0
220
0.0
230
1.0
 70
    24
 71
     3
 72
    12
 73
     8
 74
     0
 42
0.00000001
 43
0.00000001
 40
0.0
 40
0.0
 40
0.0
 40
0.0
 40
0.2500000000000032
 40
0.2500000000000032
 40
0.5000000000000064
 40
0.5000000000000064
 40
1.0
 40
1.0
 40
1.0
 40
1.0
 10
156.94520606598
 20
138.3225893824486
 30
0.0
 10
157.097296302925
 20
138.3225893824486
 30
0.0
 10
157.2457555640004
 20
138.3225893824486
 30
0.0
 10
157.5031591962661
 20
138.3225893824486
 30
0.0
 10
157.612263944108
 20
138.3225893824486
 30
0.0
 10
157.8663234205155
 20
138.3225893824486
 30
0.0
 10
157.94520606598
 20
138.3225893824486
 30
0.0
 10
157.94520606598
 20
138.3225893824486
 30
0.0
  0
SPLINE
  5
88
330
1F
100
AcDbEntity
  8
0
  6
Continuous
 62
     7
370
    15
100
AcDbSpline
210
0.0
220
0.0
230
1.0
 70
     8
 71
     3
 72
    14
 73
    10
 74
     0
 42
0.00000001
 43
0.00000001
 40
0.0
 40
0.0
 40
0.0
 40
0.0
 40
0.25
 40
0.25
 40
0.5
 40
0.5
 40
0.75
 40
0.75
 40
1.0
 40
1.0
 40
1.0
 40
1.0
 10
150.90520606598
 20
61.50941060005371
 30
0.0
 10
150.90520606598
 20
61.6164546810481
 30
0.0
 10
150.8850883788218
 20
61.72168982129054
 30
0.0
 10
150.8065971895562
 20
61.91954030813822
 30
0.0
 10
150.748440564755
 20
62.01059207170314
 30
0.0
 10
150.6019253091369
 20
62.16375816562793
 30
0.0
 10
150.5132827604958
 20
62.22605261183733
 30
0.0
 10
150.3175594376955
 20
62.31084639737333
 30
0.0
 10
150.2123282466246
 20
62.33291392439895
 30
0.0
 10
150.10520606598
 20
62.33291392439896
 30
0.0
  0
SPLINE
  5
89
330
1F
100
AcDbEntity
  8
0
  6
Continuous
 62
     7
370
    15
100
AcDbSpline
210
0.0
220
0.0
230
1.0
 70
    24
 71
     3
 72
    14
 73
    10
 74
     0
 42
0.00000001
 43
0.00000001
 40
0.0
 40
0.0
 40
0.0
 40
0.0
 40
0.25
 40
0.25
 40
0.5
 40
0.5
 40
0.75
 40
0.75
 40
1.0
 40
1.0
 40
1.0
 40
1.0
 10
150.10520606598
 20
138.3225893824486
 30
0.0
 10
150.2289758307451
 20
138.3225893824486
 30
0.0
 10
150.353342934752
 20
138.3225893824486
 30
0.0
 10
150.559699403478
 20
138.3225893824486
 30
0.0
 10
150.6450275468964
 20
138.3225893824486
 30
0.0
 10
150.7772196056116
 20
138.3225893824486
 30
0.0
 10
150.8258648493622
 20
138.3225893824486
 30
0.0
 10
150.889400641091
 20
138.3225893824486
 30
0.0
 10
150.90520606598
 20
138.3225893824486
 30
0.0
 10
150.90520606598
 20
138.3225893824486
 30
0.0
  0
SPLINE
  5
8A
330
1F
100
AcDbEntity
  8
0
  6
Continuous
 62
     7
370
    15
100
AcDbSpline
210
0.0
220
0.0
230
1.0
 70
     8
 71
     3
 72
    12
 73
     8
 74
     0
 42
0.00000001
 43
0.00000001
 40
0.0
 40
0.0
 40
0.0
 40
0.0
 40
0.25
 40
0.25
 40
0.5
 40
0.5
 40
1.0
 40
1.0
 40
1.0
 40
1.0
 10
147.88520606598
 20
62.33291392439896
 30
0.0
 10
147.779445412631
 20
62.33291392439894
 30
0.0
 10
147.6714577844481
 20
62.31037441839855
 30
0.0
 10
147.4768631191825
 20
62.22580378640324
 30
0.0
 10
147.3879912063437
 20
62.16332213364446
 30
0.0
 10
147.1687989140178
 20
61.93393318217229
 30
0.0
 10
147.0852060659799
 20
61.7213498446499
 30
0.0
 10
147.0852060659799
 20
61.50941060005371
 30
0.0
  0
SPLINE
  5
8B
330
1F
100
AcDbEntity
  8
0
  6
Continuous
 62
     7
370
    15
100
AcDbSpline
210
0.0
220
0.0
230
1.0
 70
    24
 71
     3
 72
    14
 73
    10
 74
     0
 42
0.00000001
 43
0.00000001
 40
0.0
 40
0.0
 40
0.0
 40
0.0
 40
0.25
 40
0.25
 40
0.5
 40
0.5
 40
0.75
 40
0.75
 40
1.0
 40
1.0
 40
1.0
 40
1.0
 10
147.08520606598
 20
138.3225893824486
 30
0.0
 10
147.0852060659799
 20
138.3225893824486
 30
0.0
 10
147.1009203864459
 20
138.3225893824486
 30
0.0
 10
147.1646043649143
 20
138.3225893824486
 30
0.0
 10
147.2132075593247
 20
138.3225893824486
 30
0.0
 10
147.3458910817503
 20
138.3225893824486
 30
0.0
 10
147.430993186061
 20
138.3225893824486
 30
0.0
 10
147.6374354209711
 20
138.3225893824486
 30
0.0
 10
147.7615163625941
 20
138.3225893824486
 30
0.0
 10
147.88520606598
 20
138.3225893824486
 30
0.0
  0
LINE
  5
8C
330
1F
100
AcDbEntity
  8
0
  6
Continuous
 62
     7
370
    15
100
AcDbLine
 10
150.105206066
 20
62.3329139244
 30
0.0
 11
147.885206066
 21
62.3329139244
 31
0.0
  0
LINE
  5
8D
330
1F
100
AcDbEntity
  8
0
  6
Continuous
 62
     7
370
    15
100
AcDbLine
 10
147.885206066
 20
138.3225893824
 30
0.0
 11
150.105206066
 21
138.3225893824
 31
0.0
  0
LINE
  5
8E
330
1F
100
AcDbEntity
  8
0
  6
Continuous
 62
     7
370
    15
100
AcDbLine
 10
94.195206066
 20
70.7085743524
 30
0.0
 11
94.195206066
 21
73.1032561171
 31
0.0
  0
SPLINE
  5
8F
330
1F
100
AcDbEntity
  8
0
  6
Continuous
 62
     7
370
    15
100
AcDbSpline
210
0.0
220
0.0
230
1.0
 70
     8
 71
     3
 72
    14
 73
    10
 74
     0
 42
0.00000001
 43
0.00000001
 40
0.0
 40
0.0
 40
0.0
 40
0.0
 40
0.25
 40
0.25
 40
0.5
 40
0.5
 40
0.75
 40
0.75
 40
1.0
 40
1.0
 40
1.0
 40
1.0
 10
93.19078359464301
 20
74.80610803870508
 30
0.0
 10
93.27955217258834
 20
74.64757390739713
 30
0.0
 10
93.40127001126724
 20
74.49513123050856
 30
0.0
 10
93.63631962112407
 20
74.19799660667964
 30
0.0
 10
93.75194980734098
 20
74.05331396306228
 30
0.0
 10
93.9523547407688
 20
73.77002476055887
 30
0.0
 10
94.03775503275311
 20
73.63147076752202
 30
0.0
 10
94.15946066647035
 20
73.36008673748847
 30
0.0
 10
94.19520606598299
 20
73.22795086885387
 30
0.0
 10
94.19520606598297
 20
73.10325611708309
 30
0.0
  0
SPLINE
  5
90
330
1F
100
AcDbEntity
  8
0
  6
Continuous
 62
     7
370
    15
100
AcDbSpline
210
0.0
220
0.0
230
1.0
 70
     8
 71
     3
 72
    14
 73
    10
 74
     0
 42
0.00000001
 43
0.00000001
 40
0.0
 40
0.0
 40
0.0
 40
0.0
 40
0.124999999999999
 40
0.124999999999999
 40
0.249999999999998
 40
0.249999999999998
 40
0.5000000000000007
 40
0.5000000000000007
 40
1.0
 40
1.0
 40
1.0
 40
1.0
 10
92.29520606597997
 20
75.43493797780518
 30
0.0
 10
92.36278836576446
 20
75.44209386290657
 30
0.0
 10
92.43527594351237
 20
75.43766939286756
 30
0.0
 10
92.5675670527783
 20
75.40796323509721
 30
0.0
 10
92.62484443216847
 20
75.38467895351899
 30
0.0
 10
92.77449485936876
 20
75.30719371366867
 30
0.0
 10
92.84820815489026
 20
75.24534188676729
 30
0.0
 10
93.0360161382165
 20
75.06066443411898
 30
0.0
 10
93.12005644457795
 20
74.93242151082777
 30
0.0
 10
93.19078359464422
 20
74.80610803870518
 30
0.0
  0
SPLINE
  5
91
330
1F
100
AcDbEntity
  8
0
  6
Continuous
 62
     7
370
    15
100
AcDbSpline
210
0.0
220
0.0
230
1.0
 70
     8
 71
     3
 72
     8
 73
     4
 74
     0
 42
0.00000001
 43
0.00000001
 40
0.0
 40
0.0
 40
0.0
 40
0.0
 40
1.0
 40
1.0
 40
1.0
 40
1.0
 10
88.75056567789919
 20
75.0168893930134
 30
0.0
 10
89.91586398860805
 20
75.17207686490002
 30
0.0
 10
91.10047920264788
 20
75.30843550321035
 30
0.0
 10
92.29520606597997
 20
75.43493797780518
 30
0.0
  0
SPLINE
  5
92
330
1F
100
AcDbEntity
  8
0
  6
Continuous
 62
     7
370
    15
100
AcDbSpline
210
0.0
220
0.0
230
1.0
 70
     8
 71
     3
 72
    14
 73
    10
 74
     0
 42
0.00000001
 43
0.00000001
 40
0.0
 40
0.0
 40
0.0
 40
0.0
 40
0.4999999999999972
 40
0.4999999999999972
 40
0.7499999999999971
 40
0.7499999999999971
 40
0.8749999999999986
 40
0.8749999999999986
 40
1.0
 40
1.0
 40
1.0
 40
1.0
 10
80.99513118195127
 20
74.72675721388347
 30
0.0
 10
82.30343274448501
 20
74.7337719376246
 30
0.0
 10
83.60849211914183
 20
74.7491805140691
 30
0.0
 10
85.55436817063016
 20
74.80307706953576
 30
0.0
 10
86.20106567436915
 20
74.82610863413845
 30
0.0
 10
87.16490803822349
 20
74.87705115900921
 30
0.0
 10
87.48514673015757
 20
74.8967860812424
 30
0.0
 10
88.12184195649998
 20
74.94627320971398
 30
0.0
 10
88.4385573647829
 20
74.9753379886432
 30
0.0
 10
88.75056567789922
 20
75.01688939301334
 30
0.0
  0
SPLINE
  5
93
330
1F
100
AcDbEntity
  8
0
  6
Continuous
 62
     7
370
    15
100
AcDbSpline
210
0.0
220
0.0
230
1.0
 70
     8
 71
     3
 72
    12
 73
     8
 74
     0
 42
0.00000001
 43
0.00000001
 40
0.0
 40
0.0
 40
0.0
 40
0.0
 40
0.2500000000000009
 40
0.2500000000000009
 40
0.5000000000000018
 40
0.5000000000000018
 40
1.0
 40
1.0
 40
1.0
 40
1.0
 10
87.29520606597997
 20
139.059112273945
 30
0.0
 10
86.77650724415179
 20
139.0916350487933
 30
0.0
 10
86.25479567094679
 20
139.1149317899637
 30
0.0
 10
85.2085036544512
 20
139.1527773043858
 30
0.0
 10
84.68383202878096
 20
139.167045778882
 30
0.0
 10
83.10698600624173
 20
139.2012552663403
 30
0.0
 10
82.05203069169481
 20
139.2127547702842
 30
0.0
 10
80.99513118194957
 20
139.2184215510137
 30
0.0
  0
SPLINE
  5
94
330
1F
100
AcDbEntity
  8
0
  6
Continuous
 62
     7
370
    15
100
AcDbSpline
210
0.0
220
0.0
230
1.0
 70
     8
 71
     3
 72
    20
 73
    16
 74
     0
 42
0.00000001
 43
0.00000001
 40
0.0
 40
0.0
 40
0.0
 40
0.0
 40
0.2500000000000011
 40
0.2500000000000011
 40
0.5000000000000021
 40
0.5000000000000021
 40
0.7500000000000031
 40
0.7500000000000031
 40
0.8750000000000008
 40
0.8750000000000008
 40
0.9375000000000006
 40
0.9375000000000006
 40
0.9687500000000003
 40
0.9687500000000003
 40
1.0
 40
1.0
 40
1.0
 40
1.0
 10
89.19520606597997
 20
140.7171981194332
 30
0.0
 10
89.19520606597997
 20
140.5815157996864
 30
0.0
 10
89.14649427676333
 20
140.4404288135463
 30
0.0
 10
88.97733285353814
 20
140.1483570948158
 30
0.0
 10
88.85555243961984
 20
139.9967083527254
 30
0.0
 10
88.55800534487032
 20
139.6942999125723
 30
0.0
 10
88.38409273916756
 20
139.5417112764489
 30
0.0
 10
88.06467790528573
 20
139.3164405126066
 30
0.0
 10
87.94963712983846
 20
139.2417174180959
 30
0.0
 10
87.74255280582204
 20
139.1423070088389
 30
0.0
 10
87.66644497101566
 20
139.1107419164943
 30
0.0
 10
87.53505043146231
 20
139.0762985323014
 30
0.0
 10
87.48849721246086
 20
139.0672469605337
 30
0.0
 10
87.39216386138014
 20
139.0570713116953
 30
0.0
 10
87.3429044380247
 20
139.0561215530203
 30
0.0
 10
87.295206065978
 20
139.0591122739349
 30
0.0
  0
LINE
  5
95
330
1F
100
AcDbEntity
  8
0
  6
Continuous
 62
     7
370
    15
100
AcDbLine
 10
89.195206066
 20
140.7171981194
 30
0.0
 11
89.195206066
 21
142.9861034105
 31
0.0
  0
LINE
  5
96
330
1F
100
AcDbEntity
  8
0
  6
Continuous
 62
     7
370
    15
100
AcDbLine
 10
126.495206066
 20
69.0903378794
 30
0.0
 11
126.495206066
 21
144.8548408855
 31
0.0
  0
SPLINE
  5
97
330
1F
100
AcDbEntity
  8
0
  6
Continuous
 62
     7
370
    15
100
AcDbSpline
210
0.0
220
0.0
230
1.0
 70
     8
 71
     3
 72
    24
 73
    20
 74
     0
 42
0.00000001
 43
0.00000001
 40
0.0
 40
0.0
 40
0.0
 40
0.0
 40
0.0002934293894791
 40
0.062808005175641
 40
0.1260453927228619
 40
0.18907467666103
 40
0.2513200540860133
 40
0.3133304633786588
 40
0.3759158453762907
 40
0.4383740564599686
 40
0.5000631094857209
 40
0.5616593988040849
 40
0.6245050380644152
 40
0.6872231506510951
 40
0.7494953263230465
 40
0.8117583797535242
 40
0.8747365508229858
 40
0.9378980306234599
 40
1.0
 40
1.0
 40
1.0
 40
1.0
 10
107.5151623298194
 20
70.04134412413623
 30
0.0
 10
107.5149674769346
 20
70.04131981674225
 30
0.0
 10
107.4732595859235
 20
70.03611686508803
 30
0.0
 10
107.6183779774539
 20
70.05475148841855
 30
0.0
 10
107.9734569189932
 20
70.09727126696727
 30
0.0
 10
108.5780325565363
 20
70.1654075505691
 30
0.0
 10
109.3844678653525
 20
70.23866308758497
 30
0.0
 10
110.3699452892715
 20
70.30318242840286
 30
0.0
 10
111.501614885951
 20
70.34174665646394
 30
0.0
 10
112.7239073561133
 20
70.34544116246533
 30
0.0
 10
113.9912360375651
 20
70.30301518241636
 30
0.0
 10
115.2577215679917
 20
70.21476804163537
 30
0.0
 10
116.4738589318116
 20
70.0863747713687
 30
0.0
 10
117.5992694276524
 20
69.93373378277617
 30
0.0
 10
118.5766864892063
 20
69.77195916767184
 30
0.0
 10
119.3799519677488
 20
69.61943027457096
 30
0.0
 10
119.9684454907501
 20
69.49541653130356
 30
0.0
 10
120.3573516024021
 20
69.41049260502727
 30
0.0
 10
120.4041127331401
 20
69.39976629374847
 30
0.0
 10
120.4272955396825
 20
69.39444850105689
 30
0.0
  0
SPLINE
  5
98
330
1F
100
AcDbEntity
  8
0
  6
Continuous
 62
     7
370
    15
100
AcDbSpline
210
0.0
220
0.0
230
1.0
 70
     8
 71
     3
 72
    41
 73
    37
 74
     0
 42
0.00000001
 43
0.00000001
 40
0.0
 40
0.0
 40
0.0
 40
0.0
 40
0.0619930088506718
 40
0.125434783814564
 40
0.1886508980471406
 40
0.2510246518033811
 40
0.3131658325491701
 40
0.3756581805174193
 40
0.4382227337757709
 40
0.4998045140815297
 40
0.5615164441954765
 40
0.624068336616565
 40
0.6867257531766615
 40
0.7488365631577111
 40
0.8110686297814758
 40
0.8741743265521147
 40
0.9373213196242014
 40
0.9685512131827939
 40
0.9842087301523141
 40
0.9920641614992075
 40
0.9960005295431575
 40
0.9979711229155388
 40
0.9989570525954627
 40
0.999450179507506
 40
0.9996967839589672
 40
0.9998200964931991
 40
0.9998817553448945
 40
0.9999125854178207
 40
0.9999280006161647
 40
0.9999357082558249
 40
0.9999395620857793
 40
0.9999414890032862
 40
0.9999424524626737
 40
0.9999434159224813
 40
0.9999502132908483
 40
1.0
 40
1.0
 40
1.0
 40
1.0
 10
120.4271742092045
 20
144.5506852458888
 30
0.0
 10
120.403602563861
 20
144.5453757662389
 30
0.0
 10
120.3559084078159
 20
144.5346327252994
 30
0.0
 10
119.9638664183903
 20
144.4494035888439
 30
0.0
 10
119.3733523691201
 20
144.3248348102032
 30
0.0
 10
118.569314923075
 20
144.1718878640514
 30
0.0
 10
117.5932395228935
 20
144.0101313100978
 30
0.0
 10
116.471430787613
 20
143.8578985421655
 30
0.0
 10
115.2578998678258
 20
143.7301186009642
 30
0.0
 10
113.9930691614266
 20
143.6422700492816
 30
0.0
 10
112.7250261239838
 20
143.599884565411
 30
0.0
 10
111.5015187662827
 20
143.6036203733826
 30
0.0
 10
110.3680202258687
 20
143.6422158438307
 30
0.0
 10
109.3819144148945
 20
143.7066552151219
 30
0.0
 10
108.5732866061074
 20
143.780165022403
 30
0.0
 10
107.9766679109977
 20
143.8474787072148
 30
0.0
 10
107.6612766215411
 20
143.8854432584826
 30
0.0
 10
107.5512100527406
 20
143.8992423178148
 30
0.0
 10
107.52379066493
 20
143.902728391735
 30
0.0
 10
107.5168686140954
 20
143.903607617429
 30
0.0
 10
107.5151003739192
 20
143.9038283920344
 30
0.0
 10
107.5146399947357
 20
143.9038835947464
 30
0.0
 10
107.5145158360652
 20
143.9038973345317
 30
0.0
 10
107.5144802815519
 20
143.9039007303653
 30
0.0
 10
107.5144691375102
 20
143.903901558682
 30
0.0
 10
107.514465224274
 20
143.9039017552758
 30
0.0
 10
107.5144636821257
 20
143.9039017991988
 30
0.0
 10
107.5144630150443
 20
143.9039018075155
 30
0.0
 10
107.5144627069794
 20
143.9039018083317
 30
0.0
 10
107.5144625600541
 20
143.9039018078064
 30
0.0
 10
107.5144624873264
 20
143.9039018074485
 30
0.0
 10
107.5144624526168
 20
143.9039018070507
 30
0.0
 10
107.5144624308833
 20
143.9039018070756
 30
0.0
 10
107.5144623990282
 20
143.9039018048309
 30
0.0
 10
107.5144604496876
 20
143.9039020207769
 30
0.0
 10
107.5144873845503
 20
143.9038985396462
 30
0.0
 10
107.5145110837647
 20
143.9038954766991
 30
0.0
  0
SPLINE
  5
99
330
1F
100
AcDbEntity
  8
0
  6
Continuous
 62
     7
370
    15
100
AcDbSpline
210
0.0
220
0.0
230
1.0
 70
     8
 71
     3
 72
    20
 73
    16
 74
     0
 42
0.00000001
 43
0.00000001
 40
0.0
 40
0.0
 40
0.0
 40
0.0
 40
0.249999999999986
 40
0.249999999999986
 40
0.3749999999999789
 40
0.3749999999999789
 40
0.4374999999999789
 40
0.4374999999999789
 40
0.4999999999999789
 40
0.4999999999999789
 40
0.6249999999999835
 40
0.6249999999999835
 40
0.7499999999999879
 40
0.7499999999999879
 40
1.0
 40
1.0
 40
1.0
 40
1.0
 10
79.38602029769598
 20
76.29410622974788
 30
0.0
 10
79.41229251490938
 20
76.31342417083036
 30
0.0
 10
79.44297265716423
 20
76.32781288193213
 30
0.0
 10
79.51444352754615
 20
76.32090852009613
 30
0.0
 10
79.54247056459049
 20
76.31374251674771
 30
0.0
 10
79.59755415408799
 20
76.28404349004411
 30
0.0
 10
79.61844548264042
 20
76.27056984748278
 30
0.0
 10
79.66365413008589
 20
76.23537158196676
 30
0.0
 10
79.68805834248145
 20
76.2134633532395
 30
0.0
 10
79.75939066053289
 20
76.14133849324395
 30
0.0
 10
79.80128744535317
 20
76.08899795229391
 30
0.0
 10
79.87286340420904
 20
75.99151456039316
 30
0.0
 10
79.90369139402634
 20
75.94476079051474
 30
0.0
 10
79.98679132686192
 20
75.81146757467562
 30
0.0
 10
80.03164623223222
 20
75.72883017676041
 30
0.0
 10
80.07175830768479
 20
75.64972328196963
 30
0.0
  0
SPLINE
  5
9A
330
1F
100
AcDbEntity
  8
0
  6
Continuous
 62
     7
370
    15
100
AcDbSpline
210
0.0
220
0.0
230
1.0
 70
     8
 71
     3
 72
    14
 73
    10
 74
     0
 42
0.00000001
 43
0.00000001
 40
0.0
 40
0.0
 40
0.0
 40
0.0
 40
0.25
 40
0.25
 40
0.5
 40
0.5
 40
0.75
 40
0.75
 40
1.0
 40
1.0
 40
1.0
 40
1.0
 10
79.09520606597997
 20
76.46991963988067
 30
0.0
 10
79.09520606597998
 20
76.42867270885633
 30
0.0
 10
79.10381578236122
 20
76.39176573657384
 30
0.0
 10
79.13490196193158
 20
76.33086567667443
 30
0.0
 10
79.15729151541564
 20
76.30668475713475
 30
0.0
 10
79.21203544659176
 20
76.27271716625148
 30
0.0
 10
79.24448568617694
 20
76.2627970822833
 30
0.0
 10
79.314487200905
 20
76.26144587337845
 30
0.0
 10
79.35269770102754
 20
76.26960415007461
 30
0.0
 10
79.38602029770063
 20
76.2941062297427
 30
0.0
  0
LINE
  5
9B
330
1F
100
AcDbEntity
  8
0
  6
Continuous
 62
     7
370
    15
100
AcDbLine
 10
79.095206066
 20
76.4699196399
 30
0.0
 11
79.095206066
 21
137.475259125
 31
0.0
  0
SPLINE
  5
9C
330
1F
100
AcDbEntity
  8
0
  6
Continuous
 62
     7
370
    15
100
AcDbSpline
210
0.0
220
0.0
230
1.0
 70
     8
 71
     3
 72
    12
 73
     8
 74
     0
 42
0.00000001
 43
0.00000001
 40
0.0
 40
0.0
 40
0.0
 40
0.0
 40
0.249999999999997
 40
0.249999999999997
 40
0.4999999999999964
 40
0.4999999999999964
 40
1.0
 40
1.0
 40
1.0
 40
1.0
 10
79.38602029769973
 20
137.6510725351536
 30
0.0
 10
79.35251889836285
 20
137.6757060882829
 30
0.0
 10
79.31442803039911
 20
137.6837242494465
 30
0.0
 10
79.24462761968246
 20
137.6823919133369
 30
0.0
 10
79.21217501979982
 20
137.672526247935
 30
0.0
 10
79.1299015090826
 20
137.6215428205919
 30
0.0
 10
79.09520606597997
 20
137.5574736734191
 30
0.0
 10
79.09520606597997
 20
137.4752591250165
 30
0.0
  0
SPLINE
  5
9D
330
1F
100
AcDbEntity
  8
0
  6
Continuous
 62
     7
370
    15
100
AcDbSpline
210
0.0
220
0.0
230
1.0
 70
     8
 71
     3
 72
    20
 73
    16
 74
     0
 42
0.00000001
 43
0.00000001
 40
0.0
 40
0.0
 40
0.0
 40
0.0
 40
0.2500000000000037
 40
0.2500000000000037
 40
0.3750000000000055
 40
0.3750000000000055
 40
0.5000000000000073
 40
0.5000000000000073
 40
0.5625000000000057
 40
0.5625000000000057
 40
0.625000000000004
 40
0.625000000000004
 40
0.7500000000000027
 40
0.7500000000000027
 40
1.0
 40
1.0
 40
1.0
 40
1.0
 10
80.0717583076824
 20
138.2954554829268
 30
0.0
 10
80.03176208985857
 20
138.2165770763693
 30
0.0
 10
79.98664846202091
 20
138.1334474296778
 30
0.0
 10
79.90339424765439
 20
137.9999587653269
 30
0.0
 10
79.87317491903389
 20
137.9540937094449
 30
0.0
 10
79.80108668389246
 20
137.85590215704
 30
0.0
 10
79.75916936648136
 20
137.8035923375164
 30
0.0
 10
79.68791876192991
 20
137.7315864347819
 30
0.0
 10
79.66368294955059
 20
137.7098162224803
 30
0.0
 10
79.61808475936594
 20
137.6743415641513
 30
0.0
 10
79.59728226976623
 20
137.6609713799738
 30
0.0
 10
79.5423412713471
 20
137.6314014678385
 30
0.0
 10
79.5142722832603
 20
137.6242749455366
 30
0.0
 10
79.44376945319746
 20
137.6174005740539
 30
0.0
 10
79.4123453654066
 20
137.631715733141
 30
0.0
 10
79.386020297698
 20
137.6510725351516
 30
0.0
  0
SPLINE
  5
9E
330
1F
100
AcDbEntity
  8
0
  6
Continuous
 62
     7
370
    15
100
AcDbSpline
210
0.0
220
0.0
230
1.0
 70
     8
 71
     3
 72
    10
 73
     6
 74
     0
 42
0.00000001
 43
0.00000001
 40
0.0
 40
0.0
 40
0.0
 40
0.0
 40
0.4999999999999989
 40
0.4999999999999989
 40
1.0
 40
1.0
 40
1.0
 40
1.0
 10
80.74520606597999
 20
139.2208745842686
 30
0.0
 10
80.62031779522978
 20
139.0898783061971
 30
0.0
 10
80.49886767716933
 20
138.9461654695321
 30
0.0
 10
80.2692837022119
 20
138.6355951768429
 30
0.0
 10
80.15900872681591
 20
138.4675261037798
 30
0.0
 10
80.0717583076824
 20
138.2954554829268
 30
0.0
  0
SPLINE
  5
9F
330
1F
100
AcDbEntity
  8
0
  6
Continuous
 62
     7
370
    15
100
AcDbSpline
210
0.0
220
0.0
230
1.0
 70
     8
 71
     3
 72
     8
 73
     4
 74
     0
 42
0.00000001
 43
0.00000001
 40
0.0
 40
0.0
 40
0.0
 40
0.0
 40
1.0
 40
1.0
 40
1.0
 40
1.0
 10
80.99513118194571
 20
139.2184215510132
 30
0.0
 10
80.90811315209736
 20
139.2188881158003
 30
0.0
 10
80.82515912571742
 20
139.2199281353764
 30
0.0
 10
80.74520606597767
 20
139.2208745842687
 30
0.0
  0
SPLINE
  5
A0
330
1F
100
AcDbEntity
  8
0
  6
Continuous
 62
     7
370
    15
100
AcDbSpline
210
0.0
220
0.0
230
1.0
 70
     8
 71
     3
 72
     8
 73
     4
 74
     0
 42
0.00000001
 43
0.00000001
 40
0.0
 40
0.0
 40
0.0
 40
0.0
 40
1.0
 40
1.0
 40
1.0
 40
1.0
 10
80.74520606597767
 20
74.72430418062852
 30
0.0
 10
80.82515912571795
 20
74.72525062952079
 30
0.0
 10
80.90811315209842
 20
74.72629064909691
 30
0.0
 10
80.9951311819474
 20
74.72675721388399
 30
0.0
  0
SPLINE
  5
A1
330
1F
100
AcDbEntity
  8
0
  6
Continuous
 62
     7
370
    15
100
AcDbSpline
210
0.0
220
0.0
230
1.0
 70
     8
 71
     3
 72
    10
 73
     6
 74
     0
 42
0.00000001
 43
0.00000001
 40
0.0
 40
0.0
 40
0.0
 40
0.0
 40
0.4999999999999989
 40
0.4999999999999989
 40
1.0
 40
1.0
 40
1.0
 40
1.0
 10
80.07175830768146
 20
75.6497232819722
 30
0.0
 10
80.15900872681495
 20
75.47765266111884
 30
0.0
 10
80.26928370221111
 20
75.30958358805539
 30
0.0
 10
80.49886767716893
 20
74.99901329536557
 30
0.0
 10
80.62031779522957
 20
74.8553004587003
 30
0.0
 10
80.74520606597999
 20
74.7243041806286
 30
0.0
  0
LINE
  5
A2
330
1F
100
AcDbEntity
  8
0
  6
Continuous
 62
     7
370
    15
100
AcDbLine
 10
156.945206066
 20
155.9623842381
 30
0.0
 11
152.2572350869
 21
155.9623842381
 31
0.0
  0
LINE
  5
A3
330
1F
100
AcDbEntity
  8
0
  6
Continuous
 62
     7
370
    15
100
AcDbLine
 10
152.2572350869
 20
145.9235521433
 30
0.0
 11
156.945206066
 21
145.9235521433
 31
0.0
  0
LINE
  5
A4
330
1F
100
AcDbEntity
  8
0
  6
Continuous
 62
     7
370
    15
100
AcDbLine
 10
152.2572350869
 20
145.9235521433
 30
0.0
 11
152.2572350869
 21
155.9623842381
 31
0.0
  0
SPLINE
  5
A5
330
1F
100
AcDbEntity
  8
0
  6
Continuous
 62
     7
370
    15
100
AcDbSpline
210
0.0
220
0.0
230
1.0
 70
     8
 71
     3
 72
    14
 73
    10
 74
     0
 42
0.00000001
 43
0.00000001
 40
0.0
 40
0.0
 40
0.0
 40
0.0
 40
0.25
 40
0.25
 40
0.5
 40
0.5
 40
0.75
 40
0.75
 40
1.0
 40
1.0
 40
1.0
 40
1.0
 10
150.90520606598
 20
152.6661406232966
 30
0.0
 10
150.90520606598
 20
152.5597839295442
 30
0.0
 10
150.8848185098387
 20
152.4539434417841
 30
0.0
 10
150.8061841643772
 20
152.2573785282477
 30
0.0
 10
150.7474528047385
 20
152.1662077859606
 30
0.0
 10
150.600843899136
 20
152.014296696929
 30
0.0
 10
150.5114385791095
 20
151.9522278601094
 30
0.0
 10
150.3175478465091
 20
151.8689598123507
 30
0.0
 10
150.2110428566193
 20
151.846865142621
 30
0.0
 10
150.10520606598
 20
151.846865142621
 30
0.0
  0
SPLINE
  5
A6
330
1F
100
AcDbEntity
  8
0
  6
Continuous
 62
     7
370
    15
100
AcDbSpline
210
0.0
220
0.0
230
1.0
 70
     8
 71
     3
 72
    12
 73
     8
 74
     0
 42
0.00000001
 43
0.00000001
 40
0.0
 40
0.0
 40
0.0
 40
0.0
 40
0.250000000000002
 40
0.250000000000002
 40
0.500000000000004
 40
0.500000000000004
 40
1.0
 40
1.0
 40
1.0
 40
1.0
 10
150.10520606598
 20
140.6011207955211
 30
0.0
 10
150.2289070159599
 20
140.6011207955211
 30
0.0
 10
150.3530036282301
 20
140.6431144072536
 30
0.0
 10
150.5596587913172
 20
140.780909733898
 30
0.0
 10
150.644699558044
 20
140.8748833323629
 30
0.0
 10
150.8441781265176
 20
141.1896715385838
 30
0.0
 10
150.90520606598
 20
141.4399105308114
 30
0.0
 10
150.90520606598
 20
141.6868245749456
 30
0.0
  0
SPLINE
  5
A7
330
1F
100
AcDbEntity
  8
0
  6
Continuous
 62
     7
370
    15
100
AcDbSpline
210
0.0
220
0.0
230
1.0
 70
     8
 71
     3
 72
     8
 73
     4
 74
     0
 42
0.00000001
 43
0.00000001
 40
0.0
 40
0.0
 40
0.0
 40
0.0
 40
1.0
 40
1.0
 40
1.0
 40
1.0
 10
145.7331770450586
 20
145.9235521433355
 30
0.0
 10
146.1901033988581
 20
144.9076341736612
 30
0.0
 10
146.6413090406611
 20
143.88883834457
 30
0.0
 10
147.08520606598
 20
142.8680368885864
 30
0.0
  0
LINE
  5
A8
330
1F
100
AcDbEntity
  8
0
  6
Continuous
 62
     7
370
    15
100
AcDbLine
 10
147.085206066
 20
142.8680368886
 30
0.0
 11
147.085206066
 21
141.6868245749
 31
0.0
  0
SPLINE
  5
A9
330
1F
100
AcDbEntity
  8
0
  6
Continuous
 62
     7
370
    15
100
AcDbSpline
210
0.0
220
0.0
230
1.0
 70
     8
 71
     3
 72
    14
 73
    10
 74
     0
 42
0.00000001
 43
0.00000001
 40
0.0
 40
0.0
 40
0.0
 40
0.0
 40
0.25
 40
0.25
 40
0.5
 40
0.5
 40
0.75
 40
0.75
 40
1.0
 40
1.0
 40
1.0
 40
1.0
 10
147.08520606598
 20
141.6868245749456
 30
0.0
 10
147.08520606598
 20
141.5629576981565
 30
0.0
 10
147.1010651936076
 20
141.4386980213189
 30
0.0
 10
147.1644268391275
 20
141.2010896589131
 30
0.0
 10
147.2130165471768
 20
141.0843092741606
 30
0.0
 10
147.3453021519517
 20
140.8755067455516
 30
0.0
 10
147.4306269432122
 20
140.780996041959
 30
0.0
 10
147.6375181915184
 20
140.6430392411567
 30
0.0
 10
147.7614861374084
 20
140.601120795521
 30
0.0
 10
147.88520606598
 20
140.601120795521
 30
0.0
  0
LINE
  5
AA
330
1F
100
AcDbEntity
  8
0
  6
Continuous
 62
     7
370
    15
100
AcDbLine
 10
147.885206066
 20
140.6011207955
 30
0.0
 11
150.105206066
 21
140.6011207955
 31
0.0
  0
LINE
  5
AB
330
1F
100
AcDbEntity
  8
0
  6
Continuous
 62
     7
370
    15
100
AcDbLine
 10
150.905206066
 20
141.6868245749
 30
0.0
 11
150.905206066
 21
142.8680368886
 31
0.0
  0
SPLINE
  5
AC
330
1F
100
AcDbEntity
  8
0
  6
Continuous
 62
     7
370
    15
100
AcDbSpline
210
0.0
220
0.0
230
1.0
 70
     8
 71
     3
 72
     8
 73
     4
 74
     0
 42
0.00000001
 43
0.00000001
 40
0.0
 40
0.0
 40
0.0
 40
0.0
 40
1.0
 40
1.0
 40
1.0
 40
1.0
 10
150.90520606598
 20
142.8680368885864
 30
0.0
 10
151.3493560770055
 20
143.8894201195381
 30
0.0
 10
151.8004303872634
 20
144.9079046563064
 30
0.0
 10
152.2572350869014
 20
145.9235521433355
 30
0.0
  0
SPLINE
  5
AD
330
1F
100
AcDbEntity
  8
0
  6
Continuous
 62
     7
370
    15
100
AcDbSpline
210
0.0
220
0.0
230
1.0
 70
     8
 71
     3
 72
    16
 73
    12
 74
     0
 42
0.00000001
 43
0.00000001
 40
0.0
 40
0.0
 40
0.0
 40
0.0
 40
0.1249999999999978
 40
0.1249999999999978
 40
0.2499999999999955
 40
0.2499999999999955
 40
0.499999999999997
 40
0.499999999999997
 40
0.7499999999999984
 40
0.7499999999999984
 40
1.0
 40
1.0
 40
1.0
 40
1.0
 10
156.94520606598
 20
145.9235521433355
 30
0.0
 10
157.0208437723912
 20
145.9235521433355
 30
0.0
 10
157.0971594368094
 20
145.9122071432006
 30
0.0
 10
157.2415701747013
 20
145.8695545925621
 30
0.0
 10
157.3100166238098
 20
145.8386202678792
 30
0.0
 10
157.5049478764229
 20
145.7193638961116
 30
0.0
 10
157.6127890502038
 20
145.6092118824911
 30
0.0
 10
157.7815017984158
 20
145.361075796833
 30
0.0
 10
157.8438662111394
 20
145.2207334728293
 30
0.0
 10
157.9251701356477
 20
144.9324617813407
 30
0.0
 10
157.94520606598
 20
144.7816568083608
 30
0.0
 10
157.94520606598
 20
144.6312869170156
 30
0.0
  0
LINE
  5
AE
330
1F
100
AcDbEntity
  8
0
  6
Continuous
 62
     7
370
    15
100
AcDbLine
 10
157.945206066
 20
144.631286917
 30
0.0
 11
157.945206066
 21
138.3225893824
 31
0.0
  0
SPLINE
  5
AF
330
1F
100
AcDbEntity
  8
0
  6
Continuous
 62
     7
370
    15
100
AcDbSpline
210
0.0
220
0.0
230
1.0
 70
     8
 71
     3
 72
    10
 73
     6
 74
     0
 42
0.00000001
 43
0.00000001
 40
0.0
 40
0.0
 40
0.0
 40
0.0
 40
0.5
 40
0.5
 40
1.0
 40
1.0
 40
1.0
 40
1.0
 10
147.88520606598
 20
151.846865142621
 30
0.0
 10
147.6726697521236
 20
151.846865142621
 30
0.0
 10
147.4627335804696
 20
151.9382777292512
 30
0.0
 10
147.1690264394584
 20
152.2430225951554
 30
0.0
 10
147.08520606598
 20
152.455177565064
 30
0.0
 10
147.08520606598
 20
152.6661406232966
 30
0.0
  0
SPLINE
  5
B0
330
1F
100
AcDbEntity
  8
0
  6
Continuous
 62
     7
370
    15
100
AcDbSpline
210
0.0
220
0.0
230
1.0
 70
     8
 71
     3
 72
    12
 73
     8
 74
     0
 42
0.00000001
 43
0.00000001
 40
0.0
 40
0.0
 40
0.0
 40
0.0
 40
0.4999999999999953
 40
0.4999999999999953
 40
0.7499999999999977
 40
0.7499999999999977
 40
1.0
 40
1.0
 40
1.0
 40
1.0
 10
157.94520606598
 20
154.9413292032944
 30
0.0
 10
157.94520606598
 20
155.2065986360608
 30
0.0
 10
157.8405993224935
 20
155.4691137417132
 30
0.0
 10
157.5639309707482
 20
155.7546513477505
 30
0.0
 10
157.4535657113962
 20
155.8309729646119
 30
0.0
 10
157.2094936627805
 20
155.9353151294521
 30
0.0
 10
157.0777412014487
 20
155.9623842381122
 30
0.0
 10
156.94520606598
 20
155.9623842381122
 30
0.0
  0
LINE
  5
B1
330
1F
100
AcDbEntity
  8
0
  6
Continuous
 62
     7
370
    15
100
AcDbLine
 10
157.945206066
 20
144.631286917
 30
0.0
 11
157.945206066
 21
154.9413292033
 31
0.0
  0
SPLINE
  5
B2
330
1F
100
AcDbEntity
  8
0
  6
Continuous
 62
     7
370
    15
100
AcDbSpline
210
0.0
220
0.0
230
1.0
 70
     8
 71
     3
 72
     8
 73
     4
 74
     0
 42
0.00000001
 43
0.00000001
 40
0.0
 40
0.0
 40
0.0
 40
0.0
 40
1.0
 40
1.0
 40
1.0
 40
1.0
 10
147.08520606598
 20
153.5698602431535
 30
0.0
 10
146.6348978302954
 20
154.3675753682671
 30
0.0
 10
146.1842040137718
 20
155.1650736679243
 30
0.0
 10
145.7331770450586
 20
155.9623842381122
 30
0.0
  0
LINE
  5
B3
330
1F
100
AcDbEntity
  8
0
  6
Continuous
 62
     7
370
    15
100
AcDbLine
 10
147.085206066
 20
142.8680368886
 30
0.0
 11
147.085206066
 21
153.5698602432
 31
0.0
  0
SPLINE
  5
B4
330
1F
100
AcDbEntity
  8
0
  6
Continuous
 62
     7
370
    15
100
AcDbSpline
210
0.0
220
0.0
230
1.0
 70
     8
 71
     3
 72
     8
 73
     4
 74
     0
 42
0.00000001
 43
0.00000001
 40
0.0
 40
0.0
 40
0.0
 40
0.0
 40
1.0
 40
1.0
 40
1.0
 40
1.0
 10
152.2572350869014
 20
155.9623842381122
 30
0.0
 10
151.8062081181881
 20
155.1650736679243
 30
0.0
 10
151.3555143016645
 20
154.3675753682671
 30
0.0
 10
150.90520606598
 20
153.5698602431535
 30
0.0
  0
LINE
  5
B5
330
1F
100
AcDbEntity
  8
0
  6
Continuous
 62
     7
370
    15
100
AcDbLine
 10
150.905206066
 20
142.8680368886
 30
0.0
 11
150.905206066
 21
153.5698602432
 31
0.0
  0
LINE
  5
B6
330
1F
100
AcDbEntity
  8
0
  6
Continuous
 62
     7
370
    15
100
AcDbLine
 10
150.105206066
 20
151.8468651426
 30
0.0
 11
147.885206066
 21
151.8468651426
 31
0.0
  0
ARC
  5
B7
330
1F
100
AcDbEntity
  8
0
  6
Continuous
 62
     7
370
    15
100
AcDbCircle
 10
137.9953613375
 20
139.6522566091
 30
0.0
 40
11.33840338143626
100
AcDbArc
 50
77.5376198829
 51
102.5123050503
  0
LINE
  5
B8
330
1F
100
AcDbEntity
  8
0
  6
Continuous
 62
     7
370
    15
100
AcDbLine
 10
80.745206066
 20
74.7225893824
 30
0.0
 11
80.745206066
 21
74.7243041806
 31
0.0
  0
LINE
  5
B9
330
1F
100
AcDbEntity
  8
0
  6
Continuous
 62
     7
370
    15
100
AcDbLine
 10
80.745206066
 20
139.2225893824
 30
0.0
 11
80.745206066
 21
139.2208745843
 31
0.0
  0
SPLINE
  5
BA
330
1F
100
AcDbEntity
  8
0
  6
Continuous
 62
     7
370
    15
100
AcDbSpline
210
0.0
220
0.0
230
1.0
 70
     8
 71
     3
 72
    10
 73
     6
 74
     0
 42
0.00000001
 43
0.00000001
 40
0.0
 40
0.0
 40
0.0
 40
0.0
 40
0.5
 40
0.5
 40
1.0
 40
1.0
 40
1.0
 40
1.0
 10
180.8765918574559
 20
121.9611926097307
 30
0.0
 10
180.9152871640631
 20
121.9647588624317
 30
0.0
 10
180.9450635606511
 20
121.9676448635456
 30
0.0
 10
180.9851501136266
 20
121.9715738611205
 30
0.0
 10
180.99520606598
 20
121.9725893824486
 30
0.0
 10
180.99520606598
 20
121.9725893824486
 30
0.0
  0
LINE
  5
BB
330
1F
100
AcDbEntity
  8
0
  6
Continuous
 62
     7
370
    15
100
AcDbLine
 10
180.8765918575
 20
91.9725893824
 30
0.0
 11
180.8765918575
 21
121.9611926097
 31
0.0
  0
LINE
  5
BC
330
1F
100
AcDbEntity
  8
0
  6
Continuous
 62
     7
370
    15
100
AcDbLine
 10
168.6187826274
 20
121.8076840945
 30
0.0
 11
168.7909477336
 21
121.7890406329
 31
0.0
  0
SPLINE
  5
BD
330
1F
100
AcDbEntity
  8
0
  6
Continuous
 62
     7
370
    15
100
AcDbSpline
210
0.0
220
0.0
230
1.0
 70
     8
 71
     3
 72
    37
 73
    33
 74
     0
 42
0.00000001
 43
0.00000001
 40
0.0
 40
0.0
 40
0.0
 40
0.0
 40
0.0260745690363601
 40
0.0485613789562398
 40
0.0686516358259723
 40
0.1094511196058723
 40
0.1301874919269454
 40
0.1516489175492185
 40
0.1951472409224608
 40
0.2172029083284292
 40
0.2418582355108156
 40
0.291818718891159
 40
0.3171485545383662
 40
0.3455750682187099
 40
0.4032428283255159
 40
0.4325284642472592
 40
0.4636592982830797
 40
0.5269199854930245
 40
0.5591193170383699
 40
0.5911186074605743
 40
0.6233445310618164
 40
0.6563033069143767
 40
0.6895250809470408
 40
0.7206642780458509
 40
0.7842158098972082
 40
0.8167789331396252
 40
0.8395613286466261
 40
0.8858326780637183
 40
0.9093994472971457
 40
0.9321878521921788
 40
0.978711270230784
 40
0.9999999999999999
 40
0.9999999999999999
 40
0.9999999999999999
 40
0.9999999999999999
 10
174.435443906362
 20
121.9709694596203
 30
0.0
 10
174.4369097639353
 20
121.9712112238399
 30
0.0
 10
174.4396397827906
 20
121.9716614864642
 30
0.0
 10
174.4001185774644
 20
121.9651257368002
 30
0.0
 10
174.3344354954135
 20
121.9543960266406
 30
0.0
 10
174.236400835975
 20
121.938682749498
 30
0.0
 10
174.108158378986
 20
121.9189251856661
 30
0.0
 10
173.9564199151557
 20
121.8962403994362
 30
0.0
 10
173.7744101875824
 20
121.8704236593544
 30
0.0
 10
173.5619576422095
 20
121.8425138661364
 30
0.0
 10
173.317700320444
 20
121.8123158119216
 30
0.0
 10
173.0404807881189
 20
121.7816861519198
 30
0.0
 10
172.7336622728915
 20
121.7526715278795
 30
0.0
 10
172.3910616398366
 20
121.7242526123128
 30
0.0
 10
172.0178100806143
 20
121.7005518727429
 30
0.0
 10
171.6250748299181
 20
121.6841313996944
 30
0.0
 10
171.2079943036971
 20
121.6730061318543
 30
0.0
 10
170.7753203489347
 20
121.6719450483576
 30
0.0
 10
170.3442548812687
 20
121.6814841069645
 30
0.0
 10
170.0221989213812
 20
121.693830779607
 30
0.0
 10
169.7041349418149
 20
121.7110766690575
 30
0.0
 10
169.3911810779788
 20
121.7329155191026
 30
0.0
 10
169.0933848111515
 20
121.7581918935544
 30
0.0
 10
168.7207182463725
 20
121.7949548257598
 30
0.0
 10
168.381338054888
 20
121.8351200813064
 30
0.0
 10
168.1071989438397
 20
121.8717859072973
 30
0.0
 10
167.8970263551333
 20
121.9015537098935
 30
0.0
 10
167.7354500351162
 20
121.9259823211835
 30
0.0
 10
167.6104810256974
 20
121.9456549456058
 30
0.0
 10
167.5118975959174
 20
121.9615286108788
 30
0.0
 10
167.452481777507
 20
121.9713807275392
 30
0.0
 10
167.4478020824285
 20
121.9721582353926
 30
0.0
 10
167.4463329538556
 20
121.9724023237326
 30
0.0
  0
SPLINE
  5
BE
330
1F
100
AcDbEntity
  8
0
  6
Continuous
 62
     7
370
    15
100
AcDbSpline
210
0.0
220
0.0
230
1.0
 70
     8
 71
     3
 72
     9
 73
     5
 74
     0
 42
0.00000001
 43
0.00000001
 40
0.0
 40
0.0
 40
0.0
 40
0.0
 40
0.3625033216874273
 40
1.0
 40
1.0
 40
1.0
 40
1.0
 10
168.3564243355344
 20
121.8396413985942
 30
0.0
 10
168.385790151253
 20
121.8357845504389
 30
0.0
 10
168.4667985557606
 20
121.8251450668133
 30
0.0
 10
168.5596134442464
 20
121.8144818559602
 30
0.0
 10
168.6187826273541
 20
121.8076840944612
 30
0.0
  0
SPLINE
  5
BF
330
1F
100
AcDbEntity
  8
0
  6
Continuous
 62
     7
370
    15
100
AcDbSpline
210
0.0
220
0.0
230
1.0
 70
     8
 71
     3
 72
    60
 73
    56
 74
     0
 42
0.00000001
 43
0.00000001
 40
-0.0312500000000002
 40
-0.0312500000000002
 40
0.0
 40
0.0
 40
0.0625000000000008
 40
0.0625000000000008
 40
0.0937500000000011
 40
0.0937500000000011
 40
0.1250000000000015
 40
0.1250000000000015
 40
0.1875000000000012
 40
0.1875000000000012
 40
0.250000000000001
 40
0.250000000000001
 40
0.2812500000000009
 40
0.2812500000000009
 40
0.3125000000000008
 40
0.3125000000000008
 40
0.3437500000000007
 40
0.3437500000000007
 40
0.3750000000000005
 40
0.3750000000000005
 40
0.4062500000000004
 40
0.4062500000000004
 40
0.4375000000000003
 40
0.4375000000000003
 40
0.4687500000000002
 40
0.4687500000000002
 40
0.5
 40
0.5
 40
0.5624999999999991
 40
0.5624999999999991
 40
0.5937499999999986
 40
0.5937499999999986
 40
0.6249999999999981
 40
0.6249999999999981
 40
0.6562499999999976
 40
0.6562499999999976
 40
0.6874999999999971
 40
0.6874999999999971
 40
0.749999999999997
 40
0.749999999999997
 40
0.7812499999999974
 40
0.7812499999999974
 40
0.8124999999999978
 40
0.8124999999999978
 40
0.8437499999999982
 40
0.8437499999999982
 40
0.8749999999999986
 40
0.8749999999999986
 40
0.906249999999999
 40
0.906249999999999
 40
0.9374999999999993
 40
0.9374999999999993
 40
0.9687499999999998
 40
0.9687499999999998
 40
1.0
 40
1.0
 40
1.062500000000001
 40
1.062500000000001
 10
168.4490729206049
 20
109.0612631701046
 30
0.0
 10
168.958202044642
 20
109.4495399635982
 30
0.0
 10
169.3354202001716
 20
109.6403879060677
 30
0.0
 10
169.9455052698826
 20
109.8336731260791
 30
0.0
 10
170.1518065694493
 20
109.8807855196358
 30
0.0
 10
170.5700024880482
 20
109.9422440699579
 30
0.0
 10
170.7831103117657
 20
109.9565506610138
 30
0.0
 10
171.4230261052378
 20
109.9484163285348
 30
0.0
 10
171.8401496055809
 20
109.8770763611551
 30
0.0
 10
172.6467768651733
 20
109.5983775117123
 30
0.0
 10
173.0163458696914
 20
109.3989098670448
 30
0.0
 10
173.5138963178386
 20
108.9965588911053
 30
0.0
 10
173.6651555920979
 20
108.8485522529033
 30
0.0
 10
173.9350445031627
 20
108.5244352503003
 30
0.0
 10
174.055238659995
 20
108.3453606706869
 30
0.0
 10
174.2492415252601
 20
107.9691543608575
 30
0.0
 10
174.3237956844551
 20
107.7723974623638
 30
0.0
 10
174.4239192637661
 20
107.3599115692022
 30
0.0
 10
174.4482620644663
 20
107.1444212292132
 30
0.0
 10
174.4415166838279
 20
106.7212913588687
 30
0.0
 10
174.4104988762728
 20
106.5072794366826
 30
0.0
 10
174.2972640447201
 20
106.0966294003875
 30
0.0
 10
174.2162161109489
 20
105.9006301401087
 30
0.0
 10
174.0084215752829
 20
105.525987748399
 30
0.0
 10
173.8850245426266
 20
105.3534134920791
 30
0.0
 10
173.6048056860867
 20
105.0350524088236
 30
0.0
 10
173.4469444761931
 20
104.8889307392176
 30
0.0
 10
172.9432786460184
 20
104.5026471988686
 30
0.0
 10
172.5574336857931
 20
104.3062826751856
 30
0.0
 10
171.9526163836248
 20
104.1135969241672
 30
0.0
 10
171.7441302914467
 20
104.0653941705185
 30
0.0
 10
171.3217572701655
 20
104.0029467890629
 30
0.0
 10
171.1103814003885
 20
103.9888453156709
 30
0.0
 10
170.6872632459017
 20
103.9937168760472
 30
0.0
 10
170.4743188833265
 20
104.0129057869522
 30
0.0
 10
170.0534170443075
 20
104.085386885556
 30
0.0
 10
169.8485553676165
 20
104.1379333633337
 30
0.0
 10
169.2505211392258
 20
104.3441467506735
 30
0.0
 10
168.8687226550702
 20
104.5505528672693
 30
0.0
 10
168.378915098832
 20
104.9466982807419
 30
0.0
 10
168.2277657203818
 20
105.093681436727
 30
0.0
 10
167.9536602691906
 20
105.4227258605534
 30
0.0
 10
167.8357698692115
 20
105.5987970990058
 30
0.0
 10
167.6413185358992
 20
105.975602534861
 30
0.0
 10
167.5646539011725
 20
106.1788300368723
 30
0.0
 10
167.4656866582903
 20
106.5906825921423
 30
0.0
 10
167.4417606465493
 20
106.8019027596625
 30
0.0
 10
167.4494462187291
 20
107.2322897919584
 30
0.0
 10
167.4807555566501
 20
107.4423757114106
 30
0.0
 10
167.594777852532
 20
107.8530067484823
 30
0.0
 10
167.6780967299348
 20
108.0526544932102
 30
0.0
 10
167.8849111424611
 20
108.4233475003609
 30
0.0
 10
168.0106476402649
 20
108.5986664971357
 30
0.0
 10
168.2924836600922
 20
108.9169736710576
 30
0.0
 10
168.4490729206049
 20
109.0612631701046
 30
0.0
 10
168.958202044642
 20
109.4495399635982
 30
0.0
  0
SPLINE
  5
C0
330
1F
100
AcDbEntity
  8
0
  6
Continuous
 62
     7
370
    15
100
AcDbSpline
210
0.0
220
0.0
230
1.0
 70
     8
 71
     3
 72
     9
 73
     5
 74
     0
 42
0.00000001
 43
0.00000001
 40
0.0
 40
0.0
 40
0.0
 40
0.0
 40
0.8306961451680224
 40
1.0
 40
1.0
 40
1.0
 40
1.0
 10
168.6187826276617
 20
92.13749467047083
 30
0.0
 10
168.5468724708037
 20
92.12928761904024
 30
0.0
 10
168.4603063331415
 20
92.11940789168344
 30
0.0
 10
168.3874603173398
 20
92.10969923395066
 30
0.0
 10
168.3751272060555
 20
92.10805552077127
 30
0.0
  0
SPLINE
  5
C1
330
1F
100
AcDbEntity
  8
0
  6
Continuous
 62
     7
370
    15
100
AcDbSpline
210
0.0
220
0.0
230
1.0
 70
     8
 71
     3
 72
    39
 73
    35
 74
     0
 42
0.00000001
 43
0.00000001
 40
0.0
 40
0.0
 40
0.0
 40
0.0
 40
0.006093091591571
 40
0.0287231216979007
 40
0.0488575597471501
 40
0.0897791026067266
 40
0.1105983631044342
 40
0.1315246787516566
 40
0.1739506973677868
 40
0.1954697364836927
 40
0.2192513009537082
 40
0.2674372844787152
 40
0.2918637061366422
 40
0.3194211748210427
 40
0.3753053589442885
 40
0.4036706937147599
 40
0.4343190429066374
 40
0.496575277222885
 40
0.5282468941304275
 40
0.5601856082086006
 40
0.5923465560573515
 40
0.6252194849322187
 40
0.6583446550624827
 40
0.6898805263369184
 40
0.7216586971763913
 40
0.7542539956277865
 40
0.787158990822531
 40
0.8110125140027785
 40
0.8594545121918981
 40
0.8841254510707387
 40
0.9079858265415894
 40
0.9567347565320077
 40
0.9817327968062035
 40
1.0
 40
1.0
 40
1.0
 40
1.0
 10
167.4500564344954
 20
91.97339269092643
 30
0.0
 10
167.4484079156084
 20
91.97311974176539
 30
0.0
 10
167.440636719673
 20
91.9718330465218
 30
0.0
 10
167.4601927822598
 20
91.97507971374962
 30
0.0
 10
167.5020082269365
 20
91.98198124576567
 30
0.0
 10
167.5807910555606
 20
91.99482600022367
 30
0.0
 10
167.6898329070548
 20
92.01202512786519
 30
0.0
 10
167.8211384347251
 20
92.03222362841711
 30
0.0
 10
167.9822081043896
 20
92.05595011604761
 30
0.0
 10
168.1735219518051
 20
92.08234245512932
 30
0.0
 10
168.3945922440018
 20
92.11131267364466
 30
0.0
 10
168.6481206356742
 20
92.14156504468868
 30
0.0
 10
168.9319887651776
 20
92.1713153974513
 30
0.0
 10
169.251756842857
 20
92.2014210154092
 30
0.0
 10
169.6036668993279
 20
92.22823308155562
 30
0.0
 10
169.9786338511719
 20
92.24914447149435
 30
0.0
 10
170.3822910229422
 20
92.26582727814647
 30
0.0
 10
170.806405514822
 20
92.27342492995164
 30
0.0
 10
171.234548814219
 20
92.27067338342879
 30
0.0
 10
171.5584808160213
 20
92.26331811158823
 30
0.0
 10
171.8821857152926
 20
92.25071589165113
 30
0.0
 10
172.2031216918823
 20
92.23306864335909
 30
0.0
 10
172.5127230724782
 20
92.21117549529531
 30
0.0
 10
172.8072981971762
 20
92.18602282157889
 30
0.0
 10
173.0865511971026
 20
92.15838482650486
 30
0.0
 10
173.3528741376133
 20
92.12859515675585
 30
0.0
 10
173.5788462456035
 20
92.10060403855472
 30
0.0
 10
173.8223498987971
 20
92.06820304103059
 30
0.0
 10
174.0179293897037
 20
92.03995755166454
 30
0.0
 10
174.1767752200537
 20
92.01574784588209
 30
0.0
 10
174.3099038183932
 20
91.9948229639146
 30
0.0
 10
174.399635988202
 20
91.98014321609006
 30
0.0
 10
174.4409393915157
 20
91.97329924423059
 30
0.0
 10
174.4432274087555
 20
91.97291834532051
 30
0.0
 10
174.4441934422844
 20
91.97275752436518
 30
0.0
  0
CIRCLE
  5
C2
330
1F
100
AcDbEntity
  8
0
  6
Continuous
 62
     7
370
    15
100
AcDbCircle
 10
170.945206066
 20
106.9725893824
 30
0.0
 40
2.5
  0
SPLINE
  5
C3
330
1F
100
AcDbEntity
  8
0
  6
Continuous
 62
     7
370
    15
100
AcDbSpline
210
0.0
220
0.0
230
1.0
 70
     8
 71
     3
 72
    11
 73
     7
 74
     0
 42
0.00000001
 43
0.00000001
 40
0.0
 40
0.0
 40
0.0
 40
0.0
 40
0.2568388477201546
 40
0.6840667230375899
 40
0.8417177678610454
 40
1.0
 40
1.0
 40
1.0
 40
1.0
 10
180.990318626465
 20
121.9631508363656
 30
0.0
 10
180.9907281642813
 20
121.9631587696998
 30
0.0
 10
180.9918189307071
 20
121.9631798994081
 30
0.0
 10
180.9558595468974
 20
121.9624402044426
 30
0.0
 10
180.9120121777796
 20
121.9616941180451
 30
0.0
 10
180.8884143458738
 20
121.9613600016736
 30
0.0
 10
180.8765918574559
 20
121.9611926097307
 30
0.0
  0
LINE
  5
C4
330
1F
100
AcDbEntity
  8
0
  6
Continuous
 62
     7
370
    15
100
AcDbLine
 10
218.995206066
 20
96.8213703658
 30
0.0
 11
218.995206066
 21
117.1238082402
 31
0.0
  0
LINE
  5
C5
330
1F
100
AcDbEntity
  8
0
  6
HIDDEN
 62
     7
370
     0
100
AcDbLine
 10
176.995206066
 20
102.9725893824
 30
0.0
 11
176.995206066
 21
110.9725893824
 31
0.0
  0
LINE
  5
C6
330
1F
100
AcDbEntity
  8
0
  6
HIDDEN
 62
     7
370
     0
100
AcDbLine
 10
161.495206066
 20
102.9725893824
 30
0.0
 11
161.495206066
 21
110.9725893824
 31
0.0
  0
LINE
  5
C7
330
1F
100
AcDbEntity
  8
0
  6
HIDDEN
 62
     7
370
     0
100
AcDbLine
 10
160.995206066
 20
103.4725893824
 30
0.0
 11
160.995206066
 21
110.4725893824
 31
0.0
  0
LINE
  5
C8
330
1F
100
AcDbEntity
  8
0
  6
HIDDEN
 62
     7
370
     0
100
AcDbLine
 10
180.995206066
 20
105.9725893824
 30
0.0
 11
178.995206066
 21
105.9725893824
 31
0.0
  0
LINE
  5
C9
330
1F
100
AcDbEntity
  8
0
  6
HIDDEN
 62
     7
370
     0
100
AcDbLine
 10
180.995206066
 20
103.4725893824
 30
0.0
 11
180.995206066
 21
105.9725893824
 31
0.0
  0
LINE
  5
CA
330
1F
100
AcDbEntity
  8
0
  6
HIDDEN
 62
     7
370
     0
100
AcDbLine
 10
180.995206066
 20
107.9725893824
 30
0.0
 11
180.995206066
 21
110.4725893824
 31
0.0
  0
LINE
  5
CB
330
1F
100
AcDbEntity
  8
0
  6
HIDDEN
 62
     7
370
     0
100
AcDbLine
 10
178.995206066
 20
107.9725893824
 30
0.0
 11
180.995206066
 21
107.9725893824
 31
0.0
  0
LINE
  5
CC
330
1F
100
AcDbEntity
  8
0
  6
HIDDEN
 62
     7
370
     0
100
AcDbLine
 10
178.995206066
 20
105.9725893824
 30
0.0
 11
178.995206066
 21
107.9725893824
 31
0.0
  0
LINE
  5
CD
330
1F
100
AcDbEntity
  8
0
  6
HIDDEN
 62
     7
370
     0
100
AcDbLine
 10
175.995206066
 20
106.9725893824
 30
0.0
 11
175.995206066
 21
105.9725893824
 31
0.0
  0
LINE
  5
CE
330
1F
100
AcDbEntity
  8
0
  6
HIDDEN
 62
     7
370
     0
100
AcDbLine
 10
175.995206066
 20
106.9725893824
 30
0.0
 11
178.995206066
 21
106.9725893824
 31
0.0
  0
LINE
  5
CF
330
1F
100
AcDbEntity
  8
0
  6
HIDDEN
 62
     7
370
     0
100
AcDbLine
 10
175.995206066
 20
107.9725893824
 30
0.0
 11
175.995206066
 21
106.9725893824
 31
0.0
  0
LINE
  5
D0
330
1F
100
AcDbEntity
  8
0
  6
HIDDEN
 62
     7
370
     0
100
AcDbLine
 10
165.9952060659
 20
106.9725893824
 30
0.0
 11
165.9952060659
 21
107.9725893824
 31
0.0
  0
LINE
  5
D1
330
1F
100
AcDbEntity
  8
0
  6
HIDDEN
 62
     7
370
     0
100
AcDbLine
 10
165.9952060659
 20
106.9725893824
 30
0.0
 11
160.995206066
 21
106.9725893824
 31
0.0
  0
LINE
  5
D2
330
1F
100
AcDbEntity
  8
0
  6
HIDDEN
 62
     7
370
     0
100
AcDbLine
 10
165.9952060659
 20
105.9725893824
 30
0.0
 11
165.9952060659
 21
106.9725893824
 31
0.0
  0
LINE
  5
D3
330
1F
100
AcDbEntity
  8
0
  6
HIDDEN
 62
     7
370
     0
100
AcDbLine
 10
165.9952060659
 20
104.9725893824
 30
0.0
 11
165.9952060659
 21
105.9725893824
 31
0.0
  0
LINE
  5
D4
330
1F
100
AcDbEntity
  8
0
  6
HIDDEN
 62
     7
370
     0
100
AcDbLine
 10
175.995206066
 20
105.9725893824
 30
0.0
 11
175.995206066
 21
104.9725893824
 31
0.0
  0
LINE
  5
D5
330
1F
100
AcDbEntity
  8
0
  6
HIDDEN
 62
     7
370
     0
100
AcDbLine
 10
165.9952060659
 20
107.9725893824
 30
0.0
 11
165.9952060659
 21
108.9725893824
 31
0.0
  0
LINE
  5
D6
330
1F
100
AcDbEntity
  8
0
  6
HIDDEN
 62
     7
370
     0
100
AcDbLine
 10
175.995206066
 20
108.9725893824
 30
0.0
 11
175.995206066
 21
107.9725893824
 31
0.0
  0
LINE
  5
D7
330
1F
100
AcDbEntity
  8
0
  6
HIDDEN
 62
     7
370
     0
100
AcDbLine
 10
165.9952060659
 20
108.9725893824
 30
0.0
 11
160.9952060659
 21
108.9725893824
 31
0.0
  0
LINE
  5
D8
330
1F
100
AcDbEntity
  8
0
  6
HIDDEN
 62
     7
370
     0
100
AcDbLine
 10
175.995206066
 20
108.9725893824
 30
0.0
 11
180.995206066
 21
108.9725893824
 31
0.0
  0
LINE
  5
D9
330
1F
100
AcDbEntity
  8
0
  6
HIDDEN
 62
     7
370
     0
100
AcDbLine
 10
165.9952060659
 20
104.9725893824
 30
0.0
 11
160.9952060659
 21
104.9725893824
 31
0.0
  0
LINE
  5
DA
330
1F
100
AcDbEntity
  8
0
  6
HIDDEN
 62
     7
370
     0
100
AcDbLine
 10
175.995206066
 20
104.9725893824
 30
0.0
 11
180.995206066
 21
104.9725893824
 31
0.0
  0
LINE
  5
DB
330
1F
100
AcDbEntity
  8
0
  6
HIDDEN
 62
     7
370
     0
100
AcDbLine
 10
218.8628290324
 20
116.4789478282
 30
0.0
 11
218.7450495851
 21
113.4812607194
 31
0.0
  0
LINE
  5
DC
330
1F
100
AcDbEntity
  8
0
  6
HIDDEN
 62
     7
370
     0
100
AcDbLine
 10
213.5288912285
 20
116.6885188153
 30
0.0
 11
213.4111117812
 21
113.6908317065
 31
0.0
  0
LINE
  5
DD
330
1F
100
AcDbEntity
  8
0
  6
HIDDEN
 62
     7
370
     0
100
AcDbLine
 10
218.995206066
 20
115.7231680514
 30
0.0
 11
218.9178838588
 21
113.7551864645
 31
0.0
  0
LINE
  5
DE
330
1F
100
AcDbEntity
  8
0
  6
HIDDEN
 62
     7
370
     0
100
AcDbLine
 10
213.0096468025
 20
116.208534205
 30
0.0
 11
212.931127171
 21
114.2100761325
 31
0.0
  0
LINE
  5
DF
330
1F
100
AcDbEntity
  8
0
  6
HIDDEN
 62
     7
370
     0
100
AcDbLine
 10
216.9967479935
 20
115.8016876829
 30
0.0
 11
216.9673031317
 21
115.0522659057
 31
0.0
  0
LINE
  5
E0
330
1F
100
AcDbEntity
  8
0
  6
HIDDEN
 62
     7
370
     0
100
AcDbLine
 10
216.9673031317
 20
115.0522659057
 30
0.0
 11
218.9657612042
 21
114.9737462742
 31
0.0
  0
LINE
  5
E1
330
1F
100
AcDbEntity
  8
0
  6
HIDDEN
 62
     7
370
     0
100
AcDbLine
 10
216.9378582699
 20
114.3028441286
 30
0.0
 11
216.9673031317
 21
115.0522659057
 31
0.0
  0
LINE
  5
E2
330
1F
100
AcDbEntity
  8
0
  6
HIDDEN
 62
     7
370
     0
100
AcDbLine
 10
216.9378582699
 20
114.3028441286
 30
0.0
 11
218.9363163423
 21
114.224324497
 31
0.0
  0
LINE
  5
E3
330
1F
100
AcDbEntity
  8
0
  6
HIDDEN
 62
     7
370
     0
100
AcDbLine
 10
216.9967479935
 20
115.8016876829
 30
0.0
 11
218.995206066
 21
115.7231680514
 31
0.0
  0
LINE
  5
E4
330
1F
100
AcDbEntity
  8
0
  6
HIDDEN
 62
     7
370
     0
100
AcDbLine
 10
218.8628290324
 20
98.9673882746
 30
0.0
 11
218.921718756
 21
97.4685447203
 31
0.0
  0
LINE
  5
E5
330
1F
100
AcDbEntity
  8
0
  6
HIDDEN
 62
     7
370
     0
100
AcDbLine
 10
218.8039393087
 20
100.466231829
 30
0.0
 11
218.8628290324
 21
98.9673882746
 31
0.0
  0
LINE
  5
E6
330
1F
100
AcDbEntity
  8
0
  6
HIDDEN
 62
     7
370
     0
100
AcDbLine
 10
213.5288912285
 20
98.7578172875
 30
0.0
 11
213.5877809521
 21
97.2589737332
 31
0.0
  0
LINE
  5
E7
330
1F
100
AcDbEntity
  8
0
  6
HIDDEN
 62
     7
370
     0
100
AcDbLine
 10
213.4700015048
 20
100.2566608419
 30
0.0
 11
213.5288912285
 21
98.7578172875
 31
0.0
  0
LINE
  5
E8
330
1F
100
AcDbEntity
  8
0
  6
HIDDEN
 62
     7
370
     0
100
AcDbLine
 10
213.0292767104
 20
98.7381873797
 30
0.0
 11
213.0685365261
 21
97.7389583434
 31
0.0
  0
LINE
  5
E9
330
1F
100
AcDbEntity
  8
0
  6
HIDDEN
 62
     7
370
     0
100
AcDbLine
 10
212.9900168946
 20
99.7374164159
 30
0.0
 11
213.0292767104
 21
98.7381873797
 31
0.0
  0
LINE
  5
EA
330
1F
100
AcDbEntity
  8
0
  6
HIDDEN
 62
     7
370
     0
100
AcDbLine
 10
218.9767735825
 20
100.1923060839
 30
0.0
 11
218.995206066
 21
99.7231680514
 31
0.0
  0
LINE
  5
EB
330
1F
100
AcDbEntity
  8
0
  6
HIDDEN
 62
     7
370
     0
100
AcDbLine
 10
217.0261928553
 20
98.8952266427
 30
0.0
 11
219.0246509278
 21
98.9737462742
 31
0.0
  0
LINE
  5
EC
330
1F
100
AcDbEntity
  8
0
  6
HIDDEN
 62
     7
370
     0
100
AcDbLine
 10
216.9967479935
 20
99.6446484199
 30
0.0
 11
217.0261928553
 21
98.8952266427
 31
0.0
  0
LINE
  5
ED
330
1F
100
AcDbEntity
  8
0
  6
HIDDEN
 62
     7
370
     0
100
AcDbLine
 10
217.0556377171
 20
98.1458048655
 30
0.0
 11
217.0261928553
 21
98.8952266427
 31
0.0
  0
LINE
  5
EE
330
1F
100
AcDbEntity
  8
0
  6
HIDDEN
 62
     7
370
     0
100
AcDbLine
 10
216.9967479935
 20
99.6446484199
 30
0.0
 11
218.995206066
 21
99.7231680514
 31
0.0
  0
LINE
  5
EF
330
1F
100
AcDbEntity
  8
0
  6
HIDDEN
 62
     7
370
     0
100
AcDbLine
 10
217.0556377171
 20
98.1458048655
 30
0.0
 11
219.0540957896
 21
98.224324497
 31
0.0
  0
SPLINE
  5
F0
330
1F
100
AcDbEntity
  8
0
  6
HIDDEN
 62
     7
370
     0
100
AcDbSpline
210
0.0
220
0.0
230
1.0
 70
     8
 71
     3
 72
    80
 73
    76
 74
     0
 42
0.00000001
 43
0.00000001
 40
-0.03125
 40
-0.03125
 40
0.0
 40
0.0
 40
0.0312500000000002
 40
0.0312500000000002
 40
0.0468750000000002
 40
0.0468750000000002
 40
0.0625000000000001
 40
0.0625000000000001
 40
0.0937499999999999
 40
0.0937499999999999
 40
0.1249999999999997
 40
0.1249999999999997
 40
0.1562499999999995
 40
0.1562499999999995
 40
0.1874999999999993
 40
0.1874999999999993
 40
0.2187499999999991
 40
0.2187499999999991
 40
0.2499999999999989
 40
0.2499999999999989
 40
0.2812499999999987
 40
0.2812499999999987
 40
0.3124999999999984
 40
0.3124999999999984
 40
0.3281249999999985
 40
0.3281249999999985
 40
0.3437499999999986
 40
0.3437499999999986
 40
0.3749999999999986
 40
0.3749999999999986
 40
0.4062499999999987
 40
0.4062499999999987
 40
0.4218749999999989
 40
0.4218749999999989
 40
0.4374999999999991
 40
0.4374999999999991
 40
0.4687499999999993
 40
0.4687499999999993
 40
0.4999999999999994
 40
0.4999999999999994
 40
0.5312499999999997
 40
0.5312499999999997
 40
0.5624999999999998
 40
0.5624999999999998
 40
0.59375
 40
0.59375
 40
0.6250000000000001
 40
0.6250000000000001
 40
0.6562500000000003
 40
0.6562500000000003
 40
0.6875000000000006
 40
0.6875000000000006
 40
0.7031250000000007
 40
0.7031250000000007
 40
0.7187500000000007
 40
0.7187500000000007
 40
0.7500000000000003
 40
0.7500000000000003
 40
0.78125
 40
0.78125
 40
0.7968749999999998
 40
0.7968749999999998
 40
0.8124999999999997
 40
0.8124999999999997
 40
0.8437499999999998
 40
0.8437499999999998
 40
0.8749999999999998
 40
0.8749999999999998
 40
0.9062499999999999
 40
0.9062499999999999
 40
0.9375
 40
0.9375
 40
0.96875
 40
0.96875
 40
1.0
 40
1.0
 40
1.03125
 40
1.03125
 10
137.6646607532037
 20
155.8321386389266
 30
0.0
 10
138.3257513787563
 20
155.8321386389266
 30
0.0
 10
138.6507315080079
 20
155.8252404930998
 30
0.0
 10
139.1302049192543
 20
155.8047140651192
 30
0.0
 10
139.2886867370952
 20
155.7961578380317
 30
0.0
 10
139.6029062695994
 20
155.775431462814
 30
0.0
 10
139.7590265532798
 20
155.7632041626077
 30
0.0
 10
140.2130805822364
 20
155.7216348687784
 30
0.0
 10
140.5001839651762
 20
155.6872905836807
 30
0.0
 10
141.0435385212032
 20
155.6039664593584
 30
0.0
 10
141.3006421324088
 20
155.5545282365839
 30
0.0
 10
141.7615483873476
 20
155.443148506824
 30
0.0
 10
141.9684460965626
 20
155.3808539933118
 30
0.0
 10
142.3339714105548
 20
155.2409243504408
 30
0.0
 10
142.4891769326807
 20
155.1643084526918
 30
0.0
 10
142.7386073192804
 20
155.0003498328361
 30
0.0
 10
142.8346972750656
 20
154.9117929787404
 30
0.0
 10
142.9632161242592
 20
154.7243122966346
 30
0.0
 10
142.995026994437
 20
154.6270758351801
 30
0.0
 10
142.9953836442102
 20
154.4254431958531
 30
0.0
 10
142.9628863920132
 20
154.3198944040149
 30
0.0
 10
142.8352609182987
 20
154.1097796213264
 30
0.0
 10
142.7408325172468
 20
154.0047141133574
 30
0.0
 10
142.5529716972612
 20
153.8478364061064
 30
0.0
 10
142.4821436984581
 20
153.7954026724006
 30
0.0
 10
142.3274218064928
 20
153.6929642267709
 30
0.0
 10
142.2434453363094
 20
153.6428164981191
 30
0.0
 10
141.9721216666649
 20
153.4958005416856
 30
0.0
 10
141.7655724480626
 20
153.4023127212511
 30
0.0
 10
141.2989623078736
 20
153.2265258636368
 30
0.0
 10
141.0465967382481
 20
153.1471473885531
 30
0.0
 10
140.6406953965694
 20
153.041664951059
 30
0.0
 10
140.5007947790919
 20
153.0087793862189
 30
0.0
 10
140.211570843845
 20
152.9478639069902
 30
0.0
 10
140.0617313875557
 20
152.9197833353478
 30
0.0
 10
139.6076148179449
 20
152.844981293305
 30
0.0
 10
139.2959635992081
 20
152.8069432350589
 30
0.0
 10
138.6549671342957
 20
152.7553313085347
 30
0.0
 10
138.3234395063435
 20
152.7420173750133
 30
0.0
 10
137.6706484612721
 20
152.7419202886852
 30
0.0
 10
137.3461122562402
 20
152.7547083738463
 30
0.0
 10
136.7008428068238
 20
152.8061985634422
 30
0.0
 10
136.3850998006611
 20
152.8447231427623
 30
0.0
 10
135.7832105056774
 20
152.9436257056203
 30
0.0
 10
135.4924612748659
 20
153.0047298035453
 30
0.0
 10
134.9455494831814
 20
153.146539236656
 30
0.0
 10
134.6937721193445
 20
153.2258737212352
 30
0.0
 10
134.2323841267234
 20
153.3992524658967
 30
0.0
 10
134.0211148471253
 20
153.4944124106507
 30
0.0
 10
133.6578104947491
 20
153.6909849340266
 30
0.0
 10
133.5040038463063
 20
153.792741162433
 30
0.0
 10
133.3153843767089
 20
153.9495271252185
 30
0.0
 10
133.2593538904998
 20
154.0027811589684
 30
0.0
 10
133.1637801287636
 20
154.1085857205212
 30
0.0
 10
133.1240172117386
 20
154.1612387848768
 30
0.0
 10
133.0282454614265
 20
154.3183125043359
 30
0.0
 10
132.9955226223004
 20
154.4218375396631
 30
0.0
 10
132.9948940359713
 20
154.6260522738902
 30
0.0
 10
133.0270801807061
 20
154.7235561114749
 30
0.0
 10
133.1219908825616
 20
154.8628831618266
 30
0.0
 10
133.1614576659606
 20
154.9081998933311
 30
0.0
 10
133.2563876646815
 20
154.9966397143199
 30
0.0
 10
133.3121444924449
 20
155.0398939647798
 30
0.0
 10
133.5000846104148
 20
155.1637854393698
 30
0.0
 10
133.6534460801309
 20
155.2394877301439
 30
0.0
 10
134.0157103150113
 20
155.3787421016021
 30
0.0
 10
134.2265587884772
 20
155.4425039431308
 30
0.0
 10
134.6872287587961
 20
155.5540007825986
 30
0.0
 10
134.93860313838
 20
155.6025268549153
 30
0.0
 10
135.4845110252781
 20
155.6865808382957
 30
0.0
 10
135.7753335999293
 20
155.7213793919625
 30
0.0
 10
136.3766602147093
 20
155.7765758567263
 30
0.0
 10
136.6911787993217
 20
155.7973937054801
 30
0.0
 10
137.3377602554417
 20
155.8252410383909
 30
0.0
 10
137.6646607532037
 20
155.8321386389266
 30
0.0
 10
138.3257513787563
 20
155.8321386389266
 30
0.0
  0
LINE
  5
F1
330
1F
100
AcDbEntity
  8
0
  6
HIDDEN
 62
     7
370
     0
100
AcDbLine
 10
145.7331770451
 20
145.9235521433
 30
0.0
 11
145.7331770451
 21
138.3225893824
 31
0.0
  0
LINE
  5
F2
330
1F
100
AcDbEntity
  8
0
  6
HIDDEN
 62
     7
370
     0
100
AcDbLine
 10
109.4086308154
 20
70.2367830202
 30
0.0
 11
109.1386751146
 21
70.2128569209
 31
0.0
  0
SPLINE
  5
F3
330
1F
100
AcDbEntity
  8
0
  6
HIDDEN
 62
     7
370
     0
100
AcDbSpline
210
0.0
220
0.0
230
1.0
 70
     8
 71
     3
 72
    13
 73
     9
 74
     0
 42
0.00000001
 43
0.00000001
 40
0.0
 40
0.0
 40
0.0
 40
0.0
 40
0.1247122447407212
 40
0.2490589432165421
 40
0.3740779474703908
 40
0.5009711379560823
 40
0.7521757810472769
 40
1.0
 40
1.0
 40
1.0
 40
1.0
 10
107.5145110837647
 20
143.9038954766991
 30
0.0
 10
107.5202976773277
 20
143.9031192300176
 30
0.0
 10
107.5318539032672
 20
143.9015690119249
 30
0.0
 10
107.6288642728575
 20
143.8893527333075
 30
0.0
 10
107.784158838707
 20
143.870425913998
 30
0.0
 10
108.0743458699036
 20
143.8364527566678
 30
0.0
 10
108.5618737981279
 20
143.7799263564334
 30
0.0
 10
109.1275950679632
 20
143.7321206246112
 30
0.0
 10
109.4085396034509
 20
143.7083796768397
 30
0.0
  0
SPLINE
  5
F4
330
1F
100
AcDbEntity
  8
0
  6
HIDDEN
 62
     7
370
     0
100
AcDbSpline
210
0.0
220
0.0
230
1.0
 70
     8
 71
     3
 72
    11
 73
     7
 74
     0
 42
0.00000001
 43
0.00000001
 40
0.0
 40
0.0
 40
0.0
 40
0.0
 40
0.3256999101706623
 40
0.6608826659965045
 40
0.9866328811341707
 40
1.0
 40
1.0
 40
1.0
 40
1.0
 10
119.248411721171
 20
138.3389116031957
 30
0.0
 10
119.3942933387259
 20
138.362177162057
 30
0.0
 10
119.6903039586828
 20
138.4093856631526
 30
0.0
 10
119.9194522745952
 20
138.4394791779275
 30
0.0
 10
120.0207259062926
 20
138.4526557242256
 30
0.0
 10
119.9930154351543
 20
138.4490439891761
 30
0.0
 10
119.9919231608162
 20
138.4489016240214
 30
0.0
  0
SPLINE
  5
F5
330
1F
100
AcDbEntity
  8
0
  6
HIDDEN
 62
     7
370
     0
100
AcDbSpline
210
0.0
220
0.0
230
1.0
 70
     8
 71
     3
 72
    13
 73
     9
 74
     0
 42
0.00000001
 43
0.00000001
 40
0.0
 40
0.0
 40
0.0
 40
0.0
 40
0.1540240180702759
 40
0.3222992228589685
 40
0.4885672441574978
 40
0.6560444607032465
 40
0.8273552663914773
 40
1.0
 40
1.0
 40
1.0
 40
1.0
 10
119.9744391073367
 20
75.49852465471393
 30
0.0
 10
119.9796248714013
 20
75.49785281321527
 30
0.0
 10
119.9904762162038
 20
75.49644696758412
 30
0.0
 10
119.9211346229192
 20
75.50543388054226
 30
0.0
 10
119.8210171247041
 20
75.51884800108449
 30
0.0
 10
119.6744893658437
 20
75.53948854826328
 30
0.0
 10
119.4882754654723
 20
75.56705400949862
 30
0.0
 10
119.3285727555513
 20
75.5931623598439
 30
0.0
 10
119.248411721171
 20
75.60626716170152
 30
0.0
  0
SPLINE
  5
F6
330
1F
100
AcDbEntity
  8
0
  6
HIDDEN
 62
     7
370
     0
100
AcDbSpline
210
0.0
220
0.0
230
1.0
 70
     8
 71
     3
 72
    33
 73
    29
 74
     0
 42
0.00000001
 43
0.00000001
 40
0.0
 40
0.0
 40
0.0
 40
0.0
 40
0.0315773698875104
 40
0.0633753287769057
 40
0.0958656851178231
 40
0.1285943208117605
 40
0.1601713694082662
 40
0.2244011681247345
 40
0.2571344568799636
 40
0.2885965627565487
 40
0.3526214070085076
 40
0.3852675959519929
 40
0.4162212184009612
 40
0.4791910353915302
 40
0.5112817741273479
 40
0.5421256322990662
 40
0.6048360558905652
 40
0.6367710793564881
 40
0.6680663384719832
 40
0.7316979547407203
 40
0.7641081282919966
 40
0.7957194290717577
 40
0.8275524266255816
 40
0.8600900250720824
 40
0.8928737620729298
 40
0.9241775068323748
 40
0.9878778414776339
 40
1.0
 40
1.0
 40
1.0
 40
1.0
 10
119.248411721171
 20
75.60626716170152
 30
0.0
 10
119.1645405741658
 20
75.62014090008326
 30
0.0
 10
118.9962123842218
 20
75.64798529416801
 30
0.0
 10
118.6968577878803
 20
75.6944179343984
 30
0.0
 10
118.3628583206215
 20
75.74303053641924
 30
0.0
 10
117.9970883587342
 20
75.79217846960648
 30
0.0
 10
117.4737084440453
 20
75.85624425519912
 30
0.0
 10
116.8972812354507
 20
75.91602576960425
 30
0.0
 10
116.2821440885992
 20
75.96602537706829
 30
0.0
 10
115.6458283625163
 20
76.00816536975172
 30
0.0
 10
114.9820478250776
 20
76.03680009448973
 30
0.0
 10
114.3099820734945
 20
76.04905954557334
 30
0.0
 10
113.6405334900627
 20
76.05038883668162
 30
0.0
 10
112.9753489229488
 20
76.03552831377216
 30
0.0
 10
112.3290576840583
 20
76.005670349383
 30
0.0
 10
111.6998677331999
 20
75.9669271213217
 30
0.0
 10
111.1001520410206
 20
75.91634888756184
 30
0.0
 10
110.5418524748988
 20
75.85794887309531
 30
0.0
 10
110.0116576045112
 20
75.79562564172579
 30
0.0
 10
109.5324909021997
 20
75.73021706719024
 30
0.0
 10
109.1175729170048
 20
75.66742816358426
 30
0.0
 10
108.8403005330788
 20
75.62292356476289
 30
0.0
 10
108.5987452475176
 20
75.58221461532791
 30
0.0
 10
108.3932532431692
 20
75.54615748467843
 30
0.0
 10
108.2290888194249
 20
75.51640045972607
 30
0.0
 10
108.0696548728596
 20
75.48681514630165
 30
0.0
 10
107.991416644911
 20
75.47186586729678
 30
0.0
 10
107.9991414352559
 20
75.473338289898
 30
0.0
 10
108.0003764399253
 20
75.47357369418818
 30
0.0
  0
SPLINE
  5
F7
330
1F
100
AcDbEntity
  8
0
  6
HIDDEN
 62
     7
370
     0
100
AcDbSpline
210
0.0
220
0.0
230
1.0
 70
     8
 71
     3
 72
    24
 73
    20
 74
     0
 42
0.00000001
 43
0.00000001
 40
0.0
 40
0.0
 40
0.0
 40
0.0
 40
0.0203729619474678
 40
0.0822870750602629
 40
0.1459896397253447
 40
0.2080895879354084
 40
0.2719360348739573
 40
0.3350079792507124
 40
0.3998886074506655
 40
0.4632504589199175
 40
0.5284999352472107
 40
0.5909722114153436
 40
0.6552989095534106
 40
0.7170937383192271
 40
0.7806505850197497
 40
0.8430286835696731
 40
0.9071616706581624
 40
0.9532355028060499
 40
1.0
 40
1.0
 40
1.0
 40
1.0
 10
108.0141231803318
 20
138.4689950828165
 30
0.0
 10
108.008744736436
 20
138.4700166575875
 30
0.0
 10
107.9870210215581
 20
138.4741428322732
 30
0.0
 10
108.1192944912666
 20
138.4489522205359
 30
0.0
 10
108.4052174737477
 20
138.3963847535673
 30
0.0
 10
108.8599873167257
 20
138.3179628149583
 30
0.0
 10
109.4505923698752
 20
138.2257784581468
 30
0.0
 10
110.1777214601764
 20
138.1273936913902
 30
0.0
 10
111.0112258049198
 20
138.0353554883535
 30
0.0
 10
111.9406759691099
 20
137.9591134758316
 30
0.0
 10
112.9190562734681
 20
137.9092002935386
 30
0.0
 10
113.9334682028499
 20
137.8904362954443
 30
0.0
 10
114.9319137639817
 20
137.904766152788
 30
0.0
 10
115.9085239906429
 20
137.9502208804253
 30
0.0
 10
116.8217210072497
 20
138.020645548572
 30
0.0
 10
117.6671277383756
 20
138.1097799453507
 30
0.0
 10
118.3401251838219
 20
138.1978375446313
 30
0.0
 10
118.8702196774851
 20
138.2767013873106
 30
0.0
 10
119.1217240229016
 20
138.3180722725146
 30
0.0
 10
119.248411721171
 20
138.3389116031957
 30
0.0
  0
LINE
  5
F8
330
1F
100
AcDbEntity
  8
0
  6
HIDDEN
 62
     7
370
     0
100
AcDbLine
 10
98.991830393
 20
80.4725893824
 30
0.0
 11
98.991830393
 21
133.4725893824
 31
0.0
  0
LINE
  5
F9
330
1F
100
AcDbEntity
  8
0
  6
HIDDEN
 62
     7
370
     0
100
AcDbLine
 10
138.2792836843
 20
80.4725893824
 30
0.0
 11
138.2792836843
 21
133.4725893824
 31
0.0
  0
LINE
  5
FA
330
1F
100
AcDbEntity
  8
0
  6
HIDDEN
 62
     7
370
     0
100
AcDbLine
 10
141.445206066
 20
82.0975893824
 30
0.0
 11
141.445206066
 21
131.8475893824
 31
0.0
  0
SPLINE
  5
FB
330
1F
100
AcDbEntity
  8
0
  6
HIDDEN
 62
     7
370
     0
100
AcDbSpline
210
0.0
220
0.0
230
1.0
 70
     8
 71
     3
 72
    20
 73
    16
 74
     0
 42
0.00000001
 43
0.00000001
 40
0.0
 40
0.0
 40
0.0
 40
0.0
 40
0.2499999999999978
 40
0.2499999999999978
 40
0.3749999999999982
 40
0.3749999999999982
 40
0.4999999999999986
 40
0.4999999999999986
 40
0.6249999999999989
 40
0.6249999999999989
 40
0.7499999999999992
 40
0.7499999999999992
 40
0.8749999999999997
 40
0.8749999999999997
 40
1.0
 40
1.0
 40
1.0
 40
1.0
 10
89.19520606597997
 20
132.2011030128629
 30
0.0
 10
89.19520606597997
 20
132.1219000263306
 30
0.0
 10
89.14822357076724
 20
132.0408038079277
 30
0.0
 10
89.01040197998967
 20
131.9206071161768
 30
0.0
 10
88.95411969607967
 20
131.8816804121747
 30
0.0
 10
88.82103484461246
 20
131.8064916797503
 30
0.0
 10
88.74319490237939
 20
131.7698494744083
 30
0.0
 10
88.57056254626505
 20
131.7022589415765
 30
0.0
 10
88.47616954917397
 20
131.6713007598009
 30
0.0
 10
88.27073224285884
 20
131.6157763384312
 30
0.0
 10
88.15838600287165
 20
131.591067824598
 30
0.0
 10
87.92614513897202
 20
131.5512715974897
 30
0.0
 10
87.8054344965493
 20
131.5358517600927
 30
0.0
 10
87.55436363728026
 20
131.5147717852531
 30
0.0
 10
87.42484164086447
 20
131.5092945402321
 30
0.0
 10
87.29520606597998
 20
131.5092945402321
 30
0.0
  0
LINE
  5
FC
330
1F
100
AcDbEntity
  8
0
  6
HIDDEN
 62
     7
370
     0
100
AcDbLine
 10
87.295206066
 20
131.5092945402
 30
0.0
 11
80.745206066
 21
131.5092945402
 31
0.0
  0
LINE
  5
FD
330
1F
100
AcDbEntity
  8
0
  6
HIDDEN
 62
     7
370
     0
100
AcDbLine
 10
80.745206066
 20
82.4358842247
 30
0.0
 11
92.295206066
 21
82.4358842247
 31
0.0
  0
SPLINE
  5
FE
330
1F
100
AcDbEntity
  8
0
  6
HIDDEN
 62
     7
370
     0
100
AcDbSpline
210
0.0
220
0.0
230
1.0
 70
     8
 71
     3
 72
    18
 73
    14
 74
     0
 42
0.00000001
 43
0.00000001
 40
0.0
 40
0.0
 40
0.0
 40
0.0
 40
0.1249999999999982
 40
0.1249999999999982
 40
0.2499999999999964
 40
0.2499999999999964
 40
0.4999999999999988
 40
0.4999999999999988
 40
0.7500000000000011
 40
0.7500000000000011
 40
0.8750000000000006
 40
0.8750000000000006
 40
1.0
 40
1.0
 40
1.0
 40
1.0
 10
92.29520606597997
 20
82.43588422466507
 30
0.0
 10
92.4246733789372
 20
82.43588422466507
 30
0.0
 10
92.55168412783382
 20
82.43053122607245
 30
0.0
 10
92.80104744903107
 20
82.40979325338365
 30
0.0
 10
92.9246711036595
 20
82.39412134912936
 30
0.0
 10
93.27370344059355
 20
82.33442662072727
 30
0.0
 10
93.48421520540035
 20
82.27666144104629
 30
0.0
 10
93.82813188309986
 20
82.1421395997688
 30
0.0
 10
93.96448228461767
 20
82.06447048626339
 30
0.0
 10
94.1015203411802
 20
81.94517935217604
 30
0.0
 10
94.13673935989311
 20
81.904260343041
 30
0.0
 10
94.18336293683166
 20
81.82360434975097
 30
0.0
 10
94.19520606597999
 20
81.78363582955811
 30
0.0
 10
94.19520606597997
 20
81.74407575203429
 30
0.0
  0
LINE
  5
FF
330
1F
100
AcDbEntity
  8
0
  6
HIDDEN
 62
     7
370
     0
100
AcDbLine
 10
80.745206066
 20
82.4358842247
 30
0.0
 11
80.745206066
 21
131.5092945402
 31
0.0
  0
LWPOLYLINE
  5
100
330
1F
100
AcDbEntity
  8
0
  6
HIDDEN
 62
     7
370
     0
100
AcDbPolyline
 90
       14
 70
   128
 43
0.0
 10
137.995206066
 20
146.9163199457
 10
139.0016986664
 20
146.9579495606
 10
139.9669853415
 20
147.081134084
 10
140.8515471415
 20
147.2808303269
 10
141.6191700021
 20
147.5488627019
 10
142.2384273535
 20
147.8742579318
 10
142.6839667267
 20
148.2436942978
 10
142.9375476876
 20
148.6420470317
 10
142.9887886018
 20
149.0530075257
 10
142.8355916603
 20
149.4597510089
 10
142.4842287638
 20
149.8456253553
 10
141.9490847507
 20
150.1948328239
 10
141.2520684796
 20
150.4930768198
 10
140.4421722369
 20
150.7235034975
  0
LWPOLYLINE
  5
101
330
1F
100
AcDbEntity
  8
0
  6
HIDDEN
 62
     7
370
     0
100
AcDbPolyline
 90
       14
 70
   128
 43
0.0
 10
135.5389043878
 20
150.7213672552
 10
134.7383436524
 20
150.4930768198
 10
134.0413273813
 20
150.1948328239
 10
133.5061833681
 20
149.8456253553
 10
133.1548204716
 20
149.4597510089
 10
133.0016235301
 20
149.0530075257
 10
133.0528644443
 20
148.6420470317
 10
133.3064454052
 20
148.2436942978
 10
133.7519847785
 20
147.8742579318
 10
134.3712421298
 20
147.5488627019
 10
135.1388649905
 20
147.2808303269
 10
136.0234267904
 20
147.081134084
 10
136.9887134655
 20
146.9579495606
 10
137.995206066
 20
146.9163199457
  0
LINE
  5
102
330
1F
100
AcDbEntity
  8
0
  6
HIDDEN
 62
     7
370
     0
100
AcDbLine
 10
80.745206066
 20
79.6025893824
 30
0.0
 11
80.745206066
 21
74.7243041806
 31
0.0
  0
LINE
  5
103
330
1F
100
AcDbEntity
  8
0
  6
HIDDEN
 62
     7
370
     0
100
AcDbLine
 10
94.195206066
 20
79.6025893824
 30
0.0
 11
94.195206066
 21
73.1032561171
 31
0.0
  0
LINE
  5
104
330
1F
100
AcDbEntity
  8
0
  6
HIDDEN
 62
     7
370
     0
100
AcDbLine
 10
89.195206066
 20
134.3425893824
 30
0.0
 11
89.195206066
 21
140.7171981194
 31
0.0
  0
LINE
  5
105
330
1F
100
AcDbEntity
  8
0
  6
HIDDEN
 62
     7
370
     0
100
AcDbLine
 10
80.745206066
 20
134.3425893824
 30
0.0
 11
80.745206066
 21
139.2208745843
 31
0.0
  0
LINE
  5
106
330
1F
100
AcDbEntity
  8
0
  6
HIDDEN
 62
     7
370
     0
100
AcDbLine
 10
153.295206066
 20
93.9725893824
 30
0.0
 11
153.295206066
 21
119.9725893824
 31
0.0
  0
LINE
  5
107
330
1F
100
AcDbEntity
  8
0
  6
HIDDEN
 62
     7
370
     0
100
AcDbLine
 10
157.295206066
 20
93.9725893824
 30
0.0
 11
157.295206066
 21
119.9725893824
 31
0.0
  0
LINE
  5
108
330
1F
100
AcDbEntity
  8
0
  6
HIDDEN
 62
     7
370
     0
100
AcDbLine
 10
142.195206066
 20
95.7225893824
 30
0.0
 11
142.195206066
 21
118.2225893824
 31
0.0
  0
ELLIPSE
  5
109
330
1F
100
AcDbEntity
  8
0
  6
HIDDEN
 62
     7
370
     0
100
AcDbEllipse
 10
72.8105328657
 20
106.9725893824
 30
0.0
 11
31.08108570811662
 21
1.421085471520200E-14
 31
0.0
210
0.0
220
0.0
230
1.0
 40
0.8164965809
 41
1.312649268214811
 42
1.367189972061496
  0
ELLIPSE
  5
10A
330
1F
100
AcDbEntity
  8
0
  6
HIDDEN
 62
     7
370
     0
100
AcDbEllipse
 10
72.8105328657
 20
106.9725893824
 30
0.0
 11
31.08108570811662
 21
-1.421085471520200E-14
 31
0.0
210
0.0
220
0.0
230
1.0
 40
0.8164965809
 41
4.915995335118103
 42
4.970536038964788
  0
LINE
  5
10B
330
1F
100
AcDbEntity
  8
0
  6
HIDDEN
 62
     7
370
     0
100
AcDbLine
 10
157.945206066
 20
63.0725893824
 30
0.0
 11
143.945206066
 21
63.0725893824
 31
0.0
  0
LINE
  5
10C
330
1F
100
AcDbEntity
  8
0
  6
HIDDEN
 62
     7
370
     0
100
AcDbLine
 10
133.945206066
 20
56.9825903826
 30
0.0
 11
133.945206066
 21
63.0725893824
 31
0.0
  0
LINE
  5
10D
330
1F
100
AcDbEntity
  8
0
  6
HIDDEN
 62
     7
370
     0
100
AcDbLine
 10
143.945206066
 20
63.0725893824
 30
0.0
 11
133.945206066
 21
63.0725893824
 31
0.0
  0
LINE
  5
10E
330
1F
100
AcDbEntity
  8
0
  6
HIDDEN
 62
     7
370
     0
100
AcDbLine
 10
94.195206066
 20
79.6025893824
 30
0.0
 11
94.195206066
 21
81.744075752
 31
0.0
  0
LINE
  5
10F
330
1F
100
AcDbEntity
  8
0
  6
HIDDEN
 62
     7
370
     0
100
AcDbLine
 10
80.745206066
 20
79.6025893824
 30
0.0
 11
80.745206066
 21
82.4358842247
 31
0.0
  0
LINE
  5
110
330
1F
100
AcDbEntity
  8
0
  6
HIDDEN
 62
     7
370
     0
100
AcDbLine
 10
89.195206066
 20
134.3425893824
 30
0.0
 11
89.195206066
 21
132.2011030129
 31
0.0
  0
LINE
  5
111
330
1F
100
AcDbEntity
  8
0
  6
HIDDEN
 62
     7
370
     0
100
AcDbLine
 10
80.745206066
 20
134.3425893824
 30
0.0
 11
80.745206066
 21
131.5092945402
 31
0.0
  0
LINE
  5
112
330
1F
100
AcDbEntity
  8
0
  6
HIDDEN
 62
     7
370
     0
100
AcDbLine
 10
143.945206066
 20
150.8725893824
 30
0.0
 11
133.945206066
 21
150.8725893824
 31
0.0
  0
LINE
  5
113
330
1F
100
AcDbEntity
  8
0
  6
HIDDEN
 62
     7
370
     0
100
AcDbLine
 10
157.945206066
 20
150.8725893824
 30
0.0
 11
143.945206066
 21
150.8725893824
 31
0.0
  0
SPLINE
  5
114
330
1F
100
AcDbEntity
  8
0
  6
HIDDEN
 62
     7
370
     0
100
AcDbSpline
210
0.0
220
0.0
230
1.0
 70
     8
 71
     3
 72
    30
 73
    26
 74
     0
 42
0.00000001
 43
0.00000001
 40
0.0
 40
0.0
 40
0.0
 40
0.0
 40
0.0531175607780963
 40
0.1124998881517996
 40
0.1778988265962961
 40
0.2129237895968744
 40
0.2494778342905543
 40
0.2912447291650914
 40
0.3260879529890846
 40
0.3540037932888733
 40
0.3749896027587144
 40
0.4414489356306791
 40
0.5001680091908315
 40
0.5546840806101404
 40
0.61442978265431
 40
0.6794567525905452
 40
0.7140146202760149
 40
0.7499124960348442
 40
0.7913780435327797
 40
0.8260458519948117
 40
0.8539121375122477
 40
0.8749740479127183
 40
0.9411621763089757
 40
0.9999141547013358
 40
1.0
 40
1.0
 40
1.0
 40
1.0
 10
119.9947012542221
 20
69.87267496012903
 30
0.0
 10
119.9785099707716
 20
69.87757366023301
 30
0.0
 10
119.9442177790646
 20
69.88794882064539
 30
0.0
 10
119.6429320280508
 20
69.96359449929781
 30
0.0
 10
119.2007672395598
 20
70.05987983901366
 30
0.0
 10
118.7059339667475
 20
70.15954481290646
 30
0.0
 10
118.2354584137203
 20
70.25182292648432
 30
0.0
 10
117.7045369544706
 20
70.3474549689869
 30
0.0
 10
117.1663864601111
 20
70.43310520986674
 30
0.0
 10
116.7083391243731
 20
70.50039700329391
 30
0.0
 10
116.0527748036163
 20
70.58874517216366
 30
0.0
 10
115.1694683654072
 20
70.68540325647253
 30
0.0
 10
114.0408066327569
 20
70.77217843321765
 30
0.0
 10
112.9510448829961
 20
70.81025713093491
 30
0.0
 10
111.8550166045701
 20
70.81210756569718
 30
0.0
 10
110.9496253576251
 20
70.78594611011242
 30
0.0
 10
110.2533226472102
 20
70.74933888498344
 30
0.0
 10
109.7266429189351
 20
70.71032200950641
 30
0.0
 10
109.2599968039025
 20
70.66811288203448
 30
0.0
 10
108.8887815281787
 20
70.63110879246507
 30
0.0
 10
108.6347350509367
 20
70.60240803202076
 30
0.0
 10
108.3336798982272
 20
70.56602808143086
 30
0.0
 10
108.0781961034248
 20
70.5332479144448
 30
0.0
 10
107.9789753784753
 20
70.51691002973479
 30
0.0
 10
107.9952559357606
 20
70.51950361590873
 30
0.0
 10
107.9952796893465
 20
70.51950739999124
 30
0.0
  0
SPLINE
  5
115
330
1F
100
AcDbEntity
  8
0
  6
HIDDEN
 62
     7
370
     0
100
AcDbSpline
210
0.0
220
0.0
230
1.0
 70
     8
 71
     3
 72
    30
 73
    26
 74
     0
 42
0.00000001
 43
0.00000001
 40
0.0
 40
0.0
 40
0.0
 40
0.0
 40
0.0001237141772877
 40
0.0285541769064009
 40
0.0588573961903095
 40
0.0910375466061659
 40
0.125098053321345
 40
0.1546862395517881
 40
0.1963646068681705
 40
0.2501186883628866
 40
0.3205331241783727
 40
0.3856174258640157
 40
0.4454101758816489
 40
0.49996286304461
 40
0.5283548093710242
 40
0.5586390527088114
 40
0.5908232557051798
 40
0.6249137424829229
 40
0.6541883952661188
 40
0.6958664709653182
 40
0.7499335766694367
 40
0.8215925600557448
 40
0.8871435760428941
 40
0.9466384825026811
 40
1.0
 40
1.0
 40
1.0
 40
1.0
 10
107.9953110524232
 20
143.42559898571
 30
0.0
 10
107.995275950423
 20
143.4256066395968
 30
0.0
 10
107.9871741407193
 20
143.427373215118
 30
0.0
 10
108.0158324786123
 20
143.421918982607
 30
0.0
 10
108.0892230364296
 20
143.4113753909683
 30
0.0
 10
108.2328784899771
 20
143.3916904018911
 30
0.0
 10
108.4339144946731
 20
143.3668510769272
 30
0.0
 10
108.7165449656387
 20
143.3326426274905
 30
0.0
 10
109.129954120649
 20
143.2889627248278
 30
0.0
 10
109.8062416100433
 20
143.2259196596583
 30
0.0
 10
110.7446725152463
 20
143.1646224883659
 30
0.0
 10
111.8541657276023
 20
143.133334045094
 30
0.0
 10
112.9516464585612
 20
143.1349892126365
 30
0.0
 10
113.8516776969601
 20
143.1662954147455
 30
0.0
 10
114.5630186228188
 20
143.2131285635465
 30
0.0
 10
115.1284355238078
 20
143.2602954254427
 30
0.0
 10
115.7173589466367
 20
143.3197344319926
 30
0.0
 10
116.281768599114
 20
143.3860916386006
 30
0.0
 10
116.8759647930502
 20
143.4680110450322
 30
0.0
 10
117.5425729540207
 20
143.5696590277826
 30
0.0
 10
118.3439056997209
 20
143.7117979383829
 30
0.0
 10
119.0964156842289
 20
143.8630425091493
 30
0.0
 10
119.641702179195
 20
143.9808933824087
 30
0.0
 10
119.9444237106939
 20
144.0571226141579
 30
0.0
 10
119.9787141613069
 20
144.0675749236524
 30
0.0
 10
119.9949275979569
 20
144.0725170534526
 30
0.0
  0
LINE
  5
116
330
1F
100
AcDbEntity
  8
0
  6
HIDDEN
 62
     7
370
     0
100
AcDbLine
 10
215.495206066
 20
101.9725893824
 30
0.0
 11
215.495206066
 21
111.9725893824
 31
0.0
  0
SPLINE
  5
117
330
1F
100
AcDbEntity
  8
0
  6
HIDDEN
 62
     7
370
     0
100
AcDbSpline
210
0.0
220
0.0
230
1.0
 70
     8
 71
     3
 72
    22
 73
    18
 74
     0
 42
0.00000001
 43
0.00000001
 40
0.0
 40
0.0
 40
0.0
 40
0.0
 40
0.051286995857031
 40
0.155656426376448
 40
0.2088586429033653
 40
0.2601432036745082
 40
0.3643861688498727
 40
0.4174483086647923
 40
0.4700395706407881
 40
0.5769431835100589
 40
0.6313795770200065
 40
0.6848509439664237
 40
0.7387053060270231
 40
0.7937899671105653
 40
0.8493103513462394
 40
0.9013915633377896
 40
1.0
 40
1.0
 40
1.0
 40
1.0
 10
179.49520606598
 20
112.0558953933041
 30
0.0
 10
179.535671417791
 20
112.0561869886147
 30
0.0
 10
179.6584840713636
 20
112.057071982622
 30
0.0
 10
179.8218145936573
 20
112.0653259520761
 30
0.0
 10
179.9794693038837
 20
112.0784630963069
 30
0.0
 10
180.1324161573044
 20
112.0947277325571
 30
0.0
 10
180.2771566532372
 20
112.1149077833832
 30
0.0
 10
180.4112765894881
 20
112.1374789167559
 30
0.0
 10
180.538638599766
 20
112.1612528572997
 30
0.0
 10
180.6529570696813
 20
112.1856553992651
 30
0.0
 10
180.7509603925882
 20
112.2085619586931
 30
0.0
 10
180.8159487197262
 20
112.2245639670292
 30
0.0
 10
180.8718470346901
 20
112.2389277992984
 30
0.0
 10
180.9185134368359
 20
112.251346874013
 30
0.0
 10
180.9538671070121
 20
112.2610107905039
 30
0.0
 10
180.9868642830911
 20
112.2702132376042
 30
0.0
 10
180.9910803929088
 20
112.2714169151556
 30
0.0
 10
180.9938393348908
 20
112.2722045788249
 30
0.0
  0
LINE
  5
118
330
1F
100
AcDbEntity
  8
0
  6
HIDDEN
 62
     7
370
     0
100
AcDbLine
 10
179.5744377699
 20
112.056840418
 30
0.0
 11
179.3598250515
 21
112.0581346418
 31
0.0
  0
SPLINE
  5
119
330
1F
100
AcDbEntity
  8
0
  6
HIDDEN
 62
     7
370
     0
100
AcDbSpline
210
0.0
220
0.0
230
1.0
 70
     8
 71
     3
 72
    23
 73
    19
 74
     0
 42
0.00000001
 43
0.00000001
 40
0.0
 40
0.0
 40
0.0
 40
0.0
 40
0.0185255143338878
 40
0.1225121681604513
 40
0.1755142554153241
 40
0.2262437303548957
 40
0.3293452495992948
 40
0.3818191667529168
 40
0.4340440536971669
 40
0.5401844177373545
 40
0.5942165265599064
 40
0.6476997887511499
 40
0.7015607536356211
 40
0.7566330729217795
 40
0.8121345026131409
 40
0.8584306691705943
 40
0.9523157834473731
 40
1.0
 40
1.0
 40
1.0
 40
1.0
 10
177.9963336803782
 20
112.2722703927986
 30
0.0
 10
177.9960602025617
 20
112.2723478410673
 30
0.0
 10
177.9942516503331
 20
112.2728600187668
 30
0.0
 10
178.0125760586272
 20
112.2676581950635
 30
0.0
 10
178.0501881089482
 20
112.2572592536363
 30
0.0
 10
178.1010248534846
 20
112.2435040033555
 30
0.0
 10
178.1699389558792
 20
112.2255486002737
 30
0.0
 10
178.2563761579027
 20
112.2045279907017
 30
0.0
 10
178.3550774612725
 20
112.1817652877896
 30
0.0
 10
178.470594105947
 20
112.1574792106218
 30
0.0
 10
178.6004658808411
 20
112.1337172226721
 30
0.0
 10
178.7049965927806
 20
112.1165849212992
 30
0.0
 10
178.8159656373943
 20
112.1006578293778
 30
0.0
 10
178.9334941364308
 20
112.0863676028265
 30
0.0
 10
179.0498492045084
 20
112.0749291212006
 30
0.0
 10
179.1987549170082
 20
112.0636874241026
 30
0.0
 10
179.3458756789384
 20
112.0568941212744
 30
0.0
 10
179.4575808662832
 20
112.0561470322376
 30
0.0
 10
179.49520606598
 20
112.0558953933041
 30
0.0
  0
SPLINE
  5
11A
330
1F
100
AcDbEntity
  8
0
  6
HIDDEN
 62
     7
370
     0
100
AcDbSpline
210
0.0
220
0.0
230
1.0
 70
     8
 71
     3
 72
    37
 73
    33
 74
     0
 42
0.00000001
 43
0.00000001
 40
0.0
 40
0.0
 40
0.0
 40
0.0
 40
0.0256675009747421
 40
0.0778979268457157
 40
0.1045211839754686
 40
0.1301876164824328
 40
0.1823614414837856
 40
0.2089213497285816
 40
0.2351875296626892
 40
0.2885778105280719
 40
0.3157630829249601
 40
0.3425066318812737
 40
0.3694413187298971
 40
0.3969905064442126
 40
0.4247577465367373
 40
0.4508133863225249
 40
0.5038654447428047
 40
0.5309337138590112
 40
0.5561966351348577
 40
0.6075673959175851
 40
0.6337287786904918
 40
0.6593308020249878
 40
0.7113501012091663
 40
0.7378190731164687
 40
0.7643470335866493
 40
0.8182901143037692
 40
0.8457724925798163
 40
0.87240687633651
 40
0.9266324577484173
 40
0.954301856819046
 40
0.9800818326390675
 40
1.0
 40
1.0
 40
1.0
 40
1.0
 10
180.99520606598
 20
101.6725893824486
 30
0.0
 10
180.9942157840485
 20
101.6728695784165
 30
0.0
 10
180.9912103917616
 20
101.6737199411002
 30
0.0
 10
180.963086549891
 20
101.6816559411921
 30
0.0
 10
180.9165373708435
 20
101.6943614566658
 30
0.0
 10
180.8571106678364
 20
101.7101598567297
 30
0.0
 10
180.7793953492608
 20
101.7299033373431
 30
0.0
 10
180.6844920685141
 20
101.7521878589926
 30
0.0
 10
180.577747374031
 20
101.7757827563319
 30
0.0
 10
180.4548112959161
 20
101.800230752109
 30
0.0
 10
180.3183703086584
 20
101.8234191667248
 30
0.0
 10
180.2095536632624
 20
101.8397285075963
 30
0.0
 10
180.0949797038936
 20
101.854466749885
 30
0.0
 10
179.9743311279668
 20
101.8672496029411
 30
0.0
 10
179.8511818186161
 20
101.8773316984745
 30
0.0
 10
179.6859109585421
 20
101.8868708283089
 30
0.0
 10
179.5178328920315
 20
101.8904633008392
 30
0.0
 10
179.3516426727348
 20
101.8877530732444
 30
0.0
 10
179.1895341386851
 20
101.8811919876475
 30
0.0
 10
179.0322857465966
 20
101.8692406757824
 30
0.0
 10
178.8818161008212
 20
101.8528046563909
 30
0.0
 10
178.7360494171687
 20
101.8337686767603
 30
0.0
 10
178.5994876708127
 20
101.8116389753725
 30
0.0
 10
178.4745550804912
 20
101.7880863008956
 30
0.0
 10
178.3567394297815
 20
101.7638850849347
 30
0.0
 10
178.2532273815138
 20
101.7400791083445
 30
0.0
 10
178.1677659012854
 20
101.7189239974148
 30
0.0
 10
178.0947595550342
 20
101.7000789142709
 30
0.0
 10
178.0407887738992
 20
101.6853571501524
 30
0.0
 10
178.0101117937515
 20
101.6767993437772
 30
0.0
 10
177.9953976962635
 20
101.6726448655103
 30
0.0
 10
177.9986425391894
 20
101.6735605741306
 30
0.0
 10
178.00005684883
 20
101.67395969839
 30
0.0
  0
LINE
  5
11B
330
1F
100
AcDbEntity
  8
0
  6
HIDDEN
 62
     7
370
     0
100
AcDbLine
 10
177.495206066
 20
102.0725893824
 30
0.0
 11
177.495206066
 21
111.8725887922
 31
0.0
  0
LINE
  5
11C
330
1F
100
AcDbEntity
  8
0
  6
HIDDEN
 62
     7
370
     0
100
AcDbLine
 10
187.995206066
 20
101.9725893824
 30
0.0
 11
187.995206066
 21
111.9725893824
 31
0.0
  0
LINE
  5
11D
330
1F
100
AcDbEntity
  8
0
  6
HIDDEN
 62
     7
370
     0
100
AcDbLine
 10
173.445206066
 20
92.5499396516
 30
0.0
 11
168.445206066
 21
92.5499396516
 31
0.0
  0
LINE
  5
11E
330
1F
100
AcDbEntity
  8
0
  6
HIDDEN
 62
     7
370
     0
100
AcDbLine
 10
170.945206066
 20
121.3952391133
 30
0.0
 11
173.445206066
 21
121.3952391133
 31
0.0
  0
LINE
  5
11F
330
1F
100
AcDbEntity
  8
0
  6
HIDDEN
 62
     7
370
     0
100
AcDbLine
 10
168.445206066
 20
121.3952391133
 30
0.0
 11
170.945206066
 21
121.3952391133
 31
0.0
  0
LINE
  5
120
330
1F
100
AcDbEntity
  8
0
  6
HIDDEN
 62
     7
370
     0
100
AcDbLine
 10
170.945206066
 20
113.9725893824
 30
0.0
 11
173.445206066
 21
113.9725893824
 31
0.0
  0
LINE
  5
121
330
1F
100
AcDbEntity
  8
0
  6
HIDDEN
 62
     7
370
     0
100
AcDbLine
 10
168.445206066
 20
113.9725893824
 30
0.0
 11
170.945206066
 21
113.9725893824
 31
0.0
  0
LINE
  5
122
330
1F
100
AcDbEntity
  8
0
  6
HIDDEN
 62
     7
370
     0
100
AcDbLine
 10
173.445206066
 20
99.9725893824
 30
0.0
 11
168.445206066
 21
99.9725893824
 31
0.0
  0
SPLINE
  5
123
330
1F
100
AcDbEntity
  8
0
  6
HIDDEN
 62
     7
370
     0
100
AcDbSpline
210
0.0
220
0.0
230
1.0
 70
     8
 71
     3
 72
    38
 73
    34
 74
     0
 42
0.00000001
 43
0.00000001
 40
0.0
 40
0.0
 40
0.0
 40
0.0
 40
0.0412109573778138
 40
0.0838292252235538
 40
0.1250016867904719
 40
0.1671805044823949
 40
0.1957047649687091
 40
0.2244486798612181
 40
0.2538059251313672
 40
0.2833463960160629
 40
0.3125495788893431
 40
0.3419157545203136
 40
0.3718291143421975
 40
0.4019711128476016
 40
0.434670473927865
 40
0.4680149049336036
 40
0.5007951020328912
 40
0.5348863319778829
 40
0.5630912457893321
 40
0.591897259625465
 40
0.6165801861752561
 40
0.641458826057255
 40
0.666827452754132
 40
0.6923300807193329
 40
0.7450062864243929
 40
0.7988107207104204
 40
0.8463993916579309
 40
0.8952306939905362
 40
0.9189836306848378
 40
0.94294705088704
 40
0.9676306796504692
 40
0.9925858523805818
 40
1.0
 40
1.0
 40
1.0
 40
1.0
 10
180.99520606598
 20
115.2146490004863
 30
0.0
 10
180.993264533039
 20
115.2170535813994
 30
0.0
 10
180.9893151658672
 20
115.2219448571125
 30
0.0
 10
180.958220527459
 20
115.2606683550802
 30
0.0
 10
180.9112097034941
 20
115.3199612889836
 30
0.0
 10
180.8568831621398
 20
115.3897944760743
 30
0.0
 10
180.8018737007982
 20
115.4622685958426
 30
0.0
 10
180.7501800980866
 20
115.5320743880382
 30
0.0
 10
180.6951086219118
 20
115.6088470842968
 30
0.0
 10
180.638025183786
 20
115.6917983110004
 30
0.0
 10
180.5803813183924
 20
115.7802162302008
 30
0.0
 10
180.5232228616455
 20
115.874376768544
 30
0.0
 10
180.4677926360189
 20
115.9751246984592
 30
0.0
 10
180.4149479166999
 20
116.0857692024109
 30
0.0
 10
180.3683999597576
 20
116.2075268537487
 30
0.0
 10
180.3345447731631
 20
116.340098003308
 30
0.0
 10
180.3204112739609
 20
116.4800703237345
 30
0.0
 10
180.3299465151676
 20
116.6135168740495
 30
0.0
 10
180.3577704366817
 20
116.7368510532231
 30
0.0
 10
180.3945854721065
 20
116.8420212900597
 30
0.0
 10
180.4373146631428
 20
116.9374807200942
 30
0.0
 10
180.4826781678832
 20
117.0240833201707
 30
0.0
 10
180.5314617306094
 20
117.1070487135634
 30
0.0
 10
180.6003142825357
 20
117.214349202024
 30
0.0
 10
180.6893922802723
 20
117.3396472578686
 30
0.0
 10
180.7876039889902
 20
117.4668335037831
 30
0.0
 10
180.8716800726233
 20
117.5704928715279
 30
0.0
 10
180.9258665470306
 20
117.6352366954149
 30
0.0
 10
180.9586608792782
 20
117.6739126948547
 30
0.0
 10
180.9777333985795
 20
117.6962406707935
 30
0.0
 10
180.9896991528124
 20
117.7101807876958
 30
0.0
 10
180.9963134412961
 20
117.717865586692
 30
0.0
 10
180.994238949048
 20
117.7154535960525
 30
0.0
 10
180.9937637894958
 20
117.7149011329651
 30
0.0
  0
SPLINE
  5
124
330
1F
100
AcDbEntity
  8
0
  6
HIDDEN
 62
     7
370
     0
100
AcDbSpline
210
0.0
220
0.0
230
1.0
 70
     8
 71
     3
 72
    10
 73
     6
 74
     0
 42
0.00000001
 43
0.00000001
 40
0.0
 40
0.0
 40
0.0
 40
0.0
 40
0.3423669106479287
 40
0.8122407951440469
 40
0.9999999999999999
 40
0.9999999999999999
 40
0.9999999999999999
 40
0.9999999999999999
 10
177.9983008487345
 20
117.7090874615495
 30
0.0
 10
177.9988614056661
 20
117.7092339194966
 30
0.0
 10
178.0001912865445
 20
117.7095813804099
 30
0.0
 10
178.0320880359349
 20
117.718987173155
 30
0.0
 10
178.063305180974
 20
117.7336281975085
 30
0.0
 10
178.0722179112264
 20
117.737808320339
 30
0.0
  0
SPLINE
  5
125
330
1F
100
AcDbEntity
  8
0
  6
HIDDEN
 62
     7
370
     0
100
AcDbSpline
210
0.0
220
0.0
230
1.0
 70
     8
 71
     3
 72
    27
 73
    23
 74
     0
 42
0.00000001
 43
0.00000001
 40
0.0
 40
0.0
 40
0.0
 40
0.0
 40
0.0467304405877148
 40
0.0910017877375658
 40
0.1364022337818296
 40
0.184003655376289
 40
0.2325889506405696
 40
0.2894125903177068
 40
0.3473775030615479
 40
0.4040360853296948
 40
0.462006566041476
 40
0.4970481409512987
 40
0.5329040323598355
 40
0.5680166330998908
 40
0.6044030089243783
 40
0.6462246038275683
 40
0.6892124385364632
 40
0.756810396994467
 40
0.8262506629204054
 40
0.896342957170934
 40
0.9687562198094772
 40
0.9999999999999999
 40
0.9999999999999999
 40
0.9999999999999999
 40
0.9999999999999999
 10
177.9956728196255
 20
115.3330623052276
 30
0.0
 10
177.9974042071363
 20
115.3350697566619
 30
0.0
 10
178.000775871447
 20
115.3389790215226
 30
0.0
 10
178.0300142149731
 20
115.3730918127188
 30
0.0
 10
178.0739605181883
 20
115.4249910693943
 30
0.0
 10
178.1339961217338
 20
115.4972602130322
 30
0.0
 10
178.2109333746689
 20
115.5926794961167
 30
0.0
 10
178.3029799770035
 20
115.7122755143112
 30
0.0
 10
178.4048807233362
 20
115.855559018144
 30
0.0
 10
178.5058830546855
 20
116.0170047655285
 30
0.0
 10
178.5841233395933
 20
116.1732317306523
 30
0.0
 10
178.6352413470837
 20
116.3196015087741
 30
0.0
 10
178.6621267416287
 20
116.4468890320985
 30
0.0
 10
178.669308449556
 20
116.5797547146158
 30
0.0
 10
178.6543051610053
 20
116.719124909475
 30
0.0
 10
178.6159745620749
 20
116.8619447152312
 30
0.0
 10
178.5474751976769
 20
117.0297624406841
 30
0.0
 10
178.4486372753783
 20
117.2104812046872
 30
0.0
 10
178.3279364981576
 20
117.3955203074664
 30
0.0
 10
178.2095315670307
 20
117.5599011392055
 30
0.0
 10
178.123761185921
 20
117.6720853706213
 30
0.0
 10
178.084155620047
 20
117.7225865199935
 30
0.0
 10
178.0722179112264
 20
117.737808320339
 30
0.0
  0
LINE
  5
126
330
1F
100
AcDbEntity
  8
0
  6
HIDDEN
 62
     7
370
     0
100
AcDbLine
 10
180.995206066
 20
118.6725893824
 30
0.0
 11
177.995206066
 21
118.6725893824
 31
0.0
  0
LWPOLYLINE
  5
127
330
1F
100
AcDbEntity
  8
0
  6
HIDDEN
 62
     7
370
     0
100
AcDbPolyline
 90
       32
 70
   128
 43
0.0
 10
180.9937637895
 20
96.2302776319
 10
180.9887477446
 20
96.2361104775
 10
180.9627890015
 20
96.2664487448
 10
180.9218361379
 20
96.3148504573
 10
180.8660845413
 20
96.3819503094
 10
180.8221105348
 20
96.4360232572
 10
180.7736977238
 20
96.4969511053
 10
180.7209854747
 20
96.5653016254
 10
180.6656470825
 20
96.6398849978
 10
180.6100539555
 20
96.718615531
 10
180.5541326224
 20
96.8030730296
 10
180.498591813
 20
96.8945660314
 10
180.4458939549
 20
96.9925352808
 10
180.3911630642
 20
97.116101864
 10
180.3488705973
 20
97.2509299834
 10
180.3287932788
 20
97.3674806936
 10
180.3251687142
 20
97.4898463459
 10
180.3385357544
 20
97.6078476242
 10
180.3671416782
 20
97.7248590614
 10
180.397662308
 20
97.8126311746
 10
180.4337085043
 20
97.8974872051
 10
180.5178561481
 20
98.0598647111
 10
180.5798281043
 20
98.1630019542
 10
180.6431893225
 20
98.2603027633
 10
180.707094422
 20
98.3527674501
 10
180.7689881856
 20
98.4383880427
 10
180.8509990885
 20
98.5474221288
 10
180.9206058371
 20
98.6369530427
 10
180.9621585273
 20
98.6893449949
 10
180.9881163944
 20
98.7217281265
 10
180.995206066
 20
98.7305297644
 10
180.995206066
 20
98.7305297644
  0
LINE
  5
128
330
1F
100
AcDbEntity
  8
0
  6
HIDDEN
 62
     7
370
     0
100
AcDbLine
 10
179.495206066
 20
94.9725893824
 30
0.0
 11
180.995206066
 21
94.9725893824
 31
0.0
  0
LINE
  5
129
330
1F
100
AcDbEntity
  8
0
  6
HIDDEN
 62
     7
370
     0
100
AcDbLine
 10
177.995206066
 20
94.9725893824
 30
0.0
 11
179.495206066
 21
94.9725893824
 31
0.0
  0
SPLINE
  5
12A
330
1F
100
AcDbEntity
  8
0
  6
HIDDEN
 62
     7
370
     0
100
AcDbSpline
210
0.0
220
0.0
230
1.0
 70
     8
 71
     3
 72
    12
 73
     8
 74
     0
 42
0.00000001
 43
0.00000001
 40
0.0
 40
0.0
 40
0.0
 40
0.0
 40
0.2173662585716985
 40
0.4362963003689991
 40
0.659540374340053
 40
0.8841146563735656
 40
0.9999999999999999
 40
0.9999999999999999
 40
0.9999999999999999
 40
0.9999999999999999
 10
178.0722179112264
 20
96.20737044455817
 30
0.0
 10
178.0618915056352
 20
96.21218197142994
 30
0.0
 10
178.0411644038985
 20
96.2218396404126
 30
0.0
 10
178.0185809776473
 20
96.22992685106469
 30
0.0
 10
178.0031626782346
 20
96.23479456665106
 30
0.0
 10
177.9954727507483
 20
96.23689142988216
 30
0.0
 10
177.9960338459218
 20
96.23673849631624
 30
0.0
 10
177.9962248309963
 20
96.23668644092552
 30
0.0
  0
SPLINE
  5
12B
330
1F
100
AcDbEntity
  8
0
  6
HIDDEN
 62
     7
370
     0
100
AcDbSpline
210
0.0
220
0.0
230
1.0
 70
     8
 71
     3
 72
    38
 73
    34
 74
     0
 42
0.00000001
 43
0.00000001
 40
0.0
 40
0.0
 40
0.0
 40
0.0
 40
0.0306210495387315
 40
0.0931401330231651
 40
0.1250490159992238
 40
0.1556539404363901
 40
0.2176146530577976
 40
0.2490029534853911
 40
0.2746933132770781
 40
0.3266267211843372
 40
0.3529740529168128
 40
0.3702656457028946
 40
0.4053104489751379
 40
0.4231396800474873
 40
0.4404398328326694
 40
0.4757601752300775
 40
0.4938183451648557
 40
0.5152289497050877
 40
0.558808977456829
 40
0.5809508812023699
 40
0.6141667193863021
 40
0.6476296377380284
 40
0.681784918270506
 40
0.716165481326539
 40
0.7500374332551251
 40
0.7841625716417081
 40
0.8191896769376602
 40
0.8545857299840718
 40
0.8781699430828387
 40
0.926069690246033
 40
0.9504658492786741
 40
0.97405576253855
 40
1.0
 40
1.0
 40
1.0
 40
1.0
 10
178.0722179112264
 20
96.20737044455822
 30
0.0
 10
178.0839047101961
 20
96.2222707005993
 30
0.0
 10
178.1194524796894
 20
96.2675928515592
 30
0.0
 10
178.1800112999851
 20
96.3466394907547
 30
0.0
 10
178.2462639455672
 20
96.43647014325822
 30
0.0
 10
178.3154959012981
 20
96.53334261780144
 30
0.0
 10
178.3873961477364
 20
96.63975048222233
 30
0.0
 10
178.4553963974914
 20
96.75073400477653
 30
0.0
 10
178.5157234698307
 20
96.8574355485627
 30
0.0
 10
178.5692129573551
 20
96.96615970171496
 30
0.0
 10
178.6099017639557
 20
97.07274017989714
 30
0.0
 10
178.6380160519837
 20
97.16347575024963
 30
0.0
 10
178.6562027190939
 20
97.24763304826612
 30
0.0
 10
178.6651041700616
 20
97.3336324116576
 30
0.0
 10
178.6674148904399
 20
97.42058042741951
 30
0.0
 10
178.6593232657214
 20
97.50781628968078
 30
0.0
 10
178.6407532700763
 20
97.59736633562049
 30
0.0
 10
178.6129890794343
 20
97.6941705397707
 30
0.0
 10
178.5737417023772
 20
97.79045160609077
 30
0.0
 10
178.5225606153606
 20
97.89309508162911
 30
0.0
 10
178.4729321070596
 20
97.98060960604722
 30
0.0
 10
178.4139875409197
 20
98.07382564721881
 30
0.0
 10
178.3535232935823
 20
98.16206168005928
 30
0.0
 10
178.2935371496439
 20
98.2444627706201
 30
0.0
 10
178.2356562351306
 20
98.32043233269077
 30
0.0
 10
178.1807684687647
 20
98.38999963567963
 30
0.0
 10
178.1298405450985
 20
98.45279959021484
 30
0.0
 10
178.0896319983585
 20
98.50133406598881
 30
0.0
 10
178.0505049482714
 20
98.54795493475225
 30
0.0
 10
178.0231190322664
 20
98.58012422758311
 30
0.0
 10
178.0058502226844
 20
98.60028230875784
 30
0.0
 10
177.9962950827688
 20
98.61139562263841
 30
0.0
 10
177.997303491343
 20
98.61022259958064
 30
0.0
 10
177.997831660114
 20
98.60960821156114
 30
0.0
  0
LINE
  5
12C
330
1F
100
AcDbEntity
  8
0
  6
HIDDEN
 62
     7
370
     0
100
AcDbLine
 10
177.9777408104
 20
98.6119732316
 30
0.0
 11
178.0722179112
 21
96.2073704446
 31
0.0
  0
LINE
  5
12D
330
1F
100
AcDbEntity
  8
0
  6
HIDDEN
 62
     7
370
     0
100
AcDbLine
 10
177.9777408104
 20
115.3332055333
 30
0.0
 11
178.0722179112
 21
117.7378083203
 31
0.0
  0
LWPOLYLINE
  5
12E
330
1F
100
AcDbEntity
  8
0
  6
HIDDEN
 62
     7
370
     0
100
AcDbPolyline
 90
       32
 70
   128
 43
0.0
 10
137.995206066
 20
152.2852952342
 10
139.0016986664
 20
152.2536672541
 10
139.9669853415
 20
152.1600781669
 10
140.8515471415
 20
152.0083595208
 10
141.6191700021
 20
151.8047226951
 10
142.2384273535
 20
151.5575046054
 10
142.6839667267
 20
151.2768263892
 10
142.9375476876
 20
150.9741790457
 10
142.9887886018
 20
150.6619529927
 10
142.8355916603
 20
150.3529308016
 10
142.4842287638
 20
150.0597638771
 10
141.9490847507
 20
149.7944545075
 10
141.2520684796
 20
149.5678644897
 10
140.4217158786
 20
149.3892704455
 10
139.4920216808
 20
149.2659840362
 10
138.5010476759
 20
149.2030526218
 10
137.489364456
 20
149.2030526218
 10
136.4983904511
 20
149.2659840362
 10
135.5686962533
 20
149.3892704455
 10
134.7383436524
 20
149.5678644897
 10
134.0413273813
 20
149.7944545075
 10
133.5061833681
 20
150.0597638771
 10
133.1548204716
 20
150.3529308016
 10
133.0016235301
 20
150.6619529927
 10
133.0528644443
 20
150.9741790457
 10
133.3064454052
 20
151.2768263892
 10
133.7519847785
 20
151.5575046054
 10
134.3712421298
 20
151.8047226951
 10
135.1388649905
 20
152.0083595208
 10
136.0234267904
 20
152.1600781669
 10
136.9887134655
 20
152.2536672541
 10
137.995206066
 20
152.2852952342
  0
LINE
  5
12F
330
1F
100
AcDbEntity
  8
0
  6
HIDDEN
 62
     7
370
     0
100
AcDbLine
 10
152.2572350869
 20
145.9235521433
 30
0.0
 11
152.2572350869
 21
138.3225893824
 31
0.0
  0
LINE
  5
130
330
1F
100
AcDbEntity
  8
0
  6
HIDDEN
 62
     7
370
     0
100
AcDbLine
 10
150.905206066
 20
141.6868245749
 30
0.0
 11
150.905206066
 21
138.3225893824
 31
0.0
  0
LINE
  5
131
330
1F
100
AcDbEntity
  8
0
  6
HIDDEN
 62
     7
370
     0
100
AcDbLine
 10
147.085206066
 20
141.6868245749
 30
0.0
 11
147.085206066
 21
138.3225893824
 31
0.0
  0
CIRCLE
  5
132
330
1F
100
AcDbEntity
  8
0
  6
HIDDEN
 62
     7
370
     0
100
AcDbCircle
 10
135.995206066
 20
106.9725893824
 30
0.0
 40
5.0
  0
LINE
  5
133
330
1F
100
AcDbEntity
  8
0
  6
HIDDEN
 62
     7
370
     0
100
AcDbLine
 10
176.995206066
 20
102.9725893824
 30
0.0
 11
177.495206066
 21
103.4725893824
 31
0.0
  0
LINE
  5
134
330
1F
100
AcDbEntity
  8
0
  6
HIDDEN
 62
     7
370
     0
100
AcDbLine
 10
177.495206066
 20
110.4725893824
 30
0.0
 11
176.995206066
 21
110.9725893824
 31
0.0
  0
LINE
  5
135
330
1F
100
AcDbEntity
  8
0
  6
HIDDEN
 62
     7
370
     0
100
AcDbLine
 10
161.495206066
 20
102.9725893824
 30
0.0
 11
176.995206066
 21
102.9725893824
 31
0.0
  0
LINE
  5
136
330
1F
100
AcDbEntity
  8
0
  6
HIDDEN
 62
     7
370
     0
100
AcDbLine
 10
176.995206066
 20
110.9725893824
 30
0.0
 11
161.495206066
 21
110.9725893824
 31
0.0
  0
LINE
  5
137
330
1F
100
AcDbEntity
  8
0
  6
HIDDEN
 62
     7
370
     0
100
AcDbLine
 10
161.495206066
 20
110.9725893824
 30
0.0
 11
160.995206066
 21
110.4725893824
 31
0.0
  0
LINE
  5
138
330
1F
100
AcDbEntity
  8
0
  6
HIDDEN
 62
     7
370
     0
100
AcDbLine
 10
160.995206066
 20
103.4725893824
 30
0.0
 11
161.495206066
 21
102.9725893824
 31
0.0
  0
LINE
  5
139
330
1F
100
AcDbEntity
  8
0
  6
HIDDEN
 62
     7
370
     0
100
AcDbLine
 10
177.495206066
 20
103.4725893824
 30
0.0
 11
180.995206066
 21
103.4725893824
 31
0.0
  0
LINE
  5
13A
330
1F
100
AcDbEntity
  8
0
  6
HIDDEN
 62
     7
370
     0
100
AcDbLine
 10
180.995206066
 20
110.4725893824
 30
0.0
 11
177.495206066
 21
110.4725893824
 31
0.0
  0
LINE
  5
13B
330
1F
100
AcDbEntity
  8
0
  6
HIDDEN
 62
     7
370
     0
100
AcDbLine
 10
165.9952060659
 20
104.9725893824
 30
0.0
 11
175.995206066
 21
104.9725893824
 31
0.0
  0
LINE
  5
13C
330
1F
100
AcDbEntity
  8
0
  6
HIDDEN
 62
     7
370
     0
100
AcDbLine
 10
175.995206066
 20
108.9725893824
 30
0.0
 11
165.9952060659
 21
108.9725893824
 31
0.0
  0
LINE
  5
13D
330
1F
100
AcDbEntity
  8
0
  6
HIDDEN
 62
     7
370
     0
100
AcDbLine
 10
218.8628290324
 20
116.4789478282
 30
0.0
 11
213.5288912285
 21
116.6885188153
 31
0.0
  0
LINE
  5
13E
330
1F
100
AcDbEntity
  8
0
  6
HIDDEN
 62
     7
370
     0
100
AcDbLine
 10
213.4111117812
 20
113.6908317065
 30
0.0
 11
218.7450495851
 21
113.4812607194
 31
0.0
  0
LINE
  5
13F
330
1F
100
AcDbEntity
  8
0
  6
HIDDEN
 62
     7
370
     0
100
AcDbLine
 10
218.7450495851
 20
113.4812607194
 30
0.0
 11
218.9178838588
 21
113.7551864645
 31
0.0
  0
LINE
  5
140
330
1F
100
AcDbEntity
  8
0
  6
HIDDEN
 62
     7
370
     0
100
AcDbLine
 10
218.995206066
 20
116.2273404725
 30
0.0
 11
218.8628290324
 21
116.4789478282
 31
0.0
  0
LINE
  5
141
330
1F
100
AcDbEntity
  8
0
  6
HIDDEN
 62
     7
370
     0
100
AcDbLine
 10
213.5288912285
 20
116.6885188153
 30
0.0
 11
213.0096468025
 21
116.208534205
 31
0.0
  0
LINE
  5
142
330
1F
100
AcDbEntity
  8
0
  6
HIDDEN
 62
     7
370
     0
100
AcDbLine
 10
212.931127171
 20
114.2100761325
 30
0.0
 11
213.4111117812
 21
113.6908317065
 31
0.0
  0
LINE
  5
143
330
1F
100
AcDbEntity
  8
0
  6
HIDDEN
 62
     7
370
     0
100
AcDbLine
 10
218.8039393087
 20
100.466231829
 30
0.0
 11
213.4700015048
 21
100.2566608419
 31
0.0
  0
LINE
  5
144
330
1F
100
AcDbEntity
  8
0
  6
HIDDEN
 62
     7
370
     0
100
AcDbLine
 10
213.5877809521
 20
97.2589737332
 30
0.0
 11
218.921718756
 21
97.4685447203
 31
0.0
  0
LINE
  5
145
330
1F
100
AcDbEntity
  8
0
  6
HIDDEN
 62
     7
370
     0
100
AcDbLine
 10
213.4700015048
 20
100.2566608419
 30
0.0
 11
212.9900168946
 21
99.7374164159
 31
0.0
  0
LINE
  5
146
330
1F
100
AcDbEntity
  8
0
  6
HIDDEN
 62
     7
370
     0
100
AcDbLine
 10
213.0685365261
 20
97.7389583434
 30
0.0
 11
213.5877809521
 21
97.2589737332
 31
0.0
  0
LINE
  5
147
330
1F
100
AcDbEntity
  8
0
  6
HIDDEN
 62
     7
370
     0
100
AcDbLine
 10
218.921718756
 20
97.4685447203
 30
0.0
 11
218.995206066
 21
97.6082211221
 31
0.0
  0
LINE
  5
148
330
1F
100
AcDbEntity
  8
0
  6
HIDDEN
 62
     7
370
     0
100
AcDbLine
 10
218.9767735825
 20
100.1923060839
 30
0.0
 11
218.8039393087
 21
100.466231829
 31
0.0
  0
LINE
  5
149
330
1F
100
AcDbEntity
  8
0
  6
HIDDEN
 62
     7
370
     0
100
AcDbLine
 10
128.995206066
 20
67.5679064259
 30
0.0
 11
129.0848076899
 21
68.2054551078
 31
0.0
  0
LINE
  5
14A
330
1F
100
AcDbEntity
  8
0
  6
HIDDEN
 62
     7
370
     0
100
AcDbLine
 10
129.0848076899
 20
145.7397236571
 30
0.0
 11
128.995206066
 21
146.377272339
 31
0.0
  0
ARC
  5
14B
330
1F
100
AcDbEntity
  8
0
  6
HIDDEN
 62
     7
370
     0
100
AcDbCircle
 10
128.0982691475
 20
68.344104058
 30
0.0
 40
0.9962338214386983
100
AcDbArc
 50
352.0
 51
0.0
  0
ARC
  5
14C
330
1F
100
AcDbEntity
  8
0
  6
HIDDEN
 62
     7
370
     0
100
AcDbCircle
 10
128.0982691475
 20
68.344104058
 30
0.0
 40
0.9962338214386932
100
AcDbArc
 50
0.0
 51
25.7988228126
  0
ARC
  5
14D
330
1F
100
AcDbEntity
  8
0
  6
HIDDEN
 62
     7
370
     0
100
AcDbCircle
 10
128.0982691475
 20
145.6010747069
 30
0.0
 40
0.9962338214386963
100
AcDbArc
 50
348.75
 51
8.0
  0
LWPOLYLINE
  5
14E
330
1F
100
AcDbEntity
  8
0
  6
HIDDEN
 62
     7
370
     0
100
AcDbPolyline
 90
        3
 70
   128
 43
0.0
 10
129.0753606154
 20
145.4067191299
 10
129.0186691848
 20
145.2198325287
 10
128.995206066
 20
145.1675011937
  0
LINE
  5
14F
330
1F
100
AcDbEntity
  8
0
  6
HIDDEN
 62
     7
370
     0
100
AcDbLine
 10
129.094502969
 20
68.344104058
 30
0.0
 11
129.094502969
 21
145.6010747069
 31
0.0
  0
ARC
  5
150
330
1F
100
AcDbEntity
  8
0
  6
HIDDEN
 62
     7
370
     0
100
AcDbCircle
 10
102.4559320081
 20
76.4725893824
 30
0.0
 40
1.0
100
AcDbArc
 50
210.0
 51
270.0
  0
ARC
  5
151
330
1F
100
AcDbEntity
  8
0
  6
HIDDEN
 62
     7
370
     0
100
AcDbCircle
 10
102.4559320081
 20
137.4725893824
 30
0.0
 40
1.0
100
AcDbArc
 50
90.0
 51
150.0
  0
ARC
  5
152
330
1F
100
AcDbEntity
  8
0
  6
HIDDEN
 62
     7
370
     0
100
AcDbCircle
 10
119.2484117212
 20
87.4725893824
 30
0.0
 40
12.00000000000001
100
AcDbArc
 50
273.4643856822
 51
324.3146652873
  0
ARC
  5
153
330
1F
100
AcDbEntity
  8
0
  6
HIDDEN
 62
     7
370
     0
100
AcDbCircle
 10
119.2484117212
 20
126.4725893824
 30
0.0
 40
12.0
100
AcDbArc
 50
35.6853347127
 51
86.4545409413
  0
LINE
  5
154
330
1F
100
AcDbEntity
  8
0
  6
HIDDEN
 62
     7
370
     0
100
AcDbLine
 10
102.4559320081
 20
75.4725893824
 30
0.0
 11
108.0003764399
 21
75.4725893824
 31
0.0
  0
LINE
  5
155
330
1F
100
AcDbEntity
  8
0
  6
HIDDEN
 62
     7
370
     0
100
AcDbLine
 10
108.0141231803
 20
138.4725893824
 30
0.0
 11
102.4559320081
 21
138.4725893824
 31
0.0
  0
LINE
  5
156
330
1F
100
AcDbEntity
  8
0
  6
HIDDEN
 62
     7
370
     0
100
AcDbLine
 10
101.5899066044
 20
137.9725893824
 30
0.0
 11
98.991830393
 21
133.4725893824
 31
0.0
  0
LINE
  5
157
330
1F
100
AcDbEntity
  8
0
  6
HIDDEN
 62
     7
370
     0
100
AcDbLine
 10
98.991830393
 20
80.4725893824
 30
0.0
 11
101.5899066044
 21
75.9725893824
 31
0.0
  0
ARC
  5
158
330
1F
100
AcDbEntity
  8
0
  6
HIDDEN
 62
     7
370
     0
100
AcDbCircle
 10
139.445206066
 20
82.0975893824
 30
0.0
 40
2.000000000000032
100
AcDbArc
 50
234.3409123039
 51
0.0
  0
ARC
  5
159
330
1F
100
AcDbEntity
  8
0
  6
HIDDEN
 62
     7
370
     0
100
AcDbCircle
 10
139.445206066
 20
131.8475893824
 30
0.0
 40
2.000000000000043
100
AcDbArc
 50
0.0
 51
125.6590876961
  0
LINE
  5
15A
330
1F
100
AcDbEntity
  8
0
  6
HIDDEN
 62
     7
370
     0
100
AcDbLine
 10
128.995206066
 20
80.4725893824
 30
0.0
 11
138.2792836843
 21
80.4725893824
 31
0.0
  0
LINE
  5
15B
330
1F
100
AcDbEntity
  8
0
  6
HIDDEN
 62
     7
370
     0
100
AcDbLine
 10
138.2792836843
 20
133.4725893824
 30
0.0
 11
128.995206066
 21
133.4725893824
 31
0.0
  0
LINE
  5
15C
330
1F
100
AcDbEntity
  8
0
  6
HIDDEN
 62
     7
370
     0
100
AcDbLine
 10
94.195206066
 20
80.4725893824
 30
0.0
 11
98.991830393
 21
80.4725893824
 31
0.0
  0
LINE
  5
15D
330
1F
100
AcDbEntity
  8
0
  6
HIDDEN
 62
     7
370
     0
100
AcDbLine
 10
98.991830393
 20
133.4725893824
 30
0.0
 11
89.195206066
 21
133.4725893824
 31
0.0
  0
LINE
  5
15E
330
1F
100
AcDbEntity
  8
0
  6
HIDDEN
 62
     7
370
     0
100
AcDbLine
 10
132.995206066
 20
152.6497522646
 30
0.0
 11
132.995206066
 21
148.9500031611
 31
0.0
  0
LINE
  5
15F
330
1F
100
AcDbEntity
  8
0
  6
HIDDEN
 62
     7
370
     0
100
AcDbLine
 10
142.995206066
 20
148.9500031611
 30
0.0
 11
142.995206066
 21
152.6483803153
 31
0.0
  0
LINE
  5
160
330
1F
100
AcDbEntity
  8
0
  6
HIDDEN
 62
     7
370
     0
100
AcDbLine
 10
153.295206066
 20
93.9725893824
 30
0.0
 11
157.295206066
 21
93.9725893824
 31
0.0
  0
LINE
  5
161
330
1F
100
AcDbEntity
  8
0
  6
HIDDEN
 62
     7
370
     0
100
AcDbLine
 10
157.295206066
 20
119.9725893824
 30
0.0
 11
153.295206066
 21
119.9725893824
 31
0.0
  0
LINE
  5
162
330
1F
100
AcDbEntity
  8
0
  6
HIDDEN
 62
     7
370
     0
100
AcDbLine
 10
141.445206066
 20
94.9725893824
 30
0.0
 11
142.195206066
 21
95.7225893824
 31
0.0
  0
LINE
  5
163
330
1F
100
AcDbEntity
  8
0
  6
HIDDEN
 62
     7
370
     0
100
AcDbLine
 10
142.195206066
 20
118.2225893824
 30
0.0
 11
141.445206066
 21
118.9725893824
 31
0.0
  0
LINE
  5
164
330
1F
100
AcDbEntity
  8
0
  6
HIDDEN
 62
     7
370
     0
100
AcDbLine
 10
142.195206066
 20
95.7225893824
 30
0.0
 11
153.295206066
 21
95.7225893824
 31
0.0
  0
LINE
  5
165
330
1F
100
AcDbEntity
  8
0
  6
HIDDEN
 62
     7
370
     0
100
AcDbLine
 10
153.295206066
 20
118.2225893824
 30
0.0
 11
142.195206066
 21
118.2225893824
 31
0.0
  0
LINE
  5
166
330
1F
100
AcDbEntity
  8
0
  6
HIDDEN
 62
     7
370
     0
100
AcDbLine
 10
133.945206066
 20
156.9725893824
 30
0.0
 11
133.945206066
 21
150.8725893824
 31
0.0
  0
LINE
  5
167
330
1F
100
AcDbEntity
  8
0
  6
HIDDEN
 62
     7
370
     0
100
AcDbLine
 10
120.427918682
 20
69.3943098118
 30
0.0
 11
119.9952093955
 21
69.8725345292
 31
0.0
  0
LINE
  5
168
330
1F
100
AcDbEntity
  8
0
  6
HIDDEN
 62
     7
370
     0
100
AcDbLine
 10
107.995206524
 20
70.5194958859
 30
0.0
 11
107.5145792188
 21
70.0412711751
 31
0.0
  0
LINE
  5
169
330
1F
100
AcDbEntity
  8
0
  6
HIDDEN
 62
     7
370
     0
100
AcDbLine
 10
107.5144608773
 20
143.9039016737
 30
0.0
 11
107.9952063414
 21
143.4256220018
 31
0.0
  0
LINE
  5
16A
330
1F
100
AcDbEntity
  8
0
  6
HIDDEN
 62
     7
370
     0
100
AcDbLine
 10
119.9952060681
 20
144.0725943892
 30
0.0
 11
120.4280277378
 21
144.550874062
 31
0.0
  0
LINE
  5
16B
330
1F
100
AcDbEntity
  8
0
  6
HIDDEN
 62
     7
370
     0
100
AcDbLine
 10
119.995206066
 20
138.4489152851
 30
0.0
 11
119.995206066
 21
144.0724423873
 31
0.0
  0
LINE
  5
16C
330
1F
100
AcDbEntity
  8
0
  6
HIDDEN
 62
     7
370
     0
100
AcDbLine
 10
107.995206066
 20
143.4256115025
 30
0.0
 11
107.995206066
 21
138.4689985592
 31
0.0
  0
LINE
  5
16D
330
1F
100
AcDbEntity
  8
0
  6
HIDDEN
 62
     7
370
     0
100
AcDbLine
 10
119.995206066
 20
69.8726535984
 30
0.0
 11
119.995206066
 21
75.4985244885
 31
0.0
  0
LINE
  5
16E
330
1F
100
AcDbEntity
  8
0
  6
HIDDEN
 62
     7
370
     0
100
AcDbLine
 10
107.995206066
 20
75.4735735818
 30
0.0
 11
107.995206066
 21
70.5195343004
 31
0.0
  0
ARC
  5
16F
330
1F
100
AcDbEntity
  8
0
  6
HIDDEN
 62
     7
370
     0
100
AcDbCircle
 10
218.495206066
 20
100.9358951344
 30
0.0
 40
0.5000000000000245
100
AcDbArc
 50
0.0
 51
80.0
  0
ARC
  5
170
330
1F
100
AcDbEntity
  8
0
  6
HIDDEN
 62
     7
370
     0
100
AcDbCircle
 10
218.495206066
 20
113.0092836305
 30
0.0
 40
0.5000000000000105
100
AcDbArc
 50
280.0
 51
0.0
  0
LINE
  5
171
330
1F
100
AcDbEntity
  8
0
  6
HIDDEN
 62
     7
370
     0
100
AcDbLine
 10
218.5820301548
 20
112.516879754
 30
0.0
 11
215.495206066
 21
111.9725893824
 31
0.0
  0
LINE
  5
172
330
1F
100
AcDbEntity
  8
0
  6
HIDDEN
 62
     7
370
     0
100
AcDbLine
 10
215.495206066
 20
101.9725893824
 30
0.0
 11
218.5820301548
 21
101.4282990109
 31
0.0
  0
LINE
  5
173
330
1F
100
AcDbEntity
  8
0
  6
HIDDEN
 62
     7
370
     0
100
AcDbLine
 10
180.995206066
 20
101.6725893824
 30
0.0
 11
187.1004320479
 21
101.6725893824
 31
0.0
  0
LINE
  5
174
330
1F
100
AcDbEntity
  8
0
  6
HIDDEN
 62
     7
370
     0
100
AcDbLine
 10
177.895206066
 20
101.6725893824
 30
0.0
 11
178.0000568488
 21
101.6725893824
 31
0.0
  0
LINE
  5
175
330
1F
100
AcDbEntity
  8
0
  6
HIDDEN
 62
     7
370
     0
100
AcDbLine
 10
177.9963336804
 20
112.2725893824
 30
0.0
 11
177.895206066
 21
112.2725893824
 31
0.0
  0
LINE
  5
176
330
1F
100
AcDbEntity
  8
0
  6
HIDDEN
 62
     7
370
     0
100
AcDbLine
 10
187.1004320479
 20
112.2725893824
 30
0.0
 11
180.9938393349
 21
112.2725893824
 31
0.0
  0
ARC
  5
177
330
1F
100
AcDbEntity
  8
0
  6
HIDDEN
 62
     7
370
     0
100
AcDbCircle
 10
177.895206066
 20
102.0725893824
 30
0.0
 40
0.4000000000000057
100
AcDbArc
 50
180.0
 51
270.0
  0
ARC
  5
178
330
1F
100
AcDbEntity
  8
0
  6
HIDDEN
 62
     7
370
     0
100
AcDbCircle
 10
177.895206066
 20
111.8725893824
 30
0.0
 40
0.4000000000000057
100
AcDbArc
 50
90.0
 51
180.0
  0
ARC
  5
179
330
1F
100
AcDbEntity
  8
0
  6
HIDDEN
 62
     7
370
     0
100
AcDbCircle
 10
187.1004320479
 20
102.0725893824
 30
0.0
 40
0.4000000000000057
100
AcDbArc
 50
270.0
 51
290.0
  0
ARC
  5
17A
330
1F
100
AcDbEntity
  8
0
  6
HIDDEN
 62
     7
370
     0
100
AcDbCircle
 10
187.1004320479
 20
111.8725893824
 30
0.0
 40
0.3999999999999915
100
AcDbArc
 50
70.0
 51
90.0
  0
LINE
  5
17B
330
1F
100
AcDbEntity
  8
0
  6
HIDDEN
 62
     7
370
     0
100
AcDbLine
 10
187.2372401052
 20
101.6967123341
 30
0.0
 11
187.995206066
 21
101.9725893824
 31
0.0
  0
LINE
  5
17C
330
1F
100
AcDbEntity
  8
0
  6
HIDDEN
 62
     7
370
     0
100
AcDbLine
 10
187.995206066
 20
111.9725893824
 30
0.0
 11
187.2372401052
 21
112.2484664308
 31
0.0
  0
LINE
  5
17D
330
1F
100
AcDbEntity
  8
0
  6
HIDDEN
 62
     7
370
     0
100
AcDbLine
 10
187.995206066
 20
101.9725893824
 30
0.0
 11
215.495206066
 21
101.9725893824
 31
0.0
  0
LINE
  5
17E
330
1F
100
AcDbEntity
  8
0
  6
HIDDEN
 62
     7
370
     0
100
AcDbLine
 10
215.495206066
 20
111.9725893824
 30
0.0
 11
187.995206066
 21
111.9725893824
 31
0.0
  0
LINE
  5
17F
330
1F
100
AcDbEntity
  8
0
  6
HIDDEN
 62
     7
370
     0
100
AcDbLine
 10
177.495206066
 20
110.9725893824
 30
0.0
 11
176.995206066
 21
110.4725893824
 31
0.0
  0
LINE
  5
180
330
1F
100
AcDbEntity
  8
0
  6
HIDDEN
 62
     7
370
     0
100
AcDbLine
 10
176.995206066
 20
103.4725893824
 30
0.0
 11
177.495206066
 21
102.9725893824
 31
0.0
  0
LINE
  5
181
330
1F
100
AcDbEntity
  8
0
  6
HIDDEN
 62
     7
370
     0
100
AcDbLine
 10
157.295206066
 20
103.4725893824
 30
0.0
 11
176.995206066
 21
103.4725893824
 31
0.0
  0
LINE
  5
182
330
1F
100
AcDbEntity
  8
0
  6
HIDDEN
 62
     7
370
     0
100
AcDbLine
 10
176.995206066
 20
110.4725893824
 30
0.0
 11
157.295206066
 21
110.4725893824
 31
0.0
  0
LINE
  5
183
330
1F
100
AcDbEntity
  8
0
  6
HIDDEN
 62
     7
370
     0
100
AcDbLine
 10
174.445206066
 20
91.9725893824
 30
0.0
 11
173.445206066
 21
92.5499396516
 31
0.0
  0
LINE
  5
184
330
1F
100
AcDbEntity
  8
0
  6
HIDDEN
 62
     7
370
     0
100
AcDbLine
 10
168.445206066
 20
92.5499396516
 30
0.0
 11
167.445206066
 21
91.9725893824
 31
0.0
  0
LINE
  5
185
330
1F
100
AcDbEntity
  8
0
  6
HIDDEN
 62
     7
370
     0
100
AcDbLine
 10
167.445206066
 20
121.9725893824
 30
0.0
 11
168.445206066
 21
121.3952391133
 31
0.0
  0
LINE
  5
186
330
1F
100
AcDbEntity
  8
0
  6
HIDDEN
 62
     7
370
     0
100
AcDbLine
 10
173.445206066
 20
121.3952391133
 30
0.0
 11
174.445206066
 21
121.9725893824
 31
0.0
  0
LINE
  5
187
330
1F
100
AcDbEntity
  8
0
  6
HIDDEN
 62
     7
370
     0
100
AcDbLine
 10
168.445206066
 20
121.3952391133
 30
0.0
 11
168.445206066
 21
113.9725893824
 31
0.0
  0
LINE
  5
188
330
1F
100
AcDbEntity
  8
0
  6
HIDDEN
 62
     7
370
     0
100
AcDbLine
 10
173.445206066
 20
113.9725893824
 30
0.0
 11
173.445206066
 21
121.3952391133
 31
0.0
  0
LINE
  5
189
330
1F
100
AcDbEntity
  8
0
  6
HIDDEN
 62
     7
370
     0
100
AcDbLine
 10
168.445206066
 20
113.9725893824
 30
0.0
 11
170.945206066
 21
112.4704378349
 31
0.0
  0
LINE
  5
18A
330
1F
100
AcDbEntity
  8
0
  6
HIDDEN
 62
     7
370
     0
100
AcDbLine
 10
170.945206066
 20
112.4704378349
 30
0.0
 11
173.445206066
 21
113.9725893824
 31
0.0
  0
LINE
  5
18B
330
1F
100
AcDbEntity
  8
0
  6
HIDDEN
 62
     7
370
     0
100
AcDbLine
 10
173.445206066
 20
92.5499396516
 30
0.0
 11
173.445206066
 21
99.9725893824
 31
0.0
  0
LINE
  5
18C
330
1F
100
AcDbEntity
  8
0
  6
HIDDEN
 62
     7
370
     0
100
AcDbLine
 10
168.445206066
 20
99.9725893824
 30
0.0
 11
168.445206066
 21
92.5499396516
 31
0.0
  0
LINE
  5
18D
330
1F
100
AcDbEntity
  8
0
  6
HIDDEN
 62
     7
370
     0
100
AcDbLine
 10
173.445206066
 20
99.9725893824
 30
0.0
 11
170.945206066
 21
101.47474093
 31
0.0
  0
LINE
  5
18E
330
1F
100
AcDbEntity
  8
0
  6
HIDDEN
 62
     7
370
     0
100
AcDbLine
 10
170.945206066
 20
101.47474093
 30
0.0
 11
168.445206066
 21
99.9725893824
 31
0.0
  0
LINE
  5
18F
330
1F
100
AcDbEntity
  8
0
  6
HIDDEN
 62
     7
370
     0
100
AcDbLine
 10
177.995206066
 20
115.3330623052
 30
0.0
 11
177.995206066
 21
112.2722704289
 31
0.0
  0
LINE
  5
190
330
1F
100
AcDbEntity
  8
0
  6
HIDDEN
 62
     7
370
     0
100
AcDbLine
 10
177.995206066
 20
118.6725893824
 30
0.0
 11
177.995206066
 21
117.7090874615
 31
0.0
  0
LINE
  5
191
330
1F
100
AcDbEntity
  8
0
  6
HIDDEN
 62
     7
370
     0
100
AcDbLine
 10
180.995206066
 20
117.714901133
 30
0.0
 11
180.995206066
 21
118.6725893824
 31
0.0
  0
LINE
  5
192
330
1F
100
AcDbEntity
  8
0
  6
HIDDEN
 62
     7
370
     0
100
AcDbLine
 10
180.995206066
 20
112.2722064141
 30
0.0
 11
180.995206066
 21
115.2146490005
 31
0.0
  0
LINE
  5
193
330
1F
100
AcDbEntity
  8
0
  6
HIDDEN
 62
     7
370
     0
100
AcDbLine
 10
177.995206066
 20
96.2366864409
 30
0.0
 11
177.995206066
 21
94.9725893824
 31
0.0
  0
LINE
  5
194
330
1F
100
AcDbEntity
  8
0
  6
HIDDEN
 62
     7
370
     0
100
AcDbLine
 10
177.995206066
 20
101.6739591949
 30
0.0
 11
177.995206066
 21
98.6096082116
 31
0.0
  0
LINE
  5
195
330
1F
100
AcDbEntity
  8
0
  6
HIDDEN
 62
     7
370
     0
100
AcDbLine
 10
180.995206066
 20
98.7305297644
 30
0.0
 11
180.995206066
 21
101.6725893824
 31
0.0
  0
LINE
  5
196
330
1F
100
AcDbEntity
  8
0
  6
HIDDEN
 62
     7
370
     0
100
AcDbLine
 10
180.995206066
 20
94.9725893824
 30
0.0
 11
180.995206066
 21
96.2302776319
 31
0.0
  0
LINE
  5
197
330
1F
100
AcDbEntity
  8
0
  6
HIDDEN
 62
     7
370
     0
100
AcDbLine
 10
177.995206066
 20
94.9725893824
 30
0.0
 11
179.495206066
 21
94.0712984539
 31
0.0
  0
LINE
  5
198
330
1F
100
AcDbEntity
  8
0
  6
HIDDEN
 62
     7
370
     0
100
AcDbLine
 10
179.495206066
 20
94.0712984539
 30
0.0
 11
180.995206066
 21
94.9725893824
 31
0.0
  0
LINE
  5
199
330
1F
100
AcDbEntity
  8
0
  6
HIDDEN
 62
     7
370
     0
100
AcDbLine
 10
180.9938325807
 20
96.2285469035
 30
0.0
 11
218.995206066
 21
97.7216249342
 31
0.0
  0
LINE
  5
19A
330
1F
100
AcDbEntity
  8
0
  6
HIDDEN
 62
     7
370
     0
100
AcDbLine
 10
218.995206066
 20
100.2235538307
 30
0.0
 11
180.995206066
 21
98.7305297644
 31
0.0
  0
LINE
  5
19B
330
1F
100
AcDbEntity
  8
0
  6
HIDDEN
 62
     7
370
     0
100
AcDbLine
 10
180.995206066
 20
115.2146490005
 30
0.0
 11
218.995206066
 21
113.7216249342
 31
0.0
  0
LINE
  5
19C
330
1F
100
AcDbEntity
  8
0
  6
HIDDEN
 62
     7
370
     0
100
AcDbLine
 10
218.995206066
 20
116.2235538307
 30
0.0
 11
180.9938325807
 21
117.7166318614
 31
0.0
  0
LINE
  5
19D
330
1F
100
AcDbEntity
  8
0
  6
HIDDEN
 62
     7
370
     0
100
AcDbLine
 10
177.9777408104
 20
98.6119732316
 30
0.0
 11
177.2763188585
 21
97.3334498398
 31
0.0
  0
LINE
  5
19E
330
1F
100
AcDbEntity
  8
0
  6
HIDDEN
 62
     7
370
     0
100
AcDbLine
 10
177.2763188585
 20
97.3334498398
 30
0.0
 11
177.9956398888
 21
96.2363029359
 31
0.0
  0
LINE
  5
19F
330
1F
100
AcDbEntity
  8
0
  6
HIDDEN
 62
     7
370
     0
100
AcDbLine
 10
177.9965378403
 20
117.7102454326
 30
0.0
 11
177.2763188585
 21
116.6117289251
 31
0.0
  0
LINE
  5
1A0
330
1F
100
AcDbEntity
  8
0
  6
HIDDEN
 62
     7
370
     0
100
AcDbLine
 10
177.2763188585
 20
116.6117289251
 30
0.0
 11
177.9777408104
 21
115.3332055333
 31
0.0
  0
LINE
  5
1A1
330
1F
100
AcDbEntity
  8
0
  6
HIDDEN
 62
     7
370
     0
100
AcDbLine
 10
132.995206066
 20
154.5253006805
 30
0.0
 11
132.995206066
 21
152.6497522646
 31
0.0
  0
LINE
  5
1A2
330
1F
100
AcDbEntity
  8
0
  6
HIDDEN
 62
     7
370
     0
100
AcDbLine
 10
142.995206066
 20
152.6483803153
 30
0.0
 11
142.995206066
 21
154.5238723977
 31
0.0
  0
DIMENSION
  5
1A3
330
1F
100
AcDbEntity
  8
VERMASSUNG
100
AcDbDimension
  2
*D1
 10
73.3095341278
 20
56.9725893824
 30
0.0
 11
73.3095341278
 21
106.9725893824
 31
0.0
 70
   160
  1
HSK A %%c<>
 71
     2
 42
-1.0
  3
SLDDIMSTYLE0
100
AcDbAlignedDimension
 13
129.495206066
 23
156.9725893824
 33
0.0
 14
129.495206066
 24
56.9725893824
 34
0.0
 50
90.0
100
AcDbRotatedDimension
  0
DIMENSION
  5
1B0
330
1F
100
AcDbEntity
  8
VERMASSUNG
100
AcDbDimension
  2
*D2
 10
218.995206066
 20
154.9725893824
 30
0.0
 11
198.245206066
 21
154.9725893824
 31
0.0
 70
   160
 71
     2
 42
-1.0
  3
SLDDIMSTYLE1
100
AcDbAlignedDimension
 13
177.495206066
 23
111.8725893824
 33
0.0
 14
218.995206066
 24
117.1238083991
 34
0.0
100
AcDbRotatedDimension
  0
DIMENSION
  5
1BB
330
1F
100
AcDbEntity
  8
VERMASSUNG
100
AcDbDimension
  2
*D3
 10
226.4752979415
 20
111.9725893824
 30
0.0
 11
226.4752979415
 21
106.9725893824
 31
0.0
 70
   160
  1
%%c<> 
 71
     2
 42
-1.0
  3
SLDDIMSTYLE2
100
AcDbAlignedDimension
 13
215.495206066
 23
101.9725893824
 33
0.0
 14
215.495206066
 24
111.9725893824
 34
0.0
 50
90.0
100
AcDbRotatedDimension
  0
DIMENSION
  5
1C8
330
1F
100
AcDbEntity
  8
VERMASSUNG
100
AcDbDimension
  2
*D4
 10
232.4752979415
 20
118.9725893824
 30
0.0
 11
232.4752979415
 21
106.9725893824
 31
0.0
 70
   160
  1
%%c<>
 71
     2
 42
-1.0
  3
SLDDIMSTYLE3
100
AcDbAlignedDimension
 13
218.995206066
 23
94.9725893824
 33
0.0
 14
218.995206066
 24
118.9725893824
 34
0.0
 50
90.0
100
AcDbRotatedDimension
  0
DIMENSION
  5
1D4
330
1F
100
AcDbEntity
  8
VERMASSUNG
100
AcDbDimension
  2
*D5
 10
218.995206066
 20
166.9725893824
 30
0.0
 11
173.995206066
 21
166.9725893824
 31
0.0
 70
   160
 71
     2
 42
-1.0
  3
SLDDIMSTYLE0
100
AcDbAlignedDimension
 13
128.995206066
 23
156.4725893824
 33
0.0
 14
218.995206066
 24
117.1238083991
 34
0.0
100
AcDbRotatedDimension
  0
DIMENSION
  5
1DE
330
1F
100
AcDbEntity
  8
VERMASSUNG
100
AcDbDimension
  2
*D6
 10
218.995206066
 20
160.9725893824
 30
0.0
 11
188.470206066
 21
160.9725893824
 31
0.0
 70
   160
 71
     2
 42
-1.0
  3
SLDDIMSTYLE0
100
AcDbAlignedDimension
 13
157.945206066
 23
154.9413292033
 33
0.0
 14
218.995206066
 24
117.1238083991
 34
0.0
100
AcDbRotatedDimension
  0
DIMENSION
  5
1E8
330
1F
100
AcDbEntity
  8
VERMASSUNG
100
AcDbDimension
  2
*D7
 10
218.995206066
 20
172.9725893824
 30
0.0
 11
149.045206066
 21
172.9725893824
 31
0.0
 70
   160
 71
     2
 42
-1.0
  3
SLDDIMSTYLE0
100
AcDbAlignedDimension
 13
79.095206066
 23
137.475259125
 33
0.0
 14
218.995206066
 24
117.1238083991
 34
0.0
100
AcDbRotatedDimension
  0
DIMENSION
  5
1F2
330
1F
100
AcDbEntity
  8
VERMASSUNG
100
AcDbDimension
  2
*D8
 10
238.4752979415
 20
91.9725893824
 30
0.0
 11
238.4752979415
 21
106.9725893824
 31
0.0
 70
   160
  1
%%c<>
 71
     2
 42
-1.0
  3
SLDDIMSTYLE0
100
AcDbAlignedDimension
 13
180.995206066
 23
121.9725893824
 33
0.0
 14
180.8765918575
 24
91.9725893824
 34
0.0
 50
90.0
100
AcDbRotatedDimension
  0
LINE
  5
1FD
330
1F
100
AcDbEntity
  8
VERMASSUNG
  6
CENTERX2
370
     0
100
AcDbLine
 10
76.844736705
 20
106.9725893824
 30
0.0
 11
221.369772481
 21
106.9725893824
 31
0.0
  0
OLE2FRAME
  5
1FE
330
1F
100
AcDbEntity
  8
0
100
AcDbOle2Frame
 70
     2
  3
Bitmap Image
 10
13.8511154363
 20
38.264191557
 30
0.0
 11
51.6290888628
 21
31.9806341108
 31
0.0
 71
     2
 72
     0
 73
     1
 90
    12928
310
80552BED0767C5B32B40DDAF6807D121434000000000000000006FFBDDFB85D0
310
4940DDAF6807D121434000000000000000006FFBDDFB85D04940416F4BD60AFB
310
3F4000000000000000002BED0767C5B32B40416F4BD60AFB3F40000000000000
310
0000000000000100000000010000010000000100000000000100000000320000
310
D0CF11E0A1B11AE1000000000000000000000000000000003E000300FEFF0900
310
0600000000000000000000000100000001000000000000000010000002000000
310
01000000FEFFFFFF0000000000000000FFFFFFFFFFFFFFFFFFFFFFFFFFFFFFFF
310
FFFFFFFFFFFFFFFFFFFFFFFFFFFFFFFFFFFFFFFFFFFFFFFFFFFFFFFFFFFFFFFF
310
FFFFFFFFFFFFFFFFFFFFFFFFFFFFFFFFFFFFFFFFFFFFFFFFFFFFFFFFFFFFFFFF
310
FFFFFFFFFFFFFFFFFFFFFFFFFFFFFFFFFFFFFFFFFFFFFFFFFFFFFFFFFFFFFFFF
310
FFFFFFFFFFFFFFFFFFFFFFFFFFFFFFFFFFFFFFFFFFFFFFFFFFFFFFFFFFFFFFFF
310
FFFFFFFFFFFFFFFFFFFFFFFFFFFFFFFFFFFFFFFFFFFFFFFFFFFFFFFFFFFFFFFF
310
FFFFFFFFFFFFFFFFFFFFFFFFFFFFFFFFFFFFFFFFFFFFFFFFFFFFFFFFFFFFFFFF
310
FFFFFFFFFFFFFFFFFFFFFFFFFFFFFFFFFFFFFFFFFFFFFFFFFFFFFFFFFFFFFFFF
310
FFFFFFFFFFFFFFFFFFFFFFFFFFFFFFFFFFFFFFFFFFFFFFFFFFFFFFFFFFFFFFFF
310
FFFFFFFFFFFFFFFFFFFFFFFFFFFFFFFFFFFFFFFFFFFFFFFFFFFFFFFFFFFFFFFF
310
FFFFFFFFFFFFFFFFFFFFFFFFFFFFFFFFFFFFFFFFFFFFFFFFFFFFFFFFFFFFFFFF
310
FFFFFFFFFFFFFFFFFFFFFFFFFFFFFFFFFFFFFFFFFFFFFFFFFFFFFFFFFFFFFFFF
310
FFFFFFFFFFFFFFFFFFFFFFFFFFFFFFFFFFFFFFFFFFFFFFFFFFFFFFFFFFFFFFFF
310
FFFFFFFFFFFFFFFFFFFFFFFFFFFFFFFFFFFFFFFFFFFFFFFFFFFFFFFFFFFFFFFF
310
FDFFFFFFFEFFFFFFFEFFFFFFFEFFFFFF05000000060000000700000008000000
310
090000000A0000000B0000000C0000000D0000000E0000000F00000010000000
310
11000000120000001300000014000000150000001600000017000000FEFFFFFF
310
FFFFFFFFFFFFFFFFFFFFFFFFFFFFFFFFFFFFFFFFFFFFFFFFFFFFFFFFFFFFFFFF
310
FFFFFFFFFFFFFFFFFFFFFFFFFFFFFFFFFFFFFFFFFFFFFFFFFFFFFFFFFFFFFFFF
310
FFFFFFFFFFFFFFFFFFFFFFFFFFFFFFFFFFFFFFFFFFFFFFFFFFFFFFFFFFFFFFFF
310
FFFFFFFFFFFFFFFFFFFFFFFFFFFFFFFFFFFFFFFFFFFFFFFFFFFFFFFFFFFFFFFF
310
FFFFFFFFFFFFFFFFFFFFFFFFFFFFFFFFFFFFFFFFFFFFFFFFFFFFFFFFFFFFFFFF
310
FFFFFFFFFFFFFFFFFFFFFFFFFFFFFFFFFFFFFFFFFFFFFFFFFFFFFFFFFFFFFFFF
310
FFFFFFFFFFFFFFFFFFFFFFFFFFFFFFFFFFFFFFFFFFFFFFFFFFFFFFFFFFFFFFFF
310
FFFFFFFFFFFFFFFFFFFFFFFFFFFFFFFFFFFFFFFFFFFFFFFFFFFFFFFFFFFFFFFF
310
FFFFFFFFFFFFFFFFFFFFFFFFFFFFFFFFFFFFFFFFFFFFFFFFFFFFFFFFFFFFFFFF
310
FFFFFFFFFFFFFFFFFFFFFFFFFFFFFFFFFFFFFFFFFFFFFFFFFFFFFFFFFFFFFFFF
310
FFFFFFFFFFFFFFFFFFFFFFFFFFFFFFFFFFFFFFFFFFFFFFFFFFFFFFFFFFFFFFFF
310
FFFFFFFFFFFFFFFFFFFFFFFFFFFFFFFFFFFFFFFFFFFFFFFFFFFFFFFFFFFFFFFF
310
FFFFFFFFFFFFFFFFFFFFFFFFFFFFFFFFFFFFFFFFFFFFFFFFFFFFFFFFFFFFFFFF
310
52006F006F007400200045006E00740072007900000000000000000000000000
310
0000000000000000000000000000000000000000000000000000000000000000
310
16000500FFFFFFFFFFFFFFFF020000000A00030000000000C000000000000046
310
00000000000000000000000010697E289905CC0103000000C000000000000000
310
01004F006C006500000000000000000000000000000000000000000000000000
310
0000000000000000000000000000000000000000000000000000000000000000
310
0A000200FFFFFFFFFFFFFFFFFFFFFFFF00000000000000000000000000000000
310
0000000000000000000000000000000000000000000000001400000000000000
310
010043006F006D0070004F0062006A0000000000000000000000000000000000
310
0000000000000000000000000000000000000000000000000000000000000000
310
120002010100000003000000FFFFFFFF00000000000000000000000000000000
310
0000000000000000000000000000000000000000010000004D00000000000000
310
01004F006C006500310030004E00610074006900760065000000000000000000
310
0000000000000000000000000000000000000000000000000000000000000000
310
1A000200FFFFFFFFFFFFFFFFFFFFFFFF00000000000000000000000000000000
310
0000000000000000000000000000000000000000040000002426000000000000
310
FEFFFFFF02000000FEFFFFFFFFFFFFFFFFFFFFFFFFFFFFFFFFFFFFFFFFFFFFFF
310
FFFFFFFFFFFFFFFFFFFFFFFFFFFFFFFFFFFFFFFFFFFFFFFFFFFFFFFFFFFFFFFF
310
FFFFFFFFFFFFFFFFFFFFFFFFFFFFFFFFFFFFFFFFFFFFFFFFFFFFFFFFFFFFFFFF
310
FFFFFFFFFFFFFFFFFFFFFFFFFFFFFFFFFFFFFFFFFFFFFFFFFFFFFFFFFFFFFFFF
310
FFFFFFFFFFFFFFFFFFFFFFFFFFFFFFFFFFFFFFFFFFFFFFFFFFFFFFFFFFFFFFFF
310
FFFFFFFFFFFFFFFFFFFFFFFFFFFFFFFFFFFFFFFFFFFFFFFFFFFFFFFFFFFFFFFF
310
FFFFFFFFFFFFFFFFFFFFFFFFFFFFFFFFFFFFFFFFFFFFFFFFFFFFFFFFFFFFFFFF
310
FFFFFFFFFFFFFFFFFFFFFFFFFFFFFFFFFFFFFFFFFFFFFFFFFFFFFFFFFFFFFFFF
310
FFFFFFFFFFFFFFFFFFFFFFFFFFFFFFFFFFFFFFFFFFFFFFFFFFFFFFFFFFFFFFFF
310
FFFFFFFFFFFFFFFFFFFFFFFFFFFFFFFFFFFFFFFFFFFFFFFFFFFFFFFFFFFFFFFF
310
FFFFFFFFFFFFFFFFFFFFFFFFFFFFFFFFFFFFFFFFFFFFFFFFFFFFFFFFFFFFFFFF
310
FFFFFFFFFFFFFFFFFFFFFFFFFFFFFFFFFFFFFFFFFFFFFFFFFFFFFFFFFFFFFFFF
310
FFFFFFFFFFFFFFFFFFFFFFFFFFFFFFFFFFFFFFFFFFFFFFFFFFFFFFFFFFFFFFFF
310
FFFFFFFFFFFFFFFFFFFFFFFFFFFFFFFFFFFFFFFFFFFFFFFFFFFFFFFFFFFFFFFF
310
FFFFFFFFFFFFFFFFFFFFFFFFFFFFFFFFFFFFFFFFFFFFFFFFFFFFFFFFFFFFFFFF
310
FFFFFFFFFFFFFFFFFFFFFFFFFFFFFFFFFFFFFFFFFFFFFFFFFFFFFFFFFFFFFFFF
310
010000020000000000000000000000000000000000000000B200820000000005
310
40E7955E00000000C80225000000000000000000000000000000000000000000
310
0100FEFF030A0000FFFFFFFF0A00030000000000C00000000000004607000000
310
5042727573680007000000504272757368000700000050427275736800F439B2
310
7100000000000000000000000000000000000000000000000000000000000000
310
0000000000000000000000000000000000000000000000000000000000000000
310
0000000000000000000000000000000000000000000000000000000000000000
310
0000000000000000000000000000000000000000000000000000000000000000
310
0000000000000000000000000000000000000000000000000000000000000000
310
0000000000000000000000000000000000000000000000000000000000000000
310
0000000000000000000000000000000000000000000000000000000000000000
310
0000000000000000000000000000000000000000000000000000000000000000
310
0000000000000000000000000000000000000000000000000000000000000000
310
0000000000000000000000000000000000000000000000000000000000000000
310
0000000000000000000000000000000000000000000000000000000000000000
310
0000000000000000000000000000000000000000000000000000000000000000
310
20260000424D0E260000000000003E00000028000000B40200006E0000000100
310
01000000000000000000130B0000130B00000200000002000000000000FFFFFF
310
FFFFFFFFFFFFFFFFFFFFFFFFFFFFFFFFFFFFFFFFFFFFFFFFFFFFFFFFFFFFFFFF
310
FFFFFFFFFFFFFFFFFFFFFFFFFFFFFFFFFFFFFFFFFFFFFFFFFFFFFFFFFFFFFFFF
310
FFFFFFFFFFFFFFFFFFFFFFFFFFFFFFFFFFFFFFFFFFFFFFFFF000FFFFFFFFFFFF
310
FFFFFFFFFFFFFFFFFFFFFFFFFFFFFFFFFFFFFFFFFFFFFFFFFFFFFFFFFFFFFFFF
310
FFFFFFFFFFFFFFFFFFFFFFFFFFFFFFFFFFFFFFFFFFFFFFFFFFFFFFFFFFFFFFFF
310
FFFFFFFFFFFFFFFFFFFFFFFFFFFFFFFFF000FFFFFFFFFFFFFFFFFFFFFFFFFFFF
310
FFFFFFFFFFFFFFFFFFFFFFFFFFFFFFFFFFFFFFFFFFFFFFFFFFFFFFFFFFFFFFFF
310
FFFFFFFFFFFFFFFFFFFFFFFFFFFFFFFFFFFFFFFFFFFFFFFFFFFFFFFFFFFFFFFF
310
FFFFFFFFFFFFFFFFF000FFFFFFFFFFFFFFFFFFFFFFFFFFFFFFFFFFFFFFFFFFFF
310
FFFFFFFFFFFFFFFFFFFFFFFFFFFFFFFFFFFFFFFFFFFFFFFFFFFFFFFFFFFFFFFF
310
FFFFFFFFFFFFFFFFFFFFFFFFFFFFFFFFFFFFFFFFFFFFFFFFFFFFFFFFFFFFFFFF
310
F000FFFFFFFFFFFFFFFFFFFFFFFFFFFFFFFFFFFFFFFFFFFFFFFFFFFFFFFFFFFF
310
FFFFFFFFFFFFFFFFFFFFFFFFFFFFFFFFFFFFFFFFFFFFFFFFFFFFFFFFFFFFFFFF
310
FFFFFFFFFFFFFFFFFFFFFFFFFFFFFFFFFFFFFFFFFFFFFFFFF000FFFFFFFFFFFF
310
FFFFFFFFFFFFFFFFFFFFFFFFFFFFFFFFFFFFFFFFFFFFFFFFFFFFFFFFFFFFFFFF
310
FFFFFFFFFFFFFFFFFFFFFFFFFFFFFFFFFFFFFFFFFFFFFFFFFFFFFFFFFFFFFFFF
310
FFFFFFFFFFFFFFFFFFFFFFFFFFFFFFFFF000FFFFFFFFFFFFFFFFFFFFFFFFFFFF
310
FFFFFFFFFFFFFFFFFFFFFFFFFFFFFFFFFFFFFFFFFFFFFFFFFFFFFFFFFFFFFFFF
310
FFFFFFFFFFFFFFFFFFFFFFFFFFFFFFFFFFFFFFFFFFFFFFFFFFFFFFFFFFFFFFFF
310
FFFFFFFFFFFFFFFFF000FFFFFFFFFFFFFFFFFFFFFFFFFFFFFFFFFFFFFFFFFFFF
310
FFFFFFFFFFFFFFFFFFFFFFFFFFFFFFFFFFFFFFFFFFFFFFFFFFFFFFFFFFFFFFFF
310
FFFFFFFFFFFFFFFFFFFFFFFFFFFFFFFFFFFFFFFFFFFFFFFFFFFFFFFFFFFFFFFF
310
F000FFFFFFFFFFFFFFFFFFFFFFFFFFFFFFFFFFFFFFFFFFFFFFFFFFFFFFFFFFFF
310
FFFFFFFFFFFFFFFFFFFFFFFFFFFFFFFFFFFFFFFFFFFFFFFFFFFFFFFFFFFFFFFF
310
FFFFFFFFFFFFFFFFFFFFFFFFFFFFFFFFFFFFFFFFFFFFFFFFF000FFFFFFFFFFFF
310
FFFFFFFFFFFFFFFFFFFFFFFFFFFFFFFFFFFFFFFFFFFFFFFFFFFFFFFFFFFFFFFF
310
FFFFFFFFFFFFFFFFFFFFFFFFFFFFFFFFFFFFFFFFFFFFFFFFFFFFFFFFFFFFFFFF
310
FFFFFFFFFFFFFFFFFFFFFFFFFFFFFFFFF000FFFFFFFFFFFFFFFFFFFFFFFFFFFF
310
FFFFFFFFFFFFFFFFFFFFFFFFFFFFFFFFFFFFFFFFFFFFFFFFFFFFFFFFFFFFFFFF
310
FFFFFFFFFFFFFFFFFFFFFFFFFFFFFFFFFFFFFFFFFFFFFFFFFFFFFFFFFFFFFFFF
310
FFFFFFFFFFFFFFFFF000FFFFFFFFFFFFFFFFFFFFFFFFFFFFFFFFFFFFFFFFFFFF
310
FFFFFFFFFFFFFFFFFFFFFFFFFFFFFFFFFFFFFFFFFFFFFFFFFFFFFFFFFFFFFFFF
310
FFFFFFFFFFFFFFFFFFFFFFFFFFFFFFFFFFFFFFFFFFFFFFFFFFFFFFFFFFFFFFFF
310
F000FFFFFFFFFFFFFFFFFFFFFFFFFFFFFFFFFFFFFFFFFFFFFFFFFFFFFFFFFFFF
310
FFFFFFFFFFFFFFFFFFFFFFFFFFFFFFFFFFFFFFFFFFFFFFFFFFFFFFFFFFFFFFFF
310
FFFFFFFFFFFFFFFFFFFFFFFFFFFFFFFFFFFFFFFFFFFFFFFFF000FFFFFFFFFFFF
310
FFFFFFFFFFFFFFFFFFFFFFFFFFFFFFFFFFFFFFFFFFFFFFFFFFFFFFFFFFFFFFFF
310
FFFFFFFFFFFFFFFFFFFFFFFFFFFFFFFFFFFFFFFFFFFFFFFFFFFFFFFFFFFFFFFF
310
FFFFFFFFFFFFFFFFFFFFFFFFFFFFFFFFF000FFFFFFFFFFFFFFFFFFFFFFFFFFFF
310
FFFFFFFFFFFFFFFFFFFFFFFFFFFFFFFFFFFFFFFFFFFFFFFFFFFFFFFFFFFFFFFF
310
FFFFFFFFFFFFFFFFFFFFFFFFFFFFFFFFFFFFFFFFFFFFFFFFFFFFFFFFFFFFFFFF
310
FFFFFFFFFFFFFFFFF000FFFFFFFFFFFFFFFFFFFFFFFFFFFFFFFFFFFFFFFFFFFF
310
FFFFFFFFFFFFFFFFFFFFFFFFFFFFFFFFFFFFFFFFFFFFFFFFFFFFFFFFFFFFFFFF
310
FFFFFFFFFFFFFFFFFFFFFFFFFFFFFFFFFFFFFFFFFFFFFFFFFFFFFFFFFFFFFFFF
310
F000FFFFFFFFFFFFFFFFFFFFFFFFFFFFFFFFFFFFFFFFFFFFFFFFFFFFFFFFFFFF
310
FFFFFFFFFFFFFFFFFFFFFFFFFFFFFFFFFFFFFFFFFFFFFFFFFFFFFFFFFFFFFFFF
310
FFFFFFFFFFFFFFFFFFFFFFFFFFFFFFFFFFFFFFFFFFFFFFFFF000FFFFFFFFFFFF
310
FFFFFFFFFFFFFFFFFFFFFFFFFFFFFFFFFFFFFFFFFFFFFFFFFFFFFFFFFFFFFFFF
310
FFFFFFFFFFFFFFFFFFFFFFFFFFFFFFFFFFFFFFFFFFFFFFFFFFFFFFFFFFFFFFFF
310
FFFFFFFFFFFFFFFFFFFFFFFFFFFFFFFFF000FFFFFFFFFFFFFFFFFFFFFFFFFFFF
310
FFFFFFFFFFFFFFFFFFFFFFFFFFFFFFFFFFFFFFFFFFFFFFFFFFFFFFFFFFFFFFFF
310
FFFFFFFFFFFFFFFFFFFFFFFFFFFFFFFFFFFFFFFFFFFFFFFFFFFFFFFFFFFFFFFF
310
FFFFFFFFFFFFFFFFF000FFFFF80003FFFFFFFFFFFFFFFFFFFFFFFFFFFFFFFFFF
310
FFFFF00007FFFFFFFFFF00007FFFFFF800000000000000007FFFFFFFFFFFFFFF
310
FFFFFFFC001FFFFFFFFFFFFFFC001FFFFFFFFFFFFFFFFFFFFFFFFFFE0007FFFF
310
F000FFFF8000007FFFFFFFF8000FFFFFC0007FFFFF80007FFFFF0000007FFFFF
310
FFF8000007FFFFF800000000000000007FFFFFF0001FFFFFFFFFFFC00001FFFF
310
FFFFFFFFC00001FFFFFFFF000000000003FFFFE000007FFFF000FFFE0000000F
310
FFFFFFF0000FFFFF80007FFFFF80007FFFFC0000001FFFFFFFC0000001FFFFF8
310
00000000000000007FFFFFF0001FFFFFFFFFFE0000003FFFFFFFFFFE0000003F
310
FFFFFF000000000003FFFF0000000FFFF000FFF800000003FFFFFFF00007FFFF
310
80007FFFFF80007FFFF000000007FFFFFF000000003FFFF80000000000000000
310
7FFFFFF0001FFFFFFFFFF80000000FFFFFFFFFF80000000FFFFFFF0000000000
310
03FFFC00000003FFF000FFE000000000FFFFFFF00007FFFF80003FFFFF80007F
310
FFC000000001FFFFFC000000001FFFF800000000000000007FFFFFF0001FFFFF
310
FFFFE000000003FFFFFFFFE000000003FFFFFF000000000003FFF000000000FF
310
F000FF80000000007FFFFFF00007FFFF80003FFFFF80007FFF8000000000FFFF
310
F80000000007FFF800000000000000007FFFFFF0001FFFFFFFFFC000000001FF
310
FFFFFFC000000001FFFFFF000000000003FFC0000000007FF000FF0000000000
310
3FFFFFE00007FFFF00003FFFFF80007FFE00000000003FFFF00000000003FFF8
310
00000000000000007FFFFFF0001FFFFFFFFF8000000000FFFFFFFF8000000000
310
FFFFFF000000000003FF80000000003FF000FE00000000001FFFFFE00003FFFF
310
00003FFFFF80007FFC00000000001FFFE00000000001FFF8000001FFFE000000
310
7FFFFFF0001FFFFFFFFE00000000003FFFFFFE00000000003FFFFF0000000000
310
03FF00000000001FF000FC00000000000FFFFFE00003FFFF00001FFFFF80007F
310
F800000000001FFFC00000000000FFF8000001FFFE0000007FFFFFF0001FFFFF
310
FFFC00000000001FFFFFFC00000000001FFFFF000000000003FE00000000000F
310
F000F8000000000007FFFFE00003FFFF00001FFFFF80007FF800000000000FFF
310
800000000000FFF8000001FFFE0000007FFFFFF0001FFFFFFFF800000000000F
310
FFFFF800000000000FFFFF000000000003FC000000000007F000F80000000000
310
03FFFFC00003FFFE00001FFFFF80007FF0000000000007FF0000000000007FF8
310
000001FFFE0000007FFFFFF0001FFFFFFFF0000000000007FFFFF00000000000
310
07FFFF000000000003F8000000000003F000F0000000000003FFFFC00001FFFE
310
00001FFFFF80007FE0000000000007FE0000000000003FF8000001FFFE000000
310
7FFFFFF0001FFFFFFFF0000000000007FFFFF0000000000007FFFF0000000000
310
03F800001F800003F000E00001FFF00001FFFFC00001FFFE00000FFFFF80007F
310
E00001FFE00003FE00001FFF00003FF8000001FFFE0000007FFFFFF0001FFFFF
310
FFE000003E000003FFFFE000003E000003FFFF000000000003F00001FFF80001
310
F000E00007FFFC0001FFFFC00001FFFE00000FFFFF80007FC0000FFFFC0003FC
310
0000FFFFC0001FF8000001FFFE0000007FFFFFF0001FFFFFFFC00003FFE00001
310
FFFFC00003FFE00001FFFF0001FFFFFFFFF00007FFFE0001F000E0000FFFFF00
310
00FFFF800001FFFC00000FFFFF80007FC0001FFFFE0001FC0001FFFFE0001FF8
310
000001FFFE0000007FFFFFF0001FFFFFFF80000FFFF80000FFFF80000FFFF800
310
00FFFF0003FFFFFFFFE0000FFFFF8000F000C0003FFFFF8000FFFF800000FFFC
310
000007FFFF80007F80003FFFFF0001FC0003FFFFF0001FF8000001FFFE000000
310
7FFFFFF0001FFFFFFF80003FFFFE0000FFFF80003FFFFE0000FFFF0003FFFFFF
310
FFE0003FFFFF8000F000C0003FFFFF8000FFFF800000FFFC000007FFFF80007F
310
80007FFFFF8001F80007FFFFF8000FF8000001FFFE0000007FFFFFF0001FFFFF
310
FF00007FFFFF00007FFF00007FFFFF00007FFF0003FFFFFFFFE0003FFFFFC000
310
F000C0007FFFFFC000FFFF000000FFFC000007FFFF80007F8000FFFFFF8000F8
310
000FFFFFF8000FF8000001FFFE0000007FFFFFF0001FFFFFFF0000FFFFFF8000
310
7FFF0000FFFFFF80007FFF0003FFFFFFFFC0007FFFFFC00070008000FFFFFFC0
310
00FFFF000000FFF8000007FFFF80007F8000FFFFFF8000F8000FFFFFF8000FF8
310
000001FFFE0000007FFFFFF0001FFFFFFE0001FFFFFFC0003FFE0001FFFFFFC0
310
003FFF0003FFFFFFFFC0007FFFFFE00070008000FFFFFFC0007FFF0000007FF8
310
000003FFFF80007F0001FFFFFF8000F8000FFFFFF8000FF8000001FFFE000000
310
7FFFFFF0001FFFFFFE0001FFFFFFC0003FFE0001FFFFFFC0003FFF0003FFFFFF
310
FFC000FFFFFFE00070008000FFFFFFC0007FFF0000007FF8000003FFFF80007F
310
0001FFFFFF8000F8001FFFFFF8000FF8000001FFFE0000007FFFFFF0001FFFFF
310
FE0003FFFFFFE0003FFE0003FFFFFFE0003FFF0003FFFFFFFFC000FFFFFFE000
310
70008000FFFFFFC0007FFE0000007FF8000003FFFF80007F0001FFFFFF8000F0
310
001FFFFFF8000FF8000001FFFE0000007FFFFFF0001FFFFFFC0003FFFFFFE000
310
1FFC0003FFFFFFE0001FFF0003FFFFFFFFC000FFFFFFC00070008000FFFFFF80
310
007FFE0000007FF0000003FFFF80007F0001FFFFFF0000F0001FFFFFF8000FF8
310
000001FFFE0000007FFFFFF0001FFFFFFC0007FFFFFFF0001FFC0007FFFFFFF0
310
001FFF0003FFFFFFFFC000FFFFFFC00070008001FFFFFF0000FFFE0000003FF0
310
000001FFFF80007F0001FFFFFF0000F8001FFFFFF0000FF8000001FFFE000000
310
7FFFFFF0001FFFFFFC0007FFFFFFF0001FFC0007FFFFFFF0001FFF0003FFFFFF
310
FFC001FFFFFF80007000FFFFFFFFFE0000FFFE0008003FF0008001FFFF80007F
310
FFFFFFFFFC0000FFFFFFFFFFE0000FF8000001FFFE0000007FFFFFF0001FFFFF
310
F8000FFFFFFFF8000FF8000FFFFFFFF8000FFF0003FFFFFFFFFFFFFFFFFF0000
310
7000FFFFFFFFFC0000FFFC0008003FF0008001FFFF80007FFFFFFFFFF80001FF
310
FFFFFFFF80000FF8000001FFFE0000007FFFFFF0001FFFFFF8000FFFFFFFF800
310
0FF8000FFFFFFFF8000FFF0003FFFFFFFFFFFFFFFFFE0000F000FFFFFFFFE000
310
00FFFC000C003FE000C001FFFF80007FFFFFFFFFC00001FFFFFFFFFE00001FF8
310
000001FFFE0000007FFFFFF0001FFFFFF8000FFFFFFFF8000FF8000FFFFFFFF8
310
000FFF0003FFFFFFFFFFFFFFFFF00000F000FFFFFFFE000001FFFC000C001FE0
310
00C000FFFF80007FFFFFFFFE000001FFFFFFFFE000001FF80FFFFFFFFFFFFFC0
310
7FFFFFF0001FFFFFF8000FFFFFFFF8000FF8000FFFFFFFF8000FFF0003FFFFFF
310
FFFFFFFFFF800000F000FFFFFFC0000001FFFC001C001FE001C000FFFF80007F
310
FFFFFF80000003FFFFFFF80000001FF80FFFFFFFFFFFFFC07FFFFFF0001FFFFF
310
F8001FFFFFFFFC000FF8001FFFFFFFFC000FFF0003FFFFFFFFFFFFFFF0000001
310
F000FFFFF800000001FFF8001C001FE001C000FFFF80007FFFFFF800000003FF
310
FFFF800000003FF80FFFFFFFFFFFFFC07FFFFFF0001FFFFFF8001FFFFFFFFC00
310
0FF8001FFFFFFFFC000FFF0003FFFFFFFFFFFFFE00000001F000FFFFC0000000
310
03FFF8001E001FC001E000FFFF80007FFFFF8000000007FFFFFC000000003FF8
310
0FFFFFFFFFFFFFC07FFFFFF0001FFFFFF8001FFFFFFFFC000FF8001FFFFFFFFC
310
000FFF0003FFFFFFFFFFFFE000000003F000FFFE0000000007FFF8001E000FC0
310
01E0007FFF80007FFFFE0000000007FFFFE0000000007FF80FFFFFFFFFFFFFC0
310
7FFFFFF0001FFFFFF0001FFFFFFFFC0007F0001FFFFFFFFC0007FF0003FFFFFF
310
FFFFFF0000000003F000FFF80000000007FFF8001E000FC003E0007FFF80007F
310
FFF0000000000FFFFF8000000000FFF80FFFFFFFFFFFFFC07FFFFFF0001FFFFF
310
F0001FFFFFFFFC0007F0001FFFFFFFFC0007FF0003FFFFFFFFFFFC0000000007
310
F000FFE0000000000FFFF0003E000FC003E0007FFF80007FFFC0000000001FFF
310
FE0000000001FFF80FFFFFFFFFFFFFC07FFFFFF0001FFFFFF0001FFFFFFFFC00
310
07F0001FFFFFFFFC0007FF0003FFFFFFFFFFF0000000000FF000FFC000000000
310
1FFFF0003F000F8003F0003FFF80007FFF80000000003FFFF80000000003FFF8
310
0FFFFFFFFFFFFFC07FFFFFF0001FFFFFF0001FFFFFFFFC0007F0001FFFFFFFFC
310
0007FF0003FFFFFFFFFFE0000000001FF000FF00000000007FFFF0003F000780
310
03F0003FFF80007FFF00000000007FFFF00000000007FFF80FFFFFFFFFFFFFC0
310
7FFFFFF0001FFFFFF0001FFFFFFFFC0007F0001FFFFFFFFC0007FF0003FFFFFF
310
FFFF80000000007FF000FE0000000000FFFFE0003F00078007F0003FFF80007F
310
FE0000000001FFFFE0000000001FFFF80FFFFFFFFFFFFFC07FFFFFF0001FFFFF
310
F0001FFFFFFFFC0007F0001FFFFFFFFC0007FF0003FFFFFFFFFF0000000000FF
310
F000FC0000000003FFFFE0007F00078007F0003FFF80007FFC0000000007FFFF
310
C0000000007FFFF80FFFFFFFFFFFFFC07FFFFFF0001FFFFFF8001FFFFFFFFC00
310
0FF8001FFFFFFFFC000FFF0003FFFFFFFFFE0000000003FFF000FC000000000F
310
FFFFE0007F80070007F8001FFF80007FF8000000001FFFFF8000000001FFFFF8
310
0FFFFFFFFFFFFFC07FFFFFF0001FFFFFF8001FFFFFFFFC000FF8001FFFFFFFFC
310
000FFF0003FFFFFFFFFC000000000FFFF000F8000000007FFFFFE0007F800700
310
07F8001FFF80007FF000000000FFFFFF800000000FFFFFF80FFFFFFFFFFFFFC0
310
7FFFFFF0001FFFFFF8000FFFFFFFF8000FF8000FFFFFFFF8000FFF0003FFFFFF
310
FFFC000000007FFFF000F800000007FFFFFFC0007F8003000FF8001FFF80007F
310
F000000007FFFFFF000000007FFFFFF80FFFFFFFFFFFFFC07FFFFFF0001FFFFF
310
F8000FFFFFFFF8000FF8000FFFFFFFF8000FFF0003FFFFFFFFF80000000FFFFF
310
F000F0000000FFFFFFFFC000FF8003000FF8001FFF80007FE0000000FFFFFFFF
310
0000000FFFFFFFF8000001FFFE0000007FFFFFF0001FFFFFF8000FFFFFFFF800
310
0FF8000FFFFFFFF8000FFF0003FFFFFFFFF8000000FFFFFFF000F000000FFFFF
310
FFFFC000FFC002000FF8000FFF80007FE000001FFFFFFFFE000001FFFFFFFFF8
310
000001FFFE0000007FFFFFF0001FFFFFF8000FFFFFFFF8000FF8000FFFFFFFF8
310
000FFF0003FFFFFFFFF000001FFFFFFFF000E00000FFFFFFFFFFC000FFC00200
310
0FFC000FFF80007FE00001FFFFFFFFFE00001FFFFFFFFFF8000001FFFE000000
310
7FFFFFF0001FFFFFFC000FFFFFFFF8001FFC000FFFFFFFF8001FFF0003FFFFFF
310
FFF00001FFFFFFFFF000E00007FFFFFFFFFF8000FFC000001FFC000FFF80007F
310
C0000FFFFFFFFFFE0000FFFFFFFFFFF8000001FFFE0000007FFFFFF0001FFFFF
310
FC0007FFFFFFF0001FFC0007FFFFFFF0001FFF0003FFFFFFFFF00007FFFFFFFF
310
F000E0001FFFFFFFFFFF8000FFC000001FFC000FFF80007FC0003FFFFFFFFFFE
310
0001FFFFFFFFFFF8000001FFFE0000007FFFFFF0001FFFFFFC0007FFFFFFF000
310
1FFC0007FFFFFFF0001FFF0003FFFFFFFFF0001FFFFFFFFFF000E0003FFFFF00
310
03FF8001FFE000001FFC0007FF80007FC0007FFFFF0007FC0003FFFFF0003FF8
310
000001FFFE0000007FFFFFF0001FFFFFFC0003FFFFFFE0001FFC0003FFFFFFE0
310
001FFF0003FFFFFFFFF0003FFFFFFFFFF000E0003FFFFF0001FF8001FFE00000
310
1FFE0007FF80007FC0007FFFFE0003FC0007FFFFE0003FF8000001FFFE000000
310
7FFFFFF0001FFFFFFE0003FFFFFFE0003FFE0003FFFFFFE0003FFF0003FFFFFF
310
FFF0003FFFFF8001F000E0003FFFFF0001FF0001FFE000001FFE0007FF80007F
310
C0007FFFFE0003FC0007FFFFE0003FF8000001FFFE0000007FFFFFF0001FFFFF
310
FE0001FFFFFFC0003FFE0001FFFFFFC0003FFF0003FFFFFFFFF0003FFFFF0001
310
F000E0003FFFFF0003FF0001FFE000003FFE0007FF80007FC0007FFFFE0003FC
310
0007FFFFE0003FF8000001FFFE0000007FFFFFF0001FFFFFFF0001FFFFFFC000
310
7FFF0001FFFFFFC0007FFF0003FFFFFFFFF0003FFFFF0001F000E0003FFFFE00
310
03FF0003FFF000003FFE0003FF80007FC0007FFFFC0003FE0007FFFFE0003FF8
310
000001FFFE0000007FFFFFF0001FFFFFFF0000FFFFFF80007FFF0000FFFFFF80
310
007FFF0003FFFFFFFFF0003FFFFF0001F000E0003FFFFE0003FF0003FFF00000
310
3FFF0003FF80007FC0007FFFFC0007FE0007FFFFC0003FF8000001FFFE000000
310
7FFFFFF0001FFFFFFF80007FFFFF0000FFFF80007FFFFF0000FFFF0003FFFFFF
310
FFF0003FFFFF0003F000E0003FFFFC0003FE0003FFF000003FFF0003FF80007F
310
E0003FFFF80007FE0003FFFFC0007FF8000001FFFE0000007FFFFFF0001FFFFF
310
FF80003FFFFE0000FFFF80003FFFFE0000FFFF0003FFFFFFFFF0001FFFFE0003
310
F000F0001FFFF80003FE0003FFF000007FFF0001FF80007FE0003FFFF00007FE
310
0001FFFF80007FF8000001FFFE0000007FFFFFF0001FFFFFFFC0000FFFF80001
310
FFFFC0000FFFF80001FFFF0003FFFFFFFFF0001FFFFC0003F000F0000FFFF000
310
07FE0007FFF800007FFF0001FF80007FE0001FFFE00007FF0000FFFE00007FF8
310
000001FFFE0000007FFFFFF0001FFFFFFFC00003FFE00001FFFFC00003FFE000
310
01FFFF0003FFFFFFFFF8000FFFF80003F000F00003FFC00007FC0007FFF80000
310
7FFF8001FF80007FF00007FF80000FFF00007FF80000FFF8000001FFFE000000
310
7F80000000000001FFE000003E000003FFFFE000003E000003FFFF0003FFFFFF
310
FFF80003FFE00007F000F800000000000FFC0007FFF800007FFF8001FF80007F
310
F000000000000FFF000000000000FFF8000001FFFE0000007F80000000000001
310
FFF0000000000007FFFFF0000000000007FFFF0003FFFFFFFFFC00007E000007
310
F000F800000000000FFC0007FFF80000FFFF8000FF80007FF800000000001FFF
310
800000000001FFF8000001FFFE0000007F80000000000001FFF800000000000F
310
FFFFF800000000000FFFFF0003FFFFFFFFFC00000000000FF000FC0000000000
310
1FFC0007FFFC0000FFFF8000FF80007FF800000000003FFFC00000000001FFF8
310
000001FFFE0000007F80000000000001FFF800000000000FFFFFF80000000000
310
0FFFFF0003FFFFFFFFFE00000000001FF000FE00000000003FF8000FFFFC0000
310
FFFF8000FF80007FFC00000000003FFFC00000000003FFF8000001FFFE000000
310
7F80000000000001FFFC00000000001FFFFFFC00000000001FFFFF0003FFFFFF
310
FFFF00000000001FF000FF00000000003FF8000FFFFC0000FFFFC000FF80007F
310
FE00000000007FFFE00000000007FFF8000001FFFE0000007F80000000000001
310
FFFE00000000003FFFFFFE00000000003FFFFF0003FFFFFFFFFF80000000003F
310
F000FF80000000007FF8000FFFFC0001FFFFC0007F80007FFF0000000000FFFF
310
F0000000000FFFF800000000000000007F80000000000001FFFF8000000000FF
310
FFFFFF8000000000FFFFFF0003FFFFFFFFFFC0000000007FF000FFC000000000
310
FFF8000FFFFE0001FFFFC0007F80007FFF8000000001FFFFF8000000001FFFF8
310
00000000000000007F80000000000001FFFFC000000001FFFFFFFFC000000001
310
FFFFFF0003FFFFFFFFFFE000000000FFF000FFE000000003FFF0001FFFFE0001
310
FFFFC0007F80007FFFC000000007FFFFFE000000003FFFF80000000000000000
310
7F80000000000001FFFFE000000003FFFFFFFFE000000003FFFFFF0003FFFFFF
310
FFFFF000000003FFF000FFF80000000FFFF0001FFFFE0001FFFFE0007F80007F
310
FFF00000000FFFFFFF00000000FFFFF800000000000000007F80000000000001
310
FFFFF80000000FFFFFFFFFF80000000FFFFFFF0003FFFFFFFFFFFC0000000FFF
310
F000FFFE0000003FFFF0001FFFFE0003FFFFE0003F80007FFFFC0000003FFFFF
310
FFC0000003FFFFF800000000000000007F80000000000001FFFFFE0000003FFF
310
FFFFFFFE0000003FFFFFFF0003FFFFFFFFFFFF0000003FFFF000FFFF800000FF
310
FFF0001FFFFF0003FFFFE0003F80007FFFFF000001FFFFFFFFF800001FFFFFF8
310
00000000000000007F80000000000001FFFFFFC00001FFFFFFFFFFFFC00001FF
310
FFFFFF0003FFFFFFFFFFFFC00000FFFFF000FFFFF8000FFFFFFFFFFFFFFFFFFF
310
FFFFFFFFFFFFFFFFFFFFF0001FFFFFFFFFFF0000FFFFFFF80000000000000000
310
7FFFFFFFFFFFFFFFFFFFFFFC001FFFFFFFFFFFFFFC001FFFFFFFFFFFFFFFFFFF
310
FFFFFFFC001FFFFFF000FFFFFFFFFFFFFFFFFFFFFFFFFFFFFFFFFFFFFFFFFFFF
310
FFFFFFFFFFFFFFFFFFFFFFFFFFFFFFFFFFFFFFFFFFFFFFFFFFFFFFFFFFFFFFFF
310
FFFFFFFFFFFFFFFFFFFFFFFFFFFFFFFFFFFFFFFFFFFFFFFFFFFFFFFFFFFFFFFF
310
F000FFFFFFFFFFFFFFFFFFFFFFFFFFFFFFFFFFFFFFFFFFFFFFFFFFFFFFFFFFFF
310
FFFFFFFFFFFFFFFFFFFFFFFFFFFFFFFFFFFFFFFFFFFFFFFFFFFFFFFFFFFFFFFF
310
FFFFFFFFFFFFFFFFFFFFFFFFFFFFFFFFFFFFFFFFFFFFFFFFF000FFFFFFFFFFFF
310
FFFFFFFFFFFFFFFFFFFFFFFFFFFFFFFFFFFFFFFFFFFFFFFFFFFFFFFFFFFFFFFF
310
FFFFFFFFFFFFFFFFFFFFFFFFFFFFFFFFFFFFFFFFFFFFFFFFFFFFFFFFFFFFFFFF
310
FFFFFFFFFFFFFFFFFFFFFFFFFFFFFFFFF000FFFFFFFFFFFFFFFFFFFFFFFFFFFF
310
FFFFFFFFFFFFFFFFFFFFFFFFFFFFFFFFFFFFFFFFFFFFFFFFFFFFFFFFFFFFFFFF
310
FFFFFFFFFFFFFFFFFFFFFFFFFFFFFFFFFFFFFFFFFFFFFFFFFFFFFFFFFFFFFFFF
310
FFFFFFFFFFFFFFFFF000FFFFFFFFFFFFFFFFFFFFFFFFFFFFFFFFFFFFFFFFFFFF
310
FFFFFFFFFFFFFFFFFFFFFFFFFFFFFFFFFFFFFFFFFFFFFFFFFFFFFFFFFFFFFFFF
310
FFFFFFFFFFFFFFFFFFFFFFFFFFFFFFFFFFFFFFFFFFFFFFFFFFFFFFFFFFFFFFFF
310
F000FFFFFFFFFFFFFFFFFFFFFFFFFFFFFFFFFFFFFFFFFFFFFFFFFFFFFFFFFFFF
310
FFFFFFFFFFFFFFFFFFFFFFFFFFFFFFFFFFFFFFFFFFFFFFFFFFFFFFFFFFFFFFFF
310
FFFFFFFFFFFFFFFFFFFFFFFFFFFFFFFFFFFFFFFFFFFFFFFFF000FFFFFFFFFFFF
310
FFFFFFFFFFFFFFFFFFFFFFFFFFFFFFFFFFFFFFFFFFFFFFFFFFFFFFFFFFFFFFFF
310
FFFFFFFFFFFFFFFFFFFFFFFFFFFFFFFFFFFFFFFFFFFFFFFFFFFFFFFFFFFFFFFF
310
FFFFFFFFFFFFFFFFFFFFFFFFFFFFFFFFF000FFFFFFFFFFFFFFFFFFFFFFFFFFFF
310
FFFFFFFFFFFFFFFFFFFFFFFFFFFFFFFFFFFFFFFFFFFFFFFFFFFFFFFFFFFFFFFF
310
FFFFFFFFFFFFFFFFFFFFFFFFFFFFFFFFFFFFFFFFFFFFFFFFFFFFFFFFFFFFFFFF
310
FFFFFFFFFFFFFFFFF000FFFFFFFFFFFFFFFFFFFFFFFFFFFFFFFFFFFFFFFFFFFF
310
FFFFFFFFFFFFFFFFFFFFFFFFFFFFFFFFFFFFFFFFFFFFFFFFFFFFFFFFFFFFFFFF
310
FFFFFFFFFFFFFFFFFFFFFFFFFFFFFFFFFFFFFFFFFFFFFFFFFFFFFFFFFFFFFFFF
310
F000FFFFFFFFFFFFFFFFFFFFFFFFFFFFFFFFFFFFFFFFFFFFFFFFFFFFFFFFFFFF
310
FFFFFFFFFFFFFFFFFFFFFFFFFFFFFFFFFFFFFFFFFFFFFFFFFFFFFFFFFFFFFFFF
310
FFFFFFFFFFFFFFFFFFFFFFFFFFFFFFFFFFFFFFFFFFFFFFFFF000FFFFFFFFFFFF
310
FFFFFFFFFFFFFFFFFFFFFFFFFFFFFFFFFFFFFFFFFFFFFFFFFFFFFFFFFFFFFFFF
310
FFFFFFFFFFFFFFFFFFFFFFFFFFFFFFFFFFFFFFFFFFFFFFFFFFFFFFFFFFFFFFFF
310
FFFFFFFFFFFFFFFFFFFFFFFFFFFFFFFFF000FFFFFFFFFFFFFFFFFFFFFFFFFFFF
310
FFFFFFFFFFFFFFFFFFFFFFFFFFFFFFFFFFFFFFFFFFFFFFFFFFFFFFFFFFFFFFFF
310
FFFFFFFFFFFFFFFFFFFFFFFFFFFFFFFFFFFFFFFFFFFFFFFFFFFFFFFFFFFFFFFF
310
FFFFFFFFFFFFFFFFF000FFFFFFFFFFFFFFFFFFFFFFFFFFFFFFFFFFFFFFFFFFFF
310
FFFFFFFFFFFFFFFFFFFFFFFFFFFFFFFFFFFFFFFFFFFFFFFFFFFFFFFFFFFFFFFF
310
FFFFFFFFFFFFFFFFFFFFFFFFFFFFFFFFFFFFFFFFFFFFFFFFFFFFFFFFFFFFFFFF
310
F000FFFFFFFFFFFFFFFFFFFFFFFFFFFFFFFFFFFFFFFFFFFFFFFFFFFFFFFFFFFF
310
FFFFFFFFFFFFFFFFFFFFFFFFFFFFFFFFFFFFFFFFFFFFFFFFFFFFFFFFFFFFFFFF
310
FFFFFFFFFFFFFFFFFFFFFFFFFFFFFFFFFFFFFFFFFFFFFFFFF000FFFFFFFFFFFF
310
FFFFFFFFFFFFFFFFFFFFFFFFFFFFFFFFFFFFFFFFFFFFFFFFFFFFFFFFFFFFFFFF
310
FFFFFFFFFFFFFFFFFFFFFFFFFFFFFFFFFFFFFFFFFFFFFFFFFFFFFFFFFFFFFFFF
310
FFFFFFFFFFFFFFFFFFFFFFFFFFFFFFFFF000FFFFFFFFFFFFFFFFFFFFFFFFFFFF
310
FFFFFFFFFFFFFFFFFFFFFFFFFFFFFFFFFFFFFFFFFFFFFFFFFFFFFFFFFFFFFFFF
310
FFFFFFFFFFFFFFFFFFFFFFFFFFFFFFFFFFFFFFFFFFFFFFFFFFFFFFFFFFFFFFFF
310
FFFFFFFFFFFFFFFFF000FFFFFFFFFFFFFFFFFFFFFFFFFFFFFFFFFFFFFFFFFFFF
310
FFFFFFFFFFFFFFFFFFFFFFFFFFFFFFFFFFFFFFFFFFFFFFFFFFFFFFFFFFFFFFFF
310
FFFFFFFFFFFFFFFFFFFFFFFFFFFFFFFFFFFFFFFFFFFFFFFFFFFFFFFFFFFFFFFF
310
F000FFFFFFFFFFFFFFFFFFFFFFFFFFFFFFFFFFFFFFFFFFFFFFFFFFFFFFFFFFFF
310
FFFFFFFFFFFFFFFFFFFFFFFFFFFFFFFFFFFFFFFFFFFFFFFFFFFFFFFFFFFFFFFF
310
FFFFFFFFFFFFFFFFFFFFFFFFFFFFFFFFFFFFFFFFFFFFFFFFF000FFFFFFFFFFFF
310
FFFFFFFFFFFFFFFFFFFFFFFFFFFFFFFFFFFFFFFFFFFFFFFFFFFFFFFFFFFFFFFF
310
FFFFFFFFFFFFFFFFFFFFFFFFFFFFFFFFFFFFFFFFFFFFFFFFFFFFFFFFFFFFFFFF
310
FFFFFFFFFFFFFFFFFFFFFFFFFFFFFFFFF000FFFFFFFFFFFFFFFFFFFFFFFFFFFF
310
FFFFFFFFFFFFFFFFFFFFFFFFFFFFFFFFFFFFFFFFFFFFFFFFFFFFFFFFFFFFFFFF
310
FFFFFFFFFFFFFFFFFFFFFFFFFFFFFFFFFFFFFFFFFFFFFFFFFFFFFFFFFFFFFFFF
310
FFFFFFFFFFFFFFFFF000FFFFFFFFFFFFFFFFFFFFFFFFFFFFFFFFFFFFFFFFFFFF
310
FFFFFFFFFFFFFFFFFFFFFFFFFFFFFFFFFFFFFFFFFFFFFFFFFFFFFFFFFFFFFFFF
310
FFFFFFFFFFFFFFFFFFFFFFFFFFFFFFFFFFFFFFFFFFFFFFFFFFFFFFFFFFFFFFFF
310
F000FFFFFFFFFFFFFFFFFFFFFFFFFFFFFFFFFFFFFFFFFFFFFFFFFFFFFFFFFFFF
310
FFFFFFFFFFFFFFFFFFFFFFFFFFFFFFFFFFFFFFFFFFFFFFFFFFFFFFFFFFFFFFFF
310
FFFFFFFFFFFFFFFFFFFFFFFFFFFFFFFFFFFFFFFFFFFFFFFFF000FFFFFFFFFFFF
310
FFFFFFFFFFFFFFFFFFFFFFFFFFFFFFFFFFFFFFFFFFFFFFFFFFFFFFFFFFFFFFFF
310
FFFFFFFFFFFFFFFFFFFFFFFFFFFFFFFFFFFFFFFFFFFFFFFFFFFFFFFFFFFFFFFF
310
FFFFFFFFFFFFFFFFFFFFFFFFFFFFFFFFF0000000000000000000000000000000
310
0000000001000000010000000100000001000000000000000100000001000000
310
0000000001000000010000000100000001000000010000000100000001000000
310
0100000001000000010000000100000001000000010000000100000001000000
310
0100000001000000010000000100000000000000010000000100000000000000
310
0100000001000000010000000100000001000000010000000100000001000000
310
0100000001000000010000000100000001000000010000000100000001000000
310
0100000001000000010000000100000001000000010000000100000001000000
310
0100000001000000010000000100000001000000010000000100000001000000
310
0000000001000000010000000100000001000000010000000100000001000000
310
0100000001000000010000000100000001000000010000000100000001000000
310
0100000001000000010000000100000001000000010000000100000000000000
310
0100000001000000010000000100000000000000010000000100000001000000
310
0100000001000000010000000100000001000000010000000100000001000000
310
0100000001000000010000000100000001000000010000000100000001000000
310
0100000001000000010000000000000000000000000000000000000000000000
  1
OLE
  0
ENDSEC
  0
SECTION
  2
OBJECTS
  0
DICTIONARY
  5
C
330
0
100
AcDbDictionary
281
     1
  3
ACAD_GROUP
350
D
  3
ACAD_LAYOUT
350
1A
  3
ACAD_MLEADERSTYLE
350
200
  3
ACAD_MLINESTYLE
350
17
  3
ACAD_PLOTSETTINGS
350
19
  3
ACAD_PLOTSTYLENAME
350
E
  3
ACAD_TABLESTYLE
350
1FF
  3
ACAD_VISUALSTYLE
350
2A
  3
AcDbVariableDictionary
350
201
  0
DICTIONARY
  5
D
102
{ACAD_REACTORS
330
C
102
}
330
C
100
AcDbDictionary
281
     1
  0
DICTIONARY
  5
1A
102
{ACAD_REACTORS
330
C
102
}
330
C
100
AcDbDictionary
281
     1
  3
Layout1
350
1E
  3
Layout2
350
26
  3
Model
350
22
  0
DICTIONARY
  5
200
102
{ACAD_REACTORS
330
C
102
}
330
C
100
AcDbDictionary
281
     1
  0
DICTIONARY
  5
17
102
{ACAD_REACTORS
330
C
102
}
330
C
100
AcDbDictionary
281
     1
  3
Standard
350
18
  0
DICTIONARY
  5
19
102
{ACAD_REACTORS
330
C
102
}
330
C
100
AcDbDictionary
281
     1
  0
ACDBDICTIONARYWDFLT
  5
E
102
{ACAD_REACTORS
330
C
102
}
330
C
100
AcDbDictionary
281
     1
  3
Normal
350
F
100
AcDbDictionaryWithDefault
340
F
  0
DICTIONARY
  5
1FF
102
{ACAD_REACTORS
330
C
102
}
330
C
100
AcDbDictionary
281
     1
  0
DICTIONARY
  5
2A
102
{ACAD_REACTORS
330
C
102
}
330
C
100
AcDbDictionary
281
     1
  3
2dWireframe
350
2F
  3
3D Hidden
350
31
  3
3dWireframe
350
30
  3
Basic
350
32
  3
Brighten
350
36
  3
ColorChange
350
3A
  3
Conceptual
350
34
  3
Dim
350
35
  3
Facepattern
350
39
  3
Flat
350
2B
  3
FlatWithEdges
350
2C
  3
Gouraud
350
2D
  3
GouraudWithEdges
350
2E
  3
Linepattern
350
38
  3
Realistic
350
33
  3
Thicken
350
37
  0
DICTIONARY
  5
201
102
{ACAD_REACTORS
330
C
102
}
330
C
100
AcDbDictionary
281
     1
  3
PSOLHEIGHT
350
203
  3
PSOLWIDTH
350
202
  0
LAYOUT
  5
1E
102
{ACAD_REACTORS
330
1A
102
}
330
1A
100
AcDbPlotSettings
  1

  2
none_device
  4

  6

 40
0.0
 41
0.0
 42
0.0
 43
0.0
 44
0.0
 45
0.0
 46
0.0
 47
0.0
 48
0.0
 49
0.0
140
0.0
141
0.0
142
1.0
143
1.0
 70
   688
 72
     0
 73
     0
 74
     5
  7

 75
    16
147
1.0
148
0.0
149
0.0
100
AcDbLayout
  1
Layout1
 70
     1
 71
     1
 10
0.0
 20
0.0
 11
420.0
 21
297.0
 12
0.0
 22
0.0
 32
0.0
 14
1.0000000000E+20
 24
1.0000000000E+20
 34
1.0000000000E+20
 15
-1.0000000000E+20
 25
-1.0000000000E+20
 35
-1.0000000000E+20
146
0.0
 13
0.0
 23
0.0
 33
0.0
 16
1.0
 26
0.0
 36
0.0
 17
0.0
 27
1.0
 37
0.0
 76
     0
330
1B
  0
LAYOUT
  5
26
102
{ACAD_REACTORS
330
1A
102
}
330
1A
100
AcDbPlotSettings
  1

  2
none_device
  4

  6

 40
0.0
 41
0.0
 42
0.0
 43
0.0
 44
0.0
 45
0.0
 46
0.0
 47
0.0
 48
0.0
 49
0.0
140
0.0
141
0.0
142
1.0
143
1.0
 70
   688
 72
     0
 73
     0
 74
     5
  7

 75
    16
147
1.0
148
0.0
149
0.0
100
AcDbLayout
  1
Layout2
 70
     1
 71
     2
 10
0.0
 20
0.0
 11
0.0
 21
0.0
 12
0.0
 22
0.0
 32
0.0
 14
0.0
 24
0.0
 34
0.0
 15
0.0
 25
0.0
 35
0.0
146
0.0
 13
0.0
 23
0.0
 33
0.0
 16
1.0
 26
0.0
 36
0.0
 17
0.0
 27
1.0
 37
0.0
 76
     0
330
23
  0
LAYOUT
  5
22
102
{ACAD_REACTORS
330
1A
102
}
330
1A
100
AcDbPlotSettings
  1

  2
none_device
  4

  6

 40
0.0
 41
0.0
 42
0.0
 43
0.0
 44
0.0
 45
0.0
 46
0.0
 47
0.0
 48
0.0
 49
0.0
140
0.0
141
0.0
142
1.0
143
1.0
 70
  1712
 72
     0
 73
     0
 74
     0
  7

 75
     0
147
1.0
148
0.0
149
0.0
100
AcDbLayout
  1
Model
 70
     1
 71
     0
 10
0.0
 20
0.0
 11
297.0
 21
210.0
 12
0.0
 22
0.0
 32
0.0
 14
0.0
 24
0.0
 34
0.0
 15
297.0
 25
210.0
 35
0.0
146
0.0
 13
0.0
 23
0.0
 33
0.0
 16
1.0
 26
0.0
 36
0.0
 17
0.0
 27
1.0
 37
0.0
 76
     0
330
1F
331
29
  0
MLINESTYLE
  5
18
102
{ACAD_REACTORS
330
17
102
}
330
17
100
AcDbMlineStyle
  2
Standard
 70
     0
  3

 62
   256
 51
90.0
 52
90.0
 71
     2
 49
0.5
 62
   256
  6
BYLAYER
 49
-0.5
 62
   256
  6
BYLAYER
  0
ACDBPLACEHOLDER
  5
F
102
{ACAD_REACTORS
330
E
102
}
330
E
  0
VISUALSTYLE
  5
2F
102
{ACAD_REACTORS
330
2A
102
}
330
2A
100
AcDbVisualStyle
  2
2dWireframe
 70
     4
 71
     0
 72
     2
 73
     0
 90
        0
 40
-0.6
 41
-30.0
 62
     5
 63
     7
 74
     1
 91
        4
 64
     7
 65
   257
 75
     1
175
     1
 42
1.0
 92
        0
 66
   257
 43
1.0
 76
     1
 77
     6
 78
     2
 67
     7
 79
     5
170
     0
171
     0
290
     0
174
     0
 93
        1
 44
0.0
173
     0
291
     0
 45
0.0
1001
ACAD
1000
AcDbSavedByObjectVersion
1070
     0
  0
VISUALSTYLE
  5
31
102
{ACAD_REACTORS
330
2A
102
}
330
2A
100
AcDbVisualStyle
  2
3D Hidden
 70
     6
 71
     1
 72
     2
 73
     2
 90
        0
 40
-0.6
 41
-30.0
 62
     5
 63
     7
 74
     2
 91
        2
 64
     7
 65
   257
 75
     2
175
     1
 42
40.0
 92
        0
 66
   257
 43
1.0
 76
     1
 77
     6
 78
     2
 67
     7
 79
     3
170
     0
171
     0
290
     0
174
     0
 93
        1
 44
0.0
173
     0
291
     0
 45
0.0
1001
ACAD
1000
AcDbSavedByObjectVersion
1070
     0
  0
VISUALSTYLE
  5
30
102
{ACAD_REACTORS
330
2A
102
}
330
2A
100
AcDbVisualStyle
  2
3dWireframe
 70
     5
 71
     0
 72
     2
 73
     0
 90
        0
 40
-0.6
 41
-30.0
 62
     5
 63
     7
 74
     1
 91
        4
 64
     7
 65
   257
 75
     1
175
     1
 42
1.0
 92
        0
 66
   257
 43
1.0
 76
     1
 77
     6
 78
     2
 67
     7
 79
     5
170
     0
171
     0
290
     0
174
     0
 93
        1
 44
0.0
173
     0
291
     0
 45
0.0
1001
ACAD
1000
AcDbSavedByObjectVersion
1070
     0
  0
VISUALSTYLE
  5
32
102
{ACAD_REACTORS
330
2A
102
}
330
2A
100
AcDbVisualStyle
  2
Basic
 70
     7
 71
     1
 72
     0
 73
     1
 90
        0
 40
-0.6
 41
-30.0
 62
     5
 63
     7
 74
     0
 91
        4
 64
     7
 65
   257
 75
     1
175
     1
 42
1.0
 92
        8
 66
     7
 43
1.0
 76
     1
 77
     6
 78
     2
 67
     7
 79
     5
170
     0
171
     0
290
     0
174
     0
 93
        1
 44
0.0
173
     0
291
     1
 45
0.0
1001
ACAD
1000
AcDbSavedByObjectVersion
1070
     0
  0
VISUALSTYLE
  5
36
102
{ACAD_REACTORS
330
2A
102
}
330
2A
100
AcDbVisualStyle
  2
Brighten
 70
    12
 71
     2
 72
     2
 73
     0
 90
        0
 40
-0.6
 41
-30.0
 62
     5
 63
     7
 74
     1
 91
        4
 64
     7
 65
   257
 75
     1
175
     1
 42
1.0
 92
        8
 66
     7
 43
1.0
 76
     1
 77
     6
 78
     2
 67
     7
 79
     5
170
     0
171
     0
290
     0
174
     0
 93
        1
 44
50.0
173
     0
291
     1
 45
0.0
1001
ACAD
1000
AcDbSavedByObjectVersion
1070
     0
  0
VISUALSTYLE
  5
3A
102
{ACAD_REACTORS
330
2A
102
}
330
2A
100
AcDbVisualStyle
  2
ColorChange
 70
    16
 71
     2
 72
     2
 73
     3
 90
        0
 40
-0.6
 41
-30.0
 62
     5
 63
     8
 74
     1
 91
        4
 64
     7
 65
   257
 75
     1
175
     1
 42
1.0
 92
        8
 66
     8
 43
1.0
 76
     1
 77
     6
 78
     2
 67
     7
 79
     5
170
     0
171
     0
290
     0
174
     0
 93
        1
 44
0.0
173
     0
291
     1
 45
0.0
1001
ACAD
1000
AcDbSavedByObjectVersion
1070
     0
  0
VISUALSTYLE
  5
34
102
{ACAD_REACTORS
330
2A
102
}
330
2A
100
AcDbVisualStyle
  2
Conceptual
 70
     9
 71
     3
 72
     2
 73
     0
 90
        0
 40
-0.6
 41
-30.0
 62
     5
 63
     7
 74
     2
 91
        2
 64
     7
 65
   257
 75
     1
175
     1
 42
40.0
 92
        8
 66
     7
 43
1.0
 76
     1
 77
     6
 78
     2
 67
     7
 79
     3
170
     0
171
     0
290
     0
174
     0
 93
        1
 44
0.0
173
     0
291
     0
 45
0.0
1001
ACAD
1000
AcDbSavedByObjectVersion
1070
     0
  0
VISUALSTYLE
  5
35
102
{ACAD_REACTORS
330
2A
102
}
330
2A
100
AcDbVisualStyle
  2
Dim
 70
    11
 71
     2
 72
     2
 73
     0
 90
        0
 40
-0.6
 41
-30.0
 62
     5
 63
     7
 74
     1
 91
        4
 64
     7
 65
   257
 75
     1
175
     1
 42
1.0
 92
        8
 66
     7
 43
1.0
 76
     1
 77
     6
 78
     2
 67
     7
 79
     5
170
     0
171
     0
290
     0
174
     0
 93
        1
 44
-50.0
173
     0
291
     1
 45
0.0
1001
ACAD
1000
AcDbSavedByObjectVersion
1070
     0
  0
VISUALSTYLE
  5
39
102
{ACAD_REACTORS
330
2A
102
}
330
2A
100
AcDbVisualStyle
  2
Facepattern
 70
    15
 71
     2
 72
     2
 73
     0
 90
        0
 40
-0.6
 41
-30.0
 62
     5
 63
     7
 74
     1
 91
        4
 64
     7
 65
   257
 75
     1
175
     1
 42
1.0
 92
        8
 66
     7
 43
1.0
 76
     1
 77
     6
 78
     2
 67
     7
 79
     5
170
     0
171
     0
290
     0
174
     0
 93
        1
 44
0.0
173
     0
291
     1
 45
0.0
1001
ACAD
1000
AcDbSavedByObjectVersion
1070
     0
  0
VISUALSTYLE
  5
2B
102
{ACAD_REACTORS
330
2A
102
}
330
2A
100
AcDbVisualStyle
  2
Flat
 70
     0
 71
     2
 72
     1
 73
     1
 90
        2
 40
-0.6
 41
30.0
 62
     5
 63
     7
 74
     0
 91
        4
 64
     7
 65
   257
 75
     1
175
     1
 42
1.0
 92
        8
 66
     7
 43
1.0
 76
     1
 77
     6
 78
     2
 67
     7
 79
     5
170
     0
171
     0
290
     0
174
     0
 93
       13
 44
0.0
173
     0
291
     1
 45
0.0
1001
ACAD
1000
AcDbSavedByObjectVersion
1070
     0
  0
VISUALSTYLE
  5
2C
102
{ACAD_REACTORS
330
2A
102
}
330
2A
100
AcDbVisualStyle
  2
FlatWithEdges
 70
     1
 71
     2
 72
     1
 73
     1
 90
        2
 40
-0.6
 41
30.0
 62
     5
 63
     7
 74
     1
 91
        4
 64
     7
 65
   257
 75
     1
175
     1
 42
1.0
 92
        0
 66
   257
 43
1.0
 76
     1
 77
     6
 78
     2
 67
     7
 79
     5
170
     0
171
     0
290
     0
174
     0
 93
       13
 44
0.0
173
     0
291
     1
 45
0.0
1001
ACAD
1000
AcDbSavedByObjectVersion
1070
     0
  0
VISUALSTYLE
  5
2D
102
{ACAD_REACTORS
330
2A
102
}
330
2A
100
AcDbVisualStyle
  2
Gouraud
 70
     2
 71
     2
 72
     2
 73
     1
 90
        2
 40
-0.6
 41
30.0
 62
     5
 63
     7
 74
     0
 91
        4
 64
     7
 65
   257
 75
     1
175
     1
 42
1.0
 92
        0
 66
     7
 43
1.0
 76
     1
 77
     6
 78
     2
 67
     7
 79
     5
170
     0
171
     0
290
     0
174
     0
 93
       13
 44
0.0
173
     0
291
     1
 45
0.0
1001
ACAD
1000
AcDbSavedByObjectVersion
1070
     0
  0
VISUALSTYLE
  5
2E
102
{ACAD_REACTORS
330
2A
102
}
330
2A
100
AcDbVisualStyle
  2
GouraudWithEdges
 70
     3
 71
     2
 72
     2
 73
     1
 90
        2
 40
-0.6
 41
30.0
 62
     5
 63
     7
 74
     1
 91
        4
 64
     7
 65
   257
 75
     1
175
     1
 42
1.0
 92
        0
 66
   257
 43
1.0
 76
     1
 77
     6
 78
     2
 67
     7
 79
     5
170
     0
171
     0
290
     0
174
     0
 93
       13
 44
0.0
173
     0
291
     1
 45
0.0
1001
ACAD
1000
AcDbSavedByObjectVersion
1070
     0
  0
VISUALSTYLE
  5
38
102
{ACAD_REACTORS
330
2A
102
}
330
2A
100
AcDbVisualStyle
  2
Linepattern
 70
    14
 71
     2
 72
     2
 73
     0
 90
        0
 40
-0.6
 41
-30.0
 62
     5
 63
     7
 74
     1
 91
        4
 64
     7
 65
   257
 75
     7
175
     7
 42
1.0
 92
        8
 66
     7
 43
1.0
 76
     1
 77
     6
 78
     2
 67
     7
 79
     5
170
     0
171
     0
290
     0
174
     0
 93
        1
 44
0.0
173
     0
291
     1
 45
0.0
1001
ACAD
1000
AcDbSavedByObjectVersion
1070
     0
  0
VISUALSTYLE
  5
33
102
{ACAD_REACTORS
330
2A
102
}
330
2A
100
AcDbVisualStyle
  2
Realistic
 70
     8
 71
     2
 72
     2
 73
     0
 90
        0
 40
-0.6
 41
-30.0
 62
     5
 63
     7
 74
     1
 91
        0
 64
     7
 65
   257
 75
     1
175
     1
 42
1.0
 92
        8
 66
     8
 43
1.0
 76
     1
 77
     6
 78
     2
 67
     7
 79
     5
170
     0
171
     0
290
     0
174
     0
 93
       13
 44
0.0
173
     0
291
     0
 45
0.0
1001
ACAD
1000
AcDbSavedByObjectVersion
1070
     0
  0
VISUALSTYLE
  5
37
102
{ACAD_REACTORS
330
2A
102
}
330
2A
100
AcDbVisualStyle
  2
Thicken
 70
    13
 71
     2
 72
     2
 73
     0
 90
        0
 40
-0.6
 41
-30.0
 62
     5
 63
     7
 74
     1
 91
        4
 64
     7
 65
   257
 75
     1
175
     1
 42
1.0
 92
       12
 66
     7
 43
1.0
 76
     1
 77
     6
 78
     2
 67
     7
 79
     5
170
     0
171
     0
290
     0
174
     0
 93
        1
 44
0.0
173
     0
291
     1
 45
0.0
1001
ACAD
1000
AcDbSavedByObjectVersion
1070
     0
  0
DICTIONARYVAR
  5
203
102
{ACAD_REACTORS
330
201
102
}
330
201
100
DictionaryVariables
280
     0
  1
80.000000
  0
DICTIONARYVAR
  5
202
102
{ACAD_REACTORS
330
201
102
}
330
201
100
DictionaryVariables
280
     0
  1
5.000000
  0
ENDSEC
  0
EOF
