  0
SECTION
  2
HEADER
  9
$ACADVER
  1
AC1015
  9
$ACADMAINTVER
 70
     6
  9
$DWGCODEPAGE
  3
ANSI_1252
  9
$INSBASE
 10
0.0
 20
0.0
 30
0.0
  9
$EXTMIN
 10
0.0
 20
0.0
 30
0.0
  9
$EXTMAX
 10
297.0
 20
210.0
 30
0.0
  9
$LIMMIN
 10
0.0
 20
0.0
  9
$LIMMAX
 10
297.0
 20
210.0
  9
$ORTHOMODE
 70
     0
  9
$REGENMODE
 70
     1
  9
$FILLMODE
 70
     1
  9
$QTEXTMODE
 70
     0
  9
$MIRRTEXT
 70
     1
  9
$LTSCALE
 40
1.0
  9
$ATTMODE
 70
     1
  9
$TEXTSIZE
 40
2.0
  9
$TRACEWID
 40
1.0
  9
$TEXTSTYLE
  7
Standard
  9
$CLAYER
  8
0
  9
$CELTYPE
  6
ByLayer
  9
$CECOLOR
 62
   256
  9
$CELTSCALE
 40
1.0
  9
$DISPSILH
 70
     0
  9
$DIMSCALE
 40
1.0
  9
$DIMASZ
 40
3.0
  9
$DIMEXO
 40
0.0
  9
$DIMDLI
 40
3.75
  9
$DIMRND
 40
0.0
  9
$DIMDLE
 40
0.0
  9
$DIMEXE
 40
1.0
  9
$DIMTP
 40
0.0
  9
$DIMTM
 40
0.0
  9
$DIMTXT
 40
2.0
  9
$DIMCEN
 40
2.5
  9
$DIMTSZ
 40
0.0
  9
$DIMTOL
 70
     0
  9
$DIMLIM
 70
     0
  9
$DIMTIH
 70
     1
  9
$DIMTOH
 70
     1
  9
$DIMSE1
 70
     0
  9
$DIMSE2
 70
     0
  9
$DIMTAD
 70
     1
  9
$DIMZIN
 70
     0
  9
$DIMBLK
  1

  9
$DIMASO
 70
     1
  9
$DIMSHO
 70
     1
  9
$DIMPOST
  1

  9
$DIMAPOST
  1

  9
$DIMALT
 70
     0
  9
$DIMALTD
 70
     3
  9
$DIMALTF
 40
0.0393700787
  9
$DIMLFAC
 40
1.0
  9
$DIMTOFL
 70
     1
  9
$DIMTVP
 40
0.0
  9
$DIMTIX
 70
     0
  9
$DIMSOXD
 70
     0
  9
$DIMSAH
 70
     0
  9
$DIMBLK1
  1

  9
$DIMBLK2
  1

  9
$DIMSTYLE
  2
ISO-25
  9
$DIMCLRD
 70
     0
  9
$DIMCLRE
 70
     0
  9
$DIMCLRT
 70
     0
  9
$DIMTFAC
 40
1.0
  9
$DIMGAP
 40
1.524
  9
$DIMJUST
 70
     0
  9
$DIMSD1
 70
     0
  9
$DIMSD2
 70
     0
  9
$DIMTOLJ
 70
     0
  9
$DIMTZIN
 70
     0
  9
$DIMALTZ
 70
     0
  9
$DIMALTTZ
 70
     0
  9
$DIMUPT
 70
     0
  9
$DIMDEC
 70
     2
  9
$DIMTDEC
 70
     3
  9
$DIMALTU
 70
     2
  9
$DIMALTTD
 70
     3
  9
$DIMTXSTY
  7
Standard
  9
$DIMAUNIT
 70
     0
  9
$DIMADEC
 70
     2
  9
$DIMALTRND
 40
0.0
  9
$DIMAZIN
 70
     0
  9
$DIMDSEP
 70
    44
  9
$DIMATFIT
 70
     3
  9
$DIMFRAC
 70
     0
  9
$DIMLDRBLK
  1

  9
$DIMLUNIT
 70
     2
  9
$DIMLWD
 70
    -2
  9
$DIMLWE
 70
    -2
  9
$DIMTMOVE
 70
     0
  9
$LUNITS
 70
     2
  9
$LUPREC
 70
     2
  9
$SKETCHINC
 40
1.0
  9
$FILLETRAD
 40
10.0
  9
$AUNITS
 70
     0
  9
$AUPREC
 70
     2
  9
$MENU
  1
.
  9
$ELEVATION
 40
0.0
  9
$PELEVATION
 40
0.0
  9
$THICKNESS
 40
0.0
  9
$LIMCHECK
 70
     0
  9
$CHAMFERA
 40
10.0
  9
$CHAMFERB
 40
10.0
  9
$CHAMFERC
 40
20.0
  9
$CHAMFERD
 40
0.0
  9
$SKPOLY
 70
     0
  9
$TDCREATE
 40
2455684.442039364
  9
$TDUCREATE
 40
2455684.35870603
  9
$TDUPDATE
 40
2455684.442039375
  9
$TDUUPDATE
 40
2455684.358706042
  9
$TDINDWG
 40
0.0000000116
  9
$TDUSRTIMER
 40
0.0000000116
  9
$USRTIMER
 70
     1
  9
$ANGBASE
 50
0.0
  9
$ANGDIR
 70
     0
  9
$PDMODE
 70
     0
  9
$PDSIZE
 40
-1.0
  9
$PLINEWID
 40
0.0
  9
$SPLFRAME
 70
     0
  9
$SPLINETYPE
 70
     6
  9
$SPLINESEGS
 70
     8
  9
$HANDSEED
  5
20B
  9
$SURFTAB1
 70
     6
  9
$SURFTAB2
 70
     6
  9
$SURFTYPE
 70
     6
  9
$SURFU
 70
     6
  9
$SURFV
 70
     6
  9
$UCSBASE
  2

  9
$UCSNAME
  2

  9
$UCSORG
 10
0.0
 20
0.0
 30
0.0
  9
$UCSXDIR
 10
1.0
 20
0.0
 30
0.0
  9
$UCSYDIR
 10
0.0
 20
1.0
 30
0.0
  9
$UCSORTHOREF
  2

  9
$UCSORTHOVIEW
 70
     0
  9
$UCSORGTOP
 10
0.0
 20
0.0
 30
0.0
  9
$UCSORGBOTTOM
 10
0.0
 20
0.0
 30
0.0
  9
$UCSORGLEFT
 10
0.0
 20
0.0
 30
0.0
  9
$UCSORGRIGHT
 10
0.0
 20
0.0
 30
0.0
  9
$UCSORGFRONT
 10
0.0
 20
0.0
 30
0.0
  9
$UCSORGBACK
 10
0.0
 20
0.0
 30
0.0
  9
$PUCSBASE
  2

  9
$PUCSNAME
  2

  9
$PUCSORG
 10
0.0
 20
0.0
 30
0.0
  9
$PUCSXDIR
 10
1.0
 20
0.0
 30
0.0
  9
$PUCSYDIR
 10
0.0
 20
1.0
 30
0.0
  9
$PUCSORTHOREF
  2

  9
$PUCSORTHOVIEW
 70
     0
  9
$PUCSORGTOP
 10
0.0
 20
0.0
 30
0.0
  9
$PUCSORGBOTTOM
 10
0.0
 20
0.0
 30
0.0
  9
$PUCSORGLEFT
 10
0.0
 20
0.0
 30
0.0
  9
$PUCSORGRIGHT
 10
0.0
 20
0.0
 30
0.0
  9
$PUCSORGFRONT
 10
0.0
 20
0.0
 30
0.0
  9
$PUCSORGBACK
 10
0.0
 20
0.0
 30
0.0
  9
$USERI1
 70
     0
  9
$USERI2
 70
     0
  9
$USERI3
 70
     0
  9
$USERI4
 70
     0
  9
$USERI5
 70
     0
  9
$USERR1
 40
0.0
  9
$USERR2
 40
0.0
  9
$USERR3
 40
0.0
  9
$USERR4
 40
0.0
  9
$USERR5
 40
0.0
  9
$WORLDVIEW
 70
     1
  9
$SHADEDGE
 70
     3
  9
$SHADEDIF
 70
    70
  9
$TILEMODE
 70
     1
  9
$MAXACTVP
 70
    64
  9
$PINSBASE
 10
0.0
 20
0.0
 30
0.0
  9
$PLIMCHECK
 70
     0
  9
$PEXTMIN
 10
1.0000000000E+20
 20
1.0000000000E+20
 30
1.0000000000E+20
  9
$PEXTMAX
 10
-1.0000000000E+20
 20
-1.0000000000E+20
 30
-1.0000000000E+20
  9
$PLIMMIN
 10
0.0
 20
0.0
  9
$PLIMMAX
 10
420.0
 20
297.0
  9
$UNITMODE
 70
     0
  9
$VISRETAIN
 70
     1
  9
$PLINEGEN
 70
     0
  9
$PSLTSCALE
 70
     1
  9
$TREEDEPTH
 70
  3020
  9
$CMLSTYLE
  2
Standard
  9
$CMLJUST
 70
     0
  9
$CMLSCALE
 40
20.0
  9
$PROXYGRAPHICS
 70
     1
  9
$MEASUREMENT
 70
     1
  9
$CELWEIGHT
370
    -1
  9
$ENDCAPS
280
     0
  9
$JOINSTYLE
280
     0
  9
$LWDISPLAY
290
     1
  9
$INSUNITS
 70
     4
  9
$HYPERLINKBASE
  1

  9
$STYLESHEET
  1

  9
$XEDIT
290
     1
  9
$CEPSNTYPE
380
     0
  9
$PSTYLEMODE
290
     1
  9
$FINGERPRINTGUID
  2
{0A598488-7A1D-43D6-9332-5822530FFA4F}
  9
$VERSIONGUID
  2
{FAEB1C32-E019-11D5-929B-00C0DF256EC4}
  9
$EXTNAMES
290
     1
  9
$PSVPSCALE
 40
0.0
  9
$OLESTARTUP
290
     0
  0
ENDSEC
  0
SECTION
  2
CLASSES
  0
CLASS
  1
ACDBDICTIONARYWDFLT
  2
AcDbDictionaryWithDefault
  3
ObjectDBX Classes
 90
        0
280
     0
281
     0
  0
CLASS
  1
VISUALSTYLE
  2
AcDbVisualStyle
  3
ObjectDBX Classes
 90
     4095
280
     0
281
     0
  0
CLASS
  1
DICTIONARYVAR
  2
AcDbDictionaryVar
  3
ObjectDBX Classes
 90
        0
280
     0
281
     0
  0
CLASS
  1
ACDBPLACEHOLDER
  2
AcDbPlaceHolder
  3
ObjectDBX Classes
 90
        0
280
     0
281
     0
  0
CLASS
  1
LAYOUT
  2
AcDbLayout
  3
ObjectDBX Classes
 90
        0
280
     0
281
     0
  0
ENDSEC
  0
SECTION
  2
TABLES
  0
TABLE
  2
VPORT
  5
8
330
0
100
AcDbSymbolTable
 70
     1
  0
VPORT
  5
29
330
8
100
AcDbSymbolTableRecord
100
AcDbViewportTableRecord
  2
*Active
 70
     0
 10
0.0
 20
0.0
 11
1.0
 21
1.0
 12
148.5
 22
105.0
 13
0.0
 23
0.0
 14
10.0
 24
10.0
 15
10.0
 25
10.0
 16
0.0
 26
0.0
 36
1.0
 17
0.0
 27
0.0
 37
0.0
 40
210.0
 41
1.4142857143
 42
50.0
 43
0.0
 44
0.0
 50
0.0
 51
0.0
 71
     0
 72
  2000
 73
     1
 74
     3
 75
     0
 76
     0
 77
     0
 78
     0
281
     0
 65
     1
110
0.0
120
0.0
130
0.0
111
1.0
121
0.0
131
0.0
112
0.0
122
1.0
132
0.0
 79
     0
146
0.0
  0
ENDTAB
  0
TABLE
  2
LTYPE
  5
5
330
0
100
AcDbSymbolTable
 70
     6
  0
LTYPE
  5
14
330
5
100
AcDbSymbolTableRecord
100
AcDbLinetypeTableRecord
  2
ByBlock
 70
     0
  3

 72
    65
 73
     0
 40
0.0
  0
LTYPE
  5
15
330
5
100
AcDbSymbolTableRecord
100
AcDbLinetypeTableRecord
  2
ByLayer
 70
     0
  3

 72
    65
 73
     0
 40
0.0
  0
LTYPE
  5
16
330
5
100
AcDbSymbolTableRecord
100
AcDbLinetypeTableRecord
  2
Continuous
 70
     0
  3
Solid line
 72
    65
 73
     0
 40
0.0
  0
LTYPE
  5
3B
330
5
100
AcDbSymbolTableRecord
100
AcDbLinetypeTableRecord
  2
HIDDEN
 70
     0
  3
Hidden __ __ __ __ __ __ __ __ __ __ __ __ __ __
 72
    65
 73
     2
 40
1.905
 49
1.27
 74
     0
 49
-0.635
 74
     0
  0
LTYPE
  5
3C
330
5
100
AcDbSymbolTableRecord
100
AcDbLinetypeTableRecord
  2
PHANTOM
 70
     0
  3
Phantom ______  __  __  ______  __  __  ______
 72
    65
 73
     6
 40
12.7
 49
6.35
 74
     0
 49
-1.27
 74
     0
 49
1.27
 74
     0
 49
-1.27
 74
     0
 49
1.27
 74
     0
 49
-1.27
 74
     0
  0
LTYPE
  5
3D
330
5
100
AcDbSymbolTableRecord
100
AcDbLinetypeTableRecord
  2
CENTER
 70
     0
  3
Center ____ _ ____ _ ____ _ ____ _ ____ _ ____
 72
    65
 73
     4
 40
10.16
 49
6.35
 74
     0
 49
-1.27
 74
     0
 49
1.27
 74
     0
 49
-1.27
 74
     0
  0
LTYPE
  5
3E
330
5
100
AcDbSymbolTableRecord
100
AcDbLinetypeTableRecord
  2
CENTERX2
 70
     0
  3
Center (2x) ________  __  ________  __  _____
 72
    65
 73
     4
 40
20.32
 49
12.7
 74
     0
 49
-2.54
 74
     0
 49
2.54
 74
     0
 49
-2.54
 74
     0
  0
LTYPE
  5
3F
330
5
100
AcDbSymbolTableRecord
100
AcDbLinetypeTableRecord
  2
DOT2
 70
     0
  3
Dot (.5x) ........................................
 72
    65
 73
     2
 40
0.635
 49
0.0
 74
     0
 49
-0.635
 74
     0
  0
ENDTAB
  0
TABLE
  2
LAYER
  5
2
330
0
100
AcDbSymbolTable
 70
     5
  0
LAYER
  5
10
330
2
100
AcDbSymbolTableRecord
100
AcDbLayerTableRecord
  2
0
 70
     0
 62
     7
  6
Continuous
370
    -3
390
F
  0
LAYER
  5
40
330
2
100
AcDbSymbolTableRecord
100
AcDbLayerTableRecord
  2
FORMAT
 70
     0
 62
     7
  6
Continuous
370
    -3
390
F
  0
LAYER
  5
41
330
2
100
AcDbSymbolTableRecord
100
AcDbLayerTableRecord
  2
VERMASSUNG
 70
     0
 62
     7
  6
Continuous
370
    -3
390
F
  0
LAYER
  5
42
330
2
100
AcDbSymbolTableRecord
100
AcDbLayerTableRecord
  2
KOPF_DÜNN
 70
     0
 62
     7
  6
Continuous
370
    -3
390
F
  0
LAYER
  5
43
330
2
100
AcDbSymbolTableRecord
100
AcDbLayerTableRecord
  2
KOPF_DICK
 70
     0
 62
     7
  6
Continuous
370
    15
390
F
  0
ENDTAB
  0
TABLE
  2
STYLE
  5
3
330
0
100
AcDbSymbolTable
 70
     3
  0
STYLE
  5
11
330
3
100
AcDbSymbolTableRecord
100
AcDbTextStyleTableRecord
  2
Standard
 70
     0
 40
0.0
 41
1.0
 50
0.0
 71
     0
 42
2.5
  3
txt
  4

  0
STYLE
  5
44
330
3
100
AcDbSymbolTableRecord
100
AcDbTextStyleTableRecord
  2
SLDTEXTSTYLE0
 70
     0
 40
0.0
 41
0.7
 50
0.0
 71
     0
 42
0.2
  3
TXT
  4

  0
STYLE
  5
48
330
3
100
AcDbSymbolTableRecord
100
AcDbTextStyleTableRecord
  2
SLDTEXTSTYLE1
 70
     0
 40
0.0
 41
0.65
 50
0.0
 71
     0
 42
0.2
  3
TXT
  4

  0
ENDTAB
  0
TABLE
  2
VIEW
  5
6
330
0
100
AcDbSymbolTable
 70
     0
  0
ENDTAB
  0
TABLE
  2
UCS
  5
7
330
0
100
AcDbSymbolTable
 70
     0
  0
ENDTAB
  0
TABLE
  2
APPID
  5
9
330
0
100
AcDbSymbolTable
 70
     1
  0
APPID
  5
12
330
9
100
AcDbSymbolTableRecord
100
AcDbRegAppTableRecord
  2
ACAD
 70
     0
  0
ENDTAB
  0
TABLE
  2
DIMSTYLE
  5
A
330
0
100
AcDbSymbolTable
 70
     5
100
AcDbDimStyleTable
  0
DIMSTYLE
105
27
330
A
100
AcDbSymbolTableRecord
100
AcDbDimStyleTableRecord
  2
ISO-25
 70
     0
 41
2.5
 42
0.625
 43
3.75
 44
1.25
 73
     0
 74
     0
 77
     1
 78
     8
140
2.5
141
2.5
143
0.0393700787
147
0.625
171
     3
172
     1
271
     2
272
     2
274
     3
278
    44
283
     0
284
     8
340
11
  0
DIMSTYLE
105
1AA
102
{ACAD_REACTORS
330
1A9
330
1DB
330
1E5
330
1EF
330
1F9
102
}
330
A
100
AcDbSymbolTableRecord
100
AcDbDimStyleTableRecord
  2
SLDDIMSTYLE0
 70
     0
 41
3.0
 44
0.0
 45
0.000000001
 73
     0
 74
     0
 77
     1
 78
    12
140
2.0
147
0.5
173
     1
271
     2
272
     3
284
    12
340
44
  0
DIMSTYLE
105
1B7
102
{ACAD_REACTORS
330
1B6
102
}
330
A
100
AcDbSymbolTableRecord
100
AcDbDimStyleTableRecord
  2
SLDDIMSTYLE1
 70
     0
 41
3.0
 44
0.0
 45
0.000000001
 73
     0
 74
     0
 77
     1
 78
    12
140
2.0
147
0.5
173
     1
271
     2
272
     2
284
    12
340
44
  0
DIMSTYLE
105
1C2
102
{ACAD_REACTORS
330
1C1
102
}
330
A
100
AcDbSymbolTableRecord
100
AcDbDimStyleTableRecord
  2
SLDDIMSTYLE2
 70
     0
 41
3.0
 44
0.0
 45
0.000000001
 73
     0
 74
     0
 77
     1
 78
    12
140
2.0
147
0.5
173
     1
271
     2
272
     2
284
    12
340
44
  0
DIMSTYLE
105
1D0
102
{ACAD_REACTORS
330
1CF
102
}
330
A
100
AcDbSymbolTableRecord
100
AcDbDimStyleTableRecord
  2
SLDDIMSTYLE3
 70
     0
 41
3.0
 44
0.0
 45
0.000000001
 73
     0
 74
     0
 77
     1
 78
    12
140
2.0
147
0.5
173
     1
271
     2
272
     3
284
    12
340
44
  0
ENDTAB
  0
TABLE
  2
BLOCK_RECORD
  5
1
330
0
100
AcDbSymbolTable
 70
     9
  0
BLOCK_RECORD
  5
1F
330
1
100
AcDbSymbolTableRecord
100
AcDbBlockTableRecord
  2
*Model_Space
340
22
  0
BLOCK_RECORD
  5
1B
330
1
100
AcDbSymbolTableRecord
100
AcDbBlockTableRecord
  2
*Paper_Space
340
1E
  0
BLOCK_RECORD
  5
23
330
1
100
AcDbSymbolTableRecord
100
AcDbBlockTableRecord
  2
*Paper_Space0
340
26
  0
BLOCK_RECORD
  5
1AB
330
1
100
AcDbSymbolTableRecord
100
AcDbBlockTableRecord
  2
*D1
340
0
  0
BLOCK_RECORD
  5
1B8
330
1
100
AcDbSymbolTableRecord
100
AcDbBlockTableRecord
  2
*D2
340
0
  0
BLOCK_RECORD
  5
1C3
330
1
100
AcDbSymbolTableRecord
100
AcDbBlockTableRecord
  2
*D3
340
0
  0
BLOCK_RECORD
  5
1D1
330
1
100
AcDbSymbolTableRecord
100
AcDbBlockTableRecord
  2
*D4
340
0
  0
BLOCK_RECORD
  5
1DC
330
1
100
AcDbSymbolTableRecord
100
AcDbBlockTableRecord
  2
*D5
340
0
  0
BLOCK_RECORD
  5
1E6
330
1
100
AcDbSymbolTableRecord
100
AcDbBlockTableRecord
  2
*D6
340
0
  0
BLOCK_RECORD
  5
1F0
330
1
100
AcDbSymbolTableRecord
100
AcDbBlockTableRecord
  2
*D7
340
0
  0
BLOCK_RECORD
  5
1FA
330
1
100
AcDbSymbolTableRecord
100
AcDbBlockTableRecord
  2
*D8
340
0
  0
ENDTAB
  0
ENDSEC
  0
SECTION
  2
BLOCKS
  0
BLOCK
  5
20
330
1F
100
AcDbEntity
  8
0
100
AcDbBlockBegin
  2
*Model_Space
 70
     0
 10
0.0
 20
0.0
 30
0.0
  3
*Model_Space
  1

  0
ENDBLK
  5
21
330
1F
100
AcDbEntity
  8
0
100
AcDbBlockEnd
  0
BLOCK
  5
1C
330
1B
100
AcDbEntity
 67
     1
  8
0
100
AcDbBlockBegin
  2
*Paper_Space
 70
     0
 10
0.0
 20
0.0
 30
0.0
  3
*Paper_Space
  1

  0
ENDBLK
  5
1D
330
1B
100
AcDbEntity
 67
     1
  8
0
100
AcDbBlockEnd
  0
BLOCK
  5
24
330
23
100
AcDbEntity
  8
0
100
AcDbBlockBegin
  2
*Paper_Space0
 70
     0
 10
0.0
 20
0.0
 30
0.0
  3
*Paper_Space0
  1

  0
ENDBLK
  5
25
330
23
100
AcDbEntity
  8
0
100
AcDbBlockEnd
  0
BLOCK
  5
1AC
330
1AB
100
AcDbEntity
  8
0
100
AcDbBlockBegin
  2
*D1
 70
     1
 10
0.0
 20
0.0
 30
0.0
  3
*D1
  1

  0
SOLID
  5
1AE
330
1AB
100
AcDbEntity
  8
VERMASSUNG
100
AcDbTrace
 10
68.4360780065
 20
158.3650054171
 30
0.0
 11
67.9860780065
 21
155.3650054171
 31
0.0
 12
68.8860780065
 22
155.3650054171
 32
0.0
 13
68.8860780065
 23
155.3650054171
 33
0.0
  0
SOLID
  5
1AF
330
1AB
100
AcDbEntity
  8
VERMASSUNG
100
AcDbTrace
 10
68.4360780065
 20
58.3650054171
 30
0.0
 11
68.8860780065
 21
61.3650054171
 31
0.0
 12
67.9860780065
 22
61.3650054171
 32
0.0
 13
67.9860780065
 23
61.3650054171
 33
0.0
  0
LINE
  5
1B0
330
1AB
100
AcDbEntity
  8
VERMASSUNG
100
AcDbLine
 10
125.9614032491
 20
158.3650054171
 30
0.0
 11
67.4360780065
 21
158.3650054171
 31
0.0
  0
LINE
  5
1B1
330
1AB
100
AcDbEntity
  8
VERMASSUNG
100
AcDbLine
 10
125.9614032491
 20
58.3650054171
 30
0.0
 11
67.4360780065
 21
58.3650054171
 31
0.0
  0
LINE
  5
1B2
330
1AB
100
AcDbEntity
  8
VERMASSUNG
100
AcDbLine
 10
68.4360780065
 20
158.3650054171
 30
0.0
 11
68.4360780065
 21
58.3650054171
 31
0.0
  0
MTEXT
  5
1B3
330
1AB
100
AcDbEntity
  8
VERMASSUNG
100
AcDbMText
 10
65.6579425175
 20
100.1613542795
 30
0.0
 40
2.0
 41
0.0
 71
     1
 72
     1
  1
HSK A 
  7
SLDTEXTSTYLE0
 11
-7.044195017643634E-15
 21
1.0
 31
0.0
 73
     1
 44
1.0
  0
MTEXT
  5
1B4
330
1AB
100
AcDbEntity
  8
VERMASSUNG
100
AcDbMText
 10
65.857942527
 20
109.1613548234
 30
0.0
 40
2.0
 41
0.0
 71
     1
 72
     1
  1
%%c
  7
SLDTEXTSTYLE0
 11
-7.044195017643634E-15
 21
1.0
 31
0.0
 73
     1
 44
1.0
  0
MTEXT
  5
1B5
330
1AB
100
AcDbEntity
  8
VERMASSUNG
100
AcDbMText
 10
65.8579426434
 20
112.7696814735
 30
0.0
 40
2.0
 41
0.0
 71
     1
 72
     1
  1
100
  7
SLDTEXTSTYLE0
 11
-7.044195017643634E-15
 21
1.0
 31
0.0
 73
     1
 44
1.0
  0
ENDBLK
  5
1AD
330
1AB
100
AcDbEntity
  8
0
100
AcDbBlockEnd
  0
BLOCK
  5
1B9
330
1B8
100
AcDbEntity
  8
0
100
AcDbBlockBegin
  2
*D2
 70
     1
 10
0.0
 20
0.0
 30
0.0
  3
*D2
  1

  0
SOLID
  5
1BB
330
1B8
100
AcDbEntity
  8
VERMASSUNG
100
AcDbTrace
 10
173.9614032491
 20
156.4033586132
 30
0.0
 11
176.9614032491
 21
155.9533586132
 31
0.0
 12
176.9614032491
 22
156.8533586132
 32
0.0
 13
176.9614032491
 23
156.8533586132
 33
0.0
  0
SOLID
  5
1BC
330
1B8
100
AcDbEntity
  8
VERMASSUNG
100
AcDbTrace
 10
210.4614032491
 20
156.4033586132
 30
0.0
 11
207.4614032491
 21
156.8533586132
 31
0.0
 12
207.4614032491
 22
155.9533586132
 32
0.0
 13
207.4614032491
 23
155.9533586132
 33
0.0
  0
LINE
  5
1BD
330
1B8
100
AcDbEntity
  8
VERMASSUNG
100
AcDbLine
 10
173.9614032491
 20
111.2650054171
 30
0.0
 11
173.9614032491
 21
157.4033586132
 31
0.0
  0
LINE
  5
1BE
330
1B8
100
AcDbEntity
  8
VERMASSUNG
100
AcDbLine
 10
210.4614032491
 20
117.0162244338
 30
0.0
 11
210.4614032491
 21
157.4033586132
 31
0.0
  0
LINE
  5
1BF
330
1B8
100
AcDbEntity
  8
VERMASSUNG
100
AcDbLine
 10
173.9614032491
 20
156.4033586132
 30
0.0
 11
210.4614032491
 21
156.4033586132
 31
0.0
  0
MTEXT
  5
1C0
330
1B8
100
AcDbEntity
  8
VERMASSUNG
100
AcDbMText
 10
189.8118062827
 20
158.9814939763
 30
0.0
 40
2.0
 41
0.0
 71
     1
 72
     1
  1
36.5
  7
SLDTEXTSTYLE0
 73
     1
 44
1.0
  0
ENDBLK
  5
1BA
330
1B8
100
AcDbEntity
  8
0
100
AcDbBlockEnd
  0
BLOCK
  5
1C4
330
1C3
100
AcDbEntity
  8
0
100
AcDbBlockBegin
  2
*D3
 70
     1
 10
0.0
 20
0.0
 30
0.0
  3
*D3
  1

  0
SOLID
  5
1C6
330
1C3
100
AcDbEntity
  8
VERMASSUNG
100
AcDbTrace
 10
218.1884073673
 20
105.3650054171
 30
0.0
 11
217.7384073673
 21
102.3650054171
 31
0.0
 12
218.6384073673
 22
102.3650054171
 32
0.0
 13
218.6384073673
 23
102.3650054171
 33
0.0
  0
SOLID
  5
1C7
330
1C3
100
AcDbEntity
  8
VERMASSUNG
100
AcDbTrace
 10
218.1884073673
 20
111.3650054171
 30
0.0
 11
218.6384073673
 21
114.3650054171
 31
0.0
 12
217.7384073673
 22
114.3650054171
 32
0.0
 13
217.7384073673
 23
114.3650054171
 33
0.0
  0
LINE
  5
1C8
330
1C3
100
AcDbEntity
  8
VERMASSUNG
100
AcDbLine
 10
206.9614032491
 20
105.3650054171
 30
0.0
 11
219.1884073673
 21
105.3650054171
 31
0.0
  0
LINE
  5
1C9
330
1C3
100
AcDbEntity
  8
VERMASSUNG
100
AcDbLine
 10
206.9614032491
 20
111.3650054171
 30
0.0
 11
219.1884073673
 21
111.3650054171
 31
0.0
  0
LINE
  5
1CA
330
1C3
100
AcDbEntity
  8
VERMASSUNG
100
AcDbLine
 10
218.1884073673
 20
105.3650054171
 30
0.0
 11
218.1884073673
 21
99.3650054171
 31
0.0
  0
LINE
  5
1CB
330
1C3
100
AcDbEntity
  8
VERMASSUNG
100
AcDbLine
 10
218.1884073673
 20
105.3650054171
 30
0.0
 11
218.1884073673
 21
111.3650054171
 31
0.0
  0
LINE
  5
1CC
330
1C3
100
AcDbEntity
  8
VERMASSUNG
100
AcDbLine
 10
218.1884073673
 20
111.3650054171
 30
0.0
 11
218.1884073673
 21
117.3650054171
 31
0.0
  0
MTEXT
  5
1CD
330
1C3
100
AcDbEntity
  8
VERMASSUNG
100
AcDbMText
 10
215.6102718877
 20
105.8609772481
 30
0.0
 40
2.0
 41
0.0
 71
     1
 72
     1
  1
%%c
  7
SLDTEXTSTYLE0
 11
6.123233995736766E-17
 21
1.0
 31
0.0
 73
     1
 44
1.0
  0
MTEXT
  5
1CE
330
1C3
100
AcDbEntity
  8
VERMASSUNG
100
AcDbMText
 10
215.6102720042
 20
109.4696554713
 30
0.0
 40
2.0
 41
0.0
 71
     1
 72
     1
  1
6
  7
SLDTEXTSTYLE0
 11
6.123233995736766E-17
 21
1.0
 31
0.0
 73
     1
 44
1.0
  0
ENDBLK
  5
1C5
330
1C3
100
AcDbEntity
  8
0
100
AcDbBlockEnd
  0
BLOCK
  5
1D2
330
1D1
100
AcDbEntity
  8
0
100
AcDbBlockBegin
  2
*D4
 70
     1
 10
0.0
 20
0.0
 30
0.0
  3
*D4
  1

  0
SOLID
  5
1D4
330
1D1
100
AcDbEntity
  8
VERMASSUNG
100
AcDbTrace
 10
224.1884073673
 20
97.8650054171
 30
0.0
 11
224.6384073673
 21
100.8650054171
 31
0.0
 12
223.7384073673
 22
100.8650054171
 32
0.0
 13
223.7384073673
 23
100.8650054171
 33
0.0
  0
SOLID
  5
1D5
330
1D1
100
AcDbEntity
  8
VERMASSUNG
100
AcDbTrace
 10
224.1884073673
 20
118.8650054171
 30
0.0
 11
223.7384073673
 21
115.8650054171
 31
0.0
 12
224.6384073673
 22
115.8650054171
 32
0.0
 13
224.6384073673
 23
115.8650054171
 33
0.0
  0
LINE
  5
1D6
330
1D1
100
AcDbEntity
  8
VERMASSUNG
100
AcDbLine
 10
210.4614032491
 20
97.8650054171
 30
0.0
 11
225.1884073673
 21
97.8650054171
 31
0.0
  0
LINE
  5
1D7
330
1D1
100
AcDbEntity
  8
VERMASSUNG
100
AcDbLine
 10
210.4614032491
 20
118.8650054171
 30
0.0
 11
225.1884073673
 21
118.8650054171
 31
0.0
  0
LINE
  5
1D8
330
1D1
100
AcDbEntity
  8
VERMASSUNG
100
AcDbLine
 10
224.1884073673
 20
97.8650054171
 30
0.0
 11
224.1884073673
 21
118.8650054171
 31
0.0
  0
MTEXT
  5
1D9
330
1D1
100
AcDbEntity
  8
VERMASSUNG
100
AcDbMText
 10
221.6102718877
 20
105.3608678223
 30
0.0
 40
2.0
 41
0.0
 71
     1
 72
     1
  1
%%c
  7
SLDTEXTSTYLE0
 11
6.123233995736766E-17
 21
1.0
 31
0.0
 73
     1
 44
1.0
  0
MTEXT
  5
1DA
330
1D1
100
AcDbEntity
  8
VERMASSUNG
100
AcDbMText
 10
221.6102720042
 20
108.9695460455
 30
0.0
 40
2.0
 41
0.0
 71
     1
 72
     1
  1
21
  7
SLDTEXTSTYLE0
 11
6.123233995736766E-17
 21
1.0
 31
0.0
 73
     1
 44
1.0
  0
ENDBLK
  5
1D3
330
1D1
100
AcDbEntity
  8
0
100
AcDbBlockEnd
  0
BLOCK
  5
1DD
330
1DC
100
AcDbEntity
  8
0
100
AcDbBlockBegin
  2
*D5
 70
     1
 10
0.0
 20
0.0
 30
0.0
  3
*D5
  1

  0
SOLID
  5
1DF
330
1DC
100
AcDbEntity
  8
VERMASSUNG
100
AcDbTrace
 10
125.4614032491
 20
168.4033586132
 30
0.0
 11
128.4614032491
 21
167.9533586132
 31
0.0
 12
128.4614032491
 22
168.8533586132
 32
0.0
 13
128.4614032491
 23
168.8533586132
 33
0.0
  0
SOLID
  5
1E0
330
1DC
100
AcDbEntity
  8
VERMASSUNG
100
AcDbTrace
 10
210.4614032491
 20
168.4033586132
 30
0.0
 11
207.4614032491
 21
168.8533586132
 31
0.0
 12
207.4614032491
 22
167.9533586132
 32
0.0
 13
207.4614032491
 23
167.9533586132
 33
0.0
  0
LINE
  5
1E1
330
1DC
100
AcDbEntity
  8
VERMASSUNG
100
AcDbLine
 10
125.4614032491
 20
157.8650054171
 30
0.0
 11
125.4614032491
 21
169.4033586132
 31
0.0
  0
LINE
  5
1E2
330
1DC
100
AcDbEntity
  8
VERMASSUNG
100
AcDbLine
 10
210.4614032491
 20
117.0162244338
 30
0.0
 11
210.4614032491
 21
169.4033586132
 31
0.0
  0
LINE
  5
1E3
330
1DC
100
AcDbEntity
  8
VERMASSUNG
100
AcDbLine
 10
125.4614032491
 20
168.4033586132
 30
0.0
 11
210.4614032491
 21
168.4033586132
 31
0.0
  0
MTEXT
  5
1E4
330
1DC
100
AcDbEntity
  8
VERMASSUNG
100
AcDbMText
 10
166.5620251342
 20
170.9814939763
 30
0.0
 40
2.0
 41
0.0
 71
     1
 72
     1
  1
85
  7
SLDTEXTSTYLE0
 73
     1
 44
1.0
  0
ENDBLK
  5
1DE
330
1DC
100
AcDbEntity
  8
0
100
AcDbBlockEnd
  0
BLOCK
  5
1E7
330
1E6
100
AcDbEntity
  8
0
100
AcDbBlockBegin
  2
*D6
 70
     1
 10
0.0
 20
0.0
 30
0.0
  3
*D6
  1

  0
SOLID
  5
1E9
330
1E6
100
AcDbEntity
  8
VERMASSUNG
100
AcDbTrace
 10
154.4114032491
 20
162.4033586132
 30
0.0
 11
157.4114032491
 21
161.9533586132
 31
0.0
 12
157.4114032491
 22
162.8533586132
 32
0.0
 13
157.4114032491
 23
162.8533586132
 33
0.0
  0
SOLID
  5
1EA
330
1E6
100
AcDbEntity
  8
VERMASSUNG
100
AcDbTrace
 10
210.4614032491
 20
162.4033586132
 30
0.0
 11
207.4614032491
 21
162.8533586132
 31
0.0
 12
207.4614032491
 22
161.9533586132
 32
0.0
 13
207.4614032491
 23
161.9533586132
 33
0.0
  0
LINE
  5
1EB
330
1E6
100
AcDbEntity
  8
VERMASSUNG
100
AcDbLine
 10
154.4114032491
 20
156.333745238
 30
0.0
 11
154.4114032491
 21
163.4033586132
 31
0.0
  0
LINE
  5
1EC
330
1E6
100
AcDbEntity
  8
VERMASSUNG
100
AcDbLine
 10
210.4614032491
 20
117.0162244338
 30
0.0
 11
210.4614032491
 21
163.4033586132
 31
0.0
  0
LINE
  5
1ED
330
1E6
100
AcDbEntity
  8
VERMASSUNG
100
AcDbLine
 10
154.4114032491
 20
162.4033586132
 30
0.0
 11
210.4614032491
 21
162.4033586132
 31
0.0
  0
MTEXT
  5
1EE
330
1E6
100
AcDbEntity
  8
VERMASSUNG
100
AcDbMText
 10
179.3371172252
 20
164.9814939763
 30
0.0
 40
2.0
 41
0.0
 71
     1
 72
     1
  1
56.05
  7
SLDTEXTSTYLE0
 73
     1
 44
1.0
  0
ENDBLK
  5
1E8
330
1E6
100
AcDbEntity
  8
0
100
AcDbBlockEnd
  0
BLOCK
  5
1F1
330
1F0
100
AcDbEntity
  8
0
100
AcDbBlockBegin
  2
*D7
 70
     1
 10
0.0
 20
0.0
 30
0.0
  3
*D7
  1

  0
SOLID
  5
1F3
330
1F0
100
AcDbEntity
  8
VERMASSUNG
100
AcDbTrace
 10
75.5614032491
 20
174.4033586132
 30
0.0
 11
78.5614032491
 21
173.9533586132
 31
0.0
 12
78.5614032491
 22
174.8533586132
 32
0.0
 13
78.5614032491
 23
174.8533586132
 33
0.0
  0
SOLID
  5
1F4
330
1F0
100
AcDbEntity
  8
VERMASSUNG
100
AcDbTrace
 10
210.4614032491
 20
174.4033586132
 30
0.0
 11
207.4614032491
 21
174.8533586132
 31
0.0
 12
207.4614032491
 22
173.9533586132
 32
0.0
 13
207.4614032491
 23
173.9533586132
 33
0.0
  0
LINE
  5
1F5
330
1F0
100
AcDbEntity
  8
VERMASSUNG
100
AcDbLine
 10
75.5614032491
 20
138.8676751597
 30
0.0
 11
75.5614032491
 21
175.4033586132
 31
0.0
  0
LINE
  5
1F6
330
1F0
100
AcDbEntity
  8
VERMASSUNG
100
AcDbLine
 10
210.4614032491
 20
117.0162244338
 30
0.0
 11
210.4614032491
 21
175.4033586132
 31
0.0
  0
LINE
  5
1F7
330
1F0
100
AcDbEntity
  8
VERMASSUNG
100
AcDbLine
 10
75.5614032491
 20
174.4033586132
 30
0.0
 11
210.4614032491
 21
174.4033586132
 31
0.0
  0
MTEXT
  5
1F8
330
1F0
100
AcDbEntity
  8
VERMASSUNG
100
AcDbMText
 10
140.0119070411
 20
176.9814939763
 30
0.0
 40
2.0
 41
0.0
 71
     1
 72
     1
  1
134.9
  7
SLDTEXTSTYLE0
 73
     1
 44
1.0
  0
ENDBLK
  5
1F2
330
1F0
100
AcDbEntity
  8
0
100
AcDbBlockEnd
  0
BLOCK
  5
1FB
330
1FA
100
AcDbEntity
  8
0
100
AcDbBlockBegin
  2
*D8
 70
     1
 10
0.0
 20
0.0
 30
0.0
  3
*D8
  1

  0
SOLID
  5
1FD
330
1FA
100
AcDbEntity
  8
VERMASSUNG
100
AcDbTrace
 10
230.1884073673
 20
121.3650054171
 30
0.0
 11
229.7384073673
 21
118.3650054171
 31
0.0
 12
230.6384073673
 22
118.3650054171
 32
0.0
 13
230.6384073673
 23
118.3650054171
 33
0.0
  0
SOLID
  5
1FE
330
1FA
100
AcDbEntity
  8
VERMASSUNG
100
AcDbTrace
 10
230.1884073673
 20
95.3650054171
 30
0.0
 11
230.6384073673
 21
98.3650054171
 31
0.0
 12
229.7384073673
 22
98.3650054171
 32
0.0
 13
229.7384073673
 23
98.3650054171
 33
0.0
  0
LINE
  5
1FF
330
1FA
100
AcDbEntity
  8
VERMASSUNG
100
AcDbLine
 10
178.6958914086
 20
121.3650054171
 30
0.0
 11
231.1884073673
 21
121.3650054171
 31
0.0
  0
LINE
  5
200
330
1FA
100
AcDbEntity
  8
VERMASSUNG
100
AcDbLine
 10
178.6958914086
 20
95.3650054171
 30
0.0
 11
231.1884073673
 21
95.3650054171
 31
0.0
  0
LINE
  5
201
330
1FA
100
AcDbEntity
  8
VERMASSUNG
100
AcDbLine
 10
230.1884073673
 20
121.3650054171
 30
0.0
 11
230.1884073673
 21
95.3650054171
 31
0.0
  0
MTEXT
  5
202
330
1FA
100
AcDbEntity
  8
VERMASSUNG
100
AcDbMText
 10
227.6102718877
 20
105.1612881907
 30
0.0
 40
2.0
 41
0.0
 71
     1
 72
     1
  1
%%c
  7
SLDTEXTSTYLE0
 11
-7.044195017643634E-15
 21
1.0
 31
0.0
 73
     1
 44
1.0
  0
MTEXT
  5
203
330
1FA
100
AcDbEntity
  8
VERMASSUNG
100
AcDbMText
 10
227.6102720042
 20
108.7699664139
 30
0.0
 40
2.0
 41
0.0
 71
     1
 72
     1
  1
26
  7
SLDTEXTSTYLE0
 11
-7.044195017643634E-15
 21
1.0
 31
0.0
 73
     1
 44
1.0
  0
ENDBLK
  5
1FC
330
1FA
100
AcDbEntity
  8
0
100
AcDbBlockEnd
  0
ENDSEC
  0
SECTION
  2
ENTITIES
  0
MTEXT
  5
45
330
1F
100
AcDbEntity
  8
KOPF_DÜNN
100
AcDbMText
 10
13.8892156294
 20
23.8442973028
 30
0.0
 40
3.0
 41
0.0
 71
     1
 72
     1
  1
HA0.S06.K21.085
  7
SLDTEXTSTYLE0
 73
     1
 44
1.0
  0
MTEXT
  5
46
330
1F
100
AcDbEntity
  8
VERMASSUNG
100
AcDbMText
 10
13.9329988022
 20
28.8834360957
 30
0.0
 40
3.0
 41
0.0
 71
     1
 72
     1
  1
Schrumpffutter_Heat shrink chuck
  7
SLDTEXTSTYLE0
 73
     1
 44
1.0
  0
MTEXT
  5
47
330
1F
100
AcDbEntity
  8
VERMASSUNG
100
AcDbMText
 10
98.8601118557
 20
13.8365368179
 30
0.0
 40
2.0
 41
0.0
 71
     1
 72
     1
  1
Datum: 28.04.2011
  7
SLDTEXTSTYLE0
 73
     1
 44
1.0
  0
MTEXT
  5
49
330
1F
100
AcDbEntity
  8
VERMASSUNG
100
AcDbMText
 10
13.933048693
 20
18.0482802738
 30
0.0
 40
2.0
 41
0.0
 71
     1
 72
     1
  1
DIN 69 893 HSK A 100
  7
SLDTEXTSTYLE1
 73
     1
 44
1.0
  0
MTEXT
  5
4A
330
1F
100
AcDbEntity
  8
VERMASSUNG
100
AcDbMText
 10
13.9808475933
 20
13.9090973692
 30
0.0
 40
2.0
 41
0.0
 71
     1
 72
     1
  1
Gewicht: 2180g
  7
SLDTEXTSTYLE0
 73
     1
 44
1.0
  0
LINE
  5
4B
330
1F
100
AcDbEntity
  8
0
  6
Continuous
 62
     7
370
    15
100
AcDbLine
 10
210.4798368795
 20
116.08472194
 30
0.0
 11
210.4614041431
 21
116.1197564326
 31
0.0
  0
LINE
  5
4C
330
1F
100
AcDbEntity
  8
0
  6
Continuous
 62
     7
370
    15
100
AcDbLine
 10
210.4614041431
 20
100.500637269
 30
0.0
 11
210.5387262686
 21
100.6476022996
 31
0.0
  0
LINE
  5
4D
330
1F
100
AcDbEntity
  8
0
  6
Continuous
 62
     7
370
    15
100
AcDbLine
 10
125.9614032728
 20
58.3650046721
 30
0.0
 11
130.4114032223
 21
58.3650046721
 31
0.0
  0
LINE
  5
4E
330
1F
100
AcDbEntity
  8
0
  6
Continuous
 62
     7
370
    15
100
AcDbLine
 10
130.4454761243
 20
158.3650061622
 30
0.0
 11
125.9614032728
 21
158.3650061622
 31
0.0
  0
ARC
  5
4F
330
1F
100
AcDbEntity
  8
0
  6
Continuous
 62
     7
370
    15
100
AcDbCircle
 10
125.9614032491
 20
58.8650054171
 30
0.0
 40
0.5
100
AcDbArc
 50
180.0
 51
270.0
  0
ARC
  5
50
330
1F
100
AcDbEntity
  8
0
  6
Continuous
 62
     7
370
    15
100
AcDbCircle
 10
125.9614032491
 20
157.8650054171
 30
0.0
 40
0.5
100
AcDbArc
 50
90.0
 51
180.0
  0
ARC
  5
51
330
1F
100
AcDbEntity
  8
0
  6
Continuous
 62
     7
370
    15
100
AcDbCircle
 10
124.5644663306
 20
69.7365200927
 30
0.0
 40
0.996233821438679
100
AcDbArc
 50
25.7988228126
 51
90.0
  0
ARC
  5
52
330
1F
100
AcDbEntity
  8
0
  6
Continuous
 62
     7
370
    15
100
AcDbCircle
 10
124.5644663306
 20
146.9934907416
 30
0.0
 40
0.9962338214386932
100
AcDbArc
 50
270.0
 51
334.2011771874
  0
LINE
  5
53
330
1F
100
AcDbEntity
  8
0
  6
Continuous
 62
     7
370
    15
100
AcDbLine
 10
122.961403305
 20
70.4827556148
 30
0.0
 11
123.7672493712
 21
70.698680891
 31
0.0
  0
LINE
  5
54
330
1F
100
AcDbEntity
  8
0
  6
Continuous
 62
     7
370
    15
100
AcDbLine
 10
123.7672493712
 20
146.0313299432
 30
0.0
 11
122.961403305
 21
146.2472552195
 31
0.0
  0
LINE
  5
55
330
1F
100
AcDbEntity
  8
0
  6
Continuous
 62
     7
370
    15
100
AcDbLine
 10
103.9807069732
 20
145.2963189914
 30
0.0
 11
85.6614038034
 21
144.3785192206
 31
0.0
  0
LINE
  5
56
330
1F
100
AcDbEntity
  8
0
  6
Continuous
 62
     7
370
    15
100
AcDbLine
 10
122.961403305
 20
146.2472552195
 30
0.0
 11
116.8933640851
 21
145.9432454541
 31
0.0
  0
LINE
  5
57
330
1F
100
AcDbEntity
  8
0
  6
Continuous
 62
     7
370
    15
100
AcDbLine
 10
116.8934870197
 20
70.7867579296
 30
0.0
 11
122.961403305
 21
70.4827556148
 31
0.0
  0
LINE
  5
58
330
1F
100
AcDbEntity
  8
0
  6
Continuous
 62
     7
370
    15
100
AcDbLine
 10
90.6614027603
 20
72.1009919181
 30
0.0
 11
103.9813551738
 21
71.4336583152
 31
0.0
  0
ARC
  5
59
330
1F
100
AcDbEntity
  8
0
  6
Continuous
 62
     7
370
    15
100
AcDbCircle
 10
124.0260684486
 20
69.7327539141
 30
0.0
 40
0.9999999999999993
100
AcDbArc
 50
90.0
 51
105.0
  0
ARC
  5
5A
330
1F
100
AcDbEntity
  8
0
  6
Continuous
 62
     7
370
    15
100
AcDbCircle
 10
124.0260684486
 20
146.9972569201
 30
0.0
 40
1.0
100
AcDbArc
 50
255.0
 51
270.0
  0
LINE
  5
5B
330
1F
100
AcDbEntity
  8
0
  6
Continuous
 62
     7
370
    15
100
AcDbLine
 10
124.0260684549
 20
70.7327523961
 30
0.0
 11
124.5644663263
 21
70.7327523961
 31
0.0
  0
LINE
  5
5C
330
1F
100
AcDbEntity
  8
0
  6
Continuous
 62
     7
370
    15
100
AcDbLine
 10
124.5644663263
 20
145.9972584381
 30
0.0
 11
124.0260684549
 21
145.9972584381
 31
0.0
  0
LINE
  5
5D
330
1F
100
AcDbEntity
  8
0
  6
Continuous
 62
     7
370
    15
100
AcDbLine
 10
77.2114023252
 20
76.1150071159
 30
0.0
 11
88.7614041253
 21
76.1150071159
 31
0.0
  0
ARC
  5
5E
330
1F
100
AcDbEntity
  8
0
  6
Continuous
 62
     7
370
    15
100
AcDbCircle
 10
159.4114032491
 20
90.3650054171
 30
0.0
 40
5.0
100
AcDbArc
 50
90.0
 51
180.0
  0
ARC
  5
5F
330
1F
100
AcDbEntity
  8
0
  6
Continuous
 62
     7
370
    15
100
AcDbCircle
 10
159.4114032491
 20
126.3650054171
 30
0.0
 40
5.0
100
AcDbArc
 50
180.0
 51
270.0
  0
ARC
  5
60
330
1F
100
AcDbEntity
  8
0
  6
Continuous
 62
     7
370
    15
100
AcDbCircle
 10
88.7614032491
 20
74.2150054171
 30
0.0
 40
1.899999999999996
100
AcDbArc
 50
35.6630613694
 51
90.0
  0
ARC
  5
61
330
1F
100
AcDbEntity
  8
0
  6
Continuous
 62
     7
370
    15
100
AcDbCircle
 10
83.7614032491
 20
142.5150054171
 30
0.0
 40
1.900000000000006
100
AcDbArc
 50
270.0
 51
310.9212832533
  0
LINE
  5
62
330
1F
100
AcDbEntity
  8
0
  6
Continuous
 62
     7
370
    15
100
AcDbLine
 10
77.2114023252
 20
140.6150037184
 30
0.0
 11
75.6120867713
 21
139.0156900271
 31
0.0
  0
LINE
  5
63
330
1F
100
AcDbEntity
  8
0
  6
Continuous
 62
     7
370
    15
100
AcDbLine
 10
75.6129249616
 20
77.7134844794
 30
0.0
 11
77.2114023252
 21
76.1150071159
 31
0.0
  0
LINE
  5
64
330
1F
100
AcDbEntity
  8
0
  6
Continuous
 62
     7
370
    15
100
AcDbLine
 10
83.7614014431
 20
140.6150037184
 30
0.0
 11
77.2114023252
 21
140.6150037184
 31
0.0
  0
LINE
  5
65
330
1F
100
AcDbEntity
  8
0
  6
Continuous
 62
     7
370
    15
100
AcDbLine
 10
170.8811781986
 20
95.3650051489
 30
0.0
 11
178.6958910211
 21
95.3650051489
 31
0.0
  0
LINE
  5
66
330
1F
100
AcDbEntity
  8
0
  6
Continuous
 62
     7
370
    15
100
AcDbLine
 10
159.4114042504
 20
95.3650051489
 30
0.0
 11
163.9445386513
 21
95.3650051489
 31
0.0
  0
LINE
  5
67
330
1F
100
AcDbEntity
  8
0
  6
Continuous
 62
     7
370
    15
100
AcDbLine
 10
163.9318801148
 20
121.3650056853
 30
0.0
 11
159.4114042504
 21
121.3650056853
 31
0.0
  0
LINE
  5
68
330
1F
100
AcDbEntity
  8
0
  6
Continuous
 62
     7
370
    15
100
AcDbLine
 10
178.6958910211
 20
121.3650056853
 30
0.0
 11
170.874021916
 21
121.3650056853
 31
0.0
  0
LINE
  5
69
330
1F
100
AcDbEntity
  8
0
  6
Continuous
 62
     7
370
    15
100
AcDbLine
 10
178.6958910211
 20
95.3650051489
 30
0.0
 11
208.6183242186
 21
97.7199520677
 31
0.0
  0
LINE
  5
6A
330
1F
100
AcDbEntity
  8
0
  6
Continuous
 62
     7
370
    15
100
AcDbLine
 10
208.6183242186
 20
119.0100587666
 30
0.0
 11
178.6958910211
 21
121.3650056853
 31
0.0
  0
ARC
  5
6B
330
1F
100
AcDbEntity
  8
0
  6
Continuous
 62
     7
370
    15
100
AcDbCircle
 10
208.4614032491
 20
99.7137864004
 30
0.0
 40
2.000000000000002
100
AcDbArc
 50
274.5
 51
0.0
  0
ARC
  5
6C
330
1F
100
AcDbEntity
  8
0
  6
Continuous
 62
     7
370
    15
100
AcDbCircle
 10
208.4614032491
 20
117.0162244338
 30
0.0
 40
2.000000000000016
100
AcDbArc
 50
0.0
 51
85.5
  0
LWPOLYLINE
  5
6D
330
1F
100
AcDbEntity
  8
0
  6
Continuous
 62
     7
370
    15
100
AcDbPolyline
 90
        4
 70
   128
 43
0.0
 10
210.4798368795
 20
116.08472194
 10
210.4761935456
 20
115.9919650055
 10
210.4658148869
 20
115.7278139837
 10
210.4614041431
 20
115.6155840255
  0
LWPOLYLINE
  5
6E
330
1F
100
AcDbEntity
  8
0
  6
Continuous
 62
     7
370
    15
100
AcDbPolyline
 90
        5
 70
   128
 43
0.0
 10
210.4908488377
 20
101.8661624513
 10
210.5091698154
 20
101.3998394593
 10
210.5247042759
 20
101.0045102559
 10
210.5350829347
 20
100.7403596997
 10
210.5387262686
 20
100.6476022996
  0
LWPOLYLINE
  5
6F
330
1F
100
AcDbEntity
  8
0
  6
Continuous
 62
     7
370
    15
100
AcDbPolyline
 90
        3
 70
   128
 43
0.0
 10
210.4614041431
 20
102.6155842229
 10
210.47252786
 20
102.3324849776
 10
210.4908488377
 20
101.8661624513
  0
SPLINE
  5
70
330
1F
100
AcDbEntity
  8
0
  6
Continuous
 62
     7
370
    15
100
AcDbSpline
210
0.0
220
0.0
230
1.0
 70
     8
 71
     3
 72
    80
 73
    76
 74
     0
 42
0.00000001
 43
0.00000001
 40
-0.0312500000000001
 40
-0.0312500000000001
 40
0.0
 40
0.0
 40
0.0312499999999995
 40
0.0312499999999995
 40
0.0468749999999993
 40
0.0468749999999993
 40
0.0624999999999991
 40
0.0624999999999991
 40
0.0937499999999988
 40
0.0937499999999988
 40
0.1249999999999986
 40
0.1249999999999986
 40
0.1562499999999983
 40
0.1562499999999983
 40
0.1874999999999981
 40
0.1874999999999981
 40
0.2187499999999978
 40
0.2187499999999978
 40
0.2499999999999976
 40
0.2499999999999976
 40
0.2812499999999973
 40
0.2812499999999973
 40
0.3124999999999971
 40
0.3124999999999971
 40
0.3281249999999971
 40
0.3281249999999971
 40
0.3437499999999971
 40
0.3437499999999971
 40
0.3749999999999973
 40
0.3749999999999973
 40
0.4062499999999975
 40
0.4062499999999975
 40
0.4218749999999975
 40
0.4218749999999975
 40
0.4374999999999974
 40
0.4374999999999974
 40
0.4687499999999973
 40
0.4687499999999973
 40
0.4999999999999972
 40
0.4999999999999972
 40
0.531249999999997
 40
0.531249999999997
 40
0.562499999999997
 40
0.562499999999997
 40
0.5937499999999969
 40
0.5937499999999969
 40
0.6249999999999969
 40
0.6249999999999969
 40
0.6562499999999968
 40
0.6562499999999968
 40
0.6874999999999968
 40
0.6874999999999968
 40
0.7031249999999968
 40
0.7031249999999968
 40
0.7187499999999969
 40
0.7187499999999969
 40
0.7499999999999973
 40
0.7499999999999973
 40
0.7812499999999979
 40
0.7812499999999979
 40
0.7968749999999982
 40
0.7968749999999982
 40
0.8124999999999984
 40
0.8124999999999984
 40
0.8437499999999988
 40
0.8437499999999988
 40
0.874999999999999
 40
0.874999999999999
 40
0.9062499999999993
 40
0.9062499999999993
 40
0.9374999999999996
 40
0.9374999999999996
 40
0.9687499999999999
 40
0.9687499999999999
 40
1.0
 40
1.0
 40
1.03125
 40
1.03125
 10
134.1308579363023
 20
151.7796348807495
 30
0.0
 10
134.7919485618549
 20
151.7796348807495
 30
0.0
 10
135.1169286911065
 20
151.7958431121316
 30
0.0
 10
135.5964021023529
 20
151.8432077441512
 30
0.0
 10
135.7548839201937
 20
151.8628619560419
 30
0.0
 10
136.069103452698
 20
151.9099731122345
 30
0.0
 10
136.2252237363784
 20
151.9375544317292
 30
0.0
 10
136.679277765335
 20
152.030090218523
 30
0.0
 10
136.9663811482748
 20
152.1051606521195
 30
0.0
 10
137.5097357043019
 20
152.2803989607301
 30
0.0
 10
137.7668393155074
 20
152.3814002585684
 30
0.0
 10
138.2277455704462
 20
152.5987564570292
 30
0.0
 10
138.4346432796612
 20
152.7159207888014
 30
0.0
 10
138.8001685936534
 20
152.9659907130301
 30
0.0
 10
138.9553741157794
 20
153.0969368017891
 30
0.0
 10
139.2048045023791
 20
153.3626717455014
 30
0.0
 10
139.3008944581642
 20
153.4994253388124
 30
0.0
 10
139.4294133073578
 20
153.7734909136514
 30
0.0
 10
139.4612241775356
 20
153.9084310041202
 30
0.0
 10
139.4615808273089
 20
154.173902641189
 30
0.0
 10
139.4290835751118
 20
154.3057271183302
 30
0.0
 10
139.3014581013973
 20
154.5551767179506
 30
0.0
 10
139.2070297003454
 20
154.6736094098786
 30
0.0
 10
139.0191688803599
 20
154.8424786069727
 30
0.0
 10
138.9483408815567
 20
154.8975646020929
 30
0.0
 10
138.7936189895914
 20
155.0028174305813
 30
0.0
 10
138.709642519408
 20
155.0531526593416
 30
0.0
 10
138.4383188497636
 20
155.1977284918797
 30
0.0
 10
138.2317696311612
 20
155.2855900782967
 30
0.0
 10
137.7651594909722
 20
155.4453111712962
 30
0.0
 10
137.5127939213467
 20
155.5145494677634
 30
0.0
 10
137.106892579668
 20
155.6043368569932
 30
0.0
 10
136.9669919621905
 20
155.6319028190795
 30
0.0
 10
136.6777680269436
 20
155.6823936200058
 30
0.0
 10
136.5279285706544
 20
155.7053570588565
 30
0.0
 10
136.0738120010436
 20
155.7659875752753
 30
0.0
 10
135.7621607823067
 20
155.7960616040711
 30
0.0
 10
135.1211643173943
 20
155.8366511913298
 30
0.0
 10
134.7896366894421
 20
155.8469634215458
 30
0.0
 10
134.1368456443707
 20
155.8470389887116
 30
0.0
 10
133.8123094393388
 20
155.8371373832438
 30
0.0
 10
133.1670399899224
 20
155.7966508527186
 30
0.0
 10
132.8512969837597
 20
155.7661895528339
 30
0.0
 10
132.249407688776
 20
155.6860388813973
 30
0.0
 10
131.9586584579645
 20
155.6357566495902
 30
0.0
 10
131.41174666628
 20
155.5150864668172
 30
0.0
 10
131.1599693024431
 20
155.4458626076472
 30
0.0
 10
130.698581309822
 20
155.2884108800065
 30
0.0
 10
130.4873120302239
 20
155.1990624053327
 30
0.0
 10
130.1240076778477
 20
155.005814534632
 30
0.0
 10
129.9702010294049
 20
154.9016865427527
 30
0.0
 10
129.7815815598075
 20
154.7330621565692
 30
0.0
 10
129.7255510735984
 20
154.6744337548943
 30
0.0
 10
129.6299773118622
 20
154.554978840068
 30
0.0
 10
129.5902143948372
 20
154.4940590512298
 30
0.0
 10
129.4944426445251
 20
154.3076543250559
 30
0.0
 10
129.461719805399
 20
154.1785415072609
 30
0.0
 10
129.4610912190699
 20
153.909884584305
 30
0.0
 10
129.4932773638047
 20
153.7745138435482
 30
0.0
 10
129.5881880656603
 20
153.5709635353123
 30
0.0
 10
129.6276548490592
 20
153.5029916112489
 30
0.0
 10
129.7225848477801
 20
153.3668993881179
 30
0.0
 10
129.7783416755435
 20
153.2985492879085
 30
0.0
 10
129.9662817935134
 20
153.0978462748664
 30
0.0
 10
130.1196432632295
 20
152.9684580010537
 30
0.0
 10
130.4819074981099
 20
152.7197925690039
 30
0.0
 10
130.6927559715758
 20
152.5999829266357
 30
0.0
 10
131.1534259418947
 20
152.382460639063
 30
0.0
 10
131.4048003214785
 20
152.2833755392271
 30
0.0
 10
131.9507082083767
 20
152.1067030653102
 30
0.0
 10
132.2415307830279
 20
152.0306459771762
 30
0.0
 10
132.8428573978079
 20
151.9078009998232
 30
0.0
 10
133.1573759824203
 20
151.8600948747701
 30
0.0
 10
133.8039574385403
 20
151.7958463396505
 30
0.0
 10
134.1308579363023
 20
151.7796348807495
 30
0.0
 10
134.7919485618549
 20
151.7796348807495
 30
0.0
  0
LINE
  5
71
330
1F
100
AcDbEntity
  8
0
  6
Continuous
 62
     7
370
    15
100
AcDbLine
 10
130.4114032223
 20
139.7150071099
 30
0.0
 11
142.1993747039
 21
139.7150071099
 31
0.0
  0
LINE
  5
72
330
1F
100
AcDbEntity
  8
0
  6
Continuous
 62
     7
370
    15
100
AcDbLine
 10
142.1993747039
 20
59.5900105074
 30
0.0
 11
142.1993747039
 21
139.7150071099
 31
0.0
  0
LINE
  5
73
330
1F
100
AcDbEntity
  8
0
  6
Continuous
 62
     7
370
    15
100
AcDbLine
 10
142.1993747039
 20
59.5900105074
 30
0.0
 11
140.4114029987
 21
59.5900105074
 31
0.0
  0
SPLINE
  5
74
330
1F
100
AcDbEntity
  8
0
  6
Continuous
 62
     7
370
    15
100
AcDbSpline
210
0.0
220
0.0
230
1.0
 70
     8
 71
     3
 72
    30
 73
    26
 74
     0
 42
0.00000001
 43
0.00000001
 40
0.0
 40
0.0
 40
0.0
 40
0.0
 40
0.1250000000000002
 40
0.1250000000000002
 40
0.1875000000000003
 40
0.1875000000000003
 40
0.2500000000000004
 40
0.2500000000000004
 40
0.3750000000000001
 40
0.3750000000000001
 40
0.4374999999999998
 40
0.4374999999999998
 40
0.4999999999999996
 40
0.4999999999999996
 40
0.6249999999999996
 40
0.6249999999999996
 40
0.6874999999999997
 40
0.6874999999999997
 40
0.7499999999999997
 40
0.7499999999999997
 40
0.8124999999999998
 40
0.8124999999999998
 40
0.8749999999999999
 40
0.8749999999999999
 40
1.0
 40
1.0
 40
1.0
 40
1.0
 10
140.4114032490786
 20
59.5900118240894
 30
0.0
 10
139.7486585552336
 20
59.59001182408941
 30
0.0
 10
139.0974026961178
 20
59.57517174750059
 30
0.0
 10
138.1369521578596
 20
59.53280218327097
 30
0.0
 10
137.8195607146266
 20
59.5153240804918
 30
0.0
 10
137.1903972130717
 20
59.47399579393949
 30
0.0
 10
136.87824902663
 20
59.45007052048179
 30
0.0
 10
135.9709417247818
 20
59.37126400401488
 30
0.0
 10
135.3975167671405
 20
59.30895798403842
 30
0.0
 10
134.5836398975658
 20
59.20582866379906
 30
0.0
 10
134.318833700996
 20
59.16964474475255
 30
0.0
 10
133.8119262901816
 20
59.09584996055204
 30
0.0
 10
133.5705321388281
 20
59.0583761017804
 30
0.0
 10
132.8813906666958
 20
58.94566415844066
 30
0.0
 10
132.4683358518316
 20
58.87012806096688
 30
0.0
 10
131.9201810324565
 20
58.76173480394939
 30
0.0
 10
131.7507184251109
 20
58.72666257228613
 30
0.0
 10
131.4427011770956
 20
58.66042711168628
 30
0.0
 10
131.3033211564872
 20
58.62910041493156
 30
0.0
 10
131.0535356438604
 20
58.57069164335062
 30
0.0
 10
130.9431295312065
 20
58.54360840816778
 30
0.0
 10
130.7518716775688
 20
58.49434865355419
 30
0.0
 10
130.6707521592845
 20
58.47208667374655
 30
0.0
 10
130.4766052391761
 20
58.41451976657827
 30
0.0
 10
130.4114032490786
 20
58.38826016179228
 30
0.0
 10
130.4114032490786
 20
58.37500641731825
 30
0.0
  0
LINE
  5
75
330
1F
100
AcDbEntity
  8
0
  6
Continuous
 62
     7
370
    15
100
AcDbLine
 10
130.4114032223
 20
58.3750070765
 30
0.0
 11
130.4114032223
 21
58.3650046721
 31
0.0
  0
SPLINE
  5
76
330
1F
100
AcDbEntity
  8
0
  6
Continuous
 62
     7
370
    15
100
AcDbSpline
210
0.0
220
0.0
230
1.0
 70
     8
 71
     3
 72
    17
 73
    13
 74
     0
 42
0.00000001
 43
0.00000001
 40
0.0
 40
0.0
 40
0.0
 40
0.0
 40
0.1043843958185158
 40
0.2118345569819801
 40
0.3162081801235555
 40
0.4235375330682647
 40
0.5292275935501746
 40
0.6379275752951962
 40
0.7444714855043735
 40
0.8541836194561564
 40
0.959308052615968
 40
1.0
 40
1.0
 40
1.0
 40
1.0
 10
140.411402998739
 20
157.3548005654908
 30
0.0
 10
139.8634644582254
 20
157.3601680058237
 30
0.0
 10
138.7514944451511
 20
157.3710605279877
 30
0.0
 10
137.1386391126286
 20
157.4562427118056
 30
0.0
 10
135.6051259618909
 20
157.5826132151371
 30
0.0
 10
134.2141050735167
 20
157.739517086646
 30
0.0
 10
132.9785879572186
 20
157.9112124840817
 30
0.0
 10
131.9552328113622
 20
158.0765573382917
 30
0.0
 10
131.1548901385032
 20
158.2202616361238
 30
0.0
 10
130.6445585857431
 20
158.3184256320556
 30
0.0
 10
130.4046498272837
 20
158.3663469465284
 30
0.0
 10
130.4365687390531
 20
158.3599804385146
 30
0.0
 10
130.4454761243101
 20
158.3582037820913
 30
0.0
  0
LINE
  5
77
330
1F
100
AcDbEntity
  8
0
  6
Continuous
 62
     7
370
    15
100
AcDbLine
 10
142.1993747039
 20
157.3548005655
 30
0.0
 11
140.4114029987
 21
157.3548005655
 31
0.0
  0
LINE
  5
78
330
1F
100
AcDbEntity
  8
0
  6
Continuous
 62
     7
370
    15
100
AcDbLine
 10
142.1993747039
 20
147.3159665003
 30
0.0
 11
142.1993747039
 21
157.3548005655
 31
0.0
  0
LINE
  5
79
330
1F
100
AcDbEntity
  8
0
  6
Continuous
 62
     7
370
    15
100
AcDbLine
 10
140.1193700417
 20
147.3159665003
 30
0.0
 11
142.1993747039
 21
147.3159665003
 31
0.0
  0
SPLINE
  5
7A
330
1F
100
AcDbEntity
  8
0
  6
Continuous
 62
     7
370
    15
100
AcDbSpline
210
0.0
220
0.0
230
1.0
 70
     8
 71
     3
 72
    22
 73
    18
 74
     0
 42
0.00000001
 43
0.00000001
 40
0.0
 40
0.0
 40
0.0
 40
0.0
 40
0.2500000000000002
 40
0.2500000000000002
 40
0.3750000000000003
 40
0.3750000000000003
 40
0.5000000000000004
 40
0.5000000000000004
 40
0.6250000000000004
 40
0.6250000000000004
 40
0.7500000000000004
 40
0.7500000000000004
 40
0.8750000000000004
 40
0.8750000000000004
 40
0.9375000000000002
 40
0.9375000000000002
 40
1.0
 40
1.0
 40
1.0
 40
1.0
 10
130.4114032490786
 20
139.7150054171182
 30
0.0
 10
130.6141282049977
 20
140.7342517589828
 30
0.0
 10
130.928871926793
 20
141.6933599089221
 30
0.0
 10
131.636927396464
 20
143.0358389864314
 30
0.0
 10
131.9153900266816
 20
143.4700475691714
 30
0.0
 10
132.5541574333188
 20
144.2816752846735
 30
0.0
 10
132.914571113109
 20
144.6609555776104
 30
0.0
 10
133.7321033450983
 20
145.3639141566314
 30
0.0
 10
134.1932713283855
 20
145.688942974332
 30
0.0
 10
135.1912615748692
 20
146.2539582977229
 30
0.0
 10
135.7310207688615
 20
146.4976618919294
 30
0.0
 10
136.9056137328928
 20
146.9018618195743
 30
0.0
 10
137.5173499188847
 20
147.0542990126199
 30
0.0
 10
138.4692591437465
 20
147.2096265602285
 30
0.0
 10
138.7924923080071
 20
147.2491313402786
 30
0.0
 10
139.4515554792823
 20
147.3024404609473
 30
0.0
 10
139.7856194898563
 20
147.3159681780051
 30
0.0
 10
140.1193700972579
 20
147.3159681780051
 30
0.0
  0
LINE
  5
7B
330
1F
100
AcDbEntity
  8
0
  6
Continuous
 62
     7
370
    15
100
AcDbLine
 10
143.5514036252
 20
61.9936162367
 30
0.0
 11
143.5514036252
 21
139.7150071099
 31
0.0
  0
SPLINE
  5
7C
330
1F
100
AcDbEntity
  8
0
  6
Continuous
 62
     7
370
    15
100
AcDbSpline
210
0.0
220
0.0
230
1.0
 70
     8
 71
     3
 72
     8
 73
     4
 74
     0
 42
0.00000001
 43
0.00000001
 40
0.0
 40
0.0
 40
0.0
 40
0.0
 40
1.0
 40
1.0
 40
1.0
 40
1.0
 10
143.5514032490786
 20
61.99361713009474
 30
0.0
 10
143.1011767848008
 20
61.19216176746998
 30
0.0
 10
142.6504789575574
 20
60.39097175590931
 30
0.0
 10
142.1993742281572
 20
59.5900118240894
 30
0.0
  0
SPLINE
  5
7D
330
1F
100
AcDbEntity
  8
0
  6
Continuous
 62
     7
370
    15
100
AcDbSpline
210
0.0
220
0.0
230
1.0
 70
    24
 71
     3
 72
     8
 73
     4
 74
     0
 42
0.00000001
 43
0.00000001
 40
0.0
 40
0.0
 40
0.0
 40
0.0
 40
1.0
 40
1.0
 40
1.0
 40
1.0
 10
142.1993742281572
 20
139.7150054171182
 30
0.0
 10
142.6561758004854
 20
139.7150054171182
 30
0.0
 10
143.1071903667246
 20
139.7150054171182
 30
0.0
 10
143.5514032490786
 20
139.7150054171182
 30
0.0
  0
LINE
  5
7E
330
1F
100
AcDbEntity
  8
0
  6
Continuous
 62
     7
370
    15
100
AcDbLine
 10
125.4614032491
 20
58.8650056853
 30
0.0
 11
125.4614032491
 21
157.8650051489
 31
0.0
  0
LINE
  5
7F
330
1F
100
AcDbEntity
  8
0
  6
Continuous
 62
     7
370
    15
100
AcDbLine
 10
153.411403267
 20
59.5900105074
 30
0.0
 11
148.7234327628
 21
59.5900105074
 31
0.0
  0
LINE
  5
80
330
1F
100
AcDbEntity
  8
0
  6
Continuous
 62
     7
370
    15
100
AcDbLine
 10
148.7234327628
 20
59.5900105074
 30
0.0
 11
148.7234327628
 21
139.7150071099
 31
0.0
  0
LINE
  5
81
330
1F
100
AcDbEntity
  8
0
  6
Continuous
 62
     7
370
    15
100
AcDbLine
 10
148.7234327628
 20
139.7150071099
 30
0.0
 11
153.411403267
 21
139.7150071099
 31
0.0
  0
SPLINE
  5
82
330
1F
100
AcDbEntity
  8
0
  6
Continuous
 62
     7
370
    15
100
AcDbSpline
210
0.0
220
0.0
230
1.0
 70
     8
 71
     3
 72
     8
 73
     4
 74
     0
 42
0.00000001
 43
0.00000001
 40
0.0
 40
0.0
 40
0.0
 40
0.0
 40
1.0
 40
1.0
 40
1.0
 40
1.0
 10
148.72343227
 20
59.5900118240894
 30
0.0
 10
148.2723275405997
 20
60.39097175590931
 30
0.0
 10
147.8216297133563
 20
61.19216176746998
 30
0.0
 10
147.3714032490786
 20
61.99361713009474
 30
0.0
  0
LINE
  5
83
330
1F
100
AcDbEntity
  8
0
  6
Continuous
 62
     7
370
    15
100
AcDbLine
 10
147.3714038415
 20
61.9936162367
 30
0.0
 11
147.3714038415
 21
139.7150071099
 31
0.0
  0
SPLINE
  5
84
330
1F
100
AcDbEntity
  8
0
  6
Continuous
 62
     7
370
    15
100
AcDbSpline
210
0.0
220
0.0
230
1.0
 70
    24
 71
     3
 72
     8
 73
     4
 74
     0
 42
0.00000001
 43
0.00000001
 40
0.0
 40
0.0
 40
0.0
 40
0.0
 40
1.0
 40
1.0
 40
1.0
 40
1.0
 10
147.3714032490786
 20
139.7150054171182
 30
0.0
 10
147.8156161314325
 20
139.7150054171182
 30
0.0
 10
148.2666306976717
 20
139.7150054171182
 30
0.0
 10
148.72343227
 20
139.7150054171182
 30
0.0
  0
LINE
  5
85
330
1F
100
AcDbEntity
  8
0
  6
Continuous
 62
     7
370
    15
100
AcDbLine
 10
154.4114034309
 20
60.6156611576
 30
0.0
 11
154.4114034309
 21
139.7150071099
 31
0.0
  0
SPLINE
  5
86
330
1F
100
AcDbEntity
  8
0
  6
Continuous
 62
     7
370
    15
100
AcDbSpline
210
0.0
220
0.0
230
1.0
 70
     8
 71
     3
 72
    14
 73
    10
 74
     0
 42
0.00000001
 43
0.00000001
 40
0.0
 40
0.0
 40
0.0
 40
0.0
 40
0.25
 40
0.25
 40
0.5
 40
0.5
 40
0.75
 40
0.75
 40
1.0
 40
1.0
 40
1.0
 40
1.0
 10
154.4114032490786
 20
60.61565987186491
 30
0.0
 10
154.4114032490786
 20
60.48223417581037
 30
0.0
 10
154.3860921491677
 20
60.35038636796602
 30
0.0
 10
154.287757385323
 20
60.10386381927191
 30
0.0
 10
154.2146133810669
 20
59.99005863103137
 30
0.0
 10
154.0311753199712
 20
59.7996014540841
 30
0.0
 10
153.9194889856326
 20
59.72196659023418
 30
0.0
 10
153.6769855553263
 20
59.61767518012171
 30
0.0
 10
153.5436111266321
 20
59.59001182408936
 30
0.0
 10
153.4114032490786
 20
59.59001182408937
 30
0.0
  0
SPLINE
  5
87
330
1F
100
AcDbEntity
  8
0
  6
Continuous
 62
     7
370
    15
100
AcDbSpline
210
0.0
220
0.0
230
1.0
 70
    24
 71
     3
 72
    12
 73
     8
 74
     0
 42
0.00000001
 43
0.00000001
 40
0.0
 40
0.0
 40
0.0
 40
0.0
 40
0.2500000000000032
 40
0.2500000000000032
 40
0.5000000000000064
 40
0.5000000000000064
 40
1.0
 40
1.0
 40
1.0
 40
1.0
 10
153.4114032490786
 20
139.7150054171182
 30
0.0
 10
153.5634934860236
 20
139.7150054171182
 30
0.0
 10
153.711952747099
 20
139.7150054171182
 30
0.0
 10
153.9693563793647
 20
139.7150054171182
 30
0.0
 10
154.0784611272066
 20
139.7150054171182
 30
0.0
 10
154.3325206036142
 20
139.7150054171182
 30
0.0
 10
154.4114032490786
 20
139.7150054171182
 30
0.0
 10
154.4114032490786
 20
139.7150054171182
 30
0.0
  0
SPLINE
  5
88
330
1F
100
AcDbEntity
  8
0
  6
Continuous
 62
     7
370
    15
100
AcDbSpline
210
0.0
220
0.0
230
1.0
 70
     8
 71
     3
 72
    14
 73
    10
 74
     0
 42
0.00000001
 43
0.00000001
 40
0.0
 40
0.0
 40
0.0
 40
0.0
 40
0.25
 40
0.25
 40
0.5
 40
0.5
 40
0.75
 40
0.75
 40
1.0
 40
1.0
 40
1.0
 40
1.0
 10
147.3714032490786
 20
62.90182663472332
 30
0.0
 10
147.3714032490786
 20
63.00887071571771
 30
0.0
 10
147.3512855619204
 20
63.11410585596014
 30
0.0
 10
147.2727943726548
 20
63.31195634280784
 30
0.0
 10
147.2146377478536
 20
63.40300810637275
 30
0.0
 10
147.0681224922355
 20
63.55617420029753
 30
0.0
 10
146.9794799435944
 20
63.61846864650694
 30
0.0
 10
146.7837566207941
 20
63.70326243204294
 30
0.0
 10
146.6785254297232
 20
63.72532995906856
 30
0.0
 10
146.5714032490786
 20
63.72532995906857
 30
0.0
  0
SPLINE
  5
89
330
1F
100
AcDbEntity
  8
0
  6
Continuous
 62
     7
370
    15
100
AcDbSpline
210
0.0
220
0.0
230
1.0
 70
    24
 71
     3
 72
    14
 73
    10
 74
     0
 42
0.00000001
 43
0.00000001
 40
0.0
 40
0.0
 40
0.0
 40
0.0
 40
0.25
 40
0.25
 40
0.5
 40
0.5
 40
0.75
 40
0.75
 40
1.0
 40
1.0
 40
1.0
 40
1.0
 10
146.5714032490786
 20
139.7150054171182
 30
0.0
 10
146.6951730138437
 20
139.7150054171182
 30
0.0
 10
146.8195401178506
 20
139.7150054171182
 30
0.0
 10
147.0258965865767
 20
139.7150054171182
 30
0.0
 10
147.111224729995
 20
139.7150054171182
 30
0.0
 10
147.2434167887102
 20
139.7150054171182
 30
0.0
 10
147.2920620324608
 20
139.7150054171182
 30
0.0
 10
147.3555978241895
 20
139.7150054171182
 30
0.0
 10
147.3714032490786
 20
139.7150054171182
 30
0.0
 10
147.3714032490786
 20
139.7150054171182
 30
0.0
  0
SPLINE
  5
8A
330
1F
100
AcDbEntity
  8
0
  6
Continuous
 62
     7
370
    15
100
AcDbSpline
210
0.0
220
0.0
230
1.0
 70
     8
 71
     3
 72
    12
 73
     8
 74
     0
 42
0.00000001
 43
0.00000001
 40
0.0
 40
0.0
 40
0.0
 40
0.0
 40
0.25
 40
0.25
 40
0.5
 40
0.5
 40
1.0
 40
1.0
 40
1.0
 40
1.0
 10
144.3514032490786
 20
63.72532995906857
 30
0.0
 10
144.2456425957296
 20
63.72532995906855
 30
0.0
 10
144.1376549675467
 20
63.70279045306815
 30
0.0
 10
143.9430603022811
 20
63.61821982107286
 30
0.0
 10
143.8541883894422
 20
63.55573816831406
 30
0.0
 10
143.6349960971164
 20
63.3263492168419
 30
0.0
 10
143.5514032490786
 20
63.11376587931951
 30
0.0
 10
143.5514032490786
 20
62.90182663472332
 30
0.0
  0
SPLINE
  5
8B
330
1F
100
AcDbEntity
  8
0
  6
Continuous
 62
     7
370
    15
100
AcDbSpline
210
0.0
220
0.0
230
1.0
 70
    24
 71
     3
 72
    14
 73
    10
 74
     0
 42
0.00000001
 43
0.00000001
 40
0.0
 40
0.0
 40
0.0
 40
0.0
 40
0.25
 40
0.25
 40
0.5
 40
0.5
 40
0.75
 40
0.75
 40
1.0
 40
1.0
 40
1.0
 40
1.0
 10
143.5514032490786
 20
139.7150054171182
 30
0.0
 10
143.5514032490786
 20
139.7150054171182
 30
0.0
 10
143.5671175695445
 20
139.7150054171182
 30
0.0
 10
143.6308015480129
 20
139.7150054171182
 30
0.0
 10
143.6794047424233
 20
139.7150054171182
 30
0.0
 10
143.8120882648489
 20
139.7150054171182
 30
0.0
 10
143.8971903691596
 20
139.7150054171182
 30
0.0
 10
144.1036326040696
 20
139.7150054171182
 30
0.0
 10
144.2277135456927
 20
139.7150054171182
 30
0.0
 10
144.3514032490786
 20
139.7150054171182
 30
0.0
  0
LINE
  5
8C
330
1F
100
AcDbEntity
  8
0
  6
Continuous
 62
     7
370
    15
100
AcDbLine
 10
146.5714033379
 20
63.7253286078
 30
0.0
 11
144.3514041288
 21
63.7253286078
 31
0.0
  0
LINE
  5
8D
330
1F
100
AcDbEntity
  8
0
  6
Continuous
 62
     7
370
    15
100
AcDbLine
 10
144.3514041288
 20
139.7150071099
 30
0.0
 11
146.5714033379
 21
139.7150071099
 31
0.0
  0
LINE
  5
8E
330
1F
100
AcDbEntity
  8
0
  6
Continuous
 62
     7
370
    15
100
AcDbLine
 10
122.961403305
 20
70.4827556148
 30
0.0
 11
122.961403305
 21
146.2472552195
 31
0.0
  0
LINE
  5
8F
330
1F
100
AcDbEntity
  8
0
  6
Continuous
 62
     7
370
    15
100
AcDbLine
 10
90.6614027603
 20
72.1009919181
 30
0.0
 11
90.6614027603
 21
74.4956718519
 31
0.0
  0
SPLINE
  5
90
330
1F
100
AcDbEntity
  8
0
  6
Continuous
 62
     7
370
    15
100
AcDbSpline
210
0.0
220
0.0
230
1.0
 70
     8
 71
     3
 72
    14
 73
    10
 74
     0
 42
0.00000001
 43
0.00000001
 40
0.0
 40
0.0
 40
0.0
 40
0.0
 40
0.25
 40
0.25
 40
0.5
 40
0.5
 40
0.75
 40
0.75
 40
1.0
 40
1.0
 40
1.0
 40
1.0
 10
89.65698077774162
 20
76.19852407337468
 30
0.0
 10
89.74574935568694
 20
76.03998994206674
 30
0.0
 10
89.86746719436584
 20
75.88754726517817
 30
0.0
 10
90.10251680422269
 20
75.59041264134925
 30
0.0
 10
90.21814699043958
 20
75.44572999773189
 30
0.0
 10
90.41855192386738
 20
75.16244079522848
 30
0.0
 10
90.50395221585173
 20
75.02388680219163
 30
0.0
 10
90.62565784956894
 20
74.75250277215808
 30
0.0
 10
90.66140324908159
 20
74.62036690352348
 30
0.0
 10
90.66140324908157
 20
74.4956721517527
 30
0.0
  0
SPLINE
  5
91
330
1F
100
AcDbEntity
  8
0
  6
Continuous
 62
     7
370
    15
100
AcDbSpline
210
0.0
220
0.0
230
1.0
 70
     8
 71
     3
 72
    14
 73
    10
 74
     0
 42
0.00000001
 43
0.00000001
 40
0.0
 40
0.0
 40
0.0
 40
0.0
 40
0.124999999999999
 40
0.124999999999999
 40
0.249999999999998
 40
0.249999999999998
 40
0.5000000000000007
 40
0.5000000000000007
 40
1.0
 40
1.0
 40
1.0
 40
1.0
 10
88.76140324907858
 20
76.82735401247479
 30
0.0
 10
88.82898554886306
 20
76.83450989757617
 30
0.0
 10
88.90147312661097
 20
76.83008542753717
 30
0.0
 10
89.03376423587692
 20
76.80037926976682
 30
0.0
 10
89.09104161526709
 20
76.7770949881886
 30
0.0
 10
89.24069204246737
 20
76.69960974833826
 30
0.0
 10
89.31440533798887
 20
76.6377579214369
 30
0.0
 10
89.50221332131511
 20
76.45308046878858
 30
0.0
 10
89.58625362767656
 20
76.32483754549737
 30
0.0
 10
89.65698077774285
 20
76.19852407337478
 30
0.0
  0
SPLINE
  5
92
330
1F
100
AcDbEntity
  8
0
  6
Continuous
 62
     7
370
    15
100
AcDbSpline
210
0.0
220
0.0
230
1.0
 70
     8
 71
     3
 72
     8
 73
     4
 74
     0
 42
0.00000001
 43
0.00000001
 40
0.0
 40
0.0
 40
0.0
 40
0.0
 40
1.0
 40
1.0
 40
1.0
 40
1.0
 10
85.21676286099779
 20
76.40930542768301
 30
0.0
 10
86.38206117170665
 20
76.56449289956963
 30
0.0
 10
87.56667638574648
 20
76.70085153787996
 30
0.0
 10
88.76140324907855
 20
76.82735401247479
 30
0.0
  0
SPLINE
  5
93
330
1F
100
AcDbEntity
  8
0
  6
Continuous
 62
     7
370
    15
100
AcDbSpline
210
0.0
220
0.0
230
1.0
 70
     8
 71
     3
 72
    14
 73
    10
 74
     0
 42
0.00000001
 43
0.00000001
 40
0.0
 40
0.0
 40
0.0
 40
0.0
 40
0.4999999999999972
 40
0.4999999999999972
 40
0.7499999999999971
 40
0.7499999999999971
 40
0.8749999999999986
 40
0.8749999999999986
 40
1.0
 40
1.0
 40
1.0
 40
1.0
 10
77.46132836504988
 20
76.11917324855308
 30
0.0
 10
78.76962992758362
 20
76.1261879722942
 30
0.0
 10
80.07468930224043
 20
76.1415965487387
 30
0.0
 10
82.02056535372876
 20
76.19549310420537
 30
0.0
 10
82.66726285746776
 20
76.21852466880806
 30
0.0
 10
83.6311052213221
 20
76.26946719367882
 30
0.0
 10
83.95134391325618
 20
76.289202115912
 30
0.0
 10
84.58803913959859
 20
76.33868924438359
 30
0.0
 10
84.90475454788152
 20
76.36775402331281
 30
0.0
 10
85.21676286099783
 20
76.40930542768295
 30
0.0
  0
SPLINE
  5
94
330
1F
100
AcDbEntity
  8
0
  6
Continuous
 62
     7
370
    15
100
AcDbSpline
210
0.0
220
0.0
230
1.0
 70
     8
 71
     3
 72
    12
 73
     8
 74
     0
 42
0.00000001
 43
0.00000001
 40
0.0
 40
0.0
 40
0.0
 40
0.0
 40
0.2500000000000009
 40
0.2500000000000009
 40
0.5000000000000018
 40
0.5000000000000018
 40
1.0
 40
1.0
 40
1.0
 40
1.0
 10
83.76140324907857
 20
140.4515283086146
 30
0.0
 10
83.24270442725037
 20
140.4840510834628
 30
0.0
 10
82.72099285404538
 20
140.5073478246333
 30
0.0
 10
81.67470083754982
 20
140.5451933390554
 30
0.0
 10
81.15002921187956
 20
140.5594618135516
 30
0.0
 10
79.57318318934034
 20
140.5936713010099
 30
0.0
 10
78.5182278747934
 20
140.6051708049538
 30
0.0
 10
77.46132836504819
 20
140.6108375856833
 30
0.0
  0
SPLINE
  5
95
330
1F
100
AcDbEntity
  8
0
  6
Continuous
 62
     7
370
    15
100
AcDbSpline
210
0.0
220
0.0
230
1.0
 70
     8
 71
     3
 72
    20
 73
    16
 74
     0
 42
0.00000001
 43
0.00000001
 40
0.0
 40
0.0
 40
0.0
 40
0.0
 40
0.2500000000000011
 40
0.2500000000000011
 40
0.5000000000000021
 40
0.5000000000000021
 40
0.7500000000000031
 40
0.7500000000000031
 40
0.8750000000000008
 40
0.8750000000000008
 40
0.9375000000000006
 40
0.9375000000000006
 40
0.9687500000000003
 40
0.9687500000000003
 40
1.0
 40
1.0
 40
1.0
 40
1.0
 10
85.66140324907857
 20
142.1096141541028
 30
0.0
 10
85.66140324907856
 20
141.973931834356
 30
0.0
 10
85.61269145986195
 20
141.8328448482159
 30
0.0
 10
85.44353003663677
 20
141.5407731294854
 30
0.0
 10
85.32174962271843
 20
141.389124387395
 30
0.0
 10
85.02420252796894
 20
141.0867159472419
 30
0.0
 10
84.85028992226614
 20
140.9341273111185
 30
0.0
 10
84.53087508838433
 20
140.7088565472762
 30
0.0
 10
84.41583431293708
 20
140.6341334527656
 30
0.0
 10
84.20874998892066
 20
140.5347230435085
 30
0.0
 10
84.13264215411425
 20
140.503157951164
 30
0.0
 10
84.00124761456092
 20
140.468714566971
 30
0.0
 10
83.95469439555947
 20
140.4596629952034
 30
0.0
 10
83.85836104447874
 20
140.4494873463649
 30
0.0
 10
83.80910162112332
 20
140.4485375876899
 30
0.0
 10
83.76140324907658
 20
140.4515283086045
 30
0.0
  0
LINE
  5
96
330
1F
100
AcDbEntity
  8
0
  6
Continuous
 62
     7
370
    15
100
AcDbLine
 10
85.6614038034
 20
142.1096125379
 30
0.0
 11
85.6614038034
 21
144.3785192206
 31
0.0
  0
SPLINE
  5
97
330
1F
100
AcDbEntity
  8
0
  6
Continuous
 62
     7
370
    15
100
AcDbSpline
210
0.0
220
0.0
230
1.0
 70
     8
 71
     3
 72
    24
 73
    20
 74
     0
 42
0.00000001
 43
0.00000001
 40
0.0
 40
0.0
 40
0.0
 40
0.0
 40
0.0002934239329635
 40
0.0628079954843725
 40
0.1260453886222317
 40
0.1890746649056576
 40
0.2513200327496127
 40
0.3133304381321615
 40
0.3759158074016681
 40
0.4383740215105411
 40
0.5000631209931454
 40
0.5616593985498132
 40
0.6245050468179062
 40
0.6872231543007362
 40
0.7494953203649202
 40
0.811758388799549
 40
0.8747365576758938
 40
0.937898032705022
 40
1.0
 40
1.0
 40
1.0
 40
1.0
 10
103.9813588990505
 20
71.43375889802945
 30
0.0
 10
103.9811643552678
 20
71.43373520076885
 30
0.0
 10
103.9395218590121
 20
71.42866275346643
 30
0.0
 10
104.0845450711849
 20
71.44710404361254
 30
0.0
 10
104.4396622982034
 20
71.48970637237933
 30
0.0
 10
105.0442278518394
 20
71.5578167057057
 30
0.0
 10
105.8506650102451
 20
71.63108201903364
 30
0.0
 10
106.8361421202664
 20
71.69559762234235
 30
0.0
 10
107.9678112616486
 20
71.73416453762164
 30
0.0
 10
109.190104175311
 20
71.73785383946846
 30
0.0
 10
110.4574333212713
 20
71.69543541307429
 30
0.0
 10
111.7239185643682
 20
71.60718054682279
 30
0.0
 10
112.940056695229
 20
71.47879493959178
 30
0.0
 10
114.0654661208447
 20
71.32614721292184
 30
0.0
 10
115.0428843140627
 20
71.16437683155682
 30
0.0
 10
115.8461489945803
 20
71.0118443950804
 30
0.0
 10
116.4346424036118
 20
70.88783075631952
 30
0.0
 10
116.8235491400972
 20
70.8029091651689
 30
0.0
 10
116.8703099564675
 20
70.79218345686081
 30
0.0
 10
116.8934926076468
 20
70.78686596299184
 30
0.0
  0
SPLINE
  5
98
330
1F
100
AcDbEntity
  8
0
  6
Continuous
 62
     7
370
    15
100
AcDbSpline
210
0.0
220
0.0
230
1.0
 70
     8
 71
     3
 72
    41
 73
    37
 74
     0
 42
0.00000001
 43
0.00000001
 40
0.0
 40
0.0
 40
0.0
 40
0.0
 40
0.0619930085184813
 40
0.1254347856011715
 40
0.1886508880900376
 40
0.2510246598126379
 40
0.3131658302741298
 40
0.3756581730070438
 40
0.4382227162559227
 40
0.4998045089875787
 40
0.5615164229499278
 40
0.6240683623784647
 40
0.6867257688368309
 40
0.7488365772489655
 40
0.811068658633541
 40
0.874174327755461
 40
0.9373213213306892
 40
0.9685512108215084
 40
0.9842087278453592
 40
0.992064161706849
 40
0.9960005299564133
 40
0.9979711235159539
 40
0.998957053070188
 40
0.9994501798397873
 40
0.9996967843242086
 40
0.9998200968848417
 40
0.999881755774932
 40
0.9999125858373288
 40
0.9999280010298993
 40
0.9999357086679188
 40
0.9999395624952753
 40
0.9999414894117359
 40
0.9999424528699662
 40
0.9999434163281964
 40
0.9999502136995695
 40
1.0
 40
1.0
 40
1.0
 40
1.0
 10
116.8933715357121
 20
145.943100167761
 30
0.0
 10
116.8697999447531
 20
145.9377905827175
 30
0.0
 10
116.8221058978133
 20
145.9270473283172
 30
0.0
 10
116.430062804434
 20
145.8418204431417
 30
0.0
 10
115.8395501592481
 20
145.7172517621821
 30
0.0
 10
115.035511711178
 20
145.5643028520253
 30
0.0
 10
114.05943694479
 20
145.4025456493695
 30
0.0
 10
112.9376286318477
 20
145.250312231619
 30
0.0
 10
111.7240969962419
 20
145.1225368771272
 30
0.0
 10
110.4592665647853
 20
145.0346883616517
 30
0.0
 10
109.1912231954402
 20
144.9923003224824
 30
0.0
 10
107.9677158856352
 20
144.9960393939315
 30
0.0
 10
106.8342165731172
 20
145.0346278734193
 30
0.0
 10
105.8481118276761
 20
145.0990743033265
 30
0.0
 10
105.0394824457276
 20
145.1725811754709
 30
0.0
 10
104.4428659283312
 20
145.2398947055013
 30
0.0
 10
104.1274736978494
 20
145.2778577992929
 30
0.0
 10
104.0174073832825
 20
145.2916571276432
 30
0.0
 10
103.9899890268322
 20
145.2951417421628
 30
0.0
 10
103.9830652129308
 20
145.2960230240927
 30
0.0
 10
103.9812967575735
 20
145.2962461319118
 30
0.0
 10
103.9808367258099
 20
145.2962991770189
 30
0.0
 10
103.9807122669638
 20
145.2963187265537
 30
0.0
 10
103.9806779012398
 20
145.2963120869655
 30
0.0
 10
103.9806667955659
 20
145.2963196030331
 30
0.0
 10
103.9806633054628
 20
145.2963189372524
 30
0.0
 10
103.9806601503327
 20
145.2963189962448
 30
0.0
 10
103.9806604299901
 20
145.2963189909864
 30
0.0
 10
103.9806604049129
 20
145.2963189914997
 30
0.0
 10
103.9806604075707
 20
145.296318991387
 30
0.0
 10
103.9806604067186
 20
145.2963189914919
 30
0.0
 10
103.9806604076646
 20
145.2963189913487
 30
0.0
 10
103.9806604061647
 20
145.2963189915792
 30
0.0
 10
103.9806604200622
 20
145.2963189894412
 30
0.0
 10
103.9806587558773
 20
145.2963192454693
 30
0.0
 10
103.9806853960196
 20
145.296315146986
 30
0.0
 10
103.9807088358935
 20
145.2963115408517
 30
0.0
  0
SPLINE
  5
99
330
1F
100
AcDbEntity
  8
0
  6
Continuous
 62
     7
370
    15
100
AcDbSpline
210
0.0
220
0.0
230
1.0
 70
     8
 71
     3
 72
    20
 73
    16
 74
     0
 42
0.00000001
 43
0.00000001
 40
0.0
 40
0.0
 40
0.0
 40
0.0
 40
0.249999999999986
 40
0.249999999999986
 40
0.3749999999999789
 40
0.3749999999999789
 40
0.4374999999999789
 40
0.4374999999999789
 40
0.4999999999999789
 40
0.4999999999999789
 40
0.6249999999999835
 40
0.6249999999999835
 40
0.7499999999999879
 40
0.7499999999999879
 40
1.0
 40
1.0
 40
1.0
 40
1.0
 10
75.85221748079458
 20
77.68652226441749
 30
0.0
 10
75.878489698008
 20
77.70584020549997
 30
0.0
 10
75.90916984026283
 20
77.72022891660174
 30
0.0
 10
75.98064071064475
 20
77.71332455476573
 30
0.0
 10
76.00866774768907
 20
77.70615855141732
 30
0.0
 10
76.0637513371866
 20
77.67645952471372
 30
0.0
 10
76.08464266573903
 20
77.66298588215238
 30
0.0
 10
76.12985131318447
 20
77.62778761663637
 30
0.0
 10
76.15425552558006
 20
77.60587938790911
 30
0.0
 10
76.22558784363152
 20
77.53375452791356
 30
0.0
 10
76.26748462845175
 20
77.4814139869635
 30
0.0
 10
76.33906058730764
 20
77.38393059506276
 30
0.0
 10
76.36988857712495
 20
77.33717682518434
 30
0.0
 10
76.45298850996052
 20
77.20388360934523
 30
0.0
 10
76.49784341533082
 20
77.12124621143002
 30
0.0
 10
76.5379554907834
 20
77.04213931663924
 30
0.0
  0
SPLINE
  5
9A
330
1F
100
AcDbEntity
  8
0
  6
Continuous
 62
     7
370
    15
100
AcDbSpline
210
0.0
220
0.0
230
1.0
 70
     8
 71
     3
 72
    14
 73
    10
 74
     0
 42
0.00000001
 43
0.00000001
 40
0.0
 40
0.0
 40
0.0
 40
0.0
 40
0.25
 40
0.25
 40
0.5
 40
0.5
 40
0.75
 40
0.75
 40
1.0
 40
1.0
 40
1.0
 40
1.0
 10
75.5614032490786
 20
77.86233567455028
 30
0.0
 10
75.5614032490786
 20
77.82108874352593
 30
0.0
 10
75.57001296545984
 20
77.78418177124345
 30
0.0
 10
75.60109914503018
 20
77.72328171134404
 30
0.0
 10
75.62348869851424
 20
77.69910079180436
 30
0.0
 10
75.67823262969036
 20
77.66513320092109
 30
0.0
 10
75.71068286927554
 20
77.65521311695291
 30
0.0
 10
75.7806843840036
 20
77.65386190804806
 30
0.0
 10
75.81889488412615
 20
77.66202018474422
 30
0.0
 10
75.85221748079924
 20
77.6865222644123
 30
0.0
  0
LINE
  5
9B
330
1F
100
AcDbEntity
  8
0
  6
Continuous
 62
     7
370
    15
100
AcDbLine
 10
75.5614041968
 20
77.8623359039
 30
0.0
 11
75.5614041968
 21
138.8676749303
 31
0.0
  0
SPLINE
  5
9C
330
1F
100
AcDbEntity
  8
0
  6
Continuous
 62
     7
370
    15
100
AcDbSpline
210
0.0
220
0.0
230
1.0
 70
     8
 71
     3
 72
     9
 73
     5
 74
     0
 42
0.00000001
 43
0.00000001
 40
0.0
 40
0.0
 40
0.0
 40
0.0
 40
0.0592942499244465
 40
1.0
 40
1.0
 40
1.0
 40
1.0
 10
75.85221898394184
 20
139.0434881433345
 30
0.0
 10
75.84733598624311
 20
139.0467812830323
 30
0.0
 10
75.76498402623048
 20
139.1023202214953
 30
0.0
 10
75.69885337181519
 20
139.0450280183826
 30
0.0
 10
75.63664388495046
 20
138.9911329134799
 30
0.0
  0
SPLINE
  5
9D
330
1F
100
AcDbEntity
  8
0
  6
Continuous
 62
     7
370
    15
100
AcDbSpline
210
0.0
220
0.0
230
1.0
 70
     8
 71
     3
 72
     8
 73
     4
 74
     0
 42
0.00000001
 43
0.00000001
 40
0.0
 40
0.0
 40
0.0
 40
0.0
 40
1.0
 40
1.0
 40
1.0
 40
1.0
 10
75.58503691801478
 20
138.9752546607558
 30
0.0
 10
75.56968787937873
 20
138.9447446057598
 30
0.0
 10
75.5614032490786
 20
138.9084330502475
 30
0.0
 10
75.5614032490786
 20
138.8676751596861
 30
0.0
  0
SPLINE
  5
9E
330
1F
100
AcDbEntity
  8
0
  6
Continuous
 62
     7
370
    15
100
AcDbSpline
210
0.0
220
0.0
230
1.0
 70
     8
 71
     3
 72
    20
 73
    16
 74
     0
 42
0.00000001
 43
0.00000001
 40
0.0
 40
0.0
 40
0.0
 40
0.0
 40
0.2500000000000037
 40
0.2500000000000037
 40
0.3750000000000055
 40
0.3750000000000055
 40
0.5000000000000073
 40
0.5000000000000073
 40
0.5625000000000057
 40
0.5625000000000057
 40
0.625000000000004
 40
0.625000000000004
 40
0.7500000000000027
 40
0.7500000000000027
 40
1.0
 40
1.0
 40
1.0
 40
1.0
 10
76.53795549078099
 20
139.6878715175964
 30
0.0
 10
76.49795927295716
 20
139.6089931110389
 30
0.0
 10
76.45284564511951
 20
139.5258634643474
 30
0.0
 10
76.36959143075298
 20
139.3923747999965
 30
0.0
 10
76.33937210213249
 20
139.3465097441145
 30
0.0
 10
76.26728386699105
 20
139.2483181917096
 30
0.0
 10
76.22536654957999
 20
139.196008372186
 30
0.0
 10
76.15411594502851
 20
139.1240024694515
 30
0.0
 10
76.12988013264919
 20
139.1022322571499
 30
0.0
 10
76.08428194246456
 20
139.0667575988209
 30
0.0
 10
76.06347945286483
 20
139.0533874146434
 30
0.0
 10
76.00853845444571
 20
139.0238175025081
 30
0.0
 10
75.9804694663589
 20
139.0166909802062
 30
0.0
 10
75.90996663629606
 20
139.0098166087235
 30
0.0
 10
75.8785425485052
 20
139.0241317678106
 30
0.0
 10
75.8522174807966
 20
139.0434885698212
 30
0.0
  0
SPLINE
  5
9F
330
1F
100
AcDbEntity
  8
0
  6
Continuous
 62
     7
370
    15
100
AcDbSpline
210
0.0
220
0.0
230
1.0
 70
     8
 71
     3
 72
    10
 73
     6
 74
     0
 42
0.00000001
 43
0.00000001
 40
0.0
 40
0.0
 40
0.0
 40
0.0
 40
0.4999999999999989
 40
0.4999999999999989
 40
1.0
 40
1.0
 40
1.0
 40
1.0
 10
77.21140324907857
 20
140.6132906189382
 30
0.0
 10
77.08651497832838
 20
140.4822943408667
 30
0.0
 10
76.96506486026794
 20
140.3385815042017
 30
0.0
 10
76.73548088531051
 20
140.0280112115125
 30
0.0
 10
76.62520590991454
 20
139.8599421384494
 30
0.0
 10
76.537955490781
 20
139.6878715175964
 30
0.0
  0
SPLINE
  5
A0
330
1F
100
AcDbEntity
  8
0
  6
Continuous
 62
     7
370
    15
100
AcDbSpline
210
0.0
220
0.0
230
1.0
 70
     8
 71
     3
 72
     8
 73
     4
 74
     0
 42
0.00000001
 43
0.00000001
 40
0.0
 40
0.0
 40
0.0
 40
0.0
 40
1.0
 40
1.0
 40
1.0
 40
1.0
 10
77.46132836504432
 20
140.6108375856828
 30
0.0
 10
77.37431033519596
 20
140.6113041504699
 30
0.0
 10
77.29135630881602
 20
140.612344170046
 30
0.0
 10
77.21140324907627
 20
140.6132906189383
 30
0.0
  0
SPLINE
  5
A1
330
1F
100
AcDbEntity
  8
0
  6
Continuous
 62
     7
370
    15
100
AcDbSpline
210
0.0
220
0.0
230
1.0
 70
     8
 71
     3
 72
     8
 73
     4
 74
     0
 42
0.00000001
 43
0.00000001
 40
0.0
 40
0.0
 40
0.0
 40
0.0
 40
1.0
 40
1.0
 40
1.0
 40
1.0
 10
77.21140324907627
 20
76.11672021529813
 30
0.0
 10
77.29135630881653
 20
76.1176666641904
 30
0.0
 10
77.37431033519704
 20
76.11870668376652
 30
0.0
 10
77.46132836504601
 20
76.1191732485536
 30
0.0
  0
SPLINE
  5
A2
330
1F
100
AcDbEntity
  8
0
  6
Continuous
 62
     7
370
    15
100
AcDbSpline
210
0.0
220
0.0
230
1.0
 70
     8
 71
     3
 72
    10
 73
     6
 74
     0
 42
0.00000001
 43
0.00000001
 40
0.0
 40
0.0
 40
0.0
 40
0.0
 40
0.4999999999999989
 40
0.4999999999999989
 40
1.0
 40
1.0
 40
1.0
 40
1.0
 10
76.53795549078008
 20
77.04213931664181
 30
0.0
 10
76.62520590991356
 20
76.87006869578845
 30
0.0
 10
76.73548088530971
 20
76.701999622725
 30
0.0
 10
76.96506486026755
 20
76.39142933003518
 30
0.0
 10
77.0865149783282
 20
76.24771649336991
 30
0.0
 10
77.21140324907857
 20
76.1167202152982
 30
0.0
  0
SPLINE
  5
A3
330
1F
100
AcDbEntity
  8
0
  6
Continuous
 62
     7
370
    15
100
AcDbSpline
210
0.0
220
0.0
230
1.0
 70
     8
 71
     3
 72
    10
 73
     6
 74
     0
 42
0.00000001
 43
0.00000001
 40
0.0
 40
0.0
 40
0.0
 40
0.0
 40
0.5
 40
0.5
 40
1.0
 40
1.0
 40
1.0
 40
1.0
 10
144.3514032490786
 20
153.2392811772906
 30
0.0
 10
144.1388669352222
 20
153.2392811772906
 30
0.0
 10
143.9289307635682
 20
153.3306937639208
 30
0.0
 10
143.635223622557
 20
153.635438629825
 30
0.0
 10
143.5514032490786
 20
153.8475935997337
 30
0.0
 10
143.5514032490786
 20
154.0585566579662
 30
0.0
  0
SPLINE
  5
A4
330
1F
100
AcDbEntity
  8
0
  6
Continuous
 62
     7
370
    15
100
AcDbSpline
210
0.0
220
0.0
230
1.0
 70
     8
 71
     3
 72
    14
 73
    10
 74
     0
 42
0.00000001
 43
0.00000001
 40
0.0
 40
0.0
 40
0.0
 40
0.0
 40
0.25
 40
0.25
 40
0.5
 40
0.5
 40
0.75
 40
0.75
 40
1.0
 40
1.0
 40
1.0
 40
1.0
 10
143.5514032490786
 20
143.0792406096153
 30
0.0
 10
143.5514032490786
 20
142.955373732826
 30
0.0
 10
143.5672623767062
 20
142.8311140559886
 30
0.0
 10
143.630624022226
 20
142.5935056935827
 30
0.0
 10
143.6792137302754
 20
142.4767253088302
 30
0.0
 10
143.8114993350503
 20
142.2679227802212
 30
0.0
 10
143.8968241263109
 20
142.1734120766286
 30
0.0
 10
144.103715374617
 20
142.0354552758263
 30
0.0
 10
144.227683320507
 20
141.9935368301906
 30
0.0
 10
144.3514032490786
 20
141.9935368301906
 30
0.0
  0
LINE
  5
A5
330
1F
100
AcDbEntity
  8
0
  6
Continuous
 62
     7
370
    15
100
AcDbLine
 10
153.411403267
 20
157.3548005655
 30
0.0
 11
148.7234327628
 21
157.3548005655
 31
0.0
  0
LINE
  5
A6
330
1F
100
AcDbEntity
  8
0
  6
Continuous
 62
     7
370
    15
100
AcDbLine
 10
148.7234327628
 20
147.3159665003
 30
0.0
 11
153.411403267
 21
147.3159665003
 31
0.0
  0
LINE
  5
A7
330
1F
100
AcDbEntity
  8
0
  6
Continuous
 62
     7
370
    15
100
AcDbLine
 10
148.7234327628
 20
147.3159665003
 30
0.0
 11
148.7234327628
 21
157.3548005655
 31
0.0
  0
SPLINE
  5
A8
330
1F
100
AcDbEntity
  8
0
  6
Continuous
 62
     7
370
    15
100
AcDbSpline
210
0.0
220
0.0
230
1.0
 70
     8
 71
     3
 72
     8
 73
     4
 74
     0
 42
0.00000001
 43
0.00000001
 40
0.0
 40
0.0
 40
0.0
 40
0.0
 40
1.0
 40
1.0
 40
1.0
 40
1.0
 10
142.1993742281572
 20
147.3159681780051
 30
0.0
 10
142.6563005819567
 20
146.3000502083308
 30
0.0
 10
143.1075062237597
 20
145.2812543792397
 30
0.0
 10
143.5514032490786
 20
144.260452923256
 30
0.0
  0
LINE
  5
A9
330
1F
100
AcDbEntity
  8
0
  6
Continuous
 62
     7
370
    15
100
AcDbLine
 10
143.5514036252
 20
144.2604535952
 30
0.0
 11
143.5514036252
 21
143.0792422726
 31
0.0
  0
LINE
  5
AA
330
1F
100
AcDbEntity
  8
0
  6
Continuous
 62
     7
370
    15
100
AcDbLine
 10
144.3514041288
 20
141.9935362175
 30
0.0
 11
146.5714033379
 21
141.9935362175
 31
0.0
  0
SPLINE
  5
AB
330
1F
100
AcDbEntity
  8
0
  6
Continuous
 62
     7
370
    15
100
AcDbSpline
210
0.0
220
0.0
230
1.0
 70
     8
 71
     3
 72
    12
 73
     8
 74
     0
 42
0.00000001
 43
0.00000001
 40
0.0
 40
0.0
 40
0.0
 40
0.0
 40
0.250000000000002
 40
0.250000000000002
 40
0.500000000000004
 40
0.500000000000004
 40
1.0
 40
1.0
 40
1.0
 40
1.0
 10
146.5714032490786
 20
141.9935368301907
 30
0.0
 10
146.6951041990585
 20
141.9935368301907
 30
0.0
 10
146.8192008113287
 20
142.0355304419232
 30
0.0
 10
147.0258559744157
 20
142.1733257685676
 30
0.0
 10
147.1108967411426
 20
142.2672993670325
 30
0.0
 10
147.3103753096162
 20
142.5820875732534
 30
0.0
 10
147.3714032490786
 20
142.832326565481
 30
0.0
 10
147.3714032490786
 20
143.0792406096153
 30
0.0
  0
LINE
  5
AC
330
1F
100
AcDbEntity
  8
0
  6
Continuous
 62
     7
370
    15
100
AcDbLine
 10
147.3714038415
 20
143.0792422726
 30
0.0
 11
147.3714038415
 21
144.2604535952
 31
0.0
  0
SPLINE
  5
AD
330
1F
100
AcDbEntity
  8
0
  6
Continuous
 62
     7
370
    15
100
AcDbSpline
210
0.0
220
0.0
230
1.0
 70
     8
 71
     3
 72
     8
 73
     4
 74
     0
 42
0.00000001
 43
0.00000001
 40
0.0
 40
0.0
 40
0.0
 40
0.0
 40
1.0
 40
1.0
 40
1.0
 40
1.0
 10
147.3714032490786
 20
144.260452923256
 30
0.0
 10
147.8155532601041
 20
145.2818361542077
 30
0.0
 10
148.266627570362
 20
146.300320690976
 30
0.0
 10
148.72343227
 20
147.3159681780051
 30
0.0
  0
SPLINE
  5
AE
330
1F
100
AcDbEntity
  8
0
  6
Continuous
 62
     7
370
    15
100
AcDbSpline
210
0.0
220
0.0
230
1.0
 70
     8
 71
     3
 72
    16
 73
    12
 74
     0
 42
0.00000001
 43
0.00000001
 40
0.0
 40
0.0
 40
0.0
 40
0.0
 40
0.1249999999999978
 40
0.1249999999999978
 40
0.2499999999999955
 40
0.2499999999999955
 40
0.499999999999997
 40
0.499999999999997
 40
0.7499999999999984
 40
0.7499999999999984
 40
1.0
 40
1.0
 40
1.0
 40
1.0
 10
153.4114032490786
 20
147.3159681780051
 30
0.0
 10
153.4870409554898
 20
147.3159681780051
 30
0.0
 10
153.563356619908
 20
147.3046231778702
 30
0.0
 10
153.7077673577999
 20
147.2619706272317
 30
0.0
 10
153.7762138069084
 20
147.2310363025488
 30
0.0
 10
153.9711450595215
 20
147.1117799307812
 30
0.0
 10
154.0789862333024
 20
147.0016279171607
 30
0.0
 10
154.2476989815144
 20
146.7534918315026
 30
0.0
 10
154.3100633942379
 20
146.6131495074989
 30
0.0
 10
154.3913673187464
 20
146.3248778160103
 30
0.0
 10
154.4114032490786
 20
146.1740728430304
 30
0.0
 10
154.4114032490786
 20
146.0237029516852
 30
0.0
  0
LINE
  5
AF
330
1F
100
AcDbEntity
  8
0
  6
Continuous
 62
     7
370
    15
100
AcDbLine
 10
154.4114034309
 20
146.0237042739
 30
0.0
 11
154.4114034309
 21
139.7150071099
 31
0.0
  0
SPLINE
  5
B0
330
1F
100
AcDbEntity
  8
0
  6
Continuous
 62
     7
370
    15
100
AcDbSpline
210
0.0
220
0.0
230
1.0
 70
     8
 71
     3
 72
     8
 73
     4
 74
     0
 42
0.00000001
 43
0.00000001
 40
0.0
 40
0.0
 40
0.0
 40
0.0
 40
1.0
 40
1.0
 40
1.0
 40
1.0
 10
143.5514032490786
 20
154.9622762778231
 30
0.0
 10
143.101095013394
 20
155.7599914029367
 30
0.0
 10
142.6504011968704
 20
156.5574897025939
 30
0.0
 10
142.1993742281572
 20
157.3548002727817
 30
0.0
  0
LINE
  5
B1
330
1F
100
AcDbEntity
  8
0
  6
Continuous
 62
     7
370
    15
100
AcDbLine
 10
143.5514036252
 20
144.2604535952
 30
0.0
 11
143.5514036252
 21
154.9622775748
 31
0.0
  0
SPLINE
  5
B2
330
1F
100
AcDbEntity
  8
0
  6
Continuous
 62
     7
370
    15
100
AcDbSpline
210
0.0
220
0.0
230
1.0
 70
     8
 71
     3
 72
    14
 73
    10
 74
     0
 42
0.00000001
 43
0.00000001
 40
0.0
 40
0.0
 40
0.0
 40
0.0
 40
0.25
 40
0.25
 40
0.5
 40
0.5
 40
0.75
 40
0.75
 40
1.0
 40
1.0
 40
1.0
 40
1.0
 10
147.3714032490786
 20
154.0585566579662
 30
0.0
 10
147.3714032490786
 20
153.9521999642139
 30
0.0
 10
147.3510156929374
 20
153.8463594764537
 30
0.0
 10
147.2723813474758
 20
153.6497945629173
 30
0.0
 10
147.2136499878372
 20
153.5586238206301
 30
0.0
 10
147.0670410822346
 20
153.4067127315986
 30
0.0
 10
146.9776357622081
 20
153.344643894779
 30
0.0
 10
146.7837450296078
 20
153.2613758470203
 30
0.0
 10
146.6772400397179
 20
153.2392811772906
 30
0.0
 10
146.5714032490786
 20
153.2392811772906
 30
0.0
  0
SPLINE
  5
B3
330
1F
100
AcDbEntity
  8
0
  6
Continuous
 62
     7
370
    15
100
AcDbSpline
210
0.0
220
0.0
230
1.0
 70
     8
 71
     3
 72
    12
 73
     8
 74
     0
 42
0.00000001
 43
0.00000001
 40
0.0
 40
0.0
 40
0.0
 40
0.0
 40
0.4999999999999953
 40
0.4999999999999953
 40
0.7499999999999977
 40
0.7499999999999977
 40
1.0
 40
1.0
 40
1.0
 40
1.0
 10
154.4114032490786
 20
156.333745237964
 30
0.0
 10
154.4114032490786
 20
156.5990146707304
 30
0.0
 10
154.3067965055921
 20
156.8615297763828
 30
0.0
 10
154.0301281538468
 20
157.1470673824201
 30
0.0
 10
153.9197628944948
 20
157.2233889992815
 30
0.0
 10
153.6756908458791
 20
157.3277311641217
 30
0.0
 10
153.5439383845473
 20
157.3548002727818
 30
0.0
 10
153.4114032490786
 20
157.3548002727818
 30
0.0
  0
LINE
  5
B4
330
1F
100
AcDbEntity
  8
0
  6
Continuous
 62
     7
370
    15
100
AcDbLine
 10
154.4114034309
 20
146.0237042739
 30
0.0
 11
154.4114034309
 21
156.3337469235
 31
0.0
  0
SPLINE
  5
B5
330
1F
100
AcDbEntity
  8
0
  6
Continuous
 62
     7
370
    15
100
AcDbSpline
210
0.0
220
0.0
230
1.0
 70
     8
 71
     3
 72
     8
 73
     4
 74
     0
 42
0.00000001
 43
0.00000001
 40
0.0
 40
0.0
 40
0.0
 40
0.0
 40
1.0
 40
1.0
 40
1.0
 40
1.0
 10
148.72343227
 20
157.3548002727817
 30
0.0
 10
148.2724053012867
 20
156.5574897025939
 30
0.0
 10
147.8217114847631
 20
155.7599914029367
 30
0.0
 10
147.3714032490786
 20
154.9622762778231
 30
0.0
  0
LINE
  5
B6
330
1F
100
AcDbEntity
  8
0
  6
Continuous
 62
     7
370
    15
100
AcDbLine
 10
147.3714038415
 20
144.2604535952
 30
0.0
 11
147.3714038415
 21
154.9622775748
 31
0.0
  0
LINE
  5
B7
330
1F
100
AcDbEntity
  8
0
  6
Continuous
 62
     7
370
    15
100
AcDbLine
 10
146.5714033379
 20
153.239282383
 30
0.0
 11
144.3514041288
 21
153.239282383
 31
0.0
  0
ARC
  5
B8
330
1F
100
AcDbEntity
  8
0
  6
Continuous
 62
     7
370
    15
100
AcDbCircle
 10
134.4623495594
 20
140.8790192501
 30
0.0
 40
11.50069460135981
100
AcDbArc
 50
78.0756880821
 51
102.1584611358
  0
LINE
  5
B9
330
1F
100
AcDbEntity
  8
0
  6
Continuous
 62
     7
370
    15
100
AcDbLine
 10
77.2114023252
 20
76.1150071159
 30
0.0
 11
77.2114023252
 21
76.1167207494
 31
0.0
  0
LINE
  5
BA
330
1F
100
AcDbEntity
  8
0
  6
Continuous
 62
     7
370
    15
100
AcDbLine
 10
77.2114023252
 20
140.6150037184
 30
0.0
 11
77.2114023252
 21
140.6132900848
 31
0.0
  0
LINE
  5
BB
330
1F
100
AcDbEntity
  8
0
  6
Continuous
 62
     7
370
    15
100
AcDbLine
 10
178.6958910211
 20
95.3650051489
 30
0.0
 11
178.6958910211
 21
121.3650056853
 31
0.0
  0
LINE
  5
BC
330
1F
100
AcDbEntity
  8
0
  6
Continuous
 62
     7
370
    15
100
AcDbLine
 10
165.0957576616
 20
121.1807779729
 30
0.0
 11
165.4316149338
 21
121.1479656159
 31
0.0
  0
SPLINE
  5
BD
330
1F
100
AcDbEntity
  8
0
  6
Continuous
 62
     7
370
    15
100
AcDbSpline
210
0.0
220
0.0
230
1.0
 70
     8
 71
     3
 72
    18
 73
    14
 74
     0
 42
0.00000001
 43
0.00000001
 40
0.0
 40
0.0
 40
0.0
 40
0.0
 40
0.0348018247620186
 40
0.1135350000724614
 40
0.1965097665137433
 40
0.2926198165631579
 40
0.4059321515341546
 40
0.5330508927464251
 40
0.6655035096643045
 40
0.7963701136797466
 40
0.8908209110309867
 40
0.9858157935187689
 40
1.0
 40
1.0
 40
1.0
 40
1.0
 10
170.8740219159658
 20
121.3581781595446
 30
0.0
 10
170.8833111038966
 20
121.3598698552199
 30
0.0
 10
170.9136154905087
 20
121.3653887229785
 30
0.0
 10
170.6654542147463
 20
121.3201225693918
 30
0.0
 10
170.1729081759034
 20
121.2391292088929
 30
0.0
 10
169.3891236925527
 20
121.1336239160174
 30
0.0
 10
168.3277602270648
 20
121.0423585120689
 30
0.0
 10
167.0557657571701
 20
121.0189382377897
 30
0.0
 10
165.76414873791
 20
121.0939721880149
 30
0.0
 10
164.7370266049302
 20
121.2244002496662
 30
0.0
 10
164.1243412792878
 20
121.3255455509189
 30
0.0
 10
163.8758349988208
 20
121.3714672029332
 30
0.0
 10
163.9254360952131
 20
121.3624549624823
 30
0.0
 10
163.931880114847
 20
121.3612841203309
 30
0.0
  0
SPLINE
  5
BE
330
1F
100
AcDbEntity
  8
0
  6
Continuous
 62
     7
370
    15
100
AcDbSpline
210
0.0
220
0.0
230
1.0
 70
     8
 71
     3
 72
     9
 73
     5
 74
     0
 42
0.00000001
 43
0.00000001
 40
0.0
 40
0.0
 40
0.0
 40
0.0
 40
0.5472106020932088
 40
1.0
 40
1.0
 40
1.0
 40
1.0
 10
164.771519569927
 20
121.226127794335
 30
0.0
 10
164.8237858070954
 20
121.2180116467283
 30
0.0
 10
164.9192997407956
 20
121.2031797930039
 30
0.0
 10
165.0407612004489
 20
121.1877599254378
 30
0.0
 10
165.0957576616343
 20
121.1807779728867
 30
0.0
  0
SPLINE
  5
BF
330
1F
100
AcDbEntity
  8
0
  6
Continuous
 62
     7
370
    15
100
AcDbSpline
210
0.0
220
0.0
230
1.0
 70
     8
 71
     3
 72
    62
 73
    58
 74
     0
 42
0.00000001
 43
0.00000001
 40
-0.0312499999999999
 40
-0.0312499999999999
 40
0.0
 40
0.0
 40
0.0625000000000005
 40
0.0625000000000005
 40
0.1250000000000009
 40
0.1250000000000009
 40
0.1875000000000014
 40
0.1875000000000014
 40
0.2500000000000019
 40
0.2500000000000019
 40
0.2812500000000017
 40
0.2812500000000017
 40
0.3125000000000014
 40
0.3125000000000014
 40
0.3437500000000013
 40
0.3437500000000013
 40
0.3750000000000011
 40
0.3750000000000011
 40
0.4062500000000009
 40
0.4062500000000009
 40
0.4375000000000007
 40
0.4375000000000007
 40
0.4999999999999999
 40
0.4999999999999999
 40
0.5312499999999999
 40
0.5312499999999999
 40
0.5624999999999999
 40
0.5624999999999999
 40
0.5937499999999999
 40
0.5937499999999999
 40
0.6249999999999999
 40
0.6249999999999999
 40
0.65625
 40
0.65625
 40
0.6875
 40
0.6875
 40
0.71875
 40
0.71875
 40
0.75
 40
0.75
 40
0.78125
 40
0.78125
 40
0.8125
 40
0.8125
 40
0.84375
 40
0.84375
 40
0.859375
 40
0.859375
 40
0.875
 40
0.875
 40
0.9062500000000001
 40
0.9062500000000001
 40
0.9375000000000001
 40
0.9375000000000001
 40
0.9687500000000001
 40
0.9687500000000001
 40
1.0
 40
1.0
 40
1.0625
 40
1.0625
 10
164.9260252625673
 20
110.4197826265992
 30
0.0
 10
165.4352216726419
 20
110.797905094429
 30
0.0
 10
165.8101766189314
 20
110.9829327571552
 30
0.0
 10
166.6186802002624
 20
111.2334970350947
 30
0.0
 10
167.0347511152831
 20
111.2929306435171
 30
0.0
 10
167.8822661610823
 20
111.2831732089008
 30
0.0
 10
168.2947797540568
 20
111.2146197175525
 30
0.0
 10
169.09673105665
 20
110.9454096311311
 30
0.0
 10
169.4663716168506
 20
110.7515254160601
 30
0.0
 10
169.9630388880465
 20
110.3623818845583
 30
0.0
 10
170.116766062187
 20
110.2169643869361
 30
0.0
 10
170.3893570535857
 20
109.9003511540585
 30
0.0
 10
170.5108385633157
 20
109.725926890923
 30
0.0
 10
170.7096772474202
 20
109.3541204901884
 30
0.0
 10
170.7865162723577
 20
109.158957806038
 30
0.0
 10
170.88983787565
 20
108.7478635510148
 30
0.0
 10
170.9144641357852
 20
108.5367379289062
 30
0.0
 10
170.9077285963204
 20
108.1167234402304
 30
0.0
 10
170.8756323250095
 20
107.9035138649317
 30
0.0
 10
170.7602937128847
 20
107.4989244052295
 30
0.0
 10
170.6762653921713
 20
107.3027820740884
 30
0.0
 10
170.3616519393698
 20
106.7538983216049
 30
0.0
 10
170.0692687095504
 20
106.4394950758539
 30
0.0
 10
169.5652243955232
 20
106.0634446681497
 30
0.0
 10
169.3837439874428
 20
105.9522332223782
 30
0.0
 10
169.008151557962
 20
105.7636727842268
 30
0.0
 10
168.8136503272364
 20
105.6856678682361
 30
0.0
 10
168.4117572910291
 20
105.5606106322147
 30
0.0
 10
168.2035045807096
 20
105.513732745724
 30
0.0
 10
167.7875800741156
 20
105.4535765074028
 30
0.0
 10
167.5783158587768
 20
105.4396740092257
 30
0.0
 10
167.1571819658002
 20
105.4441672542561
 30
0.0
 10
166.9442079778747
 20
105.4630000717305
 30
0.0
 10
166.5299527216686
 20
105.532472239434
 30
0.0
 10
166.3269921799649
 20
105.5829502581833
 30
0.0
 10
165.9295597442601
 20
105.7162201486471
 30
0.0
 10
165.7333696609481
 20
105.8000873367183
 30
0.0
 10
165.3634612209945
 20
105.9969228223812
 30
0.0
 10
165.188662317768
 20
106.1098702453909
 30
0.0
 10
164.8606352754778
 20
106.3670159721898
 30
0.0
 10
164.7057558311612
 20
106.5132022032273
 30
0.0
 10
164.4315684047066
 20
106.8320206966703
 30
0.0
 10
164.3119951308699
 20
107.0039692992175
 30
0.0
 10
164.1127378145227
 20
107.3766861938018
 30
0.0
 10
164.0351529917786
 20
107.5750479034037
 30
0.0
 10
163.958809316973
 20
107.8796006431106
 30
0.0
 10
163.939768136983
 20
107.982848350483
 30
0.0
 10
163.9152686815055
 20
108.1930168880714
 30
0.0
 10
163.9099366861844
 20
108.300395291156
 30
0.0
 10
163.9153980278944
 20
108.6175294307129
 30
0.0
 10
163.9467721561584
 20
108.8256723752389
 30
0.0
 10
164.0639496350308
 20
109.2355358495845
 30
0.0
 10
164.1475467037536
 20
109.429372469655
 30
0.0
 10
164.3578044324434
 20
109.7954108601659
 30
0.0
 10
164.484713308276
 20
109.9669937416244
 30
0.0
 10
164.7675126045084
 20
110.2776483541015
 30
0.0
 10
164.9260252625673
 20
110.4197826265992
 30
0.0
 10
165.4352216726419
 20
110.797905094429
 30
0.0
  0
LINE
  5
C0
330
1F
100
AcDbEntity
  8
0
  6
Continuous
 62
     7
370
    15
100
AcDbLine
 10
165.0957576616
 20
95.5492328613
 30
0.0
 11
164.8537404521
 21
95.5141220003
 31
0.0
  0
SPLINE
  5
C1
330
1F
100
AcDbEntity
  8
0
  6
Continuous
 62
     7
370
    15
100
AcDbSpline
210
0.0
220
0.0
230
1.0
 70
     8
 71
     3
 72
    18
 73
    14
 74
     0
 42
0.00000001
 43
0.00000001
 40
0.0
 40
0.0
 40
0.0
 40
0.0
 40
0.025534428060649
 40
0.1045382348843198
 40
0.1864830551962154
 40
0.2807563497070785
 40
0.3920899061219753
 40
0.5180228835751115
 40
0.6502345422448869
 40
0.7816713146916007
 40
0.878665696170189
 40
0.9762544085189424
 40
1.0
 40
1.0
 40
1.0
 40
1.0
 10
163.9445386512812
 20
95.3710438444711
 30
0.0
 10
163.9348377283141
 20
95.36927841083394
 30
0.0
 10
163.8951220408772
 20
95.36205070572161
 30
0.0
 10
164.1171264578508
 20
95.40275698363898
 30
0.0
 10
164.5776560561427
 20
95.4796726684938
 30
0.0
 10
165.3293813112509
 20
95.58414767248574
 30
0.0
 10
166.3594874206395
 20
95.67948209734276
 30
0.0
 10
167.6151660583939
 20
95.71340016074078
 30
0.0
 10
168.9160714310304
 20
95.64914568450828
 30
0.0
 10
169.9772756296056
 20
95.52173267680335
 30
0.0
 10
170.6455121408395
 20
95.41401010850078
 30
0.0
 10
170.9343849783789
 20
95.36081852755952
 30
0.0
 10
170.8898866861371
 20
95.36892783122758
 30
0.0
 10
170.8811781986292
 20
95.37051485324872
 30
0.0
  0
LINE
  5
C2
330
1F
100
AcDbEntity
  8
0
  6
Continuous
 62
     7
370
    15
100
AcDbLine
 10
165.2692034526
 20
95.5697368592
 30
0.0
 11
165.0957576616
 21
95.5492328613
 31
0.0
  0
CIRCLE
  5
C3
330
1F
100
AcDbEntity
  8
0
  6
Continuous
 62
     7
370
    15
100
AcDbCircle
 10
167.4114032491
 20
108.3650054171
 30
0.0
 40
2.5
  0
LINE
  5
C4
330
1F
100
AcDbEntity
  8
0
  6
Continuous
 62
     7
370
    15
100
AcDbLine
 10
210.4614041431
 20
99.7137861087
 30
0.0
 11
210.4614041431
 21
117.0162247255
 31
0.0
  0
LWPOLYLINE
  5
C5
330
1F
100
AcDbEntity
  8
0
  6
HIDDEN
 62
     7
370
     0
100
AcDbPolyline
 90
       10
 70
   128
 43
0.0
 10
210.3290296777
 20
116.3713639363
 10
210.3267796023
 20
116.3141462713
 10
210.3171311005
 20
116.0686230979
 10
210.3011347039
 20
115.6615596957
 10
210.2809585317
 20
115.1479320362
 10
210.259314595
 20
114.59710875
 10
210.2391384228
 20
114.0834806248
 10
210.2231420262
 20
113.6764172226
 10
210.2134935244
 20
113.4308940492
 10
210.211243449
 20
113.3736768499
  0
LWPOLYLINE
  5
C6
330
1F
100
AcDbEntity
  8
0
  6
HIDDEN
 62
     7
370
     0
100
AcDbPolyline
 90
       10
 70
   128
 43
0.0
 10
204.9950919731
 20
116.5809347987
 10
204.9928418978
 20
116.5237171337
 10
204.9831933959
 20
116.278194426
 10
204.9671969994
 20
115.8711305581
 10
204.9470208271
 20
115.3575028985
 10
204.9253768905
 20
114.8066796123
 10
204.9052007182
 20
114.2930519528
 10
204.8892043217
 20
113.8859885506
 10
204.8795558198
 20
113.6404649116
 10
204.8773057445
 20
113.5832477122
  0
LWPOLYLINE
  5
C7
330
1F
100
AcDbEntity
  8
0
  6
HIDDEN
 62
     7
370
     0
100
AcDbPolyline
 90
        9
 70
   128
 43
0.0
 10
204.4758461102
 20
116.1009502358
 10
204.4728584273
 20
116.0248886555
 10
204.4643424137
 20
115.8082830481
 10
204.4516093715
 20
115.4841096833
 10
204.4365815504
 20
115.101721207
 10
204.4215611799
 20
114.7193327307
 10
204.4088206871
 20
114.3951593659
 10
204.4003121241
 20
114.1785537585
 10
204.3973244412
 20
114.1024921782
  0
LWPOLYLINE
  5
C8
330
1F
100
AcDbEntity
  8
0
  6
HIDDEN
 62
     7
370
     0
100
AcDbPolyline
 90
        7
 70
   128
 43
0.0
 10
210.4614041431
 20
115.6155840255
 10
210.4502804263
 20
115.3324847802
 10
210.4319594486
 20
114.8661622539
 10
210.4136384709
 20
114.3998397275
 10
210.3981040104
 20
114.0045105241
 10
210.3877253516
 20
113.7403599679
 10
210.3840820177
 20
113.6476025678
  0
LINE
  5
C9
330
1F
100
AcDbEntity
  8
0
  6
HIDDEN
 62
     7
370
     0
100
AcDbLine
 10
208.4629423602
 20
115.6941038317
 30
0.0
 11
208.4334976657
 21
114.9446820601
 31
0.0
  0
LINE
  5
CA
330
1F
100
AcDbEntity
  8
0
  6
HIDDEN
 62
     7
370
     0
100
AcDbLine
 10
208.4040529712
 20
114.1952602885
 30
0.0
 11
208.4334976657
 21
114.9446820601
 31
0.0
  0
LINE
  5
CB
330
1F
100
AcDbEntity
  8
0
  6
HIDDEN
 62
     7
370
     0
100
AcDbLine
 10
208.4334976657
 20
114.9446820601
 30
0.0
 11
210.4319594486
 21
114.8661622539
 31
0.0
  0
LINE
  5
CC
330
1F
100
AcDbEntity
  8
0
  6
HIDDEN
 62
     7
370
     0
100
AcDbLine
 10
208.4629423602
 20
115.6941038317
 30
0.0
 11
210.4614041431
 21
115.6155840255
 31
0.0
  0
LINE
  5
CD
330
1F
100
AcDbEntity
  8
0
  6
HIDDEN
 62
     7
370
     0
100
AcDbLine
 10
208.4040529712
 20
114.1952602885
 30
0.0
 11
210.4025147541
 21
114.1167404823
 31
0.0
  0
LWPOLYLINE
  5
CE
330
1F
100
AcDbEntity
  8
0
  6
HIDDEN
 62
     7
370
     0
100
AcDbPolyline
 90
        6
 70
   128
 43
0.0
 10
210.3290296777
 20
101.8598043121
 10
210.3503010853
 20
101.3183594442
 10
210.3686965688
 20
100.8500401623
 10
210.3817425354
 20
100.5180949106
 10
210.387665747
 20
100.367354764
 10
210.3879190667
 20
100.3609603032
  0
LWPOLYLINE
  5
CF
330
1F
100
AcDbEntity
  8
0
  6
HIDDEN
 62
     7
370
     0
100
AcDbPolyline
 90
        6
 70
   128
 43
0.0
 10
210.2701328381
 20
103.3586478553
 10
210.2703861578
 20
103.3522538602
 10
210.2763093694
 20
103.2015141792
 10
210.289355336
 20
102.8695684619
 10
210.3077508195
 20
102.4012491799
 10
210.3290296777
 20
101.8598043121
  0
LWPOLYLINE
  5
D0
330
1F
100
AcDbEntity
  8
0
  6
HIDDEN
 62
     7
370
     0
100
AcDbPolyline
 90
        6
 70
   128
 43
0.0
 10
204.9950919731
 20
101.6502334497
 10
205.0163633807
 20
101.1087885819
 10
205.0347588642
 20
100.6404688343
 10
205.0478048308
 20
100.3085240483
 10
205.0537280424
 20
100.1577839016
 10
205.0539813622
 20
100.1513894408
  0
LWPOLYLINE
  5
D1
330
1F
100
AcDbEntity
  8
0
  6
HIDDEN
 62
     7
370
     0
100
AcDbPolyline
 90
        6
 70
   128
 43
0.0
 10
204.9361951335
 20
103.149076993
 10
204.9364484532
 20
103.1426829978
 10
204.9423716648
 20
102.9919428512
 10
204.9554176314
 20
102.6599975995
 10
204.9738131149
 20
102.1916778519
 10
204.9950919731
 20
101.6502334497
  0
LWPOLYLINE
  5
D2
330
1F
100
AcDbEntity
  8
0
  6
HIDDEN
 62
     7
370
     0
100
AcDbPolyline
 90
        5
 70
   128
 43
0.0
 10
204.4954709395
 20
101.6306034982
 10
204.5104987605
 20
101.2482150219
 10
204.5232318028
 20
100.9240416571
 10
204.5317478164
 20
100.7074360497
 10
204.5347354992
 20
100.6313744693
  0
LWPOLYLINE
  5
D3
330
1F
100
AcDbEntity
  8
0
  6
HIDDEN
 62
     7
370
     0
100
AcDbPolyline
 90
        5
 70
   128
 43
0.0
 10
204.4562138303
 20
102.629832527
 10
204.4592015131
 20
102.553770481
 10
204.4677100761
 20
102.3371648736
 10
204.480450569
 20
102.0129919745
 10
204.4954709395
 20
101.6306034982
  0
LWPOLYLINE
  5
D4
330
1F
100
AcDbEntity
  8
0
  6
HIDDEN
 62
     7
370
     0
100
AcDbPolyline
 90
        4
 70
   128
 43
0.0
 10
210.4429714068
 20
103.0847221374
 10
210.4466147407
 20
102.9919647373
 10
210.4569933994
 20
102.7278141811
 10
210.4614041431
 20
102.6155842229
  0
LINE
  5
D5
330
1F
100
AcDbEntity
  8
0
  6
HIDDEN
 62
     7
370
     0
100
AcDbLine
 10
208.4923870547
 20
101.787642645
 30
0.0
 11
210.4908488377
 21
101.8661624513
 31
0.0
  0
LINE
  5
D6
330
1F
100
AcDbEntity
  8
0
  6
HIDDEN
 62
     7
370
     0
100
AcDbLine
 10
208.5218317493
 20
101.0382208734
 30
0.0
 11
208.4923870547
 21
101.787642645
 31
0.0
  0
LINE
  5
D7
330
1F
100
AcDbEntity
  8
0
  6
HIDDEN
 62
     7
370
     0
100
AcDbLine
 10
208.4629423602
 20
102.5370644167
 30
0.0
 11
208.4923870547
 21
101.787642645
 31
0.0
  0
LINE
  5
D8
330
1F
100
AcDbEntity
  8
0
  6
HIDDEN
 62
     7
370
     0
100
AcDbLine
 10
208.4629423602
 20
102.5370644167
 30
0.0
 11
210.4614041431
 21
102.6155842229
 31
0.0
  0
LINE
  5
D9
330
1F
100
AcDbEntity
  8
0
  6
HIDDEN
 62
     7
370
     0
100
AcDbLine
 10
208.5218317493
 20
101.0382208734
 30
0.0
 11
210.5202935322
 21
101.1167406797
 31
0.0
  0
LINE
  5
DA
330
1F
100
AcDbEntity
  8
0
  6
HIDDEN
 62
     7
370
     0
100
AcDbLine
 10
173.5614016338
 20
105.865005473
 30
0.0
 11
173.5614016338
 21
110.8650053612
 31
0.0
  0
LINE
  5
DB
330
1F
100
AcDbEntity
  8
0
  6
HIDDEN
 62
     7
370
     0
100
AcDbLine
 10
162.3614020331
 20
105.865005473
 30
0.0
 11
162.3614020331
 21
110.8650053612
 31
0.0
  0
LINE
  5
DC
330
1F
100
AcDbEntity
  8
0
  6
HIDDEN
 62
     7
370
     0
100
AcDbLine
 10
161.9614027126
 20
106.265005492
 30
0.0
 11
161.9614027126
 21
110.4650053422
 31
0.0
  0
LINE
  5
DD
330
1F
100
AcDbEntity
  8
0
  6
HIDDEN
 62
     7
370
     0
100
AcDbLine
 10
175.9614050074
 20
107.3650053696
 30
0.0
 11
174.9614029809
 21
107.3650053696
 31
0.0
  0
LINE
  5
DE
330
1F
100
AcDbEntity
  8
0
  6
HIDDEN
 62
     7
370
     0
100
AcDbLine
 10
175.9614050074
 20
106.265005492
 30
0.0
 11
175.9614050074
 21
107.3650053696
 31
0.0
  0
LINE
  5
DF
330
1F
100
AcDbEntity
  8
0
  6
HIDDEN
 62
     7
370
     0
100
AcDbLine
 10
175.9614050074
 20
109.3650054646
 30
0.0
 11
175.9614050074
 21
110.4650053422
 31
0.0
  0
LINE
  5
E0
330
1F
100
AcDbEntity
  8
0
  6
HIDDEN
 62
     7
370
     0
100
AcDbLine
 10
174.9614029809
 20
109.3650054646
 30
0.0
 11
175.9614050074
 21
109.3650054646
 31
0.0
  0
LINE
  5
E1
330
1F
100
AcDbEntity
  8
0
  6
HIDDEN
 62
     7
370
     0
100
AcDbLine
 10
174.9614029809
 20
107.3650053696
 30
0.0
 11
174.9614029809
 21
109.3650054646
 31
0.0
  0
LINE
  5
E2
330
1F
100
AcDbEntity
  8
0
  6
HIDDEN
 62
     7
370
     0
100
AcDbLine
 10
171.9614043518
 20
108.3650054171
 30
0.0
 11
171.9614043518
 21
107.7400054311
 31
0.0
  0
LINE
  5
E3
330
1F
100
AcDbEntity
  8
0
  6
HIDDEN
 62
     7
370
     0
100
AcDbLine
 10
165.9614033683
 20
107.7400054311
 30
0.0
 11
165.9614033683
 21
108.3650054171
 31
0.0
  0
LINE
  5
E4
330
1F
100
AcDbEntity
  8
0
  6
HIDDEN
 62
     7
370
     0
100
AcDbLine
 10
171.9614043518
 20
108.3650054171
 30
0.0
 11
174.9614029809
 21
108.3650054171
 31
0.0
  0
LINE
  5
E5
330
1F
100
AcDbEntity
  8
0
  6
HIDDEN
 62
     7
370
     0
100
AcDbLine
 10
171.9614043518
 20
108.9900054031
 30
0.0
 11
171.9614043518
 21
108.3650054171
 31
0.0
  0
LINE
  5
E6
330
1F
100
AcDbEntity
  8
0
  6
HIDDEN
 62
     7
370
     0
100
AcDbLine
 10
165.9614033683
 20
108.3650054171
 30
0.0
 11
165.9614033683
 21
108.9900054031
 31
0.0
  0
LINE
  5
E7
330
1F
100
AcDbEntity
  8
0
  6
HIDDEN
 62
     7
370
     0
100
AcDbLine
 10
165.9614033683
 20
108.3650054171
 30
0.0
 11
161.9614027126
 21
108.3650054171
 31
0.0
  0
LINE
  5
E8
330
1F
100
AcDbEntity
  8
0
  6
HIDDEN
 62
     7
370
     0
100
AcDbLine
 10
165.9614033683
 20
108.9900054031
 30
0.0
 11
165.9614033683
 21
109.6150053892
 31
0.0
  0
LINE
  5
E9
330
1F
100
AcDbEntity
  8
0
  6
HIDDEN
 62
     7
370
     0
100
AcDbLine
 10
171.9614043518
 20
107.7400054311
 30
0.0
 11
171.9614043518
 21
107.1150054451
 31
0.0
  0
LINE
  5
EA
330
1F
100
AcDbEntity
  8
0
  6
HIDDEN
 62
     7
370
     0
100
AcDbLine
 10
165.9614033683
 20
107.1150054451
 30
0.0
 11
165.9614033683
 21
107.7400054311
 31
0.0
  0
LINE
  5
EB
330
1F
100
AcDbEntity
  8
0
  6
HIDDEN
 62
     7
370
     0
100
AcDbLine
 10
171.9614043518
 20
109.6150053892
 30
0.0
 11
171.9614043518
 21
108.9900054031
 31
0.0
  0
LINE
  5
EC
330
1F
100
AcDbEntity
  8
0
  6
HIDDEN
 62
     7
370
     0
100
AcDbLine
 10
171.9614043518
 20
107.1150054451
 30
0.0
 11
175.9614050074
 21
107.1150054451
 31
0.0
  0
LINE
  5
ED
330
1F
100
AcDbEntity
  8
0
  6
HIDDEN
 62
     7
370
     0
100
AcDbLine
 10
165.9614033683
 20
107.1150054451
 30
0.0
 11
161.9614027126
 21
107.1150054451
 31
0.0
  0
LINE
  5
EE
330
1F
100
AcDbEntity
  8
0
  6
HIDDEN
 62
     7
370
     0
100
AcDbLine
 10
165.9614033683
 20
109.6150053892
 30
0.0
 11
161.9614027126
 21
109.6150053892
 31
0.0
  0
LINE
  5
EF
330
1F
100
AcDbEntity
  8
0
  6
HIDDEN
 62
     7
370
     0
100
AcDbLine
 10
171.9614043518
 20
109.6150053892
 30
0.0
 11
175.9614050074
 21
109.6150053892
 31
0.0
  0
SPLINE
  5
F0
330
1F
100
AcDbEntity
  8
0
  6
HIDDEN
 62
     7
370
     0
100
AcDbSpline
210
0.0
220
0.0
230
1.0
 70
     8
 71
     3
 72
    80
 73
    76
 74
     0
 42
0.00000001
 43
0.00000001
 40
-0.03125
 40
-0.03125
 40
0.0
 40
0.0
 40
0.0312500000000002
 40
0.0312500000000002
 40
0.0468750000000002
 40
0.0468750000000002
 40
0.0625000000000001
 40
0.0625000000000001
 40
0.0937499999999999
 40
0.0937499999999999
 40
0.1249999999999997
 40
0.1249999999999997
 40
0.1562499999999995
 40
0.1562499999999995
 40
0.1874999999999993
 40
0.1874999999999993
 40
0.2187499999999991
 40
0.2187499999999991
 40
0.2499999999999989
 40
0.2499999999999989
 40
0.2812499999999987
 40
0.2812499999999987
 40
0.3124999999999984
 40
0.3124999999999984
 40
0.3281249999999985
 40
0.3281249999999985
 40
0.3437499999999986
 40
0.3437499999999986
 40
0.3749999999999986
 40
0.3749999999999986
 40
0.4062499999999987
 40
0.4062499999999987
 40
0.4218749999999989
 40
0.4218749999999989
 40
0.4374999999999991
 40
0.4374999999999991
 40
0.4687499999999993
 40
0.4687499999999993
 40
0.4999999999999994
 40
0.4999999999999994
 40
0.5312499999999997
 40
0.5312499999999997
 40
0.5624999999999998
 40
0.5624999999999998
 40
0.59375
 40
0.59375
 40
0.6250000000000001
 40
0.6250000000000001
 40
0.6562500000000003
 40
0.6562500000000003
 40
0.6875000000000006
 40
0.6875000000000006
 40
0.7031250000000007
 40
0.7031250000000007
 40
0.7187500000000007
 40
0.7187500000000007
 40
0.7500000000000003
 40
0.7500000000000003
 40
0.78125
 40
0.78125
 40
0.7968749999999998
 40
0.7968749999999998
 40
0.8124999999999997
 40
0.8124999999999997
 40
0.8437499999999998
 40
0.8437499999999998
 40
0.8749999999999998
 40
0.8749999999999998
 40
0.9062499999999999
 40
0.9062499999999999
 40
0.9375
 40
0.9375
 40
0.96875
 40
0.96875
 40
1.0
 40
1.0
 40
1.03125
 40
1.03125
 10
134.1308579363023
 20
157.2245546735962
 30
0.0
 10
134.7919485618549
 20
157.2245546735962
 30
0.0
 10
135.1169286911065
 20
157.2176565277694
 30
0.0
 10
135.5964021023529
 20
157.1971300997889
 30
0.0
 10
135.7548839201937
 20
157.1885738727013
 30
0.0
 10
136.069103452698
 20
157.1678474974836
 30
0.0
 10
136.2252237363784
 20
157.1556201972773
 30
0.0
 10
136.679277765335
 20
157.114050903448
 30
0.0
 10
136.9663811482748
 20
157.0797066183503
 30
0.0
 10
137.5097357043019
 20
156.996382494028
 30
0.0
 10
137.7668393155074
 20
156.9469442712535
 30
0.0
 10
138.2277455704462
 20
156.8355645414936
 30
0.0
 10
138.4346432796612
 20
156.7732700279815
 30
0.0
 10
138.8001685936534
 20
156.6333403851104
 30
0.0
 10
138.9553741157793
 20
156.5567244873614
 30
0.0
 10
139.204804502379
 20
156.3927658675057
 30
0.0
 10
139.3008944581642
 20
156.30420901341
 30
0.0
 10
139.4294133073578
 20
156.1167283313042
 30
0.0
 10
139.4612241775356
 20
156.0194918698497
 30
0.0
 10
139.4615808273088
 20
155.8178592305227
 30
0.0
 10
139.4290835751118
 20
155.7123104386845
 30
0.0
 10
139.3014581013973
 20
155.502195655996
 30
0.0
 10
139.2070297003454
 20
155.397130148027
 30
0.0
 10
139.0191688803598
 20
155.240252440776
 30
0.0
 10
138.9483408815567
 20
155.1878187070702
 30
0.0
 10
138.7936189895914
 20
155.0853802614405
 30
0.0
 10
138.709642519408
 20
155.0352325327887
 30
0.0
 10
138.4383188497635
 20
154.8882165763552
 30
0.0
 10
138.2317696311612
 20
154.7947287559207
 30
0.0
 10
137.7651594909722
 20
154.6189418983064
 30
0.0
 10
137.5127939213467
 20
154.5395634232227
 30
0.0
 10
137.106892579668
 20
154.4340809857286
 30
0.0
 10
136.9669919621905
 20
154.4011954208885
 30
0.0
 10
136.6777680269436
 20
154.3402799416598
 30
0.0
 10
136.5279285706544
 20
154.3121993700174
 30
0.0
 10
136.0738120010435
 20
154.2373973279746
 30
0.0
 10
135.7621607823067
 20
154.1993592697285
 30
0.0
 10
135.1211643173943
 20
154.1477473432043
 30
0.0
 10
134.7896366894421
 20
154.1344334096829
 30
0.0
 10
134.1368456443707
 20
154.1343363233548
 30
0.0
 10
133.8123094393389
 20
154.1471244085159
 30
0.0
 10
133.1670399899224
 20
154.1986145981118
 30
0.0
 10
132.8512969837597
 20
154.2371391774319
 30
0.0
 10
132.249407688776
 20
154.3360417402899
 30
0.0
 10
131.9586584579646
 20
154.3971458382149
 30
0.0
 10
131.4117466662801
 20
154.5389552713256
 30
0.0
 10
131.1599693024431
 20
154.6182897559048
 30
0.0
 10
130.698581309822
 20
154.7916685005663
 30
0.0
 10
130.4873120302239
 20
154.8868284453203
 30
0.0
 10
130.1240076778477
 20
155.0834009686962
 30
0.0
 10
129.9702010294049
 20
155.1851571971026
 30
0.0
 10
129.7815815598075
 20
155.3419431598881
 30
0.0
 10
129.7255510735984
 20
155.3951971936381
 30
0.0
 10
129.6299773118622
 20
155.5010017551908
 30
0.0
 10
129.5902143948373
 20
155.5536548195464
 30
0.0
 10
129.4944426445251
 20
155.7107285390055
 30
0.0
 10
129.461719805399
 20
155.8142535743327
 30
0.0
 10
129.4610912190699
 20
156.0184683085598
 30
0.0
 10
129.4932773638047
 20
156.1159721461446
 30
0.0
 10
129.5881880656603
 20
156.2552991964962
 30
0.0
 10
129.6276548490592
 20
156.3006159280007
 30
0.0
 10
129.7225848477801
 20
156.3890557489895
 30
0.0
 10
129.7783416755435
 20
156.4323099994495
 30
0.0
 10
129.9662817935134
 20
156.5562014740394
 30
0.0
 10
130.1196432632296
 20
156.6319037648135
 30
0.0
 10
130.4819074981099
 20
156.7711581362717
 30
0.0
 10
130.6927559715758
 20
156.8349199778004
 30
0.0
 10
131.1534259418947
 20
156.9464168172682
 30
0.0
 10
131.4048003214785
 20
156.9949428895849
 30
0.0
 10
131.9507082083767
 20
157.0789968729653
 30
0.0
 10
132.2415307830279
 20
157.1137954266321
 30
0.0
 10
132.8428573978079
 20
157.1689918913958
 30
0.0
 10
133.1573759824203
 20
157.1898097401498
 30
0.0
 10
133.8039574385403
 20
157.2176570730605
 30
0.0
 10
134.1308579363023
 20
157.2245546735962
 30
0.0
 10
134.7919485618549
 20
157.2245546735962
 30
0.0
  0
LINE
  5
F1
330
1F
100
AcDbEntity
  8
0
  6
HIDDEN
 62
     7
370
     0
100
AcDbLine
 10
142.1993747039
 20
147.3159665003
 30
0.0
 11
142.1993747039
 21
139.7150071099
 31
0.0
  0
LINE
  5
F2
330
1F
100
AcDbEntity
  8
0
  6
HIDDEN
 62
     7
370
     0
100
AcDbLine
 10
105.8748271002
 20
71.629198803
 30
0.0
 11
105.6048720761
 21
71.6052712634
 31
0.0
  0
SPLINE
  5
F3
330
1F
100
AcDbEntity
  8
0
  6
HIDDEN
 62
     7
370
     0
100
AcDbSpline
210
0.0
220
0.0
230
1.0
 70
     8
 71
     3
 72
    13
 73
     9
 74
     0
 42
0.00000001
 43
0.00000001
 40
0.0
 40
0.0
 40
0.0
 40
0.0
 40
0.1247122110153692
 40
0.2490589593365458
 40
0.3740779090298711
 40
0.5009710337636518
 40
0.7521756045195616
 40
0.9999999999999999
 40
0.9999999999999999
 40
0.9999999999999999
 40
0.9999999999999999
 10
103.9807088358935
 20
145.2963115408517
 30
0.0
 10
103.9864946060149
 20
145.2955359212559
 30
0.0
 10
103.9980491913574
 20
145.2939869549774
 30
0.0
 10
104.0950629849608
 20
145.2817660282798
 30
0.0
 10
104.2503562836287
 20
145.2628422116235
 30
0.0
 10
104.5405428972785
 20
145.2288699034127
 30
0.0
 10
105.028070055717
 20
145.1723414433276
 30
0.0
 10
105.5937924552648
 20
145.124537300652
 30
0.0
 10
105.8747376932438
 20
145.1007971301176
 30
0.0
  0
SPLINE
  5
F4
330
1F
100
AcDbEntity
  8
0
  6
HIDDEN
 62
     7
370
     0
100
AcDbSpline
210
0.0
220
0.0
230
1.0
 70
     8
 71
     3
 72
    15
 73
    11
 74
     0
 42
0.00000001
 43
0.00000001
 40
0.0
 40
0.0
 40
0.0
 40
0.0
 40
0.1285821426710073
 40
0.2571635607496992
 40
0.3853235406184768
 40
0.5113778076015207
 40
0.636926046588634
 40
0.7643185585868897
 40
0.893060358186539
 40
1.0
 40
1.0
 40
1.0
 40
1.0
 10
115.7146086602147
 20
76.99868322754872
 30
0.0
 10
115.329086533071
 20
77.06048899270873
 30
0.0
 10
114.5580444512966
 20
77.18410017473785
 30
0.0
 10
112.7794867879553
 20
77.37484963700442
 30
0.0
 10
110.785675526522
 20
77.4624960179266
 30
0.0
 10
108.7616379013626
 20
77.4155921145708
 30
0.0
 10
106.9335294125086
 20
77.25534098605993
 30
0.0
 10
105.502098457681
 20
77.0541634008786
 30
0.0
 10
104.5982132090469
 20
76.89161767285444
 30
0.0
 10
104.5356305719857
 20
76.87921800924607
 30
0.0
 10
104.5072339160975
 20
76.87359170461667
 30
0.0
  0
SPLINE
  5
F5
330
1F
100
AcDbEntity
  8
0
  6
HIDDEN
 62
     7
370
     0
100
AcDbSpline
210
0.0
220
0.0
230
1.0
 70
     8
 71
     3
 72
    16
 73
    12
 74
     0
 42
0.00000001
 43
0.00000001
 40
0.0
 40
0.0
 40
0.0
 40
0.0
 40
0.0205567972010308
 40
0.1461296555129789
 40
0.2720439735959893
 40
0.3999540038647748
 40
0.5285040859845025
 40
0.6552455845570215
 40
0.7805595113940985
 40
0.907037898122843
 40
1.0
 40
1.0
 40
1.0
 40
1.0
 10
104.5072339160975
 20
139.8564191296197
 30
0.0
 10
104.4925666344489
 20
139.8591648257359
 30
0.0
 10
104.3883030765778
 20
139.8786828286459
 30
0.0
 10
104.8390829673418
 20
139.7923167141032
 30
0.0
 10
105.8523212740547
 20
139.6211796108477
 30
0.0
 10
107.4466504318121
 20
139.4176384777129
 30
0.0
 10
109.3731498281007
 20
139.2852477467704
 30
0.0
 10
111.4196416778309
 20
139.2814526597194
 30
0.0
 10
113.3328013698212
 20
139.404227322419
 30
0.0
 10
114.8175095689789
 20
139.5860446187009
 30
0.0
 10
115.4476575540014
 20
139.6880955326214
 30
0.0
 10
115.7146086602147
 20
139.7313276066877
 30
0.0
  0
SPLINE
  5
F6
330
1F
100
AcDbEntity
  8
0
  6
HIDDEN
 62
     7
370
     0
100
AcDbSpline
210
0.0
220
0.0
230
1.0
 70
     8
 71
     3
 72
     9
 73
     5
 74
     0
 42
0.00000001
 43
0.00000001
 40
0.0
 40
0.0
 40
0.0
 40
0.0
 40
0.6612138034944072
 40
0.9999999999999999
 40
0.9999999999999999
 40
0.9999999999999999
 40
0.9999999999999999
 10
115.7146086602147
 20
139.7313276066877
 30
0.0
 10
116.0061104388327
 20
139.7751131594007
 30
0.0
 10
116.4469690190339
 20
139.8413331210555
 30
0.0
 10
116.3955558741936
 20
139.8335269034093
 30
0.0
 10
116.3781378104027
 20
139.8308822646238
 30
0.0
  0
SPLINE
  5
F7
330
1F
100
AcDbEntity
  8
0
  6
HIDDEN
 62
     7
370
     0
100
AcDbSpline
210
0.0
220
0.0
230
1.0
 70
     8
 71
     3
 72
     9
 73
     5
 74
     0
 42
0.00000001
 43
0.00000001
 40
0.0
 40
0.0
 40
0.0
 40
0.0
 40
0.3224752079099513
 40
1.0
 40
1.0
 40
1.0
 40
1.0
 10
116.3781378104027
 20
76.89912856961263
 30
0.0
 10
116.3967794463636
 20
76.89636050137116
 30
0.0
 10
116.454587412693
 20
76.88777668415489
 30
0.0
 10
116.0134739603211
 20
76.95388989089663
 30
0.0
 10
115.7146086602147
 20
76.99868322754872
 30
0.0
  0
LINE
  5
F8
330
1F
100
AcDbEntity
  8
0
  6
HIDDEN
 62
     7
370
     0
100
AcDbLine
 10
95.458026944
 20
81.86500573
 30
0.0
 11
95.458026944
 21
134.8650051042
 31
0.0
  0
LINE
  5
F9
330
1F
100
AcDbEntity
  8
0
  6
HIDDEN
 62
     7
370
     0
100
AcDbLine
 10
134.7454804613
 20
81.86500573
 30
0.0
 11
134.7454804613
 21
134.8650051042
 31
0.0
  0
LINE
  5
FA
330
1F
100
AcDbEntity
  8
0
  6
HIDDEN
 62
     7
370
     0
100
AcDbLine
 10
137.9114035203
 20
83.4900052979
 30
0.0
 11
137.9114035203
 21
133.2400055363
 31
0.0
  0
SPLINE
  5
FB
330
1F
100
AcDbEntity
  8
0
  6
HIDDEN
 62
     7
370
     0
100
AcDbSpline
210
0.0
220
0.0
230
1.0
 70
     8
 71
     3
 72
    20
 73
    16
 74
     0
 42
0.00000001
 43
0.00000001
 40
0.0
 40
0.0
 40
0.0
 40
0.0
 40
0.2499999999999978
 40
0.2499999999999978
 40
0.3749999999999982
 40
0.3749999999999982
 40
0.4999999999999986
 40
0.4999999999999986
 40
0.6249999999999989
 40
0.6249999999999989
 40
0.7499999999999992
 40
0.7499999999999992
 40
0.8749999999999997
 40
0.8749999999999997
 40
1.0
 40
1.0
 40
1.0
 40
1.0
 10
85.66140324907857
 20
133.5935190475325
 30
0.0
 10
85.66140324907859
 20
133.5143160610002
 30
0.0
 10
85.61442075386584
 20
133.4332198425973
 30
0.0
 10
85.47659916308827
 20
133.3130231508464
 30
0.0
 10
85.42031687917829
 20
133.2740964468443
 30
0.0
 10
85.28723202771106
 20
133.1989077144199
 30
0.0
 10
85.20939208547802
 20
133.1622655090779
 30
0.0
 10
85.03675972936365
 20
133.0946749762461
 30
0.0
 10
84.94236673227256
 20
133.0637167944705
 30
0.0
 10
84.73692942595743
 20
133.0081923731008
 30
0.0
 10
84.62458318597025
 20
132.9834838592676
 30
0.0
 10
84.39234232207063
 20
132.9436876321594
 30
0.0
 10
84.27163167964791
 20
132.9282677947623
 30
0.0
 10
84.02056082037888
 20
132.9071878199227
 30
0.0
 10
83.8910388239631
 20
132.9017105749017
 30
0.0
 10
83.76140324907857
 20
132.9017105749017
 30
0.0
  0
LINE
  5
FC
330
1F
100
AcDbEntity
  8
0
  6
HIDDEN
 62
     7
370
     0
100
AcDbLine
 10
83.7614014431
 20
132.9017100617
 30
0.0
 11
77.2114023252
 21
132.9017100617
 31
0.0
  0
LINE
  5
FD
330
1F
100
AcDbEntity
  8
0
  6
HIDDEN
 62
     7
370
     0
100
AcDbLine
 10
77.2114023252
 20
83.8283007726
 30
0.0
 11
88.7614041253
 21
83.8283007726
 31
0.0
  0
SPLINE
  5
FE
330
1F
100
AcDbEntity
  8
0
  6
HIDDEN
 62
     7
370
     0
100
AcDbSpline
210
0.0
220
0.0
230
1.0
 70
     8
 71
     3
 72
    18
 73
    14
 74
     0
 42
0.00000001
 43
0.00000001
 40
0.0
 40
0.0
 40
0.0
 40
0.0
 40
0.1249999999999982
 40
0.1249999999999982
 40
0.2499999999999964
 40
0.2499999999999964
 40
0.4999999999999988
 40
0.4999999999999988
 40
0.7500000000000011
 40
0.7500000000000011
 40
0.8750000000000006
 40
0.8750000000000006
 40
1.0
 40
1.0
 40
1.0
 40
1.0
 10
88.76140324907858
 20
83.82830025933468
 30
0.0
 10
88.89087056203579
 20
83.82830025933468
 30
0.0
 10
89.01788131093242
 20
83.82294726074205
 30
0.0
 10
89.26724463212967
 20
83.80220928805326
 30
0.0
 10
89.39086828675812
 20
83.78653738379897
 30
0.0
 10
89.73990062369217
 20
83.72684265539688
 30
0.0
 10
89.95041238849895
 20
83.6690774757159
 30
0.0
 10
90.29432906619847
 20
83.5345556344384
 30
0.0
 10
90.43067946771627
 20
83.456886520933
 30
0.0
 10
90.5677175242788
 20
83.33759538684565
 30
0.0
 10
90.60293654299171
 20
83.29667637771061
 30
0.0
 10
90.64956011993027
 20
83.21602038442057
 30
0.0
 10
90.66140324907859
 20
83.17605186422772
 30
0.0
 10
90.66140324907857
 20
83.1364917867039
 30
0.0
  0
LINE
  5
FF
330
1F
100
AcDbEntity
  8
0
  6
HIDDEN
 62
     7
370
     0
100
AcDbLine
 10
77.2114023252
 20
83.8283007726
 30
0.0
 11
77.2114023252
 21
132.9017100617
 31
0.0
  0
LWPOLYLINE
  5
100
330
1F
100
AcDbEntity
  8
0
  6
HIDDEN
 62
     7
370
     0
100
AcDbPolyline
 90
       15
 70
   128
 43
0.0
 10
134.4614028616
 20
148.3087377384
 10
135.4678962066
 20
148.3503641322
 10
136.4331822528
 20
148.4735483065
 10
137.3177440523
 20
148.6732462182
 10
138.0853671266
 20
148.9412771299
 10
138.7046249269
 20
149.2666737869
 10
139.1501640587
 20
149.6361108258
 10
139.4037445693
 20
150.034463568
 10
139.4549859374
 20
150.4454226925
 10
139.3017889618
 20
150.8521685138
 10
138.9504261001
 20
151.2380415335
 10
138.4152816294
 20
151.5872502461
 10
137.7182658448
 20
151.8854932621
 10
136.8879126071
 20
152.1205628052
 10
136.8386158405
 20
152.131544961
  0
LWPOLYLINE
  5
101
330
1F
100
AcDbEntity
  8
0
  6
HIDDEN
 62
     7
370
     0
100
AcDbPolyline
 90
       15
 70
   128
 43
0.0
 10
132.0401178359
 20
152.1217399969
 10
132.0348935819
 20
152.1205628052
 10
131.2045408099
 20
151.8854932621
 10
130.5075245595
 20
151.5872502461
 10
129.9723805546
 20
151.2380415335
 10
129.6210176929
 20
150.8521685138
 10
129.4678207173
 20
150.4454226925
 10
129.5190616197
 20
150.034463568
 10
129.7726425959
 20
149.6361108258
 10
130.2181821934
 20
149.2666737869
 10
130.837439528
 20
148.9412771299
 10
131.6050621367
 20
148.6732462182
 10
132.4896239361
 20
148.4735483065
 10
133.4549104481
 20
148.3503641322
 10
134.4614028616
 20
148.3087377384
  0
LINE
  5
102
330
1F
100
AcDbEntity
  8
0
  6
HIDDEN
 62
     7
370
     0
100
AcDbLine
 10
77.2114023252
 20
80.995005159
 30
0.0
 11
77.2114023252
 21
76.1167207494
 31
0.0
  0
LINE
  5
103
330
1F
100
AcDbEntity
  8
0
  6
HIDDEN
 62
     7
370
     0
100
AcDbLine
 10
90.6614027603
 20
80.995005159
 30
0.0
 11
90.6614027603
 21
74.4956718519
 31
0.0
  0
LINE
  5
104
330
1F
100
AcDbEntity
  8
0
  6
HIDDEN
 62
     7
370
     0
100
AcDbLine
 10
85.6614038034
 20
135.7350056752
 30
0.0
 11
85.6614038034
 21
142.1096125379
 31
0.0
  0
LINE
  5
105
330
1F
100
AcDbEntity
  8
0
  6
HIDDEN
 62
     7
370
     0
100
AcDbLine
 10
77.2114023252
 20
135.7350056752
 30
0.0
 11
77.2114023252
 21
140.6132900848
 31
0.0
  0
LINE
  5
106
330
1F
100
AcDbEntity
  8
0
  6
HIDDEN
 62
     7
370
     0
100
AcDbLine
 10
149.7614029481
 20
95.3650051489
 30
0.0
 11
149.7614029481
 21
121.3650056853
 31
0.0
  0
LINE
  5
107
330
1F
100
AcDbEntity
  8
0
  6
HIDDEN
 62
     7
370
     0
100
AcDbLine
 10
153.7614036037
 20
95.3650051489
 30
0.0
 11
153.7614036037
 21
121.3650056853
 31
0.0
  0
LINE
  5
108
330
1F
100
AcDbEntity
  8
0
  6
HIDDEN
 62
     7
370
     0
100
AcDbLine
 10
138.6614031776
 20
97.1150049701
 30
0.0
 11
138.6614031776
 21
119.6150058642
 31
0.0
  0
ELLIPSE
  5
109
330
1F
100
AcDbEntity
  8
0
  6
HIDDEN
 62
     7
370
     0
100
AcDbEllipse
 10
69.2767300488
 20
108.3650054171
 30
0.0
 11
31.08108570811662
 21
1.421085471520200E-14
 31
0.0
210
0.0
220
0.0
230
1.0
 40
0.8164965809
 41
1.312649268214811
 42
1.367189972061495
  0
ELLIPSE
  5
10A
330
1F
100
AcDbEntity
  8
0
  6
HIDDEN
 62
     7
370
     0
100
AcDbEllipse
 10
69.2767300488
 20
108.3650054171
 30
0.0
 11
31.08108570811662
 21
-1.421085471520200E-14
 31
0.0
210
0.0
220
0.0
230
1.0
 40
0.8164965809
 41
4.915995335118103
 42
4.970536038964787
  0
LINE
  5
10B
330
1F
100
AcDbEntity
  8
0
  6
HIDDEN
 62
     7
370
     0
100
AcDbLine
 10
154.4114034309
 20
64.465003623
 30
0.0
 11
140.4114029987
 21
64.465003623
 31
0.0
  0
LINE
  5
10C
330
1F
100
AcDbEntity
  8
0
  6
HIDDEN
 62
     7
370
     0
100
AcDbLine
 10
130.4114032223
 20
58.3750070765
 30
0.0
 11
130.4114032223
 21
64.465003623
 31
0.0
  0
LINE
  5
10D
330
1F
100
AcDbEntity
  8
0
  6
HIDDEN
 62
     7
370
     0
100
AcDbLine
 10
140.4114029987
 20
64.465003623
 30
0.0
 11
130.4114032223
 21
64.465003623
 31
0.0
  0
LINE
  5
10E
330
1F
100
AcDbEntity
  8
0
  6
HIDDEN
 62
     7
370
     0
100
AcDbLine
 10
90.6614027603
 20
80.995005159
 30
0.0
 11
90.6614027603
 21
83.1364920124
 31
0.0
  0
LINE
  5
10F
330
1F
100
AcDbEntity
  8
0
  6
HIDDEN
 62
     7
370
     0
100
AcDbLine
 10
77.2114023252
 20
80.995005159
 30
0.0
 11
77.2114023252
 21
83.8283007726
 31
0.0
  0
LINE
  5
110
330
1F
100
AcDbEntity
  8
0
  6
HIDDEN
 62
     7
370
     0
100
AcDbLine
 10
85.6614038034
 20
135.7350056752
 30
0.0
 11
85.6614038034
 21
133.5935188218
 31
0.0
  0
LINE
  5
111
330
1F
100
AcDbEntity
  8
0
  6
HIDDEN
 62
     7
370
     0
100
AcDbLine
 10
77.2114023252
 20
135.7350056752
 30
0.0
 11
77.2114023252
 21
132.9017100617
 31
0.0
  0
LINE
  5
112
330
1F
100
AcDbEntity
  8
0
  6
HIDDEN
 62
     7
370
     0
100
AcDbLine
 10
140.4114029987
 20
152.2650072112
 30
0.0
 11
130.4114032223
 21
152.2650072112
 31
0.0
  0
LINE
  5
113
330
1F
100
AcDbEntity
  8
0
  6
HIDDEN
 62
     7
370
     0
100
AcDbLine
 10
154.4114034309
 20
152.2650072112
 30
0.0
 11
140.4114029987
 21
152.2650072112
 31
0.0
  0
SPLINE
  5
114
330
1F
100
AcDbEntity
  8
0
  6
HIDDEN
 62
     7
370
     0
100
AcDbSpline
210
0.0
220
0.0
230
1.0
 70
     8
 71
     3
 72
    30
 73
    26
 74
     0
 42
0.00000001
 43
0.00000001
 40
0.0
 40
0.0
 40
0.0
 40
0.0
 40
0.0531143892141372
 40
0.1124969175964388
 40
0.1778960980153451
 40
0.2129211463139609
 40
0.2494753336156178
 40
0.2912423576535066
 40
0.3260856965230675
 40
0.3540016474705506
 40
0.3749874932376934
 40
0.4414470525488064
 40
0.5001663479152026
 40
0.5546826314619672
 40
0.6144284501710053
 40
0.6794557146264573
 40
0.7140136763663015
 40
0.749911635106847
 40
0.7913773593358966
 40
0.826045245799477
 40
0.8539116642078098
 40
0.8749736136310873
 40
0.9411619798898111
 40
0.9999141552597255
 40
1.0
 40
1.0
 40
1.0
 40
1.0
 10
116.4608932717379
 20
71.26509265447629
 30
0.0
 10
116.4447027710921
 20
71.26999038168546
 30
0.0
 10
116.4104110952591
 20
71.28036382704391
 30
0.0
 10
116.1091293752638
 20
71.35601191580768
 30
0.0
 10
115.6669640693711
 20
71.45229858499229
 30
0.0
 10
115.1721314659468
 20
71.55195991853749
 30
0.0
 10
114.7016555666467
 20
71.64424044314276
 30
0.0
 10
114.1707340011199
 20
71.73987037677018
 30
0.0
 10
113.6325833811759
 20
71.82551995300865
 30
0.0
 10
113.1745364444189
 20
71.8928141722369
 30
0.0
 10
112.5189716318627
 20
71.98115697241089
 30
0.0
 10
111.6356657876268
 20
72.07782122147755
 30
0.0
 10
110.5070034251519
 20
72.16459274285012
 30
0.0
 10
109.4172418914161
 20
72.2026739488394
 30
0.0
 10
108.321213706788
 20
72.20452470417973
 30
0.0
 10
107.4158224657756
 20
72.17836285225046
 30
0.0
 10
106.7195189983381
 20
72.1417566150716
 30
0.0
 10
106.1928413995388
 20
72.10273807459177
 30
0.0
 10
105.726192679481
 20
72.06052980825609
 30
0.0
 10
105.3549802608366
 20
72.02352540431347
 30
0.0
 10
105.100930303374
 20
71.994824141345
 30
0.0
 10
104.7998826893937
 20
71.95844373079943
 30
0.0
 10
104.5443488904257
 20
71.9256469337718
 30
0.0
 10
104.4452509791306
 20
71.90936023980649
 30
0.0
 10
104.4614525372692
 20
71.91191852703477
 30
0.0
 10
104.4614761753615
 20
71.91192225957883
 30
0.0
  0
SPLINE
  5
115
330
1F
100
AcDbEntity
  8
0
  6
HIDDEN
 62
     7
370
     0
100
AcDbSpline
210
0.0
220
0.0
230
1.0
 70
     8
 71
     3
 72
    30
 73
    26
 74
     0
 42
0.00000001
 43
0.00000001
 40
0.0
 40
0.0
 40
0.0
 40
0.0
 40
0.0001254835699577
 40
0.0285558967284646
 40
0.0588590554499076
 40
0.0910391611870244
 40
0.1250996020527298
 40
0.1546877661553531
 40
0.1963660119013078
 40
0.2501200116998904
 40
0.3205343493251304
 40
0.3856185560231448
 40
0.4454111202159503
 40
0.4999637378186839
 40
0.5283556694129056
 40
0.5586398564209504
 40
0.5908239862153283
 40
0.6249144186380485
 40
0.6541890100425206
 40
0.6958670262305003
 40
0.7499340263605754
 40
0.8215928690836966
 40
0.8871437735479022
 40
0.9466385700541734
 40
1.0
 40
1.0
 40
1.0
 40
1.0
 10
104.4615097029741
 20
144.8180140688516
 30
0.0
 10
104.4614741712542
 20
144.8180215471102
 30
0.0
 10
104.453388330802
 20
144.8197233506335
 30
0.0
 10
104.4820217542104
 20
144.8143678561286
 30
0.0
 10
104.5554213381399
 20
144.8037832165949
 30
0.0
 10
104.6990756271014
 20
144.7841101408833
 30
0.0
 10
104.9001112106256
 20
144.7592658571377
 30
0.0
 10
105.1827433330728
 20
144.7250563256471
 30
0.0
 10
105.5961507230948
 20
144.6813819631158
 30
0.0
 10
106.2724386375624
 20
144.6183371971095
 30
0.0
 10
107.2108702691425
 20
144.5570375700051
 30
0.0
 10
108.3203630063177
 20
144.5257476554889
 30
0.0
 10
109.417843410895
 20
144.5274095629411
 30
0.0
 10
110.3178749394545
 20
144.5587063876957
 30
0.0
 10
111.0292156717423
 20
144.6055483464471
 30
0.0
 10
111.594633265909
 20
144.6527076878041
 30
0.0
 10
112.1835558036475
 20
144.712154774371
 30
0.0
 10
112.7479659020581
 20
144.7785057353937
 30
0.0
 10
113.3421621903108
 20
144.8604261958935
 30
0.0
 10
114.0087695365533
 20
144.9620783190489
 30
0.0
 10
114.8101031566721
 20
145.1042112141586
 30
0.0
 10
115.5626130227778
 20
145.2554562255875
 30
0.0
 10
116.107898824153
 20
145.3733121456987
 30
0.0
 10
116.4106203421112
 20
145.4495354170854
 30
0.0
 10
116.4449114308931
 20
145.4599899155686
 30
0.0
 10
116.461125171059
 20
145.4649330809213
 30
0.0
  0
LINE
  5
116
330
1F
100
AcDbEntity
  8
0
  6
HIDDEN
 62
     7
370
     0
100
AcDbLine
 10
206.9614045008
 20
105.365005391
 30
0.0
 11
206.9614045008
 21
111.3650054432
 31
0.0
  0
SPLINE
  5
117
330
1F
100
AcDbEntity
  8
0
  6
HIDDEN
 62
     7
370
     0
100
AcDbSpline
210
0.0
220
0.0
230
1.0
 70
     8
 71
     3
 72
    12
 73
     8
 74
     0
 42
0.00000001
 43
0.00000001
 40
0.0
 40
0.0
 40
0.0
 40
0.0
 40
0.1993113489975516
 40
0.3980864915772419
 40
0.6103020475714739
 40
0.8336392893173437
 40
1.0
 40
1.0
 40
1.0
 40
1.0
 10
175.9614050074156
 20
111.3043931073941
 30
0.0
 10
176.1200100852787
 20
111.3121596937906
 30
0.0
 10
176.4367935464834
 20
111.3276719721715
 30
0.0
 10
176.8656591264069
 20
111.4339755346652
 30
0.0
 10
177.2104930657584
 20
111.5545072975286
 30
0.0
 10
177.4312583831744
 20
111.6511463708755
 30
0.0
 10
177.4428429670528
 20
111.6565704084938
 30
0.0
 10
177.4477883859213
 20
111.6588859114296
 30
0.0
  0
LINE
  5
118
330
1F
100
AcDbEntity
  8
0
  6
HIDDEN
 62
     7
370
     0
100
AcDbLine
 10
176.1244572385
 20
111.3172523438
 30
0.0
 11
175.802454321
 21
111.3110117841
 31
0.0
  0
SPLINE
  5
119
330
1F
100
AcDbEntity
  8
0
  6
HIDDEN
 62
     7
370
     0
100
AcDbSpline
210
0.0
220
0.0
230
1.0
 70
     8
 71
     3
 72
    13
 73
     9
 74
     0
 42
0.00000001
 43
0.00000001
 40
0.0
 40
0.0
 40
0.0
 40
0.0
 40
0.1102027721033382
 40
0.303626364250723
 40
0.506001652189975
 40
0.725117784368178
 40
0.9454801297532398
 40
0.9999999999999999
 40
0.9999999999999999
 40
0.9999999999999999
 40
0.9999999999999999
 10
174.4808219059046
 20
111.656225122834
 30
0.0
 10
174.4777304355569
 20
111.6576054799436
 30
0.0
 10
174.4692129374583
 20
111.6614085858233
 30
0.0
 10
174.6185279845531
 20
111.5945890341816
 30
0.0
 10
174.9005275696936
 20
111.484385931119
 30
0.0
 10
175.3156306699778
 20
111.3628089695332
 30
0.0
 10
175.7002028156501
 20
111.3079565846846
 30
0.0
 10
175.9181730115852
 20
111.304982904265
 30
0.0
 10
175.9614050074156
 20
111.3043931073941
 30
0.0
  0
SPLINE
  5
11A
330
1F
100
AcDbEntity
  8
0
  6
HIDDEN
 62
     7
370
     0
100
AcDbSpline
210
0.0
220
0.0
230
1.0
 70
     8
 71
     3
 72
    17
 73
    13
 74
     0
 42
0.00000001
 43
0.00000001
 40
0.0
 40
0.0
 40
0.0
 40
0.0
 40
0.1002334484059124
 40
0.2002657803612201
 40
0.3055838459185561
 40
0.4172380908879606
 40
0.5227402477478171
 40
0.6183418438130377
 40
0.7161996735814204
 40
0.8240711885025036
 40
0.9353049629490053
 40
1.0
 40
1.0
 40
1.0
 40
1.0
 10
177.4614043219622
 20
105.0650054349996
 30
0.0
 10
177.446434806131
 20
105.0719470087755
 30
0.0
 10
177.416525810509
 20
105.0858162281956
 30
0.0
 10
177.185268789312
 20
105.1846388269697
 30
0.0
 10
176.8341987293537
 20
105.3072274632784
 30
0.0
 10
176.3707977981854
 20
105.4116237106158
 30
0.0
 10
175.8659256752087
 20
105.437651694558
 30
0.0
 10
175.3989632048313
 20
105.3822541356361
 30
0.0
 10
174.9892306230745
 20
105.2757021533151
 30
0.0
 10
174.665470997765
 20
105.155943415118
 30
0.0
 10
174.4761118239098
 20
105.0717649934675
 30
0.0
 10
174.479152428652
 20
105.0730534572257
 30
0.0
 10
174.4802705629404
 20
105.073527269388
 30
0.0
  0
LINE
  5
11B
330
1F
100
AcDbEntity
  8
0
  6
HIDDEN
 62
     7
370
     0
100
AcDbLine
 10
173.9614046796
 20
105.465005454
 30
0.0
 11
173.9614046796
 21
111.2650053802
 31
0.0
  0
LINE
  5
11C
330
1F
100
AcDbEntity
  8
0
  6
HIDDEN
 62
     7
370
     0
100
AcDbLine
 10
188.4614042624
 20
105.365005391
 30
0.0
 11
188.4614042624
 21
111.3650054432
 31
0.0
  0
LINE
  5
11D
330
1F
100
AcDbEntity
  8
0
  6
HIDDEN
 62
     7
370
     0
100
AcDbLine
 10
169.9114031776
 20
95.942355296
 30
0.0
 11
164.9114042206
 21
95.942355296
 31
0.0
  0
LINE
  5
11E
330
1F
100
AcDbEntity
  8
0
  6
HIDDEN
 62
     7
370
     0
100
AcDbLine
 10
167.4114018364
 20
120.7876555383
 30
0.0
 11
169.9114031776
 21
120.7876555383
 31
0.0
  0
LINE
  5
11F
330
1F
100
AcDbEntity
  8
0
  6
HIDDEN
 62
     7
370
     0
100
AcDbLine
 10
164.9114042206
 20
120.7876555383
 30
0.0
 11
167.4114018364
 21
120.7876555383
 31
0.0
  0
LINE
  5
120
330
1F
100
AcDbEntity
  8
0
  6
HIDDEN
 62
     7
370
     0
100
AcDbLine
 10
167.4114018364
 20
113.3650053054
 30
0.0
 11
169.9114031776
 21
113.3650053054
 31
0.0
  0
LINE
  5
121
330
1F
100
AcDbEntity
  8
0
  6
HIDDEN
 62
     7
370
     0
100
AcDbLine
 10
164.9114042206
 20
113.3650053054
 30
0.0
 11
167.4114018364
 21
113.3650053054
 31
0.0
  0
LINE
  5
122
330
1F
100
AcDbEntity
  8
0
  6
HIDDEN
 62
     7
370
     0
100
AcDbLine
 10
157.6610579773
 20
105.865005473
 30
0.0
 11
157.6610579773
 21
110.8650053612
 31
0.0
  0
LINE
  5
123
330
1F
100
AcDbEntity
  8
0
  6
HIDDEN
 62
     7
370
     0
100
AcDbLine
 10
157.9014025314
 20
106.265005492
 30
0.0
 11
157.9014025314
 21
110.4650053422
 31
0.0
  0
LINE
  5
124
330
1F
100
AcDbEntity
  8
0
  6
HIDDEN
 62
     7
370
     0
100
AcDbLine
 10
169.9114031776
 20
103.3650055289
 30
0.0
 11
164.9114042206
 21
103.3650055289
 31
0.0
  0
SPLINE
  5
125
330
1F
100
AcDbEntity
  8
0
  6
HIDDEN
 62
     7
370
     0
100
AcDbSpline
210
0.0
220
0.0
230
1.0
 70
     8
 71
     3
 72
    19
 73
    15
 74
     0
 42
0.00000001
 43
0.00000001
 40
0.0
 40
0.0
 40
0.0
 40
0.0
 40
0.0838019664389631
 40
0.1672279674164043
 40
0.2833472545133519
 40
0.4019419785933828
 40
0.4680631033749904
 40
0.5348546828827349
 40
0.5919406357787806
 40
0.692371994538133
 40
0.7989708919623605
 40
0.8954356893173896
 40
0.9925523783569817
 40
1.0
 40
1.0
 40
1.0
 40
1.0
 10
177.4614043219622
 20
114.9106142803527
 30
0.0
 10
177.4531689713171
 20
114.9207723333638
 30
0.0
 10
177.4367352167422
 20
114.9410428667431
 30
0.0
 10
177.3054087734407
 20
115.1068332601781
 30
0.0
 10
177.1049552073689
 20
115.3769905796978
 30
0.0
 10
176.9017667717174
 20
115.706359416304
 30
0.0
 10
176.7897571363439
 20
116.0343384732879
 30
0.0
 10
176.785332228597
 20
116.3068555450443
 30
0.0
 10
176.8763660815125
 20
116.6039124581574
 30
0.0
 10
177.0516659248089
 20
116.8989257590601
 30
0.0
 10
177.2590469985178
 20
117.1718726170281
 30
0.0
 10
177.4082103780633
 20
117.351049910966
 30
0.0
 10
177.4739405549876
 20
117.4271884900834
 30
0.0
 10
177.459233206094
 20
117.4100100434809
 30
0.0
 10
177.4581856711443
 20
117.4087865039207
 30
0.0
  0
SPLINE
  5
126
330
1F
100
AcDbEntity
  8
0
  6
HIDDEN
 62
     7
370
     0
100
AcDbSpline
210
0.0
220
0.0
230
1.0
 70
     8
 71
     3
 72
     9
 73
     5
 74
     0
 42
0.00000001
 43
0.00000001
 40
0.0
 40
0.0
 40
0.0
 40
0.0
 40
0.8686285602896757
 40
1.0
 40
1.0
 40
1.0
 40
1.0
 10
174.4669899030264
 20
117.41217931206
 30
0.0
 10
174.4739287139362
 20
117.4129260982842
 30
0.0
 10
174.4819169510574
 20
117.4137858285054
 30
0.0
 10
174.5286046077215
 20
117.4355803608896
 30
0.0
 10
174.5347380323942
 20
117.4384435399867
 30
0.0
  0
SPLINE
  5
127
330
1F
100
AcDbEntity
  8
0
  6
HIDDEN
 62
     7
370
     0
100
AcDbSpline
210
0.0
220
0.0
230
1.0
 70
     8
 71
     3
 72
    18
 73
    14
 74
     0
 42
0.00000001
 43
0.00000001
 40
0.0
 40
0.0
 40
0.0
 40
0.0
 40
0.0436851088332768
 40
0.1331061491881607
 40
0.2286361511543318
 40
0.3424060024630194
 40
0.480037909534596
 40
0.5477351457338261
 40
0.6156935242477435
 40
0.7077712642560721
 40
0.8521770786239387
 40
0.9725050595967498
 40
1.0
 40
1.0
 40
1.0
 40
1.0
 10
174.4719296379621
 20
115.0407330825425
 30
0.0
 10
174.4695749181837
 20
115.0379886276442
 30
0.0
 10
174.4624002151672
 20
115.0296264229272
 30
0.0
 10
174.5342123877758
 20
115.1133211811516
 30
0.0
 10
174.6716704200731
 20
115.27947405473
 30
0.0
 10
174.8783092724525
 20
115.5525380336278
 30
0.0
 10
175.0710829538662
 20
115.8733106684143
 30
0.0
 10
175.1444971798947
 20
116.205395481239
 30
0.0
 10
175.114664243902
 20
116.4903619869236
 30
0.0
 10
174.9712688389957
 20
116.8285698648904
 30
0.0
 10
174.7546190559449
 20
117.1522449512928
 30
0.0
 10
174.6001879528088
 20
117.3551461436722
 30
0.0
 10
174.5450024837338
 20
117.4253800852756
 30
0.0
 10
174.5347380323942
 20
117.4384435399867
 30
0.0
  0
LINE
  5
128
330
1F
100
AcDbEntity
  8
0
  6
HIDDEN
 62
     7
370
     0
100
AcDbLine
 10
177.461404322
 20
119.0650058671
 30
0.0
 11
174.4614019676
 21
119.0650058671
 31
0.0
  0
LWPOLYLINE
  5
129
330
1F
100
AcDbEntity
  8
0
  6
HIDDEN
 62
     7
370
     0
100
AcDbPolyline
 90
       14
 70
   128
 43
0.0
 10
177.4581856711
 20
99.3212243303
 10
177.4289868458
 20
99.3553153932
 10
177.3322820349
 20
99.4708170875
 10
177.1318427904
 20
99.7287515312
 10
176.912091641
 20
100.0814014807
 10
176.8150664552
 20
100.339796929
 10
176.7913661583
 20
100.5787128344
 10
176.8333390041
 20
100.8137255668
 10
176.9840530737
 20
101.1487311445
 10
177.2351860686
 20
101.5272546321
 10
177.3868016584
 20
101.7258195899
 10
177.4543150945
 20
101.8105946242
 10
177.461404322
 20
101.8193965539
 10
177.461404322
 20
101.8193965539
  0
LINE
  5
12A
330
1F
100
AcDbEntity
  8
0
  6
HIDDEN
 62
     7
370
     0
100
AcDbLine
 10
175.9614050074
 20
97.8650055587
 30
0.0
 11
177.461404322
 21
97.8650055587
 31
0.0
  0
LINE
  5
12B
330
1F
100
AcDbEntity
  8
0
  6
HIDDEN
 62
     7
370
     0
100
AcDbLine
 10
174.4614019676
 20
97.8650055587
 30
0.0
 11
175.9614050074
 21
97.8650055587
 31
0.0
  0
SPLINE
  5
12C
330
1F
100
AcDbEntity
  8
0
  6
HIDDEN
 62
     7
370
     0
100
AcDbSpline
210
0.0
220
0.0
230
1.0
 70
     8
 71
     3
 72
     9
 73
     5
 74
     0
 42
0.00000001
 43
0.00000001
 40
0.0
 40
0.0
 40
0.0
 40
0.0
 40
0.9127673271160514
 40
1.0
 40
1.0
 40
1.0
 40
1.0
 10
174.5347380323942
 20
99.29156729424966
 30
0.0
 10
174.4914252937007
 20
99.30807649496737
 30
0.0
 10
174.4439731803232
 20
99.3261634709439
 30
0.0
 10
174.4651431867784
 20
99.31850002504561
 30
0.0
 10
174.4669899030264
 20
99.31783152217639
 30
0.0
  0
SPLINE
  5
12D
330
1F
100
AcDbEntity
  8
0
  6
HIDDEN
 62
     7
370
     0
100
AcDbSpline
210
0.0
220
0.0
230
1.0
 70
     8
 71
     3
 72
    17
 73
    13
 74
     0
 42
0.00000001
 43
0.00000001
 40
0.0
 40
0.0
 40
0.0
 40
0.0
 40
0.123662614826962
 40
0.2464323009844133
 40
0.3531988397086193
 40
0.4234331925014755
 40
0.4941242683456663
 40
0.5801599251714109
 40
0.714061005708777
 40
0.8512841883969273
 40
0.947321311311905
 40
1.0
 40
1.0
 40
1.0
 40
1.0
 10
174.5347380323942
 20
99.29156729424966
 30
0.0
 10
174.5883853894848
 20
99.36028646614777
 30
0.0
 10
174.6952927330507
 20
99.49722861051606
 30
0.0
 10
174.910270480187
 20
99.80634418666973
 30
0.0
 10
175.0728324069091
 20
100.1157867836052
 30
0.0
 10
175.144303143455
 20
100.4149382895985
 30
0.0
 10
175.1180884141132
 20
100.7001985268146
 30
0.0
 10
174.980558614657
 20
101.0225005712468
 30
0.0
 10
174.7568977439972
 20
101.3447520552087
 30
0.0
 10
174.5632936616046
 20
101.5826614560871
 30
0.0
 10
174.4658584948781
 20
101.6963685484967
 30
0.0
 10
174.4703416111986
 20
101.6911324889225
 30
0.0
 10
174.4719296379621
 20
101.6892777516939
 30
0.0
  0
LWPOLYLINE
  5
12E
330
1F
100
AcDbEntity
  8
0
  6
HIDDEN
 62
     7
370
     0
100
AcDbPolyline
 90
        8
 70
   128
 43
0.0
 10
174.4400821312
 20
101.7006883159
 10
174.443852125
 20
101.6047201812
 10
174.4545846863
 20
101.3315623387
 10
174.4706295116
 20
100.9231908939
 10
174.489524184
 20
100.4423588275
 10
174.5083592518
 20
99.9629549443
 10
174.5242438896
 20
99.5586482569
 10
174.5347380324
 20
99.2915672942
  0
LWPOLYLINE
  5
12F
330
1F
100
AcDbEntity
  8
0
  6
HIDDEN
 62
     7
370
     0
100
AcDbPolyline
 90
        8
 70
   128
 43
0.0
 10
174.4400821312
 20
115.0293225184
 10
174.443852125
 20
115.1252906531
 10
174.4545846863
 20
115.3984484955
 10
174.4706295116
 20
115.8068199403
 10
174.489524184
 20
116.2876520067
 10
174.5083592518
 20
116.7670558899
 10
174.5242438896
 20
117.1713625773
 10
174.5347380324
 20
117.43844354
  0
LWPOLYLINE
  5
130
330
1F
100
AcDbEntity
  8
0
  6
HIDDEN
 62
     7
370
     0
100
AcDbPolyline
 90
       32
 70
   128
 43
0.0
 10
134.4614028616
 20
153.6777117982
 10
135.4678962066
 20
153.6460840836
 10
136.4331822528
 20
153.5524936154
 10
137.3177440523
 20
153.4007737174
 10
138.0853671266
 20
153.1971381738
 10
138.7046249269
 20
152.949920459
 10
139.1501640587
 20
152.6692421868
 10
139.4037445693
 20
152.3665958777
 10
139.4549859374
 20
152.0543681219
 10
139.3017889618
 20
151.745347841
 10
138.9504261001
 20
151.4521786704
 10
138.4152816294
 20
151.1868709459
 10
137.7182658448
 20
150.9602801635
 10
136.8879126071
 20
150.7816860213
 10
135.9582189156
 20
150.6584012642
 10
134.9672451301
 20
150.5954699352
 10
133.9555615245
 20
150.5954699352
 10
132.964587739
 20
150.6584012642
 10
132.0348935819
 20
150.7816860213
 10
131.2045408099
 20
150.9602801635
 10
130.5075245595
 20
151.1868709459
 10
129.9723805546
 20
151.4521786704
 10
129.6210176929
 20
151.745347841
 10
129.4678207173
 20
152.0543681219
 10
129.5190616197
 20
152.3665958777
 10
129.7726425959
 20
152.6692421868
 10
130.2181821934
 20
152.949920459
 10
130.837439528
 20
153.1971381738
 10
131.6050621367
 20
153.4007737174
 10
132.4896239361
 20
153.5524936154
 10
133.4549104481
 20
153.6460840836
 10
134.4614028616
 20
153.6777117982
  0
LINE
  5
131
330
1F
100
AcDbEntity
  8
0
  6
HIDDEN
 62
     7
370
     0
100
AcDbLine
 10
148.7234327628
 20
147.3159665003
 30
0.0
 11
148.7234327628
 21
139.7150071099
 31
0.0
  0
LINE
  5
132
330
1F
100
AcDbEntity
  8
0
  6
HIDDEN
 62
     7
370
     0
100
AcDbLine
 10
147.3714038415
 20
143.0792422726
 30
0.0
 11
147.3714038415
 21
139.7150071099
 31
0.0
  0
LINE
  5
133
330
1F
100
AcDbEntity
  8
0
  6
HIDDEN
 62
     7
370
     0
100
AcDbLine
 10
143.5514036252
 20
143.0792422726
 30
0.0
 11
143.5514036252
 21
139.7150071099
 31
0.0
  0
CIRCLE
  5
134
330
1F
100
AcDbEntity
  8
0
  6
HIDDEN
 62
     7
370
     0
100
AcDbCircle
 10
132.4614032491
 20
108.3650054171
 30
0.0
 40
5.0
  0
LINE
  5
135
330
1F
100
AcDbEntity
  8
0
  6
HIDDEN
 62
     7
370
     0
100
AcDbLine
 10
210.3290296777
 20
116.3713639363
 30
0.0
 11
204.9950919731
 21
116.5809347987
 31
0.0
  0
LINE
  5
136
330
1F
100
AcDbEntity
  8
0
  6
HIDDEN
 62
     7
370
     0
100
AcDbLine
 10
204.8773057445
 20
113.5832477122
 30
0.0
 11
210.211243449
 21
113.3736768499
 31
0.0
  0
LINE
  5
137
330
1F
100
AcDbEntity
  8
0
  6
HIDDEN
 62
     7
370
     0
100
AcDbLine
 10
204.9950919731
 20
116.5809347987
 30
0.0
 11
204.4758461102
 21
116.1009502358
 31
0.0
  0
LINE
  5
138
330
1F
100
AcDbEntity
  8
0
  6
HIDDEN
 62
     7
370
     0
100
AcDbLine
 10
204.3973244412
 20
114.1024921782
 30
0.0
 11
204.8773057445
 21
113.5832477122
 31
0.0
  0
LINE
  5
139
330
1F
100
AcDbEntity
  8
0
  6
HIDDEN
 62
     7
370
     0
100
AcDbLine
 10
210.211243449
 20
113.3736768499
 30
0.0
 11
210.3840820177
 21
113.6476025678
 31
0.0
  0
LINE
  5
13A
330
1F
100
AcDbEntity
  8
0
  6
HIDDEN
 62
     7
370
     0
100
AcDbLine
 10
210.4614041431
 20
116.1197564326
 30
0.0
 11
210.3290296777
 21
116.3713639363
 31
0.0
  0
LINE
  5
13B
330
1F
100
AcDbEntity
  8
0
  6
HIDDEN
 62
     7
370
     0
100
AcDbLine
 10
210.2701328381
 20
103.3586478553
 30
0.0
 11
204.9361951335
 21
103.149076993
 31
0.0
  0
LINE
  5
13C
330
1F
100
AcDbEntity
  8
0
  6
HIDDEN
 62
     7
370
     0
100
AcDbLine
 10
205.0539813622
 20
100.1513894408
 30
0.0
 11
210.3879190667
 21
100.3609603032
 31
0.0
  0
LINE
  5
13D
330
1F
100
AcDbEntity
  8
0
  6
HIDDEN
 62
     7
370
     0
100
AcDbLine
 10
204.9361951335
 20
103.149076993
 30
0.0
 11
204.4562138303
 21
102.629832527
 31
0.0
  0
LINE
  5
13E
330
1F
100
AcDbEntity
  8
0
  6
HIDDEN
 62
     7
370
     0
100
AcDbLine
 10
204.5347354992
 20
100.6313744693
 30
0.0
 11
205.0539813622
 21
100.1513894408
 31
0.0
  0
LINE
  5
13F
330
1F
100
AcDbEntity
  8
0
  6
HIDDEN
 62
     7
370
     0
100
AcDbLine
 10
210.3879190667
 20
100.3609603032
 30
0.0
 11
210.4614041431
 21
100.500637269
 31
0.0
  0
LINE
  5
140
330
1F
100
AcDbEntity
  8
0
  6
HIDDEN
 62
     7
370
     0
100
AcDbLine
 10
210.4429714068
 20
103.0847221374
 30
0.0
 11
210.2701328381
 21
103.3586478553
 31
0.0
  0
LINE
  5
141
330
1F
100
AcDbEntity
  8
0
  6
HIDDEN
 62
     7
370
     0
100
AcDbLine
 10
173.5614016338
 20
105.865005473
 30
0.0
 11
173.9614046796
 21
106.265005492
 31
0.0
  0
LINE
  5
142
330
1F
100
AcDbEntity
  8
0
  6
HIDDEN
 62
     7
370
     0
100
AcDbLine
 10
173.9614046796
 20
110.4650053422
 30
0.0
 11
173.5614016338
 21
110.8650053612
 31
0.0
  0
LINE
  5
143
330
1F
100
AcDbEntity
  8
0
  6
HIDDEN
 62
     7
370
     0
100
AcDbLine
 10
162.3614020331
 20
105.865005473
 30
0.0
 11
173.5614016338
 21
105.865005473
 31
0.0
  0
LINE
  5
144
330
1F
100
AcDbEntity
  8
0
  6
HIDDEN
 62
     7
370
     0
100
AcDbLine
 10
173.5614016338
 20
110.8650053612
 30
0.0
 11
162.3614020331
 21
110.8650053612
 31
0.0
  0
LINE
  5
145
330
1F
100
AcDbEntity
  8
0
  6
HIDDEN
 62
     7
370
     0
100
AcDbLine
 10
162.3614020331
 20
110.8650053612
 30
0.0
 11
161.9614027126
 21
110.4650053422
 31
0.0
  0
LINE
  5
146
330
1F
100
AcDbEntity
  8
0
  6
HIDDEN
 62
     7
370
     0
100
AcDbLine
 10
161.9614027126
 20
106.265005492
 30
0.0
 11
162.3614020331
 21
105.865005473
 31
0.0
  0
LINE
  5
147
330
1F
100
AcDbEntity
  8
0
  6
HIDDEN
 62
     7
370
     0
100
AcDbLine
 10
173.9614046796
 20
106.265005492
 30
0.0
 11
175.9614050074
 21
106.265005492
 31
0.0
  0
LINE
  5
148
330
1F
100
AcDbEntity
  8
0
  6
HIDDEN
 62
     7
370
     0
100
AcDbLine
 10
175.9614050074
 20
110.4650053422
 30
0.0
 11
173.9614046796
 21
110.4650053422
 31
0.0
  0
LINE
  5
149
330
1F
100
AcDbEntity
  8
0
  6
HIDDEN
 62
     7
370
     0
100
AcDbLine
 10
165.9614033683
 20
107.1150054451
 30
0.0
 11
171.9614043518
 21
107.1150054451
 31
0.0
  0
LINE
  5
14A
330
1F
100
AcDbEntity
  8
0
  6
HIDDEN
 62
     7
370
     0
100
AcDbLine
 10
171.9614043518
 20
109.6150053892
 30
0.0
 11
165.9614033683
 21
109.6150053892
 31
0.0
  0
LINE
  5
14B
330
1F
100
AcDbEntity
  8
0
  6
HIDDEN
 62
     7
370
     0
100
AcDbLine
 10
125.4614032491
 20
68.960322602
 30
0.0
 11
125.5510048699
 21
69.597872509
 31
0.0
  0
LINE
  5
14C
330
1F
100
AcDbEntity
  8
0
  6
HIDDEN
 62
     7
370
     0
100
AcDbLine
 10
125.5510048699
 20
147.1321383252
 30
0.0
 11
125.4614032491
 21
147.7696882322
 31
0.0
  0
ARC
  5
14D
330
1F
100
AcDbEntity
  8
0
  6
HIDDEN
 62
     7
370
     0
100
AcDbCircle
 10
124.5644663306
 20
69.7365200927
 30
0.0
 40
0.996233821438679
100
AcDbArc
 50
352.0
 51
0.0
  0
ARC
  5
14E
330
1F
100
AcDbEntity
  8
0
  6
HIDDEN
 62
     7
370
     0
100
AcDbCircle
 10
124.5644663306
 20
69.7365200927
 30
0.0
 40
0.996233821438679
100
AcDbArc
 50
0.0
 51
25.7988228126
  0
ARC
  5
14F
330
1F
100
AcDbEntity
  8
0
  6
HIDDEN
 62
     7
370
     0
100
AcDbCircle
 10
124.5644663306
 20
146.9934907416
 30
0.0
 40
0.9962338214386799
100
AcDbArc
 50
348.75
 51
8.0
  0
LWPOLYLINE
  5
150
330
1F
100
AcDbEntity
  8
0
  6
HIDDEN
 62
     7
370
     0
100
AcDbPolyline
 90
        3
 70
   128
 43
0.0
 10
125.5415577957
 20
146.7991346254
 10
125.4848663679
 20
146.612247987
 10
125.4614032491
 20
146.5599188342
  0
LINE
  5
151
330
1F
100
AcDbEntity
  8
0
  6
HIDDEN
 62
     7
370
     0
100
AcDbLine
 10
125.5607001489
 20
69.7365203633
 30
0.0
 11
125.5607001489
 21
146.9934904709
 31
0.0
  0
ARC
  5
152
330
1F
100
AcDbEntity
  8
0
  6
HIDDEN
 62
     7
370
     0
100
AcDbCircle
 10
98.9221291912
 20
77.8650054171
 30
0.0
 40
1.0
100
AcDbArc
 50
210.0
 51
270.0
  0
ARC
  5
153
330
1F
100
AcDbEntity
  8
0
  6
HIDDEN
 62
     7
370
     0
100
AcDbCircle
 10
98.9221291912
 20
138.8650054171
 30
0.0
 40
1.0
100
AcDbArc
 50
90.0
 51
150.0
  0
LINE
  5
154
330
1F
100
AcDbEntity
  8
0
  6
HIDDEN
 62
     7
370
     0
100
AcDbLine
 10
98.922129689
 20
76.8650049105
 30
0.0
 11
104.5072339161
 21
76.8650049105
 31
0.0
  0
LINE
  5
155
330
1F
100
AcDbEntity
  8
0
  6
HIDDEN
 62
     7
370
     0
100
AcDbLine
 10
104.5072339161
 20
139.8650059238
 30
0.0
 11
98.922129689
 21
139.8650059238
 31
0.0
  0
ARC
  5
156
330
1F
100
AcDbEntity
  8
0
  6
HIDDEN
 62
     7
370
     0
100
AcDbCircle
 10
115.7146089043
 20
88.8650054171
 30
0.0
 40
12.0
100
AcDbArc
 50
273.1714795387
 51
324.3146652873
  0
ARC
  5
157
330
1F
100
AcDbEntity
  8
0
  6
HIDDEN
 62
     7
370
     0
100
AcDbCircle
 10
115.7146089043
 20
127.8650054171
 30
0.0
 40
11.99999999999999
100
AcDbArc
 50
35.6853347127
 51
86.8223321216
  0
LINE
  5
158
330
1F
100
AcDbEntity
  8
0
  6
HIDDEN
 62
     7
370
     0
100
AcDbLine
 10
98.0561040028
 20
139.3650049105
 30
0.0
 11
95.458026944
 21
134.8650051042
 31
0.0
  0
LINE
  5
159
330
1F
100
AcDbEntity
  8
0
  6
HIDDEN
 62
     7
370
     0
100
AcDbLine
 10
95.458026944
 20
81.86500573
 30
0.0
 11
98.0561040028
 21
77.3650059238
 31
0.0
  0
ARC
  5
15A
330
1F
100
AcDbEntity
  8
0
  6
HIDDEN
 62
     7
370
     0
100
AcDbCircle
 10
135.9114032491
 20
83.4900054171
 30
0.0
 40
2.000000000000015
100
AcDbArc
 50
234.3409123039
 51
0.0
  0
ARC
  5
15B
330
1F
100
AcDbEntity
  8
0
  6
HIDDEN
 62
     7
370
     0
100
AcDbCircle
 10
135.9114032491
 20
133.2400054171
 30
0.0
 40
2.000000000000003
100
AcDbArc
 50
0.0
 51
125.6590876961
  0
LINE
  5
15C
330
1F
100
AcDbEntity
  8
0
  6
HIDDEN
 62
     7
370
     0
100
AcDbLine
 10
90.6614027603
 20
81.86500573
 30
0.0
 11
95.458026944
 21
81.86500573
 31
0.0
  0
LINE
  5
15D
330
1F
100
AcDbEntity
  8
0
  6
HIDDEN
 62
     7
370
     0
100
AcDbLine
 10
95.458026944
 20
134.8650051042
 30
0.0
 11
85.6614038034
 21
134.8650051042
 31
0.0
  0
LINE
  5
15E
330
1F
100
AcDbEntity
  8
0
  6
HIDDEN
 62
     7
370
     0
100
AcDbLine
 10
125.4614032491
 20
81.86500573
 30
0.0
 11
134.7454804613
 21
81.86500573
 31
0.0
  0
LINE
  5
15F
330
1F
100
AcDbEntity
  8
0
  6
HIDDEN
 62
     7
370
     0
100
AcDbLine
 10
134.7454804613
 20
134.8650051042
 30
0.0
 11
125.4614032491
 21
134.8650051042
 31
0.0
  0
LINE
  5
160
330
1F
100
AcDbEntity
  8
0
  6
HIDDEN
 62
     7
370
     0
100
AcDbLine
 10
129.4614034391
 20
154.0420675411
 30
0.0
 11
129.4614034391
 21
150.3424184158
 31
0.0
  0
LINE
  5
161
330
1F
100
AcDbEntity
  8
0
  6
HIDDEN
 62
     7
370
     0
100
AcDbLine
 10
139.4614036812
 20
150.3424184158
 30
0.0
 11
139.4614036812
 21
154.0365578368
 31
0.0
  0
LINE
  5
162
330
1F
100
AcDbEntity
  8
0
  6
HIDDEN
 62
     7
370
     0
100
AcDbLine
 10
149.7614029481
 20
95.3650051489
 30
0.0
 11
153.7614036037
 21
95.3650051489
 31
0.0
  0
LINE
  5
163
330
1F
100
AcDbEntity
  8
0
  6
HIDDEN
 62
     7
370
     0
100
AcDbLine
 10
153.7614036037
 20
121.3650056853
 30
0.0
 11
149.7614029481
 21
121.3650056853
 31
0.0
  0
LINE
  5
164
330
1F
100
AcDbEntity
  8
0
  6
HIDDEN
 62
     7
370
     0
100
AcDbLine
 10
137.9114035203
 20
96.3650053128
 30
0.0
 11
138.6614031776
 21
97.1150049701
 31
0.0
  0
LINE
  5
165
330
1F
100
AcDbEntity
  8
0
  6
HIDDEN
 62
     7
370
     0
100
AcDbLine
 10
138.6614031776
 20
119.6150058642
 30
0.0
 11
137.9114035203
 21
120.3650055214
 31
0.0
  0
LINE
  5
166
330
1F
100
AcDbEntity
  8
0
  6
HIDDEN
 62
     7
370
     0
100
AcDbLine
 10
138.6614031776
 20
97.1150049701
 30
0.0
 11
149.7614029481
 21
97.1150049701
 31
0.0
  0
LINE
  5
167
330
1F
100
AcDbEntity
  8
0
  6
HIDDEN
 62
     7
370
     0
100
AcDbLine
 10
149.7614029481
 20
119.6150058642
 30
0.0
 11
138.6614031776
 21
119.6150058642
 31
0.0
  0
LINE
  5
168
330
1F
100
AcDbEntity
  8
0
  6
HIDDEN
 62
     7
370
     0
100
AcDbLine
 10
130.4114032223
 20
158.3650061622
 30
0.0
 11
130.4114032223
 21
152.2650072112
 31
0.0
  0
LINE
  5
169
330
1F
100
AcDbEntity
  8
0
  6
HIDDEN
 62
     7
370
     0
100
AcDbLine
 10
116.8941156624
 20
70.786724402
 30
0.0
 11
116.4614064305
 21
71.2649510934
 31
0.0
  0
LINE
  5
16A
330
1F
100
AcDbEntity
  8
0
  6
HIDDEN
 62
     7
370
     0
100
AcDbLine
 10
104.4614035322
 20
71.9119110837
 30
0.0
 11
103.9807758911
 21
71.4336881175
 31
0.0
  0
LINE
  5
16B
330
1F
100
AcDbEntity
  8
0
  6
HIDDEN
 62
     7
370
     0
100
AcDbLine
 10
103.9806585445
 20
145.2963189914
 30
0.0
 11
104.4614035322
 21
144.8180364206
 31
0.0
  0
LINE
  5
16C
330
1F
100
AcDbEntity
  8
0
  6
HIDDEN
 62
     7
370
     0
100
AcDbLine
 10
116.4614036365
 20
145.465011312
 30
0.0
 11
116.8942246272
 21
145.9432901576
 31
0.0
  0
LINE
  5
16D
330
1F
100
AcDbEntity
  8
0
  6
HIDDEN
 62
     7
370
     0
100
AcDbLine
 10
116.4614036365
 20
139.8308822646
 30
0.0
 11
116.4614036365
 21
145.4648585751
 31
0.0
  0
LINE
  5
16E
330
1F
100
AcDbEntity
  8
0
  6
HIDDEN
 62
     7
370
     0
100
AcDbLine
 10
104.4614035322
 20
144.81802897
 30
0.0
 11
104.4614035322
 21
139.856527163
 31
0.0
  0
LINE
  5
16F
330
1F
100
AcDbEntity
  8
0
  6
HIDDEN
 62
     7
370
     0
100
AcDbLine
 10
116.4614036365
 20
71.2650703027
 30
0.0
 11
116.4614036365
 21
76.8991285696
 31
0.0
  0
LINE
  5
170
330
1F
100
AcDbEntity
  8
0
  6
HIDDEN
 62
     7
370
     0
100
AcDbLine
 10
104.4614035322
 20
76.8734836712
 30
0.0
 11
104.4614035322
 21
71.9119520619
 31
0.0
  0
ARC
  5
171
330
1F
100
AcDbEntity
  8
0
  6
HIDDEN
 62
     7
370
     0
100
AcDbCircle
 10
209.9614032491
 20
104.328311169
 30
0.0
 40
0.5000000000000154
100
AcDbArc
 50
0.0
 51
80.0
  0
ARC
  5
172
330
1F
100
AcDbEntity
  8
0
  6
HIDDEN
 62
     7
370
     0
100
AcDbCircle
 10
209.9614032491
 20
112.4016996652
 30
0.0
 40
0.5000000000000154
100
AcDbArc
 50
280.0
 51
0.0
  0
LINE
  5
173
330
1F
100
AcDbEntity
  8
0
  6
HIDDEN
 62
     7
370
     0
100
AcDbLine
 10
210.0482247456
 20
111.9092957343
 30
0.0
 11
206.9614045008
 21
111.3650054432
 31
0.0
  0
LINE
  5
174
330
1F
100
AcDbEntity
  8
0
  6
HIDDEN
 62
     7
370
     0
100
AcDbLine
 10
206.9614045008
 20
105.365005391
 30
0.0
 11
210.0482247456
 21
104.8207150999
 31
0.0
  0
ARC
  5
175
330
1F
100
AcDbEntity
  8
0
  6
HIDDEN
 62
     7
370
     0
100
AcDbCircle
 10
187.566629231
 20
105.4650054171
 30
0.0
 40
0.4000000000000057
100
AcDbArc
 50
270.0
 51
290.0
  0
ARC
  5
176
330
1F
100
AcDbEntity
  8
0
  6
HIDDEN
 62
     7
370
     0
100
AcDbCircle
 10
187.566629231
 20
111.2650054171
 30
0.0
 40
0.3999999999999915
100
AcDbArc
 50
70.0
 51
90.0
  0
LINE
  5
177
330
1F
100
AcDbEntity
  8
0
  6
HIDDEN
 62
     7
370
     0
100
AcDbLine
 10
177.461404322
 20
105.065005435
 30
0.0
 11
187.5666305109
 21
105.065005435
 31
0.0
  0
LINE
  5
178
330
1F
100
AcDbEntity
  8
0
  6
HIDDEN
 62
     7
370
     0
100
AcDbLine
 10
174.3614040001
 20
105.065005435
 30
0.0
 11
174.4802705629
 21
105.065005435
 31
0.0
  0
LINE
  5
179
330
1F
100
AcDbEntity
  8
0
  6
HIDDEN
 62
     7
370
     0
100
AcDbLine
 10
174.4808219059
 20
111.6650053992
 30
0.0
 11
174.3614040001
 21
111.6650053992
 31
0.0
  0
LINE
  5
17A
330
1F
100
AcDbEntity
  8
0
  6
HIDDEN
 62
     7
370
     0
100
AcDbLine
 10
187.5666305109
 20
111.6650053992
 30
0.0
 11
177.4477883859
 21
111.6650053992
 31
0.0
  0
ARC
  5
17B
330
1F
100
AcDbEntity
  8
0
  6
HIDDEN
 62
     7
370
     0
100
AcDbCircle
 10
174.3614032491
 20
105.4650054171
 30
0.0
 40
0.4000000000000057
100
AcDbArc
 50
180.0
 51
270.0
  0
ARC
  5
17C
330
1F
100
AcDbEntity
  8
0
  6
HIDDEN
 62
     7
370
     0
100
AcDbCircle
 10
174.3614032491
 20
111.2650054171
 30
0.0
 40
0.3999999999999915
100
AcDbArc
 50
90.0
 51
180.0
  0
LINE
  5
17D
330
1F
100
AcDbEntity
  8
0
  6
HIDDEN
 62
     7
370
     0
100
AcDbLine
 10
187.7034380718
 20
105.0891283195
 30
0.0
 11
188.4614042624
 21
105.365005391
 31
0.0
  0
LINE
  5
17E
330
1F
100
AcDbEntity
  8
0
  6
HIDDEN
 62
     7
370
     0
100
AcDbLine
 10
188.4614042624
 20
111.3650054432
 30
0.0
 11
187.7034380718
 21
111.6408825147
 31
0.0
  0
LINE
  5
17F
330
1F
100
AcDbEntity
  8
0
  6
HIDDEN
 62
     7
370
     0
100
AcDbLine
 10
170.9114014788
 20
95.3650051489
 30
0.0
 11
169.9114031776
 21
95.942355296
 31
0.0
  0
LINE
  5
180
330
1F
100
AcDbEntity
  8
0
  6
HIDDEN
 62
     7
370
     0
100
AcDbLine
 10
164.9114042206
 20
95.942355296
 30
0.0
 11
163.9114021941
 21
95.3650051489
 31
0.0
  0
LINE
  5
181
330
1F
100
AcDbEntity
  8
0
  6
HIDDEN
 62
     7
370
     0
100
AcDbLine
 10
163.9114021941
 20
121.3650056853
 30
0.0
 11
164.9114042206
 21
120.7876555383
 31
0.0
  0
LINE
  5
182
330
1F
100
AcDbEntity
  8
0
  6
HIDDEN
 62
     7
370
     0
100
AcDbLine
 10
169.9114031776
 20
120.7876555383
 30
0.0
 11
170.9114014788
 21
121.3650056853
 31
0.0
  0
LINE
  5
183
330
1F
100
AcDbEntity
  8
0
  6
HIDDEN
 62
     7
370
     0
100
AcDbLine
 10
188.4614042624
 20
105.365005391
 30
0.0
 11
206.9614045008
 21
105.365005391
 31
0.0
  0
LINE
  5
184
330
1F
100
AcDbEntity
  8
0
  6
HIDDEN
 62
     7
370
     0
100
AcDbLine
 10
206.9614045008
 20
111.3650054432
 30
0.0
 11
188.4614042624
 21
111.3650054432
 31
0.0
  0
LINE
  5
185
330
1F
100
AcDbEntity
  8
0
  6
HIDDEN
 62
     7
370
     0
100
AcDbLine
 10
164.9114042206
 20
120.7876555383
 30
0.0
 11
164.9114042206
 21
113.3650053054
 31
0.0
  0
LINE
  5
186
330
1F
100
AcDbEntity
  8
0
  6
HIDDEN
 62
     7
370
     0
100
AcDbLine
 10
169.9114031776
 20
113.3650053054
 30
0.0
 11
169.9114031776
 21
120.7876555383
 31
0.0
  0
LINE
  5
187
330
1F
100
AcDbEntity
  8
0
  6
HIDDEN
 62
     7
370
     0
100
AcDbLine
 10
173.9614046796
 20
110.8650053612
 30
0.0
 11
173.5614016338
 21
110.4650053422
 31
0.0
  0
LINE
  5
188
330
1F
100
AcDbEntity
  8
0
  6
HIDDEN
 62
     7
370
     0
100
AcDbLine
 10
173.5614016338
 20
106.265005492
 30
0.0
 11
173.9614046796
 21
105.865005473
 31
0.0
  0
LINE
  5
189
330
1F
100
AcDbEntity
  8
0
  6
HIDDEN
 62
     7
370
     0
100
AcDbLine
 10
153.7614036037
 20
105.865005473
 30
0.0
 11
157.6610579773
 21
105.865005473
 31
0.0
  0
LINE
  5
18A
330
1F
100
AcDbEntity
  8
0
  6
HIDDEN
 62
     7
370
     0
100
AcDbLine
 10
157.6610579773
 20
110.8650053612
 30
0.0
 11
153.7614036037
 21
110.8650053612
 31
0.0
  0
LINE
  5
18B
330
1F
100
AcDbEntity
  8
0
  6
HIDDEN
 62
     7
370
     0
100
AcDbLine
 10
157.6610579773
 20
105.865005473
 30
0.0
 11
157.9014025314
 21
106.265005492
 31
0.0
  0
LINE
  5
18C
330
1F
100
AcDbEntity
  8
0
  6
HIDDEN
 62
     7
370
     0
100
AcDbLine
 10
157.9014025314
 20
110.4650053422
 30
0.0
 11
157.6610579773
 21
110.8650053612
 31
0.0
  0
LINE
  5
18D
330
1F
100
AcDbEntity
  8
0
  6
HIDDEN
 62
     7
370
     0
100
AcDbLine
 10
164.9114042206
 20
113.3650053054
 30
0.0
 11
167.4114018364
 21
111.8628539372
 31
0.0
  0
LINE
  5
18E
330
1F
100
AcDbEntity
  8
0
  6
HIDDEN
 62
     7
370
     0
100
AcDbLine
 10
167.4114018364
 20
111.8628539372
 30
0.0
 11
169.9114031776
 21
113.3650053054
 31
0.0
  0
LINE
  5
18F
330
1F
100
AcDbEntity
  8
0
  6
HIDDEN
 62
     7
370
     0
100
AcDbLine
 10
169.9114031776
 20
95.942355296
 30
0.0
 11
169.9114031776
 21
103.3650055289
 31
0.0
  0
LINE
  5
190
330
1F
100
AcDbEntity
  8
0
  6
HIDDEN
 62
     7
370
     0
100
AcDbLine
 10
164.9114042206
 20
103.3650055289
 30
0.0
 11
164.9114042206
 21
95.942355296
 31
0.0
  0
LINE
  5
191
330
1F
100
AcDbEntity
  8
0
  6
HIDDEN
 62
     7
370
     0
100
AcDbLine
 10
169.9114031776
 20
103.3650055289
 30
0.0
 11
167.4114018364
 21
104.8671568971
 31
0.0
  0
LINE
  5
192
330
1F
100
AcDbEntity
  8
0
  6
HIDDEN
 62
     7
370
     0
100
AcDbLine
 10
167.4114018364
 20
104.8671568971
 30
0.0
 11
164.9114042206
 21
103.3650055289
 31
0.0
  0
LINE
  5
193
330
1F
100
AcDbEntity
  8
0
  6
HIDDEN
 62
     7
370
     0
100
AcDbLine
 10
157.9014025314
 20
106.265005492
 30
0.0
 11
173.5614016338
 21
106.265005492
 31
0.0
  0
LINE
  5
194
330
1F
100
AcDbEntity
  8
0
  6
HIDDEN
 62
     7
370
     0
100
AcDbLine
 10
173.5614016338
 20
110.4650053422
 30
0.0
 11
157.9014025314
 21
110.4650053422
 31
0.0
  0
LINE
  5
195
330
1F
100
AcDbEntity
  8
0
  6
HIDDEN
 62
     7
370
     0
100
AcDbLine
 10
174.4614019676
 20
115.0407330825
 30
0.0
 11
174.4614019676
 21
111.6562265198
 31
0.0
  0
LINE
  5
196
330
1F
100
AcDbEntity
  8
0
  6
HIDDEN
 62
     7
370
     0
100
AcDbLine
 10
174.4614019676
 20
119.0650058671
 30
0.0
 11
174.4614019676
 21
117.4121793121
 31
0.0
  0
LINE
  5
197
330
1F
100
AcDbEntity
  8
0
  6
HIDDEN
 62
     7
370
     0
100
AcDbLine
 10
177.461404322
 20
117.4087865039
 30
0.0
 11
177.461404322
 21
119.0650058671
 31
0.0
  0
LINE
  5
198
330
1F
100
AcDbEntity
  8
0
  6
HIDDEN
 62
     7
370
     0
100
AcDbLine
 10
177.461404322
 20
111.6589329432
 30
0.0
 11
177.461404322
 21
114.9106142804
 31
0.0
  0
LINE
  5
199
330
1F
100
AcDbEntity
  8
0
  6
HIDDEN
 62
     7
370
     0
100
AcDbLine
 10
174.4614019676
 20
99.3178315222
 30
0.0
 11
174.4614019676
 21
97.8650055587
 31
0.0
  0
LINE
  5
19A
330
1F
100
AcDbEntity
  8
0
  6
HIDDEN
 62
     7
370
     0
100
AcDbLine
 10
174.4614019676
 20
105.073515395
 30
0.0
 11
174.4614019676
 21
101.6892777517
 31
0.0
  0
LINE
  5
19B
330
1F
100
AcDbEntity
  8
0
  6
HIDDEN
 62
     7
370
     0
100
AcDbLine
 10
177.461404322
 20
101.8193965539
 30
0.0
 11
177.461404322
 21
105.065005435
 31
0.0
  0
LINE
  5
19C
330
1F
100
AcDbEntity
  8
0
  6
HIDDEN
 62
     7
370
     0
100
AcDbLine
 10
177.461404322
 20
97.8650055587
 30
0.0
 11
177.461404322
 21
99.3212243303
 31
0.0
  0
LINE
  5
19D
330
1F
100
AcDbEntity
  8
0
  6
HIDDEN
 62
     7
370
     0
100
AcDbLine
 10
174.4614019676
 20
97.8650055587
 30
0.0
 11
175.9614050074
 21
96.9637144118
 31
0.0
  0
LINE
  5
19E
330
1F
100
AcDbEntity
  8
0
  6
HIDDEN
 62
     7
370
     0
100
AcDbLine
 10
175.9614050074
 20
96.9637144118
 30
0.0
 11
177.461404322
 21
97.8650055587
 31
0.0
  0
LINE
  5
19F
330
1F
100
AcDbEntity
  8
0
  6
HIDDEN
 62
     7
370
     0
100
AcDbLine
 10
177.4583495839
 20
99.3173472344
 30
0.0
 11
210.4614041431
 21
100.6140411593
 31
0.0
  0
LINE
  5
1A0
330
1F
100
AcDbEntity
  8
0
  6
HIDDEN
 62
     7
370
     0
100
AcDbLine
 10
210.4614041431
 20
103.1159698724
 30
0.0
 11
177.461404322
 21
101.8193965539
 31
0.0
  0
LINE
  5
1A1
330
1F
100
AcDbEntity
  8
0
  6
HIDDEN
 62
     7
370
     0
100
AcDbLine
 10
177.461404322
 20
114.9106142804
 30
0.0
 11
210.4614041431
 21
113.6140409618
 31
0.0
  0
LINE
  5
1A2
330
1F
100
AcDbEntity
  8
0
  6
HIDDEN
 62
     7
370
     0
100
AcDbLine
 10
210.4614041431
 20
116.115969675
 30
0.0
 11
177.4583495839
 21
117.4126635998
 31
0.0
  0
LINE
  5
1A3
330
1F
100
AcDbEntity
  8
0
  6
HIDDEN
 62
     7
370
     0
100
AcDbLine
 10
174.4400821312
 20
101.7006883159
 30
0.0
 11
173.7386621221
 21
100.4221649602
 31
0.0
  0
LINE
  5
1A4
330
1F
100
AcDbEntity
  8
0
  6
HIDDEN
 62
     7
370
     0
100
AcDbLine
 10
173.7386621221
 20
100.4221649602
 30
0.0
 11
174.4640096708
 21
99.3158263847
 31
0.0
  0
LINE
  5
1A5
330
1F
100
AcDbEntity
  8
0
  6
HIDDEN
 62
     7
370
     0
100
AcDbLine
 10
174.4640096708
 20
117.4141844496
 30
0.0
 11
173.7386621221
 21
116.3078458741
 31
0.0
  0
LINE
  5
1A6
330
1F
100
AcDbEntity
  8
0
  6
HIDDEN
 62
     7
370
     0
100
AcDbLine
 10
173.7386621221
 20
116.3078458741
 30
0.0
 11
174.4400821312
 21
115.0293225184
 31
0.0
  0
LINE
  5
1A7
330
1F
100
AcDbEntity
  8
0
  6
HIDDEN
 62
     7
370
     0
100
AcDbLine
 10
129.4614034391
 20
155.9176096454
 30
0.0
 11
129.4614034391
 21
154.0420675411
 31
0.0
  0
LINE
  5
1A8
330
1F
100
AcDbEntity
  8
0
  6
HIDDEN
 62
     7
370
     0
100
AcDbLine
 10
139.4614036812
 20
154.0365578368
 30
0.0
 11
139.4614036812
 21
155.9118764236
 31
0.0
  0
DIMENSION
  5
1A9
330
1F
100
AcDbEntity
  8
VERMASSUNG
100
AcDbDimension
  2
*D1
 10
68.4360780065
 20
58.3650054171
 30
0.0
 11
68.4360780065
 21
108.3650054171
 31
0.0
 70
   160
  1
HSK A %%c<>
 71
     2
 42
-1.0
  3
SLDDIMSTYLE0
100
AcDbAlignedDimension
 13
125.9614032491
 23
158.3650054171
 33
0.0
 14
125.9614032491
 24
58.3650054171
 34
0.0
 50
90.0
100
AcDbRotatedDimension
  0
DIMENSION
  5
1B6
330
1F
100
AcDbEntity
  8
VERMASSUNG
100
AcDbDimension
  2
*D2
 10
210.4614032491
 20
156.4033586132
 30
0.0
 11
192.2114032491
 21
156.4033586132
 31
0.0
 70
   160
 71
     2
 42
-1.0
  3
SLDDIMSTYLE1
100
AcDbAlignedDimension
 13
173.9614032491
 23
111.2650054171
 33
0.0
 14
210.4614032491
 24
117.0162244338
 34
0.0
100
AcDbRotatedDimension
  0
DIMENSION
  5
1C1
330
1F
100
AcDbEntity
  8
VERMASSUNG
100
AcDbDimension
  2
*D3
 10
218.1884073673
 20
111.3650054171
 30
0.0
 11
218.1884073673
 21
108.3650054171
 31
0.0
 70
   160
  1
%%c<>
 71
     2
 42
-1.0
  3
SLDDIMSTYLE2
100
AcDbAlignedDimension
 13
206.9614032491
 23
105.3650054171
 33
0.0
 14
206.9614032491
 24
111.3650054171
 34
0.0
 50
90.0
100
AcDbRotatedDimension
  0
DIMENSION
  5
1CF
330
1F
100
AcDbEntity
  8
VERMASSUNG
100
AcDbDimension
  2
*D4
 10
224.1884073673
 20
118.8650054171
 30
0.0
 11
224.1884073673
 21
108.3650054171
 31
0.0
 70
   160
  1
%%c<>
 71
     2
 42
-1.0
  3
SLDDIMSTYLE3
100
AcDbAlignedDimension
 13
210.4614032491
 23
97.8650054171
 33
0.0
 14
210.4614032491
 24
118.8650054171
 34
0.0
 50
90.0
100
AcDbRotatedDimension
  0
DIMENSION
  5
1DB
330
1F
100
AcDbEntity
  8
VERMASSUNG
100
AcDbDimension
  2
*D5
 10
210.4614032491
 20
168.4033586132
 30
0.0
 11
167.9614032491
 21
168.4033586132
 31
0.0
 70
   160
 71
     2
 42
-1.0
  3
SLDDIMSTYLE0
100
AcDbAlignedDimension
 13
125.4614032491
 23
157.8650054171
 33
0.0
 14
210.4614032491
 24
117.0162244338
 34
0.0
100
AcDbRotatedDimension
  0
DIMENSION
  5
1E5
330
1F
100
AcDbEntity
  8
VERMASSUNG
100
AcDbDimension
  2
*D6
 10
210.4614032491
 20
162.4033586132
 30
0.0
 11
182.4364032491
 21
162.4033586132
 31
0.0
 70
   160
 71
     2
 42
-1.0
  3
SLDDIMSTYLE0
100
AcDbAlignedDimension
 13
154.4114032491
 23
156.333745238
 33
0.0
 14
210.4614032491
 24
117.0162244338
 34
0.0
100
AcDbRotatedDimension
  0
DIMENSION
  5
1EF
330
1F
100
AcDbEntity
  8
VERMASSUNG
100
AcDbDimension
  2
*D7
 10
210.4614032491
 20
174.4033586132
 30
0.0
 11
143.0114032491
 21
174.4033586132
 31
0.0
 70
   160
 71
     2
 42
-1.0
  3
SLDDIMSTYLE0
100
AcDbAlignedDimension
 13
75.5614032491
 23
138.8676751597
 33
0.0
 14
210.4614032491
 24
117.0162244338
 34
0.0
100
AcDbRotatedDimension
  0
DIMENSION
  5
1F9
330
1F
100
AcDbEntity
  8
VERMASSUNG
100
AcDbDimension
  2
*D8
 10
230.1884073673
 20
95.3650054171
 30
0.0
 11
230.1884073673
 21
108.3650054171
 31
0.0
 70
   160
  1
%%c<>
 71
     2
 42
-1.0
  3
SLDDIMSTYLE0
100
AcDbAlignedDimension
 13
178.6958914086
 23
121.3650054171
 33
0.0
 14
178.6958914086
 24
95.3650054171
 34
0.0
 50
90.0
100
AcDbRotatedDimension
  0
LINE
  5
204
330
1F
100
AcDbEntity
  8
VERMASSUNG
  6
CENTERX2
370
     0
100
AcDbLine
 10
73.3109338881
 20
108.3650054171
 30
0.0
 11
213.7114842904
 21
108.3650054171
 31
0.0
  0
OLE2FRAME
  5
205
330
1F
100
AcDbEntity
  8
0
100
AcDbOle2Frame
 70
     2
  3
Bitmap Image
 10
13.8511154363
 20
38.264191557
 30
0.0
 11
51.6290888628
 21
31.9806341108
 31
0.0
 71
     2
 72
     0
 73
     1
 90
    12928
310
80552BED0767C5B32B40DDAF6807D121434000000000000000006FFBDDFB85D0
310
4940DDAF6807D121434000000000000000006FFBDDFB85D04940416F4BD60AFB
310
3F4000000000000000002BED0767C5B32B40416F4BD60AFB3F40000000000000
310
0000000000000100000000010000010000000100000000000100000000320000
310
D0CF11E0A1B11AE1000000000000000000000000000000003E000300FEFF0900
310
0600000000000000000000000100000001000000000000000010000002000000
310
01000000FEFFFFFF0000000000000000FFFFFFFFFFFFFFFFFFFFFFFFFFFFFFFF
310
FFFFFFFFFFFFFFFFFFFFFFFFFFFFFFFFFFFFFFFFFFFFFFFFFFFFFFFFFFFFFFFF
310
FFFFFFFFFFFFFFFFFFFFFFFFFFFFFFFFFFFFFFFFFFFFFFFFFFFFFFFFFFFFFFFF
310
FFFFFFFFFFFFFFFFFFFFFFFFFFFFFFFFFFFFFFFFFFFFFFFFFFFFFFFFFFFFFFFF
310
FFFFFFFFFFFFFFFFFFFFFFFFFFFFFFFFFFFFFFFFFFFFFFFFFFFFFFFFFFFFFFFF
310
FFFFFFFFFFFFFFFFFFFFFFFFFFFFFFFFFFFFFFFFFFFFFFFFFFFFFFFFFFFFFFFF
310
FFFFFFFFFFFFFFFFFFFFFFFFFFFFFFFFFFFFFFFFFFFFFFFFFFFFFFFFFFFFFFFF
310
FFFFFFFFFFFFFFFFFFFFFFFFFFFFFFFFFFFFFFFFFFFFFFFFFFFFFFFFFFFFFFFF
310
FFFFFFFFFFFFFFFFFFFFFFFFFFFFFFFFFFFFFFFFFFFFFFFFFFFFFFFFFFFFFFFF
310
FFFFFFFFFFFFFFFFFFFFFFFFFFFFFFFFFFFFFFFFFFFFFFFFFFFFFFFFFFFFFFFF
310
FFFFFFFFFFFFFFFFFFFFFFFFFFFFFFFFFFFFFFFFFFFFFFFFFFFFFFFFFFFFFFFF
310
FFFFFFFFFFFFFFFFFFFFFFFFFFFFFFFFFFFFFFFFFFFFFFFFFFFFFFFFFFFFFFFF
310
FFFFFFFFFFFFFFFFFFFFFFFFFFFFFFFFFFFFFFFFFFFFFFFFFFFFFFFFFFFFFFFF
310
FFFFFFFFFFFFFFFFFFFFFFFFFFFFFFFFFFFFFFFFFFFFFFFFFFFFFFFFFFFFFFFF
310
FDFFFFFFFEFFFFFFFEFFFFFFFEFFFFFF05000000060000000700000008000000
310
090000000A0000000B0000000C0000000D0000000E0000000F00000010000000
310
11000000120000001300000014000000150000001600000017000000FEFFFFFF
310
FFFFFFFFFFFFFFFFFFFFFFFFFFFFFFFFFFFFFFFFFFFFFFFFFFFFFFFFFFFFFFFF
310
FFFFFFFFFFFFFFFFFFFFFFFFFFFFFFFFFFFFFFFFFFFFFFFFFFFFFFFFFFFFFFFF
310
FFFFFFFFFFFFFFFFFFFFFFFFFFFFFFFFFFFFFFFFFFFFFFFFFFFFFFFFFFFFFFFF
310
FFFFFFFFFFFFFFFFFFFFFFFFFFFFFFFFFFFFFFFFFFFFFFFFFFFFFFFFFFFFFFFF
310
FFFFFFFFFFFFFFFFFFFFFFFFFFFFFFFFFFFFFFFFFFFFFFFFFFFFFFFFFFFFFFFF
310
FFFFFFFFFFFFFFFFFFFFFFFFFFFFFFFFFFFFFFFFFFFFFFFFFFFFFFFFFFFFFFFF
310
FFFFFFFFFFFFFFFFFFFFFFFFFFFFFFFFFFFFFFFFFFFFFFFFFFFFFFFFFFFFFFFF
310
FFFFFFFFFFFFFFFFFFFFFFFFFFFFFFFFFFFFFFFFFFFFFFFFFFFFFFFFFFFFFFFF
310
FFFFFFFFFFFFFFFFFFFFFFFFFFFFFFFFFFFFFFFFFFFFFFFFFFFFFFFFFFFFFFFF
310
FFFFFFFFFFFFFFFFFFFFFFFFFFFFFFFFFFFFFFFFFFFFFFFFFFFFFFFFFFFFFFFF
310
FFFFFFFFFFFFFFFFFFFFFFFFFFFFFFFFFFFFFFFFFFFFFFFFFFFFFFFFFFFFFFFF
310
FFFFFFFFFFFFFFFFFFFFFFFFFFFFFFFFFFFFFFFFFFFFFFFFFFFFFFFFFFFFFFFF
310
FFFFFFFFFFFFFFFFFFFFFFFFFFFFFFFFFFFFFFFFFFFFFFFFFFFFFFFFFFFFFFFF
310
52006F006F007400200045006E00740072007900000000000000000000000000
310
0000000000000000000000000000000000000000000000000000000000000000
310
16000500FFFFFFFFFFFFFFFF020000000A00030000000000C000000000000046
310
00000000000000000000000060B50B0AA408CC0103000000C000000000000000
310
01004F006C006500000000000000000000000000000000000000000000000000
310
0000000000000000000000000000000000000000000000000000000000000000
310
0A000200FFFFFFFFFFFFFFFFFFFFFFFF00000000000000000000000000000000
310
0000000000000000000000000000000000000000000000001400000000000000
310
010043006F006D0070004F0062006A0000000000000000000000000000000000
310
0000000000000000000000000000000000000000000000000000000000000000
310
120002010100000003000000FFFFFFFF00000000000000000000000000000000
310
0000000000000000000000000000000000000000010000004D00000000000000
310
01004F006C006500310030004E00610074006900760065000000000000000000
310
0000000000000000000000000000000000000000000000000000000000000000
310
1A000200FFFFFFFFFFFFFFFFFFFFFFFF00000000000000000000000000000000
310
0000000000000000000000000000000000000000040000002426000000000000
310
FEFFFFFF02000000FEFFFFFFFFFFFFFFFFFFFFFFFFFFFFFFFFFFFFFFFFFFFFFF
310
FFFFFFFFFFFFFFFFFFFFFFFFFFFFFFFFFFFFFFFFFFFFFFFFFFFFFFFFFFFFFFFF
310
FFFFFFFFFFFFFFFFFFFFFFFFFFFFFFFFFFFFFFFFFFFFFFFFFFFFFFFFFFFFFFFF
310
FFFFFFFFFFFFFFFFFFFFFFFFFFFFFFFFFFFFFFFFFFFFFFFFFFFFFFFFFFFFFFFF
310
FFFFFFFFFFFFFFFFFFFFFFFFFFFFFFFFFFFFFFFFFFFFFFFFFFFFFFFFFFFFFFFF
310
FFFFFFFFFFFFFFFFFFFFFFFFFFFFFFFFFFFFFFFFFFFFFFFFFFFFFFFFFFFFFFFF
310
FFFFFFFFFFFFFFFFFFFFFFFFFFFFFFFFFFFFFFFFFFFFFFFFFFFFFFFFFFFFFFFF
310
FFFFFFFFFFFFFFFFFFFFFFFFFFFFFFFFFFFFFFFFFFFFFFFFFFFFFFFFFFFFFFFF
310
FFFFFFFFFFFFFFFFFFFFFFFFFFFFFFFFFFFFFFFFFFFFFFFFFFFFFFFFFFFFFFFF
310
FFFFFFFFFFFFFFFFFFFFFFFFFFFFFFFFFFFFFFFFFFFFFFFFFFFFFFFFFFFFFFFF
310
FFFFFFFFFFFFFFFFFFFFFFFFFFFFFFFFFFFFFFFFFFFFFFFFFFFFFFFFFFFFFFFF
310
FFFFFFFFFFFFFFFFFFFFFFFFFFFFFFFFFFFFFFFFFFFFFFFFFFFFFFFFFFFFFFFF
310
FFFFFFFFFFFFFFFFFFFFFFFFFFFFFFFFFFFFFFFFFFFFFFFFFFFFFFFFFFFFFFFF
310
FFFFFFFFFFFFFFFFFFFFFFFFFFFFFFFFFFFFFFFFFFFFFFFFFFFFFFFFFFFFFFFF
310
FFFFFFFFFFFFFFFFFFFFFFFFFFFFFFFFFFFFFFFFFFFFFFFFFFFFFFFFFFFFFFFF
310
FFFFFFFFFFFFFFFFFFFFFFFFFFFFFFFFFFFFFFFFFFFFFFFFFFFFFFFFFFFFFFFF
310
0100000200000000000000000000000000000000000000003A00820000000005
310
680625000000000000E781720000000000000000000000000000000000000000
310
0100FEFF030A0000FFFFFFFF0A00030000000000C00000000000004607000000
310
5042727573680007000000504272757368000700000050427275736800F439B2
310
7100000000000000000000000000000000000000000000000000000000000000
310
0000000000000000000000000000000000000000000000000000000000000000
310
00000000F001F001500250028003B002B002B002B002B0022E008E008000B005
310
A80525000000000020A22800000000008E0FE202000000002C00900000000005
310
8805250000000000F0643D7200000000C6320000000000000000000000000000
310
00000000000000003800000041000000E40FF1020000000080100F0300000000
310
000000000000000000000000000000000000C70600000000C632000000000000
310
000000000000000000000000000000003800000041000000E40FF10200000000
310
660F2D0300000000000000000000000000000000000000000000C70600000000
310
C732000000000000000000000000000000000000000000003800000041000000
310
E40FF10200000000E00FE5020000000000000000000000000000000000000000
310
0000C70600000000FB3400000000000000000000000000000000000000000000
310
20260000424D0E260000000000003E00000028000000B40200006E0000000100
310
01000000000000000000130B0000130B00000200000002000000000000FFFFFF
310
FFFFFFFFFFFFFFFFFFFFFFFFFFFFFFFFFFFFFFFFFFFFFFFFFFFFFFFFFFFFFFFF
310
FFFFFFFFFFFFFFFFFFFFFFFFFFFFFFFFFFFFFFFFFFFFFFFFFFFFFFFFFFFFFFFF
310
FFFFFFFFFFFFFFFFFFFFFFFFFFFFFFFFFFFFFFFFFFFFFFFFF000FFFFFFFFFFFF
310
FFFFFFFFFFFFFFFFFFFFFFFFFFFFFFFFFFFFFFFFFFFFFFFFFFFFFFFFFFFFFFFF
310
FFFFFFFFFFFFFFFFFFFFFFFFFFFFFFFFFFFFFFFFFFFFFFFFFFFFFFFFFFFFFFFF
310
FFFFFFFFFFFFFFFFFFFFFFFFFFFFFFFFF000FFFFFFFFFFFFFFFFFFFFFFFFFFFF
310
FFFFFFFFFFFFFFFFFFFFFFFFFFFFFFFFFFFFFFFFFFFFFFFFFFFFFFFFFFFFFFFF
310
FFFFFFFFFFFFFFFFFFFFFFFFFFFFFFFFFFFFFFFFFFFFFFFFFFFFFFFFFFFFFFFF
310
FFFFFFFFFFFFFFFFF000FFFFFFFFFFFFFFFFFFFFFFFFFFFFFFFFFFFFFFFFFFFF
310
FFFFFFFFFFFFFFFFFFFFFFFFFFFFFFFFFFFFFFFFFFFFFFFFFFFFFFFFFFFFFFFF
310
FFFFFFFFFFFFFFFFFFFFFFFFFFFFFFFFFFFFFFFFFFFFFFFFFFFFFFFFFFFFFFFF
310
F000FFFFFFFFFFFFFFFFFFFFFFFFFFFFFFFFFFFFFFFFFFFFFFFFFFFFFFFFFFFF
310
FFFFFFFFFFFFFFFFFFFFFFFFFFFFFFFFFFFFFFFFFFFFFFFFFFFFFFFFFFFFFFFF
310
FFFFFFFFFFFFFFFFFFFFFFFFFFFFFFFFFFFFFFFFFFFFFFFFF000FFFFFFFFFFFF
310
FFFFFFFFFFFFFFFFFFFFFFFFFFFFFFFFFFFFFFFFFFFFFFFFFFFFFFFFFFFFFFFF
310
FFFFFFFFFFFFFFFFFFFFFFFFFFFFFFFFFFFFFFFFFFFFFFFFFFFFFFFFFFFFFFFF
310
FFFFFFFFFFFFFFFFFFFFFFFFFFFFFFFFF000FFFFFFFFFFFFFFFFFFFFFFFFFFFF
310
FFFFFFFFFFFFFFFFFFFFFFFFFFFFFFFFFFFFFFFFFFFFFFFFFFFFFFFFFFFFFFFF
310
FFFFFFFFFFFFFFFFFFFFFFFFFFFFFFFFFFFFFFFFFFFFFFFFFFFFFFFFFFFFFFFF
310
FFFFFFFFFFFFFFFFF000FFFFFFFFFFFFFFFFFFFFFFFFFFFFFFFFFFFFFFFFFFFF
310
FFFFFFFFFFFFFFFFFFFFFFFFFFFFFFFFFFFFFFFFFFFFFFFFFFFFFFFFFFFFFFFF
310
FFFFFFFFFFFFFFFFFFFFFFFFFFFFFFFFFFFFFFFFFFFFFFFFFFFFFFFFFFFFFFFF
310
F000FFFFFFFFFFFFFFFFFFFFFFFFFFFFFFFFFFFFFFFFFFFFFFFFFFFFFFFFFFFF
310
FFFFFFFFFFFFFFFFFFFFFFFFFFFFFFFFFFFFFFFFFFFFFFFFFFFFFFFFFFFFFFFF
310
FFFFFFFFFFFFFFFFFFFFFFFFFFFFFFFFFFFFFFFFFFFFFFFFF000FFFFFFFFFFFF
310
FFFFFFFFFFFFFFFFFFFFFFFFFFFFFFFFFFFFFFFFFFFFFFFFFFFFFFFFFFFFFFFF
310
FFFFFFFFFFFFFFFFFFFFFFFFFFFFFFFFFFFFFFFFFFFFFFFFFFFFFFFFFFFFFFFF
310
FFFFFFFFFFFFFFFFFFFFFFFFFFFFFFFFF000FFFFFFFFFFFFFFFFFFFFFFFFFFFF
310
FFFFFFFFFFFFFFFFFFFFFFFFFFFFFFFFFFFFFFFFFFFFFFFFFFFFFFFFFFFFFFFF
310
FFFFFFFFFFFFFFFFFFFFFFFFFFFFFFFFFFFFFFFFFFFFFFFFFFFFFFFFFFFFFFFF
310
FFFFFFFFFFFFFFFFF000FFFFFFFFFFFFFFFFFFFFFFFFFFFFFFFFFFFFFFFFFFFF
310
FFFFFFFFFFFFFFFFFFFFFFFFFFFFFFFFFFFFFFFFFFFFFFFFFFFFFFFFFFFFFFFF
310
FFFFFFFFFFFFFFFFFFFFFFFFFFFFFFFFFFFFFFFFFFFFFFFFFFFFFFFFFFFFFFFF
310
F000FFFFFFFFFFFFFFFFFFFFFFFFFFFFFFFFFFFFFFFFFFFFFFFFFFFFFFFFFFFF
310
FFFFFFFFFFFFFFFFFFFFFFFFFFFFFFFFFFFFFFFFFFFFFFFFFFFFFFFFFFFFFFFF
310
FFFFFFFFFFFFFFFFFFFFFFFFFFFFFFFFFFFFFFFFFFFFFFFFF000FFFFFFFFFFFF
310
FFFFFFFFFFFFFFFFFFFFFFFFFFFFFFFFFFFFFFFFFFFFFFFFFFFFFFFFFFFFFFFF
310
FFFFFFFFFFFFFFFFFFFFFFFFFFFFFFFFFFFFFFFFFFFFFFFFFFFFFFFFFFFFFFFF
310
FFFFFFFFFFFFFFFFFFFFFFFFFFFFFFFFF000FFFFFFFFFFFFFFFFFFFFFFFFFFFF
310
FFFFFFFFFFFFFFFFFFFFFFFFFFFFFFFFFFFFFFFFFFFFFFFFFFFFFFFFFFFFFFFF
310
FFFFFFFFFFFFFFFFFFFFFFFFFFFFFFFFFFFFFFFFFFFFFFFFFFFFFFFFFFFFFFFF
310
FFFFFFFFFFFFFFFFF000FFFFFFFFFFFFFFFFFFFFFFFFFFFFFFFFFFFFFFFFFFFF
310
FFFFFFFFFFFFFFFFFFFFFFFFFFFFFFFFFFFFFFFFFFFFFFFFFFFFFFFFFFFFFFFF
310
FFFFFFFFFFFFFFFFFFFFFFFFFFFFFFFFFFFFFFFFFFFFFFFFFFFFFFFFFFFFFFFF
310
F000FFFFFFFFFFFFFFFFFFFFFFFFFFFFFFFFFFFFFFFFFFFFFFFFFFFFFFFFFFFF
310
FFFFFFFFFFFFFFFFFFFFFFFFFFFFFFFFFFFFFFFFFFFFFFFFFFFFFFFFFFFFFFFF
310
FFFFFFFFFFFFFFFFFFFFFFFFFFFFFFFFFFFFFFFFFFFFFFFFF000FFFFFFFFFFFF
310
FFFFFFFFFFFFFFFFFFFFFFFFFFFFFFFFFFFFFFFFFFFFFFFFFFFFFFFFFFFFFFFF
310
FFFFFFFFFFFFFFFFFFFFFFFFFFFFFFFFFFFFFFFFFFFFFFFFFFFFFFFFFFFFFFFF
310
FFFFFFFFFFFFFFFFFFFFFFFFFFFFFFFFF000FFFFFFFFFFFFFFFFFFFFFFFFFFFF
310
FFFFFFFFFFFFFFFFFFFFFFFFFFFFFFFFFFFFFFFFFFFFFFFFFFFFFFFFFFFFFFFF
310
FFFFFFFFFFFFFFFFFFFFFFFFFFFFFFFFFFFFFFFFFFFFFFFFFFFFFFFFFFFFFFFF
310
FFFFFFFFFFFFFFFFF000FFFFF80003FFFFFFFFFFFFFFFFFFFFFFFFFFFFFFFFFF
310
FFFFF00007FFFFFFFFFF00007FFFFFF800000000000000007FFFFFFFFFFFFFFF
310
FFFFFFFC001FFFFFFFFFFFFFFC001FFFFFFFFFFFFFFFFFFFFFFFFFFE0007FFFF
310
F000FFFF8000007FFFFFFFF8000FFFFFC0007FFFFF80007FFFFF0000007FFFFF
310
FFF8000007FFFFF800000000000000007FFFFFF0001FFFFFFFFFFFC00001FFFF
310
FFFFFFFFC00001FFFFFFFF000000000003FFFFE000007FFFF000FFFE0000000F
310
FFFFFFF0000FFFFF80007FFFFF80007FFFFC0000001FFFFFFFC0000001FFFFF8
310
00000000000000007FFFFFF0001FFFFFFFFFFE0000003FFFFFFFFFFE0000003F
310
FFFFFF000000000003FFFF0000000FFFF000FFF800000003FFFFFFF00007FFFF
310
80007FFFFF80007FFFF000000007FFFFFF000000003FFFF80000000000000000
310
7FFFFFF0001FFFFFFFFFF80000000FFFFFFFFFF80000000FFFFFFF0000000000
310
03FFFC00000003FFF000FFE000000000FFFFFFF00007FFFF80003FFFFF80007F
310
FFC000000001FFFFFC000000001FFFF800000000000000007FFFFFF0001FFFFF
310
FFFFE000000003FFFFFFFFE000000003FFFFFF000000000003FFF000000000FF
310
F000FF80000000007FFFFFF00007FFFF80003FFFFF80007FFF8000000000FFFF
310
F80000000007FFF800000000000000007FFFFFF0001FFFFFFFFFC000000001FF
310
FFFFFFC000000001FFFFFF000000000003FFC0000000007FF000FF0000000000
310
3FFFFFE00007FFFF00003FFFFF80007FFE00000000003FFFF00000000003FFF8
310
00000000000000007FFFFFF0001FFFFFFFFF8000000000FFFFFFFF8000000000
310
FFFFFF000000000003FF80000000003FF000FE00000000001FFFFFE00003FFFF
310
00003FFFFF80007FFC00000000001FFFE00000000001FFF8000001FFFE000000
310
7FFFFFF0001FFFFFFFFE00000000003FFFFFFE00000000003FFFFF0000000000
310
03FF00000000001FF000FC00000000000FFFFFE00003FFFF00001FFFFF80007F
310
F800000000001FFFC00000000000FFF8000001FFFE0000007FFFFFF0001FFFFF
310
FFFC00000000001FFFFFFC00000000001FFFFF000000000003FE00000000000F
310
F000F8000000000007FFFFE00003FFFF00001FFFFF80007FF800000000000FFF
310
800000000000FFF8000001FFFE0000007FFFFFF0001FFFFFFFF800000000000F
310
FFFFF800000000000FFFFF000000000003FC000000000007F000F80000000000
310
03FFFFC00003FFFE00001FFFFF80007FF0000000000007FF0000000000007FF8
310
000001FFFE0000007FFFFFF0001FFFFFFFF0000000000007FFFFF00000000000
310
07FFFF000000000003F8000000000003F000F0000000000003FFFFC00001FFFE
310
00001FFFFF80007FE0000000000007FE0000000000003FF8000001FFFE000000
310
7FFFFFF0001FFFFFFFF0000000000007FFFFF0000000000007FFFF0000000000
310
03F800001F800003F000E00001FFF00001FFFFC00001FFFE00000FFFFF80007F
310
E00001FFE00003FE00001FFF00003FF8000001FFFE0000007FFFFFF0001FFFFF
310
FFE000003E000003FFFFE000003E000003FFFF000000000003F00001FFF80001
310
F000E00007FFFC0001FFFFC00001FFFE00000FFFFF80007FC0000FFFFC0003FC
310
0000FFFFC0001FF8000001FFFE0000007FFFFFF0001FFFFFFFC00003FFE00001
310
FFFFC00003FFE00001FFFF0001FFFFFFFFF00007FFFE0001F000E0000FFFFF00
310
00FFFF800001FFFC00000FFFFF80007FC0001FFFFE0001FC0001FFFFE0001FF8
310
000001FFFE0000007FFFFFF0001FFFFFFF80000FFFF80000FFFF80000FFFF800
310
00FFFF0003FFFFFFFFE0000FFFFF8000F000C0003FFFFF8000FFFF800000FFFC
310
000007FFFF80007F80003FFFFF0001FC0003FFFFF0001FF8000001FFFE000000
310
7FFFFFF0001FFFFFFF80003FFFFE0000FFFF80003FFFFE0000FFFF0003FFFFFF
310
FFE0003FFFFF8000F000C0003FFFFF8000FFFF800000FFFC000007FFFF80007F
310
80007FFFFF8001F80007FFFFF8000FF8000001FFFE0000007FFFFFF0001FFFFF
310
FF00007FFFFF00007FFF00007FFFFF00007FFF0003FFFFFFFFE0003FFFFFC000
310
F000C0007FFFFFC000FFFF000000FFFC000007FFFF80007F8000FFFFFF8000F8
310
000FFFFFF8000FF8000001FFFE0000007FFFFFF0001FFFFFFF0000FFFFFF8000
310
7FFF0000FFFFFF80007FFF0003FFFFFFFFC0007FFFFFC00070008000FFFFFFC0
310
00FFFF000000FFF8000007FFFF80007F8000FFFFFF8000F8000FFFFFF8000FF8
310
000001FFFE0000007FFFFFF0001FFFFFFE0001FFFFFFC0003FFE0001FFFFFFC0
310
003FFF0003FFFFFFFFC0007FFFFFE00070008000FFFFFFC0007FFF0000007FF8
310
000003FFFF80007F0001FFFFFF8000F8000FFFFFF8000FF8000001FFFE000000
310
7FFFFFF0001FFFFFFE0001FFFFFFC0003FFE0001FFFFFFC0003FFF0003FFFFFF
310
FFC000FFFFFFE00070008000FFFFFFC0007FFF0000007FF8000003FFFF80007F
310
0001FFFFFF8000F8001FFFFFF8000FF8000001FFFE0000007FFFFFF0001FFFFF
310
FE0003FFFFFFE0003FFE0003FFFFFFE0003FFF0003FFFFFFFFC000FFFFFFE000
310
70008000FFFFFFC0007FFE0000007FF8000003FFFF80007F0001FFFFFF8000F0
310
001FFFFFF8000FF8000001FFFE0000007FFFFFF0001FFFFFFC0003FFFFFFE000
310
1FFC0003FFFFFFE0001FFF0003FFFFFFFFC000FFFFFFC00070008000FFFFFF80
310
007FFE0000007FF0000003FFFF80007F0001FFFFFF0000F0001FFFFFF8000FF8
310
000001FFFE0000007FFFFFF0001FFFFFFC0007FFFFFFF0001FFC0007FFFFFFF0
310
001FFF0003FFFFFFFFC000FFFFFFC00070008001FFFFFF0000FFFE0000003FF0
310
000001FFFF80007F0001FFFFFF0000F8001FFFFFF0000FF8000001FFFE000000
310
7FFFFFF0001FFFFFFC0007FFFFFFF0001FFC0007FFFFFFF0001FFF0003FFFFFF
310
FFC001FFFFFF80007000FFFFFFFFFE0000FFFE0008003FF0008001FFFF80007F
310
FFFFFFFFFC0000FFFFFFFFFFE0000FF8000001FFFE0000007FFFFFF0001FFFFF
310
F8000FFFFFFFF8000FF8000FFFFFFFF8000FFF0003FFFFFFFFFFFFFFFFFF0000
310
7000FFFFFFFFFC0000FFFC0008003FF0008001FFFF80007FFFFFFFFFF80001FF
310
FFFFFFFF80000FF8000001FFFE0000007FFFFFF0001FFFFFF8000FFFFFFFF800
310
0FF8000FFFFFFFF8000FFF0003FFFFFFFFFFFFFFFFFE0000F000FFFFFFFFE000
310
00FFFC000C003FE000C001FFFF80007FFFFFFFFFC00001FFFFFFFFFE00001FF8
310
000001FFFE0000007FFFFFF0001FFFFFF8000FFFFFFFF8000FF8000FFFFFFFF8
310
000FFF0003FFFFFFFFFFFFFFFFF00000F000FFFFFFFE000001FFFC000C001FE0
310
00C000FFFF80007FFFFFFFFE000001FFFFFFFFE000001FF80FFFFFFFFFFFFFC0
310
7FFFFFF0001FFFFFF8000FFFFFFFF8000FF8000FFFFFFFF8000FFF0003FFFFFF
310
FFFFFFFFFF800000F000FFFFFFC0000001FFFC001C001FE001C000FFFF80007F
310
FFFFFF80000003FFFFFFF80000001FF80FFFFFFFFFFFFFC07FFFFFF0001FFFFF
310
F8001FFFFFFFFC000FF8001FFFFFFFFC000FFF0003FFFFFFFFFFFFFFF0000001
310
F000FFFFF800000001FFF8001C001FE001C000FFFF80007FFFFFF800000003FF
310
FFFF800000003FF80FFFFFFFFFFFFFC07FFFFFF0001FFFFFF8001FFFFFFFFC00
310
0FF8001FFFFFFFFC000FFF0003FFFFFFFFFFFFFE00000001F000FFFFC0000000
310
03FFF8001E001FC001E000FFFF80007FFFFF8000000007FFFFFC000000003FF8
310
0FFFFFFFFFFFFFC07FFFFFF0001FFFFFF8001FFFFFFFFC000FF8001FFFFFFFFC
310
000FFF0003FFFFFFFFFFFFE000000003F000FFFE0000000007FFF8001E000FC0
310
01E0007FFF80007FFFFE0000000007FFFFE0000000007FF80FFFFFFFFFFFFFC0
310
7FFFFFF0001FFFFFF0001FFFFFFFFC0007F0001FFFFFFFFC0007FF0003FFFFFF
310
FFFFFF0000000003F000FFF80000000007FFF8001E000FC003E0007FFF80007F
310
FFF0000000000FFFFF8000000000FFF80FFFFFFFFFFFFFC07FFFFFF0001FFFFF
310
F0001FFFFFFFFC0007F0001FFFFFFFFC0007FF0003FFFFFFFFFFFC0000000007
310
F000FFE0000000000FFFF0003E000FC003E0007FFF80007FFFC0000000001FFF
310
FE0000000001FFF80FFFFFFFFFFFFFC07FFFFFF0001FFFFFF0001FFFFFFFFC00
310
07F0001FFFFFFFFC0007FF0003FFFFFFFFFFF0000000000FF000FFC000000000
310
1FFFF0003F000F8003F0003FFF80007FFF80000000003FFFF80000000003FFF8
310
0FFFFFFFFFFFFFC07FFFFFF0001FFFFFF0001FFFFFFFFC0007F0001FFFFFFFFC
310
0007FF0003FFFFFFFFFFE0000000001FF000FF00000000007FFFF0003F000780
310
03F0003FFF80007FFF00000000007FFFF00000000007FFF80FFFFFFFFFFFFFC0
310
7FFFFFF0001FFFFFF0001FFFFFFFFC0007F0001FFFFFFFFC0007FF0003FFFFFF
310
FFFF80000000007FF000FE0000000000FFFFE0003F00078007F0003FFF80007F
310
FE0000000001FFFFE0000000001FFFF80FFFFFFFFFFFFFC07FFFFFF0001FFFFF
310
F0001FFFFFFFFC0007F0001FFFFFFFFC0007FF0003FFFFFFFFFF0000000000FF
310
F000FC0000000003FFFFE0007F00078007F0003FFF80007FFC0000000007FFFF
310
C0000000007FFFF80FFFFFFFFFFFFFC07FFFFFF0001FFFFFF8001FFFFFFFFC00
310
0FF8001FFFFFFFFC000FFF0003FFFFFFFFFE0000000003FFF000FC000000000F
310
FFFFE0007F80070007F8001FFF80007FF8000000001FFFFF8000000001FFFFF8
310
0FFFFFFFFFFFFFC07FFFFFF0001FFFFFF8001FFFFFFFFC000FF8001FFFFFFFFC
310
000FFF0003FFFFFFFFFC000000000FFFF000F8000000007FFFFFE0007F800700
310
07F8001FFF80007FF000000000FFFFFF800000000FFFFFF80FFFFFFFFFFFFFC0
310
7FFFFFF0001FFFFFF8000FFFFFFFF8000FF8000FFFFFFFF8000FFF0003FFFFFF
310
FFFC000000007FFFF000F800000007FFFFFFC0007F8003000FF8001FFF80007F
310
F000000007FFFFFF000000007FFFFFF80FFFFFFFFFFFFFC07FFFFFF0001FFFFF
310
F8000FFFFFFFF8000FF8000FFFFFFFF8000FFF0003FFFFFFFFF80000000FFFFF
310
F000F0000000FFFFFFFFC000FF8003000FF8001FFF80007FE0000000FFFFFFFF
310
0000000FFFFFFFF8000001FFFE0000007FFFFFF0001FFFFFF8000FFFFFFFF800
310
0FF8000FFFFFFFF8000FFF0003FFFFFFFFF8000000FFFFFFF000F000000FFFFF
310
FFFFC000FFC002000FF8000FFF80007FE000001FFFFFFFFE000001FFFFFFFFF8
310
000001FFFE0000007FFFFFF0001FFFFFF8000FFFFFFFF8000FF8000FFFFFFFF8
310
000FFF0003FFFFFFFFF000001FFFFFFFF000E00000FFFFFFFFFFC000FFC00200
310
0FFC000FFF80007FE00001FFFFFFFFFE00001FFFFFFFFFF8000001FFFE000000
310
7FFFFFF0001FFFFFFC000FFFFFFFF8001FFC000FFFFFFFF8001FFF0003FFFFFF
310
FFF00001FFFFFFFFF000E00007FFFFFFFFFF8000FFC000001FFC000FFF80007F
310
C0000FFFFFFFFFFE0000FFFFFFFFFFF8000001FFFE0000007FFFFFF0001FFFFF
310
FC0007FFFFFFF0001FFC0007FFFFFFF0001FFF0003FFFFFFFFF00007FFFFFFFF
310
F000E0001FFFFFFFFFFF8000FFC000001FFC000FFF80007FC0003FFFFFFFFFFE
310
0001FFFFFFFFFFF8000001FFFE0000007FFFFFF0001FFFFFFC0007FFFFFFF000
310
1FFC0007FFFFFFF0001FFF0003FFFFFFFFF0001FFFFFFFFFF000E0003FFFFF00
310
03FF8001FFE000001FFC0007FF80007FC0007FFFFF0007FC0003FFFFF0003FF8
310
000001FFFE0000007FFFFFF0001FFFFFFC0003FFFFFFE0001FFC0003FFFFFFE0
310
001FFF0003FFFFFFFFF0003FFFFFFFFFF000E0003FFFFF0001FF8001FFE00000
310
1FFE0007FF80007FC0007FFFFE0003FC0007FFFFE0003FF8000001FFFE000000
310
7FFFFFF0001FFFFFFE0003FFFFFFE0003FFE0003FFFFFFE0003FFF0003FFFFFF
310
FFF0003FFFFF8001F000E0003FFFFF0001FF0001FFE000001FFE0007FF80007F
310
C0007FFFFE0003FC0007FFFFE0003FF8000001FFFE0000007FFFFFF0001FFFFF
310
FE0001FFFFFFC0003FFE0001FFFFFFC0003FFF0003FFFFFFFFF0003FFFFF0001
310
F000E0003FFFFF0003FF0001FFE000003FFE0007FF80007FC0007FFFFE0003FC
310
0007FFFFE0003FF8000001FFFE0000007FFFFFF0001FFFFFFF0001FFFFFFC000
310
7FFF0001FFFFFFC0007FFF0003FFFFFFFFF0003FFFFF0001F000E0003FFFFE00
310
03FF0003FFF000003FFE0003FF80007FC0007FFFFC0003FE0007FFFFE0003FF8
310
000001FFFE0000007FFFFFF0001FFFFFFF0000FFFFFF80007FFF0000FFFFFF80
310
007FFF0003FFFFFFFFF0003FFFFF0001F000E0003FFFFE0003FF0003FFF00000
310
3FFF0003FF80007FC0007FFFFC0007FE0007FFFFC0003FF8000001FFFE000000
310
7FFFFFF0001FFFFFFF80007FFFFF0000FFFF80007FFFFF0000FFFF0003FFFFFF
310
FFF0003FFFFF0003F000E0003FFFFC0003FE0003FFF000003FFF0003FF80007F
310
E0003FFFF80007FE0003FFFFC0007FF8000001FFFE0000007FFFFFF0001FFFFF
310
FF80003FFFFE0000FFFF80003FFFFE0000FFFF0003FFFFFFFFF0001FFFFE0003
310
F000F0001FFFF80003FE0003FFF000007FFF0001FF80007FE0003FFFF00007FE
310
0001FFFF80007FF8000001FFFE0000007FFFFFF0001FFFFFFFC0000FFFF80001
310
FFFFC0000FFFF80001FFFF0003FFFFFFFFF0001FFFFC0003F000F0000FFFF000
310
07FE0007FFF800007FFF0001FF80007FE0001FFFE00007FF0000FFFE00007FF8
310
000001FFFE0000007FFFFFF0001FFFFFFFC00003FFE00001FFFFC00003FFE000
310
01FFFF0003FFFFFFFFF8000FFFF80003F000F00003FFC00007FC0007FFF80000
310
7FFF8001FF80007FF00007FF80000FFF00007FF80000FFF8000001FFFE000000
310
7F80000000000001FFE000003E000003FFFFE000003E000003FFFF0003FFFFFF
310
FFF80003FFE00007F000F800000000000FFC0007FFF800007FFF8001FF80007F
310
F000000000000FFF000000000000FFF8000001FFFE0000007F80000000000001
310
FFF0000000000007FFFFF0000000000007FFFF0003FFFFFFFFFC00007E000007
310
F000F800000000000FFC0007FFF80000FFFF8000FF80007FF800000000001FFF
310
800000000001FFF8000001FFFE0000007F80000000000001FFF800000000000F
310
FFFFF800000000000FFFFF0003FFFFFFFFFC00000000000FF000FC0000000000
310
1FFC0007FFFC0000FFFF8000FF80007FF800000000003FFFC00000000001FFF8
310
000001FFFE0000007F80000000000001FFF800000000000FFFFFF80000000000
310
0FFFFF0003FFFFFFFFFE00000000001FF000FE00000000003FF8000FFFFC0000
310
FFFF8000FF80007FFC00000000003FFFC00000000003FFF8000001FFFE000000
310
7F80000000000001FFFC00000000001FFFFFFC00000000001FFFFF0003FFFFFF
310
FFFF00000000001FF000FF00000000003FF8000FFFFC0000FFFFC000FF80007F
310
FE00000000007FFFE00000000007FFF8000001FFFE0000007F80000000000001
310
FFFE00000000003FFFFFFE00000000003FFFFF0003FFFFFFFFFF80000000003F
310
F000FF80000000007FF8000FFFFC0001FFFFC0007F80007FFF0000000000FFFF
310
F0000000000FFFF800000000000000007F80000000000001FFFF8000000000FF
310
FFFFFF8000000000FFFFFF0003FFFFFFFFFFC0000000007FF000FFC000000000
310
FFF8000FFFFE0001FFFFC0007F80007FFF8000000001FFFFF8000000001FFFF8
310
00000000000000007F80000000000001FFFFC000000001FFFFFFFFC000000001
310
FFFFFF0003FFFFFFFFFFE000000000FFF000FFE000000003FFF0001FFFFE0001
310
FFFFC0007F80007FFFC000000007FFFFFE000000003FFFF80000000000000000
310
7F80000000000001FFFFE000000003FFFFFFFFE000000003FFFFFF0003FFFFFF
310
FFFFF000000003FFF000FFF80000000FFFF0001FFFFE0001FFFFE0007F80007F
310
FFF00000000FFFFFFF00000000FFFFF800000000000000007F80000000000001
310
FFFFF80000000FFFFFFFFFF80000000FFFFFFF0003FFFFFFFFFFFC0000000FFF
310
F000FFFE0000003FFFF0001FFFFE0003FFFFE0003F80007FFFFC0000003FFFFF
310
FFC0000003FFFFF800000000000000007F80000000000001FFFFFE0000003FFF
310
FFFFFFFE0000003FFFFFFF0003FFFFFFFFFFFF0000003FFFF000FFFF800000FF
310
FFF0001FFFFF0003FFFFE0003F80007FFFFF000001FFFFFFFFF800001FFFFFF8
310
00000000000000007F80000000000001FFFFFFC00001FFFFFFFFFFFFC00001FF
310
FFFFFF0003FFFFFFFFFFFFC00000FFFFF000FFFFF8000FFFFFFFFFFFFFFFFFFF
310
FFFFFFFFFFFFFFFFFFFFF0001FFFFFFFFFFF0000FFFFFFF80000000000000000
310
7FFFFFFFFFFFFFFFFFFFFFFC001FFFFFFFFFFFFFFC001FFFFFFFFFFFFFFFFFFF
310
FFFFFFFC001FFFFFF000FFFFFFFFFFFFFFFFFFFFFFFFFFFFFFFFFFFFFFFFFFFF
310
FFFFFFFFFFFFFFFFFFFFFFFFFFFFFFFFFFFFFFFFFFFFFFFFFFFFFFFFFFFFFFFF
310
FFFFFFFFFFFFFFFFFFFFFFFFFFFFFFFFFFFFFFFFFFFFFFFFFFFFFFFFFFFFFFFF
310
F000FFFFFFFFFFFFFFFFFFFFFFFFFFFFFFFFFFFFFFFFFFFFFFFFFFFFFFFFFFFF
310
FFFFFFFFFFFFFFFFFFFFFFFFFFFFFFFFFFFFFFFFFFFFFFFFFFFFFFFFFFFFFFFF
310
FFFFFFFFFFFFFFFFFFFFFFFFFFFFFFFFFFFFFFFFFFFFFFFFF000FFFFFFFFFFFF
310
FFFFFFFFFFFFFFFFFFFFFFFFFFFFFFFFFFFFFFFFFFFFFFFFFFFFFFFFFFFFFFFF
310
FFFFFFFFFFFFFFFFFFFFFFFFFFFFFFFFFFFFFFFFFFFFFFFFFFFFFFFFFFFFFFFF
310
FFFFFFFFFFFFFFFFFFFFFFFFFFFFFFFFF000FFFFFFFFFFFFFFFFFFFFFFFFFFFF
310
FFFFFFFFFFFFFFFFFFFFFFFFFFFFFFFFFFFFFFFFFFFFFFFFFFFFFFFFFFFFFFFF
310
FFFFFFFFFFFFFFFFFFFFFFFFFFFFFFFFFFFFFFFFFFFFFFFFFFFFFFFFFFFFFFFF
310
FFFFFFFFFFFFFFFFF000FFFFFFFFFFFFFFFFFFFFFFFFFFFFFFFFFFFFFFFFFFFF
310
FFFFFFFFFFFFFFFFFFFFFFFFFFFFFFFFFFFFFFFFFFFFFFFFFFFFFFFFFFFFFFFF
310
FFFFFFFFFFFFFFFFFFFFFFFFFFFFFFFFFFFFFFFFFFFFFFFFFFFFFFFFFFFFFFFF
310
F000FFFFFFFFFFFFFFFFFFFFFFFFFFFFFFFFFFFFFFFFFFFFFFFFFFFFFFFFFFFF
310
FFFFFFFFFFFFFFFFFFFFFFFFFFFFFFFFFFFFFFFFFFFFFFFFFFFFFFFFFFFFFFFF
310
FFFFFFFFFFFFFFFFFFFFFFFFFFFFFFFFFFFFFFFFFFFFFFFFF000FFFFFFFFFFFF
310
FFFFFFFFFFFFFFFFFFFFFFFFFFFFFFFFFFFFFFFFFFFFFFFFFFFFFFFFFFFFFFFF
310
FFFFFFFFFFFFFFFFFFFFFFFFFFFFFFFFFFFFFFFFFFFFFFFFFFFFFFFFFFFFFFFF
310
FFFFFFFFFFFFFFFFFFFFFFFFFFFFFFFFF000FFFFFFFFFFFFFFFFFFFFFFFFFFFF
310
FFFFFFFFFFFFFFFFFFFFFFFFFFFFFFFFFFFFFFFFFFFFFFFFFFFFFFFFFFFFFFFF
310
FFFFFFFFFFFFFFFFFFFFFFFFFFFFFFFFFFFFFFFFFFFFFFFFFFFFFFFFFFFFFFFF
310
FFFFFFFFFFFFFFFFF000FFFFFFFFFFFFFFFFFFFFFFFFFFFFFFFFFFFFFFFFFFFF
310
FFFFFFFFFFFFFFFFFFFFFFFFFFFFFFFFFFFFFFFFFFFFFFFFFFFFFFFFFFFFFFFF
310
FFFFFFFFFFFFFFFFFFFFFFFFFFFFFFFFFFFFFFFFFFFFFFFFFFFFFFFFFFFFFFFF
310
F000FFFFFFFFFFFFFFFFFFFFFFFFFFFFFFFFFFFFFFFFFFFFFFFFFFFFFFFFFFFF
310
FFFFFFFFFFFFFFFFFFFFFFFFFFFFFFFFFFFFFFFFFFFFFFFFFFFFFFFFFFFFFFFF
310
FFFFFFFFFFFFFFFFFFFFFFFFFFFFFFFFFFFFFFFFFFFFFFFFF000FFFFFFFFFFFF
310
FFFFFFFFFFFFFFFFFFFFFFFFFFFFFFFFFFFFFFFFFFFFFFFFFFFFFFFFFFFFFFFF
310
FFFFFFFFFFFFFFFFFFFFFFFFFFFFFFFFFFFFFFFFFFFFFFFFFFFFFFFFFFFFFFFF
310
FFFFFFFFFFFFFFFFFFFFFFFFFFFFFFFFF000FFFFFFFFFFFFFFFFFFFFFFFFFFFF
310
FFFFFFFFFFFFFFFFFFFFFFFFFFFFFFFFFFFFFFFFFFFFFFFFFFFFFFFFFFFFFFFF
310
FFFFFFFFFFFFFFFFFFFFFFFFFFFFFFFFFFFFFFFFFFFFFFFFFFFFFFFFFFFFFFFF
310
FFFFFFFFFFFFFFFFF000FFFFFFFFFFFFFFFFFFFFFFFFFFFFFFFFFFFFFFFFFFFF
310
FFFFFFFFFFFFFFFFFFFFFFFFFFFFFFFFFFFFFFFFFFFFFFFFFFFFFFFFFFFFFFFF
310
FFFFFFFFFFFFFFFFFFFFFFFFFFFFFFFFFFFFFFFFFFFFFFFFFFFFFFFFFFFFFFFF
310
F000FFFFFFFFFFFFFFFFFFFFFFFFFFFFFFFFFFFFFFFFFFFFFFFFFFFFFFFFFFFF
310
FFFFFFFFFFFFFFFFFFFFFFFFFFFFFFFFFFFFFFFFFFFFFFFFFFFFFFFFFFFFFFFF
310
FFFFFFFFFFFFFFFFFFFFFFFFFFFFFFFFFFFFFFFFFFFFFFFFF000FFFFFFFFFFFF
310
FFFFFFFFFFFFFFFFFFFFFFFFFFFFFFFFFFFFFFFFFFFFFFFFFFFFFFFFFFFFFFFF
310
FFFFFFFFFFFFFFFFFFFFFFFFFFFFFFFFFFFFFFFFFFFFFFFFFFFFFFFFFFFFFFFF
310
FFFFFFFFFFFFFFFFFFFFFFFFFFFFFFFFF000FFFFFFFFFFFFFFFFFFFFFFFFFFFF
310
FFFFFFFFFFFFFFFFFFFFFFFFFFFFFFFFFFFFFFFFFFFFFFFFFFFFFFFFFFFFFFFF
310
FFFFFFFFFFFFFFFFFFFFFFFFFFFFFFFFFFFFFFFFFFFFFFFFFFFFFFFFFFFFFFFF
310
FFFFFFFFFFFFFFFFF000FFFFFFFFFFFFFFFFFFFFFFFFFFFFFFFFFFFFFFFFFFFF
310
FFFFFFFFFFFFFFFFFFFFFFFFFFFFFFFFFFFFFFFFFFFFFFFFFFFFFFFFFFFFFFFF
310
FFFFFFFFFFFFFFFFFFFFFFFFFFFFFFFFFFFFFFFFFFFFFFFFFFFFFFFFFFFFFFFF
310
F000FFFFFFFFFFFFFFFFFFFFFFFFFFFFFFFFFFFFFFFFFFFFFFFFFFFFFFFFFFFF
310
FFFFFFFFFFFFFFFFFFFFFFFFFFFFFFFFFFFFFFFFFFFFFFFFFFFFFFFFFFFFFFFF
310
FFFFFFFFFFFFFFFFFFFFFFFFFFFFFFFFFFFFFFFFFFFFFFFFF000FFFFFFFFFFFF
310
FFFFFFFFFFFFFFFFFFFFFFFFFFFFFFFFFFFFFFFFFFFFFFFFFFFFFFFFFFFFFFFF
310
FFFFFFFFFFFFFFFFFFFFFFFFFFFFFFFFFFFFFFFFFFFFFFFFFFFFFFFFFFFFFFFF
310
FFFFFFFFFFFFFFFFFFFFFFFFFFFFFFFFF000FFFFFFFFFFFFFFFFFFFFFFFFFFFF
310
FFFFFFFFFFFFFFFFFFFFFFFFFFFFFFFFFFFFFFFFFFFFFFFFFFFFFFFFFFFFFFFF
310
FFFFFFFFFFFFFFFFFFFFFFFFFFFFFFFFFFFFFFFFFFFFFFFFFFFFFFFFFFFFFFFF
310
FFFFFFFFFFFFFFFFF000FFFFFFFFFFFFFFFFFFFFFFFFFFFFFFFFFFFFFFFFFFFF
310
FFFFFFFFFFFFFFFFFFFFFFFFFFFFFFFFFFFFFFFFFFFFFFFFFFFFFFFFFFFFFFFF
310
FFFFFFFFFFFFFFFFFFFFFFFFFFFFFFFFFFFFFFFFFFFFFFFFFFFFFFFFFFFFFFFF
310
F000FFFFFFFFFFFFFFFFFFFFFFFFFFFFFFFFFFFFFFFFFFFFFFFFFFFFFFFFFFFF
310
FFFFFFFFFFFFFFFFFFFFFFFFFFFFFFFFFFFFFFFFFFFFFFFFFFFFFFFFFFFFFFFF
310
FFFFFFFFFFFFFFFFFFFFFFFFFFFFFFFFFFFFFFFFFFFFFFFFF000FFFFFFFFFFFF
310
FFFFFFFFFFFFFFFFFFFFFFFFFFFFFFFFFFFFFFFFFFFFFFFFFFFFFFFFFFFFFFFF
310
FFFFFFFFFFFFFFFFFFFFFFFFFFFFFFFFFFFFFFFFFFFFFFFFFFFFFFFFFFFFFFFF
310
FFFFFFFFFFFFFFFFFFFFFFFFFFFFFFFFF0000000000000000000000000000000
310
0000000001000000010000000100000001000000010000000000000001000000
310
0100000001000000010000000100000001000000010000000100000001000000
310
0100000001000000010000000100000001000000000000000100000001000000
310
0100000001000000010000000100000001000000010000000100000001000000
310
0100000001000000010000000100000000000000010000000100000001000000
310
0100000001000000010000000100000001000000000000000100000001000000
310
0100000001000000010000000100000001000000010000000000000001000000
310
0100000001000000010000000100000001000000010000000100000000000000
310
0100000001000000010000000100000001000000010000000100000001000000
310
0000000001000000010000000100000001000000010000000100000001000000
310
0100000001000000010000000100000001000000010000000100000001000000
310
0100000001000000010000000100000001000000010000000100000001000000
310
0100000001000000010000000000000001000000010000000100000001000000
310
0100000001000000010000000100000001000000010000000100000001000000
310
0100000001000000010000000100000001000000010000000100000001000000
  1
OLE
  0
ENDSEC
  0
SECTION
  2
OBJECTS
  0
DICTIONARY
  5
C
330
0
100
AcDbDictionary
281
     1
  3
ACAD_GROUP
350
D
  3
ACAD_LAYOUT
350
1A
  3
ACAD_MLEADERSTYLE
350
207
  3
ACAD_MLINESTYLE
350
17
  3
ACAD_PLOTSETTINGS
350
19
  3
ACAD_PLOTSTYLENAME
350
E
  3
ACAD_TABLESTYLE
350
206
  3
ACAD_VISUALSTYLE
350
2A
  3
AcDbVariableDictionary
350
208
  0
DICTIONARY
  5
D
102
{ACAD_REACTORS
330
C
102
}
330
C
100
AcDbDictionary
281
     1
  0
DICTIONARY
  5
1A
102
{ACAD_REACTORS
330
C
102
}
330
C
100
AcDbDictionary
281
     1
  3
Layout1
350
1E
  3
Layout2
350
26
  3
Model
350
22
  0
DICTIONARY
  5
207
102
{ACAD_REACTORS
330
C
102
}
330
C
100
AcDbDictionary
281
     1
  0
DICTIONARY
  5
17
102
{ACAD_REACTORS
330
C
102
}
330
C
100
AcDbDictionary
281
     1
  3
Standard
350
18
  0
DICTIONARY
  5
19
102
{ACAD_REACTORS
330
C
102
}
330
C
100
AcDbDictionary
281
     1
  0
ACDBDICTIONARYWDFLT
  5
E
102
{ACAD_REACTORS
330
C
102
}
330
C
100
AcDbDictionary
281
     1
  3
Normal
350
F
100
AcDbDictionaryWithDefault
340
F
  0
DICTIONARY
  5
206
102
{ACAD_REACTORS
330
C
102
}
330
C
100
AcDbDictionary
281
     1
  0
DICTIONARY
  5
2A
102
{ACAD_REACTORS
330
C
102
}
330
C
100
AcDbDictionary
281
     1
  3
2dWireframe
350
2F
  3
3D Hidden
350
31
  3
3dWireframe
350
30
  3
Basic
350
32
  3
Brighten
350
36
  3
ColorChange
350
3A
  3
Conceptual
350
34
  3
Dim
350
35
  3
Facepattern
350
39
  3
Flat
350
2B
  3
FlatWithEdges
350
2C
  3
Gouraud
350
2D
  3
GouraudWithEdges
350
2E
  3
Linepattern
350
38
  3
Realistic
350
33
  3
Thicken
350
37
  0
DICTIONARY
  5
208
102
{ACAD_REACTORS
330
C
102
}
330
C
100
AcDbDictionary
281
     1
  3
PSOLHEIGHT
350
20A
  3
PSOLWIDTH
350
209
  0
LAYOUT
  5
1E
102
{ACAD_REACTORS
330
1A
102
}
330
1A
100
AcDbPlotSettings
  1

  2
none_device
  4

  6

 40
0.0
 41
0.0
 42
0.0
 43
0.0
 44
0.0
 45
0.0
 46
0.0
 47
0.0
 48
0.0
 49
0.0
140
0.0
141
0.0
142
1.0
143
1.0
 70
   688
 72
     0
 73
     0
 74
     5
  7

 75
    16
147
1.0
148
0.0
149
0.0
100
AcDbLayout
  1
Layout1
 70
     1
 71
     1
 10
0.0
 20
0.0
 11
420.0
 21
297.0
 12
0.0
 22
0.0
 32
0.0
 14
1.0000000000E+20
 24
1.0000000000E+20
 34
1.0000000000E+20
 15
-1.0000000000E+20
 25
-1.0000000000E+20
 35
-1.0000000000E+20
146
0.0
 13
0.0
 23
0.0
 33
0.0
 16
1.0
 26
0.0
 36
0.0
 17
0.0
 27
1.0
 37
0.0
 76
     0
330
1B
  0
LAYOUT
  5
26
102
{ACAD_REACTORS
330
1A
102
}
330
1A
100
AcDbPlotSettings
  1

  2
none_device
  4

  6

 40
0.0
 41
0.0
 42
0.0
 43
0.0
 44
0.0
 45
0.0
 46
0.0
 47
0.0
 48
0.0
 49
0.0
140
0.0
141
0.0
142
1.0
143
1.0
 70
   688
 72
     0
 73
     0
 74
     5
  7

 75
    16
147
1.0
148
0.0
149
0.0
100
AcDbLayout
  1
Layout2
 70
     1
 71
     2
 10
0.0
 20
0.0
 11
0.0
 21
0.0
 12
0.0
 22
0.0
 32
0.0
 14
0.0
 24
0.0
 34
0.0
 15
0.0
 25
0.0
 35
0.0
146
0.0
 13
0.0
 23
0.0
 33
0.0
 16
1.0
 26
0.0
 36
0.0
 17
0.0
 27
1.0
 37
0.0
 76
     0
330
23
  0
LAYOUT
  5
22
102
{ACAD_REACTORS
330
1A
102
}
330
1A
100
AcDbPlotSettings
  1

  2
none_device
  4

  6

 40
0.0
 41
0.0
 42
0.0
 43
0.0
 44
0.0
 45
0.0
 46
0.0
 47
0.0
 48
0.0
 49
0.0
140
0.0
141
0.0
142
1.0
143
1.0
 70
  1712
 72
     0
 73
     0
 74
     0
  7

 75
     0
147
1.0
148
0.0
149
0.0
100
AcDbLayout
  1
Model
 70
     1
 71
     0
 10
0.0
 20
0.0
 11
297.0
 21
210.0
 12
0.0
 22
0.0
 32
0.0
 14
0.0
 24
0.0
 34
0.0
 15
297.0
 25
210.0
 35
0.0
146
0.0
 13
0.0
 23
0.0
 33
0.0
 16
1.0
 26
0.0
 36
0.0
 17
0.0
 27
1.0
 37
0.0
 76
     0
330
1F
331
29
  0
MLINESTYLE
  5
18
102
{ACAD_REACTORS
330
17
102
}
330
17
100
AcDbMlineStyle
  2
Standard
 70
     0
  3

 62
   256
 51
90.0
 52
90.0
 71
     2
 49
0.5
 62
   256
  6
BYLAYER
 49
-0.5
 62
   256
  6
BYLAYER
  0
ACDBPLACEHOLDER
  5
F
102
{ACAD_REACTORS
330
E
102
}
330
E
  0
VISUALSTYLE
  5
2F
102
{ACAD_REACTORS
330
2A
102
}
330
2A
100
AcDbVisualStyle
  2
2dWireframe
 70
     4
 71
     0
 72
     2
 73
     0
 90
        0
 40
-0.6
 41
-30.0
 62
     5
 63
     7
 74
     1
 91
        4
 64
     7
 65
   257
 75
     1
175
     1
 42
1.0
 92
        0
 66
   257
 43
1.0
 76
     1
 77
     6
 78
     2
 67
     7
 79
     5
170
     0
171
     0
290
     0
174
     0
 93
        1
 44
0.0
173
     0
291
     0
 45
0.0
1001
ACAD
1000
AcDbSavedByObjectVersion
1070
     0
  0
VISUALSTYLE
  5
31
102
{ACAD_REACTORS
330
2A
102
}
330
2A
100
AcDbVisualStyle
  2
3D Hidden
 70
     6
 71
     1
 72
     2
 73
     2
 90
        0
 40
-0.6
 41
-30.0
 62
     5
 63
     7
 74
     2
 91
        2
 64
     7
 65
   257
 75
     2
175
     1
 42
40.0
 92
        0
 66
   257
 43
1.0
 76
     1
 77
     6
 78
     2
 67
     7
 79
     3
170
     0
171
     0
290
     0
174
     0
 93
        1
 44
0.0
173
     0
291
     0
 45
0.0
1001
ACAD
1000
AcDbSavedByObjectVersion
1070
     0
  0
VISUALSTYLE
  5
30
102
{ACAD_REACTORS
330
2A
102
}
330
2A
100
AcDbVisualStyle
  2
3dWireframe
 70
     5
 71
     0
 72
     2
 73
     0
 90
        0
 40
-0.6
 41
-30.0
 62
     5
 63
     7
 74
     1
 91
        4
 64
     7
 65
   257
 75
     1
175
     1
 42
1.0
 92
        0
 66
   257
 43
1.0
 76
     1
 77
     6
 78
     2
 67
     7
 79
     5
170
     0
171
     0
290
     0
174
     0
 93
        1
 44
0.0
173
     0
291
     0
 45
0.0
1001
ACAD
1000
AcDbSavedByObjectVersion
1070
     0
  0
VISUALSTYLE
  5
32
102
{ACAD_REACTORS
330
2A
102
}
330
2A
100
AcDbVisualStyle
  2
Basic
 70
     7
 71
     1
 72
     0
 73
     1
 90
        0
 40
-0.6
 41
-30.0
 62
     5
 63
     7
 74
     0
 91
        4
 64
     7
 65
   257
 75
     1
175
     1
 42
1.0
 92
        8
 66
     7
 43
1.0
 76
     1
 77
     6
 78
     2
 67
     7
 79
     5
170
     0
171
     0
290
     0
174
     0
 93
        1
 44
0.0
173
     0
291
     1
 45
0.0
1001
ACAD
1000
AcDbSavedByObjectVersion
1070
     0
  0
VISUALSTYLE
  5
36
102
{ACAD_REACTORS
330
2A
102
}
330
2A
100
AcDbVisualStyle
  2
Brighten
 70
    12
 71
     2
 72
     2
 73
     0
 90
        0
 40
-0.6
 41
-30.0
 62
     5
 63
     7
 74
     1
 91
        4
 64
     7
 65
   257
 75
     1
175
     1
 42
1.0
 92
        8
 66
     7
 43
1.0
 76
     1
 77
     6
 78
     2
 67
     7
 79
     5
170
     0
171
     0
290
     0
174
     0
 93
        1
 44
50.0
173
     0
291
     1
 45
0.0
1001
ACAD
1000
AcDbSavedByObjectVersion
1070
     0
  0
VISUALSTYLE
  5
3A
102
{ACAD_REACTORS
330
2A
102
}
330
2A
100
AcDbVisualStyle
  2
ColorChange
 70
    16
 71
     2
 72
     2
 73
     3
 90
        0
 40
-0.6
 41
-30.0
 62
     5
 63
     8
 74
     1
 91
        4
 64
     7
 65
   257
 75
     1
175
     1
 42
1.0
 92
        8
 66
     8
 43
1.0
 76
     1
 77
     6
 78
     2
 67
     7
 79
     5
170
     0
171
     0
290
     0
174
     0
 93
        1
 44
0.0
173
     0
291
     1
 45
0.0
1001
ACAD
1000
AcDbSavedByObjectVersion
1070
     0
  0
VISUALSTYLE
  5
34
102
{ACAD_REACTORS
330
2A
102
}
330
2A
100
AcDbVisualStyle
  2
Conceptual
 70
     9
 71
     3
 72
     2
 73
     0
 90
        0
 40
-0.6
 41
-30.0
 62
     5
 63
     7
 74
     2
 91
        2
 64
     7
 65
   257
 75
     1
175
     1
 42
40.0
 92
        8
 66
     7
 43
1.0
 76
     1
 77
     6
 78
     2
 67
     7
 79
     3
170
     0
171
     0
290
     0
174
     0
 93
        1
 44
0.0
173
     0
291
     0
 45
0.0
1001
ACAD
1000
AcDbSavedByObjectVersion
1070
     0
  0
VISUALSTYLE
  5
35
102
{ACAD_REACTORS
330
2A
102
}
330
2A
100
AcDbVisualStyle
  2
Dim
 70
    11
 71
     2
 72
     2
 73
     0
 90
        0
 40
-0.6
 41
-30.0
 62
     5
 63
     7
 74
     1
 91
        4
 64
     7
 65
   257
 75
     1
175
     1
 42
1.0
 92
        8
 66
     7
 43
1.0
 76
     1
 77
     6
 78
     2
 67
     7
 79
     5
170
     0
171
     0
290
     0
174
     0
 93
        1
 44
-50.0
173
     0
291
     1
 45
0.0
1001
ACAD
1000
AcDbSavedByObjectVersion
1070
     0
  0
VISUALSTYLE
  5
39
102
{ACAD_REACTORS
330
2A
102
}
330
2A
100
AcDbVisualStyle
  2
Facepattern
 70
    15
 71
     2
 72
     2
 73
     0
 90
        0
 40
-0.6
 41
-30.0
 62
     5
 63
     7
 74
     1
 91
        4
 64
     7
 65
   257
 75
     1
175
     1
 42
1.0
 92
        8
 66
     7
 43
1.0
 76
     1
 77
     6
 78
     2
 67
     7
 79
     5
170
     0
171
     0
290
     0
174
     0
 93
        1
 44
0.0
173
     0
291
     1
 45
0.0
1001
ACAD
1000
AcDbSavedByObjectVersion
1070
     0
  0
VISUALSTYLE
  5
2B
102
{ACAD_REACTORS
330
2A
102
}
330
2A
100
AcDbVisualStyle
  2
Flat
 70
     0
 71
     2
 72
     1
 73
     1
 90
        2
 40
-0.6
 41
30.0
 62
     5
 63
     7
 74
     0
 91
        4
 64
     7
 65
   257
 75
     1
175
     1
 42
1.0
 92
        8
 66
     7
 43
1.0
 76
     1
 77
     6
 78
     2
 67
     7
 79
     5
170
     0
171
     0
290
     0
174
     0
 93
       13
 44
0.0
173
     0
291
     1
 45
0.0
1001
ACAD
1000
AcDbSavedByObjectVersion
1070
     0
  0
VISUALSTYLE
  5
2C
102
{ACAD_REACTORS
330
2A
102
}
330
2A
100
AcDbVisualStyle
  2
FlatWithEdges
 70
     1
 71
     2
 72
     1
 73
     1
 90
        2
 40
-0.6
 41
30.0
 62
     5
 63
     7
 74
     1
 91
        4
 64
     7
 65
   257
 75
     1
175
     1
 42
1.0
 92
        0
 66
   257
 43
1.0
 76
     1
 77
     6
 78
     2
 67
     7
 79
     5
170
     0
171
     0
290
     0
174
     0
 93
       13
 44
0.0
173
     0
291
     1
 45
0.0
1001
ACAD
1000
AcDbSavedByObjectVersion
1070
     0
  0
VISUALSTYLE
  5
2D
102
{ACAD_REACTORS
330
2A
102
}
330
2A
100
AcDbVisualStyle
  2
Gouraud
 70
     2
 71
     2
 72
     2
 73
     1
 90
        2
 40
-0.6
 41
30.0
 62
     5
 63
     7
 74
     0
 91
        4
 64
     7
 65
   257
 75
     1
175
     1
 42
1.0
 92
        0
 66
     7
 43
1.0
 76
     1
 77
     6
 78
     2
 67
     7
 79
     5
170
     0
171
     0
290
     0
174
     0
 93
       13
 44
0.0
173
     0
291
     1
 45
0.0
1001
ACAD
1000
AcDbSavedByObjectVersion
1070
     0
  0
VISUALSTYLE
  5
2E
102
{ACAD_REACTORS
330
2A
102
}
330
2A
100
AcDbVisualStyle
  2
GouraudWithEdges
 70
     3
 71
     2
 72
     2
 73
     1
 90
        2
 40
-0.6
 41
30.0
 62
     5
 63
     7
 74
     1
 91
        4
 64
     7
 65
   257
 75
     1
175
     1
 42
1.0
 92
        0
 66
   257
 43
1.0
 76
     1
 77
     6
 78
     2
 67
     7
 79
     5
170
     0
171
     0
290
     0
174
     0
 93
       13
 44
0.0
173
     0
291
     1
 45
0.0
1001
ACAD
1000
AcDbSavedByObjectVersion
1070
     0
  0
VISUALSTYLE
  5
38
102
{ACAD_REACTORS
330
2A
102
}
330
2A
100
AcDbVisualStyle
  2
Linepattern
 70
    14
 71
     2
 72
     2
 73
     0
 90
        0
 40
-0.6
 41
-30.0
 62
     5
 63
     7
 74
     1
 91
        4
 64
     7
 65
   257
 75
     7
175
     7
 42
1.0
 92
        8
 66
     7
 43
1.0
 76
     1
 77
     6
 78
     2
 67
     7
 79
     5
170
     0
171
     0
290
     0
174
     0
 93
        1
 44
0.0
173
     0
291
     1
 45
0.0
1001
ACAD
1000
AcDbSavedByObjectVersion
1070
     0
  0
VISUALSTYLE
  5
33
102
{ACAD_REACTORS
330
2A
102
}
330
2A
100
AcDbVisualStyle
  2
Realistic
 70
     8
 71
     2
 72
     2
 73
     0
 90
        0
 40
-0.6
 41
-30.0
 62
     5
 63
     7
 74
     1
 91
        0
 64
     7
 65
   257
 75
     1
175
     1
 42
1.0
 92
        8
 66
     8
 43
1.0
 76
     1
 77
     6
 78
     2
 67
     7
 79
     5
170
     0
171
     0
290
     0
174
     0
 93
       13
 44
0.0
173
     0
291
     0
 45
0.0
1001
ACAD
1000
AcDbSavedByObjectVersion
1070
     0
  0
VISUALSTYLE
  5
37
102
{ACAD_REACTORS
330
2A
102
}
330
2A
100
AcDbVisualStyle
  2
Thicken
 70
    13
 71
     2
 72
     2
 73
     0
 90
        0
 40
-0.6
 41
-30.0
 62
     5
 63
     7
 74
     1
 91
        4
 64
     7
 65
   257
 75
     1
175
     1
 42
1.0
 92
       12
 66
     7
 43
1.0
 76
     1
 77
     6
 78
     2
 67
     7
 79
     5
170
     0
171
     0
290
     0
174
     0
 93
        1
 44
0.0
173
     0
291
     1
 45
0.0
1001
ACAD
1000
AcDbSavedByObjectVersion
1070
     0
  0
DICTIONARYVAR
  5
20A
102
{ACAD_REACTORS
330
208
102
}
330
208
100
DictionaryVariables
280
     0
  1
80.000000
  0
DICTIONARYVAR
  5
209
102
{ACAD_REACTORS
330
208
102
}
330
208
100
DictionaryVariables
280
     0
  1
5.000000
  0
ENDSEC
  0
EOF
