  0
SECTION
  2
HEADER
  9
$ACADVER
  1
AC1015
  9
$ACADMAINTVER
 70
     6
  9
$DWGCODEPAGE
  3
ANSI_1252
  9
$INSBASE
 10
0.0
 20
0.0
 30
0.0
  9
$EXTMIN
 10
0.0
 20
0.0
 30
0.0
  9
$EXTMAX
 10
297.0
 20
210.0
 30
0.0
  9
$LIMMIN
 10
0.0
 20
0.0
  9
$LIMMAX
 10
297.0
 20
210.0
  9
$ORTHOMODE
 70
     0
  9
$REGENMODE
 70
     1
  9
$FILLMODE
 70
     1
  9
$QTEXTMODE
 70
     0
  9
$MIRRTEXT
 70
     1
  9
$LTSCALE
 40
1.0
  9
$ATTMODE
 70
     1
  9
$TEXTSIZE
 40
2.0
  9
$TRACEWID
 40
1.0
  9
$TEXTSTYLE
  7
Standard
  9
$CLAYER
  8
0
  9
$CELTYPE
  6
ByLayer
  9
$CECOLOR
 62
   256
  9
$CELTSCALE
 40
1.0
  9
$DISPSILH
 70
     0
  9
$DIMSCALE
 40
1.0
  9
$DIMASZ
 40
3.0
  9
$DIMEXO
 40
0.0
  9
$DIMDLI
 40
3.75
  9
$DIMRND
 40
0.0
  9
$DIMDLE
 40
0.0
  9
$DIMEXE
 40
1.0
  9
$DIMTP
 40
0.0
  9
$DIMTM
 40
0.0
  9
$DIMTXT
 40
2.0
  9
$DIMCEN
 40
2.5
  9
$DIMTSZ
 40
0.0
  9
$DIMTOL
 70
     0
  9
$DIMLIM
 70
     0
  9
$DIMTIH
 70
     1
  9
$DIMTOH
 70
     1
  9
$DIMSE1
 70
     0
  9
$DIMSE2
 70
     0
  9
$DIMTAD
 70
     1
  9
$DIMZIN
 70
     0
  9
$DIMBLK
  1

  9
$DIMASO
 70
     1
  9
$DIMSHO
 70
     1
  9
$DIMPOST
  1

  9
$DIMAPOST
  1

  9
$DIMALT
 70
     0
  9
$DIMALTD
 70
     3
  9
$DIMALTF
 40
0.0393700787
  9
$DIMLFAC
 40
1.0
  9
$DIMTOFL
 70
     1
  9
$DIMTVP
 40
0.0
  9
$DIMTIX
 70
     0
  9
$DIMSOXD
 70
     0
  9
$DIMSAH
 70
     0
  9
$DIMBLK1
  1

  9
$DIMBLK2
  1

  9
$DIMSTYLE
  2
ISO-25
  9
$DIMCLRD
 70
     0
  9
$DIMCLRE
 70
     0
  9
$DIMCLRT
 70
     0
  9
$DIMTFAC
 40
1.0
  9
$DIMGAP
 40
1.524
  9
$DIMJUST
 70
     0
  9
$DIMSD1
 70
     0
  9
$DIMSD2
 70
     0
  9
$DIMTOLJ
 70
     0
  9
$DIMTZIN
 70
     0
  9
$DIMALTZ
 70
     0
  9
$DIMALTTZ
 70
     0
  9
$DIMUPT
 70
     0
  9
$DIMDEC
 70
     2
  9
$DIMTDEC
 70
     3
  9
$DIMALTU
 70
     2
  9
$DIMALTTD
 70
     3
  9
$DIMTXSTY
  7
Standard
  9
$DIMAUNIT
 70
     0
  9
$DIMADEC
 70
     2
  9
$DIMALTRND
 40
0.0
  9
$DIMAZIN
 70
     0
  9
$DIMDSEP
 70
    44
  9
$DIMATFIT
 70
     3
  9
$DIMFRAC
 70
     0
  9
$DIMLDRBLK
  1

  9
$DIMLUNIT
 70
     2
  9
$DIMLWD
 70
    -2
  9
$DIMLWE
 70
    -2
  9
$DIMTMOVE
 70
     0
  9
$LUNITS
 70
     2
  9
$LUPREC
 70
     2
  9
$SKETCHINC
 40
1.0
  9
$FILLETRAD
 40
10.0
  9
$AUNITS
 70
     0
  9
$AUPREC
 70
     2
  9
$MENU
  1
.
  9
$ELEVATION
 40
0.0
  9
$PELEVATION
 40
0.0
  9
$THICKNESS
 40
0.0
  9
$LIMCHECK
 70
     0
  9
$CHAMFERA
 40
0.0
  9
$CHAMFERB
 40
0.0
  9
$CHAMFERC
 40
0.0
  9
$CHAMFERD
 40
0.0
  9
$SKPOLY
 70
     0
  9
$TDCREATE
 40
2458169.44695941
  9
$TDUCREATE
 40
2458169.405292743
  9
$TDUPDATE
 40
2458169.44696147
  9
$TDUUPDATE
 40
2458169.405294803
  9
$TDINDWG
 40
0.0000000116
  9
$TDUSRTIMER
 40
0.0000000116
  9
$USRTIMER
 70
     1
  9
$ANGBASE
 50
0.0
  9
$ANGDIR
 70
     0
  9
$PDMODE
 70
     0
  9
$PDSIZE
 40
-1.0
  9
$PLINEWID
 40
0.0
  9
$SPLFRAME
 70
     0
  9
$SPLINETYPE
 70
     6
  9
$SPLINESEGS
 70
     8
  9
$HANDSEED
  5
278
  9
$SURFTAB1
 70
     6
  9
$SURFTAB2
 70
     6
  9
$SURFTYPE
 70
     6
  9
$SURFU
 70
     6
  9
$SURFV
 70
     6
  9
$UCSBASE
  2

  9
$UCSNAME
  2

  9
$UCSORG
 10
0.0
 20
0.0
 30
0.0
  9
$UCSXDIR
 10
1.0
 20
0.0
 30
0.0
  9
$UCSYDIR
 10
0.0
 20
1.0
 30
0.0
  9
$UCSORTHOREF
  2

  9
$UCSORTHOVIEW
 70
     0
  9
$UCSORGTOP
 10
0.0
 20
0.0
 30
0.0
  9
$UCSORGBOTTOM
 10
0.0
 20
0.0
 30
0.0
  9
$UCSORGLEFT
 10
0.0
 20
0.0
 30
0.0
  9
$UCSORGRIGHT
 10
0.0
 20
0.0
 30
0.0
  9
$UCSORGFRONT
 10
0.0
 20
0.0
 30
0.0
  9
$UCSORGBACK
 10
0.0
 20
0.0
 30
0.0
  9
$PUCSBASE
  2

  9
$PUCSNAME
  2

  9
$PUCSORG
 10
0.0
 20
0.0
 30
0.0
  9
$PUCSXDIR
 10
1.0
 20
0.0
 30
0.0
  9
$PUCSYDIR
 10
0.0
 20
1.0
 30
0.0
  9
$PUCSORTHOREF
  2

  9
$PUCSORTHOVIEW
 70
     0
  9
$PUCSORGTOP
 10
0.0
 20
0.0
 30
0.0
  9
$PUCSORGBOTTOM
 10
0.0
 20
0.0
 30
0.0
  9
$PUCSORGLEFT
 10
0.0
 20
0.0
 30
0.0
  9
$PUCSORGRIGHT
 10
0.0
 20
0.0
 30
0.0
  9
$PUCSORGFRONT
 10
0.0
 20
0.0
 30
0.0
  9
$PUCSORGBACK
 10
0.0
 20
0.0
 30
0.0
  9
$USERI1
 70
     0
  9
$USERI2
 70
     0
  9
$USERI3
 70
     0
  9
$USERI4
 70
     0
  9
$USERI5
 70
     0
  9
$USERR1
 40
0.0
  9
$USERR2
 40
0.0
  9
$USERR3
 40
0.0
  9
$USERR4
 40
0.0
  9
$USERR5
 40
0.0
  9
$WORLDVIEW
 70
     1
  9
$SHADEDGE
 70
     3
  9
$SHADEDIF
 70
    70
  9
$TILEMODE
 70
     1
  9
$MAXACTVP
 70
    64
  9
$PINSBASE
 10
0.0
 20
0.0
 30
0.0
  9
$PLIMCHECK
 70
     0
  9
$PEXTMIN
 10
1.0000000000E+20
 20
1.0000000000E+20
 30
1.0000000000E+20
  9
$PEXTMAX
 10
-1.0000000000E+20
 20
-1.0000000000E+20
 30
-1.0000000000E+20
  9
$PLIMMIN
 10
0.0
 20
0.0
  9
$PLIMMAX
 10
420.0
 20
297.0
  9
$UNITMODE
 70
     0
  9
$VISRETAIN
 70
     1
  9
$PLINEGEN
 70
     0
  9
$PSLTSCALE
 70
     1
  9
$TREEDEPTH
 70
  3020
  9
$CMLSTYLE
  2
Standard
  9
$CMLJUST
 70
     0
  9
$CMLSCALE
 40
20.0
  9
$PROXYGRAPHICS
 70
     1
  9
$MEASUREMENT
 70
     1
  9
$CELWEIGHT
370
    -1
  9
$ENDCAPS
280
     0
  9
$JOINSTYLE
280
     0
  9
$LWDISPLAY
290
     1
  9
$INSUNITS
 70
     4
  9
$HYPERLINKBASE
  1

  9
$STYLESHEET
  1

  9
$XEDIT
290
     1
  9
$CEPSNTYPE
380
     0
  9
$PSTYLEMODE
290
     1
  9
$FINGERPRINTGUID
  2
{A65F0DD5-7228-4BAF-88FF-438835901A4C}
  9
$VERSIONGUID
  2
{FAEB1C32-E019-11D5-929B-00C0DF256EC4}
  9
$EXTNAMES
290
     1
  9
$PSVPSCALE
 40
0.0
  9
$OLESTARTUP
290
     0
  0
ENDSEC
  0
SECTION
  2
CLASSES
  0
CLASS
  1
ACDBDICTIONARYWDFLT
  2
AcDbDictionaryWithDefault
  3
ObjectDBX Classes
 90
        0
280
     0
281
     0
  0
CLASS
  1
VISUALSTYLE
  2
AcDbVisualStyle
  3
ObjectDBX Classes
 90
     4095
280
     0
281
     0
  0
CLASS
  1
MATERIAL
  2
AcDbMaterial
  3
ObjectDBX Classes
 90
     1153
280
     0
281
     0
  0
CLASS
  1
SCALE
  2
AcDbScale
  3
ObjectDBX Classes
 90
     1153
280
     0
281
     0
  0
CLASS
  1
TABLESTYLE
  2
AcDbTableStyle
  3
ObjectDBX Classes
 90
     4095
280
     0
281
     0
  0
CLASS
  1
MLEADERSTYLE
  2
AcDbMLeaderStyle
  3
ACDB_MLEADERSTYLE_CLASS
 90
     4095
280
     0
281
     0
  0
CLASS
  1
SUN
  2
AcDbSun
  3
SCENEOE
 90
     1153
280
     0
281
     0
  0
CLASS
  1
ACDBPLACEHOLDER
  2
AcDbPlaceHolder
  3
ObjectDBX Classes
 90
        0
280
     0
281
     0
  0
CLASS
  1
LAYOUT
  2
AcDbLayout
  3
ObjectDBX Classes
 90
        0
280
     0
281
     0
  0
ENDSEC
  0
SECTION
  2
TABLES
  0
TABLE
  2
VPORT
  5
8
330
0
100
AcDbSymbolTable
 70
     1
  0
VPORT
  5
29
330
8
100
AcDbSymbolTableRecord
100
AcDbViewportTableRecord
  2
*Active
 70
     0
 10
0.0
 20
0.0
 11
1.0
 21
1.0
 12
148.5
 22
105.0
 13
0.0
 23
0.0
 14
10.0
 24
10.0
 15
10.0
 25
10.0
 16
0.0
 26
0.0
 36
1.0
 17
0.0
 27
0.0
 37
0.0
 40
210.0
 41
1.4142857143
 42
50.0
 43
0.0
 44
0.0
 50
0.0
 51
0.0
 71
     0
 72
  2000
 73
     1
 74
     3
 75
     0
 76
     0
 77
     0
 78
     0
281
     0
 65
     1
110
0.0
120
0.0
130
0.0
111
1.0
121
0.0
131
0.0
112
0.0
122
1.0
132
0.0
 79
     0
146
0.0
  0
ENDTAB
  0
TABLE
  2
LTYPE
  5
5
330
0
100
AcDbSymbolTable
 70
     6
  0
LTYPE
  5
14
330
5
100
AcDbSymbolTableRecord
100
AcDbLinetypeTableRecord
  2
ByBlock
 70
     0
  3

 72
    65
 73
     0
 40
0.0
  0
LTYPE
  5
15
330
5
100
AcDbSymbolTableRecord
100
AcDbLinetypeTableRecord
  2
ByLayer
 70
     0
  3

 72
    65
 73
     0
 40
0.0
  0
LTYPE
  5
16
330
5
100
AcDbSymbolTableRecord
100
AcDbLinetypeTableRecord
  2
Continuous
 70
     0
  3
Solid line
 72
    65
 73
     0
 40
0.0
  0
LTYPE
  5
6E
330
5
100
AcDbSymbolTableRecord
100
AcDbLinetypeTableRecord
  2
HIDDEN
 70
     0
  3
Hidden __ __ __ __ __ __ __ __ __ __ __ __ __ __
 72
    65
 73
     2
 40
1.905
 49
1.27
 74
     0
 49
-0.635
 74
     0
  0
LTYPE
  5
6F
330
5
100
AcDbSymbolTableRecord
100
AcDbLinetypeTableRecord
  2
PHANTOM
 70
     0
  3
Phantom ______  __  __  ______  __  __  ______
 72
    65
 73
     6
 40
12.7
 49
6.35
 74
     0
 49
-1.27
 74
     0
 49
1.27
 74
     0
 49
-1.27
 74
     0
 49
1.27
 74
     0
 49
-1.27
 74
     0
  0
LTYPE
  5
70
330
5
100
AcDbSymbolTableRecord
100
AcDbLinetypeTableRecord
  2
CENTER
 70
     0
  3
Center ____ _ ____ _ ____ _ ____ _ ____ _ ____
 72
    65
 73
     4
 40
10.16
 49
6.35
 74
     0
 49
-1.27
 74
     0
 49
1.27
 74
     0
 49
-1.27
 74
     0
  0
LTYPE
  5
71
330
5
100
AcDbSymbolTableRecord
100
AcDbLinetypeTableRecord
  2
CENTERX2
 70
     0
  3
Center (2x) ________  __  ________  __  _____
 72
    65
 73
     4
 40
20.32
 49
12.7
 74
     0
 49
-2.54
 74
     0
 49
2.54
 74
     0
 49
-2.54
 74
     0
  0
LTYPE
  5
72
330
5
100
AcDbSymbolTableRecord
100
AcDbLinetypeTableRecord
  2
DOT2
 70
     0
  3
Dot (.5x) ........................................
 72
    65
 73
     2
 40
0.635
 49
0.0
 74
     0
 49
-0.635
 74
     0
  0
ENDTAB
  0
TABLE
  2
LAYER
  5
2
330
0
100
AcDbSymbolTable
 70
     5
  0
LAYER
  5
10
330
2
100
AcDbSymbolTableRecord
100
AcDbLayerTableRecord
  2
0
 70
     0
 62
     7
  6
Continuous
370
    -3
390
F
  0
LAYER
  5
73
330
2
100
AcDbSymbolTableRecord
100
AcDbLayerTableRecord
  2
FORMAT
 70
     0
 62
     7
  6
Continuous
370
    -3
390
F
  0
LAYER
  5
74
330
2
100
AcDbSymbolTableRecord
100
AcDbLayerTableRecord
  2
VERMASSUNG
 70
     0
 62
     7
  6
Continuous
370
    -3
390
F
  0
LAYER
  5
75
330
2
100
AcDbSymbolTableRecord
100
AcDbLayerTableRecord
  2
KOPF_DÜNN
 70
     0
 62
     7
  6
Continuous
370
    -3
390
F
  0
LAYER
  5
76
330
2
100
AcDbSymbolTableRecord
100
AcDbLayerTableRecord
  2
KOPF_DICK
 70
     0
 62
     7
  6
Continuous
370
    25
390
F
  0
ENDTAB
  0
TABLE
  2
STYLE
  5
3
330
0
100
AcDbSymbolTable
 70
     3
  0
STYLE
  5
11
330
3
100
AcDbSymbolTableRecord
100
AcDbTextStyleTableRecord
  2
Standard
 70
     0
 40
0.0
 41
1.0
 50
0.0
 71
     0
 42
2.0
  3
txt
  4

  0
STYLE
  5
77
330
3
100
AcDbSymbolTableRecord
100
AcDbTextStyleTableRecord
  2
SLDTEXTSTYLE0
 70
     0
 40
0.0
 41
0.7
 50
0.0
 71
     0
 42
2.0
  3
TXT
  4

  0
STYLE
  5
7B
330
3
100
AcDbSymbolTableRecord
100
AcDbTextStyleTableRecord
  2
SLDTEXTSTYLE1
 70
     0
 40
0.0
 41
0.6466666667
 50
0.0
 71
     0
 42
2.0
  3
TXT
  4

  0
ENDTAB
  0
TABLE
  2
VIEW
  5
6
330
0
100
AcDbSymbolTable
 70
     0
  0
ENDTAB
  0
TABLE
  2
UCS
  5
7
330
0
100
AcDbSymbolTable
 70
     0
  0
ENDTAB
  0
TABLE
  2
APPID
  5
9
330
0
100
AcDbSymbolTable
 70
     1
  0
APPID
  5
12
330
9
100
AcDbSymbolTableRecord
100
AcDbRegAppTableRecord
  2
ACAD
 70
     0
  0
ENDTAB
  0
TABLE
  2
DIMSTYLE
  5
A
330
0
100
AcDbSymbolTable
 70
     3
100
AcDbDimStyleTable
  0
DIMSTYLE
105
27
330
A
100
AcDbSymbolTableRecord
100
AcDbDimStyleTableRecord
  2
ISO-25
 70
     0
 41
2.5
 42
0.625
 43
3.75
 44
1.25
 73
     0
 74
     0
 77
     1
 78
     8
140
2.5
141
2.5
143
0.0393700787
147
0.625
171
     3
172
     1
178
     0
271
     2
272
     2
274
     3
278
    44
283
     0
284
     8
340
11
  0
DIMSTYLE
105
12C
102
{ACAD_REACTORS
330
12B
102
}
330
A
100
AcDbSymbolTableRecord
100
AcDbDimStyleTableRecord
  2
SLDDIMSTYLE0
 70
     0
 41
3.0
 44
0.0
 45
0.000000001
 73
     0
 74
     0
 77
     1
 78
    12
 79
     3
140
2.0
147
0.5
173
     1
178
     0
271
     0
272
     3
276
     2
284
    12
340
77
  0
DIMSTYLE
105
138
102
{ACAD_REACTORS
330
137
330
143
330
14E
330
15A
330
164
330
16E
330
178
102
}
330
A
100
AcDbSymbolTableRecord
100
AcDbDimStyleTableRecord
  2
SLDDIMSTYLE1
 70
     0
 41
3.0
 44
0.0
 45
0.000000001
 73
     0
 74
     0
 77
     1
 78
    12
 79
     3
140
2.0
147
0.5
173
     1
178
     0
271
     2
272
     3
276
     2
284
    12
340
77
  0
ENDTAB
  0
TABLE
  2
BLOCK_RECORD
  5
1
330
0
100
AcDbSymbolTable
 70
     9
  0
BLOCK_RECORD
  5
1F
330
1
100
AcDbSymbolTableRecord
100
AcDbBlockTableRecord
  2
*Model_Space
340
22
  0
BLOCK_RECORD
  5
1B
330
1
100
AcDbSymbolTableRecord
100
AcDbBlockTableRecord
  2
*Paper_Space
340
1E
  0
BLOCK_RECORD
  5
23
330
1
100
AcDbSymbolTableRecord
100
AcDbBlockTableRecord
  2
*Paper_Space0
340
26
  0
BLOCK_RECORD
  5
12D
330
1
100
AcDbSymbolTableRecord
100
AcDbBlockTableRecord
  2
_D
340
0
  0
BLOCK_RECORD
  5
139
330
1
100
AcDbSymbolTableRecord
100
AcDbBlockTableRecord
  2
_D_1
340
0
  0
BLOCK_RECORD
  5
144
330
1
100
AcDbSymbolTableRecord
100
AcDbBlockTableRecord
  2
_D_2
340
0
  0
BLOCK_RECORD
  5
14F
330
1
100
AcDbSymbolTableRecord
100
AcDbBlockTableRecord
  2
_D_3
340
0
  0
BLOCK_RECORD
  5
15B
330
1
100
AcDbSymbolTableRecord
100
AcDbBlockTableRecord
  2
_D_4
340
0
  0
BLOCK_RECORD
  5
165
330
1
100
AcDbSymbolTableRecord
100
AcDbBlockTableRecord
  2
_D_5
340
0
  0
BLOCK_RECORD
  5
16F
330
1
100
AcDbSymbolTableRecord
100
AcDbBlockTableRecord
  2
_D_6
340
0
  0
BLOCK_RECORD
  5
179
330
1
100
AcDbSymbolTableRecord
100
AcDbBlockTableRecord
  2
_D_7
340
0
  0
ENDTAB
  0
ENDSEC
  0
SECTION
  2
BLOCKS
  0
BLOCK
  5
20
330
1F
100
AcDbEntity
  8
0
100
AcDbBlockBegin
  2
*Model_Space
 70
     0
 10
0.0
 20
0.0
 30
0.0
  3
*Model_Space
  1

  0
ENDBLK
  5
21
330
1F
100
AcDbEntity
  8
0
100
AcDbBlockEnd
  0
BLOCK
  5
1C
330
1B
100
AcDbEntity
 67
     1
  8
0
100
AcDbBlockBegin
  2
*Paper_Space
 70
     0
 10
0.0
 20
0.0
 30
0.0
  3
*Paper_Space
  1

  0
ENDBLK
  5
1D
330
1B
100
AcDbEntity
 67
     1
  8
0
100
AcDbBlockEnd
  0
BLOCK
  5
24
330
23
100
AcDbEntity
  8
0
100
AcDbBlockBegin
  2
*Paper_Space0
 70
     0
 10
0.0
 20
0.0
 30
0.0
  3
*Paper_Space0
  1

  0
ENDBLK
  5
25
330
23
100
AcDbEntity
  8
0
100
AcDbBlockEnd
  0
BLOCK
  5
12E
330
12D
100
AcDbEntity
  8
0
100
AcDbBlockBegin
  2
_D
 70
     0
 10
0.0
 20
0.0
 30
0.0
  3
_D
  1

  0
SOLID
  5
130
330
12D
100
AcDbEntity
  8
VERMASSUNG
100
AcDbTrace
 10
236.6168315171
 20
135.4932287714
 30
0.0
 11
236.1668315171
 21
132.4932287714
 31
0.0
 12
237.0668315171
 22
132.4932287714
 32
0.0
 13
237.0668315171
 23
132.4932287714
 33
0.0
  0
SOLID
  5
131
330
12D
100
AcDbEntity
  8
VERMASSUNG
100
AcDbTrace
 10
236.6168315171
 20
121.3512287714
 30
0.0
 11
237.0668315171
 21
124.3512287714
 31
0.0
 12
236.1668315171
 22
124.3512287714
 32
0.0
 13
236.1668315171
 23
124.3512287714
 33
0.0
  0
LINE
  5
132
330
12D
100
AcDbEntity
  8
VERMASSUNG
100
AcDbLine
 10
226.6168315171
 20
135.4932287714
 30
0.0
 11
237.6168315171
 21
135.4932287714
 31
0.0
  0
LINE
  5
133
330
12D
100
AcDbEntity
  8
VERMASSUNG
100
AcDbLine
 10
226.6168315171
 20
121.3512287714
 30
0.0
 11
237.6168315171
 21
121.3512287714
 31
0.0
  0
LINE
  5
134
330
12D
100
AcDbEntity
  8
VERMASSUNG
100
AcDbLine
 10
236.6168315171
 20
135.4932287714
 30
0.0
 11
236.6168315171
 21
121.3512287714
 31
0.0
  0
MTEXT
  5
135
330
12D
100
AcDbEntity
  8
VERMASSUNG
100
AcDbMText
 10
234.0386959211
 20
125.2222286195
 30
0.0
 40
2.0
 41
0.0
 71
     1
 72
     1
  1
SW
  7
SLDTEXTSTYLE0
 11
-7.044195017643634E-15
 21
1.0
 31
0.0
 73
     1
 44
1.0
  0
MTEXT
  5
136
330
12D
100
AcDbEntity
  8
VERMASSUNG
100
AcDbMText
 10
234.0386959211
 20
129.0222286835
 30
0.0
 40
2.0
 41
0.0
 71
     1
 72
     1
  1
14
  7
SLDTEXTSTYLE0
 11
-7.044195017643634E-15
 21
1.0
 31
0.0
 73
     1
 44
1.0
  0
ENDBLK
  5
12F
330
12D
100
AcDbEntity
  8
0
100
AcDbBlockEnd
  0
BLOCK
  5
13A
330
139
100
AcDbEntity
  8
0
100
AcDbBlockBegin
  2
_D_1
 70
     0
 10
0.0
 20
0.0
 30
0.0
  3
_D_1
  1

  0
SOLID
  5
13C
330
139
100
AcDbEntity
  8
VERMASSUNG
100
AcDbTrace
 10
246.4431347061
 20
144.4222287714
 30
0.0
 11
245.9931347061
 21
141.4222287714
 31
0.0
 12
246.8931347061
 22
141.4222287714
 32
0.0
 13
246.8931347061
 23
141.4222287714
 33
0.0
  0
SOLID
  5
13D
330
139
100
AcDbEntity
  8
VERMASSUNG
100
AcDbTrace
 10
246.4431347061
 20
112.4222287714
 30
0.0
 11
246.8931347061
 21
115.4222287714
 31
0.0
 12
245.9931347061
 22
115.4222287714
 32
0.0
 13
245.9931347061
 23
115.4222287714
 33
0.0
  0
LINE
  5
13E
330
139
100
AcDbEntity
  8
VERMASSUNG
100
AcDbLine
 10
204.6168315171
 20
144.4222287714
 30
0.0
 11
247.4431347061
 21
144.4222287714
 31
0.0
  0
LINE
  5
13F
330
139
100
AcDbEntity
  8
VERMASSUNG
100
AcDbLine
 10
204.6168315171
 20
112.4222287714
 30
0.0
 11
247.4431347061
 21
112.4222287714
 31
0.0
  0
LINE
  5
140
330
139
100
AcDbEntity
  8
VERMASSUNG
100
AcDbLine
 10
246.4431347061
 20
144.4222287714
 30
0.0
 11
246.4431347061
 21
112.4222287714
 31
0.0
  0
MTEXT
  5
141
330
139
100
AcDbEntity
  8
VERMASSUNG
100
AcDbMText
 10
243.8649994012
 20
125.2172288142
 30
0.0
 40
2.0
 41
0.0
 71
     1
 72
     1
  1
%%c
  7
SLDTEXTSTYLE0
 11
-7.044195017643634E-15
 21
1.0
 31
0.0
 73
     1
 44
1.0
  0
MTEXT
  5
142
330
139
100
AcDbEntity
  8
VERMASSUNG
100
AcDbMText
 10
243.6649994499
 20
128.8272288285
 30
0.0
 40
2.0
 41
0.0
 71
     1
 72
     1
  1
32
  7
SLDTEXTSTYLE0
 11
-7.044195017643634E-15
 21
1.0
 31
0.0
 73
     1
 44
1.0
  0
ENDBLK
  5
13B
330
139
100
AcDbEntity
  8
0
100
AcDbBlockEnd
  0
BLOCK
  5
145
330
144
100
AcDbEntity
  8
0
100
AcDbBlockBegin
  2
_D_2
 70
     0
 10
0.0
 20
0.0
 30
0.0
  3
_D_2
  1

  0
SOLID
  5
147
330
144
100
AcDbEntity
  8
VERMASSUNG
100
AcDbTrace
 10
254.6168315171
 20
164.4222287714
 30
0.0
 11
254.1668315171
 21
161.4222287714
 31
0.0
 12
255.0668315171
 22
161.4222287714
 32
0.0
 13
255.0668315171
 23
161.4222287714
 33
0.0
  0
SOLID
  5
148
330
144
100
AcDbEntity
  8
VERMASSUNG
100
AcDbTrace
 10
254.6168315171
 20
92.4222287714
 30
0.0
 11
255.0668315171
 21
95.4222287714
 31
0.0
 12
254.1668315171
 22
95.4222287714
 32
0.0
 13
254.1668315171
 23
95.4222287714
 33
0.0
  0
LINE
  5
149
330
144
100
AcDbEntity
  8
VERMASSUNG
100
AcDbLine
 10
180.6168315171
 20
164.4222287714
 30
0.0
 11
255.6168315171
 21
164.4222287714
 31
0.0
  0
LINE
  5
14A
330
144
100
AcDbEntity
  8
VERMASSUNG
100
AcDbLine
 10
180.6168315171
 20
92.4222287714
 30
0.0
 11
255.6168315171
 21
92.4222287714
 31
0.0
  0
LINE
  5
14B
330
144
100
AcDbEntity
  8
VERMASSUNG
100
AcDbLine
 10
254.6168315171
 20
164.4222287714
 30
0.0
 11
254.6168315171
 21
92.4222287714
 31
0.0
  0
MTEXT
  5
14C
330
144
100
AcDbEntity
  8
VERMASSUNG
100
AcDbMText
 10
252.0386962121
 20
125.2172288142
 30
0.0
 40
2.0
 41
0.0
 71
     1
 72
     1
  1
%%c
  7
SLDTEXTSTYLE0
 11
-7.044195017643634E-15
 21
1.0
 31
0.0
 73
     1
 44
1.0
  0
MTEXT
  5
14D
330
144
100
AcDbEntity
  8
VERMASSUNG
100
AcDbMText
 10
251.8386962609
 20
128.8272288285
 30
0.0
 40
2.0
 41
0.0
 71
     1
 72
     1
  1
72
  7
SLDTEXTSTYLE0
 11
-7.044195017643634E-15
 21
1.0
 31
0.0
 73
     1
 44
1.0
  0
ENDBLK
  5
146
330
144
100
AcDbEntity
  8
0
100
AcDbBlockEnd
  0
BLOCK
  5
150
330
14F
100
AcDbEntity
  8
0
100
AcDbBlockBegin
  2
_D_3
 70
     0
 10
0.0
 20
0.0
 30
0.0
  3
_D_3
  1

  0
SOLID
  5
152
330
14F
100
AcDbEntity
  8
VERMASSUNG
100
AcDbTrace
 10
64.3125780985
 20
178.4222287714
 30
0.0
 11
63.8625780985
 21
175.4222287714
 31
0.0
 12
64.7625780985
 22
175.4222287714
 32
0.0
 13
64.7625780985
 23
175.4222287714
 33
0.0
  0
SOLID
  5
153
330
14F
100
AcDbEntity
  8
VERMASSUNG
100
AcDbTrace
 10
64.3125780985
 20
78.4222287714
 30
0.0
 11
64.7625780985
 21
81.4222287714
 31
0.0
 12
63.8625780985
 22
81.4222287714
 32
0.0
 13
63.8625780985
 23
81.4222287714
 33
0.0
  0
LINE
  5
154
330
14F
100
AcDbEntity
  8
VERMASSUNG
100
AcDbLine
 10
122.1168315171
 20
178.4222287714
 30
0.0
 11
63.3125780985
 21
178.4222287714
 31
0.0
  0
LINE
  5
155
330
14F
100
AcDbEntity
  8
VERMASSUNG
100
AcDbLine
 10
122.1168315171
 20
78.4222287714
 30
0.0
 11
63.3125780985
 21
78.4222287714
 31
0.0
  0
LINE
  5
156
330
14F
100
AcDbEntity
  8
VERMASSUNG
100
AcDbLine
 10
64.3125780985
 20
178.4222287714
 30
0.0
 11
64.3125780985
 21
78.4222287714
 31
0.0
  0
MTEXT
  5
157
330
14F
100
AcDbEntity
  8
VERMASSUNG
100
AcDbMText
 10
61.5344428423
 20
120.8172293037
 30
0.0
 40
2.0
 41
0.0
 71
     1
 72
     1
  1
HSK A
  7
SLDTEXTSTYLE0
 11
-7.044195017643634E-15
 21
1.0
 31
0.0
 73
     1
 44
1.0
  0
MTEXT
  5
158
330
14F
100
AcDbEntity
  8
VERMASSUNG
100
AcDbMText
 10
61.7344427936
 20
128.6172290921
 30
0.0
 40
2.0
 41
0.0
 71
     1
 72
     1
  1
%%c
  7
SLDTEXTSTYLE0
 11
-7.044195017643634E-15
 21
1.0
 31
0.0
 73
     1
 44
1.0
  0
MTEXT
  5
159
330
14F
100
AcDbEntity
  8
VERMASSUNG
100
AcDbMText
 10
61.5344428423
 20
132.2272291064
 30
0.0
 40
2.0
 41
0.0
 71
     1
 72
     1
  1
100
  7
SLDTEXTSTYLE0
 11
-7.044195017643634E-15
 21
1.0
 31
0.0
 73
     1
 44
1.0
  0
ENDBLK
  5
151
330
14F
100
AcDbEntity
  8
0
100
AcDbBlockEnd
  0
BLOCK
  5
15C
330
15B
100
AcDbEntity
  8
0
100
AcDbBlockBegin
  2
_D_4
 70
     0
 10
0.0
 20
0.0
 30
0.0
  3
_D_4
  1

  0
SOLID
  5
15E
330
15B
100
AcDbEntity
  8
VERMASSUNG
100
AcDbTrace
 10
121.6168315171
 20
189.8001045335
 30
0.0
 11
124.6168315171
 21
189.3501045335
 31
0.0
 12
124.6168315171
 22
190.2501045335
 32
0.0
 13
124.6168315171
 23
190.2501045335
 33
0.0
  0
SOLID
  5
15F
330
15B
100
AcDbEntity
  8
VERMASSUNG
100
AcDbTrace
 10
181.6168315171
 20
189.8001045335
 30
0.0
 11
178.6168315171
 21
190.2501045335
 31
0.0
 12
178.6168315171
 22
189.3501045335
 32
0.0
 13
178.6168315171
 23
189.3501045335
 33
0.0
  0
LINE
  5
160
330
15B
100
AcDbEntity
  8
VERMASSUNG
100
AcDbLine
 10
121.6168315171
 20
177.9222287714
 30
0.0
 11
121.6168315171
 21
190.8001045335
 31
0.0
  0
LINE
  5
161
330
15B
100
AcDbEntity
  8
VERMASSUNG
100
AcDbLine
 10
181.6168315171
 20
163.4222287714
 30
0.0
 11
181.6168315171
 21
190.8001045335
 31
0.0
  0
LINE
  5
162
330
15B
100
AcDbEntity
  8
VERMASSUNG
100
AcDbLine
 10
121.6168315171
 20
189.8001045335
 30
0.0
 11
181.6168315171
 21
189.8001045335
 31
0.0
  0
MTEXT
  5
163
330
15B
100
AcDbEntity
  8
VERMASSUNG
100
AcDbMText
 10
150.216831567
 20
192.3782401295
 30
0.0
 40
2.0
 41
0.0
 71
     1
 72
     1
  1
60
  7
SLDTEXTSTYLE0
 73
     1
 44
1.0
  0
ENDBLK
  5
15D
330
15B
100
AcDbEntity
  8
0
100
AcDbBlockEnd
  0
BLOCK
  5
166
330
165
100
AcDbEntity
  8
0
100
AcDbBlockBegin
  2
_D_5
 70
     0
 10
0.0
 20
0.0
 30
0.0
  3
_D_5
  1

  0
SOLID
  5
168
330
165
100
AcDbEntity
  8
VERMASSUNG
100
AcDbTrace
 10
150.5668315171
 20
183.8001045335
 30
0.0
 11
153.5668315171
 21
183.3501045335
 31
0.0
 12
153.5668315171
 22
184.2501045335
 32
0.0
 13
153.5668315171
 23
184.2501045335
 33
0.0
  0
SOLID
  5
169
330
165
100
AcDbEntity
  8
VERMASSUNG
100
AcDbTrace
 10
181.6168315171
 20
183.8001045335
 30
0.0
 11
178.6168315171
 21
184.2501045335
 31
0.0
 12
178.6168315171
 22
183.3501045335
 32
0.0
 13
178.6168315171
 23
183.3501045335
 33
0.0
  0
LINE
  5
16A
330
165
100
AcDbEntity
  8
VERMASSUNG
100
AcDbLine
 10
150.5668315171
 20
176.3909685923
 30
0.0
 11
150.5668315171
 21
184.8001045335
 31
0.0
  0
LINE
  5
16B
330
165
100
AcDbEntity
  8
VERMASSUNG
100
AcDbLine
 10
181.6168315171
 20
161.4222287714
 30
0.0
 11
181.6168315171
 21
184.8001045335
 31
0.0
  0
LINE
  5
16C
330
165
100
AcDbEntity
  8
VERMASSUNG
100
AcDbLine
 10
150.5668315171
 20
183.8001045335
 30
0.0
 11
181.6168315171
 21
183.8001045335
 31
0.0
  0
MTEXT
  5
16D
330
165
100
AcDbEntity
  8
VERMASSUNG
100
AcDbMText
 10
163.1918315539
 20
186.3782401295
 30
0.0
 40
2.0
 41
0.0
 71
     1
 72
     1
  1
31.05
  7
SLDTEXTSTYLE0
 73
     1
 44
1.0
  0
ENDBLK
  5
167
330
165
100
AcDbEntity
  8
0
100
AcDbBlockEnd
  0
BLOCK
  5
170
330
16F
100
AcDbEntity
  8
0
100
AcDbBlockBegin
  2
_D_6
 70
     0
 10
0.0
 20
0.0
 30
0.0
  3
_D_6
  1

  0
SOLID
  5
172
330
16F
100
AcDbEntity
  8
VERMASSUNG
100
AcDbTrace
 10
181.6168315171
 20
183.8001045335
 30
0.0
 11
184.6168315171
 21
183.3501045335
 31
0.0
 12
184.6168315171
 22
184.2501045335
 32
0.0
 13
184.6168315171
 23
184.2501045335
 33
0.0
  0
SOLID
  5
173
330
16F
100
AcDbEntity
  8
VERMASSUNG
100
AcDbTrace
 10
205.6168315171
 20
183.8001045335
 30
0.0
 11
202.6168315171
 21
184.2501045335
 31
0.0
 12
202.6168315171
 22
183.3501045335
 32
0.0
 13
202.6168315171
 23
183.3501045335
 33
0.0
  0
LINE
  5
174
330
16F
100
AcDbEntity
  8
VERMASSUNG
100
AcDbLine
 10
181.6168315171
 20
163.4222287714
 30
0.0
 11
181.6168315171
 21
184.8001045335
 31
0.0
  0
LINE
  5
175
330
16F
100
AcDbEntity
  8
VERMASSUNG
100
AcDbLine
 10
205.6168315171
 20
143.4222287714
 30
0.0
 11
205.6168315171
 21
184.8001045335
 31
0.0
  0
LINE
  5
176
330
16F
100
AcDbEntity
  8
VERMASSUNG
100
AcDbLine
 10
181.6168315171
 20
183.8001045335
 30
0.0
 11
205.6168315171
 21
183.8001045335
 31
0.0
  0
MTEXT
  5
177
330
16F
100
AcDbEntity
  8
VERMASSUNG
100
AcDbMText
 10
192.116831504
 20
186.3782401295
 30
0.0
 40
2.0
 41
0.0
 71
     1
 72
     1
  1
24
  7
SLDTEXTSTYLE0
 73
     1
 44
1.0
  0
ENDBLK
  5
171
330
16F
100
AcDbEntity
  8
0
100
AcDbBlockEnd
  0
BLOCK
  5
17A
330
179
100
AcDbEntity
  8
0
100
AcDbBlockBegin
  2
_D_7
 70
     0
 10
0.0
 20
0.0
 30
0.0
  3
_D_7
  1

  0
ARC
  5
17C
330
179
100
AcDbEntity
  8
VERMASSUNG
100
AcDbCircle
 10
139.5668316471
 20
197.7001047984
 30
0.0
 40
4.248529228887608
100
AcDbArc
 50
153.4349488229
 51
206.5650511771
  0
ARC
  5
17D
330
179
100
AcDbEntity
  8
VERMASSUNG
100
AcDbCircle
 10
137.7668314452
 20
197.7001047984
 30
0.0
 40
4.248529228887633
100
AcDbArc
 50
333.4349488229
 51
26.5650511771
  0
SOLID
  5
17E
330
179
100
AcDbEntity
  8
VERMASSUNG
100
AcDbTrace
 10
205.6168315171
 20
195.8001045335
 30
0.0
 11
202.6168315171
 21
196.2501045335
 31
0.0
 12
202.6168315171
 22
195.3501045335
 32
0.0
 13
202.6168315171
 23
195.3501045335
 33
0.0
  0
SOLID
  5
17F
330
179
100
AcDbEntity
  8
VERMASSUNG
100
AcDbTrace
 10
71.7168315171
 20
195.8001045335
 30
0.0
 11
74.7168315171
 21
195.3501045335
 31
0.0
 12
74.7168315171
 22
196.2501045335
 32
0.0
 13
74.7168315171
 23
196.2501045335
 33
0.0
  0
LINE
  5
180
330
179
100
AcDbEntity
  8
VERMASSUNG
100
AcDbLine
 10
205.6168315171
 20
143.4222287714
 30
0.0
 11
205.6168315171
 21
196.8001045335
 31
0.0
  0
LINE
  5
181
330
179
100
AcDbEntity
  8
VERMASSUNG
100
AcDbLine
 10
71.7168315171
 20
158.924898514
 30
0.0
 11
71.7168315171
 21
196.8001045335
 31
0.0
  0
LINE
  5
182
330
179
100
AcDbEntity
  8
VERMASSUNG
100
AcDbLine
 10
205.6168315171
 20
195.8001045335
 30
0.0
 11
71.7168315171
 21
195.8001045335
 31
0.0
  0
MTEXT
  5
183
330
179
100
AcDbEntity
  8
VERMASSUNG
100
AcDbMText
 10
135.7668315831
 20
198.3782403623
 30
0.0
 40
2.0
 41
0.0
 71
     1
 72
     1
  1
133.9
  7
SLDTEXTSTYLE0
 73
     1
 44
1.0
  0
ENDBLK
  5
17B
330
179
100
AcDbEntity
  8
0
100
AcDbBlockEnd
  0
ENDSEC
  0
SECTION
  2
ENTITIES
  0
MTEXT
  5
78
330
1F
100
AcDbEntity
  8
KOPF_DÜNN
100
AcDbMText
 10
13.8892156294
 20
23.8442973028
 30
0.0
 40
3.0
 41
0.0
 71
     1
 72
     1
  1
HA0.D32.K01.060
  7
SLDTEXTSTYLE0
 73
     1
 44
1.0
  0
MTEXT
  5
79
330
1F
100
AcDbEntity
  8
VERMASSUNG
100
AcDbMText
 10
13.9329988022
 20
28.8834360957
 30
0.0
 40
3.0
 41
0.0
 71
     1
 72
     1
  1
Fräsdorn Typ S_Milling arbor type S
  7
SLDTEXTSTYLE0
 73
     1
 44
1.0
  0
MTEXT
  5
7A
330
1F
100
AcDbEntity
  8
VERMASSUNG
100
AcDbMText
 10
98.8601118557
 20
13.8365368761
 30
0.0
 40
2.0
 41
0.0
 71
     1
 72
     1
  1
Datum: 19.02.2018
  7
SLDTEXTSTYLE0
 73
     1
 44
1.0
  0
MTEXT
  5
7C
330
1F
100
AcDbEntity
  8
VERMASSUNG
100
AcDbMText
 10
13.933048693
 20
18.0482802738
 30
0.0
 40
2.0
 41
0.0
 71
     1
 72
     1
  1
HSK A 100 / Ø32
  7
SLDTEXTSTYLE1
 73
     1
 44
1.0
  0
MTEXT
  5
7D
330
1F
100
AcDbEntity
  8
VERMASSUNG
100
AcDbMText
 10
13.9808475933
 20
13.9090974274
 30
0.0
 40
2.0
 41
0.0
 71
     1
 72
     1
  1
Gewicht: 3149g
  7
SLDTEXTSTYLE0
 73
     1
 44
1.0
  0
ARC
  5
7E
330
1F
100
AcDbEntity
  8
0
  6
Continuous
 62
     7
370
    25
100
AcDbCircle
 10
122.1168315171
 20
78.9222287714
 30
0.0
 40
0.5
100
AcDbArc
 50
180.0
 51
270.0
  0
ARC
  5
7F
330
1F
100
AcDbEntity
  8
0
  6
Continuous
 62
     7
370
    25
100
AcDbCircle
 10
122.1168315171
 20
177.9222287714
 30
0.0
 40
0.5
100
AcDbArc
 50
90.0
 51
180.0
  0
LINE
  5
80
330
1F
100
AcDbEntity
  8
0
  6
Continuous
 62
     7
370
    25
100
AcDbLine
 10
122.1168315408
 20
78.4222280264
 30
0.0
 11
126.5668314902
 21
78.4222280264
 31
0.0
  0
LINE
  5
81
330
1F
100
AcDbEntity
  8
0
  6
Continuous
 62
     7
370
    25
100
AcDbLine
 10
126.5734778738
 20
178.4222295165
 30
0.0
 11
122.1168315408
 21
178.4222295165
 31
0.0
  0
ARC
  5
82
330
1F
100
AcDbEntity
  8
0
  6
Continuous
 62
     7
370
    25
100
AcDbCircle
 10
155.5668315171
 20
87.4222287714
 30
0.0
 40
5.000000000000028
100
AcDbArc
 50
90.0
 51
180.0
  0
ARC
  5
83
330
1F
100
AcDbEntity
  8
0
  6
Continuous
 62
     7
370
    25
100
AcDbCircle
 10
155.5668315171
 20
169.4222287714
 30
0.0
 40
5.000000000000028
100
AcDbArc
 50
180.0
 51
270.0
  0
ARC
  5
84
330
1F
100
AcDbEntity
  8
0
  6
Continuous
 62
     7
370
    25
100
AcDbCircle
 10
120.7198945986
 20
89.793743447
 30
0.0
 40
0.9962338214386932
100
AcDbArc
 50
25.7988228126
 51
90.0
  0
ARC
  5
85
330
1F
100
AcDbEntity
  8
0
  6
Continuous
 62
     7
370
    25
100
AcDbCircle
 10
120.7198945986
 20
167.0507140959
 30
0.0
 40
0.9962338214386793
100
AcDbArc
 50
270.0
 51
334.2011771874
  0
LINE
  5
86
330
1F
100
AcDbEntity
  8
0
  6
Continuous
 62
     7
370
    25
100
AcDbLine
 10
119.1168315729
 20
90.5399789691
 30
0.0
 11
119.9226776392
 21
90.7559042454
 31
0.0
  0
LINE
  5
87
330
1F
100
AcDbEntity
  8
0
  6
Continuous
 62
     7
370
    25
100
AcDbLine
 10
119.9226776392
 20
166.0885532975
 30
0.0
 11
119.1168315729
 21
166.3044785738
 31
0.0
  0
LINE
  5
88
330
1F
100
AcDbEntity
  8
0
  6
Continuous
 62
     7
370
    25
100
AcDbLine
 10
100.136152005
 20
165.3535460711
 30
0.0
 11
81.8168320714
 21
164.4357425749
 31
0.0
  0
LINE
  5
89
330
1F
100
AcDbEntity
  8
0
  6
Continuous
 62
     7
370
    25
100
AcDbLine
 10
119.1168315729
 20
166.3044785738
 30
0.0
 11
113.0487923531
 21
166.0004688084
 31
0.0
  0
LINE
  5
8A
330
1F
100
AcDbEntity
  8
0
  6
Continuous
 62
     7
370
    25
100
AcDbLine
 10
113.0489152877
 20
90.8439812839
 30
0.0
 11
119.1168315729
 21
90.5399789691
 31
0.0
  0
LINE
  5
8B
330
1F
100
AcDbEntity
  8
0
  6
Continuous
 62
     7
370
    25
100
AcDbLine
 10
86.8168310283
 20
92.1582152724
 30
0.0
 11
100.1367834418
 21
91.4908816695
 31
0.0
  0
ARC
  5
8C
330
1F
100
AcDbEntity
  8
0
  6
Continuous
 62
     7
370
    25
100
AcDbCircle
 10
120.1814967165
 20
89.7899772684
 30
0.0
 40
1.000000000000013
100
AcDbArc
 50
90.0
 51
105.0
  0
ARC
  5
8D
330
1F
100
AcDbEntity
  8
0
  6
Continuous
 62
     7
370
    25
100
AcDbCircle
 10
120.1814967165
 20
167.0544802745
 30
0.0
 40
1.0
100
AcDbArc
 50
255.0
 51
270.0
  0
LINE
  5
8E
330
1F
100
AcDbEntity
  8
0
  6
Continuous
 62
     7
370
    25
100
AcDbLine
 10
120.1814967228
 20
90.7899757504
 30
0.0
 11
120.7198945943
 21
90.7899757504
 31
0.0
  0
LINE
  5
8F
330
1F
100
AcDbEntity
  8
0
  6
Continuous
 62
     7
370
    25
100
AcDbLine
 10
120.7198945943
 20
166.0544817924
 30
0.0
 11
120.1814967228
 21
166.0544817924
 31
0.0
  0
ARC
  5
90
330
1F
100
AcDbEntity
  8
0
  6
Continuous
 62
     7
370
    25
100
AcDbCircle
 10
180.6168315171
 20
93.4222287714
 30
0.0
 40
1.0
100
AcDbArc
 50
270.0
 51
0.0
  0
ARC
  5
91
330
1F
100
AcDbEntity
  8
0
  6
Continuous
 62
     7
370
    25
100
AcDbCircle
 10
180.6168315171
 20
163.4222287714
 30
0.0
 40
1.0
100
AcDbArc
 50
0.0
 51
90.0
  0
LINE
  5
92
330
1F
100
AcDbEntity
  8
0
  6
Continuous
 62
     7
370
    25
100
AcDbLine
 10
155.5668325184
 20
92.4222303212
 30
0.0
 11
180.6168318747
 21
92.4222303212
 31
0.0
  0
LINE
  5
93
330
1F
100
AcDbEntity
  8
0
  6
Continuous
 62
     7
370
    25
100
AcDbLine
 10
180.6168318747
 20
164.4222272217
 30
0.0
 11
155.5668325184
 21
164.4222272217
 31
0.0
  0
LINE
  5
94
330
1F
100
AcDbEntity
  8
0
  6
Continuous
 62
     7
370
    25
100
AcDbLine
 10
73.3668305932
 20
96.1722304702
 30
0.0
 11
84.9168323933
 21
96.1722304702
 31
0.0
  0
ARC
  5
95
330
1F
100
AcDbEntity
  8
0
  6
Continuous
 62
     7
370
    25
100
AcDbCircle
 10
84.9168315171
 20
94.2722287714
 30
0.0
 40
1.899999999999996
100
AcDbArc
 50
35.5995333592
 51
90.0
  0
ARC
  5
96
330
1F
100
AcDbEntity
  8
0
  6
Continuous
 62
     7
370
    25
100
AcDbCircle
 10
79.9168315171
 20
162.5722287714
 30
0.0
 40
1.900000000000008
100
AcDbArc
 50
270.0
 51
310.9212832533
  0
ARC
  5
97
330
1F
100
AcDbEntity
  8
0
  6
Continuous
 62
     7
370
    25
100
AcDbCircle
 10
182.0168315171
 20
112.1722287714
 30
0.0
 40
0.5999999999999943
100
AcDbArc
 50
90.0
 51
131.8103148958
  0
ARC
  5
98
330
1F
100
AcDbEntity
  8
0
  6
Continuous
 62
     7
370
    25
100
AcDbCircle
 10
182.0168315171
 20
144.6722287714
 30
0.0
 40
0.5999999999999943
100
AcDbArc
 50
228.1896851042
 51
270.0
  0
LINE
  5
99
330
1F
100
AcDbEntity
  8
0
  6
Continuous
 62
     7
370
    25
100
AcDbLine
 10
73.3668305932
 20
160.6722270727
 30
0.0
 11
71.7736133395
 21
159.0790116817
 31
0.0
  0
LINE
  5
9A
330
1F
100
AcDbEntity
  8
0
  6
Continuous
 62
     7
370
    25
100
AcDbLine
 10
71.7743546723
 20
97.7647063911
 30
0.0
 11
73.3668305932
 21
96.1722304702
 31
0.0
  0
LINE
  5
9B
330
1F
100
AcDbEntity
  8
0
  6
Continuous
 62
     7
370
    25
100
AcDbLine
 10
79.916829711
 20
160.6722270727
 30
0.0
 11
73.3668305932
 21
160.6722270727
 31
0.0
  0
ARC
  5
9C
330
1F
100
AcDbEntity
  8
0
  6
Continuous
 62
     7
370
    25
100
AcDbCircle
 10
204.6168315171
 20
113.4222287714
 30
0.0
 40
1.000000000000014
100
AcDbArc
 50
270.0
 51
0.0
  0
ARC
  5
9D
330
1F
100
AcDbEntity
  8
0
  6
Continuous
 62
     7
370
    25
100
AcDbCircle
 10
204.6168315171
 20
143.4222287714
 30
0.0
 40
1.0
100
AcDbArc
 50
0.0
 51
90.0
  0
LINE
  5
9E
330
1F
100
AcDbEntity
  8
0
  6
Continuous
 62
     7
370
    25
100
AcDbLine
 10
184.1168315171
 20
112.4222280115
 30
0.0
 11
204.616828358
 21
112.4222280115
 31
0.0
  0
LINE
  5
9F
330
1F
100
AcDbEntity
  8
0
  6
Continuous
 62
     7
370
    25
100
AcDbLine
 10
204.616828358
 20
144.4222295314
 30
0.0
 11
184.1168315171
 21
144.4222295314
 31
0.0
  0
LINE
  5
A0
330
1F
100
AcDbEntity
  8
0
  6
Continuous
 62
     7
370
    25
100
AcDbLine
 10
184.1168315171
 20
144.4222295314
 30
0.0
 11
182.8869120239
 21
144.0926735878
 31
0.0
  0
LINE
  5
A1
330
1F
100
AcDbEntity
  8
0
  6
Continuous
 62
     7
370
    25
100
AcDbLine
 10
182.8869120239
 20
112.7517839551
 30
0.0
 11
184.1168315171
 21
112.4222280115
 31
0.0
  0
ARC
  5
A2
330
1F
100
AcDbEntity
  8
0
  6
Continuous
 62
     7
370
    25
100
AcDbCircle
 10
182.7316222359
 20
112.1722287714
 30
0.0
 40
0.5999999999999943
100
AcDbArc
 50
75.0
 51
90.0
  0
ARC
  5
A3
330
1F
100
AcDbEntity
  8
0
  6
Continuous
 62
     7
370
    25
100
AcDbCircle
 10
182.7316222359
 20
144.6722287714
 30
0.0
 40
0.5999999999999943
100
AcDbArc
 50
270.0
 51
285.0
  0
LINE
  5
A4
330
1F
100
AcDbEntity
  8
0
  6
Continuous
 62
     7
370
    25
100
AcDbLine
 10
182.0168332218
 20
112.7722283483
 30
0.0
 11
182.7316232978
 21
112.7722283483
 31
0.0
  0
LINE
  5
A5
330
1F
100
AcDbEntity
  8
0
  6
Continuous
 62
     7
370
    25
100
AcDbLine
 10
182.7316232978
 20
144.0722291946
 30
0.0
 11
182.0168332218
 21
144.0722291946
 31
0.0
  0
ARC
  5
A6
330
1F
100
AcDbEntity
  8
0
  6
Continuous
 62
     7
370
    25
100
AcDbCircle
 10
188.1168315171
 20
94.9222287714
 30
0.0
 40
0.5
100
AcDbArc
 50
270.0
 51
360.0
  0
ARC
  5
A7
330
1F
100
AcDbEntity
  8
0
  6
Continuous
 62
     7
370
    25
100
AcDbCircle
 10
188.1168315171
 20
107.9222287714
 30
0.0
 40
0.5
100
AcDbArc
 50
0.0
 51
90.0
  0
LINE
  5
A8
330
1F
100
AcDbEntity
  8
0
  6
Continuous
 62
     7
370
    25
100
AcDbLine
 10
181.616830176
 20
94.4222269237
 30
0.0
 11
188.1168321727
 21
94.4222269237
 31
0.0
  0
LINE
  5
A9
330
1F
100
AcDbEntity
  8
0
  6
Continuous
 62
     7
370
    25
100
AcDbLine
 10
188.1168321727
 20
108.4222292185
 30
0.0
 11
181.616830176
 21
108.4222292185
 31
0.0
  0
LINE
  5
AA
330
1F
100
AcDbEntity
  8
0
  6
Continuous
 62
     7
370
    25
100
AcDbLine
 10
181.616830176
 20
148.4222283244
 30
0.0
 11
188.1168321727
 21
148.4222283244
 31
0.0
  0
LINE
  5
AB
330
1F
100
AcDbEntity
  8
0
  6
Continuous
 62
     7
370
    25
100
AcDbLine
 10
188.1168321727
 20
162.4222306192
 30
0.0
 11
181.616830176
 21
162.4222306192
 31
0.0
  0
ARC
  5
AC
330
1F
100
AcDbEntity
  8
0
  6
Continuous
 62
     7
370
    25
100
AcDbCircle
 10
188.1168315171
 20
148.9222287714
 30
0.0
 40
0.5
100
AcDbArc
 50
270.0
 51
360.0
  0
ARC
  5
AD
330
1F
100
AcDbEntity
  8
0
  6
Continuous
 62
     7
370
    25
100
AcDbCircle
 10
188.1168315171
 20
161.9222287714
 30
0.0
 40
0.5
100
AcDbArc
 50
0.0
 51
90.0
  0
LINE
  5
AE
330
1F
100
AcDbEntity
  8
0
  6
Continuous
 62
     7
370
    25
100
AcDbLine
 10
225.8168295978
 20
140.4222288758
 30
0.0
 11
210.6168330668
 21
140.4222288758
 31
0.0
  0
LINE
  5
AF
330
1F
100
AcDbEntity
  8
0
  6
Continuous
 62
     7
370
    25
100
AcDbLine
 10
210.6168330668
 20
116.4222286671
 30
0.0
 11
225.8168295978
 21
116.4222286671
 31
0.0
  0
ARC
  5
B0
330
1F
100
AcDbEntity
  8
0
  6
Continuous
 62
     7
370
    25
100
AcDbCircle
 10
225.8168315171
 20
139.6222287714
 30
0.0
 40
0.8000000000000114
100
AcDbArc
 50
0.0
 51
90.0
  0
ARC
  5
B1
330
1F
100
AcDbEntity
  8
0
  6
Continuous
 62
     7
370
    25
100
AcDbCircle
 10
225.8168315171
 20
117.2222287714
 30
0.0
 40
0.8000000000000114
100
AcDbArc
 50
270.0
 51
360.0
  0
ARC
  5
B2
330
1F
100
AcDbEntity
  8
0
  6
Continuous
 62
     7
370
    25
100
AcDbCircle
 10
210.0168315171
 20
119.8222287714
 30
0.0
 40
0.6000000000000085
100
AcDbArc
 50
360.0
 51
90.0
  0
ARC
  5
B3
330
1F
100
AcDbEntity
  8
0
  6
Continuous
 62
     7
370
    25
100
AcDbCircle
 10
210.0168315171
 20
137.0222287714
 30
0.0
 40
0.5999999999999943
100
AcDbArc
 50
270.0
 51
0.0
  0
LINE
  5
B4
330
1F
100
AcDbEntity
  8
0
  6
Continuous
 62
     7
370
    25
100
AcDbLine
 10
210.0168303607
 20
136.4222291514
 30
0.0
 11
205.6168303846
 21
136.4222291514
 31
0.0
  0
LINE
  5
B5
330
1F
100
AcDbEntity
  8
0
  6
Continuous
 62
     7
370
    25
100
AcDbLine
 10
205.6168303846
 20
120.4222283915
 30
0.0
 11
210.0168303607
 21
120.4222283915
 31
0.0
  0
LINE
  5
B6
330
1F
100
AcDbEntity
  8
0
  6
Continuous
 62
     7
370
    25
100
AcDbLine
 10
121.6168315171
 20
78.9222290397
 30
0.0
 11
121.6168315171
 21
177.9222285032
 31
0.0
  0
LINE
  5
B7
330
1F
100
AcDbEntity
  8
0
  6
Continuous
 62
     7
370
    25
100
AcDbLine
 10
126.5668314902
 20
159.7722304642
 30
0.0
 11
138.3548029719
 21
159.7722304642
 31
0.0
  0
LINE
  5
B8
330
1F
100
AcDbEntity
  8
0
  6
Continuous
 62
     7
370
    25
100
AcDbLine
 10
138.3548029719
 20
79.6472338617
 30
0.0
 11
138.3548029719
 21
159.7722304642
 31
0.0
  0
LINE
  5
B9
330
1F
100
AcDbEntity
  8
0
  6
Continuous
 62
     7
370
    25
100
AcDbLine
 10
138.3548029719
 20
79.6472338617
 30
0.0
 11
136.5668312667
 21
79.6472338617
 31
0.0
  0
SPLINE
  5
BA
330
1F
100
AcDbEntity
  8
0
  6
Continuous
 62
     7
370
    25
100
AcDbSpline
210
0.0
220
0.0
230
1.0
 70
     8
 71
     3
 72
    30
 73
    26
 74
     0
 42
0.000000001
 43
0.00000001
 40
0.0
 40
0.0
 40
0.0
 40
0.0
 40
0.1250000000000002
 40
0.1250000000000002
 40
0.1875000000000003
 40
0.1875000000000003
 40
0.2500000000000004
 40
0.2500000000000004
 40
0.3750000000000001
 40
0.3750000000000001
 40
0.4374999999999998
 40
0.4374999999999998
 40
0.4999999999999996
 40
0.4999999999999996
 40
0.6249999999999996
 40
0.6249999999999996
 40
0.6874999999999997
 40
0.6874999999999997
 40
0.7499999999999997
 40
0.7499999999999997
 40
0.8124999999999998
 40
0.8124999999999998
 40
0.8749999999999999
 40
0.8749999999999999
 40
1.0
 40
1.0
 40
1.0
 40
1.0
 10
136.5668315170688
 20
79.64723517841712
 30
0.0
 10
135.9040868232238
 20
79.64723517841713
 30
0.0
 10
135.2528309641081
 20
79.63239510182832
 30
0.0
 10
134.2923804258498
 20
79.59002553759869
 30
0.0
 10
133.9749889826168
 20
79.57254743481954
 30
0.0
 10
133.345825481062
 20
79.53121914826721
 30
0.0
 10
133.0336772946202
 20
79.50729387480953
 30
0.0
 10
132.126369992772
 20
79.42848735834262
 30
0.0
 10
131.5529450351307
 20
79.36618133836615
 30
0.0
 10
130.7390681655561
 20
79.26305201812679
 30
0.0
 10
130.4742619689862
 20
79.22686809908028
 30
0.0
 10
129.9673545581718
 20
79.15307331487978
 30
0.0
 10
129.7259604068184
 20
79.11559945610813
 30
0.0
 10
129.036818934686
 20
79.00288751276841
 30
0.0
 10
128.6237641198218
 20
78.92735141529461
 30
0.0
 10
128.0756093004467
 20
78.81895815827713
 30
0.0
 10
127.9061466931012
 20
78.78388592661386
 30
0.0
 10
127.5981294450858
 20
78.717650466014
 30
0.0
 10
127.4587494244774
 20
78.6863237692593
 30
0.0
 10
127.2089639118507
 20
78.62791499767835
 30
0.0
 10
127.0985577991968
 20
78.6008317624955
 30
0.0
 10
126.907299945559
 20
78.55157200788193
 30
0.0
 10
126.8261804272747
 20
78.52931002807428
 30
0.0
 10
126.6320335071663
 20
78.471743120906
 30
0.0
 10
126.5668315170688
 20
78.44548351612002
 30
0.0
 10
126.5668315170688
 20
78.43222977164599
 30
0.0
  0
LINE
  5
BB
330
1F
100
AcDbEntity
  8
0
  6
Continuous
 62
     7
370
    25
100
AcDbLine
 10
126.5668314902
 20
78.4322304308
 30
0.0
 11
126.5668314902
 21
78.4222280264
 31
0.0
  0
SPLINE
  5
BC
330
1F
100
AcDbEntity
  8
0
  6
Continuous
 62
     7
370
    25
100
AcDbSpline
210
0.0
220
0.0
230
1.0
 70
     8
 71
     3
 72
    23
 73
    19
 74
     0
 42
0.000000001
 43
0.00000001
 40
0.0
 40
0.0
 40
0.0
 40
0.0
 40
0.1045640158399565
 40
0.1579181379412607
 40
0.2118098948101978
 40
0.3164261575334445
 40
0.3696322257185901
 40
0.4234841921386449
 40
0.4762744234990575
 40
0.5295122057498366
 40
0.5834015307434716
 40
0.637937680411509
 40
0.6910235294169054
 40
0.7447623137877749
 40
0.7992335560081685
 40
0.8542664040602655
 40
0.9596516265310095
 40
1.0
 40
1.0
 40
1.0
 40
1.0
 10
136.5668312667293
 20
177.4120239198186
 30
0.0
 10
136.0174687904147
 20
177.4171760706782
 30
0.0
 10
135.1877923609326
 20
177.4249571229226
 30
0.0
 10
134.0999939318823
 20
177.4720556258312
 30
0.0
 10
133.0358384863437
 20
177.534076114104
 30
0.0
 10
132.0171394490906
 20
177.6187757018991
 30
0.0
 10
131.0673862824159
 20
177.7180876272237
 30
0.0
 10
130.3887926453691
 20
177.798601414889
 30
0.0
 10
129.7535074613523
 20
177.8823143608703
 30
0.0
 10
129.1653105277815
 20
177.9669370717494
 30
0.0
 10
128.6229627231237
 20
178.0510310260415
 30
0.0
 10
128.1377701735668
 20
178.1312080741753
 30
0.0
 10
127.7126591692538
 20
178.2052245734031
 30
0.0
 10
127.3500876290661
 20
178.27113041609
 30
0.0
 10
127.0491290427535
 20
178.3277757966882
 30
0.0
 10
126.7476367646677
 20
178.3860944346357
 30
0.0
 10
126.5806530301217
 20
178.4194706676148
 30
0.0
 10
126.5750336714302
 20
178.4205897533994
 30
0.0
 10
126.5734778738005
 20
178.4208995878674
 30
0.0
  0
LINE
  5
BD
330
1F
100
AcDbEntity
  8
0
  6
Continuous
 62
     7
370
    25
100
AcDbLine
 10
138.3548029719
 20
177.4120239198
 30
0.0
 11
136.5668312667
 21
177.4120239198
 31
0.0
  0
LINE
  5
BE
330
1F
100
AcDbEntity
  8
0
  6
Continuous
 62
     7
370
    25
100
AcDbLine
 10
138.3548029719
 20
167.3731898546
 30
0.0
 11
138.3548029719
 21
177.4120239198
 31
0.0
  0
LINE
  5
BF
330
1F
100
AcDbEntity
  8
0
  6
Continuous
 62
     7
370
    25
100
AcDbLine
 10
136.2747983097
 20
167.3731898546
 30
0.0
 11
138.3548029719
 21
167.3731898546
 31
0.0
  0
SPLINE
  5
C0
330
1F
100
AcDbEntity
  8
0
  6
Continuous
 62
     7
370
    25
100
AcDbSpline
210
0.0
220
0.0
230
1.0
 70
     8
 71
     3
 72
    22
 73
    18
 74
     0
 42
0.000000001
 43
0.00000001
 40
0.0
 40
0.0
 40
0.0
 40
0.0
 40
0.2500000000000002
 40
0.2500000000000002
 40
0.3750000000000003
 40
0.3750000000000003
 40
0.5000000000000004
 40
0.5000000000000004
 40
0.6250000000000004
 40
0.6250000000000004
 40
0.7500000000000004
 40
0.7500000000000004
 40
0.8750000000000004
 40
0.8750000000000004
 40
0.9375000000000002
 40
0.9375000000000002
 40
1.0
 40
1.0
 40
1.0
 40
1.0
 10
126.5668315170688
 20
159.7722287714459
 30
0.0
 10
126.7695564729879
 20
160.7914751133106
 30
0.0
 10
127.0843001947833
 20
161.7505832632499
 30
0.0
 10
127.7923556644542
 20
163.0930623407591
 30
0.0
 10
128.0708182946719
 20
163.5272709234992
 30
0.0
 10
128.7095857013091
 20
164.3388986390013
 30
0.0
 10
129.0699993810993
 20
164.7181789319381
 30
0.0
 10
129.8875316130886
 20
165.4211375109591
 30
0.0
 10
130.3486995963757
 20
165.7461663286597
 30
0.0
 10
131.3466898428595
 20
166.3111816520506
 30
0.0
 10
131.8864490368518
 20
166.5548852462571
 30
0.0
 10
133.061042000883
 20
166.9590851739021
 30
0.0
 10
133.672778186875
 20
167.1115223669476
 30
0.0
 10
134.6246874117367
 20
167.2668499145562
 30
0.0
 10
134.9479205759973
 20
167.3063546946063
 30
0.0
 10
135.6069837472726
 20
167.359663815275
 30
0.0
 10
135.9410477578466
 20
167.3731915323329
 30
0.0
 10
136.2747983652481
 20
167.3731915323329
 30
0.0
  0
SPLINE
  5
C1
330
1F
100
AcDbEntity
  8
0
  6
Continuous
 62
     7
370
    25
100
AcDbSpline
210
0.0
220
0.0
230
1.0
 70
    11
 71
     3
 72
    80
 73
    76
 74
     0
 42
0.000000001
 43
0.00000001
 40
0.0
 40
0.0
 40
0.0
 40
0.0
 40
0.03125
 40
0.03125
 40
0.0468749999999999
 40
0.0468749999999999
 40
0.0624999999999998
 40
0.0624999999999998
 40
0.0937499999999996
 40
0.0937499999999996
 40
0.1249999999999994
 40
0.1249999999999994
 40
0.1562499999999992
 40
0.1562499999999992
 40
0.187499999999999
 40
0.187499999999999
 40
0.2187499999999988
 40
0.2187499999999988
 40
0.2499999999999986
 40
0.2499999999999986
 40
0.2812499999999983
 40
0.2812499999999983
 40
0.3124999999999981
 40
0.3124999999999981
 40
0.3281249999999982
 40
0.3281249999999982
 40
0.3437499999999982
 40
0.3437499999999982
 40
0.3749999999999984
 40
0.3749999999999984
 40
0.4062499999999986
 40
0.4062499999999986
 40
0.4218749999999987
 40
0.4218749999999987
 40
0.4374999999999987
 40
0.4374999999999987
 40
0.4687499999999989
 40
0.4687499999999989
 40
0.499999999999999
 40
0.499999999999999
 40
0.5312499999999991
 40
0.5312499999999991
 40
0.5624999999999992
 40
0.5624999999999992
 40
0.5937499999999993
 40
0.5937499999999993
 40
0.6249999999999994
 40
0.6249999999999994
 40
0.6562499999999997
 40
0.6562499999999997
 40
0.6874999999999998
 40
0.6874999999999998
 40
0.703125
 40
0.703125
 40
0.7187500000000002
 40
0.7187500000000002
 40
0.7500000000000003
 40
0.7500000000000003
 40
0.7812500000000004
 40
0.7812500000000004
 40
0.7968750000000006
 40
0.7968750000000006
 40
0.8125000000000007
 40
0.8125000000000007
 40
0.8437500000000006
 40
0.8437500000000006
 40
0.8750000000000006
 40
0.8750000000000006
 40
0.9062500000000004
 40
0.9062500000000004
 40
0.9375000000000003
 40
0.9375000000000003
 40
0.9687500000000002
 40
0.9687500000000002
 40
1.0
 40
1.0
 40
1.0
 40
1.0
 10
130.6168315170688
 20
171.8368582350772
 30
0.0
 10
130.2862862042925
 20
171.8368582350772
 30
0.0
 10
129.9613060750409
 20
171.8530664664594
 30
0.0
 10
129.4818326637944
 20
171.9004310984789
 30
0.0
 10
129.3233508459536
 20
171.9200853103696
 30
0.0
 10
129.0091313134494
 20
171.9671964665623
 30
0.0
 10
128.853011029769
 20
171.9947777860569
 30
0.0
 10
128.3989570008123
 20
172.0873135728507
 30
0.0
 10
128.1118536178725
 20
172.1623840064472
 30
0.0
 10
127.5684990618455
 20
172.3376223150578
 30
0.0
 10
127.3113954506399
 20
172.4386236128961
 30
0.0
 10
126.8504891957012
 20
172.6559798113569
 30
0.0
 10
126.6435914864862
 20
172.7731441431292
 30
0.0
 10
126.278066172494
 20
173.0232140673579
 30
0.0
 10
126.122860650368
 20
173.1541601561168
 30
0.0
 10
125.8734302637683
 20
173.4198950998292
 30
0.0
 10
125.7773403079832
 20
173.5566486931401
 30
0.0
 10
125.6488214587896
 20
173.8307142679791
 30
0.0
 10
125.6170105886118
 20
173.9656543584479
 30
0.0
 10
125.6166539388385
 20
174.2311259955167
 30
0.0
 10
125.6491511910356
 20
174.362950472658
 30
0.0
 10
125.7767766647501
 20
174.6124000722783
 30
0.0
 10
125.871205065802
 20
174.7308327642063
 30
0.0
 10
126.0590658857875
 20
174.8997019613005
 30
0.0
 10
126.1298938845907
 20
174.9547879564206
 30
0.0
 10
126.284615776556
 20
175.0600407849091
 30
0.0
 10
126.3685922467394
 20
175.1103760136694
 30
0.0
 10
126.6399159163838
 20
175.2549518462074
 30
0.0
 10
126.8464651349861
 20
175.3428134326244
 30
0.0
 10
127.3130752751752
 20
175.502534525624
 30
0.0
 10
127.5654408448006
 20
175.5717728220912
 30
0.0
 10
127.9713421864793
 20
175.661560211321
 30
0.0
 10
128.1112428039568
 20
175.6891261734072
 30
0.0
 10
128.4004667392038
 20
175.7396169743335
 30
0.0
 10
128.5503061954931
 20
175.7625804131842
 30
0.0
 10
129.0044227651038
 20
175.8232109296031
 30
0.0
 10
129.3160739838407
 20
175.8532849583989
 30
0.0
 10
129.957070448753
 20
175.8938745456575
 30
0.0
 10
130.2885980767052
 20
175.9041867758735
 30
0.0
 10
130.9413891217767
 20
175.9042623430393
 30
0.0
 10
131.2659253268085
 20
175.8943607375716
 30
0.0
 10
131.911194776225
 20
175.8538742070463
 30
0.0
 10
132.2269377823877
 20
175.8234129071617
 30
0.0
 10
132.8288270773714
 20
175.7432622357251
 30
0.0
 10
133.1195763081828
 20
175.6929800039179
 30
0.0
 10
133.6664880998673
 20
175.5723098211449
 30
0.0
 10
133.9182654637042
 20
175.503085961975
 30
0.0
 10
134.3796534563254
 20
175.3456342343343
 30
0.0
 10
134.5909227359235
 20
175.2562857596604
 30
0.0
 10
134.9542270882997
 20
175.0630378889597
 30
0.0
 10
135.1080337367425
 20
174.9589098970804
 30
0.0
 10
135.2966532063398
 20
174.7902855108969
 30
0.0
 10
135.352683692549
 20
174.7316571092219
 30
0.0
 10
135.4482574542851
 20
174.6122021943957
 30
0.0
 10
135.4880203713101
 20
174.5512824055576
 30
0.0
 10
135.5837921216223
 20
174.3648776793836
 30
0.0
 10
135.6165149607484
 20
174.2357648615886
 30
0.0
 10
135.6171435470775
 20
173.9671079386328
 30
0.0
 10
135.5849574023427
 20
173.831737197876
 30
0.0
 10
135.4900467004871
 20
173.62818688964
 30
0.0
 10
135.4505799170882
 20
173.5602149655766
 30
0.0
 10
135.3556499183673
 20
173.4241227424457
 30
0.0
 10
135.2998930906039
 20
173.3557726422362
 30
0.0
 10
135.111952972634
 20
173.1550696291942
 30
0.0
 10
134.9585915029178
 20
173.0256813553814
 30
0.0
 10
134.5963272680375
 20
172.7770159233316
 30
0.0
 10
134.3854787945716
 20
172.6572062809634
 30
0.0
 10
133.9248088242526
 20
172.4396839933908
 30
0.0
 10
133.6734344446688
 20
172.3405988935548
 30
0.0
 10
133.1275265577707
 20
172.163926419638
 30
0.0
 10
132.8367039831195
 20
172.087869331504
 30
0.0
 10
132.2353773683394
 20
171.965024354151
 30
0.0
 10
131.920858783727
 20
171.9173182290978
 30
0.0
 10
131.2742773276071
 20
171.8530696939782
 30
0.0
 10
130.9473768298451
 20
171.8368582350772
 30
0.0
 10
130.6168315170688
 20
171.8368582350772
 30
0.0
  0
LINE
  5
C2
330
1F
100
AcDbEntity
  8
0
  6
Continuous
 62
     7
370
    25
100
AcDbLine
 10
144.8788610308
 20
79.6472338617
 30
0.0
 11
144.8788610308
 21
159.7722304642
 31
0.0
  0
SPLINE
  5
C3
330
1F
100
AcDbEntity
  8
0
  6
Continuous
 62
     7
370
    25
100
AcDbSpline
210
0.0
220
0.0
230
1.0
 70
     8
 71
     3
 72
     8
 73
     4
 74
     0
 42
0.000000001
 43
0.00000001
 40
0.0
 40
0.0
 40
0.0
 40
0.0
 40
1.0
 40
1.0
 40
1.0
 40
1.0
 10
144.8788605379902
 20
79.64723517841712
 30
0.0
 10
144.4277558085899
 20
80.44819511023704
 30
0.0
 10
143.9770579813466
 20
81.24938512179772
 30
0.0
 10
143.5268315170688
 20
82.05084048442248
 30
0.0
  0
LINE
  5
C4
330
1F
100
AcDbEntity
  8
0
  6
Continuous
 62
     7
370
    25
100
AcDbLine
 10
143.5268321095
 20
82.050839591
 30
0.0
 11
143.5268321095
 21
159.7722304642
 31
0.0
  0
SPLINE
  5
C5
330
1F
100
AcDbEntity
  8
0
  6
Continuous
 62
     7
370
    25
100
AcDbSpline
210
0.0
220
0.0
230
1.0
 70
    24
 71
     3
 72
     8
 73
     4
 74
     0
 42
0.000000001
 43
0.00000001
 40
0.0
 40
0.0
 40
0.0
 40
0.0
 40
1.0
 40
1.0
 40
1.0
 40
1.0
 10
143.5268315170688
 20
159.7722287714459
 30
0.0
 10
143.9710443994227
 20
159.7722287714459
 30
0.0
 10
144.422058965662
 20
159.7722287714459
 30
0.0
 10
144.8788605379902
 20
159.7722287714459
 30
0.0
  0
LINE
  5
C6
330
1F
100
AcDbEntity
  8
0
  6
Continuous
 62
     7
370
    25
100
AcDbLine
 10
139.7068318932
 20
82.050839591
 30
0.0
 11
139.7068318932
 21
159.7722304642
 31
0.0
  0
SPLINE
  5
C7
330
1F
100
AcDbEntity
  8
0
  6
Continuous
 62
     7
370
    25
100
AcDbSpline
210
0.0
220
0.0
230
1.0
 70
     8
 71
     3
 72
     8
 73
     4
 74
     0
 42
0.000000001
 43
0.00000001
 40
0.0
 40
0.0
 40
0.0
 40
0.0
 40
1.0
 40
1.0
 40
1.0
 40
1.0
 10
139.7068315170688
 20
82.05084048442248
 30
0.0
 10
139.256605052791
 20
81.24938512179772
 30
0.0
 10
138.8059072255476
 20
80.44819511023704
 30
0.0
 10
138.3548024961474
 20
79.64723517841712
 30
0.0
  0
SPLINE
  5
C8
330
1F
100
AcDbEntity
  8
0
  6
Continuous
 62
     7
370
    25
100
AcDbSpline
210
0.0
220
0.0
230
1.0
 70
    24
 71
     3
 72
     8
 73
     4
 74
     0
 42
0.000000001
 43
0.00000001
 40
0.0
 40
0.0
 40
0.0
 40
0.0
 40
1.0
 40
1.0
 40
1.0
 40
1.0
 10
138.3548024961474
 20
159.7722287714459
 30
0.0
 10
138.8116040684756
 20
159.7722287714459
 30
0.0
 10
139.2626186347148
 20
159.7722287714459
 30
0.0
 10
139.7068315170688
 20
159.7722287714459
 30
0.0
  0
LINE
  5
C9
330
1F
100
AcDbEntity
  8
0
  6
Continuous
 62
     7
370
    25
100
AcDbLine
 10
149.566831535
 20
79.6472338617
 30
0.0
 11
144.8788610308
 21
79.6472338617
 31
0.0
  0
LINE
  5
CA
330
1F
100
AcDbEntity
  8
0
  6
Continuous
 62
     7
370
    25
100
AcDbLine
 10
144.8788610308
 20
159.7722304642
 30
0.0
 11
149.566831535
 21
159.7722304642
 31
0.0
  0
LINE
  5
CB
330
1F
100
AcDbEntity
  8
0
  6
Continuous
 62
     7
370
    25
100
AcDbLine
 10
150.5668316989
 20
80.6728845119
 30
0.0
 11
150.5668316989
 21
159.7722304642
 31
0.0
  0
SPLINE
  5
CC
330
1F
100
AcDbEntity
  8
0
  6
Continuous
 62
     7
370
    25
100
AcDbSpline
210
0.0
220
0.0
230
1.0
 70
     8
 71
     3
 72
    14
 73
    10
 74
     0
 42
0.000000001
 43
0.00000001
 40
0.0
 40
0.0
 40
0.0
 40
0.0
 40
0.25
 40
0.25
 40
0.5
 40
0.5
 40
0.75
 40
0.75
 40
1.0
 40
1.0
 40
1.0
 40
1.0
 10
150.5668315170688
 20
80.67288322619265
 30
0.0
 10
150.5668315170688
 20
80.53945753013811
 30
0.0
 10
150.5415204171579
 20
80.40760972229374
 30
0.0
 10
150.4431856533132
 20
80.16108717359965
 30
0.0
 10
150.3700416490571
 20
80.04728198535909
 30
0.0
 10
150.1866035879614
 20
79.85682480841183
 30
0.0
 10
150.0749172536228
 20
79.77918994456192
 30
0.0
 10
149.8324138233166
 20
79.67489853444945
 30
0.0
 10
149.6990393946223
 20
79.64723517841709
 30
0.0
 10
149.5668315170688
 20
79.64723517841709
 30
0.0
  0
SPLINE
  5
CD
330
1F
100
AcDbEntity
  8
0
  6
Continuous
 62
     7
370
    25
100
AcDbSpline
210
0.0
220
0.0
230
1.0
 70
    24
 71
     3
 72
    12
 73
     8
 74
     0
 42
0.000000001
 43
0.00000001
 40
0.0
 40
0.0
 40
0.0
 40
0.0
 40
0.2500000000000032
 40
0.2500000000000032
 40
0.5000000000000064
 40
0.5000000000000064
 40
1.0
 40
1.0
 40
1.0
 40
1.0
 10
149.5668315170688
 20
159.7722287714459
 30
0.0
 10
149.7189217540138
 20
159.772228771446
 30
0.0
 10
149.8673810150892
 20
159.7722287714459
 30
0.0
 10
150.1247846473549
 20
159.7722287714459
 30
0.0
 10
150.2338893951968
 20
159.7722287714459
 30
0.0
 10
150.4879488716044
 20
159.772228771446
 30
0.0
 10
150.5668315170688
 20
159.7722287714459
 30
0.0
 10
150.5668315170688
 20
159.7722287714459
 30
0.0
  0
SPLINE
  5
CE
330
1F
100
AcDbEntity
  8
0
  6
Continuous
 62
     7
370
    25
100
AcDbSpline
210
0.0
220
0.0
230
1.0
 70
     8
 71
     3
 72
    12
 73
     8
 74
     0
 42
0.000000001
 43
0.00000001
 40
0.0
 40
0.0
 40
0.0
 40
0.0
 40
0.25
 40
0.25
 40
0.5
 40
0.5
 40
1.0
 40
1.0
 40
1.0
 40
1.0
 10
140.5068315170688
 20
83.78255331339629
 30
0.0
 10
140.4010708637199
 20
83.78255331339629
 30
0.0
 10
140.2930832355369
 20
83.7600138073959
 30
0.0
 10
140.0984885702713
 20
83.67544317540057
 30
0.0
 10
140.0096166574325
 20
83.61296152264181
 30
0.0
 10
139.7904243651066
 20
83.38357257116962
 30
0.0
 10
139.7068315170688
 20
83.17098923364725
 30
0.0
 10
139.7068315170688
 20
82.95904998905104
 30
0.0
  0
SPLINE
  5
CF
330
1F
100
AcDbEntity
  8
0
  6
Continuous
 62
     7
370
    25
100
AcDbSpline
210
0.0
220
0.0
230
1.0
 70
    24
 71
     3
 72
    14
 73
    10
 74
     0
 42
0.000000001
 43
0.00000001
 40
0.0
 40
0.0
 40
0.0
 40
0.0
 40
0.25
 40
0.25
 40
0.5
 40
0.5
 40
0.75
 40
0.75
 40
1.0
 40
1.0
 40
1.0
 40
1.0
 10
139.7068315170688
 20
159.7722287714459
 30
0.0
 10
139.7068315170688
 20
159.7722287714459
 30
0.0
 10
139.7225458375347
 20
159.7722287714459
 30
0.0
 10
139.7862298160031
 20
159.7722287714459
 30
0.0
 10
139.8348330104136
 20
159.7722287714459
 30
0.0
 10
139.9675165328391
 20
159.772228771446
 30
0.0
 10
140.0526186371498
 20
159.7722287714459
 30
0.0
 10
140.2590608720598
 20
159.772228771446
 30
0.0
 10
140.3831418136829
 20
159.7722287714459
 30
0.0
 10
140.5068315170688
 20
159.7722287714459
 30
0.0
  0
SPLINE
  5
D0
330
1F
100
AcDbEntity
  8
0
  6
Continuous
 62
     7
370
    25
100
AcDbSpline
210
0.0
220
0.0
230
1.0
 70
     8
 71
     3
 72
    14
 73
    10
 74
     0
 42
0.000000001
 43
0.00000001
 40
0.0
 40
0.0
 40
0.0
 40
0.0
 40
0.25
 40
0.25
 40
0.5
 40
0.5
 40
0.75
 40
0.75
 40
1.0
 40
1.0
 40
1.0
 40
1.0
 10
143.5268315170688
 20
82.95904998905104
 30
0.0
 10
143.5268315170688
 20
83.06609407004544
 30
0.0
 10
143.5067138299106
 20
83.17132921028788
 30
0.0
 10
143.428222640645
 20
83.36917969713556
 30
0.0
 10
143.3700660158438
 20
83.46023146070048
 30
0.0
 10
143.2235507602257
 20
83.61339755462527
 30
0.0
 10
143.1349082115847
 20
83.67569200083467
 30
0.0
 10
142.9391848887843
 20
83.76048578637067
 30
0.0
 10
142.8339536977134
 20
83.78255331339629
 30
0.0
 10
142.7268315170688
 20
83.78255331339629
 30
0.0
  0
SPLINE
  5
D1
330
1F
100
AcDbEntity
  8
0
  6
Continuous
 62
     7
370
    25
100
AcDbSpline
210
0.0
220
0.0
230
1.0
 70
    24
 71
     3
 72
    14
 73
    10
 74
     0
 42
0.000000001
 43
0.00000001
 40
0.0
 40
0.0
 40
0.0
 40
0.0
 40
0.25
 40
0.25
 40
0.5
 40
0.5
 40
0.75
 40
0.75
 40
1.0
 40
1.0
 40
1.0
 40
1.0
 10
142.7268315170688
 20
159.7722287714459
 30
0.0
 10
142.8506012818339
 20
159.7722287714459
 30
0.0
 10
142.9749683858408
 20
159.7722287714459
 30
0.0
 10
143.1813248545669
 20
159.7722287714459
 30
0.0
 10
143.2666529979852
 20
159.7722287714459
 30
0.0
 10
143.3988450567005
 20
159.772228771446
 30
0.0
 10
143.447490300451
 20
159.7722287714459
 30
0.0
 10
143.5110260921798
 20
159.772228771446
 30
0.0
 10
143.5268315170688
 20
159.7722287714459
 30
0.0
 10
143.5268315170688
 20
159.7722287714459
 30
0.0
  0
LINE
  5
D2
330
1F
100
AcDbEntity
  8
0
  6
Continuous
 62
     7
370
    25
100
AcDbLine
 10
142.7268316059
 20
83.7825519621
 30
0.0
 11
140.5068323968
 21
83.7825519621
 31
0.0
  0
LINE
  5
D3
330
1F
100
AcDbEntity
  8
0
  6
Continuous
 62
     7
370
    25
100
AcDbLine
 10
140.5068323968
 20
159.7722304642
 30
0.0
 11
142.7268316059
 21
159.7722304642
 31
0.0
  0
LINE
  5
D4
330
1F
100
AcDbEntity
  8
0
  6
Continuous
 62
     7
370
    25
100
AcDbLine
 10
119.1168315729
 20
90.5399789691
 30
0.0
 11
119.1168315729
 21
166.3044785738
 31
0.0
  0
LINE
  5
D5
330
1F
100
AcDbEntity
  8
0
  6
Continuous
 62
     7
370
    25
100
AcDbLine
 10
86.8168310283
 20
92.1582152724
 30
0.0
 11
86.8168310283
 21
94.5528952062
 31
0.0
  0
SPLINE
  5
D6
330
1F
100
AcDbEntity
  8
0
  6
Continuous
 62
     7
370
    25
100
AcDbSpline
210
0.0
220
0.0
230
1.0
 70
     8
 71
     3
 72
    14
 73
    10
 74
     0
 42
0.000000001
 43
0.00000001
 40
0.0
 40
0.0
 40
0.0
 40
0.0
 40
0.25
 40
0.25
 40
0.5
 40
0.5
 40
0.75
 40
0.75
 40
1.0
 40
1.0
 40
1.0
 40
1.0
 10
85.81240904573184
 20
96.2557474277024
 30
0.0
 10
85.90117762367716
 20
96.09721329639446
 30
0.0
 10
86.02289546235608
 20
95.9447706195059
 30
0.0
 10
86.2579450722129
 20
95.64763599567698
 30
0.0
 10
86.3735752584298
 20
95.50295335205962
 30
0.0
 10
86.57398019185761
 20
95.21966414955621
 30
0.0
 10
86.65938048384194
 20
95.08111015651934
 30
0.0
 10
86.78108611755917
 20
94.80972612648583
 30
0.0
 10
86.81683151707182
 20
94.67759025785121
 30
0.0
 10
86.8168315170718
 20
94.55289550608045
 30
0.0
  0
SPLINE
  5
D7
330
1F
100
AcDbEntity
  8
0
  6
Continuous
 62
     7
370
    25
100
AcDbSpline
210
0.0
220
0.0
230
1.0
 70
     8
 71
     3
 72
    14
 73
    10
 74
     0
 42
0.000000001
 43
0.00000001
 40
0.0
 40
0.0
 40
0.0
 40
0.0
 40
0.124999999999999
 40
0.124999999999999
 40
0.249999999999998
 40
0.249999999999998
 40
0.5000000000000007
 40
0.5000000000000007
 40
1.0
 40
1.0
 40
1.0
 40
1.0
 10
84.9168315170688
 20
96.88457736680252
 30
0.0
 10
84.98441381685329
 20
96.89173325190393
 30
0.0
 10
85.05690139460118
 20
96.88730878186489
 30
0.0
 10
85.18919250386713
 20
96.85760262409454
 30
0.0
 10
85.2464698832573
 20
96.83431834251633
 30
0.0
 10
85.39612031045759
 20
96.75683310266601
 30
0.0
 10
85.46983360597909
 20
96.69498127576463
 30
0.0
 10
85.65764158930533
 20
96.51030382311632
 30
0.0
 10
85.74168189566677
 20
96.38206089982509
 30
0.0
 10
85.81240904573306
 20
96.25574742770252
 30
0.0
  0
SPLINE
  5
D8
330
1F
100
AcDbEntity
  8
0
  6
Continuous
 62
     7
370
    25
100
AcDbSpline
210
0.0
220
0.0
230
1.0
 70
     8
 71
     3
 72
     8
 73
     4
 74
     0
 42
0.000000001
 43
0.00000001
 40
0.0
 40
0.0
 40
0.0
 40
0.0
 40
1.0
 40
1.0
 40
1.0
 40
1.0
 10
81.372191128988
 20
96.46652878201073
 30
0.0
 10
82.53748943969688
 20
96.62171625389735
 30
0.0
 10
83.7221046537367
 20
96.75807489220767
 30
0.0
 10
84.91683151706877
 20
96.88457736680253
 30
0.0
  0
SPLINE
  5
D9
330
1F
100
AcDbEntity
  8
0
  6
Continuous
 62
     7
370
    25
100
AcDbSpline
210
0.0
220
0.0
230
1.0
 70
     8
 71
     3
 72
    14
 73
    10
 74
     0
 42
0.000000001
 43
0.00000001
 40
0.0
 40
0.0
 40
0.0
 40
0.0
 40
0.4999999999999972
 40
0.4999999999999972
 40
0.7499999999999971
 40
0.7499999999999971
 40
0.8749999999999986
 40
0.8749999999999986
 40
1.0
 40
1.0
 40
1.0
 40
1.0
 10
73.6167566330401
 20
96.17639660288081
 30
0.0
 10
74.92505819557385
 20
96.18341132662195
 30
0.0
 10
76.23011757023066
 20
96.19881990306642
 30
0.0
 10
78.17599362171899
 20
96.25271645853309
 30
0.0
 10
78.82269112545798
 20
96.27574802313579
 30
0.0
 10
79.78653348931232
 20
96.32669054800655
 30
0.0
 10
80.1067721812464
 20
96.34642547023975
 30
0.0
 10
80.74346740758881
 20
96.3959125987113
 30
0.0
 10
81.06018281587174
 20
96.42497737764054
 30
0.0
 10
81.37219112898805
 20
96.4665287820107
 30
0.0
  0
SPLINE
  5
DA
330
1F
100
AcDbEntity
  8
0
  6
Continuous
 62
     7
370
    25
100
AcDbSpline
210
0.0
220
0.0
230
1.0
 70
     8
 71
     3
 72
    12
 73
     8
 74
     0
 42
0.000000001
 43
0.00000001
 40
0.0
 40
0.0
 40
0.0
 40
0.0
 40
0.2500000000000009
 40
0.2500000000000009
 40
0.5000000000000018
 40
0.5000000000000018
 40
1.0
 40
1.0
 40
1.0
 40
1.0
 10
79.9168315170688
 20
160.5087516629424
 30
0.0
 10
79.39813269524059
 20
160.5412744377906
 30
0.0
 10
78.87642112203561
 20
160.564571178961
 30
0.0
 10
77.83012910554005
 20
160.6024166933832
 30
0.0
 10
77.30545747986977
 20
160.6166851678793
 30
0.0
 10
75.72861145733056
 20
160.6508946553376
 30
0.0
 10
74.67365614278363
 20
160.6623941592815
 30
0.0
 10
73.6167566330384
 20
160.6680609400111
 30
0.0
  0
SPLINE
  5
DB
330
1F
100
AcDbEntity
  8
0
  6
Continuous
 62
     7
370
    25
100
AcDbSpline
210
0.0
220
0.0
230
1.0
 70
     8
 71
     3
 72
    20
 73
    16
 74
     0
 42
0.000000001
 43
0.00000001
 40
0.0
 40
0.0
 40
0.0
 40
0.0
 40
0.2500000000000011
 40
0.2500000000000011
 40
0.5000000000000021
 40
0.5000000000000021
 40
0.7500000000000031
 40
0.7500000000000031
 40
0.8750000000000008
 40
0.8750000000000008
 40
0.9375000000000006
 40
0.9375000000000006
 40
0.9687500000000003
 40
0.9687500000000003
 40
1.0
 40
1.0
 40
1.0
 40
1.0
 10
81.81683151706879
 20
162.1668375084305
 30
0.0
 10
81.81683151706878
 20
162.0311551886837
 30
0.0
 10
81.76811972785217
 20
161.8900682025437
 30
0.0
 10
81.59895830462699
 20
161.5979964838131
 30
0.0
 10
81.47717789070866
 20
161.4463477417227
 30
0.0
 10
81.17963079595916
 20
161.1439393015696
 30
0.0
 10
81.00571819025637
 20
160.9913506654463
 30
0.0
 10
80.68630335637455
 20
160.766079901604
 30
0.0
 10
80.5712625809273
 20
160.6913568070933
 30
0.0
 10
80.36417825691088
 20
160.5919463978363
 30
0.0
 10
80.28807042210448
 20
160.5603813054917
 30
0.0
 10
80.15667588255116
 20
160.5259379212987
 30
0.0
 10
80.11012266354969
 20
160.5168863495311
 30
0.0
 10
80.01378931246897
 20
160.5067107006927
 30
0.0
 10
79.96452988911354
 20
160.5057609420176
 30
0.0
 10
79.9168315170668
 20
160.5087516629322
 30
0.0
  0
LINE
  5
DC
330
1F
100
AcDbEntity
  8
0
  6
Continuous
 62
     7
370
    25
100
AcDbLine
 10
81.8168320714
 20
162.1668358922
 30
0.0
 11
81.8168320714
 21
164.4357425749
 31
0.0
  0
SPLINE
  5
DD
330
1F
100
AcDbEntity
  8
0
  6
Continuous
 62
     7
370
    25
100
AcDbSpline
210
0.0
220
0.0
230
1.0
 70
     8
 71
     3
 72
    24
 73
    20
 74
     0
 42
0.000000001
 43
0.00000001
 40
0.0
 40
0.0
 40
0.0
 40
0.0
 40
0.0002934239329635
 40
0.0628079954843725
 40
0.1260453886222317
 40
0.1890746649056576
 40
0.2513200327496127
 40
0.3133304381321615
 40
0.3759158074016681
 40
0.4383740215105411
 40
0.5000631209931454
 40
0.5616593985498132
 40
0.6245050468179062
 40
0.6872231543007362
 40
0.7494953203649202
 40
0.811758388799549
 40
0.8747365576758938
 40
0.937898032705022
 40
1.0
 40
1.0
 40
1.0
 40
1.0
 10
100.1367871670408
 20
91.49098225235718
 30
0.0
 10
100.136592623258
 20
91.49095855509658
 30
0.0
 10
100.0949501270023
 20
91.48588610779416
 30
0.0
 10
100.2399733391751
 20
91.50432739794027
 30
0.0
 10
100.5950905661936
 20
91.54692972670706
 30
0.0
 10
101.1996561198296
 20
91.61504006003344
 30
0.0
 10
102.0060932782353
 20
91.68830537336137
 30
0.0
 10
102.9915703882566
 20
91.75282097667008
 30
0.0
 10
104.1232395296389
 20
91.79138789194937
 30
0.0
 10
105.3455324433012
 20
91.79507719379619
 30
0.0
 10
106.6128615892615
 20
91.75265876740204
 30
0.0
 10
107.8793468323585
 20
91.66440390115052
 30
0.0
 10
109.0954849632192
 20
91.53601829391951
 30
0.0
 10
110.2208943888349
 20
91.38337056724957
 30
0.0
 10
111.1983125820529
 20
91.22160018588457
 30
0.0
 10
112.0015772625705
 20
91.06906774940813
 30
0.0
 10
112.590070671602
 20
90.94505411064725
 30
0.0
 10
112.9789774080874
 20
90.86013251949662
 30
0.0
 10
113.0257382244577
 20
90.84940681118854
 30
0.0
 10
113.048920875637
 20
90.84408931731957
 30
0.0
  0
SPLINE
  5
DE
330
1F
100
AcDbEntity
  8
0
  6
Continuous
 62
     7
370
    25
100
AcDbSpline
210
0.0
220
0.0
230
1.0
 70
     8
 71
     3
 72
    27
 73
    23
 74
     0
 42
0.000000001
 43
0.00000001
 40
0.0
 40
0.0
 40
0.0
 40
0.0
 40
0.0619954680688684
 40
0.1254397621813191
 40
0.1886583727463871
 40
0.2510346191260181
 40
0.313178255016169
 40
0.3756730771103761
 40
0.4382401025850776
 40
0.4998243385522818
 40
0.5615387009126923
 40
0.6240931220669997
 40
0.6867530144355031
 40
0.7488662870716932
 40
0.8111008374917862
 40
0.8742090103085037
 40
0.9448189516773847
 40
0.9756082665127763
 40
0.9877505319198249
 40
0.9999433694577685
 40
0.9999501670988248
 40
1.0
 40
1.0
 40
1.0
 40
1.0
 10
113.0487998037023
 20
166.0003235220887
 30
0.0
 10
113.0252282127433
 20
165.9950139370453
 30
0.0
 10
112.9775341658035
 20
165.9842706826452
 30
0.0
 10
112.5854910724244
 20
165.8990437974687
 30
0.0
 10
111.9949784272376
 20
165.7744751165127
 30
0.0
 10
111.1909399791708
 20
165.6215262063426
 30
0.0
 10
110.2148652127706
 20
165.4597690037361
 30
0.0
 10
109.0930568998741
 20
165.3075355858007
 30
0.0
 10
107.8795252640981
 20
165.1797602319968
 30
0.0
 10
106.6146948332674
 20
165.091911713991
 30
0.0
 10
105.3466514615789
 20
165.0495236842951
 30
0.0
 10
104.1231441606451
 20
165.0532627198824
 30
0.0
 10
102.9896448149691
 20
165.0918513334108
 30
0.0
 10
102.0035401923403
 20
165.1562972668518
 30
0.0
 10
101.1949103498916
 20
165.2298060005576
 30
0.0
 10
100.5746818151779
 20
165.2997764458871
 30
0.0
 10
100.2565286334088
 20
165.3383278385525
 30
0.0
 10
100.1608671877506
 20
165.3503988908519
 30
0.0
 10
100.1392483586704
 20
165.3531593116467
 30
0.0
 10
100.1364073915286
 20
165.3534876929946
 30
0.0
 10
100.1360870158501
 20
165.3535426302613
 30
0.0
 10
100.1361225759994
 20
165.3535365342055
 30
0.0
 10
100.13615386769
 20
165.3535311698892
 30
0.0
  0
LINE
  5
DF
330
1F
100
AcDbEntity
  8
0
  6
Continuous
 62
     7
370
    25
100
AcDbLine
 10
181.616830176
 20
93.4222286224
 30
0.0
 11
181.616830176
 21
163.4222289205
 31
0.0
  0
SPLINE
  5
E0
330
1F
100
AcDbEntity
  8
0
  6
Continuous
 62
     7
370
    25
100
AcDbSpline
210
0.0
220
0.0
230
1.0
 70
    11
 71
     3
 72
    90
 73
    86
 74
     0
 42
0.000000001
 43
0.00000001
 40
0.0
 40
0.0
 40
0.0
 40
0.0
 40
0.0312500000000009
 40
0.0312500000000009
 40
0.0468750000000013
 40
0.0468750000000013
 40
0.0625000000000017
 40
0.0625000000000017
 40
0.0937500000000021
 40
0.0937500000000021
 40
0.1093750000000022
 40
0.1093750000000022
 40
0.1250000000000024
 40
0.1250000000000024
 40
0.1562500000000023
 40
0.1562500000000023
 40
0.1875000000000022
 40
0.1875000000000022
 40
0.2187500000000021
 40
0.2187500000000021
 40
0.234375000000002
 40
0.234375000000002
 40
0.2500000000000018
 40
0.2656250000000018
 40
0.2656250000000018
 40
0.2812500000000017
 40
0.2812500000000017
 40
0.3125000000000014
 40
0.3125000000000014
 40
0.3281250000000014
 40
0.3281250000000014
 40
0.3437500000000014
 40
0.3437500000000014
 40
0.3750000000000013
 40
0.3750000000000013
 40
0.4062500000000013
 40
0.4062500000000013
 40
0.4375000000000013
 40
0.4375000000000013
 40
0.4687500000000013
 40
0.4687500000000013
 40
0.4843750000000013
 40
0.4843750000000013
 40
0.5000000000000012
 40
0.5000000000000012
 40
0.5312500000000013
 40
0.5312500000000013
 40
0.5468750000000013
 40
0.5468750000000013
 40
0.5625000000000013
 40
0.5625000000000013
 40
0.5937500000000017
 40
0.5937500000000017
 40
0.6250000000000021
 40
0.6250000000000021
 40
0.6406250000000021
 40
0.6406250000000021
 40
0.6562500000000021
 40
0.6562500000000021
 40
0.6875000000000021
 40
0.6875000000000021
 40
0.7187500000000021
 40
0.7187500000000021
 40
0.750000000000002
 40
0.750000000000002
 40
0.765625000000002
 40
0.765625000000002
 40
0.781250000000002
 40
0.796875000000002
 40
0.796875000000002
 40
0.812500000000002
 40
0.812500000000002
 40
0.8437500000000021
 40
0.8437500000000021
 40
0.859375000000002
 40
0.859375000000002
 40
0.8750000000000019
 40
0.8750000000000019
 40
0.9062500000000014
 40
0.9062500000000014
 40
0.9375000000000009
 40
0.9375000000000009
 40
0.9687500000000004
 40
0.9687500000000004
 40
1.0
 40
1.0
 40
1.0
 40
1.0
 10
172.6168315170688
 20
121.9721807401691
 30
0.0
 10
173.0565306402673
 20
121.972180740169
 30
0.0
 10
173.4895219358613
 20
122.0114657715946
 30
0.0
 10
174.1293082022879
 20
122.1273059348085
 30
0.0
 10
174.3409422732199
 20
122.1754725735394
 30
0.0
 10
174.7608797323706
 20
122.2913918067437
 30
0.0
 10
174.9702618393173
 20
122.3595899148922
 30
0.0
 10
175.5831484698264
 20
122.5911517555801
 30
0.0
 10
175.9720570983691
 20
122.7808203593124
 30
0.0
 10
176.5259965684703
 20
123.1184763767161
 30
0.0
 10
176.7057064039121
 20
123.2399471146076
 30
0.0
 10
177.0548429343655
 20
123.5015459069756
 30
0.0
 10
177.224051085549
 20
123.6417084499237
 30
0.0
 10
177.7044618472143
 20
124.0811690514879
 30
0.0
 10
177.9927946690188
 20
124.402138031494
 30
0.0
 10
178.5040679782396
 20
125.1018854297842
 30
0.0
 10
178.727598987789
 20
125.4841946816625
 30
0.0
 10
179.0846256373775
 20
126.2738779450186
 30
0.0
 10
179.2215427362815
 20
126.6847908506159
 30
0.0
 10
179.3615731099796
 20
127.3265297084754
 30
0.0
 10
179.3970146794244
 20
127.5443940957966
 30
0.0
 10
179.4439871245463
 20
127.9777154217883
 30
0.0
 10
179.4677137991219
 20
128.4113476830476
 30
0.0
 10
179.4455052913617
 20
128.8455946416432
 30
0.0
 10
179.3998767125527
 20
129.2801548759614
 30
0.0
 10
179.3650339135944
 20
129.4985575839982
 30
0.0
 10
179.227432620424
 20
130.1392290044058
 30
0.0
 10
179.0919079812213
 20
130.5513359402167
 30
0.0
 10
178.8244134689974
 20
131.1475974275343
 30
0.0
 10
178.7237958519594
 20
131.3437099873586
 30
0.0
 10
178.5045937783158
 20
131.7212799778811
 30
0.0
 10
178.3859834491047
 20
131.9031511528042
 30
0.0
 10
178.0040760374752
 20
132.4288309420304
 30
0.0
 10
177.7130970045568
 20
132.7545521771305
 30
0.0
 10
177.0689511989691
 20
133.3454479274768
 30
0.0
 10
176.7223433691727
 20
133.605319445591
 30
0.0
 10
175.9825878335776
 20
134.0581669456308
 30
0.0
 10
175.5854697011873
 20
134.2521248771994
 30
0.0
 10
174.7722741936832
 20
134.5599723391399
 30
0.0
 10
174.354367084543
 20
134.6758250695557
 30
0.0
 10
173.7106755188211
 20
134.793228976569
 30
0.0
 10
173.4921810576274
 20
134.8229633695405
 30
0.0
 10
173.0563848145881
 20
134.8623348386922
 30
0.0
 10
172.8389067949746
 20
134.8721264493857
 30
0.0
 10
172.1877016003081
 20
134.8725723664735
 30
0.0
 10
171.755192135839
 20
134.8345690368652
 30
0.0
 10
171.1089462704189
 20
134.718189822956
 30
0.0
 10
170.894211864968
 20
134.6693448802574
 30
0.0
 10
170.4744502441414
 20
134.5535771826391
 30
0.0
 10
170.2682934147685
 20
134.4864778271622
 30
0.0
 10
169.660898615481
 20
134.2576938094123
 30
0.0
 10
169.2706244115757
 20
134.0688092684405
 30
0.0
 10
168.5213932814745
 20
133.6127595726277
 30
0.0
 10
168.1747096705745
 20
133.3530040628942
 30
0.0
 10
167.696425068191
 20
132.916631705397
 30
0.0
 10
167.5439672501869
 20
132.7633087988121
 30
0.0
 10
167.2534722439985
 20
132.4403188758424
 30
0.0
 10
167.1146746735281
 20
132.2695364219944
 30
0.0
 10
166.7284838223921
 20
131.7411902119496
 30
0.0
 10
166.5101786579471
 20
131.3678921920851
 30
0.0
 10
166.1520781575694
 20
130.5787475979483
 30
0.0
 10
166.011744825718
 20
130.1576538759699
 30
0.0
 10
165.8261646124032
 20
129.3077502937234
 30
0.0
 10
165.7786191775931
 20
128.8764615125114
 30
0.0
 10
165.77685892913
 20
128.2197692362693
 30
0.0
 10
165.7881637346799
 20
127.9988810162296
 30
0.0
 10
165.8337342376187
 20
127.5647236023248
 30
0.0
 10
165.9021367297235
 20
127.1354337672949
 30
0.0
 10
166.0152850752967
 20
126.7156715701339
 30
0.0
 10
166.151051643532
 20
126.3007156887368
 30
0.0
 10
166.2307494944276
 20
126.0947485330355
 30
0.0
 10
166.4987416957298
 20
125.4973748566147
 30
0.0
 10
166.7164273817254
 20
125.1225789571834
 30
0.0
 10
167.099634468357
 20
124.5942017083296
 30
0.0
 10
167.2377177014902
 20
124.4228929634872
 30
0.0
 10
167.5284148094444
 20
124.0973296513858
 30
0.0
 10
167.6809867392103
 20
123.9428748626516
 30
0.0
 10
168.1595758854598
 20
123.5034663474662
 30
0.0
 10
168.5071799709873
 20
123.2416990032377
 30
0.0
 10
169.2546051485183
 20
122.7841029742374
 30
0.0
 10
169.6447303132901
 20
122.5939541842351
 30
0.0
 10
170.4560221506166
 20
122.2862096663189
 30
0.0
 10
170.8810229629485
 20
122.1681341712982
 30
0.0
 10
171.7417278273751
 20
122.0115167512511
 30
0.0
 10
172.1771323938703
 20
121.972180740169
 30
0.0
 10
172.6168315170688
 20
121.972180740169
 30
0.0
  0
SPLINE
  5
E1
330
1F
100
AcDbEntity
  8
0
  6
Continuous
 62
     7
370
    25
100
AcDbSpline
210
0.0
220
0.0
230
1.0
 70
    11
 71
     3
 72
    39
 73
    35
 74
     0
 42
0.000000001
 43
0.00000001
 40
0.0
 40
0.0
 40
0.0
 40
0.0
 40
0.030809678234645
 40
0.0620011325152929
 40
0.0932771631876009
 40
0.1243192849162842
 40
0.1554421839339093
 40
0.1870439785089808
 40
0.218683192001149
 40
0.2500194102192652
 40
0.281309861586785
 40
0.3129694002864008
 40
0.3445091169050764
 40
0.3756222456104821
 40
0.4066410809388381
 40
0.4379942120363297
 40
0.4692934055296988
 40
0.5001505653790428
 40
0.5309299935450245
 40
0.5621454465241302
 40
0.5933596627966569
 40
0.6243846724512709
 40
0.6555028158321632
 40
0.6870766646532477
 40
0.7187367745379803
 40
0.7500726589267328
 40
0.7813897149107041
 40
0.8130771729800118
 40
0.8446369155748413
 40
0.8757796257127879
 40
0.9067777921839122
 40
0.9380343843005424
 40
0.9692430103903154
 40
0.9999999999999999
 40
0.9999999999999999
 40
0.9999999999999999
 40
0.9999999999999999
 10
163.5668315170688
 20
100.5753019044743
 30
0.0
 10
163.3390836869632
 20
100.575416386891
 30
0.0
 10
162.8808287841931
 20
100.6048996466699
 30
0.0
 10
162.2204354792382
 20
100.7376826956915
 30
0.0
 10
161.6092216234168
 20
100.949087852694
 30
0.0
 10
161.077248942415
 20
101.2389435949599
 30
0.0
 10
160.6408731659076
 20
101.5975061426435
 30
0.0
 10
160.3190554003453
 20
102.016165270597
 30
0.0
 10
160.115074731459
 20
102.4771684473042
 30
0.0
 10
160.0473471674538
 20
102.9649979439648
 30
0.0
 10
160.1145101078154
 20
103.4626269884196
 30
0.0
 10
160.3184977069424
 20
103.9507219925576
 30
0.0
 10
160.6403622361359
 20
104.4105986103129
 30
0.0
 10
161.0763635365692
 20
104.8175347911182
 30
0.0
 10
161.6087685616227
 20
105.1562201103439
 30
0.0
 10
162.2211818134705
 20
105.4089351371542
 30
0.0
 10
162.883094627207
 20
105.570711637824
 30
0.0
 10
163.5700822720152
 20
105.6245216765802
 30
0.0
 10
164.2564616724391
 20
105.570842751417
 30
0.0
 10
164.9161955474748
 20
105.409280808276
 30
0.0
 10
165.526567357879
 20
105.1562261309636
 30
0.0
 10
166.0574235629851
 20
104.817295173892
 30
0.0
 10
166.4932659844871
 20
104.4099897706659
 30
0.0
 10
166.8150839490245
 20
103.9498572016391
 30
0.0
 10
167.019110676076
 20
103.4613532634935
 30
0.0
 10
167.086369680275
 20
102.9636079687234
 30
0.0
 10
167.0183969225707
 20
102.4754213557544
 30
0.0
 10
166.8137069076858
 20
102.014643501667
 30
0.0
 10
166.4911594408669
 20
101.5961455223782
 30
0.0
 10
166.0548777684165
 20
101.237990821605
 30
0.0
 10
165.5232338685126
 20
100.9482253807036
 30
0.0
 10
164.9122942955973
 20
100.7369877133823
 30
0.0
 10
164.2523078427163
 20
100.6041434878311
 30
0.0
 10
163.7941898682608
 20
100.5751876178376
 30
0.0
 10
163.5668315170688
 20
100.5753019044743
 30
0.0
  0
SPLINE
  5
E2
330
1F
100
AcDbEntity
  8
0
  6
Continuous
 62
     7
370
    25
100
AcDbSpline
210
0.0
220
0.0
230
1.0
 70
    11
 71
     3
 72
    39
 73
    35
 74
     0
 42
0.000000001
 43
0.00000001
 40
0.0
 40
0.0
 40
0.0
 40
0.0
 40
0.0308096782348076
 40
0.0620011325153001
 40
0.0932771631880099
 40
0.1243192849162938
 40
0.1554421839333684
 40
0.1870439785089506
 40
0.2186831920003527
 40
0.2500194102192648
 40
0.2813098615872335
 40
0.3129694002864177
 40
0.3445091169055238
 40
0.3756222456104819
 40
0.4066410809386731
 40
0.4379942120363235
 40
0.4692934055293631
 40
0.5001505653790355
 40
0.5309299935449291
 40
0.5621454465241328
 40
0.5933596627974151
 40
0.6243846724512973
 40
0.655502815832337
 40
0.6870766646532284
 40
0.7187367745380809
 40
0.7500726589267563
 40
0.7813897149120488
 40
0.8130771729800398
 40
0.8446369155756889
 40
0.8757796257127929
 40
0.9067777921837047
 40
0.9380343843005293
 40
0.9692430103899898
 40
1.0
 40
1.0
 40
1.0
 40
1.0
 10
163.5668315170688
 20
151.2377643572155
 30
0.0
 10
163.3390836869619
 20
151.237903860485
 30
0.0
 10
162.8808287841917
 20
151.2739662915496
 30
0.0
 10
162.2204354792343
 20
151.4350405197938
 30
0.0
 10
161.6092216234143
 20
151.6875789287201
 30
0.0
 10
161.0772489424149
 20
152.0262623906129
 30
0.0
 10
160.6408731659158
 20
152.4336532895121
 30
0.0
 10
160.3190554003488
 20
152.8938881592898
 30
0.0
 10
160.1150747314547
 20
153.3824323145687
 30
0.0
 10
160.0473471674551
 20
153.8798872973173
 30
0.0
 10
160.1145101078126
 20
154.3678664644333
 30
0.0
 10
160.318497706945
 20
154.828428864259
 30
0.0
 10
160.6403622361403
 20
155.2467620716483
 30
0.0
 10
161.0763635365701
 20
155.6049383227492
 30
0.0
 10
161.6087685616225
 20
155.8948123996102
 30
0.0
 10
162.221181813467
 20
156.1063770890196
 30
0.0
 10
162.8830946272046
 20
156.2397396724302
 30
0.0
 10
163.5700822720121
 20
156.283730986352
 30
0.0
 10
164.256461672439
 20
156.2398466990018
 30
0.0
 10
164.9161955474789
 20
156.1066644531707
 30
0.0
 10
165.5265673578859
 20
155.8948186890996
 30
0.0
 10
166.0574235629903
 20
155.6047343133066
 30
0.0
 10
166.4932659844812
 20
155.2462203215881
 30
0.0
 10
166.8150839490252
 20
154.8276310533237
 30
0.0
 10
167.0191106760839
 20
154.3666453507634
 30
0.0
 10
167.0863696802737
 20
153.8785001264275
 30
0.0
 10
167.0183969225699
 20
153.3806187328487
 30
0.0
 10
166.8137069076803
 20
152.8922433069059
 30
0.0
 10
166.4911594408596
 20
152.4321291366744
 30
0.0
 10
166.0548777684142
 20
152.0251632896879
 30
0.0
 10
165.5232338685118
 20
151.686558417651
 30
0.0
 10
164.9122942956011
 20
151.4342050451242
 30
0.0
 10
164.252307842719
 20
151.2730445604111
 30
0.0
 10
163.7941898682633
 20
151.237625092515
 30
0.0
 10
163.5668315170688
 20
151.2377643572155
 30
0.0
  0
SPLINE
  5
E3
330
1F
100
AcDbEntity
  8
0
  6
Continuous
 62
     7
370
    25
100
AcDbSpline
210
0.0
220
0.0
230
1.0
 70
     8
 71
     3
 72
    20
 73
    16
 74
     0
 42
0.000000001
 43
0.00000001
 40
0.0
 40
0.0
 40
0.0
 40
0.0
 40
0.249999999999986
 40
0.249999999999986
 40
0.3749999999999789
 40
0.3749999999999789
 40
0.4374999999999789
 40
0.4374999999999789
 40
0.4999999999999789
 40
0.4999999999999789
 40
0.6249999999999835
 40
0.6249999999999835
 40
0.7499999999999879
 40
0.7499999999999879
 40
1.0
 40
1.0
 40
1.0
 40
1.0
 10
72.00764574878481
 20
97.74374561874524
 30
0.0
 10
72.03391796599821
 20
97.7630635598277
 30
0.0
 10
72.06459810825305
 20
97.77745227092947
 30
0.0
 10
72.13606897863498
 20
97.77054790909345
 30
0.0
 10
72.1640960156793
 20
97.76338190574505
 30
0.0
 10
72.21917960517682
 20
97.73368287904145
 30
0.0
 10
72.24007093372926
 20
97.72020923648012
 30
0.0
 10
72.2852795811747
 20
97.6850109709641
 30
0.0
 10
72.30968379357027
 20
97.66310274223684
 30
0.0
 10
72.38101611162173
 20
97.5909778822413
 30
0.0
 10
72.42291289644199
 20
97.53863734129125
 30
0.0
 10
72.49448885529787
 20
97.4411539493905
 30
0.0
 10
72.52531684511519
 20
97.39440017951208
 30
0.0
 10
72.60841677795074
 20
97.26110696367296
 30
0.0
 10
72.65327168332104
 20
97.17846956575775
 30
0.0
 10
72.69338375877362
 20
97.09936267096697
 30
0.0
  0
SPLINE
  5
E4
330
1F
100
AcDbEntity
  8
0
  6
Continuous
 62
     7
370
    25
100
AcDbSpline
210
0.0
220
0.0
230
1.0
 70
     8
 71
     3
 72
    14
 73
    10
 74
     0
 42
0.000000001
 43
0.00000001
 40
0.0
 40
0.0
 40
0.0
 40
0.0
 40
0.25
 40
0.25
 40
0.5
 40
0.5
 40
0.75
 40
0.75
 40
1.0
 40
1.0
 40
1.0
 40
1.0
 10
71.71683151706881
 20
97.91955902887801
 30
0.0
 10
71.71683151706881
 20
97.87831209785367
 30
0.0
 10
71.72544123345007
 20
97.84140512557119
 30
0.0
 10
71.7565274130204
 20
97.78050506567178
 30
0.0
 10
71.77891696650445
 20
97.75632414613209
 30
0.0
 10
71.83366089768057
 20
97.72235655524882
 30
0.0
 10
71.86611113726576
 20
97.71243647128064
 30
0.0
 10
71.93611265199382
 20
97.71108526237579
 30
0.0
 10
71.97432315211638
 20
97.71924353907195
 30
0.0
 10
72.00764574878946
 20
97.74374561874004
 30
0.0
  0
LINE
  5
E5
330
1F
100
AcDbEntity
  8
0
  6
Continuous
 62
     7
370
    25
100
AcDbLine
 10
71.7168324648
 20
97.9195592582
 30
0.0
 11
71.7168324648
 21
158.9248982847
 31
0.0
  0
SPLINE
  5
E6
330
1F
100
AcDbEntity
  8
0
  6
Continuous
 62
     7
370
    25
100
AcDbSpline
210
0.0
220
0.0
230
1.0
 70
     8
 71
     3
 72
    10
 73
     6
 74
     0
 42
0.000000001
 43
0.00000001
 40
0.0
 40
0.0
 40
0.0
 40
0.0
 40
0.0592395053716226
 40
0.6438088203605729
 40
1.0
 40
1.0
 40
1.0
 40
1.0
 10
72.00764725193208
 20
159.1007114976622
 30
0.0
 10
72.00281483095999
 20
159.1039607069506
 30
0.0
 10
71.95029657939789
 20
159.1392727776018
 30
0.0
 10
71.8513490634706
 20
159.1455234737212
 30
0.0
 10
71.80192059278173
 20
159.0903228648588
 30
0.0
 10
71.78320596203035
 20
159.0694227844455
 30
0.0
  0
SPLINE
  5
E7
330
1F
100
AcDbEntity
  8
0
  6
Continuous
 62
     7
370
    25
100
AcDbSpline
210
0.0
220
0.0
230
1.0
 70
     8
 71
     3
 72
     8
 73
     4
 74
     0
 42
0.000000001
 43
0.00000001
 40
0.0
 40
0.0
 40
0.0
 40
0.0
 40
1.0
 40
1.0
 40
1.0
 40
1.0
 10
71.74046518600501
 20
159.0324780150835
 30
0.0
 10
71.72511614736895
 20
159.0019679600876
 30
0.0
 10
71.71683151706881
 20
158.9656564045752
 30
0.0
 10
71.71683151706881
 20
158.9248985140138
 30
0.0
  0
SPLINE
  5
E8
330
1F
100
AcDbEntity
  8
0
  6
Continuous
 62
     7
370
    25
100
AcDbSpline
210
0.0
220
0.0
230
1.0
 70
     8
 71
     3
 72
    20
 73
    16
 74
     0
 42
0.000000001
 43
0.00000001
 40
0.0
 40
0.0
 40
0.0
 40
0.0
 40
0.2500000000000037
 40
0.2500000000000037
 40
0.3750000000000055
 40
0.3750000000000055
 40
0.5000000000000073
 40
0.5000000000000073
 40
0.5625000000000057
 40
0.5625000000000057
 40
0.625000000000004
 40
0.625000000000004
 40
0.7500000000000027
 40
0.7500000000000027
 40
1.0
 40
1.0
 40
1.0
 40
1.0
 10
72.69338375877122
 20
159.7450948719241
 30
0.0
 10
72.65338754094738
 20
159.6662164653667
 30
0.0
 10
72.60827391310973
 20
159.5830868186751
 30
0.0
 10
72.5250196987432
 20
159.4495981543242
 30
0.0
 10
72.4948003701227
 20
159.4037330984422
 30
0.0
 10
72.42271213498128
 20
159.3055415460373
 30
0.0
 10
72.3807948175702
 20
159.2532317265137
 30
0.0
 10
72.30954421301873
 20
159.1812258237792
 30
0.0
 10
72.28530840063942
 20
159.1594556114777
 30
0.0
 10
72.23971021045477
 20
159.1239809531487
 30
0.0
 10
72.21890772085506
 20
159.1106107689711
 30
0.0
 10
72.16396672243594
 20
159.0810408568359
 30
0.0
 10
72.13589773434911
 20
159.0739143345339
 30
0.0
 10
72.0653949042863
 20
159.0670399630512
 30
0.0
 10
72.03397081649541
 20
159.0813551221384
 30
0.0
 10
72.00764574878681
 20
159.1007119241489
 30
0.0
  0
SPLINE
  5
E9
330
1F
100
AcDbEntity
  8
0
  6
Continuous
 62
     7
370
    25
100
AcDbSpline
210
0.0
220
0.0
230
1.0
 70
     8
 71
     3
 72
    10
 73
     6
 74
     0
 42
0.000000001
 43
0.00000001
 40
0.0
 40
0.0
 40
0.0
 40
0.0
 40
0.4999999999999989
 40
0.4999999999999989
 40
1.0
 40
1.0
 40
1.0
 40
1.0
 10
73.3668315170688
 20
160.6705139732659
 30
0.0
 10
73.24194324631861
 20
160.5395176951945
 30
0.0
 10
73.12049312825816
 20
160.3958048585295
 30
0.0
 10
72.89090915330074
 20
160.0852345658402
 30
0.0
 10
72.78063417790476
 20
159.9171654927771
 30
0.0
 10
72.69338375877123
 20
159.7450948719241
 30
0.0
  0
SPLINE
  5
EA
330
1F
100
AcDbEntity
  8
0
  6
Continuous
 62
     7
370
    25
100
AcDbSpline
210
0.0
220
0.0
230
1.0
 70
     8
 71
     3
 72
     8
 73
     4
 74
     0
 42
0.000000001
 43
0.00000001
 40
0.0
 40
0.0
 40
0.0
 40
0.0
 40
1.0
 40
1.0
 40
1.0
 40
1.0
 10
73.61675663303454
 20
160.6680609400105
 30
0.0
 10
73.52973860318617
 20
160.6685275047976
 30
0.0
 10
73.44678457680624
 20
160.6695675243737
 30
0.0
 10
73.3668315170665
 20
160.670513973266
 30
0.0
  0
SPLINE
  5
EB
330
1F
100
AcDbEntity
  8
0
  6
Continuous
 62
     7
370
    25
100
AcDbSpline
210
0.0
220
0.0
230
1.0
 70
     8
 71
     3
 72
     8
 73
     4
 74
     0
 42
0.000000001
 43
0.00000001
 40
0.0
 40
0.0
 40
0.0
 40
0.0
 40
1.0
 40
1.0
 40
1.0
 40
1.0
 10
73.3668315170665
 20
96.17394356962586
 30
0.0
 10
73.44678457680675
 20
96.17489001851813
 30
0.0
 10
73.52973860318725
 20
96.17593003809425
 30
0.0
 10
73.61675663303625
 20
96.17639660288133
 30
0.0
  0
SPLINE
  5
EC
330
1F
100
AcDbEntity
  8
0
  6
Continuous
 62
     7
370
    25
100
AcDbSpline
210
0.0
220
0.0
230
1.0
 70
     8
 71
     3
 72
    10
 73
     6
 74
     0
 42
0.000000001
 43
0.00000001
 40
0.0
 40
0.0
 40
0.0
 40
0.0
 40
0.4999999999999989
 40
0.4999999999999989
 40
1.0
 40
1.0
 40
1.0
 40
1.0
 10
72.6933837587703
 20
97.09936267096954
 30
0.0
 10
72.78063417790379
 20
96.92729205011617
 30
0.0
 10
72.89090915329993
 20
96.75922297705272
 30
0.0
 10
73.12049312825778
 20
96.44865268436293
 30
0.0
 10
73.24194324631841
 20
96.30493984769764
 30
0.0
 10
73.3668315170688
 20
96.17394356962595
 30
0.0
  0
SPLINE
  5
ED
330
1F
100
AcDbEntity
  8
0
  6
Continuous
 62
     7
370
    25
100
AcDbSpline
210
0.0
220
0.0
230
1.0
 70
     8
 71
     3
 72
    14
 73
    10
 74
     0
 42
0.000000001
 43
0.00000001
 40
0.0
 40
0.0
 40
0.0
 40
0.0
 40
0.25
 40
0.25
 40
0.5
 40
0.5
 40
0.75
 40
0.75
 40
1.0
 40
1.0
 40
1.0
 40
1.0
 10
143.5268315170688
 20
174.1157800122939
 30
0.0
 10
143.5268315170688
 20
174.0094233185416
 30
0.0
 10
143.5064439609276
 20
173.9035828307815
 30
0.0
 10
143.427809615466
 20
173.707017917245
 30
0.0
 10
143.3690782558274
 20
173.6158471749579
 30
0.0
 10
143.2224693502248
 20
173.4639360859263
 30
0.0
 10
143.1330640301983
 20
173.4018672491067
 30
0.0
 10
142.939173297598
 20
173.318599201348
 30
0.0
 10
142.8326683077081
 20
173.2965045316184
 30
0.0
 10
142.7268315170688
 20
173.2965045316184
 30
0.0
  0
SPLINE
  5
EE
330
1F
100
AcDbEntity
  8
0
  6
Continuous
 62
     7
370
    25
100
AcDbSpline
210
0.0
220
0.0
230
1.0
 70
     8
 71
     3
 72
    12
 73
     8
 74
     0
 42
0.000000001
 43
0.00000001
 40
0.0
 40
0.0
 40
0.0
 40
0.0
 40
0.250000000000002
 40
0.250000000000002
 40
0.500000000000004
 40
0.500000000000004
 40
1.0
 40
1.0
 40
1.0
 40
1.0
 10
142.7268315170688
 20
162.0507601845184
 30
0.0
 10
142.8505324670488
 20
162.0507601845184
 30
0.0
 10
142.974629079319
 20
162.0927537962509
 30
0.0
 10
143.181284242406
 20
162.2305491228954
 30
0.0
 10
143.2663250091329
 20
162.3245227213602
 30
0.0
 10
143.4658035776065
 20
162.6393109275811
 30
0.0
 10
143.5268315170688
 20
162.8895499198088
 30
0.0
 10
143.5268315170688
 20
163.136463963943
 30
0.0
  0
LINE
  5
EF
330
1F
100
AcDbEntity
  8
0
  6
Continuous
 62
     7
370
    25
100
AcDbLine
 10
149.566831535
 20
177.4120239198
 30
0.0
 11
144.8788610308
 21
177.4120239198
 31
0.0
  0
LINE
  5
F0
330
1F
100
AcDbEntity
  8
0
  6
Continuous
 62
     7
370
    25
100
AcDbLine
 10
144.8788610308
 20
167.3731898546
 30
0.0
 11
149.566831535
 21
167.3731898546
 31
0.0
  0
LINE
  5
F1
330
1F
100
AcDbEntity
  8
0
  6
Continuous
 62
     7
370
    25
100
AcDbLine
 10
144.8788610308
 20
167.3731898546
 30
0.0
 11
144.8788610308
 21
177.4120239198
 31
0.0
  0
SPLINE
  5
F2
330
1F
100
AcDbEntity
  8
0
  6
Continuous
 62
     7
370
    25
100
AcDbSpline
210
0.0
220
0.0
230
1.0
 70
     8
 71
     3
 72
     8
 73
     4
 74
     0
 42
0.000000001
 43
0.00000001
 40
0.0
 40
0.0
 40
0.0
 40
0.0
 40
1.0
 40
1.0
 40
1.0
 40
1.0
 10
144.8788605379902
 20
177.4120236271095
 30
0.0
 10
144.4278335692769
 20
176.6147130569216
 30
0.0
 10
143.9771397527534
 20
175.8172147572645
 30
0.0
 10
143.5268315170688
 20
175.0194996321508
 30
0.0
  0
SPLINE
  5
F3
330
1F
100
AcDbEntity
  8
0
  6
Continuous
 62
     7
370
    25
100
AcDbSpline
210
0.0
220
0.0
230
1.0
 70
     8
 71
     3
 72
     8
 73
     4
 74
     0
 42
0.000000001
 43
0.00000001
 40
0.0
 40
0.0
 40
0.0
 40
0.0
 40
1.0
 40
1.0
 40
1.0
 40
1.0
 10
143.5268315170688
 20
164.3176762775838
 30
0.0
 10
143.9709815280943
 20
165.3390595085354
 30
0.0
 10
144.4220558383522
 20
166.3575440453037
 30
0.0
 10
144.8788605379902
 20
167.3731915323328
 30
0.0
  0
LINE
  5
F4
330
1F
100
AcDbEntity
  8
0
  6
Continuous
 62
     7
370
    25
100
AcDbLine
 10
143.5268321095
 20
164.3176769495
 30
0.0
 11
143.5268321095
 21
175.0195009291
 31
0.0
  0
SPLINE
  5
F5
330
1F
100
AcDbEntity
  8
0
  6
Continuous
 62
     7
370
    25
100
AcDbSpline
210
0.0
220
0.0
230
1.0
 70
     8
 71
     3
 72
    10
 73
     6
 74
     0
 42
0.000000001
 43
0.00000001
 40
0.0
 40
0.0
 40
0.0
 40
0.0
 40
0.5
 40
0.5
 40
1.0
 40
1.0
 40
1.0
 40
1.0
 10
140.5068315170688
 20
173.2965045316184
 30
0.0
 10
140.2942952032125
 20
173.2965045316184
 30
0.0
 10
140.0843590315584
 20
173.3879171182486
 30
0.0
 10
139.7906518905472
 20
173.6926619841527
 30
0.0
 10
139.7068315170688
 20
173.9048169540614
 30
0.0
 10
139.7068315170688
 20
174.1157800122939
 30
0.0
  0
SPLINE
  5
F6
330
1F
100
AcDbEntity
  8
0
  6
Continuous
 62
     7
370
    25
100
AcDbSpline
210
0.0
220
0.0
230
1.0
 70
     8
 71
     3
 72
    14
 73
    10
 74
     0
 42
0.000000001
 43
0.00000001
 40
0.0
 40
0.0
 40
0.0
 40
0.0
 40
0.25
 40
0.25
 40
0.5
 40
0.5
 40
0.75
 40
0.75
 40
1.0
 40
1.0
 40
1.0
 40
1.0
 10
139.7068315170688
 20
163.136463963943
 30
0.0
 10
139.7068315170688
 20
163.0125970871538
 30
0.0
 10
139.7226906446964
 20
162.8883374103163
 30
0.0
 10
139.7860522902163
 20
162.6507290479104
 30
0.0
 10
139.8346419982657
 20
162.5339486631579
 30
0.0
 10
139.9669276030405
 20
162.3251461345489
 30
0.0
 10
140.0522523943011
 20
162.2306354309563
 30
0.0
 10
140.2591436426073
 20
162.092678630154
 30
0.0
 10
140.3831115884973
 20
162.0507601845184
 30
0.0
 10
140.5068315170688
 20
162.0507601845184
 30
0.0
  0
SPLINE
  5
F7
330
1F
100
AcDbEntity
  8
0
  6
Continuous
 62
     7
370
    25
100
AcDbSpline
210
0.0
220
0.0
230
1.0
 70
     8
 71
     3
 72
    12
 73
     8
 74
     0
 42
0.000000001
 43
0.00000001
 40
0.0
 40
0.0
 40
0.0
 40
0.0
 40
0.4999999999999953
 40
0.4999999999999953
 40
0.7499999999999977
 40
0.7499999999999977
 40
1.0
 40
1.0
 40
1.0
 40
1.0
 10
150.5668315170688
 20
176.3909685922918
 30
0.0
 10
150.5668315170688
 20
176.6562380250582
 30
0.0
 10
150.4622247735823
 20
176.9187531307106
 30
0.0
 10
150.185556421837
 20
177.2042907367479
 30
0.0
 10
150.0751911624851
 20
177.2806123536093
 30
0.0
 10
149.8311191138693
 20
177.3849545184494
 30
0.0
 10
149.6993666525376
 20
177.4120236271095
 30
0.0
 10
149.5668315170688
 20
177.4120236271095
 30
0.0
  0
SPLINE
  5
F8
330
1F
100
AcDbEntity
  8
0
  6
Continuous
 62
     7
370
    25
100
AcDbSpline
210
0.0
220
0.0
230
1.0
 70
     8
 71
     3
 72
    16
 73
    12
 74
     0
 42
0.000000001
 43
0.00000001
 40
0.0
 40
0.0
 40
0.0
 40
0.0
 40
0.1249999999999978
 40
0.1249999999999978
 40
0.2499999999999955
 40
0.2499999999999955
 40
0.499999999999997
 40
0.499999999999997
 40
0.7499999999999984
 40
0.7499999999999984
 40
1.0
 40
1.0
 40
1.0
 40
1.0
 10
149.5668315170688
 20
167.3731915323329
 30
0.0
 10
149.64246922348
 20
167.3731915323329
 30
0.0
 10
149.7187848878982
 20
167.3618465321979
 30
0.0
 10
149.8631956257902
 20
167.3191939815594
 30
0.0
 10
149.9316420748986
 20
167.2882596568766
 30
0.0
 10
150.1265733275117
 20
167.169003285109
 30
0.0
 10
150.2344145012926
 20
167.0588512714884
 30
0.0
 10
150.4031272495047
 20
166.8107151858303
 30
0.0
 10
150.4654916622282
 20
166.6703728618266
 30
0.0
 10
150.5467955867366
 20
166.382101170338
 30
0.0
 10
150.5668315170688
 20
166.2312961973582
 30
0.0
 10
150.5668315170688
 20
166.0809263060129
 30
0.0
  0
LINE
  5
F9
330
1F
100
AcDbEntity
  8
0
  6
Continuous
 62
     7
370
    25
100
AcDbLine
 10
150.5668316989
 20
166.0809276283
 30
0.0
 11
150.5668316989
 21
176.3909702778
 31
0.0
  0
SPLINE
  5
FA
330
1F
100
AcDbEntity
  8
0
  6
Continuous
 62
     7
370
    25
100
AcDbSpline
210
0.0
220
0.0
230
1.0
 70
     8
 71
     3
 72
     8
 73
     4
 74
     0
 42
0.000000001
 43
0.00000001
 40
0.0
 40
0.0
 40
0.0
 40
0.0
 40
1.0
 40
1.0
 40
1.0
 40
1.0
 10
139.7068315170688
 20
175.0194996321508
 30
0.0
 10
139.2565232813842
 20
175.8172147572645
 30
0.0
 10
138.8058294648606
 20
176.6147130569216
 30
0.0
 10
138.3548024961474
 20
177.4120236271095
 30
0.0
  0
LINE
  5
FB
330
1F
100
AcDbEntity
  8
0
  6
Continuous
 62
     7
370
    25
100
AcDbLine
 10
139.7068318932
 20
164.3176769495
 30
0.0
 11
139.7068318932
 21
175.0195009291
 31
0.0
  0
SPLINE
  5
FC
330
1F
100
AcDbEntity
  8
0
  6
Continuous
 62
     7
370
    25
100
AcDbSpline
210
0.0
220
0.0
230
1.0
 70
     8
 71
     3
 72
     8
 73
     4
 74
     0
 42
0.000000001
 43
0.00000001
 40
0.0
 40
0.0
 40
0.0
 40
0.0
 40
1.0
 40
1.0
 40
1.0
 40
1.0
 10
138.3548024961474
 20
167.3731915323329
 30
0.0
 10
138.8117288499469
 20
166.3572735626585
 30
0.0
 10
139.26293449175
 20
165.3384777335674
 30
0.0
 10
139.7068315170688
 20
164.3176762775838
 30
0.0
  0
LINE
  5
FD
330
1F
100
AcDbEntity
  8
0
  6
Continuous
 62
     7
370
    25
100
AcDbLine
 10
139.7068318932
 20
164.3176769495
 30
0.0
 11
139.7068318932
 21
163.136465627
 31
0.0
  0
LINE
  5
FE
330
1F
100
AcDbEntity
  8
0
  6
Continuous
 62
     7
370
    25
100
AcDbLine
 10
140.5068323968
 20
162.0507595718
 30
0.0
 11
142.7268316059
 21
162.0507595718
 31
0.0
  0
LINE
  5
FF
330
1F
100
AcDbEntity
  8
0
  6
Continuous
 62
     7
370
    25
100
AcDbLine
 10
143.5268321095
 20
163.136465627
 30
0.0
 11
143.5268321095
 21
164.3176769495
 31
0.0
  0
LINE
  5
100
330
1F
100
AcDbEntity
  8
0
  6
Continuous
 62
     7
370
    25
100
AcDbLine
 10
150.5668316989
 20
166.0809276283
 30
0.0
 11
150.5668316989
 21
159.7722304642
 31
0.0
  0
LINE
  5
101
330
1F
100
AcDbEntity
  8
0
  6
Continuous
 62
     7
370
    25
100
AcDbLine
 10
142.7268316059
 20
173.2965057373
 30
0.0
 11
140.5068323968
 21
173.2965057373
 31
0.0
  0
SPLINE
  5
102
330
1F
100
AcDbEntity
  8
0
  6
Continuous
 62
     7
370
    25
100
AcDbSpline
210
0.0
220
0.0
230
1.0
 70
    11
 71
     3
 72
    31
 73
    27
 74
     0
 42
0.000000001
 43
0.00000001
 40
0.0
 40
0.0
 40
0.0
 40
0.0
 40
0.0347003616377247
 40
0.0763700879242071
 40
0.1250102849548178
 40
0.173618675534006
 40
0.2153305103256449
 40
0.2501472674593218
 40
0.3048128259653001
 40
0.3747960779142492
 40
0.4120242753758781
 40
0.4452954180922896
 40
0.4746116507825522
 40
0.4999790827475923
 40
0.5546721442203314
 40
0.6248607333976445
 40
0.6619857372074239
 40
0.6952226141794434
 40
0.7245737666720182
 40
0.7500454930138868
 40
0.8047024067731569
 40
0.8747081814519581
 40
0.9119434072371089
 40
0.9452350051815261
 40
0.9745851597297825
 40
1.0
 40
1.0
 40
1.0
 40
1.0
 10
163.5668315170688
 20
151.5538762157096
 30
0.0
 10
163.7482611187134
 20
151.5538759388724
 30
0.0
 10
164.147876134217
 20
151.5906622826654
 30
0.0
 10
164.7677509529457
 20
151.770842178494
 30
0.0
 10
165.3609918729979
 20
152.1124096919194
 30
0.0
 10
165.7963066867634
 20
152.56593150101
 30
0.0
 10
166.02262258005
 20
153.0255642966895
 30
0.0
 10
166.0982940393273
 20
153.5204894233409
 30
0.0
 10
165.9546767583233
 20
154.0942038127858
 30
0.0
 10
165.4862979580713
 20
154.5774691172758
 30
0.0
 10
164.9074247146921
 20
154.8651065885001
 30
0.0
 10
164.4349240811061
 20
155.0067267442284
 30
0.0
 10
163.9878750558442
 20
155.0760843344256
 30
0.0
 10
163.416637605341
 20
155.1026835487497
 30
0.0
 10
162.6276771561489
 20
155.0243980710694
 30
0.0
 10
161.8889821645842
 20
154.7315216284371
 30
0.0
 10
161.4321899885831
 20
154.3572775806684
 30
0.0
 10
161.2050099483555
 20
154.0426479333747
 30
0.0
 10
161.0898681469779
 20
153.7380834296387
 30
0.0
 10
161.0438619988444
 20
153.3398025868171
 30
0.0
 10
161.1792654207059
 20
152.765441518731
 30
0.0
 10
161.6479798247649
 20
152.2048771137358
 30
0.0
 10
162.2272513585241
 20
151.8464134287643
 30
0.0
 10
162.7001856426756
 20
151.6664066287027
 30
0.0
 10
163.1477804666362
 20
151.5731977380063
 30
0.0
 10
163.4339509323007
 20
151.5538764184676
 30
0.0
 10
163.5668315170688
 20
151.5538762157096
 30
0.0
  0
SPLINE
  5
103
330
1F
100
AcDbEntity
  8
0
  6
Continuous
 62
     7
370
    25
100
AcDbSpline
210
0.0
220
0.0
230
1.0
 70
    11
 71
     3
 72
    31
 73
    27
 74
     0
 42
0.000000001
 43
0.00000001
 40
0.0
 40
0.0
 40
0.0
 40
0.0
 40
0.0347003616375516
 40
0.0763700879240298
 40
0.1250102849548048
 40
0.173618675533373
 40
0.2153305103250084
 40
0.2501472674593001
 40
0.3048128259643369
 40
0.3747960779142084
 40
0.4120242753765024
 40
0.4452954180931342
 40
0.4746116507831711
 40
0.4999790827475387
 40
0.5546721442269684
 40
0.6248607333976525
 40
0.6619857372023268
 40
0.6952226141726394
 40
0.7245737666669188
 40
0.7500454930139131
 40
0.8047024067725026
 40
0.8747081814519679
 40
0.9119434072369261
 40
0.9452350051812776
 40
0.9745851597295945
 40
1.0
 40
1.0
 40
1.0
 40
1.0
 10
163.5668315170688
 20
101.7550474212492
 30
0.0
 10
163.7482611187124
 20
101.7550667502321
 30
0.0
 10
164.1478761342152
 20
101.7800004310431
 30
0.0
 10
164.7677509529441
 20
101.918378203488
 30
0.0
 10
165.3609918729948
 20
102.1911030295735
 30
0.0
 10
165.7963066867598
 20
102.5758419497647
 30
0.0
 10
166.0226225800489
 20
102.9935716252969
 30
0.0
 10
166.0982940393273
 20
103.4685397264769
 30
0.0
 10
165.9546767583253
 20
104.0783167382506
 30
0.0
 10
165.4862979580732
 20
104.6390101253869
 30
0.0
 10
164.9074247146854
 20
104.9975455574992
 30
0.0
 10
164.4349240810951
 20
105.1776338144853
 30
0.0
 10
163.987875055836
 20
105.2710042843631
 30
0.0
 10
163.4166376053027
 20
105.3098735062173
 30
0.0
 10
162.6276771561116
 20
105.197425256055
 30
0.0
 10
161.8889821645861
 20
104.8269541353763
 30
0.0
 10
161.4321899886203
 20
104.381828801232
 30
0.0
 10
161.2050099483866
 20
104.0288859907133
 30
0.0
 10
161.0898681469855
 20
103.7004361228965
 30
0.0
 10
161.0438619988401
 20
103.2900360086431
 30
0.0
 10
161.1792654207044
 20
102.7496695300664
 30
0.0
 10
161.6479798247616
 20
102.2665363437806
 30
0.0
 10
162.2272513585222
 20
101.9789137059719
 30
0.0
 10
162.7001856426725
 20
101.8373663110235
 30
0.0
 10
163.1477804666339
 20
101.7680758398087
 30
0.0
 10
163.4339509322997
 20
101.7550332645375
 30
0.0
 10
163.5668315170688
 20
101.7550474212492
 30
0.0
  0
ARC
  5
104
330
1F
100
AcDbEntity
  8
0
  6
Continuous
 62
     7
370
    25
100
AcDbCircle
 10
130.6172788201
 20
161.0952631569
 30
0.0
 40
11.34487413724887
100
AcDbArc
 50
77.5884501387
 51
102.5534337507
  0
LINE
  5
105
330
1F
100
AcDbEntity
  8
0
  6
Continuous
 62
     7
370
    25
100
AcDbLine
 10
73.3668305932
 20
96.1722304702
 30
0.0
 11
73.3668305932
 21
96.1739441037
 31
0.0
  0
LINE
  5
106
330
1F
100
AcDbEntity
  8
0
  6
Continuous
 62
     7
370
    25
100
AcDbLine
 10
73.3668305932
 20
160.6722270727
 30
0.0
 11
73.3668305932
 21
160.6705134392
 31
0.0
  0
LINE
  5
107
330
1F
100
AcDbEntity
  8
0
  6
Continuous
 62
     7
370
    25
100
AcDbLine
 10
205.6168303846
 20
113.4222291067
 30
0.0
 11
205.6168303846
 21
143.4222284362
 31
0.0
  0
LINE
  5
108
330
1F
100
AcDbEntity
  8
0
  6
Continuous
 62
     7
370
    25
100
AcDbLine
 10
184.1168315171
 20
112.4222280115
 30
0.0
 11
184.1168315171
 21
144.4222295314
 31
0.0
  0
LINE
  5
109
330
1F
100
AcDbEntity
  8
0
  6
Continuous
 62
     7
370
    25
100
AcDbLine
 10
188.616833186
 20
95.1212776482
 30
0.0
 11
188.616833186
 21
107.9222282052
 31
0.0
  0
LINE
  5
10A
330
1F
100
AcDbEntity
  8
0
  6
Continuous
 62
     7
370
    25
100
AcDbLine
 10
188.616833186
 20
94.922227937
 30
0.0
 11
188.616833186
 21
95.1212776482
 31
0.0
  0
LINE
  5
10B
330
1F
100
AcDbEntity
  8
0
  6
Continuous
 62
     7
370
    25
100
AcDbLine
 10
188.616833186
 20
149.3497995317
 30
0.0
 11
188.616833186
 21
161.9222296059
 31
0.0
  0
LINE
  5
10C
330
1F
100
AcDbEntity
  8
0
  6
Continuous
 62
     7
370
    25
100
AcDbLine
 10
188.616833186
 20
148.9222293377
 30
0.0
 11
188.616833186
 21
149.3497995317
 31
0.0
  0
LINE
  5
10D
330
1F
100
AcDbEntity
  8
0
  6
Continuous
 62
     7
370
    25
100
AcDbLine
 10
210.6168330668
 20
122.4222287193
 30
0.0
 11
210.6168330668
 21
116.4222286671
 31
0.0
  0
LINE
  5
10E
330
1F
100
AcDbEntity
  8
0
  6
Continuous
 62
     7
370
    25
100
AcDbLine
 10
210.6168330668
 20
140.4222288758
 30
0.0
 11
210.6168330668
 21
122.4222287193
 31
0.0
  0
LINE
  5
10F
330
1F
100
AcDbEntity
  8
0
  6
Continuous
 62
     7
370
    25
100
AcDbLine
 10
226.6168282388
 20
122.8222289711
 30
0.0
 11
226.6168282388
 21
117.2222291708
 31
0.0
  0
LINE
  5
110
330
1F
100
AcDbEntity
  8
0
  6
Continuous
 62
     7
370
    25
100
AcDbLine
 10
226.6168282388
 20
139.6222283721
 30
0.0
 11
226.6168282388
 21
122.8222289711
 31
0.0
  0
LINE
  5
111
330
1F
100
AcDbEntity
  8
0
  6
HIDDEN
 62
     7
370
    18
100
AcDbLine
 10
210.6168330668
 20
116.4222286671
 30
0.0
 11
210.6168330668
 21
140.4222288758
 31
0.0
  0
LINE
  5
112
330
1F
100
AcDbEntity
  8
0
  6
HIDDEN
 62
     7
370
    18
100
AcDbLine
 10
226.6168282388
 20
117.2222291708
 30
0.0
 11
226.6168282388
 21
139.6222283721
 31
0.0
  0
LINE
  5
113
330
1F
100
AcDbEntity
  8
0
  6
HIDDEN
 62
     7
370
    18
100
AcDbLine
 10
210.6168330668
 20
119.8340143666
 30
0.0
 11
210.6168330668
 21
137.0104431763
 31
0.0
  0
LINE
  5
114
330
1F
100
AcDbEntity
  8
0
  6
HIDDEN
 62
     7
370
    18
100
AcDbLine
 10
176.7183304785
 20
136.4222291514
 30
0.0
 11
176.7183304785
 21
120.4222283915
 31
0.0
  0
LINE
  5
115
330
1F
100
AcDbEntity
  8
0
  6
HIDDEN
 62
     7
370
    18
100
AcDbLine
 10
175.6168329178
 20
135.3207287967
 30
0.0
 11
175.6168329178
 21
121.5237287462
 31
0.0
  0
LINE
  5
116
330
1F
100
AcDbEntity
  8
0
  6
HIDDEN
 62
     7
370
    18
100
AcDbLine
 10
226.6168282388
 20
128.4222287714
 30
0.0
 11
226.6168282388
 21
135.4932288296
 31
0.0
  0
LINE
  5
117
330
1F
100
AcDbEntity
  8
0
  6
HIDDEN
 62
     7
370
    18
100
AcDbLine
 10
218.6168343781
 20
131.9577288005
 30
0.0
 11
218.6168343781
 21
124.8867287423
 31
0.0
  0
LINE
  5
118
330
1F
100
AcDbEntity
  8
0
  6
HIDDEN
 62
     7
370
    18
100
AcDbLine
 10
218.6168343781
 20
135.4932288296
 30
0.0
 11
218.6168343781
 21
131.9577288005
 31
0.0
  0
LINE
  5
119
330
1F
100
AcDbEntity
  8
0
  6
HIDDEN
 62
     7
370
    18
100
AcDbLine
 10
218.6168343781
 20
131.9577288005
 30
0.0
 11
218.6168343781
 21
135.4932288296
 31
0.0
  0
LINE
  5
11A
330
1F
100
AcDbEntity
  8
0
  6
HIDDEN
 62
     7
370
    18
100
AcDbLine
 10
218.6168343781
 20
124.8867287423
 30
0.0
 11
218.6168343781
 21
131.9577288005
 31
0.0
  0
LINE
  5
11B
330
1F
100
AcDbEntity
  8
0
  6
HIDDEN
 62
     7
370
    18
100
AcDbLine
 10
218.6168343781
 20
121.3512287132
 30
0.0
 11
218.6168343781
 21
124.8867287423
 31
0.0
  0
LINE
  5
11C
330
1F
100
AcDbEntity
  8
0
  6
HIDDEN
 62
     7
370
    18
100
AcDbLine
 10
218.6168343781
 20
124.8867287423
 30
0.0
 11
218.6168343781
 21
121.3512287132
 31
0.0
  0
LINE
  5
11D
330
1F
100
AcDbEntity
  8
0
  6
HIDDEN
 62
     7
370
    18
100
AcDbLine
 10
218.6168343781
 20
128.4222287714
 30
0.0
 11
218.6168343781
 21
131.9577288005
 31
0.0
  0
LINE
  5
11E
330
1F
100
AcDbEntity
  8
0
  6
HIDDEN
 62
     7
370
    18
100
AcDbLine
 10
218.6168343781
 20
128.4222287714
 30
0.0
 11
218.6168343781
 21
124.8867287423
 31
0.0
  0
LINE
  5
11F
330
1F
100
AcDbEntity
  8
0
  6
HIDDEN
 62
     7
370
    18
100
AcDbLine
 10
218.6168343781
 20
128.4222287714
 30
0.0
 11
226.6168282388
 21
128.4222287714
 31
0.0
  0
LINE
  5
120
330
1F
100
AcDbEntity
  8
0
  6
HIDDEN
 62
     7
370
    18
100
AcDbLine
 10
226.6168282388
 20
128.4222287714
 30
0.0
 11
226.6168282388
 21
121.3512287132
 31
0.0
  0
LINE
  5
121
330
1F
100
AcDbEntity
  8
0
  6
HIDDEN
 62
     7
370
    18
100
AcDbLine
 10
218.6168343781
 20
131.9577288005
 30
0.0
 11
218.6168343781
 21
135.4932288296
 31
0.0
  0
LINE
  5
122
330
1F
100
AcDbEntity
  8
0
  6
HIDDEN
 62
     7
370
    18
100
AcDbLine
 10
218.6168343781
 20
124.8867287423
 30
0.0
 11
218.6168343781
 21
121.3512287132
 31
0.0
  0
LINE
  5
123
330
1F
100
AcDbEntity
  8
0
  6
HIDDEN
 62
     7
370
    18
100
AcDbLine
 10
218.6168343781
 20
135.4932288296
 30
0.0
 11
226.6168282388
 21
135.4932288296
 31
0.0
  0
LINE
  5
124
330
1F
100
AcDbEntity
  8
0
  6
HIDDEN
 62
     7
370
    18
100
AcDbLine
 10
218.6168343781
 20
121.3512287132
 30
0.0
 11
226.6168282388
 21
121.3512287132
 31
0.0
  0
LINE
  5
125
330
1F
100
AcDbEntity
  8
0
  6
HIDDEN
 62
     7
370
    18
100
AcDbLine
 10
205.6168303846
 20
136.4222291514
 30
0.0
 11
176.7183304785
 21
136.4222291514
 31
0.0
  0
LINE
  5
126
330
1F
100
AcDbEntity
  8
0
  6
HIDDEN
 62
     7
370
    18
100
AcDbLine
 10
176.7183304785
 20
120.4222283915
 30
0.0
 11
205.6168303846
 21
120.4222283915
 31
0.0
  0
LINE
  5
127
330
1F
100
AcDbEntity
  8
0
  6
HIDDEN
 62
     7
370
    18
100
AcDbLine
 10
176.7183304785
 20
136.4222291514
 30
0.0
 11
175.6168329178
 21
135.3207287967
 31
0.0
  0
LINE
  5
128
330
1F
100
AcDbEntity
  8
0
  6
HIDDEN
 62
     7
370
    18
100
AcDbLine
 10
175.6168329178
 20
121.5237287462
 30
0.0
 11
176.7183304785
 21
120.4222283915
 31
0.0
  0
LINE
  5
129
330
1F
100
AcDbEntity
  8
0
  6
HIDDEN
 62
     7
370
    18
100
AcDbLine
 10
218.6168343781
 20
135.4932288296
 30
0.0
 11
214.5343855976
 21
128.4222287714
 31
0.0
  0
LINE
  5
12A
330
1F
100
AcDbEntity
  8
0
  6
HIDDEN
 62
     7
370
    18
100
AcDbLine
 10
214.5343855976
 20
128.4222287714
 30
0.0
 11
218.6168343781
 21
121.3512287132
 31
0.0
  0
DIMENSION
  5
12B
330
1F
100
AcDbEntity
  8
VERMASSUNG
100
AcDbDimension
  2
_D
 10
236.6168315171
 20
121.3512287714
 30
0.0
 11
236.6168315171
 21
128.4222287714
 31
0.0
 70
   160
  1
SW<>
 71
     2
 42
-1.0
  3
SLDDIMSTYLE0
100
AcDbAlignedDimension
 13
226.6168315171
 23
135.4932287714
 33
0.0
 14
226.6168315171
 24
121.3512287714
 34
0.0
 50
90.0
100
AcDbRotatedDimension
  0
DIMENSION
  5
137
330
1F
100
AcDbEntity
  8
VERMASSUNG
100
AcDbDimension
  2
_D_1
 10
246.4431347061
 20
112.4222287714
 30
0.0
 11
246.4431347061
 21
128.4222287714
 31
0.0
 70
   160
  1
%%c<>
 71
     2
 42
-1.0
  3
SLDDIMSTYLE1
100
AcDbAlignedDimension
 13
204.6168315171
 23
144.4222287714
 33
0.0
 14
204.6168315171
 24
112.4222287714
 34
0.0
 50
90.0
100
AcDbRotatedDimension
  0
DIMENSION
  5
143
330
1F
100
AcDbEntity
  8
VERMASSUNG
100
AcDbDimension
  2
_D_2
 10
254.6168315171
 20
92.4222287714
 30
0.0
 11
254.6168315171
 21
128.4222287714
 31
0.0
 70
   160
  1
%%c<>
 71
     2
 42
-1.0
  3
SLDDIMSTYLE1
100
AcDbAlignedDimension
 13
180.6168315171
 23
164.4222287714
 33
0.0
 14
180.6168315171
 24
92.4222287714
 34
0.0
 50
90.0
100
AcDbRotatedDimension
  0
DIMENSION
  5
14E
330
1F
100
AcDbEntity
  8
VERMASSUNG
100
AcDbDimension
  2
_D_3
 10
64.3125780985
 20
78.4222287714
 30
0.0
 11
64.3125780985
 21
128.4222287714
 31
0.0
 70
   160
  1
HSK A%%c<>
 71
     2
 42
-1.0
  3
SLDDIMSTYLE1
100
AcDbAlignedDimension
 13
122.1168315171
 23
178.4222287714
 33
0.0
 14
122.1168315171
 24
78.4222287714
 34
0.0
 50
90.0
100
AcDbRotatedDimension
  0
DIMENSION
  5
15A
330
1F
100
AcDbEntity
  8
VERMASSUNG
100
AcDbDimension
  2
_D_4
 10
181.6168315171
 20
189.8001045335
 30
0.0
 11
151.6168315171
 21
189.8001045335
 31
0.0
 70
   160
  1
<>
 71
     2
 42
-1.0
  3
SLDDIMSTYLE1
100
AcDbAlignedDimension
 13
121.6168315171
 23
177.9222287714
 33
0.0
 14
181.6168315171
 24
163.4222287714
 34
0.0
100
AcDbRotatedDimension
  0
DIMENSION
  5
164
330
1F
100
AcDbEntity
  8
VERMASSUNG
100
AcDbDimension
  2
_D_5
 10
181.6168315171
 20
183.8001045335
 30
0.0
 11
166.0918315171
 21
183.8001045335
 31
0.0
 70
   160
  1
<>
 71
     2
 42
-1.0
  3
SLDDIMSTYLE1
100
AcDbAlignedDimension
 13
150.5668315171
 23
176.3909685923
 33
0.0
 14
181.6168315171
 24
161.4222287714
 34
0.0
100
AcDbRotatedDimension
  0
DIMENSION
  5
16E
330
1F
100
AcDbEntity
  8
VERMASSUNG
100
AcDbDimension
  2
_D_6
 10
205.6168315171
 20
183.8001045335
 30
0.0
 11
193.6168315171
 21
183.8001045335
 31
0.0
 70
   160
  1
<>
 71
     2
 42
-1.0
  3
SLDDIMSTYLE1
100
AcDbAlignedDimension
 13
181.6168315171
 23
163.4222287714
 33
0.0
 14
205.6168315171
 24
143.4222287714
 34
0.0
100
AcDbRotatedDimension
  0
DIMENSION
  5
178
330
1F
100
AcDbEntity
  8
VERMASSUNG
100
AcDbDimension
  2
_D_7
 10
71.7168315171
 20
195.8001045335
 30
0.0
 11
138.6668315171
 21
195.8001045335
 31
0.0
 70
   160
  1
(<>)
 71
     2
 42
-1.0
  3
SLDDIMSTYLE1
100
AcDbAlignedDimension
 13
205.6168315171
 23
143.4222287714
 33
0.0
 14
71.7168315171
 24
158.924898514
 34
0.0
100
AcDbRotatedDimension
  0
SPLINE
  5
184
330
1F
100
AcDbEntity
  8
0
  6
Continuous
 62
     7
370
    25
100
AcDbSpline
210
0.0
220
0.0
230
1.0
 70
     8
 71
     3
 72
    18
 73
    14
 74
     0
 42
0.000000001
 43
0.00000001
 40
0.0
 40
0.0
 40
0.0
 40
0.0
 40
0.00791878203073
 40
0.1106014108063282
 40
0.2139272735253561
 40
0.3178707575656843
 40
0.4222981600395939
 40
0.5270421543694125
 40
0.6319547516219728
 40
0.7369277477244659
 40
0.841880552505169
 40
0.9467858133089803
 40
1.0
 40
1.0
 40
1.0
 40
1.0
 10
235.0785766398022
 20
19.44792226295719
 30
0.0
 10
235.1037704631715
 20
19.44313123190624
 30
0.0
 10
235.4556519011808
 20
19.37621503300154
 30
0.0
 10
236.1818685510691
 20
19.37241889408196
 30
0.0
 10
237.2518372755842
 20
19.44693874560138
 30
0.0
 10
238.3631833053906
 20
19.67015548482419
 30
0.0
 10
239.4998770494004
 20
20.02226981109602
 30
0.0
 10
240.6540837309462
 20
20.50540668756634
 30
0.0
 10
241.8151855284124
 20
21.11444054264359
 30
0.0
 10
242.9740441136605
 20
21.84258720477387
 30
0.0
 10
244.1188013775127
 20
22.68952192397611
 30
0.0
 10
245.0632656061447
 20
23.47124442597221
 30
0.0
 10
245.6102695139557
 20
24.00459329340471
 30
0.0
 10
245.7943605194086
 20
24.18408877389534
 30
0.0
  0
SPLINE
  5
185
330
1F
100
AcDbEntity
  8
0
  6
Continuous
 62
     7
370
    25
100
AcDbSpline
210
0.0
220
0.0
230
1.0
 70
     8
 71
     3
 72
    14
 73
    10
 74
     0
 42
0.000000001
 43
0.00000001
 40
0.0
 40
0.0
 40
0.0
 40
0.0
 40
0.0670332693307043
 40
0.2452112941913186
 40
0.4233738831486902
 40
0.6013394252648125
 40
0.7788539412761005
 40
0.9556039780239286
 40
0.9999999999999999
 40
0.9999999999999999
 40
0.9999999999999999
 40
0.9999999999999999
 10
254.4245681865482
 20
43.50218192969123
 30
0.0
 10
254.4227451502355
 20
43.66956952581143
 30
0.0
 10
254.4160763856346
 20
44.28188232937936
 30
0.0
 10
254.2944193277245
 20
45.27415786229705
 30
0.0
 10
254.0599615454207
 20
46.46570094876951
 30
0.0
 10
253.7158866321156
 20
47.57041929495613
 30
0.0
 10
253.2637314692357
 20
48.57167374381752
 30
0.0
 10
252.8704320111033
 20
49.27092807180125
 30
0.0
 10
252.5995706882945
 20
49.59762167850921
 30
0.0
 10
252.5451941133318
 20
49.66320682448261
 30
0.0
  0
LINE
  5
186
330
1F
100
AcDbEntity
  8
0
  6
Continuous
 62
     7
370
    25
100
AcDbLine
 10
227.7792699719
 20
23.0372858296
 30
0.0
 11
232.5710294728
 21
20.2710619504
 31
0.0
  0
LINE
  5
187
330
1F
100
AcDbEntity
  8
0
  6
Continuous
 62
     7
370
    25
100
AcDbLine
 10
223.714517266
 20
25.3838176193
 30
0.0
 11
225.3067883242
 21
24.4646191031
 31
0.0
  0
LINE
  5
188
330
1F
100
AcDbEntity
  8
0
  6
Continuous
 62
     7
370
    25
100
AcDbLine
 10
243.3053260263
 20
55.6423787497
 30
0.0
 11
241.7130549681
 21
56.5615772659
 31
0.0
  0
LINE
  5
189
330
1F
100
AcDbEntity
  8
0
  6
Continuous
 62
     7
370
    25
100
AcDbLine
 10
250.5695671748
 20
51.448821597
 30
0.0
 11
245.7778076739
 21
54.2150454762
 31
0.0
  0
LINE
  5
18A
330
1F
100
AcDbEntity
  8
0
  6
Continuous
 62
     7
370
    25
100
AcDbLine
 10
208.3884410724
 20
26.1486887962
 30
0.0
 11
214.1294309283
 21
22.8344858972
 31
0.0
  0
LINE
  5
18B
330
1F
100
AcDbEntity
  8
0
  6
Continuous
 62
     7
370
    25
100
AcDbLine
 10
235.5728024392
 20
68.1889538841
 30
0.0
 11
233.3864086397
 21
69.4511321584
 31
0.0
  0
SPLINE
  5
18C
330
1F
100
AcDbEntity
  8
0
  6
Continuous
 62
     7
370
    25
100
AcDbSpline
210
0.0
220
0.0
230
1.0
 70
     8
 71
     3
 72
    13
 73
     9
 74
     0
 42
0.000000001
 43
0.00000001
 40
0.0
 40
0.0
 40
0.0
 40
0.0
 40
0.0801950260739018
 40
0.2742353779821703
 40
0.4694351426587282
 40
0.6678752230315023
 40
0.8699058695035934
 40
0.9999999999999999
 40
0.9999999999999999
 40
0.9999999999999999
 40
0.9999999999999999
 10
246.2448372315496
 20
23.95262731822775
 30
0.0
 10
246.3246852673974
 20
23.90867092116886
 30
0.0
 10
246.5977340755823
 20
23.75835736991359
 30
0.0
 10
247.1325021243849
 20
23.63917055559954
 30
0.0
 10
247.828524818326
 20
23.59352043340141
 30
0.0
 10
248.5665826100389
 20
23.69381477709841
 30
0.0
 10
249.2378305741657
 20
23.88001024945169
 30
0.0
 10
249.660899352242
 20
24.08525906473404
 30
0.0
 10
249.8266164821904
 20
24.16565555428021
 30
0.0
  0
SPLINE
  5
18D
330
1F
100
AcDbEntity
  8
0
  6
Continuous
 62
     7
370
    25
100
AcDbSpline
210
0.0
220
0.0
230
1.0
 70
     8
 71
     3
 72
    13
 73
     9
 74
     0
 42
0.000000001
 43
0.00000001
 40
0.0
 40
0.0
 40
0.0
 40
0.0
 40
0.1541243444036318
 40
0.3405031743489437
 40
0.5256829201387276
 40
0.7081519747761235
 40
0.8868690298379218
 40
1.0
 40
1.0
 40
1.0
 40
1.0
 10
255.8310691074514
 20
34.55538997344966
 30
0.0
 10
255.808735996056
 20
34.79482862416717
 30
0.0
 10
255.7593959949509
 20
35.32381462535091
 30
0.0
 10
255.549130173262
 20
36.05412720175578
 30
0.0
 10
255.2291085028265
 20
36.74432042719439
 30
0.0
 10
254.8002904130461
 20
37.31662608582813
 30
0.0
 10
254.3520716980877
 20
37.73069182273955
 30
0.0
 10
254.0209223500857
 20
37.89476644409481
 30
0.0
 10
253.8925567496015
 20
37.95836776906062
 30
0.0
  0
LINE
  5
18E
330
1F
100
AcDbEntity
  8
0
  6
Continuous
 62
     7
370
    25
100
AcDbLine
 10
238.8080600561
 20
28.2171938642
 30
0.0
 11
246.0559034464
 21
24.0331029359
 31
0.0
  0
LINE
  5
18F
330
1F
100
AcDbEntity
  8
0
  6
Continuous
 62
     7
370
    25
100
AcDbLine
 10
254.055253463
 20
37.8898847053
 30
0.0
 11
246.8074100728
 21
42.0739756336
 31
0.0
  0
SPLINE
  5
190
330
1F
100
AcDbEntity
  8
0
  6
Continuous
 62
     7
370
    25
100
AcDbSpline
210
0.0
220
0.0
230
1.0
 70
     8
 71
     3
 72
    12
 73
     8
 74
     0
 42
0.000000001
 43
0.00000001
 40
0.0
 40
0.0
 40
0.0
 40
0.0
 40
0.2002424022585586
 40
0.4266529635546297
 40
0.6435228811139647
 40
0.8743307316079637
 40
1.0
 40
1.0
 40
1.0
 40
1.0
 10
247.9452755423239
 20
27.28486873438635
 30
0.0
 10
247.8600763081149
 20
27.33688459635495
 30
0.0
 10
247.6785437987267
 20
27.44771387831741
 30
0.0
 10
247.4649489608188
 20
27.74520136443038
 30
0.0
 10
247.2926705468392
 20
28.15881338896437
 30
0.0
 10
247.207886934769
 20
28.5989451239036
 30
0.0
 10
247.1997069458309
 20
28.91211970086918
 30
0.0
 10
247.1968232453889
 20
29.02252347682327
 30
0.0
  0
SPLINE
  5
191
330
1F
100
AcDbEntity
  8
0
  6
Continuous
 62
     7
370
    25
100
AcDbSpline
210
0.0
220
0.0
230
1.0
 70
     8
 71
     3
 72
    21
 73
    17
 74
     0
 42
0.000000001
 43
0.00000001
 40
0.0
 40
0.0
 40
0.0
 40
0.0
 40
0.0389976373830558
 40
0.1140459253015574
 40
0.1894630797067919
 40
0.2651985664166148
 40
0.3411515757336299
 40
0.4171775239049863
 40
0.4930900049010934
 40
0.5687077976454105
 40
0.6438832927282524
 40
0.7185297131200743
 40
0.7927628320240632
 40
0.8670437028232298
 40
0.9426638029291508
 40
1.0
 40
1.0
 40
1.0
 40
1.0
 10
247.1968232453889
 20
29.02252347682327
 30
0.0
 10
247.1993633012969
 20
29.13009227824391
 30
0.0
 10
247.2067915212043
 20
29.44466988639735
 30
0.0
 10
247.2914975736052
 20
30.01354294223987
 30
0.0
 10
247.4829144806305
 20
30.72100202215868
 30
0.0
 10
247.7664022256958
 20
31.43917548329094
 30
0.0
 10
248.1316034914521
 20
32.14078132269215
 30
0.0
 10
248.5663612350412
 20
32.80074982546441
 30
0.0
 10
249.0545324856223
 20
33.3951386963017
 30
0.0
 10
249.5772151804568
 20
33.90293246103263
 30
0.0
 10
250.1133580680332
 20
34.30721728724177
 30
0.0
 10
250.640366883674
 20
34.59597062937326
 30
0.0
 10
251.1362273575919
 20
34.76518494347268
 30
0.0
 10
251.5783305371688
 20
34.81338221584797
 30
0.0
 10
251.9276291805092
 20
34.77130377317879
 30
0.0
 10
252.1019182037469
 20
34.67248218017139
 30
0.0
 10
252.17707876399
 20
34.62986626462738
 30
0.0
  0
SPLINE
  5
192
330
1F
100
AcDbEntity
  8
0
  6
Continuous
 62
     7
370
    25
100
AcDbSpline
210
0.0
220
0.0
230
1.0
 70
     8
 71
     3
 72
    10
 73
     6
 74
     0
 42
0.000000001
 43
0.00000001
 40
0.0
 40
0.0
 40
0.0
 40
0.0
 40
0.2156012764338811
 40
0.7085827663989802
 40
1.0
 40
1.0
 40
1.0
 40
1.0
 10
203.3627533451123
 20
40.98858624999163
 30
0.0
 10
203.329274720234
 20
40.74447043538963
 30
0.0
 10
203.2192457954339
 20
39.9421734263296
 30
0.0
 10
203.1518118272792
 20
38.84497302957584
 30
0.0
 10
203.1406713350852
 20
38.00786133815971
 30
0.0
 10
203.1365324560705
 20
37.69686035613555
 30
0.0
  0
SPLINE
  5
193
330
1F
100
AcDbEntity
  8
0
  6
Continuous
 62
     7
370
    25
100
AcDbSpline
210
0.0
220
0.0
230
1.0
 70
     8
 71
     3
 72
    11
 73
     7
 74
     0
 42
0.000000001
 43
0.00000001
 40
0.0
 40
0.0
 40
0.0
 40
0.0
 40
0.2176483224127857
 40
0.5247129025610112
 40
0.8318153129254747
 40
1.0
 40
1.0
 40
1.0
 40
1.0
 10
223.2409693782431
 20
69.44275786197001
 30
0.0
 10
222.9227051128582
 20
69.31026476951277
 30
0.0
 10
222.1554243701432
 20
68.99084657073307
 30
0.0
 10
220.9291705404727
 20
68.33486500569666
 30
0.0
 10
219.7756603117928
 20
67.64793382327709
 30
0.0
 10
219.0811496941983
 20
67.15216938502189
 30
0.0
 10
218.8353907591894
 20
66.9767386035849
 30
0.0
  0
SPLINE
  5
194
330
1F
100
AcDbEntity
  8
0
  6
Continuous
 62
     7
370
    25
100
AcDbSpline
210
0.0
220
0.0
230
1.0
 70
     8
 71
     3
 72
    10
 73
     6
 74
     0
 42
0.000000001
 43
0.00000001
 40
0.0
 40
0.0
 40
0.0
 40
0.0
 40
0.2223860740192499
 40
0.6449006023218349
 40
1.0
 40
1.0
 40
1.0
 40
1.0
 10
203.1365324560705
 20
37.69686035613555
 30
0.0
 10
203.1396389310862
 20
37.42367412934684
 30
0.0
 10
203.1486474430512
 20
36.63145742702392
 30
0.0
 10
203.2292388119002
 20
35.44143955933478
 30
0.0
 10
203.3704305928506
 20
34.57250631964635
 30
0.0
 10
203.4349061824684
 20
34.17570572268336
 30
0.0
  0
LINE
  5
195
330
1F
100
AcDbEntity
  8
0
  6
Continuous
 62
     7
370
    25
100
AcDbLine
 10
245.9769531795
 20
42.3860425846
 30
0.0
 11
245.476833736
 21
42.4879382619
 31
0.0
  0
LINE
  5
196
330
1F
100
AcDbEntity
  8
0
  6
Continuous
 62
     7
370
    25
100
AcDbLine
 10
237.7841813969
 20
29.1624294856
 30
0.0
 11
238.1225211502
 21
28.7802927477
 31
0.0
  0
LINE
  5
197
330
1F
100
AcDbEntity
  8
0
  6
Continuous
 62
     7
370
    25
100
AcDbLine
 10
221.5928363509
 20
68.6676324414
 30
0.0
 11
212.3190519046
 21
73.2880873079
 31
0.0
  0
LINE
  5
198
330
1F
100
AcDbEntity
  8
0
  6
Continuous
 62
     7
370
    25
100
AcDbLine
 10
194.530329117
 20
42.4737772963
 30
0.0
 11
203.1595242719
 21
36.7598821617
 31
0.0
  0
SPLINE
  5
199
330
1F
100
AcDbEntity
  8
0
  6
Continuous
 62
     7
370
    25
100
AcDbSpline
210
0.0
220
0.0
230
1.0
 70
     8
 71
     3
 72
    15
 73
    11
 74
     0
 42
0.000000001
 43
0.00000001
 40
0.0
 40
0.0
 40
0.0
 40
0.0
 40
0.0941126124786991
 40
0.2411002246648245
 40
0.3886675923744805
 40
0.5367383184757875
 40
0.6851904853171951
 40
0.8338962674168743
 40
0.9827462367668773
 40
1.0
 40
1.0
 40
1.0
 40
1.0
 10
221.6272439843343
 20
19.41614192264694
 30
0.0
 10
221.8792399874127
 20
19.38627185476123
 30
0.0
 10
222.5248101331843
 20
19.309749910589
 30
0.0
 10
223.6170929048463
 20
19.33885884520575
 30
0.0
 10
224.8904072573197
 20
19.48535753248746
 30
0.0
 10
226.1996567080802
 20
19.77194586591394
 30
0.0
 10
227.5344677435676
 20
20.18605122742686
 30
0.0
 10
228.8870520570649
 20
20.74244634800742
 30
0.0
 10
229.8480231337787
 20
21.19180658585656
 30
0.0
 10
230.3546266479872
 20
21.48928620514695
 30
0.0
 10
230.4072492889796
 20
21.52018643139773
 30
0.0
  0
LINE
  5
19A
330
1F
100
AcDbEntity
  8
0
  6
Continuous
 62
     7
370
    25
100
AcDbLine
 10
216.4360337754
 20
21.5029124169
 30
0.0
 11
218.0934816422
 21
20.54608813
 31
0.0
  0
LINE
  5
19B
330
1F
100
AcDbEntity
  8
0
  6
Continuous
 62
     7
370
    25
100
AcDbLine
 10
244.6692810207
 20
62.6585919522
 30
0.0
 11
244.4032487958
 21
62.9015979159
 31
0.0
  0
SPLINE
  5
19C
330
1F
100
AcDbEntity
  8
0
  6
Continuous
 62
     7
370
    25
100
AcDbSpline
210
0.0
220
0.0
230
1.0
 70
     8
 71
     3
 72
    14
 73
    10
 74
     0
 42
0.000000001
 43
0.00000001
 40
0.0
 40
0.0
 40
0.0
 40
0.0
 40
0.0888847185968749
 40
0.2571754896811038
 40
0.4253197724307542
 40
0.5930824360457396
 40
0.7603039007960454
 40
0.9268579066210563
 40
1.0
 40
1.0
 40
1.0
 40
1.0
 10
248.0676255386454
 20
56.04020179233901
 30
0.0
 10
248.0171134783899
 20
56.28383177887519
 30
0.0
 10
247.8709639035694
 20
56.98874103749151
 30
0.0
 10
247.5498076343313
 20
58.09153396506196
 30
0.0
 10
247.071843500568
 20
59.31115829621096
 30
0.0
 10
246.4949260713956
 20
60.43098591600547
 30
0.0
 10
245.8183247017132
 20
61.43573296715894
 30
0.0
 10
245.209049422332
 20
62.18206544606507
 30
0.0
 10
244.7954797770487
 20
62.54717925697722
 30
0.0
 10
244.6692810207299
 20
62.65859195222077
 30
0.0
  0
SPLINE
  5
19D
330
1F
100
AcDbEntity
  8
0
  6
Continuous
 62
     7
370
    25
100
AcDbSpline
210
0.0
220
0.0
230
1.0
 70
     8
 71
     3
 72
    29
 73
    25
 74
     0
 42
0.000000001
 43
0.00000001
 40
0.0
 40
0.0
 40
0.0
 40
0.0
 40
0.0058875220016338
 40
0.053413883710943
 40
0.1009739428303255
 40
0.1488412361324248
 40
0.1972087774898648
 40
0.2461412493127791
 40
0.2955845225274334
 40
0.3454114395581013
 40
0.3954771872248793
 40
0.4456585894269314
 40
0.4958614262065424
 40
0.546032017282236
 40
0.5961521813296283
 40
0.6462183290700784
 40
0.6962353061996533
 40
0.7462126431208969
 40
0.7961623072090948
 40
0.8460974749029142
 40
0.8960318711739361
 40
0.9459768660958832
 40
0.9959447547494407
 40
1.0
 40
1.0
 40
1.0
 40
1.0
 10
212.4393745716622
 20
73.21762445653692
 30
0.0
 10
212.4047546657636
 20
73.23870162800999
 30
0.0
 10
212.090669448377
 20
73.42992190467415
 30
0.0
 10
211.4292933763067
 20
73.66977169373625
 30
0.0
 10
210.4634398365153
 20
73.92383656393818
 30
0.0
 10
209.4390782180124
 20
74.0319749183119
 30
0.0
 10
208.3712456207
 20
74.0095067408005
 30
0.0
 10
207.2641178798003
 20
73.8511659258356
 30
0.0
 10
206.1267082202189
 20
73.5581481284244
 30
0.0
 10
204.9686342501149
 20
73.13179726190394
 30
0.0
 10
203.8005312956466
 20
72.57580600670386
 30
0.0
 10
202.6330826145128
 20
71.89552101726193
 30
0.0
 10
201.4765788749422
 20
71.09764319924763
 30
0.0
 10
200.3406757028413
 20
70.18978147402885
 30
0.0
 10
199.2343803260206
 20
69.18014611171786
 30
0.0
 10
198.166225615842
 20
68.07744549375582
 30
0.0
 10
197.144366393431
 20
66.89093280496274
 30
0.0
 10
196.1766884903142
 20
65.6303576231178
 30
0.0
 10
195.2704497540619
 20
64.30594081995292
 30
0.0
 10
194.4334903767223
 20
62.9282908613017
 30
0.0
 10
193.6694744303744
 20
61.5084953530712
 30
0.0
 10
192.9955390474513
 20
60.05749577228079
 30
0.0
 10
192.5659580827364
 20
59.03841431841447
 30
0.0
 10
192.3843093491703
 20
58.50682433371134
 30
0.0
 10
192.3706738913427
 20
58.46692054426184
 30
0.0
  0
LINE
  5
19E
330
1F
100
AcDbEntity
  8
0
  6
Continuous
 62
     7
370
    25
100
AcDbLine
 10
192.7550393203
 20
56.1295989761
 30
0.0
 11
196.5439659274
 21
53.9422982039
 31
0.0
  0
LINE
  5
19F
330
1F
100
AcDbEntity
  8
0
  6
Continuous
 62
     7
370
    25
100
AcDbLine
 10
192.2496004836
 20
57.8967960445
 30
0.0
 11
192.2496004836
 21
57.2467409147
 31
0.0
  0
LINE
  5
1A0
330
1F
100
AcDbEntity
  8
0
  6
Continuous
 62
     7
370
    25
100
AcDbLine
 10
192.2496004836
 20
45.7384849244
 30
0.0
 11
192.2496004836
 21
45.0884480427
 31
0.0
  0
SPLINE
  5
1A1
330
1F
100
AcDbEntity
  8
0
  6
Continuous
 62
     7
370
    25
100
AcDbSpline
210
0.0
220
0.0
230
1.0
 70
     8
 71
     3
 72
    11
 73
     7
 74
     0
 42
0.000000001
 43
0.00000001
 40
0.0
 40
0.0
 40
0.0
 40
0.0
 40
0.2730580045110241
 40
0.5794063885254076
 40
0.8819892050333861
 40
1.0
 40
1.0
 40
1.0
 40
1.0
 10
192.3815122168551
 20
44.75507320237105
 30
0.0
 10
192.5510206149758
 20
44.48985069541099
 30
0.0
 10
192.9107033459609
 20
43.92707058138879
 30
0.0
 10
193.5848757395655
 20
43.208177859391
 30
0.0
 10
194.1913391800806
 20
42.67745116403635
 30
0.0
 10
194.5911781981213
 20
42.44803524683009
 30
0.0
 10
194.7033656377075
 20
42.38366537998265
 30
0.0
  0
SPLINE
  5
1A2
330
1F
100
AcDbEntity
  8
0
  6
Continuous
 62
     7
370
    25
100
AcDbSpline
210
0.0
220
0.0
230
1.0
 70
     8
 71
     3
 72
     9
 73
     5
 74
     0
 42
0.000000001
 43
0.00000001
 40
0.0
 40
0.0
 40
0.0
 40
0.0
 40
0.2375259082312748
 40
1.0
 40
1.0
 40
1.0
 40
1.0
 10
192.2925665614289
 20
44.89313020594338
 30
0.0
 10
192.298750013689
 20
44.88136057475498
 30
0.0
 10
192.3247827623104
 20
44.83180963828647
 30
0.0
 10
192.35697016002
 20
44.78827059491908
 30
0.0
 10
192.3815122168551
 20
44.75507320237105
 30
0.0
  0
SPLINE
  5
1A3
330
1F
100
AcDbEntity
  8
0
  6
Continuous
 62
     7
370
    25
100
AcDbSpline
210
0.0
220
0.0
230
1.0
 70
     8
 71
     3
 72
    15
 73
    11
 74
     0
 42
0.000000001
 43
0.00000001
 40
0.0
 40
0.0
 40
0.0
 40
0.0
 40
0.06368676576716
 40
0.1986582698840287
 40
0.3339875961610034
 40
0.4699351105326726
 40
0.6066431585564231
 40
0.7435058102708275
 40
0.8781769049838593
 40
1.0
 40
1.0
 40
1.0
 40
1.0
 10
236.62619838041
 20
27.97522863125826
 30
0.0
 10
236.6803804241075
 20
28.07395638666758
 30
0.0
 10
236.8493905933329
 20
28.38191809335645
 30
0.0
 10
237.0433299944504
 20
28.92922175429199
 30
0.0
 10
237.1976042609076
 20
29.58275496721106
 30
0.0
 10
237.2418625805162
 20
30.20953868457225
 30
0.0
 10
237.1768043020689
 20
30.78370179097563
 30
0.0
 10
236.9962590761566
 20
31.276241709836
 30
0.0
 10
236.7187244218576
 20
31.66720824616482
 30
0.0
 10
236.461215405857
 20
31.81864525989847
 30
0.0
 10
236.3389103144361
 20
31.89057096602271
 30
0.0
  0
SPLINE
  5
1A4
330
1F
100
AcDbEntity
  8
0
  6
Continuous
 62
     7
370
    25
100
AcDbSpline
210
0.0
220
0.0
230
1.0
 70
     8
 71
     3
 72
    16
 73
    12
 74
     0
 42
0.000000001
 43
0.00000001
 40
0.0
 40
0.0
 40
0.0
 40
0.0
 40
0.059111004127684
 40
0.1786792616944117
 40
0.2992210999730888
 40
0.4233545919328885
 40
0.5502474645540584
 40
0.6779894002151465
 40
0.8055390724200716
 40
0.9328570011903011
 40
0.9999999999999999
 40
0.9999999999999999
 40
0.9999999999999999
 40
0.9999999999999999
 10
232.9535068546471
 20
25.7933926807887
 30
0.0
 10
233.0151779753262
 20
25.75470203189323
 30
0.0
 10
233.2015958931646
 20
25.6377489081705
 30
0.0
 10
233.5832764412732
 20
25.58500457060922
 30
0.0
 10
234.0641237233283
 20
25.62833053106266
 30
0.0
 10
234.5726006821916
 20
25.80812543973848
 30
0.0
 10
235.0881701152117
 20
26.11248205980713
 30
0.0
 10
235.5909256555315
 20
26.53172513528154
 30
0.0
 10
236.0524117265134
 20
27.04793501837638
 30
0.0
 10
236.4061558525723
 20
27.53858439511844
 30
0.0
 10
236.5697224880616
 20
27.86315996381888
 30
0.0
 10
236.62619838041
 20
27.97522863125826
 30
0.0
  0
LINE
  5
1A5
330
1F
100
AcDbEntity
  8
0
  6
Continuous
 62
     7
370
    25
100
AcDbLine
 10
230.6280518539
 20
27.1139142658
 30
0.0
 11
232.9261495987
 21
25.7872506766
 31
0.0
  0
LINE
  5
1A6
330
1F
100
AcDbEntity
  8
0
  6
Continuous
 62
     7
370
    25
100
AcDbLine
 10
236.4258651898
 20
31.8495929146
 30
0.0
 11
234.127767445
 21
33.1762565038
 31
0.0
  0
SPLINE
  5
1A7
330
1F
100
AcDbEntity
  8
0
  6
Continuous
 62
     7
370
    25
100
AcDbSpline
210
0.0
220
0.0
230
1.0
 70
     8
 71
     3
 72
    16
 73
    12
 74
     0
 42
0.000000001
 43
0.00000001
 40
0.0
 40
0.0
 40
0.0
 40
0.0
 40
0.0600870967467384
 40
0.1881565309473126
 40
0.3164436639343517
 40
0.44518411240112
 40
0.5745992051327582
 40
0.7046754547679757
 40
0.8340602427358652
 40
0.9601331746554457
 40
1.0
 40
1.0
 40
1.0
 40
1.0
 10
255.5248287890822
 20
38.65542565864366
 30
0.0
 10
255.5850640816126
 20
38.74952253955733
 30
0.0
 10
255.7736846723339
 20
39.04417719328942
 30
0.0
 10
256.0092408514343
 20
39.58497409369085
 30
0.0
 10
256.2183553056057
 20
40.24274842587599
 30
0.0
 10
256.322190730155
 20
40.88885736341732
 30
0.0
 10
256.318520258523
 20
41.49419417419968
 30
0.0
 10
256.2034113460971
 20
42.03825110678956
 30
0.0
 10
255.97024470179
 20
42.48194490087815
 30
0.0
 10
255.7220562293964
 20
42.76576873977537
 30
0.0
 10
255.5359358290269
 20
42.8476217979971
 30
0.0
 10
255.4912206286619
 20
42.86728689592085
 30
0.0
  0
SPLINE
  5
1A8
330
1F
100
AcDbEntity
  8
0
  6
Continuous
 62
     7
370
    25
100
AcDbSpline
210
0.0
220
0.0
230
1.0
 70
     8
 71
     3
 72
    10
 73
     6
 74
     0
 42
0.000000001
 43
0.00000001
 40
0.0
 40
0.0
 40
0.0
 40
0.0
 40
0.2978357000803597
 40
0.7567707904322585
 40
1.0
 40
1.0
 40
1.0
 40
1.0
 10
254.5732273652357
 20
37.48780958455821
 30
0.0
 10
254.6792003752852
 20
37.58448761235837
 30
0.0
 10
254.9484672179034
 20
37.83013683270375
 30
0.0
 10
255.2738880473879
 20
38.23304744048612
 30
0.0
 10
255.4602671883963
 20
38.54675692006009
 30
0.0
 10
255.5248287890822
 20
38.65542565864366
 30
0.0
  0
LINE
  5
1A9
330
1F
100
AcDbEntity
  8
0
  6
Continuous
 62
     7
370
    25
100
AcDbLine
 10
255.5177481185
 20
42.8711023299
 30
0.0
 11
253.2196503737
 21
44.1977659192
 31
0.0
  0
SPLINE
  5
1AA
330
1F
100
AcDbEntity
  8
0
  6
Continuous
 62
     7
370
    25
100
AcDbSpline
210
0.0
220
0.0
230
1.0
 70
     8
 71
     3
 72
    27
 73
    23
 74
     0
 42
0.000000001
 43
0.00000001
 40
0.0
 40
0.0
 40
0.0
 40
0.0
 40
0.0253809040779753
 40
0.0740894818958535
 40
0.123426850815744
 40
0.1738618053078494
 40
0.2252143818799917
 40
0.2770267171775774
 40
0.3289152694056993
 40
0.3807255512256296
 40
0.4324475686943083
 40
0.4841127503563361
 40
0.5357671893013591
 40
0.5874552780225967
 40
0.6392203339586343
 40
0.691116200760737
 40
0.7431889452132342
 40
0.7954523218896071
 40
0.847799770538429
 40
0.8998340397746571
 40
0.950967709676196
 40
1.0
 40
1.0
 40
1.0
 40
1.0
 10
254.7994334524606
 20
21.33424612713389
 30
0.0
 10
254.8900559493547
 20
21.291838727235
 30
0.0
 10
255.1545923828231
 20
21.16804714449995
 30
0.0
 10
255.6569699548514
 20
21.10698378864206
 30
0.0
 10
256.2820551475672
 20
21.14219912756495
 30
0.0
 10
256.9405912287507
 20
21.31632630551616
 30
0.0
 10
257.6159715160909
 20
21.61926583064246
 30
0.0
 10
258.2922612812507
 20
22.04711061578289
 30
0.0
 10
258.9508484137622
 20
22.58758540613252
 30
0.0
 10
259.5750447486964
 20
23.22597600859178
 30
0.0
 10
260.1500647348013
 20
23.9458203694993
 30
0.0
 10
260.6627309876208
 20
24.72957621047249
 30
0.0
 10
261.1011544000365
 20
25.5586015435046
 30
0.0
 10
261.4549187266798
 20
26.4134454873912
 30
0.0
 10
261.715251824049
 20
27.27434997611962
 30
0.0
 10
261.8750955446301
 20
28.12170874557145
 30
0.0
 10
261.9290491889589
 20
28.9365348669344
 30
0.0
 10
261.8729700664977
 20
29.69983628091652
 30
0.0
 10
261.7051949879195
 20
30.39323393101791
 30
0.0
 10
261.4247310709266
 20
30.99278535172037
 30
0.0
 10
261.0485524500685
 20
31.48869076670825
 30
0.0
 10
260.7227751638001
 20
31.71251229476918
 30
0.0
 10
260.5633037580922
 20
31.82207528522934
 30
0.0
  0
LINE
  5
1AB
330
1F
100
AcDbEntity
  8
0
  6
Continuous
 62
     7
370
    25
100
AcDbLine
 10
260.5506669475
 20
31.8308237859
 30
0.0
 11
255.176656637
 21
34.9331739028
 31
0.0
  0
LINE
  5
1AC
330
1F
100
AcDbEntity
  8
0
  6
Continuous
 62
     7
370
    25
100
AcDbLine
 10
249.1771442891
 20
24.5405874807
 30
0.0
 11
254.5511545997
 21
21.4382373638
 31
0.0
  0
LINE
  5
1AD
330
1F
100
AcDbEntity
  8
0
  6
Continuous
 62
     7
370
    25
100
AcDbLine
 10
251.9404867713
 20
34.4920364706
 30
0.0
 11
251.4375721357
 21
34.78236291
 31
0.0
  0
LINE
  5
1AE
330
1F
100
AcDbEntity
  8
0
  6
Continuous
 62
     7
370
    25
100
AcDbLine
 10
247.4342909376
 20
27.8560538344
 30
0.0
 11
247.940811763
 21
27.5636455859
 31
0.0
  0
ARC
  5
1AF
330
1F
100
AcDbEntity
  8
0
  6
Continuous
 62
     7
370
    25
100
AcDbCircle
 10
247.4442398801
 20
46.035750412
 30
0.0
 40
6.244288728511193
100
AcDbArc
 50
36.6087665813
 51
83.8105676585
  0
ARC
  5
1B0
330
1F
100
AcDbEntity
  8
0
  6
Continuous
 62
     7
370
    25
100
AcDbCircle
 10
235.6947870135
 20
25.6829951641
 30
0.0
 40
6.242549263927575
100
AcDbArc
 50
216.3223077531
 51
263.1984333218
  0
SPLINE
  5
1B1
330
1F
100
AcDbEntity
  8
0
  6
Continuous
 62
     7
370
    25
100
AcDbSpline
210
0.0
220
0.0
230
1.0
 70
    11
 71
     3
 72
    90
 73
    86
 74
     0
 42
0.000000001
 43
0.00000001
 40
0.0
 40
0.0
 40
0.0
 40
0.0
 40
0.0312500000000009
 40
0.0312500000000009
 40
0.0468750000000013
 40
0.0468750000000013
 40
0.0625000000000017
 40
0.0625000000000017
 40
0.0937500000000021
 40
0.0937500000000021
 40
0.1093750000000022
 40
0.1093750000000022
 40
0.1250000000000024
 40
0.1250000000000024
 40
0.1562500000000023
 40
0.1562500000000023
 40
0.1875000000000022
 40
0.1875000000000022
 40
0.2187500000000021
 40
0.2187500000000021
 40
0.234375000000002
 40
0.234375000000002
 40
0.2500000000000018
 40
0.2656250000000018
 40
0.2656250000000018
 40
0.2812500000000017
 40
0.2812500000000017
 40
0.3125000000000014
 40
0.3125000000000014
 40
0.3281250000000014
 40
0.3281250000000014
 40
0.3437500000000014
 40
0.3437500000000014
 40
0.3750000000000013
 40
0.3750000000000013
 40
0.4062500000000013
 40
0.4062500000000013
 40
0.4375000000000013
 40
0.4375000000000013
 40
0.4687500000000013
 40
0.4687500000000013
 40
0.4843750000000013
 40
0.4843750000000013
 40
0.5000000000000012
 40
0.5000000000000012
 40
0.5312500000000013
 40
0.5312500000000013
 40
0.5468750000000013
 40
0.5468750000000013
 40
0.5625000000000013
 40
0.5625000000000013
 40
0.5937500000000017
 40
0.5937500000000017
 40
0.6250000000000021
 40
0.6250000000000021
 40
0.6406250000000021
 40
0.6406250000000021
 40
0.6562500000000021
 40
0.6562500000000021
 40
0.6875000000000021
 40
0.6875000000000021
 40
0.7187500000000021
 40
0.7187500000000021
 40
0.750000000000002
 40
0.750000000000002
 40
0.765625000000002
 40
0.765625000000002
 40
0.781250000000002
 40
0.796875000000002
 40
0.796875000000002
 40
0.812500000000002
 40
0.812500000000002
 40
0.8437500000000021
 40
0.8437500000000021
 40
0.859375000000002
 40
0.859375000000002
 40
0.8750000000000019
 40
0.8750000000000019
 40
0.9062500000000014
 40
0.9062500000000014
 40
0.9375000000000009
 40
0.9375000000000009
 40
0.9687500000000004
 40
0.9687500000000004
 40
1.0
 40
1.0
 40
1.0
 40
1.0
 10
236.4614347216636
 20
50.6361933073381
 30
0.0
 10
236.6168918375113
 20
50.54644982460295
 30
0.0
 10
236.783866734226
 20
50.46904078006838
 30
0.0
 10
237.0510210204473
 20
50.3705546811596
 30
0.0
 10
237.1428744422271
 20
50.34068034707364
 30
0.0
 10
237.3323283926814
 20
50.28688849309002
 30
0.0
 10
237.4304678188899
 20
50.26287235711001
 30
0.0
 10
237.7290254390629
 20
50.20098349432782
 30
0.0
 10
237.9335833812538
 20
50.17297342360083
 30
0.0
 10
238.2488099888988
 20
50.14980901643031
 30
0.0
 10
238.3552934017816
 20
50.14524852378599
 30
0.0
 10
238.5712209459202
 20
50.14251813789585
 30
0.0
 10
238.6806000037806
 20
50.14439610757906
 30
0.0
 10
239.0058236431601
 20
50.15932719692113
 30
0.0
 10
239.2212443610848
 20
50.18151692975595
 30
0.0
 10
239.649404838304
 20
50.24926326800549
 30
0.0
 10
239.8636017168896
 20
50.29547622109489
 30
0.0
 10
240.2690248946381
 20
50.40661536561873
 30
0.0
 10
240.4627120501983
 20
50.47175633475984
 30
0.0
 10
240.739109212677
 20
50.58369354048372
 30
0.0
 10
240.8286663925491
 20
50.62337181860945
 30
0.0
 10
240.9984758838071
 20
50.70547613031287
 30
0.0
 10
241.1601766862897
 20
50.79079294101924
 30
0.0
 10
241.3058542776374
 20
50.88240776257927
 30
0.0
 10
241.4433623831517
 20
50.97725749022025
 30
0.0
 10
241.5082606113834
 20
51.0265402779014
 30
0.0
 10
241.6861227605743
 20
51.17600930001741
 30
0.0
 10
241.7839093693182
 20
51.27864642811182
 30
0.0
 10
241.9001460480776
 20
51.43781329974918
 30
0.0
 10
241.9339086088843
 20
51.49205610650822
 30
0.0
 10
241.989900122858
 20
51.60049046640724
 30
0.0
 10
242.0122662093513
 20
51.65476830242237
 30
0.0
 10
242.0630974209242
 20
51.81809871315832
 30
0.0
 10
242.0753806443023
 20
51.92826106567329
 30
0.0
 10
242.0565539067224
 20
52.14906421353341
 30
0.0
 10
242.0258879896396
 20
52.25759889885631
 30
0.0
 10
241.9244506808806
 20
52.47291104155842
 30
0.0
 10
241.8526227030464
 20
52.5806162936415
 30
0.0
 10
241.6739551881078
 20
52.78823771359768
 30
0.0
 10
241.5671628383662
 20
52.88881176048933
 30
0.0
 10
241.3810920522024
 20
53.03558875872125
 30
0.0
 10
241.3143552900738
 20
53.0840578738318
 30
0.0
 10
241.1741979671507
 20
53.17812710455645
 30
0.0
 10
241.1007697330969
 20
53.2237835516726
 30
0.0
 10
240.8706915840489
 20
53.35675371022872
 30
0.0
 10
240.7043401903853
 20
53.4401261719765
 30
0.0
 10
240.434711507837
 20
53.55676641069543
 30
0.0
 10
240.3415221356083
 20
53.5941637452171
 30
0.0
 10
240.1521839293101
 20
53.66445820579466
 30
0.0
 10
240.0555732786558
 20
53.69756289471453
 30
0.0
 10
239.75993942275
 20
53.79059406582897
 30
0.0
 10
239.5551758848069
 20
53.84432344245634
 30
0.0
 10
239.129044762188
 20
53.93251002267193
 30
0.0
 10
238.9146361548996
 20
53.96549753746256
 30
0.0
 10
238.591256085504
 20
53.99720692031038
 30
0.0
 10
238.4831462735475
 20
54.00479853869415
 30
0.0
 10
238.2662465967658
 20
54.01358022637187
 30
0.0
 10
238.1567935295081
 20
54.01474274570973
 30
0.0
 10
237.8334558507044
 20
54.00784121710623
 30
0.0
 10
237.624292539006
 20
53.98969451629427
 30
0.0
 10
237.2186801459989
 20
53.92460624347316
 30
0.0
 10
237.0201857075466
 20
53.87674701450312
 30
0.0
 10
236.6540869007215
 20
53.75379680497137
 30
0.0
 10
236.4847934401148
 20
53.67881236831096
 30
0.0
 10
236.2519953174606
 20
53.54526183356534
 30
0.0
 10
236.1778963906556
 20
53.49708249340188
 30
0.0
 10
236.0405101707434
 20
53.39601527832126
 30
0.0
 10
235.91291722703
 20
53.28971358151762
 30
0.0
 10
235.8045128601983
 20
53.17329150434242
 30
0.0
 10
235.7058045319125
 20
53.05186782348746
 30
0.0
 10
235.6611615910706
 20
52.98833818412873
 30
0.0
 10
235.5447076537439
 20
52.79455589510152
 30
0.0
 10
235.4891608050868
 20
52.66015780483691
 30
0.0
 10
235.4378354020202
 20
52.45210503902625
 30
0.0
 10
235.4260884097012
 20
52.38128320671076
 30
0.0
 10
235.4137613450079
 20
52.24003224383286
 30
0.0
 10
235.4130956538356
 20
52.16956942974242
 30
0.0
 10
235.4269480987939
 20
51.95895985488699
 30
0.0
 10
235.4572959697176
 20
51.8192528697438
 30
0.0
 10
235.5597660478734
 20
51.54491138411213
 30
0.0
 10
235.6304683732117
 20
51.41378549944275
 30
0.0
 10
235.8084992353133
 20
51.16421536035686
 30
0.0
 10
235.9170137219077
 20
51.04484741193041
 30
0.0
 10
236.1659462251422
 20
50.82578427395408
 30
0.0
 10
236.3059776058159
 20
50.72593679007323
 30
0.0
 10
236.4614347216636
 20
50.63619330733809
 30
0.0
  0
SPLINE
  5
1B2
330
1F
100
AcDbEntity
  8
0
  6
Continuous
 62
     7
370
    25
100
AcDbSpline
210
0.0
220
0.0
230
1.0
 70
    11
 71
     3
 72
    39
 73
    35
 74
     0
 42
0.000000001
 43
0.00000001
 40
0.0
 40
0.0
 40
0.0
 40
0.0
 40
0.030809678234645
 40
0.0620011325152929
 40
0.0932771631876009
 40
0.1243192849162842
 40
0.1554421839339093
 40
0.1870439785089808
 40
0.218683192001149
 40
0.2500194102192652
 40
0.281309861586785
 40
0.3129694002864008
 40
0.3445091169050764
 40
0.3756222456104821
 40
0.4066410809388381
 40
0.4379942120363297
 40
0.4692934055296988
 40
0.5001505653790428
 40
0.5309299935450245
 40
0.5621454465241302
 40
0.5933596627966569
 40
0.6243846724512709
 40
0.6555028158321632
 40
0.6870766646532477
 40
0.7187367745379803
 40
0.7500726589267328
 40
0.7813897149107041
 40
0.8130771729800118
 40
0.8446369155748413
 40
0.8757796257127879
 40
0.9067777921839122
 40
0.9380343843005424
 40
0.9692430103903154
 40
0.9999999999999999
 40
0.9999999999999999
 40
0.9999999999999999
 40
0.9999999999999999
 10
225.6968374763211
 20
42.97117515290019
 30
0.0
 10
225.6163569344336
 20
43.0177392680371
 30
0.0
 10
225.4647632662638
 20
43.1320108394952
 30
0.0
 10
225.2782248713668
 20
43.35966158241951
 30
0.0
 10
225.1368711503107
 20
43.63066374990041
 30
0.0
 10
225.0512698857006
 20
43.93667503219492
 30
0.0
 10
225.0237587548169
 20
44.26524920393238
 30
0.0
 10
225.05799734684
 20
44.60428231666948
 30
0.0
 10
225.1488685259388
 20
44.93946498870879
 30
0.0
 10
225.2973969886239
 20
45.2559514591796
 30
0.0
 10
225.4970811098357
 20
45.54303791663953
 30
0.0
 10
225.7417692607907
 20
45.78905881209773
 30
0.0
 10
226.0181564938607
 20
45.98802042765727
 30
0.0
 10
226.3161798984108
 20
46.1283209412342
 30
0.0
 10
226.6241568431437
 20
46.20712936345313
 30
0.0
 10
226.9300258793614
 20
46.2200898278991
 30
0.0
 10
227.2212440292652
 20
46.17245898821435
 30
0.0
 10
227.4831555620331
 20
46.06118650635579
 30
0.0
 10
227.7068489602915
 20
45.89222244548632
 30
0.0
 10
227.8829793359112
 20
45.67021993387639
 30
0.0
 10
228.0093100198329
 20
45.40750248064739
 30
0.0
 10
228.0771658420159
 20
45.11154429109572
 30
0.0
 10
228.0872552015848
 20
44.79308545726749
 30
0.0
 10
228.038353604199
 20
44.46259015712732
 30
0.0
 10
227.9377757216702
 20
44.13303642402034
 30
0.0
 10
227.7855758340349
 20
43.81842265190156
 30
0.0
 10
227.5889438028231
 20
43.52938591319904
 30
0.0
 10
227.353665381417
 20
43.27772863248243
 30
0.0
 10
227.0916662513619
 20
43.07029393923979
 30
0.0
 10
226.8107905779981
 20
42.92008770104353
 30
0.0
 10
226.5203785204914
 20
42.83121323648154
 30
0.0
 10
226.2296949695371
 20
42.8097647921492
 30
0.0
 10
225.9493869950111
 20
42.85155853325353
 30
0.0
 10
225.7771803858369
 20
42.92469066855917
 30
0.0
 10
225.6968374763211
 20
42.97117515290019
 30
0.0
  0
SPLINE
  5
1B3
330
1F
100
AcDbEntity
  8
0
  6
Continuous
 62
     7
370
    25
100
AcDbSpline
210
0.0
220
0.0
230
1.0
 70
     8
 71
     3
 72
    19
 73
    15
 74
     0
 42
0.000000001
 43
0.00000001
 40
0.0
 40
0.0
 40
0.0
 40
0.0
 40
0.000330703340994
 40
0.126017084935696
 40
0.2511071780320956
 40
0.3756188692660906
 40
0.4384129100618008
 40
0.5003205333371936
 40
0.5620720292257017
 40
0.6246980859106522
 40
0.7489452088456586
 40
0.874116022452372
 40
0.9998949798207916
 40
1.0
 40
1.0
 40
1.0
 40
1.0
 10
225.3068054464046
 20
24.46464875955943
 30
0.0
 10
225.3064180169431
 20
24.46485951486078
 30
0.0
 10
225.15878500178
 20
24.54516946464853
 30
0.0
 10
225.0428026861176
 20
24.63020088236242
 30
0.0
 10
225.0160189927676
 20
24.6827294644781
 30
0.0
 10
225.2175913468139
 20
24.60009127229094
 30
0.0
 10
225.4654504154918
 20
24.47221951504423
 30
0.0
 10
225.6928012424509
 20
24.34503606371075
 30
0.0
 10
225.9512022566525
 20
24.19181052750144
 30
0.0
 10
226.322748345897
 20
23.96211355571697
 30
0.0
 10
226.8233906009909
 20
23.63925181108468
 30
0.0
 10
227.3548327491609
 20
23.29557350607486
 30
0.0
 10
227.6950291472947
 20
23.08077799080917
 30
0.0
 10
227.7792050155206
 20
23.03733196046764
 30
0.0
 10
227.7792752402223
 20
23.03729571510917
 30
0.0
  0
SPLINE
  5
1B4
330
1F
100
AcDbEntity
  8
0
  6
Continuous
 62
     7
370
    25
100
AcDbSpline
210
0.0
220
0.0
230
1.0
 70
     8
 71
     3
 72
    20
 73
    16
 74
     0
 42
0.000000001
 43
0.00000001
 40
0.0
 40
0.0
 40
0.0
 40
0.0
 40
0.0972150440565163
 40
0.1949359077004583
 40
0.2933077856888791
 40
0.3920796397436464
 40
0.4908080344012238
 40
0.5890680361792926
 40
0.686873695278245
 40
0.7361992845995645
 40
0.7848285806736209
 40
0.833335236521476
 40
0.8825288719956651
 40
0.9801267090290524
 40
0.9999999999999999
 40
0.9999999999999999
 40
0.9999999999999999
 40
0.9999999999999999
 10
243.6087220909486
 20
55.36565476084687
 30
0.0
 10
243.4622809112827
 20
55.45348486326356
 30
0.0
 10
243.1686366038614
 20
55.62960205689532
 30
0.0
 10
242.978270535579
 20
55.78098947599835
 30
0.0
 10
243.0188406600771
 20
55.79687502899372
 30
0.0
 10
243.2752995526754
 20
55.66517778011812
 30
0.0
 10
243.715073826792
 20
55.39490664518597
 30
0.0
 10
244.2657388910681
 20
55.03707829147613
 30
0.0
 10
244.7624052136159
 20
54.71732056086964
 30
0.0
 10
245.1354362875354
 20
54.48667226086503
 30
0.0
 10
245.3936121126865
 20
54.33357543863465
 30
0.0
 10
245.6221804175761
 20
54.20571149436945
 30
0.0
 10
245.8624398598988
 20
54.08203753380773
 30
0.0
 10
246.033908795015
 20
54.00701803621696
 30
0.0
 10
246.0239084139718
 20
54.02697253444373
 30
0.0
 10
246.0222165898984
 20
54.0303483558577
 30
0.0
  0
SPLINE
  5
1B5
330
1F
100
AcDbEntity
  8
0
  6
Continuous
 62
     7
370
    25
100
AcDbSpline
210
0.0
220
0.0
230
1.0
 70
     8
 71
     3
 72
    12
 73
     8
 74
     0
 42
0.000000001
 43
0.00000001
 40
0.0
 40
0.0
 40
0.0
 40
0.0
 40
0.2516442462108033
 40
0.5022888009461871
 40
0.7511026060602247
 40
0.8764581059408921
 40
1.0
 40
1.0
 40
1.0
 40
1.0
 10
245.7778024055721
 20
54.21503559064752
 30
0.0
 10
245.6410909788367
 20
54.29083266317212
 30
0.0
 10
245.3682112303642
 20
54.4421256938966
 30
0.0
 10
244.7707629291631
 20
54.74524821362614
 30
0.0
 10
244.2501429908652
 20
55.01350790510657
 30
0.0
 10
243.8619217094032
 20
55.22176822894353
 30
0.0
 10
243.6927109757061
 20
55.31792613700473
 30
0.0
 10
243.6087220909486
 20
55.36565476084687
 30
0.0
  0
LWPOLYLINE
  5
1B6
330
1F
100
AcDbEntity
  8
0
  6
Continuous
 62
     7
370
    25
100
AcDbPolyline
 90
       22
 70
   128
 43
0.0
 10
235.6642946863
 20
32.2892381406
 10
235.7189782466
 20
33.0586715729
 10
235.8928991926
 20
34.1255569328
 10
236.1791651975
 20
35.220948349
 10
236.5724440264
 20
36.3244412013
 10
237.0654093717
 20
37.415478964
 10
237.6488781594
 20
38.4737381774
 10
238.311981771
 20
39.4795056215
 10
239.0423675579
 20
40.4140448397
 10
239.8264301552
 20
41.2599479268
 10
240.6495636219
 20
42.0014575136
 10
241.4964346135
 20
42.6247598282
 10
242.3512676141
 20
43.1182444153
 10
243.1981386057
 20
43.472718535
 10
244.0212720724
 20
43.6815786198
 10
244.8053346697
 20
43.7409349385
 10
245.5357204566
 20
43.6496812
 10
246.1988240682
 20
43.4095168896
 10
246.7822928559
 20
43.0249163992
 10
247.2752582012
 20
42.5030443091
 10
247.6685370301
 20
41.8536215276
 10
247.8247049333
 20
41.4867040613
  0
ARC
  5
1B7
330
1F
100
AcDbEntity
  8
0
  6
Continuous
 62
     7
370
    25
100
AcDbCircle
 10
239.1278468728
 20
30.8035835218
 30
0.0
 40
3.249406943893564
100
AcDbArc
 50
225.6298507614
 51
282.3954067939
  0
SPLINE
  5
1B8
330
1F
100
AcDbEntity
  8
0
  6
Continuous
 62
     7
370
    25
100
AcDbSpline
210
0.0
220
0.0
230
1.0
 70
     8
 71
     3
 72
    14
 73
    10
 74
     0
 42
0.000000001
 43
0.00000001
 40
0.0
 40
0.0
 40
0.0
 40
0.0
 40
0.25
 40
0.25
 40
0.5
 40
0.5
 40
0.75
 40
0.75
 40
1.0
 40
1.0
 40
1.0
 40
1.0
 10
214.0640757938952
 20
36.73844399282903
 30
0.0
 10
214.0169026866629
 20
36.71121153768291
 30
0.0
 10
213.961338621964
 20
36.68946717954197
 30
0.0
 10
213.8394131498451
 20
36.65922175213595
 30
0.0
 10
213.7733166289692
 20
36.65092272202564
 30
0.0
 10
213.6411246998324
 20
36.64949010624588
 30
0.0
 10
213.5741895483017
 20
36.65644008042749
 30
0.0
 10
213.4515790566314
 20
36.6846494340369
 30
0.0
 10
213.3946436018277
 20
36.70622527834455
 30
0.0
 10
213.3479010584555
 20
36.73320917426494
 30
0.0
  0
SPLINE
  5
1B9
330
1F
100
AcDbEntity
  8
0
  6
Continuous
 62
     7
370
    25
100
AcDbSpline
210
0.0
220
0.0
230
1.0
 70
     8
 71
     3
 72
    12
 73
     8
 74
     0
 42
0.000000001
 43
0.00000001
 40
0.0
 40
0.0
 40
0.0
 40
0.0
 40
0.2500000000000032
 40
0.2500000000000032
 40
0.5000000000000064
 40
0.5000000000000064
 40
1.0
 40
1.0
 40
1.0
 40
1.0
 10
241.6763642145352
 20
64.49843376941925
 30
0.0
 10
241.7301362334833
 20
64.46739184362652
 30
0.0
 10
241.7826245086014
 20
64.4184172143697
 30
0.0
 10
241.87363043554
 20
64.30168633952017
 30
0.0
 10
241.9122047890694
 20
64.23423487418702
 30
0.0
 10
242.0020283783656
 20
64.02991764718013
 30
0.0
 10
242.0299176051285
 20
63.88955481798273
 30
0.0
 10
242.0299176051285
 20
63.76673809292804
 30
0.0
  0
LINE
  5
1BA
330
1F
100
AcDbEntity
  8
0
  6
Continuous
 62
     7
370
    25
100
AcDbLine
 10
213.3479005992
 20
36.7332088775
 30
0.0
 11
211.6904527325
 21
37.6900331644
 31
0.0
  0
LWPOLYLINE
  5
1BB
330
1F
100
AcDbEntity
  8
0
  6
Continuous
 62
     7
370
    25
100
AcDbPolyline
 90
       26
 70
   128
 43
0.0
 10
211.6904527325
 20
37.6900331644
 10
212.0620180319
 20
39.5023376442
 10
212.5444111036
 20
41.3386288916
 10
213.1344603973
 20
43.1868436012
 10
213.8282936713
 20
45.0348447684
 10
214.6213511634
 20
46.8704912705
 10
215.5084251036
 20
48.6817294988
 10
216.4836886902
 20
50.4566595165
 10
217.5407369192
 20
52.1836247887
 10
218.6726247803
 20
53.8512821422
 10
219.8719192815
 20
55.4486774263
 10
221.1307429136
 20
56.9653192736
 10
222.4408269917
 20
58.3912448753
 10
223.7935666438
 20
59.7170897481
 10
225.1800767876
 20
60.9341428629
 10
226.5912507404
 20
62.034412419
 10
228.0178190765
 20
63.0106719895
 10
229.4504118189
 20
63.8565070699
 10
230.8796193133
 20
64.5663639083
 10
232.2960542135
 20
65.1355792051
 10
233.6904125615
 20
65.5604138532
 10
235.053536802
 20
65.8380786685
 10
236.3764723761
 20
65.9667472891
 10
237.6505301183
 20
65.9455769867
 10
238.867342562
 20
65.7747077114
 10
240.0189169526
 20
65.4552577132
  0
LINE
  5
1BC
330
1F
100
AcDbEntity
  8
0
  6
Continuous
 62
     7
370
    25
100
AcDbLine
 10
240.0189169526
 20
65.4552577132
 30
0.0
 11
241.6763648193
 21
64.4984334263
 31
0.0
  0
LINE
  5
1BD
330
1F
100
AcDbEntity
  8
0
  6
Continuous
 62
     7
370
    25
100
AcDbLine
 10
246.4670133557
 20
55.0359911113
 30
0.0
 11
247.9055300764
 21
55.8664291378
 31
0.0
  0
LINE
  5
1BE
330
1F
100
AcDbEntity
  8
0
  6
Continuous
 62
     7
370
    25
100
AcDbLine
 10
246.4670133557
 20
53.8171757525
 30
0.0
 11
246.4670133557
 21
55.0359911113
 31
0.0
  0
LINE
  5
1BF
330
1F
100
AcDbEntity
  8
0
  6
Continuous
 62
     7
370
    25
100
AcDbLine
 10
214.0640763128
 20
27.7564953117
 30
0.0
 11
215.4250243929
 21
28.5421539152
 31
0.0
  0
LINE
  5
1C0
330
1F
100
AcDbEntity
  8
0
  6
Continuous
 62
     7
370
    25
100
AcDbLine
 10
215.4250243929
 20
28.5421539152
 30
0.0
 11
215.4250243929
 21
37.5241027973
 31
0.0
  0
LINE
  5
1C1
330
1F
100
AcDbEntity
  8
0
  6
Continuous
 62
     7
370
    25
100
AcDbLine
 10
215.4250243929
 20
37.5241027973
 30
0.0
 11
214.0640763128
 21
36.7384441938
 31
0.0
  0
LINE
  5
1C2
330
1F
100
AcDbEntity
  8
0
  6
Continuous
 62
     7
370
    25
100
AcDbLine
 10
242.0299182679
 20
63.7667389412
 30
0.0
 11
242.0299182679
 21
61.191084589
 31
0.0
  0
LINE
  5
1C3
330
1F
100
AcDbEntity
  8
0
  6
Continuous
 62
     7
370
    25
100
AcDbLine
 10
244.2603795405
 20
62.478702474
 30
0.0
 11
242.0299182679
 21
61.191084589
 31
0.0
  0
LWPOLYLINE
  5
1C4
330
1F
100
AcDbEntity
  8
0
  6
Continuous
 62
     7
370
    25
100
AcDbPolyline
 90
       23
 70
   128
 43
0.0
 10
210.7116672499
 20
39.2362356038
 10
211.1045022198
 20
41.0662492685
 10
211.614675333
 20
42.9193129601
 10
212.2384460568
 20
44.781839459
 10
212.9712414581
 20
46.6401709005
 10
213.8076864965
 20
48.4806795335
 10
214.7416501228
 20
50.2898722796
 10
215.7662808399
 20
52.0544781835
 10
216.8740679476
 20
53.7615628564
 10
218.0568869824
 20
55.3986048983
 10
219.306063596
 20
56.9536004561
 10
220.6124394099
 20
58.4151483887
 10
221.9664345772
 20
59.7725320113
 10
223.3581202223
 20
61.0157958952
 10
224.7772912102
 20
62.1358243786
 10
226.2135414677
 20
63.1244048208
 10
227.6563390981
 20
63.9742861747
 10
229.0951042959
 20
64.6792391744
 10
230.5192869722
 20
65.2340935432
 10
231.9184438048
 20
65.6347809529
 10
233.2823154933
 20
65.8783613711
 10
234.6009000638
 20
65.9630516902
 10
235.642969698
 20
65.9133150746
  0
SPLINE
  5
1C5
330
1F
100
AcDbEntity
  8
0
  6
Continuous
 62
     7
370
    25
100
AcDbSpline
210
0.0
220
0.0
230
1.0
 70
     8
 71
     3
 72
     8
 73
     4
 74
     0
 42
0.000000001
 43
0.00000001
 40
0.0
 40
0.0
 40
0.0
 40
0.0
 40
1.0
 40
1.0
 40
1.0
 40
1.0
 10
210.711667432792
 20
39.23623588726865
 30
0.0
 10
210.2691310789466
 20
39.16454935683939
 30
0.0
 10
209.826521888895
 20
39.09301319123762
 30
0.0
 10
209.3838501826786
 20
39.02160703493292
 30
0.0
  0
LWPOLYLINE
  5
1C6
330
1F
100
AcDbEntity
  8
0
  6
Continuous
 62
     7
370
    25
100
AcDbPolyline
 90
       26
 70
   128
 43
0.0
 10
209.3838498854
 20
39.0216066447
 10
209.7554151847
 20
40.8339111245
 10
210.2378082565
 20
42.6702023719
 10
210.8278575502
 20
44.5184170815
 10
211.5216908242
 20
46.3664182487
 10
212.3147483162
 20
48.2020647508
 10
213.2018222565
 20
50.0133029792
 10
214.177085843
 20
51.7882329968
 10
215.2341340721
 20
53.515198269
 10
216.3660219331
 20
55.1828556225
 10
217.5653164344
 20
56.7802509066
 10
218.8241400665
 20
58.2968927539
 10
220.1342241445
 20
59.7228183556
 10
221.4869637967
 20
61.0486632284
 10
222.8734739405
 20
62.2657163432
 10
224.2846478932
 20
63.3659858993
 10
225.7112162293
 20
64.3422454698
 10
227.1438089718
 20
65.1880805502
 10
228.5730164662
 20
65.8979373886
 10
229.9894513663
 20
66.4671526854
 10
231.3838097143
 20
66.8919873335
 10
232.7469339548
 20
67.1696521488
 10
234.0698695289
 20
67.2983207694
 10
235.3439272711
 20
67.277150467
 10
236.5607397149
 20
67.1062811917
 10
237.7123141055
 20
66.7868311935
  0
LINE
  5
1C7
330
1F
100
AcDbEntity
  8
0
  6
Continuous
 62
     7
370
    25
100
AcDbLine
 10
237.7123141055
 20
66.7868311935
 30
0.0
 11
238.0053736555
 21
65.8528539867
 31
0.0
  0
LINE
  5
1C8
330
1F
100
AcDbEntity
  8
0
  6
Continuous
 62
     7
370
    25
100
AcDbLine
 10
233.5446368199
 20
69.1927800784
 30
0.0
 11
237.7123141055
 21
66.7868311935
 31
0.0
  0
LINE
  5
1C9
330
1F
100
AcDbEntity
  8
0
  6
Continuous
 62
     7
370
    25
100
AcDbLine
 10
209.3838498854
 20
39.0216066447
 30
0.0
 11
208.7517064267
 21
39.3865352957
 31
0.0
  0
SPLINE
  5
1CA
330
1F
100
AcDbEntity
  8
0
  6
Continuous
 62
     7
370
    25
100
AcDbSpline
210
0.0
220
0.0
230
1.0
 70
     8
 71
     3
 72
    30
 73
    26
 74
     0
 42
0.000000001
 43
0.00000001
 40
0.0
 40
0.0
 40
0.0
 40
0.0
 40
0.1250000000000002
 40
0.1250000000000002
 40
0.1875000000000003
 40
0.1875000000000003
 40
0.2500000000000004
 40
0.2500000000000004
 40
0.3750000000000001
 40
0.3750000000000001
 40
0.4374999999999998
 40
0.4374999999999998
 40
0.4999999999999996
 40
0.4999999999999996
 40
0.6249999999999996
 40
0.6249999999999996
 40
0.6874999999999997
 40
0.6874999999999997
 40
0.7499999999999997
 40
0.7499999999999997
 40
0.8124999999999998
 40
0.8124999999999998
 40
0.8749999999999999
 40
0.8749999999999999
 40
1.0
 40
1.0
 40
1.0
 40
1.0
 10
208.751706980743
 20
39.38653553768876
 30
0.0
 10
208.5173913471363
 20
39.5218030737194
 30
0.0
 10
208.2818908706076
 20
39.62506560264876
 30
0.0
 10
207.9273404232179
 20
39.73430834041253
 30
0.0
 10
207.8089461598189
 20
39.76306130240923
 30
0.0
 10
207.5718915147687
 20
39.80501446705893
 30
0.0
 10
207.4530716035328
 20
39.81811960196104
 30
0.0
 10
207.1044277195566
 20
39.83337099097535
 30
0.0
 10
206.8796628769147
 20
39.81229222953335
 30
0.0
 10
206.5554522293109
 20
39.73528917765766
 30
0.0
 10
206.4490361533997
 20
39.70178057262444
 30
0.0
 10
206.2437269234272
 20
39.62024222650081
 30
0.0
 10
206.1451321929195
 20
39.57243662139949
 30
0.0
 10
205.8616341991206
 20
39.40876941184657
 30
0.0
 10
205.6888912254504
 20
39.27285731536999
 30
0.0
 10
205.4567664269543
 20
39.02848617846491
 30
0.0
 10
205.3844524411283
 20
38.94066909325726
 30
0.0
 10
205.2521341270586
 20
38.75528852431699
 30
0.0
 10
205.1917801883379
 20
38.65736752427666
 30
0.0
 10
205.0828170541948
 20
38.45127967357242
 30
0.0
 10
205.0342072290967
 20
38.34311286672816
 30
0.0
 10
204.949171413202
 20
38.11642315322142
 30
0.0
 10
204.912620534027
 20
37.99728272549864
 30
0.0
 10
204.8236262569341
 20
37.62929839704452
 30
0.0
 10
204.791289699954
 20
37.37007327174783
 30
0.0
 10
204.7866037936571
 20
37.09686669031769
 30
0.0
  0
ARC
  5
1CB
330
1F
100
AcDbEntity
  8
0
  6
Continuous
 62
     7
370
    25
100
AcDbCircle
 10
228.3492814146
 20
36.6885964244
 30
0.0
 40
23.566214181976
100
AcDbArc
 50
179.0073355702
 51
180.9926644298
  0
SPLINE
  5
1CC
330
1F
100
AcDbEntity
  8
0
  6
Continuous
 62
     7
370
    25
100
AcDbSpline
210
0.0
220
0.0
230
1.0
 70
     8
 71
     3
 72
    30
 73
    26
 74
     0
 42
0.000000001
 43
0.00000001
 40
0.0
 40
0.0
 40
0.0
 40
0.0
 40
0.1249999999999996
 40
0.1249999999999996
 40
0.1874999999999994
 40
0.1874999999999994
 40
0.2499999999999993
 40
0.2499999999999993
 40
0.3749999999999992
 40
0.3749999999999992
 40
0.4374999999999993
 40
0.4374999999999993
 40
0.4999999999999994
 40
0.4999999999999994
 40
0.6249999999999992
 40
0.6249999999999992
 40
0.6874999999999993
 40
0.6874999999999993
 40
0.7499999999999994
 40
0.7499999999999994
 40
0.8124999999999997
 40
0.8124999999999997
 40
0.8749999999999998
 40
0.8749999999999998
 40
1.0
 40
1.0
 40
1.0
 40
1.0
 10
204.7866037936571
 20
36.28032587843194
 30
0.0
 10
204.7912900403159
 20
36.01251007780021
 30
0.0
 10
204.8235995606346
 20
35.73879391281481
 30
0.0
 10
204.9112576160032
 20
35.3195457656194
 30
0.0
 10
204.9470517873167
 20
35.17833534692709
 30
0.0
 10
205.0319124021692
 20
34.89283473193494
 30
0.0
 10
205.0811650500828
 20
34.74824966710391
 30
0.0
 10
205.2453693862522
 20
34.3191573979523
 30
0.0
 10
205.3774218443126
 20
34.03618458246847
 30
0.0
 10
205.6074724118315
 20
33.61518067173132
 30
0.0
 10
205.6899354503254
 20
33.47477560185753
 30
0.0
 10
205.8636871855445
 20
33.19811130776331
 30
0.0
 10
205.9544887773781
 20
33.06252675871693
 30
0.0
 10
206.2378832496095
 20
32.66342969195729
 30
0.0
 10
206.4413631242766
 20
32.4075027489501
 30
0.0
 10
206.7672711115253
 20
32.03787676891442
 30
0.0
 10
206.8790117269864
 20
31.9175579217289
 30
0.0
 10
207.1043158311238
 20
31.6867203235981
 30
0.0
 10
207.2184384786029
 20
31.57555772951855
 30
0.0
 10
207.4493482651673
 20
31.36148392034357
 30
0.0
 10
207.566135681176
 20
31.2585727936091
 30
0.0
 10
207.8022186436458
 20
31.06101462669388
 30
0.0
 10
207.9220960180356
 20
30.9659428540885
 30
0.0
 10
208.2805792731994
 20
30.69713777548592
 30
0.0
 10
208.5173879397626
 20
30.53985611001114
 30
0.0
 10
208.751706980743
 20
30.40458660694552
 30
0.0
  0
LINE
  5
1CD
330
1F
100
AcDbEntity
  8
0
  6
Continuous
 62
     7
370
    25
100
AcDbLine
 10
208.7517064267
 20
30.4045864136
 30
0.0
 11
209.3838498854
 21
30.0396577627
 31
0.0
  0
LWPOLYLINE
  5
1CE
330
1F
100
AcDbEntity
  8
0
  6
Continuous
 62
     7
370
    25
100
AcDbPolyline
 90
        9
 70
   128
 43
0.0
 10
215.3360372492
 20
22.26103689
 10
214.2926103548
 20
22.7427116122
 10
213.2925657384
 20
23.3871000294
 10
212.3829656247
 20
24.1745785436
 10
211.5699779417
 20
25.0998088869
 10
210.8591160238
 20
26.1565136814
 10
210.2552030511
 20
27.3375289139
 10
209.7623338533
 20
28.634843104
 10
209.3838498854
 20
30.0396577627
  0
LINE
  5
1CF
330
1F
100
AcDbEntity
  8
0
  6
Continuous
 62
     7
370
    25
100
AcDbLine
 10
239.6642663689
 20
65.6594888134
 30
0.0
 11
240.0166772427
 21
65.4560463463
 31
0.0
  0
SPLINE
  5
1D0
330
1F
100
AcDbEntity
  8
0
  6
Continuous
 62
     7
370
    25
100
AcDbSpline
210
0.0
220
0.0
230
1.0
 70
     8
 71
     3
 72
    22
 73
    18
 74
     0
 42
0.000000001
 43
0.00000001
 40
0.0
 40
0.0
 40
0.0
 40
0.0
 40
0.2500000000000002
 40
0.2500000000000002
 40
0.3750000000000003
 40
0.3750000000000003
 40
0.5000000000000004
 40
0.5000000000000004
 40
0.6250000000000004
 40
0.6250000000000004
 40
0.7500000000000004
 40
0.7500000000000004
 40
0.8750000000000004
 40
0.8750000000000004
 40
0.9375000000000002
 40
0.9375000000000002
 40
1.0
 40
1.0
 40
1.0
 40
1.0
 10
233.5446362308899
 20
69.19278041239981
 30
0.0
 10
233.976668326429
 20
69.02450997429338
 30
0.0
 10
234.4270429747944
 20
68.81383396941318
 30
0.0
 10
235.1520164164787
 20
68.42873973315652
 30
0.0
 10
235.403983740198
 20
68.28761419488075
 30
0.0
 10
235.9167758533303
 20
67.98859722566355
 30
0.0
 10
236.1782971653894
 20
67.83043138830776
 30
0.0
 10
236.715871846988
 20
67.49783144697028
 30
0.0
 10
236.9938343916508
 20
67.32213363560425
 30
0.0
 10
237.5464403103962
 20
66.97049071951086
 30
0.0
 10
237.8234362355675
 20
66.79311189038815
 30
0.0
 10
238.3816238154642
 20
66.43880147107559
 30
0.0
 10
238.651799904624
 20
66.26894363136313
 30
0.0
 10
239.0432672197205
 20
66.02837464638841
 30
0.0
 10
239.1715144498284
 20
65.95050676384002
 30
0.0
 10
239.4233760890098
 20
65.79990046834158
 30
0.0
 10
239.5462683228562
 20
65.72760762913066
 30
0.0
 10
239.6642669817156
 20
65.65948845332856
 30
0.0
  0
LWPOLYLINE
  5
1D1
330
1F
100
AcDbEntity
  8
0
  6
Continuous
 62
     7
370
    25
100
AcDbPolyline
 90
       10
 70
   128
 43
0.0
 10
223.3619539185
 20
69.4409605202
 10
224.4234130787
 20
69.8421701158
 10
225.8056611224
 20
70.2467040125
 10
227.1560125629
 20
70.5056628293
 10
228.4657100754
 20
70.6173644835
 10
229.7262597526
 20
70.5810880929
 10
230.9294857646
 20
70.3970659856
 10
232.0675850175
 20
70.0664939611
 10
233.1331772029
 20
69.5915130348
 10
233.3864086397
 20
69.4511321584
  0
LWPOLYLINE
  5
1D2
330
1F
100
AcDbEntity
  8
0
  6
Continuous
 62
     7
370
    25
100
AcDbPolyline
 90
        9
 70
   128
 43
0.0
 10
208.3884410724
 20
26.1486887962
 10
207.6554994743
 20
26.6246141827
 10
206.7551400572
 20
27.3782519916
 10
205.9464342305
 20
28.2643310221
 10
205.2346253256
 20
29.2771054851
 10
204.6243323737
 20
30.4100083501
 10
204.1195105931
 20
31.655690893
 10
203.7234369013
 20
33.0060759301
 10
203.5008738823
 20
34.0734292955
  0
LINE
  5
1D3
330
1F
100
AcDbEntity
  8
0
  6
Continuous
 62
     7
370
    25
100
AcDbLine
 10
253.9178738347
 20
37.963922955
 30
0.0
 11
254.055253463
 21
37.8898847053
 31
0.0
  0
LINE
  5
1D4
330
1F
100
AcDbEntity
  8
0
  6
Continuous
 62
     7
370
    25
100
AcDbLine
 10
246.216358145
 20
23.9476238282
 30
0.0
 11
246.0559034464
 21
24.0331029359
 31
0.0
  0
LWPOLYLINE
  5
1D5
330
1F
100
AcDbEntity
  8
0
  6
Continuous
 62
     7
370
    25
100
AcDbPolyline
 90
       24
 70
   128
 43
0.0
 10
238.8080600561
 20
28.2171938642
 10
238.5629695466
 20
28.3771897367
 10
238.072444438
 20
28.8383414877
 10
237.6790055828
 20
29.4288086382
 10
237.3907191633
 20
30.1364848127
 10
237.2134962752
 20
30.9468611553
 10
237.1509701083
 20
31.843322417
 10
237.2044228489
 20
32.807488939
 10
237.3727583497
 20
33.8195926924
 10
237.6525255081
 20
34.8588827092
 10
238.0379880723
 20
35.9040510726
 10
238.521243508
 20
36.9336688697
 10
239.0923833547
 20
37.92662582
 10
239.7396977032
 20
38.8625641
 10
240.4499152353
 20
39.7222948638
 10
241.2084742148
 20
40.488190047
 10
241.9998224546
 20
41.1445479304
 10
242.8077350644
 20
41.6779115542
 10
243.6156476743
 20
42.0773439746
 10
244.4069959141
 20
42.3346573209
 10
245.1655548936
 20
42.4445756932
 10
245.8757724257
 20
42.4048446377
 10
246.5230867742
 20
42.2162795962
 10
246.8074100728
 20
42.0739756336
  0
LWPOLYLINE
  5
1D6
330
1F
100
AcDbEntity
  8
0
  6
Continuous
 62
     7
370
    25
100
AcDbPolyline
 90
       18
 70
   128
 43
0.0
 10
248.2305160288
 20
33.0361647776
 10
248.1708293412
 20
33.3704191993
 10
247.9998303572
 20
33.5906177691
 10
247.7406134094
 20
33.6670218443
 10
247.4281870532
 20
33.5893122708
 10
247.1047462108
 20
33.3679840401
 10
246.8139737859
 20
33.0329293209
 10
246.5951397751
 20
32.6293990047
 10
246.4777989976
 20
32.2118915531
 10
246.4777989976
 20
31.8367939925
 10
246.5951397751
 20
31.5547655089
 10
246.8139737859
 20
31.4038953734
 10
247.1047462108
 20
31.4045593501
 10
247.4281870532
 20
31.5566681572
 10
247.7406134094
 20
31.8396783765
 10
247.9998303572
 20
32.215367779
 10
248.1708293412
 20
32.6329977634
 10
248.2305160288
 20
33.0361647776
  0
LINE
  5
1D7
330
1F
100
AcDbEntity
  8
0
  6
Continuous
 62
     7
370
    25
100
AcDbLine
 10
211.0327682836
 20
39.4216032849
 30
0.0
 11
210.7116672499
 21
39.2362356038
 31
0.0
  0
LINE
  5
1D8
330
1F
100
AcDbEntity
  8
0
  6
Continuous
 62
     7
370
    25
100
AcDbLine
 10
211.9934174505
 20
39.2031889766
 30
0.0
 11
211.6067629208
 21
39.4263998854
 31
0.0
  0
SPLINE
  5
1D9
330
1F
100
AcDbEntity
  8
0
  6
Continuous
 62
     7
370
    25
100
AcDbSpline
210
0.0
220
0.0
230
1.0
 70
     8
 71
     3
 72
    12
 73
     8
 74
     0
 42
0.000000001
 43
0.00000001
 40
0.0
 40
0.0
 40
0.0
 40
0.0
 40
0.25
 40
0.25
 40
0.5
 40
0.5
 40
1.0
 40
1.0
 40
1.0
 40
1.0
 10
211.6067630874842
 20
39.42640036513453
 30
0.0
 10
211.5693710499013
 20
39.44798632896096
 30
0.0
 10
211.5232227390464
 20
39.46542646398342
 30
0.0
 10
211.4245229016638
 20
39.48788259229774
 30
0.0
 10
211.3710113353684
 20
39.49326889789837
 30
0.0
 10
211.212413915667
 20
39.49118773908825
 30
0.0
 10
211.1076998210492
 20
39.46486051859745
 30
0.0
 10
211.0327679825225
 20
39.42160328897197
 30
0.0
  0
SPLINE
  5
1DA
330
1F
100
AcDbEntity
  8
0
  6
Continuous
 62
     7
370
    25
100
AcDbSpline
210
0.0
220
0.0
230
1.0
 70
    11
 71
     3
 72
    31
 73
    27
 74
     0
 42
0.000000001
 43
0.00000001
 40
0.0
 40
0.0
 40
0.0
 40
0.0
 40
0.0347003616375516
 40
0.0763700879240298
 40
0.1250102849548048
 40
0.173618675533373
 40
0.2153305103250084
 40
0.2501472674593001
 40
0.3048128259643369
 40
0.3747960779142084
 40
0.4120242753765024
 40
0.4452954180931342
 40
0.4746116507831711
 40
0.4999790827475387
 40
0.5546721442269684
 40
0.6248607333976525
 40
0.6619857372023268
 40
0.6952226141726394
 40
0.7245737666669188
 40
0.7500454930139131
 40
0.8047024067725026
 40
0.8747081814519679
 40
0.9119434072369261
 40
0.9452350051812776
 40
0.9745851597295945
 40
1.0
 40
1.0
 40
1.0
 40
1.0
 10
226.1139405038141
 20
43.34102272213632
 30
0.0
 10
226.1780923884567
 20
43.30399640456984
 30
0.0
 10
226.3281930195103
 20
43.24254195983554
 30
0.0
 10
226.596275794046
 20
43.21782955544681
 30
0.0
 10
226.9024409197301
 20
43.2918634780386
 30
0.0
 10
227.1923736978389
 20
43.46670036869492
 30
0.0
 10
227.4200781923923
 20
43.69342277790573
 30
0.0
 10
227.6147586759872
 20
43.97698331464296
 30
0.0
 10
227.7795710293595
 20
44.36498322432364
 30
0.0
 10
227.8122091645536
 20
44.77232186672592
 30
0.0
 10
227.7343079843013
 20
45.08108274556108
 30
0.0
 10
227.6309245971015
 20
45.27209678001768
 30
0.0
 10
227.5058803446662
 20
45.41071414642602
 30
0.0
 10
227.3176597523726
 20
45.5460978275603
 30
0.0
 10
226.998963650406
 20
45.65221369556047
 30
0.0
 10
226.606814210705
 20
45.60779615021885
 30
0.0
 10
226.2879382169701
 20
45.45738460700944
 30
0.0
 10
226.082833816126
 20
45.30326219674006
 30
0.0
 10
225.9260004774351
 20
45.13538091422271
 30
0.0
 10
225.764636495876
 20
44.89840108537796
 30
0.0
 10
225.6214604341103
 20
44.52598045183404
 30
0.0
 10
225.6163626247651
 20
44.10284457115519
 30
0.0
 10
225.7194760807917
 20
43.7795595985353
 30
0.0
 10
225.8366390390672
 20
43.58065119235597
 30
0.0
 10
225.970389825657
 20
43.43709942374768
 30
0.0
 10
226.0669551173715
 20
43.36814111233011
 30
0.0
 10
226.1139405038141
 20
43.34102272213632
 30
0.0
  0
ARC
  5
1DB
330
1F
100
AcDbEntity
  8
0
  6
Continuous
 62
     7
370
    25
100
AcDbCircle
 10
242.3768572105
 20
35.3605418048
 30
0.0
 40
39.37131105272254
100
AcDbArc
 50
126.9752822441
 51
171.5399852449
  0
ARC
  5
1DC
330
1F
100
AcDbEntity
  8
0
  6
Continuous
 62
     7
370
    25
100
AcDbCircle
 10
249.1704751787
 20
31.4514677926
 30
0.0
 40
13.18412192329633
100
AcDbArc
 50
128.5773853631
 51
167.4341385554
  0
ARC
  5
1DD
330
1F
100
AcDbEntity
  8
0
  6
Continuous
 62
     7
370
    25
100
AcDbCircle
 10
244.8324437329
 20
38.338170748
 30
0.0
 40
4.199501029258579
100
AcDbArc
 50
81.1734111039
 51
116.4198242472
  0
ARC
  5
1DE
330
1F
100
AcDbEntity
  8
0
  6
Continuous
 62
     7
370
    25
100
AcDbCircle
 10
240.3043013708
 20
31.3612953666
 30
0.0
 40
3.344550170859038
100
AcDbArc
 50
200.3374915852
 51
221.1054878609
  0
LWPOLYLINE
  5
1DF
330
1F
100
AcDbEntity
  8
0
  6
Continuous
 62
     7
370
    25
100
AcDbPolyline
 90
        3
 70
   128
 43
0.0
 10
236.8920653106
 20
31.2973958416
 10
236.8915954391
 20
31.3008040902
 10
236.8325539605
 20
32.1982442457
  0
LWPOLYLINE
  5
1E0
330
1F
100
AcDbEntity
  8
0
  6
Continuous
 62
     7
370
    25
100
AcDbPolyline
 90
       17
 70
   128
 43
0.0
 10
236.7848792894
 20
32.2341117317
 10
236.8438437183
 20
33.1984599328
 10
237.0194798435
 20
34.2103333412
 10
237.3080448273
 20
35.2481658659
 10
237.7033878639
 20
36.2898378345
 10
238.1970832058
 20
37.313147753
 10
238.7786082994
 20
38.2962853925
 10
239.4355693371
 20
39.2182973609
 10
240.1539643456
 20
40.0595323296
 10
240.9184816711
 20
40.8020608758
 10
241.7128270293
 20
41.430057062
 10
242.5200703933
 20
41.9301359533
 10
243.3230067939
 20
42.291640231
 10
244.1045229642
 20
42.5068643998
 10
244.8479622557
 20
42.5712213419
 10
245.5374797583
 20
42.4833397185
 10
245.6519752942
 20
42.4522539897
  0
ARC
  5
1E1
330
1F
100
AcDbEntity
  8
0
  6
Continuous
 62
     7
370
    25
100
AcDbCircle
 10
240.1549254389
 20
31.3386094376
 30
0.0
 40
3.226264517644598
100
AcDbArc
 50
202.2476762693
 51
225.725174014
  0
LINE
  5
1E2
330
1F
100
AcDbEntity
  8
0
  6
Continuous
 62
     7
370
    25
100
AcDbLine
 10
236.8395421056
 20
31.369760583
 30
0.0
 11
236.7848792894
 21
32.2341117317
 31
0.0
  0
LINE
  5
1E3
330
1F
100
AcDbEntity
  8
0
  6
Continuous
 62
     7
370
    25
100
AcDbLine
 10
210.4752767719
 20
31.3995823948
 30
0.0
 11
215.4250243929
 21
28.5421539152
 31
0.0
  0
ARC
  5
1E4
330
1F
100
AcDbEntity
  8
0
  6
Continuous
 62
     7
370
    25
100
AcDbCircle
 10
214.6158232826
 20
37.8726108491
 30
0.0
 40
7.684023866253022
100
AcDbArc
 50
182.6054781208
 51
237.3945216397
  0
LINE
  5
1E5
330
1F
100
AcDbEntity
  8
0
  6
Continuous
 62
     7
370
    25
100
AcDbLine
 10
206.939742945
 20
38.3398474951
 30
0.0
 11
206.939742945
 21
37.5233066444
 31
0.0
  0
ARC
  5
1E6
330
1F
100
AcDbEntity
  8
0
  6
Continuous
 62
     7
370
    25
100
AcDbCircle
 10
210.122305983
 20
38.4571354592
 30
0.0
 40
3.184723529224062
100
AcDbArc
 50
154.2193903509
 51
182.1105836363
  0
SPLINE
  5
1E7
330
1F
100
AcDbEntity
  8
0
  6
Continuous
 62
     7
370
    25
100
AcDbSpline
210
0.0
220
0.0
230
1.0
 70
     8
 71
     3
 72
     8
 73
     4
 74
     0
 42
0.000000001
 43
0.00000001
 40
0.0
 40
0.0
 40
0.0
 40
0.0
 40
1.0
 40
1.0
 40
1.0
 40
1.0
 10
195.1839730098949
 20
42.83317758714442
 30
0.0
 10
195.6508352355617
 20
42.45293599988247
 30
0.0
 10
196.1178700199451
 20
42.08602935133963
 30
0.0
 10
196.5849951321205
 20
41.72610302574768
 30
0.0
  0
SPLINE
  5
1E8
330
1F
100
AcDbEntity
  8
0
  6
Continuous
 62
     7
370
    25
100
AcDbSpline
210
0.0
220
0.0
230
1.0
 70
     8
 71
     3
 72
    14
 73
    10
 74
     0
 42
0.000000001
 43
0.00000001
 40
0.0
 40
0.0
 40
0.0
 40
0.0
 40
0.1249999999999987
 40
0.1249999999999987
 40
0.2499999999999973
 40
0.2499999999999973
 40
0.4999999999999947
 40
0.4999999999999947
 40
1.0
 40
1.0
 40
1.0
 40
1.0
 10
196.5849951321205
 20
41.72610302574763
 30
0.0
 10
196.6114190707937
 20
41.70574301746201
 30
0.0
 10
196.6354830132985
 20
41.69023071414736
 30
0.0
 10
196.6717522707236
 20
41.673247345588
 30
0.0
 10
196.6837706457118
 20
41.67137310418207
 30
0.0
 10
196.7092848923822
 20
41.67551394551731
 30
0.0
 10
196.7134785548303
 20
41.69045633358031
 30
0.0
 10
196.7145853645658
 20
41.74480766992546
 30
0.0
 10
196.6989573794772
 20
41.79622863060147
 30
0.0
 10
196.6793046468436
 20
41.85257745818743
 30
0.0
  0
SPLINE
  5
1E9
330
1F
100
AcDbEntity
  8
0
  6
Continuous
 62
     7
370
    25
100
AcDbSpline
210
0.0
220
0.0
230
1.0
 70
     8
 71
     3
 72
    14
 73
    10
 74
     0
 42
0.000000001
 43
0.00000001
 40
0.0
 40
0.0
 40
0.0
 40
0.0
 40
0.25
 40
0.25
 40
0.5
 40
0.5
 40
0.75
 40
0.75
 40
1.0
 40
1.0
 40
1.0
 40
1.0
 10
196.6793046468431
 20
41.8525774581878
 30
0.0
 10
196.6546387989051
 20
41.92330002072561
 30
0.0
 10
196.6437759281807
 20
41.98636631847581
 30
0.0
 10
196.6218255609858
 20
42.11793305943441
 30
0.0
 10
196.6115539661668
 20
42.18588639842609
 30
0.0
 10
196.5822499518083
 20
42.33449140226952
 30
0.0
 10
196.5634572805786
 20
42.41495520870039
 30
0.0
 10
196.5105379760624
 20
42.59452608251473
 30
0.0
 10
196.4764587988834
 20
42.69335712844259
 30
0.0
 10
196.4323725466057
 20
42.80095718342186
 30
0.0
  0
LWPOLYLINE
  5
1EA
330
1F
100
AcDbEntity
  8
0
  6
Continuous
 62
     7
370
    25
100
AcDbPolyline
 90
        9
 70
   128
 43
0.0
 10
196.4323722678
 20
42.8009573359
 10
196.0642919859
 20
43.8721027156
 10
195.7991632841
 20
45.036105593
 10
195.6391962377
 20
46.2832568358
 10
195.5857250578
 20
47.6031534718
 10
195.6391962377
 20
48.9847866179
 10
195.7991632841
 20
50.4166318812
 10
196.0642919859
 20
51.8867458419
 10
196.4323722678
 20
53.3828676692
  0
SPLINE
  5
1EB
330
1F
100
AcDbEntity
  8
0
  6
Continuous
 62
     7
370
    25
100
AcDbSpline
210
0.0
220
0.0
230
1.0
 70
     8
 71
     3
 72
    14
 73
    10
 74
     0
 42
0.000000001
 43
0.00000001
 40
0.0
 40
0.0
 40
0.0
 40
0.0
 40
0.25
 40
0.25
 40
0.5
 40
0.5
 40
0.75
 40
0.75
 40
1.0
 40
1.0
 40
1.0
 40
1.0
 10
196.6793046468431
 20
55.43636785749631
 30
0.0
 10
196.6546387989051
 20
55.26469532600345
 30
0.0
 10
196.6437759281807
 20
55.08971559382785
 30
0.0
 10
196.6218255609858
 20
54.74090909018665
 30
0.0
 10
196.6115539661668
 20
54.56669499825087
 30
0.0
 10
196.5822499518083
 20
54.22064408629977
 30
0.0
 10
196.5634572805786
 20
54.04876123238453
 30
0.0
 10
196.5105379760624
 20
53.70872956349031
 30
0.0
 10
196.4764587988834
 20
53.54136870299319
 30
0.0
 10
196.4323725466057
 20
53.38286774459024
 30
0.0
  0
SPLINE
  5
1EC
330
1F
100
AcDbEntity
  8
0
  6
Continuous
 62
     7
370
    25
100
AcDbSpline
210
0.0
220
0.0
230
1.0
 70
     8
 71
     3
 72
    14
 73
    10
 74
     0
 42
0.000000001
 43
0.00000001
 40
0.0
 40
0.0
 40
0.0
 40
0.0
 40
0.124999999999999
 40
0.124999999999999
 40
0.249999999999998
 40
0.249999999999998
 40
0.5000000000000007
 40
0.5000000000000007
 40
1.0
 40
1.0
 40
1.0
 40
1.0
 10
196.5849951321206
 20
56.18511160113897
 30
0.0
 10
196.6114190707937
 20
56.18080530186676
 30
0.0
 10
196.6354830132985
 20
56.16492179532634
 30
0.0
 10
196.6717522707236
 20
56.11577722243494
 30
0.0
 10
196.6837706457118
 20
56.08476586708261
 30
0.0
 10
196.7092848923822
 20
55.98790732521517
 30
0.0
 10
196.7134785548303
 20
55.91762670433901
 30
0.0
 10
196.7145853645658
 20
55.71122530226114
 30
0.0
 10
196.6989573794772
 20
55.57314946623897
 30
0.0
 10
196.6793046468436
 20
55.43636785749622
 30
0.0
  0
SPLINE
  5
1ED
330
1F
100
AcDbEntity
  8
0
  6
Continuous
 62
     7
370
    25
100
AcDbSpline
210
0.0
220
0.0
230
1.0
 70
     8
 71
     3
 72
     8
 73
     4
 74
     0
 42
0.000000001
 43
0.00000001
 40
0.0
 40
0.0
 40
0.0
 40
0.0
 40
1.0
 40
1.0
 40
1.0
 40
1.0
 10
195.1839730098949
 20
56.35432449502393
 30
0.0
 10
195.6508352355617
 20
56.32223474095863
 30
0.0
 10
196.1178700199452
 20
56.26123880365297
 30
0.0
 10
196.5849951321206
 20
56.18511160113898
 30
0.0
  0
SPLINE
  5
1EE
330
1F
100
AcDbEntity
  8
0
  6
Continuous
 62
     7
370
    25
100
AcDbSpline
210
0.0
220
0.0
230
1.0
 70
     8
 71
     3
 72
    14
 73
    10
 74
     0
 42
0.000000001
 43
0.00000001
 40
0.0
 40
0.0
 40
0.0
 40
0.0
 40
0.4999999999999972
 40
0.4999999999999972
 40
0.7499999999999971
 40
0.7499999999999971
 40
0.8749999999999986
 40
0.8749999999999986
 40
1.0
 40
1.0
 40
1.0
 40
1.0
 10
192.3394356326769
 20
57.27890637118614
 30
0.0
 10
192.8044701653919
 20
57.0825611219253
 30
0.0
 10
193.2713260866735
 20
56.89490861045725
 30
0.0
 10
193.978352472278
 20
56.64489065351281
 30
0.0
 10
194.2151374551691
 20
56.56672939571398
 30
0.0
 10
194.5739180933006
 20
56.466162130319
 30
0.0
 10
194.6941169173017
 20
56.43544063406736
 30
0.0
 10
194.9367190154115
 20
56.3841659276828
 30
0.0
 10
195.0589707730003
 20
56.36291651814982
 30
0.0
 10
195.1839730098949
 20
56.35432449502388
 30
0.0
  0
SPLINE
  5
1EF
330
1F
100
AcDbEntity
  8
0
  6
Continuous
 62
     7
370
    25
100
AcDbSpline
210
0.0
220
0.0
230
1.0
 70
     8
 71
     3
 72
    14
 73
    10
 74
     0
 42
0.000000001
 43
0.00000001
 40
0.0
 40
0.0
 40
0.0
 40
0.0
 40
0.4999999999999986
 40
0.4999999999999986
 40
0.7499999999999978
 40
0.7499999999999978
 40
0.8749999999999989
 40
0.8749999999999989
 40
1.0
 40
1.0
 40
1.0
 40
1.0
 10
192.3394356326769
 20
44.95596239531174
 30
0.0
 10
192.8044701653919
 20
44.62111707907337
 30
0.0
 10
193.2713260866735
 20
44.28232890400184
 30
0.0
 10
193.978352472278
 20
43.76003315696911
 30
0.0
 10
194.2151374551691
 20
43.58361144887873
 30
0.0
 10
194.5739180933006
 20
43.3115292973598
 30
0.0
 10
194.6941169173017
 20
43.21958393600288
 30
0.0
 10
194.9367190154115
 20
43.03115791517258
 30
0.0
 10
195.0589707730003
 20
42.93498717111793
 30
0.0
 10
195.1839730098949
 20
42.83317758714444
 30
0.0
  0
SPLINE
  5
1F0
330
1F
100
AcDbEntity
  8
0
  6
Continuous
 62
     7
370
    25
100
AcDbSpline
210
0.0
220
0.0
230
1.0
 70
     8
 71
     3
 72
    17
 73
    13
 74
     0
 42
0.000000001
 43
0.00000001
 40
0.0
 40
0.0
 40
0.0
 40
0.0
 40
0.1210463440495578
 40
0.2425187909023373
 40
0.3639675335997526
 40
0.4849618595434729
 40
0.6052767686577352
 40
0.6658940149076745
 40
0.7257648163326996
 40
0.8459240471189718
 40
0.9666431201826035
 40
1.0
 40
1.0
 40
1.0
 40
1.0
 10
200.7976787601933
 20
42.51218655792818
 30
0.0
 10
200.5939104785117
 20
42.88607614932405
 30
0.0
 10
200.1856566176811
 20
43.63517148424117
 30
0.0
 10
199.9923891154662
 20
44.78348988519076
 30
0.0
 10
200.1977478199519
 20
45.73582708704585
 30
0.0
 10
200.7570520104338
 20
46.36929956172058
 30
0.0
 10
201.4328998065264
 20
46.51058824345599
 30
0.0
 10
202.0078866507542
 20
46.38443262224612
 30
0.0
 10
202.5877269899724
 20
46.09620323005084
 30
0.0
 10
203.2543900688997
 20
45.43875948519047
 30
0.0
 10
203.7822661393568
 20
44.62000284240085
 30
0.0
 10
203.9396868021227
 20
44.10519623560219
 30
0.0
 10
203.9737677993871
 20
43.99374248963415
 30
0.0
  0
SPLINE
  5
1F1
330
1F
100
AcDbEntity
  8
0
  6
Continuous
 62
     7
370
    25
100
AcDbSpline
210
0.0
220
0.0
230
1.0
 70
     8
 71
     3
 72
    12
 73
     8
 74
     0
 42
0.000000001
 43
0.00000001
 40
0.0
 40
0.0
 40
0.0
 40
0.0
 40
0.0333064622260565
 40
0.3546555489628962
 40
0.5150097167787786
 40
0.677517930522407
 40
1.0
 40
1.0
 40
1.0
 40
1.0
 10
203.2967260932642
 20
40.47943042982619
 30
0.0
 10
203.2753762592534
 20
40.47585259335244
 30
0.0
 10
203.0480378811941
 20
40.43775489477114
 30
0.0
 10
202.5757786314641
 20
40.70117671892968
 30
0.0
 10
202.0071613540475
 20
41.11041211100713
 30
0.0
 10
201.4236927198751
 20
41.64668608862536
 30
0.0
 10
201.0476913786629
 20
42.16652966758173
 30
0.0
 10
200.7976787601933
 20
42.51218655792818
 30
0.0
  0
ARC
  5
1F2
330
1F
100
AcDbEntity
  8
0
  6
Continuous
 62
     7
370
    25
100
AcDbCircle
 10
222.4317713127
 20
28.0608321575
 30
0.0
 40
8.668963307994563
100
AcDbArc
 50
216.2656023193
 51
263.8181095799
  0
SPLINE
  5
1F3
330
1F
100
AcDbEntity
  8
0
  6
Continuous
 62
     7
370
    25
100
AcDbSpline
210
0.0
220
0.0
230
1.0
 70
     8
 71
     3
 72
    14
 73
    10
 74
     0
 42
0.000000001
 43
0.00000001
 40
0.0
 40
0.0
 40
0.0
 40
0.0
 40
0.25
 40
0.25
 40
0.5
 40
0.5
 40
0.75
 40
0.75
 40
1.0
 40
1.0
 40
1.0
 40
1.0
 10
213.3479010584555
 20
27.75126024352171
 30
0.0
 10
213.3951222218791
 20
27.72400004612687
 30
0.0
 10
213.4514089813105
 20
27.70271811460272
 30
0.0
 10
213.5748383293838
 20
27.67436348477159
 30
0.0
 10
213.6414916528437
 20
27.66752010243143
 30
0.0
 10
213.7736165297854
 20
27.66900221806063
 30
0.0
 10
213.8399758857701
 20
27.67739274974684
 30
0.0
 10
213.9612301178909
 20
27.70751107321821
 30
0.0
 10
214.0173412203681
 20
27.72951576705902
 30
0.0
 10
214.0640757938955
 20
27.75649506208597
 30
0.0
  0
LINE
  5
1F4
330
1F
100
AcDbEntity
  8
0
  6
Continuous
 62
     7
370
    25
100
AcDbLine
 10
211.6904527325
 20
28.7080842824
 30
0.0
 11
213.3479005992
 21
27.7512599955
 31
0.0
  0
SPLINE
  5
1F5
330
1F
100
AcDbEntity
  8
0
  6
Continuous
 62
     7
370
    25
100
AcDbSpline
210
0.0
220
0.0
230
1.0
 70
     8
 71
     3
 72
     8
 73
     4
 74
     0
 42
0.000000001
 43
0.00000001
 40
0.0
 40
0.0
 40
0.0
 40
0.0
 40
1.0
 40
1.0
 40
1.0
 40
1.0
 10
212.0622413848583
 20
29.47461720973472
 30
0.0
 10
211.9380632169734
 20
29.21914641050864
 30
0.0
 10
211.8141455168316
 20
28.96363356383568
 30
0.0
 10
211.6904530237994
 20
28.70808462734901
 30
0.0
  0
LINE
  5
1F6
330
1F
100
AcDbEntity
  8
0
  6
Continuous
 62
     7
370
    25
100
AcDbLine
 10
212.3833423122
 20
29.6599846119
 30
0.0
 11
212.0622412785
 21
29.4746169308
 31
0.0
  0
SPLINE
  5
1F7
330
1F
100
AcDbEntity
  8
0
  6
Continuous
 62
     7
370
    25
100
AcDbSpline
210
0.0
220
0.0
230
1.0
 70
     8
 71
     3
 72
    12
 73
     8
 74
     0
 42
0.000000001
 43
0.00000001
 40
0.0
 40
0.0
 40
0.0
 40
0.0
 40
0.250000000000003
 40
0.250000000000003
 40
0.500000000000006
 40
0.500000000000006
 40
1.0
 40
1.0
 40
1.0
 40
1.0
 10
212.3916516146013
 20
29.99134493232967
 30
0.0
 10
212.4290436521841
 20
29.96975896850324
 30
0.0
 10
212.4592541255016
 20
29.94311811571317
 30
0.0
 10
212.4981534955111
 20
29.88613991240737
 30
0.0
 10
212.507483861441
 20
29.85524834273055
 30
0.0
 10
212.5038787980271
 20
29.76369200116848
 30
0.0
 10
212.4582737731155
 20
29.70324184106347
 30
0.0
 10
212.3833419345887
 20
29.65998461143799
 30
0.0
  0
LINE
  5
1F8
330
1F
100
AcDbEntity
  8
0
  6
Continuous
 62
     7
370
    25
100
AcDbLine
 10
211.6067629208
 20
30.4444510034
 30
0.0
 11
212.3916511683
 21
29.9913446627
 31
0.0
  0
SPLINE
  5
1F9
330
1F
100
AcDbEntity
  8
0
  6
Continuous
 62
     7
370
    25
100
AcDbSpline
210
0.0
220
0.0
230
1.0
 70
     8
 71
     3
 72
    14
 73
    10
 74
     0
 42
0.000000001
 43
0.00000001
 40
0.0
 40
0.0
 40
0.0
 40
0.0
 40
0.25
 40
0.25
 40
0.5
 40
0.5
 40
0.75
 40
0.75
 40
1.0
 40
1.0
 40
1.0
 40
1.0
 10
211.0327679825225
 20
30.43965435822872
 30
0.0
 10
211.070613780301
 20
30.46150227224033
 30
0.0
 10
211.1149326974489
 20
30.47887491702924
 30
0.0
 10
211.212634234001
 20
30.50323639172111
 30
0.0
 10
211.2653873656128
 20
30.50995035625267
 30
0.0
 10
211.3713407228412
 20
30.51130780583868
 30
0.0
 10
211.4247050091366
 20
30.50593010469959
 30
0.0
 10
211.5238827839083
 20
30.48328916118374
 30
0.0
 10
211.5688896773096
 20
30.46631528869988
 30
0.0
 10
211.6067630874842
 20
30.44445143439128
 30
0.0
  0
LINE
  5
1FA
330
1F
100
AcDbEntity
  8
0
  6
Continuous
 62
     7
370
    25
100
AcDbLine
 10
210.7116672499
 20
30.2542867218
 30
0.0
 11
211.0327682836
 21
30.4396544029
 31
0.0
  0
SPLINE
  5
1FB
330
1F
100
AcDbEntity
  8
0
  6
Continuous
 62
     7
370
    25
100
AcDbSpline
210
0.0
220
0.0
230
1.0
 70
     8
 71
     3
 72
     8
 73
     4
 74
     0
 42
0.000000001
 43
0.00000001
 40
0.0
 40
0.0
 40
0.0
 40
0.0
 40
1.0
 40
1.0
 40
1.0
 40
1.0
 10
209.3838501826786
 20
30.03965810418967
 30
0.0
 10
209.826521888895
 20
30.11106426049438
 30
0.0
 10
210.2691310789466
 20
30.18260042609615
 30
0.0
 10
210.711667432792
 20
30.2542869565254
 30
0.0
  0
LWPOLYLINE
  5
1FC
330
1F
100
AcDbEntity
  8
0
  6
Continuous
 62
     7
370
    25
100
AcDbPolyline
 90
        8
 70
   128
 43
0.0
 10
216.4360337754
 20
21.5029124169
 10
215.5991685856
 20
22.0555265491
 10
214.6895684719
 20
22.8430050633
 10
213.8765807888
 20
23.7682354066
 10
213.1657188709
 20
24.8249402011
 10
212.5618058982
 20
26.0059554336
 10
212.0689367005
 20
27.3032696237
 10
211.6904527325
 20
28.7080842824
  0
ARC
  5
1FD
330
1F
100
AcDbEntity
  8
0
  6
Continuous
 62
     7
370
    25
100
AcDbCircle
 10
222.2546290329
 20
32.7299677947
 30
0.0
 40
11.80546329026379
100
AcDbArc
 50
192.1051464299
 51
214.9696743527
  0
SPLINE
  5
1FE
330
1F
100
AcDbEntity
  8
0
  6
Continuous
 62
     7
370
    25
100
AcDbSpline
210
0.0
220
0.0
230
1.0
 70
     8
 71
     3
 72
    21
 73
    17
 74
     0
 42
0.000000001
 43
0.00000001
 40
0.0
 40
0.0
 40
0.0
 40
0.0
 40
0.0038912168125578
 40
0.12116947566694
 40
0.1809640132003985
 40
0.2377839622018562
 40
0.3533508883839446
 40
0.4122301019083039
 40
0.4692241180732659
 40
0.5850957526878262
 40
0.644100774154481
 40
0.7019854086403523
 40
0.8196980327659051
 40
0.8796674810369352
 40
0.9378136104332857
 40
1.0
 40
1.0
 40
1.0
 40
1.0
 10
202.2029692762909
 20
46.2387984301781
 30
0.0
 10
202.2018420689694
 20
46.23482491551097
 30
0.0
 10
202.1667417066155
 20
46.11109274843719
 30
0.0
 10
202.1476927270603
 20
45.90506777701509
 30
0.0
 10
202.1494138740869
 20
45.63039886696871
 30
0.0
 10
202.1762204242666
 20
45.34869838181371
 30
0.0
 10
202.2367797399025
 20
45.05900242160241
 30
0.0
 10
202.3301003703221
 20
44.76642691036811
 30
0.0
 10
202.4441320839776
 20
44.47330613991107
 30
0.0
 10
202.5877145836135
 20
44.18186970918859
 30
0.0
 10
202.7569847026818
 20
43.89749522412327
 30
0.0
 10
202.9430104163157
 20
43.61773778063238
 30
0.0
 10
203.1508500283641
 20
43.34855842882887
 30
0.0
 10
203.3741421979319
 20
43.09840376015666
 30
0.0
 10
203.5502456348292
 20
42.91396569410266
 30
0.0
 10
203.6733006216621
 20
42.80690109119438
 30
0.0
 10
203.7368939496773
 20
42.75157140007986
 30
0.0
  0
SPLINE
  5
1FF
330
1F
100
AcDbEntity
  8
0
  6
Continuous
 62
     7
370
    25
100
AcDbSpline
210
0.0
220
0.0
230
1.0
 70
     8
 71
     3
 72
    13
 73
     9
 74
     0
 42
0.000000001
 43
0.00000001
 40
0.0
 40
0.0
 40
0.0
 40
0.0
 40
0.1888137236553105
 40
0.3632560038326541
 40
0.6681957418212924
 40
0.7709054224595712
 40
0.8826530068199361
 40
0.9999999999999999
 40
0.9999999999999999
 40
0.9999999999999999
 40
0.9999999999999999
 10
201.0879921796369
 20
42.69459664296819
 30
0.0
 10
201.2144897246957
 20
42.51156310284707
 30
0.0
 10
201.4578565299423
 20
42.15942751087538
 30
0.0
 10
201.9752881700907
 20
41.59547346941577
 30
0.0
 10
202.4559813690701
 20
41.20725582055024
 30
0.0
 10
202.8557039947974
 20
40.97413579697419
 30
0.0
 10
203.1021510941469
 20
40.86009687182578
 30
0.0
 10
203.2583693595508
 20
40.8208161888446
 30
0.0
 10
203.3383875944727
 20
40.80069580848733
 30
0.0
  0
SPLINE
  5
200
330
1F
100
AcDbEntity
  8
0
  6
Continuous
 62
     7
370
    25
100
AcDbSpline
210
0.0
220
0.0
230
1.0
 70
     8
 71
     3
 72
    22
 73
    18
 74
     0
 42
0.000000001
 43
0.00000001
 40
0.0
 40
0.0
 40
0.0
 40
0.0
 40
0.0290797969658148
 40
0.1765267242515675
 40
0.2607913152818593
 40
0.3055727240837531
 40
0.3520905476063254
 40
0.4217409785338038
 40
0.4757475674692362
 40
0.5140916817846911
 40
0.5998608689165807
 40
0.675993981252521
 40
0.7257213914774324
 40
0.7797476876492908
 40
0.8380839429209762
 40
0.9019041189762339
 40
1.0
 40
1.0
 40
1.0
 40
1.0
 10
202.7506606579726
 20
45.91084713560415
 30
0.0
 10
202.7050537995617
 20
45.94821565974198
 30
0.0
 10
202.4282007896129
 20
46.17505847999689
 30
0.0
 10
201.9757973664525
 20
46.32247681663907
 30
0.0
 10
201.5368512460627
 20
46.32232406811088
 30
0.0
 10
201.2775026627603
 20
46.25518328228253
 30
0.0
 10
201.0555906479822
 20
46.15359428477151
 30
0.0
 10
200.8485197926049
 20
45.99463356802853
 30
0.0
 10
200.6867483991471
 20
45.79643885593918
 30
0.0
 10
200.5404707971168
 20
45.54344747055178
 30
0.0
 10
200.4284470380115
 20
45.21011716783713
 30
0.0
 10
200.3887068629433
 20
44.80630845709432
 30
0.0
 10
200.4102541965055
 20
44.4406623088719
 30
0.0
 10
200.4689401179766
 20
44.09845307689419
 30
0.0
 10
200.5775992618555
 20
43.71813264250259
 30
0.0
 10
200.7667866463522
 20
43.23892391369449
 30
0.0
 10
200.966809513921
 20
42.89995745669379
 30
0.0
 10
201.0879921796369
 20
42.69459664296819
 30
0.0
  0
SPLINE
  5
201
330
1F
100
AcDbEntity
  8
0
  6
Continuous
 62
     7
370
    25
100
AcDbSpline
210
0.0
220
0.0
230
1.0
 70
     8
 71
     3
 72
     9
 73
     5
 74
     0
 42
0.000000001
 43
0.00000001
 40
0.0
 40
0.0
 40
0.0
 40
0.0
 40
0.1883710221454139
 40
1.0
 40
1.0
 40
1.0
 40
1.0
 10
242.0299176093432
 20
63.75375233037105
 30
0.0
 10
242.0722937500663
 20
63.76328505285357
 30
0.0
 10
242.2972547883434
 20
63.81389115125424
 30
0.0
 10
242.523022389485
 20
63.86328924167913
 30
0.0
 10
242.7062619168322
 20
63.90338216331866
 30
0.0
  0
LINE
  5
202
330
1F
100
AcDbEntity
  8
0
  6
Continuous
 62
     7
370
    25
100
AcDbLine
 10
242.7062619168
 20
63.9033821633
 30
0.0
 11
244.3637097836
 21
62.9465578764
 31
0.0
  0
SPLINE
  5
203
330
1F
100
AcDbEntity
  8
0
  6
Continuous
 62
     7
370
    25
100
AcDbSpline
210
0.0
220
0.0
230
1.0
 70
     8
 71
     3
 72
    16
 73
    12
 74
     0
 42
0.000000001
 43
0.00000001
 40
0.0
 40
0.0
 40
0.0
 40
0.0
 40
0.1249999999999978
 40
0.1249999999999978
 40
0.2499999999999955
 40
0.2499999999999955
 40
0.499999999999997
 40
0.499999999999997
 40
0.7499999999999984
 40
0.7499999999999984
 40
1.0
 40
1.0
 40
1.0
 40
1.0
 10
244.36371037042
 20
62.94655753138787
 30
0.0
 10
244.3904523379784
 20
62.93111972211943
 30
0.0
 10
244.4134229366248
 20
62.91322800271218
 30
0.0
 10
244.4493998887489
 20
62.87504800616706
 30
0.0
 10
244.462662427528
 20
62.85476418869646
 30
0.0
 10
244.4894175382337
 20
62.79063785740177
 30
0.0
 10
244.4886005329732
 20
62.74614500577261
 30
0.0
 10
244.4605201427269
 20
62.66106531342876
 30
0.0
 10
244.4329507878024
 20
62.61969245738246
 30
0.0
 10
244.3597766320431
 20
62.5442613246745
 30
0.0
 10
244.3135427936303
 20
62.50939234985071
 30
0.0
 10
244.2603790087021
 20
62.47870155008368
 30
0.0
  0
LINE
  5
204
330
1F
100
AcDbEntity
  8
0
  6
Continuous
 62
     7
370
    25
100
AcDbLine
 10
194.9766616085
 20
48.6551064628
 30
0.0
 11
195.5994352959
 21
48.2955868657
 31
0.0
  0
SPLINE
  5
205
330
1F
100
AcDbEntity
  8
0
  6
Continuous
 62
     7
370
    25
100
AcDbSpline
210
0.0
220
0.0
230
1.0
 70
     8
 71
     3
 72
    14
 73
    10
 74
     0
 42
0.000000001
 43
0.00000001
 40
0.0
 40
0.0
 40
0.0
 40
0.0
 40
0.0464383236900551
 40
0.2343621794077297
 40
0.4277501990139031
 40
0.6152058442111832
 40
0.8082527503385987
 40
0.992946090841317
 40
0.9999999999999999
 40
0.9999999999999999
 40
0.9999999999999999
 40
0.9999999999999999
 10
247.9055300763615
 20
55.86642913779388
 30
0.0
 10
247.910504863399
 20
55.86937620364113
 30
0.0
 10
247.9356113237436
 20
55.88424928087424
 30
0.0
 10
247.9759964870112
 20
55.9144184587981
 30
0.0
 10
248.0174257630881
 20
55.95899841404709
 30
0.0
 10
248.0458358843915
 20
56.00749975123168
 30
0.0
 10
248.057580874676
 20
56.05712801331457
 30
0.0
 10
248.059821602141
 20
56.09170956851743
 30
0.0
 10
248.0540988270141
 20
56.10837860945047
 30
0.0
 10
248.0538883002088
 20
56.10899182242073
 30
0.0
  0
LINE
  5
206
330
1F
100
AcDbEntity
  8
0
  6
Continuous
 62
     7
370
    25
100
AcDbLine
 10
192.3246712647
 20
58.3365372032
 30
0.0
 11
192.3421384993
 21
58.3890473303
 31
0.0
  0
SPLINE
  5
207
330
1F
100
AcDbEntity
  8
0
  6
Continuous
 62
     7
370
    25
100
AcDbSpline
210
0.0
220
0.0
230
1.0
 70
     8
 71
     3
 72
    16
 73
    12
 74
     0
 42
0.000000001
 43
0.00000001
 40
0.0
 40
0.0
 40
0.0
 40
0.0
 40
0.0247136545903236
 40
0.1551614978990432
 40
0.2326871490389836
 40
0.2946083666221472
 40
0.3567650214297861
 40
0.4312087140825978
 40
0.5557741563856358
 40
0.9134119501790041
 40
1.0
 40
1.0
 40
1.0
 40
1.0
 10
192.3683163020041
 20
58.4677410362642
 30
0.0
 10
192.3695236394526
 20
58.47141398971849
 30
0.0
 10
192.3771037521509
 20
58.4944741550047
 30
0.0
 10
192.3873023372985
 20
58.51793369429253
 30
0.0
 10
192.3973644660056
 20
58.53540781803308
 30
0.0
 10
192.4022220929916
 20
58.53476948014809
 30
0.0
 10
192.4034248920672
 20
58.51940365591071
 30
0.0
 10
192.4001463049602
 20
58.48283292343694
 30
0.0
 10
192.3846370697183
 20
58.38250852047263
 30
0.0
 10
192.3616423936744
 20
58.26721240270309
 30
0.0
 10
192.3429375420265
 20
58.17816783583483
 30
0.0
 10
192.3392916113593
 20
58.16081135938686
 30
0.0
  0
SPLINE
  5
208
330
1F
100
AcDbEntity
  8
0
  6
Continuous
 62
     7
370
    25
100
AcDbSpline
210
0.0
220
0.0
230
1.0
 70
     8
 71
     3
 72
    10
 73
     6
 74
     0
 42
0.000000001
 43
0.00000001
 40
0.0
 40
0.0
 40
0.0
 40
0.0
 40
0.1815691725472208
 40
0.7767098374789752
 40
1.0
 40
1.0
 40
1.0
 40
1.0
 10
192.2553541869163
 20
57.89693330802387
 30
0.0
 10
192.2537295489818
 20
57.92263857710812
 30
0.0
 10
192.2467797333913
 20
58.03259961891215
 30
0.0
 10
192.2775361904366
 20
58.17535892544399
 30
0.0
 10
192.3145679851623
 20
58.30198906202364
 30
0.0
 10
192.3246712647376
 20
58.33653720320856
 30
0.0
  0
SPLINE
  5
209
330
1F
100
AcDbEntity
  8
0
  6
Continuous
 62
     7
370
    25
100
AcDbSpline
210
0.0
220
0.0
230
1.0
 70
     8
 71
     3
 72
     8
 73
     4
 74
     0
 42
0.000000001
 43
0.00000001
 40
0.0
 40
0.0
 40
0.0
 40
0.0
 40
1.0
 40
1.0
 40
1.0
 40
1.0
 10
192.2502064823055
 20
57.2999033209769
 30
0.0
 10
192.2788087778798
 20
57.29834990584336
 30
0.0
 10
192.3085051576174
 20
57.29196572788059
 30
0.0
 10
192.3394356326757
 20
57.27890637119249
 30
0.0
  0
SPLINE
  5
20A
330
1F
100
AcDbEntity
  8
0
  6
Continuous
 62
     7
370
    25
100
AcDbSpline
210
0.0
220
0.0
230
1.0
 70
     8
 71
     3
 72
    10
 73
     6
 74
     0
 42
0.000000001
 43
0.00000001
 40
0.0
 40
0.0
 40
0.0
 40
0.0
 40
0.4999999999999989
 40
0.4999999999999989
 40
1.0
 40
1.0
 40
1.0
 40
1.0
 10
192.3392918049722
 20
58.16081133517125
 30
0.0
 10
192.3093033350634
 20
58.01902047900125
 30
0.0
 10
192.2888700358768
 20
57.87676266295794
 30
0.0
 10
192.260237048651
 20
57.58995239478818
 30
0.0
 10
192.2523659890045
 20
57.44549586159265
 30
0.0
 10
192.2502064823063
 20
57.29990332097318
 30
0.0
  0
ARC
  5
20B
330
1F
100
AcDbEntity
  8
0
  6
Continuous
 62
     7
370
    25
100
AcDbCircle
 10
193.4695582353
 20
57.1318571253
 30
0.0
 40
1.2308771983834
100
AcDbArc
 50
172.1531384875
 51
234.5145852444
  0
SPLINE
  5
20C
330
1F
100
AcDbEntity
  8
0
  6
Continuous
 62
     7
370
    25
100
AcDbSpline
210
0.0
220
0.0
230
1.0
 70
     8
 71
     3
 72
     8
 73
     4
 74
     0
 42
0.000000001
 43
0.00000001
 40
0.0
 40
0.0
 40
0.0
 40
0.0
 40
1.0
 40
1.0
 40
1.0
 40
1.0
 10
192.2502064823061
 20
45.03598455341083
 30
0.0
 10
192.2788087778803
 20
45.00528714955272
 30
0.0
 10
192.3085051576177
 20
44.97823369770225
 30
0.0
 10
192.3394356326757
 20
44.95596239530718
 30
0.0
  0
ARC
  5
20D
330
1F
100
AcDbEntity
  8
0
  6
Continuous
 62
     7
370
    25
100
AcDbCircle
 10
195.9827063723
 20
44.9284943823
 30
0.0
 40
3.734047488377283
100
AcDbArc
 50
122.5266350896
 51
178.3504233083
  0
LINE
  5
20E
330
1F
100
AcDbEntity
  8
0
  6
Continuous
 62
     7
370
    25
100
AcDbLine
 10
193.9749403378
 20
48.0768250823
 30
0.0
 11
194.9766616085
 21
48.6551064628
 31
0.0
  0
SPLINE
  5
20F
330
1F
100
AcDbEntity
  8
0
  6
Continuous
 62
     7
370
    25
100
AcDbSpline
210
0.0
220
0.0
230
1.0
 70
     8
 71
     3
 72
    10
 73
     6
 74
     0
 42
0.000000001
 43
0.00000001
 40
0.0
 40
0.0
 40
0.0
 40
0.0
 40
0.3881757388172578
 40
0.831660876788146
 40
1.0
 40
1.0
 40
1.0
 40
1.0
 10
192.2840120682702
 20
46.10313542172297
 30
0.0
 10
192.2761991412298
 20
46.05643676477554
 30
0.0
 10
192.2594600586367
 20
45.95638557121032
 30
0.0
 10
192.2493348538376
 20
45.83385846571524
 30
0.0
 10
192.2507702470101
 20
45.75907331694946
 30
0.0
 10
192.2511651853011
 20
45.7384967115887
 30
0.0
  0
ARC
  5
210
330
1F
100
AcDbEntity
  8
0
  6
Continuous
 62
     7
370
    25
100
AcDbCircle
 10
194.7676212829
 20
45.615703716
 30
0.0
 40
2.530988818361916
100
AcDbArc
 50
122.9343808406
 51
168.8962913337
  0
LINE
  5
211
330
1F
100
AcDbEntity
  8
0
  6
Continuous
 62
     7
370
    25
100
AcDbLine
 10
193.9749403378
 20
48.0768250823
 30
0.0
 11
193.391577905
 21
47.7399468803
 31
0.0
  0
SPLINE
  5
212
330
1F
100
AcDbEntity
  8
0
  6
Continuous
 62
     7
370
    25
100
AcDbSpline
210
0.0
220
0.0
230
1.0
 70
     8
 71
     3
 72
     9
 73
     5
 74
     0
 42
0.000000001
 43
0.00000001
 40
0.0
 40
0.0
 40
0.0
 40
0.0
 40
0.2380699363755057
 40
1.0
 40
1.0
 40
1.0
 40
1.0
 10
192.2950927381615
 20
44.89437274273889
 30
0.0
 10
192.2877989083314
 20
44.90445058388575
 30
0.0
 10
192.2571615672998
 20
44.94678201514623
 30
0.0
 10
192.2532140650998
 20
44.99740989100465
 30
0.0
 10
192.2502063444974
 20
45.03598479167863
 30
0.0
  0
LINE
  5
213
330
1F
100
AcDbEntity
  8
0
  6
Continuous
 62
     7
370
    25
100
AcDbLine
 10
236.3511302663
 20
31.8891993212
 30
0.0
 11
236.4258651898
 21
31.8495929146
 31
0.0
  0
LWPOLYLINE
  5
214
330
1F
100
AcDbEntity
  8
0
  6
Continuous
 62
     7
370
    25
100
AcDbPolyline
 90
       11
 70
   128
 43
0.0
 10
229.9788231165
 20
29.4619534114
 10
230.1655652655
 20
30.1488979503
 10
230.4557542201
 20
30.8356641499
 10
230.8358213291
 20
31.4901398859
 10
231.2879937933
 20
32.0817218069
 10
231.7911303585
 20
32.5827492985
 10
232.321703205
 20
32.9697937561
 10
232.8549049611
 20
33.2247584908
 10
233.3658024733
 20
33.3357208333
 10
233.8305076981
 20
33.2974928658
 10
234.127767445
 20
33.1762565038
  0
ARC
  5
215
330
1F
100
AcDbEntity
  8
0
  6
Continuous
 62
     7
370
    25
100
AcDbCircle
 10
232.0264943936
 20
28.7643560751
 30
0.0
 40
2.163238244535116
100
AcDbArc
 50
161.1871331879
 51
229.7249249718
  0
LWPOLYLINE
  5
216
330
1F
100
AcDbEntity
  8
0
  6
Continuous
 62
     7
370
    25
100
AcDbPolyline
 90
       19
 70
   128
 43
0.0
 10
233.8588771369
 20
28.4333587348
 10
234.0049344063
 20
28.8926867884
 10
234.2532550766
 20
29.3307485261
 10
234.5738878852
 20
29.6947073489
 10
234.9281598058
 20
29.9406642698
 10
235.2733398609
 20
30.0389530783
 10
235.5677948668
 20
29.9777190225
 10
235.7760095181
 20
29.7643479137
 10
235.8728689028
 20
29.4245749013
 10
235.8466917587
 20
28.9993824147
 10
235.7006338308
 20
28.5400539811
 10
235.4523131604
 20
28.1019922434
 10
235.1316810104
 20
27.7380338007
 10
234.7774090898
 20
27.4920768797
 10
234.4322290347
 20
27.3937880713
 10
234.1377733703
 20
27.4550217469
 10
233.9295593775
 20
27.6683932359
 10
233.8326993342
 20
28.0081658681
 10
233.8588771369
 20
28.4333587348
  0
SPLINE
  5
217
330
1F
100
AcDbEntity
  8
0
  6
Continuous
 62
     7
370
    25
100
AcDbSpline
210
0.0
220
0.0
230
1.0
 70
     8
 71
     3
 72
    11
 73
     7
 74
     0
 42
0.000000001
 43
0.00000001
 40
0.0
 40
0.0
 40
0.0
 40
0.0
 40
0.163549398365519
 40
0.6548401516133906
 40
0.9333621749146631
 40
1.0
 40
1.0
 40
1.0
 40
1.0
 10
233.8659643929391
 20
27.83151105540237
 30
0.0
 10
233.8633171804812
 20
27.84802932849553
 30
0.0
 10
233.8527179301958
 20
27.91416731839229
 30
0.0
 10
233.8411072996831
 20
28.0085020819963
 30
0.0
 10
233.833259466609
 20
28.09291444754635
 30
0.0
 10
233.8316970600223
 20
28.12750490704478
 30
0.0
 10
233.8313954160816
 20
28.13418306790403
 30
0.0
  0
SPLINE
  5
218
330
1F
100
AcDbEntity
  8
0
  6
Continuous
 62
     7
370
    25
100
AcDbSpline
210
0.0
220
0.0
230
1.0
 70
     8
 71
     3
 72
    11
 73
     7
 74
     0
 42
0.000000001
 43
0.00000001
 40
0.0
 40
0.0
 40
0.0
 40
0.0
 40
0.2164548350044976
 40
0.4403090530422458
 40
0.7518987635289868
 40
0.9999999999999999
 40
0.9999999999999999
 40
0.9999999999999999
 40
0.9999999999999999
 10
234.5974604858826
 20
27.43189882600589
 30
0.0
 10
234.515337972563
 20
27.4777542123818
 30
0.0
 10
234.3482856354207
 20
27.57103252492974
 30
0.0
 10
234.1048560520932
 20
27.70569890159635
 30
0.0
 10
233.9346755468664
 20
27.79765236027952
 30
0.0
 10
233.8870679918578
 20
27.82111186573751
 30
0.0
 10
233.8659643929391
 20
27.83151105540237
 30
0.0
  0
SPLINE
  5
219
330
1F
100
AcDbEntity
  8
0
  6
Continuous
 62
     7
370
    25
100
AcDbSpline
210
0.0
220
0.0
230
1.0
 70
     8
 71
     3
 72
    11
 73
     7
 74
     0
 42
0.000000001
 43
0.00000001
 40
0.0
 40
0.0
 40
0.0
 40
0.0
 40
0.2164548332016365
 40
0.440309287249422
 40
0.7518985302032042
 40
1.0
 40
1.0
 40
1.0
 40
1.0
 10
235.5795973014754
 20
28.31946230204785
 30
0.0
 10
235.4803057573681
 20
28.27714543277952
 30
0.0
 10
235.2783283361706
 20
28.19106507009803
 30
0.0
 10
234.9700867666449
 20
27.99288676800399
 30
0.0
 10
234.7303842719051
 20
27.72780454461302
 30
0.0
 10
234.6382860687438
 20
27.52278190867722
 30
0.0
 10
234.5974604858826
 20
27.43189882600589
 30
0.0
  0
SPLINE
  5
21A
330
1F
100
AcDbEntity
  8
0
  6
Continuous
 62
     7
370
    25
100
AcDbSpline
210
0.0
220
0.0
230
1.0
 70
     8
 71
     3
 72
    21
 73
    17
 74
     0
 42
0.000000001
 43
0.00000001
 40
0.0
 40
0.0
 40
0.0
 40
0.0
 40
0.0458228437690439
 40
0.1146825533350131
 40
0.1837051022716163
 40
0.348040397412855
 40
0.4597572462973831
 40
0.5168121180628746
 40
0.5736383274918974
 40
0.6304626507211631
 40
0.688728081599564
 40
0.7472153993602931
 40
0.8061253621333081
 40
0.8657614500268407
 40
0.9663946827591794
 40
1.0
 40
1.0
 40
1.0
 40
1.0
 10
235.8302373655801
 20
29.60663762731662
 30
0.0
 10
235.8194762045228
 20
29.59233938531856
 30
0.0
 10
235.7925438422906
 20
29.55655463767604
 30
0.0
 10
235.7516121082866
 20
29.49627542887332
 30
0.0
 10
235.6885418501371
 20
29.39198397407906
 30
0.0
 10
235.6267375343429
 20
29.26095240124712
 30
0.0
 10
235.5840761153477
 20
29.12014413938004
 30
0.0
 10
235.5632564729442
 20
29.01962644514276
 30
0.0
 10
235.5516855486143
 20
28.94126394078816
 30
0.0
 10
235.5442131132244
 20
28.86044678437468
 30
0.0
 10
235.5407621898973
 20
28.77734883544551
 30
0.0
 10
235.5411902412509
 20
28.69214885637115
 30
0.0
 10
235.5452213626206
 20
28.60554597460548
 30
0.0
 10
235.5542797524367
 20
28.49779199191089
 30
0.0
 10
235.5663692487561
 20
28.40215324470263
 30
0.0
 10
235.5769488108544
 20
28.33601849446037
 30
0.0
 10
235.5795973014754
 20
28.31946230204785
 30
0.0
  0
SPLINE
  5
21B
330
1F
100
AcDbEntity
  8
0
  6
Continuous
 62
     7
370
    25
100
AcDbSpline
210
0.0
220
0.0
230
1.0
 70
     8
 71
     3
 72
    11
 73
     7
 74
     0
 42
0.000000001
 43
0.00000001
 40
0.0
 40
0.0
 40
0.0
 40
0.0
 40
0.2164548412584565
 40
0.4403090657639516
 40
0.7518983441607261
 40
1.0
 40
1.0
 40
1.0
 40
1.0
 10
235.0987412726366
 20
30.00624985671309
 30
0.0
 10
235.1168343622957
 20
29.99735785304413
 30
0.0
 10
235.1536390433936
 20
29.97926987771638
 30
0.0
 10
235.2885180139382
 20
29.90726873000479
 30
0.0
 10
235.5241421140134
 20
29.77753402408785
 30
0.0
 10
235.736224694888
 20
29.65912595109779
 30
0.0
 10
235.8302373655801
 20
29.60663762731662
 30
0.0
  0
SPLINE
  5
21C
330
1F
100
AcDbEntity
  8
0
  6
Continuous
 62
     7
370
    25
100
AcDbSpline
210
0.0
220
0.0
230
1.0
 70
     8
 71
     3
 72
     9
 73
     5
 74
     0
 42
0.000000001
 43
0.00000001
 40
0.0
 40
0.0
 40
0.0
 40
0.0
 40
0.055234448581658
 40
1.0
 40
1.0
 40
1.0
 40
1.0
 10
234.7486662561825
 20
29.83724497606991
 30
0.0
 10
234.7541241033665
 20
29.8413906059647
 30
0.0
 10
234.8529364808612
 20
29.91644575725612
 30
0.0
 10
234.9793295011387
 20
29.96262309693158
 30
0.0
 10
235.0987412726365
 20
30.0062498567131
 30
0.0
  0
LINE
  5
21D
330
1F
100
AcDbEntity
  8
0
  6
Continuous
 62
     7
370
    25
100
AcDbLine
 10
233.8620453946
 20
27.8564449215
 30
0.0
 11
234.5974604859
 21
27.431898826
 31
0.0
  0
SPLINE
  5
21E
330
1F
100
AcDbEntity
  8
0
  6
Continuous
 62
     7
370
    25
100
AcDbSpline
210
0.0
220
0.0
230
1.0
 70
     8
 71
     3
 72
     9
 73
     5
 74
     0
 42
0.000000001
 43
0.00000001
 40
0.0
 40
0.0
 40
0.0
 40
0.0
 40
0.4546557879942886
 40
1.0
 40
1.0
 40
1.0
 40
1.0
 10
233.9314816689493
 20
28.64952747798241
 30
0.0
 10
234.0011606370957
 20
28.70515959303378
 30
0.0
 10
234.1544171665106
 20
28.82752054503397
 30
0.0
 10
234.3321037773979
 20
28.92857573277934
 30
0.0
 10
234.4290041421962
 20
28.98368559450942
 30
0.0
  0
SPLINE
  5
21F
330
1F
100
AcDbEntity
  8
0
  6
Continuous
 62
     7
370
    25
100
AcDbSpline
210
0.0
220
0.0
230
1.0
 70
     8
 71
     3
 72
    12
 73
     8
 74
     0
 42
0.000000001
 43
0.00000001
 40
0.0
 40
0.0
 40
0.0
 40
0.0
 40
0.132381398337908
 40
0.2648365336681514
 40
0.4186092655446014
 40
0.7270427908080404
 40
1.0
 40
1.0
 40
1.0
 40
1.0
 10
234.4290041421962
 20
28.98368559450942
 30
0.0
 10
234.4281409380837
 20
29.00943186844172
 30
0.0
 10
234.4264140490504
 20
29.06093875708851
 30
0.0
 10
234.4254897065817
 20
29.14198311005395
 30
0.0
 10
234.4266375930164
 20
29.25645915097488
 30
0.0
 10
234.4326837722375
 20
29.39686929302424
 30
0.0
 10
234.4463649552906
 20
29.50423317837009
 30
0.0
 10
234.4527881356465
 20
29.55463946243215
 30
0.0
  0
LINE
  5
220
330
1F
100
AcDbEntity
  8
0
  6
Continuous
 62
     7
370
    25
100
AcDbLine
 10
234.4290041422
 20
28.9836855945
 30
0.0
 11
235.5795973015
 21
28.319462302
 31
0.0
  0
LWPOLYLINE
  5
221
330
1F
100
AcDbEntity
  8
0
  6
Continuous
 62
     7
370
    25
100
AcDbPolyline
 90
       12
 70
   128
 43
0.0
 10
249.1269167702
 20
40.7349525165
 10
249.1577162383
 20
40.8512645169
 10
249.401543001
 20
41.5421393801
 10
249.7420790002
 20
42.2154542554
 10
250.1634012885
 20
42.8397258576
 10
250.6458081896
 20
43.3857631004
 10
251.1667445543
 20
43.8280351786
 10
251.7018501626
 20
44.1458607379
 10
252.2261055916
 20
44.3243792589
 10
252.714996522
 20
44.3552433496
 10
253.1456628982
 20
44.237009705
 10
253.2196503737
 20
44.1977659192
  0
LWPOLYLINE
  5
222
330
1F
100
AcDbEntity
  8
0
  6
Continuous
 62
     7
370
    25
100
AcDbPolyline
 90
       19
 70
   128
 43
0.0
 10
252.9868074749
 20
39.6072433513
 10
253.1696582845
 20
40.0656406392
 10
253.4459868528
 20
40.4845053327
 10
253.7824629251
 20
40.8133155
 10
254.1385043548
 20
41.0124130068
 10
254.4711654788
 20
41.0577825675
 10
254.7403238145
 20
40.9439527566
 10
254.9135137761
 20
40.6846525241
 10
254.9698463319
 20
40.311157412
 10
254.9025279366
 20
39.8685170091
 10
254.7196771271
 20
39.4101197212
 10
254.4433485588
 20
38.9912550277
 10
254.1068718279
 20
38.6624444803
 10
253.7508303982
 20
38.4633469734
 10
253.4181692742
 20
38.4179774127
 10
253.1490115971
 20
38.5318076038
 10
252.9758216355
 20
38.7911078363
 10
252.9194884212
 20
39.1646025682
 10
252.9868074749
 20
39.6072433513
  0
SPLINE
  5
223
330
1F
100
AcDbEntity
  8
0
  6
Continuous
 62
     7
370
    25
100
AcDbSpline
210
0.0
220
0.0
230
1.0
 70
     8
 71
     3
 72
    10
 73
     6
 74
     0
 42
0.000000001
 43
0.00000001
 40
0.0
 40
0.0
 40
0.0
 40
0.0
 40
0.1899088604332006
 40
0.7603816248466146
 40
1.0
 40
1.0
 40
1.0
 40
1.0
 10
252.9322161108617
 20
38.97236013096902
 30
0.0
 10
252.9307690991614
 20
38.98912851777231
 30
0.0
 10
252.9249753668131
 20
39.05626795073221
 30
0.0
 10
252.9199225661908
 20
39.1447561870857
 30
0.0
 10
252.9197100044251
 20
39.21613507281555
 30
0.0
 10
252.9196471303823
 20
39.23724836709006
 30
0.0
  0
SPLINE
  5
224
330
1F
100
AcDbEntity
  8
0
  6
Continuous
 62
     7
370
    25
100
AcDbSpline
210
0.0
220
0.0
230
1.0
 70
     8
 71
     3
 72
    11
 73
     7
 74
     0
 42
0.000000001
 43
0.00000001
 40
0.0
 40
0.0
 40
0.0
 40
0.0
 40
0.2164547896075563
 40
0.4403090907238569
 40
0.7518984823280768
 40
0.9999999999999999
 40
0.9999999999999999
 40
0.9999999999999999
 40
0.9999999999999999
 10
253.5759308550692
 20
38.42937200092771
 30
0.0
 10
253.4998214801749
 20
38.48504877873514
 30
0.0
 10
253.3450009298143
 20
38.59830564616355
 30
0.0
 10
253.1242700515408
 20
38.77004635110296
 30
0.0
 10
252.9784389933652
 20
38.90177028009617
 30
0.0
 10
252.946412786787
 20
38.95067950046354
 30
0.0
 10
252.9322161108617
 20
38.97236013096902
 30
0.0
  0
SPLINE
  5
225
330
1F
100
AcDbEntity
  8
0
  6
Continuous
 62
     7
370
    25
100
AcDbSpline
210
0.0
220
0.0
230
1.0
 70
     8
 71
     3
 72
    11
 73
     7
 74
     0
 42
0.000000001
 43
0.00000001
 40
0.0
 40
0.0
 40
0.0
 40
0.0
 40
0.2164548314520222
 40
0.440309134476227
 40
0.7518981299430948
 40
1.0
 40
1.0
 40
1.0
 40
1.0
 10
254.5836988814571
 20
39.19759581672748
 30
0.0
 10
254.4826515828802
 20
39.16345380997296
 30
0.0
 10
254.2771027010229
 20
39.09400265777408
 30
0.0
 10
253.9622334267182
 20
38.9266837854576
 30
0.0
 10
253.7154215207014
 20
38.69470394153878
 30
0.0
 10
253.6187733980563
 20
38.51086487373017
 30
0.0
 10
253.5759308550692
 20
38.4293720009277
 30
0.0
  0
SPLINE
  5
226
330
1F
100
AcDbEntity
  8
0
  6
Continuous
 62
     7
370
    25
100
AcDbSpline
210
0.0
220
0.0
230
1.0
 70
     8
 71
     3
 72
    21
 73
    17
 74
     0
 42
0.000000001
 43
0.00000001
 40
0.0
 40
0.0
 40
0.0
 40
0.0
 40
0.0458228694493557
 40
0.1146826178533566
 40
0.183705113602177
 40
0.3480404702046008
 40
0.4597571363051667
 40
0.5168119751884472
 40
0.5736381922423283
 40
0.6304626298832687
 40
0.6887279202391335
 40
0.7472152653702754
 40
0.8061252555442954
 40
0.8657612697066206
 40
0.9663943971548049
 40
1.0
 40
1.0
 40
1.0
 40
1.0
 10
254.9477521636376
 20
40.50880776256857
 30
0.0
 10
254.9353664183368
 20
40.49416520385201
 30
0.0
 10
254.9043681479921
 20
40.457518721738
 30
0.0
 10
254.8567899256215
 20
40.3958307840802
 30
0.0
 10
254.7825758483535
 20
40.28917762681454
 30
0.0
 10
254.7075663105112
 20
40.1553473803593
 30
0.0
 10
254.6518021092515
 20
40.01176221081646
 30
0.0
 10
254.6220689193163
 20
39.9093554630808
 30
0.0
 10
254.6037621027563
 20
39.8295653188227
 30
0.0
 10
254.589546207363
 20
39.74731909546626
 30
0.0
 10
254.5793564378471
 20
39.66279276792824
 30
0.0
 10
254.5730553149077
 20
39.57616677306264
 30
0.0
 10
254.5704109502882
 20
39.488149005981
 30
0.0
 10
254.5713489978093
 20
39.37867411626019
 30
0.0
 10
254.576417636636
 20
39.28154731594639
 30
0.0
 10
254.5822410388413
 20
39.21440449110005
 30
0.0
 10
254.5836988814571
 20
39.19759581672748
 30
0.0
  0
SPLINE
  5
227
330
1F
100
AcDbEntity
  8
0
  6
Continuous
 62
     7
370
    25
100
AcDbSpline
210
0.0
220
0.0
230
1.0
 70
     8
 71
     3
 72
    11
 73
     7
 74
     0
 42
0.000000001
 43
0.00000001
 40
0.0
 40
0.0
 40
0.0
 40
0.0
 40
0.2164547110917069
 40
0.4403089310080922
 40
0.7518982095877594
 40
0.9999999999999999
 40
0.9999999999999999
 40
0.9999999999999999
 40
0.9999999999999999
 10
254.3040367608857
 20
41.05179551244024
 30
0.0
 10
254.3161167157081
 20
41.03308212812057
 30
0.0
 10
254.3406895788613
 20
40.99501564204697
 30
0.0
 10
254.4528699113238
 20
40.88593990303131
 30
0.0
 10
254.6641452537374
 20
40.71643542804603
 30
0.0
 10
254.8606464393168
 20
40.57257757056374
 30
0.0
 10
254.9477521636376
 20
40.50880776256858
 30
0.0
  0
SPLINE
  5
228
330
1F
100
AcDbEntity
  8
0
  6
Continuous
 62
     7
370
    25
100
AcDbSpline
210
0.0
220
0.0
230
1.0
 70
     8
 71
     3
 72
     9
 73
     5
 74
     0
 42
0.000000001
 43
0.00000001
 40
0.0
 40
0.0
 40
0.0
 40
0.0
 40
0.3200719743414209
 40
1.0
 40
1.0
 40
1.0
 40
1.0
 10
253.828645334374
 20
40.83879889602397
 30
0.0
 10
253.8725540861552
 20
40.86845021933733
 30
0.0
 10
254.0097380800727
 20
40.96108976822121
 30
0.0
 10
254.1849233715363
 20
41.01508359583384
 30
0.0
 10
254.3040367608856
 20
41.05179551244024
 30
0.0
  0
LINE
  5
229
330
1F
100
AcDbEntity
  8
0
  6
Continuous
 62
     7
370
    25
100
AcDbLine
 10
254.1243976729
 20
40.9841201928
 30
0.0
 11
254.9477521636
 21
40.5088077626
 31
0.0
  0
SPLINE
  5
22A
330
1F
100
AcDbEntity
  8
0
  6
Continuous
 62
     7
370
    25
100
AcDbSpline
210
0.0
220
0.0
230
1.0
 70
     8
 71
     3
 72
     9
 73
     5
 74
     0
 42
0.000000001
 43
0.00000001
 40
0.0
 40
0.0
 40
0.0
 40
0.0
 40
0.3928507417794395
 40
1.0
 40
1.0
 40
1.0
 40
1.0
 10
252.9736965123305
 20
39.60976880071194
 30
0.0
 10
253.0292621351478
 20
39.64669064838061
 30
0.0
 10
253.170704206927
 20
39.74067506470481
 30
0.0
 10
253.3339756105684
 20
39.81605328104943
 30
0.0
 10
253.4331057221779
 20
39.86181910918906
 30
0.0
  0
SPLINE
  5
22B
330
1F
100
AcDbEntity
  8
0
  6
Continuous
 62
     7
370
    25
100
AcDbSpline
210
0.0
220
0.0
230
1.0
 70
     8
 71
     3
 72
    14
 73
    10
 74
     0
 42
0.000000001
 43
0.00000001
 40
0.0
 40
0.0
 40
0.0
 40
0.0
 40
0.103925842395066
 40
0.2079089810307312
 40
0.3286278979025226
 40
0.5707621280990569
 40
0.8159372035804839
 40
0.9399008402541686
 40
1.0
 40
1.0
 40
1.0
 40
1.0
 10
253.4331057221779
 20
39.86181910918906
 30
0.0
 10
253.4342416991505
 20
39.88798983451579
 30
0.0
 10
253.4365142793808
 20
39.94034571357459
 30
0.0
 10
253.441981313923
 20
40.02273415987447
 30
0.0
 10
253.4521574032327
 20
40.13918683951337
 30
0.0
 10
253.4712624419939
 20
40.28931534968977
 30
0.0
 10
253.5000858782084
 20
40.4365585381702
 30
0.0
 10
253.5249217606128
 20
40.53768856873328
 30
0.0
 10
253.537521753262
 20
40.57992305009331
 30
0.0
 10
253.541635832727
 20
40.59371321785896
 30
0.0
  0
LINE
  5
22C
330
1F
100
AcDbEntity
  8
0
  6
Continuous
 62
     7
370
    25
100
AcDbLine
 10
253.4331057222
 20
39.8618191092
 30
0.0
 11
254.5836988815
 21
39.1975958167
 31
0.0
  0
LINE
  5
22D
330
1F
100
AcDbEntity
  8
0
  6
Continuous
 62
     7
370
    25
100
AcDbLine
 10
254.7634854834
 20
21.331899975
 30
0.0
 11
254.5511545997
 21
21.4382373638
 31
0.0
  0
LWPOLYLINE
  5
22E
330
1F
100
AcDbEntity
  8
0
  6
Continuous
 62
     7
370
    25
100
AcDbPolyline
 90
       13
 70
   128
 43
0.0
 10
250.0555801011
 20
32.7551388943
 10
249.4797530638
 20
31.9616592147
 10
248.9774969727
 20
31.1074932062
 10
248.5625125168
 20
30.2159407368
 10
248.2461190885
 20
29.3113207278
 10
248.0369469135
 20
28.4183086297
 10
247.94070228
 20
27.5612639574
 10
247.9600098171
 20
26.7635643297
 10
248.0943430186
 20
26.0469689208
 10
248.340038072
 20
25.4310249174
 10
248.6903923113
 20
24.9325331423
 10
249.1358499265
 20
24.5650917588
 10
249.1771442891
 20
24.5405874807
  0
LWPOLYLINE
  5
22F
330
1F
100
AcDbEntity
  8
0
  6
Continuous
 62
     7
370
    25
100
AcDbPolyline
 90
        9
 70
   128
 43
0.0
 10
255.176656637
 20
34.9331739028
 10
254.6895418011
 20
35.1350380966
 10
254.0925942537
 20
35.2141590566
 10
253.4433915288
 20
35.1438743041
 10
252.7596422588
 20
34.9261006591
 10
252.0599972884
 20
34.5667787472
 10
251.3635411139
 20
34.0757094533
 10
250.689271304
 20
33.4662883786
 10
250.0555801011
 20
32.7551388943
  0
LINE
  5
230
330
1F
100
AcDbEntity
  8
0
  6
Continuous
 62
     7
370
    25
100
AcDbLine
 10
255.3337769601
 20
23.3613028487
 30
0.0
 11
257.8337530056
 21
23.1377673707
 31
0.0
  0
LINE
  5
231
330
1F
100
AcDbEntity
  8
0
  6
Continuous
 62
     7
370
    25
100
AcDbLine
 10
257.8337530056
 20
23.1377673707
 30
0.0
 11
260.3337290511
 21
26.2477137518
 31
0.0
  0
LINE
  5
232
330
1F
100
AcDbEntity
  8
0
  6
Continuous
 62
     7
370
    25
100
AcDbLine
 10
260.3337290511
 20
29.581195611
 30
0.0
 11
260.3337290511
 21
26.2477137518
 31
0.0
  0
LINE
  5
233
330
1F
100
AcDbEntity
  8
0
  6
Continuous
 62
     7
370
    25
100
AcDbLine
 10
257.8337530056
 20
29.8047310891
 30
0.0
 11
260.3337290511
 21
29.581195611
 31
0.0
  0
LINE
  5
234
330
1F
100
AcDbEntity
  8
0
  6
Continuous
 62
     7
370
    25
100
AcDbLine
 10
257.8337530056
 20
29.8047310891
 30
0.0
 11
255.3337769601
 21
26.6947847079
 31
0.0
  0
LINE
  5
235
330
1F
100
AcDbEntity
  8
0
  6
Continuous
 62
     7
370
    25
100
AcDbLine
 10
255.3337769601
 20
23.3613028487
 30
0.0
 11
255.3337769601
 21
26.6947847079
 31
0.0
  0
ARC
  5
236
330
1F
100
AcDbEntity
  8
0
  6
Continuous
 62
     7
370
    25
100
AcDbCircle
 10
252.0202437469
 20
29.8336220585
 30
0.0
 40
5.499306232543105
100
AcDbArc
 50
320.36379399
 51
355.3911953877
  0
ARC
  5
237
330
1F
100
AcDbEntity
  8
0
  6
Continuous
 62
     7
370
    25
100
AcDbCircle
 10
252.3893673442
 20
29.3897882957
 30
0.0
 40
4.933060165468675
100
AcDbArc
 50
306.6462894478
 51
321.5989108827
  0
LINE
  5
238
330
1F
100
AcDbEntity
  8
0
  6
Continuous
 62
     7
370
    25
100
AcDbLine
 10
255.3337784419
 20
24.5809719668
 30
0.0
 11
257.8337530056
 21
23.1377673707
 31
0.0
  0
LINE
  5
239
330
1F
100
AcDbEntity
  8
0
  6
Continuous
 62
     7
370
    25
100
AcDbLine
 10
257.5053040969
 20
27.8805287224
 30
0.0
 11
260.3337290511
 21
26.2477137518
 31
0.0
  0
LINE
  5
23A
330
1F
100
AcDbEntity
  8
0
  6
Continuous
 62
     7
370
    25
100
AcDbLine
 10
257.5053040969
 20
29.3961398792
 30
0.0
 11
257.5053040969
 21
27.8805287224
 31
0.0
  0
LINE
  5
23B
330
1F
100
AcDbEntity
  8
0
  6
Continuous
 62
     7
370
    25
100
AcDbLine
 10
255.3337791416
 20
25.1791722115
 30
0.0
 11
256.2553160742
 21
26.3255554368
 31
0.0
  0
LINE
  5
23C
330
1F
100
AcDbEntity
  8
0
  6
Continuous
 62
     7
370
    25
100
AcDbLine
 10
256.2553160742
 20
26.3255554368
 30
0.0
 11
257.5053040969
 21
27.8805287224
 31
0.0
  0
LWPOLYLINE
  5
23D
330
1F
100
AcDbEntity
  8
0
  6
Continuous
 62
     7
370
    18
100
AcDbPolyline
 90
       33
 70
   128
 43
0.0
 10
229.5494823904
 20
28.5122690836
 10
229.6072499146
 20
29.9247498137
 10
229.780015115
 20
31.3907405611
 10
230.0661645575
 20
32.8965538106
 10
230.4630245514
 20
34.4281291394
 10
230.966892101
 20
35.9711671508
 10
231.5730612472
 20
37.5112613168
 10
232.275873117
 20
39.0340321954
 10
233.068765973
 20
40.5252612672
 10
233.9443357992
 20
41.9710262921
 10
234.8944087412
 20
43.3578275393
 10
235.9101128875
 20
44.6727182002
 10
236.9819665141
 20
45.9034207305
 10
238.0999610617
 20
47.0384431938
 10
239.2536579413
 20
48.0671898994
 10
240.4322858342
 20
48.9800555957
 10
241.6248400295
 20
49.7685170372
 10
242.8201860008
 20
50.4252110292
 10
244.0071632502
 20
50.9440080642
 10
245.1746889059
 20
51.3200630017
 10
246.3118625745
 20
51.5498664727
 10
247.4080665428
 20
51.6312707856
 10
248.4530657123
 20
51.5635171984
 10
249.4371037459
 20
51.347238191
 10
250.3509923014
 20
50.9844519434
 10
251.1861992761
 20
50.4785471185
 10
251.9349255276
 20
49.8342465423
 10
252.5901812643
 20
49.0575661323
 10
253.1458486078
 20
48.1557574761
 10
253.5967395444
 20
47.1372405256
 10
253.9386426821
 20
46.0115241235
 10
254.1683680312
 20
44.7891202576
 10
254.2789086781
 20
43.5862693803
  0
LWPOLYLINE
  5
23E
330
1F
100
AcDbEntity
  8
0
  6
Continuous
 62
     7
370
    18
100
AcDbPolyline
 90
       21
 70
   128
 43
0.0
 10
245.7069996513
 20
24.234520325
 10
245.1746889059
 20
23.744954606
 10
244.0071632502
 20
22.7730131144
 10
242.8201860008
 20
21.9213553882
 10
241.6248400295
 20
21.1979322983
 10
240.4322858342
 20
20.6094999739
 10
239.2536579413
 20
20.1615508708
 10
238.0999610617
 20
19.8582675123
 10
236.9819665141
 20
19.7024809466
 10
235.9101128875
 20
19.6956476213
 10
234.8944087412
 20
19.8378312367
 10
233.9443357992
 20
20.1277016139
 10
233.068765973
 20
20.5625552352
 10
232.275873117
 20
21.1383297015
 10
231.5730612472
 20
21.8496512675
 10
230.966892101
 20
22.6898774344
 10
230.4630245514
 20
23.651162356
 10
230.0661645575
 20
24.724532889
 10
229.780015115
 20
25.8999650245
 10
229.6072499146
 20
27.1664853174
 10
229.5494823904
 20
28.5122690836
  0
LWPOLYLINE
  5
23F
330
1F
100
AcDbEntity
  8
0
  6
Continuous
 62
     7
370
    18
100
AcDbPolyline
 90
       24
 70
   128
 43
0.0
 10
228.8423768103
 20
28.5122690836
 10
228.9000086744
 20
29.9426477959
 10
229.0723866507
 20
31.4266154471
 10
229.3579460373
 20
32.9507311926
 10
229.7541040228
 20
34.5011942041
 10
230.2572702225
 20
36.0639617305
 10
230.8628888254
 20
37.6248812245
 10
231.565475473
 20
39.1698173361
 10
232.3586679667
 20
40.6847792859
 10
233.2352822445
 20
42.1560463359
 10
234.1873788939
 20
43.5702944001
 10
235.2063375671
 20
44.9147173319
 10
236.2829284336
 20
46.1771373744
 10
237.4074027299
 20
47.3461243541
 10
238.5695770529
 20
48.411091492
 10
239.758926215
 20
49.3623915928
 10
240.9646793916
 20
50.1914128545
 10
242.175917256
 20
50.8906455901
 10
243.3816704326
 20
51.4537573136
 10
244.5710195947
 20
51.8756505262
 10
245.7331939177
 20
52.1525013002
 10
246.857668214
 20
52.2818047081
 10
247.9342590805
 20
52.262390022
 10
248.1174740652
 20
52.243640348
  0
ARC
  5
240
330
1F
100
AcDbEntity
  8
0
  6
Continuous
 62
     7
370
    18
100
AcDbCircle
 10
239.6489994716
 20
28.0123072078
 30
0.0
 40
10.81818169655856
100
AcDbArc
 50
177.3511341326
 51
213.8563278219
  0
LWPOLYLINE
  5
241
330
1F
100
AcDbEntity
  8
0
  6
Continuous
 62
     7
370
    18
100
AcDbPolyline
 90
       26
 70
   128
 43
0.0
 10
219.9858646036
 20
33.6250247525
 10
220.0434964677
 20
35.0554034648
 10
220.2158744439
 20
36.539371116
 10
220.5014338305
 20
38.0634868615
 10
220.897591816
 20
39.613949873
 10
221.4007580157
 20
41.1767173994
 10
222.0063766187
 20
42.7376368934
 10
222.7089632662
 20
44.282573005
 10
223.50215576
 20
45.7975349548
 10
224.3787700378
 20
47.2688020048
 10
225.3308666871
 20
48.683050069
 10
226.3498253603
 20
50.0274730008
 10
227.4264162269
 20
51.2898930433
 10
228.5508905231
 20
52.458880023
 10
229.7130648461
 20
53.5238471609
 10
230.9024140083
 20
54.4751472617
 10
232.1081671848
 20
55.3041685234
 10
233.3194050493
 20
56.003401259
 10
234.5251582258
 20
56.5665129825
 10
235.7145073879
 20
56.9884061951
 10
236.8766817109
 20
57.2652569691
 10
238.0011560072
 20
57.394560377
 10
239.0777468738
 20
57.3751456909
 10
240.096705547
 20
57.2071874014
 10
241.0488021963
 20
56.8922067299
 10
241.7130549681
 20
56.5615772659
  0
LWPOLYLINE
  5
242
330
1F
100
AcDbEntity
  8
0
  6
Continuous
 62
     7
370
    18
100
AcDbPolyline
 90
       10
 70
   128
 43
0.0
 10
223.714517266
 20
25.3838176193
 10
223.50215576
 20
25.5123379036
 10
222.7089632662
 20
26.1114992936
 10
222.0063766187
 20
26.8452461286
 10
221.4007580157
 20
27.7069332671
 10
220.897591816
 20
28.6887574651
 10
220.5014338305
 20
29.7818262025
 10
220.2158744439
 20
30.976242098
 10
220.0434964677
 20
32.2611863742
 10
219.9858646036
 20
33.6250247525
  0
LWPOLYLINE
  5
243
330
1F
100
AcDbEntity
  8
0
  6
Continuous
 62
     7
370
    18
100
AcDbPolyline
 90
       26
 70
   128
 43
0.0
 10
214.0640763128
 20
36.7384441938
 10
214.4369547499
 20
38.5266970102
 10
214.9195493362
 20
40.337987641
 10
215.50865296
 20
42.1602782594
 10
216.2003512327
 20
43.9814596216
 10
216.9900448795
 20
45.7894263506
 10
217.8724879347
 20
47.5721651457
 10
218.841814084
 20
49.3178255038
 10
219.8915840791
 20
51.014809449
 10
221.0148180068
 20
52.6518373099
 10
222.2040532407
 20
54.2180306048
 10
223.4513865882
 20
55.7029789579
 10
224.7485269739
 20
57.0968161413
 10
226.0868550381
 20
58.3902757728
 10
227.4574761493
 20
59.5747660267
 10
228.8512811553
 20
60.642410788
 10
230.2590075864
 20
61.586118445
 10
231.6712997065
 20
62.3996135138
 10
233.0787717336
 20
63.0774929071
 10
234.4720699896
 20
63.6152496449
 10
235.8419347624
 20
64.0093116087
 10
237.1792624975
 20
64.2570576716
 10
238.4751648195
 20
64.3568441668
 10
239.7210302713
 20
64.3080055466
 10
240.9085783142
 20
64.1108657848
 10
242.0299182679
 20
63.7667389412
  0
LWPOLYLINE
  5
244
330
1F
100
AcDbEntity
  8
0
  6
Continuous
 62
     7
370
    18
100
AcDbPolyline
 90
       26
 70
   128
 43
0.0
 10
213.3479005992
 20
36.7332088775
 10
213.7194658986
 20
38.5455133573
 10
214.2018589703
 20
40.3818046047
 10
214.7919082641
 20
42.2300193143
 10
215.485741538
 20
44.0780204815
 10
216.2787990301
 20
45.9136669836
 10
217.1658729704
 20
47.7249052119
 10
218.1411365569
 20
49.4998352296
 10
219.1981847859
 20
51.2268005018
 10
220.330072647
 20
52.8944578553
 10
221.5293671483
 20
54.4918531394
 10
222.7881907804
 20
56.0084949867
 10
224.0982748584
 20
57.4344205884
 10
225.4510145106
 20
58.7602654612
 10
226.8375246544
 20
59.977318576
 10
228.2486986071
 20
61.0775881321
 10
229.6752669432
 20
62.0538477026
 10
231.1078596857
 20
62.899682783
 10
232.53706718
 20
63.6095396214
 10
233.9535020802
 20
64.1787549182
 10
235.3478604282
 20
64.6035895663
 10
236.7109846687
 20
64.8812543816
 10
238.0339202428
 20
65.0099230022
 10
239.307977985
 20
64.9887526998
 10
240.5247904287
 20
64.8178834245
 10
241.6763648193
 20
64.4984334263
  0
LWPOLYLINE
  5
245
330
1F
100
AcDbEntity
  8
0
  6
Continuous
 62
     7
370
    18
100
AcDbPolyline
 90
       17
 70
   128
 43
0.0
 10
230.2578106405
 20
21.6064544765
 10
228.9973971997
 20
20.9899962294
 10
227.5920849516
 20
20.4302574429
 10
226.209372634
 20
20.0158174199
 10
224.8585776638
 20
19.7494694169
 10
223.5488017846
 20
19.6330076525
 10
222.2888711392
 20
19.667215526
 10
221.0872750248
 20
19.8518637216
 10
219.9521115634
 20
20.1857092634
 10
218.8910284322
 20
20.6665023646
 10
217.9111761075
 20
21.2910005012
 10
217.019156498
 20
22.0549973135
 10
216.2209821151
 20
22.953346185
 10
215.5220293161
 20
23.9799910453
 10
214.9270093284
 20
25.1280165632
 10
214.439930054
 20
26.3896842724
 10
214.0640763128
 20
27.7564953117
  0
ARC
  5
246
330
1F
100
AcDbEntity
  8
0
  6
Continuous
 62
     7
370
    18
100
AcDbCircle
 10
236.9193192156
 20
54.1209247902
 30
0.0
 40
11.12401072022521
100
AcDbArc
 50
9.0277736643
 51
48.7055209086
  0
LWPOLYLINE
  5
247
330
1F
100
AcDbEntity
  8
0
  6
Continuous
 62
     7
370
    18
100
AcDbPolyline
 90
       33
 70
   128
 43
0.0
 10
216.4503294596
 20
33.6250243724
 10
216.5086857226
 20
35.1591928932
 10
216.6832816767
 20
36.7483840656
 10
216.9727133051
 20
38.3798038035
 10
217.3746493601
 20
40.0403166602
 10
217.885853754
 20
41.7165524806
 10
218.5022119008
 20
43.3950164764
 10
219.218759692
 20
45.0621934064
 10
220.0297289362
 20
46.7046612616
 10
220.928589506
 20
48.3091946841
 10
221.9081046559
 20
49.8628759897
 10
222.9603876569
 20
51.3531947829
 10
224.0769663338
 20
52.7681536553
 10
225.248850237
 20
54.0963571537
 10
226.4666047286
 20
55.3271146255
 10
227.7204247395
 20
56.4505147371
 10
229.0002152763
 20
57.457513015
 10
230.2956722576
 20
58.3400028458
 10
231.596365491
 20
59.0908770666
 10
232.8918224723
 20
59.7040900295
 10
234.1716130091
 20
60.1747064535
 10
235.42543302
 20
60.4989361128
 10
236.6431875116
 20
60.6741680497
 10
237.8150714148
 20
60.6989929059
 10
238.9316500917
 20
60.573208333
 10
239.9839330927
 20
60.297829632
 10
240.9634482426
 20
59.8750724461
 10
241.8623088124
 20
59.3083413473
 10
242.6732780566
 20
58.6021986512
 10
243.3898258478
 20
57.7623301911
 10
244.0061839946
 20
56.7954981641
 10
244.5173883885
 20
55.7094863736
 10
244.8592335742
 20
54.7225438081
  0
LWPOLYLINE
  5
248
330
1F
100
AcDbEntity
  8
0
  6
Continuous
 62
     7
370
    18
100
AcDbPolyline
 90
       16
 70
   128
 43
0.0
 10
226.9205246407
 20
23.5886504123
 10
226.4666047286
 20
23.4874793866
 10
225.248850237
 20
23.3122474497
 10
224.0769663338
 20
23.2874225934
 10
222.9603876569
 20
23.4132071664
 10
221.9081046559
 20
23.6885858674
 10
220.928589506
 20
24.1113430532
 10
220.0297289362
 20
24.6780741521
 10
219.218759692
 20
25.3842168482
 10
218.5022119008
 20
26.2240853083
 10
217.885853754
 20
27.1909173353
 10
217.3746493601
 20
28.2769291258
 10
216.9727133051
 20
29.4733764912
 10
216.6832816767
 20
30.7706255841
 10
216.5086857226
 20
32.1582325587
 10
216.4503294596
 20
33.6250243724
  0
LWPOLYLINE
  5
249
330
1F
100
AcDbEntity
  8
0
  6
Continuous
 62
     7
370
    18
100
AcDbPolyline
 90
       23
 70
   128
 43
0.0
 10
203.209755063
 20
37.5948089274
 10
203.2670787282
 20
39.2705071037
 10
203.4386769877
 20
41.0015216546
 10
203.7234369013
 20
42.7766263512
 10
204.1195105931
 20
44.584308339
 10
204.6243323737
 20
46.4128457034
 10
205.2346253256
 20
48.2503778121
 10
205.9464342305
 20
50.0849893434
 10
206.7551400572
 20
51.9047802468
 10
207.6554994743
 20
53.6979509117
 10
208.6416725092
 20
55.4528683246
 10
209.7072646946
 20
57.1581558004
 10
210.8453639475
 20
58.8027492525
 10
212.0485899595
 20
60.3759865431
 10
213.3091396367
 20
61.867662612
 10
214.6188371491
 20
63.2681055187
 10
215.9691885897
 20
64.5682292891
 10
217.3514366334
 20
65.7596050138
 10
218.7566173372
 20
66.8345042841
 10
220.1756168567
 20
67.7859577901
 10
221.5992328554
 20
68.6077938129
 10
223.0182323749
 20
69.294682279
 10
223.3619539185
 20
69.4409605202
  0
ARC
  5
24A
330
1F
100
AcDbEntity
  8
0
  6
Continuous
 62
     7
370
    18
100
AcDbCircle
 10
223.3177467849
 20
37.4844494746
 30
0.0
 40
20.10829456460725
100
AcDbArc
 50
179.6855445598
 51
189.7664522394
  0
LWPOLYLINE
  5
24B
330
1F
100
AcDbEntity
  8
0
  6
Continuous
 62
     7
370
    18
100
AcDbPolyline
 90
       22
 70
   128
 43
0.0
 10
245.1058318214
 20
27.6958610281
 10
245.1650652657
 20
28.6427989763
 10
245.3414425828
 20
29.6369734921
 10
245.6310237007
 20
30.6561762916
 10
246.0273397369
 20
31.6776400082
 10
246.5215378775
 20
32.6785468329
 10
247.1025786116
 20
33.6365381013
 10
247.7574821916
 20
34.5302141797
 10
248.471619216
 20
35.3396117233
 10
249.2290371025
 20
36.0466499425
 10
250.0128164021
 20
36.6355347788
 10
250.8054487214
 20
37.0931116769
 10
251.5892280211
 20
37.409159158
 10
252.3466459076
 20
37.5766170164
 10
253.060782932
 20
37.5917445306
 10
253.715686512
 20
37.4542040309
 10
254.2967272461
 20
37.1670681146
 10
254.7909253867
 20
36.7367503177
 10
255.1872414229
 20
36.1728633566
 10
255.4768225408
 20
35.4880037992
 10
255.6531998578
 20
34.6974701991
 10
255.6590714407
 20
34.6546815381
  0
LWPOLYLINE
  5
24C
330
1F
100
AcDbEntity
  8
0
  6
Continuous
 62
     7
370
    18
100
AcDbPolyline
 90
       11
 70
   128
 43
0.0
 10
249.6595591752
 20
24.2620951635
 10
249.2290371025
 20
24.1056235999
 10
248.471619216
 20
23.9381657415
 10
247.7574821916
 20
23.9230382274
 10
247.1025786116
 20
24.060578727
 10
246.5215378775
 20
24.3477146434
 10
246.0273397369
 20
24.7780324403
 10
245.6310237007
 20
25.3419194013
 10
245.3414425828
 20
26.0267789588
 10
245.1650652657
 20
26.8173125589
 10
245.1058318214
 20
27.6958610281
  0
LWPOLYLINE
  5
24D
330
1F
100
AcDbEntity
  8
0
  6
Continuous
 62
     7
370
    18
100
AcDbPolyline
 90
       18
 70
   128
 43
0.0
 10
244.3987239365
 20
27.6958612182
 10
244.456303117
 20
28.6587479395
 10
244.6278664737
 20
29.6685114457
 10
244.9099227328
 20
30.704596467
 10
245.2967297156
 20
31.7459114387
 10
245.7804132053
 20
32.7712576756
 10
246.3511266444
 20
33.7597623459
 10
246.9972519908
 20
34.6913024101
 10
247.7056362996
 20
35.5469143938
 10
248.4618584339
 20
36.309180297
 10
249.250524175
 20
36.9625823702
 10
250.0555784547
 20
37.4938206259
 10
250.8606327344
 20
37.8920782567
 10
251.6492984755
 20
38.149250266
 10
252.4055206098
 20
38.2600998543
 10
253.1139049186
 20
38.2223709845
 10
253.760030265
 20
38.0368313661
 10
253.9178738347
 20
37.963922955
  0
ARC
  5
24E
330
1F
100
AcDbEntity
  8
0
  6
Continuous
 62
     7
370
    18
100
AcDbCircle
 10
248.3649424066
 20
27.2840718003
 30
0.0
 40
3.987538022054044
100
AcDbArc
 50
174.0725494964
 51
234.615277059
  0
LWPOLYLINE
  5
24F
330
1F
100
AcDbEntity
  8
0
  6
Continuous
 62
     7
370
    18
100
AcDbPolyline
 90
       14
 70
   128
 43
0.0
 10
247.0503754592
 20
28.8184221758
 10
247.107564452
 20
29.5641218252
 10
247.2771847732
 20
30.350457096
 10
247.55345967
 20
31.1506498277
 10
247.9269810113
 20
31.9374508084
 10
248.3850291742
 20
32.6840661317
 10
248.9120057092
 20
33.3650710894
 10
249.4899650312
 20
33.9572742453
 10
250.0992255499
 20
34.44050959
 10
250.7190395737
 20
34.7983206097
 10
251.3283000924
 20
35.0185224868
 10
251.9062594144
 20
35.0936169603
 10
252.4332359493
 20
35.021046159
 10
252.7165643518
 20
34.9078717257
  0
ARC
  5
250
330
1F
100
AcDbEntity
  8
0
  6
Continuous
 62
     7
370
    18
100
AcDbCircle
 10
249.43254738
 20
28.5783207571
 30
0.0
 40
2.394241372889505
100
AcDbArc
 50
174.2445398466
 51
232.3122558008
  0
LWPOLYLINE
  5
251
330
1F
100
AcDbEntity
  8
0
  6
Continuous
 62
     7
370
    18
100
AcDbPolyline
 90
       22
 70
   128
 43
0.0
 10
211.0327682836
 20
39.4216032849
 10
211.4270810274
 20
41.2298998919
 10
211.9377269756
 20
43.0603051671
 10
212.5609181802
 20
44.8992391197
 10
213.2920303417
 20
46.7330571978
 10
214.1256383704
 20
48.548152948
 10
215.0555585335
 20
50.3310606738
 10
216.0748912599
 20
52.0685516297
 10
217.1760725077
 20
53.7477328773
 10
218.3509330321
 20
55.3561468998
 10
219.5907550209
 20
56.8818590501
 10
220.8863399245
 20
58.3135499408
 10
222.228075298
 20
59.640598138
 10
223.6060055947
 20
60.8531560111
 10
225.0099075697
 20
61.9422267225
 10
226.4293648599
 20
62.8997316165
 10
227.8538456099
 20
63.7185641575
 10
229.2727807566
 20
64.3926503319
 10
230.6756425606
 20
64.9169894206
 10
232.0520226435
 20
65.2876899233
 10
233.3917082972
 20
65.5020014437
 10
233.51157591
 20
65.5136872561
  0
LWPOLYLINE
  5
252
330
1F
100
AcDbEntity
  8
0
  6
Continuous
 62
     7
370
    18
100
AcDbPolyline
 90
       18
 70
   128
 43
0.0
 10
211.6067629208
 20
39.4263998854
 10
212.0025297308
 20
41.2152026502
 10
212.5137446615
 20
43.0252487595
 10
213.1365723495
 20
44.8429574664
 10
213.8663384461
 20
46.6546895471
 10
214.697567812
 20
48.4468522411
 10
215.624025348
 20
50.2059988683
 10
216.6387581411
 20
51.9189299661
 10
217.7341527583
 20
53.5727932854
 10
218.901990564
 20
55.155178843
 10
220.1335089652
 20
56.654215875
 10
221.4194679237
 20
58.0586553405
 10
222.7502194333
 20
59.3579602204
 10
224.1157776543
 20
60.5423825077
 10
225.5058972806
 20
61.603034303
 10
226.9101481196
 20
62.5319582459
 10
228.3179937883
 20
63.3221820703
 10
229.4377132286
 20
63.8495987993
  0
LWPOLYLINE
  5
253
330
1F
100
AcDbEntity
  8
0
  6
Continuous
 62
     7
370
    18
100
AcDbPolyline
 90
        3
 70
   128
 43
0.0
 10
236.0804401561
 20
32.3617669984
 10
236.1392185462
 20
33.3447235538
 10
236.3021582625
 20
34.3198280618
  0
LWPOLYLINE
  5
254
330
1F
100
AcDbEntity
  8
0
  6
Continuous
 62
     7
370
    18
100
AcDbPolyline
 90
       10
 70
   128
 43
0.0
 10
240.9492380046
 20
41.7583747105
 10
241.0333709344
 20
41.8216441253
 10
241.8552057514
 20
42.3639543818
 10
242.6770405683
 20
42.7705144077
 10
243.4821452267
 20
43.033046328
 10
244.2541301177
 20
43.1462061493
 10
244.9772796529
 20
43.107690716
 10
245.636872893
 20
42.9182840208
 10
246.2194826094
 20
42.5818412544
 10
246.6831025529
 20
42.1414091284
  0
ARC
  5
255
330
1F
100
AcDbEntity
  8
0
  6
Continuous
 62
     7
370
    18
100
AcDbCircle
 10
239.1639299597
 20
31.0324613046
 30
0.0
 40
2.782434618475249
100
AcDbArc
 50
221.1991149097
 51
260.140797085
  0
LINE
  5
256
330
1F
100
AcDbEntity
  8
0
  6
Continuous
 62
     7
370
    18
100
AcDbLine
 10
236.0871125291
 20
32.0451507132
 30
0.0
 11
236.0804401561
 21
32.3617669984
 31
0.0
  0
ARC
  5
257
330
1F
100
AcDbEntity
  8
0
  6
Continuous
 62
     7
370
    18
100
AcDbCircle
 10
248.5957963463
 20
31.7624579556
 30
0.0
 40
11.77131178406145
100
AcDbArc
 50
118.5837509686
 51
177.8783654124
  0
LWPOLYLINE
  5
258
330
1F
100
AcDbEntity
  8
0
  6
Continuous
 62
     7
370
    18
100
AcDbPolyline
 90
       17
 70
   128
 43
0.0
 10
236.5321628345
 20
32.3800018358
 10
236.5911272634
 20
33.3443500368
 10
236.7667633885
 20
34.3562234453
 10
237.0553283723
 20
35.39405597
 10
237.450671409
 20
36.4357279386
 10
237.9443667508
 20
37.4590378571
 10
238.5258918444
 20
38.4421754966
 10
239.1828528821
 20
39.364187465
 10
239.9012478906
 20
40.2054224337
 10
240.6657652162
 20
40.9479509799
 10
241.4601105744
 20
41.5759471661
 10
242.2673539384
 20
42.0760260573
 10
243.070290339
 20
42.4375303351
 10
243.8518065093
 20
42.6527545039
 10
244.5952458008
 20
42.717111446
 10
245.2847633033
 20
42.6292298225
 10
245.8401313383
 20
42.4249274542
  0
ARC
  5
259
330
1F
100
AcDbEntity
  8
0
  6
Continuous
 62
     7
370
    18
100
AcDbCircle
 10
239.5841349239
 20
31.2245259179
 30
0.0
 40
2.818493027836161
100
AcDbArc
 50
211.0068571121
 51
237.1262225785
  0
LINE
  5
25A
330
1F
100
AcDbEntity
  8
0
  6
Continuous
 62
     7
370
    18
100
AcDbLine
 10
236.5675243697
 20
31.6792046343
 30
0.0
 11
236.5321628345
 21
32.3800018358
 31
0.0
  0
LINE
  5
25B
330
1F
100
AcDbEntity
  8
0
  6
Continuous
 62
     7
370
    18
100
AcDbLine
 10
204.7866040172
 20
37.0968668497
 30
0.0
 11
206.939742945
 21
38.3398474951
 31
0.0
  0
LWPOLYLINE
  5
25C
330
1F
100
AcDbEntity
  8
0
  6
Continuous
 62
     7
370
    18
100
AcDbPolyline
 90
       21
 70
   128
 43
0.0
 10
192.3394351741
 20
57.2789060016
 10
192.9195872024
 20
58.8789495184
 10
193.6046941031
 20
60.4675465855
 10
194.3881111621
 20
62.0292885669
 10
195.2622394344
 20
63.5490266141
 10
196.2185995009
 20
65.0120199496
 10
197.2479164206
 20
66.4040776852
 10
198.3402043541
 20
67.7116974085
 10
199.484869625
 20
68.9221961629
 10
200.6708091729
 20
70.0238319222
 10
201.8865192131
 20
71.0059195513
 10
203.1202082593
 20
71.8589310336
 10
204.3599095699
 20
72.5745953668
 10
205.593598616
 20
73.1459709383
 10
206.8093086563
 20
73.5675122446
 10
207.9952482042
 20
73.8351331419
 10
209.1399134751
 20
73.9462367782
 10
210.2322014085
 20
73.8997458589
 10
211.2615183283
 20
73.6961121425
 10
212.2178783948
 20
73.3373086364
 10
212.3190519046
 20
73.2880873079
  0
ARC
  5
25D
330
1F
100
AcDbEntity
  8
0
  6
Continuous
 62
     7
370
    18
100
AcDbCircle
 10
198.2117301444
 20
47.9311419249
 30
0.0
 40
6.582973660494233
100
AcDbArc
 50
206.868908893
 51
235.9973871746
  0
ARC
  5
25E
330
1F
100
AcDbEntity
  8
0
  6
Continuous
 62
     7
370
    18
100
AcDbCircle
 10
225.6002468192
 20
30.2122470021
 30
0.0
 40
12.49705745126578
100
AcDbArc
 50
191.3572172803
 51
215.625579834
  0
LINE
  5
25F
330
1F
100
AcDbEntity
  8
0
  6
Continuous
 62
     7
370
    18
100
AcDbLine
 10
208.7517064267
 20
30.4045864136
 30
0.0
 11
210.4752767719
 21
31.3995823948
 31
0.0
  0
LINE
  5
260
330
1F
100
AcDbEntity
  8
0
  6
Continuous
 62
     7
370
    18
100
AcDbLine
 10
204.7866040172
 20
36.2803259991
 30
0.0
 11
206.939742945
 21
37.5233066444
 31
0.0
  0
LINE
  5
261
330
1F
100
AcDbEntity
  8
0
  6
Continuous
 62
     7
370
    18
100
AcDbLine
 10
212.4573409829
 20
29.7319160893
 30
0.0
 11
212.3916511683
 21
29.9913446627
 31
0.0
  0
LINE
  5
262
330
1F
100
AcDbEntity
  8
0
  6
Continuous
 62
     7
370
    18
100
AcDbLine
 10
211.942740475
 20
29.2847234545
 30
0.0
 11
211.6067629208
 21
30.4444510034
 31
0.0
  0
LWPOLYLINE
  5
263
330
1F
100
AcDbEntity
  8
0
  6
Continuous
 62
     7
370
    18
100
AcDbPolyline
 90
        3
 70
   128
 43
0.0
 10
211.8607760499
 20
28.0093388307
 10
211.4158646974
 20
29.118908484
 10
211.0327682836
 20
30.4396544029
  0
LINE
  5
264
330
1F
100
AcDbEntity
  8
0
  6
Continuous
 62
     7
370
    18
100
AcDbLine
 10
239.6642663689
 20
65.6594888134
 30
0.0
 11
239.5638976004
 21
65.6015471566
 31
0.0
  0
ARC
  5
265
330
1F
100
AcDbEntity
  8
0
  6
Continuous
 62
     7
370
    18
100
AcDbCircle
 10
198.2852863035
 20
54.9648202805
 30
0.0
 40
1.964447334399962
100
AcDbArc
 50
160.1813044298
 51
207.3718179748
  0
ARC
  5
266
330
1F
100
AcDbEntity
  8
0
  6
Continuous
 62
     7
370
    18
100
AcDbCircle
 10
196.0520022527
 20
54.9034024589
 30
0.0
 40
0.8231407192532734
100
AcDbArc
 50
40.3516534992
 51
62.0985447238
  0
LINE
  5
267
330
1F
100
AcDbEntity
  8
0
  6
Continuous
 62
     7
370
    18
100
AcDbLine
 10
196.4371928136
 20
55.6308561519
 30
0.0
 11
196.5849952259
 21
56.1851109846
 31
0.0
  0
LINE
  5
268
330
1F
100
AcDbEntity
  8
0
  6
Continuous
 62
     7
370
    18
100
AcDbLine
 10
196.4371928136
 20
55.6308561519
 30
0.0
 11
195.1839733953
 21
56.3543243227
 31
0.0
  0
LINE
  5
269
330
1F
100
AcDbEntity
  8
0
  6
Continuous
 62
     7
370
    18
100
AcDbLine
 10
192.3392916114
 20
58.1608113594
 30
0.0
 11
192.3246712647
 21
58.3365372032
 31
0.0
  0
ARC
  5
26A
330
1F
100
AcDbEntity
  8
0
  6
Continuous
 62
     7
370
    18
100
AcDbCircle
 10
196.1555437728
 20
41.6019594039
 30
0.0
 40
0.5806338492589469
100
AcDbArc
 50
25.5709532967
 51
60.9828307538
  0
ARC
  5
26B
330
1F
100
AcDbEntity
  8
0
  6
Continuous
 62
     7
370
    18
100
AcDbCircle
 10
198.392650624
 20
42.7557010453
 30
0.0
 40
2.059398257763961
100
AcDbArc
 50
172.8727688224
 51
198.2811498096
  0
LINE
  5
26C
330
1F
100
AcDbEntity
  8
0
  6
Continuous
 62
     7
370
    18
100
AcDbLine
 10
195.592008231
 20
47.143311658
 30
0.0
 11
193.9749403378
 21
48.0768250823
 31
0.0
  0
LINE
  5
26D
330
1F
100
AcDbEntity
  8
0
  6
Continuous
 62
     7
370
    18
100
AcDbLine
 10
196.4371928136
 20
42.109708835
 30
0.0
 11
195.1839733953
 21
42.8331770058
 31
0.0
  0
LINE
  5
26E
330
1F
100
AcDbEntity
  8
0
  6
Continuous
 62
     7
370
    18
100
AcDbLine
 10
196.4371928136
 20
42.109708835
 30
0.0
 11
196.5849952259
 21
41.7261030351
 31
0.0
  0
LWPOLYLINE
  5
26F
330
1F
100
AcDbEntity
  8
0
  6
Continuous
 62
     7
370
    18
100
AcDbPolyline
 90
       29
 70
   128
 43
0.0
 10
232.6250617326
 20
28.0820340207
 10
232.80649733
 20
28.7428684216
 10
233.0905407471
 20
29.4023732685
 10
233.4629522762
 20
30.0274800756
 10
233.9050549364
 20
30.5868419387
 10
234.3946808024
 20
31.0524105036
 10
234.907278018
 20
31.4008405324
 10
235.4171429324
 20
31.6146599505
 10
235.8987082137
 20
31.683146919
 10
236.3278263518
 20
31.6028673622
 10
236.6829800635
 20
31.3778469081
 10
236.9463603297
 20
31.01936898
 10
237.1047593816
 20
30.5454087855
 10
237.1502351726
 20
29.9797331095
 10
237.080507163
 20
29.3507071289
 10
236.8990722242
 20
28.6898731082
 10
236.6150274899
 20
28.0303675009
 10
236.2426166194
 20
27.4052610739
 10
235.8005133007
 20
26.8458988307
 10
235.3108874346
 20
26.3803302658
 10
234.798290219
 20
26.031900237
 10
234.2884259632
 20
25.8180811991
 10
233.8068606819
 20
25.7495942306
 10
233.3777418852
 20
25.8298734073
 10
233.0225881735
 20
26.0548938614
 10
232.7592085659
 20
26.4133721696
 10
232.6008088554
 20
26.8873319839
 10
232.555333723
 20
27.4530080401
 10
232.6250617326
 20
28.0820340207
  0
LWPOLYLINE
  5
270
330
1F
100
AcDbEntity
  8
0
  6
Continuous
 62
     7
370
    18
100
AcDbPolyline
 90
       11
 70
   128
 43
0.0
 10
232.2769208613
 20
28.1352898222
 10
232.4636630104
 20
28.8222343611
 10
232.7538519649
 20
29.5090005606
 10
233.1339190739
 20
30.1634762966
 10
233.5860915381
 20
30.7550582176
 10
234.0892281033
 20
31.2560857092
 10
234.6198009498
 20
31.6431301669
 10
235.1530027059
 20
31.8980949015
 10
235.6639002181
 20
32.009057244
 10
236.1286054429
 20
31.9708292766
 10
236.3511302663
 20
31.8891993212
  0
ARC
  5
271
330
1F
100
AcDbEntity
  8
0
  6
Continuous
 62
     7
370
    18
100
AcDbCircle
 10
234.3149528498
 20
27.4378144785
 30
0.0
 40
2.15407665630925
100
AcDbArc
 50
161.1075234371
 51
230.3675306728
  0
LWPOLYLINE
  5
272
330
1F
100
AcDbEntity
  8
0
  6
Continuous
 62
     7
370
    18
100
AcDbPolyline
 90
       21
 70
   128
 43
0.0
 10
251.7424369192
 20
39.2250456184
 10
251.7977395113
 20
39.44507338
 10
252.0339732558
 20
40.1093876979
 10
252.3660173236
 20
40.7550730916
 10
252.777221734
 20
41.3497524198
 10
253.2469667999
 20
41.8636057798
 10
253.7516970428
 20
42.2708659561
 10
254.2661039387
 20
42.5511119519
 10
254.7643929577
 20
42.6902909321
 10
255.2215769457
 20
42.6814232415
 10
255.6147319682
 20
42.5249543809
 10
255.9241425199
 20
42.2287298048
 10
256.134293292
 20
41.8076031893
 10
256.2346488895
 20
41.2826931024
 10
256.2201740813
 20
40.6803189241
 10
256.0915959003
 20
40.0306869804
 10
255.8553614973
 20
39.3663722824
 10
255.5233167709
 20
38.7206865084
 10
255.112113019
 20
38.1260075604
 10
254.6423679531
 20
37.6121542004
 10
254.5236462078
 20
37.5039611669
  0
LWPOLYLINE
  5
273
330
1F
100
AcDbEntity
  8
0
  6
Continuous
 62
     7
370
    18
100
AcDbPolyline
 90
       12
 70
   128
 43
0.0
 10
251.4250145151
 20
39.4082889272
 10
251.4558139832
 20
39.5246009277
 10
251.6996407458
 20
40.2154757908
 10
252.040176745
 20
40.8887906662
 10
252.4614990333
 20
41.5130622683
 10
252.9439059344
 20
42.0590995111
 10
253.4648422991
 20
42.5013715893
 10
253.9999479074
 20
42.8191971486
 10
254.5242033364
 20
42.9977156697
 10
255.0130942668
 20
43.0285797603
 10
255.4437606431
 20
42.9103461157
 10
255.5004204954
 20
42.880908794
  0
LWPOLYLINE
  5
274
330
1F
100
AcDbEntity
  8
0
  6
Continuous
 62
     7
370
    18
100
AcDbPolyline
 90
       37
 70
   128
 43
0.0
 10
255.8538540889
 20
29.2882903203
 10
255.2884439087
 20
28.5047101296
 10
254.8003718784
 20
27.6593445779
 10
254.4044674325
 20
26.7778789991
 10
254.1127602036
 20
25.8870969081
 10
253.934113213
 20
25.0140637261
 10
253.8739551722
 20
24.1853065983
 10
253.934113213
 20
23.426006466
 10
254.1127602036
 20
22.7592347089
 10
254.4044674325
 20
22.2052506155
 10
254.8003718784
 20
21.7808865802
 10
255.2884439087
 20
21.4990369999
 10
255.8538540889
 20
21.3682655078
 10
256.4794223099
 20
21.3925456138
 10
257.1461412897
 20
21.5711393372
 10
257.8337530056
 20
21.8986208464
 10
258.5213647215
 20
22.3650389257
 10
259.1880837013
 20
22.9562225512
 10
259.8136519223
 20
23.6542081394
 10
260.3790621025
 20
24.4377883302
 10
260.8671341328
 20
25.2831538819
 10
261.2630385787
 20
26.1646194607
 10
261.5547458076
 20
27.0554015516
 10
261.7333927983
 20
27.9284347337
 10
261.7935508391
 20
28.7571918615
 10
261.7333927983
 20
29.5164919938
 10
261.5547458076
 20
30.1832637508
 10
261.2630385787
 20
30.7372478442
 10
260.8671341328
 20
31.1616118795
 10
260.3790621025
 20
31.4434614598
 10
259.8136519223
 20
31.5742329519
 10
259.1880837013
 20
31.549952846
 10
258.5213647215
 20
31.3713591226
 10
257.8337530056
 20
31.0438776134
 10
257.1461412897
 20
30.577459534
 10
256.4794223099
 20
29.9862759085
 10
255.8538540889
 20
29.2882903203
  0
LWPOLYLINE
  5
275
330
1F
100
AcDbEntity
  8
0
  6
Continuous
 62
     7
370
    18
100
AcDbPolyline
 90
        9
 70
   128
 43
0.0
 10
255.4295904116
 20
29.6527887774
 10
256.0632816145
 20
30.3639382617
 10
256.7375514245
 20
30.9733593364
 10
257.4340075989
 20
31.4644286303
 10
258.1336525693
 20
31.8237505422
 10
258.8174018394
 20
32.0415241872
 10
259.4666045643
 20
32.1118089397
 10
260.0635521117
 20
32.0326879797
 10
260.5623258195
 20
31.8240408839
  0
LWPOLYLINE
  5
276
330
1F
100
AcDbEntity
  8
0
  6
Continuous
 62
     7
370
    18
100
AcDbPolyline
 90
       13
 70
   128
 43
0.0
 10
254.5511545997
 20
21.4382373638
 10
254.509860237
 20
21.4627416419
 10
254.0644026219
 20
21.8301830255
 10
253.7140483825
 20
22.3286748005
 10
253.4683533292
 20
22.9446188039
 10
253.3340201277
 20
23.6612142128
 10
253.3147125905
 20
24.4589138405
 10
253.410957224
 20
25.3159585128
 10
253.620129399
 20
26.2089706109
 10
253.9365228273
 20
27.1135906199
 10
254.3515072832
 20
28.0051430893
 10
254.8537633744
 20
28.8593090978
 10
255.4295904116
 20
29.6527887774
  0
OLE2FRAME
  5
277
330
1F
100
AcDbEntity
  8
0
100
AcDbOle2Frame
 70
     2
  3
Paintbrush-Bild
 10
13.8511154363
 20
38.264191557
 30
0.0
 11
51.6290888628
 21
31.9806341108
 31
0.0
 71
     2
 72
     0
 73
     1
 90
    12928
310
80552BED0767C5B32B40DDAF6807D121434000000000000000006FFBDDFB85D0
310
4940DDAF6807D121434000000000000000006FFBDDFB85D04940416F4BD60AFB
310
3F4000000000000000002BED0767C5B32B40416F4BD60AFB3F40000000000000
310
0000000000000100000000010000010000000100000000000100000000320000
310
D0CF11E0A1B11AE1000000000000000000000000000000003E000300FEFF0900
310
0600000000000000000000000100000001000000000000000010000002000000
310
01000000FEFFFFFF0000000000000000FFFFFFFFFFFFFFFFFFFFFFFFFFFFFFFF
310
FFFFFFFFFFFFFFFFFFFFFFFFFFFFFFFFFFFFFFFFFFFFFFFFFFFFFFFFFFFFFFFF
310
FFFFFFFFFFFFFFFFFFFFFFFFFFFFFFFFFFFFFFFFFFFFFFFFFFFFFFFFFFFFFFFF
310
FFFFFFFFFFFFFFFFFFFFFFFFFFFFFFFFFFFFFFFFFFFFFFFFFFFFFFFFFFFFFFFF
310
FFFFFFFFFFFFFFFFFFFFFFFFFFFFFFFFFFFFFFFFFFFFFFFFFFFFFFFFFFFFFFFF
310
FFFFFFFFFFFFFFFFFFFFFFFFFFFFFFFFFFFFFFFFFFFFFFFFFFFFFFFFFFFFFFFF
310
FFFFFFFFFFFFFFFFFFFFFFFFFFFFFFFFFFFFFFFFFFFFFFFFFFFFFFFFFFFFFFFF
310
FFFFFFFFFFFFFFFFFFFFFFFFFFFFFFFFFFFFFFFFFFFFFFFFFFFFFFFFFFFFFFFF
310
FFFFFFFFFFFFFFFFFFFFFFFFFFFFFFFFFFFFFFFFFFFFFFFFFFFFFFFFFFFFFFFF
310
FFFFFFFFFFFFFFFFFFFFFFFFFFFFFFFFFFFFFFFFFFFFFFFFFFFFFFFFFFFFFFFF
310
FFFFFFFFFFFFFFFFFFFFFFFFFFFFFFFFFFFFFFFFFFFFFFFFFFFFFFFFFFFFFFFF
310
FFFFFFFFFFFFFFFFFFFFFFFFFFFFFFFFFFFFFFFFFFFFFFFFFFFFFFFFFFFFFFFF
310
FFFFFFFFFFFFFFFFFFFFFFFFFFFFFFFFFFFFFFFFFFFFFFFFFFFFFFFFFFFFFFFF
310
FFFFFFFFFFFFFFFFFFFFFFFFFFFFFFFFFFFFFFFFFFFFFFFFFFFFFFFFFFFFFFFF
310
FDFFFFFFFEFFFFFFFEFFFFFFFEFFFFFF05000000060000000700000008000000
310
090000000A0000000B0000000C0000000D0000000E0000000F00000010000000
310
11000000120000001300000014000000150000001600000017000000FEFFFFFF
310
FFFFFFFFFFFFFFFFFFFFFFFFFFFFFFFFFFFFFFFFFFFFFFFFFFFFFFFFFFFFFFFF
310
FFFFFFFFFFFFFFFFFFFFFFFFFFFFFFFFFFFFFFFFFFFFFFFFFFFFFFFFFFFFFFFF
310
FFFFFFFFFFFFFFFFFFFFFFFFFFFFFFFFFFFFFFFFFFFFFFFFFFFFFFFFFFFFFFFF
310
FFFFFFFFFFFFFFFFFFFFFFFFFFFFFFFFFFFFFFFFFFFFFFFFFFFFFFFFFFFFFFFF
310
FFFFFFFFFFFFFFFFFFFFFFFFFFFFFFFFFFFFFFFFFFFFFFFFFFFFFFFFFFFFFFFF
310
FFFFFFFFFFFFFFFFFFFFFFFFFFFFFFFFFFFFFFFFFFFFFFFFFFFFFFFFFFFFFFFF
310
FFFFFFFFFFFFFFFFFFFFFFFFFFFFFFFFFFFFFFFFFFFFFFFFFFFFFFFFFFFFFFFF
310
FFFFFFFFFFFFFFFFFFFFFFFFFFFFFFFFFFFFFFFFFFFFFFFFFFFFFFFFFFFFFFFF
310
FFFFFFFFFFFFFFFFFFFFFFFFFFFFFFFFFFFFFFFFFFFFFFFFFFFFFFFFFFFFFFFF
310
FFFFFFFFFFFFFFFFFFFFFFFFFFFFFFFFFFFFFFFFFFFFFFFFFFFFFFFFFFFFFFFF
310
FFFFFFFFFFFFFFFFFFFFFFFFFFFFFFFFFFFFFFFFFFFFFFFFFFFFFFFFFFFFFFFF
310
FFFFFFFFFFFFFFFFFFFFFFFFFFFFFFFFFFFFFFFFFFFFFFFFFFFFFFFFFFFFFFFF
310
FFFFFFFFFFFFFFFFFFFFFFFFFFFFFFFFFFFFFFFFFFFFFFFFFFFFFFFFFFFFFFFF
310
52006F006F007400200045006E00740072007900000000000000000000000000
310
0000000000000000000000000000000000000000000000000000000000000000
310
16000500FFFFFFFFFFFFFFFF020000000A00030000000000C000000000000046
310
000000000000000000000000E021BF1D66A9D30103000000C000000000000000
310
01004F006C006500000000000000000000000000000000000000000000000000
310
0000000000000000000000000000000000000000000000000000000000000000
310
0A000200FFFFFFFFFFFFFFFFFFFFFFFF00000000000000000000000000000000
310
0000000000000000000000000000000000000000000000001400000000000000
310
010043006F006D0070004F0062006A0000000000000000000000000000000000
310
0000000000000000000000000000000000000000000000000000000000000000
310
120002010100000003000000FFFFFFFF00000000000000000000000000000000
310
0000000000000000000000000000000000000000010000004D00000000000000
310
01004F006C006500310030004E00610074006900760065000000000000000000
310
0000000000000000000000000000000000000000000000000000000000000000
310
1A000200FFFFFFFFFFFFFFFFFFFFFFFF00000000000000000000000000000000
310
0000000000000000000000000000000000000000040000002426000000000000
310
FEFFFFFF02000000FEFFFFFFFFFFFFFFFFFFFFFFFFFFFFFFFFFFFFFFFFFFFFFF
310
FFFFFFFFFFFFFFFFFFFFFFFFFFFFFFFFFFFFFFFFFFFFFFFFFFFFFFFFFFFFFFFF
310
FFFFFFFFFFFFFFFFFFFFFFFFFFFFFFFFFFFFFFFFFFFFFFFFFFFFFFFFFFFFFFFF
310
FFFFFFFFFFFFFFFFFFFFFFFFFFFFFFFFFFFFFFFFFFFFFFFFFFFFFFFFFFFFFFFF
310
FFFFFFFFFFFFFFFFFFFFFFFFFFFFFFFFFFFFFFFFFFFFFFFFFFFFFFFFFFFFFFFF
310
FFFFFFFFFFFFFFFFFFFFFFFFFFFFFFFFFFFFFFFFFFFFFFFFFFFFFFFFFFFFFFFF
310
FFFFFFFFFFFFFFFFFFFFFFFFFFFFFFFFFFFFFFFFFFFFFFFFFFFFFFFFFFFFFFFF
310
FFFFFFFFFFFFFFFFFFFFFFFFFFFFFFFFFFFFFFFFFFFFFFFFFFFFFFFFFFFFFFFF
310
FFFFFFFFFFFFFFFFFFFFFFFFFFFFFFFFFFFFFFFFFFFFFFFFFFFFFFFFFFFFFFFF
310
FFFFFFFFFFFFFFFFFFFFFFFFFFFFFFFFFFFFFFFFFFFFFFFFFFFFFFFFFFFFFFFF
310
FFFFFFFFFFFFFFFFFFFFFFFFFFFFFFFFFFFFFFFFFFFFFFFFFFFFFFFFFFFFFFFF
310
FFFFFFFFFFFFFFFFFFFFFFFFFFFFFFFFFFFFFFFFFFFFFFFFFFFFFFFFFFFFFFFF
310
FFFFFFFFFFFFFFFFFFFFFFFFFFFFFFFFFFFFFFFFFFFFFFFFFFFFFFFFFFFFFFFF
310
FFFFFFFFFFFFFFFFFFFFFFFFFFFFFFFFFFFFFFFFFFFFFFFFFFFFFFFFFFFFFFFF
310
FFFFFFFFFFFFFFFFFFFFFFFFFFFFFFFFFFFFFFFFFFFFFFFFFFFFFFFFFFFFFFFF
310
FFFFFFFFFFFFFFFFFFFFFFFFFFFFFFFFFFFFFFFFFFFFFFFFFFFFFFFFFFFFFFFF
310
0100000200000000000000000000000000000000000000000000000000000000
310
0000000000000000000000000000000000000000000000000000000000000000
310
0100FEFF030A0000FFFFFFFF0A00030000000000C00000000000004607000000
310
5042727573680007000000504272757368000700000050427275736800F439B2
310
7100000000000000000000000000000000000000000000000000000000000000
310
0000000000000000000000000000000000000000000000000000000000000000
310
0000000000000000000000000000000000000000000000000000000000000000
310
0000000000000000000000000000000000000000000000000000000000000000
310
0000000000000000000000000000000000000000000000000000000000000000
310
0000000000000000000000000000000000000000000000000000000000000000
310
0000000000000000000000000000000000000000000000000000000000000000
310
0000000000000000000000000000000000000000000000000000000000000000
310
0000000000000000000000000000000000000000000000000000000000000000
310
0000000000000000000000000000000000000000000000000000000000000000
310
0000000000000000000000000000000000000000000000000000000000000000
310
0000000000000000000000000000000000000000000000000000000000000000
310
20260000424D0E260000000000003E00000028000000B40200006E0000000100
310
01000000000000000000130B0000130B00000200000002000000000000FFFFFF
310
FFFFFFFFFFFFFFFFFFFFFFFFFFFFFFFFFFFFFFFFFFFFFFFFFFFFFFFFFFFFFFFF
310
FFFFFFFFFFFFFFFFFFFFFFFFFFFFFFFFFFFFFFFFFFFFFFFFFFFFFFFFFFFFFFFF
310
FFFFFFFFFFFFFFFFFFFFFFFFFFFFFFFFFFFFFFFFFFFFFFFFF000FFFFFFFFFFFF
310
FFFFFFFFFFFFFFFFFFFFFFFFFFFFFFFFFFFFFFFFFFFFFFFFFFFFFFFFFFFFFFFF
310
FFFFFFFFFFFFFFFFFFFFFFFFFFFFFFFFFFFFFFFFFFFFFFFFFFFFFFFFFFFFFFFF
310
FFFFFFFFFFFFFFFFFFFFFFFFFFFFFFFFF000FFFFFFFFFFFFFFFFFFFFFFFFFFFF
310
FFFFFFFFFFFFFFFFFFFFFFFFFFFFFFFFFFFFFFFFFFFFFFFFFFFFFFFFFFFFFFFF
310
FFFFFFFFFFFFFFFFFFFFFFFFFFFFFFFFFFFFFFFFFFFFFFFFFFFFFFFFFFFFFFFF
310
FFFFFFFFFFFFFFFFF000FFFFFFFFFFFFFFFFFFFFFFFFFFFFFFFFFFFFFFFFFFFF
310
FFFFFFFFFFFFFFFFFFFFFFFFFFFFFFFFFFFFFFFFFFFFFFFFFFFFFFFFFFFFFFFF
310
FFFFFFFFFFFFFFFFFFFFFFFFFFFFFFFFFFFFFFFFFFFFFFFFFFFFFFFFFFFFFFFF
310
F000FFFFFFFFFFFFFFFFFFFFFFFFFFFFFFFFFFFFFFFFFFFFFFFFFFFFFFFFFFFF
310
FFFFFFFFFFFFFFFFFFFFFFFFFFFFFFFFFFFFFFFFFFFFFFFFFFFFFFFFFFFFFFFF
310
FFFFFFFFFFFFFFFFFFFFFFFFFFFFFFFFFFFFFFFFFFFFFFFFF000FFFFFFFFFFFF
310
FFFFFFFFFFFFFFFFFFFFFFFFFFFFFFFFFFFFFFFFFFFFFFFFFFFFFFFFFFFFFFFF
310
FFFFFFFFFFFFFFFFFFFFFFFFFFFFFFFFFFFFFFFFFFFFFFFFFFFFFFFFFFFFFFFF
310
FFFFFFFFFFFFFFFFFFFFFFFFFFFFFFFFF000FFFFFFFFFFFFFFFFFFFFFFFFFFFF
310
FFFFFFFFFFFFFFFFFFFFFFFFFFFFFFFFFFFFFFFFFFFFFFFFFFFFFFFFFFFFFFFF
310
FFFFFFFFFFFFFFFFFFFFFFFFFFFFFFFFFFFFFFFFFFFFFFFFFFFFFFFFFFFFFFFF
310
FFFFFFFFFFFFFFFFF000FFFFFFFFFFFFFFFFFFFFFFFFFFFFFFFFFFFFFFFFFFFF
310
FFFFFFFFFFFFFFFFFFFFFFFFFFFFFFFFFFFFFFFFFFFFFFFFFFFFFFFFFFFFFFFF
310
FFFFFFFFFFFFFFFFFFFFFFFFFFFFFFFFFFFFFFFFFFFFFFFFFFFFFFFFFFFFFFFF
310
F000FFFFFFFFFFFFFFFFFFFFFFFFFFFFFFFFFFFFFFFFFFFFFFFFFFFFFFFFFFFF
310
FFFFFFFFFFFFFFFFFFFFFFFFFFFFFFFFFFFFFFFFFFFFFFFFFFFFFFFFFFFFFFFF
310
FFFFFFFFFFFFFFFFFFFFFFFFFFFFFFFFFFFFFFFFFFFFFFFFF000FFFFFFFFFFFF
310
FFFFFFFFFFFFFFFFFFFFFFFFFFFFFFFFFFFFFFFFFFFFFFFFFFFFFFFFFFFFFFFF
310
FFFFFFFFFFFFFFFFFFFFFFFFFFFFFFFFFFFFFFFFFFFFFFFFFFFFFFFFFFFFFFFF
310
FFFFFFFFFFFFFFFFFFFFFFFFFFFFFFFFF000FFFFFFFFFFFFFFFFFFFFFFFFFFFF
310
FFFFFFFFFFFFFFFFFFFFFFFFFFFFFFFFFFFFFFFFFFFFFFFFFFFFFFFFFFFFFFFF
310
FFFFFFFFFFFFFFFFFFFFFFFFFFFFFFFFFFFFFFFFFFFFFFFFFFFFFFFFFFFFFFFF
310
FFFFFFFFFFFFFFFFF000FFFFFFFFFFFFFFFFFFFFFFFFFFFFFFFFFFFFFFFFFFFF
310
FFFFFFFFFFFFFFFFFFFFFFFFFFFFFFFFFFFFFFFFFFFFFFFFFFFFFFFFFFFFFFFF
310
FFFFFFFFFFFFFFFFFFFFFFFFFFFFFFFFFFFFFFFFFFFFFFFFFFFFFFFFFFFFFFFF
310
F000FFFFFFFFFFFFFFFFFFFFFFFFFFFFFFFFFFFFFFFFFFFFFFFFFFFFFFFFFFFF
310
FFFFFFFFFFFFFFFFFFFFFFFFFFFFFFFFFFFFFFFFFFFFFFFFFFFFFFFFFFFFFFFF
310
FFFFFFFFFFFFFFFFFFFFFFFFFFFFFFFFFFFFFFFFFFFFFFFFF000FFFFFFFFFFFF
310
FFFFFFFFFFFFFFFFFFFFFFFFFFFFFFFFFFFFFFFFFFFFFFFFFFFFFFFFFFFFFFFF
310
FFFFFFFFFFFFFFFFFFFFFFFFFFFFFFFFFFFFFFFFFFFFFFFFFFFFFFFFFFFFFFFF
310
FFFFFFFFFFFFFFFFFFFFFFFFFFFFFFFFF000FFFFFFFFFFFFFFFFFFFFFFFFFFFF
310
FFFFFFFFFFFFFFFFFFFFFFFFFFFFFFFFFFFFFFFFFFFFFFFFFFFFFFFFFFFFFFFF
310
FFFFFFFFFFFFFFFFFFFFFFFFFFFFFFFFFFFFFFFFFFFFFFFFFFFFFFFFFFFFFFFF
310
FFFFFFFFFFFFFFFFF000FFFFFFFFFFFFFFFFFFFFFFFFFFFFFFFFFFFFFFFFFFFF
310
FFFFFFFFFFFFFFFFFFFFFFFFFFFFFFFFFFFFFFFFFFFFFFFFFFFFFFFFFFFFFFFF
310
FFFFFFFFFFFFFFFFFFFFFFFFFFFFFFFFFFFFFFFFFFFFFFFFFFFFFFFFFFFFFFFF
310
F000FFFFFFFFFFFFFFFFFFFFFFFFFFFFFFFFFFFFFFFFFFFFFFFFFFFFFFFFFFFF
310
FFFFFFFFFFFFFFFFFFFFFFFFFFFFFFFFFFFFFFFFFFFFFFFFFFFFFFFFFFFFFFFF
310
FFFFFFFFFFFFFFFFFFFFFFFFFFFFFFFFFFFFFFFFFFFFFFFFF000FFFFFFFFFFFF
310
FFFFFFFFFFFFFFFFFFFFFFFFFFFFFFFFFFFFFFFFFFFFFFFFFFFFFFFFFFFFFFFF
310
FFFFFFFFFFFFFFFFFFFFFFFFFFFFFFFFFFFFFFFFFFFFFFFFFFFFFFFFFFFFFFFF
310
FFFFFFFFFFFFFFFFFFFFFFFFFFFFFFFFF000FFFFFFFFFFFFFFFFFFFFFFFFFFFF
310
FFFFFFFFFFFFFFFFFFFFFFFFFFFFFFFFFFFFFFFFFFFFFFFFFFFFFFFFFFFFFFFF
310
FFFFFFFFFFFFFFFFFFFFFFFFFFFFFFFFFFFFFFFFFFFFFFFFFFFFFFFFFFFFFFFF
310
FFFFFFFFFFFFFFFFF000FFFFF80003FFFFFFFFFFFFFFFFFFFFFFFFFFFFFFFFFF
310
FFFFF00007FFFFFFFFFF00007FFFFFF800000000000000007FFFFFFFFFFFFFFF
310
FFFFFFFC001FFFFFFFFFFFFFFC001FFFFFFFFFFFFFFFFFFFFFFFFFFE0007FFFF
310
F000FFFF8000007FFFFFFFF8000FFFFFC0007FFFFF80007FFFFF0000007FFFFF
310
FFF8000007FFFFF800000000000000007FFFFFF0001FFFFFFFFFFFC00001FFFF
310
FFFFFFFFC00001FFFFFFFF000000000003FFFFE000007FFFF000FFFE0000000F
310
FFFFFFF0000FFFFF80007FFFFF80007FFFFC0000001FFFFFFFC0000001FFFFF8
310
00000000000000007FFFFFF0001FFFFFFFFFFE0000003FFFFFFFFFFE0000003F
310
FFFFFF000000000003FFFF0000000FFFF000FFF800000003FFFFFFF00007FFFF
310
80007FFFFF80007FFFF000000007FFFFFF000000003FFFF80000000000000000
310
7FFFFFF0001FFFFFFFFFF80000000FFFFFFFFFF80000000FFFFFFF0000000000
310
03FFFC00000003FFF000FFE000000000FFFFFFF00007FFFF80003FFFFF80007F
310
FFC000000001FFFFFC000000001FFFF800000000000000007FFFFFF0001FFFFF
310
FFFFE000000003FFFFFFFFE000000003FFFFFF000000000003FFF000000000FF
310
F000FF80000000007FFFFFF00007FFFF80003FFFFF80007FFF8000000000FFFF
310
F80000000007FFF800000000000000007FFFFFF0001FFFFFFFFFC000000001FF
310
FFFFFFC000000001FFFFFF000000000003FFC0000000007FF000FF0000000000
310
3FFFFFE00007FFFF00003FFFFF80007FFE00000000003FFFF00000000003FFF8
310
00000000000000007FFFFFF0001FFFFFFFFF8000000000FFFFFFFF8000000000
310
FFFFFF000000000003FF80000000003FF000FE00000000001FFFFFE00003FFFF
310
00003FFFFF80007FFC00000000001FFFE00000000001FFF8000001FFFE000000
310
7FFFFFF0001FFFFFFFFE00000000003FFFFFFE00000000003FFFFF0000000000
310
03FF00000000001FF000FC00000000000FFFFFE00003FFFF00001FFFFF80007F
310
F800000000001FFFC00000000000FFF8000001FFFE0000007FFFFFF0001FFFFF
310
FFFC00000000001FFFFFFC00000000001FFFFF000000000003FE00000000000F
310
F000F8000000000007FFFFE00003FFFF00001FFFFF80007FF800000000000FFF
310
800000000000FFF8000001FFFE0000007FFFFFF0001FFFFFFFF800000000000F
310
FFFFF800000000000FFFFF000000000003FC000000000007F000F80000000000
310
03FFFFC00003FFFE00001FFFFF80007FF0000000000007FF0000000000007FF8
310
000001FFFE0000007FFFFFF0001FFFFFFFF0000000000007FFFFF00000000000
310
07FFFF000000000003F8000000000003F000F0000000000003FFFFC00001FFFE
310
00001FFFFF80007FE0000000000007FE0000000000003FF8000001FFFE000000
310
7FFFFFF0001FFFFFFFF0000000000007FFFFF0000000000007FFFF0000000000
310
03F800001F800003F000E00001FFF00001FFFFC00001FFFE00000FFFFF80007F
310
E00001FFE00003FE00001FFF00003FF8000001FFFE0000007FFFFFF0001FFFFF
310
FFE000003E000003FFFFE000003E000003FFFF000000000003F00001FFF80001
310
F000E00007FFFC0001FFFFC00001FFFE00000FFFFF80007FC0000FFFFC0003FC
310
0000FFFFC0001FF8000001FFFE0000007FFFFFF0001FFFFFFFC00003FFE00001
310
FFFFC00003FFE00001FFFF0001FFFFFFFFF00007FFFE0001F000E0000FFFFF00
310
00FFFF800001FFFC00000FFFFF80007FC0001FFFFE0001FC0001FFFFE0001FF8
310
000001FFFE0000007FFFFFF0001FFFFFFF80000FFFF80000FFFF80000FFFF800
310
00FFFF0003FFFFFFFFE0000FFFFF8000F000C0003FFFFF8000FFFF800000FFFC
310
000007FFFF80007F80003FFFFF0001FC0003FFFFF0001FF8000001FFFE000000
310
7FFFFFF0001FFFFFFF80003FFFFE0000FFFF80003FFFFE0000FFFF0003FFFFFF
310
FFE0003FFFFF8000F000C0003FFFFF8000FFFF800000FFFC000007FFFF80007F
310
80007FFFFF8001F80007FFFFF8000FF8000001FFFE0000007FFFFFF0001FFFFF
310
FF00007FFFFF00007FFF00007FFFFF00007FFF0003FFFFFFFFE0003FFFFFC000
310
F000C0007FFFFFC000FFFF000000FFFC000007FFFF80007F8000FFFFFF8000F8
310
000FFFFFF8000FF8000001FFFE0000007FFFFFF0001FFFFFFF0000FFFFFF8000
310
7FFF0000FFFFFF80007FFF0003FFFFFFFFC0007FFFFFC00070008000FFFFFFC0
310
00FFFF000000FFF8000007FFFF80007F8000FFFFFF8000F8000FFFFFF8000FF8
310
000001FFFE0000007FFFFFF0001FFFFFFE0001FFFFFFC0003FFE0001FFFFFFC0
310
003FFF0003FFFFFFFFC0007FFFFFE00070008000FFFFFFC0007FFF0000007FF8
310
000003FFFF80007F0001FFFFFF8000F8000FFFFFF8000FF8000001FFFE000000
310
7FFFFFF0001FFFFFFE0001FFFFFFC0003FFE0001FFFFFFC0003FFF0003FFFFFF
310
FFC000FFFFFFE00070008000FFFFFFC0007FFF0000007FF8000003FFFF80007F
310
0001FFFFFF8000F8001FFFFFF8000FF8000001FFFE0000007FFFFFF0001FFFFF
310
FE0003FFFFFFE0003FFE0003FFFFFFE0003FFF0003FFFFFFFFC000FFFFFFE000
310
70008000FFFFFFC0007FFE0000007FF8000003FFFF80007F0001FFFFFF8000F0
310
001FFFFFF8000FF8000001FFFE0000007FFFFFF0001FFFFFFC0003FFFFFFE000
310
1FFC0003FFFFFFE0001FFF0003FFFFFFFFC000FFFFFFC00070008000FFFFFF80
310
007FFE0000007FF0000003FFFF80007F0001FFFFFF0000F0001FFFFFF8000FF8
310
000001FFFE0000007FFFFFF0001FFFFFFC0007FFFFFFF0001FFC0007FFFFFFF0
310
001FFF0003FFFFFFFFC000FFFFFFC00070008001FFFFFF0000FFFE0000003FF0
310
000001FFFF80007F0001FFFFFF0000F8001FFFFFF0000FF8000001FFFE000000
310
7FFFFFF0001FFFFFFC0007FFFFFFF0001FFC0007FFFFFFF0001FFF0003FFFFFF
310
FFC001FFFFFF80007000FFFFFFFFFE0000FFFE0008003FF0008001FFFF80007F
310
FFFFFFFFFC0000FFFFFFFFFFE0000FF8000001FFFE0000007FFFFFF0001FFFFF
310
F8000FFFFFFFF8000FF8000FFFFFFFF8000FFF0003FFFFFFFFFFFFFFFFFF0000
310
7000FFFFFFFFFC0000FFFC0008003FF0008001FFFF80007FFFFFFFFFF80001FF
310
FFFFFFFF80000FF8000001FFFE0000007FFFFFF0001FFFFFF8000FFFFFFFF800
310
0FF8000FFFFFFFF8000FFF0003FFFFFFFFFFFFFFFFFE0000F000FFFFFFFFE000
310
00FFFC000C003FE000C001FFFF80007FFFFFFFFFC00001FFFFFFFFFE00001FF8
310
000001FFFE0000007FFFFFF0001FFFFFF8000FFFFFFFF8000FF8000FFFFFFFF8
310
000FFF0003FFFFFFFFFFFFFFFFF00000F000FFFFFFFE000001FFFC000C001FE0
310
00C000FFFF80007FFFFFFFFE000001FFFFFFFFE000001FF80FFFFFFFFFFFFFC0
310
7FFFFFF0001FFFFFF8000FFFFFFFF8000FF8000FFFFFFFF8000FFF0003FFFFFF
310
FFFFFFFFFF800000F000FFFFFFC0000001FFFC001C001FE001C000FFFF80007F
310
FFFFFF80000003FFFFFFF80000001FF80FFFFFFFFFFFFFC07FFFFFF0001FFFFF
310
F8001FFFFFFFFC000FF8001FFFFFFFFC000FFF0003FFFFFFFFFFFFFFF0000001
310
F000FFFFF800000001FFF8001C001FE001C000FFFF80007FFFFFF800000003FF
310
FFFF800000003FF80FFFFFFFFFFFFFC07FFFFFF0001FFFFFF8001FFFFFFFFC00
310
0FF8001FFFFFFFFC000FFF0003FFFFFFFFFFFFFE00000001F000FFFFC0000000
310
03FFF8001E001FC001E000FFFF80007FFFFF8000000007FFFFFC000000003FF8
310
0FFFFFFFFFFFFFC07FFFFFF0001FFFFFF8001FFFFFFFFC000FF8001FFFFFFFFC
310
000FFF0003FFFFFFFFFFFFE000000003F000FFFE0000000007FFF8001E000FC0
310
01E0007FFF80007FFFFE0000000007FFFFE0000000007FF80FFFFFFFFFFFFFC0
310
7FFFFFF0001FFFFFF0001FFFFFFFFC0007F0001FFFFFFFFC0007FF0003FFFFFF
310
FFFFFF0000000003F000FFF80000000007FFF8001E000FC003E0007FFF80007F
310
FFF0000000000FFFFF8000000000FFF80FFFFFFFFFFFFFC07FFFFFF0001FFFFF
310
F0001FFFFFFFFC0007F0001FFFFFFFFC0007FF0003FFFFFFFFFFFC0000000007
310
F000FFE0000000000FFFF0003E000FC003E0007FFF80007FFFC0000000001FFF
310
FE0000000001FFF80FFFFFFFFFFFFFC07FFFFFF0001FFFFFF0001FFFFFFFFC00
310
07F0001FFFFFFFFC0007FF0003FFFFFFFFFFF0000000000FF000FFC000000000
310
1FFFF0003F000F8003F0003FFF80007FFF80000000003FFFF80000000003FFF8
310
0FFFFFFFFFFFFFC07FFFFFF0001FFFFFF0001FFFFFFFFC0007F0001FFFFFFFFC
310
0007FF0003FFFFFFFFFFE0000000001FF000FF00000000007FFFF0003F000780
310
03F0003FFF80007FFF00000000007FFFF00000000007FFF80FFFFFFFFFFFFFC0
310
7FFFFFF0001FFFFFF0001FFFFFFFFC0007F0001FFFFFFFFC0007FF0003FFFFFF
310
FFFF80000000007FF000FE0000000000FFFFE0003F00078007F0003FFF80007F
310
FE0000000001FFFFE0000000001FFFF80FFFFFFFFFFFFFC07FFFFFF0001FFFFF
310
F0001FFFFFFFFC0007F0001FFFFFFFFC0007FF0003FFFFFFFFFF0000000000FF
310
F000FC0000000003FFFFE0007F00078007F0003FFF80007FFC0000000007FFFF
310
C0000000007FFFF80FFFFFFFFFFFFFC07FFFFFF0001FFFFFF8001FFFFFFFFC00
310
0FF8001FFFFFFFFC000FFF0003FFFFFFFFFE0000000003FFF000FC000000000F
310
FFFFE0007F80070007F8001FFF80007FF8000000001FFFFF8000000001FFFFF8
310
0FFFFFFFFFFFFFC07FFFFFF0001FFFFFF8001FFFFFFFFC000FF8001FFFFFFFFC
310
000FFF0003FFFFFFFFFC000000000FFFF000F8000000007FFFFFE0007F800700
310
07F8001FFF80007FF000000000FFFFFF800000000FFFFFF80FFFFFFFFFFFFFC0
310
7FFFFFF0001FFFFFF8000FFFFFFFF8000FF8000FFFFFFFF8000FFF0003FFFFFF
310
FFFC000000007FFFF000F800000007FFFFFFC0007F8003000FF8001FFF80007F
310
F000000007FFFFFF000000007FFFFFF80FFFFFFFFFFFFFC07FFFFFF0001FFFFF
310
F8000FFFFFFFF8000FF8000FFFFFFFF8000FFF0003FFFFFFFFF80000000FFFFF
310
F000F0000000FFFFFFFFC000FF8003000FF8001FFF80007FE0000000FFFFFFFF
310
0000000FFFFFFFF8000001FFFE0000007FFFFFF0001FFFFFF8000FFFFFFFF800
310
0FF8000FFFFFFFF8000FFF0003FFFFFFFFF8000000FFFFFFF000F000000FFFFF
310
FFFFC000FFC002000FF8000FFF80007FE000001FFFFFFFFE000001FFFFFFFFF8
310
000001FFFE0000007FFFFFF0001FFFFFF8000FFFFFFFF8000FF8000FFFFFFFF8
310
000FFF0003FFFFFFFFF000001FFFFFFFF000E00000FFFFFFFFFFC000FFC00200
310
0FFC000FFF80007FE00001FFFFFFFFFE00001FFFFFFFFFF8000001FFFE000000
310
7FFFFFF0001FFFFFFC000FFFFFFFF8001FFC000FFFFFFFF8001FFF0003FFFFFF
310
FFF00001FFFFFFFFF000E00007FFFFFFFFFF8000FFC000001FFC000FFF80007F
310
C0000FFFFFFFFFFE0000FFFFFFFFFFF8000001FFFE0000007FFFFFF0001FFFFF
310
FC0007FFFFFFF0001FFC0007FFFFFFF0001FFF0003FFFFFFFFF00007FFFFFFFF
310
F000E0001FFFFFFFFFFF8000FFC000001FFC000FFF80007FC0003FFFFFFFFFFE
310
0001FFFFFFFFFFF8000001FFFE0000007FFFFFF0001FFFFFFC0007FFFFFFF000
310
1FFC0007FFFFFFF0001FFF0003FFFFFFFFF0001FFFFFFFFFF000E0003FFFFF00
310
03FF8001FFE000001FFC0007FF80007FC0007FFFFF0007FC0003FFFFF0003FF8
310
000001FFFE0000007FFFFFF0001FFFFFFC0003FFFFFFE0001FFC0003FFFFFFE0
310
001FFF0003FFFFFFFFF0003FFFFFFFFFF000E0003FFFFF0001FF8001FFE00000
310
1FFE0007FF80007FC0007FFFFE0003FC0007FFFFE0003FF8000001FFFE000000
310
7FFFFFF0001FFFFFFE0003FFFFFFE0003FFE0003FFFFFFE0003FFF0003FFFFFF
310
FFF0003FFFFF8001F000E0003FFFFF0001FF0001FFE000001FFE0007FF80007F
310
C0007FFFFE0003FC0007FFFFE0003FF8000001FFFE0000007FFFFFF0001FFFFF
310
FE0001FFFFFFC0003FFE0001FFFFFFC0003FFF0003FFFFFFFFF0003FFFFF0001
310
F000E0003FFFFF0003FF0001FFE000003FFE0007FF80007FC0007FFFFE0003FC
310
0007FFFFE0003FF8000001FFFE0000007FFFFFF0001FFFFFFF0001FFFFFFC000
310
7FFF0001FFFFFFC0007FFF0003FFFFFFFFF0003FFFFF0001F000E0003FFFFE00
310
03FF0003FFF000003FFE0003FF80007FC0007FFFFC0003FE0007FFFFE0003FF8
310
000001FFFE0000007FFFFFF0001FFFFFFF0000FFFFFF80007FFF0000FFFFFF80
310
007FFF0003FFFFFFFFF0003FFFFF0001F000E0003FFFFE0003FF0003FFF00000
310
3FFF0003FF80007FC0007FFFFC0007FE0007FFFFC0003FF8000001FFFE000000
310
7FFFFFF0001FFFFFFF80007FFFFF0000FFFF80007FFFFF0000FFFF0003FFFFFF
310
FFF0003FFFFF0003F000E0003FFFFC0003FE0003FFF000003FFF0003FF80007F
310
E0003FFFF80007FE0003FFFFC0007FF8000001FFFE0000007FFFFFF0001FFFFF
310
FF80003FFFFE0000FFFF80003FFFFE0000FFFF0003FFFFFFFFF0001FFFFE0003
310
F000F0001FFFF80003FE0003FFF000007FFF0001FF80007FE0003FFFF00007FE
310
0001FFFF80007FF8000001FFFE0000007FFFFFF0001FFFFFFFC0000FFFF80001
310
FFFFC0000FFFF80001FFFF0003FFFFFFFFF0001FFFFC0003F000F0000FFFF000
310
07FE0007FFF800007FFF0001FF80007FE0001FFFE00007FF0000FFFE00007FF8
310
000001FFFE0000007FFFFFF0001FFFFFFFC00003FFE00001FFFFC00003FFE000
310
01FFFF0003FFFFFFFFF8000FFFF80003F000F00003FFC00007FC0007FFF80000
310
7FFF8001FF80007FF00007FF80000FFF00007FF80000FFF8000001FFFE000000
310
7F80000000000001FFE000003E000003FFFFE000003E000003FFFF0003FFFFFF
310
FFF80003FFE00007F000F800000000000FFC0007FFF800007FFF8001FF80007F
310
F000000000000FFF000000000000FFF8000001FFFE0000007F80000000000001
310
FFF0000000000007FFFFF0000000000007FFFF0003FFFFFFFFFC00007E000007
310
F000F800000000000FFC0007FFF80000FFFF8000FF80007FF800000000001FFF
310
800000000001FFF8000001FFFE0000007F80000000000001FFF800000000000F
310
FFFFF800000000000FFFFF0003FFFFFFFFFC00000000000FF000FC0000000000
310
1FFC0007FFFC0000FFFF8000FF80007FF800000000003FFFC00000000001FFF8
310
000001FFFE0000007F80000000000001FFF800000000000FFFFFF80000000000
310
0FFFFF0003FFFFFFFFFE00000000001FF000FE00000000003FF8000FFFFC0000
310
FFFF8000FF80007FFC00000000003FFFC00000000003FFF8000001FFFE000000
310
7F80000000000001FFFC00000000001FFFFFFC00000000001FFFFF0003FFFFFF
310
FFFF00000000001FF000FF00000000003FF8000FFFFC0000FFFFC000FF80007F
310
FE00000000007FFFE00000000007FFF8000001FFFE0000007F80000000000001
310
FFFE00000000003FFFFFFE00000000003FFFFF0003FFFFFFFFFF80000000003F
310
F000FF80000000007FF8000FFFFC0001FFFFC0007F80007FFF0000000000FFFF
310
F0000000000FFFF800000000000000007F80000000000001FFFF8000000000FF
310
FFFFFF8000000000FFFFFF0003FFFFFFFFFFC0000000007FF000FFC000000000
310
FFF8000FFFFE0001FFFFC0007F80007FFF8000000001FFFFF8000000001FFFF8
310
00000000000000007F80000000000001FFFFC000000001FFFFFFFFC000000001
310
FFFFFF0003FFFFFFFFFFE000000000FFF000FFE000000003FFF0001FFFFE0001
310
FFFFC0007F80007FFFC000000007FFFFFE000000003FFFF80000000000000000
310
7F80000000000001FFFFE000000003FFFFFFFFE000000003FFFFFF0003FFFFFF
310
FFFFF000000003FFF000FFF80000000FFFF0001FFFFE0001FFFFE0007F80007F
310
FFF00000000FFFFFFF00000000FFFFF800000000000000007F80000000000001
310
FFFFF80000000FFFFFFFFFF80000000FFFFFFF0003FFFFFFFFFFFC0000000FFF
310
F000FFFE0000003FFFF0001FFFFE0003FFFFE0003F80007FFFFC0000003FFFFF
310
FFC0000003FFFFF800000000000000007F80000000000001FFFFFE0000003FFF
310
FFFFFFFE0000003FFFFFFF0003FFFFFFFFFFFF0000003FFFF000FFFF800000FF
310
FFF0001FFFFF0003FFFFE0003F80007FFFFF000001FFFFFFFFF800001FFFFFF8
310
00000000000000007F80000000000001FFFFFFC00001FFFFFFFFFFFFC00001FF
310
FFFFFF0003FFFFFFFFFFFFC00000FFFFF000FFFFF8000FFFFFFFFFFFFFFFFFFF
310
FFFFFFFFFFFFFFFFFFFFF0001FFFFFFFFFFF0000FFFFFFF80000000000000000
310
7FFFFFFFFFFFFFFFFFFFFFFC001FFFFFFFFFFFFFFC001FFFFFFFFFFFFFFFFFFF
310
FFFFFFFC001FFFFFF000FFFFFFFFFFFFFFFFFFFFFFFFFFFFFFFFFFFFFFFFFFFF
310
FFFFFFFFFFFFFFFFFFFFFFFFFFFFFFFFFFFFFFFFFFFFFFFFFFFFFFFFFFFFFFFF
310
FFFFFFFFFFFFFFFFFFFFFFFFFFFFFFFFFFFFFFFFFFFFFFFFFFFFFFFFFFFFFFFF
310
F000FFFFFFFFFFFFFFFFFFFFFFFFFFFFFFFFFFFFFFFFFFFFFFFFFFFFFFFFFFFF
310
FFFFFFFFFFFFFFFFFFFFFFFFFFFFFFFFFFFFFFFFFFFFFFFFFFFFFFFFFFFFFFFF
310
FFFFFFFFFFFFFFFFFFFFFFFFFFFFFFFFFFFFFFFFFFFFFFFFF000FFFFFFFFFFFF
310
FFFFFFFFFFFFFFFFFFFFFFFFFFFFFFFFFFFFFFFFFFFFFFFFFFFFFFFFFFFFFFFF
310
FFFFFFFFFFFFFFFFFFFFFFFFFFFFFFFFFFFFFFFFFFFFFFFFFFFFFFFFFFFFFFFF
310
FFFFFFFFFFFFFFFFFFFFFFFFFFFFFFFFF000FFFFFFFFFFFFFFFFFFFFFFFFFFFF
310
FFFFFFFFFFFFFFFFFFFFFFFFFFFFFFFFFFFFFFFFFFFFFFFFFFFFFFFFFFFFFFFF
310
FFFFFFFFFFFFFFFFFFFFFFFFFFFFFFFFFFFFFFFFFFFFFFFFFFFFFFFFFFFFFFFF
310
FFFFFFFFFFFFFFFFF000FFFFFFFFFFFFFFFFFFFFFFFFFFFFFFFFFFFFFFFFFFFF
310
FFFFFFFFFFFFFFFFFFFFFFFFFFFFFFFFFFFFFFFFFFFFFFFFFFFFFFFFFFFFFFFF
310
FFFFFFFFFFFFFFFFFFFFFFFFFFFFFFFFFFFFFFFFFFFFFFFFFFFFFFFFFFFFFFFF
310
F000FFFFFFFFFFFFFFFFFFFFFFFFFFFFFFFFFFFFFFFFFFFFFFFFFFFFFFFFFFFF
310
FFFFFFFFFFFFFFFFFFFFFFFFFFFFFFFFFFFFFFFFFFFFFFFFFFFFFFFFFFFFFFFF
310
FFFFFFFFFFFFFFFFFFFFFFFFFFFFFFFFFFFFFFFFFFFFFFFFF000FFFFFFFFFFFF
310
FFFFFFFFFFFFFFFFFFFFFFFFFFFFFFFFFFFFFFFFFFFFFFFFFFFFFFFFFFFFFFFF
310
FFFFFFFFFFFFFFFFFFFFFFFFFFFFFFFFFFFFFFFFFFFFFFFFFFFFFFFFFFFFFFFF
310
FFFFFFFFFFFFFFFFFFFFFFFFFFFFFFFFF000FFFFFFFFFFFFFFFFFFFFFFFFFFFF
310
FFFFFFFFFFFFFFFFFFFFFFFFFFFFFFFFFFFFFFFFFFFFFFFFFFFFFFFFFFFFFFFF
310
FFFFFFFFFFFFFFFFFFFFFFFFFFFFFFFFFFFFFFFFFFFFFFFFFFFFFFFFFFFFFFFF
310
FFFFFFFFFFFFFFFFF000FFFFFFFFFFFFFFFFFFFFFFFFFFFFFFFFFFFFFFFFFFFF
310
FFFFFFFFFFFFFFFFFFFFFFFFFFFFFFFFFFFFFFFFFFFFFFFFFFFFFFFFFFFFFFFF
310
FFFFFFFFFFFFFFFFFFFFFFFFFFFFFFFFFFFFFFFFFFFFFFFFFFFFFFFFFFFFFFFF
310
F000FFFFFFFFFFFFFFFFFFFFFFFFFFFFFFFFFFFFFFFFFFFFFFFFFFFFFFFFFFFF
310
FFFFFFFFFFFFFFFFFFFFFFFFFFFFFFFFFFFFFFFFFFFFFFFFFFFFFFFFFFFFFFFF
310
FFFFFFFFFFFFFFFFFFFFFFFFFFFFFFFFFFFFFFFFFFFFFFFFF000FFFFFFFFFFFF
310
FFFFFFFFFFFFFFFFFFFFFFFFFFFFFFFFFFFFFFFFFFFFFFFFFFFFFFFFFFFFFFFF
310
FFFFFFFFFFFFFFFFFFFFFFFFFFFFFFFFFFFFFFFFFFFFFFFFFFFFFFFFFFFFFFFF
310
FFFFFFFFFFFFFFFFFFFFFFFFFFFFFFFFF000FFFFFFFFFFFFFFFFFFFFFFFFFFFF
310
FFFFFFFFFFFFFFFFFFFFFFFFFFFFFFFFFFFFFFFFFFFFFFFFFFFFFFFFFFFFFFFF
310
FFFFFFFFFFFFFFFFFFFFFFFFFFFFFFFFFFFFFFFFFFFFFFFFFFFFFFFFFFFFFFFF
310
FFFFFFFFFFFFFFFFF000FFFFFFFFFFFFFFFFFFFFFFFFFFFFFFFFFFFFFFFFFFFF
310
FFFFFFFFFFFFFFFFFFFFFFFFFFFFFFFFFFFFFFFFFFFFFFFFFFFFFFFFFFFFFFFF
310
FFFFFFFFFFFFFFFFFFFFFFFFFFFFFFFFFFFFFFFFFFFFFFFFFFFFFFFFFFFFFFFF
310
F000FFFFFFFFFFFFFFFFFFFFFFFFFFFFFFFFFFFFFFFFFFFFFFFFFFFFFFFFFFFF
310
FFFFFFFFFFFFFFFFFFFFFFFFFFFFFFFFFFFFFFFFFFFFFFFFFFFFFFFFFFFFFFFF
310
FFFFFFFFFFFFFFFFFFFFFFFFFFFFFFFFFFFFFFFFFFFFFFFFF000FFFFFFFFFFFF
310
FFFFFFFFFFFFFFFFFFFFFFFFFFFFFFFFFFFFFFFFFFFFFFFFFFFFFFFFFFFFFFFF
310
FFFFFFFFFFFFFFFFFFFFFFFFFFFFFFFFFFFFFFFFFFFFFFFFFFFFFFFFFFFFFFFF
310
FFFFFFFFFFFFFFFFFFFFFFFFFFFFFFFFF000FFFFFFFFFFFFFFFFFFFFFFFFFFFF
310
FFFFFFFFFFFFFFFFFFFFFFFFFFFFFFFFFFFFFFFFFFFFFFFFFFFFFFFFFFFFFFFF
310
FFFFFFFFFFFFFFFFFFFFFFFFFFFFFFFFFFFFFFFFFFFFFFFFFFFFFFFFFFFFFFFF
310
FFFFFFFFFFFFFFFFF000FFFFFFFFFFFFFFFFFFFFFFFFFFFFFFFFFFFFFFFFFFFF
310
FFFFFFFFFFFFFFFFFFFFFFFFFFFFFFFFFFFFFFFFFFFFFFFFFFFFFFFFFFFFFFFF
310
FFFFFFFFFFFFFFFFFFFFFFFFFFFFFFFFFFFFFFFFFFFFFFFFFFFFFFFFFFFFFFFF
310
F000FFFFFFFFFFFFFFFFFFFFFFFFFFFFFFFFFFFFFFFFFFFFFFFFFFFFFFFFFFFF
310
FFFFFFFFFFFFFFFFFFFFFFFFFFFFFFFFFFFFFFFFFFFFFFFFFFFFFFFFFFFFFFFF
310
FFFFFFFFFFFFFFFFFFFFFFFFFFFFFFFFFFFFFFFFFFFFFFFFF000FFFFFFFFFFFF
310
FFFFFFFFFFFFFFFFFFFFFFFFFFFFFFFFFFFFFFFFFFFFFFFFFFFFFFFFFFFFFFFF
310
FFFFFFFFFFFFFFFFFFFFFFFFFFFFFFFFFFFFFFFFFFFFFFFFFFFFFFFFFFFFFFFF
310
FFFFFFFFFFFFFFFFFFFFFFFFFFFFFFFFF000FFFFFFFFFFFFFFFFFFFFFFFFFFFF
310
FFFFFFFFFFFFFFFFFFFFFFFFFFFFFFFFFFFFFFFFFFFFFFFFFFFFFFFFFFFFFFFF
310
FFFFFFFFFFFFFFFFFFFFFFFFFFFFFFFFFFFFFFFFFFFFFFFFFFFFFFFFFFFFFFFF
310
FFFFFFFFFFFFFFFFF000FFFFFFFFFFFFFFFFFFFFFFFFFFFFFFFFFFFFFFFFFFFF
310
FFFFFFFFFFFFFFFFFFFFFFFFFFFFFFFFFFFFFFFFFFFFFFFFFFFFFFFFFFFFFFFF
310
FFFFFFFFFFFFFFFFFFFFFFFFFFFFFFFFFFFFFFFFFFFFFFFFFFFFFFFFFFFFFFFF
310
F000FFFFFFFFFFFFFFFFFFFFFFFFFFFFFFFFFFFFFFFFFFFFFFFFFFFFFFFFFFFF
310
FFFFFFFFFFFFFFFFFFFFFFFFFFFFFFFFFFFFFFFFFFFFFFFFFFFFFFFFFFFFFFFF
310
FFFFFFFFFFFFFFFFFFFFFFFFFFFFFFFFFFFFFFFFFFFFFFFFF000FFFFFFFFFFFF
310
FFFFFFFFFFFFFFFFFFFFFFFFFFFFFFFFFFFFFFFFFFFFFFFFFFFFFFFFFFFFFFFF
310
FFFFFFFFFFFFFFFFFFFFFFFFFFFFFFFFFFFFFFFFFFFFFFFFFFFFFFFFFFFFFFFF
310
FFFFFFFFFFFFFFFFFFFFFFFFFFFFFFFFF0000000000000000000000000000000
310
0000000000000000000000000000000000000000000000000000000000000000
310
0000000000000000000000000000000000000000000000000000000000000000
310
0000000000000000000000000000000000000000000000000000000000000000
310
0000000000000000000000000000000000000000000000000000000000000000
310
0000000000000000000000000000000000000000000000000000000000000000
310
0000000000000000000000000000000000000000000000000000000000000000
310
0000000000000000000000000000000000000000000000000000000000000000
310
0000000000000000000000000000000000000000000000000000000000000000
310
0000000000000000000000000000000000000000000000000000000000000000
310
0000000000000000000000000000000000000000000000000000000000000000
310
0000000000000000000000000000000000000000000000000000000000000000
310
0000000000000000000000000000000000000000000000000000000000000000
310
0000000000000000000000000000000000000000000000000000000000000000
310
0000000000000000000000000000000000000000000000000000000000000000
310
0000000000000000000000000000000000000000000000000000000000000000
  1
OLE
  0
ENDSEC
  0
SECTION
  2
OBJECTS
  0
DICTIONARY
  5
C
330
0
100
AcDbDictionary
281
     1
  3
ACAD_GROUP
350
D
  3
ACAD_LAYOUT
350
1A
  3
ACAD_MLINESTYLE
350
17
  3
ACAD_PLOTSETTINGS
350
19
  3
ACAD_PLOTSTYLENAME
350
E
  3
ACAD_SCALELIST
350
47
  0
DICTIONARY
  5
D
102
{ACAD_REACTORS
330
C
102
}
330
C
100
AcDbDictionary
281
     1
  0
DICTIONARY
  5
1A
102
{ACAD_REACTORS
330
C
102
}
330
C
100
AcDbDictionary
281
     1
  3
Layout1
350
1E
  3
Layout2
350
26
  3
Model
350
22
  0
DICTIONARY
  5
17
102
{ACAD_REACTORS
330
C
102
}
330
C
100
AcDbDictionary
281
     1
  3
Standard
350
18
  0
DICTIONARY
  5
19
102
{ACAD_REACTORS
330
C
102
}
330
C
100
AcDbDictionary
281
     1
  0
ACDBDICTIONARYWDFLT
  5
E
102
{ACAD_REACTORS
330
C
102
}
330
C
100
AcDbDictionary
281
     1
  3
Normal
350
F
100
AcDbDictionaryWithDefault
340
F
  0
DICTIONARY
  5
47
102
{ACAD_REACTORS
330
C
102
}
330
C
100
AcDbDictionary
281
     1
  3
A0
350
48
  3
A1
350
49
  3
A2
350
4A
  3
A3
350
4B
  3
A4
350
4C
  3
A5
350
4D
  3
A6
350
4E
  3
A7
350
4F
  3
A8
350
50
  3
A9
350
51
  3
B0
350
52
  3
B1
350
53
  3
B2
350
54
  3
B3
350
55
  3
B4
350
56
  3
B5
350
57
  3
B6
350
58
  3
B7
350
59
  3
B8
350
5A
  3
B9
350
5B
  3
C0
350
5C
  3
C1
350
5D
  3
C2
350
5E
  3
C3
350
5F
  3
C4
350
60
  3
C5
350
61
  3
C6
350
62
  3
C7
350
63
  3
C8
350
64
  3
C9
350
65
  3
D0
350
66
  3
D1
350
67
  3
D2
350
68
  0
LAYOUT
  5
1E
102
{ACAD_REACTORS
330
1A
102
}
330
1A
100
AcDbPlotSettings
  1

  2
none_device
  4

  6

 40
0.0
 41
0.0
 42
0.0
 43
0.0
 44
0.0
 45
0.0
 46
0.0
 47
0.0
 48
0.0
 49
0.0
140
0.0
141
0.0
142
1.0
143
1.0
 70
   688
 72
     1
 73
     0
 74
     5
  7

 75
    16
147
1.0
148
0.0
149
0.0
100
AcDbLayout
  1
Layout1
 70
     1
 71
     1
 10
0.0
 20
0.0
 11
420.0
 21
297.0
 12
0.0
 22
0.0
 32
0.0
 14
1.0000000000E+20
 24
1.0000000000E+20
 34
1.0000000000E+20
 15
-1.0000000000E+20
 25
-1.0000000000E+20
 35
-1.0000000000E+20
146
0.0
 13
0.0
 23
0.0
 33
0.0
 16
1.0
 26
0.0
 36
0.0
 17
0.0
 27
1.0
 37
0.0
 76
     0
330
1B
  0
LAYOUT
  5
26
102
{ACAD_REACTORS
330
1A
102
}
330
1A
100
AcDbPlotSettings
  1

  2
none_device
  4

  6

 40
0.0
 41
0.0
 42
0.0
 43
0.0
 44
0.0
 45
0.0
 46
0.0
 47
0.0
 48
0.0
 49
0.0
140
0.0
141
0.0
142
1.0
143
1.0
 70
   688
 72
     1
 73
     0
 74
     5
  7

 75
    16
147
1.0
148
0.0
149
0.0
100
AcDbLayout
  1
Layout2
 70
     1
 71
     2
 10
0.0
 20
0.0
 11
0.0
 21
0.0
 12
0.0
 22
0.0
 32
0.0
 14
0.0
 24
0.0
 34
0.0
 15
0.0
 25
0.0
 35
0.0
146
0.0
 13
0.0
 23
0.0
 33
0.0
 16
1.0
 26
0.0
 36
0.0
 17
0.0
 27
1.0
 37
0.0
 76
     0
330
23
  0
LAYOUT
  5
22
102
{ACAD_REACTORS
330
1A
102
}
330
1A
100
AcDbPlotSettings
  1

  2
none_device
  4
Letter_(8.50_x_11.00_Inches)
  6

 40
6.35
 41
6.35
 42
6.35000508
 43
6.35000508
 44
215.9
 45
279.4
 46
0.0
 47
0.0
 48
0.0
 49
0.0
140
0.0
141
0.0
142
1.0
143
1.0
 70
  1712
 72
     1
 73
     0
 74
     0
  7

 75
     0
147
1.0
148
0.0
149
0.0
100
AcDbLayout
  1
Model
 70
     1
 71
     0
 10
0.0
 20
0.0
 11
297.0
 21
210.0
 12
0.0
 22
0.0
 32
0.0
 14
0.0
 24
0.0
 34
0.0
 15
297.0
 25
210.0
 35
0.0
146
0.0
 13
0.0
 23
0.0
 33
0.0
 16
1.0
 26
0.0
 36
0.0
 17
0.0
 27
1.0
 37
0.0
 76
     0
330
1F
331
29
  0
MLINESTYLE
  5
18
102
{ACAD_REACTORS
330
17
102
}
330
17
100
AcDbMlineStyle
  2
Standard
 70
     0
  3

 62
   256
 51
90.0
 52
90.0
 71
     2
 49
0.5
 62
   256
  6
BYLAYER
 49
-0.5
 62
   256
  6
BYLAYER
  0
ACDBPLACEHOLDER
  5
F
102
{ACAD_REACTORS
330
E
102
}
330
E
  0
SCALE
  5
48
102
{ACAD_REACTORS
330
47
102
}
330
47
100
AcDbScale
 70
     0
300
1:1
140
1.0
141
1.0
290
     1
  0
SCALE
  5
49
102
{ACAD_REACTORS
330
47
102
}
330
47
100
AcDbScale
 70
     0
300
1:2
140
1.0
141
2.0
290
     0
  0
SCALE
  5
4A
102
{ACAD_REACTORS
330
47
102
}
330
47
100
AcDbScale
 70
     0
300
1:4
140
1.0
141
4.0
290
     0
  0
SCALE
  5
4B
102
{ACAD_REACTORS
330
47
102
}
330
47
100
AcDbScale
 70
     0
300
1:5
140
1.0
141
5.0
290
     0
  0
SCALE
  5
4C
102
{ACAD_REACTORS
330
47
102
}
330
47
100
AcDbScale
 70
     0
300
1:8
140
1.0
141
8.0
290
     0
  0
SCALE
  5
4D
102
{ACAD_REACTORS
330
47
102
}
330
47
100
AcDbScale
 70
     0
300
1:10
140
1.0
141
10.0
290
     0
  0
SCALE
  5
4E
102
{ACAD_REACTORS
330
47
102
}
330
47
100
AcDbScale
 70
     0
300
1:16
140
1.0
141
16.0
290
     0
  0
SCALE
  5
4F
102
{ACAD_REACTORS
330
47
102
}
330
47
100
AcDbScale
 70
     0
300
1:20
140
1.0
141
20.0
290
     0
  0
SCALE
  5
50
102
{ACAD_REACTORS
330
47
102
}
330
47
100
AcDbScale
 70
     0
300
1:30
140
1.0
141
30.0
290
     0
  0
SCALE
  5
51
102
{ACAD_REACTORS
330
47
102
}
330
47
100
AcDbScale
 70
     0
300
1:40
140
1.0
141
40.0
290
     0
  0
SCALE
  5
52
102
{ACAD_REACTORS
330
47
102
}
330
47
100
AcDbScale
 70
     0
300
1:50
140
1.0
141
50.0
290
     0
  0
SCALE
  5
53
102
{ACAD_REACTORS
330
47
102
}
330
47
100
AcDbScale
 70
     0
300
1:100
140
1.0
141
100.0
290
     0
  0
SCALE
  5
54
102
{ACAD_REACTORS
330
47
102
}
330
47
100
AcDbScale
 70
     0
300
2:1
140
2.0
141
1.0
290
     0
  0
SCALE
  5
55
102
{ACAD_REACTORS
330
47
102
}
330
47
100
AcDbScale
 70
     0
300
4:1
140
4.0
141
1.0
290
     0
  0
SCALE
  5
56
102
{ACAD_REACTORS
330
47
102
}
330
47
100
AcDbScale
 70
     0
300
8:1
140
8.0
141
1.0
290
     0
  0
SCALE
  5
57
102
{ACAD_REACTORS
330
47
102
}
330
47
100
AcDbScale
 70
     0
300
10:1
140
10.0
141
1.0
290
     0
  0
SCALE
  5
58
102
{ACAD_REACTORS
330
47
102
}
330
47
100
AcDbScale
 70
     0
300
100:1
140
100.0
141
1.0
290
     0
  0
SCALE
  5
59
102
{ACAD_REACTORS
330
47
102
}
330
47
100
AcDbScale
 70
     0
300
1/128" = 1'-0"
140
0.0078125
141
12.0
290
     0
  0
SCALE
  5
5A
102
{ACAD_REACTORS
330
47
102
}
330
47
100
AcDbScale
 70
     0
300
1/64" = 1'-0"
140
0.015625
141
12.0
290
     0
  0
SCALE
  5
5B
102
{ACAD_REACTORS
330
47
102
}
330
47
100
AcDbScale
 70
     0
300
1/32" = 1'-0"
140
0.03125
141
12.0
290
     0
  0
SCALE
  5
5C
102
{ACAD_REACTORS
330
47
102
}
330
47
100
AcDbScale
 70
     0
300
1/16" = 1'-0"
140
0.0625
141
12.0
290
     0
  0
SCALE
  5
5D
102
{ACAD_REACTORS
330
47
102
}
330
47
100
AcDbScale
 70
     0
300
3/32" = 1'-0"
140
0.09375
141
12.0
290
     0
  0
SCALE
  5
5E
102
{ACAD_REACTORS
330
47
102
}
330
47
100
AcDbScale
 70
     0
300
1/8" = 1'-0"
140
0.125
141
12.0
290
     0
  0
SCALE
  5
5F
102
{ACAD_REACTORS
330
47
102
}
330
47
100
AcDbScale
 70
     0
300
3/16" = 1'-0"
140
0.1875
141
12.0
290
     0
  0
SCALE
  5
60
102
{ACAD_REACTORS
330
47
102
}
330
47
100
AcDbScale
 70
     0
300
1/4" = 1'-0"
140
0.25
141
12.0
290
     0
  0
SCALE
  5
61
102
{ACAD_REACTORS
330
47
102
}
330
47
100
AcDbScale
 70
     0
300
3/8" = 1'-0"
140
0.375
141
12.0
290
     0
  0
SCALE
  5
62
102
{ACAD_REACTORS
330
47
102
}
330
47
100
AcDbScale
 70
     0
300
1/2" = 1'-0"
140
0.5
141
12.0
290
     0
  0
SCALE
  5
63
102
{ACAD_REACTORS
330
47
102
}
330
47
100
AcDbScale
 70
     0
300
3/4" = 1'-0"
140
0.75
141
12.0
290
     0
  0
SCALE
  5
64
102
{ACAD_REACTORS
330
47
102
}
330
47
100
AcDbScale
 70
     0
300
1" = 1'-0"
140
1.0
141
12.0
290
     0
  0
SCALE
  5
65
102
{ACAD_REACTORS
330
47
102
}
330
47
100
AcDbScale
 70
     0
300
1-1/2" = 1'-0"
140
1.5
141
12.0
290
     0
  0
SCALE
  5
66
102
{ACAD_REACTORS
330
47
102
}
330
47
100
AcDbScale
 70
     0
300
3" = 1'-0"
140
3.0
141
12.0
290
     0
  0
SCALE
  5
67
102
{ACAD_REACTORS
330
47
102
}
330
47
100
AcDbScale
 70
     0
300
6" = 1'-0"
140
6.0
141
12.0
290
     0
  0
SCALE
  5
68
102
{ACAD_REACTORS
330
47
102
}
330
47
100
AcDbScale
 70
     0
300
1'-0" = 1'-0"
140
12.0
141
12.0
290
     0
  0
ENDSEC
  0
EOF
