  0
SECTION
  2
HEADER
  9
$ACADVER
  1
AC1015
  9
$ACADMAINTVER
 70
     6
  9
$DWGCODEPAGE
  3
ANSI_1252
  9
$INSBASE
 10
0.0
 20
0.0
 30
0.0
  9
$EXTMIN
 10
0.0
 20
0.0
 30
0.0
  9
$EXTMAX
 10
297.0
 20
210.0
 30
0.0
  9
$LIMMIN
 10
0.0
 20
0.0
  9
$LIMMAX
 10
297.0
 20
210.0
  9
$ORTHOMODE
 70
     0
  9
$REGENMODE
 70
     1
  9
$FILLMODE
 70
     1
  9
$QTEXTMODE
 70
     0
  9
$MIRRTEXT
 70
     1
  9
$LTSCALE
 40
1.0
  9
$ATTMODE
 70
     1
  9
$TEXTSIZE
 40
2.0
  9
$TRACEWID
 40
1.0
  9
$TEXTSTYLE
  7
Standard
  9
$CLAYER
  8
0
  9
$CELTYPE
  6
ByLayer
  9
$CECOLOR
 62
   256
  9
$CELTSCALE
 40
1.0
  9
$DISPSILH
 70
     0
  9
$DIMSCALE
 40
1.0
  9
$DIMASZ
 40
3.0
  9
$DIMEXO
 40
0.0
  9
$DIMDLI
 40
3.75
  9
$DIMRND
 40
0.0
  9
$DIMDLE
 40
0.0
  9
$DIMEXE
 40
1.0
  9
$DIMTP
 40
0.0
  9
$DIMTM
 40
0.0
  9
$DIMTXT
 40
2.0
  9
$DIMCEN
 40
2.5
  9
$DIMTSZ
 40
0.0
  9
$DIMTOL
 70
     0
  9
$DIMLIM
 70
     0
  9
$DIMTIH
 70
     1
  9
$DIMTOH
 70
     1
  9
$DIMSE1
 70
     0
  9
$DIMSE2
 70
     0
  9
$DIMTAD
 70
     1
  9
$DIMZIN
 70
     0
  9
$DIMBLK
  1

  9
$DIMASO
 70
     1
  9
$DIMSHO
 70
     1
  9
$DIMPOST
  1

  9
$DIMAPOST
  1

  9
$DIMALT
 70
     0
  9
$DIMALTD
 70
     3
  9
$DIMALTF
 40
0.0393700787
  9
$DIMLFAC
 40
5.0
  9
$DIMTOFL
 70
     1
  9
$DIMTVP
 40
0.0
  9
$DIMTIX
 70
     0
  9
$DIMSOXD
 70
     0
  9
$DIMSAH
 70
     0
  9
$DIMBLK1
  1

  9
$DIMBLK2
  1

  9
$DIMSTYLE
  2
ISO-25
  9
$DIMCLRD
 70
     0
  9
$DIMCLRE
 70
     0
  9
$DIMCLRT
 70
     0
  9
$DIMTFAC
 40
1.0
  9
$DIMGAP
 40
1.524
  9
$DIMJUST
 70
     0
  9
$DIMSD1
 70
     0
  9
$DIMSD2
 70
     0
  9
$DIMTOLJ
 70
     0
  9
$DIMTZIN
 70
     0
  9
$DIMALTZ
 70
     0
  9
$DIMALTTZ
 70
     0
  9
$DIMUPT
 70
     0
  9
$DIMDEC
 70
     2
  9
$DIMTDEC
 70
     3
  9
$DIMALTU
 70
     2
  9
$DIMALTTD
 70
     3
  9
$DIMTXSTY
  7
Standard
  9
$DIMAUNIT
 70
     0
  9
$DIMADEC
 70
     2
  9
$DIMALTRND
 40
0.0
  9
$DIMAZIN
 70
     0
  9
$DIMDSEP
 70
    44
  9
$DIMATFIT
 70
     3
  9
$DIMFRAC
 70
     0
  9
$DIMLDRBLK
  1

  9
$DIMLUNIT
 70
     2
  9
$DIMLWD
 70
    -2
  9
$DIMLWE
 70
    -2
  9
$DIMTMOVE
 70
     0
  9
$LUNITS
 70
     2
  9
$LUPREC
 70
     2
  9
$SKETCHINC
 40
1.0
  9
$FILLETRAD
 40
10.0
  9
$AUNITS
 70
     0
  9
$AUPREC
 70
     2
  9
$MENU
  1
.
  9
$ELEVATION
 40
0.0
  9
$PELEVATION
 40
0.0
  9
$THICKNESS
 40
0.0
  9
$LIMCHECK
 70
     0
  9
$CHAMFERA
 40
0.0
  9
$CHAMFERB
 40
0.0
  9
$CHAMFERC
 40
0.0
  9
$CHAMFERD
 40
0.0
  9
$SKPOLY
 70
     0
  9
$TDCREATE
 40
2458169.435716944
  9
$TDUCREATE
 40
2458169.394050278
  9
$TDUPDATE
 40
2458169.43571912
  9
$TDUUPDATE
 40
2458169.394052454
  9
$TDINDWG
 40
0.0000000116
  9
$TDUSRTIMER
 40
0.0000000116
  9
$USRTIMER
 70
     1
  9
$ANGBASE
 50
0.0
  9
$ANGDIR
 70
     0
  9
$PDMODE
 70
     0
  9
$PDSIZE
 40
-1.0
  9
$PLINEWID
 40
0.0
  9
$SPLFRAME
 70
     0
  9
$SPLINETYPE
 70
     6
  9
$SPLINESEGS
 70
     8
  9
$HANDSEED
  5
28A
  9
$SURFTAB1
 70
     6
  9
$SURFTAB2
 70
     6
  9
$SURFTYPE
 70
     6
  9
$SURFU
 70
     6
  9
$SURFV
 70
     6
  9
$UCSBASE
  2

  9
$UCSNAME
  2

  9
$UCSORG
 10
0.0
 20
0.0
 30
0.0
  9
$UCSXDIR
 10
1.0
 20
0.0
 30
0.0
  9
$UCSYDIR
 10
0.0
 20
1.0
 30
0.0
  9
$UCSORTHOREF
  2

  9
$UCSORTHOVIEW
 70
     0
  9
$UCSORGTOP
 10
0.0
 20
0.0
 30
0.0
  9
$UCSORGBOTTOM
 10
0.0
 20
0.0
 30
0.0
  9
$UCSORGLEFT
 10
0.0
 20
0.0
 30
0.0
  9
$UCSORGRIGHT
 10
0.0
 20
0.0
 30
0.0
  9
$UCSORGFRONT
 10
0.0
 20
0.0
 30
0.0
  9
$UCSORGBACK
 10
0.0
 20
0.0
 30
0.0
  9
$PUCSBASE
  2

  9
$PUCSNAME
  2

  9
$PUCSORG
 10
0.0
 20
0.0
 30
0.0
  9
$PUCSXDIR
 10
1.0
 20
0.0
 30
0.0
  9
$PUCSYDIR
 10
0.0
 20
1.0
 30
0.0
  9
$PUCSORTHOREF
  2

  9
$PUCSORTHOVIEW
 70
     0
  9
$PUCSORGTOP
 10
0.0
 20
0.0
 30
0.0
  9
$PUCSORGBOTTOM
 10
0.0
 20
0.0
 30
0.0
  9
$PUCSORGLEFT
 10
0.0
 20
0.0
 30
0.0
  9
$PUCSORGRIGHT
 10
0.0
 20
0.0
 30
0.0
  9
$PUCSORGFRONT
 10
0.0
 20
0.0
 30
0.0
  9
$PUCSORGBACK
 10
0.0
 20
0.0
 30
0.0
  9
$USERI1
 70
     0
  9
$USERI2
 70
     0
  9
$USERI3
 70
     0
  9
$USERI4
 70
     0
  9
$USERI5
 70
     0
  9
$USERR1
 40
0.0
  9
$USERR2
 40
0.0
  9
$USERR3
 40
0.0
  9
$USERR4
 40
0.0
  9
$USERR5
 40
0.0
  9
$WORLDVIEW
 70
     1
  9
$SHADEDGE
 70
     3
  9
$SHADEDIF
 70
    70
  9
$TILEMODE
 70
     1
  9
$MAXACTVP
 70
    64
  9
$PINSBASE
 10
0.0
 20
0.0
 30
0.0
  9
$PLIMCHECK
 70
     0
  9
$PEXTMIN
 10
1.0000000000E+20
 20
1.0000000000E+20
 30
1.0000000000E+20
  9
$PEXTMAX
 10
-1.0000000000E+20
 20
-1.0000000000E+20
 30
-1.0000000000E+20
  9
$PLIMMIN
 10
0.0
 20
0.0
  9
$PLIMMAX
 10
420.0
 20
297.0
  9
$UNITMODE
 70
     0
  9
$VISRETAIN
 70
     1
  9
$PLINEGEN
 70
     0
  9
$PSLTSCALE
 70
     1
  9
$TREEDEPTH
 70
  3020
  9
$CMLSTYLE
  2
Standard
  9
$CMLJUST
 70
     0
  9
$CMLSCALE
 40
20.0
  9
$PROXYGRAPHICS
 70
     1
  9
$MEASUREMENT
 70
     1
  9
$CELWEIGHT
370
    -1
  9
$ENDCAPS
280
     0
  9
$JOINSTYLE
280
     0
  9
$LWDISPLAY
290
     1
  9
$INSUNITS
 70
     4
  9
$HYPERLINKBASE
  1

  9
$STYLESHEET
  1

  9
$XEDIT
290
     1
  9
$CEPSNTYPE
380
     0
  9
$PSTYLEMODE
290
     1
  9
$FINGERPRINTGUID
  2
{9481CA6B-8E11-42BE-AE37-0284C52F2A1F}
  9
$VERSIONGUID
  2
{FAEB1C32-E019-11D5-929B-00C0DF256EC4}
  9
$EXTNAMES
290
     1
  9
$PSVPSCALE
 40
0.0
  9
$OLESTARTUP
290
     0
  0
ENDSEC
  0
SECTION
  2
CLASSES
  0
CLASS
  1
ACDBDICTIONARYWDFLT
  2
AcDbDictionaryWithDefault
  3
ObjectDBX Classes
 90
        0
280
     0
281
     0
  0
CLASS
  1
VISUALSTYLE
  2
AcDbVisualStyle
  3
ObjectDBX Classes
 90
     4095
280
     0
281
     0
  0
CLASS
  1
MATERIAL
  2
AcDbMaterial
  3
ObjectDBX Classes
 90
     1153
280
     0
281
     0
  0
CLASS
  1
SCALE
  2
AcDbScale
  3
ObjectDBX Classes
 90
     1153
280
     0
281
     0
  0
CLASS
  1
TABLESTYLE
  2
AcDbTableStyle
  3
ObjectDBX Classes
 90
     4095
280
     0
281
     0
  0
CLASS
  1
MLEADERSTYLE
  2
AcDbMLeaderStyle
  3
ACDB_MLEADERSTYLE_CLASS
 90
     4095
280
     0
281
     0
  0
CLASS
  1
SUN
  2
AcDbSun
  3
SCENEOE
 90
     1153
280
     0
281
     0
  0
CLASS
  1
ACDBPLACEHOLDER
  2
AcDbPlaceHolder
  3
ObjectDBX Classes
 90
        0
280
     0
281
     0
  0
CLASS
  1
LAYOUT
  2
AcDbLayout
  3
ObjectDBX Classes
 90
        0
280
     0
281
     0
  0
ENDSEC
  0
SECTION
  2
TABLES
  0
TABLE
  2
VPORT
  5
8
330
0
100
AcDbSymbolTable
 70
     1
  0
VPORT
  5
29
330
8
100
AcDbSymbolTableRecord
100
AcDbViewportTableRecord
  2
*Active
 70
     0
 10
0.0
 20
0.0
 11
1.0
 21
1.0
 12
148.5
 22
105.0
 13
0.0
 23
0.0
 14
10.0
 24
10.0
 15
10.0
 25
10.0
 16
0.0
 26
0.0
 36
1.0
 17
0.0
 27
0.0
 37
0.0
 40
210.0
 41
1.4142857143
 42
50.0
 43
0.0
 44
0.0
 50
0.0
 51
0.0
 71
     0
 72
  2000
 73
     1
 74
     3
 75
     0
 76
     0
 77
     0
 78
     0
281
     0
 65
     1
110
0.0
120
0.0
130
0.0
111
1.0
121
0.0
131
0.0
112
0.0
122
1.0
132
0.0
 79
     0
146
0.0
  0
ENDTAB
  0
TABLE
  2
LTYPE
  5
5
330
0
100
AcDbSymbolTable
 70
     6
  0
LTYPE
  5
14
330
5
100
AcDbSymbolTableRecord
100
AcDbLinetypeTableRecord
  2
ByBlock
 70
     0
  3

 72
    65
 73
     0
 40
0.0
  0
LTYPE
  5
15
330
5
100
AcDbSymbolTableRecord
100
AcDbLinetypeTableRecord
  2
ByLayer
 70
     0
  3

 72
    65
 73
     0
 40
0.0
  0
LTYPE
  5
16
330
5
100
AcDbSymbolTableRecord
100
AcDbLinetypeTableRecord
  2
Continuous
 70
     0
  3
Solid line
 72
    65
 73
     0
 40
0.0
  0
LTYPE
  5
6E
330
5
100
AcDbSymbolTableRecord
100
AcDbLinetypeTableRecord
  2
HIDDEN
 70
     0
  3
Hidden __ __ __ __ __ __ __ __ __ __ __ __ __ __
 72
    65
 73
     2
 40
1.905
 49
1.27
 74
     0
 49
-0.635
 74
     0
  0
LTYPE
  5
6F
330
5
100
AcDbSymbolTableRecord
100
AcDbLinetypeTableRecord
  2
PHANTOM
 70
     0
  3
Phantom ______  __  __  ______  __  __  ______
 72
    65
 73
     6
 40
12.7
 49
6.35
 74
     0
 49
-1.27
 74
     0
 49
1.27
 74
     0
 49
-1.27
 74
     0
 49
1.27
 74
     0
 49
-1.27
 74
     0
  0
LTYPE
  5
70
330
5
100
AcDbSymbolTableRecord
100
AcDbLinetypeTableRecord
  2
CENTER
 70
     0
  3
Center ____ _ ____ _ ____ _ ____ _ ____ _ ____
 72
    65
 73
     4
 40
10.16
 49
6.35
 74
     0
 49
-1.27
 74
     0
 49
1.27
 74
     0
 49
-1.27
 74
     0
  0
LTYPE
  5
71
330
5
100
AcDbSymbolTableRecord
100
AcDbLinetypeTableRecord
  2
CENTERX2
 70
     0
  3
Center (2x) ________  __  ________  __  _____
 72
    65
 73
     4
 40
20.32
 49
12.7
 74
     0
 49
-2.54
 74
     0
 49
2.54
 74
     0
 49
-2.54
 74
     0
  0
LTYPE
  5
72
330
5
100
AcDbSymbolTableRecord
100
AcDbLinetypeTableRecord
  2
DOT2
 70
     0
  3
Dot (.5x) ........................................
 72
    65
 73
     2
 40
0.635
 49
0.0
 74
     0
 49
-0.635
 74
     0
  0
ENDTAB
  0
TABLE
  2
LAYER
  5
2
330
0
100
AcDbSymbolTable
 70
     5
  0
LAYER
  5
10
330
2
100
AcDbSymbolTableRecord
100
AcDbLayerTableRecord
  2
0
 70
     0
 62
     7
  6
Continuous
370
    -3
390
F
  0
LAYER
  5
73
330
2
100
AcDbSymbolTableRecord
100
AcDbLayerTableRecord
  2
FORMAT
 70
     0
 62
     7
  6
Continuous
370
    -3
390
F
  0
LAYER
  5
74
330
2
100
AcDbSymbolTableRecord
100
AcDbLayerTableRecord
  2
VERMASSUNG
 70
     0
 62
     7
  6
Continuous
370
    -3
390
F
  0
LAYER
  5
75
330
2
100
AcDbSymbolTableRecord
100
AcDbLayerTableRecord
  2
KOPF_DÜNN
 70
     0
 62
     7
  6
Continuous
370
    -3
390
F
  0
LAYER
  5
76
330
2
100
AcDbSymbolTableRecord
100
AcDbLayerTableRecord
  2
KOPF_DICK
 70
     0
 62
     7
  6
Continuous
370
    25
390
F
  0
ENDTAB
  0
TABLE
  2
STYLE
  5
3
330
0
100
AcDbSymbolTable
 70
     3
  0
STYLE
  5
11
330
3
100
AcDbSymbolTableRecord
100
AcDbTextStyleTableRecord
  2
Standard
 70
     0
 40
0.0
 41
1.0
 50
0.0
 71
     0
 42
2.0
  3
txt
  4

  0
STYLE
  5
77
330
3
100
AcDbSymbolTableRecord
100
AcDbTextStyleTableRecord
  2
SLDTEXTSTYLE0
 70
     0
 40
0.0
 41
0.7
 50
0.0
 71
     0
 42
2.0
  3
TXT
  4

  0
STYLE
  5
7B
330
3
100
AcDbSymbolTableRecord
100
AcDbTextStyleTableRecord
  2
SLDTEXTSTYLE1
 70
     0
 40
0.0
 41
0.6538461538
 50
0.0
 71
     0
 42
2.0
  3
TXT
  4

  0
ENDTAB
  0
TABLE
  2
VIEW
  5
6
330
0
100
AcDbSymbolTable
 70
     0
  0
ENDTAB
  0
TABLE
  2
UCS
  5
7
330
0
100
AcDbSymbolTable
 70
     0
  0
ENDTAB
  0
TABLE
  2
APPID
  5
9
330
0
100
AcDbSymbolTable
 70
     1
  0
APPID
  5
12
330
9
100
AcDbSymbolTableRecord
100
AcDbRegAppTableRecord
  2
ACAD
 70
     0
  0
ENDTAB
  0
TABLE
  2
DIMSTYLE
  5
A
330
0
100
AcDbSymbolTable
 70
     3
100
AcDbDimStyleTable
  0
DIMSTYLE
105
27
330
A
100
AcDbSymbolTableRecord
100
AcDbDimStyleTableRecord
  2
ISO-25
 70
     0
 41
2.5
 42
0.625
 43
3.75
 44
1.25
 73
     0
 74
     0
 77
     1
 78
     8
140
2.5
141
2.5
143
0.0393700787
147
0.625
171
     3
172
     1
178
     0
271
     2
272
     2
274
     3
278
    44
283
     0
284
     8
340
11
  0
DIMSTYLE
105
12E
102
{ACAD_REACTORS
330
12D
330
139
330
15B
330
166
330
170
330
17A
330
186
102
}
330
A
100
AcDbSymbolTableRecord
100
AcDbDimStyleTableRecord
  2
SLDDIMSTYLE0
 70
     0
 41
3.0
 44
0.0
 45
0.000000001
 73
     0
 74
     0
 77
     1
 78
    12
 79
     3
140
2.0
147
0.5
173
     1
178
     0
271
     2
272
     3
276
     2
284
    12
340
77
  0
DIMSTYLE
105
145
102
{ACAD_REACTORS
330
144
330
150
102
}
330
A
100
AcDbSymbolTableRecord
100
AcDbDimStyleTableRecord
  2
SLDDIMSTYLE1
 70
     0
 41
3.0
 44
0.0
 45
0.000000001
 73
     0
 74
     0
 77
     1
 78
    12
 79
     3
140
2.0
147
0.5
173
     1
178
     0
271
     0
272
     3
276
     2
284
    12
340
77
  0
ENDTAB
  0
TABLE
  2
BLOCK_RECORD
  5
1
330
0
100
AcDbSymbolTable
 70
    10
  0
BLOCK_RECORD
  5
1F
330
1
100
AcDbSymbolTableRecord
100
AcDbBlockTableRecord
  2
*Model_Space
340
22
  0
BLOCK_RECORD
  5
1B
330
1
100
AcDbSymbolTableRecord
100
AcDbBlockTableRecord
  2
*Paper_Space
340
1E
  0
BLOCK_RECORD
  5
23
330
1
100
AcDbSymbolTableRecord
100
AcDbBlockTableRecord
  2
*Paper_Space0
340
26
  0
BLOCK_RECORD
  5
12F
330
1
100
AcDbSymbolTableRecord
100
AcDbBlockTableRecord
  2
_D
340
0
  0
BLOCK_RECORD
  5
13A
330
1
100
AcDbSymbolTableRecord
100
AcDbBlockTableRecord
  2
_D_1
340
0
  0
BLOCK_RECORD
  5
146
330
1
100
AcDbSymbolTableRecord
100
AcDbBlockTableRecord
  2
_D_2
340
0
  0
BLOCK_RECORD
  5
151
330
1
100
AcDbSymbolTableRecord
100
AcDbBlockTableRecord
  2
_D_3
340
0
  0
BLOCK_RECORD
  5
15C
330
1
100
AcDbSymbolTableRecord
100
AcDbBlockTableRecord
  2
_D_4
340
0
  0
BLOCK_RECORD
  5
167
330
1
100
AcDbSymbolTableRecord
100
AcDbBlockTableRecord
  2
_D_5
340
0
  0
BLOCK_RECORD
  5
171
330
1
100
AcDbSymbolTableRecord
100
AcDbBlockTableRecord
  2
_D_6
340
0
  0
BLOCK_RECORD
  5
17B
330
1
100
AcDbSymbolTableRecord
100
AcDbBlockTableRecord
  2
_D_7
340
0
  0
BLOCK_RECORD
  5
187
330
1
100
AcDbSymbolTableRecord
100
AcDbBlockTableRecord
  2
_D_8
340
0
  0
ENDTAB
  0
ENDSEC
  0
SECTION
  2
BLOCKS
  0
BLOCK
  5
20
330
1F
100
AcDbEntity
  8
0
100
AcDbBlockBegin
  2
*Model_Space
 70
     0
 10
0.0
 20
0.0
 30
0.0
  3
*Model_Space
  1

  0
ENDBLK
  5
21
330
1F
100
AcDbEntity
  8
0
100
AcDbBlockEnd
  0
BLOCK
  5
1C
330
1B
100
AcDbEntity
 67
     1
  8
0
100
AcDbBlockBegin
  2
*Paper_Space
 70
     0
 10
0.0
 20
0.0
 30
0.0
  3
*Paper_Space
  1

  0
ENDBLK
  5
1D
330
1B
100
AcDbEntity
 67
     1
  8
0
100
AcDbBlockEnd
  0
BLOCK
  5
24
330
23
100
AcDbEntity
  8
0
100
AcDbBlockBegin
  2
*Paper_Space0
 70
     0
 10
0.0
 20
0.0
 30
0.0
  3
*Paper_Space0
  1

  0
ENDBLK
  5
25
330
23
100
AcDbEntity
  8
0
100
AcDbBlockEnd
  0
BLOCK
  5
130
330
12F
100
AcDbEntity
  8
0
100
AcDbBlockBegin
  2
_D
 70
     0
 10
0.0
 20
0.0
 30
0.0
  3
_D
  1

  0
SOLID
  5
132
330
12F
100
AcDbEntity
  8
VERMASSUNG
100
AcDbTrace
 10
277.3939809422
 20
114.0737175079
 30
0.0
 11
277.8439809422
 21
117.0737175079
 31
0.0
 12
276.9439809422
 22
117.0737175079
 32
0.0
 13
276.9439809422
 23
117.0737175079
 33
0.0
  0
SOLID
  5
133
330
12F
100
AcDbEntity
  8
VERMASSUNG
100
AcDbTrace
 10
277.3939809422
 20
141.0737175079
 30
0.0
 11
276.9439809422
 21
138.0737175079
 31
0.0
 12
277.8439809422
 22
138.0737175079
 32
0.0
 13
277.8439809422
 23
138.0737175079
 33
0.0
  0
LINE
  5
134
330
12F
100
AcDbEntity
  8
VERMASSUNG
100
AcDbLine
 10
244.8664759947
 20
114.0737175079
 30
0.0
 11
278.3939809422
 21
114.0737175079
 31
0.0
  0
LINE
  5
135
330
12F
100
AcDbEntity
  8
VERMASSUNG
100
AcDbLine
 10
244.8664759947
 20
141.0737175079
 30
0.0
 11
278.3939809422
 21
141.0737175079
 31
0.0
  0
LINE
  5
136
330
12F
100
AcDbEntity
  8
VERMASSUNG
100
AcDbLine
 10
277.3939809422
 20
114.0737175079
 30
0.0
 11
277.3939809422
 21
141.0737175079
 31
0.0
  0
MTEXT
  5
137
330
12F
100
AcDbEntity
  8
VERMASSUNG
100
AcDbMText
 10
274.8158456372
 20
124.3687175506
 30
0.0
 40
2.0
 41
0.0
 71
     1
 72
     1
  1
%%c
  7
SLDTEXTSTYLE0
 11
6.123233995736766E-17
 21
1.0
 31
0.0
 73
     1
 44
1.0
  0
MTEXT
  5
138
330
12F
100
AcDbEntity
  8
VERMASSUNG
100
AcDbMText
 10
274.6158456859
 20
127.978717565
 30
0.0
 40
2.0
 41
0.0
 71
     1
 72
     1
  1
27
  7
SLDTEXTSTYLE0
 11
6.123233995736766E-17
 21
1.0
 31
0.0
 73
     1
 44
1.0
  0
ENDBLK
  5
131
330
12F
100
AcDbEntity
  8
0
100
AcDbBlockEnd
  0
BLOCK
  5
13B
330
13A
100
AcDbEntity
  8
0
100
AcDbBlockBegin
  2
_D_1
 70
     0
 10
0.0
 20
0.0
 30
0.0
  3
_D_1
  1

  0
SOLID
  5
13D
330
13A
100
AcDbEntity
  8
VERMASSUNG
100
AcDbTrace
 10
284.6664759947
 20
98.5737175079
 30
0.0
 11
285.1164759947
 21
101.5737175079
 31
0.0
 12
284.2164759947
 22
101.5737175079
 32
0.0
 13
284.2164759947
 23
101.5737175079
 33
0.0
  0
SOLID
  5
13E
330
13A
100
AcDbEntity
  8
VERMASSUNG
100
AcDbTrace
 10
284.6664759947
 20
156.5737175079
 30
0.0
 11
284.2164759947
 21
153.5737175079
 31
0.0
 12
285.1164759947
 22
153.5737175079
 32
0.0
 13
285.1164759947
 23
153.5737175079
 33
0.0
  0
LINE
  5
13F
330
13A
100
AcDbEntity
  8
VERMASSUNG
100
AcDbLine
 10
223.8664759947
 20
98.5737175079
 30
0.0
 11
285.6664759947
 21
98.5737175079
 31
0.0
  0
LINE
  5
140
330
13A
100
AcDbEntity
  8
VERMASSUNG
100
AcDbLine
 10
223.8664759947
 20
156.5737175079
 30
0.0
 11
285.6664759947
 21
156.5737175079
 31
0.0
  0
LINE
  5
141
330
13A
100
AcDbEntity
  8
VERMASSUNG
100
AcDbLine
 10
284.6664759947
 20
98.5737175079
 30
0.0
 11
284.6664759947
 21
156.5737175079
 31
0.0
  0
MTEXT
  5
142
330
13A
100
AcDbEntity
  8
VERMASSUNG
100
AcDbMText
 10
282.0883406897
 20
124.3687175506
 30
0.0
 40
2.0
 41
0.0
 71
     1
 72
     1
  1
%%c
  7
SLDTEXTSTYLE0
 11
6.123233995736766E-17
 21
1.0
 31
0.0
 73
     1
 44
1.0
  0
MTEXT
  5
143
330
13A
100
AcDbEntity
  8
VERMASSUNG
100
AcDbMText
 10
281.8883407384
 20
127.978717565
 30
0.0
 40
2.0
 41
0.0
 71
     1
 72
     1
  1
58
  7
SLDTEXTSTYLE0
 11
6.123233995736766E-17
 21
1.0
 31
0.0
 73
     1
 44
1.0
  0
ENDBLK
  5
13C
330
13A
100
AcDbEntity
  8
0
100
AcDbBlockEnd
  0
BLOCK
  5
147
330
146
100
AcDbEntity
  8
0
100
AcDbBlockBegin
  2
_D_2
 70
     0
 10
0.0
 20
0.0
 30
0.0
  3
_D_2
  1

  0
SOLID
  5
149
330
146
100
AcDbEntity
  8
VERMASSUNG
100
AcDbTrace
 10
270.8836599465
 20
132.6312175079
 30
0.0
 11
270.4336599465
 21
129.6312175079
 31
0.0
 12
271.3336599465
 22
129.6312175079
 32
0.0
 13
271.3336599465
 23
129.6312175079
 33
0.0
  0
SOLID
  5
14A
330
146
100
AcDbEntity
  8
VERMASSUNG
100
AcDbTrace
 10
270.8836599465
 20
122.5162175079
 30
0.0
 11
271.3336599465
 21
125.5162175079
 31
0.0
 12
270.4336599465
 22
125.5162175079
 32
0.0
 13
270.4336599465
 23
125.5162175079
 33
0.0
  0
LINE
  5
14B
330
146
100
AcDbEntity
  8
VERMASSUNG
100
AcDbLine
 10
262.6664759947
 20
132.6312175079
 30
0.0
 11
271.8836599465
 21
132.6312175079
 31
0.0
  0
LINE
  5
14C
330
146
100
AcDbEntity
  8
VERMASSUNG
100
AcDbLine
 10
262.6664759947
 20
122.5162175079
 30
0.0
 11
271.8836599465
 21
122.5162175079
 31
0.0
  0
LINE
  5
14D
330
146
100
AcDbEntity
  8
VERMASSUNG
100
AcDbLine
 10
270.8836599465
 20
132.6312175079
 30
0.0
 11
270.8836599465
 21
122.5162175079
 31
0.0
  0
MTEXT
  5
14E
330
146
100
AcDbEntity
  8
VERMASSUNG
100
AcDbMText
 10
268.3055243505
 20
124.4737174188
 30
0.0
 40
2.0
 41
0.0
 71
     1
 72
     1
  1
SW
  7
SLDTEXTSTYLE0
 11
-7.044195017643634E-15
 21
1.0
 31
0.0
 73
     1
 44
1.0
  0
MTEXT
  5
14F
330
146
100
AcDbEntity
  8
VERMASSUNG
100
AcDbMText
 10
268.3055243505
 20
128.2737174829
 30
0.0
 40
2.0
 41
0.0
 71
     1
 72
     1
  1
10
  7
SLDTEXTSTYLE0
 11
-7.044195017643634E-15
 21
1.0
 31
0.0
 73
     1
 44
1.0
  0
ENDBLK
  5
148
330
146
100
AcDbEntity
  8
0
100
AcDbBlockEnd
  0
BLOCK
  5
152
330
151
100
AcDbEntity
  8
0
100
AcDbBlockBegin
  2
_D_3
 70
     0
 10
0.0
 20
0.0
 30
0.0
  3
_D_3
  1

  0
SOLID
  5
154
330
151
100
AcDbEntity
  8
VERMASSUNG
100
AcDbTrace
 10
292.1222481128
 20
94.4499072909
 30
0.0
 11
292.5722481128
 21
97.4499072909
 31
0.0
 12
291.6722481128
 22
97.4499072909
 32
0.0
 13
291.6722481128
 23
97.4499072909
 33
0.0
  0
SOLID
  5
155
330
151
100
AcDbEntity
  8
VERMASSUNG
100
AcDbTrace
 10
292.1222481128
 20
160.6975277248
 30
0.0
 11
291.6722481128
 21
157.6975277248
 31
0.0
 12
292.5722481128
 22
157.6975277248
 32
0.0
 13
292.5722481128
 23
157.6975277248
 33
0.0
  0
LINE
  5
156
330
151
100
AcDbEntity
  8
VERMASSUNG
100
AcDbLine
 10
97.1954233631
 20
94.4499072909
 30
0.0
 11
293.1222481128
 21
94.4499072909
 31
0.0
  0
LINE
  5
157
330
151
100
AcDbEntity
  8
VERMASSUNG
100
AcDbLine
 10
97.1954233631
 20
160.6975277248
 30
0.0
 11
293.1222481128
 21
160.6975277248
 31
0.0
  0
LINE
  5
158
330
151
100
AcDbEntity
  8
VERMASSUNG
100
AcDbLine
 10
292.1222481128
 20
94.4499072909
 30
0.0
 11
292.1222481128
 21
160.6975277248
 31
0.0
  0
MTEXT
  5
159
330
151
100
AcDbEntity
  8
VERMASSUNG
100
AcDbMText
 10
289.5441128079
 20
124.3687175506
 30
0.0
 40
2.0
 41
0.0
 71
     1
 72
     1
  1
%%c
  7
SLDTEXTSTYLE0
 11
6.123233995736766E-17
 21
1.0
 31
0.0
 73
     1
 44
1.0
  0
MTEXT
  5
15A
330
151
100
AcDbEntity
  8
VERMASSUNG
100
AcDbMText
 10
289.3441128566
 20
127.978717565
 30
0.0
 40
2.0
 41
0.0
 71
     1
 72
     1
  1
66
  7
SLDTEXTSTYLE0
 11
6.123233995736766E-17
 21
1.0
 31
0.0
 73
     1
 44
1.0
  0
ENDBLK
  5
153
330
151
100
AcDbEntity
  8
0
100
AcDbBlockEnd
  0
BLOCK
  5
15D
330
15C
100
AcDbEntity
  8
0
100
AcDbBlockBegin
  2
_D_4
 70
     0
 10
0.0
 20
0.0
 30
0.0
  3
_D_4
  1

  0
SOLID
  5
15F
330
15C
100
AcDbEntity
  8
VERMASSUNG
100
AcDbTrace
 10
8.4235638678
 20
177.5737175079
 30
0.0
 11
7.9735638678
 21
174.5737175079
 31
0.0
 12
8.8735638678
 22
174.5737175079
 32
0.0
 13
8.8735638678
 23
174.5737175079
 33
0.0
  0
SOLID
  5
160
330
15C
100
AcDbEntity
  8
VERMASSUNG
100
AcDbTrace
 10
8.4235638678
 20
77.5737175079
 30
0.0
 11
8.8735638678
 21
80.5737175079
 31
0.0
 12
7.9735638678
 22
80.5737175079
 32
0.0
 13
7.9735638678
 23
80.5737175079
 33
0.0
  0
LINE
  5
161
330
15C
100
AcDbEntity
  8
VERMASSUNG
100
AcDbLine
 10
65.1664759947
 20
177.5737175079
 30
0.0
 11
7.4235638678
 21
177.5737175079
 31
0.0
  0
LINE
  5
162
330
15C
100
AcDbEntity
  8
VERMASSUNG
100
AcDbLine
 10
65.1664759947
 20
77.5737175079
 30
0.0
 11
7.4235638678
 21
77.5737175079
 31
0.0
  0
LINE
  5
163
330
15C
100
AcDbEntity
  8
VERMASSUNG
100
AcDbLine
 10
8.4235638678
 20
177.5737175079
 30
0.0
 11
8.4235638678
 21
77.5737175079
 31
0.0
  0
MTEXT
  5
164
330
15C
100
AcDbEntity
  8
VERMASSUNG
100
AcDbMText
 10
5.8454285629
 20
123.8687174687
 30
0.0
 40
2.0
 41
0.0
 71
     1
 72
     1
  1
%%c
  7
SLDTEXTSTYLE0
 11
-7.044195017643634E-15
 21
1.0
 31
0.0
 73
     1
 44
1.0
  0
MTEXT
  5
165
330
15C
100
AcDbEntity
  8
VERMASSUNG
100
AcDbMText
 10
5.6454286116
 20
127.478717483
 30
0.0
 40
2.0
 41
0.0
 71
     1
 72
     1
  1
100
  7
SLDTEXTSTYLE0
 11
-7.044195017643634E-15
 21
1.0
 31
0.0
 73
     1
 44
1.0
  0
ENDBLK
  5
15E
330
15C
100
AcDbEntity
  8
0
100
AcDbBlockEnd
  0
BLOCK
  5
168
330
167
100
AcDbEntity
  8
0
100
AcDbBlockBegin
  2
_D_5
 70
     0
 10
0.0
 20
0.0
 30
0.0
  3
_D_5
  1

  0
SOLID
  5
16A
330
167
100
AcDbEntity
  8
VERMASSUNG
100
AcDbTrace
 10
93.6164759947
 20
185.1926422266
 30
0.0
 11
96.6164759947
 21
184.7426422266
 31
0.0
 12
96.6164759947
 22
185.6426422266
 32
0.0
 13
96.6164759947
 23
185.6426422266
 33
0.0
  0
SOLID
  5
16B
330
167
100
AcDbEntity
  8
VERMASSUNG
100
AcDbTrace
 10
224.6664759947
 20
185.1926422266
 30
0.0
 11
221.6664759947
 21
185.6426422266
 31
0.0
 12
221.6664759947
 22
184.7426422266
 32
0.0
 13
221.6664759947
 23
184.7426422266
 33
0.0
  0
LINE
  5
16C
330
167
100
AcDbEntity
  8
VERMASSUNG
100
AcDbLine
 10
93.6164759947
 20
158.9237175079
 30
0.0
 11
93.6164759947
 21
186.1926422266
 31
0.0
  0
LINE
  5
16D
330
167
100
AcDbEntity
  8
VERMASSUNG
100
AcDbLine
 10
224.6664759947
 20
155.7737175079
 30
0.0
 11
224.6664759947
 21
186.1926422266
 31
0.0
  0
LINE
  5
16E
330
167
100
AcDbEntity
  8
VERMASSUNG
100
AcDbLine
 10
93.6164759947
 20
185.1926422266
 30
0.0
 11
224.6664759947
 21
185.1926422266
 31
0.0
  0
MTEXT
  5
16F
330
167
100
AcDbEntity
  8
VERMASSUNG
100
AcDbMText
 10
155.7414759496
 20
187.7707778225
 30
0.0
 40
2.0
 41
0.0
 71
     1
 72
     1
  1
131.05
  7
SLDTEXTSTYLE0
 73
     1
 44
1.0
  0
ENDBLK
  5
169
330
167
100
AcDbEntity
  8
0
100
AcDbBlockEnd
  0
BLOCK
  5
172
330
171
100
AcDbEntity
  8
0
100
AcDbBlockBegin
  2
_D_6
 70
     0
 10
0.0
 20
0.0
 30
0.0
  3
_D_6
  1

  0
SOLID
  5
174
330
171
100
AcDbEntity
  8
VERMASSUNG
100
AcDbTrace
 10
64.6664759947
 20
193.5737175079
 30
0.0
 11
67.6664759947
 21
193.1237175079
 31
0.0
 12
67.6664759947
 22
194.0237175079
 32
0.0
 13
67.6664759947
 23
194.0237175079
 33
0.0
  0
SOLID
  5
175
330
171
100
AcDbEntity
  8
VERMASSUNG
100
AcDbTrace
 10
224.6664759947
 20
193.5737175079
 30
0.0
 11
221.6664759947
 21
194.0237175079
 31
0.0
 12
221.6664759947
 22
193.1237175079
 32
0.0
 13
221.6664759947
 23
193.1237175079
 33
0.0
  0
LINE
  5
176
330
171
100
AcDbEntity
  8
VERMASSUNG
100
AcDbLine
 10
64.6664759947
 20
177.0737175079
 30
0.0
 11
64.6664759947
 21
194.5737175079
 31
0.0
  0
LINE
  5
177
330
171
100
AcDbEntity
  8
VERMASSUNG
100
AcDbLine
 10
224.6664759947
 20
155.7737175079
 30
0.0
 11
224.6664759947
 21
194.5737175079
 31
0.0
  0
LINE
  5
178
330
171
100
AcDbEntity
  8
VERMASSUNG
100
AcDbLine
 10
64.6664759947
 20
193.5737175079
 30
0.0
 11
224.6664759947
 21
193.5737175079
 31
0.0
  0
MTEXT
  5
179
330
171
100
AcDbEntity
  8
VERMASSUNG
100
AcDbMText
 10
142.7664759626
 20
196.1518531038
 30
0.0
 40
2.0
 41
0.0
 71
     1
 72
     1
  1
160
  7
SLDTEXTSTYLE0
 73
     1
 44
1.0
  0
ENDBLK
  5
173
330
171
100
AcDbEntity
  8
0
100
AcDbBlockEnd
  0
BLOCK
  5
17C
330
17B
100
AcDbEntity
  8
0
100
AcDbBlockBegin
  2
_D_7
 70
     0
 10
0.0
 20
0.0
 30
0.0
  3
_D_7
  1

  0
ARC
  5
17E
330
17B
100
AcDbEntity
  8
VERMASSUNG
100
AcDbCircle
 10
130.9164762316
 20
203.5599973628
 30
0.0
 40
4.248529228887633
100
AcDbArc
 50
153.4349488229
 51
206.5650511771
  0
ARC
  5
17F
330
17B
100
AcDbEntity
  8
VERMASSUNG
100
AcDbCircle
 10
129.5164758159
 20
203.5599973628
 30
0.0
 40
4.24852922888762
100
AcDbArc
 50
333.4349488229
 51
26.5650511771
  0
SOLID
  5
180
330
17B
100
AcDbEntity
  8
VERMASSUNG
100
AcDbTrace
 10
14.7664759947
 20
201.6599970979
 30
0.0
 11
17.7664759947
 21
201.2099970979
 31
0.0
 12
17.7664759947
 22
202.1099970979
 32
0.0
 13
17.7664759947
 23
202.1099970979
 33
0.0
  0
SOLID
  5
181
330
17B
100
AcDbEntity
  8
VERMASSUNG
100
AcDbTrace
 10
245.6664759947
 20
201.6599970979
 30
0.0
 11
242.6664759947
 21
202.1099970979
 31
0.0
 12
242.6664759947
 22
201.2099970979
 32
0.0
 13
242.6664759947
 23
201.2099970979
 33
0.0
  0
LINE
  5
182
330
17B
100
AcDbEntity
  8
VERMASSUNG
100
AcDbLine
 10
14.7664759947
 20
158.0763872505
 30
0.0
 11
14.7664759947
 21
202.6599970979
 31
0.0
  0
LINE
  5
183
330
17B
100
AcDbEntity
  8
VERMASSUNG
100
AcDbLine
 10
245.6664759947
 20
136.7447853197
 30
0.0
 11
245.6664759947
 21
202.6599970979
 31
0.0
  0
LINE
  5
184
330
17B
100
AcDbEntity
  8
VERMASSUNG
100
AcDbLine
 10
14.7664759947
 20
201.6599970979
 30
0.0
 11
245.6664759947
 21
201.6599970979
 31
0.0
  0
MTEXT
  5
185
330
17B
100
AcDbEntity
  8
VERMASSUNG
100
AcDbMText
 10
127.1164761676
 20
204.2381329267
 30
0.0
 40
2.0
 41
0.0
 71
     1
 72
     1
  1
230.9
  7
SLDTEXTSTYLE0
 73
     1
 44
1.0
  0
ENDBLK
  5
17D
330
17B
100
AcDbEntity
  8
0
100
AcDbBlockEnd
  0
BLOCK
  5
188
330
187
100
AcDbEntity
  8
0
100
AcDbBlockBegin
  2
_D_8
 70
     0
 10
0.0
 20
0.0
 30
0.0
  3
_D_8
  1

  0
SOLID
  5
18A
330
187
100
AcDbEntity
  8
VERMASSUNG
100
AcDbTrace
 10
224.6664759947
 20
185.1926422266
 30
0.0
 11
227.6664759947
 21
184.7426422266
 31
0.0
 12
227.6664759947
 22
185.6426422266
 32
0.0
 13
227.6664759947
 23
185.6426422266
 33
0.0
  0
SOLID
  5
18B
330
187
100
AcDbEntity
  8
VERMASSUNG
100
AcDbTrace
 10
245.6664759947
 20
185.1926422266
 30
0.0
 11
242.6664759947
 21
185.6426422266
 31
0.0
 12
242.6664759947
 22
184.7426422266
 32
0.0
 13
242.6664759947
 23
184.7426422266
 33
0.0
  0
LINE
  5
18C
330
187
100
AcDbEntity
  8
VERMASSUNG
100
AcDbLine
 10
224.6664759947
 20
155.7737175079
 30
0.0
 11
224.6664759947
 21
186.1926422266
 31
0.0
  0
LINE
  5
18D
330
187
100
AcDbEntity
  8
VERMASSUNG
100
AcDbLine
 10
245.6664759947
 20
136.7447853197
 30
0.0
 11
245.6664759947
 21
186.1926422266
 31
0.0
  0
LINE
  5
18E
330
187
100
AcDbEntity
  8
VERMASSUNG
100
AcDbLine
 10
224.6664759947
 20
185.1926422266
 30
0.0
 11
245.6664759947
 21
185.1926422266
 31
0.0
  0
MTEXT
  5
18F
330
187
100
AcDbEntity
  8
VERMASSUNG
100
AcDbMText
 10
233.9664759377
 20
187.7707778225
 30
0.0
 40
2.0
 41
0.0
 71
     1
 72
     1
  1
21
  7
SLDTEXTSTYLE0
 73
     1
 44
1.0
  0
ENDBLK
  5
189
330
187
100
AcDbEntity
  8
0
100
AcDbBlockEnd
  0
ENDSEC
  0
SECTION
  2
ENTITIES
  0
MTEXT
  5
78
330
1F
100
AcDbEntity
  8
KOPF_DÜNN
100
AcDbMText
 10
13.8892156294
 20
23.8442973028
 30
0.0
 40
3.0
 41
0.0
 71
     1
 72
     1
  1
HA0.D27.K01.160
  7
SLDTEXTSTYLE0
 73
     1
 44
1.0
  0
MTEXT
  5
79
330
1F
100
AcDbEntity
  8
VERMASSUNG
100
AcDbMText
 10
13.9329988022
 20
28.8834360957
 30
0.0
 40
3.0
 41
0.0
 71
     1
 72
     1
  1
Fräsdorn Typ S_Milling arbor type S
  7
SLDTEXTSTYLE0
 73
     1
 44
1.0
  0
MTEXT
  5
7A
330
1F
100
AcDbEntity
  8
VERMASSUNG
100
AcDbMText
 10
98.8601118557
 20
13.8365368761
 30
0.0
 40
2.0
 41
0.0
 71
     1
 72
     1
  1
Datum: 19.02.2018
  7
SLDTEXTSTYLE0
 73
     1
 44
1.0
  0
MTEXT
  5
7C
330
1F
100
AcDbEntity
  8
VERMASSUNG
100
AcDbMText
 10
13.933048693
 20
18.0482802738
 30
0.0
 40
2.0
 41
0.0
 71
     1
 72
     1
  1
HSK 100 / Ø27
  7
SLDTEXTSTYLE1
 73
     1
 44
1.0
  0
MTEXT
  5
7D
330
1F
100
AcDbEntity
  8
VERMASSUNG
100
AcDbMText
 10
13.9808475933
 20
13.9090974274
 30
0.0
 40
2.0
 41
0.0
 71
     1
 72
     1
  1
Gewicht: 4782g
  7
SLDTEXTSTYLE0
 73
     1
 44
1.0
  0
LINE
  5
7E
330
1F
100
AcDbEntity
  8
0
  6
Continuous
 62
     7
370
    25
100
AcDbLine
 10
224.6664724184
 20
143.5737182678
 30
0.0
 11
230.4664811922
 21
143.5737182678
 31
0.0
  0
LINE
  5
7F
330
1F
100
AcDbEntity
  8
0
  6
Continuous
 62
     7
370
    25
100
AcDbLine
 10
230.4664811922
 20
155.5737183722
 30
0.0
 11
224.6664724184
 21
155.5737183722
 31
0.0
  0
ARC
  5
80
330
1F
100
AcDbEntity
  8
0
  6
Continuous
 62
     7
370
    25
100
AcDbCircle
 10
230.4664759947
 20
144.0737175079
 30
0.0
 40
0.5
100
AcDbArc
 50
270.0
 51
0.0
  0
ARC
  5
81
330
1F
100
AcDbEntity
  8
0
  6
Continuous
 62
     7
370
    25
100
AcDbCircle
 10
230.4664759947
 20
155.0737175079
 30
0.0
 40
0.5
100
AcDbArc
 50
0.0
 51
90.0
  0
ARC
  5
82
330
1F
100
AcDbEntity
  8
0
  6
Continuous
 62
     7
370
    25
100
AcDbCircle
 10
230.4664759947
 20
100.0737175079
 30
0.0
 40
0.5
100
AcDbArc
 50
270.0
 51
0.0
  0
ARC
  5
83
330
1F
100
AcDbEntity
  8
0
  6
Continuous
 62
     7
370
    25
100
AcDbCircle
 10
230.4664759947
 20
111.0737175079
 30
0.0
 40
0.5
100
AcDbArc
 50
0.0
 51
90.0
  0
LINE
  5
84
330
1F
100
AcDbEntity
  8
0
  6
Continuous
 62
     7
370
    25
100
AcDbLine
 10
224.6664724184
 20
99.5737166436
 30
0.0
 11
230.4664811922
 21
99.5737166436
 31
0.0
  0
LINE
  5
85
330
1F
100
AcDbEntity
  8
0
  6
Continuous
 62
     7
370
    25
100
AcDbLine
 10
230.4664811922
 20
111.5737167479
 30
0.0
 11
224.6664724184
 21
111.5737167479
 31
0.0
  0
ARC
  5
86
330
1F
100
AcDbEntity
  8
0
  6
Continuous
 62
     7
370
    25
100
AcDbCircle
 10
262.0664759947
 20
135.9737175079
 30
0.0
 40
0.6000000000000227
100
AcDbArc
 50
0.0
 51
90.0
  0
ARC
  5
87
330
1F
100
AcDbEntity
  8
0
  6
Continuous
 62
     7
370
    25
100
AcDbCircle
 10
262.0664759947
 20
119.1737175079
 30
0.0
 40
0.6000000000000227
100
AcDbArc
 50
270.0
 51
0.0
  0
LINE
  5
88
330
1F
100
AcDbEntity
  8
0
  6
Continuous
 62
     7
370
    25
100
AcDbLine
 10
262.0664796663
 20
136.5737171205
 30
0.0
 11
250.6664804054
 21
136.5737171205
 31
0.0
  0
LINE
  5
89
330
1F
100
AcDbEntity
  8
0
  6
Continuous
 62
     7
370
    25
100
AcDbLine
 10
250.6664804054
 20
118.5737178953
 30
0.0
 11
262.0664796663
 21
118.5737178953
 31
0.0
  0
ARC
  5
8A
330
1F
100
AcDbEntity
  8
0
  6
Continuous
 62
     7
370
    25
100
AcDbCircle
 10
250.0664759947
 20
120.9737175079
 30
0.0
 40
0.5999999999999943
100
AcDbArc
 50
0.0
 51
90.0
  0
ARC
  5
8B
330
1F
100
AcDbEntity
  8
0
  6
Continuous
 62
     7
370
    25
100
AcDbCircle
 10
250.0664759947
 20
134.1737175079
 30
0.0
 40
0.5999999999999943
100
AcDbArc
 50
270.0
 51
0.0
  0
LINE
  5
8C
330
1F
100
AcDbEntity
  8
0
  6
Continuous
 62
     7
370
    25
100
AcDbLine
 10
250.0664702488
 20
133.57371756
 30
0.0
 11
245.6664702726
 21
133.57371756
 31
0.0
  0
LINE
  5
8D
330
1F
100
AcDbEntity
  8
0
  6
Continuous
 62
     7
370
    25
100
AcDbLine
 10
245.6664702726
 20
121.5737174557
 30
0.0
 11
250.0664702488
 21
121.5737174557
 31
0.0
  0
ARC
  5
8E
330
1F
100
AcDbEntity
  8
0
  6
Continuous
 62
     7
370
    25
100
AcDbCircle
 10
65.1664759947
 20
78.0737175079
 30
0.0
 40
0.5
100
AcDbArc
 50
180.0
 51
270.0
  0
ARC
  5
8F
330
1F
100
AcDbEntity
  8
0
  6
Continuous
 62
     7
370
    25
100
AcDbCircle
 10
65.1664759947
 20
177.0737175079
 30
0.0
 40
0.5
100
AcDbArc
 50
90.0
 51
180.0
  0
LINE
  5
90
330
1F
100
AcDbEntity
  8
0
  6
Continuous
 62
     7
370
    25
100
AcDbLine
 10
65.1664760184
 20
77.5737167628
 30
0.0
 11
69.6164759678
 21
77.5737167628
 31
0.0
  0
LINE
  5
91
330
1F
100
AcDbEntity
  8
0
  6
Continuous
 62
     7
370
    25
100
AcDbLine
 10
69.6505488699
 20
177.5737182529
 30
0.0
 11
65.1664760184
 21
177.5737182529
 31
0.0
  0
ARC
  5
92
330
1F
100
AcDbEntity
  8
0
  6
Continuous
 62
     7
370
    25
100
AcDbCircle
 10
63.7695390762
 20
88.9452321834
 30
0.0
 40
0.9962338214386932
100
AcDbArc
 50
25.7988228126
 51
90.0
  0
ARC
  5
93
330
1F
100
AcDbEntity
  8
0
  6
Continuous
 62
     7
370
    25
100
AcDbCircle
 10
63.7695390762
 20
166.2022028323
 30
0.0
 40
0.9962338214386981
100
AcDbArc
 50
270.0
 51
334.2011771874
  0
ARC
  5
94
330
1F
100
AcDbEntity
  8
0
  6
Continuous
 62
     7
370
    25
100
AcDbCircle
 10
98.6164759947
 20
89.6560978018
 30
0.0
 40
5.000000000000005
100
AcDbArc
 50
106.5116637356
 51
180.0
  0
ARC
  5
95
330
1F
100
AcDbEntity
  8
0
  6
Continuous
 62
     7
370
    25
100
AcDbCircle
 10
98.6164759947
 20
165.491337214
 30
0.0
 40
5.000000000000005
100
AcDbArc
 50
180.0
 51
253.4883362644
  0
LINE
  5
96
330
1F
100
AcDbEntity
  8
0
  6
Continuous
 62
     7
370
    25
100
AcDbLine
 10
43.1859324557
 20
164.5050385328
 30
0.0
 11
24.866476549
 21
163.5872313114
 31
0.0
  0
LINE
  5
97
330
1F
100
AcDbEntity
  8
0
  6
Continuous
 62
     7
370
    25
100
AcDbLine
 10
62.1664760505
 20
165.4559673102
 30
0.0
 11
56.0975502116
 21
165.1519128414
 31
0.0
  0
LINE
  5
98
330
1F
100
AcDbEntity
  8
0
  6
Continuous
 62
     7
370
    25
100
AcDbLine
 10
56.0979134274
 20
89.995503548
 30
0.0
 11
62.1664760505
 21
89.6914677055
 31
0.0
  0
LINE
  5
99
330
1F
100
AcDbEntity
  8
0
  6
Continuous
 62
     7
370
    25
100
AcDbLine
 10
29.8664755059
 20
91.3097040089
 30
0.0
 11
43.1870239658
 21
90.6423406036
 31
0.0
  0
LINE
  5
9A
330
1F
100
AcDbEntity
  8
0
  6
Continuous
 62
     7
370
    25
100
AcDbLine
 10
62.1664760505
 20
89.6914677055
 30
0.0
 11
62.9723221167
 21
89.9073929818
 31
0.0
  0
LINE
  5
9B
330
1F
100
AcDbEntity
  8
0
  6
Continuous
 62
     7
370
    25
100
AcDbLine
 10
62.9723221167
 20
165.240042034
 30
0.0
 11
62.1664760505
 21
165.4559673102
 31
0.0
  0
ARC
  5
9C
330
1F
100
AcDbEntity
  8
0
  6
Continuous
 62
     7
370
    25
100
AcDbCircle
 10
63.2311411941
 20
88.9414660049
 30
0.0
 40
1.0
100
AcDbArc
 50
90.0
 51
105.0
  0
ARC
  5
9D
330
1F
100
AcDbEntity
  8
0
  6
Continuous
 62
     7
370
    25
100
AcDbCircle
 10
63.2311411941
 20
166.2059690109
 30
0.0
 40
1.0
100
AcDbArc
 50
255.0
 51
270.0
  0
LINE
  5
9E
330
1F
100
AcDbEntity
  8
0
  6
Continuous
 62
     7
370
    25
100
AcDbLine
 10
63.2311412004
 20
89.9414644869
 30
0.0
 11
63.7695390719
 21
89.9414644869
 31
0.0
  0
LINE
  5
9F
330
1F
100
AcDbEntity
  8
0
  6
Continuous
 62
     7
370
    25
100
AcDbLine
 10
63.7695390719
 20
165.2059705289
 30
0.0
 11
63.2311412004
 21
165.2059705289
 31
0.0
  0
ARC
  5
A0
330
1F
100
AcDbEntity
  8
0
  6
Continuous
 62
     7
370
    25
100
AcDbCircle
 10
125.6164759947
 20
-1.4262824921
 30
0.0
 40
100.0
100
AcDbArc
 50
90.0
 51
106.5116637356
  0
ARC
  5
A1
330
1F
100
AcDbEntity
  8
0
  6
Continuous
 62
     7
370
    25
100
AcDbCircle
 10
125.6164759947
 20
256.5737175079
 30
0.0
 40
99.99999999999997
100
AcDbArc
 50
253.4883362644
 51
270.0
  0
ARC
  5
A2
330
1F
100
AcDbEntity
  8
0
  6
Continuous
 62
     7
370
    25
100
AcDbCircle
 10
223.8664759947
 20
99.3737175079
 30
0.0
 40
0.8000000000000114
100
AcDbArc
 50
270.0
 51
360.0
  0
ARC
  5
A3
330
1F
100
AcDbEntity
  8
0
  6
Continuous
 62
     7
370
    25
100
AcDbCircle
 10
223.8664759947
 20
155.7737175079
 30
0.0
 40
0.8000000000000114
100
AcDbArc
 50
0.0
 51
90.0
  0
LINE
  5
A4
330
1F
100
AcDbEntity
  8
0
  6
Continuous
 62
     7
370
    25
100
AcDbLine
 10
125.6164758337
 20
98.5737183423
 30
0.0
 11
223.8664737774
 21
98.5737183423
 31
0.0
  0
LINE
  5
A5
330
1F
100
AcDbEntity
  8
0
  6
Continuous
 62
     7
370
    25
100
AcDbLine
 10
223.8664737774
 20
156.5737166734
 30
0.0
 11
125.6164758337
 21
156.5737166734
 31
0.0
  0
LINE
  5
A6
330
1F
100
AcDbEntity
  8
0
  6
Continuous
 62
     7
370
    25
100
AcDbLine
 10
16.4164750708
 20
95.3237192066
 30
0.0
 11
27.9664768708
 21
95.3237192066
 31
0.0
  0
ARC
  5
A7
330
1F
100
AcDbEntity
  8
0
  6
Continuous
 62
     7
370
    25
100
AcDbCircle
 10
27.9664759947
 20
93.4237175079
 30
0.0
 40
1.900000000000006
100
AcDbArc
 50
35.6630613694
 51
90.0
  0
ARC
  5
A8
330
1F
100
AcDbEntity
  8
0
  6
Continuous
 62
     7
370
    25
100
AcDbCircle
 10
22.9664759947
 20
161.7237175079
 30
0.0
 40
1.900000000000008
100
AcDbArc
 50
270.0
 51
308.1709917343
  0
LINE
  5
A9
330
1F
100
AcDbEntity
  8
0
  6
Continuous
 62
     7
370
    25
100
AcDbLine
 10
16.4164750708
 20
159.8237158092
 30
0.0
 11
14.8171595169
 21
158.2244021179
 31
0.0
  0
LINE
  5
AA
330
1F
100
AcDbEntity
  8
0
  6
Continuous
 62
     7
370
    25
100
AcDbLine
 10
14.8179977072
 20
96.9221965702
 30
0.0
 11
16.4164750708
 21
95.3237192066
 31
0.0
  0
LINE
  5
AB
330
1F
100
AcDbEntity
  8
0
  6
Continuous
 62
     7
370
    25
100
AcDbLine
 10
22.9664741886
 20
159.8237158092
 30
0.0
 11
16.4164750708
 21
159.8237158092
 31
0.0
  0
ARC
  5
AC
330
1F
100
AcDbEntity
  8
0
  6
Continuous
 62
     7
370
    25
100
AcDbCircle
 10
225.0664759947
 20
113.8237175079
 30
0.0
 40
0.6000000000000221
100
AcDbArc
 50
90.0
 51
131.8103148958
  0
ARC
  5
AD
330
1F
100
AcDbEntity
  8
0
  6
Continuous
 62
     7
370
    25
100
AcDbCircle
 10
225.0664759947
 20
141.3237175079
 30
0.0
 40
0.6000000000000227
100
AcDbArc
 50
228.1896851042
 51
270.0
  0
LINE
  5
AE
330
1F
100
AcDbEntity
  8
0
  6
Continuous
 62
     7
370
    25
100
AcDbLine
 10
227.1664700342
 20
141.0737178581
 30
0.0
 11
225.9365579916
 21
140.7441619145
 31
0.0
  0
LINE
  5
AF
330
1F
100
AcDbEntity
  8
0
  6
Continuous
 62
     7
370
    25
100
AcDbLine
 10
225.9365579916
 20
114.4032731013
 30
0.0
 11
227.1664700342
 21
114.0737171577
 31
0.0
  0
LINE
  5
B0
330
1F
100
AcDbEntity
  8
0
  6
Continuous
 62
     7
370
    25
100
AcDbLine
 10
227.1664700342
 20
114.0737171577
 30
0.0
 11
244.8664716316
 21
114.0737171577
 31
0.0
  0
LINE
  5
B1
330
1F
100
AcDbEntity
  8
0
  6
Continuous
 62
     7
370
    25
100
AcDbLine
 10
244.8664716316
 20
141.0737178581
 30
0.0
 11
227.1664700342
 21
141.0737178581
 31
0.0
  0
ARC
  5
B2
330
1F
100
AcDbEntity
  8
0
  6
Continuous
 62
     7
370
    25
100
AcDbCircle
 10
244.8664759947
 20
114.8737175079
 30
0.0
 40
0.799999999999983
100
AcDbArc
 50
270.0
 51
0.0
  0
ARC
  5
B3
330
1F
100
AcDbEntity
  8
0
  6
Continuous
 62
     7
370
    25
100
AcDbCircle
 10
244.8664759947
 20
140.2737175079
 30
0.0
 40
0.799999999999983
100
AcDbArc
 50
0.0
 51
90.0
  0
ARC
  5
B4
330
1F
100
AcDbEntity
  8
0
  6
Continuous
 62
     7
370
    25
100
AcDbCircle
 10
225.7812667134
 20
113.8237175079
 30
0.0
 40
0.6000000000000085
100
AcDbArc
 50
75.0
 51
90.0
  0
ARC
  5
B5
330
1F
100
AcDbEntity
  8
0
  6
Continuous
 62
     7
370
    25
100
AcDbCircle
 10
225.7812667134
 20
141.3237175079
 30
0.0
 40
0.6000000000000227
100
AcDbArc
 50
270.0
 51
285.0
  0
LINE
  5
B6
330
1F
100
AcDbEntity
  8
0
  6
Continuous
 62
     7
370
    25
100
AcDbLine
 10
225.0664791895
 20
114.4237174945
 30
0.0
 11
225.7812729908
 21
114.4237174945
 31
0.0
  0
LINE
  5
B7
330
1F
100
AcDbEntity
  8
0
  6
Continuous
 62
     7
370
    25
100
AcDbLine
 10
225.7812729908
 20
140.7237175213
 30
0.0
 11
225.0664791895
 21
140.7237175213
 31
0.0
  0
LINE
  5
B8
330
1F
100
AcDbEntity
  8
0
  6
Continuous
 62
     7
370
    25
100
AcDbLine
 10
230.9664747549
 20
144.0737174185
 30
0.0
 11
230.9664747549
 21
155.0737173589
 31
0.0
  0
LINE
  5
B9
330
1F
100
AcDbEntity
  8
0
  6
Continuous
 62
     7
370
    25
100
AcDbLine
 10
230.9664747549
 20
100.2421436192
 30
0.0
 11
230.9664747549
 21
111.0737175973
 31
0.0
  0
LINE
  5
BA
330
1F
100
AcDbEntity
  8
0
  6
Continuous
 62
     7
370
    25
100
AcDbLine
 10
230.9664747549
 20
100.0737176569
 30
0.0
 11
230.9664747549
 21
100.2421436192
 31
0.0
  0
LINE
  5
BB
330
1F
100
AcDbEntity
  8
0
  6
Continuous
 62
     7
370
    25
100
AcDbLine
 10
262.6664749218
 20
135.9737172084
 30
0.0
 11
262.6664749218
 21
119.1737178074
 31
0.0
  0
LINE
  5
BC
330
1F
100
AcDbEntity
  8
0
  6
Continuous
 62
     7
370
    25
100
AcDbLine
 10
250.6664804054
 20
136.5737171205
 30
0.0
 11
250.6664804054
 21
118.5737178953
 31
0.0
  0
LINE
  5
BD
330
1F
100
AcDbEntity
  8
0
  6
Continuous
 62
     7
370
    25
100
AcDbLine
 10
87.9285055084
 20
78.7987225981
 30
0.0
 11
87.9285055084
 21
158.9237192007
 31
0.0
  0
SPLINE
  5
BE
330
1F
100
AcDbEntity
  8
0
  6
Continuous
 62
     7
370
    25
100
AcDbSpline
210
0.0
220
0.0
230
1.0
 70
     8
 71
     3
 72
     8
 73
     4
 74
     0
 42
0.000000001
 43
0.00000001
 40
0.0
 40
0.0
 40
0.0
 40
0.0
 40
1.0
 40
1.0
 40
1.0
 40
1.0
 10
87.92850501557264
 20
78.79872391485438
 30
0.0
 10
87.47740028617243
 20
79.5996838466743
 30
0.0
 10
87.02670245892905
 20
80.40087385823497
 30
0.0
 10
86.57647599465126
 20
81.20232922085972
 30
0.0
  0
LINE
  5
BF
330
1F
100
AcDbEntity
  8
0
  6
Continuous
 62
     7
370
    25
100
AcDbLine
 10
86.5764765871
 20
81.2023283275
 30
0.0
 11
86.5764765871
 21
158.9237192007
 31
0.0
  0
SPLINE
  5
C0
330
1F
100
AcDbEntity
  8
0
  6
Continuous
 62
     7
370
    25
100
AcDbSpline
210
0.0
220
0.0
230
1.0
 70
    24
 71
     3
 72
     8
 73
     4
 74
     0
 42
0.000000001
 43
0.00000001
 40
0.0
 40
0.0
 40
0.0
 40
0.0
 40
1.0
 40
1.0
 40
1.0
 40
1.0
 10
86.57647599465126
 20
158.9237175078832
 30
0.0
 10
87.0206888770052
 20
158.9237175078832
 30
0.0
 10
87.47170344324441
 20
158.9237175078832
 30
0.0
 10
87.92850501557264
 20
158.9237175078832
 30
0.0
  0
LINE
  5
C1
330
1F
100
AcDbEntity
  8
0
  6
Continuous
 62
     7
370
    25
100
AcDbLine
 10
82.7564763708
 20
81.2023283275
 30
0.0
 11
82.7564763708
 21
158.9237192007
 31
0.0
  0
SPLINE
  5
C2
330
1F
100
AcDbEntity
  8
0
  6
Continuous
 62
     7
370
    25
100
AcDbSpline
210
0.0
220
0.0
230
1.0
 70
     8
 71
     3
 72
     8
 73
     4
 74
     0
 42
0.000000001
 43
0.00000001
 40
0.0
 40
0.0
 40
0.0
 40
0.0
 40
1.0
 40
1.0
 40
1.0
 40
1.0
 10
82.75647599465127
 20
81.20232922085971
 30
0.0
 10
82.30624953037348
 20
80.40087385823495
 30
0.0
 10
81.85555170313009
 20
79.5996838466743
 30
0.0
 10
81.40444697372988
 20
78.79872391485438
 30
0.0
  0
LINE
  5
C3
330
1F
100
AcDbEntity
  8
0
  6
Continuous
 62
     7
370
    25
100
AcDbLine
 10
81.4044474495
 20
78.7987225981
 30
0.0
 11
81.4044474495
 21
158.9237192007
 31
0.0
  0
SPLINE
  5
C4
330
1F
100
AcDbEntity
  8
0
  6
Continuous
 62
     7
370
    25
100
AcDbSpline
210
0.0
220
0.0
230
1.0
 70
    24
 71
     3
 72
     8
 73
     4
 74
     0
 42
0.000000001
 43
0.00000001
 40
0.0
 40
0.0
 40
0.0
 40
0.0
 40
1.0
 40
1.0
 40
1.0
 40
1.0
 10
81.40444697372988
 20
158.9237175078832
 30
0.0
 10
81.8612485460581
 20
158.9237175078832
 30
0.0
 10
82.31226311229733
 20
158.9237175078832
 30
0.0
 10
82.75647599465127
 20
158.9237175078832
 30
0.0
  0
LINE
  5
C5
330
1F
100
AcDbEntity
  8
0
  6
Continuous
 62
     7
370
    25
100
AcDbLine
 10
64.6664759947
 20
78.0737177761
 30
0.0
 11
64.6664759947
 21
177.0737172397
 31
0.0
  0
LINE
  5
C6
330
1F
100
AcDbEntity
  8
0
  6
Continuous
 62
     7
370
    25
100
AcDbLine
 10
69.6164759678
 20
158.9237192007
 30
0.0
 11
81.4044474495
 21
158.9237192007
 31
0.0
  0
LINE
  5
C7
330
1F
100
AcDbEntity
  8
0
  6
Continuous
 62
     7
370
    25
100
AcDbLine
 10
81.4044474495
 20
78.7987225981
 30
0.0
 11
79.6164757443
 21
78.7987225981
 31
0.0
  0
SPLINE
  5
C8
330
1F
100
AcDbEntity
  8
0
  6
Continuous
 62
     7
370
    25
100
AcDbSpline
210
0.0
220
0.0
230
1.0
 70
     8
 71
     3
 72
    30
 73
    26
 74
     0
 42
0.000000001
 43
0.00000001
 40
0.0
 40
0.0
 40
0.0
 40
0.0
 40
0.1250000000000002
 40
0.1250000000000002
 40
0.1875000000000003
 40
0.1875000000000003
 40
0.2500000000000004
 40
0.2500000000000004
 40
0.3750000000000001
 40
0.3750000000000001
 40
0.4374999999999998
 40
0.4374999999999998
 40
0.4999999999999996
 40
0.4999999999999996
 40
0.6249999999999996
 40
0.6249999999999996
 40
0.6874999999999997
 40
0.6874999999999997
 40
0.7499999999999997
 40
0.7499999999999997
 40
0.8124999999999998
 40
0.8124999999999998
 40
0.8749999999999999
 40
0.8749999999999999
 40
1.0
 40
1.0
 40
1.0
 40
1.0
 10
79.61647599465125
 20
78.79872391485438
 30
0.0
 10
78.95373130080624
 20
78.79872391485439
 30
0.0
 10
78.30247544169052
 20
78.78388383826557
 30
0.0
 10
77.34202490343226
 20
78.74151427403595
 30
0.0
 10
77.02463346019928
 20
78.72403617125678
 30
0.0
 10
76.39546995864441
 20
78.68270788470447
 30
0.0
 10
76.08332177220268
 20
78.65878261124679
 30
0.0
 10
75.17601447035445
 20
78.57997609477988
 30
0.0
 10
74.6025895127132
 20
78.51767007480339
 30
0.0
 10
73.78871264313852
 20
78.41454075456404
 30
0.0
 10
73.52390644656866
 20
78.37835683551752
 30
0.0
 10
73.01699903575431
 20
78.30456205131703
 30
0.0
 10
72.77560488440083
 20
78.26708819254539
 30
0.0
 10
72.08646341226849
 20
78.15437624920565
 30
0.0
 10
71.67340859740426
 20
78.07884015173185
 30
0.0
 10
71.12525377802919
 20
77.97044689471437
 30
0.0
 10
70.95579117068363
 20
77.93537466305112
 30
0.0
 10
70.64777392266825
 20
77.86913920245125
 30
0.0
 10
70.50839390205988
 20
77.83781250569655
 30
0.0
 10
70.25860838943314
 20
77.7794037341156
 30
0.0
 10
70.14820227677922
 20
77.75232049893276
 30
0.0
 10
69.9569444231415
 20
77.70306074431917
 30
0.0
 10
69.87582490485721
 20
77.68079876451154
 30
0.0
 10
69.6816779847488
 20
77.62323185734326
 30
0.0
 10
69.61647599465127
 20
77.59697225255726
 30
0.0
 10
69.61647599465127
 20
77.58371850808324
 30
0.0
  0
LINE
  5
C9
330
1F
100
AcDbEntity
  8
0
  6
Continuous
 62
     7
370
    25
100
AcDbLine
 10
69.6164759678
 20
77.5837191673
 30
0.0
 11
69.6164759678
 21
77.5737167628
 31
0.0
  0
SPLINE
  5
CA
330
1F
100
AcDbEntity
  8
0
  6
Continuous
 62
     7
370
    25
100
AcDbSpline
210
0.0
220
0.0
230
1.0
 70
     8
 71
     3
 72
    17
 73
    13
 74
     0
 42
0.000000001
 43
0.00000001
 40
0.0
 40
0.0
 40
0.0
 40
0.0
 40
0.1043843958185158
 40
0.2118345569819801
 40
0.3162081801235555
 40
0.4235375330682647
 40
0.5292275935501746
 40
0.6379275752951962
 40
0.7444714855043735
 40
0.8541836194561564
 40
0.959308052615968
 40
1.0
 40
1.0
 40
1.0
 40
1.0
 10
79.61647574431176
 20
176.5635126562558
 30
0.0
 10
79.0685372037981
 20
176.5688800965886
 30
0.0
 10
77.95656719072385
 20
176.5797726187526
 30
0.0
 10
76.34371185820132
 20
176.6649548025706
 30
0.0
 10
74.81019870746361
 20
176.7913253059021
 30
0.0
 10
73.41917781908936
 20
176.948229177411
 30
0.0
 10
72.18366070279124
 20
177.1199245748467
 30
0.0
 10
71.16030555693484
 20
177.2852694290567
 30
0.0
 10
70.35996288407587
 20
177.4289737268887
 30
0.0
 10
69.8496313313158
 20
177.5271377228205
 30
0.0
 10
69.60972257285638
 20
177.5750590372933
 30
0.0
 10
69.64164148462584
 20
177.5686925292796
 30
0.0
 10
69.65054886988277
 20
177.5669158728562
 30
0.0
  0
LINE
  5
CB
330
1F
100
AcDbEntity
  8
0
  6
Continuous
 62
     7
370
    25
100
AcDbLine
 10
81.4044474495
 20
176.5635126563
 30
0.0
 11
79.6164757443
 21
176.5635126563
 31
0.0
  0
LINE
  5
CC
330
1F
100
AcDbEntity
  8
0
  6
Continuous
 62
     7
370
    25
100
AcDbLine
 10
81.4044474495
 20
166.5246785911
 30
0.0
 11
81.4044474495
 21
176.5635126563
 31
0.0
  0
LINE
  5
CD
330
1F
100
AcDbEntity
  8
0
  6
Continuous
 62
     7
370
    25
100
AcDbLine
 10
79.3244427872
 20
166.5246785911
 30
0.0
 11
81.4044474495
 21
166.5246785911
 31
0.0
  0
SPLINE
  5
CE
330
1F
100
AcDbEntity
  8
0
  6
Continuous
 62
     7
370
    25
100
AcDbSpline
210
0.0
220
0.0
230
1.0
 70
     8
 71
     3
 72
    22
 73
    18
 74
     0
 42
0.000000001
 43
0.00000001
 40
0.0
 40
0.0
 40
0.0
 40
0.0
 40
0.2500000000000002
 40
0.2500000000000002
 40
0.3750000000000003
 40
0.3750000000000003
 40
0.5000000000000004
 40
0.5000000000000004
 40
0.6250000000000004
 40
0.6250000000000004
 40
0.7500000000000004
 40
0.7500000000000004
 40
0.8750000000000004
 40
0.8750000000000004
 40
0.9375000000000002
 40
0.9375000000000002
 40
1.0
 40
1.0
 40
1.0
 40
1.0
 10
69.61647599465125
 20
158.9237175078832
 30
0.0
 10
69.81920095057035
 20
159.9429638497478
 30
0.0
 10
70.13394467236573
 20
160.9020719996871
 30
0.0
 10
70.84200014203671
 20
162.2445510771964
 30
0.0
 10
71.12046277225434
 20
162.6787596599364
 30
0.0
 10
71.75923017889153
 20
163.4903873754385
 30
0.0
 10
72.11964385868174
 20
163.8696676683753
 30
0.0
 10
72.93717609067102
 20
164.5726262473964
 30
0.0
 10
73.39834407395814
 20
164.897655065097
 30
0.0
 10
74.39633432044195
 20
165.4626703884878
 30
0.0
 10
74.93609351443423
 20
165.7063739826944
 30
0.0
 10
76.11068647846554
 20
166.1105739103393
 30
0.0
 10
76.72242266445741
 20
166.2630111033848
 30
0.0
 10
77.67433188931913
 20
166.4183386509935
 30
0.0
 10
77.99756505357978
 20
166.4578434310436
 30
0.0
 10
78.65662822485503
 20
166.5111525517123
 30
0.0
 10
78.99069223542904
 20
166.5246802687701
 30
0.0
 10
79.32444284283056
 20
166.5246802687701
 30
0.0
  0
SPLINE
  5
CF
330
1F
100
AcDbEntity
  8
0
  6
Continuous
 62
     7
370
    25
100
AcDbSpline
210
0.0
220
0.0
230
1.0
 70
    11
 71
     3
 72
    80
 73
    76
 74
     0
 42
0.000000001
 43
0.00000001
 40
0.0
 40
0.0
 40
0.0
 40
0.0
 40
0.03125
 40
0.03125
 40
0.0468749999999999
 40
0.0468749999999999
 40
0.0624999999999998
 40
0.0624999999999998
 40
0.0937499999999996
 40
0.0937499999999996
 40
0.1249999999999994
 40
0.1249999999999994
 40
0.1562499999999992
 40
0.1562499999999992
 40
0.187499999999999
 40
0.187499999999999
 40
0.2187499999999988
 40
0.2187499999999988
 40
0.2499999999999986
 40
0.2499999999999986
 40
0.2812499999999983
 40
0.2812499999999983
 40
0.3124999999999981
 40
0.3124999999999981
 40
0.3281249999999982
 40
0.3281249999999982
 40
0.3437499999999982
 40
0.3437499999999982
 40
0.3749999999999984
 40
0.3749999999999984
 40
0.4062499999999986
 40
0.4062499999999986
 40
0.4218749999999987
 40
0.4218749999999987
 40
0.4374999999999987
 40
0.4374999999999987
 40
0.4687499999999989
 40
0.4687499999999989
 40
0.499999999999999
 40
0.499999999999999
 40
0.5312499999999991
 40
0.5312499999999991
 40
0.5624999999999992
 40
0.5624999999999992
 40
0.5937499999999993
 40
0.5937499999999993
 40
0.6249999999999994
 40
0.6249999999999994
 40
0.6562499999999997
 40
0.6562499999999997
 40
0.6874999999999998
 40
0.6874999999999998
 40
0.703125
 40
0.703125
 40
0.7187500000000002
 40
0.7187500000000002
 40
0.7500000000000003
 40
0.7500000000000003
 40
0.7812500000000004
 40
0.7812500000000004
 40
0.7968750000000006
 40
0.7968750000000006
 40
0.8125000000000007
 40
0.8125000000000007
 40
0.8437500000000006
 40
0.8437500000000006
 40
0.8750000000000006
 40
0.8750000000000006
 40
0.9062500000000004
 40
0.9062500000000004
 40
0.9375000000000003
 40
0.9375000000000003
 40
0.9687500000000002
 40
0.9687500000000002
 40
1.0
 40
1.0
 40
1.0
 40
1.0
 10
73.66647599465128
 20
170.9883469715144
 30
0.0
 10
73.33593068187497
 20
170.9883469715144
 30
0.0
 10
73.01095055262333
 20
171.0045552028966
 30
0.0
 10
72.53147714137691
 20
171.0519198349162
 30
0.0
 10
72.3729953235361
 20
171.0715740468069
 30
0.0
 10
72.05877579103182
 20
171.1186852029995
 30
0.0
 10
71.90265550735141
 20
171.1462665224942
 30
0.0
 10
71.44860147839483
 20
171.238802309288
 30
0.0
 10
71.16149809545499
 20
171.3138727428845
 30
0.0
 10
70.61814353942798
 20
171.4891110514951
 30
0.0
 10
70.3610399282224
 20
171.5901123493333
 30
0.0
 10
69.90013367328362
 20
171.8074685477942
 30
0.0
 10
69.69323596406865
 20
171.9246328795664
 30
0.0
 10
69.32771065007645
 20
172.1747028037951
 30
0.0
 10
69.17250512795049
 20
172.3056488925541
 30
0.0
 10
68.92307474135077
 20
172.5713838362664
 30
0.0
 10
68.8269847855656
 20
172.7081374295774
 30
0.0
 10
68.69846593637205
 20
172.9822030044164
 30
0.0
 10
68.66665506619425
 20
173.1171430948852
 30
0.0
 10
68.66629841642099
 20
173.3826147319539
 30
0.0
 10
68.69879566861806
 20
173.5144392090952
 30
0.0
 10
68.82642114233255
 20
173.7638888087156
 30
0.0
 10
68.92084954338442
 20
173.8823215006435
 30
0.0
 10
69.10871036337
 20
174.0511906977377
 30
0.0
 10
69.17953836217318
 20
174.1062766928579
 30
0.0
 10
69.33426025413846
 20
174.2115295213463
 30
0.0
 10
69.41823672432186
 20
174.2618647501066
 30
0.0
 10
69.68956039396627
 20
174.4064405826447
 30
0.0
 10
69.89610961256862
 20
174.4943021690617
 30
0.0
 10
70.36271975275764
 20
174.6540232620612
 30
0.0
 10
70.6150853223831
 20
174.7232615585284
 30
0.0
 10
71.02098666406182
 20
174.8130489477582
 30
0.0
 10
71.16088728153932
 20
174.8406149098445
 30
0.0
 10
71.45011121678623
 20
174.8911057107707
 30
0.0
 10
71.59995067307551
 20
174.9140691496214
 30
0.0
 10
72.05406724268629
 20
174.9746996660403
 30
0.0
 10
72.36571846142314
 20
175.0047736948361
 30
0.0
 10
73.0067149263355
 20
175.0453632820947
 30
0.0
 10
73.3382425542877
 20
175.0556755123108
 30
0.0
 10
73.99103359935918
 20
175.0557510794766
 30
0.0
 10
74.31556980439099
 20
175.0458494740088
 30
0.0
 10
74.9608392538074
 20
175.0053629434836
 30
0.0
 10
75.27658225997013
 20
174.9749016435989
 30
0.0
 10
75.87847155495383
 20
174.8947509721623
 30
0.0
 10
76.1692207857653
 20
174.8444687403552
 30
0.0
 10
76.7161325774498
 20
174.7237985575822
 30
0.0
 10
76.96790994128672
 20
174.6545746984122
 30
0.0
 10
77.42929793390785
 20
174.4971229707715
 30
0.0
 10
77.64056721350593
 20
174.4077744960977
 30
0.0
 10
78.00387156588212
 20
174.2145266253969
 30
0.0
 10
78.15767821432493
 20
174.1103986335176
 30
0.0
 10
78.34629768392232
 20
173.9417742473341
 30
0.0
 10
78.40232817013144
 20
173.8831458456592
 30
0.0
 10
78.4979019318676
 20
173.763690930833
 30
0.0
 10
78.5376648488926
 20
173.7027711419948
 30
0.0
 10
78.63343659920473
 20
173.5163664158209
 30
0.0
 10
78.66615943833085
 20
173.3872535980259
 30
0.0
 10
78.66678802465992
 20
173.11859667507
 30
0.0
 10
78.63460187992517
 20
172.9832259343133
 30
0.0
 10
78.53969117806957
 20
172.7796756260773
 30
0.0
 10
78.50022439467062
 20
172.7117037020138
 30
0.0
 10
78.40529439594974
 20
172.5756114788829
 30
0.0
 10
78.34953756818636
 20
172.5072613786735
 30
0.0
 10
78.16159745021648
 20
172.3065583656314
 30
0.0
 10
78.0082359805003
 20
172.1771700918187
 30
0.0
 10
77.64597174561993
 20
171.9285046597688
 30
0.0
 10
77.43512327215404
 20
171.8086950174007
 30
0.0
 10
76.97445330183513
 20
171.591172729828
 30
0.0
 10
76.72307892225129
 20
171.4920876299921
 30
0.0
 10
76.17717103535315
 20
171.3154151560752
 30
0.0
 10
75.88634846070192
 20
171.2393580679412
 30
0.0
 10
75.28502184592189
 20
171.1165130905882
 30
0.0
 10
74.97050326130949
 20
171.0688069655351
 30
0.0
 10
74.32392180518957
 20
171.0045584304154
 30
0.0
 10
73.99702130742756
 20
170.9883469715145
 30
0.0
 10
73.66647599465126
 20
170.9883469715144
 30
0.0
  0
LINE
  5
D0
330
1F
100
AcDbEntity
  8
0
  6
Continuous
 62
     7
370
    25
100
AcDbLine
 10
93.6164761764
 20
79.8243732484
 30
0.0
 11
93.6164761764
 21
158.9237192007
 31
0.0
  0
SPLINE
  5
D1
330
1F
100
AcDbEntity
  8
0
  6
Continuous
 62
     7
370
    25
100
AcDbSpline
210
0.0
220
0.0
230
1.0
 70
     8
 71
     3
 72
    14
 73
    10
 74
     0
 42
0.000000001
 43
0.00000001
 40
0.0
 40
0.0
 40
0.0
 40
0.0
 40
0.25
 40
0.25
 40
0.5
 40
0.5
 40
0.75
 40
0.75
 40
1.0
 40
1.0
 40
1.0
 40
1.0
 10
93.61647599465127
 20
79.8243719626299
 30
0.0
 10
93.61647599465127
 20
79.69094626657535
 30
0.0
 10
93.5911648947404
 20
79.55909845873099
 30
0.0
 10
93.49283013089565
 20
79.3125759100369
 30
0.0
 10
93.41968612663958
 20
79.19877072179635
 30
0.0
 10
93.2362480655439
 20
79.00831354484907
 30
0.0
 10
93.1245617312053
 20
78.93067868099916
 30
0.0
 10
92.88205830089902
 20
78.8263872708867
 30
0.0
 10
92.74868387220481
 20
78.79872391485435
 30
0.0
 10
92.61647599465127
 20
78.79872391485435
 30
0.0
  0
SPLINE
  5
D2
330
1F
100
AcDbEntity
  8
0
  6
Continuous
 62
     7
370
    25
100
AcDbSpline
210
0.0
220
0.0
230
1.0
 70
    24
 71
     3
 72
    12
 73
     8
 74
     0
 42
0.000000001
 43
0.00000001
 40
0.0
 40
0.0
 40
0.0
 40
0.0
 40
0.2500000000000032
 40
0.2500000000000032
 40
0.5000000000000064
 40
0.5000000000000064
 40
1.0
 40
1.0
 40
1.0
 40
1.0
 10
92.61647599465127
 20
158.9237175078832
 30
0.0
 10
92.76856623159625
 20
158.9237175078832
 30
0.0
 10
92.91702549267167
 20
158.9237175078832
 30
0.0
 10
93.17442912493739
 20
158.9237175078832
 30
0.0
 10
93.2835338727793
 20
158.9237175078832
 30
0.0
 10
93.53759334918685
 20
158.9237175078832
 30
0.0
 10
93.61647599465127
 20
158.9237175078832
 30
0.0
 10
93.61647599465127
 20
158.9237175078832
 30
0.0
  0
LINE
  5
D3
330
1F
100
AcDbEntity
  8
0
  6
Continuous
 62
     7
370
    25
100
AcDbLine
 10
92.6164760125
 20
78.7987225981
 30
0.0
 11
87.9285055084
 21
78.7987225981
 31
0.0
  0
LINE
  5
D4
330
1F
100
AcDbEntity
  8
0
  6
Continuous
 62
     7
370
    25
100
AcDbLine
 10
87.9285055084
 20
158.9237192007
 30
0.0
 11
92.6164760125
 21
158.9237192007
 31
0.0
  0
SPLINE
  5
D5
330
1F
100
AcDbEntity
  8
0
  6
Continuous
 62
     7
370
    25
100
AcDbSpline
210
0.0
220
0.0
230
1.0
 70
     8
 71
     3
 72
    12
 73
     8
 74
     0
 42
0.000000001
 43
0.00000001
 40
0.0
 40
0.0
 40
0.0
 40
0.0
 40
0.250000000000003
 40
0.250000000000003
 40
0.500000000000006
 40
0.500000000000006
 40
1.0
 40
1.0
 40
1.0
 40
1.0
 10
83.55647599465125
 20
82.93404204983354
 30
0.0
 10
83.45071534130231
 20
82.93404204983354
 30
0.0
 10
83.34272771311936
 20
82.91150254383314
 30
0.0
 10
83.14813304785376
 20
82.82693191183782
 30
0.0
 10
83.05926113501489
 20
82.764450259079
 30
0.0
 10
82.84006884268899
 20
82.53506130760677
 30
0.0
 10
82.7564759946512
 20
82.32247797008435
 30
0.0
 10
82.75647599465123
 20
82.11053872548815
 30
0.0
  0
SPLINE
  5
D6
330
1F
100
AcDbEntity
  8
0
  6
Continuous
 62
     7
370
    25
100
AcDbSpline
210
0.0
220
0.0
230
1.0
 70
    24
 71
     3
 72
    14
 73
    10
 74
     0
 42
0.000000001
 43
0.00000001
 40
0.0
 40
0.0
 40
0.0
 40
0.0
 40
0.25
 40
0.25
 40
0.5
 40
0.5
 40
0.75
 40
0.75
 40
1.0
 40
1.0
 40
1.0
 40
1.0
 10
82.75647599465124
 20
158.9237175078832
 30
0.0
 10
82.75647599465124
 20
158.9237175078832
 30
0.0
 10
82.7721903151172
 20
158.9237175078832
 30
0.0
 10
82.83587429358558
 20
158.9237175078832
 30
0.0
 10
82.88447748799605
 20
158.9237175078832
 30
0.0
 10
83.01716101042162
 20
158.9237175078832
 30
0.0
 10
83.1022631147323
 20
158.9237175078832
 30
0.0
 10
83.30870534964232
 20
158.9237175078832
 30
0.0
 10
83.43278629126536
 20
158.9237175078832
 30
0.0
 10
83.55647599465125
 20
158.9237175078832
 30
0.0
  0
SPLINE
  5
D7
330
1F
100
AcDbEntity
  8
0
  6
Continuous
 62
     7
370
    25
100
AcDbSpline
210
0.0
220
0.0
230
1.0
 70
     8
 71
     3
 72
    14
 73
    10
 74
     0
 42
0.000000001
 43
0.00000001
 40
0.0
 40
0.0
 40
0.0
 40
0.0
 40
0.25
 40
0.25
 40
0.5
 40
0.5
 40
0.75
 40
0.75
 40
1.0
 40
1.0
 40
1.0
 40
1.0
 10
86.57647599465126
 20
82.1105387254883
 30
0.0
 10
86.57647599465126
 20
82.21758280648268
 30
0.0
 10
86.55635830749308
 20
82.32281794672514
 30
0.0
 10
86.47786711822746
 20
82.52066843357281
 30
0.0
 10
86.41971049342625
 20
82.61172019713774
 30
0.0
 10
86.27319523780821
 20
82.76488629106252
 30
0.0
 10
86.18455268916713
 20
82.82718073727193
 30
0.0
 10
85.9888293663668
 20
82.91197452280791
 30
0.0
 10
85.88359817529586
 20
82.93404204983354
 30
0.0
 10
85.77647599465126
 20
82.93404204983354
 30
0.0
  0
SPLINE
  5
D8
330
1F
100
AcDbEntity
  8
0
  6
Continuous
 62
     7
370
    25
100
AcDbSpline
210
0.0
220
0.0
230
1.0
 70
    24
 71
     3
 72
    14
 73
    10
 74
     0
 42
0.000000001
 43
0.00000001
 40
0.0
 40
0.0
 40
0.0
 40
0.0
 40
0.25
 40
0.25
 40
0.5
 40
0.5
 40
0.75
 40
0.75
 40
1.0
 40
1.0
 40
1.0
 40
1.0
 10
85.77647599465126
 20
158.9237175078832
 30
0.0
 10
85.9002457594164
 20
158.9237175078832
 30
0.0
 10
86.0246128634233
 20
158.9237175078832
 30
0.0
 10
86.23096933214934
 20
158.9237175078832
 30
0.0
 10
86.3162974755677
 20
158.9237175078832
 30
0.0
 10
86.44848953428293
 20
158.9237175078832
 30
0.0
 10
86.49713477803351
 20
158.9237175078832
 30
0.0
 10
86.56067056976225
 20
158.9237175078832
 30
0.0
 10
86.57647599465128
 20
158.9237175078832
 30
0.0
 10
86.57647599465128
 20
158.9237175078832
 30
0.0
  0
LINE
  5
D9
330
1F
100
AcDbEntity
  8
0
  6
Continuous
 62
     7
370
    25
100
AcDbLine
 10
85.7764760835
 20
82.9340406986
 30
0.0
 11
83.5564768744
 21
82.9340406986
 31
0.0
  0
LINE
  5
DA
330
1F
100
AcDbEntity
  8
0
  6
Continuous
 62
     7
370
    25
100
AcDbLine
 10
83.5564768744
 20
158.9237192007
 30
0.0
 11
85.7764760835
 21
158.9237192007
 31
0.0
  0
LINE
  5
DB
330
1F
100
AcDbEntity
  8
0
  6
Continuous
 62
     7
370
    25
100
AcDbLine
 10
29.8664755059
 20
91.3097040089
 30
0.0
 11
29.8664755059
 21
93.7043839426
 31
0.0
  0
SPLINE
  5
DC
330
1F
100
AcDbEntity
  8
0
  6
Continuous
 62
     7
370
    25
100
AcDbSpline
210
0.0
220
0.0
230
1.0
 70
     8
 71
     3
 72
    14
 73
    10
 74
     0
 42
0.000000001
 43
0.00000001
 40
0.0
 40
0.0
 40
0.0
 40
0.0
 40
0.25
 40
0.25
 40
0.5
 40
0.5
 40
0.75
 40
0.75
 40
1.0
 40
1.0
 40
1.0
 40
1.0
 10
28.86205352331431
 20
95.40723616413965
 30
0.0
 10
28.95082210125963
 20
95.2487020328317
 30
0.0
 10
29.07253993993854
 20
95.09625935594315
 30
0.0
 10
29.30758954979537
 20
94.79912473211422
 30
0.0
 10
29.42321973601226
 20
94.65444208849686
 30
0.0
 10
29.62362466944007
 20
94.37115288599345
 30
0.0
 10
29.70902496142441
 20
94.2325988929566
 30
0.0
 10
29.83073059514163
 20
93.96121486292309
 30
0.0
 10
29.86647599465428
 20
93.82907899428845
 30
0.0
 10
29.86647599465427
 20
93.70438424251769
 30
0.0
  0
SPLINE
  5
DD
330
1F
100
AcDbEntity
  8
0
  6
Continuous
 62
     7
370
    25
100
AcDbSpline
210
0.0
220
0.0
230
1.0
 70
     8
 71
     3
 72
    14
 73
    10
 74
     0
 42
0.000000001
 43
0.00000001
 40
0.0
 40
0.0
 40
0.0
 40
0.0
 40
0.124999999999999
 40
0.124999999999999
 40
0.249999999999998
 40
0.249999999999998
 40
0.5000000000000007
 40
0.5000000000000007
 40
1.0
 40
1.0
 40
1.0
 40
1.0
 10
27.96647599465127
 20
96.03606610323976
 30
0.0
 10
28.03405829443576
 20
96.04322198834117
 30
0.0
 10
28.10654587218366
 20
96.03879751830213
 30
0.0
 10
28.23883698144961
 20
96.00909136053178
 30
0.0
 10
28.29611436083977
 20
95.98580707895357
 30
0.0
 10
28.44576478804006
 20
95.90832183910325
 30
0.0
 10
28.51947808356156
 20
95.84647001220188
 30
0.0
 10
28.7072860668878
 20
95.66179255955356
 30
0.0
 10
28.79132637324924
 20
95.53354963626235
 30
0.0
 10
28.86205352331553
 20
95.40723616413976
 30
0.0
  0
SPLINE
  5
DE
330
1F
100
AcDbEntity
  8
0
  6
Continuous
 62
     7
370
    25
100
AcDbSpline
210
0.0
220
0.0
230
1.0
 70
     8
 71
     3
 72
     8
 73
     4
 74
     0
 42
0.000000001
 43
0.00000001
 40
0.0
 40
0.0
 40
0.0
 40
0.0
 40
1.0
 40
1.0
 40
1.0
 40
1.0
 10
24.42183560657048
 20
95.61801751844799
 30
0.0
 10
25.58713391727935
 20
95.77320499033459
 30
0.0
 10
26.77174913131916
 20
95.90956362864492
 30
0.0
 10
27.96647599465124
 20
96.03606610323978
 30
0.0
  0
SPLINE
  5
DF
330
1F
100
AcDbEntity
  8
0
  6
Continuous
 62
     7
370
    25
100
AcDbSpline
210
0.0
220
0.0
230
1.0
 70
     8
 71
     3
 72
    14
 73
    10
 74
     0
 42
0.000000001
 43
0.00000001
 40
0.0
 40
0.0
 40
0.0
 40
0.0
 40
0.5000000000000012
 40
0.5000000000000012
 40
0.7500000000000018
 40
0.7500000000000018
 40
0.8750000000000009
 40
0.8750000000000009
 40
1.0
 40
1.0
 40
1.0
 40
1.0
 10
16.66640111062093
 20
95.32788533931804
 30
0.0
 10
17.97470267315493
 20
95.33490006305917
 30
0.0
 10
19.27976204781204
 20
95.35030863950365
 30
0.0
 10
21.22563809930072
 20
95.40420519497032
 30
0.0
 10
21.87233560303989
 20
95.42723675957302
 30
0.0
 10
22.83617796689444
 20
95.47817928444377
 30
0.0
 10
23.15641665882859
 20
95.49791420667697
 30
0.0
 10
23.79311188517114
 20
95.54740133514855
 30
0.0
 10
24.10982729345412
 20
95.57646611407779
 30
0.0
 10
24.42183560657052
 20
95.61801751844796
 30
0.0
  0
SPLINE
  5
E0
330
1F
100
AcDbEntity
  8
0
  6
Continuous
 62
     7
370
    25
100
AcDbSpline
210
0.0
220
0.0
230
1.0
 70
     8
 71
     3
 72
    12
 73
     8
 74
     0
 42
0.000000001
 43
0.00000001
 40
0.0
 40
0.0
 40
0.0
 40
0.0
 40
0.2500000000000001
 40
0.2500000000000001
 40
0.5000000000000001
 40
0.5000000000000001
 40
1.0
 40
1.0
 40
1.0
 40
1.0
 10
22.96647599465127
 20
159.6602403993796
 30
0.0
 10
22.44777717282308
 20
159.6927631742278
 30
0.0
 10
21.92606559961808
 20
159.7160599153983
 30
0.0
 10
20.87977358312251
 20
159.7539054298204
 30
0.0
 10
20.35510195745224
 20
159.7681739043166
 30
0.0
 10
18.77825593491303
 20
159.8023833917749
 30
0.0
 10
17.72330062036615
 20
159.8138828957188
 30
0.0
 10
16.66640111062091
 20
159.8195496764483
 30
0.0
  0
SPLINE
  5
E1
330
1F
100
AcDbEntity
  8
0
  6
Continuous
 62
     7
370
    25
100
AcDbSpline
210
0.0
220
0.0
230
1.0
 70
     8
 71
     3
 72
    20
 73
    16
 74
     0
 42
0.000000001
 43
0.00000001
 40
0.0
 40
0.0
 40
0.0
 40
0.0
 40
0.2500000000000011
 40
0.2500000000000011
 40
0.5000000000000021
 40
0.5000000000000021
 40
0.7500000000000031
 40
0.7500000000000031
 40
0.8750000000000008
 40
0.8750000000000008
 40
0.9375000000000006
 40
0.9375000000000006
 40
0.9687500000000003
 40
0.9687500000000003
 40
1.0
 40
1.0
 40
1.0
 40
1.0
 10
24.86647599465126
 20
161.3183262448678
 30
0.0
 10
24.86647599465125
 20
161.182643925121
 30
0.0
 10
24.81776420543464
 20
161.0415569389809
 30
0.0
 10
24.64860278220945
 20
160.7494852202503
 30
0.0
 10
24.52682236829112
 20
160.59783647816
 30
0.0
 10
24.22927527354163
 20
160.2954280380068
 30
0.0
 10
24.05536266783884
 20
160.1428394018835
 30
0.0
 10
23.73594783395702
 20
159.9175686380412
 30
0.0
 10
23.62090705850976
 20
159.8428455435305
 30
0.0
 10
23.41382273449334
 20
159.7434351342735
 30
0.0
 10
23.33771489968694
 20
159.7118700419289
 30
0.0
 10
23.20632036013362
 20
159.677426657736
 30
0.0
 10
23.15976714113216
 20
159.6683750859683
 30
0.0
 10
23.06343379005143
 20
159.6581994371299
 30
0.0
 10
23.014174366696
 20
159.6572496784549
 30
0.0
 10
22.96647599464927
 20
159.6602403993694
 30
0.0
  0
LINE
  5
E2
330
1F
100
AcDbEntity
  8
0
  6
Continuous
 62
     7
370
    25
100
AcDbLine
 10
24.866476549
 20
161.3183246286
 30
0.0
 11
24.866476549
 21
163.5872313114
 31
0.0
  0
LINE
  5
E3
330
1F
100
AcDbEntity
  8
0
  6
Continuous
 62
     7
370
    25
100
AcDbLine
 10
62.1664760505
 20
89.6914677055
 30
0.0
 11
62.1664760505
 21
165.4559673102
 31
0.0
  0
SPLINE
  5
E4
330
1F
100
AcDbEntity
  8
0
  6
Continuous
 62
     7
370
    25
100
AcDbSpline
210
0.0
220
0.0
230
1.0
 70
     8
 71
     3
 72
    17
 73
    13
 74
     0
 42
0.000000001
 43
0.00000001
 40
0.0
 40
0.0
 40
0.0
 40
0.0
 40
0.0002988343243619
 40
0.1259792851471659
 40
0.2511894857129696
 40
0.3756965961394572
 40
0.4384259638308976
 40
0.5003828778927167
 40
0.6247288856020369
 40
0.7496542424939457
 40
0.8748286136325589
 40
1.0
 40
1.0
 40
1.0
 40
1.0
 10
43.18703327900643
 20
90.64254176931011
 30
0.0
 10
43.18663814952713
 20
90.64249447504815
 30
0.0
 10
43.02006381289777
 20
90.6225566806745
 30
0.0
 10
43.61236436997891
 20
90.6968184051595
 30
0.0
 10
44.93667720099695
 20
90.84240638143545
 30
0.0
 10
46.77442929828599
 20
90.94255736201984
 30
0.0
 10
48.3948034338626
 20
90.94629644986146
 30
0.0
 10
50.08593133114545
 20
90.89066325569156
 30
0.0
 10
52.20397272270688
 20
90.69936996023404
 30
0.0
 10
54.3296654069165
 20
90.37087262174259
 30
0.0
 10
55.80216685637987
 20
90.06306877282603
 30
0.0
 10
55.99933947125514
 20
90.01816418862066
 30
0.0
 10
56.09792460328812
 20
89.99571216420757
 30
0.0
  0
SPLINE
  5
E5
330
1F
100
AcDbEntity
  8
0
  6
Continuous
 62
     7
370
    25
100
AcDbSpline
210
0.0
220
0.0
230
1.0
 70
     8
 71
     3
 72
    18
 73
    14
 74
     0
 42
0.000000001
 43
0.00000001
 40
0.0
 40
0.0
 40
0.0
 40
0.0
 40
0.1253502868544077
 40
0.2508873389132409
 40
0.3754654875577324
 40
0.4995287941057583
 40
0.561514407107878
 40
0.6243437711803472
 40
0.7490349201470546
 40
0.8743156478032159
 40
0.9999422900515619
 40
0.9999491175700151
 40
1.0
 40
1.0
 40
1.0
 40
1.0
 10
56.09756511277432
 20
165.151625994011
 30
0.0
 10
55.99734897484397
 20
165.1290884637503
 30
0.0
 10
55.79676738231274
 20
165.0839798235175
 30
0.0
 10
54.32465376283069
 20
164.7756633253804
 30
0.0
 10
52.20098298410601
 20
164.4469022808593
 30
0.0
 10
50.08548830144449
 20
164.2568349921382
 30
0.0
 10
48.39643751047919
 20
164.2012213565664
 30
0.0
 10
46.7709596384363
 20
164.2054241446423
 30
0.0
 10
44.95533748727268
 20
164.302517269621
 30
0.0
 10
43.52902722275297
 20
164.4606753478303
 30
0.0
 10
43.19552289700357
 20
164.5037620398979
 30
0.0
 10
43.18572812272426
 20
164.5050317342307
 30
0.0
 10
43.18583770260605
 20
164.5050175294309
 30
0.0
 10
43.18593431836838
 20
164.5050050051652
 30
0.0
  0
SPLINE
  5
E6
330
1F
100
AcDbEntity
  8
0
  6
Continuous
 62
     7
370
    25
100
AcDbSpline
210
0.0
220
0.0
230
1.0
 70
     8
 71
     3
 72
    20
 73
    16
 74
     0
 42
0.000000001
 43
0.00000001
 40
0.0
 40
0.0
 40
0.0
 40
0.0
 40
0.249999999999986
 40
0.249999999999986
 40
0.3749999999999789
 40
0.3749999999999789
 40
0.4374999999999789
 40
0.4374999999999789
 40
0.4999999999999789
 40
0.4999999999999789
 40
0.6249999999999835
 40
0.6249999999999835
 40
0.7499999999999879
 40
0.7499999999999879
 40
1.0
 40
1.0
 40
1.0
 40
1.0
 10
15.05729022636727
 20
96.8952343551825
 30
0.0
 10
15.08356244358068
 20
96.91455229626494
 30
0.0
 10
15.11424258583552
 20
96.92894100736672
 30
0.0
 10
15.18571345621744
 20
96.9220366455307
 30
0.0
 10
15.21374049326177
 20
96.9148706421823
 30
0.0
 10
15.26882408275929
 20
96.8851716154787
 30
0.0
 10
15.28971541131172
 20
96.87169797291736
 30
0.0
 10
15.33492405875717
 20
96.83649970740136
 30
0.0
 10
15.35932827115274
 20
96.81459147867409
 30
0.0
 10
15.4306605892042
 20
96.74246661867855
 30
0.0
 10
15.47255737402445
 20
96.6901260777285
 30
0.0
 10
15.54413333288034
 20
96.59264268582776
 30
0.0
 10
15.57496132269764
 20
96.54588891594932
 30
0.0
 10
15.65806125553321
 20
96.41259570011022
 30
0.0
 10
15.70291616090351
 20
96.329958302195
 30
0.0
 10
15.74302823635609
 20
96.25085140740423
 30
0.0
  0
SPLINE
  5
E7
330
1F
100
AcDbEntity
  8
0
  6
Continuous
 62
     7
370
    25
100
AcDbSpline
210
0.0
220
0.0
230
1.0
 70
     8
 71
     3
 72
     8
 73
     4
 74
     0
 42
0.000000001
 43
0.00000001
 40
0.0
 40
0.0
 40
0.0
 40
0.0
 40
1.0
 40
1.0
 40
1.0
 40
1.0
 10
14.76647599465128
 20
97.07104776531526
 30
0.0
 10
14.76647599465128
 20
97.0457677080879
 30
0.0
 10
14.76966279908551
 20
97.02216813884985
 30
0.0
 10
14.77576579603293
 20
97.00059069715783
 30
0.0
  0
SPLINE
  5
E8
330
1F
100
AcDbEntity
  8
0
  6
Continuous
 62
     7
370
    25
100
AcDbSpline
210
0.0
220
0.0
230
1.0
 70
     8
 71
     3
 72
     9
 73
     5
 74
     0
 42
0.000000001
 43
0.00000001
 40
0.0
 40
0.0
 40
0.0
 40
0.0
 40
0.7766522094856231
 40
1.0
 40
1.0
 40
1.0
 40
1.0
 10
14.85180844194169
 20
96.95600544230568
 30
0.0
 10
14.89499510646414
 20
96.9038065322449
 30
0.0
 10
14.95060128899345
 20
96.83659638409459
 30
0.0
 10
15.03781315249486
 20
96.88452911265055
 30
0.0
 10
15.05729172951455
 20
96.89523478166687
 30
0.0
  0
LINE
  5
E9
330
1F
100
AcDbEntity
  8
0
  6
Continuous
 62
     7
370
    25
100
AcDbLine
 10
14.7664769424
 20
97.0710479947
 30
0.0
 11
14.7664769424
 21
158.0763870211
 31
0.0
  0
SPLINE
  5
EA
330
1F
100
AcDbEntity
  8
0
  6
Continuous
 62
     7
370
    25
100
AcDbSpline
210
0.0
220
0.0
230
1.0
 70
     8
 71
     3
 72
     9
 73
     5
 74
     0
 42
0.000000001
 43
0.00000001
 40
0.0
 40
0.0
 40
0.0
 40
0.0
 40
0.0592942499244465
 40
1.0
 40
1.0
 40
1.0
 40
1.0
 10
15.05729172951453
 20
158.2522002340995
 30
0.0
 10
15.05240873181579
 20
158.2554933737973
 30
0.0
 10
14.97005677180317
 20
158.3110323122603
 30
0.0
 10
14.90392611738788
 20
158.2537401091475
 30
0.0
 10
14.84171663052315
 20
158.1998450042449
 30
0.0
  0
SPLINE
  5
EB
330
1F
100
AcDbEntity
  8
0
  6
Continuous
 62
     7
370
    25
100
AcDbSpline
210
0.0
220
0.0
230
1.0
 70
     8
 71
     3
 72
     8
 73
     4
 74
     0
 42
0.000000001
 43
0.00000001
 40
0.0
 40
0.0
 40
0.0
 40
0.0
 40
1.0
 40
1.0
 40
1.0
 40
1.0
 10
14.79010966358747
 20
158.1839667515208
 30
0.0
 10
14.77476062495144
 20
158.1534566965248
 30
0.0
 10
14.76647599465128
 20
158.1171451410125
 30
0.0
 10
14.76647599465128
 20
158.0763872504511
 30
0.0
  0
SPLINE
  5
EC
330
1F
100
AcDbEntity
  8
0
  6
Continuous
 62
     7
370
    25
100
AcDbSpline
210
0.0
220
0.0
230
1.0
 70
     8
 71
     3
 72
    20
 73
    16
 74
     0
 42
0.000000001
 43
0.00000001
 40
0.0
 40
0.0
 40
0.0
 40
0.0
 40
0.2500000000000037
 40
0.2500000000000037
 40
0.3750000000000055
 40
0.3750000000000055
 40
0.5000000000000073
 40
0.5000000000000073
 40
0.5625000000000057
 40
0.5625000000000057
 40
0.625000000000004
 40
0.625000000000004
 40
0.7500000000000027
 40
0.7500000000000027
 40
1.0
 40
1.0
 40
1.0
 40
1.0
 10
15.74302823635368
 20
158.8965836083614
 30
0.0
 10
15.70303201852985
 20
158.8177052018039
 30
0.0
 10
15.65791839069219
 20
158.7345755551124
 30
0.0
 10
15.57466417632566
 20
158.6010868907615
 30
0.0
 10
15.54444484770517
 20
158.5552218348795
 30
0.0
 10
15.47235661256374
 20
158.4570302824746
 30
0.0
 10
15.43043929515267
 20
158.404720462951
 30
0.0
 10
15.3591886906012
 20
158.3327145602165
 30
0.0
 10
15.33495287822188
 20
158.3109443479149
 30
0.0
 10
15.28935468803724
 20
158.2754696895859
 30
0.0
 10
15.26855219843752
 20
158.2620995054084
 30
0.0
 10
15.21361120001841
 20
158.2325295932731
 30
0.0
 10
15.18554221193158
 20
158.2254030709712
 30
0.0
 10
15.11503938186875
 20
158.2185286994885
 30
0.0
 10
15.08361529407788
 20
158.2328438585756
 30
0.0
 10
15.05729022636929
 20
158.2522006605862
 30
0.0
  0
SPLINE
  5
ED
330
1F
100
AcDbEntity
  8
0
  6
Continuous
 62
     7
370
    25
100
AcDbSpline
210
0.0
220
0.0
230
1.0
 70
     8
 71
     3
 72
    10
 73
     6
 74
     0
 42
0.000000001
 43
0.00000001
 40
0.0
 40
0.0
 40
0.0
 40
0.0
 40
0.4999999999999989
 40
0.4999999999999989
 40
1.0
 40
1.0
 40
1.0
 40
1.0
 10
16.41647599465126
 20
159.8220027097032
 30
0.0
 10
16.29158772390107
 20
159.6910064316317
 30
0.0
 10
16.17013760584063
 20
159.5472935949667
 30
0.0
 10
15.9405536308832
 20
159.2367233022775
 30
0.0
 10
15.83027865548722
 20
159.0686542292144
 30
0.0
 10
15.74302823635369
 20
158.8965836083614
 30
0.0
  0
SPLINE
  5
EE
330
1F
100
AcDbEntity
  8
0
  6
Continuous
 62
     7
370
    25
100
AcDbSpline
210
0.0
220
0.0
230
1.0
 70
     8
 71
     3
 72
     8
 73
     4
 74
     0
 42
0.000000001
 43
0.00000001
 40
0.0
 40
0.0
 40
0.0
 40
0.0
 40
1.0
 40
1.0
 40
1.0
 40
1.0
 10
16.66640111061704
 20
159.8195496764478
 30
0.0
 10
16.57938308076867
 20
159.8200162412349
 30
0.0
 10
16.49642905438872
 20
159.821056260811
 30
0.0
 10
16.41647599464896
 20
159.8220027097033
 30
0.0
  0
SPLINE
  5
EF
330
1F
100
AcDbEntity
  8
0
  6
Continuous
 62
     7
370
    25
100
AcDbSpline
210
0.0
220
0.0
230
1.0
 70
     8
 71
     3
 72
     8
 73
     4
 74
     0
 42
0.000000001
 43
0.00000001
 40
0.0
 40
0.0
 40
0.0
 40
0.0
 40
1.0
 40
1.0
 40
1.0
 40
1.0
 10
16.41647599464896
 20
95.3254323060631
 30
0.0
 10
16.49642905438872
 20
95.32637875495537
 30
0.0
 10
16.57938308076867
 20
95.3274187745315
 30
0.0
 10
16.66640111061706
 20
95.32788533931857
 30
0.0
  0
SPLINE
  5
F0
330
1F
100
AcDbEntity
  8
0
  6
Continuous
 62
     7
370
    25
100
AcDbSpline
210
0.0
220
0.0
230
1.0
 70
     8
 71
     3
 72
    10
 73
     6
 74
     0
 42
0.000000001
 43
0.00000001
 40
0.0
 40
0.0
 40
0.0
 40
0.0
 40
0.4999999999999989
 40
0.4999999999999989
 40
1.0
 40
1.0
 40
1.0
 40
1.0
 10
15.74302823635276
 20
96.25085140740678
 30
0.0
 10
15.83027865548625
 20
96.07878078655341
 30
0.0
 10
15.9405536308824
 20
95.91071171348997
 30
0.0
 10
16.17013760584024
 20
95.60014142080017
 30
0.0
 10
16.29158772390088
 20
95.45642858413488
 30
0.0
 10
16.41647599465126
 20
95.32543230606319
 30
0.0
  0
SPLINE
  5
F1
330
1F
100
AcDbEntity
  8
0
  6
Continuous
 62
     7
370
    25
100
AcDbSpline
210
0.0
220
0.0
230
1.0
 70
     8
 71
     3
 72
    10
 73
     6
 74
     0
 42
0.000000001
 43
0.00000001
 40
0.0
 40
0.0
 40
0.0
 40
0.0
 40
0.5
 40
0.5
 40
1.0
 40
1.0
 40
1.0
 40
1.0
 10
83.55647599465125
 20
172.4479932680556
 30
0.0
 10
83.34393968079493
 20
172.4479932680556
 30
0.0
 10
83.13400350914091
 20
172.5394058546858
 30
0.0
 10
82.84029636812964
 20
172.84415072059
 30
0.0
 10
82.75647599465124
 20
173.0563056904986
 30
0.0
 10
82.75647599465124
 20
173.2672687487312
 30
0.0
  0
SPLINE
  5
F2
330
1F
100
AcDbEntity
  8
0
  6
Continuous
 62
     7
370
    25
100
AcDbSpline
210
0.0
220
0.0
230
1.0
 70
     8
 71
     3
 72
    14
 73
    10
 74
     0
 42
0.000000001
 43
0.00000001
 40
0.0
 40
0.0
 40
0.0
 40
0.0
 40
0.25
 40
0.25
 40
0.5
 40
0.5
 40
0.75
 40
0.75
 40
1.0
 40
1.0
 40
1.0
 40
1.0
 10
82.75647599465124
 20
162.2879527003802
 30
0.0
 10
82.75647599465124
 20
162.164085823591
 30
0.0
 10
82.77233512227886
 20
162.0398261467535
 30
0.0
 10
82.83569676779875
 20
161.8022177843476
 30
0.0
 10
82.8842864758481
 20
161.6854373995952
 30
0.0
 10
83.01657208062295
 20
161.4766348709862
 30
0.0
 10
83.10189687188354
 20
161.3821241673936
 30
0.0
 10
83.30878812018973
 20
161.2441673665913
 30
0.0
 10
83.43275606607972
 20
161.2022489209556
 30
0.0
 10
83.55647599465125
 20
161.2022489209556
 30
0.0
  0
SPLINE
  5
F3
330
1F
100
AcDbEntity
  8
0
  6
Continuous
 62
     7
370
    25
100
AcDbSpline
210
0.0
220
0.0
230
1.0
 70
     8
 71
     3
 72
     8
 73
     4
 74
     0
 42
0.000000001
 43
0.00000001
 40
0.0
 40
0.0
 40
0.0
 40
0.0
 40
1.0
 40
1.0
 40
1.0
 40
1.0
 10
87.92850501557264
 20
176.5635123635467
 30
0.0
 10
87.4774780468594
 20
175.7662017933589
 30
0.0
 10
87.02678423033582
 20
174.9687034937017
 30
0.0
 10
86.57647599465126
 20
174.1709883685881
 30
0.0
  0
LINE
  5
F4
330
1F
100
AcDbEntity
  8
0
  6
Continuous
 62
     7
370
    25
100
AcDbLine
 10
87.9285055084
 20
166.5246785911
 30
0.0
 11
87.9285055084
 21
176.5635126563
 31
0.0
  0
SPLINE
  5
F5
330
1F
100
AcDbEntity
  8
0
  6
Continuous
 62
     7
370
    25
100
AcDbSpline
210
0.0
220
0.0
230
1.0
 70
     8
 71
     3
 72
     8
 73
     4
 74
     0
 42
0.000000001
 43
0.00000001
 40
0.0
 40
0.0
 40
0.0
 40
0.0
 40
1.0
 40
1.0
 40
1.0
 40
1.0
 10
86.57647599465126
 20
163.469165014021
 30
0.0
 10
87.02062600567677
 20
164.4905482449727
 30
0.0
 10
87.4717003159347
 20
165.509032781741
 30
0.0
 10
87.92850501557265
 20
166.5246802687701
 30
0.0
  0
LINE
  5
F6
330
1F
100
AcDbEntity
  8
0
  6
Continuous
 62
     7
370
    25
100
AcDbLine
 10
86.5764765871
 20
163.4691656859
 30
0.0
 11
86.5764765871
 21
174.1709896656
 31
0.0
  0
SPLINE
  5
F7
330
1F
100
AcDbEntity
  8
0
  6
Continuous
 62
     7
370
    25
100
AcDbSpline
210
0.0
220
0.0
230
1.0
 70
     8
 71
     3
 72
     8
 73
     4
 74
     0
 42
0.000000001
 43
0.00000001
 40
0.0
 40
0.0
 40
0.0
 40
0.0
 40
1.0
 40
1.0
 40
1.0
 40
1.0
 10
82.75647599465127
 20
174.1709883685881
 30
0.0
 10
82.30616775896672
 20
174.9687034937017
 30
0.0
 10
81.85547394244313
 20
175.7662017933589
 30
0.0
 10
81.40444697372988
 20
176.5635123635467
 30
0.0
  0
LINE
  5
F8
330
1F
100
AcDbEntity
  8
0
  6
Continuous
 62
     7
370
    25
100
AcDbLine
 10
82.7564763708
 20
163.4691656859
 30
0.0
 11
82.7564763708
 21
174.1709896656
 31
0.0
  0
SPLINE
  5
F9
330
1F
100
AcDbEntity
  8
0
  6
Continuous
 62
     7
370
    25
100
AcDbSpline
210
0.0
220
0.0
230
1.0
 70
     8
 71
     3
 72
     8
 73
     4
 74
     0
 42
0.000000001
 43
0.00000001
 40
0.0
 40
0.0
 40
0.0
 40
0.0
 40
1.0
 40
1.0
 40
1.0
 40
1.0
 10
81.40444697372988
 20
166.5246802687701
 30
0.0
 10
81.86137332752942
 20
165.5087622990958
 30
0.0
 10
82.31257896933245
 20
164.4899664700047
 30
0.0
 10
82.75647599465127
 20
163.469165014021
 30
0.0
  0
SPLINE
  5
FA
330
1F
100
AcDbEntity
  8
0
  6
Continuous
 62
     7
370
    25
100
AcDbSpline
210
0.0
220
0.0
230
1.0
 70
     8
 71
     3
 72
    12
 73
     8
 74
     0
 42
0.000000001
 43
0.00000001
 40
0.0
 40
0.0
 40
0.0
 40
0.0
 40
0.5
 40
0.5
 40
0.75
 40
0.75
 40
1.0
 40
1.0
 40
1.0
 40
1.0
 10
93.61647599465127
 20
175.542457328729
 30
0.0
 10
93.61647599465127
 20
175.8077267614954
 30
0.0
 10
93.5118692511648
 20
176.0702418671478
 30
0.0
 10
93.2352008994195
 20
176.3557794731851
 30
0.0
 10
93.1248356400675
 20
176.4321010900465
 30
0.0
 10
92.88076359145178
 20
176.5364432548866
 30
0.0
 10
92.74901113012004
 20
176.5635123635467
 30
0.0
 10
92.61647599465127
 20
176.5635123635467
 30
0.0
  0
SPLINE
  5
FB
330
1F
100
AcDbEntity
  8
0
  6
Continuous
 62
     7
370
    25
100
AcDbSpline
210
0.0
220
0.0
230
1.0
 70
     8
 71
     3
 72
    16
 73
    12
 74
     0
 42
0.000000001
 43
0.00000001
 40
0.0
 40
0.0
 40
0.0
 40
0.0
 40
0.125
 40
0.125
 40
0.25
 40
0.25
 40
0.5
 40
0.5
 40
0.75
 40
0.75
 40
1.0
 40
1.0
 40
1.0
 40
1.0
 10
92.61647599465029
 20
166.5246802687701
 30
0.0
 10
92.69211370106152
 20
166.5246802687702
 30
0.0
 10
92.76842936547978
 20
166.5133352686354
 30
0.0
 10
92.91284010337186
 20
166.470682717997
 30
0.0
 10
92.98128655248033
 20
166.4397483933142
 30
0.0
 10
93.1762178050937
 20
166.3204920215466
 30
0.0
 10
93.28405897887471
 20
166.2103400079261
 30
0.0
 10
93.45277172708694
 20
165.9622039222679
 30
0.0
 10
93.51513613981054
 20
165.8218615982642
 30
0.0
 10
93.59644006431903
 20
165.5335899067754
 30
0.0
 10
93.61647599465127
 20
165.3827849337955
 30
0.0
 10
93.61647599465127
 20
165.2324150424502
 30
0.0
  0
LINE
  5
FC
330
1F
100
AcDbEntity
  8
0
  6
Continuous
 62
     7
370
    25
100
AcDbLine
 10
93.6164761764
 20
165.2324163647
 30
0.0
 11
93.6164761764
 21
175.5424590142
 31
0.0
  0
SPLINE
  5
FD
330
1F
100
AcDbEntity
  8
0
  6
Continuous
 62
     7
370
    25
100
AcDbSpline
210
0.0
220
0.0
230
1.0
 70
     8
 71
     3
 72
    14
 73
    10
 74
     0
 42
0.000000001
 43
0.00000001
 40
0.0
 40
0.0
 40
0.0
 40
0.0
 40
0.25
 40
0.25
 40
0.5
 40
0.5
 40
0.75
 40
0.75
 40
1.0
 40
1.0
 40
1.0
 40
1.0
 10
86.57647599465128
 20
173.2672687487312
 30
0.0
 10
86.57647599465128
 20
173.1609120549788
 30
0.0
 10
86.55608843851002
 20
173.0550715672187
 30
0.0
 10
86.47745409304845
 20
172.8585066536822
 30
0.0
 10
86.4187227334098
 20
172.767335911395
 30
0.0
 10
86.27211382780717
 20
172.6154248223634
 30
0.0
 10
86.1827085077806
 20
172.5533559855439
 30
0.0
 10
85.98881777518022
 20
172.4700879377852
 30
0.0
 10
85.88231278529035
 20
172.4479932680555
 30
0.0
 10
85.776475994651
 20
172.4479932680556
 30
0.0
  0
SPLINE
  5
FE
330
1F
100
AcDbEntity
  8
0
  6
Continuous
 62
     7
370
    25
100
AcDbSpline
210
0.0
220
0.0
230
1.0
 70
     8
 71
     3
 72
    12
 73
     8
 74
     0
 42
0.000000001
 43
0.00000001
 40
0.0
 40
0.0
 40
0.0
 40
0.0
 40
0.250000000000002
 40
0.250000000000002
 40
0.500000000000004
 40
0.500000000000004
 40
1.0
 40
1.0
 40
1.0
 40
1.0
 10
85.77647599465331
 20
161.2022489209557
 30
0.0
 10
85.90017694463315
 20
161.2022489209561
 30
0.0
 10
86.02427355690303
 20
161.2442425326889
 30
0.0
 10
86.23092871998944
 20
161.3820378593336
 30
0.0
 10
86.31596948671606
 20
161.4760114577984
 30
0.0
 10
86.5154480551891
 20
161.7907996640191
 30
0.0
 10
86.57647599465128
 20
162.0410386562463
 30
0.0
 10
86.57647599465128
 20
162.2879527003802
 30
0.0
  0
LINE
  5
FF
330
1F
100
AcDbEntity
  8
0
  6
Continuous
 62
     7
370
    25
100
AcDbLine
 10
82.7564763708
 20
163.4691656859
 30
0.0
 11
82.7564763708
 21
162.2879543634
 31
0.0
  0
LINE
  5
100
330
1F
100
AcDbEntity
  8
0
  6
Continuous
 62
     7
370
    25
100
AcDbLine
 10
83.5564768744
 20
161.2022483082
 30
0.0
 11
85.7764760835
 21
161.2022483082
 31
0.0
  0
LINE
  5
101
330
1F
100
AcDbEntity
  8
0
  6
Continuous
 62
     7
370
    25
100
AcDbLine
 10
86.5764765871
 20
162.2879543634
 30
0.0
 11
86.5764765871
 21
163.4691656859
 31
0.0
  0
LINE
  5
102
330
1F
100
AcDbEntity
  8
0
  6
Continuous
 62
     7
370
    25
100
AcDbLine
 10
87.9285055084
 20
166.5246785911
 30
0.0
 11
92.6164760125
 21
166.5246785911
 31
0.0
  0
LINE
  5
103
330
1F
100
AcDbEntity
  8
0
  6
Continuous
 62
     7
370
    25
100
AcDbLine
 10
93.6164761764
 20
165.2324163647
 30
0.0
 11
93.6164761764
 21
158.9237192007
 31
0.0
  0
LINE
  5
104
330
1F
100
AcDbEntity
  8
0
  6
Continuous
 62
     7
370
    25
100
AcDbLine
 10
92.6164760125
 20
176.5635126563
 30
0.0
 11
87.9285055084
 21
176.5635126563
 31
0.0
  0
LINE
  5
105
330
1F
100
AcDbEntity
  8
0
  6
Continuous
 62
     7
370
    25
100
AcDbLine
 10
85.7764760835
 20
172.4479944737
 30
0.0
 11
83.5564768744
 21
172.4479944737
 31
0.0
  0
LINE
  5
106
330
1F
100
AcDbEntity
  8
0
  6
Continuous
 62
     7
370
    25
100
AcDbLine
 10
224.6664724184
 20
99.3737169834
 30
0.0
 11
224.6664724184
 21
155.7737180324
 31
0.0
  0
SPLINE
  5
107
330
1F
100
AcDbEntity
  8
0
  6
Continuous
 62
     7
370
    25
100
AcDbSpline
210
0.0
220
0.0
230
1.0
 70
    11
 71
     3
 72
    84
 73
    80
 74
     0
 42
0.000000001
 43
0.00000001
 40
0.0
 40
0.0
 40
0.0
 40
0.0
 40
0.0312499999999985
 40
0.0312499999999985
 40
0.0468749999999977
 40
0.0468749999999977
 40
0.062499999999997
 40
0.062499999999997
 40
0.0937499999999955
 40
0.0937499999999955
 40
0.124999999999994
 40
0.124999999999994
 40
0.1562499999999925
 40
0.1562499999999925
 40
0.1718749999999917
 40
0.1718749999999917
 40
0.187499999999991
 40
0.187499999999991
 40
0.2187499999999904
 40
0.2187499999999904
 40
0.2499999999999898
 40
0.2499999999999898
 40
0.2656249999999895
 40
0.2656249999999895
 40
0.2812499999999892
 40
0.2812499999999892
 40
0.3124999999999886
 40
0.3124999999999886
 40
0.3281249999999888
 40
0.3281249999999888
 40
0.343749999999989
 40
0.343749999999989
 40
0.3749999999999893
 40
0.3749999999999893
 40
0.4062499999999897
 40
0.4062499999999897
 40
0.4374999999999901
 40
0.4374999999999901
 40
0.4687499999999905
 40
0.4687499999999905
 40
0.4999999999999909
 40
0.4999999999999909
 40
0.5312499999999912
 40
0.5312499999999912
 40
0.5624999999999917
 40
0.5624999999999917
 40
0.593749999999992
 40
0.593749999999992
 40
0.6249999999999923
 40
0.6249999999999923
 40
0.6406249999999934
 40
0.6406249999999934
 40
0.6562499999999944
 40
0.6562499999999944
 40
0.6874999999999964
 40
0.6874999999999964
 40
0.7187499999999986
 40
0.7187499999999986
 40
0.7500000000000006
 40
0.7500000000000006
 40
0.7812500000000026
 40
0.7812500000000026
 40
0.7968750000000034
 40
0.7968750000000034
 40
0.8125000000000042
 40
0.8125000000000042
 40
0.8437500000000057
 40
0.8437500000000057
 40
0.8593750000000058
 40
0.8593750000000058
 40
0.8750000000000059
 40
0.8750000000000059
 40
0.9062500000000046
 40
0.9062500000000046
 40
0.937500000000003
 40
0.937500000000003
 40
0.9687500000000016
 40
0.9687500000000016
 40
1.0
 40
1.0
 40
1.0
 40
1.0
 10
212.3664759946512
 20
133.0540477892877
 30
0.0
 10
211.9968282552022
 20
133.0540477892877
 30
0.0
 10
211.6330642529971
 20
133.0199390575638
 30
0.0
 10
211.0959039626777
 20
132.9194847182298
 30
0.0
 10
210.9182749038478
 20
132.8777242918965
 30
0.0
 10
210.565929347281
 20
132.7772404539532
 30
0.0
 10
210.3903790715092
 20
132.7181361595734
 30
0.0
 10
209.8781292171384
 20
132.5181462381625
 30
0.0
 10
209.553576595435
 20
132.3545594121479
 30
0.0
 10
208.9381212102181
 20
131.9667927849455
 30
0.0
 10
208.6446615435525
 20
131.739633590945
 30
0.0
 10
208.1157441949039
 20
131.2392466661745
 30
0.0
 10
207.8779569982721
 20
130.9654430150856
 30
0.0
 10
207.5621960521533
 20
130.5181577631965
 30
0.0
 10
207.4632966032762
 20
130.3619336318452
 30
0.0
 10
207.2832429497494
 20
130.0424528556395
 30
0.0
 10
207.2019295201789
 20
129.8792186794606
 30
0.0
 10
206.9836171591411
 20
129.3792010144904
 30
0.0
 10
206.8719738534335
 20
129.032210186445
 30
0.0
 10
206.7200750205052
 20
128.3093334502828
 30
0.0
 10
206.6824153244979
 20
127.944919548909
 30
0.0
 10
206.6817542831974
 20
127.3977785867562
 30
0.0
 10
206.690866987108
 20
127.2150980739309
 30
0.0
 10
206.7282328106961
 20
126.8491216958777
 30
0.0
 10
206.756651179866
 20
126.665736280582
 30
0.0
 10
206.8686820105822
 20
126.1276281150562
 30
0.0
 10
206.9790956560149
 20
125.7804116986671
 30
0.0
 10
207.1978720018796
 20
125.2766375196486
 30
0.0
 10
207.2802490763802
 20
125.1107596639671
 30
0.0
 10
207.4597980357211
 20
124.7912603433392
 30
0.0
 10
207.5570889942784
 20
124.6371074692835
 30
0.0
 10
207.8708685877019
 20
124.1908890418709
 30
0.0
 10
208.1103790679876
 20
123.9136749161157
 30
0.0
 10
208.6435178745662
 20
123.4084775454191
 30
0.0
 10
208.9310891197473
 20
123.1857145649396
 30
0.0
 10
209.5464402687241
 20
122.7967446583737
 30
0.0
 10
209.8778647286122
 20
122.6294988261767
 30
0.0
 10
210.5584513269841
 20
122.3635746334671
 30
0.0
 10
210.9086320456416
 20
122.2633791140256
 30
0.0
 10
211.6286967741418
 20
122.1279126759903
 30
0.0
 10
211.9988063294542
 20
122.0935612483348
 30
0.0
 10
212.7284912590974
 20
122.0932145536991
 30
0.0
 10
213.0919133288124
 20
122.126271993719
 30
0.0
 10
213.8158254603955
 20
122.2611191635828
 30
0.0
 10
214.1695830371336
 20
122.3621167745699
 30
0.0
 10
214.8472619864741
 20
122.6259863166371
 30
0.0
 10
215.1750828183579
 20
122.7902745045904
 30
0.0
 10
215.7968376890556
 20
123.1818036296904
 30
0.0
 10
216.084034692347
 20
123.4043698777378
 30
0.0
 10
216.4799705890187
 20
123.7780645280283
 30
0.0
 10
216.6060985437347
 20
123.9093167339654
 30
0.0
 10
216.8462481096739
 20
124.1857280783542
 30
0.0
 10
216.960328064472
 20
124.3311872202819
 30
0.0
 10
217.2762190352639
 20
124.7786937937823
 30
0.0
 10
217.4548638717424
 20
125.094856576413
 30
0.0
 10
217.7477012739812
 20
125.7634386350511
 30
0.0
 10
217.8614918089109
 20
126.11819119802
 30
0.0
 10
218.0117179031669
 20
126.8320660537546
 30
0.0
 10
218.0503005107837
 20
127.1949480281384
 30
0.0
 10
218.0516443184721
 20
127.9330742415511
 30
0.0
 10
218.0139908450144
 20
128.2989302802446
 30
0.0
 10
217.9030093237147
 20
128.8345828278905
 30
0.0
 10
217.8568627362515
 20
129.0114057800614
 30
0.0
 10
217.7459141586828
 20
129.3615379127905
 30
0.0
 10
217.680861896911
 20
129.5351201307626
 30
0.0
 10
217.4621074801954
 20
130.038804107288
 30
0.0
 10
217.2839587555137
 20
130.3560502930244
 30
0.0
 10
216.969012682185
 20
130.8047574625882
 30
0.0
 10
216.8553308044014
 20
130.9504953861475
 30
0.0
 10
216.6157885784333
 20
131.2276654509173
 30
0.0
 10
216.4898705810693
 20
131.3593830256475
 30
0.0
 10
216.0942333657281
 20
131.7346561025306
 30
0.0
 10
215.8062336481266
 20
131.9588745835196
 30
0.0
 10
215.183969201989
 20
132.3523803187749
 30
0.0
 10
214.8584862300425
 20
132.516278627642
 30
0.0
 10
214.1801626140447
 20
132.7819732180279
 30
0.0
 10
213.8239312489412
 20
132.8842257955446
 30
0.0
 10
213.1016298806576
 20
133.0199190734039
 30
0.0
 10
212.7361237341002
 20
133.0540477892877
 30
0.0
 10
212.3664759946512
 20
133.0540477892877
 30
0.0
  0
SPLINE
  5
108
330
1F
100
AcDbEntity
  8
0
  6
Continuous
 62
     7
370
    25
100
AcDbSpline
210
0.0
220
0.0
230
1.0
 70
    11
 71
     3
 72
    68
 73
    64
 74
     0
 42
0.000000001
 43
0.00000001
 40
0.0
 40
0.0
 40
0.0
 40
0.0
 40
0.03125
 40
0.03125
 40
0.0624999999999999
 40
0.0624999999999999
 40
0.0937499999999999
 40
0.0937499999999999
 40
0.1249999999999999
 40
0.1249999999999999
 40
0.1562499999999999
 40
0.1562499999999999
 40
0.1874999999999998
 40
0.1874999999999998
 40
0.2187499999999998
 40
0.2187499999999998
 40
0.2499999999999998
 40
0.2499999999999998
 40
0.2812499999999998
 40
0.2812499999999998
 40
0.3124999999999997
 40
0.3124999999999997
 40
0.3437499999999997
 40
0.3437499999999997
 40
0.3749999999999997
 40
0.3749999999999997
 40
0.4062499999999997
 40
0.4062499999999997
 40
0.4374999999999996
 40
0.4374999999999996
 40
0.4687499999999996
 40
0.4687499999999996
 40
0.4999999999999996
 40
0.4999999999999996
 40
0.5312499999999996
 40
0.5312499999999996
 40
0.5624999999999996
 40
0.5624999999999996
 40
0.6249999999999978
 40
0.6249999999999978
 40
0.656249999999998
 40
0.656249999999998
 40
0.6874999999999982
 40
0.6874999999999982
 40
0.7187499999999983
 40
0.7187499999999983
 40
0.7499999999999986
 40
0.7499999999999986
 40
0.7812499999999988
 40
0.7812499999999988
 40
0.812499999999999
 40
0.812499999999999
 40
0.8437499999999991
 40
0.8437499999999991
 40
0.8749999999999993
 40
0.8749999999999993
 40
0.9062499999999996
 40
0.9062499999999996
 40
0.9374999999999997
 40
0.9374999999999997
 40
0.9687499999999999
 40
0.9687499999999999
 40
1.0
 40
1.0
 40
1.0
 40
1.0
 10
141.9330512557481
 20
149.4758061982835
 30
0.0
 10
142.0823614382279
 20
149.5828228596451
 30
0.0
 10
142.2452885743167
 20
149.6773187685413
 30
0.0
 10
142.5959548682868
 20
149.8444543846305
 30
0.0
 10
142.7855683204064
 20
149.9175942339527
 30
0.0
 10
143.1808387813049
 20
150.0396033004868
 30
0.0
 10
143.3850484187313
 20
150.0883397451972
 30
0.0
 10
143.8061027279294
 20
150.1628894778887
 30
0.0
 10
144.0247667020798
 20
150.1886643656655
 30
0.0
 10
144.4601448231227
 20
150.2157255972575
 30
0.0
 10
144.6781282867842
 20
150.2174262714213
 30
0.0
 10
145.1146844691525
 20
150.1971746238012
 30
0.0
 10
145.334291268236
 20
150.1748308388028
 30
0.0
 10
145.757444908652
 20
150.1072155801794
 30
0.0
 10
145.9630424521484
 20
150.0619801118433
 30
0.0
 10
146.3618783662546
 20
149.9472551281654
 30
0.0
 10
146.5553788095158
 20
149.8772640846919
 30
0.0
 10
146.9128281811304
 20
149.7168700461496
 30
0.0
 10
147.079033345868
 20
149.6259622776647
 30
0.0
 10
147.3846440348089
 20
149.4202044017439
 30
0.0
 10
147.5229654334576
 20
149.3054324782064
 30
0.0
 10
147.7572739483896
 20
149.0606565861903
 30
0.0
 10
147.8552538299389
 20
148.9294712490066
 30
0.0
 10
148.0090346422623
 20
148.646922649537
 30
0.0
 10
148.0621719182554
 20
148.499922244914
 30
0.0
 10
148.1198279324739
 20
148.1982977583093
 30
0.0
 10
148.1242309762399
 20
148.0408383438664
 30
0.0
 10
148.082673882177
 20
147.7289693453587
 30
0.0
 10
148.0375990815682
 20
147.5746270562885
 30
0.0
 10
147.8995717071461
 20
147.2694514369414
 30
0.0
 10
147.8072631679857
 20
147.1210818876861
 30
0.0
 10
147.5844032386588
 20
146.8412674942413
 30
0.0
 10
147.4515089187912
 20
146.7071788027879
 30
0.0
 10
147.1557186798087
 20
146.4621069865156
 30
0.0
 10
146.9931454211948
 20
146.3507200922616
 30
0.0
 10
146.6399406171165
 20
146.1500959931764
 30
0.0
 10
146.450118998598
 20
146.0617317066639
 30
0.0
 10
145.8607850586772
 20
145.8397123162028
 30
0.0
 10
145.4290248261539
 20
145.7451397786181
 30
0.0
 10
144.7774857941694
 20
145.694045280551
 30
0.0
 10
144.5565531240735
 20
145.6916588076948
 30
0.0
 10
144.1173954772364
 20
145.7170516290685
 30
0.0
 10
143.901923313431
 20
145.7444381414769
 30
0.0
 10
143.4790519131051
 20
145.8278353314585
 30
0.0
 10
143.2697576245451
 20
145.8845462503405
 30
0.0
 10
142.8695028903628
 20
146.0251432629947
 30
0.0
 10
142.6799443997803
 20
146.10817471285
 30
0.0
 10
142.3222433766824
 20
146.2993187982509
 30
0.0
 10
142.152307558315
 20
146.4089236948874
 30
0.0
 10
141.846887998083
 20
146.6473578472214
 30
0.0
 10
141.7113757667731
 20
146.77554592082
 30
0.0
 10
141.4761841683289
 20
147.0497497060458
 30
0.0
 10
141.3759278370458
 20
147.1976397047277
 30
0.0
 10
141.2240859166827
 20
147.4976584380813
 30
0.0
 10
141.1709677529079
 20
147.650881128243
 30
0.0
 10
141.1128111289241
 20
147.9636609063201
 30
0.0
 10
141.1088209520899
 20
148.1209614111846
 30
0.0
 10
141.1502956614228
 20
148.4256812540503
 30
0.0
 10
141.1963938372919
 20
148.5766538460755
 30
0.0
 10
141.3346237179076
 20
148.8623484533758
 30
0.0
 10
141.4258238936017
 20
148.9968708041884
 30
0.0
 10
141.6506306103894
 20
149.2506608772545
 30
0.0
 10
141.7837410732684
 20
149.3687895369219
 30
0.0
 10
141.9330512557481
 20
149.4758061982835
 30
0.0
  0
SPLINE
  5
109
330
1F
100
AcDbEntity
  8
0
  6
Continuous
 62
     7
370
    25
100
AcDbSpline
210
0.0
220
0.0
230
1.0
 70
    11
 71
     3
 72
    70
 73
    66
 74
     0
 42
0.000000001
 43
0.00000001
 40
0.0
 40
0.0
 40
0.0
 40
0.0
 40
0.03125
 40
0.03125
 40
0.0625
 40
0.0625
 40
0.09375
 40
0.09375
 40
0.125
 40
0.125
 40
0.15625
 40
0.15625
 40
0.1875
 40
0.1875
 40
0.21875
 40
0.21875
 40
0.25
 40
0.25
 40
0.28125
 40
0.28125
 40
0.3125
 40
0.3125
 40
0.34375
 40
0.34375
 40
0.375
 40
0.375
 40
0.40625
 40
0.40625
 40
0.4375
 40
0.4375
 40
0.46875
 40
0.46875
 40
0.5
 40
0.5
 40
0.53125
 40
0.53125
 40
0.5625
 40
0.5625
 40
0.59375
 40
0.59375
 40
0.625
 40
0.625
 40
0.65625
 40
0.65625
 40
0.6875
 40
0.6875
 40
0.71875
 40
0.71875
 40
0.75
 40
0.75
 40
0.78125
 40
0.78125
 40
0.8125
 40
0.8125
 40
0.84375
 40
0.84375
 40
0.875
 40
0.875
 40
0.90625
 40
0.90625
 40
0.9375
 40
0.9375
 40
0.96875
 40
0.96875
 40
1.0
 40
1.0
 40
1.0
 40
1.0
 10
141.1275938352333
 20
107.2476641750919
 30
0.0
 10
141.1469749287873
 20
107.4050363690929
 30
0.0
 10
141.1909795205329
 20
107.559652765852
 30
0.0
 10
141.3253219120079
 20
107.8633472128342
 30
0.0
 10
141.4168773667801
 20
108.0132636060641
 30
0.0
 10
141.6373465062288
 20
108.2939536007514
 30
0.0
 10
141.7671280820325
 20
108.4267695978937
 30
0.0
 10
142.062633886538
 20
108.6747069677434
 30
0.0
 10
142.2244778814231
 20
108.7867107167929
 30
0.0
 10
142.5741717182867
 20
108.9878146671425
 30
0.0
 10
142.7638901493414
 20
109.0774303806904
 30
0.0
 10
143.1564403923102
 20
109.2274833991205
 30
0.0
 10
143.3600295130507
 20
109.2886760600907
 30
0.0
 10
143.7815321144667
 20
109.3834203489174
 30
0.0
 10
143.9994642540387
 20
109.4165885677773
 30
0.0
 10
144.4335523895519
 20
109.4526127297067
 30
0.0
 10
144.6517226549033
 20
109.4560014663773
 30
0.0
 10
145.0903608963193
 20
109.4329125052342
 30
0.0
 10
145.3088844149677
 20
109.4062532028588
 30
0.0
 10
145.7319869982801
 20
109.3249221540825
 30
0.0
 10
145.9384370245392
 20
109.2701912596461
 30
0.0
 10
146.3405736715175
 20
109.1315650328179
 30
0.0
 10
146.5331098662454
 20
109.0484954387104
 30
0.0
 10
146.8918348894226
 20
108.8594556726123
 30
0.0
 10
147.0595461594759
 20
108.7530018609906
 30
0.0
 10
147.3694342768746
 20
108.5148118078893
 30
0.0
 10
147.5072260627224
 20
108.386235453154
 30
0.0
 10
147.7444071352223
 20
108.1142247366821
 30
0.0
 10
147.8451770452216
 20
107.9689543877884
 30
0.0
 10
148.0019308612386
 20
107.6672429403203
 30
0.0
 10
148.0565904790397
 20
107.5141783847231
 30
0.0
 10
148.1182423678952
 20
107.2040576690645
 30
0.0
 10
148.1245594841124
 20
107.045381754316
 30
0.0
 10
148.0870093845332
 20
106.7397731074976
 30
0.0
 10
148.0439553391077
 20
106.5911676449739
 30
0.0
 10
147.9087162569014
 20
106.3020787604828
 30
0.0
 10
147.8190134915999
 20
106.1668678779072
 30
0.0
 10
147.5990222452946
 20
105.9130916627542
 30
0.0
 10
147.4672513813662
 20
105.7938404028647
 30
0.0
 10
147.174681498066
 20
105.57991707326
 30
0.0
 10
147.0131335219291
 20
105.4839740386773
 30
0.0
 10
146.6602810010757
 20
105.3125813733007
 30
0.0
 10
146.4729188846399
 20
105.2391480298395
 30
0.0
 10
146.0813747980118
 20
105.1156247024184
 30
0.0
 10
145.874774634171
 20
105.0649793616864
 30
0.0
 10
145.4523088091209
 20
104.9880580684323
 30
0.0
 10
145.2379738682419
 20
104.9618027912444
 30
0.0
 10
144.8032909864451
 20
104.9325765621722
 30
0.0
 10
144.5808325079266
 20
104.9297909192495
 30
0.0
 10
144.1434909589859
 20
104.948211021773
 30
0.0
 10
143.9280158399495
 20
104.9691189834581
 30
0.0
 10
143.5034743288577
 20
105.0346977962116
 30
0.0
 10
143.292609917747
 20
105.0800260338635
 30
0.0
 10
142.8929470727587
 20
105.1929036138619
 30
0.0
 10
142.7027178954047
 20
105.2604334330795
 30
0.0
 10
142.3421472002693
 20
105.4193276248679
 30
0.0
 10
142.1707099165612
 20
105.5117489225331
 30
0.0
 10
141.8642454274297
 20
105.7150801332475
 30
0.0
 10
141.7272800858294
 20
105.8265550348427
 30
0.0
 10
141.4881206766828
 20
106.0714699588623
 30
0.0
 10
141.3866149209512
 20
106.2052493760708
 30
0.0
 10
141.2316589681666
 20
106.4829976594394
 30
0.0
 10
141.1764014279343
 20
106.628534351119
 30
0.0
 10
141.1141232665899
 20
106.9345636419975
 30
0.0
 10
141.1082127416794
 20
107.0902919810909
 30
0.0
 10
141.1275938352333
 20
107.2476641750919
 30
0.0
  0
ARC
  5
10A
330
1F
100
AcDbEntity
  8
0
  6
Continuous
 62
     7
370
    25
100
AcDbCircle
 10
73.6665091286
 20
160.313202852
 30
0.0
 40
11.28028427891581
100
AcDbArc
 50
77.7251368498
 51
102.2933616786
  0
LWPOLYLINE
  5
10B
330
1F
100
AcDbEntity
  8
0
  6
Continuous
 62
     7
370
    25
100
AcDbPolyline
 90
       19
 70
   128
 43
0.0
 10
144.6164733601
 20
145.9037998052
 10
145.4715243412
 20
146.0104083003
 10
146.2234443856
 20
146.3173778089
 10
146.7815375758
 20
146.7876826705
 10
147.0784953666
 20
147.3645960273
 10
147.0784953666
 20
147.9785350444
 10
146.7815375758
 20
148.5554502638
 10
146.2234443856
 20
149.0257532628
 10
145.4715243412
 20
149.3327227713
 10
144.6164733601
 20
149.4393331291
 10
143.7614223791
 20
149.3327227713
 10
143.0095097852
 20
149.0257532628
 10
142.4514091445
 20
148.5554502638
 10
142.1544588042
 20
147.9785350444
 10
142.1544588042
 20
147.3645960273
 10
142.4514091445
 20
146.7876826705
 10
143.0095097852
 20
146.3173778089
 10
143.7614223791
 20
146.0104083003
 10
144.6164733601
 20
145.9037998052
  0
LWPOLYLINE
  5
10C
330
1F
100
AcDbEntity
  8
0
  6
Continuous
 62
     7
370
    25
100
AcDbPolyline
 90
       19
 70
   128
 43
0.0
 10
144.6164733601
 20
105.7081018867
 10
145.4715243412
 20
105.8147122444
 10
146.2234443856
 20
106.121681753
 10
146.7815375758
 20
106.591984752
 10
147.0784953666
 20
107.1688999714
 10
147.0784953666
 20
107.7828389885
 10
146.7815375758
 20
108.3597523452
 10
146.2234443856
 20
108.8300572069
 10
145.4715243412
 20
109.1370267154
 10
144.6164733601
 20
109.2436352106
 10
143.7614223791
 20
109.1370267154
 10
143.0095097852
 20
108.8300572069
 10
142.4514091445
 20
108.3597523452
 10
142.1544588042
 20
107.7828389885
 10
142.1544588042
 20
107.1688999714
 10
142.4514091445
 20
106.591984752
 10
143.0095097852
 20
106.121681753
 10
143.7614223791
 20
105.8147122444
 10
144.6164733601
 20
105.7081018867
  0
LINE
  5
10D
330
1F
100
AcDbEntity
  8
0
  6
Continuous
 62
     7
370
    25
100
AcDbLine
 10
16.4164750708
 20
95.3237192066
 30
0.0
 11
16.4164750708
 21
95.3254328402
 31
0.0
  0
LINE
  5
10E
330
1F
100
AcDbEntity
  8
0
  6
Continuous
 62
     7
370
    25
100
AcDbLine
 10
16.4164750708
 20
159.8237158092
 30
0.0
 11
16.4164750708
 21
159.8220021756
 31
0.0
  0
LINE
  5
10F
330
1F
100
AcDbEntity
  8
0
  6
Continuous
 62
     7
370
    25
100
AcDbLine
 10
227.1664700342
 20
114.0737171577
 30
0.0
 11
227.1664700342
 21
141.0737178581
 31
0.0
  0
LINE
  5
110
330
1F
100
AcDbEntity
  8
0
  6
Continuous
 62
     7
370
    25
100
AcDbLine
 10
245.6664702726
 20
114.8737176614
 30
0.0
 11
245.6664702726
 21
140.2737173544
 31
0.0
  0
LINE
  5
111
330
1F
100
AcDbEntity
  8
0
  6
HIDDEN
 62
     7
370
    18
100
AcDbLine
 10
262.6664749218
 20
123.3737176576
 30
0.0
 11
262.6664749218
 21
135.9737172084
 31
0.0
  0
LINE
  5
112
330
1F
100
AcDbEntity
  8
0
  6
HIDDEN
 62
     7
370
    18
100
AcDbLine
 10
262.6664749218
 20
119.1737178074
 30
0.0
 11
262.6664749218
 21
123.3737176576
 31
0.0
  0
LINE
  5
113
330
1F
100
AcDbEntity
  8
0
  6
HIDDEN
 62
     7
370
    18
100
AcDbLine
 10
250.6664804054
 20
123.0737177016
 30
0.0
 11
250.6664804054
 21
136.5737171205
 31
0.0
  0
LINE
  5
114
330
1F
100
AcDbEntity
  8
0
  6
HIDDEN
 62
     7
370
    18
100
AcDbLine
 10
250.6664804054
 20
118.5737178953
 30
0.0
 11
250.6664804054
 21
123.0737177016
 31
0.0
  0
LINE
  5
115
330
1F
100
AcDbEntity
  8
0
  6
HIDDEN
 62
     7
370
    18
100
AcDbLine
 10
250.6664804054
 20
134.1737174721
 30
0.0
 11
250.6664804054
 21
120.9737175436
 31
0.0
  0
LINE
  5
116
330
1F
100
AcDbEntity
  8
0
  6
HIDDEN
 62
     7
370
    18
100
AcDbLine
 10
221.6304800344
 20
121.5737174557
 30
0.0
 11
221.6304800344
 21
133.57371756
 31
0.0
  0
LINE
  5
117
330
1F
100
AcDbEntity
  8
0
  6
HIDDEN
 62
     7
370
    18
100
AcDbLine
 10
220.6664792133
 20
122.5377173455
 30
0.0
 11
220.6664792133
 21
132.6097176702
 31
0.0
  0
LINE
  5
118
330
1F
100
AcDbEntity
  8
0
  6
HIDDEN
 62
     7
370
    18
100
AcDbLine
 10
262.6664749218
 20
122.5162172982
 30
0.0
 11
262.6664749218
 21
127.5737175079
 31
0.0
  0
LINE
  5
119
330
1F
100
AcDbEntity
  8
0
  6
HIDDEN
 62
     7
370
    18
100
AcDbLine
 10
256.6664776636
 20
122.5162172982
 30
0.0
 11
256.6664776636
 21
125.0449674031
 31
0.0
  0
LINE
  5
11A
330
1F
100
AcDbEntity
  8
0
  6
HIDDEN
 62
     7
370
    18
100
AcDbLine
 10
256.6664776636
 20
125.0449674031
 30
0.0
 11
256.6664776636
 21
122.5162172982
 31
0.0
  0
LINE
  5
11B
330
1F
100
AcDbEntity
  8
0
  6
HIDDEN
 62
     7
370
    18
100
AcDbLine
 10
256.6664776636
 20
130.1024676127
 30
0.0
 11
256.6664776636
 21
125.0449674031
 31
0.0
  0
LINE
  5
11C
330
1F
100
AcDbEntity
  8
0
  6
HIDDEN
 62
     7
370
    18
100
AcDbLine
 10
256.6664776636
 20
132.6312177175
 30
0.0
 11
256.6664776636
 21
130.1024676127
 31
0.0
  0
LINE
  5
11D
330
1F
100
AcDbEntity
  8
0
  6
HIDDEN
 62
     7
370
    18
100
AcDbLine
 10
256.6664776636
 20
130.1024676127
 30
0.0
 11
256.6664776636
 21
132.6312177175
 31
0.0
  0
LINE
  5
11E
330
1F
100
AcDbEntity
  8
0
  6
HIDDEN
 62
     7
370
    18
100
AcDbLine
 10
256.6664776636
 20
125.0449674031
 30
0.0
 11
256.6664776636
 21
130.1024676127
 31
0.0
  0
LINE
  5
11F
330
1F
100
AcDbEntity
  8
0
  6
HIDDEN
 62
     7
370
    18
100
AcDbLine
 10
256.6664776636
 20
125.0449674031
 30
0.0
 11
256.6664776636
 21
127.5737175079
 31
0.0
  0
LINE
  5
120
330
1F
100
AcDbEntity
  8
0
  6
HIDDEN
 62
     7
370
    18
100
AcDbLine
 10
256.6664776636
 20
130.1024676127
 30
0.0
 11
256.6664776636
 21
127.5737175079
 31
0.0
  0
LINE
  5
121
330
1F
100
AcDbEntity
  8
0
  6
HIDDEN
 62
     7
370
    18
100
AcDbLine
 10
256.6664776636
 20
127.5737175079
 30
0.0
 11
262.6664749218
 21
127.5737175079
 31
0.0
  0
LINE
  5
122
330
1F
100
AcDbEntity
  8
0
  6
HIDDEN
 62
     7
370
    18
100
AcDbLine
 10
262.6664749218
 20
132.6312177175
 30
0.0
 11
262.6664749218
 21
127.5737175079
 31
0.0
  0
LINE
  5
123
330
1F
100
AcDbEntity
  8
0
  6
HIDDEN
 62
     7
370
    18
100
AcDbLine
 10
256.6664776636
 20
122.5162172982
 30
0.0
 11
256.6664776636
 21
125.0449674031
 31
0.0
  0
LINE
  5
124
330
1F
100
AcDbEntity
  8
0
  6
HIDDEN
 62
     7
370
    18
100
AcDbLine
 10
256.6664776636
 20
132.6312177175
 30
0.0
 11
256.6664776636
 21
130.1024676127
 31
0.0
  0
LINE
  5
125
330
1F
100
AcDbEntity
  8
0
  6
HIDDEN
 62
     7
370
    18
100
AcDbLine
 10
256.6664776636
 20
122.5162172982
 30
0.0
 11
262.6664749218
 21
122.5162172982
 31
0.0
  0
LINE
  5
126
330
1F
100
AcDbEntity
  8
0
  6
HIDDEN
 62
     7
370
    18
100
AcDbLine
 10
256.6664776636
 20
132.6312177175
 30
0.0
 11
262.6664749218
 21
132.6312177175
 31
0.0
  0
LINE
  5
127
330
1F
100
AcDbEntity
  8
0
  6
HIDDEN
 62
     7
370
    18
100
AcDbLine
 10
245.6664702726
 20
133.57371756
 30
0.0
 11
221.6304800344
 21
133.57371756
 31
0.0
  0
LINE
  5
128
330
1F
100
AcDbEntity
  8
0
  6
HIDDEN
 62
     7
370
    18
100
AcDbLine
 10
221.6304800344
 20
121.5737174557
 30
0.0
 11
245.6664702726
 21
121.5737174557
 31
0.0
  0
LINE
  5
129
330
1F
100
AcDbEntity
  8
0
  6
HIDDEN
 62
     7
370
    18
100
AcDbLine
 10
221.6304800344
 20
133.57371756
 30
0.0
 11
220.6664792133
 21
132.6097176702
 31
0.0
  0
LINE
  5
12A
330
1F
100
AcDbEntity
  8
0
  6
HIDDEN
 62
     7
370
    18
100
AcDbLine
 10
220.6664792133
 20
122.5377173455
 30
0.0
 11
221.6304800344
 21
121.5737174557
 31
0.0
  0
LINE
  5
12B
330
1F
100
AcDbEntity
  8
0
  6
HIDDEN
 62
     7
370
    18
100
AcDbLine
 10
256.6664776636
 20
132.6312177175
 30
0.0
 11
253.7465206218
 21
127.5737175079
 31
0.0
  0
LINE
  5
12C
330
1F
100
AcDbEntity
  8
0
  6
HIDDEN
 62
     7
370
    18
100
AcDbLine
 10
253.7465206218
 20
127.5737175079
 30
0.0
 11
256.6664776636
 21
122.5162172982
 31
0.0
  0
DIMENSION
  5
12D
330
1F
100
AcDbEntity
  8
VERMASSUNG
100
AcDbDimension
  2
_D
 10
277.3939809422
 20
141.0737175079
 30
0.0
 11
277.3939809422
 21
127.5737175079
 31
0.0
 70
   160
  1
%%c<>
 71
     2
 42
-1.0
  3
SLDDIMSTYLE0
100
AcDbAlignedDimension
 13
244.8664759947
 23
114.0737175079
 33
0.0
 14
244.8664759947
 24
141.0737175079
 34
0.0
 50
90.0
100
AcDbRotatedDimension
  0
DIMENSION
  5
139
330
1F
100
AcDbEntity
  8
VERMASSUNG
100
AcDbDimension
  2
_D_1
 10
284.6664759947
 20
156.5737175079
 30
0.0
 11
284.6664759947
 21
127.5737175079
 31
0.0
 70
   160
  1
%%c<>
 71
     2
 42
-1.0
  3
SLDDIMSTYLE0
100
AcDbAlignedDimension
 13
223.8664759947
 23
98.5737175079
 33
0.0
 14
223.8664759947
 24
156.5737175079
 34
0.0
 50
90.0
100
AcDbRotatedDimension
  0
DIMENSION
  5
144
330
1F
100
AcDbEntity
  8
VERMASSUNG
100
AcDbDimension
  2
_D_2
 10
270.8836599465
 20
122.5162175079
 30
0.0
 11
270.8836599465
 21
127.5737175079
 31
0.0
 70
   160
  1
SW<>
 71
     2
 42
-1.0
  3
SLDDIMSTYLE1
100
AcDbAlignedDimension
 13
262.6664759947
 23
132.6312175079
 33
0.0
 14
262.6664759947
 24
122.5162175079
 34
0.0
 50
90.0
100
AcDbRotatedDimension
  0
DIMENSION
  5
150
330
1F
100
AcDbEntity
  8
VERMASSUNG
100
AcDbDimension
  2
_D_3
 10
292.1222481128
 20
160.6975277248
 30
0.0
 11
292.1222481128
 21
127.5737175079
 31
0.0
 70
   160
  1
%%c<>
 71
     2
 42
-1.0
  3
SLDDIMSTYLE1
100
AcDbAlignedDimension
 13
97.1954233631
 23
94.4499072909
 33
0.0
 14
97.1954233631
 24
160.6975277248
 34
0.0
 50
90.0
100
AcDbRotatedDimension
  0
DIMENSION
  5
15B
330
1F
100
AcDbEntity
  8
VERMASSUNG
100
AcDbDimension
  2
_D_4
 10
8.4235638678
 20
77.5737175079
 30
0.0
 11
8.4235638678
 21
127.5737175079
 31
0.0
 70
   160
  1
%%c<>
 71
     2
 42
-1.0
  3
SLDDIMSTYLE0
100
AcDbAlignedDimension
 13
65.1664759947
 23
177.5737175079
 33
0.0
 14
65.1664759947
 24
77.5737175079
 34
0.0
 50
90.0
100
AcDbRotatedDimension
  0
DIMENSION
  5
166
330
1F
100
AcDbEntity
  8
VERMASSUNG
100
AcDbDimension
  2
_D_5
 10
224.6664759947
 20
185.1926422266
 30
0.0
 11
159.1414759947
 21
185.1926422266
 31
0.0
 70
   160
  1
<>
 71
     2
 42
-1.0
  3
SLDDIMSTYLE0
100
AcDbAlignedDimension
 13
93.6164759947
 23
158.9237175079
 33
0.0
 14
224.6664759947
 24
155.7737175079
 34
0.0
100
AcDbRotatedDimension
  0
DIMENSION
  5
170
330
1F
100
AcDbEntity
  8
VERMASSUNG
100
AcDbDimension
  2
_D_6
 10
224.6664759947
 20
193.5737175079
 30
0.0
 11
144.6664759947
 21
193.5737175079
 31
0.0
 70
   160
  1
<>
 71
     2
 42
-1.0
  3
SLDDIMSTYLE0
100
AcDbAlignedDimension
 13
64.6664759947
 23
177.0737175079
 33
0.0
 14
224.6664759947
 24
155.7737175079
 34
0.0
100
AcDbRotatedDimension
  0
DIMENSION
  5
17A
330
1F
100
AcDbEntity
  8
VERMASSUNG
100
AcDbDimension
  2
_D_7
 10
245.6664759947
 20
201.6599970979
 30
0.0
 11
130.2164759947
 21
201.6599970979
 31
0.0
 70
   160
  1
(<>)
 71
     2
 42
-1.0
  3
SLDDIMSTYLE0
100
AcDbAlignedDimension
 13
14.7664759947
 23
158.0763872505
 33
0.0
 14
245.6664759947
 24
136.7447853197
 34
0.0
100
AcDbRotatedDimension
  0
DIMENSION
  5
186
330
1F
100
AcDbEntity
  8
VERMASSUNG
100
AcDbDimension
  2
_D_8
 10
245.6664759947
 20
185.1926422266
 30
0.0
 11
235.1664759947
 21
185.1926422266
 31
0.0
 70
   160
  1
<>
 71
     2
 42
-1.0
  3
SLDDIMSTYLE0
100
AcDbAlignedDimension
 13
224.6664759947
 23
155.7737175079
 33
0.0
 14
245.6664759947
 24
136.7447853197
 34
0.0
100
AcDbRotatedDimension
  0
LINE
  5
190
330
1F
100
AcDbEntity
  8
VERMASSUNG
  6
CENTERX2
370
    18
100
AcDbLine
 10
264.9307656229
 20
127.5737175079
 30
0.0
 11
12.1715195632
 21
127.5737175079
 31
0.0
  0
SPLINE
  5
191
330
1F
100
AcDbEntity
  8
0
  6
Continuous
 62
     7
370
    25
100
AcDbSpline
210
0.0
220
0.0
230
1.0
 70
     8
 71
     3
 72
    15
 73
    11
 74
     0
 42
0.000000001
 43
0.00000001
 40
0.0
 40
0.0
 40
0.0
 40
0.0
 40
0.0842937521795973
 40
0.2270473332547093
 40
0.3701689332252112
 40
0.5140559165007536
 40
0.6590327273452612
 40
0.8044294579835144
 40
0.9466457775834285
 40
1.0
 40
1.0
 40
1.0
 40
1.0
 10
276.5450542149368
 20
26.87766111891204
 30
0.0
 10
276.6191835356828
 20
26.99103615839017
 30
0.0
 10
276.8188527182277
 20
27.29641466753893
 30
0.0
 10
277.0517432625015
 20
27.84553181482877
 30
0.0
 10
277.2324953361947
 20
28.48034385399142
 30
0.0
 10
277.2965644148778
 20
29.09459120924026
 30
0.0
 10
277.2422690169812
 20
29.65859819652763
 30
0.0
 10
277.0570428794916
 20
30.12967543293597
 30
0.0
 10
276.8270713637273
 20
30.44299162092313
 30
0.0
 10
276.6371948372272
 20
30.53490264898092
 30
0.0
 10
276.5853940173179
 20
30.55997718926172
 30
0.0
  0
SPLINE
  5
192
330
1F
100
AcDbEntity
  8
0
  6
Continuous
 62
     7
370
    25
100
AcDbSpline
210
0.0
220
0.0
230
1.0
 70
     8
 71
     3
 72
     9
 73
     5
 74
     0
 42
0.000000001
 43
0.00000001
 40
0.0
 40
0.0
 40
0.0
 40
0.0
 40
0.6744229523624291
 40
1.0
 40
1.0
 40
1.0
 40
1.0
 10
276.0314698411403
 20
26.20396459667393
 30
0.0
 10
276.1595353619181
 20
26.34232858271469
 30
0.0
 10
276.3494243927247
 20
26.54748765322984
 30
0.0
 10
276.4970052689633
 20
26.79656669866943
 30
0.0
 10
276.5450542149368
 20
26.87766111891204
 30
0.0
  0
LINE
  5
193
330
1F
100
AcDbEntity
  8
0
  6
Continuous
 62
     7
370
    25
100
AcDbLine
 10
276.5822540771
 20
30.5845600395
 30
0.0
 11
274.5316413097
 21
31.7683535924
 31
0.0
  0
SPLINE
  5
194
330
1F
100
AcDbEntity
  8
0
  6
Continuous
 62
     7
370
    25
100
AcDbSpline
210
0.0
220
0.0
230
1.0
 70
     8
 71
     3
 72
    14
 73
    10
 74
     0
 42
0.000000001
 43
0.00000001
 40
0.0
 40
0.0
 40
0.0
 40
0.0
 40
0.1391979590788932
 40
0.2919741463304423
 40
0.4455495876700014
 40
0.6002820762120653
 40
0.7555501244792696
 40
0.9076122574458969
 40
1.0
 40
1.0
 40
1.0
 40
1.0
 10
261.214666880339
 20
18.27129919016227
 30
0.0
 10
261.3062044900871
 20
18.45959069172348
 30
0.0
 10
261.4982088530833
 20
18.85454081019791
 30
0.0
 10
261.6692427844897
 20
19.47567180388451
 30
0.0
 10
261.7404879210971
 20
20.09034840311192
 30
0.0
 10
261.690035523628
 20
20.65665000985489
 30
0.0
 10
261.511579213032
 20
21.13415720756996
 30
0.0
 10
261.2580907155175
 20
21.47440544449956
 30
0.0
 10
261.035209281359
 20
21.58189247134002
 30
0.0
 10
260.9509731469971
 20
21.62251627506457
 30
0.0
  0
SPLINE
  5
195
330
1F
100
AcDbEntity
  8
0
  6
Continuous
 62
     7
370
    25
100
AcDbSpline
210
0.0
220
0.0
230
1.0
 70
     8
 71
     3
 72
    16
 73
    12
 74
     0
 42
0.000000001
 43
0.00000001
 40
0.0
 40
0.0
 40
0.0
 40
0.0
 40
0.004117751463284
 40
0.1389079821665882
 40
0.2730672062415206
 40
0.4115086137023442
 40
0.5544781207975088
 40
0.6990668493523376
 40
0.8434237770788962
 40
0.9875168589161932
 40
1.0
 40
1.0
 40
1.0
 40
1.0
 10
258.0557250230441
 20
16.39403520937944
 30
0.0
 10
258.0591413151836
 20
16.39126853874241
 30
0.0
 10
258.174386310377
 20
16.29793783655288
 30
0.0
 10
258.4791318660886
 20
16.24254881250517
 30
0.0
 10
258.932394903347
 20
16.2456957987349
 30
0.0
 10
259.4210089406109
 20
16.40393080663243
 30
0.0
 10
259.9162363646136
 20
16.69390073853905
 30
0.0
 10
260.3994792431011
 20
17.10855109521086
 30
0.0
 10
260.8289160210692
 20
17.62620025332933
 30
0.0
 10
261.1061509429367
 20
18.02787909237448
 30
0.0
 10
261.2066541934086
 20
18.25332534150145
 30
0.0
 10
261.214666880339
 20
18.27129919016227
 30
0.0
  0
LINE
  5
196
330
1F
100
AcDbEntity
  8
0
  6
Continuous
 62
     7
370
    25
100
AcDbLine
 10
255.9755363632
 20
17.59157139
 30
0.0
 11
258.0261491306
 21
16.4077778371
 31
0.0
  0
LINE
  5
197
330
1F
100
AcDbEntity
  8
0
  6
Continuous
 62
     7
370
    25
100
AcDbLine
 10
261.0259049753
 20
21.6040708581
 30
0.0
 11
258.9752922078
 21
22.787864411
 31
0.0
  0
SPLINE
  5
198
330
1F
100
AcDbEntity
  8
0
  6
Continuous
 62
     7
370
    25
100
AcDbSpline
210
0.0
220
0.0
230
1.0
 70
     8
 71
     3
 72
    10
 73
     6
 74
     0
 42
0.000000001
 43
0.00000001
 40
0.0
 40
0.0
 40
0.0
 40
0.0
 40
0.1422181509658371
 40
0.6475508644928144
 40
1.0
 40
1.0
 40
1.0
 40
1.0
 10
276.0183002680696
 20
13.31240803245892
 30
0.0
 10
276.0536689567978
 20
13.27764843833293
 30
0.0
 10
276.2147104610391
 20
13.11938027725198
 30
0.0
 10
276.54327780711
 20
12.9865992288044
 30
0.0
 10
276.8420732184877
 20
12.93975029987272
 30
0.0
 10
276.9648435761865
 20
12.92050080826831
 30
0.0
  0
SPLINE
  5
199
330
1F
100
AcDbEntity
  8
0
  6
Continuous
 62
     7
370
    25
100
AcDbSpline
210
0.0
220
0.0
230
1.0
 70
     8
 71
     3
 72
    23
 73
    19
 74
     0
 42
0.000000001
 43
0.00000001
 40
0.0
 40
0.0
 40
0.0
 40
0.0
 40
0.0367212339456153
 40
0.1025303287729983
 40
0.1694904176258828
 40
0.2374503861625218
 40
0.305622570583524
 40
0.3736831148096915
 40
0.4416301768432697
 40
0.509535924493664
 40
0.5774893890249629
 40
0.64556513250734
 40
0.7138669395126263
 40
0.7824767860627232
 40
0.8513680178335408
 40
0.9199684395327059
 40
0.9871971194006408
 40
1.0
 40
1.0
 40
1.0
 40
1.0
 10
276.9648435761865
 20
12.92050080826831
 30
0.0
 10
277.0684055149441
 20
12.9160397588351
 30
0.0
 10
277.3575635439173
 20
12.90358394469393
 30
0.0
 10
277.8606807300065
 20
13.0003660559841
 30
0.0
 10
278.4655362874177
 20
13.24645525421583
 30
0.0
 10
279.0738068168933
 20
13.62940139260016
 30
0.0
 10
279.6627949198491
 20
14.13332642255119
 30
0.0
 10
280.2105906680588
 20
14.73920312464049
 30
0.0
 10
280.6981666895564
 20
15.42451236376074
 30
0.0
 10
281.1091949846825
 20
16.16546202265715
 30
0.0
 10
281.4296396939935
 20
16.93684827201444
 30
0.0
 10
281.6479987186776
 20
17.71283313342669
 30
0.0
 10
281.7557236049894
 20
18.46828684610314
 30
0.0
 10
281.7457706663883
 20
19.17754638654743
 30
0.0
 10
281.616944959927
 20
19.82034478731297
 30
0.0
 10
281.3589188158019
 20
20.35450672922799
 30
0.0
 10
281.1066353765872
 20
20.69393388947183
 30
0.0
 10
280.9202883976731
 20
20.80253694316362
 30
0.0
 10
280.8904779315625
 20
20.81991048831283
 30
0.0
  0
LINE
  5
19A
330
1F
100
AcDbEntity
  8
0
  6
Continuous
 62
     7
370
    25
100
AcDbLine
 10
280.7263054199
 20
20.9437651222
 30
0.0
 11
276.6957970284
 21
23.27052809
 31
0.0
  0
LINE
  5
19B
330
1F
100
AcDbEntity
  8
0
  6
Continuous
 62
     7
370
    25
100
AcDbLine
 10
272.1961626029
 20
15.4760881784
 30
0.0
 11
276.2266709944
 21
13.1493252105
 31
0.0
  0
LINE
  5
19C
330
1F
100
AcDbEntity
  8
0
  6
Continuous
 62
     7
370
    25
100
AcDbLine
 10
274.2686714814
 20
22.9396738516
 30
0.0
 11
273.3614921773
 21
23.4633773165
 31
0.0
  0
LINE
  5
19D
330
1F
100
AcDbEntity
  8
0
  6
Continuous
 62
     7
370
    25
100
AcDbLine
 10
270.3622048871
 20
18.2668134247
 30
0.0
 11
271.2689153074
 21
17.7433806406
 31
0.0
  0
SPLINE
  5
19E
330
1F
100
AcDbEntity
  8
0
  6
Continuous
 62
     7
370
    25
100
AcDbSpline
210
0.0
220
0.0
230
1.0
 70
     8
 71
     3
 72
    15
 73
    11
 74
     0
 42
0.000000001
 43
0.00000001
 40
0.0
 40
0.0
 40
0.0
 40
0.0
 40
0.082650044650154
 40
0.2249599492541247
 40
0.3680801707306673
 40
0.5117113926565122
 40
0.6555881629146152
 40
0.7995181981262739
 40
0.9433946464114666
 40
1.0
 40
1.0
 40
1.0
 40
1.0
 10
260.7709227979753
 20
11.59385069946508
 30
0.0
 10
260.9630053514563
 20
11.59907189869574
 30
0.0
 10
261.485822751817
 20
11.61328315192552
 30
0.0
 10
262.3813692542678
 20
11.79811486826717
 30
0.0
 10
263.4422046057808
 20
12.13109997874958
 30
0.0
 10
264.5218994287042
 20
12.61127459156843
 30
0.0
 10
265.6064220652401
 20
13.22240733649206
 30
0.0
 10
266.6812519627329
 20
13.96780165947115
 30
0.0
 10
267.5299940096822
 20
14.63746207478483
 30
0.0
 10
268.0042352218996
 20
15.09230728304837
 30
0.0
 10
268.1381356121242
 20
15.22073127765125
 30
0.0
  0
SPLINE
  5
19F
330
1F
100
AcDbEntity
  8
0
  6
Continuous
 62
     7
370
    25
100
AcDbSpline
210
0.0
220
0.0
230
1.0
 70
     8
 71
     3
 72
    11
 73
     7
 74
     0
 42
0.000000001
 43
0.00000001
 40
0.0
 40
0.0
 40
0.0
 40
0.0
 40
0.2679259759951841
 40
0.5510109907683369
 40
0.8337202871848534
 40
1.0
 40
1.0
 40
1.0
 40
1.0
 10
275.3186843147576
 20
31.3140037063713
 30
0.0
 10
275.2891396493428
 20
31.69254852702504
 30
0.0
 10
275.2283787048257
 20
32.47105593342296
 30
0.0
 10
274.9885963481698
 20
33.54666147101346
 30
0.0
 10
274.7040449604857
 20
34.43202311086592
 30
0.0
 10
274.4526212119456
 20
34.90177066557963
 30
0.0
 10
274.3595083119802
 20
35.07573815005564
 30
0.0
  0
LINE
  5
1A0
330
1F
100
AcDbEntity
  8
0
  6
Continuous
 62
     7
370
    25
100
AcDbLine
 10
230.9241746658
 20
27.7552075889
 30
0.0
 11
257.7213358782
 21
12.2855357022
 31
0.0
  0
LINE
  5
1A1
330
1F
100
AcDbEntity
  8
0
  6
Continuous
 62
     7
370
    25
100
AcDbLine
 10
222.9847159795
 20
32.3385595292
 30
0.0
 11
228.4765227803
 21
29.1682069459
 31
0.0
  0
LINE
  5
1A2
330
1F
100
AcDbEntity
  8
0
  6
Continuous
 62
     7
370
    25
100
AcDbLine
 10
242.9752230605
 20
54.2836931651
 30
0.0
 11
237.4835374319
 21
57.4539757971
 31
0.0
  0
LINE
  5
1A3
330
1F
100
AcDbEntity
  8
0
  6
Continuous
 62
     7
370
    25
100
AcDbLine
 10
272.2201573306
 20
37.4009519702
 30
0.0
 11
245.4351423131
 21
52.8636120078
 31
0.0
  0
SPLINE
  5
1A4
330
1F
100
AcDbEntity
  8
0
  6
Continuous
 62
     7
370
    25
100
AcDbSpline
210
0.0
220
0.0
230
1.0
 70
     8
 71
     3
 72
    14
 73
    10
 74
     0
 42
0.000000001
 43
0.00000001
 40
0.0
 40
0.0
 40
0.0
 40
0.0
 40
0.0741687162110759
 40
0.2513187679146283
 40
0.4288964950222133
 40
0.6094527129752125
 40
0.7935281606199177
 40
0.9799743432022495
 40
1.0
 40
1.0
 40
1.0
 40
1.0
 10
269.0256145572284
 20
14.73100359673833
 30
0.0
 10
269.0993217486924
 20
14.68272981120113
 30
0.0
 10
269.3490766519923
 20
14.5191553431025
 30
0.0
 10
269.8546804872707
 20
14.38748148709345
 30
0.0
 10
270.5155982936737
 20
14.33836334339823
 30
0.0
 10
271.22146992016
 20
14.43787896850668
 30
0.0
 10
271.9532542780865
 20
14.69042693406897
 30
0.0
 10
272.4792126900025
 20
14.93226558283927
 30
0.0
 10
272.7505796034616
 20
15.12239536564089
 30
0.0
 10
272.7768994187522
 20
15.14083601008348
 30
0.0
  0
SPLINE
  5
1A5
330
1F
100
AcDbEntity
  8
0
  6
Continuous
 62
     7
370
    25
100
AcDbSpline
210
0.0
220
0.0
230
1.0
 70
     8
 71
     3
 72
    13
 73
     9
 74
     0
 42
0.000000001
 43
0.00000001
 40
0.0
 40
0.0
 40
0.0
 40
0.0
 40
0.0701869532191681
 40
0.2667161868837117
 40
0.4634311859412186
 40
0.6589885117231686
 40
0.85145221292311
 40
1.0
 40
1.0
 40
1.0
 40
1.0
 10
277.2688644349277
 20
22.93970303262082
 30
0.0
 10
277.2757190503696
 20
23.04641255639294
 30
0.0
 10
277.3017671520378
 20
23.45191751107885
 30
0.0
 10
277.2250704040018
 20
24.09744832866147
 30
0.0
 10
277.0375114760944
 20
24.85319352021965
 30
0.0
 10
276.7209418643966
 20
25.50047997369856
 30
0.0
 10
276.3351281808337
 20
26.00672016820178
 30
0.0
 10
276.0140690564841
 20
26.22720831561995
 30
0.0
 10
275.8742127053565
 20
26.3232550105309
 30
0.0
  0
LINE
  5
1A6
330
1F
100
AcDbEntity
  8
0
  6
Continuous
 62
     7
370
    25
100
AcDbLine
 10
262.7627456508
 20
18.3238778792
 30
0.0
 11
269.0206412291
 21
14.7112716583
 31
0.0
  0
LINE
  5
1A7
330
1F
100
AcDbEntity
  8
0
  6
Continuous
 62
     7
370
    25
100
AcDbLine
 10
275.7700928674
 20
26.4029317159
 30
0.0
 11
269.5121972891
 21
30.0155379368
 31
0.0
  0
SPLINE
  5
1A8
330
1F
100
AcDbEntity
  8
0
  6
Continuous
 62
     7
370
    25
100
AcDbSpline
210
0.0
220
0.0
230
1.0
 70
     8
 71
     3
 72
    12
 73
     8
 74
     0
 42
0.000000001
 43
0.00000001
 40
0.0
 40
0.0
 40
0.0
 40
0.0
 40
0.1319630986914422
 40
0.4132781589515909
 40
0.6813590926197285
 40
0.9469457518715234
 40
1.0
 40
1.0
 40
1.0
 40
1.0
 10
270.7441039022388
 20
17.77755750990112
 30
0.0
 10
270.7022110606708
 20
17.79999500306779
 30
0.0
 10
270.571012289134
 20
17.87026408555645
 30
0.0
 10
270.4098334220035
 20
18.10283083627312
 30
0.0
 10
270.2638431948884
 20
18.47824643584624
 30
0.0
 10
270.2170886730555
 20
18.82579932368851
 30
0.0
 10
270.2148094615761
 20
19.03270523869321
 30
0.0
 10
270.2144299690232
 20
19.06715542226869
 30
0.0
  0
SPLINE
  5
1A9
330
1F
100
AcDbEntity
  8
0
  6
Continuous
 62
     7
370
    25
100
AcDbSpline
210
0.0
220
0.0
230
1.0
 70
     8
 71
     3
 72
    19
 73
    15
 74
     0
 42
0.000000001
 43
0.00000001
 40
0.0
 40
0.0
 40
0.0
 40
0.0
 40
0.0460605593460364
 40
0.134896037078281
 40
0.2242694048755974
 40
0.3140544838051415
 40
0.4040424120163415
 40
0.4939425042705821
 40
0.583411371172711
 40
0.6721939412354796
 40
0.7601910597322653
 40
0.847866135670218
 40
0.9364906162539461
 40
1.0
 40
1.0
 40
1.0
 40
1.0
 10
270.2144299690232
 20
19.06715542226868
 30
0.0
 10
270.2171559933966
 20
19.16493526588496
 30
0.0
 10
270.2251396108379
 20
19.45129986061073
 30
0.0
 10
270.3166611799812
 20
19.97629680015043
 30
0.0
 10
270.5226557781957
 20
20.626579848542
 30
0.0
 10
270.8243369530937
 20
21.27553891022635
 30
0.0
 10
271.2059565111657
 20
21.88852701147366
 30
0.0
 10
271.6484114210589
 20
22.43451772972481
 30
0.0
 10
272.1274011122348
 20
22.88608327433154
 30
0.0
 10
272.6151422316991
 20
23.22168131354465
 30
0.0
 10
273.0830567655291
 20
23.43011309152712
 30
0.0
 10
273.4994446564367
 20
23.50476927328524
 30
0.0
 10
273.815315640164
 20
23.47926046301004
 30
0.0
 10
273.9638123624526
 20
23.38971661215491
 30
0.0
 10
274.0258033949056
 20
23.35233588294573
 30
0.0
  0
LINE
  5
1AA
330
1F
100
AcDbEntity
  8
0
  6
Continuous
 62
     7
370
    25
100
AcDbLine
 10
268.8114991825
 20
30.2788439039
 30
0.0
 11
268.3113825378
 21
30.3807381555
 31
0.0
  0
LINE
  5
1AB
330
1F
100
AcDbEntity
  8
0
  6
Continuous
 62
     7
370
    25
100
AcDbLine
 10
261.8459851827
 20
19.1811277794
 30
0.0
 11
262.1843223019
 21
18.7989929423
 31
0.0
  0
SPLINE
  5
1AC
330
1F
100
AcDbEntity
  8
0
  6
Continuous
 62
     7
370
    25
100
AcDbSpline
210
0.0
220
0.0
230
1.0
 70
     8
 71
     3
 72
    13
 73
     9
 74
     0
 42
0.000000001
 43
0.00000001
 40
0.0
 40
0.0
 40
0.0
 40
0.0
 40
0.0569699179584406
 40
0.2556696697421532
 40
0.4597384483349172
 40
0.6675614454347621
 40
0.8775013420420383
 40
1.0
 40
1.0
 40
1.0
 40
1.0
 10
213.843986499768
 20
35.65439257085692
 30
0.0
 10
214.0135884219877
 20
35.62914312756847
 30
0.0
 10
214.7747281426589
 20
35.51582864409956
 30
0.0
 10
216.197846025644
 20
35.1710904230116
 30
0.0
 10
218.0909473962289
 20
34.60337243124021
 30
0.0
 10
220.0101767749386
 20
33.85386076140027
 30
0.0
 10
221.6549231238932
 20
33.0941327142656
 30
0.0
 10
222.6195258147129
 20
32.52990286525397
 30
0.0
 10
222.9749675451181
 20
32.32199256623903
 30
0.0
  0
SPLINE
  5
1AD
330
1F
100
AcDbEntity
  8
0
  6
Continuous
 62
     7
370
    25
100
AcDbSpline
210
0.0
220
0.0
230
1.0
 70
     8
 71
     3
 72
    13
 73
     9
 74
     0
 42
0.000000001
 43
0.00000001
 40
0.0
 40
0.0
 40
0.0
 40
0.0
 40
0.0152643088813779
 40
0.2254855987543279
 40
0.4338504025085163
 40
0.6389768399162363
 40
0.8396840916128615
 40
0.9999999999999999
 40
0.9999999999999999
 40
0.9999999999999999
 40
0.9999999999999999
 10
237.484568054024
 20
57.45950508279157
 30
0.0
 10
237.4393600769064
 20
57.48359040815247
 30
0.0
 10
236.7715442021066
 20
57.83938077196132
 30
0.0
 10
235.5571180732078
 20
58.65277817860726
 30
0.0
 10
233.8824263532312
 20
59.88347897468726
 30
0.0
 10
232.3637959788889
 20
61.20715371461378
 30
0.0
 10
231.0697405972574
 20
62.48801369283216
 30
0.0
 10
230.3549804270245
 20
63.33466720907207
 30
0.0
 10
230.037584097262
 20
63.71063208488134
 30
0.0
  0
LINE
  5
1AE
330
1F
100
AcDbEntity
  8
0
  6
Continuous
 62
     7
370
    25
100
AcDbLine
 10
196.362840526
 20
35.5830135343
 30
0.0
 11
202.1038303818
 21
32.2688106353
 31
0.0
  0
LINE
  5
1AF
330
1F
100
AcDbEntity
  8
0
  6
Continuous
 62
     7
370
    25
100
AcDbLine
 10
223.5675232592
 20
77.6115473471
 30
0.0
 11
221.3608080932
 21
78.8854568965
 31
0.0
  0
SPLINE
  5
1B0
330
1F
100
AcDbEntity
  8
0
  6
Continuous
 62
     7
370
    25
100
AcDbSpline
210
0.0
220
0.0
230
1.0
 70
     8
 71
     3
 72
    10
 73
     6
 74
     0
 42
0.000000001
 43
0.00000001
 40
0.0
 40
0.0
 40
0.0
 40
0.0
 40
0.2877671293385511
 40
0.7914668933538241
 40
1.0
 40
1.0
 40
1.0
 40
1.0
 10
191.3459369386422
 20
50.4847552747221
 30
0.0
 10
191.3018254666381
 20
50.15351156552959
 30
0.0
 10
191.1805024726303
 20
49.24246786828661
 30
0.0
 10
191.12071924747
 20
48.12971858150317
 30
0.0
 10
191.113148524939
 20
47.35733081998889
 30
0.0
 10
191.1109319096241
 20
47.13118509423141
 30
0.0
  0
SPLINE
  5
1B1
330
1F
100
AcDbEntity
  8
0
  6
Continuous
 62
     7
370
    25
100
AcDbSpline
210
0.0
220
0.0
230
1.0
 70
     8
 71
     3
 72
     9
 73
     5
 74
     0
 42
0.000000001
 43
0.00000001
 40
0.0
 40
0.0
 40
0.0
 40
0.0
 40
0.5696751866024141
 40
1.0
 40
1.0
 40
1.0
 40
1.0
 10
209.05302818
 20
77.82315206858017
 30
0.0
 10
208.8240782795748
 20
77.7019957677453
 30
0.0
 10
208.4221827682208
 20
77.48931966093181
 30
0.0
 10
208.0218522140329
 20
77.22208432637899
 30
0.0
 10
207.8495800430047
 20
77.1070863309043
 30
0.0
  0
SPLINE
  5
1B2
330
1F
100
AcDbEntity
  8
0
  6
Continuous
 62
     7
370
    25
100
AcDbSpline
210
0.0
220
0.0
230
1.0
 70
     8
 71
     3
 72
     9
 73
     5
 74
     0
 42
0.000000001
 43
0.00000001
 40
0.0
 40
0.0
 40
0.0
 40
0.0
 40
0.4109279501872297
 40
1.0
 40
1.0
 40
1.0
 40
1.0
 10
191.1109319096241
 20
47.13118509423141
 30
0.0
 10
191.1130354864966
 20
46.84624440575615
 30
0.0
 10
191.1181545757957
 20
46.15283650214327
 30
0.0
 10
191.1783457052722
 20
45.49358849153079
 30
0.0
 10
191.2138026172935
 20
45.10524391458431
 30
0.0
  0
LINE
  5
1B3
330
1F
100
AcDbEntity
  8
0
  6
Continuous
 62
     7
370
    25
100
AcDbLine
 10
209.6287860083
 20
78.0712915843
 30
0.0
 11
200.2934513582
 21
82.722412046
 31
0.0
  0
LINE
  5
1B4
330
1F
100
AcDbEntity
  8
0
  6
Continuous
 62
     7
370
    25
100
AcDbLine
 10
182.5047285705
 20
51.9081020344
 30
0.0
 11
191.1330175682
 21
46.1948075739
 31
0.0
  0
SPLINE
  5
1B5
330
1F
100
AcDbEntity
  8
0
  6
Continuous
 62
     7
370
    25
100
AcDbSpline
210
0.0
220
0.0
230
1.0
 70
     8
 71
     3
 72
    16
 73
    12
 74
     0
 42
0.000000001
 43
0.00000001
 40
0.0
 40
0.0
 40
0.0
 40
0.0
 40
0.0971656734455942
 40
0.2131779287649248
 40
0.3296433152073902
 40
0.4464738129161343
 40
0.5635598639128654
 40
0.6807997869914676
 40
0.7981140088502072
 40
0.9154425780649189
 40
1.0
 40
1.0
 40
1.0
 40
1.0
 10
209.8741722043489
 20
28.81680679159095
 30
0.0
 10
210.2233457640767
 20
28.79211625059767
 30
0.0
 10
210.9894197653436
 20
28.7379461079703
 30
0.0
 10
212.2291596700152
 20
28.8298591097008
 30
0.0
 10
213.573573640413
 20
29.05682280190704
 30
0.0
 10
214.9515729768142
 20
29.43170118483967
 30
0.0
 10
216.3522093284807
 20
29.94742963994882
 30
0.0
 10
217.7668849729938
 20
30.60054919838374
 30
0.0
 10
219.185326900509
 20
31.39148155497181
 30
0.0
 10
220.4697813198483
 20
32.21115177878276
 30
0.0
 10
221.270900993194
 20
32.81854501247872
 30
0.0
 10
221.6064399469064
 20
33.0729440703313
 30
0.0
  0
LINE
  5
1B6
330
1F
100
AcDbEntity
  8
0
  6
Continuous
 62
     7
370
    25
100
AcDbLine
 10
204.410433229
 20
30.937237155
 30
0.0
 11
206.0678810957
 21
29.9804128681
 31
0.0
  0
SPLINE
  5
1B7
330
1F
100
AcDbEntity
  8
0
  6
Continuous
 62
     7
370
    25
100
AcDbSpline
210
0.0
220
0.0
230
1.0
 70
     8
 71
     3
 72
    10
 73
     6
 74
     0
 42
0.000000001
 43
0.00000001
 40
0.0
 40
0.0
 40
0.0
 40
0.0
 40
0.028148475011432
 40
0.6719752357242176
 40
1.0
 40
1.0
 40
1.0
 40
1.0
 10
233.6778936724785
 20
70.98442402064202
 30
0.0
 10
233.6675437375986
 20
70.99941901982346
 30
0.0
 10
233.4204646355233
 20
71.357387545846
 30
0.0
 10
232.9863875284125
 20
71.81254152567914
 30
0.0
 10
232.533031147778
 20
72.20643012404341
 30
0.0
 10
232.3800117656328
 20
72.33937760759123
 30
0.0
  0
SPLINE
  5
1B8
330
1F
100
AcDbEntity
  8
0
  6
Continuous
 62
     7
370
    25
100
AcDbSpline
210
0.0
220
0.0
230
1.0
 70
     8
 71
     3
 72
    12
 73
     8
 74
     0
 42
0.000000001
 43
0.00000001
 40
0.0
 40
0.0
 40
0.0
 40
0.0
 40
0.1180490526010331
 40
0.3415715706442001
 40
0.5648880326714045
 40
0.7876618717436215
 40
0.9999999999999999
 40
0.9999999999999999
 40
0.9999999999999999
 40
0.9999999999999999
 10
236.0420249921989
 20
65.47452653043487
 30
0.0
 10
235.9893533380493
 20
65.72783865931895
 30
0.0
 10
235.8369494073113
 20
66.46079008772709
 30
0.0
 10
235.4993204913954
 20
67.60511330601868
 30
0.0
 10
234.9921850914319
 20
68.86410517460124
 30
0.0
 10
234.3936897168489
 20
70.00521338452599
 30
0.0
 10
233.9126465797857
 20
70.6632815031577
 30
0.0
 10
233.6778936724785
 20
70.98442402064202
 30
0.0
  0
SPLINE
  5
1B9
330
1F
100
AcDbEntity
  8
0
  6
Continuous
 62
     7
370
    25
100
AcDbSpline
210
0.0
220
0.0
230
1.0
 70
     8
 71
     3
 72
    28
 73
    24
 74
     0
 42
0.000000001
 43
0.00000001
 40
0.0
 40
0.0
 40
0.0
 40
0.0
 40
0.0173646859913571
 40
0.0666529697132405
 40
0.116022427525708
 40
0.1657775298981347
 40
0.2161025423756545
 40
0.2670303082661907
 40
0.3184683026004565
 40
0.3702610478330405
 40
0.4222524658896515
 40
0.4743219123752864
 40
0.5263766481100202
 40
0.5783840758737929
 40
0.6303339792540638
 40
0.6822286908839886
 40
0.734077400466319
 40
0.7858927912084067
 40
0.8376893382521449
 40
0.8894823799690259
 40
0.9412855244705658
 40
0.9931116107064701
 40
1.0
 40
1.0
 40
1.0
 40
1.0
 10
200.4592774750839
 20
82.61633377362313
 30
0.0
 10
200.355975326944
 20
82.67723642268356
 30
0.0
 10
199.9594582258167
 20
82.9110064099614
 30
0.0
 10
199.1922956541801
 20
83.17435578312562
 30
0.0
 10
198.1721118213615
 20
83.40175501354574
 30
0.0
 10
197.0932646903797
 20
83.47543722141283
 30
0.0
 10
195.9689760404841
 20
83.4064256572678
 30
0.0
 10
194.8053533176793
 20
83.19072536512991
 30
0.0
 10
193.6127743641055
 20
82.8297967176717
 30
0.0
 10
192.4024903294113
 20
82.32608210671066
 30
0.0
 10
191.1865418175801
 20
81.68454296556611
 30
0.0
 10
189.9768329724303
 20
80.91195686717941
 30
0.0
 10
188.7846296144941
 20
80.01643878451969
 30
0.0
 10
187.6204474250502
 20
79.00700104284289
 30
0.0
 10
186.494090372758
 20
77.89321352766653
 30
0.0
 10
185.4148905565479
 20
76.68528628471056
 30
0.0
 10
184.3918540597084
 20
75.39402517019519
 30
0.0
 10
183.4332924364558
 20
74.03080496400128
 30
0.0
 10
182.5480567843167
 20
72.6074654476194
 30
0.0
 10
181.7407314144662
 20
71.13640947227887
 30
0.0
 10
181.0293564522383
 20
69.62992824118369
 30
0.0
 10
180.5670709582804
 20
68.54416760180995
 30
0.0
 10
180.3687989182334
 20
67.96471931022515
 30
0.0
 10
180.3455376187744
 20
67.89673836733303
 30
0.0
  0
LINE
  5
1BA
330
1F
100
AcDbEntity
  8
0
  6
Continuous
 62
     7
370
    25
100
AcDbLine
 10
180.7294387739
 20
65.5639237142
 30
0.0
 11
184.5093248819
 21
63.3818419109
 31
0.0
  0
LINE
  5
1BB
330
1F
100
AcDbEntity
  8
0
  6
Continuous
 62
     7
370
    25
100
AcDbLine
 10
180.2239999371
 20
67.3335705959
 30
0.0
 11
180.2239999371
 21
66.6810656528
 31
0.0
  0
LINE
  5
1BC
330
1F
100
AcDbEntity
  8
0
  6
Continuous
 62
     7
370
    25
100
AcDbLine
 10
180.2239999371
 20
55.1752777239
 30
0.0
 11
180.2239999371
 21
54.5227727808
 31
0.0
  0
SPLINE
  5
1BD
330
1F
100
AcDbEntity
  8
0
  6
Continuous
 62
     7
370
    25
100
AcDbSpline
210
0.0
220
0.0
230
1.0
 70
     8
 71
     3
 72
    10
 73
     6
 74
     0
 42
0.000000001
 43
0.00000001
 40
0.0
 40
0.0
 40
0.0
 40
0.0
 40
0.3295006286484303
 40
0.6892241807213073
 40
1.0
 40
1.0
 40
1.0
 40
1.0
 10
180.3562356743065
 20
54.18722907929148
 30
0.0
 10
180.5389907932385
 20
53.90583561061884
 30
0.0
 10
180.9212639550081
 20
53.31723830292403
 30
0.0
 10
181.5955912058095
 20
52.5885472013204
 30
0.0
 10
182.1183729825418
 20
52.19799630662892
 30
0.0
 10
182.360681837568
 20
52.01697633934229
 30
0.0
  0
SPLINE
  5
1BE
330
1F
100
AcDbEntity
  8
0
  6
Continuous
 62
     7
370
    25
100
AcDbSpline
210
0.0
220
0.0
230
1.0
 70
     8
 71
     3
 72
     9
 73
     5
 74
     0
 42
0.000000001
 43
0.00000001
 40
0.0
 40
0.0
 40
0.0
 40
0.0
 40
0.3544518289669109
 40
1.0
 40
1.0
 40
1.0
 40
1.0
 10
180.2702666400565
 20
54.32299535235902
 30
0.0
 10
180.279208135559
 20
54.30576332015016
 30
0.0
 10
180.3044343998123
 20
54.25714731424868
 30
0.0
 10
180.3359140461734
 20
54.21465798686952
 30
0.0
 10
180.3562356743065
 20
54.18722907929148
 30
0.0
  0
LWPOLYLINE
  5
1BF
330
1F
100
AcDbEntity
  8
0
  6
Continuous
 62
     7
370
    25
100
AcDbPolyline
 90
       10
 70
   128
 43
0.0
 10
271.108650105
 20
29.093924701
 10
271.1728364625
 20
29.2771860524
 10
271.4853876129
 20
29.9543852415
 10
271.8951030542
 20
30.5823115766
 10
272.376239623
 20
31.1215106662
 10
272.8985648581
 20
31.5381017823
 10
273.4292595353
 20
31.8059096396
 10
273.9349775949
 20
31.9081062321
 10
274.3839436059
 20
31.8382707212
 10
274.5316413097
 20
31.7683535924
  0
LWPOLYLINE
  5
1C0
330
1F
100
AcDbEntity
  8
0
  6
Continuous
 62
     7
370
    25
100
AcDbPolyline
 90
       14
 70
   128
 43
0.0
 10
274.2338455075
 20
27.2924678128
 10
274.3030822429
 20
27.7601417641
 10
274.5014411171
 20
28.2445924338
 10
274.802133198
 20
28.6803924411
 10
275.1645473629
 20
29.0086841054
 10
275.5397386083
 20
29.1851301886
 10
275.8770345686
 20
29.1859004472
 10
276.130882403
 20
29.0108912649
 10
276.2669976259
 20
28.6837380747
 10
276.2669976259
 20
28.2486250204
 10
276.130882403
 20
27.764316539
 10
275.8770345686
 20
27.2962208856
 10
275.5397386083
 20
26.9075575178
 10
275.2569938409
 20
26.6991371777
  0
SPLINE
  5
1C1
330
1F
100
AcDbEntity
  8
0
  6
Continuous
 62
     7
370
    25
100
AcDbSpline
210
0.0
220
0.0
230
1.0
 70
     8
 71
     3
 72
     9
 73
     5
 74
     0
 42
0.000000001
 43
0.00000001
 40
0.0
 40
0.0
 40
0.0
 40
0.0
 40
0.8709499822299301
 40
1.0
 40
1.0
 40
1.0
 40
1.0
 10
274.2596426715226
 20
27.28279252809105
 30
0.0
 10
274.2444133667804
 20
27.33716545645643
 30
0.0
 10
274.226927512193
 20
27.39959490645327
 30
0.0
 10
274.235904072204
 20
27.44740528032111
 30
0.0
 10
274.2370624974329
 20
27.45357520991836
 30
0.0
  0
SPLINE
  5
1C2
330
1F
100
AcDbEntity
  8
0
  6
Continuous
 62
     7
370
    25
100
AcDbSpline
210
0.0
220
0.0
230
1.0
 70
     8
 71
     3
 72
    10
 73
     6
 74
     0
 42
0.000000001
 43
0.00000001
 40
0.0
 40
0.0
 40
0.0
 40
0.0
 40
0.4391253862650267
 40
0.7513738763982162
 40
1.0
 40
1.0
 40
1.0
 40
1.0
 10
276.1383502976968
 20
27.80803496905358
 30
0.0
 10
275.9512749829033
 20
27.68557128853945
 30
0.0
 10
275.6311761936931
 20
27.47602746979431
 30
0.0
 10
275.362481697944
 20
27.05791536442598
 30
0.0
 10
275.2876421134342
 20
26.81581248256786
 30
0.0
 10
275.2544670056062
 20
26.70849241573801
 30
0.0
  0
SPLINE
  5
1C3
330
1F
100
AcDbEntity
  8
0
  6
Continuous
 62
     7
370
    25
100
AcDbSpline
210
0.0
220
0.0
230
1.0
 70
     8
 71
     3
 72
    11
 73
     7
 74
     0
 42
0.000000001
 43
0.00000001
 40
0.0
 40
0.0
 40
0.0
 40
0.0
 40
0.1842418236192068
 40
0.5169669991724968
 40
0.8653137193233298
 40
0.9999999999999999
 40
0.9999999999999999
 40
0.9999999999999999
 40
0.9999999999999999
 10
276.1383502976968
 20
28.98661014880135
 30
0.0
 10
276.1108681143583
 20
28.93412933648555
 30
0.0
 10
276.0337554285837
 20
28.78687260875631
 30
0.0
 10
275.9762893746135
 20
28.46288988311312
 30
0.0
 10
276.0449080579567
 20
28.0901774729266
 30
0.0
 10
276.1179763380269
 20
27.86955275812912
 30
0.0
 10
276.1383502976968
 20
27.80803496905359
 30
0.0
  0
SPLINE
  5
1C4
330
1F
100
AcDbEntity
  8
0
  6
Continuous
 62
     7
370
    25
100
AcDbSpline
210
0.0
220
0.0
230
1.0
 70
     8
 71
     3
 72
    10
 73
     6
 74
     0
 42
0.000000001
 43
0.00000001
 40
0.0
 40
0.0
 40
0.0
 40
0.0
 40
0.439125404033696
 40
0.7513739128717637
 40
1.0
 40
1.0
 40
1.0
 40
1.0
 10
275.2544670056061
 20
29.06564277523353
 30
0.0
 10
275.3204665600867
 20
29.08927609628043
 30
0.0
 10
275.4333963588239
 20
29.12971434181588
 30
0.0
 10
275.7941789460906
 20
29.07499154589039
 30
0.0
 10
276.0326431893046
 20
29.0137551795494
 30
0.0
 10
276.1383502976968
 20
28.98661014880135
 30
0.0
  0
SPLINE
  5
1C5
330
1F
100
AcDbEntity
  8
0
  6
Continuous
 62
     7
370
    25
100
AcDbSpline
210
0.0
220
0.0
230
1.0
 70
     8
 71
     3
 72
     9
 73
     5
 74
     0
 42
0.000000001
 43
0.00000001
 40
0.0
 40
0.0
 40
0.0
 40
0.0
 40
0.3723147224654108
 40
1.0
 40
1.0
 40
1.0
 40
1.0
 10
274.2965231396032
 20
27.68507194574769
 30
0.0
 10
274.3581053098331
 20
27.79719934288541
 30
0.0
 10
274.5235088421514
 20
28.09836228480518
 30
0.0
 10
274.8087287815794
 20
28.32807252539686
 30
0.0
 10
274.9877571384177
 20
28.47225826151516
 30
0.0
  0
SPLINE
  5
1C6
330
1F
100
AcDbEntity
  8
0
  6
Continuous
 62
     7
370
    25
100
AcDbSpline
210
0.0
220
0.0
230
1.0
 70
     8
 71
     3
 72
     9
 73
     5
 74
     0
 42
0.000000001
 43
0.00000001
 40
0.0
 40
0.0
 40
0.0
 40
0.0
 40
0.4011294918046385
 40
1.0
 40
1.0
 40
1.0
 40
1.0
 10
274.9877571384177
 20
28.47225826151516
 30
0.0
 10
274.9764754544831
 20
28.52026598730856
 30
0.0
 10
274.9483506614549
 20
28.63994735398498
 30
0.0
 10
274.9449858999507
 20
28.75050035950495
 30
0.0
 10
274.9429708435188
 20
28.81670729410321
 30
0.0
  0
LINE
  5
1C7
330
1F
100
AcDbEntity
  8
0
  6
Continuous
 62
     7
370
    25
100
AcDbLine
 10
274.2338547271
 20
27.2976793429
 30
0.0
 11
275.2544670056
 21
26.7084924157
 31
0.0
  0
LINE
  5
1C8
330
1F
100
AcDbEntity
  8
0
  6
Continuous
 62
     7
370
    25
100
AcDbLine
 10
274.9877571384
 20
28.4722582615
 30
0.0
 11
276.1383502977
 21
27.8080349691
 31
0.0
  0
LINE
  5
1C9
330
1F
100
AcDbEntity
  8
0
  6
Continuous
 62
     7
370
    25
100
AcDbLine
 10
260.9699458143
 20
21.6340508945
 30
0.0
 11
261.0259049753
 21
21.6040708581
 31
0.0
  0
LWPOLYLINE
  5
1CA
330
1F
100
AcDbEntity
  8
0
  6
Continuous
 62
     7
370
    25
100
AcDbPolyline
 90
       10
 70
   128
 43
0.0
 10
255.4190544002
 20
19.6041761955
 10
255.6132130774
 20
20.2879032804
 10
255.9243806258
 20
20.9654608724
 10
256.3330048588
 20
21.5942755306
 10
256.8134111018
 20
22.1348366778
 10
257.33541365
 20
22.5531791702
 10
257.8662130358
 20
22.823016503
 10
258.372456614
 20
22.9273938636
 10
258.8223360262
 20
22.8597531531
 10
258.9752922078
 20
22.787864411
  0
ARC
  5
1CB
330
1F
100
AcDbEntity
  8
0
  6
Continuous
 62
     7
370
    25
100
AcDbCircle
 10
257.1057573917
 20
18.9873112532
 30
0.0
 40
1.795964737613053
100
AcDbArc
 50
159.9114055706
 51
231.0006651228
  0
LWPOLYLINE
  5
1CC
330
1F
100
AcDbEntity
  8
0
  6
Continuous
 62
     7
370
    25
100
AcDbPolyline
 90
       18
 70
   128
 43
0.0
 10
258.7088944908
 20
18.6208629977
 10
258.8669682217
 20
19.1070896824
 10
259.137925701
 20
19.5658709592
 10
259.4851729273
 20
19.9352459631
 10
259.8618116536
 20
20.1653284039
 10
260.216975902
 20
20.2250449322
 10
260.5026979491
 20
20.1063299694
 10
260.6803890625
 20
19.8252165297
 10
260.7260518801
 20
19.4196709487
 10
260.6335191327
 20
18.9444642378
 10
260.415287361
 20
18.4637754466
 10
260.1008310413
 20
18.0425248612
 10
259.732618392
 20
17.7376041915
 10
259.3603787431
 20
17.590194776
 10
259.0343853822
 20
17.6202051886
 10
258.7986646439
 20
17.8235819283
 10
258.6850532039
 20
18.1728585202
 10
258.7088944908
 20
18.6208629977
  0
SPLINE
  5
1CD
330
1F
100
AcDbEntity
  8
0
  6
Continuous
 62
     7
370
    25
100
AcDbSpline
210
0.0
220
0.0
230
1.0
 70
     8
 71
     3
 72
     9
 73
     5
 74
     0
 42
0.000000001
 43
0.00000001
 40
0.0
 40
0.0
 40
0.0
 40
0.0
 40
0.4733832822123576
 40
1.0
 40
1.0
 40
1.0
 40
1.0
 10
258.715981088203
 20
18.01901493805576
 30
0.0
 10
258.7047061495362
 20
18.085531084701
 30
0.0
 10
258.6808883699685
 20
18.22604332741135
 30
0.0
 10
258.6895552580281
 20
18.36164361756855
 30
0.0
 10
258.6941193861716
 20
18.43305299730218
 30
0.0
  0
SPLINE
  5
1CE
330
1F
100
AcDbEntity
  8
0
  6
Continuous
 62
     7
370
    25
100
AcDbSpline
210
0.0
220
0.0
230
1.0
 70
     8
 71
     3
 72
    10
 73
     6
 74
     0
 42
0.000000001
 43
0.00000001
 40
0.0
 40
0.0
 40
0.0
 40
0.0
 40
0.439125512537528
 40
0.7513736947564071
 40
1.0
 40
1.0
 40
1.0
 40
1.0
 10
259.4474771811466
 20
17.61940270865927
 30
0.0
 10
259.2822176627124
 20
17.71155933011475
 30
0.0
 10
258.999447358063
 20
17.86924559334076
 30
0.0
 10
258.785016217104
 20
17.98496141746271
 30
0.0
 10
258.737184216335
 20
18.00855589826002
 30
0.0
 10
258.715981088203
 20
18.01901493805576
 30
0.0
  0
SPLINE
  5
1CF
330
1F
100
AcDbEntity
  8
0
  6
Continuous
 62
     7
370
    25
100
AcDbSpline
210
0.0
220
0.0
230
1.0
 70
     8
 71
     3
 72
    10
 73
     6
 74
     0
 42
0.000000001
 43
0.00000001
 40
0.0
 40
0.0
 40
0.0
 40
0.0
 40
0.4391251505764877
 40
0.7513738854327976
 40
1.0
 40
1.0
 40
1.0
 40
1.0
 10
260.4296139967393
 20
18.50696618470124
 30
0.0
 10
260.2284727193035
 20
18.41484962517186
 30
0.0
 10
259.8843059072921
 20
18.2572317407136
 30
0.0
 10
259.5806247736576
 20
17.91460241144243
 30
0.0
 10
259.4883714728924
 20
17.71006888249871
 30
0.0
 10
259.4474771811466
 20
17.61940270865928
 30
0.0
  0
SPLINE
  5
1D0
330
1F
100
AcDbEntity
  8
0
  6
Continuous
 62
     7
370
    25
100
AcDbSpline
210
0.0
220
0.0
230
1.0
 70
     8
 71
     3
 72
    11
 73
     7
 74
     0
 42
0.000000001
 43
0.00000001
 40
0.0
 40
0.0
 40
0.0
 40
0.0
 40
0.1842417958263771
 40
0.5169669638998667
 40
0.8653137562129742
 40
1.0
 40
1.0
 40
1.0
 40
1.0
 10
260.6802547193885
 20
19.79414189013966
 30
0.0
 10
260.6382378275607
 20
19.73536331946719
 30
0.0
 10
260.520341967377
 20
19.57043559996345
 30
0.0
 10
260.3869216596012
 20
19.21354245751325
 30
0.0
 10
260.3847012869249
 20
18.81013618626297
 30
0.0
 10
260.4198213216842
 20
18.57306874952116
 30
0.0
 10
260.4296139967393
 20
18.50696618470124
 30
0.0
  0
SPLINE
  5
1D1
330
1F
100
AcDbEntity
  8
0
  6
Continuous
 62
     7
370
    25
100
AcDbSpline
210
0.0
220
0.0
230
1.0
 70
     8
 71
     3
 72
    10
 73
     6
 74
     0
 42
0.000000001
 43
0.00000001
 40
0.0
 40
0.0
 40
0.0
 40
0.0
 40
0.4391257513844082
 40
0.7513738006332454
 40
1.0
 40
1.0
 40
1.0
 40
1.0
 10
259.9487579679005
 20
20.19375373936649
 30
0.0
 10
259.9929419262724
 20
20.17149288195102
 30
0.0
 10
260.0685436613658
 20
20.13340305235463
 30
0.0
 10
260.3750631170914
 20
19.96452561839447
 30
0.0
 10
260.5865195913266
 20
19.84647275529918
 30
0.0
 10
260.6802547193885
 20
19.79414189013966
 30
0.0
  0
SPLINE
  5
1D2
330
1F
100
AcDbEntity
  8
0
  6
Continuous
 62
     7
370
    25
100
AcDbSpline
210
0.0
220
0.0
230
1.0
 70
     8
 71
     3
 72
     9
 73
     5
 74
     0
 42
0.000000001
 43
0.00000001
 40
0.0
 40
0.0
 40
0.0
 40
0.0
 40
0.0552313341205645
 40
1.0
 40
1.0
 40
1.0
 40
1.0
 10
259.598686244169
 20
20.02474771821434
 30
0.0
 10
259.6041429757656
 20
20.02889374215322
 30
0.0
 10
259.7029407267804
 20
20.10396026018867
 30
0.0
 10
259.8293399460978
 20
20.15013206496587
 30
0.0
 10
259.9487579679005
 20
20.19375373936649
 30
0.0
  0
LINE
  5
1D3
330
1F
100
AcDbEntity
  8
0
  6
Continuous
 62
     7
370
    25
100
AcDbLine
 10
258.7126942926
 20
18.0435838413
 30
0.0
 11
259.4474771811
 21
17.6194027087
 31
0.0
  0
LINE
  5
1D4
330
1F
100
AcDbEntity
  8
0
  6
Continuous
 62
     7
370
    25
100
AcDbLine
 10
258.7801681043
 20
18.8330630752
 30
0.0
 11
259.2790208375
 21
19.1711894772
 31
0.0
  0
SPLINE
  5
1D5
330
1F
100
AcDbEntity
  8
0
  6
Continuous
 62
     7
370
    25
100
AcDbSpline
210
0.0
220
0.0
230
1.0
 70
     8
 71
     3
 72
     9
 73
     5
 74
     0
 42
0.000000001
 43
0.00000001
 40
0.0
 40
0.0
 40
0.0
 40
0.0
 40
0.2500066729994196
 40
1.0
 40
1.0
 40
1.0
 40
1.0
 10
259.2790208374601
 20
19.17118947716281
 30
0.0
 10
259.2770862773073
 20
19.22284604667491
 30
0.0
 10
259.2693482432399
 20
19.4294668096023
 30
0.0
 10
259.3031004099399
 20
19.6222038873407
 30
0.0
 10
259.3284143097368
 20
19.76675540951009
 30
0.0
  0
LINE
  5
1D6
330
1F
100
AcDbEntity
  8
0
  6
Continuous
 62
     7
370
    25
100
AcDbLine
 10
259.2790208375
 20
19.1711894772
 30
0.0
 11
260.4296139967
 21
18.5069661847
 31
0.0
  0
LINE
  5
1D7
330
1F
100
AcDbEntity
  8
0
  6
Continuous
 62
     7
370
    25
100
AcDbLine
 10
276.2266709944
 20
13.1493252105
 30
0.0
 11
276.0345060606
 21
13.2810672019
 31
0.0
  0
LWPOLYLINE
  5
1D8
330
1F
100
AcDbEntity
  8
0
  6
Continuous
 62
     7
370
    25
100
AcDbPolyline
 90
        3
 70
   128
 43
0.0
 10
280.7263054199
 20
20.9437651222
 10
280.8194623028
 20
20.8853373365
 10
280.8777874496
 20
20.8436595429
  0
LWPOLYLINE
  5
1D9
330
1F
100
AcDbEntity
  8
0
  6
Continuous
 62
     7
370
    25
100
AcDbPolyline
 90
       17
 70
   128
 43
0.0
 10
276.6957970284
 20
23.27052809
 10
276.3075942606
 20
23.4279533384
 10
275.7500201015
 20
23.4778091325
 10
275.1390583154
 20
23.3596256507
 10
274.4997218117
 20
23.0782422645
 10
273.8581850903
 20
22.6451782854
 10
273.2407128096
 20
22.0781636808
 10
272.6725841577
 20
21.4004116623
 10
272.1770587207
 20
20.6396701699
 10
271.7744231268
 20
19.8270834836
 10
271.4811614036
 20
18.9959191676
 10
271.3092796406
 20
18.1802052412
 10
271.2658147153
 20
17.4133370571
 10
271.3525460148
 20
16.7267102538
 10
271.5659229964
 20
16.1484355803
 10
271.8972099027
 20
15.7021874939
 10
272.1961626029
 20
15.4760881784
  0
LINE
  5
1DA
330
1F
100
AcDbEntity
  8
0
  6
Continuous
 62
     7
370
    25
100
AcDbLine
 10
280.4767149111
 20
16.7642022474
 30
0.0
 11
280.4767149111
 21
19.1484596869
 31
0.0
  0
LINE
  5
1DB
330
1F
100
AcDbEntity
  8
0
  6
Continuous
 62
     7
370
    25
100
AcDbLine
 10
280.4767149111
 20
19.1484596869
 30
0.0
 11
278.6886185641
 21
19.3083423575
 31
0.0
  0
LINE
  5
1DC
330
1F
100
AcDbEntity
  8
0
  6
Continuous
 62
     7
370
    25
100
AcDbLine
 10
276.900522217
 20
17.0839675885
 30
0.0
 11
278.6886185641
 21
19.3083423575
 31
0.0
  0
LINE
  5
1DD
330
1F
100
AcDbEntity
  8
0
  6
Continuous
 62
     7
370
    25
100
AcDbLine
 10
276.900522217
 20
14.699710149
 30
0.0
 11
276.900522217
 21
17.0839675885
 31
0.0
  0
LINE
  5
1DE
330
1F
100
AcDbEntity
  8
0
  6
Continuous
 62
     7
370
    25
100
AcDbLine
 10
276.900522217
 20
14.699710149
 30
0.0
 11
278.6886185641
 21
14.5398274785
 31
0.0
  0
LINE
  5
1DF
330
1F
100
AcDbEntity
  8
0
  6
Continuous
 62
     7
370
    25
100
AcDbLine
 10
280.4767149111
 20
16.7642022474
 30
0.0
 11
278.6886185641
 21
14.5398274785
 31
0.0
  0
ARC
  5
1E0
330
1F
100
AcDbEntity
  8
0
  6
Continuous
 62
     7
370
    25
100
AcDbCircle
 10
274.3587023492
 20
19.4274158651
 30
0.0
 40
4.016582236069221
100
AcDbArc
 50
320.5752194831
 51
352.0264209578
  0
ARC
  5
1E1
330
1F
100
AcDbEntity
  8
0
  6
Continuous
 62
     7
370
    25
100
AcDbCircle
 10
274.6482778265
 20
19.1119305667
 30
0.0
 40
3.593041167567696
100
AcDbArc
 50
308.8170289619
 51
321.5288581364
  0
LINE
  5
1E2
330
1F
100
AcDbEntity
  8
0
  6
Continuous
 62
     7
370
    25
100
AcDbLine
 10
276.9005227109
 20
15.5720732425
 30
0.0
 11
278.6886185641
 21
14.5398274785
 31
0.0
  0
LINE
  5
1E3
330
1F
100
AcDbEntity
  8
0
  6
Continuous
 62
     7
370
    25
100
AcDbLine
 10
278.3553955369
 20
17.9888138555
 30
0.0
 11
280.4767149111
 21
16.7642022474
 31
0.0
  0
LINE
  5
1E4
330
1F
100
AcDbEntity
  8
0
  6
Continuous
 62
     7
370
    25
100
AcDbLine
 10
278.3553955369
 20
17.9888138555
 30
0.0
 11
278.3553955369
 21
18.89381434
 31
0.0
  0
LINE
  5
1E5
330
1F
100
AcDbEntity
  8
0
  6
Continuous
 62
     7
370
    25
100
AcDbLine
 10
277.4613473634
 20
16.8766264235
 30
0.0
 11
276.9005232666
 21
16.1789665003
 31
0.0
  0
LINE
  5
1E6
330
1F
100
AcDbEntity
  8
0
  6
Continuous
 62
     7
370
    25
100
AcDbLine
 10
278.3553955369
 20
17.9888138555
 30
0.0
 11
277.4613473634
 21
16.8766264235
 31
0.0
  0
ARC
  5
1E7
330
1F
100
AcDbEntity
  8
0
  6
Continuous
 62
     7
370
    25
100
AcDbCircle
 10
269.6115522129
 20
32.8816125926
 30
0.0
 40
5.202964868998238
100
AcDbArc
 50
26.3223805388
 51
93.5116871928
  0
ARC
  5
1E8
330
1F
100
AcDbEntity
  8
0
  6
Continuous
 62
     7
370
    25
100
AcDbCircle
 10
260.3224748855
 20
16.791520705
 30
0.0
 40
5.189705811513622
100
AcDbArc
 50
206.5473979359
 51
273.4061053759
  0
SPLINE
  5
1E9
330
1F
100
AcDbEntity
  8
0
  6
Continuous
 62
     7
370
    25
100
AcDbSpline
210
0.0
220
0.0
230
1.0
 70
    11
 71
     3
 72
    84
 73
    80
 74
     0
 42
0.000000001
 43
0.00000001
 40
0.0
 40
0.0
 40
0.0
 40
0.0
 40
0.0312499999999985
 40
0.0312499999999985
 40
0.0468749999999977
 40
0.0468749999999977
 40
0.062499999999997
 40
0.062499999999997
 40
0.0937499999999955
 40
0.0937499999999955
 40
0.124999999999994
 40
0.124999999999994
 40
0.1562499999999925
 40
0.1562499999999925
 40
0.1718749999999917
 40
0.1718749999999917
 40
0.187499999999991
 40
0.187499999999991
 40
0.2187499999999904
 40
0.2187499999999904
 40
0.2499999999999898
 40
0.2499999999999898
 40
0.2656249999999895
 40
0.2656249999999895
 40
0.2812499999999892
 40
0.2812499999999892
 40
0.3124999999999886
 40
0.3124999999999886
 40
0.3281249999999888
 40
0.3281249999999888
 40
0.343749999999989
 40
0.343749999999989
 40
0.3749999999999893
 40
0.3749999999999893
 40
0.4062499999999897
 40
0.4062499999999897
 40
0.4374999999999901
 40
0.4374999999999901
 40
0.4687499999999905
 40
0.4687499999999905
 40
0.4999999999999909
 40
0.4999999999999909
 40
0.5312499999999912
 40
0.5312499999999912
 40
0.5624999999999917
 40
0.5624999999999917
 40
0.593749999999992
 40
0.593749999999992
 40
0.6249999999999923
 40
0.6249999999999923
 40
0.6406249999999934
 40
0.6406249999999934
 40
0.6562499999999944
 40
0.6562499999999944
 40
0.6874999999999964
 40
0.6874999999999964
 40
0.7187499999999986
 40
0.7187499999999986
 40
0.7500000000000006
 40
0.7500000000000006
 40
0.7812500000000026
 40
0.7812500000000026
 40
0.7968750000000034
 40
0.7968750000000034
 40
0.8125000000000042
 40
0.8125000000000042
 40
0.8437500000000057
 40
0.8437500000000057
 40
0.8593750000000058
 40
0.8593750000000058
 40
0.8750000000000059
 40
0.8750000000000059
 40
0.9062500000000046
 40
0.9062500000000046
 40
0.937500000000003
 40
0.937500000000003
 40
0.9687500000000016
 40
0.9687500000000016
 40
1.0
 40
1.0
 40
1.0
 40
1.0
 10
262.8424727490956
 20
39.9354691879351
 30
0.0
 10
262.7117825374883
 20
40.01091504118588
 30
0.0
 10
262.5711132833831
 20
40.08090289495891
 30
0.0
 10
262.3456824691772
 20
40.17777729207552
 30
0.0
 10
262.2681165728373
 20
40.20870345694986
 30
0.0
 10
262.1080172050479
 20
40.26766618438491
 30
0.0
 10
262.0250542861526
 20
40.29582256039291
 30
0.0
 10
261.7732394985096
 20
40.37407627218514
 30
0.0
 10
261.6006561416866
 20
40.41843350993632
 30
0.0
 10
261.2459635976779
 20
40.49026510802537
 30
0.0
 10
261.0618970342826
 20
40.5178136004949
 30
0.0
 10
260.6979830184632
 20
40.55147633634755
 30
0.0
 10
260.517108339655
 20
40.55801407140293
 30
0.0
 10
260.24733076917
 20
40.55076151040289
 30
0.0
 10
260.1571309623599
 20
40.54541943178329
 30
0.0
 10
259.98051887101
 20
40.52883314302895
 30
0.0
 10
259.8940582358358
 20
40.51763286439856
 30
0.0
 10
259.6400902195757
 20
40.47523341334394
 30
0.0
 10
259.4779385665456
 20
40.43531769114782
 30
0.0
 10
259.1686586980854
 20
40.32995251755194
 30
0.0
 10
259.0265042144633
 20
40.2661165066781
 30
0.0
 10
258.8328269587686
 20
40.15462846346741
 30
0.0
 10
258.771461471429
 20
40.11479730926349
 30
0.0
 10
258.655280095713
 20
40.0296833245369
 30
0.0
 10
258.6004909711251
 20
39.98433648526483
 30
0.0
 10
258.4498498847482
 20
39.84339862146174
 30
0.0
 10
258.3661274621747
 20
39.74195697284959
 30
0.0
 10
258.2653655119515
 20
39.57934151834878
 30
0.0
 10
258.2358435276477
 20
39.52307692286131
 30
0.0
 10
258.1863636028999
 20
39.40937466591863
 30
0.0
 10
258.1662598798798
 20
39.35179463898797
 30
0.0
 10
258.1194356810768
 20
39.1771847250884
 30
0.0
 10
258.1061054293833
 20
39.05770123828295
 30
0.0
 10
258.1159842187774
 20
38.81768999375462
 30
0.0
 10
258.1388974005012
 20
38.69978336860815
 30
0.0
 10
258.2189352563222
 20
38.46938627841239
 30
0.0
 10
258.2769811668054
 20
38.35585138609368
 30
0.0
 10
258.4235864662789
 20
38.14336070007636
 30
0.0
 10
258.5119695810598
 20
38.04379634182521
 30
0.0
 10
258.7186562887887
 20
37.85874292479391
 30
0.0
 10
258.8373647132411
 20
37.77346745665682
 30
0.0
 10
259.0952247191173
 20
37.62443928209129
 30
0.0
 10
259.2354013940848
 20
37.55963419721407
 30
0.0
 10
259.5390186568149
 20
37.44979880205426
 30
0.0
 10
259.699798895325
 20
37.4059131209558
 30
0.0
 10
260.0326865568701
 20
37.34062020318474
 30
0.0
 10
260.2066733693752
 20
37.31881056815209
 30
0.0
 10
260.5649233617233
 20
37.29743107562361
 30
0.0
 10
260.7451518876341
 20
37.2979709543032
 30
0.0
 10
261.0172573770166
 20
37.31424672671445
 30
0.0
 10
261.108255005487
 20
37.32226806559027
 30
0.0
 10
261.2908868667814
 20
37.34349357669905
 30
0.0
 10
261.3826477944203
 20
37.35675401938727
 30
0.0
 10
261.6525495845755
 20
37.40321742696581
 30
0.0
 10
261.8274904960028
 20
37.44322838707016
 30
0.0
 10
262.1674036061783
 20
37.54015980287634
 30
0.0
 10
262.3330586070794
 20
37.59761570793444
 30
0.0
 10
262.6385644277635
 20
37.72370646297733
 30
0.0
 10
262.7805035919328
 20
37.79281965293186
 30
0.0
 10
263.0419457251352
 20
37.94329930041512
 30
0.0
 10
263.1579828548757
 20
38.02280308188651
 30
0.0
 10
263.3081267361271
 20
38.14661490541616
 30
0.0
 10
263.35432780794
 20
38.18875267734047
 30
0.0
 10
263.4388919648411
 20
38.27489817558224
 30
0.0
 10
263.4772630988366
 20
38.31899640941515
 30
0.0
 10
263.5780009107877
 20
38.45130781933906
 30
0.0
 10
263.6271792897664
 20
38.54049140685721
 30
0.0
 10
263.6744709788699
 20
38.67677800937773
 30
0.0
 10
263.6858045025429
 20
38.72288078520057
 30
0.0
 10
263.6991079525319
 20
38.81452367657099
 30
0.0
 10
263.7011584127737
 20
38.86012713622821
 30
0.0
 10
263.6939586025754
 20
38.99661969875309
 30
0.0
 10
263.6714085301148
 20
39.08735644714088
 30
0.0
 10
263.5905301122546
 20
39.26897105484336
 30
0.0
 10
263.533401306755
 20
39.35732508610828
 30
0.0
 10
263.3875149156927
 20
39.53071881772685
 30
0.0
 10
263.2977198542026
 20
39.6165014028203
 30
0.0
 10
263.0903225748837
 20
39.78116403057037
 30
0.0
 10
262.973162960703
 20
39.86002333468431
 30
0.0
 10
262.8424727490956
 20
39.9354691879351
 30
0.0
  0
LINE
  5
1EA
330
1F
100
AcDbEntity
  8
0
  6
Continuous
 62
     7
370
    25
100
AcDbLine
 10
243.7464642902
 20
53.7966267351
 30
0.0
 11
244.1650582285
 21
53.5256925278
 31
0.0
  0
LWPOLYLINE
  5
1EB
330
1F
100
AcDbEntity
  8
0
  6
Continuous
 62
     7
370
    25
100
AcDbPolyline
 90
       15
 70
   128
 43
0.0
 10
245.4349078713
 20
52.8632143077
 10
245.4246628944
 20
52.8696322659
 10
245.1151298535
 20
53.0380787599
 10
244.7213525064
 20
53.2409368418
 10
244.2608804057
 20
53.4755559683
 10
243.7661896738
 20
53.734393338
 10
243.2987020985
 20
53.9954754169
 10
242.9358611968
 20
54.2213389239
 10
242.7410156575
 20
54.3683231615
 10
242.7394193457
 20
54.4029702182
 10
242.9033468788
 20
54.3245330749
 10
243.1780415981
 20
54.1612406094
 10
243.5296582673
 20
53.9374149668
 10
243.7464642902
 20
53.7966267351
 10
243.7464642902
 20
53.7966267351
  0
SPLINE
  5
1EC
330
1F
100
AcDbEntity
  8
0
  6
Continuous
 62
     7
370
    25
100
AcDbSpline
210
0.0
220
0.0
230
1.0
 70
     8
 71
     3
 72
    20
 73
    16
 74
     0
 42
0.000000001
 43
0.00000001
 40
0.0
 40
0.0
 40
0.0
 40
0.0
 40
0.0725824413211112
 40
0.1391799762685581
 40
0.2172384580466185
 40
0.2896919280368151
 40
0.3604925201538772
 40
0.4346607052425353
 40
0.5152402994454727
 40
0.6024940759158159
 40
0.6940831227830431
 40
0.7864233633696257
 40
0.8754117364462645
 40
0.9571596032124776
 40
1.0
 40
1.0
 40
1.0
 40
1.0
 10
229.725216022246
 20
28.51833418476544
 30
0.0
 10
229.5762916170842
 20
28.59452778841979
 30
0.0
 10
229.2907226172137
 20
28.74063232493591
 30
0.0
 10
228.8689413690446
 20
28.95485233139209
 30
0.0
 10
228.5194637491596
 20
29.14058820674194
 30
0.0
 10
228.2945417729185
 20
29.2755289009855
 30
0.0
 10
228.2188200492045
 20
29.34204360118422
 30
0.0
 10
228.2868850017436
 20
29.33533438074358
 30
0.0
 10
228.50251823401
 20
29.24253535645778
 30
0.0
 10
228.8622496031673
 20
29.05160044653441
 30
0.0
 10
229.3358155552936
 20
28.76921643350686
 30
0.0
 10
229.8660432036672
 20
28.43017174026329
 30
0.0
 10
230.3665197534167
 20
28.10301808932478
 30
0.0
 10
230.739391065809
 20
27.86326507794822
 30
0.0
 10
230.8777041444196
 20
27.78425531581416
 30
0.0
 10
230.9252638984412
 20
27.75708735100461
 30
0.0
  0
SPLINE
  5
1ED
330
1F
100
AcDbEntity
  8
0
  6
Continuous
 62
     7
370
    25
100
AcDbSpline
210
0.0
220
0.0
230
1.0
 70
    11
 71
     3
 72
    70
 73
    66
 74
     0
 42
0.000000001
 43
0.00000001
 40
0.0
 40
0.0
 40
0.0
 40
0.0
 40
0.03125
 40
0.03125
 40
0.0625
 40
0.0625
 40
0.09375
 40
0.09375
 40
0.125
 40
0.125
 40
0.15625
 40
0.15625
 40
0.1875
 40
0.1875
 40
0.21875
 40
0.21875
 40
0.25
 40
0.25
 40
0.28125
 40
0.28125
 40
0.3125
 40
0.3125
 40
0.34375
 40
0.34375
 40
0.375
 40
0.375
 40
0.40625
 40
0.40625
 40
0.4375
 40
0.4375
 40
0.46875
 40
0.46875
 40
0.5
 40
0.5
 40
0.53125
 40
0.53125
 40
0.5625
 40
0.5625
 40
0.59375
 40
0.59375
 40
0.625
 40
0.625
 40
0.65625
 40
0.65625
 40
0.6875
 40
0.6875
 40
0.71875
 40
0.71875
 40
0.75
 40
0.75
 40
0.78125
 40
0.78125
 40
0.8125
 40
0.8125
 40
0.84375
 40
0.84375
 40
0.875
 40
0.875
 40
0.90625
 40
0.90625
 40
0.9375
 40
0.9375
 40
0.96875
 40
0.96875
 40
1.0
 40
1.0
 40
1.0
 40
1.0
 10
228.5317899938092
 20
46.02672773243688
 30
0.0
 10
228.5942817179227
 20
46.11802876882381
 30
0.0
 10
228.6645048418515
 20
46.20119718718389
 30
0.0
 10
228.8193742512928
 20
46.35231046381395
 30
0.0
 10
228.9047474418868
 20
46.42046041212814
 30
0.0
 10
229.0819339529874
 20
46.53608325193545
 30
0.0
 10
229.174776215264
 20
46.58458170114199
 30
0.0
 10
229.366912392152
 20
46.66284467866438
 30
0.0
 10
229.4637321905264
 20
46.69166940674951
 30
0.0
 10
229.6584686157269
 20
46.73052403674161
 30
0.0
 10
229.7572281496597
 20
46.74044281703468
 30
0.0
 10
229.9490673724742
 20
46.74133447869881
 30
0.0
 10
230.0426818691654
 20
46.73257032256499
 30
0.0
 10
230.2252027075939
 20
46.69716593367649
 30
0.0
 10
230.3139800906967
 20
46.67031640647576
 30
0.0
 10
230.4801898874171
 20
46.60086130767912
 30
0.0
 10
230.5585228237984
 20
46.55812827215784
 30
0.0
 10
230.7054416807975
 20
46.456338629908
 30
0.0
 10
230.7732759249944
 20
46.39758163516852
 30
0.0
 10
230.8941104098379
 20
46.26783939974273
 30
0.0
 10
230.9477512233117
 20
46.1964427753479
 30
0.0
 10
231.0409162258124
 20
46.03972768428452
 30
0.0
 10
231.0796185136184
 20
45.95548906965428
 30
0.0
 10
231.1396113115925
 20
45.77905276888771
 30
0.0
 10
231.1612690937201
 20
45.68628952271347
 30
0.0
 10
231.1866181874514
 20
45.49055772722674
 30
0.0
 10
231.189876334367
 20
45.39022725973497
 30
0.0
 10
231.1775621956475
 20
45.18706153104574
 30
0.0
 10
231.1618289145935
 20
45.08289116968036
 30
0.0
 10
231.1105786525017
 20
44.8746925534525
 30
0.0
 10
231.0757872530927
 20
44.77292007251739
 30
0.0
 10
230.9879402569197
 20
44.5739524325809
 30
0.0
 10
230.9340732871123
 20
44.47586365370133
 30
0.0
 10
230.8127483488117
 20
44.29422351441094
 30
0.0
 10
230.7449864799368
 20
44.20952883344602
 30
0.0
 10
230.5949638885874
 20
44.05260709928177
 30
0.0
 10
230.5154449057897
 20
43.98324545450163
 30
0.0
 10
230.3479428134384
 20
43.86148799804258
 30
0.0
 10
230.2591930904486
 20
43.80891266987846
 30
0.0
 10
230.0801206977136
 20
43.72449028236549
 30
0.0
 10
229.9890838778264
 20
43.69197135249576
 30
0.0
 10
229.8037352147326
 20
43.64597591599292
 30
0.0
 10
229.7115300956347
 20
43.63308539662516
 30
0.0
 10
229.5294262650135
 20
43.62648127200359
 30
0.0
 10
229.4384762446569
 20
43.63286765936162
 30
0.0
 10
229.2619162357618
 20
43.66456909473541
 30
0.0
 10
229.1768547484207
 20
43.68959165501732
 30
0.0
 10
229.0128381093458
 20
43.75746237091711
 30
0.0
 10
228.9332022864991
 20
43.8008731478747
 30
0.0
 10
228.7850911887261
 20
43.9032843687724
 30
0.0
 10
228.7163013105464
 20
43.96219269035982
 30
0.0
 10
228.5893888314524
 20
44.09541877100731
 30
0.0
 10
228.5308629560602
 20
44.17056613201212
 30
0.0
 10
228.4294690532508
 20
44.33145530591147
 30
0.0
 10
228.3860882791581
 20
44.4174803550271
 30
0.0
 10
228.3147848675968
 20
44.60097189337176
 30
0.0
 10
228.2868484978202
 20
44.69937090551355
 30
0.0
 10
228.2503853775528
 20
44.8996704775378
 30
0.0
 10
228.2413731460614
 20
45.00237189389736
 30
0.0
 10
228.2434080278593
 20
45.21307561759715
 30
0.0
 10
228.2548184903013
 20
45.3211154537857
 30
0.0
 10
228.2982321351182
 20
45.53128512360671
 30
0.0
 10
228.3301506352122
 20
45.63483420174656
 30
0.0
 10
228.41632967352
 20
45.83851029263123
 30
0.0
 10
228.4692982696956
 20
45.93542669604996
 30
0.0
 10
228.5317899938092
 20
46.02672773243688
 30
0.0
  0
LWPOLYLINE
  5
1EE
330
1F
100
AcDbEntity
  8
0
  6
Continuous
 62
     7
370
    25
100
AcDbPolyline
 90
       20
 70
   128
 43
0.0
 10
259.9046456933
 20
22.2513602292
 10
259.9373068667
 20
22.5591721529
 10
260.1249594535
 20
23.5935097434
 10
260.4328227549
 20
24.6533128919
 10
260.8536807692
 20
25.7137408044
 10
261.3776688291
 20
26.7499379166
 10
261.9925050796
 20
27.7376161961
 10
262.6837784264
 20
28.6536257482
 10
263.4352860406
 20
29.4764960432
 10
264.2294130913
 20
30.1869399255
 10
265.047545962
 20
30.7683047072
 10
265.8705083101
 20
31.2069638252
 10
266.6790105642
 20
31.4926356471
 10
267.454102139
 20
31.6186239958
 10
268.1776156846
 20
31.5819765104
 10
268.8325921985
 20
31.3835513486
 10
269.4036803494
 20
31.0279998012
 10
269.877493574
 20
30.5236555162
 10
270.242926507
 20
29.8823401709
 10
270.38286491
 20
29.5129120384
  0
ARC
  5
1EF
330
1F
100
AcDbEntity
  8
0
  6
Continuous
 62
     7
370
    25
100
AcDbCircle
 10
262.8894275057
 20
20.6819486055
 30
0.0
 40
2.955858037089233
100
AcDbArc
 50
235.0425682831
 51
284.5780581125
  0
LINE
  5
1F0
330
1F
100
AcDbEntity
  8
0
  6
Continuous
 62
     7
370
    25
100
AcDbLine
 10
275.7700928674
 20
26.4029317159
 30
0.0
 11
275.8694451724
 21
26.3420961987
 31
0.0
  0
ARC
  5
1F1
330
1F
100
AcDbEntity
  8
0
  6
Continuous
 62
     7
370
    25
100
AcDbCircle
 10
264.1556972479
 20
20.5863674587
 30
0.0
 40
2.656910470682142
100
AcDbArc
 50
199.8165196547
 51
238.3805541206
  0
LWPOLYLINE
  5
1F2
330
1F
100
AcDbEntity
  8
0
  6
Continuous
 62
     7
370
    25
100
AcDbPolyline
 90
       16
 70
   128
 43
0.0
 10
261.3669585905
 20
21.2388851419
 10
261.3932147601
 20
22.0345709472
 10
261.5400846733
 20
22.9968919183
 10
261.8078478825
 20
23.9900532876
 10
262.1894635588
 20
24.9879389008
 10
262.6748968013
 20
25.9643083116
 10
263.2513820538
 20
26.8934866388
 10
263.9037602802
 20
27.7510403014
 10
264.6148763963
 20
28.5144186216
 10
265.3660310306
 20
29.1635478942
 10
266.13747147
 20
29.6813585312
 10
266.9089119093
 20
30.0542340666
 10
267.6600665436
 20
30.2723694747
 10
268.3711826597
 20
30.3300283458
 10
269.0235608862
 20
30.2256945507
 10
269.5121972891
 20
30.0155379368
  0
LWPOLYLINE
  5
1F3
330
1F
100
AcDbEntity
  8
0
  6
Continuous
 62
     7
370
    25
100
AcDbPolyline
 90
       17
 70
   128
 43
0.0
 10
270.920671374
 20
22.2661229363
 10
270.864154755
 20
22.5615971603
 10
270.7032092761
 20
22.7468356422
 10
270.4623372381
 20
22.793636883
 10
270.1782093625
 20
22.6948766573
 10
269.8940813224
 20
22.4655897256
 10
269.6532091197
 20
22.1406834542
 10
269.4922638054
 20
21.7696213728
 10
269.4357471864
 20
21.4088944494
 10
269.4922638054
 20
21.1134204155
 10
269.6532091197
 20
20.9281820287
 10
269.8940813224
 20
20.8813806928
 10
270.1782093625
 20
20.9801410135
 10
270.4623372381
 20
21.2094278503
 10
270.7032092761
 20
21.5343342167
 10
270.864154755
 20
21.905396203
 10
270.920671374
 20
22.2661229363
  0
LINE
  5
1F4
330
1F
100
AcDbEntity
  8
0
  6
Continuous
 62
     7
370
    25
100
AcDbLine
 10
270.7704991893
 20
17.7424428724
 30
0.0
 11
270.7250197763
 21
17.770209929
 31
0.0
  0
ARC
  5
1F5
330
1F
100
AcDbEntity
  8
0
  6
Continuous
 62
     7
370
    25
100
AcDbCircle
 10
270.9828452614
 20
21.3260002655
 30
0.0
 40
10.7346118185634
100
AcDbArc
 50
122.0266084781
 51
167.7064686871
  0
LINE
  5
1F6
330
1F
100
AcDbEntity
  8
0
  6
Continuous
 62
     7
370
    25
100
AcDbLine
 10
261.8459851827
 20
19.1811277794
 30
0.0
 11
261.6334633211
 21
19.4575906208
 31
0.0
  0
LWPOLYLINE
  5
1F7
330
1F
100
AcDbEntity
  8
0
  6
Continuous
 62
     7
370
    25
100
AcDbPolyline
 90
       16
 70
   128
 43
0.0
 10
261.0504160019
 20
21.5056744634
 10
261.0469965095
 20
21.8339881569
 10
261.1231993287
 20
22.7510457714
 10
261.3213570175
 20
23.7125689099
 10
261.6361926588
 20
24.6929513213
 10
262.0593216639
 20
25.6660845349
 10
262.5794756777
 20
26.6060526524
 10
263.1828025458
 20
27.4878234857
 10
263.8532350992
 20
28.2879146881
 10
264.5729188793
 20
28.9850190041
 10
265.3226881418
 20
29.5605718395
 10
266.0825756525
 20
29.9992455621
 10
266.832344915
 20
30.2893578908
 10
267.5520286951
 20
30.4231827805
 10
268.2224612486
 20
30.397156528
 10
268.3113825378
 20
30.3807381555
  0
LWPOLYLINE
  5
1F8
330
1F
100
AcDbEntity
  8
0
  6
Continuous
 62
     7
370
    25
100
AcDbPolyline
 90
        3
 70
   128
 43
0.0
 10
268.5335468081
 20
30.370997328
 10
268.5438484199
 20
30.3660267363
 10
268.6822454995
 20
30.2925914382
  0
LINE
  5
1F9
330
1F
100
AcDbEntity
  8
0
  6
Continuous
 62
     7
370
    25
100
AcDbLine
 10
262.1077796737
 20
18.9040491579
 30
0.0
 11
262.0099910826
 21
18.963963798
 31
0.0
  0
LWPOLYLINE
  5
1FA
330
1F
100
AcDbEntity
  8
0
  6
Continuous
 62
     7
370
    25
100
AcDbPolyline
 90
       17
 70
   128
 43
0.0
 10
229.2209777121
 20
44.0391432866
 10
229.6068024757
 20
43.9262787046
 10
230.0290368481
 20
43.9954041463
 10
230.4234035925
 20
44.2359930252
 10
230.7298632062
 20
44.6114185658
 10
230.9017578108
 20
45.0645268328
 10
230.9129201402
 20
45.5263349117
 10
230.7616518082
 20
45.9265364175
 10
230.4709775063
 20
46.2042064333
 10
230.0851553769
 20
46.3170694946
 10
229.6629210045
 20
46.2479440528
 10
229.2685542601
 20
46.0073551739
 10
228.9620953049
 20
45.631929253
 10
228.7902000418
 20
45.1788213663
 10
228.7790377124
 20
44.7170132875
 10
228.9303060445
 20
44.3168117816
 10
229.2209777121
 20
44.0391432866
  0
SPLINE
  5
1FB
330
1F
100
AcDbEntity
  8
0
  6
Continuous
 62
     7
370
    25
100
AcDbSpline
210
0.0
220
0.0
230
1.0
 70
     8
 71
     3
 72
    14
 73
    10
 74
     0
 42
0.000000001
 43
0.00000001
 40
0.0
 40
0.0
 40
0.0
 40
0.0
 40
0.25
 40
0.25
 40
0.5
 40
0.5
 40
0.75
 40
0.75
 40
1.0
 40
1.0
 40
1.0
 40
1.0
 10
202.0384752474487
 20
46.17276873092491
 30
0.0
 10
201.9913021402164
 20
46.14553627577877
 30
0.0
 10
201.9357380755176
 20
46.12379191763783
 30
0.0
 10
201.8138126033986
 20
46.09354649023182
 30
0.0
 10
201.7477160825227
 20
46.08524746012151
 30
0.0
 10
201.615524153386
 20
46.08381484434175
 30
0.0
 10
201.5485890018552
 20
46.09076481852335
 30
0.0
 10
201.4259785101849
 20
46.11897417213276
 30
0.0
 10
201.3690430553812
 20
46.14055001644042
 30
0.0
 10
201.322300512009
 20
46.16753391236081
 30
0.0
  0
SPLINE
  5
1FC
330
1F
100
AcDbEntity
  8
0
  6
Continuous
 62
     7
370
    25
100
AcDbSpline
210
0.0
220
0.0
230
1.0
 70
     8
 71
     3
 72
    12
 73
     8
 74
     0
 42
0.000000001
 43
0.00000001
 40
0.0
 40
0.0
 40
0.0
 40
0.0
 40
0.2500000000000032
 40
0.2500000000000032
 40
0.5000000000000064
 40
0.5000000000000064
 40
1.0
 40
1.0
 40
1.0
 40
1.0
 10
229.6507636680888
 20
73.9327585075151
 30
0.0
 10
229.7045356870368
 20
73.90171658172237
 30
0.0
 10
229.757023962155
 20
73.85274195246555
 30
0.0
 10
229.8480298890936
 20
73.73601107761604
 30
0.0
 10
229.8866042426229
 20
73.6685596122829
 30
0.0
 10
229.9764278319191
 20
73.46424238527601
 30
0.0
 10
230.004317058682
 20
73.3238795560786
 30
0.0
 10
230.004317058682
 20
73.20106283102392
 30
0.0
  0
LINE
  5
1FD
330
1F
100
AcDbEntity
  8
0
  6
Continuous
 62
     7
370
    25
100
AcDbLine
 10
229.9804678735
 20
63.7646235452
 30
0.0
 11
230.0184204521
 21
63.7192298552
 31
0.0
  0
LINE
  5
1FE
330
1F
100
AcDbEntity
  8
0
  6
Continuous
 62
     7
370
    25
100
AcDbLine
 10
213.8277099137
 20
35.6697597371
 30
0.0
 11
213.7598850977
 21
35.6816239992
 31
0.0
  0
LINE
  5
1FF
330
1F
100
AcDbEntity
  8
0
  6
Continuous
 62
     7
370
    25
100
AcDbLine
 10
201.3223000528
 20
46.1675336156
 30
0.0
 11
199.664852186
 21
47.1243579025
 31
0.0
  0
LWPOLYLINE
  5
200
330
1F
100
AcDbEntity
  8
0
  6
Continuous
 62
     7
370
    25
100
AcDbPolyline
 90
       25
 70
   128
 43
0.0
 10
199.664852186
 20
47.1243579025
 10
200.0543246277
 20
49.0127792351
 10
200.5639182218
 20
50.9266830542
 10
201.1900004368
 20
52.8524296582
 10
201.9281116093
 20
54.7762950115
 10
202.7729899687
 20
56.6845692223
 10
203.7186137841
 20
58.5636504559
 10
204.7582448279
 20
60.4001483535
 10
205.8844738161
 20
62.1809749034
 10
207.089274408
 20
63.893438733
 10
208.3640598418
 20
65.5253340779
 10
209.6997461547
 20
67.0650335525
 10
211.0868134272
 20
68.5015615286
 10
212.5153769062
 20
69.8246823429
 10
213.9752554936
 20
71.0249656897
 10
215.4560446802
 20
72.0938576232
 10
216.9471917018
 20
73.0237391526
 10
218.4380695433
 20
73.8079856948
 10
219.9180530006
 20
74.4410048995
 10
221.376595072
 20
74.9182898751
 10
222.803300797
 20
75.2364344378
 10
224.1880025776
 20
75.3931750735
 10
225.5208314658
 20
75.3873925464
 10
226.7922899328
 20
75.219129573
 10
227.9933164061
 20
74.8895824513
  0
LINE
  5
201
330
1F
100
AcDbEntity
  8
0
  6
Continuous
 62
     7
370
    25
100
AcDbLine
 10
227.9933164061
 20
74.8895824513
 30
0.0
 11
229.6507642729
 21
73.9327581644
 31
0.0
  0
LINE
  5
202
330
1F
100
AcDbEntity
  8
0
  6
Continuous
 62
     7
370
    25
100
AcDbLine
 10
234.4414128092
 20
64.4703158494
 30
0.0
 11
235.8799295299
 21
65.3007538759
 31
0.0
  0
LINE
  5
203
330
1F
100
AcDbEntity
  8
0
  6
Continuous
 62
     7
370
    25
100
AcDbLine
 10
234.4414128092
 20
59.5027634019
 30
0.0
 11
234.4414128092
 21
64.4703158494
 31
0.0
  0
LINE
  5
204
330
1F
100
AcDbEntity
  8
0
  6
Continuous
 62
     7
370
    25
100
AcDbLine
 10
202.0384757663
 20
37.1908200498
 30
0.0
 11
203.3994238465
 21
37.9764786533
 31
0.0
  0
LINE
  5
205
330
1F
100
AcDbEntity
  8
0
  6
Continuous
 62
     7
370
    25
100
AcDbLine
 10
203.3994238465
 20
37.9764786533
 30
0.0
 11
203.3994238465
 21
46.9584275354
 31
0.0
  0
LINE
  5
206
330
1F
100
AcDbEntity
  8
0
  6
Continuous
 62
     7
370
    25
100
AcDbLine
 10
203.3994238465
 20
46.9584275354
 30
0.0
 11
202.0384757663
 21
46.1727689319
 31
0.0
  0
LINE
  5
207
330
1F
100
AcDbEntity
  8
0
  6
Continuous
 62
     7
370
    25
100
AcDbLine
 10
230.0043177214
 20
73.2010636793
 30
0.0
 11
230.0043177214
 21
70.6254093271
 31
0.0
  0
LINE
  5
208
330
1F
100
AcDbEntity
  8
0
  6
Continuous
 62
     7
370
    25
100
AcDbLine
 10
232.234778994
 20
71.9130272121
 30
0.0
 11
230.0043177214
 21
70.6254093271
 31
0.0
  0
LWPOLYLINE
  5
209
330
1F
100
AcDbEntity
  8
0
  6
Continuous
 62
     7
370
    25
100
AcDbPolyline
 90
       22
 70
   128
 43
0.0
 10
198.6860667035
 20
48.6705603419
 10
199.0986672282
 20
50.5807603022
 10
199.6388660198
 20
52.5154169435
 10
200.3023509286
 20
54.4590841482
 10
201.083827257
 20
56.3962459284
 10
201.977052003
 20
58.3114335336
 10
202.9748970807
 20
60.1893585263
 10
204.0693927846
 20
62.0150253261
 10
205.2518035218
 20
63.7738616221
 10
206.5126877396
 20
65.4518221703
 10
207.8419789268
 20
67.0355108407
 10
209.22906398
 20
68.5122836521
 10
210.6628684854
 20
69.8703512368
 10
212.1319459519
 20
71.0988698978
 10
213.6245667137
 20
72.1880324754
 10
215.1288140119
 20
73.1291420647
 10
216.6326783357
 20
73.91468625
 10
218.1241527362
 20
74.5383921282
 10
219.5913296432
 20
74.9952806787
 10
221.0224956901
 20
75.2817032542
 10
222.4062234833
 20
75.3953732643
 10
223.6173691516
 20
75.3476398127
  0
SPLINE
  5
20A
330
1F
100
AcDbEntity
  8
0
  6
Continuous
 62
     7
370
    25
100
AcDbSpline
210
0.0
220
0.0
230
1.0
 70
     8
 71
     3
 72
     8
 73
     4
 74
     0
 42
0.000000001
 43
0.00000001
 40
0.0
 40
0.0
 40
0.0
 40
0.0
 40
1.0
 40
1.0
 40
1.0
 40
1.0
 10
198.6860668863455
 20
48.67056062536451
 30
0.0
 10
198.2435305325002
 20
48.59887409493525
 30
0.0
 10
197.8009213424485
 20
48.52733792933349
 30
0.0
 10
197.3582496362321
 20
48.45593177302879
 30
0.0
  0
LWPOLYLINE
  5
20B
330
1F
100
AcDbEntity
  8
0
  6
Continuous
 62
     7
370
    25
100
AcDbPolyline
 90
       25
 70
   128
 43
0.0
 10
197.3582493389
 20
48.4559313828
 10
197.7477217806
 20
50.3443527154
 10
198.2573153746
 20
52.2582565346
 10
198.8833975896
 20
54.1840031385
 10
199.6215087622
 20
56.1078684918
 10
200.4663871216
 20
58.0161427026
 10
201.4120109369
 20
59.8952239362
 10
202.4516419808
 20
61.7317218339
 10
203.5778709689
 20
63.5125483837
 10
204.7826715608
 20
65.2250122133
 10
206.0574569947
 20
66.8569075583
 10
207.3931433076
 20
68.3966070328
 10
208.78021058
 20
69.833135009
 10
210.208774059
 20
71.1562558232
 10
211.6686526465
 20
72.35653917
 10
213.1494418331
 20
73.4254311035
 10
214.6405888546
 20
74.3553126329
 10
216.1314666961
 20
75.1395591751
 10
217.6114501535
 20
75.7725783799
 10
219.0699922249
 20
76.2498633554
 10
220.4966979498
 20
76.5680079181
 10
221.8813997304
 20
76.7247485539
 10
223.2142286187
 20
76.7189660267
 10
224.4856870857
 20
76.5507030533
 10
225.686713559
 20
76.2211559316
  0
LINE
  5
20C
330
1F
100
AcDbEntity
  8
0
  6
Continuous
 62
     7
370
    25
100
AcDbLine
 10
225.686713559
 20
76.2211559316
 30
0.0
 11
225.9828886831
 21
75.277247752
 31
0.0
  0
LINE
  5
20D
330
1F
100
AcDbEntity
  8
0
  6
Continuous
 62
     7
370
    25
100
AcDbLine
 10
221.5190362734
 20
78.6271048165
 30
0.0
 11
225.686713559
 21
76.2211559316
 31
0.0
  0
LINE
  5
20E
330
1F
100
AcDbEntity
  8
0
  6
Continuous
 62
     7
370
    25
100
AcDbLine
 10
197.3582493389
 20
48.4559313828
 30
0.0
 11
196.7261058803
 21
48.8208600338
 31
0.0
  0
SPLINE
  5
20F
330
1F
100
AcDbEntity
  8
0
  6
Continuous
 62
     7
370
    25
100
AcDbSpline
210
0.0
220
0.0
230
1.0
 70
     8
 71
     3
 72
    30
 73
    26
 74
     0
 42
0.000000001
 43
0.00000001
 40
0.0
 40
0.0
 40
0.0
 40
0.0
 40
0.1250000000000002
 40
0.1250000000000002
 40
0.1875000000000003
 40
0.1875000000000003
 40
0.2500000000000004
 40
0.2500000000000004
 40
0.3750000000000001
 40
0.3750000000000001
 40
0.4374999999999998
 40
0.4374999999999998
 40
0.4999999999999996
 40
0.4999999999999996
 40
0.6249999999999996
 40
0.6249999999999996
 40
0.6874999999999997
 40
0.6874999999999997
 40
0.7499999999999997
 40
0.7499999999999997
 40
0.8124999999999998
 40
0.8124999999999998
 40
0.8749999999999999
 40
0.8749999999999999
 40
1.0
 40
1.0
 40
1.0
 40
1.0
 10
196.7261064342965
 20
48.82086027578463
 30
0.0
 10
196.4917908006899
 20
48.95612781181526
 30
0.0
 10
196.2562903241611
 20
49.05939034074462
 30
0.0
 10
195.9017398767714
 20
49.1686330785084
 30
0.0
 10
195.7833456133724
 20
49.19738604050509
 30
0.0
 10
195.5462909683222
 20
49.23933920515481
 30
0.0
 10
195.4274710570864
 20
49.2524443400569
 30
0.0
 10
195.0788271731101
 20
49.26769572907122
 30
0.0
 10
194.8540623304682
 20
49.24661696762922
 30
0.0
 10
194.5298516828645
 20
49.16961391575352
 30
0.0
 10
194.4234356069532
 20
49.13610531072031
 30
0.0
 10
194.2181263769808
 20
49.05456696459667
 30
0.0
 10
194.1195316464731
 20
49.00676135949535
 30
0.0
 10
193.8360336526741
 20
48.84309414994244
 30
0.0
 10
193.6632906790039
 20
48.70718205346585
 30
0.0
 10
193.4311658805078
 20
48.46281091656078
 30
0.0
 10
193.3588518946818
 20
48.37499383135312
 30
0.0
 10
193.2265335806122
 20
48.18961326241286
 30
0.0
 10
193.1661796418914
 20
48.09169226237253
 30
0.0
 10
193.0572165077483
 20
47.88560441166828
 30
0.0
 10
193.0086066826502
 20
47.77743760482402
 30
0.0
 10
192.9235708667555
 20
47.55074789131728
 30
0.0
 10
192.8870199875805
 20
47.4316074635945
 30
0.0
 10
192.7980257104877
 20
47.06362313514038
 30
0.0
 10
192.7656891535075
 20
46.80439800984371
 30
0.0
 10
192.7610032472107
 20
46.53119142841356
 30
0.0
  0
ARC
  5
210
330
1F
100
AcDbEntity
  8
0
  6
Continuous
 62
     7
370
    25
100
AcDbCircle
 10
216.3236808679
 20
46.1229211625
 30
0.0
 40
23.56621418174332
100
AcDbArc
 50
179.0073355702
 51
180.9926644298
  0
SPLINE
  5
211
330
1F
100
AcDbEntity
  8
0
  6
Continuous
 62
     7
370
    25
100
AcDbSpline
210
0.0
220
0.0
230
1.0
 70
     8
 71
     3
 72
    30
 73
    26
 74
     0
 42
0.000000001
 43
0.00000001
 40
0.0
 40
0.0
 40
0.0
 40
0.0
 40
0.1249999999999996
 40
0.1249999999999996
 40
0.1874999999999994
 40
0.1874999999999994
 40
0.2499999999999993
 40
0.2499999999999993
 40
0.3749999999999992
 40
0.3749999999999992
 40
0.4374999999999993
 40
0.4374999999999993
 40
0.4999999999999994
 40
0.4999999999999994
 40
0.6249999999999992
 40
0.6249999999999992
 40
0.6874999999999993
 40
0.6874999999999993
 40
0.7499999999999994
 40
0.7499999999999994
 40
0.8124999999999997
 40
0.8124999999999997
 40
0.8749999999999998
 40
0.8749999999999998
 40
1.0
 40
1.0
 40
1.0
 40
1.0
 10
192.7610032472107
 20
45.71465061652781
 30
0.0
 10
192.7656894938694
 20
45.44683481589608
 30
0.0
 10
192.7979990141882
 20
45.17311865091067
 30
0.0
 10
192.8856570695568
 20
44.75387050371526
 30
0.0
 10
192.9214512408702
 20
44.61266008502295
 30
0.0
 10
193.0063118557227
 20
44.32715947003081
 30
0.0
 10
193.0555645036364
 20
44.18257440519978
 30
0.0
 10
193.2197688398057
 20
43.75348213604817
 30
0.0
 10
193.3518212978661
 20
43.47050932056433
 30
0.0
 10
193.5818718653851
 20
43.04950540982719
 30
0.0
 10
193.6643349038789
 20
42.90910033995339
 30
0.0
 10
193.838086639098
 20
42.63243604585917
 30
0.0
 10
193.9288882309317
 20
42.49685149681279
 30
0.0
 10
194.2122827031631
 20
42.09775443005315
 30
0.0
 10
194.4157625778301
 20
41.84182748704597
 30
0.0
 10
194.7416705650789
 20
41.47220150701028
 30
0.0
 10
194.85341118054
 20
41.35188265982477
 30
0.0
 10
195.0787152846773
 20
41.12104506169396
 30
0.0
 10
195.1928379321564
 20
41.00988246761441
 30
0.0
 10
195.4237477187208
 20
40.79580865843943
 30
0.0
 10
195.5405351347295
 20
40.69289753170496
 30
0.0
 10
195.7766180971994
 20
40.49533936478974
 30
0.0
 10
195.8964954715891
 20
40.40026759218436
 30
0.0
 10
196.2549787267529
 20
40.13146251358178
 30
0.0
 10
196.4917873933161
 20
39.97418084810701
 30
0.0
 10
196.7261064342965
 20
39.83891134504139
 30
0.0
  0
LINE
  5
212
330
1F
100
AcDbEntity
  8
0
  6
Continuous
 62
     7
370
    25
100
AcDbLine
 10
196.7261058803
 20
39.8389111517
 30
0.0
 11
197.3582493389
 21
39.4739825008
 31
0.0
  0
LWPOLYLINE
  5
213
330
1F
100
AcDbEntity
  8
0
  6
Continuous
 62
     7
370
    25
100
AcDbPolyline
 90
        9
 70
   128
 43
0.0
 10
203.3104367028
 20
31.6953616281
 10
202.4971684797
 20
32.0556007695
 10
201.4477804404
 20
32.6895572241
 10
200.4932702255
 20
33.4766323442
 10
199.6405222592
 20
34.4111524307
 10
198.8956847131
 20
35.4863738823
 10
198.2641326274
 20
36.6945455567
 10
197.7504191789
 20
38.0269513617
 10
197.3582493389
 20
39.4739825008
  0
LINE
  5
214
330
1F
100
AcDbEntity
  8
0
  6
Continuous
 62
     7
370
    25
100
AcDbLine
 10
227.6386658225
 20
75.0938135515
 30
0.0
 11
227.9910766963
 21
74.8903710844
 31
0.0
  0
SPLINE
  5
215
330
1F
100
AcDbEntity
  8
0
  6
Continuous
 62
     7
370
    25
100
AcDbSpline
210
0.0
220
0.0
230
1.0
 70
     8
 71
     3
 72
    22
 73
    18
 74
     0
 42
0.000000001
 43
0.00000001
 40
0.0
 40
0.0
 40
0.0
 40
0.0
 40
0.2500000000000002
 40
0.2500000000000002
 40
0.3750000000000003
 40
0.3750000000000003
 40
0.5000000000000004
 40
0.5000000000000004
 40
0.6250000000000004
 40
0.6250000000000004
 40
0.7500000000000004
 40
0.7500000000000004
 40
0.8750000000000004
 40
0.8750000000000004
 40
0.9375000000000002
 40
0.9375000000000002
 40
1.0
 40
1.0
 40
1.0
 40
1.0
 10
221.5190356844435
 20
78.6271051504957
 30
0.0
 10
221.9510677799826
 20
78.45883471238925
 30
0.0
 10
222.401442428348
 20
78.24815870750903
 30
0.0
 10
223.1264158700322
 20
77.86306447125239
 30
0.0
 10
223.3783831937516
 20
77.7219389329766
 30
0.0
 10
223.8911753068839
 20
77.42292196375944
 30
0.0
 10
224.1526966189429
 20
77.26475612640363
 30
0.0
 10
224.6902713005415
 20
76.93215618506613
 30
0.0
 10
224.9682338452043
 20
76.7564583737001
 30
0.0
 10
225.5208397639497
 20
76.40481545760674
 30
0.0
 10
225.797835689121
 20
76.22743662848403
 30
0.0
 10
226.3560232690178
 20
75.87312620917145
 30
0.0
 10
226.6261993581775
 20
75.70326836945901
 30
0.0
 10
227.017666673274
 20
75.46269938448427
 30
0.0
 10
227.1459139033819
 20
75.38483150193589
 30
0.0
 10
227.3977755425634
 20
75.23422520643746
 30
0.0
 10
227.5206677764098
 20
75.16193236722651
 30
0.0
 10
227.6386664352691
 20
75.09381319142442
 30
0.0
  0
LWPOLYLINE
  5
216
330
1F
100
AcDbEntity
  8
0
  6
Continuous
 62
     7
370
    25
100
AcDbPolyline
 90
       12
 70
   128
 43
0.0
 10
209.1779634574
 20
77.8269936344
 10
209.2320374936
 20
77.8569977332
 10
210.7096438934
 20
78.6026517675
 10
212.1742893553
 20
79.1984208516
 10
213.6157000499
 20
79.6401276573
 10
215.0237660018
 20
79.9246734866
 10
216.3886100313
 20
80.0500613402
 10
217.7006592061
 20
80.015412831
 10
218.9507103668
 20
79.8209710301
 10
220.1299949932
 20
79.4680998901
 10
221.2302411078
 20
78.9592728321
 10
221.3608080932
 20
78.8854568965
  0
LWPOLYLINE
  5
217
330
1F
100
AcDbEntity
  8
0
  6
Continuous
 62
     7
370
    25
100
AcDbPolyline
 90
       10
 70
   128
 43
0.0
 10
196.362840526
 20
35.5830135343
 10
195.9753582059
 20
35.8210200246
 10
195.0079497382
 20
36.556750661
 10
194.1377174152
 20
37.4375198291
 10
193.3707646274
 20
38.4571481953
 10
192.7124690492
 20
39.6084838617
 10
192.167451029
 20
40.8834525605
 10
191.7395314419
 20
42.2731097487
 10
191.4317119338
 20
43.7677082919
 10
191.2768183142
 20
44.9952285647
  0
LINE
  5
218
330
1F
100
AcDbEntity
  8
0
  6
Continuous
 62
     7
370
    25
100
AcDbLine
 10
199.0071677372
 20
48.855928023
 30
0.0
 11
198.6860667035
 21
48.6705603419
 31
0.0
  0
LINE
  5
219
330
1F
100
AcDbEntity
  8
0
  6
Continuous
 62
     7
370
    25
100
AcDbLine
 10
199.967816904
 20
48.6375137147
 30
0.0
 11
199.5811623743
 21
48.8607246235
 31
0.0
  0
SPLINE
  5
21A
330
1F
100
AcDbEntity
  8
0
  6
Continuous
 62
     7
370
    25
100
AcDbSpline
210
0.0
220
0.0
230
1.0
 70
     8
 71
     3
 72
    12
 73
     8
 74
     0
 42
0.000000001
 43
0.00000001
 40
0.0
 40
0.0
 40
0.0
 40
0.0
 40
0.250000000000003
 40
0.250000000000003
 40
0.500000000000006
 40
0.500000000000006
 40
1.0
 40
1.0
 40
1.0
 40
1.0
 10
199.5811625410377
 20
48.86072510323039
 30
0.0
 10
199.5437705034549
 20
48.88231106705683
 30
0.0
 10
199.4976221925999
 20
48.89975120207929
 30
0.0
 10
199.3989223552173
 20
48.92220733039363
 30
0.0
 10
199.3454107889219
 20
48.92759363599423
 30
0.0
 10
199.1868133692205
 20
48.9255124771841
 30
0.0
 10
199.0820992746027
 20
48.89918525669329
 30
0.0
 10
199.0071674360759
 20
48.8559280270678
 30
0.0
  0
LWPOLYLINE
  5
21B
330
1F
100
AcDbEntity
  8
0
  6
Continuous
 62
     7
370
    25
100
AcDbPolyline
 90
       18
 70
   128
 43
0.0
 10
191.4047975696
 20
50.5595795083
 10
191.4358887729
 20
50.7939615203
 10
191.748856782
 20
52.651552881
 10
192.1838504542
 20
54.5428984847
 10
192.7377351177
 20
56.4543696097
 10
193.4065213099
 20
58.3721957879
 10
194.1853884849
 20
60.2825575797
 10
195.0687271607
 20
62.1716918934
 10
196.050171846
 20
64.0259870407
 10
197.1226497728
 20
65.8320823521
 10
198.2784362141
 20
67.5769647512
 10
199.5092018989
 20
69.2480630468
 10
200.8060801839
 20
70.8333384225
 10
202.1597263226
 20
72.3213658003
 10
203.5603876
 20
73.701424519
 10
204.997972151
 20
74.9635730436
 10
206.4621223874
 20
76.0987172099
 10
207.7516682732
 20
76.9780805719
  0
LINE
  5
21C
330
1F
100
AcDbEntity
  8
0
  6
Continuous
 62
     7
370
    25
100
AcDbLine
 10
198.4496762254
 20
40.8339071329
 30
0.0
 11
203.3994238465
 21
37.9764786533
 31
0.0
  0
ARC
  5
21D
330
1F
100
AcDbEntity
  8
0
  6
Continuous
 62
     7
370
    25
100
AcDbCircle
 10
202.5902227361
 20
47.3069355872
 30
0.0
 40
7.684023866253021
100
AcDbArc
 50
182.6054781208
 51
237.3945216397
  0
LINE
  5
21E
330
1F
100
AcDbEntity
  8
0
  6
Continuous
 62
     7
370
    25
100
AcDbLine
 10
194.9141423985
 20
47.7741722332
 30
0.0
 11
194.9141423985
 21
46.9576313825
 31
0.0
  0
ARC
  5
21F
330
1F
100
AcDbEntity
  8
0
  6
Continuous
 62
     7
370
    25
100
AcDbCircle
 10
198.1268853456
 20
47.8873200841
 30
0.0
 40
3.214734776043332
100
AcDbArc
 50
155.343366055
 51
182.0170353142
  0
SPLINE
  5
220
330
1F
100
AcDbEntity
  8
0
  6
Continuous
 62
     7
370
    25
100
AcDbSpline
210
0.0
220
0.0
230
1.0
 70
     8
 71
     3
 72
     8
 73
     4
 74
     0
 42
0.000000001
 43
0.00000001
 40
0.0
 40
0.0
 40
0.0
 40
0.0
 40
1.0
 40
1.0
 40
1.0
 40
1.0
 10
183.1583724634484
 20
52.26750232524028
 30
0.0
 10
183.6252346891152
 20
51.88726073797834
 30
0.0
 10
184.0922694734986
 20
51.5203540894355
 30
0.0
 10
184.559394585674
 20
51.16042776384354
 30
0.0
  0
SPLINE
  5
221
330
1F
100
AcDbEntity
  8
0
  6
Continuous
 62
     7
370
    25
100
AcDbSpline
210
0.0
220
0.0
230
1.0
 70
     8
 71
     3
 72
    14
 73
    10
 74
     0
 42
0.000000001
 43
0.00000001
 40
0.0
 40
0.0
 40
0.0
 40
0.0
 40
0.1249999999999987
 40
0.1249999999999987
 40
0.2499999999999973
 40
0.2499999999999973
 40
0.4999999999999947
 40
0.4999999999999947
 40
1.0
 40
1.0
 40
1.0
 40
1.0
 10
184.5593945856741
 20
51.16042776384349
 30
0.0
 10
184.5858185243472
 20
51.14006775555788
 30
0.0
 10
184.6098824668521
 20
51.12455545224322
 30
0.0
 10
184.6461517242772
 20
51.10757208368386
 30
0.0
 10
184.6581700992653
 20
51.10569784227793
 30
0.0
 10
184.6836843459357
 20
51.10983868361317
 30
0.0
 10
184.6878780083838
 20
51.12478107167619
 30
0.0
 10
184.6889848181193
 20
51.17913240802132
 30
0.0
 10
184.6733568330307
 20
51.23055336869734
 30
0.0
 10
184.6537041003971
 20
51.28690219628329
 30
0.0
  0
SPLINE
  5
222
330
1F
100
AcDbEntity
  8
0
  6
Continuous
 62
     7
370
    25
100
AcDbSpline
210
0.0
220
0.0
230
1.0
 70
     8
 71
     3
 72
    14
 73
    10
 74
     0
 42
0.000000001
 43
0.00000001
 40
0.0
 40
0.0
 40
0.0
 40
0.0
 40
0.25
 40
0.25
 40
0.5
 40
0.5
 40
0.75
 40
0.75
 40
1.0
 40
1.0
 40
1.0
 40
1.0
 10
184.6537041003966
 20
51.28690219628366
 30
0.0
 10
184.6290382524587
 20
51.35762475882147
 30
0.0
 10
184.6181753817342
 20
51.42069105657168
 30
0.0
 10
184.5962250145394
 20
51.55225779753027
 30
0.0
 10
184.5859534197203
 20
51.62021113652195
 30
0.0
 10
184.5566494053618
 20
51.76881614036538
 30
0.0
 10
184.5378567341321
 20
51.84927994679626
 30
0.0
 10
184.4849374296159
 20
52.02885082061059
 30
0.0
 10
184.450858252437
 20
52.12768186653845
 30
0.0
 10
184.4067720001593
 20
52.23528192151772
 30
0.0
  0
LWPOLYLINE
  5
223
330
1F
100
AcDbEntity
  8
0
  6
Continuous
 62
     7
370
    25
100
AcDbPolyline
 90
        9
 70
   128
 43
0.0
 10
184.4067717213
 20
52.235282074
 10
184.0386914395
 20
53.3064274537
 10
183.7735627377
 20
54.4704303311
 10
183.6135956912
 20
55.7175815739
 10
183.5601245114
 20
57.0374782099
 10
183.6135956912
 20
58.419111356
 10
183.7735627377
 20
59.8509566193
 10
184.0386914395
 20
61.32107058
 10
184.4067717213
 20
62.8171924073
  0
SPLINE
  5
224
330
1F
100
AcDbEntity
  8
0
  6
Continuous
 62
     7
370
    25
100
AcDbSpline
210
0.0
220
0.0
230
1.0
 70
     8
 71
     3
 72
    14
 73
    10
 74
     0
 42
0.000000001
 43
0.00000001
 40
0.0
 40
0.0
 40
0.0
 40
0.0
 40
0.25
 40
0.25
 40
0.5
 40
0.5
 40
0.75
 40
0.75
 40
1.0
 40
1.0
 40
1.0
 40
1.0
 10
184.6537041003966
 20
64.87069259559216
 30
0.0
 10
184.6290382524587
 20
64.6990200640993
 30
0.0
 10
184.6181753817342
 20
64.52404033192371
 30
0.0
 10
184.5962250145394
 20
64.17523382828253
 30
0.0
 10
184.5859534197203
 20
64.00101973634672
 30
0.0
 10
184.5566494053618
 20
63.65496882439564
 30
0.0
 10
184.5378567341321
 20
63.48308597048039
 30
0.0
 10
184.4849374296159
 20
63.14305430158618
 30
0.0
 10
184.450858252437
 20
62.97569344108906
 30
0.0
 10
184.4067720001593
 20
62.81719248268611
 30
0.0
  0
SPLINE
  5
225
330
1F
100
AcDbEntity
  8
0
  6
Continuous
 62
     7
370
    25
100
AcDbSpline
210
0.0
220
0.0
230
1.0
 70
     8
 71
     3
 72
    14
 73
    10
 74
     0
 42
0.000000001
 43
0.00000001
 40
0.0
 40
0.0
 40
0.0
 40
0.0
 40
0.124999999999999
 40
0.124999999999999
 40
0.249999999999998
 40
0.249999999999998
 40
0.5000000000000007
 40
0.5000000000000007
 40
1.0
 40
1.0
 40
1.0
 40
1.0
 10
184.5593945856741
 20
65.61943633923484
 30
0.0
 10
184.5858185243473
 20
65.61513003996262
 30
0.0
 10
184.6098824668521
 20
65.5992465334222
 30
0.0
 10
184.6461517242772
 20
65.5501019605308
 30
0.0
 10
184.6581700992654
 20
65.51909060517846
 30
0.0
 10
184.6836843459357
 20
65.42223206331103
 30
0.0
 10
184.6878780083838
 20
65.35195144243488
 30
0.0
 10
184.6889848181193
 20
65.14555004035701
 30
0.0
 10
184.6733568330307
 20
65.00747420433484
 30
0.0
 10
184.6537041003971
 20
64.87069259559209
 30
0.0
  0
SPLINE
  5
226
330
1F
100
AcDbEntity
  8
0
  6
Continuous
 62
     7
370
    25
100
AcDbSpline
210
0.0
220
0.0
230
1.0
 70
     8
 71
     3
 72
     8
 73
     4
 74
     0
 42
0.000000001
 43
0.00000001
 40
0.0
 40
0.0
 40
0.0
 40
0.0
 40
1.0
 40
1.0
 40
1.0
 40
1.0
 10
183.1583724634484
 20
65.7886492331198
 30
0.0
 10
183.6252346891153
 20
65.75655947905449
 30
0.0
 10
184.0922694734987
 20
65.69556354174884
 30
0.0
 10
184.5593945856741
 20
65.61943633923485
 30
0.0
  0
SPLINE
  5
227
330
1F
100
AcDbEntity
  8
0
  6
Continuous
 62
     7
370
    25
100
AcDbSpline
210
0.0
220
0.0
230
1.0
 70
     8
 71
     3
 72
    14
 73
    10
 74
     0
 42
0.000000001
 43
0.00000001
 40
0.0
 40
0.0
 40
0.0
 40
0.0
 40
0.5000000000000012
 40
0.5000000000000012
 40
0.7500000000000018
 40
0.7500000000000018
 40
0.8750000000000009
 40
0.8750000000000009
 40
1.0
 40
1.0
 40
1.0
 40
1.0
 10
180.3138350862298
 20
66.71323110928226
 30
0.0
 10
180.7788696189449
 20
66.51688586002136
 30
0.0
 10
181.2457255402267
 20
66.32923334855326
 30
0.0
 10
181.9527519258313
 20
66.07921539160877
 30
0.0
 10
182.1895369087224
 20
66.00105413380992
 30
0.0
 10
182.548317546854
 20
65.9004868684149
 30
0.0
 10
182.6685163708552
 20
65.86976537216327
 30
0.0
 10
182.911118468965
 20
65.81849066577868
 30
0.0
 10
183.0333702265539
 20
65.79724125624568
 30
0.0
 10
183.1583724634484
 20
65.78864923311976
 30
0.0
  0
SPLINE
  5
228
330
1F
100
AcDbEntity
  8
0
  6
Continuous
 62
     7
370
    25
100
AcDbSpline
210
0.0
220
0.0
230
1.0
 70
     8
 71
     3
 72
    14
 73
    10
 74
     0
 42
0.000000001
 43
0.00000001
 40
0.0
 40
0.0
 40
0.0
 40
0.0
 40
0.5000000000000012
 40
0.5000000000000012
 40
0.7500000000000018
 40
0.7500000000000018
 40
0.8750000000000009
 40
0.8750000000000009
 40
1.0
 40
1.0
 40
1.0
 40
1.0
 10
180.3138350862298
 20
54.39028713340803
 30
0.0
 10
180.7788696189449
 20
54.05544181716959
 30
0.0
 10
181.2457255402267
 20
53.71665364209799
 30
0.0
 10
181.9527519258313
 20
53.19435789506517
 30
0.0
 10
182.1895369087224
 20
53.01793618697476
 30
0.0
 10
182.548317546854
 20
52.74585403545576
 30
0.0
 10
182.6685163708552
 20
52.65390867409882
 30
0.0
 10
182.911118468965
 20
52.46548265326848
 30
0.0
 10
183.0333702265539
 20
52.36931190921382
 30
0.0
 10
183.1583724634484
 20
52.2675023252403
 30
0.0
  0
SPLINE
  5
229
330
1F
100
AcDbEntity
  8
0
  6
Continuous
 62
     7
370
    25
100
AcDbSpline
210
0.0
220
0.0
230
1.0
 70
     8
 71
     3
 72
    17
 73
    13
 74
     0
 42
0.000000001
 43
0.00000001
 40
0.0
 40
0.0
 40
0.0
 40
0.0
 40
0.1207961882900952
 40
0.2420175987944839
 40
0.3632153541307872
 40
0.4839596318162575
 40
0.6040258967628624
 40
0.6645178707182005
 40
0.7242649424600393
 40
0.8441758508052679
 40
0.9646454444514005
 40
1.0
 40
1.0
 40
1.0
 40
1.0
 10
188.7720782137469
 20
51.94651129602406
 30
0.0
 10
188.568309922776
 20
52.32040088376244
 30
0.0
 10
188.160056043334
 20
53.06949621135171
 30
0.0
 10
187.9667886810719
 20
54.21781466740487
 30
0.0
 10
188.1721468541143
 20
55.17015166001502
 30
0.0
 10
188.7314530194905
 20
55.80362491226411
 30
0.0
 10
189.4072946995575
 20
55.94491118593922
 30
0.0
 10
189.9822940318997
 20
55.81876048166949
 30
0.0
 10
190.5620839889952
 20
55.5305112525418
 30
0.0
 10
191.2291347210072
 20
54.87322013817068
 30
0.0
 10
191.7597652630348
 20
54.04779564891736
 30
0.0
 10
191.9188295967793
 20
53.52588368460057
 30
0.0
 10
191.954919309781
 20
53.40746837074022
 30
0.0
  0
SPLINE
  5
22A
330
1F
100
AcDbEntity
  8
0
  6
Continuous
 62
     7
370
    25
100
AcDbSpline
210
0.0
220
0.0
230
1.0
 70
     8
 71
     3
 72
    12
 73
     8
 74
     0
 42
0.000000001
 43
0.00000001
 40
0.0
 40
0.0
 40
0.0
 40
0.0
 40
0.0353744433893711
 40
0.3560360900717853
 40
0.5160472232178944
 40
0.6782077942890793
 40
1.0
 40
1.0
 40
1.0
 40
1.0
 10
191.2753026946318
 20
49.91432071975023
 30
0.0
 10
191.2525964094804
 20
49.91047384660882
 30
0.0
 10
191.024062580796
 20
49.87175590390675
 30
0.0
 10
190.5502481220865
 20
50.13534255231706
 30
0.0
 10
189.9815477552872
 20
50.54476646305091
 30
0.0
 10
189.3980993979199
 20
51.08099443532027
 30
0.0
 10
189.022093717478
 20
51.60084785940654
 30
0.0
 10
188.7720782137469
 20
51.94651129602406
 30
0.0
  0
ARC
  5
22B
330
1F
100
AcDbEntity
  8
0
  6
Continuous
 62
     7
370
    25
100
AcDbCircle
 10
210.4230512141
 20
37.5244932374
 30
0.0
 40
8.701929273940817
100
AcDbArc
 50
214.5542627763
 51
265.4839169162
  0
SPLINE
  5
22C
330
1F
100
AcDbEntity
  8
0
  6
Continuous
 62
     7
370
    25
100
AcDbSpline
210
0.0
220
0.0
230
1.0
 70
     8
 71
     3
 72
    14
 73
    10
 74
     0
 42
0.000000001
 43
0.00000001
 40
0.0
 40
0.0
 40
0.0
 40
0.0
 40
0.25
 40
0.25
 40
0.5
 40
0.5
 40
0.75
 40
0.75
 40
1.0
 40
1.0
 40
1.0
 40
1.0
 10
201.3223005120091
 20
37.18558498161757
 30
0.0
 10
201.3695216754327
 20
37.15832478422275
 30
0.0
 10
201.425808434864
 20
37.1370428526986
 30
0.0
 10
201.5492377829372
 20
37.10868822286749
 30
0.0
 10
201.6158911063971
 20
37.10184484052731
 30
0.0
 10
201.7480159833387
 20
37.10332695615648
 30
0.0
 10
201.8143753393234
 20
37.11171748784266
 30
0.0
 10
201.9356295714441
 20
37.14183581131396
 30
0.0
 10
201.9917406739213
 20
37.16384050515474
 30
0.0
 10
202.0384752474487
 20
37.19081980018166
 30
0.0
  0
LINE
  5
22D
330
1F
100
AcDbEntity
  8
0
  6
Continuous
 62
     7
370
    25
100
AcDbLine
 10
199.664852186
 20
38.1424090205
 30
0.0
 11
201.3223000528
 21
37.1855847336
 31
0.0
  0
SPLINE
  5
22E
330
1F
100
AcDbEntity
  8
0
  6
Continuous
 62
     7
370
    25
100
AcDbSpline
210
0.0
220
0.0
230
1.0
 70
     8
 71
     3
 72
     8
 73
     4
 74
     0
 42
0.000000001
 43
0.00000001
 40
0.0
 40
0.0
 40
0.0
 40
0.0
 40
1.0
 40
1.0
 40
1.0
 40
1.0
 10
200.0366408384118
 20
38.90894194783058
 30
0.0
 10
199.9124626705269
 20
38.6534711486045
 30
0.0
 10
199.7885449703851
 20
38.39795830193155
 30
0.0
 10
199.664852477353
 20
38.14240936544488
 30
0.0
  0
LINE
  5
22F
330
1F
100
AcDbEntity
  8
0
  6
Continuous
 62
     7
370
    25
100
AcDbLine
 10
200.3577417658
 20
39.09430935
 30
0.0
 11
200.036640732
 21
38.9089416689
 31
0.0
  0
SPLINE
  5
230
330
1F
100
AcDbEntity
  8
0
  6
Continuous
 62
     7
370
    25
100
AcDbSpline
210
0.0
220
0.0
230
1.0
 70
     8
 71
     3
 72
    12
 73
     8
 74
     0
 42
0.000000001
 43
0.00000001
 40
0.0
 40
0.0
 40
0.0
 40
0.0
 40
0.2500000000000014
 40
0.2500000000000014
 40
0.5000000000000029
 40
0.5000000000000029
 40
1.0
 40
1.0
 40
1.0
 40
1.0
 10
200.3660510681548
 20
39.42566967042554
 30
0.0
 10
200.4034431057377
 20
39.4040837065991
 30
0.0
 10
200.4336535790551
 20
39.37744285380905
 30
0.0
 10
200.4725529490646
 20
39.32046465050325
 30
0.0
 10
200.4818833149945
 20
39.28957308082644
 30
0.0
 10
200.4782782515807
 20
39.19801673926438
 30
0.0
 10
200.4326732266691
 20
39.13756657915935
 30
0.0
 10
200.3577413881423
 20
39.09430934953389
 30
0.0
  0
LINE
  5
231
330
1F
100
AcDbEntity
  8
0
  6
Continuous
 62
     7
370
    25
100
AcDbLine
 10
199.5811623743
 20
39.8787757415
 30
0.0
 11
200.3660506218
 21
39.4256694008
 31
0.0
  0
SPLINE
  5
232
330
1F
100
AcDbEntity
  8
0
  6
Continuous
 62
     7
370
    25
100
AcDbSpline
210
0.0
220
0.0
230
1.0
 70
     8
 71
     3
 72
    14
 73
    10
 74
     0
 42
0.000000001
 43
0.00000001
 40
0.0
 40
0.0
 40
0.0
 40
0.0
 40
0.25
 40
0.25
 40
0.5
 40
0.5
 40
0.75
 40
0.75
 40
1.0
 40
1.0
 40
1.0
 40
1.0
 10
199.007167436076
 20
39.87397909632458
 30
0.0
 10
199.0450132338545
 20
39.89582701033619
 30
0.0
 10
199.0893321510025
 20
39.9131996551251
 30
0.0
 10
199.1870336875546
 20
39.93756112981697
 30
0.0
 10
199.2397868191663
 20
39.94427509434853
 30
0.0
 10
199.3457401763948
 20
39.94563254393454
 30
0.0
 10
199.3991044626902
 20
39.94025484279545
 30
0.0
 10
199.4982822374619
 20
39.91761389927962
 30
0.0
 10
199.5432891308631
 20
39.90064002679575
 30
0.0
 10
199.5811625410377
 20
39.87877617248715
 30
0.0
  0
LINE
  5
233
330
1F
100
AcDbEntity
  8
0
  6
Continuous
 62
     7
370
    25
100
AcDbLine
 10
198.6860667035
 20
39.6886114598
 30
0.0
 11
199.0071677372
 21
39.873979141
 31
0.0
  0
SPLINE
  5
234
330
1F
100
AcDbEntity
  8
0
  6
Continuous
 62
     7
370
    25
100
AcDbSpline
210
0.0
220
0.0
230
1.0
 70
     8
 71
     3
 72
     8
 73
     4
 74
     0
 42
0.000000001
 43
0.00000001
 40
0.0
 40
0.0
 40
0.0
 40
0.0
 40
1.0
 40
1.0
 40
1.0
 40
1.0
 10
197.3582496362321
 20
39.47398284228554
 30
0.0
 10
197.8009213424485
 20
39.54538899859024
 30
0.0
 10
198.2435305325002
 20
39.616925164192
 30
0.0
 10
198.6860668863455
 20
39.68861169462127
 30
0.0
  0
LWPOLYLINE
  5
235
330
1F
100
AcDbEntity
  8
0
  6
Continuous
 62
     7
370
    25
100
AcDbPolyline
 90
        8
 70
   128
 43
0.0
 10
204.410433229
 20
30.937237155
 10
203.7543832876
 20
31.3579837437
 10
202.7998730726
 20
32.1450588639
 10
201.9471251063
 20
33.0795789504
 10
201.2022875602
 20
34.154800402
 10
200.5707354745
 20
35.3629720764
 10
200.057022026
 20
36.6953778813
 10
199.664852186
 20
38.1424090205
  0
ARC
  5
236
330
1F
100
AcDbEntity
  8
0
  6
Continuous
 62
     7
370
    25
100
AcDbCircle
 10
210.1980462473
 20
42.150797011
 30
0.0
 40
11.77234176809802
100
AcDbArc
 50
192.0725460793
 51
215.0022747034
  0
SPLINE
  5
237
330
1F
100
AcDbEntity
  8
0
  6
Continuous
 62
     7
370
    25
100
AcDbSpline
210
0.0
220
0.0
230
1.0
 70
     8
 71
     3
 72
    12
 73
     8
 74
     0
 42
0.000000001
 43
0.00000001
 40
0.0
 40
0.0
 40
0.0
 40
0.0
 40
0.1675503883347434
 40
0.4025161747753053
 40
0.6381208840270863
 40
0.8774598722428354
 40
0.9999999999999999
 40
0.9999999999999999
 40
0.9999999999999999
 40
0.9999999999999999
 10
190.1950361619047
 20
55.60671337604202
 30
0.0
 10
190.1605282467531
 20
55.42943407919977
 30
0.0
 10
190.0776278479877
 20
55.00354557401031
 30
0.0
 10
190.2722628886465
 20
54.19260337578906
 30
0.0
 10
190.7057179061045
 20
53.32027596361443
 30
0.0
 10
191.2275643015084
 20
52.61911120080119
 30
0.0
 10
191.5930130679093
 20
52.30851614103971
 30
0.0
 10
191.7167619568251
 20
52.20334190847426
 30
0.0
  0
SPLINE
  5
238
330
1F
100
AcDbEntity
  8
0
  6
Continuous
 62
     7
370
    25
100
AcDbSpline
210
0.0
220
0.0
230
1.0
 70
     8
 71
     3
 72
    11
 73
     7
 74
     0
 42
0.000000001
 43
0.00000001
 40
0.0
 40
0.0
 40
0.0
 40
0.0
 40
0.1889487415400878
 40
0.3635157627967836
 40
0.6686735586554259
 40
1.0
 40
1.0
 40
1.0
 40
1.0
 10
189.0623916331905
 20
52.12892138106406
 30
0.0
 10
189.1889327105443
 20
51.94573665285186
 30
0.0
 10
189.4323832669463
 20
51.59331019228902
 30
0.0
 10
189.9490797995004
 20
51.03190918677466
 30
0.0
 10
190.6234058750006
 20
50.47388694406813
 30
0.0
 10
191.0782522319507
 20
50.3168599148018
 30
0.0
 10
191.3150257700811
 20
50.23511836684087
 30
0.0
  0
SPLINE
  5
239
330
1F
100
AcDbEntity
  8
0
  6
Continuous
 62
     7
370
    25
100
AcDbSpline
210
0.0
220
0.0
230
1.0
 70
     8
 71
     3
 72
    15
 73
    11
 74
     0
 42
0.000000001
 43
0.00000001
 40
0.0
 40
0.0
 40
0.0
 40
0.0
 40
0.0285605575140947
 40
0.1766231786262573
 40
0.2612396331333766
 40
0.3527785380977456
 40
0.5145481059714542
 40
0.6763327681591422
 40
0.8381560932852216
 40
1.0
 40
1.0
 40
1.0
 40
1.0
 10
190.7171872119333
 20
55.3302301592622
 30
0.0
 10
190.6743470040147
 20
55.37307623291991
 30
0.0
 10
190.4094161219114
 20
55.63804338971799
 30
0.0
 10
189.9483164146555
 20
55.75057940705604
 30
0.0
 10
189.4382419809273
 20
55.75781944944544
 30
0.0
 10
188.9523837158324
 20
55.58204370599259
 30
0.0
 10
188.5004087411085
 20
55.09386049521339
 30
0.0
 10
188.310928595529
 20
54.213120620758
 30
0.0
 10
188.4897479580059
 20
53.16012152719328
 30
0.0
 10
188.8715023163705
 20
52.47266933451143
 30
0.0
 10
189.0623916331905
 20
52.12892138106406
 30
0.0
  0
SPLINE
  5
23A
330
1F
100
AcDbEntity
  8
0
  6
Continuous
 62
     7
370
    25
100
AcDbSpline
210
0.0
220
0.0
230
1.0
 70
     8
 71
     3
 72
     9
 73
     5
 74
     0
 42
0.000000001
 43
0.00000001
 40
0.0
 40
0.0
 40
0.0
 40
0.0
 40
0.1883710221454139
 40
1.0
 40
1.0
 40
1.0
 40
1.0
 10
230.0043170628967
 20
73.18807706846691
 30
0.0
 10
230.0466932036199
 20
73.19760979094944
 30
0.0
 10
230.271654241897
 20
73.24821588935009
 30
0.0
 10
230.4974218430385
 20
73.297613979775
 30
0.0
 10
230.6806613703857
 20
73.33770690141453
 30
0.0
  0
LINE
  5
23B
330
1F
100
AcDbEntity
  8
0
  6
Continuous
 62
     7
370
    25
100
AcDbLine
 10
230.6806613704
 20
73.3377069014
 30
0.0
 11
232.3381092371
 21
72.3808826145
 31
0.0
  0
SPLINE
  5
23C
330
1F
100
AcDbEntity
  8
0
  6
Continuous
 62
     7
370
    25
100
AcDbSpline
210
0.0
220
0.0
230
1.0
 70
     8
 71
     3
 72
    16
 73
    12
 74
     0
 42
0.000000001
 43
0.00000001
 40
0.0
 40
0.0
 40
0.0
 40
0.0
 40
0.125
 40
0.125
 40
0.25
 40
0.25
 40
0.5
 40
0.5
 40
0.75
 40
0.75
 40
1.0
 40
1.0
 40
1.0
 40
1.0
 10
232.3381098239732
 20
72.38088226948393
 30
0.0
 10
232.3648517915316
 20
72.3654444602155
 30
0.0
 10
232.3878223901781
 20
72.34755274080827
 30
0.0
 10
232.4237993423023
 20
72.30937274426313
 30
0.0
 10
232.4370618810813
 20
72.28908892679253
 30
0.0
 10
232.4638169917872
 20
72.22496259549783
 30
0.0
 10
232.4629999865267
 20
72.18046974386864
 30
0.0
 10
232.4349195962805
 20
72.09539005152473
 30
0.0
 10
232.407350241356
 20
72.05401719547841
 30
0.0
 10
232.3341760855967
 20
71.9785860627704
 30
0.0
 10
232.2879422471839
 20
71.94371708794661
 30
0.0
 10
232.2347784622556
 20
71.91302628817954
 30
0.0
  0
LINE
  5
23D
330
1F
100
AcDbEntity
  8
0
  6
Continuous
 62
     7
370
    25
100
AcDbLine
 10
182.9510610621
 20
58.0894312009
 30
0.0
 11
183.5738347495
 21
57.7299116038
 31
0.0
  0
SPLINE
  5
23E
330
1F
100
AcDbEntity
  8
0
  6
Continuous
 62
     7
370
    25
100
AcDbSpline
210
0.0
220
0.0
230
1.0
 70
     8
 71
     3
 72
    11
 73
     7
 74
     0
 42
0.000000001
 43
0.00000001
 40
0.0
 40
0.0
 40
0.0
 40
0.0
 40
0.0466304722500908
 40
0.4281527877979693
 40
0.8088298298119748
 40
1.0
 40
1.0
 40
1.0
 40
1.0
 10
235.879929529915
 20
65.30075387588974
 30
0.0
 10
235.8849069712353
 20
65.3037014576023
 30
0.0
 10
235.9306089612549
 20
65.33076563402155
 30
0.0
 10
235.9970451855335
 20
65.39200450465951
 30
0.0
 10
236.0396652217435
 20
65.47577832742859
 30
0.0
 10
236.0258326641488
 20
65.525935334696
 30
0.0
 10
236.0212084003016
 20
65.54270296669776
 30
0.0
  0
LINE
  5
23F
330
1F
100
AcDbEntity
  8
0
  6
Continuous
 62
     7
370
    25
100
AcDbLine
 10
180.2990707183
 20
67.7708619413
 30
0.0
 11
180.3152445714
 21
67.8194875555
 31
0.0
  0
SPLINE
  5
240
330
1F
100
AcDbEntity
  8
0
  6
Continuous
 62
     7
370
    25
100
AcDbSpline
210
0.0
220
0.0
230
1.0
 70
     8
 71
     3
 72
    16
 73
    12
 74
     0
 42
0.000000001
 43
0.00000001
 40
0.0
 40
0.0
 40
0.0
 40
0.0
 40
0.0332838850724123
 40
0.1625854311030977
 40
0.239429833395794
 40
0.3008069245191573
 40
0.3624173839861106
 40
0.4362069101913193
 40
0.5596777462223994
 40
0.9141728339414532
 40
1.0
 40
1.0
 40
1.0
 40
1.0
 10
180.341422374144
 20
67.89818126144483
 30
0.0
 10
180.3430657046284
 20
67.90319488406945
 30
0.0
 10
180.3510930606501
 20
67.92768547445694
 30
0.0
 10
180.3617066775743
 20
67.95230815870123
 30
0.0
 10
180.3717631327223
 20
67.96972454943352
 30
0.0
 10
180.3766217365255
 20
67.96909615144642
 30
0.0
 10
180.3778242843309
 20
67.9537277703329
 30
0.0
 10
180.3745457890127
 20
67.91715797188421
 30
0.0
 10
180.3590364918819
 20
67.81683293914956
 30
0.0
 10
180.3360418494047
 20
67.7015371629491
 30
0.0
 10
180.3173369959351
 20
67.6124925775439
 30
0.0
 10
180.3136910649129
 20
67.59513609748272
 30
0.0
  0
SPLINE
  5
241
330
1F
100
AcDbEntity
  8
0
  6
Continuous
 62
     7
370
    25
100
AcDbSpline
210
0.0
220
0.0
230
1.0
 70
     8
 71
     3
 72
     9
 73
     5
 74
     0
 42
0.000000001
 43
0.00000001
 40
0.0
 40
0.0
 40
0.0
 40
0.0
 40
0.7766522094856231
 40
1.0
 40
1.0
 40
1.0
 40
1.0
 10
180.2479070783769
 20
67.33266640555337
 30
0.0
 10
180.24472076841
 20
67.44150219524828
 30
0.0
 10
180.2406181470204
 20
67.58163672182997
 30
0.0
 10
180.2883989757626
 20
67.7363149097841
 30
0.0
 10
180.2990707182911
 20
67.77086194130443
 30
0.0
  0
SPLINE
  5
242
330
1F
100
AcDbEntity
  8
0
  6
Continuous
 62
     7
370
    25
100
AcDbSpline
210
0.0
220
0.0
230
1.0
 70
     8
 71
     3
 72
     8
 73
     4
 74
     0
 42
0.000000001
 43
0.00000001
 40
0.0
 40
0.0
 40
0.0
 40
0.0
 40
1.0
 40
1.0
 40
1.0
 40
1.0
 10
180.224605935859
 20
66.73422805907275
 30
0.0
 10
180.2532082314331
 20
66.73267464393923
 30
0.0
 10
180.2829046111706
 20
66.72629046597653
 30
0.0
 10
180.3138350862286
 20
66.7132311092886
 30
0.0
  0
SPLINE
  5
243
330
1F
100
AcDbEntity
  8
0
  6
Continuous
 62
     7
370
    25
100
AcDbSpline
210
0.0
220
0.0
230
1.0
 70
     8
 71
     3
 72
    10
 73
     6
 74
     0
 42
0.000000001
 43
0.00000001
 40
0.0
 40
0.0
 40
0.0
 40
0.0
 40
0.4999999999999989
 40
0.4999999999999989
 40
1.0
 40
1.0
 40
1.0
 40
1.0
 10
180.3136912585258
 20
67.59513607326711
 30
0.0
 10
180.2837027886169
 20
67.45334521709711
 30
0.0
 10
180.2632694894303
 20
67.3110874010538
 30
0.0
 10
180.2346365022045
 20
67.02427713288402
 30
0.0
 10
180.226765442558
 20
66.87982059968851
 30
0.0
 10
180.2246059358598
 20
66.73422805906905
 30
0.0
  0
ARC
  5
244
330
1F
100
AcDbEntity
  8
0
  6
Continuous
 62
     7
370
    25
100
AcDbCircle
 10
181.4439576889
 20
66.5661818634
 30
0.0
 40
1.230877198383691
100
AcDbArc
 50
172.1531384875
 51
234.5145852444
  0
ARC
  5
245
330
1F
100
AcDbEntity
  8
0
  6
Continuous
 62
     7
370
    25
100
AcDbCircle
 10
183.9571058258
 20
54.3628191204
 30
0.0
 40
3.734047488377255
100
AcDbArc
 50
122.5266350896
 51
178.3504233083
  0
SPLINE
  5
246
330
1F
100
AcDbEntity
  8
0
  6
Continuous
 62
     7
370
    25
100
AcDbSpline
210
0.0
220
0.0
230
1.0
 70
     8
 71
     3
 72
     8
 73
     4
 74
     0
 42
0.000000001
 43
0.00000001
 40
0.0
 40
0.0
 40
0.0
 40
0.0
 40
1.0
 40
1.0
 40
1.0
 40
1.0
 10
180.2246059358597
 20
54.4703092915067
 30
0.0
 10
180.2532082314337
 20
54.43961188764878
 30
0.0
 10
180.2829046111708
 20
54.41255843579845
 30
0.0
 10
180.3138350862286
 20
54.39028713340347
 30
0.0
  0
LINE
  5
247
330
1F
100
AcDbEntity
  8
0
  6
Continuous
 62
     7
370
    25
100
AcDbLine
 10
181.9493397914
 20
57.5111498204
 30
0.0
 11
182.9510610621
 21
58.0894312009
 31
0.0
  0
SPLINE
  5
248
330
1F
100
AcDbEntity
  8
0
  6
Continuous
 62
     7
370
    25
100
AcDbSpline
210
0.0
220
0.0
230
1.0
 70
     8
 71
     3
 72
     9
 73
     5
 74
     0
 42
0.000000001
 43
0.00000001
 40
0.0
 40
0.0
 40
0.0
 40
0.0
 40
0.3901117718169397
 40
1.0
 40
1.0
 40
1.0
 40
1.0
 10
180.2584115218237
 20
55.53746015981883
 30
0.0
 10
180.2493339651813
 20
55.49067410644544
 30
0.0
 10
180.2260648477175
 20
55.37074423825538
 30
0.0
 10
180.2396323925178
 20
55.24988921181306
 30
0.0
 10
180.2479070783769
 20
55.17618115386915
 30
0.0
  0
ARC
  5
249
330
1F
100
AcDbEntity
  8
0
  6
Continuous
 62
     7
370
    25
100
AcDbCircle
 10
182.7420207364
 20
55.0500284541
 30
0.0
 40
2.530988818361982
100
AcDbArc
 50
122.9343808406
 51
168.8962913337
  0
LINE
  5
24A
330
1F
100
AcDbEntity
  8
0
  6
Continuous
 62
     7
370
    25
100
AcDbLine
 10
181.9493397914
 20
57.5111498204
 30
0.0
 11
181.3659773586
 21
57.1742716184
 31
0.0
  0
LINE
  5
24B
330
1F
100
AcDbEntity
  8
0
  6
Continuous
 62
     7
370
    25
100
AcDbLine
 10
180.2841210994
 20
54.3311880927
 30
0.0
 11
180.2246057981
 21
54.4703095298
 31
0.0
  0
LWPOLYLINE
  5
24C
330
1F
100
AcDbEntity
  8
0
  6
Continuous
 62
     7
370
    18
100
AcDbPolyline
 90
       17
 70
   128
 43
0.0
 10
273.4699101706
 20
27.7307988222
 10
273.5751264852
 20
28.0349410258
 10
273.8841504712
 20
28.6783924385
 10
274.2868787553
 20
29.2677323064
 10
274.7558658365
 20
29.7627979315
 10
275.2591505741
 20
30.1298510494
 10
275.7624353118
 20
30.343878121
 10
276.231422393
 20
30.3902934541
 10
276.6341506771
 20
30.2659337655
 10
276.9431746631
 20
29.9792738526
 10
277.1374354147
 20
29.5498494639
 10
277.2036942119
 20
29.0069249766
 10
277.1374354147
 20
28.3874997105
 10
276.9431746631
 20
27.733786632
 10
276.6341506771
 20
27.0903352194
 10
276.231422393
 20
26.5009953514
 10
275.989579825
 20
26.2249821822
  0
LWPOLYLINE
  5
24D
330
1F
100
AcDbEntity
  8
0
  6
Continuous
 62
     7
370
    18
100
AcDbPolyline
 90
       10
 70
   128
 43
0.0
 10
273.1592628724
 20
27.9101311481
 10
273.22344923
 20
28.0933924995
 10
273.5360003804
 20
28.7705916886
 10
273.9457158217
 20
29.3985180237
 10
274.4268523905
 20
29.9377171134
 10
274.9491776255
 20
30.3543082294
 10
275.4798723027
 20
30.6221160867
 10
275.9855903624
 20
30.7243126792
 10
276.4345563734
 20
30.6544771683
 10
276.5923956625
 20
30.5786259564
  0
LWPOLYLINE
  5
24E
330
1F
100
AcDbEntity
  8
0
  6
Continuous
 62
     7
370
    18
100
AcDbPolyline
 90
       25
 70
   128
 43
0.0
 10
257.8178054047
 20
18.3671283618
 10
258.0056295423
 20
19.0201447948
 10
258.3091138519
 20
19.6652379963
 10
258.7075754261
 20
20.2584454085
 10
259.1738598406
 20
20.7593409957
 10
259.6761910059
 20
21.1337897047
 10
260.1803358027
 20
21.3562736133
 10
260.651936647
 20
21.4116300337
 10
261.0588565668
 20
21.2960876141
 10
261.3733629359
 20
21.0175195575
 10
261.5740234231
 20
20.5949101695
 10
261.6471626932
 20
20.0570591836
 10
261.58779754
 20
19.4406209333
 10
261.3999734024
 20
18.7876045003
 10
261.0964890927
 20
18.1425112988
 10
260.6980275186
 20
17.5493038865
 10
260.2317431041
 20
17.0484082994
 10
259.7294119388
 20
16.6739595903
 10
259.225267142
 20
16.4514756818
 10
258.7536656391
 20
16.3961188812
 10
258.3467463778
 20
16.511661681
 10
258.0322400088
 20
16.7902297376
 10
257.8315795216
 20
17.2128391256
 10
257.7584395929
 20
17.7506897313
 10
257.8178054047
 20
18.3671283618
  0
LWPOLYLINE
  5
24F
330
1F
100
AcDbEntity
  8
0
  6
Continuous
 62
     7
370
    18
100
AcDbPolyline
 90
       10
 70
   128
 43
0.0
 10
257.4696671676
 20
18.4203826426
 10
257.6638258449
 20
19.1041097275
 10
257.9749933933
 20
19.7816673195
 10
258.3836176263
 20
20.4104819777
 10
258.8640238692
 20
20.9510431249
 10
259.3860264175
 20
21.3693856173
 10
259.9168258033
 20
21.6392229501
 10
260.4230693814
 20
21.7436003108
 10
260.8729487937
 20
21.6759596002
 10
260.9699458143
 20
21.6340508945
  0
ARC
  5
250
330
1F
100
AcDbEntity
  8
0
  6
Continuous
 62
     7
370
    18
100
AcDbCircle
 10
259.1415357905
 20
17.8033040136
 30
0.0
 40
1.782114117167277
100
AcDbArc
 50
159.7411401158
 51
232.2556550558
  0
LWPOLYLINE
  5
251
330
1F
100
AcDbEntity
  8
0
  6
Continuous
 62
     7
370
    18
100
AcDbPolyline
 90
       31
 70
   128
 43
0.0
 10
277.2036943765
 20
13.0968471264
 10
277.7708849318
 20
13.1326674113
 10
278.3781848606
 20
13.3341909234
 10
278.9990522675
 20
13.6926100482
 10
279.6063521963
 20
14.192260109
 10
280.1735427516
 20
14.8113041001
 10
280.6758350627
 20
15.5226867334
 10
281.0912763839
 20
16.2953171175
 10
281.401710149
 20
17.0954276508
 10
281.593568695
 20
17.8880497205
 10
281.6584669391
 20
18.6385418917
 10
281.593568695
 20
19.314104145
 10
281.401710149
 20
19.8852110526
 10
281.0912763839
 20
20.3269023899
 10
280.6758350627
 20
20.6198744344
 10
280.1735427516
 20
20.7513227095
 10
279.6063521963
 20
20.7155024247
 10
278.9990522675
 20
20.5139789125
 10
278.3781848606
 20
20.1555597877
 10
277.7708849318
 20
19.6559097269
 10
277.2036943765
 20
19.0368657358
 10
276.7014020654
 20
18.3254831025
 10
276.2859607443
 20
17.5528527184
 10
275.9755269791
 20
16.7527421851
 10
275.7836684331
 20
15.9601201154
 10
275.718770189
 20
15.2096279443
 10
275.7836684331
 20
14.5340656909
 10
275.9755269791
 20
13.9629587833
 10
276.2859607443
 20
13.5212674461
 10
276.7014020654
 20
13.2282954015
 10
277.2036943765
 20
13.0968471264
  0
LWPOLYLINE
  5
252
330
1F
100
AcDbEntity
  8
0
  6
Continuous
 62
     7
370
    18
100
AcDbPolyline
 90
       17
 70
   128
 43
0.0
 10
276.0345060606
 20
13.2810672019
 10
275.9277182942
 20
13.375424526
 10
275.5964313879
 20
13.8216726125
 10
275.3830544062
 20
14.399947286
 10
275.2963231067
 20
15.0865740892
 10
275.3397880321
 20
15.8534422733
 10
275.511669795
 20
16.6691561998
 10
275.8049315182
 20
17.5003205158
 10
276.2075671121
 20
18.312907202
 10
276.7030925491
 20
19.0736486944
 10
277.2712212011
 20
19.751400713
 10
277.8886934817
 20
20.3184153175
 10
278.5302302032
 20
20.7514792967
 10
279.1695667068
 20
21.0328626828
 10
279.780528493
 20
21.1510461646
 10
280.3381026521
 20
21.1011903705
 10
280.7263054199
 20
20.9437651222
  0
LWPOLYLINE
  5
253
330
1F
100
AcDbEntity
  8
0
  6
Continuous
 62
     7
370
    18
100
AcDbPolyline
 90
       29
 70
   128
 43
0.0
 10
255.2833830362
 20
18.9242851958
 10
255.3460738392
 20
20.24954807
 10
255.5333573119
 20
21.6305259739
 10
255.8428778404
 20
23.0498518672
 10
256.2707440854
 20
24.4896778609
 10
256.8115744211
 20
25.9318966977
 10
257.4585680585
 20
27.3583715957
 10
258.20358868
 20
28.7511639987
 10
259.0372671729
 20
30.0927586638
 10
259.9491195088
 20
31.3662841847
 10
260.9276787814
 20
32.5557253381
 10
261.9606387694
 20
33.6461245936
 10
263.0350093531
 20
34.623768412
 10
264.1372799981
 20
35.4763637523
 10
265.2535888364
 20
36.193188153
 10
266.3698976747
 20
36.7652265028
 10
267.4721683197
 20
37.1852857599
 10
268.5465389035
 20
37.4480838141
 10
269.5794988915
 20
37.5503147748
 10
270.558058164
 20
37.4906941086
 10
271.4699104999
 20
37.2699708852
 10
272.3035889929
 20
36.8909209197
 10
273.0486096144
 20
36.3583110168
 10
273.6956032517
 20
35.6788390721
 10
274.2364335874
 20
34.8610496495
 10
274.6642998324
 20
33.9152275072
 10
274.973820361
 20
32.8532664094
 10
275.1611038336
 20
31.6885214004
 10
275.1880198648
 20
31.3894347132
  0
LWPOLYLINE
  5
254
330
1F
100
AcDbEntity
  8
0
  6
Continuous
 62
     7
370
    18
100
AcDbPolyline
 90
       18
 70
   128
 43
0.0
 10
268.0690246587
 20
15.260628514
 10
267.4721683197
 20
14.7361565705
 10
266.3698976747
 20
13.8835612301
 10
265.2535888364
 20
13.1667368295
 10
264.1372799981
 20
12.5946984797
 10
263.0350093531
 20
12.1746392225
 10
261.9606387694
 20
11.9118411684
 10
260.9276787814
 20
11.8096102076
 10
259.9491195088
 20
11.8692308739
 10
259.0372671729
 20
12.0899540972
 10
258.20358868
 20
12.4690040627
 10
257.4585680585
 20
13.0016139656
 10
256.8115744211
 20
13.6810859104
 10
256.2707440854
 20
14.498875333
 10
255.8428778404
 20
15.4446974753
 10
255.5333573119
 20
16.506658573
 10
255.3460738392
 20
17.6714035821
 10
255.2833830362
 20
18.9242851958
  0
LWPOLYLINE
  5
255
330
1F
100
AcDbEntity
  8
0
  6
Continuous
 62
     7
370
    18
100
AcDbPolyline
 90
       20
 70
   128
 43
0.0
 10
254.7176985722
 20
18.9242851958
 10
254.779927077
 20
20.2626889121
 10
254.9658592163
 20
21.6566948129
 10
255.273236841
 20
23.0893810995
 10
255.698328638
 20
24.5433565261
 10
256.2359755696
 20
26.0009723736
 10
256.8796508011
 20
27.4445348039
 10
257.621540702
 20
28.856521584
 10
258.4526403347
 20
30.2197919649
 10
259.3628607973
 20
31.5177992207
 10
260.3411533593
 20
32.7347855058
 10
261.375642817
 20
33.8559797527
 10
262.4537720435
 20
34.8677708539
 10
263.5624539486
 20
35.7578782765
 10
264.6882305989
 20
36.5154971533
 10
265.8174366198
 20
37.131430635
 10
266.9363649835
 20
37.5982015683
 10
268.0314332919
 20
37.9101446859
 10
269.0893491533
 20
38.0634739398
 10
269.2928594918
 20
38.0748079844
  0
ARC
  5
256
330
1F
100
AcDbEntity
  8
0
  6
Continuous
 62
     7
370
    18
100
AcDbCircle
 10
264.2735918278
 20
18.6594630713
 30
0.0
 40
9.5595620542887
100
AcDbArc
 50
178.4125704355
 51
205.9785488754
  0
LWPOLYLINE
  5
257
330
1F
100
AcDbEntity
  8
0
  6
Continuous
 62
     7
370
    18
100
AcDbPolyline
 90
       23
 70
   128
 43
0.0
 10
219.9810786735
 20
38.9773090228
 10
220.0433071782
 20
40.3157127391
 10
220.2292393175
 20
41.7097186398
 10
220.5366169423
 20
43.1424049265
 10
220.9617087393
 20
44.596380353
 10
221.4993556708
 20
46.0539962005
 10
222.1430309024
 20
47.4975586308
 10
222.8849208033
 20
48.9095454109
 10
223.716020436
 20
50.2728157918
 10
224.6262408986
 20
51.5708230477
 10
225.6045334606
 20
52.7878093328
 10
226.6390229182
 20
53.9090035796
 10
227.7171521447
 20
54.9207946808
 10
228.8258340498
 20
55.8109021035
 10
229.9516107002
 20
56.5685209802
 10
231.080816721
 20
57.1844544619
 10
232.1997450847
 20
57.6512253952
 10
233.2948133931
 20
57.9631685128
 10
234.3527292545
 20
58.1164977667
 10
235.3606507218
 20
58.1093510377
 10
236.3063436843
 20
57.9418155961
 10
237.1783270771
 20
57.6159237157
 10
237.4835374319
 20
57.4539757971
  0
LWPOLYLINE
  5
258
330
1F
100
AcDbEntity
  8
0
  6
Continuous
 62
     7
370
    18
100
AcDbPolyline
 90
        9
 70
   128
 43
0.0
 10
222.9847159795
 20
32.3385595292
 10
222.8849208033
 20
32.3977773933
 10
222.1430309024
 20
32.9531963264
 10
221.4993556708
 20
33.6535871532
 10
220.9617087393
 20
34.4904490666
 10
220.5366169423
 20
35.4536239514
 10
220.2292393175
 20
36.5314195866
 10
220.0433071782
 20
37.7107528087
 10
219.9810786735
 20
38.9773090228
  0
LWPOLYLINE
  5
259
330
1F
100
AcDbEntity
  8
0
  6
Continuous
 62
     7
370
    18
100
AcDbPolyline
 90
       20
 70
   128
 43
0.0
 10
268.188081274
 20
17.8017246184
 10
268.2526676973
 20
18.7152845876
 10
268.444568884
 20
19.6771330308
 10
268.7582642555
 20
20.6595992176
 10
269.1847291178
 20
21.6344192051
 10
269.711695116
 20
22.5735497939
 10
270.3240023909
 20
23.4499732552
 10
271.0040358647
 20
24.2384767638
 10
271.7322324027
 20
24.9163769295
 10
272.4876428398
 20
25.4641708667
 10
273.2485355364
 20
25.8661002113
 10
273.9930210493
 20
26.1106022302
 10
274.6996817825
 20
26.1906425127
 10
275.3481884258
 20
26.1039191201
 10
275.9198847426
 20
25.8529264103
 10
276.3983235838
 20
25.4448850008
 10
276.7697420278
 20
24.8915339277
 10
277.023454202
 20
24.2087917277
 10
277.1521614578
 20
23.4162995607
 10
277.168325762
 20
22.9977430791
  0
LWPOLYLINE
  5
25A
330
1F
100
AcDbEntity
  8
0
  6
Continuous
 62
     7
370
    18
100
AcDbPolyline
 90
       11
 70
   128
 43
0.0
 10
272.66869135
 20
15.2033030721
 10
272.4876428398
 20
15.1034464887
 10
271.7322324027
 20
14.7790621001
 10
271.0040358647
 20
14.616204439
 10
270.3240023909
 20
14.6195580112
 10
269.711695116
 20
14.7890265408
 10
269.1847291178
 20
15.1197351388
 10
268.7582642555
 20
15.602169277
 10
268.444568884
 20
16.2224504972
 10
268.2526676973
 20
16.9627345463
 10
268.188081274
 20
17.8017246184
  0
LWPOLYLINE
  5
25B
330
1F
100
AcDbEntity
  8
0
  6
Continuous
 62
     7
370
    18
100
AcDbPolyline
 90
       16
 70
   128
 43
0.0
 10
267.6223961514
 20
17.8017242382
 10
267.687493276
 20
18.7464918456
 10
267.8810088846
 20
19.7406482131
 10
268.1976644137
 20
20.7570752541
 10
268.6288223934
 20
21.7680473972
 10
269.1627218774
 20
22.7459885097
 10
269.7847994833
 20
23.6642221595
 10
270.4780864946
 20
24.497701812
 10
271.2236719827
 20
25.2236920669
 10
272.0012182409
 20
25.8223897882
 10
272.7895158556
 20
26.2774643147
 10
273.5670621138
 20
26.5765023942
 10
274.3126476019
 20
26.7113468205
 10
275.0059346132
 20
26.6783193131
 10
275.6280122191
 20
26.478321179
 10
275.7700928674
 20
26.4029317159
  0
ARC
  5
25C
330
1F
100
AcDbEntity
  8
0
  6
Continuous
 62
     7
370
    18
100
AcDbCircle
 10
271.0300284083
 20
17.4812346688
 30
0.0
 40
3.42267018021359
100
AcDbArc
 50
174.6271071941
 51
233.9399776637
  0
LWPOLYLINE
  5
25D
330
1F
100
AcDbEntity
  8
0
  6
Continuous
 62
     7
370
    18
100
AcDbPolyline
 90
       13
 70
   128
 43
0.0
 10
270.0972694681
 20
18.9038755029
 10
270.1619790392
 20
19.6044271431
 10
270.3528629393
 20
20.3445622506
 10
270.6603493885
 20
21.0871673319
 10
271.0690197197
 20
21.7950051069
 10
271.5583815094
 20
22.4325816572
 10
272.1038961545
 20
22.967926241
 10
272.6782092802
 20
23.3741943758
 10
273.252522406
 20
23.6310140618
 10
273.7980370511
 20
23.7255072808
 10
274.2873988408
 20
23.6529358264
 10
274.6960691719
 20
23.4169387723
 10
274.8539991756
 20
23.2529564618
  0
ARC
  5
25E
330
1F
100
AcDbEntity
  8
0
  6
Continuous
 62
     7
370
    18
100
AcDbCircle
 10
271.7155903365
 20
18.6601818513
 30
0.0
 40
1.636566231196206
100
AcDbArc
 50
171.4364981538
 51
254.9389135315
  0
LWPOLYLINE
  5
25F
330
1F
100
AcDbEntity
  8
0
  6
Continuous
 62
     7
370
    18
100
AcDbPolyline
 90
        3
 70
   128
 43
0.0
 10
274.0366953918
 20
23.3620635307
 10
274.3153991655
 20
23.1237762754
 10
274.3957155829
 20
23.0182700073
  0
LWPOLYLINE
  5
260
330
1F
100
AcDbEntity
  8
0
  6
Continuous
 62
     7
370
    18
100
AcDbPolyline
 90
        3
 70
   128
 43
0.0
 10
271.2643850151
 20
17.5940586417
 10
271.0230386604
 20
17.6362327955
 10
270.7704991893
 20
17.7424428724
  0
LWPOLYLINE
  5
261
330
1F
100
AcDbEntity
  8
0
  6
Continuous
 62
     7
370
    18
100
AcDbPolyline
 90
        3
 70
   128
 43
0.0
 10
260.2953347959
 20
22.0258202742
 10
260.3573957011
 20
22.8386805547
 10
260.4943821784
 20
23.611614636
  0
LWPOLYLINE
  5
262
330
1F
100
AcDbEntity
  8
0
  6
Continuous
 62
     7
370
    18
100
AcDbPolyline
 90
        9
 70
   128
 43
0.0
 10
265.2901405776
 20
30.4268246391
 10
265.3818781222
 20
30.4765098036
 10
266.1632442678
 20
30.8180248905
 10
266.9192729547
 20
31.0015934757
 10
267.6303833085
 20
31.022461628
 10
268.2781579796
 20
30.8800885803
 10
268.8458200527
 20
30.5781619655
 10
269.3186671926
 20
30.1245016723
 10
269.3303965288
 20
30.1097468312
  0
ARC
  5
263
330
1F
100
AcDbEntity
  8
0
  6
Continuous
 62
     7
370
    18
100
AcDbCircle
 10
262.918604938
 20
20.7976783003
 30
0.0
 40
2.386177240517313
100
AcDbArc
 50
232.4499021084
 51
262.0905399559
  0
LWPOLYLINE
  5
264
330
1F
100
AcDbEntity
  8
0
  6
Continuous
 62
     7
370
    18
100
AcDbPolyline
 90
       15
 70
   128
 43
0.0
 10
260.7457854956
 20
21.9143786277
 10
260.8091947706
 20
22.8346521688
 10
260.9976935871
 20
23.803034163
 10
261.306139371
 20
24.7931094637
 10
261.7261192163
 20
25.7778712109
 10
262.2461767533
 20
26.7304582685
 10
262.8521264395
 20
27.624885905
 10
263.5274393017
 20
28.4367565048
 10
264.2536947798
 20
29.1439249781
 10
265.0110824555
 20
29.727100953
 10
265.7789427177
 20
30.1703772469
 10
266.5363303934
 20
30.461662469
 10
267.2625858715
 20
30.5930107224
 10
267.9378987337
 20
30.5608397569
 10
268.5335468081
 20
30.370997328
  0
LWPOLYLINE
  5
265
330
1F
100
AcDbEntity
  8
0
  6
Continuous
 62
     7
370
    18
100
AcDbPolyline
 90
        3
 70
   128
 43
0.0
 10
262.0099910826
 20
18.963963798
 10
261.7261192163
 20
19.182755266
 10
261.5806589176
 20
19.3267515367
  0
LINE
  5
266
330
1F
100
AcDbEntity
  8
0
  6
Continuous
 62
     7
370
    18
100
AcDbLine
 10
260.7476178957
 20
21.7647228165
 30
0.0
 11
260.7457854956
 21
21.9143786277
 31
0.0
  0
LINE
  5
267
330
1F
100
AcDbEntity
  8
0
  6
Continuous
 62
     7
370
    18
100
AcDbLine
 10
261.9510276416
 20
19.0624890971
 30
0.0
 11
261.6305140295
 21
19.4307782699
 31
0.0
  0
LWPOLYLINE
  5
268
330
1F
100
AcDbEntity
  8
0
  6
Continuous
 62
     7
370
    18
100
AcDbPolyline
 90
       16
 70
   128
 43
0.0
 10
261.0003356677
 20
21.6188319521
 10
260.9985559511
 20
21.7940482974
 10
261.0652102043
 20
22.7131882038
 10
261.2561094155
 20
23.6794838329
 10
261.5660784129
 20
24.6667363425
 10
261.9867125221
 20
25.6481782275
 10
262.5066073986
 20
26.5972002504
 10
263.1116670619
 20
27.4880714756
 10
263.7854866744
 20
28.2966374339
 10
264.5097968943
 20
29.0009756943
 10
265.2649598833
 20
29.581990191
 10
266.030500834
 20
30.0239275749
 10
266.7856638229
 20
30.3148057065
 10
267.5099740428
 20
30.4467382255
 10
268.1837936553
 20
30.4161478321
 10
268.4666511985
 20
30.3491025516
  0
LWPOLYLINE
  5
269
330
1F
100
AcDbEntity
  8
0
  6
Continuous
 62
     7
370
    18
100
AcDbPolyline
 90
       25
 70
   128
 43
0.0
 10
202.0384757663
 20
46.1727689319
 10
202.4292916387
 20
48.0361150153
 10
202.9390222101
 20
49.9239163131
 10
203.563992802
 20
51.8225608844
 10
204.2996937016
 20
53.7183547366
 10
205.1408236257
 20
55.5976320886
 10
206.0813160622
 20
57.4468382586
 10
207.1143880028
 20
59.2526414476
 10
208.2325906504
 20
61.0020175263
 10
209.4278621033
 20
62.6823549743
 10
210.6915820138
 20
64.2815366242
 10
212.0146387601
 20
65.7880286299
 10
213.3874920079
 20
67.1909713357
 10
214.8002421869
 20
68.4802452403
 10
216.2427022721
 20
69.646556542
 10
217.7044708
 20
70.681492978
 10
219.1750072512
 20
71.5775931983
 10
220.6437079684
 20
72.3283951544
 10
222.0999821771
 20
72.9284830273
 10
223.5333293235
 20
73.3735333944
 10
224.933413716
 20
73.6603339846
 10
226.2901392088
 20
73.7868191875
 10
227.593722794
 20
73.7520745136
 10
228.8347650658
 20
73.5563514177
 10
230.0043177214
 20
73.2010636793
  0
LWPOLYLINE
  5
26A
330
1F
100
AcDbEntity
  8
0
  6
Continuous
 62
     7
370
    18
100
AcDbPolyline
 90
       25
 70
   128
 43
0.0
 10
201.3223000528
 20
46.1675336156
 10
201.7117724944
 20
48.0559549482
 10
202.2213660885
 20
49.9698587673
 10
202.8474483035
 20
51.8956053713
 10
203.585559476
 20
53.8194707246
 10
204.4304378355
 20
55.7277449354
 10
205.3760616508
 20
57.606826169
 10
206.4156926947
 20
59.4433240666
 10
207.5419216828
 20
61.2241506165
 10
208.7467222747
 20
62.9366144461
 10
210.0215077086
 20
64.568509791
 10
211.3571940214
 20
66.1082092656
 10
212.7442612939
 20
67.5447372418
 10
214.1728247729
 20
68.867858056
 10
215.6327033604
 20
70.0681414028
 10
217.113492547
 20
71.1370333363
 10
218.6046395685
 20
72.0669148657
 10
220.09551741
 20
72.8511614079
 10
221.5755008674
 20
73.4841806126
 10
223.0340429388
 20
73.9614655882
 10
224.4607486637
 20
74.2796101509
 10
225.8454504443
 20
74.4363507866
 10
227.1782793326
 20
74.4305682595
 10
228.4497377996
 20
74.2623052861
 10
229.6507642729
 20
73.9327581644
  0
LWPOLYLINE
  5
26B
330
1F
100
AcDbEntity
  8
0
  6
Continuous
 62
     7
370
    18
100
AcDbPolyline
 90
       26
 70
   128
 43
0.0
 10
208.4747321977
 20
43.9364252094
 10
208.5368026517
 20
45.3627545155
 10
208.7223541523
 20
46.8456284306
 10
209.0294202855
 20
48.369328086
 10
209.4547478414
 20
49.9177031712
 10
209.9938264487
 20
51.4743395179
 10
210.6409419168
 20
53.0227359977
 10
211.3892348459
 20
54.5464801838
 10
212.2307730676
 20
56.0294194478
 10
213.1566365965
 20
57.4558339578
 10
214.1570104851
 20
58.8106043509
 10
215.2212911792
 20
60.0793697101
 10
216.3381961649
 20
61.2486790759
 10
217.4958861291
 20
62.3061387745
 10
218.6820897533
 20
63.240539974
 10
219.8842327477
 20
64.0419772803
 10
221.0895720702
 20
64.7019551184
 10
222.285330846
 20
65.2134777871
 10
223.4588337809
 20
65.5711230681
 10
224.5976412984
 20
65.7710983696
 10
225.6896816191
 20
65.8112857944
 10
226.723379177
 20
65.6912584781
 10
227.6877767791
 20
65.4122887529
 10
228.5726511807
 20
64.977335018
 10
229.3686220737
 20
64.3910057984
 10
229.9804678735
 20
63.7646235452
  0
LWPOLYLINE
  5
26C
330
1F
100
AcDbEntity
  8
0
  6
Continuous
 62
     7
370
    18
100
AcDbPolyline
 90
       11
 70
   128
 43
0.0
 10
213.7598850977
 20
35.6816239992
 10
213.1566365965
 20
35.8226282182
 10
212.2307730676
 20
36.1800634516
 10
211.3892348459
 20
36.6913833664
 10
210.6409419168
 20
37.3511669263
 10
209.9938264487
 20
38.1524197902
 10
209.4547478414
 20
39.0866492251
 10
209.0294202855
 20
40.143951567
 10
208.7223541523
 20
41.3131202115
 10
208.5368026517
 20
42.5817609241
 10
208.4747321977
 20
43.9364252094
  0
LWPOLYLINE
  5
26D
330
1F
100
AcDbEntity
  8
0
  6
Continuous
 62
     7
370
    18
100
AcDbPolyline
 90
       19
 70
   128
 43
0.0
 10
221.4570855099
 20
33.102286999
 10
220.5658640563
 20
32.4626190505
 10
219.1013994884
 20
31.5278518237
 10
217.6356380817
 20
30.7356847237
 10
216.179083086
 20
30.0917902697
 10
214.7421720615
 20
29.6007840386
 10
213.3352015983
 20
29.2661842489
 10
211.9682541777
 20
29.09038931
 10
210.651124332
 20
29.0746580096
 10
209.3932509796
 20
29.2191039116
 10
208.2036476193
 20
29.5226915607
 10
207.0908384512
 20
29.9832452329
 10
206.0627977906
 20
30.5974656724
 10
205.1268927752
 20
31.3609494878
 10
204.2898300219
 20
32.2682275614
 10
203.5576075544
 20
33.3127981328
 10
202.9354726552
 20
34.4871754737
 10
202.4278823535
 20
35.7829442636
 10
202.0384757663
 20
37.1908200498
  0
ARC
  5
26E
330
1F
100
AcDbEntity
  8
0
  6
Continuous
 62
     7
370
    18
100
AcDbCircle
 10
224.8937186692
 20
63.5552495283
 30
0.0
 40
11.12401072022571
100
AcDbArc
 50
9.0277736643
 51
48.7055209086
  0
LWPOLYLINE
  5
26F
330
1F
100
AcDbEntity
  8
0
  6
Continuous
 62
     7
370
    18
100
AcDbPolyline
 90
       32
 70
   128
 43
0.0
 10
205.5145147067
 20
43.6884690579
 10
205.5770988255
 20
45.2186955127
 10
205.7642650772
 20
46.8068917707
 10
206.0742683189
 20
48.4382304903
 10
206.5042109547
 20
50.0974787308
 10
207.0500811316
 20
51.7691458594
 10
207.7067803978
 20
53.437622713
 10
208.4681796798
 20
55.0873325449
 10
209.3271680139
 20
56.7028713254
 10
210.2757263035
 20
58.2691564059
 10
211.3049971252
 20
59.7715618741
 10
212.4053716559
 20
61.1960630345
 10
213.5665756136
 20
62.5293559824
 10
214.7777663921
 20
63.7589965698
 10
216.0276364531
 20
64.8735003967
 10
217.3045152353
 20
65.8624617186
 10
218.5964814986
 20
66.7166502405
 10
219.891472251
 20
67.4280861669
 10
221.1773965536
 20
67.9901302349
 10
222.4422478436
 20
68.3975348681
 10
223.6742170184
 20
68.6464942497
 10
224.861800952
 20
68.7346841537
 10
225.9939120596
 20
68.6612826096
 10
227.0599797142
 20
68.426973695
 10
228.0500506741
 20
68.0339461956
 10
228.9548809499
 20
67.4858690715
 10
229.7660214156
 20
66.7878587495
 10
230.4759001265
 20
65.9464338674
 10
231.0778875151
 20
64.9694494883
 10
231.566365538
 20
63.8660290325
 10
231.936770482
 20
62.6464726375
 10
232.1517154581
 20
61.5561811941
  0
LWPOLYLINE
  5
270
330
1F
100
AcDbEntity
  8
0
  6
Continuous
 62
     7
370
    18
100
AcDbPolyline
 90
       16
 70
   128
 43
0.0
 10
216.7683551326
 20
34.9053030042
 10
216.0276364531
 20
34.6416297187
 10
214.7777663921
 20
34.3130642899
 10
213.5665756136
 20
34.1442937705
 10
212.4053716559
 20
34.1368891664
 10
211.3049971252
 20
34.2909249361
 10
210.2757263035
 20
34.6049596089
 10
209.3271680139
 20
35.0760625997
 10
208.4681796798
 20
35.6998345601
 10
207.7067803978
 20
36.470451493
 10
207.0500811316
 20
37.3807195127
 10
206.5042109547
 20
38.4221383504
 10
206.0742683189
 20
39.5849853897
 10
205.7642650772
 20
40.858401985
 10
205.5770988255
 20
42.2305006886
 10
205.5145147067
 20
43.6884690579
  0
LWPOLYLINE
  5
271
330
1F
100
AcDbEntity
  8
0
  6
Continuous
 62
     7
370
    18
100
AcDbPolyline
 90
       20
 70
   128
 43
0.0
 10
191.1841545165
 20
47.0291336655
 10
191.2461525307
 20
48.7730837081
 10
191.4317119338
 20
50.5763827492
 10
191.7395314419
 20
52.4263821315
 10
192.167451029
 20
54.3101047585
 10
192.7124690492
 20
56.2143378692
 10
193.3707646274
 20
58.1257254321
 10
194.1377174152
 20
60.0308586385
 10
195.0079497382
 20
61.9163766601
 10
195.9753582059
 20
63.7690533384
 10
197.0331545414
 20
65.5758914788
 10
198.1739208996
 20
67.3242201841
 10
199.3896553059
 20
69.001774319
 10
200.6718302677
 20
70.5967869005
 10
202.0114520426
 20
72.0980719833
 10
203.3991238589
 20
73.4950961369
 10
204.8251130874
 20
74.7780643718
 10
206.2794167663
 20
75.9379731756
 10
207.7518342882
 20
76.9666904975
 10
209.1779634574
 20
77.8269936344
  0
LWPOLYLINE
  5
272
330
1F
100
AcDbEntity
  8
0
  6
Continuous
 62
     7
370
    18
100
AcDbPolyline
 90
        3
 70
   128
 43
0.0
 10
191.2768183142
 20
44.9952285647
 10
191.2461525307
 20
45.3567650064
 10
191.1841545165
 20
47.0291336655
  0
LWPOLYLINE
  5
273
330
1F
100
AcDbEntity
  8
0
  6
Continuous
 62
     7
370
    18
100
AcDbPolyline
 90
       21
 70
   128
 43
0.0
 10
199.0071677372
 20
48.855928023
 10
199.4212868656
 20
50.7434447537
 10
199.9619097598
 20
52.654394685
 10
200.6246676355
 20
54.5733393094
 10
201.404206526
 20
56.4847763326
 10
202.2942294285
 20
58.3732659071
 10
203.2875463542
 20
60.22355078
 10
204.3761329383
 20
62.0206867073
 10
205.5511956358
 20
63.7501523345
 10
206.8032415278
 20
65.3979777084
 10
208.1221566877
 20
66.9508518751
 10
209.4972858653
 20
68.3962297177
 10
210.917520732
 20
69.7224361311
 10
212.3713879605
 20
70.9187564144
 10
213.8471429036
 20
71.9755253307
 10
215.3328639917
 20
72.8842074581
 10
216.816549066
 20
73.6374619269
 10
218.2862123078
 20
74.2292044594
 10
219.7299815795
 20
74.6546529175
 10
221.1361933994
 20
74.9103730046
 10
221.4859753635
 20
74.9480119942
  0
LWPOLYLINE
  5
274
330
1F
100
AcDbEntity
  8
0
  6
Continuous
 62
     7
370
    18
100
AcDbPolyline
 90
       18
 70
   128
 43
0.0
 10
199.5811623743
 20
48.8607246235
 10
199.99678035
 20
50.7278813406
 10
200.5379340311
 20
52.6175276147
 10
201.2002032668
 20
54.5142257035
 10
201.9781774555
 20
56.4024816832
 10
202.8655003256
 20
58.2668686397
 10
203.8549239361
 20
60.0921582231
 10
204.938366629
 20
61.8634377541
 10
206.1069755904
 20
63.5662360742
 10
207.3512052177
 20
65.1866455932
 10
208.6608902177
 20
66.7114260849
 10
210.0253322058
 20
68.1281231217
 10
211.4333846576
 20
69.4251612229
 10
212.8735442822
 20
70.591946794
 10
214.3340466759
 20
71.61894616
 10
215.8029602059
 20
72.4977701821
 10
217.2682850799
 20
73.2212405751
 10
217.4121126822
 20
73.2839235374
  0
LINE
  5
275
330
1F
100
AcDbEntity
  8
0
  6
Continuous
 62
     7
370
    18
100
AcDbLine
 10
192.7610034708
 20
46.5311915878
 30
0.0
 11
194.9141423985
 21
47.7741722332
 31
0.0
  0
LWPOLYLINE
  5
276
330
1F
100
AcDbEntity
  8
0
  6
Continuous
 62
     7
370
    18
100
AcDbPolyline
 90
       20
 70
   128
 43
0.0
 10
180.3138346276
 20
66.7132307397
 10
180.9228974184
 20
68.3858489813
 10
181.6463586098
 20
70.0451879321
 10
182.4765487925
 20
71.673657284
 10
183.4046678363
 20
73.2539949749
 10
184.4208764276
 20
74.7694470295
 10
185.514402754
 20
76.2039492997
 10
186.6736541272
 20
77.5422953265
 10
187.8863417774
 20
78.7702965957
 10
189.1396104219
 20
79.8749371852
 10
190.4201741723
 20
80.8445046941
 10
191.7144583681
 20
81.6687230727
 10
193.008742564
 20
82.3388534185
 10
194.2893063143
 20
82.8477933449
 10
195.5425749589
 20
83.1901459322
 10
196.7552626091
 20
83.3622840211
 10
197.9145139823
 20
83.3623811403
 10
199.0080403087
 20
83.1904374922
 10
200.0242489
 20
82.848274903
 10
200.2934513582
 20
82.722412046
  0
ARC
  5
277
330
1F
100
AcDbEntity
  8
0
  6
Continuous
 62
     7
370
    18
100
AcDbCircle
 10
186.1738255011
 20
57.3546064847
 30
0.0
 40
6.567090909485796
100
AcDbArc
 50
206.8329030038
 51
236.0333930637
  0
ARC
  5
278
330
1F
100
AcDbEntity
  8
0
  6
Continuous
 62
     7
370
    18
100
AcDbCircle
 10
213.6561216303
 20
39.6695119829
 30
0.0
 40
12.5814565645978
100
AcDbArc
 50
191.3865744508
 51
214.2485105814
  0
LINE
  5
279
330
1F
100
AcDbEntity
  8
0
  6
Continuous
 62
     7
370
    18
100
AcDbLine
 10
196.7261058803
 20
39.8389111517
 30
0.0
 11
198.4496762254
 21
40.8339071329
 31
0.0
  0
LINE
  5
27A
330
1F
100
AcDbEntity
  8
0
  6
Continuous
 62
     7
370
    18
100
AcDbLine
 10
192.7610034708
 20
45.7146507372
 30
0.0
 11
194.9141423985
 21
46.9576313825
 31
0.0
  0
LINE
  5
27B
330
1F
100
AcDbEntity
  8
0
  6
Continuous
 62
     7
370
    18
100
AcDbLine
 10
200.4329389875
 20
39.1616912457
 30
0.0
 11
200.3660506218
 21
39.4256694008
 31
0.0
  0
LINE
  5
27C
330
1F
100
AcDbEntity
  8
0
  6
Continuous
 62
     7
370
    18
100
AcDbLine
 10
199.9248106549
 20
38.6965119155
 30
0.0
 11
199.5811623743
 21
39.8787757415
 31
0.0
  0
LWPOLYLINE
  5
27D
330
1F
100
AcDbEntity
  8
0
  6
Continuous
 62
     7
370
    18
100
AcDbPolyline
 90
        3
 70
   128
 43
0.0
 10
199.8351755034
 20
37.4436635688
 10
199.4044808097
 20
38.5123524449
 10
199.0071677372
 20
39.873979141
  0
LINE
  5
27E
330
1F
100
AcDbEntity
  8
0
  6
Continuous
 62
     7
370
    18
100
AcDbLine
 10
227.6386658225
 20
75.0938135515
 30
0.0
 11
227.538297054
 21
75.0358718947
 31
0.0
  0
ARC
  5
27F
330
1F
100
AcDbEntity
  8
0
  6
Continuous
 62
     7
370
    18
100
AcDbCircle
 10
186.2785126732
 20
64.3973950411
 30
0.0
 40
1.982758115011431
100
AcDbArc
 50
160.3181851691
 51
206.3321513809
  0
ARC
  5
280
330
1F
100
AcDbEntity
  8
0
  6
Continuous
 62
     7
370
    18
100
AcDbCircle
 10
184.0264017063
 20
64.337727197
 30
0.0
 40
0.8231407192533249
100
AcDbArc
 50
40.3516534992
 51
62.0985447238
  0
LINE
  5
281
330
1F
100
AcDbEntity
  8
0
  6
Continuous
 62
     7
370
    18
100
AcDbLine
 10
184.4115922671
 20
65.06518089
 30
0.0
 11
184.5593946794
 21
65.6194357227
 31
0.0
  0
LINE
  5
282
330
1F
100
AcDbEntity
  8
0
  6
Continuous
 62
     7
370
    18
100
AcDbLine
 10
184.4115922671
 20
65.06518089
 30
0.0
 11
183.1583728488
 21
65.7886490608
 31
0.0
  0
LINE
  5
283
330
1F
100
AcDbEntity
  8
0
  6
Continuous
 62
     7
370
    18
100
AcDbLine
 10
180.3136910649
 20
67.5951360975
 30
0.0
 11
180.2990707183
 21
67.7708619413
 31
0.0
  0
ARC
  5
284
330
1F
100
AcDbEntity
  8
0
  6
Continuous
 62
     7
370
    18
100
AcDbCircle
 10
184.1299432264
 20
51.036284142
 30
0.0
 40
0.5806338492588559
100
AcDbArc
 50
25.5709532967
 51
60.9828307538
  0
ARC
  5
285
330
1F
100
AcDbEntity
  8
0
  6
Continuous
 62
     7
370
    18
100
AcDbCircle
 10
186.3670500776
 20
52.1900257834
 30
0.0
 40
2.059398257764519
100
AcDbArc
 50
172.8727688225
 51
198.2811498096
  0
LINE
  5
286
330
1F
100
AcDbEntity
  8
0
  6
Continuous
 62
     7
370
    18
100
AcDbLine
 10
183.5664076845
 20
56.5776363961
 30
0.0
 11
181.9493397914
 21
57.5111498204
 31
0.0
  0
LINE
  5
287
330
1F
100
AcDbEntity
  8
0
  6
Continuous
 62
     7
370
    18
100
AcDbLine
 10
184.4115922671
 20
51.5440335731
 30
0.0
 11
183.1583728488
 21
52.2675017439
 31
0.0
  0
LINE
  5
288
330
1F
100
AcDbEntity
  8
0
  6
Continuous
 62
     7
370
    18
100
AcDbLine
 10
184.4115922671
 20
51.5440335731
 30
0.0
 11
184.5593946794
 21
51.1604277732
 31
0.0
  0
OLE2FRAME
  5
289
330
1F
100
AcDbEntity
  8
0
100
AcDbOle2Frame
 70
     2
  3
Paintbrush-Bild
 10
13.8511154363
 20
38.264191557
 30
0.0
 11
51.6290888628
 21
31.9806341108
 31
0.0
 71
     2
 72
     0
 73
     1
 90
    12928
310
80552BED0767C5B32B40DDAF6807D121434000000000000000006FFBDDFB85D0
310
4940DDAF6807D121434000000000000000006FFBDDFB85D04940416F4BD60AFB
310
3F4000000000000000002BED0767C5B32B40416F4BD60AFB3F40000000000000
310
0000000000000100000000010000010000000100000000000100000000320000
310
D0CF11E0A1B11AE1000000000000000000000000000000003E000300FEFF0900
310
0600000000000000000000000100000001000000000000000010000002000000
310
01000000FEFFFFFF0000000000000000FFFFFFFFFFFFFFFFFFFFFFFFFFFFFFFF
310
FFFFFFFFFFFFFFFFFFFFFFFFFFFFFFFFFFFFFFFFFFFFFFFFFFFFFFFFFFFFFFFF
310
FFFFFFFFFFFFFFFFFFFFFFFFFFFFFFFFFFFFFFFFFFFFFFFFFFFFFFFFFFFFFFFF
310
FFFFFFFFFFFFFFFFFFFFFFFFFFFFFFFFFFFFFFFFFFFFFFFFFFFFFFFFFFFFFFFF
310
FFFFFFFFFFFFFFFFFFFFFFFFFFFFFFFFFFFFFFFFFFFFFFFFFFFFFFFFFFFFFFFF
310
FFFFFFFFFFFFFFFFFFFFFFFFFFFFFFFFFFFFFFFFFFFFFFFFFFFFFFFFFFFFFFFF
310
FFFFFFFFFFFFFFFFFFFFFFFFFFFFFFFFFFFFFFFFFFFFFFFFFFFFFFFFFFFFFFFF
310
FFFFFFFFFFFFFFFFFFFFFFFFFFFFFFFFFFFFFFFFFFFFFFFFFFFFFFFFFFFFFFFF
310
FFFFFFFFFFFFFFFFFFFFFFFFFFFFFFFFFFFFFFFFFFFFFFFFFFFFFFFFFFFFFFFF
310
FFFFFFFFFFFFFFFFFFFFFFFFFFFFFFFFFFFFFFFFFFFFFFFFFFFFFFFFFFFFFFFF
310
FFFFFFFFFFFFFFFFFFFFFFFFFFFFFFFFFFFFFFFFFFFFFFFFFFFFFFFFFFFFFFFF
310
FFFFFFFFFFFFFFFFFFFFFFFFFFFFFFFFFFFFFFFFFFFFFFFFFFFFFFFFFFFFFFFF
310
FFFFFFFFFFFFFFFFFFFFFFFFFFFFFFFFFFFFFFFFFFFFFFFFFFFFFFFFFFFFFFFF
310
FFFFFFFFFFFFFFFFFFFFFFFFFFFFFFFFFFFFFFFFFFFFFFFFFFFFFFFFFFFFFFFF
310
FDFFFFFFFEFFFFFFFEFFFFFFFEFFFFFF05000000060000000700000008000000
310
090000000A0000000B0000000C0000000D0000000E0000000F00000010000000
310
11000000120000001300000014000000150000001600000017000000FEFFFFFF
310
FFFFFFFFFFFFFFFFFFFFFFFFFFFFFFFFFFFFFFFFFFFFFFFFFFFFFFFFFFFFFFFF
310
FFFFFFFFFFFFFFFFFFFFFFFFFFFFFFFFFFFFFFFFFFFFFFFFFFFFFFFFFFFFFFFF
310
FFFFFFFFFFFFFFFFFFFFFFFFFFFFFFFFFFFFFFFFFFFFFFFFFFFFFFFFFFFFFFFF
310
FFFFFFFFFFFFFFFFFFFFFFFFFFFFFFFFFFFFFFFFFFFFFFFFFFFFFFFFFFFFFFFF
310
FFFFFFFFFFFFFFFFFFFFFFFFFFFFFFFFFFFFFFFFFFFFFFFFFFFFFFFFFFFFFFFF
310
FFFFFFFFFFFFFFFFFFFFFFFFFFFFFFFFFFFFFFFFFFFFFFFFFFFFFFFFFFFFFFFF
310
FFFFFFFFFFFFFFFFFFFFFFFFFFFFFFFFFFFFFFFFFFFFFFFFFFFFFFFFFFFFFFFF
310
FFFFFFFFFFFFFFFFFFFFFFFFFFFFFFFFFFFFFFFFFFFFFFFFFFFFFFFFFFFFFFFF
310
FFFFFFFFFFFFFFFFFFFFFFFFFFFFFFFFFFFFFFFFFFFFFFFFFFFFFFFFFFFFFFFF
310
FFFFFFFFFFFFFFFFFFFFFFFFFFFFFFFFFFFFFFFFFFFFFFFFFFFFFFFFFFFFFFFF
310
FFFFFFFFFFFFFFFFFFFFFFFFFFFFFFFFFFFFFFFFFFFFFFFFFFFFFFFFFFFFFFFF
310
FFFFFFFFFFFFFFFFFFFFFFFFFFFFFFFFFFFFFFFFFFFFFFFFFFFFFFFFFFFFFFFF
310
FFFFFFFFFFFFFFFFFFFFFFFFFFFFFFFFFFFFFFFFFFFFFFFFFFFFFFFFFFFFFFFF
310
52006F006F007400200045006E00740072007900000000000000000000000000
310
0000000000000000000000000000000000000000000000000000000000000000
310
16000500FFFFFFFFFFFFFFFF020000000A00030000000000C000000000000046
310
0000000000000000000000002069C8DA63A9D30103000000C000000000000000
310
01004F006C006500000000000000000000000000000000000000000000000000
310
0000000000000000000000000000000000000000000000000000000000000000
310
0A000200FFFFFFFFFFFFFFFFFFFFFFFF00000000000000000000000000000000
310
0000000000000000000000000000000000000000000000001400000000000000
310
010043006F006D0070004F0062006A0000000000000000000000000000000000
310
0000000000000000000000000000000000000000000000000000000000000000
310
120002010100000003000000FFFFFFFF00000000000000000000000000000000
310
0000000000000000000000000000000000000000010000004D00000000000000
310
01004F006C006500310030004E00610074006900760065000000000000000000
310
0000000000000000000000000000000000000000000000000000000000000000
310
1A000200FFFFFFFFFFFFFFFFFFFFFFFF00000000000000000000000000000000
310
0000000000000000000000000000000000000000040000002426000000000000
310
FEFFFFFF02000000FEFFFFFFFFFFFFFFFFFFFFFFFFFFFFFFFFFFFFFFFFFFFFFF
310
FFFFFFFFFFFFFFFFFFFFFFFFFFFFFFFFFFFFFFFFFFFFFFFFFFFFFFFFFFFFFFFF
310
FFFFFFFFFFFFFFFFFFFFFFFFFFFFFFFFFFFFFFFFFFFFFFFFFFFFFFFFFFFFFFFF
310
FFFFFFFFFFFFFFFFFFFFFFFFFFFFFFFFFFFFFFFFFFFFFFFFFFFFFFFFFFFFFFFF
310
FFFFFFFFFFFFFFFFFFFFFFFFFFFFFFFFFFFFFFFFFFFFFFFFFFFFFFFFFFFFFFFF
310
FFFFFFFFFFFFFFFFFFFFFFFFFFFFFFFFFFFFFFFFFFFFFFFFFFFFFFFFFFFFFFFF
310
FFFFFFFFFFFFFFFFFFFFFFFFFFFFFFFFFFFFFFFFFFFFFFFFFFFFFFFFFFFFFFFF
310
FFFFFFFFFFFFFFFFFFFFFFFFFFFFFFFFFFFFFFFFFFFFFFFFFFFFFFFFFFFFFFFF
310
FFFFFFFFFFFFFFFFFFFFFFFFFFFFFFFFFFFFFFFFFFFFFFFFFFFFFFFFFFFFFFFF
310
FFFFFFFFFFFFFFFFFFFFFFFFFFFFFFFFFFFFFFFFFFFFFFFFFFFFFFFFFFFFFFFF
310
FFFFFFFFFFFFFFFFFFFFFFFFFFFFFFFFFFFFFFFFFFFFFFFFFFFFFFFFFFFFFFFF
310
FFFFFFFFFFFFFFFFFFFFFFFFFFFFFFFFFFFFFFFFFFFFFFFFFFFFFFFFFFFFFFFF
310
FFFFFFFFFFFFFFFFFFFFFFFFFFFFFFFFFFFFFFFFFFFFFFFFFFFFFFFFFFFFFFFF
310
FFFFFFFFFFFFFFFFFFFFFFFFFFFFFFFFFFFFFFFFFFFFFFFFFFFFFFFFFFFFFFFF
310
FFFFFFFFFFFFFFFFFFFFFFFFFFFFFFFFFFFFFFFFFFFFFFFFFFFFFFFFFFFFFFFF
310
FFFFFFFFFFFFFFFFFFFFFFFFFFFFFFFFFFFFFFFFFFFFFFFFFFFFFFFFFFFFFFFF
310
0100000200000000000000000000000000000000000000000000000000000000
310
0000000000000000000000000000000000000000000000000000000000000000
310
0100FEFF030A0000FFFFFFFF0A00030000000000C00000000000004607000000
310
5042727573680007000000504272757368000700000050427275736800F439B2
310
7100000000000000000000000000000000000000000000000000000000000000
310
0000000000000000000000000000000000000000000000000000000000000000
310
0000000000000000000000000000000000000000000000000000000000000000
310
0000000000000000000000000000000000000000000000000000000000000000
310
0000000000000000000000000000000000000000000000000000000000000000
310
0000000000000000000000000000000000000000000000000000000000000000
310
0000000000000000000000000000000000000000000000000000000000000000
310
0000000000000000000000000000000000000000000000000000000000000000
310
0000000000000000000000000000000000000000000000000000000000000000
310
0000000000000000000000000000000000000000000000000000000000000000
310
0000000000000000000000000000000000000000000000000000000000000000
310
0000000000000000000000000000000000000000000000000000000000000000
310
20260000424D0E260000000000003E00000028000000B40200006E0000000100
310
01000000000000000000130B0000130B00000200000002000000000000FFFFFF
310
FFFFFFFFFFFFFFFFFFFFFFFFFFFFFFFFFFFFFFFFFFFFFFFFFFFFFFFFFFFFFFFF
310
FFFFFFFFFFFFFFFFFFFFFFFFFFFFFFFFFFFFFFFFFFFFFFFFFFFFFFFFFFFFFFFF
310
FFFFFFFFFFFFFFFFFFFFFFFFFFFFFFFFFFFFFFFFFFFFFFFFF000FFFFFFFFFFFF
310
FFFFFFFFFFFFFFFFFFFFFFFFFFFFFFFFFFFFFFFFFFFFFFFFFFFFFFFFFFFFFFFF
310
FFFFFFFFFFFFFFFFFFFFFFFFFFFFFFFFFFFFFFFFFFFFFFFFFFFFFFFFFFFFFFFF
310
FFFFFFFFFFFFFFFFFFFFFFFFFFFFFFFFF000FFFFFFFFFFFFFFFFFFFFFFFFFFFF
310
FFFFFFFFFFFFFFFFFFFFFFFFFFFFFFFFFFFFFFFFFFFFFFFFFFFFFFFFFFFFFFFF
310
FFFFFFFFFFFFFFFFFFFFFFFFFFFFFFFFFFFFFFFFFFFFFFFFFFFFFFFFFFFFFFFF
310
FFFFFFFFFFFFFFFFF000FFFFFFFFFFFFFFFFFFFFFFFFFFFFFFFFFFFFFFFFFFFF
310
FFFFFFFFFFFFFFFFFFFFFFFFFFFFFFFFFFFFFFFFFFFFFFFFFFFFFFFFFFFFFFFF
310
FFFFFFFFFFFFFFFFFFFFFFFFFFFFFFFFFFFFFFFFFFFFFFFFFFFFFFFFFFFFFFFF
310
F000FFFFFFFFFFFFFFFFFFFFFFFFFFFFFFFFFFFFFFFFFFFFFFFFFFFFFFFFFFFF
310
FFFFFFFFFFFFFFFFFFFFFFFFFFFFFFFFFFFFFFFFFFFFFFFFFFFFFFFFFFFFFFFF
310
FFFFFFFFFFFFFFFFFFFFFFFFFFFFFFFFFFFFFFFFFFFFFFFFF000FFFFFFFFFFFF
310
FFFFFFFFFFFFFFFFFFFFFFFFFFFFFFFFFFFFFFFFFFFFFFFFFFFFFFFFFFFFFFFF
310
FFFFFFFFFFFFFFFFFFFFFFFFFFFFFFFFFFFFFFFFFFFFFFFFFFFFFFFFFFFFFFFF
310
FFFFFFFFFFFFFFFFFFFFFFFFFFFFFFFFF000FFFFFFFFFFFFFFFFFFFFFFFFFFFF
310
FFFFFFFFFFFFFFFFFFFFFFFFFFFFFFFFFFFFFFFFFFFFFFFFFFFFFFFFFFFFFFFF
310
FFFFFFFFFFFFFFFFFFFFFFFFFFFFFFFFFFFFFFFFFFFFFFFFFFFFFFFFFFFFFFFF
310
FFFFFFFFFFFFFFFFF000FFFFFFFFFFFFFFFFFFFFFFFFFFFFFFFFFFFFFFFFFFFF
310
FFFFFFFFFFFFFFFFFFFFFFFFFFFFFFFFFFFFFFFFFFFFFFFFFFFFFFFFFFFFFFFF
310
FFFFFFFFFFFFFFFFFFFFFFFFFFFFFFFFFFFFFFFFFFFFFFFFFFFFFFFFFFFFFFFF
310
F000FFFFFFFFFFFFFFFFFFFFFFFFFFFFFFFFFFFFFFFFFFFFFFFFFFFFFFFFFFFF
310
FFFFFFFFFFFFFFFFFFFFFFFFFFFFFFFFFFFFFFFFFFFFFFFFFFFFFFFFFFFFFFFF
310
FFFFFFFFFFFFFFFFFFFFFFFFFFFFFFFFFFFFFFFFFFFFFFFFF000FFFFFFFFFFFF
310
FFFFFFFFFFFFFFFFFFFFFFFFFFFFFFFFFFFFFFFFFFFFFFFFFFFFFFFFFFFFFFFF
310
FFFFFFFFFFFFFFFFFFFFFFFFFFFFFFFFFFFFFFFFFFFFFFFFFFFFFFFFFFFFFFFF
310
FFFFFFFFFFFFFFFFFFFFFFFFFFFFFFFFF000FFFFFFFFFFFFFFFFFFFFFFFFFFFF
310
FFFFFFFFFFFFFFFFFFFFFFFFFFFFFFFFFFFFFFFFFFFFFFFFFFFFFFFFFFFFFFFF
310
FFFFFFFFFFFFFFFFFFFFFFFFFFFFFFFFFFFFFFFFFFFFFFFFFFFFFFFFFFFFFFFF
310
FFFFFFFFFFFFFFFFF000FFFFFFFFFFFFFFFFFFFFFFFFFFFFFFFFFFFFFFFFFFFF
310
FFFFFFFFFFFFFFFFFFFFFFFFFFFFFFFFFFFFFFFFFFFFFFFFFFFFFFFFFFFFFFFF
310
FFFFFFFFFFFFFFFFFFFFFFFFFFFFFFFFFFFFFFFFFFFFFFFFFFFFFFFFFFFFFFFF
310
F000FFFFFFFFFFFFFFFFFFFFFFFFFFFFFFFFFFFFFFFFFFFFFFFFFFFFFFFFFFFF
310
FFFFFFFFFFFFFFFFFFFFFFFFFFFFFFFFFFFFFFFFFFFFFFFFFFFFFFFFFFFFFFFF
310
FFFFFFFFFFFFFFFFFFFFFFFFFFFFFFFFFFFFFFFFFFFFFFFFF000FFFFFFFFFFFF
310
FFFFFFFFFFFFFFFFFFFFFFFFFFFFFFFFFFFFFFFFFFFFFFFFFFFFFFFFFFFFFFFF
310
FFFFFFFFFFFFFFFFFFFFFFFFFFFFFFFFFFFFFFFFFFFFFFFFFFFFFFFFFFFFFFFF
310
FFFFFFFFFFFFFFFFFFFFFFFFFFFFFFFFF000FFFFFFFFFFFFFFFFFFFFFFFFFFFF
310
FFFFFFFFFFFFFFFFFFFFFFFFFFFFFFFFFFFFFFFFFFFFFFFFFFFFFFFFFFFFFFFF
310
FFFFFFFFFFFFFFFFFFFFFFFFFFFFFFFFFFFFFFFFFFFFFFFFFFFFFFFFFFFFFFFF
310
FFFFFFFFFFFFFFFFF000FFFFFFFFFFFFFFFFFFFFFFFFFFFFFFFFFFFFFFFFFFFF
310
FFFFFFFFFFFFFFFFFFFFFFFFFFFFFFFFFFFFFFFFFFFFFFFFFFFFFFFFFFFFFFFF
310
FFFFFFFFFFFFFFFFFFFFFFFFFFFFFFFFFFFFFFFFFFFFFFFFFFFFFFFFFFFFFFFF
310
F000FFFFFFFFFFFFFFFFFFFFFFFFFFFFFFFFFFFFFFFFFFFFFFFFFFFFFFFFFFFF
310
FFFFFFFFFFFFFFFFFFFFFFFFFFFFFFFFFFFFFFFFFFFFFFFFFFFFFFFFFFFFFFFF
310
FFFFFFFFFFFFFFFFFFFFFFFFFFFFFFFFFFFFFFFFFFFFFFFFF000FFFFFFFFFFFF
310
FFFFFFFFFFFFFFFFFFFFFFFFFFFFFFFFFFFFFFFFFFFFFFFFFFFFFFFFFFFFFFFF
310
FFFFFFFFFFFFFFFFFFFFFFFFFFFFFFFFFFFFFFFFFFFFFFFFFFFFFFFFFFFFFFFF
310
FFFFFFFFFFFFFFFFFFFFFFFFFFFFFFFFF000FFFFFFFFFFFFFFFFFFFFFFFFFFFF
310
FFFFFFFFFFFFFFFFFFFFFFFFFFFFFFFFFFFFFFFFFFFFFFFFFFFFFFFFFFFFFFFF
310
FFFFFFFFFFFFFFFFFFFFFFFFFFFFFFFFFFFFFFFFFFFFFFFFFFFFFFFFFFFFFFFF
310
FFFFFFFFFFFFFFFFF000FFFFF80003FFFFFFFFFFFFFFFFFFFFFFFFFFFFFFFFFF
310
FFFFF00007FFFFFFFFFF00007FFFFFF800000000000000007FFFFFFFFFFFFFFF
310
FFFFFFFC001FFFFFFFFFFFFFFC001FFFFFFFFFFFFFFFFFFFFFFFFFFE0007FFFF
310
F000FFFF8000007FFFFFFFF8000FFFFFC0007FFFFF80007FFFFF0000007FFFFF
310
FFF8000007FFFFF800000000000000007FFFFFF0001FFFFFFFFFFFC00001FFFF
310
FFFFFFFFC00001FFFFFFFF000000000003FFFFE000007FFFF000FFFE0000000F
310
FFFFFFF0000FFFFF80007FFFFF80007FFFFC0000001FFFFFFFC0000001FFFFF8
310
00000000000000007FFFFFF0001FFFFFFFFFFE0000003FFFFFFFFFFE0000003F
310
FFFFFF000000000003FFFF0000000FFFF000FFF800000003FFFFFFF00007FFFF
310
80007FFFFF80007FFFF000000007FFFFFF000000003FFFF80000000000000000
310
7FFFFFF0001FFFFFFFFFF80000000FFFFFFFFFF80000000FFFFFFF0000000000
310
03FFFC00000003FFF000FFE000000000FFFFFFF00007FFFF80003FFFFF80007F
310
FFC000000001FFFFFC000000001FFFF800000000000000007FFFFFF0001FFFFF
310
FFFFE000000003FFFFFFFFE000000003FFFFFF000000000003FFF000000000FF
310
F000FF80000000007FFFFFF00007FFFF80003FFFFF80007FFF8000000000FFFF
310
F80000000007FFF800000000000000007FFFFFF0001FFFFFFFFFC000000001FF
310
FFFFFFC000000001FFFFFF000000000003FFC0000000007FF000FF0000000000
310
3FFFFFE00007FFFF00003FFFFF80007FFE00000000003FFFF00000000003FFF8
310
00000000000000007FFFFFF0001FFFFFFFFF8000000000FFFFFFFF8000000000
310
FFFFFF000000000003FF80000000003FF000FE00000000001FFFFFE00003FFFF
310
00003FFFFF80007FFC00000000001FFFE00000000001FFF8000001FFFE000000
310
7FFFFFF0001FFFFFFFFE00000000003FFFFFFE00000000003FFFFF0000000000
310
03FF00000000001FF000FC00000000000FFFFFE00003FFFF00001FFFFF80007F
310
F800000000001FFFC00000000000FFF8000001FFFE0000007FFFFFF0001FFFFF
310
FFFC00000000001FFFFFFC00000000001FFFFF000000000003FE00000000000F
310
F000F8000000000007FFFFE00003FFFF00001FFFFF80007FF800000000000FFF
310
800000000000FFF8000001FFFE0000007FFFFFF0001FFFFFFFF800000000000F
310
FFFFF800000000000FFFFF000000000003FC000000000007F000F80000000000
310
03FFFFC00003FFFE00001FFFFF80007FF0000000000007FF0000000000007FF8
310
000001FFFE0000007FFFFFF0001FFFFFFFF0000000000007FFFFF00000000000
310
07FFFF000000000003F8000000000003F000F0000000000003FFFFC00001FFFE
310
00001FFFFF80007FE0000000000007FE0000000000003FF8000001FFFE000000
310
7FFFFFF0001FFFFFFFF0000000000007FFFFF0000000000007FFFF0000000000
310
03F800001F800003F000E00001FFF00001FFFFC00001FFFE00000FFFFF80007F
310
E00001FFE00003FE00001FFF00003FF8000001FFFE0000007FFFFFF0001FFFFF
310
FFE000003E000003FFFFE000003E000003FFFF000000000003F00001FFF80001
310
F000E00007FFFC0001FFFFC00001FFFE00000FFFFF80007FC0000FFFFC0003FC
310
0000FFFFC0001FF8000001FFFE0000007FFFFFF0001FFFFFFFC00003FFE00001
310
FFFFC00003FFE00001FFFF0001FFFFFFFFF00007FFFE0001F000E0000FFFFF00
310
00FFFF800001FFFC00000FFFFF80007FC0001FFFFE0001FC0001FFFFE0001FF8
310
000001FFFE0000007FFFFFF0001FFFFFFF80000FFFF80000FFFF80000FFFF800
310
00FFFF0003FFFFFFFFE0000FFFFF8000F000C0003FFFFF8000FFFF800000FFFC
310
000007FFFF80007F80003FFFFF0001FC0003FFFFF0001FF8000001FFFE000000
310
7FFFFFF0001FFFFFFF80003FFFFE0000FFFF80003FFFFE0000FFFF0003FFFFFF
310
FFE0003FFFFF8000F000C0003FFFFF8000FFFF800000FFFC000007FFFF80007F
310
80007FFFFF8001F80007FFFFF8000FF8000001FFFE0000007FFFFFF0001FFFFF
310
FF00007FFFFF00007FFF00007FFFFF00007FFF0003FFFFFFFFE0003FFFFFC000
310
F000C0007FFFFFC000FFFF000000FFFC000007FFFF80007F8000FFFFFF8000F8
310
000FFFFFF8000FF8000001FFFE0000007FFFFFF0001FFFFFFF0000FFFFFF8000
310
7FFF0000FFFFFF80007FFF0003FFFFFFFFC0007FFFFFC00070008000FFFFFFC0
310
00FFFF000000FFF8000007FFFF80007F8000FFFFFF8000F8000FFFFFF8000FF8
310
000001FFFE0000007FFFFFF0001FFFFFFE0001FFFFFFC0003FFE0001FFFFFFC0
310
003FFF0003FFFFFFFFC0007FFFFFE00070008000FFFFFFC0007FFF0000007FF8
310
000003FFFF80007F0001FFFFFF8000F8000FFFFFF8000FF8000001FFFE000000
310
7FFFFFF0001FFFFFFE0001FFFFFFC0003FFE0001FFFFFFC0003FFF0003FFFFFF
310
FFC000FFFFFFE00070008000FFFFFFC0007FFF0000007FF8000003FFFF80007F
310
0001FFFFFF8000F8001FFFFFF8000FF8000001FFFE0000007FFFFFF0001FFFFF
310
FE0003FFFFFFE0003FFE0003FFFFFFE0003FFF0003FFFFFFFFC000FFFFFFE000
310
70008000FFFFFFC0007FFE0000007FF8000003FFFF80007F0001FFFFFF8000F0
310
001FFFFFF8000FF8000001FFFE0000007FFFFFF0001FFFFFFC0003FFFFFFE000
310
1FFC0003FFFFFFE0001FFF0003FFFFFFFFC000FFFFFFC00070008000FFFFFF80
310
007FFE0000007FF0000003FFFF80007F0001FFFFFF0000F0001FFFFFF8000FF8
310
000001FFFE0000007FFFFFF0001FFFFFFC0007FFFFFFF0001FFC0007FFFFFFF0
310
001FFF0003FFFFFFFFC000FFFFFFC00070008001FFFFFF0000FFFE0000003FF0
310
000001FFFF80007F0001FFFFFF0000F8001FFFFFF0000FF8000001FFFE000000
310
7FFFFFF0001FFFFFFC0007FFFFFFF0001FFC0007FFFFFFF0001FFF0003FFFFFF
310
FFC001FFFFFF80007000FFFFFFFFFE0000FFFE0008003FF0008001FFFF80007F
310
FFFFFFFFFC0000FFFFFFFFFFE0000FF8000001FFFE0000007FFFFFF0001FFFFF
310
F8000FFFFFFFF8000FF8000FFFFFFFF8000FFF0003FFFFFFFFFFFFFFFFFF0000
310
7000FFFFFFFFFC0000FFFC0008003FF0008001FFFF80007FFFFFFFFFF80001FF
310
FFFFFFFF80000FF8000001FFFE0000007FFFFFF0001FFFFFF8000FFFFFFFF800
310
0FF8000FFFFFFFF8000FFF0003FFFFFFFFFFFFFFFFFE0000F000FFFFFFFFE000
310
00FFFC000C003FE000C001FFFF80007FFFFFFFFFC00001FFFFFFFFFE00001FF8
310
000001FFFE0000007FFFFFF0001FFFFFF8000FFFFFFFF8000FF8000FFFFFFFF8
310
000FFF0003FFFFFFFFFFFFFFFFF00000F000FFFFFFFE000001FFFC000C001FE0
310
00C000FFFF80007FFFFFFFFE000001FFFFFFFFE000001FF80FFFFFFFFFFFFFC0
310
7FFFFFF0001FFFFFF8000FFFFFFFF8000FF8000FFFFFFFF8000FFF0003FFFFFF
310
FFFFFFFFFF800000F000FFFFFFC0000001FFFC001C001FE001C000FFFF80007F
310
FFFFFF80000003FFFFFFF80000001FF80FFFFFFFFFFFFFC07FFFFFF0001FFFFF
310
F8001FFFFFFFFC000FF8001FFFFFFFFC000FFF0003FFFFFFFFFFFFFFF0000001
310
F000FFFFF800000001FFF8001C001FE001C000FFFF80007FFFFFF800000003FF
310
FFFF800000003FF80FFFFFFFFFFFFFC07FFFFFF0001FFFFFF8001FFFFFFFFC00
310
0FF8001FFFFFFFFC000FFF0003FFFFFFFFFFFFFE00000001F000FFFFC0000000
310
03FFF8001E001FC001E000FFFF80007FFFFF8000000007FFFFFC000000003FF8
310
0FFFFFFFFFFFFFC07FFFFFF0001FFFFFF8001FFFFFFFFC000FF8001FFFFFFFFC
310
000FFF0003FFFFFFFFFFFFE000000003F000FFFE0000000007FFF8001E000FC0
310
01E0007FFF80007FFFFE0000000007FFFFE0000000007FF80FFFFFFFFFFFFFC0
310
7FFFFFF0001FFFFFF0001FFFFFFFFC0007F0001FFFFFFFFC0007FF0003FFFFFF
310
FFFFFF0000000003F000FFF80000000007FFF8001E000FC003E0007FFF80007F
310
FFF0000000000FFFFF8000000000FFF80FFFFFFFFFFFFFC07FFFFFF0001FFFFF
310
F0001FFFFFFFFC0007F0001FFFFFFFFC0007FF0003FFFFFFFFFFFC0000000007
310
F000FFE0000000000FFFF0003E000FC003E0007FFF80007FFFC0000000001FFF
310
FE0000000001FFF80FFFFFFFFFFFFFC07FFFFFF0001FFFFFF0001FFFFFFFFC00
310
07F0001FFFFFFFFC0007FF0003FFFFFFFFFFF0000000000FF000FFC000000000
310
1FFFF0003F000F8003F0003FFF80007FFF80000000003FFFF80000000003FFF8
310
0FFFFFFFFFFFFFC07FFFFFF0001FFFFFF0001FFFFFFFFC0007F0001FFFFFFFFC
310
0007FF0003FFFFFFFFFFE0000000001FF000FF00000000007FFFF0003F000780
310
03F0003FFF80007FFF00000000007FFFF00000000007FFF80FFFFFFFFFFFFFC0
310
7FFFFFF0001FFFFFF0001FFFFFFFFC0007F0001FFFFFFFFC0007FF0003FFFFFF
310
FFFF80000000007FF000FE0000000000FFFFE0003F00078007F0003FFF80007F
310
FE0000000001FFFFE0000000001FFFF80FFFFFFFFFFFFFC07FFFFFF0001FFFFF
310
F0001FFFFFFFFC0007F0001FFFFFFFFC0007FF0003FFFFFFFFFF0000000000FF
310
F000FC0000000003FFFFE0007F00078007F0003FFF80007FFC0000000007FFFF
310
C0000000007FFFF80FFFFFFFFFFFFFC07FFFFFF0001FFFFFF8001FFFFFFFFC00
310
0FF8001FFFFFFFFC000FFF0003FFFFFFFFFE0000000003FFF000FC000000000F
310
FFFFE0007F80070007F8001FFF80007FF8000000001FFFFF8000000001FFFFF8
310
0FFFFFFFFFFFFFC07FFFFFF0001FFFFFF8001FFFFFFFFC000FF8001FFFFFFFFC
310
000FFF0003FFFFFFFFFC000000000FFFF000F8000000007FFFFFE0007F800700
310
07F8001FFF80007FF000000000FFFFFF800000000FFFFFF80FFFFFFFFFFFFFC0
310
7FFFFFF0001FFFFFF8000FFFFFFFF8000FF8000FFFFFFFF8000FFF0003FFFFFF
310
FFFC000000007FFFF000F800000007FFFFFFC0007F8003000FF8001FFF80007F
310
F000000007FFFFFF000000007FFFFFF80FFFFFFFFFFFFFC07FFFFFF0001FFFFF
310
F8000FFFFFFFF8000FF8000FFFFFFFF8000FFF0003FFFFFFFFF80000000FFFFF
310
F000F0000000FFFFFFFFC000FF8003000FF8001FFF80007FE0000000FFFFFFFF
310
0000000FFFFFFFF8000001FFFE0000007FFFFFF0001FFFFFF8000FFFFFFFF800
310
0FF8000FFFFFFFF8000FFF0003FFFFFFFFF8000000FFFFFFF000F000000FFFFF
310
FFFFC000FFC002000FF8000FFF80007FE000001FFFFFFFFE000001FFFFFFFFF8
310
000001FFFE0000007FFFFFF0001FFFFFF8000FFFFFFFF8000FF8000FFFFFFFF8
310
000FFF0003FFFFFFFFF000001FFFFFFFF000E00000FFFFFFFFFFC000FFC00200
310
0FFC000FFF80007FE00001FFFFFFFFFE00001FFFFFFFFFF8000001FFFE000000
310
7FFFFFF0001FFFFFFC000FFFFFFFF8001FFC000FFFFFFFF8001FFF0003FFFFFF
310
FFF00001FFFFFFFFF000E00007FFFFFFFFFF8000FFC000001FFC000FFF80007F
310
C0000FFFFFFFFFFE0000FFFFFFFFFFF8000001FFFE0000007FFFFFF0001FFFFF
310
FC0007FFFFFFF0001FFC0007FFFFFFF0001FFF0003FFFFFFFFF00007FFFFFFFF
310
F000E0001FFFFFFFFFFF8000FFC000001FFC000FFF80007FC0003FFFFFFFFFFE
310
0001FFFFFFFFFFF8000001FFFE0000007FFFFFF0001FFFFFFC0007FFFFFFF000
310
1FFC0007FFFFFFF0001FFF0003FFFFFFFFF0001FFFFFFFFFF000E0003FFFFF00
310
03FF8001FFE000001FFC0007FF80007FC0007FFFFF0007FC0003FFFFF0003FF8
310
000001FFFE0000007FFFFFF0001FFFFFFC0003FFFFFFE0001FFC0003FFFFFFE0
310
001FFF0003FFFFFFFFF0003FFFFFFFFFF000E0003FFFFF0001FF8001FFE00000
310
1FFE0007FF80007FC0007FFFFE0003FC0007FFFFE0003FF8000001FFFE000000
310
7FFFFFF0001FFFFFFE0003FFFFFFE0003FFE0003FFFFFFE0003FFF0003FFFFFF
310
FFF0003FFFFF8001F000E0003FFFFF0001FF0001FFE000001FFE0007FF80007F
310
C0007FFFFE0003FC0007FFFFE0003FF8000001FFFE0000007FFFFFF0001FFFFF
310
FE0001FFFFFFC0003FFE0001FFFFFFC0003FFF0003FFFFFFFFF0003FFFFF0001
310
F000E0003FFFFF0003FF0001FFE000003FFE0007FF80007FC0007FFFFE0003FC
310
0007FFFFE0003FF8000001FFFE0000007FFFFFF0001FFFFFFF0001FFFFFFC000
310
7FFF0001FFFFFFC0007FFF0003FFFFFFFFF0003FFFFF0001F000E0003FFFFE00
310
03FF0003FFF000003FFE0003FF80007FC0007FFFFC0003FE0007FFFFE0003FF8
310
000001FFFE0000007FFFFFF0001FFFFFFF0000FFFFFF80007FFF0000FFFFFF80
310
007FFF0003FFFFFFFFF0003FFFFF0001F000E0003FFFFE0003FF0003FFF00000
310
3FFF0003FF80007FC0007FFFFC0007FE0007FFFFC0003FF8000001FFFE000000
310
7FFFFFF0001FFFFFFF80007FFFFF0000FFFF80007FFFFF0000FFFF0003FFFFFF
310
FFF0003FFFFF0003F000E0003FFFFC0003FE0003FFF000003FFF0003FF80007F
310
E0003FFFF80007FE0003FFFFC0007FF8000001FFFE0000007FFFFFF0001FFFFF
310
FF80003FFFFE0000FFFF80003FFFFE0000FFFF0003FFFFFFFFF0001FFFFE0003
310
F000F0001FFFF80003FE0003FFF000007FFF0001FF80007FE0003FFFF00007FE
310
0001FFFF80007FF8000001FFFE0000007FFFFFF0001FFFFFFFC0000FFFF80001
310
FFFFC0000FFFF80001FFFF0003FFFFFFFFF0001FFFFC0003F000F0000FFFF000
310
07FE0007FFF800007FFF0001FF80007FE0001FFFE00007FF0000FFFE00007FF8
310
000001FFFE0000007FFFFFF0001FFFFFFFC00003FFE00001FFFFC00003FFE000
310
01FFFF0003FFFFFFFFF8000FFFF80003F000F00003FFC00007FC0007FFF80000
310
7FFF8001FF80007FF00007FF80000FFF00007FF80000FFF8000001FFFE000000
310
7F80000000000001FFE000003E000003FFFFE000003E000003FFFF0003FFFFFF
310
FFF80003FFE00007F000F800000000000FFC0007FFF800007FFF8001FF80007F
310
F000000000000FFF000000000000FFF8000001FFFE0000007F80000000000001
310
FFF0000000000007FFFFF0000000000007FFFF0003FFFFFFFFFC00007E000007
310
F000F800000000000FFC0007FFF80000FFFF8000FF80007FF800000000001FFF
310
800000000001FFF8000001FFFE0000007F80000000000001FFF800000000000F
310
FFFFF800000000000FFFFF0003FFFFFFFFFC00000000000FF000FC0000000000
310
1FFC0007FFFC0000FFFF8000FF80007FF800000000003FFFC00000000001FFF8
310
000001FFFE0000007F80000000000001FFF800000000000FFFFFF80000000000
310
0FFFFF0003FFFFFFFFFE00000000001FF000FE00000000003FF8000FFFFC0000
310
FFFF8000FF80007FFC00000000003FFFC00000000003FFF8000001FFFE000000
310
7F80000000000001FFFC00000000001FFFFFFC00000000001FFFFF0003FFFFFF
310
FFFF00000000001FF000FF00000000003FF8000FFFFC0000FFFFC000FF80007F
310
FE00000000007FFFE00000000007FFF8000001FFFE0000007F80000000000001
310
FFFE00000000003FFFFFFE00000000003FFFFF0003FFFFFFFFFF80000000003F
310
F000FF80000000007FF8000FFFFC0001FFFFC0007F80007FFF0000000000FFFF
310
F0000000000FFFF800000000000000007F80000000000001FFFF8000000000FF
310
FFFFFF8000000000FFFFFF0003FFFFFFFFFFC0000000007FF000FFC000000000
310
FFF8000FFFFE0001FFFFC0007F80007FFF8000000001FFFFF8000000001FFFF8
310
00000000000000007F80000000000001FFFFC000000001FFFFFFFFC000000001
310
FFFFFF0003FFFFFFFFFFE000000000FFF000FFE000000003FFF0001FFFFE0001
310
FFFFC0007F80007FFFC000000007FFFFFE000000003FFFF80000000000000000
310
7F80000000000001FFFFE000000003FFFFFFFFE000000003FFFFFF0003FFFFFF
310
FFFFF000000003FFF000FFF80000000FFFF0001FFFFE0001FFFFE0007F80007F
310
FFF00000000FFFFFFF00000000FFFFF800000000000000007F80000000000001
310
FFFFF80000000FFFFFFFFFF80000000FFFFFFF0003FFFFFFFFFFFC0000000FFF
310
F000FFFE0000003FFFF0001FFFFE0003FFFFE0003F80007FFFFC0000003FFFFF
310
FFC0000003FFFFF800000000000000007F80000000000001FFFFFE0000003FFF
310
FFFFFFFE0000003FFFFFFF0003FFFFFFFFFFFF0000003FFFF000FFFF800000FF
310
FFF0001FFFFF0003FFFFE0003F80007FFFFF000001FFFFFFFFF800001FFFFFF8
310
00000000000000007F80000000000001FFFFFFC00001FFFFFFFFFFFFC00001FF
310
FFFFFF0003FFFFFFFFFFFFC00000FFFFF000FFFFF8000FFFFFFFFFFFFFFFFFFF
310
FFFFFFFFFFFFFFFFFFFFF0001FFFFFFFFFFF0000FFFFFFF80000000000000000
310
7FFFFFFFFFFFFFFFFFFFFFFC001FFFFFFFFFFFFFFC001FFFFFFFFFFFFFFFFFFF
310
FFFFFFFC001FFFFFF000FFFFFFFFFFFFFFFFFFFFFFFFFFFFFFFFFFFFFFFFFFFF
310
FFFFFFFFFFFFFFFFFFFFFFFFFFFFFFFFFFFFFFFFFFFFFFFFFFFFFFFFFFFFFFFF
310
FFFFFFFFFFFFFFFFFFFFFFFFFFFFFFFFFFFFFFFFFFFFFFFFFFFFFFFFFFFFFFFF
310
F000FFFFFFFFFFFFFFFFFFFFFFFFFFFFFFFFFFFFFFFFFFFFFFFFFFFFFFFFFFFF
310
FFFFFFFFFFFFFFFFFFFFFFFFFFFFFFFFFFFFFFFFFFFFFFFFFFFFFFFFFFFFFFFF
310
FFFFFFFFFFFFFFFFFFFFFFFFFFFFFFFFFFFFFFFFFFFFFFFFF000FFFFFFFFFFFF
310
FFFFFFFFFFFFFFFFFFFFFFFFFFFFFFFFFFFFFFFFFFFFFFFFFFFFFFFFFFFFFFFF
310
FFFFFFFFFFFFFFFFFFFFFFFFFFFFFFFFFFFFFFFFFFFFFFFFFFFFFFFFFFFFFFFF
310
FFFFFFFFFFFFFFFFFFFFFFFFFFFFFFFFF000FFFFFFFFFFFFFFFFFFFFFFFFFFFF
310
FFFFFFFFFFFFFFFFFFFFFFFFFFFFFFFFFFFFFFFFFFFFFFFFFFFFFFFFFFFFFFFF
310
FFFFFFFFFFFFFFFFFFFFFFFFFFFFFFFFFFFFFFFFFFFFFFFFFFFFFFFFFFFFFFFF
310
FFFFFFFFFFFFFFFFF000FFFFFFFFFFFFFFFFFFFFFFFFFFFFFFFFFFFFFFFFFFFF
310
FFFFFFFFFFFFFFFFFFFFFFFFFFFFFFFFFFFFFFFFFFFFFFFFFFFFFFFFFFFFFFFF
310
FFFFFFFFFFFFFFFFFFFFFFFFFFFFFFFFFFFFFFFFFFFFFFFFFFFFFFFFFFFFFFFF
310
F000FFFFFFFFFFFFFFFFFFFFFFFFFFFFFFFFFFFFFFFFFFFFFFFFFFFFFFFFFFFF
310
FFFFFFFFFFFFFFFFFFFFFFFFFFFFFFFFFFFFFFFFFFFFFFFFFFFFFFFFFFFFFFFF
310
FFFFFFFFFFFFFFFFFFFFFFFFFFFFFFFFFFFFFFFFFFFFFFFFF000FFFFFFFFFFFF
310
FFFFFFFFFFFFFFFFFFFFFFFFFFFFFFFFFFFFFFFFFFFFFFFFFFFFFFFFFFFFFFFF
310
FFFFFFFFFFFFFFFFFFFFFFFFFFFFFFFFFFFFFFFFFFFFFFFFFFFFFFFFFFFFFFFF
310
FFFFFFFFFFFFFFFFFFFFFFFFFFFFFFFFF000FFFFFFFFFFFFFFFFFFFFFFFFFFFF
310
FFFFFFFFFFFFFFFFFFFFFFFFFFFFFFFFFFFFFFFFFFFFFFFFFFFFFFFFFFFFFFFF
310
FFFFFFFFFFFFFFFFFFFFFFFFFFFFFFFFFFFFFFFFFFFFFFFFFFFFFFFFFFFFFFFF
310
FFFFFFFFFFFFFFFFF000FFFFFFFFFFFFFFFFFFFFFFFFFFFFFFFFFFFFFFFFFFFF
310
FFFFFFFFFFFFFFFFFFFFFFFFFFFFFFFFFFFFFFFFFFFFFFFFFFFFFFFFFFFFFFFF
310
FFFFFFFFFFFFFFFFFFFFFFFFFFFFFFFFFFFFFFFFFFFFFFFFFFFFFFFFFFFFFFFF
310
F000FFFFFFFFFFFFFFFFFFFFFFFFFFFFFFFFFFFFFFFFFFFFFFFFFFFFFFFFFFFF
310
FFFFFFFFFFFFFFFFFFFFFFFFFFFFFFFFFFFFFFFFFFFFFFFFFFFFFFFFFFFFFFFF
310
FFFFFFFFFFFFFFFFFFFFFFFFFFFFFFFFFFFFFFFFFFFFFFFFF000FFFFFFFFFFFF
310
FFFFFFFFFFFFFFFFFFFFFFFFFFFFFFFFFFFFFFFFFFFFFFFFFFFFFFFFFFFFFFFF
310
FFFFFFFFFFFFFFFFFFFFFFFFFFFFFFFFFFFFFFFFFFFFFFFFFFFFFFFFFFFFFFFF
310
FFFFFFFFFFFFFFFFFFFFFFFFFFFFFFFFF000FFFFFFFFFFFFFFFFFFFFFFFFFFFF
310
FFFFFFFFFFFFFFFFFFFFFFFFFFFFFFFFFFFFFFFFFFFFFFFFFFFFFFFFFFFFFFFF
310
FFFFFFFFFFFFFFFFFFFFFFFFFFFFFFFFFFFFFFFFFFFFFFFFFFFFFFFFFFFFFFFF
310
FFFFFFFFFFFFFFFFF000FFFFFFFFFFFFFFFFFFFFFFFFFFFFFFFFFFFFFFFFFFFF
310
FFFFFFFFFFFFFFFFFFFFFFFFFFFFFFFFFFFFFFFFFFFFFFFFFFFFFFFFFFFFFFFF
310
FFFFFFFFFFFFFFFFFFFFFFFFFFFFFFFFFFFFFFFFFFFFFFFFFFFFFFFFFFFFFFFF
310
F000FFFFFFFFFFFFFFFFFFFFFFFFFFFFFFFFFFFFFFFFFFFFFFFFFFFFFFFFFFFF
310
FFFFFFFFFFFFFFFFFFFFFFFFFFFFFFFFFFFFFFFFFFFFFFFFFFFFFFFFFFFFFFFF
310
FFFFFFFFFFFFFFFFFFFFFFFFFFFFFFFFFFFFFFFFFFFFFFFFF000FFFFFFFFFFFF
310
FFFFFFFFFFFFFFFFFFFFFFFFFFFFFFFFFFFFFFFFFFFFFFFFFFFFFFFFFFFFFFFF
310
FFFFFFFFFFFFFFFFFFFFFFFFFFFFFFFFFFFFFFFFFFFFFFFFFFFFFFFFFFFFFFFF
310
FFFFFFFFFFFFFFFFFFFFFFFFFFFFFFFFF000FFFFFFFFFFFFFFFFFFFFFFFFFFFF
310
FFFFFFFFFFFFFFFFFFFFFFFFFFFFFFFFFFFFFFFFFFFFFFFFFFFFFFFFFFFFFFFF
310
FFFFFFFFFFFFFFFFFFFFFFFFFFFFFFFFFFFFFFFFFFFFFFFFFFFFFFFFFFFFFFFF
310
FFFFFFFFFFFFFFFFF000FFFFFFFFFFFFFFFFFFFFFFFFFFFFFFFFFFFFFFFFFFFF
310
FFFFFFFFFFFFFFFFFFFFFFFFFFFFFFFFFFFFFFFFFFFFFFFFFFFFFFFFFFFFFFFF
310
FFFFFFFFFFFFFFFFFFFFFFFFFFFFFFFFFFFFFFFFFFFFFFFFFFFFFFFFFFFFFFFF
310
F000FFFFFFFFFFFFFFFFFFFFFFFFFFFFFFFFFFFFFFFFFFFFFFFFFFFFFFFFFFFF
310
FFFFFFFFFFFFFFFFFFFFFFFFFFFFFFFFFFFFFFFFFFFFFFFFFFFFFFFFFFFFFFFF
310
FFFFFFFFFFFFFFFFFFFFFFFFFFFFFFFFFFFFFFFFFFFFFFFFF000FFFFFFFFFFFF
310
FFFFFFFFFFFFFFFFFFFFFFFFFFFFFFFFFFFFFFFFFFFFFFFFFFFFFFFFFFFFFFFF
310
FFFFFFFFFFFFFFFFFFFFFFFFFFFFFFFFFFFFFFFFFFFFFFFFFFFFFFFFFFFFFFFF
310
FFFFFFFFFFFFFFFFFFFFFFFFFFFFFFFFF000FFFFFFFFFFFFFFFFFFFFFFFFFFFF
310
FFFFFFFFFFFFFFFFFFFFFFFFFFFFFFFFFFFFFFFFFFFFFFFFFFFFFFFFFFFFFFFF
310
FFFFFFFFFFFFFFFFFFFFFFFFFFFFFFFFFFFFFFFFFFFFFFFFFFFFFFFFFFFFFFFF
310
FFFFFFFFFFFFFFFFF000FFFFFFFFFFFFFFFFFFFFFFFFFFFFFFFFFFFFFFFFFFFF
310
FFFFFFFFFFFFFFFFFFFFFFFFFFFFFFFFFFFFFFFFFFFFFFFFFFFFFFFFFFFFFFFF
310
FFFFFFFFFFFFFFFFFFFFFFFFFFFFFFFFFFFFFFFFFFFFFFFFFFFFFFFFFFFFFFFF
310
F000FFFFFFFFFFFFFFFFFFFFFFFFFFFFFFFFFFFFFFFFFFFFFFFFFFFFFFFFFFFF
310
FFFFFFFFFFFFFFFFFFFFFFFFFFFFFFFFFFFFFFFFFFFFFFFFFFFFFFFFFFFFFFFF
310
FFFFFFFFFFFFFFFFFFFFFFFFFFFFFFFFFFFFFFFFFFFFFFFFF000FFFFFFFFFFFF
310
FFFFFFFFFFFFFFFFFFFFFFFFFFFFFFFFFFFFFFFFFFFFFFFFFFFFFFFFFFFFFFFF
310
FFFFFFFFFFFFFFFFFFFFFFFFFFFFFFFFFFFFFFFFFFFFFFFFFFFFFFFFFFFFFFFF
310
FFFFFFFFFFFFFFFFFFFFFFFFFFFFFFFFF0000000000000000000000000000000
310
0000000000000000000000000000000000000000000000000000000000000000
310
0000000000000000000000000000000000000000000000000000000000000000
310
0000000000000000000000000000000000000000000000000000000000000000
310
0000000000000000000000000000000000000000000000000000000000000000
310
0000000000000000000000000000000000000000000000000000000000000000
310
0000000000000000000000000000000000000000000000000000000000000000
310
0000000000000000000000000000000000000000000000000000000000000000
310
0000000000000000000000000000000000000000000000000000000000000000
310
0000000000000000000000000000000000000000000000000000000000000000
310
0000000000000000000000000000000000000000000000000000000000000000
310
0000000000000000000000000000000000000000000000000000000000000000
310
0000000000000000000000000000000000000000000000000000000000000000
310
0000000000000000000000000000000000000000000000000000000000000000
310
0000000000000000000000000000000000000000000000000000000000000000
310
0000000000000000000000000000000000000000000000000000000000000000
  1
OLE
  0
ENDSEC
  0
SECTION
  2
OBJECTS
  0
DICTIONARY
  5
C
330
0
100
AcDbDictionary
281
     1
  3
ACAD_GROUP
350
D
  3
ACAD_LAYOUT
350
1A
  3
ACAD_MLINESTYLE
350
17
  3
ACAD_PLOTSETTINGS
350
19
  3
ACAD_PLOTSTYLENAME
350
E
  3
ACAD_SCALELIST
350
47
  0
DICTIONARY
  5
D
102
{ACAD_REACTORS
330
C
102
}
330
C
100
AcDbDictionary
281
     1
  0
DICTIONARY
  5
1A
102
{ACAD_REACTORS
330
C
102
}
330
C
100
AcDbDictionary
281
     1
  3
Layout1
350
1E
  3
Layout2
350
26
  3
Model
350
22
  0
DICTIONARY
  5
17
102
{ACAD_REACTORS
330
C
102
}
330
C
100
AcDbDictionary
281
     1
  3
Standard
350
18
  0
DICTIONARY
  5
19
102
{ACAD_REACTORS
330
C
102
}
330
C
100
AcDbDictionary
281
     1
  0
ACDBDICTIONARYWDFLT
  5
E
102
{ACAD_REACTORS
330
C
102
}
330
C
100
AcDbDictionary
281
     1
  3
Normal
350
F
100
AcDbDictionaryWithDefault
340
F
  0
DICTIONARY
  5
47
102
{ACAD_REACTORS
330
C
102
}
330
C
100
AcDbDictionary
281
     1
  3
A0
350
48
  3
A1
350
49
  3
A2
350
4A
  3
A3
350
4B
  3
A4
350
4C
  3
A5
350
4D
  3
A6
350
4E
  3
A7
350
4F
  3
A8
350
50
  3
A9
350
51
  3
B0
350
52
  3
B1
350
53
  3
B2
350
54
  3
B3
350
55
  3
B4
350
56
  3
B5
350
57
  3
B6
350
58
  3
B7
350
59
  3
B8
350
5A
  3
B9
350
5B
  3
C0
350
5C
  3
C1
350
5D
  3
C2
350
5E
  3
C3
350
5F
  3
C4
350
60
  3
C5
350
61
  3
C6
350
62
  3
C7
350
63
  3
C8
350
64
  3
C9
350
65
  3
D0
350
66
  3
D1
350
67
  3
D2
350
68
  0
LAYOUT
  5
1E
102
{ACAD_REACTORS
330
1A
102
}
330
1A
100
AcDbPlotSettings
  1

  2
none_device
  4

  6

 40
0.0
 41
0.0
 42
0.0
 43
0.0
 44
0.0
 45
0.0
 46
0.0
 47
0.0
 48
0.0
 49
0.0
140
0.0
141
0.0
142
1.0
143
1.0
 70
   688
 72
     1
 73
     0
 74
     5
  7

 75
    16
147
1.0
148
0.0
149
0.0
100
AcDbLayout
  1
Layout1
 70
     1
 71
     1
 10
0.0
 20
0.0
 11
420.0
 21
297.0
 12
0.0
 22
0.0
 32
0.0
 14
1.0000000000E+20
 24
1.0000000000E+20
 34
1.0000000000E+20
 15
-1.0000000000E+20
 25
-1.0000000000E+20
 35
-1.0000000000E+20
146
0.0
 13
0.0
 23
0.0
 33
0.0
 16
1.0
 26
0.0
 36
0.0
 17
0.0
 27
1.0
 37
0.0
 76
     0
330
1B
  0
LAYOUT
  5
26
102
{ACAD_REACTORS
330
1A
102
}
330
1A
100
AcDbPlotSettings
  1

  2
none_device
  4

  6

 40
0.0
 41
0.0
 42
0.0
 43
0.0
 44
0.0
 45
0.0
 46
0.0
 47
0.0
 48
0.0
 49
0.0
140
0.0
141
0.0
142
1.0
143
1.0
 70
   688
 72
     1
 73
     0
 74
     5
  7

 75
    16
147
1.0
148
0.0
149
0.0
100
AcDbLayout
  1
Layout2
 70
     1
 71
     2
 10
0.0
 20
0.0
 11
0.0
 21
0.0
 12
0.0
 22
0.0
 32
0.0
 14
0.0
 24
0.0
 34
0.0
 15
0.0
 25
0.0
 35
0.0
146
0.0
 13
0.0
 23
0.0
 33
0.0
 16
1.0
 26
0.0
 36
0.0
 17
0.0
 27
1.0
 37
0.0
 76
     0
330
23
  0
LAYOUT
  5
22
102
{ACAD_REACTORS
330
1A
102
}
330
1A
100
AcDbPlotSettings
  1

  2
none_device
  4
Letter_(8.50_x_11.00_Inches)
  6

 40
6.35
 41
6.35
 42
6.35000508
 43
6.35000508
 44
215.9
 45
279.4
 46
0.0
 47
0.0
 48
0.0
 49
0.0
140
0.0
141
0.0
142
1.0
143
1.0
 70
  1712
 72
     1
 73
     0
 74
     0
  7

 75
     0
147
1.0
148
0.0
149
0.0
100
AcDbLayout
  1
Model
 70
     1
 71
     0
 10
0.0
 20
0.0
 11
297.0
 21
210.0
 12
0.0
 22
0.0
 32
0.0
 14
0.0
 24
0.0
 34
0.0
 15
297.0
 25
210.0
 35
0.0
146
0.0
 13
0.0
 23
0.0
 33
0.0
 16
1.0
 26
0.0
 36
0.0
 17
0.0
 27
1.0
 37
0.0
 76
     0
330
1F
331
29
  0
MLINESTYLE
  5
18
102
{ACAD_REACTORS
330
17
102
}
330
17
100
AcDbMlineStyle
  2
Standard
 70
     0
  3

 62
   256
 51
90.0
 52
90.0
 71
     2
 49
0.5
 62
   256
  6
BYLAYER
 49
-0.5
 62
   256
  6
BYLAYER
  0
ACDBPLACEHOLDER
  5
F
102
{ACAD_REACTORS
330
E
102
}
330
E
  0
SCALE
  5
48
102
{ACAD_REACTORS
330
47
102
}
330
47
100
AcDbScale
 70
     0
300
1:1
140
1.0
141
1.0
290
     1
  0
SCALE
  5
49
102
{ACAD_REACTORS
330
47
102
}
330
47
100
AcDbScale
 70
     0
300
1:2
140
1.0
141
2.0
290
     0
  0
SCALE
  5
4A
102
{ACAD_REACTORS
330
47
102
}
330
47
100
AcDbScale
 70
     0
300
1:4
140
1.0
141
4.0
290
     0
  0
SCALE
  5
4B
102
{ACAD_REACTORS
330
47
102
}
330
47
100
AcDbScale
 70
     0
300
1:5
140
1.0
141
5.0
290
     0
  0
SCALE
  5
4C
102
{ACAD_REACTORS
330
47
102
}
330
47
100
AcDbScale
 70
     0
300
1:8
140
1.0
141
8.0
290
     0
  0
SCALE
  5
4D
102
{ACAD_REACTORS
330
47
102
}
330
47
100
AcDbScale
 70
     0
300
1:10
140
1.0
141
10.0
290
     0
  0
SCALE
  5
4E
102
{ACAD_REACTORS
330
47
102
}
330
47
100
AcDbScale
 70
     0
300
1:16
140
1.0
141
16.0
290
     0
  0
SCALE
  5
4F
102
{ACAD_REACTORS
330
47
102
}
330
47
100
AcDbScale
 70
     0
300
1:20
140
1.0
141
20.0
290
     0
  0
SCALE
  5
50
102
{ACAD_REACTORS
330
47
102
}
330
47
100
AcDbScale
 70
     0
300
1:30
140
1.0
141
30.0
290
     0
  0
SCALE
  5
51
102
{ACAD_REACTORS
330
47
102
}
330
47
100
AcDbScale
 70
     0
300
1:40
140
1.0
141
40.0
290
     0
  0
SCALE
  5
52
102
{ACAD_REACTORS
330
47
102
}
330
47
100
AcDbScale
 70
     0
300
1:50
140
1.0
141
50.0
290
     0
  0
SCALE
  5
53
102
{ACAD_REACTORS
330
47
102
}
330
47
100
AcDbScale
 70
     0
300
1:100
140
1.0
141
100.0
290
     0
  0
SCALE
  5
54
102
{ACAD_REACTORS
330
47
102
}
330
47
100
AcDbScale
 70
     0
300
2:1
140
2.0
141
1.0
290
     0
  0
SCALE
  5
55
102
{ACAD_REACTORS
330
47
102
}
330
47
100
AcDbScale
 70
     0
300
4:1
140
4.0
141
1.0
290
     0
  0
SCALE
  5
56
102
{ACAD_REACTORS
330
47
102
}
330
47
100
AcDbScale
 70
     0
300
8:1
140
8.0
141
1.0
290
     0
  0
SCALE
  5
57
102
{ACAD_REACTORS
330
47
102
}
330
47
100
AcDbScale
 70
     0
300
10:1
140
10.0
141
1.0
290
     0
  0
SCALE
  5
58
102
{ACAD_REACTORS
330
47
102
}
330
47
100
AcDbScale
 70
     0
300
100:1
140
100.0
141
1.0
290
     0
  0
SCALE
  5
59
102
{ACAD_REACTORS
330
47
102
}
330
47
100
AcDbScale
 70
     0
300
1/128" = 1'-0"
140
0.0078125
141
12.0
290
     0
  0
SCALE
  5
5A
102
{ACAD_REACTORS
330
47
102
}
330
47
100
AcDbScale
 70
     0
300
1/64" = 1'-0"
140
0.015625
141
12.0
290
     0
  0
SCALE
  5
5B
102
{ACAD_REACTORS
330
47
102
}
330
47
100
AcDbScale
 70
     0
300
1/32" = 1'-0"
140
0.03125
141
12.0
290
     0
  0
SCALE
  5
5C
102
{ACAD_REACTORS
330
47
102
}
330
47
100
AcDbScale
 70
     0
300
1/16" = 1'-0"
140
0.0625
141
12.0
290
     0
  0
SCALE
  5
5D
102
{ACAD_REACTORS
330
47
102
}
330
47
100
AcDbScale
 70
     0
300
3/32" = 1'-0"
140
0.09375
141
12.0
290
     0
  0
SCALE
  5
5E
102
{ACAD_REACTORS
330
47
102
}
330
47
100
AcDbScale
 70
     0
300
1/8" = 1'-0"
140
0.125
141
12.0
290
     0
  0
SCALE
  5
5F
102
{ACAD_REACTORS
330
47
102
}
330
47
100
AcDbScale
 70
     0
300
3/16" = 1'-0"
140
0.1875
141
12.0
290
     0
  0
SCALE
  5
60
102
{ACAD_REACTORS
330
47
102
}
330
47
100
AcDbScale
 70
     0
300
1/4" = 1'-0"
140
0.25
141
12.0
290
     0
  0
SCALE
  5
61
102
{ACAD_REACTORS
330
47
102
}
330
47
100
AcDbScale
 70
     0
300
3/8" = 1'-0"
140
0.375
141
12.0
290
     0
  0
SCALE
  5
62
102
{ACAD_REACTORS
330
47
102
}
330
47
100
AcDbScale
 70
     0
300
1/2" = 1'-0"
140
0.5
141
12.0
290
     0
  0
SCALE
  5
63
102
{ACAD_REACTORS
330
47
102
}
330
47
100
AcDbScale
 70
     0
300
3/4" = 1'-0"
140
0.75
141
12.0
290
     0
  0
SCALE
  5
64
102
{ACAD_REACTORS
330
47
102
}
330
47
100
AcDbScale
 70
     0
300
1" = 1'-0"
140
1.0
141
12.0
290
     0
  0
SCALE
  5
65
102
{ACAD_REACTORS
330
47
102
}
330
47
100
AcDbScale
 70
     0
300
1-1/2" = 1'-0"
140
1.5
141
12.0
290
     0
  0
SCALE
  5
66
102
{ACAD_REACTORS
330
47
102
}
330
47
100
AcDbScale
 70
     0
300
3" = 1'-0"
140
3.0
141
12.0
290
     0
  0
SCALE
  5
67
102
{ACAD_REACTORS
330
47
102
}
330
47
100
AcDbScale
 70
     0
300
6" = 1'-0"
140
6.0
141
12.0
290
     0
  0
SCALE
  5
68
102
{ACAD_REACTORS
330
47
102
}
330
47
100
AcDbScale
 70
     0
300
1'-0" = 1'-0"
140
12.0
141
12.0
290
     0
  0
ENDSEC
  0
EOF
