  0
SECTION
  2
HEADER
  9
$ACADVER
  1
AC1015
  9
$ACADMAINTVER
 70
     6
  9
$DWGCODEPAGE
  3
ANSI_1252
  9
$INSBASE
 10
0.0
 20
0.0
 30
0.0
  9
$EXTMIN
 10
0.0
 20
0.0
 30
0.0
  9
$EXTMAX
 10
297.0
 20
210.0
 30
0.0
  9
$LIMMIN
 10
0.0
 20
0.0
  9
$LIMMAX
 10
297.0
 20
210.0
  9
$ORTHOMODE
 70
     0
  9
$REGENMODE
 70
     1
  9
$FILLMODE
 70
     1
  9
$QTEXTMODE
 70
     0
  9
$MIRRTEXT
 70
     1
  9
$LTSCALE
 40
1.0
  9
$ATTMODE
 70
     1
  9
$TEXTSIZE
 40
2.0
  9
$TRACEWID
 40
1.0
  9
$TEXTSTYLE
  7
Standard
  9
$CLAYER
  8
0
  9
$CELTYPE
  6
ByLayer
  9
$CECOLOR
 62
   256
  9
$CELTSCALE
 40
1.0
  9
$DISPSILH
 70
     0
  9
$DIMSCALE
 40
1.0
  9
$DIMASZ
 40
3.0
  9
$DIMEXO
 40
0.0
  9
$DIMDLI
 40
3.75
  9
$DIMRND
 40
0.0
  9
$DIMDLE
 40
0.0
  9
$DIMEXE
 40
1.0
  9
$DIMTP
 40
0.0
  9
$DIMTM
 40
0.0
  9
$DIMTXT
 40
2.0
  9
$DIMCEN
 40
2.5
  9
$DIMTSZ
 40
0.0
  9
$DIMTOL
 70
     0
  9
$DIMLIM
 70
     0
  9
$DIMTIH
 70
     1
  9
$DIMTOH
 70
     1
  9
$DIMSE1
 70
     0
  9
$DIMSE2
 70
     0
  9
$DIMTAD
 70
     1
  9
$DIMZIN
 70
     0
  9
$DIMBLK
  1

  9
$DIMASO
 70
     1
  9
$DIMSHO
 70
     1
  9
$DIMPOST
  1

  9
$DIMAPOST
  1

  9
$DIMALT
 70
     0
  9
$DIMALTD
 70
     3
  9
$DIMALTF
 40
0.0393700787
  9
$DIMLFAC
 40
2.0
  9
$DIMTOFL
 70
     1
  9
$DIMTVP
 40
0.0
  9
$DIMTIX
 70
     0
  9
$DIMSOXD
 70
     0
  9
$DIMSAH
 70
     0
  9
$DIMBLK1
  1

  9
$DIMBLK2
  1

  9
$DIMSTYLE
  2
ISO-25
  9
$DIMCLRD
 70
     0
  9
$DIMCLRE
 70
     0
  9
$DIMCLRT
 70
     0
  9
$DIMTFAC
 40
1.0
  9
$DIMGAP
 40
1.524
  9
$DIMJUST
 70
     0
  9
$DIMSD1
 70
     0
  9
$DIMSD2
 70
     0
  9
$DIMTOLJ
 70
     0
  9
$DIMTZIN
 70
     0
  9
$DIMALTZ
 70
     0
  9
$DIMALTTZ
 70
     0
  9
$DIMUPT
 70
     0
  9
$DIMDEC
 70
     2
  9
$DIMTDEC
 70
     3
  9
$DIMALTU
 70
     2
  9
$DIMALTTD
 70
     3
  9
$DIMTXSTY
  7
Standard
  9
$DIMAUNIT
 70
     0
  9
$DIMADEC
 70
     2
  9
$DIMALTRND
 40
0.0
  9
$DIMAZIN
 70
     0
  9
$DIMDSEP
 70
    44
  9
$DIMATFIT
 70
     3
  9
$DIMFRAC
 70
     0
  9
$DIMLDRBLK
  1

  9
$DIMLUNIT
 70
     2
  9
$DIMLWD
 70
    -2
  9
$DIMLWE
 70
    -2
  9
$DIMTMOVE
 70
     0
  9
$LUNITS
 70
     2
  9
$LUPREC
 70
     2
  9
$SKETCHINC
 40
1.0
  9
$FILLETRAD
 40
10.0
  9
$AUNITS
 70
     0
  9
$AUPREC
 70
     2
  9
$MENU
  1
.
  9
$ELEVATION
 40
0.0
  9
$PELEVATION
 40
0.0
  9
$THICKNESS
 40
0.0
  9
$LIMCHECK
 70
     0
  9
$CHAMFERA
 40
0.0
  9
$CHAMFERB
 40
0.0
  9
$CHAMFERC
 40
0.0
  9
$CHAMFERD
 40
0.0
  9
$SKPOLY
 70
     0
  9
$TDCREATE
 40
2458169.425223484
  9
$TDUCREATE
 40
2458169.383556817
  9
$TDUPDATE
 40
2458169.42522588
  9
$TDUUPDATE
 40
2458169.383559213
  9
$TDINDWG
 40
0.0000000116
  9
$TDUSRTIMER
 40
0.0000000116
  9
$USRTIMER
 70
     1
  9
$ANGBASE
 50
0.0
  9
$ANGDIR
 70
     0
  9
$PDMODE
 70
     0
  9
$PDSIZE
 40
-1.0
  9
$PLINEWID
 40
0.0
  9
$SPLFRAME
 70
     0
  9
$SPLINETYPE
 70
     6
  9
$SPLINESEGS
 70
     8
  9
$HANDSEED
  5
28B
  9
$SURFTAB1
 70
     6
  9
$SURFTAB2
 70
     6
  9
$SURFTYPE
 70
     6
  9
$SURFU
 70
     6
  9
$SURFV
 70
     6
  9
$UCSBASE
  2

  9
$UCSNAME
  2

  9
$UCSORG
 10
0.0
 20
0.0
 30
0.0
  9
$UCSXDIR
 10
1.0
 20
0.0
 30
0.0
  9
$UCSYDIR
 10
0.0
 20
1.0
 30
0.0
  9
$UCSORTHOREF
  2

  9
$UCSORTHOVIEW
 70
     0
  9
$UCSORGTOP
 10
0.0
 20
0.0
 30
0.0
  9
$UCSORGBOTTOM
 10
0.0
 20
0.0
 30
0.0
  9
$UCSORGLEFT
 10
0.0
 20
0.0
 30
0.0
  9
$UCSORGRIGHT
 10
0.0
 20
0.0
 30
0.0
  9
$UCSORGFRONT
 10
0.0
 20
0.0
 30
0.0
  9
$UCSORGBACK
 10
0.0
 20
0.0
 30
0.0
  9
$PUCSBASE
  2

  9
$PUCSNAME
  2

  9
$PUCSORG
 10
0.0
 20
0.0
 30
0.0
  9
$PUCSXDIR
 10
1.0
 20
0.0
 30
0.0
  9
$PUCSYDIR
 10
0.0
 20
1.0
 30
0.0
  9
$PUCSORTHOREF
  2

  9
$PUCSORTHOVIEW
 70
     0
  9
$PUCSORGTOP
 10
0.0
 20
0.0
 30
0.0
  9
$PUCSORGBOTTOM
 10
0.0
 20
0.0
 30
0.0
  9
$PUCSORGLEFT
 10
0.0
 20
0.0
 30
0.0
  9
$PUCSORGRIGHT
 10
0.0
 20
0.0
 30
0.0
  9
$PUCSORGFRONT
 10
0.0
 20
0.0
 30
0.0
  9
$PUCSORGBACK
 10
0.0
 20
0.0
 30
0.0
  9
$USERI1
 70
     0
  9
$USERI2
 70
     0
  9
$USERI3
 70
     0
  9
$USERI4
 70
     0
  9
$USERI5
 70
     0
  9
$USERR1
 40
0.0
  9
$USERR2
 40
0.0
  9
$USERR3
 40
0.0
  9
$USERR4
 40
0.0
  9
$USERR5
 40
0.0
  9
$WORLDVIEW
 70
     1
  9
$SHADEDGE
 70
     3
  9
$SHADEDIF
 70
    70
  9
$TILEMODE
 70
     1
  9
$MAXACTVP
 70
    64
  9
$PINSBASE
 10
0.0
 20
0.0
 30
0.0
  9
$PLIMCHECK
 70
     0
  9
$PEXTMIN
 10
1.0000000000E+20
 20
1.0000000000E+20
 30
1.0000000000E+20
  9
$PEXTMAX
 10
-1.0000000000E+20
 20
-1.0000000000E+20
 30
-1.0000000000E+20
  9
$PLIMMIN
 10
0.0
 20
0.0
  9
$PLIMMAX
 10
420.0
 20
297.0
  9
$UNITMODE
 70
     0
  9
$VISRETAIN
 70
     1
  9
$PLINEGEN
 70
     0
  9
$PSLTSCALE
 70
     1
  9
$TREEDEPTH
 70
  3020
  9
$CMLSTYLE
  2
Standard
  9
$CMLJUST
 70
     0
  9
$CMLSCALE
 40
20.0
  9
$PROXYGRAPHICS
 70
     1
  9
$MEASUREMENT
 70
     1
  9
$CELWEIGHT
370
    -1
  9
$ENDCAPS
280
     0
  9
$JOINSTYLE
280
     0
  9
$LWDISPLAY
290
     1
  9
$INSUNITS
 70
     4
  9
$HYPERLINKBASE
  1

  9
$STYLESHEET
  1

  9
$XEDIT
290
     1
  9
$CEPSNTYPE
380
     0
  9
$PSTYLEMODE
290
     1
  9
$FINGERPRINTGUID
  2
{717C17D6-F426-44EF-B868-83278D9B4654}
  9
$VERSIONGUID
  2
{FAEB1C32-E019-11D5-929B-00C0DF256EC4}
  9
$EXTNAMES
290
     1
  9
$PSVPSCALE
 40
0.0
  9
$OLESTARTUP
290
     0
  0
ENDSEC
  0
SECTION
  2
CLASSES
  0
CLASS
  1
ACDBDICTIONARYWDFLT
  2
AcDbDictionaryWithDefault
  3
ObjectDBX Classes
 90
        0
280
     0
281
     0
  0
CLASS
  1
VISUALSTYLE
  2
AcDbVisualStyle
  3
ObjectDBX Classes
 90
     4095
280
     0
281
     0
  0
CLASS
  1
MATERIAL
  2
AcDbMaterial
  3
ObjectDBX Classes
 90
     1153
280
     0
281
     0
  0
CLASS
  1
SCALE
  2
AcDbScale
  3
ObjectDBX Classes
 90
     1153
280
     0
281
     0
  0
CLASS
  1
TABLESTYLE
  2
AcDbTableStyle
  3
ObjectDBX Classes
 90
     4095
280
     0
281
     0
  0
CLASS
  1
MLEADERSTYLE
  2
AcDbMLeaderStyle
  3
ACDB_MLEADERSTYLE_CLASS
 90
     4095
280
     0
281
     0
  0
CLASS
  1
SUN
  2
AcDbSun
  3
SCENEOE
 90
     1153
280
     0
281
     0
  0
CLASS
  1
ACDBPLACEHOLDER
  2
AcDbPlaceHolder
  3
ObjectDBX Classes
 90
        0
280
     0
281
     0
  0
CLASS
  1
LAYOUT
  2
AcDbLayout
  3
ObjectDBX Classes
 90
        0
280
     0
281
     0
  0
ENDSEC
  0
SECTION
  2
TABLES
  0
TABLE
  2
VPORT
  5
8
330
0
100
AcDbSymbolTable
 70
     1
  0
VPORT
  5
29
330
8
100
AcDbSymbolTableRecord
100
AcDbViewportTableRecord
  2
*Active
 70
     0
 10
0.0
 20
0.0
 11
1.0
 21
1.0
 12
148.5
 22
105.0
 13
0.0
 23
0.0
 14
10.0
 24
10.0
 15
10.0
 25
10.0
 16
0.0
 26
0.0
 36
1.0
 17
0.0
 27
0.0
 37
0.0
 40
210.0
 41
1.4142857143
 42
50.0
 43
0.0
 44
0.0
 50
0.0
 51
0.0
 71
     0
 72
  2000
 73
     1
 74
     3
 75
     0
 76
     0
 77
     0
 78
     0
281
     0
 65
     1
110
0.0
120
0.0
130
0.0
111
1.0
121
0.0
131
0.0
112
0.0
122
1.0
132
0.0
 79
     0
146
0.0
  0
ENDTAB
  0
TABLE
  2
LTYPE
  5
5
330
0
100
AcDbSymbolTable
 70
     6
  0
LTYPE
  5
14
330
5
100
AcDbSymbolTableRecord
100
AcDbLinetypeTableRecord
  2
ByBlock
 70
     0
  3

 72
    65
 73
     0
 40
0.0
  0
LTYPE
  5
15
330
5
100
AcDbSymbolTableRecord
100
AcDbLinetypeTableRecord
  2
ByLayer
 70
     0
  3

 72
    65
 73
     0
 40
0.0
  0
LTYPE
  5
16
330
5
100
AcDbSymbolTableRecord
100
AcDbLinetypeTableRecord
  2
Continuous
 70
     0
  3
Solid line
 72
    65
 73
     0
 40
0.0
  0
LTYPE
  5
6E
330
5
100
AcDbSymbolTableRecord
100
AcDbLinetypeTableRecord
  2
HIDDEN
 70
     0
  3
Hidden __ __ __ __ __ __ __ __ __ __ __ __ __ __
 72
    65
 73
     2
 40
1.905
 49
1.27
 74
     0
 49
-0.635
 74
     0
  0
LTYPE
  5
6F
330
5
100
AcDbSymbolTableRecord
100
AcDbLinetypeTableRecord
  2
PHANTOM
 70
     0
  3
Phantom ______  __  __  ______  __  __  ______
 72
    65
 73
     6
 40
12.7
 49
6.35
 74
     0
 49
-1.27
 74
     0
 49
1.27
 74
     0
 49
-1.27
 74
     0
 49
1.27
 74
     0
 49
-1.27
 74
     0
  0
LTYPE
  5
70
330
5
100
AcDbSymbolTableRecord
100
AcDbLinetypeTableRecord
  2
CENTER
 70
     0
  3
Center ____ _ ____ _ ____ _ ____ _ ____ _ ____
 72
    65
 73
     4
 40
10.16
 49
6.35
 74
     0
 49
-1.27
 74
     0
 49
1.27
 74
     0
 49
-1.27
 74
     0
  0
LTYPE
  5
71
330
5
100
AcDbSymbolTableRecord
100
AcDbLinetypeTableRecord
  2
CENTERX2
 70
     0
  3
Center (2x) ________  __  ________  __  _____
 72
    65
 73
     4
 40
20.32
 49
12.7
 74
     0
 49
-2.54
 74
     0
 49
2.54
 74
     0
 49
-2.54
 74
     0
  0
LTYPE
  5
72
330
5
100
AcDbSymbolTableRecord
100
AcDbLinetypeTableRecord
  2
DOT2
 70
     0
  3
Dot (.5x) ........................................
 72
    65
 73
     2
 40
0.635
 49
0.0
 74
     0
 49
-0.635
 74
     0
  0
ENDTAB
  0
TABLE
  2
LAYER
  5
2
330
0
100
AcDbSymbolTable
 70
     5
  0
LAYER
  5
10
330
2
100
AcDbSymbolTableRecord
100
AcDbLayerTableRecord
  2
0
 70
     0
 62
     7
  6
Continuous
370
    -3
390
F
  0
LAYER
  5
73
330
2
100
AcDbSymbolTableRecord
100
AcDbLayerTableRecord
  2
FORMAT
 70
     0
 62
     7
  6
Continuous
370
    -3
390
F
  0
LAYER
  5
74
330
2
100
AcDbSymbolTableRecord
100
AcDbLayerTableRecord
  2
VERMASSUNG
 70
     0
 62
     7
  6
Continuous
370
    -3
390
F
  0
LAYER
  5
75
330
2
100
AcDbSymbolTableRecord
100
AcDbLayerTableRecord
  2
KOPF_DÜNN
 70
     0
 62
     7
  6
Continuous
370
    -3
390
F
  0
LAYER
  5
76
330
2
100
AcDbSymbolTableRecord
100
AcDbLayerTableRecord
  2
KOPF_DICK
 70
     0
 62
     7
  6
Continuous
370
    25
390
F
  0
ENDTAB
  0
TABLE
  2
STYLE
  5
3
330
0
100
AcDbSymbolTable
 70
     3
  0
STYLE
  5
11
330
3
100
AcDbSymbolTableRecord
100
AcDbTextStyleTableRecord
  2
Standard
 70
     0
 40
0.0
 41
1.0
 50
0.0
 71
     0
 42
2.0
  3
txt
  4

  0
STYLE
  5
77
330
3
100
AcDbSymbolTableRecord
100
AcDbTextStyleTableRecord
  2
SLDTEXTSTYLE0
 70
     0
 40
0.0
 41
0.7
 50
0.0
 71
     0
 42
2.0
  3
TXT
  4

  0
STYLE
  5
7B
330
3
100
AcDbSymbolTableRecord
100
AcDbTextStyleTableRecord
  2
SLDTEXTSTYLE1
 70
     0
 40
0.0
 41
0.6466666667
 50
0.0
 71
     0
 42
2.0
  3
TXT
  4

  0
ENDTAB
  0
TABLE
  2
VIEW
  5
6
330
0
100
AcDbSymbolTable
 70
     0
  0
ENDTAB
  0
TABLE
  2
UCS
  5
7
330
0
100
AcDbSymbolTable
 70
     0
  0
ENDTAB
  0
TABLE
  2
APPID
  5
9
330
0
100
AcDbSymbolTable
 70
     1
  0
APPID
  5
12
330
9
100
AcDbSymbolTableRecord
100
AcDbRegAppTableRecord
  2
ACAD
 70
     0
  0
ENDTAB
  0
TABLE
  2
DIMSTYLE
  5
A
330
0
100
AcDbSymbolTable
 70
     3
100
AcDbDimStyleTable
  0
DIMSTYLE
105
27
330
A
100
AcDbSymbolTableRecord
100
AcDbDimStyleTableRecord
  2
ISO-25
 70
     0
 41
2.5
 42
0.625
 43
3.75
 44
1.25
 73
     0
 74
     0
 77
     1
 78
     8
140
2.5
141
2.5
143
0.0393700787
147
0.625
171
     3
172
     1
178
     0
271
     2
272
     2
274
     3
278
    44
283
     0
284
     8
340
11
  0
DIMSTYLE
105
12C
102
{ACAD_REACTORS
330
12B
330
144
330
15A
330
164
330
16E
330
178
330
184
102
}
330
A
100
AcDbSymbolTableRecord
100
AcDbDimStyleTableRecord
  2
SLDDIMSTYLE0
 70
     0
 41
3.0
 44
0.0
 45
0.000000001
 73
     0
 74
     0
 77
     1
 78
    12
 79
     3
140
2.0
147
0.5
173
     1
178
     0
271
     2
272
     3
276
     2
284
    12
340
77
  0
DIMSTYLE
105
139
102
{ACAD_REACTORS
330
138
330
14F
102
}
330
A
100
AcDbSymbolTableRecord
100
AcDbDimStyleTableRecord
  2
SLDDIMSTYLE1
 70
     0
 41
3.0
 44
0.0
 45
0.000000001
 73
     0
 74
     0
 77
     1
 78
    12
 79
     3
140
2.0
147
0.5
173
     1
178
     0
271
     0
272
     3
276
     2
284
    12
340
77
  0
ENDTAB
  0
TABLE
  2
BLOCK_RECORD
  5
1
330
0
100
AcDbSymbolTable
 70
    10
  0
BLOCK_RECORD
  5
1F
330
1
100
AcDbSymbolTableRecord
100
AcDbBlockTableRecord
  2
*Model_Space
340
22
  0
BLOCK_RECORD
  5
1B
330
1
100
AcDbSymbolTableRecord
100
AcDbBlockTableRecord
  2
*Paper_Space
340
1E
  0
BLOCK_RECORD
  5
23
330
1
100
AcDbSymbolTableRecord
100
AcDbBlockTableRecord
  2
*Paper_Space0
340
26
  0
BLOCK_RECORD
  5
12D
330
1
100
AcDbSymbolTableRecord
100
AcDbBlockTableRecord
  2
_D
340
0
  0
BLOCK_RECORD
  5
13A
330
1
100
AcDbSymbolTableRecord
100
AcDbBlockTableRecord
  2
_D_1
340
0
  0
BLOCK_RECORD
  5
145
330
1
100
AcDbSymbolTableRecord
100
AcDbBlockTableRecord
  2
_D_2
340
0
  0
BLOCK_RECORD
  5
150
330
1
100
AcDbSymbolTableRecord
100
AcDbBlockTableRecord
  2
_D_3
340
0
  0
BLOCK_RECORD
  5
15B
330
1
100
AcDbSymbolTableRecord
100
AcDbBlockTableRecord
  2
_D_4
340
0
  0
BLOCK_RECORD
  5
165
330
1
100
AcDbSymbolTableRecord
100
AcDbBlockTableRecord
  2
_D_5
340
0
  0
BLOCK_RECORD
  5
16F
330
1
100
AcDbSymbolTableRecord
100
AcDbBlockTableRecord
  2
_D_6
340
0
  0
BLOCK_RECORD
  5
179
330
1
100
AcDbSymbolTableRecord
100
AcDbBlockTableRecord
  2
_D_7
340
0
  0
BLOCK_RECORD
  5
185
330
1
100
AcDbSymbolTableRecord
100
AcDbBlockTableRecord
  2
_D_8
340
0
  0
ENDTAB
  0
ENDSEC
  0
SECTION
  2
BLOCKS
  0
BLOCK
  5
20
330
1F
100
AcDbEntity
  8
0
100
AcDbBlockBegin
  2
*Model_Space
 70
     0
 10
0.0
 20
0.0
 30
0.0
  3
*Model_Space
  1

  0
ENDBLK
  5
21
330
1F
100
AcDbEntity
  8
0
100
AcDbBlockEnd
  0
BLOCK
  5
1C
330
1B
100
AcDbEntity
 67
     1
  8
0
100
AcDbBlockBegin
  2
*Paper_Space
 70
     0
 10
0.0
 20
0.0
 30
0.0
  3
*Paper_Space
  1

  0
ENDBLK
  5
1D
330
1B
100
AcDbEntity
 67
     1
  8
0
100
AcDbBlockEnd
  0
BLOCK
  5
24
330
23
100
AcDbEntity
  8
0
100
AcDbBlockBegin
  2
*Paper_Space0
 70
     0
 10
0.0
 20
0.0
 30
0.0
  3
*Paper_Space0
  1

  0
ENDBLK
  5
25
330
23
100
AcDbEntity
  8
0
100
AcDbBlockEnd
  0
BLOCK
  5
12E
330
12D
100
AcDbEntity
  8
0
100
AcDbBlockBegin
  2
_D
 70
     0
 10
0.0
 20
0.0
 30
0.0
  3
_D
  1

  0
SOLID
  5
130
330
12D
100
AcDbEntity
  8
VERMASSUNG
100
AcDbTrace
 10
32.0973320575
 20
171.590860178
 30
0.0
 11
31.6473320575
 21
168.590860178
 31
0.0
 12
32.5473320575
 22
168.590860178
 32
0.0
 13
32.5473320575
 23
168.590860178
 33
0.0
  0
SOLID
  5
131
330
12D
100
AcDbEntity
  8
VERMASSUNG
100
AcDbTrace
 10
32.0973320575
 20
71.590860178
 30
0.0
 11
32.5473320575
 21
74.590860178
 31
0.0
 12
31.6473320575
 22
74.590860178
 32
0.0
 13
31.6473320575
 23
74.590860178
 33
0.0
  0
LINE
  5
132
330
12D
100
AcDbEntity
  8
VERMASSUNG
100
AcDbLine
 10
92.7478014184
 20
171.590860178
 30
0.0
 11
31.0973320575
 21
171.590860178
 31
0.0
  0
LINE
  5
133
330
12D
100
AcDbEntity
  8
VERMASSUNG
100
AcDbLine
 10
92.7478014184
 20
71.590860178
 30
0.0
 11
31.0973320575
 21
71.590860178
 31
0.0
  0
LINE
  5
134
330
12D
100
AcDbEntity
  8
VERMASSUNG
100
AcDbLine
 10
32.0973320575
 20
171.590860178
 30
0.0
 11
32.0973320575
 21
71.590860178
 31
0.0
  0
MTEXT
  5
135
330
12D
100
AcDbEntity
  8
VERMASSUNG
100
AcDbMText
 10
29.3191968012
 20
113.3858607982
 30
0.0
 40
2.0
 41
0.0
 71
     1
 72
     1
  1
HSK A
  7
SLDTEXTSTYLE0
 11
-7.044195017643634E-15
 21
1.0
 31
0.0
 73
     1
 44
1.0
  0
MTEXT
  5
136
330
12D
100
AcDbEntity
  8
VERMASSUNG
100
AcDbMText
 10
29.5191967525
 20
122.3858604107
 30
0.0
 40
2.0
 41
0.0
 71
     1
 72
     1
  1
%%c
  7
SLDTEXTSTYLE0
 11
-7.044195017643634E-15
 21
1.0
 31
0.0
 73
     1
 44
1.0
  0
MTEXT
  5
137
330
12D
100
AcDbEntity
  8
VERMASSUNG
100
AcDbMText
 10
29.3191968012
 20
125.995860425
 30
0.0
 40
2.0
 41
0.0
 71
     1
 72
     1
  1
100
  7
SLDTEXTSTYLE0
 11
-7.044195017643634E-15
 21
1.0
 31
0.0
 73
     1
 44
1.0
  0
ENDBLK
  5
12F
330
12D
100
AcDbEntity
  8
0
100
AcDbBlockEnd
  0
BLOCK
  5
13B
330
13A
100
AcDbEntity
  8
0
100
AcDbBlockBegin
  2
_D_1
 70
     0
 10
0.0
 20
0.0
 30
0.0
  3
_D_1
  1

  0
SOLID
  5
13D
330
13A
100
AcDbEntity
  8
VERMASSUNG
100
AcDbTrace
 10
270.2478014184
 20
154.7146703949
 30
0.0
 11
269.7978014184
 21
151.7146703949
 31
0.0
 12
270.6978014184
 22
151.7146703949
 32
0.0
 13
270.6978014184
 23
151.7146703949
 33
0.0
  0
SOLID
  5
13E
330
13A
100
AcDbEntity
  8
VERMASSUNG
100
AcDbTrace
 10
270.2478014184
 20
88.467049961
 30
0.0
 11
270.6978014184
 21
91.467049961
 31
0.0
 12
269.7978014184
 22
91.467049961
 32
0.0
 13
269.7978014184
 23
91.467049961
 33
0.0
  0
LINE
  5
13F
330
13A
100
AcDbEntity
  8
VERMASSUNG
100
AcDbLine
 10
124.7767487869
 20
154.7146703949
 30
0.0
 11
271.2478014184
 21
154.7146703949
 31
0.0
  0
LINE
  5
140
330
13A
100
AcDbEntity
  8
VERMASSUNG
100
AcDbLine
 10
124.7767487869
 20
88.467049961
 30
0.0
 11
271.2478014184
 21
88.467049961
 31
0.0
  0
LINE
  5
141
330
13A
100
AcDbEntity
  8
VERMASSUNG
100
AcDbLine
 10
270.2478014184
 20
154.7146703949
 30
0.0
 11
270.2478014184
 21
88.467049961
 31
0.0
  0
MTEXT
  5
142
330
13A
100
AcDbEntity
  8
VERMASSUNG
100
AcDbMText
 10
267.6696661135
 20
118.3858602207
 30
0.0
 40
2.0
 41
0.0
 71
     1
 72
     1
  1
%%c
  7
SLDTEXTSTYLE0
 11
-6.156016597943509E-15
 21
1.0
 31
0.0
 73
     1
 44
1.0
  0
MTEXT
  5
143
330
13A
100
AcDbEntity
  8
VERMASSUNG
100
AcDbMText
 10
267.4696661622
 20
121.995860235
 30
0.0
 40
2.0
 41
0.0
 71
     1
 72
     1
  1
66
  7
SLDTEXTSTYLE0
 11
-6.156016597943509E-15
 21
1.0
 31
0.0
 73
     1
 44
1.0
  0
ENDBLK
  5
13C
330
13A
100
AcDbEntity
  8
0
100
AcDbBlockEnd
  0
BLOCK
  5
146
330
145
100
AcDbEntity
  8
0
100
AcDbBlockBegin
  2
_D_2
 70
     0
 10
0.0
 20
0.0
 30
0.0
  3
_D_2
  1

  0
SOLID
  5
148
330
145
100
AcDbEntity
  8
VERMASSUNG
100
AcDbTrace
 10
261.0340422015
 20
92.590860178
 30
0.0
 11
261.4840422015
 21
95.590860178
 31
0.0
 12
260.5840422015
 22
95.590860178
 32
0.0
 13
260.5840422015
 23
95.590860178
 33
0.0
  0
SOLID
  5
149
330
145
100
AcDbEntity
  8
VERMASSUNG
100
AcDbTrace
 10
261.0340422015
 20
150.590860178
 30
0.0
 11
260.5840422015
 21
147.590860178
 31
0.0
 12
261.4840422015
 22
147.590860178
 32
0.0
 13
261.4840422015
 23
147.590860178
 33
0.0
  0
LINE
  5
14A
330
145
100
AcDbEntity
  8
VERMASSUNG
100
AcDbLine
 10
191.4478014184
 20
92.590860178
 30
0.0
 11
262.0340422015
 21
92.590860178
 31
0.0
  0
LINE
  5
14B
330
145
100
AcDbEntity
  8
VERMASSUNG
100
AcDbLine
 10
191.4478014184
 20
150.590860178
 30
0.0
 11
262.0340422015
 21
150.590860178
 31
0.0
  0
LINE
  5
14C
330
145
100
AcDbEntity
  8
VERMASSUNG
100
AcDbLine
 10
261.0340422015
 20
92.590860178
 30
0.0
 11
261.0340422015
 21
150.590860178
 31
0.0
  0
MTEXT
  5
14D
330
145
100
AcDbEntity
  8
VERMASSUNG
100
AcDbMText
 10
258.4559068965
 20
118.3858602207
 30
0.0
 40
2.0
 41
0.0
 71
     1
 72
     1
  1
%%c
  7
SLDTEXTSTYLE0
 11
6.123233995736766E-17
 21
1.0
 31
0.0
 73
     1
 44
1.0
  0
MTEXT
  5
14E
330
145
100
AcDbEntity
  8
VERMASSUNG
100
AcDbMText
 10
258.2559069453
 20
121.995860235
 30
0.0
 40
2.0
 41
0.0
 71
     1
 72
     1
  1
58
  7
SLDTEXTSTYLE0
 11
6.123233995736766E-17
 21
1.0
 31
0.0
 73
     1
 44
1.0
  0
ENDBLK
  5
147
330
145
100
AcDbEntity
  8
0
100
AcDbBlockEnd
  0
BLOCK
  5
151
330
150
100
AcDbEntity
  8
0
100
AcDbBlockBegin
  2
_D_3
 70
     0
 10
0.0
 20
0.0
 30
0.0
  3
_D_3
  1

  0
SOLID
  5
153
330
150
100
AcDbEntity
  8
VERMASSUNG
100
AcDbTrace
 10
243.633257504
 20
126.648360178
 30
0.0
 11
243.183257504
 21
123.648360178
 31
0.0
 12
244.083257504
 22
123.648360178
 32
0.0
 13
244.083257504
 23
123.648360178
 33
0.0
  0
SOLID
  5
154
330
150
100
AcDbEntity
  8
VERMASSUNG
100
AcDbTrace
 10
243.633257504
 20
116.533360178
 30
0.0
 11
244.083257504
 21
119.533360178
 31
0.0
 12
243.183257504
 22
119.533360178
 32
0.0
 13
243.183257504
 23
119.533360178
 33
0.0
  0
LINE
  5
155
330
150
100
AcDbEntity
  8
VERMASSUNG
100
AcDbLine
 10
230.2478014184
 20
126.648360178
 30
0.0
 11
244.633257504
 21
126.648360178
 31
0.0
  0
LINE
  5
156
330
150
100
AcDbEntity
  8
VERMASSUNG
100
AcDbLine
 10
230.2478014184
 20
116.533360178
 30
0.0
 11
244.633257504
 21
116.533360178
 31
0.0
  0
LINE
  5
157
330
150
100
AcDbEntity
  8
VERMASSUNG
100
AcDbLine
 10
243.633257504
 20
126.648360178
 30
0.0
 11
243.633257504
 21
116.533360178
 31
0.0
  0
MTEXT
  5
158
330
150
100
AcDbEntity
  8
VERMASSUNG
100
AcDbMText
 10
241.0551219081
 20
118.4908600889
 30
0.0
 40
2.0
 41
0.0
 71
     1
 72
     1
  1
SW
  7
SLDTEXTSTYLE0
 11
-7.044195017643634E-15
 21
1.0
 31
0.0
 73
     1
 44
1.0
  0
MTEXT
  5
159
330
150
100
AcDbEntity
  8
VERMASSUNG
100
AcDbMText
 10
241.0551219081
 20
122.290860153
 30
0.0
 40
2.0
 41
0.0
 71
     1
 72
     1
  1
10
  7
SLDTEXTSTYLE0
 11
-7.044195017643634E-15
 21
1.0
 31
0.0
 73
     1
 44
1.0
  0
ENDBLK
  5
152
330
150
100
AcDbEntity
  8
0
100
AcDbBlockEnd
  0
BLOCK
  5
15C
330
15B
100
AcDbEntity
  8
0
100
AcDbBlockBegin
  2
_D_4
 70
     0
 10
0.0
 20
0.0
 30
0.0
  3
_D_4
  1

  0
SOLID
  5
15E
330
15B
100
AcDbEntity
  8
VERMASSUNG
100
AcDbTrace
 10
121.1978014184
 20
178.7520592149
 30
0.0
 11
124.1978014184
 21
178.3020592149
 31
0.0
 12
124.1978014184
 22
179.2020592149
 32
0.0
 13
124.1978014184
 23
179.2020592149
 33
0.0
  0
SOLID
  5
15F
330
15B
100
AcDbEntity
  8
VERMASSUNG
100
AcDbTrace
 10
192.2478014184
 20
178.7520592149
 30
0.0
 11
189.2478014184
 21
179.2020592149
 31
0.0
 12
189.2478014184
 22
178.3020592149
 32
0.0
 13
189.2478014184
 23
178.3020592149
 33
0.0
  0
LINE
  5
160
330
15B
100
AcDbEntity
  8
VERMASSUNG
100
AcDbLine
 10
121.1978014184
 20
152.940860178
 30
0.0
 11
121.1978014184
 21
179.7520592149
 31
0.0
  0
LINE
  5
161
330
15B
100
AcDbEntity
  8
VERMASSUNG
100
AcDbLine
 10
192.2478014184
 20
149.790860178
 30
0.0
 11
192.2478014184
 21
179.7520592149
 31
0.0
  0
LINE
  5
162
330
15B
100
AcDbEntity
  8
VERMASSUNG
100
AcDbLine
 10
121.1978014184
 20
178.7520592149
 30
0.0
 11
192.2478014184
 21
178.7520592149
 31
0.0
  0
MTEXT
  5
163
330
15B
100
AcDbEntity
  8
VERMASSUNG
100
AcDbMText
 10
153.8228014553
 20
181.3301948109
 30
0.0
 40
2.0
 41
0.0
 71
     1
 72
     1
  1
71.05
  7
SLDTEXTSTYLE0
 73
     1
 44
1.0
  0
ENDBLK
  5
15D
330
15B
100
AcDbEntity
  8
0
100
AcDbBlockEnd
  0
BLOCK
  5
166
330
165
100
AcDbEntity
  8
0
100
AcDbBlockBegin
  2
_D_5
 70
     0
 10
0.0
 20
0.0
 30
0.0
  3
_D_5
  1

  0
SOLID
  5
168
330
165
100
AcDbEntity
  8
VERMASSUNG
100
AcDbTrace
 10
92.2478014184
 20
187.590860178
 30
0.0
 11
95.2478014184
 21
187.140860178
 31
0.0
 12
95.2478014184
 22
188.040860178
 32
0.0
 13
95.2478014184
 23
188.040860178
 33
0.0
  0
SOLID
  5
169
330
165
100
AcDbEntity
  8
VERMASSUNG
100
AcDbTrace
 10
192.2478014184
 20
187.590860178
 30
0.0
 11
189.2478014184
 21
188.040860178
 31
0.0
 12
189.2478014184
 22
187.140860178
 32
0.0
 13
189.2478014184
 23
187.140860178
 33
0.0
  0
LINE
  5
16A
330
165
100
AcDbEntity
  8
VERMASSUNG
100
AcDbLine
 10
92.2478014184
 20
171.090860178
 30
0.0
 11
92.2478014184
 21
188.590860178
 31
0.0
  0
LINE
  5
16B
330
165
100
AcDbEntity
  8
VERMASSUNG
100
AcDbLine
 10
192.2478014184
 20
149.790860178
 30
0.0
 11
192.2478014184
 21
188.590860178
 31
0.0
  0
LINE
  5
16C
330
165
100
AcDbEntity
  8
VERMASSUNG
100
AcDbLine
 10
92.2478014184
 20
187.590860178
 30
0.0
 11
192.2478014184
 21
187.590860178
 31
0.0
  0
MTEXT
  5
16D
330
165
100
AcDbEntity
  8
VERMASSUNG
100
AcDbMText
 10
140.3478013864
 20
190.1689957739
 30
0.0
 40
2.0
 41
0.0
 71
     1
 72
     1
  1
100
  7
SLDTEXTSTYLE0
 73
     1
 44
1.0
  0
ENDBLK
  5
167
330
165
100
AcDbEntity
  8
0
100
AcDbBlockEnd
  0
BLOCK
  5
170
330
16F
100
AcDbEntity
  8
0
100
AcDbBlockBegin
  2
_D_6
 70
     0
 10
0.0
 20
0.0
 30
0.0
  3
_D_6
  1

  0
SOLID
  5
172
330
16F
100
AcDbEntity
  8
VERMASSUNG
100
AcDbTrace
 10
192.2478014184
 20
178.7520592149
 30
0.0
 11
195.2478014184
 21
178.3020592149
 31
0.0
 12
195.2478014184
 22
179.2020592149
 32
0.0
 13
195.2478014184
 23
179.2020592149
 33
0.0
  0
SOLID
  5
173
330
16F
100
AcDbEntity
  8
VERMASSUNG
100
AcDbTrace
 10
213.2478014184
 20
178.7520592149
 30
0.0
 11
210.2478014184
 21
179.2020592149
 31
0.0
 12
210.2478014184
 22
178.3020592149
 32
0.0
 13
210.2478014184
 23
178.3020592149
 33
0.0
  0
LINE
  5
174
330
16F
100
AcDbEntity
  8
VERMASSUNG
100
AcDbLine
 10
192.2478014184
 20
149.790860178
 30
0.0
 11
192.2478014184
 21
179.7520592149
 31
0.0
  0
LINE
  5
175
330
16F
100
AcDbEntity
  8
VERMASSUNG
100
AcDbLine
 10
213.2478014184
 20
134.290860178
 30
0.0
 11
213.2478014184
 21
179.7520592149
 31
0.0
  0
LINE
  5
176
330
16F
100
AcDbEntity
  8
VERMASSUNG
100
AcDbLine
 10
192.2478014184
 20
178.7520592149
 30
0.0
 11
213.2478014184
 21
178.7520592149
 31
0.0
  0
MTEXT
  5
177
330
16F
100
AcDbEntity
  8
VERMASSUNG
100
AcDbMText
 10
201.5478013614
 20
181.3301948109
 30
0.0
 40
2.0
 41
0.0
 71
     1
 72
     1
  1
21
  7
SLDTEXTSTYLE0
 73
     1
 44
1.0
  0
ENDBLK
  5
171
330
16F
100
AcDbEntity
  8
0
100
AcDbBlockEnd
  0
BLOCK
  5
17A
330
179
100
AcDbEntity
  8
0
100
AcDbBlockBegin
  2
_D_7
 70
     0
 10
0.0
 20
0.0
 30
0.0
  3
_D_7
  1

  0
ARC
  5
17C
330
179
100
AcDbEntity
  8
VERMASSUNG
100
AcDbCircle
 10
128.6978015485
 20
198.6754815542
 30
0.0
 40
4.24852922888762
100
AcDbArc
 50
153.4349488229
 51
206.5650511771
  0
ARC
  5
17D
330
179
100
AcDbEntity
  8
VERMASSUNG
100
AcDbCircle
 10
126.8978013466
 20
198.6754815542
 30
0.0
 40
4.248529228887646
100
AcDbArc
 50
333.4349488229
 51
26.5650511771
  0
SOLID
  5
17E
330
179
100
AcDbEntity
  8
VERMASSUNG
100
AcDbTrace
 10
213.2478014184
 20
196.7754812894
 30
0.0
 11
210.2478014184
 21
197.2254812894
 31
0.0
 12
210.2478014184
 22
196.3254812894
 32
0.0
 13
210.2478014184
 23
196.3254812894
 33
0.0
  0
SOLID
  5
17F
330
179
100
AcDbEntity
  8
VERMASSUNG
100
AcDbTrace
 10
42.3478014184
 20
196.7754812894
 30
0.0
 11
45.3478014184
 21
196.3254812894
 31
0.0
 12
45.3478014184
 22
197.2254812894
 32
0.0
 13
45.3478014184
 23
197.2254812894
 33
0.0
  0
LINE
  5
180
330
179
100
AcDbEntity
  8
VERMASSUNG
100
AcDbLine
 10
213.2478014184
 20
134.290860178
 30
0.0
 11
213.2478014184
 21
197.7754812894
 31
0.0
  0
LINE
  5
181
330
179
100
AcDbEntity
  8
VERMASSUNG
100
AcDbLine
 10
42.3478014184
 20
152.0935299205
 30
0.0
 11
42.3478014184
 21
197.7754812894
 31
0.0
  0
LINE
  5
182
330
179
100
AcDbEntity
  8
VERMASSUNG
100
AcDbLine
 10
213.2478014184
 20
196.7754812894
 30
0.0
 11
42.3478014184
 21
196.7754812894
 31
0.0
  0
MTEXT
  5
183
330
179
100
AcDbEntity
  8
VERMASSUNG
100
AcDbMText
 10
124.8978014844
 20
199.3536171182
 30
0.0
 40
2.0
 41
0.0
 71
     1
 72
     1
  1
170.9
  7
SLDTEXTSTYLE0
 73
     1
 44
1.0
  0
ENDBLK
  5
17B
330
179
100
AcDbEntity
  8
0
100
AcDbBlockEnd
  0
BLOCK
  5
186
330
185
100
AcDbEntity
  8
0
100
AcDbBlockBegin
  2
_D_8
 70
     0
 10
0.0
 20
0.0
 30
0.0
  3
_D_8
  1

  0
SOLID
  5
188
330
185
100
AcDbEntity
  8
VERMASSUNG
100
AcDbTrace
 10
252.2478014184
 20
108.090860178
 30
0.0
 11
252.6978014184
 21
111.090860178
 31
0.0
 12
251.7978014184
 22
111.090860178
 32
0.0
 13
251.7978014184
 23
111.090860178
 33
0.0
  0
SOLID
  5
189
330
185
100
AcDbEntity
  8
VERMASSUNG
100
AcDbTrace
 10
252.2478014184
 20
135.090860178
 30
0.0
 11
251.7978014184
 21
132.090860178
 31
0.0
 12
252.6978014184
 22
132.090860178
 32
0.0
 13
252.6978014184
 23
132.090860178
 33
0.0
  0
LINE
  5
18A
330
185
100
AcDbEntity
  8
VERMASSUNG
100
AcDbLine
 10
212.4478014184
 20
108.090860178
 30
0.0
 11
253.2478014184
 21
108.090860178
 31
0.0
  0
LINE
  5
18B
330
185
100
AcDbEntity
  8
VERMASSUNG
100
AcDbLine
 10
212.4478014184
 20
135.090860178
 30
0.0
 11
253.2478014184
 21
135.090860178
 31
0.0
  0
LINE
  5
18C
330
185
100
AcDbEntity
  8
VERMASSUNG
100
AcDbLine
 10
252.2478014184
 20
108.090860178
 30
0.0
 11
252.2478014184
 21
135.090860178
 31
0.0
  0
MTEXT
  5
18D
330
185
100
AcDbEntity
  8
VERMASSUNG
100
AcDbMText
 10
249.6696661135
 20
118.3858602207
 30
0.0
 40
2.0
 41
0.0
 71
     1
 72
     1
  1
%%c
  7
SLDTEXTSTYLE0
 11
6.123233995736766E-17
 21
1.0
 31
0.0
 73
     1
 44
1.0
  0
MTEXT
  5
18E
330
185
100
AcDbEntity
  8
VERMASSUNG
100
AcDbMText
 10
249.4696661622
 20
121.995860235
 30
0.0
 40
2.0
 41
0.0
 71
     1
 72
     1
  1
27
  7
SLDTEXTSTYLE0
 11
6.123233995736766E-17
 21
1.0
 31
0.0
 73
     1
 44
1.0
  0
ENDBLK
  5
187
330
185
100
AcDbEntity
  8
0
100
AcDbBlockEnd
  0
ENDSEC
  0
SECTION
  2
ENTITIES
  0
MTEXT
  5
78
330
1F
100
AcDbEntity
  8
KOPF_DÜNN
100
AcDbMText
 10
13.8892156294
 20
23.8442973028
 30
0.0
 40
3.0
 41
0.0
 71
     1
 72
     1
  1
HA0.D27.K01.100
  7
SLDTEXTSTYLE0
 73
     1
 44
1.0
  0
MTEXT
  5
79
330
1F
100
AcDbEntity
  8
VERMASSUNG
100
AcDbMText
 10
13.9329988022
 20
28.8834360957
 30
0.0
 40
3.0
 41
0.0
 71
     1
 72
     1
  1
Fräsdorn Typ S_Milling arbor type S
  7
SLDTEXTSTYLE0
 73
     1
 44
1.0
  0
MTEXT
  5
7A
330
1F
100
AcDbEntity
  8
VERMASSUNG
100
AcDbMText
 10
98.8601118557
 20
13.8365368761
 30
0.0
 40
2.0
 41
0.0
 71
     1
 72
     1
  1
Datum: 19.02.2018
  7
SLDTEXTSTYLE0
 73
     1
 44
1.0
  0
MTEXT
  5
7C
330
1F
100
AcDbEntity
  8
VERMASSUNG
100
AcDbMText
 10
13.933048693
 20
18.0482802738
 30
0.0
 40
2.0
 41
0.0
 71
     1
 72
     1
  1
HSK A 100 / Ø27
  7
SLDTEXTSTYLE1
 73
     1
 44
1.0
  0
MTEXT
  5
7D
330
1F
100
AcDbEntity
  8
VERMASSUNG
100
AcDbMText
 10
13.9808475933
 20
13.9090974274
 30
0.0
 40
2.0
 41
0.0
 71
     1
 72
     1
  1
Gewicht: 3591g
  7
SLDTEXTSTYLE0
 73
     1
 44
1.0
  0
LINE
  5
7E
330
1F
100
AcDbEntity
  8
0
  6
Continuous
 62
     7
370
    25
100
AcDbLine
 10
192.2478029085
 20
137.5908609379
 30
0.0
 11
198.0478042318
 21
137.5908609379
 31
0.0
  0
LINE
  5
7F
330
1F
100
AcDbEntity
  8
0
  6
Continuous
 62
     7
370
    25
100
AcDbLine
 10
198.0478042318
 20
149.5908610422
 30
0.0
 11
192.2478029085
 21
149.5908610422
 31
0.0
  0
ARC
  5
80
330
1F
100
AcDbEntity
  8
0
  6
Continuous
 62
     7
370
    25
100
AcDbCircle
 10
198.0478014184
 20
138.090860178
 30
0.0
 40
0.5
100
AcDbArc
 50
270.0
 51
0.0
  0
ARC
  5
81
330
1F
100
AcDbEntity
  8
0
  6
Continuous
 62
     7
370
    25
100
AcDbCircle
 10
198.0478014184
 20
149.090860178
 30
0.0
 40
0.5
100
AcDbArc
 50
0.0
 51
90.0
  0
LINE
  5
82
330
1F
100
AcDbEntity
  8
0
  6
Continuous
 62
     7
370
    25
100
AcDbLine
 10
192.2478029085
 20
93.5908593137
 30
0.0
 11
198.0478042318
 21
93.5908593137
 31
0.0
  0
LINE
  5
83
330
1F
100
AcDbEntity
  8
0
  6
Continuous
 62
     7
370
    25
100
AcDbLine
 10
198.0478042318
 20
105.590859418
 30
0.0
 11
192.2478029085
 21
105.590859418
 31
0.0
  0
ARC
  5
84
330
1F
100
AcDbEntity
  8
0
  6
Continuous
 62
     7
370
    25
100
AcDbCircle
 10
198.0478014184
 20
94.090860178
 30
0.0
 40
0.5
100
AcDbArc
 50
270.0
 51
0.0
  0
ARC
  5
85
330
1F
100
AcDbEntity
  8
0
  6
Continuous
 62
     7
370
    25
100
AcDbCircle
 10
198.0478014184
 20
105.090860178
 30
0.0
 40
0.5
100
AcDbArc
 50
0.0
 51
90.0
  0
LINE
  5
86
330
1F
100
AcDbEntity
  8
0
  6
Continuous
 62
     7
370
    25
100
AcDbLine
 10
229.6478027059
 20
130.5908597905
 30
0.0
 11
218.247803445
 21
130.5908597905
 31
0.0
  0
LINE
  5
87
330
1F
100
AcDbEntity
  8
0
  6
Continuous
 62
     7
370
    25
100
AcDbLine
 10
218.247803445
 20
112.5908605654
 30
0.0
 11
229.6478027059
 21
112.5908605654
 31
0.0
  0
ARC
  5
88
330
1F
100
AcDbEntity
  8
0
  6
Continuous
 62
     7
370
    25
100
AcDbCircle
 10
229.6478014184
 20
129.990860178
 30
0.0
 40
0.5999999999999943
100
AcDbArc
 50
0.0
 51
90.0
  0
ARC
  5
89
330
1F
100
AcDbEntity
  8
0
  6
Continuous
 62
     7
370
    25
100
AcDbCircle
 10
229.6478014184
 20
113.190860178
 30
0.0
 40
0.5999999999999943
100
AcDbArc
 50
270.0
 51
0.0
  0
ARC
  5
8A
330
1F
100
AcDbEntity
  8
0
  6
Continuous
 62
     7
370
    25
100
AcDbCircle
 10
217.6478014184
 20
114.990860178
 30
0.0
 40
0.6000000000000085
100
AcDbArc
 50
0.0
 51
90.0
  0
ARC
  5
8B
330
1F
100
AcDbEntity
  8
0
  6
Continuous
 62
     7
370
    25
100
AcDbCircle
 10
217.6478014184
 20
128.190860178
 30
0.0
 40
0.6000000000000227
100
AcDbArc
 50
270.0
 51
0.0
  0
LINE
  5
8C
330
1F
100
AcDbEntity
  8
0
  6
Continuous
 62
     7
370
    25
100
AcDbLine
 10
217.6478081895
 20
127.5908602301
 30
0.0
 11
213.2478007628
 21
127.5908602301
 31
0.0
  0
LINE
  5
8D
330
1F
100
AcDbEntity
  8
0
  6
Continuous
 62
     7
370
    25
100
AcDbLine
 10
213.2478007628
 20
115.5908601258
 30
0.0
 11
217.6478081895
 21
115.5908601258
 31
0.0
  0
ARC
  5
8E
330
1F
100
AcDbEntity
  8
0
  6
Continuous
 62
     7
370
    25
100
AcDbCircle
 10
92.7478014184
 20
72.090860178
 30
0.0
 40
0.5
100
AcDbArc
 50
180.0
 51
270.0
  0
ARC
  5
8F
330
1F
100
AcDbEntity
  8
0
  6
Continuous
 62
     7
370
    25
100
AcDbCircle
 10
92.7478014184
 20
171.090860178
 30
0.0
 40
0.5
100
AcDbArc
 50
90.0
 51
180.0
  0
LINE
  5
90
330
1F
100
AcDbEntity
  8
0
  6
Continuous
 62
     7
370
    25
100
AcDbLine
 10
92.7478014422
 20
71.5908594329
 30
0.0
 11
97.1978013916
 21
71.5908594329
 31
0.0
  0
LINE
  5
91
330
1F
100
AcDbEntity
  8
0
  6
Continuous
 62
     7
370
    25
100
AcDbLine
 10
97.2318742937
 20
171.590860923
 30
0.0
 11
92.7478014422
 21
171.590860923
 31
0.0
  0
ARC
  5
92
330
1F
100
AcDbEntity
  8
0
  6
Continuous
 62
     7
370
    25
100
AcDbCircle
 10
91.3508645
 20
82.9623748535
 30
0.0
 40
0.9962338214386921
100
AcDbArc
 50
25.7988228126
 51
90.0
  0
ARC
  5
93
330
1F
100
AcDbEntity
  8
0
  6
Continuous
 62
     7
370
    25
100
AcDbCircle
 10
91.3508645
 20
160.2193455024
 30
0.0
 40
0.9962338214386932
100
AcDbArc
 50
270.0
 51
334.2011771874
  0
ARC
  5
94
330
1F
100
AcDbEntity
  8
0
  6
Continuous
 62
     7
370
    25
100
AcDbCircle
 10
126.1978014184
 20
83.6732404719
 30
0.0
 40
5.0
100
AcDbArc
 50
106.5116637356
 51
180.0
  0
ARC
  5
95
330
1F
100
AcDbEntity
  8
0
  6
Continuous
 62
     7
370
    25
100
AcDbCircle
 10
126.1978014184
 20
159.5084798841
 30
0.0
 40
5.000000000000002
100
AcDbArc
 50
180.0
 51
253.4883362644
  0
LINE
  5
96
330
1F
100
AcDbEntity
  8
0
  6
Continuous
 62
     7
370
    25
100
AcDbLine
 10
89.7478014743
 20
83.7086103756
 30
0.0
 11
90.5536475405
 21
83.9245356519
 31
0.0
  0
LINE
  5
97
330
1F
100
AcDbEntity
  8
0
  6
Continuous
 62
     7
370
    25
100
AcDbLine
 10
90.5536475405
 20
159.257184704
 30
0.0
 11
89.7478014743
 21
159.4731099803
 31
0.0
  0
LINE
  5
98
330
1F
100
AcDbEntity
  8
0
  6
Continuous
 62
     7
370
    25
100
AcDbLine
 10
70.7671219064
 20
158.5221774776
 30
0.0
 11
52.4478019728
 21
157.6043739814
 31
0.0
  0
LINE
  5
99
330
1F
100
AcDbEntity
  8
0
  6
Continuous
 62
     7
370
    25
100
AcDbLine
 10
89.7478014743
 20
159.4731099803
 30
0.0
 11
83.6797622545
 21
159.1691002149
 31
0.0
  0
LINE
  5
9A
330
1F
100
AcDbEntity
  8
0
  6
Continuous
 62
     7
370
    25
100
AcDbLine
 10
83.6798851891
 20
84.0126126904
 30
0.0
 11
89.7478014743
 21
83.7086103756
 31
0.0
  0
LINE
  5
9B
330
1F
100
AcDbEntity
  8
0
  6
Continuous
 62
     7
370
    25
100
AcDbLine
 10
57.4478009297
 20
85.3268466789
 30
0.0
 11
70.7677533431
 21
84.659513076
 31
0.0
  0
ARC
  5
9C
330
1F
100
AcDbEntity
  8
0
  6
Continuous
 62
     7
370
    25
100
AcDbCircle
 10
90.8124666179
 20
82.958608675
 30
0.0
 40
0.9999999999999858
100
AcDbArc
 50
90.0
 51
105.0
  0
ARC
  5
9D
330
1F
100
AcDbEntity
  8
0
  6
Continuous
 62
     7
370
    25
100
AcDbCircle
 10
90.8124666179
 20
160.223111681
 30
0.0
 40
0.9999999999999716
100
AcDbArc
 50
255.0
 51
270.0
  0
LINE
  5
9E
330
1F
100
AcDbEntity
  8
0
  6
Continuous
 62
     7
370
    25
100
AcDbLine
 10
90.8124666242
 20
83.958607157
 30
0.0
 11
91.3508644956
 21
83.958607157
 31
0.0
  0
LINE
  5
9F
330
1F
100
AcDbEntity
  8
0
  6
Continuous
 62
     7
370
    25
100
AcDbLine
 10
91.3508644956
 20
159.223113199
 30
0.0
 11
90.8124666242
 21
159.223113199
 31
0.0
  0
ARC
  5
A0
330
1F
100
AcDbEntity
  8
0
  6
Continuous
 62
     7
370
    25
100
AcDbCircle
 10
153.1978014184
 20
-7.409139822
 30
0.0
 40
100.0
100
AcDbArc
 50
90.0
 51
106.5116637356
  0
ARC
  5
A1
330
1F
100
AcDbEntity
  8
0
  6
Continuous
 62
     7
370
    25
100
AcDbCircle
 10
153.1978014184
 20
250.590860178
 30
0.0
 40
100.0000000000001
100
AcDbArc
 50
253.4883362644
 51
270.0
  0
LINE
  5
A2
330
1F
100
AcDbEntity
  8
0
  6
Continuous
 62
     7
370
    25
100
AcDbLine
 10
153.1978012575
 20
92.5908610124
 30
0.0
 11
191.4478042675
 21
92.5908610124
 31
0.0
  0
LINE
  5
A3
330
1F
100
AcDbEntity
  8
0
  6
Continuous
 62
     7
370
    25
100
AcDbLine
 10
191.4478042675
 20
150.5908593435
 30
0.0
 11
153.1978012575
 21
150.5908593435
 31
0.0
  0
ARC
  5
A4
330
1F
100
AcDbEntity
  8
0
  6
Continuous
 62
     7
370
    25
100
AcDbCircle
 10
191.4478014184
 20
93.390860178
 30
0.0
 40
0.7999999999999972
100
AcDbArc
 50
270.0
 51
0.0
  0
ARC
  5
A5
330
1F
100
AcDbEntity
  8
0
  6
Continuous
 62
     7
370
    25
100
AcDbCircle
 10
191.4478014184
 20
149.790860178
 30
0.0
 40
0.8000000000000114
100
AcDbArc
 50
0.0
 51
90.0
  0
LINE
  5
A6
330
1F
100
AcDbEntity
  8
0
  6
Continuous
 62
     7
370
    25
100
AcDbLine
 10
43.9978004946
 20
89.3408618767
 30
0.0
 11
55.5478022946
 21
89.3408618767
 31
0.0
  0
ARC
  5
A7
330
1F
100
AcDbEntity
  8
0
  6
Continuous
 62
     7
370
    25
100
AcDbCircle
 10
55.5478014184
 20
87.440860178
 30
0.0
 40
1.900000000000007
100
AcDbArc
 50
35.6630613694
 51
90.0
  0
ARC
  5
A8
330
1F
100
AcDbEntity
  8
0
  6
Continuous
 62
     7
370
    25
100
AcDbCircle
 10
50.5478014184
 20
155.740860178
 30
0.0
 40
1.899999999999991
100
AcDbArc
 50
270.0
 51
310.9212832533
  0
LINE
  5
A9
330
1F
100
AcDbEntity
  8
0
  6
Continuous
 62
     7
370
    25
100
AcDbLine
 10
43.9978004946
 20
153.8408584792
 30
0.0
 11
42.3984849407
 21
152.241544788
 31
0.0
  0
LINE
  5
AA
330
1F
100
AcDbEntity
  8
0
  6
Continuous
 62
     7
370
    25
100
AcDbLine
 10
42.399323131
 20
90.9393392403
 30
0.0
 11
43.9978004946
 21
89.3408618767
 31
0.0
  0
LINE
  5
AB
330
1F
100
AcDbEntity
  8
0
  6
Continuous
 62
     7
370
    25
100
AcDbLine
 10
50.5477996124
 20
153.8408584792
 30
0.0
 11
43.9978004946
 21
153.8408584792
 31
0.0
  0
ARC
  5
AC
330
1F
100
AcDbEntity
  8
0
  6
Continuous
 62
     7
370
    25
100
AcDbCircle
 10
192.6478014184
 20
107.840860178
 30
0.0
 40
0.6000000000000085
100
AcDbArc
 50
90.0
 51
131.8103148958
  0
ARC
  5
AD
330
1F
100
AcDbEntity
  8
0
  6
Continuous
 62
     7
370
    25
100
AcDbCircle
 10
192.6478014184
 20
135.340860178
 30
0.0
 40
0.6000000000000054
100
AcDbArc
 50
228.1896851042
 51
270.0
  0
LINE
  5
AE
330
1F
100
AcDbEntity
  8
0
  6
Continuous
 62
     7
370
    25
100
AcDbLine
 10
194.7478005244
 20
108.0908598278
 30
0.0
 11
212.4478021218
 21
108.0908598278
 31
0.0
  0
LINE
  5
AF
330
1F
100
AcDbEntity
  8
0
  6
Continuous
 62
     7
370
    25
100
AcDbLine
 10
212.4478021218
 20
135.0908605281
 30
0.0
 11
194.7478005244
 21
135.0908605281
 31
0.0
  0
ARC
  5
B0
330
1F
100
AcDbEntity
  8
0
  6
Continuous
 62
     7
370
    25
100
AcDbCircle
 10
212.4478014184
 20
108.890860178
 30
0.0
 40
0.8000000000000114
100
AcDbArc
 50
270.0
 51
0.0
  0
ARC
  5
B1
330
1F
100
AcDbEntity
  8
0
  6
Continuous
 62
     7
370
    25
100
AcDbCircle
 10
212.4478014184
 20
134.290860178
 30
0.0
 40
0.8000000000000114
100
AcDbArc
 50
0.0
 51
90.0
  0
LINE
  5
B2
330
1F
100
AcDbEntity
  8
0
  6
Continuous
 62
     7
370
    25
100
AcDbLine
 10
194.7478005244
 20
135.0908605281
 30
0.0
 11
193.5178810312
 21
134.7613045845
 31
0.0
  0
LINE
  5
B3
330
1F
100
AcDbEntity
  8
0
  6
Continuous
 62
     7
370
    25
100
AcDbLine
 10
193.5178810312
 20
108.4204157714
 30
0.0
 11
194.7478005244
 21
108.0908598278
 31
0.0
  0
ARC
  5
B4
330
1F
100
AcDbEntity
  8
0
  6
Continuous
 62
     7
370
    25
100
AcDbCircle
 10
193.3625921372
 20
107.840860178
 30
0.0
 40
0.6000000000000085
100
AcDbArc
 50
75.0
 51
90.0
  0
ARC
  5
B5
330
1F
100
AcDbEntity
  8
0
  6
Continuous
 62
     7
370
    25
100
AcDbCircle
 10
193.3625921372
 20
135.340860178
 30
0.0
 40
0.5999999999999943
100
AcDbArc
 50
270.0
 51
285.0
  0
LINE
  5
B6
330
1F
100
AcDbEntity
  8
0
  6
Continuous
 62
     7
370
    25
100
AcDbLine
 10
192.6478022291
 20
108.4408601646
 30
0.0
 11
193.3625885798
 21
108.4408601646
 31
0.0
  0
LINE
  5
B7
330
1F
100
AcDbEntity
  8
0
  6
Continuous
 62
     7
370
    25
100
AcDbLine
 10
193.3625885798
 20
134.7408601914
 30
0.0
 11
192.6478022291
 21
134.7408601914
 31
0.0
  0
LINE
  5
B8
330
1F
100
AcDbEntity
  8
0
  6
Continuous
 62
     7
370
    25
100
AcDbLine
 10
198.5477977945
 20
140.8408600737
 30
0.0
 11
198.5477977945
 21
149.090860029
 31
0.0
  0
LINE
  5
B9
330
1F
100
AcDbEntity
  8
0
  6
Continuous
 62
     7
370
    25
100
AcDbLine
 10
198.5477977945
 20
138.0908600886
 30
0.0
 11
198.5477977945
 21
140.8408600737
 31
0.0
  0
LINE
  5
BA
330
1F
100
AcDbEntity
  8
0
  6
Continuous
 62
     7
370
    25
100
AcDbLine
 10
198.5477977945
 20
96.8408603121
 30
0.0
 11
198.5477977945
 21
105.0908602674
 31
0.0
  0
LINE
  5
BB
330
1F
100
AcDbEntity
  8
0
  6
Continuous
 62
     7
370
    25
100
AcDbLine
 10
198.5477977945
 20
94.090860327
 30
0.0
 11
198.5477977945
 21
96.8408603121
 31
0.0
  0
LINE
  5
BC
330
1F
100
AcDbEntity
  8
0
  6
Continuous
 62
     7
370
    25
100
AcDbLine
 10
218.247803445
 20
130.5908597905
 30
0.0
 11
218.247803445
 21
112.5908605654
 31
0.0
  0
LINE
  5
BD
330
1F
100
AcDbEntity
  8
0
  6
Continuous
 62
     7
370
    25
100
AcDbLine
 10
230.2477979614
 20
129.9908598785
 30
0.0
 11
230.2477979614
 21
113.1908604775
 31
0.0
  0
LINE
  5
BE
330
1F
100
AcDbEntity
  8
0
  6
Continuous
 62
     7
370
    25
100
AcDbLine
 10
110.3378017945
 20
75.2194709975
 30
0.0
 11
110.3378017945
 21
152.9408618707
 31
0.0
  0
SPLINE
  5
BF
330
1F
100
AcDbEntity
  8
0
  6
Continuous
 62
     7
370
    25
100
AcDbSpline
210
0.0
220
0.0
230
1.0
 70
     8
 71
     3
 72
     8
 73
     4
 74
     0
 42
0.000000001
 43
0.00000001
 40
0.0
 40
0.0
 40
0.0
 40
0.0
 40
1.0
 40
1.0
 40
1.0
 40
1.0
 10
110.3378014184318
 20
75.21947189094439
 30
0.0
 10
109.887574954154
 20
74.41801652831964
 30
0.0
 10
109.4368771269106
 20
73.61682651675896
 30
0.0
 10
108.9857723975104
 20
72.81586658493906
 30
0.0
  0
LINE
  5
C0
330
1F
100
AcDbEntity
  8
0
  6
Continuous
 62
     7
370
    25
100
AcDbLine
 10
108.9857728733
 20
72.8158652682
 30
0.0
 11
108.9857728733
 21
152.9408618707
 31
0.0
  0
SPLINE
  5
C1
330
1F
100
AcDbEntity
  8
0
  6
Continuous
 62
     7
370
    25
100
AcDbSpline
210
0.0
220
0.0
230
1.0
 70
    24
 71
     3
 72
     8
 73
     4
 74
     0
 42
0.000000001
 43
0.00000001
 40
0.0
 40
0.0
 40
0.0
 40
0.0
 40
1.0
 40
1.0
 40
1.0
 40
1.0
 10
108.9857723975104
 20
152.9408601779679
 30
0.0
 10
109.4425739698387
 20
152.9408601779679
 30
0.0
 10
109.8935885360779
 20
152.9408601779679
 30
0.0
 10
110.3378014184318
 20
152.9408601779679
 30
0.0
  0
LINE
  5
C2
330
1F
100
AcDbEntity
  8
0
  6
Continuous
 62
     7
370
    25
100
AcDbLine
 10
121.1978016002
 20
73.8415159185
 30
0.0
 11
121.1978016002
 21
152.9408618707
 31
0.0
  0
SPLINE
  5
C3
330
1F
100
AcDbEntity
  8
0
  6
Continuous
 62
     7
370
    25
100
AcDbSpline
210
0.0
220
0.0
230
1.0
 70
     8
 71
     3
 72
    14
 73
    10
 74
     0
 42
0.000000001
 43
0.00000001
 40
0.0
 40
0.0
 40
0.0
 40
0.0
 40
0.25
 40
0.25
 40
0.5
 40
0.5
 40
0.75
 40
0.75
 40
1.0
 40
1.0
 40
1.0
 40
1.0
 10
121.1978014184318
 20
73.84151463271458
 30
0.0
 10
121.1978014184318
 20
73.70808893666003
 30
0.0
 10
121.1724903185209
 20
73.5762411288157
 30
0.0
 10
121.0741555546762
 20
73.32971858012158
 30
0.0
 10
121.0010115504201
 20
73.21591339188105
 30
0.0
 10
120.8175734893244
 20
73.02545621493377
 30
0.0
 10
120.7058871549858
 20
72.94782135108385
 30
0.0
 10
120.4633837246796
 20
72.84352994097138
 30
0.0
 10
120.3300092959853
 20
72.81586658493902
 30
0.0
 10
120.1978014184318
 20
72.81586658493903
 30
0.0
  0
SPLINE
  5
C4
330
1F
100
AcDbEntity
  8
0
  6
Continuous
 62
     7
370
    25
100
AcDbSpline
210
0.0
220
0.0
230
1.0
 70
    24
 71
     3
 72
    12
 73
     8
 74
     0
 42
0.000000001
 43
0.00000001
 40
0.0
 40
0.0
 40
0.0
 40
0.0
 40
0.2500000000000032
 40
0.2500000000000032
 40
0.5000000000000064
 40
0.5000000000000064
 40
1.0
 40
1.0
 40
1.0
 40
1.0
 10
120.1978014184318
 20
152.9408601779679
 30
0.0
 10
120.3498916553768
 20
152.9408601779679
 30
0.0
 10
120.4983509164522
 20
152.9408601779679
 30
0.0
 10
120.7557545487179
 20
152.9408601779679
 30
0.0
 10
120.8648592965598
 20
152.9408601779679
 30
0.0
 10
121.1189187729674
 20
152.9408601779679
 30
0.0
 10
121.1978014184318
 20
152.9408601779679
 30
0.0
 10
121.1978014184318
 20
152.9408601779679
 30
0.0
  0
LINE
  5
C5
330
1F
100
AcDbEntity
  8
0
  6
Continuous
 62
     7
370
    25
100
AcDbLine
 10
92.2478014184
 20
72.0908604462
 30
0.0
 11
92.2478014184
 21
171.0908599097
 31
0.0
  0
LINE
  5
C6
330
1F
100
AcDbEntity
  8
0
  6
Continuous
 62
     7
370
    25
100
AcDbLine
 10
115.5098309321
 20
72.8158652682
 30
0.0
 11
115.5098309321
 21
152.9408618707
 31
0.0
  0
SPLINE
  5
C7
330
1F
100
AcDbEntity
  8
0
  6
Continuous
 62
     7
370
    25
100
AcDbSpline
210
0.0
220
0.0
230
1.0
 70
     8
 71
     3
 72
     8
 73
     4
 74
     0
 42
0.000000001
 43
0.00000001
 40
0.0
 40
0.0
 40
0.0
 40
0.0
 40
1.0
 40
1.0
 40
1.0
 40
1.0
 10
115.5098304393532
 20
72.81586658493907
 30
0.0
 10
115.058725709953
 20
73.61682651675899
 30
0.0
 10
114.6080278827096
 20
74.41801652831964
 30
0.0
 10
114.1578014184318
 20
75.2194718909444
 30
0.0
  0
LINE
  5
C8
330
1F
100
AcDbEntity
  8
0
  6
Continuous
 62
     7
370
    25
100
AcDbLine
 10
114.1578020109
 20
75.2194709975
 30
0.0
 11
114.1578020109
 21
152.9408618707
 31
0.0
  0
SPLINE
  5
C9
330
1F
100
AcDbEntity
  8
0
  6
Continuous
 62
     7
370
    25
100
AcDbSpline
210
0.0
220
0.0
230
1.0
 70
    24
 71
     3
 72
     8
 73
     4
 74
     0
 42
0.000000001
 43
0.00000001
 40
0.0
 40
0.0
 40
0.0
 40
0.0
 40
1.0
 40
1.0
 40
1.0
 40
1.0
 10
114.1578014184318
 20
152.9408601779679
 30
0.0
 10
114.6020143007857
 20
152.9408601779679
 30
0.0
 10
115.0530288670249
 20
152.9408601779679
 30
0.0
 10
115.5098304393532
 20
152.9408601779679
 30
0.0
  0
LINE
  5
CA
330
1F
100
AcDbEntity
  8
0
  6
Continuous
 62
     7
370
    25
100
AcDbLine
 10
120.1978014363
 20
72.8158652682
 30
0.0
 11
115.5098309321
 21
72.8158652682
 31
0.0
  0
LINE
  5
CB
330
1F
100
AcDbEntity
  8
0
  6
Continuous
 62
     7
370
    25
100
AcDbLine
 10
115.5098309321
 20
152.9408618707
 30
0.0
 11
120.1978014363
 21
152.9408618707
 31
0.0
  0
LINE
  5
CC
330
1F
100
AcDbEntity
  8
0
  6
Continuous
 62
     7
370
    25
100
AcDbLine
 10
97.1978013916
 20
152.9408618707
 30
0.0
 11
108.9857728733
 21
152.9408618707
 31
0.0
  0
LINE
  5
CD
330
1F
100
AcDbEntity
  8
0
  6
Continuous
 62
     7
370
    25
100
AcDbLine
 10
108.9857728733
 20
72.8158652682
 30
0.0
 11
107.1978011681
 21
72.8158652682
 31
0.0
  0
SPLINE
  5
CE
330
1F
100
AcDbEntity
  8
0
  6
Continuous
 62
     7
370
    25
100
AcDbSpline
210
0.0
220
0.0
230
1.0
 70
     8
 71
     3
 72
    30
 73
    26
 74
     0
 42
0.000000001
 43
0.00000001
 40
0.0
 40
0.0
 40
0.0
 40
0.0
 40
0.1249999999999999
 40
0.1249999999999999
 40
0.1874999999999998
 40
0.1874999999999998
 40
0.2499999999999997
 40
0.2499999999999997
 40
0.3749999999999996
 40
0.3749999999999996
 40
0.4374999999999996
 40
0.4374999999999996
 40
0.4999999999999997
 40
0.4999999999999997
 40
0.6249999999999997
 40
0.6249999999999997
 40
0.6874999999999998
 40
0.6874999999999998
 40
0.7499999999999998
 40
0.7499999999999998
 40
0.8124999999999999
 40
0.8124999999999999
 40
0.875
 40
0.875
 40
1.0
 40
1.0
 40
1.0
 40
1.0
 10
107.1978014184318
 20
72.81586658493907
 30
0.0
 10
106.535208071393
 20
72.81586658493907
 30
0.0
 10
105.8817001557857
 20
72.80097184301226
 30
0.0
 10
104.920459056648
 20
72.75851027777969
 30
0.0
 10
104.6028931058723
 20
72.74099988324575
 30
0.0
 10
103.97355326346
 20
72.69961493589726
 30
0.0
 10
103.6610762110171
 20
72.67564203762672
 30
0.0
 10
102.7527432286859
 20
72.59666513751482
 30
0.0
 10
102.1789091074568
 20
72.53424459968417
 30
0.0
 10
101.3647472640845
 20
72.43097944948633
 30
0.0
 10
101.0999411343064
 20
72.3947622919358
 30
0.0
 10
100.5927809276441
 20
72.32086398675123
 30
0.0
 10
100.3513139188591
 20
72.28334488119795
 30
0.0
 10
99.66209274438181
 20
72.17052087924883
 30
0.0
 10
99.2491685703459
 20
72.09494189601
 30
0.0
 10
98.70143668144678
 20
71.98654222206997
 30
0.0
 10
98.53203760969834
 20
71.95145379503364
 30
0.0
 10
98.22431934995282
 20
71.8852244215025
 30
0.0
 10
98.08513415760511
 20
71.85391209925335
 30
0.0
 10
97.83581715698578
 20
71.7955536507017
 30
0.0
 10
97.7256847769899
 20
71.76850636433923
 30
0.0
 10
97.53504505046348
 20
71.71933863672734
 30
0.0
 10
97.45421906475377
 20
71.69711668360104
 30
0.0
 10
97.26146255361485
 20
71.63982623656214
 30
0.0
 10
97.1978014184318
 20
71.61395661522579
 30
0.0
 10
97.1978014184318
 20
71.60086117816792
 30
0.0
  0
LINE
  5
CF
330
1F
100
AcDbEntity
  8
0
  6
Continuous
 62
     7
370
    25
100
AcDbLine
 10
97.1978013916
 20
71.6008618374
 30
0.0
 11
97.1978013916
 21
71.5908594329
 31
0.0
  0
SPLINE
  5
D0
330
1F
100
AcDbEntity
  8
0
  6
Continuous
 62
     7
370
    25
100
AcDbSpline
210
0.0
220
0.0
230
1.0
 70
     8
 71
     3
 72
    17
 73
    13
 74
     0
 42
0.000000001
 43
0.00000001
 40
0.0
 40
0.0
 40
0.0
 40
0.0
 40
0.1043843958185158
 40
0.2118345569819801
 40
0.3162081801235555
 40
0.4235375330682647
 40
0.5292275935501746
 40
0.6379275752951962
 40
0.7444714855043735
 40
0.8541836194561564
 40
0.959308052615968
 40
1.0
 40
1.0
 40
1.0
 40
1.0
 10
107.1978011680923
 20
170.5806553263405
 30
0.0
 10
106.6498626275786
 20
170.5860227666734
 30
0.0
 10
105.5378926145044
 20
170.5969152888373
 30
0.0
 10
103.9250372819819
 20
170.6820974726553
 30
0.0
 10
102.3915241312442
 20
170.8084679759868
 30
0.0
 10
101.0005032428699
 20
170.9653718474957
 30
0.0
 10
99.76498612657178
 20
171.1370672449313
 30
0.0
 10
98.74163098071539
 20
171.3024120991413
 30
0.0
 10
97.94128830785641
 20
171.4461163969734
 30
0.0
 10
97.43095675509636
 20
171.5442803929052
 30
0.0
 10
97.19104799663693
 20
171.592201707378
 30
0.0
 10
97.22296690840638
 20
171.5858351993643
 30
0.0
 10
97.23187429366331
 20
171.584058542941
 30
0.0
  0
LINE
  5
D1
330
1F
100
AcDbEntity
  8
0
  6
Continuous
 62
     7
370
    25
100
AcDbLine
 10
108.9857728733
 20
170.5806553263
 30
0.0
 11
107.1978011681
 21
170.5806553263
 31
0.0
  0
LINE
  5
D2
330
1F
100
AcDbEntity
  8
0
  6
Continuous
 62
     7
370
    25
100
AcDbLine
 10
108.9857728733
 20
160.5418212611
 30
0.0
 11
108.9857728733
 21
170.5806553263
 31
0.0
  0
LINE
  5
D3
330
1F
100
AcDbEntity
  8
0
  6
Continuous
 62
     7
370
    25
100
AcDbLine
 10
106.905768211
 20
160.5418212611
 30
0.0
 11
108.9857728733
 21
160.5418212611
 31
0.0
  0
SPLINE
  5
D4
330
1F
100
AcDbEntity
  8
0
  6
Continuous
 62
     7
370
    25
100
AcDbSpline
210
0.0
220
0.0
230
1.0
 70
     8
 71
     3
 72
    22
 73
    18
 74
     0
 42
0.000000001
 43
0.00000001
 40
0.0
 40
0.0
 40
0.0
 40
0.0
 40
0.2500000000000002
 40
0.2500000000000002
 40
0.3750000000000003
 40
0.3750000000000003
 40
0.5000000000000004
 40
0.5000000000000004
 40
0.6250000000000004
 40
0.6250000000000004
 40
0.7500000000000004
 40
0.7500000000000004
 40
0.8750000000000004
 40
0.8750000000000004
 40
0.9375000000000002
 40
0.9375000000000002
 40
1.0
 40
1.0
 40
1.0
 40
1.0
 10
97.1978014184318
 20
152.9408601779679
 30
0.0
 10
97.40052637435089
 20
153.9601065198325
 30
0.0
 10
97.71527009614627
 20
154.9192146697718
 30
0.0
 10
98.42332556581724
 20
156.2616937472811
 30
0.0
 10
98.70178819603488
 20
156.6959023300211
 30
0.0
 10
99.34055560267208
 20
157.5075300455232
 30
0.0
 10
99.70096928246228
 20
157.88681033846
 30
0.0
 10
100.5185015144516
 20
158.589768917481
 30
0.0
 10
100.9796694977387
 20
158.9147977351816
 30
0.0
 10
101.9776597442225
 20
159.4798130585725
 30
0.0
 10
102.5174189382148
 20
159.723516652779
 30
0.0
 10
103.6920119022461
 20
160.127716580424
 30
0.0
 10
104.303748088238
 20
160.2801537734695
 30
0.0
 10
105.2556573130997
 20
160.4354813210782
 30
0.0
 10
105.5788904773603
 20
160.4749861011283
 30
0.0
 10
106.2379536486356
 20
160.528295221797
 30
0.0
 10
106.5720176592096
 20
160.5418229388548
 30
0.0
 10
106.9057682666111
 20
160.5418229388548
 30
0.0
  0
SPLINE
  5
D5
330
1F
100
AcDbEntity
  8
0
  6
Continuous
 62
     7
370
    25
100
AcDbSpline
210
0.0
220
0.0
230
1.0
 70
    11
 71
     3
 72
    80
 73
    76
 74
     0
 42
0.000000001
 43
0.00000001
 40
0.0
 40
0.0
 40
0.0
 40
0.0
 40
0.03125
 40
0.03125
 40
0.0468749999999999
 40
0.0468749999999999
 40
0.0624999999999998
 40
0.0624999999999998
 40
0.0937499999999996
 40
0.0937499999999996
 40
0.1249999999999994
 40
0.1249999999999994
 40
0.1562499999999992
 40
0.1562499999999992
 40
0.187499999999999
 40
0.187499999999999
 40
0.2187499999999988
 40
0.2187499999999988
 40
0.2499999999999986
 40
0.2499999999999986
 40
0.2812499999999983
 40
0.2812499999999983
 40
0.3124999999999981
 40
0.3124999999999981
 40
0.3281249999999982
 40
0.3281249999999982
 40
0.3437499999999982
 40
0.3437499999999982
 40
0.3749999999999984
 40
0.3749999999999984
 40
0.4062499999999986
 40
0.4062499999999986
 40
0.4218749999999987
 40
0.4218749999999987
 40
0.4374999999999987
 40
0.4374999999999987
 40
0.4687499999999989
 40
0.4687499999999989
 40
0.499999999999999
 40
0.499999999999999
 40
0.5312499999999991
 40
0.5312499999999991
 40
0.5624999999999992
 40
0.5624999999999992
 40
0.5937499999999993
 40
0.5937499999999993
 40
0.6249999999999994
 40
0.6249999999999994
 40
0.6562499999999997
 40
0.6562499999999997
 40
0.6874999999999998
 40
0.6874999999999998
 40
0.703125
 40
0.703125
 40
0.7187500000000002
 40
0.7187500000000002
 40
0.7500000000000003
 40
0.7500000000000003
 40
0.7812500000000004
 40
0.7812500000000004
 40
0.7968750000000006
 40
0.7968750000000006
 40
0.8125000000000007
 40
0.8125000000000007
 40
0.8437500000000006
 40
0.8437500000000006
 40
0.8750000000000006
 40
0.8750000000000006
 40
0.9062500000000004
 40
0.9062500000000004
 40
0.9375000000000003
 40
0.9375000000000003
 40
0.9687500000000002
 40
0.9687500000000002
 40
1.0
 40
1.0
 40
1.0
 40
1.0
 10
101.2478014184318
 20
165.0054896415991
 30
0.0
 10
100.9172561056555
 20
165.0054896415991
 30
0.0
 10
100.5922759764039
 20
165.0216978729813
 30
0.0
 10
100.1128025651575
 20
165.0690625050009
 30
0.0
 10
99.95432074731664
 20
165.0887167168916
 30
0.0
 10
99.64010121481236
 20
165.1358278730842
 30
0.0
 10
99.48398093113195
 20
165.1634091925789
 30
0.0
 10
99.02992690217538
 20
165.2559449793726
 30
0.0
 10
98.74282351923556
 20
165.3310154129692
 30
0.0
 10
98.19946896320853
 20
165.5062537215797
 30
0.0
 10
97.94236535200295
 20
165.607255019418
 30
0.0
 10
97.48145909706416
 20
165.8246112178789
 30
0.0
 10
97.27456138784919
 20
165.9417755496511
 30
0.0
 10
96.909036073857
 20
166.1918454738798
 30
0.0
 10
96.75383055173103
 20
166.3227915626388
 30
0.0
 10
96.50440016513132
 20
166.5885265063511
 30
0.0
 10
96.40831020934615
 20
166.7252800996621
 30
0.0
 10
96.27979136015257
 20
166.9993456745011
 30
0.0
 10
96.2479804899748
 20
167.1342857649699
 30
0.0
 10
96.24762384020153
 20
167.3997574020386
 30
0.0
 10
96.2801210923986
 20
167.5315818791799
 30
0.0
 10
96.40774656611309
 20
167.7810314788003
 30
0.0
 10
96.50217496716498
 20
167.8994641707282
 30
0.0
 10
96.69003578715053
 20
168.0683333678224
 30
0.0
 10
96.76086378595372
 20
168.1234193629426
 30
0.0
 10
96.915585677919
 20
168.228672191431
 30
0.0
 10
96.9995621481024
 20
168.2790074201913
 30
0.0
 10
97.27088581774682
 20
168.4235832527294
 30
0.0
 10
97.47743503634916
 20
168.5114448391464
 30
0.0
 10
97.94404517653818
 20
168.6711659321459
 30
0.0
 10
98.19641074616364
 20
168.7404042286131
 30
0.0
 10
98.60231208784236
 20
168.8301916178429
 30
0.0
 10
98.74221270531986
 20
168.8577575799292
 30
0.0
 10
99.03143664056677
 20
168.9082483808554
 30
0.0
 10
99.18127609685605
 20
168.9312118197061
 30
0.0
 10
99.63539266646684
 20
168.991842336125
 30
0.0
 10
99.9470438852037
 20
169.0219163649208
 30
0.0
 10
100.5880403501161
 20
169.0625059521794
 30
0.0
 10
100.9195679780682
 20
169.0728181823955
 30
0.0
 10
101.5723590231397
 20
169.0728937495612
 30
0.0
 10
101.8968952281715
 20
169.0629921440935
 30
0.0
 10
102.5421646775879
 20
169.0225056135683
 30
0.0
 10
102.8579076837507
 20
168.9920443136836
 30
0.0
 10
103.4597969787344
 20
168.911893642247
 30
0.0
 10
103.7505462095458
 20
168.8616114104398
 30
0.0
 10
104.2974580012303
 20
168.7409412276669
 30
0.0
 10
104.5492353650673
 20
168.6717173684969
 30
0.0
 10
105.0106233576884
 20
168.5142656408562
 30
0.0
 10
105.2218926372865
 20
168.4249171661824
 30
0.0
 10
105.5851969896627
 20
168.2316692954816
 30
0.0
 10
105.7390036381055
 20
168.1275413036023
 30
0.0
 10
105.9276231077029
 20
167.9589169174188
 30
0.0
 10
105.983653593912
 20
167.9002885157439
 30
0.0
 10
106.0792273556481
 20
167.7808336009177
 30
0.0
 10
106.1189902726732
 20
167.7199138120795
 30
0.0
 10
106.2147620229853
 20
167.5335090859056
 30
0.0
 10
106.2474848621114
 20
167.4043962681106
 30
0.0
 10
106.2481134484405
 20
167.1357393451547
 30
0.0
 10
106.2159273037057
 20
167.0003686043979
 30
0.0
 10
106.1210166018501
 20
166.7968182961619
 30
0.0
 10
106.0815498184512
 20
166.7288463720985
 30
0.0
 10
105.9866198197303
 20
166.5927541489676
 30
0.0
 10
105.9308629919669
 20
166.5244040487582
 30
0.0
 10
105.742922873997
 20
166.3237010357161
 30
0.0
 10
105.5895614042808
 20
166.1943127619034
 30
0.0
 10
105.2272971694005
 20
165.9456473298535
 30
0.0
 10
105.0164486959346
 20
165.8258376874854
 30
0.0
 10
104.5557787256157
 20
165.6083153999127
 30
0.0
 10
104.3044043460318
 20
165.5092303000767
 30
0.0
 10
103.7584964591337
 20
165.3325578261599
 30
0.0
 10
103.4676738844825
 20
165.2565007380259
 30
0.0
 10
102.8663472697024
 20
165.1336557606729
 30
0.0
 10
102.5518286850901
 20
165.0859496356198
 30
0.0
 10
101.9052472289701
 20
165.0217011005002
 30
0.0
 10
101.5783467312081
 20
165.0054896415991
 30
0.0
 10
101.2478014184318
 20
165.0054896415991
 30
0.0
  0
SPLINE
  5
D6
330
1F
100
AcDbEntity
  8
0
  6
Continuous
 62
     7
370
    25
100
AcDbSpline
210
0.0
220
0.0
230
1.0
 70
     8
 71
     3
 72
    14
 73
    10
 74
     0
 42
0.000000001
 43
0.00000001
 40
0.0
 40
0.0
 40
0.0
 40
0.0
 40
0.25
 40
0.25
 40
0.5
 40
0.5
 40
0.75
 40
0.75
 40
1.0
 40
1.0
 40
1.0
 40
1.0
 10
114.1578014184318
 20
76.12768139557299
 30
0.0
 10
114.1578014184318
 20
76.23472547656738
 30
0.0
 10
114.1376837312736
 20
76.3399606168098
 30
0.0
 10
114.059192542008
 20
76.5378111036575
 30
0.0
 10
114.0010359172068
 20
76.62886286722242
 30
0.0
 10
113.8545206615888
 20
76.7820289611472
 30
0.0
 10
113.7658781129477
 20
76.84432340735661
 30
0.0
 10
113.5701547901473
 20
76.9291171928926
 30
0.0
 10
113.4649235990764
 20
76.95118471991823
 30
0.0
 10
113.3578014184318
 20
76.95118471991825
 30
0.0
  0
SPLINE
  5
D7
330
1F
100
AcDbEntity
  8
0
  6
Continuous
 62
     7
370
    25
100
AcDbSpline
210
0.0
220
0.0
230
1.0
 70
    24
 71
     3
 72
    14
 73
    10
 74
     0
 42
0.000000001
 43
0.00000001
 40
0.0
 40
0.0
 40
0.0
 40
0.0
 40
0.25
 40
0.25
 40
0.5
 40
0.5
 40
0.75
 40
0.75
 40
1.0
 40
1.0
 40
1.0
 40
1.0
 10
113.3578014184318
 20
152.9408601779679
 30
0.0
 10
113.481571183197
 20
152.9408601779679
 30
0.0
 10
113.6059382872038
 20
152.9408601779679
 30
0.0
 10
113.8122947559299
 20
152.9408601779679
 30
0.0
 10
113.8976228993482
 20
152.9408601779679
 30
0.0
 10
114.0298149580635
 20
152.9408601779679
 30
0.0
 10
114.0784602018141
 20
152.9408601779679
 30
0.0
 10
114.1419959935428
 20
152.9408601779679
 30
0.0
 10
114.1578014184318
 20
152.9408601779679
 30
0.0
 10
114.1578014184318
 20
152.9408601779679
 30
0.0
  0
SPLINE
  5
D8
330
1F
100
AcDbEntity
  8
0
  6
Continuous
 62
     7
370
    25
100
AcDbSpline
210
0.0
220
0.0
230
1.0
 70
     8
 71
     3
 72
    12
 73
     8
 74
     0
 42
0.000000001
 43
0.00000001
 40
0.0
 40
0.0
 40
0.0
 40
0.0
 40
0.250000000000003
 40
0.250000000000003
 40
0.500000000000006
 40
0.500000000000006
 40
1.0
 40
1.0
 40
1.0
 40
1.0
 10
111.1378014184318
 20
76.95118471991825
 30
0.0
 10
111.0320407650829
 20
76.95118471991823
 30
0.0
 10
110.9240531368999
 20
76.92864521391783
 30
0.0
 10
110.7294584716343
 20
76.8440745819225
 30
0.0
 10
110.6405865587954
 20
76.78159292916368
 30
0.0
 10
110.4213942664695
 20
76.55220397769146
 30
0.0
 10
110.3378014184318
 20
76.33962064016906
 30
0.0
 10
110.3378014184318
 20
76.12768139557282
 30
0.0
  0
SPLINE
  5
D9
330
1F
100
AcDbEntity
  8
0
  6
Continuous
 62
     7
370
    25
100
AcDbSpline
210
0.0
220
0.0
230
1.0
 70
    24
 71
     3
 72
    14
 73
    10
 74
     0
 42
0.000000001
 43
0.00000001
 40
0.0
 40
0.0
 40
0.0
 40
0.0
 40
0.25
 40
0.25
 40
0.5
 40
0.5
 40
0.75
 40
0.75
 40
1.0
 40
1.0
 40
1.0
 40
1.0
 10
110.3378014184318
 20
152.9408601779679
 30
0.0
 10
110.3378014184318
 20
152.9408601779679
 30
0.0
 10
110.3535157388977
 20
152.9408601779679
 30
0.0
 10
110.4171997173661
 20
152.9408601779679
 30
0.0
 10
110.4658029117766
 20
152.9408601779679
 30
0.0
 10
110.5984864342022
 20
152.9408601779679
 30
0.0
 10
110.6835885385128
 20
152.9408601779679
 30
0.0
 10
110.8900307734229
 20
152.9408601779679
 30
0.0
 10
111.0141117150459
 20
152.9408601779679
 30
0.0
 10
111.1378014184318
 20
152.9408601779679
 30
0.0
  0
LINE
  5
DA
330
1F
100
AcDbEntity
  8
0
  6
Continuous
 62
     7
370
    25
100
AcDbLine
 10
113.3578015072
 20
76.9511833687
 30
0.0
 11
111.1378022982
 21
76.9511833687
 31
0.0
  0
LINE
  5
DB
330
1F
100
AcDbEntity
  8
0
  6
Continuous
 62
     7
370
    25
100
AcDbLine
 10
111.1378022982
 20
152.9408618707
 30
0.0
 11
113.3578015072
 21
152.9408618707
 31
0.0
  0
LINE
  5
DC
330
1F
100
AcDbEntity
  8
0
  6
Continuous
 62
     7
370
    25
100
AcDbLine
 10
89.7478014743
 20
83.7086103756
 30
0.0
 11
89.7478014743
 21
159.4731099803
 31
0.0
  0
LINE
  5
DD
330
1F
100
AcDbEntity
  8
0
  6
Continuous
 62
     7
370
    25
100
AcDbLine
 10
57.4478009297
 20
85.3268466789
 30
0.0
 11
57.4478009297
 21
87.7215266127
 31
0.0
  0
SPLINE
  5
DE
330
1F
100
AcDbEntity
  8
0
  6
Continuous
 62
     7
370
    25
100
AcDbSpline
210
0.0
220
0.0
230
1.0
 70
     8
 71
     3
 72
    14
 73
    10
 74
     0
 42
0.000000001
 43
0.00000001
 40
0.0
 40
0.0
 40
0.0
 40
0.0
 40
0.25
 40
0.25
 40
0.5
 40
0.5
 40
0.75
 40
0.75
 40
1.0
 40
1.0
 40
1.0
 40
1.0
 10
56.44337894709485
 20
89.42437883422436
 30
0.0
 10
56.53214752504017
 20
89.2658447029164
 30
0.0
 10
56.65386536371908
 20
89.11340202602784
 30
0.0
 10
56.88891497357591
 20
88.81626740219892
 30
0.0
 10
57.00454515979281
 20
88.67158475858156
 30
0.0
 10
57.20495009322063
 20
88.38829555607815
 30
0.0
 10
57.29035038520494
 20
88.2497415630413
 30
0.0
 10
57.41205601892219
 20
87.97835753300775
 30
0.0
 10
57.44780141843482
 20
87.84622166437315
 30
0.0
 10
57.44780141843481
 20
87.72152691260237
 30
0.0
  0
SPLINE
  5
DF
330
1F
100
AcDbEntity
  8
0
  6
Continuous
 62
     7
370
    25
100
AcDbSpline
210
0.0
220
0.0
230
1.0
 70
     8
 71
     3
 72
    14
 73
    10
 74
     0
 42
0.000000001
 43
0.00000001
 40
0.0
 40
0.0
 40
0.0
 40
0.0
 40
0.124999999999999
 40
0.124999999999999
 40
0.249999999999998
 40
0.249999999999998
 40
0.5000000000000007
 40
0.5000000000000007
 40
1.0
 40
1.0
 40
1.0
 40
1.0
 10
55.5478014184318
 20
90.05320877332446
 30
0.0
 10
55.61538371821629
 20
90.06036465842584
 30
0.0
 10
55.6878712959642
 20
90.05594018838684
 30
0.0
 10
55.82016240523014
 20
90.0262340306165
 30
0.0
 10
55.87743978462031
 20
90.00294974903827
 30
0.0
 10
56.02709021182059
 20
89.92546450918793
 30
0.0
 10
56.10080350734209
 20
89.86361268228657
 30
0.0
 10
56.28861149066833
 20
89.67893522963826
 30
0.0
 10
56.37265179702978
 20
89.55069230634705
 30
0.0
 10
56.44337894709606
 20
89.42437883422446
 30
0.0
  0
SPLINE
  5
E0
330
1F
100
AcDbEntity
  8
0
  6
Continuous
 62
     7
370
    25
100
AcDbSpline
210
0.0
220
0.0
230
1.0
 70
     8
 71
     3
 72
     8
 73
     4
 74
     0
 42
0.000000001
 43
0.00000001
 40
0.0
 40
0.0
 40
0.0
 40
0.0
 40
1.0
 40
1.0
 40
1.0
 40
1.0
 10
52.00316103035102
 20
89.63516018853268
 30
0.0
 10
53.16845934105989
 20
89.7903476604193
 30
0.0
 10
54.3530745550997
 20
89.92670629872961
 30
0.0
 10
55.5478014184318
 20
90.05320877332446
 30
0.0
  0
SPLINE
  5
E1
330
1F
100
AcDbEntity
  8
0
  6
Continuous
 62
     7
370
    25
100
AcDbSpline
210
0.0
220
0.0
230
1.0
 70
     8
 71
     3
 72
    14
 73
    10
 74
     0
 42
0.000000001
 43
0.00000001
 40
0.0
 40
0.0
 40
0.0
 40
0.0
 40
0.5000000000000012
 40
0.5000000000000012
 40
0.7500000000000018
 40
0.7500000000000018
 40
0.8750000000000009
 40
0.8750000000000009
 40
1.0
 40
1.0
 40
1.0
 40
1.0
 10
44.24772653440145
 20
89.34502800940275
 30
0.0
 10
45.55602809693548
 20
89.35204273314386
 30
0.0
 10
46.8610874715926
 20
89.36745130958835
 30
0.0
 10
48.80696352308128
 20
89.421347865055
 30
0.0
 10
49.45366102682043
 20
89.4443794296577
 30
0.0
 10
50.41750339067498
 20
89.49532195452846
 30
0.0
 10
50.73774208260912
 20
89.51505687676166
 30
0.0
 10
51.37443730895166
 20
89.56454400523324
 30
0.0
 10
51.69115271723468
 20
89.59360878416247
 30
0.0
 10
52.00316103035104
 20
89.63516018853262
 30
0.0
  0
SPLINE
  5
E2
330
1F
100
AcDbEntity
  8
0
  6
Continuous
 62
     7
370
    25
100
AcDbSpline
210
0.0
220
0.0
230
1.0
 70
     8
 71
     3
 72
    12
 73
     8
 74
     0
 42
0.000000001
 43
0.00000001
 40
0.0
 40
0.0
 40
0.0
 40
0.0
 40
0.2500000000000001
 40
0.2500000000000001
 40
0.5000000000000001
 40
0.5000000000000001
 40
1.0
 40
1.0
 40
1.0
 40
1.0
 10
50.54780141843181
 20
153.6773830694643
 30
0.0
 10
50.02910259660362
 20
153.7099058443125
 30
0.0
 10
49.50739102339863
 20
153.733202585483
 30
0.0
 10
48.46109900690307
 20
153.7710480999051
 30
0.0
 10
47.93642738123278
 20
153.7853165744013
 30
0.0
 10
46.35958135869356
 20
153.8195260618596
 30
0.0
 10
45.30462604414667
 20
153.8310255658035
 30
0.0
 10
44.24772653440145
 20
153.836692346533
 30
0.0
  0
SPLINE
  5
E3
330
1F
100
AcDbEntity
  8
0
  6
Continuous
 62
     7
370
    25
100
AcDbSpline
210
0.0
220
0.0
230
1.0
 70
     8
 71
     3
 72
    20
 73
    16
 74
     0
 42
0.000000001
 43
0.00000001
 40
0.0
 40
0.0
 40
0.0
 40
0.0
 40
0.2500000000000011
 40
0.2500000000000011
 40
0.5000000000000021
 40
0.5000000000000021
 40
0.7500000000000031
 40
0.7500000000000031
 40
0.8750000000000008
 40
0.8750000000000008
 40
0.9375000000000006
 40
0.9375000000000006
 40
0.9687500000000003
 40
0.9687500000000003
 40
1.0
 40
1.0
 40
1.0
 40
1.0
 10
52.44780141843181
 20
155.3354689149525
 30
0.0
 10
52.44780141843181
 20
155.1997865952057
 30
0.0
 10
52.39908962921518
 20
155.0586996090656
 30
0.0
 10
52.22992820598999
 20
154.7666278903351
 30
0.0
 10
52.10814779207168
 20
154.6149791482447
 30
0.0
 10
51.81060069732216
 20
154.3125707080915
 30
0.0
 10
51.63668809161939
 20
154.1599820719682
 30
0.0
 10
51.31727325773756
 20
153.9347113081259
 30
0.0
 10
51.20223248229031
 20
153.8599882136152
 30
0.0
 10
50.99514815827389
 20
153.7605778043582
 30
0.0
 10
50.9190403234675
 20
153.7290127120136
 30
0.0
 10
50.78764578391415
 20
153.6945693278207
 30
0.0
 10
50.74109256491269
 20
153.685517756053
 30
0.0
 10
50.64475921383197
 20
153.6753421072146
 30
0.0
 10
50.59549979047653
 20
153.6743923485395
 30
0.0
 10
50.54780141842982
 20
153.6773830694541
 30
0.0
  0
LINE
  5
E4
330
1F
100
AcDbEntity
  8
0
  6
Continuous
 62
     7
370
    25
100
AcDbLine
 10
52.4478019728
 20
155.3354672987
 30
0.0
 11
52.4478019728
 21
157.6043739814
 31
0.0
  0
SPLINE
  5
E5
330
1F
100
AcDbEntity
  8
0
  6
Continuous
 62
     7
370
    25
100
AcDbSpline
210
0.0
220
0.0
230
1.0
 70
     8
 71
     3
 72
    24
 73
    20
 74
     0
 42
0.000000001
 43
0.00000001
 40
0.0
 40
0.0
 40
0.0
 40
0.0
 40
0.0002934239329635
 40
0.0628079954843725
 40
0.1260453886222317
 40
0.1890746649056576
 40
0.2513200327496127
 40
0.3133304381321615
 40
0.3759158074016681
 40
0.4383740215105411
 40
0.5000631209931454
 40
0.5616593985498132
 40
0.6245050468179062
 40
0.6872231543007362
 40
0.7494953203649202
 40
0.811758388799549
 40
0.8747365576758938
 40
0.937898032705022
 40
1.0
 40
1.0
 40
1.0
 40
1.0
 10
70.76775706840377
 20
84.65961365887912
 30
0.0
 10
70.76756252462098
 20
84.65958996161851
 30
0.0
 10
70.72592002836531
 20
84.6545175143161
 30
0.0
 10
70.87094324053814
 20
84.67295880446221
 30
0.0
 10
71.22606046755658
 20
84.715561133229
 30
0.0
 10
71.83062602119264
 20
84.78367146655538
 30
0.0
 10
72.63706317959836
 20
84.8569367798833
 30
0.0
 10
73.6225402896196
 20
84.92145238319202
 30
0.0
 10
74.75420943100187
 20
84.9600192984713
 30
0.0
 10
75.97650234466423
 20
84.96370860031813
 30
0.0
 10
77.24383149062452
 20
84.92129017392396
 30
0.0
 10
78.51031673372147
 20
84.83303530767246
 30
0.0
 10
79.72645486458221
 20
84.70464970044145
 30
0.0
 10
80.85186429019792
 20
84.55200197377151
 30
0.0
 10
81.8292824834159
 20
84.3902315924065
 30
0.0
 10
82.63254716393354
 20
84.23769915593007
 30
0.0
 10
83.22104057296502
 20
84.11368551716919
 30
0.0
 10
83.6099473094504
 20
84.02876392601857
 30
0.0
 10
83.65670812582071
 20
84.01803821771048
 30
0.0
 10
83.679890777
 20
84.01272072384151
 30
0.0
  0
SPLINE
  5
E6
330
1F
100
AcDbEntity
  8
0
  6
Continuous
 62
     7
370
    25
100
AcDbSpline
210
0.0
220
0.0
230
1.0
 70
     8
 71
     3
 72
    27
 73
    23
 74
     0
 42
0.000000001
 43
0.00000001
 40
0.0
 40
0.0
 40
0.0
 40
0.0
 40
0.0619954680688684
 40
0.1254397621813191
 40
0.1886583727463871
 40
0.2510346191260181
 40
0.313178255016169
 40
0.3756730771103761
 40
0.4382401025850776
 40
0.4998243385522818
 40
0.5615387009126923
 40
0.6240931220669997
 40
0.6867530144355031
 40
0.7488662870716932
 40
0.8111008374917862
 40
0.8742090103085037
 40
0.9448189516773847
 40
0.9756082665127763
 40
0.9877505319198249
 40
0.9999433694577685
 40
0.9999501670988248
 40
1.0
 40
1.0
 40
1.0
 40
1.0
 10
83.6797697050653
 20
159.1689549286107
 30
0.0
 10
83.65619811410629
 20
159.1636453435673
 30
0.0
 10
83.60850406716646
 20
159.1529020891671
 30
0.0
 10
83.21646097378746
 20
159.0676752039906
 30
0.0
 10
82.62594832860063
 20
158.9431065230346
 30
0.0
 10
81.82190988053378
 20
158.7901576128645
 30
0.0
 10
80.84583511413365
 20
158.628400410258
 30
0.0
 10
79.72402680123706
 20
158.4761669923227
 30
0.0
 10
78.51049516546114
 20
158.3483916385187
 30
0.0
 10
77.24566473463044
 20
158.260543120513
 30
0.0
 10
75.97762136294186
 20
158.218155090817
 30
0.0
 10
74.75411406200807
 20
158.2218941264043
 30
0.0
 10
73.62061471633207
 20
158.2604827399328
 30
0.0
 10
72.63451009370334
 20
158.3249286733738
 30
0.0
 10
71.82588025125465
 20
158.3984374070795
 30
0.0
 10
71.20565171654091
 20
158.468407852409
 30
0.0
 10
70.88749853477186
 20
158.5069592450744
 30
0.0
 10
70.79183708911363
 20
158.5190302973739
 30
0.0
 10
70.77021826003342
 20
158.5217907181687
 30
0.0
 10
70.76737729289161
 20
158.5221190995166
 30
0.0
 10
70.76705691721311
 20
158.5221740367832
 30
0.0
 10
70.76709247736243
 20
158.5221679407275
 30
0.0
 10
70.76712376905303
 20
158.5221625764111
 30
0.0
  0
SPLINE
  5
E7
330
1F
100
AcDbEntity
  8
0
  6
Continuous
 62
     7
370
    25
100
AcDbSpline
210
0.0
220
0.0
230
1.0
 70
     8
 71
     3
 72
    20
 73
    16
 74
     0
 42
0.000000001
 43
0.00000001
 40
0.0
 40
0.0
 40
0.0
 40
0.0
 40
0.249999999999986
 40
0.249999999999986
 40
0.3749999999999789
 40
0.3749999999999789
 40
0.4374999999999789
 40
0.4374999999999789
 40
0.4999999999999789
 40
0.4999999999999789
 40
0.6249999999999835
 40
0.6249999999999835
 40
0.7499999999999879
 40
0.7499999999999879
 40
1.0
 40
1.0
 40
1.0
 40
1.0
 10
42.63861565014781
 20
90.91237702526716
 30
0.0
 10
42.66488786736122
 20
90.93169496634964
 30
0.0
 10
42.69556800961606
 20
90.94608367745141
 30
0.0
 10
42.76703887999798
 20
90.9391793156154
 30
0.0
 10
42.79506591704232
 20
90.93201331226699
 30
0.0
 10
42.85014950653983
 20
90.90231428556339
 30
0.0
 10
42.87104083509226
 20
90.88884064300206
 30
0.0
 10
42.91624948253772
 20
90.85364237748604
 30
0.0
 10
42.94065369493329
 20
90.83173414875878
 30
0.0
 10
43.01198601298473
 20
90.75960928876323
 30
0.0
 10
43.053882797805
 20
90.70726874781317
 30
0.0
 10
43.12545875666088
 20
90.60978535591244
 30
0.0
 10
43.15628674647817
 20
90.56303158603401
 30
0.0
 10
43.23938667931375
 20
90.4297383701949
 30
0.0
 10
43.28424158468405
 20
90.34710097227969
 30
0.0
 10
43.32435366013662
 20
90.26799407748891
 30
0.0
  0
SPLINE
  5
E8
330
1F
100
AcDbEntity
  8
0
  6
Continuous
 62
     7
370
    25
100
AcDbSpline
210
0.0
220
0.0
230
1.0
 70
     8
 71
     3
 72
    14
 73
    10
 74
     0
 42
0.000000001
 43
0.00000001
 40
0.0
 40
0.0
 40
0.0
 40
0.0
 40
0.2499999999999994
 40
0.2499999999999994
 40
0.4999999999999988
 40
0.4999999999999988
 40
0.7499999999999982
 40
0.7499999999999982
 40
1.0
 40
1.0
 40
1.0
 40
1.0
 10
42.34780141843181
 20
91.08819043539995
 30
0.0
 10
42.34780141843181
 20
91.04694350437562
 30
0.0
 10
42.35641113481306
 20
91.01003653209314
 30
0.0
 10
42.3874973143834
 20
90.94913647219371
 30
0.0
 10
42.40988686786748
 20
90.92495555265403
 30
0.0
 10
42.46463079904358
 20
90.89098796177075
 30
0.0
 10
42.49708103862877
 20
90.88106787780258
 30
0.0
 10
42.56708255335684
 20
90.87971666889773
 30
0.0
 10
42.60529305347936
 20
90.88787494559388
 30
0.0
 10
42.63861565015247
 20
90.91237702526197
 30
0.0
  0
LINE
  5
E9
330
1F
100
AcDbEntity
  8
0
  6
Continuous
 62
     7
370
    25
100
AcDbLine
 10
42.3478023661
 20
91.0881906647
 30
0.0
 11
42.3478023661
 21
152.0935296912
 31
0.0
  0
SPLINE
  5
EA
330
1F
100
AcDbEntity
  8
0
  6
Continuous
 62
     7
370
    25
100
AcDbSpline
210
0.0
220
0.0
230
1.0
 70
     8
 71
     3
 72
     9
 73
     5
 74
     0
 42
0.000000001
 43
0.00000001
 40
0.0
 40
0.0
 40
0.0
 40
0.0
 40
0.0592942499244465
 40
1.0
 40
1.0
 40
1.0
 40
1.0
 10
42.63861715329509
 20
152.2693429041842
 30
0.0
 10
42.63373415559632
 20
152.272636043882
 30
0.0
 10
42.55138219558371
 20
152.328174982345
 30
0.0
 10
42.48525154116842
 20
152.2708827792323
 30
0.0
 10
42.42304205430369
 20
152.2169876743296
 30
0.0
  0
SPLINE
  5
EB
330
1F
100
AcDbEntity
  8
0
  6
Continuous
 62
     7
370
    25
100
AcDbSpline
210
0.0
220
0.0
230
1.0
 70
     8
 71
     3
 72
     8
 73
     4
 74
     0
 42
0.000000001
 43
0.00000001
 40
0.0
 40
0.0
 40
0.0
 40
0.0
 40
1.0
 40
1.0
 40
1.0
 40
1.0
 10
42.37143508736801
 20
152.2011094216055
 30
0.0
 10
42.35608604873198
 20
152.1705993666095
 30
0.0
 10
42.34780141843181
 20
152.1342878110972
 30
0.0
 10
42.34780141843181
 20
152.0935299205358
 30
0.0
  0
SPLINE
  5
EC
330
1F
100
AcDbEntity
  8
0
  6
Continuous
 62
     7
370
    25
100
AcDbSpline
210
0.0
220
0.0
230
1.0
 70
     8
 71
     3
 72
    20
 73
    16
 74
     0
 42
0.000000001
 43
0.00000001
 40
0.0
 40
0.0
 40
0.0
 40
0.0
 40
0.2500000000000037
 40
0.2500000000000037
 40
0.3750000000000055
 40
0.3750000000000055
 40
0.5000000000000073
 40
0.5000000000000073
 40
0.5625000000000057
 40
0.5625000000000057
 40
0.625000000000004
 40
0.625000000000004
 40
0.7500000000000027
 40
0.7500000000000027
 40
1.0
 40
1.0
 40
1.0
 40
1.0
 10
43.32435366013424
 20
152.913726278446
 30
0.0
 10
43.28435744231041
 20
152.8348478718886
 30
0.0
 10
43.23924381447275
 20
152.7517182251971
 30
0.0
 10
43.15598960010622
 20
152.6182295608461
 30
0.0
 10
43.12577027148571
 20
152.5723645049642
 30
0.0
 10
43.0536820363443
 20
152.4741729525593
 30
0.0
 10
43.0117647189332
 20
152.4218631330357
 30
0.0
 10
42.94051411438174
 20
152.3498572303012
 30
0.0
 10
42.91627830200242
 20
152.3280870179996
 30
0.0
 10
42.87068011181777
 20
152.2926123596706
 30
0.0
 10
42.84987762221807
 20
152.279242175493
 30
0.0
 10
42.79493662379893
 20
152.2496722633578
 30
0.0
 10
42.76686763571214
 20
152.2425457410559
 30
0.0
 10
42.6963648056493
 20
152.2356713695732
 30
0.0
 10
42.66494071785842
 20
152.2499865286603
 30
0.0
 10
42.63861565014983
 20
152.2693433306709
 30
0.0
  0
SPLINE
  5
ED
330
1F
100
AcDbEntity
  8
0
  6
Continuous
 62
     7
370
    25
100
AcDbSpline
210
0.0
220
0.0
230
1.0
 70
     8
 71
     3
 72
    10
 73
     6
 74
     0
 42
0.000000001
 43
0.00000001
 40
0.0
 40
0.0
 40
0.0
 40
0.0
 40
0.4999999999999989
 40
0.4999999999999989
 40
1.0
 40
1.0
 40
1.0
 40
1.0
 10
43.99780141843182
 20
153.8391453797879
 30
0.0
 10
43.87291314768161
 20
153.7081491017164
 30
0.0
 10
43.75146302962117
 20
153.5644362650514
 30
0.0
 10
43.52187905466373
 20
153.2538659723622
 30
0.0
 10
43.41160407926775
 20
153.0857968992991
 30
0.0
 10
43.32435366013424
 20
152.913726278446
 30
0.0
  0
SPLINE
  5
EE
330
1F
100
AcDbEntity
  8
0
  6
Continuous
 62
     7
370
    25
100
AcDbSpline
210
0.0
220
0.0
230
1.0
 70
     8
 71
     3
 72
     8
 73
     4
 74
     0
 42
0.000000001
 43
0.00000001
 40
0.0
 40
0.0
 40
0.0
 40
0.0
 40
1.0
 40
1.0
 40
1.0
 40
1.0
 10
44.24772653439759
 20
153.8366923465325
 30
0.0
 10
44.1607085045492
 20
153.8371589113196
 30
0.0
 10
44.07775447816925
 20
153.8381989308957
 30
0.0
 10
43.9978014184295
 20
153.8391453797879
 30
0.0
  0
SPLINE
  5
EF
330
1F
100
AcDbEntity
  8
0
  6
Continuous
 62
     7
370
    25
100
AcDbSpline
210
0.0
220
0.0
230
1.0
 70
     8
 71
     3
 72
     8
 73
     4
 74
     0
 42
0.000000001
 43
0.00000001
 40
0.0
 40
0.0
 40
0.0
 40
0.0
 40
1.0
 40
1.0
 40
1.0
 40
1.0
 10
43.9978014184295
 20
89.3425749761478
 30
0.0
 10
44.07775447816927
 20
89.34352142504007
 30
0.0
 10
44.16070850454923
 20
89.34456144461619
 30
0.0
 10
44.2477265343976
 20
89.34502800940325
 30
0.0
  0
SPLINE
  5
F0
330
1F
100
AcDbEntity
  8
0
  6
Continuous
 62
     7
370
    25
100
AcDbSpline
210
0.0
220
0.0
230
1.0
 70
     8
 71
     3
 72
    10
 73
     6
 74
     0
 42
0.000000001
 43
0.00000001
 40
0.0
 40
0.0
 40
0.0
 40
0.0
 40
0.4999999999999989
 40
0.4999999999999989
 40
1.0
 40
1.0
 40
1.0
 40
1.0
 10
43.3243536601333
 20
90.26799407749148
 30
0.0
 10
43.41160407926678
 20
90.0959234566381
 30
0.0
 10
43.52187905466294
 20
89.92785438357467
 30
0.0
 10
43.75146302962077
 20
89.61728409088485
 30
0.0
 10
43.87291314768141
 20
89.47357125421958
 30
0.0
 10
43.99780141843182
 20
89.34257497614786
 30
0.0
  0
SPLINE
  5
F1
330
1F
100
AcDbEntity
  8
0
  6
Continuous
 62
     7
370
    25
100
AcDbSpline
210
0.0
220
0.0
230
1.0
 70
     8
 71
     3
 72
    10
 73
     6
 74
     0
 42
0.000000001
 43
0.00000001
 40
0.0
 40
0.0
 40
0.0
 40
0.0
 40
0.5
 40
0.5
 40
1.0
 40
1.0
 40
1.0
 40
1.0
 10
111.1378014184318
 20
166.4651359381403
 30
0.0
 10
110.9252651045755
 20
166.4651359381403
 30
0.0
 10
110.7153289329215
 20
166.5565485247705
 30
0.0
 10
110.4216217919102
 20
166.8612933906747
 30
0.0
 10
110.3378014184318
 20
167.0734483605833
 30
0.0
 10
110.3378014184318
 20
167.2844114188159
 30
0.0
  0
SPLINE
  5
F2
330
1F
100
AcDbEntity
  8
0
  6
Continuous
 62
     7
370
    25
100
AcDbSpline
210
0.0
220
0.0
230
1.0
 70
     8
 71
     3
 72
    14
 73
    10
 74
     0
 42
0.000000001
 43
0.00000001
 40
0.0
 40
0.0
 40
0.0
 40
0.0
 40
0.25
 40
0.25
 40
0.5
 40
0.5
 40
0.75
 40
0.75
 40
1.0
 40
1.0
 40
1.0
 40
1.0
 10
110.3378014184318
 20
156.3050953704649
 30
0.0
 10
110.3378014184318
 20
156.1812284936757
 30
0.0
 10
110.3536605460594
 20
156.0569688168382
 30
0.0
 10
110.4170221915793
 20
155.8193604544323
 30
0.0
 10
110.4656118996286
 20
155.7025800696798
 30
0.0
 10
110.5978975044035
 20
155.4937775410708
 30
0.0
 10
110.6832222956641
 20
155.3992668374783
 30
0.0
 10
110.8901135439703
 20
155.261310036676
 30
0.0
 10
111.0140814898603
 20
155.2193915910403
 30
0.0
 10
111.1378014184318
 20
155.2193915910403
 30
0.0
  0
SPLINE
  5
F3
330
1F
100
AcDbEntity
  8
0
  6
Continuous
 62
     7
370
    25
100
AcDbSpline
210
0.0
220
0.0
230
1.0
 70
     8
 71
     3
 72
     8
 73
     4
 74
     0
 42
0.000000001
 43
0.00000001
 40
0.0
 40
0.0
 40
0.0
 40
0.0
 40
1.0
 40
1.0
 40
1.0
 40
1.0
 10
115.5098304393532
 20
170.5806550336314
 30
0.0
 10
115.0588034706399
 20
169.7833444634436
 30
0.0
 10
114.6081096541164
 20
168.9858461637864
 30
0.0
 10
114.1578014184318
 20
168.1881310386727
 30
0.0
  0
LINE
  5
F4
330
1F
100
AcDbEntity
  8
0
  6
Continuous
 62
     7
370
    25
100
AcDbLine
 10
115.5098309321
 20
160.5418212611
 30
0.0
 11
115.5098309321
 21
170.5806553263
 31
0.0
  0
SPLINE
  5
F5
330
1F
100
AcDbEntity
  8
0
  6
Continuous
 62
     7
370
    25
100
AcDbSpline
210
0.0
220
0.0
230
1.0
 70
     8
 71
     3
 72
     8
 73
     4
 74
     0
 42
0.000000001
 43
0.00000001
 40
0.0
 40
0.0
 40
0.0
 40
0.0
 40
1.0
 40
1.0
 40
1.0
 40
1.0
 10
114.1578014184318
 20
157.4863076841057
 30
0.0
 10
114.6019514294573
 20
158.5076909150574
 30
0.0
 10
115.0530257397152
 20
159.5261754518257
 30
0.0
 10
115.5098304393532
 20
160.5418229388548
 30
0.0
  0
LINE
  5
F6
330
1F
100
AcDbEntity
  8
0
  6
Continuous
 62
     7
370
    25
100
AcDbLine
 10
114.1578020109
 20
157.486308356
 30
0.0
 11
114.1578020109
 21
168.1881323356
 31
0.0
  0
SPLINE
  5
F7
330
1F
100
AcDbEntity
  8
0
  6
Continuous
 62
     7
370
    25
100
AcDbSpline
210
0.0
220
0.0
230
1.0
 70
     8
 71
     3
 72
    12
 73
     8
 74
     0
 42
0.000000001
 43
0.00000001
 40
0.0
 40
0.0
 40
0.0
 40
0.0
 40
0.5
 40
0.5
 40
0.75
 40
0.75
 40
1.0
 40
1.0
 40
1.0
 40
1.0
 10
121.1978014184318
 20
169.5595999988137
 30
0.0
 10
121.1978014184318
 20
169.8248694315801
 30
0.0
 10
121.0931946749453
 20
170.0873845372325
 30
0.0
 10
120.8165263232001
 20
170.3729221432698
 30
0.0
 10
120.706161063848
 20
170.4492437601312
 30
0.0
 10
120.4620890152323
 20
170.5535859249713
 30
0.0
 10
120.3303365539006
 20
170.5806550336314
 30
0.0
 10
120.1978014184318
 20
170.5806550336314
 30
0.0
  0
SPLINE
  5
F8
330
1F
100
AcDbEntity
  8
0
  6
Continuous
 62
     7
370
    25
100
AcDbSpline
210
0.0
220
0.0
230
1.0
 70
     8
 71
     3
 72
    16
 73
    12
 74
     0
 42
0.000000001
 43
0.00000001
 40
0.0
 40
0.0
 40
0.0
 40
0.0
 40
0.125
 40
0.125
 40
0.25
 40
0.25
 40
0.5
 40
0.5
 40
0.75
 40
0.75
 40
1.0
 40
1.0
 40
1.0
 40
1.0
 10
120.1978014184308
 20
160.5418229388548
 30
0.0
 10
120.2734391248421
 20
160.5418229388549
 30
0.0
 10
120.3497547892603
 20
160.5304779387201
 30
0.0
 10
120.4941655271524
 20
160.4878253880817
 30
0.0
 10
120.5626119762609
 20
160.4568910633989
 30
0.0
 10
120.7575432288743
 20
160.3376346916313
 30
0.0
 10
120.8653844026553
 20
160.2274826780108
 30
0.0
 10
121.0340971508675
 20
159.9793465923526
 30
0.0
 10
121.0964615635911
 20
159.8390042683489
 30
0.0
 10
121.1777654880996
 20
159.5507325768601
 30
0.0
 10
121.1978014184318
 20
159.3999276038802
 30
0.0
 10
121.1978014184318
 20
159.2495577125349
 30
0.0
  0
LINE
  5
F9
330
1F
100
AcDbEntity
  8
0
  6
Continuous
 62
     7
370
    25
100
AcDbLine
 10
121.1978016002
 20
159.2495590348
 30
0.0
 11
121.1978016002
 21
169.5596016843
 31
0.0
  0
SPLINE
  5
FA
330
1F
100
AcDbEntity
  8
0
  6
Continuous
 62
     7
370
    25
100
AcDbSpline
210
0.0
220
0.0
230
1.0
 70
     8
 71
     3
 72
     8
 73
     4
 74
     0
 42
0.000000001
 43
0.00000001
 40
0.0
 40
0.0
 40
0.0
 40
0.0
 40
1.0
 40
1.0
 40
1.0
 40
1.0
 10
108.9857723975104
 20
160.5418229388548
 30
0.0
 10
109.44269875131
 20
159.5259049691805
 30
0.0
 10
109.893904393113
 20
158.5071091400894
 30
0.0
 10
110.3378014184318
 20
157.4863076841057
 30
0.0
  0
LINE
  5
FB
330
1F
100
AcDbEntity
  8
0
  6
Continuous
 62
     7
370
    25
100
AcDbLine
 10
110.3378017945
 20
157.486308356
 30
0.0
 11
110.3378017945
 21
156.3050970335
 31
0.0
  0
LINE
  5
FC
330
1F
100
AcDbEntity
  8
0
  6
Continuous
 62
     7
370
    25
100
AcDbLine
 10
111.1378022982
 20
155.2193909783
 30
0.0
 11
113.3578015072
 21
155.2193909783
 31
0.0
  0
SPLINE
  5
FD
330
1F
100
AcDbEntity
  8
0
  6
Continuous
 62
     7
370
    25
100
AcDbSpline
210
0.0
220
0.0
230
1.0
 70
     8
 71
     3
 72
    12
 73
     8
 74
     0
 42
0.000000001
 43
0.00000001
 40
0.0
 40
0.0
 40
0.0
 40
0.0
 40
0.250000000000002
 40
0.250000000000002
 40
0.500000000000004
 40
0.500000000000004
 40
1.0
 40
1.0
 40
1.0
 40
1.0
 10
113.3578014184339
 20
155.2193915910404
 30
0.0
 10
113.4815023684137
 20
155.2193915910408
 30
0.0
 10
113.6055989806836
 20
155.2613852027736
 30
0.0
 10
113.81225414377
 20
155.3991805294183
 30
0.0
 10
113.8972949104966
 20
155.4931541278831
 30
0.0
 10
114.0967734789697
 20
155.8079423341038
 30
0.0
 10
114.1578014184318
 20
156.058181326331
 30
0.0
 10
114.1578014184318
 20
156.3050953704649
 30
0.0
  0
LINE
  5
FE
330
1F
100
AcDbEntity
  8
0
  6
Continuous
 62
     7
370
    25
100
AcDbLine
 10
114.1578020109
 20
156.3050970335
 30
0.0
 11
114.1578020109
 21
157.486308356
 31
0.0
  0
LINE
  5
FF
330
1F
100
AcDbEntity
  8
0
  6
Continuous
 62
     7
370
    25
100
AcDbLine
 10
115.5098309321
 20
160.5418212611
 30
0.0
 11
120.1978014363
 21
160.5418212611
 31
0.0
  0
LINE
  5
100
330
1F
100
AcDbEntity
  8
0
  6
Continuous
 62
     7
370
    25
100
AcDbLine
 10
121.1978016002
 20
159.2495590348
 30
0.0
 11
121.1978016002
 21
152.9408618707
 31
0.0
  0
SPLINE
  5
101
330
1F
100
AcDbEntity
  8
0
  6
Continuous
 62
     7
370
    25
100
AcDbSpline
210
0.0
220
0.0
230
1.0
 70
     8
 71
     3
 72
    14
 73
    10
 74
     0
 42
0.000000001
 43
0.00000001
 40
0.0
 40
0.0
 40
0.0
 40
0.0
 40
0.25
 40
0.25
 40
0.5
 40
0.5
 40
0.75
 40
0.75
 40
1.0
 40
1.0
 40
1.0
 40
1.0
 10
114.1578014184318
 20
167.2844114188159
 30
0.0
 10
114.1578014184318
 20
167.1780547250635
 30
0.0
 10
114.1374138622906
 20
167.0722142373034
 30
0.0
 10
114.058779516829
 20
166.8756493237669
 30
0.0
 10
114.0000481571903
 20
166.7844785814797
 30
0.0
 10
113.8534392515877
 20
166.6325674924481
 30
0.0
 10
113.7640339315611
 20
166.5704986556285
 30
0.0
 10
113.5701431989608
 20
166.4872306078699
 30
0.0
 10
113.4636382090709
 20
166.4651359381402
 30
0.0
 10
113.3578014184315
 20
166.4651359381403
 30
0.0
  0
SPLINE
  5
102
330
1F
100
AcDbEntity
  8
0
  6
Continuous
 62
     7
370
    25
100
AcDbSpline
210
0.0
220
0.0
230
1.0
 70
     8
 71
     3
 72
     8
 73
     4
 74
     0
 42
0.000000001
 43
0.00000001
 40
0.0
 40
0.0
 40
0.0
 40
0.0
 40
1.0
 40
1.0
 40
1.0
 40
1.0
 10
110.3378014184318
 20
168.1881310386727
 30
0.0
 10
109.8874931827473
 20
168.9858461637864
 30
0.0
 10
109.4367993662237
 20
169.7833444634436
 30
0.0
 10
108.9857723975104
 20
170.5806550336314
 30
0.0
  0
LINE
  5
103
330
1F
100
AcDbEntity
  8
0
  6
Continuous
 62
     7
370
    25
100
AcDbLine
 10
110.3378017945
 20
157.486308356
 30
0.0
 11
110.3378017945
 21
168.1881323356
 31
0.0
  0
LINE
  5
104
330
1F
100
AcDbEntity
  8
0
  6
Continuous
 62
     7
370
    25
100
AcDbLine
 10
120.1978014363
 20
170.5806553263
 30
0.0
 11
115.5098309321
 21
170.5806553263
 31
0.0
  0
LINE
  5
105
330
1F
100
AcDbEntity
  8
0
  6
Continuous
 62
     7
370
    25
100
AcDbLine
 10
113.3578015072
 20
166.4651371438
 30
0.0
 11
111.1378022982
 21
166.4651371438
 31
0.0
  0
SPLINE
  5
106
330
1F
100
AcDbEntity
  8
0
  6
Continuous
 62
     7
370
    25
100
AcDbSpline
210
0.0
220
0.0
230
1.0
 70
    11
 71
     3
 72
    84
 73
    80
 74
     0
 42
0.000000001
 43
0.00000001
 40
0.0
 40
0.0
 40
0.0
 40
0.0
 40
0.0312500000000013
 40
0.0312500000000013
 40
0.0468750000000013
 40
0.0468750000000013
 40
0.0625000000000014
 40
0.0625000000000014
 40
0.0937500000000026
 40
0.0937500000000026
 40
0.1250000000000038
 40
0.1250000000000038
 40
0.156250000000005
 40
0.156250000000005
 40
0.1718750000000052
 40
0.1718750000000052
 40
0.1875000000000055
 40
0.1875000000000055
 40
0.218750000000006
 40
0.218750000000006
 40
0.2500000000000064
 40
0.2500000000000064
 40
0.2656250000000067
 40
0.2656250000000067
 40
0.2812500000000069
 40
0.2812500000000069
 40
0.3125000000000075
 40
0.3125000000000075
 40
0.3281250000000079
 40
0.3281250000000079
 40
0.3437500000000083
 40
0.3437500000000083
 40
0.3750000000000082
 40
0.3750000000000082
 40
0.4062500000000082
 40
0.4062500000000082
 40
0.4375000000000082
 40
0.4375000000000082
 40
0.4687500000000081
 40
0.4687500000000081
 40
0.500000000000008
 40
0.500000000000008
 40
0.5312500000000081
 40
0.5312500000000081
 40
0.562500000000008
 40
0.562500000000008
 40
0.593750000000008
 40
0.593750000000008
 40
0.6250000000000079
 40
0.6250000000000079
 40
0.6406250000000079
 40
0.6406250000000079
 40
0.6562500000000079
 40
0.6562500000000079
 40
0.6875000000000071
 40
0.6875000000000071
 40
0.7187500000000064
 40
0.7187500000000064
 40
0.7500000000000057
 40
0.7500000000000057
 40
0.781250000000005
 40
0.781250000000005
 40
0.7968750000000047
 40
0.7968750000000047
 40
0.8125000000000043
 40
0.8125000000000043
 40
0.8437500000000036
 40
0.8437500000000036
 40
0.8593750000000032
 40
0.8593750000000032
 40
0.8750000000000029
 40
0.8750000000000029
 40
0.9062500000000021
 40
0.9062500000000021
 40
0.9375000000000014
 40
0.9375000000000014
 40
0.9687500000000007
 40
0.9687500000000007
 40
1.0
 40
1.0
 40
1.0
 40
1.0
 10
179.9478014184318
 20
127.0711904593724
 30
0.0
 10
179.5781536789827
 20
127.0711904593724
 30
0.0
 10
179.2143896767776
 20
127.0370817276485
 30
0.0
 10
178.6772293864582
 20
126.9366273883145
 30
0.0
 10
178.4996003276284
 20
126.8948669619812
 30
0.0
 10
178.1472547710615
 20
126.7943831240379
 30
0.0
 10
177.9717044952897
 20
126.735278829658
 30
0.0
 10
177.459454640919
 20
126.5352889082471
 30
0.0
 10
177.1349020192155
 20
126.3717020822326
 30
0.0
 10
176.5194466339987
 20
125.9839354550301
 30
0.0
 10
176.2259869673331
 20
125.7567762610297
 30
0.0
 10
175.6970696186844
 20
125.2563893362592
 30
0.0
 10
175.4592824220527
 20
124.9825856851703
 30
0.0
 10
175.1435214759339
 20
124.5353004332812
 30
0.0
 10
175.0446220270567
 20
124.3790763019299
 30
0.0
 10
174.8645683735299
 20
124.0595955257242
 30
0.0
 10
174.7832549439594
 20
123.8963613495452
 30
0.0
 10
174.5649425829216
 20
123.3963436845751
 30
0.0
 10
174.4532992772141
 20
123.0493528565297
 30
0.0
 10
174.3014004442856
 20
122.3264761203675
 30
0.0
 10
174.2637407482785
 20
121.9620622189937
 30
0.0
 10
174.2630797069779
 20
121.4149212568409
 30
0.0
 10
174.2721924108886
 20
121.2322407440156
 30
0.0
 10
174.3095582344766
 20
120.8662643659624
 30
0.0
 10
174.3379766036465
 20
120.6828789506667
 30
0.0
 10
174.4500074343627
 20
120.1447707851409
 30
0.0
 10
174.5604210797954
 20
119.7975543687518
 30
0.0
 10
174.7791974256601
 20
119.2937801897333
 30
0.0
 10
174.8615745001608
 20
119.1279023340518
 30
0.0
 10
175.0411234595016
 20
118.8084030134239
 30
0.0
 10
175.1384144180589
 20
118.6542501393682
 30
0.0
 10
175.4521940114824
 20
118.2080317119556
 30
0.0
 10
175.6917044917682
 20
117.9308175862004
 30
0.0
 10
176.2248432983468
 20
117.4256202155038
 30
0.0
 10
176.5124145435279
 20
117.2028572350244
 30
0.0
 10
177.1277656925046
 20
116.8138873284584
 30
0.0
 10
177.4591901523926
 20
116.6466414962614
 30
0.0
 10
178.1397767507646
 20
116.3807173035518
 30
0.0
 10
178.4899574694221
 20
116.2805217841103
 30
0.0
 10
179.2100221979223
 20
116.145055346075
 30
0.0
 10
179.5801317532347
 20
116.1107039184195
 30
0.0
 10
180.309816682878
 20
116.1103572237838
 30
0.0
 10
180.673238752593
 20
116.1434146638037
 30
0.0
 10
181.3971508841761
 20
116.2782618336675
 30
0.0
 10
181.750908460914
 20
116.3792594446546
 30
0.0
 10
182.4285874102547
 20
116.6431289867218
 30
0.0
 10
182.7564082421384
 20
116.8074171746751
 30
0.0
 10
183.3781631128361
 20
117.198946299775
 30
0.0
 10
183.6653601161275
 20
117.4215125478225
 30
0.0
 10
184.0612960127992
 20
117.7952071981129
 30
0.0
 10
184.1874239675152
 20
117.9264594040501
 30
0.0
 10
184.4275735334543
 20
118.2028707484389
 30
0.0
 10
184.5416534882526
 20
118.3483298903666
 30
0.0
 10
184.8575444590444
 20
118.795836463867
 30
0.0
 10
185.036189295523
 20
119.1119992464976
 30
0.0
 10
185.3290266977617
 20
119.7805813051358
 30
0.0
 10
185.4428172326914
 20
120.1353338681046
 30
0.0
 10
185.5930433269475
 20
120.8492087238393
 30
0.0
 10
185.6316259345643
 20
121.212090698223
 30
0.0
 10
185.6329697422526
 20
121.9502169116358
 30
0.0
 10
185.5953162687951
 20
122.3160729503293
 30
0.0
 10
185.4843347474952
 20
122.8517254979752
 30
0.0
 10
185.438188160032
 20
123.0285484501461
 30
0.0
 10
185.3272395824633
 20
123.3786805828752
 30
0.0
 10
185.2621873206916
 20
123.5522628008473
 30
0.0
 10
185.043432903976
 20
124.0559467773727
 30
0.0
 10
184.865284179294
 20
124.373192963109
 30
0.0
 10
184.5503381059654
 20
124.8219001326729
 30
0.0
 10
184.436656228182
 20
124.9676380562322
 30
0.0
 10
184.1971140022138
 20
125.2448081210019
 30
0.0
 10
184.0711960048497
 20
125.3765256957322
 30
0.0
 10
183.6755587895088
 20
125.7517987726153
 30
0.0
 10
183.3875590719072
 20
125.9760172536043
 30
0.0
 10
182.7652946257696
 20
126.3695229888596
 30
0.0
 10
182.4398116538231
 20
126.5334212977267
 30
0.0
 10
181.7614880378252
 20
126.7991158881126
 30
0.0
 10
181.4052566727217
 20
126.9013684656292
 30
0.0
 10
180.6829553044381
 20
127.0370617434886
 30
0.0
 10
180.3174491578808
 20
127.0711904593724
 30
0.0
 10
179.9478014184318
 20
127.0711904593724
 30
0.0
  0
SPLINE
  5
107
330
1F
100
AcDbEntity
  8
0
  6
Continuous
 62
     7
370
    25
100
AcDbSpline
210
0.0
220
0.0
230
1.0
 70
    11
 71
     3
 72
    68
 73
    64
 74
     0
 42
0.000000001
 43
0.00000001
 40
0.0
 40
0.0
 40
0.0
 40
0.0
 40
0.0312500000000008
 40
0.0312500000000008
 40
0.0625000000000015
 40
0.0625000000000015
 40
0.0937500000000023
 40
0.0937500000000023
 40
0.1250000000000031
 40
0.1250000000000031
 40
0.1562500000000039
 40
0.1562500000000039
 40
0.1875000000000046
 40
0.1875000000000046
 40
0.2187500000000054
 40
0.2187500000000054
 40
0.2500000000000062
 40
0.2500000000000062
 40
0.2812500000000069
 40
0.2812500000000069
 40
0.3125000000000077
 40
0.3125000000000077
 40
0.3437500000000085
 40
0.3437500000000085
 40
0.3750000000000092
 40
0.3750000000000092
 40
0.40625000000001
 40
0.40625000000001
 40
0.4375000000000108
 40
0.4375000000000108
 40
0.4687500000000115
 40
0.4687500000000115
 40
0.5000000000000123
 40
0.5000000000000123
 40
0.5312500000000131
 40
0.5312500000000131
 40
0.5625000000000139
 40
0.5625000000000139
 40
0.6250000000000135
 40
0.6250000000000135
 40
0.6562500000000124
 40
0.6562500000000124
 40
0.6875000000000113
 40
0.6875000000000113
 40
0.7187500000000102
 40
0.7187500000000102
 40
0.750000000000009
 40
0.750000000000009
 40
0.7812500000000079
 40
0.7812500000000079
 40
0.8125000000000068
 40
0.8125000000000068
 40
0.8437500000000057
 40
0.8437500000000057
 40
0.8750000000000046
 40
0.8750000000000046
 40
0.9062500000000034
 40
0.9062500000000034
 40
0.9375000000000023
 40
0.9375000000000023
 40
0.9687500000000012
 40
0.9687500000000012
 40
1.0
 40
1.0
 40
1.0
 40
1.0
 10
158.5143766795287
 20
143.4929488683682
 30
0.0
 10
158.6636868620084
 20
143.5999655297298
 30
0.0
 10
158.8266139980973
 20
143.694461438626
 30
0.0
 10
159.1772802920673
 20
143.8615970547151
 30
0.0
 10
159.3668937441869
 20
143.9347369040373
 30
0.0
 10
159.7621642050855
 20
144.0567459705715
 30
0.0
 10
159.9663738425118
 20
144.1054824152818
 30
0.0
 10
160.3874281517099
 20
144.1800321479734
 30
0.0
 10
160.6060921258604
 20
144.2058070357502
 30
0.0
 10
161.0414702469032
 20
144.2328682673422
 30
0.0
 10
161.2594537105647
 20
144.234568941506
 30
0.0
 10
161.6960098929331
 20
144.2143172938858
 30
0.0
 10
161.9156166920165
 20
144.1919735088875
 30
0.0
 10
162.3387703324325
 20
144.1243582502641
 30
0.0
 10
162.5443678759289
 20
144.079122781928
 30
0.0
 10
162.9432037900351
 20
143.9643977982501
 30
0.0
 10
163.1367042332963
 20
143.8944067547766
 30
0.0
 10
163.4941536049109
 20
143.7340127162343
 30
0.0
 10
163.6603587696485
 20
143.6431049477494
 30
0.0
 10
163.9659694585894
 20
143.4373470718286
 30
0.0
 10
164.1042908572382
 20
143.3225751482911
 30
0.0
 10
164.3385993721701
 20
143.0777992562751
 30
0.0
 10
164.4365792537195
 20
142.9466139190913
 30
0.0
 10
164.5903600660429
 20
142.6640653196217
 30
0.0
 10
164.643497342036
 20
142.5170649149987
 30
0.0
 10
164.7011533562544
 20
142.2154404283939
 30
0.0
 10
164.7055564000204
 20
142.0579810139511
 30
0.0
 10
164.6639993059575
 20
141.7461120154434
 30
0.0
 10
164.6189245053488
 20
141.5917697263733
 30
0.0
 10
164.4808971309267
 20
141.286594107026
 30
0.0
 10
164.3885885917662
 20
141.1382245577708
 30
0.0
 10
164.1657286624393
 20
140.858410164326
 30
0.0
 10
164.0328343425718
 20
140.7243214728726
 30
0.0
 10
163.7370441035893
 20
140.4792496566003
 30
0.0
 10
163.5744708449753
 20
140.3678627623463
 30
0.0
 10
163.221266040897
 20
140.1672386632611
 30
0.0
 10
163.0314444223787
 20
140.0788743767486
 30
0.0
 10
162.4421104824577
 20
139.8568549862875
 30
0.0
 10
162.0103502499345
 20
139.7622824487028
 30
0.0
 10
161.35881121795
 20
139.7111879506357
 30
0.0
 10
161.1378785478541
 20
139.7088014777795
 30
0.0
 10
160.6987209010171
 20
139.7341942991532
 30
0.0
 10
160.4832487372117
 20
139.7615808115617
 30
0.0
 10
160.0603773368857
 20
139.8449780015432
 30
0.0
 10
159.8510830483257
 20
139.9016889204252
 30
0.0
 10
159.4508283141434
 20
140.0422859330794
 30
0.0
 10
159.2612698235609
 20
140.1253173829347
 30
0.0
 10
158.903568800463
 20
140.3164614683356
 30
0.0
 10
158.7336329820956
 20
140.4260663649721
 30
0.0
 10
158.4282134218636
 20
140.6645005173061
 30
0.0
 10
158.2927011905537
 20
140.7926885909046
 30
0.0
 10
158.0575095921095
 20
141.0668923761305
 30
0.0
 10
157.9572532608264
 20
141.2147823748124
 30
0.0
 10
157.8054113404633
 20
141.514801108166
 30
0.0
 10
157.7522931766885
 20
141.6680237983277
 30
0.0
 10
157.6941365527046
 20
141.9808035764048
 30
0.0
 10
157.6901463758704
 20
142.1381040812693
 30
0.0
 10
157.7316210852034
 20
142.442823924135
 30
0.0
 10
157.7777192610725
 20
142.5937965161602
 30
0.0
 10
157.9159491416881
 20
142.8794911234605
 30
0.0
 10
158.0071493173822
 20
143.0140134742731
 30
0.0
 10
158.2319560341699
 20
143.2678035473391
 30
0.0
 10
158.365066497049
 20
143.3859322070066
 30
0.0
 10
158.5143766795287
 20
143.4929488683682
 30
0.0
  0
SPLINE
  5
108
330
1F
100
AcDbEntity
  8
0
  6
Continuous
 62
     7
370
    25
100
AcDbSpline
210
0.0
220
0.0
230
1.0
 70
    11
 71
     3
 72
    70
 73
    66
 74
     0
 42
0.000000001
 43
0.00000001
 40
0.0
 40
0.0
 40
0.0
 40
0.0
 40
0.03125
 40
0.03125
 40
0.0625
 40
0.0625
 40
0.09375
 40
0.09375
 40
0.125
 40
0.125
 40
0.15625
 40
0.15625
 40
0.1875
 40
0.1875
 40
0.21875
 40
0.21875
 40
0.25
 40
0.25
 40
0.28125
 40
0.28125
 40
0.3125
 40
0.3125
 40
0.34375
 40
0.34375
 40
0.375
 40
0.375
 40
0.40625
 40
0.40625
 40
0.4375
 40
0.4375
 40
0.46875
 40
0.46875
 40
0.5
 40
0.5
 40
0.53125
 40
0.53125
 40
0.5625
 40
0.5625
 40
0.59375
 40
0.59375
 40
0.625
 40
0.625
 40
0.65625
 40
0.65625
 40
0.6875
 40
0.6875
 40
0.71875
 40
0.71875
 40
0.75
 40
0.75
 40
0.78125
 40
0.78125
 40
0.8125
 40
0.8125
 40
0.84375
 40
0.84375
 40
0.875
 40
0.875
 40
0.90625
 40
0.90625
 40
0.9375
 40
0.9375
 40
0.96875
 40
0.96875
 40
1.0
 40
1.0
 40
1.0
 40
1.0
 10
157.708919259014
 20
101.2648068451766
 30
0.0
 10
157.7283003525679
 20
101.4221790391776
 30
0.0
 10
157.7723049443134
 20
101.5767954359367
 30
0.0
 10
157.9066473357885
 20
101.8804898829189
 30
0.0
 10
157.9982027905606
 20
102.0304062761488
 30
0.0
 10
158.2186719300094
 20
102.3110962708361
 30
0.0
 10
158.3484535058131
 20
102.4439122679784
 30
0.0
 10
158.6439593103185
 20
102.6918496378281
 30
0.0
 10
158.8058033052036
 20
102.8038533868775
 30
0.0
 10
159.1554971420673
 20
103.0049573372271
 30
0.0
 10
159.345215573122
 20
103.0945730507751
 30
0.0
 10
159.7377658160908
 20
103.2446260692052
 30
0.0
 10
159.9413549368312
 20
103.3058187301753
 30
0.0
 10
160.3628575382473
 20
103.4005630190021
 30
0.0
 10
160.5807896778192
 20
103.433731237862
 30
0.0
 10
161.0148778133325
 20
103.4697553997914
 30
0.0
 10
161.2330480786839
 20
103.473144136462
 30
0.0
 10
161.6716863200998
 20
103.4500551753189
 30
0.0
 10
161.8902098387483
 20
103.4233958729435
 30
0.0
 10
162.3133124220606
 20
103.3420648241672
 30
0.0
 10
162.5197624483198
 20
103.2873339297307
 30
0.0
 10
162.921899095298
 20
103.1487077029025
 30
0.0
 10
163.114435290026
 20
103.0656381087951
 30
0.0
 10
163.4731603132032
 20
102.876598342697
 30
0.0
 10
163.6408715832564
 20
102.7701445310752
 30
0.0
 10
163.950759700655
 20
102.531954477974
 30
0.0
 10
164.088551486503
 20
102.4033781232387
 30
0.0
 10
164.3257325590029
 20
102.1313674067668
 30
0.0
 10
164.4265024690022
 20
101.9860970578731
 30
0.0
 10
164.5832562850192
 20
101.6843856104049
 30
0.0
 10
164.6379159028202
 20
101.5313210548078
 30
0.0
 10
164.6995677916757
 20
101.2212003391492
 30
0.0
 10
164.705884907893
 20
101.0625244244007
 30
0.0
 10
164.6683348083137
 20
100.7569157775823
 30
0.0
 10
164.6252807628882
 20
100.6083103150586
 30
0.0
 10
164.490041680682
 20
100.3192214305675
 30
0.0
 10
164.4003389153804
 20
100.1840105479919
 30
0.0
 10
164.1803476690752
 20
99.93023433283884
 30
0.0
 10
164.0485768051468
 20
99.81098307294937
 30
0.0
 10
163.7560069218465
 20
99.5970597433447
 30
0.0
 10
163.5944589457096
 20
99.50111670876204
 30
0.0
 10
163.2416064248563
 20
99.32972404338537
 30
0.0
 10
163.0542443084204
 20
99.25629069992415
 30
0.0
 10
162.6627002217923
 20
99.13276737250312
 30
0.0
 10
162.4561000579515
 20
99.08212203177112
 30
0.0
 10
162.0336342329015
 20
99.00520073851699
 30
0.0
 10
161.8192992920224
 20
98.9789454613291
 30
0.0
 10
161.3846164102256
 20
98.94971923225687
 30
0.0
 10
161.1621579317072
 20
98.94693358933424
 30
0.0
 10
160.7248163827665
 20
98.96535369185766
 30
0.0
 10
160.5093412637301
 20
98.98626165354277
 30
0.0
 10
160.0847997526383
 20
99.05184046629628
 30
0.0
 10
159.8739353415276
 20
99.09716870394818
 30
0.0
 10
159.4742724965392
 20
99.21004628394654
 30
0.0
 10
159.2840433191853
 20
99.2775761031642
 30
0.0
 10
158.9234726240499
 20
99.43647029495256
 30
0.0
 10
158.7520353403418
 20
99.5288915926178
 30
0.0
 10
158.4455708512102
 20
99.73222280333218
 30
0.0
 10
158.3086055096099
 20
99.84369770492738
 30
0.0
 10
158.0694461004634
 20
100.088612628947
 30
0.0
 10
157.9679403447317
 20
100.2223920461555
 30
0.0
 10
157.8129843919472
 20
100.5001403295241
 30
0.0
 10
157.7577268517148
 20
100.6456770212037
 30
0.0
 10
157.6954486903705
 20
100.9517063120822
 30
0.0
 10
157.68953816546
 20
101.1074346511756
 30
0.0
 10
157.708919259014
 20
101.2648068451766
 30
0.0
  0
LINE
  5
109
330
1F
100
AcDbEntity
  8
0
  6
Continuous
 62
     7
370
    25
100
AcDbLine
 10
192.2478029085
 20
93.3908596534
 30
0.0
 11
192.2478029085
 21
149.7908607025
 31
0.0
  0
ARC
  5
10A
330
1F
100
AcDbEntity
  8
0
  6
Continuous
 62
     7
370
    25
100
AcDbCircle
 10
101.2478430939
 20
154.277434349
 30
0.0
 40
11.33198962224723
100
AcDbArc
 50
77.7820552646
 51
102.2364432639
  0
LWPOLYLINE
  5
10B
330
1F
100
AcDbEntity
  8
0
  6
Continuous
 62
     7
370
    25
100
AcDbPolyline
 90
       21
 70
   128
 43
0.0
 10
161.1977988435
 20
139.9209424753
 10
161.970342095
 20
140.0074623425
 10
162.6672619535
 20
140.2585543592
 10
163.2203409029
 20
140.6496409226
 10
163.5754430248
 20
141.1424390871
 10
163.6978039099
 20
141.6887082059
 10
163.5754430248
 20
142.2349791873
 10
163.2203409029
 20
142.7277754892
 10
162.6672619535
 20
143.1188620527
 10
161.970342095
 20
143.3699540694
 10
161.1977988435
 20
143.4564757992
 10
160.425255592
 20
143.3699540694
 10
159.7283357335
 20
143.1188620527
 10
159.1752567841
 20
142.7277754892
 10
158.8201621128
 20
142.2349791873
 10
158.6978012277
 20
141.6887082059
 10
158.8201621128
 20
141.1424390871
 10
159.1752567841
 20
140.6496409226
 10
159.7283357335
 20
140.2585543592
 10
160.425255592
 20
140.0074623425
 10
161.1977988435
 20
139.9209424753
  0
LWPOLYLINE
  5
10C
330
1F
100
AcDbEntity
  8
0
  6
Continuous
 62
     7
370
    25
100
AcDbPolyline
 90
       21
 70
   128
 43
0.0
 10
161.1977988435
 20
99.7252445568
 10
161.970342095
 20
99.8117662866
 10
162.6672619535
 20
100.0628583033
 10
163.2203409029
 20
100.4539448668
 10
163.5754430248
 20
100.9467411686
 10
163.6978039099
 20
101.49301215
 10
163.5754430248
 20
102.0392812688
 10
163.2203409029
 20
102.5320794333
 10
162.6672619535
 20
102.9231659968
 10
161.970342095
 20
103.1742580135
 10
161.1977988435
 20
103.2607778806
 10
160.425255592
 20
103.1742580135
 10
159.7283357335
 20
102.9231659968
 10
159.1752567841
 20
102.5320794333
 10
158.8201621128
 20
102.0392812688
 10
158.6978012277
 20
101.49301215
 10
158.8201621128
 20
100.9467411686
 10
159.1752567841
 20
100.4539448668
 10
159.7283357335
 20
100.0628583033
 10
160.425255592
 20
99.8117662866
 10
161.1977988435
 20
99.7252445568
  0
LINE
  5
10D
330
1F
100
AcDbEntity
  8
0
  6
Continuous
 62
     7
370
    25
100
AcDbLine
 10
43.9978004946
 20
89.3408618767
 30
0.0
 11
43.9978004946
 21
89.3425755102
 31
0.0
  0
LINE
  5
10E
330
1F
100
AcDbEntity
  8
0
  6
Continuous
 62
     7
370
    25
100
AcDbLine
 10
43.9978004946
 20
153.8408584792
 30
0.0
 11
43.9978004946
 21
153.8391448457
 31
0.0
  0
LINE
  5
10F
330
1F
100
AcDbEntity
  8
0
  6
Continuous
 62
     7
370
    25
100
AcDbLine
 10
194.7478005244
 20
108.0908598278
 30
0.0
 11
194.7478005244
 21
135.0908605281
 31
0.0
  0
LINE
  5
110
330
1F
100
AcDbEntity
  8
0
  6
Continuous
 62
     7
370
    25
100
AcDbLine
 10
213.2478007628
 20
108.8908603314
 30
0.0
 11
213.2478007628
 21
134.2908600245
 31
0.0
  0
LINE
  5
111
330
1F
100
AcDbEntity
  8
0
  6
HIDDEN
 62
     7
370
    18
100
AcDbLine
 10
218.247803445
 20
112.5908605654
 30
0.0
 11
218.247803445
 21
130.5908597905
 31
0.0
  0
LINE
  5
112
330
1F
100
AcDbEntity
  8
0
  6
HIDDEN
 62
     7
370
    18
100
AcDbLine
 10
230.2477979614
 20
113.1908604775
 30
0.0
 11
230.2477979614
 21
129.9908598785
 31
0.0
  0
LINE
  5
113
330
1F
100
AcDbEntity
  8
0
  6
HIDDEN
 62
     7
370
    18
100
AcDbLine
 10
218.247803445
 20
128.1908601422
 30
0.0
 11
218.247803445
 21
115.0207454238
 31
0.0
  0
LINE
  5
114
330
1F
100
AcDbEntity
  8
0
  6
HIDDEN
 62
     7
370
    18
100
AcDbLine
 10
189.211803074
 20
127.5908602301
 30
0.0
 11
189.211803074
 21
115.5908601258
 31
0.0
  0
LINE
  5
115
330
1F
100
AcDbEntity
  8
0
  6
HIDDEN
 62
     7
370
    18
100
AcDbLine
 10
188.2478022529
 20
126.6268603403
 30
0.0
 11
188.2478022529
 21
116.5548600156
 31
0.0
  0
LINE
  5
116
330
1F
100
AcDbEntity
  8
0
  6
HIDDEN
 62
     7
370
    18
100
AcDbLine
 10
230.2477979614
 20
116.5333599683
 30
0.0
 11
230.2477979614
 21
121.590860178
 31
0.0
  0
LINE
  5
117
330
1F
100
AcDbEntity
  8
0
  6
HIDDEN
 62
     7
370
    18
100
AcDbLine
 10
224.2478007032
 20
119.0621100731
 30
0.0
 11
224.2478007032
 21
121.590860178
 31
0.0
  0
LINE
  5
118
330
1F
100
AcDbEntity
  8
0
  6
HIDDEN
 62
     7
370
    18
100
AcDbLine
 10
224.2478007032
 20
121.590860178
 30
0.0
 11
224.2478007032
 21
124.1196102828
 31
0.0
  0
LINE
  5
119
330
1F
100
AcDbEntity
  8
0
  6
HIDDEN
 62
     7
370
    18
100
AcDbLine
 10
224.2478007032
 20
121.590860178
 30
0.0
 11
230.2477979614
 21
121.590860178
 31
0.0
  0
LINE
  5
11A
330
1F
100
AcDbEntity
  8
0
  6
HIDDEN
 62
     7
370
    18
100
AcDbLine
 10
230.2477979614
 20
121.590860178
 30
0.0
 11
230.2477979614
 21
126.6483603876
 31
0.0
  0
LINE
  5
11B
330
1F
100
AcDbEntity
  8
0
  6
HIDDEN
 62
     7
370
    18
100
AcDbLine
 10
224.2478007032
 20
119.0621100731
 30
0.0
 11
224.2478007032
 21
116.5333599683
 31
0.0
  0
LINE
  5
11C
330
1F
100
AcDbEntity
  8
0
  6
HIDDEN
 62
     7
370
    18
100
AcDbLine
 10
224.2478007032
 20
126.6483603876
 30
0.0
 11
224.2478007032
 21
124.1196102828
 31
0.0
  0
LINE
  5
11D
330
1F
100
AcDbEntity
  8
0
  6
HIDDEN
 62
     7
370
    18
100
AcDbLine
 10
224.2478007032
 20
124.1196102828
 30
0.0
 11
224.2478007032
 21
126.6483603876
 31
0.0
  0
LINE
  5
11E
330
1F
100
AcDbEntity
  8
0
  6
HIDDEN
 62
     7
370
    18
100
AcDbLine
 10
224.2478007032
 20
119.0621100731
 30
0.0
 11
224.2478007032
 21
124.1196102828
 31
0.0
  0
LINE
  5
11F
330
1F
100
AcDbEntity
  8
0
  6
HIDDEN
 62
     7
370
    18
100
AcDbLine
 10
224.2478007032
 20
116.5333599683
 30
0.0
 11
224.2478007032
 21
119.0621100731
 31
0.0
  0
LINE
  5
120
330
1F
100
AcDbEntity
  8
0
  6
HIDDEN
 62
     7
370
    18
100
AcDbLine
 10
224.2478007032
 20
124.1196102828
 30
0.0
 11
224.2478007032
 21
119.0621100731
 31
0.0
  0
LINE
  5
121
330
1F
100
AcDbEntity
  8
0
  6
HIDDEN
 62
     7
370
    18
100
AcDbLine
 10
224.2478007032
 20
116.5333599683
 30
0.0
 11
224.2478007032
 21
119.0621100731
 31
0.0
  0
LINE
  5
122
330
1F
100
AcDbEntity
  8
0
  6
HIDDEN
 62
     7
370
    18
100
AcDbLine
 10
224.2478007032
 20
124.1196102828
 30
0.0
 11
224.2478007032
 21
126.6483603876
 31
0.0
  0
LINE
  5
123
330
1F
100
AcDbEntity
  8
0
  6
HIDDEN
 62
     7
370
    18
100
AcDbLine
 10
224.2478007032
 20
126.6483603876
 30
0.0
 11
230.2477979614
 21
126.6483603876
 31
0.0
  0
LINE
  5
124
330
1F
100
AcDbEntity
  8
0
  6
HIDDEN
 62
     7
370
    18
100
AcDbLine
 10
224.2478007032
 20
116.5333599683
 30
0.0
 11
230.2477979614
 21
116.5333599683
 31
0.0
  0
LINE
  5
125
330
1F
100
AcDbEntity
  8
0
  6
HIDDEN
 62
     7
370
    18
100
AcDbLine
 10
213.2478007628
 20
127.5908602301
 30
0.0
 11
189.211803074
 21
127.5908602301
 31
0.0
  0
LINE
  5
126
330
1F
100
AcDbEntity
  8
0
  6
HIDDEN
 62
     7
370
    18
100
AcDbLine
 10
189.211803074
 20
115.5908601258
 30
0.0
 11
213.2478007628
 21
115.5908601258
 31
0.0
  0
LINE
  5
127
330
1F
100
AcDbEntity
  8
0
  6
HIDDEN
 62
     7
370
    18
100
AcDbLine
 10
189.211803074
 20
127.5908602301
 30
0.0
 11
188.2478022529
 21
126.6268603403
 31
0.0
  0
LINE
  5
128
330
1F
100
AcDbEntity
  8
0
  6
HIDDEN
 62
     7
370
    18
100
AcDbLine
 10
188.2478022529
 20
116.5548600156
 30
0.0
 11
189.211803074
 21
115.5908601258
 31
0.0
  0
LINE
  5
129
330
1F
100
AcDbEntity
  8
0
  6
HIDDEN
 62
     7
370
    18
100
AcDbLine
 10
224.2478007032
 20
126.6483603876
 30
0.0
 11
221.3278585626
 21
121.590860178
 31
0.0
  0
LINE
  5
12A
330
1F
100
AcDbEntity
  8
0
  6
HIDDEN
 62
     7
370
    18
100
AcDbLine
 10
221.3278585626
 20
121.590860178
 30
0.0
 11
224.2478007032
 21
116.5333599683
 31
0.0
  0
DIMENSION
  5
12B
330
1F
100
AcDbEntity
  8
VERMASSUNG
100
AcDbDimension
  2
_D
 10
32.0973320575
 20
71.590860178
 30
0.0
 11
32.0973320575
 21
121.590860178
 31
0.0
 70
   160
  1
HSK A %%c<>
 71
     2
 42
-1.0
  3
SLDDIMSTYLE0
100
AcDbAlignedDimension
 13
92.7478014184
 23
171.590860178
 33
0.0
 14
92.7478014184
 24
71.590860178
 34
0.0
 50
90.0
100
AcDbRotatedDimension
  0
DIMENSION
  5
138
330
1F
100
AcDbEntity
  8
VERMASSUNG
100
AcDbDimension
  2
_D_1
 10
270.2478014184
 20
88.467049961
 30
0.0
 11
270.2478014184
 21
121.590860178
 31
0.0
 70
   160
  1
%%c<>
 71
     2
 42
-1.0
  3
SLDDIMSTYLE1
100
AcDbAlignedDimension
 13
124.7767487869
 23
154.7146703949
 33
0.0
 14
124.7767487869
 24
88.467049961
 34
0.0
 50
90.0
100
AcDbRotatedDimension
  0
DIMENSION
  5
144
330
1F
100
AcDbEntity
  8
VERMASSUNG
100
AcDbDimension
  2
_D_2
 10
261.0340422015
 20
150.590860178
 30
0.0
 11
261.0340422015
 21
121.590860178
 31
0.0
 70
   160
  1
%%c<>
 71
     2
 42
-1.0
  3
SLDDIMSTYLE0
100
AcDbAlignedDimension
 13
191.4478014184
 23
92.590860178
 33
0.0
 14
191.4478014184
 24
150.590860178
 34
0.0
 50
90.0
100
AcDbRotatedDimension
  0
DIMENSION
  5
14F
330
1F
100
AcDbEntity
  8
VERMASSUNG
100
AcDbDimension
  2
_D_3
 10
243.633257504
 20
116.533360178
 30
0.0
 11
243.633257504
 21
121.590860178
 31
0.0
 70
   160
  1
SW<>
 71
     2
 42
-1.0
  3
SLDDIMSTYLE1
100
AcDbAlignedDimension
 13
230.2478014184
 23
126.648360178
 33
0.0
 14
230.2478014184
 24
116.533360178
 34
0.0
 50
90.0
100
AcDbRotatedDimension
  0
DIMENSION
  5
15A
330
1F
100
AcDbEntity
  8
VERMASSUNG
100
AcDbDimension
  2
_D_4
 10
192.2478014184
 20
178.7520592149
 30
0.0
 11
156.7228014184
 21
178.7520592149
 31
0.0
 70
   160
  1
<>
 71
     2
 42
-1.0
  3
SLDDIMSTYLE0
100
AcDbAlignedDimension
 13
121.1978014184
 23
152.940860178
 33
0.0
 14
192.2478014184
 24
149.790860178
 34
0.0
100
AcDbRotatedDimension
  0
DIMENSION
  5
164
330
1F
100
AcDbEntity
  8
VERMASSUNG
100
AcDbDimension
  2
_D_5
 10
192.2478014184
 20
187.590860178
 30
0.0
 11
142.2478014184
 21
187.590860178
 31
0.0
 70
   160
  1
<>
 71
     2
 42
-1.0
  3
SLDDIMSTYLE0
100
AcDbAlignedDimension
 13
92.2478014184
 23
171.090860178
 33
0.0
 14
192.2478014184
 24
149.790860178
 34
0.0
100
AcDbRotatedDimension
  0
DIMENSION
  5
16E
330
1F
100
AcDbEntity
  8
VERMASSUNG
100
AcDbDimension
  2
_D_6
 10
213.2478014184
 20
178.7520592149
 30
0.0
 11
202.7478014184
 21
178.7520592149
 31
0.0
 70
   160
  1
<>
 71
     2
 42
-1.0
  3
SLDDIMSTYLE0
100
AcDbAlignedDimension
 13
192.2478014184
 23
149.790860178
 33
0.0
 14
213.2478014184
 24
134.290860178
 34
0.0
100
AcDbRotatedDimension
  0
DIMENSION
  5
178
330
1F
100
AcDbEntity
  8
VERMASSUNG
100
AcDbDimension
  2
_D_7
 10
42.3478014184
 20
196.7754812894
 30
0.0
 11
127.7978014184
 21
196.7754812894
 31
0.0
 70
   160
  1
(<>)
 71
     2
 42
-1.0
  3
SLDDIMSTYLE0
100
AcDbAlignedDimension
 13
213.2478014184
 23
134.290860178
 33
0.0
 14
42.3478014184
 24
152.0935299205
 34
0.0
100
AcDbRotatedDimension
  0
DIMENSION
  5
184
330
1F
100
AcDbEntity
  8
VERMASSUNG
100
AcDbDimension
  2
_D_8
 10
252.2478014184
 20
135.090860178
 30
0.0
 11
252.2478014184
 21
121.590860178
 31
0.0
 70
   160
  1
%%c<>
 71
     2
 42
-1.0
  3
SLDDIMSTYLE0
100
AcDbAlignedDimension
 13
212.4478014184
 23
108.090860178
 33
0.0
 14
212.4478014184
 24
135.090860178
 34
0.0
 50
90.0
100
AcDbRotatedDimension
  0
LINE
  5
18F
330
1F
100
AcDbEntity
  8
VERMASSUNG
  6
CENTERX2
370
    18
100
AcDbLine
 10
235.739539215
 20
121.590860178
 30
0.0
 11
37.2606401324
 21
121.590860178
 31
0.0
  0
SPLINE
  5
190
330
1F
100
AcDbEntity
  8
0
  6
Continuous
 62
     7
370
    25
100
AcDbSpline
210
0.0
220
0.0
230
1.0
 70
     8
 71
     3
 72
    14
 73
    10
 74
     0
 42
0.000000001
 43
0.00000001
 40
0.0
 40
0.0
 40
0.0
 40
0.0
 40
0.084954173689577
 40
0.2407496174585655
 40
0.39719401702882
 40
0.5547230123012232
 40
0.713358379680186
 40
0.8703520742313198
 40
1.0
 40
1.0
 40
1.0
 40
1.0
 10
269.3383066314216
 20
30.91016370397815
 30
0.0
 10
269.3979091662376
 20
31.02058667308278
 30
0.0
 10
269.5668153757072
 20
31.33351170567409
 30
0.0
 10
269.7428667512419
 20
31.87900004496696
 30
0.0
 10
269.8570746062607
 20
32.50408747732823
 30
0.0
 10
269.8496708690691
 20
33.09181762781063
 30
0.0
 10
269.7169235773596
 20
33.60409565910773
 30
0.0
 10
269.4799144736413
 20
34.00921404327838
 30
0.0
 10
269.2409431938858
 20
34.16339325625918
 30
0.0
 10
269.1328565499991
 20
34.23312847174289
 30
0.0
  0
SPLINE
  5
191
330
1F
100
AcDbEntity
  8
0
  6
Continuous
 62
     7
370
    25
100
AcDbSpline
210
0.0
220
0.0
230
1.0
 70
     8
 71
     3
 72
    10
 73
     6
 74
     0
 42
0.000000001
 43
0.00000001
 40
0.0
 40
0.0
 40
0.0
 40
0.0
 40
0.2386649969415986
 40
0.7624638778219843
 40
1.0
 40
1.0
 40
1.0
 40
1.0
 10
268.5979610173798
 20
29.85622625627844
 30
0.0
 10
268.6673965605295
 20
29.92710272991703
 30
0.0
 10
268.8892225264948
 20
30.15353204141784
 30
0.0
 10
269.1457708456749
 20
30.51924558842324
 30
0.0
 10
269.2925207409585
 20
30.81720158813355
 30
0.0
 10
269.3383066314216
 20
30.91016370397815
 30
0.0
  0
LINE
  5
192
330
1F
100
AcDbEntity
  8
0
  6
Continuous
 62
     7
370
    25
100
AcDbLine
 10
269.1535006032
 20
34.233213859
 30
0.0
 11
267.10289047
 21
35.4170058912
 31
0.0
  0
SPLINE
  5
193
330
1F
100
AcDbEntity
  8
0
  6
Continuous
 62
     7
370
    25
100
AcDbSpline
210
0.0
220
0.0
230
1.0
 70
     8
 71
     3
 72
    14
 73
    10
 74
     0
 42
0.000000001
 43
0.00000001
 40
0.0
 40
0.0
 40
0.0
 40
0.0
 40
0.0849541775159189
 40
0.2407495324065274
 40
0.3971939898783965
 40
0.5547229922459167
 40
0.7133583667698274
 40
0.8703520683919681
 40
1.0
 40
1.0
 40
1.0
 40
1.0
 10
253.7819575296112
 20
21.92967452259009
 30
0.0
 10
253.8415600963877
 20
22.04009749321911
 30
0.0
 10
254.0104663291504
 20
22.35302240548605
 30
0.0
 10
254.1865166046448
 20
22.89851061781963
 30
0.0
 10
254.3007257856487
 20
23.52359829647311
 30
0.0
 10
254.293321691282
 20
24.11132842914203
 30
0.0
 10
254.1605744957646
 20
24.62360648231753
 30
0.0
 10
253.923565367808
 20
25.02872486097531
 30
0.0
 10
253.6845940908225
 20
25.18290407458614
 30
0.0
 10
253.5765074481888
 20
25.25263929035483
 30
0.0
  0
SPLINE
  5
194
330
1F
100
AcDbEntity
  8
0
  6
Continuous
 62
     7
370
    25
100
AcDbSpline
210
0.0
220
0.0
230
1.0
 70
     8
 71
     3
 72
    15
 73
    11
 74
     0
 42
0.000000001
 43
0.00000001
 40
0.0
 40
0.0
 40
0.0
 40
0.0
 40
0.0945760423079901
 40
0.2277057917744891
 40
0.3635173663468037
 40
0.5043849483304784
 40
0.6479336606714915
 40
0.7916173693101588
 40
0.9349847283725617
 40
1.0
 40
1.0
 40
1.0
 40
1.0
 10
250.6221898575032
 20
20.06200981116235
 30
0.0
 10
250.7115508737387
 20
20.01343591381807
 30
0.0
 10
250.9267007199271
 20
19.89648708106473
 30
0.0
 10
251.3391777510858
 20
19.87852240111451
 30
0.0
 10
251.8156538191949
 20
19.97992517958502
 30
0.0
 10
252.3111854069944
 20
20.22408944653759
 30
0.0
 10
252.8019165390219
 20
20.59629921678948
 30
0.0
 10
253.2538298614168
 20
21.0807499660899
 30
0.0
 10
253.5899761515372
 20
21.537527300836
 30
0.0
 10
253.7363034798284
 20
21.83642011966969
 30
0.0
 10
253.7819575296112
 20
21.92967452259009
 30
0.0
  0
LINE
  5
195
330
1F
100
AcDbEntity
  8
0
  6
Continuous
 62
     7
370
    25
100
AcDbLine
 10
248.5467855235
 20
21.2402236888
 30
0.0
 11
250.5973956568
 21
20.0564316566
 31
0.0
  0
LINE
  5
196
330
1F
100
AcDbEntity
  8
0
  6
Continuous
 62
     7
370
    25
100
AcDbLine
 10
253.5971515014
 20
25.2527246776
 30
0.0
 11
251.5465413682
 21
26.4365167098
 31
0.0
  0
SPLINE
  5
197
330
1F
100
AcDbEntity
  8
0
  6
Continuous
 62
     7
370
    25
100
AcDbSpline
210
0.0
220
0.0
230
1.0
 70
     8
 71
     3
 72
    15
 73
    11
 74
     0
 42
0.000000001
 43
0.00000001
 40
0.0
 40
0.0
 40
0.0
 40
0.0
 40
0.095721901863951
 40
0.2393126243769292
 40
0.3834410310057903
 40
0.5282403948434348
 40
0.6734317446002194
 40
0.8174065837570141
 40
0.9578054816369185
 40
1.0
 40
1.0
 40
1.0
 40
1.0
 10
273.8668342033164
 20
20.30301287383153
 30
0.0
 10
273.9351331895178
 20
20.47462453624673
 30
0.0
 10
274.1058862701805
 20
20.90366780123157
 30
0.0
 10
274.2611375713936
 20
21.5919939243811
 30
0.0
 10
274.3372817951671
 20
22.33600252457627
 30
0.0
 10
274.2905378306762
 20
23.0270603598306
 30
0.0
 10
274.124862907189
 20
23.64343453486834
 30
0.0
 10
273.8332068841501
 20
24.14516075664341
 30
0.0
 10
273.5400193890888
 20
24.4650850186944
 30
0.0
 10
273.3268305836581
 20
24.56174809746239
 30
0.0
 10
273.2775659433954
 20
24.58408544201746
 30
0.0
  0
SPLINE
  5
198
330
1F
100
AcDbEntity
  8
0
  6
Continuous
 62
     7
370
    25
100
AcDbSpline
210
0.0
220
0.0
230
1.0
 70
     8
 71
     3
 72
    18
 73
    14
 74
     0
 42
0.000000001
 43
0.00000001
 40
0.0
 40
0.0
 40
0.0
 40
0.0
 40
0.0402147380635945
 40
0.138756405472096
 40
0.2375850463812913
 40
0.3387858315244795
 40
0.4423602031453935
 40
0.5470663984228449
 40
0.6518522936182403
 40
0.7564444400727911
 40
0.8608889677292069
 40
0.9653114236085211
 40
1.0
 40
1.0
 40
1.0
 40
1.0
 10
268.7883516676297
 20
16.82637206573306
 30
0.0
 10
268.8464123598972
 20
16.78609051019406
 30
0.0
 10
269.0467442120037
 20
16.64710355858003
 30
0.0
 10
269.4692824888547
 20
16.55704911337019
 30
0.0
 10
270.0226873727494
 20
16.55752195685163
 30
0.0
 10
270.6129519062992
 20
16.70827438446315
 30
0.0
 10
271.2200921808111
 20
16.99651489947182
 30
0.0
 10
271.8251801771102
 20
17.41747013488763
 30
0.0
 10
272.4035902376696
 20
17.9543630245152
 30
0.0
 10
272.9366149697983
 20
18.58634492566429
 30
0.0
 10
273.3973290334166
 20
19.29153419646502
 30
0.0
 10
273.7125328295828
 20
19.87488541354121
 30
0.0
 10
273.8360372698177
 20
20.2175631295779
 30
0.0
 10
273.8668342033164
 20
20.30301287383154
 30
0.0
  0
LINE
  5
199
330
1F
100
AcDbEntity
  8
0
  6
Continuous
 62
     7
370
    25
100
AcDbLine
 10
273.297551946
 20
24.5924189417
 30
0.0
 11
269.2670435546
 21
26.9191819095
 31
0.0
  0
LINE
  5
19A
330
1F
100
AcDbEntity
  8
0
  6
Continuous
 62
     7
370
    25
100
AcDbLine
 10
264.7674091291
 20
19.1247419979
 30
0.0
 11
268.7979175205
 21
16.79797903
 31
0.0
  0
LINE
  5
19B
330
1F
100
AcDbEntity
  8
0
  6
Continuous
 62
     7
370
    25
100
AcDbLine
 10
266.8399153733
 20
26.5883291918
 30
0.0
 11
265.9327413376
 21
27.1120296153
 31
0.0
  0
LINE
  5
19C
330
1F
100
AcDbEntity
  8
0
  6
Continuous
 62
     7
370
    25
100
AcDbLine
 10
262.9334540474
 20
21.9154657234
 30
0.0
 11
263.8401591994
 21
21.3920359807
 31
0.0
  0
SPLINE
  5
19D
330
1F
100
AcDbEntity
  8
0
  6
Continuous
 62
     7
370
    25
100
AcDbSpline
210
0.0
220
0.0
230
1.0
 70
     8
 71
     3
 72
    15
 73
    11
 74
     0
 42
0.000000001
 43
0.00000001
 40
0.0
 40
0.0
 40
0.0
 40
0.0
 40
0.0826500447815106
 40
0.2249599420695182
 40
0.3680801697263502
 40
0.5117113918804698
 40
0.6555881623672377
 40
0.799518197807646
 40
0.9433946463215032
 40
1.0
 40
1.0
 40
1.0
 40
1.0
 10
253.342171958285
 20
15.2425029982479
 30
0.0
 10
253.5342546725871
 20
15.24772410185832
 30
0.0
 10
254.0570724931482
 20
15.26193509434893
 30
0.0
 10
254.9526138583537
 20
15.44676985585564
 30
0.0
 10
256.0134549768533
 20
15.77975154522467
 30
0.0
 10
257.0931482594324
 20
16.25992708548026
 30
0.0
 10
258.1776713141207
 20
16.8710595828363
 30
0.0
 10
259.2525010987237
 20
17.61645397265191
 30
0.0
 10
260.1012431720364
 20
18.28611437235721
 30
0.0
 10
260.5754843826594
 20
18.74095958156467
 30
0.0
 10
260.7093847724339
 20
18.86938357643408
 30
0.0
  0
SPLINE
  5
19E
330
1F
100
AcDbEntity
  8
0
  6
Continuous
 62
     7
370
    25
100
AcDbSpline
210
0.0
220
0.0
230
1.0
 70
     8
 71
     3
 72
    11
 73
     7
 74
     0
 42
0.000000001
 43
0.00000001
 40
0.0
 40
0.0
 40
0.0
 40
0.0
 40
0.2679259826545116
 40
0.5510109835233774
 40
0.8337203067753864
 40
1.0
 40
1.0
 40
1.0
 40
1.0
 10
267.8899334750672
 20
34.96265600515412
 30
0.0
 10
267.8603872424359
 20
35.34120172125799
 30
0.0
 10
267.7996230771232
 20
36.11971093963385
 30
0.0
 10
267.5598490805502
 20
37.1953118062747
 30
0.0
 10
267.2752864893265
 20
38.08067973867175
 30
0.0
 10
267.0238663784305
 20
38.55042526101687
 30
0.0
 10
266.9307548381118
 20
38.72439196951707
 30
0.0
  0
LINE
  5
19F
330
1F
100
AcDbEntity
  8
0
  6
Continuous
 62
     7
370
    25
100
AcDbLine
 10
240.819538195
 20
21.4028615398
 30
0.0
 11
250.2925850385
 21
15.934188001
 31
0.0
  0
LINE
  5
1A0
330
1F
100
AcDbEntity
  8
0
  6
Continuous
 62
     7
370
    25
100
AcDbLine
 10
236.7691667841
 20
23.7410911847
 30
0.0
 11
238.3718863095
 21
22.8158608968
 31
0.0
  0
LINE
  5
1A1
330
1F
100
AcDbEntity
  8
0
  6
Continuous
 62
     7
370
    25
100
AcDbLine
 10
252.8705865898
 20
47.9313471159
 30
0.0
 11
251.2679882365
 21
48.8565074526
 31
0.0
  0
LINE
  5
1A2
330
1F
100
AcDbEntity
  8
0
  6
Continuous
 62
     7
370
    25
100
AcDbLine
 10
264.7914064909
 20
41.049604269
 30
0.0
 11
255.3305058423
 21
46.5112659587
 31
0.0
  0
SPLINE
  5
1A3
330
1F
100
AcDbEntity
  8
0
  6
Continuous
 62
     7
370
    25
100
AcDbSpline
210
0.0
220
0.0
230
1.0
 70
     8
 71
     3
 72
    14
 73
    10
 74
     0
 42
0.000000001
 43
0.00000001
 40
0.0
 40
0.0
 40
0.0
 40
0.0
 40
0.0741687153757993
 40
0.2513187650843152
 40
0.4288964901920473
 40
0.6094527061116504
 40
0.7935281516833265
 40
0.9799743321659302
 40
1.0
 40
1.0
 40
1.0
 40
1.0
 10
261.5968610833601
 20
18.37965741619976
 30
0.0
 10
261.6705682760724
 20
18.33138362991439
 30
0.0
 10
261.9203231836023
 20
18.16780915928062
 30
0.0
 10
262.425926952716
 20
18.03613534292527
 30
0.0
 10
263.08684504333
 20
17.98701702889724
 30
0.0
 10
263.7927155909905
 20
18.08653330056552
 30
0.0
 10
264.524504081117
 20
18.33907878962544
 30
0.0
 10
265.05045151806
 20
18.58092403195954
 30
0.0
 10
265.321827838066
 20
18.77104819966612
 30
0.0
 10
265.3481485790618
 20
18.7894883088663
 30
0.0
  0
SPLINE
  5
1A4
330
1F
100
AcDbEntity
  8
0
  6
Continuous
 62
     7
370
    25
100
AcDbSpline
210
0.0
220
0.0
230
1.0
 70
     8
 71
     3
 72
    13
 73
     9
 74
     0
 42
0.000000001
 43
0.00000001
 40
0.0
 40
0.0
 40
0.0
 40
0.0
 40
0.0701869507505
 40
0.2667161775025704
 40
0.4634311973369502
 40
0.6589885162406117
 40
0.8514521608275213
 40
1.0
 40
1.0
 40
1.0
 40
1.0
 10
269.8401135952373
 20
26.58835533140365
 30
0.0
 10
269.846968196748
 20
26.69506486274678
 30
0.0
 10
269.8730162454762
 20
27.10056984620309
 30
0.0
 10
269.7963204495288
 20
27.74610018245743
 30
0.0
 10
269.6087573900214
 20
28.50184764211631
 30
0.0
 10
269.2921874526899
 20
29.14913428057429
 30
0.0
 10
268.9063787285777
 20
29.65537172564937
 30
0.0
 10
268.5853168383561
 20
29.87586142436545
 30
0.0
 10
268.4454592314881
 20
29.97190882999233
 30
0.0
  0
LINE
  5
1A5
330
1F
100
AcDbEntity
  8
0
  6
Continuous
 62
     7
370
    25
100
AcDbLine
 10
255.3339948111
 20
21.9725301779
 30
0.0
 11
261.5918903894
 21
18.3599239571
 31
0.0
  0
LINE
  5
1A6
330
1F
100
AcDbEntity
  8
0
  6
Continuous
 62
     7
370
    25
100
AcDbLine
 10
268.3413420277
 20
30.0515840147
 30
0.0
 11
262.0834464494
 21
33.6641902355
 31
0.0
  0
SPLINE
  5
1A7
330
1F
100
AcDbEntity
  8
0
  6
Continuous
 62
     7
370
    25
100
AcDbSpline
210
0.0
220
0.0
230
1.0
 70
     8
 71
     3
 72
    12
 73
     8
 74
     0
 42
0.000000001
 43
0.00000001
 40
0.0
 40
0.0
 40
0.0
 40
0.0
 40
0.131963352366845
 40
0.4132780006392904
 40
0.681359083992505
 40
0.9469457504350761
 40
1.0
 40
1.0
 40
1.0
 40
1.0
 10
263.3153504283704
 20
21.42621132936255
 30
0.0
 10
263.2734588515648
 20
21.44864806924386
 30
0.0
 10
263.1422643434282
 20
21.51891463062398
 30
0.0
 10
262.9810734323304
 20
21.75148872540202
 30
0.0
 10
262.8350914907624
 20
22.12689908932757
 30
0.0
 10
262.7883351311975
 20
22.47445318497126
 30
0.0
 10
262.7860559780031
 20
22.68135906412404
 30
0.0
 10
262.7856764951548
 20
22.71580924173012
 30
0.0
  0
SPLINE
  5
1A8
330
1F
100
AcDbEntity
  8
0
  6
Continuous
 62
     7
370
    25
100
AcDbSpline
210
0.0
220
0.0
230
1.0
 70
     8
 71
     3
 72
    19
 73
    15
 74
     0
 42
0.000000001
 43
0.00000001
 40
0.0
 40
0.0
 40
0.0
 40
0.0
 40
0.0460605720082644
 40
0.134896041191399
 40
0.2242693942871382
 40
0.3140544645761872
 40
0.4040423832566034
 40
0.4939424711470596
 40
0.5834113294391242
 40
0.6721939064357159
 40
0.7601909901698953
 40
0.8478660576704096
 40
0.9364904649255779
 40
1.0
 40
1.0
 40
1.0
 40
1.0
 10
262.7856764951548
 20
22.71580924173012
 30
0.0
 10
262.7884035346756
 20
22.81358849153228
 30
0.0
 10
262.7963901231934
 20
23.09995127718352
 30
0.0
 10
262.8879107219884
 20
23.62494886278692
 30
0.0
 10
263.0939018081571
 20
24.2752339885356
 30
0.0
 10
263.395582453596
 20
24.92419330791283
 30
0.0
 10
263.7772076532172
 20
25.53717820339672
 30
0.0
 10
264.2196563759415
 20
26.08317241569016
 30
0.0
 10
264.6986493025642
 20
26.53473622994934
 30
0.0
 10
265.1863838291453
 20
26.870337797587
 30
0.0
 10
265.6543050917231
 20
27.0787659776844
 30
0.0
 10
266.0706889966177
 20
27.15342423313956
 30
0.0
 10
266.386568024019
 20
27.12791102081557
 30
0.0
 10
266.5350586735855
 20
27.03837059315806
 30
0.0
 10
266.5970472868592
 20
27.00099122308577
 30
0.0
  0
LINE
  5
1A9
330
1F
100
AcDbEntity
  8
0
  6
Continuous
 62
     7
370
    25
100
AcDbLine
 10
261.3827483428
 20
33.9274962027
 30
0.0
 11
260.882629064
 21
34.0293919749
 31
0.0
  0
LINE
  5
1AA
330
1F
100
AcDbEntity
  8
0
  6
Continuous
 62
     7
370
    25
100
AcDbLine
 10
254.4172317089
 20
22.8297815989
 30
0.0
 11
254.7555714622
 21
22.4476452411
 31
0.0
  0
SPLINE
  5
1AB
330
1F
100
AcDbEntity
  8
0
  6
Continuous
 62
     7
370
    25
100
AcDbSpline
210
0.0
220
0.0
230
1.0
 70
     8
 71
     3
 72
    13
 73
     9
 74
     0
 42
0.000000001
 43
0.00000001
 40
0.0
 40
0.0
 40
0.0
 40
0.0
 40
0.0569699179584406
 40
0.2556696697421532
 40
0.4597384483349172
 40
0.6675614454347621
 40
0.8775013420420383
 40
1.0
 40
1.0
 40
1.0
 40
1.0
 10
227.628437304433
 20
27.05692422636054
 30
0.0
 10
227.7980392266527
 20
27.0316747830721
 30
0.0
 10
228.5591789473238
 20
26.91836029960319
 30
0.0
 10
229.9822968303089
 20
26.57362207851523
 30
0.0
 10
231.8753982008938
 20
26.00590408674383
 30
0.0
 10
233.7946275796035
 20
25.25639241690389
 30
0.0
 10
235.4393739285582
 20
24.49666436976922
 30
0.0
 10
236.4039766193779
 20
23.93243452075759
 30
0.0
 10
236.759418349783
 20
23.72452422174266
 30
0.0
  0
SPLINE
  5
1AC
330
1F
100
AcDbEntity
  8
0
  6
Continuous
 62
     7
370
    25
100
AcDbSpline
210
0.0
220
0.0
230
1.0
 70
     8
 71
     3
 72
    13
 73
     9
 74
     0
 42
0.000000001
 43
0.00000001
 40
0.0
 40
0.0
 40
0.0
 40
0.0
 40
0.0152643088813779
 40
0.2254855987543279
 40
0.4338504025085163
 40
0.6389768399162363
 40
0.8396840916128615
 40
0.9999999999999999
 40
0.9999999999999999
 40
0.9999999999999999
 40
0.9999999999999999
 10
251.269018858689
 20
48.86203673829519
 30
0.0
 10
251.2238108815714
 20
48.88612206365609
 30
0.0
 10
250.5559950067716
 20
49.24191242746495
 30
0.0
 10
249.3415688778727
 20
50.05530983411088
 30
0.0
 10
247.6668771578962
 20
51.28601063019089
 30
0.0
 10
246.1482467835538
 20
52.6096853701174
 30
0.0
 10
244.8541914019223
 20
53.89054534833579
 30
0.0
 10
244.1394312316894
 20
54.73719886457569
 30
0.0
 10
243.8220349019269
 20
55.11316374038496
 30
0.0
  0
LINE
  5
1AD
330
1F
100
AcDbEntity
  8
0
  6
Continuous
 62
     7
370
    25
100
AcDbLine
 10
210.1472913307
 20
26.9855451898
 30
0.0
 11
215.8882811865
 21
23.6713422908
 31
0.0
  0
LINE
  5
1AE
330
1F
100
AcDbEntity
  8
0
  6
Continuous
 62
     7
370
    25
100
AcDbLine
 10
237.3519740639
 20
69.0140790026
 30
0.0
 11
235.1452588979
 21
70.287988552
 31
0.0
  0
SPLINE
  5
1AF
330
1F
100
AcDbEntity
  8
0
  6
Continuous
 62
     7
370
    25
100
AcDbSpline
210
0.0
220
0.0
230
1.0
 70
     8
 71
     3
 72
    10
 73
     6
 74
     0
 42
0.000000001
 43
0.00000001
 40
0.0
 40
0.0
 40
0.0
 40
0.0
 40
0.2877671293385511
 40
0.7914668933538241
 40
1.0
 40
1.0
 40
1.0
 40
1.0
 10
205.1303877433072
 20
41.88728693022573
 30
0.0
 10
205.086276271303
 20
41.55604322103322
 30
0.0
 10
204.9649532772952
 20
40.64499952379023
 30
0.0
 10
204.9051700521349
 20
39.53225023700679
 30
0.0
 10
204.897599329604
 20
38.7598624754925
 30
0.0
 10
204.895382714289
 20
38.53371674973504
 30
0.0
  0
SPLINE
  5
1B0
330
1F
100
AcDbEntity
  8
0
  6
Continuous
 62
     7
370
    25
100
AcDbSpline
210
0.0
220
0.0
230
1.0
 70
     8
 71
     3
 72
     9
 73
     5
 74
     0
 42
0.000000001
 43
0.00000001
 40
0.0
 40
0.0
 40
0.0
 40
0.0
 40
0.5696751866024141
 40
1.0
 40
1.0
 40
1.0
 40
1.0
 10
222.837478984665
 20
69.22568372408381
 30
0.0
 10
222.6085290842398
 20
69.10452742324894
 30
0.0
 10
222.2066335728858
 20
68.89185131643544
 30
0.0
 10
221.8063030186979
 20
68.6246159818826
 30
0.0
 10
221.6340308476696
 20
68.50961798640792
 30
0.0
  0
SPLINE
  5
1B1
330
1F
100
AcDbEntity
  8
0
  6
Continuous
 62
     7
370
    25
100
AcDbSpline
210
0.0
220
0.0
230
1.0
 70
     8
 71
     3
 72
     9
 73
     5
 74
     0
 42
0.000000001
 43
0.00000001
 40
0.0
 40
0.0
 40
0.0
 40
0.0
 40
0.4109279501872297
 40
1.0
 40
1.0
 40
1.0
 40
1.0
 10
204.895382714289
 20
38.53371674973504
 30
0.0
 10
204.8974862911616
 20
38.24877606125978
 30
0.0
 10
204.9026053804606
 20
37.5553681576469
 30
0.0
 10
204.9627965099372
 20
36.89612014703442
 30
0.0
 10
204.9982534219585
 20
36.50777557008793
 30
0.0
  0
LINE
  5
1B2
330
1F
100
AcDbEntity
  8
0
  6
Continuous
 62
     7
370
    25
100
AcDbLine
 10
223.413236813
 20
69.4738232398
 30
0.0
 11
214.0779021628
 21
74.1249437015
 31
0.0
  0
LINE
  5
1B3
330
1F
100
AcDbEntity
  8
0
  6
Continuous
 62
     7
370
    25
100
AcDbLine
 10
196.2891793752
 20
43.3106336899
 30
0.0
 11
204.9174683729
 21
37.5973392294
 31
0.0
  0
SPLINE
  5
1B4
330
1F
100
AcDbEntity
  8
0
  6
Continuous
 62
     7
370
    25
100
AcDbSpline
210
0.0
220
0.0
230
1.0
 70
     8
 71
     3
 72
    16
 73
    12
 74
     0
 42
0.000000001
 43
0.00000001
 40
0.0
 40
0.0
 40
0.0
 40
0.0
 40
0.0971656734455942
 40
0.2131779287649248
 40
0.3296433152073902
 40
0.4464738129161343
 40
0.5635598639128654
 40
0.6807997869914676
 40
0.7981140088502072
 40
0.9154425780649189
 40
1.0
 40
1.0
 40
1.0
 40
1.0
 10
223.6586230090138
 20
20.21933844709457
 30
0.0
 10
224.0077965687417
 20
20.1946479061013
 30
0.0
 10
224.7738705700086
 20
20.14047776347392
 30
0.0
 10
226.0136104746801
 20
20.23239076520442
 30
0.0
 10
227.358024445078
 20
20.45935445741067
 30
0.0
 10
228.7360237814792
 20
20.8342328403433
 30
0.0
 10
230.1366601331457
 20
21.34996129545243
 30
0.0
 10
231.5513357776588
 20
22.00308085388737
 30
0.0
 10
232.9697777051739
 20
22.79401321047543
 30
0.0
 10
234.2542321245133
 20
23.61368343428638
 30
0.0
 10
235.055351797859
 20
24.22107666798235
 30
0.0
 10
235.3908907515714
 20
24.47547572583493
 30
0.0
  0
LINE
  5
1B5
330
1F
100
AcDbEntity
  8
0
  6
Continuous
 62
     7
370
    25
100
AcDbLine
 10
218.1948840336
 20
22.3397688105
 30
0.0
 11
219.8523319004
 21
21.3829445236
 31
0.0
  0
SPLINE
  5
1B6
330
1F
100
AcDbEntity
  8
0
  6
Continuous
 62
     7
370
    25
100
AcDbSpline
210
0.0
220
0.0
230
1.0
 70
     8
 71
     3
 72
    10
 73
     6
 74
     0
 42
0.000000001
 43
0.00000001
 40
0.0
 40
0.0
 40
0.0
 40
0.0
 40
0.028148475011432
 40
0.6719752357242176
 40
1.0
 40
1.0
 40
1.0
 40
1.0
 10
247.4623444771434
 20
62.38695567614565
 30
0.0
 10
247.4519945422636
 20
62.40195067532708
 30
0.0
 10
247.2049154401882
 20
62.75991920134963
 30
0.0
 10
246.7708383330775
 20
63.21507318118275
 30
0.0
 10
246.3174819524429
 20
63.60896177954703
 30
0.0
 10
246.1644625702978
 20
63.74190926309487
 30
0.0
  0
SPLINE
  5
1B7
330
1F
100
AcDbEntity
  8
0
  6
Continuous
 62
     7
370
    25
100
AcDbSpline
210
0.0
220
0.0
230
1.0
 70
     8
 71
     3
 72
    12
 73
     8
 74
     0
 42
0.000000001
 43
0.00000001
 40
0.0
 40
0.0
 40
0.0
 40
0.0
 40
0.1180490526010331
 40
0.3415715706442001
 40
0.5648880326714045
 40
0.7876618717436215
 40
0.9999999999999999
 40
0.9999999999999999
 40
0.9999999999999999
 40
0.9999999999999999
 10
249.8264757968638
 20
56.87705818593849
 30
0.0
 10
249.7738041427143
 20
57.13037031482256
 30
0.0
 10
249.6214002119762
 20
57.86332174323071
 30
0.0
 10
249.2837712960603
 20
59.0076449615223
 30
0.0
 10
248.7766358960968
 20
60.26663683010486
 30
0.0
 10
248.1781405215138
 20
61.40774504002961
 30
0.0
 10
247.6970973844507
 20
62.06581315866133
 30
0.0
 10
247.4623444771434
 20
62.38695567614565
 30
0.0
  0
SPLINE
  5
1B8
330
1F
100
AcDbEntity
  8
0
  6
Continuous
 62
     7
370
    25
100
AcDbSpline
210
0.0
220
0.0
230
1.0
 70
     8
 71
     3
 72
    28
 73
    24
 74
     0
 42
0.000000001
 43
0.00000001
 40
0.0
 40
0.0
 40
0.0
 40
0.0
 40
0.0173646859913571
 40
0.0666529697132405
 40
0.116022427525708
 40
0.1657775298981347
 40
0.2161025423756545
 40
0.2670303082661907
 40
0.3184683026004565
 40
0.3702610478330405
 40
0.4222524658896515
 40
0.4743219123752864
 40
0.5263766481100202
 40
0.5783840758737929
 40
0.6303339792540638
 40
0.6822286908839886
 40
0.734077400466319
 40
0.7858927912084067
 40
0.8376893382521449
 40
0.8894823799690259
 40
0.9412855244705658
 40
0.9931116107064701
 40
1.0
 40
1.0
 40
1.0
 40
1.0
 10
214.2437282797488
 20
74.01886542912673
 30
0.0
 10
214.140426131609
 20
74.0797680781872
 30
0.0
 10
213.7439090304817
 20
74.31353806546504
 30
0.0
 10
212.976746458845
 20
74.57688743862926
 30
0.0
 10
211.9565626260264
 20
74.80428666904938
 30
0.0
 10
210.8777154950446
 20
74.87796887691644
 30
0.0
 10
209.7534268451491
 20
74.80895731277141
 30
0.0
 10
208.5898041223443
 20
74.59325702063352
 30
0.0
 10
207.3972251687705
 20
74.2323283731753
 30
0.0
 10
206.1869411340762
 20
73.7286137622143
 30
0.0
 10
204.9709926222451
 20
73.08707462106973
 30
0.0
 10
203.7612837770953
 20
72.31448852268304
 30
0.0
 10
202.5690804191591
 20
71.41897044002332
 30
0.0
 10
201.4048982297152
 20
70.40953269834651
 30
0.0
 10
200.2785411774229
 20
69.29574518317017
 30
0.0
 10
199.1993413612129
 20
68.08781794021417
 30
0.0
 10
198.1763048643733
 20
66.79655682569881
 30
0.0
 10
197.2177432411207
 20
65.4333366195049
 30
0.0
 10
196.3325075889816
 20
64.00999710312303
 30
0.0
 10
195.5251822191312
 20
62.53894112778248
 30
0.0
 10
194.8138072569033
 20
61.03245989668731
 30
0.0
 10
194.3515217629453
 20
59.94669925731358
 30
0.0
 10
194.1532497228983
 20
59.36725096572876
 30
0.0
 10
194.1299884234393
 20
59.29927002283665
 30
0.0
  0
LINE
  5
1B9
330
1F
100
AcDbEntity
  8
0
  6
Continuous
 62
     7
370
    25
100
AcDbLine
 10
194.5138895785
 20
56.9664553697
 30
0.0
 11
198.2937756866
 21
54.7843735664
 31
0.0
  0
LINE
  5
1BA
330
1F
100
AcDbEntity
  8
0
  6
Continuous
 62
     7
370
    25
100
AcDbLine
 10
194.0084507418
 20
58.7361022514
 30
0.0
 11
194.0084507418
 21
58.0835973083
 31
0.0
  0
LINE
  5
1BB
330
1F
100
AcDbEntity
  8
0
  6
Continuous
 62
     7
370
    25
100
AcDbLine
 10
194.0084507418
 20
46.5778093794
 30
0.0
 11
194.0084507418
 21
45.9253044363
 31
0.0
  0
SPLINE
  5
1BC
330
1F
100
AcDbEntity
  8
0
  6
Continuous
 62
     7
370
    25
100
AcDbSpline
210
0.0
220
0.0
230
1.0
 70
     8
 71
     3
 72
    10
 73
     6
 74
     0
 42
0.000000001
 43
0.00000001
 40
0.0
 40
0.0
 40
0.0
 40
0.0
 40
0.3295006286484303
 40
0.6892241807213073
 40
1.0
 40
1.0
 40
1.0
 40
1.0
 10
194.1406864789715
 20
45.58976073479511
 30
0.0
 10
194.3234415979034
 20
45.30836726612247
 30
0.0
 10
194.705714759673
 20
44.71976995842764
 30
0.0
 10
195.3800420104744
 20
43.99107885682402
 30
0.0
 10
195.9028237872068
 20
43.60052796213254
 30
0.0
 10
196.1451326422329
 20
43.4195079948459
 30
0.0
  0
SPLINE
  5
1BD
330
1F
100
AcDbEntity
  8
0
  6
Continuous
 62
     7
370
    25
100
AcDbSpline
210
0.0
220
0.0
230
1.0
 70
     8
 71
     3
 72
     9
 73
     5
 74
     0
 42
0.000000001
 43
0.00000001
 40
0.0
 40
0.0
 40
0.0
 40
0.0
 40
0.3544518289669109
 40
1.0
 40
1.0
 40
1.0
 40
1.0
 10
194.0547174447214
 20
45.72552700786265
 30
0.0
 10
194.063658940224
 20
45.70829497565379
 30
0.0
 10
194.0888852044773
 20
45.65967896975229
 30
0.0
 10
194.1203648508383
 20
45.61718964237314
 30
0.0
 10
194.1406864789715
 20
45.58976073479511
 30
0.0
  0
LWPOLYLINE
  5
1BE
330
1F
100
AcDbEntity
  8
0
  6
Continuous
 62
     7
370
    25
100
AcDbPolyline
 90
        7
 70
   128
 43
0.0
 10
264.542352202
 20
34.3279883869
 10
265.0325477091
 20
34.8489216387
 10
265.5585871351
 20
35.2422983259
 10
266.0874181314
 20
35.483401563
 10
266.585811859
 20
35.5570814843
 10
267.0224532096
 20
35.458709239
 10
267.10289047
 20
35.4170058912
  0
ARC
  5
1BF
330
1F
100
AcDbEntity
  8
0
  6
Continuous
 62
     7
370
    25
100
AcDbCircle
 10
268.5004253711
 20
31.1475337513
 30
0.0
 40
5.077561905155633
100
AcDbArc
 50
141.2168662518
 51
161.691357871
  0
LWPOLYLINE
  5
1C0
330
1F
100
AcDbEntity
  8
0
  6
Continuous
 62
     7
370
    25
100
AcDbPolyline
 90
       11
 70
   128
 43
0.0
 10
267.317744567
 20
32.2624299887
 10
267.6731241594
 20
32.6121981654
 10
268.0497437879
 20
32.8162167879
 10
268.3967394502
 20
32.8469321194
 10
268.6672478022
 20
32.7001963346
 10
268.82473477
 20
32.395826556
 10
268.8479306832
 20
31.9749294859
 10
268.7337035041
 20
31.4943500431
 10
268.4974789793
 20
31.0189924067
 10
268.171162273
 20
30.613057231
 10
267.828240367
 20
30.3477909972
  0
ARC
  5
1C1
330
1F
100
AcDbEntity
  8
0
  6
Continuous
 62
     7
370
    25
100
AcDbCircle
 10
269.0202413154
 20
30.8417748795
 30
0.0
 40
2.217375953173248
100
AcDbArc
 50
140.1565579056
 51
177.4320747297
  0
SPLINE
  5
1C2
330
1F
100
AcDbEntity
  8
0
  6
Continuous
 62
     7
370
    25
100
AcDbSpline
210
0.0
220
0.0
230
1.0
 70
     8
 71
     3
 72
     9
 73
     5
 74
     0
 42
0.000000001
 43
0.00000001
 40
0.0
 40
0.0
 40
0.0
 40
0.0
 40
0.5430512834971066
 40
1.0
 40
1.0
 40
1.0
 40
1.0
 10
266.8293403009715
 20
30.93234050657475
 30
0.0
 10
266.8192862783851
 20
30.96587252674768
 30
0.0
 10
266.8007723315591
 20
31.0276199550145
 30
0.0
 10
266.8101832361139
 20
31.07618675872249
 30
0.0
 10
266.8144835368714
 20
31.09837929734152
 30
0.0
  0
SPLINE
  5
1C3
330
1F
100
AcDbEntity
  8
0
  6
Continuous
 62
     7
370
    25
100
AcDbSpline
210
0.0
220
0.0
230
1.0
 70
     8
 71
     3
 72
    11
 73
     7
 74
     0
 42
0.000000001
 43
0.00000001
 40
0.0
 40
0.0
 40
0.0
 40
0.0
 40
0.1842407344798707
 40
0.5169664715546879
 40
0.8653134720996705
 40
0.9999999999999999
 40
0.9999999999999999
 40
0.9999999999999999
 40
0.9999999999999999
 10
268.7095968238285
 20
31.45668878851502
 30
0.0
 10
268.6308590893504
 20
31.40879053959597
 30
0.0
 10
268.409926574691
 20
31.27439144046495
 30
0.0
 10
268.0846081649725
 20
30.97436056141327
 30
0.0
 10
267.9034112065933
 20
30.62398626191665
 30
0.0
 10
267.842654587714
 20
30.41532753647691
 30
0.0
 10
267.8257135317377
 20
30.35714623519945
 30
0.0
  0
SPLINE
  5
1C4
330
1F
100
AcDbEntity
  8
0
  6
Continuous
 62
     7
370
    25
100
AcDbSpline
210
0.0
220
0.0
230
1.0
 70
     8
 71
     3
 72
    10
 73
     6
 74
     0
 42
0.000000001
 43
0.00000001
 40
0.0
 40
0.0
 40
0.0
 40
0.0
 40
0.4391258261337306
 40
0.7513745887459606
 40
0.9999999999999999
 40
0.9999999999999999
 40
0.9999999999999999
 40
0.9999999999999999
 10
268.7095968238285
 20
32.63526396826278
 30
0.0
 10
268.6490583397356
 20
32.50148611701822
 30
0.0
 10
268.5454728162216
 20
32.27258298269974
 30
0.0
 10
268.5915224969064
 20
31.82632637869241
 30
0.0
 10
268.6733321009933
 20
31.57021731843903
 30
0.0
 10
268.7095968238285
 20
31.45668878851502
 30
0.0
  0
SPLINE
  5
1C5
330
1F
100
AcDbEntity
  8
0
  6
Continuous
 62
     7
370
    25
100
AcDbSpline
210
0.0
220
0.0
230
1.0
 70
     8
 71
     3
 72
    10
 73
     6
 74
     0
 42
0.000000001
 43
0.00000001
 40
0.0
 40
0.0
 40
0.0
 40
0.0
 40
0.4391256875653314
 40
0.7513746723278711
 40
0.9999999999999999
 40
0.9999999999999999
 40
0.9999999999999999
 40
0.9999999999999999
 10
267.8257135317377
 20
32.71429659469497
 30
0.0
 10
267.8917125828971
 20
32.7379302479811
 30
0.0
 10
268.0046415616452
 20
32.77836907676434
 30
0.0
 10
268.3654287302496
 20
32.72364314938974
 30
0.0
 10
268.6038909027869
 20
32.66240827046926
 30
0.0
 10
268.7095968238285
 20
32.63526396826278
 30
0.0
  0
LINE
  5
1C6
330
1F
100
AcDbEntity
  8
0
  6
Continuous
 62
     7
370
    25
100
AcDbLine
 10
267.5590036645
 20
32.120912081
 30
0.0
 11
267.5188166445
 21
32.4562930964
 31
0.0
  0
SPLINE
  5
1C7
330
1F
100
AcDbEntity
  8
0
  6
Continuous
 62
     7
370
    25
100
AcDbSpline
210
0.0
220
0.0
230
1.0
 70
     8
 71
     3
 72
     9
 73
     5
 74
     0
 42
0.000000001
 43
0.00000001
 40
0.0
 40
0.0
 40
0.0
 40
0.0
 40
0.4825855359230856
 40
1.0
 40
1.0
 40
1.0
 40
1.0
 10
266.8652830016726
 20
31.33866342690467
 30
0.0
 10
266.9517560806556
 20
31.4812471972053
 30
0.0
 10
267.1309431315431
 20
31.77670522420126
 30
0.0
 10
267.413041755973
 20
32.00354295701852
 30
0.0
 10
267.5590036645493
 20
32.12091208097659
 30
0.0
  0
LINE
  5
1C8
330
1F
100
AcDbEntity
  8
0
  6
Continuous
 62
     7
370
    25
100
AcDbLine
 10
266.8293409595
 20
30.9323398778
 30
0.0
 11
267.8257135317
 21
30.3571462352
 31
0.0
  0
LINE
  5
1C9
330
1F
100
AcDbEntity
  8
0
  6
Continuous
 62
     7
370
    25
100
AcDbLine
 10
267.5590036645
 20
32.120912081
 30
0.0
 11
268.7095968238
 21
31.4566887885
 31
0.0
  0
LWPOLYLINE
  5
1CA
330
1F
100
AcDbEntity
  8
0
  6
Continuous
 62
     7
370
    25
100
AcDbPolyline
 90
        7
 70
   128
 43
0.0
 10
248.9860031002
 20
25.3474992056
 10
249.4761986072
 20
25.8684324573
 10
250.0022380333
 20
26.2618091445
 10
250.5310690296
 20
26.5029123816
 10
251.0294627572
 20
26.5765923029
 10
251.4661034492
 20
26.4782196774
 10
251.5465413682
 20
26.4365167098
  0
LWPOLYLINE
  5
1CB
330
1F
100
AcDbEntity
  8
0
  6
Continuous
 62
     7
370
    25
100
AcDbPolyline
 90
        9
 70
   128
 43
0.0
 10
248.5467855235
 20
21.2402236888
 10
248.4408342733
 20
21.3107110499
 10
248.1465715624
 20
21.6522822229
 10
247.9716990196
 20
22.1312135882
 10
247.9272038013
 20
22.7174117307
 10
248.0158820877
 20
23.3740438315
 10
248.2321619336
 20
24.0598513208
 10
248.5624536144
 20
24.7317423352
 10
248.9860031002
 20
25.3474992056
  0
LWPOLYLINE
  5
1CC
330
1F
100
AcDbEntity
  8
0
  6
Continuous
 62
     7
370
    25
100
AcDbPolyline
 90
       18
 70
   128
 43
0.0
 10
251.7613954652
 20
23.2819408073
 10
252.1167750576
 20
23.631708984
 10
252.4933946861
 20
23.8357276065
 10
252.8403903484
 20
23.866442938
 10
253.1108987003
 20
23.7197071532
 10
253.2683856682
 20
23.4153373746
 10
253.2915815814
 20
22.9944403045
 10
253.1773537437
 20
22.5138604815
 10
252.9411298775
 20
22.0385032253
 10
252.6148131712
 20
21.6325680496
 10
252.2424734235
 20
21.3508781975
 10
251.87439841
 20
21.2314781406
 10
251.5602983629
 20
21.290493203
 10
251.3425940853
 20
21.5199531274
 10
251.2506876138
 20
21.8888679557
 10
251.2969918538
 20
22.3474139414
 10
251.4752526081
 20
22.8336615696
 10
251.7613954652
 20
23.2819408073
  0
SPLINE
  5
1CD
330
1F
100
AcDbEntity
  8
0
  6
Continuous
 62
     7
370
    25
100
AcDbSpline
210
0.0
220
0.0
230
1.0
 70
     8
 71
     3
 72
     9
 73
     5
 74
     0
 42
0.000000001
 43
0.00000001
 40
0.0
 40
0.0
 40
0.0
 40
0.0
 40
0.8793091432218614
 40
1.0
 40
1.0
 40
1.0
 40
1.0
 10
251.3854811378366
 20
21.45568968024358
 30
0.0
 10
251.3134276069696
 20
21.66617454041536
 30
0.0
 10
251.2314842638091
 20
21.9055498065482
 30
0.0
 10
251.2552643911214
 20
22.0950224948645
 30
0.0
 10
251.258134435061
 20
22.11789011595345
 30
0.0
  0
SPLINE
  5
1CE
330
1F
100
AcDbEntity
  8
0
  6
Continuous
 62
     7
370
    25
100
AcDbSpline
210
0.0
220
0.0
230
1.0
 70
     8
 71
     3
 72
    10
 73
     6
 74
     0
 42
0.000000001
 43
0.00000001
 40
0.0
 40
0.0
 40
0.0
 40
0.0
 40
0.4391256875653314
 40
0.7513746723278711
 40
0.9999999999999999
 40
0.9999999999999999
 40
0.9999999999999999
 40
0.9999999999999999
 10
252.2693644299274
 20
21.37665705381139
 30
0.0
 10
252.0822884393817
 20
21.42291962984987
 30
0.0
 10
251.7621883744642
 20
21.50207812341165
 30
0.0
 10
251.4935004822049
 20
21.50363627026031
 30
0.0
 10
251.418657613227
 20
21.47041573577598
 30
0.0
 10
251.3854811378366
 20
21.45568968024358
 30
0.0
  0
SPLINE
  5
1CF
330
1F
100
AcDbEntity
  8
0
  6
Continuous
 62
     7
370
    25
100
AcDbSpline
210
0.0
220
0.0
230
1.0
 70
     8
 71
     3
 72
    11
 73
     7
 74
     0
 42
0.000000001
 43
0.00000001
 40
0.0
 40
0.0
 40
0.0
 40
0.0
 40
0.184241233796932
 40
0.5169669812719335
 40
0.8653134678897025
 40
1.0
 40
1.0
 40
1.0
 40
1.0
 10
253.1532477220181
 20
22.47619960712695
 30
0.0
 10
253.0745097654581
 20
22.42830123717638
 30
0.0
 10
252.853577008575
 20
22.29390203016451
 30
0.0
 10
252.5282584638465
 20
21.99387130166261
 30
0.0
 10
252.3470620666435
 20
21.6434968225646
 30
0.0
 10
252.286305491981
 20
21.43483834827374
 30
0.0
 10
252.2693644299274
 20
21.37665705381139
 30
0.0
  0
SPLINE
  5
1D0
330
1F
100
AcDbEntity
  8
0
  6
Continuous
 62
     7
370
    25
100
AcDbSpline
210
0.0
220
0.0
230
1.0
 70
     8
 71
     3
 72
    10
 73
     6
 74
     0
 42
0.000000001
 43
0.00000001
 40
0.0
 40
0.0
 40
0.0
 40
0.0
 40
0.4391258261337306
 40
0.7513745887459606
 40
0.9999999999999999
 40
0.9999999999999999
 40
0.9999999999999999
 40
0.9999999999999999
 10
253.1532477220181
 20
23.65477478687471
 30
0.0
 10
253.0927092379252
 20
23.52099693563014
 30
0.0
 10
252.9891237144112
 20
23.29209380131167
 30
0.0
 10
253.035173395096
 20
22.84583719730434
 30
0.0
 10
253.1169829991829
 20
22.58972813705097
 30
0.0
 10
253.1532477220181
 20
22.47619960712695
 30
0.0
  0
SPLINE
  5
1D1
330
1F
100
AcDbEntity
  8
0
  6
Continuous
 62
     7
370
    25
100
AcDbSpline
210
0.0
220
0.0
230
1.0
 70
     8
 71
     3
 72
    10
 73
     6
 74
     0
 42
0.000000001
 43
0.00000001
 40
0.0
 40
0.0
 40
0.0
 40
0.0
 40
0.4391256875653314
 40
0.7513746723278711
 40
0.9999999999999999
 40
0.9999999999999999
 40
0.9999999999999999
 40
0.9999999999999999
 10
252.2693644299274
 20
23.73380741330691
 30
0.0
 10
252.3353634810867
 20
23.75744106659304
 30
0.0
 10
252.4482924598348
 20
23.79787989537627
 30
0.0
 10
252.8090796284392
 20
23.74315396800168
 30
0.0
 10
253.0475418009765
 20
23.68191908908119
 30
0.0
 10
253.1532477220181
 20
23.65477478687471
 30
0.0
  0
LINE
  5
1D2
330
1F
100
AcDbEntity
  8
0
  6
Continuous
 62
     7
370
    25
100
AcDbLine
 10
252.0026545627
 20
23.1404228996
 30
0.0
 11
251.9624675427
 21
23.4758039151
 31
0.0
  0
SPLINE
  5
1D3
330
1F
100
AcDbEntity
  8
0
  6
Continuous
 62
     7
370
    25
100
AcDbSpline
210
0.0
220
0.0
230
1.0
 70
     8
 71
     3
 72
     9
 73
     5
 74
     0
 42
0.000000001
 43
0.00000001
 40
0.0
 40
0.0
 40
0.0
 40
0.0
 40
0.4825855359230856
 40
1.0
 40
1.0
 40
1.0
 40
1.0
 10
251.3089338998622
 20
22.35817424551661
 30
0.0
 10
251.3954069788453
 20
22.50075801581723
 30
0.0
 10
251.5745940297328
 20
22.79621604281319
 30
0.0
 10
251.8566926541627
 20
23.02305377563046
 30
0.0
 10
252.0026545627389
 20
23.14042289958853
 30
0.0
  0
LINE
  5
1D4
330
1F
100
AcDbEntity
  8
0
  6
Continuous
 62
     7
370
    25
100
AcDbLine
 10
251.2729918577
 20
21.9518506964
 30
0.0
 11
252.2693644299
 21
21.3766570538
 31
0.0
  0
LINE
  5
1D5
330
1F
100
AcDbEntity
  8
0
  6
Continuous
 62
     7
370
    25
100
AcDbLine
 10
252.0026545627
 20
23.1404228996
 30
0.0
 11
253.153247722
 21
22.4761996071
 31
0.0
  0
ARC
  5
1D6
330
1F
100
AcDbEntity
  8
0
  6
Continuous
 62
     7
370
    25
100
AcDbCircle
 10
266.0754060109
 20
20.9575571453
 30
0.0
 40
2.251680973761064
100
AcDbArc
 50
174.2015321915
 51
234.4862749006
  0
LWPOLYLINE
  5
1D7
330
1F
100
AcDbEntity
  8
0
  6
Continuous
 62
     7
370
    25
100
AcDbPolyline
 90
       13
 70
   128
 43
0.0
 10
269.2670435546
 20
26.9191819095
 10
268.964935603
 20
27.0520036181
 10
268.4185519261
 20
27.1298533777
 10
267.8147978272
 20
27.0395253079
 10
267.1783910132
 20
26.7847178228
 10
266.5353861182
 20
26.3758627769
 10
265.9121078211
 20
25.8296985421
 10
265.334073178
 20
25.1685853355
 10
264.8249469859
 20
24.4195890428
 10
264.4055730016
 20
23.6133736594
 10
264.0931204683
 20
22.7829460364
 10
263.9003812837
 20
21.9623036535
 10
263.8352459635
 20
21.1850437812
  0
LINE
  5
1D8
330
1F
100
AcDbEntity
  8
0
  6
Continuous
 62
     7
370
    25
100
AcDbLine
 10
271.2598650902
 20
18.1884812979
 30
0.0
 11
273.0479614372
 21
20.4128560669
 31
0.0
  0
LINE
  5
1D9
330
1F
100
AcDbEntity
  8
0
  6
Continuous
 62
     7
370
    25
100
AcDbLine
 10
273.0479614372
 20
20.4128560669
 30
0.0
 11
273.0479614372
 21
22.7971135063
 31
0.0
  0
LINE
  5
1DA
330
1F
100
AcDbEntity
  8
0
  6
Continuous
 62
     7
370
    25
100
AcDbLine
 10
271.2598650902
 20
22.9569961769
 30
0.0
 11
273.0479614372
 21
22.7971135063
 31
0.0
  0
LINE
  5
1DB
330
1F
100
AcDbEntity
  8
0
  6
Continuous
 62
     7
370
    25
100
AcDbLine
 10
269.4717687431
 20
20.732621408
 30
0.0
 11
271.2598650902
 21
22.9569961769
 31
0.0
  0
LINE
  5
1DC
330
1F
100
AcDbEntity
  8
0
  6
Continuous
 62
     7
370
    25
100
AcDbLine
 10
269.4717687431
 20
20.732621408
 30
0.0
 11
269.4717687431
 21
18.3483639685
 31
0.0
  0
LINE
  5
1DD
330
1F
100
AcDbEntity
  8
0
  6
Continuous
 62
     7
370
    25
100
AcDbLine
 10
271.2598650902
 20
18.1884812979
 30
0.0
 11
269.4717687431
 21
18.3483639685
 31
0.0
  0
ARC
  5
1DE
330
1F
100
AcDbEntity
  8
0
  6
Continuous
 62
     7
370
    25
100
AcDbCircle
 10
266.9299488753
 20
23.0760696845
 30
0.0
 40
4.016582236068636
100
AcDbArc
 50
320.575219483
 51
352.0264209578
  0
ARC
  5
1DF
330
1F
100
AcDbEntity
  8
0
  6
Continuous
 62
     7
370
    25
100
AcDbCircle
 10
267.2195243526
 20
22.7605843861
 30
0.0
 40
3.593041167560453
100
AcDbArc
 50
308.8170289619
 51
321.5288581364
  0
LINE
  5
1E0
330
1F
100
AcDbEntity
  8
0
  6
Continuous
 62
     7
370
    25
100
AcDbLine
 10
269.471769237
 20
19.220727062
 30
0.0
 11
271.2598650902
 21
18.1884812979
 31
0.0
  0
LINE
  5
1E1
330
1F
100
AcDbEntity
  8
0
  6
Continuous
 62
     7
370
    25
100
AcDbLine
 10
270.9266420631
 20
21.637467675
 30
0.0
 11
273.0479614372
 21
20.4128560669
 31
0.0
  0
LINE
  5
1E2
330
1F
100
AcDbEntity
  8
0
  6
Continuous
 62
     7
370
    25
100
AcDbLine
 10
270.9266420631
 20
21.637467675
 30
0.0
 11
270.9266420631
 21
22.5424681595
 31
0.0
  0
LINE
  5
1E3
330
1F
100
AcDbEntity
  8
0
  6
Continuous
 62
     7
370
    25
100
AcDbLine
 10
269.4717697927
 20
19.8276203197
 30
0.0
 11
270.0325938895
 21
20.525280243
 31
0.0
  0
LINE
  5
1E4
330
1F
100
AcDbEntity
  8
0
  6
Continuous
 62
     7
370
    25
100
AcDbLine
 10
270.0325938895
 20
20.525280243
 30
0.0
 11
270.9266420631
 21
21.637467675
 31
0.0
  0
ARC
  5
1E5
330
1F
100
AcDbEntity
  8
0
  6
Continuous
 62
     7
370
    25
100
AcDbCircle
 10
262.1828013732
 20
36.5302648913
 30
0.0
 40
5.202964868997844
100
AcDbArc
 50
26.3223805388
 51
93.5116871928
  0
ARC
  5
1E6
330
1F
100
AcDbEntity
  8
0
  6
Continuous
 62
     7
370
    25
100
AcDbCircle
 10
252.8937240458
 20
20.4401730038
 30
0.0
 40
5.189705811513565
100
AcDbArc
 50
206.5473979359
 51
273.4061053759
  0
SPLINE
  5
1E7
330
1F
100
AcDbEntity
  8
0
  6
Continuous
 62
     7
370
    25
100
AcDbSpline
210
0.0
220
0.0
230
1.0
 70
    11
 71
     3
 72
    84
 73
    80
 74
     0
 42
0.000000001
 43
0.00000001
 40
0.0
 40
0.0
 40
0.0
 40
0.0
 40
0.0312500000000013
 40
0.0312500000000013
 40
0.0468750000000013
 40
0.0468750000000013
 40
0.0625000000000014
 40
0.0625000000000014
 40
0.0937500000000026
 40
0.0937500000000026
 40
0.1250000000000038
 40
0.1250000000000038
 40
0.156250000000005
 40
0.156250000000005
 40
0.1718750000000052
 40
0.1718750000000052
 40
0.1875000000000055
 40
0.1875000000000055
 40
0.218750000000006
 40
0.218750000000006
 40
0.2500000000000064
 40
0.2500000000000064
 40
0.2656250000000067
 40
0.2656250000000067
 40
0.2812500000000069
 40
0.2812500000000069
 40
0.3125000000000075
 40
0.3125000000000075
 40
0.3281250000000079
 40
0.3281250000000079
 40
0.3437500000000083
 40
0.3437500000000083
 40
0.3750000000000082
 40
0.3750000000000082
 40
0.4062500000000082
 40
0.4062500000000082
 40
0.4375000000000082
 40
0.4375000000000082
 40
0.4687500000000081
 40
0.4687500000000081
 40
0.500000000000008
 40
0.500000000000008
 40
0.5312500000000081
 40
0.5312500000000081
 40
0.562500000000008
 40
0.562500000000008
 40
0.593750000000008
 40
0.593750000000008
 40
0.6250000000000079
 40
0.6250000000000079
 40
0.6406250000000079
 40
0.6406250000000079
 40
0.6562500000000079
 40
0.6562500000000079
 40
0.6875000000000071
 40
0.6875000000000071
 40
0.7187500000000064
 40
0.7187500000000064
 40
0.7500000000000057
 40
0.7500000000000057
 40
0.781250000000005
 40
0.781250000000005
 40
0.7968750000000047
 40
0.7968750000000047
 40
0.8125000000000043
 40
0.8125000000000043
 40
0.8437500000000036
 40
0.8437500000000036
 40
0.8593750000000032
 40
0.8593750000000032
 40
0.8750000000000029
 40
0.8750000000000029
 40
0.9062500000000021
 40
0.9062500000000021
 40
0.9375000000000014
 40
0.9375000000000014
 40
0.9687500000000007
 40
0.9687500000000007
 40
1.0
 40
1.0
 40
1.0
 40
1.0
 10
255.4137201181642
 20
43.58412252077937
 30
0.0
 10
255.2830299065568
 20
43.65956837403016
 30
0.0
 10
255.1423606524516
 20
43.72955622780319
 30
0.0
 10
254.9169298382458
 20
43.8264306249198
 30
0.0
 10
254.8393639419059
 20
43.85735678979415
 30
0.0
 10
254.6792645741165
 20
43.9163195172292
 30
0.0
 10
254.5963016552212
 20
43.94447589323719
 30
0.0
 10
254.3444868675782
 20
44.02272960502941
 30
0.0
 10
254.1719035107551
 20
44.0670868427806
 30
0.0
 10
253.8172109667465
 20
44.13891844086964
 30
0.0
 10
253.6331444033512
 20
44.16646693333919
 30
0.0
 10
253.2692303875317
 20
44.20012966919184
 30
0.0
 10
253.0883557087236
 20
44.20666740424718
 30
0.0
 10
252.8185781382386
 20
44.19941484324717
 30
0.0
 10
252.7283783314285
 20
44.19407276462758
 30
0.0
 10
252.5517662400785
 20
44.17748647587324
 30
0.0
 10
252.4653056049043
 20
44.16628619724285
 30
0.0
 10
252.2113375886443
 20
44.12388674618823
 30
0.0
 10
252.0491859356141
 20
44.08397102399208
 30
0.0
 10
251.739906067154
 20
43.97860585039623
 30
0.0
 10
251.5977515835319
 20
43.91476983952235
 30
0.0
 10
251.4040743278372
 20
43.8032817963117
 30
0.0
 10
251.3427088404976
 20
43.76345064210776
 30
0.0
 10
251.2265274647816
 20
43.67833665738118
 30
0.0
 10
251.1717383401936
 20
43.63298981810912
 30
0.0
 10
251.0210972538168
 20
43.49205195430604
 30
0.0
 10
250.9373748312432
 20
43.39061030569388
 30
0.0
 10
250.83661288102
 20
43.22799485119307
 30
0.0
 10
250.8070908967163
 20
43.17173025570559
 30
0.0
 10
250.7576109719685
 20
43.05802799876292
 30
0.0
 10
250.7375072489484
 20
43.00044797183226
 30
0.0
 10
250.6906830501454
 20
42.82583805793268
 30
0.0
 10
250.6773527984519
 20
42.70635457112721
 30
0.0
 10
250.6872315878461
 20
42.46634332659889
 30
0.0
 10
250.7101447695698
 20
42.34843670145244
 30
0.0
 10
250.7901826253908
 20
42.11803961125667
 30
0.0
 10
250.848228535874
 20
42.00450471893798
 30
0.0
 10
250.9948338353474
 20
41.79201403292064
 30
0.0
 10
251.0832169501284
 20
41.69244967466949
 30
0.0
 10
251.2899036578573
 20
41.50739625763819
 30
0.0
 10
251.4086120823096
 20
41.42212078950111
 30
0.0
 10
251.6664720881859
 20
41.27309261493557
 30
0.0
 10
251.8066487631534
 20
41.20828753005835
 30
0.0
 10
252.1102660258835
 20
41.09845213489854
 30
0.0
 10
252.2710462643936
 20
41.05456645380008
 30
0.0
 10
252.6039339259388
 20
40.98927353602901
 30
0.0
 10
252.7779207384437
 20
40.96746390099636
 30
0.0
 10
253.1361707307919
 20
40.94608440846789
 30
0.0
 10
253.3163992567025
 20
40.94662428714749
 30
0.0
 10
253.5885047460852
 20
40.96290005955873
 30
0.0
 10
253.6795023745556
 20
40.97092139843456
 30
0.0
 10
253.8621342358499
 20
40.99214690954334
 30
0.0
 10
253.9538951634889
 20
41.00540735223155
 30
0.0
 10
254.223796953644
 20
41.05187075981009
 30
0.0
 10
254.3987378650714
 20
41.09188171991443
 30
0.0
 10
254.7386509752468
 20
41.1888131357206
 30
0.0
 10
254.9043059761479
 20
41.24626904077871
 30
0.0
 10
255.209811796832
 20
41.37235979582159
 30
0.0
 10
255.3517509610014
 20
41.44147298577615
 30
0.0
 10
255.6131930942038
 20
41.5919526332594
 30
0.0
 10
255.7292302239444
 20
41.67145641473076
 30
0.0
 10
255.8793741051957
 20
41.79526823826044
 30
0.0
 10
255.9255751770085
 20
41.83740601018475
 30
0.0
 10
256.0101393339096
 20
41.92355150842653
 30
0.0
 10
256.0485104679052
 20
41.96764974225942
 30
0.0
 10
256.1492482798562
 20
42.09996115218335
 30
0.0
 10
256.1984266588349
 20
42.18914473970153
 30
0.0
 10
256.2457183479384
 20
42.32543134222203
 30
0.0
 10
256.2570518716115
 20
42.37153411804483
 30
0.0
 10
256.2703553216004
 20
42.46317700941527
 30
0.0
 10
256.2724057818422
 20
42.50878046907251
 30
0.0
 10
256.265205971644
 20
42.64527303159736
 30
0.0
 10
256.2426558991834
 20
42.73600977998515
 30
0.0
 10
256.1617774813232
 20
42.91762438768764
 30
0.0
 10
256.1046486758236
 20
43.00597841895256
 30
0.0
 10
255.9587622847613
 20
43.17937215057113
 30
0.0
 10
255.8689672232712
 20
43.26515473566459
 30
0.0
 10
255.6615699439522
 20
43.42981736341466
 30
0.0
 10
255.5444103297716
 20
43.50867666752858
 30
0.0
 10
255.4137201181642
 20
43.58412252077937
 30
0.0
  0
LINE
  5
1E8
330
1F
100
AcDbEntity
  8
0
  6
Continuous
 62
     7
370
    25
100
AcDbLine
 10
253.6418278194
 20
47.4442806859
 30
0.0
 11
254.0604217577
 21
47.1733464787
 31
0.0
  0
LWPOLYLINE
  5
1E9
330
1F
100
AcDbEntity
  8
0
  6
Continuous
 62
     7
370
    25
100
AcDbPolyline
 90
       15
 70
   128
 43
0.0
 10
255.3302714005
 20
46.5108682586
 10
255.3200264236
 20
46.5172862168
 10
255.0104933827
 20
46.6857327108
 10
254.6167160356
 20
46.8885907927
 10
254.1562439349
 20
47.1232099191
 10
253.661553203
 20
47.3820472888
 10
253.1940656277
 20
47.6431293678
 10
252.831224726
 20
47.8689928748
 10
252.6363791868
 20
48.0159771124
 10
252.6347828749
 20
48.0506241691
 10
252.798710408
 20
47.9721870258
 10
253.0734051273
 20
47.8088945602
 10
253.4250217965
 20
47.5850689176
 10
253.6418278194
 20
47.4442806859
 10
253.6418278194
 20
47.4442806859
  0
SPLINE
  5
1EA
330
1F
100
AcDbEntity
  8
0
  6
Continuous
 62
     7
370
    25
100
AcDbSpline
210
0.0
220
0.0
230
1.0
 70
     8
 71
     3
 72
    20
 73
    16
 74
     0
 42
0.000000001
 43
0.00000001
 40
0.0
 40
0.0
 40
0.0
 40
0.0
 40
0.0725824413211112
 40
0.1391799762685581
 40
0.2172384580466185
 40
0.2896919280368151
 40
0.3604925201538772
 40
0.4346607052425353
 40
0.5152402994454727
 40
0.6024940759158159
 40
0.6940831227830431
 40
0.7864233633696257
 40
0.8754117364462645
 40
0.9571596032124776
 40
1.0
 40
1.0
 40
1.0
 40
1.0
 10
239.6205795514583
 20
22.16598813561608
 30
0.0
 10
239.4716551462965
 20
22.24218173927043
 30
0.0
 10
239.186086146426
 20
22.38828627578656
 30
0.0
 10
238.7643048982569
 20
22.60250628224274
 30
0.0
 10
238.414827278372
 20
22.78824215759259
 30
0.0
 10
238.1899053021309
 20
22.92318285183615
 30
0.0
 10
238.1141835784169
 20
22.98969755203487
 30
0.0
 10
238.1822485309559
 20
22.98298833159423
 30
0.0
 10
238.3978817632224
 20
22.89018930730843
 30
0.0
 10
238.7576131323797
 20
22.69925439738506
 30
0.0
 10
239.231179084506
 20
22.41687038435751
 30
0.0
 10
239.7614067328796
 20
22.07782569111393
 30
0.0
 10
240.2618832826291
 20
21.75067204017542
 30
0.0
 10
240.6347545950214
 20
21.51091902879886
 30
0.0
 10
240.773067673632
 20
21.43190926666481
 30
0.0
 10
240.8206274276535
 20
21.40474130185526
 30
0.0
  0
SPLINE
  5
1EB
330
1F
100
AcDbEntity
  8
0
  6
Continuous
 62
     7
370
    25
100
AcDbSpline
210
0.0
220
0.0
230
1.0
 70
    11
 71
     3
 72
    70
 73
    66
 74
     0
 42
0.000000001
 43
0.00000001
 40
0.0
 40
0.0
 40
0.0
 40
0.0
 40
0.03125
 40
0.03125
 40
0.0625
 40
0.0625
 40
0.09375
 40
0.09375
 40
0.125
 40
0.125
 40
0.15625
 40
0.15625
 40
0.1875
 40
0.1875
 40
0.21875
 40
0.21875
 40
0.25
 40
0.25
 40
0.28125
 40
0.28125
 40
0.3125
 40
0.3125
 40
0.34375
 40
0.34375
 40
0.375
 40
0.375
 40
0.40625
 40
0.40625
 40
0.4375
 40
0.4375
 40
0.46875
 40
0.46875
 40
0.5
 40
0.5
 40
0.53125
 40
0.53125
 40
0.5625
 40
0.5625
 40
0.59375
 40
0.59375
 40
0.625
 40
0.625
 40
0.65625
 40
0.65625
 40
0.6875
 40
0.6875
 40
0.71875
 40
0.71875
 40
0.75
 40
0.75
 40
0.78125
 40
0.78125
 40
0.8125
 40
0.8125
 40
0.84375
 40
0.84375
 40
0.875
 40
0.875
 40
0.90625
 40
0.90625
 40
0.9375
 40
0.9375
 40
0.96875
 40
0.96875
 40
1.0
 40
1.0
 40
1.0
 40
1.0
 10
238.4271535019481
 20
39.67438169545294
 30
0.0
 10
238.4896452260617
 20
39.76568273183987
 30
0.0
 10
238.5598683499905
 20
39.84885115019996
 30
0.0
 10
238.7147377594318
 20
39.99996442683001
 30
0.0
 10
238.8001109500258
 20
40.06811437514421
 30
0.0
 10
238.9772974611263
 20
40.18373721495153
 30
0.0
 10
239.070139723403
 20
40.23223566415807
 30
0.0
 10
239.262275900291
 20
40.31049864168045
 30
0.0
 10
239.3590956986654
 20
40.33932336976557
 30
0.0
 10
239.5538321238659
 20
40.37817799975767
 30
0.0
 10
239.6525916577986
 20
40.38809678005074
 30
0.0
 10
239.8444308806132
 20
40.38898844171488
 30
0.0
 10
239.9380453773043
 20
40.38022428558106
 30
0.0
 10
240.1205662157329
 20
40.34481989669256
 30
0.0
 10
240.2093435988356
 20
40.31797036949182
 30
0.0
 10
240.3755533955561
 20
40.24851527069519
 30
0.0
 10
240.4538863319374
 20
40.20578223517391
 30
0.0
 10
240.6008051889365
 20
40.10399259292407
 30
0.0
 10
240.6686394331334
 20
40.04523559818458
 30
0.0
 10
240.7894739179768
 20
39.9154933627588
 30
0.0
 10
240.8431147314506
 20
39.84409673836397
 30
0.0
 10
240.9362797339513
 20
39.6873816473006
 30
0.0
 10
240.9749820217574
 20
39.60314303267035
 30
0.0
 10
241.0349748197314
 20
39.42670673190378
 30
0.0
 10
241.056632601859
 20
39.33394348572955
 30
0.0
 10
241.0819816955903
 20
39.13821169024281
 30
0.0
 10
241.085239842506
 20
39.03788122275105
 30
0.0
 10
241.0729257037865
 20
38.8347154940618
 30
0.0
 10
241.0571924227325
 20
38.73054513269643
 30
0.0
 10
241.0059421606406
 20
38.52234651646858
 30
0.0
 10
240.9711507612316
 20
38.42057403553348
 30
0.0
 10
240.8833037650587
 20
38.22160639559698
 30
0.0
 10
240.8294367952512
 20
38.1235176167174
 30
0.0
 10
240.7081118569506
 20
37.94187747742701
 30
0.0
 10
240.6403499880757
 20
37.85718279646208
 30
0.0
 10
240.4903273967263
 20
37.70026106229785
 30
0.0
 10
240.4108084139287
 20
37.63089941751772
 30
0.0
 10
240.2433063215773
 20
37.50914196105866
 30
0.0
 10
240.1545565985876
 20
37.45656663289454
 30
0.0
 10
239.9754842058526
 20
37.37214424538156
 30
0.0
 10
239.8844473859654
 20
37.33962531551185
 30
0.0
 10
239.6990987228716
 20
37.293629879009
 30
0.0
 10
239.6068936037736
 20
37.28073935964124
 30
0.0
 10
239.4247897731524
 20
37.27413523501968
 30
0.0
 10
239.3338397527959
 20
37.28052162237771
 30
0.0
 10
239.1572797439008
 20
37.31222305775147
 30
0.0
 10
239.0722182565597
 20
37.33724561803341
 30
0.0
 10
238.9082016174848
 20
37.40511633393319
 30
0.0
 10
238.8285657946381
 20
37.44852711089077
 30
0.0
 10
238.680454696865
 20
37.55093833178849
 30
0.0
 10
238.6116648186854
 20
37.60984665337589
 30
0.0
 10
238.4847523395914
 20
37.74307273402339
 30
0.0
 10
238.4262264641992
 20
37.8182200950282
 30
0.0
 10
238.3248325613898
 20
37.97910926892754
 30
0.0
 10
238.2814517872971
 20
38.06513431804317
 30
0.0
 10
238.2101483757357
 20
38.24862585638783
 30
0.0
 10
238.1822120059592
 20
38.34702486852964
 30
0.0
 10
238.1457488856918
 20
38.54732444055388
 30
0.0
 10
238.1367366542003
 20
38.65002585691344
 30
0.0
 10
238.1387715359983
 20
38.86072958061322
 30
0.0
 10
238.1501819984403
 20
38.96876941680179
 30
0.0
 10
238.1935956432571
 20
39.17893908662278
 30
0.0
 10
238.2255141433512
 20
39.28248816476263
 30
0.0
 10
238.3116931816589
 20
39.4861642556473
 30
0.0
 10
238.3646617778346
 20
39.58308065906601
 30
0.0
 10
238.4271535019481
 20
39.67438169545294
 30
0.0
  0
LWPOLYLINE
  5
1EC
330
1F
100
AcDbEntity
  8
0
  6
Continuous
 62
     7
370
    25
100
AcDbPolyline
 90
       20
 70
   128
 43
0.0
 10
252.4758948536
 20
25.900012528
 10
252.508556027
 20
26.2078244517
 10
252.6962086139
 20
27.2421620422
 10
253.0040719152
 20
28.3019651906
 10
253.4249299295
 20
29.3623931032
 10
253.9489179894
 20
30.3985902154
 10
254.5637542399
 20
31.3862684949
 10
255.2550275867
 20
32.302278047
 10
256.0065352009
 20
33.125148342
 10
256.8006622516
 20
33.8355922243
 10
257.6187951224
 20
34.4169570059
 10
258.4417574704
 20
34.855616124
 10
259.2502597245
 20
35.1412879459
 10
260.0253512993
 20
35.2672762946
 10
260.748864845
 20
35.2306288092
 10
261.4038413588
 20
35.0322036474
 10
261.9749295098
 20
34.6766521
 10
262.4487427344
 20
34.172307815
 10
262.8141756673
 20
33.5309924697
 10
262.9541140703
 20
33.1615643372
  0
ARC
  5
1ED
330
1F
100
AcDbEntity
  8
0
  6
Continuous
 62
     7
370
    25
100
AcDbCircle
 10
255.4607305384
 20
24.3297373286
 30
0.0
 40
2.955008708654396
100
AcDbArc
 50
234.9310623101
 51
284.581261681
  0
LINE
  5
1EE
330
1F
100
AcDbEntity
  8
0
  6
Continuous
 62
     7
370
    25
100
AcDbLine
 10
268.3413420277
 20
30.0515840147
 30
0.0
 11
268.4406943327
 21
29.9907484974
 31
0.0
  0
ARC
  5
1EF
330
1F
100
AcDbEntity
  8
0
  6
Continuous
 62
     7
370
    25
100
AcDbCircle
 10
256.7258353558
 20
24.2338171586
 30
0.0
 40
2.655303920559989
100
AcDbArc
 50
199.9339097599
 51
238.3873645927
  0
LWPOLYLINE
  5
1F0
330
1F
100
AcDbEntity
  8
0
  6
Continuous
 62
     7
370
    25
100
AcDbPolyline
 90
       16
 70
   128
 43
0.0
 10
253.9381471647
 20
24.8896957113
 10
253.9644639204
 20
25.683223246
 10
254.1113338336
 20
26.6455442171
 10
254.3790970428
 20
27.6387055864
 10
254.7607127192
 20
28.6365911996
 10
255.2461459616
 20
29.6129606104
 10
255.8226312141
 20
30.5421389376
 10
256.4750094406
 20
31.3996926002
 10
257.1861255566
 20
32.1630709204
 10
257.9372801909
 20
32.8122001929
 10
258.7087206303
 20
33.3300108299
 10
259.4801610696
 20
33.7028863654
 10
260.231315704
 20
33.9210217734
 10
260.94243182
 20
33.9786806446
 10
261.5948100465
 20
33.8743468495
 10
262.0834464494
 20
33.6641902355
  0
LWPOLYLINE
  5
1F1
330
1F
100
AcDbEntity
  8
0
  6
Continuous
 62
     7
370
    25
100
AcDbPolyline
 90
       17
 70
   128
 43
0.0
 10
262.0069963468
 20
25.0575467482
 10
262.0635129657
 20
25.4182736716
 10
262.22445828
 20
25.789335753
 10
262.4653304827
 20
26.1142420243
 10
262.7494585228
 20
26.3435289561
 10
263.0335863984
 20
26.4422891818
 10
263.2744584364
 20
26.395487941
 10
263.4354039154
 20
26.2102494591
 10
263.4919205343
 20
25.9147752351
 10
263.4354039154
 20
25.5540485018
 10
263.2744584364
 20
25.1829865155
 10
263.0335863984
 20
24.8580801491
 10
262.7494585228
 20
24.6287933123
 10
262.4653304827
 20
24.5300329916
 10
262.22445828
 20
24.5768343275
 10
262.0635129657
 20
24.7620727143
 10
262.0069963468
 20
25.0575467482
  0
LINE
  5
1F2
330
1F
100
AcDbEntity
  8
0
  6
Continuous
 62
     7
370
    25
100
AcDbLine
 10
263.3417483496
 20
21.3910951711
 30
0.0
 11
263.2962689366
 21
21.4188622277
 31
0.0
  0
ARC
  5
1F3
330
1F
100
AcDbEntity
  8
0
  6
Continuous
 62
     7
370
    25
100
AcDbCircle
 10
263.5540944217
 20
24.9746525643
 30
0.0
 40
10.73461181856406
100
AcDbArc
 50
122.0266084781
 51
167.7064686871
  0
LINE
  5
1F4
330
1F
100
AcDbEntity
  8
0
  6
Continuous
 62
     7
370
    25
100
AcDbLine
 10
254.4172317089
 20
22.8297815989
 30
0.0
 11
254.1966548601
 21
23.1183846554
 31
0.0
  0
LWPOLYLINE
  5
1F5
330
1F
100
AcDbEntity
  8
0
  6
Continuous
 62
     7
370
    25
100
AcDbPolyline
 90
       16
 70
   128
 43
0.0
 10
253.6219259458
 20
25.1474606842
 10
253.6182430357
 20
25.4826419764
 10
253.6944458549
 20
26.3996995909
 10
253.8926035437
 20
27.3612227294
 10
254.207439185
 20
28.3416051408
 10
254.63056819
 20
29.3147383544
 10
255.1507222038
 20
30.2547064718
 10
255.7540490719
 20
31.1364773052
 10
256.4244816254
 20
31.9365685076
 10
257.1441654055
 20
32.6336728235
 10
257.8939346679
 20
33.209225659
 10
258.6538221787
 20
33.6478993815
 10
259.4035914411
 20
33.9380117103
 10
260.1232752212
 20
34.0718366
 10
260.7937077747
 20
34.0458103474
 10
260.882629064
 20
34.0293919749
  0
LWPOLYLINE
  5
1F6
330
1F
100
AcDbEntity
  8
0
  6
Continuous
 62
     7
370
    25
100
AcDbPolyline
 90
        3
 70
   128
 43
0.0
 10
261.1047933343
 20
34.0196511474
 10
261.115094946
 20
34.0146805558
 10
261.2534920256
 20
33.9412452577
  0
LINE
  5
1F7
330
1F
100
AcDbEntity
  8
0
  6
Continuous
 62
     7
370
    25
100
AcDbLine
 10
254.6790261998
 20
22.5527029774
 30
0.0
 11
254.5812376088
 21
22.6126176174
 31
0.0
  0
SPLINE
  5
1F8
330
1F
100
AcDbEntity
  8
0
  6
Continuous
 62
     7
370
    25
100
AcDbSpline
210
0.0
220
0.0
230
1.0
 70
     8
 71
     3
 72
    14
 73
    10
 74
     0
 42
0.000000001
 43
0.00000001
 40
0.0
 40
0.0
 40
0.0
 40
0.0
 40
0.25
 40
0.25
 40
0.5
 40
0.5
 40
0.75
 40
0.75
 40
1.0
 40
1.0
 40
1.0
 40
1.0
 10
215.8229260521137
 20
37.57530038642853
 30
0.0
 10
215.7757529448813
 20
37.5480679312824
 30
0.0
 10
215.7201888801825
 20
37.52632357314145
 30
0.0
 10
215.5982634080635
 20
37.49607814573544
 30
0.0
 10
215.5321668871877
 20
37.48777911562512
 30
0.0
 10
215.3999749580509
 20
37.48634649984536
 30
0.0
 10
215.3330398065202
 20
37.49329647402697
 30
0.0
 10
215.2104293148499
 20
37.52150582763639
 30
0.0
 10
215.1534938600462
 20
37.54308167194404
 30
0.0
 10
215.106751316674
 20
37.57006556786443
 30
0.0
  0
SPLINE
  5
1F9
330
1F
100
AcDbEntity
  8
0
  6
Continuous
 62
     7
370
    25
100
AcDbSpline
210
0.0
220
0.0
230
1.0
 70
     8
 71
     3
 72
    12
 73
     8
 74
     0
 42
0.000000001
 43
0.00000001
 40
0.0
 40
0.0
 40
0.0
 40
0.0
 40
0.2500000000000032
 40
0.2500000000000032
 40
0.5000000000000064
 40
0.5000000000000064
 40
1.0
 40
1.0
 40
1.0
 40
1.0
 10
243.4352144727537
 20
65.33529016301873
 30
0.0
 10
243.4889864917018
 20
65.30424823722599
 30
0.0
 10
243.54147476682
 20
65.25527360796917
 30
0.0
 10
243.6324806937585
 20
65.13854273311965
 30
0.0
 10
243.6710550472878
 20
65.07109126778651
 30
0.0
 10
243.7608786365841
 20
64.86677404077963
 30
0.0
 10
243.788767863347
 20
64.72641121158222
 30
0.0
 10
243.788767863347
 20
64.60359448652753
 30
0.0
  0
LINE
  5
1FA
330
1F
100
AcDbEntity
  8
0
  6
Continuous
 62
     7
370
    25
100
AcDbLine
 10
243.7649186782
 20
55.1671552007
 30
0.0
 11
243.8028712567
 21
55.1217615107
 31
0.0
  0
LINE
  5
1FB
330
1F
100
AcDbEntity
  8
0
  6
Continuous
 62
     7
370
    25
100
AcDbLine
 10
227.6121607184
 20
27.0722913926
 30
0.0
 11
227.5443359024
 21
27.0841556547
 31
0.0
  0
LINE
  5
1FC
330
1F
100
AcDbEntity
  8
0
  6
Continuous
 62
     7
370
    25
100
AcDbLine
 10
215.1067508575
 20
37.5700652711
 30
0.0
 11
213.4493029907
 21
38.526889558
 31
0.0
  0
LWPOLYLINE
  5
1FD
330
1F
100
AcDbEntity
  8
0
  6
Continuous
 62
     7
370
    25
100
AcDbPolyline
 90
       25
 70
   128
 43
0.0
 10
213.4493029907
 20
38.526889558
 10
213.8387754324
 20
40.4153108906
 10
214.3483690264
 20
42.3292147097
 10
214.9744512414
 20
44.2549613137
 10
215.712562414
 20
46.178826667
 10
216.5574407734
 20
48.0871008778
 10
217.5030645887
 20
49.9661821114
 10
218.5426956326
 20
51.802680009
 10
219.6689246207
 20
53.5835065589
 10
220.8737252126
 20
55.2959703885
 10
222.1485106465
 20
56.9278657334
 10
223.4841969594
 20
58.467565208
 10
224.8712642318
 20
59.9040931842
 10
226.2998277108
 20
61.2272139984
 10
227.7597062983
 20
62.4274973452
 10
229.2404954849
 20
63.4963892787
 10
230.7316425064
 20
64.4262708081
 10
232.2225203479
 20
65.2105173503
 10
233.7025038053
 20
65.843536555
 10
235.1610458767
 20
66.3208215306
 10
236.5877516016
 20
66.6389660933
 10
237.9724533822
 20
66.795706729
 10
239.3052822705
 20
66.7899242019
 10
240.5767407375
 20
66.6216612285
 10
241.7777672108
 20
66.2921141068
  0
LINE
  5
1FE
330
1F
100
AcDbEntity
  8
0
  6
Continuous
 62
     7
370
    25
100
AcDbLine
 10
241.7777672108
 20
66.2921141068
 30
0.0
 11
243.4352150776
 21
65.3352898199
 31
0.0
  0
LINE
  5
1FF
330
1F
100
AcDbEntity
  8
0
  6
Continuous
 62
     7
370
    25
100
AcDbLine
 10
248.2258636139
 20
55.8728475049
 30
0.0
 11
249.6643803346
 21
56.7032855314
 31
0.0
  0
LINE
  5
200
330
1F
100
AcDbEntity
  8
0
  6
Continuous
 62
     7
370
    25
100
AcDbLine
 10
248.2258636139
 20
50.9052950574
 30
0.0
 11
248.2258636139
 21
55.8728475049
 31
0.0
  0
LINE
  5
201
330
1F
100
AcDbEntity
  8
0
  6
Continuous
 62
     7
370
    25
100
AcDbLine
 10
215.822926571
 20
28.5933517053
 30
0.0
 11
217.1838746512
 21
29.3790103088
 31
0.0
  0
LINE
  5
202
330
1F
100
AcDbEntity
  8
0
  6
Continuous
 62
     7
370
    25
100
AcDbLine
 10
217.1838746512
 20
29.3790103088
 30
0.0
 11
217.1838746512
 21
38.3609591909
 31
0.0
  0
LINE
  5
203
330
1F
100
AcDbEntity
  8
0
  6
Continuous
 62
     7
370
    25
100
AcDbLine
 10
217.1838746512
 20
38.3609591909
 30
0.0
 11
215.822926571
 21
37.5753005874
 31
0.0
  0
LINE
  5
204
330
1F
100
AcDbEntity
  8
0
  6
Continuous
 62
     7
370
    25
100
AcDbLine
 10
243.7887685261
 20
64.6035953348
 30
0.0
 11
243.7887685261
 21
62.0279409826
 31
0.0
  0
LINE
  5
205
330
1F
100
AcDbEntity
  8
0
  6
Continuous
 62
     7
370
    25
100
AcDbLine
 10
246.0192297987
 20
63.3155588676
 30
0.0
 11
243.7887685261
 21
62.0279409826
 31
0.0
  0
LWPOLYLINE
  5
206
330
1F
100
AcDbEntity
  8
0
  6
Continuous
 62
     7
370
    25
100
AcDbPolyline
 90
       17
 70
   128
 43
0.0
 10
239.1163412413
 20
37.6867972374
 10
239.5021660049
 20
37.5739326554
 10
239.9244003773
 20
37.6430580972
 10
240.3187671217
 20
37.8836469761
 10
240.6252267354
 20
38.2590725167
 10
240.79712134
 20
38.7121807837
 10
240.8082836694
 20
39.1739888625
 10
240.6570153374
 20
39.5741903684
 10
240.3663410355
 20
39.8518603841
 10
239.9805189061
 20
39.9647234454
 10
239.5582845337
 20
39.8955980037
 10
239.1639177893
 20
39.6550091248
 10
238.8574588342
 20
39.2795832039
 10
238.685563571
 20
38.8264753172
 10
238.6744012416
 20
38.3646672383
 10
238.8256695737
 20
37.9644657324
 10
239.1163412413
 20
37.6867972374
  0
LWPOLYLINE
  5
207
330
1F
100
AcDbEntity
  8
0
  6
Continuous
 62
     7
370
    25
100
AcDbPolyline
 90
       22
 70
   128
 43
0.0
 10
212.4705175081
 20
40.0730919974
 10
212.8831180329
 20
41.9832919577
 10
213.4233168244
 20
43.917948599
 10
214.0868017333
 20
45.8616158037
 10
214.8682780617
 20
47.7987775839
 10
215.7615028076
 20
49.7139651891
 10
216.7593478854
 20
51.5918901818
 10
217.8538435893
 20
53.4175569816
 10
219.0362543265
 20
55.1763932776
 10
220.2971385443
 20
56.8543538259
 10
221.6264297315
 20
58.4380424962
 10
223.0135147846
 20
59.9148153076
 10
224.4473192901
 20
61.2728828923
 10
225.9163967565
 20
62.5014015533
 10
227.4090175184
 20
63.5905641309
 10
228.9132648166
 20
64.5316737202
 10
230.4171291404
 20
65.3172179055
 10
231.9086035409
 20
65.9409237837
 10
233.3757804478
 20
66.3978123342
 10
234.8069464947
 20
66.6842349097
 10
236.190674288
 20
66.7979049198
 10
237.4018199562
 20
66.7501714682
  0
SPLINE
  5
208
330
1F
100
AcDbEntity
  8
0
  6
Continuous
 62
     7
370
    25
100
AcDbSpline
210
0.0
220
0.0
230
1.0
 70
     8
 71
     3
 72
     8
 73
     4
 74
     0
 42
0.000000001
 43
0.00000001
 40
0.0
 40
0.0
 40
0.0
 40
0.0
 40
1.0
 40
1.0
 40
1.0
 40
1.0
 10
212.4705176910105
 20
40.07309228086813
 30
0.0
 10
212.0279813371651
 20
40.00140575043888
 30
0.0
 10
211.5853721471135
 20
39.92986958483711
 30
0.0
 10
211.142700440897
 20
39.8584634285324
 30
0.0
  0
LWPOLYLINE
  5
209
330
1F
100
AcDbEntity
  8
0
  6
Continuous
 62
     7
370
    25
100
AcDbPolyline
 90
       25
 70
   128
 43
0.0
 10
211.1427001436
 20
39.8584630383
 10
211.5321725852
 20
41.7468843709
 10
212.0417661793
 20
43.6607881901
 10
212.6678483943
 20
45.5865347941
 10
213.4059595668
 20
47.5104001473
 10
214.2508379263
 20
49.4186743581
 10
215.1964617416
 20
51.2977555917
 10
216.2360927855
 20
53.1342534894
 10
217.3623217736
 20
54.9150800392
 10
218.5671223655
 20
56.6275438688
 10
219.8419077994
 20
58.2594392138
 10
221.1775941122
 20
59.7991386883
 10
222.5646613847
 20
61.2356666645
 10
223.9932248637
 20
62.5587874787
 10
225.4531034512
 20
63.7590708256
 10
226.9338926377
 20
64.827962759
 10
228.4250396593
 20
65.7578442885
 10
229.9159175008
 20
66.5420908306
 10
231.3959009582
 20
67.1751100354
 10
232.8544430295
 20
67.6523950109
 10
234.2811487545
 20
67.9705395737
 10
235.6658505351
 20
68.1272802094
 10
236.9986794233
 20
68.1214976822
 10
238.2701378903
 20
67.9532347088
 10
239.4711643637
 20
67.6236875871
  0
LINE
  5
20A
330
1F
100
AcDbEntity
  8
0
  6
Continuous
 62
     7
370
    25
100
AcDbLine
 10
239.4711643637
 20
67.6236875871
 30
0.0
 11
239.7673394878
 21
66.6797794075
 31
0.0
  0
LINE
  5
20B
330
1F
100
AcDbEntity
  8
0
  6
Continuous
 62
     7
370
    25
100
AcDbLine
 10
235.3034870781
 20
70.029636472
 30
0.0
 11
239.4711643637
 21
67.6236875871
 31
0.0
  0
LINE
  5
20C
330
1F
100
AcDbEntity
  8
0
  6
Continuous
 62
     7
370
    25
100
AcDbLine
 10
211.1427001436
 20
39.8584630383
 30
0.0
 11
210.5105566849
 21
40.2233916893
 31
0.0
  0
SPLINE
  5
20D
330
1F
100
AcDbEntity
  8
0
  6
Continuous
 62
     7
370
    25
100
AcDbSpline
210
0.0
220
0.0
230
1.0
 70
     8
 71
     3
 72
    30
 73
    26
 74
     0
 42
0.000000001
 43
0.00000001
 40
0.0
 40
0.0
 40
0.0
 40
0.0
 40
0.1249999999999999
 40
0.1249999999999999
 40
0.1874999999999998
 40
0.1874999999999998
 40
0.2499999999999997
 40
0.2499999999999997
 40
0.3749999999999996
 40
0.3749999999999996
 40
0.4374999999999996
 40
0.4374999999999996
 40
0.4999999999999997
 40
0.4999999999999997
 40
0.6249999999999997
 40
0.6249999999999997
 40
0.6874999999999998
 40
0.6874999999999998
 40
0.7499999999999998
 40
0.7499999999999998
 40
0.8124999999999999
 40
0.8124999999999999
 40
0.875
 40
0.875
 40
1.0
 40
1.0
 40
1.0
 40
1.0
 10
210.5105572389614
 20
40.22339193128825
 30
0.0
 10
210.2762951145314
 20
40.35862857712881
 30
0.0
 10
210.0399790886786
 20
40.46224143233589
 30
0.0
 10
209.685116608543
 20
40.5714530928592
 30
0.0
 10
209.5666492305512
 20
40.60017273118034
 30
0.0
 10
209.3295122069763
 20
40.64203593173965
 30
0.0
 10
209.2105591861366
 20
40.65510254584649
 30
0.0
 10
208.8614924296326
 20
40.67017030684568
 30
0.0
 10
208.6365424376412
 20
40.64888801589291
 30
0.0
 10
208.3121830134428
 20
40.57153695424089
 30
0.0
 10
208.2057552095602
 20
40.53791296709647
 30
0.0
 10
208.0003200025636
 20
40.45607713586796
 30
0.0
 10
207.9016835159109
 20
40.40811382277607
 30
0.0
 10
207.6181177243764
 20
40.24395791162451
 30
0.0
 10
207.4454057768064
 20
40.10769946681389
 30
0.0
 10
207.2134282380893
 20
39.86281146501156
 30
0.0
 10
207.14113098956
 20
39.77476470451733
 30
0.0
 10
207.0089205359107
 20
39.58896243112999
 30
0.0
 10
206.9486405615373
 20
39.49083239701142
 30
0.0
 10
206.8398608632806
 20
39.28433417878606
 30
0.0
 10
206.7913605271191
 20
39.17596601921529
 30
0.0
 10
206.706575788619
 20
38.94888492877946
 30
0.0
 10
206.6701428404498
 20
38.82943925223564
 30
0.0
 10
206.5817378905786
 20
38.46147209831445
 30
0.0
 10
206.5500839880488
 20
38.20366638921709
 30
0.0
 10
206.5454540518756
 20
37.93372308391717
 30
0.0
  0
ARC
  5
20E
330
1F
100
AcDbEntity
  8
0
  6
Continuous
 62
     7
370
    25
100
AcDbCircle
 10
230.1081316727
 20
37.525452818
 30
0.0
 40
23.56621418191198
100
AcDbArc
 50
179.0073355702
 51
180.9926644298
  0
SPLINE
  5
20F
330
1F
100
AcDbEntity
  8
0
  6
Continuous
 62
     7
370
    25
100
AcDbSpline
210
0.0
220
0.0
230
1.0
 70
     8
 71
     3
 72
    28
 73
    24
 74
     0
 42
0.000000001
 43
0.00000001
 40
0.0
 40
0.0
 40
0.0
 40
0.0
 40
0.1250000000000002
 40
0.1250000000000002
 40
0.1875000000000002
 40
0.1875000000000002
 40
0.2500000000000002
 40
0.2500000000000002
 40
0.3750000000000003
 40
0.3750000000000003
 40
0.4375000000000002
 40
0.4375000000000002
 40
0.5000000000000002
 40
0.5000000000000002
 40
0.6250000000000001
 40
0.6250000000000001
 40
0.7500000000000001
 40
0.7500000000000001
 40
0.8125
 40
0.8125
 40
0.8749999999999998
 40
0.8749999999999998
 40
1.0
 40
1.0
 40
1.0
 40
1.0
 10
206.5454540518756
 20
37.11718227203142
 30
0.0
 10
206.5501286780558
 20
36.85003057382892
 30
0.0
 10
206.5823058266709
 20
36.57636732263142
 30
0.0
 10
206.6701489452859
 20
36.15619156582096
 30
0.0
 10
206.7060676494468
 20
36.01450320545052
 30
0.0
 10
206.791400530204
 20
35.72767773917101
 30
0.0
 10
206.8405296667059
 20
35.58367077636448
 30
0.0
 10
207.0046339185253
 20
35.15511480204049
 30
0.0
 10
207.1368361693941
 20
34.87178102174922
 30
0.0
 10
207.3679274209806
 20
34.44921553432982
 30
0.0
 10
207.4508824395489
 20
34.3081608652134
 30
0.0
 10
207.6243238988589
 20
34.03225864940899
 30
0.0
 10
207.7150623042028
 20
33.8968600925373
 30
0.0
 10
207.9986289960829
 20
33.49781191538518
 30
0.0
 10
208.2030253673831
 20
33.24087578574143
 30
0.0
 10
208.6395305475059
 20
32.74641036039633
 30
0.0
 10
208.8649563219636
 20
32.51633864677655
 30
0.0
 10
209.2119265647714
 20
32.19499538016404
 30
0.0
 10
209.329072617259
 20
32.09187594681938
 30
0.0
 10
209.5662171728995
 20
31.8937016014872
 30
0.0
 10
209.6865481081105
 20
31.79845687472528
 30
0.0
 10
210.043470910278
 20
31.53125686228213
 30
0.0
 10
210.2785693717674
 20
31.37536674562907
 30
0.0
 10
210.5105572389614
 20
31.241443000545
 30
0.0
  0
LINE
  5
210
330
1F
100
AcDbEntity
  8
0
  6
Continuous
 62
     7
370
    25
100
AcDbLine
 10
210.5105566849
 20
31.2414428072
 30
0.0
 11
211.1427001436
 21
30.8765141563
 31
0.0
  0
LWPOLYLINE
  5
211
330
1F
100
AcDbEntity
  8
0
  6
Continuous
 62
     7
370
    25
100
AcDbPolyline
 90
        9
 70
   128
 43
0.0
 10
217.0948875074
 20
23.0978932836
 10
216.2816192844
 20
23.458132425
 10
215.2322312451
 20
24.0920888796
 10
214.2777210302
 20
24.8791639997
 10
213.4249730639
 20
25.8136840862
 10
212.6801355177
 20
26.8889055378
 10
212.048583432
 20
28.0970772122
 10
211.5348699835
 20
29.4294830172
 10
211.1427001436
 20
30.8765141563
  0
LINE
  5
212
330
1F
100
AcDbEntity
  8
0
  6
Continuous
 62
     7
370
    25
100
AcDbLine
 10
241.4231166271
 20
66.496345207
 30
0.0
 11
241.7755275009
 21
66.2929027399
 31
0.0
  0
SPLINE
  5
213
330
1F
100
AcDbEntity
  8
0
  6
Continuous
 62
     7
370
    25
100
AcDbSpline
210
0.0
220
0.0
230
1.0
 70
     8
 71
     3
 72
    22
 73
    18
 74
     0
 42
0.000000001
 43
0.00000001
 40
0.0
 40
0.0
 40
0.0
 40
0.0
 40
0.2500000000000002
 40
0.2500000000000002
 40
0.3750000000000003
 40
0.3750000000000003
 40
0.5000000000000004
 40
0.5000000000000004
 40
0.6250000000000004
 40
0.6250000000000004
 40
0.7500000000000004
 40
0.7500000000000004
 40
0.8750000000000004
 40
0.8750000000000004
 40
0.9375000000000002
 40
0.9375000000000002
 40
1.0
 40
1.0
 40
1.0
 40
1.0
 10
235.3034864891085
 20
70.0296368059993
 30
0.0
 10
235.7355185846475
 20
69.86136636789286
 30
0.0
 10
236.1858932330129
 20
69.65069036301266
 30
0.0
 10
236.9108666746972
 20
69.26559612675601
 30
0.0
 10
237.1628339984166
 20
69.12447058848024
 30
0.0
 10
237.6756261115489
 20
68.82545361926306
 30
0.0
 10
237.9371474236079
 20
68.66728778190723
 30
0.0
 10
238.4747221052065
 20
68.33468784056976
 30
0.0
 10
238.7526846498693
 20
68.15899002920372
 30
0.0
 10
239.3052905686147
 20
67.80734711311035
 30
0.0
 10
239.582286493786
 20
67.62996828398764
 30
0.0
 10
240.1404740736827
 20
67.27565786467507
 30
0.0
 10
240.4106501628425
 20
67.10580002496262
 30
0.0
 10
240.802117477939
 20
66.8652310399879
 30
0.0
 10
240.9303647080469
 20
66.78736315743953
 30
0.0
 10
241.1822263472283
 20
66.63675686194107
 30
0.0
 10
241.3051185810748
 20
66.56446402273014
 30
0.0
 10
241.4231172399341
 20
66.49634484692804
 30
0.0
  0
LWPOLYLINE
  5
214
330
1F
100
AcDbEntity
  8
0
  6
Continuous
 62
     7
370
    25
100
AcDbPolyline
 90
       12
 70
   128
 43
0.0
 10
222.9624142621
 20
69.2295252899
 10
223.0164882983
 20
69.2595293887
 10
224.4940946981
 20
70.005183423
 10
225.95874016
 20
70.6009525071
 10
227.4001508545
 20
71.0426593128
 10
228.8082168065
 20
71.3272051421
 10
230.173060836
 20
71.4525929957
 10
231.4851100108
 20
71.4179444865
 10
232.7351611715
 20
71.2235026856
 10
233.9144457979
 20
70.8706315456
 10
235.0146919125
 20
70.3618044876
 10
235.1452588979
 20
70.287988552
  0
LWPOLYLINE
  5
215
330
1F
100
AcDbEntity
  8
0
  6
Continuous
 62
     7
370
    25
100
AcDbPolyline
 90
       10
 70
   128
 43
0.0
 10
210.1472913307
 20
26.9855451898
 10
209.7598090105
 20
27.2235516801
 10
208.7924005428
 20
27.9592823165
 10
207.9221682199
 20
28.8400514846
 10
207.1552154321
 20
29.8596798508
 10
206.4969198539
 20
31.0110155172
 10
205.9519018337
 20
32.285984216
 10
205.5239822465
 20
33.6756414043
 10
205.2161627384
 20
35.1702399474
 10
205.0612691189
 20
36.3977602202
  0
LINE
  5
216
330
1F
100
AcDbEntity
  8
0
  6
Continuous
 62
     7
370
    25
100
AcDbLine
 10
212.7916185419
 20
40.2584596785
 30
0.0
 11
212.4705175081
 21
40.0730919974
 31
0.0
  0
LINE
  5
217
330
1F
100
AcDbEntity
  8
0
  6
Continuous
 62
     7
370
    25
100
AcDbLine
 10
213.7522677087
 20
40.0400453702
 30
0.0
 11
213.365613179
 21
40.263256279
 31
0.0
  0
SPLINE
  5
218
330
1F
100
AcDbEntity
  8
0
  6
Continuous
 62
     7
370
    25
100
AcDbSpline
210
0.0
220
0.0
230
1.0
 70
     8
 71
     3
 72
    12
 73
     8
 74
     0
 42
0.000000001
 43
0.00000001
 40
0.0
 40
0.0
 40
0.0
 40
0.0
 40
0.250000000000003
 40
0.250000000000003
 40
0.500000000000006
 40
0.500000000000006
 40
1.0
 40
1.0
 40
1.0
 40
1.0
 10
213.3656133457027
 20
40.26325675873402
 30
0.0
 10
213.3282213081198
 20
40.28484272256045
 30
0.0
 10
213.2820729972649
 20
40.30228285758292
 30
0.0
 10
213.1833731598823
 20
40.32473898589724
 30
0.0
 10
213.1298615935868
 20
40.33012529149786
 30
0.0
 10
212.9712641738855
 20
40.32804413268772
 30
0.0
 10
212.8665500792677
 20
40.30171691219692
 30
0.0
 10
212.7916182407409
 20
40.25845968257143
 30
0.0
  0
LWPOLYLINE
  5
219
330
1F
100
AcDbEntity
  8
0
  6
Continuous
 62
     7
370
    25
100
AcDbPolyline
 90
       18
 70
   128
 43
0.0
 10
205.1892483743
 20
41.9621111638
 10
205.2203395776
 20
42.1964931758
 10
205.5333075866
 20
44.0540845365
 10
205.9683012588
 20
45.9454301402
 10
206.5221859224
 20
47.8569012652
 10
207.1909721145
 20
49.7747274434
 10
207.9698392896
 20
51.6850892352
 10
208.8531779653
 20
53.5742235489
 10
209.8346226507
 20
55.4285186962
 10
210.9071005775
 20
57.2346140076
 10
212.0628870188
 20
58.9794964067
 10
213.2936527035
 20
60.6505947023
 10
214.5905309885
 20
62.235870078
 10
215.9441771272
 20
63.7238974558
 10
217.3448384047
 20
65.1039561745
 10
218.7824229557
 20
66.3661046991
 10
220.2465731921
 20
67.5012488654
 10
221.5361190779
 20
68.3806122274
  0
LINE
  5
21A
330
1F
100
AcDbEntity
  8
0
  6
Continuous
 62
     7
370
    25
100
AcDbLine
 10
212.2341270301
 20
32.2364387884
 30
0.0
 11
217.1838746512
 21
29.3790103088
 31
0.0
  0
ARC
  5
21B
330
1F
100
AcDbEntity
  8
0
  6
Continuous
 62
     7
370
    25
100
AcDbCircle
 10
216.3746735408
 20
38.7094672427
 30
0.0
 40
7.684023866253167
100
AcDbArc
 50
182.6054781208
 51
237.3945216397
  0
LINE
  5
21C
330
1F
100
AcDbEntity
  8
0
  6
Continuous
 62
     7
370
    25
100
AcDbLine
 10
208.6985932032
 20
39.1767038887
 30
0.0
 11
208.6985932032
 21
38.360163038
 31
0.0
  0
ARC
  5
21D
330
1F
100
AcDbEntity
  8
0
  6
Continuous
 62
     7
370
    25
100
AcDbCircle
 10
211.9102102754
 20
39.2900063116
 30
0.0
 40
3.213615044988082
100
AcDbArc
 50
155.3018969036
 51
182.0204959951
  0
SPLINE
  5
21E
330
1F
100
AcDbEntity
  8
0
  6
Continuous
 62
     7
370
    25
100
AcDbSpline
210
0.0
220
0.0
230
1.0
 70
     8
 71
     3
 72
     8
 73
     4
 74
     0
 42
0.000000001
 43
0.00000001
 40
0.0
 40
0.0
 40
0.0
 40
0.0
 40
1.0
 40
1.0
 40
1.0
 40
1.0
 10
196.9428232681134
 20
43.6700339807439
 30
0.0
 10
197.4096854937802
 20
43.28979239348196
 30
0.0
 10
197.8767202781636
 20
42.92288574493912
 30
0.0
 10
198.343845390339
 20
42.56295941934716
 30
0.0
  0
SPLINE
  5
21F
330
1F
100
AcDbEntity
  8
0
  6
Continuous
 62
     7
370
    25
100
AcDbSpline
210
0.0
220
0.0
230
1.0
 70
     8
 71
     3
 72
    14
 73
    10
 74
     0
 42
0.000000001
 43
0.00000001
 40
0.0
 40
0.0
 40
0.0
 40
0.0
 40
0.1249999999999987
 40
0.1249999999999987
 40
0.2499999999999973
 40
0.2499999999999973
 40
0.4999999999999947
 40
0.4999999999999947
 40
1.0
 40
1.0
 40
1.0
 40
1.0
 10
198.343845390339
 20
42.56295941934712
 30
0.0
 10
198.3702693290122
 20
42.5425994110615
 30
0.0
 10
198.394333271517
 20
42.52708710774684
 30
0.0
 10
198.4306025289421
 20
42.51010373918749
 30
0.0
 10
198.4426209039303
 20
42.50822949778155
 30
0.0
 10
198.4681351506007
 20
42.51237033911679
 30
0.0
 10
198.4723288130488
 20
42.5273127271798
 30
0.0
 10
198.4734356227843
 20
42.58166406352495
 30
0.0
 10
198.4578076376957
 20
42.63308502420095
 30
0.0
 10
198.438154905062
 20
42.68943385178692
 30
0.0
  0
SPLINE
  5
220
330
1F
100
AcDbEntity
  8
0
  6
Continuous
 62
     7
370
    25
100
AcDbSpline
210
0.0
220
0.0
230
1.0
 70
     8
 71
     3
 72
    14
 73
    10
 74
     0
 42
0.000000001
 43
0.00000001
 40
0.0
 40
0.0
 40
0.0
 40
0.0
 40
0.25
 40
0.25
 40
0.5
 40
0.5
 40
0.75
 40
0.75
 40
1.0
 40
1.0
 40
1.0
 40
1.0
 10
198.4381549050616
 20
42.68943385178728
 30
0.0
 10
198.4134890571236
 20
42.76015641432509
 30
0.0
 10
198.4026261863992
 20
42.8232227120753
 30
0.0
 10
198.3806758192043
 20
42.9547894530339
 30
0.0
 10
198.3704042243853
 20
43.02274279202557
 30
0.0
 10
198.3411002100268
 20
43.17134779586901
 30
0.0
 10
198.3223075387971
 20
43.25181160229988
 30
0.0
 10
198.2693882342809
 20
43.43138247611421
 30
0.0
 10
198.235309057102
 20
43.53021352204207
 30
0.0
 10
198.1912228048242
 20
43.63781357702135
 30
0.0
  0
LWPOLYLINE
  5
221
330
1F
100
AcDbEntity
  8
0
  6
Continuous
 62
     7
370
    25
100
AcDbPolyline
 90
        9
 70
   128
 43
0.0
 10
198.191222526
 20
43.6378137295
 10
197.8231422442
 20
44.7089591092
 10
197.5580135423
 20
45.8729619866
 10
197.3980464959
 20
47.1201132294
 10
197.344575316
 20
48.4400098654
 10
197.3980464959
 20
49.8216430115
 10
197.5580135423
 20
51.2534882748
 10
197.8231422442
 20
52.7236022355
 10
198.191222526
 20
54.2197240628
  0
SPLINE
  5
222
330
1F
100
AcDbEntity
  8
0
  6
Continuous
 62
     7
370
    25
100
AcDbSpline
210
0.0
220
0.0
230
1.0
 70
     8
 71
     3
 72
    14
 73
    10
 74
     0
 42
0.000000001
 43
0.00000001
 40
0.0
 40
0.0
 40
0.0
 40
0.0
 40
0.25
 40
0.25
 40
0.5
 40
0.5
 40
0.75
 40
0.75
 40
1.0
 40
1.0
 40
1.0
 40
1.0
 10
198.4381549050616
 20
56.27322425109579
 30
0.0
 10
198.4134890571236
 20
56.10155171960293
 30
0.0
 10
198.4026261863992
 20
55.92657198742734
 30
0.0
 10
198.3806758192043
 20
55.57776548378614
 30
0.0
 10
198.3704042243853
 20
55.40355139185035
 30
0.0
 10
198.3411002100268
 20
55.05750047989925
 30
0.0
 10
198.3223075387971
 20
54.88561762598401
 30
0.0
 10
198.2693882342809
 20
54.54558595708979
 30
0.0
 10
198.235309057102
 20
54.37822509659268
 30
0.0
 10
198.1912228048242
 20
54.21972413818972
 30
0.0
  0
SPLINE
  5
223
330
1F
100
AcDbEntity
  8
0
  6
Continuous
 62
     7
370
    25
100
AcDbSpline
210
0.0
220
0.0
230
1.0
 70
     8
 71
     3
 72
    14
 73
    10
 74
     0
 42
0.000000001
 43
0.00000001
 40
0.0
 40
0.0
 40
0.0
 40
0.0
 40
0.124999999999999
 40
0.124999999999999
 40
0.249999999999998
 40
0.249999999999998
 40
0.5000000000000007
 40
0.5000000000000007
 40
1.0
 40
1.0
 40
1.0
 40
1.0
 10
198.3438453903391
 20
57.02196799473845
 30
0.0
 10
198.3702693290122
 20
57.01766169546624
 30
0.0
 10
198.394333271517
 20
57.00177818892583
 30
0.0
 10
198.4306025289422
 20
56.95263361603442
 30
0.0
 10
198.4426209039303
 20
56.92162226068209
 30
0.0
 10
198.4681351506007
 20
56.82476371881465
 30
0.0
 10
198.4723288130488
 20
56.7544830979385
 30
0.0
 10
198.4734356227843
 20
56.54808169586063
 30
0.0
 10
198.4578076376957
 20
56.41000585983846
 30
0.0
 10
198.438154905062
 20
56.27322425109571
 30
0.0
  0
SPLINE
  5
224
330
1F
100
AcDbEntity
  8
0
  6
Continuous
 62
     7
370
    25
100
AcDbSpline
210
0.0
220
0.0
230
1.0
 70
     8
 71
     3
 72
     8
 73
     4
 74
     0
 42
0.000000001
 43
0.00000001
 40
0.0
 40
0.0
 40
0.0
 40
0.0
 40
1.0
 40
1.0
 40
1.0
 40
1.0
 10
196.9428232681134
 20
57.19118088862342
 30
0.0
 10
197.4096854937802
 20
57.15909113455811
 30
0.0
 10
197.8767202781637
 20
57.09809519725246
 30
0.0
 10
198.3438453903391
 20
57.02196799473847
 30
0.0
  0
SPLINE
  5
225
330
1F
100
AcDbEntity
  8
0
  6
Continuous
 62
     7
370
    25
100
AcDbSpline
210
0.0
220
0.0
230
1.0
 70
     8
 71
     3
 72
    14
 73
    10
 74
     0
 42
0.000000001
 43
0.00000001
 40
0.0
 40
0.0
 40
0.0
 40
0.0
 40
0.5000000000000012
 40
0.5000000000000012
 40
0.7500000000000018
 40
0.7500000000000018
 40
0.8750000000000009
 40
0.8750000000000009
 40
1.0
 40
1.0
 40
1.0
 40
1.0
 10
194.0982858908948
 20
58.11576276478588
 30
0.0
 10
194.5633204236099
 20
57.91941751552498
 30
0.0
 10
195.0301763448916
 20
57.73176500405688
 30
0.0
 10
195.7372027304962
 20
57.48174704711239
 30
0.0
 10
195.9739877133874
 20
57.40358578931354
 30
0.0
 10
196.332768351519
 20
57.30301852391852
 30
0.0
 10
196.4529671755201
 20
57.27229702766688
 30
0.0
 10
196.6955692736299
 20
57.22102232128231
 30
0.0
 10
196.8178210312188
 20
57.19977291174931
 30
0.0
 10
196.9428232681134
 20
57.19118088862336
 30
0.0
  0
SPLINE
  5
226
330
1F
100
AcDbEntity
  8
0
  6
Continuous
 62
     7
370
    25
100
AcDbSpline
210
0.0
220
0.0
230
1.0
 70
     8
 71
     3
 72
    14
 73
    10
 74
     0
 42
0.000000001
 43
0.00000001
 40
0.0
 40
0.0
 40
0.0
 40
0.0
 40
0.5000000000000012
 40
0.5000000000000012
 40
0.7500000000000018
 40
0.7500000000000018
 40
0.8750000000000009
 40
0.8750000000000009
 40
1.0
 40
1.0
 40
1.0
 40
1.0
 10
194.0982858908948
 20
45.79281878891165
 30
0.0
 10
194.5633204236099
 20
45.45797347267321
 30
0.0
 10
195.0301763448916
 20
45.11918529760162
 30
0.0
 10
195.7372027304962
 20
44.59688955056878
 30
0.0
 10
195.9739877133874
 20
44.42046784247837
 30
0.0
 10
196.332768351519
 20
44.14838569095938
 30
0.0
 10
196.4529671755201
 20
44.05644032960245
 30
0.0
 10
196.6955692736299
 20
43.8680143087721
 30
0.0
 10
196.8178210312188
 20
43.77184356471744
 30
0.0
 10
196.9428232681134
 20
43.67003398074393
 30
0.0
  0
SPLINE
  5
227
330
1F
100
AcDbEntity
  8
0
  6
Continuous
 62
     7
370
    25
100
AcDbSpline
210
0.0
220
0.0
230
1.0
 70
     8
 71
     3
 72
    17
 73
    13
 74
     0
 42
0.000000001
 43
0.00000001
 40
0.0
 40
0.0
 40
0.0
 40
0.0
 40
0.1207961882900952
 40
0.2420175987944839
 40
0.3632153541307872
 40
0.4839596318162575
 40
0.6040258967628624
 40
0.6645178707182005
 40
0.7242649424600393
 40
0.8441758508052679
 40
0.9646454444514005
 40
1.0
 40
1.0
 40
1.0
 40
1.0
 10
202.5565290184118
 20
43.34904295152767
 30
0.0
 10
202.3527607274409
 20
43.72293253926606
 30
0.0
 10
201.944506847999
 20
44.47202786685533
 30
0.0
 10
201.7512394857369
 20
45.62034632290848
 30
0.0
 10
201.9565976587793
 20
46.57268331551865
 30
0.0
 10
202.5159038241555
 20
47.20615656776774
 30
0.0
 10
203.1917455042224
 20
47.34744284144285
 30
0.0
 10
203.7667448365646
 20
47.2212921371731
 30
0.0
 10
204.3465347936601
 20
46.93304290804542
 30
0.0
 10
205.0135855256721
 20
46.27575179367431
 30
0.0
 10
205.5442160676998
 20
45.45032730442099
 30
0.0
 10
205.7032804014443
 20
44.92841534010419
 30
0.0
 10
205.739370114446
 20
44.81000002624384
 30
0.0
  0
SPLINE
  5
228
330
1F
100
AcDbEntity
  8
0
  6
Continuous
 62
     7
370
    25
100
AcDbSpline
210
0.0
220
0.0
230
1.0
 70
     8
 71
     3
 72
    12
 73
     8
 74
     0
 42
0.000000001
 43
0.00000001
 40
0.0
 40
0.0
 40
0.0
 40
0.0
 40
0.0353744433893711
 40
0.3560360900717853
 40
0.5160472232178944
 40
0.6782077942890793
 40
1.0
 40
1.0
 40
1.0
 40
1.0
 10
205.0597534992968
 20
41.31685237525385
 30
0.0
 10
205.0370472141454
 20
41.31300550211245
 30
0.0
 10
204.8085133854609
 20
41.27428755941038
 30
0.0
 10
204.3346989267515
 20
41.53787420782067
 30
0.0
 10
203.7659985599522
 20
41.94729811855454
 30
0.0
 10
203.1825502025849
 20
42.4835260908239
 30
0.0
 10
202.806544522143
 20
43.00337951491016
 30
0.0
 10
202.5565290184118
 20
43.34904295152767
 30
0.0
  0
ARC
  5
229
330
1F
100
AcDbEntity
  8
0
  6
Continuous
 62
     7
370
    25
100
AcDbCircle
 10
224.2075020187
 20
28.9270248929
 30
0.0
 40
8.701929273940591
100
AcDbArc
 50
214.5542627763
 51
265.4839169162
  0
SPLINE
  5
22A
330
1F
100
AcDbEntity
  8
0
  6
Continuous
 62
     7
370
    25
100
AcDbSpline
210
0.0
220
0.0
230
1.0
 70
     8
 71
     3
 72
    14
 73
    10
 74
     0
 42
0.000000001
 43
0.00000001
 40
0.0
 40
0.0
 40
0.0
 40
0.0
 40
0.25
 40
0.25
 40
0.5
 40
0.5
 40
0.75
 40
0.75
 40
1.0
 40
1.0
 40
1.0
 40
1.0
 10
215.106751316674
 20
28.58811663712119
 30
0.0
 10
215.1539724800976
 20
28.56085643972638
 30
0.0
 10
215.2102592395289
 20
28.53957450820223
 30
0.0
 10
215.3336885876021
 20
28.51121987837111
 30
0.0
 10
215.400341911062
 20
28.50437649603094
 30
0.0
 10
215.5324667880037
 20
28.5058586116601
 30
0.0
 10
215.5988261439883
 20
28.51424914334628
 30
0.0
 10
215.7200803761091
 20
28.54436746681759
 30
0.0
 10
215.7761914785863
 20
28.56637216065836
 30
0.0
 10
215.8229260521137
 20
28.59335145568528
 30
0.0
  0
LINE
  5
22B
330
1F
100
AcDbEntity
  8
0
  6
Continuous
 62
     7
370
    25
100
AcDbLine
 10
213.4493029907
 20
29.544940676
 30
0.0
 11
215.1067508575
 21
28.5881163891
 31
0.0
  0
SPLINE
  5
22C
330
1F
100
AcDbEntity
  8
0
  6
Continuous
 62
     7
370
    25
100
AcDbSpline
210
0.0
220
0.0
230
1.0
 70
     8
 71
     3
 72
     8
 73
     4
 74
     0
 42
0.000000001
 43
0.00000001
 40
0.0
 40
0.0
 40
0.0
 40
0.0
 40
1.0
 40
1.0
 40
1.0
 40
1.0
 10
213.8210916430768
 20
30.31147360333421
 30
0.0
 10
213.6969134751919
 20
30.05600280410813
 30
0.0
 10
213.5729957750501
 20
29.80048995743516
 30
0.0
 10
213.4493032820179
 20
29.54494102094851
 30
0.0
  0
LINE
  5
22D
330
1F
100
AcDbEntity
  8
0
  6
Continuous
 62
     7
370
    25
100
AcDbLine
 10
214.1421925704
 20
30.4968410055
 30
0.0
 11
213.8210915367
 21
30.3114733244
 31
0.0
  0
SPLINE
  5
22E
330
1F
100
AcDbEntity
  8
0
  6
Continuous
 62
     7
370
    25
100
AcDbSpline
210
0.0
220
0.0
230
1.0
 70
     8
 71
     3
 72
    12
 73
     8
 74
     0
 42
0.000000001
 43
0.00000001
 40
0.0
 40
0.0
 40
0.0
 40
0.0
 40
0.2500000000000014
 40
0.2500000000000014
 40
0.5000000000000029
 40
0.5000000000000029
 40
1.0
 40
1.0
 40
1.0
 40
1.0
 10
214.1505018728197
 20
30.82820132592916
 30
0.0
 10
214.1878939104026
 20
30.80661536210273
 30
0.0
 10
214.2181043837201
 20
30.77997450931267
 30
0.0
 10
214.2570037537295
 20
30.72299630600687
 30
0.0
 10
214.2663341196595
 20
30.69210473633007
 30
0.0
 10
214.2627290562456
 20
30.600548394768
 30
0.0
 10
214.2171240313341
 20
30.54009823466298
 30
0.0
 10
214.1421921928073
 20
30.49684100503752
 30
0.0
  0
LINE
  5
22F
330
1F
100
AcDbEntity
  8
0
  6
Continuous
 62
     7
370
    25
100
AcDbLine
 10
213.365613179
 20
31.281307397
 30
0.0
 11
214.1505014265
 21
30.8282010563
 31
0.0
  0
SPLINE
  5
230
330
1F
100
AcDbEntity
  8
0
  6
Continuous
 62
     7
370
    25
100
AcDbSpline
210
0.0
220
0.0
230
1.0
 70
     8
 71
     3
 72
    14
 73
    10
 74
     0
 42
0.000000001
 43
0.00000001
 40
0.0
 40
0.0
 40
0.0
 40
0.0
 40
0.25
 40
0.25
 40
0.5
 40
0.5
 40
0.75
 40
0.75
 40
1.0
 40
1.0
 40
1.0
 40
1.0
 10
212.791618240741
 20
31.27651075182821
 30
0.0
 10
212.8294640385195
 20
31.29835866583981
 30
0.0
 10
212.8737829556674
 20
31.31573131062873
 30
0.0
 10
212.9714844922195
 20
31.3400927853206
 30
0.0
 10
213.0242376238313
 20
31.34680674985216
 30
0.0
 10
213.1301909810598
 20
31.34816419943817
 30
0.0
 10
213.1835552673551
 20
31.34278649829908
 30
0.0
 10
213.2827330421268
 20
31.32014555478323
 30
0.0
 10
213.3277399355281
 20
31.30317168229937
 30
0.0
 10
213.3656133457027
 20
31.28130782799077
 30
0.0
  0
LINE
  5
231
330
1F
100
AcDbEntity
  8
0
  6
Continuous
 62
     7
370
    25
100
AcDbLine
 10
212.4705175081
 20
31.0911431154
 30
0.0
 11
212.7916185419
 21
31.2765107965
 31
0.0
  0
SPLINE
  5
232
330
1F
100
AcDbEntity
  8
0
  6
Continuous
 62
     7
370
    25
100
AcDbSpline
210
0.0
220
0.0
230
1.0
 70
     8
 71
     3
 72
     8
 73
     4
 74
     0
 42
0.000000001
 43
0.00000001
 40
0.0
 40
0.0
 40
0.0
 40
0.0
 40
1.0
 40
1.0
 40
1.0
 40
1.0
 10
211.142700440897
 20
30.87651449778916
 30
0.0
 10
211.5853721471135
 20
30.94792065409386
 30
0.0
 10
212.0279813371651
 20
31.01945681969563
 30
0.0
 10
212.4705176910105
 20
31.09114335012489
 30
0.0
  0
LWPOLYLINE
  5
233
330
1F
100
AcDbEntity
  8
0
  6
Continuous
 62
     7
370
    25
100
AcDbPolyline
 90
        8
 70
   128
 43
0.0
 10
218.1948840336
 20
22.3397688105
 10
217.5388340922
 20
22.7605153992
 10
216.5843238773
 20
23.5475905194
 10
215.731575911
 20
24.4821106059
 10
214.9867383649
 20
25.5573320575
 10
214.3551862792
 20
26.7655037319
 10
213.8414728307
 20
28.0979095368
 10
213.4493029907
 20
29.544940676
  0
ARC
  5
234
330
1F
100
AcDbEntity
  8
0
  6
Continuous
 62
     7
370
    25
100
AcDbCircle
 10
223.9824970519
 20
33.5533286665
 30
0.0
 40
11.77234176809819
100
AcDbArc
 50
192.0725460793
 51
215.0022747034
  0
SPLINE
  5
235
330
1F
100
AcDbEntity
  8
0
  6
Continuous
 62
     7
370
    25
100
AcDbSpline
210
0.0
220
0.0
230
1.0
 70
     8
 71
     3
 72
    13
 73
     9
 74
     0
 42
0.000000001
 43
0.00000001
 40
0.0
 40
0.0
 40
0.0
 40
0.0
 40
0.0429135562381213
 40
0.2792162607462067
 40
0.5136454897400948
 40
0.7507323164974792
 40
0.991048372983947
 40
1.0
 40
1.0
 40
1.0
 40
1.0
 10
203.9705538103188
 20
47.01272603088873
 30
0.0
 10
203.954887368174
 20
46.97204500996612
 30
0.0
 10
203.8529539518291
 20
46.70735469899959
 30
0.0
 10
203.9331764175581
 20
46.06120515233013
 30
0.0
 10
204.2262503303701
 20
45.17570007744119
 30
0.0
 10
204.7722716303143
 20
44.33280637715956
 30
0.0
 10
205.2352538358912
 20
43.77853462860081
 30
0.0
 10
205.4878333444794
 20
43.59082647980836
 30
0.0
 10
205.4969039047743
 20
43.58408556051929
 30
0.0
  0
SPLINE
  5
236
330
1F
100
AcDbEntity
  8
0
  6
Continuous
 62
     7
370
    25
100
AcDbSpline
210
0.0
220
0.0
230
1.0
 70
     8
 71
     3
 72
    11
 73
     7
 74
     0
 42
0.000000001
 43
0.00000001
 40
0.0
 40
0.0
 40
0.0
 40
0.0
 40
0.1889487415400878
 40
0.3635157627967836
 40
0.6686735586554259
 40
1.0
 40
1.0
 40
1.0
 40
1.0
 10
202.8468424378555
 20
43.53145303656768
 30
0.0
 10
202.9733835152092
 20
43.34826830835549
 30
0.0
 10
203.2168340716113
 20
42.99584184779263
 30
0.0
 10
203.7335306041654
 20
42.43444084227828
 30
0.0
 10
204.4078566796655
 20
41.87641859957175
 30
0.0
 10
204.8627030366157
 20
41.71939157030543
 30
0.0
 10
205.0994765747461
 20
41.63765002234449
 30
0.0
  0
SPLINE
  5
237
330
1F
100
AcDbEntity
  8
0
  6
Continuous
 62
     7
370
    25
100
AcDbSpline
210
0.0
220
0.0
230
1.0
 70
     8
 71
     3
 72
    15
 73
    11
 74
     0
 42
0.000000001
 43
0.00000001
 40
0.0
 40
0.0
 40
0.0
 40
0.0
 40
0.0285605575140947
 40
0.1766231786262573
 40
0.2612396331333766
 40
0.3527785380977456
 40
0.5145481059714542
 40
0.6763327681591422
 40
0.8381560932852216
 40
1.0
 40
1.0
 40
1.0
 40
1.0
 10
204.5016380165982
 20
46.73276181476582
 30
0.0
 10
204.4587978086797
 20
46.77560788842353
 30
0.0
 10
204.1938669265764
 20
47.04057504522162
 30
0.0
 10
203.7327672193204
 20
47.15311106255967
 30
0.0
 10
203.2226927855922
 20
47.16035110494906
 30
0.0
 10
202.7368345204974
 20
46.98457536149621
 30
0.0
 10
202.2848595457734
 20
46.49639215071702
 30
0.0
 10
202.095379400194
 20
45.61565227626163
 30
0.0
 10
202.2741987626708
 20
44.56265318269689
 30
0.0
 10
202.6559531210355
 20
43.87520099001505
 30
0.0
 10
202.8468424378555
 20
43.53145303656768
 30
0.0
  0
SPLINE
  5
238
330
1F
100
AcDbEntity
  8
0
  6
Continuous
 62
     7
370
    25
100
AcDbSpline
210
0.0
220
0.0
230
1.0
 70
     8
 71
     3
 72
     9
 73
     5
 74
     0
 42
0.000000001
 43
0.00000001
 40
0.0
 40
0.0
 40
0.0
 40
0.0
 40
0.1880222553968013
 40
1.0
 40
1.0
 40
1.0
 40
1.0
 10
243.7890576271452
 20
64.59067411315073
 30
0.0
 10
243.8313372265613
 20
64.60018497159176
 30
0.0
 10
244.0562020933657
 20
64.65076865606547
 30
0.0
 10
244.2818726806027
 20
64.70014558749807
 30
0.0
 10
244.4651121750507
 20
64.74023855691814
 30
0.0
  0
LINE
  5
239
330
1F
100
AcDbEntity
  8
0
  6
Continuous
 62
     7
370
    25
100
AcDbLine
 10
244.4651121751
 20
64.7402385569
 30
0.0
 11
246.1225600418
 21
63.78341427
 31
0.0
  0
SPLINE
  5
23A
330
1F
100
AcDbEntity
  8
0
  6
Continuous
 62
     7
370
    25
100
AcDbSpline
210
0.0
220
0.0
230
1.0
 70
     8
 71
     3
 72
    16
 73
    12
 74
     0
 42
0.000000001
 43
0.00000001
 40
0.0
 40
0.0
 40
0.0
 40
0.0
 40
0.125
 40
0.125
 40
0.25
 40
0.25
 40
0.5
 40
0.5
 40
0.75
 40
0.75
 40
1.0
 40
1.0
 40
1.0
 40
1.0
 10
246.1225606286382
 20
63.78341392498754
 30
0.0
 10
246.1493025961966
 20
63.76797611571912
 30
0.0
 10
246.1722731948431
 20
63.75008439631188
 30
0.0
 10
246.2082501469673
 20
63.71190439976676
 30
0.0
 10
246.2215126857463
 20
63.69162058229616
 30
0.0
 10
246.2482677964521
 20
63.62749425100145
 30
0.0
 10
246.2474507911917
 20
63.58300139937226
 30
0.0
 10
246.2193704009455
 20
63.49792170702837
 30
0.0
 10
246.191801046021
 20
63.45654885098204
 30
0.0
 10
246.1186268902616
 20
63.38111771827403
 30
0.0
 10
246.0723930518489
 20
63.34624874345023
 30
0.0
 10
246.0192292669206
 20
63.31555794368315
 30
0.0
  0
LINE
  5
23B
330
1F
100
AcDbEntity
  8
0
  6
Continuous
 62
     7
370
    25
100
AcDbLine
 10
196.7355118667
 20
49.4919628564
 30
0.0
 11
197.3582855541
 21
49.1324432593
 31
0.0
  0
SPLINE
  5
23C
330
1F
100
AcDbEntity
  8
0
  6
Continuous
 62
     7
370
    25
100
AcDbSpline
210
0.0
220
0.0
230
1.0
 70
     8
 71
     3
 72
    11
 73
     7
 74
     0
 42
0.000000001
 43
0.00000001
 40
0.0
 40
0.0
 40
0.0
 40
0.0
 40
0.0466304722500908
 40
0.4281527877979693
 40
0.8088298298119748
 40
1.0
 40
1.0
 40
1.0
 40
1.0
 10
249.66438033458
 20
56.70328553139336
 30
0.0
 10
249.6693577759002
 20
56.70623311310592
 30
0.0
 10
249.7150597659199
 20
56.73329728952516
 30
0.0
 10
249.7814959901984
 20
56.79453616016313
 30
0.0
 10
249.8241160264085
 20
56.8783099829322
 30
0.0
 10
249.8102834688137
 20
56.92846699019962
 30
0.0
 10
249.8056592049665
 20
56.94523462220137
 30
0.0
  0
LINE
  5
23D
330
1F
100
AcDbEntity
  8
0
  6
Continuous
 62
     7
370
    25
100
AcDbLine
 10
194.083521523
 20
59.1733935968
 30
0.0
 11
194.0996953761
 21
59.222019211
 31
0.0
  0
SPLINE
  5
23E
330
1F
100
AcDbEntity
  8
0
  6
Continuous
 62
     7
370
    25
100
AcDbSpline
210
0.0
220
0.0
230
1.0
 70
     8
 71
     3
 72
    16
 73
    12
 74
     0
 42
0.000000001
 43
0.00000001
 40
0.0
 40
0.0
 40
0.0
 40
0.0
 40
0.0332838850724123
 40
0.1625854311030977
 40
0.239429833395794
 40
0.3008069245191573
 40
0.3624173839861106
 40
0.4362069101913193
 40
0.5596777462223994
 40
0.9141728339414532
 40
1.0
 40
1.0
 40
1.0
 40
1.0
 10
194.1258731788089
 20
59.30071291694847
 30
0.0
 10
194.1275165092934
 20
59.30572653957309
 30
0.0
 10
194.135543865315
 20
59.33021712996055
 30
0.0
 10
194.1461574822392
 20
59.35483981420484
 30
0.0
 10
194.1562139373873
 20
59.37225620493715
 30
0.0
 10
194.1610725411904
 20
59.37162780695003
 30
0.0
 10
194.1622750889959
 20
59.35625942583652
 30
0.0
 10
194.1589965936776
 20
59.31968962738782
 30
0.0
 10
194.1434872965468
 20
59.21936459465319
 30
0.0
 10
194.1204926540697
 20
59.10406881845272
 30
0.0
 10
194.1017878006001
 20
59.01502423304753
 30
0.0
 10
194.0981418695778
 20
58.99766775298635
 30
0.0
  0
SPLINE
  5
23F
330
1F
100
AcDbEntity
  8
0
  6
Continuous
 62
     7
370
    25
100
AcDbSpline
210
0.0
220
0.0
230
1.0
 70
     8
 71
     3
 72
     9
 73
     5
 74
     0
 42
0.000000001
 43
0.00000001
 40
0.0
 40
0.0
 40
0.0
 40
0.0
 40
0.7766522094856231
 40
1.0
 40
1.0
 40
1.0
 40
1.0
 10
194.0323578830419
 20
58.73519806105699
 30
0.0
 10
194.029171573075
 20
58.84403385075189
 30
0.0
 10
194.0250689516853
 20
58.9841683773336
 30
0.0
 10
194.0728497804276
 20
59.13884656528773
 30
0.0
 10
194.0835215229561
 20
59.17339359680805
 30
0.0
  0
SPLINE
  5
240
330
1F
100
AcDbEntity
  8
0
  6
Continuous
 62
     7
370
    25
100
AcDbSpline
210
0.0
220
0.0
230
1.0
 70
     8
 71
     3
 72
     8
 73
     4
 74
     0
 42
0.000000001
 43
0.00000001
 40
0.0
 40
0.0
 40
0.0
 40
0.0
 40
1.0
 40
1.0
 40
1.0
 40
1.0
 10
194.0090567405239
 20
58.13675971457638
 30
0.0
 10
194.0376590360981
 20
58.13520629944285
 30
0.0
 10
194.0673554158356
 20
58.12882212148015
 30
0.0
 10
194.0982858908936
 20
58.11576276479222
 30
0.0
  0
SPLINE
  5
241
330
1F
100
AcDbEntity
  8
0
  6
Continuous
 62
     7
370
    25
100
AcDbSpline
210
0.0
220
0.0
230
1.0
 70
     8
 71
     3
 72
    10
 73
     6
 74
     0
 42
0.000000001
 43
0.00000001
 40
0.0
 40
0.0
 40
0.0
 40
0.0
 40
0.4999999999999989
 40
0.4999999999999989
 40
1.0
 40
1.0
 40
1.0
 40
1.0
 10
194.0981420631907
 20
58.99766772877074
 30
0.0
 10
194.0681535932819
 20
58.85587687260073
 30
0.0
 10
194.0477202940953
 20
58.71361905655742
 30
0.0
 10
194.0190873068695
 20
58.42680878838766
 30
0.0
 10
194.011216247223
 20
58.28235225519214
 30
0.0
 10
194.0090567405248
 20
58.13675971457267
 30
0.0
  0
ARC
  5
242
330
1F
100
AcDbEntity
  8
0
  6
Continuous
 62
     7
370
    25
100
AcDbCircle
 10
195.2284084935
 20
57.9687135189
 30
0.0
 40
1.230877198383785
100
AcDbArc
 50
172.1531384875
 51
234.5145852444
  0
ARC
  5
243
330
1F
100
AcDbEntity
  8
0
  6
Continuous
 62
     7
370
    25
100
AcDbCircle
 10
197.7415566305
 20
45.7653507759
 30
0.0
 40
3.734047488377071
100
AcDbArc
 50
122.5266350896
 51
178.3504233083
  0
SPLINE
  5
244
330
1F
100
AcDbEntity
  8
0
  6
Continuous
 62
     7
370
    25
100
AcDbSpline
210
0.0
220
0.0
230
1.0
 70
     8
 71
     3
 72
     8
 73
     4
 74
     0
 42
0.000000001
 43
0.00000001
 40
0.0
 40
0.0
 40
0.0
 40
0.0
 40
1.0
 40
1.0
 40
1.0
 40
1.0
 10
194.0090567405246
 20
45.87284094701032
 30
0.0
 10
194.0376590360986
 20
45.8421435431524
 30
0.0
 10
194.0673554158358
 20
45.81509009130208
 30
0.0
 10
194.0982858908936
 20
45.79281878890709
 30
0.0
  0
LINE
  5
245
330
1F
100
AcDbEntity
  8
0
  6
Continuous
 62
     7
370
    25
100
AcDbLine
 10
195.733790596
 20
48.9136814759
 30
0.0
 11
196.7355118667
 21
49.4919628564
 31
0.0
  0
SPLINE
  5
246
330
1F
100
AcDbEntity
  8
0
  6
Continuous
 62
     7
370
    25
100
AcDbSpline
210
0.0
220
0.0
230
1.0
 70
     8
 71
     3
 72
     9
 73
     5
 74
     0
 42
0.000000001
 43
0.00000001
 40
0.0
 40
0.0
 40
0.0
 40
0.0
 40
0.3901117718169397
 40
1.0
 40
1.0
 40
1.0
 40
1.0
 10
194.0428623264887
 20
46.93999181532246
 30
0.0
 10
194.0337847698463
 20
46.89320576194906
 30
0.0
 10
194.0105156523825
 20
46.77327589375899
 30
0.0
 10
194.0240831971828
 20
46.65242086731669
 30
0.0
 10
194.0323578830419
 20
46.57871280937277
 30
0.0
  0
ARC
  5
247
330
1F
100
AcDbEntity
  8
0
  6
Continuous
 62
     7
370
    25
100
AcDbCircle
 10
196.5264715411
 20
46.4525601096
 30
0.0
 40
2.530988818362154
100
AcDbArc
 50
122.9343808406
 51
168.8962913337
  0
LINE
  5
248
330
1F
100
AcDbEntity
  8
0
  6
Continuous
 62
     7
370
    25
100
AcDbLine
 10
195.733790596
 20
48.9136814759
 30
0.0
 11
195.1504281632
 21
48.5768032739
 31
0.0
  0
LINE
  5
249
330
1F
100
AcDbEntity
  8
0
  6
Continuous
 62
     7
370
    25
100
AcDbLine
 10
194.0685719041
 20
45.7337197482
 30
0.0
 11
194.0090566027
 21
45.8728411853
 31
0.0
  0
LWPOLYLINE
  5
24A
330
1F
100
AcDbEntity
  8
0
  6
Continuous
 62
     7
370
    18
100
AcDbPolyline
 90
       14
 70
   128
 43
0.0
 10
266.8581252814
 20
32.9163861259
 10
267.3271123626
 20
33.4114517509
 10
267.8303971003
 20
33.7785048689
 10
268.333681838
 20
33.9925319404
 10
268.8026689191
 20
34.0389472736
 10
269.2053972032
 20
33.914587585
 10
269.5144211892
 20
33.627927672
 10
269.7086819409
 20
33.1985032833
 10
269.774940738
 20
32.6555787961
 10
269.7086819409
 20
32.03615353
 10
269.5144211892
 20
31.3824404515
 10
269.2053972032
 20
30.7389890388
 10
268.8026689191
 20
30.1496491709
 10
268.5573538459
 20
29.8700108206
  0
ARC
  5
24B
330
1F
100
AcDbEntity
  8
0
  6
Continuous
 62
     7
370
    18
100
AcDbCircle
 10
270.4685376433
 20
30.0116445579
 30
0.0
 40
4.63385379563818
100
AcDbArc
 50
141.1817345612
 51
162.831835408
  0
LWPOLYLINE
  5
24C
330
1F
100
AcDbEntity
  8
0
  6
Continuous
 62
     7
370
    18
100
AcDbPolyline
 90
        7
 70
   128
 43
0.0
 10
266.5929623353
 20
33.1441963547
 10
267.0831578423
 20
33.6651296065
 10
267.6091972684
 20
34.0585062937
 10
268.1380282646
 20
34.2996095307
 10
268.6364219923
 20
34.3732894521
 10
269.0730633429
 20
34.2749172068
 10
269.1400676124
 20
34.2408311553
  0
ARC
  5
24D
330
1F
100
AcDbEntity
  8
0
  6
Continuous
 62
     7
370
    18
100
AcDbCircle
 10
270.5510355043
 20
29.9637417191
 30
0.0
 40
5.077561905154191
100
AcDbArc
 50
141.2168662518
 51
161.691357871
  0
LWPOLYLINE
  5
24E
330
1F
100
AcDbEntity
  8
0
  6
Continuous
 62
     7
370
    18
100
AcDbPolyline
 90
       25
 70
   128
 43
0.0
 10
251.3017761796
 20
23.9358969445
 10
251.7707632608
 20
24.4309625695
 10
252.2740479985
 20
24.7980156875
 10
252.7773327362
 20
25.012042759
 10
253.2463198173
 20
25.0584580922
 10
253.6490481014
 20
24.9340984036
 10
253.9580720874
 20
24.6474384906
 10
254.1523328391
 20
24.218014102
 10
254.2185916362
 20
23.6750896147
 10
254.1523328391
 20
23.0556643486
 10
253.9580720874
 20
22.4019512701
 10
253.6490481014
 20
21.7584998574
 10
253.2463198173
 20
21.1691599895
 10
252.7773327362
 20
20.6740943644
 10
252.2740479985
 20
20.3070412465
 10
251.7707632608
 20
20.0930141749
 10
251.3017761796
 20
20.0465988418
 10
250.8990478956
 20
20.1709585304
 10
250.5900239096
 20
20.4576184433
 10
250.3957631579
 20
20.887042832
 10
250.3295043607
 20
21.4299673193
 10
250.3957631579
 20
22.0493925854
 10
250.5900239096
 20
22.7031056639
 10
250.8990478956
 20
23.3465570765
 10
251.3017761796
 20
23.9358969445
  0
LWPOLYLINE
  5
24F
330
1F
100
AcDbEntity
  8
0
  6
Continuous
 62
     7
370
    18
100
AcDbPolyline
 90
        7
 70
   128
 43
0.0
 10
251.0366132335
 20
24.1637071733
 10
251.5268087405
 20
24.6846404251
 10
252.0528481666
 20
25.0780171123
 10
252.5816791628
 20
25.3191203494
 10
253.0800728905
 20
25.3928002707
 10
253.5167135825
 20
25.2944276452
 10
253.5837185106
 20
25.2603419739
  0
LWPOLYLINE
  5
250
330
1F
100
AcDbEntity
  8
0
  6
Continuous
 62
     7
370
    18
100
AcDbPolyline
 90
        9
 70
   128
 43
0.0
 10
250.6107035242
 20
20.0488839544
 10
250.4914444065
 20
20.1269190177
 10
250.1971816957
 20
20.4684901907
 10
250.0223091528
 20
20.947421556
 10
249.9778139346
 20
21.5336196985
 10
250.066492221
 20
22.1902517993
 10
250.2827720668
 20
22.8760592886
 10
250.6130637477
 20
23.547950303
 10
251.0366132335
 20
24.1637071733
  0
LWPOLYLINE
  5
251
330
1F
100
AcDbEntity
  8
0
  6
Continuous
 62
     7
370
    18
100
AcDbPolyline
 90
       31
 70
   128
 43
0.0
 10
268.2900167151
 20
18.8582817637
 10
268.3549149593
 20
18.1827195104
 10
268.5467735052
 20
17.6116126028
 10
268.8572072704
 20
17.1699212655
 10
269.2726485915
 20
16.876949221
 10
269.7749409026
 20
16.7455009459
 10
270.3421314579
 20
16.7813212307
 10
270.9494313868
 20
16.9828447429
 10
271.5702987936
 20
17.3412638677
 10
272.1775987224
 20
17.8409139285
 10
272.7447892777
 20
18.4599579196
 10
273.2470815888
 20
19.1713405529
 10
273.66252291
 20
19.9439709369
 10
273.9729566751
 20
20.7440814703
 10
274.1648152211
 20
21.53670354
 10
274.2297134653
 20
22.2871957111
 10
274.1648152211
 20
22.9627579645
 10
273.9729566751
 20
23.5338648721
 10
273.66252291
 20
23.9755562093
 10
273.2470815888
 20
24.2685282539
 10
272.7447892777
 20
24.3999765289
 10
272.1775987224
 20
24.3641562441
 10
271.5702987936
 20
24.162632732
 10
270.9494313868
 20
23.8042136072
 10
270.3421314579
 20
23.3045635464
 10
269.7749409026
 20
22.6855195553
 10
269.2726485915
 20
21.974136922
 10
268.8572072704
 20
21.2015065379
 10
268.5467735052
 20
20.4013960046
 10
268.3549149593
 20
19.6087739349
 10
268.2900167151
 20
18.8582817637
  0
LWPOLYLINE
  5
252
330
1F
100
AcDbEntity
  8
0
  6
Continuous
 62
     7
370
    18
100
AcDbPolyline
 90
       13
 70
   128
 43
0.0
 10
267.8657543549
 20
18.8582808133
 10
267.9308896751
 20
19.6355406856
 10
268.1236288597
 20
20.4561830686
 10
268.4360813931
 20
21.2866106915
 10
268.8554553774
 20
22.0928260749
 10
269.3645815695
 20
22.8418223676
 10
269.9426162125
 20
23.5029355742
 10
270.5658945097
 20
24.049099809
 10
271.2088994046
 20
24.4579548549
 10
271.8453062187
 20
24.7127623401
 10
272.4490603175
 20
24.8030904098
 10
272.9954439945
 20
24.7252406503
 10
273.2862463832
 20
24.5988801348
  0
ARC
  5
253
330
1F
100
AcDbEntity
  8
0
  6
Continuous
 62
     7
370
    18
100
AcDbCircle
 10
270.1133833122
 20
18.6321896491
 30
0.0
 40
2.258971700579125
100
AcDbArc
 50
174.2558843122
 51
233.8780249769
  0
LWPOLYLINE
  5
254
330
1F
100
AcDbEntity
  8
0
  6
Continuous
 62
     7
370
    18
100
AcDbPolyline
 90
       29
 70
   128
 43
0.0
 10
247.8546321966
 20
22.5729374946
 10
247.9173229995
 20
23.8982003688
 10
248.1046064722
 20
25.2791782727
 10
248.4141270007
 20
26.698504166
 10
248.8419932457
 20
28.1383301596
 10
249.3828235815
 20
29.5805489965
 10
250.0298172188
 20
31.0070238945
 10
250.7748378403
 20
32.3998162975
 10
251.6085163333
 20
33.7414109626
 10
252.5203686691
 20
35.0149364834
 10
253.4989279417
 20
36.2043776369
 10
254.5318879297
 20
37.2947768924
 10
255.6062585134
 20
38.2724207107
 10
256.7085291585
 20
39.1250160511
 10
257.8248379967
 20
39.8418404517
 10
258.941146835
 20
40.4138788016
 10
260.04341748
 20
40.8339380587
 10
261.1177880638
 20
41.0967361128
 10
262.1507480518
 20
41.1989670736
 10
263.1293073243
 20
41.1393464074
 10
264.0411596602
 20
40.918623184
 10
264.8748381532
 20
40.5395732185
 10
265.6198587747
 20
40.0069633156
 10
266.266852412
 20
39.3274913709
 10
266.8076827477
 20
38.5097019483
 10
267.2355489927
 20
37.5638798059
 10
267.5450695213
 20
36.5019187082
 10
267.7323529939
 20
35.3371736991
 10
267.7592690251
 20
35.038087012
  0
LWPOLYLINE
  5
255
330
1F
100
AcDbEntity
  8
0
  6
Continuous
 62
     7
370
    18
100
AcDbPolyline
 90
       18
 70
   128
 43
0.0
 10
260.640273819
 20
18.9092808128
 10
260.04341748
 20
18.3848088693
 10
258.941146835
 20
17.5322135289
 10
257.8248379967
 20
16.8153891283
 10
256.7085291585
 20
16.2433507784
 10
255.6062585134
 20
15.8232915213
 10
254.5318879297
 20
15.5604934672
 10
253.4989279417
 20
15.4582625064
 10
252.5203686691
 20
15.5178831727
 10
251.6085163333
 20
15.738606396
 10
250.7748378403
 20
16.1176563615
 10
250.0298172188
 20
16.6502662644
 10
249.3828235815
 20
17.3297382092
 10
248.8419932457
 20
18.1475276317
 10
248.4141270007
 20
19.0933497741
 10
248.1046064722
 20
20.1553108718
 10
247.9173229995
 20
21.3200558809
 10
247.8546321966
 20
22.5729374946
  0
LWPOLYLINE
  5
256
330
1F
100
AcDbEntity
  8
0
  6
Continuous
 62
     7
370
    18
100
AcDbPolyline
 90
       20
 70
   128
 43
0.0
 10
247.2889477326
 20
22.5729374946
 10
247.3511762373
 20
23.9113412109
 10
247.5371083766
 20
25.3053471116
 10
247.8444860013
 20
26.7380333983
 10
248.2695777983
 20
28.1920088249
 10
248.8072247299
 20
29.6496246723
 10
249.4508999614
 20
31.0931871027
 10
250.1927898623
 20
32.5051738828
 10
251.023889495
 20
33.8684442637
 10
251.9341099576
 20
35.1664515195
 10
252.9124025197
 20
36.3834378046
 10
253.9468919773
 20
37.5046320515
 10
255.0250212038
 20
38.5164231527
 10
256.1337031089
 20
39.4065305753
 10
257.2594797592
 20
40.1641494521
 10
258.3886857801
 20
40.7800829338
 10
259.5076141438
 20
41.246853867
 10
260.6026824522
 20
41.5587969847
 10
261.6605983136
 20
41.7121262385
 10
261.8641086521
 20
41.7234602831
  0
ARC
  5
257
330
1F
100
AcDbEntity
  8
0
  6
Continuous
 62
     7
370
    18
100
AcDbCircle
 10
256.8448409881
 20
22.30811537
 30
0.0
 40
9.559562054287936
100
AcDbArc
 50
178.4125704355
 51
205.9785488754
  0
LWPOLYLINE
  5
258
330
1F
100
AcDbEntity
  8
0
  6
Continuous
 62
     7
370
    18
100
AcDbPolyline
 90
       23
 70
   128
 43
0.0
 10
233.7655294782
 20
30.3798406783
 10
233.8277579829
 20
31.7182443946
 10
234.0136901222
 20
33.1122502953
 10
234.3210677469
 20
34.544936582
 10
234.7461595439
 20
35.9989120085
 10
235.2838064755
 20
37.456527856
 10
235.927481707
 20
38.9000902863
 10
236.6693716079
 20
40.3120770665
 10
237.5004712406
 20
41.6753474474
 10
238.4106917032
 20
42.9733547032
 10
239.3889842653
 20
44.1903409883
 10
240.4234737229
 20
45.3115352351
 10
241.5016029494
 20
46.3233263363
 10
242.6102848545
 20
47.213433759
 10
243.7360615048
 20
47.9710526357
 10
244.8652675257
 20
48.5869861174
 10
245.9841958894
 20
49.0537570507
 10
247.0792641978
 20
49.3657001683
 10
248.1371800592
 20
49.5190294222
 10
249.1451015264
 20
49.5118826932
 10
250.0907944889
 20
49.3443472516
 10
250.9627778818
 20
49.0184553712
 10
251.2679882365
 20
48.8565074526
  0
LWPOLYLINE
  5
259
330
1F
100
AcDbEntity
  8
0
  6
Continuous
 62
     7
370
    18
100
AcDbPolyline
 90
        9
 70
   128
 43
0.0
 10
236.7691667841
 20
23.7410911847
 10
236.6693716079
 20
23.8003090488
 10
235.927481707
 20
24.3557279819
 10
235.2838064755
 20
25.0561188087
 10
234.7461595439
 20
25.8929807221
 10
234.3210677469
 20
26.8561556069
 10
234.0136901222
 20
27.9339512421
 10
233.8277579829
 20
29.1132844642
 10
233.7655294782
 20
30.3798406783
  0
LWPOLYLINE
  5
25A
330
1F
100
AcDbEntity
  8
0
  6
Continuous
 62
     7
370
    18
100
AcDbPolyline
 90
       20
 70
   128
 43
0.0
 10
260.7593304343
 20
21.4503769172
 10
260.8239168576
 20
22.3639368864
 10
261.0158180443
 20
23.3257853296
 10
261.3295134158
 20
24.3082515164
 10
261.7559782781
 20
25.2830715038
 10
262.2829442763
 20
26.2222020927
 10
262.8952515512
 20
27.098625554
 10
263.575285025
 20
27.8871290626
 10
264.303481563
 20
28.5650292283
 10
265.0588920001
 20
29.1128231655
 10
265.8197846967
 20
29.5147525101
 10
266.5642702096
 20
29.759254529
 10
267.2709309428
 20
29.8392948115
 10
267.9194375861
 20
29.7525714189
 10
268.4911339029
 20
29.501578709
 10
268.9695727442
 20
29.0935372995
 10
269.3409911881
 20
28.5401862265
 10
269.5947033623
 20
27.8574440265
 10
269.7234106181
 20
27.0649518595
 10
269.7395749223
 20
26.6463953779
  0
LWPOLYLINE
  5
25B
330
1F
100
AcDbEntity
  8
0
  6
Continuous
 62
     7
370
    18
100
AcDbPolyline
 90
       11
 70
   128
 43
0.0
 10
265.2399405103
 20
18.8519553708
 10
265.0588920001
 20
18.7520987874
 10
264.303481563
 20
18.4277143989
 10
263.575285025
 20
18.2648567378
 10
262.8952515512
 20
18.2682103099
 10
262.2829442763
 20
18.4376788396
 10
261.7559782781
 20
18.7683874376
 10
261.3295134158
 20
19.2508215758
 10
261.0158180443
 20
19.871102796
 10
260.8239168576
 20
20.6113868451
 10
260.7593304343
 20
21.4503769172
  0
LWPOLYLINE
  5
25C
330
1F
100
AcDbEntity
  8
0
  6
Continuous
 62
     7
370
    18
100
AcDbPolyline
 90
       16
 70
   128
 43
0.0
 10
260.1936453117
 20
21.450376537
 10
260.2587424363
 20
22.3951441443
 10
260.4522580449
 20
23.3893005119
 10
260.768913574
 20
24.4057275529
 10
261.2000715537
 20
25.416699696
 10
261.7339710377
 20
26.3946408085
 10
262.3560486436
 20
27.3128744583
 10
263.0493356549
 20
28.1463541108
 10
263.794921143
 20
28.8723443656
 10
264.5724674012
 20
29.471042087
 10
265.3607650159
 20
29.9261166134
 10
266.1383112741
 20
30.225154693
 10
266.8838967622
 20
30.3599991193
 10
267.5771837735
 20
30.3269716119
 10
268.1992613794
 20
30.1269734778
 10
268.3413420277
 20
30.0515840147
  0
ARC
  5
25D
330
1F
100
AcDbEntity
  8
0
  6
Continuous
 62
     7
370
    18
100
AcDbCircle
 10
263.6012775687
 20
21.1298869676
 30
0.0
 40
3.42267018021364
100
AcDbArc
 50
174.6271071941
 51
233.9399776637
  0
LWPOLYLINE
  5
25E
330
1F
100
AcDbEntity
  8
0
  6
Continuous
 62
     7
370
    18
100
AcDbPolyline
 90
       13
 70
   128
 43
0.0
 10
262.6685186284
 20
22.5525278017
 10
262.7332281995
 20
23.2530794419
 10
262.9241120996
 20
23.9932145493
 10
263.2315985488
 20
24.7358196307
 10
263.64026888
 20
25.4436574057
 10
264.1296306697
 20
26.081233956
 10
264.6751453148
 20
26.6165785398
 10
265.2494584406
 20
27.0228466745
 10
265.8237715663
 20
27.2796663605
 10
266.3692862114
 20
27.3741595796
 10
266.8586480011
 20
27.3015881252
 10
267.2673183323
 20
27.0655910711
 10
267.4252483359
 20
26.9016087606
  0
ARC
  5
25F
330
1F
100
AcDbEntity
  8
0
  6
Continuous
 62
     7
370
    18
100
AcDbCircle
 10
264.2868394968
 20
22.3088341501
 30
0.0
 40
1.636566231196414
100
AcDbArc
 50
171.4364981538
 51
254.9389135315
  0
LWPOLYLINE
  5
260
330
1F
100
AcDbEntity
  8
0
  6
Continuous
 62
     7
370
    18
100
AcDbPolyline
 90
        3
 70
   128
 43
0.0
 10
266.6079445521
 20
27.0107158295
 10
266.8866483258
 20
26.7724285742
 10
266.9669647432
 20
26.6669223061
  0
LWPOLYLINE
  5
261
330
1F
100
AcDbEntity
  8
0
  6
Continuous
 62
     7
370
    18
100
AcDbPolyline
 90
        3
 70
   128
 43
0.0
 10
263.8356341754
 20
21.2427109405
 10
263.5942878207
 20
21.2848850943
 10
263.3417483496
 20
21.3910951711
  0
LWPOLYLINE
  5
262
330
1F
100
AcDbEntity
  8
0
  6
Continuous
 62
     7
370
    18
100
AcDbPolyline
 90
        3
 70
   128
 43
0.0
 10
252.8665839562
 20
25.674472573
 10
252.9286448614
 20
26.4873328535
 10
253.0656313387
 20
27.2602669348
  0
LWPOLYLINE
  5
263
330
1F
100
AcDbEntity
  8
0
  6
Continuous
 62
     7
370
    18
100
AcDbPolyline
 90
        9
 70
   128
 43
0.0
 10
257.8613897379
 20
34.0754769379
 10
257.9531272825
 20
34.1251621023
 10
258.7344934281
 20
34.4666771893
 10
259.490522115
 20
34.6502457745
 10
260.2016324688
 20
34.6711139268
 10
260.8494071399
 20
34.5287408791
 10
261.4170692131
 20
34.2268142643
 10
261.8899163529
 20
33.7731539711
 10
261.9016456891
 20
33.7583991299
  0
ARC
  5
264
330
1F
100
AcDbEntity
  8
0
  6
Continuous
 62
     7
370
    18
100
AcDbCircle
 10
255.4898160819
 20
24.4461551164
 30
0.0
 40
2.385998195920241
100
AcDbArc
 50
232.3602099688
 51
262.0908643043
  0
LWPOLYLINE
  5
265
330
1F
100
AcDbEntity
  8
0
  6
Continuous
 62
     7
370
    18
100
AcDbPolyline
 90
       15
 70
   128
 43
0.0
 10
253.3170320217
 20
25.5630324472
 10
253.3804412967
 20
26.4833059883
 10
253.5689401132
 20
27.4516879825
 10
253.8773858972
 20
28.4417632832
 10
254.2973657424
 20
29.4265250303
 10
254.8174232795
 20
30.379112088
 10
255.4233729657
 20
31.2735397245
 10
256.0986858278
 20
32.0854103243
 10
256.8249413059
 20
32.7925787975
 10
257.5823289817
 20
33.3757547725
 10
258.3501892438
 20
33.8190310664
 10
259.1075769196
 20
34.1103162885
 10
259.8338323976
 20
34.2416645419
 10
260.5091452598
 20
34.2094935764
 10
261.1047933343
 20
34.0196511474
  0
LWPOLYLINE
  5
266
330
1F
100
AcDbEntity
  8
0
  6
Continuous
 62
     7
370
    18
100
AcDbPolyline
 90
        3
 70
   128
 43
0.0
 10
254.5812376088
 20
22.6126176174
 10
254.2973657424
 20
22.8314090854
 10
254.1485198664
 20
22.9790682532
  0
LINE
  5
267
330
1F
100
AcDbEntity
  8
0
  6
Continuous
 62
     7
370
    18
100
AcDbLine
 10
253.3188644218
 20
25.413376636
 30
0.0
 11
253.3170320217
 21
25.5630324472
 31
0.0
  0
LWPOLYLINE
  5
268
330
1F
100
AcDbEntity
  8
0
  6
Continuous
 62
     7
370
    18
100
AcDbPolyline
 90
       25
 70
   128
 43
0.0
 10
215.822926571
 20
37.5753005874
 10
216.2137424434
 20
39.4386466708
 10
216.7234730147
 20
41.3264479686
 10
217.3484436066
 20
43.2250925399
 10
218.0841445062
 20
45.1208863921
 10
218.9252744303
 20
47.0001637441
 10
219.8657668669
 20
48.8493699141
 10
220.8988388074
 20
50.6551731031
 10
222.0170414551
 20
52.4045491818
 10
223.212312908
 20
54.0848866298
 10
224.4760328185
 20
55.6840682797
 10
225.7990895648
 20
57.1905602854
 10
227.1719428126
 20
58.5935029912
 10
228.5846929916
 20
59.8827768958
 10
230.0271530768
 20
61.0490881975
 10
231.4889216047
 20
62.0840246335
 10
232.9594580559
 20
62.9801248538
 10
234.4281587731
 20
63.7309268099
 10
235.8844329818
 20
64.3310146828
 10
237.3177801281
 20
64.7760650499
 10
238.7178645206
 20
65.0628656401
 10
240.0745900134
 20
65.189350843
 10
241.3781735986
 20
65.1546061692
 10
242.6192158704
 20
64.9588830732
 10
243.7887685261
 20
64.6035953348
  0
LWPOLYLINE
  5
269
330
1F
100
AcDbEntity
  8
0
  6
Continuous
 62
     7
370
    18
100
AcDbPolyline
 90
       25
 70
   128
 43
0.0
 10
215.1067508575
 20
37.5700652711
 10
215.4962232991
 20
39.4584866037
 10
216.0058168932
 20
41.3723904228
 10
216.6318991082
 20
43.2981370268
 10
217.3700102807
 20
45.2220023801
 10
218.2148886401
 20
47.1302765909
 10
219.1605124555
 20
49.0093578245
 10
220.2001434994
 20
50.8458557221
 10
221.3263724875
 20
52.626682272
 10
222.5311730794
 20
54.3391461016
 10
223.8059585132
 20
55.9710414466
 10
225.1416448261
 20
57.5107409211
 10
226.5287120986
 20
58.9472688973
 10
227.9572755776
 20
60.2703897115
 10
229.417154165
 20
61.4706730583
 10
230.8979433516
 20
62.5395649918
 10
232.3890903732
 20
63.4694465212
 10
233.8799682147
 20
64.2536930634
 10
235.359951672
 20
64.8867122681
 10
236.8184937434
 20
65.3639972437
 10
238.2451994684
 20
65.6821418064
 10
239.629901249
 20
65.8388824421
 10
240.9627301372
 20
65.833099915
 10
242.2341886042
 20
65.6648369416
 10
243.4352150776
 20
65.3352898199
  0
LINE
  5
26A
330
1F
100
AcDbEntity
  8
0
  6
Continuous
 62
     7
370
    18
100
AcDbLine
 10
254.5222715335
 20
22.7111444372
 30
0.0
 11
254.1942442579
 21
23.0900446736
 31
0.0
  0
LWPOLYLINE
  5
26B
330
1F
100
AcDbEntity
  8
0
  6
Continuous
 62
     7
370
    18
100
AcDbPolyline
 90
       16
 70
   128
 43
0.0
 10
253.5715795596
 20
25.2674872922
 10
253.5697998431
 20
25.4427036376
 10
253.6364540962
 20
26.3618435439
 10
253.8273533075
 20
27.328139173
 10
254.1373223048
 20
28.3153916827
 10
254.557956414
 20
29.2968335677
 10
255.0778512906
 20
30.2458555905
 10
255.6829109539
 20
31.1367268157
 10
256.3567305664
 20
31.945292774
 10
257.0810407863
 20
32.6496310344
 10
257.8362037752
 20
33.2306455311
 10
258.6017447259
 20
33.672582915
 10
259.3569077149
 20
33.9634610467
 10
260.0812179348
 20
34.0953935656
 10
260.7550375473
 20
34.0648031722
 10
261.0378950904
 20
33.9977578918
  0
LWPOLYLINE
  5
26C
330
1F
100
AcDbEntity
  8
0
  6
Continuous
 62
     7
370
    18
100
AcDbPolyline
 90
       26
 70
   128
 43
0.0
 10
222.2591830023
 20
35.3389568649
 10
222.3212534564
 20
36.765286171
 10
222.5068049569
 20
38.2481600861
 10
222.8138710901
 20
39.7718597415
 10
223.2391986461
 20
41.3202348267
 10
223.7782772534
 20
42.8768711734
 10
224.4253927214
 20
44.4252676532
 10
225.1736856506
 20
45.9490118393
 10
226.0152238723
 20
47.4319511033
 10
226.9410874011
 20
48.8583656133
 10
227.9414612898
 20
50.2131360064
 10
229.0057419838
 20
51.4819013656
 10
230.1226469695
 20
52.6512107314
 10
231.2803369337
 20
53.70867043
 10
232.466540558
 20
54.6430716295
 10
233.6686835524
 20
55.4445089358
 10
234.8740228749
 20
56.1044867739
 10
236.0697816507
 20
56.6160094426
 10
237.2432845856
 20
56.9736547236
 10
238.3820921031
 20
57.1736300251
 10
239.4741324238
 20
57.2138174499
 10
240.5078299816
 20
57.0937901336
 10
241.4722275838
 20
56.8148204084
 10
242.3571019854
 20
56.3798666735
 10
243.1530728784
 20
55.7935374539
 10
243.7649186782
 20
55.1671552007
  0
LWPOLYLINE
  5
26D
330
1F
100
AcDbEntity
  8
0
  6
Continuous
 62
     7
370
    18
100
AcDbPolyline
 90
       11
 70
   128
 43
0.0
 10
227.5443359024
 20
27.0841556547
 10
226.9410874011
 20
27.2251598737
 10
226.0152238723
 20
27.5825951071
 10
225.1736856506
 20
28.0939150219
 10
224.4253927214
 20
28.7536985819
 10
223.7782772534
 20
29.5549514457
 10
223.2391986461
 20
30.4891808806
 10
222.8138710901
 20
31.5464832225
 10
222.5068049569
 20
32.715651867
 10
222.3212534564
 20
33.9842925796
 10
222.2591830023
 20
35.3389568649
  0
LWPOLYLINE
  5
26E
330
1F
100
AcDbEntity
  8
0
  6
Continuous
 62
     7
370
    18
100
AcDbPolyline
 90
       19
 70
   128
 43
0.0
 10
235.2415363145
 20
24.5048186545
 10
234.350314861
 20
23.865150706
 10
232.885850293
 20
22.9303834792
 10
231.4200888863
 20
22.1382163792
 10
229.9635338907
 20
21.4943219252
 10
228.5266228661
 20
21.0033156941
 10
227.119652403
 20
20.6687159044
 10
225.7527049823
 20
20.4929209655
 10
224.4355751366
 20
20.4771896651
 10
223.1777017843
 20
20.6216355672
 10
221.988098424
 20
20.9252232162
 10
220.8752892558
 20
21.3857768884
 10
219.8472485953
 20
21.9999973279
 10
218.9113435798
 20
22.7634811433
 10
218.0742808266
 20
23.6707592169
 10
217.3420583591
 20
24.7153297883
 10
216.7199234598
 20
25.8897071292
 10
216.2123331582
 20
27.1854759191
 10
215.822926571
 20
28.5933517053
  0
ARC
  5
26F
330
1F
100
AcDbEntity
  8
0
  6
Continuous
 62
     7
370
    18
100
AcDbCircle
 10
238.6781694739
 20
54.9577811838
 30
0.0
 40
11.12401072022552
100
AcDbArc
 50
9.0277736643
 51
48.7055209086
  0
LWPOLYLINE
  5
270
330
1F
100
AcDbEntity
  8
0
  6
Continuous
 62
     7
370
    18
100
AcDbPolyline
 90
       32
 70
   128
 43
0.0
 10
219.2989655114
 20
35.0910007134
 10
219.3615496302
 20
36.6212271682
 10
219.5487158819
 20
38.2094234262
 10
219.8587191236
 20
39.8407621458
 10
220.2886617594
 20
41.5000103863
 10
220.8345319362
 20
43.1716775149
 10
221.4912312025
 20
44.8401543685
 10
222.2526304845
 20
46.4898642004
 10
223.1116188185
 20
48.1054029809
 10
224.0601771082
 20
49.6716880614
 10
225.0894479299
 20
51.1740935296
 10
226.1898224606
 20
52.59859469
 10
227.3510264183
 20
53.9318876379
 10
228.5622171968
 20
55.1615282253
 10
229.8120872578
 20
56.2760320522
 10
231.08896604
 20
57.2649933741
 10
232.3809323032
 20
58.119181896
 10
233.6759230556
 20
58.8306178225
 10
234.9618473583
 20
59.3926618904
 10
236.2266986482
 20
59.8000665236
 10
237.4586678231
 20
60.0490259052
 10
238.6462517566
 20
60.1372158092
 10
239.7783628643
 20
60.0638142651
 10
240.8444305189
 20
59.8295053505
 10
241.8345014787
 20
59.4364778511
 10
242.7393317545
 20
58.888400727
 10
243.5504722203
 20
58.190390405
 10
244.2603509312
 20
57.3489655229
 10
244.8623383197
 20
56.3719811438
 10
245.3508163427
 20
55.268560688
 10
245.7212212867
 20
54.049004293
 10
245.9361662628
 20
52.9587128496
  0
LWPOLYLINE
  5
271
330
1F
100
AcDbEntity
  8
0
  6
Continuous
 62
     7
370
    18
100
AcDbPolyline
 90
       16
 70
   128
 43
0.0
 10
230.5528059373
 20
26.3078346597
 10
229.8120872578
 20
26.0441613742
 10
228.5622171968
 20
25.7155959454
 10
227.3510264183
 20
25.546825426
 10
226.1898224606
 20
25.5394208219
 10
225.0894479299
 20
25.6934565916
 10
224.0601771082
 20
26.0074912644
 10
223.1116188185
 20
26.4785942552
 10
222.2526304845
 20
27.1023662156
 10
221.4912312025
 20
27.8729831485
 10
220.8345319362
 20
28.7832511682
 10
220.2886617594
 20
29.8246700059
 10
219.8587191236
 20
30.9875170453
 10
219.5487158819
 20
32.2609336405
 10
219.3615496302
 20
33.6330323441
 10
219.2989655114
 20
35.0910007134
  0
LWPOLYLINE
  5
272
330
1F
100
AcDbEntity
  8
0
  6
Continuous
 62
     7
370
    18
100
AcDbPolyline
 90
       20
 70
   128
 43
0.0
 10
204.9686053212
 20
38.431665321
 10
205.0306033353
 20
40.1756153636
 10
205.2161627384
 20
41.9789144047
 10
205.5239822465
 20
43.828913787
 10
205.9519018337
 20
45.712636414
 10
206.4969198539
 20
47.6168695247
 10
207.1552154321
 20
49.5282570876
 10
207.9221682199
 20
51.433390294
 10
208.7924005428
 20
53.3189083156
 10
209.7598090105
 20
55.1715849939
 10
210.8176053461
 20
56.9784231343
 10
211.9583717042
 20
58.7267518396
 10
213.1741061106
 20
60.4043059745
 10
214.4562810724
 20
61.999318556
 10
215.7959028472
 20
63.5006036388
 10
217.1835746636
 20
64.8976277924
 10
218.6095638921
 20
66.1805960273
 10
220.063867571
 20
67.3405048311
 10
221.5362850929
 20
68.369222153
 10
222.9624142621
 20
69.2295252899
  0
LWPOLYLINE
  5
273
330
1F
100
AcDbEntity
  8
0
  6
Continuous
 62
     7
370
    18
100
AcDbPolyline
 90
        3
 70
   128
 43
0.0
 10
205.0612691189
 20
36.3977602202
 10
205.0306033353
 20
36.7592966619
 10
204.9686053212
 20
38.431665321
  0
LWPOLYLINE
  5
274
330
1F
100
AcDbEntity
  8
0
  6
Continuous
 62
     7
370
    18
100
AcDbPolyline
 90
       21
 70
   128
 43
0.0
 10
212.7916185419
 20
40.2584596785
 10
213.2057376703
 20
42.1459764092
 10
213.7463605645
 20
44.0569263405
 10
214.4091184402
 20
45.9758709649
 10
215.1886573306
 20
47.8873079881
 10
216.0786802332
 20
49.7757975626
 10
217.0719971589
 20
51.6260824355
 10
218.1605837429
 20
53.4232183628
 10
219.3356464405
 20
55.15268399
 10
220.5876923325
 20
56.8005093639
 10
221.9066074924
 20
58.3533835306
 10
223.28173667
 20
59.7987613732
 10
224.7019715366
 20
61.1249677866
 10
226.1558387652
 20
62.3212880699
 10
227.6315937083
 20
63.3780569862
 10
229.1173147964
 20
64.2867391136
 10
230.6009998707
 20
65.0399935824
 10
232.0706631125
 20
65.6317361149
 10
233.5144323842
 20
66.057184573
 10
234.920644204
 20
66.3129046601
 10
235.2704261682
 20
66.3505436497
  0
LWPOLYLINE
  5
275
330
1F
100
AcDbEntity
  8
0
  6
Continuous
 62
     7
370
    18
100
AcDbPolyline
 90
       18
 70
   128
 43
0.0
 10
213.365613179
 20
40.263256279
 10
213.7812311547
 20
42.1304129961
 10
214.3223848358
 20
44.0200592702
 10
214.9846540715
 20
45.916757359
 10
215.7626282602
 20
47.8050133387
 10
216.6499511302
 20
49.6694002952
 10
217.6393747408
 20
51.4946898786
 10
218.7228174337
 20
53.2659694096
 10
219.8914263951
 20
54.9687677297
 10
221.1356560223
 20
56.5891772487
 10
222.4453410224
 20
58.1139577404
 10
223.8097830105
 20
59.5306547772
 10
225.2178354622
 20
60.8276928785
 10
226.6579950868
 20
61.9944784495
 10
228.1184974806
 20
63.0214778155
 10
229.5874110106
 20
63.9003018376
 10
231.0527358846
 20
64.6237722306
 10
231.1965634869
 20
64.6864551929
  0
LINE
  5
276
330
1F
100
AcDbEntity
  8
0
  6
Continuous
 62
     7
370
    18
100
AcDbLine
 10
206.5454542755
 20
37.9337232433
 30
0.0
 11
208.6985932032
 21
39.1767038887
 31
0.0
  0
LWPOLYLINE
  5
277
330
1F
100
AcDbEntity
  8
0
  6
Continuous
 62
     7
370
    18
100
AcDbPolyline
 90
       20
 70
   128
 43
0.0
 10
194.0982854323
 20
58.1157623952
 10
194.707348223
 20
59.7883806368
 10
195.4308094144
 20
61.4477195876
 10
196.2609995971
 20
63.0761889395
 10
197.1891186409
 20
64.6565266304
 10
198.2053272323
 20
66.171978685
 10
199.2988535587
 20
67.6064809552
 10
200.4581049319
 20
68.944826982
 10
201.6707925821
 20
70.1728282512
 10
202.9240612266
 20
71.2774688407
 10
204.2046249769
 20
72.2470363496
 10
205.4989091728
 20
73.0712547282
 10
206.7931933687
 20
73.741385074
 10
208.073757119
 20
74.2503250004
 10
209.3270257635
 20
74.5926775877
 10
210.5397134137
 20
74.7648156766
 10
211.6989647869
 20
74.7649127958
 10
212.7924911133
 20
74.5929691477
 10
213.8086997047
 20
74.2508065586
 10
214.0779021628
 20
74.1249437015
  0
ARC
  5
278
330
1F
100
AcDbEntity
  8
0
  6
Continuous
 62
     7
370
    18
100
AcDbCircle
 10
199.9582763058
 20
48.7571381402
 30
0.0
 40
6.567090909487387
100
AcDbArc
 50
206.8329030038
 51
236.0333930637
  0
ARC
  5
279
330
1F
100
AcDbEntity
  8
0
  6
Continuous
 62
     7
370
    18
100
AcDbCircle
 10
227.440572435
 20
31.0720436384
 30
0.0
 40
12.58145656459634
100
AcDbArc
 50
191.3865744508
 51
214.2485105814
  0
LINE
  5
27A
330
1F
100
AcDbEntity
  8
0
  6
Continuous
 62
     7
370
    18
100
AcDbLine
 10
210.5105566849
 20
31.2414428072
 30
0.0
 11
212.2341270301
 21
32.2364387884
 31
0.0
  0
LINE
  5
27B
330
1F
100
AcDbEntity
  8
0
  6
Continuous
 62
     7
370
    18
100
AcDbLine
 10
206.5454542755
 20
37.1171823927
 30
0.0
 11
208.6985932032
 21
38.360163038
 31
0.0
  0
LINE
  5
27C
330
1F
100
AcDbEntity
  8
0
  6
Continuous
 62
     7
370
    18
100
AcDbLine
 10
214.2173897922
 20
30.5642229012
 30
0.0
 11
214.1505014265
 21
30.8282010563
 31
0.0
  0
LINE
  5
27D
330
1F
100
AcDbEntity
  8
0
  6
Continuous
 62
     7
370
    18
100
AcDbLine
 10
213.7092614596
 20
30.099043571
 30
0.0
 11
213.365613179
 21
31.281307397
 31
0.0
  0
LWPOLYLINE
  5
27E
330
1F
100
AcDbEntity
  8
0
  6
Continuous
 62
     7
370
    18
100
AcDbPolyline
 90
        3
 70
   128
 43
0.0
 10
213.6196263081
 20
28.8461952243
 10
213.1889316144
 20
29.9148841004
 10
212.7916185419
 20
31.2765107965
  0
LINE
  5
27F
330
1F
100
AcDbEntity
  8
0
  6
Continuous
 62
     7
370
    18
100
AcDbLine
 10
241.4231166271
 20
66.496345207
 30
0.0
 11
241.3227478587
 21
66.4384035502
 31
0.0
  0
ARC
  5
280
330
1F
100
AcDbEntity
  8
0
  6
Continuous
 62
     7
370
    18
100
AcDbCircle
 10
200.0629634779
 20
55.7999266966
 30
0.0
 40
1.982758115011684
100
AcDbArc
 50
160.3181851691
 51
206.3321513809
  0
ARC
  5
281
330
1F
100
AcDbEntity
  8
0
  6
Continuous
 62
     7
370
    18
100
AcDbCircle
 10
197.8108525109
 20
55.7402588525
 30
0.0
 40
0.8231407192542357
100
AcDbArc
 50
40.3516534992
 51
62.0985447238
  0
LINE
  5
282
330
1F
100
AcDbEntity
  8
0
  6
Continuous
 62
     7
370
    18
100
AcDbLine
 10
198.1960430718
 20
56.4677125455
 30
0.0
 11
198.3438454841
 21
57.0219673782
 31
0.0
  0
LINE
  5
283
330
1F
100
AcDbEntity
  8
0
  6
Continuous
 62
     7
370
    18
100
AcDbLine
 10
198.1960430718
 20
56.4677125455
 30
0.0
 11
196.9428236535
 21
57.1911807163
 31
0.0
  0
LINE
  5
284
330
1F
100
AcDbEntity
  8
0
  6
Continuous
 62
     7
370
    18
100
AcDbLine
 10
194.0981418696
 20
58.997667753
 30
0.0
 11
194.083521523
 21
59.1733935968
 31
0.0
  0
ARC
  5
285
330
1F
100
AcDbEntity
  8
0
  6
Continuous
 62
     7
370
    18
100
AcDbCircle
 10
197.9143940311
 20
42.4388157975
 30
0.0
 40
0.5806338492594777
100
AcDbArc
 50
25.5709532967
 51
60.9828307538
  0
ARC
  5
286
330
1F
100
AcDbEntity
  8
0
  6
Continuous
 62
     7
370
    18
100
AcDbCircle
 10
200.1515008823
 20
43.5925574389
 30
0.0
 40
2.059398257790706
100
AcDbArc
 50
172.8727688226
 51
198.2811498094
  0
LINE
  5
287
330
1F
100
AcDbEntity
  8
0
  6
Continuous
 62
     7
370
    18
100
AcDbLine
 10
197.3508584892
 20
47.9801680516
 30
0.0
 11
195.733790596
 21
48.9136814759
 31
0.0
  0
LINE
  5
288
330
1F
100
AcDbEntity
  8
0
  6
Continuous
 62
     7
370
    18
100
AcDbLine
 10
198.1960430718
 20
42.9465652286
 30
0.0
 11
196.9428236535
 21
43.6700333994
 31
0.0
  0
LINE
  5
289
330
1F
100
AcDbEntity
  8
0
  6
Continuous
 62
     7
370
    18
100
AcDbLine
 10
198.1960430718
 20
42.9465652286
 30
0.0
 11
198.3438454841
 21
42.5629594287
 31
0.0
  0
OLE2FRAME
  5
28A
330
1F
100
AcDbEntity
  8
0
100
AcDbOle2Frame
 70
     2
  3
Paintbrush-Bild
 10
13.8511154363
 20
38.264191557
 30
0.0
 11
51.6290888628
 21
31.9806341108
 31
0.0
 71
     2
 72
     0
 73
     1
 90
    12928
310
80552BED0767C5B32B40DDAF6807D121434000000000000000006FFBDDFB85D0
310
4940DDAF6807D121434000000000000000006FFBDDFB85D04940416F4BD60AFB
310
3F4000000000000000002BED0767C5B32B40416F4BD60AFB3F40000000000000
310
0000000000000100000000010000010000000100000000000100000000320000
310
D0CF11E0A1B11AE1000000000000000000000000000000003E000300FEFF0900
310
0600000000000000000000000100000001000000000000000010000002000000
310
01000000FEFFFFFF0000000000000000FFFFFFFFFFFFFFFFFFFFFFFFFFFFFFFF
310
FFFFFFFFFFFFFFFFFFFFFFFFFFFFFFFFFFFFFFFFFFFFFFFFFFFFFFFFFFFFFFFF
310
FFFFFFFFFFFFFFFFFFFFFFFFFFFFFFFFFFFFFFFFFFFFFFFFFFFFFFFFFFFFFFFF
310
FFFFFFFFFFFFFFFFFFFFFFFFFFFFFFFFFFFFFFFFFFFFFFFFFFFFFFFFFFFFFFFF
310
FFFFFFFFFFFFFFFFFFFFFFFFFFFFFFFFFFFFFFFFFFFFFFFFFFFFFFFFFFFFFFFF
310
FFFFFFFFFFFFFFFFFFFFFFFFFFFFFFFFFFFFFFFFFFFFFFFFFFFFFFFFFFFFFFFF
310
FFFFFFFFFFFFFFFFFFFFFFFFFFFFFFFFFFFFFFFFFFFFFFFFFFFFFFFFFFFFFFFF
310
FFFFFFFFFFFFFFFFFFFFFFFFFFFFFFFFFFFFFFFFFFFFFFFFFFFFFFFFFFFFFFFF
310
FFFFFFFFFFFFFFFFFFFFFFFFFFFFFFFFFFFFFFFFFFFFFFFFFFFFFFFFFFFFFFFF
310
FFFFFFFFFFFFFFFFFFFFFFFFFFFFFFFFFFFFFFFFFFFFFFFFFFFFFFFFFFFFFFFF
310
FFFFFFFFFFFFFFFFFFFFFFFFFFFFFFFFFFFFFFFFFFFFFFFFFFFFFFFFFFFFFFFF
310
FFFFFFFFFFFFFFFFFFFFFFFFFFFFFFFFFFFFFFFFFFFFFFFFFFFFFFFFFFFFFFFF
310
FFFFFFFFFFFFFFFFFFFFFFFFFFFFFFFFFFFFFFFFFFFFFFFFFFFFFFFFFFFFFFFF
310
FFFFFFFFFFFFFFFFFFFFFFFFFFFFFFFFFFFFFFFFFFFFFFFFFFFFFFFFFFFFFFFF
310
FDFFFFFFFEFFFFFFFEFFFFFFFEFFFFFF05000000060000000700000008000000
310
090000000A0000000B0000000C0000000D0000000E0000000F00000010000000
310
11000000120000001300000014000000150000001600000017000000FEFFFFFF
310
FFFFFFFFFFFFFFFFFFFFFFFFFFFFFFFFFFFFFFFFFFFFFFFFFFFFFFFFFFFFFFFF
310
FFFFFFFFFFFFFFFFFFFFFFFFFFFFFFFFFFFFFFFFFFFFFFFFFFFFFFFFFFFFFFFF
310
FFFFFFFFFFFFFFFFFFFFFFFFFFFFFFFFFFFFFFFFFFFFFFFFFFFFFFFFFFFFFFFF
310
FFFFFFFFFFFFFFFFFFFFFFFFFFFFFFFFFFFFFFFFFFFFFFFFFFFFFFFFFFFFFFFF
310
FFFFFFFFFFFFFFFFFFFFFFFFFFFFFFFFFFFFFFFFFFFFFFFFFFFFFFFFFFFFFFFF
310
FFFFFFFFFFFFFFFFFFFFFFFFFFFFFFFFFFFFFFFFFFFFFFFFFFFFFFFFFFFFFFFF
310
FFFFFFFFFFFFFFFFFFFFFFFFFFFFFFFFFFFFFFFFFFFFFFFFFFFFFFFFFFFFFFFF
310
FFFFFFFFFFFFFFFFFFFFFFFFFFFFFFFFFFFFFFFFFFFFFFFFFFFFFFFFFFFFFFFF
310
FFFFFFFFFFFFFFFFFFFFFFFFFFFFFFFFFFFFFFFFFFFFFFFFFFFFFFFFFFFFFFFF
310
FFFFFFFFFFFFFFFFFFFFFFFFFFFFFFFFFFFFFFFFFFFFFFFFFFFFFFFFFFFFFFFF
310
FFFFFFFFFFFFFFFFFFFFFFFFFFFFFFFFFFFFFFFFFFFFFFFFFFFFFFFFFFFFFFFF
310
FFFFFFFFFFFFFFFFFFFFFFFFFFFFFFFFFFFFFFFFFFFFFFFFFFFFFFFFFFFFFFFF
310
FFFFFFFFFFFFFFFFFFFFFFFFFFFFFFFFFFFFFFFFFFFFFFFFFFFFFFFFFFFFFFFF
310
52006F006F007400200045006E00740072007900000000000000000000000000
310
0000000000000000000000000000000000000000000000000000000000000000
310
16000500FFFFFFFFFFFFFFFF020000000A00030000000000C000000000000046
310
000000000000000000000000A0C965BE61A9D30103000000C000000000000000
310
01004F006C006500000000000000000000000000000000000000000000000000
310
0000000000000000000000000000000000000000000000000000000000000000
310
0A000200FFFFFFFFFFFFFFFFFFFFFFFF00000000000000000000000000000000
310
0000000000000000000000000000000000000000000000001400000000000000
310
010043006F006D0070004F0062006A0000000000000000000000000000000000
310
0000000000000000000000000000000000000000000000000000000000000000
310
120002010100000003000000FFFFFFFF00000000000000000000000000000000
310
0000000000000000000000000000000000000000010000004D00000000000000
310
01004F006C006500310030004E00610074006900760065000000000000000000
310
0000000000000000000000000000000000000000000000000000000000000000
310
1A000200FFFFFFFFFFFFFFFFFFFFFFFF00000000000000000000000000000000
310
0000000000000000000000000000000000000000040000002426000000000000
310
FEFFFFFF02000000FEFFFFFFFFFFFFFFFFFFFFFFFFFFFFFFFFFFFFFFFFFFFFFF
310
FFFFFFFFFFFFFFFFFFFFFFFFFFFFFFFFFFFFFFFFFFFFFFFFFFFFFFFFFFFFFFFF
310
FFFFFFFFFFFFFFFFFFFFFFFFFFFFFFFFFFFFFFFFFFFFFFFFFFFFFFFFFFFFFFFF
310
FFFFFFFFFFFFFFFFFFFFFFFFFFFFFFFFFFFFFFFFFFFFFFFFFFFFFFFFFFFFFFFF
310
FFFFFFFFFFFFFFFFFFFFFFFFFFFFFFFFFFFFFFFFFFFFFFFFFFFFFFFFFFFFFFFF
310
FFFFFFFFFFFFFFFFFFFFFFFFFFFFFFFFFFFFFFFFFFFFFFFFFFFFFFFFFFFFFFFF
310
FFFFFFFFFFFFFFFFFFFFFFFFFFFFFFFFFFFFFFFFFFFFFFFFFFFFFFFFFFFFFFFF
310
FFFFFFFFFFFFFFFFFFFFFFFFFFFFFFFFFFFFFFFFFFFFFFFFFFFFFFFFFFFFFFFF
310
FFFFFFFFFFFFFFFFFFFFFFFFFFFFFFFFFFFFFFFFFFFFFFFFFFFFFFFFFFFFFFFF
310
FFFFFFFFFFFFFFFFFFFFFFFFFFFFFFFFFFFFFFFFFFFFFFFFFFFFFFFFFFFFFFFF
310
FFFFFFFFFFFFFFFFFFFFFFFFFFFFFFFFFFFFFFFFFFFFFFFFFFFFFFFFFFFFFFFF
310
FFFFFFFFFFFFFFFFFFFFFFFFFFFFFFFFFFFFFFFFFFFFFFFFFFFFFFFFFFFFFFFF
310
FFFFFFFFFFFFFFFFFFFFFFFFFFFFFFFFFFFFFFFFFFFFFFFFFFFFFFFFFFFFFFFF
310
FFFFFFFFFFFFFFFFFFFFFFFFFFFFFFFFFFFFFFFFFFFFFFFFFFFFFFFFFFFFFFFF
310
FFFFFFFFFFFFFFFFFFFFFFFFFFFFFFFFFFFFFFFFFFFFFFFFFFFFFFFFFFFFFFFF
310
FFFFFFFFFFFFFFFFFFFFFFFFFFFFFFFFFFFFFFFFFFFFFFFFFFFFFFFFFFFFFFFF
310
0100000200000000000000000000000000000000000000000000000000000000
310
0000000000000000000000000000000000000000000000000000000000000000
310
0100FEFF030A0000FFFFFFFF0A00030000000000C00000000000004607000000
310
5042727573680007000000504272757368000700000050427275736800F439B2
310
7100000000000000000000000000000000000000000000000000000000000000
310
0000000000000000000000000000000000000000000000000000000000000000
310
0000000000000000000000000000000000000000000000000000000000000000
310
0000000000000000000000000000000000000000000000000000000000000000
310
0000000000000000000000000000000000000000000000000000000000000000
310
0000000000000000000000000000000000000000000000000000000000000000
310
0000000000000000000000000000000000000000000000000000000000000000
310
0000000000000000000000000000000000000000000000000000000000000000
310
0000000000000000000000000000000000000000000000000000000000000000
310
0000000000000000000000000000000000000000000000000000000000000000
310
0000000000000000000000000000000000000000000000000000000000000000
310
0000000000000000000000000000000000000000000000000000000000000000
310
20260000424D0E260000000000003E00000028000000B40200006E0000000100
310
01000000000000000000130B0000130B00000200000002000000000000FFFFFF
310
FFFFFFFFFFFFFFFFFFFFFFFFFFFFFFFFFFFFFFFFFFFFFFFFFFFFFFFFFFFFFFFF
310
FFFFFFFFFFFFFFFFFFFFFFFFFFFFFFFFFFFFFFFFFFFFFFFFFFFFFFFFFFFFFFFF
310
FFFFFFFFFFFFFFFFFFFFFFFFFFFFFFFFFFFFFFFFFFFFFFFFF000FFFFFFFFFFFF
310
FFFFFFFFFFFFFFFFFFFFFFFFFFFFFFFFFFFFFFFFFFFFFFFFFFFFFFFFFFFFFFFF
310
FFFFFFFFFFFFFFFFFFFFFFFFFFFFFFFFFFFFFFFFFFFFFFFFFFFFFFFFFFFFFFFF
310
FFFFFFFFFFFFFFFFFFFFFFFFFFFFFFFFF000FFFFFFFFFFFFFFFFFFFFFFFFFFFF
310
FFFFFFFFFFFFFFFFFFFFFFFFFFFFFFFFFFFFFFFFFFFFFFFFFFFFFFFFFFFFFFFF
310
FFFFFFFFFFFFFFFFFFFFFFFFFFFFFFFFFFFFFFFFFFFFFFFFFFFFFFFFFFFFFFFF
310
FFFFFFFFFFFFFFFFF000FFFFFFFFFFFFFFFFFFFFFFFFFFFFFFFFFFFFFFFFFFFF
310
FFFFFFFFFFFFFFFFFFFFFFFFFFFFFFFFFFFFFFFFFFFFFFFFFFFFFFFFFFFFFFFF
310
FFFFFFFFFFFFFFFFFFFFFFFFFFFFFFFFFFFFFFFFFFFFFFFFFFFFFFFFFFFFFFFF
310
F000FFFFFFFFFFFFFFFFFFFFFFFFFFFFFFFFFFFFFFFFFFFFFFFFFFFFFFFFFFFF
310
FFFFFFFFFFFFFFFFFFFFFFFFFFFFFFFFFFFFFFFFFFFFFFFFFFFFFFFFFFFFFFFF
310
FFFFFFFFFFFFFFFFFFFFFFFFFFFFFFFFFFFFFFFFFFFFFFFFF000FFFFFFFFFFFF
310
FFFFFFFFFFFFFFFFFFFFFFFFFFFFFFFFFFFFFFFFFFFFFFFFFFFFFFFFFFFFFFFF
310
FFFFFFFFFFFFFFFFFFFFFFFFFFFFFFFFFFFFFFFFFFFFFFFFFFFFFFFFFFFFFFFF
310
FFFFFFFFFFFFFFFFFFFFFFFFFFFFFFFFF000FFFFFFFFFFFFFFFFFFFFFFFFFFFF
310
FFFFFFFFFFFFFFFFFFFFFFFFFFFFFFFFFFFFFFFFFFFFFFFFFFFFFFFFFFFFFFFF
310
FFFFFFFFFFFFFFFFFFFFFFFFFFFFFFFFFFFFFFFFFFFFFFFFFFFFFFFFFFFFFFFF
310
FFFFFFFFFFFFFFFFF000FFFFFFFFFFFFFFFFFFFFFFFFFFFFFFFFFFFFFFFFFFFF
310
FFFFFFFFFFFFFFFFFFFFFFFFFFFFFFFFFFFFFFFFFFFFFFFFFFFFFFFFFFFFFFFF
310
FFFFFFFFFFFFFFFFFFFFFFFFFFFFFFFFFFFFFFFFFFFFFFFFFFFFFFFFFFFFFFFF
310
F000FFFFFFFFFFFFFFFFFFFFFFFFFFFFFFFFFFFFFFFFFFFFFFFFFFFFFFFFFFFF
310
FFFFFFFFFFFFFFFFFFFFFFFFFFFFFFFFFFFFFFFFFFFFFFFFFFFFFFFFFFFFFFFF
310
FFFFFFFFFFFFFFFFFFFFFFFFFFFFFFFFFFFFFFFFFFFFFFFFF000FFFFFFFFFFFF
310
FFFFFFFFFFFFFFFFFFFFFFFFFFFFFFFFFFFFFFFFFFFFFFFFFFFFFFFFFFFFFFFF
310
FFFFFFFFFFFFFFFFFFFFFFFFFFFFFFFFFFFFFFFFFFFFFFFFFFFFFFFFFFFFFFFF
310
FFFFFFFFFFFFFFFFFFFFFFFFFFFFFFFFF000FFFFFFFFFFFFFFFFFFFFFFFFFFFF
310
FFFFFFFFFFFFFFFFFFFFFFFFFFFFFFFFFFFFFFFFFFFFFFFFFFFFFFFFFFFFFFFF
310
FFFFFFFFFFFFFFFFFFFFFFFFFFFFFFFFFFFFFFFFFFFFFFFFFFFFFFFFFFFFFFFF
310
FFFFFFFFFFFFFFFFF000FFFFFFFFFFFFFFFFFFFFFFFFFFFFFFFFFFFFFFFFFFFF
310
FFFFFFFFFFFFFFFFFFFFFFFFFFFFFFFFFFFFFFFFFFFFFFFFFFFFFFFFFFFFFFFF
310
FFFFFFFFFFFFFFFFFFFFFFFFFFFFFFFFFFFFFFFFFFFFFFFFFFFFFFFFFFFFFFFF
310
F000FFFFFFFFFFFFFFFFFFFFFFFFFFFFFFFFFFFFFFFFFFFFFFFFFFFFFFFFFFFF
310
FFFFFFFFFFFFFFFFFFFFFFFFFFFFFFFFFFFFFFFFFFFFFFFFFFFFFFFFFFFFFFFF
310
FFFFFFFFFFFFFFFFFFFFFFFFFFFFFFFFFFFFFFFFFFFFFFFFF000FFFFFFFFFFFF
310
FFFFFFFFFFFFFFFFFFFFFFFFFFFFFFFFFFFFFFFFFFFFFFFFFFFFFFFFFFFFFFFF
310
FFFFFFFFFFFFFFFFFFFFFFFFFFFFFFFFFFFFFFFFFFFFFFFFFFFFFFFFFFFFFFFF
310
FFFFFFFFFFFFFFFFFFFFFFFFFFFFFFFFF000FFFFFFFFFFFFFFFFFFFFFFFFFFFF
310
FFFFFFFFFFFFFFFFFFFFFFFFFFFFFFFFFFFFFFFFFFFFFFFFFFFFFFFFFFFFFFFF
310
FFFFFFFFFFFFFFFFFFFFFFFFFFFFFFFFFFFFFFFFFFFFFFFFFFFFFFFFFFFFFFFF
310
FFFFFFFFFFFFFFFFF000FFFFFFFFFFFFFFFFFFFFFFFFFFFFFFFFFFFFFFFFFFFF
310
FFFFFFFFFFFFFFFFFFFFFFFFFFFFFFFFFFFFFFFFFFFFFFFFFFFFFFFFFFFFFFFF
310
FFFFFFFFFFFFFFFFFFFFFFFFFFFFFFFFFFFFFFFFFFFFFFFFFFFFFFFFFFFFFFFF
310
F000FFFFFFFFFFFFFFFFFFFFFFFFFFFFFFFFFFFFFFFFFFFFFFFFFFFFFFFFFFFF
310
FFFFFFFFFFFFFFFFFFFFFFFFFFFFFFFFFFFFFFFFFFFFFFFFFFFFFFFFFFFFFFFF
310
FFFFFFFFFFFFFFFFFFFFFFFFFFFFFFFFFFFFFFFFFFFFFFFFF000FFFFFFFFFFFF
310
FFFFFFFFFFFFFFFFFFFFFFFFFFFFFFFFFFFFFFFFFFFFFFFFFFFFFFFFFFFFFFFF
310
FFFFFFFFFFFFFFFFFFFFFFFFFFFFFFFFFFFFFFFFFFFFFFFFFFFFFFFFFFFFFFFF
310
FFFFFFFFFFFFFFFFFFFFFFFFFFFFFFFFF000FFFFFFFFFFFFFFFFFFFFFFFFFFFF
310
FFFFFFFFFFFFFFFFFFFFFFFFFFFFFFFFFFFFFFFFFFFFFFFFFFFFFFFFFFFFFFFF
310
FFFFFFFFFFFFFFFFFFFFFFFFFFFFFFFFFFFFFFFFFFFFFFFFFFFFFFFFFFFFFFFF
310
FFFFFFFFFFFFFFFFF000FFFFF80003FFFFFFFFFFFFFFFFFFFFFFFFFFFFFFFFFF
310
FFFFF00007FFFFFFFFFF00007FFFFFF800000000000000007FFFFFFFFFFFFFFF
310
FFFFFFFC001FFFFFFFFFFFFFFC001FFFFFFFFFFFFFFFFFFFFFFFFFFE0007FFFF
310
F000FFFF8000007FFFFFFFF8000FFFFFC0007FFFFF80007FFFFF0000007FFFFF
310
FFF8000007FFFFF800000000000000007FFFFFF0001FFFFFFFFFFFC00001FFFF
310
FFFFFFFFC00001FFFFFFFF000000000003FFFFE000007FFFF000FFFE0000000F
310
FFFFFFF0000FFFFF80007FFFFF80007FFFFC0000001FFFFFFFC0000001FFFFF8
310
00000000000000007FFFFFF0001FFFFFFFFFFE0000003FFFFFFFFFFE0000003F
310
FFFFFF000000000003FFFF0000000FFFF000FFF800000003FFFFFFF00007FFFF
310
80007FFFFF80007FFFF000000007FFFFFF000000003FFFF80000000000000000
310
7FFFFFF0001FFFFFFFFFF80000000FFFFFFFFFF80000000FFFFFFF0000000000
310
03FFFC00000003FFF000FFE000000000FFFFFFF00007FFFF80003FFFFF80007F
310
FFC000000001FFFFFC000000001FFFF800000000000000007FFFFFF0001FFFFF
310
FFFFE000000003FFFFFFFFE000000003FFFFFF000000000003FFF000000000FF
310
F000FF80000000007FFFFFF00007FFFF80003FFFFF80007FFF8000000000FFFF
310
F80000000007FFF800000000000000007FFFFFF0001FFFFFFFFFC000000001FF
310
FFFFFFC000000001FFFFFF000000000003FFC0000000007FF000FF0000000000
310
3FFFFFE00007FFFF00003FFFFF80007FFE00000000003FFFF00000000003FFF8
310
00000000000000007FFFFFF0001FFFFFFFFF8000000000FFFFFFFF8000000000
310
FFFFFF000000000003FF80000000003FF000FE00000000001FFFFFE00003FFFF
310
00003FFFFF80007FFC00000000001FFFE00000000001FFF8000001FFFE000000
310
7FFFFFF0001FFFFFFFFE00000000003FFFFFFE00000000003FFFFF0000000000
310
03FF00000000001FF000FC00000000000FFFFFE00003FFFF00001FFFFF80007F
310
F800000000001FFFC00000000000FFF8000001FFFE0000007FFFFFF0001FFFFF
310
FFFC00000000001FFFFFFC00000000001FFFFF000000000003FE00000000000F
310
F000F8000000000007FFFFE00003FFFF00001FFFFF80007FF800000000000FFF
310
800000000000FFF8000001FFFE0000007FFFFFF0001FFFFFFFF800000000000F
310
FFFFF800000000000FFFFF000000000003FC000000000007F000F80000000000
310
03FFFFC00003FFFE00001FFFFF80007FF0000000000007FF0000000000007FF8
310
000001FFFE0000007FFFFFF0001FFFFFFFF0000000000007FFFFF00000000000
310
07FFFF000000000003F8000000000003F000F0000000000003FFFFC00001FFFE
310
00001FFFFF80007FE0000000000007FE0000000000003FF8000001FFFE000000
310
7FFFFFF0001FFFFFFFF0000000000007FFFFF0000000000007FFFF0000000000
310
03F800001F800003F000E00001FFF00001FFFFC00001FFFE00000FFFFF80007F
310
E00001FFE00003FE00001FFF00003FF8000001FFFE0000007FFFFFF0001FFFFF
310
FFE000003E000003FFFFE000003E000003FFFF000000000003F00001FFF80001
310
F000E00007FFFC0001FFFFC00001FFFE00000FFFFF80007FC0000FFFFC0003FC
310
0000FFFFC0001FF8000001FFFE0000007FFFFFF0001FFFFFFFC00003FFE00001
310
FFFFC00003FFE00001FFFF0001FFFFFFFFF00007FFFE0001F000E0000FFFFF00
310
00FFFF800001FFFC00000FFFFF80007FC0001FFFFE0001FC0001FFFFE0001FF8
310
000001FFFE0000007FFFFFF0001FFFFFFF80000FFFF80000FFFF80000FFFF800
310
00FFFF0003FFFFFFFFE0000FFFFF8000F000C0003FFFFF8000FFFF800000FFFC
310
000007FFFF80007F80003FFFFF0001FC0003FFFFF0001FF8000001FFFE000000
310
7FFFFFF0001FFFFFFF80003FFFFE0000FFFF80003FFFFE0000FFFF0003FFFFFF
310
FFE0003FFFFF8000F000C0003FFFFF8000FFFF800000FFFC000007FFFF80007F
310
80007FFFFF8001F80007FFFFF8000FF8000001FFFE0000007FFFFFF0001FFFFF
310
FF00007FFFFF00007FFF00007FFFFF00007FFF0003FFFFFFFFE0003FFFFFC000
310
F000C0007FFFFFC000FFFF000000FFFC000007FFFF80007F8000FFFFFF8000F8
310
000FFFFFF8000FF8000001FFFE0000007FFFFFF0001FFFFFFF0000FFFFFF8000
310
7FFF0000FFFFFF80007FFF0003FFFFFFFFC0007FFFFFC00070008000FFFFFFC0
310
00FFFF000000FFF8000007FFFF80007F8000FFFFFF8000F8000FFFFFF8000FF8
310
000001FFFE0000007FFFFFF0001FFFFFFE0001FFFFFFC0003FFE0001FFFFFFC0
310
003FFF0003FFFFFFFFC0007FFFFFE00070008000FFFFFFC0007FFF0000007FF8
310
000003FFFF80007F0001FFFFFF8000F8000FFFFFF8000FF8000001FFFE000000
310
7FFFFFF0001FFFFFFE0001FFFFFFC0003FFE0001FFFFFFC0003FFF0003FFFFFF
310
FFC000FFFFFFE00070008000FFFFFFC0007FFF0000007FF8000003FFFF80007F
310
0001FFFFFF8000F8001FFFFFF8000FF8000001FFFE0000007FFFFFF0001FFFFF
310
FE0003FFFFFFE0003FFE0003FFFFFFE0003FFF0003FFFFFFFFC000FFFFFFE000
310
70008000FFFFFFC0007FFE0000007FF8000003FFFF80007F0001FFFFFF8000F0
310
001FFFFFF8000FF8000001FFFE0000007FFFFFF0001FFFFFFC0003FFFFFFE000
310
1FFC0003FFFFFFE0001FFF0003FFFFFFFFC000FFFFFFC00070008000FFFFFF80
310
007FFE0000007FF0000003FFFF80007F0001FFFFFF0000F0001FFFFFF8000FF8
310
000001FFFE0000007FFFFFF0001FFFFFFC0007FFFFFFF0001FFC0007FFFFFFF0
310
001FFF0003FFFFFFFFC000FFFFFFC00070008001FFFFFF0000FFFE0000003FF0
310
000001FFFF80007F0001FFFFFF0000F8001FFFFFF0000FF8000001FFFE000000
310
7FFFFFF0001FFFFFFC0007FFFFFFF0001FFC0007FFFFFFF0001FFF0003FFFFFF
310
FFC001FFFFFF80007000FFFFFFFFFE0000FFFE0008003FF0008001FFFF80007F
310
FFFFFFFFFC0000FFFFFFFFFFE0000FF8000001FFFE0000007FFFFFF0001FFFFF
310
F8000FFFFFFFF8000FF8000FFFFFFFF8000FFF0003FFFFFFFFFFFFFFFFFF0000
310
7000FFFFFFFFFC0000FFFC0008003FF0008001FFFF80007FFFFFFFFFF80001FF
310
FFFFFFFF80000FF8000001FFFE0000007FFFFFF0001FFFFFF8000FFFFFFFF800
310
0FF8000FFFFFFFF8000FFF0003FFFFFFFFFFFFFFFFFE0000F000FFFFFFFFE000
310
00FFFC000C003FE000C001FFFF80007FFFFFFFFFC00001FFFFFFFFFE00001FF8
310
000001FFFE0000007FFFFFF0001FFFFFF8000FFFFFFFF8000FF8000FFFFFFFF8
310
000FFF0003FFFFFFFFFFFFFFFFF00000F000FFFFFFFE000001FFFC000C001FE0
310
00C000FFFF80007FFFFFFFFE000001FFFFFFFFE000001FF80FFFFFFFFFFFFFC0
310
7FFFFFF0001FFFFFF8000FFFFFFFF8000FF8000FFFFFFFF8000FFF0003FFFFFF
310
FFFFFFFFFF800000F000FFFFFFC0000001FFFC001C001FE001C000FFFF80007F
310
FFFFFF80000003FFFFFFF80000001FF80FFFFFFFFFFFFFC07FFFFFF0001FFFFF
310
F8001FFFFFFFFC000FF8001FFFFFFFFC000FFF0003FFFFFFFFFFFFFFF0000001
310
F000FFFFF800000001FFF8001C001FE001C000FFFF80007FFFFFF800000003FF
310
FFFF800000003FF80FFFFFFFFFFFFFC07FFFFFF0001FFFFFF8001FFFFFFFFC00
310
0FF8001FFFFFFFFC000FFF0003FFFFFFFFFFFFFE00000001F000FFFFC0000000
310
03FFF8001E001FC001E000FFFF80007FFFFF8000000007FFFFFC000000003FF8
310
0FFFFFFFFFFFFFC07FFFFFF0001FFFFFF8001FFFFFFFFC000FF8001FFFFFFFFC
310
000FFF0003FFFFFFFFFFFFE000000003F000FFFE0000000007FFF8001E000FC0
310
01E0007FFF80007FFFFE0000000007FFFFE0000000007FF80FFFFFFFFFFFFFC0
310
7FFFFFF0001FFFFFF0001FFFFFFFFC0007F0001FFFFFFFFC0007FF0003FFFFFF
310
FFFFFF0000000003F000FFF80000000007FFF8001E000FC003E0007FFF80007F
310
FFF0000000000FFFFF8000000000FFF80FFFFFFFFFFFFFC07FFFFFF0001FFFFF
310
F0001FFFFFFFFC0007F0001FFFFFFFFC0007FF0003FFFFFFFFFFFC0000000007
310
F000FFE0000000000FFFF0003E000FC003E0007FFF80007FFFC0000000001FFF
310
FE0000000001FFF80FFFFFFFFFFFFFC07FFFFFF0001FFFFFF0001FFFFFFFFC00
310
07F0001FFFFFFFFC0007FF0003FFFFFFFFFFF0000000000FF000FFC000000000
310
1FFFF0003F000F8003F0003FFF80007FFF80000000003FFFF80000000003FFF8
310
0FFFFFFFFFFFFFC07FFFFFF0001FFFFFF0001FFFFFFFFC0007F0001FFFFFFFFC
310
0007FF0003FFFFFFFFFFE0000000001FF000FF00000000007FFFF0003F000780
310
03F0003FFF80007FFF00000000007FFFF00000000007FFF80FFFFFFFFFFFFFC0
310
7FFFFFF0001FFFFFF0001FFFFFFFFC0007F0001FFFFFFFFC0007FF0003FFFFFF
310
FFFF80000000007FF000FE0000000000FFFFE0003F00078007F0003FFF80007F
310
FE0000000001FFFFE0000000001FFFF80FFFFFFFFFFFFFC07FFFFFF0001FFFFF
310
F0001FFFFFFFFC0007F0001FFFFFFFFC0007FF0003FFFFFFFFFF0000000000FF
310
F000FC0000000003FFFFE0007F00078007F0003FFF80007FFC0000000007FFFF
310
C0000000007FFFF80FFFFFFFFFFFFFC07FFFFFF0001FFFFFF8001FFFFFFFFC00
310
0FF8001FFFFFFFFC000FFF0003FFFFFFFFFE0000000003FFF000FC000000000F
310
FFFFE0007F80070007F8001FFF80007FF8000000001FFFFF8000000001FFFFF8
310
0FFFFFFFFFFFFFC07FFFFFF0001FFFFFF8001FFFFFFFFC000FF8001FFFFFFFFC
310
000FFF0003FFFFFFFFFC000000000FFFF000F8000000007FFFFFE0007F800700
310
07F8001FFF80007FF000000000FFFFFF800000000FFFFFF80FFFFFFFFFFFFFC0
310
7FFFFFF0001FFFFFF8000FFFFFFFF8000FF8000FFFFFFFF8000FFF0003FFFFFF
310
FFFC000000007FFFF000F800000007FFFFFFC0007F8003000FF8001FFF80007F
310
F000000007FFFFFF000000007FFFFFF80FFFFFFFFFFFFFC07FFFFFF0001FFFFF
310
F8000FFFFFFFF8000FF8000FFFFFFFF8000FFF0003FFFFFFFFF80000000FFFFF
310
F000F0000000FFFFFFFFC000FF8003000FF8001FFF80007FE0000000FFFFFFFF
310
0000000FFFFFFFF8000001FFFE0000007FFFFFF0001FFFFFF8000FFFFFFFF800
310
0FF8000FFFFFFFF8000FFF0003FFFFFFFFF8000000FFFFFFF000F000000FFFFF
310
FFFFC000FFC002000FF8000FFF80007FE000001FFFFFFFFE000001FFFFFFFFF8
310
000001FFFE0000007FFFFFF0001FFFFFF8000FFFFFFFF8000FF8000FFFFFFFF8
310
000FFF0003FFFFFFFFF000001FFFFFFFF000E00000FFFFFFFFFFC000FFC00200
310
0FFC000FFF80007FE00001FFFFFFFFFE00001FFFFFFFFFF8000001FFFE000000
310
7FFFFFF0001FFFFFFC000FFFFFFFF8001FFC000FFFFFFFF8001FFF0003FFFFFF
310
FFF00001FFFFFFFFF000E00007FFFFFFFFFF8000FFC000001FFC000FFF80007F
310
C0000FFFFFFFFFFE0000FFFFFFFFFFF8000001FFFE0000007FFFFFF0001FFFFF
310
FC0007FFFFFFF0001FFC0007FFFFFFF0001FFF0003FFFFFFFFF00007FFFFFFFF
310
F000E0001FFFFFFFFFFF8000FFC000001FFC000FFF80007FC0003FFFFFFFFFFE
310
0001FFFFFFFFFFF8000001FFFE0000007FFFFFF0001FFFFFFC0007FFFFFFF000
310
1FFC0007FFFFFFF0001FFF0003FFFFFFFFF0001FFFFFFFFFF000E0003FFFFF00
310
03FF8001FFE000001FFC0007FF80007FC0007FFFFF0007FC0003FFFFF0003FF8
310
000001FFFE0000007FFFFFF0001FFFFFFC0003FFFFFFE0001FFC0003FFFFFFE0
310
001FFF0003FFFFFFFFF0003FFFFFFFFFF000E0003FFFFF0001FF8001FFE00000
310
1FFE0007FF80007FC0007FFFFE0003FC0007FFFFE0003FF8000001FFFE000000
310
7FFFFFF0001FFFFFFE0003FFFFFFE0003FFE0003FFFFFFE0003FFF0003FFFFFF
310
FFF0003FFFFF8001F000E0003FFFFF0001FF0001FFE000001FFE0007FF80007F
310
C0007FFFFE0003FC0007FFFFE0003FF8000001FFFE0000007FFFFFF0001FFFFF
310
FE0001FFFFFFC0003FFE0001FFFFFFC0003FFF0003FFFFFFFFF0003FFFFF0001
310
F000E0003FFFFF0003FF0001FFE000003FFE0007FF80007FC0007FFFFE0003FC
310
0007FFFFE0003FF8000001FFFE0000007FFFFFF0001FFFFFFF0001FFFFFFC000
310
7FFF0001FFFFFFC0007FFF0003FFFFFFFFF0003FFFFF0001F000E0003FFFFE00
310
03FF0003FFF000003FFE0003FF80007FC0007FFFFC0003FE0007FFFFE0003FF8
310
000001FFFE0000007FFFFFF0001FFFFFFF0000FFFFFF80007FFF0000FFFFFF80
310
007FFF0003FFFFFFFFF0003FFFFF0001F000E0003FFFFE0003FF0003FFF00000
310
3FFF0003FF80007FC0007FFFFC0007FE0007FFFFC0003FF8000001FFFE000000
310
7FFFFFF0001FFFFFFF80007FFFFF0000FFFF80007FFFFF0000FFFF0003FFFFFF
310
FFF0003FFFFF0003F000E0003FFFFC0003FE0003FFF000003FFF0003FF80007F
310
E0003FFFF80007FE0003FFFFC0007FF8000001FFFE0000007FFFFFF0001FFFFF
310
FF80003FFFFE0000FFFF80003FFFFE0000FFFF0003FFFFFFFFF0001FFFFE0003
310
F000F0001FFFF80003FE0003FFF000007FFF0001FF80007FE0003FFFF00007FE
310
0001FFFF80007FF8000001FFFE0000007FFFFFF0001FFFFFFFC0000FFFF80001
310
FFFFC0000FFFF80001FFFF0003FFFFFFFFF0001FFFFC0003F000F0000FFFF000
310
07FE0007FFF800007FFF0001FF80007FE0001FFFE00007FF0000FFFE00007FF8
310
000001FFFE0000007FFFFFF0001FFFFFFFC00003FFE00001FFFFC00003FFE000
310
01FFFF0003FFFFFFFFF8000FFFF80003F000F00003FFC00007FC0007FFF80000
310
7FFF8001FF80007FF00007FF80000FFF00007FF80000FFF8000001FFFE000000
310
7F80000000000001FFE000003E000003FFFFE000003E000003FFFF0003FFFFFF
310
FFF80003FFE00007F000F800000000000FFC0007FFF800007FFF8001FF80007F
310
F000000000000FFF000000000000FFF8000001FFFE0000007F80000000000001
310
FFF0000000000007FFFFF0000000000007FFFF0003FFFFFFFFFC00007E000007
310
F000F800000000000FFC0007FFF80000FFFF8000FF80007FF800000000001FFF
310
800000000001FFF8000001FFFE0000007F80000000000001FFF800000000000F
310
FFFFF800000000000FFFFF0003FFFFFFFFFC00000000000FF000FC0000000000
310
1FFC0007FFFC0000FFFF8000FF80007FF800000000003FFFC00000000001FFF8
310
000001FFFE0000007F80000000000001FFF800000000000FFFFFF80000000000
310
0FFFFF0003FFFFFFFFFE00000000001FF000FE00000000003FF8000FFFFC0000
310
FFFF8000FF80007FFC00000000003FFFC00000000003FFF8000001FFFE000000
310
7F80000000000001FFFC00000000001FFFFFFC00000000001FFFFF0003FFFFFF
310
FFFF00000000001FF000FF00000000003FF8000FFFFC0000FFFFC000FF80007F
310
FE00000000007FFFE00000000007FFF8000001FFFE0000007F80000000000001
310
FFFE00000000003FFFFFFE00000000003FFFFF0003FFFFFFFFFF80000000003F
310
F000FF80000000007FF8000FFFFC0001FFFFC0007F80007FFF0000000000FFFF
310
F0000000000FFFF800000000000000007F80000000000001FFFF8000000000FF
310
FFFFFF8000000000FFFFFF0003FFFFFFFFFFC0000000007FF000FFC000000000
310
FFF8000FFFFE0001FFFFC0007F80007FFF8000000001FFFFF8000000001FFFF8
310
00000000000000007F80000000000001FFFFC000000001FFFFFFFFC000000001
310
FFFFFF0003FFFFFFFFFFE000000000FFF000FFE000000003FFF0001FFFFE0001
310
FFFFC0007F80007FFFC000000007FFFFFE000000003FFFF80000000000000000
310
7F80000000000001FFFFE000000003FFFFFFFFE000000003FFFFFF0003FFFFFF
310
FFFFF000000003FFF000FFF80000000FFFF0001FFFFE0001FFFFE0007F80007F
310
FFF00000000FFFFFFF00000000FFFFF800000000000000007F80000000000001
310
FFFFF80000000FFFFFFFFFF80000000FFFFFFF0003FFFFFFFFFFFC0000000FFF
310
F000FFFE0000003FFFF0001FFFFE0003FFFFE0003F80007FFFFC0000003FFFFF
310
FFC0000003FFFFF800000000000000007F80000000000001FFFFFE0000003FFF
310
FFFFFFFE0000003FFFFFFF0003FFFFFFFFFFFF0000003FFFF000FFFF800000FF
310
FFF0001FFFFF0003FFFFE0003F80007FFFFF000001FFFFFFFFF800001FFFFFF8
310
00000000000000007F80000000000001FFFFFFC00001FFFFFFFFFFFFC00001FF
310
FFFFFF0003FFFFFFFFFFFFC00000FFFFF000FFFFF8000FFFFFFFFFFFFFFFFFFF
310
FFFFFFFFFFFFFFFFFFFFF0001FFFFFFFFFFF0000FFFFFFF80000000000000000
310
7FFFFFFFFFFFFFFFFFFFFFFC001FFFFFFFFFFFFFFC001FFFFFFFFFFFFFFFFFFF
310
FFFFFFFC001FFFFFF000FFFFFFFFFFFFFFFFFFFFFFFFFFFFFFFFFFFFFFFFFFFF
310
FFFFFFFFFFFFFFFFFFFFFFFFFFFFFFFFFFFFFFFFFFFFFFFFFFFFFFFFFFFFFFFF
310
FFFFFFFFFFFFFFFFFFFFFFFFFFFFFFFFFFFFFFFFFFFFFFFFFFFFFFFFFFFFFFFF
310
F000FFFFFFFFFFFFFFFFFFFFFFFFFFFFFFFFFFFFFFFFFFFFFFFFFFFFFFFFFFFF
310
FFFFFFFFFFFFFFFFFFFFFFFFFFFFFFFFFFFFFFFFFFFFFFFFFFFFFFFFFFFFFFFF
310
FFFFFFFFFFFFFFFFFFFFFFFFFFFFFFFFFFFFFFFFFFFFFFFFF000FFFFFFFFFFFF
310
FFFFFFFFFFFFFFFFFFFFFFFFFFFFFFFFFFFFFFFFFFFFFFFFFFFFFFFFFFFFFFFF
310
FFFFFFFFFFFFFFFFFFFFFFFFFFFFFFFFFFFFFFFFFFFFFFFFFFFFFFFFFFFFFFFF
310
FFFFFFFFFFFFFFFFFFFFFFFFFFFFFFFFF000FFFFFFFFFFFFFFFFFFFFFFFFFFFF
310
FFFFFFFFFFFFFFFFFFFFFFFFFFFFFFFFFFFFFFFFFFFFFFFFFFFFFFFFFFFFFFFF
310
FFFFFFFFFFFFFFFFFFFFFFFFFFFFFFFFFFFFFFFFFFFFFFFFFFFFFFFFFFFFFFFF
310
FFFFFFFFFFFFFFFFF000FFFFFFFFFFFFFFFFFFFFFFFFFFFFFFFFFFFFFFFFFFFF
310
FFFFFFFFFFFFFFFFFFFFFFFFFFFFFFFFFFFFFFFFFFFFFFFFFFFFFFFFFFFFFFFF
310
FFFFFFFFFFFFFFFFFFFFFFFFFFFFFFFFFFFFFFFFFFFFFFFFFFFFFFFFFFFFFFFF
310
F000FFFFFFFFFFFFFFFFFFFFFFFFFFFFFFFFFFFFFFFFFFFFFFFFFFFFFFFFFFFF
310
FFFFFFFFFFFFFFFFFFFFFFFFFFFFFFFFFFFFFFFFFFFFFFFFFFFFFFFFFFFFFFFF
310
FFFFFFFFFFFFFFFFFFFFFFFFFFFFFFFFFFFFFFFFFFFFFFFFF000FFFFFFFFFFFF
310
FFFFFFFFFFFFFFFFFFFFFFFFFFFFFFFFFFFFFFFFFFFFFFFFFFFFFFFFFFFFFFFF
310
FFFFFFFFFFFFFFFFFFFFFFFFFFFFFFFFFFFFFFFFFFFFFFFFFFFFFFFFFFFFFFFF
310
FFFFFFFFFFFFFFFFFFFFFFFFFFFFFFFFF000FFFFFFFFFFFFFFFFFFFFFFFFFFFF
310
FFFFFFFFFFFFFFFFFFFFFFFFFFFFFFFFFFFFFFFFFFFFFFFFFFFFFFFFFFFFFFFF
310
FFFFFFFFFFFFFFFFFFFFFFFFFFFFFFFFFFFFFFFFFFFFFFFFFFFFFFFFFFFFFFFF
310
FFFFFFFFFFFFFFFFF000FFFFFFFFFFFFFFFFFFFFFFFFFFFFFFFFFFFFFFFFFFFF
310
FFFFFFFFFFFFFFFFFFFFFFFFFFFFFFFFFFFFFFFFFFFFFFFFFFFFFFFFFFFFFFFF
310
FFFFFFFFFFFFFFFFFFFFFFFFFFFFFFFFFFFFFFFFFFFFFFFFFFFFFFFFFFFFFFFF
310
F000FFFFFFFFFFFFFFFFFFFFFFFFFFFFFFFFFFFFFFFFFFFFFFFFFFFFFFFFFFFF
310
FFFFFFFFFFFFFFFFFFFFFFFFFFFFFFFFFFFFFFFFFFFFFFFFFFFFFFFFFFFFFFFF
310
FFFFFFFFFFFFFFFFFFFFFFFFFFFFFFFFFFFFFFFFFFFFFFFFF000FFFFFFFFFFFF
310
FFFFFFFFFFFFFFFFFFFFFFFFFFFFFFFFFFFFFFFFFFFFFFFFFFFFFFFFFFFFFFFF
310
FFFFFFFFFFFFFFFFFFFFFFFFFFFFFFFFFFFFFFFFFFFFFFFFFFFFFFFFFFFFFFFF
310
FFFFFFFFFFFFFFFFFFFFFFFFFFFFFFFFF000FFFFFFFFFFFFFFFFFFFFFFFFFFFF
310
FFFFFFFFFFFFFFFFFFFFFFFFFFFFFFFFFFFFFFFFFFFFFFFFFFFFFFFFFFFFFFFF
310
FFFFFFFFFFFFFFFFFFFFFFFFFFFFFFFFFFFFFFFFFFFFFFFFFFFFFFFFFFFFFFFF
310
FFFFFFFFFFFFFFFFF000FFFFFFFFFFFFFFFFFFFFFFFFFFFFFFFFFFFFFFFFFFFF
310
FFFFFFFFFFFFFFFFFFFFFFFFFFFFFFFFFFFFFFFFFFFFFFFFFFFFFFFFFFFFFFFF
310
FFFFFFFFFFFFFFFFFFFFFFFFFFFFFFFFFFFFFFFFFFFFFFFFFFFFFFFFFFFFFFFF
310
F000FFFFFFFFFFFFFFFFFFFFFFFFFFFFFFFFFFFFFFFFFFFFFFFFFFFFFFFFFFFF
310
FFFFFFFFFFFFFFFFFFFFFFFFFFFFFFFFFFFFFFFFFFFFFFFFFFFFFFFFFFFFFFFF
310
FFFFFFFFFFFFFFFFFFFFFFFFFFFFFFFFFFFFFFFFFFFFFFFFF000FFFFFFFFFFFF
310
FFFFFFFFFFFFFFFFFFFFFFFFFFFFFFFFFFFFFFFFFFFFFFFFFFFFFFFFFFFFFFFF
310
FFFFFFFFFFFFFFFFFFFFFFFFFFFFFFFFFFFFFFFFFFFFFFFFFFFFFFFFFFFFFFFF
310
FFFFFFFFFFFFFFFFFFFFFFFFFFFFFFFFF000FFFFFFFFFFFFFFFFFFFFFFFFFFFF
310
FFFFFFFFFFFFFFFFFFFFFFFFFFFFFFFFFFFFFFFFFFFFFFFFFFFFFFFFFFFFFFFF
310
FFFFFFFFFFFFFFFFFFFFFFFFFFFFFFFFFFFFFFFFFFFFFFFFFFFFFFFFFFFFFFFF
310
FFFFFFFFFFFFFFFFF000FFFFFFFFFFFFFFFFFFFFFFFFFFFFFFFFFFFFFFFFFFFF
310
FFFFFFFFFFFFFFFFFFFFFFFFFFFFFFFFFFFFFFFFFFFFFFFFFFFFFFFFFFFFFFFF
310
FFFFFFFFFFFFFFFFFFFFFFFFFFFFFFFFFFFFFFFFFFFFFFFFFFFFFFFFFFFFFFFF
310
F000FFFFFFFFFFFFFFFFFFFFFFFFFFFFFFFFFFFFFFFFFFFFFFFFFFFFFFFFFFFF
310
FFFFFFFFFFFFFFFFFFFFFFFFFFFFFFFFFFFFFFFFFFFFFFFFFFFFFFFFFFFFFFFF
310
FFFFFFFFFFFFFFFFFFFFFFFFFFFFFFFFFFFFFFFFFFFFFFFFF000FFFFFFFFFFFF
310
FFFFFFFFFFFFFFFFFFFFFFFFFFFFFFFFFFFFFFFFFFFFFFFFFFFFFFFFFFFFFFFF
310
FFFFFFFFFFFFFFFFFFFFFFFFFFFFFFFFFFFFFFFFFFFFFFFFFFFFFFFFFFFFFFFF
310
FFFFFFFFFFFFFFFFFFFFFFFFFFFFFFFFF000FFFFFFFFFFFFFFFFFFFFFFFFFFFF
310
FFFFFFFFFFFFFFFFFFFFFFFFFFFFFFFFFFFFFFFFFFFFFFFFFFFFFFFFFFFFFFFF
310
FFFFFFFFFFFFFFFFFFFFFFFFFFFFFFFFFFFFFFFFFFFFFFFFFFFFFFFFFFFFFFFF
310
FFFFFFFFFFFFFFFFF000FFFFFFFFFFFFFFFFFFFFFFFFFFFFFFFFFFFFFFFFFFFF
310
FFFFFFFFFFFFFFFFFFFFFFFFFFFFFFFFFFFFFFFFFFFFFFFFFFFFFFFFFFFFFFFF
310
FFFFFFFFFFFFFFFFFFFFFFFFFFFFFFFFFFFFFFFFFFFFFFFFFFFFFFFFFFFFFFFF
310
F000FFFFFFFFFFFFFFFFFFFFFFFFFFFFFFFFFFFFFFFFFFFFFFFFFFFFFFFFFFFF
310
FFFFFFFFFFFFFFFFFFFFFFFFFFFFFFFFFFFFFFFFFFFFFFFFFFFFFFFFFFFFFFFF
310
FFFFFFFFFFFFFFFFFFFFFFFFFFFFFFFFFFFFFFFFFFFFFFFFF000FFFFFFFFFFFF
310
FFFFFFFFFFFFFFFFFFFFFFFFFFFFFFFFFFFFFFFFFFFFFFFFFFFFFFFFFFFFFFFF
310
FFFFFFFFFFFFFFFFFFFFFFFFFFFFFFFFFFFFFFFFFFFFFFFFFFFFFFFFFFFFFFFF
310
FFFFFFFFFFFFFFFFFFFFFFFFFFFFFFFFF0000000000000000000000000000000
310
0000000000000000000000000000000000000000000000000000000000000000
310
0000000000000000000000000000000000000000000000000000000000000000
310
0000000000000000000000000000000000000000000000000000000000000000
310
0000000000000000000000000000000000000000000000000000000000000000
310
0000000000000000000000000000000000000000000000000000000000000000
310
0000000000000000000000000000000000000000000000000000000000000000
310
0000000000000000000000000000000000000000000000000000000000000000
310
0000000000000000000000000000000000000000000000000000000000000000
310
0000000000000000000000000000000000000000000000000000000000000000
310
0000000000000000000000000000000000000000000000000000000000000000
310
0000000000000000000000000000000000000000000000000000000000000000
310
0000000000000000000000000000000000000000000000000000000000000000
310
0000000000000000000000000000000000000000000000000000000000000000
310
0000000000000000000000000000000000000000000000000000000000000000
310
0000000000000000000000000000000000000000000000000000000000000000
  1
OLE
  0
ENDSEC
  0
SECTION
  2
OBJECTS
  0
DICTIONARY
  5
C
330
0
100
AcDbDictionary
281
     1
  3
ACAD_GROUP
350
D
  3
ACAD_LAYOUT
350
1A
  3
ACAD_MLINESTYLE
350
17
  3
ACAD_PLOTSETTINGS
350
19
  3
ACAD_PLOTSTYLENAME
350
E
  3
ACAD_SCALELIST
350
47
  0
DICTIONARY
  5
D
102
{ACAD_REACTORS
330
C
102
}
330
C
100
AcDbDictionary
281
     1
  0
DICTIONARY
  5
1A
102
{ACAD_REACTORS
330
C
102
}
330
C
100
AcDbDictionary
281
     1
  3
Layout1
350
1E
  3
Layout2
350
26
  3
Model
350
22
  0
DICTIONARY
  5
17
102
{ACAD_REACTORS
330
C
102
}
330
C
100
AcDbDictionary
281
     1
  3
Standard
350
18
  0
DICTIONARY
  5
19
102
{ACAD_REACTORS
330
C
102
}
330
C
100
AcDbDictionary
281
     1
  0
ACDBDICTIONARYWDFLT
  5
E
102
{ACAD_REACTORS
330
C
102
}
330
C
100
AcDbDictionary
281
     1
  3
Normal
350
F
100
AcDbDictionaryWithDefault
340
F
  0
DICTIONARY
  5
47
102
{ACAD_REACTORS
330
C
102
}
330
C
100
AcDbDictionary
281
     1
  3
A0
350
48
  3
A1
350
49
  3
A2
350
4A
  3
A3
350
4B
  3
A4
350
4C
  3
A5
350
4D
  3
A6
350
4E
  3
A7
350
4F
  3
A8
350
50
  3
A9
350
51
  3
B0
350
52
  3
B1
350
53
  3
B2
350
54
  3
B3
350
55
  3
B4
350
56
  3
B5
350
57
  3
B6
350
58
  3
B7
350
59
  3
B8
350
5A
  3
B9
350
5B
  3
C0
350
5C
  3
C1
350
5D
  3
C2
350
5E
  3
C3
350
5F
  3
C4
350
60
  3
C5
350
61
  3
C6
350
62
  3
C7
350
63
  3
C8
350
64
  3
C9
350
65
  3
D0
350
66
  3
D1
350
67
  3
D2
350
68
  0
LAYOUT
  5
1E
102
{ACAD_REACTORS
330
1A
102
}
330
1A
100
AcDbPlotSettings
  1

  2
none_device
  4

  6

 40
0.0
 41
0.0
 42
0.0
 43
0.0
 44
0.0
 45
0.0
 46
0.0
 47
0.0
 48
0.0
 49
0.0
140
0.0
141
0.0
142
1.0
143
1.0
 70
   688
 72
     1
 73
     0
 74
     5
  7

 75
    16
147
1.0
148
0.0
149
0.0
100
AcDbLayout
  1
Layout1
 70
     1
 71
     1
 10
0.0
 20
0.0
 11
420.0
 21
297.0
 12
0.0
 22
0.0
 32
0.0
 14
1.0000000000E+20
 24
1.0000000000E+20
 34
1.0000000000E+20
 15
-1.0000000000E+20
 25
-1.0000000000E+20
 35
-1.0000000000E+20
146
0.0
 13
0.0
 23
0.0
 33
0.0
 16
1.0
 26
0.0
 36
0.0
 17
0.0
 27
1.0
 37
0.0
 76
     0
330
1B
  0
LAYOUT
  5
26
102
{ACAD_REACTORS
330
1A
102
}
330
1A
100
AcDbPlotSettings
  1

  2
none_device
  4

  6

 40
0.0
 41
0.0
 42
0.0
 43
0.0
 44
0.0
 45
0.0
 46
0.0
 47
0.0
 48
0.0
 49
0.0
140
0.0
141
0.0
142
1.0
143
1.0
 70
   688
 72
     1
 73
     0
 74
     5
  7

 75
    16
147
1.0
148
0.0
149
0.0
100
AcDbLayout
  1
Layout2
 70
     1
 71
     2
 10
0.0
 20
0.0
 11
0.0
 21
0.0
 12
0.0
 22
0.0
 32
0.0
 14
0.0
 24
0.0
 34
0.0
 15
0.0
 25
0.0
 35
0.0
146
0.0
 13
0.0
 23
0.0
 33
0.0
 16
1.0
 26
0.0
 36
0.0
 17
0.0
 27
1.0
 37
0.0
 76
     0
330
23
  0
LAYOUT
  5
22
102
{ACAD_REACTORS
330
1A
102
}
330
1A
100
AcDbPlotSettings
  1

  2
none_device
  4
Letter_(8.50_x_11.00_Inches)
  6

 40
6.35
 41
6.35
 42
6.35000508
 43
6.35000508
 44
215.9
 45
279.4
 46
0.0
 47
0.0
 48
0.0
 49
0.0
140
0.0
141
0.0
142
1.0
143
1.0
 70
  1712
 72
     1
 73
     0
 74
     0
  7

 75
     0
147
1.0
148
0.0
149
0.0
100
AcDbLayout
  1
Model
 70
     1
 71
     0
 10
0.0
 20
0.0
 11
297.0
 21
210.0
 12
0.0
 22
0.0
 32
0.0
 14
0.0
 24
0.0
 34
0.0
 15
297.0
 25
210.0
 35
0.0
146
0.0
 13
0.0
 23
0.0
 33
0.0
 16
1.0
 26
0.0
 36
0.0
 17
0.0
 27
1.0
 37
0.0
 76
     0
330
1F
331
29
  0
MLINESTYLE
  5
18
102
{ACAD_REACTORS
330
17
102
}
330
17
100
AcDbMlineStyle
  2
Standard
 70
     0
  3

 62
   256
 51
90.0
 52
90.0
 71
     2
 49
0.5
 62
   256
  6
BYLAYER
 49
-0.5
 62
   256
  6
BYLAYER
  0
ACDBPLACEHOLDER
  5
F
102
{ACAD_REACTORS
330
E
102
}
330
E
  0
SCALE
  5
48
102
{ACAD_REACTORS
330
47
102
}
330
47
100
AcDbScale
 70
     0
300
1:1
140
1.0
141
1.0
290
     1
  0
SCALE
  5
49
102
{ACAD_REACTORS
330
47
102
}
330
47
100
AcDbScale
 70
     0
300
1:2
140
1.0
141
2.0
290
     0
  0
SCALE
  5
4A
102
{ACAD_REACTORS
330
47
102
}
330
47
100
AcDbScale
 70
     0
300
1:4
140
1.0
141
4.0
290
     0
  0
SCALE
  5
4B
102
{ACAD_REACTORS
330
47
102
}
330
47
100
AcDbScale
 70
     0
300
1:5
140
1.0
141
5.0
290
     0
  0
SCALE
  5
4C
102
{ACAD_REACTORS
330
47
102
}
330
47
100
AcDbScale
 70
     0
300
1:8
140
1.0
141
8.0
290
     0
  0
SCALE
  5
4D
102
{ACAD_REACTORS
330
47
102
}
330
47
100
AcDbScale
 70
     0
300
1:10
140
1.0
141
10.0
290
     0
  0
SCALE
  5
4E
102
{ACAD_REACTORS
330
47
102
}
330
47
100
AcDbScale
 70
     0
300
1:16
140
1.0
141
16.0
290
     0
  0
SCALE
  5
4F
102
{ACAD_REACTORS
330
47
102
}
330
47
100
AcDbScale
 70
     0
300
1:20
140
1.0
141
20.0
290
     0
  0
SCALE
  5
50
102
{ACAD_REACTORS
330
47
102
}
330
47
100
AcDbScale
 70
     0
300
1:30
140
1.0
141
30.0
290
     0
  0
SCALE
  5
51
102
{ACAD_REACTORS
330
47
102
}
330
47
100
AcDbScale
 70
     0
300
1:40
140
1.0
141
40.0
290
     0
  0
SCALE
  5
52
102
{ACAD_REACTORS
330
47
102
}
330
47
100
AcDbScale
 70
     0
300
1:50
140
1.0
141
50.0
290
     0
  0
SCALE
  5
53
102
{ACAD_REACTORS
330
47
102
}
330
47
100
AcDbScale
 70
     0
300
1:100
140
1.0
141
100.0
290
     0
  0
SCALE
  5
54
102
{ACAD_REACTORS
330
47
102
}
330
47
100
AcDbScale
 70
     0
300
2:1
140
2.0
141
1.0
290
     0
  0
SCALE
  5
55
102
{ACAD_REACTORS
330
47
102
}
330
47
100
AcDbScale
 70
     0
300
4:1
140
4.0
141
1.0
290
     0
  0
SCALE
  5
56
102
{ACAD_REACTORS
330
47
102
}
330
47
100
AcDbScale
 70
     0
300
8:1
140
8.0
141
1.0
290
     0
  0
SCALE
  5
57
102
{ACAD_REACTORS
330
47
102
}
330
47
100
AcDbScale
 70
     0
300
10:1
140
10.0
141
1.0
290
     0
  0
SCALE
  5
58
102
{ACAD_REACTORS
330
47
102
}
330
47
100
AcDbScale
 70
     0
300
100:1
140
100.0
141
1.0
290
     0
  0
SCALE
  5
59
102
{ACAD_REACTORS
330
47
102
}
330
47
100
AcDbScale
 70
     0
300
1/128" = 1'-0"
140
0.0078125
141
12.0
290
     0
  0
SCALE
  5
5A
102
{ACAD_REACTORS
330
47
102
}
330
47
100
AcDbScale
 70
     0
300
1/64" = 1'-0"
140
0.015625
141
12.0
290
     0
  0
SCALE
  5
5B
102
{ACAD_REACTORS
330
47
102
}
330
47
100
AcDbScale
 70
     0
300
1/32" = 1'-0"
140
0.03125
141
12.0
290
     0
  0
SCALE
  5
5C
102
{ACAD_REACTORS
330
47
102
}
330
47
100
AcDbScale
 70
     0
300
1/16" = 1'-0"
140
0.0625
141
12.0
290
     0
  0
SCALE
  5
5D
102
{ACAD_REACTORS
330
47
102
}
330
47
100
AcDbScale
 70
     0
300
3/32" = 1'-0"
140
0.09375
141
12.0
290
     0
  0
SCALE
  5
5E
102
{ACAD_REACTORS
330
47
102
}
330
47
100
AcDbScale
 70
     0
300
1/8" = 1'-0"
140
0.125
141
12.0
290
     0
  0
SCALE
  5
5F
102
{ACAD_REACTORS
330
47
102
}
330
47
100
AcDbScale
 70
     0
300
3/16" = 1'-0"
140
0.1875
141
12.0
290
     0
  0
SCALE
  5
60
102
{ACAD_REACTORS
330
47
102
}
330
47
100
AcDbScale
 70
     0
300
1/4" = 1'-0"
140
0.25
141
12.0
290
     0
  0
SCALE
  5
61
102
{ACAD_REACTORS
330
47
102
}
330
47
100
AcDbScale
 70
     0
300
3/8" = 1'-0"
140
0.375
141
12.0
290
     0
  0
SCALE
  5
62
102
{ACAD_REACTORS
330
47
102
}
330
47
100
AcDbScale
 70
     0
300
1/2" = 1'-0"
140
0.5
141
12.0
290
     0
  0
SCALE
  5
63
102
{ACAD_REACTORS
330
47
102
}
330
47
100
AcDbScale
 70
     0
300
3/4" = 1'-0"
140
0.75
141
12.0
290
     0
  0
SCALE
  5
64
102
{ACAD_REACTORS
330
47
102
}
330
47
100
AcDbScale
 70
     0
300
1" = 1'-0"
140
1.0
141
12.0
290
     0
  0
SCALE
  5
65
102
{ACAD_REACTORS
330
47
102
}
330
47
100
AcDbScale
 70
     0
300
1-1/2" = 1'-0"
140
1.5
141
12.0
290
     0
  0
SCALE
  5
66
102
{ACAD_REACTORS
330
47
102
}
330
47
100
AcDbScale
 70
     0
300
3" = 1'-0"
140
3.0
141
12.0
290
     0
  0
SCALE
  5
67
102
{ACAD_REACTORS
330
47
102
}
330
47
100
AcDbScale
 70
     0
300
6" = 1'-0"
140
6.0
141
12.0
290
     0
  0
SCALE
  5
68
102
{ACAD_REACTORS
330
47
102
}
330
47
100
AcDbScale
 70
     0
300
1'-0" = 1'-0"
140
12.0
141
12.0
290
     0
  0
ENDSEC
  0
EOF
