  0
SECTION
  2
HEADER
  9
$ACADVER
  1
AC1015
  9
$ACADMAINTVER
 70
     6
  9
$DWGCODEPAGE
  3
ANSI_1252
  9
$INSBASE
 10
0.0
 20
0.0
 30
0.0
  9
$EXTMIN
 10
0.0
 20
0.0
 30
0.0
  9
$EXTMAX
 10
297.0
 20
210.0
 30
0.0
  9
$LIMMIN
 10
0.0
 20
0.0
  9
$LIMMAX
 10
297.0
 20
210.0
  9
$ORTHOMODE
 70
     0
  9
$REGENMODE
 70
     1
  9
$FILLMODE
 70
     1
  9
$QTEXTMODE
 70
     0
  9
$MIRRTEXT
 70
     1
  9
$LTSCALE
 40
1.0
  9
$ATTMODE
 70
     1
  9
$TEXTSIZE
 40
2.0
  9
$TRACEWID
 40
1.0
  9
$TEXTSTYLE
  7
Standard
  9
$CLAYER
  8
0
  9
$CELTYPE
  6
ByLayer
  9
$CECOLOR
 62
   256
  9
$CELTSCALE
 40
1.0
  9
$DISPSILH
 70
     0
  9
$DIMSCALE
 40
1.0
  9
$DIMASZ
 40
3.0
  9
$DIMEXO
 40
0.0
  9
$DIMDLI
 40
3.75
  9
$DIMRND
 40
0.0
  9
$DIMDLE
 40
0.0
  9
$DIMEXE
 40
1.0
  9
$DIMTP
 40
0.0
  9
$DIMTM
 40
0.0
  9
$DIMTXT
 40
2.0
  9
$DIMCEN
 40
2.5
  9
$DIMTSZ
 40
0.0
  9
$DIMTOL
 70
     0
  9
$DIMLIM
 70
     0
  9
$DIMTIH
 70
     1
  9
$DIMTOH
 70
     1
  9
$DIMSE1
 70
     0
  9
$DIMSE2
 70
     0
  9
$DIMTAD
 70
     1
  9
$DIMZIN
 70
     0
  9
$DIMBLK
  1

  9
$DIMASO
 70
     1
  9
$DIMSHO
 70
     1
  9
$DIMPOST
  1

  9
$DIMAPOST
  1

  9
$DIMALT
 70
     0
  9
$DIMALTD
 70
     3
  9
$DIMALTF
 40
0.0393700787
  9
$DIMLFAC
 40
5.0
  9
$DIMTOFL
 70
     1
  9
$DIMTVP
 40
0.0
  9
$DIMTIX
 70
     0
  9
$DIMSOXD
 70
     0
  9
$DIMSAH
 70
     0
  9
$DIMBLK1
  1

  9
$DIMBLK2
  1

  9
$DIMSTYLE
  2
ISO-25
  9
$DIMCLRD
 70
     0
  9
$DIMCLRE
 70
     0
  9
$DIMCLRT
 70
     0
  9
$DIMTFAC
 40
1.0
  9
$DIMGAP
 40
1.524
  9
$DIMJUST
 70
     0
  9
$DIMSD1
 70
     0
  9
$DIMSD2
 70
     0
  9
$DIMTOLJ
 70
     0
  9
$DIMTZIN
 70
     0
  9
$DIMALTZ
 70
     0
  9
$DIMALTTZ
 70
     0
  9
$DIMUPT
 70
     0
  9
$DIMDEC
 70
     2
  9
$DIMTDEC
 70
     3
  9
$DIMALTU
 70
     2
  9
$DIMALTTD
 70
     3
  9
$DIMTXSTY
  7
Standard
  9
$DIMAUNIT
 70
     0
  9
$DIMADEC
 70
     2
  9
$DIMALTRND
 40
0.0
  9
$DIMAZIN
 70
     0
  9
$DIMDSEP
 70
    44
  9
$DIMATFIT
 70
     3
  9
$DIMFRAC
 70
     0
  9
$DIMLDRBLK
  1

  9
$DIMLUNIT
 70
     2
  9
$DIMLWD
 70
    -2
  9
$DIMLWE
 70
    -2
  9
$DIMTMOVE
 70
     0
  9
$LUNITS
 70
     2
  9
$LUPREC
 70
     2
  9
$SKETCHINC
 40
1.0
  9
$FILLETRAD
 40
10.0
  9
$AUNITS
 70
     0
  9
$AUPREC
 70
     2
  9
$MENU
  1
.
  9
$ELEVATION
 40
0.0
  9
$PELEVATION
 40
0.0
  9
$THICKNESS
 40
0.0
  9
$LIMCHECK
 70
     0
  9
$CHAMFERA
 40
0.0
  9
$CHAMFERB
 40
0.0
  9
$CHAMFERC
 40
0.0
  9
$CHAMFERD
 40
0.0
  9
$SKPOLY
 70
     0
  9
$TDCREATE
 40
2458169.379702488
  9
$TDUCREATE
 40
2458169.338035822
  9
$TDUPDATE
 40
2458169.379704514
  9
$TDUUPDATE
 40
2458169.338037847
  9
$TDINDWG
 40
0.0000000116
  9
$TDUSRTIMER
 40
0.0000000116
  9
$USRTIMER
 70
     1
  9
$ANGBASE
 50
0.0
  9
$ANGDIR
 70
     0
  9
$PDMODE
 70
     0
  9
$PDSIZE
 40
-1.0
  9
$PLINEWID
 40
0.0
  9
$SPLFRAME
 70
     0
  9
$SPLINETYPE
 70
     6
  9
$SPLINESEGS
 70
     8
  9
$HANDSEED
  5
2A4
  9
$SURFTAB1
 70
     6
  9
$SURFTAB2
 70
     6
  9
$SURFTYPE
 70
     6
  9
$SURFU
 70
     6
  9
$SURFV
 70
     6
  9
$UCSBASE
  2

  9
$UCSNAME
  2

  9
$UCSORG
 10
0.0
 20
0.0
 30
0.0
  9
$UCSXDIR
 10
1.0
 20
0.0
 30
0.0
  9
$UCSYDIR
 10
0.0
 20
1.0
 30
0.0
  9
$UCSORTHOREF
  2

  9
$UCSORTHOVIEW
 70
     0
  9
$UCSORGTOP
 10
0.0
 20
0.0
 30
0.0
  9
$UCSORGBOTTOM
 10
0.0
 20
0.0
 30
0.0
  9
$UCSORGLEFT
 10
0.0
 20
0.0
 30
0.0
  9
$UCSORGRIGHT
 10
0.0
 20
0.0
 30
0.0
  9
$UCSORGFRONT
 10
0.0
 20
0.0
 30
0.0
  9
$UCSORGBACK
 10
0.0
 20
0.0
 30
0.0
  9
$PUCSBASE
  2

  9
$PUCSNAME
  2

  9
$PUCSORG
 10
0.0
 20
0.0
 30
0.0
  9
$PUCSXDIR
 10
1.0
 20
0.0
 30
0.0
  9
$PUCSYDIR
 10
0.0
 20
1.0
 30
0.0
  9
$PUCSORTHOREF
  2

  9
$PUCSORTHOVIEW
 70
     0
  9
$PUCSORGTOP
 10
0.0
 20
0.0
 30
0.0
  9
$PUCSORGBOTTOM
 10
0.0
 20
0.0
 30
0.0
  9
$PUCSORGLEFT
 10
0.0
 20
0.0
 30
0.0
  9
$PUCSORGRIGHT
 10
0.0
 20
0.0
 30
0.0
  9
$PUCSORGFRONT
 10
0.0
 20
0.0
 30
0.0
  9
$PUCSORGBACK
 10
0.0
 20
0.0
 30
0.0
  9
$USERI1
 70
     0
  9
$USERI2
 70
     0
  9
$USERI3
 70
     0
  9
$USERI4
 70
     0
  9
$USERI5
 70
     0
  9
$USERR1
 40
0.0
  9
$USERR2
 40
0.0
  9
$USERR3
 40
0.0
  9
$USERR4
 40
0.0
  9
$USERR5
 40
0.0
  9
$WORLDVIEW
 70
     1
  9
$SHADEDGE
 70
     3
  9
$SHADEDIF
 70
    70
  9
$TILEMODE
 70
     1
  9
$MAXACTVP
 70
    64
  9
$PINSBASE
 10
0.0
 20
0.0
 30
0.0
  9
$PLIMCHECK
 70
     0
  9
$PEXTMIN
 10
1.0000000000E+20
 20
1.0000000000E+20
 30
1.0000000000E+20
  9
$PEXTMAX
 10
-1.0000000000E+20
 20
-1.0000000000E+20
 30
-1.0000000000E+20
  9
$PLIMMIN
 10
0.0
 20
0.0
  9
$PLIMMAX
 10
420.0
 20
297.0
  9
$UNITMODE
 70
     0
  9
$VISRETAIN
 70
     1
  9
$PLINEGEN
 70
     0
  9
$PSLTSCALE
 70
     1
  9
$TREEDEPTH
 70
  3020
  9
$CMLSTYLE
  2
Standard
  9
$CMLJUST
 70
     0
  9
$CMLSCALE
 40
20.0
  9
$PROXYGRAPHICS
 70
     1
  9
$MEASUREMENT
 70
     1
  9
$CELWEIGHT
370
    -1
  9
$ENDCAPS
280
     0
  9
$JOINSTYLE
280
     0
  9
$LWDISPLAY
290
     1
  9
$INSUNITS
 70
     4
  9
$HYPERLINKBASE
  1

  9
$STYLESHEET
  1

  9
$XEDIT
290
     1
  9
$CEPSNTYPE
380
     0
  9
$PSTYLEMODE
290
     1
  9
$FINGERPRINTGUID
  2
{09B748D1-6A39-439B-961F-6CC6B6F75630}
  9
$VERSIONGUID
  2
{FAEB1C32-E019-11D5-929B-00C0DF256EC4}
  9
$EXTNAMES
290
     1
  9
$PSVPSCALE
 40
0.0
  9
$OLESTARTUP
290
     0
  0
ENDSEC
  0
SECTION
  2
CLASSES
  0
CLASS
  1
ACDBDICTIONARYWDFLT
  2
AcDbDictionaryWithDefault
  3
ObjectDBX Classes
 90
        0
280
     0
281
     0
  0
CLASS
  1
VISUALSTYLE
  2
AcDbVisualStyle
  3
ObjectDBX Classes
 90
     4095
280
     0
281
     0
  0
CLASS
  1
MATERIAL
  2
AcDbMaterial
  3
ObjectDBX Classes
 90
     1153
280
     0
281
     0
  0
CLASS
  1
SCALE
  2
AcDbScale
  3
ObjectDBX Classes
 90
     1153
280
     0
281
     0
  0
CLASS
  1
TABLESTYLE
  2
AcDbTableStyle
  3
ObjectDBX Classes
 90
     4095
280
     0
281
     0
  0
CLASS
  1
MLEADERSTYLE
  2
AcDbMLeaderStyle
  3
ACDB_MLEADERSTYLE_CLASS
 90
     4095
280
     0
281
     0
  0
CLASS
  1
SUN
  2
AcDbSun
  3
SCENEOE
 90
     1153
280
     0
281
     0
  0
CLASS
  1
ACDBPLACEHOLDER
  2
AcDbPlaceHolder
  3
ObjectDBX Classes
 90
        0
280
     0
281
     0
  0
CLASS
  1
LAYOUT
  2
AcDbLayout
  3
ObjectDBX Classes
 90
        0
280
     0
281
     0
  0
ENDSEC
  0
SECTION
  2
TABLES
  0
TABLE
  2
VPORT
  5
8
330
0
100
AcDbSymbolTable
 70
     1
  0
VPORT
  5
29
330
8
100
AcDbSymbolTableRecord
100
AcDbViewportTableRecord
  2
*Active
 70
     0
 10
0.0
 20
0.0
 11
1.0
 21
1.0
 12
148.5
 22
105.0
 13
0.0
 23
0.0
 14
10.0
 24
10.0
 15
10.0
 25
10.0
 16
0.0
 26
0.0
 36
1.0
 17
0.0
 27
0.0
 37
0.0
 40
210.0
 41
1.4142857143
 42
50.0
 43
0.0
 44
0.0
 50
0.0
 51
0.0
 71
     0
 72
  2000
 73
     1
 74
     3
 75
     0
 76
     0
 77
     0
 78
     0
281
     0
 65
     1
110
0.0
120
0.0
130
0.0
111
1.0
121
0.0
131
0.0
112
0.0
122
1.0
132
0.0
 79
     0
146
0.0
  0
ENDTAB
  0
TABLE
  2
LTYPE
  5
5
330
0
100
AcDbSymbolTable
 70
     6
  0
LTYPE
  5
14
330
5
100
AcDbSymbolTableRecord
100
AcDbLinetypeTableRecord
  2
ByBlock
 70
     0
  3

 72
    65
 73
     0
 40
0.0
  0
LTYPE
  5
15
330
5
100
AcDbSymbolTableRecord
100
AcDbLinetypeTableRecord
  2
ByLayer
 70
     0
  3

 72
    65
 73
     0
 40
0.0
  0
LTYPE
  5
16
330
5
100
AcDbSymbolTableRecord
100
AcDbLinetypeTableRecord
  2
Continuous
 70
     0
  3
Solid line
 72
    65
 73
     0
 40
0.0
  0
LTYPE
  5
6E
330
5
100
AcDbSymbolTableRecord
100
AcDbLinetypeTableRecord
  2
HIDDEN
 70
     0
  3
Hidden __ __ __ __ __ __ __ __ __ __ __ __ __ __
 72
    65
 73
     2
 40
1.905
 49
1.27
 74
     0
 49
-0.635
 74
     0
  0
LTYPE
  5
6F
330
5
100
AcDbSymbolTableRecord
100
AcDbLinetypeTableRecord
  2
PHANTOM
 70
     0
  3
Phantom ______  __  __  ______  __  __  ______
 72
    65
 73
     6
 40
12.7
 49
6.35
 74
     0
 49
-1.27
 74
     0
 49
1.27
 74
     0
 49
-1.27
 74
     0
 49
1.27
 74
     0
 49
-1.27
 74
     0
  0
LTYPE
  5
70
330
5
100
AcDbSymbolTableRecord
100
AcDbLinetypeTableRecord
  2
CENTER
 70
     0
  3
Center ____ _ ____ _ ____ _ ____ _ ____ _ ____
 72
    65
 73
     4
 40
10.16
 49
6.35
 74
     0
 49
-1.27
 74
     0
 49
1.27
 74
     0
 49
-1.27
 74
     0
  0
LTYPE
  5
71
330
5
100
AcDbSymbolTableRecord
100
AcDbLinetypeTableRecord
  2
CENTERX2
 70
     0
  3
Center (2x) ________  __  ________  __  _____
 72
    65
 73
     4
 40
20.32
 49
12.7
 74
     0
 49
-2.54
 74
     0
 49
2.54
 74
     0
 49
-2.54
 74
     0
  0
LTYPE
  5
72
330
5
100
AcDbSymbolTableRecord
100
AcDbLinetypeTableRecord
  2
DOT2
 70
     0
  3
Dot (.5x) ........................................
 72
    65
 73
     2
 40
0.635
 49
0.0
 74
     0
 49
-0.635
 74
     0
  0
ENDTAB
  0
TABLE
  2
LAYER
  5
2
330
0
100
AcDbSymbolTable
 70
     5
  0
LAYER
  5
10
330
2
100
AcDbSymbolTableRecord
100
AcDbLayerTableRecord
  2
0
 70
     0
 62
     7
  6
Continuous
370
    -3
390
F
  0
LAYER
  5
73
330
2
100
AcDbSymbolTableRecord
100
AcDbLayerTableRecord
  2
FORMAT
 70
     0
 62
     7
  6
Continuous
370
    -3
390
F
  0
LAYER
  5
74
330
2
100
AcDbSymbolTableRecord
100
AcDbLayerTableRecord
  2
VERMASSUNG
 70
     0
 62
     7
  6
Continuous
370
    -3
390
F
  0
LAYER
  5
75
330
2
100
AcDbSymbolTableRecord
100
AcDbLayerTableRecord
  2
KOPF_DÜNN
 70
     0
 62
     7
  6
Continuous
370
    -3
390
F
  0
LAYER
  5
76
330
2
100
AcDbSymbolTableRecord
100
AcDbLayerTableRecord
  2
KOPF_DICK
 70
     0
 62
     7
  6
Continuous
370
    25
390
F
  0
ENDTAB
  0
TABLE
  2
STYLE
  5
3
330
0
100
AcDbSymbolTable
 70
     3
  0
STYLE
  5
11
330
3
100
AcDbSymbolTableRecord
100
AcDbTextStyleTableRecord
  2
Standard
 70
     0
 40
0.0
 41
1.0
 50
0.0
 71
     0
 42
2.0
  3
txt
  4

  0
STYLE
  5
77
330
3
100
AcDbSymbolTableRecord
100
AcDbTextStyleTableRecord
  2
SLDTEXTSTYLE0
 70
     0
 40
0.0
 41
0.7
 50
0.0
 71
     0
 42
2.0
  3
TXT
  4

  0
STYLE
  5
7B
330
3
100
AcDbSymbolTableRecord
100
AcDbTextStyleTableRecord
  2
SLDTEXTSTYLE1
 70
     0
 40
0.0
 41
0.6428571429
 50
0.0
 71
     0
 42
2.0
  3
TXT
  4

  0
ENDTAB
  0
TABLE
  2
VIEW
  5
6
330
0
100
AcDbSymbolTable
 70
     0
  0
ENDTAB
  0
TABLE
  2
UCS
  5
7
330
0
100
AcDbSymbolTable
 70
     0
  0
ENDTAB
  0
TABLE
  2
APPID
  5
9
330
0
100
AcDbSymbolTable
 70
     1
  0
APPID
  5
12
330
9
100
AcDbSymbolTableRecord
100
AcDbRegAppTableRecord
  2
ACAD
 70
     0
  0
ENDTAB
  0
TABLE
  2
DIMSTYLE
  5
A
330
0
100
AcDbSymbolTable
 70
     3
100
AcDbDimStyleTable
  0
DIMSTYLE
105
27
330
A
100
AcDbSymbolTableRecord
100
AcDbDimStyleTableRecord
  2
ISO-25
 70
     0
 41
2.5
 42
0.625
 43
3.75
 44
1.25
 73
     0
 74
     0
 77
     1
 78
     8
140
2.5
141
2.5
143
0.0393700787
147
0.625
171
     3
172
     1
178
     0
271
     2
272
     2
274
     3
278
    44
283
     0
284
     8
340
11
  0
DIMSTYLE
105
130
102
{ACAD_REACTORS
330
12F
330
13B
330
145
330
14F
330
159
330
165
330
170
102
}
330
A
100
AcDbSymbolTableRecord
100
AcDbDimStyleTableRecord
  2
SLDDIMSTYLE0
 70
     0
 41
3.0
 44
0.0
 45
0.000000001
 73
     0
 74
     0
 77
     1
 78
    12
 79
     3
140
2.0
147
0.5
173
     1
178
     0
271
     2
272
     3
276
     2
284
    12
340
77
  0
DIMSTYLE
105
17C
102
{ACAD_REACTORS
330
17B
102
}
330
A
100
AcDbSymbolTableRecord
100
AcDbDimStyleTableRecord
  2
SLDDIMSTYLE1
 70
     0
 41
3.0
 44
0.0
 45
0.000000001
 73
     0
 74
     0
 77
     1
 78
    12
 79
     3
140
2.0
147
0.5
172
     1
173
     1
178
     0
271
     0
272
     3
276
     2
284
    12
289
     0
340
77
  0
ENDTAB
  0
TABLE
  2
BLOCK_RECORD
  5
1
330
0
100
AcDbSymbolTable
 70
     9
  0
BLOCK_RECORD
  5
1F
330
1
100
AcDbSymbolTableRecord
100
AcDbBlockTableRecord
  2
*Model_Space
340
22
  0
BLOCK_RECORD
  5
1B
330
1
100
AcDbSymbolTableRecord
100
AcDbBlockTableRecord
  2
*Paper_Space
340
1E
  0
BLOCK_RECORD
  5
23
330
1
100
AcDbSymbolTableRecord
100
AcDbBlockTableRecord
  2
*Paper_Space0
340
26
  0
BLOCK_RECORD
  5
131
330
1
100
AcDbSymbolTableRecord
100
AcDbBlockTableRecord
  2
_D
340
0
  0
BLOCK_RECORD
  5
13C
330
1
100
AcDbSymbolTableRecord
100
AcDbBlockTableRecord
  2
_D_1
340
0
  0
BLOCK_RECORD
  5
146
330
1
100
AcDbSymbolTableRecord
100
AcDbBlockTableRecord
  2
_D_2
340
0
  0
BLOCK_RECORD
  5
150
330
1
100
AcDbSymbolTableRecord
100
AcDbBlockTableRecord
  2
_D_3
340
0
  0
BLOCK_RECORD
  5
15A
330
1
100
AcDbSymbolTableRecord
100
AcDbBlockTableRecord
  2
_D_4
340
0
  0
BLOCK_RECORD
  5
166
330
1
100
AcDbSymbolTableRecord
100
AcDbBlockTableRecord
  2
_D_5
340
0
  0
BLOCK_RECORD
  5
171
330
1
100
AcDbSymbolTableRecord
100
AcDbBlockTableRecord
  2
_D_6
340
0
  0
BLOCK_RECORD
  5
17D
330
1
100
AcDbSymbolTableRecord
100
AcDbBlockTableRecord
  2
_D_7
340
0
  0
ENDTAB
  0
ENDSEC
  0
SECTION
  2
BLOCKS
  0
BLOCK
  5
20
330
1F
100
AcDbEntity
  8
0
100
AcDbBlockBegin
  2
*Model_Space
 70
     0
 10
0.0
 20
0.0
 30
0.0
  3
*Model_Space
  1

  0
ENDBLK
  5
21
330
1F
100
AcDbEntity
  8
0
100
AcDbBlockEnd
  0
BLOCK
  5
1C
330
1B
100
AcDbEntity
 67
     1
  8
0
100
AcDbBlockBegin
  2
*Paper_Space
 70
     0
 10
0.0
 20
0.0
 30
0.0
  3
*Paper_Space
  1

  0
ENDBLK
  5
1D
330
1B
100
AcDbEntity
 67
     1
  8
0
100
AcDbBlockEnd
  0
BLOCK
  5
24
330
23
100
AcDbEntity
  8
0
100
AcDbBlockBegin
  2
*Paper_Space0
 70
     0
 10
0.0
 20
0.0
 30
0.0
  3
*Paper_Space0
  1

  0
ENDBLK
  5
25
330
23
100
AcDbEntity
  8
0
100
AcDbBlockEnd
  0
BLOCK
  5
132
330
131
100
AcDbEntity
  8
0
100
AcDbBlockBegin
  2
_D
 70
     0
 10
0.0
 20
0.0
 30
0.0
  3
_D
  1

  0
SOLID
  5
134
330
131
100
AcDbEntity
  8
VERMASSUNG
100
AcDbTrace
 10
10.0093654375
 20
166.2432718704
 30
0.0
 11
9.5593654375
 21
163.2432718704
 31
0.0
 12
10.4593654375
 22
163.2432718704
 32
0.0
 13
10.4593654375
 23
163.2432718704
 33
0.0
  0
SOLID
  5
135
330
131
100
AcDbEntity
  8
VERMASSUNG
100
AcDbTrace
 10
10.0093654375
 20
66.2432718704
 30
0.0
 11
10.4593654375
 21
69.2432718704
 31
0.0
 12
9.5593654375
 22
69.2432718704
 32
0.0
 13
9.5593654375
 23
69.2432718704
 33
0.0
  0
LINE
  5
136
330
131
100
AcDbEntity
  8
VERMASSUNG
100
AcDbLine
 10
70.6598347985
 20
166.2432718704
 30
0.0
 11
9.0093654375
 21
166.2432718704
 31
0.0
  0
LINE
  5
137
330
131
100
AcDbEntity
  8
VERMASSUNG
100
AcDbLine
 10
70.6598347985
 20
66.2432718704
 30
0.0
 11
9.0093654375
 21
66.2432718704
 31
0.0
  0
LINE
  5
138
330
131
100
AcDbEntity
  8
VERMASSUNG
100
AcDbLine
 10
10.0093654375
 20
166.2432718704
 30
0.0
 11
10.0093654375
 21
66.2432718704
 31
0.0
  0
MTEXT
  5
139
330
131
100
AcDbEntity
  8
VERMASSUNG
100
AcDbMText
 10
7.4312301326
 20
112.5382718312
 30
0.0
 40
2.0
 41
0.0
 71
     1
 72
     1
  1
%%c
  7
SLDTEXTSTYLE0
 11
-7.044195017643634E-15
 21
1.0
 31
0.0
 73
     1
 44
1.0
  0
MTEXT
  5
13A
330
131
100
AcDbEntity
  8
VERMASSUNG
100
AcDbMText
 10
7.2312301813
 20
116.1482718455
 30
0.0
 40
2.0
 41
0.0
 71
     1
 72
     1
  1
100
  7
SLDTEXTSTYLE0
 11
-7.044195017643634E-15
 21
1.0
 31
0.0
 73
     1
 44
1.0
  0
ENDBLK
  5
133
330
131
100
AcDbEntity
  8
0
100
AcDbBlockEnd
  0
BLOCK
  5
13D
330
13C
100
AcDbEntity
  8
0
100
AcDbBlockBegin
  2
_D_1
 70
     0
 10
0.0
 20
0.0
 30
0.0
  3
_D_1
  1

  0
SOLID
  5
13F
330
13C
100
AcDbEntity
  8
VERMASSUNG
100
AcDbTrace
 10
99.1098347985
 20
171.7699432572
 30
0.0
 11
102.1098347985
 21
171.3199432572
 31
0.0
 12
102.1098347985
 22
172.2199432572
 32
0.0
 13
102.1098347985
 23
172.2199432572
 33
0.0
  0
SOLID
  5
140
330
13C
100
AcDbEntity
  8
VERMASSUNG
100
AcDbTrace
 10
230.1598347985
 20
171.7699432572
 30
0.0
 11
227.1598347985
 21
172.2199432572
 31
0.0
 12
227.1598347985
 22
171.3199432572
 32
0.0
 13
227.1598347985
 23
171.3199432572
 33
0.0
  0
LINE
  5
141
330
13C
100
AcDbEntity
  8
VERMASSUNG
100
AcDbLine
 10
99.1098347985
 20
147.5932718704
 30
0.0
 11
99.1098347985
 21
172.7699432572
 31
0.0
  0
LINE
  5
142
330
13C
100
AcDbEntity
  8
VERMASSUNG
100
AcDbLine
 10
230.1598347985
 20
134.4432718704
 30
0.0
 11
230.1598347985
 21
172.7699432572
 31
0.0
  0
LINE
  5
143
330
13C
100
AcDbEntity
  8
VERMASSUNG
100
AcDbLine
 10
99.1098347985
 20
171.7699432572
 30
0.0
 11
230.1598347985
 21
171.7699432572
 31
0.0
  0
MTEXT
  5
144
330
13C
100
AcDbEntity
  8
VERMASSUNG
100
AcDbMText
 10
161.2348347534
 20
174.3480788532
 30
0.0
 40
2.0
 41
0.0
 71
     1
 72
     1
  1
131.05
  7
SLDTEXTSTYLE0
 73
     1
 44
1.0
  0
ENDBLK
  5
13E
330
13C
100
AcDbEntity
  8
0
100
AcDbBlockEnd
  0
BLOCK
  5
147
330
146
100
AcDbEntity
  8
0
100
AcDbBlockBegin
  2
_D_2
 70
     0
 10
0.0
 20
0.0
 30
0.0
  3
_D_2
  1

  0
SOLID
  5
149
330
146
100
AcDbEntity
  8
VERMASSUNG
100
AcDbTrace
 10
70.1598347985
 20
180.8974314974
 30
0.0
 11
73.1598347985
 21
180.4474314974
 31
0.0
 12
73.1598347985
 22
181.3474314974
 32
0.0
 13
73.1598347985
 23
181.3474314974
 33
0.0
  0
SOLID
  5
14A
330
146
100
AcDbEntity
  8
VERMASSUNG
100
AcDbTrace
 10
230.1598347985
 20
180.8974314974
 30
0.0
 11
227.1598347985
 21
181.3474314974
 31
0.0
 12
227.1598347985
 22
180.4474314974
 32
0.0
 13
227.1598347985
 23
180.4474314974
 33
0.0
  0
LINE
  5
14B
330
146
100
AcDbEntity
  8
VERMASSUNG
100
AcDbLine
 10
70.1598347985
 20
165.7432718704
 30
0.0
 11
70.1598347985
 21
181.8974314974
 31
0.0
  0
LINE
  5
14C
330
146
100
AcDbEntity
  8
VERMASSUNG
100
AcDbLine
 10
230.1598347985
 20
134.4432718704
 30
0.0
 11
230.1598347985
 21
181.8974314974
 31
0.0
  0
LINE
  5
14D
330
146
100
AcDbEntity
  8
VERMASSUNG
100
AcDbLine
 10
70.1598347985
 20
180.8974314974
 30
0.0
 11
230.1598347985
 21
180.8974314974
 31
0.0
  0
MTEXT
  5
14E
330
146
100
AcDbEntity
  8
VERMASSUNG
100
AcDbMText
 10
148.2598347664
 20
183.4755670934
 30
0.0
 40
2.0
 41
0.0
 71
     1
 72
     1
  1
160
  7
SLDTEXTSTYLE0
 73
     1
 44
1.0
  0
ENDBLK
  5
148
330
146
100
AcDbEntity
  8
0
100
AcDbBlockEnd
  0
BLOCK
  5
151
330
150
100
AcDbEntity
  8
0
100
AcDbBlockBegin
  2
_D_3
 70
     0
 10
0.0
 20
0.0
 30
0.0
  3
_D_3
  1

  0
SOLID
  5
153
330
150
100
AcDbEntity
  8
VERMASSUNG
100
AcDbTrace
 10
230.1598347985
 20
171.7699432572
 30
0.0
 11
233.1598347985
 21
171.3199432572
 31
0.0
 12
233.1598347985
 22
172.2199432572
 32
0.0
 13
233.1598347985
 23
172.2199432572
 33
0.0
  0
SOLID
  5
154
330
150
100
AcDbEntity
  8
VERMASSUNG
100
AcDbTrace
 10
247.1598347985
 20
171.7699432572
 30
0.0
 11
244.1598347985
 21
172.2199432572
 31
0.0
 12
244.1598347985
 22
171.3199432572
 32
0.0
 13
244.1598347985
 23
171.3199432572
 33
0.0
  0
LINE
  5
155
330
150
100
AcDbEntity
  8
VERMASSUNG
100
AcDbLine
 10
230.1598347985
 20
134.4432718704
 30
0.0
 11
230.1598347985
 21
172.7699432572
 31
0.0
  0
LINE
  5
156
330
150
100
AcDbEntity
  8
VERMASSUNG
100
AcDbLine
 10
247.1598347985
 20
123.4432718704
 30
0.0
 11
247.1598347985
 21
172.7699432572
 31
0.0
  0
LINE
  5
157
330
150
100
AcDbEntity
  8
VERMASSUNG
100
AcDbLine
 10
230.1598347985
 20
171.7699432572
 30
0.0
 11
247.1598347985
 21
171.7699432572
 31
0.0
  0
MTEXT
  5
158
330
150
100
AcDbEntity
  8
VERMASSUNG
100
AcDbMText
 10
237.4598347415
 20
174.3480788532
 30
0.0
 40
2.0
 41
0.0
 71
     1
 72
     1
  1
17
  7
SLDTEXTSTYLE0
 73
     1
 44
1.0
  0
ENDBLK
  5
152
330
150
100
AcDbEntity
  8
0
100
AcDbBlockEnd
  0
BLOCK
  5
15B
330
15A
100
AcDbEntity
  8
0
100
AcDbBlockBegin
  2
_D_4
 70
     0
 10
0.0
 20
0.0
 30
0.0
  3
_D_4
  1

  0
ARC
  5
15D
330
15A
100
AcDbEntity
  8
VERMASSUNG
100
AcDbCircle
 10
134.4098350354
 20
193.0799216679
 30
0.0
 40
4.24852922888762
100
AcDbArc
 50
153.4349488229
 51
206.5650511771
  0
ARC
  5
15E
330
15A
100
AcDbEntity
  8
VERMASSUNG
100
AcDbCircle
 10
133.0098346197
 20
193.0799216679
 30
0.0
 40
4.24852922888762
100
AcDbArc
 50
333.4349488229
 51
26.5650511771
  0
SOLID
  5
15F
330
15A
100
AcDbEntity
  8
VERMASSUNG
100
AcDbTrace
 10
20.2598347985
 20
191.179921403
 30
0.0
 11
23.2598347985
 21
190.729921403
 31
0.0
 12
23.2598347985
 22
191.629921403
 32
0.0
 13
23.2598347985
 23
191.629921403
 33
0.0
  0
SOLID
  5
160
330
15A
100
AcDbEntity
  8
VERMASSUNG
100
AcDbTrace
 10
247.1598347985
 20
191.179921403
 30
0.0
 11
244.1598347985
 21
191.629921403
 31
0.0
 12
244.1598347985
 22
190.729921403
 32
0.0
 13
244.1598347985
 23
190.729921403
 33
0.0
  0
LINE
  5
161
330
15A
100
AcDbEntity
  8
VERMASSUNG
100
AcDbLine
 10
20.2598347985
 20
146.7459416129
 30
0.0
 11
20.2598347985
 21
192.179921403
 31
0.0
  0
LINE
  5
162
330
15A
100
AcDbEntity
  8
VERMASSUNG
100
AcDbLine
 10
247.1598347985
 20
123.4432718704
 30
0.0
 11
247.1598347985
 21
192.179921403
 31
0.0
  0
LINE
  5
163
330
15A
100
AcDbEntity
  8
VERMASSUNG
100
AcDbLine
 10
20.2598347985
 20
191.179921403
 30
0.0
 11
247.1598347985
 21
191.179921403
 31
0.0
  0
MTEXT
  5
164
330
15A
100
AcDbEntity
  8
VERMASSUNG
100
AcDbMText
 10
130.6098349714
 20
193.7580572318
 30
0.0
 40
2.0
 41
0.0
 71
     1
 72
     1
  1
226.9
  7
SLDTEXTSTYLE0
 73
     1
 44
1.0
  0
ENDBLK
  5
15C
330
15A
100
AcDbEntity
  8
0
100
AcDbBlockEnd
  0
BLOCK
  5
167
330
166
100
AcDbEntity
  8
0
100
AcDbBlockBegin
  2
_D_5
 70
     0
 10
0.0
 20
0.0
 30
0.0
  3
_D_5
  1

  0
SOLID
  5
169
330
166
100
AcDbEntity
  8
VERMASSUNG
100
AcDbTrace
 10
279.1618539019
 20
108.2432718704
 30
0.0
 11
279.6118539019
 21
111.2432718704
 31
0.0
 12
278.7118539019
 22
111.2432718704
 32
0.0
 13
278.7118539019
 23
111.2432718704
 33
0.0
  0
SOLID
  5
16A
330
166
100
AcDbEntity
  8
VERMASSUNG
100
AcDbTrace
 10
279.1618539019
 20
124.2432718704
 30
0.0
 11
278.7118539019
 21
121.2432718704
 31
0.0
 12
279.6118539019
 22
121.2432718704
 32
0.0
 13
279.6118539019
 23
121.2432718704
 33
0.0
  0
LINE
  5
16B
330
166
100
AcDbEntity
  8
VERMASSUNG
100
AcDbLine
 10
246.3598347985
 20
108.2432718704
 30
0.0
 11
280.1618539019
 21
108.2432718704
 31
0.0
  0
LINE
  5
16C
330
166
100
AcDbEntity
  8
VERMASSUNG
100
AcDbLine
 10
246.3598347985
 20
124.2432718704
 30
0.0
 11
280.1618539019
 21
124.2432718704
 31
0.0
  0
LINE
  5
16D
330
166
100
AcDbEntity
  8
VERMASSUNG
100
AcDbLine
 10
279.1618539019
 20
108.2432718704
 30
0.0
 11
279.1618539019
 21
124.2432718704
 31
0.0
  0
MTEXT
  5
16E
330
166
100
AcDbEntity
  8
VERMASSUNG
100
AcDbMText
 10
276.5837185969
 20
113.2382718062
 30
0.0
 40
2.0
 41
0.0
 71
     1
 72
     1
  1
%%c
  7
SLDTEXTSTYLE0
 11
6.123233995736766E-17
 21
1.0
 31
0.0
 73
     1
 44
1.0
  0
MTEXT
  5
16F
330
166
100
AcDbEntity
  8
VERMASSUNG
100
AcDbMText
 10
276.3837186456
 20
116.8482718205
 30
0.0
 40
2.0
 41
0.0
 71
     1
 72
     1
  1
16
  7
SLDTEXTSTYLE0
 11
6.123233995736766E-17
 21
1.0
 31
0.0
 73
     1
 44
1.0
  0
ENDBLK
  5
168
330
166
100
AcDbEntity
  8
0
100
AcDbBlockEnd
  0
BLOCK
  5
172
330
171
100
AcDbEntity
  8
0
100
AcDbBlockBegin
  2
_D_6
 70
     0
 10
0.0
 20
0.0
 30
0.0
  3
_D_6
  1

  0
SOLID
  5
174
330
171
100
AcDbEntity
  8
VERMASSUNG
100
AcDbTrace
 10
288.1598347985
 20
135.2432718704
 30
0.0
 11
287.7098347985
 21
132.2432718704
 31
0.0
 12
288.6098347985
 22
132.2432718704
 32
0.0
 13
288.6098347985
 23
132.2432718704
 33
0.0
  0
SOLID
  5
175
330
171
100
AcDbEntity
  8
VERMASSUNG
100
AcDbTrace
 10
288.1598347985
 20
97.2432718704
 30
0.0
 11
288.6098347985
 21
100.2432718704
 31
0.0
 12
287.7098347985
 22
100.2432718704
 32
0.0
 13
287.7098347985
 23
100.2432718704
 33
0.0
  0
LINE
  5
176
330
171
100
AcDbEntity
  8
VERMASSUNG
100
AcDbLine
 10
229.3598347985
 20
135.2432718704
 30
0.0
 11
289.1598347985
 21
135.2432718704
 31
0.0
  0
LINE
  5
177
330
171
100
AcDbEntity
  8
VERMASSUNG
100
AcDbLine
 10
229.3598347985
 20
97.2432718704
 30
0.0
 11
289.1598347985
 21
97.2432718704
 31
0.0
  0
LINE
  5
178
330
171
100
AcDbEntity
  8
VERMASSUNG
100
AcDbLine
 10
288.1598347985
 20
135.2432718704
 30
0.0
 11
288.1598347985
 21
97.2432718704
 31
0.0
  0
MTEXT
  5
179
330
171
100
AcDbEntity
  8
VERMASSUNG
100
AcDbMText
 10
285.5816994935
 20
113.0382719131
 30
0.0
 40
2.0
 41
0.0
 71
     1
 72
     1
  1
%%c
  7
SLDTEXTSTYLE0
 11
-7.044195017643634E-15
 21
1.0
 31
0.0
 73
     1
 44
1.0
  0
MTEXT
  5
17A
330
171
100
AcDbEntity
  8
VERMASSUNG
100
AcDbMText
 10
285.3816995423
 20
116.6482719274
 30
0.0
 40
2.0
 41
0.0
 71
     1
 72
     1
  1
38
  7
SLDTEXTSTYLE0
 11
-7.044195017643634E-15
 21
1.0
 31
0.0
 73
     1
 44
1.0
  0
ENDBLK
  5
173
330
171
100
AcDbEntity
  8
0
100
AcDbBlockEnd
  0
BLOCK
  5
17E
330
17D
100
AcDbEntity
  8
0
100
AcDbBlockBegin
  2
_D_7
 70
     0
 10
0.0
 20
0.0
 30
0.0
  3
_D_7
  1

  0
SOLID
  5
180
330
17D
100
AcDbEntity
  8
VERMASSUNG
100
AcDbTrace
 10
270.1598347985
 20
119.2907718704
 30
0.0
 11
270.6098347985
 21
122.2907718704
 31
0.0
 12
269.7098347985
 22
122.2907718704
 32
0.0
 13
269.7098347985
 23
122.2907718704
 33
0.0
  0
SOLID
  5
181
330
17D
100
AcDbEntity
  8
VERMASSUNG
100
AcDbTrace
 10
270.1598347985
 20
113.1957718704
 30
0.0
 11
269.7098347985
 21
110.1957718704
 31
0.0
 12
270.6098347985
 22
110.1957718704
 32
0.0
 13
270.6098347985
 23
110.1957718704
 33
0.0
  0
LINE
  5
182
330
17D
100
AcDbEntity
  8
VERMASSUNG
100
AcDbLine
 10
260.1598347985
 20
119.2907718704
 30
0.0
 11
271.1598347985
 21
119.2907718704
 31
0.0
  0
LINE
  5
183
330
17D
100
AcDbEntity
  8
VERMASSUNG
100
AcDbLine
 10
260.1598347985
 20
113.1957718704
 30
0.0
 11
271.1598347985
 21
113.1957718704
 31
0.0
  0
LINE
  5
184
330
17D
100
AcDbEntity
  8
VERMASSUNG
100
AcDbLine
 10
270.1598347985
 20
119.2907718704
 30
0.0
 11
270.1598347985
 21
125.2907718704
 31
0.0
  0
LINE
  5
185
330
17D
100
AcDbEntity
  8
VERMASSUNG
100
AcDbLine
 10
270.1598347985
 20
119.2907718704
 30
0.0
 11
270.1598347985
 21
113.1957718704
 31
0.0
  0
LINE
  5
186
330
17D
100
AcDbEntity
  8
VERMASSUNG
100
AcDbLine
 10
270.1598347985
 20
113.1957718704
 30
0.0
 11
270.1598347985
 21
107.1957718704
 31
0.0
  0
MTEXT
  5
187
330
17D
100
AcDbEntity
  8
VERMASSUNG
100
AcDbMText
 10
267.5816992025
 20
113.6432718633
 30
0.0
 40
2.0
 41
0.0
 71
     1
 72
     1
  1
SW
  7
SLDTEXTSTYLE0
 11
-7.044195017643634E-15
 21
1.0
 31
0.0
 73
     1
 44
1.0
  0
MTEXT
  5
188
330
17D
100
AcDbEntity
  8
VERMASSUNG
100
AcDbMText
 10
267.5816992025
 20
117.4432719274
 30
0.0
 40
2.0
 41
0.0
 71
     1
 72
     1
  1
6
  7
SLDTEXTSTYLE0
 11
-7.044195017643634E-15
 21
1.0
 31
0.0
 73
     1
 44
1.0
  0
ENDBLK
  5
17F
330
17D
100
AcDbEntity
  8
0
100
AcDbBlockEnd
  0
ENDSEC
  0
SECTION
  2
ENTITIES
  0
MTEXT
  5
78
330
1F
100
AcDbEntity
  8
KOPF_DÜNN
100
AcDbMText
 10
13.8892156294
 20
23.8442973028
 30
0.0
 40
3.0
 41
0.0
 71
     1
 72
     1
  1
HA0.D16.K01.160
  7
SLDTEXTSTYLE0
 73
     1
 44
1.0
  0
MTEXT
  5
79
330
1F
100
AcDbEntity
  8
VERMASSUNG
100
AcDbMText
 10
13.9329988022
 20
28.8834360957
 30
0.0
 40
3.0
 41
0.0
 71
     1
 72
     1
  1
Fräsdorn Typ S_Milling arbor type S
  7
SLDTEXTSTYLE0
 73
     1
 44
1.0
  0
MTEXT
  5
7A
330
1F
100
AcDbEntity
  8
VERMASSUNG
100
AcDbMText
 10
98.8601118557
 20
13.8365368761
 30
0.0
 40
2.0
 41
0.0
 71
     1
 72
     1
  1
Datum: 19.02.2018
  7
SLDTEXTSTYLE0
 73
     1
 44
1.0
  0
MTEXT
  5
7C
330
1F
100
AcDbEntity
  8
VERMASSUNG
100
AcDbMText
 10
13.933048693
 20
18.0482802738
 30
0.0
 40
2.0
 41
0.0
 71
     1
 72
     1
  1
HSK A 63 / Ø16
  7
SLDTEXTSTYLE1
 73
     1
 44
1.0
  0
MTEXT
  5
7D
330
1F
100
AcDbEntity
  8
VERMASSUNG
100
AcDbMText
 10
13.9808475933
 20
13.9090974274
 30
0.0
 40
2.0
 41
0.0
 71
     1
 72
     1
  1
Gewicht: 3130g
  7
SLDTEXTSTYLE0
 73
     1
 44
1.0
  0
ARC
  5
7E
330
1F
100
AcDbEntity
  8
0
  6
Continuous
 62
     7
370
    25
100
AcDbCircle
 10
234.6598347985
 20
98.7432718704
 30
0.0
 40
0.5
100
AcDbArc
 50
270.0
 51
0.0
  0
ARC
  5
7F
330
1F
100
AcDbEntity
  8
0
  6
Continuous
 62
     7
370
    25
100
AcDbCircle
 10
234.6598347985
 20
105.7432718704
 30
0.0
 40
0.5
100
AcDbArc
 50
0.0
 51
90.0
  0
LINE
  5
80
330
1F
100
AcDbEntity
  8
0
  6
Continuous
 62
     7
370
    25
100
AcDbLine
 10
230.1598312222
 20
98.2432726452
 30
0.0
 11
234.6598328911
 21
98.2432726452
 31
0.0
  0
LINE
  5
81
330
1F
100
AcDbEntity
  8
0
  6
Continuous
 62
     7
370
    25
100
AcDbLine
 10
234.6598328911
 20
106.2432720939
 30
0.0
 11
230.1598312222
 21
106.2432720939
 31
0.0
  0
LINE
  5
82
330
1F
100
AcDbEntity
  8
0
  6
Continuous
 62
     7
370
    25
100
AcDbLine
 10
230.1598312222
 20
126.2432716468
 30
0.0
 11
234.6598328911
 21
126.2432716468
 31
0.0
  0
LINE
  5
83
330
1F
100
AcDbEntity
  8
0
  6
Continuous
 62
     7
370
    25
100
AcDbLine
 10
234.6598328911
 20
134.2432710955
 30
0.0
 11
230.1598312222
 21
134.2432710955
 31
0.0
  0
ARC
  5
84
330
1F
100
AcDbEntity
  8
0
  6
Continuous
 62
     7
370
    25
100
AcDbCircle
 10
234.6598347985
 20
126.7432718704
 30
0.0
 40
0.5
100
AcDbArc
 50
270.0
 51
0.0
  0
ARC
  5
85
330
1F
100
AcDbEntity
  8
0
  6
Continuous
 62
     7
370
    25
100
AcDbCircle
 10
234.6598347985
 20
133.7432718704
 30
0.0
 40
0.5
100
AcDbArc
 50
0.0
 51
90.0
  0
LINE
  5
86
330
1F
100
AcDbEntity
  8
0
  6
Continuous
 62
     7
370
    25
100
AcDbLine
 10
259.7598405444
 20
122.7432720045
 30
0.0
 11
252.159831103
 21
122.7432720045
 31
0.0
  0
LINE
  5
87
330
1F
100
AcDbEntity
  8
0
  6
Continuous
 62
     7
370
    25
100
AcDbLine
 10
252.159831103
 20
109.7432717363
 30
0.0
 11
259.7598405444
 21
109.7432717363
 31
0.0
  0
ARC
  5
88
330
1F
100
AcDbEntity
  8
0
  6
Continuous
 62
     7
370
    25
100
AcDbCircle
 10
259.7598347985
 20
122.3432718704
 30
0.0
 40
0.3999999999999915
100
AcDbArc
 50
0.0
 51
90.0
  0
ARC
  5
89
330
1F
100
AcDbEntity
  8
0
  6
Continuous
 62
     7
370
    25
100
AcDbCircle
 10
259.7598347985
 20
110.1432718704
 30
0.0
 40
0.3999999999999915
100
AcDbArc
 50
270.0
 51
0.0
  0
ARC
  5
8A
330
1F
100
AcDbEntity
  8
0
  6
Continuous
 62
     7
370
    25
100
AcDbCircle
 10
251.7598347985
 20
111.8432718704
 30
0.0
 40
0.4000000000000057
100
AcDbArc
 50
0.0
 51
90.0
  0
ARC
  5
8B
330
1F
100
AcDbEntity
  8
0
  6
Continuous
 62
     7
370
    25
100
AcDbCircle
 10
251.7598347985
 20
120.6432718704
 30
0.0
 40
0.4000000000000057
100
AcDbArc
 50
270.0
 51
0.0
  0
LINE
  5
8C
330
1F
100
AcDbEntity
  8
0
  6
Continuous
 62
     7
370
    25
100
AcDbLine
 10
251.7598392331
 20
120.2432720604
 30
0.0
 11
247.1598358714
 21
120.2432720604
 31
0.0
  0
LINE
  5
8D
330
1F
100
AcDbEntity
  8
0
  6
Continuous
 62
     7
370
    25
100
AcDbLine
 10
247.1598358714
 20
112.2432716804
 30
0.0
 11
251.7598392331
 21
112.2432716804
 31
0.0
  0
LINE
  5
8E
330
1F
100
AcDbEntity
  8
0
  6
Continuous
 62
     7
370
    25
100
AcDbLine
 10
70.6598348222
 20
66.2432711253
 30
0.0
 11
75.1098347716
 21
66.2432711253
 31
0.0
  0
LINE
  5
8F
330
1F
100
AcDbEntity
  8
0
  6
Continuous
 62
     7
370
    25
100
AcDbLine
 10
75.1439076737
 20
166.2432726154
 30
0.0
 11
70.6598348222
 21
166.2432726154
 31
0.0
  0
ARC
  5
90
330
1F
100
AcDbEntity
  8
0
  6
Continuous
 62
     7
370
    25
100
AcDbCircle
 10
70.6598347985
 20
66.7432718704
 30
0.0
 40
0.5
100
AcDbArc
 50
180.0
 51
270.0
  0
ARC
  5
91
330
1F
100
AcDbEntity
  8
0
  6
Continuous
 62
     7
370
    25
100
AcDbCircle
 10
70.6598347985
 20
165.7432718704
 30
0.0
 40
0.5
100
AcDbArc
 50
90.0
 51
180.0
  0
ARC
  5
92
330
1F
100
AcDbEntity
  8
0
  6
Continuous
 62
     7
370
    25
100
AcDbCircle
 10
69.26289788
 20
77.6147865459
 30
0.0
 40
0.9962338214386921
100
AcDbArc
 50
25.7988228126
 51
90.0
  0
ARC
  5
93
330
1F
100
AcDbEntity
  8
0
  6
Continuous
 62
     7
370
    25
100
AcDbCircle
 10
69.26289788
 20
154.8717571948
 30
0.0
 40
0.9962338214386921
100
AcDbArc
 50
270.0
 51
334.2011771874
  0
LINE
  5
94
330
1F
100
AcDbEntity
  8
0
  6
Continuous
 62
     7
370
    25
100
AcDbLine
 10
67.6598348543
 20
78.361022068
 30
0.0
 11
68.4656809206
 21
78.5769473443
 31
0.0
  0
LINE
  5
95
330
1F
100
AcDbEntity
  8
0
  6
Continuous
 62
     7
370
    25
100
AcDbLine
 10
68.4656809206
 20
153.9095963964
 30
0.0
 11
67.6598348543
 21
154.1255216727
 31
0.0
  0
LINE
  5
96
330
1F
100
AcDbEntity
  8
0
  6
Continuous
 62
     7
370
    25
100
AcDbLine
 10
48.6792912595
 20
153.1745928953
 30
0.0
 11
30.3598353528
 21
152.2567856738
 31
0.0
  0
LINE
  5
97
330
1F
100
AcDbEntity
  8
0
  6
Continuous
 62
     7
370
    25
100
AcDbLine
 10
67.6598348543
 20
154.1255216727
 30
0.0
 11
61.5909090154
 21
153.8214672038
 31
0.0
  0
LINE
  5
98
330
1F
100
AcDbEntity
  8
0
  6
Continuous
 62
     7
370
    25
100
AcDbLine
 10
61.5912722312
 20
78.6650579104
 30
0.0
 11
67.6598348543
 21
78.361022068
 31
0.0
  0
LINE
  5
99
330
1F
100
AcDbEntity
  8
0
  6
Continuous
 62
     7
370
    25
100
AcDbLine
 10
35.3598343097
 20
79.9792583713
 30
0.0
 11
48.6803827696
 21
79.3118949661
 31
0.0
  0
ARC
  5
9A
330
1F
100
AcDbEntity
  8
0
  6
Continuous
 62
     7
370
    25
100
AcDbCircle
 10
68.7244999979
 20
77.6110203674
 30
0.0
 40
0.9999999999999858
100
AcDbArc
 50
90.0
 51
105.0
  0
ARC
  5
9B
330
1F
100
AcDbEntity
  8
0
  6
Continuous
 62
     7
370
    25
100
AcDbCircle
 10
68.7244999979
 20
154.8755233734
 30
0.0
 40
0.9999999999999993
100
AcDbArc
 50
255.0
 51
270.0
  0
LINE
  5
9C
330
1F
100
AcDbEntity
  8
0
  6
Continuous
 62
     7
370
    25
100
AcDbLine
 10
68.7245000042
 20
78.6110188494
 30
0.0
 11
69.2628978757
 21
78.6110188494
 31
0.0
  0
LINE
  5
9D
330
1F
100
AcDbEntity
  8
0
  6
Continuous
 62
     7
370
    25
100
AcDbLine
 10
69.2628978757
 20
153.8755248914
 30
0.0
 11
68.7245000042
 21
153.8755248914
 31
0.0
  0
ARC
  5
9E
330
1F
100
AcDbEntity
  8
0
  6
Continuous
 62
     7
370
    25
100
AcDbCircle
 10
104.1098347985
 20
88.3256521643
 30
0.0
 40
4.999999999999998
100
AcDbArc
 50
106.5116637356
 51
180.0
  0
ARC
  5
9F
330
1F
100
AcDbEntity
  8
0
  6
Continuous
 62
     7
370
    25
100
AcDbCircle
 10
104.1098347985
 20
144.1608915765
 30
0.0
 40
4.999999999999986
100
AcDbArc
 50
180.0
 51
253.4883362644
  0
ARC
  5
A0
330
1F
100
AcDbEntity
  8
0
  6
Continuous
 62
     7
370
    25
100
AcDbCircle
 10
131.1098347985
 20
-2.7567281296
 30
0.0
 40
100.0
100
AcDbArc
 50
90.0
 51
106.5116637356
  0
ARC
  5
A1
330
1F
100
AcDbEntity
  8
0
  6
Continuous
 62
     7
370
    25
100
AcDbCircle
 10
131.1098347985
 20
235.2432718704
 30
0.0
 40
100.0
100
AcDbArc
 50
253.4883362644
 51
270.0
  0
LINE
  5
A2
330
1F
100
AcDbEntity
  8
0
  6
Continuous
 62
     7
370
    25
100
AcDbLine
 10
131.1098346375
 20
97.2432724813
 30
0.0
 11
229.3598325812
 21
97.2432724813
 31
0.0
  0
LINE
  5
A3
330
1F
100
AcDbEntity
  8
0
  6
Continuous
 62
     7
370
    25
100
AcDbLine
 10
229.3598325812
 20
135.2432712594
 30
0.0
 11
131.1098346375
 21
135.2432712594
 31
0.0
  0
ARC
  5
A4
330
1F
100
AcDbEntity
  8
0
  6
Continuous
 62
     7
370
    25
100
AcDbCircle
 10
229.3598347985
 20
98.0432718704
 30
0.0
 40
0.8000000000000398
100
AcDbArc
 50
270.0
 51
0.0
  0
ARC
  5
A5
330
1F
100
AcDbEntity
  8
0
  6
Continuous
 62
     7
370
    25
100
AcDbCircle
 10
229.3598347985
 20
134.4432718704
 30
0.0
 40
0.8000000000000398
100
AcDbArc
 50
0.0
 51
90.0
  0
LINE
  5
A6
330
1F
100
AcDbEntity
  8
0
  6
Continuous
 62
     7
370
    25
100
AcDbLine
 10
21.9098338746
 20
83.9932735691
 30
0.0
 11
33.4598356747
 21
83.9932735691
 31
0.0
  0
ARC
  5
A7
330
1F
100
AcDbEntity
  8
0
  6
Continuous
 62
     7
370
    25
100
AcDbCircle
 10
33.4598347985
 20
82.0932718704
 30
0.0
 40
1.90000000000002
100
AcDbArc
 50
35.6630613694
 51
90.0
  0
ARC
  5
A8
330
1F
100
AcDbEntity
  8
0
  6
Continuous
 62
     7
370
    25
100
AcDbCircle
 10
28.4598347985
 20
150.3932718704
 30
0.0
 40
1.899999999999988
100
AcDbArc
 50
270.0
 51
308.1709917343
  0
LINE
  5
A9
330
1F
100
AcDbEntity
  8
0
  6
Continuous
 62
     7
370
    25
100
AcDbLine
 10
21.9098338746
 20
148.4932701716
 30
0.0
 11
20.3105183207
 21
146.8939564804
 31
0.0
  0
LINE
  5
AA
330
1F
100
AcDbEntity
  8
0
  6
Continuous
 62
     7
370
    25
100
AcDbLine
 10
20.311356511
 20
85.5917509327
 30
0.0
 11
21.9098338746
 21
83.9932735691
 31
0.0
  0
LINE
  5
AB
330
1F
100
AcDbEntity
  8
0
  6
Continuous
 62
     7
370
    25
100
AcDbLine
 10
28.4598329924
 20
148.4932701716
 30
0.0
 11
21.9098338746
 21
148.4932701716
 31
0.0
  0
ARC
  5
AC
330
1F
100
AcDbEntity
  8
0
  6
Continuous
 62
     7
370
    25
100
AcDbCircle
 10
230.6598347985
 20
107.8932718704
 30
0.0
 40
0.6000000000000097
100
AcDbArc
 50
90.0
 51
146.4426902381
  0
ARC
  5
AD
330
1F
100
AcDbEntity
  8
0
  6
Continuous
 62
     7
370
    25
100
AcDbCircle
 10
230.6598347985
 20
124.5932718704
 30
0.0
 40
0.6000000000000097
100
AcDbArc
 50
213.5573097619
 51
270.0
  0
LINE
  5
AE
330
1F
100
AcDbEntity
  8
0
  6
Continuous
 62
     7
370
    25
100
AcDbLine
 10
232.1598352753
 20
108.2432714904
 30
0.0
 11
246.3598372303
 21
108.2432714904
 31
0.0
  0
LINE
  5
AF
330
1F
100
AcDbEntity
  8
0
  6
Continuous
 62
     7
370
    25
100
AcDbLine
 10
246.3598372303
 20
124.2432722503
 30
0.0
 11
232.1598352753
 21
124.2432722503
 31
0.0
  0
ARC
  5
B0
330
1F
100
AcDbEntity
  8
0
  6
Continuous
 62
     7
370
    25
100
AcDbCircle
 10
246.3598347985
 20
109.0432718704
 30
0.0
 40
0.8000000000000114
100
AcDbArc
 50
270.0
 51
0.0
  0
ARC
  5
B1
330
1F
100
AcDbEntity
  8
0
  6
Continuous
 62
     7
370
    25
100
AcDbCircle
 10
246.3598347985
 20
123.4432718704
 30
0.0
 40
0.8000000000000114
100
AcDbArc
 50
0.0
 51
90.0
  0
LINE
  5
B2
330
1F
100
AcDbEntity
  8
0
  6
Continuous
 62
     7
370
    25
100
AcDbLine
 10
232.1598352753
 20
124.2432722503
 30
0.0
 11
231.3031228148
 21
124.0137166025
 31
0.0
  0
LINE
  5
B3
330
1F
100
AcDbEntity
  8
0
  6
Continuous
 62
     7
370
    25
100
AcDbLine
 10
231.3031228148
 20
108.4728271382
 30
0.0
 11
232.1598352753
 21
108.2432714904
 31
0.0
  0
ARC
  5
B4
330
1F
100
AcDbEntity
  8
0
  6
Continuous
 62
     7
370
    25
100
AcDbCircle
 10
231.147830598
 20
107.8932718704
 30
0.0
 40
0.5999999999999943
100
AcDbArc
 50
75.0
 51
90.0
  0
ARC
  5
B5
330
1F
100
AcDbEntity
  8
0
  6
Continuous
 62
     7
370
    25
100
AcDbCircle
 10
231.147830598
 20
124.5932718704
 30
0.0
 40
0.5999999999999934
100
AcDbArc
 50
270.0
 51
285.0
  0
LINE
  5
B6
330
1F
100
AcDbEntity
  8
0
  6
Continuous
 62
     7
370
    25
100
AcDbLine
 10
230.659839686
 20
108.493271997
 30
0.0
 11
231.147837814
 21
108.493271997
 31
0.0
  0
LINE
  5
B7
330
1F
100
AcDbEntity
  8
0
  6
Continuous
 62
     7
370
    25
100
AcDbLine
 10
231.147837814
 20
123.9932717437
 30
0.0
 11
230.659839686
 21
123.9932717437
 31
0.0
  0
LINE
  5
B8
330
1F
100
AcDbEntity
  8
0
  6
Continuous
 62
     7
370
    25
100
AcDbLine
 10
235.159841355
 20
98.7432717959
 30
0.0
 11
235.159841355
 21
105.7432720119
 31
0.0
  0
LINE
  5
B9
330
1F
100
AcDbEntity
  8
0
  6
Continuous
 62
     7
370
    25
100
AcDbLine
 10
235.159841355
 20
126.7432717288
 30
0.0
 11
235.159841355
 21
133.7432719449
 31
0.0
  0
LINE
  5
BA
330
1F
100
AcDbEntity
  8
0
  6
Continuous
 62
     7
370
    25
100
AcDbLine
 10
252.159831103
 20
122.7432720045
 30
0.0
 11
252.159831103
 21
109.7432717363
 31
0.0
  0
LINE
  5
BB
330
1F
100
AcDbEntity
  8
0
  6
Continuous
 62
     7
370
    25
100
AcDbLine
 10
260.1598324143
 20
122.3432717526
 30
0.0
 11
260.1598324143
 21
110.1432719881
 31
0.0
  0
LINE
  5
BC
330
1F
100
AcDbEntity
  8
0
  6
Continuous
 62
     7
370
    25
100
AcDbLine
 10
75.1098347716
 20
147.5932735631
 30
0.0
 11
86.8978062533
 21
147.5932735631
 31
0.0
  0
LINE
  5
BD
330
1F
100
AcDbEntity
  8
0
  6
Continuous
 62
     7
370
    25
100
AcDbLine
 10
86.8978062533
 20
67.4682769606
 30
0.0
 11
86.8978062533
 21
147.5932735631
 31
0.0
  0
LINE
  5
BE
330
1F
100
AcDbEntity
  8
0
  6
Continuous
 62
     7
370
    25
100
AcDbLine
 10
86.8978062533
 20
67.4682769606
 30
0.0
 11
85.1098345481
 21
67.4682769606
 31
0.0
  0
SPLINE
  5
BF
330
1F
100
AcDbEntity
  8
0
  6
Continuous
 62
     7
370
    25
100
AcDbSpline
210
0.0
220
0.0
230
1.0
 70
     8
 71
     3
 72
    30
 73
    26
 74
     0
 42
0.000000001
 43
0.00000001
 40
0.0
 40
0.0
 40
0.0
 40
0.0
 40
0.1250000000000002
 40
0.1250000000000002
 40
0.1875000000000003
 40
0.1875000000000003
 40
0.2500000000000004
 40
0.2500000000000004
 40
0.3750000000000001
 40
0.3750000000000001
 40
0.4374999999999998
 40
0.4374999999999998
 40
0.4999999999999996
 40
0.4999999999999996
 40
0.6249999999999996
 40
0.6249999999999996
 40
0.6874999999999997
 40
0.6874999999999997
 40
0.7499999999999997
 40
0.7499999999999997
 40
0.8124999999999998
 40
0.8124999999999998
 40
0.8749999999999999
 40
0.8749999999999999
 40
1.0
 40
1.0
 40
1.0
 40
1.0
 10
85.10983479846657
 20
67.46827827733817
 30
0.0
 10
84.44709010462154
 20
67.46827827733817
 30
0.0
 10
83.79583424550583
 20
67.45343820074936
 30
0.0
 10
82.83538370724754
 20
67.41106863651974
 30
0.0
 10
82.51799226401458
 20
67.39359053374056
 30
0.0
 10
81.88882876245972
 20
67.35226224718826
 30
0.0
 10
81.57668057601799
 20
67.32833697373056
 30
0.0
 10
80.66937327416976
 20
67.24953045726365
 30
0.0
 10
80.09594831652849
 20
67.1872244372872
 30
0.0
 10
79.28207144695384
 20
67.08409511704782
 30
0.0
 10
79.01726525038397
 20
67.04791119800133
 30
0.0
 10
78.51035783956964
 20
66.97411641380081
 30
0.0
 10
78.26896368821615
 20
66.93664255502917
 30
0.0
 10
77.57982221608381
 20
66.82393061168942
 30
0.0
 10
77.16676740121957
 20
66.74839451421566
 30
0.0
 10
76.6186125818445
 20
66.64000125719815
 30
0.0
 10
76.44914997449894
 20
66.60492902553489
 30
0.0
 10
76.14113272648355
 20
66.53869356493506
 30
0.0
 10
76.00175270587518
 20
66.50736686818031
 30
0.0
 10
75.75196719324845
 20
66.4489580965994
 30
0.0
 10
75.64156108059453
 20
66.42187486141654
 30
0.0
 10
75.45030322695679
 20
66.37261510680295
 30
0.0
 10
75.36918370867252
 20
66.3503531269953
 30
0.0
 10
75.17503678856411
 20
66.29278621982704
 30
0.0
 10
75.10983479846657
 20
66.26652661504104
 30
0.0
 10
75.10983479846657
 20
66.253272870567
 30
0.0
  0
LINE
  5
C0
330
1F
100
AcDbEntity
  8
0
  6
Continuous
 62
     7
370
    25
100
AcDbLine
 10
75.1098347716
 20
66.2532735298
 30
0.0
 11
75.1098347716
 21
66.2432711253
 31
0.0
  0
SPLINE
  5
C1
330
1F
100
AcDbEntity
  8
0
  6
Continuous
 62
     7
370
    25
100
AcDbSpline
210
0.0
220
0.0
230
1.0
 70
     8
 71
     3
 72
    17
 73
    13
 74
     0
 42
0.000000001
 43
0.00000001
 40
0.0
 40
0.0
 40
0.0
 40
0.0
 40
0.1043843958185158
 40
0.2118345569819801
 40
0.3162081801235555
 40
0.4235375330682647
 40
0.5292275935501746
 40
0.6379275752951962
 40
0.7444714855043735
 40
0.8541836194561564
 40
0.959308052615968
 40
1.0
 40
1.0
 40
1.0
 40
1.0
 10
85.10983454812707
 20
165.2330670187396
 30
0.0
 10
84.56189600761341
 20
165.2384344590724
 30
0.0
 10
83.44992599453916
 20
165.2493269812364
 30
0.0
 10
81.83707066201661
 20
165.3345091650544
 30
0.0
 10
80.30355751127892
 20
165.4608796683859
 30
0.0
 10
78.91253662290465
 20
165.6177835398948
 30
0.0
 10
77.67701950660654
 20
165.7894789373304
 30
0.0
 10
76.65366436075014
 20
165.9548237915404
 30
0.0
 10
75.85332168789118
 20
166.0985280893725
 30
0.0
 10
75.34299013513112
 20
166.1966920853043
 30
0.0
 10
75.1030813766717
 20
166.2446133997771
 30
0.0
 10
75.13500028844113
 20
166.2382468917634
 30
0.0
 10
75.14390767369808
 20
166.2364702353401
 30
0.0
  0
LINE
  5
C2
330
1F
100
AcDbEntity
  8
0
  6
Continuous
 62
     7
370
    25
100
AcDbLine
 10
86.8978062533
 20
165.2330670187
 30
0.0
 11
85.1098345481
 21
165.2330670187
 31
0.0
  0
LINE
  5
C3
330
1F
100
AcDbEntity
  8
0
  6
Continuous
 62
     7
370
    25
100
AcDbLine
 10
86.8978062533
 20
155.1942329535
 30
0.0
 11
86.8978062533
 21
165.2330670187
 31
0.0
  0
LINE
  5
C4
330
1F
100
AcDbEntity
  8
0
  6
Continuous
 62
     7
370
    25
100
AcDbLine
 10
84.8178015911
 20
155.1942329535
 30
0.0
 11
86.8978062533
 21
155.1942329535
 31
0.0
  0
SPLINE
  5
C5
330
1F
100
AcDbEntity
  8
0
  6
Continuous
 62
     7
370
    25
100
AcDbSpline
210
0.0
220
0.0
230
1.0
 70
     8
 71
     3
 72
    22
 73
    18
 74
     0
 42
0.000000001
 43
0.00000001
 40
0.0
 40
0.0
 40
0.0
 40
0.0
 40
0.2500000000000002
 40
0.2500000000000002
 40
0.3750000000000003
 40
0.3750000000000003
 40
0.5000000000000004
 40
0.5000000000000004
 40
0.6250000000000004
 40
0.6250000000000004
 40
0.7500000000000004
 40
0.7500000000000004
 40
0.8750000000000004
 40
0.8750000000000004
 40
0.9375000000000002
 40
0.9375000000000002
 40
1.0
 40
1.0
 40
1.0
 40
1.0
 10
75.10983479846655
 20
147.593271870367
 30
0.0
 10
75.31255975438565
 20
148.6125182122316
 30
0.0
 10
75.62730347618103
 20
149.5716263621709
 30
0.0
 10
76.335358945852
 20
150.9141054396802
 30
0.0
 10
76.61382157606965
 20
151.3483140224202
 30
0.0
 10
77.25258898270684
 20
152.1599417379223
 30
0.0
 10
77.61300266249704
 20
152.5392220308591
 30
0.0
 10
78.43053489448633
 20
153.2421806098801
 30
0.0
 10
78.89170287777345
 20
153.5672094275807
 30
0.0
 10
79.88969312425725
 20
154.1322247509716
 30
0.0
 10
80.42945231824953
 20
154.3759283451781
 30
0.0
 10
81.60404528228085
 20
154.7801282728231
 30
0.0
 10
82.21578146827272
 20
154.9325654658686
 30
0.0
 10
83.16769069313443
 20
155.0878930134773
 30
0.0
 10
83.49092385739509
 20
155.1273977935274
 30
0.0
 10
84.14998702867035
 20
155.1807069141961
 30
0.0
 10
84.48405103924433
 20
155.1942346312539
 30
0.0
 10
84.81780164664588
 20
155.1942346312539
 30
0.0
  0
SPLINE
  5
C6
330
1F
100
AcDbEntity
  8
0
  6
Continuous
 62
     7
370
    25
100
AcDbSpline
210
0.0
220
0.0
230
1.0
 70
    11
 71
     3
 72
    80
 73
    76
 74
     0
 42
0.000000001
 43
0.00000001
 40
0.0
 40
0.0
 40
0.0
 40
0.0
 40
0.03125
 40
0.03125
 40
0.0468749999999999
 40
0.0468749999999999
 40
0.0624999999999998
 40
0.0624999999999998
 40
0.0937499999999996
 40
0.0937499999999996
 40
0.1249999999999994
 40
0.1249999999999994
 40
0.1562499999999992
 40
0.1562499999999992
 40
0.187499999999999
 40
0.187499999999999
 40
0.2187499999999988
 40
0.2187499999999988
 40
0.2499999999999986
 40
0.2499999999999986
 40
0.2812499999999983
 40
0.2812499999999983
 40
0.3124999999999981
 40
0.3124999999999981
 40
0.3281249999999982
 40
0.3281249999999982
 40
0.3437499999999982
 40
0.3437499999999982
 40
0.3749999999999984
 40
0.3749999999999984
 40
0.4062499999999986
 40
0.4062499999999986
 40
0.4218749999999987
 40
0.4218749999999987
 40
0.4374999999999987
 40
0.4374999999999987
 40
0.4687499999999989
 40
0.4687499999999989
 40
0.499999999999999
 40
0.499999999999999
 40
0.5312499999999991
 40
0.5312499999999991
 40
0.5624999999999992
 40
0.5624999999999992
 40
0.5937499999999993
 40
0.5937499999999993
 40
0.6249999999999994
 40
0.6249999999999994
 40
0.6562499999999997
 40
0.6562499999999997
 40
0.6874999999999998
 40
0.6874999999999998
 40
0.703125
 40
0.703125
 40
0.7187500000000002
 40
0.7187500000000002
 40
0.7500000000000003
 40
0.7500000000000003
 40
0.7812500000000004
 40
0.7812500000000004
 40
0.7968750000000006
 40
0.7968750000000006
 40
0.8125000000000007
 40
0.8125000000000007
 40
0.8437500000000006
 40
0.8437500000000006
 40
0.8750000000000006
 40
0.8750000000000006
 40
0.9062500000000004
 40
0.9062500000000004
 40
0.9375000000000003
 40
0.9375000000000003
 40
0.9687500000000002
 40
0.9687500000000002
 40
1.0
 40
1.0
 40
1.0
 40
1.0
 10
79.15983479846656
 20
159.6579013339982
 30
0.0
 10
78.82928948569027
 20
159.6579013339982
 30
0.0
 10
78.50430935643864
 20
159.6741095653804
 30
0.0
 10
78.02483594519222
 20
159.7214741974
 30
0.0
 10
77.8663541273514
 20
159.7411284092907
 30
0.0
 10
77.55213459484712
 20
159.7882395654833
 30
0.0
 10
77.39601431116671
 20
159.815820884978
 30
0.0
 10
76.94196028221015
 20
159.9083566717717
 30
0.0
 10
76.6548568992703
 20
159.9834271053683
 30
0.0
 10
76.11150234324329
 20
160.1586654139788
 30
0.0
 10
75.85439873203771
 20
160.2596667118171
 30
0.0
 10
75.39349247709893
 20
160.477022910278
 30
0.0
 10
75.18659476788396
 20
160.5941872420502
 30
0.0
 10
74.82106945389177
 20
160.8442571662789
 30
0.0
 10
74.6658639317658
 20
160.9752032550379
 30
0.0
 10
74.41643354516609
 20
161.2409381987502
 30
0.0
 10
74.32034358938091
 20
161.3776917920612
 30
0.0
 10
74.19182474018736
 20
161.6517573669001
 30
0.0
 10
74.16001387000956
 20
161.786697457369
 30
0.0
 10
74.1596572202363
 20
162.0521690944377
 30
0.0
 10
74.19215447243337
 20
162.183993571579
 30
0.0
 10
74.31977994614786
 20
162.4334431711994
 30
0.0
 10
74.41420834719973
 20
162.5518758631273
 30
0.0
 10
74.6020691671853
 20
162.7207450602215
 30
0.0
 10
74.67289716598849
 20
162.7758310553417
 30
0.0
 10
74.82761905795377
 20
162.8810838838301
 30
0.0
 10
74.91159552813717
 20
162.9314191125904
 30
0.0
 10
75.18291919778159
 20
163.0759949451285
 30
0.0
 10
75.38946841638393
 20
163.1638565315455
 30
0.0
 10
75.85607855657295
 20
163.323577624545
 30
0.0
 10
76.1084441261984
 20
163.3928159210122
 30
0.0
 10
76.51434546787713
 20
163.482603310242
 30
0.0
 10
76.65424608535461
 20
163.5101692723283
 30
0.0
 10
76.94347002060154
 20
163.5606600732545
 30
0.0
 10
77.09330947689082
 20
163.5836235121052
 30
0.0
 10
77.54742604650161
 20
163.6442540285241
 30
0.0
 10
77.85907726523847
 20
163.6743280573199
 30
0.0
 10
78.50007373015083
 20
163.7149176445785
 30
0.0
 10
78.831601358103
 20
163.7252298747946
 30
0.0
 10
79.48439240317448
 20
163.7253054419604
 30
0.0
 10
79.8089286082063
 20
163.7154038364926
 30
0.0
 10
80.45419805762272
 20
163.6749173059674
 30
0.0
 10
80.76994106378544
 20
163.6444560060827
 30
0.0
 10
81.37183035876913
 20
163.5643053346461
 30
0.0
 10
81.66257958958062
 20
163.5140231028389
 30
0.0
 10
82.20949138126511
 20
163.393352920066
 30
0.0
 10
82.46126874510205
 20
163.324129060896
 30
0.0
 10
82.92265673772316
 20
163.1666773332553
 30
0.0
 10
83.13392601732124
 20
163.0773288585815
 30
0.0
 10
83.49723036969745
 20
162.8840809878807
 30
0.0
 10
83.65103701814024
 20
162.7799529960014
 30
0.0
 10
83.83965648773764
 20
162.6113286098179
 30
0.0
 10
83.89568697394675
 20
162.552700208143
 30
0.0
 10
83.99126073568291
 20
162.4332452933168
 30
0.0
 10
84.03102365270793
 20
162.3723255044786
 30
0.0
 10
84.12679540302004
 20
162.1859207783047
 30
0.0
 10
84.15951824214615
 20
162.0568079605097
 30
0.0
 10
84.16014682847523
 20
161.7881510375538
 30
0.0
 10
84.12796068374048
 20
161.652780296797
 30
0.0
 10
84.0330499818849
 20
161.449229988561
 30
0.0
 10
83.99358319848594
 20
161.3812580644976
 30
0.0
 10
83.89865319976505
 20
161.2451658413667
 30
0.0
 10
83.84289637200168
 20
161.1768157411573
 30
0.0
 10
83.6549562540318
 20
160.9761127281152
 30
0.0
 10
83.50159478431561
 20
160.8467244543025
 30
0.0
 10
83.13933054943526
 20
160.5980590222526
 30
0.0
 10
82.92848207596934
 20
160.4782493798845
 30
0.0
 10
82.46781210565044
 20
160.2607270923118
 30
0.0
 10
82.2164377260666
 20
160.1616419924758
 30
0.0
 10
81.67052983916848
 20
159.984969518559
 30
0.0
 10
81.37970726451724
 20
159.908912430425
 30
0.0
 10
80.7783806497372
 20
159.786067453072
 30
0.0
 10
80.46386206512481
 20
159.7383613280189
 30
0.0
 10
79.81728060900488
 20
159.6741127928993
 30
0.0
 10
79.49038011124287
 20
159.6579013339982
 30
0.0
 10
79.15983479846656
 20
159.6579013339982
 30
0.0
  0
LINE
  5
C7
330
1F
100
AcDbEntity
  8
0
  6
Continuous
 62
     7
370
    25
100
AcDbLine
 10
93.4218643122
 20
67.4682769606
 30
0.0
 11
93.4218643122
 21
147.5932735631
 31
0.0
  0
SPLINE
  5
C8
330
1F
100
AcDbEntity
  8
0
  6
Continuous
 62
     7
370
    25
100
AcDbSpline
210
0.0
220
0.0
230
1.0
 70
     8
 71
     3
 72
     8
 73
     4
 74
     0
 42
0.000000001
 43
0.00000001
 40
0.0
 40
0.0
 40
0.0
 40
0.0
 40
1.0
 40
1.0
 40
1.0
 40
1.0
 10
93.42186381938795
 20
67.46827827733817
 30
0.0
 10
92.97075908998775
 20
68.26923820915809
 30
0.0
 10
92.52006126274435
 20
69.07042822071874
 30
0.0
 10
92.06983479846657
 20
69.8718835833435
 30
0.0
  0
LINE
  5
C9
330
1F
100
AcDbEntity
  8
0
  6
Continuous
 62
     7
370
    25
100
AcDbLine
 10
92.0698353909
 20
69.8718826899
 30
0.0
 11
92.0698353909
 21
147.5932735631
 31
0.0
  0
SPLINE
  5
CA
330
1F
100
AcDbEntity
  8
0
  6
Continuous
 62
     7
370
    25
100
AcDbSpline
210
0.0
220
0.0
230
1.0
 70
    24
 71
     3
 72
     8
 73
     4
 74
     0
 42
0.000000001
 43
0.00000001
 40
0.0
 40
0.0
 40
0.0
 40
0.0
 40
1.0
 40
1.0
 40
1.0
 40
1.0
 10
92.06983479846657
 20
147.593271870367
 30
0.0
 10
92.51404768082051
 20
147.593271870367
 30
0.0
 10
92.96506224705972
 20
147.593271870367
 30
0.0
 10
93.42186381938795
 20
147.593271870367
 30
0.0
  0
LINE
  5
CB
330
1F
100
AcDbEntity
  8
0
  6
Continuous
 62
     7
370
    25
100
AcDbLine
 10
98.1098348163
 20
67.4682769606
 30
0.0
 11
93.4218643122
 21
67.4682769606
 31
0.0
  0
LINE
  5
CC
330
1F
100
AcDbEntity
  8
0
  6
Continuous
 62
     7
370
    25
100
AcDbLine
 10
93.4218643122
 20
147.5932735631
 30
0.0
 11
98.1098348163
 21
147.5932735631
 31
0.0
  0
LINE
  5
CD
330
1F
100
AcDbEntity
  8
0
  6
Continuous
 62
     7
370
    25
100
AcDbLine
 10
70.1598347985
 20
66.7432721386
 30
0.0
 11
70.1598347985
 21
165.7432716021
 31
0.0
  0
LINE
  5
CE
330
1F
100
AcDbEntity
  8
0
  6
Continuous
 62
     7
370
    25
100
AcDbLine
 10
88.2498351746
 20
69.8718826899
 30
0.0
 11
88.2498351746
 21
147.5932735631
 31
0.0
  0
SPLINE
  5
CF
330
1F
100
AcDbEntity
  8
0
  6
Continuous
 62
     7
370
    25
100
AcDbSpline
210
0.0
220
0.0
230
1.0
 70
     8
 71
     3
 72
     8
 73
     4
 74
     0
 42
0.000000001
 43
0.00000001
 40
0.0
 40
0.0
 40
0.0
 40
0.0
 40
1.0
 40
1.0
 40
1.0
 40
1.0
 10
88.24983479846658
 20
69.8718835833435
 30
0.0
 10
87.79960833418879
 20
69.07042822071874
 30
0.0
 10
87.3489105069454
 20
68.26923820915809
 30
0.0
 10
86.89780577754517
 20
67.46827827733817
 30
0.0
  0
SPLINE
  5
D0
330
1F
100
AcDbEntity
  8
0
  6
Continuous
 62
     7
370
    25
100
AcDbSpline
210
0.0
220
0.0
230
1.0
 70
    24
 71
     3
 72
     8
 73
     4
 74
     0
 42
0.000000001
 43
0.00000001
 40
0.0
 40
0.0
 40
0.0
 40
0.0
 40
1.0
 40
1.0
 40
1.0
 40
1.0
 10
86.89780577754517
 20
147.593271870367
 30
0.0
 10
87.3546073498734
 20
147.593271870367
 30
0.0
 10
87.80562191611263
 20
147.593271870367
 30
0.0
 10
88.24983479846658
 20
147.593271870367
 30
0.0
  0
LINE
  5
D1
330
1F
100
AcDbEntity
  8
0
  6
Continuous
 62
     7
370
    25
100
AcDbLine
 10
99.1098349803
 20
68.4939276109
 30
0.0
 11
99.1098349803
 21
147.5932735631
 31
0.0
  0
SPLINE
  5
D2
330
1F
100
AcDbEntity
  8
0
  6
Continuous
 62
     7
370
    25
100
AcDbSpline
210
0.0
220
0.0
230
1.0
 70
     8
 71
     3
 72
    14
 73
    10
 74
     0
 42
0.000000001
 43
0.00000001
 40
0.0
 40
0.0
 40
0.0
 40
0.0
 40
0.25
 40
0.25
 40
0.5
 40
0.5
 40
0.75
 40
0.75
 40
1.0
 40
1.0
 40
1.0
 40
1.0
 10
99.10983479846658
 20
68.49392632511366
 30
0.0
 10
99.10983479846658
 20
68.36050062905913
 30
0.0
 10
99.08452369855571
 20
68.2286528212148
 30
0.0
 10
98.98618893471097
 20
67.98213027252068
 30
0.0
 10
98.91304493045489
 20
67.86832508428014
 30
0.0
 10
98.7296068693592
 20
67.67786790733287
 30
0.0
 10
98.6179205350206
 20
67.60023304348294
 30
0.0
 10
98.37541710471433
 20
67.49594163337048
 30
0.0
 10
98.2420426760201
 20
67.46827827733811
 30
0.0
 10
98.10983479846658
 20
67.46827827733813
 30
0.0
  0
SPLINE
  5
D3
330
1F
100
AcDbEntity
  8
0
  6
Continuous
 62
     7
370
    25
100
AcDbSpline
210
0.0
220
0.0
230
1.0
 70
    24
 71
     3
 72
    12
 73
     8
 74
     0
 42
0.000000001
 43
0.00000001
 40
0.0
 40
0.0
 40
0.0
 40
0.0
 40
0.2500000000000032
 40
0.2500000000000032
 40
0.5000000000000064
 40
0.5000000000000064
 40
1.0
 40
1.0
 40
1.0
 40
1.0
 10
98.10983479846658
 20
147.593271870367
 30
0.0
 10
98.26192503541156
 20
147.593271870367
 30
0.0
 10
98.41038429648698
 20
147.593271870367
 30
0.0
 10
98.66778792875269
 20
147.593271870367
 30
0.0
 10
98.7768926765946
 20
147.593271870367
 30
0.0
 10
99.03095215300215
 20
147.593271870367
 30
0.0
 10
99.10983479846658
 20
147.593271870367
 30
0.0
 10
99.10983479846658
 20
147.593271870367
 30
0.0
  0
SPLINE
  5
D4
330
1F
100
AcDbEntity
  8
0
  6
Continuous
 62
     7
370
    25
100
AcDbSpline
210
0.0
220
0.0
230
1.0
 70
     8
 71
     3
 72
    14
 73
    10
 74
     0
 42
0.000000001
 43
0.00000001
 40
0.0
 40
0.0
 40
0.0
 40
0.0
 40
0.25
 40
0.25
 40
0.5
 40
0.5
 40
0.75
 40
0.75
 40
1.0
 40
1.0
 40
1.0
 40
1.0
 10
92.06983479846659
 20
70.78009308797209
 30
0.0
 10
92.06983479846657
 20
70.88713716896648
 30
0.0
 10
92.0497171113084
 20
70.9923723092089
 30
0.0
 10
91.97122592204278
 20
71.1902227960566
 30
0.0
 10
91.91306929724158
 20
71.28127455962152
 30
0.0
 10
91.76655404162352
 20
71.4344406535463
 30
0.0
 10
91.67791149298243
 20
71.49673509975571
 30
0.0
 10
91.48218817018211
 20
71.5815288852917
 30
0.0
 10
91.37695697911116
 20
71.60359641231733
 30
0.0
 10
91.26983479846658
 20
71.60359641231734
 30
0.0
  0
SPLINE
  5
D5
330
1F
100
AcDbEntity
  8
0
  6
Continuous
 62
     7
370
    25
100
AcDbSpline
210
0.0
220
0.0
230
1.0
 70
    24
 71
     3
 72
    14
 73
    10
 74
     0
 42
0.000000001
 43
0.00000001
 40
0.0
 40
0.0
 40
0.0
 40
0.0
 40
0.25
 40
0.25
 40
0.5
 40
0.5
 40
0.75
 40
0.75
 40
1.0
 40
1.0
 40
1.0
 40
1.0
 10
91.26983479846658
 20
147.593271870367
 30
0.0
 10
91.39360456323173
 20
147.593271870367
 30
0.0
 10
91.5179716672386
 20
147.593271870367
 30
0.0
 10
91.72432813596465
 20
147.593271870367
 30
0.0
 10
91.809656279383
 20
147.593271870367
 30
0.0
 10
91.94184833809824
 20
147.593271870367
 30
0.0
 10
91.99049358184882
 20
147.593271870367
 30
0.0
 10
92.05402937357756
 20
147.593271870367
 30
0.0
 10
92.06983479846659
 20
147.593271870367
 30
0.0
 10
92.06983479846659
 20
147.593271870367
 30
0.0
  0
SPLINE
  5
D6
330
1F
100
AcDbEntity
  8
0
  6
Continuous
 62
     7
370
    25
100
AcDbSpline
210
0.0
220
0.0
230
1.0
 70
     8
 71
     3
 72
    12
 73
     8
 74
     0
 42
0.000000001
 43
0.00000001
 40
0.0
 40
0.0
 40
0.0
 40
0.0
 40
0.250000000000003
 40
0.250000000000003
 40
0.500000000000006
 40
0.500000000000006
 40
1.0
 40
1.0
 40
1.0
 40
1.0
 10
89.04983479846656
 20
71.60359641231734
 30
0.0
 10
88.94407414511763
 20
71.60359641231733
 30
0.0
 10
88.83608651693467
 20
71.58105690631693
 30
0.0
 10
88.64149185166906
 20
71.4964862743216
 30
0.0
 10
88.5526199388302
 20
71.43400462156276
 30
0.0
 10
88.33342764650432
 20
71.20461567009056
 30
0.0
 10
88.24983479846651
 20
70.99203233256814
 30
0.0
 10
88.24983479846654
 20
70.78009308797192
 30
0.0
  0
SPLINE
  5
D7
330
1F
100
AcDbEntity
  8
0
  6
Continuous
 62
     7
370
    25
100
AcDbSpline
210
0.0
220
0.0
230
1.0
 70
    24
 71
     3
 72
    14
 73
    10
 74
     0
 42
0.000000001
 43
0.00000001
 40
0.0
 40
0.0
 40
0.0
 40
0.0
 40
0.25
 40
0.25
 40
0.5
 40
0.5
 40
0.75
 40
0.75
 40
1.0
 40
1.0
 40
1.0
 40
1.0
 10
88.24983479846655
 20
147.593271870367
 30
0.0
 10
88.24983479846655
 20
147.593271870367
 30
0.0
 10
88.2655491189325
 20
147.593271870367
 30
0.0
 10
88.32923309740089
 20
147.593271870367
 30
0.0
 10
88.37783629181133
 20
147.593271870367
 30
0.0
 10
88.51051981423693
 20
147.593271870367
 30
0.0
 10
88.5956219185476
 20
147.593271870367
 30
0.0
 10
88.80206415345764
 20
147.593271870367
 30
0.0
 10
88.92614509508067
 20
147.593271870367
 30
0.0
 10
89.04983479846656
 20
147.593271870367
 30
0.0
  0
LINE
  5
D8
330
1F
100
AcDbEntity
  8
0
  6
Continuous
 62
     7
370
    25
100
AcDbLine
 10
91.2698348873
 20
71.6035950611
 30
0.0
 11
89.0498356782
 21
71.6035950611
 31
0.0
  0
LINE
  5
D9
330
1F
100
AcDbEntity
  8
0
  6
Continuous
 62
     7
370
    25
100
AcDbLine
 10
89.0498356782
 20
147.5932735631
 30
0.0
 11
91.2698348873
 21
147.5932735631
 31
0.0
  0
LINE
  5
DA
330
1F
100
AcDbEntity
  8
0
  6
Continuous
 62
     7
370
    25
100
AcDbLine
 10
67.6598348543
 20
78.361022068
 30
0.0
 11
67.6598348543
 21
154.1255216727
 31
0.0
  0
LINE
  5
DB
330
1F
100
AcDbEntity
  8
0
  6
Continuous
 62
     7
370
    25
100
AcDbLine
 10
35.3598343097
 20
79.9792583713
 30
0.0
 11
35.3598343097
 21
82.3739383051
 31
0.0
  0
SPLINE
  5
DC
330
1F
100
AcDbEntity
  8
0
  6
Continuous
 62
     7
370
    25
100
AcDbSpline
210
0.0
220
0.0
230
1.0
 70
     8
 71
     3
 72
    14
 73
    10
 74
     0
 42
0.000000001
 43
0.00000001
 40
0.0
 40
0.0
 40
0.0
 40
0.0
 40
0.25
 40
0.25
 40
0.5
 40
0.5
 40
0.75
 40
0.75
 40
1.0
 40
1.0
 40
1.0
 40
1.0
 10
34.35541232712961
 20
84.07679052662345
 30
0.0
 10
34.44418090507494
 20
83.9182563953155
 30
0.0
 10
34.56589874375385
 20
83.76581371842694
 30
0.0
 10
34.80094835361068
 20
83.46867909459802
 30
0.0
 10
34.91657853982758
 20
83.32399645098066
 30
0.0
 10
35.1169834732554
 20
83.04070724847725
 30
0.0
 10
35.20238376523971
 20
82.9021532554404
 30
0.0
 10
35.32408939895696
 20
82.63076922540685
 30
0.0
 10
35.35983479846959
 20
82.49863335677225
 30
0.0
 10
35.35983479846958
 20
82.37393860500147
 30
0.0
  0
SPLINE
  5
DD
330
1F
100
AcDbEntity
  8
0
  6
Continuous
 62
     7
370
    25
100
AcDbSpline
210
0.0
220
0.0
230
1.0
 70
     8
 71
     3
 72
    14
 73
    10
 74
     0
 42
0.000000001
 43
0.00000001
 40
0.0
 40
0.0
 40
0.0
 40
0.0
 40
0.124999999999999
 40
0.124999999999999
 40
0.249999999999998
 40
0.249999999999998
 40
0.5000000000000007
 40
0.5000000000000007
 40
1.0
 40
1.0
 40
1.0
 40
1.0
 10
33.45983479846657
 20
84.70562046572356
 30
0.0
 10
33.52741709825106
 20
84.71277635082494
 30
0.0
 10
33.59990467599896
 20
84.70835188078593
 30
0.0
 10
33.7321957852649
 20
84.67864572301559
 30
0.0
 10
33.78947316465508
 20
84.65536144143736
 30
0.0
 10
33.93912359185536
 20
84.57787620158703
 30
0.0
 10
34.01283688737686
 20
84.51602437468567
 30
0.0
 10
34.20064487070309
 20
84.33134692203735
 30
0.0
 10
34.28468517706455
 20
84.20310399874614
 30
0.0
 10
34.35541232713082
 20
84.07679052662355
 30
0.0
  0
SPLINE
  5
DE
330
1F
100
AcDbEntity
  8
0
  6
Continuous
 62
     7
370
    25
100
AcDbSpline
210
0.0
220
0.0
230
1.0
 70
     8
 71
     3
 72
     8
 73
     4
 74
     0
 42
0.000000001
 43
0.00000001
 40
0.0
 40
0.0
 40
0.0
 40
0.0
 40
1.0
 40
1.0
 40
1.0
 40
1.0
 10
29.91519441038579
 20
84.28757188093178
 30
0.0
 10
31.08049272109466
 20
84.44275935281838
 30
0.0
 10
32.26510793513447
 20
84.57911799112871
 30
0.0
 10
33.45983479846657
 20
84.70562046572356
 30
0.0
  0
SPLINE
  5
DF
330
1F
100
AcDbEntity
  8
0
  6
Continuous
 62
     7
370
    25
100
AcDbSpline
210
0.0
220
0.0
230
1.0
 70
     8
 71
     3
 72
    14
 73
    10
 74
     0
 42
0.000000001
 43
0.00000001
 40
0.0
 40
0.0
 40
0.0
 40
0.0
 40
0.5000000000000012
 40
0.5000000000000012
 40
0.7500000000000018
 40
0.7500000000000018
 40
0.8750000000000009
 40
0.8750000000000009
 40
1.0
 40
1.0
 40
1.0
 40
1.0
 10
22.15975991443622
 20
83.99743970180185
 30
0.0
 10
23.46806147697025
 20
84.00445442554296
 30
0.0
 10
24.77312085162736
 20
84.01986300198743
 30
0.0
 10
26.71899690311605
 20
84.0737595574541
 30
0.0
 10
27.3656944068552
 20
84.0967911220568
 30
0.0
 10
28.32953677070975
 20
84.14773364692755
 30
0.0
 10
28.64977546264388
 20
84.16746856916076
 30
0.0
 10
29.28647068898643
 20
84.21695569763234
 30
0.0
 10
29.60318609726945
 20
84.24602047656157
 30
0.0
 10
29.91519441038582
 20
84.28757188093172
 30
0.0
  0
SPLINE
  5
E0
330
1F
100
AcDbEntity
  8
0
  6
Continuous
 62
     7
370
    25
100
AcDbSpline
210
0.0
220
0.0
230
1.0
 70
     8
 71
     3
 72
    12
 73
     8
 74
     0
 42
0.000000001
 43
0.00000001
 40
0.0
 40
0.0
 40
0.0
 40
0.0
 40
0.2500000000000001
 40
0.2500000000000001
 40
0.5000000000000001
 40
0.5000000000000001
 40
1.0
 40
1.0
 40
1.0
 40
1.0
 10
28.45983479846657
 20
148.3297947618634
 30
0.0
 10
27.94113597663839
 20
148.3623175367116
 30
0.0
 10
27.4194244034334
 20
148.3856142778821
 30
0.0
 10
26.37313238693784
 20
148.4234597923042
 30
0.0
 10
25.84846076126755
 20
148.4377282668003
 30
0.0
 10
24.27161473872832
 20
148.4719377542586
 30
0.0
 10
23.21665942418144
 20
148.4834372582026
 30
0.0
 10
22.15975991443622
 20
148.4891040389321
 30
0.0
  0
SPLINE
  5
E1
330
1F
100
AcDbEntity
  8
0
  6
Continuous
 62
     7
370
    25
100
AcDbSpline
210
0.0
220
0.0
230
1.0
 70
     8
 71
     3
 72
    20
 73
    16
 74
     0
 42
0.000000001
 43
0.00000001
 40
0.0
 40
0.0
 40
0.0
 40
0.0
 40
0.2500000000000011
 40
0.2500000000000011
 40
0.5000000000000021
 40
0.5000000000000021
 40
0.7500000000000031
 40
0.7500000000000031
 40
0.8750000000000008
 40
0.8750000000000008
 40
0.9375000000000006
 40
0.9375000000000006
 40
0.9687500000000003
 40
0.9687500000000003
 40
1.0
 40
1.0
 40
1.0
 40
1.0
 10
30.35983479846657
 20
149.9878806073515
 30
0.0
 10
30.35983479846657
 20
149.8521982876048
 30
0.0
 10
30.31112300924994
 20
149.7111113014647
 30
0.0
 10
30.14196158602475
 20
149.4190395827341
 30
0.0
 10
30.02018117210645
 20
149.2673908406437
 30
0.0
 10
29.72263407735693
 20
148.9649824004906
 30
0.0
 10
29.54872147165416
 20
148.8123937643673
 30
0.0
 10
29.22930663777233
 20
148.587123000525
 30
0.0
 10
29.11426586232507
 20
148.5123999060143
 30
0.0
 10
28.90718153830865
 20
148.4129894967573
 30
0.0
 10
28.83107370350227
 20
148.3814244044127
 30
0.0
 10
28.69967916394891
 20
148.3469810202198
 30
0.0
 10
28.65312594494745
 20
148.3379294484521
 30
0.0
 10
28.55679259386675
 20
148.3277537996136
 30
0.0
 10
28.5075331705113
 20
148.3268040409386
 30
0.0
 10
28.45983479846459
 20
148.3297947618532
 30
0.0
  0
LINE
  5
E2
330
1F
100
AcDbEntity
  8
0
  6
Continuous
 62
     7
370
    25
100
AcDbLine
 10
30.3598353528
 20
149.9878789911
 30
0.0
 11
30.3598353528
 21
152.2567856738
 31
0.0
  0
SPLINE
  5
E3
330
1F
100
AcDbEntity
  8
0
  6
Continuous
 62
     7
370
    25
100
AcDbSpline
210
0.0
220
0.0
230
1.0
 70
     8
 71
     3
 72
    17
 73
    13
 74
     0
 42
0.000000001
 43
0.00000001
 40
0.0
 40
0.0
 40
0.0
 40
0.0
 40
0.0002988343243619
 40
0.1259792851471659
 40
0.2511894857129696
 40
0.3756965961394572
 40
0.4384259638308976
 40
0.5003828778927167
 40
0.6247288856020369
 40
0.7496542424939457
 40
0.8748286136325589
 40
1.0
 40
1.0
 40
1.0
 40
1.0
 10
48.68039208282174
 20
79.3120961317939
 30
0.0
 10
48.67999695334244
 20
79.31204883753195
 30
0.0
 10
48.51342261671309
 20
79.2921110431583
 30
0.0
 10
49.10572317379422
 20
79.36637276764327
 30
0.0
 10
50.43003600481224
 20
79.51196074391925
 30
0.0
 10
52.26778810210129
 20
79.61211172450362
 30
0.0
 10
53.88816223767791
 20
79.61585081234526
 30
0.0
 10
55.57929013496076
 20
79.56021761817536
 30
0.0
 10
57.69733152652219
 20
79.3689243227178
 30
0.0
 10
59.82302421073182
 20
79.04042698422636
 30
0.0
 10
61.29552566019518
 20
78.7326231353098
 30
0.0
 10
61.49269827507045
 20
78.68771855110442
 30
0.0
 10
61.59128340710343
 20
78.66526652669135
 30
0.0
  0
SPLINE
  5
E4
330
1F
100
AcDbEntity
  8
0
  6
Continuous
 62
     7
370
    25
100
AcDbSpline
210
0.0
220
0.0
230
1.0
 70
     8
 71
     3
 72
    18
 73
    14
 74
     0
 42
0.000000001
 43
0.00000001
 40
0.0
 40
0.0
 40
0.0
 40
0.0
 40
0.1253502868544077
 40
0.2508873389132409
 40
0.3754654875577324
 40
0.4995287941057583
 40
0.561514407107878
 40
0.6243437711803472
 40
0.7490349201470546
 40
0.8743156478032159
 40
0.9999422900515619
 40
0.9999491175700151
 40
1.0
 40
1.0
 40
1.0
 40
1.0
 10
61.59092391658963
 20
153.8211803564948
 30
0.0
 10
61.49070777865929
 20
153.7986428262341
 30
0.0
 10
61.29012618612803
 20
153.7535341860013
 30
0.0
 10
59.818012566646
 20
153.4452176878642
 30
0.0
 10
57.69434178792132
 20
153.1164566433431
 30
0.0
 10
55.57884710525982
 20
152.9263893546219
 30
0.0
 10
53.8897963142945
 20
152.8707757190502
 30
0.0
 10
52.26431844225163
 20
152.8749785071261
 30
0.0
 10
50.44869629108799
 20
152.9720716321048
 30
0.0
 10
49.02238602656828
 20
153.1302297103142
 30
0.0
 10
48.68888170081887
 20
153.1733164023817
 30
0.0
 10
48.67908692653956
 20
153.1745860967145
 30
0.0
 10
48.67919650642136
 20
153.1745718919147
 30
0.0
 10
48.67929312218369
 20
153.174559367649
 30
0.0
  0
SPLINE
  5
E5
330
1F
100
AcDbEntity
  8
0
  6
Continuous
 62
     7
370
    25
100
AcDbSpline
210
0.0
220
0.0
230
1.0
 70
     8
 71
     3
 72
    20
 73
    16
 74
     0
 42
0.000000001
 43
0.00000001
 40
0.0
 40
0.0
 40
0.0
 40
0.0
 40
0.249999999999986
 40
0.249999999999986
 40
0.3749999999999789
 40
0.3749999999999789
 40
0.4374999999999789
 40
0.4374999999999789
 40
0.4999999999999789
 40
0.4999999999999789
 40
0.6249999999999835
 40
0.6249999999999835
 40
0.7499999999999879
 40
0.7499999999999879
 40
1.0
 40
1.0
 40
1.0
 40
1.0
 10
20.55064903018258
 20
85.56478871766626
 30
0.0
 10
20.57692124739599
 20
85.58410665874872
 30
0.0
 10
20.60760138965083
 20
85.59849536985051
 30
0.0
 10
20.67907226003275
 20
85.5915910080145
 30
0.0
 10
20.70709929707709
 20
85.58442500466607
 30
0.0
 10
20.7621828865746
 20
85.55472597796249
 30
0.0
 10
20.78307421512703
 20
85.54125233540115
 30
0.0
 10
20.82828286257249
 20
85.50605406988514
 30
0.0
 10
20.85268707496805
 20
85.48414584115788
 30
0.0
 10
20.9240193930195
 20
85.41202098116233
 30
0.0
 10
20.96591617783977
 20
85.35968044021227
 30
0.0
 10
21.03749213669565
 20
85.26219704831153
 30
0.0
 10
21.06832012651294
 20
85.21544327843311
 30
0.0
 10
21.15142005934852
 20
85.082150062594
 30
0.0
 10
21.19627496471882
 20
84.99951266467879
 30
0.0
 10
21.23638704017139
 20
84.920405769888
 30
0.0
  0
SPLINE
  5
E6
330
1F
100
AcDbEntity
  8
0
  6
Continuous
 62
     7
370
    25
100
AcDbSpline
210
0.0
220
0.0
230
1.0
 70
     8
 71
     3
 72
     8
 73
     4
 74
     0
 42
0.000000001
 43
0.00000001
 40
0.0
 40
0.0
 40
0.0
 40
0.0
 40
1.0
 40
1.0
 40
1.0
 40
1.0
 10
20.25983479846657
 20
85.74060212779905
 30
0.0
 10
20.25983479846657
 20
85.7153220705717
 30
0.0
 10
20.26302160290082
 20
85.69172250133364
 30
0.0
 10
20.26912459984824
 20
85.67014505964161
 30
0.0
  0
SPLINE
  5
E7
330
1F
100
AcDbEntity
  8
0
  6
Continuous
 62
     7
370
    25
100
AcDbSpline
210
0.0
220
0.0
230
1.0
 70
     8
 71
     3
 72
     9
 73
     5
 74
     0
 42
0.000000001
 43
0.00000001
 40
0.0
 40
0.0
 40
0.0
 40
0.0
 40
0.7766522094856231
 40
1.0
 40
1.0
 40
1.0
 40
1.0
 10
20.345167245757
 20
85.62555980478946
 30
0.0
 10
20.38835391027945
 20
85.57336089472868
 30
0.0
 10
20.44396009280876
 20
85.50615074657837
 30
0.0
 10
20.53117195631016
 20
85.55408347513435
 30
0.0
 10
20.55065053332986
 20
85.56478914415065
 30
0.0
  0
LINE
  5
E8
330
1F
100
AcDbEntity
  8
0
  6
Continuous
 62
     7
370
    25
100
AcDbLine
 10
20.2598357462
 20
85.7406023571
 30
0.0
 11
20.2598357462
 21
146.7459413836
 31
0.0
  0
SPLINE
  5
E9
330
1F
100
AcDbEntity
  8
0
  6
Continuous
 62
     7
370
    25
100
AcDbSpline
210
0.0
220
0.0
230
1.0
 70
     8
 71
     3
 72
     9
 73
     5
 74
     0
 42
0.000000001
 43
0.00000001
 40
0.0
 40
0.0
 40
0.0
 40
0.0
 40
0.0592942499244465
 40
1.0
 40
1.0
 40
1.0
 40
1.0
 10
20.55065053332986
 20
146.9217545965833
 30
0.0
 10
20.54576753563109
 20
146.9250477362811
 30
0.0
 10
20.46341557561848
 20
146.9805866747441
 30
0.0
 10
20.39728492120318
 20
146.9232944716314
 30
0.0
 10
20.33507543433846
 20
146.8693993667287
 30
0.0
  0
SPLINE
  5
EA
330
1F
100
AcDbEntity
  8
0
  6
Continuous
 62
     7
370
    25
100
AcDbSpline
210
0.0
220
0.0
230
1.0
 70
     8
 71
     3
 72
     8
 73
     4
 74
     0
 42
0.000000001
 43
0.00000001
 40
0.0
 40
0.0
 40
0.0
 40
0.0
 40
1.0
 40
1.0
 40
1.0
 40
1.0
 10
20.28346846740278
 20
146.8535211140046
 30
0.0
 10
20.26811942876675
 20
146.8230110590086
 30
0.0
 10
20.25983479846657
 20
146.7866995034963
 30
0.0
 10
20.25983479846657
 20
146.7459416129349
 30
0.0
  0
SPLINE
  5
EB
330
1F
100
AcDbEntity
  8
0
  6
Continuous
 62
     7
370
    25
100
AcDbSpline
210
0.0
220
0.0
230
1.0
 70
     8
 71
     3
 72
    20
 73
    16
 74
     0
 42
0.000000001
 43
0.00000001
 40
0.0
 40
0.0
 40
0.0
 40
0.0
 40
0.2500000000000037
 40
0.2500000000000037
 40
0.3750000000000055
 40
0.3750000000000055
 40
0.5000000000000073
 40
0.5000000000000073
 40
0.5625000000000057
 40
0.5625000000000057
 40
0.625000000000004
 40
0.625000000000004
 40
0.7500000000000027
 40
0.7500000000000027
 40
1.0
 40
1.0
 40
1.0
 40
1.0
 10
21.236387040169
 20
147.5661379708451
 30
0.0
 10
21.19639082234517
 20
147.4872595642877
 30
0.0
 10
21.15127719450752
 20
147.4041299175962
 30
0.0
 10
21.06802298014099
 20
147.2706412532452
 30
0.0
 10
21.03780365152048
 20
147.2247761973633
 30
0.0
 10
20.96571541637907
 20
147.1265846449584
 30
0.0
 10
20.92379809896797
 20
147.0742748254348
 30
0.0
 10
20.85254749441651
 20
147.0022689227003
 30
0.0
 10
20.82831168203719
 20
146.9804987103987
 30
0.0
 10
20.78271349185254
 20
146.9450240520697
 30
0.0
 10
20.76191100225283
 20
146.9316538678922
 30
0.0
 10
20.7069700038337
 20
146.9020839557569
 30
0.0
 10
20.6789010157469
 20
146.8949574334549
 30
0.0
 10
20.60839818568407
 20
146.8880830619723
 30
0.0
 10
20.57697409789319
 20
146.9023982210594
 30
0.0
 10
20.55064903018459
 20
146.92175502307
 30
0.0
  0
SPLINE
  5
EC
330
1F
100
AcDbEntity
  8
0
  6
Continuous
 62
     7
370
    25
100
AcDbSpline
210
0.0
220
0.0
230
1.0
 70
     8
 71
     3
 72
    10
 73
     6
 74
     0
 42
0.000000001
 43
0.00000001
 40
0.0
 40
0.0
 40
0.0
 40
0.0
 40
0.4999999999999989
 40
0.4999999999999989
 40
1.0
 40
1.0
 40
1.0
 40
1.0
 10
21.90983479846659
 20
148.491557072187
 30
0.0
 10
21.78494652771638
 20
148.3605607941155
 30
0.0
 10
21.66349640965594
 20
148.2168479574505
 30
0.0
 10
21.4339124346985
 20
147.9062776647613
 30
0.0
 10
21.32363745930252
 20
147.7382085916982
 30
0.0
 10
21.236387040169
 20
147.5661379708451
 30
0.0
  0
SPLINE
  5
ED
330
1F
100
AcDbEntity
  8
0
  6
Continuous
 62
     7
370
    25
100
AcDbSpline
210
0.0
220
0.0
230
1.0
 70
     8
 71
     3
 72
     8
 73
     4
 74
     0
 42
0.000000001
 43
0.00000001
 40
0.0
 40
0.0
 40
0.0
 40
0.0
 40
1.0
 40
1.0
 40
1.0
 40
1.0
 10
22.15975991443235
 20
148.4891040389316
 30
0.0
 10
22.07274188458397
 20
148.4895706037186
 30
0.0
 10
21.98978785820402
 20
148.4906106232948
 30
0.0
 10
21.90983479846427
 20
148.491557072187
 30
0.0
  0
SPLINE
  5
EE
330
1F
100
AcDbEntity
  8
0
  6
Continuous
 62
     7
370
    25
100
AcDbSpline
210
0.0
220
0.0
230
1.0
 70
     8
 71
     3
 72
     8
 73
     4
 74
     0
 42
0.000000001
 43
0.00000001
 40
0.0
 40
0.0
 40
0.0
 40
0.0
 40
1.0
 40
1.0
 40
1.0
 40
1.0
 10
21.90983479846427
 20
83.99498666854689
 30
0.0
 10
21.98978785820403
 20
83.99593311743917
 30
0.0
 10
22.072741884584
 20
83.99697313701529
 30
0.0
 10
22.15975991443236
 20
83.99743970180235
 30
0.0
  0
SPLINE
  5
EF
330
1F
100
AcDbEntity
  8
0
  6
Continuous
 62
     7
370
    25
100
AcDbSpline
210
0.0
220
0.0
230
1.0
 70
     8
 71
     3
 72
    10
 73
     6
 74
     0
 42
0.000000001
 43
0.00000001
 40
0.0
 40
0.0
 40
0.0
 40
0.0
 40
0.4999999999999989
 40
0.4999999999999989
 40
1.0
 40
1.0
 40
1.0
 40
1.0
 10
21.23638704016807
 20
84.92040576989058
 30
0.0
 10
21.32363745930155
 20
84.7483351490372
 30
0.0
 10
21.43391243469771
 20
84.58026607597377
 30
0.0
 10
21.66349640965554
 20
84.26969578328395
 30
0.0
 10
21.78494652771618
 20
84.12598294661868
 30
0.0
 10
21.90983479846659
 20
83.99498666854696
 30
0.0
  0
SPLINE
  5
F0
330
1F
100
AcDbEntity
  8
0
  6
Continuous
 62
     7
370
    25
100
AcDbSpline
210
0.0
220
0.0
230
1.0
 70
     8
 71
     3
 72
     8
 73
     4
 74
     0
 42
0.000000001
 43
0.00000001
 40
0.0
 40
0.0
 40
0.0
 40
0.0
 40
1.0
 40
1.0
 40
1.0
 40
1.0
 10
86.89780577754517
 20
155.1942346312539
 30
0.0
 10
87.35473213134472
 20
154.1783166615796
 30
0.0
 10
87.80593777314775
 20
153.1595208324884
 30
0.0
 10
88.24983479846658
 20
152.1387193765048
 30
0.0
  0
LINE
  5
F1
330
1F
100
AcDbEntity
  8
0
  6
Continuous
 62
     7
370
    25
100
AcDbLine
 10
88.2498351746
 20
152.1387200484
 30
0.0
 11
88.2498351746
 21
150.9575087259
 31
0.0
  0
SPLINE
  5
F2
330
1F
100
AcDbEntity
  8
0
  6
Continuous
 62
     7
370
    25
100
AcDbSpline
210
0.0
220
0.0
230
1.0
 70
     8
 71
     3
 72
    14
 73
    10
 74
     0
 42
0.000000001
 43
0.00000001
 40
0.0
 40
0.0
 40
0.0
 40
0.0
 40
0.25
 40
0.25
 40
0.5
 40
0.5
 40
0.75
 40
0.75
 40
1.0
 40
1.0
 40
1.0
 40
1.0
 10
88.24983479846655
 20
150.957507062864
 30
0.0
 10
88.24983479846655
 20
150.8336401860748
 30
0.0
 10
88.26569392609416
 20
150.7093805092373
 30
0.0
 10
88.32905557161405
 20
150.4717721468314
 30
0.0
 10
88.37764527966341
 20
150.354991762079
 30
0.0
 10
88.50993088443826
 20
150.14618923347
 30
0.0
 10
88.59525567569885
 20
150.0516785298774
 30
0.0
 10
88.80214692400504
 20
149.9137217290751
 30
0.0
 10
88.92611486989503
 20
149.8718032834394
 30
0.0
 10
89.04983479846656
 20
149.8718032834394
 30
0.0
  0
LINE
  5
F3
330
1F
100
AcDbEntity
  8
0
  6
Continuous
 62
     7
370
    25
100
AcDbLine
 10
89.0498356782
 20
149.8718026707
 30
0.0
 11
91.2698348873
 21
149.8718026707
 31
0.0
  0
SPLINE
  5
F4
330
1F
100
AcDbEntity
  8
0
  6
Continuous
 62
     7
370
    25
100
AcDbSpline
210
0.0
220
0.0
230
1.0
 70
     8
 71
     3
 72
    12
 73
     8
 74
     0
 42
0.000000001
 43
0.00000001
 40
0.0
 40
0.0
 40
0.0
 40
0.0
 40
0.250000000000002
 40
0.250000000000002
 40
0.500000000000004
 40
0.500000000000004
 40
1.0
 40
1.0
 40
1.0
 40
1.0
 10
91.26983479846862
 20
149.8718032834395
 30
0.0
 10
91.39353574844844
 20
149.8718032834399
 30
0.0
 10
91.51763236071834
 20
149.9137968951727
 30
0.0
 10
91.72428752380475
 20
150.0515922218173
 30
0.0
 10
91.80932829053137
 20
150.1455658202821
 30
0.0
 10
92.00880685900442
 20
150.4603540265029
 30
0.0
 10
92.06983479846659
 20
150.7105930187301
 30
0.0
 10
92.06983479846659
 20
150.957507062864
 30
0.0
  0
LINE
  5
F5
330
1F
100
AcDbEntity
  8
0
  6
Continuous
 62
     7
370
    25
100
AcDbLine
 10
92.0698353909
 20
150.9575087259
 30
0.0
 11
92.0698353909
 21
152.1387200484
 31
0.0
  0
SPLINE
  5
F6
330
1F
100
AcDbEntity
  8
0
  6
Continuous
 62
     7
370
    25
100
AcDbSpline
210
0.0
220
0.0
230
1.0
 70
     8
 71
     3
 72
     8
 73
     4
 74
     0
 42
0.000000001
 43
0.00000001
 40
0.0
 40
0.0
 40
0.0
 40
0.0
 40
1.0
 40
1.0
 40
1.0
 40
1.0
 10
92.06983479846657
 20
152.1387193765048
 30
0.0
 10
92.51398480949207
 20
153.1601026074565
 30
0.0
 10
92.96505911975001
 20
154.1785871442248
 30
0.0
 10
93.42186381938797
 20
155.1942346312539
 30
0.0
  0
LINE
  5
F7
330
1F
100
AcDbEntity
  8
0
  6
Continuous
 62
     7
370
    25
100
AcDbLine
 10
93.4218643122
 20
155.1942329535
 30
0.0
 11
98.1098348163
 21
155.1942329535
 31
0.0
  0
SPLINE
  5
F8
330
1F
100
AcDbEntity
  8
0
  6
Continuous
 62
     7
370
    25
100
AcDbSpline
210
0.0
220
0.0
230
1.0
 70
     8
 71
     3
 72
    16
 73
    12
 74
     0
 42
0.000000001
 43
0.00000001
 40
0.0
 40
0.0
 40
0.0
 40
0.0
 40
0.125
 40
0.125
 40
0.25
 40
0.25
 40
0.5
 40
0.5
 40
0.75
 40
0.75
 40
1.0
 40
1.0
 40
1.0
 40
1.0
 10
98.1098347984656
 20
155.1942346312539
 30
0.0
 10
98.18547250487683
 20
155.194234631254
 30
0.0
 10
98.26178816929507
 20
155.1828896311191
 30
0.0
 10
98.40619890718717
 20
155.1402370804807
 30
0.0
 10
98.47464535629562
 20
155.109302755798
 30
0.0
 10
98.66957660890901
 20
154.9900463840304
 30
0.0
 10
98.77741778269002
 20
154.8798943704099
 30
0.0
 10
98.94613053090225
 20
154.6317582847517
 30
0.0
 10
99.00849494362585
 20
154.491415960748
 30
0.0
 10
99.08979886813434
 20
154.2031442692592
 30
0.0
 10
99.10983479846658
 20
154.0523392962793
 30
0.0
 10
99.10983479846658
 20
153.9019694049339
 30
0.0
  0
LINE
  5
F9
330
1F
100
AcDbEntity
  8
0
  6
Continuous
 62
     7
370
    25
100
AcDbLine
 10
99.1098349803
 20
153.9019707272
 30
0.0
 11
99.1098349803
 21
147.5932735631
 31
0.0
  0
SPLINE
  5
FA
330
1F
100
AcDbEntity
  8
0
  6
Continuous
 62
     7
370
    25
100
AcDbSpline
210
0.0
220
0.0
230
1.0
 70
     8
 71
     3
 72
    10
 73
     6
 74
     0
 42
0.000000001
 43
0.00000001
 40
0.0
 40
0.0
 40
0.0
 40
0.0
 40
0.5
 40
0.5
 40
1.0
 40
1.0
 40
1.0
 40
1.0
 10
89.04983479846656
 20
161.1175476305394
 30
0.0
 10
88.83729848461022
 20
161.1175476305394
 30
0.0
 10
88.62736231295622
 20
161.2089602171696
 30
0.0
 10
88.33365517194495
 20
161.5137050830738
 30
0.0
 10
88.24983479846655
 20
161.7258600529824
 30
0.0
 10
88.24983479846655
 20
161.9368231112149
 30
0.0
  0
SPLINE
  5
FB
330
1F
100
AcDbEntity
  8
0
  6
Continuous
 62
     7
370
    25
100
AcDbSpline
210
0.0
220
0.0
230
1.0
 70
     8
 71
     3
 72
    12
 73
     8
 74
     0
 42
0.000000001
 43
0.00000001
 40
0.0
 40
0.0
 40
0.0
 40
0.0
 40
0.5
 40
0.5
 40
0.75
 40
0.75
 40
1.0
 40
1.0
 40
1.0
 40
1.0
 10
99.10983479846658
 20
164.2120116912128
 30
0.0
 10
99.10983479846658
 20
164.4772811239792
 30
0.0
 10
99.00522805498011
 20
164.7397962296316
 30
0.0
 10
98.72855970323482
 20
165.0253338356689
 30
0.0
 10
98.61819444388281
 20
165.1016554525303
 30
0.0
 10
98.3741223952671
 20
165.2059976173704
 30
0.0
 10
98.24236993393534
 20
165.2330667260306
 30
0.0
 10
98.10983479846658
 20
165.2330667260306
 30
0.0
  0
LINE
  5
FC
330
1F
100
AcDbEntity
  8
0
  6
Continuous
 62
     7
370
    25
100
AcDbLine
 10
99.1098349803
 20
153.9019707272
 30
0.0
 11
99.1098349803
 21
164.2120133767
 31
0.0
  0
SPLINE
  5
FD
330
1F
100
AcDbEntity
  8
0
  6
Continuous
 62
     7
370
    25
100
AcDbSpline
210
0.0
220
0.0
230
1.0
 70
     8
 71
     3
 72
     8
 73
     4
 74
     0
 42
0.000000001
 43
0.00000001
 40
0.0
 40
0.0
 40
0.0
 40
0.0
 40
1.0
 40
1.0
 40
1.0
 40
1.0
 10
88.24983479846658
 20
162.8405427310718
 30
0.0
 10
87.79952656278202
 20
163.6382578561855
 30
0.0
 10
87.34883274625844
 20
164.4357561558427
 30
0.0
 10
86.89780577754517
 20
165.2330667260305
 30
0.0
  0
LINE
  5
FE
330
1F
100
AcDbEntity
  8
0
  6
Continuous
 62
     7
370
    25
100
AcDbLine
 10
88.2498351746
 20
152.1387200484
 30
0.0
 11
88.2498351746
 21
162.840544028
 31
0.0
  0
LINE
  5
FF
330
1F
100
AcDbEntity
  8
0
  6
Continuous
 62
     7
370
    25
100
AcDbLine
 10
98.1098348163
 20
165.2330670187
 30
0.0
 11
93.4218643122
 21
165.2330670187
 31
0.0
  0
LINE
  5
100
330
1F
100
AcDbEntity
  8
0
  6
Continuous
 62
     7
370
    25
100
AcDbLine
 10
93.4218643122
 20
155.1942329535
 30
0.0
 11
93.4218643122
 21
165.2330670187
 31
0.0
  0
SPLINE
  5
101
330
1F
100
AcDbEntity
  8
0
  6
Continuous
 62
     7
370
    25
100
AcDbSpline
210
0.0
220
0.0
230
1.0
 70
     8
 71
     3
 72
     8
 73
     4
 74
     0
 42
0.000000001
 43
0.00000001
 40
0.0
 40
0.0
 40
0.0
 40
0.0
 40
1.0
 40
1.0
 40
1.0
 40
1.0
 10
93.42186381938795
 20
165.2330667260305
 30
0.0
 10
92.97083685067471
 20
164.4357561558427
 30
0.0
 10
92.52014303415112
 20
163.6382578561855
 30
0.0
 10
92.06983479846657
 20
162.8405427310718
 30
0.0
  0
LINE
  5
102
330
1F
100
AcDbEntity
  8
0
  6
Continuous
 62
     7
370
    25
100
AcDbLine
 10
92.0698353909
 20
152.1387200484
 30
0.0
 11
92.0698353909
 21
162.840544028
 31
0.0
  0
SPLINE
  5
103
330
1F
100
AcDbEntity
  8
0
  6
Continuous
 62
     7
370
    25
100
AcDbSpline
210
0.0
220
0.0
230
1.0
 70
     8
 71
     3
 72
    14
 73
    10
 74
     0
 42
0.000000001
 43
0.00000001
 40
0.0
 40
0.0
 40
0.0
 40
0.0
 40
0.25
 40
0.25
 40
0.5
 40
0.5
 40
0.75
 40
0.75
 40
1.0
 40
1.0
 40
1.0
 40
1.0
 10
92.06983479846659
 20
161.9368231112149
 30
0.0
 10
92.06983479846659
 20
161.8304664174626
 30
0.0
 10
92.04944724232533
 20
161.7246259297025
 30
0.0
 10
91.97081289686376
 20
161.528061016166
 30
0.0
 10
91.9120815372251
 20
161.4368902738788
 30
0.0
 10
91.76547263162249
 20
161.2849791848472
 30
0.0
 10
91.67606731159592
 20
161.2229103480276
 30
0.0
 10
91.48217657899554
 20
161.139642300269
 30
0.0
 10
91.37567158910568
 20
161.1175476305393
 30
0.0
 10
91.2698347984663
 20
161.1175476305394
 30
0.0
  0
LINE
  5
104
330
1F
100
AcDbEntity
  8
0
  6
Continuous
 62
     7
370
    25
100
AcDbLine
 10
91.2698348873
 20
161.1175488362
 30
0.0
 11
89.0498356782
 21
161.1175488362
 31
0.0
  0
ARC
  5
105
330
1F
100
AcDbEntity
  8
0
  6
Continuous
 62
     7
370
    25
100
AcDbCircle
 10
79.1598679324
 20
148.9827572145
 30
0.0
 40
11.28028427891579
100
AcDbArc
 50
77.7251368498
 51
102.2933616786
  0
SPLINE
  5
106
330
1F
100
AcDbEntity
  8
0
  6
Continuous
 62
     7
370
    25
100
AcDbSpline
210
0.0
220
0.0
230
1.0
 70
    11
 71
     3
 72
    72
 73
    68
 74
     0
 42
0.000000001
 43
0.00000001
 40
0.0
 40
0.0
 40
0.0
 40
0.0
 40
0.03125
 40
0.03125
 40
0.0624999999999999
 40
0.0624999999999999
 40
0.0937499999999999
 40
0.0937499999999999
 40
0.1249999999999999
 40
0.1249999999999999
 40
0.1562499999999998
 40
0.1562499999999998
 40
0.1874999999999998
 40
0.1874999999999998
 40
0.2187499999999998
 40
0.2187499999999998
 40
0.2499999999999997
 40
0.2499999999999997
 40
0.2812499999999997
 40
0.2812499999999997
 40
0.3124999999999997
 40
0.3124999999999997
 40
0.3437499999999997
 40
0.3437499999999997
 40
0.3749999999999996
 40
0.3749999999999996
 40
0.4062499999999996
 40
0.4062499999999996
 40
0.4374999999999996
 40
0.4374999999999996
 40
0.4687499999999996
 40
0.4687499999999996
 40
0.4999999999999995
 40
0.4999999999999995
 40
0.5312499999999994
 40
0.5312499999999994
 40
0.5624999999999994
 40
0.5624999999999994
 40
0.5937499999999993
 40
0.5937499999999993
 40
0.6249999999999993
 40
0.6249999999999993
 40
0.6562499999999993
 40
0.6562499999999993
 40
0.6874999999999993
 40
0.6874999999999993
 40
0.7031249999999992
 40
0.7031249999999992
 40
0.7187499999999992
 40
0.7187499999999992
 40
0.7499999999999993
 40
0.7499999999999993
 40
0.7812499999999994
 40
0.7812499999999994
 40
0.8124999999999994
 40
0.8124999999999994
 40
0.8437499999999996
 40
0.8437499999999996
 40
0.8749999999999997
 40
0.8749999999999997
 40
0.9062499999999998
 40
0.9062499999999998
 40
0.9374999999999998
 40
0.9374999999999998
 40
0.9687499999999999
 40
0.9687499999999999
 40
1.0
 40
1.0
 40
1.0
 40
1.0
 10
217.8598347984666
 20
120.1851932794009
 30
0.0
 10
217.5847590398682
 20
120.1851932794009
 30
0.0
 10
217.3135330206119
 20
120.1622479462097
 30
0.0
 10
216.7785421323617
 20
120.0717859954567
 30
0.0
 10
216.5134234738792
 20
120.0037953833542
 30
0.0
 10
215.9971161315306
 20
119.821673337985
 30
0.0
 10
215.750616090076
 20
119.7094596844176
 30
0.0
 10
215.2810344125568
 20
119.4421180150241
 30
0.0
 10
215.0558938538626
 20
119.2852105423879
 30
0.0
 10
214.6418180201055
 20
118.9315336382916
 30
0.0
 10
214.4548496000133
 20
118.737186693471
 30
0.0
 10
214.1221623503267
 20
118.3121079313132
 30
0.0
 10
213.9749359366417
 20
118.077830680269
 30
0.0
 10
213.7377019935552
 20
117.5883990191661
 30
0.0
 10
213.6466863522928
 20
117.3335833118215
 30
0.0
 10
213.5220108804014
 20
116.8028333811093
 30
0.0
 10
213.4894744619877
 20
116.5267253733818
 30
0.0
 10
213.4877159362218
 20
115.9830677505719
 30
0.0
 10
213.5179801199789
 20
115.7091488843069
 30
0.0
 10
213.6398805894619
 20
115.1743485097586
 30
0.0
 10
213.729843205347
 20
114.9178802166865
 30
0.0
 10
213.9651296354467
 20
114.425675437035
 30
0.0
 10
214.110844839619
 20
114.19106567527
 30
0.0
 10
214.4431039191005
 20
113.7623403867152
 30
0.0
 10
214.6327701696166
 20
113.5637972605322
 30
0.0
 10
215.0466161788886
 20
113.2082443420857
 30
0.0
 10
215.2684960646114
 20
113.0525116654949
 30
0.0
 10
215.7403702988701
 20
112.7820141880763
 30
0.0
 10
215.9917694061153
 20
112.6672402555292
 30
0.0
 10
216.5041852861146
 20
112.4855367548009
 30
0.0
 10
216.7672199637393
 20
112.4172053324984
 30
0.0
 10
217.3068278181177
 20
112.3249139812582
 30
0.0
 10
217.5814691825162
 20
112.3017226180474
 30
0.0
 10
218.1249370939748
 20
112.3009872775974
 30
0.0
 10
218.3959954231761
 20
112.3230105565243
 30
0.0
 10
218.936711048133
 20
112.4135928471017
 30
0.0
 10
219.2024347293701
 20
112.4818345370055
 30
0.0
 10
219.7133000991915
 20
112.6611866416875
 30
0.0
 10
219.9602660423043
 20
112.7725537180716
 30
0.0
 10
220.4359669948385
 20
113.0424453943651
 30
0.0
 10
220.660003080844
 20
113.1987265969103
 30
0.0
 10
221.0707227959484
 20
113.5483215361799
 30
0.0
 10
221.2590191414338
 20
113.742461792618
 30
0.0
 10
221.5977122063218
 20
114.1741895878268
 30
0.0
 10
221.7420583413122
 20
114.4043054471005
 30
0.0
 10
221.919639083701
 20
114.7690206112414
 30
0.0
 10
221.9723806823687
 20
114.8939810699935
 30
0.0
 10
222.06435054171
 20
115.151025022975
 30
0.0
 10
222.10370417352
 20
115.2839419828096
 30
0.0
 10
222.1977202385158
 20
115.6835729850827
 30
0.0
 10
222.2297950496793
 20
115.9534128055998
 30
0.0
 10
222.2323149609771
 20
116.4999936424477
 30
0.0
 10
222.2016659836081
 20
116.7764973704824
 30
0.0
 10
222.0811220338235
 20
117.3073367568756
 30
0.0
 10
221.9901067455116
 20
117.568109433598
 30
0.0
 10
221.7540944242257
 20
118.0617679248733
 30
0.0
 10
221.6109169908543
 20
118.2925556007264
 30
0.0
 10
221.2768758703359
 20
118.7240242900399
 30
0.0
 10
221.0863971586561
 20
118.9231009995894
 30
0.0
 10
220.674916991702
 20
119.27677506925
 30
0.0
 10
220.4505104033209
 20
119.4345816183193
 30
0.0
 10
219.9758077954235
 20
119.7063601237
 30
0.0
 10
219.7285949091137
 20
119.8190316181998
 30
0.0
 10
219.2155673437241
 20
120.0010030224463
 30
0.0
 10
218.9476583156542
 20
120.0704331719371
 30
0.0
 10
218.4080864760693
 20
120.1621628788964
 30
0.0
 10
218.134910557065
 20
120.1851932794009
 30
0.0
 10
217.8598347984666
 20
120.1851932794009
 30
0.0
  0
SPLINE
  5
107
330
1F
100
AcDbEntity
  8
0
  6
Continuous
 62
     7
370
    25
100
AcDbSpline
210
0.0
220
0.0
230
1.0
 70
    11
 71
     3
 72
    62
 73
    58
 74
     0
 42
0.000000001
 43
0.00000001
 40
0.0
 40
0.0
 40
0.0
 40
0.0
 40
0.0312500000000004
 40
0.0312500000000004
 40
0.0625000000000008
 40
0.0625000000000008
 40
0.0937500000000012
 40
0.0937500000000012
 40
0.1250000000000016
 40
0.1250000000000016
 40
0.1562500000000019
 40
0.1562500000000019
 40
0.1875000000000023
 40
0.1875000000000023
 40
0.2187500000000027
 40
0.2187500000000027
 40
0.2500000000000031
 40
0.2500000000000031
 40
0.2812500000000035
 40
0.2812500000000035
 40
0.3125000000000039
 40
0.3125000000000039
 40
0.3437500000000043
 40
0.3437500000000043
 40
0.3750000000000047
 40
0.3750000000000047
 40
0.4062500000000051
 40
0.4062500000000051
 40
0.4375000000000054
 40
0.4375000000000054
 40
0.4687500000000058
 40
0.4687500000000058
 40
0.5000000000000062
 40
0.5000000000000062
 40
0.5312500000000067
 40
0.5312500000000067
 40
0.562500000000007
 40
0.562500000000007
 40
0.625000000000006
 40
0.625000000000006
 40
0.687500000000005
 40
0.687500000000005
 40
0.750000000000004
 40
0.750000000000004
 40
0.812500000000003
 40
0.812500000000003
 40
0.8437500000000024
 40
0.8437500000000024
 40
0.875000000000002
 40
0.875000000000002
 40
0.9062500000000014
 40
0.9062500000000014
 40
0.937500000000001
 40
0.937500000000001
 40
0.9687500000000004
 40
0.9687500000000004
 40
1.0
 40
1.0
 40
1.0
 40
1.0
 10
147.4033318836446
 20
130.9782226954685
 30
0.0
 10
147.5511730401112
 20
131.0786580653632
 30
0.0
 10
147.7122152552246
 20
131.1666416891881
 30
0.0
 10
148.0578461210418
 20
131.3217682969278
 30
0.0
 10
148.2440946248887
 20
131.3893163703746
 30
0.0
 10
148.632352027872
 20
131.502434578395
 30
0.0
 10
148.8326659406146
 20
131.5477631280649
 30
0.0
 10
149.2450794115207
 20
131.6179787692568
 30
0.0
 10
149.4590489694747
 20
131.6428849350582
 30
0.0
 10
149.8861359946178
 20
131.6711889816714
 30
0.0
 10
150.0999870460429
 20
131.6749062353435
 30
0.0
 10
150.528298960067
 20
131.6617371613898
 30
0.0
 10
150.7445701517458
 20
131.6445081559246
 30
0.0
 10
151.1636271577727
 20
131.5894945500071
 30
0.0
 10
151.3675501347871
 20
131.5518640315015
 30
0.0
 10
151.7639793117281
 20
131.4551487699003
 30
0.0
 10
151.958322765549
 20
131.3952475242839
 30
0.0
 10
152.3209635222802
 20
131.2554781459062
 30
0.0
 10
152.4902752395657
 20
131.1756624500373
 30
0.0
 10
152.803525944666
 20
130.9936301079692
 30
0.0
 10
152.9489318383869
 20
130.889851410786
 30
0.0
 10
153.1984021381182
 20
130.665038459313
 30
0.0
 10
153.3037815871928
 20
130.5437904708331
 30
0.0
 10
153.4725594885647
 20
130.2808885467377
 30
0.0
 10
153.5354358355561
 20
130.1380825549779
 30
0.0
 10
153.6076874943702
 20
129.846694404292
 30
0.0
 10
153.6186127216897
 20
129.6955263065178
 30
0.0
 10
153.5869117974851
 20
129.3858306791123
 30
0.0
 10
153.5450858854378
 20
129.2327109071297
 30
0.0
 10
153.4127300884373
 20
128.9301791207692
 30
0.0
 10
153.3214800443878
 20
128.7809686742283
 30
0.0
 10
153.1011120613397
 20
128.5009900904041
 30
0.0
 10
152.969730166181
 20
128.3670662328291
 30
0.0
 10
152.6765571899736
 20
128.1209702308942
 30
0.0
 10
152.5157511127697
 20
128.0090660984696
 30
0.0
 10
152.1677015414403
 20
127.8070896462519
 30
0.0
 10
151.9808055483531
 20
127.7176403935832
 30
0.0
 10
151.4016715147445
 20
127.4914977965454
 30
0.0
 10
150.9787464214627
 20
127.392755034184
 30
0.0
 10
150.1268430013428
 20
127.3133840745865
 30
0.0
 10
149.687299849577
 20
127.3319971344458
 30
0.0
 10
148.8513773143139
 20
127.4824009388397
 30
0.0
 10
148.4429263408254
 20
127.6164629532345
 30
0.0
 10
147.7203161229549
 20
127.9795595737759
 30
0.0
 10
147.3944558912752
 20
128.2149264822167
 30
0.0
 10
147.021837214328
 20
128.6137152497492
 30
0.0
 10
146.9144508401955
 20
128.7564532679085
 30
0.0
 10
146.7446160954036
 20
129.053952795435
 30
0.0
 10
146.6838166289972
 20
129.2050253046165
 30
0.0
 10
146.6117188310863
 20
129.5112425143647
 30
0.0
 10
146.6011801707848
 20
129.6681151515859
 30
0.0
 10
146.6334227685804
 20
129.9683814408745
 30
0.0
 10
146.6756558631363
 20
130.1145796525274
 30
0.0
 10
146.8101616602318
 20
130.3938685079261
 30
0.0
 10
146.9003654060376
 20
130.5235170274985
 30
0.0
 10
147.1227252111861
 20
130.7655633396285
 30
0.0
 10
147.255490727178
 20
130.8777873255738
 30
0.0
 10
147.4033318836446
 20
130.9782226954685
 30
0.0
  0
SPLINE
  5
108
330
1F
100
AcDbEntity
  8
0
  6
Continuous
 62
     7
370
    25
100
AcDbSpline
210
0.0
220
0.0
230
1.0
 70
    11
 71
     3
 72
    70
 73
    66
 74
     0
 42
0.000000001
 43
0.00000001
 40
0.0
 40
0.0
 40
0.0
 40
0.0
 40
0.03125
 40
0.03125
 40
0.0625
 40
0.0625
 40
0.09375
 40
0.09375
 40
0.125
 40
0.125
 40
0.15625
 40
0.15625
 40
0.1875
 40
0.1875
 40
0.21875
 40
0.21875
 40
0.25
 40
0.25
 40
0.28125
 40
0.28125
 40
0.3125
 40
0.3125
 40
0.34375
 40
0.34375
 40
0.375
 40
0.375
 40
0.40625
 40
0.40625
 40
0.4375
 40
0.4375
 40
0.46875
 40
0.46875
 40
0.5
 40
0.5
 40
0.53125
 40
0.53125
 40
0.5625
 40
0.5625
 40
0.59375
 40
0.59375
 40
0.625
 40
0.625
 40
0.65625
 40
0.65625
 40
0.6875
 40
0.6875
 40
0.71875
 40
0.71875
 40
0.75
 40
0.75
 40
0.78125
 40
0.78125
 40
0.8125
 40
0.8125
 40
0.84375
 40
0.84375
 40
0.875
 40
0.875
 40
0.90625
 40
0.90625
 40
0.9375
 40
0.9375
 40
0.96875
 40
0.96875
 40
1.0
 40
1.0
 40
1.0
 40
1.0
 10
146.6221803674909
 20
102.9902998118662
 30
0.0
 10
146.6431212337657
 20
103.1454765000894
 30
0.0
 10
146.6898169996526
 20
103.2980038065644
 30
0.0
 10
146.8304690634086
 20
103.5976890714414
 30
0.0
 10
146.9258592291989
 20
103.7459283606281
 30
0.0
 10
147.1534489159468
 20
104.0229941181978
 30
0.0
 10
147.2868615970061
 20
104.1541139398791
 30
0.0
 10
147.5863751761259
 20
104.3971065918517
 30
0.0
 10
147.7495105677526
 20
104.5068222080206
 30
0.0
 10
148.1002044864744
 20
104.7036607371341
 30
0.0
 10
148.2891439371796
 20
104.7910426305495
 30
0.0
 10
148.6781064057071
 20
104.9371426888035
 30
0.0
 10
148.8793740096607
 20
104.996750181598
 30
0.0
 10
149.2952224238363
 20
105.0888953576309
 30
0.0
 10
149.5091109595369
 20
105.1209578457277
 30
0.0
 10
149.9353568210892
 20
105.155653945366
 30
0.0
 10
150.14952059348
 20
105.1587342019733
 30
0.0
 10
150.5799711297462
 20
105.1357562730669
 30
0.0
 10
150.7947452375671
 20
105.1094979478378
 30
0.0
 10
151.2110284010539
 20
105.0296563396737
 30
0.0
 10
151.4143714730022
 20
104.9760195904172
 30
0.0
 10
151.8109809376872
 20
104.8405938117001
 30
0.0
 10
152.0030492676489
 20
104.758846428463
 30
0.0
 10
152.3608019111082
 20
104.5734344433467
 30
0.0
 10
152.5285126293913
 20
104.4691616828716
 30
0.0
 10
152.839472994556
 20
104.2364213931897
 30
0.0
 10
152.9813599955913
 20
104.1083446846309
 30
0.0
 10
153.2238981733349
 20
103.8400632763184
 30
0.0
 10
153.3265695424958
 20
103.69850231668
 30
0.0
 10
153.4897486922041
 20
103.3996274708312
 30
0.0
 10
153.5474843472425
 20
103.2465435968156
 30
0.0
 10
153.6117291128886
 20
102.9411453806334
 30
0.0
 10
153.6183819440803
 20
102.7853769983184
 30
0.0
 10
153.5784739126222
 20
102.4856790839093
 30
0.0
 10
153.5329469646024
 20
102.3417614193018
 30
0.0
 10
153.3918781974106
 20
102.0649740333407
 30
0.0
 10
153.2980541796476
 20
101.9359506468157
 30
0.0
 10
153.071050606625
 20
101.6976668622506
 30
0.0
 10
152.936171672692
 20
101.5872416846887
 30
0.0
 10
152.6390294982161
 20
101.3908930134685
 30
0.0
 10
152.4757574088884
 20
101.303683675938
 30
0.0
 10
152.1217225391435
 20
101.1492218475046
 30
0.0
 10
151.9356342795244
 20
101.0839761194946
 30
0.0
 10
151.546776176174
 20
100.9742864310554
 30
0.0
 10
151.342125676066
 20
100.9296156630554
 30
0.0
 10
150.9259580587969
 20
100.8621962324479
 30
0.0
 10
150.7150246038245
 20
100.839293187969
 30
0.0
 10
150.2876165295207
 20
100.8139781535046
 30
0.0
 10
150.0691678182035
 20
100.81172315057
 30
0.0
 10
149.6394167665603
 20
100.8282684975127
 30
0.0
 10
149.4275775973952
 20
100.8468198043675
 30
0.0
 10
149.0099746430489
 20
100.9049176284415
 30
0.0
 10
148.8022352751643
 20
100.9450389418571
 30
0.0
 10
148.4061677471181
 20
101.0458048842509
 30
0.0
 10
148.2173109376531
 20
101.1062425509986
 30
0.0
 10
147.8585484427152
 20
101.24910434596
 30
0.0
 10
147.6867966561499
 20
101.3327314029668
 30
0.0
 10
147.3766576700507
 20
101.5196388716435
 30
0.0
 10
147.2377381056785
 20
101.6226392119534
 30
0.0
 10
146.9944543155384
 20
101.8505057549674
 30
0.0
 10
146.8892437147524
 20
101.9773621631816
 30
0.0
 10
146.7284913706782
 20
102.2437421746306
 30
0.0
 10
146.6713954990814
 20
102.38392254744
 30
0.0
 10
146.6072529810212
 20
102.6800290130982
 30
0.0
 10
146.6012395012161
 20
102.8351231236431
 30
0.0
 10
146.6221803674909
 20
102.9902998118662
 30
0.0
  0
LINE
  5
109
330
1F
100
AcDbEntity
  8
0
  6
Continuous
 62
     7
370
    25
100
AcDbLine
 10
230.1598312222
 20
98.0432711223
 30
0.0
 11
230.1598312222
 21
134.4432726184
 31
0.0
  0
LINE
  5
10A
330
1F
100
AcDbEntity
  8
0
  6
Continuous
 62
     7
370
    25
100
AcDbLine
 10
21.9098338746
 20
83.9932735691
 30
0.0
 11
21.9098338746
 21
83.9949872026
 31
0.0
  0
LINE
  5
10B
330
1F
100
AcDbEntity
  8
0
  6
Continuous
 62
     7
370
    25
100
AcDbLine
 10
21.9098338746
 20
148.4932701716
 30
0.0
 11
21.9098338746
 21
148.4915565381
 31
0.0
  0
LWPOLYLINE
  5
10C
330
1F
100
AcDbEntity
  8
0
  6
Continuous
 62
     7
370
    25
100
AcDbPolyline
 90
       19
 70
   128
 43
0.0
 10
150.1098321639
 20
127.5022856573
 10
150.964883145
 20
127.6088950837
 10
151.7168031894
 20
127.9158645922
 10
152.2748963796
 20
128.3861685226
 10
152.5718541705
 20
128.9630828107
 10
152.5718541705
 20
129.5770218277
 10
152.2748963796
 20
130.1539361159
 10
151.7168031894
 20
130.6242400462
 10
150.964883145
 20
130.9312095547
 10
150.1098321639
 20
131.0378189812
 10
149.2547811829
 20
130.9312095547
 10
148.5028685891
 20
130.6242400462
 10
147.9447679483
 20
130.1539361159
 10
147.647817608
 20
129.5770218277
 10
147.647817608
 20
128.9630828107
 10
147.9447679483
 20
128.3861685226
 10
148.5028685891
 20
127.9158645922
 10
149.2547811829
 20
127.6088950837
 10
150.1098321639
 20
127.5022856573
  0
LWPOLYLINE
  5
10D
330
1F
100
AcDbEntity
  8
0
  6
Continuous
 62
     7
370
    25
100
AcDbPolyline
 90
       19
 70
   128
 43
0.0
 10
150.1098321639
 20
101.4487247596
 10
150.964883145
 20
101.555334186
 10
151.7168031894
 20
101.8623036945
 10
152.2748963796
 20
102.3326076249
 10
152.5718541705
 20
102.909521913
 10
152.5718541705
 20
103.52346093
 10
152.2748963796
 20
104.1003752181
 10
151.7168031894
 20
104.5706791485
 10
150.964883145
 20
104.877648657
 10
150.1098321639
 20
104.9842580835
 10
149.2547811829
 20
104.877648657
 10
148.5028685891
 20
104.5706791485
 10
147.9447679483
 20
104.1003752181
 10
147.647817608
 20
103.52346093
 10
147.647817608
 20
102.909521913
 10
147.9447679483
 20
102.3326076249
 10
148.5028685891
 20
101.8623036945
 10
149.2547811829
 20
101.555334186
 10
150.1098321639
 20
101.4487247596
  0
LINE
  5
10E
330
1F
100
AcDbEntity
  8
0
  6
Continuous
 62
     7
370
    25
100
AcDbLine
 10
232.1598352753
 20
108.2432714904
 30
0.0
 11
232.1598352753
 21
124.2432722503
 31
0.0
  0
LINE
  5
10F
330
1F
100
AcDbEntity
  8
0
  6
Continuous
 62
     7
370
    25
100
AcDbLine
 10
247.1598358714
 20
111.6640472466
 30
0.0
 11
247.1598358714
 21
123.4432717467
 31
0.0
  0
SPLINE
  5
110
330
1F
100
AcDbEntity
  8
0
  6
Continuous
 62
     7
370
    25
100
AcDbSpline
210
0.0
220
0.0
230
1.0
 70
     8
 71
     3
 72
    14
 73
    10
 74
     0
 42
0.000000001
 43
0.00000001
 40
0.0
 40
0.0
 40
0.0
 40
0.0
 40
0.25
 40
0.25
 40
0.5
 40
0.5
 40
0.75
 40
0.75
 40
1.0
 40
1.0
 40
1.0
 40
1.0
 10
247.1598347984666
 20
111.6640471385389
 30
0.0
 10
247.1598347984667
 20
111.5440453889711
 30
0.0
 10
247.1539457778601
 20
111.4282863233471
 30
0.0
 10
247.1441964353843
 20
111.2131262050466
 30
0.0
 10
247.1404566628298
 20
111.114216207094
 30
0.0
 10
247.1404624374886
 20
110.9422770671209
 30
0.0
 10
247.1442467644227
 20
110.8681928133213
 30
0.0
 10
247.1539380829828
 20
110.7534394475923
 30
0.0
 10
247.1598347984666
 20
110.7112043688003
 30
0.0
 10
247.1598347984666
 20
110.6871310464305
 30
0.0
  0
LINE
  5
111
330
1F
100
AcDbEntity
  8
0
  6
Continuous
 62
     7
370
    25
100
AcDbLine
 10
247.1598358714
 20
109.043271994
 30
0.0
 11
247.1598358714
 21
110.687130844
 31
0.0
  0
LINE
  5
112
330
1F
100
AcDbEntity
  8
0
  6
Continuous
 62
     7
370
    25
100
AcDbLine
 10
247.1598358714
 20
110.687130844
 30
0.0
 11
247.1598358714
 21
111.6640472466
 31
0.0
  0
LINE
  5
113
330
1F
100
AcDbEntity
  8
0
  6
HIDDEN
 62
     7
370
    18
100
AcDbLine
 10
252.159831103
 20
112.9932718033
 30
0.0
 11
252.159831103
 21
122.7432720045
 31
0.0
  0
LINE
  5
114
330
1F
100
AcDbEntity
  8
0
  6
HIDDEN
 62
     7
370
    18
100
AcDbLine
 10
252.159831103
 20
109.7432717363
 30
0.0
 11
252.159831103
 21
112.9932718033
 31
0.0
  0
LINE
  5
115
330
1F
100
AcDbEntity
  8
0
  6
HIDDEN
 62
     7
370
    18
100
AcDbLine
 10
260.1598324143
 20
113.1932719292
 30
0.0
 11
260.1598324143
 21
122.3432717526
 31
0.0
  0
LINE
  5
116
330
1F
100
AcDbEntity
  8
0
  6
HIDDEN
 62
     7
370
    18
100
AcDbLine
 10
260.1598324143
 20
110.1432719881
 30
0.0
 11
260.1598324143
 21
113.1932719292
 31
0.0
  0
LINE
  5
117
330
1F
100
AcDbEntity
  8
0
  6
HIDDEN
 62
     7
370
    18
100
AcDbLine
 10
252.159831103
 20
120.6432718465
 30
0.0
 11
252.159831103
 21
111.8432718942
 31
0.0
  0
LINE
  5
118
330
1F
100
AcDbEntity
  8
0
  6
HIDDEN
 62
     7
370
    18
100
AcDbLine
 10
227.8503300511
 20
112.2432716804
 30
0.0
 11
227.8503300511
 21
120.2432720604
 31
0.0
  0
LINE
  5
119
330
1F
100
AcDbEntity
  8
0
  6
HIDDEN
 62
     7
370
    18
100
AcDbLine
 10
227.1598400437
 20
112.9337719323
 30
0.0
 11
227.1598400437
 21
119.5527718084
 31
0.0
  0
LINE
  5
11A
330
1F
100
AcDbEntity
  8
0
  6
HIDDEN
 62
     7
370
    18
100
AcDbLine
 10
260.1598324143
 20
113.1957718318
 30
0.0
 11
260.1598324143
 21
116.2432718704
 31
0.0
  0
LINE
  5
11B
330
1F
100
AcDbEntity
  8
0
  6
HIDDEN
 62
     7
370
    18
100
AcDbLine
 10
256.1598392092
 20
113.1957718318
 30
0.0
 11
256.1598392092
 21
114.7195218511
 31
0.0
  0
LINE
  5
11C
330
1F
100
AcDbEntity
  8
0
  6
HIDDEN
 62
     7
370
    18
100
AcDbLine
 10
256.1598392092
 20
114.7195218511
 30
0.0
 11
256.1598392092
 21
113.1957718318
 31
0.0
  0
LINE
  5
11D
330
1F
100
AcDbEntity
  8
0
  6
HIDDEN
 62
     7
370
    18
100
AcDbLine
 10
256.1598392092
 20
117.7670218896
 30
0.0
 11
256.1598392092
 21
114.7195218511
 31
0.0
  0
LINE
  5
11E
330
1F
100
AcDbEntity
  8
0
  6
HIDDEN
 62
     7
370
    18
100
AcDbLine
 10
256.1598392092
 20
119.2907719089
 30
0.0
 11
256.1598392092
 21
117.7670218896
 31
0.0
  0
LINE
  5
11F
330
1F
100
AcDbEntity
  8
0
  6
HIDDEN
 62
     7
370
    18
100
AcDbLine
 10
256.1598392092
 20
117.7670218896
 30
0.0
 11
256.1598392092
 21
119.2907719089
 31
0.0
  0
LINE
  5
120
330
1F
100
AcDbEntity
  8
0
  6
HIDDEN
 62
     7
370
    18
100
AcDbLine
 10
256.1598392092
 20
114.7195218511
 30
0.0
 11
256.1598392092
 21
117.7670218896
 31
0.0
  0
LINE
  5
121
330
1F
100
AcDbEntity
  8
0
  6
HIDDEN
 62
     7
370
    18
100
AcDbLine
 10
256.1598392092
 20
114.7195218511
 30
0.0
 11
256.1598392092
 21
116.2432718704
 31
0.0
  0
LINE
  5
122
330
1F
100
AcDbEntity
  8
0
  6
HIDDEN
 62
     7
370
    18
100
AcDbLine
 10
256.1598392092
 20
117.7670218896
 30
0.0
 11
256.1598392092
 21
116.2432718704
 31
0.0
  0
LINE
  5
123
330
1F
100
AcDbEntity
  8
0
  6
HIDDEN
 62
     7
370
    18
100
AcDbLine
 10
256.1598392092
 20
116.2432718704
 30
0.0
 11
260.1598324143
 21
116.2432718704
 31
0.0
  0
LINE
  5
124
330
1F
100
AcDbEntity
  8
0
  6
HIDDEN
 62
     7
370
    18
100
AcDbLine
 10
260.1598324143
 20
119.2907719089
 30
0.0
 11
260.1598324143
 21
116.2432718704
 31
0.0
  0
LINE
  5
125
330
1F
100
AcDbEntity
  8
0
  6
HIDDEN
 62
     7
370
    18
100
AcDbLine
 10
256.1598392092
 20
113.1957718318
 30
0.0
 11
256.1598392092
 21
114.7195218511
 31
0.0
  0
LINE
  5
126
330
1F
100
AcDbEntity
  8
0
  6
HIDDEN
 62
     7
370
    18
100
AcDbLine
 10
256.1598392092
 20
119.2907719089
 30
0.0
 11
256.1598392092
 21
117.7670218896
 31
0.0
  0
LINE
  5
127
330
1F
100
AcDbEntity
  8
0
  6
HIDDEN
 62
     7
370
    18
100
AcDbLine
 10
256.1598392092
 20
113.1957718318
 30
0.0
 11
260.1598324143
 21
113.1957718318
 31
0.0
  0
LINE
  5
128
330
1F
100
AcDbEntity
  8
0
  6
HIDDEN
 62
     7
370
    18
100
AcDbLine
 10
256.1598392092
 20
119.2907719089
 30
0.0
 11
260.1598324143
 21
119.2907719089
 31
0.0
  0
LINE
  5
129
330
1F
100
AcDbEntity
  8
0
  6
HIDDEN
 62
     7
370
    18
100
AcDbLine
 10
247.1598358714
 20
120.2432720604
 30
0.0
 11
227.8503300511
 21
120.2432720604
 31
0.0
  0
LINE
  5
12A
330
1F
100
AcDbEntity
  8
0
  6
HIDDEN
 62
     7
370
    18
100
AcDbLine
 10
227.8503300511
 20
112.2432716804
 30
0.0
 11
247.1598358714
 21
112.2432716804
 31
0.0
  0
LINE
  5
12B
330
1F
100
AcDbEntity
  8
0
  6
HIDDEN
 62
     7
370
    18
100
AcDbLine
 10
227.8503300511
 20
120.2432720604
 30
0.0
 11
227.1598400437
 21
119.5527718084
 31
0.0
  0
LINE
  5
12C
330
1F
100
AcDbEntity
  8
0
  6
HIDDEN
 62
     7
370
    18
100
AcDbLine
 10
227.1598400437
 20
112.9337719323
 30
0.0
 11
227.8503300511
 21
112.2432716804
 31
0.0
  0
LINE
  5
12D
330
1F
100
AcDbEntity
  8
0
  6
HIDDEN
 62
     7
370
    18
100
AcDbLine
 10
256.1598392092
 20
119.2907719089
 30
0.0
 11
254.4003547989
 21
116.2432718704
 31
0.0
  0
LINE
  5
12E
330
1F
100
AcDbEntity
  8
0
  6
HIDDEN
 62
     7
370
    18
100
AcDbLine
 10
254.4003547989
 20
116.2432718704
 30
0.0
 11
256.1598392092
 21
113.1957718318
 31
0.0
  0
DIMENSION
  5
12F
330
1F
100
AcDbEntity
  8
VERMASSUNG
100
AcDbDimension
  2
_D
 10
10.0093654375
 20
66.2432718704
 30
0.0
 11
10.0093654375
 21
116.2432718704
 31
0.0
 70
   160
  1
%%c<>
 71
     2
 42
-1.0
  3
SLDDIMSTYLE0
100
AcDbAlignedDimension
 13
70.6598347985
 23
166.2432718704
 33
0.0
 14
70.6598347985
 24
66.2432718704
 34
0.0
 50
90.0
100
AcDbRotatedDimension
  0
DIMENSION
  5
13B
330
1F
100
AcDbEntity
  8
VERMASSUNG
100
AcDbDimension
  2
_D_1
 10
230.1598347985
 20
171.7699432572
 30
0.0
 11
164.6348347985
 21
171.7699432572
 31
0.0
 70
   160
  1
<>
 71
     2
 42
-1.0
  3
SLDDIMSTYLE0
100
AcDbAlignedDimension
 13
99.1098347985
 23
147.5932718704
 33
0.0
 14
230.1598347985
 24
134.4432718704
 34
0.0
100
AcDbRotatedDimension
  0
DIMENSION
  5
145
330
1F
100
AcDbEntity
  8
VERMASSUNG
100
AcDbDimension
  2
_D_2
 10
230.1598347985
 20
180.8974314974
 30
0.0
 11
150.1598347985
 21
180.8974314974
 31
0.0
 70
   160
  1
<>
 71
     2
 42
-1.0
  3
SLDDIMSTYLE0
100
AcDbAlignedDimension
 13
70.1598347985
 23
165.7432718704
 33
0.0
 14
230.1598347985
 24
134.4432718704
 34
0.0
100
AcDbRotatedDimension
  0
DIMENSION
  5
14F
330
1F
100
AcDbEntity
  8
VERMASSUNG
100
AcDbDimension
  2
_D_3
 10
247.1598347985
 20
171.7699432572
 30
0.0
 11
238.6598347985
 21
171.7699432572
 31
0.0
 70
   160
  1
<>
 71
     2
 42
-1.0
  3
SLDDIMSTYLE0
100
AcDbAlignedDimension
 13
230.1598347985
 23
134.4432718704
 33
0.0
 14
247.1598347985
 24
123.4432718704
 34
0.0
100
AcDbRotatedDimension
  0
DIMENSION
  5
159
330
1F
100
AcDbEntity
  8
VERMASSUNG
100
AcDbDimension
  2
_D_4
 10
247.1598347985
 20
191.179921403
 30
0.0
 11
133.7098347985
 21
191.179921403
 31
0.0
 70
   160
  1
(<>)
 71
     2
 42
-1.0
  3
SLDDIMSTYLE0
100
AcDbAlignedDimension
 13
20.2598347985
 23
146.7459416129
 33
0.0
 14
247.1598347985
 24
123.4432718704
 34
0.0
100
AcDbRotatedDimension
  0
DIMENSION
  5
165
330
1F
100
AcDbEntity
  8
VERMASSUNG
100
AcDbDimension
  2
_D_5
 10
279.1618539019
 20
124.2432718704
 30
0.0
 11
279.1618539019
 21
116.2432718704
 31
0.0
 70
   160
  1
%%c<>
 71
     2
 42
-1.0
  3
SLDDIMSTYLE0
100
AcDbAlignedDimension
 13
246.3598347985
 23
108.2432718704
 33
0.0
 14
246.3598347985
 24
124.2432718704
 34
0.0
 50
90.0
100
AcDbRotatedDimension
  0
DIMENSION
  5
170
330
1F
100
AcDbEntity
  8
VERMASSUNG
100
AcDbDimension
  2
_D_6
 10
288.1598347985
 20
97.2432718704
 30
0.0
 11
288.1598347985
 21
116.2432718704
 31
0.0
 70
   160
  1
%%c<>
 71
     2
 42
-1.0
  3
SLDDIMSTYLE0
100
AcDbAlignedDimension
 13
229.3598347985
 23
135.2432718704
 33
0.0
 14
229.3598347985
 24
97.2432718704
 34
0.0
 50
90.0
100
AcDbRotatedDimension
  0
DIMENSION
  5
17B
330
1F
100
AcDbEntity
  8
VERMASSUNG
100
AcDbDimension
  2
_D_7
 10
270.1598347985
 20
113.1957718704
 30
0.0
 11
270.1598347985
 21
116.2432718704
 31
0.0
 70
   160
  1
SW<>
 71
     2
 42
-1.0
  3
SLDDIMSTYLE1
100
AcDbAlignedDimension
 13
260.1598347985
 23
119.2907718704
 33
0.0
 14
260.1598347985
 24
113.1957718704
 34
0.0
 50
90.0
100
AcDbRotatedDimension
  0
LINE
  5
189
330
1F
100
AcDbEntity
  8
VERMASSUNG
  6
CENTERX2
370
    18
100
AcDbLine
 10
261.7598347985
 20
116.2432718704
 30
0.0
 11
14.7480600334
 21
116.2432718704
 31
0.0
  0
SPLINE
  5
18A
330
1F
100
AcDbEntity
  8
0
  6
Continuous
 62
     7
370
    25
100
AcDbSpline
210
0.0
220
0.0
230
1.0
 70
     8
 71
     3
 72
    14
 73
    10
 74
     0
 42
0.000000001
 43
0.00000001
 40
0.0
 40
0.0
 40
0.0
 40
0.0
 40
0.0809725239717522
 40
0.2505502203359525
 40
0.4210449074409535
 40
0.5935439928315609
 40
0.7686912731314378
 40
0.9179577788819436
 40
1.0
 40
1.0
 40
1.0
 40
1.0
 10
266.0610762887003
 20
17.9378668204282
 30
0.0
 10
266.1131651022847
 20
18.0099924946891
 30
0.0
 10
266.2743415493122
 20
18.2331682423569
 30
0.0
 10
266.4589815754682
 20
18.66704036546125
 30
0.0
 10
266.592873689964
 20
19.18788029098721
 30
0.0
 10
266.6054514023051
 20
19.6879448991374
 30
0.0
 10
266.4891065847028
 20
20.09652380149002
 30
0.0
 10
266.303681462703
 20
20.38052781961595
 30
0.0
 10
266.1384110702574
 20
20.45864443412011
 30
0.0
 10
266.0797917943449
 20
20.48635138943869
 30
0.0
  0
SPLINE
  5
18B
330
1F
100
AcDbEntity
  8
0
  6
Continuous
 62
     7
370
    25
100
AcDbSpline
210
0.0
220
0.0
230
1.0
 70
     8
 71
     3
 72
    13
 73
     9
 74
     0
 42
0.000000001
 43
0.00000001
 40
0.0
 40
0.0
 40
0.0
 40
0.0
 40
0.1338741530158806
 40
0.3136883414922779
 40
0.4991892124907135
 40
0.6954313384619994
 40
0.8956321768073765
 40
1.0
 40
1.0
 40
1.0
 40
1.0
 10
264.1114717364302
 20
17.04784544669713
 30
0.0
 10
264.1900393634321
 20
17.00421625647209
 30
0.0
 10
264.3741357558575
 20
16.90198615443943
 30
0.0
 10
264.7287970282612
 20
16.9118488715853
 30
0.0
 10
265.1251263981293
 20
17.03842673942847
 30
0.0
 10
265.525079780692
 20
17.30421997016719
 30
0.0
 10
265.8521434430057
 20
17.61583089413801
 30
0.0
 10
266.0077529313752
 20
17.85567755663858
 30
0.0
 10
266.0610762887003
 20
17.9378668204282
 30
0.0
  0
LINE
  5
18C
330
1F
100
AcDbEntity
  8
0
  6
Continuous
 62
     7
370
    25
100
AcDbLine
 10
262.5155339024
 20
17.9499965652
 30
0.0
 11
264.1065247501
 21
17.0315370987
 31
0.0
  0
LINE
  5
18D
330
1F
100
AcDbEntity
  8
0
  6
Continuous
 62
     7
370
    25
100
AcDbLine
 10
266.1063624189
 20
20.4957326361
 30
0.0
 11
264.5153715712
 21
21.4141921026
 31
0.0
  0
SPLINE
  5
18E
330
1F
100
AcDbEntity
  8
0
  6
Continuous
 62
     7
370
    25
100
AcDbSpline
210
0.0
220
0.0
230
1.0
 70
     8
 71
     3
 72
    15
 73
    11
 74
     0
 42
0.000000001
 43
0.00000001
 40
0.0
 40
0.0
 40
0.0
 40
0.0
 40
0.1049942363535483
 40
0.2436211098516103
 40
0.3822397669307042
 40
0.5215666311697212
 40
0.6624713442646555
 40
0.8055620765610043
 40
0.9280023623686194
 40
1.0
 40
1.0
 40
1.0
 40
1.0
 10
275.4869377596569
 20
23.10463720972742
 30
0.0
 10
275.5851224001011
 20
23.19424806887559
 30
0.0
 10
275.8129430110807
 20
23.40217469150393
 30
0.0
 10
276.1075962219925
 20
23.83699300920431
 30
0.0
 10
276.3497005382296
 20
24.34712787788511
 30
0.0
 10
276.4869280343738
 20
24.87202892120277
 30
0.0
 10
276.5079808086937
 20
25.37362502903153
 30
0.0
 10
276.399392644167
 20
25.78762663247994
 30
0.0
 10
276.2176765587254
 20
26.0807431073112
 30
0.0
 10
276.0497788881898
 20
26.16526431473676
 30
0.0
 10
275.9876087341964
 20
26.19656133312065
 30
0.0
  0
LINE
  5
18F
330
1F
100
AcDbEntity
  8
0
  6
Continuous
 62
     7
370
    25
100
AcDbLine
 10
276.0058576611
 20
26.2105895953
 30
0.0
 11
274.4148668133
 21
27.1290490617
 31
0.0
  0
LINE
  5
190
330
1F
100
AcDbEntity
  8
0
  6
Continuous
 62
     7
370
    25
100
AcDbLine
 10
280.5552518742
 20
19.312759698
 30
0.0
 11
277.8682427677
 21
20.8639370375
 31
0.0
  0
LINE
  5
191
330
1F
100
AcDbEntity
  8
0
  6
Continuous
 62
     7
370
    25
100
AcDbLine
 10
274.6185070498
 20
15.234619408
 30
0.0
 11
277.3055161563
 21
13.6834420685
 31
0.0
  0
LINE
  5
192
330
1F
100
AcDbEntity
  8
0
  6
Continuous
 62
     7
370
    25
100
AcDbLine
 10
275.962324494
 20
20.5208637035
 30
0.0
 11
274.9152545314
 21
21.1253243266
 31
0.0
  0
LINE
  5
193
330
1F
100
AcDbEntity
  8
0
  6
Continuous
 62
     7
370
    25
100
AcDbLine
 10
272.9183515016
 20
17.6594348483
 30
0.0
 11
273.9624869899
 21
17.0566682611
 31
0.0
  0
SPLINE
  5
194
330
1F
100
AcDbEntity
  8
0
  6
Continuous
 62
     7
370
    25
100
AcDbSpline
210
0.0
220
0.0
230
1.0
 70
     8
 71
     3
 72
    17
 73
    13
 74
     0
 42
0.000000001
 43
0.00000001
 40
0.0
 40
0.0
 40
0.0
 40
0.0
 40
0.0149326197944645
 40
0.1297921459702128
 40
0.2448536907583378
 40
0.361090591105083
 40
0.4788145464459826
 40
0.5977156903155846
 40
0.7172653502040768
 40
0.8370311877604268
 40
0.956736554376466
 40
1.0
 40
1.0
 40
1.0
 40
1.0
 10
263.6405109973683
 20
14.37470030393881
 30
0.0
 10
263.6677594396111
 20
14.35808783493097
 30
0.0
 10
263.9045989119683
 20
14.21369468543227
 30
0.0
 10
264.4234524074365
 20
14.07417941836984
 30
0.0
 10
265.1832033481176
 20
13.97064288726258
 30
0.0
 10
265.9974184710479
 20
14.02517555848545
 30
0.0
 10
266.8463826307045
 20
14.22012060011039
 30
0.0
 10
267.7197222324245
 20
14.55911991490026
 30
0.0
 10
268.6024733706063
 20
15.03349481694469
 30
0.0
 10
269.4754193303153
 20
15.64332939926744
 30
0.0
 10
270.153392867449
 20
16.19667718773733
 30
0.0
 10
270.5212795418335
 20
16.57664635363877
 30
0.0
 10
270.6189426769703
 20
16.67751703632763
 30
0.0
  0
SPLINE
  5
195
330
1F
100
AcDbEntity
  8
0
  6
Continuous
 62
     7
370
    25
100
AcDbSpline
210
0.0
220
0.0
230
1.0
 70
     8
 71
     3
 72
    13
 73
     9
 74
     0
 42
0.000000001
 43
0.00000001
 40
0.0
 40
0.0
 40
0.0
 40
0.0
 40
0.1741050822920785
 40
0.3650376356138678
 40
0.5554028777301301
 40
0.7442644126830831
 40
0.9306928276748405
 40
1.0
 40
1.0
 40
1.0
 40
1.0
 10
275.0043629296522
 20
26.78873972539431
 30
0.0
 10
274.9837941076243
 20
27.08844151691768
 30
0.0
 10
274.9406684615398
 20
27.71681164791362
 30
0.0
 10
274.7300146814428
 20
28.57738962775626
 30
0.0
 10
274.409534033637
 20
29.37520171896103
 30
0.0
 10
273.9703882980024
 20
30.04884636584244
 30
0.0
 10
273.5587443082854
 20
30.50978324932691
 30
0.0
 10
273.2673987933787
 20
30.69379889817422
 30
0.0
 10
273.1884409368691
 20
30.74366917402824
 30
0.0
  0
LINE
  5
196
330
1F
100
AcDbEntity
  8
0
  6
Continuous
 62
     7
370
    25
100
AcDbLine
 10
236.6360149492
 20
29.9447623238
 30
0.0
 11
263.4327441564
 21
14.4753398284
 31
0.0
  0
LINE
  5
197
330
1F
100
AcDbEntity
  8
0
  6
Continuous
 62
     7
370
    25
100
AcDbLine
 10
228.6961242576
 20
34.5283636553
 30
0.0
 11
234.1860028402
 21
31.3591242087
 31
0.0
  0
LINE
  5
198
330
1F
100
AcDbEntity
  8
0
  6
Continuous
 62
     7
370
    25
100
AcDbLine
 10
243.6822041086
 20
47.8158001286
 30
0.0
 11
238.1953521966
 21
50.9832923154
 31
0.0
  0
LINE
  5
199
330
1F
100
AcDbEntity
  8
0
  6
Continuous
 62
     7
370
    25
100
AcDbLine
 10
272.9319720953
 20
30.9302684885
 30
0.0
 11
246.1415728179
 21
46.3960367932
 31
0.0
  0
SPLINE
  5
19A
330
1F
100
AcDbEntity
  8
0
  6
Continuous
 62
     7
370
    25
100
AcDbSpline
210
0.0
220
0.0
230
1.0
 70
     8
 71
     3
 72
    11
 73
     7
 74
     0
 42
0.000000001
 43
0.00000001
 40
0.0
 40
0.0
 40
0.0
 40
0.0
 40
0.1395258541711096
 40
0.4438519616110334
 40
0.7433581420524451
 40
1.0
 40
1.0
 40
1.0
 40
1.0
 10
277.1119885293353
 20
20.97519841447424
 30
0.0
 10
277.1074523332803
 20
21.07814148363508
 30
0.0
 10
277.0930220362629
 20
21.405618304707
 30
0.0
 10
276.9318658264614
 20
21.87678565686178
 30
0.0
 10
276.6544202129613
 20
22.35605819291171
 30
0.0
 10
276.3791071410254
 20
22.55821397160134
 30
0.0
 10
276.2520602876309
 20
22.65150142576197
 30
0.0
  0
SPLINE
  5
19B
330
1F
100
AcDbEntity
  8
0
  6
Continuous
 62
     7
370
    25
100
AcDbSpline
210
0.0
220
0.0
230
1.0
 70
     8
 71
     3
 72
    12
 73
     8
 74
     0
 42
0.000000001
 43
0.00000001
 40
0.0
 40
0.0
 40
0.0
 40
0.0
 40
0.1993451782306758
 40
0.4529903035704813
 40
0.7094035275351173
 40
0.9752346743238217
 40
0.9999999999999999
 40
0.9999999999999999
 40
0.9999999999999999
 40
0.9999999999999999
 10
272.1283499029606
 20
15.82535807554542
 30
0.0
 10
272.2408007451621
 20
15.75675846611812
 30
0.0
 10
272.4963330916062
 20
15.60087329159269
 30
0.0
 10
272.975119210142
 20
15.52512710936359
 30
0.0
 10
273.5154566991599
 20
15.58263656864448
 30
0.0
 10
273.9078594852041
 20
15.68709257039314
 30
0.0
 10
274.1120899209765
 20
15.8046932851084
 30
0.0
 10
274.1294949266601
 20
15.81471549898791
 30
0.0
  0
LINE
  5
19C
330
1F
100
AcDbEntity
  8
0
  6
Continuous
 62
     7
370
    25
100
AcDbLine
 10
267.1724710679
 20
18.6671224879
 30
0.0
 11
272.1929299055
 21
15.7688732919
 31
0.0
  0
LINE
  5
19D
330
1F
100
AcDbEntity
  8
0
  6
Continuous
 62
     7
370
    25
100
AcDbLine
 10
276.1926049138
 20
22.6972641766
 30
0.0
 11
271.1721460762
 21
25.5955133726
 31
0.0
  0
SPLINE
  5
19E
330
1F
100
AcDbEntity
  8
0
  6
Continuous
 62
     7
370
    25
100
AcDbSpline
210
0.0
220
0.0
230
1.0
 70
     8
 71
     3
 72
    10
 73
     6
 74
     0
 42
0.000000001
 43
0.00000001
 40
0.0
 40
0.0
 40
0.0
 40
0.0
 40
0.3417265301378457
 40
0.6669483817655609
 40
1.0
 40
1.0
 40
1.0
 40
1.0
 10
273.1134917394614
 20
17.41237291965458
 30
0.0
 10
273.0598075259895
 20
17.45336830517916
 30
0.0
 10
272.9550319345629
 20
17.53337908463034
 30
0.0
 10
272.8344705901438
 20
17.80450197406588
 30
0.0
 10
272.8164417817718
 20
18.06868990849524
 30
0.0
 10
272.8073201566752
 20
18.20235505392202
 30
0.0
  0
SPLINE
  5
19F
330
1F
100
AcDbEntity
  8
0
  6
Continuous
 62
     7
370
    25
100
AcDbSpline
210
0.0
220
0.0
230
1.0
 70
     8
 71
     3
 72
    17
 73
    13
 74
     0
 42
0.000000001
 43
0.00000001
 40
0.0
 40
0.0
 40
0.0
 40
0.0
 40
0.0553814742817335
 40
0.1627397846412287
 40
0.2712272108295571
 40
0.3804733841949571
 40
0.4898322058921138
 40
0.5983589591437147
 40
0.7053702556405812
 40
0.8107686438538193
 40
0.9162482478075097
 40
0.9999999999999999
 40
0.9999999999999999
 40
0.9999999999999999
 40
0.9999999999999999
 10
272.8073201566752
 20
18.20235505392202
 30
0.0
 10
272.8098797517124
 20
18.27938671990883
 30
0.0
 10
272.8174011828503
 20
18.50574610986432
 30
0.0
 10
272.9054089704475
 20
18.93361866040132
 30
0.0
 10
273.1039182675358
 20
19.46142200513466
 30
0.0
 10
273.3904819839187
 20
19.97352528248074
 30
0.0
 10
273.7418958448425
 20
20.42765952756913
 30
0.0
 10
274.1283982600407
 20
20.78845597685694
 30
0.0
 10
274.5140589329555
 20
21.03117388158793
 30
0.0
 10
274.8577342882871
 20
21.14224581494101
 30
0.0
 10
275.1059551115395
 20
21.14570955731012
 30
0.0
 10
275.2074532554665
 20
21.08932802754258
 30
0.0
 10
275.252375236534
 20
21.06437417208492
 30
0.0
  0
LINE
  5
1A0
330
1F
100
AcDbEntity
  8
0
  6
Continuous
 62
     7
370
    25
100
AcDbLine
 10
270.7569176296
 20
25.7515468481
 30
0.0
 11
270.4085544996
 21
25.822523121
 31
0.0
  0
LINE
  5
1A1
330
1F
100
AcDbEntity
  8
0
  6
Continuous
 62
     7
370
    25
100
AcDbLine
 10
266.5940277979
 20
19.2148529204
 30
0.0
 11
266.8297016149
 21
18.9486719297
 31
0.0
  0
LINE
  5
1A2
330
1F
100
AcDbEntity
  8
0
  6
Continuous
 62
     7
370
    25
100
AcDbLine
 10
266.7046374274
 20
19.0815307342
 30
0.0
 11
266.719841903
 21
19.0727533773
 31
0.0
  0
LINE
  5
1A3
330
1F
100
AcDbEntity
  8
0
  6
Continuous
 62
     7
370
    25
100
AcDbLine
 10
270.5945271393
 20
25.7846320528
 30
0.0
 11
270.5793226637
 21
25.7934094097
 31
0.0
  0
LINE
  5
1A4
330
1F
100
AcDbEntity
  8
0
  6
Continuous
 62
     7
370
    25
100
AcDbLine
 10
199.5744520474
 20
33.4425738565
 30
0.0
 11
205.3154419032
 21
30.1283709575
 31
0.0
  0
LINE
  5
1A5
330
1F
100
AcDbEntity
  8
0
  6
Continuous
 62
     7
370
    25
100
AcDbLine
 10
226.7791347806
 20
75.4711076693
 30
0.0
 11
224.5724196146
 21
76.7450172187
 31
0.0
  0
SPLINE
  5
1A6
330
1F
100
AcDbEntity
  8
0
  6
Continuous
 62
     7
370
    25
100
AcDbSpline
210
0.0
220
0.0
230
1.0
 70
     8
 71
     3
 72
    13
 73
     9
 74
     0
 42
0.000000001
 43
0.00000001
 40
0.0
 40
0.0
 40
0.0
 40
0.0
 40
0.0844388184821544
 40
0.2825700309755568
 40
0.4845333180601635
 40
0.6888418100737148
 40
0.8941672079551943
 40
0.9999999999999999
 40
0.9999999999999999
 40
0.9999999999999999
 40
0.9999999999999999
 10
218.9781597725103
 20
38.04638748907757
 30
0.0
 10
219.2505177748527
 20
38.00377946115567
 30
0.0
 10
220.1619493953056
 20
37.8611939538485
 30
0.0
 10
221.7642882090975
 20
37.46037634165306
 30
0.0
 10
223.7589399707995
 20
36.84008817722278
 30
0.0
 10
225.7547634143349
 20
36.04087577399456
 30
0.0
 10
227.4103901688198
 20
35.26404773163159
 30
0.0
 10
228.3620918422737
 20
34.70249388557409
 30
0.0
 10
228.6857897186471
 20
34.51149518029867
 30
0.0
  0
SPLINE
  5
1A7
330
1F
100
AcDbEntity
  8
0
  6
Continuous
 62
     7
370
    25
100
AcDbSpline
210
0.0
220
0.0
230
1.0
 70
     8
 71
     3
 72
    13
 73
     9
 74
     0
 42
0.000000001
 43
0.00000001
 40
0.0
 40
0.0
 40
0.0
 40
0.0
 40
0.1089725428719346
 40
0.3130220814314585
 40
0.5148048455380806
 40
0.7134819283209816
 40
0.9081656993388264
 40
0.9999999999999999
 40
0.9999999999999999
 40
0.9999999999999999
 40
0.9999999999999999
 10
238.2049534462224
 20
51.00051146652662
 30
0.0
 10
237.8681224728408
 20
51.19110589981901
 30
0.0
 10
236.9005802865269
 20
51.73858570203434
 30
0.0
 10
235.4025346673173
 20
52.78326901699737
 30
0.0
 10
233.7325596250072
 20
54.09703018372621
 30
0.0
 10
232.2193257225789
 20
55.49128194510401
 30
0.0
 10
231.0680504440648
 20
56.67894671347889
 30
0.0
 10
230.4778354481578
 20
57.4064484664416
 30
0.0
 10
230.2886607092968
 20
57.63962613066921
 30
0.0
  0
SPLINE
  5
1A8
330
1F
100
AcDbEntity
  8
0
  6
Continuous
 62
     7
370
    25
100
AcDbSpline
210
0.0
220
0.0
230
1.0
 70
     8
 71
     3
 72
    10
 73
     6
 74
     0
 42
0.000000001
 43
0.00000001
 40
0.0
 40
0.0
 40
0.0
 40
0.0
 40
0.2877671293385511
 40
0.7914668933538241
 40
1.0
 40
1.0
 40
1.0
 40
1.0
 10
194.5575484600624
 20
48.34431559692295
 30
0.0
 10
194.5134369880583
 20
48.01307188773044
 30
0.0
 10
194.3921139940504
 20
47.10202819048746
 30
0.0
 10
194.3323307688901
 20
45.98927890370402
 30
0.0
 10
194.3247600463592
 20
45.21689114218973
 30
0.0
 10
194.3225434310443
 20
44.99074541643226
 30
0.0
  0
SPLINE
  5
1A9
330
1F
100
AcDbEntity
  8
0
  6
Continuous
 62
     7
370
    25
100
AcDbSpline
210
0.0
220
0.0
230
1.0
 70
     8
 71
     3
 72
     9
 73
     5
 74
     0
 42
0.000000001
 43
0.00000001
 40
0.0
 40
0.0
 40
0.0
 40
0.0
 40
0.5696751866024141
 40
1.0
 40
1.0
 40
1.0
 40
1.0
 10
212.2646397014202
 20
75.68271239078102
 30
0.0
 10
212.035689800995
 20
75.56155608994617
 30
0.0
 10
211.633794289641
 20
75.34887998313266
 30
0.0
 10
211.2334637354531
 20
75.08164464857983
 30
0.0
 10
211.0611915644249
 20
74.96664665310516
 30
0.0
  0
SPLINE
  5
1AA
330
1F
100
AcDbEntity
  8
0
  6
Continuous
 62
     7
370
    25
100
AcDbSpline
210
0.0
220
0.0
230
1.0
 70
     8
 71
     3
 72
     9
 73
     5
 74
     0
 42
0.000000001
 43
0.00000001
 40
0.0
 40
0.0
 40
0.0
 40
0.0
 40
0.4109279501872297
 40
1.0
 40
1.0
 40
1.0
 40
1.0
 10
194.3225434310443
 20
44.99074541643226
 30
0.0
 10
194.3246470079168
 20
44.70580472795699
 30
0.0
 10
194.3297660972159
 20
44.01239682434412
 30
0.0
 10
194.3899572266924
 20
43.35314881373164
 30
0.0
 10
194.4254141387137
 20
42.96480423678516
 30
0.0
  0
LINE
  5
1AB
330
1F
100
AcDbEntity
  8
0
  6
Continuous
 62
     7
370
    25
100
AcDbLine
 10
212.8403975297
 20
75.9308519065
 30
0.0
 11
203.5050628796
 21
80.5819723682
 31
0.0
  0
LINE
  5
1AC
330
1F
100
AcDbEntity
  8
0
  6
Continuous
 62
     7
370
    25
100
AcDbLine
 10
185.7163400919
 20
49.7676623566
 30
0.0
 11
194.3446290897
 21
44.0543678961
 31
0.0
  0
SPLINE
  5
1AD
330
1F
100
AcDbEntity
  8
0
  6
Continuous
 62
     7
370
    25
100
AcDbSpline
210
0.0
220
0.0
230
1.0
 70
     8
 71
     3
 72
    19
 73
    15
 74
     0
 42
0.000000001
 43
0.00000001
 40
0.0
 40
0.0
 40
0.0
 40
0.0
 40
0.072442510174554
 40
0.1589362140549611
 40
0.2457677528397543
 40
0.3328715027427779
 40
0.4201657820890571
 40
0.5075747817831839
 40
0.5950391754240122
 40
0.6825142658309322
 40
0.7699726596253763
 40
0.8574036553126795
 40
0.9448034857975002
 40
1.0
 40
1.0
 40
1.0
 40
1.0
 10
213.0857837257691
 20
26.67636711379179
 30
0.0
 10
213.4349573233785
 20
26.65167634470496
 30
0.0
 10
214.2010314077561
 20
26.59750570164872
 30
0.0
 10
215.4407705950623
 20
26.68942302280179
 30
0.0
 10
216.785187397674
 20
26.91636966159367
 30
0.0
 10
218.1631761188551
 20
27.29131196122041
 30
0.0
 10
219.5638522119982
 20
27.80680112371187
 30
0.0
 10
220.9783792563711
 20
28.46081543794266
 30
0.0
 10
222.3973762698627
 20
29.24840549354753
 30
0.0
 10
223.8115389575113
 20
30.16464663228359
 30
0.0
 10
225.2125029602846
 20
31.20199336635545
 30
0.0
 10
226.5892353050785
 20
32.35863165476683
 30
0.0
 10
227.7758248409786
 20
33.45498028190685
 30
0.0
 10
228.4830121749565
 20
34.2035907085066
 30
0.0
 10
228.7567518406493
 20
34.49336451816881
 30
0.0
  0
SPLINE
  5
1AE
330
1F
100
AcDbEntity
  8
0
  6
Continuous
 62
     7
370
    25
100
AcDbSpline
210
0.0
220
0.0
230
1.0
 70
     8
 71
     3
 72
    10
 73
     6
 74
     0
 42
0.000000001
 43
0.00000001
 40
0.0
 40
0.0
 40
0.0
 40
0.0
 40
0.2251131927444588
 40
0.654498652535635
 40
1.0
 40
1.0
 40
1.0
 40
1.0
 10
238.2708931785345
 20
51.00155533991293
 30
0.0
 10
238.3663974602987
 20
51.31858787096741
 30
0.0
 10
238.6440685419623
 20
52.24033466801393
 30
0.0
 10
238.9718779347904
 20
53.63832886017401
 30
0.0
 10
239.1510338922683
 20
54.69963196316185
 30
0.0
 10
239.2309147524601
 20
55.17283869312168
 30
0.0
  0
LINE
  5
1AF
330
1F
100
AcDbEntity
  8
0
  6
Continuous
 62
     7
370
    25
100
AcDbLine
 10
207.6220447504
 20
28.7967974772
 30
0.0
 11
209.2794926171
 21
27.8399731903
 31
0.0
  0
SPLINE
  5
1B0
330
1F
100
AcDbEntity
  8
0
  6
Continuous
 62
     7
370
    25
100
AcDbSpline
210
0.0
220
0.0
230
1.0
 70
     8
 71
     3
 72
    10
 73
     6
 74
     0
 42
0.000000001
 43
0.00000001
 40
0.0
 40
0.0
 40
0.0
 40
0.0
 40
0.028148475011432
 40
0.6719752357242176
 40
1.0
 40
1.0
 40
1.0
 40
1.0
 10
236.8895051938986
 20
68.84398434284286
 30
0.0
 10
236.8791552590188
 20
68.8589793420243
 30
0.0
 10
236.6320761569434
 20
69.21694786804686
 30
0.0
 10
236.1979990498327
 20
69.67210184787997
 30
0.0
 10
235.7446426691982
 20
70.06599044624424
 30
0.0
 10
235.591623287053
 20
70.19893792979208
 30
0.0
  0
SPLINE
  5
1B1
330
1F
100
AcDbEntity
  8
0
  6
Continuous
 62
     7
370
    25
100
AcDbSpline
210
0.0
220
0.0
230
1.0
 70
     8
 71
     3
 72
    12
 73
     8
 74
     0
 42
0.000000001
 43
0.00000001
 40
0.0
 40
0.0
 40
0.0
 40
0.0
 40
0.1180490526010331
 40
0.3415715706442001
 40
0.5648880326714045
 40
0.7876618717436215
 40
0.9999999999999999
 40
0.9999999999999999
 40
0.9999999999999999
 40
0.9999999999999999
 10
239.2536365136191
 20
63.33408685263572
 30
0.0
 10
239.2009648594695
 20
63.58739898151978
 30
0.0
 10
239.0485609287314
 20
64.32035040992794
 30
0.0
 10
238.7109320128156
 20
65.46467362821951
 30
0.0
 10
238.2037966128521
 20
66.72366549680208
 30
0.0
 10
237.605301238269
 20
67.86477370672684
 30
0.0
 10
237.1242581012059
 20
68.52284182535855
 30
0.0
 10
236.8895051938986
 20
68.84398434284286
 30
0.0
  0
SPLINE
  5
1B2
330
1F
100
AcDbEntity
  8
0
  6
Continuous
 62
     7
370
    25
100
AcDbSpline
210
0.0
220
0.0
230
1.0
 70
     8
 71
     3
 72
    28
 73
    24
 74
     0
 42
0.000000001
 43
0.00000001
 40
0.0
 40
0.0
 40
0.0
 40
0.0
 40
0.0173646859913571
 40
0.0666529697132405
 40
0.116022427525708
 40
0.1657775298981347
 40
0.2161025423756545
 40
0.2670303082661907
 40
0.3184683026004565
 40
0.3702610478330405
 40
0.4222524658896515
 40
0.4743219123752864
 40
0.5263766481100202
 40
0.5783840758737929
 40
0.6303339792540638
 40
0.6822286908839886
 40
0.734077400466319
 40
0.7858927912084067
 40
0.8376893382521449
 40
0.8894823799690259
 40
0.9412855244705658
 40
0.9931116107064701
 40
1.0
 40
1.0
 40
1.0
 40
1.0
 10
203.670888996504
 20
80.47589409582396
 30
0.0
 10
203.5675868483642
 20
80.53679674488443
 30
0.0
 10
203.1710697472369
 20
80.77056673216227
 30
0.0
 10
202.4039071756002
 20
81.03391610532648
 30
0.0
 10
201.3837233427816
 20
81.2613153357466
 30
0.0
 10
200.3048762117998
 20
81.33499754361367
 30
0.0
 10
199.1805875619043
 20
81.26598597946862
 30
0.0
 10
198.0169648390995
 20
81.05028568733074
 30
0.0
 10
196.8243858855257
 20
80.68935703987253
 30
0.0
 10
195.6141018508315
 20
80.18564242891152
 30
0.0
 10
194.3981533390003
 20
79.54410328776696
 30
0.0
 10
193.1884444938505
 20
78.77151718938026
 30
0.0
 10
191.9962411359143
 20
77.87599910672056
 30
0.0
 10
190.8320589464704
 20
76.86656136504375
 30
0.0
 10
189.7057018941782
 20
75.75277384986738
 30
0.0
 10
188.6265020779681
 20
74.54484660691139
 30
0.0
 10
187.6034655811285
 20
73.25358549239604
 30
0.0
 10
186.644903957876
 20
71.89036528620211
 30
0.0
 10
185.7596683057369
 20
70.46702576982025
 30
0.0
 10
184.9523429358864
 20
68.9959697944797
 30
0.0
 10
184.2409679736585
 20
67.48948856338454
 30
0.0
 10
183.7786824797006
 20
66.40372792401081
 30
0.0
 10
183.5804104396535
 20
65.82427963242598
 30
0.0
 10
183.5571491401946
 20
65.75629868953386
 30
0.0
  0
LINE
  5
1B3
330
1F
100
AcDbEntity
  8
0
  6
Continuous
 62
     7
370
    25
100
AcDbLine
 10
183.9410502953
 20
63.4234840364
 30
0.0
 11
187.7209364034
 21
61.2414022331
 31
0.0
  0
LINE
  5
1B4
330
1F
100
AcDbEntity
  8
0
  6
Continuous
 62
     7
370
    25
100
AcDbLine
 10
183.4356114585
 20
65.1931309181
 30
0.0
 11
183.4356114585
 21
64.540625975
 31
0.0
  0
LINE
  5
1B5
330
1F
100
AcDbEntity
  8
0
  6
Continuous
 62
     7
370
    25
100
AcDbLine
 10
183.4356114585
 20
53.0348380461
 30
0.0
 11
183.4356114585
 21
52.382333103
 31
0.0
  0
SPLINE
  5
1B6
330
1F
100
AcDbEntity
  8
0
  6
Continuous
 62
     7
370
    25
100
AcDbSpline
210
0.0
220
0.0
230
1.0
 70
     8
 71
     3
 72
    10
 73
     6
 74
     0
 42
0.000000001
 43
0.00000001
 40
0.0
 40
0.0
 40
0.0
 40
0.0
 40
0.3295006286484303
 40
0.6892241807213073
 40
1.0
 40
1.0
 40
1.0
 40
1.0
 10
183.5678471957267
 20
52.04678940149233
 30
0.0
 10
183.7506023146587
 20
51.7653959328197
 30
0.0
 10
184.1328754764283
 20
51.17679862512487
 30
0.0
 10
184.8072027272297
 20
50.44810752352124
 30
0.0
 10
185.329984503962
 20
50.05755662882977
 30
0.0
 10
185.5722933589881
 20
49.87653666154313
 30
0.0
  0
SPLINE
  5
1B7
330
1F
100
AcDbEntity
  8
0
  6
Continuous
 62
     7
370
    25
100
AcDbSpline
210
0.0
220
0.0
230
1.0
 70
     8
 71
     3
 72
     9
 73
     5
 74
     0
 42
0.000000001
 43
0.00000001
 40
0.0
 40
0.0
 40
0.0
 40
0.0
 40
0.3544518289669109
 40
1.0
 40
1.0
 40
1.0
 40
1.0
 10
183.4818781614766
 20
52.18255567455986
 30
0.0
 10
183.4908196569792
 20
52.16532364235102
 30
0.0
 10
183.5160459212325
 20
52.11670763644952
 30
0.0
 10
183.5475255675936
 20
52.07421830907037
 30
0.0
 10
183.5678471957267
 20
52.04678940149233
 30
0.0
  0
LWPOLYLINE
  5
1B8
330
1F
100
AcDbEntity
  8
0
  6
Continuous
 62
     7
370
    25
100
AcDbPolyline
 90
        9
 70
   128
 43
0.0
 10
262.1445461465
 20
19.291733213
 10
262.3078197449
 20
19.8347903464
 10
262.5783965855
 20
20.3642797362
 10
262.9322351838
 20
20.8331539418
 10
263.3378946494
 20
21.1997511972
 10
263.7593315244
 20
21.4314982702
 10
264.1590983338
 20
21.5078030581
 10
264.5016745039
 20
21.421885565
 10
264.5153715712
 20
21.4141921026
  0
ARC
  5
1B9
330
1F
100
AcDbEntity
  8
0
  6
Continuous
 62
     7
370
    25
100
AcDbCircle
 10
263.251870982
 20
18.8757494812
 30
0.0
 40
1.182882393348862
100
AcDbArc
 50
159.4105330386
 51
231.5015178061
  0
ARC
  5
1BA
330
1F
100
AcDbEntity
  8
0
  6
Continuous
 62
     7
370
    25
100
AcDbCircle
 10
264.6632346636
 20
19.1109601624
 30
0.0
 40
1.426532799205271
100
AcDbArc
 50
327.7778607405
 51
10.1844892552
  0
LINE
  5
1BB
330
1F
100
AcDbEntity
  8
0
  6
Continuous
 62
     7
370
    25
100
AcDbLine
 10
266.0689327247
 20
19.371632902
 30
0.0
 11
266.0672903147
 21
19.3631972651
 31
0.0
  0
LINE
  5
1BC
330
1F
100
AcDbEntity
  8
0
  6
Continuous
 62
     7
370
    25
100
AcDbLine
 10
266.0689327247
 20
19.371632902
 30
0.0
 11
266.0641388499
 21
19.3742519108
 31
0.0
  0
ARC
  5
1BD
330
1F
100
AcDbEntity
  8
0
  6
Continuous
 62
     7
370
    25
100
AcDbCircle
 10
265.6363254419
 20
19.2751893516
 30
0.0
 40
0.4391328987086378
100
AcDbArc
 50
13.0373829944
 51
109.6675786904
  0
LINE
  5
1BE
330
1F
100
AcDbEntity
  8
0
  6
Continuous
 62
     7
370
    25
100
AcDbLine
 10
265.4837359162
 20
19.6913227473
 30
0.0
 11
265.4885297909
 21
19.6887037386
 31
0.0
  0
LINE
  5
1BF
330
1F
100
AcDbEntity
  8
0
  6
Continuous
 62
     7
370
    25
100
AcDbLine
 10
265.4837359162
 20
19.6913227473
 30
0.0
 11
265.4772993022
 21
19.6855059052
 31
0.0
  0
ARC
  5
1C0
330
1F
100
AcDbEntity
  8
0
  6
Continuous
 62
     7
370
    25
100
AcDbCircle
 10
266.009850243
 20
18.3194080697
 30
0.0
 40
1.466231155294182
100
AcDbArc
 50
111.2975115881
 51
152.9111317659
  0
LINE
  5
1C1
330
1F
100
AcDbEntity
  8
0
  6
Continuous
 62
     7
370
    25
100
AcDbLine
 10
264.6980261344
 20
18.9812717574
 30
0.0
 11
264.7044627485
 21
18.9870885995
 31
0.0
  0
LINE
  5
1C2
330
1F
100
AcDbEntity
  8
0
  6
Continuous
 62
     7
370
    25
100
AcDbLine
 10
264.6980261344
 20
18.9812717574
 30
0.0
 11
264.6963837244
 21
18.9728361442
 31
0.0
  0
ARC
  5
1C3
330
1F
100
AcDbEntity
  8
0
  6
Continuous
 62
     7
370
    25
100
AcDbCircle
 10
265.9032072215
 20
18.2122057547
 30
0.0
 40
1.426527792381142
100
AcDbArc
 50
147.77780403
 51
190.1845778226
  0
LINE
  5
1C4
330
1F
100
AcDbEntity
  8
0
  6
Continuous
 62
     7
370
    25
100
AcDbLine
 10
264.4975138197
 20
17.9515313499
 30
0.0
 11
264.4991568883
 21
17.959967367
 31
0.0
  0
LINE
  5
1C5
330
1F
100
AcDbEntity
  8
0
  6
Continuous
 62
     7
370
    25
100
AcDbLine
 10
264.4975138197
 20
17.9515313499
 30
0.0
 11
264.5023080238
 21
17.9489125312
 31
0.0
  0
ARC
  5
1C6
330
1F
100
AcDbEntity
  8
0
  6
Continuous
 62
     7
370
    25
100
AcDbCircle
 10
264.9301214318
 20
18.0479750904
 30
0.0
 40
0.4391328987086829
100
AcDbArc
 50
193.0373829944
 51
289.6675786904
  0
LINE
  5
1C7
330
1F
100
AcDbEntity
  8
0
  6
Continuous
 62
     7
370
    25
100
AcDbLine
 10
265.0827109575
 20
17.6318416947
 30
0.0
 11
265.0779170828
 21
17.6344607034
 31
0.0
  0
LINE
  5
1C8
330
1F
100
AcDbEntity
  8
0
  6
Continuous
 62
     7
370
    25
100
AcDbLine
 10
265.0827109575
 20
17.6318416947
 30
0.0
 11
265.0891475715
 21
17.6376585367
 31
0.0
  0
ARC
  5
1C9
330
1F
100
AcDbEntity
  8
0
  6
Continuous
 62
     7
370
    25
100
AcDbCircle
 10
264.5565976559
 20
19.0037548041
 30
0.0
 40
1.466229321900895
100
AcDbArc
 50
291.2974965198
 51
332.9111556066
  0
LINE
  5
1CA
330
1F
100
AcDbEntity
  8
0
  6
Continuous
 62
     7
370
    25
100
AcDbLine
 10
265.86842041
 20
18.3418924945
 30
0.0
 11
265.861983796
 21
18.3360756524
 31
0.0
  0
LINE
  5
1CB
330
1F
100
AcDbEntity
  8
0
  6
Continuous
 62
     7
370
    25
100
AcDbLine
 10
265.86842041
 20
18.3418924945
 30
0.0
 11
265.8700631493
 21
18.3503282978
 31
0.0
  0
SPLINE
  5
1CC
330
1F
100
AcDbEntity
  8
0
  6
Continuous
 62
     7
370
    25
100
AcDbSpline
210
0.0
220
0.0
230
1.0
 70
     8
 71
     3
 72
     9
 73
     5
 74
     0
 42
0.000000001
 43
0.00000001
 40
0.0
 40
0.0
 40
0.0
 40
0.0
 40
0.0617757991969317
 40
1.0
 40
1.0
 40
1.0
 40
1.0
 10
265.2071653328014
 20
19.55412105187956
 30
0.0
 10
265.2118893457427
 20
19.55770366187669
 30
0.0
 10
265.2883596302661
 20
19.61569740770776
 30
0.0
 10
265.3858404437937
 20
19.6517141376098
 30
0.0
 10
265.4772993021592
 20
19.68550590523771
 30
0.0
  0
SPLINE
  5
1CD
330
1F
100
AcDbEntity
  8
0
  6
Continuous
 62
     7
370
    25
100
AcDbSpline
210
0.0
220
0.0
230
1.0
 70
     8
 71
     3
 72
     9
 73
     5
 74
     0
 42
0.000000001
 43
0.00000001
 40
0.0
 40
0.0
 40
0.0
 40
0.0
 40
0.4621326819428524
 40
1.0
 40
1.0
 40
1.0
 40
1.0
 10
264.4991568882796
 20
17.95996736701494
 30
0.0
 10
264.490801761655
 20
18.01031212278582
 30
0.0
 10
264.4727222642485
 20
18.11925216909294
 30
0.0
 10
264.4795819024538
 20
18.22434936018196
 30
0.0
 10
264.483271477658
 20
18.28087770448834
 30
0.0
  0
SPLINE
  5
1CE
330
1F
100
AcDbEntity
  8
0
  6
Continuous
 62
     7
370
    25
100
AcDbSpline
210
0.0
220
0.0
230
1.0
 70
     8
 71
     3
 72
    10
 73
     6
 74
     0
 42
0.000000001
 43
0.00000001
 40
0.0
 40
0.0
 40
0.0
 40
0.0
 40
0.4395941758146564
 40
0.7571236183049167
 40
1.0
 40
1.0
 40
1.0
 40
1.0
 10
265.4885297909261
 20
19.68870373859782
 30
0.0
 10
265.5240949582021
 20
19.67073083669344
 30
0.0
 10
265.5853497009061
 20
19.63977567561544
 30
0.0
 10
265.8267571208319
 20
19.50675838319357
 30
0.0
 10
265.9923653000876
 20
19.41431590364105
 30
0.0
 10
266.0641388499347
 20
19.3742519107636
 30
0.0
  0
LINE
  5
1CF
330
1F
100
AcDbEntity
  8
0
  6
Continuous
 62
     7
370
    25
100
AcDbLine
 10
264.4979076293
 20
17.96944147
 30
0.0
 11
265.0827109575
 21
17.6318416947
 31
0.0
  0
SPLINE
  5
1D0
330
1F
100
AcDbEntity
  8
0
  6
Continuous
 62
     7
370
    25
100
AcDbSpline
210
0.0
220
0.0
230
1.0
 70
     8
 71
     3
 72
    10
 73
     6
 74
     0
 42
0.000000001
 43
0.00000001
 40
0.0
 40
0.0
 40
0.0
 40
0.0
 40
0.4395941758146564
 40
0.7571236183049167
 40
1.0
 40
1.0
 40
1.0
 40
1.0
 10
265.077917082759
 20
17.63446070338848
 30
0.0
 10
264.9483801708699
 20
17.7066823387412
 30
0.0
 10
264.7252756330271
 20
17.83107139775636
 30
0.0
 10
264.5573241678699
 20
17.92168347011079
 30
0.0
 10
264.5189424293437
 20
17.94067968877779
 30
0.0
 10
264.5023080237503
 20
17.9489125312227
 30
0.0
  0
LINE
  5
1D1
330
1F
100
AcDbEntity
  8
0
  6
Continuous
 62
     7
370
    25
100
AcDbLine
 10
264.5781713633
 20
18.7160885232
 30
0.0
 11
264.873486099
 21
18.9162558466
 31
0.0
  0
SPLINE
  5
1D2
330
1F
100
AcDbEntity
  8
0
  6
Continuous
 62
     7
370
    25
100
AcDbSpline
210
0.0
220
0.0
230
1.0
 70
     8
 71
     3
 72
     9
 73
     5
 74
     0
 42
0.000000001
 43
0.00000001
 40
0.0
 40
0.0
 40
0.0
 40
0.0
 40
0.3382574851333444
 40
1.0
 40
1.0
 40
1.0
 40
1.0
 10
264.8734860989626
 20
18.91625584658345
 30
0.0
 10
264.8717784024254
 20
18.95483479578034
 30
0.0
 10
264.8667298917129
 20
19.06888681500375
 30
0.0
 10
264.8842313045032
 20
19.17548184081112
 30
0.0
 10
264.8958127334168
 20
19.24602030126118
 30
0.0
  0
LINE
  5
1D3
330
1F
100
AcDbEntity
  8
0
  6
Continuous
 62
     7
370
    25
100
AcDbLine
 10
264.873486099
 20
18.9162558466
 30
0.0
 11
265.86842041
 21
18.3418924945
 31
0.0
  0
SPLINE
  5
1D4
330
1F
100
AcDbEntity
  8
0
  6
Continuous
 62
     7
370
    25
100
AcDbSpline
210
0.0
220
0.0
230
1.0
 70
     8
 71
     3
 72
    10
 73
     6
 74
     0
 42
0.000000001
 43
0.00000001
 40
0.0
 40
0.0
 40
0.0
 40
0.0
 40
0.439594112795172
 40
0.7571232882828568
 40
1.0
 40
1.0
 40
1.0
 40
1.0
 10
265.861983795958
 20
18.33607565240911
 30
0.0
 10
265.7041614614394
 20
18.26303639479509
 30
0.0
 10
265.4323403396427
 20
18.13723916210049
 30
0.0
 10
265.1942577701778
 20
17.86768830933876
 30
0.0
 10
265.1209281920083
 20
17.70720924634783
 30
0.0
 10
265.0891475715259
 20
17.6376585367486
 30
0.0
  0
SPLINE
  5
1D5
330
1F
100
AcDbEntity
  8
0
  6
Continuous
 62
     7
370
    25
100
AcDbSpline
210
0.0
220
0.0
230
1.0
 70
     8
 71
     3
 72
    11
 73
     7
 74
     0
 42
0.000000001
 43
0.00000001
 40
0.0
 40
0.0
 40
0.0
 40
0.0
 40
0.1784106531661107
 40
0.516527894568313
 40
0.8702841645172397
 40
1.0
 40
1.0
 40
1.0
 40
1.0
 10
266.0672903146776
 20
19.36319726505619
 30
0.0
 10
266.0354845722999
 20
19.31824480481121
 30
0.0
 10
265.9434017686444
 20
19.18810011202547
 30
0.0
 10
265.837825433456
 20
18.90611158143773
 30
0.0
 10
265.8357534324204
 20
18.5868691389629
 30
0.0
 10
265.862805156578
 20
18.4003669414009
 30
0.0
 10
265.8700631492542
 20
18.350328297797
 30
0.0
  0
LWPOLYLINE
  5
1D6
330
1F
100
AcDbEntity
  8
0
  6
Continuous
 62
     7
370
    25
100
AcDbPolyline
 90
        9
 70
   128
 43
0.0
 10
272.0600799109
 20
25.0829201774
 10
272.0635639406
 20
25.0981731677
 10
272.2464697386
 20
25.6423508071
 10
272.5332000174
 20
26.1647236953
 10
272.8982776656
 20
26.6188766611
 10
273.3092634392
 20
26.9644560285
 10
273.7296400575
 20
27.1707560214
 10
274.122054876
 20
27.2194455745
 10
274.4148668133
 20
27.1290490617
  0
ARC
  5
1D7
330
1F
100
AcDbEntity
  8
0
  6
Continuous
 62
     7
370
    25
100
AcDbCircle
 10
274.9469033335
 20
24.7846432079
 30
0.0
 40
1.050773680970495
100
AcDbArc
 50
333.8131682449
 51
26.1868317551
  0
LINE
  5
1D8
330
1F
100
AcDbEntity
  8
0
  6
Continuous
 62
     7
370
    25
100
AcDbLine
 10
275.8898254115
 20
25.2560732608
 30
0.0
 11
275.8898254115
 21
25.2483492392
 31
0.0
  0
LINE
  5
1D9
330
1F
100
AcDbEntity
  8
0
  6
Continuous
 62
     7
370
    25
100
AcDbLine
 10
275.8898254115
 20
25.2560732608
 30
0.0
 11
275.8840321954
 21
25.2565909192
 31
0.0
  0
ARC
  5
1DA
330
1F
100
AcDbEntity
  8
0
  6
Continuous
 62
     7
370
    25
100
AcDbCircle
 10
275.5038352355
 20
24.924924892
 30
0.0
 40
0.5045315470164137
100
AcDbArc
 50
41.0999212461
 51
128.6810159
  0
LINE
  5
1DB
330
1F
100
AcDbEntity
  8
0
  6
Continuous
 62
     7
370
    25
100
AcDbLine
 10
275.1827185144
 20
25.3192991909
 30
0.0
 11
275.1885110719
 21
25.3187811524
 31
0.0
  0
LINE
  5
1DC
330
1F
100
AcDbEntity
  8
0
  6
Continuous
 62
     7
370
    25
100
AcDbLine
 10
275.1827185144
 20
25.3192991909
 30
0.0
 11
275.1769256276
 21
25.3120930177
 31
0.0
  0
ARC
  5
1DD
330
1F
100
AcDbEntity
  8
0
  6
Continuous
 62
     7
370
    25
100
AcDbCircle
 10
276.137032104
 20
23.8281337107
 30
0.0
 40
1.767467021204989
100
AcDbArc
 50
122.902453611
 51
159.5083995959
  0
LINE
  5
1DE
330
1F
100
AcDbEntity
  8
0
  6
Continuous
 62
     7
370
    25
100
AcDbLine
 10
274.4756116173
 20
24.4396650152
 30
0.0
 11
274.4814041748
 21
24.4468709982
 31
0.0
  0
LINE
  5
1DF
330
1F
100
AcDbEntity
  8
0
  6
Continuous
 62
     7
370
    25
100
AcDbLine
 10
274.4756116173
 20
24.4396650152
 30
0.0
 11
274.4756116173
 21
24.4319409936
 31
0.0
  0
ARC
  5
1E0
330
1F
100
AcDbEntity
  8
0
  6
Continuous
 62
     7
370
    25
100
AcDbCircle
 10
275.6820548667
 20
23.9197323247
 30
0.0
 40
1.310672741226694
100
AcDbArc
 50
156.9958194069
 51
187.8105639736
  0
LWPOLYLINE
  5
1E1
330
1F
100
AcDbEntity
  8
0
  6
Continuous
 62
     7
370
    25
100
AcDbPolyline
 90
        3
 70
   128
 43
0.0
 10
275.1769256276
 20
23.4340968278
 10
275.0722720393
 20
23.3823593343
 10
275.0326270014
 20
23.3669050301
  0
LINE
  5
1E2
330
1F
100
AcDbEntity
  8
0
  6
Continuous
 62
     7
370
    25
100
AcDbLine
 10
275.1827185144
 20
23.4335789793
 30
0.0
 11
275.1769256276
 21
23.4340968278
 31
0.0
  0
LINE
  5
1E3
330
1F
100
AcDbEntity
  8
0
  6
Continuous
 62
     7
370
    25
100
AcDbLine
 10
275.1827185144
 20
23.4335789793
 30
0.0
 11
275.1885110719
 21
23.4407849624
 31
0.0
  0
ARC
  5
1E4
330
1F
100
AcDbEntity
  8
0
  6
Continuous
 62
     7
370
    25
100
AcDbCircle
 10
274.2284065974
 20
24.924742166
 30
0.0
 40
1.767464167706116
100
AcDbArc
 50
302.9024361636
 51
339.5084312408
  0
LINE
  5
1E5
330
1F
100
AcDbEntity
  8
0
  6
Continuous
 62
     7
370
    25
100
AcDbLine
 10
275.8898254115
 20
24.313213155
 30
0.0
 11
275.8840321954
 21
24.3060067918
 31
0.0
  0
LINE
  5
1E6
330
1F
100
AcDbEntity
  8
0
  6
Continuous
 62
     7
370
    25
100
AcDbLine
 10
275.8898254115
 20
24.313213155
 30
0.0
 11
275.8898254115
 21
24.3209371766
 31
0.0
  0
SPLINE
  5
1E7
330
1F
100
AcDbEntity
  8
0
  6
Continuous
 62
     7
370
    25
100
AcDbSpline
210
0.0
220
0.0
230
1.0
 70
     8
 71
     3
 72
     9
 73
     5
 74
     0
 42
0.000000001
 43
0.00000001
 40
0.0
 40
0.0
 40
0.0
 40
0.0
 40
0.9442783302765648
 40
1.0
 40
1.0
 40
1.0
 40
1.0
 10
274.4186448831738
 20
23.72134952183762
 30
0.0
 10
274.388390487839
 20
23.82642975249937
 30
0.0
 10
274.3563507868687
 20
23.93771074592318
 30
0.0
 10
274.3711829238579
 20
24.02304441964437
 30
0.0
 10
274.3720093952965
 20
24.02779935442775
 30
0.0
  0
SPLINE
  5
1E8
330
1F
100
AcDbEntity
  8
0
  6
Continuous
 62
     7
370
    25
100
AcDbSpline
210
0.0
220
0.0
230
1.0
 70
     8
 71
     3
 72
    10
 73
     6
 74
     0
 42
0.000000001
 43
0.00000001
 40
0.0
 40
0.0
 40
0.0
 40
0.0
 40
0.4395943805166416
 40
0.7571237413483523
 40
1.0
 40
1.0
 40
1.0
 40
1.0
 10
275.1885110718749
 20
25.3187811523523
 30
0.0
 10
275.2412735571154
 20
25.33698650287062
 30
0.0
 10
275.3321476264817
 20
25.3683420062799
 30
0.0
 10
275.6161940912058
 20
25.32502555366423
 30
0.0
 10
275.803050016639
 20
25.27728247022504
 30
0.0
 10
275.8840321954364
 20
25.25659091917868
 30
0.0
  0
LINE
  5
1E9
330
1F
100
AcDbEntity
  8
0
  6
Continuous
 62
     7
370
    25
100
AcDbLine
 10
274.5374719956
 20
24.5514430413
 30
0.0
 11
274.8948911005
 21
24.8875765071
 31
0.0
  0
SPLINE
  5
1EA
330
1F
100
AcDbEntity
  8
0
  6
Continuous
 62
     7
370
    25
100
AcDbSpline
210
0.0
220
0.0
230
1.0
 70
     8
 71
     3
 72
     9
 73
     5
 74
     0
 42
0.000000001
 43
0.00000001
 40
0.0
 40
0.0
 40
0.0
 40
0.0
 40
0.6786713194278913
 40
1.0
 40
1.0
 40
1.0
 40
1.0
 10
274.8948911004567
 20
24.88757650712414
 30
0.0
 10
274.8857749008678
 20
24.92360651695542
 30
0.0
 10
274.872342478828
 20
24.97669555843967
 30
0.0
 10
274.8696631472949
 20
25.02585819244307
 30
0.0
 10
274.8688022012285
 20
25.04165555676083
 30
0.0
  0
LINE
  5
1EB
330
1F
100
AcDbEntity
  8
0
  6
Continuous
 62
     7
370
    25
100
AcDbLine
 10
274.390189175
 20
23.8910964284
 30
0.0
 11
275.1827185144
 21
23.4335789793
 31
0.0
  0
SPLINE
  5
1EC
330
1F
100
AcDbEntity
  8
0
  6
Continuous
 62
     7
370
    25
100
AcDbSpline
210
0.0
220
0.0
230
1.0
 70
     8
 71
     3
 72
     9
 73
     5
 74
     0
 42
0.000000001
 43
0.00000001
 40
0.0
 40
0.0
 40
0.0
 40
0.0
 40
0.9874377562384344
 40
1.0
 40
1.0
 40
1.0
 40
1.0
 10
275.1769256276182
 20
23.4340968277797
 30
0.0
 10
275.0185917560615
 20
23.47688208509743
 30
0.0
 10
274.8582435512695
 20
23.52021165908567
 30
0.0
 10
274.7658362910602
 20
23.52157321781617
 30
0.0
 10
274.764675448532
 20
23.52159032204885
 30
0.0
  0
SPLINE
  5
1ED
330
1F
100
AcDbEntity
  8
0
  6
Continuous
 62
     7
370
    25
100
AcDbSpline
210
0.0
220
0.0
230
1.0
 70
     8
 71
     3
 72
    11
 73
     7
 74
     0
 42
0.000000001
 43
0.00000001
 40
0.0
 40
0.0
 40
0.0
 40
0.0
 40
0.1784106253049963
 40
0.5165278304741914
 40
0.8702841315496712
 40
1.0
 40
1.0
 40
1.0
 40
1.0
 10
275.8898254114731
 20
25.24834923923119
 30
0.0
 10
275.8691023830606
 20
25.20819883279024
 30
0.0
 10
275.8091058391973
 20
25.09195686403893
 30
0.0
 10
275.7635587058114
 20
24.83597848703586
 30
0.0
 10
275.8175778364686
 20
24.5410398372791
 30
0.0
 10
275.8745419154577
 20
24.3674984368066
 30
0.0
 10
275.8898254114731
 20
24.32093717662805
 30
0.0
  0
LINE
  5
1EE
330
1F
100
AcDbEntity
  8
0
  6
Continuous
 62
     7
370
    25
100
AcDbLine
 10
274.8948911005
 20
24.8875765071
 30
0.0
 11
275.8898254115
 21
24.313213155
 31
0.0
  0
SPLINE
  5
1EF
330
1F
100
AcDbEntity
  8
0
  6
Continuous
 62
     7
370
    25
100
AcDbSpline
210
0.0
220
0.0
230
1.0
 70
     8
 71
     3
 72
    10
 73
     6
 74
     0
 42
0.000000001
 43
0.00000001
 40
0.0
 40
0.0
 40
0.0
 40
0.0
 40
0.4395940571515967
 40
0.7571234211314812
 40
1.0
 40
1.0
 40
1.0
 40
1.0
 10
275.8840321954364
 20
24.30600679181765
 30
0.0
 10
275.7372980693734
 20
24.20904519243847
 30
0.0
 10
275.4845743536767
 20
24.04204589696109
 30
0.0
 10
275.2739839122955
 20
23.71318149986553
 30
0.0
 10
275.2143542223311
 20
23.52314544867972
 30
0.0
 10
275.1885110718749
 20
23.44078496238813
 30
0.0
  0
LWPOLYLINE
  5
1F0
330
1F
100
AcDbEntity
  8
0
  6
Continuous
 62
     7
370
    25
100
AcDbPolyline
 90
       11
 70
   128
 43
0.0
 10
279.737435537
 20
19.1695878459
 10
279.6718273407
 20
19.1549704671
 10
279.1586430739
 20
18.9550233681
 10
278.6404119277
 20
18.6075443989
 10
278.1472516944
 20
18.1327276299
 10
277.7078229719
 20
17.5581676175
 10
277.3476636634
 20
16.917255816
 10
277.0877051945
 20
16.2472397773
 10
276.9430552348
 20
15.5870582993
 10
276.9221202695
 20
14.9750786788
 10
276.9769266484
 20
14.6151994682
  0
LWPOLYLINE
  5
1F1
330
1F
100
AcDbEntity
  8
0
  6
Continuous
 62
     7
370
    25
100
AcDbPolyline
 90
        3
 70
   128
 43
0.0
 10
277.7813354722
 20
13.536547759
 10
277.3533340609
 20
13.6574158723
 10
277.3055161563
 20
13.6834420685
  0
LWPOLYLINE
  5
1F2
330
1F
100
AcDbEntity
  8
0
  6
Continuous
 62
     7
370
    25
100
AcDbPolyline
 90
       15
 70
   128
 43
0.0
 10
277.8682427677
 20
20.8639370375
 10
277.6157032966
 20
20.9701471143
 10
277.1536046733
 20
21.011465596
 10
276.6424352645
 20
20.8930920454
 10
276.1097524517
 20
20.6214075407
 10
275.584273231
 20
20.2110588555
 10
275.0943263656
 20
19.6841681379
 10
274.6663249544
 20
19.0691401137
 10
274.3233427915
 20
18.3991309148
 10
274.0838701605
 20
17.710261269
 10
273.9608168387
 20
17.0396679543
 10
273.9608168387
 20
16.4235030393
 10
274.0838701605
 20
15.8949840658
 10
274.3233427915
 20
15.4826036345
 10
274.6185070498
 20
15.234619408
  0
LINE
  5
1F3
330
1F
100
AcDbEntity
  8
0
  6
Continuous
 62
     7
370
    25
100
AcDbLine
 10
280.1492564686
 20
16.3201211049
 30
0.0
 11
280.1492564686
 21
17.7568042341
 31
0.0
  0
LINE
  5
1F4
330
1F
100
AcDbEntity
  8
0
  6
Continuous
 62
     7
370
    25
100
AcDbLine
 10
280.1492564686
 20
17.7568042341
 30
0.0
 11
279.0718024971
 21
17.8531448606
 31
0.0
  0
LINE
  5
1F5
330
1F
100
AcDbEntity
  8
0
  6
Continuous
 62
     7
370
    25
100
AcDbLine
 10
277.9943485257
 20
16.512802358
 30
0.0
 11
279.0718024971
 21
17.8531448606
 31
0.0
  0
LINE
  5
1F6
330
1F
100
AcDbEntity
  8
0
  6
Continuous
 62
     7
370
    25
100
AcDbLine
 10
277.9943485257
 20
15.0761192288
 30
0.0
 11
277.9943485257
 21
16.512802358
 31
0.0
  0
LINE
  5
1F7
330
1F
100
AcDbEntity
  8
0
  6
Continuous
 62
     7
370
    25
100
AcDbLine
 10
277.9943485257
 20
15.0761192288
 30
0.0
 11
279.0718024971
 21
14.9797786023
 31
0.0
  0
LINE
  5
1F8
330
1F
100
AcDbEntity
  8
0
  6
Continuous
 62
     7
370
    25
100
AcDbLine
 10
280.1492564686
 20
16.3201211049
 30
0.0
 11
279.0718024971
 21
14.9797786023
 31
0.0
  0
LINE
  5
1F9
330
1F
100
AcDbEntity
  8
0
  6
Continuous
 62
     7
370
    25
100
AcDbLine
 10
277.9943499251
 20
15.6017787325
 30
0.0
 11
279.0718024971
 21
14.9797786023
 31
0.0
  0
ARC
  5
1FA
330
1F
100
AcDbEntity
  8
0
  6
Continuous
 62
     7
370
    25
100
AcDbCircle
 10
276.2091431724
 20
18.0685913951
 30
0.0
 40
2.552649879971389
100
AcDbArc
 50
321.1211961458
 51
343.2437586151
  0
LWPOLYLINE
  5
1FB
330
1F
100
AcDbEntity
  8
0
  6
Continuous
 62
     7
370
    25
100
AcDbPolyline
 90
        3
 70
   128
 43
0.0
 10
277.9943509335
 20
16.2454050827
 10
278.0699151085
 20
16.3214032045
 10
278.1963183228
 20
16.4663566023
  0
LINE
  5
1FC
330
1F
100
AcDbEntity
  8
0
  6
Continuous
 62
     7
370
    25
100
AcDbLine
 10
278.7350453086
 20
17.1365278299
 30
0.0
 11
280.1492564686
 21
16.3201211049
 31
0.0
  0
LINE
  5
1FD
330
1F
100
AcDbEntity
  8
0
  6
Continuous
 62
     7
370
    25
100
AcDbLine
 10
278.7350453086
 20
17.1365278299
 30
0.0
 11
278.7350453086
 21
17.4342176827
 31
0.0
  0
LINE
  5
1FE
330
1F
100
AcDbEntity
  8
0
  6
Continuous
 62
     7
370
    25
100
AcDbLine
 10
278.1963183228
 20
16.4663566023
 30
0.0
 11
277.9943509335
 21
16.2151110928
 31
0.0
  0
LINE
  5
1FF
330
1F
100
AcDbEntity
  8
0
  6
Continuous
 62
     7
370
    25
100
AcDbLine
 10
278.7350453086
 20
17.1365278299
 30
0.0
 11
278.1963183228
 21
16.4663566023
 31
0.0
  0
LINE
  5
200
330
1F
100
AcDbEntity
  8
0
  6
Continuous
 62
     7
370
    25
100
AcDbLine
 10
272.9319720953
 20
30.9302684885
 30
0.0
 11
273.1776207213
 21
30.7729693551
 31
0.0
  0
LWPOLYLINE
  5
201
330
1F
100
AcDbEntity
  8
0
  6
Continuous
 62
     7
370
    25
100
AcDbPolyline
 90
        3
 70
   128
 43
0.0
 10
263.6204836711
 20
14.3752074627
 10
263.597297636
 20
14.3867097383
 10
263.4327441564
 20
14.4753398284
  0
SPLINE
  5
202
330
1F
100
AcDbEntity
  8
0
  6
Continuous
 62
     7
370
    25
100
AcDbSpline
210
0.0
220
0.0
230
1.0
 70
    11
 71
     3
 72
    72
 73
    68
 74
     0
 42
0.000000001
 43
0.00000001
 40
0.0
 40
0.0
 40
0.0
 40
0.0
 40
0.03125
 40
0.03125
 40
0.0624999999999999
 40
0.0624999999999999
 40
0.0937499999999999
 40
0.0937499999999999
 40
0.1249999999999999
 40
0.1249999999999999
 40
0.1562499999999998
 40
0.1562499999999998
 40
0.1874999999999998
 40
0.1874999999999998
 40
0.2187499999999998
 40
0.2187499999999998
 40
0.2499999999999997
 40
0.2499999999999997
 40
0.2812499999999997
 40
0.2812499999999997
 40
0.3124999999999997
 40
0.3124999999999997
 40
0.3437499999999997
 40
0.3437499999999997
 40
0.3749999999999996
 40
0.3749999999999996
 40
0.4062499999999996
 40
0.4062499999999996
 40
0.4374999999999996
 40
0.4374999999999996
 40
0.4687499999999996
 40
0.4687499999999996
 40
0.4999999999999995
 40
0.4999999999999995
 40
0.5312499999999994
 40
0.5312499999999994
 40
0.5624999999999994
 40
0.5624999999999994
 40
0.5937499999999993
 40
0.5937499999999993
 40
0.6249999999999993
 40
0.6249999999999993
 40
0.6562499999999993
 40
0.6562499999999993
 40
0.6874999999999993
 40
0.6874999999999993
 40
0.7031249999999992
 40
0.7031249999999992
 40
0.7187499999999992
 40
0.7187499999999992
 40
0.7499999999999993
 40
0.7499999999999993
 40
0.7812499999999994
 40
0.7812499999999994
 40
0.8124999999999994
 40
0.8124999999999994
 40
0.8437499999999996
 40
0.8437499999999996
 40
0.8749999999999997
 40
0.8749999999999997
 40
0.9062499999999998
 40
0.9062499999999998
 40
0.9374999999999998
 40
0.9374999999999998
 40
0.9687499999999999
 40
0.9687499999999999
 40
1.0
 40
1.0
 40
1.0
 40
1.0
 10
265.5101745975704
 20
33.44288503215831
 30
0.0
 10
265.412920630448
 20
33.49902855232969
 30
0.0
 10
265.3089153513748
 20
33.55170732419963
 30
0.0
 10
265.0877843794889
 20
33.65012807295673
 30
0.0
 10
264.9700124674356
 20
33.69609099020097
 30
0.0
 10
264.7230803893179
 20
33.77893458942433
 30
0.0
 10
264.5962559461906
 20
33.81509287322168
 30
0.0
 10
264.3357141982824
 20
33.87581594034564
 30
0.0
 10
264.200639821436
 20
33.90055548206169
 30
0.0
 10
263.9291982378307
 20
33.93490902161943
 30
0.0
 10
263.7943828976804
 20
33.94447534593628
 30
0.0
 10
263.5264721549165
 20
33.94660812396064
 30
0.0
 10
263.3915902407277
 20
33.9388740067962
 30
0.0
 10
263.134675152539
 20
33.90417895110472
 30
0.0
 10
263.0124053066656
 20
33.87753820845055
 30
0.0
 10
262.7806774332942
 20
33.80407462937562
 30
0.0
 10
262.6715551499442
 20
33.75689823053547
 30
0.0
 10
262.4787214213309
 20
33.64643132636083
 30
0.0
 10
262.3925764821963
 20
33.58198463869222
 30
0.0
 10
262.2465943207848
 20
33.438731557418
 30
0.0
 10
262.1877256740623
 20
33.36129952248035
 30
0.0
 10
262.0968913204727
 20
33.19613911044013
 30
0.0
 10
262.0654623482305
 20
33.10855403805354
 30
0.0
 10
262.031356392935
 20
32.93220483814515
 30
0.0
 10
262.028217943445
 20
32.84170534648421
 30
0.0
 10
262.0488276633546
 20
32.66258870409727
 30
0.0
 10
262.0722142334214
 20
32.57481127462847
 30
0.0
 10
262.143411668589
 20
32.40365632830972
 30
0.0
 10
262.1917159623438
 20
32.31997660628966
 30
0.0
 10
262.3086404453463
 20
32.16371402619247
 30
0.0
 10
262.3774784414251
 20
32.09032997241435
 30
0.0
 10
262.5356287077778
 20
31.95351426766532
 30
0.0
 10
262.6245297082625
 20
31.89069989373023
 30
0.0
 10
262.8164146489279
 20
31.77956323503529
 30
0.0
 10
262.9200346452021
 20
31.7306597390835
 30
0.0
 10
263.1432321637138
 20
31.64649087701077
 30
0.0
 10
263.2613067530214
 20
31.61193269048029
 30
0.0
 10
263.5053354813788
 20
31.55869264451697
 30
0.0
 10
263.6320253353834
 20
31.53971867275527
 30
0.0
 10
263.8956321373068
 20
31.51736331763074
 30
0.0
 10
264.0300946041752
 20
31.51430106527595
 30
0.0
 10
264.2989064281468
 20
31.52363329750161
 30
0.0
 10
264.4341181854439
 20
31.5359395120014
 30
0.0
 10
264.7065030927149
 20
31.57628034268044
 30
0.0
 10
264.8388954004353
 20
31.60363155419489
 30
0.0
 10
265.0306259568937
 20
31.65437683177932
 30
0.0
 10
265.0934531218099
 20
31.67293642903842
 30
0.0
 10
265.2168481385205
 20
31.71338506709517
 30
0.0
 10
265.277754990296
 20
31.73542834994826
 30
0.0
 10
265.4522855846853
 20
31.80490577842295
 30
0.0
 10
265.5590285263857
 20
31.85593592009895
 30
0.0
 10
265.7531649576699
 20
31.96717445522467
 30
0.0
 10
265.8400877383612
 20
32.02747365857579
 30
0.0
 10
265.9851490811191
 20
32.15130440792129
 30
0.0
 10
266.0451673813699
 20
32.21629984061442
 30
0.0
 10
266.1362590583431
 20
32.34849804287502
 30
0.0
 10
266.1672339566232
 20
32.41503250119987
 30
0.0
 10
266.201679803908
 20
32.55012397345583
 30
0.0
 10
266.2047196552071
 20
32.61832743142102
 30
0.0
 10
266.184282113512
 20
32.75253748352194
 30
0.0
 10
266.1607354437997
 20
32.81970879300194
 30
0.0
 10
266.0889909393218
 20
32.95233145579642
 30
0.0
 10
266.0414233740722
 20
33.01699960983927
 30
0.0
 10
265.9243773458233
 20
33.14423795943007
 30
0.0
 10
265.8542044653404
 20
33.20724520927905
 30
0.0
 10
265.6958683609002
 20
33.32829736385126
 30
0.0
 10
265.6074285646929
 20
33.38674151198693
 30
0.0
 10
265.5101745975704
 20
33.44288503215831
 30
0.0
  0
LINE
  5
203
330
1F
100
AcDbEntity
  8
0
  6
Continuous
 62
     7
370
    25
100
AcDbLine
 10
244.4159520944
 20
47.3349490043
 30
0.0
 11
244.8602203782
 21
47.0331607802
 31
0.0
  0
LWPOLYLINE
  5
204
330
1F
100
AcDbEntity
  8
0
  6
Continuous
 62
     7
370
    25
100
AcDbPolyline
 90
       15
 70
   128
 43
0.0
 10
246.1407084783
 20
46.3945739338
 10
246.1095827014
 20
46.4141363387
 10
245.8143292103
 20
46.5689325278
 10
245.4415910431
 20
46.750872285
 10
244.9952308927
 20
46.9656583134
 10
244.5002457915
 20
47.2131407804
 10
244.0230710264
 20
47.4755732926
 10
243.6533345051
 20
47.7135532611
 10
243.4607362491
 20
47.8760222293
 10
243.4717876137
 20
47.9175129735
 10
243.6441267358
 20
47.8375277386
 10
243.9060848751
 20
47.6774028951
 10
244.2307341467
 20
47.4613015602
 10
244.4159520944
 20
47.3349490043
 10
244.4159520944
 20
47.3349490043
  0
SPLINE
  5
205
330
1F
100
AcDbEntity
  8
0
  6
Continuous
 62
     7
370
    25
100
AcDbSpline
210
0.0
220
0.0
230
1.0
 70
     8
 71
     3
 72
    20
 73
    16
 74
     0
 42
0.000000001
 43
0.00000001
 40
0.0
 40
0.0
 40
0.0
 40
0.0
 40
0.0794186640014684
 40
0.1462181270151724
 40
0.2224434617421804
 40
0.2904461889111926
 40
0.3563013143392733
 40
0.4270111355799021
 40
0.5067334004562533
 40
0.5959057943719885
 40
0.6910887816436471
 40
0.7875284222735055
 40
0.8799899095311136
 40
0.9620446672291816
 40
1.0
 40
1.0
 40
1.0
 40
1.0
 10
235.4475317730728
 20
30.73314710747304
 30
0.0
 10
235.2853919228445
 20
30.81168872444788
 30
0.0
 10
234.9868753774836
 20
30.95629211549195
 30
0.0
 10
234.5552084217469
 20
31.16318758863997
 30
0.0
 10
234.2187070135442
 20
31.33616217565043
 30
0.0
 10
234.0151637431115
 20
31.46144621722941
 30
0.0
 10
233.9540519222884
 20
31.52698614547506
 30
0.0
 10
234.0247301016927
 20
31.52994755902153
 30
0.0
 10
234.2365800176808
 20
31.45279069281259
 30
0.0
 10
234.5935766694529
 20
31.27331951539052
 30
0.0
 10
235.0684233003771
 20
30.98871936702997
 30
0.0
 10
235.6023053418377
 20
30.6331729424434
 30
0.0
 10
236.1033636003912
 20
30.28805510329248
 30
0.0
 10
236.4674731668173
 20
30.04333358304486
 30
0.0
 10
236.5966438206295
 20
29.97039108077625
 30
0.0
 10
236.637496345034
 20
29.94732171272625
 30
0.0
  0
SPLINE
  5
206
330
1F
100
AcDbEntity
  8
0
  6
Continuous
 62
     7
370
    25
100
AcDbSpline
210
0.0
220
0.0
230
1.0
 70
    11
 71
     3
 72
    70
 73
    66
 74
     0
 42
0.000000001
 43
0.00000001
 40
0.0
 40
0.0
 40
0.0
 40
0.0
 40
0.03125
 40
0.03125
 40
0.0625
 40
0.0625
 40
0.09375
 40
0.09375
 40
0.125
 40
0.125
 40
0.15625
 40
0.15625
 40
0.1875
 40
0.1875
 40
0.21875
 40
0.21875
 40
0.25
 40
0.25
 40
0.28125
 40
0.28125
 40
0.3125
 40
0.3125
 40
0.34375
 40
0.34375
 40
0.375
 40
0.375
 40
0.40625
 40
0.40625
 40
0.4375
 40
0.4375
 40
0.46875
 40
0.46875
 40
0.5
 40
0.5
 40
0.53125
 40
0.53125
 40
0.5625
 40
0.5625
 40
0.59375
 40
0.59375
 40
0.625
 40
0.625
 40
0.65625
 40
0.65625
 40
0.6875
 40
0.6875
 40
0.71875
 40
0.71875
 40
0.75
 40
0.75
 40
0.78125
 40
0.78125
 40
0.8125
 40
0.8125
 40
0.84375
 40
0.84375
 40
0.875
 40
0.875
 40
0.90625
 40
0.90625
 40
0.9375
 40
0.9375
 40
0.96875
 40
0.96875
 40
1.0
 40
1.0
 40
1.0
 40
1.0
 10
234.24454744925
 20
42.44322752689985
 30
0.0
 10
234.3068144077858
 20
42.53229635122872
 30
0.0
 10
234.3772504005038
 20
42.61241193678786
 30
0.0
 10
234.5329331560467
 20
42.75633367088889
 30
0.0
 10
234.6190691759022
 20
42.82041106878922
 30
0.0
 10
234.7974918193221
 20
42.92738267251124
 30
0.0
 10
234.8910181825881
 20
42.97134520331021
 30
0.0
 10
235.0828231000088
 20
43.04026291074729
 30
0.0
 10
235.1792904989418
 20
43.06468737849551
 30
0.0
 10
235.3728724523337
 20
43.09555965541194
 30
0.0
 10
235.4705668004409
 20
43.10184498348982
 30
0.0
 10
235.6597399709639
 20
43.09688505186543
 30
0.0
 10
235.7519732459405
 20
43.08584950270576
 30
0.0
 10
235.9315761021584
 20
43.04723557247719
 30
0.0
 10
236.0185329205419
 20
43.01955955916357
 30
0.0
 10
236.1815005137875
 20
42.94984697156251
 30
0.0
 10
236.2583078768259
 20
42.90766451238732
 30
0.0
 10
236.4023711987319
 20
42.80836969502945
 30
0.0
 10
236.4690215928475
 20
42.75146544206201
 30
0.0
 10
236.5879716454684
 20
42.62650356943711
 30
0.0
 10
236.6409008234493
 20
42.55804729109268
 30
0.0
 10
236.7332432011909
 20
42.40835793314393
 30
0.0
 10
236.7722475459588
 20
42.32737900425332
 30
0.0
 10
236.8331791700531
 20
42.15834755347706
 30
0.0
 10
236.8556078751284
 20
42.06958100383019
 30
0.0
 10
236.8832628480278
 20
41.88236997933972
 30
0.0
 10
236.888145523758
 20
41.78437433250632
 30
0.0
 10
236.8790439173055
 20
41.58748431290866
 30
0.0
 10
236.8652943707334
 20
41.48747086419451
 30
0.0
 10
236.817318697274
 20
41.28359688180728
 30
0.0
 10
236.7836080111676
 20
41.18267227048432
 30
0.0
 10
236.6983473910773
 20
40.98768128359864
 30
0.0
 10
236.6456270823875
 20
40.89147908125121
 30
0.0
 10
236.5255582487605
 20
40.71288942389582
 30
0.0
 10
236.4585794636364
 20
40.6303827901931
 30
0.0
 10
236.310845003909
 20
40.47874736135083
 30
0.0
 10
236.2320565485381
 20
40.41176706555319
 30
0.0
 10
236.0675526256627
 20
40.29595558004056
 30
0.0
 10
235.9808245253173
 20
40.24665366956256
 30
0.0
 10
235.8063491635947
 20
40.16842781899823
 30
0.0
 10
235.7177906058483
 20
40.13884190518837
 30
0.0
 10
235.5380098741019
 20
40.09821999777748
 30
0.0
 10
235.4491498906043
 20
40.0877048353336
 30
0.0
 10
235.2728866284443
 20
40.0848182499337
 30
0.0
 10
235.1847382487577
 20
40.09264884979874
 30
0.0
 10
235.0137644083339
 20
40.12611380878172
 30
0.0
 10
234.9310907211085
 20
40.15151831014248
 30
0.0
 10
234.7710289310035
 20
40.21923847959032
 30
0.0
 10
234.6929983845133
 20
40.26207769024974
 30
0.0
 10
234.546908106604
 20
40.36255695532788
 30
0.0
 10
234.4785705275236
 20
40.42011379740185
 30
0.0
 10
234.3514662697802
 20
40.54982847103301
 30
0.0
 10
234.292204338298
 20
40.622824873593
 30
0.0
 10
234.187799461443
 20
40.77956632690974
 30
0.0
 10
234.1423964381182
 20
40.86326887772721
 30
0.0
 10
234.0660640136101
 20
41.04155338048101
 30
0.0
 10
234.0349072166796
 20
41.13737138377289
 30
0.0
 10
233.9913382958669
 20
41.33388658736413
 30
0.0
 10
233.9786389324122
 20
41.43451901218254
 30
0.0
 10
233.9731881124171
 20
41.64067056327494
 30
0.0
 10
233.9808410610254
 20
41.74765315715656
 30
0.0
 10
234.0181860809663
 20
41.9558646700854
 30
0.0
 10
234.0475608880758
 20
42.05791327117447
 30
0.0
 10
234.1295725282445
 20
42.25746410481079
 30
0.0
 10
234.1822804907143
 20
42.35415870257096
 30
0.0
 10
234.24454744925
 20
42.44322752689985
 30
0.0
  0
LWPOLYLINE
  5
207
330
1F
100
AcDbEntity
  8
0
  6
Continuous
 62
     7
370
    25
100
AcDbPolyline
 90
       16
 70
   128
 43
0.0
 10
265.2570306522
 20
20.9860416703
 10
265.3125140148
 20
21.4676792722
 10
265.507469531
 20
22.2977583164
 10
265.8235150832
 20
23.1377354952
 10
266.2477115889
 20
23.9532216094
 10
266.7626922417
 20
24.7108307357
 10
267.3473738214
 20
25.379546379
 10
267.9778193465
 20
25.9319907707
 10
268.6282182969
 20
26.3455473975
 10
269.2719433103
 20
26.6032849011
 10
269.8826401969
 20
26.6946517296
 10
270.4353068824
 20
26.6159067909
 10
270.9073171767
 20
26.3702743371
 10
271.27934675
 20
25.9678102611
 10
271.5361652787
 20
25.4249920861
 10
271.5512196061
 20
25.3766788462
  0
ARC
  5
208
330
1F
100
AcDbEntity
  8
0
  6
Continuous
 62
     7
370
    25
100
AcDbCircle
 10
267.0560905197
 20
20.3463050233
 30
0.0
 40
1.961617549729933
100
AcDbArc
 50
249.5781635619
 51
284.6298978682
  0
SPLINE
  5
209
330
1F
100
AcDbEntity
  8
0
  6
Continuous
 62
     7
370
    25
100
AcDbSpline
210
0.0
220
0.0
230
1.0
 70
     8
 71
     3
 72
    14
 73
    10
 74
     0
 42
0.000000001
 43
0.00000001
 40
0.0
 40
0.0
 40
0.0
 40
0.0
 40
0.25
 40
0.25
 40
0.5
 40
0.5
 40
0.75
 40
0.75
 40
1.0
 40
1.0
 40
1.0
 40
1.0
 10
272.8566088321108
 20
20.40356642369207
 30
0.0
 10
272.814181806674
 20
20.36914828636792
 30
0.0
 10
272.771172713328
 20
20.32964325059638
 30
0.0
 10
272.691655210894
 20
20.24053009260439
 30
0.0
 10
272.6553630364876
 20
20.19104826894912
 30
0.0
 10
272.5945754122246
 20
20.08573839260462
 30
0.0
 10
272.5697206347228
 20
20.02910229614751
 30
0.0
 10
272.5325755917237
 20
19.91639914656254
 30
0.0
 10
272.5197280401674
 20
19.85875716484252
 30
0.0
 10
272.5112168354207
 20
19.80532993865303
 30
0.0
  0
LINE
  5
20A
330
1F
100
AcDbEntity
  8
0
  6
Continuous
 62
     7
370
    25
100
AcDbLine
 10
276.1926049138
 20
22.6972641766
 30
0.0
 11
276.2456177467
 21
22.6649935223
 31
0.0
  0
LINE
  5
20B
330
1F
100
AcDbEntity
  8
0
  6
Continuous
 62
     7
370
    25
100
AcDbLine
 10
272.1929299055
 20
15.7688732919
 30
0.0
 11
272.1327476632
 21
15.8057723209
 31
0.0
  0
LWPOLYLINE
  5
20C
330
1F
100
AcDbEntity
  8
0
  6
Continuous
 62
     7
370
    25
100
AcDbPolyline
 90
       17
 70
   128
 43
0.0
 10
267.1724710679
 20
18.6671224879
 10
267.0045402427
 20
18.7819126282
 10
266.6654856393
 20
19.1715353804
 10
266.4429702001
 20
19.6987548587
 10
266.3473383423
 20
20.3390611815
 10
266.3830360645
 20
21.0626874653
 10
266.5484038344
 20
21.8359931263
 10
266.8357536389
 20
22.6230280503
 10
267.2317269027
 20
23.3872038188
 10
267.7179156603
 20
24.0929950437
 10
268.2717172649
 20
24.707590395
 10
268.8673863099
 20
25.202417931
 10
269.4772308341
 20
25.5544736811
 10
270.0728998791
 20
25.7473909854
 10
270.6267014837
 20
25.7722013566
 10
271.1128902414
 20
25.6277517228
 10
271.1721460762
 20
25.5955133726
  0
LWPOLYLINE
  5
20D
330
1F
100
AcDbEntity
  8
0
  6
Continuous
 62
     7
370
    25
100
AcDbPolyline
 90
        9
 70
   128
 43
0.0
 10
272.5112171432
 20
19.8053296342
 10
272.503200187
 20
19.6690180787
 10
272.5247010066
 20
19.5517775885
 10
272.5742810116
 20
19.4614528537
 10
272.6486227841
 20
19.404087204
 10
272.7427521726
 20
19.3835191622
 10
272.8503708575
 20
19.4011247116
 10
272.9642784779
 20
19.4557260955
 10
273.0768533688
 20
19.5436699097
  0
LWPOLYLINE
  5
20E
330
1F
100
AcDbEntity
  8
0
  6
Continuous
 62
     7
370
    25
100
AcDbPolyline
 90
        9
 70
   128
 43
0.0
 10
273.365973094
 20
20.0444399618
 10
273.3858522478
 20
20.1859132819
 10
273.3761913176
 20
20.3118724613
 10
273.337636747
 20
20.4138894667
 10
273.2727682197
 20
20.4851388066
 10
273.1859259554
 20
20.5208529694
 10
273.082920704
 20
20.5186424633
 10
272.9706442984
 20
20.4786550269
 10
272.8566092496
 20
20.4035663094
  0
SPLINE
  5
20F
330
1F
100
AcDbEntity
  8
0
  6
Continuous
 62
     7
370
    25
100
AcDbSpline
210
0.0
220
0.0
230
1.0
 70
     8
 71
     3
 72
    14
 73
    10
 74
     0
 42
0.000000001
 43
0.00000001
 40
0.0
 40
0.0
 40
0.0
 40
0.0
 40
0.25
 40
0.25
 40
0.5
 40
0.5
 40
0.75
 40
0.75
 40
1.0
 40
1.0
 40
1.0
 40
1.0
 10
273.076852920378
 20
19.54367005133803
 30
0.0
 10
273.1105855804058
 20
19.575384703942
 30
0.0
 10
273.1410591617974
 20
19.61226449638032
 30
0.0
 10
273.1983596613972
 20
19.69189437117796
 30
0.0
 10
273.2247708784114
 20
19.73383640254228
 30
0.0
 10
273.2750688691681
 20
19.82093513095145
 30
0.0
 10
273.2984594778369
 20
19.86533650609405
 30
0.0
 10
273.3384589568194
 20
19.95405484252775
 30
0.0
 10
273.3553744919529
 20
19.9993774886981
 30
0.0
 10
273.3659727471535
 20
20.04444027931898
 30
0.0
  0
LINE
  5
210
330
1F
100
AcDbEntity
  8
0
  6
Continuous
 62
     7
370
    25
100
AcDbLine
 10
273.1303537716
 20
17.3927149085
 30
0.0
 11
273.0989130458
 21
17.411972589
 31
0.0
  0
LWPOLYLINE
  5
211
330
1F
100
AcDbEntity
  8
0
  6
Continuous
 62
     7
370
    25
100
AcDbPolyline
 90
        3
 70
   128
 43
0.0
 10
269.4889642245
 20
25.7545525192
 10
270.0176120219
 20
25.8510960792
 10
270.4085544996
 20
25.822523121
  0
LINE
  5
212
330
1F
100
AcDbEntity
  8
0
  6
Continuous
 62
     7
370
    25
100
AcDbLine
 10
266.7046374274
 20
19.0815307342
 30
0.0
 11
266.5938580581
 21
19.1532525895
 31
0.0
  0
SPLINE
  5
213
330
1F
100
AcDbEntity
  8
0
  6
Continuous
 62
     7
370
    25
100
AcDbSpline
210
0.0
220
0.0
230
1.0
 70
     8
 71
     3
 72
    14
 73
    10
 74
     0
 42
0.000000001
 43
0.00000001
 40
0.0
 40
0.0
 40
0.0
 40
0.0
 40
0.25
 40
0.25
 40
0.5
 40
0.5
 40
0.75
 40
0.75
 40
1.0
 40
1.0
 40
1.0
 40
1.0
 10
205.2500867688689
 20
44.03232905312575
 30
0.0
 10
205.2029136616366
 20
44.00509659797962
 30
0.0
 10
205.1473495969377
 20
43.98335223983868
 30
0.0
 10
205.0254241248188
 20
43.95310681243266
 30
0.0
 10
204.9593276039429
 20
43.94480778232236
 30
0.0
 10
204.8271356748062
 20
43.94337516654259
 30
0.0
 10
204.7602005232754
 20
43.9503251407242
 30
0.0
 10
204.6375900316051
 20
43.97853449433361
 30
0.0
 10
204.5806545768014
 20
44.00011033864126
 30
0.0
 10
204.5339120334292
 20
44.02709423456166
 30
0.0
  0
SPLINE
  5
214
330
1F
100
AcDbEntity
  8
0
  6
Continuous
 62
     7
370
    25
100
AcDbSpline
210
0.0
220
0.0
230
1.0
 70
     8
 71
     3
 72
    12
 73
     8
 74
     0
 42
0.000000001
 43
0.00000001
 40
0.0
 40
0.0
 40
0.0
 40
0.0
 40
0.2500000000000032
 40
0.2500000000000032
 40
0.5000000000000064
 40
0.5000000000000064
 40
1.0
 40
1.0
 40
1.0
 40
1.0
 10
232.862375189509
 20
71.79231882971595
 30
0.0
 10
232.916147208457
 20
71.76127690392323
 30
0.0
 10
232.9686354835752
 20
71.7123022746664
 30
0.0
 10
233.0596414105137
 20
71.59557139981689
 30
0.0
 10
233.0982157640431
 20
71.52811993448374
 30
0.0
 10
233.1880393533393
 20
71.32380270747684
 30
0.0
 10
233.2159285801022
 20
71.18343987827943
 30
0.0
 10
233.2159285801022
 20
71.06062315322475
 30
0.0
  0
LINE
  5
215
330
1F
100
AcDbEntity
  8
0
  6
Continuous
 62
     7
370
    25
100
AcDbLine
 10
204.5339115742
 20
44.0270939378
 30
0.0
 11
202.8764637075
 21
44.9839182247
 31
0.0
  0
LWPOLYLINE
  5
216
330
1F
100
AcDbEntity
  8
0
  6
Continuous
 62
     7
370
    25
100
AcDbPolyline
 90
       25
 70
   128
 43
0.0
 10
202.8764637075
 20
44.9839182247
 10
203.2659361491
 20
46.8723395573
 10
203.7755297432
 20
48.7862433764
 10
204.4016119582
 20
50.7119899804
 10
205.1397231307
 20
52.6358553337
 10
205.9846014901
 20
54.5441295445
 10
206.9302253055
 20
56.4232107781
 10
207.9698563494
 20
58.2597086757
 10
209.0960853375
 20
60.0405352256
 10
210.3008859294
 20
61.7529990552
 10
211.5756713632
 20
63.3848944001
 10
212.9113576761
 20
64.9245938747
 10
214.2984249486
 20
66.3611218508
 10
215.7269884276
 20
67.6842426651
 10
217.1868670151
 20
68.8845260119
 10
218.6676562016
 20
69.9534179454
 10
220.1588032232
 20
70.8832994748
 10
221.6496810647
 20
71.667546017
 10
223.129664522
 20
72.3005652217
 10
224.5882065934
 20
72.7778501973
 10
226.0149123184
 20
73.09599476
 10
227.399614099
 20
73.2527353957
 10
228.7324429872
 20
73.2469528686
 10
230.0039014542
 20
73.0786898952
 10
231.2049279276
 20
72.7491427735
  0
LINE
  5
217
330
1F
100
AcDbEntity
  8
0
  6
Continuous
 62
     7
370
    25
100
AcDbLine
 10
231.2049279276
 20
72.7491427735
 30
0.0
 11
232.8623757943
 21
71.7923184866
 31
0.0
  0
LINE
  5
218
330
1F
100
AcDbEntity
  8
0
  6
Continuous
 62
     7
370
    25
100
AcDbLine
 10
237.6530243306
 20
62.3298761716
 30
0.0
 11
239.0915410513
 21
63.1603141981
 31
0.0
  0
LINE
  5
219
330
1F
100
AcDbEntity
  8
0
  6
Continuous
 62
     7
370
    25
100
AcDbLine
 10
237.6530243306
 20
54.1644682353
 30
0.0
 11
237.6530243306
 21
62.3298761716
 31
0.0
  0
LINE
  5
21A
330
1F
100
AcDbEntity
  8
0
  6
Continuous
 62
     7
370
    25
100
AcDbLine
 10
239.0915410513
 20
54.9949062617
 30
0.0
 11
237.6530243306
 21
54.1644682353
 31
0.0
  0
LINE
  5
21B
330
1F
100
AcDbEntity
  8
0
  6
Continuous
 62
     7
370
    25
100
AcDbLine
 10
205.2500872877
 20
35.050380372
 30
0.0
 11
206.6110353679
 21
35.8360389755
 31
0.0
  0
LINE
  5
21C
330
1F
100
AcDbEntity
  8
0
  6
Continuous
 62
     7
370
    25
100
AcDbLine
 10
206.6110353679
 20
35.8360389755
 30
0.0
 11
206.6110353679
 21
44.8179878576
 31
0.0
  0
LINE
  5
21D
330
1F
100
AcDbEntity
  8
0
  6
Continuous
 62
     7
370
    25
100
AcDbLine
 10
206.6110353679
 20
44.8179878576
 30
0.0
 11
205.2500872877
 21
44.0323292541
 31
0.0
  0
LINE
  5
21E
330
1F
100
AcDbEntity
  8
0
  6
Continuous
 62
     7
370
    25
100
AcDbLine
 10
233.2159292429
 20
71.0606240015
 30
0.0
 11
233.2159292429
 21
68.4849696493
 31
0.0
  0
LINE
  5
21F
330
1F
100
AcDbEntity
  8
0
  6
Continuous
 62
     7
370
    25
100
AcDbLine
 10
235.4463905154
 20
69.7725875343
 30
0.0
 11
233.2159292429
 21
68.4849696493
 31
0.0
  0
LWPOLYLINE
  5
220
330
1F
100
AcDbEntity
  8
0
  6
Continuous
 62
     7
370
    25
100
AcDbPolyline
 90
       22
 70
   128
 43
0.0
 10
201.8976782249
 20
46.5301206641
 10
202.3102787496
 20
48.4403206244
 10
202.8504775412
 20
50.3749772657
 10
203.5139624501
 20
52.3186444704
 10
204.2954387784
 20
54.2558062506
 10
205.1886635244
 20
56.1709938558
 10
206.1865086021
 20
58.0489188485
 10
207.281004306
 20
59.8745856483
 10
208.4634150432
 20
61.6334219443
 10
209.7242992611
 20
63.3113824926
 10
211.0535904482
 20
64.8950711629
 10
212.4406755014
 20
66.3718439743
 10
213.8744800069
 20
67.729911559
 10
215.3435574733
 20
68.95843022
 10
216.8361782351
 20
70.0475927976
 10
218.3404255334
 20
70.9887023869
 10
219.8442898571
 20
71.7742465722
 10
221.3357642576
 20
72.3979524504
 10
222.8029411646
 20
72.8548410009
 10
224.2341072115
 20
73.1412635764
 10
225.6178350048
 20
73.2549335865
 10
226.828980673
 20
73.2072001349
  0
SPLINE
  5
221
330
1F
100
AcDbEntity
  8
0
  6
Continuous
 62
     7
370
    25
100
AcDbSpline
210
0.0
220
0.0
230
1.0
 70
     8
 71
     3
 72
     8
 73
     4
 74
     0
 42
0.000000001
 43
0.00000001
 40
0.0
 40
0.0
 40
0.0
 40
0.0
 40
1.0
 40
1.0
 40
1.0
 40
1.0
 10
201.8976784077657
 20
46.53012094756536
 30
0.0
 10
201.4551420539204
 20
46.4584344171361
 30
0.0
 10
201.0125328638687
 20
46.38689825153434
 30
0.0
 10
200.5698611576523
 20
46.31549209522963
 30
0.0
  0
LWPOLYLINE
  5
222
330
1F
100
AcDbEntity
  8
0
  6
Continuous
 62
     7
370
    25
100
AcDbPolyline
 90
       25
 70
   128
 43
0.0
 10
200.5698608603
 20
46.315491705
 10
200.959333302
 20
48.2039130376
 10
201.4689268961
 20
50.1178168568
 10
202.0950091111
 20
52.0435634608
 10
202.8331202836
 20
53.967428814
 10
203.677998643
 20
55.8757030248
 10
204.6236224584
 20
57.7547842584
 10
205.6632535022
 20
59.5912821561
 10
206.7894824903
 20
61.3721087059
 10
207.9942830822
 20
63.0845725355
 10
209.2690685161
 20
64.7164678805
 10
210.604754829
 20
66.256167355
 10
211.9918221015
 20
67.6926953312
 10
213.4203855805
 20
69.0158161454
 10
214.8802641679
 20
70.2160994922
 10
216.3610533545
 20
71.2849914257
 10
217.8522003761
 20
72.2148729551
 10
219.3430782175
 20
72.9991194973
 10
220.8230616749
 20
73.6321387021
 10
222.2816037463
 20
74.1094236776
 10
223.7083094712
 20
74.4275682403
 10
225.0930112518
 20
74.5843088761
 10
226.4258401401
 20
74.5785263489
 10
227.6972986071
 20
74.4102633755
 10
228.8983250804
 20
74.0807162538
  0
LINE
  5
223
330
1F
100
AcDbEntity
  8
0
  6
Continuous
 62
     7
370
    25
100
AcDbLine
 10
228.8983250804
 20
74.0807162538
 30
0.0
 11
229.1945002045
 21
73.1368080742
 31
0.0
  0
LINE
  5
224
330
1F
100
AcDbEntity
  8
0
  6
Continuous
 62
     7
370
    25
100
AcDbLine
 10
224.7306477949
 20
76.4866651387
 30
0.0
 11
228.8983250804
 21
74.0807162538
 31
0.0
  0
LINE
  5
225
330
1F
100
AcDbEntity
  8
0
  6
Continuous
 62
     7
370
    25
100
AcDbLine
 10
200.5698608603
 20
46.315491705
 30
0.0
 11
199.9377174017
 21
46.680420356
 31
0.0
  0
SPLINE
  5
226
330
1F
100
AcDbEntity
  8
0
  6
Continuous
 62
     7
370
    25
100
AcDbSpline
210
0.0
220
0.0
230
1.0
 70
     8
 71
     3
 72
    30
 73
    26
 74
     0
 42
0.000000001
 43
0.00000001
 40
0.0
 40
0.0
 40
0.0
 40
0.0
 40
0.1250000000000002
 40
0.1250000000000002
 40
0.1875000000000003
 40
0.1875000000000003
 40
0.2500000000000004
 40
0.2500000000000004
 40
0.3750000000000001
 40
0.3750000000000001
 40
0.4374999999999998
 40
0.4374999999999998
 40
0.4999999999999996
 40
0.4999999999999996
 40
0.6249999999999996
 40
0.6249999999999996
 40
0.6874999999999997
 40
0.6874999999999997
 40
0.7499999999999997
 40
0.7499999999999997
 40
0.8124999999999998
 40
0.8124999999999998
 40
0.8749999999999999
 40
0.8749999999999999
 40
1.0
 40
1.0
 40
1.0
 40
1.0
 10
199.9377179557167
 20
46.68042059798547
 30
0.0
 10
199.7034023221101
 20
46.81568813401611
 30
0.0
 10
199.4679018455813
 20
46.91895066294547
 30
0.0
 10
199.1133513981916
 20
47.02819340070924
 30
0.0
 10
198.9949571347926
 20
47.05694636270594
 30
0.0
 10
198.7579024897424
 20
47.09889952735565
 30
0.0
 10
198.6390825785065
 20
47.11200466225775
 30
0.0
 10
198.2904386945303
 20
47.12725605127206
 30
0.0
 10
198.0656738518884
 20
47.10617728983006
 30
0.0
 10
197.7414632042847
 20
47.02917423795437
 30
0.0
 10
197.6350471283734
 20
46.99566563292115
 30
0.0
 10
197.429737898401
 20
46.91412728679752
 30
0.0
 10
197.3311431678932
 20
46.8663216816962
 30
0.0
 10
197.0476451740943
 20
46.70265447214329
 30
0.0
 10
196.8749022004241
 20
46.5667423756667
 30
0.0
 10
196.642777401928
 20
46.32237123876163
 30
0.0
 10
196.570463416102
 20
46.23455415355397
 30
0.0
 10
196.4381451020324
 20
46.0491735846137
 30
0.0
 10
196.3777911633116
 20
45.95125258457337
 30
0.0
 10
196.2688280291685
 20
45.74516473386913
 30
0.0
 10
196.2202182040704
 20
45.63699792702487
 30
0.0
 10
196.1351823881757
 20
45.41030821351813
 30
0.0
 10
196.0986315090007
 20
45.29116778579534
 30
0.0
 10
196.0096372319078
 20
44.92318345734123
 30
0.0
 10
195.9773006749277
 20
44.66395833204455
 30
0.0
 10
195.9726147686308
 20
44.39075175061441
 30
0.0
  0
ARC
  5
227
330
1F
100
AcDbEntity
  8
0
  6
Continuous
 62
     7
370
    25
100
AcDbCircle
 10
219.5352923895
 20
43.9824814847
 30
0.0
 40
23.56621418197544
100
AcDbArc
 50
179.0073355702
 51
180.9926644298
  0
SPLINE
  5
228
330
1F
100
AcDbEntity
  8
0
  6
Continuous
 62
     7
370
    25
100
AcDbSpline
210
0.0
220
0.0
230
1.0
 70
     8
 71
     3
 72
    30
 73
    26
 74
     0
 42
0.000000001
 43
0.00000001
 40
0.0
 40
0.0
 40
0.0
 40
0.0
 40
0.1249999999999996
 40
0.1249999999999996
 40
0.1874999999999994
 40
0.1874999999999994
 40
0.2499999999999993
 40
0.2499999999999993
 40
0.3749999999999992
 40
0.3749999999999992
 40
0.4374999999999993
 40
0.4374999999999993
 40
0.4999999999999994
 40
0.4999999999999994
 40
0.6249999999999992
 40
0.6249999999999992
 40
0.6874999999999993
 40
0.6874999999999993
 40
0.7499999999999994
 40
0.7499999999999994
 40
0.8124999999999997
 40
0.8124999999999997
 40
0.8749999999999998
 40
0.8749999999999998
 40
1.0
 40
1.0
 40
1.0
 40
1.0
 10
195.9726147686308
 20
43.57421093872865
 30
0.0
 10
195.9773010152896
 20
43.30639513809692
 30
0.0
 10
196.0096105356084
 20
43.03267897311152
 30
0.0
 10
196.097268590977
 20
42.6134308259161
 30
0.0
 10
196.1330627622904
 20
42.4722204072238
 30
0.0
 10
196.2179233771429
 20
42.18671979223166
 30
0.0
 10
196.2671760250566
 20
42.04213472740063
 30
0.0
 10
196.4313803612259
 20
41.61304245824901
 30
0.0
 10
196.5634328192863
 20
41.33006964276518
 30
0.0
 10
196.7934833868052
 20
40.90906573202804
 30
0.0
 10
196.8759464252991
 20
40.76866066215424
 30
0.0
 10
197.0496981605182
 20
40.49199636806001
 30
0.0
 10
197.1404997523519
 20
40.35641181901364
 30
0.0
 10
197.4238942245832
 20
39.957314752254
 30
0.0
 10
197.6273740992502
 20
39.70138780924681
 30
0.0
 10
197.953282086499
 20
39.33176182921113
 30
0.0
 10
198.0650227019601
 20
39.21144298202562
 30
0.0
 10
198.2903268060975
 20
38.9806053838948
 30
0.0
 10
198.4044494535766
 20
38.86944278981526
 30
0.0
 10
198.635359240141
 20
38.65536898064028
 30
0.0
 10
198.7521466561497
 20
38.55245785390581
 30
0.0
 10
198.9882296186196
 20
38.35489968699058
 30
0.0
 10
199.1081069930093
 20
38.25982791438521
 30
0.0
 10
199.4665902481731
 20
37.99102283578263
 30
0.0
 10
199.7033989147363
 20
37.83374117030785
 30
0.0
 10
199.9377179557167
 20
37.69847166724223
 30
0.0
  0
LINE
  5
229
330
1F
100
AcDbEntity
  8
0
  6
Continuous
 62
     7
370
    25
100
AcDbLine
 10
199.9377174017
 20
37.6984714739
 30
0.0
 11
200.5698608603
 21
37.333542823
 31
0.0
  0
LWPOLYLINE
  5
22A
330
1F
100
AcDbEntity
  8
0
  6
Continuous
 62
     7
370
    25
100
AcDbPolyline
 90
        9
 70
   128
 43
0.0
 10
206.5220482242
 20
29.5549219503
 10
205.7087800011
 20
29.9151610917
 10
204.6593919619
 20
30.5491175463
 10
203.7048817469
 20
31.3361926664
 10
202.8521337806
 20
32.2707127529
 10
202.1072962345
 20
33.3459342045
 10
201.4757441488
 20
34.5541058789
 10
200.9620307003
 20
35.8865116839
 10
200.5698608603
 20
37.333542823
  0
LINE
  5
22B
330
1F
100
AcDbEntity
  8
0
  6
Continuous
 62
     7
370
    25
100
AcDbLine
 10
230.8502773439
 20
72.9533738737
 30
0.0
 11
231.2026882177
 21
72.7499314066
 31
0.0
  0
SPLINE
  5
22C
330
1F
100
AcDbEntity
  8
0
  6
Continuous
 62
     7
370
    25
100
AcDbSpline
210
0.0
220
0.0
230
1.0
 70
     8
 71
     3
 72
    22
 73
    18
 74
     0
 42
0.000000001
 43
0.00000001
 40
0.0
 40
0.0
 40
0.0
 40
0.0
 40
0.2500000000000002
 40
0.2500000000000002
 40
0.3750000000000003
 40
0.3750000000000003
 40
0.5000000000000004
 40
0.5000000000000004
 40
0.6250000000000004
 40
0.6250000000000004
 40
0.7500000000000004
 40
0.7500000000000004
 40
0.8750000000000004
 40
0.8750000000000004
 40
0.9375000000000002
 40
0.9375000000000002
 40
1.0
 40
1.0
 40
1.0
 40
1.0
 10
224.7306472058637
 20
76.48666547269653
 30
0.0
 10
225.1626793014028
 20
76.3183950345901
 30
0.0
 10
225.6130539497681
 20
76.1077190297099
 30
0.0
 10
226.3380273914524
 20
75.72262479345324
 30
0.0
 10
226.5899947151718
 20
75.58149925517746
 30
0.0
 10
227.1027868283041
 20
75.28248228596027
 30
0.0
 10
227.3643081403631
 20
75.12431644860447
 30
0.0
 10
227.9018828219617
 20
74.79171650726698
 30
0.0
 10
228.1798453666245
 20
74.61601869590095
 30
0.0
 10
228.7324512853699
 20
74.26437577980758
 30
0.0
 10
229.0094472105412
 20
74.08699695068485
 30
0.0
 10
229.5676347904379
 20
73.7326865313723
 30
0.0
 10
229.8378108795977
 20
73.56282869165983
 30
0.0
 10
230.2292781946942
 20
73.32225970668513
 30
0.0
 10
230.357525424802
 20
73.24439182413674
 30
0.0
 10
230.6093870639835
 20
73.09378552863829
 30
0.0
 10
230.73227929783
 20
73.02149268942738
 30
0.0
 10
230.8502779566893
 20
72.95337351362527
 30
0.0
  0
LWPOLYLINE
  5
22D
330
1F
100
AcDbEntity
  8
0
  6
Continuous
 62
     7
370
    25
100
AcDbPolyline
 90
       12
 70
   128
 43
0.0
 10
212.3895749788
 20
75.6865539566
 10
212.4436490151
 20
75.7165580554
 10
213.9212554149
 20
76.4622120897
 10
215.3859008767
 20
77.0579811738
 10
216.8273115713
 20
77.4996879795
 10
218.2353775232
 20
77.7842338088
 10
219.6002215527
 20
77.9096216624
 10
220.9122707276
 20
77.8749731532
 10
222.1623218882
 20
77.6805313523
 10
223.3416065147
 20
77.3276602123
 10
224.4418526292
 20
76.8188331543
 10
224.5724196146
 20
76.7450172187
  0
LWPOLYLINE
  5
22E
330
1F
100
AcDbEntity
  8
0
  6
Continuous
 62
     7
370
    25
100
AcDbPolyline
 90
       10
 70
   128
 43
0.0
 10
199.5744520474
 20
33.4425738565
 10
199.1869697273
 20
33.6805803468
 10
198.2195612596
 20
34.4163109832
 10
197.3493289366
 20
35.2970801513
 10
196.5823761488
 20
36.3167085175
 10
195.9240805707
 20
37.4680441839
 10
195.3790625504
 20
38.7430128827
 10
194.9511429633
 20
40.1326700709
 10
194.6433234552
 20
41.6272686141
 10
194.4884298357
 20
42.8547888869
  0
LWPOLYLINE
  5
22F
330
1F
100
AcDbEntity
  8
0
  6
Continuous
 62
     7
370
    25
100
AcDbPolyline
 90
       17
 70
   128
 43
0.0
 10
234.9325894805
 20
40.4550150204
 10
235.3184142441
 20
40.3421504384
 10
235.7406486165
 20
40.4112758801
 10
236.1350153609
 20
40.651864759
 10
236.4414746453
 20
41.0272904898
 10
236.6133695792
 20
41.4803985666
 10
236.6245319086
 20
41.9422066455
 10
236.4732635765
 20
42.3424081513
 10
236.1825892747
 20
42.620078167
 10
235.7967671453
 20
42.7329412284
 10
235.3745327729
 20
42.6638157866
 10
234.9801660285
 20
42.4232269077
 10
234.6737067441
 20
42.047801177
 10
234.5018118102
 20
41.5946931001
 10
234.4906494808
 20
41.1328850213
 10
234.6419178128
 20
40.7326835154
 10
234.9325894805
 20
40.4550150204
  0
LINE
  5
230
330
1F
100
AcDbEntity
  8
0
  6
Continuous
 62
     7
370
    25
100
AcDbLine
 10
202.2187792586
 20
46.7154883452
 30
0.0
 11
201.8976782249
 21
46.5301206641
 31
0.0
  0
LINE
  5
231
330
1F
100
AcDbEntity
  8
0
  6
Continuous
 62
     7
370
    25
100
AcDbLine
 10
203.1794284255
 20
46.4970740369
 30
0.0
 11
202.7927738958
 21
46.7202849457
 31
0.0
  0
SPLINE
  5
232
330
1F
100
AcDbEntity
  8
0
  6
Continuous
 62
     7
370
    25
100
AcDbSpline
210
0.0
220
0.0
230
1.0
 70
     8
 71
     3
 72
    12
 73
     8
 74
     0
 42
0.000000001
 43
0.00000001
 40
0.0
 40
0.0
 40
0.0
 40
0.0
 40
0.250000000000003
 40
0.250000000000003
 40
0.500000000000006
 40
0.500000000000006
 40
1.0
 40
1.0
 40
1.0
 40
1.0
 10
202.7927740624579
 20
46.72028542543124
 30
0.0
 10
202.755382024875
 20
46.74187138925767
 30
0.0
 10
202.7092337140201
 20
46.75931152428014
 30
0.0
 10
202.6105338766375
 20
46.78176765259447
 30
0.0
 10
202.5570223103421
 20
46.78715395819508
 30
0.0
 10
202.3984248906407
 20
46.78507279938494
 30
0.0
 10
202.2937107960229
 20
46.75874557889414
 30
0.0
 10
202.2187789574961
 20
46.71548834926865
 30
0.0
  0
LWPOLYLINE
  5
233
330
1F
100
AcDbEntity
  8
0
  6
Continuous
 62
     7
370
    25
100
AcDbPolyline
 90
       18
 70
   128
 43
0.0
 10
194.616409091
 20
48.4191398305
 10
194.6475002943
 20
48.6535218425
 10
194.9604683034
 20
50.5111132032
 10
195.3954619756
 20
52.4024588069
 10
195.9493466391
 20
54.3139299319
 10
196.6181328313
 20
56.2317561101
 10
197.3970000063
 20
58.1421179019
 10
198.2803386821
 20
60.0312522156
 10
199.2617833674
 20
61.8855473629
 10
200.3342612942
 20
63.6916426743
 10
201.4900477355
 20
65.4365250734
 10
202.7208134203
 20
67.107623369
 10
204.0176917053
 20
68.6928987447
 10
205.371337844
 20
70.1809261225
 10
206.7719991215
 20
71.5609848412
 10
208.2095836724
 20
72.8231333658
 10
209.6737339088
 20
73.9582775321
 10
210.9632797947
 20
74.8376408941
  0
LINE
  5
234
330
1F
100
AcDbEntity
  8
0
  6
Continuous
 62
     7
370
    25
100
AcDbLine
 10
201.6612877468
 20
38.6934674551
 30
0.0
 11
206.6110353679
 21
35.8360389755
 31
0.0
  0
ARC
  5
235
330
1F
100
AcDbEntity
  8
0
  6
Continuous
 62
     7
370
    25
100
AcDbCircle
 10
205.8018342576
 20
45.1664959094
 30
0.0
 40
7.684023866253053
100
AcDbArc
 50
182.6054781208
 51
237.3945216397
  0
LINE
  5
236
330
1F
100
AcDbEntity
  8
0
  6
Continuous
 62
     7
370
    25
100
AcDbLine
 10
198.1257539199
 20
45.6337325554
 30
0.0
 11
198.1257539199
 21
44.8171917047
 31
0.0
  0
ARC
  5
237
330
1F
100
AcDbEntity
  8
0
  6
Continuous
 62
     7
370
    25
100
AcDbCircle
 10
201.338496867
 20
45.7468804063
 30
0.0
 40
3.214734776046435
100
AcDbArc
 50
155.343366055
 51
182.0170353142
  0
SPLINE
  5
238
330
1F
100
AcDbEntity
  8
0
  6
Continuous
 62
     7
370
    25
100
AcDbSpline
210
0.0
220
0.0
230
1.0
 70
     8
 71
     3
 72
     8
 73
     4
 74
     0
 42
0.000000001
 43
0.00000001
 40
0.0
 40
0.0
 40
0.0
 40
0.0
 40
1.0
 40
1.0
 40
1.0
 40
1.0
 10
186.3699839848686
 20
50.12706264744113
 30
0.0
 10
186.8368462105354
 20
49.74682106017919
 30
0.0
 10
187.3038809949188
 20
49.37991441163635
 30
0.0
 10
187.7710061070942
 20
49.01998808604438
 30
0.0
  0
SPLINE
  5
239
330
1F
100
AcDbEntity
  8
0
  6
Continuous
 62
     7
370
    25
100
AcDbSpline
210
0.0
220
0.0
230
1.0
 70
     8
 71
     3
 72
    14
 73
    10
 74
     0
 42
0.000000001
 43
0.00000001
 40
0.0
 40
0.0
 40
0.0
 40
0.0
 40
0.1249999999999987
 40
0.1249999999999987
 40
0.2499999999999973
 40
0.2499999999999973
 40
0.4999999999999947
 40
0.4999999999999947
 40
1.0
 40
1.0
 40
1.0
 40
1.0
 10
187.7710061070943
 20
49.01998808604434
 30
0.0
 10
187.7974300457674
 20
48.99962807775873
 30
0.0
 10
187.8214939882722
 20
48.98411577444407
 30
0.0
 10
187.8577632456974
 20
48.9671324058847
 30
0.0
 10
187.8697816206855
 20
48.96525816447878
 30
0.0
 10
187.8952958673559
 20
48.96939900581401
 30
0.0
 10
187.899489529804
 20
48.98434139387703
 30
0.0
 10
187.9005963395395
 20
49.03869273022217
 30
0.0
 10
187.8849683544509
 20
49.09011369089819
 30
0.0
 10
187.8653156218173
 20
49.14646251848415
 30
0.0
  0
SPLINE
  5
23A
330
1F
100
AcDbEntity
  8
0
  6
Continuous
 62
     7
370
    25
100
AcDbSpline
210
0.0
220
0.0
230
1.0
 70
     8
 71
     3
 72
    14
 73
    10
 74
     0
 42
0.000000001
 43
0.00000001
 40
0.0
 40
0.0
 40
0.0
 40
0.0
 40
0.25
 40
0.25
 40
0.5
 40
0.5
 40
0.75
 40
0.75
 40
1.0
 40
1.0
 40
1.0
 40
1.0
 10
187.8653156218168
 20
49.1464625184845
 30
0.0
 10
187.8406497738789
 20
49.21718508102231
 30
0.0
 10
187.8297869031544
 20
49.28025137877253
 30
0.0
 10
187.8078365359595
 20
49.41181811973112
 30
0.0
 10
187.7975649411405
 20
49.4797714587228
 30
0.0
 10
187.768260926782
 20
49.62837646256623
 30
0.0
 10
187.7494682555523
 20
49.70884026899711
 30
0.0
 10
187.6965489510361
 20
49.88841114281144
 30
0.0
 10
187.6624697738572
 20
49.98724218873929
 30
0.0
 10
187.6183835215794
 20
50.09484224371857
 30
0.0
  0
LWPOLYLINE
  5
23B
330
1F
100
AcDbEntity
  8
0
  6
Continuous
 62
     7
370
    25
100
AcDbPolyline
 90
        9
 70
   128
 43
0.0
 10
187.6183832428
 20
50.0948423962
 10
187.2503029609
 20
51.1659877759
 10
186.9851742591
 20
52.3299906533
 10
186.8252072127
 20
53.5771418961
 10
186.7717360328
 20
54.8970385321
 10
186.8252072127
 20
56.2786716782
 10
186.9851742591
 20
57.7105169415
 10
187.2503029609
 20
59.1806309022
 10
187.6183832428
 20
60.6767527295
  0
SPLINE
  5
23C
330
1F
100
AcDbEntity
  8
0
  6
Continuous
 62
     7
370
    25
100
AcDbSpline
210
0.0
220
0.0
230
1.0
 70
     8
 71
     3
 72
    14
 73
    10
 74
     0
 42
0.000000001
 43
0.00000001
 40
0.0
 40
0.0
 40
0.0
 40
0.0
 40
0.25
 40
0.25
 40
0.5
 40
0.5
 40
0.75
 40
0.75
 40
1.0
 40
1.0
 40
1.0
 40
1.0
 10
187.8653156218168
 20
62.73025291779302
 30
0.0
 10
187.8406497738789
 20
62.55858038630016
 30
0.0
 10
187.8297869031544
 20
62.38360065412456
 30
0.0
 10
187.8078365359595
 20
62.03479415048336
 30
0.0
 10
187.7975649411405
 20
61.86058005854758
 30
0.0
 10
187.768260926782
 20
61.51452914659648
 30
0.0
 10
187.7494682555523
 20
61.34264629268124
 30
0.0
 10
187.6965489510361
 20
61.00261462378702
 30
0.0
 10
187.6624697738572
 20
60.83525376328991
 30
0.0
 10
187.6183835215794
 20
60.67675280488695
 30
0.0
  0
SPLINE
  5
23D
330
1F
100
AcDbEntity
  8
0
  6
Continuous
 62
     7
370
    25
100
AcDbSpline
210
0.0
220
0.0
230
1.0
 70
     8
 71
     3
 72
    14
 73
    10
 74
     0
 42
0.000000001
 43
0.00000001
 40
0.0
 40
0.0
 40
0.0
 40
0.0
 40
0.124999999999999
 40
0.124999999999999
 40
0.249999999999998
 40
0.249999999999998
 40
0.5000000000000007
 40
0.5000000000000007
 40
1.0
 40
1.0
 40
1.0
 40
1.0
 10
187.7710061070943
 20
63.47899666143568
 30
0.0
 10
187.7974300457675
 20
63.47469036216346
 30
0.0
 10
187.8214939882722
 20
63.45880685562305
 30
0.0
 10
187.8577632456974
 20
63.40966228273165
 30
0.0
 10
187.8697816206856
 20
63.37865092737932
 30
0.0
 10
187.8952958673559
 20
63.28179238551188
 30
0.0
 10
187.899489529804
 20
63.21151176463573
 30
0.0
 10
187.9005963395395
 20
63.00511036255785
 30
0.0
 10
187.8849683544509
 20
62.86703452653568
 30
0.0
 10
187.8653156218173
 20
62.73025291779294
 30
0.0
  0
SPLINE
  5
23E
330
1F
100
AcDbEntity
  8
0
  6
Continuous
 62
     7
370
    25
100
AcDbSpline
210
0.0
220
0.0
230
1.0
 70
     8
 71
     3
 72
     8
 73
     4
 74
     0
 42
0.000000001
 43
0.00000001
 40
0.0
 40
0.0
 40
0.0
 40
0.0
 40
1.0
 40
1.0
 40
1.0
 40
1.0
 10
186.3699839848686
 20
63.64820955532063
 30
0.0
 10
186.8368462105354
 20
63.61611980125534
 30
0.0
 10
187.3038809949189
 20
63.55512386394968
 30
0.0
 10
187.7710061070943
 20
63.47899666143569
 30
0.0
  0
SPLINE
  5
23F
330
1F
100
AcDbEntity
  8
0
  6
Continuous
 62
     7
370
    25
100
AcDbSpline
210
0.0
220
0.0
230
1.0
 70
     8
 71
     3
 72
    14
 73
    10
 74
     0
 42
0.000000001
 43
0.00000001
 40
0.0
 40
0.0
 40
0.0
 40
0.0
 40
0.5000000000000012
 40
0.5000000000000012
 40
0.7500000000000018
 40
0.7500000000000018
 40
0.8750000000000009
 40
0.8750000000000009
 40
1.0
 40
1.0
 40
1.0
 40
1.0
 10
183.52544660765
 20
64.5727914314831
 30
0.0
 10
183.9904811403651
 20
64.37644618222221
 30
0.0
 10
184.4573370616469
 20
64.18879367075411
 30
0.0
 10
185.1643634472514
 20
63.93877571380963
 30
0.0
 10
185.4011484301426
 20
63.86061445601077
 30
0.0
 10
185.7599290682742
 20
63.76004719061574
 30
0.0
 10
185.8801278922753
 20
63.72932569436411
 30
0.0
 10
186.1227299903852
 20
63.67805098797953
 30
0.0
 10
186.244981747974
 20
63.65680157844653
 30
0.0
 10
186.3699839848686
 20
63.64820955532059
 30
0.0
  0
SPLINE
  5
240
330
1F
100
AcDbEntity
  8
0
  6
Continuous
 62
     7
370
    25
100
AcDbSpline
210
0.0
220
0.0
230
1.0
 70
     8
 71
     3
 72
    14
 73
    10
 74
     0
 42
0.000000001
 43
0.00000001
 40
0.0
 40
0.0
 40
0.0
 40
0.0
 40
0.5000000000000012
 40
0.5000000000000012
 40
0.7500000000000018
 40
0.7500000000000018
 40
0.8750000000000009
 40
0.8750000000000009
 40
1.0
 40
1.0
 40
1.0
 40
1.0
 10
183.52544660765
 20
52.24984745560888
 30
0.0
 10
183.9904811403651
 20
51.91500213937044
 30
0.0
 10
184.4573370616469
 20
51.57621396429884
 30
0.0
 10
185.1643634472514
 20
51.05391821726602
 30
0.0
 10
185.4011484301426
 20
50.87749650917561
 30
0.0
 10
185.7599290682742
 20
50.60541435765661
 30
0.0
 10
185.8801278922753
 20
50.51346899629967
 30
0.0
 10
186.1227299903852
 20
50.32504297546933
 30
0.0
 10
186.244981747974
 20
50.22887223141466
 30
0.0
 10
186.3699839848686
 20
50.12706264744115
 30
0.0
  0
SPLINE
  5
241
330
1F
100
AcDbEntity
  8
0
  6
Continuous
 62
     7
370
    25
100
AcDbSpline
210
0.0
220
0.0
230
1.0
 70
     8
 71
     3
 72
    17
 73
    13
 74
     0
 42
0.000000001
 43
0.00000001
 40
0.0
 40
0.0
 40
0.0
 40
0.0
 40
0.1207961882900952
 40
0.2420175987944839
 40
0.3632153541307872
 40
0.4839596318162575
 40
0.6040258967628624
 40
0.6645178707182005
 40
0.7242649424600393
 40
0.8441758508052679
 40
0.9646454444514005
 40
1.0
 40
1.0
 40
1.0
 40
1.0
 10
191.983689735167
 20
49.8060716182249
 30
0.0
 10
191.7799214441961
 20
50.17996120596328
 30
0.0
 10
191.3716675647541
 20
50.92905653355255
 30
0.0
 10
191.1784002024921
 20
52.07737498960572
 30
0.0
 10
191.3837583755345
 20
53.02971198221587
 30
0.0
 10
191.9430645409107
 20
53.66318523446496
 30
0.0
 10
192.6189062209777
 20
53.80447150814007
 30
0.0
 10
193.1939055533199
 20
53.67832080387033
 30
0.0
 10
193.7736955104153
 20
53.39007157474265
 30
0.0
 10
194.4407462424274
 20
52.73278046037153
 30
0.0
 10
194.971376784455
 20
51.90735597111821
 30
0.0
 10
195.1304411181995
 20
51.38544400680141
 30
0.0
 10
195.1665308312012
 20
51.26702869294107
 30
0.0
  0
SPLINE
  5
242
330
1F
100
AcDbEntity
  8
0
  6
Continuous
 62
     7
370
    25
100
AcDbSpline
210
0.0
220
0.0
230
1.0
 70
     8
 71
     3
 72
    12
 73
     8
 74
     0
 42
0.000000001
 43
0.00000001
 40
0.0
 40
0.0
 40
0.0
 40
0.0
 40
0.0353744433893711
 40
0.3560360900717853
 40
0.5160472232178944
 40
0.6782077942890793
 40
1.0
 40
1.0
 40
1.0
 40
1.0
 10
194.486914216052
 20
47.77388104195107
 30
0.0
 10
194.4642079309006
 20
47.77003416880967
 30
0.0
 10
194.2356741022161
 20
47.7313162261076
 30
0.0
 10
193.7618596435067
 20
47.9949028745179
 30
0.0
 10
193.1931592767074
 20
48.40432678525176
 30
0.0
 10
192.6097109193401
 20
48.94055475752112
 30
0.0
 10
192.2337052388982
 20
49.46040818160738
 30
0.0
 10
191.983689735167
 20
49.8060716182249
 30
0.0
  0
SPLINE
  5
243
330
1F
100
AcDbEntity
  8
0
  6
Continuous
 62
     7
370
    25
100
AcDbSpline
210
0.0
220
0.0
230
1.0
 70
     8
 71
     3
 72
    14
 73
    10
 74
     0
 42
0.000000001
 43
0.00000001
 40
0.0
 40
0.0
 40
0.0
 40
0.0
 40
0.25
 40
0.25
 40
0.5
 40
0.5
 40
0.75
 40
0.75
 40
1.0
 40
1.0
 40
1.0
 40
1.0
 10
239.0989844700986
 20
55.40740729479712
 30
0.0
 10
239.1456665064373
 20
55.38045832884369
 30
0.0
 10
239.1833531210433
 20
55.34735160469256
 30
0.0
 10
239.2322245997977
 20
55.27674303163004
 30
0.0
 10
239.2443258301975
 20
55.23824745723996
 30
0.0
 10
239.2421562186424
 20
55.16228934304458
 30
0.0
 10
239.2279158045604
 20
55.12409563545223
 30
0.0
 10
239.1760643619708
 20
55.05410098652717
 30
0.0
 10
239.1383578218671
 20
55.02193299104539
 30
0.0
 10
239.0915403911497
 20
54.9949058635808
 30
0.0
  0
ARC
  5
244
330
1F
100
AcDbEntity
  8
0
  6
Continuous
 62
     7
370
    25
100
AcDbCircle
 10
213.6346627355
 20
35.3840535596
 30
0.0
 40
8.701929273940578
100
AcDbArc
 50
214.5542627763
 51
265.4839169162
  0
SPLINE
  5
245
330
1F
100
AcDbEntity
  8
0
  6
Continuous
 62
     7
370
    25
100
AcDbSpline
210
0.0
220
0.0
230
1.0
 70
     8
 71
     3
 72
    14
 73
    10
 74
     0
 42
0.000000001
 43
0.00000001
 40
0.0
 40
0.0
 40
0.0
 40
0.0
 40
0.25
 40
0.25
 40
0.5
 40
0.5
 40
0.75
 40
0.75
 40
1.0
 40
1.0
 40
1.0
 40
1.0
 10
204.5339120334292
 20
35.04514530381842
 30
0.0
 10
204.5811331968528
 20
35.0178851064236
 30
0.0
 10
204.6374199562842
 20
34.99660317489945
 30
0.0
 10
204.7608493043574
 20
34.96824854506833
 30
0.0
 10
204.8275026278173
 20
34.96140516272816
 30
0.0
 10
204.9596275047589
 20
34.96288727835732
 30
0.0
 10
205.0259868607436
 20
34.9712778100435
 30
0.0
 10
205.1472410928643
 20
35.00139613351481
 30
0.0
 10
205.2033521953415
 20
35.02340082735558
 30
0.0
 10
205.2500867688689
 20
35.0503801223825
 30
0.0
  0
LINE
  5
246
330
1F
100
AcDbEntity
  8
0
  6
Continuous
 62
     7
370
    25
100
AcDbLine
 10
202.8764637075
 20
36.0019693427
 30
0.0
 11
204.5339115742
 21
35.0451450558
 31
0.0
  0
SPLINE
  5
247
330
1F
100
AcDbEntity
  8
0
  6
Continuous
 62
     7
370
    25
100
AcDbSpline
210
0.0
220
0.0
230
1.0
 70
     8
 71
     3
 72
     8
 73
     4
 74
     0
 42
0.000000001
 43
0.00000001
 40
0.0
 40
0.0
 40
0.0
 40
0.0
 40
1.0
 40
1.0
 40
1.0
 40
1.0
 10
203.248252359832
 20
36.76850227003143
 30
0.0
 10
203.1240741919471
 20
36.51303147080535
 30
0.0
 10
203.0001564918053
 20
36.25751862413239
 30
0.0
 10
202.8764639987731
 20
36.00196968764573
 30
0.0
  0
LINE
  5
248
330
1F
100
AcDbEntity
  8
0
  6
Continuous
 62
     7
370
    25
100
AcDbLine
 10
203.5693532872
 20
36.9538696722
 30
0.0
 11
203.2482522534
 21
36.7685019911
 31
0.0
  0
SPLINE
  5
249
330
1F
100
AcDbEntity
  8
0
  6
Continuous
 62
     7
370
    25
100
AcDbSpline
210
0.0
220
0.0
230
1.0
 70
     8
 71
     3
 72
    12
 73
     8
 74
     0
 42
0.000000001
 43
0.00000001
 40
0.0
 40
0.0
 40
0.0
 40
0.0
 40
0.2500000000000014
 40
0.2500000000000014
 40
0.5000000000000029
 40
0.5000000000000029
 40
1.0
 40
1.0
 40
1.0
 40
1.0
 10
203.577662589575
 20
37.28522999262638
 30
0.0
 10
203.6150546271578
 20
37.26364402879995
 30
0.0
 10
203.6452651004753
 20
37.23700317600989
 30
0.0
 10
203.6841644704848
 20
37.18002497270409
 30
0.0
 10
203.6934948364147
 20
37.14913340302729
 30
0.0
 10
203.6898897730008
 20
37.05757706146523
 30
0.0
 10
203.6442847480893
 20
36.9971269013602
 30
0.0
 10
203.5693529095625
 20
36.95386967173474
 30
0.0
  0
LINE
  5
24A
330
1F
100
AcDbEntity
  8
0
  6
Continuous
 62
     7
370
    25
100
AcDbLine
 10
202.7927738958
 20
37.7383360637
 30
0.0
 11
203.5776621432
 21
37.285229723
 31
0.0
  0
SPLINE
  5
24B
330
1F
100
AcDbEntity
  8
0
  6
Continuous
 62
     7
370
    25
100
AcDbSpline
210
0.0
220
0.0
230
1.0
 70
     8
 71
     3
 72
    14
 73
    10
 74
     0
 42
0.000000001
 43
0.00000001
 40
0.0
 40
0.0
 40
0.0
 40
0.0
 40
0.25
 40
0.25
 40
0.5
 40
0.5
 40
0.75
 40
0.75
 40
1.0
 40
1.0
 40
1.0
 40
1.0
 10
202.2187789574962
 20
37.73353941852543
 30
0.0
 10
202.2566247552747
 20
37.75538733253704
 30
0.0
 10
202.3009436724226
 20
37.77275997732595
 30
0.0
 10
202.3986452089747
 20
37.79712145201782
 30
0.0
 10
202.4513983405865
 20
37.80383541654938
 30
0.0
 10
202.557351697815
 20
37.80519286613539
 30
0.0
 10
202.6107159841103
 20
37.7998151649963
 30
0.0
 10
202.709893758882
 20
37.77717422148046
 30
0.0
 10
202.7549006522833
 20
37.76020034899659
 30
0.0
 10
202.7927740624579
 20
37.738336494688
 30
0.0
  0
LINE
  5
24C
330
1F
100
AcDbEntity
  8
0
  6
Continuous
 62
     7
370
    25
100
AcDbLine
 10
201.8976782249
 20
37.548171782
 30
0.0
 11
202.2187792586
 21
37.7335394632
 31
0.0
  0
SPLINE
  5
24D
330
1F
100
AcDbEntity
  8
0
  6
Continuous
 62
     7
370
    25
100
AcDbSpline
210
0.0
220
0.0
230
1.0
 70
     8
 71
     3
 72
     8
 73
     4
 74
     0
 42
0.000000001
 43
0.00000001
 40
0.0
 40
0.0
 40
0.0
 40
0.0
 40
1.0
 40
1.0
 40
1.0
 40
1.0
 10
200.5698611576523
 20
37.33354316448639
 30
0.0
 10
201.0125328638687
 20
37.40494932079109
 30
0.0
 10
201.4551420539204
 20
37.47648548639286
 30
0.0
 10
201.8976784077657
 20
37.54817201682211
 30
0.0
  0
LINE
  5
24E
330
1F
100
AcDbEntity
  8
0
  6
Continuous
 62
     7
370
    25
100
AcDbLine
 10
237.6530236721
 20
56.2421429064
 30
0.0
 11
239.0989845799
 21
55.4074074421
 31
0.0
  0
LWPOLYLINE
  5
24F
330
1F
100
AcDbEntity
  8
0
  6
Continuous
 62
     7
370
    25
100
AcDbPolyline
 90
        8
 70
   128
 43
0.0
 10
207.6220447504
 20
28.7967974772
 10
206.965994809
 20
29.2175440659
 10
206.0114845941
 20
30.0046191861
 10
205.1587366278
 20
30.9391392726
 10
204.4138990816
 20
32.0143607242
 10
203.7823469959
 20
33.2225323986
 10
203.2686335474
 20
34.5549382035
 10
202.8764637075
 20
36.0019693427
  0
ARC
  5
250
330
1F
100
AcDbEntity
  8
0
  6
Continuous
 62
     7
370
    25
100
AcDbCircle
 10
213.4096577687
 20
40.0103573332
 30
0.0
 40
11.772341768099
100
AcDbArc
 50
192.0725460793
 51
215.0022747034
  0
SPLINE
  5
251
330
1F
100
AcDbEntity
  8
0
  6
Continuous
 62
     7
370
    25
100
AcDbSpline
210
0.0
220
0.0
230
1.0
 70
     8
 71
     3
 72
    12
 73
     8
 74
     0
 42
0.000000001
 43
0.00000001
 40
0.0
 40
0.0
 40
0.0
 40
0.0
 40
0.1675503883347434
 40
0.4025161747753053
 40
0.6381208840270863
 40
0.8774598722428354
 40
0.9999999999999999
 40
0.9999999999999999
 40
0.9999999999999999
 40
0.9999999999999999
 10
193.4066476833248
 20
53.46627369824286
 30
0.0
 10
193.3721397681733
 20
53.28899440140061
 30
0.0
 10
193.2892393694079
 20
52.86310589621115
 30
0.0
 10
193.4838744100666
 20
52.0521636979899
 30
0.0
 10
193.9173294275247
 20
51.17983628581528
 30
0.0
 10
194.4391758229286
 20
50.47867152300204
 30
0.0
 10
194.8046245893295
 20
50.16807646324056
 30
0.0
 10
194.9283734782453
 20
50.06290223067511
 30
0.0
  0
SPLINE
  5
252
330
1F
100
AcDbEntity
  8
0
  6
Continuous
 62
     7
370
    25
100
AcDbSpline
210
0.0
220
0.0
230
1.0
 70
     8
 71
     3
 72
    11
 73
     7
 74
     0
 42
0.000000001
 43
0.00000001
 40
0.0
 40
0.0
 40
0.0
 40
0.0
 40
0.1889487415400878
 40
0.3635157627967836
 40
0.6686735586554259
 40
1.0
 40
1.0
 40
1.0
 40
1.0
 10
192.2740031546107
 20
49.9884817032649
 30
0.0
 10
192.4005442319645
 20
49.80529697505271
 30
0.0
 10
192.6439947883665
 20
49.45287051448987
 30
0.0
 10
193.1606913209206
 20
48.8914695089755
 30
0.0
 10
193.8350173964208
 20
48.33344726626898
 30
0.0
 10
194.2898637533709
 20
48.17642023700265
 30
0.0
 10
194.5266372915013
 20
48.09467868904171
 30
0.0
  0
SPLINE
  5
253
330
1F
100
AcDbEntity
  8
0
  6
Continuous
 62
     7
370
    25
100
AcDbSpline
210
0.0
220
0.0
230
1.0
 70
     8
 71
     3
 72
    15
 73
    11
 74
     0
 42
0.000000001
 43
0.00000001
 40
0.0
 40
0.0
 40
0.0
 40
0.0
 40
0.0285605575140947
 40
0.1766231786262573
 40
0.2612396331333766
 40
0.3527785380977456
 40
0.5145481059714542
 40
0.6763327681591422
 40
0.8381560932852216
 40
1.0
 40
1.0
 40
1.0
 40
1.0
 10
193.9287987333535
 20
53.18979048146305
 30
0.0
 10
193.8859585254349
 20
53.23263655512076
 30
0.0
 10
193.6210276433316
 20
53.49760371191883
 30
0.0
 10
193.1599279360756
 20
53.61013972925689
 30
0.0
 10
192.6498535023474
 20
53.61737977164628
 30
0.0
 10
192.1639952372526
 20
53.44160402819344
 30
0.0
 10
191.7120202625287
 20
52.95342081741424
 30
0.0
 10
191.5225401169492
 20
52.07268094295885
 30
0.0
 10
191.7013594794261
 20
51.01968184939413
 30
0.0
 10
192.0831138377906
 20
50.33222965671227
 30
0.0
 10
192.2740031546107
 20
49.9884817032649
 30
0.0
  0
SPLINE
  5
254
330
1F
100
AcDbEntity
  8
0
  6
Continuous
 62
     7
370
    25
100
AcDbSpline
210
0.0
220
0.0
230
1.0
 70
     8
 71
     3
 72
     9
 73
     5
 74
     0
 42
0.000000001
 43
0.00000001
 40
0.0
 40
0.0
 40
0.0
 40
0.0
 40
0.1883710221454139
 40
1.0
 40
1.0
 40
1.0
 40
1.0
 10
233.2159285843169
 20
71.04763739066776
 30
0.0
 10
233.2583047250401
 20
71.05717011315028
 30
0.0
 10
233.4832657633171
 20
71.10777621155096
 30
0.0
 10
233.7090333644587
 20
71.15717430197584
 30
0.0
 10
233.8922728918059
 20
71.19726722361537
 30
0.0
  0
LINE
  5
255
330
1F
100
AcDbEntity
  8
0
  6
Continuous
 62
     7
370
    25
100
AcDbLine
 10
233.8922728918
 20
71.1972672236
 30
0.0
 11
235.5497207586
 21
70.2404429367
 31
0.0
  0
SPLINE
  5
256
330
1F
100
AcDbEntity
  8
0
  6
Continuous
 62
     7
370
    25
100
AcDbSpline
210
0.0
220
0.0
230
1.0
 70
     8
 71
     3
 72
    16
 73
    12
 74
     0
 42
0.000000001
 43
0.00000001
 40
0.0
 40
0.0
 40
0.0
 40
0.0
 40
0.125
 40
0.125
 40
0.25
 40
0.25
 40
0.5
 40
0.5
 40
0.75
 40
0.75
 40
1.0
 40
1.0
 40
1.0
 40
1.0
 10
235.5497213453934
 20
70.24044259168477
 30
0.0
 10
235.5764633129518
 20
70.22500478241635
 30
0.0
 10
235.5994339115983
 20
70.20711306300912
 30
0.0
 10
235.6354108637225
 20
70.16893306646399
 30
0.0
 10
235.6486734025015
 20
70.1486492489934
 30
0.0
 10
235.6754285132073
 20
70.08452291769866
 30
0.0
 10
235.6746115079469
 20
70.04003006606949
 30
0.0
 10
235.6465311177007
 20
69.9549503737256
 30
0.0
 10
235.6189617627762
 20
69.91357751767927
 30
0.0
 10
235.5457876070168
 20
69.83814638497124
 30
0.0
 10
235.4995537686041
 20
69.80327741014746
 30
0.0
 10
235.4463899836758
 20
69.77258661038039
 30
0.0
  0
LINE
  5
257
330
1F
100
AcDbEntity
  8
0
  6
Continuous
 62
     7
370
    25
100
AcDbLine
 10
186.1626725835
 20
55.9489915231
 30
0.0
 11
186.7854462709
 21
55.589471926
 31
0.0
  0
SPLINE
  5
258
330
1F
100
AcDbEntity
  8
0
  6
Continuous
 62
     7
370
    25
100
AcDbSpline
210
0.0
220
0.0
230
1.0
 70
     8
 71
     3
 72
    11
 73
     7
 74
     0
 42
0.000000001
 43
0.00000001
 40
0.0
 40
0.0
 40
0.0
 40
0.0
 40
0.0466304722500908
 40
0.4281527877979693
 40
0.8088298298119748
 40
1.0
 40
1.0
 40
1.0
 40
1.0
 10
239.0915410513352
 20
63.1603141980906
 30
0.0
 10
239.0965184926555
 20
63.16326177980314
 30
0.0
 10
239.1422204826751
 20
63.1903259562224
 30
0.0
 10
239.2086567069537
 20
63.25156482686037
 30
0.0
 10
239.2512767431637
 20
63.33533864962943
 30
0.0
 10
239.237444185569
 20
63.38549565689684
 30
0.0
 10
239.2328199217217
 20
63.4022632888986
 30
0.0
  0
LINE
  5
259
330
1F
100
AcDbEntity
  8
0
  6
Continuous
 62
     7
370
    25
100
AcDbLine
 10
183.5106822397
 20
65.6304222635
 30
0.0
 11
183.5268560928
 21
65.6790478777
 31
0.0
  0
SPLINE
  5
25A
330
1F
100
AcDbEntity
  8
0
  6
Continuous
 62
     7
370
    25
100
AcDbSpline
210
0.0
220
0.0
230
1.0
 70
     8
 71
     3
 72
    16
 73
    12
 74
     0
 42
0.000000001
 43
0.00000001
 40
0.0
 40
0.0
 40
0.0
 40
0.0
 40
0.0332838850724123
 40
0.1625854311030977
 40
0.239429833395794
 40
0.3008069245191573
 40
0.3624173839861106
 40
0.4362069101913193
 40
0.5596777462223994
 40
0.9141728339414532
 40
1.0
 40
1.0
 40
1.0
 40
1.0
 10
183.5530338955641
 20
65.7577415836457
 30
0.0
 10
183.5546772260486
 20
65.76275520627031
 30
0.0
 10
183.5627045820702
 20
65.78724579665777
 30
0.0
 10
183.5733181989945
 20
65.81186848090206
 30
0.0
 10
183.5833746541425
 20
65.82928487163436
 30
0.0
 10
183.5882332579457
 20
65.82865647364726
 30
0.0
 10
183.5894358057511
 20
65.81328809253374
 30
0.0
 10
183.5861573104328
 20
65.77671829408504
 30
0.0
 10
183.570648013302
 20
65.67639326135041
 30
0.0
 10
183.5476533708249
 20
65.56109748514993
 30
0.0
 10
183.5289485173553
 20
65.47205289974475
 30
0.0
 10
183.525302586333
 20
65.45469641968357
 30
0.0
  0
SPLINE
  5
25B
330
1F
100
AcDbEntity
  8
0
  6
Continuous
 62
     7
370
    25
100
AcDbSpline
210
0.0
220
0.0
230
1.0
 70
     8
 71
     3
 72
     9
 73
     5
 74
     0
 42
0.000000001
 43
0.00000001
 40
0.0
 40
0.0
 40
0.0
 40
0.0
 40
0.7766522094856231
 40
1.0
 40
1.0
 40
1.0
 40
1.0
 10
183.4595185997971
 20
65.1922267277542
 30
0.0
 10
183.4563322898302
 20
65.30106251744913
 30
0.0
 10
183.4522296684405
 20
65.44119704403082
 30
0.0
 10
183.5000104971828
 20
65.59587523198496
 30
0.0
 10
183.5106822397113
 20
65.63042226350527
 30
0.0
  0
SPLINE
  5
25C
330
1F
100
AcDbEntity
  8
0
  6
Continuous
 62
     7
370
    25
100
AcDbSpline
210
0.0
220
0.0
230
1.0
 70
     8
 71
     3
 72
     8
 73
     4
 74
     0
 42
0.000000001
 43
0.00000001
 40
0.0
 40
0.0
 40
0.0
 40
0.0
 40
1.0
 40
1.0
 40
1.0
 40
1.0
 10
183.4362174572792
 20
64.59378838127361
 30
0.0
 10
183.4648197528533
 20
64.59223496614008
 30
0.0
 10
183.4945161325908
 20
64.58585078817738
 30
0.0
 10
183.5254466076488
 20
64.57279143148945
 30
0.0
  0
SPLINE
  5
25D
330
1F
100
AcDbEntity
  8
0
  6
Continuous
 62
     7
370
    25
100
AcDbSpline
210
0.0
220
0.0
230
1.0
 70
     8
 71
     3
 72
    10
 73
     6
 74
     0
 42
0.000000001
 43
0.00000001
 40
0.0
 40
0.0
 40
0.0
 40
0.0
 40
0.4999999999999989
 40
0.4999999999999989
 40
1.0
 40
1.0
 40
1.0
 40
1.0
 10
183.5253027799459
 20
65.45469639546796
 30
0.0
 10
183.4953143100371
 20
65.31290553929796
 30
0.0
 10
183.4748810108505
 20
65.17064772325465
 30
0.0
 10
183.4462480236247
 20
64.88383745508489
 30
0.0
 10
183.4383769639782
 20
64.73938092188935
 30
0.0
 10
183.43621745728
 20
64.59378838126989
 30
0.0
  0
ARC
  5
25E
330
1F
100
AcDbEntity
  8
0
  6
Continuous
 62
     7
370
    25
100
AcDbCircle
 10
184.6555692103
 20
64.4257421856
 30
0.0
 40
1.230877198383684
100
AcDbArc
 50
172.1531384875
 51
234.5145852444
  0
ARC
  5
25F
330
1F
100
AcDbEntity
  8
0
  6
Continuous
 62
     7
370
    25
100
AcDbCircle
 10
187.1687173472
 20
52.2223794426
 30
0.0
 40
3.734047488377514
100
AcDbArc
 50
122.5266350896
 51
178.3504233083
  0
SPLINE
  5
260
330
1F
100
AcDbEntity
  8
0
  6
Continuous
 62
     7
370
    25
100
AcDbSpline
210
0.0
220
0.0
230
1.0
 70
     8
 71
     3
 72
     8
 73
     4
 74
     0
 42
0.000000001
 43
0.00000001
 40
0.0
 40
0.0
 40
0.0
 40
0.0
 40
1.0
 40
1.0
 40
1.0
 40
1.0
 10
183.4362174572798
 20
52.32986961370754
 30
0.0
 10
183.4648197528538
 20
52.29917220984963
 30
0.0
 10
183.494516132591
 20
52.27211875799931
 30
0.0
 10
183.5254466076488
 20
52.24984745560432
 30
0.0
  0
LINE
  5
261
330
1F
100
AcDbEntity
  8
0
  6
Continuous
 62
     7
370
    25
100
AcDbLine
 10
185.1609513128
 20
55.3707101426
 30
0.0
 11
186.1626725835
 21
55.9489915231
 31
0.0
  0
SPLINE
  5
262
330
1F
100
AcDbEntity
  8
0
  6
Continuous
 62
     7
370
    25
100
AcDbSpline
210
0.0
220
0.0
230
1.0
 70
     8
 71
     3
 72
     9
 73
     5
 74
     0
 42
0.000000001
 43
0.00000001
 40
0.0
 40
0.0
 40
0.0
 40
0.0
 40
0.3901117718169397
 40
1.0
 40
1.0
 40
1.0
 40
1.0
 10
183.4700230432439
 20
53.39702048201968
 30
0.0
 10
183.4609454866015
 20
53.35023442864628
 30
0.0
 10
183.4376763691377
 20
53.23030456045622
 30
0.0
 10
183.451243913938
 20
53.10944953401391
 30
0.0
 10
183.4595185997971
 20
53.03574147607
 30
0.0
  0
ARC
  5
263
330
1F
100
AcDbEntity
  8
0
  6
Continuous
 62
     7
370
    25
100
AcDbCircle
 10
185.9536322579
 20
52.9095887763
 30
0.0
 40
2.530988818362128
100
AcDbArc
 50
122.9343808406
 51
168.8962913337
  0
LINE
  5
264
330
1F
100
AcDbEntity
  8
0
  6
Continuous
 62
     7
370
    25
100
AcDbLine
 10
185.1609513128
 20
55.3707101426
 30
0.0
 11
184.57758888
 21
55.0338319406
 31
0.0
  0
LINE
  5
265
330
1F
100
AcDbEntity
  8
0
  6
Continuous
 62
     7
370
    25
100
AcDbLine
 10
183.4957326208
 20
52.1907484149
 30
0.0
 11
183.4362173195
 21
52.329869852
 31
0.0
  0
LWPOLYLINE
  5
266
330
1F
100
AcDbEntity
  8
0
  6
Continuous
 62
     7
370
    18
100
AcDbPolyline
 90
       20
 70
   128
 43
0.0
 10
264.0836804996
 20
18.3200164244
 10
264.2473465906
 20
18.845255115
 10
264.5232655442
 20
19.3505897534
 10
264.8815381227
 20
19.7812598835
 10
265.2833395053
 20
20.0905955957
 10
265.6851283756
 20
20.245075589
 10
266.0433644049
 20
20.2279594115
 10
266.3192277115
 20
20.0411021003
 10
266.4828236674
 20
19.7047523114
 10
266.5164242546
 20
19.2553588055
 10
266.4163883804
 20
18.7416203638
 10
266.1935566752
 20
18.2192086373
 10
265.8720759905
 20
17.7447348639
 10
265.4867843187
 20
17.3696158513
 10
265.0794333815
 20
17.1345013626
 10
264.6941664051
 20
17.0648697969
 10
264.3727328064
 20
17.168266732
 10
264.14996498
 20
17.4334876139
 10
264.0500031921
 20
17.8317915004
 10
264.0836804996
 20
18.3200164244
  0
LWPOLYLINE
  5
267
330
1F
100
AcDbEntity
  8
0
  6
Continuous
 62
     7
370
    18
100
AcDbPolyline
 90
        9
 70
   128
 43
0.0
 10
263.7355369942
 20
18.3732737466
 10
263.8988105926
 20
18.91633088
 10
264.1693874332
 20
19.4458202698
 10
264.5232260315
 20
19.9146944753
 10
264.9288854972
 20
20.2812917307
 10
265.3503223721
 20
20.5130388037
 10
265.7500891815
 20
20.5893435917
 10
266.0926653517
 20
20.5034260986
 10
266.0940087825
 20
20.5026903197
  0
ARC
  5
268
330
1F
100
AcDbEntity
  8
0
  6
Continuous
 62
     7
370
    18
100
AcDbCircle
 10
264.8449223395
 20
17.9573526631
 30
0.0
 40
1.184789513731346
100
AcDbArc
 50
159.4484113207
 51
231.2395445954
  0
LWPOLYLINE
  5
269
330
1F
100
AcDbEntity
  8
0
  6
Continuous
 62
     7
370
    18
100
AcDbPolyline
 90
       15
 70
   128
 43
0.0
 10
273.972965997
 20
23.9786342609
 10
274.0123291779
 20
24.1647658372
 10
274.2062066567
 20
24.690387818
 10
274.5059046647
 20
25.1819887844
 10
274.878945433
 20
25.5862957024
 10
275.284905195
 20
25.8594960142
 10
275.6797912017
 20
25.9719840845
 10
276.0208112312
 20
25.911569716
 10
276.2710113876
 20
25.684800492
 10
276.4032780764
 20
25.3162499644
 10
276.4032780764
 20
24.8458562798
 10
276.2710113876
 20
24.3245938839
 10
276.0208112312
 20
23.8089497083
 10
275.6797912017
 20
23.3548019946
 10
275.4432025018
 20
23.1298849747
  0
LWPOLYLINE
  5
26A
330
1F
100
AcDbEntity
  8
0
  6
Continuous
 62
     7
370
    18
100
AcDbPolyline
 90
        9
 70
   128
 43
0.0
 10
273.6510707586
 20
24.164460711
 10
273.6545547884
 20
24.1797137012
 10
273.8374605864
 20
24.7238913406
 10
274.1241908651
 20
25.2462642289
 10
274.4892685133
 20
25.7004171947
 10
274.9002542869
 20
26.0459965621
 10
275.3206309052
 20
26.252296555
 10
275.7130457238
 20
26.3009861081
 10
275.9985965493
 20
26.2147204456
  0
LWPOLYLINE
  5
26B
330
1F
100
AcDbEntity
  8
0
  6
Continuous
 62
     7
370
    18
100
AcDbPolyline
 90
       15
 70
   128
 43
0.0
 10
277.9934646766
 20
13.6371580258
 10
278.4717776535
 20
13.6779529958
 10
278.9849619204
 20
13.8779000948
 10
279.5031930665
 20
14.225379064
 10
279.9963532998
 20
14.700195833
 10
280.4357820223
 20
15.2747558454
 10
280.7959413308
 20
15.9156676469
 10
281.0558997997
 20
16.5856836856
 10
281.2005497594
 20
17.2458651636
 10
281.2214847247
 20
17.8578447841
 10
281.1174880346
 20
18.386056501
 10
280.8946034812
 20
18.799802498
 10
280.5657843058
 20
19.0750373629
 10
280.1501403176
 20
19.1957654371
 10
279.737435537
 20
19.1695878459
  0
ARC
  5
26C
330
1F
100
AcDbEntity
  8
0
  6
Continuous
 62
     7
370
    18
100
AcDbCircle
 10
278.1485739288
 20
14.8156681752
 30
0.0
 40
1.188673652561481
100
AcDbArc
 50
189.7092824664
 51
262.5021291162
  0
LWPOLYLINE
  5
26D
330
1F
100
AcDbEntity
  8
0
  6
Continuous
 62
     7
370
    18
100
AcDbPolyline
 90
       15
 70
   128
 43
0.0
 10
277.3055161563
 20
13.6834420685
 10
277.0103518981
 20
13.931426295
 10
276.7708792671
 20
14.3438067264
 10
276.6478259452
 20
14.8723256998
 10
276.6478259452
 20
15.4884906148
 10
276.7708792671
 20
16.1590839295
 10
277.0103518981
 20
16.8479535754
 10
277.3533340609
 20
17.5179627742
 10
277.7813354722
 20
18.1329907984
 10
278.2712823375
 20
18.659881516
 10
278.7967615583
 20
19.0702302013
 10
279.3294443711
 20
19.3419147059
 10
279.8406137798
 20
19.4602882566
 10
280.3027124031
 20
19.4189697749
 10
280.5552518742
 20
19.312759698
  0
LWPOLYLINE
  5
26E
330
1F
100
AcDbEntity
  8
0
  6
Continuous
 62
     7
370
    18
100
AcDbPolyline
 90
       23
 70
   128
 43
0.0
 10
262.0305283846
 20
18.824865752
 10
262.0931506989
 20
19.8951455202
 10
262.2797967005
 20
21.0168945171
 10
262.5868351748
 20
22.1682800988
 10
263.0082891719
 20
23.3268915094
 10
263.5359558615
 20
24.4701778015
 10
264.1595645833
 20
25.5758855625
 10
264.8669777036
 20
26.6224944515
 10
265.6444260445
 20
27.5896327693
 10
266.4767774056
 20
28.4584762018
 10
267.3478313452
 20
29.2121141923
 10
268.2406335525
 20
29.8358778142
 10
269.1378066844
 20
30.3176265772
 10
270.0218882807
 20
30.6479830459
 10
270.8756708204
 20
30.8205169825
 10
271.6825363445
 20
30.8318715994
 10
272.4267798835
 20
30.6818247942
 10
273.0939157631
 20
30.3732971531
 10
273.670959132
 20
29.9122943194
 10
274.1466785137
 20
29.307788908
 10
274.5118137845
 20
28.5715465288
 10
274.7592592492
 20
27.7178979163
 10
274.8773705238
 20
26.8620507265
  0
LWPOLYLINE
  5
26F
330
1F
100
AcDbEntity
  8
0
  6
Continuous
 62
     7
370
    18
100
AcDbPolyline
 90
       15
 70
   128
 43
0.0
 10
270.5525641894
 20
16.7158361603
 10
270.0218882807
 20
16.2283761998
 10
269.1378066844
 20
15.5379937844
 10
268.2406335525
 20
14.9838884982
 10
267.3478313452
 20
14.5768446329
 10
266.4767774056
 20
14.3247851516
 10
265.6444260445
 20
14.2326161582
 10
264.8669777036
 20
14.3021317281
 10
264.1595645833
 20
14.5319788136
 10
263.5359558615
 20
14.9176832702
 10
263.0082891719
 20
15.4517385703
 10
262.5868351748
 20
16.1237495534
 10
262.2797967005
 20
16.9206360584
 10
262.0931506989
 20
17.8268881689
 10
262.0305283846
 20
18.824865752
  0
LWPOLYLINE
  5
270
330
1F
100
AcDbEntity
  8
0
  6
Continuous
 62
     7
370
    18
100
AcDbPolyline
 90
       19
 70
   128
 43
0.0
 10
261.4648439206
 20
18.824865752
 10
261.5274109172
 20
19.9172483793
 10
261.7139476003
 20
21.0615209665
 10
262.0209781721
 20
22.2363673995
 10
262.4427831735
 20
23.419902188
 10
262.9715064977
 20
24.5900796795
 10
263.597297636
 20
25.7251004186
 10
264.3084996921
 20
26.8038212087
 10
265.0918647262
 20
27.8061480608
 10
265.9327995564
 20
28.7134092731
 10
266.8156393848
 20
29.5087046476
 10
267.7239387496
 20
30.1772179414
 10
268.6407775021
 20
30.7064976873
 10
269.5490768669
 20
31.0866845178
 10
270.4319166952
 20
31.3106943126
 10
271.2728515255
 20
31.3743557886
 10
272.0562165596
 20
31.2764829529
 10
272.7674186157
 20
31.0188985785
 10
272.9319720953
 20
30.9302684885
  0
LWPOLYLINE
  5
271
330
1F
100
AcDbEntity
  8
0
  6
Continuous
 62
     7
370
    18
100
AcDbPolyline
 90
        7
 70
   128
 43
0.0
 10
263.4327441564
 20
14.4753398284
 10
262.9715064977
 20
14.7992074085
 10
262.4427831735
 20
15.3589339437
 10
262.0209781721
 20
16.0554630438
 10
261.7139476003
 20
16.8758195241
 10
261.5274109172
 20
17.8047214413
 10
261.4648439206
 20
18.824865752
  0
LWPOLYLINE
  5
272
330
1F
100
AcDbEntity
  8
0
  6
Continuous
 62
     7
370
    18
100
AcDbPolyline
 90
       19
 70
   128
 43
0.0
 10
226.7282240218
 20
38.8778895789
 10
226.7907910184
 20
39.9702722062
 10
226.9773277016
 20
41.1145447935
 10
227.2843582734
 20
42.2893912264
 10
227.7061632747
 20
43.4729260149
 10
228.2348865989
 20
44.6431035064
 10
228.8606777373
 20
45.7781242456
 10
229.5718797934
 20
46.8568450356
 10
230.3552448274
 20
47.8591718877
 10
231.1961796577
 20
48.7664331001
 10
232.079019486
 20
49.5617284745
 10
232.9873188508
 20
50.2302417684
 10
233.9041576034
 20
50.7595215142
 10
234.8124569682
 20
51.1397083447
 10
235.6952967965
 20
51.3637181395
 10
236.5362316268
 20
51.4273796156
 10
237.3195966608
 20
51.3295067799
 10
238.0307987169
 20
51.0719224054
 10
238.1953521966
 20
50.9832923154
  0
LWPOLYLINE
  5
273
330
1F
100
AcDbEntity
  8
0
  6
Continuous
 62
     7
370
    18
100
AcDbPolyline
 90
        7
 70
   128
 43
0.0
 10
228.6961242576
 20
34.5283636553
 10
228.2348865989
 20
34.8522312354
 10
227.7061632747
 20
35.4119577706
 10
227.2843582734
 20
36.1084868707
 10
226.9773277016
 20
36.9288433511
 10
226.7907910184
 20
37.8577452682
 10
226.7282240218
 20
38.8778895789
  0
LWPOLYLINE
  5
274
330
1F
100
AcDbEntity
  8
0
  6
Continuous
 62
     7
370
    18
100
AcDbPolyline
 90
       11
 70
   128
 43
0.0
 10
272.8566092496
 20
20.4035663094
 10
273.3399622323
 20
21.0450011092
 10
273.8815208359
 20
21.5852001939
 10
274.4535283459
 20
21.9964765436
 10
275.0266675852
 20
22.2577505432
 10
275.5715633631
 20
22.3556315874
 10
276.060288011
 20
22.2851024159
 10
276.467792883
 20
22.0497783858
 10
276.77319224
 20
21.6617204971
 10
276.9608329731
 20
21.1408176541
 10
276.9885351417
 20
20.9898267637
  0
LWPOLYLINE
  5
275
330
1F
100
AcDbEntity
  8
0
  6
Continuous
 62
     7
370
    18
100
AcDbPolyline
 90
       11
 70
   128
 43
0.0
 10
274.0695638162
 20
15.9334720808
 10
273.9245516981
 20
15.8818242353
 10
273.3796559202
 20
15.7839431911
 10
272.8909312723
 20
15.8544723626
 10
272.4834264003
 20
16.0897963928
 10
272.1780270433
 20
16.4778542814
 10
271.9903863103
 20
16.9987571244
 10
271.9301209267
 20
17.6258066982
 10
272.0003201249
 20
18.3268649927
 10
272.1973856176
 20
19.0660003669
 10
272.5112171432
 20
19.8053296342
  0
LWPOLYLINE
  5
276
330
1F
100
AcDbEntity
  8
0
  6
Continuous
 62
     7
370
    18
100
AcDbPolyline
 90
       12
 70
   128
 43
0.0
 10
271.3643401506
 20
17.6002524331
 10
271.4304672388
 20
18.3405553318
 10
271.6257564724
 20
19.122591246
 10
271.9410761439
 20
19.9097928436
 10
272.3616824296
 20
20.6653514918
 10
272.8679083094
 20
21.353938358
 10
273.4360829771
 20
21.9433557157
 10
274.0396394508
 20
22.4060430922
 10
274.6503559909
 20
22.7203654117
 10
275.2396761935
 20
22.8716260219
 10
275.7800440664
 20
22.8527514845
 10
276.1926049138
 20
22.6972641766
  0
ARC
  5
277
330
1F
100
AcDbEntity
  8
0
  6
Continuous
 62
     7
370
    18
100
AcDbCircle
 10
273.3590211224
 20
17.3926287081
 30
0.0
 40
2.005457501514628
100
AcDbArc
 50
174.0575568819
 51
232.3042618031
  0
LWPOLYLINE
  5
278
330
1F
100
AcDbEntity
  8
0
  6
Continuous
 62
     7
370
    18
100
AcDbPolyline
 90
        9
 70
   128
 43
0.0
 10
273.9461255751
 20
16.7951046592
 10
273.7996194253
 20
16.7712679611
 10
273.390780054
 20
16.805979558
 10
273.0575273924
 20
16.9984247649
 10
272.8230814317
 20
17.3351946085
 10
272.7037772037
 20
17.7928241864
 10
272.7079275158
 20
18.3394277217
 10
272.8352431024
 20
18.9369199053
 10
273.0768533688
 20
19.5436699097
  0
LWPOLYLINE
  5
279
330
1F
100
AcDbEntity
  8
0
  6
Continuous
 62
     7
370
    18
100
AcDbPolyline
 90
        9
 70
   128
 43
0.0
 10
273.365973094
 20
20.0444399618
 10
273.7706200475
 20
20.5570402937
 10
274.2243879799
 20
20.9660142854
 10
274.6956600664
 20
21.2428664973
 10
275.151599858
 20
21.3683068174
 10
275.5604392293
 20
21.3335952205
 10
275.8936918909
 20
21.1411500137
 10
276.1281378517
 20
20.8043801701
 10
276.1806508493
 20
20.6658353964
  0
ARC
  5
27A
330
1F
100
AcDbEntity
  8
0
  6
Continuous
 62
     7
370
    18
100
AcDbCircle
 10
274.8479497887
 20
20.39371003
 30
0.0
 40
0.7924376071721663
100
AcDbArc
 50
27.3587469849
 51
58.7547066533
  0
LWPOLYLINE
  5
27B
330
1F
100
AcDbEntity
  8
0
  6
Continuous
 62
     7
370
    18
100
AcDbPolyline
 90
        3
 70
   128
 43
0.0
 10
273.5519130124
 20
17.2936875375
 10
273.2559104681
 20
17.3356384195
 10
273.1303537716
 20
17.3927149085
  0
LWPOLYLINE
  5
27C
330
1F
100
AcDbEntity
  8
0
  6
Continuous
 62
     7
370
    18
100
AcDbPolyline
 90
       14
 70
   128
 43
0.0
 10
265.4502156715
 20
20.8374458744
 10
265.5153730529
 20
21.5909315834
 10
265.7079966629
 20
22.3867149206
 10
266.0196686564
 20
23.1900169054
 10
266.4367670402
 20
23.965729005
 10
266.9410626437
 20
24.6799489274
 10
267.5105155463
 20
25.3014620718
 10
268.1202377459
 20
25.8031047815
 10
268.7435814859
 20
26.162953463
 10
269.3533036855
 20
26.3652810206
 10
269.9227565881
 20
26.4012442027
 10
270.4270521916
 20
26.2692715906
 10
270.8441505754
 20
25.9751310344
 10
271.1014707503
 20
25.6335269207
  0
LWPOLYLINE
  5
27D
330
1F
100
AcDbEntity
  8
0
  6
Continuous
 62
     7
370
    18
100
AcDbPolyline
 90
        3
 70
   128
 43
0.0
 10
267.1042088137
 20
18.709315884
 10
266.9410626437
 20
18.7162380967
 10
266.4662296629
 20
18.8349899585
  0
LWPOLYLINE
  5
27E
330
1F
100
AcDbEntity
  8
0
  6
Continuous
 62
     7
370
    18
100
AcDbPolyline
 90
       11
 70
   128
 43
0.0
 10
266.1375105863
 20
20.3940512173
 10
266.1273708119
 20
20.9187538472
 10
266.2270698406
 20
21.6491506461
 10
266.4491063532
 20
22.4099668506
 10
266.7832007994
 20
23.1659776318
 10
267.2138847917
 20
23.8821806193
 10
267.7212179318
 20
24.5254159889
 10
268.2817114187
 20
25.0659028906
 10
268.8694149768
 20
25.478617306
 10
269.457118535
 20
25.7444509756
 10
269.4889642245
 20
25.7545525192
  0
LWPOLYLINE
  5
27F
330
1F
100
AcDbEntity
  8
0
  6
Continuous
 62
     7
370
    18
100
AcDbPolyline
 90
       13
 70
   128
 43
0.0
 10
265.9106443082
 20
20.6087184545
 10
265.9019413133
 20
20.8556793812
 10
265.9660018888
 20
21.5728478143
 10
266.1551882258
 20
22.3304449725
 10
266.4606540958
 20
23.0930464251
 10
266.8681164917
 20
23.824994124
 10
267.358522733
 20
24.4920624679
 10
267.908942053
 20
25.063060609
 10
268.4936373387
 20
25.5112888999
 10
269.0852689914
 20
25.8157888159
 10
269.6561729145
 20
25.9623223582
 10
270.1796543067
 20
25.944037766
 10
270.6103409332
 20
25.7749203117
  0
LWPOLYLINE
  5
280
330
1F
100
AcDbEntity
  8
0
  6
Continuous
 62
     7
370
    18
100
AcDbPolyline
 90
        3
 70
   128
 43
0.0
 10
266.6647131666
 20
19.1350190353
 10
266.5829769272
 20
19.2135720651
 10
266.5389031774
 20
19.2617404982
  0
LWPOLYLINE
  5
281
330
1F
100
AcDbEntity
  8
0
  6
Continuous
 62
     7
370
    18
100
AcDbPolyline
 90
       13
 70
   128
 43
0.0
 10
266.0831777009
 20
20.5091170469
 10
266.0764412845
 20
20.8770694075
 10
266.1643796961
 20
21.611849703
 10
266.3788987586
 20
22.3813075627
 10
266.709752178
 20
23.148690515
 10
267.1411371909
 20
23.8773456364
 10
267.6524490099
 20
24.5324691866
 10
268.2192655531
 20
25.082770243
 10
268.8145134383
 20
25.5019642588
 10
269.4097613235
 20
25.7700288225
 10
269.9765778667
 20
25.8741602169
 10
270.4878896857
 20
25.809384727
 10
270.5130375248
 20
25.8012345778
  0
LWPOLYLINE
  5
282
330
1F
100
AcDbEntity
  8
0
  6
Continuous
 62
     7
370
    18
100
AcDbPolyline
 90
       25
 70
   128
 43
0.0
 10
205.2500872877
 20
44.0323292541
 10
205.6409031602
 20
45.8956753375
 10
206.1506337315
 20
47.7834766353
 10
206.7756043234
 20
49.6821212066
 10
207.511305223
 20
51.5779150588
 10
208.3524351471
 20
53.4571924108
 10
209.2929275836
 20
55.3063985808
 10
210.3259995242
 20
57.1122017698
 10
211.4442021719
 20
58.8615778485
 10
212.6394736247
 20
60.5419152965
 10
213.9031935352
 20
62.1410969464
 10
215.2262502815
 20
63.6475889521
 10
216.5991035293
 20
65.0505316579
 10
218.0118537083
 20
66.3398055625
 10
219.4543137936
 20
67.5061168642
 10
220.9160823214
 20
68.5410533002
 10
222.3866187726
 20
69.4371535205
 10
223.8553194898
 20
70.1879554766
 10
225.3115936986
 20
70.7880433495
 10
226.7449408449
 20
71.2330937166
 10
228.1450252374
 20
71.5198943068
 10
229.5017507302
 20
71.6463795097
 10
230.8053343154
 20
71.6116348358
 10
232.0463765872
 20
71.4159117399
 10
233.2159292429
 20
71.0606240015
  0
LWPOLYLINE
  5
283
330
1F
100
AcDbEntity
  8
0
  6
Continuous
 62
     7
370
    18
100
AcDbPolyline
 90
       25
 70
   128
 43
0.0
 10
204.5339115742
 20
44.0270939378
 10
204.9233840159
 20
45.9155152704
 10
205.4329776099
 20
47.8294190895
 10
206.0590598249
 20
49.7551656935
 10
206.7971709975
 20
51.6790310468
 10
207.6420493569
 20
53.5873052576
 10
208.5876731722
 20
55.4663864912
 10
209.6273042161
 20
57.3028843888
 10
210.7535332042
 20
59.0837109387
 10
211.9583337961
 20
60.7961747683
 10
213.23311923
 20
62.4280701133
 10
214.5688055429
 20
63.9677695878
 10
215.9558728153
 20
65.404297564
 10
217.3844362943
 20
66.7274183782
 10
218.8443148818
 20
67.927701725
 10
220.3251040684
 20
68.9965936585
 10
221.8162510899
 20
69.9264751879
 10
223.3071289314
 20
70.7107217301
 10
224.7871123888
 20
71.3437409348
 10
226.2456544602
 20
71.8210259104
 10
227.6723601851
 20
72.1391704731
 10
229.0570619657
 20
72.2959111088
 10
230.389890854
 20
72.2901285817
 10
231.661349321
 20
72.1218656083
 10
232.8623757943
 20
71.7923184866
  0
ARC
  5
284
330
1F
100
AcDbEntity
  8
0
  6
Continuous
 62
     7
370
    18
100
AcDbCircle
 10
205.8013616445
 20
60.5264541256
 30
0.0
 40
33.74661563336964
100
AcDbArc
 50
343.6426806208
 51
350.5658388687
  0
LWPOLYLINE
  5
285
330
1F
100
AcDbEntity
  8
0
  6
Continuous
 62
     7
370
    18
100
AcDbPolyline
 90
       22
 70
   128
 43
0.0
 10
228.6462572918
 20
34.5105872025
 10
228.0586439543
 20
33.9102648724
 10
226.6606221232
 20
32.5917364795
 10
225.2301491944
 20
31.3928437315
 10
223.7774755777
 20
30.3221793727
 10
222.3130110098
 20
29.3874121459
 10
220.8472496031
 20
28.5952450459
 10
219.3906946075
 20
27.9513505919
 10
217.9537835829
 20
27.4603443608
 10
216.5468131198
 20
27.1257445711
 10
215.1798656991
 20
26.9499496322
 10
213.8627358534
 20
26.9342183318
 10
212.604862501
 20
27.0786642338
 10
211.4152591407
 20
27.3822518829
 10
210.3024499726
 20
27.8428055551
 10
209.2744093121
 20
28.4570259946
 10
208.3385042966
 20
29.22050981
 10
207.5014415434
 20
30.1277878836
 10
206.7692190758
 20
31.172358455
 10
206.1470841766
 20
32.3467357959
 10
205.6394938749
 20
33.6425045858
 10
205.2500872877
 20
35.050380372
  0
ARC
  5
286
330
1F
100
AcDbEntity
  8
0
  6
Continuous
 62
     7
370
    18
100
AcDbCircle
 10
228.1053301906
 20
61.4148098505
 30
0.0
 40
11.12401072022556
100
AcDbArc
 50
9.0277736643
 51
48.7055209086
  0
LWPOLYLINE
  5
287
330
1F
100
AcDbEntity
  8
0
  6
Continuous
 62
     7
370
    18
100
AcDbPolyline
 90
       29
 70
   128
 43
0.0
 10
212.2616607136
 20
43.5890499942
 10
212.3237232651
 20
44.9010420894
 10
212.509131203
 20
46.2681915319
 10
212.8155532796
 20
47.6733054249
 10
213.2391343755
 20
49.0987134443
 10
213.7745494998
 20
50.5264908385
 10
214.4150643762
 20
51.9386818094
 10
215.1526250055
 20
53.3175272625
 10
215.9779551298
 20
54.6456879934
 10
216.8806767461
 20
55.906461028
 10
217.8494372056
 20
57.0839921608
 10
218.8720537643
 20
58.1634719496
 10
219.9356660357
 20
59.1313271485
 10
221.0268991455
 20
59.9753848571
 10
222.1320298493
 20
60.6850307765
 10
223.2371605531
 20
61.2513416083
 10
224.3283936629
 20
61.6671948302
 10
225.3920059343
 20
61.9273602207
 10
226.4146224929
 20
62.0285683789
 10
227.3833829525
 20
61.9695442647
 10
228.2861045688
 20
61.751031423
 10
229.111434693
 20
61.3757765705
 10
229.8489953223
 20
60.8485004938
 10
230.4895101988
 20
60.175832258
 10
231.024925323
 20
59.366232008
 10
231.4485064189
 20
58.4298803121
 10
231.7549284956
 20
57.3785538182
 10
231.9403364334
 20
56.2254718242
 10
231.970987729
 20
55.8755979378
  0
LWPOLYLINE
  5
288
330
1F
100
AcDbEntity
  8
0
  6
Continuous
 62
     7
370
    18
100
AcDbPolyline
 90
       15
 70
   128
 43
0.0
 10
221.3415540986
 20
37.4694331104
 10
221.0268991455
 20
37.3228440117
 10
219.9356660357
 20
36.9069907897
 10
218.8720537643
 20
36.6468253992
 10
217.8494372056
 20
36.5456172411
 10
216.8806767461
 20
36.6046413553
 10
215.9779551298
 20
36.823154197
 10
215.1526250055
 20
37.1984090495
 10
214.4150643762
 20
37.7256851262
 10
213.7745494998
 20
38.398353362
 10
213.2391343755
 20
39.207953612
 10
212.8155532796
 20
40.1443053079
 10
212.509131203
 20
41.1956318018
 10
212.3237232651
 20
42.3487137958
 10
212.2616607136
 20
43.5890499942
  0
LWPOLYLINE
  5
289
330
1F
100
AcDbEntity
  8
0
  6
Continuous
 62
     7
370
    18
100
AcDbPolyline
 90
       20
 70
   128
 43
0.0
 10
194.3957660379
 20
44.8886939877
 10
194.4577640521
 20
46.6326440303
 10
194.6433234552
 20
48.4359430714
 10
194.9511429633
 20
50.2859424537
 10
195.3790625504
 20
52.1696650807
 10
195.9240805707
 20
54.0738981914
 10
196.5823761488
 20
55.9852857543
 10
197.3493289366
 20
57.8904189607
 10
198.2195612596
 20
59.7759369823
 10
199.1869697273
 20
61.6286136606
 10
200.2447660628
 20
63.435451801
 10
201.385532421
 20
65.1837805063
 10
202.6012668274
 20
66.8613346412
 10
203.8834417891
 20
68.4563472227
 10
205.223063564
 20
69.9576323055
 10
206.6107353803
 20
71.3546564591
 10
208.0367246088
 20
72.637624694
 10
209.4910282878
 20
73.7975334978
 10
210.9634458096
 20
74.8262508197
 10
212.3895749788
 20
75.6865539566
  0
LWPOLYLINE
  5
28A
330
1F
100
AcDbEntity
  8
0
  6
Continuous
 62
     7
370
    18
100
AcDbPolyline
 90
        3
 70
   128
 43
0.0
 10
194.4884298357
 20
42.8547888869
 10
194.4577640521
 20
43.2163253286
 10
194.3957660379
 20
44.8886939877
  0
LWPOLYLINE
  5
28B
330
1F
100
AcDbEntity
  8
0
  6
Continuous
 62
     7
370
    18
100
AcDbPolyline
 90
       21
 70
   128
 43
0.0
 10
202.2187792586
 20
46.7154883452
 10
202.632898387
 20
48.6030050759
 10
203.1735212812
 20
50.5139550072
 10
203.836279157
 20
52.4328996316
 10
204.6158180474
 20
54.3443366548
 10
205.5058409499
 20
56.2328262293
 10
206.4991578756
 20
58.0831111022
 10
207.5877444597
 20
59.8802470295
 10
208.7628071572
 20
61.6097126567
 10
210.0148530492
 20
63.2575380306
 10
211.3337682091
 20
64.8104121973
 10
212.7088973868
 20
66.2557900399
 10
214.1291322534
 20
67.5819964533
 10
215.5829994819
 20
68.7783167366
 10
217.058754425
 20
69.8350856529
 10
218.5444755132
 20
70.7437677803
 10
220.0281605875
 20
71.4970222491
 10
221.4978238292
 20
72.0887647816
 10
222.9415931009
 20
72.5142132397
 10
224.3478049208
 20
72.7699333268
 10
224.6975868849
 20
72.8075723164
  0
LWPOLYLINE
  5
28C
330
1F
100
AcDbEntity
  8
0
  6
Continuous
 62
     7
370
    18
100
AcDbPolyline
 90
       18
 70
   128
 43
0.0
 10
202.7927738958
 20
46.7202849457
 10
203.2083918715
 20
48.5874416628
 10
203.7495455525
 20
50.4770879369
 10
204.4118147883
 20
52.3737860257
 10
205.1897889769
 20
54.2620420054
 10
206.077111847
 20
56.1264289619
 10
207.0665354576
 20
57.9517185453
 10
208.1499781505
 20
59.7229980763
 10
209.3185871118
 20
61.4257963964
 10
210.5628167391
 20
63.0462059154
 10
211.8725017391
 20
64.5709864071
 10
213.2369437272
 20
65.9876834439
 10
214.644996179
 20
67.2847215451
 10
216.0851558036
 20
68.4515071162
 10
217.5456581973
 20
69.4785064822
 10
219.0145717273
 20
70.3573305043
 10
220.4798966013
 20
71.0808008973
 10
220.6237242036
 20
71.1434838596
  0
LWPOLYLINE
  5
28D
330
1F
100
AcDbEntity
  8
0
  6
Continuous
 62
     7
370
    18
100
AcDbPolyline
 90
       22
 70
   128
 43
0.0
 10
215.221877546
 20
43.8370057655
 10
215.28384395
 20
45.0329380195
 10
215.4688027605
 20
46.2822854334
 10
215.7739512121
 20
47.5661096072
 10
216.194662371
 20
48.8649487336
 10
216.7245602094
 20
50.1591144563
 10
217.3556104841
 20
51.4289875864
 10
218.0782481656
 20
52.6553184738
 10
218.881518366
 20
53.8195178706
 10
219.7532442679
 20
54.9039367658
 10
220.6802118466
 20
55.8921369026
 10
221.6483687501
 20
56.76913753
 10
222.6430389025
 20
57.5216457555
 10
223.6491440422
 20
58.1382528781
 10
224.6514327108
 20
58.6096122079
 10
225.6347111956
 20
58.9285784712
 10
226.5840738974
 20
59.0903172236
 10
227.4851297253
 20
59.0923747086
 10
228.3242194785
 20
58.9347219794
 10
229.0886233698
 20
58.6197469424
 10
229.76675365
 20
58.1522260117
 10
230.2636030908
 20
57.6449806806
  0
LWPOLYLINE
  5
28E
330
1F
100
AcDbEntity
  8
0
  6
Continuous
 62
     7
370
    18
100
AcDbPolyline
 90
       10
 70
   128
 43
0.0
 10
218.9614340591
 20
38.0655831694
 10
218.881518366
 20
38.0798250125
 10
218.0782481656
 20
38.316588377
 10
217.3556104841
 20
38.7085795568
 10
216.7245602094
 20
39.2498575483
 10
216.194662371
 20
39.9322162494
 10
215.7739512121
 20
40.745312611
 10
215.4688027605
 20
41.676819882
 10
215.28384395
 20
42.7126183988
 10
215.221877546
 20
43.8370057655
  0
LINE
  5
28F
330
1F
100
AcDbEntity
  8
0
  6
Continuous
 62
     7
370
    18
100
AcDbLine
 10
195.9726149922
 20
44.39075191
 30
0.0
 11
198.1257539199
 21
45.6337325554
 31
0.0
  0
LWPOLYLINE
  5
290
330
1F
100
AcDbEntity
  8
0
  6
Continuous
 62
     7
370
    18
100
AcDbPolyline
 90
       20
 70
   128
 43
0.0
 10
183.525446149
 20
64.5727910619
 10
184.1345089398
 20
66.2454093035
 10
184.8579701312
 20
67.9047482543
 10
185.6881603139
 20
69.5332176062
 10
186.6162793577
 20
71.1135552971
 10
187.632487949
 20
72.6290073517
 10
188.7260142754
 20
74.0635096219
 10
189.8852656486
 20
75.4018556487
 10
191.0979532988
 20
76.6298569179
 10
192.3512219433
 20
77.7344975074
 10
193.6317856937
 20
78.7040650163
 10
194.9260698896
 20
79.5282833949
 10
196.2203540854
 20
80.1984137407
 10
197.5009178358
 20
80.7073536671
 10
198.7541864803
 20
81.0497062544
 10
199.9668741305
 20
81.2218443433
 10
201.1261255037
 20
81.2219414625
 10
202.2196518301
 20
81.0499978144
 10
203.2358604214
 20
80.7078352253
 10
203.5050628796
 20
80.5819723682
  0
ARC
  5
291
330
1F
100
AcDbEntity
  8
0
  6
Continuous
 62
     7
370
    18
100
AcDbCircle
 10
189.3854370225
 20
55.2141668069
 30
0.0
 40
6.567090909489537
100
AcDbArc
 50
206.8329030039
 51
236.0333930637
  0
ARC
  5
292
330
1F
100
AcDbEntity
  8
0
  6
Continuous
 62
     7
370
    18
100
AcDbCircle
 10
216.8677331518
 20
37.5290723051
 30
0.0
 40
12.58145656459702
100
AcDbArc
 50
191.3865744508
 51
214.2485105814
  0
LINE
  5
293
330
1F
100
AcDbEntity
  8
0
  6
Continuous
 62
     7
370
    18
100
AcDbLine
 10
199.9377174017
 20
37.6984714739
 30
0.0
 11
201.6612877468
 21
38.6934674551
 31
0.0
  0
LINE
  5
294
330
1F
100
AcDbEntity
  8
0
  6
Continuous
 62
     7
370
    18
100
AcDbLine
 10
195.9726149922
 20
43.5742110594
 30
0.0
 11
198.1257539199
 21
44.8171917047
 31
0.0
  0
LINE
  5
295
330
1F
100
AcDbEntity
  8
0
  6
Continuous
 62
     7
370
    18
100
AcDbLine
 10
203.6445505089
 20
37.0212515679
 30
0.0
 11
203.5776621432
 21
37.285229723
 31
0.0
  0
LINE
  5
296
330
1F
100
AcDbEntity
  8
0
  6
Continuous
 62
     7
370
    18
100
AcDbLine
 10
203.1364221764
 20
36.5560722377
 30
0.0
 11
202.7927738958
 21
37.7383360637
 31
0.0
  0
LWPOLYLINE
  5
297
330
1F
100
AcDbEntity
  8
0
  6
Continuous
 62
     7
370
    18
100
AcDbPolyline
 90
        3
 70
   128
 43
0.0
 10
203.0467870248
 20
35.303223891
 10
202.6160923312
 20
36.3719127671
 10
202.2187792586
 20
37.7335394632
  0
LINE
  5
298
330
1F
100
AcDbEntity
  8
0
  6
Continuous
 62
     7
370
    18
100
AcDbLine
 10
230.8502773439
 20
72.9533738737
 30
0.0
 11
230.7499085754
 21
72.8954322169
 31
0.0
  0
ARC
  5
299
330
1F
100
AcDbEntity
  8
0
  6
Continuous
 62
     7
370
    18
100
AcDbCircle
 10
189.4901241946
 20
62.2569553633
 30
0.0
 40
1.982758115011334
100
AcDbArc
 50
160.3181851691
 51
206.3321513809
  0
ARC
  5
29A
330
1F
100
AcDbEntity
  8
0
  6
Continuous
 62
     7
370
    18
100
AcDbCircle
 10
187.2380132277
 20
62.1972875192
 30
0.0
 40
0.8231407192538425
100
AcDbArc
 50
40.3516534992
 51
62.0985447238
  0
LINE
  5
29B
330
1F
100
AcDbEntity
  8
0
  6
Continuous
 62
     7
370
    18
100
AcDbLine
 10
187.6232037886
 20
62.9247412122
 30
0.0
 11
187.7710062008
 21
63.4789960449
 31
0.0
  0
LINE
  5
29C
330
1F
100
AcDbEntity
  8
0
  6
Continuous
 62
     7
370
    18
100
AcDbLine
 10
187.6232037886
 20
62.9247412122
 30
0.0
 11
186.3699843702
 21
63.648209383
 31
0.0
  0
LINE
  5
29D
330
1F
100
AcDbEntity
  8
0
  6
Continuous
 62
     7
370
    18
100
AcDbLine
 10
183.5253025863
 20
65.4546964197
 30
0.0
 11
183.5106822397
 21
65.6304222635
 31
0.0
  0
ARC
  5
29E
330
1F
100
AcDbEntity
  8
0
  6
Continuous
 62
     7
370
    18
100
AcDbCircle
 10
187.3415547478
 20
48.8958444642
 30
0.0
 40
0.5806338492591827
100
AcDbArc
 50
25.5709532967
 51
60.9828307538
  0
ARC
  5
29F
330
1F
100
AcDbEntity
  8
0
  6
Continuous
 62
     7
370
    18
100
AcDbCircle
 10
189.578661599
 20
50.0495861056
 30
0.0
 40
2.059398257764039
100
AcDbArc
 50
172.8727688225
 51
198.2811498096
  0
LINE
  5
2A0
330
1F
100
AcDbEntity
  8
0
  6
Continuous
 62
     7
370
    18
100
AcDbLine
 10
186.7780192059
 20
54.4371967183
 30
0.0
 11
185.1609513128
 21
55.3707101426
 31
0.0
  0
LINE
  5
2A1
330
1F
100
AcDbEntity
  8
0
  6
Continuous
 62
     7
370
    18
100
AcDbLine
 10
187.6232037886
 20
49.4035938953
 30
0.0
 11
186.3699843702
 21
50.1270620661
 31
0.0
  0
LINE
  5
2A2
330
1F
100
AcDbEntity
  8
0
  6
Continuous
 62
     7
370
    18
100
AcDbLine
 10
187.6232037886
 20
49.4035938953
 30
0.0
 11
187.7710062008
 21
49.0199880954
 31
0.0
  0
OLE2FRAME
  5
2A3
330
1F
100
AcDbEntity
  8
0
100
AcDbOle2Frame
 70
     2
  3
Paintbrush-Bild
 10
13.8511154363
 20
38.264191557
 30
0.0
 11
51.6290888628
 21
31.9806341108
 31
0.0
 71
     2
 72
     0
 73
     1
 90
    12928
310
80552BED0767C5B32B40DDAF6807D121434000000000000000006FFBDDFB85D0
310
4940DDAF6807D121434000000000000000006FFBDDFB85D04940416F4BD60AFB
310
3F4000000000000000002BED0767C5B32B40416F4BD60AFB3F40000000000000
310
0000000000000100000000010000010000000100000000000100000000320000
310
D0CF11E0A1B11AE1000000000000000000000000000000003E000300FEFF0900
310
0600000000000000000000000100000001000000000000000010000002000000
310
01000000FEFFFFFF0000000000000000FFFFFFFFFFFFFFFFFFFFFFFFFFFFFFFF
310
FFFFFFFFFFFFFFFFFFFFFFFFFFFFFFFFFFFFFFFFFFFFFFFFFFFFFFFFFFFFFFFF
310
FFFFFFFFFFFFFFFFFFFFFFFFFFFFFFFFFFFFFFFFFFFFFFFFFFFFFFFFFFFFFFFF
310
FFFFFFFFFFFFFFFFFFFFFFFFFFFFFFFFFFFFFFFFFFFFFFFFFFFFFFFFFFFFFFFF
310
FFFFFFFFFFFFFFFFFFFFFFFFFFFFFFFFFFFFFFFFFFFFFFFFFFFFFFFFFFFFFFFF
310
FFFFFFFFFFFFFFFFFFFFFFFFFFFFFFFFFFFFFFFFFFFFFFFFFFFFFFFFFFFFFFFF
310
FFFFFFFFFFFFFFFFFFFFFFFFFFFFFFFFFFFFFFFFFFFFFFFFFFFFFFFFFFFFFFFF
310
FFFFFFFFFFFFFFFFFFFFFFFFFFFFFFFFFFFFFFFFFFFFFFFFFFFFFFFFFFFFFFFF
310
FFFFFFFFFFFFFFFFFFFFFFFFFFFFFFFFFFFFFFFFFFFFFFFFFFFFFFFFFFFFFFFF
310
FFFFFFFFFFFFFFFFFFFFFFFFFFFFFFFFFFFFFFFFFFFFFFFFFFFFFFFFFFFFFFFF
310
FFFFFFFFFFFFFFFFFFFFFFFFFFFFFFFFFFFFFFFFFFFFFFFFFFFFFFFFFFFFFFFF
310
FFFFFFFFFFFFFFFFFFFFFFFFFFFFFFFFFFFFFFFFFFFFFFFFFFFFFFFFFFFFFFFF
310
FFFFFFFFFFFFFFFFFFFFFFFFFFFFFFFFFFFFFFFFFFFFFFFFFFFFFFFFFFFFFFFF
310
FFFFFFFFFFFFFFFFFFFFFFFFFFFFFFFFFFFFFFFFFFFFFFFFFFFFFFFFFFFFFFFF
310
FDFFFFFFFEFFFFFFFEFFFFFFFEFFFFFF05000000060000000700000008000000
310
090000000A0000000B0000000C0000000D0000000E0000000F00000010000000
310
11000000120000001300000014000000150000001600000017000000FEFFFFFF
310
FFFFFFFFFFFFFFFFFFFFFFFFFFFFFFFFFFFFFFFFFFFFFFFFFFFFFFFFFFFFFFFF
310
FFFFFFFFFFFFFFFFFFFFFFFFFFFFFFFFFFFFFFFFFFFFFFFFFFFFFFFFFFFFFFFF
310
FFFFFFFFFFFFFFFFFFFFFFFFFFFFFFFFFFFFFFFFFFFFFFFFFFFFFFFFFFFFFFFF
310
FFFFFFFFFFFFFFFFFFFFFFFFFFFFFFFFFFFFFFFFFFFFFFFFFFFFFFFFFFFFFFFF
310
FFFFFFFFFFFFFFFFFFFFFFFFFFFFFFFFFFFFFFFFFFFFFFFFFFFFFFFFFFFFFFFF
310
FFFFFFFFFFFFFFFFFFFFFFFFFFFFFFFFFFFFFFFFFFFFFFFFFFFFFFFFFFFFFFFF
310
FFFFFFFFFFFFFFFFFFFFFFFFFFFFFFFFFFFFFFFFFFFFFFFFFFFFFFFFFFFFFFFF
310
FFFFFFFFFFFFFFFFFFFFFFFFFFFFFFFFFFFFFFFFFFFFFFFFFFFFFFFFFFFFFFFF
310
FFFFFFFFFFFFFFFFFFFFFFFFFFFFFFFFFFFFFFFFFFFFFFFFFFFFFFFFFFFFFFFF
310
FFFFFFFFFFFFFFFFFFFFFFFFFFFFFFFFFFFFFFFFFFFFFFFFFFFFFFFFFFFFFFFF
310
FFFFFFFFFFFFFFFFFFFFFFFFFFFFFFFFFFFFFFFFFFFFFFFFFFFFFFFFFFFFFFFF
310
FFFFFFFFFFFFFFFFFFFFFFFFFFFFFFFFFFFFFFFFFFFFFFFFFFFFFFFFFFFFFFFF
310
FFFFFFFFFFFFFFFFFFFFFFFFFFFFFFFFFFFFFFFFFFFFFFFFFFFFFFFFFFFFFFFF
310
52006F006F007400200045006E00740072007900000000000000000000000000
310
0000000000000000000000000000000000000000000000000000000000000000
310
16000500FFFFFFFFFFFFFFFF020000000A00030000000000C000000000000046
310
00000000000000000000000040981E9658A9D30103000000C000000000000000
310
01004F006C006500000000000000000000000000000000000000000000000000
310
0000000000000000000000000000000000000000000000000000000000000000
310
0A000200FFFFFFFFFFFFFFFFFFFFFFFF00000000000000000000000000000000
310
0000000000000000000000000000000000000000000000001400000000000000
310
010043006F006D0070004F0062006A0000000000000000000000000000000000
310
0000000000000000000000000000000000000000000000000000000000000000
310
120002010100000003000000FFFFFFFF00000000000000000000000000000000
310
0000000000000000000000000000000000000000010000004D00000000000000
310
01004F006C006500310030004E00610074006900760065000000000000000000
310
0000000000000000000000000000000000000000000000000000000000000000
310
1A000200FFFFFFFFFFFFFFFFFFFFFFFF00000000000000000000000000000000
310
0000000000000000000000000000000000000000040000002426000000000000
310
FEFFFFFF02000000FEFFFFFFFFFFFFFFFFFFFFFFFFFFFFFFFFFFFFFFFFFFFFFF
310
FFFFFFFFFFFFFFFFFFFFFFFFFFFFFFFFFFFFFFFFFFFFFFFFFFFFFFFFFFFFFFFF
310
FFFFFFFFFFFFFFFFFFFFFFFFFFFFFFFFFFFFFFFFFFFFFFFFFFFFFFFFFFFFFFFF
310
FFFFFFFFFFFFFFFFFFFFFFFFFFFFFFFFFFFFFFFFFFFFFFFFFFFFFFFFFFFFFFFF
310
FFFFFFFFFFFFFFFFFFFFFFFFFFFFFFFFFFFFFFFFFFFFFFFFFFFFFFFFFFFFFFFF
310
FFFFFFFFFFFFFFFFFFFFFFFFFFFFFFFFFFFFFFFFFFFFFFFFFFFFFFFFFFFFFFFF
310
FFFFFFFFFFFFFFFFFFFFFFFFFFFFFFFFFFFFFFFFFFFFFFFFFFFFFFFFFFFFFFFF
310
FFFFFFFFFFFFFFFFFFFFFFFFFFFFFFFFFFFFFFFFFFFFFFFFFFFFFFFFFFFFFFFF
310
FFFFFFFFFFFFFFFFFFFFFFFFFFFFFFFFFFFFFFFFFFFFFFFFFFFFFFFFFFFFFFFF
310
FFFFFFFFFFFFFFFFFFFFFFFFFFFFFFFFFFFFFFFFFFFFFFFFFFFFFFFFFFFFFFFF
310
FFFFFFFFFFFFFFFFFFFFFFFFFFFFFFFFFFFFFFFFFFFFFFFFFFFFFFFFFFFFFFFF
310
FFFFFFFFFFFFFFFFFFFFFFFFFFFFFFFFFFFFFFFFFFFFFFFFFFFFFFFFFFFFFFFF
310
FFFFFFFFFFFFFFFFFFFFFFFFFFFFFFFFFFFFFFFFFFFFFFFFFFFFFFFFFFFFFFFF
310
FFFFFFFFFFFFFFFFFFFFFFFFFFFFFFFFFFFFFFFFFFFFFFFFFFFFFFFFFFFFFFFF
310
FFFFFFFFFFFFFFFFFFFFFFFFFFFFFFFFFFFFFFFFFFFFFFFFFFFFFFFFFFFFFFFF
310
FFFFFFFFFFFFFFFFFFFFFFFFFFFFFFFFFFFFFFFFFFFFFFFFFFFFFFFFFFFFFFFF
310
0100000200000000000000000000000000000000000000000000000000000000
310
0000000000000000000000000000000000000000000000000000000000000000
310
0100FEFF030A0000FFFFFFFF0A00030000000000C00000000000004607000000
310
5042727573680007000000504272757368000700000050427275736800F439B2
310
7100000000000000000000000000000000000000000000000000000000000000
310
0000000000000000000000000000000000000000000000000000000000000000
310
0000000000000000000000000000000000000000000000000000000000000000
310
0000000000000000000000000000000000000000000000000000000000000000
310
0000000000000000000000000000000000000000000000000000000000000000
310
0000000000000000000000000000000000000000000000000000000000000000
310
0000000000000000000000000000000000000000000000000000000000000000
310
0000000000000000000000000000000000000000000000000000000000000000
310
0000000000000000000000000000000000000000000000000000000000000000
310
0000000000000000000000000000000000000000000000000000000000000000
310
0000000000000000000000000000000000000000000000000000000000000000
310
0000000000000000000000000000000000000000000000000000000000000000
310
20260000424D0E260000000000003E00000028000000B40200006E0000000100
310
01000000000000000000130B0000130B00000200000002000000000000FFFFFF
310
FFFFFFFFFFFFFFFFFFFFFFFFFFFFFFFFFFFFFFFFFFFFFFFFFFFFFFFFFFFFFFFF
310
FFFFFFFFFFFFFFFFFFFFFFFFFFFFFFFFFFFFFFFFFFFFFFFFFFFFFFFFFFFFFFFF
310
FFFFFFFFFFFFFFFFFFFFFFFFFFFFFFFFFFFFFFFFFFFFFFFFF000FFFFFFFFFFFF
310
FFFFFFFFFFFFFFFFFFFFFFFFFFFFFFFFFFFFFFFFFFFFFFFFFFFFFFFFFFFFFFFF
310
FFFFFFFFFFFFFFFFFFFFFFFFFFFFFFFFFFFFFFFFFFFFFFFFFFFFFFFFFFFFFFFF
310
FFFFFFFFFFFFFFFFFFFFFFFFFFFFFFFFF000FFFFFFFFFFFFFFFFFFFFFFFFFFFF
310
FFFFFFFFFFFFFFFFFFFFFFFFFFFFFFFFFFFFFFFFFFFFFFFFFFFFFFFFFFFFFFFF
310
FFFFFFFFFFFFFFFFFFFFFFFFFFFFFFFFFFFFFFFFFFFFFFFFFFFFFFFFFFFFFFFF
310
FFFFFFFFFFFFFFFFF000FFFFFFFFFFFFFFFFFFFFFFFFFFFFFFFFFFFFFFFFFFFF
310
FFFFFFFFFFFFFFFFFFFFFFFFFFFFFFFFFFFFFFFFFFFFFFFFFFFFFFFFFFFFFFFF
310
FFFFFFFFFFFFFFFFFFFFFFFFFFFFFFFFFFFFFFFFFFFFFFFFFFFFFFFFFFFFFFFF
310
F000FFFFFFFFFFFFFFFFFFFFFFFFFFFFFFFFFFFFFFFFFFFFFFFFFFFFFFFFFFFF
310
FFFFFFFFFFFFFFFFFFFFFFFFFFFFFFFFFFFFFFFFFFFFFFFFFFFFFFFFFFFFFFFF
310
FFFFFFFFFFFFFFFFFFFFFFFFFFFFFFFFFFFFFFFFFFFFFFFFF000FFFFFFFFFFFF
310
FFFFFFFFFFFFFFFFFFFFFFFFFFFFFFFFFFFFFFFFFFFFFFFFFFFFFFFFFFFFFFFF
310
FFFFFFFFFFFFFFFFFFFFFFFFFFFFFFFFFFFFFFFFFFFFFFFFFFFFFFFFFFFFFFFF
310
FFFFFFFFFFFFFFFFFFFFFFFFFFFFFFFFF000FFFFFFFFFFFFFFFFFFFFFFFFFFFF
310
FFFFFFFFFFFFFFFFFFFFFFFFFFFFFFFFFFFFFFFFFFFFFFFFFFFFFFFFFFFFFFFF
310
FFFFFFFFFFFFFFFFFFFFFFFFFFFFFFFFFFFFFFFFFFFFFFFFFFFFFFFFFFFFFFFF
310
FFFFFFFFFFFFFFFFF000FFFFFFFFFFFFFFFFFFFFFFFFFFFFFFFFFFFFFFFFFFFF
310
FFFFFFFFFFFFFFFFFFFFFFFFFFFFFFFFFFFFFFFFFFFFFFFFFFFFFFFFFFFFFFFF
310
FFFFFFFFFFFFFFFFFFFFFFFFFFFFFFFFFFFFFFFFFFFFFFFFFFFFFFFFFFFFFFFF
310
F000FFFFFFFFFFFFFFFFFFFFFFFFFFFFFFFFFFFFFFFFFFFFFFFFFFFFFFFFFFFF
310
FFFFFFFFFFFFFFFFFFFFFFFFFFFFFFFFFFFFFFFFFFFFFFFFFFFFFFFFFFFFFFFF
310
FFFFFFFFFFFFFFFFFFFFFFFFFFFFFFFFFFFFFFFFFFFFFFFFF000FFFFFFFFFFFF
310
FFFFFFFFFFFFFFFFFFFFFFFFFFFFFFFFFFFFFFFFFFFFFFFFFFFFFFFFFFFFFFFF
310
FFFFFFFFFFFFFFFFFFFFFFFFFFFFFFFFFFFFFFFFFFFFFFFFFFFFFFFFFFFFFFFF
310
FFFFFFFFFFFFFFFFFFFFFFFFFFFFFFFFF000FFFFFFFFFFFFFFFFFFFFFFFFFFFF
310
FFFFFFFFFFFFFFFFFFFFFFFFFFFFFFFFFFFFFFFFFFFFFFFFFFFFFFFFFFFFFFFF
310
FFFFFFFFFFFFFFFFFFFFFFFFFFFFFFFFFFFFFFFFFFFFFFFFFFFFFFFFFFFFFFFF
310
FFFFFFFFFFFFFFFFF000FFFFFFFFFFFFFFFFFFFFFFFFFFFFFFFFFFFFFFFFFFFF
310
FFFFFFFFFFFFFFFFFFFFFFFFFFFFFFFFFFFFFFFFFFFFFFFFFFFFFFFFFFFFFFFF
310
FFFFFFFFFFFFFFFFFFFFFFFFFFFFFFFFFFFFFFFFFFFFFFFFFFFFFFFFFFFFFFFF
310
F000FFFFFFFFFFFFFFFFFFFFFFFFFFFFFFFFFFFFFFFFFFFFFFFFFFFFFFFFFFFF
310
FFFFFFFFFFFFFFFFFFFFFFFFFFFFFFFFFFFFFFFFFFFFFFFFFFFFFFFFFFFFFFFF
310
FFFFFFFFFFFFFFFFFFFFFFFFFFFFFFFFFFFFFFFFFFFFFFFFF000FFFFFFFFFFFF
310
FFFFFFFFFFFFFFFFFFFFFFFFFFFFFFFFFFFFFFFFFFFFFFFFFFFFFFFFFFFFFFFF
310
FFFFFFFFFFFFFFFFFFFFFFFFFFFFFFFFFFFFFFFFFFFFFFFFFFFFFFFFFFFFFFFF
310
FFFFFFFFFFFFFFFFFFFFFFFFFFFFFFFFF000FFFFFFFFFFFFFFFFFFFFFFFFFFFF
310
FFFFFFFFFFFFFFFFFFFFFFFFFFFFFFFFFFFFFFFFFFFFFFFFFFFFFFFFFFFFFFFF
310
FFFFFFFFFFFFFFFFFFFFFFFFFFFFFFFFFFFFFFFFFFFFFFFFFFFFFFFFFFFFFFFF
310
FFFFFFFFFFFFFFFFF000FFFFFFFFFFFFFFFFFFFFFFFFFFFFFFFFFFFFFFFFFFFF
310
FFFFFFFFFFFFFFFFFFFFFFFFFFFFFFFFFFFFFFFFFFFFFFFFFFFFFFFFFFFFFFFF
310
FFFFFFFFFFFFFFFFFFFFFFFFFFFFFFFFFFFFFFFFFFFFFFFFFFFFFFFFFFFFFFFF
310
F000FFFFFFFFFFFFFFFFFFFFFFFFFFFFFFFFFFFFFFFFFFFFFFFFFFFFFFFFFFFF
310
FFFFFFFFFFFFFFFFFFFFFFFFFFFFFFFFFFFFFFFFFFFFFFFFFFFFFFFFFFFFFFFF
310
FFFFFFFFFFFFFFFFFFFFFFFFFFFFFFFFFFFFFFFFFFFFFFFFF000FFFFFFFFFFFF
310
FFFFFFFFFFFFFFFFFFFFFFFFFFFFFFFFFFFFFFFFFFFFFFFFFFFFFFFFFFFFFFFF
310
FFFFFFFFFFFFFFFFFFFFFFFFFFFFFFFFFFFFFFFFFFFFFFFFFFFFFFFFFFFFFFFF
310
FFFFFFFFFFFFFFFFFFFFFFFFFFFFFFFFF000FFFFFFFFFFFFFFFFFFFFFFFFFFFF
310
FFFFFFFFFFFFFFFFFFFFFFFFFFFFFFFFFFFFFFFFFFFFFFFFFFFFFFFFFFFFFFFF
310
FFFFFFFFFFFFFFFFFFFFFFFFFFFFFFFFFFFFFFFFFFFFFFFFFFFFFFFFFFFFFFFF
310
FFFFFFFFFFFFFFFFF000FFFFF80003FFFFFFFFFFFFFFFFFFFFFFFFFFFFFFFFFF
310
FFFFF00007FFFFFFFFFF00007FFFFFF800000000000000007FFFFFFFFFFFFFFF
310
FFFFFFFC001FFFFFFFFFFFFFFC001FFFFFFFFFFFFFFFFFFFFFFFFFFE0007FFFF
310
F000FFFF8000007FFFFFFFF8000FFFFFC0007FFFFF80007FFFFF0000007FFFFF
310
FFF8000007FFFFF800000000000000007FFFFFF0001FFFFFFFFFFFC00001FFFF
310
FFFFFFFFC00001FFFFFFFF000000000003FFFFE000007FFFF000FFFE0000000F
310
FFFFFFF0000FFFFF80007FFFFF80007FFFFC0000001FFFFFFFC0000001FFFFF8
310
00000000000000007FFFFFF0001FFFFFFFFFFE0000003FFFFFFFFFFE0000003F
310
FFFFFF000000000003FFFF0000000FFFF000FFF800000003FFFFFFF00007FFFF
310
80007FFFFF80007FFFF000000007FFFFFF000000003FFFF80000000000000000
310
7FFFFFF0001FFFFFFFFFF80000000FFFFFFFFFF80000000FFFFFFF0000000000
310
03FFFC00000003FFF000FFE000000000FFFFFFF00007FFFF80003FFFFF80007F
310
FFC000000001FFFFFC000000001FFFF800000000000000007FFFFFF0001FFFFF
310
FFFFE000000003FFFFFFFFE000000003FFFFFF000000000003FFF000000000FF
310
F000FF80000000007FFFFFF00007FFFF80003FFFFF80007FFF8000000000FFFF
310
F80000000007FFF800000000000000007FFFFFF0001FFFFFFFFFC000000001FF
310
FFFFFFC000000001FFFFFF000000000003FFC0000000007FF000FF0000000000
310
3FFFFFE00007FFFF00003FFFFF80007FFE00000000003FFFF00000000003FFF8
310
00000000000000007FFFFFF0001FFFFFFFFF8000000000FFFFFFFF8000000000
310
FFFFFF000000000003FF80000000003FF000FE00000000001FFFFFE00003FFFF
310
00003FFFFF80007FFC00000000001FFFE00000000001FFF8000001FFFE000000
310
7FFFFFF0001FFFFFFFFE00000000003FFFFFFE00000000003FFFFF0000000000
310
03FF00000000001FF000FC00000000000FFFFFE00003FFFF00001FFFFF80007F
310
F800000000001FFFC00000000000FFF8000001FFFE0000007FFFFFF0001FFFFF
310
FFFC00000000001FFFFFFC00000000001FFFFF000000000003FE00000000000F
310
F000F8000000000007FFFFE00003FFFF00001FFFFF80007FF800000000000FFF
310
800000000000FFF8000001FFFE0000007FFFFFF0001FFFFFFFF800000000000F
310
FFFFF800000000000FFFFF000000000003FC000000000007F000F80000000000
310
03FFFFC00003FFFE00001FFFFF80007FF0000000000007FF0000000000007FF8
310
000001FFFE0000007FFFFFF0001FFFFFFFF0000000000007FFFFF00000000000
310
07FFFF000000000003F8000000000003F000F0000000000003FFFFC00001FFFE
310
00001FFFFF80007FE0000000000007FE0000000000003FF8000001FFFE000000
310
7FFFFFF0001FFFFFFFF0000000000007FFFFF0000000000007FFFF0000000000
310
03F800001F800003F000E00001FFF00001FFFFC00001FFFE00000FFFFF80007F
310
E00001FFE00003FE00001FFF00003FF8000001FFFE0000007FFFFFF0001FFFFF
310
FFE000003E000003FFFFE000003E000003FFFF000000000003F00001FFF80001
310
F000E00007FFFC0001FFFFC00001FFFE00000FFFFF80007FC0000FFFFC0003FC
310
0000FFFFC0001FF8000001FFFE0000007FFFFFF0001FFFFFFFC00003FFE00001
310
FFFFC00003FFE00001FFFF0001FFFFFFFFF00007FFFE0001F000E0000FFFFF00
310
00FFFF800001FFFC00000FFFFF80007FC0001FFFFE0001FC0001FFFFE0001FF8
310
000001FFFE0000007FFFFFF0001FFFFFFF80000FFFF80000FFFF80000FFFF800
310
00FFFF0003FFFFFFFFE0000FFFFF8000F000C0003FFFFF8000FFFF800000FFFC
310
000007FFFF80007F80003FFFFF0001FC0003FFFFF0001FF8000001FFFE000000
310
7FFFFFF0001FFFFFFF80003FFFFE0000FFFF80003FFFFE0000FFFF0003FFFFFF
310
FFE0003FFFFF8000F000C0003FFFFF8000FFFF800000FFFC000007FFFF80007F
310
80007FFFFF8001F80007FFFFF8000FF8000001FFFE0000007FFFFFF0001FFFFF
310
FF00007FFFFF00007FFF00007FFFFF00007FFF0003FFFFFFFFE0003FFFFFC000
310
F000C0007FFFFFC000FFFF000000FFFC000007FFFF80007F8000FFFFFF8000F8
310
000FFFFFF8000FF8000001FFFE0000007FFFFFF0001FFFFFFF0000FFFFFF8000
310
7FFF0000FFFFFF80007FFF0003FFFFFFFFC0007FFFFFC00070008000FFFFFFC0
310
00FFFF000000FFF8000007FFFF80007F8000FFFFFF8000F8000FFFFFF8000FF8
310
000001FFFE0000007FFFFFF0001FFFFFFE0001FFFFFFC0003FFE0001FFFFFFC0
310
003FFF0003FFFFFFFFC0007FFFFFE00070008000FFFFFFC0007FFF0000007FF8
310
000003FFFF80007F0001FFFFFF8000F8000FFFFFF8000FF8000001FFFE000000
310
7FFFFFF0001FFFFFFE0001FFFFFFC0003FFE0001FFFFFFC0003FFF0003FFFFFF
310
FFC000FFFFFFE00070008000FFFFFFC0007FFF0000007FF8000003FFFF80007F
310
0001FFFFFF8000F8001FFFFFF8000FF8000001FFFE0000007FFFFFF0001FFFFF
310
FE0003FFFFFFE0003FFE0003FFFFFFE0003FFF0003FFFFFFFFC000FFFFFFE000
310
70008000FFFFFFC0007FFE0000007FF8000003FFFF80007F0001FFFFFF8000F0
310
001FFFFFF8000FF8000001FFFE0000007FFFFFF0001FFFFFFC0003FFFFFFE000
310
1FFC0003FFFFFFE0001FFF0003FFFFFFFFC000FFFFFFC00070008000FFFFFF80
310
007FFE0000007FF0000003FFFF80007F0001FFFFFF0000F0001FFFFFF8000FF8
310
000001FFFE0000007FFFFFF0001FFFFFFC0007FFFFFFF0001FFC0007FFFFFFF0
310
001FFF0003FFFFFFFFC000FFFFFFC00070008001FFFFFF0000FFFE0000003FF0
310
000001FFFF80007F0001FFFFFF0000F8001FFFFFF0000FF8000001FFFE000000
310
7FFFFFF0001FFFFFFC0007FFFFFFF0001FFC0007FFFFFFF0001FFF0003FFFFFF
310
FFC001FFFFFF80007000FFFFFFFFFE0000FFFE0008003FF0008001FFFF80007F
310
FFFFFFFFFC0000FFFFFFFFFFE0000FF8000001FFFE0000007FFFFFF0001FFFFF
310
F8000FFFFFFFF8000FF8000FFFFFFFF8000FFF0003FFFFFFFFFFFFFFFFFF0000
310
7000FFFFFFFFFC0000FFFC0008003FF0008001FFFF80007FFFFFFFFFF80001FF
310
FFFFFFFF80000FF8000001FFFE0000007FFFFFF0001FFFFFF8000FFFFFFFF800
310
0FF8000FFFFFFFF8000FFF0003FFFFFFFFFFFFFFFFFE0000F000FFFFFFFFE000
310
00FFFC000C003FE000C001FFFF80007FFFFFFFFFC00001FFFFFFFFFE00001FF8
310
000001FFFE0000007FFFFFF0001FFFFFF8000FFFFFFFF8000FF8000FFFFFFFF8
310
000FFF0003FFFFFFFFFFFFFFFFF00000F000FFFFFFFE000001FFFC000C001FE0
310
00C000FFFF80007FFFFFFFFE000001FFFFFFFFE000001FF80FFFFFFFFFFFFFC0
310
7FFFFFF0001FFFFFF8000FFFFFFFF8000FF8000FFFFFFFF8000FFF0003FFFFFF
310
FFFFFFFFFF800000F000FFFFFFC0000001FFFC001C001FE001C000FFFF80007F
310
FFFFFF80000003FFFFFFF80000001FF80FFFFFFFFFFFFFC07FFFFFF0001FFFFF
310
F8001FFFFFFFFC000FF8001FFFFFFFFC000FFF0003FFFFFFFFFFFFFFF0000001
310
F000FFFFF800000001FFF8001C001FE001C000FFFF80007FFFFFF800000003FF
310
FFFF800000003FF80FFFFFFFFFFFFFC07FFFFFF0001FFFFFF8001FFFFFFFFC00
310
0FF8001FFFFFFFFC000FFF0003FFFFFFFFFFFFFE00000001F000FFFFC0000000
310
03FFF8001E001FC001E000FFFF80007FFFFF8000000007FFFFFC000000003FF8
310
0FFFFFFFFFFFFFC07FFFFFF0001FFFFFF8001FFFFFFFFC000FF8001FFFFFFFFC
310
000FFF0003FFFFFFFFFFFFE000000003F000FFFE0000000007FFF8001E000FC0
310
01E0007FFF80007FFFFE0000000007FFFFE0000000007FF80FFFFFFFFFFFFFC0
310
7FFFFFF0001FFFFFF0001FFFFFFFFC0007F0001FFFFFFFFC0007FF0003FFFFFF
310
FFFFFF0000000003F000FFF80000000007FFF8001E000FC003E0007FFF80007F
310
FFF0000000000FFFFF8000000000FFF80FFFFFFFFFFFFFC07FFFFFF0001FFFFF
310
F0001FFFFFFFFC0007F0001FFFFFFFFC0007FF0003FFFFFFFFFFFC0000000007
310
F000FFE0000000000FFFF0003E000FC003E0007FFF80007FFFC0000000001FFF
310
FE0000000001FFF80FFFFFFFFFFFFFC07FFFFFF0001FFFFFF0001FFFFFFFFC00
310
07F0001FFFFFFFFC0007FF0003FFFFFFFFFFF0000000000FF000FFC000000000
310
1FFFF0003F000F8003F0003FFF80007FFF80000000003FFFF80000000003FFF8
310
0FFFFFFFFFFFFFC07FFFFFF0001FFFFFF0001FFFFFFFFC0007F0001FFFFFFFFC
310
0007FF0003FFFFFFFFFFE0000000001FF000FF00000000007FFFF0003F000780
310
03F0003FFF80007FFF00000000007FFFF00000000007FFF80FFFFFFFFFFFFFC0
310
7FFFFFF0001FFFFFF0001FFFFFFFFC0007F0001FFFFFFFFC0007FF0003FFFFFF
310
FFFF80000000007FF000FE0000000000FFFFE0003F00078007F0003FFF80007F
310
FE0000000001FFFFE0000000001FFFF80FFFFFFFFFFFFFC07FFFFFF0001FFFFF
310
F0001FFFFFFFFC0007F0001FFFFFFFFC0007FF0003FFFFFFFFFF0000000000FF
310
F000FC0000000003FFFFE0007F00078007F0003FFF80007FFC0000000007FFFF
310
C0000000007FFFF80FFFFFFFFFFFFFC07FFFFFF0001FFFFFF8001FFFFFFFFC00
310
0FF8001FFFFFFFFC000FFF0003FFFFFFFFFE0000000003FFF000FC000000000F
310
FFFFE0007F80070007F8001FFF80007FF8000000001FFFFF8000000001FFFFF8
310
0FFFFFFFFFFFFFC07FFFFFF0001FFFFFF8001FFFFFFFFC000FF8001FFFFFFFFC
310
000FFF0003FFFFFFFFFC000000000FFFF000F8000000007FFFFFE0007F800700
310
07F8001FFF80007FF000000000FFFFFF800000000FFFFFF80FFFFFFFFFFFFFC0
310
7FFFFFF0001FFFFFF8000FFFFFFFF8000FF8000FFFFFFFF8000FFF0003FFFFFF
310
FFFC000000007FFFF000F800000007FFFFFFC0007F8003000FF8001FFF80007F
310
F000000007FFFFFF000000007FFFFFF80FFFFFFFFFFFFFC07FFFFFF0001FFFFF
310
F8000FFFFFFFF8000FF8000FFFFFFFF8000FFF0003FFFFFFFFF80000000FFFFF
310
F000F0000000FFFFFFFFC000FF8003000FF8001FFF80007FE0000000FFFFFFFF
310
0000000FFFFFFFF8000001FFFE0000007FFFFFF0001FFFFFF8000FFFFFFFF800
310
0FF8000FFFFFFFF8000FFF0003FFFFFFFFF8000000FFFFFFF000F000000FFFFF
310
FFFFC000FFC002000FF8000FFF80007FE000001FFFFFFFFE000001FFFFFFFFF8
310
000001FFFE0000007FFFFFF0001FFFFFF8000FFFFFFFF8000FF8000FFFFFFFF8
310
000FFF0003FFFFFFFFF000001FFFFFFFF000E00000FFFFFFFFFFC000FFC00200
310
0FFC000FFF80007FE00001FFFFFFFFFE00001FFFFFFFFFF8000001FFFE000000
310
7FFFFFF0001FFFFFFC000FFFFFFFF8001FFC000FFFFFFFF8001FFF0003FFFFFF
310
FFF00001FFFFFFFFF000E00007FFFFFFFFFF8000FFC000001FFC000FFF80007F
310
C0000FFFFFFFFFFE0000FFFFFFFFFFF8000001FFFE0000007FFFFFF0001FFFFF
310
FC0007FFFFFFF0001FFC0007FFFFFFF0001FFF0003FFFFFFFFF00007FFFFFFFF
310
F000E0001FFFFFFFFFFF8000FFC000001FFC000FFF80007FC0003FFFFFFFFFFE
310
0001FFFFFFFFFFF8000001FFFE0000007FFFFFF0001FFFFFFC0007FFFFFFF000
310
1FFC0007FFFFFFF0001FFF0003FFFFFFFFF0001FFFFFFFFFF000E0003FFFFF00
310
03FF8001FFE000001FFC0007FF80007FC0007FFFFF0007FC0003FFFFF0003FF8
310
000001FFFE0000007FFFFFF0001FFFFFFC0003FFFFFFE0001FFC0003FFFFFFE0
310
001FFF0003FFFFFFFFF0003FFFFFFFFFF000E0003FFFFF0001FF8001FFE00000
310
1FFE0007FF80007FC0007FFFFE0003FC0007FFFFE0003FF8000001FFFE000000
310
7FFFFFF0001FFFFFFE0003FFFFFFE0003FFE0003FFFFFFE0003FFF0003FFFFFF
310
FFF0003FFFFF8001F000E0003FFFFF0001FF0001FFE000001FFE0007FF80007F
310
C0007FFFFE0003FC0007FFFFE0003FF8000001FFFE0000007FFFFFF0001FFFFF
310
FE0001FFFFFFC0003FFE0001FFFFFFC0003FFF0003FFFFFFFFF0003FFFFF0001
310
F000E0003FFFFF0003FF0001FFE000003FFE0007FF80007FC0007FFFFE0003FC
310
0007FFFFE0003FF8000001FFFE0000007FFFFFF0001FFFFFFF0001FFFFFFC000
310
7FFF0001FFFFFFC0007FFF0003FFFFFFFFF0003FFFFF0001F000E0003FFFFE00
310
03FF0003FFF000003FFE0003FF80007FC0007FFFFC0003FE0007FFFFE0003FF8
310
000001FFFE0000007FFFFFF0001FFFFFFF0000FFFFFF80007FFF0000FFFFFF80
310
007FFF0003FFFFFFFFF0003FFFFF0001F000E0003FFFFE0003FF0003FFF00000
310
3FFF0003FF80007FC0007FFFFC0007FE0007FFFFC0003FF8000001FFFE000000
310
7FFFFFF0001FFFFFFF80007FFFFF0000FFFF80007FFFFF0000FFFF0003FFFFFF
310
FFF0003FFFFF0003F000E0003FFFFC0003FE0003FFF000003FFF0003FF80007F
310
E0003FFFF80007FE0003FFFFC0007FF8000001FFFE0000007FFFFFF0001FFFFF
310
FF80003FFFFE0000FFFF80003FFFFE0000FFFF0003FFFFFFFFF0001FFFFE0003
310
F000F0001FFFF80003FE0003FFF000007FFF0001FF80007FE0003FFFF00007FE
310
0001FFFF80007FF8000001FFFE0000007FFFFFF0001FFFFFFFC0000FFFF80001
310
FFFFC0000FFFF80001FFFF0003FFFFFFFFF0001FFFFC0003F000F0000FFFF000
310
07FE0007FFF800007FFF0001FF80007FE0001FFFE00007FF0000FFFE00007FF8
310
000001FFFE0000007FFFFFF0001FFFFFFFC00003FFE00001FFFFC00003FFE000
310
01FFFF0003FFFFFFFFF8000FFFF80003F000F00003FFC00007FC0007FFF80000
310
7FFF8001FF80007FF00007FF80000FFF00007FF80000FFF8000001FFFE000000
310
7F80000000000001FFE000003E000003FFFFE000003E000003FFFF0003FFFFFF
310
FFF80003FFE00007F000F800000000000FFC0007FFF800007FFF8001FF80007F
310
F000000000000FFF000000000000FFF8000001FFFE0000007F80000000000001
310
FFF0000000000007FFFFF0000000000007FFFF0003FFFFFFFFFC00007E000007
310
F000F800000000000FFC0007FFF80000FFFF8000FF80007FF800000000001FFF
310
800000000001FFF8000001FFFE0000007F80000000000001FFF800000000000F
310
FFFFF800000000000FFFFF0003FFFFFFFFFC00000000000FF000FC0000000000
310
1FFC0007FFFC0000FFFF8000FF80007FF800000000003FFFC00000000001FFF8
310
000001FFFE0000007F80000000000001FFF800000000000FFFFFF80000000000
310
0FFFFF0003FFFFFFFFFE00000000001FF000FE00000000003FF8000FFFFC0000
310
FFFF8000FF80007FFC00000000003FFFC00000000003FFF8000001FFFE000000
310
7F80000000000001FFFC00000000001FFFFFFC00000000001FFFFF0003FFFFFF
310
FFFF00000000001FF000FF00000000003FF8000FFFFC0000FFFFC000FF80007F
310
FE00000000007FFFE00000000007FFF8000001FFFE0000007F80000000000001
310
FFFE00000000003FFFFFFE00000000003FFFFF0003FFFFFFFFFF80000000003F
310
F000FF80000000007FF8000FFFFC0001FFFFC0007F80007FFF0000000000FFFF
310
F0000000000FFFF800000000000000007F80000000000001FFFF8000000000FF
310
FFFFFF8000000000FFFFFF0003FFFFFFFFFFC0000000007FF000FFC000000000
310
FFF8000FFFFE0001FFFFC0007F80007FFF8000000001FFFFF8000000001FFFF8
310
00000000000000007F80000000000001FFFFC000000001FFFFFFFFC000000001
310
FFFFFF0003FFFFFFFFFFE000000000FFF000FFE000000003FFF0001FFFFE0001
310
FFFFC0007F80007FFFC000000007FFFFFE000000003FFFF80000000000000000
310
7F80000000000001FFFFE000000003FFFFFFFFE000000003FFFFFF0003FFFFFF
310
FFFFF000000003FFF000FFF80000000FFFF0001FFFFE0001FFFFE0007F80007F
310
FFF00000000FFFFFFF00000000FFFFF800000000000000007F80000000000001
310
FFFFF80000000FFFFFFFFFF80000000FFFFFFF0003FFFFFFFFFFFC0000000FFF
310
F000FFFE0000003FFFF0001FFFFE0003FFFFE0003F80007FFFFC0000003FFFFF
310
FFC0000003FFFFF800000000000000007F80000000000001FFFFFE0000003FFF
310
FFFFFFFE0000003FFFFFFF0003FFFFFFFFFFFF0000003FFFF000FFFF800000FF
310
FFF0001FFFFF0003FFFFE0003F80007FFFFF000001FFFFFFFFF800001FFFFFF8
310
00000000000000007F80000000000001FFFFFFC00001FFFFFFFFFFFFC00001FF
310
FFFFFF0003FFFFFFFFFFFFC00000FFFFF000FFFFF8000FFFFFFFFFFFFFFFFFFF
310
FFFFFFFFFFFFFFFFFFFFF0001FFFFFFFFFFF0000FFFFFFF80000000000000000
310
7FFFFFFFFFFFFFFFFFFFFFFC001FFFFFFFFFFFFFFC001FFFFFFFFFFFFFFFFFFF
310
FFFFFFFC001FFFFFF000FFFFFFFFFFFFFFFFFFFFFFFFFFFFFFFFFFFFFFFFFFFF
310
FFFFFFFFFFFFFFFFFFFFFFFFFFFFFFFFFFFFFFFFFFFFFFFFFFFFFFFFFFFFFFFF
310
FFFFFFFFFFFFFFFFFFFFFFFFFFFFFFFFFFFFFFFFFFFFFFFFFFFFFFFFFFFFFFFF
310
F000FFFFFFFFFFFFFFFFFFFFFFFFFFFFFFFFFFFFFFFFFFFFFFFFFFFFFFFFFFFF
310
FFFFFFFFFFFFFFFFFFFFFFFFFFFFFFFFFFFFFFFFFFFFFFFFFFFFFFFFFFFFFFFF
310
FFFFFFFFFFFFFFFFFFFFFFFFFFFFFFFFFFFFFFFFFFFFFFFFF000FFFFFFFFFFFF
310
FFFFFFFFFFFFFFFFFFFFFFFFFFFFFFFFFFFFFFFFFFFFFFFFFFFFFFFFFFFFFFFF
310
FFFFFFFFFFFFFFFFFFFFFFFFFFFFFFFFFFFFFFFFFFFFFFFFFFFFFFFFFFFFFFFF
310
FFFFFFFFFFFFFFFFFFFFFFFFFFFFFFFFF000FFFFFFFFFFFFFFFFFFFFFFFFFFFF
310
FFFFFFFFFFFFFFFFFFFFFFFFFFFFFFFFFFFFFFFFFFFFFFFFFFFFFFFFFFFFFFFF
310
FFFFFFFFFFFFFFFFFFFFFFFFFFFFFFFFFFFFFFFFFFFFFFFFFFFFFFFFFFFFFFFF
310
FFFFFFFFFFFFFFFFF000FFFFFFFFFFFFFFFFFFFFFFFFFFFFFFFFFFFFFFFFFFFF
310
FFFFFFFFFFFFFFFFFFFFFFFFFFFFFFFFFFFFFFFFFFFFFFFFFFFFFFFFFFFFFFFF
310
FFFFFFFFFFFFFFFFFFFFFFFFFFFFFFFFFFFFFFFFFFFFFFFFFFFFFFFFFFFFFFFF
310
F000FFFFFFFFFFFFFFFFFFFFFFFFFFFFFFFFFFFFFFFFFFFFFFFFFFFFFFFFFFFF
310
FFFFFFFFFFFFFFFFFFFFFFFFFFFFFFFFFFFFFFFFFFFFFFFFFFFFFFFFFFFFFFFF
310
FFFFFFFFFFFFFFFFFFFFFFFFFFFFFFFFFFFFFFFFFFFFFFFFF000FFFFFFFFFFFF
310
FFFFFFFFFFFFFFFFFFFFFFFFFFFFFFFFFFFFFFFFFFFFFFFFFFFFFFFFFFFFFFFF
310
FFFFFFFFFFFFFFFFFFFFFFFFFFFFFFFFFFFFFFFFFFFFFFFFFFFFFFFFFFFFFFFF
310
FFFFFFFFFFFFFFFFFFFFFFFFFFFFFFFFF000FFFFFFFFFFFFFFFFFFFFFFFFFFFF
310
FFFFFFFFFFFFFFFFFFFFFFFFFFFFFFFFFFFFFFFFFFFFFFFFFFFFFFFFFFFFFFFF
310
FFFFFFFFFFFFFFFFFFFFFFFFFFFFFFFFFFFFFFFFFFFFFFFFFFFFFFFFFFFFFFFF
310
FFFFFFFFFFFFFFFFF000FFFFFFFFFFFFFFFFFFFFFFFFFFFFFFFFFFFFFFFFFFFF
310
FFFFFFFFFFFFFFFFFFFFFFFFFFFFFFFFFFFFFFFFFFFFFFFFFFFFFFFFFFFFFFFF
310
FFFFFFFFFFFFFFFFFFFFFFFFFFFFFFFFFFFFFFFFFFFFFFFFFFFFFFFFFFFFFFFF
310
F000FFFFFFFFFFFFFFFFFFFFFFFFFFFFFFFFFFFFFFFFFFFFFFFFFFFFFFFFFFFF
310
FFFFFFFFFFFFFFFFFFFFFFFFFFFFFFFFFFFFFFFFFFFFFFFFFFFFFFFFFFFFFFFF
310
FFFFFFFFFFFFFFFFFFFFFFFFFFFFFFFFFFFFFFFFFFFFFFFFF000FFFFFFFFFFFF
310
FFFFFFFFFFFFFFFFFFFFFFFFFFFFFFFFFFFFFFFFFFFFFFFFFFFFFFFFFFFFFFFF
310
FFFFFFFFFFFFFFFFFFFFFFFFFFFFFFFFFFFFFFFFFFFFFFFFFFFFFFFFFFFFFFFF
310
FFFFFFFFFFFFFFFFFFFFFFFFFFFFFFFFF000FFFFFFFFFFFFFFFFFFFFFFFFFFFF
310
FFFFFFFFFFFFFFFFFFFFFFFFFFFFFFFFFFFFFFFFFFFFFFFFFFFFFFFFFFFFFFFF
310
FFFFFFFFFFFFFFFFFFFFFFFFFFFFFFFFFFFFFFFFFFFFFFFFFFFFFFFFFFFFFFFF
310
FFFFFFFFFFFFFFFFF000FFFFFFFFFFFFFFFFFFFFFFFFFFFFFFFFFFFFFFFFFFFF
310
FFFFFFFFFFFFFFFFFFFFFFFFFFFFFFFFFFFFFFFFFFFFFFFFFFFFFFFFFFFFFFFF
310
FFFFFFFFFFFFFFFFFFFFFFFFFFFFFFFFFFFFFFFFFFFFFFFFFFFFFFFFFFFFFFFF
310
F000FFFFFFFFFFFFFFFFFFFFFFFFFFFFFFFFFFFFFFFFFFFFFFFFFFFFFFFFFFFF
310
FFFFFFFFFFFFFFFFFFFFFFFFFFFFFFFFFFFFFFFFFFFFFFFFFFFFFFFFFFFFFFFF
310
FFFFFFFFFFFFFFFFFFFFFFFFFFFFFFFFFFFFFFFFFFFFFFFFF000FFFFFFFFFFFF
310
FFFFFFFFFFFFFFFFFFFFFFFFFFFFFFFFFFFFFFFFFFFFFFFFFFFFFFFFFFFFFFFF
310
FFFFFFFFFFFFFFFFFFFFFFFFFFFFFFFFFFFFFFFFFFFFFFFFFFFFFFFFFFFFFFFF
310
FFFFFFFFFFFFFFFFFFFFFFFFFFFFFFFFF000FFFFFFFFFFFFFFFFFFFFFFFFFFFF
310
FFFFFFFFFFFFFFFFFFFFFFFFFFFFFFFFFFFFFFFFFFFFFFFFFFFFFFFFFFFFFFFF
310
FFFFFFFFFFFFFFFFFFFFFFFFFFFFFFFFFFFFFFFFFFFFFFFFFFFFFFFFFFFFFFFF
310
FFFFFFFFFFFFFFFFF000FFFFFFFFFFFFFFFFFFFFFFFFFFFFFFFFFFFFFFFFFFFF
310
FFFFFFFFFFFFFFFFFFFFFFFFFFFFFFFFFFFFFFFFFFFFFFFFFFFFFFFFFFFFFFFF
310
FFFFFFFFFFFFFFFFFFFFFFFFFFFFFFFFFFFFFFFFFFFFFFFFFFFFFFFFFFFFFFFF
310
F000FFFFFFFFFFFFFFFFFFFFFFFFFFFFFFFFFFFFFFFFFFFFFFFFFFFFFFFFFFFF
310
FFFFFFFFFFFFFFFFFFFFFFFFFFFFFFFFFFFFFFFFFFFFFFFFFFFFFFFFFFFFFFFF
310
FFFFFFFFFFFFFFFFFFFFFFFFFFFFFFFFFFFFFFFFFFFFFFFFF000FFFFFFFFFFFF
310
FFFFFFFFFFFFFFFFFFFFFFFFFFFFFFFFFFFFFFFFFFFFFFFFFFFFFFFFFFFFFFFF
310
FFFFFFFFFFFFFFFFFFFFFFFFFFFFFFFFFFFFFFFFFFFFFFFFFFFFFFFFFFFFFFFF
310
FFFFFFFFFFFFFFFFFFFFFFFFFFFFFFFFF000FFFFFFFFFFFFFFFFFFFFFFFFFFFF
310
FFFFFFFFFFFFFFFFFFFFFFFFFFFFFFFFFFFFFFFFFFFFFFFFFFFFFFFFFFFFFFFF
310
FFFFFFFFFFFFFFFFFFFFFFFFFFFFFFFFFFFFFFFFFFFFFFFFFFFFFFFFFFFFFFFF
310
FFFFFFFFFFFFFFFFF000FFFFFFFFFFFFFFFFFFFFFFFFFFFFFFFFFFFFFFFFFFFF
310
FFFFFFFFFFFFFFFFFFFFFFFFFFFFFFFFFFFFFFFFFFFFFFFFFFFFFFFFFFFFFFFF
310
FFFFFFFFFFFFFFFFFFFFFFFFFFFFFFFFFFFFFFFFFFFFFFFFFFFFFFFFFFFFFFFF
310
F000FFFFFFFFFFFFFFFFFFFFFFFFFFFFFFFFFFFFFFFFFFFFFFFFFFFFFFFFFFFF
310
FFFFFFFFFFFFFFFFFFFFFFFFFFFFFFFFFFFFFFFFFFFFFFFFFFFFFFFFFFFFFFFF
310
FFFFFFFFFFFFFFFFFFFFFFFFFFFFFFFFFFFFFFFFFFFFFFFFF000FFFFFFFFFFFF
310
FFFFFFFFFFFFFFFFFFFFFFFFFFFFFFFFFFFFFFFFFFFFFFFFFFFFFFFFFFFFFFFF
310
FFFFFFFFFFFFFFFFFFFFFFFFFFFFFFFFFFFFFFFFFFFFFFFFFFFFFFFFFFFFFFFF
310
FFFFFFFFFFFFFFFFFFFFFFFFFFFFFFFFF0000000000000000000000000000000
310
0000000000000000000000000000000000000000000000000000000000000000
310
0000000000000000000000000000000000000000000000000000000000000000
310
0000000000000000000000000000000000000000000000000000000000000000
310
0000000000000000000000000000000000000000000000000000000000000000
310
0000000000000000000000000000000000000000000000000000000000000000
310
0000000000000000000000000000000000000000000000000000000000000000
310
0000000000000000000000000000000000000000000000000000000000000000
310
0000000000000000000000000000000000000000000000000000000000000000
310
0000000000000000000000000000000000000000000000000000000000000000
310
0000000000000000000000000000000000000000000000000000000000000000
310
0000000000000000000000000000000000000000000000000000000000000000
310
0000000000000000000000000000000000000000000000000000000000000000
310
0000000000000000000000000000000000000000000000000000000000000000
310
0000000000000000000000000000000000000000000000000000000000000000
310
0000000000000000000000000000000000000000000000000000000000000000
  1
OLE
  0
ENDSEC
  0
SECTION
  2
OBJECTS
  0
DICTIONARY
  5
C
330
0
100
AcDbDictionary
281
     1
  3
ACAD_GROUP
350
D
  3
ACAD_LAYOUT
350
1A
  3
ACAD_MLINESTYLE
350
17
  3
ACAD_PLOTSETTINGS
350
19
  3
ACAD_PLOTSTYLENAME
350
E
  3
ACAD_SCALELIST
350
47
  0
DICTIONARY
  5
D
102
{ACAD_REACTORS
330
C
102
}
330
C
100
AcDbDictionary
281
     1
  0
DICTIONARY
  5
1A
102
{ACAD_REACTORS
330
C
102
}
330
C
100
AcDbDictionary
281
     1
  3
Layout1
350
1E
  3
Layout2
350
26
  3
Model
350
22
  0
DICTIONARY
  5
17
102
{ACAD_REACTORS
330
C
102
}
330
C
100
AcDbDictionary
281
     1
  3
Standard
350
18
  0
DICTIONARY
  5
19
102
{ACAD_REACTORS
330
C
102
}
330
C
100
AcDbDictionary
281
     1
  0
ACDBDICTIONARYWDFLT
  5
E
102
{ACAD_REACTORS
330
C
102
}
330
C
100
AcDbDictionary
281
     1
  3
Normal
350
F
100
AcDbDictionaryWithDefault
340
F
  0
DICTIONARY
  5
47
102
{ACAD_REACTORS
330
C
102
}
330
C
100
AcDbDictionary
281
     1
  3
A0
350
48
  3
A1
350
49
  3
A2
350
4A
  3
A3
350
4B
  3
A4
350
4C
  3
A5
350
4D
  3
A6
350
4E
  3
A7
350
4F
  3
A8
350
50
  3
A9
350
51
  3
B0
350
52
  3
B1
350
53
  3
B2
350
54
  3
B3
350
55
  3
B4
350
56
  3
B5
350
57
  3
B6
350
58
  3
B7
350
59
  3
B8
350
5A
  3
B9
350
5B
  3
C0
350
5C
  3
C1
350
5D
  3
C2
350
5E
  3
C3
350
5F
  3
C4
350
60
  3
C5
350
61
  3
C6
350
62
  3
C7
350
63
  3
C8
350
64
  3
C9
350
65
  3
D0
350
66
  3
D1
350
67
  3
D2
350
68
  0
LAYOUT
  5
1E
102
{ACAD_REACTORS
330
1A
102
}
330
1A
100
AcDbPlotSettings
  1

  2
none_device
  4

  6

 40
0.0
 41
0.0
 42
0.0
 43
0.0
 44
0.0
 45
0.0
 46
0.0
 47
0.0
 48
0.0
 49
0.0
140
0.0
141
0.0
142
1.0
143
1.0
 70
   688
 72
     1
 73
     0
 74
     5
  7

 75
    16
147
1.0
148
0.0
149
0.0
100
AcDbLayout
  1
Layout1
 70
     1
 71
     1
 10
0.0
 20
0.0
 11
420.0
 21
297.0
 12
0.0
 22
0.0
 32
0.0
 14
1.0000000000E+20
 24
1.0000000000E+20
 34
1.0000000000E+20
 15
-1.0000000000E+20
 25
-1.0000000000E+20
 35
-1.0000000000E+20
146
0.0
 13
0.0
 23
0.0
 33
0.0
 16
1.0
 26
0.0
 36
0.0
 17
0.0
 27
1.0
 37
0.0
 76
     0
330
1B
  0
LAYOUT
  5
26
102
{ACAD_REACTORS
330
1A
102
}
330
1A
100
AcDbPlotSettings
  1

  2
none_device
  4

  6

 40
0.0
 41
0.0
 42
0.0
 43
0.0
 44
0.0
 45
0.0
 46
0.0
 47
0.0
 48
0.0
 49
0.0
140
0.0
141
0.0
142
1.0
143
1.0
 70
   688
 72
     1
 73
     0
 74
     5
  7

 75
    16
147
1.0
148
0.0
149
0.0
100
AcDbLayout
  1
Layout2
 70
     1
 71
     2
 10
0.0
 20
0.0
 11
0.0
 21
0.0
 12
0.0
 22
0.0
 32
0.0
 14
0.0
 24
0.0
 34
0.0
 15
0.0
 25
0.0
 35
0.0
146
0.0
 13
0.0
 23
0.0
 33
0.0
 16
1.0
 26
0.0
 36
0.0
 17
0.0
 27
1.0
 37
0.0
 76
     0
330
23
  0
LAYOUT
  5
22
102
{ACAD_REACTORS
330
1A
102
}
330
1A
100
AcDbPlotSettings
  1

  2
none_device
  4
Letter_(8.50_x_11.00_Inches)
  6

 40
6.35
 41
6.35
 42
6.35000508
 43
6.35000508
 44
215.9
 45
279.4
 46
0.0
 47
0.0
 48
0.0
 49
0.0
140
0.0
141
0.0
142
1.0
143
1.0
 70
  1712
 72
     1
 73
     0
 74
     0
  7

 75
     0
147
1.0
148
0.0
149
0.0
100
AcDbLayout
  1
Model
 70
     1
 71
     0
 10
0.0
 20
0.0
 11
297.0
 21
210.0
 12
0.0
 22
0.0
 32
0.0
 14
0.0
 24
0.0
 34
0.0
 15
297.0
 25
210.0
 35
0.0
146
0.0
 13
0.0
 23
0.0
 33
0.0
 16
1.0
 26
0.0
 36
0.0
 17
0.0
 27
1.0
 37
0.0
 76
     0
330
1F
331
29
  0
MLINESTYLE
  5
18
102
{ACAD_REACTORS
330
17
102
}
330
17
100
AcDbMlineStyle
  2
Standard
 70
     0
  3

 62
   256
 51
90.0
 52
90.0
 71
     2
 49
0.5
 62
   256
  6
BYLAYER
 49
-0.5
 62
   256
  6
BYLAYER
  0
ACDBPLACEHOLDER
  5
F
102
{ACAD_REACTORS
330
E
102
}
330
E
  0
SCALE
  5
48
102
{ACAD_REACTORS
330
47
102
}
330
47
100
AcDbScale
 70
     0
300
1:1
140
1.0
141
1.0
290
     1
  0
SCALE
  5
49
102
{ACAD_REACTORS
330
47
102
}
330
47
100
AcDbScale
 70
     0
300
1:2
140
1.0
141
2.0
290
     0
  0
SCALE
  5
4A
102
{ACAD_REACTORS
330
47
102
}
330
47
100
AcDbScale
 70
     0
300
1:4
140
1.0
141
4.0
290
     0
  0
SCALE
  5
4B
102
{ACAD_REACTORS
330
47
102
}
330
47
100
AcDbScale
 70
     0
300
1:5
140
1.0
141
5.0
290
     0
  0
SCALE
  5
4C
102
{ACAD_REACTORS
330
47
102
}
330
47
100
AcDbScale
 70
     0
300
1:8
140
1.0
141
8.0
290
     0
  0
SCALE
  5
4D
102
{ACAD_REACTORS
330
47
102
}
330
47
100
AcDbScale
 70
     0
300
1:10
140
1.0
141
10.0
290
     0
  0
SCALE
  5
4E
102
{ACAD_REACTORS
330
47
102
}
330
47
100
AcDbScale
 70
     0
300
1:16
140
1.0
141
16.0
290
     0
  0
SCALE
  5
4F
102
{ACAD_REACTORS
330
47
102
}
330
47
100
AcDbScale
 70
     0
300
1:20
140
1.0
141
20.0
290
     0
  0
SCALE
  5
50
102
{ACAD_REACTORS
330
47
102
}
330
47
100
AcDbScale
 70
     0
300
1:30
140
1.0
141
30.0
290
     0
  0
SCALE
  5
51
102
{ACAD_REACTORS
330
47
102
}
330
47
100
AcDbScale
 70
     0
300
1:40
140
1.0
141
40.0
290
     0
  0
SCALE
  5
52
102
{ACAD_REACTORS
330
47
102
}
330
47
100
AcDbScale
 70
     0
300
1:50
140
1.0
141
50.0
290
     0
  0
SCALE
  5
53
102
{ACAD_REACTORS
330
47
102
}
330
47
100
AcDbScale
 70
     0
300
1:100
140
1.0
141
100.0
290
     0
  0
SCALE
  5
54
102
{ACAD_REACTORS
330
47
102
}
330
47
100
AcDbScale
 70
     0
300
2:1
140
2.0
141
1.0
290
     0
  0
SCALE
  5
55
102
{ACAD_REACTORS
330
47
102
}
330
47
100
AcDbScale
 70
     0
300
4:1
140
4.0
141
1.0
290
     0
  0
SCALE
  5
56
102
{ACAD_REACTORS
330
47
102
}
330
47
100
AcDbScale
 70
     0
300
8:1
140
8.0
141
1.0
290
     0
  0
SCALE
  5
57
102
{ACAD_REACTORS
330
47
102
}
330
47
100
AcDbScale
 70
     0
300
10:1
140
10.0
141
1.0
290
     0
  0
SCALE
  5
58
102
{ACAD_REACTORS
330
47
102
}
330
47
100
AcDbScale
 70
     0
300
100:1
140
100.0
141
1.0
290
     0
  0
SCALE
  5
59
102
{ACAD_REACTORS
330
47
102
}
330
47
100
AcDbScale
 70
     0
300
1/128" = 1'-0"
140
0.0078125
141
12.0
290
     0
  0
SCALE
  5
5A
102
{ACAD_REACTORS
330
47
102
}
330
47
100
AcDbScale
 70
     0
300
1/64" = 1'-0"
140
0.015625
141
12.0
290
     0
  0
SCALE
  5
5B
102
{ACAD_REACTORS
330
47
102
}
330
47
100
AcDbScale
 70
     0
300
1/32" = 1'-0"
140
0.03125
141
12.0
290
     0
  0
SCALE
  5
5C
102
{ACAD_REACTORS
330
47
102
}
330
47
100
AcDbScale
 70
     0
300
1/16" = 1'-0"
140
0.0625
141
12.0
290
     0
  0
SCALE
  5
5D
102
{ACAD_REACTORS
330
47
102
}
330
47
100
AcDbScale
 70
     0
300
3/32" = 1'-0"
140
0.09375
141
12.0
290
     0
  0
SCALE
  5
5E
102
{ACAD_REACTORS
330
47
102
}
330
47
100
AcDbScale
 70
     0
300
1/8" = 1'-0"
140
0.125
141
12.0
290
     0
  0
SCALE
  5
5F
102
{ACAD_REACTORS
330
47
102
}
330
47
100
AcDbScale
 70
     0
300
3/16" = 1'-0"
140
0.1875
141
12.0
290
     0
  0
SCALE
  5
60
102
{ACAD_REACTORS
330
47
102
}
330
47
100
AcDbScale
 70
     0
300
1/4" = 1'-0"
140
0.25
141
12.0
290
     0
  0
SCALE
  5
61
102
{ACAD_REACTORS
330
47
102
}
330
47
100
AcDbScale
 70
     0
300
3/8" = 1'-0"
140
0.375
141
12.0
290
     0
  0
SCALE
  5
62
102
{ACAD_REACTORS
330
47
102
}
330
47
100
AcDbScale
 70
     0
300
1/2" = 1'-0"
140
0.5
141
12.0
290
     0
  0
SCALE
  5
63
102
{ACAD_REACTORS
330
47
102
}
330
47
100
AcDbScale
 70
     0
300
3/4" = 1'-0"
140
0.75
141
12.0
290
     0
  0
SCALE
  5
64
102
{ACAD_REACTORS
330
47
102
}
330
47
100
AcDbScale
 70
     0
300
1" = 1'-0"
140
1.0
141
12.0
290
     0
  0
SCALE
  5
65
102
{ACAD_REACTORS
330
47
102
}
330
47
100
AcDbScale
 70
     0
300
1-1/2" = 1'-0"
140
1.5
141
12.0
290
     0
  0
SCALE
  5
66
102
{ACAD_REACTORS
330
47
102
}
330
47
100
AcDbScale
 70
     0
300
3" = 1'-0"
140
3.0
141
12.0
290
     0
  0
SCALE
  5
67
102
{ACAD_REACTORS
330
47
102
}
330
47
100
AcDbScale
 70
     0
300
6" = 1'-0"
140
6.0
141
12.0
290
     0
  0
SCALE
  5
68
102
{ACAD_REACTORS
330
47
102
}
330
47
100
AcDbScale
 70
     0
300
1'-0" = 1'-0"
140
12.0
141
12.0
290
     0
  0
ENDSEC
  0
EOF
