  0
SECTION
  2
HEADER
  9
$ACADVER
  1
AC1015
  9
$ACADMAINTVER
 70
     6
  9
$DWGCODEPAGE
  3
ANSI_1252
  9
$INSBASE
 10
0.0
 20
0.0
 30
0.0
  9
$EXTMIN
 10
0.0
 20
0.0
 30
0.0
  9
$EXTMAX
 10
297.0
 20
210.0
 30
0.0
  9
$LIMMIN
 10
0.0
 20
0.0
  9
$LIMMAX
 10
297.0
 20
210.0
  9
$ORTHOMODE
 70
     0
  9
$REGENMODE
 70
     1
  9
$FILLMODE
 70
     1
  9
$QTEXTMODE
 70
     0
  9
$MIRRTEXT
 70
     1
  9
$LTSCALE
 40
1.0
  9
$ATTMODE
 70
     1
  9
$TEXTSIZE
 40
2.0
  9
$TRACEWID
 40
1.0
  9
$TEXTSTYLE
  7
Standard
  9
$CLAYER
  8
0
  9
$CELTYPE
  6
ByLayer
  9
$CECOLOR
 62
   256
  9
$CELTSCALE
 40
1.0
  9
$DISPSILH
 70
     0
  9
$DIMSCALE
 40
1.0
  9
$DIMASZ
 40
3.0
  9
$DIMEXO
 40
0.0
  9
$DIMDLI
 40
3.75
  9
$DIMRND
 40
0.0
  9
$DIMDLE
 40
0.0
  9
$DIMEXE
 40
1.0
  9
$DIMTP
 40
0.0
  9
$DIMTM
 40
0.0
  9
$DIMTXT
 40
2.0
  9
$DIMCEN
 40
2.5
  9
$DIMTSZ
 40
0.0
  9
$DIMTOL
 70
     0
  9
$DIMLIM
 70
     0
  9
$DIMTIH
 70
     1
  9
$DIMTOH
 70
     1
  9
$DIMSE1
 70
     0
  9
$DIMSE2
 70
     0
  9
$DIMTAD
 70
     1
  9
$DIMZIN
 70
     0
  9
$DIMBLK
  1

  9
$DIMASO
 70
     1
  9
$DIMSHO
 70
     1
  9
$DIMPOST
  1

  9
$DIMAPOST
  1

  9
$DIMALT
 70
     0
  9
$DIMALTD
 70
     3
  9
$DIMALTF
 40
0.0393700787
  9
$DIMLFAC
 40
1.0
  9
$DIMTOFL
 70
     1
  9
$DIMTVP
 40
0.0
  9
$DIMTIX
 70
     0
  9
$DIMSOXD
 70
     0
  9
$DIMSAH
 70
     0
  9
$DIMBLK1
  1

  9
$DIMBLK2
  1

  9
$DIMSTYLE
  2
ISO-25
  9
$DIMCLRD
 70
     0
  9
$DIMCLRE
 70
     0
  9
$DIMCLRT
 70
     0
  9
$DIMTFAC
 40
1.0
  9
$DIMGAP
 40
1.524
  9
$DIMJUST
 70
     0
  9
$DIMSD1
 70
     0
  9
$DIMSD2
 70
     0
  9
$DIMTOLJ
 70
     0
  9
$DIMTZIN
 70
     0
  9
$DIMALTZ
 70
     0
  9
$DIMALTTZ
 70
     0
  9
$DIMUPT
 70
     0
  9
$DIMDEC
 70
     2
  9
$DIMTDEC
 70
     3
  9
$DIMALTU
 70
     2
  9
$DIMALTTD
 70
     3
  9
$DIMTXSTY
  7
Standard
  9
$DIMAUNIT
 70
     0
  9
$DIMADEC
 70
     2
  9
$DIMALTRND
 40
0.0
  9
$DIMAZIN
 70
     0
  9
$DIMDSEP
 70
    44
  9
$DIMATFIT
 70
     3
  9
$DIMFRAC
 70
     0
  9
$DIMLDRBLK
  1

  9
$DIMLUNIT
 70
     2
  9
$DIMLWD
 70
    -2
  9
$DIMLWE
 70
    -2
  9
$DIMTMOVE
 70
     0
  9
$LUNITS
 70
     2
  9
$LUPREC
 70
     2
  9
$SKETCHINC
 40
1.0
  9
$FILLETRAD
 40
10.0
  9
$AUNITS
 70
     0
  9
$AUPREC
 70
     2
  9
$MENU
  1
.
  9
$ELEVATION
 40
0.0
  9
$PELEVATION
 40
0.0
  9
$THICKNESS
 40
0.0
  9
$LIMCHECK
 70
     0
  9
$CHAMFERA
 40
10.0
  9
$CHAMFERB
 40
10.0
  9
$CHAMFERC
 40
20.0
  9
$CHAMFERD
 40
0.0
  9
$SKPOLY
 70
     0
  9
$TDCREATE
 40
2456413.575507616
  9
$TDUCREATE
 40
2456413.492174282
  9
$TDUPDATE
 40
2456413.575509248
  9
$TDUUPDATE
 40
2456413.492175914
  9
$TDINDWG
 40
0.0000000116
  9
$TDUSRTIMER
 40
0.0000000116
  9
$USRTIMER
 70
     1
  9
$ANGBASE
 50
0.0
  9
$ANGDIR
 70
     0
  9
$PDMODE
 70
     0
  9
$PDSIZE
 40
-1.0
  9
$PLINEWID
 40
0.0
  9
$SPLFRAME
 70
     0
  9
$SPLINETYPE
 70
     6
  9
$SPLINESEGS
 70
     8
  9
$HANDSEED
  5
371
  9
$SURFTAB1
 70
     6
  9
$SURFTAB2
 70
     6
  9
$SURFTYPE
 70
     6
  9
$SURFU
 70
     6
  9
$SURFV
 70
     6
  9
$UCSBASE
  2

  9
$UCSNAME
  2

  9
$UCSORG
 10
0.0
 20
0.0
 30
0.0
  9
$UCSXDIR
 10
1.0
 20
0.0
 30
0.0
  9
$UCSYDIR
 10
0.0
 20
1.0
 30
0.0
  9
$UCSORTHOREF
  2

  9
$UCSORTHOVIEW
 70
     0
  9
$UCSORGTOP
 10
0.0
 20
0.0
 30
0.0
  9
$UCSORGBOTTOM
 10
0.0
 20
0.0
 30
0.0
  9
$UCSORGLEFT
 10
0.0
 20
0.0
 30
0.0
  9
$UCSORGRIGHT
 10
0.0
 20
0.0
 30
0.0
  9
$UCSORGFRONT
 10
0.0
 20
0.0
 30
0.0
  9
$UCSORGBACK
 10
0.0
 20
0.0
 30
0.0
  9
$PUCSBASE
  2

  9
$PUCSNAME
  2

  9
$PUCSORG
 10
0.0
 20
0.0
 30
0.0
  9
$PUCSXDIR
 10
1.0
 20
0.0
 30
0.0
  9
$PUCSYDIR
 10
0.0
 20
1.0
 30
0.0
  9
$PUCSORTHOREF
  2

  9
$PUCSORTHOVIEW
 70
     0
  9
$PUCSORGTOP
 10
0.0
 20
0.0
 30
0.0
  9
$PUCSORGBOTTOM
 10
0.0
 20
0.0
 30
0.0
  9
$PUCSORGLEFT
 10
0.0
 20
0.0
 30
0.0
  9
$PUCSORGRIGHT
 10
0.0
 20
0.0
 30
0.0
  9
$PUCSORGFRONT
 10
0.0
 20
0.0
 30
0.0
  9
$PUCSORGBACK
 10
0.0
 20
0.0
 30
0.0
  9
$USERI1
 70
     0
  9
$USERI2
 70
     0
  9
$USERI3
 70
     0
  9
$USERI4
 70
     0
  9
$USERI5
 70
     0
  9
$USERR1
 40
0.0
  9
$USERR2
 40
0.0
  9
$USERR3
 40
0.0
  9
$USERR4
 40
0.0
  9
$USERR5
 40
0.0
  9
$WORLDVIEW
 70
     1
  9
$SHADEDGE
 70
     3
  9
$SHADEDIF
 70
    70
  9
$TILEMODE
 70
     1
  9
$MAXACTVP
 70
    64
  9
$PINSBASE
 10
0.0
 20
0.0
 30
0.0
  9
$PLIMCHECK
 70
     0
  9
$PEXTMIN
 10
1.0000000000E+20
 20
1.0000000000E+20
 30
1.0000000000E+20
  9
$PEXTMAX
 10
-1.0000000000E+20
 20
-1.0000000000E+20
 30
-1.0000000000E+20
  9
$PLIMMIN
 10
0.0
 20
0.0
  9
$PLIMMAX
 10
420.0
 20
297.0
  9
$UNITMODE
 70
     0
  9
$VISRETAIN
 70
     1
  9
$PLINEGEN
 70
     0
  9
$PSLTSCALE
 70
     1
  9
$TREEDEPTH
 70
  3020
  9
$CMLSTYLE
  2
Standard
  9
$CMLJUST
 70
     0
  9
$CMLSCALE
 40
20.0
  9
$PROXYGRAPHICS
 70
     1
  9
$MEASUREMENT
 70
     1
  9
$CELWEIGHT
370
    -1
  9
$ENDCAPS
280
     0
  9
$JOINSTYLE
280
     0
  9
$LWDISPLAY
290
     1
  9
$INSUNITS
 70
     4
  9
$HYPERLINKBASE
  1

  9
$STYLESHEET
  1

  9
$XEDIT
290
     1
  9
$CEPSNTYPE
380
     0
  9
$PSTYLEMODE
290
     1
  9
$FINGERPRINTGUID
  2
{C7422BFB-E85A-4C9C-B51A-9D6FAF15A699}
  9
$VERSIONGUID
  2
{FAEB1C32-E019-11D5-929B-00C0DF256EC4}
  9
$EXTNAMES
290
     1
  9
$PSVPSCALE
 40
0.0
  9
$OLESTARTUP
290
     0
  0
ENDSEC
  0
SECTION
  2
CLASSES
  0
CLASS
  1
ACDBDICTIONARYWDFLT
  2
AcDbDictionaryWithDefault
  3
ObjectDBX Classes
 90
        0
280
     0
281
     0
  0
CLASS
  1
VISUALSTYLE
  2
AcDbVisualStyle
  3
ObjectDBX Classes
 90
     4095
280
     0
281
     0
  0
CLASS
  1
MATERIAL
  2
AcDbMaterial
  3
ObjectDBX Classes
 90
     1153
280
     0
281
     0
  0
CLASS
  1
ACDBPLACEHOLDER
  2
AcDbPlaceHolder
  3
ObjectDBX Classes
 90
        0
280
     0
281
     0
  0
CLASS
  1
LAYOUT
  2
AcDbLayout
  3
ObjectDBX Classes
 90
        0
280
     0
281
     0
  0
ENDSEC
  0
SECTION
  2
TABLES
  0
TABLE
  2
VPORT
  5
8
330
0
100
AcDbSymbolTable
 70
     1
  0
VPORT
  5
29
330
8
100
AcDbSymbolTableRecord
100
AcDbViewportTableRecord
  2
*Active
 70
     0
 10
0.0
 20
0.0
 11
1.0
 21
1.0
 12
148.5
 22
105.0
 13
0.0
 23
0.0
 14
10.0
 24
10.0
 15
10.0
 25
10.0
 16
0.0
 26
0.0
 36
1.0
 17
0.0
 27
0.0
 37
0.0
 40
210.0
 41
1.4142857143
 42
50.0
 43
0.0
 44
0.0
 50
0.0
 51
0.0
 71
     0
 72
  2000
 73
     1
 74
     3
 75
     0
 76
     0
 77
     0
 78
     0
281
     0
 65
     1
110
0.0
120
0.0
130
0.0
111
1.0
121
0.0
131
0.0
112
0.0
122
1.0
132
0.0
 79
     0
146
0.0
  0
ENDTAB
  0
TABLE
  2
LTYPE
  5
5
330
0
100
AcDbSymbolTable
 70
     6
  0
LTYPE
  5
14
330
5
100
AcDbSymbolTableRecord
100
AcDbLinetypeTableRecord
  2
ByBlock
 70
     0
  3

 72
    65
 73
     0
 40
0.0
  0
LTYPE
  5
15
330
5
100
AcDbSymbolTableRecord
100
AcDbLinetypeTableRecord
  2
ByLayer
 70
     0
  3

 72
    65
 73
     0
 40
0.0
  0
LTYPE
  5
16
330
5
100
AcDbSymbolTableRecord
100
AcDbLinetypeTableRecord
  2
Continuous
 70
     0
  3
Solid line
 72
    65
 73
     0
 40
0.0
  0
LTYPE
  5
3F
330
5
100
AcDbSymbolTableRecord
100
AcDbLinetypeTableRecord
  2
HIDDEN
 70
     0
  3
Hidden __ __ __ __ __ __ __ __ __ __ __ __ __ __
 72
    65
 73
     2
 40
1.905
 49
1.27
 74
     0
 49
-0.635
 74
     0
  0
LTYPE
  5
40
330
5
100
AcDbSymbolTableRecord
100
AcDbLinetypeTableRecord
  2
PHANTOM
 70
     0
  3
Phantom ______  __  __  ______  __  __  ______
 72
    65
 73
     6
 40
12.7
 49
6.35
 74
     0
 49
-1.27
 74
     0
 49
1.27
 74
     0
 49
-1.27
 74
     0
 49
1.27
 74
     0
 49
-1.27
 74
     0
  0
LTYPE
  5
41
330
5
100
AcDbSymbolTableRecord
100
AcDbLinetypeTableRecord
  2
CENTER
 70
     0
  3
Center ____ _ ____ _ ____ _ ____ _ ____ _ ____
 72
    65
 73
     4
 40
10.16
 49
6.35
 74
     0
 49
-1.27
 74
     0
 49
1.27
 74
     0
 49
-1.27
 74
     0
  0
LTYPE
  5
42
330
5
100
AcDbSymbolTableRecord
100
AcDbLinetypeTableRecord
  2
CENTERX2
 70
     0
  3
Center (2x) ________  __  ________  __  _____
 72
    65
 73
     4
 40
20.32
 49
12.7
 74
     0
 49
-2.54
 74
     0
 49
2.54
 74
     0
 49
-2.54
 74
     0
  0
LTYPE
  5
43
330
5
100
AcDbSymbolTableRecord
100
AcDbLinetypeTableRecord
  2
DOT2
 70
     0
  3
Dot (.5x) ........................................
 72
    65
 73
     2
 40
0.635
 49
0.0
 74
     0
 49
-0.635
 74
     0
  0
ENDTAB
  0
TABLE
  2
LAYER
  5
2
330
0
100
AcDbSymbolTable
 70
     5
  0
LAYER
  5
10
330
2
100
AcDbSymbolTableRecord
100
AcDbLayerTableRecord
  2
0
 70
     0
 62
     7
  6
Continuous
370
    -3
390
F
  0
LAYER
  5
44
330
2
100
AcDbSymbolTableRecord
100
AcDbLayerTableRecord
  2
FORMAT
 70
     0
 62
     7
  6
Continuous
370
    -3
390
F
  0
LAYER
  5
45
330
2
100
AcDbSymbolTableRecord
100
AcDbLayerTableRecord
  2
VERMASSUNG
 70
     0
 62
     7
  6
Continuous
370
    -3
390
F
  0
LAYER
  5
46
330
2
100
AcDbSymbolTableRecord
100
AcDbLayerTableRecord
  2
KOPF_DÜNN
 70
     0
 62
     7
  6
Continuous
370
    -3
390
F
  0
LAYER
  5
47
330
2
100
AcDbSymbolTableRecord
100
AcDbLayerTableRecord
  2
KOPF_DICK
 70
     0
 62
     7
  6
Continuous
370
    15
390
F
  0
ENDTAB
  0
TABLE
  2
STYLE
  5
3
330
0
100
AcDbSymbolTable
 70
     3
  0
STYLE
  5
11
330
3
100
AcDbSymbolTableRecord
100
AcDbTextStyleTableRecord
  2
Standard
 70
     0
 40
0.0
 41
1.0
 50
0.0
 71
     0
 42
2.0
  3
txt
  4

  0
STYLE
  5
48
330
3
100
AcDbSymbolTableRecord
100
AcDbTextStyleTableRecord
  2
SLDTEXTSTYLE0
 70
     0
 40
0.0
 41
0.7
 50
0.0
 71
     0
 42
0.2
  3
TXT
  4

  0
STYLE
  5
4C
330
3
100
AcDbSymbolTableRecord
100
AcDbTextStyleTableRecord
  2
SLDTEXTSTYLE1
 70
     0
 40
0.0
 41
0.6461538462
 50
0.0
 71
     0
 42
0.2
  3
TXT
  4

  0
ENDTAB
  0
TABLE
  2
VIEW
  5
6
330
0
100
AcDbSymbolTable
 70
     0
  0
ENDTAB
  0
TABLE
  2
UCS
  5
7
330
0
100
AcDbSymbolTable
 70
     0
  0
ENDTAB
  0
TABLE
  2
APPID
  5
9
330
0
100
AcDbSymbolTable
 70
     1
  0
APPID
  5
12
330
9
100
AcDbSymbolTableRecord
100
AcDbRegAppTableRecord
  2
ACAD
 70
     0
  0
ENDTAB
  0
TABLE
  2
DIMSTYLE
  5
A
330
0
100
AcDbSymbolTable
 70
     2
100
AcDbDimStyleTable
  0
DIMSTYLE
105
27
330
A
100
AcDbSymbolTableRecord
100
AcDbDimStyleTableRecord
  2
ISO-25
 70
     0
 41
2.5
 42
0.625
 43
3.75
 44
1.25
 73
     0
 74
     0
 77
     1
 78
     8
140
2.5
141
2.5
143
0.0393700787
147
0.625
171
     3
172
     1
178
     0
271
     2
272
     2
274
     3
278
    44
283
     0
284
     8
340
11
  0
DIMSTYLE
105
1B2
102
{ACAD_REACTORS
330
1B1
330
1BE
330
1C8
330
1D2
330
1DC
330
1E6
330
1F0
330
1FA
330
204
330
20F
102
}
330
A
100
AcDbSymbolTableRecord
100
AcDbDimStyleTableRecord
  2
SLDDIMSTYLE0
 70
     0
 41
3.0
 44
0.0
 45
0.000000001
 73
     0
 74
     0
 77
     1
 78
    12
 79
     3
140
2.0
147
0.5
173
     1
178
     0
271
     2
272
     3
276
     2
284
    12
340
48
  0
ENDTAB
  0
TABLE
  2
BLOCK_RECORD
  5
1
330
0
100
AcDbSymbolTable
 70
    12
  0
BLOCK_RECORD
  5
1F
330
1
100
AcDbSymbolTableRecord
100
AcDbBlockTableRecord
  2
*Model_Space
340
22
  0
BLOCK_RECORD
  5
1B
330
1
100
AcDbSymbolTableRecord
100
AcDbBlockTableRecord
  2
*Paper_Space
340
1E
  0
BLOCK_RECORD
  5
23
330
1
100
AcDbSymbolTableRecord
100
AcDbBlockTableRecord
  2
*Paper_Space0
340
26
  0
BLOCK_RECORD
  5
1B3
330
1
100
AcDbSymbolTableRecord
100
AcDbBlockTableRecord
  2
_D
340
0
  0
BLOCK_RECORD
  5
1BF
330
1
100
AcDbSymbolTableRecord
100
AcDbBlockTableRecord
  2
_D_1
340
0
  0
BLOCK_RECORD
  5
1C9
330
1
100
AcDbSymbolTableRecord
100
AcDbBlockTableRecord
  2
_D_2
340
0
  0
BLOCK_RECORD
  5
1D3
330
1
100
AcDbSymbolTableRecord
100
AcDbBlockTableRecord
  2
_D_3
340
0
  0
BLOCK_RECORD
  5
1DD
330
1
100
AcDbSymbolTableRecord
100
AcDbBlockTableRecord
  2
_D_4
340
0
  0
BLOCK_RECORD
  5
1E7
330
1
100
AcDbSymbolTableRecord
100
AcDbBlockTableRecord
  2
_D_5
340
0
  0
BLOCK_RECORD
  5
1F1
330
1
100
AcDbSymbolTableRecord
100
AcDbBlockTableRecord
  2
_D_6
340
0
  0
BLOCK_RECORD
  5
1FB
330
1
100
AcDbSymbolTableRecord
100
AcDbBlockTableRecord
  2
_D_7
340
0
  0
BLOCK_RECORD
  5
205
330
1
100
AcDbSymbolTableRecord
100
AcDbBlockTableRecord
  2
_D_8
340
0
  0
BLOCK_RECORD
  5
210
330
1
100
AcDbSymbolTableRecord
100
AcDbBlockTableRecord
  2
_D_9
340
0
  0
BLOCK_RECORD
  5
364
330
1
100
AcDbSymbolTableRecord
100
AcDbBlockTableRecord
  2
SW_CENTERMARKSYMBOL_0
340
0
102
{BLKREFS
331
36F
102
}
  0
ENDTAB
  0
ENDSEC
  0
SECTION
  2
BLOCKS
  0
BLOCK
  5
20
330
1F
100
AcDbEntity
  8
0
100
AcDbBlockBegin
  2
*Model_Space
 70
     0
 10
0.0
 20
0.0
 30
0.0
  3
*Model_Space
  1

  0
ENDBLK
  5
21
330
1F
100
AcDbEntity
  8
0
100
AcDbBlockEnd
  0
BLOCK
  5
1C
330
1B
100
AcDbEntity
 67
     1
  8
0
100
AcDbBlockBegin
  2
*Paper_Space
 70
     0
 10
0.0
 20
0.0
 30
0.0
  3
*Paper_Space
  1

  0
ENDBLK
  5
1D
330
1B
100
AcDbEntity
 67
     1
  8
0
100
AcDbBlockEnd
  0
BLOCK
  5
24
330
23
100
AcDbEntity
  8
0
100
AcDbBlockBegin
  2
*Paper_Space0
 70
     0
 10
0.0
 20
0.0
 30
0.0
  3
*Paper_Space0
  1

  0
ENDBLK
  5
25
330
23
100
AcDbEntity
  8
0
100
AcDbBlockEnd
  0
BLOCK
  5
1B4
330
1B3
100
AcDbEntity
  8
0
100
AcDbBlockBegin
  2
_D
 70
     0
 10
0.0
 20
0.0
 30
0.0
  3
_D
  1

  0
SOLID
  5
1B6
330
1B3
100
AcDbEntity
  8
VERMASSUNG
100
AcDbTrace
 10
120.8115744399
 20
172.5858048828
 30
0.0
 11
120.3615744399
 21
169.5858048828
 31
0.0
 12
121.2615744399
 22
169.5858048828
 32
0.0
 13
121.2615744399
 23
169.5858048828
 33
0.0
  0
SOLID
  5
1B7
330
1B3
100
AcDbEntity
  8
VERMASSUNG
100
AcDbTrace
 10
120.8115744399
 20
72.5858048828
 30
0.0
 11
121.2615744399
 21
75.5858048828
 31
0.0
 12
120.3615744399
 22
75.5858048828
 32
0.0
 13
120.3615744399
 23
75.5858048828
 33
0.0
  0
LINE
  5
1B8
330
1B3
100
AcDbEntity
  8
VERMASSUNG
100
AcDbLine
 10
179.0947805259
 20
172.5858048828
 30
0.0
 11
119.8115744399
 21
172.5858048828
 31
0.0
  0
LINE
  5
1B9
330
1B3
100
AcDbEntity
  8
VERMASSUNG
100
AcDbLine
 10
179.0947805259
 20
72.5858048828
 30
0.0
 11
119.8115744399
 21
72.5858048828
 31
0.0
  0
LINE
  5
1BA
330
1B3
100
AcDbEntity
  8
VERMASSUNG
100
AcDbLine
 10
120.8115744399
 20
172.5858048828
 30
0.0
 11
120.8115744399
 21
72.5858048828
 31
0.0
  0
MTEXT
  5
1BB
330
1B3
100
AcDbEntity
  8
VERMASSUNG
100
AcDbMText
 10
118.0334389508
 20
113.9009111835
 30
0.0
 40
2.0
 41
0.0
 71
     1
 72
     1
  1
HSK T
  7
SLDTEXTSTYLE0
 11
-7.044195017643634E-15
 21
1.0
 31
0.0
 73
     1
 44
1.0
  0
MTEXT
  5
1BC
330
1B3
100
AcDbEntity
  8
VERMASSUNG
100
AcDbMText
 10
118.2334389603
 20
122.7009111358
 30
0.0
 40
2.0
 41
0.0
 71
     1
 72
     1
  1
%%c
  7
SLDTEXTSTYLE0
 11
-7.044195017643634E-15
 21
1.0
 31
0.0
 73
     1
 44
1.0
  0
MTEXT
  5
1BD
330
1B3
100
AcDbEntity
  8
VERMASSUNG
100
AcDbMText
 10
118.2334390767
 20
126.3096446297
 30
0.0
 40
2.0
 41
0.0
 71
     1
 72
     1
  1
100
  7
SLDTEXTSTYLE0
 11
-7.044195017643634E-15
 21
1.0
 31
0.0
 73
     1
 44
1.0
  0
ENDBLK
  5
1B5
330
1B3
100
AcDbEntity
  8
0
100
AcDbBlockEnd
  0
BLOCK
  5
1C0
330
1BF
100
AcDbEntity
  8
0
100
AcDbBlockBegin
  2
_D_1
 70
     0
 10
0.0
 20
0.0
 30
0.0
  3
_D_1
  1

  0
SOLID
  5
1C2
330
1BF
100
AcDbEntity
  8
VERMASSUNG
100
AcDbTrace
 10
278.5947805259
 20
190.2922195586
 30
0.0
 11
275.5947805259
 21
190.7422195586
 31
0.0
 12
275.5947805259
 22
189.8422195586
 32
0.0
 13
275.5947805259
 23
189.8422195586
 33
0.0
  0
SOLID
  5
1C3
330
1BF
100
AcDbEntity
  8
VERMASSUNG
100
AcDbTrace
 10
128.6947805259
 20
190.2922195586
 30
0.0
 11
131.6947805259
 21
189.8422195586
 31
0.0
 12
131.6947805259
 22
190.7422195586
 32
0.0
 13
131.6947805259
 23
190.7422195586
 33
0.0
  0
LINE
  5
1C4
330
1BF
100
AcDbEntity
  8
VERMASSUNG
100
AcDbLine
 10
278.5947805259
 20
153.0858048828
 30
0.0
 11
278.5947805259
 21
191.2922195586
 31
0.0
  0
LINE
  5
1C5
330
1BF
100
AcDbEntity
  8
VERMASSUNG
100
AcDbLine
 10
128.6947805259
 20
153.0884746254
 30
0.0
 11
128.6947805259
 21
191.2922195586
 31
0.0
  0
LINE
  5
1C6
330
1BF
100
AcDbEntity
  8
VERMASSUNG
100
AcDbLine
 10
278.5947805259
 20
190.2922195586
 30
0.0
 11
128.6947805259
 21
190.2922195586
 31
0.0
  0
MTEXT
  5
1C7
330
1BF
100
AcDbEntity
  8
VERMASSUNG
100
AcDbMText
 10
207.6639997259
 20
192.8703549218
 30
0.0
 40
2.0
 41
0.0
 71
     1
 72
     1
  1
149.9
  7
SLDTEXTSTYLE0
 73
     1
 44
1.0
  0
ENDBLK
  5
1C1
330
1BF
100
AcDbEntity
  8
0
100
AcDbBlockEnd
  0
BLOCK
  5
1CA
330
1C9
100
AcDbEntity
  8
0
100
AcDbBlockBegin
  2
_D_2
 70
     0
 10
0.0
 20
0.0
 30
0.0
  3
_D_2
  1

  0
SOLID
  5
1CC
330
1C9
100
AcDbEntity
  8
VERMASSUNG
100
AcDbTrace
 10
178.5947805259
 20
184.2922195586
 30
0.0
 11
181.5947805259
 21
183.8422195586
 31
0.0
 12
181.5947805259
 22
184.7422195586
 32
0.0
 13
181.5947805259
 23
184.7422195586
 33
0.0
  0
SOLID
  5
1CD
330
1C9
100
AcDbEntity
  8
VERMASSUNG
100
AcDbTrace
 10
278.5947805259
 20
184.2922195586
 30
0.0
 11
275.5947805259
 21
184.7422195586
 31
0.0
 12
275.5947805259
 22
183.8422195586
 32
0.0
 13
275.5947805259
 23
183.8422195586
 33
0.0
  0
LINE
  5
1CE
330
1C9
100
AcDbEntity
  8
VERMASSUNG
100
AcDbLine
 10
178.5947805259
 20
172.0858048828
 30
0.0
 11
178.5947805259
 21
185.2922195586
 31
0.0
  0
LINE
  5
1CF
330
1C9
100
AcDbEntity
  8
VERMASSUNG
100
AcDbLine
 10
278.5947805259
 20
153.0858048828
 30
0.0
 11
278.5947805259
 21
185.2922195586
 31
0.0
  0
LINE
  5
1D0
330
1C9
100
AcDbEntity
  8
VERMASSUNG
100
AcDbLine
 10
178.5947805259
 20
184.2922195586
 30
0.0
 11
278.5947805259
 21
184.2922195586
 31
0.0
  0
MTEXT
  5
1D1
330
1C9
100
AcDbEntity
  8
VERMASSUNG
100
AcDbMText
 10
225.4228593539
 20
186.8703549218
 30
0.0
 40
2.0
 41
0.0
 71
     1
 72
     1
  1
100
  7
SLDTEXTSTYLE0
 73
     1
 44
1.0
  0
ENDBLK
  5
1CB
330
1C9
100
AcDbEntity
  8
0
100
AcDbBlockEnd
  0
BLOCK
  5
1D4
330
1D3
100
AcDbEntity
  8
0
100
AcDbBlockBegin
  2
_D_3
 70
     0
 10
0.0
 20
0.0
 30
0.0
  3
_D_3
  1

  0
SOLID
  5
1D6
330
1D3
100
AcDbEntity
  8
VERMASSUNG
100
AcDbTrace
 10
207.5447805259
 20
178.2922195586
 30
0.0
 11
210.5447805259
 21
177.8422195586
 31
0.0
 12
210.5447805259
 22
178.7422195586
 32
0.0
 13
210.5447805259
 23
178.7422195586
 33
0.0
  0
SOLID
  5
1D7
330
1D3
100
AcDbEntity
  8
VERMASSUNG
100
AcDbTrace
 10
278.5947805259
 20
178.2922195586
 30
0.0
 11
275.5947805259
 21
178.7422195586
 31
0.0
 12
275.5947805259
 22
177.8422195586
 32
0.0
 13
275.5947805259
 23
177.8422195586
 33
0.0
  0
LINE
  5
1D8
330
1D3
100
AcDbEntity
  8
VERMASSUNG
100
AcDbLine
 10
207.5447805259
 20
170.5545447037
 30
0.0
 11
207.5447805259
 21
179.2922195586
 31
0.0
  0
LINE
  5
1D9
330
1D3
100
AcDbEntity
  8
VERMASSUNG
100
AcDbLine
 10
278.5947805259
 20
153.0858048828
 30
0.0
 11
278.5947805259
 21
179.2922195586
 31
0.0
  0
LINE
  5
1DA
330
1D3
100
AcDbEntity
  8
VERMASSUNG
100
AcDbLine
 10
207.5447805259
 20
178.2922195586
 30
0.0
 11
278.5947805259
 21
178.2922195586
 31
0.0
  0
MTEXT
  5
1DB
330
1D3
100
AcDbEntity
  8
VERMASSUNG
100
AcDbMText
 10
242.1128674443
 20
180.8703549218
 30
0.0
 40
2.0
 41
0.0
 71
     1
 72
     1
  1
71.05
  7
SLDTEXTSTYLE0
 73
     1
 44
1.0
  0
ENDBLK
  5
1D5
330
1D3
100
AcDbEntity
  8
0
100
AcDbBlockEnd
  0
BLOCK
  5
1DE
330
1DD
100
AcDbEntity
  8
0
100
AcDbBlockBegin
  2
_D_4
 70
     0
 10
0.0
 20
0.0
 30
0.0
  3
_D_4
  1

  0
SOLID
  5
1E0
330
1DD
100
AcDbEntity
  8
VERMASSUNG
100
AcDbTrace
 10
268.0947805259
 20
83.1290315607
 30
0.0
 11
271.0947805259
 21
82.6790315607
 31
0.0
 12
271.0947805259
 22
83.5790315607
 32
0.0
 13
271.0947805259
 23
83.5790315607
 33
0.0
  0
SOLID
  5
1E1
330
1DD
100
AcDbEntity
  8
VERMASSUNG
100
AcDbTrace
 10
278.5947805259
 20
83.1290315607
 30
0.0
 11
275.5947805259
 21
83.5790315607
 31
0.0
 12
275.5947805259
 22
82.6790315607
 32
0.0
 13
275.5947805259
 23
82.6790315607
 33
0.0
  0
LINE
  5
1E2
330
1DD
100
AcDbEntity
  8
VERMASSUNG
100
AcDbLine
 10
268.0947805259
 20
141.0858048828
 30
0.0
 11
268.0947805259
 21
82.1290315607
 31
0.0
  0
LINE
  5
1E3
330
1DD
100
AcDbEntity
  8
VERMASSUNG
100
AcDbLine
 10
278.5947805259
 20
92.0858048828
 30
0.0
 11
278.5947805259
 21
82.1290315607
 31
0.0
  0
LINE
  5
1E4
330
1DD
100
AcDbEntity
  8
VERMASSUNG
100
AcDbLine
 10
268.0947805259
 20
83.1290315607
 30
0.0
 11
278.5947805259
 21
83.1290315607
 31
0.0
  0
MTEXT
  5
1E5
330
1DD
100
AcDbEntity
  8
VERMASSUNG
100
AcDbMText
 10
271.2291216642
 20
85.7071669238
 30
0.0
 40
2.0
 41
0.0
 71
     1
 72
     1
  1
10.5
  7
SLDTEXTSTYLE0
 73
     1
 44
1.0
  0
ENDBLK
  5
1DF
330
1DD
100
AcDbEntity
  8
0
100
AcDbBlockEnd
  0
BLOCK
  5
1E8
330
1E7
100
AcDbEntity
  8
0
100
AcDbBlockBegin
  2
_D_5
 70
     0
 10
0.0
 20
0.0
 30
0.0
  3
_D_5
  1

  0
SOLID
  5
1EA
330
1E7
100
AcDbEntity
  8
VERMASSUNG
100
AcDbTrace
 10
252.5947805259
 20
83.1290315607
 30
0.0
 11
255.5947805259
 21
82.6790315607
 31
0.0
 12
255.5947805259
 22
83.5790315607
 32
0.0
 13
255.5947805259
 23
83.5790315607
 33
0.0
  0
SOLID
  5
1EB
330
1E7
100
AcDbEntity
  8
VERMASSUNG
100
AcDbTrace
 10
268.0947805259
 20
83.1290315607
 30
0.0
 11
265.0947805259
 21
83.5790315607
 31
0.0
 12
265.0947805259
 22
82.6790315607
 32
0.0
 13
265.0947805259
 23
82.6790315607
 33
0.0
  0
LINE
  5
1EC
330
1E7
100
AcDbEntity
  8
VERMASSUNG
100
AcDbLine
 10
252.5947805259
 20
141.0858048828
 30
0.0
 11
252.5947805259
 21
82.1290315607
 31
0.0
  0
LINE
  5
1ED
330
1E7
100
AcDbEntity
  8
VERMASSUNG
100
AcDbLine
 10
268.0947805259
 20
141.0858048828
 30
0.0
 11
268.0947805259
 21
82.1290315607
 31
0.0
  0
LINE
  5
1EE
330
1E7
100
AcDbEntity
  8
VERMASSUNG
100
AcDbLine
 10
252.5947805259
 20
83.1290315607
 30
0.0
 11
268.0947805259
 21
83.1290315607
 31
0.0
  0
MTEXT
  5
1EF
330
1E7
100
AcDbEntity
  8
VERMASSUNG
100
AcDbMText
 10
258.2443551496
 20
85.7071669238
 30
0.0
 40
2.0
 41
0.0
 71
     1
 72
     1
  1
15.5
  7
SLDTEXTSTYLE0
 73
     1
 44
1.0
  0
ENDBLK
  5
1E9
330
1E7
100
AcDbEntity
  8
0
100
AcDbBlockEnd
  0
BLOCK
  5
1F2
330
1F1
100
AcDbEntity
  8
0
100
AcDbBlockBegin
  2
_D_6
 70
     0
 10
0.0
 20
0.0
 30
0.0
  3
_D_6
  1

  0
SOLID
  5
1F4
330
1F1
100
AcDbEntity
  8
VERMASSUNG
100
AcDbTrace
 10
237.0947805259
 20
83.1290315607
 30
0.0
 11
240.0947805259
 21
82.6790315607
 31
0.0
 12
240.0947805259
 22
83.5790315607
 32
0.0
 13
240.0947805259
 23
83.5790315607
 33
0.0
  0
SOLID
  5
1F5
330
1F1
100
AcDbEntity
  8
VERMASSUNG
100
AcDbTrace
 10
252.5947805259
 20
83.1290315607
 30
0.0
 11
249.5947805259
 21
83.5790315607
 31
0.0
 12
249.5947805259
 22
82.6790315607
 32
0.0
 13
249.5947805259
 23
82.6790315607
 33
0.0
  0
LINE
  5
1F6
330
1F1
100
AcDbEntity
  8
VERMASSUNG
100
AcDbLine
 10
237.0947805259
 20
141.0858048828
 30
0.0
 11
237.0947805259
 21
82.1290315607
 31
0.0
  0
LINE
  5
1F7
330
1F1
100
AcDbEntity
  8
VERMASSUNG
100
AcDbLine
 10
252.5947805259
 20
141.0858048828
 30
0.0
 11
252.5947805259
 21
82.1290315607
 31
0.0
  0
LINE
  5
1F8
330
1F1
100
AcDbEntity
  8
VERMASSUNG
100
AcDbLine
 10
237.0947805259
 20
83.1290315607
 30
0.0
 11
252.5947805259
 21
83.1290315607
 31
0.0
  0
MTEXT
  5
1F9
330
1F1
100
AcDbEntity
  8
VERMASSUNG
100
AcDbMText
 10
242.479315472
 20
85.7071669238
 30
0.0
 40
2.0
 41
0.0
 71
     1
 72
     1
  1
15.5
  7
SLDTEXTSTYLE0
 73
     1
 44
1.0
  0
ENDBLK
  5
1F3
330
1F1
100
AcDbEntity
  8
0
100
AcDbBlockEnd
  0
BLOCK
  5
1FC
330
1FB
100
AcDbEntity
  8
0
100
AcDbBlockBegin
  2
_D_7
 70
     0
 10
0.0
 20
0.0
 30
0.0
  3
_D_7
  1

  0
SOLID
  5
1FE
330
1FB
100
AcDbEntity
  8
VERMASSUNG
100
AcDbTrace
 10
212.5947805259
 20
77.1290315607
 30
0.0
 11
215.5947805259
 21
76.6790315607
 31
0.0
 12
215.5947805259
 22
77.5790315607
 32
0.0
 13
215.5947805259
 23
77.5790315607
 33
0.0
  0
SOLID
  5
1FF
330
1FB
100
AcDbEntity
  8
VERMASSUNG
100
AcDbTrace
 10
278.5947805259
 20
77.1290315607
 30
0.0
 11
275.5947805259
 21
77.5790315607
 31
0.0
 12
275.5947805259
 22
76.6790315607
 32
0.0
 13
275.5947805259
 23
76.6790315607
 33
0.0
  0
LINE
  5
200
330
1FB
100
AcDbEntity
  8
VERMASSUNG
100
AcDbLine
 10
212.5947805259
 20
101.9858048828
 30
0.0
 11
212.5947805259
 21
76.1290315607
 31
0.0
  0
LINE
  5
201
330
1FB
100
AcDbEntity
  8
VERMASSUNG
100
AcDbLine
 10
278.5947805259
 20
92.0858048828
 30
0.0
 11
278.5947805259
 21
76.1290315607
 31
0.0
  0
LINE
  5
202
330
1FB
100
AcDbEntity
  8
VERMASSUNG
100
AcDbLine
 10
212.5947805259
 20
77.1290315607
 30
0.0
 11
278.5947805259
 21
77.1290315607
 31
0.0
  0
MTEXT
  5
203
330
1FB
100
AcDbEntity
  8
VERMASSUNG
100
AcDbMText
 10
245.5176545245
 20
79.7071669238
 30
0.0
 40
2.0
 41
0.0
 71
     1
 72
     1
  1
66
  7
SLDTEXTSTYLE0
 73
     1
 44
1.0
  0
ENDBLK
  5
1FD
330
1FB
100
AcDbEntity
  8
0
100
AcDbBlockEnd
  0
BLOCK
  5
206
330
205
100
AcDbEntity
  8
0
100
AcDbBlockBegin
  2
_D_8
 70
     0
 10
0.0
 20
0.0
 30
0.0
  3
_D_8
  1

  0
SOLID
  5
208
330
205
100
AcDbEntity
  8
VERMASSUNG
100
AcDbTrace
 10
291.0571633158
 20
154.0858048828
 30
0.0
 11
290.6071633158
 21
151.0858048828
 31
0.0
 12
291.5071633158
 22
151.0858048828
 32
0.0
 13
291.5071633158
 23
151.0858048828
 33
0.0
  0
SOLID
  5
209
330
205
100
AcDbEntity
  8
VERMASSUNG
100
AcDbTrace
 10
291.0571633158
 20
91.0858048828
 30
0.0
 11
291.5071633158
 21
94.0858048828
 31
0.0
 12
290.6071633158
 22
94.0858048828
 32
0.0
 13
290.6071633158
 23
94.0858048828
 33
0.0
  0
LINE
  5
20A
330
205
100
AcDbEntity
  8
VERMASSUNG
100
AcDbLine
 10
277.5947805259
 20
154.0858048828
 30
0.0
 11
292.0571633158
 21
154.0858048828
 31
0.0
  0
LINE
  5
20B
330
205
100
AcDbEntity
  8
VERMASSUNG
100
AcDbLine
 10
277.5947805259
 20
91.0858048828
 30
0.0
 11
292.0571633158
 21
91.0858048828
 31
0.0
  0
LINE
  5
20C
330
205
100
AcDbEntity
  8
VERMASSUNG
100
AcDbLine
 10
291.0571633158
 20
154.0858048828
 30
0.0
 11
291.0571633158
 21
91.0858048828
 31
0.0
  0
MTEXT
  5
20D
330
205
100
AcDbEntity
  8
VERMASSUNG
100
AcDbMText
 10
288.4790278363
 20
119.1098073604
 30
0.0
 40
2.0
 41
0.0
 71
     1
 72
     1
  1
%%c
  7
SLDTEXTSTYLE0
 11
-7.044195017643634E-15
 21
1.0
 31
0.0
 73
     1
 44
1.0
  0
MTEXT
  5
20E
330
205
100
AcDbEntity
  8
VERMASSUNG
100
AcDbMText
 10
288.4790279527
 20
122.7175724213
 30
0.0
 40
2.0
 41
0.0
 71
     1
 72
     1
  1
63
  7
SLDTEXTSTYLE0
 11
-7.044195017643634E-15
 21
1.0
 31
0.0
 73
     1
 44
1.0
  0
ENDBLK
  5
207
330
205
100
AcDbEntity
  8
0
100
AcDbBlockEnd
  0
BLOCK
  5
211
330
210
100
AcDbEntity
  8
0
100
AcDbBlockBegin
  2
_D_9
 70
     0
 10
0.0
 20
0.0
 30
0.0
  3
_D_9
  1

  0
SOLID
  5
213
330
210
100
AcDbEntity
  8
VERMASSUNG
100
AcDbTrace
 10
285.0571633158
 20
142.5858048828
 30
0.0
 11
284.6071633158
 21
139.5858048828
 31
0.0
 12
285.5071633158
 22
139.5858048828
 32
0.0
 13
285.5071633158
 23
139.5858048828
 33
0.0
  0
SOLID
  5
214
330
210
100
AcDbEntity
  8
VERMASSUNG
100
AcDbTrace
 10
285.0571633158
 20
102.5858048828
 30
0.0
 11
285.5071633158
 21
105.5858048828
 31
0.0
 12
284.6071633158
 22
105.5858048828
 32
0.0
 13
284.6071633158
 23
105.5858048828
 33
0.0
  0
LINE
  5
215
330
210
100
AcDbEntity
  8
VERMASSUNG
100
AcDbLine
 10
278.0947805259
 20
142.5858048828
 30
0.0
 11
286.0571633158
 21
142.5858048828
 31
0.0
  0
LINE
  5
216
330
210
100
AcDbEntity
  8
VERMASSUNG
100
AcDbLine
 10
278.0947805259
 20
102.5858048828
 30
0.0
 11
286.0571633158
 21
102.5858048828
 31
0.0
  0
LINE
  5
217
330
210
100
AcDbEntity
  8
VERMASSUNG
100
AcDbLine
 10
285.0571633158
 20
142.5858048828
 30
0.0
 11
285.0571633158
 21
102.5858048828
 31
0.0
  0
MTEXT
  5
218
330
210
100
AcDbEntity
  8
VERMASSUNG
100
AcDbMText
 10
282.4790278363
 20
118.7079368274
 30
0.0
 40
2.0
 41
0.0
 71
     1
 72
     1
  1
%%c
  7
SLDTEXTSTYLE0
 11
-7.044195017643634E-15
 21
1.0
 31
0.0
 73
     1
 44
1.0
  0
MTEXT
  5
219
330
210
100
AcDbEntity
  8
VERMASSUNG
100
AcDbMText
 10
282.4790279527
 20
122.3157018883
 30
0.0
 40
2.0
 41
0.0
 71
     1
 72
     1
  1
40
  7
SLDTEXTSTYLE0
 11
-7.044195017643634E-15
 21
1.0
 31
0.0
 73
     1
 44
1.0
  0
ENDBLK
  5
212
330
210
100
AcDbEntity
  8
0
100
AcDbBlockEnd
  0
BLOCK
  5
365
330
364
100
AcDbEntity
  8
0
100
AcDbBlockBegin
  2
SW_CENTERMARKSYMBOL_0
 70
     0
 10
0.0
 20
0.0
 30
0.0
  3
SW_CENTERMARKSYMBOL_0
  1

  0
LINE
  5
367
330
364
100
AcDbEntity
  8
VERMASSUNG
 62
     0
100
AcDbLine
 10
0.0
 20
0.0
 30
0.0
 11
0.0
 21
2.5
 31
0.0
  0
LINE
  5
368
330
364
100
AcDbEntity
  8
VERMASSUNG
 62
     0
100
AcDbLine
 10
0.0
 20
0.0
 30
0.0
 11
-2.5
 21
0.0
 31
0.0
  0
LINE
  5
369
330
364
100
AcDbEntity
  8
VERMASSUNG
 62
     0
100
AcDbLine
 10
0.0
 20
0.0
 30
0.0
 11
0.0
 21
-2.5
 31
0.0
  0
LINE
  5
36A
330
364
100
AcDbEntity
  8
VERMASSUNG
 62
     0
100
AcDbLine
 10
0.0
 20
0.0
 30
0.0
 11
2.5
 21
0.0
 31
0.0
  0
LINE
  5
36B
330
364
100
AcDbEntity
  8
VERMASSUNG
 62
     0
100
AcDbLine
 10
0.0
 20
5.0
 30
0.0
 11
0.0
 21
56.1643462011
 31
0.0
  0
LINE
  5
36C
330
364
100
AcDbEntity
  8
VERMASSUNG
 62
     0
100
AcDbLine
 10
-5.0
 20
0.0
 30
0.0
 11
-54.4296714579
 21
0.0
 31
0.0
  0
LINE
  5
36D
330
364
100
AcDbEntity
  8
VERMASSUNG
 62
     0
100
AcDbLine
 10
0.0
 20
-5.0
 30
0.0
 11
0.0
 21
-53.9391034909
 31
0.0
  0
LINE
  5
36E
330
364
100
AcDbEntity
  8
VERMASSUNG
 62
     0
100
AcDbLine
 10
5.0
 20
0.0
 30
0.0
 11
52.7589067479
 21
0.0
 31
0.0
  0
ENDBLK
  5
366
330
364
100
AcDbEntity
  8
0
100
AcDbBlockEnd
  0
ENDSEC
  0
SECTION
  2
ENTITIES
  0
MTEXT
  5
49
330
1F
100
AcDbEntity
  8
KOPF_DÜNN
100
AcDbMText
 10
13.8892156294
 20
23.8442973028
 30
0.0
 40
3.0
 41
0.0
 71
     1
 72
     1
  1
HA0.B40.K01.100
  7
SLDTEXTSTYLE0
 73
     1
 44
1.0
  0
MTEXT
  5
4A
330
1F
100
AcDbEntity
  8
VERMASSUNG
100
AcDbMText
 10
13.9329988022
 20
28.8834360957
 30
0.0
 40
3.0
 41
0.0
 71
     1
 72
     1
  1
Bohrstangenhalter_Boring bar holder
  7
SLDTEXTSTYLE0
 73
     1
 44
1.0
  0
MTEXT
  5
4B
330
1F
100
AcDbEntity
  8
VERMASSUNG
100
AcDbMText
 10
98.8601118557
 20
13.8365368179
 30
0.0
 40
2.0
 41
0.0
 71
     1
 72
     1
  1
Datum: 31.10.2006
  7
SLDTEXTSTYLE0
 73
     1
 44
1.0
  0
MTEXT
  5
4D
330
1F
100
AcDbEntity
  8
VERMASSUNG
100
AcDbMText
 10
13.933048693
 20
18.0482802738
 30
0.0
 40
2.0
 41
0.0
 71
     1
 72
     1
  1
DIN 69893 HSK 100 T  / ø40
  7
SLDTEXTSTYLE1
 73
     1
 44
1.0
  0
MTEXT
  5
4E
330
1F
100
AcDbEntity
  8
VERMASSUNG
100
AcDbMText
 10
13.9808475933
 20
13.9090973692
 30
0.0
 40
2.0
 41
0.0
 71
     1
 72
     1
  1
Gewicht: 3081g
  7
SLDTEXTSTYLE0
 73
     1
 44
1.0
  0
LINE
  5
4F
330
1F
100
AcDbEntity
  8
0
  6
Continuous
 62
     7
370
    15
100
AcDbLine
 10
179.0947805497
 20
72.5858041378
 30
0.0
 11
183.5447804991
 21
72.5858041378
 31
0.0
  0
LINE
  5
50
330
1F
100
AcDbEntity
  8
0
  6
Continuous
 62
     7
370
    15
100
AcDbLine
 10
183.5788534012
 20
172.5858056279
 30
0.0
 11
179.0947805497
 21
172.5858056279
 31
0.0
  0
ARC
  5
51
330
1F
100
AcDbEntity
  8
0
  6
Continuous
 62
     7
370
    15
100
AcDbCircle
 10
179.0947805259
 20
73.0858048828
 30
0.0
 40
0.5
100
AcDbArc
 50
180.0
 51
270.0
  0
ARC
  5
52
330
1F
100
AcDbEntity
  8
0
  6
Continuous
 62
     7
370
    15
100
AcDbCircle
 10
179.0947805259
 20
172.0858048828
 30
0.0
 40
0.5
100
AcDbArc
 50
90.0
 51
180.0
  0
ARC
  5
53
330
1F
100
AcDbEntity
  8
0
  6
Continuous
 62
     7
370
    15
100
AcDbCircle
 10
177.6978436075
 20
83.9573195584
 30
0.0
 40
0.9962338214386983
100
AcDbArc
 50
25.7988228126
 51
90.0
  0
ARC
  5
54
330
1F
100
AcDbEntity
  8
0
  6
Continuous
 62
     7
370
    15
100
AcDbCircle
 10
177.6978436075
 20
161.2142902073
 30
0.0
 40
0.9962338214386921
100
AcDbArc
 50
270.0
 51
334.2011771874
  0
LINE
  5
55
330
1F
100
AcDbEntity
  8
0
  6
Continuous
 62
     7
370
    15
100
AcDbLine
 10
157.1141010139
 20
159.5171221824
 30
0.0
 11
138.7947810803
 21
158.5993186863
 31
0.0
  0
LINE
  5
56
330
1F
100
AcDbEntity
  8
0
  6
Continuous
 62
     7
370
    15
100
AcDbLine
 10
176.0947805818
 20
160.4680546852
 30
0.0
 11
170.026741362
 21
160.1640449198
 31
0.0
  0
LINE
  5
57
330
1F
100
AcDbEntity
  8
0
  6
Continuous
 62
     7
370
    15
100
AcDbLine
 10
170.0268642966
 20
85.0075573953
 30
0.0
 11
176.0947805818
 21
84.7035550805
 31
0.0
  0
LINE
  5
58
330
1F
100
AcDbEntity
  8
0
  6
Continuous
 62
     7
370
    15
100
AcDbLine
 10
143.7947800372
 20
86.3217913838
 30
0.0
 11
157.1147324506
 21
85.6544577809
 31
0.0
  0
LINE
  5
59
330
1F
100
AcDbEntity
  8
0
  6
Continuous
 62
     7
370
    15
100
AcDbLine
 10
176.0947805818
 20
84.7035550805
 30
0.0
 11
176.900626648
 21
84.9194803568
 31
0.0
  0
LINE
  5
5A
330
1F
100
AcDbEntity
  8
0
  6
Continuous
 62
     7
370
    15
100
AcDbLine
 10
176.900626648
 20
160.2521294089
 30
0.0
 11
176.0947805818
 21
160.4680546852
 31
0.0
  0
ARC
  5
5B
330
1F
100
AcDbEntity
  8
0
  6
Continuous
 62
     7
370
    15
100
AcDbCircle
 10
177.1594457254
 20
83.9535533798
 30
0.0
 40
1.0
100
AcDbArc
 50
90.0
 51
105.0
  0
ARC
  5
5C
330
1F
100
AcDbEntity
  8
0
  6
Continuous
 62
     7
370
    15
100
AcDbCircle
 10
177.1594457254
 20
161.2180563858
 30
0.0
 40
1.0
100
AcDbArc
 50
255.0
 51
270.0
  0
LINE
  5
5D
330
1F
100
AcDbEntity
  8
0
  6
Continuous
 62
     7
370
    15
100
AcDbLine
 10
177.1594457317
 20
84.9535518618
 30
0.0
 11
177.6978436031
 21
84.9535518618
 31
0.0
  0
LINE
  5
5E
330
1F
100
AcDbEntity
  8
0
  6
Continuous
 62
     7
370
    15
100
AcDbLine
 10
177.6978436031
 20
160.2180579038
 30
0.0
 11
177.1594457317
 21
160.2180579038
 31
0.0
  0
ARC
  5
5F
330
1F
100
AcDbEntity
  8
0
  6
Continuous
 62
     7
370
    15
100
AcDbCircle
 10
212.5447805259
 20
86.0858048828
 30
0.0
 40
5.0
100
AcDbArc
 50
90.0
 51
180.0
  0
ARC
  5
60
330
1F
100
AcDbEntity
  8
0
  6
Continuous
 62
     7
370
    15
100
AcDbCircle
 10
212.5447805259
 20
159.0858048828
 30
0.0
 40
5.0
100
AcDbArc
 50
180.0
 51
270.0
  0
ARC
  5
61
330
1F
100
AcDbEntity
  8
0
  6
Continuous
 62
     7
370
    15
100
AcDbCircle
 10
277.5947805259
 20
153.0858048828
 30
0.0
 40
1.0
100
AcDbArc
 50
0.0
 51
90.0
  0
ARC
  5
62
330
1F
100
AcDbEntity
  8
0
  6
Continuous
 62
     7
370
    15
100
AcDbCircle
 10
277.5947805259
 20
92.0858048828
 30
0.0
 40
1.0
100
AcDbArc
 50
270.0
 51
0.0
  0
LINE
  5
63
330
1F
100
AcDbEntity
  8
0
  6
Continuous
 62
     7
370
    15
100
AcDbLine
 10
232.5987158332
 20
154.0858053895
 30
0.0
 11
212.5447815273
 21
154.0858053895
 31
0.0
  0
LINE
  5
64
330
1F
100
AcDbEntity
  8
0
  6
Continuous
 62
     7
370
    15
100
AcDbLine
 10
248.0987137172
 20
154.0858053895
 30
0.0
 11
241.5384626005
 21
154.0858053895
 31
0.0
  0
LINE
  5
65
330
1F
100
AcDbEntity
  8
0
  6
Continuous
 62
     7
370
    15
100
AcDbLine
 10
263.5987153266
 20
154.0858053895
 30
0.0
 11
257.0384567592
 21
154.0858053895
 31
0.0
  0
LINE
  5
66
330
1F
100
AcDbEntity
  8
0
  6
Continuous
 62
     7
370
    15
100
AcDbLine
 10
277.5947799895
 20
154.0858053895
 30
0.0
 11
272.5384583686
 21
154.0858053895
 31
0.0
  0
LINE
  5
67
330
1F
100
AcDbEntity
  8
0
  6
Continuous
 62
     7
370
    15
100
AcDbLine
 10
212.5447815273
 20
91.0858043762
 30
0.0
 11
277.5947799895
 21
91.0858043762
 31
0.0
  0
LINE
  5
68
330
1F
100
AcDbEntity
  8
0
  6
Continuous
 62
     7
370
    15
100
AcDbLine
 10
130.3447796021
 20
90.3908030422
 30
0.0
 11
141.8947814021
 21
90.3908030422
 31
0.0
  0
ARC
  5
69
330
1F
100
AcDbEntity
  8
0
  6
Continuous
 62
     7
370
    15
100
AcDbCircle
 10
141.8947805259
 20
88.4908048828
 30
0.0
 40
1.900000000000031
100
AcDbArc
 50
32.8598554769
 51
90.0
  0
ARC
  5
6A
330
1F
100
AcDbEntity
  8
0
  6
Continuous
 62
     7
370
    15
100
AcDbCircle
 10
136.8947805259
 20
156.7358048828
 30
0.0
 40
1.900000000000034
100
AcDbArc
 50
270.0
 51
310.9212832533
  0
LINE
  5
6B
330
1F
100
AcDbEntity
  8
0
  6
Continuous
 62
     7
370
    15
100
AcDbLine
 10
130.3447796021
 20
154.8358031841
 30
0.0
 11
128.7454640482
 21
153.2364894928
 31
0.0
  0
LINE
  5
6C
330
1F
100
AcDbEntity
  8
0
  6
Continuous
 62
     7
370
    15
100
AcDbLine
 10
128.7174796674
 20
92.0181048395
 30
0.0
 11
130.3447796021
 21
90.3908030422
 31
0.0
  0
LINE
  5
6D
330
1F
100
AcDbEntity
  8
0
  6
Continuous
 62
     7
370
    15
100
AcDbLine
 10
136.8947787199
 20
154.8358031841
 30
0.0
 11
130.3447796021
 21
154.8358031841
 31
0.0
  0
LINE
  5
6E
330
1F
100
AcDbEntity
  8
0
  6
Continuous
 62
     7
370
    15
100
AcDbLine
 10
248.3947774384
 20
154.0858053895
 30
0.0
 11
256.7947780702
 21
154.0858053895
 31
0.0
  0
LINE
  5
6F
330
1F
100
AcDbEntity
  8
0
  6
Continuous
 62
     7
370
    15
100
AcDbLine
 10
267.6782509301
 20
154.0858053895
 30
0.0
 11
272.2947796796
 21
154.0858053895
 31
0.0
  0
LINE
  5
70
330
1F
100
AcDbEntity
  8
0
  6
Continuous
 62
     7
370
    15
100
AcDbLine
 10
263.8947790477
 20
154.0858053895
 30
0.0
 11
267.6782509301
 21
154.0858053895
 31
0.0
  0
CIRCLE
  5
71
330
1F
100
AcDbEntity
  8
0
  6
Continuous
 62
     7
370
    15
100
AcDbCircle
 10
268.0947805259
 20
122.5858048828
 30
0.0
 40
4.200000000000005
  0
LINE
  5
72
330
1F
100
AcDbEntity
  8
0
  6
Continuous
 62
     7
370
    15
100
AcDbLine
 10
270.4468717787
 20
124.2594221666
 30
0.0
 11
267.8214287374
 21
125.4595853215
 31
0.0
  0
LINE
  5
73
330
1F
100
AcDbEntity
  8
0
  6
Continuous
 62
     7
370
    15
100
AcDbLine
 10
265.4693400476
 20
123.7859679213
 30
0.0
 11
267.8214287374
 21
125.4595853215
 31
0.0
  0
LINE
  5
74
330
1F
100
AcDbEntity
  8
0
  6
Continuous
 62
     7
370
    15
100
AcDbLine
 10
265.7426869486
 20
120.912187599
 30
0.0
 11
265.4693400476
 21
123.7859679213
 31
0.0
  0
LINE
  5
75
330
1F
100
AcDbEntity
  8
0
  6
Continuous
 62
     7
370
    15
100
AcDbLine
 10
265.7426869486
 20
120.912187599
 30
0.0
 11
268.3681299899
 21
119.7120244441
 31
0.0
  0
LINE
  5
76
330
1F
100
AcDbEntity
  8
0
  6
Continuous
 62
     7
370
    15
100
AcDbLine
 10
270.7202186797
 20
121.3856418444
 30
0.0
 11
268.3681299899
 21
119.7120244441
 31
0.0
  0
LINE
  5
77
330
1F
100
AcDbEntity
  8
0
  6
Continuous
 62
     7
370
    15
100
AcDbLine
 10
270.7202186797
 20
121.3856418444
 30
0.0
 11
270.4468717787
 21
124.2594221666
 31
0.0
  0
CIRCLE
  5
78
330
1F
100
AcDbEntity
  8
0
  6
Continuous
 62
     7
370
    15
100
AcDbCircle
 10
237.0947805259
 20
122.5858048828
 30
0.0
 40
4.199999999999998
  0
LINE
  5
79
330
1F
100
AcDbEntity
  8
0
  6
Continuous
 62
     7
370
    15
100
AcDbLine
 10
238.6833330605
 20
124.9961647963
 30
0.0
 11
235.8016235743
 21
125.166711613
 31
0.0
  0
LINE
  5
7A
330
1F
100
AcDbEntity
  8
0
  6
Continuous
 62
     7
370
    15
100
AcDbLine
 10
234.213070384
 20
122.7563517286
 30
0.0
 11
235.8016235743
 21
125.166711613
 31
0.0
  0
LINE
  5
7B
330
1F
100
AcDbEntity
  8
0
  6
Continuous
 62
     7
370
    15
100
AcDbLine
 10
235.5062266801
 20
120.1754449693
 30
0.0
 11
234.213070384
 21
122.7563517286
 31
0.0
  0
LINE
  5
7C
330
1F
100
AcDbEntity
  8
0
  6
Continuous
 62
     7
370
    15
100
AcDbLine
 10
235.5062266801
 20
120.1754449693
 30
0.0
 11
238.3879361663
 21
120.0048981527
 31
0.0
  0
LINE
  5
7D
330
1F
100
AcDbEntity
  8
0
  6
Continuous
 62
     7
370
    15
100
AcDbLine
 10
239.9764893565
 20
122.4152580371
 30
0.0
 11
238.3879361663
 21
120.0048981527
 31
0.0
  0
LINE
  5
7E
330
1F
100
AcDbEntity
  8
0
  6
Continuous
 62
     7
370
    15
100
AcDbLine
 10
239.9764893565
 20
122.4152580371
 30
0.0
 11
238.6833330605
 21
124.9961647963
 31
0.0
  0
CIRCLE
  5
7F
330
1F
100
AcDbEntity
  8
0
  6
Continuous
 62
     7
370
    15
100
AcDbCircle
 10
252.5947805259
 20
122.5858048828
 30
0.0
 40
4.200000000000045
  0
LINE
  5
80
330
1F
100
AcDbEntity
  8
0
  6
Continuous
 62
     7
370
    15
100
AcDbLine
 10
252.305102906
 20
125.4579853093
 30
0.0
 11
249.9625584099
 21
123.771026364
 31
0.0
  0
LINE
  5
81
330
1F
100
AcDbEntity
  8
0
  6
Continuous
 62
     7
370
    15
100
AcDbLine
 10
250.2522369836
 20
120.8988460539
 30
0.0
 11
249.9625584099
 21
123.771026364
 31
0.0
  0
LINE
  5
82
330
1F
100
AcDbEntity
  8
0
  6
Continuous
 62
     7
370
    15
100
AcDbLine
 10
252.8844600532
 20
119.7136244563
 30
0.0
 11
250.2522369836
 21
120.8988460539
 31
0.0
  0
LINE
  5
83
330
1F
100
AcDbEntity
  8
0
  6
Continuous
 62
     7
370
    15
100
AcDbLine
 10
252.8844600532
 20
119.7136244563
 30
0.0
 11
255.2269970987
 21
121.4005834017
 31
0.0
  0
LINE
  5
84
330
1F
100
AcDbEntity
  8
0
  6
Continuous
 62
     7
370
    15
100
AcDbLine
 10
254.9373259757
 20
124.2727637118
 30
0.0
 11
255.2269970987
 21
121.4005834017
 31
0.0
  0
LINE
  5
85
330
1F
100
AcDbEntity
  8
0
  6
Continuous
 62
     7
370
    15
100
AcDbLine
 10
254.9373259757
 20
124.2727637118
 30
0.0
 11
252.305102906
 21
125.4579853093
 31
0.0
  0
LINE
  5
86
330
1F
100
AcDbEntity
  8
0
  6
Continuous
 62
     7
370
    15
100
AcDbLine
 10
232.8947795544
 20
154.0858053895
 30
0.0
 11
241.2947839115
 21
154.0858053895
 31
0.0
  0
LINE
  5
87
330
1F
100
AcDbEntity
  8
0
  6
Continuous
 62
     7
370
    15
100
AcDbLine
 10
183.5447804991
 20
153.9358065756
 30
0.0
 11
195.3327519808
 21
153.9358065756
 31
0.0
  0
LINE
  5
88
330
1F
100
AcDbEntity
  8
0
  6
Continuous
 62
     7
370
    15
100
AcDbLine
 10
195.3327519808
 20
73.8108099731
 30
0.0
 11
195.3327519808
 21
153.9358065756
 31
0.0
  0
LINE
  5
89
330
1F
100
AcDbEntity
  8
0
  6
Continuous
 62
     7
370
    15
100
AcDbLine
 10
195.3327519808
 20
73.8108099731
 30
0.0
 11
193.5447802756
 21
73.8108099731
 31
0.0
  0
SPLINE
  5
8A
330
1F
100
AcDbEntity
  8
0
  6
Continuous
 62
     7
370
    15
100
AcDbSpline
210
0.0
220
0.0
230
1.0
 70
     8
 71
     3
 72
    30
 73
    26
 74
     0
 42
0.00000001
 43
0.00000001
 12
1.0
 22
0.0
 32
0.0
 13
1.0
 23
0.0
 33
0.0
 40
0.0
 40
0.0
 40
0.0
 40
0.0
 40
0.1250000000000002
 40
0.1250000000000002
 40
0.1875000000000003
 40
0.1875000000000003
 40
0.2500000000000004
 40
0.2500000000000004
 40
0.3750000000000001
 40
0.3750000000000001
 40
0.4374999999999998
 40
0.4374999999999998
 40
0.4999999999999996
 40
0.4999999999999996
 40
0.6249999999999996
 40
0.6249999999999996
 40
0.6874999999999997
 40
0.6874999999999997
 40
0.7499999999999997
 40
0.7499999999999997
 40
0.8124999999999998
 40
0.8124999999999998
 40
0.8749999999999999
 40
0.8749999999999999
 40
1.0
 40
1.0
 40
1.0
 40
1.0
 10
193.5447805259375
 20
73.81081128979639
 30
0.0
 10
192.8820358320925
 20
73.81081128979639
 30
0.0
 10
192.2307799729768
 20
73.79597121320758
 30
0.0
 10
191.2703294347185
 20
73.75360164897796
 30
0.0
 10
190.9529379914855
 20
73.73612354619878
 30
0.0
 10
190.3237744899307
 20
73.69479525964648
 30
0.0
 10
190.011626303489
 20
73.67086998618876
 30
0.0
 10
189.1043190016407
 20
73.59206346972186
 30
0.0
 10
188.5308940439994
 20
73.5297574497454
 30
0.0
 10
187.7170171744248
 20
73.42662812950604
 30
0.0
 10
187.4522109778549
 20
73.39044421045953
 30
0.0
 10
186.9453035670406
 20
73.31664942625902
 30
0.0
 10
186.7039094156871
 20
73.27917556748739
 30
0.0
 10
186.0147679435548
 20
73.16646362414764
 30
0.0
 10
185.6017131286905
 20
73.09092752667387
 30
0.0
 10
185.0535583093155
 20
72.98253426965637
 30
0.0
 10
184.8840957019699
 20
72.9474620379931
 30
0.0
 10
184.5760784539545
 20
72.88122657739326
 30
0.0
 10
184.4366984333462
 20
72.84989988063853
 30
0.0
 10
184.1869129207194
 20
72.79149110905762
 30
0.0
 10
184.0765068080655
 20
72.76440787387476
 30
0.0
 10
183.8852489544278
 20
72.71514811926116
 30
0.0
 10
183.8041294361435
 20
72.69288613945352
 30
0.0
 10
183.609982516035
 20
72.63531923228525
 30
0.0
 10
183.5447805259375
 20
72.60905962749925
 30
0.0
 10
183.5447805259375
 20
72.59580588302522
 30
0.0
  0
LINE
  5
8B
330
1F
100
AcDbEntity
  8
0
  6
Continuous
 62
     7
370
    15
100
AcDbLine
 10
183.5447804991
 20
72.5958065422
 30
0.0
 11
183.5447804991
 21
72.5858041378
 31
0.0
  0
SPLINE
  5
8C
330
1F
100
AcDbEntity
  8
0
  6
Continuous
 62
     7
370
    15
100
AcDbSpline
210
0.0
220
0.0
230
1.0
 70
     8
 71
     3
 72
    17
 73
    13
 74
     0
 42
0.00000001
 43
0.00000001
 12
1.0
 22
0.0
 32
0.0
 13
1.0
 23
0.0
 33
0.0
 40
0.0
 40
0.0
 40
0.0
 40
0.0
 40
0.1043843958185158
 40
0.2118345569819801
 40
0.3162081801235555
 40
0.4235375330682647
 40
0.5292275935501746
 40
0.6379275752951962
 40
0.7444714855043735
 40
0.8541836194561564
 40
0.959308052615968
 40
1.0
 40
1.0
 40
1.0
 40
1.0
 10
193.544780275598
 20
171.5756000311978
 30
0.0
 10
192.9968417350844
 20
171.5809674715306
 30
0.0
 10
191.8848717220101
 20
171.5918599936946
 30
0.0
 10
190.2720163894876
 20
171.6770421775126
 30
0.0
 10
188.7385032387498
 20
171.8034126808441
 30
0.0
 10
187.3474823503756
 20
171.960316552353
 30
0.0
 10
186.1119652340775
 20
172.1320119497886
 30
0.0
 10
185.0886100882211
 20
172.2973568039987
 30
0.0
 10
184.2882674153621
 20
172.4410611018307
 30
0.0
 10
183.7779358626021
 20
172.5392250977625
 30
0.0
 10
183.5380271041427
 20
172.5871464122353
 30
0.0
 10
183.5699460159121
 20
172.5807799042216
 30
0.0
 10
183.578853401169
 20
172.5790032477982
 30
0.0
  0
LINE
  5
8D
330
1F
100
AcDbEntity
  8
0
  6
Continuous
 62
     7
370
    15
100
AcDbLine
 10
195.3327519808
 20
171.5756000312
 30
0.0
 11
193.5447802756
 21
171.5756000312
 31
0.0
  0
LINE
  5
8E
330
1F
100
AcDbEntity
  8
0
  6
Continuous
 62
     7
370
    15
100
AcDbLine
 10
195.3327519808
 20
161.536765966
 30
0.0
 11
195.3327519808
 21
171.5756000312
 31
0.0
  0
LINE
  5
8F
330
1F
100
AcDbEntity
  8
0
  6
Continuous
 62
     7
370
    15
100
AcDbLine
 10
193.2527473185
 20
161.536765966
 30
0.0
 11
195.3327519808
 21
161.536765966
 31
0.0
  0
SPLINE
  5
90
330
1F
100
AcDbEntity
  8
0
  6
Continuous
 62
     7
370
    15
100
AcDbSpline
210
0.0
220
0.0
230
1.0
 70
     8
 71
     3
 72
    22
 73
    18
 74
     0
 42
0.00000001
 43
0.00000001
 12
1.0
 22
0.0
 32
0.0
 13
1.0
 23
0.0
 33
0.0
 40
0.0
 40
0.0
 40
0.0
 40
0.0
 40
0.2500000000000002
 40
0.2500000000000002
 40
0.3750000000000003
 40
0.3750000000000003
 40
0.5000000000000004
 40
0.5000000000000004
 40
0.6250000000000004
 40
0.6250000000000004
 40
0.7500000000000004
 40
0.7500000000000004
 40
0.8750000000000004
 40
0.8750000000000004
 40
0.9375000000000002
 40
0.9375000000000002
 40
1.0
 40
1.0
 40
1.0
 40
1.0
 10
183.5447805259375
 20
153.9358048828252
 30
0.0
 10
183.7475054818566
 20
154.9550512246898
 30
0.0
 10
184.062249203652
 20
155.9141593746291
 30
0.0
 10
184.770304673323
 20
157.2566384521384
 30
0.0
 10
185.0487673035406
 20
157.6908470348784
 30
0.0
 10
185.6875347101778
 20
158.5024747503805
 30
0.0
 10
186.047948389968
 20
158.8817550433173
 30
0.0
 10
186.8654806219573
 20
159.5847136223383
 30
0.0
 10
187.3266486052444
 20
159.9097424400389
 30
0.0
 10
188.3246388517282
 20
160.4747577634298
 30
0.0
 10
188.8643980457205
 20
160.7184613576364
 30
0.0
 10
190.0389910097518
 20
161.1226612852813
 30
0.0
 10
190.6507271957437
 20
161.2750984783268
 30
0.0
 10
191.6026364206054
 20
161.4304260259355
 30
0.0
 10
191.925869584866
 20
161.4699308059856
 30
0.0
 10
192.5849327561413
 20
161.5232399266543
 30
0.0
 10
192.9189967667153
 20
161.5367676437121
 30
0.0
 10
193.2527473741168
 20
161.5367676437121
 30
0.0
  0
LINE
  5
91
330
1F
100
AcDbEntity
  8
0
  6
Continuous
 62
     7
370
    15
100
AcDbLine
 10
201.8568100397
 20
73.8108099731
 30
0.0
 11
201.8568100397
 21
153.9358065756
 31
0.0
  0
SPLINE
  5
92
330
1F
100
AcDbEntity
  8
0
  6
Continuous
 62
     7
370
    15
100
AcDbSpline
210
0.0
220
0.0
230
1.0
 70
     8
 71
     3
 72
     8
 73
     4
 74
     0
 42
0.00000001
 43
0.00000001
 12
1.0
 22
0.0
 32
0.0
 13
1.0
 23
0.0
 33
0.0
 40
0.0
 40
0.0
 40
0.0
 40
0.0
 40
1.0
 40
1.0
 40
1.0
 40
1.0
 10
201.8568095468589
 20
73.81081128979639
 30
0.0
 10
201.4057048174587
 20
74.61177122161631
 30
0.0
 10
200.9550069902153
 20
75.41296123317694
 30
0.0
 10
200.5047805259375
 20
76.21441659580172
 30
0.0
  0
LINE
  5
93
330
1F
100
AcDbEntity
  8
0
  6
Continuous
 62
     7
370
    15
100
AcDbLine
 10
200.5047811184
 20
76.2144157024
 30
0.0
 11
200.5047811184
 21
153.9358065756
 31
0.0
  0
SPLINE
  5
94
330
1F
100
AcDbEntity
  8
0
  6
Continuous
 62
     7
370
    15
100
AcDbSpline
210
0.0
220
0.0
230
1.0
 70
    24
 71
     3
 72
     8
 73
     4
 74
     0
 42
0.00000001
 43
0.00000001
 12
1.0
 22
0.0
 32
0.0
 13
1.0
 23
0.0
 33
0.0
 40
0.0
 40
0.0
 40
0.0
 40
0.0
 40
1.0
 40
1.0
 40
1.0
 40
1.0
 10
200.5047805259375
 20
153.9358048828252
 30
0.0
 10
200.9489934082915
 20
153.9358048828252
 30
0.0
 10
201.4000079745307
 20
153.9358048828252
 30
0.0
 10
201.8568095468589
 20
153.9358048828252
 30
0.0
  0
LINE
  5
95
330
1F
100
AcDbEntity
  8
0
  6
Continuous
 62
     7
370
    15
100
AcDbLine
 10
207.5447807077
 20
74.8364606233
 30
0.0
 11
207.5447807077
 21
153.9358065756
 31
0.0
  0
SPLINE
  5
96
330
1F
100
AcDbEntity
  8
0
  6
Continuous
 62
     7
370
    15
100
AcDbSpline
210
0.0
220
0.0
230
1.0
 70
     8
 71
     3
 72
    14
 73
    10
 74
     0
 42
0.00000001
 43
0.00000001
 12
1.0
 22
0.0
 32
0.0
 13
1.0
 23
0.0
 33
0.0
 40
0.0
 40
0.0
 40
0.0
 40
0.0
 40
0.25
 40
0.25
 40
0.5
 40
0.5
 40
0.75
 40
0.75
 40
1.0
 40
1.0
 40
1.0
 40
1.0
 10
207.5447805259375
 20
74.83645933757188
 30
0.0
 10
207.5447805259375
 20
74.70303364151734
 30
0.0
 10
207.5194694260266
 20
74.571185833673
 30
0.0
 10
207.4211346621819
 20
74.32466328497888
 30
0.0
 10
207.3479906579258
 20
74.21085809673836
 30
0.0
 10
207.1645525968301
 20
74.02040091979107
 30
0.0
 10
207.0528662624916
 20
73.94276605594116
 30
0.0
 10
206.8103628321853
 20
73.83847464582868
 30
0.0
 10
206.6769884034911
 20
73.81081128979633
 30
0.0
 10
206.5447805259375
 20
73.81081128979635
 30
0.0
  0
SPLINE
  5
97
330
1F
100
AcDbEntity
  8
0
  6
Continuous
 62
     7
370
    15
100
AcDbSpline
210
0.0
220
0.0
230
1.0
 70
    24
 71
     3
 72
    12
 73
     8
 74
     0
 42
0.00000001
 43
0.00000001
 12
1.0
 22
0.0
 32
0.0
 13
1.0
 23
0.0
 33
0.0
 40
0.0
 40
0.0
 40
0.0
 40
0.0
 40
0.2500000000000032
 40
0.2500000000000032
 40
0.5000000000000064
 40
0.5000000000000064
 40
1.0
 40
1.0
 40
1.0
 40
1.0
 10
206.5447805259375
 20
153.9358048828252
 30
0.0
 10
206.6968707628825
 20
153.9358048828252
 30
0.0
 10
206.8453300239579
 20
153.9358048828252
 30
0.0
 10
207.1027336562236
 20
153.9358048828252
 30
0.0
 10
207.2118384040656
 20
153.9358048828252
 30
0.0
 10
207.4658978804731
 20
153.9358048828252
 30
0.0
 10
207.5447805259375
 20
153.9358048828252
 30
0.0
 10
207.5447805259375
 20
153.9358048828252
 30
0.0
  0
LINE
  5
98
330
1F
100
AcDbEntity
  8
0
  6
Continuous
 62
     7
370
    15
100
AcDbLine
 10
206.5447805438
 20
73.8108099731
 30
0.0
 11
201.8568100397
 21
73.8108099731
 31
0.0
  0
LINE
  5
99
330
1F
100
AcDbEntity
  8
0
  6
Continuous
 62
     7
370
    15
100
AcDbLine
 10
201.8568100397
 20
153.9358065756
 30
0.0
 11
206.5447805438
 21
153.9358065756
 31
0.0
  0
LINE
  5
9A
330
1F
100
AcDbEntity
  8
0
  6
Continuous
 62
     7
370
    15
100
AcDbLine
 10
196.684780902
 20
76.2144157024
 30
0.0
 11
196.684780902
 21
153.9358065756
 31
0.0
  0
SPLINE
  5
9B
330
1F
100
AcDbEntity
  8
0
  6
Continuous
 62
     7
370
    15
100
AcDbSpline
210
0.0
220
0.0
230
1.0
 70
     8
 71
     3
 72
     8
 73
     4
 74
     0
 42
0.00000001
 43
0.00000001
 12
1.0
 22
0.0
 32
0.0
 13
1.0
 23
0.0
 33
0.0
 40
0.0
 40
0.0
 40
0.0
 40
0.0
 40
1.0
 40
1.0
 40
1.0
 40
1.0
 10
196.6847805259375
 20
76.21441659580171
 30
0.0
 10
196.2345540616597
 20
75.41296123317694
 30
0.0
 10
195.7838562344164
 20
74.61177122161628
 30
0.0
 10
195.3327515050161
 20
73.81081128979638
 30
0.0
  0
SPLINE
  5
9C
330
1F
100
AcDbEntity
  8
0
  6
Continuous
 62
     7
370
    15
100
AcDbSpline
210
0.0
220
0.0
230
1.0
 70
    24
 71
     3
 72
     8
 73
     4
 74
     0
 42
0.00000001
 43
0.00000001
 12
1.0
 22
0.0
 32
0.0
 13
1.0
 23
0.0
 33
0.0
 40
0.0
 40
0.0
 40
0.0
 40
0.0
 40
1.0
 40
1.0
 40
1.0
 40
1.0
 10
195.3327515050161
 20
153.9358048828252
 30
0.0
 10
195.7895530773444
 20
153.9358048828252
 30
0.0
 10
196.2405676435836
 20
153.9358048828252
 30
0.0
 10
196.6847805259375
 20
153.9358048828252
 30
0.0
  0
LINE
  5
9D
330
1F
100
AcDbEntity
  8
0
  6
Continuous
 62
     7
370
    15
100
AcDbLine
 10
178.5947805259
 20
73.085805151
 30
0.0
 11
178.5947805259
 21
172.0858046146
 31
0.0
  0
SPLINE
  5
9E
330
1F
100
AcDbEntity
  8
0
  6
Continuous
 62
     7
370
    15
100
AcDbSpline
210
0.0
220
0.0
230
1.0
 70
     8
 71
     3
 72
    12
 73
     8
 74
     0
 42
0.00000001
 43
0.00000001
 12
1.0
 22
0.0
 32
0.0
 13
1.0
 23
0.0
 33
0.0
 40
0.0
 40
0.0
 40
0.0
 40
0.0
 40
0.25
 40
0.25
 40
0.5
 40
0.5
 40
1.0
 40
1.0
 40
1.0
 40
1.0
 10
197.4847805259375
 20
77.94612942477555
 30
0.0
 10
197.3790198725886
 20
77.94612942477552
 30
0.0
 10
197.2710322444057
 20
77.92358991877512
 30
0.0
 10
197.0764375791401
 20
77.83901928677983
 30
0.0
 10
196.9875656663012
 20
77.77653763402104
 30
0.0
 10
196.7683733739753
 20
77.54714868254888
 30
0.0
 10
196.6847805259375
 20
77.33456534502649
 30
0.0
 10
196.6847805259375
 20
77.1226261004303
 30
0.0
  0
SPLINE
  5
9F
330
1F
100
AcDbEntity
  8
0
  6
Continuous
 62
     7
370
    15
100
AcDbSpline
210
0.0
220
0.0
230
1.0
 70
    24
 71
     3
 72
    14
 73
    10
 74
     0
 42
0.00000001
 43
0.00000001
 12
1.0
 22
0.0
 32
0.0
 13
1.0
 23
0.0
 33
0.0
 40
0.0
 40
0.0
 40
0.0
 40
0.0
 40
0.25
 40
0.25
 40
0.5
 40
0.5
 40
0.75
 40
0.75
 40
1.0
 40
1.0
 40
1.0
 40
1.0
 10
196.6847805259375
 20
153.9358048828252
 30
0.0
 10
196.6847805259375
 20
153.9358048828252
 30
0.0
 10
196.7004948464034
 20
153.9358048828252
 30
0.0
 10
196.7641788248719
 20
153.9358048828252
 30
0.0
 10
196.8127820192823
 20
153.9358048828252
 30
0.0
 10
196.9454655417079
 20
153.9358048828252
 30
0.0
 10
197.0305676460185
 20
153.9358048828252
 30
0.0
 10
197.2370098809286
 20
153.9358048828252
 30
0.0
 10
197.3610908225516
 20
153.9358048828252
 30
0.0
 10
197.4847805259375
 20
153.9358048828252
 30
0.0
  0
SPLINE
  5
A0
330
1F
100
AcDbEntity
  8
0
  6
Continuous
 62
     7
370
    15
100
AcDbSpline
210
0.0
220
0.0
230
1.0
 70
     8
 71
     3
 72
    14
 73
    10
 74
     0
 42
0.00000001
 43
0.00000001
 12
1.0
 22
0.0
 32
0.0
 13
1.0
 23
0.0
 33
0.0
 40
0.0
 40
0.0
 40
0.0
 40
0.0
 40
0.25
 40
0.25
 40
0.5
 40
0.5
 40
0.75
 40
0.75
 40
1.0
 40
1.0
 40
1.0
 40
1.0
 10
200.5047805259375
 20
77.1226261004303
 30
0.0
 10
200.5047805259375
 20
77.22967018142468
 30
0.0
 10
200.4846628387794
 20
77.33490532166712
 30
0.0
 10
200.4061716495137
 20
77.53275580851482
 30
0.0
 10
200.3480150247125
 20
77.62380757207973
 30
0.0
 10
200.2014997690945
 20
77.77697366600451
 30
0.0
 10
200.1128572204534
 20
77.83926811221392
 30
0.0
 10
199.9171338976531
 20
77.92406189774992
 30
0.0
 10
199.8119027065821
 20
77.94612942477553
 30
0.0
 10
199.7047805259375
 20
77.94612942477555
 30
0.0
  0
SPLINE
  5
A1
330
1F
100
AcDbEntity
  8
0
  6
Continuous
 62
     7
370
    15
100
AcDbSpline
210
0.0
220
0.0
230
1.0
 70
    24
 71
     3
 72
    14
 73
    10
 74
     0
 42
0.00000001
 43
0.00000001
 12
1.0
 22
0.0
 32
0.0
 13
1.0
 23
0.0
 33
0.0
 40
0.0
 40
0.0
 40
0.0
 40
0.0
 40
0.25
 40
0.25
 40
0.5
 40
0.5
 40
0.75
 40
0.75
 40
1.0
 40
1.0
 40
1.0
 40
1.0
 10
199.7047805259375
 20
153.9358048828252
 30
0.0
 10
199.8285502907027
 20
153.9358048828252
 30
0.0
 10
199.9529173947095
 20
153.9358048828252
 30
0.0
 10
200.1592738634356
 20
153.9358048828252
 30
0.0
 10
200.244602006854
 20
153.9358048828252
 30
0.0
 10
200.3767940655692
 20
153.9358048828252
 30
0.0
 10
200.4254393093198
 20
153.9358048828252
 30
0.0
 10
200.4889751010485
 20
153.9358048828252
 30
0.0
 10
200.5047805259375
 20
153.9358048828252
 30
0.0
 10
200.5047805259375
 20
153.9358048828252
 30
0.0
  0
LINE
  5
A2
330
1F
100
AcDbEntity
  8
0
  6
Continuous
 62
     7
370
    15
100
AcDbLine
 10
199.7047806147
 20
77.9461280735
 30
0.0
 11
197.4847814057
 21
77.9461280735
 31
0.0
  0
LINE
  5
A3
330
1F
100
AcDbEntity
  8
0
  6
Continuous
 62
     7
370
    15
100
AcDbLine
 10
197.4847814057
 20
153.9358065756
 30
0.0
 11
199.7047806147
 21
153.9358065756
 31
0.0
  0
LINE
  5
A4
330
1F
100
AcDbEntity
  8
0
  6
Continuous
 62
     7
370
    15
100
AcDbLine
 10
143.7947800372
 20
86.3217913838
 30
0.0
 11
143.7947800372
 21
88.7400822075
 31
0.0
  0
SPLINE
  5
A5
330
1F
100
AcDbEntity
  8
0
  6
Continuous
 62
     7
370
    15
100
AcDbSpline
210
0.0
220
0.0
230
1.0
 70
     8
 71
     3
 72
    14
 73
    10
 74
     0
 42
0.00000001
 43
0.00000001
 12
1.0
 22
0.0
 32
0.0
 13
1.0
 23
0.0
 33
0.0
 40
0.0
 40
0.0
 40
0.0
 40
0.0
 40
0.2500000000000008
 40
0.2500000000000008
 40
0.5000000000000006
 40
0.5000000000000006
 40
0.7500000000000002
 40
0.7500000000000002
 40
1.0
 40
1.0
 40
1.0
 40
1.0
 10
142.9383077882179
 20
90.38839879224066
 30
0.0
 10
143.0068121344137
 20
90.2345526922134
 30
0.0
 10
143.1054026198227
 20
90.08642318500227
 30
0.0
 10
143.3035932127829
 20
89.79774078760683
 30
0.0
 10
143.4040415945579
 20
89.65730171409135
 30
0.0
 10
143.5793656416772
 20
89.38334110197052
 30
0.0
 10
143.654784068634
 20
89.24982190988956
 30
0.0
 10
143.7623206935649
 20
88.98952126993522
 30
0.0
 10
143.7947805259375
 20
88.8617847833734
 30
0.0
 10
143.7947805259375
 20
88.74008392860434
 30
0.0
  0
SPLINE
  5
A6
330
1F
100
AcDbEntity
  8
0
  6
Continuous
 62
     7
370
    15
100
AcDbSpline
210
0.0
220
0.0
230
1.0
 70
     8
 71
     3
 72
    20
 73
    16
 74
     0
 42
0.00000001
 43
0.00000001
 12
1.0
 22
0.0
 32
0.0
 13
1.0
 23
0.0
 33
0.0
 40
0.0
 40
0.0
 40
0.0
 40
0.0
 40
0.0625000000000001
 40
0.0625000000000001
 40
0.1250000000000002
 40
0.1250000000000002
 40
0.2500000000000004
 40
0.2500000000000004
 40
0.3750000000000006
 40
0.3750000000000006
 40
0.5000000000000008
 40
0.5000000000000008
 40
0.7500000000000003
 40
0.7500000000000003
 40
1.0
 40
1.0
 40
1.0
 40
1.0
 10
141.8947805259375
 20
91.26580144296165
 30
0.0
 10
141.939501761818
 20
91.27021014146192
 30
0.0
 10
141.9860454632045
 20
91.27007336966507
 30
0.0
 10
142.0774646713646
 20
91.26007904794561
 30
0.0
 10
142.1217545877221
 20
91.25030746835955
 30
0.0
 10
142.2430194991272
 20
91.21254486440857
 30
0.0
 10
142.3102041224035
 20
91.17679552821636
 30
0.0
 10
142.4251711885236
 20
91.10146787549975
 30
0.0
 10
142.4743755975427
 20
91.06063103354039
 30
0.0
 10
142.561276831337
 20
90.97855091642957
 30
0.0
 10
142.5993592512962
 20
90.93685591035201
 30
0.0
 10
142.7036984416592
 20
90.81091843571876
 30
0.0
 10
142.7602857367742
 20
90.72569965544697
 30
0.0
 10
142.8592390493911
 20
90.55602206530132
 30
0.0
 10
142.9011766682817
 20
90.4717873406913
 30
0.0
 10
142.9383077882179
 20
90.38839879224066
 30
0.0
  0
SPLINE
  5
A7
330
1F
100
AcDbEntity
  8
0
  6
Continuous
 62
     7
370
    15
100
AcDbSpline
210
0.0
220
0.0
230
1.0
 70
     8
 71
     3
 72
    10
 73
     6
 74
     0
 42
0.00000001
 43
0.00000001
 12
1.0
 22
0.0
 32
0.0
 13
1.0
 23
0.0
 33
0.0
 40
0.0
 40
0.0
 40
0.0
 40
0.0
 40
0.5
 40
0.5
 40
1.0
 40
1.0
 40
1.0
 40
1.0
 10
136.7568677293605
 20
90.68178798753323
 30
0.0
 10
137.5966130439689
 20
90.79463160851932
 30
0.0
 10
138.4472531103133
 20
90.89728085560671
 30
0.0
 10
140.1618638950317
 20
91.09010566938933
 30
0.0
 10
141.0259719217601
 20
91.1801527547078
 30
0.0
 10
141.8947805259375
 20
91.26580144296166
 30
0.0
  0
SPLINE
  5
A8
330
1F
100
AcDbEntity
  8
0
  6
Continuous
 62
     7
370
    15
100
AcDbSpline
210
0.0
220
0.0
230
1.0
 70
     8
 71
     3
 72
    14
 73
    10
 74
     0
 42
0.00000001
 43
0.00000001
 12
1.0
 22
0.0
 32
0.0
 13
1.0
 23
0.0
 33
0.0
 40
0.0
 40
0.0
 40
0.0
 40
0.0
 40
0.5000000000000014
 40
0.5000000000000014
 40
0.7500000000000006
 40
0.7500000000000006
 40
0.8750000000000003
 40
0.8750000000000003
 40
1.0
 40
1.0
 40
1.0
 40
1.0
 10
130.5947056419066
 20
90.40740503359046
 30
0.0
 10
131.6355121660166
 20
90.41969897383156
 30
0.0
 10
132.6733394109762
 20
90.43914481857362
 30
0.0
 10
134.219603321538
 20
90.49373975288219
 30
0.0
 10
134.7332880882105
 20
90.5161522336681
 30
0.0
 10
135.4984756852208
 20
90.56278203129317
 30
0.0
 10
135.7526380220979
 20
90.58051893318273
 30
0.0
 10
136.2578682483918
 20
90.62354543827489
 30
0.0
 10
136.5090770865751
 20
90.64849028060706
 30
0.0
 10
136.7568677293605
 20
90.68178798753316
 30
0.0
  0
SPLINE
  5
A9
330
1F
100
AcDbEntity
  8
0
  6
Continuous
 62
     7
370
    15
100
AcDbSpline
210
0.0
220
0.0
230
1.0
 70
     8
 71
     3
 72
    12
 73
     8
 74
     0
 42
0.00000001
 43
0.00000001
 12
1.0
 22
0.0
 32
0.0
 13
1.0
 23
0.0
 33
0.0
 40
0.0
 40
0.0
 40
0.0
 40
0.0
 40
0.2500000000000009
 40
0.2500000000000009
 40
0.5000000000000018
 40
0.5000000000000018
 40
1.0
 40
1.0
 40
1.0
 40
1.0
 10
136.8947805259375
 20
154.6723277743216
 30
0.0
 10
136.3760817041093
 20
154.7048505491698
 30
0.0
 10
135.8543701309044
 20
154.7281472903403
 30
0.0
 10
134.8080781144088
 20
154.7659928047624
 30
0.0
 10
134.2834064887385
 20
154.7802612792586
 30
0.0
 10
132.7065604661993
 20
154.8144707667169
 30
0.0
 10
131.6516051516524
 20
154.8259702706608
 30
0.0
 10
130.5947056419071
 20
154.8316370513903
 30
0.0
  0
SPLINE
  5
AA
330
1F
100
AcDbEntity
  8
0
  6
Continuous
 62
     7
370
    15
100
AcDbSpline
210
0.0
220
0.0
230
1.0
 70
     8
 71
     3
 72
    20
 73
    16
 74
     0
 42
0.00000001
 43
0.00000001
 12
1.0
 22
0.0
 32
0.0
 13
1.0
 23
0.0
 33
0.0
 40
0.0
 40
0.0
 40
0.0
 40
0.0
 40
0.2500000000000011
 40
0.2500000000000011
 40
0.5000000000000021
 40
0.5000000000000021
 40
0.7500000000000031
 40
0.7500000000000031
 40
0.8750000000000008
 40
0.8750000000000008
 40
0.9375000000000006
 40
0.9375000000000006
 40
0.9687500000000003
 40
0.9687500000000003
 40
1.0
 40
1.0
 40
1.0
 40
1.0
 10
138.7947805259375
 20
156.3304136198097
 30
0.0
 10
138.7947805259375
 20
156.194731300063
 30
0.0
 10
138.7460687367209
 20
156.0536443139229
 30
0.0
 10
138.5769073134957
 20
155.7615725951923
 30
0.0
 10
138.4551268995774
 20
155.609923853102
 30
0.0
 10
138.1575798048279
 20
155.3075154129488
 30
0.0
 10
137.9836671991251
 20
155.1549267768255
 30
0.0
 10
137.6642523652433
 20
154.9296560129832
 30
0.0
 10
137.549211589796
 20
154.8549329184725
 30
0.0
 10
137.3421272657796
 20
154.7555225092155
 30
0.0
 10
137.2660194309732
 20
154.7239574168709
 30
0.0
 10
137.1346248914199
 20
154.689514032678
 30
0.0
 10
137.0880716724184
 20
154.6804624609103
 30
0.0
 10
136.9917383213377
 20
154.6702868120719
 30
0.0
 10
136.9424788979823
 20
154.6693370533969
 30
0.0
 10
136.8947805259355
 20
154.6723277743114
 30
0.0
  0
LINE
  5
AB
330
1F
100
AcDbEntity
  8
0
  6
Continuous
 62
     7
370
    15
100
AcDbLine
 10
138.7947810803
 20
156.3304120036
 30
0.0
 11
138.7947810803
 21
158.5993186863
 31
0.0
  0
LINE
  5
AC
330
1F
100
AcDbEntity
  8
0
  6
Continuous
 62
     7
370
    15
100
AcDbLine
 10
176.0947805818
 20
84.7035550805
 30
0.0
 11
176.0947805818
 21
160.4680546852
 31
0.0
  0
SPLINE
  5
AD
330
1F
100
AcDbEntity
  8
0
  6
Continuous
 62
     7
370
    15
100
AcDbSpline
210
0.0
220
0.0
230
1.0
 70
     8
 71
     3
 72
    24
 73
    20
 74
     0
 42
0.00000001
 43
0.00000001
 12
1.0
 22
0.0
 32
0.0
 13
1.0
 23
0.0
 33
0.0
 40
0.0
 40
0.0
 40
0.0
 40
0.0
 40
0.0002934239329635
 40
0.0628079954843725
 40
0.1260453886222317
 40
0.1890746649056576
 40
0.2513200327496127
 40
0.3133304381321615
 40
0.3759158074016681
 40
0.4383740215105411
 40
0.5000631209931454
 40
0.5616593985498132
 40
0.6245050468179062
 40
0.6872231543007362
 40
0.7494953203649202
 40
0.811758388799549
 40
0.8747365576758938
 40
0.937898032705022
 40
1.0
 40
1.0
 40
1.0
 40
1.0
 10
157.1147361759095
 20
85.65455836373644
 30
0.0
 10
157.1145416321267
 20
85.65453466647583
 30
0.0
 10
157.072899135871
 20
85.64946221917342
 30
0.0
 10
157.2179223480439
 20
85.66790350931952
 30
0.0
 10
157.5730395750623
 20
85.71050583808632
 30
0.0
 10
158.1776051286984
 20
85.77861617141268
 30
0.0
 10
158.9840422871041
 20
85.85188148474062
 30
0.0
 10
159.9695193971253
 20
85.91639708804932
 30
0.0
 10
161.1011885385076
 20
85.95496400332861
 30
0.0
 10
162.32348145217
 20
85.95865330517543
 30
0.0
 10
163.5908105981302
 20
85.91623487878128
 30
0.0
 10
164.8572958412272
 20
85.82798001252976
 30
0.0
 10
166.0734339720879
 20
85.69959440529875
 30
0.0
 10
167.1988433977036
 20
85.54694667862881
 30
0.0
 10
168.1762615909216
 20
85.3851762972638
 30
0.0
 10
168.9795262714393
 20
85.23264386078738
 30
0.0
 10
169.5680196804707
 20
85.1086302220265
 30
0.0
 10
169.9569264169561
 20
85.02370863087589
 30
0.0
 10
170.0036872333264
 20
85.01298292256779
 30
0.0
 10
170.0268698845057
 20
85.00766542869883
 30
0.0
  0
SPLINE
  5
AE
330
1F
100
AcDbEntity
  8
0
  6
Continuous
 62
     7
370
    15
100
AcDbSpline
210
0.0
220
0.0
230
1.0
 70
     8
 71
     3
 72
    41
 73
    37
 74
     0
 42
0.00000001
 43
0.00000001
 12
1.0
 22
0.0
 32
0.0
 13
1.0
 23
0.0
 33
0.0
 40
0.0
 40
0.0
 40
0.0
 40
0.0
 40
0.0619930057521228
 40
0.125434780003805
 40
0.1886508796717336
 40
0.2510246486109843
 40
0.3131658162995061
 40
0.3756581562437795
 40
0.4382226967007958
 40
0.4998044866844433
 40
0.5615163978929774
 40
0.6240683345302142
 40
0.6867257381925739
 40
0.7488365438330932
 40
0.8110686224406419
 40
0.8741742887465523
 40
0.937321279503927
 40
0.9685511676011523
 40
0.9842086839263064
 40
0.9920641174372576
 40
0.9960004855111666
 40
0.9979710789827718
 40
0.9989570084930103
 40
0.9994501352406044
 40
0.9996967397140213
 40
0.9998200522691518
 40
0.9998817111564905
 40
0.9999125412175116
 40
0.9999279564093942
 40
0.9999356640470698
 40
0.9999395178742543
 40
0.9999414447906289
 40
0.9999424082488162
 40
0.9999433717070034
 40
0.9999501690780732
 40
1.0
 40
1.0
 40
1.0
 40
1.0
 10
170.026748812571
 20
160.163899633468
 30
0.0
 10
170.003177221612
 20
160.1585900484245
 30
0.0
 10
169.9554831746723
 20
160.1478467940242
 30
0.0
 10
169.563440081293
 20
160.0626199088487
 30
0.0
 10
168.972927436107
 20
159.9380512278891
 30
0.0
 10
168.1688889880369
 20
159.7851023177323
 30
0.0
 10
167.192814221649
 20
159.6233451150765
 30
0.0
 10
166.0710059087067
 20
159.471111697326
 30
0.0
 10
164.8574742731009
 20
159.3433363428342
 30
0.0
 10
163.5926438416443
 20
159.2554878273586
 30
0.0
 10
162.3246004722992
 20
159.2130997881894
 30
0.0
 10
161.1010931624941
 20
159.2168388596386
 30
0.0
 10
159.9675938499761
 20
159.2554273391263
 30
0.0
 10
158.9814891045351
 20
159.3198737690335
 30
0.0
 10
158.1728597225864
 20
159.3933806411779
 30
0.0
 10
157.5762432051906
 20
159.4606941712082
 30
0.0
 10
157.2608509747072
 20
159.4986572650001
 30
0.0
 10
157.1507846601429
 20
159.5124565933499
 30
0.0
 10
157.1233663036891
 20
159.5159412078702
 30
0.0
 10
157.1164424897927
 20
159.516822489799
 30
0.0
 10
157.1146740344282
 20
159.5170455976197
 30
0.0
 10
157.1142140026748
 20
159.5170986427246
 30
0.0
 10
157.1140895438143
 20
159.5171181922626
 30
0.0
 10
157.1140551781107
 20
159.5171115526698
 30
0.0
 10
157.1140440724081
 20
159.5171190687438
 30
0.0
 10
157.1140405823454
 20
159.5171184029541
 30
0.0
 10
157.1140374271583
 20
159.5171184619592
 30
0.0
 10
157.1140377068961
 20
159.5171184566829
 30
0.0
 10
157.1140376817054
 20
159.5171184572214
 30
0.0
 10
157.1140376845235
 20
159.5171184570731
 30
0.0
 10
157.1140376834451
 20
159.5171184572283
 30
0.0
 10
157.1140376847104
 20
159.517118457014
 30
0.0
 10
157.1140376826954
 20
159.5171184573592
 30
0.0
 10
157.1140377013714
 20
159.5171184541578
 30
0.0
 10
157.1140354632074
 20
159.5171188378426
 30
0.0
 10
157.1140713220386
 20
159.5171126906146
 30
0.0
 10
157.1141028765587
 20
159.5171072812684
 30
0.0
  0
SPLINE
  5
AF
330
1F
100
AcDbEntity
  8
0
  6
Continuous
 62
     7
370
    15
100
AcDbSpline
210
0.0
220
0.0
230
1.0
 70
     8
 71
     3
 72
    22
 73
    18
 74
     0
 42
0.00000001
 43
0.00000001
 12
1.0
 22
0.0
 32
0.0
 13
1.0
 23
0.0
 33
0.0
 40
0.0
 40
0.0
 40
0.0
 40
0.0
 40
0.2499999999999975
 40
0.2499999999999975
 40
0.3749999999999944
 40
0.3749999999999944
 40
0.4374999999999946
 40
0.4374999999999946
 40
0.4999999999999947
 40
0.4999999999999947
 40
0.5624999999999948
 40
0.5624999999999948
 40
0.624999999999995
 40
0.624999999999995
 40
0.7499999999999957
 40
0.7499999999999957
 40
1.0
 40
1.0
 40
1.0
 40
1.0
 10
128.8918000913899
 20
92.04714298002393
 30
0.0
 10
128.918865750688
 20
92.0977889554936
 30
0.0
 10
128.9516954305211
 20
92.14219470755889
 30
0.0
 10
129.0329628045476
 20
92.17413486709077
 30
0.0
 10
129.0655283460884
 20
92.17987231325198
 30
0.0
 10
129.1382413734207
 20
92.15893368680048
 30
0.0
 10
129.1670353328829
 20
92.14657049824875
 30
0.0
 10
129.2376850451537
 20
92.100200630887
 30
0.0
 10
129.2801609267429
 20
92.06441392090666
 30
0.0
 10
129.3607146546544
 20
91.9817736523462
 30
0.0
 10
129.3978329918891
 20
91.93703415108472
 30
0.0
 10
129.4629006585981
 20
91.8520257556031
 30
0.0
 10
129.4913743174313
 20
91.81123977108813
 30
0.0
 10
129.5707167145739
 20
91.69145419353111
 30
0.0
 10
129.6136176732414
 20
91.61802343467114
 30
0.0
 10
129.7302322253269
 20
91.40609913597346
 30
0.0
 10
129.7913890307647
 20
91.2756179733595
 30
0.0
 10
129.8448329678448
 20
91.1515850186529
 30
0.0
  0
SPLINE
  5
B0
330
1F
100
AcDbEntity
  8
0
  6
Continuous
 62
     7
370
    15
100
AcDbSpline
210
0.0
220
0.0
230
1.0
 70
     8
 71
     3
 72
     8
 73
     4
 74
     0
 42
0.00000001
 43
0.00000001
 12
1.0
 22
0.0
 32
0.0
 13
1.0
 23
0.0
 33
0.0
 40
0.0
 40
0.0
 40
0.0
 40
0.0
 40
1.0
 40
1.0
 40
1.0
 40
1.0
 10
128.6947805259375
 20
92.11215974164594
 30
0.0
 10
128.6947805259375
 20
92.09102899718938
 30
0.0
 10
128.6975253872753
 20
92.0717892991131
 30
0.0
 10
128.7026927341177
 20
92.05483894977415
 30
0.0
  0
SPLINE
  5
B1
330
1F
100
AcDbEntity
  8
0
  6
Continuous
 62
     7
370
    15
100
AcDbSpline
210
0.0
220
0.0
230
1.0
 70
     8
 71
     3
 72
     9
 73
     5
 74
     0
 42
0.00000001
 43
0.00000001
 12
1.0
 22
0.0
 32
0.0
 13
1.0
 23
0.0
 33
0.0
 40
0.0
 40
0.0
 40
0.0
 40
0.0
 40
0.9379979785898672
 40
0.9999999999999999
 40
0.9999999999999999
 40
0.9999999999999999
 40
0.9999999999999999
 10
128.7484182033686
 20
92.04904337543326
 30
0.0
 10
128.7928279152992
 20
92.00492523211521
 30
0.0
 10
128.840173125997
 20
91.9578908628255
 30
0.0
 10
128.8887867582014
 20
92.04193271279959
 30
0.0
 10
128.8918009016661
 20
92.04714347738104
 30
0.0
  0
LINE
  5
B2
330
1F
100
AcDbEntity
  8
0
  6
Continuous
 62
     7
370
    15
100
AcDbLine
 10
128.6947814737
 20
92.1121591063
 30
0.0
 11
128.6947814737
 21
153.0884743961
 31
0.0
  0
SPLINE
  5
B3
330
1F
100
AcDbEntity
  8
0
  6
Continuous
 62
     7
370
    15
100
AcDbSpline
210
0.0
220
0.0
230
1.0
 70
     8
 71
     3
 72
     9
 73
     5
 74
     0
 42
0.00000001
 43
0.00000001
 12
1.0
 22
0.0
 32
0.0
 13
1.0
 23
0.0
 33
0.0
 40
0.0
 40
0.0
 40
0.0
 40
0.0
 40
0.0592942499244465
 40
1.0
 40
1.0
 40
1.0
 40
1.0
 10
128.9855962608008
 20
153.2642876090415
 30
0.0
 10
128.980713263102
 20
153.2675807487393
 30
0.0
 10
128.8983613030894
 20
153.3231196872023
 30
0.0
 10
128.8322306486741
 20
153.2658274840896
 30
0.0
 10
128.7700211618094
 20
153.2119323791869
 30
0.0
  0
SPLINE
  5
B4
330
1F
100
AcDbEntity
  8
0
  6
Continuous
 62
     7
370
    15
100
AcDbSpline
210
0.0
220
0.0
230
1.0
 70
     8
 71
     3
 72
     8
 73
     4
 74
     0
 42
0.00000001
 43
0.00000001
 12
1.0
 22
0.0
 32
0.0
 13
1.0
 23
0.0
 33
0.0
 40
0.0
 40
0.0
 40
0.0
 40
0.0
 40
1.0
 40
1.0
 40
1.0
 40
1.0
 10
128.7184141948737
 20
153.1960541264628
 30
0.0
 10
128.7030651562377
 20
153.1655440714668
 30
0.0
 10
128.6947805259375
 20
153.1292325159545
 30
0.0
 10
128.6947805259375
 20
153.0884746253931
 30
0.0
  0
SPLINE
  5
B5
330
1F
100
AcDbEntity
  8
0
  6
Continuous
 62
     7
370
    15
100
AcDbSpline
210
0.0
220
0.0
230
1.0
 70
     8
 71
     3
 72
    20
 73
    16
 74
     0
 42
0.00000001
 43
0.00000001
 12
1.0
 22
0.0
 32
0.0
 13
1.0
 23
0.0
 33
0.0
 40
0.0
 40
0.0
 40
0.0
 40
0.0
 40
0.2500000000000037
 40
0.2500000000000037
 40
0.3750000000000055
 40
0.3750000000000055
 40
0.5000000000000073
 40
0.5000000000000073
 40
0.5625000000000057
 40
0.5625000000000057
 40
0.625000000000004
 40
0.625000000000004
 40
0.7500000000000027
 40
0.7500000000000027
 40
1.0
 40
1.0
 40
1.0
 40
1.0
 10
129.6713327676399
 20
153.9086709833034
 30
0.0
 10
129.6313365498161
 20
153.8297925767459
 30
0.0
 10
129.5862229219785
 20
153.7466629300544
 30
0.0
 10
129.5029687076119
 20
153.6131742657035
 30
0.0
 10
129.4727493789914
 20
153.5673092098215
 30
0.0
 10
129.40066114385
 20
153.4691176574166
 30
0.0
 10
129.3587438264389
 20
153.416807837893
 30
0.0
 10
129.2874932218874
 20
153.3448019351585
 30
0.0
 10
129.2632574095081
 20
153.3230317228569
 30
0.0
 10
129.2176592193235
 20
153.2875570645279
 30
0.0
 10
129.1968567297238
 20
153.2741868803504
 30
0.0
 10
129.1419157313047
 20
153.2446169682151
 30
0.0
 10
129.1138467432179
 20
153.2374904459132
 30
0.0
 10
129.043343913155
 20
153.2306160744305
 30
0.0
 10
129.0119198253641
 20
153.2449312335176
 30
0.0
 10
128.9855947576555
 20
153.2642880355282
 30
0.0
  0
SPLINE
  5
B6
330
1F
100
AcDbEntity
  8
0
  6
Continuous
 62
     7
370
    15
100
AcDbSpline
210
0.0
220
0.0
230
1.0
 70
     8
 71
     3
 72
    10
 73
     6
 74
     0
 42
0.00000001
 43
0.00000001
 12
1.0
 22
0.0
 32
0.0
 13
1.0
 23
0.0
 33
0.0
 40
0.0
 40
0.0
 40
0.0
 40
0.0
 40
0.4999999999999989
 40
0.4999999999999989
 40
1.0
 40
1.0
 40
1.0
 40
1.0
 10
130.3447805259375
 20
154.8340900846452
 30
0.0
 10
130.2198922551873
 20
154.7030938065737
 30
0.0
 10
130.0984421371269
 20
154.5593809699087
 30
0.0
 10
129.8688581621695
 20
154.2488106772195
 30
0.0
 10
129.7585831867735
 20
154.0807416041564
 30
0.0
 10
129.6713327676399
 20
153.9086709833034
 30
0.0
  0
SPLINE
  5
B7
330
1F
100
AcDbEntity
  8
0
  6
Continuous
 62
     7
370
    15
100
AcDbSpline
210
0.0
220
0.0
230
1.0
 70
     8
 71
     3
 72
     8
 73
     4
 74
     0
 42
0.00000001
 43
0.00000001
 12
1.0
 22
0.0
 32
0.0
 13
1.0
 23
0.0
 33
0.0
 40
0.0
 40
0.0
 40
0.0
 40
0.0
 40
1.0
 40
1.0
 40
1.0
 40
1.0
 10
130.5947056419033
 20
154.8316370513898
 30
0.0
 10
130.5076876120549
 20
154.8321036161769
 30
0.0
 10
130.424733585675
 20
154.833143635753
 30
0.0
 10
130.3447805259352
 20
154.8340900846453
 30
0.0
  0
SPLINE
  5
B8
330
1F
100
AcDbEntity
  8
0
  6
Continuous
 62
     7
370
    15
100
AcDbSpline
210
0.0
220
0.0
230
1.0
 70
     8
 71
     3
 72
     8
 73
     4
 74
     0
 42
0.00000001
 43
0.00000001
 12
1.0
 22
0.0
 32
0.0
 13
1.0
 23
0.0
 33
0.0
 40
0.0
 40
0.0
 40
0.0
 40
0.0
 40
1.0
 40
1.0
 40
1.0
 40
1.0
 10
130.3447805259281
 20
90.40149158901659
 30
0.0
 10
130.4241951448018
 20
90.40406466026624
 30
0.0
 10
130.5069986907337
 20
90.40636904468045
 30
0.0
 10
130.5947056419066
 20
90.40740503359046
 30
0.0
  0
SPLINE
  5
B9
330
1F
100
AcDbEntity
  8
0
  6
Continuous
 62
     7
370
    15
100
AcDbSpline
210
0.0
220
0.0
230
1.0
 70
     8
 71
     3
 72
    10
 73
     6
 74
     0
 42
0.00000001
 43
0.00000001
 12
1.0
 22
0.0
 32
0.0
 13
1.0
 23
0.0
 33
0.0
 40
0.0
 40
0.0
 40
0.0
 40
0.0
 40
0.5
 40
0.5
 40
1.0
 40
1.0
 40
1.0
 40
1.0
 10
129.8448329678448
 20
91.1515850186529
 30
0.0
 10
129.902258598338
 20
91.01831133009031
 30
0.0
 10
129.9805943666965
 20
90.88527800700322
 30
0.0
 10
130.1523865231564
 20
90.63280270073382
 30
0.0
 10
130.2465696854376
 20
90.51297099663283
 30
0.0
 10
130.3447805259443
 20
90.40149158900724
 30
0.0
  0
LINE
  5
BA
330
1F
100
AcDbEntity
  8
0
  6
Continuous
 62
     7
370
    15
100
AcDbLine
 10
278.5947820161
 20
122.5858048828
 30
0.0
 11
278.5947820161
 21
92.0858045401
 31
0.0
  0
LINE
  5
BB
330
1F
100
AcDbEntity
  8
0
  6
Continuous
 62
     7
370
    15
100
AcDbLine
 10
278.5947820161
 20
153.0858052256
 30
0.0
 11
278.5947820161
 21
122.5858048828
 31
0.0
  0
SPLINE
  5
BC
330
1F
100
AcDbEntity
  8
0
  6
Continuous
 62
     7
370
    15
100
AcDbSpline
210
0.0
220
0.0
230
1.0
 70
     8
 71
     3
 72
    12
 73
     8
 74
     0
 42
0.00000001
 43
0.00000001
 12
1.0
 22
0.0
 32
0.0
 13
1.0
 23
0.0
 33
0.0
 40
0.0
 40
0.0
 40
0.0
 40
0.0
 40
0.2133432039375583
 40
0.426634536437407
 40
0.6412984793866325
 40
0.8568785398589408
 40
1.0
 40
1.0
 40
1.0
 40
1.0
 10
268.0947830889373
 20
153.7627202751048
 30
0.0
 10
268.5976409121567
 20
153.7699930668197
 30
0.0
 10
269.6032342956983
 20
153.7845368819711
 30
0.0
 10
270.9483576932812
 20
153.8865369581938
 30
0.0
 10
271.9591770697012
 20
153.9974245884995
 30
0.0
 10
272.5386164052285
 20
154.0776925910299
 30
0.0
 10
272.5385034411009
 20
154.0777931466562
 30
0.0
 10
272.5384583685546
 20
154.0778332682259
 30
0.0
  0
SPLINE
  5
BD
330
1F
100
AcDbEntity
  8
0
  6
Continuous
 62
     7
370
    15
100
AcDbSpline
210
0.0
220
0.0
230
1.0
 70
     8
 71
     3
 72
    12
 73
     8
 74
     0
 42
0.00000001
 43
0.00000001
 12
1.0
 22
0.0
 32
0.0
 13
1.0
 23
0.0
 33
0.0
 40
0.0
 40
0.0
 40
0.0
 40
0.0
 40
0.2093494498325286
 40
0.4219955426680301
 40
0.6364720717265475
 40
0.8519293552414652
 40
1.0
 40
1.0
 40
1.0
 40
1.0
 10
263.5987153265624
 20
154.0852577717908
 30
0.0
 10
263.6445900928213
 20
154.078531140794
 30
0.0
 10
263.737062019056
 20
154.0649719539888
 30
0.0
 10
264.491266961891
 20
153.9653701645559
 30
0.0
 10
265.6159311217766
 20
153.8530138214894
 30
0.0
 10
266.8912603378468
 20
153.774779849023
 30
0.0
 10
267.7464506284314
 20
153.7662106462272
 30
0.0
 10
268.0947830889373
 20
153.7627202751048
 30
0.0
  0
SPLINE
  5
BE
330
1F
100
AcDbEntity
  8
0
  6
Continuous
 62
     7
370
    15
100
AcDbSpline
210
0.0
220
0.0
230
1.0
 70
     8
 71
     3
 72
    12
 73
     8
 74
     0
 42
0.00000001
 43
0.00000001
 12
1.0
 22
0.0
 32
0.0
 13
1.0
 23
0.0
 33
0.0
 40
0.0
 40
0.0
 40
0.0
 40
0.0
 40
0.2133441579302724
 40
0.4266344760783499
 40
0.6412990352639387
 40
0.8568785995026837
 40
1.0
 40
1.0
 40
1.0
 40
1.0
 10
252.5947814796118
 20
153.7627202751048
 30
0.0
 10
253.0976422870165
 20
153.7699929547225
 30
0.0
 10
254.103236999282
 20
153.7845364786161
 30
0.0
 10
255.4483562574715
 20
153.8865375019918
 30
0.0
 10
256.4591855819575
 20
153.9974242022827
 30
0.0
 10
257.0386132810068
 20
154.077692658634
 30
0.0
 10
257.0385013997586
 20
154.0777931659046
 30
0.0
 10
257.0384567592292
 20
154.0778332682259
 30
0.0
  0
SPLINE
  5
BF
330
1F
100
AcDbEntity
  8
0
  6
Continuous
 62
     7
370
    15
100
AcDbSpline
210
0.0
220
0.0
230
1.0
 70
     8
 71
     3
 72
    12
 73
     8
 74
     0
 42
0.00000001
 43
0.00000001
 12
1.0
 22
0.0
 32
0.0
 13
1.0
 23
0.0
 33
0.0
 40
0.0
 40
0.0
 40
0.0
 40
0.0
 40
0.2093497465597279
 40
0.4219954649227046
 40
0.6364729027144529
 40
0.8519303160889302
 40
1.0
 40
1.0
 40
1.0
 40
1.0
 10
248.098713717237
 20
154.0852577717908
 30
0.0
 10
248.144592254303
 20
154.0785311877837
 30
0.0
 10
248.2370716334152
 20
154.0649721174141
 30
0.0
 10
248.9912633048717
 20
153.965369744836
 30
0.0
 10
250.1159373771243
 20
153.8530140926878
 30
0.0
 10
251.3912635086753
 20
153.7747799746124
 30
0.0
 10
252.2464514429743
 20
153.7662106721514
 30
0.0
 10
252.5947814796118
 20
153.7627202751048
 30
0.0
  0
SPLINE
  5
C0
330
1F
100
AcDbEntity
  8
0
  6
Continuous
 62
     7
370
    15
100
AcDbSpline
210
0.0
220
0.0
230
1.0
 70
     8
 71
     3
 72
    12
 73
     8
 74
     0
 42
0.00000001
 43
0.00000001
 12
1.0
 22
0.0
 32
0.0
 13
1.0
 23
0.0
 33
0.0
 40
0.0
 40
0.0
 40
0.0
 40
0.0
 40
0.2133441535144376
 40
0.4266349299805191
 40
0.6412987790285845
 40
0.8568785420015558
 40
1.0
 40
1.0
 40
1.0
 40
1.0
 10
237.0947798702864
 20
153.7627202751048
 30
0.0
 10
237.5976404241953
 20
153.7699929924916
 30
0.0
 10
238.6032357202124
 20
153.784536607688
 30
0.0
 10
239.9483580976483
 20
153.8865371117685
 30
0.0
 10
240.9591795446863
 20
153.9974245120674
 30
0.0
 10
241.5386094422569
 20
154.077692621528
 30
0.0
 10
241.5385044802348
 20
154.0777931553309
 30
0.0
 10
241.5384626004843
 20
154.0778332682259
 30
0.0
  0
SPLINE
  5
C1
330
1F
100
AcDbEntity
  8
0
  6
Continuous
 62
     7
370
    15
100
AcDbSpline
210
0.0
220
0.0
230
1.0
 70
     8
 71
     3
 72
    12
 73
     8
 74
     0
 42
0.00000001
 43
0.00000001
 12
1.0
 22
0.0
 32
0.0
 13
1.0
 23
0.0
 33
0.0
 40
0.0
 40
0.0
 40
0.0
 40
0.0
 40
0.2093497081139337
 40
0.4219957253619392
 40
0.6364728213972592
 40
0.851930282967297
 40
1.0
 40
1.0
 40
1.0
 40
1.0
 10
232.5987158332019
 20
154.0852577717908
 30
0.0
 10
232.6445924848941
 20
154.0785311642535
 30
0.0
 10
232.7370681376308
 20
154.0649720355949
 30
0.0
 10
233.4912664443098
 20
153.9653699551315
 30
0.0
 10
234.6159355621792
 20
153.8530139554369
 30
0.0
 10
235.8912620714447
 20
153.77477998826
 30
0.0
 10
236.7464498834577
 20
153.7662106761014
 30
0.0
 10
237.0947798702864
 20
153.7627202751048
 30
0.0
  0
SPLINE
  5
C2
330
1F
100
AcDbEntity
  8
0
  6
Continuous
 62
     7
370
    15
100
AcDbSpline
210
0.0
220
0.0
230
1.0
 70
     8
 71
     3
 72
    70
 73
    66
 74
     0
 42
0.00000001
 43
0.00000001
 12
1.0
 22
0.0
 32
0.0
 13
1.0
 23
0.0
 33
0.0
 40
-0.0312499999999999
 40
-0.0312499999999999
 40
0.0
 40
0.0
 40
0.0312500000000001
 40
0.0312500000000001
 40
0.0625000000000001
 40
0.0625000000000001
 40
0.0937500000000002
 40
0.0937500000000002
 40
0.1250000000000002
 40
0.1250000000000002
 40
0.1562500000000003
 40
0.1562500000000003
 40
0.1875000000000004
 40
0.1875000000000004
 40
0.2187500000000004
 40
0.2187500000000004
 40
0.2500000000000004
 40
0.2500000000000004
 40
0.2812500000000004
 40
0.2812500000000004
 40
0.3125000000000004
 40
0.3125000000000004
 40
0.3437500000000004
 40
0.3437500000000004
 40
0.3750000000000004
 40
0.3750000000000004
 40
0.4062500000000005
 40
0.4062500000000005
 40
0.4375000000000005
 40
0.4375000000000005
 40
0.4687500000000005
 40
0.4687500000000005
 40
0.5000000000000004
 40
0.5000000000000004
 40
0.5312500000000006
 40
0.5312500000000006
 40
0.5625000000000006
 40
0.5625000000000006
 40
0.5937500000000007
 40
0.5937500000000007
 40
0.6250000000000007
 40
0.6250000000000007
 40
0.6562500000000007
 40
0.6562500000000007
 40
0.6875000000000006
 40
0.6875000000000006
 40
0.7187500000000006
 40
0.7187500000000006
 40
0.7500000000000004
 40
0.7500000000000004
 40
0.7812500000000004
 40
0.7812500000000004
 40
0.8125000000000004
 40
0.8125000000000004
 40
0.8437500000000003
 40
0.8437500000000003
 40
0.8750000000000003
 40
0.8750000000000003
 40
0.9062500000000002
 40
0.9062500000000002
 40
0.9375000000000002
 40
0.9375000000000002
 40
0.9687500000000001
 40
0.9687500000000001
 40
1.0
 40
1.0
 40
1.03125
 40
1.03125
 10
236.7970807705324
 20
118.0858048828255
 30
0.0
 10
237.3924802813426
 20
118.0858048828255
 30
0.0
 10
237.6851281249735
 20
118.1150547849225
 30
0.0
 10
238.2607571499429
 20
118.229589181341
 30
0.0
 10
238.5467500312467
 20
118.3162914948508
 30
0.0
 10
239.0915117988876
 20
118.5422885618413
 30
0.0
 10
239.3498249999601
 20
118.680529071018
 30
0.0
 10
239.8386920574849
 20
119.0070684782897
 30
0.0
 10
240.0698600794594
 20
119.1968782740975
 30
0.0
 10
240.4843553981408
 20
119.6114639314791
 30
0.0
 10
240.6704925732089
 20
119.8377516821924
 30
0.0
 10
240.9994741988869
 20
120.3295069506054
 30
0.0
 10
241.1390370660077
 20
120.5908494403443
 30
0.0
 10
241.3635918252168
 20
121.1321514610873
 30
0.0
 10
241.4501907015651
 20
121.4161241432722
 30
0.0
 10
241.5659382325961
 20
121.9971627227402
 30
0.0
 10
241.5946144617286
 20
122.2893853202354
 30
0.0
 10
241.5949451656274
 20
122.8771607176193
 30
0.0
 10
241.565646399592
 20
123.175732784933
 30
0.0
 10
241.4506914290552
 20
123.7531509300601
 30
0.0
 10
241.3656409749127
 20
124.0338428971202
 30
0.0
 10
241.1399913791905
 20
124.579126788135
 30
0.0
 10
240.9992568649988
 20
124.8421040899562
 30
0.0
 10
240.6737677774932
 20
125.3292829395247
 30
0.0
 10
240.4875339706856
 20
125.556867129154
 30
0.0
 10
240.0681868615005
 20
125.9765041576128
 30
0.0
 10
239.841342737338
 20
126.1624254486966
 30
0.0
 10
239.3544533713982
 20
126.4883293586991
 30
0.0
 10
239.0912345704882
 20
126.6294491864716
 30
0.0
 10
238.5466892112135
 20
126.8553305211175
 30
0.0
 10
238.2662121771125
 20
126.9406202185352
 30
0.0
 10
237.6888611758567
 20
127.0561221985089
 30
0.0
 10
237.390354930065
 20
127.0856922815164
 30
0.0
 10
236.8026447407126
 20
127.0859168272401
 30
0.0
 10
236.51032162562
 20
127.0575236093309
 30
0.0
 10
235.928816406571
 20
126.9422240829817
 30
0.0
 10
235.6450923725893
 20
126.8559728452921
 30
0.0
 10
235.1033610133562
 20
126.6318126058217
 30
0.0
 10
234.8412230297807
 20
126.4920524785132
 30
0.0
 10
234.3498335344584
 20
126.1638710757949
 30
0.0
 10
234.1234234628012
 20
125.9780125389114
 30
0.0
 10
233.7082155946145
 20
125.5635915683674
 30
0.0
 10
233.518144529056
 20
125.3324228961761
 30
0.0
 10
233.1915229371006
 20
124.8443034461719
 30
0.0
 10
233.0530442145213
 20
124.5861669608549
 30
0.0
 10
232.8264261609417
 20
124.0412195553705
 30
0.0
 10
232.7396022435111
 20
123.7556264753245
 30
0.0
 10
232.6245849398272
 20
123.1802894090455
 30
0.0
 10
232.5950392147044
 20
122.8871717975295
 30
0.0
 10
232.5945251960707
 20
122.2922135830551
 30
0.0
 10
232.6234801336283
 20
121.9996057336132
 30
0.0
 10
232.7375153897659
 20
121.4237389750971
 30
0.0
 10
232.824052862692
 20
121.1374404764366
 30
0.0
 10
233.0494615075693
 20
120.5927498743187
 30
0.0
 10
233.1874570493773
 20
120.3342877316334
 30
0.0
 10
233.5137643234497
 20
119.8448508171558
 30
0.0
 10
233.7033024956265
 20
119.6136421906213
 30
0.0
 10
234.1174095679526
 20
119.1988982591406
 30
0.0
 10
234.3435814277478
 20
119.0124913412248
 30
0.0
 10
234.8354965225545
 20
118.6828185983858
 30
0.0
 10
235.0962310657552
 20
118.5433228326901
 30
0.0
 10
235.6373426370482
 20
118.3182838377114
 30
0.0
 10
235.9213206152426
 20
118.231390508849
 30
0.0
 10
236.5028682823264
 20
118.1150585694943
 30
0.0
 10
236.7970807705324
 20
118.0858048828255
 30
0.0
 10
237.3924802813426
 20
118.0858048828255
 30
0.0
  0
SPLINE
  5
C3
330
1F
100
AcDbEntity
  8
0
  6
Continuous
 62
     7
370
    15
100
AcDbSpline
210
0.0
220
0.0
230
1.0
 70
     8
 71
     3
 72
    70
 73
    66
 74
     0
 42
0.00000001
 43
0.00000001
 12
1.0
 22
0.0
 32
0.0
 13
1.0
 23
0.0
 33
0.0
 40
-0.0312499999999999
 40
-0.0312499999999999
 40
0.0
 40
0.0
 40
0.03125
 40
0.03125
 40
0.0625
 40
0.0625
 40
0.09375
 40
0.09375
 40
0.125
 40
0.125
 40
0.15625
 40
0.15625
 40
0.1875000000000001
 40
0.1875000000000001
 40
0.21875
 40
0.21875
 40
0.25
 40
0.25
 40
0.28125
 40
0.28125
 40
0.3125
 40
0.3125
 40
0.34375
 40
0.34375
 40
0.375
 40
0.375
 40
0.4062500000000001
 40
0.4062500000000001
 40
0.4375000000000001
 40
0.4375000000000001
 40
0.4687500000000001
 40
0.4687500000000001
 40
0.5
 40
0.5
 40
0.53125
 40
0.53125
 40
0.5625
 40
0.5625
 40
0.59375
 40
0.59375
 40
0.625
 40
0.625
 40
0.65625
 40
0.65625
 40
0.6875
 40
0.6875
 40
0.71875
 40
0.71875
 40
0.75
 40
0.75
 40
0.7812500000000001
 40
0.7812500000000001
 40
0.8125000000000001
 40
0.8125000000000001
 40
0.8437500000000001
 40
0.8437500000000001
 40
0.8750000000000001
 40
0.8750000000000001
 40
0.9062500000000001
 40
0.9062500000000001
 40
0.9375000000000001
 40
0.9375000000000001
 40
0.9687500000000001
 40
0.9687500000000001
 40
1.0
 40
1.0
 40
1.03125
 40
1.03125
 10
267.7970807705324
 20
118.0858048828255
 30
0.0
 10
268.3924802813427
 20
118.0858048828255
 30
0.0
 10
268.6851281249736
 20
118.1150547849225
 30
0.0
 10
269.2607571499428
 20
118.2295891813409
 30
0.0
 10
269.5467500312467
 20
118.3162914948508
 30
0.0
 10
270.0915117988876
 20
118.5422885618413
 30
0.0
 10
270.34982499996
 20
118.680529071018
 30
0.0
 10
270.8386920574849
 20
119.0070684782897
 30
0.0
 10
271.0698600794594
 20
119.1968782740975
 30
0.0
 10
271.4843553981408
 20
119.6114639314791
 30
0.0
 10
271.6704925732088
 20
119.8377516821924
 30
0.0
 10
271.9994741988868
 20
120.3295069506054
 30
0.0
 10
272.1390370660077
 20
120.5908494403443
 30
0.0
 10
272.3635918252169
 20
121.1321514610873
 30
0.0
 10
272.4501907015651
 20
121.4161241432722
 30
0.0
 10
272.5659382325961
 20
121.9971627227402
 30
0.0
 10
272.5946144617287
 20
122.2893853202354
 30
0.0
 10
272.5949451656275
 20
122.8771607176193
 30
0.0
 10
272.565646399592
 20
123.175732784933
 30
0.0
 10
272.4506914290551
 20
123.7531509300601
 30
0.0
 10
272.3656409749127
 20
124.0338428971202
 30
0.0
 10
272.1399913791905
 20
124.579126788135
 30
0.0
 10
271.9992568649988
 20
124.8421040899562
 30
0.0
 10
271.6737677774931
 20
125.3292829395247
 30
0.0
 10
271.4875339706857
 20
125.556867129154
 30
0.0
 10
271.0681868615005
 20
125.9765041576128
 30
0.0
 10
270.841342737338
 20
126.1624254486966
 30
0.0
 10
270.3544533713982
 20
126.4883293586991
 30
0.0
 10
270.0912345704882
 20
126.6294491864716
 30
0.0
 10
269.5466892112134
 20
126.8553305211175
 30
0.0
 10
269.2662121771125
 20
126.9406202185352
 30
0.0
 10
268.6888611758567
 20
127.0561221985089
 30
0.0
 10
268.390354930065
 20
127.0856922815164
 30
0.0
 10
267.8026447407125
 20
127.0859168272401
 30
0.0
 10
267.51032162562
 20
127.0575236093309
 30
0.0
 10
266.928816406571
 20
126.9422240829817
 30
0.0
 10
266.6450923725893
 20
126.855972845292
 30
0.0
 10
266.1033610133562
 20
126.6318126058216
 30
0.0
 10
265.8412230297807
 20
126.4920524785132
 30
0.0
 10
265.3498335344584
 20
126.1638710757949
 30
0.0
 10
265.1234234628013
 20
125.9780125389114
 30
0.0
 10
264.7082155946144
 20
125.5635915683674
 30
0.0
 10
264.518144529056
 20
125.3324228961761
 30
0.0
 10
264.1915229371006
 20
124.8443034461719
 30
0.0
 10
264.0530442145213
 20
124.5861669608549
 30
0.0
 10
263.8264261609417
 20
124.0412195553705
 30
0.0
 10
263.7396022435111
 20
123.7556264753245
 30
0.0
 10
263.6245849398272
 20
123.1802894090455
 30
0.0
 10
263.5950392147044
 20
122.8871717975295
 30
0.0
 10
263.5945251960706
 20
122.2922135830551
 30
0.0
 10
263.6234801336283
 20
121.9996057336132
 30
0.0
 10
263.7375153897659
 20
121.4237389750971
 30
0.0
 10
263.8240528626919
 20
121.1374404764366
 30
0.0
 10
264.0494615075693
 20
120.5927498743187
 30
0.0
 10
264.1874570493773
 20
120.3342877316334
 30
0.0
 10
264.5137643234498
 20
119.8448508171558
 30
0.0
 10
264.7033024956265
 20
119.6136421906213
 30
0.0
 10
265.1174095679526
 20
119.1988982591406
 30
0.0
 10
265.3435814277478
 20
119.0124913412247
 30
0.0
 10
265.8354965225544
 20
118.6828185983858
 30
0.0
 10
266.0962310657552
 20
118.5433228326901
 30
0.0
 10
266.6373426370482
 20
118.3182838377114
 30
0.0
 10
266.9213206152427
 20
118.231390508849
 30
0.0
 10
267.5028682823263
 20
118.1150585694943
 30
0.0
 10
267.7970807705324
 20
118.0858048828255
 30
0.0
 10
268.3924802813427
 20
118.0858048828255
 30
0.0
  0
SPLINE
  5
C4
330
1F
100
AcDbEntity
  8
0
  6
Continuous
 62
     7
370
    15
100
AcDbSpline
210
0.0
220
0.0
230
1.0
 70
     8
 71
     3
 72
    70
 73
    66
 74
     0
 42
0.00000001
 43
0.00000001
 12
1.0
 22
0.0
 32
0.0
 13
1.0
 23
0.0
 33
0.0
 40
-0.03125
 40
-0.03125
 40
0.0
 40
0.0
 40
0.03125
 40
0.03125
 40
0.0625
 40
0.0625
 40
0.09375
 40
0.09375
 40
0.125
 40
0.125
 40
0.15625
 40
0.15625
 40
0.1875
 40
0.1875
 40
0.21875
 40
0.21875
 40
0.25
 40
0.25
 40
0.28125
 40
0.28125
 40
0.3125
 40
0.3125
 40
0.34375
 40
0.34375
 40
0.375
 40
0.375
 40
0.40625
 40
0.40625
 40
0.4375
 40
0.4375
 40
0.46875
 40
0.46875
 40
0.5
 40
0.5
 40
0.53125
 40
0.53125
 40
0.5625
 40
0.5625
 40
0.59375
 40
0.59375
 40
0.625
 40
0.625
 40
0.65625
 40
0.65625
 40
0.6875
 40
0.6875
 40
0.71875
 40
0.71875
 40
0.75
 40
0.75
 40
0.78125
 40
0.78125
 40
0.8125
 40
0.8125
 40
0.84375
 40
0.84375
 40
0.875
 40
0.875
 40
0.90625
 40
0.90625
 40
0.9375
 40
0.9375
 40
0.96875
 40
0.96875
 40
1.0
 40
1.0
 40
1.03125
 40
1.03125
 10
252.2970807705324
 20
118.0858048828255
 30
0.0
 10
252.8924802813426
 20
118.0858048828255
 30
0.0
 10
253.1851281249735
 20
118.1150547849225
 30
0.0
 10
253.7607571499428
 20
118.229589181341
 30
0.0
 10
254.0467500312467
 20
118.3162914948508
 30
0.0
 10
254.5915117988876
 20
118.5422885618413
 30
0.0
 10
254.8498249999601
 20
118.680529071018
 30
0.0
 10
255.3386920574849
 20
119.0070684782897
 30
0.0
 10
255.5698600794594
 20
119.1968782740975
 30
0.0
 10
255.9843553981408
 20
119.6114639314791
 30
0.0
 10
256.1704925732089
 20
119.8377516821924
 30
0.0
 10
256.4994741988868
 20
120.3295069506054
 30
0.0
 10
256.6390370660077
 20
120.5908494403443
 30
0.0
 10
256.8635918252168
 20
121.1321514610873
 30
0.0
 10
256.9501907015651
 20
121.4161241432722
 30
0.0
 10
257.0659382325961
 20
121.9971627227402
 30
0.0
 10
257.0946144617287
 20
122.2893853202354
 30
0.0
 10
257.0949451656274
 20
122.8771607176193
 30
0.0
 10
257.065646399592
 20
123.175732784933
 30
0.0
 10
256.9506914290552
 20
123.7531509300602
 30
0.0
 10
256.8656409749126
 20
124.0338428971202
 30
0.0
 10
256.6399913791905
 20
124.579126788135
 30
0.0
 10
256.4992568649988
 20
124.8421040899562
 30
0.0
 10
256.1737677774932
 20
125.3292829395247
 30
0.0
 10
255.9875339706856
 20
125.556867129154
 30
0.0
 10
255.5681868615004
 20
125.9765041576128
 30
0.0
 10
255.341342737338
 20
126.1624254486966
 30
0.0
 10
254.8544533713982
 20
126.4883293586991
 30
0.0
 10
254.5912345704882
 20
126.6294491864716
 30
0.0
 10
254.0466892112135
 20
126.8553305211175
 30
0.0
 10
253.7662121771125
 20
126.9406202185352
 30
0.0
 10
253.1888611758568
 20
127.0561221985089
 30
0.0
 10
252.8903549300649
 20
127.0856922815164
 30
0.0
 10
252.3026447407125
 20
127.0859168272401
 30
0.0
 10
252.0103216256199
 20
127.0575236093309
 30
0.0
 10
251.428816406571
 20
126.9422240829817
 30
0.0
 10
251.1450923725893
 20
126.855972845292
 30
0.0
 10
250.6033610133562
 20
126.6318126058216
 30
0.0
 10
250.3412230297807
 20
126.4920524785132
 30
0.0
 10
249.8498335344584
 20
126.1638710757949
 30
0.0
 10
249.6234234628012
 20
125.9780125389114
 30
0.0
 10
249.2082155946144
 20
125.5635915683674
 30
0.0
 10
249.018144529056
 20
125.3324228961761
 30
0.0
 10
248.6915229371006
 20
124.8443034461719
 30
0.0
 10
248.5530442145213
 20
124.5861669608549
 30
0.0
 10
248.3264261609417
 20
124.0412195553705
 30
0.0
 10
248.2396022435112
 20
123.7556264753245
 30
0.0
 10
248.1245849398272
 20
123.1802894090455
 30
0.0
 10
248.0950392147044
 20
122.8871717975295
 30
0.0
 10
248.0945251960706
 20
122.2922135830551
 30
0.0
 10
248.1234801336283
 20
121.9996057336132
 30
0.0
 10
248.2375153897659
 20
121.4237389750971
 30
0.0
 10
248.324052862692
 20
121.1374404764366
 30
0.0
 10
248.5494615075693
 20
120.5927498743187
 30
0.0
 10
248.6874570493773
 20
120.3342877316334
 30
0.0
 10
249.0137643234497
 20
119.8448508171558
 30
0.0
 10
249.2033024956266
 20
119.6136421906213
 30
0.0
 10
249.6174095679526
 20
119.1988982591406
 30
0.0
 10
249.8435814277478
 20
119.0124913412247
 30
0.0
 10
250.3354965225545
 20
118.6828185983858
 30
0.0
 10
250.5962310657551
 20
118.5433228326901
 30
0.0
 10
251.1373426370482
 20
118.3182838377114
 30
0.0
 10
251.4213206152427
 20
118.231390508849
 30
0.0
 10
252.0028682823263
 20
118.1150585694943
 30
0.0
 10
252.2970807705324
 20
118.0858048828255
 30
0.0
 10
252.8924802813426
 20
118.0858048828255
 30
0.0
  0
SPLINE
  5
C5
330
1F
100
AcDbEntity
  8
0
  6
Continuous
 62
     7
370
    15
100
AcDbSpline
210
0.0
220
0.0
230
1.0
 70
     8
 71
     3
 72
    10
 73
     6
 74
     0
 42
0.00000001
 43
0.00000001
 12
1.0
 22
0.0
 32
0.0
 13
1.0
 23
0.0
 33
0.0
 40
0.0
 40
0.0
 40
0.0
 40
0.0
 40
0.5
 40
0.5
 40
1.0
 40
1.0
 40
1.0
 40
1.0
 10
197.4847805259375
 20
167.4600806429976
 30
0.0
 10
197.2722442120812
 20
167.4600806429976
 30
0.0
 10
197.0623080404272
 20
167.5514932296278
 30
0.0
 10
196.7686008994159
 20
167.856238095532
 30
0.0
 10
196.6847805259375
 20
168.0683930654406
 30
0.0
 10
196.6847805259375
 20
168.2793561236732
 30
0.0
  0
SPLINE
  5
C6
330
1F
100
AcDbEntity
  8
0
  6
Continuous
 62
     7
370
    15
100
AcDbSpline
210
0.0
220
0.0
230
1.0
 70
     8
 71
     3
 72
    14
 73
    10
 74
     0
 42
0.00000001
 43
0.00000001
 12
1.0
 22
0.0
 32
0.0
 13
1.0
 23
0.0
 33
0.0
 40
0.0
 40
0.0
 40
0.0
 40
0.0
 40
0.25
 40
0.25
 40
0.5
 40
0.5
 40
0.75
 40
0.75
 40
1.0
 40
1.0
 40
1.0
 40
1.0
 10
196.6847805259375
 20
157.3000400753222
 30
0.0
 10
196.6847805259375
 20
157.176173198533
 30
0.0
 10
196.7006396535651
 20
157.0519135216955
 30
0.0
 10
196.764001299085
 20
156.8143051592897
 30
0.0
 10
196.8125910071344
 20
156.6975247745372
 30
0.0
 10
196.9448766119092
 20
156.4887222459282
 30
0.0
 10
197.0302014031698
 20
156.3942115423356
 30
0.0
 10
197.237092651476
 20
156.2562547415333
 30
0.0
 10
197.361060597366
 20
156.2143362958976
 30
0.0
 10
197.4847805259375
 20
156.2143362958976
 30
0.0
  0
SPLINE
  5
C7
330
1F
100
AcDbEntity
  8
0
  6
Continuous
 62
     7
370
    15
100
AcDbSpline
210
0.0
220
0.0
230
1.0
 70
     8
 71
     3
 72
     8
 73
     4
 74
     0
 42
0.00000001
 43
0.00000001
 12
1.0
 22
0.0
 32
0.0
 13
1.0
 23
0.0
 33
0.0
 40
0.0
 40
0.0
 40
0.0
 40
0.0
 40
1.0
 40
1.0
 40
1.0
 40
1.0
 10
201.8568095468589
 20
171.5755997384887
 30
0.0
 10
201.4057825781457
 20
170.7782891683009
 30
0.0
 10
200.9550887616221
 20
169.9807908686437
 30
0.0
 10
200.5047805259375
 20
169.1830757435301
 30
0.0
  0
LINE
  5
C8
330
1F
100
AcDbEntity
  8
0
  6
Continuous
 62
     7
370
    15
100
AcDbLine
 10
201.8568100397
 20
161.536765966
 30
0.0
 11
201.8568100397
 21
171.5756000312
 31
0.0
  0
SPLINE
  5
C9
330
1F
100
AcDbEntity
  8
0
  6
Continuous
 62
     7
370
    15
100
AcDbSpline
210
0.0
220
0.0
230
1.0
 70
     8
 71
     3
 72
     8
 73
     4
 74
     0
 42
0.00000001
 43
0.00000001
 12
1.0
 22
0.0
 32
0.0
 13
1.0
 23
0.0
 33
0.0
 40
0.0
 40
0.0
 40
0.0
 40
0.0
 40
1.0
 40
1.0
 40
1.0
 40
1.0
 10
200.5047805259375
 20
158.481252388963
 30
0.0
 10
200.948930536963
 20
159.5026356199147
 30
0.0
 10
201.4000048472209
 20
160.521120156683
 30
0.0
 10
201.8568095468589
 20
161.5367676437121
 30
0.0
  0
LINE
  5
CA
330
1F
100
AcDbEntity
  8
0
  6
Continuous
 62
     7
370
    15
100
AcDbLine
 10
200.5047811184
 20
158.4812530609
 30
0.0
 11
200.5047811184
 21
169.1830770405
 31
0.0
  0
SPLINE
  5
CB
330
1F
100
AcDbEntity
  8
0
  6
Continuous
 62
     7
370
    15
100
AcDbSpline
210
0.0
220
0.0
230
1.0
 70
     8
 71
     3
 72
     8
 73
     4
 74
     0
 42
0.00000001
 43
0.00000001
 12
1.0
 22
0.0
 32
0.0
 13
1.0
 23
0.0
 33
0.0
 40
0.0
 40
0.0
 40
0.0
 40
0.0
 40
1.0
 40
1.0
 40
1.0
 40
1.0
 10
195.3327515050161
 20
161.5367676437121
 30
0.0
 10
195.7896778588157
 20
160.5208496740378
 30
0.0
 10
196.2408835006187
 20
159.5020538449467
 30
0.0
 10
196.6847805259375
 20
158.481252388963
 30
0.0
  0
LINE
  5
CC
330
1F
100
AcDbEntity
  8
0
  6
Continuous
 62
     7
370
    15
100
AcDbLine
 10
196.684780902
 20
158.4812530609
 30
0.0
 11
196.684780902
 21
157.3000417383
 31
0.0
  0
LINE
  5
CD
330
1F
100
AcDbEntity
  8
0
  6
Continuous
 62
     7
370
    15
100
AcDbLine
 10
197.4847814057
 20
156.2143356832
 30
0.0
 11
199.7047806147
 21
156.2143356832
 31
0.0
  0
SPLINE
  5
CE
330
1F
100
AcDbEntity
  8
0
  6
Continuous
 62
     7
370
    15
100
AcDbSpline
210
0.0
220
0.0
230
1.0
 70
     8
 71
     3
 72
    12
 73
     8
 74
     0
 42
0.00000001
 43
0.00000001
 12
1.0
 22
0.0
 32
0.0
 13
1.0
 23
0.0
 33
0.0
 40
0.0
 40
0.0
 40
0.0
 40
0.0
 40
0.250000000000002
 40
0.250000000000002
 40
0.500000000000004
 40
0.500000000000004
 40
1.0
 40
1.0
 40
1.0
 40
1.0
 10
199.7047805259375
 20
156.2143362958977
 30
0.0
 10
199.8284814759175
 20
156.2143362958977
 30
0.0
 10
199.9525780881877
 20
156.2563299076302
 30
0.0
 10
200.1592332512747
 20
156.3941252342746
 30
0.0
 10
200.2442740180016
 20
156.4880988327394
 30
0.0
 10
200.4437525864752
 20
156.8028870389604
 30
0.0
 10
200.5047805259375
 20
157.053126031188
 30
0.0
 10
200.5047805259375
 20
157.3000400753222
 30
0.0
  0
LINE
  5
CF
330
1F
100
AcDbEntity
  8
0
  6
Continuous
 62
     7
370
    15
100
AcDbLine
 10
200.5047811184
 20
157.3000417383
 30
0.0
 11
200.5047811184
 21
158.4812530609
 31
0.0
  0
LINE
  5
D0
330
1F
100
AcDbEntity
  8
0
  6
Continuous
 62
     7
370
    15
100
AcDbLine
 10
201.8568100397
 20
161.536765966
 30
0.0
 11
206.5447805438
 21
161.536765966
 31
0.0
  0
SPLINE
  5
D1
330
1F
100
AcDbEntity
  8
0
  6
Continuous
 62
     7
370
    15
100
AcDbSpline
210
0.0
220
0.0
230
1.0
 70
     8
 71
     3
 72
    16
 73
    12
 74
     0
 42
0.00000001
 43
0.00000001
 12
1.0
 22
0.0
 32
0.0
 13
1.0
 23
0.0
 33
0.0
 40
0.0
 40
0.0
 40
0.0
 40
0.0
 40
0.1249999999999978
 40
0.1249999999999978
 40
0.2499999999999955
 40
0.2499999999999955
 40
0.499999999999997
 40
0.499999999999997
 40
0.7499999999999984
 40
0.7499999999999984
 40
1.0
 40
1.0
 40
1.0
 40
1.0
 10
206.5447805259375
 20
161.5367676437121
 30
0.0
 10
206.6204182323487
 20
161.5367676437121
 30
0.0
 10
206.6967338967669
 20
161.5254226435772
 30
0.0
 10
206.8411446346589
 20
161.4827700929387
 30
0.0
 10
206.9095910837673
 20
161.4518357682558
 30
0.0
 10
207.1045223363804
 20
161.3325793964882
 30
0.0
 10
207.2123635101613
 20
161.2224273828677
 30
0.0
 10
207.3810762583734
 20
160.9742912972096
 30
0.0
 10
207.4434406710969
 20
160.8339489732059
 30
0.0
 10
207.5247445956053
 20
160.5456772817172
 30
0.0
 10
207.5447805259375
 20
160.3948723087374
 30
0.0
 10
207.5447805259375
 20
160.2445024173921
 30
0.0
  0
LINE
  5
D2
330
1F
100
AcDbEntity
  8
0
  6
Continuous
 62
     7
370
    15
100
AcDbLine
 10
207.5447807077
 20
160.2445037397
 30
0.0
 11
207.5447807077
 21
153.9358065756
 31
0.0
  0
SPLINE
  5
D3
330
1F
100
AcDbEntity
  8
0
  6
Continuous
 62
     7
370
    15
100
AcDbSpline
210
0.0
220
0.0
230
1.0
 70
     8
 71
     3
 72
    12
 73
     8
 74
     0
 42
0.00000001
 43
0.00000001
 12
1.0
 22
0.0
 32
0.0
 13
1.0
 23
0.0
 33
0.0
 40
0.0
 40
0.0
 40
0.0
 40
0.0
 40
0.4999999999999953
 40
0.4999999999999953
 40
0.7499999999999977
 40
0.7499999999999977
 40
1.0
 40
1.0
 40
1.0
 40
1.0
 10
207.5447805259375
 20
170.554544703671
 30
0.0
 10
207.5447805259375
 20
170.8198141364374
 30
0.0
 10
207.440173782451
 20
171.0823292420898
 30
0.0
 10
207.1635054307058
 20
171.3678668481271
 30
0.0
 10
207.0531401713538
 20
171.4441884649885
 30
0.0
 10
206.809068122738
 20
171.5485306298286
 30
0.0
 10
206.6773156614063
 20
171.5755997384888
 30
0.0
 10
206.5447805259375
 20
171.5755997384888
 30
0.0
  0
LINE
  5
D4
330
1F
100
AcDbEntity
  8
0
  6
Continuous
 62
     7
370
    15
100
AcDbLine
 10
207.5447807077
 20
160.2445037397
 30
0.0
 11
207.5447807077
 21
170.5545463892
 31
0.0
  0
SPLINE
  5
D5
330
1F
100
AcDbEntity
  8
0
  6
Continuous
 62
     7
370
    15
100
AcDbSpline
210
0.0
220
0.0
230
1.0
 70
     8
 71
     3
 72
     8
 73
     4
 74
     0
 42
0.00000001
 43
0.00000001
 12
1.0
 22
0.0
 32
0.0
 13
1.0
 23
0.0
 33
0.0
 40
0.0
 40
0.0
 40
0.0
 40
0.0
 40
1.0
 40
1.0
 40
1.0
 40
1.0
 10
196.6847805259376
 20
169.1830757435301
 30
0.0
 10
196.234472290253
 20
169.9807908686437
 30
0.0
 10
195.7837784737294
 20
170.7782891683009
 30
0.0
 10
195.3327515050161
 20
171.5755997384887
 30
0.0
  0
LINE
  5
D6
330
1F
100
AcDbEntity
  8
0
  6
Continuous
 62
     7
370
    15
100
AcDbLine
 10
196.684780902
 20
158.4812530609
 30
0.0
 11
196.684780902
 21
169.1830770405
 31
0.0
  0
SPLINE
  5
D7
330
1F
100
AcDbEntity
  8
0
  6
Continuous
 62
     7
370
    15
100
AcDbSpline
210
0.0
220
0.0
230
1.0
 70
     8
 71
     3
 72
    14
 73
    10
 74
     0
 42
0.00000001
 43
0.00000001
 12
1.0
 22
0.0
 32
0.0
 13
1.0
 23
0.0
 33
0.0
 40
0.0
 40
0.0
 40
0.0
 40
0.0
 40
0.25
 40
0.25
 40
0.5
 40
0.5
 40
0.75
 40
0.75
 40
1.0
 40
1.0
 40
1.0
 40
1.0
 10
200.5047805259375
 20
168.2793561236732
 30
0.0
 10
200.5047805259375
 20
168.1729994299208
 30
0.0
 10
200.4843929697963
 20
168.0671589421607
 30
0.0
 10
200.4057586243347
 20
167.8705940286243
 30
0.0
 10
200.3470272646961
 20
167.7794232863371
 30
0.0
 10
200.2004183590936
 20
167.6275121973055
 30
0.0
 10
200.111013039067
 20
167.5654433604859
 30
0.0
 10
199.9171223064667
 20
167.4821753127272
 30
0.0
 10
199.8106173165769
 20
167.4600806429976
 30
0.0
 10
199.7047805259375
 20
167.4600806429976
 30
0.0
  0
LINE
  5
D8
330
1F
100
AcDbEntity
  8
0
  6
Continuous
 62
     7
370
    15
100
AcDbLine
 10
206.5447805438
 20
171.5756000312
 30
0.0
 11
201.8568100397
 21
171.5756000312
 31
0.0
  0
LINE
  5
D9
330
1F
100
AcDbEntity
  8
0
  6
Continuous
 62
     7
370
    15
100
AcDbLine
 10
199.7047806147
 20
167.4600818487
 30
0.0
 11
197.4847814057
 21
167.4600818487
 31
0.0
  0
LINE
  5
DA
330
1F
100
AcDbEntity
  8
0
  6
Continuous
 62
     7
370
    15
100
AcDbLine
 10
130.3447796021
 20
90.3908030422
 30
0.0
 11
130.3447796021
 21
90.4014909001
 31
0.0
  0
LINE
  5
DB
330
1F
100
AcDbEntity
  8
0
  6
Continuous
 62
     7
370
    15
100
AcDbLine
 10
130.3447796021
 20
154.8358031841
 30
0.0
 11
130.3447796021
 21
154.8340895506
 31
0.0
  0
LINE
  5
DC
330
1F
100
AcDbEntity
  8
0
  6
HIDDEN
 62
     7
370
     0
100
AcDbLine
 10
257.5947841618
 20
153.2858048858
 30
0.0
 11
247.5947787974
 21
153.2858048858
 31
0.0
  0
LINE
  5
DD
330
1F
100
AcDbEntity
  8
0
  6
HIDDEN
 62
     7
370
     0
100
AcDbLine
 10
257.5947841618
 20
143.0858054491
 30
0.0
 11
247.5947787974
 21
143.0858054491
 31
0.0
  0
LINE
  5
DE
330
1F
100
AcDbEntity
  8
0
  6
HIDDEN
 62
     7
370
     0
100
AcDbLine
 10
249.0947818372
 20
141.5858042719
 30
0.0
 11
256.094781122
 21
141.5858042719
 31
0.0
  0
LINE
  5
DF
330
1F
100
AcDbEntity
  8
0
  6
HIDDEN
 62
     7
370
     0
100
AcDbLine
 10
251.7046680663
 20
148.085804406
 30
0.0
 11
254.5279091213
 21
148.085804406
 31
0.0
  0
LINE
  5
E0
330
1F
100
AcDbEntity
  8
0
  6
HIDDEN
 62
     7
370
     0
100
AcDbLine
 10
251.7046680663
 20
148.085804406
 30
0.0
 11
251.7046680663
 21
154.0858053895
 31
0.0
  0
LINE
  5
E1
330
1F
100
AcDbEntity
  8
0
  6
HIDDEN
 62
     7
370
     0
100
AcDbLine
 10
249.7715404246
 20
148.085804406
 30
0.0
 11
251.7046680663
 21
148.085804406
 31
0.0
  0
LINE
  5
E2
330
1F
100
AcDbEntity
  8
0
  6
HIDDEN
 62
     7
370
     0
100
AcDbLine
 10
254.5279091213
 20
148.085804406
 30
0.0
 11
254.5279091213
 21
154.0858053895
 31
0.0
  0
LINE
  5
E3
330
1F
100
AcDbEntity
  8
0
  6
HIDDEN
 62
     7
370
     0
100
AcDbLine
 10
255.4180225346
 20
148.085804406
 30
0.0
 11
254.5279091213
 21
148.085804406
 31
0.0
  0
LINE
  5
E4
330
1F
100
AcDbEntity
  8
0
  6
HIDDEN
 62
     7
370
     0
100
AcDbLine
 10
250.6616463874
 20
148.085804406
 30
0.0
 11
250.6616463874
 21
154.0858053895
 31
0.0
  0
LINE
  5
E5
330
1F
100
AcDbEntity
  8
0
  6
HIDDEN
 62
     7
370
     0
100
AcDbLine
 10
249.7715404246
 20
148.085804406
 30
0.0
 11
249.7715404246
 21
154.0858053895
 31
0.0
  0
LINE
  5
E6
330
1F
100
AcDbEntity
  8
0
  6
HIDDEN
 62
     7
370
     0
100
AcDbLine
 10
253.4848948929
 20
148.085804406
 30
0.0
 11
253.4848948929
 21
154.0858053895
 31
0.0
  0
LINE
  5
E7
330
1F
100
AcDbEntity
  8
0
  6
HIDDEN
 62
     7
370
     0
100
AcDbLine
 10
255.4180225346
 20
148.085804406
 30
0.0
 11
255.4180225346
 21
154.0858053895
 31
0.0
  0
LINE
  5
E8
330
1F
100
AcDbEntity
  8
0
  6
HIDDEN
 62
     7
370
     0
100
AcDbLine
 10
267.5989096973
 20
153.2858048858
 30
0.0
 11
273.0947783206
 21
153.2858048858
 31
0.0
  0
LINE
  5
E9
330
1F
100
AcDbEntity
  8
0
  6
HIDDEN
 62
     7
370
     0
100
AcDbLine
 10
263.0947804067
 20
153.2858048858
 30
0.0
 11
267.5989096973
 21
153.2858048858
 31
0.0
  0
LINE
  5
EA
330
1F
100
AcDbEntity
  8
0
  6
HIDDEN
 62
     7
370
     0
100
AcDbLine
 10
267.5989096973
 20
143.0858054491
 30
0.0
 11
273.0947783206
 21
143.0858054491
 31
0.0
  0
LINE
  5
EB
330
1F
100
AcDbEntity
  8
0
  6
HIDDEN
 62
     7
370
     0
100
AcDbLine
 10
263.0947804067
 20
143.0858054491
 30
0.0
 11
267.5989096973
 21
143.0858054491
 31
0.0
  0
LINE
  5
EC
330
1F
100
AcDbEntity
  8
0
  6
HIDDEN
 62
     7
370
     0
100
AcDbLine
 10
267.7476679895
 20
141.5858042719
 30
0.0
 11
271.5947827313
 21
141.5858042719
 31
0.0
  0
LINE
  5
ED
330
1F
100
AcDbEntity
  8
0
  6
HIDDEN
 62
     7
370
     0
100
AcDbLine
 10
264.5947834466
 20
141.5858042719
 30
0.0
 11
267.7476679895
 21
141.5858042719
 31
0.0
  0
LINE
  5
EE
330
1F
100
AcDbEntity
  8
0
  6
HIDDEN
 62
     7
370
     0
100
AcDbLine
 10
270.4393094394
 20
148.085804406
 30
0.0
 11
267.8084870789
 21
148.085804406
 31
0.0
  0
LINE
  5
EF
330
1F
100
AcDbEntity
  8
0
  6
HIDDEN
 62
     7
370
     0
100
AcDbLine
 10
265.4639607284
 20
148.085804406
 30
0.0
 11
267.8084870789
 21
148.085804406
 31
0.0
  0
LINE
  5
F0
330
1F
100
AcDbEntity
  8
0
  6
HIDDEN
 62
     7
370
     0
100
AcDbLine
 10
267.8084870789
 20
148.085804406
 30
0.0
 11
267.8084870789
 21
154.0858053895
 31
0.0
  0
LINE
  5
F1
330
1F
100
AcDbEntity
  8
0
  6
HIDDEN
 62
     7
370
     0
100
AcDbLine
 10
270.4393094394
 20
148.085804406
 30
0.0
 11
270.7255979989
 21
148.085804406
 31
0.0
  0
LINE
  5
F2
330
1F
100
AcDbEntity
  8
0
  6
HIDDEN
 62
     7
370
     0
100
AcDbLine
 10
270.4393094394
 20
148.085804406
 30
0.0
 11
270.4393094394
 21
154.0858053895
 31
0.0
  0
LINE
  5
F3
330
1F
100
AcDbEntity
  8
0
  6
HIDDEN
 62
     7
370
     0
100
AcDbLine
 10
265.7502492879
 20
148.085804406
 30
0.0
 11
265.7502492879
 21
154.0858053895
 31
0.0
  0
LINE
  5
F4
330
1F
100
AcDbEntity
  8
0
  6
HIDDEN
 62
     7
370
     0
100
AcDbLine
 10
265.4639607284
 20
148.085804406
 30
0.0
 11
265.4639607284
 21
154.0858053895
 31
0.0
  0
LINE
  5
F5
330
1F
100
AcDbEntity
  8
0
  6
HIDDEN
 62
     7
370
     0
100
AcDbLine
 10
268.3810716484
 20
148.085804406
 30
0.0
 11
268.3810716484
 21
154.0858053895
 31
0.0
  0
LINE
  5
F6
330
1F
100
AcDbEntity
  8
0
  6
HIDDEN
 62
     7
370
     0
100
AcDbLine
 10
270.7255979989
 20
148.085804406
 30
0.0
 11
270.7255979989
 21
154.0858053895
 31
0.0
  0
CIRCLE
  5
F7
330
1F
100
AcDbEntity
  8
0
  6
HIDDEN
 62
     7
370
     0
100
AcDbCircle
 10
268.0947805259
 20
122.5858048828
 30
0.0
 40
5.000000000000012
  0
CIRCLE
  5
F8
330
1F
100
AcDbEntity
  8
0
  6
HIDDEN
 62
     7
370
     0
100
AcDbCircle
 10
268.0947805259
 20
122.5858048828
 30
0.0
 40
2.499999999999994
  0
CIRCLE
  5
F9
330
1F
100
AcDbEntity
  8
0
  6
HIDDEN
 62
     7
370
     0
100
AcDbCircle
 10
268.0947805259
 20
122.5858048828
 30
0.0
 40
3.499999999999983
  0
CIRCLE
  5
FA
330
1F
100
AcDbEntity
  8
0
  6
HIDDEN
 62
     7
370
     0
100
AcDbCircle
 10
237.0947805259
 20
122.5858048828
 30
0.0
 40
4.999999999999992
  0
CIRCLE
  5
FB
330
1F
100
AcDbEntity
  8
0
  6
HIDDEN
 62
     7
370
     0
100
AcDbCircle
 10
237.0947805259
 20
122.5858048828
 30
0.0
 40
2.499999999999984
  0
CIRCLE
  5
FC
330
1F
100
AcDbEntity
  8
0
  6
HIDDEN
 62
     7
370
     0
100
AcDbCircle
 10
237.0947805259
 20
122.5858048828
 30
0.0
 40
3.499999999999989
  0
LINE
  5
FD
330
1F
100
AcDbEntity
  8
0
  6
HIDDEN
 62
     7
370
     0
100
AcDbLine
 10
235.594732127
 20
120.1193923889
 30
0.0
 11
234.2087825749
 21
122.6516781143
 31
0.0
  0
LINE
  5
FE
330
1F
100
AcDbEntity
  8
0
  6
HIDDEN
 62
     7
370
     0
100
AcDbLine
 10
238.4807331476
 20
120.0535192447
 30
0.0
 11
239.980780891
 21
122.5199316513
 31
0.0
  0
LINE
  5
FF
330
1F
100
AcDbEntity
  8
0
  6
HIDDEN
 62
     7
370
     0
100
AcDbLine
 10
235.594732127
 20
120.1193923889
 30
0.0
 11
238.4807331476
 21
120.0535192447
 31
0.0
  0
LINE
  5
100
330
1F
100
AcDbEntity
  8
0
  6
HIDDEN
 62
     7
370
     0
100
AcDbLine
 10
235.7088303182
 20
125.118090521
 30
0.0
 11
234.2087825749
 21
122.6516781143
 31
0.0
  0
LINE
  5
101
330
1F
100
AcDbEntity
  8
0
  6
HIDDEN
 62
     7
370
     0
100
AcDbLine
 10
238.5948276136
 20
125.0522173768
 30
0.0
 11
239.980780891
 21
122.5199316513
 31
0.0
  0
LINE
  5
102
330
1F
100
AcDbEntity
  8
0
  6
HIDDEN
 62
     7
370
     0
100
AcDbLine
 10
235.7088303182
 20
125.118090521
 30
0.0
 11
238.5948276136
 21
125.0522173768
 31
0.0
  0
CIRCLE
  5
103
330
1F
100
AcDbEntity
  8
0
  6
HIDDEN
 62
     7
370
     0
100
AcDbCircle
 10
252.5947805259
 20
122.5858048828
 30
0.0
 40
5.000000000000021
  0
CIRCLE
  5
104
330
1F
100
AcDbEntity
  8
0
  6
HIDDEN
 62
     7
370
     0
100
AcDbCircle
 10
252.5947805259
 20
122.5858048828
 30
0.0
 40
2.499999999999995
  0
CIRCLE
  5
105
330
1F
100
AcDbEntity
  8
0
  6
HIDDEN
 62
     7
370
     0
100
AcDbCircle
 10
252.5947805259
 20
122.5858048828
 30
0.0
 40
3.499999999999994
  0
LINE
  5
106
330
1F
100
AcDbEntity
  8
0
  6
HIDDEN
 62
     7
370
     0
100
AcDbLine
 10
250.4857903335
 20
120.6146371378
 30
0.0
 11
253.2473703835
 21
119.7737837037
 31
0.0
  0
LINE
  5
107
330
1F
100
AcDbEntity
  8
0
  6
HIDDEN
 62
     7
370
     0
100
AcDbLine
 10
253.2473703835
 20
119.7737837037
 30
0.0
 11
255.356354079
 21
121.7449515652
 31
0.0
  0
LINE
  5
108
330
1F
100
AcDbEntity
  8
0
  6
HIDDEN
 62
     7
370
     0
100
AcDbLine
 10
250.4857903335
 20
120.6146371378
 30
0.0
 11
249.8332014296
 21
123.4266582005
 31
0.0
  0
LINE
  5
109
330
1F
100
AcDbEntity
  8
0
  6
HIDDEN
 62
     7
370
     0
100
AcDbLine
 10
254.7037651751
 20
124.5569726279
 30
0.0
 11
255.356354079
 21
121.7449515652
 31
0.0
  0
LINE
  5
10A
330
1F
100
AcDbEntity
  8
0
  6
HIDDEN
 62
     7
370
     0
100
AcDbLine
 10
251.9421925757
 20
125.3978260619
 30
0.0
 11
249.8332014296
 21
123.4266582005
 31
0.0
  0
LINE
  5
10B
330
1F
100
AcDbEntity
  8
0
  6
HIDDEN
 62
     7
370
     0
100
AcDbLine
 10
251.9421925757
 20
125.3978260619
 30
0.0
 11
254.7037651751
 21
124.5569726279
 31
0.0
  0
LINE
  5
10C
330
1F
100
AcDbEntity
  8
0
  6
HIDDEN
 62
     7
370
     0
100
AcDbLine
 10
232.0947809134
 20
143.0858054491
 30
0.0
 11
242.0947825525
 21
143.0858054491
 31
0.0
  0
LINE
  5
10D
330
1F
100
AcDbEntity
  8
0
  6
HIDDEN
 62
     7
370
     0
100
AcDbLine
 10
233.5947802279
 20
141.5858042719
 30
0.0
 11
240.5947795127
 21
141.5858042719
 31
0.0
  0
LINE
  5
10E
330
1F
100
AcDbEntity
  8
0
  6
HIDDEN
 62
     7
370
     0
100
AcDbLine
 10
232.0947809134
 20
153.2858048858
 30
0.0
 11
242.0947825525
 21
153.2858048858
 31
0.0
  0
LINE
  5
10F
330
1F
100
AcDbEntity
  8
0
  6
HIDDEN
 62
     7
370
     0
100
AcDbLine
 10
239.2747042689
 20
148.085804406
 30
0.0
 11
236.5458583448
 21
148.085804406
 31
0.0
  0
LINE
  5
110
330
1F
100
AcDbEntity
  8
0
  6
HIDDEN
 62
     7
370
     0
100
AcDbLine
 10
234.3659339461
 20
148.085804406
 30
0.0
 11
236.5458583448
 21
148.085804406
 31
0.0
  0
LINE
  5
111
330
1F
100
AcDbEntity
  8
0
  6
HIDDEN
 62
     7
370
     0
100
AcDbLine
 10
236.5458583448
 20
148.085804406
 30
0.0
 11
236.5458583448
 21
154.0858053895
 31
0.0
  0
LINE
  5
112
330
1F
100
AcDbEntity
  8
0
  6
HIDDEN
 62
     7
370
     0
100
AcDbLine
 10
239.8236295197
 20
148.085804406
 30
0.0
 11
239.2747042689
 21
148.085804406
 31
0.0
  0
LINE
  5
113
330
1F
100
AcDbEntity
  8
0
  6
HIDDEN
 62
     7
370
     0
100
AcDbLine
 10
239.2747042689
 20
148.085804406
 30
0.0
 11
239.2747042689
 21
154.0858053895
 31
0.0
  0
LINE
  5
114
330
1F
100
AcDbEntity
  8
0
  6
HIDDEN
 62
     7
370
     0
100
AcDbLine
 10
234.9148554716
 20
148.085804406
 30
0.0
 11
234.9148554716
 21
154.0858053895
 31
0.0
  0
LINE
  5
115
330
1F
100
AcDbEntity
  8
0
  6
HIDDEN
 62
     7
370
     0
100
AcDbLine
 10
234.3659339461
 20
148.085804406
 30
0.0
 11
234.3659339461
 21
154.0858053895
 31
0.0
  0
LINE
  5
116
330
1F
100
AcDbEntity
  8
0
  6
HIDDEN
 62
     7
370
     0
100
AcDbLine
 10
237.6437051211
 20
148.085804406
 30
0.0
 11
237.6437051211
 21
154.0858053895
 31
0.0
  0
LINE
  5
117
330
1F
100
AcDbEntity
  8
0
  6
HIDDEN
 62
     7
370
     0
100
AcDbLine
 10
239.8236295197
 20
148.085804406
 30
0.0
 11
239.8236295197
 21
154.0858053895
 31
0.0
  0
LINE
  5
118
330
1F
100
AcDbEntity
  8
0
  6
HIDDEN
 62
     7
370
     0
100
AcDbLine
 10
267.6119705651
 20
119.7397149926
 30
0.0
 11
270.3181629989
 21
120.7446335874
 31
0.0
  0
LINE
  5
119
330
1F
100
AcDbEntity
  8
0
  6
HIDDEN
 62
     7
370
     0
100
AcDbLine
 10
265.3885906551
 20
121.5808864044
 30
0.0
 11
267.6119705651
 21
119.7397149926
 31
0.0
  0
LINE
  5
11A
330
1F
100
AcDbEntity
  8
0
  6
HIDDEN
 62
     7
370
     0
100
AcDbLine
 10
270.8009755228
 20
123.5907233613
 30
0.0
 11
270.3181629989
 21
120.7446335874
 31
0.0
  0
LINE
  5
11B
330
1F
100
AcDbEntity
  8
0
  6
HIDDEN
 62
     7
370
     0
100
AcDbLine
 10
265.3885906551
 20
121.5808864044
 30
0.0
 11
265.8714031789
 21
124.4269761782
 31
0.0
  0
LINE
  5
11C
330
1F
100
AcDbEntity
  8
0
  6
HIDDEN
 62
     7
370
     0
100
AcDbLine
 10
268.5775881622
 20
125.4318947731
 30
0.0
 11
265.8714031789
 21
124.4269761782
 31
0.0
  0
LINE
  5
11D
330
1F
100
AcDbEntity
  8
0
  6
HIDDEN
 62
     7
370
     0
100
AcDbLine
 10
268.5775881622
 20
125.4318947731
 30
0.0
 11
270.8009755228
 21
123.5907233613
 31
0.0
  0
LINE
  5
11E
330
1F
100
AcDbEntity
  8
0
  6
HIDDEN
 62
     7
370
     0
100
AcDbLine
 10
195.3327519808
 20
161.536765966
 30
0.0
 11
195.3327519808
 21
153.9358065756
 31
0.0
  0
LINE
  5
11F
330
1F
100
AcDbEntity
  8
0
  6
HIDDEN
 62
     7
370
     0
100
AcDbLine
 10
159.0082043771
 20
85.8499982687
 30
0.0
 11
158.7382493529
 21
85.8260707291
 31
0.0
  0
SPLINE
  5
120
330
1F
100
AcDbEntity
  8
0
  6
HIDDEN
 62
     7
370
     0
100
AcDbSpline
210
0.0
220
0.0
230
1.0
 70
     8
 71
     3
 72
    12
 73
     8
 74
     0
 42
0.00000001
 43
0.00000001
 12
1.0
 22
0.0
 32
0.0
 13
1.0
 23
0.0
 33
0.0
 40
0.0
 40
0.0
 40
0.0
 40
0.0
 40
0.1661348483723788
 40
0.3322012848936272
 40
0.5008930844532496
 40
0.7521368938593884
 40
1.0
 40
1.0
 40
1.0
 40
1.0
 10
157.1141028765587
 20
159.5171072812684
 30
0.0
 10
157.1244956181329
 20
159.515730388235
 30
0.0
 10
157.1452768217053
 20
159.512977169152
 30
0.0
 10
157.3185758555983
 20
159.4913714144494
 30
0.0
 10
157.6405266711147
 20
159.4535081277149
 30
0.0
 10
158.1616918046427
 20
159.393122029455
 30
0.0
 10
158.7272508539949
 20
159.345330501648
 30
0.0
 10
159.0081149701028
 20
159.3215965958245
 30
0.0
  0
LINE
  5
121
330
1F
100
AcDbEntity
  8
0
  6
HIDDEN
 62
     7
370
     0
100
AcDbLine
 10
268.3560749505
 20
153.7689210208
 30
0.0
 11
267.2016745422
 21
153.7775562437
 31
0.0
  0
LINE
  5
122
330
1F
100
AcDbEntity
  8
0
  6
HIDDEN
 62
     7
370
     0
100
AcDbLine
 10
252.8560733411
 20
153.7689210208
 30
0.0
 11
251.7016729329
 21
153.7775562437
 31
0.0
  0
LINE
  5
123
330
1F
100
AcDbEntity
  8
0
  6
HIDDEN
 62
     7
370
     0
100
AcDbLine
 10
237.3560717318
 20
153.7689210208
 30
0.0
 11
236.2016713236
 21
153.7775562437
 31
0.0
  0
SPLINE
  5
124
330
1F
100
AcDbEntity
  8
0
  6
HIDDEN
 62
     7
370
     0
100
AcDbSpline
210
0.0
220
0.0
230
1.0
 70
     8
 71
     3
 72
     9
 73
     5
 74
     0
 42
0.00000001
 43
0.00000001
 12
1.0
 22
0.0
 32
0.0
 13
1.0
 23
0.0
 33
0.0
 40
0.0
 40
0.0
 40
0.0
 40
0.0
 40
0.6612244146599319
 40
1.0
 40
1.0
 40
1.0
 40
1.0
 10
168.8479859370737
 20
153.9521270723946
 30
0.0
 10
169.1394888237219
 20
153.995912792505
 30
0.0
 10
169.5803420048588
 20
154.0621319446409
 30
0.0
 10
169.5289316577096
 20
154.0543261447559
 30
0.0
 10
169.5115150872616
 20
154.0516817303307
 30
0.0
  0
SPLINE
  5
125
330
1F
100
AcDbEntity
  8
0
  6
HIDDEN
 62
     7
370
     0
100
AcDbSpline
210
0.0
220
0.0
230
1.0
 70
     8
 71
     3
 72
     9
 73
     5
 74
     0
 42
0.00000001
 43
0.00000001
 12
1.0
 22
0.0
 32
0.0
 13
1.0
 23
0.0
 33
0.0
 40
0.0
 40
0.0
 40
0.0
 40
0.0
 40
0.3224719718310664
 40
1.0
 40
1.0
 40
1.0
 40
1.0
 10
169.5115150872616
 20
91.11992803531962
 30
0.0
 10
169.5301562967392
 20
91.11716003098464
 30
0.0
 10
169.5879635206407
 20
91.10857632580475
 30
0.0
 10
169.1468516160159
 20
91.17468930012686
 30
0.0
 10
168.8479859370737
 20
91.2194826932557
 30
0.0
  0
SPLINE
  5
126
330
1F
100
AcDbEntity
  8
0
  6
HIDDEN
 62
     7
370
     0
100
AcDbSpline
210
0.0
220
0.0
230
1.0
 70
     8
 71
     3
 72
    15
 73
    11
 74
     0
 42
0.00000001
 43
0.00000001
 12
1.0
 22
0.0
 32
0.0
 13
1.0
 23
0.0
 33
0.0
 40
0.0
 40
0.0
 40
0.0
 40
0.0
 40
0.1285821426710073
 40
0.2571635607496992
 40
0.3853235406184768
 40
0.5113778076015207
 40
0.636926046588634
 40
0.7643185585868897
 40
0.893060358186539
 40
1.0
 40
1.0
 40
1.0
 40
1.0
 10
168.8479859370737
 20
91.21948269325571
 30
0.0
 10
168.46246380993
 20
91.28128845841572
 30
0.0
 10
167.6914217281555
 20
91.40489964044484
 30
0.0
 10
165.9128640648143
 20
91.59564910271139
 30
0.0
 10
163.9190528033809
 20
91.68329548363357
 30
0.0
 10
161.8950151782216
 20
91.63639158027779
 30
0.0
 10
160.0669066893675
 20
91.47614045176691
 30
0.0
 10
158.63547573454
 20
91.27496286658557
 30
0.0
 10
157.7315904859058
 20
91.11241713856141
 30
0.0
 10
157.6690078488447
 20
91.10001747495305
 30
0.0
 10
157.6406111929564
 20
91.09439117032366
 30
0.0
  0
SPLINE
  5
127
330
1F
100
AcDbEntity
  8
0
  6
HIDDEN
 62
     7
370
     0
100
AcDbSpline
210
0.0
220
0.0
230
1.0
 70
     8
 71
     3
 72
    16
 73
    12
 74
     0
 42
0.00000001
 43
0.00000001
 12
1.0
 22
0.0
 32
0.0
 13
1.0
 23
0.0
 33
0.0
 40
0.0
 40
0.0
 40
0.0
 40
0.0
 40
0.0205567972010308
 40
0.1461296555129789
 40
0.2720439735959893
 40
0.3999540038647748
 40
0.5285040859845025
 40
0.6552455845570215
 40
0.7805595113940985
 40
0.907037898122843
 40
1.0
 40
1.0
 40
1.0
 40
1.0
 10
157.6406111929564
 20
154.0772185953267
 30
0.0
 10
157.6259439113078
 20
154.0799642914428
 30
0.0
 10
157.5216803534367
 20
154.0994822943529
 30
0.0
 10
157.9724602442008
 20
154.0131161798101
 30
0.0
 10
158.9856985509136
 20
153.8419790765547
 30
0.0
 10
160.580027708671
 20
153.6384379434199
 30
0.0
 10
162.5065271049597
 20
153.5060472124774
 30
0.0
 10
164.5530189546898
 20
153.5022521254264
 30
0.0
 10
166.4661786466801
 20
153.625026788126
 30
0.0
 10
167.9508868458379
 20
153.8068440844079
 30
0.0
 10
168.5810348308603
 20
153.9088949983284
 30
0.0
 10
168.8479859370737
 20
153.9521270723946
 30
0.0
  0
LINE
  5
128
330
1F
100
AcDbEntity
  8
0
  6
HIDDEN
 62
     7
370
     0
100
AcDbLine
 10
148.5914042208
 20
96.0858051957
 30
0.0
 11
148.5914042208
 21
149.0858045699
 31
0.0
  0
LINE
  5
129
330
1F
100
AcDbEntity
  8
0
  6
HIDDEN
 62
     7
370
     0
100
AcDbLine
 10
187.8788577382
 20
96.0858051957
 30
0.0
 11
187.8788577382
 21
149.0858045699
 31
0.0
  0
LINE
  5
12A
330
1F
100
AcDbEntity
  8
0
  6
HIDDEN
 62
     7
370
     0
100
AcDbLine
 10
191.0447807971
 20
97.7108047636
 30
0.0
 11
191.0447807971
 21
147.460805002
 31
0.0
  0
SPLINE
  5
12B
330
1F
100
AcDbEntity
  8
0
  6
HIDDEN
 62
     7
370
     0
100
AcDbSpline
210
0.0
220
0.0
230
1.0
 70
     8
 71
     3
 72
    20
 73
    16
 74
     0
 42
0.00000001
 43
0.00000001
 12
1.0
 22
0.0
 32
0.0
 13
1.0
 23
0.0
 33
0.0
 40
0.0
 40
0.0
 40
0.0
 40
0.0
 40
0.2499999999999978
 40
0.2499999999999978
 40
0.3749999999999982
 40
0.3749999999999982
 40
0.4999999999999986
 40
0.4999999999999986
 40
0.6249999999999989
 40
0.6249999999999989
 40
0.7499999999999992
 40
0.7499999999999992
 40
0.8749999999999997
 40
0.8749999999999997
 40
1.0
 40
1.0
 40
1.0
 40
1.0
 10
138.7947805259375
 20
147.8143185132395
 30
0.0
 10
138.7947805259375
 20
147.7351155267072
 30
0.0
 10
138.7477980307248
 20
147.6540193083043
 30
0.0
 10
138.6099764399472
 20
147.5338226165534
 30
0.0
 10
138.5536941560372
 20
147.4948959125513
 30
0.0
 10
138.42060930457
 20
147.4197071801269
 30
0.0
 10
138.342769362337
 20
147.3830649747849
 30
0.0
 10
138.1701370062226
 20
147.3154744419531
 30
0.0
 10
138.0757440091315
 20
147.2845162601775
 30
0.0
 10
137.8703067028164
 20
147.2289918388078
 30
0.0
 10
137.7579604628292
 20
147.2042833249745
 30
0.0
 10
137.5257195989296
 20
147.1644870978663
 30
0.0
 10
137.4050089565068
 20
147.1490672604693
 30
0.0
 10
137.1539380972378
 20
147.1279872856297
 30
0.0
 10
137.024416100822
 20
147.1225100406087
 30
0.0
 10
136.8947805259375
 20
147.1225100406087
 30
0.0
  0
LINE
  5
12C
330
1F
100
AcDbEntity
  8
0
  6
HIDDEN
 62
     7
370
     0
100
AcDbLine
 10
136.8947787199
 20
147.1225095274
 30
0.0
 11
130.3447796021
 21
147.1225095274
 31
0.0
  0
LINE
  5
12D
330
1F
100
AcDbEntity
  8
0
  6
HIDDEN
 62
     7
370
     0
100
AcDbLine
 10
130.3447796021
 20
98.0491002383
 30
0.0
 11
141.8947814021
 21
98.0491002383
 31
0.0
  0
SPLINE
  5
12E
330
1F
100
AcDbEntity
  8
0
  6
HIDDEN
 62
     7
370
     0
100
AcDbSpline
210
0.0
220
0.0
230
1.0
 70
     8
 71
     3
 72
    18
 73
    14
 74
     0
 42
0.00000001
 43
0.00000001
 12
1.0
 22
0.0
 32
0.0
 13
1.0
 23
0.0
 33
0.0
 40
0.0
 40
0.0
 40
0.0
 40
0.0
 40
0.1250000000000023
 40
0.1250000000000023
 40
0.2500000000000046
 40
0.2500000000000046
 40
0.5000000000000036
 40
0.5000000000000036
 40
0.7500000000000024
 40
0.7500000000000024
 40
0.8750000000000012
 40
0.8750000000000012
 40
1.0
 40
1.0
 40
1.0
 40
1.0
 10
141.8947805259375
 20
98.04909972504167
 30
0.0
 10
142.0242478388947
 20
98.04909972504167
 30
0.0
 10
142.1512585877914
 20
98.04374672644903
 30
0.0
 10
142.4006219089886
 20
98.02300875376024
 30
0.0
 10
142.524245563617
 20
98.00733684950595
 30
0.0
 10
142.8732779005511
 20
97.94764212110385
 30
0.0
 10
143.0837896653579
 20
97.88987694142287
 30
0.0
 10
143.4277063430574
 20
97.75535510014538
 30
0.0
 10
143.5640567445752
 20
97.67768598663997
 30
0.0
 10
143.7010948011377
 20
97.55839485255264
 30
0.0
 10
143.7363138198507
 20
97.51747584341757
 30
0.0
 10
143.7829373967892
 20
97.43681985012756
 30
0.0
 10
143.7947805259375
 20
97.39685132993469
 30
0.0
 10
143.7947805259375
 20
97.35729125241089
 30
0.0
  0
LINE
  5
12F
330
1F
100
AcDbEntity
  8
0
  6
HIDDEN
 62
     7
370
     0
100
AcDbLine
 10
130.3447796021
 20
98.0491002383
 30
0.0
 11
130.3447796021
 21
147.1225095274
 31
0.0
  0
LINE
  5
130
330
1F
100
AcDbEntity
  8
0
  6
HIDDEN
 62
     7
370
     0
100
AcDbLine
 10
215.8473035309
 20
122.5858048828
 30
0.0
 11
215.8473035309
 21
101.5858051659
 31
0.0
  0
LINE
  5
131
330
1F
100
AcDbEntity
  8
0
  6
HIDDEN
 62
     7
370
     0
100
AcDbLine
 10
215.8473035309
 20
143.5858045997
 30
0.0
 11
215.8473035309
 21
122.5858048828
 31
0.0
  0
LINE
  5
132
330
1F
100
AcDbEntity
  8
0
  6
HIDDEN
 62
     7
370
     0
100
AcDbLine
 10
212.5947823737
 20
122.5858048828
 30
0.0
 11
212.5947823737
 21
101.9858044865
 31
0.0
  0
LINE
  5
133
330
1F
100
AcDbEntity
  8
0
  6
HIDDEN
 62
     7
370
     0
100
AcDbLine
 10
212.5947823737
 20
143.1858052792
 30
0.0
 11
212.5947823737
 21
122.5858048828
 31
0.0
  0
LINE
  5
134
330
1F
100
AcDbEntity
  8
0
  6
HIDDEN
 62
     7
370
     0
100
AcDbLine
 10
218.5947796319
 20
122.5858048828
 30
0.0
 11
218.5947796319
 21
102.5858053299
 31
0.0
  0
LINE
  5
135
330
1F
100
AcDbEntity
  8
0
  6
HIDDEN
 62
     7
370
     0
100
AcDbLine
 10
218.5947796319
 20
142.5858044358
 30
0.0
 11
218.5947796319
 21
122.5858048828
 31
0.0
  0
SPLINE
  5
136
330
1F
100
AcDbEntity
  8
0
  6
HIDDEN
 62
     7
370
     0
100
AcDbSpline
210
0.0
220
0.0
230
1.0
 70
     8
 71
     3
 72
    12
 73
     8
 74
     0
 42
0.00000001
 43
0.00000001
 12
1.0
 22
0.0
 32
0.0
 13
1.0
 23
0.0
 33
0.0
 40
0.0
 40
0.0
 40
0.0
 40
0.0
 40
0.2111177617404471
 40
0.4221035132623162
 40
0.6364765304210604
 40
0.8531927736567749
 40
1.0
 40
1.0
 40
1.0
 40
1.0
 10
268.0947830889373
 20
142.0729809733041
 30
0.0
 10
267.5962093160807
 20
142.0844405639943
 30
0.0
 10
266.5993735244907
 20
142.1073525797859
 30
0.0
 10
265.2632655678706
 20
142.2674917922772
 30
0.0
 10
264.2482062278956
 20
142.4428369697172
 30
0.0
 10
263.6561310143799
 20
142.5718440404095
 30
0.0
 10
263.6509978095795
 20
142.5731933202568
 30
0.0
 10
263.6489247892051
 20
142.5737382205136
 30
0.0
  0
LINE
  5
137
330
1F
100
AcDbEntity
  8
0
  6
HIDDEN
 62
     7
370
     0
100
AcDbLine
 10
267.7997698996
 20
142.0840767505
 30
0.0
 11
268.7184637401
 21
142.0917992772
 31
0.0
  0
SPLINE
  5
138
330
1F
100
AcDbEntity
  8
0
  6
HIDDEN
 62
     7
370
     0
100
AcDbSpline
210
0.0
220
0.0
230
1.0
 70
     8
 71
     3
 72
    12
 73
     8
 74
     0
 42
0.00000001
 43
0.00000001
 12
1.0
 22
0.0
 32
0.0
 13
1.0
 23
0.0
 33
0.0
 40
0.0
 40
0.0
 40
0.0
 40
0.0
 40
0.1917436360752801
 40
0.401269099980129
 40
0.6150041035547577
 40
0.8316933901337069
 40
0.9999999999999999
 40
0.9999999999999999
 40
0.9999999999999999
 40
0.9999999999999999
 10
272.5751301262526
 20
142.5814700605281
 30
0.0
 10
272.5430189749036
 20
142.5740406999857
 30
0.0
 10
272.475818763909
 20
142.5584929984855
 30
0.0
 10
271.7810321408212
 20
142.4116981104359
 30
0.0
 10
270.7001329110774
 20
142.2344838497065
 30
0.0
 10
269.3996458345608
 20
142.0968401849419
 30
0.0
 10
268.4917034400139
 20
142.0802385999713
 30
0.0
 10
268.0947830889373
 20
142.0729809733041
 30
0.0
  0
SPLINE
  5
139
330
1F
100
AcDbEntity
  8
0
  6
HIDDEN
 62
     7
370
     0
100
AcDbSpline
210
0.0
220
0.0
230
1.0
 70
     8
 71
     3
 72
    12
 73
     8
 74
     0
 42
0.00000001
 43
0.00000001
 12
1.0
 22
0.0
 32
0.0
 13
1.0
 23
0.0
 33
0.0
 40
0.0
 40
0.0
 40
0.0
 40
0.0
 40
0.2111168680268751
 40
0.4221027664818962
 40
0.6364759329327274
 40
0.8531927388279812
 40
1.0
 40
1.0
 40
1.0
 40
1.0
 10
252.5947814796118
 20
142.0729809733041
 30
0.0
 10
252.0962103493373
 20
142.0844406400466
 30
0.0
 10
251.0993773849997
 20
142.1073528643523
 30
0.0
 10
249.7632705286614
 20
142.2674917679042
 30
0.0
 10
248.7482148102646
 20
142.4428371582822
 30
0.0
 10
248.156125092929
 20
142.5718439580977
 30
0.0
 10
248.1510002649745
 20
142.573193297124
 30
0.0
 10
248.1489306304602
 20
142.5737382205136
 30
0.0
  0
LINE
  5
13A
330
1F
100
AcDbEntity
  8
0
  6
HIDDEN
 62
     7
370
     0
100
AcDbLine
 10
252.2997682903
 20
142.0840767505
 30
0.0
 11
253.2184621308
 21
142.0917992772
 31
0.0
  0
SPLINE
  5
13B
330
1F
100
AcDbEntity
  8
0
  6
HIDDEN
 62
     7
370
     0
100
AcDbSpline
210
0.0
220
0.0
230
1.0
 70
     8
 71
     3
 72
    12
 73
     8
 74
     0
 42
0.00000001
 43
0.00000001
 12
1.0
 22
0.0
 32
0.0
 13
1.0
 23
0.0
 33
0.0
 40
0.0
 40
0.0
 40
0.0
 40
0.0
 40
0.1917433902474856
 40
0.4012692158808918
 40
0.6150033544216214
 40
0.8316934796071445
 40
1.0
 40
1.0
 40
1.0
 40
1.0
 10
257.0751285169272
 20
142.5814700605281
 30
0.0
 10
257.0430210876165
 20
142.5740406347798
 30
0.0
 10
256.9758285603183
 20
142.5584927723965
 30
0.0
 10
256.2810279614631
 20
142.4116987856949
 30
0.0
 10
255.2001381855333
 20
142.2344829683903
 30
0.0
 10
253.8996456379084
 20
142.0968404592439
 30
0.0
 10
252.9917015761791
 20
142.0802386708989
 30
0.0
 10
252.5947814796118
 20
142.0729809733041
 30
0.0
  0
SPLINE
  5
13C
330
1F
100
AcDbEntity
  8
0
  6
HIDDEN
 62
     7
370
     0
100
AcDbSpline
210
0.0
220
0.0
230
1.0
 70
     8
 71
     3
 72
    12
 73
     8
 74
     0
 42
0.00000001
 43
0.00000001
 12
1.0
 22
0.0
 32
0.0
 13
1.0
 23
0.0
 33
0.0
 40
0.0
 40
0.0
 40
0.0
 40
0.0
 40
0.2111168680268751
 40
0.4221027664818962
 40
0.6364759329327274
 40
0.8531927388279812
 40
1.0
 40
1.0
 40
1.0
 40
1.0
 10
237.0947798702864
 20
142.0729809733041
 30
0.0
 10
236.5962087400119
 20
142.0844406400466
 30
0.0
 10
235.5993757756742
 20
142.1073528643523
 30
0.0
 10
234.263268919336
 20
142.2674917679042
 30
0.0
 10
233.2482132009391
 20
142.4428371582822
 30
0.0
 10
232.6561234836036
 20
142.5718439580977
 30
0.0
 10
232.6509986556491
 20
142.573193297124
 30
0.0
 10
232.6489290211348
 20
142.5737382205136
 30
0.0
  0
LINE
  5
13D
330
1F
100
AcDbEntity
  8
0
  6
HIDDEN
 62
     7
370
     0
100
AcDbLine
 10
236.7997704063
 20
142.0840767505
 30
0.0
 11
237.7184605215
 21
142.0917992772
 31
0.0
  0
SPLINE
  5
13E
330
1F
100
AcDbEntity
  8
0
  6
HIDDEN
 62
     7
370
     0
100
AcDbSpline
210
0.0
220
0.0
230
1.0
 70
     8
 71
     3
 72
    12
 73
     8
 74
     0
 42
0.00000001
 43
0.00000001
 12
1.0
 22
0.0
 32
0.0
 13
1.0
 23
0.0
 33
0.0
 40
0.0
 40
0.0
 40
0.0
 40
0.0
 40
0.1917433829704201
 40
0.4012689640941877
 40
0.615003845933512
 40
0.8316934859947313
 40
1.0
 40
1.0
 40
1.0
 40
1.0
 10
241.5751269076018
 20
142.5814700605281
 30
0.0
 10
241.5430191126486
 20
142.5740406704906
 30
0.0
 10
241.4758258597674
 20
142.5584928920067
 30
0.0
 10
240.7810312183031
 20
142.4116982503386
 30
0.0
 10
239.7001332894606
 20
142.2344836095241
 30
0.0
 10
238.3996434459265
 20
142.09684030074
 30
0.0
 10
237.4917001317299
 20
142.0802386289399
 30
0.0
 10
237.0947798702864
 20
142.0729809733041
 30
0.0
  0
LINE
  5
13F
330
1F
100
AcDbEntity
  8
0
  6
HIDDEN
 62
     7
370
     0
100
AcDbLine
 10
237.0947798703
 20
127.0858046891
 30
0.0
 11
236.5989847098
 21
127.0026599349
 31
0.0
  0
SPLINE
  5
140
330
1F
100
AcDbEntity
  8
0
  6
HIDDEN
 62
     7
370
     0
100
AcDbSpline
210
0.0
220
0.0
230
1.0
 70
     8
 71
     3
 72
     9
 73
     5
 74
     0
 42
0.00000001
 43
0.00000001
 12
1.0
 22
0.0
 32
0.0
 13
1.0
 23
0.0
 33
0.0
 40
0.0
 40
0.0
 40
0.0
 40
0.0
 40
0.8100526914967225
 40
0.9999999999999999
 40
0.9999999999999999
 40
0.9999999999999999
 40
0.9999999999999999
 10
236.7089701805262
 20
118.1308289350875
 30
0.0
 10
237.1528555628129
 20
118.0905340484451
 30
0.0
 10
237.7008265614235
 20
118.0407905106908
 30
0.0
 10
238.1937530674546
 20
118.2482541655026
 30
0.0
 10
238.2873831305651
 20
118.2876613283463
 30
0.0
  0
LINE
  5
141
330
1F
100
AcDbEntity
  8
0
  6
HIDDEN
 62
     7
370
     0
100
AcDbLine
 10
237.4018518243
 20
127.0449331323
 30
0.0
 11
237.0947798703
 21
127.0858046891
 31
0.0
  0
LINE
  5
142
330
1F
100
AcDbEntity
  8
0
  6
HIDDEN
 62
     7
370
     0
100
AcDbLine
 10
268.0947830889
 20
127.0858046891
 30
0.0
 11
267.5989842031
 21
127.0026599349
 31
0.0
  0
LINE
  5
143
330
1F
100
AcDbEntity
  8
0
  6
HIDDEN
 62
     7
370
     0
100
AcDbLine
 10
267.7089696739
 20
118.1308289351
 30
0.0
 11
268.5429280613
 21
118.1616571093
 31
0.0
  0
LINE
  5
144
330
1F
100
AcDbEntity
  8
0
  6
HIDDEN
 62
     7
370
     0
100
AcDbLine
 10
268.4018513177
 20
127.0449331323
 30
0.0
 11
268.0947830889
 21
127.0858046891
 31
0.0
  0
LINE
  5
145
330
1F
100
AcDbEntity
  8
0
  6
HIDDEN
 62
     7
370
     0
100
AcDbLine
 10
252.5947814796
 20
127.0858046891
 30
0.0
 11
252.0989825938
 21
127.0026599349
 31
0.0
  0
SPLINE
  5
146
330
1F
100
AcDbEntity
  8
0
  6
HIDDEN
 62
     7
370
     0
100
AcDbSpline
210
0.0
220
0.0
230
1.0
 70
     8
 71
     3
 72
     9
 73
     5
 74
     0
 42
0.00000001
 43
0.00000001
 12
1.0
 22
0.0
 32
0.0
 13
1.0
 23
0.0
 33
0.0
 40
0.0
 40
0.0
 40
0.0
 40
0.0
 40
0.8100526914967225
 40
0.9999999999999999
 40
0.9999999999999999
 40
0.9999999999999999
 40
0.9999999999999999
 10
252.2089680645613
 20
118.1308289350875
 30
0.0
 10
252.652853446848
 20
118.0905340484451
 30
0.0
 10
253.2008244454586
 20
118.0407905106908
 30
0.0
 10
253.6937509514897
 20
118.2482541655026
 30
0.0
 10
253.7873810146002
 20
118.2876613283463
 30
0.0
  0
LINE
  5
147
330
1F
100
AcDbEntity
  8
0
  6
HIDDEN
 62
     7
370
     0
100
AcDbLine
 10
252.9018497083
 20
127.0449331323
 30
0.0
 11
252.5947814796
 21
127.0858046891
 31
0.0
  0
LINE
  5
148
330
1F
100
AcDbEntity
  8
0
  6
HIDDEN
 62
     7
370
     0
100
AcDbLine
 10
130.3447796021
 20
95.2158046247
 30
0.0
 11
130.3447796021
 21
90.4014909001
 31
0.0
  0
LINE
  5
149
330
1F
100
AcDbEntity
  8
0
  6
HIDDEN
 62
     7
370
     0
100
AcDbLine
 10
143.7947800372
 20
95.2158046247
 30
0.0
 11
143.7947800372
 21
88.7400822075
 31
0.0
  0
LINE
  5
14A
330
1F
100
AcDbEntity
  8
0
  6
HIDDEN
 62
     7
370
     0
100
AcDbLine
 10
138.7947810803
 20
149.9558051409
 30
0.0
 11
138.7947810803
 21
156.3304120036
 31
0.0
  0
LINE
  5
14B
330
1F
100
AcDbEntity
  8
0
  6
HIDDEN
 62
     7
370
     0
100
AcDbLine
 10
130.3447796021
 20
149.9558051409
 30
0.0
 11
130.3447796021
 21
154.8340895506
 31
0.0
  0
LINE
  5
14C
330
1F
100
AcDbEntity
  8
0
  6
HIDDEN
 62
     7
370
     0
100
AcDbLine
 10
202.8947802249
 20
109.5858046146
 30
0.0
 11
202.8947802249
 21
135.585805151
 31
0.0
  0
LINE
  5
14D
330
1F
100
AcDbEntity
  8
0
  6
HIDDEN
 62
     7
370
     0
100
AcDbLine
 10
206.8947808806
 20
109.5858046146
 30
0.0
 11
206.8947808806
 21
135.585805151
 31
0.0
  0
LINE
  5
14E
330
1F
100
AcDbEntity
  8
0
  6
HIDDEN
 62
     7
370
     0
100
AcDbLine
 10
191.7947804544
 20
111.3358044358
 30
0.0
 11
191.7947804544
 21
133.8358053299
 31
0.0
  0
ELLIPSE
  5
14F
330
1F
100
AcDbEntity
  8
0
  6
HIDDEN
 62
     7
370
     0
100
AcDbEllipse
 10
122.4101073257
 20
122.5858048828
 30
0.0
 11
31.0810857081166
 21
1.421085471520200E-14
 31
0.0
210
0.0
220
0.0
230
1.0
 40
0.8164965809
 41
1.312649268214811
 42
1.367189972061495
  0
ELLIPSE
  5
150
330
1F
100
AcDbEntity
  8
0
  6
HIDDEN
 62
     7
370
     0
100
AcDbEllipse
 10
122.4101073257
 20
122.5858048828
 30
0.0
 11
31.08108570811663
 21
1.421085471520200E-14
 31
0.0
210
0.0
220
0.0
230
1.0
 40
0.8164965809
 41
4.915995335118101
 42
4.970536038964786
  0
LINE
  5
151
330
1F
100
AcDbEntity
  8
0
  6
HIDDEN
 62
     7
370
     0
100
AcDbLine
 10
207.5447807077
 20
78.6858030887
 30
0.0
 11
193.5447802756
 21
78.6858030887
 31
0.0
  0
LINE
  5
152
330
1F
100
AcDbEntity
  8
0
  6
HIDDEN
 62
     7
370
     0
100
AcDbLine
 10
183.5447804991
 20
72.5958065422
 30
0.0
 11
183.5447804991
 21
78.6858030887
 31
0.0
  0
LINE
  5
153
330
1F
100
AcDbEntity
  8
0
  6
HIDDEN
 62
     7
370
     0
100
AcDbLine
 10
193.5447802756
 20
78.6858030887
 30
0.0
 11
183.5447804991
 21
78.6858030887
 31
0.0
  0
LINE
  5
154
330
1F
100
AcDbEntity
  8
0
  6
HIDDEN
 62
     7
370
     0
100
AcDbLine
 10
130.3447796021
 20
149.9558051409
 30
0.0
 11
130.3447796021
 21
147.1225095274
 31
0.0
  0
LINE
  5
155
330
1F
100
AcDbEntity
  8
0
  6
HIDDEN
 62
     7
370
     0
100
AcDbLine
 10
138.7947810803
 20
149.9558051409
 30
0.0
 11
138.7947810803
 21
147.8143182876
 31
0.0
  0
LINE
  5
156
330
1F
100
AcDbEntity
  8
0
  6
HIDDEN
 62
     7
370
     0
100
AcDbLine
 10
143.7947800372
 20
95.2158046247
 30
0.0
 11
143.7947800372
 21
97.3572914781
 31
0.0
  0
LINE
  5
157
330
1F
100
AcDbEntity
  8
0
  6
HIDDEN
 62
     7
370
     0
100
AcDbLine
 10
130.3447796021
 20
95.2158046247
 30
0.0
 11
130.3447796021
 21
98.0491002383
 31
0.0
  0
LINE
  5
158
330
1F
100
AcDbEntity
  8
0
  6
HIDDEN
 62
     7
370
     0
100
AcDbLine
 10
193.5447802756
 20
166.4858066769
 30
0.0
 11
183.5447804991
 21
166.4858066769
 31
0.0
  0
LINE
  5
159
330
1F
100
AcDbEntity
  8
0
  6
HIDDEN
 62
     7
370
     0
100
AcDbLine
 10
207.5447807077
 20
166.4858066769
 30
0.0
 11
193.5447802756
 21
166.4858066769
 31
0.0
  0
SPLINE
  5
15A
330
1F
100
AcDbEntity
  8
0
  6
HIDDEN
 62
     7
370
     0
100
AcDbSpline
210
0.0
220
0.0
230
1.0
 70
     8
 71
     3
 72
    30
 73
    26
 74
     0
 42
0.00000001
 43
0.00000001
 12
1.0
 22
0.0
 32
0.0
 13
1.0
 23
0.0
 33
0.0
 40
0.0
 40
0.0
 40
0.0
 40
0.0
 40
0.0531240401663427
 40
0.1125059633034734
 40
0.1779044771536229
 40
0.2129291684660692
 40
0.249482983196097
 40
0.2912495815315058
 40
0.3260925652669362
 40
0.3540082316863778
 40
0.3749938635592632
 40
0.4414527454939084
 40
0.5001714423750107
 40
0.554687170274883
 40
0.6144323800359826
 40
0.6794589817133605
 40
0.7140165912277266
 40
0.7499141840851282
 40
0.7913794856826392
 40
0.8260470188003545
 40
0.8539131531854967
 40
0.8749748879388447
 40
0.9411625795851846
 40
0.9999141561346817
 40
1.0
 40
1.0
 40
1.0
 40
1.0
 10
169.5942863810806
 20
85.48588839489298
 30
0.0
 10
169.5780939431998
 20
85.49078650743236
 30
0.0
 10
169.5438016375638
 20
85.50115971827793
 30
0.0
 10
169.2425079229163
 20
85.57681113992511
 30
0.0
 10
168.8003411692445
 20
85.67309808434585
 30
0.0
 10
168.3055087791089
 20
85.77275937734294
 30
0.0
 10
167.8350328319535
 20
85.86503991104593
 30
0.0
 10
167.304111280676
 20
85.9606698419644
 30
0.0
 10
166.7659606575106
 20
86.0463194188153
 30
0.0
 10
166.3079137213664
 20
86.11361363792703
 30
0.0
 10
165.6523489086467
 20
86.20195643813217
 30
0.0
 10
164.7690430645106
 20
86.29862068717978
 30
0.0
 10
163.6403807020051
 20
86.38539220855822
 30
0.0
 10
162.5506191682767
 20
86.42347341454604
 30
0.0
 10
161.4545909836464
 20
86.4253241698868
 30
0.0
 10
160.5491997426346
 20
86.39916231795742
 30
0.0
 10
159.8528962751971
 20
86.36255608077859
 30
0.0
 10
159.3262186763977
 20
86.32353754029876
 30
0.0
 10
158.85956995634
 20
86.28132927396307
 30
0.0
 10
158.4883575376956
 20
86.24432487002046
 30
0.0
 10
158.2343075802329
 20
86.21562360705198
 30
0.0
 10
157.9332599662528
 20
86.1792431965064
 30
0.0
 10
157.6777261672827
 20
86.14644639947872
 30
0.0
 10
157.578628255993
 20
86.13015970551355
 30
0.0
 10
157.5948298141281
 20
86.13271799274175
 30
0.0
 10
157.5948534522204
 20
86.1327217252858
 30
0.0
  0
SPLINE
  5
15B
330
1F
100
AcDbEntity
  8
0
  6
HIDDEN
 62
     7
370
     0
100
AcDbSpline
210
0.0
220
0.0
230
1.0
 70
     8
 71
     3
 72
    30
 73
    26
 74
     0
 42
0.00000001
 43
0.00000001
 12
1.0
 22
0.0
 32
0.0
 13
1.0
 23
0.0
 33
0.0
 40
0.0
 40
0.0
 40
0.0
 40
0.0
 40
0.0001200919095514
 40
0.0285506583744286
 40
0.0588539805007173
 40
0.0910342597638108
 40
0.1250948842948935
 40
0.1546832079468706
 40
0.1963616784359742
 40
0.2501159680942419
 40
0.3205306854173239
 40
0.3856152430713179
 40
0.4454081296857829
 40
0.4999610414546179
 40
0.5283531261477045
 40
0.5586374764582931
 40
0.5908217798003467
 40
0.624912396050169
 40
0.6541871453131051
 40
0.695865386242996
 40
0.7499326779205593
 40
0.8215919070523134
 40
0.8871431649890903
 40
0.9466382823113574
 40
1.0
 40
1.0
 40
1.0
 40
1.0
 10
157.5948832545428
 20
159.0388135345586
 30
0.0
 10
157.5948489757809
 20
159.0388210112683
 30
0.0
 10
157.5866995407071
 20
159.040598524721
 30
0.0
 10
157.6154329162017
 20
159.0351297325607
 30
0.0
 10
157.6887886641326
 20
159.0245937209439
 30
0.0
 10
157.8324558264068
 20
159.0049063646775
 30
0.0
 10
158.0334878108646
 20
158.9800660734292
 30
0.0
 10
158.3161208581031
 20
158.9458555160539
 30
0.0
 10
158.7295279004798
 20
158.9021815391707
 30
0.0
 10
159.4058159541674
 20
158.8391366187256
 30
0.0
 10
160.344247535115
 20
158.7778370477886
 30
0.0
 10
161.4537402857537
 20
158.7465471183372
 30
0.0
 10
162.5512206871399
 20
158.7482090293293
 30
0.0
 10
163.4512522163896
 20
158.7795058533183
 30
0.0
 10
164.1625929485855
 20
158.8263478121716
 30
0.0
 10
164.7280105427726
 20
158.8735071535059
 30
0.0
 10
165.316933080505
 20
158.9329542400795
 30
0.0
 10
165.8813431789173
 20
158.9993052011003
 30
0.0
 10
166.4755394671697
 20
159.0812256616006
 30
0.0
 10
167.1421468134122
 20
159.1828777847559
 30
0.0
 10
167.9434804335311
 20
159.3250106798656
 30
0.0
 10
168.6959902996368
 20
159.4762556912945
 30
0.0
 10
169.2412761010119
 20
159.5941116114057
 30
0.0
 10
169.5439976189702
 20
159.6703348827924
 30
0.0
 10
169.578288707752
 20
159.6807893812756
 30
0.0
 10
169.5945024479179
 20
159.6857325466283
 30
0.0
  0
LINE
  5
15C
330
1F
100
AcDbEntity
  8
0
  6
HIDDEN
 62
     7
370
     0
100
AcDbLine
 10
201.8568100397
 20
161.536765966
 30
0.0
 11
201.8568100397
 21
153.9358065756
 31
0.0
  0
LINE
  5
15D
330
1F
100
AcDbEntity
  8
0
  6
HIDDEN
 62
     7
370
     0
100
AcDbLine
 10
196.684780902
 20
157.3000417383
 30
0.0
 11
196.684780902
 21
153.9358065756
 31
0.0
  0
LINE
  5
15E
330
1F
100
AcDbEntity
  8
0
  6
HIDDEN
 62
     7
370
     0
100
AcDbLine
 10
200.5047811184
 20
157.3000417383
 30
0.0
 11
200.5047811184
 21
153.9358065756
 31
0.0
  0
CIRCLE
  5
15F
330
1F
100
AcDbEntity
  8
0
  6
HIDDEN
 62
     7
370
     0
100
AcDbCircle
 10
185.5947805259
 20
122.5858048828
 30
0.0
 40
5.000000000000014
  0
LINE
  5
160
330
1F
100
AcDbEntity
  8
0
  6
HIDDEN
 62
     7
370
     0
100
AcDbLine
 10
247.5947787974
 20
153.2858048858
 30
0.0
 11
247.5947787974
 21
143.0858054491
 31
0.0
  0
LINE
  5
161
330
1F
100
AcDbEntity
  8
0
  6
HIDDEN
 62
     7
370
     0
100
AcDbLine
 10
257.5947841618
 20
143.0858054491
 30
0.0
 11
257.5947841618
 21
153.2858048858
 31
0.0
  0
LINE
  5
162
330
1F
100
AcDbEntity
  8
0
  6
HIDDEN
 62
     7
370
     0
100
AcDbLine
 10
247.5947787974
 20
143.0858054491
 30
0.0
 11
249.0947818372
 21
141.5858042719
 31
0.0
  0
LINE
  5
163
330
1F
100
AcDbEntity
  8
0
  6
HIDDEN
 62
     7
370
     0
100
AcDbLine
 10
256.094781122
 20
141.5858042719
 30
0.0
 11
257.5947841618
 21
143.0858054491
 31
0.0
  0
LINE
  5
164
330
1F
100
AcDbEntity
  8
0
  6
HIDDEN
 62
     7
370
     0
100
AcDbLine
 10
257.5947841618
 20
153.2858048858
 30
0.0
 11
256.7947780702
 21
154.0858053895
 31
0.0
  0
LINE
  5
165
330
1F
100
AcDbEntity
  8
0
  6
HIDDEN
 62
     7
370
     0
100
AcDbLine
 10
248.3947774384
 20
154.0858053895
 30
0.0
 11
247.5947787974
 21
153.2858048858
 31
0.0
  0
LINE
  5
166
330
1F
100
AcDbEntity
  8
0
  6
HIDDEN
 62
     7
370
     0
100
AcDbLine
 10
255.0947790954
 20
141.5858042719
 30
0.0
 11
252.5947814796
 21
143.0291810365
 31
0.0
  0
LINE
  5
167
330
1F
100
AcDbEntity
  8
0
  6
HIDDEN
 62
     7
370
     0
100
AcDbLine
 10
252.5947814796
 20
143.0291810365
 30
0.0
 11
250.0947838638
 21
141.5858042719
 31
0.0
  0
LINE
  5
168
330
1F
100
AcDbEntity
  8
0
  6
HIDDEN
 62
     7
370
     0
100
AcDbLine
 10
273.0947783206
 20
153.2858048858
 30
0.0
 11
272.2947796796
 21
154.0858053895
 31
0.0
  0
LINE
  5
169
330
1F
100
AcDbEntity
  8
0
  6
HIDDEN
 62
     7
370
     0
100
AcDbLine
 10
263.8947790477
 20
154.0858053895
 30
0.0
 11
263.0947804067
 21
153.2858048858
 31
0.0
  0
LINE
  5
16A
330
1F
100
AcDbEntity
  8
0
  6
HIDDEN
 62
     7
370
     0
100
AcDbLine
 10
263.0947804067
 20
143.0858054491
 30
0.0
 11
264.5947834466
 21
141.5858042719
 31
0.0
  0
LINE
  5
16B
330
1F
100
AcDbEntity
  8
0
  6
HIDDEN
 62
     7
370
     0
100
AcDbLine
 10
271.5947827313
 20
141.5858042719
 30
0.0
 11
273.0947783206
 21
143.0858054491
 31
0.0
  0
LINE
  5
16C
330
1F
100
AcDbEntity
  8
0
  6
HIDDEN
 62
     7
370
     0
100
AcDbLine
 10
263.0947804067
 20
153.2858048858
 30
0.0
 11
263.0947804067
 21
143.0858054491
 31
0.0
  0
LINE
  5
16D
330
1F
100
AcDbEntity
  8
0
  6
HIDDEN
 62
     7
370
     0
100
AcDbLine
 10
273.0947783206
 20
143.0858054491
 30
0.0
 11
273.0947783206
 21
153.2858048858
 31
0.0
  0
LINE
  5
16E
330
1F
100
AcDbEntity
  8
0
  6
HIDDEN
 62
     7
370
     0
100
AcDbLine
 10
270.5947807048
 20
141.5858042719
 30
0.0
 11
268.0947830889
 21
143.0291810365
 31
0.0
  0
LINE
  5
16F
330
1F
100
AcDbEntity
  8
0
  6
HIDDEN
 62
     7
370
     0
100
AcDbLine
 10
268.0947830889
 20
143.0291810365
 30
0.0
 11
265.5947780225
 21
141.5858042719
 31
0.0
  0
LINE
  5
170
330
1F
100
AcDbEntity
  8
0
  6
HIDDEN
 62
     7
370
     0
100
AcDbLine
 10
232.0947809134
 20
143.0858054491
 30
0.0
 11
233.5947802279
 21
141.5858042719
 31
0.0
  0
LINE
  5
171
330
1F
100
AcDbEntity
  8
0
  6
HIDDEN
 62
     7
370
     0
100
AcDbLine
 10
240.5947795127
 20
141.5858042719
 30
0.0
 11
242.0947825525
 21
143.0858054491
 31
0.0
  0
LINE
  5
172
330
1F
100
AcDbEntity
  8
0
  6
HIDDEN
 62
     7
370
     0
100
AcDbLine
 10
232.0947809134
 20
153.2858048858
 30
0.0
 11
232.0947809134
 21
143.0858054491
 31
0.0
  0
LINE
  5
173
330
1F
100
AcDbEntity
  8
0
  6
HIDDEN
 62
     7
370
     0
100
AcDbLine
 10
242.0947825525
 20
143.0858054491
 30
0.0
 11
242.0947825525
 21
153.2858048858
 31
0.0
  0
LINE
  5
174
330
1F
100
AcDbEntity
  8
0
  6
HIDDEN
 62
     7
370
     0
100
AcDbLine
 10
242.0947825525
 20
153.2858048858
 30
0.0
 11
241.2947839115
 21
154.0858053895
 31
0.0
  0
LINE
  5
175
330
1F
100
AcDbEntity
  8
0
  6
HIDDEN
 62
     7
370
     0
100
AcDbLine
 10
232.8947795544
 20
154.0858053895
 30
0.0
 11
232.0947809134
 21
153.2858048858
 31
0.0
  0
LINE
  5
176
330
1F
100
AcDbEntity
  8
0
  6
HIDDEN
 62
     7
370
     0
100
AcDbLine
 10
239.5947812114
 20
141.5858042719
 30
0.0
 11
237.0947798703
 21
143.0291810365
 31
0.0
  0
LINE
  5
177
330
1F
100
AcDbEntity
  8
0
  6
HIDDEN
 62
     7
370
     0
100
AcDbLine
 10
237.0947798703
 20
143.0291810365
 30
0.0
 11
234.5947822545
 21
141.5858042719
 31
0.0
  0
LINE
  5
178
330
1F
100
AcDbEntity
  8
0
  6
HIDDEN
 62
     7
370
     0
100
AcDbLine
 10
178.5947805259
 20
83.1811220678
 30
0.0
 11
178.6843821468
 21
83.8186719747
 31
0.0
  0
LINE
  5
179
330
1F
100
AcDbEntity
  8
0
  6
HIDDEN
 62
     7
370
     0
100
AcDbLine
 10
178.6843821468
 20
161.3529377909
 30
0.0
 11
178.5947805259
 21
161.9904876979
 31
0.0
  0
ARC
  5
17A
330
1F
100
AcDbEntity
  8
0
  6
HIDDEN
 62
     7
370
     0
100
AcDbCircle
 10
177.6978436075
 20
83.9573195584
 30
0.0
 40
0.9962338214386983
100
AcDbArc
 50
352.0
 51
0.0
  0
ARC
  5
17B
330
1F
100
AcDbEntity
  8
0
  6
HIDDEN
 62
     7
370
     0
100
AcDbCircle
 10
177.6978436075
 20
83.9573195584
 30
0.0
 40
0.9962338214386983
100
AcDbArc
 50
0.0
 51
25.7988228126
  0
ARC
  5
17C
330
1F
100
AcDbEntity
  8
0
  6
HIDDEN
 62
     7
370
     0
100
AcDbCircle
 10
177.6978436075
 20
161.2142902073
 30
0.0
 40
0.9962338214387002
100
AcDbArc
 50
348.75
 51
8.0
  0
LWPOLYLINE
  5
17D
330
1F
100
AcDbEntity
  8
0
  6
HIDDEN
 62
     7
370
     0
100
AcDbPolyline
 90
        3
 70
   128
 43
0.0
 10
178.6749350725
 20
161.0199340912
 10
178.6182436448
 20
160.8330474527
 10
178.5947805259
 20
160.7807182999
  0
LINE
  5
17E
330
1F
100
AcDbEntity
  8
0
  6
HIDDEN
 62
     7
370
     0
100
AcDbLine
 10
178.6940774258
 20
83.957319829
 30
0.0
 11
178.6940774258
 21
161.2142899366
 31
0.0
  0
ARC
  5
17F
330
1F
100
AcDbEntity
  8
0
  6
HIDDEN
 62
     7
370
     0
100
AcDbCircle
 10
152.0555064681
 20
92.0858048828
 30
0.0
 40
1.000000000000008
100
AcDbArc
 50
210.0
 51
270.0
  0
ARC
  5
180
330
1F
100
AcDbEntity
  8
0
  6
HIDDEN
 62
     7
370
     0
100
AcDbCircle
 10
152.0555064681
 20
153.0858048828
 30
0.0
 40
1.0
100
AcDbArc
 50
90.0
 51
150.0
  0
ARC
  5
181
330
1F
100
AcDbEntity
  8
0
  6
HIDDEN
 62
     7
370
     0
100
AcDbCircle
 10
168.8479861811
 20
103.0858048828
 30
0.0
 40
11.99999999999999
100
AcDbArc
 50
273.1716061899
 51
324.3146652873
  0
ARC
  5
182
330
1F
100
AcDbEntity
  8
0
  6
HIDDEN
 62
     7
370
     0
100
AcDbCircle
 10
168.8479861811
 20
142.0858048828
 30
0.0
 40
12.0
100
AcDbArc
 50
35.6853347127
 51
86.8289626597
  0
LINE
  5
183
330
1F
100
AcDbEntity
  8
0
  6
HIDDEN
 62
     7
370
     0
100
AcDbLine
 10
152.0555069659
 20
91.0858043762
 30
0.0
 11
157.640611193
 21
91.0858043762
 31
0.0
  0
LINE
  5
184
330
1F
100
AcDbEntity
  8
0
  6
HIDDEN
 62
     7
370
     0
100
AcDbLine
 10
157.640611193
 20
154.0858053895
 30
0.0
 11
152.0555069659
 21
154.0858053895
 31
0.0
  0
LINE
  5
185
330
1F
100
AcDbEntity
  8
0
  6
HIDDEN
 62
     7
370
     0
100
AcDbLine
 10
151.1894812796
 20
153.5858043762
 30
0.0
 11
148.5914042208
 21
149.0858045699
 31
0.0
  0
LINE
  5
186
330
1F
100
AcDbEntity
  8
0
  6
HIDDEN
 62
     7
370
     0
100
AcDbLine
 10
148.5914042208
 20
96.0858051957
 30
0.0
 11
151.1894812796
 21
91.5858053895
 31
0.0
  0
ARC
  5
187
330
1F
100
AcDbEntity
  8
0
  6
HIDDEN
 62
     7
370
     0
100
AcDbCircle
 10
189.0447805259
 20
97.7108048828
 30
0.0
 40
2.000000000000032
100
AcDbArc
 50
234.3409123039
 51
0.0
  0
ARC
  5
188
330
1F
100
AcDbEntity
  8
0
  6
HIDDEN
 62
     7
370
     0
100
AcDbCircle
 10
189.0447805259
 20
147.4608048828
 30
0.0
 40
2.00000000000002
100
AcDbArc
 50
0.0
 51
125.6590876961
  0
LINE
  5
189
330
1F
100
AcDbEntity
  8
0
  6
HIDDEN
 62
     7
370
     0
100
AcDbLine
 10
178.5947805259
 20
96.0858051957
 30
0.0
 11
187.8788577382
 21
96.0858051957
 31
0.0
  0
LINE
  5
18A
330
1F
100
AcDbEntity
  8
0
  6
HIDDEN
 62
     7
370
     0
100
AcDbLine
 10
187.8788577382
 20
149.0858045699
 30
0.0
 11
178.5947805259
 21
149.0858045699
 31
0.0
  0
LINE
  5
18B
330
1F
100
AcDbEntity
  8
0
  6
HIDDEN
 62
     7
370
     0
100
AcDbLine
 10
143.7947800372
 20
96.0858051957
 30
0.0
 11
148.5914042208
 21
96.0858051957
 31
0.0
  0
LINE
  5
18C
330
1F
100
AcDbEntity
  8
0
  6
HIDDEN
 62
     7
370
     0
100
AcDbLine
 10
148.5914042208
 20
149.0858045699
 30
0.0
 11
138.7947810803
 21
149.0858045699
 31
0.0
  0
LINE
  5
18D
330
1F
100
AcDbEntity
  8
0
  6
HIDDEN
 62
     7
370
     0
100
AcDbLine
 10
215.8473035309
 20
143.5858045997
 30
0.0
 11
212.9947816942
 21
143.5858045997
 31
0.0
  0
LINE
  5
18E
330
1F
100
AcDbEntity
  8
0
  6
HIDDEN
 62
     7
370
     0
100
AcDbLine
 10
212.9947816942
 20
101.5858051659
 30
0.0
 11
215.8473035309
 21
101.5858051659
 31
0.0
  0
ARC
  5
18F
330
1F
100
AcDbEntity
  8
0
  6
HIDDEN
 62
     7
370
     0
100
AcDbCircle
 10
212.9947805259
 20
143.1858048828
 30
0.0
 40
0.4000000000000057
100
AcDbArc
 50
90.0
 51
180.0
  0
ARC
  5
190
330
1F
100
AcDbEntity
  8
0
  6
HIDDEN
 62
     7
370
     0
100
AcDbCircle
 10
212.9947805259
 20
101.9858048828
 30
0.0
 40
0.4000000000000199
100
AcDbArc
 50
180.0
 51
270.0
  0
LINE
  5
191
330
1F
100
AcDbEntity
  8
0
  6
HIDDEN
 62
     7
370
     0
100
AcDbLine
 10
215.8473035309
 20
101.5858051659
 30
0.0
 11
218.5947796319
 21
102.5858053299
 31
0.0
  0
LINE
  5
192
330
1F
100
AcDbEntity
  8
0
  6
HIDDEN
 62
     7
370
     0
100
AcDbLine
 10
218.5947796319
 20
142.5858044358
 30
0.0
 11
215.8473035309
 21
143.5858045997
 31
0.0
  0
ARC
  5
193
330
1F
100
AcDbEntity
  8
0
  6
HIDDEN
 62
     7
370
     0
100
AcDbCircle
 10
278.0947805259
 20
143.0858048828
 30
0.0
 40
0.5000000000000568
100
AcDbArc
 50
270.0
 51
0.0
  0
ARC
  5
194
330
1F
100
AcDbEntity
  8
0
  6
HIDDEN
 62
     7
370
     0
100
AcDbCircle
 10
278.0947805259
 20
102.0858048828
 30
0.0
 40
0.5000000000000568
100
AcDbArc
 50
0.0
 51
90.0
  0
LINE
  5
195
330
1F
100
AcDbEntity
  8
0
  6
HIDDEN
 62
     7
370
     0
100
AcDbLine
 10
232.6489290211
 20
142.5858044358
 30
0.0
 11
218.5947796319
 21
142.5858044358
 31
0.0
  0
LINE
  5
196
330
1F
100
AcDbEntity
  8
0
  6
HIDDEN
 62
     7
370
     0
100
AcDbLine
 10
248.1489306305
 20
142.5858044358
 30
0.0
 11
241.5751269076
 21
142.5858044358
 31
0.0
  0
LINE
  5
197
330
1F
100
AcDbEntity
  8
0
  6
HIDDEN
 62
     7
370
     0
100
AcDbLine
 10
263.6489247892
 20
142.5858044358
 30
0.0
 11
257.0751285169
 21
142.5858044358
 31
0.0
  0
LINE
  5
198
330
1F
100
AcDbEntity
  8
0
  6
HIDDEN
 62
     7
370
     0
100
AcDbLine
 10
278.0947810028
 20
142.5858044358
 30
0.0
 11
272.5751301263
 21
142.5858044358
 31
0.0
  0
LINE
  5
199
330
1F
100
AcDbEntity
  8
0
  6
HIDDEN
 62
     7
370
     0
100
AcDbLine
 10
218.5947796319
 20
102.5858053299
 30
0.0
 11
278.0947810028
 21
102.5858053299
 31
0.0
  0
LINE
  5
19A
330
1F
100
AcDbEntity
  8
0
  6
HIDDEN
 62
     7
370
     0
100
AcDbLine
 10
202.8947802249
 20
109.5858046146
 30
0.0
 11
206.8947808806
 21
109.5858046146
 31
0.0
  0
LINE
  5
19B
330
1F
100
AcDbEntity
  8
0
  6
HIDDEN
 62
     7
370
     0
100
AcDbLine
 10
206.8947808806
 20
135.585805151
 30
0.0
 11
202.8947802249
 21
135.585805151
 31
0.0
  0
LINE
  5
19C
330
1F
100
AcDbEntity
  8
0
  6
HIDDEN
 62
     7
370
     0
100
AcDbLine
 10
191.0447807971
 20
110.5858047785
 30
0.0
 11
191.7947804544
 21
111.3358044358
 31
0.0
  0
LINE
  5
19D
330
1F
100
AcDbEntity
  8
0
  6
HIDDEN
 62
     7
370
     0
100
AcDbLine
 10
191.7947804544
 20
133.8358053299
 30
0.0
 11
191.0447807971
 21
134.5858049871
 31
0.0
  0
LINE
  5
19E
330
1F
100
AcDbEntity
  8
0
  6
HIDDEN
 62
     7
370
     0
100
AcDbLine
 10
191.7947804544
 20
111.3358044358
 30
0.0
 11
202.8947802249
 21
111.3358044358
 31
0.0
  0
LINE
  5
19F
330
1F
100
AcDbEntity
  8
0
  6
HIDDEN
 62
     7
370
     0
100
AcDbLine
 10
202.8947802249
 20
133.8358053299
 30
0.0
 11
191.7947804544
 21
133.8358053299
 31
0.0
  0
LINE
  5
1A0
330
1F
100
AcDbEntity
  8
0
  6
HIDDEN
 62
     7
370
     0
100
AcDbLine
 10
183.5447804991
 20
172.5858056279
 30
0.0
 11
183.5447804991
 21
166.4858066769
 31
0.0
  0
LINE
  5
1A1
330
1F
100
AcDbEntity
  8
0
  6
HIDDEN
 62
     7
370
     0
100
AcDbLine
 10
170.0274929393
 20
85.0075238677
 30
0.0
 11
169.5947837073
 21
85.4857505592
 31
0.0
  0
LINE
  5
1A2
330
1F
100
AcDbEntity
  8
0
  6
HIDDEN
 62
     7
370
     0
100
AcDbLine
 10
157.5947808091
 20
86.1327105494
 30
0.0
 11
157.114153168
 21
85.6544875832
 31
0.0
  0
LINE
  5
1A3
330
1F
100
AcDbEntity
  8
0
  6
HIDDEN
 62
     7
370
     0
100
AcDbLine
 10
157.1140358213
 20
159.5171184571
 30
0.0
 11
157.5947808091
 21
159.0388358863
 31
0.0
  0
LINE
  5
1A4
330
1F
100
AcDbEntity
  8
0
  6
HIDDEN
 62
     7
370
     0
100
AcDbLine
 10
169.5947809134
 20
159.6858107777
 30
0.0
 11
170.027601904
 21
160.1640896233
 31
0.0
  0
LINE
  5
1A5
330
1F
100
AcDbEntity
  8
0
  6
HIDDEN
 62
     7
370
     0
100
AcDbLine
 10
169.5947809134
 20
85.3856222065
 30
0.0
 11
169.5947809134
 21
91.1199280353
 31
0.0
  0
LINE
  5
1A6
330
1F
100
AcDbEntity
  8
0
  6
HIDDEN
 62
     7
370
     0
100
AcDbLine
 10
157.5947808091
 20
91.0942831369
 30
0.0
 11
157.5947808091
 21
86.1327515276
 31
0.0
  0
LINE
  5
1A7
330
1F
100
AcDbEntity
  8
0
  6
HIDDEN
 62
     7
370
     0
100
AcDbLine
 10
169.5947809134
 20
154.0516817303
 30
0.0
 11
169.5947809134
 21
159.7858124705
 31
0.0
  0
LINE
  5
1A8
330
1F
100
AcDbEntity
  8
0
  6
HIDDEN
 62
     7
370
     0
100
AcDbLine
 10
157.5947808091
 20
159.0388284357
 30
0.0
 11
157.5947808091
 21
154.0773266287
 31
0.0
  0
LINE
  5
1A9
330
1F
100
AcDbEntity
  8
0
  6
HIDDEN
 62
     7
370
     0
100
AcDbLine
 10
206.8947808806
 20
116.5858048307
 30
0.0
 11
212.5947823737
 21
116.5858048307
 31
0.0
  0
LINE
  5
1AA
330
1F
100
AcDbEntity
  8
0
  6
HIDDEN
 62
     7
370
     0
100
AcDbLine
 10
212.5947823737
 20
128.585804935
 30
0.0
 11
206.8947808806
 21
128.585804935
 31
0.0
  0
LINE
  5
1AB
330
1F
100
AcDbEntity
  8
0
  6
HIDDEN
 62
     7
370
     0
100
AcDbLine
 10
263.59478142
 20
154.0858053895
 30
0.0
 11
263.59478142
 21
142.5737847866
 31
0.0
  0
LINE
  5
1AC
330
1F
100
AcDbEntity
  8
0
  6
HIDDEN
 62
     7
370
     0
100
AcDbLine
 10
272.5947773073
 20
142.581546429
 30
0.0
 11
272.5947773073
 21
154.0858053895
 31
0.0
  0
LINE
  5
1AD
330
1F
100
AcDbEntity
  8
0
  6
HIDDEN
 62
     7
370
     0
100
AcDbLine
 10
248.0947798107
 20
154.0858053895
 30
0.0
 11
248.0947798107
 21
142.5737847866
 31
0.0
  0
LINE
  5
1AE
330
1F
100
AcDbEntity
  8
0
  6
HIDDEN
 62
     7
370
     0
100
AcDbLine
 10
257.0947831485
 20
142.581546429
 30
0.0
 11
257.0947831485
 21
154.0858053895
 31
0.0
  0
LINE
  5
1AF
330
1F
100
AcDbEntity
  8
0
  6
HIDDEN
 62
     7
370
     0
100
AcDbLine
 10
232.5947819266
 20
154.0858053895
 30
0.0
 11
232.5947819266
 21
142.5737847866
 31
0.0
  0
LINE
  5
1B0
330
1F
100
AcDbEntity
  8
0
  6
HIDDEN
 62
     7
370
     0
100
AcDbLine
 10
241.5947815392
 20
142.581546429
 30
0.0
 11
241.5947815392
 21
154.0858053895
 31
0.0
  0
DIMENSION
  5
1B1
330
1F
100
AcDbEntity
  8
VERMASSUNG
100
AcDbDimension
  2
_D
 10
120.8115744399
 20
72.5858048828
 30
0.0
 11
120.8115744399
 21
122.0039570056
 31
0.0
 70
   160
  1
HSK T %%c<>
 71
     2
 42
-1.0
  3
SLDDIMSTYLE0
100
AcDbAlignedDimension
 13
179.0947805259
 23
172.5858048828
 33
0.0
 14
179.0947805259
 24
72.5858048828
 34
0.0
 50
90.0
100
AcDbRotatedDimension
  0
DIMENSION
  5
1BE
330
1F
100
AcDbEntity
  8
VERMASSUNG
100
AcDbDimension
  2
_D_1
 10
128.6947805259
 20
190.2922195586
 30
0.0
 11
210.663143339
 21
190.2922195586
 31
0.0
 70
   160
  1
<>
 71
     2
 42
-1.0
  3
SLDDIMSTYLE0
100
AcDbAlignedDimension
 13
278.5947805259
 23
153.0858048828
 33
0.0
 14
128.6947805259
 24
153.0884746254
 34
0.0
100
AcDbRotatedDimension
  0
DIMENSION
  5
1C8
330
1F
100
AcDbEntity
  8
VERMASSUNG
100
AcDbDimension
  2
_D_2
 10
278.5947805259
 20
184.2922195586
 30
0.0
 11
227.321538453
 21
184.2922195586
 31
0.0
 70
   160
  1
<>
 71
     2
 42
-1.0
  3
SLDDIMSTYLE0
100
AcDbAlignedDimension
 13
178.5947805259
 23
172.0858048828
 33
0.0
 14
278.5947805259
 24
153.0858048828
 34
0.0
100
AcDbRotatedDimension
  0
DIMENSION
  5
1D2
330
1F
100
AcDbEntity
  8
VERMASSUNG
100
AcDbDimension
  2
_D_3
 10
278.5947805259
 20
178.2922195586
 30
0.0
 11
245.0117190355
 21
178.2922195586
 31
0.0
 70
   160
  1
<>
 71
     2
 42
-1.0
  3
SLDDIMSTYLE0
100
AcDbAlignedDimension
 13
207.5447805259
 23
170.5545447037
 33
0.0
 14
278.5947805259
 24
153.0858048828
 34
0.0
100
AcDbRotatedDimension
  0
DIMENSION
  5
1DC
330
1F
100
AcDbEntity
  8
VERMASSUNG
100
AcDbDimension
  2
_D_4
 10
278.5947805259
 20
83.1290315607
 30
0.0
 11
273.4286768289
 21
83.1290315607
 31
0.0
 70
   160
  1
<>
 71
     2
 42
-1.0
  3
SLDDIMSTYLE0
100
AcDbAlignedDimension
 13
268.0947805259
 23
141.0858048828
 33
0.0
 14
278.5947805259
 24
92.0858048828
 34
0.0
100
AcDbRotatedDimension
  0
DIMENSION
  5
1E6
330
1F
100
AcDbEntity
  8
VERMASSUNG
100
AcDbDimension
  2
_D_5
 10
268.0947805259
 20
83.1290315607
 30
0.0
 11
260.4439103143
 21
83.1290315607
 31
0.0
 70
   160
  1
<>
 71
     2
 42
-1.0
  3
SLDDIMSTYLE0
100
AcDbAlignedDimension
 13
252.5947805259
 23
141.0858048828
 33
0.0
 14
268.0947805259
 24
141.0858048828
 34
0.0
100
AcDbRotatedDimension
  0
DIMENSION
  5
1F0
330
1F
100
AcDbEntity
  8
VERMASSUNG
100
AcDbDimension
  2
_D_6
 10
252.5947805259
 20
83.1290315607
 30
0.0
 11
244.6788706367
 21
83.1290315607
 31
0.0
 70
   160
  1
<>
 71
     2
 42
-1.0
  3
SLDDIMSTYLE0
100
AcDbAlignedDimension
 13
237.0947805259
 23
141.0858048828
 33
0.0
 14
252.5947805259
 24
141.0858048828
 34
0.0
100
AcDbRotatedDimension
  0
DIMENSION
  5
1FA
330
1F
100
AcDbEntity
  8
VERMASSUNG
100
AcDbDimension
  2
_D_7
 10
278.5947805259
 20
77.1290315607
 30
0.0
 11
246.9176212408
 21
77.1290315607
 31
0.0
 70
   160
  1
<>
 71
     2
 42
-1.0
  3
SLDDIMSTYLE0
100
AcDbAlignedDimension
 13
212.5947805259
 23
101.9858048828
 33
0.0
 14
278.5947805259
 24
92.0858048828
 34
0.0
100
AcDbRotatedDimension
  0
DIMENSION
  5
204
330
1F
100
AcDbEntity
  8
VERMASSUNG
100
AcDbDimension
  2
_D_8
 10
291.0571633158
 20
91.0858048828
 30
0.0
 11
291.0571633158
 21
122.3136566072
 31
0.0
 70
   160
  1
%%c<>
 71
     2
 42
-1.0
  3
SLDDIMSTYLE0
100
AcDbAlignedDimension
 13
277.5947805259
 23
154.0858048828
 33
0.0
 14
277.5947805259
 24
91.0858048828
 34
0.0
 50
90.0
100
AcDbRotatedDimension
  0
DIMENSION
  5
20F
330
1F
100
AcDbEntity
  8
VERMASSUNG
100
AcDbDimension
  2
_D_9
 10
285.0571633158
 20
102.5858048828
 30
0.0
 11
285.0571633158
 21
122.0107042327
 31
0.0
 70
   160
  1
%%c<>
 71
     2
 42
-1.0
  3
SLDDIMSTYLE0
100
AcDbAlignedDimension
 13
278.0947805259
 23
142.5858048828
 33
0.0
 14
278.0947805259
 24
102.5858048828
 34
0.0
 50
90.0
100
AcDbRotatedDimension
  0
LINE
  5
21A
330
1F
100
AcDbEntity
  8
VERMASSUNG
  6
CENTERX2
 62
     7
370
     0
100
AcDbLine
 10
126.3874314755
 20
122.5858048828
 30
0.0
 11
280.5051731501
 21
122.5858048828
 31
0.0
  0
LINE
  5
21B
330
1F
100
AcDbEntity
  8
VERMASSUNG
  6
CENTERX2
370
     0
100
AcDbLine
 10
237.0947805259
 20
141.0858048828
 30
0.0
 11
237.0947805259
 21
155.2858048828
 31
0.0
  0
LINE
  5
21C
330
1F
100
AcDbEntity
  8
VERMASSUNG
  6
CENTERX2
370
     0
100
AcDbLine
 10
252.5947805259
 20
141.0858048828
 30
0.0
 11
252.5947805259
 21
155.2858048828
 31
0.0
  0
LINE
  5
21D
330
1F
100
AcDbEntity
  8
VERMASSUNG
  6
CENTERX2
370
     0
100
AcDbLine
 10
268.0947805259
 20
141.0858048828
 30
0.0
 11
268.0947805259
 21
155.2858048828
 31
0.0
  0
LINE
  5
21E
330
1F
100
AcDbEntity
  8
0
  6
Continuous
 62
     7
370
    15
100
AcDbLine
 10
54.3252195332
 20
142.1653234692
 30
0.0
 11
54.9047377992
 21
141.5858042719
 31
0.0
  0
LINE
  5
21F
330
1F
100
AcDbEntity
  8
0
  6
Continuous
 62
     7
370
    15
100
AcDbLine
 10
61.9047380153
 20
141.5858042719
 30
0.0
 11
62.4842562813
 21
142.1653234692
 31
0.0
  0
LINE
  5
220
330
1F
100
AcDbEntity
  8
0
  6
Continuous
 62
     7
370
    15
100
AcDbLine
 10
62.9317316327
 20
153.7588105829
 30
0.0
 11
62.6047377575
 21
154.0858053895
 31
0.0
  0
LINE
  5
221
330
1F
100
AcDbEntity
  8
0
  6
Continuous
 62
     7
370
    15
100
AcDbLine
 10
54.204738057
 20
154.0858053895
 30
0.0
 11
53.8777441818
 21
153.7588105829
 31
0.0
  0
LINE
  5
222
330
1F
100
AcDbEntity
  8
0
  6
Continuous
 62
     7
370
    15
100
AcDbLine
 10
38.8252193209
 20
118.5062865088
 30
0.0
 11
39.4047385182
 21
119.0858047748
 31
0.0
  0
LINE
  5
223
330
1F
100
AcDbEntity
  8
0
  6
Continuous
 62
     7
370
    15
100
AcDbLine
 10
39.4047385182
 20
126.0858049909
 30
0.0
 11
38.8252193209
 21
126.6653232569
 31
0.0
  0
LINE
  5
224
330
1F
100
AcDbEntity
  8
0
  6
Continuous
 62
     7
370
    15
100
AcDbLine
 10
27.2317322072
 20
127.1127986083
 30
0.0
 11
26.9047374006
 21
126.7858047331
 31
0.0
  0
LINE
  5
225
330
1F
100
AcDbEntity
  8
0
  6
Continuous
 62
     7
370
    15
100
AcDbLine
 10
26.9047374006
 20
118.3858050326
 30
0.0
 11
27.2317322072
 21
118.0588111574
 31
0.0
  0
LINE
  5
226
330
1F
100
AcDbEntity
  8
0
  6
Continuous
 62
     7
370
    15
100
AcDbLine
 10
89.5777436074
 20
118.0588111574
 30
0.0
 11
89.9047384139
 21
118.3858050326
 31
0.0
  0
LINE
  5
227
330
1F
100
AcDbEntity
  8
0
  6
Continuous
 62
     7
370
    15
100
AcDbLine
 10
89.9047384139
 20
126.7858047331
 30
0.0
 11
89.5777436074
 21
127.1127986083
 31
0.0
  0
LINE
  5
228
330
1F
100
AcDbEntity
  8
0
  6
Continuous
 62
     7
370
    15
100
AcDbLine
 10
77.9842564937
 20
126.6653232569
 30
0.0
 11
77.4047372963
 21
126.0858049909
 31
0.0
  0
LINE
  5
229
330
1F
100
AcDbEntity
  8
0
  6
Continuous
 62
     7
370
    15
100
AcDbLine
 10
77.4047372963
 20
119.0858047748
 30
0.0
 11
77.9842564937
 21
118.5062865088
 31
0.0
  0
LINE
  5
22A
330
1F
100
AcDbEntity
  8
0
  6
Continuous
 62
     7
370
    15
100
AcDbLine
 10
54.9047377992
 20
141.5858042719
 30
0.0
 11
61.9047380153
 21
141.5858042719
 31
0.0
  0
LINE
  5
22B
330
1F
100
AcDbEntity
  8
0
  6
Continuous
 62
     7
370
    15
100
AcDbLine
 10
54.204738057
 20
154.0858053895
 30
0.0
 11
62.6047377575
 21
154.0858053895
 31
0.0
  0
LINE
  5
22C
330
1F
100
AcDbEntity
  8
0
  6
Continuous
 62
     7
370
    15
100
AcDbLine
 10
39.4047385182
 20
119.0858047748
 30
0.0
 11
39.4047385182
 21
126.0858049909
 31
0.0
  0
LINE
  5
22D
330
1F
100
AcDbEntity
  8
0
  6
Continuous
 62
     7
370
    15
100
AcDbLine
 10
26.9047374006
 20
118.3858050326
 30
0.0
 11
26.9047374006
 21
126.7858047331
 31
0.0
  0
LINE
  5
22E
330
1F
100
AcDbEntity
  8
0
  6
Continuous
 62
     7
370
    15
100
AcDbLine
 10
89.9047384139
 20
126.7858047331
 30
0.0
 11
89.9047384139
 21
118.3858050326
 31
0.0
  0
LINE
  5
22F
330
1F
100
AcDbEntity
  8
0
  6
Continuous
 62
     7
370
    15
100
AcDbLine
 10
77.4047372963
 20
126.0858049909
 30
0.0
 11
77.4047372963
 21
119.0858047748
 31
0.0
  0
CIRCLE
  5
230
330
1F
100
AcDbEntity
  8
0
  6
Continuous
 62
     7
370
    15
100
AcDbCircle
 10
58.4047379073
 20
122.5858048828
 30
0.0
 40
31.5
  0
CIRCLE
  5
231
330
1F
100
AcDbEntity
  8
0
  6
Continuous
 62
     7
370
    15
100
AcDbCircle
 10
58.4047379073
 20
122.5858048828
 30
0.0
 40
19.99999999999999
  0
CIRCLE
  5
232
330
1F
100
AcDbEntity
  8
0
  6
Continuous
 62
     7
370
    15
100
AcDbCircle
 10
58.4047379073
 20
122.5858048828
 30
0.0
 40
5.999999999999986
  0
SPLINE
  5
233
330
1F
100
AcDbEntity
  8
0
  6
Continuous
 62
     7
370
    15
100
AcDbSpline
210
0.0
220
0.0
230
1.0
 70
    24
 71
     3
 72
    12
 73
     8
 74
     0
 42
0.00000001
 43
0.00000001
 12
1.0
 22
0.0
 32
0.0
 13
1.0
 23
0.0
 33
0.0
 40
0.0
 40
0.0
 40
0.0
 40
0.0
 40
0.4999999999999953
 40
0.4999999999999953
 40
0.7499999999999977
 40
0.7499999999999977
 40
1.0
 40
1.0
 40
1.0
 40
1.0
 10
48.40473790727417
 20
170.554544703671
 30
0.0
 10
48.40473790727417
 20
170.8198141364374
 30
0.0
 10
48.40473790727418
 20
171.0823292420898
 30
0.0
 10
48.40473790727417
 20
171.3678668481271
 30
0.0
 10
48.40473790727417
 20
171.4441884649885
 30
0.0
 10
48.40473790727417
 20
171.5485306298286
 30
0.0
 10
48.40473790727417
 20
171.5755997384888
 30
0.0
 10
48.40473790727417
 20
171.5755997384888
 30
0.0
  0
SPLINE
  5
234
330
1F
100
AcDbEntity
  8
0
  6
Continuous
 62
     7
370
    15
100
AcDbSpline
210
0.0
220
0.0
230
1.0
 70
    24
 71
     3
 72
    16
 73
    12
 74
     0
 42
0.00000001
 43
0.00000001
 12
1.0
 22
0.0
 32
0.0
 13
1.0
 23
0.0
 33
0.0
 40
0.0
 40
0.0
 40
0.0
 40
0.0
 40
0.1249999999999978
 40
0.1249999999999978
 40
0.2499999999999955
 40
0.2499999999999955
 40
0.499999999999997
 40
0.499999999999997
 40
0.7499999999999984
 40
0.7499999999999984
 40
1.0
 40
1.0
 40
1.0
 40
1.0
 10
27.05473790727417
 20
161.5367676437121
 30
0.0
 10
27.05473790727417
 20
161.5367676437121
 30
0.0
 10
27.05473790727417
 20
161.5254226435772
 30
0.0
 10
27.05473790727417
 20
161.4827700929387
 30
0.0
 10
27.05473790727416
 20
161.4518357682558
 30
0.0
 10
27.05473790727417
 20
161.3325793964882
 30
0.0
 10
27.05473790727416
 20
161.2224273828677
 30
0.0
 10
27.05473790727416
 20
160.9742912972096
 30
0.0
 10
27.05473790727416
 20
160.8339489732059
 30
0.0
 10
27.05473790727417
 20
160.5456772817172
 30
0.0
 10
27.05473790727418
 20
160.3948723087374
 30
0.0
 10
27.05473790727417
 20
160.2445024173921
 30
0.0
  0
ARC
  5
235
330
1F
100
AcDbEntity
  8
0
  6
Continuous
 62
     7
370
    15
100
AcDbCircle
 10
58.4047379073
 20
122.5858048828
 30
0.0
 40
49.99999999999999
100
AcDbArc
 50
101.5369590328
 51
128.8291331614
  0
SPLINE
  5
236
330
1F
100
AcDbEntity
  8
0
  6
Continuous
 62
     7
370
    15
100
AcDbSpline
210
0.0
220
0.0
230
1.0
 70
    24
 71
     3
 72
    14
 73
    10
 74
     0
 42
0.00000001
 43
0.00000001
 12
1.0
 22
0.0
 32
0.0
 13
1.0
 23
0.0
 33
0.0
 40
0.0
 40
0.0
 40
0.0
 40
0.0
 40
0.25
 40
0.25
 40
0.5
 40
0.5
 40
0.75
 40
0.75
 40
1.0
 40
1.0
 40
1.0
 40
1.0
 10
47.40473790727417
 20
74.83645933757188
 30
0.0
 10
47.40473790727418
 20
74.70303364151734
 30
0.0
 10
47.40473790727417
 20
74.571185833673
 30
0.0
 10
47.40473790727418
 20
74.32466328497888
 30
0.0
 10
47.40473790727417
 20
74.21085809673836
 30
0.0
 10
47.40473790727417
 20
74.02040091979107
 30
0.0
 10
47.40473790727417
 20
73.94276605594116
 30
0.0
 10
47.40473790727417
 20
73.83847464582868
 30
0.0
 10
47.40473790727417
 20
73.81081128979633
 30
0.0
 10
47.40473790727417
 20
73.81081128979635
 30
0.0
  0
ARC
  5
237
330
1F
100
AcDbEntity
  8
0
  6
Continuous
 62
     7
370
    15
100
AcDbCircle
 10
58.4047379073
 20
122.5858048828
 30
0.0
 40
49.99999999999999
100
AcDbArc
 50
141.1708668386
 51
257.2909670056
  0
SPLINE
  5
238
330
1F
100
AcDbEntity
  8
0
  6
Continuous
 62
     7
370
    15
100
AcDbSpline
210
0.0
220
0.0
230
1.0
 70
    24
 71
     3
 72
    12
 73
     8
 74
     0
 42
0.00000001
 43
0.00000001
 12
1.0
 22
0.0
 32
0.0
 13
1.0
 23
0.0
 33
0.0
 40
0.0
 40
0.0
 40
0.0
 40
0.0
 40
0.2500000000000032
 40
0.2500000000000032
 40
0.5000000000000064
 40
0.5000000000000064
 40
1.0
 40
1.0
 40
1.0
 40
1.0
 10
19.45377514638725
 20
153.9358048828252
 30
0.0
 10
19.45377514638725
 20
153.9358048828252
 30
0.0
 10
19.49951393306074
 20
153.9358048828252
 30
0.0
 10
19.65674862498674
 20
153.9358048828252
 30
0.0
 10
19.76741783926559
 20
153.9358048828252
 30
0.0
 10
20.14085458714511
 20
153.9358048828252
 30
0.0
 10
20.44521836046498
 20
153.9358048828252
 30
0.0
 10
20.74604037270721
 20
153.9358048828252
 30
0.0
  0
SPLINE
  5
239
330
1F
100
AcDbEntity
  8
0
  6
Continuous
 62
     7
370
    15
100
AcDbSpline
210
0.0
220
0.0
230
1.0
 70
    24
 71
     3
 72
    14
 73
    10
 74
     0
 42
0.00000001
 43
0.00000001
 12
1.0
 22
0.0
 32
0.0
 13
1.0
 23
0.0
 33
0.0
 40
0.0
 40
0.0
 40
0.0
 40
0.0
 40
0.25
 40
0.25
 40
0.5
 40
0.5
 40
0.75
 40
0.75
 40
1.0
 40
1.0
 40
1.0
 40
1.0
 10
68.40473790727418
 20
171.5755997384888
 30
0.0
 10
68.40473790727418
 20
171.5755997384887
 30
0.0
 10
68.40473790727418
 20
171.5477932910403
 30
0.0
 10
68.40473790727418
 20
171.4439342815763
 30
0.0
 10
68.40473790727418
 20
171.3667432730038
 30
0.0
 10
68.40473790727418
 20
171.1775961952909
 30
0.0
 10
68.40473790727418
 20
171.0638919755882
 30
0.0
 10
68.40473790727418
 20
170.8190932085529
 30
0.0
 10
68.40473790727418
 20
170.6869643946231
 30
0.0
 10
68.40473790727418
 20
170.554544703671
 30
0.0
  0
ARC
  5
23A
330
1F
100
AcDbEntity
  8
0
  6
Continuous
 62
     7
370
    15
100
AcDbCircle
 10
58.4047379073
 20
122.5858048828
 30
0.0
 40
50.0
100
AcDbArc
 50
282.7090329944
 51
78.4630409672
  0
SPLINE
  5
23B
330
1F
100
AcDbEntity
  8
0
  6
Continuous
 62
     7
370
    15
100
AcDbSpline
210
0.0
220
0.0
230
1.0
 70
    24
 71
     3
 72
    14
 73
    10
 74
     0
 42
0.00000001
 43
0.00000001
 12
1.0
 22
0.0
 32
0.0
 13
1.0
 23
0.0
 33
0.0
 40
0.0
 40
0.0
 40
0.0
 40
0.0
 40
0.25
 40
0.25
 40
0.5
 40
0.5
 40
0.75
 40
0.75
 40
1.0
 40
1.0
 40
1.0
 40
1.0
 10
69.40473790727418
 20
73.81081128979639
 30
0.0
 10
69.40473790727418
 20
73.81081128979639
 30
0.0
 10
69.40473790727418
 20
73.83827726639886
 30
0.0
 10
69.40473790727418
 20
73.94337082316552
 30
0.0
 10
69.40473790727418
 20
74.0208682458511
 30
0.0
 10
69.40473790727418
 20
74.21135185918727
 30
0.0
 10
69.40473790727418
 20
74.3257529088628
 30
0.0
 10
69.40473790727418
 20
74.57101480732564
 30
0.0
 10
69.40473790727418
 20
74.70427400214442
 30
0.0
 10
69.40473790727418
 20
74.83645933757276
 30
0.0
  0
LINE
  5
23C
330
1F
100
AcDbEntity
  8
0
  6
Continuous
 62
     7
370
    15
100
AcDbLine
 10
68.4047376838
 20
166.4858066769
 30
0.0
 11
48.4047381308
 21
166.4858066769
 31
0.0
  0
LINE
  5
23D
330
1F
100
AcDbEntity
  8
0
  6
Continuous
 62
     7
370
    15
100
AcDbLine
 10
69.4047378477
 20
78.6858030887
 30
0.0
 11
47.4047379669
 21
78.6858030887
 31
0.0
  0
LINE
  5
23E
330
1F
100
AcDbEntity
  8
0
  6
Continuous
 62
     7
370
    15
100
AcDbLine
 10
69.4047378477
 20
74.8364606233
 30
0.0
 11
69.4047378477
 21
78.6858030887
 31
0.0
  0
LINE
  5
23F
330
1F
100
AcDbEntity
  8
0
  6
Continuous
 62
     7
370
    15
100
AcDbLine
 10
68.4047376838
 20
170.5545463892
 30
0.0
 11
68.4047376838
 21
166.4858066769
 31
0.0
  0
LINE
  5
240
330
1F
100
AcDbEntity
  8
0
  6
Continuous
 62
     7
370
    15
100
AcDbLine
 10
48.4047381308
 20
166.4858066769
 30
0.0
 11
48.4047381308
 21
170.5545463892
 31
0.0
  0
LINE
  5
241
330
1F
100
AcDbEntity
  8
0
  6
Continuous
 62
     7
370
    15
100
AcDbLine
 10
47.4047379669
 20
78.6858030887
 30
0.0
 11
47.4047379669
 21
74.8364606233
 31
0.0
  0
LINE
  5
242
330
1F
100
AcDbEntity
  8
0
  6
Continuous
 62
     7
370
    15
100
AcDbLine
 10
20.7460390504
 20
153.9358065756
 30
0.0
 11
27.0547362145
 21
153.9358065756
 31
0.0
  0
LINE
  5
243
330
1F
100
AcDbEntity
  8
0
  6
Continuous
 62
     7
370
    15
100
AcDbLine
 10
27.0547362145
 20
160.2445037397
 30
0.0
 11
27.0547362145
 21
153.9358065756
 31
0.0
  0
SPLINE
  5
244
330
1F
100
AcDbEntity
  8
0
  6
Continuous
 62
     7
370
    15
100
AcDbSpline
210
0.0
220
0.0
230
1.0
 70
     8
 71
     3
 72
    30
 73
    26
 74
     0
 42
0.00000001
 43
0.00000001
 12
1.0
 22
0.0
 32
0.0
 13
1.0
 23
0.0
 33
0.0
 40
0.0
 40
0.0
 40
0.0
 40
0.0
 40
0.1249999999999996
 40
0.1249999999999996
 40
0.1874999999999994
 40
0.1874999999999994
 40
0.2499999999999993
 40
0.2499999999999993
 40
0.3749999999999992
 40
0.3749999999999992
 40
0.4374999999999993
 40
0.4374999999999993
 40
0.4999999999999994
 40
0.4999999999999994
 40
0.6249999999999992
 40
0.6249999999999992
 40
0.6874999999999993
 40
0.6874999999999993
 40
0.7499999999999994
 40
0.7499999999999994
 40
0.8124999999999997
 40
0.8124999999999997
 40
0.8749999999999998
 40
0.8749999999999998
 40
1.0
 40
1.0
 40
1.0
 40
1.0
 10
59.40473790727418
 20
72.59580588302522
 30
0.0
 10
60.06734070509119
 20
72.60906059018815
 30
0.0
 10
60.71826480468653
 20
72.63524546097273
 30
0.0
 10
61.67798357258425
 20
72.69203211377321
 30
0.0
 10
61.99509193221904
 20
72.71388166464871
 30
0.0
 10
62.62361884442583
 20
72.76311516074911
 30
0.0
 10
62.93558477451425
 20
72.79058754950263
 30
0.0
 10
63.84246210050905
 20
72.87866127119595
 30
0.0
 10
64.4155795442897
 20
72.94540812717598
 30
0.0
 10
65.22899961918209
 20
73.05294453842073
 30
0.0
 10
65.49355461119846
 20
73.09020483192937
 30
0.0
 10
66.00081729860615
 20
73.1655122436607
 30
0.0
 10
66.24236157124017
 20
73.2033596686795
 30
0.0
 10
66.93189160073716
 20
73.31609197527624
 30
0.0
 10
67.34512239435462
 20
73.3901955803606
 30
0.0
 10
67.89350210351589
 20
73.49407476071076
 30
0.0
 10
68.06345685705618
 20
73.52733051376926
 30
0.0
 10
68.37203744612326
 20
73.58909377816985
 30
0.0
 10
68.51163309231401
 20
73.61778476972017
 30
0.0
 10
68.76175684154767
 20
73.67007650356112
 30
0.0
 10
68.8722854050403
 20
73.69367831446795
 30
0.0
 10
69.06373167625438
 20
73.73505828845784
 30
0.0
 10
69.14492956350563
 20
73.75289901510229
 30
0.0
 10
69.33949629326655
 20
73.79596261792496
 30
0.0
 10
69.40473790727418
 20
73.81081128979638
 30
0.0
 10
69.40473790727418
 20
73.81081128979639
 30
0.0
  0
SPLINE
  5
245
330
1F
100
AcDbEntity
  8
0
  6
Continuous
 62
     7
370
    15
100
AcDbSpline
210
0.0
220
0.0
230
1.0
 70
     8
 71
     3
 72
    30
 73
    26
 74
     0
 42
0.00000001
 43
0.00000001
 12
1.0
 22
0.0
 32
0.0
 13
1.0
 23
0.0
 33
0.0
 40
0.0
 40
0.0
 40
0.0
 40
0.0
 40
0.1250000000000002
 40
0.1250000000000002
 40
0.1875000000000003
 40
0.1875000000000003
 40
0.2500000000000004
 40
0.2500000000000004
 40
0.3750000000000001
 40
0.3750000000000001
 40
0.4374999999999998
 40
0.4374999999999998
 40
0.4999999999999996
 40
0.4999999999999996
 40
0.6249999999999996
 40
0.6249999999999996
 40
0.6874999999999997
 40
0.6874999999999997
 40
0.7499999999999997
 40
0.7499999999999997
 40
0.8124999999999998
 40
0.8124999999999998
 40
0.8749999999999999
 40
0.8749999999999999
 40
1.0
 40
1.0
 40
1.0
 40
1.0
 10
47.40473790727418
 20
73.81081128979639
 30
0.0
 10
47.40473790727418
 20
73.81081128979639
 30
0.0
 10
47.4699672810415
 20
73.79597121320758
 30
0.0
 10
47.66135869645046
 20
73.75360164897796
 30
0.0
 10
47.74086472610234
 20
73.73612354619878
 30
0.0
 10
47.93197628770546
 20
73.69479525964648
 30
0.0
 10
48.04396516927928
 20
73.67086998618876
 30
0.0
 10
48.42079214278862
 20
73.59206346972186
 30
0.0
 10
48.72793949248775
 20
73.5297574497454
 30
0.0
 10
49.27186348214529
 20
73.42662812950604
 30
0.0
 10
49.46823058185321
 20
73.39044421045953
 30
0.0
 10
49.88446822503057
 20
73.31664942625902
 30
0.0
 10
50.10350479750041
 20
73.27917556748739
 30
0.0
 10
50.7925521574317
 20
73.16646362414764
 30
0.0
 10
51.29418134286335
 20
73.09092752667387
 30
0.0
 10
52.11257855886428
 20
72.98253426965637
 30
0.0
 10
52.39485822387204
 20
72.9474620379931
 30
0.0
 10
52.96979267578863
 20
72.88122657739326
 30
0.0
 10
53.26365405006369
 20
72.84989988063853
 30
0.0
 10
53.86410960130328
 20
72.79149110905762
 30
0.0
 10
54.17070340112114
 20
72.76440787387476
 30
0.0
 10
54.79693496177752
 20
72.71514811926116
 30
0.0
 10
55.11817639583016
 20
72.69288613945352
 30
0.0
 10
56.08778031595558
 20
72.63531923228525
 30
0.0
 10
56.74218323427433
 20
72.60905962749925
 30
0.0
 10
57.40473790727417
 20
72.59580588302522
 30
0.0
  0
SPLINE
  5
246
330
1F
100
AcDbEntity
  8
0
  6
Continuous
 62
     7
370
    15
100
AcDbSpline
210
0.0
220
0.0
230
1.0
 70
     8
 71
     3
 72
    54
 73
    50
 74
     0
 42
0.00000001
 43
0.00000001
 12
1.0
 22
0.0
 32
0.0
 13
1.0
 23
0.0
 33
0.0
 40
0.0
 40
0.0
 40
0.0
 40
0.0
 40
0.0625000000000001
 40
0.0625000000000001
 40
0.0937500000000001
 40
0.0937500000000001
 40
0.1250000000000001
 40
0.1250000000000001
 40
0.1875000000000002
 40
0.1875000000000002
 40
0.2187500000000001
 40
0.2187500000000001
 40
0.2500000000000001
 40
0.2500000000000001
 40
0.3125
 40
0.3125
 40
0.3437499999999999
 40
0.3437499999999999
 40
0.3749999999999999
 40
0.3749999999999999
 40
0.4062499999999998
 40
0.4062499999999998
 40
0.4374999999999998
 40
0.4374999999999998
 40
0.4999999999999997
 40
0.4999999999999997
 40
0.5624999999999997
 40
0.5624999999999997
 40
0.6249999999999996
 40
0.6249999999999996
 40
0.6562499999999994
 40
0.6562499999999994
 40
0.6874999999999994
 40
0.6874999999999994
 40
0.7187499999999993
 40
0.7187499999999993
 40
0.7499999999999993
 40
0.7499999999999993
 40
0.8124999999999992
 40
0.8124999999999992
 40
0.8437499999999992
 40
0.8437499999999992
 40
0.8749999999999993
 40
0.8749999999999993
 40
0.9374999999999997
 40
0.9374999999999997
 40
0.9687499999999998
 40
0.9687499999999998
 40
1.0
 40
1.0
 40
1.0
 40
1.0
 10
48.40473790727417
 20
171.5755997384887
 30
0.0
 10
48.40473790727417
 20
171.5755997384887
 30
0.0
 10
48.46989079072686
 20
171.5890263482775
 30
0.0
 10
48.661109713892
 20
171.6272764648899
 30
0.0
 10
48.74054825408962
 20
171.6430459552033
 30
0.0
 10
48.93151109955539
 20
171.6802794918448
 30
0.0
 10
49.04345204808383
 20
171.7018171003568
 30
0.0
 10
49.42021136631153
 20
171.7726283134506
 30
0.0
 10
49.72736892996224
 20
171.8284546807155
 30
0.0
 10
50.27141668272131
 20
171.9202037210573
 30
0.0
 10
50.46779622814712
 20
171.9522857163375
 30
0.0
 10
50.88450011561714
 20
172.017479916758
 30
0.0
 10
51.10378763116321
 20
172.0504394990608
 30
0.0
 10
51.79361554841734
 20
172.1489854886337
 30
0.0
 10
52.29580356321718
 20
172.2142534084075
 30
0.0
 10
53.11497930336752
 20
172.3059612520633
 30
0.0
 10
53.39785518542048
 20
172.335325118477
 30
0.0
 10
53.97367898560776
 20
172.389914704211
 30
0.0
 10
54.26794221964656
 20
172.4152921483419
 30
0.0
 10
54.86909021962497
 20
172.4615512445017
 30
0.0
 10
55.17597468806586
 20
172.4824340570936
 30
0.0
 10
55.80264825843541
 20
172.5190367463805
 30
0.0
 10
56.12433879430424
 20
172.5348205862868
 30
0.0
 10
57.09287823502576
 20
172.572769019855
 30
0.0
 10
57.74271613726911
 20
172.5856980915155
 30
0.0
 10
59.05052911033815
 20
172.5859103569783
 30
0.0
 10
59.71495660921809
 20
172.5727625773752
 30
0.0
 10
60.99867570848615
 20
172.5226059346257
 30
0.0
 10
61.6228154238884
 20
172.4858432329915
 30
0.0
 10
62.53237270155353
 20
172.4160677114297
 30
0.0
 10
62.83197979534033
 20
172.3902591999642
 30
0.0
 10
63.40953332872841
 20
172.3355401921997
 30
0.0
 10
63.6890140772275
 20
172.3065295427834
 30
0.0
 10
64.2298342729903
 20
172.2460735861038
 30
0.0
 10
64.49117310614669
 20
172.2146267765633
 30
0.0
 10
64.99562082637559
 20
172.1501561681708
 30
0.0
 10
65.2396564465829
 20
172.1169973421844
 30
0.0
 10
65.93702758754807
 20
172.0174259741135
 30
0.0
 10
66.34967712055312
 20
171.9519149886488
 30
0.0
 10
66.89292319196149
 20
171.8603868911342
 30
0.0
 10
67.06128875306243
 20
171.8309977045895
 30
0.0
 10
67.37187254404445
 20
171.775391026688
 30
0.0
 10
67.51364128623386
 20
171.7492485151139
 30
0.0
 10
67.89018852774159
 20
171.6784873185657
 30
0.0
 10
68.08028516045665
 20
171.640886894898
 30
0.0
 10
68.27367001100275
 20
171.6022154062094
 30
0.0
 10
68.32283062443521
 20
171.5922590854701
 30
0.0
 10
68.38832669220704
 20
171.5789581966863
 30
0.0
 10
68.40473790727418
 20
171.5755997384887
 30
0.0
 10
68.40473790727418
 20
171.5755997384887
 30
0.0
  0
SPLINE
  5
247
330
1F
100
AcDbEntity
  8
0
  6
Continuous
 62
     7
370
    15
100
AcDbSpline
210
0.0
220
0.0
230
1.0
 70
     8
 71
     3
 72
    22
 73
    18
 74
     0
 42
0.00000001
 43
0.00000001
 12
1.0
 22
0.0
 32
0.0
 13
1.0
 23
0.0
 33
0.0
 40
0.0
 40
0.0
 40
0.0
 40
0.0
 40
0.2500000000000002
 40
0.2500000000000002
 40
0.3750000000000003
 40
0.3750000000000003
 40
0.5000000000000004
 40
0.5000000000000004
 40
0.6250000000000004
 40
0.6250000000000004
 40
0.7500000000000004
 40
0.7500000000000004
 40
0.8750000000000004
 40
0.8750000000000004
 40
0.9375000000000002
 40
0.9375000000000002
 40
1.0
 40
1.0
 40
1.0
 40
1.0
 10
19.45377514638725
 20
153.9358048828252
 30
0.0
 10
20.27412387598378
 20
154.9550512246898
 30
0.0
 10
21.11227448995399
 20
155.9141593746291
 30
0.0
 10
22.37266802744542
 20
157.2566384521384
 30
0.0
 10
22.79619518129865
 20
157.6908470348784
 30
0.0
 10
23.61501061328548
 20
158.5024747503805
 30
0.0
 10
24.01184699672484
 20
158.8817550433173
 30
0.0
 10
24.76922549370959
 20
159.5847136223383
 30
0.0
 10
25.13151364742487
 20
159.9097424400389
 30
0.0
 10
25.77636042643189
 20
160.4747577634298
 30
0.0
 10
26.06282077015607
 20
160.7184613576364
 30
0.0
 10
26.54551957808964
 20
161.1226612852813
 30
0.0
 10
26.73194990148844
 20
161.2750984783268
 30
0.0
 10
26.92296313213136
 20
161.4304260259355
 30
0.0
 10
26.9718482427147
 20
161.4699308059856
 30
0.0
 10
27.03790903216866
 20
161.5232399266543
 30
0.0
 10
27.05473790727417
 20
161.5367676437121
 30
0.0
 10
27.05473790727418
 20
161.5367676437121
 30
0.0
  0
ARC
  5
248
330
1F
100
AcDbEntity
  8
0
  6
Continuous
 62
     7
370
    15
100
AcDbCircle
 10
58.4047379073
 20
122.5858048828
 30
0.0
 40
50.00000000000001
100
AcDbArc
 50
268.8540080016
 51
271.1459919984
  0
LINE
  5
249
330
1F
100
AcDbEntity
  8
0
  6
HIDDEN
 62
     7
370
     0
100
AcDbLine
 10
63.3777159367
 20
153.2858048858
 30
0.0
 11
53.4317598779
 21
153.2858048858
 31
0.0
  0
LINE
  5
24A
330
1F
100
AcDbEntity
  8
0
  6
HIDDEN
 62
     7
370
     0
100
AcDbLine
 10
63.3777159367
 20
143.0858054491
 30
0.0
 11
53.4317598779
 21
143.0858054491
 31
0.0
  0
LINE
  5
24B
330
1F
100
AcDbEntity
  8
0
  6
HIDDEN
 62
     7
370
     0
100
AcDbLine
 10
62.5970417734
 20
154.0858053895
 30
0.0
 11
54.2124340411
 21
154.0858053895
 31
0.0
  0
LINE
  5
24C
330
1F
100
AcDbEntity
  8
0
  6
HIDDEN
 62
     7
370
     0
100
AcDbLine
 10
61.9040213626
 20
141.5858042719
 30
0.0
 11
54.9241710089
 21
141.5858042719
 31
0.0
  0
LINE
  5
24D
330
1F
100
AcDbEntity
  8
0
  6
HIDDEN
 62
     7
370
     0
100
AcDbLine
 10
59.0069246812
 20
148.085804406
 30
0.0
 11
56.2608305465
 21
148.085804406
 31
0.0
  0
LINE
  5
24E
330
1F
100
AcDbEntity
  8
0
  6
HIDDEN
 62
     7
370
     0
100
AcDbLine
 10
59.0069246812
 20
154.0858053895
 30
0.0
 11
56.2608305465
 21
154.0858053895
 31
0.0
  0
LINE
  5
24F
330
1F
100
AcDbEntity
  8
0
  6
HIDDEN
 62
     7
370
     0
100
AcDbLine
 10
60.8818743478
 20
141.5858042719
 30
0.0
 11
55.9049917486
 21
141.5858042719
 31
0.0
  0
LINE
  5
250
330
1F
100
AcDbEntity
  8
0
  6
HIDDEN
 62
     7
370
     0
100
AcDbLine
 10
59.0069246812
 20
148.085804406
 30
0.0
 11
59.0069246812
 21
154.0858053895
 31
0.0
  0
LINE
  5
251
330
1F
100
AcDbEntity
  8
0
  6
HIDDEN
 62
     7
370
     0
100
AcDbLine
 10
61.1508319255
 20
148.085804406
 30
0.0
 11
59.0069246812
 21
148.085804406
 31
0.0
  0
LINE
  5
252
330
1F
100
AcDbEntity
  8
0
  6
HIDDEN
 62
     7
370
     0
100
AcDbLine
 10
61.1508319255
 20
154.0858053895
 30
0.0
 11
59.0069246812
 21
154.0858053895
 31
0.0
  0
LINE
  5
253
330
1F
100
AcDbEntity
  8
0
  6
HIDDEN
 62
     7
370
     0
100
AcDbLine
 10
56.2608305465
 20
148.085804406
 30
0.0
 11
56.2608305465
 21
154.0858053895
 31
0.0
  0
LINE
  5
254
330
1F
100
AcDbEntity
  8
0
  6
HIDDEN
 62
     7
370
     0
100
AcDbLine
 10
55.6586438891
 20
148.085804406
 30
0.0
 11
56.2608305465
 21
148.085804406
 31
0.0
  0
LINE
  5
255
330
1F
100
AcDbEntity
  8
0
  6
HIDDEN
 62
     7
370
     0
100
AcDbLine
 10
55.6586438891
 20
154.0858053895
 30
0.0
 11
56.2608305465
 21
154.0858053895
 31
0.0
  0
LINE
  5
256
330
1F
100
AcDbEntity
  8
0
  6
HIDDEN
 62
     7
370
     0
100
AcDbLine
 10
60.548645268
 20
148.085804406
 30
0.0
 11
60.548645268
 21
154.0858053895
 31
0.0
  0
LINE
  5
257
330
1F
100
AcDbEntity
  8
0
  6
HIDDEN
 62
     7
370
     0
100
AcDbLine
 10
61.1508319255
 20
148.085804406
 30
0.0
 11
61.1508319255
 21
154.0858053895
 31
0.0
  0
LINE
  5
258
330
1F
100
AcDbEntity
  8
0
  6
HIDDEN
 62
     7
370
     0
100
AcDbLine
 10
61.1508319255
 20
148.085804406
 30
0.0
 11
60.548645268
 21
148.085804406
 31
0.0
  0
LINE
  5
259
330
1F
100
AcDbEntity
  8
0
  6
HIDDEN
 62
     7
370
     0
100
AcDbLine
 10
61.1508319255
 20
154.0858053895
 30
0.0
 11
60.548645268
 21
154.0858053895
 31
0.0
  0
LINE
  5
25A
330
1F
100
AcDbEntity
  8
0
  6
HIDDEN
 62
     7
370
     0
100
AcDbLine
 10
57.8025511334
 20
148.085804406
 30
0.0
 11
57.8025511334
 21
154.0858053895
 31
0.0
  0
LINE
  5
25B
330
1F
100
AcDbEntity
  8
0
  6
HIDDEN
 62
     7
370
     0
100
AcDbLine
 10
55.6586438891
 20
148.085804406
 30
0.0
 11
55.6586438891
 21
154.0858053895
 31
0.0
  0
LINE
  5
25C
330
1F
100
AcDbEntity
  8
0
  6
HIDDEN
 62
     7
370
     0
100
AcDbLine
 10
57.8025511334
 20
148.085804406
 30
0.0
 11
55.6586438891
 21
148.085804406
 31
0.0
  0
LINE
  5
25D
330
1F
100
AcDbEntity
  8
0
  6
HIDDEN
 62
     7
370
     0
100
AcDbLine
 10
57.8025511334
 20
154.0858053895
 30
0.0
 11
55.6586438891
 21
154.0858053895
 31
0.0
  0
LINE
  5
25E
330
1F
100
AcDbEntity
  8
0
  6
HIDDEN
 62
     7
370
     0
100
AcDbLine
 10
57.8025511334
 20
148.085804406
 30
0.0
 11
60.548645268
 21
148.085804406
 31
0.0
  0
LINE
  5
25F
330
1F
100
AcDbEntity
  8
0
  6
HIDDEN
 62
     7
370
     0
100
AcDbLine
 10
57.8025511334
 20
154.0858053895
 30
0.0
 11
60.548645268
 21
154.0858053895
 31
0.0
  0
LINE
  5
260
330
1F
100
AcDbEntity
  8
0
  6
HIDDEN
 62
     7
370
     0
100
AcDbLine
 10
63.4047377955
 20
153.2858048858
 30
0.0
 11
53.404738019
 21
153.2858048858
 31
0.0
  0
LINE
  5
261
330
1F
100
AcDbEntity
  8
0
  6
HIDDEN
 62
     7
370
     0
100
AcDbLine
 10
63.4047377955
 20
143.0858054491
 30
0.0
 11
53.404738019
 21
143.0858054491
 31
0.0
  0
LINE
  5
262
330
1F
100
AcDbEntity
  8
0
  6
HIDDEN
 62
     7
370
     0
100
AcDbLine
 10
54.9219926454
 20
141.5858042719
 30
0.0
 11
54.9047377992
 21
141.5858042719
 31
0.0
  0
LINE
  5
263
330
1F
100
AcDbEntity
  8
0
  6
HIDDEN
 62
     7
370
     0
100
AcDbLine
 10
61.9047380153
 20
141.5858042719
 30
0.0
 11
54.9219926454
 21
141.5858042719
 31
0.0
  0
LINE
  5
264
330
1F
100
AcDbEntity
  8
0
  6
HIDDEN
 62
     7
370
     0
100
AcDbLine
 10
54.2254436862
 20
154.0858053895
 30
0.0
 11
54.204738057
 21
154.0858053895
 31
0.0
  0
LINE
  5
265
330
1F
100
AcDbEntity
  8
0
  6
HIDDEN
 62
     7
370
     0
100
AcDbLine
 10
62.6047377575
 20
154.0858053895
 30
0.0
 11
54.2254436862
 21
154.0858053895
 31
0.0
  0
LINE
  5
266
330
1F
100
AcDbEntity
  8
0
  6
HIDDEN
 62
     7
370
     0
100
AcDbLine
 10
59.5930619732
 20
148.085804406
 30
0.0
 11
61.2772578008
 21
148.085804406
 31
0.0
  0
LINE
  5
267
330
1F
100
AcDbEntity
  8
0
  6
HIDDEN
 62
     7
370
     0
100
AcDbLine
 10
59.5930619732
 20
154.0858053895
 30
0.0
 11
61.2772578008
 21
154.0858053895
 31
0.0
  0
LINE
  5
268
330
1F
100
AcDbEntity
  8
0
  6
HIDDEN
 62
     7
370
     0
100
AcDbLine
 10
55.9170626204
 20
141.5858042719
 30
0.0
 11
60.9015806679
 21
141.5858042719
 31
0.0
  0
LINE
  5
269
330
1F
100
AcDbEntity
  8
0
  6
HIDDEN
 62
     7
370
     0
100
AcDbLine
 10
59.5930619732
 20
148.085804406
 30
0.0
 11
59.5930619732
 21
154.0858053895
 31
0.0
  0
LINE
  5
26A
330
1F
100
AcDbEntity
  8
0
  6
HIDDEN
 62
     7
370
     0
100
AcDbLine
 10
56.7205420796
 20
148.085804406
 30
0.0
 11
59.5930619732
 21
148.085804406
 31
0.0
  0
LINE
  5
26B
330
1F
100
AcDbEntity
  8
0
  6
HIDDEN
 62
     7
370
     0
100
AcDbLine
 10
56.7205420796
 20
154.0858053895
 30
0.0
 11
59.5930619732
 21
154.0858053895
 31
0.0
  0
LINE
  5
26C
330
1F
100
AcDbEntity
  8
0
  6
HIDDEN
 62
     7
370
     0
100
AcDbLine
 10
56.7205420796
 20
148.085804406
 30
0.0
 11
56.7205420796
 21
154.0858053895
 31
0.0
  0
LINE
  5
26D
330
1F
100
AcDbEntity
  8
0
  6
HIDDEN
 62
     7
370
     0
100
AcDbLine
 10
56.7205420796
 20
148.085804406
 30
0.0
 11
55.5322180137
 21
148.085804406
 31
0.0
  0
LINE
  5
26E
330
1F
100
AcDbEntity
  8
0
  6
HIDDEN
 62
     7
370
     0
100
AcDbLine
 10
56.7205420796
 20
154.0858053895
 30
0.0
 11
55.5322180137
 21
154.0858053895
 31
0.0
  0
LINE
  5
26F
330
1F
100
AcDbEntity
  8
0
  6
HIDDEN
 62
     7
370
     0
100
AcDbLine
 10
60.088933735
 20
148.085804406
 30
0.0
 11
60.088933735
 21
154.0858053895
 31
0.0
  0
LINE
  5
270
330
1F
100
AcDbEntity
  8
0
  6
HIDDEN
 62
     7
370
     0
100
AcDbLine
 10
61.2772578008
 20
148.085804406
 30
0.0
 11
61.2772578008
 21
154.0858053895
 31
0.0
  0
LINE
  5
271
330
1F
100
AcDbEntity
  8
0
  6
HIDDEN
 62
     7
370
     0
100
AcDbLine
 10
60.088933735
 20
148.085804406
 30
0.0
 11
61.2772578008
 21
148.085804406
 31
0.0
  0
LINE
  5
272
330
1F
100
AcDbEntity
  8
0
  6
HIDDEN
 62
     7
370
     0
100
AcDbLine
 10
60.088933735
 20
154.0858053895
 30
0.0
 11
61.2772578008
 21
154.0858053895
 31
0.0
  0
LINE
  5
273
330
1F
100
AcDbEntity
  8
0
  6
HIDDEN
 62
     7
370
     0
100
AcDbLine
 10
57.2164138414
 20
148.085804406
 30
0.0
 11
57.2164138414
 21
154.0858053895
 31
0.0
  0
LINE
  5
274
330
1F
100
AcDbEntity
  8
0
  6
HIDDEN
 62
     7
370
     0
100
AcDbLine
 10
55.5322180137
 20
148.085804406
 30
0.0
 11
55.5322180137
 21
154.0858053895
 31
0.0
  0
LINE
  5
275
330
1F
100
AcDbEntity
  8
0
  6
HIDDEN
 62
     7
370
     0
100
AcDbLine
 10
57.2164138414
 20
148.085804406
 30
0.0
 11
55.5322180137
 21
148.085804406
 31
0.0
  0
LINE
  5
276
330
1F
100
AcDbEntity
  8
0
  6
HIDDEN
 62
     7
370
     0
100
AcDbLine
 10
57.2164138414
 20
154.0858053895
 30
0.0
 11
55.5322180137
 21
154.0858053895
 31
0.0
  0
LINE
  5
277
330
1F
100
AcDbEntity
  8
0
  6
HIDDEN
 62
     7
370
     0
100
AcDbLine
 10
57.2164138414
 20
148.085804406
 30
0.0
 11
60.088933735
 21
148.085804406
 31
0.0
  0
LINE
  5
278
330
1F
100
AcDbEntity
  8
0
  6
HIDDEN
 62
     7
370
     0
100
AcDbLine
 10
57.2164138414
 20
154.0858053895
 30
0.0
 11
60.088933735
 21
154.0858053895
 31
0.0
  0
LINE
  5
279
330
1F
100
AcDbEntity
  8
0
  6
HIDDEN
 62
     7
370
     0
100
AcDbLine
 10
37.904737341
 20
117.5858049946
 30
0.0
 11
37.904737341
 21
127.5858047711
 31
0.0
  0
LINE
  5
27A
330
1F
100
AcDbEntity
  8
0
  6
HIDDEN
 62
     7
370
     0
100
AcDbLine
 10
39.4047385182
 20
126.0858049909
 30
0.0
 11
39.4047385182
 21
119.0858047748
 31
0.0
  0
LINE
  5
27B
330
1F
100
AcDbEntity
  8
0
  6
HIDDEN
 62
     7
370
     0
100
AcDbLine
 10
27.7047379043
 20
117.5858049946
 30
0.0
 11
27.7047379043
 21
127.5858047711
 31
0.0
  0
LINE
  5
27C
330
1F
100
AcDbEntity
  8
0
  6
HIDDEN
 62
     7
370
     0
100
AcDbLine
 10
26.9047374006
 20
126.7858047331
 30
0.0
 11
26.9047374006
 21
118.3858050326
 31
0.0
  0
LINE
  5
27D
330
1F
100
AcDbEntity
  8
0
  6
HIDDEN
 62
     7
370
     0
100
AcDbLine
 10
26.9047374006
 20
121.3856418444
 30
0.0
 11
26.9047374006
 21
119.7120244441
 31
0.0
  0
LINE
  5
27E
330
1F
100
AcDbEntity
  8
0
  6
HIDDEN
 62
     7
370
     0
100
AcDbLine
 10
32.9047383841
 20
121.3856418444
 30
0.0
 11
32.9047383841
 21
119.7120244441
 31
0.0
  0
LINE
  5
27F
330
1F
100
AcDbEntity
  8
0
  6
HIDDEN
 62
     7
370
     0
100
AcDbLine
 10
39.4047385182
 20
120.0970380859
 30
0.0
 11
39.4047385182
 21
125.0820564864
 31
0.0
  0
LINE
  5
280
330
1F
100
AcDbEntity
  8
0
  6
HIDDEN
 62
     7
370
     0
100
AcDbLine
 10
32.9047383841
 20
121.3856418444
 30
0.0
 11
32.9047383841
 21
124.2594221666
 31
0.0
  0
LINE
  5
281
330
1F
100
AcDbEntity
  8
0
  6
HIDDEN
 62
     7
370
     0
100
AcDbLine
 10
32.9047383841
 20
121.3856418444
 30
0.0
 11
26.9047374006
 21
121.3856418444
 31
0.0
  0
LINE
  5
282
330
1F
100
AcDbEntity
  8
0
  6
HIDDEN
 62
     7
370
     0
100
AcDbLine
 10
26.9047374006
 20
121.3856418444
 30
0.0
 11
26.9047374006
 21
124.2594221666
 31
0.0
  0
LINE
  5
283
330
1F
100
AcDbEntity
  8
0
  6
HIDDEN
 62
     7
370
     0
100
AcDbLine
 10
32.9047383841
 20
124.2594221666
 30
0.0
 11
26.9047374006
 21
124.2594221666
 31
0.0
  0
LINE
  5
284
330
1F
100
AcDbEntity
  8
0
  6
HIDDEN
 62
     7
370
     0
100
AcDbLine
 10
32.9047383841
 20
124.2594221666
 30
0.0
 11
32.9047383841
 21
125.4595853215
 31
0.0
  0
LINE
  5
285
330
1F
100
AcDbEntity
  8
0
  6
HIDDEN
 62
     7
370
     0
100
AcDbLine
 10
26.9047374006
 20
124.2594221666
 30
0.0
 11
26.9047374006
 21
125.4595853215
 31
0.0
  0
LINE
  5
286
330
1F
100
AcDbEntity
  8
0
  6
HIDDEN
 62
     7
370
     0
100
AcDbLine
 10
32.9047383841
 20
120.912187599
 30
0.0
 11
26.9047374006
 21
120.912187599
 31
0.0
  0
LINE
  5
287
330
1F
100
AcDbEntity
  8
0
  6
HIDDEN
 62
     7
370
     0
100
AcDbLine
 10
32.9047383841
 20
120.912187599
 30
0.0
 11
32.9047383841
 21
119.7120244441
 31
0.0
  0
LINE
  5
288
330
1F
100
AcDbEntity
  8
0
  6
HIDDEN
 62
     7
370
     0
100
AcDbLine
 10
32.9047383841
 20
119.7120244441
 30
0.0
 11
26.9047374006
 21
119.7120244441
 31
0.0
  0
LINE
  5
289
330
1F
100
AcDbEntity
  8
0
  6
HIDDEN
 62
     7
370
     0
100
AcDbLine
 10
26.9047374006
 20
120.912187599
 30
0.0
 11
26.9047374006
 21
119.7120244441
 31
0.0
  0
LINE
  5
28A
330
1F
100
AcDbEntity
  8
0
  6
HIDDEN
 62
     7
370
     0
100
AcDbLine
 10
32.9047383841
 20
123.7859679213
 30
0.0
 11
26.9047374006
 21
123.7859679213
 31
0.0
  0
LINE
  5
28B
330
1F
100
AcDbEntity
  8
0
  6
HIDDEN
 62
     7
370
     0
100
AcDbLine
 10
32.9047383841
 20
125.4595853215
 30
0.0
 11
26.9047374006
 21
125.4595853215
 31
0.0
  0
LINE
  5
28C
330
1F
100
AcDbEntity
  8
0
  6
HIDDEN
 62
     7
370
     0
100
AcDbLine
 10
32.9047383841
 20
123.7859679213
 30
0.0
 11
32.9047383841
 21
125.4595853215
 31
0.0
  0
LINE
  5
28D
330
1F
100
AcDbEntity
  8
0
  6
HIDDEN
 62
     7
370
     0
100
AcDbLine
 10
26.9047374006
 20
123.7859679213
 30
0.0
 11
26.9047374006
 21
125.4595853215
 31
0.0
  0
LINE
  5
28E
330
1F
100
AcDbEntity
  8
0
  6
HIDDEN
 62
     7
370
     0
100
AcDbLine
 10
32.9047383841
 20
120.912187599
 30
0.0
 11
32.9047383841
 21
123.7859679213
 31
0.0
  0
LINE
  5
28F
330
1F
100
AcDbEntity
  8
0
  6
HIDDEN
 62
     7
370
     0
100
AcDbLine
 10
26.9047374006
 20
120.912187599
 30
0.0
 11
26.9047374006
 21
123.7859679213
 31
0.0
  0
LINE
  5
290
330
1F
100
AcDbEntity
  8
0
  6
HIDDEN
 62
     7
370
     0
100
AcDbLine
 10
27.7047379043
 20
117.5910036372
 30
0.0
 11
27.7047379043
 21
127.5806061285
 31
0.0
  0
LINE
  5
291
330
1F
100
AcDbEntity
  8
0
  6
HIDDEN
 62
     7
370
     0
100
AcDbLine
 10
37.904737341
 20
117.5910036372
 30
0.0
 11
37.904737341
 21
127.5806061285
 31
0.0
  0
LINE
  5
292
330
1F
100
AcDbEntity
  8
0
  6
HIDDEN
 62
     7
370
     0
100
AcDbLine
 10
39.4047385182
 20
119.0883542703
 30
0.0
 11
39.4047385182
 21
126.0724167632
 31
0.0
  0
LINE
  5
293
330
1F
100
AcDbEntity
  8
0
  6
HIDDEN
 62
     7
370
     0
100
AcDbLine
 10
26.9047374006
 20
118.3863214509
 30
0.0
 11
26.9047374006
 21
126.7852883147
 31
0.0
  0
LINE
  5
294
330
1F
100
AcDbEntity
  8
0
  6
HIDDEN
 62
     7
370
     0
100
AcDbLine
 10
32.9047383841
 20
122.4152580371
 30
0.0
 11
32.9047383841
 21
120.0048981527
 31
0.0
  0
LINE
  5
295
330
1F
100
AcDbEntity
  8
0
  6
HIDDEN
 62
     7
370
     0
100
AcDbLine
 10
26.9047374006
 20
122.4152580371
 30
0.0
 11
26.9047374006
 21
120.0048981527
 31
0.0
  0
LINE
  5
296
330
1F
100
AcDbEntity
  8
0
  6
HIDDEN
 62
     7
370
     0
100
AcDbLine
 10
39.4047385182
 20
120.1081874141
 30
0.0
 11
39.4047385182
 21
125.0854972577
 31
0.0
  0
LINE
  5
297
330
1F
100
AcDbEntity
  8
0
  6
HIDDEN
 62
     7
370
     0
100
AcDbLine
 10
32.9047383841
 20
122.4152580371
 30
0.0
 11
26.9047374006
 21
122.4152580371
 31
0.0
  0
LINE
  5
298
330
1F
100
AcDbEntity
  8
0
  6
HIDDEN
 62
     7
370
     0
100
AcDbLine
 10
32.9047383841
 20
122.4152580371
 30
0.0
 11
32.9047383841
 21
124.9961647963
 31
0.0
  0
LINE
  5
299
330
1F
100
AcDbEntity
  8
0
  6
HIDDEN
 62
     7
370
     0
100
AcDbLine
 10
26.9047374006
 20
122.4152580371
 30
0.0
 11
26.9047374006
 21
124.9961647963
 31
0.0
  0
LINE
  5
29A
330
1F
100
AcDbEntity
  8
0
  6
HIDDEN
 62
     7
370
     0
100
AcDbLine
 10
32.9047383841
 20
124.9961647963
 30
0.0
 11
26.9047374006
 21
124.9961647963
 31
0.0
  0
LINE
  5
29B
330
1F
100
AcDbEntity
  8
0
  6
HIDDEN
 62
     7
370
     0
100
AcDbLine
 10
32.9047383841
 20
124.9961647963
 30
0.0
 11
32.9047383841
 21
125.166711613
 31
0.0
  0
LINE
  5
29C
330
1F
100
AcDbEntity
  8
0
  6
HIDDEN
 62
     7
370
     0
100
AcDbLine
 10
26.9047374006
 20
124.9961647963
 30
0.0
 11
26.9047374006
 21
125.166711613
 31
0.0
  0
LINE
  5
29D
330
1F
100
AcDbEntity
  8
0
  6
HIDDEN
 62
     7
370
     0
100
AcDbLine
 10
32.9047383841
 20
120.1754449693
 30
0.0
 11
26.9047374006
 21
120.1754449693
 31
0.0
  0
LINE
  5
29E
330
1F
100
AcDbEntity
  8
0
  6
HIDDEN
 62
     7
370
     0
100
AcDbLine
 10
32.9047383841
 20
120.0048981527
 30
0.0
 11
26.9047374006
 21
120.0048981527
 31
0.0
  0
LINE
  5
29F
330
1F
100
AcDbEntity
  8
0
  6
HIDDEN
 62
     7
370
     0
100
AcDbLine
 10
32.9047383841
 20
120.1754449693
 30
0.0
 11
32.9047383841
 21
120.0048981527
 31
0.0
  0
LINE
  5
2A0
330
1F
100
AcDbEntity
  8
0
  6
HIDDEN
 62
     7
370
     0
100
AcDbLine
 10
26.9047374006
 20
120.1754449693
 30
0.0
 11
26.9047374006
 21
120.0048981527
 31
0.0
  0
LINE
  5
2A1
330
1F
100
AcDbEntity
  8
0
  6
HIDDEN
 62
     7
370
     0
100
AcDbLine
 10
32.9047383841
 20
122.7563517286
 30
0.0
 11
26.9047374006
 21
122.7563517286
 31
0.0
  0
LINE
  5
2A2
330
1F
100
AcDbEntity
  8
0
  6
HIDDEN
 62
     7
370
     0
100
AcDbLine
 10
32.9047383841
 20
125.166711613
 30
0.0
 11
26.9047374006
 21
125.166711613
 31
0.0
  0
LINE
  5
2A3
330
1F
100
AcDbEntity
  8
0
  6
HIDDEN
 62
     7
370
     0
100
AcDbLine
 10
32.9047383841
 20
122.7563517286
 30
0.0
 11
32.9047383841
 21
125.166711613
 31
0.0
  0
LINE
  5
2A4
330
1F
100
AcDbEntity
  8
0
  6
HIDDEN
 62
     7
370
     0
100
AcDbLine
 10
26.9047374006
 20
122.7563517286
 30
0.0
 11
26.9047374006
 21
125.166711613
 31
0.0
  0
LINE
  5
2A5
330
1F
100
AcDbEntity
  8
0
  6
HIDDEN
 62
     7
370
     0
100
AcDbLine
 10
32.9047383841
 20
120.1754449693
 30
0.0
 11
32.9047383841
 21
122.7563517286
 31
0.0
  0
LINE
  5
2A6
330
1F
100
AcDbEntity
  8
0
  6
HIDDEN
 62
     7
370
     0
100
AcDbLine
 10
26.9047374006
 20
120.1754449693
 30
0.0
 11
26.9047374006
 21
122.7563517286
 31
0.0
  0
LINE
  5
2A7
330
1F
100
AcDbEntity
  8
0
  6
HIDDEN
 62
     7
370
     0
100
AcDbLine
 10
89.9047384139
 20
118.3868984053
 30
0.0
 11
89.9047384139
 21
126.7847113604
 31
0.0
  0
LINE
  5
2A8
330
1F
100
AcDbEntity
  8
0
  6
HIDDEN
 62
     7
370
     0
100
AcDbLine
 10
89.1047379103
 20
117.6025641443
 30
0.0
 11
89.1047379103
 21
127.5690456213
 31
0.0
  0
LINE
  5
2A9
330
1F
100
AcDbEntity
  8
0
  6
HIDDEN
 62
     7
370
     0
100
AcDbLine
 10
78.9047384735
 20
117.6025641443
 30
0.0
 11
78.9047384735
 21
127.5690456213
 31
0.0
  0
LINE
  5
2AA
330
1F
100
AcDbEntity
  8
0
  6
HIDDEN
 62
     7
370
     0
100
AcDbLine
 10
77.4047372963
 20
119.0986358387
 30
0.0
 11
77.4047372963
 21
126.0830038054
 31
0.0
  0
LINE
  5
2AB
330
1F
100
AcDbEntity
  8
0
  6
HIDDEN
 62
     7
370
     0
100
AcDbLine
 10
89.9047384139
 20
125.0522173768
 30
0.0
 11
89.9047384139
 21
122.5199316513
 31
0.0
  0
LINE
  5
2AC
330
1F
100
AcDbEntity
  8
0
  6
HIDDEN
 62
     7
370
     0
100
AcDbLine
 10
83.9047374304
 20
125.0522173768
 30
0.0
 11
83.9047374304
 21
122.5199316513
 31
0.0
  0
LINE
  5
2AD
330
1F
100
AcDbEntity
  8
0
  6
HIDDEN
 62
     7
370
     0
100
AcDbLine
 10
83.9047374304
 20
120.0535192447
 30
0.0
 11
83.9047374304
 21
122.5199316513
 31
0.0
  0
LINE
  5
2AE
330
1F
100
AcDbEntity
  8
0
  6
HIDDEN
 62
     7
370
     0
100
AcDbLine
 10
83.9047374304
 20
122.5199316513
 30
0.0
 11
89.9047384139
 21
122.5199316513
 31
0.0
  0
LINE
  5
2AF
330
1F
100
AcDbEntity
  8
0
  6
HIDDEN
 62
     7
370
     0
100
AcDbLine
 10
89.9047384139
 20
120.0535192447
 30
0.0
 11
89.9047384139
 21
122.5199316513
 31
0.0
  0
LINE
  5
2B0
330
1F
100
AcDbEntity
  8
0
  6
HIDDEN
 62
     7
370
     0
100
AcDbLine
 10
77.4047372963
 20
120.0977077069
 30
0.0
 11
77.4047372963
 21
125.082428317
 31
0.0
  0
LINE
  5
2B1
330
1F
100
AcDbEntity
  8
0
  6
HIDDEN
 62
     7
370
     0
100
AcDbLine
 10
83.9047374304
 20
125.118090521
 30
0.0
 11
83.9047374304
 21
125.0522173768
 31
0.0
  0
LINE
  5
2B2
330
1F
100
AcDbEntity
  8
0
  6
HIDDEN
 62
     7
370
     0
100
AcDbLine
 10
83.9047374304
 20
125.0522173768
 30
0.0
 11
89.9047384139
 21
125.0522173768
 31
0.0
  0
LINE
  5
2B3
330
1F
100
AcDbEntity
  8
0
  6
HIDDEN
 62
     7
370
     0
100
AcDbLine
 10
89.9047384139
 20
125.118090521
 30
0.0
 11
89.9047384139
 21
125.0522173768
 31
0.0
  0
LINE
  5
2B4
330
1F
100
AcDbEntity
  8
0
  6
HIDDEN
 62
     7
370
     0
100
AcDbLine
 10
83.9047374304
 20
120.1193923889
 30
0.0
 11
89.9047384139
 21
120.1193923889
 31
0.0
  0
LINE
  5
2B5
330
1F
100
AcDbEntity
  8
0
  6
HIDDEN
 62
     7
370
     0
100
AcDbLine
 10
83.9047374304
 20
120.0535192447
 30
0.0
 11
89.9047384139
 21
120.0535192447
 31
0.0
  0
LINE
  5
2B6
330
1F
100
AcDbEntity
  8
0
  6
HIDDEN
 62
     7
370
     0
100
AcDbLine
 10
83.9047374304
 20
120.1193923889
 30
0.0
 11
83.9047374304
 21
120.0535192447
 31
0.0
  0
LINE
  5
2B7
330
1F
100
AcDbEntity
  8
0
  6
HIDDEN
 62
     7
370
     0
100
AcDbLine
 10
89.9047384139
 20
120.1193923889
 30
0.0
 11
89.9047384139
 21
120.0535192447
 31
0.0
  0
LINE
  5
2B8
330
1F
100
AcDbEntity
  8
0
  6
HIDDEN
 62
     7
370
     0
100
AcDbLine
 10
83.9047374304
 20
122.6516781143
 30
0.0
 11
89.9047384139
 21
122.6516781143
 31
0.0
  0
LINE
  5
2B9
330
1F
100
AcDbEntity
  8
0
  6
HIDDEN
 62
     7
370
     0
100
AcDbLine
 10
83.9047374304
 20
125.118090521
 30
0.0
 11
89.9047384139
 21
125.118090521
 31
0.0
  0
LINE
  5
2BA
330
1F
100
AcDbEntity
  8
0
  6
HIDDEN
 62
     7
370
     0
100
AcDbLine
 10
83.9047374304
 20
125.118090521
 30
0.0
 11
83.9047374304
 21
122.6516781143
 31
0.0
  0
LINE
  5
2BB
330
1F
100
AcDbEntity
  8
0
  6
HIDDEN
 62
     7
370
     0
100
AcDbLine
 10
89.9047384139
 20
125.118090521
 30
0.0
 11
89.9047384139
 21
122.6516781143
 31
0.0
  0
LINE
  5
2BC
330
1F
100
AcDbEntity
  8
0
  6
HIDDEN
 62
     7
370
     0
100
AcDbLine
 10
83.9047374304
 20
120.1193923889
 30
0.0
 11
83.9047374304
 21
122.6516781143
 31
0.0
  0
LINE
  5
2BD
330
1F
100
AcDbEntity
  8
0
  6
HIDDEN
 62
     7
370
     0
100
AcDbLine
 10
89.9047384139
 20
120.1193923889
 30
0.0
 11
89.9047384139
 21
122.6516781143
 31
0.0
  0
LINE
  5
2BE
330
1F
100
AcDbEntity
  8
0
  6
HIDDEN
 62
     7
370
     0
100
AcDbLine
 10
37.904737341
 20
117.6110424394
 30
0.0
 11
37.904737341
 21
127.5605673263
 31
0.0
  0
LINE
  5
2BF
330
1F
100
AcDbEntity
  8
0
  6
HIDDEN
 62
     7
370
     0
100
AcDbLine
 10
39.4047385182
 20
119.1065467255
 30
0.0
 11
39.4047385182
 21
126.0853144167
 31
0.0
  0
LINE
  5
2C0
330
1F
100
AcDbEntity
  8
0
  6
HIDDEN
 62
     7
370
     0
100
AcDbLine
 10
27.7047379043
 20
117.6110424394
 30
0.0
 11
27.7047379043
 21
127.5605673263
 31
0.0
  0
LINE
  5
2C1
330
1F
100
AcDbEntity
  8
0
  6
HIDDEN
 62
     7
370
     0
100
AcDbLine
 10
26.9047374006
 20
118.3871936345
 30
0.0
 11
26.9047374006
 21
126.7844161311
 31
0.0
  0
LINE
  5
2C2
330
1F
100
AcDbEntity
  8
0
  6
HIDDEN
 62
     7
370
     0
100
AcDbLine
 10
32.9047383841
 20
124.2727637118
 30
0.0
 11
32.9047383841
 21
121.4005834017
 31
0.0
  0
LINE
  5
2C3
330
1F
100
AcDbEntity
  8
0
  6
HIDDEN
 62
     7
370
     0
100
AcDbLine
 10
26.9047374006
 20
124.2727637118
 30
0.0
 11
26.9047374006
 21
121.4005834017
 31
0.0
  0
LINE
  5
2C4
330
1F
100
AcDbEntity
  8
0
  6
HIDDEN
 62
     7
370
     0
100
AcDbLine
 10
39.4047385182
 20
120.0888156718
 30
0.0
 11
39.4047385182
 21
125.0731861046
 31
0.0
  0
LINE
  5
2C5
330
1F
100
AcDbEntity
  8
0
  6
HIDDEN
 62
     7
370
     0
100
AcDbLine
 10
32.9047383841
 20
121.4005834017
 30
0.0
 11
26.9047374006
 21
121.4005834017
 31
0.0
  0
LINE
  5
2C6
330
1F
100
AcDbEntity
  8
0
  6
HIDDEN
 62
     7
370
     0
100
AcDbLine
 10
32.9047383841
 20
119.7136244563
 30
0.0
 11
32.9047383841
 21
121.4005834017
 31
0.0
  0
LINE
  5
2C7
330
1F
100
AcDbEntity
  8
0
  6
HIDDEN
 62
     7
370
     0
100
AcDbLine
 10
26.9047374006
 20
119.7136244563
 30
0.0
 11
26.9047374006
 21
121.4005834017
 31
0.0
  0
LINE
  5
2C8
330
1F
100
AcDbEntity
  8
0
  6
HIDDEN
 62
     7
370
     0
100
AcDbLine
 10
32.9047383841
 20
124.2727637118
 30
0.0
 11
26.9047374006
 21
124.2727637118
 31
0.0
  0
LINE
  5
2C9
330
1F
100
AcDbEntity
  8
0
  6
HIDDEN
 62
     7
370
     0
100
AcDbLine
 10
32.9047383841
 20
124.2727637118
 30
0.0
 11
32.9047383841
 21
125.4579853093
 31
0.0
  0
LINE
  5
2CA
330
1F
100
AcDbEntity
  8
0
  6
HIDDEN
 62
     7
370
     0
100
AcDbLine
 10
26.9047374006
 20
124.2727637118
 30
0.0
 11
26.9047374006
 21
125.4579853093
 31
0.0
  0
LINE
  5
2CB
330
1F
100
AcDbEntity
  8
0
  6
HIDDEN
 62
     7
370
     0
100
AcDbLine
 10
32.9047383841
 20
120.8988460539
 30
0.0
 11
26.9047374006
 21
120.8988460539
 31
0.0
  0
LINE
  5
2CC
330
1F
100
AcDbEntity
  8
0
  6
HIDDEN
 62
     7
370
     0
100
AcDbLine
 10
32.9047383841
 20
119.7136244563
 30
0.0
 11
26.9047374006
 21
119.7136244563
 31
0.0
  0
LINE
  5
2CD
330
1F
100
AcDbEntity
  8
0
  6
HIDDEN
 62
     7
370
     0
100
AcDbLine
 10
32.9047383841
 20
119.7136244563
 30
0.0
 11
32.9047383841
 21
120.8988460539
 31
0.0
  0
LINE
  5
2CE
330
1F
100
AcDbEntity
  8
0
  6
HIDDEN
 62
     7
370
     0
100
AcDbLine
 10
26.9047374006
 20
119.7136244563
 30
0.0
 11
26.9047374006
 21
120.8988460539
 31
0.0
  0
LINE
  5
2CF
330
1F
100
AcDbEntity
  8
0
  6
HIDDEN
 62
     7
370
     0
100
AcDbLine
 10
32.9047383841
 20
123.771026364
 30
0.0
 11
26.9047374006
 21
123.771026364
 31
0.0
  0
LINE
  5
2D0
330
1F
100
AcDbEntity
  8
0
  6
HIDDEN
 62
     7
370
     0
100
AcDbLine
 10
32.9047383841
 20
125.4579853093
 30
0.0
 11
26.9047374006
 21
125.4579853093
 31
0.0
  0
LINE
  5
2D1
330
1F
100
AcDbEntity
  8
0
  6
HIDDEN
 62
     7
370
     0
100
AcDbLine
 10
32.9047383841
 20
125.4579853093
 30
0.0
 11
32.9047383841
 21
123.771026364
 31
0.0
  0
LINE
  5
2D2
330
1F
100
AcDbEntity
  8
0
  6
HIDDEN
 62
     7
370
     0
100
AcDbLine
 10
26.9047374006
 20
125.4579853093
 30
0.0
 11
26.9047374006
 21
123.771026364
 31
0.0
  0
LINE
  5
2D3
330
1F
100
AcDbEntity
  8
0
  6
HIDDEN
 62
     7
370
     0
100
AcDbLine
 10
32.9047383841
 20
120.8988460539
 30
0.0
 11
32.9047383841
 21
123.771026364
 31
0.0
  0
LINE
  5
2D4
330
1F
100
AcDbEntity
  8
0
  6
HIDDEN
 62
     7
370
     0
100
AcDbLine
 10
26.9047374006
 20
120.8988460539
 30
0.0
 11
26.9047374006
 21
123.771026364
 31
0.0
  0
LINE
  5
2D5
330
1F
100
AcDbEntity
  8
0
  6
HIDDEN
 62
     7
370
     0
100
AcDbLine
 10
89.9047384139
 20
118.3964356141
 30
0.0
 11
89.9047384139
 21
126.7751741515
 31
0.0
  0
LINE
  5
2D6
330
1F
100
AcDbEntity
  8
0
  6
HIDDEN
 62
     7
370
     0
100
AcDbLine
 10
89.1047379103
 20
117.5866692619
 30
0.0
 11
89.1047379103
 21
127.5849405037
 31
0.0
  0
LINE
  5
2D7
330
1F
100
AcDbEntity
  8
0
  6
HIDDEN
 62
     7
370
     0
100
AcDbLine
 10
78.9047384735
 20
117.5866692619
 30
0.0
 11
78.9047384735
 21
127.5849405037
 31
0.0
  0
LINE
  5
2D8
330
1F
100
AcDbEntity
  8
0
  6
HIDDEN
 62
     7
370
     0
100
AcDbLine
 10
77.4047372963
 20
119.1058473023
 30
0.0
 11
77.4047372963
 21
126.085199864
 31
0.0
  0
LINE
  5
2D9
330
1F
100
AcDbEntity
  8
0
  6
HIDDEN
 62
     7
370
     0
100
AcDbLine
 10
89.9047384139
 20
124.5569726279
 30
0.0
 11
89.9047384139
 21
121.7449515652
 31
0.0
  0
LINE
  5
2DA
330
1F
100
AcDbEntity
  8
0
  6
HIDDEN
 62
     7
370
     0
100
AcDbLine
 10
83.9047374304
 20
124.5569726279
 30
0.0
 11
83.9047374304
 21
121.7449515652
 31
0.0
  0
LINE
  5
2DB
330
1F
100
AcDbEntity
  8
0
  6
HIDDEN
 62
     7
370
     0
100
AcDbLine
 10
77.4047372963
 20
120.0921328099
 30
0.0
 11
77.4047372963
 21
125.0781188546
 31
0.0
  0
LINE
  5
2DC
330
1F
100
AcDbEntity
  8
0
  6
HIDDEN
 62
     7
370
     0
100
AcDbLine
 10
83.9047374304
 20
119.7737837037
 30
0.0
 11
83.9047374304
 21
121.7449515652
 31
0.0
  0
LINE
  5
2DD
330
1F
100
AcDbEntity
  8
0
  6
HIDDEN
 62
     7
370
     0
100
AcDbLine
 10
83.9047374304
 20
121.7449515652
 30
0.0
 11
89.9047384139
 21
121.7449515652
 31
0.0
  0
LINE
  5
2DE
330
1F
100
AcDbEntity
  8
0
  6
HIDDEN
 62
     7
370
     0
100
AcDbLine
 10
89.9047384139
 20
119.7737837037
 30
0.0
 11
89.9047384139
 21
121.7449515652
 31
0.0
  0
LINE
  5
2DF
330
1F
100
AcDbEntity
  8
0
  6
HIDDEN
 62
     7
370
     0
100
AcDbLine
 10
83.9047374304
 20
125.3978260619
 30
0.0
 11
83.9047374304
 21
124.5569726279
 31
0.0
  0
LINE
  5
2E0
330
1F
100
AcDbEntity
  8
0
  6
HIDDEN
 62
     7
370
     0
100
AcDbLine
 10
83.9047374304
 20
124.5569726279
 30
0.0
 11
89.9047384139
 21
124.5569726279
 31
0.0
  0
LINE
  5
2E1
330
1F
100
AcDbEntity
  8
0
  6
HIDDEN
 62
     7
370
     0
100
AcDbLine
 10
89.9047384139
 20
125.3978260619
 30
0.0
 11
89.9047384139
 21
124.5569726279
 31
0.0
  0
LINE
  5
2E2
330
1F
100
AcDbEntity
  8
0
  6
HIDDEN
 62
     7
370
     0
100
AcDbLine
 10
83.9047374304
 20
120.6146371378
 30
0.0
 11
89.9047384139
 21
120.6146371378
 31
0.0
  0
LINE
  5
2E3
330
1F
100
AcDbEntity
  8
0
  6
HIDDEN
 62
     7
370
     0
100
AcDbLine
 10
83.9047374304
 20
119.7737837037
 30
0.0
 11
89.9047384139
 21
119.7737837037
 31
0.0
  0
LINE
  5
2E4
330
1F
100
AcDbEntity
  8
0
  6
HIDDEN
 62
     7
370
     0
100
AcDbLine
 10
83.9047374304
 20
120.6146371378
 30
0.0
 11
83.9047374304
 21
119.7737837037
 31
0.0
  0
LINE
  5
2E5
330
1F
100
AcDbEntity
  8
0
  6
HIDDEN
 62
     7
370
     0
100
AcDbLine
 10
89.9047384139
 20
120.6146371378
 30
0.0
 11
89.9047384139
 21
119.7737837037
 31
0.0
  0
LINE
  5
2E6
330
1F
100
AcDbEntity
  8
0
  6
HIDDEN
 62
     7
370
     0
100
AcDbLine
 10
83.9047374304
 20
123.4266582005
 30
0.0
 11
89.9047384139
 21
123.4266582005
 31
0.0
  0
LINE
  5
2E7
330
1F
100
AcDbEntity
  8
0
  6
HIDDEN
 62
     7
370
     0
100
AcDbLine
 10
83.9047374304
 20
125.3978260619
 30
0.0
 11
89.9047384139
 21
125.3978260619
 31
0.0
  0
LINE
  5
2E8
330
1F
100
AcDbEntity
  8
0
  6
HIDDEN
 62
     7
370
     0
100
AcDbLine
 10
83.9047374304
 20
125.3978260619
 30
0.0
 11
83.9047374304
 21
123.4266582005
 31
0.0
  0
LINE
  5
2E9
330
1F
100
AcDbEntity
  8
0
  6
HIDDEN
 62
     7
370
     0
100
AcDbLine
 10
89.9047384139
 20
125.3978260619
 30
0.0
 11
89.9047384139
 21
123.4266582005
 31
0.0
  0
LINE
  5
2EA
330
1F
100
AcDbEntity
  8
0
  6
HIDDEN
 62
     7
370
     0
100
AcDbLine
 10
83.9047374304
 20
120.6146371378
 30
0.0
 11
83.9047374304
 21
123.4266582005
 31
0.0
  0
LINE
  5
2EB
330
1F
100
AcDbEntity
  8
0
  6
HIDDEN
 62
     7
370
     0
100
AcDbLine
 10
89.9047384139
 20
120.6146371378
 30
0.0
 11
89.9047384139
 21
123.4266582005
 31
0.0
  0
LINE
  5
2EC
330
1F
100
AcDbEntity
  8
0
  6
HIDDEN
 62
     7
370
     0
100
AcDbLine
 10
54.2070360955
 20
154.0858053895
 30
0.0
 11
62.6024397191
 21
154.0858053895
 31
0.0
  0
LINE
  5
2ED
330
1F
100
AcDbEntity
  8
0
  6
HIDDEN
 62
     7
370
     0
100
AcDbLine
 10
53.4055589799
 20
153.2858048858
 30
0.0
 11
63.4039168347
 21
153.2858048858
 31
0.0
  0
LINE
  5
2EE
330
1F
100
AcDbEntity
  8
0
  6
HIDDEN
 62
     7
370
     0
100
AcDbLine
 10
53.4055589799
 20
143.0858054491
 30
0.0
 11
63.4039168347
 21
143.0858054491
 31
0.0
  0
LINE
  5
2EF
330
1F
100
AcDbEntity
  8
0
  6
HIDDEN
 62
     7
370
     0
100
AcDbLine
 10
54.9122784853
 20
141.5858042719
 30
0.0
 11
61.8984378509
 21
141.5858042719
 31
0.0
  0
LINE
  5
2F0
330
1F
100
AcDbEntity
  8
0
  6
HIDDEN
 62
     7
370
     0
100
AcDbLine
 10
59.346396358
 20
148.085804406
 30
0.0
 11
61.2388190914
 21
148.085804406
 31
0.0
  0
LINE
  5
2F1
330
1F
100
AcDbEntity
  8
0
  6
HIDDEN
 62
     7
370
     0
100
AcDbLine
 10
59.346396358
 20
154.0858053895
 30
0.0
 11
61.2388190914
 21
154.0858053895
 31
0.0
  0
LINE
  5
2F2
330
1F
100
AcDbEntity
  8
0
  6
HIDDEN
 62
     7
370
     0
100
AcDbLine
 10
55.906913067
 20
141.5858042719
 30
0.0
 11
60.890204097
 21
141.5858042719
 31
0.0
  0
LINE
  5
2F3
330
1F
100
AcDbEntity
  8
0
  6
HIDDEN
 62
     7
370
     0
100
AcDbLine
 10
59.346396358
 20
148.085804406
 30
0.0
 11
59.346396358
 21
154.0858053895
 31
0.0
  0
LINE
  5
2F4
330
1F
100
AcDbEntity
  8
0
  6
HIDDEN
 62
     7
370
     0
100
AcDbLine
 10
59.346396358
 20
148.085804406
 30
0.0
 11
56.5123152321
 21
148.085804406
 31
0.0
  0
LINE
  5
2F5
330
1F
100
AcDbEntity
  8
0
  6
HIDDEN
 62
     7
370
     0
100
AcDbLine
 10
59.346396358
 20
154.0858053895
 30
0.0
 11
56.5123152321
 21
154.0858053895
 31
0.0
  0
LINE
  5
2F6
330
1F
100
AcDbEntity
  8
0
  6
HIDDEN
 62
     7
370
     0
100
AcDbLine
 10
56.5123152321
 20
148.085804406
 30
0.0
 11
56.5123152321
 21
154.0858053895
 31
0.0
  0
LINE
  5
2F7
330
1F
100
AcDbEntity
  8
0
  6
HIDDEN
 62
     7
370
     0
100
AcDbLine
 10
56.5123152321
 20
148.085804406
 30
0.0
 11
55.5706567232
 21
148.085804406
 31
0.0
  0
LINE
  5
2F8
330
1F
100
AcDbEntity
  8
0
  6
HIDDEN
 62
     7
370
     0
100
AcDbLine
 10
56.5123152321
 20
154.0858053895
 30
0.0
 11
55.5706567232
 21
154.0858053895
 31
0.0
  0
LINE
  5
2F9
330
1F
100
AcDbEntity
  8
0
  6
HIDDEN
 62
     7
370
     0
100
AcDbLine
 10
60.2971605824
 20
148.085804406
 30
0.0
 11
60.2971605824
 21
154.0858053895
 31
0.0
  0
LINE
  5
2FA
330
1F
100
AcDbEntity
  8
0
  6
HIDDEN
 62
     7
370
     0
100
AcDbLine
 10
61.2388190914
 20
148.085804406
 30
0.0
 11
61.2388190914
 21
154.0858053895
 31
0.0
  0
LINE
  5
2FB
330
1F
100
AcDbEntity
  8
0
  6
HIDDEN
 62
     7
370
     0
100
AcDbLine
 10
60.2971605824
 20
148.085804406
 30
0.0
 11
61.2388190914
 21
148.085804406
 31
0.0
  0
LINE
  5
2FC
330
1F
100
AcDbEntity
  8
0
  6
HIDDEN
 62
     7
370
     0
100
AcDbLine
 10
60.2971605824
 20
154.0858053895
 30
0.0
 11
61.2388190914
 21
154.0858053895
 31
0.0
  0
LINE
  5
2FD
330
1F
100
AcDbEntity
  8
0
  6
HIDDEN
 62
     7
370
     0
100
AcDbLine
 10
57.4630794565
 20
148.085804406
 30
0.0
 11
57.4630794565
 21
154.0858053895
 31
0.0
  0
LINE
  5
2FE
330
1F
100
AcDbEntity
  8
0
  6
HIDDEN
 62
     7
370
     0
100
AcDbLine
 10
55.5706567232
 20
148.085804406
 30
0.0
 11
55.5706567232
 21
154.0858053895
 31
0.0
  0
LINE
  5
2FF
330
1F
100
AcDbEntity
  8
0
  6
HIDDEN
 62
     7
370
     0
100
AcDbLine
 10
57.4630794565
 20
148.085804406
 30
0.0
 11
55.5706567232
 21
148.085804406
 31
0.0
  0
LINE
  5
300
330
1F
100
AcDbEntity
  8
0
  6
HIDDEN
 62
     7
370
     0
100
AcDbLine
 10
57.4630794565
 20
154.0858053895
 30
0.0
 11
55.5706567232
 21
154.0858053895
 31
0.0
  0
LINE
  5
301
330
1F
100
AcDbEntity
  8
0
  6
HIDDEN
 62
     7
370
     0
100
AcDbLine
 10
60.2971605824
 20
148.085804406
 30
0.0
 11
57.4630794565
 21
148.085804406
 31
0.0
  0
LINE
  5
302
330
1F
100
AcDbEntity
  8
0
  6
HIDDEN
 62
     7
370
     0
100
AcDbLine
 10
60.2971605824
 20
154.0858053895
 30
0.0
 11
57.4630794565
 21
154.0858053895
 31
0.0
  0
LINE
  5
303
330
1F
100
AcDbEntity
  8
0
  6
HIDDEN
 62
     7
370
     0
100
AcDbLine
 10
89.1047379103
 20
117.5858049946
 30
0.0
 11
89.1047379103
 21
127.5858047711
 31
0.0
  0
LINE
  5
304
330
1F
100
AcDbEntity
  8
0
  6
HIDDEN
 62
     7
370
     0
100
AcDbLine
 10
78.9047384735
 20
117.5858049946
 30
0.0
 11
78.9047384735
 21
127.5858047711
 31
0.0
  0
LINE
  5
305
330
1F
100
AcDbEntity
  8
0
  6
HIDDEN
 62
     7
370
     0
100
AcDbLine
 10
89.9047384139
 20
125.26456684
 30
0.0
 11
89.9047384139
 21
126.7858047331
 31
0.0
  0
LINE
  5
306
330
1F
100
AcDbEntity
  8
0
  6
HIDDEN
 62
     7
370
     0
100
AcDbLine
 10
89.9047384139
 20
118.3858050326
 30
0.0
 11
89.9047384139
 21
125.26456684
 31
0.0
  0
LINE
  5
307
330
1F
100
AcDbEntity
  8
0
  6
HIDDEN
 62
     7
370
     0
100
AcDbLine
 10
77.4047372963
 20
124.8181063974
 30
0.0
 11
77.4047372963
 21
126.0858049909
 31
0.0
  0
LINE
  5
308
330
1F
100
AcDbEntity
  8
0
  6
HIDDEN
 62
     7
370
     0
100
AcDbLine
 10
77.4047372963
 20
119.0858047748
 30
0.0
 11
77.4047372963
 21
124.8181063974
 31
0.0
  0
LINE
  5
309
330
1F
100
AcDbEntity
  8
0
  6
HIDDEN
 62
     7
370
     0
100
AcDbLine
 10
89.9047384139
 20
123.5907233613
 30
0.0
 11
89.9047384139
 21
120.7446335874
 31
0.0
  0
LINE
  5
30A
330
1F
100
AcDbEntity
  8
0
  6
HIDDEN
 62
     7
370
     0
100
AcDbLine
 10
83.9047374304
 20
123.5907233613
 30
0.0
 11
83.9047374304
 21
120.7446335874
 31
0.0
  0
LINE
  5
30B
330
1F
100
AcDbEntity
  8
0
  6
HIDDEN
 62
     7
370
     0
100
AcDbLine
 10
77.4047372963
 20
120.107277512
 30
0.0
 11
77.4047372963
 21
125.085379911
 31
0.0
  0
LINE
  5
30C
330
1F
100
AcDbEntity
  8
0
  6
HIDDEN
 62
     7
370
     0
100
AcDbLine
 10
83.9047374304
 20
125.4318947731
 30
0.0
 11
83.9047374304
 21
123.5907233613
 31
0.0
  0
LINE
  5
30D
330
1F
100
AcDbEntity
  8
0
  6
HIDDEN
 62
     7
370
     0
100
AcDbLine
 10
83.9047374304
 20
123.5907233613
 30
0.0
 11
89.9047384139
 21
123.5907233613
 31
0.0
  0
LINE
  5
30E
330
1F
100
AcDbEntity
  8
0
  6
HIDDEN
 62
     7
370
     0
100
AcDbLine
 10
89.9047384139
 20
125.4318947731
 30
0.0
 11
89.9047384139
 21
123.5907233613
 31
0.0
  0
LINE
  5
30F
330
1F
100
AcDbEntity
  8
0
  6
HIDDEN
 62
     7
370
     0
100
AcDbLine
 10
83.9047374304
 20
119.7397149926
 30
0.0
 11
83.9047374304
 21
120.7446335874
 31
0.0
  0
LINE
  5
310
330
1F
100
AcDbEntity
  8
0
  6
HIDDEN
 62
     7
370
     0
100
AcDbLine
 10
83.9047374304
 20
120.7446335874
 30
0.0
 11
89.9047384139
 21
120.7446335874
 31
0.0
  0
LINE
  5
311
330
1F
100
AcDbEntity
  8
0
  6
HIDDEN
 62
     7
370
     0
100
AcDbLine
 10
89.9047384139
 20
119.7397149926
 30
0.0
 11
89.9047384139
 21
120.7446335874
 31
0.0
  0
LINE
  5
312
330
1F
100
AcDbEntity
  8
0
  6
HIDDEN
 62
     7
370
     0
100
AcDbLine
 10
83.9047374304
 20
124.4269761782
 30
0.0
 11
89.9047384139
 21
124.4269761782
 31
0.0
  0
LINE
  5
313
330
1F
100
AcDbEntity
  8
0
  6
HIDDEN
 62
     7
370
     0
100
AcDbLine
 10
83.9047374304
 20
125.4318947731
 30
0.0
 11
89.9047384139
 21
125.4318947731
 31
0.0
  0
LINE
  5
314
330
1F
100
AcDbEntity
  8
0
  6
HIDDEN
 62
     7
370
     0
100
AcDbLine
 10
83.9047374304
 20
125.4318947731
 30
0.0
 11
83.9047374304
 21
124.4269761782
 31
0.0
  0
LINE
  5
315
330
1F
100
AcDbEntity
  8
0
  6
HIDDEN
 62
     7
370
     0
100
AcDbLine
 10
89.9047384139
 20
125.4318947731
 30
0.0
 11
89.9047384139
 21
124.4269761782
 31
0.0
  0
LINE
  5
316
330
1F
100
AcDbEntity
  8
0
  6
HIDDEN
 62
     7
370
     0
100
AcDbLine
 10
83.9047374304
 20
121.5808864044
 30
0.0
 11
89.9047384139
 21
121.5808864044
 31
0.0
  0
LINE
  5
317
330
1F
100
AcDbEntity
  8
0
  6
HIDDEN
 62
     7
370
     0
100
AcDbLine
 10
83.9047374304
 20
119.7397149926
 30
0.0
 11
89.9047384139
 21
119.7397149926
 31
0.0
  0
LINE
  5
318
330
1F
100
AcDbEntity
  8
0
  6
HIDDEN
 62
     7
370
     0
100
AcDbLine
 10
83.9047374304
 20
121.5808864044
 30
0.0
 11
83.9047374304
 21
119.7397149926
 31
0.0
  0
LINE
  5
319
330
1F
100
AcDbEntity
  8
0
  6
HIDDEN
 62
     7
370
     0
100
AcDbLine
 10
89.9047384139
 20
121.5808864044
 30
0.0
 11
89.9047384139
 21
119.7397149926
 31
0.0
  0
LINE
  5
31A
330
1F
100
AcDbEntity
  8
0
  6
HIDDEN
 62
     7
370
     0
100
AcDbLine
 10
83.9047374304
 20
121.5808864044
 30
0.0
 11
83.9047374304
 21
124.4269761782
 31
0.0
  0
LINE
  5
31B
330
1F
100
AcDbEntity
  8
0
  6
HIDDEN
 62
     7
370
     0
100
AcDbLine
 10
89.9047384139
 20
121.5808864044
 30
0.0
 11
89.9047384139
 21
124.4269761782
 31
0.0
  0
LINE
  5
31C
330
1F
100
AcDbEntity
  8
0
  6
HIDDEN
 62
     7
370
     0
100
AcDbLine
 10
53.404738019
 20
153.2858048858
 30
0.0
 11
53.404738019
 21
143.0858054491
 31
0.0
  0
LINE
  5
31D
330
1F
100
AcDbEntity
  8
0
  6
HIDDEN
 62
     7
370
     0
100
AcDbLine
 10
63.4047377955
 20
143.0858054491
 30
0.0
 11
63.4047377955
 21
153.2858048858
 31
0.0
  0
LINE
  5
31E
330
1F
100
AcDbEntity
  8
0
  6
HIDDEN
 62
     7
370
     0
100
AcDbLine
 10
63.4047377955
 20
153.2858048858
 30
0.0
 11
62.6047377575
 21
154.0858053895
 31
0.0
  0
LINE
  5
31F
330
1F
100
AcDbEntity
  8
0
  6
HIDDEN
 62
     7
370
     0
100
AcDbLine
 10
54.204738057
 20
154.0858053895
 30
0.0
 11
53.404738019
 21
153.2858048858
 31
0.0
  0
LINE
  5
320
330
1F
100
AcDbEntity
  8
0
  6
HIDDEN
 62
     7
370
     0
100
AcDbLine
 10
53.404738019
 20
143.0858054491
 30
0.0
 11
54.9047377992
 21
141.5858042719
 31
0.0
  0
LINE
  5
321
330
1F
100
AcDbEntity
  8
0
  6
HIDDEN
 62
     7
370
     0
100
AcDbLine
 10
61.9047380153
 20
141.5858042719
 30
0.0
 11
63.4047377955
 21
143.0858054491
 31
0.0
  0
LINE
  5
322
330
1F
100
AcDbEntity
  8
0
  6
HIDDEN
 62
     7
370
     0
100
AcDbLine
 10
60.9047378514
 20
141.5858042719
 30
0.0
 11
58.4047379073
 21
143.0291810365
 31
0.0
  0
LINE
  5
323
330
1F
100
AcDbEntity
  8
0
  6
HIDDEN
 62
     7
370
     0
100
AcDbLine
 10
58.4047379073
 20
143.0291810365
 30
0.0
 11
55.9047379632
 21
141.5858042719
 31
0.0
  0
LINE
  5
324
330
1F
100
AcDbEntity
  8
0
  6
HIDDEN
 62
     7
370
     0
100
AcDbLine
 10
53.404738019
 20
153.2858048858
 30
0.0
 11
53.404738019
 21
143.0858054491
 31
0.0
  0
LINE
  5
325
330
1F
100
AcDbEntity
  8
0
  6
HIDDEN
 62
     7
370
     0
100
AcDbLine
 10
63.4047377955
 20
143.0858054491
 30
0.0
 11
63.4047377955
 21
153.2858048858
 31
0.0
  0
LINE
  5
326
330
1F
100
AcDbEntity
  8
0
  6
HIDDEN
 62
     7
370
     0
100
AcDbLine
 10
53.404738019
 20
143.0858054491
 30
0.0
 11
54.3252195332
 21
142.1653234692
 31
0.0
  0
LINE
  5
327
330
1F
100
AcDbEntity
  8
0
  6
HIDDEN
 62
     7
370
     0
100
AcDbLine
 10
62.4842562813
 20
142.1653234692
 30
0.0
 11
63.4047377955
 21
143.0858054491
 31
0.0
  0
LINE
  5
328
330
1F
100
AcDbEntity
  8
0
  6
HIDDEN
 62
     7
370
     0
100
AcDbLine
 10
63.4047377955
 20
153.2858048858
 30
0.0
 11
62.9317316327
 21
153.7588105829
 31
0.0
  0
LINE
  5
329
330
1F
100
AcDbEntity
  8
0
  6
HIDDEN
 62
     7
370
     0
100
AcDbLine
 10
53.8777441818
 20
153.7588105829
 30
0.0
 11
53.404738019
 21
153.2858048858
 31
0.0
  0
LINE
  5
32A
330
1F
100
AcDbEntity
  8
0
  6
HIDDEN
 62
     7
370
     0
100
AcDbLine
 10
60.9047378514
 20
141.5858042719
 30
0.0
 11
58.4047379073
 21
143.0291810365
 31
0.0
  0
LINE
  5
32B
330
1F
100
AcDbEntity
  8
0
  6
HIDDEN
 62
     7
370
     0
100
AcDbLine
 10
58.4047379073
 20
143.0291810365
 30
0.0
 11
55.9047379632
 21
141.5858042719
 31
0.0
  0
LINE
  5
32C
330
1F
100
AcDbEntity
  8
0
  6
HIDDEN
 62
     7
370
     0
100
AcDbLine
 10
37.904737341
 20
117.5858049946
 30
0.0
 11
38.8252193209
 21
118.5062865088
 31
0.0
  0
LINE
  5
32D
330
1F
100
AcDbEntity
  8
0
  6
HIDDEN
 62
     7
370
     0
100
AcDbLine
 10
38.8252193209
 20
126.6653232569
 30
0.0
 11
37.904737341
 21
127.5858047711
 31
0.0
  0
LINE
  5
32E
330
1F
100
AcDbEntity
  8
0
  6
HIDDEN
 62
     7
370
     0
100
AcDbLine
 10
27.7047379043
 20
117.5858049946
 30
0.0
 11
37.904737341
 21
117.5858049946
 31
0.0
  0
LINE
  5
32F
330
1F
100
AcDbEntity
  8
0
  6
HIDDEN
 62
     7
370
     0
100
AcDbLine
 10
37.904737341
 20
127.5858047711
 30
0.0
 11
27.7047379043
 21
127.5858047711
 31
0.0
  0
LINE
  5
330
330
1F
100
AcDbEntity
  8
0
  6
HIDDEN
 62
     7
370
     0
100
AcDbLine
 10
27.7047379043
 20
127.5858047711
 30
0.0
 11
27.2317322072
 21
127.1127986083
 31
0.0
  0
LINE
  5
331
330
1F
100
AcDbEntity
  8
0
  6
HIDDEN
 62
     7
370
     0
100
AcDbLine
 10
27.2317322072
 20
118.0588111574
 30
0.0
 11
27.7047379043
 21
117.5858049946
 31
0.0
  0
LINE
  5
332
330
1F
100
AcDbEntity
  8
0
  6
HIDDEN
 62
     7
370
     0
100
AcDbLine
 10
39.4047385182
 20
125.0858048269
 30
0.0
 11
37.9613617536
 21
122.5858048828
 31
0.0
  0
LINE
  5
333
330
1F
100
AcDbEntity
  8
0
  6
HIDDEN
 62
     7
370
     0
100
AcDbLine
 10
37.9613617536
 20
122.5858048828
 30
0.0
 11
39.4047385182
 21
120.0858049387
 31
0.0
  0
LINE
  5
334
330
1F
100
AcDbEntity
  8
0
  6
HIDDEN
 62
     7
370
     0
100
AcDbLine
 10
27.7047379043
 20
117.5858049946
 30
0.0
 11
37.904737341
 21
117.5858049946
 31
0.0
  0
LINE
  5
335
330
1F
100
AcDbEntity
  8
0
  6
HIDDEN
 62
     7
370
     0
100
AcDbLine
 10
37.904737341
 20
127.5858047711
 30
0.0
 11
27.7047379043
 21
127.5858047711
 31
0.0
  0
LINE
  5
336
330
1F
100
AcDbEntity
  8
0
  6
HIDDEN
 62
     7
370
     0
100
AcDbLine
 10
37.904737341
 20
117.5858049946
 30
0.0
 11
39.4047385182
 21
119.0858047748
 31
0.0
  0
LINE
  5
337
330
1F
100
AcDbEntity
  8
0
  6
HIDDEN
 62
     7
370
     0
100
AcDbLine
 10
39.4047385182
 20
126.0858049909
 30
0.0
 11
37.904737341
 21
127.5858047711
 31
0.0
  0
LINE
  5
338
330
1F
100
AcDbEntity
  8
0
  6
HIDDEN
 62
     7
370
     0
100
AcDbLine
 10
27.7047379043
 20
127.5858047711
 30
0.0
 11
26.9047374006
 21
126.7858047331
 31
0.0
  0
LINE
  5
339
330
1F
100
AcDbEntity
  8
0
  6
HIDDEN
 62
     7
370
     0
100
AcDbLine
 10
26.9047374006
 20
118.3858050326
 30
0.0
 11
27.7047379043
 21
117.5858049946
 31
0.0
  0
LINE
  5
33A
330
1F
100
AcDbEntity
  8
0
  6
HIDDEN
 62
     7
370
     0
100
AcDbLine
 10
39.4047385182
 20
125.0858048269
 30
0.0
 11
37.9613617536
 21
122.5858048828
 31
0.0
  0
LINE
  5
33B
330
1F
100
AcDbEntity
  8
0
  6
HIDDEN
 62
     7
370
     0
100
AcDbLine
 10
37.9613617536
 20
122.5858048828
 30
0.0
 11
39.4047385182
 21
120.0858049387
 31
0.0
  0
LINE
  5
33C
330
1F
100
AcDbEntity
  8
0
  6
HIDDEN
 62
     7
370
     0
100
AcDbLine
 10
89.1047379103
 20
117.5858049946
 30
0.0
 11
89.9047384139
 21
118.3858050326
 31
0.0
  0
LINE
  5
33D
330
1F
100
AcDbEntity
  8
0
  6
HIDDEN
 62
     7
370
     0
100
AcDbLine
 10
89.9047384139
 20
126.7858047331
 30
0.0
 11
89.1047379103
 21
127.5858047711
 31
0.0
  0
LINE
  5
33E
330
1F
100
AcDbEntity
  8
0
  6
HIDDEN
 62
     7
370
     0
100
AcDbLine
 10
89.1047379103
 20
127.5858047711
 30
0.0
 11
78.9047384735
 21
127.5858047711
 31
0.0
  0
LINE
  5
33F
330
1F
100
AcDbEntity
  8
0
  6
HIDDEN
 62
     7
370
     0
100
AcDbLine
 10
78.9047384735
 20
117.5858049946
 30
0.0
 11
89.1047379103
 21
117.5858049946
 31
0.0
  0
LINE
  5
340
330
1F
100
AcDbEntity
  8
0
  6
HIDDEN
 62
     7
370
     0
100
AcDbLine
 10
78.9047384735
 20
127.5858047711
 30
0.0
 11
77.4047372963
 21
126.0858049909
 31
0.0
  0
LINE
  5
341
330
1F
100
AcDbEntity
  8
0
  6
HIDDEN
 62
     7
370
     0
100
AcDbLine
 10
77.4047372963
 20
119.0858047748
 30
0.0
 11
78.9047384735
 21
117.5858049946
 31
0.0
  0
LINE
  5
342
330
1F
100
AcDbEntity
  8
0
  6
HIDDEN
 62
     7
370
     0
100
AcDbLine
 10
77.4047372963
 20
120.0858049387
 30
0.0
 11
78.848114061
 21
122.5858048828
 31
0.0
  0
LINE
  5
343
330
1F
100
AcDbEntity
  8
0
  6
HIDDEN
 62
     7
370
     0
100
AcDbLine
 10
78.848114061
 20
122.5858048828
 30
0.0
 11
77.4047372963
 21
125.0858048269
 31
0.0
  0
LINE
  5
344
330
1F
100
AcDbEntity
  8
0
  6
HIDDEN
 62
     7
370
     0
100
AcDbLine
 10
37.904737341
 20
117.5858049946
 30
0.0
 11
39.4047385182
 21
119.0858047748
 31
0.0
  0
LINE
  5
345
330
1F
100
AcDbEntity
  8
0
  6
HIDDEN
 62
     7
370
     0
100
AcDbLine
 10
39.4047385182
 20
126.0858049909
 30
0.0
 11
37.904737341
 21
127.5858047711
 31
0.0
  0
LINE
  5
346
330
1F
100
AcDbEntity
  8
0
  6
HIDDEN
 62
     7
370
     0
100
AcDbLine
 10
27.7047379043
 20
117.5858049946
 30
0.0
 11
37.904737341
 21
117.5858049946
 31
0.0
  0
LINE
  5
347
330
1F
100
AcDbEntity
  8
0
  6
HIDDEN
 62
     7
370
     0
100
AcDbLine
 10
37.904737341
 20
127.5858047711
 30
0.0
 11
27.7047379043
 21
127.5858047711
 31
0.0
  0
LINE
  5
348
330
1F
100
AcDbEntity
  8
0
  6
HIDDEN
 62
     7
370
     0
100
AcDbLine
 10
27.7047379043
 20
127.5858047711
 30
0.0
 11
26.9047374006
 21
126.7858047331
 31
0.0
  0
LINE
  5
349
330
1F
100
AcDbEntity
  8
0
  6
HIDDEN
 62
     7
370
     0
100
AcDbLine
 10
26.9047374006
 20
118.3858050326
 30
0.0
 11
27.7047379043
 21
117.5858049946
 31
0.0
  0
LINE
  5
34A
330
1F
100
AcDbEntity
  8
0
  6
HIDDEN
 62
     7
370
     0
100
AcDbLine
 10
39.4047385182
 20
125.0858048269
 30
0.0
 11
37.9613617536
 21
122.5858048828
 31
0.0
  0
LINE
  5
34B
330
1F
100
AcDbEntity
  8
0
  6
HIDDEN
 62
     7
370
     0
100
AcDbLine
 10
37.9613617536
 20
122.5858048828
 30
0.0
 11
39.4047385182
 21
120.0858049387
 31
0.0
  0
LINE
  5
34C
330
1F
100
AcDbEntity
  8
0
  6
HIDDEN
 62
     7
370
     0
100
AcDbLine
 10
89.1047379103
 20
117.5858049946
 30
0.0
 11
89.9047384139
 21
118.3858050326
 31
0.0
  0
LINE
  5
34D
330
1F
100
AcDbEntity
  8
0
  6
HIDDEN
 62
     7
370
     0
100
AcDbLine
 10
89.9047384139
 20
126.7858047331
 30
0.0
 11
89.1047379103
 21
127.5858047711
 31
0.0
  0
LINE
  5
34E
330
1F
100
AcDbEntity
  8
0
  6
HIDDEN
 62
     7
370
     0
100
AcDbLine
 10
89.1047379103
 20
127.5858047711
 30
0.0
 11
78.9047384735
 21
127.5858047711
 31
0.0
  0
LINE
  5
34F
330
1F
100
AcDbEntity
  8
0
  6
HIDDEN
 62
     7
370
     0
100
AcDbLine
 10
78.9047384735
 20
117.5858049946
 30
0.0
 11
89.1047379103
 21
117.5858049946
 31
0.0
  0
LINE
  5
350
330
1F
100
AcDbEntity
  8
0
  6
HIDDEN
 62
     7
370
     0
100
AcDbLine
 10
78.9047384735
 20
127.5858047711
 30
0.0
 11
77.4047372963
 21
126.0858049909
 31
0.0
  0
LINE
  5
351
330
1F
100
AcDbEntity
  8
0
  6
HIDDEN
 62
     7
370
     0
100
AcDbLine
 10
77.4047372963
 20
119.0858047748
 30
0.0
 11
78.9047384735
 21
117.5858049946
 31
0.0
  0
LINE
  5
352
330
1F
100
AcDbEntity
  8
0
  6
HIDDEN
 62
     7
370
     0
100
AcDbLine
 10
77.4047372963
 20
120.0858049387
 30
0.0
 11
78.848114061
 21
122.5858048828
 31
0.0
  0
LINE
  5
353
330
1F
100
AcDbEntity
  8
0
  6
HIDDEN
 62
     7
370
     0
100
AcDbLine
 10
78.848114061
 20
122.5858048828
 30
0.0
 11
77.4047372963
 21
125.0858048269
 31
0.0
  0
LINE
  5
354
330
1F
100
AcDbEntity
  8
0
  6
HIDDEN
 62
     7
370
     0
100
AcDbLine
 10
63.4047377955
 20
153.2858048858
 30
0.0
 11
62.6047377575
 21
154.0858053895
 31
0.0
  0
LINE
  5
355
330
1F
100
AcDbEntity
  8
0
  6
HIDDEN
 62
     7
370
     0
100
AcDbLine
 10
54.204738057
 20
154.0858053895
 30
0.0
 11
53.404738019
 21
153.2858048858
 31
0.0
  0
LINE
  5
356
330
1F
100
AcDbEntity
  8
0
  6
HIDDEN
 62
     7
370
     0
100
AcDbLine
 10
53.404738019
 20
143.0858054491
 30
0.0
 11
54.9047377992
 21
141.5858042719
 31
0.0
  0
LINE
  5
357
330
1F
100
AcDbEntity
  8
0
  6
HIDDEN
 62
     7
370
     0
100
AcDbLine
 10
61.9047380153
 20
141.5858042719
 30
0.0
 11
63.4047377955
 21
143.0858054491
 31
0.0
  0
LINE
  5
358
330
1F
100
AcDbEntity
  8
0
  6
HIDDEN
 62
     7
370
     0
100
AcDbLine
 10
53.404738019
 20
153.2858048858
 30
0.0
 11
53.404738019
 21
143.0858054491
 31
0.0
  0
LINE
  5
359
330
1F
100
AcDbEntity
  8
0
  6
HIDDEN
 62
     7
370
     0
100
AcDbLine
 10
63.4047377955
 20
143.0858054491
 30
0.0
 11
63.4047377955
 21
153.2858048858
 31
0.0
  0
LINE
  5
35A
330
1F
100
AcDbEntity
  8
0
  6
HIDDEN
 62
     7
370
     0
100
AcDbLine
 10
60.9047378514
 20
141.5858042719
 30
0.0
 11
58.4047379073
 21
143.0291810365
 31
0.0
  0
LINE
  5
35B
330
1F
100
AcDbEntity
  8
0
  6
HIDDEN
 62
     7
370
     0
100
AcDbLine
 10
58.4047379073
 20
143.0291810365
 30
0.0
 11
55.9047379632
 21
141.5858042719
 31
0.0
  0
LINE
  5
35C
330
1F
100
AcDbEntity
  8
0
  6
HIDDEN
 62
     7
370
     0
100
AcDbLine
 10
89.1047379103
 20
127.5858047711
 30
0.0
 11
78.9047384735
 21
127.5858047711
 31
0.0
  0
LINE
  5
35D
330
1F
100
AcDbEntity
  8
0
  6
HIDDEN
 62
     7
370
     0
100
AcDbLine
 10
78.9047384735
 20
117.5858049946
 30
0.0
 11
89.1047379103
 21
117.5858049946
 31
0.0
  0
LINE
  5
35E
330
1F
100
AcDbEntity
  8
0
  6
HIDDEN
 62
     7
370
     0
100
AcDbLine
 10
89.1047379103
 20
117.5858049946
 30
0.0
 11
89.5777436074
 21
118.0588111574
 31
0.0
  0
LINE
  5
35F
330
1F
100
AcDbEntity
  8
0
  6
HIDDEN
 62
     7
370
     0
100
AcDbLine
 10
89.5777436074
 20
127.1127986083
 30
0.0
 11
89.1047379103
 21
127.5858047711
 31
0.0
  0
LINE
  5
360
330
1F
100
AcDbEntity
  8
0
  6
HIDDEN
 62
     7
370
     0
100
AcDbLine
 10
78.9047384735
 20
127.5858047711
 30
0.0
 11
77.9842564937
 21
126.6653232569
 31
0.0
  0
LINE
  5
361
330
1F
100
AcDbEntity
  8
0
  6
HIDDEN
 62
     7
370
     0
100
AcDbLine
 10
77.9842564937
 20
118.5062865088
 30
0.0
 11
78.9047384735
 21
117.5858049946
 31
0.0
  0
LINE
  5
362
330
1F
100
AcDbEntity
  8
0
  6
HIDDEN
 62
     7
370
     0
100
AcDbLine
 10
77.4047372963
 20
120.0858049387
 30
0.0
 11
78.848114061
 21
122.5858048828
 31
0.0
  0
LINE
  5
363
330
1F
100
AcDbEntity
  8
0
  6
HIDDEN
 62
     7
370
     0
100
AcDbLine
 10
78.848114061
 20
122.5858048828
 30
0.0
 11
77.4047372963
 21
125.0858048269
 31
0.0
  0
INSERT
  5
36F
330
1F
100
AcDbEntity
  8
VERMASSUNG
100
AcDbBlockReference
  2
SW_CENTERMARKSYMBOL_0
 10
58.4047379073
 20
122.5858048828
 30
0.0
  0
OLE2FRAME
  5
370
330
1F
100
AcDbEntity
  8
0
100
AcDbOle2Frame
 70
     2
  3
Paintbrush-Bild
 10
13.8511154363
 20
38.264191557
 30
0.0
 11
51.6290888628
 21
31.9806341108
 31
0.0
 71
     2
 72
     0
 73
     1
 90
    12928
310
80552BED0767C5B32B40DDAF6807D121434000000000000000006FFBDDFB85D0
310
4940DDAF6807D121434000000000000000006FFBDDFB85D04940416F4BD60AFB
310
3F4000000000000000002BED0767C5B32B40416F4BD60AFB3F40000000000000
310
0000000000000100000000010000010000000100000000000100000000320000
310
D0CF11E0A1B11AE1000000000000000000000000000000003E000300FEFF0900
310
0600000000000000000000000100000001000000000000000010000002000000
310
01000000FEFFFFFF0000000000000000FFFFFFFFFFFFFFFFFFFFFFFFFFFFFFFF
310
FFFFFFFFFFFFFFFFFFFFFFFFFFFFFFFFFFFFFFFFFFFFFFFFFFFFFFFFFFFFFFFF
310
FFFFFFFFFFFFFFFFFFFFFFFFFFFFFFFFFFFFFFFFFFFFFFFFFFFFFFFFFFFFFFFF
310
FFFFFFFFFFFFFFFFFFFFFFFFFFFFFFFFFFFFFFFFFFFFFFFFFFFFFFFFFFFFFFFF
310
FFFFFFFFFFFFFFFFFFFFFFFFFFFFFFFFFFFFFFFFFFFFFFFFFFFFFFFFFFFFFFFF
310
FFFFFFFFFFFFFFFFFFFFFFFFFFFFFFFFFFFFFFFFFFFFFFFFFFFFFFFFFFFFFFFF
310
FFFFFFFFFFFFFFFFFFFFFFFFFFFFFFFFFFFFFFFFFFFFFFFFFFFFFFFFFFFFFFFF
310
FFFFFFFFFFFFFFFFFFFFFFFFFFFFFFFFFFFFFFFFFFFFFFFFFFFFFFFFFFFFFFFF
310
FFFFFFFFFFFFFFFFFFFFFFFFFFFFFFFFFFFFFFFFFFFFFFFFFFFFFFFFFFFFFFFF
310
FFFFFFFFFFFFFFFFFFFFFFFFFFFFFFFFFFFFFFFFFFFFFFFFFFFFFFFFFFFFFFFF
310
FFFFFFFFFFFFFFFFFFFFFFFFFFFFFFFFFFFFFFFFFFFFFFFFFFFFFFFFFFFFFFFF
310
FFFFFFFFFFFFFFFFFFFFFFFFFFFFFFFFFFFFFFFFFFFFFFFFFFFFFFFFFFFFFFFF
310
FFFFFFFFFFFFFFFFFFFFFFFFFFFFFFFFFFFFFFFFFFFFFFFFFFFFFFFFFFFFFFFF
310
FFFFFFFFFFFFFFFFFFFFFFFFFFFFFFFFFFFFFFFFFFFFFFFFFFFFFFFFFFFFFFFF
310
FDFFFFFFFEFFFFFFFEFFFFFFFEFFFFFF05000000060000000700000008000000
310
090000000A0000000B0000000C0000000D0000000E0000000F00000010000000
310
11000000120000001300000014000000150000001600000017000000FEFFFFFF
310
FFFFFFFFFFFFFFFFFFFFFFFFFFFFFFFFFFFFFFFFFFFFFFFFFFFFFFFFFFFFFFFF
310
FFFFFFFFFFFFFFFFFFFFFFFFFFFFFFFFFFFFFFFFFFFFFFFFFFFFFFFFFFFFFFFF
310
FFFFFFFFFFFFFFFFFFFFFFFFFFFFFFFFFFFFFFFFFFFFFFFFFFFFFFFFFFFFFFFF
310
FFFFFFFFFFFFFFFFFFFFFFFFFFFFFFFFFFFFFFFFFFFFFFFFFFFFFFFFFFFFFFFF
310
FFFFFFFFFFFFFFFFFFFFFFFFFFFFFFFFFFFFFFFFFFFFFFFFFFFFFFFFFFFFFFFF
310
FFFFFFFFFFFFFFFFFFFFFFFFFFFFFFFFFFFFFFFFFFFFFFFFFFFFFFFFFFFFFFFF
310
FFFFFFFFFFFFFFFFFFFFFFFFFFFFFFFFFFFFFFFFFFFFFFFFFFFFFFFFFFFFFFFF
310
FFFFFFFFFFFFFFFFFFFFFFFFFFFFFFFFFFFFFFFFFFFFFFFFFFFFFFFFFFFFFFFF
310
FFFFFFFFFFFFFFFFFFFFFFFFFFFFFFFFFFFFFFFFFFFFFFFFFFFFFFFFFFFFFFFF
310
FFFFFFFFFFFFFFFFFFFFFFFFFFFFFFFFFFFFFFFFFFFFFFFFFFFFFFFFFFFFFFFF
310
FFFFFFFFFFFFFFFFFFFFFFFFFFFFFFFFFFFFFFFFFFFFFFFFFFFFFFFFFFFFFFFF
310
FFFFFFFFFFFFFFFFFFFFFFFFFFFFFFFFFFFFFFFFFFFFFFFFFFFFFFFFFFFFFFFF
310
FFFFFFFFFFFFFFFFFFFFFFFFFFFFFFFFFFFFFFFFFFFFFFFFFFFFFFFFFFFFFFFF
310
52006F006F007400200045006E00740072007900000000000000000000000000
310
0000000000000000000000000000000000000000000000000000000000000000
310
16000500FFFFFFFFFFFFFFFF020000000A00030000000000C000000000000046
310
000000000000000000000000F01D99AA9845CE0103000000C000000000000000
310
01004F006C006500000000000000000000000000000000000000000000000000
310
0000000000000000000000000000000000000000000000000000000000000000
310
0A000200FFFFFFFFFFFFFFFFFFFFFFFF00000000000000000000000000000000
310
0000000000000000000000000000000000000000000000001400000000000000
310
010043006F006D0070004F0062006A0000000000000000000000000000000000
310
0000000000000000000000000000000000000000000000000000000000000000
310
120002010100000003000000FFFFFFFF00000000000000000000000000000000
310
0000000000000000000000000000000000000000010000004D00000000000000
310
01004F006C006500310030004E00610074006900760065000000000000000000
310
0000000000000000000000000000000000000000000000000000000000000000
310
1A000200FFFFFFFFFFFFFFFFFFFFFFFF00000000000000000000000000000000
310
0000000000000000000000000000000000000000040000002426000000000000
310
FEFFFFFF02000000FEFFFFFFFFFFFFFFFFFFFFFFFFFFFFFFFFFFFFFFFFFFFFFF
310
FFFFFFFFFFFFFFFFFFFFFFFFFFFFFFFFFFFFFFFFFFFFFFFFFFFFFFFFFFFFFFFF
310
FFFFFFFFFFFFFFFFFFFFFFFFFFFFFFFFFFFFFFFFFFFFFFFFFFFFFFFFFFFFFFFF
310
FFFFFFFFFFFFFFFFFFFFFFFFFFFFFFFFFFFFFFFFFFFFFFFFFFFFFFFFFFFFFFFF
310
FFFFFFFFFFFFFFFFFFFFFFFFFFFFFFFFFFFFFFFFFFFFFFFFFFFFFFFFFFFFFFFF
310
FFFFFFFFFFFFFFFFFFFFFFFFFFFFFFFFFFFFFFFFFFFFFFFFFFFFFFFFFFFFFFFF
310
FFFFFFFFFFFFFFFFFFFFFFFFFFFFFFFFFFFFFFFFFFFFFFFFFFFFFFFFFFFFFFFF
310
FFFFFFFFFFFFFFFFFFFFFFFFFFFFFFFFFFFFFFFFFFFFFFFFFFFFFFFFFFFFFFFF
310
FFFFFFFFFFFFFFFFFFFFFFFFFFFFFFFFFFFFFFFFFFFFFFFFFFFFFFFFFFFFFFFF
310
FFFFFFFFFFFFFFFFFFFFFFFFFFFFFFFFFFFFFFFFFFFFFFFFFFFFFFFFFFFFFFFF
310
FFFFFFFFFFFFFFFFFFFFFFFFFFFFFFFFFFFFFFFFFFFFFFFFFFFFFFFFFFFFFFFF
310
FFFFFFFFFFFFFFFFFFFFFFFFFFFFFFFFFFFFFFFFFFFFFFFFFFFFFFFFFFFFFFFF
310
FFFFFFFFFFFFFFFFFFFFFFFFFFFFFFFFFFFFFFFFFFFFFFFFFFFFFFFFFFFFFFFF
310
FFFFFFFFFFFFFFFFFFFFFFFFFFFFFFFFFFFFFFFFFFFFFFFFFFFFFFFFFFFFFFFF
310
FFFFFFFFFFFFFFFFFFFFFFFFFFFFFFFFFFFFFFFFFFFFFFFFFFFFFFFFFFFFFFFF
310
FFFFFFFFFFFFFFFFFFFFFFFFFFFFFFFFFFFFFFFFFFFFFFFFFFFFFFFFFFFFFFFF
310
0100000200000000000000000000000000000000000000000000000000000000
310
0000000000000000000000000000000000000000000000000000000000000000
310
0100FEFF030A0000FFFFFFFF0A00030000000000C00000000000004607000000
310
5042727573680007000000504272757368000700000050427275736800F439B2
310
7100000000000000000000000000000000000000000000000000000000000000
310
0000000000000000000000000000000000000000000000000000000000000000
310
0000000000000000000000000000000000000000000000000000000000000000
310
0000000000000000000000000000000000000000000000000000000000000000
310
0000000000000000000000000000000000000000000000000000000000000000
310
0000000000000000000000000000000000000000000000000000000000000000
310
0000000000000000000000000000000000000000000000000000000000000000
310
0000000000000000000000000000000000000000000000000000000000000000
310
0000000000000000000000000000000000000000000000000000000000000000
310
0000000000000000000000000000000000000000000000000000000000000000
310
0000000000000000000000000000000000000000000000000000000000000000
310
0000000000000000000000000000000000000000000000000000000000000000
310
20260000424D0E260000000000003E00000028000000B40200006E0000000100
310
01000000000000000000130B0000130B00000200000002000000000000FFFFFF
310
FFFFFFFFFFFFFFFFFFFFFFFFFFFFFFFFFFFFFFFFFFFFFFFFFFFFFFFFFFFFFFFF
310
FFFFFFFFFFFFFFFFFFFFFFFFFFFFFFFFFFFFFFFFFFFFFFFFFFFFFFFFFFFFFFFF
310
FFFFFFFFFFFFFFFFFFFFFFFFFFFFFFFFFFFFFFFFFFFFFFFFF000FFFFFFFFFFFF
310
FFFFFFFFFFFFFFFFFFFFFFFFFFFFFFFFFFFFFFFFFFFFFFFFFFFFFFFFFFFFFFFF
310
FFFFFFFFFFFFFFFFFFFFFFFFFFFFFFFFFFFFFFFFFFFFFFFFFFFFFFFFFFFFFFFF
310
FFFFFFFFFFFFFFFFFFFFFFFFFFFFFFFFF000FFFFFFFFFFFFFFFFFFFFFFFFFFFF
310
FFFFFFFFFFFFFFFFFFFFFFFFFFFFFFFFFFFFFFFFFFFFFFFFFFFFFFFFFFFFFFFF
310
FFFFFFFFFFFFFFFFFFFFFFFFFFFFFFFFFFFFFFFFFFFFFFFFFFFFFFFFFFFFFFFF
310
FFFFFFFFFFFFFFFFF000FFFFFFFFFFFFFFFFFFFFFFFFFFFFFFFFFFFFFFFFFFFF
310
FFFFFFFFFFFFFFFFFFFFFFFFFFFFFFFFFFFFFFFFFFFFFFFFFFFFFFFFFFFFFFFF
310
FFFFFFFFFFFFFFFFFFFFFFFFFFFFFFFFFFFFFFFFFFFFFFFFFFFFFFFFFFFFFFFF
310
F000FFFFFFFFFFFFFFFFFFFFFFFFFFFFFFFFFFFFFFFFFFFFFFFFFFFFFFFFFFFF
310
FFFFFFFFFFFFFFFFFFFFFFFFFFFFFFFFFFFFFFFFFFFFFFFFFFFFFFFFFFFFFFFF
310
FFFFFFFFFFFFFFFFFFFFFFFFFFFFFFFFFFFFFFFFFFFFFFFFF000FFFFFFFFFFFF
310
FFFFFFFFFFFFFFFFFFFFFFFFFFFFFFFFFFFFFFFFFFFFFFFFFFFFFFFFFFFFFFFF
310
FFFFFFFFFFFFFFFFFFFFFFFFFFFFFFFFFFFFFFFFFFFFFFFFFFFFFFFFFFFFFFFF
310
FFFFFFFFFFFFFFFFFFFFFFFFFFFFFFFFF000FFFFFFFFFFFFFFFFFFFFFFFFFFFF
310
FFFFFFFFFFFFFFFFFFFFFFFFFFFFFFFFFFFFFFFFFFFFFFFFFFFFFFFFFFFFFFFF
310
FFFFFFFFFFFFFFFFFFFFFFFFFFFFFFFFFFFFFFFFFFFFFFFFFFFFFFFFFFFFFFFF
310
FFFFFFFFFFFFFFFFF000FFFFFFFFFFFFFFFFFFFFFFFFFFFFFFFFFFFFFFFFFFFF
310
FFFFFFFFFFFFFFFFFFFFFFFFFFFFFFFFFFFFFFFFFFFFFFFFFFFFFFFFFFFFFFFF
310
FFFFFFFFFFFFFFFFFFFFFFFFFFFFFFFFFFFFFFFFFFFFFFFFFFFFFFFFFFFFFFFF
310
F000FFFFFFFFFFFFFFFFFFFFFFFFFFFFFFFFFFFFFFFFFFFFFFFFFFFFFFFFFFFF
310
FFFFFFFFFFFFFFFFFFFFFFFFFFFFFFFFFFFFFFFFFFFFFFFFFFFFFFFFFFFFFFFF
310
FFFFFFFFFFFFFFFFFFFFFFFFFFFFFFFFFFFFFFFFFFFFFFFFF000FFFFFFFFFFFF
310
FFFFFFFFFFFFFFFFFFFFFFFFFFFFFFFFFFFFFFFFFFFFFFFFFFFFFFFFFFFFFFFF
310
FFFFFFFFFFFFFFFFFFFFFFFFFFFFFFFFFFFFFFFFFFFFFFFFFFFFFFFFFFFFFFFF
310
FFFFFFFFFFFFFFFFFFFFFFFFFFFFFFFFF000FFFFFFFFFFFFFFFFFFFFFFFFFFFF
310
FFFFFFFFFFFFFFFFFFFFFFFFFFFFFFFFFFFFFFFFFFFFFFFFFFFFFFFFFFFFFFFF
310
FFFFFFFFFFFFFFFFFFFFFFFFFFFFFFFFFFFFFFFFFFFFFFFFFFFFFFFFFFFFFFFF
310
FFFFFFFFFFFFFFFFF000FFFFFFFFFFFFFFFFFFFFFFFFFFFFFFFFFFFFFFFFFFFF
310
FFFFFFFFFFFFFFFFFFFFFFFFFFFFFFFFFFFFFFFFFFFFFFFFFFFFFFFFFFFFFFFF
310
FFFFFFFFFFFFFFFFFFFFFFFFFFFFFFFFFFFFFFFFFFFFFFFFFFFFFFFFFFFFFFFF
310
F000FFFFFFFFFFFFFFFFFFFFFFFFFFFFFFFFFFFFFFFFFFFFFFFFFFFFFFFFFFFF
310
FFFFFFFFFFFFFFFFFFFFFFFFFFFFFFFFFFFFFFFFFFFFFFFFFFFFFFFFFFFFFFFF
310
FFFFFFFFFFFFFFFFFFFFFFFFFFFFFFFFFFFFFFFFFFFFFFFFF000FFFFFFFFFFFF
310
FFFFFFFFFFFFFFFFFFFFFFFFFFFFFFFFFFFFFFFFFFFFFFFFFFFFFFFFFFFFFFFF
310
FFFFFFFFFFFFFFFFFFFFFFFFFFFFFFFFFFFFFFFFFFFFFFFFFFFFFFFFFFFFFFFF
310
FFFFFFFFFFFFFFFFFFFFFFFFFFFFFFFFF000FFFFFFFFFFFFFFFFFFFFFFFFFFFF
310
FFFFFFFFFFFFFFFFFFFFFFFFFFFFFFFFFFFFFFFFFFFFFFFFFFFFFFFFFFFFFFFF
310
FFFFFFFFFFFFFFFFFFFFFFFFFFFFFFFFFFFFFFFFFFFFFFFFFFFFFFFFFFFFFFFF
310
FFFFFFFFFFFFFFFFF000FFFFFFFFFFFFFFFFFFFFFFFFFFFFFFFFFFFFFFFFFFFF
310
FFFFFFFFFFFFFFFFFFFFFFFFFFFFFFFFFFFFFFFFFFFFFFFFFFFFFFFFFFFFFFFF
310
FFFFFFFFFFFFFFFFFFFFFFFFFFFFFFFFFFFFFFFFFFFFFFFFFFFFFFFFFFFFFFFF
310
F000FFFFFFFFFFFFFFFFFFFFFFFFFFFFFFFFFFFFFFFFFFFFFFFFFFFFFFFFFFFF
310
FFFFFFFFFFFFFFFFFFFFFFFFFFFFFFFFFFFFFFFFFFFFFFFFFFFFFFFFFFFFFFFF
310
FFFFFFFFFFFFFFFFFFFFFFFFFFFFFFFFFFFFFFFFFFFFFFFFF000FFFFFFFFFFFF
310
FFFFFFFFFFFFFFFFFFFFFFFFFFFFFFFFFFFFFFFFFFFFFFFFFFFFFFFFFFFFFFFF
310
FFFFFFFFFFFFFFFFFFFFFFFFFFFFFFFFFFFFFFFFFFFFFFFFFFFFFFFFFFFFFFFF
310
FFFFFFFFFFFFFFFFFFFFFFFFFFFFFFFFF000FFFFFFFFFFFFFFFFFFFFFFFFFFFF
310
FFFFFFFFFFFFFFFFFFFFFFFFFFFFFFFFFFFFFFFFFFFFFFFFFFFFFFFFFFFFFFFF
310
FFFFFFFFFFFFFFFFFFFFFFFFFFFFFFFFFFFFFFFFFFFFFFFFFFFFFFFFFFFFFFFF
310
FFFFFFFFFFFFFFFFF000FFFFF80003FFFFFFFFFFFFFFFFFFFFFFFFFFFFFFFFFF
310
FFFFF00007FFFFFFFFFF00007FFFFFF800000000000000007FFFFFFFFFFFFFFF
310
FFFFFFFC001FFFFFFFFFFFFFFC001FFFFFFFFFFFFFFFFFFFFFFFFFFE0007FFFF
310
F000FFFF8000007FFFFFFFF8000FFFFFC0007FFFFF80007FFFFF0000007FFFFF
310
FFF8000007FFFFF800000000000000007FFFFFF0001FFFFFFFFFFFC00001FFFF
310
FFFFFFFFC00001FFFFFFFF000000000003FFFFE000007FFFF000FFFE0000000F
310
FFFFFFF0000FFFFF80007FFFFF80007FFFFC0000001FFFFFFFC0000001FFFFF8
310
00000000000000007FFFFFF0001FFFFFFFFFFE0000003FFFFFFFFFFE0000003F
310
FFFFFF000000000003FFFF0000000FFFF000FFF800000003FFFFFFF00007FFFF
310
80007FFFFF80007FFFF000000007FFFFFF000000003FFFF80000000000000000
310
7FFFFFF0001FFFFFFFFFF80000000FFFFFFFFFF80000000FFFFFFF0000000000
310
03FFFC00000003FFF000FFE000000000FFFFFFF00007FFFF80003FFFFF80007F
310
FFC000000001FFFFFC000000001FFFF800000000000000007FFFFFF0001FFFFF
310
FFFFE000000003FFFFFFFFE000000003FFFFFF000000000003FFF000000000FF
310
F000FF80000000007FFFFFF00007FFFF80003FFFFF80007FFF8000000000FFFF
310
F80000000007FFF800000000000000007FFFFFF0001FFFFFFFFFC000000001FF
310
FFFFFFC000000001FFFFFF000000000003FFC0000000007FF000FF0000000000
310
3FFFFFE00007FFFF00003FFFFF80007FFE00000000003FFFF00000000003FFF8
310
00000000000000007FFFFFF0001FFFFFFFFF8000000000FFFFFFFF8000000000
310
FFFFFF000000000003FF80000000003FF000FE00000000001FFFFFE00003FFFF
310
00003FFFFF80007FFC00000000001FFFE00000000001FFF8000001FFFE000000
310
7FFFFFF0001FFFFFFFFE00000000003FFFFFFE00000000003FFFFF0000000000
310
03FF00000000001FF000FC00000000000FFFFFE00003FFFF00001FFFFF80007F
310
F800000000001FFFC00000000000FFF8000001FFFE0000007FFFFFF0001FFFFF
310
FFFC00000000001FFFFFFC00000000001FFFFF000000000003FE00000000000F
310
F000F8000000000007FFFFE00003FFFF00001FFFFF80007FF800000000000FFF
310
800000000000FFF8000001FFFE0000007FFFFFF0001FFFFFFFF800000000000F
310
FFFFF800000000000FFFFF000000000003FC000000000007F000F80000000000
310
03FFFFC00003FFFE00001FFFFF80007FF0000000000007FF0000000000007FF8
310
000001FFFE0000007FFFFFF0001FFFFFFFF0000000000007FFFFF00000000000
310
07FFFF000000000003F8000000000003F000F0000000000003FFFFC00001FFFE
310
00001FFFFF80007FE0000000000007FE0000000000003FF8000001FFFE000000
310
7FFFFFF0001FFFFFFFF0000000000007FFFFF0000000000007FFFF0000000000
310
03F800001F800003F000E00001FFF00001FFFFC00001FFFE00000FFFFF80007F
310
E00001FFE00003FE00001FFF00003FF8000001FFFE0000007FFFFFF0001FFFFF
310
FFE000003E000003FFFFE000003E000003FFFF000000000003F00001FFF80001
310
F000E00007FFFC0001FFFFC00001FFFE00000FFFFF80007FC0000FFFFC0003FC
310
0000FFFFC0001FF8000001FFFE0000007FFFFFF0001FFFFFFFC00003FFE00001
310
FFFFC00003FFE00001FFFF0001FFFFFFFFF00007FFFE0001F000E0000FFFFF00
310
00FFFF800001FFFC00000FFFFF80007FC0001FFFFE0001FC0001FFFFE0001FF8
310
000001FFFE0000007FFFFFF0001FFFFFFF80000FFFF80000FFFF80000FFFF800
310
00FFFF0003FFFFFFFFE0000FFFFF8000F000C0003FFFFF8000FFFF800000FFFC
310
000007FFFF80007F80003FFFFF0001FC0003FFFFF0001FF8000001FFFE000000
310
7FFFFFF0001FFFFFFF80003FFFFE0000FFFF80003FFFFE0000FFFF0003FFFFFF
310
FFE0003FFFFF8000F000C0003FFFFF8000FFFF800000FFFC000007FFFF80007F
310
80007FFFFF8001F80007FFFFF8000FF8000001FFFE0000007FFFFFF0001FFFFF
310
FF00007FFFFF00007FFF00007FFFFF00007FFF0003FFFFFFFFE0003FFFFFC000
310
F000C0007FFFFFC000FFFF000000FFFC000007FFFF80007F8000FFFFFF8000F8
310
000FFFFFF8000FF8000001FFFE0000007FFFFFF0001FFFFFFF0000FFFFFF8000
310
7FFF0000FFFFFF80007FFF0003FFFFFFFFC0007FFFFFC00070008000FFFFFFC0
310
00FFFF000000FFF8000007FFFF80007F8000FFFFFF8000F8000FFFFFF8000FF8
310
000001FFFE0000007FFFFFF0001FFFFFFE0001FFFFFFC0003FFE0001FFFFFFC0
310
003FFF0003FFFFFFFFC0007FFFFFE00070008000FFFFFFC0007FFF0000007FF8
310
000003FFFF80007F0001FFFFFF8000F8000FFFFFF8000FF8000001FFFE000000
310
7FFFFFF0001FFFFFFE0001FFFFFFC0003FFE0001FFFFFFC0003FFF0003FFFFFF
310
FFC000FFFFFFE00070008000FFFFFFC0007FFF0000007FF8000003FFFF80007F
310
0001FFFFFF8000F8001FFFFFF8000FF8000001FFFE0000007FFFFFF0001FFFFF
310
FE0003FFFFFFE0003FFE0003FFFFFFE0003FFF0003FFFFFFFFC000FFFFFFE000
310
70008000FFFFFFC0007FFE0000007FF8000003FFFF80007F0001FFFFFF8000F0
310
001FFFFFF8000FF8000001FFFE0000007FFFFFF0001FFFFFFC0003FFFFFFE000
310
1FFC0003FFFFFFE0001FFF0003FFFFFFFFC000FFFFFFC00070008000FFFFFF80
310
007FFE0000007FF0000003FFFF80007F0001FFFFFF0000F0001FFFFFF8000FF8
310
000001FFFE0000007FFFFFF0001FFFFFFC0007FFFFFFF0001FFC0007FFFFFFF0
310
001FFF0003FFFFFFFFC000FFFFFFC00070008001FFFFFF0000FFFE0000003FF0
310
000001FFFF80007F0001FFFFFF0000F8001FFFFFF0000FF8000001FFFE000000
310
7FFFFFF0001FFFFFFC0007FFFFFFF0001FFC0007FFFFFFF0001FFF0003FFFFFF
310
FFC001FFFFFF80007000FFFFFFFFFE0000FFFE0008003FF0008001FFFF80007F
310
FFFFFFFFFC0000FFFFFFFFFFE0000FF8000001FFFE0000007FFFFFF0001FFFFF
310
F8000FFFFFFFF8000FF8000FFFFFFFF8000FFF0003FFFFFFFFFFFFFFFFFF0000
310
7000FFFFFFFFFC0000FFFC0008003FF0008001FFFF80007FFFFFFFFFF80001FF
310
FFFFFFFF80000FF8000001FFFE0000007FFFFFF0001FFFFFF8000FFFFFFFF800
310
0FF8000FFFFFFFF8000FFF0003FFFFFFFFFFFFFFFFFE0000F000FFFFFFFFE000
310
00FFFC000C003FE000C001FFFF80007FFFFFFFFFC00001FFFFFFFFFE00001FF8
310
000001FFFE0000007FFFFFF0001FFFFFF8000FFFFFFFF8000FF8000FFFFFFFF8
310
000FFF0003FFFFFFFFFFFFFFFFF00000F000FFFFFFFE000001FFFC000C001FE0
310
00C000FFFF80007FFFFFFFFE000001FFFFFFFFE000001FF80FFFFFFFFFFFFFC0
310
7FFFFFF0001FFFFFF8000FFFFFFFF8000FF8000FFFFFFFF8000FFF0003FFFFFF
310
FFFFFFFFFF800000F000FFFFFFC0000001FFFC001C001FE001C000FFFF80007F
310
FFFFFF80000003FFFFFFF80000001FF80FFFFFFFFFFFFFC07FFFFFF0001FFFFF
310
F8001FFFFFFFFC000FF8001FFFFFFFFC000FFF0003FFFFFFFFFFFFFFF0000001
310
F000FFFFF800000001FFF8001C001FE001C000FFFF80007FFFFFF800000003FF
310
FFFF800000003FF80FFFFFFFFFFFFFC07FFFFFF0001FFFFFF8001FFFFFFFFC00
310
0FF8001FFFFFFFFC000FFF0003FFFFFFFFFFFFFE00000001F000FFFFC0000000
310
03FFF8001E001FC001E000FFFF80007FFFFF8000000007FFFFFC000000003FF8
310
0FFFFFFFFFFFFFC07FFFFFF0001FFFFFF8001FFFFFFFFC000FF8001FFFFFFFFC
310
000FFF0003FFFFFFFFFFFFE000000003F000FFFE0000000007FFF8001E000FC0
310
01E0007FFF80007FFFFE0000000007FFFFE0000000007FF80FFFFFFFFFFFFFC0
310
7FFFFFF0001FFFFFF0001FFFFFFFFC0007F0001FFFFFFFFC0007FF0003FFFFFF
310
FFFFFF0000000003F000FFF80000000007FFF8001E000FC003E0007FFF80007F
310
FFF0000000000FFFFF8000000000FFF80FFFFFFFFFFFFFC07FFFFFF0001FFFFF
310
F0001FFFFFFFFC0007F0001FFFFFFFFC0007FF0003FFFFFFFFFFFC0000000007
310
F000FFE0000000000FFFF0003E000FC003E0007FFF80007FFFC0000000001FFF
310
FE0000000001FFF80FFFFFFFFFFFFFC07FFFFFF0001FFFFFF0001FFFFFFFFC00
310
07F0001FFFFFFFFC0007FF0003FFFFFFFFFFF0000000000FF000FFC000000000
310
1FFFF0003F000F8003F0003FFF80007FFF80000000003FFFF80000000003FFF8
310
0FFFFFFFFFFFFFC07FFFFFF0001FFFFFF0001FFFFFFFFC0007F0001FFFFFFFFC
310
0007FF0003FFFFFFFFFFE0000000001FF000FF00000000007FFFF0003F000780
310
03F0003FFF80007FFF00000000007FFFF00000000007FFF80FFFFFFFFFFFFFC0
310
7FFFFFF0001FFFFFF0001FFFFFFFFC0007F0001FFFFFFFFC0007FF0003FFFFFF
310
FFFF80000000007FF000FE0000000000FFFFE0003F00078007F0003FFF80007F
310
FE0000000001FFFFE0000000001FFFF80FFFFFFFFFFFFFC07FFFFFF0001FFFFF
310
F0001FFFFFFFFC0007F0001FFFFFFFFC0007FF0003FFFFFFFFFF0000000000FF
310
F000FC0000000003FFFFE0007F00078007F0003FFF80007FFC0000000007FFFF
310
C0000000007FFFF80FFFFFFFFFFFFFC07FFFFFF0001FFFFFF8001FFFFFFFFC00
310
0FF8001FFFFFFFFC000FFF0003FFFFFFFFFE0000000003FFF000FC000000000F
310
FFFFE0007F80070007F8001FFF80007FF8000000001FFFFF8000000001FFFFF8
310
0FFFFFFFFFFFFFC07FFFFFF0001FFFFFF8001FFFFFFFFC000FF8001FFFFFFFFC
310
000FFF0003FFFFFFFFFC000000000FFFF000F8000000007FFFFFE0007F800700
310
07F8001FFF80007FF000000000FFFFFF800000000FFFFFF80FFFFFFFFFFFFFC0
310
7FFFFFF0001FFFFFF8000FFFFFFFF8000FF8000FFFFFFFF8000FFF0003FFFFFF
310
FFFC000000007FFFF000F800000007FFFFFFC0007F8003000FF8001FFF80007F
310
F000000007FFFFFF000000007FFFFFF80FFFFFFFFFFFFFC07FFFFFF0001FFFFF
310
F8000FFFFFFFF8000FF8000FFFFFFFF8000FFF0003FFFFFFFFF80000000FFFFF
310
F000F0000000FFFFFFFFC000FF8003000FF8001FFF80007FE0000000FFFFFFFF
310
0000000FFFFFFFF8000001FFFE0000007FFFFFF0001FFFFFF8000FFFFFFFF800
310
0FF8000FFFFFFFF8000FFF0003FFFFFFFFF8000000FFFFFFF000F000000FFFFF
310
FFFFC000FFC002000FF8000FFF80007FE000001FFFFFFFFE000001FFFFFFFFF8
310
000001FFFE0000007FFFFFF0001FFFFFF8000FFFFFFFF8000FF8000FFFFFFFF8
310
000FFF0003FFFFFFFFF000001FFFFFFFF000E00000FFFFFFFFFFC000FFC00200
310
0FFC000FFF80007FE00001FFFFFFFFFE00001FFFFFFFFFF8000001FFFE000000
310
7FFFFFF0001FFFFFFC000FFFFFFFF8001FFC000FFFFFFFF8001FFF0003FFFFFF
310
FFF00001FFFFFFFFF000E00007FFFFFFFFFF8000FFC000001FFC000FFF80007F
310
C0000FFFFFFFFFFE0000FFFFFFFFFFF8000001FFFE0000007FFFFFF0001FFFFF
310
FC0007FFFFFFF0001FFC0007FFFFFFF0001FFF0003FFFFFFFFF00007FFFFFFFF
310
F000E0001FFFFFFFFFFF8000FFC000001FFC000FFF80007FC0003FFFFFFFFFFE
310
0001FFFFFFFFFFF8000001FFFE0000007FFFFFF0001FFFFFFC0007FFFFFFF000
310
1FFC0007FFFFFFF0001FFF0003FFFFFFFFF0001FFFFFFFFFF000E0003FFFFF00
310
03FF8001FFE000001FFC0007FF80007FC0007FFFFF0007FC0003FFFFF0003FF8
310
000001FFFE0000007FFFFFF0001FFFFFFC0003FFFFFFE0001FFC0003FFFFFFE0
310
001FFF0003FFFFFFFFF0003FFFFFFFFFF000E0003FFFFF0001FF8001FFE00000
310
1FFE0007FF80007FC0007FFFFE0003FC0007FFFFE0003FF8000001FFFE000000
310
7FFFFFF0001FFFFFFE0003FFFFFFE0003FFE0003FFFFFFE0003FFF0003FFFFFF
310
FFF0003FFFFF8001F000E0003FFFFF0001FF0001FFE000001FFE0007FF80007F
310
C0007FFFFE0003FC0007FFFFE0003FF8000001FFFE0000007FFFFFF0001FFFFF
310
FE0001FFFFFFC0003FFE0001FFFFFFC0003FFF0003FFFFFFFFF0003FFFFF0001
310
F000E0003FFFFF0003FF0001FFE000003FFE0007FF80007FC0007FFFFE0003FC
310
0007FFFFE0003FF8000001FFFE0000007FFFFFF0001FFFFFFF0001FFFFFFC000
310
7FFF0001FFFFFFC0007FFF0003FFFFFFFFF0003FFFFF0001F000E0003FFFFE00
310
03FF0003FFF000003FFE0003FF80007FC0007FFFFC0003FE0007FFFFE0003FF8
310
000001FFFE0000007FFFFFF0001FFFFFFF0000FFFFFF80007FFF0000FFFFFF80
310
007FFF0003FFFFFFFFF0003FFFFF0001F000E0003FFFFE0003FF0003FFF00000
310
3FFF0003FF80007FC0007FFFFC0007FE0007FFFFC0003FF8000001FFFE000000
310
7FFFFFF0001FFFFFFF80007FFFFF0000FFFF80007FFFFF0000FFFF0003FFFFFF
310
FFF0003FFFFF0003F000E0003FFFFC0003FE0003FFF000003FFF0003FF80007F
310
E0003FFFF80007FE0003FFFFC0007FF8000001FFFE0000007FFFFFF0001FFFFF
310
FF80003FFFFE0000FFFF80003FFFFE0000FFFF0003FFFFFFFFF0001FFFFE0003
310
F000F0001FFFF80003FE0003FFF000007FFF0001FF80007FE0003FFFF00007FE
310
0001FFFF80007FF8000001FFFE0000007FFFFFF0001FFFFFFFC0000FFFF80001
310
FFFFC0000FFFF80001FFFF0003FFFFFFFFF0001FFFFC0003F000F0000FFFF000
310
07FE0007FFF800007FFF0001FF80007FE0001FFFE00007FF0000FFFE00007FF8
310
000001FFFE0000007FFFFFF0001FFFFFFFC00003FFE00001FFFFC00003FFE000
310
01FFFF0003FFFFFFFFF8000FFFF80003F000F00003FFC00007FC0007FFF80000
310
7FFF8001FF80007FF00007FF80000FFF00007FF80000FFF8000001FFFE000000
310
7F80000000000001FFE000003E000003FFFFE000003E000003FFFF0003FFFFFF
310
FFF80003FFE00007F000F800000000000FFC0007FFF800007FFF8001FF80007F
310
F000000000000FFF000000000000FFF8000001FFFE0000007F80000000000001
310
FFF0000000000007FFFFF0000000000007FFFF0003FFFFFFFFFC00007E000007
310
F000F800000000000FFC0007FFF80000FFFF8000FF80007FF800000000001FFF
310
800000000001FFF8000001FFFE0000007F80000000000001FFF800000000000F
310
FFFFF800000000000FFFFF0003FFFFFFFFFC00000000000FF000FC0000000000
310
1FFC0007FFFC0000FFFF8000FF80007FF800000000003FFFC00000000001FFF8
310
000001FFFE0000007F80000000000001FFF800000000000FFFFFF80000000000
310
0FFFFF0003FFFFFFFFFE00000000001FF000FE00000000003FF8000FFFFC0000
310
FFFF8000FF80007FFC00000000003FFFC00000000003FFF8000001FFFE000000
310
7F80000000000001FFFC00000000001FFFFFFC00000000001FFFFF0003FFFFFF
310
FFFF00000000001FF000FF00000000003FF8000FFFFC0000FFFFC000FF80007F
310
FE00000000007FFFE00000000007FFF8000001FFFE0000007F80000000000001
310
FFFE00000000003FFFFFFE00000000003FFFFF0003FFFFFFFFFF80000000003F
310
F000FF80000000007FF8000FFFFC0001FFFFC0007F80007FFF0000000000FFFF
310
F0000000000FFFF800000000000000007F80000000000001FFFF8000000000FF
310
FFFFFF8000000000FFFFFF0003FFFFFFFFFFC0000000007FF000FFC000000000
310
FFF8000FFFFE0001FFFFC0007F80007FFF8000000001FFFFF8000000001FFFF8
310
00000000000000007F80000000000001FFFFC000000001FFFFFFFFC000000001
310
FFFFFF0003FFFFFFFFFFE000000000FFF000FFE000000003FFF0001FFFFE0001
310
FFFFC0007F80007FFFC000000007FFFFFE000000003FFFF80000000000000000
310
7F80000000000001FFFFE000000003FFFFFFFFE000000003FFFFFF0003FFFFFF
310
FFFFF000000003FFF000FFF80000000FFFF0001FFFFE0001FFFFE0007F80007F
310
FFF00000000FFFFFFF00000000FFFFF800000000000000007F80000000000001
310
FFFFF80000000FFFFFFFFFF80000000FFFFFFF0003FFFFFFFFFFFC0000000FFF
310
F000FFFE0000003FFFF0001FFFFE0003FFFFE0003F80007FFFFC0000003FFFFF
310
FFC0000003FFFFF800000000000000007F80000000000001FFFFFE0000003FFF
310
FFFFFFFE0000003FFFFFFF0003FFFFFFFFFFFF0000003FFFF000FFFF800000FF
310
FFF0001FFFFF0003FFFFE0003F80007FFFFF000001FFFFFFFFF800001FFFFFF8
310
00000000000000007F80000000000001FFFFFFC00001FFFFFFFFFFFFC00001FF
310
FFFFFF0003FFFFFFFFFFFFC00000FFFFF000FFFFF8000FFFFFFFFFFFFFFFFFFF
310
FFFFFFFFFFFFFFFFFFFFF0001FFFFFFFFFFF0000FFFFFFF80000000000000000
310
7FFFFFFFFFFFFFFFFFFFFFFC001FFFFFFFFFFFFFFC001FFFFFFFFFFFFFFFFFFF
310
FFFFFFFC001FFFFFF000FFFFFFFFFFFFFFFFFFFFFFFFFFFFFFFFFFFFFFFFFFFF
310
FFFFFFFFFFFFFFFFFFFFFFFFFFFFFFFFFFFFFFFFFFFFFFFFFFFFFFFFFFFFFFFF
310
FFFFFFFFFFFFFFFFFFFFFFFFFFFFFFFFFFFFFFFFFFFFFFFFFFFFFFFFFFFFFFFF
310
F000FFFFFFFFFFFFFFFFFFFFFFFFFFFFFFFFFFFFFFFFFFFFFFFFFFFFFFFFFFFF
310
FFFFFFFFFFFFFFFFFFFFFFFFFFFFFFFFFFFFFFFFFFFFFFFFFFFFFFFFFFFFFFFF
310
FFFFFFFFFFFFFFFFFFFFFFFFFFFFFFFFFFFFFFFFFFFFFFFFF000FFFFFFFFFFFF
310
FFFFFFFFFFFFFFFFFFFFFFFFFFFFFFFFFFFFFFFFFFFFFFFFFFFFFFFFFFFFFFFF
310
FFFFFFFFFFFFFFFFFFFFFFFFFFFFFFFFFFFFFFFFFFFFFFFFFFFFFFFFFFFFFFFF
310
FFFFFFFFFFFFFFFFFFFFFFFFFFFFFFFFF000FFFFFFFFFFFFFFFFFFFFFFFFFFFF
310
FFFFFFFFFFFFFFFFFFFFFFFFFFFFFFFFFFFFFFFFFFFFFFFFFFFFFFFFFFFFFFFF
310
FFFFFFFFFFFFFFFFFFFFFFFFFFFFFFFFFFFFFFFFFFFFFFFFFFFFFFFFFFFFFFFF
310
FFFFFFFFFFFFFFFFF000FFFFFFFFFFFFFFFFFFFFFFFFFFFFFFFFFFFFFFFFFFFF
310
FFFFFFFFFFFFFFFFFFFFFFFFFFFFFFFFFFFFFFFFFFFFFFFFFFFFFFFFFFFFFFFF
310
FFFFFFFFFFFFFFFFFFFFFFFFFFFFFFFFFFFFFFFFFFFFFFFFFFFFFFFFFFFFFFFF
310
F000FFFFFFFFFFFFFFFFFFFFFFFFFFFFFFFFFFFFFFFFFFFFFFFFFFFFFFFFFFFF
310
FFFFFFFFFFFFFFFFFFFFFFFFFFFFFFFFFFFFFFFFFFFFFFFFFFFFFFFFFFFFFFFF
310
FFFFFFFFFFFFFFFFFFFFFFFFFFFFFFFFFFFFFFFFFFFFFFFFF000FFFFFFFFFFFF
310
FFFFFFFFFFFFFFFFFFFFFFFFFFFFFFFFFFFFFFFFFFFFFFFFFFFFFFFFFFFFFFFF
310
FFFFFFFFFFFFFFFFFFFFFFFFFFFFFFFFFFFFFFFFFFFFFFFFFFFFFFFFFFFFFFFF
310
FFFFFFFFFFFFFFFFFFFFFFFFFFFFFFFFF000FFFFFFFFFFFFFFFFFFFFFFFFFFFF
310
FFFFFFFFFFFFFFFFFFFFFFFFFFFFFFFFFFFFFFFFFFFFFFFFFFFFFFFFFFFFFFFF
310
FFFFFFFFFFFFFFFFFFFFFFFFFFFFFFFFFFFFFFFFFFFFFFFFFFFFFFFFFFFFFFFF
310
FFFFFFFFFFFFFFFFF000FFFFFFFFFFFFFFFFFFFFFFFFFFFFFFFFFFFFFFFFFFFF
310
FFFFFFFFFFFFFFFFFFFFFFFFFFFFFFFFFFFFFFFFFFFFFFFFFFFFFFFFFFFFFFFF
310
FFFFFFFFFFFFFFFFFFFFFFFFFFFFFFFFFFFFFFFFFFFFFFFFFFFFFFFFFFFFFFFF
310
F000FFFFFFFFFFFFFFFFFFFFFFFFFFFFFFFFFFFFFFFFFFFFFFFFFFFFFFFFFFFF
310
FFFFFFFFFFFFFFFFFFFFFFFFFFFFFFFFFFFFFFFFFFFFFFFFFFFFFFFFFFFFFFFF
310
FFFFFFFFFFFFFFFFFFFFFFFFFFFFFFFFFFFFFFFFFFFFFFFFF000FFFFFFFFFFFF
310
FFFFFFFFFFFFFFFFFFFFFFFFFFFFFFFFFFFFFFFFFFFFFFFFFFFFFFFFFFFFFFFF
310
FFFFFFFFFFFFFFFFFFFFFFFFFFFFFFFFFFFFFFFFFFFFFFFFFFFFFFFFFFFFFFFF
310
FFFFFFFFFFFFFFFFFFFFFFFFFFFFFFFFF000FFFFFFFFFFFFFFFFFFFFFFFFFFFF
310
FFFFFFFFFFFFFFFFFFFFFFFFFFFFFFFFFFFFFFFFFFFFFFFFFFFFFFFFFFFFFFFF
310
FFFFFFFFFFFFFFFFFFFFFFFFFFFFFFFFFFFFFFFFFFFFFFFFFFFFFFFFFFFFFFFF
310
FFFFFFFFFFFFFFFFF000FFFFFFFFFFFFFFFFFFFFFFFFFFFFFFFFFFFFFFFFFFFF
310
FFFFFFFFFFFFFFFFFFFFFFFFFFFFFFFFFFFFFFFFFFFFFFFFFFFFFFFFFFFFFFFF
310
FFFFFFFFFFFFFFFFFFFFFFFFFFFFFFFFFFFFFFFFFFFFFFFFFFFFFFFFFFFFFFFF
310
F000FFFFFFFFFFFFFFFFFFFFFFFFFFFFFFFFFFFFFFFFFFFFFFFFFFFFFFFFFFFF
310
FFFFFFFFFFFFFFFFFFFFFFFFFFFFFFFFFFFFFFFFFFFFFFFFFFFFFFFFFFFFFFFF
310
FFFFFFFFFFFFFFFFFFFFFFFFFFFFFFFFFFFFFFFFFFFFFFFFF000FFFFFFFFFFFF
310
FFFFFFFFFFFFFFFFFFFFFFFFFFFFFFFFFFFFFFFFFFFFFFFFFFFFFFFFFFFFFFFF
310
FFFFFFFFFFFFFFFFFFFFFFFFFFFFFFFFFFFFFFFFFFFFFFFFFFFFFFFFFFFFFFFF
310
FFFFFFFFFFFFFFFFFFFFFFFFFFFFFFFFF000FFFFFFFFFFFFFFFFFFFFFFFFFFFF
310
FFFFFFFFFFFFFFFFFFFFFFFFFFFFFFFFFFFFFFFFFFFFFFFFFFFFFFFFFFFFFFFF
310
FFFFFFFFFFFFFFFFFFFFFFFFFFFFFFFFFFFFFFFFFFFFFFFFFFFFFFFFFFFFFFFF
310
FFFFFFFFFFFFFFFFF000FFFFFFFFFFFFFFFFFFFFFFFFFFFFFFFFFFFFFFFFFFFF
310
FFFFFFFFFFFFFFFFFFFFFFFFFFFFFFFFFFFFFFFFFFFFFFFFFFFFFFFFFFFFFFFF
310
FFFFFFFFFFFFFFFFFFFFFFFFFFFFFFFFFFFFFFFFFFFFFFFFFFFFFFFFFFFFFFFF
310
F000FFFFFFFFFFFFFFFFFFFFFFFFFFFFFFFFFFFFFFFFFFFFFFFFFFFFFFFFFFFF
310
FFFFFFFFFFFFFFFFFFFFFFFFFFFFFFFFFFFFFFFFFFFFFFFFFFFFFFFFFFFFFFFF
310
FFFFFFFFFFFFFFFFFFFFFFFFFFFFFFFFFFFFFFFFFFFFFFFFF000FFFFFFFFFFFF
310
FFFFFFFFFFFFFFFFFFFFFFFFFFFFFFFFFFFFFFFFFFFFFFFFFFFFFFFFFFFFFFFF
310
FFFFFFFFFFFFFFFFFFFFFFFFFFFFFFFFFFFFFFFFFFFFFFFFFFFFFFFFFFFFFFFF
310
FFFFFFFFFFFFFFFFFFFFFFFFFFFFFFFFF000FFFFFFFFFFFFFFFFFFFFFFFFFFFF
310
FFFFFFFFFFFFFFFFFFFFFFFFFFFFFFFFFFFFFFFFFFFFFFFFFFFFFFFFFFFFFFFF
310
FFFFFFFFFFFFFFFFFFFFFFFFFFFFFFFFFFFFFFFFFFFFFFFFFFFFFFFFFFFFFFFF
310
FFFFFFFFFFFFFFFFF000FFFFFFFFFFFFFFFFFFFFFFFFFFFFFFFFFFFFFFFFFFFF
310
FFFFFFFFFFFFFFFFFFFFFFFFFFFFFFFFFFFFFFFFFFFFFFFFFFFFFFFFFFFFFFFF
310
FFFFFFFFFFFFFFFFFFFFFFFFFFFFFFFFFFFFFFFFFFFFFFFFFFFFFFFFFFFFFFFF
310
F000FFFFFFFFFFFFFFFFFFFFFFFFFFFFFFFFFFFFFFFFFFFFFFFFFFFFFFFFFFFF
310
FFFFFFFFFFFFFFFFFFFFFFFFFFFFFFFFFFFFFFFFFFFFFFFFFFFFFFFFFFFFFFFF
310
FFFFFFFFFFFFFFFFFFFFFFFFFFFFFFFFFFFFFFFFFFFFFFFFF000FFFFFFFFFFFF
310
FFFFFFFFFFFFFFFFFFFFFFFFFFFFFFFFFFFFFFFFFFFFFFFFFFFFFFFFFFFFFFFF
310
FFFFFFFFFFFFFFFFFFFFFFFFFFFFFFFFFFFFFFFFFFFFFFFFFFFFFFFFFFFFFFFF
310
FFFFFFFFFFFFFFFFFFFFFFFFFFFFFFFFF0000000000000000000000000000000
310
0000000000000000000000000000000000000000000000000000000000000000
310
0000000000000000000000000000000000000000000000000000000000000000
310
0000000000000000000000000000000000000000000000000000000000000000
310
0000000000000000000000000000000000000000000000000000000000000000
310
0000000000000000000000000000000000000000000000000000000000000000
310
0000000000000000000000000000000000000000000000000000000000000000
310
0000000000000000000000000000000000000000000000000000000000000000
310
0000000000000000000000000000000000000000000000000000000000000000
310
0000000000000000000000000000000000000000000000000000000000000000
310
0000000000000000000000000000000000000000000000000000000000000000
310
0000000000000000000000000000000000000000000000000000000000000000
310
0000000000000000000000000000000000000000000000000000000000000000
310
0000000000000000000000000000000000000000000000000000000000000000
310
0000000000000000000000000000000000000000000000000000000000000000
310
0000000000000000000000000000000000000000000000000000000000000000
  1
OLE
  0
ENDSEC
  0
SECTION
  2
OBJECTS
  0
DICTIONARY
  5
C
330
0
100
AcDbDictionary
281
     1
  3
ACAD_GROUP
350
D
  3
ACAD_LAYOUT
350
1A
  3
ACAD_MLINESTYLE
350
17
  3
ACAD_PLOTSETTINGS
350
19
  3
ACAD_PLOTSTYLENAME
350
E
  0
DICTIONARY
  5
D
102
{ACAD_REACTORS
330
C
102
}
330
C
100
AcDbDictionary
281
     1
  0
DICTIONARY
  5
1A
102
{ACAD_REACTORS
330
C
102
}
330
C
100
AcDbDictionary
281
     1
  3
Layout1
350
1E
  3
Layout2
350
26
  3
Model
350
22
  0
DICTIONARY
  5
17
102
{ACAD_REACTORS
330
C
102
}
330
C
100
AcDbDictionary
281
     1
  3
Standard
350
18
  0
DICTIONARY
  5
19
102
{ACAD_REACTORS
330
C
102
}
330
C
100
AcDbDictionary
281
     1
  0
ACDBDICTIONARYWDFLT
  5
E
102
{ACAD_REACTORS
330
C
102
}
330
C
100
AcDbDictionary
281
     1
  3
Normal
350
F
100
AcDbDictionaryWithDefault
340
F
  0
LAYOUT
  5
1E
102
{ACAD_REACTORS
330
1A
102
}
330
1A
100
AcDbPlotSettings
  1

  2
none_device
  4

  6

 40
0.0
 41
0.0
 42
0.0
 43
0.0
 44
0.0
 45
0.0
 46
0.0
 47
0.0
 48
0.0
 49
0.0
140
0.0
141
0.0
142
1.0
143
1.0
 70
   688
 72
     0
 73
     0
 74
     5
  7

 75
    16
147
1.0
148
0.0
149
0.0
100
AcDbLayout
  1
Layout1
 70
     1
 71
     1
 10
0.0
 20
0.0
 11
420.0
 21
297.0
 12
0.0
 22
0.0
 32
0.0
 14
1.0000000000E+20
 24
1.0000000000E+20
 34
1.0000000000E+20
 15
-1.0000000000E+20
 25
-1.0000000000E+20
 35
-1.0000000000E+20
146
0.0
 13
0.0
 23
0.0
 33
0.0
 16
1.0
 26
0.0
 36
0.0
 17
0.0
 27
1.0
 37
0.0
 76
     0
330
1B
  0
LAYOUT
  5
26
102
{ACAD_REACTORS
330
1A
102
}
330
1A
100
AcDbPlotSettings
  1

  2
none_device
  4

  6

 40
0.0
 41
0.0
 42
0.0
 43
0.0
 44
0.0
 45
0.0
 46
0.0
 47
0.0
 48
0.0
 49
0.0
140
0.0
141
0.0
142
1.0
143
1.0
 70
   688
 72
     0
 73
     0
 74
     5
  7

 75
    16
147
1.0
148
0.0
149
0.0
100
AcDbLayout
  1
Layout2
 70
     1
 71
     2
 10
0.0
 20
0.0
 11
0.0
 21
0.0
 12
0.0
 22
0.0
 32
0.0
 14
0.0
 24
0.0
 34
0.0
 15
0.0
 25
0.0
 35
0.0
146
0.0
 13
0.0
 23
0.0
 33
0.0
 16
1.0
 26
0.0
 36
0.0
 17
0.0
 27
1.0
 37
0.0
 76
     0
330
23
  0
LAYOUT
  5
22
102
{ACAD_REACTORS
330
1A
102
}
330
1A
100
AcDbPlotSettings
  1

  2
none_device
  4

  6

 40
0.0
 41
0.0
 42
0.0
 43
0.0
 44
0.0
 45
0.0
 46
0.0
 47
0.0
 48
0.0
 49
0.0
140
0.0
141
0.0
142
1.0
143
1.0
 70
  1712
 72
     0
 73
     0
 74
     0
  7

 75
     0
147
1.0
148
0.0
149
0.0
100
AcDbLayout
  1
Model
 70
     1
 71
     0
 10
0.0
 20
0.0
 11
297.0
 21
210.0
 12
0.0
 22
0.0
 32
0.0
 14
0.0
 24
0.0
 34
0.0
 15
297.0
 25
210.0
 35
0.0
146
0.0
 13
0.0
 23
0.0
 33
0.0
 16
1.0
 26
0.0
 36
0.0
 17
0.0
 27
1.0
 37
0.0
 76
     0
330
1F
331
29
  0
MLINESTYLE
  5
18
102
{ACAD_REACTORS
330
17
102
}
330
17
100
AcDbMlineStyle
  2
Standard
 70
     0
  3

 62
   256
 51
90.0
 52
90.0
 71
     2
 49
0.5
 62
   256
  6
BYLAYER
 49
-0.5
 62
   256
  6
BYLAYER
  0
ACDBPLACEHOLDER
  5
F
102
{ACAD_REACTORS
330
E
102
}
330
E
  0
ENDSEC
  0
EOF
