  0
SECTION
  2
HEADER
  9
$ACADVER
  1
AC1015
  9
$ACADMAINTVER
 70
     6
  9
$DWGCODEPAGE
  3
ANSI_1252
  9
$INSBASE
 10
0.0
 20
0.0
 30
0.0
  9
$EXTMIN
 10
0.0
 20
0.0
 30
0.0
  9
$EXTMAX
 10
297.0
 20
210.0
 30
0.0
  9
$LIMMIN
 10
0.0
 20
0.0
  9
$LIMMAX
 10
297.0
 20
210.0
  9
$ORTHOMODE
 70
     0
  9
$REGENMODE
 70
     1
  9
$FILLMODE
 70
     1
  9
$QTEXTMODE
 70
     0
  9
$MIRRTEXT
 70
     1
  9
$LTSCALE
 40
1.0
  9
$ATTMODE
 70
     1
  9
$TEXTSIZE
 40
2.0
  9
$TRACEWID
 40
1.0
  9
$TEXTSTYLE
  7
Standard
  9
$CLAYER
  8
0
  9
$CELTYPE
  6
ByLayer
  9
$CECOLOR
 62
   256
  9
$CELTSCALE
 40
1.0
  9
$DISPSILH
 70
     0
  9
$DIMSCALE
 40
1.0
  9
$DIMASZ
 40
3.0
  9
$DIMEXO
 40
0.0
  9
$DIMDLI
 40
3.75
  9
$DIMRND
 40
0.0
  9
$DIMDLE
 40
0.0
  9
$DIMEXE
 40
1.0
  9
$DIMTP
 40
0.0
  9
$DIMTM
 40
0.0
  9
$DIMTXT
 40
2.0
  9
$DIMCEN
 40
2.5
  9
$DIMTSZ
 40
0.0
  9
$DIMTOL
 70
     0
  9
$DIMLIM
 70
     0
  9
$DIMTIH
 70
     1
  9
$DIMTOH
 70
     1
  9
$DIMSE1
 70
     0
  9
$DIMSE2
 70
     0
  9
$DIMTAD
 70
     1
  9
$DIMZIN
 70
     0
  9
$DIMBLK
  1

  9
$DIMASO
 70
     1
  9
$DIMSHO
 70
     1
  9
$DIMPOST
  1

  9
$DIMAPOST
  1

  9
$DIMALT
 70
     0
  9
$DIMALTD
 70
     3
  9
$DIMALTF
 40
0.0393700787
  9
$DIMLFAC
 40
1.0
  9
$DIMTOFL
 70
     1
  9
$DIMTVP
 40
0.0
  9
$DIMTIX
 70
     0
  9
$DIMSOXD
 70
     0
  9
$DIMSAH
 70
     0
  9
$DIMBLK1
  1

  9
$DIMBLK2
  1

  9
$DIMSTYLE
  2
ISO-25
  9
$DIMCLRD
 70
     0
  9
$DIMCLRE
 70
     0
  9
$DIMCLRT
 70
     0
  9
$DIMTFAC
 40
1.0
  9
$DIMGAP
 40
1.524
  9
$DIMJUST
 70
     0
  9
$DIMSD1
 70
     0
  9
$DIMSD2
 70
     0
  9
$DIMTOLJ
 70
     0
  9
$DIMTZIN
 70
     0
  9
$DIMALTZ
 70
     0
  9
$DIMALTTZ
 70
     0
  9
$DIMUPT
 70
     0
  9
$DIMDEC
 70
     2
  9
$DIMTDEC
 70
     3
  9
$DIMALTU
 70
     2
  9
$DIMALTTD
 70
     3
  9
$DIMTXSTY
  7
Standard
  9
$DIMAUNIT
 70
     0
  9
$DIMADEC
 70
     2
  9
$DIMALTRND
 40
0.0
  9
$DIMAZIN
 70
     0
  9
$DIMDSEP
 70
    44
  9
$DIMATFIT
 70
     3
  9
$DIMFRAC
 70
     0
  9
$DIMLDRBLK
  1

  9
$DIMLUNIT
 70
     2
  9
$DIMLWD
 70
    -2
  9
$DIMLWE
 70
    -2
  9
$DIMTMOVE
 70
     0
  9
$LUNITS
 70
     2
  9
$LUPREC
 70
     2
  9
$SKETCHINC
 40
1.0
  9
$FILLETRAD
 40
10.0
  9
$AUNITS
 70
     0
  9
$AUPREC
 70
     2
  9
$MENU
  1
.
  9
$ELEVATION
 40
0.0
  9
$PELEVATION
 40
0.0
  9
$THICKNESS
 40
0.0
  9
$LIMCHECK
 70
     0
  9
$CHAMFERA
 40
10.0
  9
$CHAMFERB
 40
10.0
  9
$CHAMFERC
 40
20.0
  9
$CHAMFERD
 40
0.0
  9
$SKPOLY
 70
     0
  9
$TDCREATE
 40
2456413.567137963
  9
$TDUCREATE
 40
2456413.48380463
  9
$TDUPDATE
 40
2456413.567139225
  9
$TDUUPDATE
 40
2456413.483805891
  9
$TDINDWG
 40
0.0000000116
  9
$TDUSRTIMER
 40
0.0000000116
  9
$USRTIMER
 70
     1
  9
$ANGBASE
 50
0.0
  9
$ANGDIR
 70
     0
  9
$PDMODE
 70
     0
  9
$PDSIZE
 40
-1.0
  9
$PLINEWID
 40
0.0
  9
$SPLFRAME
 70
     0
  9
$SPLINETYPE
 70
     6
  9
$SPLINESEGS
 70
     8
  9
$HANDSEED
  5
375
  9
$SURFTAB1
 70
     6
  9
$SURFTAB2
 70
     6
  9
$SURFTYPE
 70
     6
  9
$SURFU
 70
     6
  9
$SURFV
 70
     6
  9
$UCSBASE
  2

  9
$UCSNAME
  2

  9
$UCSORG
 10
0.0
 20
0.0
 30
0.0
  9
$UCSXDIR
 10
1.0
 20
0.0
 30
0.0
  9
$UCSYDIR
 10
0.0
 20
1.0
 30
0.0
  9
$UCSORTHOREF
  2

  9
$UCSORTHOVIEW
 70
     0
  9
$UCSORGTOP
 10
0.0
 20
0.0
 30
0.0
  9
$UCSORGBOTTOM
 10
0.0
 20
0.0
 30
0.0
  9
$UCSORGLEFT
 10
0.0
 20
0.0
 30
0.0
  9
$UCSORGRIGHT
 10
0.0
 20
0.0
 30
0.0
  9
$UCSORGFRONT
 10
0.0
 20
0.0
 30
0.0
  9
$UCSORGBACK
 10
0.0
 20
0.0
 30
0.0
  9
$PUCSBASE
  2

  9
$PUCSNAME
  2

  9
$PUCSORG
 10
0.0
 20
0.0
 30
0.0
  9
$PUCSXDIR
 10
1.0
 20
0.0
 30
0.0
  9
$PUCSYDIR
 10
0.0
 20
1.0
 30
0.0
  9
$PUCSORTHOREF
  2

  9
$PUCSORTHOVIEW
 70
     0
  9
$PUCSORGTOP
 10
0.0
 20
0.0
 30
0.0
  9
$PUCSORGBOTTOM
 10
0.0
 20
0.0
 30
0.0
  9
$PUCSORGLEFT
 10
0.0
 20
0.0
 30
0.0
  9
$PUCSORGRIGHT
 10
0.0
 20
0.0
 30
0.0
  9
$PUCSORGFRONT
 10
0.0
 20
0.0
 30
0.0
  9
$PUCSORGBACK
 10
0.0
 20
0.0
 30
0.0
  9
$USERI1
 70
     0
  9
$USERI2
 70
     0
  9
$USERI3
 70
     0
  9
$USERI4
 70
     0
  9
$USERI5
 70
     0
  9
$USERR1
 40
0.0
  9
$USERR2
 40
0.0
  9
$USERR3
 40
0.0
  9
$USERR4
 40
0.0
  9
$USERR5
 40
0.0
  9
$WORLDVIEW
 70
     1
  9
$SHADEDGE
 70
     3
  9
$SHADEDIF
 70
    70
  9
$TILEMODE
 70
     1
  9
$MAXACTVP
 70
    64
  9
$PINSBASE
 10
0.0
 20
0.0
 30
0.0
  9
$PLIMCHECK
 70
     0
  9
$PEXTMIN
 10
1.0000000000E+20
 20
1.0000000000E+20
 30
1.0000000000E+20
  9
$PEXTMAX
 10
-1.0000000000E+20
 20
-1.0000000000E+20
 30
-1.0000000000E+20
  9
$PLIMMIN
 10
0.0
 20
0.0
  9
$PLIMMAX
 10
420.0
 20
297.0
  9
$UNITMODE
 70
     0
  9
$VISRETAIN
 70
     1
  9
$PLINEGEN
 70
     0
  9
$PSLTSCALE
 70
     1
  9
$TREEDEPTH
 70
  3020
  9
$CMLSTYLE
  2
Standard
  9
$CMLJUST
 70
     0
  9
$CMLSCALE
 40
20.0
  9
$PROXYGRAPHICS
 70
     1
  9
$MEASUREMENT
 70
     1
  9
$CELWEIGHT
370
    -1
  9
$ENDCAPS
280
     0
  9
$JOINSTYLE
280
     0
  9
$LWDISPLAY
290
     1
  9
$INSUNITS
 70
     4
  9
$HYPERLINKBASE
  1

  9
$STYLESHEET
  1

  9
$XEDIT
290
     1
  9
$CEPSNTYPE
380
     0
  9
$PSTYLEMODE
290
     1
  9
$FINGERPRINTGUID
  2
{447F01EA-AD6E-42C0-A959-2A51369CF2EE}
  9
$VERSIONGUID
  2
{FAEB1C32-E019-11D5-929B-00C0DF256EC4}
  9
$EXTNAMES
290
     1
  9
$PSVPSCALE
 40
0.0
  9
$OLESTARTUP
290
     0
  0
ENDSEC
  0
SECTION
  2
CLASSES
  0
CLASS
  1
ACDBDICTIONARYWDFLT
  2
AcDbDictionaryWithDefault
  3
ObjectDBX Classes
 90
        0
280
     0
281
     0
  0
CLASS
  1
VISUALSTYLE
  2
AcDbVisualStyle
  3
ObjectDBX Classes
 90
     4095
280
     0
281
     0
  0
CLASS
  1
MATERIAL
  2
AcDbMaterial
  3
ObjectDBX Classes
 90
     1153
280
     0
281
     0
  0
CLASS
  1
ACDBPLACEHOLDER
  2
AcDbPlaceHolder
  3
ObjectDBX Classes
 90
        0
280
     0
281
     0
  0
CLASS
  1
LAYOUT
  2
AcDbLayout
  3
ObjectDBX Classes
 90
        0
280
     0
281
     0
  0
ENDSEC
  0
SECTION
  2
TABLES
  0
TABLE
  2
VPORT
  5
8
330
0
100
AcDbSymbolTable
 70
     1
  0
VPORT
  5
29
330
8
100
AcDbSymbolTableRecord
100
AcDbViewportTableRecord
  2
*Active
 70
     0
 10
0.0
 20
0.0
 11
1.0
 21
1.0
 12
148.5
 22
105.0
 13
0.0
 23
0.0
 14
10.0
 24
10.0
 15
10.0
 25
10.0
 16
0.0
 26
0.0
 36
1.0
 17
0.0
 27
0.0
 37
0.0
 40
210.0
 41
1.4142857143
 42
50.0
 43
0.0
 44
0.0
 50
0.0
 51
0.0
 71
     0
 72
  2000
 73
     1
 74
     3
 75
     0
 76
     0
 77
     0
 78
     0
281
     0
 65
     1
110
0.0
120
0.0
130
0.0
111
1.0
121
0.0
131
0.0
112
0.0
122
1.0
132
0.0
 79
     0
146
0.0
  0
ENDTAB
  0
TABLE
  2
LTYPE
  5
5
330
0
100
AcDbSymbolTable
 70
     6
  0
LTYPE
  5
14
330
5
100
AcDbSymbolTableRecord
100
AcDbLinetypeTableRecord
  2
ByBlock
 70
     0
  3

 72
    65
 73
     0
 40
0.0
  0
LTYPE
  5
15
330
5
100
AcDbSymbolTableRecord
100
AcDbLinetypeTableRecord
  2
ByLayer
 70
     0
  3

 72
    65
 73
     0
 40
0.0
  0
LTYPE
  5
16
330
5
100
AcDbSymbolTableRecord
100
AcDbLinetypeTableRecord
  2
Continuous
 70
     0
  3
Solid line
 72
    65
 73
     0
 40
0.0
  0
LTYPE
  5
3F
330
5
100
AcDbSymbolTableRecord
100
AcDbLinetypeTableRecord
  2
HIDDEN
 70
     0
  3
Hidden __ __ __ __ __ __ __ __ __ __ __ __ __ __
 72
    65
 73
     2
 40
1.905
 49
1.27
 74
     0
 49
-0.635
 74
     0
  0
LTYPE
  5
40
330
5
100
AcDbSymbolTableRecord
100
AcDbLinetypeTableRecord
  2
PHANTOM
 70
     0
  3
Phantom ______  __  __  ______  __  __  ______
 72
    65
 73
     6
 40
12.7
 49
6.35
 74
     0
 49
-1.27
 74
     0
 49
1.27
 74
     0
 49
-1.27
 74
     0
 49
1.27
 74
     0
 49
-1.27
 74
     0
  0
LTYPE
  5
41
330
5
100
AcDbSymbolTableRecord
100
AcDbLinetypeTableRecord
  2
CENTER
 70
     0
  3
Center ____ _ ____ _ ____ _ ____ _ ____ _ ____
 72
    65
 73
     4
 40
10.16
 49
6.35
 74
     0
 49
-1.27
 74
     0
 49
1.27
 74
     0
 49
-1.27
 74
     0
  0
LTYPE
  5
42
330
5
100
AcDbSymbolTableRecord
100
AcDbLinetypeTableRecord
  2
CENTERX2
 70
     0
  3
Center (2x) ________  __  ________  __  _____
 72
    65
 73
     4
 40
20.32
 49
12.7
 74
     0
 49
-2.54
 74
     0
 49
2.54
 74
     0
 49
-2.54
 74
     0
  0
LTYPE
  5
43
330
5
100
AcDbSymbolTableRecord
100
AcDbLinetypeTableRecord
  2
DOT2
 70
     0
  3
Dot (.5x) ........................................
 72
    65
 73
     2
 40
0.635
 49
0.0
 74
     0
 49
-0.635
 74
     0
  0
ENDTAB
  0
TABLE
  2
LAYER
  5
2
330
0
100
AcDbSymbolTable
 70
     5
  0
LAYER
  5
10
330
2
100
AcDbSymbolTableRecord
100
AcDbLayerTableRecord
  2
0
 70
     0
 62
     7
  6
Continuous
370
    -3
390
F
  0
LAYER
  5
44
330
2
100
AcDbSymbolTableRecord
100
AcDbLayerTableRecord
  2
FORMAT
 70
     0
 62
     7
  6
Continuous
370
    -3
390
F
  0
LAYER
  5
45
330
2
100
AcDbSymbolTableRecord
100
AcDbLayerTableRecord
  2
VERMASSUNG
 70
     0
 62
     7
  6
Continuous
370
    -3
390
F
  0
LAYER
  5
46
330
2
100
AcDbSymbolTableRecord
100
AcDbLayerTableRecord
  2
KOPF_DÜNN
 70
     0
 62
     7
  6
Continuous
370
    -3
390
F
  0
LAYER
  5
47
330
2
100
AcDbSymbolTableRecord
100
AcDbLayerTableRecord
  2
KOPF_DICK
 70
     0
 62
     7
  6
Continuous
370
    15
390
F
  0
ENDTAB
  0
TABLE
  2
STYLE
  5
3
330
0
100
AcDbSymbolTable
 70
     3
  0
STYLE
  5
11
330
3
100
AcDbSymbolTableRecord
100
AcDbTextStyleTableRecord
  2
Standard
 70
     0
 40
0.0
 41
1.0
 50
0.0
 71
     0
 42
2.0
  3
txt
  4

  0
STYLE
  5
48
330
3
100
AcDbSymbolTableRecord
100
AcDbTextStyleTableRecord
  2
SLDTEXTSTYLE0
 70
     0
 40
0.0
 41
0.7
 50
0.0
 71
     0
 42
0.2
  3
TXT
  4

  0
STYLE
  5
4C
330
3
100
AcDbSymbolTableRecord
100
AcDbTextStyleTableRecord
  2
SLDTEXTSTYLE1
 70
     0
 40
0.0
 41
0.6461538462
 50
0.0
 71
     0
 42
0.2
  3
TXT
  4

  0
ENDTAB
  0
TABLE
  2
VIEW
  5
6
330
0
100
AcDbSymbolTable
 70
     0
  0
ENDTAB
  0
TABLE
  2
UCS
  5
7
330
0
100
AcDbSymbolTable
 70
     0
  0
ENDTAB
  0
TABLE
  2
APPID
  5
9
330
0
100
AcDbSymbolTable
 70
     1
  0
APPID
  5
12
330
9
100
AcDbSymbolTableRecord
100
AcDbRegAppTableRecord
  2
ACAD
 70
     0
  0
ENDTAB
  0
TABLE
  2
DIMSTYLE
  5
A
330
0
100
AcDbSymbolTable
 70
     2
100
AcDbDimStyleTable
  0
DIMSTYLE
105
27
330
A
100
AcDbSymbolTableRecord
100
AcDbDimStyleTableRecord
  2
ISO-25
 70
     0
 41
2.5
 42
0.625
 43
3.75
 44
1.25
 73
     0
 74
     0
 77
     1
 78
     8
140
2.5
141
2.5
143
0.0393700787
147
0.625
171
     3
172
     1
178
     0
271
     2
272
     2
274
     3
278
    44
283
     0
284
     8
340
11
  0
DIMSTYLE
105
1BA
102
{ACAD_REACTORS
330
1B9
330
1C6
330
1D0
330
1DA
330
1E4
330
1EE
330
1F8
330
202
330
20C
330
217
102
}
330
A
100
AcDbSymbolTableRecord
100
AcDbDimStyleTableRecord
  2
SLDDIMSTYLE0
 70
     0
 41
3.0
 44
0.0
 45
0.000000001
 73
     0
 74
     0
 77
     1
 78
    12
 79
     3
140
2.0
147
0.5
173
     1
178
     0
271
     2
272
     3
276
     2
284
    12
340
48
  0
ENDTAB
  0
TABLE
  2
BLOCK_RECORD
  5
1
330
0
100
AcDbSymbolTable
 70
    12
  0
BLOCK_RECORD
  5
1F
330
1
100
AcDbSymbolTableRecord
100
AcDbBlockTableRecord
  2
*Model_Space
340
22
  0
BLOCK_RECORD
  5
1B
330
1
100
AcDbSymbolTableRecord
100
AcDbBlockTableRecord
  2
*Paper_Space
340
1E
  0
BLOCK_RECORD
  5
23
330
1
100
AcDbSymbolTableRecord
100
AcDbBlockTableRecord
  2
*Paper_Space0
340
26
  0
BLOCK_RECORD
  5
1BB
330
1
100
AcDbSymbolTableRecord
100
AcDbBlockTableRecord
  2
_D
340
0
  0
BLOCK_RECORD
  5
1C7
330
1
100
AcDbSymbolTableRecord
100
AcDbBlockTableRecord
  2
_D_1
340
0
  0
BLOCK_RECORD
  5
1D1
330
1
100
AcDbSymbolTableRecord
100
AcDbBlockTableRecord
  2
_D_2
340
0
  0
BLOCK_RECORD
  5
1DB
330
1
100
AcDbSymbolTableRecord
100
AcDbBlockTableRecord
  2
_D_3
340
0
  0
BLOCK_RECORD
  5
1E5
330
1
100
AcDbSymbolTableRecord
100
AcDbBlockTableRecord
  2
_D_4
340
0
  0
BLOCK_RECORD
  5
1EF
330
1
100
AcDbSymbolTableRecord
100
AcDbBlockTableRecord
  2
_D_5
340
0
  0
BLOCK_RECORD
  5
1F9
330
1
100
AcDbSymbolTableRecord
100
AcDbBlockTableRecord
  2
_D_6
340
0
  0
BLOCK_RECORD
  5
203
330
1
100
AcDbSymbolTableRecord
100
AcDbBlockTableRecord
  2
_D_7
340
0
  0
BLOCK_RECORD
  5
20D
330
1
100
AcDbSymbolTableRecord
100
AcDbBlockTableRecord
  2
_D_8
340
0
  0
BLOCK_RECORD
  5
218
330
1
100
AcDbSymbolTableRecord
100
AcDbBlockTableRecord
  2
_D_9
340
0
  0
BLOCK_RECORD
  5
368
330
1
100
AcDbSymbolTableRecord
100
AcDbBlockTableRecord
  2
SW_CENTERMARKSYMBOL_0
340
0
102
{BLKREFS
331
373
102
}
  0
ENDTAB
  0
ENDSEC
  0
SECTION
  2
BLOCKS
  0
BLOCK
  5
20
330
1F
100
AcDbEntity
  8
0
100
AcDbBlockBegin
  2
*Model_Space
 70
     0
 10
0.0
 20
0.0
 30
0.0
  3
*Model_Space
  1

  0
ENDBLK
  5
21
330
1F
100
AcDbEntity
  8
0
100
AcDbBlockEnd
  0
BLOCK
  5
1C
330
1B
100
AcDbEntity
 67
     1
  8
0
100
AcDbBlockBegin
  2
*Paper_Space
 70
     0
 10
0.0
 20
0.0
 30
0.0
  3
*Paper_Space
  1

  0
ENDBLK
  5
1D
330
1B
100
AcDbEntity
 67
     1
  8
0
100
AcDbBlockEnd
  0
BLOCK
  5
24
330
23
100
AcDbEntity
  8
0
100
AcDbBlockBegin
  2
*Paper_Space0
 70
     0
 10
0.0
 20
0.0
 30
0.0
  3
*Paper_Space0
  1

  0
ENDBLK
  5
25
330
23
100
AcDbEntity
  8
0
100
AcDbBlockEnd
  0
BLOCK
  5
1BC
330
1BB
100
AcDbEntity
  8
0
100
AcDbBlockBegin
  2
_D
 70
     0
 10
0.0
 20
0.0
 30
0.0
  3
_D
  1

  0
SOLID
  5
1BE
330
1BB
100
AcDbEntity
  8
VERMASSUNG
100
AcDbTrace
 10
125.1834871252
 20
172.2379535936
 30
0.0
 11
124.7334871252
 21
169.2379535936
 31
0.0
 12
125.6334871252
 22
169.2379535936
 32
0.0
 13
125.6334871252
 23
169.2379535936
 33
0.0
  0
SOLID
  5
1BF
330
1BB
100
AcDbEntity
  8
VERMASSUNG
100
AcDbTrace
 10
125.1834871252
 20
72.2379535936
 30
0.0
 11
125.6334871252
 21
75.2379535936
 31
0.0
 12
124.7334871252
 22
75.2379535936
 32
0.0
 13
124.7334871252
 23
75.2379535936
 33
0.0
  0
LINE
  5
1C0
330
1BB
100
AcDbEntity
  8
VERMASSUNG
100
AcDbLine
 10
183.4666932113
 20
172.2379535936
 30
0.0
 11
124.1834871252
 21
172.2379535936
 31
0.0
  0
LINE
  5
1C1
330
1BB
100
AcDbEntity
  8
VERMASSUNG
100
AcDbLine
 10
183.4666932113
 20
72.2379535936
 30
0.0
 11
124.1834871252
 21
72.2379535936
 31
0.0
  0
LINE
  5
1C2
330
1BB
100
AcDbEntity
  8
VERMASSUNG
100
AcDbLine
 10
125.1834871252
 20
172.2379535936
 30
0.0
 11
125.1834871252
 21
72.2379535936
 31
0.0
  0
MTEXT
  5
1C3
330
1BB
100
AcDbEntity
  8
VERMASSUNG
100
AcDbMText
 10
122.4053516362
 20
113.5530598942
 30
0.0
 40
2.0
 41
0.0
 71
     1
 72
     1
  1
HSK T
  7
SLDTEXTSTYLE0
 11
-7.044195017643634E-15
 21
1.0
 31
0.0
 73
     1
 44
1.0
  0
MTEXT
  5
1C4
330
1BB
100
AcDbEntity
  8
VERMASSUNG
100
AcDbMText
 10
122.6053516457
 20
122.3530598465
 30
0.0
 40
2.0
 41
0.0
 71
     1
 72
     1
  1
%%c
  7
SLDTEXTSTYLE0
 11
-7.044195017643634E-15
 21
1.0
 31
0.0
 73
     1
 44
1.0
  0
MTEXT
  5
1C5
330
1BB
100
AcDbEntity
  8
VERMASSUNG
100
AcDbMText
 10
122.6053517621
 20
125.9617933405
 30
0.0
 40
2.0
 41
0.0
 71
     1
 72
     1
  1
100
  7
SLDTEXTSTYLE0
 11
-7.044195017643634E-15
 21
1.0
 31
0.0
 73
     1
 44
1.0
  0
ENDBLK
  5
1BD
330
1BB
100
AcDbEntity
  8
0
100
AcDbBlockEnd
  0
BLOCK
  5
1C8
330
1C7
100
AcDbEntity
  8
0
100
AcDbBlockBegin
  2
_D_1
 70
     0
 10
0.0
 20
0.0
 30
0.0
  3
_D_1
  1

  0
SOLID
  5
1CA
330
1C7
100
AcDbEntity
  8
VERMASSUNG
100
AcDbTrace
 10
267.9666932113
 20
190.8945807134
 30
0.0
 11
264.9666932113
 21
191.3445807134
 31
0.0
 12
264.9666932113
 22
190.4445807134
 32
0.0
 13
264.9666932113
 23
190.4445807134
 33
0.0
  0
SOLID
  5
1CB
330
1C7
100
AcDbEntity
  8
VERMASSUNG
100
AcDbTrace
 10
133.0666932113
 20
190.8945807134
 30
0.0
 11
136.0666932113
 21
190.4445807134
 31
0.0
 12
136.0666932113
 22
191.3445807134
 32
0.0
 13
136.0666932113
 23
191.3445807134
 33
0.0
  0
LINE
  5
1CC
330
1C7
100
AcDbEntity
  8
VERMASSUNG
100
AcDbLine
 10
267.9666932113
 20
143.2379535936
 30
0.0
 11
267.9666932113
 21
191.8945807134
 31
0.0
  0
LINE
  5
1CD
330
1C7
100
AcDbEntity
  8
VERMASSUNG
100
AcDbLine
 10
133.0666932113
 20
152.7406233362
 30
0.0
 11
133.0666932113
 21
191.8945807134
 31
0.0
  0
LINE
  5
1CE
330
1C7
100
AcDbEntity
  8
VERMASSUNG
100
AcDbLine
 10
267.9666932113
 20
190.8945807134
 30
0.0
 11
133.0666932113
 21
190.8945807134
 31
0.0
  0
MTEXT
  5
1CF
330
1C7
100
AcDbEntity
  8
VERMASSUNG
100
AcDbMText
 10
203.833607927
 20
193.4727160766
 30
0.0
 40
2.0
 41
0.0
 71
     1
 72
     1
  1
134.9
  7
SLDTEXTSTYLE0
 73
     1
 44
1.0
  0
ENDBLK
  5
1C9
330
1C7
100
AcDbEntity
  8
0
100
AcDbBlockEnd
  0
BLOCK
  5
1D2
330
1D1
100
AcDbEntity
  8
0
100
AcDbBlockBegin
  2
_D_2
 70
     0
 10
0.0
 20
0.0
 30
0.0
  3
_D_2
  1

  0
SOLID
  5
1D4
330
1D1
100
AcDbEntity
  8
VERMASSUNG
100
AcDbTrace
 10
182.9666932113
 20
184.8945807134
 30
0.0
 11
185.9666932113
 21
184.4445807134
 31
0.0
 12
185.9666932113
 22
185.3445807134
 32
0.0
 13
185.9666932113
 23
185.3445807134
 33
0.0
  0
SOLID
  5
1D5
330
1D1
100
AcDbEntity
  8
VERMASSUNG
100
AcDbTrace
 10
267.9666932113
 20
184.8945807134
 30
0.0
 11
264.9666932113
 21
185.3445807134
 31
0.0
 12
264.9666932113
 22
184.4445807134
 32
0.0
 13
264.9666932113
 23
184.4445807134
 33
0.0
  0
LINE
  5
1D6
330
1D1
100
AcDbEntity
  8
VERMASSUNG
100
AcDbLine
 10
182.9666932113
 20
171.7379535936
 30
0.0
 11
182.9666932113
 21
185.8945807134
 31
0.0
  0
LINE
  5
1D7
330
1D1
100
AcDbEntity
  8
VERMASSUNG
100
AcDbLine
 10
267.9666932113
 20
143.2379535936
 30
0.0
 11
267.9666932113
 21
185.8945807134
 31
0.0
  0
LINE
  5
1D8
330
1D1
100
AcDbEntity
  8
VERMASSUNG
100
AcDbLine
 10
182.9666932113
 20
184.8945807134
 30
0.0
 11
267.9666932113
 21
184.8945807134
 31
0.0
  0
MTEXT
  5
1D9
330
1D1
100
AcDbEntity
  8
VERMASSUNG
100
AcDbMText
 10
222.984470733
 20
187.4727160766
 30
0.0
 40
2.0
 41
0.0
 71
     1
 72
     1
  1
85
  7
SLDTEXTSTYLE0
 73
     1
 44
1.0
  0
ENDBLK
  5
1D3
330
1D1
100
AcDbEntity
  8
0
100
AcDbBlockEnd
  0
BLOCK
  5
1DC
330
1DB
100
AcDbEntity
  8
0
100
AcDbBlockBegin
  2
_D_3
 70
     0
 10
0.0
 20
0.0
 30
0.0
  3
_D_3
  1

  0
SOLID
  5
1DE
330
1DB
100
AcDbEntity
  8
VERMASSUNG
100
AcDbTrace
 10
211.9166932113
 20
178.8945807134
 30
0.0
 11
214.9166932113
 21
178.4445807134
 31
0.0
 12
214.9166932113
 22
179.3445807134
 32
0.0
 13
214.9166932113
 23
179.3445807134
 33
0.0
  0
SOLID
  5
1DF
330
1DB
100
AcDbEntity
  8
VERMASSUNG
100
AcDbTrace
 10
267.9666932113
 20
178.8945807134
 30
0.0
 11
264.9666932113
 21
179.3445807134
 31
0.0
 12
264.9666932113
 22
178.4445807134
 32
0.0
 13
264.9666932113
 23
178.4445807134
 33
0.0
  0
LINE
  5
1E0
330
1DB
100
AcDbEntity
  8
VERMASSUNG
100
AcDbLine
 10
211.9166932113
 20
170.2066934144
 30
0.0
 11
211.9166932113
 21
179.8945807134
 31
0.0
  0
LINE
  5
1E1
330
1DB
100
AcDbEntity
  8
VERMASSUNG
100
AcDbLine
 10
267.9666932113
 20
143.2379535936
 30
0.0
 11
267.9666932113
 21
179.8945807134
 31
0.0
  0
LINE
  5
1E2
330
1DB
100
AcDbEntity
  8
VERMASSUNG
100
AcDbLine
 10
211.9166932113
 20
178.8945807134
 30
0.0
 11
267.9666932113
 21
178.8945807134
 31
0.0
  0
MTEXT
  5
1E3
330
1DB
100
AcDbEntity
  8
VERMASSUNG
100
AcDbMText
 10
238.0536219447
 20
181.4727160766
 30
0.0
 40
2.0
 41
0.0
 71
     1
 72
     1
  1
56.05
  7
SLDTEXTSTYLE0
 73
     1
 44
1.0
  0
ENDBLK
  5
1DD
330
1DB
100
AcDbEntity
  8
0
100
AcDbBlockEnd
  0
BLOCK
  5
1E6
330
1E5
100
AcDbEntity
  8
0
100
AcDbBlockBegin
  2
_D_4
 70
     0
 10
0.0
 20
0.0
 30
0.0
  3
_D_4
  1

  0
SOLID
  5
1E8
330
1E5
100
AcDbEntity
  8
VERMASSUNG
100
AcDbTrace
 10
257.4666932113
 20
93.1140761427
 30
0.0
 11
260.4666932113
 21
92.6640761427
 31
0.0
 12
260.4666932113
 22
93.5640761427
 32
0.0
 13
260.4666932113
 23
93.5640761427
 33
0.0
  0
SOLID
  5
1E9
330
1E5
100
AcDbEntity
  8
VERMASSUNG
100
AcDbTrace
 10
267.9666932113
 20
93.1140761427
 30
0.0
 11
264.9666932113
 21
93.5640761427
 31
0.0
 12
264.9666932113
 22
92.6640761427
 32
0.0
 13
264.9666932113
 23
92.6640761427
 33
0.0
  0
LINE
  5
1EA
330
1E5
100
AcDbEntity
  8
VERMASSUNG
100
AcDbLine
 10
257.4666932113
 20
131.2379535936
 30
0.0
 11
257.4666932113
 21
92.1140761427
 31
0.0
  0
LINE
  5
1EB
330
1E5
100
AcDbEntity
  8
VERMASSUNG
100
AcDbLine
 10
267.9666932113
 20
101.2379535936
 30
0.0
 11
267.9666932113
 21
92.1140761427
 31
0.0
  0
LINE
  5
1EC
330
1E5
100
AcDbEntity
  8
VERMASSUNG
100
AcDbLine
 10
257.4666932113
 20
93.1140761427
 30
0.0
 11
267.9666932113
 21
93.1140761427
 31
0.0
  0
MTEXT
  5
1ED
330
1E5
100
AcDbEntity
  8
VERMASSUNG
100
AcDbMText
 10
260.3127420239
 20
95.6922115058
 30
0.0
 40
2.0
 41
0.0
 71
     1
 72
     1
  1
10.5
  7
SLDTEXTSTYLE0
 73
     1
 44
1.0
  0
ENDBLK
  5
1E7
330
1E5
100
AcDbEntity
  8
0
100
AcDbBlockEnd
  0
BLOCK
  5
1F0
330
1EF
100
AcDbEntity
  8
0
100
AcDbBlockBegin
  2
_D_5
 70
     0
 10
0.0
 20
0.0
 30
0.0
  3
_D_5
  1

  0
SOLID
  5
1F2
330
1EF
100
AcDbEntity
  8
VERMASSUNG
100
AcDbTrace
 10
241.9666932113
 20
93.1140761427
 30
0.0
 11
244.9666932113
 21
92.6640761427
 31
0.0
 12
244.9666932113
 22
93.5640761427
 32
0.0
 13
244.9666932113
 23
93.5640761427
 33
0.0
  0
SOLID
  5
1F3
330
1EF
100
AcDbEntity
  8
VERMASSUNG
100
AcDbTrace
 10
257.4666932113
 20
93.1140761427
 30
0.0
 11
254.4666932113
 21
93.5640761427
 31
0.0
 12
254.4666932113
 22
92.6640761427
 32
0.0
 13
254.4666932113
 23
92.6640761427
 33
0.0
  0
LINE
  5
1F4
330
1EF
100
AcDbEntity
  8
VERMASSUNG
100
AcDbLine
 10
241.9666932113
 20
130.2379535936
 30
0.0
 11
241.9666932113
 21
92.1140761427
 31
0.0
  0
LINE
  5
1F5
330
1EF
100
AcDbEntity
  8
VERMASSUNG
100
AcDbLine
 10
257.4666932113
 20
131.2379535936
 30
0.0
 11
257.4666932113
 21
92.1140761427
 31
0.0
  0
LINE
  5
1F6
330
1EF
100
AcDbEntity
  8
VERMASSUNG
100
AcDbLine
 10
241.9666932113
 20
93.1140761427
 30
0.0
 11
257.4666932113
 21
93.1140761427
 31
0.0
  0
MTEXT
  5
1F7
330
1EF
100
AcDbEntity
  8
VERMASSUNG
100
AcDbMText
 10
247.6496863324
 20
95.6922115058
 30
0.0
 40
2.0
 41
0.0
 71
     1
 72
     1
  1
15.5
  7
SLDTEXTSTYLE0
 73
     1
 44
1.0
  0
ENDBLK
  5
1F1
330
1EF
100
AcDbEntity
  8
0
100
AcDbBlockEnd
  0
BLOCK
  5
1FA
330
1F9
100
AcDbEntity
  8
0
100
AcDbBlockBegin
  2
_D_6
 70
     0
 10
0.0
 20
0.0
 30
0.0
  3
_D_6
  1

  0
SOLID
  5
1FC
330
1F9
100
AcDbEntity
  8
VERMASSUNG
100
AcDbTrace
 10
226.4666932113
 20
93.1140761427
 30
0.0
 11
229.4666932113
 21
92.6640761427
 31
0.0
 12
229.4666932113
 22
93.5640761427
 32
0.0
 13
229.4666932113
 23
93.5640761427
 33
0.0
  0
SOLID
  5
1FD
330
1F9
100
AcDbEntity
  8
VERMASSUNG
100
AcDbTrace
 10
241.9666932113
 20
93.1140761427
 30
0.0
 11
238.9666932113
 21
93.5640761427
 31
0.0
 12
238.9666932113
 22
92.6640761427
 32
0.0
 13
238.9666932113
 23
92.6640761427
 33
0.0
  0
LINE
  5
1FE
330
1F9
100
AcDbEntity
  8
VERMASSUNG
100
AcDbLine
 10
226.4666932113
 20
131.2379535936
 30
0.0
 11
226.4666932113
 21
92.1140761427
 31
0.0
  0
LINE
  5
1FF
330
1F9
100
AcDbEntity
  8
VERMASSUNG
100
AcDbLine
 10
241.9666932113
 20
130.2379535936
 30
0.0
 11
241.9666932113
 21
92.1140761427
 31
0.0
  0
LINE
  5
200
330
1F9
100
AcDbEntity
  8
VERMASSUNG
100
AcDbLine
 10
226.4666932113
 20
93.1140761427
 30
0.0
 11
241.9666932113
 21
93.1140761427
 31
0.0
  0
MTEXT
  5
201
330
1F9
100
AcDbEntity
  8
VERMASSUNG
100
AcDbMText
 10
231.3478215341
 20
95.6922115058
 30
0.0
 40
2.0
 41
0.0
 71
     1
 72
     1
  1
15.5
  7
SLDTEXTSTYLE0
 73
     1
 44
1.0
  0
ENDBLK
  5
1FB
330
1F9
100
AcDbEntity
  8
0
100
AcDbBlockEnd
  0
BLOCK
  5
204
330
203
100
AcDbEntity
  8
0
100
AcDbBlockBegin
  2
_D_7
 70
     0
 10
0.0
 20
0.0
 30
0.0
  3
_D_7
  1

  0
SOLID
  5
206
330
203
100
AcDbEntity
  8
VERMASSUNG
100
AcDbTrace
 10
216.9666932113
 20
87.1140761427
 30
0.0
 11
219.9666932113
 21
86.6640761427
 31
0.0
 12
219.9666932113
 22
87.5640761427
 32
0.0
 13
219.9666932113
 23
87.5640761427
 33
0.0
  0
SOLID
  5
207
330
203
100
AcDbEntity
  8
VERMASSUNG
100
AcDbTrace
 10
267.9666932113
 20
87.1140761427
 30
0.0
 11
264.9666932113
 21
87.5640761427
 31
0.0
 12
264.9666932113
 22
86.6640761427
 32
0.0
 13
264.9666932113
 23
86.6640761427
 33
0.0
  0
LINE
  5
208
330
203
100
AcDbEntity
  8
VERMASSUNG
100
AcDbLine
 10
216.9666932113
 20
112.3379535936
 30
0.0
 11
216.9666932113
 21
86.1140761427
 31
0.0
  0
LINE
  5
209
330
203
100
AcDbEntity
  8
VERMASSUNG
100
AcDbLine
 10
267.9666932113
 20
101.2379535936
 30
0.0
 11
267.9666932113
 21
86.1140761427
 31
0.0
  0
LINE
  5
20A
330
203
100
AcDbEntity
  8
VERMASSUNG
100
AcDbLine
 10
216.9666932113
 20
87.1140761427
 30
0.0
 11
267.9666932113
 21
87.1140761427
 31
0.0
  0
MTEXT
  5
20B
330
203
100
AcDbEntity
  8
VERMASSUNG
100
AcDbMText
 10
242.8490838763
 20
89.6922115058
 30
0.0
 40
2.0
 41
0.0
 71
     1
 72
     1
  1
51
  7
SLDTEXTSTYLE0
 73
     1
 44
1.0
  0
ENDBLK
  5
205
330
203
100
AcDbEntity
  8
0
100
AcDbBlockEnd
  0
BLOCK
  5
20E
330
20D
100
AcDbEntity
  8
0
100
AcDbBlockBegin
  2
_D_8
 70
     0
 10
0.0
 20
0.0
 30
0.0
  3
_D_8
  1

  0
SOLID
  5
210
330
20D
100
AcDbEntity
  8
VERMASSUNG
100
AcDbTrace
 10
280.4759571753
 20
144.2379535936
 30
0.0
 11
280.0259571753
 21
141.2379535936
 31
0.0
 12
280.9259571753
 22
141.2379535936
 32
0.0
 13
280.9259571753
 23
141.2379535936
 33
0.0
  0
SOLID
  5
211
330
20D
100
AcDbEntity
  8
VERMASSUNG
100
AcDbTrace
 10
280.4759571753
 20
100.2379535936
 30
0.0
 11
280.9259571753
 21
103.2379535936
 31
0.0
 12
280.0259571753
 22
103.2379535936
 32
0.0
 13
280.0259571753
 23
103.2379535936
 33
0.0
  0
LINE
  5
212
330
20D
100
AcDbEntity
  8
VERMASSUNG
100
AcDbLine
 10
266.9666932113
 20
144.2379535936
 30
0.0
 11
281.4759571753
 21
144.2379535936
 31
0.0
  0
LINE
  5
213
330
20D
100
AcDbEntity
  8
VERMASSUNG
100
AcDbLine
 10
266.9666932113
 20
100.2379535936
 30
0.0
 11
281.4759571753
 21
100.2379535936
 31
0.0
  0
LINE
  5
214
330
20D
100
AcDbEntity
  8
VERMASSUNG
100
AcDbLine
 10
280.4759571753
 20
144.2379535936
 30
0.0
 11
280.4759571753
 21
100.2379535936
 31
0.0
  0
MTEXT
  5
215
330
20D
100
AcDbEntity
  8
VERMASSUNG
100
AcDbMText
 10
277.8978216957
 20
118.9016230796
 30
0.0
 40
2.0
 41
0.0
 71
     1
 72
     1
  1
%%c
  7
SLDTEXTSTYLE0
 11
-7.044195017643634E-15
 21
1.0
 31
0.0
 73
     1
 44
1.0
  0
MTEXT
  5
216
330
20D
100
AcDbEntity
  8
VERMASSUNG
100
AcDbMText
 10
277.8978218121
 20
122.5093881404
 30
0.0
 40
2.0
 41
0.0
 71
     1
 72
     1
  1
44
  7
SLDTEXTSTYLE0
 11
-7.044195017643634E-15
 21
1.0
 31
0.0
 73
     1
 44
1.0
  0
ENDBLK
  5
20F
330
20D
100
AcDbEntity
  8
0
100
AcDbBlockEnd
  0
BLOCK
  5
219
330
218
100
AcDbEntity
  8
0
100
AcDbBlockBegin
  2
_D_9
 70
     0
 10
0.0
 20
0.0
 30
0.0
  3
_D_9
  1

  0
SOLID
  5
21B
330
218
100
AcDbEntity
  8
VERMASSUNG
100
AcDbTrace
 10
274.4759571753
 20
132.2379535936
 30
0.0
 11
274.0259571753
 21
129.2379535936
 31
0.0
 12
274.9259571753
 22
129.2379535936
 32
0.0
 13
274.9259571753
 23
129.2379535936
 33
0.0
  0
SOLID
  5
21C
330
218
100
AcDbEntity
  8
VERMASSUNG
100
AcDbTrace
 10
274.4759571753
 20
112.2379535936
 30
0.0
 11
274.9259571753
 21
115.2379535936
 31
0.0
 12
274.0259571753
 22
115.2379535936
 32
0.0
 13
274.0259571753
 23
115.2379535936
 33
0.0
  0
LINE
  5
21D
330
218
100
AcDbEntity
  8
VERMASSUNG
100
AcDbLine
 10
267.6666932113
 20
132.2379535936
 30
0.0
 11
275.4759571753
 21
132.2379535936
 31
0.0
  0
LINE
  5
21E
330
218
100
AcDbEntity
  8
VERMASSUNG
100
AcDbLine
 10
267.6666932113
 20
112.2379535936
 30
0.0
 11
275.4759571753
 21
112.2379535936
 31
0.0
  0
LINE
  5
21F
330
218
100
AcDbEntity
  8
VERMASSUNG
100
AcDbLine
 10
274.4759571753
 20
132.2379535936
 30
0.0
 11
274.4759571753
 21
112.2379535936
 31
0.0
  0
MTEXT
  5
220
330
218
100
AcDbEntity
  8
VERMASSUNG
100
AcDbMText
 10
271.8978216957
 20
118.3899105818
 30
0.0
 40
2.0
 41
0.0
 71
     1
 72
     1
  1
%%c
  7
SLDTEXTSTYLE0
 11
-7.044195017643634E-15
 21
1.0
 31
0.0
 73
     1
 44
1.0
  0
MTEXT
  5
221
330
218
100
AcDbEntity
  8
VERMASSUNG
100
AcDbMText
 10
271.8978218121
 20
121.9976756427
 30
0.0
 40
2.0
 41
0.0
 71
     1
 72
     1
  1
20
  7
SLDTEXTSTYLE0
 11
-7.044195017643634E-15
 21
1.0
 31
0.0
 73
     1
 44
1.0
  0
ENDBLK
  5
21A
330
218
100
AcDbEntity
  8
0
100
AcDbBlockEnd
  0
BLOCK
  5
369
330
368
100
AcDbEntity
  8
0
100
AcDbBlockBegin
  2
SW_CENTERMARKSYMBOL_0
 70
     0
 10
0.0
 20
0.0
 30
0.0
  3
SW_CENTERMARKSYMBOL_0
  1

  0
LINE
  5
36B
330
368
100
AcDbEntity
  8
VERMASSUNG
 62
     0
100
AcDbLine
 10
0.0
 20
0.0
 30
0.0
 11
0.0
 21
2.5
 31
0.0
  0
LINE
  5
36C
330
368
100
AcDbEntity
  8
VERMASSUNG
 62
     0
100
AcDbLine
 10
0.0
 20
0.0
 30
0.0
 11
-2.5
 21
0.0
 31
0.0
  0
LINE
  5
36D
330
368
100
AcDbEntity
  8
VERMASSUNG
 62
     0
100
AcDbLine
 10
0.0
 20
0.0
 30
0.0
 11
0.0
 21
-2.5
 31
0.0
  0
LINE
  5
36E
330
368
100
AcDbEntity
  8
VERMASSUNG
 62
     0
100
AcDbLine
 10
0.0
 20
0.0
 30
0.0
 11
2.5
 21
0.0
 31
0.0
  0
LINE
  5
36F
330
368
100
AcDbEntity
  8
VERMASSUNG
 62
     0
100
AcDbLine
 10
0.0
 20
5.0
 30
0.0
 11
0.0
 21
54.0079055543
 31
0.0
  0
LINE
  5
370
330
368
100
AcDbEntity
  8
VERMASSUNG
 62
     0
100
AcDbLine
 10
-5.0
 20
0.0
 30
0.0
 11
-53.6500636017
 21
0.0
 31
0.0
  0
LINE
  5
371
330
368
100
AcDbEntity
  8
VERMASSUNG
 62
     0
100
AcDbLine
 10
0.0
 20
-5.0
 30
0.0
 11
0.0
 21
-52.9199179525
 31
0.0
  0
LINE
  5
372
330
368
100
AcDbEntity
  8
VERMASSUNG
 62
     0
100
AcDbLine
 10
5.0
 20
0.0
 30
0.0
 11
53.9340789279
 21
0.0
 31
0.0
  0
ENDBLK
  5
36A
330
368
100
AcDbEntity
  8
0
100
AcDbBlockEnd
  0
ENDSEC
  0
SECTION
  2
ENTITIES
  0
MTEXT
  5
49
330
1F
100
AcDbEntity
  8
KOPF_DÜNN
100
AcDbMText
 10
13.8892156294
 20
23.8442973028
 30
0.0
 40
3.0
 41
0.0
 71
     1
 72
     1
  1
HA0.B20.K01.085
  7
SLDTEXTSTYLE0
 73
     1
 44
1.0
  0
MTEXT
  5
4A
330
1F
100
AcDbEntity
  8
VERMASSUNG
100
AcDbMText
 10
13.9329988022
 20
28.8834360957
 30
0.0
 40
3.0
 41
0.0
 71
     1
 72
     1
  1
Bohrstangenhalter_Boring bar holder
  7
SLDTEXTSTYLE0
 73
     1
 44
1.0
  0
MTEXT
  5
4B
330
1F
100
AcDbEntity
  8
VERMASSUNG
100
AcDbMText
 10
98.8601118557
 20
13.8365368179
 30
0.0
 40
2.0
 41
0.0
 71
     1
 72
     1
  1
Datum: 31.10.2006
  7
SLDTEXTSTYLE0
 73
     1
 44
1.0
  0
MTEXT
  5
4D
330
1F
100
AcDbEntity
  8
VERMASSUNG
100
AcDbMText
 10
13.933048693
 20
18.0482802738
 30
0.0
 40
2.0
 41
0.0
 71
     1
 72
     1
  1
DIN 69893 HSK 100 T  / ø20
  7
SLDTEXTSTYLE1
 73
     1
 44
1.0
  0
MTEXT
  5
4E
330
1F
100
AcDbEntity
  8
VERMASSUNG
100
AcDbMText
 10
13.9808475933
 20
13.9090973692
 30
0.0
 40
2.0
 41
0.0
 71
     1
 72
     1
  1
Gewicht: 2541g
  7
SLDTEXTSTYLE0
 73
     1
 44
1.0
  0
LINE
  5
4F
330
1F
100
AcDbEntity
  8
0
  6
Continuous
 62
     7
370
    15
100
AcDbLine
 10
183.4666932351
 20
72.2379528485
 30
0.0
 11
187.9166931845
 21
72.2379528485
 31
0.0
  0
LINE
  5
50
330
1F
100
AcDbEntity
  8
0
  6
Continuous
 62
     7
370
    15
100
AcDbLine
 10
187.9507660865
 20
172.2379543387
 30
0.0
 11
183.4666932351
 21
172.2379543387
 31
0.0
  0
ARC
  5
51
330
1F
100
AcDbEntity
  8
0
  6
Continuous
 62
     7
370
    15
100
AcDbCircle
 10
183.4666932113
 20
72.7379535936
 30
0.0
 40
0.5
100
AcDbArc
 50
180.0
 51
270.0
  0
ARC
  5
52
330
1F
100
AcDbEntity
  8
0
  6
Continuous
 62
     7
370
    15
100
AcDbCircle
 10
183.4666932113
 20
171.7379535936
 30
0.0
 40
0.5
100
AcDbArc
 50
90.0
 51
180.0
  0
ARC
  5
53
330
1F
100
AcDbEntity
  8
0
  6
Continuous
 62
     7
370
    15
100
AcDbCircle
 10
182.0697562929
 20
83.6094682692
 30
0.0
 40
0.996233821438679
100
AcDbArc
 50
25.7988228126
 51
90.0
  0
ARC
  5
54
330
1F
100
AcDbEntity
  8
0
  6
Continuous
 62
     7
370
    15
100
AcDbCircle
 10
182.0697562929
 20
160.866438918
 30
0.0
 40
0.9962338214386665
100
AcDbArc
 50
270.0
 51
334.2011771874
  0
LINE
  5
55
330
1F
100
AcDbEntity
  8
0
  6
Continuous
 62
     7
370
    15
100
AcDbLine
 10
161.4859969355
 20
159.1692671679
 30
0.0
 11
143.1666937656
 21
158.2514673971
 31
0.0
  0
LINE
  5
56
330
1F
100
AcDbEntity
  8
0
  6
Continuous
 62
     7
370
    15
100
AcDbLine
 10
180.4666932672
 20
160.120203396
 30
0.0
 11
174.3986540474
 21
159.8161936306
 31
0.0
  0
LINE
  5
57
330
1F
100
AcDbEntity
  8
0
  6
Continuous
 62
     7
370
    15
100
AcDbLine
 10
174.3987769819
 20
84.6597061061
 30
0.0
 11
180.4666932672
 21
84.3557037912
 31
0.0
  0
LINE
  5
58
330
1F
100
AcDbEntity
  8
0
  6
Continuous
 62
     7
370
    15
100
AcDbLine
 10
148.1666927226
 20
85.9739400946
 30
0.0
 11
161.486645136
 21
85.3066064917
 31
0.0
  0
LINE
  5
59
330
1F
100
AcDbEntity
  8
0
  6
Continuous
 62
     7
370
    15
100
AcDbLine
 10
180.4666932672
 20
84.3557037912
 30
0.0
 11
181.2725393334
 21
84.5716290675
 31
0.0
  0
LINE
  5
5A
330
1F
100
AcDbEntity
  8
0
  6
Continuous
 62
     7
370
    15
100
AcDbLine
 10
181.2725393334
 20
159.9042781197
 30
0.0
 11
180.4666932672
 21
160.120203396
 31
0.0
  0
ARC
  5
5B
330
1F
100
AcDbEntity
  8
0
  6
Continuous
 62
     7
370
    15
100
AcDbCircle
 10
181.5313584108
 20
83.6057020906
 30
0.0
 40
0.9999999999999893
100
AcDbArc
 50
90.0
 51
105.0
  0
ARC
  5
5C
330
1F
100
AcDbEntity
  8
0
  6
Continuous
 62
     7
370
    15
100
AcDbCircle
 10
181.5313584108
 20
160.8702050966
 30
0.0
 40
0.9999999999999756
100
AcDbArc
 50
255.0
 51
270.0
  0
LINE
  5
5D
330
1F
100
AcDbEntity
  8
0
  6
Continuous
 62
     7
370
    15
100
AcDbLine
 10
181.5313584171
 20
84.6057005726
 30
0.0
 11
182.0697562885
 21
84.6057005726
 31
0.0
  0
LINE
  5
5E
330
1F
100
AcDbEntity
  8
0
  6
Continuous
 62
     7
370
    15
100
AcDbLine
 10
182.0697562885
 20
159.8702066146
 30
0.0
 11
181.5313584171
 21
159.8702066146
 31
0.0
  0
ARC
  5
5F
330
1F
100
AcDbEntity
  8
0
  6
Continuous
 62
     7
370
    15
100
AcDbCircle
 10
216.9166932113
 20
95.2379535936
 30
0.0
 40
5.0
100
AcDbArc
 50
90.0
 51
180.0
  0
ARC
  5
60
330
1F
100
AcDbEntity
  8
0
  6
Continuous
 62
     7
370
    15
100
AcDbCircle
 10
216.9166932113
 20
149.2379535936
 30
0.0
 40
5.0
100
AcDbArc
 50
180.0
 51
270.0
  0
LINE
  5
61
330
1F
100
AcDbEntity
  8
0
  6
Continuous
 62
     7
370
    15
100
AcDbLine
 10
222.2290811129
 20
144.2379534744
 30
0.0
 11
216.9166942127
 21
144.2379534744
 31
0.0
  0
LINE
  5
62
330
1F
100
AcDbEntity
  8
0
  6
Continuous
 62
     7
370
    15
100
AcDbLine
 10
237.7290827222
 20
144.2379534744
 30
0.0
 11
230.6666922755
 21
144.2379534744
 31
0.0
  0
LINE
  5
63
330
1F
100
AcDbEntity
  8
0
  6
Continuous
 62
     7
370
    15
100
AcDbLine
 10
253.2290806062
 20
144.2379534744
 30
0.0
 11
246.1666901596
 21
144.2379534744
 31
0.0
  0
LINE
  5
64
330
1F
100
AcDbEntity
  8
0
  6
Continuous
 62
     7
370
    15
100
AcDbLine
 10
266.9666920788
 20
144.2379534744
 30
0.0
 11
261.6666917689
 21
144.2379534744
 31
0.0
  0
LINE
  5
65
330
1F
100
AcDbEntity
  8
0
  6
Continuous
 62
     7
370
    15
100
AcDbLine
 10
216.9166942127
 20
100.2379537128
 30
0.0
 11
266.9666920788
 21
100.2379537128
 31
0.0
  0
ARC
  5
66
330
1F
100
AcDbEntity
  8
0
  6
Continuous
 62
     7
370
    15
100
AcDbCircle
 10
266.9666932113
 20
143.2379535936
 30
0.0
 40
1.0
100
AcDbArc
 50
0.0
 51
90.0
  0
ARC
  5
67
330
1F
100
AcDbEntity
  8
0
  6
Continuous
 62
     7
370
    15
100
AcDbCircle
 10
266.9666932113
 20
101.2379535936
 30
0.0
 40
1.0
100
AcDbArc
 50
270.0
 51
0.0
  0
LINE
  5
68
330
1F
100
AcDbEntity
  8
0
  6
Continuous
 62
     7
370
    15
100
AcDbLine
 10
134.7166922874
 20
90.042951753
 30
0.0
 11
146.2666940875
 21
90.042951753
 31
0.0
  0
ARC
  5
69
330
1F
100
AcDbEntity
  8
0
  6
Continuous
 62
     7
370
    15
100
AcDbCircle
 10
146.2666932113
 20
88.1429535936
 30
0.0
 40
1.899999999999999
100
AcDbArc
 50
32.8598554769
 51
90.0
  0
ARC
  5
6A
330
1F
100
AcDbEntity
  8
0
  6
Continuous
 62
     7
370
    15
100
AcDbCircle
 10
141.2666932113
 20
156.3879535936
 30
0.0
 40
1.900000000000027
100
AcDbArc
 50
270.0
 51
310.9212832533
  0
LINE
  5
6B
330
1F
100
AcDbEntity
  8
0
  6
Continuous
 62
     7
370
    15
100
AcDbLine
 10
134.7166922874
 20
154.4879518949
 30
0.0
 11
133.1173767335
 21
152.8886382036
 31
0.0
  0
LINE
  5
6C
330
1F
100
AcDbEntity
  8
0
  6
Continuous
 62
     7
370
    15
100
AcDbLine
 10
133.1018497236
 20
91.6577961795
 30
0.0
 11
134.7166922874
 21
90.042951753
 31
0.0
  0
LINE
  5
6D
330
1F
100
AcDbEntity
  8
0
  6
Continuous
 62
     7
370
    15
100
AcDbLine
 10
141.2666914053
 20
154.4879518949
 30
0.0
 11
134.7166922874
 21
154.4879518949
 31
0.0
  0
LINE
  5
6E
330
1F
100
AcDbEntity
  8
0
  6
Continuous
 62
     7
370
    15
100
AcDbLine
 10
257.0501630194
 20
144.2379534744
 30
0.0
 11
261.6666917689
 21
144.2379534744
 31
0.0
  0
LINE
  5
6F
330
1F
100
AcDbEntity
  8
0
  6
Continuous
 62
     7
370
    15
100
AcDbLine
 10
253.2666911371
 20
144.2379534744
 30
0.0
 11
257.0501630194
 21
144.2379534744
 31
0.0
  0
LINE
  5
70
330
1F
100
AcDbEntity
  8
0
  6
Continuous
 62
     7
370
    15
100
AcDbLine
 10
237.766693253
 20
144.2379534744
 30
0.0
 11
246.1666901596
 21
144.2379534744
 31
0.0
  0
CIRCLE
  5
71
330
1F
100
AcDbEntity
  8
0
  6
Continuous
 62
     7
370
    15
100
AcDbCircle
 10
226.4666932113
 20
122.2379535936
 30
0.0
 40
4.199999999999998
  0
LINE
  5
72
330
1F
100
AcDbEntity
  8
0
  6
Continuous
 62
     7
370
    15
100
AcDbLine
 10
223.7378460355
 20
121.2962951428
 30
0.0
 11
225.9177704341
 21
119.4038724095
 31
0.0
  0
LINE
  5
73
330
1F
100
AcDbEntity
  8
0
  6
Continuous
 62
     7
370
    15
100
AcDbLine
 10
228.6466163583
 20
120.3455309184
 30
0.0
 11
225.9177704341
 21
119.4038724095
 31
0.0
  0
LINE
  5
74
330
1F
100
AcDbEntity
  8
0
  6
Continuous
 62
     7
370
    15
100
AcDbLine
 10
229.195541609
 20
123.1796120444
 30
0.0
 11
228.6466163583
 21
120.3455309184
 31
0.0
  0
LINE
  5
75
330
1F
100
AcDbEntity
  8
0
  6
Continuous
 62
     7
370
    15
100
AcDbLine
 10
229.195541609
 20
123.1796120444
 30
0.0
 11
227.0156172104
 21
125.0720347777
 31
0.0
  0
LINE
  5
76
330
1F
100
AcDbEntity
  8
0
  6
Continuous
 62
     7
370
    15
100
AcDbLine
 10
224.286767561
 20
124.1303762688
 30
0.0
 11
227.0156172104
 21
125.0720347777
 31
0.0
  0
LINE
  5
77
330
1F
100
AcDbEntity
  8
0
  6
Continuous
 62
     7
370
    15
100
AcDbLine
 10
224.286767561
 20
124.1303762688
 30
0.0
 11
223.7378460355
 21
121.2962951428
 31
0.0
  0
LINE
  5
78
330
1F
100
AcDbEntity
  8
0
  6
Continuous
 62
     7
370
    15
100
AcDbLine
 10
228.3481349237
 20
144.2379534744
 30
0.0
 11
230.6666922755
 21
144.2379534744
 31
0.0
  0
LINE
  5
79
330
1F
100
AcDbEntity
  8
0
  6
Continuous
 62
     7
370
    15
100
AcDbLine
 10
222.2666916437
 20
144.2379534744
 30
0.0
 11
228.3481349237
 21
144.2379534744
 31
0.0
  0
CIRCLE
  5
7A
330
1F
100
AcDbEntity
  8
0
  6
Continuous
 62
     7
370
    15
100
AcDbCircle
 10
241.9666932113
 20
122.2379535936
 30
0.0
 40
4.19999999999999
  0
LINE
  5
7B
330
1F
100
AcDbEntity
  8
0
  6
Continuous
 62
     7
370
    15
100
AcDbLine
 10
244.318785984
 20
123.9115708774
 30
0.0
 11
241.6933429427
 21
125.1117340323
 31
0.0
  0
LINE
  5
7C
330
1F
100
AcDbEntity
  8
0
  6
Continuous
 62
     7
370
    15
100
AcDbLine
 10
239.3412505276
 20
123.438116632
 30
0.0
 11
241.6933429427
 21
125.1117340323
 31
0.0
  0
LINE
  5
7D
330
1F
100
AcDbEntity
  8
0
  6
Continuous
 62
     7
370
    15
100
AcDbLine
 10
239.6146011538
 20
120.5643363098
 30
0.0
 11
239.3412505276
 21
123.438116632
 31
0.0
  0
LINE
  5
7E
330
1F
100
AcDbEntity
  8
0
  6
Continuous
 62
     7
370
    15
100
AcDbLine
 10
239.6146011538
 20
120.5643363098
 30
0.0
 11
242.2400404699
 21
119.3641731549
 31
0.0
  0
LINE
  5
7F
330
1F
100
AcDbEntity
  8
0
  6
Continuous
 62
     7
370
    15
100
AcDbLine
 10
244.592132885
 20
121.0377905552
 30
0.0
 11
242.2400404699
 21
119.3641731549
 31
0.0
  0
LINE
  5
80
330
1F
100
AcDbEntity
  8
0
  6
Continuous
 62
     7
370
    15
100
AcDbLine
 10
244.592132885
 20
121.0377905552
 30
0.0
 11
244.318785984
 21
123.9115708774
 31
0.0
  0
CIRCLE
  5
81
330
1F
100
AcDbEntity
  8
0
  6
Continuous
 62
     7
370
    15
100
AcDbCircle
 10
257.4666932113
 20
122.2379535936
 30
0.0
 40
4.200000000000018
  0
LINE
  5
82
330
1F
100
AcDbEntity
  8
0
  6
Continuous
 62
     7
370
    15
100
AcDbLine
 10
257.1770166047
 20
125.1101340201
 30
0.0
 11
254.8344721086
 21
123.4231750747
 31
0.0
  0
LINE
  5
83
330
1F
100
AcDbEntity
  8
0
  6
Continuous
 62
     7
370
    15
100
AcDbLine
 10
255.1241506822
 20
120.5509947647
 30
0.0
 11
254.8344721086
 21
123.4231750747
 31
0.0
  0
LINE
  5
84
330
1F
100
AcDbEntity
  8
0
  6
Continuous
 62
     7
370
    15
100
AcDbLine
 10
257.7563737519
 20
119.3657731671
 30
0.0
 11
255.1241506822
 21
120.5509947647
 31
0.0
  0
LINE
  5
85
330
1F
100
AcDbEntity
  8
0
  6
Continuous
 62
     7
370
    15
100
AcDbLine
 10
257.7563737519
 20
119.3657731671
 30
0.0
 11
260.0989107974
 21
121.0527321125
 31
0.0
  0
LINE
  5
86
330
1F
100
AcDbEntity
  8
0
  6
Continuous
 62
     7
370
    15
100
AcDbLine
 10
259.8092322237
 20
123.9249124225
 30
0.0
 11
260.0989107974
 21
121.0527321125
 31
0.0
  0
LINE
  5
87
330
1F
100
AcDbEntity
  8
0
  6
Continuous
 62
     7
370
    15
100
AcDbLine
 10
259.8092322237
 20
123.9249124225
 30
0.0
 11
257.1770166047
 21
125.1101340201
 31
0.0
  0
LINE
  5
88
330
1F
100
AcDbEntity
  8
0
  6
Continuous
 62
     7
370
    15
100
AcDbLine
 10
187.9166931845
 20
153.5879552864
 30
0.0
 11
199.7046646662
 21
153.5879552864
 31
0.0
  0
LINE
  5
89
330
1F
100
AcDbEntity
  8
0
  6
Continuous
 62
     7
370
    15
100
AcDbLine
 10
199.7046646662
 20
73.4629586838
 30
0.0
 11
199.7046646662
 21
153.5879552864
 31
0.0
  0
LINE
  5
8A
330
1F
100
AcDbEntity
  8
0
  6
Continuous
 62
     7
370
    15
100
AcDbLine
 10
199.7046646662
 20
73.4629586838
 30
0.0
 11
197.916692961
 21
73.4629586838
 31
0.0
  0
SPLINE
  5
8B
330
1F
100
AcDbEntity
  8
0
  6
Continuous
 62
     7
370
    15
100
AcDbSpline
210
0.0
220
0.0
230
1.0
 70
     8
 71
     3
 72
    30
 73
    26
 74
     0
 42
0.00000001
 43
0.00000001
 12
1.0
 22
0.0
 32
0.0
 13
1.0
 23
0.0
 33
0.0
 40
0.0
 40
0.0
 40
0.0
 40
0.0
 40
0.1250000000000002
 40
0.1250000000000002
 40
0.1875000000000003
 40
0.1875000000000003
 40
0.2500000000000004
 40
0.2500000000000004
 40
0.3750000000000001
 40
0.3750000000000001
 40
0.4374999999999998
 40
0.4374999999999998
 40
0.4999999999999996
 40
0.4999999999999996
 40
0.6249999999999996
 40
0.6249999999999996
 40
0.6874999999999997
 40
0.6874999999999997
 40
0.7499999999999997
 40
0.7499999999999997
 40
0.8124999999999998
 40
0.8124999999999998
 40
0.8749999999999999
 40
0.8749999999999999
 40
1.0
 40
1.0
 40
1.0
 40
1.0
 10
197.91669321131
 20
73.46296000057026
 30
0.0
 10
197.2539485174649
 20
73.46296000057026
 30
0.0
 10
196.6026926583492
 20
73.44811992398145
 30
0.0
 10
195.642242120091
 20
73.40575035975183
 30
0.0
 10
195.324850676858
 20
73.38827225697266
 30
0.0
 10
194.6956871753031
 20
73.34694397042036
 30
0.0
 10
194.3835389888614
 20
73.32301869696265
 30
0.0
 10
193.4762316870132
 20
73.24421218049574
 30
0.0
 10
192.9028067293719
 20
73.18190616051929
 30
0.0
 10
192.0889298597972
 20
73.07877684027991
 30
0.0
 10
191.8241236632274
 20
73.0425929212334
 30
0.0
 10
191.3172162524131
 20
72.9687981370329
 30
0.0
 10
191.0758221010595
 20
72.93132427826126
 30
0.0
 10
190.3866806289272
 20
72.81861233492151
 30
0.0
 10
189.973625814063
 20
72.74307623744775
 30
0.0
 10
189.4254709946879
 20
72.63468298043024
 30
0.0
 10
189.2560083873423
 20
72.59961074876698
 30
0.0
 10
188.9479911393269
 20
72.53337528816714
 30
0.0
 10
188.8086111187186
 20
72.5020485914124
 30
0.0
 10
188.5588256060919
 20
72.44363981983149
 30
0.0
 10
188.4484194934379
 20
72.41655658464863
 30
0.0
 10
188.2571616398002
 20
72.36729683003504
 30
0.0
 10
188.1760421215159
 20
72.34503485022739
 30
0.0
 10
187.9818952014075
 20
72.28746794305913
 30
0.0
 10
187.91669321131
 20
72.26120833827312
 30
0.0
 10
187.91669321131
 20
72.2479545937991
 30
0.0
  0
LINE
  5
8C
330
1F
100
AcDbEntity
  8
0
  6
Continuous
 62
     7
370
    15
100
AcDbLine
 10
187.9166931845
 20
72.247955253
 30
0.0
 11
187.9166931845
 21
72.2379528485
 31
0.0
  0
SPLINE
  5
8D
330
1F
100
AcDbEntity
  8
0
  6
Continuous
 62
     7
370
    15
100
AcDbSpline
210
0.0
220
0.0
230
1.0
 70
     8
 71
     3
 72
    17
 73
    13
 74
     0
 42
0.00000001
 43
0.00000001
 12
1.0
 22
0.0
 32
0.0
 13
1.0
 23
0.0
 33
0.0
 40
0.0
 40
0.0
 40
0.0
 40
0.0
 40
0.1043843958185158
 40
0.2118345569819801
 40
0.3162081801235555
 40
0.4235375330682647
 40
0.5292275935501746
 40
0.6379275752951962
 40
0.7444714855043735
 40
0.8541836194561564
 40
0.959308052615968
 40
1.0
 40
1.0
 40
1.0
 40
1.0
 10
197.9166929609705
 20
171.2277487419717
 30
0.0
 10
197.3687544204568
 20
171.2331161823045
 30
0.0
 10
196.2567844073826
 20
171.2440087044685
 30
0.0
 10
194.64392907486
 20
171.3291908882865
 30
0.0
 10
193.1104159241223
 20
171.455561391618
 30
0.0
 10
191.7193950357481
 20
171.6124652631268
 30
0.0
 10
190.48387791945
 20
171.7841606605625
 30
0.0
 10
189.4605227735936
 20
171.9495055147725
 30
0.0
 10
188.6601801007346
 20
172.0932098126046
 30
0.0
 10
188.1498485479745
 20
172.1913738085364
 30
0.0
 10
187.9099397895151
 20
172.2392951230092
 30
0.0
 10
187.9418587012846
 20
172.2329286149954
 30
0.0
 10
187.9507660865415
 20
172.2311519585721
 30
0.0
  0
LINE
  5
8E
330
1F
100
AcDbEntity
  8
0
  6
Continuous
 62
     7
370
    15
100
AcDbLine
 10
199.7046646662
 20
171.227748742
 30
0.0
 11
197.916692961
 21
171.227748742
 31
0.0
  0
LINE
  5
8F
330
1F
100
AcDbEntity
  8
0
  6
Continuous
 62
     7
370
    15
100
AcDbLine
 10
199.7046646662
 20
161.1889146768
 30
0.0
 11
199.7046646662
 21
171.227748742
 31
0.0
  0
LINE
  5
90
330
1F
100
AcDbEntity
  8
0
  6
Continuous
 62
     7
370
    15
100
AcDbLine
 10
197.6246600039
 20
161.1889146768
 30
0.0
 11
199.7046646662
 21
161.1889146768
 31
0.0
  0
SPLINE
  5
91
330
1F
100
AcDbEntity
  8
0
  6
Continuous
 62
     7
370
    15
100
AcDbSpline
210
0.0
220
0.0
230
1.0
 70
     8
 71
     3
 72
    22
 73
    18
 74
     0
 42
0.00000001
 43
0.00000001
 12
1.0
 22
0.0
 32
0.0
 13
1.0
 23
0.0
 33
0.0
 40
0.0
 40
0.0
 40
0.0
 40
0.0
 40
0.2500000000000002
 40
0.2500000000000002
 40
0.3750000000000003
 40
0.3750000000000003
 40
0.5000000000000004
 40
0.5000000000000004
 40
0.6250000000000004
 40
0.6250000000000004
 40
0.7500000000000004
 40
0.7500000000000004
 40
0.8750000000000004
 40
0.8750000000000004
 40
0.9375000000000002
 40
0.9375000000000002
 40
1.0
 40
1.0
 40
1.0
 40
1.0
 10
187.91669321131
 20
153.5879535935991
 30
0.0
 10
188.1194181672291
 20
154.6071999354637
 30
0.0
 10
188.4341618890244
 20
155.566308085403
 30
0.0
 10
189.1422173586954
 20
156.9087871629123
 30
0.0
 10
189.420679988913
 20
157.3429957456523
 30
0.0
 10
190.0594473955503
 20
158.1546234611544
 30
0.0
 10
190.4198610753405
 20
158.5339037540912
 30
0.0
 10
191.2373933073297
 20
159.2368623331122
 30
0.0
 10
191.6985612906169
 20
159.5618911508128
 30
0.0
 10
192.6965515371007
 20
160.1269064742037
 30
0.0
 10
193.2363107310929
 20
160.3706100684102
 30
0.0
 10
194.4109036951243
 20
160.7748099960552
 30
0.0
 10
195.0226398811162
 20
160.9272471891007
 30
0.0
 10
195.9745491059778
 20
161.0825747367094
 30
0.0
 10
196.2977822702385
 20
161.1220795167594
 30
0.0
 10
196.9568454415138
 20
161.1753886374281
 30
0.0
 10
197.2909094520877
 20
161.188916354486
 30
0.0
 10
197.6246600594893
 20
161.188916354486
 30
0.0
  0
LINE
  5
92
330
1F
100
AcDbEntity
  8
0
  6
Continuous
 62
     7
370
    15
100
AcDbLine
 10
206.228722725
 20
73.4629586838
 30
0.0
 11
206.228722725
 21
153.5879552864
 31
0.0
  0
SPLINE
  5
93
330
1F
100
AcDbEntity
  8
0
  6
Continuous
 62
     7
370
    15
100
AcDbSpline
210
0.0
220
0.0
230
1.0
 70
     8
 71
     3
 72
     8
 73
     4
 74
     0
 42
0.00000001
 43
0.00000001
 12
1.0
 22
0.0
 32
0.0
 13
1.0
 23
0.0
 33
0.0
 40
0.0
 40
0.0
 40
0.0
 40
0.0
 40
1.0
 40
1.0
 40
1.0
 40
1.0
 10
206.2287222322314
 20
73.46296000057026
 30
0.0
 10
205.7776175028312
 20
74.26391993239018
 30
0.0
 10
205.3269196755878
 20
75.06510994395083
 30
0.0
 10
204.87669321131
 20
75.8665653065756
 30
0.0
  0
LINE
  5
94
330
1F
100
AcDbEntity
  8
0
  6
Continuous
 62
     7
370
    15
100
AcDbLine
 10
204.8766938038
 20
75.8665644132
 30
0.0
 11
204.8766938038
 21
153.5879552864
 31
0.0
  0
SPLINE
  5
95
330
1F
100
AcDbEntity
  8
0
  6
Continuous
 62
     7
370
    15
100
AcDbSpline
210
0.0
220
0.0
230
1.0
 70
    24
 71
     3
 72
     8
 73
     4
 74
     0
 42
0.00000001
 43
0.00000001
 12
1.0
 22
0.0
 32
0.0
 13
1.0
 23
0.0
 33
0.0
 40
0.0
 40
0.0
 40
0.0
 40
0.0
 40
1.0
 40
1.0
 40
1.0
 40
1.0
 10
204.87669321131
 20
153.5879535935991
 30
0.0
 10
205.3209060936639
 20
153.5879535935991
 30
0.0
 10
205.7719206599031
 20
153.5879535935991
 30
0.0
 10
206.2287222322314
 20
153.5879535935991
 30
0.0
  0
LINE
  5
96
330
1F
100
AcDbEntity
  8
0
  6
Continuous
 62
     7
370
    15
100
AcDbLine
 10
211.9166933931
 20
74.4886093341
 30
0.0
 11
211.9166933931
 21
153.5879552864
 31
0.0
  0
SPLINE
  5
97
330
1F
100
AcDbEntity
  8
0
  6
Continuous
 62
     7
370
    15
100
AcDbSpline
210
0.0
220
0.0
230
1.0
 70
     8
 71
     3
 72
    14
 73
    10
 74
     0
 42
0.00000001
 43
0.00000001
 12
1.0
 22
0.0
 32
0.0
 13
1.0
 23
0.0
 33
0.0
 40
0.0
 40
0.0
 40
0.0
 40
0.0
 40
0.25
 40
0.25
 40
0.5
 40
0.5
 40
0.75
 40
0.75
 40
1.0
 40
1.0
 40
1.0
 40
1.0
 10
211.91669321131
 20
74.48860804834575
 30
0.0
 10
211.91669321131
 20
74.35518235229122
 30
0.0
 10
211.8913821113991
 20
74.22333454444689
 30
0.0
 10
211.7930473475544
 20
73.97681199575275
 30
0.0
 10
211.7199033432983
 20
73.86300680751224
 30
0.0
 10
211.5364652822026
 20
73.67254963056494
 30
0.0
 10
211.424778947864
 20
73.59491476671504
 30
0.0
 10
211.1822755175577
 20
73.49062335660255
 30
0.0
 10
211.0489010888635
 20
73.4629600005702
 30
0.0
 10
210.91669321131
 20
73.46296000057022
 30
0.0
  0
SPLINE
  5
98
330
1F
100
AcDbEntity
  8
0
  6
Continuous
 62
     7
370
    15
100
AcDbSpline
210
0.0
220
0.0
230
1.0
 70
    24
 71
     3
 72
    12
 73
     8
 74
     0
 42
0.00000001
 43
0.00000001
 12
1.0
 22
0.0
 32
0.0
 13
1.0
 23
0.0
 33
0.0
 40
0.0
 40
0.0
 40
0.0
 40
0.0
 40
0.2500000000000032
 40
0.2500000000000032
 40
0.5000000000000064
 40
0.5000000000000064
 40
1.0
 40
1.0
 40
1.0
 40
1.0
 10
210.91669321131
 20
153.5879535935991
 30
0.0
 10
211.068783448255
 20
153.5879535935991
 30
0.0
 10
211.2172427093304
 20
153.5879535935991
 30
0.0
 10
211.4746463415961
 20
153.5879535935991
 30
0.0
 10
211.583751089438
 20
153.5879535935991
 30
0.0
 10
211.8378105658456
 20
153.5879535935991
 30
0.0
 10
211.91669321131
 20
153.5879535935991
 30
0.0
 10
211.91669321131
 20
153.5879535935991
 30
0.0
  0
LINE
  5
99
330
1F
100
AcDbEntity
  8
0
  6
Continuous
 62
     7
370
    15
100
AcDbLine
 10
210.9166932292
 20
73.4629586838
 30
0.0
 11
206.228722725
 21
73.4629586838
 31
0.0
  0
LINE
  5
9A
330
1F
100
AcDbEntity
  8
0
  6
Continuous
 62
     7
370
    15
100
AcDbLine
 10
206.228722725
 20
153.5879552864
 30
0.0
 11
210.9166932292
 21
153.5879552864
 31
0.0
  0
LINE
  5
9B
330
1F
100
AcDbEntity
  8
0
  6
Continuous
 62
     7
370
    15
100
AcDbLine
 10
201.0566935874
 20
75.8665644132
 30
0.0
 11
201.0566935874
 21
153.5879552864
 31
0.0
  0
SPLINE
  5
9C
330
1F
100
AcDbEntity
  8
0
  6
Continuous
 62
     7
370
    15
100
AcDbSpline
210
0.0
220
0.0
230
1.0
 70
     8
 71
     3
 72
     8
 73
     4
 74
     0
 42
0.00000001
 43
0.00000001
 12
1.0
 22
0.0
 32
0.0
 13
1.0
 23
0.0
 33
0.0
 40
0.0
 40
0.0
 40
0.0
 40
0.0
 40
1.0
 40
1.0
 40
1.0
 40
1.0
 10
201.05669321131
 20
75.86656530657558
 30
0.0
 10
200.6064667470322
 20
75.06510994395083
 30
0.0
 10
200.1557689197888
 20
74.26391993239015
 30
0.0
 10
199.7046641903886
 20
73.46296000057025
 30
0.0
  0
SPLINE
  5
9D
330
1F
100
AcDbEntity
  8
0
  6
Continuous
 62
     7
370
    15
100
AcDbSpline
210
0.0
220
0.0
230
1.0
 70
    24
 71
     3
 72
     8
 73
     4
 74
     0
 42
0.00000001
 43
0.00000001
 12
1.0
 22
0.0
 32
0.0
 13
1.0
 23
0.0
 33
0.0
 40
0.0
 40
0.0
 40
0.0
 40
0.0
 40
1.0
 40
1.0
 40
1.0
 40
1.0
 10
199.7046641903886
 20
153.5879535935991
 30
0.0
 10
200.1614657627169
 20
153.5879535935991
 30
0.0
 10
200.612480328956
 20
153.5879535935991
 30
0.0
 10
201.05669321131
 20
153.5879535935991
 30
0.0
  0
LINE
  5
9E
330
1F
100
AcDbEntity
  8
0
  6
Continuous
 62
     7
370
    15
100
AcDbLine
 10
182.9666932113
 20
72.7379538618
 30
0.0
 11
182.9666932113
 21
171.7379533254
 31
0.0
  0
SPLINE
  5
9F
330
1F
100
AcDbEntity
  8
0
  6
Continuous
 62
     7
370
    15
100
AcDbSpline
210
0.0
220
0.0
230
1.0
 70
     8
 71
     3
 72
    12
 73
     8
 74
     0
 42
0.00000001
 43
0.00000001
 12
1.0
 22
0.0
 32
0.0
 13
1.0
 23
0.0
 33
0.0
 40
0.0
 40
0.0
 40
0.0
 40
0.0
 40
0.25
 40
0.25
 40
0.5
 40
0.5
 40
1.0
 40
1.0
 40
1.0
 40
1.0
 10
201.85669321131
 20
77.59827813554942
 30
0.0
 10
201.750932557961
 20
77.59827813554939
 30
0.0
 10
201.6429449297781
 20
77.57573862954901
 30
0.0
 10
201.4483502645125
 20
77.4911679975537
 30
0.0
 10
201.3594783516737
 20
77.42868634479491
 30
0.0
 10
201.1402860593478
 20
77.19929739332275
 30
0.0
 10
201.0566932113099
 20
76.98671405580036
 30
0.0
 10
201.0566932113099
 20
76.77477481120418
 30
0.0
  0
SPLINE
  5
A0
330
1F
100
AcDbEntity
  8
0
  6
Continuous
 62
     7
370
    15
100
AcDbSpline
210
0.0
220
0.0
230
1.0
 70
    24
 71
     3
 72
    14
 73
    10
 74
     0
 42
0.00000001
 43
0.00000001
 12
1.0
 22
0.0
 32
0.0
 13
1.0
 23
0.0
 33
0.0
 40
0.0
 40
0.0
 40
0.0
 40
0.0
 40
0.25
 40
0.25
 40
0.5
 40
0.5
 40
0.75
 40
0.75
 40
1.0
 40
1.0
 40
1.0
 40
1.0
 10
201.05669321131
 20
153.5879535935991
 30
0.0
 10
201.0566932113099
 20
153.5879535935991
 30
0.0
 10
201.0724075317759
 20
153.5879535935991
 30
0.0
 10
201.1360915102443
 20
153.5879535935991
 30
0.0
 10
201.1846947046548
 20
153.5879535935991
 30
0.0
 10
201.3173782270804
 20
153.5879535935991
 30
0.0
 10
201.402480331391
 20
153.5879535935991
 30
0.0
 10
201.6089225663011
 20
153.5879535935991
 30
0.0
 10
201.7330035079241
 20
153.5879535935991
 30
0.0
 10
201.85669321131
 20
153.5879535935991
 30
0.0
  0
SPLINE
  5
A1
330
1F
100
AcDbEntity
  8
0
  6
Continuous
 62
     7
370
    15
100
AcDbSpline
210
0.0
220
0.0
230
1.0
 70
     8
 71
     3
 72
    14
 73
    10
 74
     0
 42
0.00000001
 43
0.00000001
 12
1.0
 22
0.0
 32
0.0
 13
1.0
 23
0.0
 33
0.0
 40
0.0
 40
0.0
 40
0.0
 40
0.0
 40
0.25
 40
0.25
 40
0.5
 40
0.5
 40
0.75
 40
0.75
 40
1.0
 40
1.0
 40
1.0
 40
1.0
 10
204.87669321131
 20
76.77477481120418
 30
0.0
 10
204.87669321131
 20
76.88181889219855
 30
0.0
 10
204.8565755241518
 20
76.987054032441
 30
0.0
 10
204.7780843348862
 20
77.1849045192887
 30
0.0
 10
204.719927710085
 20
77.27595628285361
 30
0.0
 10
204.5734124544669
 20
77.4291223767784
 30
0.0
 10
204.4847699058258
 20
77.4914168229878
 30
0.0
 10
204.2890465830255
 20
77.5762106085238
 30
0.0
 10
204.1838153919546
 20
77.5982781355494
 30
0.0
 10
204.07669321131
 20
77.59827813554942
 30
0.0
  0
SPLINE
  5
A2
330
1F
100
AcDbEntity
  8
0
  6
Continuous
 62
     7
370
    15
100
AcDbSpline
210
0.0
220
0.0
230
1.0
 70
    24
 71
     3
 72
    14
 73
    10
 74
     0
 42
0.00000001
 43
0.00000001
 12
1.0
 22
0.0
 32
0.0
 13
1.0
 23
0.0
 33
0.0
 40
0.0
 40
0.0
 40
0.0
 40
0.0
 40
0.25
 40
0.25
 40
0.5
 40
0.5
 40
0.75
 40
0.75
 40
1.0
 40
1.0
 40
1.0
 40
1.0
 10
204.07669321131
 20
153.5879535935991
 30
0.0
 10
204.2004629760751
 20
153.5879535935991
 30
0.0
 10
204.324830080082
 20
153.5879535935991
 30
0.0
 10
204.5311865488081
 20
153.5879535935991
 30
0.0
 10
204.6165146922264
 20
153.5879535935991
 30
0.0
 10
204.7487067509416
 20
153.5879535935991
 30
0.0
 10
204.7973519946922
 20
153.5879535935991
 30
0.0
 10
204.860887786421
 20
153.5879535935991
 30
0.0
 10
204.87669321131
 20
153.5879535935991
 30
0.0
 10
204.87669321131
 20
153.5879535935991
 30
0.0
  0
LINE
  5
A3
330
1F
100
AcDbEntity
  8
0
  6
Continuous
 62
     7
370
    15
100
AcDbLine
 10
204.0766933001
 20
77.5982767843
 30
0.0
 11
201.8566940911
 21
77.5982767843
 31
0.0
  0
LINE
  5
A4
330
1F
100
AcDbEntity
  8
0
  6
Continuous
 62
     7
370
    15
100
AcDbLine
 10
201.8566940911
 20
153.5879552864
 30
0.0
 11
204.0766933001
 21
153.5879552864
 31
0.0
  0
LINE
  5
A5
330
1F
100
AcDbEntity
  8
0
  6
Continuous
 62
     7
370
    15
100
AcDbLine
 10
148.1666927226
 20
85.9739400946
 30
0.0
 11
148.1666927226
 21
88.3922309183
 31
0.0
  0
SPLINE
  5
A6
330
1F
100
AcDbEntity
  8
0
  6
Continuous
 62
     7
370
    15
100
AcDbSpline
210
0.0
220
0.0
230
1.0
 70
     8
 71
     3
 72
    14
 73
    10
 74
     0
 42
0.00000001
 43
0.00000001
 12
1.0
 22
0.0
 32
0.0
 13
1.0
 23
0.0
 33
0.0
 40
0.0
 40
0.0
 40
0.0
 40
0.0
 40
0.2500000000000008
 40
0.2500000000000008
 40
0.5000000000000006
 40
0.5000000000000006
 40
0.7500000000000002
 40
0.7500000000000002
 40
1.0
 40
1.0
 40
1.0
 40
1.0
 10
147.3102204735904
 20
90.04054750301455
 30
0.0
 10
147.3787248197862
 20
89.88670140298727
 30
0.0
 10
147.4773153051952
 20
89.73857189577615
 30
0.0
 10
147.6755058981553
 20
89.4498894983807
 30
0.0
 10
147.7759542799303
 20
89.30945042486522
 30
0.0
 10
147.9512783270496
 20
89.0354898127444
 30
0.0
 10
148.0266967540065
 20
88.90197062066343
 30
0.0
 10
148.1342333789374
 20
88.64166998070911
 30
0.0
 10
148.16669321131
 20
88.51393349414727
 30
0.0
 10
148.16669321131
 20
88.39223263937821
 30
0.0
  0
SPLINE
  5
A7
330
1F
100
AcDbEntity
  8
0
  6
Continuous
 62
     7
370
    15
100
AcDbSpline
210
0.0
220
0.0
230
1.0
 70
     8
 71
     3
 72
    20
 73
    16
 74
     0
 42
0.00000001
 43
0.00000001
 12
1.0
 22
0.0
 32
0.0
 13
1.0
 23
0.0
 33
0.0
 40
0.0
 40
0.0
 40
0.0
 40
0.0
 40
0.0625000000000001
 40
0.0625000000000001
 40
0.1250000000000002
 40
0.1250000000000002
 40
0.2500000000000004
 40
0.2500000000000004
 40
0.3750000000000006
 40
0.3750000000000006
 40
0.5000000000000008
 40
0.5000000000000008
 40
0.7500000000000003
 40
0.7500000000000003
 40
1.0
 40
1.0
 40
1.0
 40
1.0
 10
146.26669321131
 20
90.91795015373552
 30
0.0
 10
146.3114144471904
 20
90.92235885223579
 30
0.0
 10
146.3579581485769
 20
90.92222208043894
 30
0.0
 10
146.4493773567371
 20
90.91222775871948
 30
0.0
 10
146.4936672730945
 20
90.90245617913342
 30
0.0
 10
146.6149321844997
 20
90.86469357518244
 30
0.0
 10
146.6821168077759
 20
90.82894423899023
 30
0.0
 10
146.797083873896
 20
90.75361658627362
 30
0.0
 10
146.8462882829151
 20
90.71277974431428
 30
0.0
 10
146.9331895167094
 20
90.63069962720344
 30
0.0
 10
146.9712719366686
 20
90.58900462112588
 30
0.0
 10
147.0756111270316
 20
90.46306714649263
 30
0.0
 10
147.1321984221466
 20
90.37784836622085
 30
0.0
 10
147.2311517347635
 20
90.20817077607519
 30
0.0
 10
147.2730893536542
 20
90.12393605146517
 30
0.0
 10
147.3102204735904
 20
90.04054750301455
 30
0.0
  0
SPLINE
  5
A8
330
1F
100
AcDbEntity
  8
0
  6
Continuous
 62
     7
370
    15
100
AcDbSpline
210
0.0
220
0.0
230
1.0
 70
     8
 71
     3
 72
    10
 73
     6
 74
     0
 42
0.00000001
 43
0.00000001
 12
1.0
 22
0.0
 32
0.0
 13
1.0
 23
0.0
 33
0.0
 40
0.0
 40
0.0
 40
0.0
 40
0.0
 40
0.5
 40
0.5
 40
1.0
 40
1.0
 40
1.0
 40
1.0
 10
141.1287804147329
 20
90.3339366983071
 30
0.0
 10
141.9685257293414
 20
90.4467803192932
 30
0.0
 10
142.8191657956857
 20
90.54942956638058
 30
0.0
 10
144.5337765804042
 20
90.7422543801632
 30
0.0
 10
145.3978846071326
 20
90.83230146548169
 30
0.0
 10
146.26669321131
 20
90.91795015373553
 30
0.0
  0
SPLINE
  5
A9
330
1F
100
AcDbEntity
  8
0
  6
Continuous
 62
     7
370
    15
100
AcDbSpline
210
0.0
220
0.0
230
1.0
 70
     8
 71
     3
 72
    14
 73
    10
 74
     0
 42
0.00000001
 43
0.00000001
 12
1.0
 22
0.0
 32
0.0
 13
1.0
 23
0.0
 33
0.0
 40
0.0
 40
0.0
 40
0.0
 40
0.0
 40
0.5000000000000014
 40
0.5000000000000014
 40
0.7500000000000006
 40
0.7500000000000006
 40
0.8750000000000003
 40
0.8750000000000003
 40
1.0
 40
1.0
 40
1.0
 40
1.0
 10
134.9666183272791
 20
90.05955374436434
 30
0.0
 10
136.007424851389
 20
90.07184768460544
 30
0.0
 10
137.0452520963486
 20
90.0912935293475
 30
0.0
 10
138.5915160069105
 20
90.14588846365606
 30
0.0
 10
139.1052007735829
 20
90.16830094444198
 30
0.0
 10
139.8703883705932
 20
90.21493074206704
 30
0.0
 10
140.1245507074703
 20
90.2326676439566
 30
0.0
 10
140.6297809337643
 20
90.27569414904876
 30
0.0
 10
140.8809897719476
 20
90.30063899138094
 30
0.0
 10
141.128780414733
 20
90.33393669830703
 30
0.0
  0
SPLINE
  5
AA
330
1F
100
AcDbEntity
  8
0
  6
Continuous
 62
     7
370
    15
100
AcDbSpline
210
0.0
220
0.0
230
1.0
 70
     8
 71
     3
 72
    12
 73
     8
 74
     0
 42
0.00000001
 43
0.00000001
 12
1.0
 22
0.0
 32
0.0
 13
1.0
 23
0.0
 33
0.0
 40
0.0
 40
0.0
 40
0.0
 40
0.0
 40
0.2500000000000009
 40
0.2500000000000009
 40
0.5000000000000018
 40
0.5000000000000018
 40
1.0
 40
1.0
 40
1.0
 40
1.0
 10
141.26669321131
 20
154.3244764850955
 30
0.0
 10
140.7479943894818
 20
154.3569992599437
 30
0.0
 10
140.2262828162768
 20
154.3802960011142
 30
0.0
 10
139.1799907997812
 20
154.4181415155363
 30
0.0
 10
138.655319174111
 20
154.4324099900324
 30
0.0
 10
137.0784731515717
 20
154.4666194774908
 30
0.0
 10
136.0235178370248
 20
154.4781189814346
 30
0.0
 10
134.9666183272796
 20
154.4837857621642
 30
0.0
  0
SPLINE
  5
AB
330
1F
100
AcDbEntity
  8
0
  6
Continuous
 62
     7
370
    15
100
AcDbSpline
210
0.0
220
0.0
230
1.0
 70
     8
 71
     3
 72
    20
 73
    16
 74
     0
 42
0.00000001
 43
0.00000001
 12
1.0
 22
0.0
 32
0.0
 13
1.0
 23
0.0
 33
0.0
 40
0.0
 40
0.0
 40
0.0
 40
0.0
 40
0.2500000000000011
 40
0.2500000000000011
 40
0.5000000000000021
 40
0.5000000000000021
 40
0.7500000000000031
 40
0.7500000000000031
 40
0.8750000000000008
 40
0.8750000000000008
 40
0.9375000000000006
 40
0.9375000000000006
 40
0.9687500000000003
 40
0.9687500000000003
 40
1.0
 40
1.0
 40
1.0
 40
1.0
 10
143.16669321131
 20
155.9825623305836
 30
0.0
 10
143.16669321131
 20
155.8468800108369
 30
0.0
 10
143.1179814220934
 20
155.7057930246968
 30
0.0
 10
142.9488199988681
 20
155.4137213059662
 30
0.0
 10
142.8270395849499
 20
155.2620725638758
 30
0.0
 10
142.5294924902003
 20
154.9596641237227
 30
0.0
 10
142.3555798844976
 20
154.8070754875994
 30
0.0
 10
142.0361650506157
 20
154.5818047237571
 30
0.0
 10
141.9211242751685
 20
154.5070816292464
 30
0.0
 10
141.7140399511521
 20
154.4076712199894
 30
0.0
 10
141.6379321163457
 20
154.3761061276448
 30
0.0
 10
141.5065375767923
 20
154.3416627434518
 30
0.0
 10
141.4599843577909
 20
154.3326111716842
 30
0.0
 10
141.3636510067102
 20
154.3224355228458
 30
0.0
 10
141.3143915833547
 20
154.3214857641707
 30
0.0
 10
141.266693211308
 20
154.3244764850853
 30
0.0
  0
LINE
  5
AC
330
1F
100
AcDbEntity
  8
0
  6
Continuous
 62
     7
370
    15
100
AcDbLine
 10
143.1666937656
 20
155.9825607144
 30
0.0
 11
143.1666937656
 21
158.2514673971
 31
0.0
  0
LINE
  5
AD
330
1F
100
AcDbEntity
  8
0
  6
Continuous
 62
     7
370
    15
100
AcDbLine
 10
180.4666932672
 20
84.3557037912
 30
0.0
 11
180.4666932672
 21
160.120203396
 31
0.0
  0
SPLINE
  5
AE
330
1F
100
AcDbEntity
  8
0
  6
Continuous
 62
     7
370
    15
100
AcDbSpline
210
0.0
220
0.0
230
1.0
 70
     8
 71
     3
 72
    24
 73
    20
 74
     0
 42
0.00000001
 43
0.00000001
 12
1.0
 22
0.0
 32
0.0
 13
1.0
 23
0.0
 33
0.0
 40
0.0
 40
0.0
 40
0.0
 40
0.0
 40
0.0002934239329635
 40
0.0628079954843725
 40
0.1260453886222317
 40
0.1890746649056576
 40
0.2513200327496127
 40
0.3133304381321615
 40
0.3759158074016681
 40
0.4383740215105411
 40
0.5000631209931454
 40
0.5616593985498132
 40
0.6245050468179062
 40
0.6872231543007362
 40
0.7494953203649202
 40
0.811758388799549
 40
0.8747365576758938
 40
0.937898032705022
 40
1.0
 40
1.0
 40
1.0
 40
1.0
 10
161.4866488612819
 20
85.30670707451031
 30
0.0
 10
161.4864543174992
 20
85.3066833772497
 30
0.0
 10
161.4448118212435
 20
85.30161092994729
 30
0.0
 10
161.5898350334163
 20
85.3200522200934
 30
0.0
 10
161.9449522604347
 20
85.36265454886019
 30
0.0
 10
162.5495178140708
 20
85.43076488218655
 30
0.0
 10
163.3559549724766
 20
85.50403019551449
 30
0.0
 10
164.3414320824978
 20
85.5685457988232
 30
0.0
 10
165.47310122388
 20
85.60711271410248
 30
0.0
 10
166.6953941375424
 20
85.61080201594932
 30
0.0
 10
167.9627232835027
 20
85.56838358955515
 30
0.0
 10
169.2292085265996
 20
85.48012872330364
 30
0.0
 10
170.4453466574604
 20
85.35174311607263
 30
0.0
 10
171.5707560830761
 20
85.1990953894027
 30
0.0
 10
172.5481742762941
 20
85.03732500803768
 30
0.0
 10
173.3514389568117
 20
84.88479257156126
 30
0.0
 10
173.9399323658432
 20
84.76077893280038
 30
0.0
 10
174.3288391023286
 20
84.67585734164976
 30
0.0
 10
174.3755999186989
 20
84.66513163334166
 30
0.0
 10
174.3987825698782
 20
84.6598141394727
 30
0.0
  0
SPLINE
  5
AF
330
1F
100
AcDbEntity
  8
0
  6
Continuous
 62
     7
370
    15
100
AcDbSpline
210
0.0
220
0.0
230
1.0
 70
     8
 71
     3
 72
    41
 73
    37
 74
     0
 42
0.00000001
 43
0.00000001
 12
1.0
 22
0.0
 32
0.0
 13
1.0
 23
0.0
 33
0.0
 40
0.0
 40
0.0
 40
0.0
 40
0.0
 40
0.0619930085184813
 40
0.1254347856011715
 40
0.1886508880900376
 40
0.2510246598126379
 40
0.3131658302741298
 40
0.3756581730070438
 40
0.4382227162559227
 40
0.4998045089875787
 40
0.5615164229499278
 40
0.6240683623784647
 40
0.6867257688368309
 40
0.7488365772489655
 40
0.811068658633541
 40
0.874174327755461
 40
0.9373213213306892
 40
0.9685512108215084
 40
0.9842087278453592
 40
0.992064161706849
 40
0.9960005299564133
 40
0.9979711235159539
 40
0.998957053070188
 40
0.9994501798397873
 40
0.9996967843242086
 40
0.9998200968848417
 40
0.999881755774932
 40
0.9999125858373288
 40
0.9999280010298993
 40
0.9999357086679188
 40
0.9999395624952753
 40
0.9999414894117359
 40
0.9999424528699662
 40
0.9999434163281964
 40
0.9999502136995695
 40
1.0
 40
1.0
 40
1.0
 40
1.0
 10
174.3986614979435
 20
159.8160483442418
 30
0.0
 10
174.3750899069845
 20
159.8107387591984
 30
0.0
 10
174.3273958600447
 20
159.7999955047981
 30
0.0
 10
173.9353527666654
 20
159.7147686196226
 30
0.0
 10
173.3448401214795
 20
159.590199938663
 30
0.0
 10
172.5408016734094
 20
159.4372510285062
 30
0.0
 10
171.5647269070214
 20
159.2754938258504
 30
0.0
 10
170.4429185940791
 20
159.1232604080999
 30
0.0
 10
169.2293869584733
 20
158.9954850536081
 30
0.0
 10
167.9645565270167
 20
158.9076365381325
 30
0.0
 10
166.6965131576716
 20
158.8652484989632
 30
0.0
 10
165.4730058478666
 20
158.8689875704124
 30
0.0
 10
164.3395065353486
 20
158.9075760499002
 30
0.0
 10
163.3534017899075
 20
158.9720224798074
 30
0.0
 10
162.544772407959
 20
159.0455293519517
 30
0.0
 10
161.9481558905627
 20
159.1128428819821
 30
0.0
 10
161.6327636600807
 20
159.1508059757737
 30
0.0
 10
161.5226973455139
 20
159.1646053041241
 30
0.0
 10
161.4952789890636
 20
159.1680899186437
 30
0.0
 10
161.4883551751622
 20
159.1689712005735
 30
0.0
 10
161.4865867198049
 20
159.1691943083927
 30
0.0
 10
161.4861266880413
 20
159.1692473534998
 30
0.0
 10
161.4860022291952
 20
159.1692669030345
 30
0.0
 10
161.4859678634712
 20
159.1692602634463
 30
0.0
 10
161.4859567577973
 20
159.1692677795139
 30
0.0
 10
161.4859532676942
 20
159.1692671137332
 30
0.0
 10
161.4859501125641
 20
159.1692671727257
 30
0.0
 10
161.4859503922215
 20
159.1692671674672
 30
0.0
 10
161.4859503671443
 20
159.1692671679805
 30
0.0
 10
161.4859503698021
 20
159.1692671678679
 30
0.0
 10
161.4859503689501
 20
159.1692671679727
 30
0.0
 10
161.485950369896
 20
159.1692671678295
 30
0.0
 10
161.4859503683961
 20
159.16926716806
 30
0.0
 10
161.4859503822936
 20
159.1692671659221
 30
0.0
 10
161.4859487181087
 20
159.1692674219502
 30
0.0
 10
161.485975358251
 20
159.1692633234669
 30
0.0
 10
161.4859987981249
 20
159.1692597173326
 30
0.0
  0
SPLINE
  5
B0
330
1F
100
AcDbEntity
  8
0
  6
Continuous
 62
     7
370
    15
100
AcDbSpline
210
0.0
220
0.0
230
1.0
 70
     8
 71
     3
 72
    22
 73
    18
 74
     0
 42
0.00000001
 43
0.00000001
 12
1.0
 22
0.0
 32
0.0
 13
1.0
 23
0.0
 33
0.0
 40
0.0
 40
0.0
 40
0.0
 40
0.0
 40
0.2499999999999975
 40
0.2499999999999975
 40
0.3749999999999944
 40
0.3749999999999944
 40
0.4374999999999946
 40
0.4374999999999946
 40
0.4999999999999947
 40
0.4999999999999947
 40
0.5624999999999948
 40
0.5624999999999948
 40
0.624999999999995
 40
0.624999999999995
 40
0.7499999999999957
 40
0.7499999999999957
 40
1.0
 40
1.0
 40
1.0
 40
1.0
 10
133.2637127767623
 20
91.6992916907978
 30
0.0
 10
133.2907784360604
 20
91.74993766626747
 30
0.0
 10
133.3236081158936
 20
91.79434341833276
 30
0.0
 10
133.40487548992
 20
91.82628357786464
 30
0.0
 10
133.4374410314608
 20
91.83202102402585
 30
0.0
 10
133.5101540587932
 20
91.81108239757435
 30
0.0
 10
133.5389480182553
 20
91.79871920902262
 30
0.0
 10
133.6095977305261
 20
91.75234934166087
 30
0.0
 10
133.6520736121153
 20
91.71656263168053
 30
0.0
 10
133.7326273400269
 20
91.63392236312008
 30
0.0
 10
133.7697456772616
 20
91.58918286185859
 30
0.0
 10
133.8348133439706
 20
91.50417446637697
 30
0.0
 10
133.8632870028038
 20
91.463388481862
 30
0.0
 10
133.9426293999463
 20
91.34360290430499
 30
0.0
 10
133.9855303586139
 20
91.27017214544502
 30
0.0
 10
134.1021449106994
 20
91.05824784674734
 30
0.0
 10
134.1633017161371
 20
90.92776668413339
 30
0.0
 10
134.2167456532172
 20
90.80373372942677
 30
0.0
  0
SPLINE
  5
B1
330
1F
100
AcDbEntity
  8
0
  6
Continuous
 62
     7
370
    15
100
AcDbSpline
210
0.0
220
0.0
230
1.0
 70
     8
 71
     3
 72
     8
 73
     4
 74
     0
 42
0.00000001
 43
0.00000001
 12
1.0
 22
0.0
 32
0.0
 13
1.0
 23
0.0
 33
0.0
 40
0.0
 40
0.0
 40
0.0
 40
0.0
 40
1.0
 40
1.0
 40
1.0
 40
1.0
 10
133.06669321131
 20
91.76430845241981
 30
0.0
 10
133.06669321131
 20
91.74317770796326
 30
0.0
 10
133.0694380726478
 20
91.72393800988698
 30
0.0
 10
133.0746054194902
 20
91.70698766054802
 30
0.0
  0
SPLINE
  5
B2
330
1F
100
AcDbEntity
  8
0
  6
Continuous
 62
     7
370
    15
100
AcDbSpline
210
0.0
220
0.0
230
1.0
 70
     8
 71
     3
 72
    10
 73
     6
 74
     0
 42
0.00000001
 43
0.00000001
 12
1.0
 22
0.0
 32
0.0
 13
1.0
 23
0.0
 33
0.0
 40
0.0
 40
0.0
 40
0.0
 40
0.0
 40
0.2982592819525376
 40
0.938080604865855
 40
1.0
 40
1.0
 40
1.0
 40
1.0
 10
133.1118856556345
 20
91.66783397422955
 30
0.0
 10
133.122169448626
 20
91.65334486103625
 30
0.0
 10
133.1545138795742
 20
91.60777392027836
 30
0.0
 10
133.2271139946234
 20
91.6358640145917
 30
0.0
 10
133.2607460042287
 20
91.6941492795838
 30
0.0
 10
133.2637135870386
 20
91.69929218815491
 30
0.0
  0
LINE
  5
B3
330
1F
100
AcDbEntity
  8
0
  6
Continuous
 62
     7
370
    15
100
AcDbLine
 10
133.066694159
 20
91.7643078171
 30
0.0
 11
133.066694159
 21
152.7406231068
 31
0.0
  0
SPLINE
  5
B4
330
1F
100
AcDbEntity
  8
0
  6
Continuous
 62
     7
370
    15
100
AcDbSpline
210
0.0
220
0.0
230
1.0
 70
     8
 71
     3
 72
     9
 73
     5
 74
     0
 42
0.00000001
 43
0.00000001
 12
1.0
 22
0.0
 32
0.0
 13
1.0
 23
0.0
 33
0.0
 40
0.0
 40
0.0
 40
0.0
 40
0.0
 40
0.0592942499244465
 40
1.0
 40
1.0
 40
1.0
 40
1.0
 10
133.3575089461733
 20
152.9164363198154
 30
0.0
 10
133.3526259484745
 20
152.9197294595131
 30
0.0
 10
133.2702739884619
 20
152.9752683979762
 30
0.0
 10
133.2041433340466
 20
152.9179761948634
 30
0.0
 10
133.1419338471819
 20
152.8640810899608
 30
0.0
  0
SPLINE
  5
B5
330
1F
100
AcDbEntity
  8
0
  6
Continuous
 62
     7
370
    15
100
AcDbSpline
210
0.0
220
0.0
230
1.0
 70
     8
 71
     3
 72
     8
 73
     4
 74
     0
 42
0.00000001
 43
0.00000001
 12
1.0
 22
0.0
 32
0.0
 13
1.0
 23
0.0
 33
0.0
 40
0.0
 40
0.0
 40
0.0
 40
0.0
 40
1.0
 40
1.0
 40
1.0
 40
1.0
 10
133.0903268802462
 20
152.8482028372367
 30
0.0
 10
133.0749778416101
 20
152.8176927822407
 30
0.0
 10
133.06669321131
 20
152.7813812267284
 30
0.0
 10
133.06669321131
 20
152.740623336167
 30
0.0
  0
SPLINE
  5
B6
330
1F
100
AcDbEntity
  8
0
  6
Continuous
 62
     7
370
    15
100
AcDbSpline
210
0.0
220
0.0
230
1.0
 70
     8
 71
     3
 72
    20
 73
    16
 74
     0
 42
0.00000001
 43
0.00000001
 12
1.0
 22
0.0
 32
0.0
 13
1.0
 23
0.0
 33
0.0
 40
0.0
 40
0.0
 40
0.0
 40
0.0
 40
0.2500000000000037
 40
0.2500000000000037
 40
0.3750000000000055
 40
0.3750000000000055
 40
0.5000000000000073
 40
0.5000000000000073
 40
0.5625000000000057
 40
0.5625000000000057
 40
0.625000000000004
 40
0.625000000000004
 40
0.7500000000000027
 40
0.7500000000000027
 40
1.0
 40
1.0
 40
1.0
 40
1.0
 10
134.0432454530124
 20
153.5608196940772
 30
0.0
 10
134.0032492351886
 20
153.4819412875198
 30
0.0
 10
133.9581356073509
 20
153.3988116408283
 30
0.0
 10
133.8748813929844
 20
153.2653229764773
 30
0.0
 10
133.8446620643639
 20
153.2194579205953
 30
0.0
 10
133.7725738292225
 20
153.1212663681904
 30
0.0
 10
133.7306565118114
 20
153.0689565486669
 30
0.0
 10
133.6594059072599
 20
152.9969506459324
 30
0.0
 10
133.6351700948806
 20
152.9751804336308
 30
0.0
 10
133.589571904696
 20
152.9397057753018
 30
0.0
 10
133.5687694150962
 20
152.9263355911242
 30
0.0
 10
133.5138284166771
 20
152.896765678989
 30
0.0
 10
133.4857594285903
 20
152.8896391566871
 30
0.0
 10
133.4152565985275
 20
152.8827647852044
 30
0.0
 10
133.3838325107366
 20
152.8970799442915
 30
0.0
 10
133.357507443028
 20
152.9164367463021
 30
0.0
  0
SPLINE
  5
B7
330
1F
100
AcDbEntity
  8
0
  6
Continuous
 62
     7
370
    15
100
AcDbSpline
210
0.0
220
0.0
230
1.0
 70
     8
 71
     3
 72
    10
 73
     6
 74
     0
 42
0.00000001
 43
0.00000001
 12
1.0
 22
0.0
 32
0.0
 13
1.0
 23
0.0
 33
0.0
 40
0.0
 40
0.0
 40
0.0
 40
0.0
 40
0.4999999999999989
 40
0.4999999999999989
 40
1.0
 40
1.0
 40
1.0
 40
1.0
 10
134.71669321131
 20
154.4862387954191
 30
0.0
 10
134.5918049405598
 20
154.3552425173476
 30
0.0
 10
134.4703548224994
 20
154.2115296806826
 30
0.0
 10
134.2407708475419
 20
153.9009593879934
 30
0.0
 10
134.1304958721459
 20
153.7328903149303
 30
0.0
 10
134.0432454530124
 20
153.5608196940772
 30
0.0
  0
SPLINE
  5
B8
330
1F
100
AcDbEntity
  8
0
  6
Continuous
 62
     7
370
    15
100
AcDbSpline
210
0.0
220
0.0
230
1.0
 70
     8
 71
     3
 72
     8
 73
     4
 74
     0
 42
0.00000001
 43
0.00000001
 12
1.0
 22
0.0
 32
0.0
 13
1.0
 23
0.0
 33
0.0
 40
0.0
 40
0.0
 40
0.0
 40
0.0
 40
1.0
 40
1.0
 40
1.0
 40
1.0
 10
134.9666183272757
 20
154.4837857621636
 30
0.0
 10
134.8796002974273
 20
154.4842523269507
 30
0.0
 10
134.7966462710474
 20
154.4852923465268
 30
0.0
 10
134.7166932113077
 20
154.4862387954191
 30
0.0
  0
SPLINE
  5
B9
330
1F
100
AcDbEntity
  8
0
  6
Continuous
 62
     7
370
    15
100
AcDbSpline
210
0.0
220
0.0
230
1.0
 70
     8
 71
     3
 72
     8
 73
     4
 74
     0
 42
0.00000001
 43
0.00000001
 12
1.0
 22
0.0
 32
0.0
 13
1.0
 23
0.0
 33
0.0
 40
0.0
 40
0.0
 40
0.0
 40
0.0
 40
1.0
 40
1.0
 40
1.0
 40
1.0
 10
134.7166932113006
 20
90.05364029979046
 30
0.0
 10
134.7961078301743
 20
90.05621337104012
 30
0.0
 10
134.8789113761061
 20
90.05851775545432
 30
0.0
 10
134.9666183272791
 20
90.05955374436434
 30
0.0
  0
SPLINE
  5
BA
330
1F
100
AcDbEntity
  8
0
  6
Continuous
 62
     7
370
    15
100
AcDbSpline
210
0.0
220
0.0
230
1.0
 70
     8
 71
     3
 72
    10
 73
     6
 74
     0
 42
0.00000001
 43
0.00000001
 12
1.0
 22
0.0
 32
0.0
 13
1.0
 23
0.0
 33
0.0
 40
0.0
 40
0.0
 40
0.0
 40
0.0
 40
0.5
 40
0.5
 40
1.0
 40
1.0
 40
1.0
 40
1.0
 10
134.2167456532172
 20
90.80373372942677
 30
0.0
 10
134.2741712837104
 20
90.67046004086419
 30
0.0
 10
134.3525070520689
 20
90.5374267177771
 30
0.0
 10
134.5242992085289
 20
90.28495141150769
 30
0.0
 10
134.6184823708101
 20
90.1651197074067
 30
0.0
 10
134.7166932113167
 20
90.05364029978111
 30
0.0
  0
SPLINE
  5
BB
330
1F
100
AcDbEntity
  8
0
  6
Continuous
 62
     7
370
    15
100
AcDbSpline
210
0.0
220
0.0
230
1.0
 70
     8
 71
     3
 72
     8
 73
     4
 74
     0
 42
0.00000001
 43
0.00000001
 12
1.0
 22
0.0
 32
0.0
 13
1.0
 23
0.0
 33
0.0
 40
0.0
 40
0.0
 40
0.0
 40
0.0
 40
1.0
 40
1.0
 40
1.0
 40
1.0
 10
201.05669321131
 20
168.8352244543039
 30
0.0
 10
200.6063849756254
 20
169.6329395794176
 30
0.0
 10
200.1556911591018
 20
170.4304378790748
 30
0.0
 10
199.7046641903886
 20
171.2277484492626
 30
0.0
  0
LINE
  5
BC
330
1F
100
AcDbEntity
  8
0
  6
Continuous
 62
     7
370
    15
100
AcDbLine
 10
201.0566935874
 20
158.1334017717
 30
0.0
 11
201.0566935874
 21
168.8352257513
 31
0.0
  0
SPLINE
  5
BD
330
1F
100
AcDbEntity
  8
0
  6
Continuous
 62
     7
370
    15
100
AcDbSpline
210
0.0
220
0.0
230
1.0
 70
     8
 71
     3
 72
     8
 73
     4
 74
     0
 42
0.00000001
 43
0.00000001
 12
1.0
 22
0.0
 32
0.0
 13
1.0
 23
0.0
 33
0.0
 40
0.0
 40
0.0
 40
0.0
 40
0.0
 40
1.0
 40
1.0
 40
1.0
 40
1.0
 10
199.7046641903886
 20
161.188916354486
 30
0.0
 10
200.1615905441881
 20
160.1729983848117
 30
0.0
 10
200.6127961859912
 20
159.1542025557206
 30
0.0
 10
201.05669321131
 20
158.1334010997369
 30
0.0
  0
SPLINE
  5
BE
330
1F
100
AcDbEntity
  8
0
  6
Continuous
 62
     7
370
    15
100
AcDbSpline
210
0.0
220
0.0
230
1.0
 70
     8
 71
     3
 72
     8
 73
     4
 74
     0
 42
0.00000001
 43
0.00000001
 12
1.0
 22
0.0
 32
0.0
 13
1.0
 23
0.0
 33
0.0
 40
0.0
 40
0.0
 40
0.0
 40
0.0
 40
1.0
 40
1.0
 40
1.0
 40
1.0
 10
206.2287222322314
 20
171.2277484492626
 30
0.0
 10
205.7776952635181
 20
170.4304378790748
 30
0.0
 10
205.3270014469945
 20
169.6329395794176
 30
0.0
 10
204.87669321131
 20
168.8352244543039
 30
0.0
  0
LINE
  5
BF
330
1F
100
AcDbEntity
  8
0
  6
Continuous
 62
     7
370
    15
100
AcDbLine
 10
206.228722725
 20
161.1889146768
 30
0.0
 11
206.228722725
 21
171.227748742
 31
0.0
  0
SPLINE
  5
C0
330
1F
100
AcDbEntity
  8
0
  6
Continuous
 62
     7
370
    15
100
AcDbSpline
210
0.0
220
0.0
230
1.0
 70
     8
 71
     3
 72
     8
 73
     4
 74
     0
 42
0.00000001
 43
0.00000001
 12
1.0
 22
0.0
 32
0.0
 13
1.0
 23
0.0
 33
0.0
 40
0.0
 40
0.0
 40
0.0
 40
0.0
 40
1.0
 40
1.0
 40
1.0
 40
1.0
 10
204.87669321131
 20
158.1334010997369
 30
0.0
 10
205.3208432223355
 20
159.1547843306885
 30
0.0
 10
205.7719175325934
 20
160.1732688674569
 30
0.0
 10
206.2287222322314
 20
161.188916354486
 30
0.0
  0
LINE
  5
C1
330
1F
100
AcDbEntity
  8
0
  6
Continuous
 62
     7
370
    15
100
AcDbLine
 10
204.8766938038
 20
158.1334017717
 30
0.0
 11
204.8766938038
 21
168.8352257513
 31
0.0
  0
LINE
  5
C2
330
1F
100
AcDbEntity
  8
0
  6
Continuous
 62
     7
370
    15
100
AcDbLine
 10
201.0566935874
 20
158.1334017717
 30
0.0
 11
201.0566935874
 21
156.9521904491
 31
0.0
  0
SPLINE
  5
C3
330
1F
100
AcDbEntity
  8
0
  6
Continuous
 62
     7
370
    15
100
AcDbSpline
210
0.0
220
0.0
230
1.0
 70
     8
 71
     3
 72
    14
 73
    10
 74
     0
 42
0.00000001
 43
0.00000001
 12
1.0
 22
0.0
 32
0.0
 13
1.0
 23
0.0
 33
0.0
 40
0.0
 40
0.0
 40
0.0
 40
0.0
 40
0.25
 40
0.25
 40
0.5
 40
0.5
 40
0.75
 40
0.75
 40
1.0
 40
1.0
 40
1.0
 40
1.0
 10
201.05669321131
 20
156.9521887860961
 30
0.0
 10
201.05669321131
 20
156.8283219093069
 30
0.0
 10
201.0725523389376
 20
156.7040622324694
 30
0.0
 10
201.1359139844575
 20
156.4664538700635
 30
0.0
 10
201.1845036925068
 20
156.3496734853111
 30
0.0
 10
201.3167892972817
 20
156.1408709567021
 30
0.0
 10
201.4021140885422
 20
156.0463602531094
 30
0.0
 10
201.6090053368484
 20
155.9084034523072
 30
0.0
 10
201.7329732827384
 20
155.8664850066715
 30
0.0
 10
201.85669321131
 20
155.8664850066715
 30
0.0
  0
LINE
  5
C4
330
1F
100
AcDbEntity
  8
0
  6
Continuous
 62
     7
370
    15
100
AcDbLine
 10
201.8566940911
 20
155.8664843939
 30
0.0
 11
204.0766933001
 21
155.8664843939
 31
0.0
  0
SPLINE
  5
C5
330
1F
100
AcDbEntity
  8
0
  6
Continuous
 62
     7
370
    15
100
AcDbSpline
210
0.0
220
0.0
230
1.0
 70
     8
 71
     3
 72
    12
 73
     8
 74
     0
 42
0.00000001
 43
0.00000001
 12
1.0
 22
0.0
 32
0.0
 13
1.0
 23
0.0
 33
0.0
 40
0.0
 40
0.0
 40
0.0
 40
0.0
 40
0.250000000000002
 40
0.250000000000002
 40
0.500000000000004
 40
0.500000000000004
 40
1.0
 40
1.0
 40
1.0
 40
1.0
 10
204.07669321131
 20
155.8664850066716
 30
0.0
 10
204.2003941612899
 20
155.8664850066716
 30
0.0
 10
204.3244907735602
 20
155.9084786184041
 30
0.0
 10
204.5311459366472
 20
156.0462739450485
 30
0.0
 10
204.6161867033741
 20
156.1402475435133
 30
0.0
 10
204.8156652718476
 20
156.4550357497343
 30
0.0
 10
204.87669321131
 20
156.7052747419619
 30
0.0
 10
204.87669321131
 20
156.9521887860961
 30
0.0
  0
LINE
  5
C6
330
1F
100
AcDbEntity
  8
0
  6
Continuous
 62
     7
370
    15
100
AcDbLine
 10
204.8766938038
 20
156.9521904491
 30
0.0
 11
204.8766938038
 21
158.1334017717
 31
0.0
  0
LINE
  5
C7
330
1F
100
AcDbEntity
  8
0
  6
Continuous
 62
     7
370
    15
100
AcDbLine
 10
206.228722725
 20
161.1889146768
 30
0.0
 11
210.9166932292
 21
161.1889146768
 31
0.0
  0
SPLINE
  5
C8
330
1F
100
AcDbEntity
  8
0
  6
Continuous
 62
     7
370
    15
100
AcDbSpline
210
0.0
220
0.0
230
1.0
 70
     8
 71
     3
 72
    16
 73
    12
 74
     0
 42
0.00000001
 43
0.00000001
 12
1.0
 22
0.0
 32
0.0
 13
1.0
 23
0.0
 33
0.0
 40
0.0
 40
0.0
 40
0.0
 40
0.0
 40
0.1249999999999978
 40
0.1249999999999978
 40
0.2499999999999955
 40
0.2499999999999955
 40
0.499999999999997
 40
0.499999999999997
 40
0.7499999999999984
 40
0.7499999999999984
 40
1.0
 40
1.0
 40
1.0
 40
1.0
 10
210.91669321131
 20
161.188916354486
 30
0.0
 10
210.9923309177212
 20
161.188916354486
 30
0.0
 10
211.0686465821394
 20
161.1775713543511
 30
0.0
 10
211.2130573200313
 20
161.1349188037125
 30
0.0
 10
211.2815037691398
 20
161.1039844790297
 30
0.0
 10
211.4764350217529
 20
160.9847281072621
 30
0.0
 10
211.5842761955338
 20
160.8745760936415
 30
0.0
 10
211.7529889437458
 20
160.6264400079834
 30
0.0
 10
211.8153533564694
 20
160.4860976839798
 30
0.0
 10
211.8966572809778
 20
160.1978259924911
 30
0.0
 10
211.91669321131
 20
160.0470210195113
 30
0.0
 10
211.91669321131
 20
159.896651128166
 30
0.0
  0
LINE
  5
C9
330
1F
100
AcDbEntity
  8
0
  6
Continuous
 62
     7
370
    15
100
AcDbLine
 10
211.9166933931
 20
159.8966524504
 30
0.0
 11
211.9166933931
 21
153.5879552864
 31
0.0
  0
SPLINE
  5
CA
330
1F
100
AcDbEntity
  8
0
  6
Continuous
 62
     7
370
    15
100
AcDbSpline
210
0.0
220
0.0
230
1.0
 70
     8
 71
     3
 72
    10
 73
     6
 74
     0
 42
0.00000001
 43
0.00000001
 12
1.0
 22
0.0
 32
0.0
 13
1.0
 23
0.0
 33
0.0
 40
0.0
 40
0.0
 40
0.0
 40
0.0
 40
0.5
 40
0.5
 40
1.0
 40
1.0
 40
1.0
 40
1.0
 10
201.85669321131
 20
167.1122293537715
 30
0.0
 10
201.6441568974536
 20
167.1122293537715
 30
0.0
 10
201.4342207257996
 20
167.2036419404017
 30
0.0
 10
201.1405135847884
 20
167.5083868063059
 30
0.0
 10
201.05669321131
 20
167.7205417762145
 30
0.0
 10
201.05669321131
 20
167.9315048344471
 30
0.0
  0
SPLINE
  5
CB
330
1F
100
AcDbEntity
  8
0
  6
Continuous
 62
     7
370
    15
100
AcDbSpline
210
0.0
220
0.0
230
1.0
 70
     8
 71
     3
 72
    14
 73
    10
 74
     0
 42
0.00000001
 43
0.00000001
 12
1.0
 22
0.0
 32
0.0
 13
1.0
 23
0.0
 33
0.0
 40
0.0
 40
0.0
 40
0.0
 40
0.0
 40
0.25
 40
0.25
 40
0.5
 40
0.5
 40
0.75
 40
0.75
 40
1.0
 40
1.0
 40
1.0
 40
1.0
 10
204.87669321131
 20
167.9315048344471
 30
0.0
 10
204.87669321131
 20
167.8251481406947
 30
0.0
 10
204.8563056551687
 20
167.7193076529346
 30
0.0
 10
204.7776713097072
 20
167.5227427393981
 30
0.0
 10
204.7189399500686
 20
167.431571997111
 30
0.0
 10
204.572331044466
 20
167.2796609080794
 30
0.0
 10
204.4829257244395
 20
167.2175920712598
 30
0.0
 10
204.2890349918391
 20
167.1343240235011
 30
0.0
 10
204.1825300019493
 20
167.1122293537715
 30
0.0
 10
204.07669321131
 20
167.1122293537715
 30
0.0
  0
SPLINE
  5
CC
330
1F
100
AcDbEntity
  8
0
  6
Continuous
 62
     7
370
    15
100
AcDbSpline
210
0.0
220
0.0
230
1.0
 70
     8
 71
     3
 72
    12
 73
     8
 74
     0
 42
0.00000001
 43
0.00000001
 12
1.0
 22
0.0
 32
0.0
 13
1.0
 23
0.0
 33
0.0
 40
0.0
 40
0.0
 40
0.0
 40
0.0
 40
0.4999999999999953
 40
0.4999999999999953
 40
0.7499999999999977
 40
0.7499999999999977
 40
1.0
 40
1.0
 40
1.0
 40
1.0
 10
211.91669321131
 20
170.2066934144449
 30
0.0
 10
211.91669321131
 20
170.4719628472113
 30
0.0
 10
211.8120864678235
 20
170.7344779528637
 30
0.0
 10
211.5354181160782
 20
171.020015558901
 30
0.0
 10
211.4250528567262
 20
171.0963371757624
 30
0.0
 10
211.1809808081105
 20
171.2006793406025
 30
0.0
 10
211.0492283467788
 20
171.2277484492626
 30
0.0
 10
210.91669321131
 20
171.2277484492626
 30
0.0
  0
LINE
  5
CD
330
1F
100
AcDbEntity
  8
0
  6
Continuous
 62
     7
370
    15
100
AcDbLine
 10
211.9166933931
 20
159.8966524504
 30
0.0
 11
211.9166933931
 21
170.2066950999
 31
0.0
  0
LINE
  5
CE
330
1F
100
AcDbEntity
  8
0
  6
Continuous
 62
     7
370
    15
100
AcDbLine
 10
210.9166932292
 20
171.227748742
 30
0.0
 11
206.228722725
 21
171.227748742
 31
0.0
  0
LINE
  5
CF
330
1F
100
AcDbEntity
  8
0
  6
Continuous
 62
     7
370
    15
100
AcDbLine
 10
204.0766933001
 20
167.1122305595
 30
0.0
 11
201.8566940911
 21
167.1122305595
 31
0.0
  0
SPLINE
  5
D0
330
1F
100
AcDbEntity
  8
0
  6
Continuous
 62
     7
370
    15
100
AcDbSpline
210
0.0
220
0.0
230
1.0
 70
     8
 71
     3
 72
    12
 73
     8
 74
     0
 42
0.00000001
 43
0.00000001
 12
1.0
 22
0.0
 32
0.0
 13
1.0
 23
0.0
 33
0.0
 40
0.0
 40
0.0
 40
0.0
 40
0.0
 40
0.2120993219846842
 40
0.4241031454808871
 40
0.6386093988454212
 40
0.8548196037422471
 40
1.0
 40
1.0
 40
1.0
 40
1.0
 10
257.4666951782633
 20
143.8235391430728
 30
0.0
 10
257.9393545391761
 20
143.8328298029511
 30
0.0
 10
258.8844604444114
 20
143.8514069395543
 30
0.0
 10
260.1501100118315
 20
143.9814421351767
 30
0.0
 10
261.1070338351897
 20
144.1233798893823
 30
0.0
 10
261.66092139932
 20
144.227056430172
 30
0.0
 10
261.6635709944707
 20
144.2277239052912
 30
0.0
 10
261.6646354086328
 20
144.2279920481317
 30
0.0
  0
SPLINE
  5
D1
330
1F
100
AcDbEntity
  8
0
  6
Continuous
 62
     7
370
    15
100
AcDbSpline
210
0.0
220
0.0
230
1.0
 70
     8
 71
     3
 72
    12
 73
     8
 74
     0
 42
0.00000001
 43
0.00000001
 12
1.0
 22
0.0
 32
0.0
 13
1.0
 23
0.0
 33
0.0
 40
0.0
 40
0.0
 40
0.0
 40
0.0
 40
0.1994077822834381
 40
0.4103221693122778
 40
0.6244517743926807
 40
0.8405985550326944
 40
1.0
 40
1.0
 40
1.0
 40
1.0
 10
253.2290806062151
 20
144.2356139920823
 30
0.0
 10
253.2648791569642
 20
144.2285097178675
 30
0.0
 10
253.3385419740992
 20
144.2138912251795
 30
0.0
 10
254.018966923135
 20
144.0912703147213
 30
0.0
 10
255.0581690301923
 20
143.9475374204822
 30
0.0
 10
256.2765377501346
 20
143.8410803640007
 30
0.0
 10
257.1120584260273
 20
143.8287659823742
 30
0.0
 10
257.4666951782633
 20
143.8235391430728
 30
0.0
  0
SPLINE
  5
D2
330
1F
100
AcDbEntity
  8
0
  6
Continuous
 62
     7
370
    15
100
AcDbSpline
210
0.0
220
0.0
230
1.0
 70
     8
 71
     3
 72
    12
 73
     8
 74
     0
 42
0.00000001
 43
0.00000001
 12
1.0
 22
0.0
 32
0.0
 13
1.0
 23
0.0
 33
0.0
 40
0.0
 40
0.0
 40
0.0
 40
0.0
 40
0.2120998603124345
 40
0.424103181211934
 40
0.638609421267604
 40
0.8548196127498453
 40
0.9999999999999999
 40
0.9999999999999999
 40
0.9999999999999999
 40
0.9999999999999999
 10
241.9666935689378
 20
143.8235391430728
 30
0.0
 10
242.4393543276516
 20
143.8328297349168
 30
0.0
 10
243.3844607087177
 20
143.8514066898971
 30
0.0
 10
244.6501088850732
 20
143.9814423335415
 30
0.0
 10
245.6070322932934
 20
144.1233798646522
 30
0.0
 10
246.1609197793807
 20
144.2270564340647
 30
0.0
 10
246.1635693821035
 20
144.2277239064069
 30
0.0
 10
246.1646337993074
 20
144.2279920481317
 30
0.0
  0
SPLINE
  5
D3
330
1F
100
AcDbEntity
  8
0
  6
Continuous
 62
     7
370
    15
100
AcDbSpline
210
0.0
220
0.0
230
1.0
 70
     8
 71
     3
 72
    12
 73
     8
 74
     0
 42
0.00000001
 43
0.00000001
 12
1.0
 22
0.0
 32
0.0
 13
1.0
 23
0.0
 33
0.0
 40
0.0
 40
0.0
 40
0.0
 40
0.0
 40
0.1994077666028549
 40
0.4103224814500037
 40
0.6244521581228154
 40
0.8405985017381795
 40
1.0
 40
1.0
 40
1.0
 40
1.0
 10
237.72908272218
 20
144.2356139920823
 30
0.0
 10
237.7648794498436
 20
144.2285096978568
 30
0.0
 10
237.8385385774342
 20
144.2138911517227
 30
0.0
 10
238.5189700037932
 20
144.091270396191
 30
0.0
 10
239.5581701034598
 20
143.9475376018839
 30
0.0
 10
240.7765371641729
 20
143.8410802755463
 30
0.0
 10
241.6120567840114
 20
143.8287659609931
 30
0.0
 10
241.9666935689378
 20
143.8235391430728
 30
0.0
  0
SPLINE
  5
D4
330
1F
100
AcDbEntity
  8
0
  6
Continuous
 62
     7
370
    15
100
AcDbSpline
210
0.0
220
0.0
230
1.0
 70
     8
 71
     3
 72
    12
 73
     8
 74
     0
 42
0.00000001
 43
0.00000001
 12
1.0
 22
0.0
 32
0.0
 13
1.0
 23
0.0
 33
0.0
 40
0.0
 40
0.0
 40
0.0
 40
0.0
 40
0.2121003526705335
 40
0.4241031250252612
 40
0.6386093052810143
 40
0.8548196532231439
 40
1.0
 40
1.0
 40
1.0
 40
1.0
 10
226.4666919596124
 20
143.8235391430728
 30
0.0
 10
226.9393540893395
 20
143.8328296675798
 30
0.0
 10
227.8844608926729
 20
143.8514064423324
 30
0.0
 10
229.1501080811423
 20
143.9814425234971
 30
0.0
 10
230.1070298433625
 20
144.1233799198444
 30
0.0
 10
230.660922527516
 20
144.227056409085
 30
0.0
 10
230.6635716797002
 20
144.2277238993626
 30
0.0
 10
230.6646359152723
 20
144.2279920481317
 30
0.0
  0
SPLINE
  5
D5
330
1F
100
AcDbEntity
  8
0
  6
Continuous
 62
     7
370
    15
100
AcDbSpline
210
0.0
220
0.0
230
1.0
 70
     8
 71
     3
 72
    12
 73
     8
 74
     0
 42
0.00000001
 43
0.00000001
 12
1.0
 22
0.0
 32
0.0
 13
1.0
 23
0.0
 33
0.0
 40
0.0
 40
0.0
 40
0.0
 40
0.0
 40
0.199407796583312
 40
0.4103225431409585
 40
0.6244526563764707
 40
0.840599032488895
 40
1.0
 40
1.0
 40
1.0
 40
1.0
 10
222.2290811128545
 20
144.2356139920823
 30
0.0
 10
222.2648778841894
 20
144.2285097049714
 30
0.0
 10
222.3385371016425
 20
144.213891173477
 30
0.0
 10
223.0189682611551
 20
144.0912702232864
 30
0.0
 10
224.0581721075728
 20
143.9475377722217
 30
0.0
 10
225.2765380016484
 20
143.8410803656298
 30
0.0
 10
226.1120564024233
 20
143.8287659804863
 30
0.0
 10
226.4666919596124
 20
143.8235391430728
 30
0.0
  0
SPLINE
  5
D6
330
1F
100
AcDbEntity
  8
0
  6
Continuous
 62
     7
370
    15
100
AcDbSpline
210
0.0
220
0.0
230
1.0
 70
     8
 71
     3
 72
    10
 73
     6
 74
     0
 42
0.00000001
 43
0.00000001
 12
1.0
 22
0.0
 32
0.0
 13
1.0
 23
0.0
 33
0.0
 40
0.0
 40
0.0
 40
0.0
 40
0.0
 40
0.178500406455253
 40
0.6497903518818889
 40
1.0
 40
1.0
 40
1.0
 40
1.0
 10
230.3972122259069
 20
120.7782892776825
 30
0.0
 10
230.4731120664899
 20
120.9408552603332
 30
0.0
 10
230.7494082671518
 20
121.5326399468132
 30
0.0
 10
230.7843755594846
 20
122.5932804038139
 30
0.0
 10
230.5206146915137
 20
123.37507431746
 30
0.0
 10
230.408172029965
 20
123.7083572229542
 30
0.0
  0
SPLINE
  5
D7
330
1F
100
AcDbEntity
  8
0
  6
Continuous
 62
     7
370
    15
100
AcDbSpline
210
0.0
220
0.0
230
1.0
 70
     8
 71
     3
 72
    11
 73
     7
 74
     0
 42
0.00000001
 43
0.00000001
 12
1.0
 22
0.0
 32
0.0
 13
1.0
 23
0.0
 33
0.0
 40
0.0
 40
0.0
 40
0.0
 40
0.0
 40
0.2295910249772223
 40
0.5950726705537908
 40
0.954635599763804
 40
1.0
 40
1.0
 40
1.0
 40
1.0
 10
222.9335595853258
 20
124.4956967454575
 30
0.0
 10
222.7672770190751
 20
124.2441463347315
 30
0.0
 10
222.3362923550399
 20
123.5921575442095
 30
0.0
 10
222.1748550028599
 20
122.3313871069095
 30
0.0
 10
222.2267408126823
 20
121.2837369750167
 30
0.0
 10
222.4781983409121
 20
120.8196642318529
 30
0.0
 10
222.5063693709303
 20
120.767673713731
 30
0.0
  0
SPLINE
  5
D8
330
1F
100
AcDbEntity
  8
0
  6
Continuous
 62
     7
370
    15
100
AcDbSpline
210
0.0
220
0.0
230
1.0
 70
     8
 71
     3
 72
    23
 73
    19
 74
     0
 42
0.00000001
 43
0.00000001
 12
1.0
 22
0.0
 32
0.0
 13
1.0
 23
0.0
 33
0.0
 40
0.0
 40
0.0
 40
0.0
 40
0.0
 40
0.0391819856880549
 40
0.1052710720020598
 40
0.1718851434767589
 40
0.237672671630403
 40
0.3025934940773903
 40
0.3679093416002259
 40
0.4342852836271003
 40
0.5007740738620969
 40
0.5661979098984774
 40
0.6310539954292719
 40
0.6967086762244491
 40
0.7632906407677827
 40
0.8294968232599456
 40
0.8946308311140898
 40
0.9596454320113537
 40
1.0
 40
1.0
 40
1.0
 40
1.0
 10
259.3525563366342
 20
118.4921604614876
 30
0.0
 10
259.6079938716525
 20
118.6145707781619
 30
0.0
 10
260.2942833148424
 20
118.9434531723061
 30
0.0
 10
261.1122626511055
 20
119.9201445391797
 30
0.0
 10
261.6855187230813
 20
121.2451653706316
 30
0.0
 10
261.771852701999
 20
122.6957711020472
 30
0.0
 10
261.3846783981582
 20
124.0782037764947
 30
0.0
 10
260.5680617347021
 20
125.2596478731403
 30
0.0
 10
259.3996955589174
 20
126.1145994046697
 30
0.0
 10
258.0074731361608
 20
126.5353570812093
 30
0.0
 10
256.5637413283226
 20
126.4718382859471
 30
0.0
 10
255.230259661907
 20
125.9442472728727
 30
0.0
 10
254.1376122198724
 20
125.0078854039176
 30
0.0
 10
253.4089543188342
 20
123.7538534620836
 30
0.0
 10
253.1346429987119
 20
122.3230817409397
 30
0.0
 10
253.3582312442524
 20
120.9096482474363
 30
0.0
 10
253.8992066383057
 20
119.7656971580337
 30
0.0
 10
254.4793798166337
 20
119.273898565265
 30
0.0
 10
254.7015761024881
 20
119.0855482161217
 30
0.0
  0
SPLINE
  5
D9
330
1F
100
AcDbEntity
  8
0
  6
Continuous
 62
     7
370
    15
100
AcDbSpline
210
0.0
220
0.0
230
1.0
 70
     8
 71
     3
 72
    22
 73
    18
 74
     0
 42
0.00000001
 43
0.00000001
 12
1.0
 22
0.0
 32
0.0
 13
1.0
 23
0.0
 33
0.0
 40
0.0
 40
0.0
 40
0.0
 40
0.0
 40
0.03941442854971
 40
0.1129199170125396
 40
0.1870093035563506
 40
0.2601793935273332
 40
0.33238551758693
 40
0.4050309957483119
 40
0.478855376245219
 40
0.5528054227068294
 40
0.6255711992107825
 40
0.6977053216902133
 40
0.7707275114496029
 40
0.8447812840109118
 40
0.9184169732685574
 40
0.9908601777968127
 40
1.0
 40
1.0
 40
1.0
 40
1.0
 10
243.9233315176893
 20
118.5308194287293
 30
0.0
 10
244.1539021419707
 20
118.6421956500126
 30
0.0
 10
244.8144728191922
 20
118.9612816834081
 30
0.0
 10
245.6114631327237
 20
119.9213040058686
 30
0.0
 10
246.1857288168356
 20
121.244857861294
 30
0.0
 10
246.2717952917772
 20
122.6958517059671
 30
0.0
 10
245.8846925442738
 20
124.0781826683483
 30
0.0
 10
245.0680533826113
 20
125.2596509105704
 30
0.0
 10
243.8997091390293
 20
126.114604523053
 30
0.0
 10
242.5074335407888
 20
126.5353365666498
 30
0.0
 10
241.0638873306971
 20
126.4719149870511
 30
0.0
 10
239.7297150468551
 20
125.9439637865518
 30
0.0
 10
238.6396820303489
 20
125.0089670946996
 30
0.0
 10
237.9011378105793
 20
123.7497565902631
 30
0.0
 10
237.6634084757588
 20
122.3381702047493
 30
0.0
 10
237.7270079267396
 20
121.2835797863163
 30
0.0
 10
237.9782267071286
 20
120.8196483797865
 30
0.0
 10
238.0063709802557
 20
120.767673713731
 30
0.0
  0
LINE
  5
DA
330
1F
100
AcDbEntity
  8
0
  6
Continuous
 62
     7
370
    15
100
AcDbLine
 10
267.9666941054
 20
122.2379535936
 30
0.0
 11
267.9666941054
 21
101.2379538767
 31
0.0
  0
LINE
  5
DB
330
1F
100
AcDbEntity
  8
0
  6
Continuous
 62
     7
370
    15
100
AcDbLine
 10
267.9666941054
 20
143.2379533105
 30
0.0
 11
267.9666941054
 21
122.2379535936
 31
0.0
  0
LINE
  5
DC
330
1F
100
AcDbEntity
  8
0
  6
Continuous
 62
     7
370
    15
100
AcDbLine
 10
134.7166922874
 20
90.042951753
 30
0.0
 11
134.7166922874
 21
90.0536396109
 31
0.0
  0
LINE
  5
DD
330
1F
100
AcDbEntity
  8
0
  6
Continuous
 62
     7
370
    15
100
AcDbLine
 10
134.7166922874
 20
154.4879518949
 30
0.0
 11
134.7166922874
 21
154.4862382613
 31
0.0
  0
LINE
  5
DE
330
1F
100
AcDbEntity
  8
0
  6
HIDDEN
 62
     7
370
     0
100
AcDbLine
 10
256.9708217866
 20
143.4379529707
 30
0.0
 11
262.4666904099
 21
143.4379529707
 31
0.0
  0
LINE
  5
DF
330
1F
100
AcDbEntity
  8
0
  6
HIDDEN
 62
     7
370
     0
100
AcDbLine
 10
252.4666924961
 20
143.4379529707
 30
0.0
 11
256.9708217866
 21
143.4379529707
 31
0.0
  0
LINE
  5
E0
330
1F
100
AcDbEntity
  8
0
  6
HIDDEN
 62
     7
370
     0
100
AcDbLine
 10
256.9708217866
 20
133.237953534
 30
0.0
 11
262.4666904099
 21
133.237953534
 31
0.0
  0
LINE
  5
E1
330
1F
100
AcDbEntity
  8
0
  6
HIDDEN
 62
     7
370
     0
100
AcDbLine
 10
252.4666924961
 20
133.237953534
 30
0.0
 11
256.9708217866
 21
133.237953534
 31
0.0
  0
LINE
  5
E2
330
1F
100
AcDbEntity
  8
0
  6
HIDDEN
 62
     7
370
     0
100
AcDbLine
 10
257.1195800788
 20
131.7379532881
 30
0.0
 11
260.9666948206
 21
131.7379532881
 31
0.0
  0
LINE
  5
E3
330
1F
100
AcDbEntity
  8
0
  6
HIDDEN
 62
     7
370
     0
100
AcDbLine
 10
253.9666955359
 20
131.7379532881
 30
0.0
 11
257.1195800788
 21
131.7379532881
 31
0.0
  0
LINE
  5
E4
330
1F
100
AcDbEntity
  8
0
  6
HIDDEN
 62
     7
370
     0
100
AcDbLine
 10
259.8112215288
 20
138.2379543536
 30
0.0
 11
257.1803991682
 21
138.2379543536
 31
0.0
  0
LINE
  5
E5
330
1F
100
AcDbEntity
  8
0
  6
HIDDEN
 62
     7
370
     0
100
AcDbLine
 10
257.1803991682
 20
138.2379543536
 30
0.0
 11
257.1803991682
 21
144.2379534744
 31
0.0
  0
LINE
  5
E6
330
1F
100
AcDbEntity
  8
0
  6
HIDDEN
 62
     7
370
     0
100
AcDbLine
 10
254.8358728177
 20
138.2379543536
 30
0.0
 11
257.1803991682
 21
138.2379543536
 31
0.0
  0
LINE
  5
E7
330
1F
100
AcDbEntity
  8
0
  6
HIDDEN
 62
     7
370
     0
100
AcDbLine
 10
259.8112215288
 20
138.2379543536
 30
0.0
 11
259.8112215288
 21
144.2379534744
 31
0.0
  0
LINE
  5
E8
330
1F
100
AcDbEntity
  8
0
  6
HIDDEN
 62
     7
370
     0
100
AcDbLine
 10
259.8112215288
 20
138.2379543536
 30
0.0
 11
260.0975175388
 21
138.2379543536
 31
0.0
  0
LINE
  5
E9
330
1F
100
AcDbEntity
  8
0
  6
HIDDEN
 62
     7
370
     0
100
AcDbLine
 10
255.1221613772
 20
138.2379543536
 30
0.0
 11
255.1221613772
 21
144.2379534744
 31
0.0
  0
LINE
  5
EA
330
1F
100
AcDbEntity
  8
0
  6
HIDDEN
 62
     7
370
     0
100
AcDbLine
 10
254.8358728177
 20
138.2379543536
 30
0.0
 11
254.8358728177
 21
144.2379534744
 31
0.0
  0
LINE
  5
EB
330
1F
100
AcDbEntity
  8
0
  6
HIDDEN
 62
     7
370
     0
100
AcDbLine
 10
257.7529837377
 20
138.2379543536
 30
0.0
 11
257.7529837377
 21
144.2379534744
 31
0.0
  0
LINE
  5
EC
330
1F
100
AcDbEntity
  8
0
  6
HIDDEN
 62
     7
370
     0
100
AcDbLine
 10
260.0975175388
 20
138.2379543536
 30
0.0
 11
260.0975175388
 21
144.2379534744
 31
0.0
  0
LINE
  5
ED
330
1F
100
AcDbEntity
  8
0
  6
HIDDEN
 62
     7
370
     0
100
AcDbLine
 10
236.966694612
 20
133.237953534
 30
0.0
 11
246.9666962511
 21
133.237953534
 31
0.0
  0
LINE
  5
EE
330
1F
100
AcDbEntity
  8
0
  6
HIDDEN
 62
     7
370
     0
100
AcDbLine
 10
238.4666939266
 20
131.7379532881
 30
0.0
 11
245.4666932113
 21
131.7379532881
 31
0.0
  0
LINE
  5
EF
330
1F
100
AcDbEntity
  8
0
  6
HIDDEN
 62
     7
370
     0
100
AcDbLine
 10
236.966694612
 20
143.4379529707
 30
0.0
 11
246.9666962511
 21
143.4379529707
 31
0.0
  0
LINE
  5
F0
330
1F
100
AcDbEntity
  8
0
  6
HIDDEN
 62
     7
370
     0
100
AcDbLine
 10
241.0765801556
 20
138.2379543536
 30
0.0
 11
243.8998249359
 21
138.2379543536
 31
0.0
  0
LINE
  5
F1
330
1F
100
AcDbEntity
  8
0
  6
HIDDEN
 62
     7
370
     0
100
AcDbLine
 10
241.0765801556
 20
138.2379543536
 30
0.0
 11
241.0765801556
 21
144.2379534744
 31
0.0
  0
LINE
  5
F2
330
1F
100
AcDbEntity
  8
0
  6
HIDDEN
 62
     7
370
     0
100
AcDbLine
 10
239.1434487886
 20
138.2379543536
 30
0.0
 11
241.0765801556
 21
138.2379543536
 31
0.0
  0
LINE
  5
F3
330
1F
100
AcDbEntity
  8
0
  6
HIDDEN
 62
     7
370
     0
100
AcDbLine
 10
243.8998249359
 20
138.2379543536
 30
0.0
 11
243.8998249359
 21
144.2379534744
 31
0.0
  0
LINE
  5
F4
330
1F
100
AcDbEntity
  8
0
  6
HIDDEN
 62
     7
370
     0
100
AcDbLine
 10
244.7899383492
 20
138.2379543536
 30
0.0
 11
243.8998249359
 21
138.2379543536
 31
0.0
  0
LINE
  5
F5
330
1F
100
AcDbEntity
  8
0
  6
HIDDEN
 62
     7
370
     0
100
AcDbLine
 10
240.033562202
 20
138.2379543536
 30
0.0
 11
240.033562202
 21
144.2379534744
 31
0.0
  0
LINE
  5
F6
330
1F
100
AcDbEntity
  8
0
  6
HIDDEN
 62
     7
370
     0
100
AcDbLine
 10
239.1434487886
 20
138.2379543536
 30
0.0
 11
239.1434487886
 21
144.2379534744
 31
0.0
  0
LINE
  5
F7
330
1F
100
AcDbEntity
  8
0
  6
HIDDEN
 62
     7
370
     0
100
AcDbLine
 10
242.8568069823
 20
138.2379543536
 30
0.0
 11
242.8568069823
 21
144.2379534744
 31
0.0
  0
LINE
  5
F8
330
1F
100
AcDbEntity
  8
0
  6
HIDDEN
 62
     7
370
     0
100
AcDbLine
 10
244.7899383492
 20
138.2379543536
 30
0.0
 11
244.7899383492
 21
144.2379534744
 31
0.0
  0
CIRCLE
  5
F9
330
1F
100
AcDbEntity
  8
0
  6
HIDDEN
 62
     7
370
     0
100
AcDbCircle
 10
226.4666932113
 20
122.2379535936
 30
0.0
 40
4.999999999999992
  0
CIRCLE
  5
FA
330
1F
100
AcDbEntity
  8
0
  6
HIDDEN
 62
     7
370
     0
100
AcDbCircle
 10
226.4666932113
 20
122.2379535936
 30
0.0
 40
2.499999999999996
  0
CIRCLE
  5
FB
330
1F
100
AcDbEntity
  8
0
  6
HIDDEN
 62
     7
370
     0
100
AcDbCircle
 10
226.4666932113
 20
122.2379535936
 30
0.0
 40
3.499999999999981
  0
LINE
  5
FC
330
1F
100
AcDbEntity
  8
0
  6
HIDDEN
 62
     7
370
     0
100
AcDbLine
 10
242.6192824728
 20
119.4259324145
 30
0.0
 11
244.7282698936
 21
121.397100276
 31
0.0
  0
LINE
  5
FD
330
1F
100
AcDbEntity
  8
0
  6
HIDDEN
 62
     7
370
     0
100
AcDbLine
 10
239.8577061481
 20
120.2667858485
 30
0.0
 11
242.6192824728
 21
119.4259324145
 31
0.0
  0
LINE
  5
FE
330
1F
100
AcDbEntity
  8
0
  6
HIDDEN
 62
     7
370
     0
100
AcDbLine
 10
239.8577061481
 20
120.2667858485
 30
0.0
 11
239.2051172442
 21
123.0788069112
 31
0.0
  0
LINE
  5
FF
330
1F
100
AcDbEntity
  8
0
  6
HIDDEN
 62
     7
370
     0
100
AcDbLine
 10
244.0756809897
 20
124.2091213387
 30
0.0
 11
244.7282698936
 21
121.397100276
 31
0.0
  0
LINE
  5
100
330
1F
100
AcDbEntity
  8
0
  6
HIDDEN
 62
     7
370
     0
100
AcDbLine
 10
241.314104665
 20
125.0499747727
 30
0.0
 11
239.2051172442
 21
123.0788069112
 31
0.0
  0
LINE
  5
101
330
1F
100
AcDbEntity
  8
0
  6
HIDDEN
 62
     7
370
     0
100
AcDbLine
 10
241.314104665
 20
125.0499747727
 30
0.0
 11
244.0756809897
 21
124.2091213387
 31
0.0
  0
LINE
  5
102
330
1F
100
AcDbEntity
  8
0
  6
HIDDEN
 62
     7
370
     0
100
AcDbLine
 10
256.9838826544
 20
119.3918637034
 30
0.0
 11
259.6900750883
 21
120.3967822982
 31
0.0
  0
LINE
  5
103
330
1F
100
AcDbEntity
  8
0
  6
HIDDEN
 62
     7
370
     0
100
AcDbLine
 10
260.1728876121
 20
123.242872072
 30
0.0
 11
259.6900750883
 21
120.3967822982
 31
0.0
  0
LINE
  5
104
330
1F
100
AcDbEntity
  8
0
  6
HIDDEN
 62
     7
370
     0
100
AcDbLine
 10
254.7605027444
 20
121.2330351152
 30
0.0
 11
256.9838826544
 21
119.3918637034
 31
0.0
  0
LINE
  5
105
330
1F
100
AcDbEntity
  8
0
  6
HIDDEN
 62
     7
370
     0
100
AcDbLine
 10
254.7605027444
 20
121.2330351152
 30
0.0
 11
255.2433152683
 21
124.079124889
 31
0.0
  0
LINE
  5
106
330
1F
100
AcDbEntity
  8
0
  6
HIDDEN
 62
     7
370
     0
100
AcDbLine
 10
257.9495002515
 20
125.0840434838
 30
0.0
 11
260.1728876121
 21
123.242872072
 31
0.0
  0
LINE
  5
107
330
1F
100
AcDbEntity
  8
0
  6
HIDDEN
 62
     7
370
     0
100
AcDbLine
 10
257.9495002515
 20
125.0840434838
 30
0.0
 11
255.2433152683
 21
124.079124889
 31
0.0
  0
LINE
  5
108
330
1F
100
AcDbEntity
  8
0
  6
HIDDEN
 62
     7
370
     0
100
AcDbLine
 10
228.7065078504
 20
133.237953534
 30
0.0
 11
231.4666946418
 21
133.237953534
 31
0.0
  0
LINE
  5
109
330
1F
100
AcDbEntity
  8
0
  6
HIDDEN
 62
     7
370
     0
100
AcDbLine
 10
221.4666930027
 20
133.237953534
 30
0.0
 11
228.7065078504
 21
133.237953534
 31
0.0
  0
LINE
  5
10A
330
1F
100
AcDbEntity
  8
0
  6
HIDDEN
 62
     7
370
     0
100
AcDbLine
 10
228.0345623381
 20
131.7379532881
 30
0.0
 11
229.966691602
 21
131.7379532881
 31
0.0
  0
LINE
  5
10B
330
1F
100
AcDbEntity
  8
0
  6
HIDDEN
 62
     7
370
     0
100
AcDbLine
 10
222.9666923172
 20
131.7379532881
 30
0.0
 11
228.0345623381
 21
131.7379532881
 31
0.0
  0
LINE
  5
10C
330
1F
100
AcDbEntity
  8
0
  6
HIDDEN
 62
     7
370
     0
100
AcDbLine
 10
228.7065078504
 20
143.4379529707
 30
0.0
 11
231.4666946418
 21
143.4379529707
 31
0.0
  0
LINE
  5
10D
330
1F
100
AcDbEntity
  8
0
  6
HIDDEN
 62
     7
370
     0
100
AcDbLine
 10
221.4666930027
 20
143.4379529707
 30
0.0
 11
228.7065078504
 21
143.4379529707
 31
0.0
  0
LINE
  5
10E
330
1F
100
AcDbEntity
  8
0
  6
HIDDEN
 62
     7
370
     0
100
AcDbLine
 10
224.8781424947
 20
138.2379543536
 30
0.0
 11
227.7598482556
 21
138.2379543536
 31
0.0
  0
LINE
  5
10F
330
1F
100
AcDbEntity
  8
0
  6
HIDDEN
 62
     7
370
     0
100
AcDbLine
 10
227.7598482556
 20
138.2379543536
 30
0.0
 11
227.7598482556
 21
144.2379534744
 31
0.0
  0
LINE
  5
110
330
1F
100
AcDbEntity
  8
0
  6
HIDDEN
 62
     7
370
     0
100
AcDbLine
 10
229.3484014459
 20
138.2379543536
 30
0.0
 11
227.7598482556
 21
138.2379543536
 31
0.0
  0
LINE
  5
111
330
1F
100
AcDbEntity
  8
0
  6
HIDDEN
 62
     7
370
     0
100
AcDbLine
 10
224.8781424947
 20
138.2379543536
 30
0.0
 11
224.8781424947
 21
144.2379534744
 31
0.0
  0
LINE
  5
112
330
1F
100
AcDbEntity
  8
0
  6
HIDDEN
 62
     7
370
     0
100
AcDbLine
 10
224.8781424947
 20
138.2379543536
 30
0.0
 11
223.5849824734
 21
138.2379543536
 31
0.0
  0
LINE
  5
113
330
1F
100
AcDbEntity
  8
0
  6
HIDDEN
 62
     7
370
     0
100
AcDbLine
 10
228.0552451498
 20
138.2379543536
 30
0.0
 11
228.0552451498
 21
144.2379534744
 31
0.0
  0
LINE
  5
114
330
1F
100
AcDbEntity
  8
0
  6
HIDDEN
 62
     7
370
     0
100
AcDbLine
 10
229.3484014459
 20
138.2379543536
 30
0.0
 11
229.3484014459
 21
144.2379534744
 31
0.0
  0
LINE
  5
115
330
1F
100
AcDbEntity
  8
0
  6
HIDDEN
 62
     7
370
     0
100
AcDbLine
 10
225.1735356636
 20
138.2379543536
 30
0.0
 11
225.1735356636
 21
144.2379534744
 31
0.0
  0
LINE
  5
116
330
1F
100
AcDbEntity
  8
0
  6
HIDDEN
 62
     7
370
     0
100
AcDbLine
 10
223.5849824734
 20
138.2379543536
 30
0.0
 11
223.5849824734
 21
144.2379534744
 31
0.0
  0
CIRCLE
  5
117
330
1F
100
AcDbEntity
  8
0
  6
HIDDEN
 62
     7
370
     0
100
AcDbCircle
 10
241.9666932113
 20
122.2379535936
 30
0.0
 40
5.0
  0
CIRCLE
  5
118
330
1F
100
AcDbEntity
  8
0
  6
HIDDEN
 62
     7
370
     0
100
AcDbCircle
 10
241.9666932113
 20
122.2379535936
 30
0.0
 40
2.499999999999994
  0
CIRCLE
  5
119
330
1F
100
AcDbEntity
  8
0
  6
HIDDEN
 62
     7
370
     0
100
AcDbCircle
 10
241.9666932113
 20
122.2379535936
 30
0.0
 40
3.499999999999997
  0
LINE
  5
11A
330
1F
100
AcDbEntity
  8
0
  6
HIDDEN
 62
     7
370
     0
100
AcDbLine
 10
224.9666442163
 20
119.7715410996
 30
0.0
 11
227.852645237
 21
119.7056679554
 31
0.0
  0
LINE
  5
11B
330
1F
100
AcDbEntity
  8
0
  6
HIDDEN
 62
     7
370
     0
100
AcDbLine
 10
224.9666442163
 20
119.7715410996
 30
0.0
 11
223.5806946642
 21
122.3038268251
 31
0.0
  0
LINE
  5
11C
330
1F
100
AcDbEntity
  8
0
  6
HIDDEN
 62
     7
370
     0
100
AcDbLine
 10
227.852645237
 20
119.7056679554
 30
0.0
 11
229.3526929803
 21
122.1720803621
 31
0.0
  0
LINE
  5
11D
330
1F
100
AcDbEntity
  8
0
  6
HIDDEN
 62
     7
370
     0
100
AcDbLine
 10
225.0807424076
 20
124.7702392318
 30
0.0
 11
223.5806946642
 21
122.3038268251
 31
0.0
  0
LINE
  5
11E
330
1F
100
AcDbEntity
  8
0
  6
HIDDEN
 62
     7
370
     0
100
AcDbLine
 10
227.9667397029
 20
124.7043660876
 30
0.0
 11
229.3526929803
 21
122.1720803621
 31
0.0
  0
LINE
  5
11F
330
1F
100
AcDbEntity
  8
0
  6
HIDDEN
 62
     7
370
     0
100
AcDbLine
 10
225.0807424076
 20
124.7702392318
 30
0.0
 11
227.9667397029
 21
124.7043660876
 31
0.0
  0
CIRCLE
  5
120
330
1F
100
AcDbEntity
  8
0
  6
HIDDEN
 62
     7
370
     0
100
AcDbCircle
 10
257.4666932113
 20
122.2379535936
 30
0.0
 40
4.999999999999996
  0
CIRCLE
  5
121
330
1F
100
AcDbEntity
  8
0
  6
HIDDEN
 62
     7
370
     0
100
AcDbCircle
 10
257.4666932113
 20
122.2379535936
 30
0.0
 40
2.500000000000001
  0
CIRCLE
  5
122
330
1F
100
AcDbEntity
  8
0
  6
HIDDEN
 62
     7
370
     0
100
AcDbCircle
 10
257.4666932113
 20
122.2379535936
 30
0.0
 40
3.500000000000006
  0
LINE
  5
123
330
1F
100
AcDbEntity
  8
0
  6
HIDDEN
 62
     7
370
     0
100
AcDbLine
 10
199.7046646662
 20
161.1889146768
 30
0.0
 11
199.7046646662
 21
153.5879552864
 31
0.0
  0
LINE
  5
124
330
1F
100
AcDbEntity
  8
0
  6
HIDDEN
 62
     7
370
     0
100
AcDbLine
 10
163.3801170624
 20
85.5021469794
 30
0.0
 11
163.1101620383
 21
85.4782194399
 31
0.0
  0
SPLINE
  5
125
330
1F
100
AcDbEntity
  8
0
  6
HIDDEN
 62
     7
370
     0
100
AcDbSpline
210
0.0
220
0.0
230
1.0
 70
     8
 71
     3
 72
    13
 73
     9
 74
     0
 42
0.00000001
 43
0.00000001
 12
1.0
 22
0.0
 32
0.0
 13
1.0
 23
0.0
 33
0.0
 40
0.0
 40
0.0
 40
0.0
 40
0.0
 40
0.1247122110153692
 40
0.2490589593365458
 40
0.3740779090298711
 40
0.5009710337636518
 40
0.7521756045195616
 40
0.9999999999999999
 40
0.9999999999999999
 40
0.9999999999999999
 40
0.9999999999999999
 10
161.4859987981249
 20
159.1692597173326
 30
0.0
 10
161.4917845682464
 20
159.1684840977368
 30
0.0
 10
161.5033391535888
 20
159.1669351314583
 30
0.0
 10
161.6003529471923
 20
159.1547142047607
 30
0.0
 10
161.75564624586
 20
159.1357903881044
 30
0.0
 10
162.04583285951
 20
159.1018180798935
 30
0.0
 10
162.5333600179484
 20
159.0452896198084
 30
0.0
 10
163.0990824174962
 20
158.9974854771328
 30
0.0
 10
163.3800276554752
 20
158.9737453065984
 30
0.0
  0
SPLINE
  5
126
330
1F
100
AcDbEntity
  8
0
  6
HIDDEN
 62
     7
370
     0
100
AcDbSpline
210
0.0
220
0.0
230
1.0
 70
     8
 71
     3
 72
     9
 73
     5
 74
     0
 42
0.00000001
 43
0.00000001
 12
1.0
 22
0.0
 32
0.0
 13
1.0
 23
0.0
 33
0.0
 40
0.0
 40
0.0
 40
0.0
 40
0.0
 40
0.6612137735729747
 40
1.0
 40
1.0
 40
1.0
 40
1.0
 10
173.2198986224461
 20
153.6042757831685
 30
0.0
 10
173.5114003979397
 20
153.6480613354095
 30
0.0
 10
173.9522589933654
 20
153.714281299347
 30
0.0
 10
173.900845840636
 20
153.7064750805228
 30
0.0
 10
173.8834277726341
 20
153.7038304411046
 30
0.0
  0
SPLINE
  5
127
330
1F
100
AcDbEntity
  8
0
  6
HIDDEN
 62
     7
370
     0
100
AcDbSpline
210
0.0
220
0.0
230
1.0
 70
     8
 71
     3
 72
     9
 73
     5
 74
     0
 42
0.00000001
 43
0.00000001
 12
1.0
 22
0.0
 32
0.0
 13
1.0
 23
0.0
 33
0.0
 40
0.0
 40
0.0
 40
0.0
 40
0.0
 40
0.3224752073365101
 40
0.9999999999999999
 40
0.9999999999999999
 40
0.9999999999999999
 40
0.9999999999999999
 10
173.8834277726341
 20
90.77207674609349
 30
0.0
 10
173.9020694085194
 20
90.76930867786334
 30
0.0
 10
173.9598773747173
 20
90.76072486066693
 30
0.0
 10
173.5187639226196
 20
90.82683806736746
 30
0.0
 10
173.2198986224461
 20
90.87163140402959
 30
0.0
  0
SPLINE
  5
128
330
1F
100
AcDbEntity
  8
0
  6
HIDDEN
 62
     7
370
     0
100
AcDbSpline
210
0.0
220
0.0
230
1.0
 70
     8
 71
     3
 72
    15
 73
    11
 74
     0
 42
0.00000001
 43
0.00000001
 12
1.0
 22
0.0
 32
0.0
 13
1.0
 23
0.0
 33
0.0
 40
0.0
 40
0.0
 40
0.0
 40
0.0
 40
0.1285821426710073
 40
0.2571635607496992
 40
0.3853235406184768
 40
0.5113778076015207
 40
0.636926046588634
 40
0.7643185585868897
 40
0.893060358186539
 40
1.0
 40
1.0
 40
1.0
 40
1.0
 10
173.2198986224461
 20
90.87163140402959
 30
0.0
 10
172.8343764953024
 20
90.93343716918959
 30
0.0
 10
172.063334413528
 20
91.05704835121871
 30
0.0
 10
170.2847767501868
 20
91.24779781348528
 30
0.0
 10
168.2909654887534
 20
91.33544419440744
 30
0.0
 10
166.266927863594
 20
91.28854029105166
 30
0.0
 10
164.43881937474
 20
91.12828916254078
 30
0.0
 10
163.0073884199124
 20
90.92711157735944
 30
0.0
 10
162.1035031712783
 20
90.76456584933528
 30
0.0
 10
162.0409205342172
 20
90.75216618572694
 30
0.0
 10
162.0125238783289
 20
90.74653988109753
 30
0.0
  0
SPLINE
  5
129
330
1F
100
AcDbEntity
  8
0
  6
HIDDEN
 62
     7
370
     0
100
AcDbSpline
210
0.0
220
0.0
230
1.0
 70
     8
 71
     3
 72
    16
 73
    12
 74
     0
 42
0.00000001
 43
0.00000001
 12
1.0
 22
0.0
 32
0.0
 13
1.0
 23
0.0
 33
0.0
 40
0.0
 40
0.0
 40
0.0
 40
0.0
 40
0.0205567972010308
 40
0.1461296555129789
 40
0.2720439735959893
 40
0.3999540038647748
 40
0.5285040859845025
 40
0.6552455845570215
 40
0.7805595113940985
 40
0.907037898122843
 40
1.0
 40
1.0
 40
1.0
 40
1.0
 10
162.0125238783289
 20
153.7293673061006
 30
0.0
 10
161.9978565966803
 20
153.7321130022167
 30
0.0
 10
161.8935930388091
 20
153.7516310051268
 30
0.0
 10
162.3443729295732
 20
153.665264890584
 30
0.0
 10
163.3576112362861
 20
153.4941277873286
 30
0.0
 10
164.9519403940435
 20
153.2905866541938
 30
0.0
 10
166.8784397903322
 20
153.1581959232513
 30
0.0
 10
168.9249316400623
 20
153.1544008362003
 30
0.0
 10
170.8380913320526
 20
153.2771754988999
 30
0.0
 10
172.3227995312104
 20
153.4589927951818
 30
0.0
 10
172.9529475162328
 20
153.5610437091023
 30
0.0
 10
173.2198986224461
 20
153.6042757831685
 30
0.0
  0
LINE
  5
12A
330
1F
100
AcDbEntity
  8
0
  6
HIDDEN
 62
     7
370
     0
100
AcDbLine
 10
152.9633169062
 20
95.7379539065
 30
0.0
 11
152.9633169062
 21
148.7379532807
 31
0.0
  0
LINE
  5
12B
330
1F
100
AcDbEntity
  8
0
  6
HIDDEN
 62
     7
370
     0
100
AcDbLine
 10
192.2507704235
 20
95.7379539065
 30
0.0
 11
192.2507704235
 21
148.7379532807
 31
0.0
  0
LINE
  5
12C
330
1F
100
AcDbEntity
  8
0
  6
HIDDEN
 62
     7
370
     0
100
AcDbLine
 10
195.4166934825
 20
97.3629534744
 30
0.0
 11
195.4166934825
 21
147.1129537128
 31
0.0
  0
SPLINE
  5
12D
330
1F
100
AcDbEntity
  8
0
  6
HIDDEN
 62
     7
370
     0
100
AcDbSpline
210
0.0
220
0.0
230
1.0
 70
     8
 71
     3
 72
    20
 73
    16
 74
     0
 42
0.00000001
 43
0.00000001
 12
1.0
 22
0.0
 32
0.0
 13
1.0
 23
0.0
 33
0.0
 40
0.0
 40
0.0
 40
0.0
 40
0.0
 40
0.2499999999999978
 40
0.2499999999999978
 40
0.3749999999999982
 40
0.3749999999999982
 40
0.4999999999999986
 40
0.4999999999999986
 40
0.6249999999999989
 40
0.6249999999999989
 40
0.7499999999999992
 40
0.7499999999999992
 40
0.8749999999999997
 40
0.8749999999999997
 40
1.0
 40
1.0
 40
1.0
 40
1.0
 10
143.16669321131
 20
147.4664672240133
 30
0.0
 10
143.16669321131
 20
147.3872642374811
 30
0.0
 10
143.1197107160972
 20
147.3061680190781
 30
0.0
 10
142.9818891253197
 20
147.1859713273273
 30
0.0
 10
142.9256068414097
 20
147.1470446233251
 30
0.0
 10
142.7925219899425
 20
147.0718558909008
 30
0.0
 10
142.7146820477094
 20
147.0352136855588
 30
0.0
 10
142.5420496915951
 20
146.967623152727
 30
0.0
 10
142.447656694504
 20
146.9366649709513
 30
0.0
 10
142.2422193881889
 20
146.8811405495817
 30
0.0
 10
142.1298731482017
 20
146.8564320357484
 30
0.0
 10
141.897632284302
 20
146.8166358086402
 30
0.0
 10
141.7769216418793
 20
146.8012159712432
 30
0.0
 10
141.5258507826103
 20
146.7801359964035
 30
0.0
 10
141.3963287861945
 20
146.7746587513826
 30
0.0
 10
141.26669321131
 20
146.7746587513826
 30
0.0
  0
LINE
  5
12E
330
1F
100
AcDbEntity
  8
0
  6
HIDDEN
 62
     7
370
     0
100
AcDbLine
 10
141.2666914053
 20
146.7746582382
 30
0.0
 11
134.7166922874
 21
146.7746582382
 31
0.0
  0
LINE
  5
12F
330
1F
100
AcDbEntity
  8
0
  6
HIDDEN
 62
     7
370
     0
100
AcDbLine
 10
134.7166922874
 20
97.701248949
 30
0.0
 11
146.2666940875
 21
97.701248949
 31
0.0
  0
SPLINE
  5
130
330
1F
100
AcDbEntity
  8
0
  6
HIDDEN
 62
     7
370
     0
100
AcDbSpline
210
0.0
220
0.0
230
1.0
 70
     8
 71
     3
 72
    18
 73
    14
 74
     0
 42
0.00000001
 43
0.00000001
 12
1.0
 22
0.0
 32
0.0
 13
1.0
 23
0.0
 33
0.0
 40
0.0
 40
0.0
 40
0.0
 40
0.0
 40
0.1250000000000023
 40
0.1250000000000023
 40
0.2500000000000046
 40
0.2500000000000046
 40
0.5000000000000036
 40
0.5000000000000036
 40
0.7500000000000024
 40
0.7500000000000024
 40
0.8750000000000012
 40
0.8750000000000012
 40
1.0
 40
1.0
 40
1.0
 40
1.0
 10
146.26669321131
 20
97.70124843581554
 30
0.0
 10
146.3961605242672
 20
97.70124843581554
 30
0.0
 10
146.5231712731638
 20
97.6958954372229
 30
0.0
 10
146.7725345943611
 20
97.67515746453412
 30
0.0
 10
146.8961582489895
 20
97.65948556027983
 30
0.0
 10
147.2451905859236
 20
97.59979083187773
 30
0.0
 10
147.4557023507303
 20
97.54202565219674
 30
0.0
 10
147.7996190284299
 20
97.40750381091925
 30
0.0
 10
147.9359694299477
 20
97.32983469741386
 30
0.0
 10
148.0730074865102
 20
97.21054356332651
 30
0.0
 10
148.1082265052231
 20
97.16962455419146
 30
0.0
 10
148.1548500821617
 20
97.08896856090144
 30
0.0
 10
148.16669321131
 20
97.04900004070858
 30
0.0
 10
148.16669321131
 20
97.00943996318476
 30
0.0
  0
LINE
  5
131
330
1F
100
AcDbEntity
  8
0
  6
HIDDEN
 62
     7
370
     0
100
AcDbLine
 10
134.7166922874
 20
97.701248949
 30
0.0
 11
134.7166922874
 21
146.7746582382
 31
0.0
  0
LINE
  5
132
330
1F
100
AcDbEntity
  8
0
  6
HIDDEN
 62
     7
370
     0
100
AcDbLine
 10
257.7312652953
 20
143.8320607446
 30
0.0
 11
256.788833905
 21
143.8400663935
 31
0.0
  0
LINE
  5
133
330
1F
100
AcDbEntity
  8
0
  6
HIDDEN
 62
     7
370
     0
100
AcDbLine
 10
242.2312674112
 20
143.8320607446
 30
0.0
 11
241.2888322956
 21
143.8400663935
 31
0.0
  0
LINE
  5
134
330
1F
100
AcDbEntity
  8
0
  6
HIDDEN
 62
     7
370
     0
100
AcDbLine
 10
226.7312695272
 20
143.8320607446
 30
0.0
 11
225.7888306863
 21
143.8400663935
 31
0.0
  0
SPLINE
  5
135
330
1F
100
AcDbEntity
  8
0
  6
HIDDEN
 62
     7
370
     0
100
AcDbSpline
210
0.0
220
0.0
230
1.0
 70
     8
 71
     3
 72
    11
 73
     7
 74
     0
 42
0.00000001
 43
0.00000001
 12
1.0
 22
0.0
 32
0.0
 13
1.0
 23
0.0
 33
0.0
 40
0.0
 40
0.0
 40
0.0
 40
0.0
 40
0.2740504252057528
 40
0.5479747689283699
 40
0.8251337135891815
 40
1.0
 40
1.0
 40
1.0
 40
1.0
 10
226.4666919596124
 20
117.9879533626311
 30
0.0
 10
226.9405574044843
 20
118.0336524370621
 30
0.0
 10
227.8880702845019
 20
118.1250295613003
 30
0.0
 10
229.1356072690874
 20
118.8482159249765
 30
0.0
 10
230.0331214016107
 20
119.758074464552
 30
0.0
 10
230.2956520538749
 20
120.4937086592848
 30
0.0
 10
230.3972122259069
 20
120.7782892776825
 30
0.0
  0
SPLINE
  5
136
330
1F
100
AcDbEntity
  8
0
  6
HIDDEN
 62
     7
370
     0
100
AcDbSpline
210
0.0
220
0.0
230
1.0
 70
     8
 71
     3
 72
    15
 73
    11
 74
     0
 42
0.00000001
 43
0.00000001
 12
1.0
 22
0.0
 32
0.0
 13
1.0
 23
0.0
 33
0.0
 40
0.0
 40
0.0
 40
0.0
 40
0.0
 40
0.0368499777027405
 40
0.1869522711617781
 40
0.3394904484336171
 40
0.4922879017822135
 40
0.6426391551089738
 40
0.7916845022580647
 40
0.9425654681711485
 40
1.0
 40
1.0
 40
1.0
 40
1.0
 10
230.408172029965
 20
123.7083572229542
 30
0.0
 10
230.3802057408472
 20
123.8206922931984
 30
0.0
 10
230.2383233953891
 20
124.3906057048883
 30
0.0
 10
229.5454560425542
 20
125.2521302087775
 30
0.0
 10
228.4055108019917
 20
126.1168174362103
 30
0.0
 10
227.0070490397651
 20
126.5340857824104
 30
0.0
 10
225.5598160467587
 20
126.474682016147
 30
0.0
 10
224.246318202482
 20
125.9341633848577
 30
0.0
 10
223.3230099152129
 20
125.2335261292629
 30
0.0
 10
223.0177285218403
 20
124.655158196118
 30
0.0
 10
222.9335595853258
 20
124.4956967454575
 30
0.0
  0
SPLINE
  5
137
330
1F
100
AcDbEntity
  8
0
  6
HIDDEN
 62
     7
370
     0
100
AcDbSpline
210
0.0
220
0.0
230
1.0
 70
     8
 71
     3
 72
    11
 73
     7
 74
     0
 42
0.00000001
 43
0.00000001
 12
1.0
 22
0.0
 32
0.0
 13
1.0
 23
0.0
 33
0.0
 40
0.0
 40
0.0
 40
0.0
 40
0.0
 40
0.2380771032910817
 40
0.5147548603449862
 40
0.7940378329007456
 40
1.0
 40
1.0
 40
1.0
 40
1.0
 10
222.5063693709303
 20
120.767673713731
 30
0.0
 10
222.6722751054162
 20
120.3907772520042
 30
0.0
 10
223.0309857164122
 20
119.5758761849181
 30
0.0
 10
224.0671939271498
 20
118.6445924991773
 30
0.0
 10
225.2749521027045
 20
118.0756163826002
 30
0.0
 10
226.1115838449429
 20
118.0140747091372
 30
0.0
 10
226.4666919596124
 20
117.9879533626311
 30
0.0
  0
SPLINE
  5
138
330
1F
100
AcDbEntity
  8
0
  6
HIDDEN
 62
     7
370
     0
100
AcDbSpline
210
0.0
220
0.0
230
1.0
 70
     8
 71
     3
 72
     9
 73
     5
 74
     0
 42
0.00000001
 43
0.00000001
 12
1.0
 22
0.0
 32
0.0
 13
1.0
 23
0.0
 33
0.0
 40
0.0
 40
0.0
 40
0.0
 40
0.0
 40
0.7143083587349401
 40
1.0
 40
1.0
 40
1.0
 40
1.0
 10
257.4666951782633
 20
117.9879533626311
 30
0.0
 10
257.9492767084264
 20
118.0136552500047
 30
0.0
 10
258.6248694328595
 20
118.049636751634
 30
0.0
 10
259.1908581041856
 20
118.3938279213131
 30
0.0
 10
259.3525563366342
 20
118.4921604614876
 30
0.0
  0
SPLINE
  5
139
330
1F
100
AcDbEntity
  8
0
  6
HIDDEN
 62
     7
370
     0
100
AcDbSpline
210
0.0
220
0.0
230
1.0
 70
     8
 71
     3
 72
    10
 73
     6
 74
     0
 42
0.00000001
 43
0.00000001
 12
1.0
 22
0.0
 32
0.0
 13
1.0
 23
0.0
 33
0.0
 40
0.0
 40
0.0
 40
0.0
 40
0.0
 40
0.1813899161811876
 40
0.6525409485971948
 40
1.0
 40
1.0
 40
1.0
 40
1.0
 10
254.7015761024881
 20
119.0855482161217
 30
0.0
 10
254.8304656950082
 20
118.9535167037012
 30
0.0
 10
255.2941394136915
 20
118.4785400888299
 30
0.0
 10
256.2847494194943
 20
118.0850679507831
 30
0.0
 10
257.1145052953938
 20
118.0168910487917
 30
0.0
 10
257.4666951782633
 20
117.9879533626311
 30
0.0
  0
SPLINE
  5
13A
330
1F
100
AcDbEntity
  8
0
  6
HIDDEN
 62
     7
370
     0
100
AcDbSpline
210
0.0
220
0.0
230
1.0
 70
     8
 71
     3
 72
     9
 73
     5
 74
     0
 42
0.00000001
 43
0.00000001
 12
1.0
 22
0.0
 32
0.0
 13
1.0
 23
0.0
 33
0.0
 40
0.0
 40
0.0
 40
0.0
 40
0.0
 40
0.6862237831007306
 40
1.0
 40
1.0
 40
1.0
 40
1.0
 10
241.9666935689378
 20
117.9879533626311
 30
0.0
 10
242.4485438085387
 20
118.01571543533
 30
0.0
 10
243.150720345504
 20
118.0561717316326
 30
0.0
 10
243.7388046495484
 20
118.4174567746949
 30
0.0
 10
243.9233315176893
 20
118.5308194287293
 30
0.0
  0
SPLINE
  5
13B
330
1F
100
AcDbEntity
  8
0
  6
HIDDEN
 62
     7
370
     0
100
AcDbSpline
210
0.0
220
0.0
230
1.0
 70
     8
 71
     3
 72
    11
 73
     7
 74
     0
 42
0.00000001
 43
0.00000001
 12
1.0
 22
0.0
 32
0.0
 13
1.0
 23
0.0
 33
0.0
 40
0.0
 40
0.0
 40
0.0
 40
0.0
 40
0.2380770570412427
 40
0.5147542378612591
 40
0.7940371561623575
 40
1.0
 40
1.0
 40
1.0
 40
1.0
 10
238.0063709802557
 20
120.767673713731
 30
0.0
 10
238.1722768525262
 20
120.3907774005078
 30
0.0
 10
238.5309873973332
 20
119.5758774816453
 30
0.0
 10
239.567191914882
 20
118.6445913606989
 30
0.0
 10
240.7749512589204
 20
118.0756159489336
 30
0.0
 10
241.6115842239868
 20
118.0140746166446
 30
0.0
 10
241.9666935689378
 20
117.9879533626311
 30
0.0
  0
LINE
  5
13C
330
1F
100
AcDbEntity
  8
0
  6
HIDDEN
 62
     7
370
     0
100
AcDbLine
 10
134.7166922874
 20
94.8679533355
 30
0.0
 11
134.7166922874
 21
90.0536396109
 31
0.0
  0
LINE
  5
13D
330
1F
100
AcDbEntity
  8
0
  6
HIDDEN
 62
     7
370
     0
100
AcDbLine
 10
148.1666927226
 20
94.8679533355
 30
0.0
 11
148.1666927226
 21
88.3922309183
 31
0.0
  0
LINE
  5
13E
330
1F
100
AcDbEntity
  8
0
  6
HIDDEN
 62
     7
370
     0
100
AcDbLine
 10
143.1666937656
 20
149.6079538517
 30
0.0
 11
143.1666937656
 21
155.9825607144
 31
0.0
  0
LINE
  5
13F
330
1F
100
AcDbEntity
  8
0
  6
HIDDEN
 62
     7
370
     0
100
AcDbLine
 10
134.7166922874
 20
149.6079538517
 30
0.0
 11
134.7166922874
 21
154.4862382613
 31
0.0
  0
LINE
  5
140
330
1F
100
AcDbEntity
  8
0
  6
HIDDEN
 62
     7
370
     0
100
AcDbLine
 10
207.2666929103
 20
109.2379533254
 30
0.0
 11
207.2666929103
 21
135.2379538618
 31
0.0
  0
LINE
  5
141
330
1F
100
AcDbEntity
  8
0
  6
HIDDEN
 62
     7
370
     0
100
AcDbLine
 10
211.266693566
 20
109.2379533254
 30
0.0
 11
211.266693566
 21
135.2379538618
 31
0.0
  0
LINE
  5
142
330
1F
100
AcDbEntity
  8
0
  6
HIDDEN
 62
     7
370
     0
100
AcDbLine
 10
196.1666931398
 20
110.9879531466
 30
0.0
 11
196.1666931398
 21
133.4879540406
 31
0.0
  0
ELLIPSE
  5
143
330
1F
100
AcDbEntity
  8
0
  6
HIDDEN
 62
     7
370
     0
100
AcDbEllipse
 10
126.782020011
 20
122.2379535936
 30
0.0
 11
31.0810857081166
 21
1.421085471520200E-14
 31
0.0
210
0.0
220
0.0
230
1.0
 40
0.8164965809
 41
1.312649268214811
 42
1.367189972061496
  0
ELLIPSE
  5
144
330
1F
100
AcDbEntity
  8
0
  6
HIDDEN
 62
     7
370
     0
100
AcDbEllipse
 10
126.782020011
 20
122.2379535936
 30
0.0
 11
31.08108570811663
 21
1.421085471520200E-14
 31
0.0
210
0.0
220
0.0
230
1.0
 40
0.8164965809
 41
4.915995335118101
 42
4.970536038964786
  0
LINE
  5
145
330
1F
100
AcDbEntity
  8
0
  6
HIDDEN
 62
     7
370
     0
100
AcDbLine
 10
211.9166933931
 20
78.3379517995
 30
0.0
 11
197.916692961
 21
78.3379517995
 31
0.0
  0
LINE
  5
146
330
1F
100
AcDbEntity
  8
0
  6
HIDDEN
 62
     7
370
     0
100
AcDbLine
 10
187.9166931845
 20
72.247955253
 30
0.0
 11
187.9166931845
 21
78.3379517995
 31
0.0
  0
LINE
  5
147
330
1F
100
AcDbEntity
  8
0
  6
HIDDEN
 62
     7
370
     0
100
AcDbLine
 10
197.916692961
 20
78.3379517995
 30
0.0
 11
187.9166931845
 21
78.3379517995
 31
0.0
  0
LINE
  5
148
330
1F
100
AcDbEntity
  8
0
  6
HIDDEN
 62
     7
370
     0
100
AcDbLine
 10
220.1424491591
 20
122.2379535936
 30
0.0
 11
220.1424491591
 21
111.9379533954
 31
0.0
  0
LINE
  5
149
330
1F
100
AcDbEntity
  8
0
  6
HIDDEN
 62
     7
370
     0
100
AcDbLine
 10
220.1424491591
 20
132.5379537918
 30
0.0
 11
220.1424491591
 21
122.2379535936
 31
0.0
  0
LINE
  5
14A
330
1F
100
AcDbEntity
  8
0
  6
HIDDEN
 62
     7
370
     0
100
AcDbLine
 10
220.9666919894
 20
122.2379535936
 30
0.0
 11
220.9666919894
 21
112.2379538171
 31
0.0
  0
LINE
  5
14B
330
1F
100
AcDbEntity
  8
0
  6
HIDDEN
 62
     7
370
     0
100
AcDbLine
 10
220.9666919894
 20
132.2379533701
 30
0.0
 11
220.9666919894
 21
122.2379535936
 31
0.0
  0
LINE
  5
14C
330
1F
100
AcDbEntity
  8
0
  6
HIDDEN
 62
     7
370
     0
100
AcDbLine
 10
216.9666950591
 20
122.2379535936
 30
0.0
 11
216.9666950591
 21
112.3379536472
 31
0.0
  0
LINE
  5
14D
330
1F
100
AcDbEntity
  8
0
  6
HIDDEN
 62
     7
370
     0
100
AcDbLine
 10
216.9666950591
 20
132.13795354
 30
0.0
 11
216.9666950591
 21
122.2379535936
 31
0.0
  0
LINE
  5
14E
330
1F
100
AcDbEntity
  8
0
  6
HIDDEN
 62
     7
370
     0
100
AcDbLine
 10
143.1666937656
 20
149.6079538517
 30
0.0
 11
143.1666937656
 21
147.4664669983
 31
0.0
  0
LINE
  5
14F
330
1F
100
AcDbEntity
  8
0
  6
HIDDEN
 62
     7
370
     0
100
AcDbLine
 10
134.7166922874
 20
149.6079538517
 30
0.0
 11
134.7166922874
 21
146.7746582382
 31
0.0
  0
LINE
  5
150
330
1F
100
AcDbEntity
  8
0
  6
HIDDEN
 62
     7
370
     0
100
AcDbLine
 10
148.1666927226
 20
94.8679533355
 30
0.0
 11
148.1666927226
 21
97.0094401889
 31
0.0
  0
LINE
  5
151
330
1F
100
AcDbEntity
  8
0
  6
HIDDEN
 62
     7
370
     0
100
AcDbLine
 10
134.7166922874
 20
94.8679533355
 30
0.0
 11
134.7166922874
 21
97.701248949
 31
0.0
  0
LINE
  5
152
330
1F
100
AcDbEntity
  8
0
  6
HIDDEN
 62
     7
370
     0
100
AcDbLine
 10
197.916692961
 20
166.1379553877
 30
0.0
 11
187.9166931845
 21
166.1379553877
 31
0.0
  0
SPLINE
  5
153
330
1F
100
AcDbEntity
  8
0
  6
HIDDEN
 62
     7
370
     0
100
AcDbSpline
210
0.0
220
0.0
230
1.0
 70
     8
 71
     3
 72
    12
 73
     8
 74
     0
 42
0.00000001
 43
0.00000001
 12
1.0
 22
0.0
 32
0.0
 13
1.0
 23
0.0
 33
0.0
 40
0.0
 40
0.0
 40
0.0
 40
0.0
 40
0.2013163437810062
 40
0.4021643630579456
 40
0.6148169480749447
 40
0.836959853876537
 40
1.0
 40
1.0
 40
1.0
 40
1.0
 10
257.4666951782633
 20
131.2898874782197
 30
0.0
 10
257.0136615945566
 20
131.3104286793369
 30
0.0
 10
256.1086483243301
 20
131.3514632963411
 30
0.0
 10
254.8853840015075
 20
131.6336703941698
 30
0.0
 10
253.9111452852992
 20
131.9518691417097
 30
0.0
 10
253.2972345812854
 20
132.2033292733987
 30
0.0
 10
253.2693882247118
 20
132.2155749961761
 30
0.0
 10
253.2576014287401
 20
132.2207583613865
 30
0.0
  0
LINE
  5
154
330
1F
100
AcDbEntity
  8
0
  6
HIDDEN
 62
     7
370
     0
100
AcDbLine
 10
257.0400674827
 20
131.3211268313
 30
0.0
 11
257.8863193281
 21
131.3107593484
 31
0.0
  0
SPLINE
  5
155
330
1F
100
AcDbEntity
  8
0
  6
HIDDEN
 62
     7
370
     0
100
AcDbSpline
210
0.0
220
0.0
230
1.0
 70
     8
 71
     3
 72
    13
 73
     9
 74
     0
 42
0.00000001
 43
0.00000001
 12
1.0
 22
0.0
 32
0.0
 13
1.0
 23
0.0
 33
0.0
 40
0.0
 40
0.0
 40
0.0
 40
0.0
 40
0.1228993897052957
 40
0.3188301264936736
 40
0.5237703425868904
 40
0.7433050952120581
 40
0.9617343608737731
 40
1.0
 40
1.0
 40
1.0
 40
1.0
 10
261.6636221296716
 20
132.2155355043881
 30
0.0
 10
261.6687089128732
 20
132.2176084008009
 30
0.0
 10
261.681905233339
 20
132.2229859850761
 30
0.0
 10
261.226208568155
 20
132.0333678581785
 30
0.0
 10
260.3902394852324
 20
131.7340082146811
 30
0.0
 10
259.1862021254182
 20
131.4196383276325
 30
0.0
 10
258.1278932311362
 20
131.2957538032953
 30
0.0
 10
257.5524733157268
 20
131.2906485246816
 30
0.0
 10
257.4666951782633
 20
131.2898874782197
 30
0.0
  0
SPLINE
  5
156
330
1F
100
AcDbEntity
  8
0
  6
HIDDEN
 62
     7
370
     0
100
AcDbSpline
210
0.0
220
0.0
230
1.0
 70
     8
 71
     3
 72
    12
 73
     8
 74
     0
 42
0.00000001
 43
0.00000001
 12
1.0
 22
0.0
 32
0.0
 13
1.0
 23
0.0
 33
0.0
 40
0.0
 40
0.0
 40
0.0
 40
0.0
 40
0.2013163223527132
 40
0.4021648046243028
 40
0.6148169890741758
 40
0.836959871230677
 40
1.0
 40
1.0
 40
1.0
 40
1.0
 10
241.9666935689378
 20
131.2898874782197
 30
0.0
 10
241.5136601584958
 20
131.3104287750709
 30
0.0
 10
240.6086461443838
 20
131.3514636327432
 30
0.0
 10
239.3853791607921
 20
131.6336695839564
 30
0.0
 10
238.4111440775183
 20
131.9518695786813
 30
0.0
 10
237.7972328319136
 20
132.2033292240929
 30
0.0
 10
237.7693865737369
 20
132.2155749815126
 30
0.0
 10
237.7575998194147
 20
132.2207583613865
 30
0.0
  0
LINE
  5
157
330
1F
100
AcDbEntity
  8
0
  6
HIDDEN
 62
     7
370
     0
100
AcDbLine
 10
241.5400695987
 20
131.3211268313
 30
0.0
 11
242.386321444
 21
131.3107593484
 31
0.0
  0
SPLINE
  5
158
330
1F
100
AcDbEntity
  8
0
  6
HIDDEN
 62
     7
370
     0
100
AcDbSpline
210
0.0
220
0.0
230
1.0
 70
     8
 71
     3
 72
    13
 73
     9
 74
     0
 42
0.00000001
 43
0.00000001
 12
1.0
 22
0.0
 32
0.0
 13
1.0
 23
0.0
 33
0.0
 40
0.0
 40
0.0
 40
0.0
 40
0.0
 40
0.1228993106752255
 40
0.3188303571833559
 40
0.523770503870107
 40
0.7433051821461231
 40
0.9617343738330781
 40
1.0
 40
1.0
 40
1.0
 40
1.0
 10
246.1636205203462
 20
132.2155355043881
 30
0.0
 10
246.1687106467188
 20
132.2176083715717
 30
0.0
 10
246.1819156582081
 20
132.2229858873682
 30
0.0
 10
245.7262036422389
 20
132.0333681538591
 30
0.0
 10
244.8902390062824
 20
131.734008180913
 30
0.0
 10
243.6862001924052
 20
131.4196383373021
 30
0.0
 10
242.6278916326446
 20
131.2957538029717
 30
0.0
 10
242.0524717078069
 20
131.2906485246396
 30
0.0
 10
241.9666935689378
 20
131.2898874782197
 30
0.0
  0
SPLINE
  5
159
330
1F
100
AcDbEntity
  8
0
  6
HIDDEN
 62
     7
370
     0
100
AcDbSpline
210
0.0
220
0.0
230
1.0
 70
     8
 71
     3
 72
    12
 73
     8
 74
     0
 42
0.00000001
 43
0.00000001
 12
1.0
 22
0.0
 32
0.0
 13
1.0
 23
0.0
 33
0.0
 40
0.0
 40
0.0
 40
0.0
 40
0.0
 40
0.2013158567413166
 40
0.4021644188559228
 40
0.6148170657734654
 40
0.8369598064175624
 40
1.0
 40
1.0
 40
1.0
 40
1.0
 10
226.4666919596124
 20
131.2898874782197
 30
0.0
 10
226.0136597530088
 20
131.310428829401
 30
0.0
 10
225.1086469187447
 20
131.3514638511527
 30
0.0
 10
223.8853815409412
 20
131.6336699588862
 30
0.0
 10
222.9111413497701
 20
131.9518690099321
 30
0.0
 10
222.2972357539585
 20
132.2033293471148
 30
0.0
 10
222.2693889343691
 20
132.2155750159261
 30
0.0
 10
222.2576019353796
 20
132.2207583613865
 30
0.0
  0
LINE
  5
15A
330
1F
100
AcDbEntity
  8
0
  6
HIDDEN
 62
     7
370
     0
100
AcDbLine
 10
226.0400717146
 20
131.3211268313
 30
0.0
 11
226.8863198347
 21
131.3107593484
 31
0.0
  0
SPLINE
  5
15B
330
1F
100
AcDbEntity
  8
0
  6
HIDDEN
 62
     7
370
     0
100
AcDbSpline
210
0.0
220
0.0
230
1.0
 70
     8
 71
     3
 72
    13
 73
     9
 74
     0
 42
0.00000001
 43
0.00000001
 12
1.0
 22
0.0
 32
0.0
 13
1.0
 23
0.0
 33
0.0
 40
0.0
 40
0.0
 40
0.0
 40
0.0
 40
0.1228993644393816
 40
0.3188302489847432
 40
0.5237704229459208
 40
0.7433051304386741
 40
0.9617338151712468
 40
1.0
 40
1.0
 40
1.0
 40
1.0
 10
230.6636226363111
 20
132.2155355043881
 30
0.0
 10
230.6687095929707
 20
132.217608387415
 30
0.0
 10
230.6819063712109
 20
132.2229859401356
 30
0.0
 10
230.2262042468282
 20
132.0333680150609
 30
0.0
 10
229.3902366809286
 20
131.7340081636797
 30
0.0
 10
228.186199737977
 20
131.4196387308113
 30
0.0
 10
227.1278913251442
 20
131.2957535988695
 30
0.0
 10
226.5524713421903
 20
131.2906485076969
 30
0.0
 10
226.4666919596124
 20
131.2898874782197
 30
0.0
  0
LINE
  5
15C
330
1F
100
AcDbEntity
  8
0
  6
HIDDEN
 62
     7
370
     0
100
AcDbLine
 10
257.4666951783
 20
126.4879538246
 30
0.0
 11
256.9952820427
 21
126.4121218153
 31
0.0
  0
SPLINE
  5
15D
330
1F
100
AcDbEntity
  8
0
  6
HIDDEN
 62
     7
370
     0
100
AcDbSpline
210
0.0
220
0.0
230
1.0
 70
     8
 71
     3
 72
     9
 73
     5
 74
     0
 42
0.00000001
 43
0.00000001
 12
1.0
 22
0.0
 32
0.0
 13
1.0
 23
0.0
 33
0.0
 40
0.0
 40
0.0
 40
0.0
 40
0.0
 40
0.3399431313857968
 40
1.0
 40
1.0
 40
1.0
 40
1.0
 10
257.8521956689287
 20
126.4496736727827
 30
0.0
 10
257.8096746920503
 20
126.4613366280327
 30
0.0
 10
257.6845920739514
 20
126.4956451760611
 30
0.0
 10
257.5533333804646
 20
126.4910119905122
 30
0.0
 10
257.4666951782633
 20
126.4879538245671
 30
0.0
  0
LINE
  5
15E
330
1F
100
AcDbEntity
  8
0
  6
HIDDEN
 62
     7
370
     0
100
AcDbLine
 10
241.9666935689
 20
126.4879538246
 30
0.0
 11
241.4952804334
 21
126.4121218153
 31
0.0
  0
SPLINE
  5
15F
330
1F
100
AcDbEntity
  8
0
  6
HIDDEN
 62
     7
370
     0
100
AcDbSpline
210
0.0
220
0.0
230
1.0
 70
     8
 71
     3
 72
     9
 73
     5
 74
     0
 42
0.00000001
 43
0.00000001
 12
1.0
 22
0.0
 32
0.0
 13
1.0
 23
0.0
 33
0.0
 40
0.0
 40
0.0
 40
0.0
 40
0.0
 40
0.7099653136354417
 40
0.9999999999999999
 40
0.9999999999999999
 40
0.9999999999999999
 40
0.9999999999999999
 10
241.4039065129686
 20
118.058789291995
 30
0.0
 10
241.7929771793071
 20
118.0064843240899
 30
0.0
 10
242.3409908059815
 20
117.9328117560072
 30
0.0
 10
242.8495004855001
 20
118.110039011648
 30
0.0
 10
242.9969859309126
 20
118.161441063153
 30
0.0
  0
SPLINE
  5
160
330
1F
100
AcDbEntity
  8
0
  6
HIDDEN
 62
     7
370
     0
100
AcDbSpline
210
0.0
220
0.0
230
1.0
 70
     8
 71
     3
 72
     9
 73
     5
 74
     0
 42
0.00000001
 43
0.00000001
 12
1.0
 22
0.0
 32
0.0
 13
1.0
 23
0.0
 33
0.0
 40
0.0
 40
0.0
 40
0.0
 40
0.0
 40
0.3399492342488804
 40
1.0
 40
1.0
 40
1.0
 40
1.0
 10
242.3521977848936
 20
126.4496736727827
 30
0.0
 10
242.3096755636043
 20
126.4613366487788
 30
0.0
 10
242.1845915304449
 20
126.4956446419175
 30
0.0
 10
242.0533317123703
 20
126.4910117610989
 30
0.0
 10
241.9666935689378
 20
126.4879538245671
 30
0.0
  0
LINE
  5
161
330
1F
100
AcDbEntity
  8
0
  6
HIDDEN
 62
     7
370
     0
100
AcDbLine
 10
211.9166933931
 20
166.1379553877
 30
0.0
 11
197.916692961
 21
166.1379553877
 31
0.0
  0
SPLINE
  5
162
330
1F
100
AcDbEntity
  8
0
  6
HIDDEN
 62
     7
370
     0
100
AcDbSpline
210
0.0
220
0.0
230
1.0
 70
     8
 71
     3
 72
    30
 73
    26
 74
     0
 42
0.00000001
 43
0.00000001
 12
1.0
 22
0.0
 32
0.0
 13
1.0
 23
0.0
 33
0.0
 40
0.0
 40
0.0
 40
0.0
 40
0.0
 40
0.0531143696206517
 40
0.1124968992317297
 40
0.1778960810039124
 40
0.212921130027286
 40
0.2494753180853425
 40
0.2912423429874979
 40
0.3260856825780566
 40
0.3540016341031921
 40
0.3749874803045857
 40
0.4414470409909171
 40
0.5001663375723658
 40
0.5546826222472117
 40
0.6144284421925437
 40
0.679455707993576
 40
0.7140136704485129
 40
0.749911629931879
 40
0.7913773550189606
 40
0.8260452421999083
 40
0.8539116611848684
 40
0.8749736110439715
 40
0.941161978672302
 40
0.9999141552579491
 40
1.0
 40
1.0
 40
1.0
 40
1.0
 10
173.9661832339693
 20
85.13804083095715
 30
0.0
 10
173.9499927238256
 20
85.1429385605442
 30
0.0
 10
173.9157010208241
 20
85.15331201307231
 30
0.0
 10
173.614419338011
 20
85.22896009205057
 30
0.0
 10
173.1722540315307
 20
85.32524676150629
 30
0.0
 10
172.677421428193
 20
85.42490809501155
 30
0.0
 10
172.2069455288734
 20
85.51718861962578
 30
0.0
 10
171.6760239633523
 20
85.61281855325053
 30
0.0
 10
171.1378733434071
 20
85.69846812948958
 30
0.0
 10
170.6798264066504
 20
85.76576234871773
 30
0.0
 10
170.0242615940941
 20
85.85410514889178
 30
0.0
 10
169.1409557498583
 20
85.95076939795837
 30
0.0
 10
168.0122933873833
 20
86.037540919331
 30
0.0
 10
166.9225318536475
 20
86.07562212532024
 30
0.0
 10
165.8265036690194
 20
86.0774728806606
 30
0.0
 10
164.921112428007
 20
86.05131102873132
 30
0.0
 10
164.2248089605696
 20
86.01470479155246
 30
0.0
 10
163.6981313617702
 20
85.97568625107263
 30
0.0
 10
163.2314826417124
 20
85.93347798473697
 30
0.0
 10
162.860270223068
 20
85.89647358079434
 30
0.0
 10
162.6062202656054
 20
85.86777231782585
 30
0.0
 10
162.3051726516251
 20
85.83139190728018
 30
0.0
 10
162.0496388526571
 20
85.79859511025431
 30
0.0
 10
161.9505409413619
 20
85.78230841628428
 30
0.0
 10
161.9667424995006
 20
85.78486670351562
 30
0.0
 10
161.9667661375929
 20
85.78487043605969
 30
0.0
  0
SPLINE
  5
163
330
1F
100
AcDbEntity
  8
0
  6
HIDDEN
 62
     7
370
     0
100
AcDbSpline
210
0.0
220
0.0
230
1.0
 70
     8
 71
     3
 72
    30
 73
    26
 74
     0
 42
0.00000001
 43
0.00000001
 12
1.0
 22
0.0
 32
0.0
 13
1.0
 23
0.0
 33
0.0
 40
0.0
 40
0.0
 40
0.0
 40
0.0
 40
0.0001254945779594
 40
0.0285559074234649
 40
0.0588590658112889
 40
0.0910391711941226
 40
0.1250996116848435
 40
0.1546877754617193
 40
0.1963660207488223
 40
0.2501200199556065
 40
0.320534356805628
 40
0.3856185627871055
 40
0.4454111263216317
 40
0.4999637433237747
 40
0.5283556746054187
 40
0.5586398612800533
 40
0.5908239907201038
 40
0.6249144227675094
 40
0.6541890138496862
 40
0.6958670295788169
 40
0.7499340291136475
 40
0.821592871047849
 40
0.8871437747903796
 40
0.9466385706416498
 40
1.0
 40
1.0
 40
1.0
 40
1.0
 10
161.9667996652055
 20
158.6909622453325
 30
0.0
 10
161.9667641334687
 20
158.6909697235943
 30
0.0
 10
161.958678995402
 20
158.6926713792054
 30
0.0
 10
161.9873113673665
 20
158.6873161060576
 30
0.0
 10
162.0607114028824
 20
158.6767313715066
 30
0.0
 10
162.2043655592266
 20
158.6570583236987
 30
0.0
 10
162.4054011798274
 20
158.632214032152
 30
0.0
 10
162.6880332927476
 20
158.5980045026659
 30
0.0
 10
163.101440686351
 20
158.554330139381
 30
0.0
 10
163.7777285993843
 20
158.4912853736765
 30
0.0
 10
164.7161602314861
 20
158.4299857464623
 30
0.0
 10
165.8256529685225
 20
158.3986958319753
 30
0.0
 10
166.9231333731327
 20
158.4003577394206
 30
0.0
 10
167.8231649016852
 20
158.4316545641768
 30
0.0
 10
168.5345056339738
 20
158.478496522928
 30
0.0
 10
169.0999232281403
 20
158.5256558642849
 30
0.0
 10
169.6888457658789
 20
158.5851029508518
 30
0.0
 10
170.2532558642895
 20
158.6514539118746
 30
0.0
 10
170.8474521525423
 20
158.7333743723743
 30
0.0
 10
171.5140594987847
 20
158.8350264955298
 30
0.0
 10
172.3153931189035
 20
158.9771593906395
 30
0.0
 10
173.0679029850092
 20
159.1284044020684
 30
0.0
 10
173.6131887863844
 20
159.2462603221795
 30
0.0
 10
173.9159103043426
 20
159.3224835935663
 30
0.0
 10
173.9502013931245
 20
159.3329380920495
 30
0.0
 10
173.9664151332904
 20
159.3378812574022
 30
0.0
  0
LINE
  5
164
330
1F
100
AcDbEntity
  8
0
  6
HIDDEN
 62
     7
370
     0
100
AcDbLine
 10
206.228722725
 20
161.1889146768
 30
0.0
 11
206.228722725
 21
153.5879552864
 31
0.0
  0
LINE
  5
165
330
1F
100
AcDbEntity
  8
0
  6
HIDDEN
 62
     7
370
     0
100
AcDbLine
 10
204.8766938038
 20
156.9521904491
 30
0.0
 11
204.8766938038
 21
153.5879552864
 31
0.0
  0
LINE
  5
166
330
1F
100
AcDbEntity
  8
0
  6
HIDDEN
 62
     7
370
     0
100
AcDbLine
 10
201.0566935874
 20
156.9521904491
 30
0.0
 11
201.0566935874
 21
153.5879552864
 31
0.0
  0
CIRCLE
  5
167
330
1F
100
AcDbEntity
  8
0
  6
HIDDEN
 62
     7
370
     0
100
AcDbCircle
 10
189.9666932113
 20
122.2379535936
 30
0.0
 40
5.000000000000014
  0
LINE
  5
168
330
1F
100
AcDbEntity
  8
0
  6
HIDDEN
 62
     7
370
     0
100
AcDbLine
 10
252.4666924961
 20
143.4379529707
 30
0.0
 11
252.4666924961
 21
133.237953534
 31
0.0
  0
LINE
  5
169
330
1F
100
AcDbEntity
  8
0
  6
HIDDEN
 62
     7
370
     0
100
AcDbLine
 10
262.4666904099
 20
133.237953534
 30
0.0
 11
262.4666904099
 21
143.4379529707
 31
0.0
  0
LINE
  5
16A
330
1F
100
AcDbEntity
  8
0
  6
HIDDEN
 62
     7
370
     0
100
AcDbLine
 10
262.4666904099
 20
143.4379529707
 30
0.0
 11
261.6666917689
 21
144.2379534744
 31
0.0
  0
LINE
  5
16B
330
1F
100
AcDbEntity
  8
0
  6
HIDDEN
 62
     7
370
     0
100
AcDbLine
 10
253.2666911371
 20
144.2379534744
 30
0.0
 11
252.4666924961
 21
143.4379529707
 31
0.0
  0
LINE
  5
16C
330
1F
100
AcDbEntity
  8
0
  6
HIDDEN
 62
     7
370
     0
100
AcDbLine
 10
252.4666924961
 20
133.237953534
 30
0.0
 11
253.9666955359
 21
131.7379532881
 31
0.0
  0
LINE
  5
16D
330
1F
100
AcDbEntity
  8
0
  6
HIDDEN
 62
     7
370
     0
100
AcDbLine
 10
260.9666948206
 20
131.7379532881
 30
0.0
 11
262.4666904099
 21
133.237953534
 31
0.0
  0
LINE
  5
16E
330
1F
100
AcDbEntity
  8
0
  6
HIDDEN
 62
     7
370
     0
100
AcDbLine
 10
259.9666927941
 20
131.7379532881
 30
0.0
 11
257.4666951783
 21
133.1813291215
 31
0.0
  0
LINE
  5
16F
330
1F
100
AcDbEntity
  8
0
  6
HIDDEN
 62
     7
370
     0
100
AcDbLine
 10
257.4666951783
 20
133.1813291215
 30
0.0
 11
254.9666901119
 21
131.7379532881
 31
0.0
  0
LINE
  5
170
330
1F
100
AcDbEntity
  8
0
  6
HIDDEN
 62
     7
370
     0
100
AcDbLine
 10
236.966694612
 20
133.237953534
 30
0.0
 11
238.4666939266
 21
131.7379532881
 31
0.0
  0
LINE
  5
171
330
1F
100
AcDbEntity
  8
0
  6
HIDDEN
 62
     7
370
     0
100
AcDbLine
 10
245.4666932113
 20
131.7379532881
 30
0.0
 11
246.9666962511
 21
133.237953534
 31
0.0
  0
LINE
  5
172
330
1F
100
AcDbEntity
  8
0
  6
HIDDEN
 62
     7
370
     0
100
AcDbLine
 10
236.966694612
 20
143.4379529707
 30
0.0
 11
236.966694612
 21
133.237953534
 31
0.0
  0
LINE
  5
173
330
1F
100
AcDbEntity
  8
0
  6
HIDDEN
 62
     7
370
     0
100
AcDbLine
 10
246.9666962511
 20
133.237953534
 30
0.0
 11
246.9666962511
 21
143.4379529707
 31
0.0
  0
LINE
  5
174
330
1F
100
AcDbEntity
  8
0
  6
HIDDEN
 62
     7
370
     0
100
AcDbLine
 10
246.9666962511
 20
143.4379529707
 30
0.0
 11
246.1666901596
 21
144.2379534744
 31
0.0
  0
LINE
  5
175
330
1F
100
AcDbEntity
  8
0
  6
HIDDEN
 62
     7
370
     0
100
AcDbLine
 10
237.766693253
 20
144.2379534744
 30
0.0
 11
236.966694612
 21
143.4379529707
 31
0.0
  0
LINE
  5
176
330
1F
100
AcDbEntity
  8
0
  6
HIDDEN
 62
     7
370
     0
100
AcDbLine
 10
244.46669491
 20
131.7379532881
 30
0.0
 11
241.9666935689
 21
133.1813291215
 31
0.0
  0
LINE
  5
177
330
1F
100
AcDbEntity
  8
0
  6
HIDDEN
 62
     7
370
     0
100
AcDbLine
 10
241.9666935689
 20
133.1813291215
 30
0.0
 11
239.4666922278
 21
131.7379532881
 31
0.0
  0
LINE
  5
178
330
1F
100
AcDbEntity
  8
0
  6
HIDDEN
 62
     7
370
     0
100
AcDbLine
 10
221.4666930027
 20
133.237953534
 30
0.0
 11
222.9666923172
 21
131.7379532881
 31
0.0
  0
LINE
  5
179
330
1F
100
AcDbEntity
  8
0
  6
HIDDEN
 62
     7
370
     0
100
AcDbLine
 10
229.966691602
 20
131.7379532881
 30
0.0
 11
231.4666946418
 21
133.237953534
 31
0.0
  0
LINE
  5
17A
330
1F
100
AcDbEntity
  8
0
  6
HIDDEN
 62
     7
370
     0
100
AcDbLine
 10
221.4666930027
 20
143.4379529707
 30
0.0
 11
221.4666930027
 21
133.237953534
 31
0.0
  0
LINE
  5
17B
330
1F
100
AcDbEntity
  8
0
  6
HIDDEN
 62
     7
370
     0
100
AcDbLine
 10
231.4666946418
 20
133.237953534
 30
0.0
 11
231.4666946418
 21
143.4379529707
 31
0.0
  0
LINE
  5
17C
330
1F
100
AcDbEntity
  8
0
  6
HIDDEN
 62
     7
370
     0
100
AcDbLine
 10
231.4666946418
 20
143.4379529707
 30
0.0
 11
230.6666922755
 21
144.2379534744
 31
0.0
  0
LINE
  5
17D
330
1F
100
AcDbEntity
  8
0
  6
HIDDEN
 62
     7
370
     0
100
AcDbLine
 10
222.2666916437
 20
144.2379534744
 30
0.0
 11
221.4666930027
 21
143.4379529707
 31
0.0
  0
LINE
  5
17E
330
1F
100
AcDbEntity
  8
0
  6
HIDDEN
 62
     7
370
     0
100
AcDbLine
 10
228.9666933007
 20
131.7379532881
 30
0.0
 11
226.4666919596
 21
133.1813291215
 31
0.0
  0
LINE
  5
17F
330
1F
100
AcDbEntity
  8
0
  6
HIDDEN
 62
     7
370
     0
100
AcDbLine
 10
226.4666919596
 20
133.1813291215
 30
0.0
 11
223.9666943438
 21
131.7379532881
 31
0.0
  0
LINE
  5
180
330
1F
100
AcDbEntity
  8
0
  6
HIDDEN
 62
     7
370
     0
100
AcDbLine
 10
182.9666932113
 20
82.8332707785
 30
0.0
 11
183.0562948322
 21
83.4708206855
 31
0.0
  0
LINE
  5
181
330
1F
100
AcDbEntity
  8
0
  6
HIDDEN
 62
     7
370
     0
100
AcDbLine
 10
183.0562948322
 20
161.0050865017
 30
0.0
 11
182.9666932113
 21
161.6426364087
 31
0.0
  0
ARC
  5
182
330
1F
100
AcDbEntity
  8
0
  6
HIDDEN
 62
     7
370
     0
100
AcDbCircle
 10
182.0697562929
 20
83.6094682692
 30
0.0
 40
0.9962338214386721
100
AcDbArc
 50
352.0
 51
0.0
  0
ARC
  5
183
330
1F
100
AcDbEntity
  8
0
  6
HIDDEN
 62
     7
370
     0
100
AcDbCircle
 10
182.0697562929
 20
83.6094682692
 30
0.0
 40
0.9962338214386665
100
AcDbArc
 50
0.0
 51
25.7988228126
  0
ARC
  5
184
330
1F
100
AcDbEntity
  8
0
  6
HIDDEN
 62
     7
370
     0
100
AcDbCircle
 10
182.0697562929
 20
160.866438918
 30
0.0
 40
0.996233821438676
100
AcDbArc
 50
348.75
 51
8.0
  0
LWPOLYLINE
  5
185
330
1F
100
AcDbEntity
  8
0
  6
HIDDEN
 62
     7
370
     0
100
AcDbPolyline
 90
        3
 70
   128
 43
0.0
 10
183.0468477579
 20
160.6720828019
 10
182.9901563302
 20
160.4851961635
 10
182.9666932113
 20
160.4328670107
  0
LINE
  5
186
330
1F
100
AcDbEntity
  8
0
  6
HIDDEN
 62
     7
370
     0
100
AcDbLine
 10
183.0659901112
 20
83.6094685398
 30
0.0
 11
183.0659901112
 21
160.8664386474
 31
0.0
  0
ARC
  5
187
330
1F
100
AcDbEntity
  8
0
  6
HIDDEN
 62
     7
370
     0
100
AcDbCircle
 10
173.2198988665
 20
102.7379535936
 30
0.0
 40
12.0
100
AcDbArc
 50
273.1714843805
 51
324.3146652873
  0
ARC
  5
188
330
1F
100
AcDbEntity
  8
0
  6
HIDDEN
 62
     7
370
     0
100
AcDbCircle
 10
173.2198988665
 20
141.7379535936
 30
0.0
 40
11.99999999999999
100
AcDbArc
 50
35.6853347127
 51
86.8223095101
  0
ARC
  5
189
330
1F
100
AcDbEntity
  8
0
  6
HIDDEN
 62
     7
370
     0
100
AcDbCircle
 10
156.4274191535
 20
91.7379535936
 30
0.0
 40
1.000000000000008
100
AcDbArc
 50
210.0
 51
270.0
  0
ARC
  5
18A
330
1F
100
AcDbEntity
  8
0
  6
HIDDEN
 62
     7
370
     0
100
AcDbCircle
 10
156.4274191535
 20
152.7379535936
 30
0.0
 40
1.000000000000008
100
AcDbArc
 50
90.0
 51
150.0
  0
LINE
  5
18B
330
1F
100
AcDbEntity
  8
0
  6
HIDDEN
 62
     7
370
     0
100
AcDbLine
 10
156.4274196513
 20
90.737953087
 30
0.0
 11
162.0125238783
 21
90.737953087
 31
0.0
  0
LINE
  5
18C
330
1F
100
AcDbEntity
  8
0
  6
HIDDEN
 62
     7
370
     0
100
AcDbLine
 10
162.0125238783
 20
153.7379541002
 30
0.0
 11
156.4274196513
 21
153.7379541002
 31
0.0
  0
LINE
  5
18D
330
1F
100
AcDbEntity
  8
0
  6
HIDDEN
 62
     7
370
     0
100
AcDbLine
 10
155.561393965
 20
153.237953087
 30
0.0
 11
152.9633169062
 21
148.7379532807
 31
0.0
  0
LINE
  5
18E
330
1F
100
AcDbEntity
  8
0
  6
HIDDEN
 62
     7
370
     0
100
AcDbLine
 10
152.9633169062
 20
95.7379539065
 30
0.0
 11
155.561393965
 21
91.2379541002
 31
0.0
  0
ARC
  5
18F
330
1F
100
AcDbEntity
  8
0
  6
HIDDEN
 62
     7
370
     0
100
AcDbCircle
 10
193.4166932113
 20
97.3629535936
 30
0.0
 40
2.000000000000015
100
AcDbArc
 50
234.3409123039
 51
0.0
  0
ARC
  5
190
330
1F
100
AcDbEntity
  8
0
  6
HIDDEN
 62
     7
370
     0
100
AcDbCircle
 10
193.4166932113
 20
147.1129535936
 30
0.0
 40
2.000000000000003
100
AcDbArc
 50
0.0
 51
125.6590876961
  0
LINE
  5
191
330
1F
100
AcDbEntity
  8
0
  6
HIDDEN
 62
     7
370
     0
100
AcDbLine
 10
148.1666927226
 20
95.7379539065
 30
0.0
 11
152.9633169062
 21
95.7379539065
 31
0.0
  0
LINE
  5
192
330
1F
100
AcDbEntity
  8
0
  6
HIDDEN
 62
     7
370
     0
100
AcDbLine
 10
152.9633169062
 20
148.7379532807
 30
0.0
 11
143.1666937656
 21
148.7379532807
 31
0.0
  0
LINE
  5
193
330
1F
100
AcDbEntity
  8
0
  6
HIDDEN
 62
     7
370
     0
100
AcDbLine
 10
182.9666932113
 20
95.7379539065
 30
0.0
 11
192.2507704235
 21
95.7379539065
 31
0.0
  0
LINE
  5
194
330
1F
100
AcDbEntity
  8
0
  6
HIDDEN
 62
     7
370
     0
100
AcDbLine
 10
192.2507704235
 20
148.7379532807
 30
0.0
 11
182.9666932113
 21
148.7379532807
 31
0.0
  0
LINE
  5
195
330
1F
100
AcDbEntity
  8
0
  6
HIDDEN
 62
     7
370
     0
100
AcDbLine
 10
207.2666929103
 20
109.2379533254
 30
0.0
 11
211.266693566
 21
109.2379533254
 31
0.0
  0
LINE
  5
196
330
1F
100
AcDbEntity
  8
0
  6
HIDDEN
 62
     7
370
     0
100
AcDbLine
 10
211.266693566
 20
135.2379538618
 30
0.0
 11
207.2666929103
 21
135.2379538618
 31
0.0
  0
LINE
  5
197
330
1F
100
AcDbEntity
  8
0
  6
HIDDEN
 62
     7
370
     0
100
AcDbLine
 10
195.4166934825
 20
110.2379534893
 30
0.0
 11
196.1666931398
 21
110.9879531466
 31
0.0
  0
LINE
  5
198
330
1F
100
AcDbEntity
  8
0
  6
HIDDEN
 62
     7
370
     0
100
AcDbLine
 10
196.1666931398
 20
133.4879540406
 30
0.0
 11
195.4166934825
 21
134.2379536979
 31
0.0
  0
LINE
  5
199
330
1F
100
AcDbEntity
  8
0
  6
HIDDEN
 62
     7
370
     0
100
AcDbLine
 10
196.1666931398
 20
110.9879531466
 30
0.0
 11
207.2666929103
 21
110.9879531466
 31
0.0
  0
LINE
  5
19A
330
1F
100
AcDbEntity
  8
0
  6
HIDDEN
 62
     7
370
     0
100
AcDbLine
 10
207.2666929103
 20
133.4879540406
 30
0.0
 11
196.1666931398
 21
133.4879540406
 31
0.0
  0
ARC
  5
19B
330
1F
100
AcDbEntity
  8
0
  6
HIDDEN
 62
     7
370
     0
100
AcDbCircle
 10
267.6666932113
 20
132.5379535936
 30
0.0
 40
0.3000000000000682
100
AcDbArc
 50
270.0
 51
0.0
  0
ARC
  5
19C
330
1F
100
AcDbEntity
  8
0
  6
HIDDEN
 62
     7
370
     0
100
AcDbCircle
 10
267.6666932113
 20
111.9379535936
 30
0.0
 40
0.3000000000000682
100
AcDbArc
 50
0.0
 51
90.0
  0
LINE
  5
19D
330
1F
100
AcDbEntity
  8
0
  6
HIDDEN
 62
     7
370
     0
100
AcDbLine
 10
220.1424491591
 20
132.5379537918
 30
0.0
 11
217.3666943796
 21
132.5379537918
 31
0.0
  0
LINE
  5
19E
330
1F
100
AcDbEntity
  8
0
  6
HIDDEN
 62
     7
370
     0
100
AcDbLine
 10
217.3666943796
 20
111.9379533954
 30
0.0
 11
220.1424491591
 21
111.9379533954
 31
0.0
  0
LINE
  5
19F
330
1F
100
AcDbEntity
  8
0
  6
HIDDEN
 62
     7
370
     0
100
AcDbLine
 10
220.1424491591
 20
111.9379533954
 30
0.0
 11
220.9666919894
 21
112.2379538171
 31
0.0
  0
LINE
  5
1A0
330
1F
100
AcDbEntity
  8
0
  6
HIDDEN
 62
     7
370
     0
100
AcDbLine
 10
220.9666919894
 20
132.2379533701
 30
0.0
 11
220.1424491591
 21
132.5379537918
 31
0.0
  0
ARC
  5
1A1
330
1F
100
AcDbEntity
  8
0
  6
HIDDEN
 62
     7
370
     0
100
AcDbCircle
 10
217.3666932113
 20
132.1379535936
 30
0.0
 40
0.4000000000000057
100
AcDbArc
 50
90.0
 51
180.0
  0
ARC
  5
1A2
330
1F
100
AcDbEntity
  8
0
  6
HIDDEN
 62
     7
370
     0
100
AcDbCircle
 10
217.3666932113
 20
112.3379535936
 30
0.0
 40
0.4000000000000057
100
AcDbArc
 50
180.0
 51
270.0
  0
LINE
  5
1A3
330
1F
100
AcDbEntity
  8
0
  6
HIDDEN
 62
     7
370
     0
100
AcDbLine
 10
187.9166931845
 20
172.2379543387
 30
0.0
 11
187.9166931845
 21
166.1379553877
 31
0.0
  0
LINE
  5
1A4
330
1F
100
AcDbEntity
  8
0
  6
HIDDEN
 62
     7
370
     0
100
AcDbLine
 10
222.2576019354
 20
132.2379533701
 30
0.0
 11
220.9666919894
 21
132.2379533701
 31
0.0
  0
LINE
  5
1A5
330
1F
100
AcDbEntity
  8
0
  6
HIDDEN
 62
     7
370
     0
100
AcDbLine
 10
237.7575998194
 20
132.2379533701
 30
0.0
 11
230.6636226363
 21
132.2379533701
 31
0.0
  0
LINE
  5
1A6
330
1F
100
AcDbEntity
  8
0
  6
HIDDEN
 62
     7
370
     0
100
AcDbLine
 10
253.2576014287
 20
132.2379533701
 30
0.0
 11
246.1636205203
 21
132.2379533701
 31
0.0
  0
LINE
  5
1A7
330
1F
100
AcDbEntity
  8
0
  6
HIDDEN
 62
     7
370
     0
100
AcDbLine
 10
267.6666964776
 20
132.2379533701
 30
0.0
 11
261.6636221297
 21
132.2379533701
 31
0.0
  0
LINE
  5
1A8
330
1F
100
AcDbEntity
  8
0
  6
HIDDEN
 62
     7
370
     0
100
AcDbLine
 10
220.9666919894
 20
112.2379538171
 30
0.0
 11
267.6666964776
 21
112.2379538171
 31
0.0
  0
LINE
  5
1A9
330
1F
100
AcDbEntity
  8
0
  6
HIDDEN
 62
     7
370
     0
100
AcDbLine
 10
174.3994056247
 20
84.6596725784
 30
0.0
 11
173.9666963927
 21
85.1378992699
 31
0.0
  0
LINE
  5
1AA
330
1F
100
AcDbEntity
  8
0
  6
HIDDEN
 62
     7
370
     0
100
AcDbLine
 10
161.9666934944
 20
85.7848592602
 30
0.0
 11
161.4860658534
 21
85.306636294
 31
0.0
  0
LINE
  5
1AB
330
1F
100
AcDbEntity
  8
0
  6
HIDDEN
 62
     7
370
     0
100
AcDbLine
 10
161.4859485067
 20
159.1692671679
 30
0.0
 11
161.9666934944
 21
158.6909845971
 31
0.0
  0
LINE
  5
1AC
330
1F
100
AcDbEntity
  8
0
  6
HIDDEN
 62
     7
370
     0
100
AcDbLine
 10
173.9666935987
 20
159.3379594885
 30
0.0
 11
174.3995145894
 21
159.816238334
 31
0.0
  0
LINE
  5
1AD
330
1F
100
AcDbEntity
  8
0
  6
HIDDEN
 62
     7
370
     0
100
AcDbLine
 10
173.9666935987
 20
85.1380184792
 30
0.0
 11
173.9666935987
 21
90.7720767461
 31
0.0
  0
LINE
  5
1AE
330
1F
100
AcDbEntity
  8
0
  6
HIDDEN
 62
     7
370
     0
100
AcDbLine
 10
161.9666934944
 20
90.7464318477
 30
0.0
 11
161.9666934944
 21
85.7849002384
 31
0.0
  0
LINE
  5
1AF
330
1F
100
AcDbEntity
  8
0
  6
HIDDEN
 62
     7
370
     0
100
AcDbLine
 10
173.9666935987
 20
153.7038304411
 30
0.0
 11
173.9666935987
 21
159.3378067516
 31
0.0
  0
LINE
  5
1B0
330
1F
100
AcDbEntity
  8
0
  6
HIDDEN
 62
     7
370
     0
100
AcDbLine
 10
161.9666934944
 20
158.6909771465
 30
0.0
 11
161.9666934944
 21
153.7294753395
 31
0.0
  0
LINE
  5
1B1
330
1F
100
AcDbEntity
  8
0
  6
HIDDEN
 62
     7
370
     0
100
AcDbLine
 10
211.266693566
 20
116.2379535414
 30
0.0
 11
216.9666950591
 21
116.2379535414
 31
0.0
  0
LINE
  5
1B2
330
1F
100
AcDbEntity
  8
0
  6
HIDDEN
 62
     7
370
     0
100
AcDbLine
 10
216.9666950591
 20
128.2379536458
 30
0.0
 11
211.266693566
 21
128.2379536458
 31
0.0
  0
LINE
  5
1B3
330
1F
100
AcDbEntity
  8
0
  6
HIDDEN
 62
     7
370
     0
100
AcDbLine
 10
237.7166924066
 20
144.2379534744
 30
0.0
 11
237.7166924066
 21
132.2208794333
 31
0.0
  0
LINE
  5
1B4
330
1F
100
AcDbEntity
  8
0
  6
HIDDEN
 62
     7
370
     0
100
AcDbLine
 10
246.2166910059
 20
132.2155559935
 30
0.0
 11
246.2166910059
 21
144.2379534744
 31
0.0
  0
LINE
  5
1B5
330
1F
100
AcDbEntity
  8
0
  6
HIDDEN
 62
     7
370
     0
100
AcDbLine
 10
253.2166902907
 20
144.2379534744
 30
0.0
 11
253.2166902907
 21
132.2208794333
 31
0.0
  0
LINE
  5
1B6
330
1F
100
AcDbEntity
  8
0
  6
HIDDEN
 62
     7
370
     0
100
AcDbLine
 10
261.7166926153
 20
132.2155559935
 30
0.0
 11
261.7166926153
 21
144.2379534744
 31
0.0
  0
LINE
  5
1B7
330
1F
100
AcDbEntity
  8
0
  6
HIDDEN
 62
     7
370
     0
100
AcDbLine
 10
222.2166945226
 20
144.2379534744
 30
0.0
 11
222.2166945226
 21
132.2208794333
 31
0.0
  0
LINE
  5
1B8
330
1F
100
AcDbEntity
  8
0
  6
HIDDEN
 62
     7
370
     0
100
AcDbLine
 10
230.7166931219
 20
132.2155559935
 30
0.0
 11
230.7166931219
 21
144.2379534744
 31
0.0
  0
DIMENSION
  5
1B9
330
1F
100
AcDbEntity
  8
VERMASSUNG
100
AcDbDimension
  2
_D
 10
125.1834871252
 20
72.2379535936
 30
0.0
 11
125.1834871252
 21
121.6561057164
 31
0.0
 70
   160
  1
HSK T %%c<>
 71
     2
 42
-1.0
  3
SLDDIMSTYLE0
100
AcDbAlignedDimension
 13
183.4666932113
 23
172.2379535936
 33
0.0
 14
183.4666932113
 24
72.2379535936
 34
0.0
 50
90.0
100
AcDbRotatedDimension
  0
DIMENSION
  5
1C6
330
1F
100
AcDbEntity
  8
VERMASSUNG
100
AcDbDimension
  2
_D_1
 10
133.0666932113
 20
190.8945807134
 30
0.0
 11
206.83275154
 21
190.8945807134
 31
0.0
 70
   160
  1
<>
 71
     2
 42
-1.0
  3
SLDDIMSTYLE0
100
AcDbAlignedDimension
 13
267.9666932113
 23
143.2379535936
 33
0.0
 14
133.0666932113
 24
152.7406233362
 34
0.0
100
AcDbRotatedDimension
  0
DIMENSION
  5
1D0
330
1F
100
AcDbEntity
  8
VERMASSUNG
100
AcDbDimension
  2
_D_2
 10
267.9666932113
 20
184.8945807134
 30
0.0
 11
224.3844374493
 21
184.8945807134
 31
0.0
 70
   160
  1
<>
 71
     2
 42
-1.0
  3
SLDDIMSTYLE0
100
AcDbAlignedDimension
 13
182.9666932113
 23
171.7379535936
 33
0.0
 14
267.9666932113
 24
143.2379535936
 34
0.0
100
AcDbRotatedDimension
  0
DIMENSION
  5
1DA
330
1F
100
AcDbEntity
  8
VERMASSUNG
100
AcDbDimension
  2
_D_3
 10
267.9666932113
 20
178.8945807134
 30
0.0
 11
241.1530575797
 21
178.8945807134
 31
0.0
 70
   160
  1
<>
 71
     2
 42
-1.0
  3
SLDDIMSTYLE0
100
AcDbAlignedDimension
 13
211.9166932113
 23
170.2066934144
 33
0.0
 14
267.9666932113
 24
143.2379535936
 34
0.0
100
AcDbRotatedDimension
  0
DIMENSION
  5
1E4
330
1F
100
AcDbEntity
  8
VERMASSUNG
100
AcDbDimension
  2
_D_4
 10
267.9666932113
 20
93.1140761427
 30
0.0
 11
262.5122971886
 21
93.1140761427
 31
0.0
 70
   160
  1
<>
 71
     2
 42
-1.0
  3
SLDDIMSTYLE0
100
AcDbAlignedDimension
 13
257.4666932113
 23
131.2379535936
 33
0.0
 14
267.9666932113
 24
101.2379535936
 34
0.0
100
AcDbRotatedDimension
  0
DIMENSION
  5
1EE
330
1F
100
AcDbEntity
  8
VERMASSUNG
100
AcDbDimension
  2
_D_5
 10
257.4666932113
 20
93.1140761427
 30
0.0
 11
249.8492414971
 21
93.1140761427
 31
0.0
 70
   160
  1
<>
 71
     2
 42
-1.0
  3
SLDDIMSTYLE0
100
AcDbAlignedDimension
 13
241.9666932113
 23
130.2379535936
 33
0.0
 14
257.4666932113
 24
131.2379535936
 34
0.0
100
AcDbRotatedDimension
  0
DIMENSION
  5
1F8
330
1F
100
AcDbEntity
  8
VERMASSUNG
100
AcDbDimension
  2
_D_6
 10
241.9666932113
 20
93.1140761427
 30
0.0
 11
233.5473766988
 21
93.1140761427
 31
0.0
 70
   160
  1
<>
 71
     2
 42
-1.0
  3
SLDDIMSTYLE0
100
AcDbAlignedDimension
 13
226.4666932113
 23
131.2379535936
 33
0.0
 14
241.9666932113
 24
130.2379535936
 34
0.0
100
AcDbRotatedDimension
  0
DIMENSION
  5
202
330
1F
100
AcDbEntity
  8
VERMASSUNG
100
AcDbDimension
  2
_D_7
 10
267.9666932113
 20
87.1140761427
 30
0.0
 11
244.0484665489
 21
87.1140761427
 31
0.0
 70
   160
  1
<>
 71
     2
 42
-1.0
  3
SLDDIMSTYLE0
100
AcDbAlignedDimension
 13
216.9666932113
 23
112.3379535936
 33
0.0
 14
267.9666932113
 24
101.2379535936
 34
0.0
100
AcDbRotatedDimension
  0
DIMENSION
  5
20C
330
1F
100
AcDbEntity
  8
VERMASSUNG
100
AcDbDimension
  2
_D_8
 10
280.4759571753
 20
100.2379535936
 30
0.0
 11
280.4759571753
 21
122.3046825068
 31
0.0
 70
   160
  1
%%c<>
 71
     2
 42
-1.0
  3
SLDDIMSTYLE0
100
AcDbAlignedDimension
 13
266.9666932113
 23
144.2379535936
 33
0.0
 14
266.9666932113
 24
100.2379535936
 34
0.0
 50
90.0
100
AcDbRotatedDimension
  0
DIMENSION
  5
217
330
1F
100
AcDbEntity
  8
VERMASSUNG
100
AcDbDimension
  2
_D_9
 10
274.4759571753
 20
112.2379535936
 30
0.0
 11
274.4759571753
 21
121.5937598286
 31
0.0
 70
   160
  1
%%c<>
 71
     2
 42
-1.0
  3
SLDDIMSTYLE0
100
AcDbAlignedDimension
 13
267.6666932113
 23
132.2379535936
 33
0.0
 14
267.6666932113
 24
112.2379535936
 34
0.0
 50
90.0
100
AcDbRotatedDimension
  0
LINE
  5
222
330
1F
100
AcDbEntity
  8
VERMASSUNG
  6
CENTERX2
 62
     7
370
     0
100
AcDbLine
 10
130.7593441609
 20
122.2379535936
 30
0.0
 11
270.3962043901
 21
122.2379535936
 31
0.0
  0
LINE
  5
223
330
1F
100
AcDbEntity
  8
VERMASSUNG
  6
CENTERX2
370
     0
100
AcDbLine
 10
241.9666932113
 20
130.2379535936
 30
0.0
 11
241.9666932113
 21
146.2379535936
 31
0.0
  0
LINE
  5
224
330
1F
100
AcDbEntity
  8
VERMASSUNG
  6
CENTERX2
370
     0
100
AcDbLine
 10
257.4666932113
 20
131.2379535936
 30
0.0
 11
257.4666932113
 21
145.4379535936
 31
0.0
  0
LINE
  5
225
330
1F
100
AcDbEntity
  8
VERMASSUNG
  6
CENTERX2
370
     0
100
AcDbLine
 10
226.4666932113
 20
131.2379535936
 30
0.0
 11
226.4666932113
 21
145.4379535936
 31
0.0
  0
LINE
  5
226
330
1F
100
AcDbEntity
  8
0
  6
Continuous
 62
     7
370
    15
100
AcDbLine
 10
66.7447043267
 20
143.7278289847
 30
0.0
 11
66.2345789057
 21
144.2379534744
 31
0.0
  0
LINE
  5
227
330
1F
100
AcDbEntity
  8
0
  6
Continuous
 62
     7
370
    15
100
AcDbLine
 10
57.8345792052
 20
144.2379534744
 30
0.0
 11
57.3244537842
 21
143.7278289847
 31
0.0
  0
LINE
  5
228
330
1F
100
AcDbEntity
  8
0
  6
Continuous
 62
     7
370
    15
100
AcDbLine
 10
83.5244544466
 20
117.5278283224
 30
0.0
 11
84.0345789362
 21
118.0379537434
 31
0.0
  0
LINE
  5
229
330
1F
100
AcDbEntity
  8
0
  6
Continuous
 62
     7
370
    15
100
AcDbLine
 10
84.0345789362
 20
126.4379534438
 30
0.0
 11
83.5244544466
 21
126.9480788648
 31
0.0
  0
LINE
  5
22A
330
1F
100
AcDbEntity
  8
0
  6
Continuous
 62
     7
370
    15
100
AcDbLine
 10
40.5447036643
 20
126.9480788648
 30
0.0
 11
40.0345791747
 21
126.4379534438
 31
0.0
  0
LINE
  5
22B
330
1F
100
AcDbEntity
  8
0
  6
Continuous
 62
     7
370
    15
100
AcDbLine
 10
40.0345791747
 20
118.0379537434
 30
0.0
 11
40.5447036643
 21
117.5278283224
 31
0.0
  0
LINE
  5
22C
330
1F
100
AcDbEntity
  8
0
  6
Continuous
 62
     7
370
    15
100
AcDbLine
 10
57.8345792052
 20
144.2379534744
 30
0.0
 11
66.2345789057
 21
144.2379534744
 31
0.0
  0
LINE
  5
22D
330
1F
100
AcDbEntity
  8
0
  6
Continuous
 62
     7
370
    15
100
AcDbLine
 10
58.9053959735
 20
131.7379532881
 30
0.0
 11
65.1570780352
 21
131.7379532881
 31
0.0
  0
LINE
  5
22E
330
1F
100
AcDbEntity
  8
0
  6
Continuous
 62
     7
370
    15
100
AcDbLine
 10
84.0345789362
 20
126.4379534438
 30
0.0
 11
84.0345789362
 21
118.0379537434
 31
0.0
  0
LINE
  5
22F
330
1F
100
AcDbEntity
  8
0
  6
Continuous
 62
     7
370
    15
100
AcDbLine
 10
71.53457875
 20
125.3604525734
 30
0.0
 11
71.53457875
 21
119.1154546138
 31
0.0
  0
LINE
  5
230
330
1F
100
AcDbEntity
  8
0
  6
Continuous
 62
     7
370
    15
100
AcDbLine
 10
52.5345793609
 20
120.800948938
 30
0.0
 11
52.5345793609
 21
125.3604525734
 31
0.0
  0
LINE
  5
231
330
1F
100
AcDbEntity
  8
0
  6
Continuous
 62
     7
370
    15
100
AcDbLine
 10
52.5345793609
 20
119.1154546138
 30
0.0
 11
52.5345793609
 21
120.800948938
 31
0.0
  0
LINE
  5
232
330
1F
100
AcDbEntity
  8
0
  6
Continuous
 62
     7
370
    15
100
AcDbLine
 10
40.0345791747
 20
120.5135480302
 30
0.0
 11
40.0345791747
 21
126.4379534438
 31
0.0
  0
LINE
  5
233
330
1F
100
AcDbEntity
  8
0
  6
Continuous
 62
     7
370
    15
100
AcDbLine
 10
40.0345791747
 20
118.0379537434
 30
0.0
 11
40.0345791747
 21
120.5135480302
 31
0.0
  0
CIRCLE
  5
234
330
1F
100
AcDbEntity
  8
0
  6
Continuous
 62
     7
370
    15
100
AcDbCircle
 10
62.0345790554
 20
122.2379535936
 30
0.0
 40
22.0
  0
CIRCLE
  5
235
330
1F
100
AcDbEntity
  8
0
  6
Continuous
 62
     7
370
    15
100
AcDbCircle
 10
62.0345790554
 20
122.2379535936
 30
0.0
 40
9.999999999999986
  0
CIRCLE
  5
236
330
1F
100
AcDbEntity
  8
0
  6
Continuous
 62
     7
370
    15
100
AcDbCircle
 10
62.0345790554
 20
122.2379535936
 30
0.0
 40
5.999999999999993
  0
SPLINE
  5
237
330
1F
100
AcDbEntity
  8
0
  6
Continuous
 62
     7
370
    15
100
AcDbSpline
210
0.0
220
0.0
230
1.0
 70
    24
 71
     3
 72
    12
 73
     8
 74
     0
 42
0.00000001
 43
0.00000001
 12
1.0
 22
0.0
 32
0.0
 13
1.0
 23
0.0
 33
0.0
 40
0.0
 40
0.0
 40
0.0
 40
0.0
 40
0.4999999999999953
 40
0.4999999999999953
 40
0.7499999999999977
 40
0.7499999999999977
 40
1.0
 40
1.0
 40
1.0
 40
1.0
 10
52.03457905544151
 20
170.2066934144449
 30
0.0
 10
52.03457905544151
 20
170.4719628472113
 30
0.0
 10
52.03457905544152
 20
170.7344779528637
 30
0.0
 10
52.03457905544151
 20
171.020015558901
 30
0.0
 10
52.03457905544151
 20
171.0963371757624
 30
0.0
 10
52.03457905544151
 20
171.2006793406025
 30
0.0
 10
52.03457905544151
 20
171.2277484492626
 30
0.0
 10
52.03457905544151
 20
171.2277484492626
 30
0.0
  0
SPLINE
  5
238
330
1F
100
AcDbEntity
  8
0
  6
Continuous
 62
     7
370
    15
100
AcDbSpline
210
0.0
220
0.0
230
1.0
 70
    24
 71
     3
 72
    16
 73
    12
 74
     0
 42
0.00000001
 43
0.00000001
 12
1.0
 22
0.0
 32
0.0
 13
1.0
 23
0.0
 33
0.0
 40
0.0
 40
0.0
 40
0.0
 40
0.0
 40
0.1249999999999978
 40
0.1249999999999978
 40
0.2499999999999955
 40
0.2499999999999955
 40
0.499999999999997
 40
0.499999999999997
 40
0.7499999999999984
 40
0.7499999999999984
 40
1.0
 40
1.0
 40
1.0
 40
1.0
 10
30.6845790554415
 20
161.188916354486
 30
0.0
 10
30.6845790554415
 20
161.188916354486
 30
0.0
 10
30.6845790554415
 20
161.1775713543511
 30
0.0
 10
30.68457905544151
 20
161.1349188037125
 30
0.0
 10
30.68457905544149
 20
161.1039844790297
 30
0.0
 10
30.6845790554415
 20
160.9847281072621
 30
0.0
 10
30.6845790554415
 20
160.8745760936415
 30
0.0
 10
30.6845790554415
 20
160.6264400079834
 30
0.0
 10
30.6845790554415
 20
160.4860976839798
 30
0.0
 10
30.68457905544151
 20
160.1978259924911
 30
0.0
 10
30.68457905544152
 20
160.0470210195113
 30
0.0
 10
30.6845790554415
 20
159.896651128166
 30
0.0
  0
ARC
  5
239
330
1F
100
AcDbEntity
  8
0
  6
Continuous
 62
     7
370
    15
100
AcDbCircle
 10
62.0345790554
 20
122.2379535936
 30
0.0
 40
50.00000000000002
100
AcDbArc
 50
101.5369590328
 51
128.8291331614
  0
SPLINE
  5
23A
330
1F
100
AcDbEntity
  8
0
  6
Continuous
 62
     7
370
    15
100
AcDbSpline
210
0.0
220
0.0
230
1.0
 70
    24
 71
     3
 72
    14
 73
    10
 74
     0
 42
0.00000001
 43
0.00000001
 12
1.0
 22
0.0
 32
0.0
 13
1.0
 23
0.0
 33
0.0
 40
0.0
 40
0.0
 40
0.0
 40
0.0
 40
0.25
 40
0.25
 40
0.5
 40
0.5
 40
0.75
 40
0.75
 40
1.0
 40
1.0
 40
1.0
 40
1.0
 10
51.03457905544151
 20
74.48860804834575
 30
0.0
 10
51.03457905544152
 20
74.35518235229122
 30
0.0
 10
51.03457905544151
 20
74.22333454444689
 30
0.0
 10
51.03457905544152
 20
73.97681199575275
 30
0.0
 10
51.03457905544151
 20
73.86300680751224
 30
0.0
 10
51.03457905544151
 20
73.67254963056494
 30
0.0
 10
51.03457905544151
 20
73.59491476671504
 30
0.0
 10
51.03457905544151
 20
73.49062335660255
 30
0.0
 10
51.03457905544151
 20
73.4629600005702
 30
0.0
 10
51.03457905544151
 20
73.46296000057022
 30
0.0
  0
ARC
  5
23B
330
1F
100
AcDbEntity
  8
0
  6
Continuous
 62
     7
370
    15
100
AcDbCircle
 10
62.0345790554
 20
122.2379535936
 30
0.0
 40
49.99999999999999
100
AcDbArc
 50
141.1708668386
 51
257.2909670056
  0
SPLINE
  5
23C
330
1F
100
AcDbEntity
  8
0
  6
Continuous
 62
     7
370
    15
100
AcDbSpline
210
0.0
220
0.0
230
1.0
 70
    24
 71
     3
 72
    12
 73
     8
 74
     0
 42
0.00000001
 43
0.00000001
 12
1.0
 22
0.0
 32
0.0
 13
1.0
 23
0.0
 33
0.0
 40
0.0
 40
0.0
 40
0.0
 40
0.0
 40
0.2500000000000032
 40
0.2500000000000032
 40
0.5000000000000064
 40
0.5000000000000064
 40
1.0
 40
1.0
 40
1.0
 40
1.0
 10
23.08361629455458
 20
153.5879535935991
 30
0.0
 10
23.08361629455458
 20
153.5879535935991
 30
0.0
 10
23.12935508122807
 20
153.5879535935991
 30
0.0
 10
23.28658977315407
 20
153.5879535935991
 30
0.0
 10
23.39725898743292
 20
153.5879535935991
 30
0.0
 10
23.77069573531244
 20
153.5879535935991
 30
0.0
 10
24.07505950863232
 20
153.5879535935991
 30
0.0
 10
24.37588152087455
 20
153.5879535935991
 30
0.0
  0
SPLINE
  5
23D
330
1F
100
AcDbEntity
  8
0
  6
Continuous
 62
     7
370
    15
100
AcDbSpline
210
0.0
220
0.0
230
1.0
 70
    24
 71
     3
 72
    14
 73
    10
 74
     0
 42
0.00000001
 43
0.00000001
 12
1.0
 22
0.0
 32
0.0
 13
1.0
 23
0.0
 33
0.0
 40
0.0
 40
0.0
 40
0.0
 40
0.0
 40
0.25
 40
0.25
 40
0.5
 40
0.5
 40
0.75
 40
0.75
 40
1.0
 40
1.0
 40
1.0
 40
1.0
 10
72.03457905544151
 20
171.2277484492626
 30
0.0
 10
72.03457905544151
 20
171.2277484492626
 30
0.0
 10
72.03457905544151
 20
171.1999420018142
 30
0.0
 10
72.03457905544151
 20
171.0960829923501
 30
0.0
 10
72.03457905544151
 20
171.0188919837777
 30
0.0
 10
72.03457905544151
 20
170.8297449060648
 30
0.0
 10
72.03457905544151
 20
170.7160406863621
 30
0.0
 10
72.03457905544151
 20
170.4712419193267
 30
0.0
 10
72.03457905544151
 20
170.339113105397
 30
0.0
 10
72.03457905544151
 20
170.2066934144449
 30
0.0
  0
ARC
  5
23E
330
1F
100
AcDbEntity
  8
0
  6
Continuous
 62
     7
370
    15
100
AcDbCircle
 10
62.0345790554
 20
122.2379535936
 30
0.0
 40
49.99999999999999
100
AcDbArc
 50
282.7090329944
 51
78.4630409672
  0
SPLINE
  5
23F
330
1F
100
AcDbEntity
  8
0
  6
Continuous
 62
     7
370
    15
100
AcDbSpline
210
0.0
220
0.0
230
1.0
 70
    24
 71
     3
 72
    14
 73
    10
 74
     0
 42
0.00000001
 43
0.00000001
 12
1.0
 22
0.0
 32
0.0
 13
1.0
 23
0.0
 33
0.0
 40
0.0
 40
0.0
 40
0.0
 40
0.0
 40
0.25
 40
0.25
 40
0.5
 40
0.5
 40
0.75
 40
0.75
 40
1.0
 40
1.0
 40
1.0
 40
1.0
 10
73.03457905544151
 20
73.46296000057026
 30
0.0
 10
73.03457905544151
 20
73.46296000057026
 30
0.0
 10
73.03457905544151
 20
73.49042597717273
 30
0.0
 10
73.03457905544151
 20
73.5955195339394
 30
0.0
 10
73.03457905544151
 20
73.67301695662498
 30
0.0
 10
73.03457905544151
 20
73.86350056996115
 30
0.0
 10
73.03457905544151
 20
73.97790161963667
 30
0.0
 10
73.03457905544151
 20
74.22316351809951
 30
0.0
 10
73.03457905544151
 20
74.35642271291829
 30
0.0
 10
73.03457905544151
 20
74.48860804834665
 30
0.0
  0
LINE
  5
240
330
1F
100
AcDbEntity
  8
0
  6
Continuous
 62
     7
370
    15
100
AcDbLine
 10
72.0345788319
 20
166.1379553877
 30
0.0
 11
52.034579279
 21
166.1379553877
 31
0.0
  0
LINE
  5
241
330
1F
100
AcDbEntity
  8
0
  6
Continuous
 62
     7
370
    15
100
AcDbLine
 10
73.0345789958
 20
78.3379517995
 30
0.0
 11
51.034579115
 21
78.3379517995
 31
0.0
  0
LINE
  5
242
330
1F
100
AcDbEntity
  8
0
  6
Continuous
 62
     7
370
    15
100
AcDbLine
 10
73.0345789958
 20
74.4886093341
 30
0.0
 11
73.0345789958
 21
78.3379517995
 31
0.0
  0
LINE
  5
243
330
1F
100
AcDbEntity
  8
0
  6
Continuous
 62
     7
370
    15
100
AcDbLine
 10
72.0345788319
 20
170.2066950999
 30
0.0
 11
72.0345788319
 21
166.1379553877
 31
0.0
  0
LINE
  5
244
330
1F
100
AcDbEntity
  8
0
  6
Continuous
 62
     7
370
    15
100
AcDbLine
 10
52.034579279
 20
166.1379553877
 30
0.0
 11
52.034579279
 21
170.2066950999
 31
0.0
  0
LINE
  5
245
330
1F
100
AcDbEntity
  8
0
  6
Continuous
 62
     7
370
    15
100
AcDbLine
 10
51.034579115
 20
78.3379517995
 30
0.0
 11
51.034579115
 21
74.4886093341
 31
0.0
  0
LINE
  5
246
330
1F
100
AcDbEntity
  8
0
  6
Continuous
 62
     7
370
    15
100
AcDbLine
 10
24.3758801986
 20
153.5879552864
 30
0.0
 11
30.6845773627
 21
153.5879552864
 31
0.0
  0
LINE
  5
247
330
1F
100
AcDbEntity
  8
0
  6
Continuous
 62
     7
370
    15
100
AcDbLine
 10
30.6845773627
 20
159.8966524504
 30
0.0
 11
30.6845773627
 21
153.5879552864
 31
0.0
  0
SPLINE
  5
248
330
1F
100
AcDbEntity
  8
0
  6
Continuous
 62
     7
370
    15
100
AcDbSpline
210
0.0
220
0.0
230
1.0
 70
     8
 71
     3
 72
    30
 73
    26
 74
     0
 42
0.00000001
 43
0.00000001
 12
1.0
 22
0.0
 32
0.0
 13
1.0
 23
0.0
 33
0.0
 40
0.0
 40
0.0
 40
0.0
 40
0.0
 40
0.1249999999999996
 40
0.1249999999999996
 40
0.1874999999999994
 40
0.1874999999999994
 40
0.2499999999999993
 40
0.2499999999999993
 40
0.3749999999999992
 40
0.3749999999999992
 40
0.4374999999999993
 40
0.4374999999999993
 40
0.4999999999999994
 40
0.4999999999999994
 40
0.6249999999999992
 40
0.6249999999999992
 40
0.6874999999999993
 40
0.6874999999999993
 40
0.7499999999999994
 40
0.7499999999999994
 40
0.8124999999999997
 40
0.8124999999999997
 40
0.8749999999999998
 40
0.8749999999999998
 40
1.0
 40
1.0
 40
1.0
 40
1.0
 10
63.0345790554415
 20
72.2479545937991
 30
0.0
 10
63.69718185325853
 20
72.26120930096202
 30
0.0
 10
64.34810595285387
 20
72.2873941717466
 30
0.0
 10
65.30782472075158
 20
72.34418082454708
 30
0.0
 10
65.62493308038637
 20
72.36603037542258
 30
0.0
 10
66.25345999259316
 20
72.41526387152298
 30
0.0
 10
66.56542592268158
 20
72.4427362602765
 30
0.0
 10
67.47230324867638
 20
72.53080998196982
 30
0.0
 10
68.04542069245703
 20
72.59755683794985
 30
0.0
 10
68.85884076734942
 20
72.7050932491946
 30
0.0
 10
69.12339575936579
 20
72.74235354270324
 30
0.0
 10
69.6306584467735
 20
72.81766095443457
 30
0.0
 10
69.8722027194075
 20
72.85550837945337
 30
0.0
 10
70.56173274890449
 20
72.96824068605011
 30
0.0
 10
70.97496354252195
 20
73.04234429113447
 30
0.0
 10
71.52334325168322
 20
73.14622347148465
 30
0.0
 10
71.69329800522353
 20
73.17947922454313
 30
0.0
 10
72.00187859429059
 20
73.24124248894373
 30
0.0
 10
72.14147424048136
 20
73.26993348049405
 30
0.0
 10
72.39159798971501
 20
73.32222521433499
 30
0.0
 10
72.50212655320763
 20
73.34582702524183
 30
0.0
 10
72.69357282442171
 20
73.38720699923171
 30
0.0
 10
72.77477071167296
 20
73.40504772587616
 30
0.0
 10
72.96933744143388
 20
73.44811132869883
 30
0.0
 10
73.03457905544151
 20
73.46296000057025
 30
0.0
 10
73.03457905544151
 20
73.46296000057026
 30
0.0
  0
SPLINE
  5
249
330
1F
100
AcDbEntity
  8
0
  6
Continuous
 62
     7
370
    15
100
AcDbSpline
210
0.0
220
0.0
230
1.0
 70
     8
 71
     3
 72
    30
 73
    26
 74
     0
 42
0.00000001
 43
0.00000001
 12
1.0
 22
0.0
 32
0.0
 13
1.0
 23
0.0
 33
0.0
 40
0.0
 40
0.0
 40
0.0
 40
0.0
 40
0.1250000000000002
 40
0.1250000000000002
 40
0.1875000000000003
 40
0.1875000000000003
 40
0.2500000000000004
 40
0.2500000000000004
 40
0.3750000000000001
 40
0.3750000000000001
 40
0.4374999999999998
 40
0.4374999999999998
 40
0.4999999999999996
 40
0.4999999999999996
 40
0.6249999999999996
 40
0.6249999999999996
 40
0.6874999999999997
 40
0.6874999999999997
 40
0.7499999999999997
 40
0.7499999999999997
 40
0.8124999999999998
 40
0.8124999999999998
 40
0.8749999999999999
 40
0.8749999999999999
 40
1.0
 40
1.0
 40
1.0
 40
1.0
 10
51.03457905544152
 20
73.46296000057026
 30
0.0
 10
51.03457905544152
 20
73.46296000057026
 30
0.0
 10
51.09980842920884
 20
73.44811992398145
 30
0.0
 10
51.29119984461779
 20
73.40575035975183
 30
0.0
 10
51.37070587426968
 20
73.38827225697266
 30
0.0
 10
51.56181743587279
 20
73.34694397042036
 30
0.0
 10
51.67380631744661
 20
73.32301869696265
 30
0.0
 10
52.05063329095595
 20
73.24421218049574
 30
0.0
 10
52.35778064065509
 20
73.18190616051929
 30
0.0
 10
52.90170463031263
 20
73.07877684027991
 30
0.0
 10
53.09807173002055
 20
73.0425929212334
 30
0.0
 10
53.5143093731979
 20
72.9687981370329
 30
0.0
 10
53.73334594566774
 20
72.93132427826126
 30
0.0
 10
54.42239330559903
 20
72.81861233492151
 30
0.0
 10
54.92402249103069
 20
72.74307623744775
 30
0.0
 10
55.74241970703162
 20
72.63468298043024
 30
0.0
 10
56.02469937203938
 20
72.59961074876698
 30
0.0
 10
56.59963382395597
 20
72.53337528816714
 30
0.0
 10
56.89349519823102
 20
72.5020485914124
 30
0.0
 10
57.49395074947061
 20
72.44363981983149
 30
0.0
 10
57.80054454928847
 20
72.41655658464863
 30
0.0
 10
58.42677610994485
 20
72.36729683003504
 30
0.0
 10
58.74801754399749
 20
72.34503485022739
 30
0.0
 10
59.71762146412291
 20
72.28746794305913
 30
0.0
 10
60.37202438244167
 20
72.26120833827312
 30
0.0
 10
61.03457905544151
 20
72.2479545937991
 30
0.0
  0
SPLINE
  5
24A
330
1F
100
AcDbEntity
  8
0
  6
Continuous
 62
     7
370
    15
100
AcDbSpline
210
0.0
220
0.0
230
1.0
 70
     8
 71
     3
 72
    54
 73
    50
 74
     0
 42
0.00000001
 43
0.00000001
 12
1.0
 22
0.0
 32
0.0
 13
1.0
 23
0.0
 33
0.0
 40
0.0
 40
0.0
 40
0.0
 40
0.0
 40
0.0625000000000001
 40
0.0625000000000001
 40
0.0937500000000001
 40
0.0937500000000001
 40
0.1250000000000001
 40
0.1250000000000001
 40
0.1875000000000002
 40
0.1875000000000002
 40
0.2187500000000001
 40
0.2187500000000001
 40
0.2500000000000001
 40
0.2500000000000001
 40
0.3125
 40
0.3125
 40
0.3437499999999999
 40
0.3437499999999999
 40
0.3749999999999999
 40
0.3749999999999999
 40
0.4062499999999998
 40
0.4062499999999998
 40
0.4374999999999998
 40
0.4374999999999998
 40
0.4999999999999997
 40
0.4999999999999997
 40
0.5624999999999997
 40
0.5624999999999997
 40
0.6249999999999996
 40
0.6249999999999996
 40
0.6562499999999994
 40
0.6562499999999994
 40
0.6874999999999994
 40
0.6874999999999994
 40
0.7187499999999993
 40
0.7187499999999993
 40
0.7499999999999993
 40
0.7499999999999993
 40
0.8124999999999992
 40
0.8124999999999992
 40
0.8437499999999992
 40
0.8437499999999992
 40
0.8749999999999993
 40
0.8749999999999993
 40
0.9374999999999997
 40
0.9374999999999997
 40
0.9687499999999998
 40
0.9687499999999998
 40
1.0
 40
1.0
 40
1.0
 40
1.0
 10
52.03457905544151
 20
171.2277484492626
 30
0.0
 10
52.03457905544151
 20
171.2277484492626
 30
0.0
 10
52.0997319388942
 20
171.2411750590513
 30
0.0
 10
52.29095086205933
 20
171.2794251756638
 30
0.0
 10
52.37038940225695
 20
171.2951946659772
 30
0.0
 10
52.56135224772272
 20
171.3324282026186
 30
0.0
 10
52.67329319625117
 20
171.3539658111307
 30
0.0
 10
53.05005251447886
 20
171.4247770242245
 30
0.0
 10
53.35721007812958
 20
171.4806033914894
 30
0.0
 10
53.90125783088865
 20
171.5723524318312
 30
0.0
 10
54.09763737631445
 20
171.6044344271113
 30
0.0
 10
54.51434126378448
 20
171.6696286275318
 30
0.0
 10
54.73362877933055
 20
171.7025882098347
 30
0.0
 10
55.42345669658467
 20
171.8011341994076
 30
0.0
 10
55.92564471138451
 20
171.8664021191814
 30
0.0
 10
56.74482045153485
 20
171.9581099628372
 30
0.0
 10
57.02769633358782
 20
171.9874738292509
 30
0.0
 10
57.60352013377509
 20
172.0420634149849
 30
0.0
 10
57.8977833678139
 20
172.0674408591157
 30
0.0
 10
58.4989313677923
 20
172.1136999552755
 30
0.0
 10
58.80581583623319
 20
172.1345827678674
 30
0.0
 10
59.43248940660274
 20
172.1711854571543
 30
0.0
 10
59.75417994247157
 20
172.1869692970607
 30
0.0
 10
60.72271938319309
 20
172.2249177306289
 30
0.0
 10
61.37255728543644
 20
172.2378468022894
 30
0.0
 10
62.68037025850548
 20
172.2380590677523
 30
0.0
 10
63.34479775738543
 20
172.2249112881491
 30
0.0
 10
64.62851685665348
 20
172.1747546453996
 30
0.0
 10
65.25265657205574
 20
172.1379919437654
 30
0.0
 10
66.16221384972086
 20
172.0682164222036
 30
0.0
 10
66.46182094350766
 20
172.0424079107381
 30
0.0
 10
67.03937447689574
 20
171.9876889029736
 30
0.0
 10
67.31885522539484
 20
171.9586782535572
 30
0.0
 10
67.85967542115763
 20
171.8982222968777
 30
0.0
 10
68.12101425431402
 20
171.8667754873371
 30
0.0
 10
68.62546197454292
 20
171.8023048789447
 30
0.0
 10
68.86949759475024
 20
171.7691460529582
 30
0.0
 10
69.5668687357154
 20
171.6695746848874
 30
0.0
 10
69.97951826872045
 20
171.6040636994226
 30
0.0
 10
70.52276434012882
 20
171.512535601908
 30
0.0
 10
70.69112990122976
 20
171.4831464153634
 30
0.0
 10
71.00171369221178
 20
171.4275397374618
 30
0.0
 10
71.14348243440121
 20
171.4013972258877
 30
0.0
 10
71.52002967590893
 20
171.3306360293395
 30
0.0
 10
71.71012630862398
 20
171.2930356056719
 30
0.0
 10
71.90351115917008
 20
171.2543641169833
 30
0.0
 10
71.95267177260254
 20
171.2444077962439
 30
0.0
 10
72.01816784037437
 20
171.2311069074601
 30
0.0
 10
72.03457905544151
 20
171.2277484492626
 30
0.0
 10
72.03457905544151
 20
171.2277484492626
 30
0.0
  0
SPLINE
  5
24B
330
1F
100
AcDbEntity
  8
0
  6
Continuous
 62
     7
370
    15
100
AcDbSpline
210
0.0
220
0.0
230
1.0
 70
     8
 71
     3
 72
    22
 73
    18
 74
     0
 42
0.00000001
 43
0.00000001
 12
1.0
 22
0.0
 32
0.0
 13
1.0
 23
0.0
 33
0.0
 40
0.0
 40
0.0
 40
0.0
 40
0.0
 40
0.2500000000000002
 40
0.2500000000000002
 40
0.3750000000000003
 40
0.3750000000000003
 40
0.5000000000000004
 40
0.5000000000000004
 40
0.6250000000000004
 40
0.6250000000000004
 40
0.7500000000000004
 40
0.7500000000000004
 40
0.8750000000000004
 40
0.8750000000000004
 40
0.9375000000000002
 40
0.9375000000000002
 40
1.0
 40
1.0
 40
1.0
 40
1.0
 10
23.08361629455458
 20
153.5879535935991
 30
0.0
 10
23.90396502415112
 20
154.6071999354637
 30
0.0
 10
24.74211563812132
 20
155.566308085403
 30
0.0
 10
26.00250917561275
 20
156.9087871629123
 30
0.0
 10
26.42603632946599
 20
157.3429957456523
 30
0.0
 10
27.24485176145282
 20
158.1546234611544
 30
0.0
 10
27.64168814489217
 20
158.5339037540912
 30
0.0
 10
28.39906664187693
 20
159.2368623331122
 30
0.0
 10
28.7613547955922
 20
159.5618911508128
 30
0.0
 10
29.40620157459922
 20
160.1269064742037
 30
0.0
 10
29.69266191832341
 20
160.3706100684102
 30
0.0
 10
30.17536072625697
 20
160.7748099960552
 30
0.0
 10
30.36179104965578
 20
160.9272471891007
 30
0.0
 10
30.5528042802987
 20
161.0825747367094
 30
0.0
 10
30.60168939088204
 20
161.1220795167594
 30
0.0
 10
30.66775018033599
 20
161.1753886374281
 30
0.0
 10
30.6845790554415
 20
161.188916354486
 30
0.0
 10
30.68457905544152
 20
161.188916354486
 30
0.0
  0
ARC
  5
24C
330
1F
100
AcDbEntity
  8
0
  6
Continuous
 62
     7
370
    15
100
AcDbCircle
 10
62.0345790554
 20
122.2379535936
 30
0.0
 40
50.00000000000001
100
AcDbArc
 50
268.8540080016
 51
271.1459919984
  0
LINE
  5
24D
330
1F
100
AcDbEntity
  8
0
  6
HIDDEN
 62
     7
370
     0
100
AcDbLine
 10
57.8552848343
 20
144.2379534744
 30
0.0
 11
57.8345792052
 21
144.2379534744
 31
0.0
  0
LINE
  5
24E
330
1F
100
AcDbEntity
  8
0
  6
HIDDEN
 62
     7
370
     0
100
AcDbLine
 10
66.2345789057
 20
144.2379534744
 30
0.0
 11
57.8552848343
 21
144.2379534744
 31
0.0
  0
LINE
  5
24F
330
1F
100
AcDbEntity
  8
0
  6
HIDDEN
 62
     7
370
     0
100
AcDbLine
 10
67.0345789437
 20
143.4379529707
 30
0.0
 11
57.0345791672
 21
143.4379529707
 31
0.0
  0
LINE
  5
250
330
1F
100
AcDbEntity
  8
0
  6
HIDDEN
 62
     7
370
     0
100
AcDbLine
 10
67.0345789437
 20
133.237953534
 30
0.0
 11
57.0345791672
 21
133.237953534
 31
0.0
  0
LINE
  5
251
330
1F
100
AcDbEntity
  8
0
  6
HIDDEN
 62
     7
370
     0
100
AcDbLine
 10
58.9053959735
 20
131.7379532881
 30
0.0
 11
58.5345789474
 21
131.7379532881
 31
0.0
  0
LINE
  5
252
330
1F
100
AcDbEntity
  8
0
  6
HIDDEN
 62
     7
370
     0
100
AcDbLine
 10
58.5518337936
 20
131.7379532881
 30
0.0
 11
65.5345791635
 21
131.7379532881
 31
0.0
  0
LINE
  5
253
330
1F
100
AcDbEntity
  8
0
  6
HIDDEN
 62
     7
370
     0
100
AcDbLine
 10
63.2229031213
 20
138.2379543536
 30
0.0
 11
64.907098949
 21
138.2379543536
 31
0.0
  0
LINE
  5
254
330
1F
100
AcDbEntity
  8
0
  6
HIDDEN
 62
     7
370
     0
100
AcDbLine
 10
63.2229031213
 20
144.2379534744
 30
0.0
 11
64.907098949
 21
144.2379534744
 31
0.0
  0
LINE
  5
255
330
1F
100
AcDbEntity
  8
0
  6
HIDDEN
 62
     7
370
     0
100
AcDbLine
 10
59.5469037686
 20
131.7379532881
 30
0.0
 11
64.5222543423
 21
131.7379532881
 31
0.0
  0
LINE
  5
256
330
1F
100
AcDbEntity
  8
0
  6
HIDDEN
 62
     7
370
     0
100
AcDbLine
 10
63.2229031213
 20
138.2379543536
 30
0.0
 11
63.2229031213
 21
144.2379534744
 31
0.0
  0
LINE
  5
257
330
1F
100
AcDbEntity
  8
0
  6
HIDDEN
 62
     7
370
     0
100
AcDbLine
 10
60.3503832277
 20
138.2379543536
 30
0.0
 11
63.2229031213
 21
138.2379543536
 31
0.0
  0
LINE
  5
258
330
1F
100
AcDbEntity
  8
0
  6
HIDDEN
 62
     7
370
     0
100
AcDbLine
 10
60.3503832277
 20
144.2379534744
 30
0.0
 11
63.2229031213
 21
144.2379534744
 31
0.0
  0
LINE
  5
259
330
1F
100
AcDbEntity
  8
0
  6
HIDDEN
 62
     7
370
     0
100
AcDbLine
 10
60.3503832277
 20
138.2379543536
 30
0.0
 11
60.3503832277
 21
144.2379534744
 31
0.0
  0
LINE
  5
25A
330
1F
100
AcDbEntity
  8
0
  6
HIDDEN
 62
     7
370
     0
100
AcDbLine
 10
60.3503832277
 20
138.2379543536
 30
0.0
 11
59.1620591619
 21
138.2379543536
 31
0.0
  0
LINE
  5
25B
330
1F
100
AcDbEntity
  8
0
  6
HIDDEN
 62
     7
370
     0
100
AcDbLine
 10
60.3503832277
 20
144.2379534744
 30
0.0
 11
59.1620591619
 21
144.2379534744
 31
0.0
  0
LINE
  5
25C
330
1F
100
AcDbEntity
  8
0
  6
HIDDEN
 62
     7
370
     0
100
AcDbLine
 10
63.7187748831
 20
138.2379543536
 30
0.0
 11
63.7187748831
 21
144.2379534744
 31
0.0
  0
LINE
  5
25D
330
1F
100
AcDbEntity
  8
0
  6
HIDDEN
 62
     7
370
     0
100
AcDbLine
 10
64.907098949
 20
138.2379543536
 30
0.0
 11
64.907098949
 21
144.2379534744
 31
0.0
  0
LINE
  5
25E
330
1F
100
AcDbEntity
  8
0
  6
HIDDEN
 62
     7
370
     0
100
AcDbLine
 10
63.7187748831
 20
138.2379543536
 30
0.0
 11
64.907098949
 21
138.2379543536
 31
0.0
  0
LINE
  5
25F
330
1F
100
AcDbEntity
  8
0
  6
HIDDEN
 62
     7
370
     0
100
AcDbLine
 10
63.7187748831
 20
144.2379534744
 30
0.0
 11
64.907098949
 21
144.2379534744
 31
0.0
  0
LINE
  5
260
330
1F
100
AcDbEntity
  8
0
  6
HIDDEN
 62
     7
370
     0
100
AcDbLine
 10
60.8462549896
 20
138.2379543536
 30
0.0
 11
60.8462549896
 21
144.2379534744
 31
0.0
  0
LINE
  5
261
330
1F
100
AcDbEntity
  8
0
  6
HIDDEN
 62
     7
370
     0
100
AcDbLine
 10
59.1620591619
 20
138.2379543536
 30
0.0
 11
59.1620591619
 21
144.2379534744
 31
0.0
  0
LINE
  5
262
330
1F
100
AcDbEntity
  8
0
  6
HIDDEN
 62
     7
370
     0
100
AcDbLine
 10
60.8462549896
 20
138.2379543536
 30
0.0
 11
59.1620591619
 21
138.2379543536
 31
0.0
  0
LINE
  5
263
330
1F
100
AcDbEntity
  8
0
  6
HIDDEN
 62
     7
370
     0
100
AcDbLine
 10
60.8462549896
 20
144.2379534744
 30
0.0
 11
59.1620591619
 21
144.2379534744
 31
0.0
  0
LINE
  5
264
330
1F
100
AcDbEntity
  8
0
  6
HIDDEN
 62
     7
370
     0
100
AcDbLine
 10
60.8462549896
 20
138.2379543536
 30
0.0
 11
63.7187748831
 21
138.2379543536
 31
0.0
  0
LINE
  5
265
330
1F
100
AcDbEntity
  8
0
  6
HIDDEN
 62
     7
370
     0
100
AcDbLine
 10
60.8462549896
 20
144.2379534744
 30
0.0
 11
63.7187748831
 21
144.2379534744
 31
0.0
  0
LINE
  5
266
330
1F
100
AcDbEntity
  8
0
  6
HIDDEN
 62
     7
370
     0
100
AcDbLine
 10
67.0197685864
 20
143.4379529707
 30
0.0
 11
57.0360618327
 21
143.4379529707
 31
0.0
  0
LINE
  5
267
330
1F
100
AcDbEntity
  8
0
  6
HIDDEN
 62
     7
370
     0
100
AcDbLine
 10
67.0197685864
 20
133.237953534
 30
0.0
 11
57.0360618327
 21
133.237953534
 31
0.0
  0
LINE
  5
268
330
1F
100
AcDbEntity
  8
0
  6
HIDDEN
 62
     7
370
     0
100
AcDbLine
 10
65.5344445874
 20
131.7379532881
 30
0.0
 11
58.5347135235
 21
131.7379532881
 31
0.0
  0
LINE
  5
269
330
1F
100
AcDbEntity
  8
0
  6
HIDDEN
 62
     7
370
     0
100
AcDbLine
 10
66.2198542301
 20
144.2379534744
 30
0.0
 11
57.8358467352
 21
144.2379534744
 31
0.0
  0
LINE
  5
26A
330
1F
100
AcDbEntity
  8
0
  6
HIDDEN
 62
     7
370
     0
100
AcDbLine
 10
62.6367658293
 20
144.2379534744
 30
0.0
 11
59.8906716947
 21
144.2379534744
 31
0.0
  0
LINE
  5
26B
330
1F
100
AcDbEntity
  8
0
  6
HIDDEN
 62
     7
370
     0
100
AcDbLine
 10
62.6367658293
 20
138.2379543536
 30
0.0
 11
59.8906716947
 21
138.2379543536
 31
0.0
  0
LINE
  5
26C
330
1F
100
AcDbEntity
  8
0
  6
HIDDEN
 62
     7
370
     0
100
AcDbLine
 10
64.5156757124
 20
131.7379532881
 30
0.0
 11
59.5534823984
 21
131.7379532881
 31
0.0
  0
LINE
  5
26D
330
1F
100
AcDbEntity
  8
0
  6
HIDDEN
 62
     7
370
     0
100
AcDbLine
 10
64.7806730737
 20
138.2379543536
 30
0.0
 11
62.6367658293
 21
138.2379543536
 31
0.0
  0
LINE
  5
26E
330
1F
100
AcDbEntity
  8
0
  6
HIDDEN
 62
     7
370
     0
100
AcDbLine
 10
62.6367658293
 20
138.2379543536
 30
0.0
 11
62.6367658293
 21
144.2379534744
 31
0.0
  0
LINE
  5
26F
330
1F
100
AcDbEntity
  8
0
  6
HIDDEN
 62
     7
370
     0
100
AcDbLine
 10
64.7806730737
 20
144.2379534744
 30
0.0
 11
62.6367658293
 21
144.2379534744
 31
0.0
  0
LINE
  5
270
330
1F
100
AcDbEntity
  8
0
  6
HIDDEN
 62
     7
370
     0
100
AcDbLine
 10
59.2884850372
 20
138.2379543536
 30
0.0
 11
59.8906716947
 21
138.2379543536
 31
0.0
  0
LINE
  5
271
330
1F
100
AcDbEntity
  8
0
  6
HIDDEN
 62
     7
370
     0
100
AcDbLine
 10
59.8906716947
 20
138.2379543536
 30
0.0
 11
59.8906716947
 21
144.2379534744
 31
0.0
  0
LINE
  5
272
330
1F
100
AcDbEntity
  8
0
  6
HIDDEN
 62
     7
370
     0
100
AcDbLine
 10
59.2884850372
 20
144.2379534744
 30
0.0
 11
59.8906716947
 21
144.2379534744
 31
0.0
  0
LINE
  5
273
330
1F
100
AcDbEntity
  8
0
  6
HIDDEN
 62
     7
370
     0
100
AcDbLine
 10
64.1784864162
 20
138.2379543536
 30
0.0
 11
64.1784864162
 21
144.2379534744
 31
0.0
  0
LINE
  5
274
330
1F
100
AcDbEntity
  8
0
  6
HIDDEN
 62
     7
370
     0
100
AcDbLine
 10
64.7806730737
 20
138.2379543536
 30
0.0
 11
64.7806730737
 21
144.2379534744
 31
0.0
  0
LINE
  5
275
330
1F
100
AcDbEntity
  8
0
  6
HIDDEN
 62
     7
370
     0
100
AcDbLine
 10
64.7806730737
 20
138.2379543536
 30
0.0
 11
64.1784864162
 21
138.2379543536
 31
0.0
  0
LINE
  5
276
330
1F
100
AcDbEntity
  8
0
  6
HIDDEN
 62
     7
370
     0
100
AcDbLine
 10
64.7806730737
 20
144.2379534744
 30
0.0
 11
64.1784864162
 21
144.2379534744
 31
0.0
  0
LINE
  5
277
330
1F
100
AcDbEntity
  8
0
  6
HIDDEN
 62
     7
370
     0
100
AcDbLine
 10
61.4323922815
 20
138.2379543536
 30
0.0
 11
61.4323922815
 21
144.2379534744
 31
0.0
  0
LINE
  5
278
330
1F
100
AcDbEntity
  8
0
  6
HIDDEN
 62
     7
370
     0
100
AcDbLine
 10
59.2884850372
 20
138.2379543536
 30
0.0
 11
59.2884850372
 21
144.2379534744
 31
0.0
  0
LINE
  5
279
330
1F
100
AcDbEntity
  8
0
  6
HIDDEN
 62
     7
370
     0
100
AcDbLine
 10
61.4323922815
 20
138.2379543536
 30
0.0
 11
59.2884850372
 21
138.2379543536
 31
0.0
  0
LINE
  5
27A
330
1F
100
AcDbEntity
  8
0
  6
HIDDEN
 62
     7
370
     0
100
AcDbLine
 10
61.4323922815
 20
144.2379534744
 30
0.0
 11
59.2884850372
 21
144.2379534744
 31
0.0
  0
LINE
  5
27B
330
1F
100
AcDbEntity
  8
0
  6
HIDDEN
 62
     7
370
     0
100
AcDbLine
 10
61.4323922815
 20
138.2379543536
 30
0.0
 11
64.1784864162
 21
138.2379543536
 31
0.0
  0
LINE
  5
27C
330
1F
100
AcDbEntity
  8
0
  6
HIDDEN
 62
     7
370
     0
100
AcDbLine
 10
61.4323922815
 20
144.2379534744
 30
0.0
 11
64.1784864162
 21
144.2379534744
 31
0.0
  0
LINE
  5
27D
330
1F
100
AcDbEntity
  8
0
  6
HIDDEN
 62
     7
370
     0
100
AcDbLine
 10
51.034579115
 20
117.2581792377
 30
0.0
 11
51.034579115
 21
127.2376307786
 31
0.0
  0
LINE
  5
27E
330
1F
100
AcDbEntity
  8
0
  6
HIDDEN
 62
     7
370
     0
100
AcDbLine
 10
52.5345793609
 20
118.742387978
 30
0.0
 11
52.5345793609
 21
125.7335192092
 31
0.0
  0
LINE
  5
27F
330
1F
100
AcDbEntity
  8
0
  6
HIDDEN
 62
     7
370
     0
100
AcDbLine
 10
40.8345796783
 20
117.2581792377
 30
0.0
 11
40.8345796783
 21
127.2376307786
 31
0.0
  0
LINE
  5
280
330
1F
100
AcDbEntity
  8
0
  6
HIDDEN
 62
     7
370
     0
100
AcDbLine
 10
40.0345791747
 20
118.0524078697
 30
0.0
 11
40.0345791747
 21
126.4366048888
 31
0.0
  0
LINE
  5
281
330
1F
100
AcDbEntity
  8
0
  6
HIDDEN
 62
     7
370
     0
100
AcDbLine
 10
46.0345782955
 20
123.1796120444
 30
0.0
 11
46.0345782955
 21
125.0720347777
 31
0.0
  0
LINE
  5
282
330
1F
100
AcDbEntity
  8
0
  6
HIDDEN
 62
     7
370
     0
100
AcDbLine
 10
40.0345791747
 20
123.1796120444
 30
0.0
 11
40.0345791747
 21
125.0720347777
 31
0.0
  0
LINE
  5
283
330
1F
100
AcDbEntity
  8
0
  6
HIDDEN
 62
     7
370
     0
100
AcDbLine
 10
52.5345793609
 20
119.7490566444
 30
0.0
 11
52.5345793609
 21
124.7268505428
 31
0.0
  0
LINE
  5
284
330
1F
100
AcDbEntity
  8
0
  6
HIDDEN
 62
     7
370
     0
100
AcDbLine
 10
46.0345782955
 20
123.1796120444
 30
0.0
 11
40.0345791747
 21
123.1796120444
 31
0.0
  0
LINE
  5
285
330
1F
100
AcDbEntity
  8
0
  6
HIDDEN
 62
     7
370
     0
100
AcDbLine
 10
46.0345782955
 20
123.1796120444
 30
0.0
 11
46.0345782955
 21
120.3455309184
 31
0.0
  0
LINE
  5
286
330
1F
100
AcDbEntity
  8
0
  6
HIDDEN
 62
     7
370
     0
100
AcDbLine
 10
40.0345791747
 20
123.1796120444
 30
0.0
 11
40.0345791747
 21
120.3455309184
 31
0.0
  0
LINE
  5
287
330
1F
100
AcDbEntity
  8
0
  6
HIDDEN
 62
     7
370
     0
100
AcDbLine
 10
46.0345782955
 20
120.3455309184
 30
0.0
 11
40.0345791747
 21
120.3455309184
 31
0.0
  0
LINE
  5
288
330
1F
100
AcDbEntity
  8
0
  6
HIDDEN
 62
     7
370
     0
100
AcDbLine
 10
46.0345782955
 20
120.3455309184
 30
0.0
 11
46.0345782955
 21
119.4038724095
 31
0.0
  0
LINE
  5
289
330
1F
100
AcDbEntity
  8
0
  6
HIDDEN
 62
     7
370
     0
100
AcDbLine
 10
40.0345791747
 20
120.3455309184
 30
0.0
 11
40.0345791747
 21
119.4038724095
 31
0.0
  0
LINE
  5
28A
330
1F
100
AcDbEntity
  8
0
  6
HIDDEN
 62
     7
370
     0
100
AcDbLine
 10
46.0345782955
 20
124.1303762688
 30
0.0
 11
40.0345791747
 21
124.1303762688
 31
0.0
  0
LINE
  5
28B
330
1F
100
AcDbEntity
  8
0
  6
HIDDEN
 62
     7
370
     0
100
AcDbLine
 10
46.0345782955
 20
125.0720347777
 30
0.0
 11
40.0345791747
 21
125.0720347777
 31
0.0
  0
LINE
  5
28C
330
1F
100
AcDbEntity
  8
0
  6
HIDDEN
 62
     7
370
     0
100
AcDbLine
 10
46.0345782955
 20
124.1303762688
 30
0.0
 11
46.0345782955
 21
125.0720347777
 31
0.0
  0
LINE
  5
28D
330
1F
100
AcDbEntity
  8
0
  6
HIDDEN
 62
     7
370
     0
100
AcDbLine
 10
40.0345791747
 20
124.1303762688
 30
0.0
 11
40.0345791747
 21
125.0720347777
 31
0.0
  0
LINE
  5
28E
330
1F
100
AcDbEntity
  8
0
  6
HIDDEN
 62
     7
370
     0
100
AcDbLine
 10
46.0345782955
 20
121.2962951428
 30
0.0
 11
40.0345791747
 21
121.2962951428
 31
0.0
  0
LINE
  5
28F
330
1F
100
AcDbEntity
  8
0
  6
HIDDEN
 62
     7
370
     0
100
AcDbLine
 10
46.0345782955
 20
119.4038724095
 30
0.0
 11
40.0345791747
 21
119.4038724095
 31
0.0
  0
LINE
  5
290
330
1F
100
AcDbEntity
  8
0
  6
HIDDEN
 62
     7
370
     0
100
AcDbLine
 10
46.0345782955
 20
121.2962951428
 30
0.0
 11
46.0345782955
 21
119.4038724095
 31
0.0
  0
LINE
  5
291
330
1F
100
AcDbEntity
  8
0
  6
HIDDEN
 62
     7
370
     0
100
AcDbLine
 10
40.0345791747
 20
121.2962951428
 30
0.0
 11
40.0345791747
 21
119.4038724095
 31
0.0
  0
LINE
  5
292
330
1F
100
AcDbEntity
  8
0
  6
HIDDEN
 62
     7
370
     0
100
AcDbLine
 10
46.0345782955
 20
124.1303762688
 30
0.0
 11
46.0345782955
 21
121.2962951428
 31
0.0
  0
LINE
  5
293
330
1F
100
AcDbEntity
  8
0
  6
HIDDEN
 62
     7
370
     0
100
AcDbLine
 10
40.0345791747
 20
124.1303762688
 30
0.0
 11
40.0345791747
 21
121.2962951428
 31
0.0
  0
LINE
  5
294
330
1F
100
AcDbEntity
  8
0
  6
HIDDEN
 62
     7
370
     0
100
AcDbLine
 10
84.0345789362
 20
118.0526192799
 30
0.0
 11
84.0345789362
 21
126.4366686844
 31
0.0
  0
LINE
  5
295
330
1F
100
AcDbEntity
  8
0
  6
HIDDEN
 62
     7
370
     0
100
AcDbLine
 10
83.2345784326
 20
117.2424072899
 30
0.0
 11
83.2345784326
 21
127.2292148821
 31
0.0
  0
LINE
  5
296
330
1F
100
AcDbEntity
  8
0
  6
HIDDEN
 62
     7
370
     0
100
AcDbLine
 10
73.0345789958
 20
117.2424072899
 30
0.0
 11
73.0345789958
 21
127.2292148821
 31
0.0
  0
LINE
  5
297
330
1F
100
AcDbEntity
  8
0
  6
HIDDEN
 62
     7
370
     0
100
AcDbLine
 10
71.53457875
 20
118.745789168
 30
0.0
 11
71.53457875
 21
125.7301180192
 31
0.0
  0
LINE
  5
298
330
1F
100
AcDbEntity
  8
0
  6
HIDDEN
 62
     7
370
     0
100
AcDbLine
 10
84.0345789362
 20
124.2091213387
 30
0.0
 11
84.0345789362
 21
121.397100276
 31
0.0
  0
LINE
  5
299
330
1F
100
AcDbEntity
  8
0
  6
HIDDEN
 62
     7
370
     0
100
AcDbLine
 10
78.0345798154
 20
124.2091213387
 30
0.0
 11
78.0345798154
 21
121.397100276
 31
0.0
  0
LINE
  5
29A
330
1F
100
AcDbEntity
  8
0
  6
HIDDEN
 62
     7
370
     0
100
AcDbLine
 10
71.53457875
 20
119.7599773329
 30
0.0
 11
71.53457875
 21
124.7159298543
 31
0.0
  0
LINE
  5
29B
330
1F
100
AcDbEntity
  8
0
  6
HIDDEN
 62
     7
370
     0
100
AcDbLine
 10
78.0345798154
 20
119.4259324145
 30
0.0
 11
78.0345798154
 21
121.397100276
 31
0.0
  0
LINE
  5
29C
330
1F
100
AcDbEntity
  8
0
  6
HIDDEN
 62
     7
370
     0
100
AcDbLine
 10
78.0345798154
 20
121.397100276
 30
0.0
 11
84.0345789362
 21
121.397100276
 31
0.0
  0
LINE
  5
29D
330
1F
100
AcDbEntity
  8
0
  6
HIDDEN
 62
     7
370
     0
100
AcDbLine
 10
84.0345789362
 20
119.4259324145
 30
0.0
 11
84.0345789362
 21
121.397100276
 31
0.0
  0
LINE
  5
29E
330
1F
100
AcDbEntity
  8
0
  6
HIDDEN
 62
     7
370
     0
100
AcDbLine
 10
78.0345798154
 20
125.0499747727
 30
0.0
 11
78.0345798154
 21
124.2091213387
 31
0.0
  0
LINE
  5
29F
330
1F
100
AcDbEntity
  8
0
  6
HIDDEN
 62
     7
370
     0
100
AcDbLine
 10
78.0345798154
 20
124.2091213387
 30
0.0
 11
84.0345789362
 21
124.2091213387
 31
0.0
  0
LINE
  5
2A0
330
1F
100
AcDbEntity
  8
0
  6
HIDDEN
 62
     7
370
     0
100
AcDbLine
 10
84.0345789362
 20
125.0499747727
 30
0.0
 11
84.0345789362
 21
124.2091213387
 31
0.0
  0
LINE
  5
2A1
330
1F
100
AcDbEntity
  8
0
  6
HIDDEN
 62
     7
370
     0
100
AcDbLine
 10
78.0345798154
 20
120.2667858485
 30
0.0
 11
84.0345789362
 21
120.2667858485
 31
0.0
  0
LINE
  5
2A2
330
1F
100
AcDbEntity
  8
0
  6
HIDDEN
 62
     7
370
     0
100
AcDbLine
 10
78.0345798154
 20
119.4259324145
 30
0.0
 11
84.0345789362
 21
119.4259324145
 31
0.0
  0
LINE
  5
2A3
330
1F
100
AcDbEntity
  8
0
  6
HIDDEN
 62
     7
370
     0
100
AcDbLine
 10
78.0345798154
 20
120.2667858485
 30
0.0
 11
78.0345798154
 21
119.4259324145
 31
0.0
  0
LINE
  5
2A4
330
1F
100
AcDbEntity
  8
0
  6
HIDDEN
 62
     7
370
     0
100
AcDbLine
 10
84.0345789362
 20
120.2667858485
 30
0.0
 11
84.0345789362
 21
119.4259324145
 31
0.0
  0
LINE
  5
2A5
330
1F
100
AcDbEntity
  8
0
  6
HIDDEN
 62
     7
370
     0
100
AcDbLine
 10
78.0345798154
 20
123.0788069112
 30
0.0
 11
84.0345789362
 21
123.0788069112
 31
0.0
  0
LINE
  5
2A6
330
1F
100
AcDbEntity
  8
0
  6
HIDDEN
 62
     7
370
     0
100
AcDbLine
 10
78.0345798154
 20
125.0499747727
 30
0.0
 11
84.0345789362
 21
125.0499747727
 31
0.0
  0
LINE
  5
2A7
330
1F
100
AcDbEntity
  8
0
  6
HIDDEN
 62
     7
370
     0
100
AcDbLine
 10
78.0345798154
 20
125.0499747727
 30
0.0
 11
78.0345798154
 21
123.0788069112
 31
0.0
  0
LINE
  5
2A8
330
1F
100
AcDbEntity
  8
0
  6
HIDDEN
 62
     7
370
     0
100
AcDbLine
 10
84.0345789362
 20
125.0499747727
 30
0.0
 11
84.0345789362
 21
123.0788069112
 31
0.0
  0
LINE
  5
2A9
330
1F
100
AcDbEntity
  8
0
  6
HIDDEN
 62
     7
370
     0
100
AcDbLine
 10
78.0345798154
 20
120.2667858485
 30
0.0
 11
78.0345798154
 21
123.0788069112
 31
0.0
  0
LINE
  5
2AA
330
1F
100
AcDbEntity
  8
0
  6
HIDDEN
 62
     7
370
     0
100
AcDbLine
 10
84.0345789362
 20
120.2667858485
 30
0.0
 11
84.0345789362
 21
123.0788069112
 31
0.0
  0
LINE
  5
2AB
330
1F
100
AcDbEntity
  8
0
  6
HIDDEN
 62
     7
370
     0
100
AcDbLine
 10
84.0345789362
 20
124.9167155508
 30
0.0
 11
84.0345789362
 21
126.4379534438
 31
0.0
  0
LINE
  5
2AC
330
1F
100
AcDbEntity
  8
0
  6
HIDDEN
 62
     7
370
     0
100
AcDbLine
 10
84.0345789362
 20
118.0379537434
 30
0.0
 11
84.0345789362
 21
124.9167155508
 31
0.0
  0
LINE
  5
2AD
330
1F
100
AcDbEntity
  8
0
  6
HIDDEN
 62
     7
370
     0
100
AcDbLine
 10
83.2345784326
 20
117.2379537054
 30
0.0
 11
83.2345784326
 21
127.2379534818
 31
0.0
  0
LINE
  5
2AE
330
1F
100
AcDbEntity
  8
0
  6
HIDDEN
 62
     7
370
     0
100
AcDbLine
 10
73.0345789958
 20
117.2379537054
 30
0.0
 11
73.0345789958
 21
127.2379534818
 31
0.0
  0
LINE
  5
2AF
330
1F
100
AcDbEntity
  8
0
  6
HIDDEN
 62
     7
370
     0
100
AcDbLine
 10
71.53457875
 20
124.4702551082
 30
0.0
 11
71.53457875
 21
125.7379537016
 31
0.0
  0
LINE
  5
2B0
330
1F
100
AcDbEntity
  8
0
  6
HIDDEN
 62
     7
370
     0
100
AcDbLine
 10
71.53457875
 20
124.4702551082
 30
0.0
 11
71.53457875
 21
118.7379534856
 31
0.0
  0
LINE
  5
2B1
330
1F
100
AcDbEntity
  8
0
  6
HIDDEN
 62
     7
370
     0
100
AcDbLine
 10
84.0345789362
 20
123.242872072
 30
0.0
 11
84.0345789362
 21
120.3967822982
 31
0.0
  0
LINE
  5
2B2
330
1F
100
AcDbEntity
  8
0
  6
HIDDEN
 62
     7
370
     0
100
AcDbLine
 10
78.0345798154
 20
123.242872072
 30
0.0
 11
78.0345798154
 21
120.3967822982
 31
0.0
  0
LINE
  5
2B3
330
1F
100
AcDbEntity
  8
0
  6
HIDDEN
 62
     7
370
     0
100
AcDbLine
 10
71.53457875
 20
119.7385785669
 30
0.0
 11
71.53457875
 21
124.7373286203
 31
0.0
  0
LINE
  5
2B4
330
1F
100
AcDbEntity
  8
0
  6
HIDDEN
 62
     7
370
     0
100
AcDbLine
 10
78.0345798154
 20
125.0840434838
 30
0.0
 11
78.0345798154
 21
123.242872072
 31
0.0
  0
LINE
  5
2B5
330
1F
100
AcDbEntity
  8
0
  6
HIDDEN
 62
     7
370
     0
100
AcDbLine
 10
78.0345798154
 20
123.242872072
 30
0.0
 11
84.0345789362
 21
123.242872072
 31
0.0
  0
LINE
  5
2B6
330
1F
100
AcDbEntity
  8
0
  6
HIDDEN
 62
     7
370
     0
100
AcDbLine
 10
84.0345789362
 20
125.0840434838
 30
0.0
 11
84.0345789362
 21
123.242872072
 31
0.0
  0
LINE
  5
2B7
330
1F
100
AcDbEntity
  8
0
  6
HIDDEN
 62
     7
370
     0
100
AcDbLine
 10
78.0345798154
 20
119.3918637034
 30
0.0
 11
78.0345798154
 21
120.3967822982
 31
0.0
  0
LINE
  5
2B8
330
1F
100
AcDbEntity
  8
0
  6
HIDDEN
 62
     7
370
     0
100
AcDbLine
 10
78.0345798154
 20
120.3967822982
 30
0.0
 11
84.0345789362
 21
120.3967822982
 31
0.0
  0
LINE
  5
2B9
330
1F
100
AcDbEntity
  8
0
  6
HIDDEN
 62
     7
370
     0
100
AcDbLine
 10
84.0345789362
 20
119.3918637034
 30
0.0
 11
84.0345789362
 21
120.3967822982
 31
0.0
  0
LINE
  5
2BA
330
1F
100
AcDbEntity
  8
0
  6
HIDDEN
 62
     7
370
     0
100
AcDbLine
 10
78.0345798154
 20
124.079124889
 30
0.0
 11
84.0345789362
 21
124.079124889
 31
0.0
  0
LINE
  5
2BB
330
1F
100
AcDbEntity
  8
0
  6
HIDDEN
 62
     7
370
     0
100
AcDbLine
 10
78.0345798154
 20
125.0840434838
 30
0.0
 11
84.0345789362
 21
125.0840434838
 31
0.0
  0
LINE
  5
2BC
330
1F
100
AcDbEntity
  8
0
  6
HIDDEN
 62
     7
370
     0
100
AcDbLine
 10
78.0345798154
 20
125.0840434838
 30
0.0
 11
78.0345798154
 21
124.079124889
 31
0.0
  0
LINE
  5
2BD
330
1F
100
AcDbEntity
  8
0
  6
HIDDEN
 62
     7
370
     0
100
AcDbLine
 10
84.0345789362
 20
125.0840434838
 30
0.0
 11
84.0345789362
 21
124.079124889
 31
0.0
  0
LINE
  5
2BE
330
1F
100
AcDbEntity
  8
0
  6
HIDDEN
 62
     7
370
     0
100
AcDbLine
 10
78.0345798154
 20
121.2330351152
 30
0.0
 11
84.0345789362
 21
121.2330351152
 31
0.0
  0
LINE
  5
2BF
330
1F
100
AcDbEntity
  8
0
  6
HIDDEN
 62
     7
370
     0
100
AcDbLine
 10
78.0345798154
 20
119.3918637034
 30
0.0
 11
84.0345789362
 21
119.3918637034
 31
0.0
  0
LINE
  5
2C0
330
1F
100
AcDbEntity
  8
0
  6
HIDDEN
 62
     7
370
     0
100
AcDbLine
 10
78.0345798154
 20
121.2330351152
 30
0.0
 11
78.0345798154
 21
119.3918637034
 31
0.0
  0
LINE
  5
2C1
330
1F
100
AcDbEntity
  8
0
  6
HIDDEN
 62
     7
370
     0
100
AcDbLine
 10
84.0345789362
 20
121.2330351152
 30
0.0
 11
84.0345789362
 21
119.3918637034
 31
0.0
  0
LINE
  5
2C2
330
1F
100
AcDbEntity
  8
0
  6
HIDDEN
 62
     7
370
     0
100
AcDbLine
 10
78.0345798154
 20
121.2330351152
 30
0.0
 11
78.0345798154
 21
124.079124889
 31
0.0
  0
LINE
  5
2C3
330
1F
100
AcDbEntity
  8
0
  6
HIDDEN
 62
     7
370
     0
100
AcDbLine
 10
84.0345789362
 20
121.2330351152
 30
0.0
 11
84.0345789362
 21
124.079124889
 31
0.0
  0
LINE
  5
2C4
330
1F
100
AcDbEntity
  8
0
  6
HIDDEN
 62
     7
370
     0
100
AcDbLine
 10
57.0433140416
 20
133.237953534
 30
0.0
 11
67.0301225652
 21
133.237953534
 31
0.0
  0
LINE
  5
2C5
330
1F
100
AcDbEntity
  8
0
  6
HIDDEN
 62
     7
370
     0
100
AcDbLine
 10
58.5351999067
 20
131.7379532881
 30
0.0
 11
65.5339582041
 21
131.7379532881
 31
0.0
  0
LINE
  5
2C6
330
1F
100
AcDbEntity
  8
0
  6
HIDDEN
 62
     7
370
     0
100
AcDbLine
 10
57.836618336
 20
144.2379534744
 30
0.0
 11
66.2220796254
 21
144.2379534744
 31
0.0
  0
LINE
  5
2C7
330
1F
100
AcDbEntity
  8
0
  6
HIDDEN
 62
     7
370
     0
100
AcDbLine
 10
57.0433140416
 20
143.4379529707
 30
0.0
 11
67.0301225652
 21
143.4379529707
 31
0.0
  0
LINE
  5
2C8
330
1F
100
AcDbEntity
  8
0
  6
HIDDEN
 62
     7
370
     0
100
AcDbLine
 10
61.8640322097
 20
144.2379534744
 30
0.0
 11
59.4536723253
 21
144.2379534744
 31
0.0
  0
LINE
  5
2C9
330
1F
100
AcDbEntity
  8
0
  6
HIDDEN
 62
     7
370
     0
100
AcDbLine
 10
61.8640322097
 20
138.2379543536
 30
0.0
 11
59.4536723253
 21
138.2379543536
 31
0.0
  0
LINE
  5
2CA
330
1F
100
AcDbEntity
  8
0
  6
HIDDEN
 62
     7
370
     0
100
AcDbLine
 10
59.5488001742
 20
131.7379532881
 30
0.0
 11
64.5203579367
 21
131.7379532881
 31
0.0
  0
LINE
  5
2CB
330
1F
100
AcDbEntity
  8
0
  6
HIDDEN
 62
     7
370
     0
100
AcDbLine
 10
61.8640322097
 20
138.2379543536
 30
0.0
 11
64.4449389689
 21
138.2379543536
 31
0.0
  0
LINE
  5
2CC
330
1F
100
AcDbEntity
  8
0
  6
HIDDEN
 62
     7
370
     0
100
AcDbLine
 10
61.8640322097
 20
138.2379543536
 30
0.0
 11
61.8640322097
 21
144.2379534744
 31
0.0
  0
LINE
  5
2CD
330
1F
100
AcDbEntity
  8
0
  6
HIDDEN
 62
     7
370
     0
100
AcDbLine
 10
61.8640322097
 20
144.2379534744
 30
0.0
 11
64.4449389689
 21
144.2379534744
 31
0.0
  0
LINE
  5
2CE
330
1F
100
AcDbEntity
  8
0
  6
HIDDEN
 62
     7
370
     0
100
AcDbLine
 10
64.4449389689
 20
138.2379543536
 30
0.0
 11
64.4449389689
 21
144.2379534744
 31
0.0
  0
LINE
  5
2CF
330
1F
100
AcDbEntity
  8
0
  6
HIDDEN
 62
     7
370
     0
100
AcDbLine
 10
64.4449389689
 20
138.2379543536
 30
0.0
 11
64.6154857856
 21
138.2379543536
 31
0.0
  0
LINE
  5
2D0
330
1F
100
AcDbEntity
  8
0
  6
HIDDEN
 62
     7
370
     0
100
AcDbLine
 10
64.4449389689
 20
144.2379534744
 30
0.0
 11
64.6154857856
 21
144.2379534744
 31
0.0
  0
LINE
  5
2D1
330
1F
100
AcDbEntity
  8
0
  6
HIDDEN
 62
     7
370
     0
100
AcDbLine
 10
59.624219142
 20
138.2379543536
 30
0.0
 11
59.624219142
 21
144.2379534744
 31
0.0
  0
LINE
  5
2D2
330
1F
100
AcDbEntity
  8
0
  6
HIDDEN
 62
     7
370
     0
100
AcDbLine
 10
59.624219142
 20
138.2379543536
 30
0.0
 11
59.4536723253
 21
138.2379543536
 31
0.0
  0
LINE
  5
2D3
330
1F
100
AcDbEntity
  8
0
  6
HIDDEN
 62
     7
370
     0
100
AcDbLine
 10
59.4536723253
 20
138.2379543536
 30
0.0
 11
59.4536723253
 21
144.2379534744
 31
0.0
  0
LINE
  5
2D4
330
1F
100
AcDbEntity
  8
0
  6
HIDDEN
 62
     7
370
     0
100
AcDbLine
 10
59.624219142
 20
144.2379534744
 30
0.0
 11
59.4536723253
 21
144.2379534744
 31
0.0
  0
LINE
  5
2D5
330
1F
100
AcDbEntity
  8
0
  6
HIDDEN
 62
     7
370
     0
100
AcDbLine
 10
62.2051259012
 20
138.2379543536
 30
0.0
 11
62.2051259012
 21
144.2379534744
 31
0.0
  0
LINE
  5
2D6
330
1F
100
AcDbEntity
  8
0
  6
HIDDEN
 62
     7
370
     0
100
AcDbLine
 10
64.6154857856
 20
138.2379543536
 30
0.0
 11
64.6154857856
 21
144.2379534744
 31
0.0
  0
LINE
  5
2D7
330
1F
100
AcDbEntity
  8
0
  6
HIDDEN
 62
     7
370
     0
100
AcDbLine
 10
62.2051259012
 20
138.2379543536
 30
0.0
 11
64.6154857856
 21
138.2379543536
 31
0.0
  0
LINE
  5
2D8
330
1F
100
AcDbEntity
  8
0
  6
HIDDEN
 62
     7
370
     0
100
AcDbLine
 10
62.2051259012
 20
144.2379534744
 30
0.0
 11
64.6154857856
 21
144.2379534744
 31
0.0
  0
LINE
  5
2D9
330
1F
100
AcDbEntity
  8
0
  6
HIDDEN
 62
     7
370
     0
100
AcDbLine
 10
59.624219142
 20
138.2379543536
 30
0.0
 11
62.2051259012
 21
138.2379543536
 31
0.0
  0
LINE
  5
2DA
330
1F
100
AcDbEntity
  8
0
  6
HIDDEN
 62
     7
370
     0
100
AcDbLine
 10
59.624219142
 20
144.2379534744
 30
0.0
 11
62.2051259012
 21
144.2379534744
 31
0.0
  0
LINE
  5
2DB
330
1F
100
AcDbEntity
  8
0
  6
HIDDEN
 62
     7
370
     0
100
AcDbLine
 10
51.034579115
 20
117.2604199998
 30
0.0
 11
51.034579115
 21
127.2378477767
 31
0.0
  0
LINE
  5
2DC
330
1F
100
AcDbEntity
  8
0
  6
HIDDEN
 62
     7
370
     0
100
AcDbLine
 10
52.5345793609
 20
118.7536800314
 30
0.0
 11
52.5345793609
 21
125.7222271558
 31
0.0
  0
LINE
  5
2DD
330
1F
100
AcDbEntity
  8
0
  6
HIDDEN
 62
     7
370
     0
100
AcDbLine
 10
40.8345796783
 20
117.2604199998
 30
0.0
 11
40.8345796783
 21
127.2378477767
 31
0.0
  0
LINE
  5
2DE
330
1F
100
AcDbEntity
  8
0
  6
HIDDEN
 62
     7
370
     0
100
AcDbLine
 10
40.0345791747
 20
118.0568251327
 30
0.0
 11
40.0345791747
 21
126.4375711359
 31
0.0
  0
LINE
  5
2DF
330
1F
100
AcDbEntity
  8
0
  6
HIDDEN
 62
     7
370
     0
100
AcDbLine
 10
46.0345782955
 20
121.0377905552
 30
0.0
 11
46.0345782955
 21
119.3641731549
 31
0.0
  0
LINE
  5
2E0
330
1F
100
AcDbEntity
  8
0
  6
HIDDEN
 62
     7
370
     0
100
AcDbLine
 10
40.0345791747
 20
121.0377905552
 30
0.0
 11
40.0345791747
 21
119.3641731549
 31
0.0
  0
LINE
  5
2E1
330
1F
100
AcDbEntity
  8
0
  6
HIDDEN
 62
     7
370
     0
100
AcDbLine
 10
52.5345793609
 20
119.7491867967
 30
0.0
 11
52.5345793609
 21
124.7267203905
 31
0.0
  0
LINE
  5
2E2
330
1F
100
AcDbEntity
  8
0
  6
HIDDEN
 62
     7
370
     0
100
AcDbLine
 10
46.0345782955
 20
121.0377905552
 30
0.0
 11
40.0345791747
 21
121.0377905552
 31
0.0
  0
LINE
  5
2E3
330
1F
100
AcDbEntity
  8
0
  6
HIDDEN
 62
     7
370
     0
100
AcDbLine
 10
46.0345782955
 20
121.0377905552
 30
0.0
 11
46.0345782955
 21
123.9115708774
 31
0.0
  0
LINE
  5
2E4
330
1F
100
AcDbEntity
  8
0
  6
HIDDEN
 62
     7
370
     0
100
AcDbLine
 10
40.0345791747
 20
121.0377905552
 30
0.0
 11
40.0345791747
 21
123.9115708774
 31
0.0
  0
LINE
  5
2E5
330
1F
100
AcDbEntity
  8
0
  6
HIDDEN
 62
     7
370
     0
100
AcDbLine
 10
46.0345782955
 20
123.9115708774
 30
0.0
 11
40.0345791747
 21
123.9115708774
 31
0.0
  0
LINE
  5
2E6
330
1F
100
AcDbEntity
  8
0
  6
HIDDEN
 62
     7
370
     0
100
AcDbLine
 10
46.0345782955
 20
123.9115708774
 30
0.0
 11
46.0345782955
 21
125.1117340323
 31
0.0
  0
LINE
  5
2E7
330
1F
100
AcDbEntity
  8
0
  6
HIDDEN
 62
     7
370
     0
100
AcDbLine
 10
40.0345791747
 20
123.9115708774
 30
0.0
 11
40.0345791747
 21
125.1117340323
 31
0.0
  0
LINE
  5
2E8
330
1F
100
AcDbEntity
  8
0
  6
HIDDEN
 62
     7
370
     0
100
AcDbLine
 10
46.0345782955
 20
120.5643363098
 30
0.0
 11
40.0345791747
 21
120.5643363098
 31
0.0
  0
LINE
  5
2E9
330
1F
100
AcDbEntity
  8
0
  6
HIDDEN
 62
     7
370
     0
100
AcDbLine
 10
46.0345782955
 20
119.3641731549
 30
0.0
 11
40.0345791747
 21
119.3641731549
 31
0.0
  0
LINE
  5
2EA
330
1F
100
AcDbEntity
  8
0
  6
HIDDEN
 62
     7
370
     0
100
AcDbLine
 10
46.0345782955
 20
120.5643363098
 30
0.0
 11
46.0345782955
 21
119.3641731549
 31
0.0
  0
LINE
  5
2EB
330
1F
100
AcDbEntity
  8
0
  6
HIDDEN
 62
     7
370
     0
100
AcDbLine
 10
40.0345791747
 20
120.5643363098
 30
0.0
 11
40.0345791747
 21
119.3641731549
 31
0.0
  0
LINE
  5
2EC
330
1F
100
AcDbEntity
  8
0
  6
HIDDEN
 62
     7
370
     0
100
AcDbLine
 10
46.0345782955
 20
123.438116632
 30
0.0
 11
40.0345791747
 21
123.438116632
 31
0.0
  0
LINE
  5
2ED
330
1F
100
AcDbEntity
  8
0
  6
HIDDEN
 62
     7
370
     0
100
AcDbLine
 10
46.0345782955
 20
125.1117340323
 30
0.0
 11
40.0345791747
 21
125.1117340323
 31
0.0
  0
LINE
  5
2EE
330
1F
100
AcDbEntity
  8
0
  6
HIDDEN
 62
     7
370
     0
100
AcDbLine
 10
46.0345782955
 20
123.438116632
 30
0.0
 11
46.0345782955
 21
125.1117340323
 31
0.0
  0
LINE
  5
2EF
330
1F
100
AcDbEntity
  8
0
  6
HIDDEN
 62
     7
370
     0
100
AcDbLine
 10
40.0345791747
 20
123.438116632
 30
0.0
 11
40.0345791747
 21
125.1117340323
 31
0.0
  0
LINE
  5
2F0
330
1F
100
AcDbEntity
  8
0
  6
HIDDEN
 62
     7
370
     0
100
AcDbLine
 10
46.0345782955
 20
120.5643363098
 30
0.0
 11
46.0345782955
 21
123.438116632
 31
0.0
  0
LINE
  5
2F1
330
1F
100
AcDbEntity
  8
0
  6
HIDDEN
 62
     7
370
     0
100
AcDbLine
 10
40.0345791747
 20
120.5643363098
 30
0.0
 11
40.0345791747
 21
123.438116632
 31
0.0
  0
LINE
  5
2F2
330
1F
100
AcDbEntity
  8
0
  6
HIDDEN
 62
     7
370
     0
100
AcDbLine
 10
83.2345784326
 20
117.2398922533
 30
0.0
 11
83.2345784326
 21
127.2244572208
 31
0.0
  0
LINE
  5
2F3
330
1F
100
AcDbEntity
  8
0
  6
HIDDEN
 62
     7
370
     0
100
AcDbLine
 10
73.0345789958
 20
117.2398922533
 30
0.0
 11
73.0345789958
 21
127.2244572208
 31
0.0
  0
LINE
  5
2F4
330
1F
100
AcDbEntity
  8
0
  6
HIDDEN
 62
     7
370
     0
100
AcDbLine
 10
84.0345789362
 20
118.0503938846
 30
0.0
 11
84.0345789362
 21
126.4358905643
 31
0.0
  0
LINE
  5
2F5
330
1F
100
AcDbEntity
  8
0
  6
HIDDEN
 62
     7
370
     0
100
AcDbLine
 10
71.53457875
 20
118.7547503539
 30
0.0
 11
71.53457875
 21
125.7211568333
 31
0.0
  0
LINE
  5
2F6
330
1F
100
AcDbEntity
  8
0
  6
HIDDEN
 62
     7
370
     0
100
AcDbLine
 10
84.0345789362
 20
124.7043660876
 30
0.0
 11
84.0345789362
 21
122.1720803621
 31
0.0
  0
LINE
  5
2F7
330
1F
100
AcDbEntity
  8
0
  6
HIDDEN
 62
     7
370
     0
100
AcDbLine
 10
78.0345798154
 20
124.7043660876
 30
0.0
 11
78.0345798154
 21
122.1720803621
 31
0.0
  0
LINE
  5
2F8
330
1F
100
AcDbEntity
  8
0
  6
HIDDEN
 62
     7
370
     0
100
AcDbLine
 10
78.0345798154
 20
119.7056679554
 30
0.0
 11
78.0345798154
 21
122.1720803621
 31
0.0
  0
LINE
  5
2F9
330
1F
100
AcDbEntity
  8
0
  6
HIDDEN
 62
     7
370
     0
100
AcDbLine
 10
78.0345798154
 20
122.1720803621
 30
0.0
 11
84.0345789362
 21
122.1720803621
 31
0.0
  0
LINE
  5
2FA
330
1F
100
AcDbEntity
  8
0
  6
HIDDEN
 62
     7
370
     0
100
AcDbLine
 10
84.0345789362
 20
119.7056679554
 30
0.0
 11
84.0345789362
 21
122.1720803621
 31
0.0
  0
LINE
  5
2FB
330
1F
100
AcDbEntity
  8
0
  6
HIDDEN
 62
     7
370
     0
100
AcDbLine
 10
71.53457875
 20
119.755925614
 30
0.0
 11
71.53457875
 21
124.7199815732
 31
0.0
  0
LINE
  5
2FC
330
1F
100
AcDbEntity
  8
0
  6
HIDDEN
 62
     7
370
     0
100
AcDbLine
 10
78.0345798154
 20
124.7702392318
 30
0.0
 11
78.0345798154
 21
124.7043660876
 31
0.0
  0
LINE
  5
2FD
330
1F
100
AcDbEntity
  8
0
  6
HIDDEN
 62
     7
370
     0
100
AcDbLine
 10
78.0345798154
 20
124.7043660876
 30
0.0
 11
84.0345789362
 21
124.7043660876
 31
0.0
  0
LINE
  5
2FE
330
1F
100
AcDbEntity
  8
0
  6
HIDDEN
 62
     7
370
     0
100
AcDbLine
 10
84.0345789362
 20
124.7702392318
 30
0.0
 11
84.0345789362
 21
124.7043660876
 31
0.0
  0
LINE
  5
2FF
330
1F
100
AcDbEntity
  8
0
  6
HIDDEN
 62
     7
370
     0
100
AcDbLine
 10
78.0345798154
 20
119.7715410996
 30
0.0
 11
84.0345789362
 21
119.7715410996
 31
0.0
  0
LINE
  5
300
330
1F
100
AcDbEntity
  8
0
  6
HIDDEN
 62
     7
370
     0
100
AcDbLine
 10
78.0345798154
 20
119.7056679554
 30
0.0
 11
84.0345789362
 21
119.7056679554
 31
0.0
  0
LINE
  5
301
330
1F
100
AcDbEntity
  8
0
  6
HIDDEN
 62
     7
370
     0
100
AcDbLine
 10
78.0345798154
 20
119.7715410996
 30
0.0
 11
78.0345798154
 21
119.7056679554
 31
0.0
  0
LINE
  5
302
330
1F
100
AcDbEntity
  8
0
  6
HIDDEN
 62
     7
370
     0
100
AcDbLine
 10
84.0345789362
 20
119.7715410996
 30
0.0
 11
84.0345789362
 21
119.7056679554
 31
0.0
  0
LINE
  5
303
330
1F
100
AcDbEntity
  8
0
  6
HIDDEN
 62
     7
370
     0
100
AcDbLine
 10
78.0345798154
 20
122.3038268251
 30
0.0
 11
84.0345789362
 21
122.3038268251
 31
0.0
  0
LINE
  5
304
330
1F
100
AcDbEntity
  8
0
  6
HIDDEN
 62
     7
370
     0
100
AcDbLine
 10
78.0345798154
 20
124.7702392318
 30
0.0
 11
84.0345789362
 21
124.7702392318
 31
0.0
  0
LINE
  5
305
330
1F
100
AcDbEntity
  8
0
  6
HIDDEN
 62
     7
370
     0
100
AcDbLine
 10
78.0345798154
 20
124.7702392318
 30
0.0
 11
78.0345798154
 21
122.3038268251
 31
0.0
  0
LINE
  5
306
330
1F
100
AcDbEntity
  8
0
  6
HIDDEN
 62
     7
370
     0
100
AcDbLine
 10
84.0345789362
 20
124.7702392318
 30
0.0
 11
84.0345789362
 21
122.3038268251
 31
0.0
  0
LINE
  5
307
330
1F
100
AcDbEntity
  8
0
  6
HIDDEN
 62
     7
370
     0
100
AcDbLine
 10
78.0345798154
 20
119.7715410996
 30
0.0
 11
78.0345798154
 21
122.3038268251
 31
0.0
  0
LINE
  5
308
330
1F
100
AcDbEntity
  8
0
  6
HIDDEN
 62
     7
370
     0
100
AcDbLine
 10
84.0345789362
 20
119.7715410996
 30
0.0
 11
84.0345789362
 21
122.3038268251
 31
0.0
  0
LINE
  5
309
330
1F
100
AcDbEntity
  8
0
  6
HIDDEN
 62
     7
370
     0
100
AcDbLine
 10
51.034579115
 20
117.2379537054
 30
0.0
 11
51.034579115
 21
127.2379534818
 31
0.0
  0
LINE
  5
30A
330
1F
100
AcDbEntity
  8
0
  6
HIDDEN
 62
     7
370
     0
100
AcDbLine
 10
52.5345793609
 20
118.7379534856
 30
0.0
 11
52.5345793609
 21
125.7379537016
 31
0.0
  0
LINE
  5
30B
330
1F
100
AcDbEntity
  8
0
  6
HIDDEN
 62
     7
370
     0
100
AcDbLine
 10
40.8345796783
 20
117.2379537054
 30
0.0
 11
40.8345796783
 21
127.2379534818
 31
0.0
  0
LINE
  5
30C
330
1F
100
AcDbEntity
  8
0
  6
HIDDEN
 62
     7
370
     0
100
AcDbLine
 10
40.0345791747
 20
126.4379534438
 30
0.0
 11
40.0345791747
 21
118.0379537434
 31
0.0
  0
LINE
  5
30D
330
1F
100
AcDbEntity
  8
0
  6
HIDDEN
 62
     7
370
     0
100
AcDbLine
 10
46.0345782955
 20
123.9249124225
 30
0.0
 11
46.0345782955
 21
121.0527321125
 31
0.0
  0
LINE
  5
30E
330
1F
100
AcDbEntity
  8
0
  6
HIDDEN
 62
     7
370
     0
100
AcDbLine
 10
40.0345791747
 20
123.9249124225
 30
0.0
 11
40.0345791747
 21
121.0527321125
 31
0.0
  0
LINE
  5
30F
330
1F
100
AcDbEntity
  8
0
  6
HIDDEN
 62
     7
370
     0
100
AcDbLine
 10
52.5345793609
 20
119.7379890397
 30
0.0
 11
52.5345793609
 21
124.7379181475
 31
0.0
  0
LINE
  5
310
330
1F
100
AcDbEntity
  8
0
  6
HIDDEN
 62
     7
370
     0
100
AcDbLine
 10
46.0345782955
 20
121.0527321125
 30
0.0
 11
40.0345791747
 21
121.0527321125
 31
0.0
  0
LINE
  5
311
330
1F
100
AcDbEntity
  8
0
  6
HIDDEN
 62
     7
370
     0
100
AcDbLine
 10
46.0345782955
 20
119.3657731671
 30
0.0
 11
46.0345782955
 21
121.0527321125
 31
0.0
  0
LINE
  5
312
330
1F
100
AcDbEntity
  8
0
  6
HIDDEN
 62
     7
370
     0
100
AcDbLine
 10
40.0345791747
 20
119.3657731671
 30
0.0
 11
40.0345791747
 21
121.0527321125
 31
0.0
  0
LINE
  5
313
330
1F
100
AcDbEntity
  8
0
  6
HIDDEN
 62
     7
370
     0
100
AcDbLine
 10
46.0345782955
 20
123.9249124225
 30
0.0
 11
40.0345791747
 21
123.9249124225
 31
0.0
  0
LINE
  5
314
330
1F
100
AcDbEntity
  8
0
  6
HIDDEN
 62
     7
370
     0
100
AcDbLine
 10
46.0345782955
 20
123.9249124225
 30
0.0
 11
46.0345782955
 21
125.1101340201
 31
0.0
  0
LINE
  5
315
330
1F
100
AcDbEntity
  8
0
  6
HIDDEN
 62
     7
370
     0
100
AcDbLine
 10
40.0345791747
 20
123.9249124225
 30
0.0
 11
40.0345791747
 21
125.1101340201
 31
0.0
  0
LINE
  5
316
330
1F
100
AcDbEntity
  8
0
  6
HIDDEN
 62
     7
370
     0
100
AcDbLine
 10
46.0345782955
 20
120.5509947647
 30
0.0
 11
40.0345791747
 21
120.5509947647
 31
0.0
  0
LINE
  5
317
330
1F
100
AcDbEntity
  8
0
  6
HIDDEN
 62
     7
370
     0
100
AcDbLine
 10
46.0345782955
 20
119.3657731671
 30
0.0
 11
40.0345791747
 21
119.3657731671
 31
0.0
  0
LINE
  5
318
330
1F
100
AcDbEntity
  8
0
  6
HIDDEN
 62
     7
370
     0
100
AcDbLine
 10
46.0345782955
 20
119.3657731671
 30
0.0
 11
46.0345782955
 21
120.5509947647
 31
0.0
  0
LINE
  5
319
330
1F
100
AcDbEntity
  8
0
  6
HIDDEN
 62
     7
370
     0
100
AcDbLine
 10
40.0345791747
 20
119.3657731671
 30
0.0
 11
40.0345791747
 21
120.5509947647
 31
0.0
  0
LINE
  5
31A
330
1F
100
AcDbEntity
  8
0
  6
HIDDEN
 62
     7
370
     0
100
AcDbLine
 10
46.0345782955
 20
123.4231750747
 30
0.0
 11
40.0345791747
 21
123.4231750747
 31
0.0
  0
LINE
  5
31B
330
1F
100
AcDbEntity
  8
0
  6
HIDDEN
 62
     7
370
     0
100
AcDbLine
 10
46.0345782955
 20
125.1101340201
 30
0.0
 11
40.0345791747
 21
125.1101340201
 31
0.0
  0
LINE
  5
31C
330
1F
100
AcDbEntity
  8
0
  6
HIDDEN
 62
     7
370
     0
100
AcDbLine
 10
46.0345782955
 20
125.1101340201
 30
0.0
 11
46.0345782955
 21
123.4231750747
 31
0.0
  0
LINE
  5
31D
330
1F
100
AcDbEntity
  8
0
  6
HIDDEN
 62
     7
370
     0
100
AcDbLine
 10
40.0345791747
 20
125.1101340201
 30
0.0
 11
40.0345791747
 21
123.4231750747
 31
0.0
  0
LINE
  5
31E
330
1F
100
AcDbEntity
  8
0
  6
HIDDEN
 62
     7
370
     0
100
AcDbLine
 10
46.0345782955
 20
120.5509947647
 30
0.0
 11
46.0345782955
 21
123.4231750747
 31
0.0
  0
LINE
  5
31F
330
1F
100
AcDbEntity
  8
0
  6
HIDDEN
 62
     7
370
     0
100
AcDbLine
 10
40.0345791747
 20
120.5509947647
 30
0.0
 11
40.0345791747
 21
123.4231750747
 31
0.0
  0
LINE
  5
320
330
1F
100
AcDbEntity
  8
0
  6
HIDDEN
 62
     7
370
     0
100
AcDbLine
 10
67.0345789437
 20
143.4379529707
 30
0.0
 11
66.7447043267
 21
143.7278289847
 31
0.0
  0
LINE
  5
321
330
1F
100
AcDbEntity
  8
0
  6
HIDDEN
 62
     7
370
     0
100
AcDbLine
 10
57.3244537842
 20
143.7278289847
 30
0.0
 11
57.0345791672
 21
143.4379529707
 31
0.0
  0
LINE
  5
322
330
1F
100
AcDbEntity
  8
0
  6
HIDDEN
 62
     7
370
     0
100
AcDbLine
 10
57.0345791672
 20
133.237953534
 30
0.0
 11
58.5345789474
 21
131.7379532881
 31
0.0
  0
LINE
  5
323
330
1F
100
AcDbEntity
  8
0
  6
HIDDEN
 62
     7
370
     0
100
AcDbLine
 10
65.5345791635
 20
131.7379532881
 30
0.0
 11
67.0345789437
 21
133.237953534
 31
0.0
  0
LINE
  5
324
330
1F
100
AcDbEntity
  8
0
  6
HIDDEN
 62
     7
370
     0
100
AcDbLine
 10
57.0345791672
 20
143.4379529707
 30
0.0
 11
57.0345791672
 21
133.237953534
 31
0.0
  0
LINE
  5
325
330
1F
100
AcDbEntity
  8
0
  6
HIDDEN
 62
     7
370
     0
100
AcDbLine
 10
67.0345789437
 20
133.237953534
 30
0.0
 11
67.0345789437
 21
143.4379529707
 31
0.0
  0
LINE
  5
326
330
1F
100
AcDbEntity
  8
0
  6
HIDDEN
 62
     7
370
     0
100
AcDbLine
 10
64.5345789996
 20
131.7379532881
 30
0.0
 11
62.0345790554
 21
133.1813291215
 31
0.0
  0
LINE
  5
327
330
1F
100
AcDbEntity
  8
0
  6
HIDDEN
 62
     7
370
     0
100
AcDbLine
 10
62.0345790554
 20
133.1813291215
 30
0.0
 11
59.5345791113
 21
131.7379532881
 31
0.0
  0
LINE
  5
328
330
1F
100
AcDbEntity
  8
0
  6
HIDDEN
 62
     7
370
     0
100
AcDbLine
 10
57.0345791672
 20
143.4379529707
 30
0.0
 11
57.0345791672
 21
133.237953534
 31
0.0
  0
LINE
  5
329
330
1F
100
AcDbEntity
  8
0
  6
HIDDEN
 62
     7
370
     0
100
AcDbLine
 10
67.0345789437
 20
133.237953534
 30
0.0
 11
67.0345789437
 21
143.4379529707
 31
0.0
  0
LINE
  5
32A
330
1F
100
AcDbEntity
  8
0
  6
HIDDEN
 62
     7
370
     0
100
AcDbLine
 10
57.0345791672
 20
133.237953534
 30
0.0
 11
58.5345789474
 21
131.7379532881
 31
0.0
  0
LINE
  5
32B
330
1F
100
AcDbEntity
  8
0
  6
HIDDEN
 62
     7
370
     0
100
AcDbLine
 10
65.5345791635
 20
131.7379532881
 30
0.0
 11
67.0345789437
 21
133.237953534
 31
0.0
  0
LINE
  5
32C
330
1F
100
AcDbEntity
  8
0
  6
HIDDEN
 62
     7
370
     0
100
AcDbLine
 10
67.0345789437
 20
143.4379529707
 30
0.0
 11
66.2345789057
 21
144.2379534744
 31
0.0
  0
LINE
  5
32D
330
1F
100
AcDbEntity
  8
0
  6
HIDDEN
 62
     7
370
     0
100
AcDbLine
 10
57.8345792052
 20
144.2379534744
 30
0.0
 11
57.0345791672
 21
143.4379529707
 31
0.0
  0
LINE
  5
32E
330
1F
100
AcDbEntity
  8
0
  6
HIDDEN
 62
     7
370
     0
100
AcDbLine
 10
64.5345789996
 20
131.7379532881
 30
0.0
 11
62.0345790554
 21
133.1813291215
 31
0.0
  0
LINE
  5
32F
330
1F
100
AcDbEntity
  8
0
  6
HIDDEN
 62
     7
370
     0
100
AcDbLine
 10
62.0345790554
 20
133.1813291215
 30
0.0
 11
59.5345791113
 21
131.7379532881
 31
0.0
  0
LINE
  5
330
330
1F
100
AcDbEntity
  8
0
  6
HIDDEN
 62
     7
370
     0
100
AcDbLine
 10
51.034579115
 20
117.2379537054
 30
0.0
 11
52.5345793609
 21
118.7379534856
 31
0.0
  0
LINE
  5
331
330
1F
100
AcDbEntity
  8
0
  6
HIDDEN
 62
     7
370
     0
100
AcDbLine
 10
52.5345793609
 20
125.7379537016
 30
0.0
 11
51.034579115
 21
127.2379534818
 31
0.0
  0
LINE
  5
332
330
1F
100
AcDbEntity
  8
0
  6
HIDDEN
 62
     7
370
     0
100
AcDbLine
 10
40.8345796783
 20
117.2379537054
 30
0.0
 11
51.034579115
 21
117.2379537054
 31
0.0
  0
LINE
  5
333
330
1F
100
AcDbEntity
  8
0
  6
HIDDEN
 62
     7
370
     0
100
AcDbLine
 10
51.034579115
 20
127.2379534818
 30
0.0
 11
40.8345796783
 21
127.2379534818
 31
0.0
  0
LINE
  5
334
330
1F
100
AcDbEntity
  8
0
  6
HIDDEN
 62
     7
370
     0
100
AcDbLine
 10
40.8345796783
 20
127.2379534818
 30
0.0
 11
40.0345791747
 21
126.4379534438
 31
0.0
  0
LINE
  5
335
330
1F
100
AcDbEntity
  8
0
  6
HIDDEN
 62
     7
370
     0
100
AcDbLine
 10
40.0345791747
 20
118.0379537434
 30
0.0
 11
40.8345796783
 21
117.2379537054
 31
0.0
  0
LINE
  5
336
330
1F
100
AcDbEntity
  8
0
  6
HIDDEN
 62
     7
370
     0
100
AcDbLine
 10
52.5345793609
 20
124.7379535377
 30
0.0
 11
51.0912035276
 21
122.2379535936
 31
0.0
  0
LINE
  5
337
330
1F
100
AcDbEntity
  8
0
  6
HIDDEN
 62
     7
370
     0
100
AcDbLine
 10
51.0912035276
 20
122.2379535936
 30
0.0
 11
52.5345793609
 21
119.7379536495
 31
0.0
  0
LINE
  5
338
330
1F
100
AcDbEntity
  8
0
  6
HIDDEN
 62
     7
370
     0
100
AcDbLine
 10
83.2345784326
 20
117.2379537054
 30
0.0
 11
84.0345789362
 21
118.0379537434
 31
0.0
  0
LINE
  5
339
330
1F
100
AcDbEntity
  8
0
  6
HIDDEN
 62
     7
370
     0
100
AcDbLine
 10
84.0345789362
 20
126.4379534438
 30
0.0
 11
83.2345784326
 21
127.2379534818
 31
0.0
  0
LINE
  5
33A
330
1F
100
AcDbEntity
  8
0
  6
HIDDEN
 62
     7
370
     0
100
AcDbLine
 10
83.2345784326
 20
127.2379534818
 30
0.0
 11
73.0345789958
 21
127.2379534818
 31
0.0
  0
LINE
  5
33B
330
1F
100
AcDbEntity
  8
0
  6
HIDDEN
 62
     7
370
     0
100
AcDbLine
 10
73.0345789958
 20
117.2379537054
 30
0.0
 11
83.2345784326
 21
117.2379537054
 31
0.0
  0
LINE
  5
33C
330
1F
100
AcDbEntity
  8
0
  6
HIDDEN
 62
     7
370
     0
100
AcDbLine
 10
73.0345789958
 20
127.2379534818
 30
0.0
 11
71.53457875
 21
125.7379537016
 31
0.0
  0
LINE
  5
33D
330
1F
100
AcDbEntity
  8
0
  6
HIDDEN
 62
     7
370
     0
100
AcDbLine
 10
71.53457875
 20
118.7379534856
 30
0.0
 11
73.0345789958
 21
117.2379537054
 31
0.0
  0
LINE
  5
33E
330
1F
100
AcDbEntity
  8
0
  6
HIDDEN
 62
     7
370
     0
100
AcDbLine
 10
71.53457875
 20
119.7379536495
 30
0.0
 11
72.9779545833
 21
122.2379535936
 31
0.0
  0
LINE
  5
33F
330
1F
100
AcDbEntity
  8
0
  6
HIDDEN
 62
     7
370
     0
100
AcDbLine
 10
72.9779545833
 20
122.2379535936
 30
0.0
 11
71.53457875
 21
124.7379535377
 31
0.0
  0
LINE
  5
340
330
1F
100
AcDbEntity
  8
0
  6
HIDDEN
 62
     7
370
     0
100
AcDbLine
 10
83.2345784326
 20
117.2379537054
 30
0.0
 11
83.5244544466
 21
117.5278283224
 31
0.0
  0
LINE
  5
341
330
1F
100
AcDbEntity
  8
0
  6
HIDDEN
 62
     7
370
     0
100
AcDbLine
 10
83.5244544466
 20
126.9480788648
 30
0.0
 11
83.2345784326
 21
127.2379534818
 31
0.0
  0
LINE
  5
342
330
1F
100
AcDbEntity
  8
0
  6
HIDDEN
 62
     7
370
     0
100
AcDbLine
 10
83.2345784326
 20
127.2379534818
 30
0.0
 11
73.0345789958
 21
127.2379534818
 31
0.0
  0
LINE
  5
343
330
1F
100
AcDbEntity
  8
0
  6
HIDDEN
 62
     7
370
     0
100
AcDbLine
 10
73.0345789958
 20
117.2379537054
 30
0.0
 11
83.2345784326
 21
117.2379537054
 31
0.0
  0
LINE
  5
344
330
1F
100
AcDbEntity
  8
0
  6
HIDDEN
 62
     7
370
     0
100
AcDbLine
 10
73.0345789958
 20
127.2379534818
 30
0.0
 11
71.53457875
 21
125.7379537016
 31
0.0
  0
LINE
  5
345
330
1F
100
AcDbEntity
  8
0
  6
HIDDEN
 62
     7
370
     0
100
AcDbLine
 10
71.53457875
 20
118.7379534856
 30
0.0
 11
73.0345789958
 21
117.2379537054
 31
0.0
  0
LINE
  5
346
330
1F
100
AcDbEntity
  8
0
  6
HIDDEN
 62
     7
370
     0
100
AcDbLine
 10
71.53457875
 20
119.7379536495
 30
0.0
 11
72.9779545833
 21
122.2379535936
 31
0.0
  0
LINE
  5
347
330
1F
100
AcDbEntity
  8
0
  6
HIDDEN
 62
     7
370
     0
100
AcDbLine
 10
72.9779545833
 20
122.2379535936
 30
0.0
 11
71.53457875
 21
124.7379535377
 31
0.0
  0
LINE
  5
348
330
1F
100
AcDbEntity
  8
0
  6
HIDDEN
 62
     7
370
     0
100
AcDbLine
 10
57.0345791672
 20
133.237953534
 30
0.0
 11
58.5345789474
 21
131.7379532881
 31
0.0
  0
LINE
  5
349
330
1F
100
AcDbEntity
  8
0
  6
HIDDEN
 62
     7
370
     0
100
AcDbLine
 10
65.5345791635
 20
131.7379532881
 30
0.0
 11
67.0345789437
 21
133.237953534
 31
0.0
  0
LINE
  5
34A
330
1F
100
AcDbEntity
  8
0
  6
HIDDEN
 62
     7
370
     0
100
AcDbLine
 10
67.0345789437
 20
143.4379529707
 30
0.0
 11
66.2345789057
 21
144.2379534744
 31
0.0
  0
LINE
  5
34B
330
1F
100
AcDbEntity
  8
0
  6
HIDDEN
 62
     7
370
     0
100
AcDbLine
 10
57.8345792052
 20
144.2379534744
 30
0.0
 11
57.0345791672
 21
143.4379529707
 31
0.0
  0
LINE
  5
34C
330
1F
100
AcDbEntity
  8
0
  6
HIDDEN
 62
     7
370
     0
100
AcDbLine
 10
57.0345791672
 20
143.4379529707
 30
0.0
 11
57.0345791672
 21
133.237953534
 31
0.0
  0
LINE
  5
34D
330
1F
100
AcDbEntity
  8
0
  6
HIDDEN
 62
     7
370
     0
100
AcDbLine
 10
67.0345789437
 20
133.237953534
 30
0.0
 11
67.0345789437
 21
143.4379529707
 31
0.0
  0
LINE
  5
34E
330
1F
100
AcDbEntity
  8
0
  6
HIDDEN
 62
     7
370
     0
100
AcDbLine
 10
64.5345789996
 20
131.7379532881
 30
0.0
 11
62.0345790554
 21
133.1813291215
 31
0.0
  0
LINE
  5
34F
330
1F
100
AcDbEntity
  8
0
  6
HIDDEN
 62
     7
370
     0
100
AcDbLine
 10
62.0345790554
 20
133.1813291215
 30
0.0
 11
59.5345791113
 21
131.7379532881
 31
0.0
  0
LINE
  5
350
330
1F
100
AcDbEntity
  8
0
  6
HIDDEN
 62
     7
370
     0
100
AcDbLine
 10
51.034579115
 20
117.2379537054
 30
0.0
 11
52.5345793609
 21
118.7379534856
 31
0.0
  0
LINE
  5
351
330
1F
100
AcDbEntity
  8
0
  6
HIDDEN
 62
     7
370
     0
100
AcDbLine
 10
52.5345793609
 20
125.7379537016
 30
0.0
 11
51.034579115
 21
127.2379534818
 31
0.0
  0
LINE
  5
352
330
1F
100
AcDbEntity
  8
0
  6
HIDDEN
 62
     7
370
     0
100
AcDbLine
 10
40.8345796783
 20
117.2379537054
 30
0.0
 11
51.034579115
 21
117.2379537054
 31
0.0
  0
LINE
  5
353
330
1F
100
AcDbEntity
  8
0
  6
HIDDEN
 62
     7
370
     0
100
AcDbLine
 10
51.034579115
 20
127.2379534818
 30
0.0
 11
40.8345796783
 21
127.2379534818
 31
0.0
  0
LINE
  5
354
330
1F
100
AcDbEntity
  8
0
  6
HIDDEN
 62
     7
370
     0
100
AcDbLine
 10
40.8345796783
 20
127.2379534818
 30
0.0
 11
40.0345791747
 21
126.4379534438
 31
0.0
  0
LINE
  5
355
330
1F
100
AcDbEntity
  8
0
  6
HIDDEN
 62
     7
370
     0
100
AcDbLine
 10
40.0345791747
 20
118.0379537434
 30
0.0
 11
40.8345796783
 21
117.2379537054
 31
0.0
  0
LINE
  5
356
330
1F
100
AcDbEntity
  8
0
  6
HIDDEN
 62
     7
370
     0
100
AcDbLine
 10
52.5345793609
 20
124.7379535377
 30
0.0
 11
51.0912035276
 21
122.2379535936
 31
0.0
  0
LINE
  5
357
330
1F
100
AcDbEntity
  8
0
  6
HIDDEN
 62
     7
370
     0
100
AcDbLine
 10
51.0912035276
 20
122.2379535936
 30
0.0
 11
52.5345793609
 21
119.7379536495
 31
0.0
  0
LINE
  5
358
330
1F
100
AcDbEntity
  8
0
  6
HIDDEN
 62
     7
370
     0
100
AcDbLine
 10
83.2345784326
 20
127.2379534818
 30
0.0
 11
73.0345789958
 21
127.2379534818
 31
0.0
  0
LINE
  5
359
330
1F
100
AcDbEntity
  8
0
  6
HIDDEN
 62
     7
370
     0
100
AcDbLine
 10
73.0345789958
 20
117.2379537054
 30
0.0
 11
83.2345784326
 21
117.2379537054
 31
0.0
  0
LINE
  5
35A
330
1F
100
AcDbEntity
  8
0
  6
HIDDEN
 62
     7
370
     0
100
AcDbLine
 10
83.2345784326
 20
117.2379537054
 30
0.0
 11
84.0345789362
 21
118.0379537434
 31
0.0
  0
LINE
  5
35B
330
1F
100
AcDbEntity
  8
0
  6
HIDDEN
 62
     7
370
     0
100
AcDbLine
 10
84.0345789362
 20
126.4379534438
 30
0.0
 11
83.2345784326
 21
127.2379534818
 31
0.0
  0
LINE
  5
35C
330
1F
100
AcDbEntity
  8
0
  6
HIDDEN
 62
     7
370
     0
100
AcDbLine
 10
73.0345789958
 20
127.2379534818
 30
0.0
 11
71.53457875
 21
125.7379537016
 31
0.0
  0
LINE
  5
35D
330
1F
100
AcDbEntity
  8
0
  6
HIDDEN
 62
     7
370
     0
100
AcDbLine
 10
71.53457875
 20
118.7379534856
 30
0.0
 11
73.0345789958
 21
117.2379537054
 31
0.0
  0
LINE
  5
35E
330
1F
100
AcDbEntity
  8
0
  6
HIDDEN
 62
     7
370
     0
100
AcDbLine
 10
71.53457875
 20
119.7379536495
 30
0.0
 11
72.9779545833
 21
122.2379535936
 31
0.0
  0
LINE
  5
35F
330
1F
100
AcDbEntity
  8
0
  6
HIDDEN
 62
     7
370
     0
100
AcDbLine
 10
72.9779545833
 20
122.2379535936
 30
0.0
 11
71.53457875
 21
124.7379535377
 31
0.0
  0
LINE
  5
360
330
1F
100
AcDbEntity
  8
0
  6
HIDDEN
 62
     7
370
     0
100
AcDbLine
 10
51.034579115
 20
117.2379537054
 30
0.0
 11
52.5345793609
 21
118.7379534856
 31
0.0
  0
LINE
  5
361
330
1F
100
AcDbEntity
  8
0
  6
HIDDEN
 62
     7
370
     0
100
AcDbLine
 10
52.5345793609
 20
125.7379537016
 30
0.0
 11
51.034579115
 21
127.2379534818
 31
0.0
  0
LINE
  5
362
330
1F
100
AcDbEntity
  8
0
  6
HIDDEN
 62
     7
370
     0
100
AcDbLine
 10
40.8345796783
 20
117.2379537054
 30
0.0
 11
51.034579115
 21
117.2379537054
 31
0.0
  0
LINE
  5
363
330
1F
100
AcDbEntity
  8
0
  6
HIDDEN
 62
     7
370
     0
100
AcDbLine
 10
51.034579115
 20
127.2379534818
 30
0.0
 11
40.8345796783
 21
127.2379534818
 31
0.0
  0
LINE
  5
364
330
1F
100
AcDbEntity
  8
0
  6
HIDDEN
 62
     7
370
     0
100
AcDbLine
 10
40.8345796783
 20
127.2379534818
 30
0.0
 11
40.5447036643
 21
126.9480788648
 31
0.0
  0
LINE
  5
365
330
1F
100
AcDbEntity
  8
0
  6
HIDDEN
 62
     7
370
     0
100
AcDbLine
 10
40.5447036643
 20
117.5278283224
 30
0.0
 11
40.8345796783
 21
117.2379537054
 31
0.0
  0
LINE
  5
366
330
1F
100
AcDbEntity
  8
0
  6
HIDDEN
 62
     7
370
     0
100
AcDbLine
 10
52.5345793609
 20
124.7379535377
 30
0.0
 11
51.0912035276
 21
122.2379535936
 31
0.0
  0
LINE
  5
367
330
1F
100
AcDbEntity
  8
0
  6
HIDDEN
 62
     7
370
     0
100
AcDbLine
 10
51.0912035276
 20
122.2379535936
 30
0.0
 11
52.5345793609
 21
119.7379536495
 31
0.0
  0
INSERT
  5
373
330
1F
100
AcDbEntity
  8
VERMASSUNG
100
AcDbBlockReference
  2
SW_CENTERMARKSYMBOL_0
 10
62.0345790554
 20
122.2379535936
 30
0.0
  0
OLE2FRAME
  5
374
330
1F
100
AcDbEntity
  8
0
100
AcDbOle2Frame
 70
     2
  3
Paintbrush-Bild
 10
13.8511154363
 20
38.264191557
 30
0.0
 11
51.6290888628
 21
31.9806341108
 31
0.0
 71
     2
 72
     0
 73
     1
 90
    12928
310
80552BED0767C5B32B40DDAF6807D121434000000000000000006FFBDDFB85D0
310
4940DDAF6807D121434000000000000000006FFBDDFB85D04940416F4BD60AFB
310
3F4000000000000000002BED0767C5B32B40416F4BD60AFB3F40000000000000
310
0000000000000100000000010000010000000100000000000100000000320000
310
D0CF11E0A1B11AE1000000000000000000000000000000003E000300FEFF0900
310
0600000000000000000000000100000001000000000000000010000002000000
310
01000000FEFFFFFF0000000000000000FFFFFFFFFFFFFFFFFFFFFFFFFFFFFFFF
310
FFFFFFFFFFFFFFFFFFFFFFFFFFFFFFFFFFFFFFFFFFFFFFFFFFFFFFFFFFFFFFFF
310
FFFFFFFFFFFFFFFFFFFFFFFFFFFFFFFFFFFFFFFFFFFFFFFFFFFFFFFFFFFFFFFF
310
FFFFFFFFFFFFFFFFFFFFFFFFFFFFFFFFFFFFFFFFFFFFFFFFFFFFFFFFFFFFFFFF
310
FFFFFFFFFFFFFFFFFFFFFFFFFFFFFFFFFFFFFFFFFFFFFFFFFFFFFFFFFFFFFFFF
310
FFFFFFFFFFFFFFFFFFFFFFFFFFFFFFFFFFFFFFFFFFFFFFFFFFFFFFFFFFFFFFFF
310
FFFFFFFFFFFFFFFFFFFFFFFFFFFFFFFFFFFFFFFFFFFFFFFFFFFFFFFFFFFFFFFF
310
FFFFFFFFFFFFFFFFFFFFFFFFFFFFFFFFFFFFFFFFFFFFFFFFFFFFFFFFFFFFFFFF
310
FFFFFFFFFFFFFFFFFFFFFFFFFFFFFFFFFFFFFFFFFFFFFFFFFFFFFFFFFFFFFFFF
310
FFFFFFFFFFFFFFFFFFFFFFFFFFFFFFFFFFFFFFFFFFFFFFFFFFFFFFFFFFFFFFFF
310
FFFFFFFFFFFFFFFFFFFFFFFFFFFFFFFFFFFFFFFFFFFFFFFFFFFFFFFFFFFFFFFF
310
FFFFFFFFFFFFFFFFFFFFFFFFFFFFFFFFFFFFFFFFFFFFFFFFFFFFFFFFFFFFFFFF
310
FFFFFFFFFFFFFFFFFFFFFFFFFFFFFFFFFFFFFFFFFFFFFFFFFFFFFFFFFFFFFFFF
310
FFFFFFFFFFFFFFFFFFFFFFFFFFFFFFFFFFFFFFFFFFFFFFFFFFFFFFFFFFFFFFFF
310
FDFFFFFFFEFFFFFFFEFFFFFFFEFFFFFF05000000060000000700000008000000
310
090000000A0000000B0000000C0000000D0000000E0000000F00000010000000
310
11000000120000001300000014000000150000001600000017000000FEFFFFFF
310
FFFFFFFFFFFFFFFFFFFFFFFFFFFFFFFFFFFFFFFFFFFFFFFFFFFFFFFFFFFFFFFF
310
FFFFFFFFFFFFFFFFFFFFFFFFFFFFFFFFFFFFFFFFFFFFFFFFFFFFFFFFFFFFFFFF
310
FFFFFFFFFFFFFFFFFFFFFFFFFFFFFFFFFFFFFFFFFFFFFFFFFFFFFFFFFFFFFFFF
310
FFFFFFFFFFFFFFFFFFFFFFFFFFFFFFFFFFFFFFFFFFFFFFFFFFFFFFFFFFFFFFFF
310
FFFFFFFFFFFFFFFFFFFFFFFFFFFFFFFFFFFFFFFFFFFFFFFFFFFFFFFFFFFFFFFF
310
FFFFFFFFFFFFFFFFFFFFFFFFFFFFFFFFFFFFFFFFFFFFFFFFFFFFFFFFFFFFFFFF
310
FFFFFFFFFFFFFFFFFFFFFFFFFFFFFFFFFFFFFFFFFFFFFFFFFFFFFFFFFFFFFFFF
310
FFFFFFFFFFFFFFFFFFFFFFFFFFFFFFFFFFFFFFFFFFFFFFFFFFFFFFFFFFFFFFFF
310
FFFFFFFFFFFFFFFFFFFFFFFFFFFFFFFFFFFFFFFFFFFFFFFFFFFFFFFFFFFFFFFF
310
FFFFFFFFFFFFFFFFFFFFFFFFFFFFFFFFFFFFFFFFFFFFFFFFFFFFFFFFFFFFFFFF
310
FFFFFFFFFFFFFFFFFFFFFFFFFFFFFFFFFFFFFFFFFFFFFFFFFFFFFFFFFFFFFFFF
310
FFFFFFFFFFFFFFFFFFFFFFFFFFFFFFFFFFFFFFFFFFFFFFFFFFFFFFFFFFFFFFFF
310
FFFFFFFFFFFFFFFFFFFFFFFFFFFFFFFFFFFFFFFFFFFFFFFFFFFFFFFFFFFFFFFF
310
52006F006F007400200045006E00740072007900000000000000000000000000
310
0000000000000000000000000000000000000000000000000000000000000000
310
16000500FFFFFFFFFFFFFFFF020000000A00030000000000C000000000000046
310
000000000000000000000000D09290FB9645CE0103000000C000000000000000
310
01004F006C006500000000000000000000000000000000000000000000000000
310
0000000000000000000000000000000000000000000000000000000000000000
310
0A000200FFFFFFFFFFFFFFFFFFFFFFFF00000000000000000000000000000000
310
0000000000000000000000000000000000000000000000001400000000000000
310
010043006F006D0070004F0062006A0000000000000000000000000000000000
310
0000000000000000000000000000000000000000000000000000000000000000
310
120002010100000003000000FFFFFFFF00000000000000000000000000000000
310
0000000000000000000000000000000000000000010000004D00000000000000
310
01004F006C006500310030004E00610074006900760065000000000000000000
310
0000000000000000000000000000000000000000000000000000000000000000
310
1A000200FFFFFFFFFFFFFFFFFFFFFFFF00000000000000000000000000000000
310
0000000000000000000000000000000000000000040000002426000000000000
310
FEFFFFFF02000000FEFFFFFFFFFFFFFFFFFFFFFFFFFFFFFFFFFFFFFFFFFFFFFF
310
FFFFFFFFFFFFFFFFFFFFFFFFFFFFFFFFFFFFFFFFFFFFFFFFFFFFFFFFFFFFFFFF
310
FFFFFFFFFFFFFFFFFFFFFFFFFFFFFFFFFFFFFFFFFFFFFFFFFFFFFFFFFFFFFFFF
310
FFFFFFFFFFFFFFFFFFFFFFFFFFFFFFFFFFFFFFFFFFFFFFFFFFFFFFFFFFFFFFFF
310
FFFFFFFFFFFFFFFFFFFFFFFFFFFFFFFFFFFFFFFFFFFFFFFFFFFFFFFFFFFFFFFF
310
FFFFFFFFFFFFFFFFFFFFFFFFFFFFFFFFFFFFFFFFFFFFFFFFFFFFFFFFFFFFFFFF
310
FFFFFFFFFFFFFFFFFFFFFFFFFFFFFFFFFFFFFFFFFFFFFFFFFFFFFFFFFFFFFFFF
310
FFFFFFFFFFFFFFFFFFFFFFFFFFFFFFFFFFFFFFFFFFFFFFFFFFFFFFFFFFFFFFFF
310
FFFFFFFFFFFFFFFFFFFFFFFFFFFFFFFFFFFFFFFFFFFFFFFFFFFFFFFFFFFFFFFF
310
FFFFFFFFFFFFFFFFFFFFFFFFFFFFFFFFFFFFFFFFFFFFFFFFFFFFFFFFFFFFFFFF
310
FFFFFFFFFFFFFFFFFFFFFFFFFFFFFFFFFFFFFFFFFFFFFFFFFFFFFFFFFFFFFFFF
310
FFFFFFFFFFFFFFFFFFFFFFFFFFFFFFFFFFFFFFFFFFFFFFFFFFFFFFFFFFFFFFFF
310
FFFFFFFFFFFFFFFFFFFFFFFFFFFFFFFFFFFFFFFFFFFFFFFFFFFFFFFFFFFFFFFF
310
FFFFFFFFFFFFFFFFFFFFFFFFFFFFFFFFFFFFFFFFFFFFFFFFFFFFFFFFFFFFFFFF
310
FFFFFFFFFFFFFFFFFFFFFFFFFFFFFFFFFFFFFFFFFFFFFFFFFFFFFFFFFFFFFFFF
310
FFFFFFFFFFFFFFFFFFFFFFFFFFFFFFFFFFFFFFFFFFFFFFFFFFFFFFFFFFFFFFFF
310
0100000200000000000000000000000000000000000000000000000000000000
310
0000000000000000000000000000000000000000000000000000000000000000
310
0100FEFF030A0000FFFFFFFF0A00030000000000C00000000000004607000000
310
5042727573680007000000504272757368000700000050427275736800F439B2
310
7100000000000000000000000000000000000000000000000000000000000000
310
0000000000000000000000000000000000000000000000000000000000000000
310
0000000000000000000000000000000000000000000000000000000000000000
310
0000000000000000000000000000000000000000000000000000000000000000
310
0000000000000000000000000000000000000000000000000000000000000000
310
0000000000000000000000000000000000000000000000000000000000000000
310
0000000000000000000000000000000000000000000000000000000000000000
310
0000000000000000000000000000000000000000000000000000000000000000
310
0000000000000000000000000000000000000000000000000000000000000000
310
0000000000000000000000000000000000000000000000000000000000000000
310
0000000000000000000000000000000000000000000000000000000000000000
310
0000000000000000000000000000000000000000000000000000000000000000
310
20260000424D0E260000000000003E00000028000000B40200006E0000000100
310
01000000000000000000130B0000130B00000200000002000000000000FFFFFF
310
FFFFFFFFFFFFFFFFFFFFFFFFFFFFFFFFFFFFFFFFFFFFFFFFFFFFFFFFFFFFFFFF
310
FFFFFFFFFFFFFFFFFFFFFFFFFFFFFFFFFFFFFFFFFFFFFFFFFFFFFFFFFFFFFFFF
310
FFFFFFFFFFFFFFFFFFFFFFFFFFFFFFFFFFFFFFFFFFFFFFFFF000FFFFFFFFFFFF
310
FFFFFFFFFFFFFFFFFFFFFFFFFFFFFFFFFFFFFFFFFFFFFFFFFFFFFFFFFFFFFFFF
310
FFFFFFFFFFFFFFFFFFFFFFFFFFFFFFFFFFFFFFFFFFFFFFFFFFFFFFFFFFFFFFFF
310
FFFFFFFFFFFFFFFFFFFFFFFFFFFFFFFFF000FFFFFFFFFFFFFFFFFFFFFFFFFFFF
310
FFFFFFFFFFFFFFFFFFFFFFFFFFFFFFFFFFFFFFFFFFFFFFFFFFFFFFFFFFFFFFFF
310
FFFFFFFFFFFFFFFFFFFFFFFFFFFFFFFFFFFFFFFFFFFFFFFFFFFFFFFFFFFFFFFF
310
FFFFFFFFFFFFFFFFF000FFFFFFFFFFFFFFFFFFFFFFFFFFFFFFFFFFFFFFFFFFFF
310
FFFFFFFFFFFFFFFFFFFFFFFFFFFFFFFFFFFFFFFFFFFFFFFFFFFFFFFFFFFFFFFF
310
FFFFFFFFFFFFFFFFFFFFFFFFFFFFFFFFFFFFFFFFFFFFFFFFFFFFFFFFFFFFFFFF
310
F000FFFFFFFFFFFFFFFFFFFFFFFFFFFFFFFFFFFFFFFFFFFFFFFFFFFFFFFFFFFF
310
FFFFFFFFFFFFFFFFFFFFFFFFFFFFFFFFFFFFFFFFFFFFFFFFFFFFFFFFFFFFFFFF
310
FFFFFFFFFFFFFFFFFFFFFFFFFFFFFFFFFFFFFFFFFFFFFFFFF000FFFFFFFFFFFF
310
FFFFFFFFFFFFFFFFFFFFFFFFFFFFFFFFFFFFFFFFFFFFFFFFFFFFFFFFFFFFFFFF
310
FFFFFFFFFFFFFFFFFFFFFFFFFFFFFFFFFFFFFFFFFFFFFFFFFFFFFFFFFFFFFFFF
310
FFFFFFFFFFFFFFFFFFFFFFFFFFFFFFFFF000FFFFFFFFFFFFFFFFFFFFFFFFFFFF
310
FFFFFFFFFFFFFFFFFFFFFFFFFFFFFFFFFFFFFFFFFFFFFFFFFFFFFFFFFFFFFFFF
310
FFFFFFFFFFFFFFFFFFFFFFFFFFFFFFFFFFFFFFFFFFFFFFFFFFFFFFFFFFFFFFFF
310
FFFFFFFFFFFFFFFFF000FFFFFFFFFFFFFFFFFFFFFFFFFFFFFFFFFFFFFFFFFFFF
310
FFFFFFFFFFFFFFFFFFFFFFFFFFFFFFFFFFFFFFFFFFFFFFFFFFFFFFFFFFFFFFFF
310
FFFFFFFFFFFFFFFFFFFFFFFFFFFFFFFFFFFFFFFFFFFFFFFFFFFFFFFFFFFFFFFF
310
F000FFFFFFFFFFFFFFFFFFFFFFFFFFFFFFFFFFFFFFFFFFFFFFFFFFFFFFFFFFFF
310
FFFFFFFFFFFFFFFFFFFFFFFFFFFFFFFFFFFFFFFFFFFFFFFFFFFFFFFFFFFFFFFF
310
FFFFFFFFFFFFFFFFFFFFFFFFFFFFFFFFFFFFFFFFFFFFFFFFF000FFFFFFFFFFFF
310
FFFFFFFFFFFFFFFFFFFFFFFFFFFFFFFFFFFFFFFFFFFFFFFFFFFFFFFFFFFFFFFF
310
FFFFFFFFFFFFFFFFFFFFFFFFFFFFFFFFFFFFFFFFFFFFFFFFFFFFFFFFFFFFFFFF
310
FFFFFFFFFFFFFFFFFFFFFFFFFFFFFFFFF000FFFFFFFFFFFFFFFFFFFFFFFFFFFF
310
FFFFFFFFFFFFFFFFFFFFFFFFFFFFFFFFFFFFFFFFFFFFFFFFFFFFFFFFFFFFFFFF
310
FFFFFFFFFFFFFFFFFFFFFFFFFFFFFFFFFFFFFFFFFFFFFFFFFFFFFFFFFFFFFFFF
310
FFFFFFFFFFFFFFFFF000FFFFFFFFFFFFFFFFFFFFFFFFFFFFFFFFFFFFFFFFFFFF
310
FFFFFFFFFFFFFFFFFFFFFFFFFFFFFFFFFFFFFFFFFFFFFFFFFFFFFFFFFFFFFFFF
310
FFFFFFFFFFFFFFFFFFFFFFFFFFFFFFFFFFFFFFFFFFFFFFFFFFFFFFFFFFFFFFFF
310
F000FFFFFFFFFFFFFFFFFFFFFFFFFFFFFFFFFFFFFFFFFFFFFFFFFFFFFFFFFFFF
310
FFFFFFFFFFFFFFFFFFFFFFFFFFFFFFFFFFFFFFFFFFFFFFFFFFFFFFFFFFFFFFFF
310
FFFFFFFFFFFFFFFFFFFFFFFFFFFFFFFFFFFFFFFFFFFFFFFFF000FFFFFFFFFFFF
310
FFFFFFFFFFFFFFFFFFFFFFFFFFFFFFFFFFFFFFFFFFFFFFFFFFFFFFFFFFFFFFFF
310
FFFFFFFFFFFFFFFFFFFFFFFFFFFFFFFFFFFFFFFFFFFFFFFFFFFFFFFFFFFFFFFF
310
FFFFFFFFFFFFFFFFFFFFFFFFFFFFFFFFF000FFFFFFFFFFFFFFFFFFFFFFFFFFFF
310
FFFFFFFFFFFFFFFFFFFFFFFFFFFFFFFFFFFFFFFFFFFFFFFFFFFFFFFFFFFFFFFF
310
FFFFFFFFFFFFFFFFFFFFFFFFFFFFFFFFFFFFFFFFFFFFFFFFFFFFFFFFFFFFFFFF
310
FFFFFFFFFFFFFFFFF000FFFFFFFFFFFFFFFFFFFFFFFFFFFFFFFFFFFFFFFFFFFF
310
FFFFFFFFFFFFFFFFFFFFFFFFFFFFFFFFFFFFFFFFFFFFFFFFFFFFFFFFFFFFFFFF
310
FFFFFFFFFFFFFFFFFFFFFFFFFFFFFFFFFFFFFFFFFFFFFFFFFFFFFFFFFFFFFFFF
310
F000FFFFFFFFFFFFFFFFFFFFFFFFFFFFFFFFFFFFFFFFFFFFFFFFFFFFFFFFFFFF
310
FFFFFFFFFFFFFFFFFFFFFFFFFFFFFFFFFFFFFFFFFFFFFFFFFFFFFFFFFFFFFFFF
310
FFFFFFFFFFFFFFFFFFFFFFFFFFFFFFFFFFFFFFFFFFFFFFFFF000FFFFFFFFFFFF
310
FFFFFFFFFFFFFFFFFFFFFFFFFFFFFFFFFFFFFFFFFFFFFFFFFFFFFFFFFFFFFFFF
310
FFFFFFFFFFFFFFFFFFFFFFFFFFFFFFFFFFFFFFFFFFFFFFFFFFFFFFFFFFFFFFFF
310
FFFFFFFFFFFFFFFFFFFFFFFFFFFFFFFFF000FFFFFFFFFFFFFFFFFFFFFFFFFFFF
310
FFFFFFFFFFFFFFFFFFFFFFFFFFFFFFFFFFFFFFFFFFFFFFFFFFFFFFFFFFFFFFFF
310
FFFFFFFFFFFFFFFFFFFFFFFFFFFFFFFFFFFFFFFFFFFFFFFFFFFFFFFFFFFFFFFF
310
FFFFFFFFFFFFFFFFF000FFFFF80003FFFFFFFFFFFFFFFFFFFFFFFFFFFFFFFFFF
310
FFFFF00007FFFFFFFFFF00007FFFFFF800000000000000007FFFFFFFFFFFFFFF
310
FFFFFFFC001FFFFFFFFFFFFFFC001FFFFFFFFFFFFFFFFFFFFFFFFFFE0007FFFF
310
F000FFFF8000007FFFFFFFF8000FFFFFC0007FFFFF80007FFFFF0000007FFFFF
310
FFF8000007FFFFF800000000000000007FFFFFF0001FFFFFFFFFFFC00001FFFF
310
FFFFFFFFC00001FFFFFFFF000000000003FFFFE000007FFFF000FFFE0000000F
310
FFFFFFF0000FFFFF80007FFFFF80007FFFFC0000001FFFFFFFC0000001FFFFF8
310
00000000000000007FFFFFF0001FFFFFFFFFFE0000003FFFFFFFFFFE0000003F
310
FFFFFF000000000003FFFF0000000FFFF000FFF800000003FFFFFFF00007FFFF
310
80007FFFFF80007FFFF000000007FFFFFF000000003FFFF80000000000000000
310
7FFFFFF0001FFFFFFFFFF80000000FFFFFFFFFF80000000FFFFFFF0000000000
310
03FFFC00000003FFF000FFE000000000FFFFFFF00007FFFF80003FFFFF80007F
310
FFC000000001FFFFFC000000001FFFF800000000000000007FFFFFF0001FFFFF
310
FFFFE000000003FFFFFFFFE000000003FFFFFF000000000003FFF000000000FF
310
F000FF80000000007FFFFFF00007FFFF80003FFFFF80007FFF8000000000FFFF
310
F80000000007FFF800000000000000007FFFFFF0001FFFFFFFFFC000000001FF
310
FFFFFFC000000001FFFFFF000000000003FFC0000000007FF000FF0000000000
310
3FFFFFE00007FFFF00003FFFFF80007FFE00000000003FFFF00000000003FFF8
310
00000000000000007FFFFFF0001FFFFFFFFF8000000000FFFFFFFF8000000000
310
FFFFFF000000000003FF80000000003FF000FE00000000001FFFFFE00003FFFF
310
00003FFFFF80007FFC00000000001FFFE00000000001FFF8000001FFFE000000
310
7FFFFFF0001FFFFFFFFE00000000003FFFFFFE00000000003FFFFF0000000000
310
03FF00000000001FF000FC00000000000FFFFFE00003FFFF00001FFFFF80007F
310
F800000000001FFFC00000000000FFF8000001FFFE0000007FFFFFF0001FFFFF
310
FFFC00000000001FFFFFFC00000000001FFFFF000000000003FE00000000000F
310
F000F8000000000007FFFFE00003FFFF00001FFFFF80007FF800000000000FFF
310
800000000000FFF8000001FFFE0000007FFFFFF0001FFFFFFFF800000000000F
310
FFFFF800000000000FFFFF000000000003FC000000000007F000F80000000000
310
03FFFFC00003FFFE00001FFFFF80007FF0000000000007FF0000000000007FF8
310
000001FFFE0000007FFFFFF0001FFFFFFFF0000000000007FFFFF00000000000
310
07FFFF000000000003F8000000000003F000F0000000000003FFFFC00001FFFE
310
00001FFFFF80007FE0000000000007FE0000000000003FF8000001FFFE000000
310
7FFFFFF0001FFFFFFFF0000000000007FFFFF0000000000007FFFF0000000000
310
03F800001F800003F000E00001FFF00001FFFFC00001FFFE00000FFFFF80007F
310
E00001FFE00003FE00001FFF00003FF8000001FFFE0000007FFFFFF0001FFFFF
310
FFE000003E000003FFFFE000003E000003FFFF000000000003F00001FFF80001
310
F000E00007FFFC0001FFFFC00001FFFE00000FFFFF80007FC0000FFFFC0003FC
310
0000FFFFC0001FF8000001FFFE0000007FFFFFF0001FFFFFFFC00003FFE00001
310
FFFFC00003FFE00001FFFF0001FFFFFFFFF00007FFFE0001F000E0000FFFFF00
310
00FFFF800001FFFC00000FFFFF80007FC0001FFFFE0001FC0001FFFFE0001FF8
310
000001FFFE0000007FFFFFF0001FFFFFFF80000FFFF80000FFFF80000FFFF800
310
00FFFF0003FFFFFFFFE0000FFFFF8000F000C0003FFFFF8000FFFF800000FFFC
310
000007FFFF80007F80003FFFFF0001FC0003FFFFF0001FF8000001FFFE000000
310
7FFFFFF0001FFFFFFF80003FFFFE0000FFFF80003FFFFE0000FFFF0003FFFFFF
310
FFE0003FFFFF8000F000C0003FFFFF8000FFFF800000FFFC000007FFFF80007F
310
80007FFFFF8001F80007FFFFF8000FF8000001FFFE0000007FFFFFF0001FFFFF
310
FF00007FFFFF00007FFF00007FFFFF00007FFF0003FFFFFFFFE0003FFFFFC000
310
F000C0007FFFFFC000FFFF000000FFFC000007FFFF80007F8000FFFFFF8000F8
310
000FFFFFF8000FF8000001FFFE0000007FFFFFF0001FFFFFFF0000FFFFFF8000
310
7FFF0000FFFFFF80007FFF0003FFFFFFFFC0007FFFFFC00070008000FFFFFFC0
310
00FFFF000000FFF8000007FFFF80007F8000FFFFFF8000F8000FFFFFF8000FF8
310
000001FFFE0000007FFFFFF0001FFFFFFE0001FFFFFFC0003FFE0001FFFFFFC0
310
003FFF0003FFFFFFFFC0007FFFFFE00070008000FFFFFFC0007FFF0000007FF8
310
000003FFFF80007F0001FFFFFF8000F8000FFFFFF8000FF8000001FFFE000000
310
7FFFFFF0001FFFFFFE0001FFFFFFC0003FFE0001FFFFFFC0003FFF0003FFFFFF
310
FFC000FFFFFFE00070008000FFFFFFC0007FFF0000007FF8000003FFFF80007F
310
0001FFFFFF8000F8001FFFFFF8000FF8000001FFFE0000007FFFFFF0001FFFFF
310
FE0003FFFFFFE0003FFE0003FFFFFFE0003FFF0003FFFFFFFFC000FFFFFFE000
310
70008000FFFFFFC0007FFE0000007FF8000003FFFF80007F0001FFFFFF8000F0
310
001FFFFFF8000FF8000001FFFE0000007FFFFFF0001FFFFFFC0003FFFFFFE000
310
1FFC0003FFFFFFE0001FFF0003FFFFFFFFC000FFFFFFC00070008000FFFFFF80
310
007FFE0000007FF0000003FFFF80007F0001FFFFFF0000F0001FFFFFF8000FF8
310
000001FFFE0000007FFFFFF0001FFFFFFC0007FFFFFFF0001FFC0007FFFFFFF0
310
001FFF0003FFFFFFFFC000FFFFFFC00070008001FFFFFF0000FFFE0000003FF0
310
000001FFFF80007F0001FFFFFF0000F8001FFFFFF0000FF8000001FFFE000000
310
7FFFFFF0001FFFFFFC0007FFFFFFF0001FFC0007FFFFFFF0001FFF0003FFFFFF
310
FFC001FFFFFF80007000FFFFFFFFFE0000FFFE0008003FF0008001FFFF80007F
310
FFFFFFFFFC0000FFFFFFFFFFE0000FF8000001FFFE0000007FFFFFF0001FFFFF
310
F8000FFFFFFFF8000FF8000FFFFFFFF8000FFF0003FFFFFFFFFFFFFFFFFF0000
310
7000FFFFFFFFFC0000FFFC0008003FF0008001FFFF80007FFFFFFFFFF80001FF
310
FFFFFFFF80000FF8000001FFFE0000007FFFFFF0001FFFFFF8000FFFFFFFF800
310
0FF8000FFFFFFFF8000FFF0003FFFFFFFFFFFFFFFFFE0000F000FFFFFFFFE000
310
00FFFC000C003FE000C001FFFF80007FFFFFFFFFC00001FFFFFFFFFE00001FF8
310
000001FFFE0000007FFFFFF0001FFFFFF8000FFFFFFFF8000FF8000FFFFFFFF8
310
000FFF0003FFFFFFFFFFFFFFFFF00000F000FFFFFFFE000001FFFC000C001FE0
310
00C000FFFF80007FFFFFFFFE000001FFFFFFFFE000001FF80FFFFFFFFFFFFFC0
310
7FFFFFF0001FFFFFF8000FFFFFFFF8000FF8000FFFFFFFF8000FFF0003FFFFFF
310
FFFFFFFFFF800000F000FFFFFFC0000001FFFC001C001FE001C000FFFF80007F
310
FFFFFF80000003FFFFFFF80000001FF80FFFFFFFFFFFFFC07FFFFFF0001FFFFF
310
F8001FFFFFFFFC000FF8001FFFFFFFFC000FFF0003FFFFFFFFFFFFFFF0000001
310
F000FFFFF800000001FFF8001C001FE001C000FFFF80007FFFFFF800000003FF
310
FFFF800000003FF80FFFFFFFFFFFFFC07FFFFFF0001FFFFFF8001FFFFFFFFC00
310
0FF8001FFFFFFFFC000FFF0003FFFFFFFFFFFFFE00000001F000FFFFC0000000
310
03FFF8001E001FC001E000FFFF80007FFFFF8000000007FFFFFC000000003FF8
310
0FFFFFFFFFFFFFC07FFFFFF0001FFFFFF8001FFFFFFFFC000FF8001FFFFFFFFC
310
000FFF0003FFFFFFFFFFFFE000000003F000FFFE0000000007FFF8001E000FC0
310
01E0007FFF80007FFFFE0000000007FFFFE0000000007FF80FFFFFFFFFFFFFC0
310
7FFFFFF0001FFFFFF0001FFFFFFFFC0007F0001FFFFFFFFC0007FF0003FFFFFF
310
FFFFFF0000000003F000FFF80000000007FFF8001E000FC003E0007FFF80007F
310
FFF0000000000FFFFF8000000000FFF80FFFFFFFFFFFFFC07FFFFFF0001FFFFF
310
F0001FFFFFFFFC0007F0001FFFFFFFFC0007FF0003FFFFFFFFFFFC0000000007
310
F000FFE0000000000FFFF0003E000FC003E0007FFF80007FFFC0000000001FFF
310
FE0000000001FFF80FFFFFFFFFFFFFC07FFFFFF0001FFFFFF0001FFFFFFFFC00
310
07F0001FFFFFFFFC0007FF0003FFFFFFFFFFF0000000000FF000FFC000000000
310
1FFFF0003F000F8003F0003FFF80007FFF80000000003FFFF80000000003FFF8
310
0FFFFFFFFFFFFFC07FFFFFF0001FFFFFF0001FFFFFFFFC0007F0001FFFFFFFFC
310
0007FF0003FFFFFFFFFFE0000000001FF000FF00000000007FFFF0003F000780
310
03F0003FFF80007FFF00000000007FFFF00000000007FFF80FFFFFFFFFFFFFC0
310
7FFFFFF0001FFFFFF0001FFFFFFFFC0007F0001FFFFFFFFC0007FF0003FFFFFF
310
FFFF80000000007FF000FE0000000000FFFFE0003F00078007F0003FFF80007F
310
FE0000000001FFFFE0000000001FFFF80FFFFFFFFFFFFFC07FFFFFF0001FFFFF
310
F0001FFFFFFFFC0007F0001FFFFFFFFC0007FF0003FFFFFFFFFF0000000000FF
310
F000FC0000000003FFFFE0007F00078007F0003FFF80007FFC0000000007FFFF
310
C0000000007FFFF80FFFFFFFFFFFFFC07FFFFFF0001FFFFFF8001FFFFFFFFC00
310
0FF8001FFFFFFFFC000FFF0003FFFFFFFFFE0000000003FFF000FC000000000F
310
FFFFE0007F80070007F8001FFF80007FF8000000001FFFFF8000000001FFFFF8
310
0FFFFFFFFFFFFFC07FFFFFF0001FFFFFF8001FFFFFFFFC000FF8001FFFFFFFFC
310
000FFF0003FFFFFFFFFC000000000FFFF000F8000000007FFFFFE0007F800700
310
07F8001FFF80007FF000000000FFFFFF800000000FFFFFF80FFFFFFFFFFFFFC0
310
7FFFFFF0001FFFFFF8000FFFFFFFF8000FF8000FFFFFFFF8000FFF0003FFFFFF
310
FFFC000000007FFFF000F800000007FFFFFFC0007F8003000FF8001FFF80007F
310
F000000007FFFFFF000000007FFFFFF80FFFFFFFFFFFFFC07FFFFFF0001FFFFF
310
F8000FFFFFFFF8000FF8000FFFFFFFF8000FFF0003FFFFFFFFF80000000FFFFF
310
F000F0000000FFFFFFFFC000FF8003000FF8001FFF80007FE0000000FFFFFFFF
310
0000000FFFFFFFF8000001FFFE0000007FFFFFF0001FFFFFF8000FFFFFFFF800
310
0FF8000FFFFFFFF8000FFF0003FFFFFFFFF8000000FFFFFFF000F000000FFFFF
310
FFFFC000FFC002000FF8000FFF80007FE000001FFFFFFFFE000001FFFFFFFFF8
310
000001FFFE0000007FFFFFF0001FFFFFF8000FFFFFFFF8000FF8000FFFFFFFF8
310
000FFF0003FFFFFFFFF000001FFFFFFFF000E00000FFFFFFFFFFC000FFC00200
310
0FFC000FFF80007FE00001FFFFFFFFFE00001FFFFFFFFFF8000001FFFE000000
310
7FFFFFF0001FFFFFFC000FFFFFFFF8001FFC000FFFFFFFF8001FFF0003FFFFFF
310
FFF00001FFFFFFFFF000E00007FFFFFFFFFF8000FFC000001FFC000FFF80007F
310
C0000FFFFFFFFFFE0000FFFFFFFFFFF8000001FFFE0000007FFFFFF0001FFFFF
310
FC0007FFFFFFF0001FFC0007FFFFFFF0001FFF0003FFFFFFFFF00007FFFFFFFF
310
F000E0001FFFFFFFFFFF8000FFC000001FFC000FFF80007FC0003FFFFFFFFFFE
310
0001FFFFFFFFFFF8000001FFFE0000007FFFFFF0001FFFFFFC0007FFFFFFF000
310
1FFC0007FFFFFFF0001FFF0003FFFFFFFFF0001FFFFFFFFFF000E0003FFFFF00
310
03FF8001FFE000001FFC0007FF80007FC0007FFFFF0007FC0003FFFFF0003FF8
310
000001FFFE0000007FFFFFF0001FFFFFFC0003FFFFFFE0001FFC0003FFFFFFE0
310
001FFF0003FFFFFFFFF0003FFFFFFFFFF000E0003FFFFF0001FF8001FFE00000
310
1FFE0007FF80007FC0007FFFFE0003FC0007FFFFE0003FF8000001FFFE000000
310
7FFFFFF0001FFFFFFE0003FFFFFFE0003FFE0003FFFFFFE0003FFF0003FFFFFF
310
FFF0003FFFFF8001F000E0003FFFFF0001FF0001FFE000001FFE0007FF80007F
310
C0007FFFFE0003FC0007FFFFE0003FF8000001FFFE0000007FFFFFF0001FFFFF
310
FE0001FFFFFFC0003FFE0001FFFFFFC0003FFF0003FFFFFFFFF0003FFFFF0001
310
F000E0003FFFFF0003FF0001FFE000003FFE0007FF80007FC0007FFFFE0003FC
310
0007FFFFE0003FF8000001FFFE0000007FFFFFF0001FFFFFFF0001FFFFFFC000
310
7FFF0001FFFFFFC0007FFF0003FFFFFFFFF0003FFFFF0001F000E0003FFFFE00
310
03FF0003FFF000003FFE0003FF80007FC0007FFFFC0003FE0007FFFFE0003FF8
310
000001FFFE0000007FFFFFF0001FFFFFFF0000FFFFFF80007FFF0000FFFFFF80
310
007FFF0003FFFFFFFFF0003FFFFF0001F000E0003FFFFE0003FF0003FFF00000
310
3FFF0003FF80007FC0007FFFFC0007FE0007FFFFC0003FF8000001FFFE000000
310
7FFFFFF0001FFFFFFF80007FFFFF0000FFFF80007FFFFF0000FFFF0003FFFFFF
310
FFF0003FFFFF0003F000E0003FFFFC0003FE0003FFF000003FFF0003FF80007F
310
E0003FFFF80007FE0003FFFFC0007FF8000001FFFE0000007FFFFFF0001FFFFF
310
FF80003FFFFE0000FFFF80003FFFFE0000FFFF0003FFFFFFFFF0001FFFFE0003
310
F000F0001FFFF80003FE0003FFF000007FFF0001FF80007FE0003FFFF00007FE
310
0001FFFF80007FF8000001FFFE0000007FFFFFF0001FFFFFFFC0000FFFF80001
310
FFFFC0000FFFF80001FFFF0003FFFFFFFFF0001FFFFC0003F000F0000FFFF000
310
07FE0007FFF800007FFF0001FF80007FE0001FFFE00007FF0000FFFE00007FF8
310
000001FFFE0000007FFFFFF0001FFFFFFFC00003FFE00001FFFFC00003FFE000
310
01FFFF0003FFFFFFFFF8000FFFF80003F000F00003FFC00007FC0007FFF80000
310
7FFF8001FF80007FF00007FF80000FFF00007FF80000FFF8000001FFFE000000
310
7F80000000000001FFE000003E000003FFFFE000003E000003FFFF0003FFFFFF
310
FFF80003FFE00007F000F800000000000FFC0007FFF800007FFF8001FF80007F
310
F000000000000FFF000000000000FFF8000001FFFE0000007F80000000000001
310
FFF0000000000007FFFFF0000000000007FFFF0003FFFFFFFFFC00007E000007
310
F000F800000000000FFC0007FFF80000FFFF8000FF80007FF800000000001FFF
310
800000000001FFF8000001FFFE0000007F80000000000001FFF800000000000F
310
FFFFF800000000000FFFFF0003FFFFFFFFFC00000000000FF000FC0000000000
310
1FFC0007FFFC0000FFFF8000FF80007FF800000000003FFFC00000000001FFF8
310
000001FFFE0000007F80000000000001FFF800000000000FFFFFF80000000000
310
0FFFFF0003FFFFFFFFFE00000000001FF000FE00000000003FF8000FFFFC0000
310
FFFF8000FF80007FFC00000000003FFFC00000000003FFF8000001FFFE000000
310
7F80000000000001FFFC00000000001FFFFFFC00000000001FFFFF0003FFFFFF
310
FFFF00000000001FF000FF00000000003FF8000FFFFC0000FFFFC000FF80007F
310
FE00000000007FFFE00000000007FFF8000001FFFE0000007F80000000000001
310
FFFE00000000003FFFFFFE00000000003FFFFF0003FFFFFFFFFF80000000003F
310
F000FF80000000007FF8000FFFFC0001FFFFC0007F80007FFF0000000000FFFF
310
F0000000000FFFF800000000000000007F80000000000001FFFF8000000000FF
310
FFFFFF8000000000FFFFFF0003FFFFFFFFFFC0000000007FF000FFC000000000
310
FFF8000FFFFE0001FFFFC0007F80007FFF8000000001FFFFF8000000001FFFF8
310
00000000000000007F80000000000001FFFFC000000001FFFFFFFFC000000001
310
FFFFFF0003FFFFFFFFFFE000000000FFF000FFE000000003FFF0001FFFFE0001
310
FFFFC0007F80007FFFC000000007FFFFFE000000003FFFF80000000000000000
310
7F80000000000001FFFFE000000003FFFFFFFFE000000003FFFFFF0003FFFFFF
310
FFFFF000000003FFF000FFF80000000FFFF0001FFFFE0001FFFFE0007F80007F
310
FFF00000000FFFFFFF00000000FFFFF800000000000000007F80000000000001
310
FFFFF80000000FFFFFFFFFF80000000FFFFFFF0003FFFFFFFFFFFC0000000FFF
310
F000FFFE0000003FFFF0001FFFFE0003FFFFE0003F80007FFFFC0000003FFFFF
310
FFC0000003FFFFF800000000000000007F80000000000001FFFFFE0000003FFF
310
FFFFFFFE0000003FFFFFFF0003FFFFFFFFFFFF0000003FFFF000FFFF800000FF
310
FFF0001FFFFF0003FFFFE0003F80007FFFFF000001FFFFFFFFF800001FFFFFF8
310
00000000000000007F80000000000001FFFFFFC00001FFFFFFFFFFFFC00001FF
310
FFFFFF0003FFFFFFFFFFFFC00000FFFFF000FFFFF8000FFFFFFFFFFFFFFFFFFF
310
FFFFFFFFFFFFFFFFFFFFF0001FFFFFFFFFFF0000FFFFFFF80000000000000000
310
7FFFFFFFFFFFFFFFFFFFFFFC001FFFFFFFFFFFFFFC001FFFFFFFFFFFFFFFFFFF
310
FFFFFFFC001FFFFFF000FFFFFFFFFFFFFFFFFFFFFFFFFFFFFFFFFFFFFFFFFFFF
310
FFFFFFFFFFFFFFFFFFFFFFFFFFFFFFFFFFFFFFFFFFFFFFFFFFFFFFFFFFFFFFFF
310
FFFFFFFFFFFFFFFFFFFFFFFFFFFFFFFFFFFFFFFFFFFFFFFFFFFFFFFFFFFFFFFF
310
F000FFFFFFFFFFFFFFFFFFFFFFFFFFFFFFFFFFFFFFFFFFFFFFFFFFFFFFFFFFFF
310
FFFFFFFFFFFFFFFFFFFFFFFFFFFFFFFFFFFFFFFFFFFFFFFFFFFFFFFFFFFFFFFF
310
FFFFFFFFFFFFFFFFFFFFFFFFFFFFFFFFFFFFFFFFFFFFFFFFF000FFFFFFFFFFFF
310
FFFFFFFFFFFFFFFFFFFFFFFFFFFFFFFFFFFFFFFFFFFFFFFFFFFFFFFFFFFFFFFF
310
FFFFFFFFFFFFFFFFFFFFFFFFFFFFFFFFFFFFFFFFFFFFFFFFFFFFFFFFFFFFFFFF
310
FFFFFFFFFFFFFFFFFFFFFFFFFFFFFFFFF000FFFFFFFFFFFFFFFFFFFFFFFFFFFF
310
FFFFFFFFFFFFFFFFFFFFFFFFFFFFFFFFFFFFFFFFFFFFFFFFFFFFFFFFFFFFFFFF
310
FFFFFFFFFFFFFFFFFFFFFFFFFFFFFFFFFFFFFFFFFFFFFFFFFFFFFFFFFFFFFFFF
310
FFFFFFFFFFFFFFFFF000FFFFFFFFFFFFFFFFFFFFFFFFFFFFFFFFFFFFFFFFFFFF
310
FFFFFFFFFFFFFFFFFFFFFFFFFFFFFFFFFFFFFFFFFFFFFFFFFFFFFFFFFFFFFFFF
310
FFFFFFFFFFFFFFFFFFFFFFFFFFFFFFFFFFFFFFFFFFFFFFFFFFFFFFFFFFFFFFFF
310
F000FFFFFFFFFFFFFFFFFFFFFFFFFFFFFFFFFFFFFFFFFFFFFFFFFFFFFFFFFFFF
310
FFFFFFFFFFFFFFFFFFFFFFFFFFFFFFFFFFFFFFFFFFFFFFFFFFFFFFFFFFFFFFFF
310
FFFFFFFFFFFFFFFFFFFFFFFFFFFFFFFFFFFFFFFFFFFFFFFFF000FFFFFFFFFFFF
310
FFFFFFFFFFFFFFFFFFFFFFFFFFFFFFFFFFFFFFFFFFFFFFFFFFFFFFFFFFFFFFFF
310
FFFFFFFFFFFFFFFFFFFFFFFFFFFFFFFFFFFFFFFFFFFFFFFFFFFFFFFFFFFFFFFF
310
FFFFFFFFFFFFFFFFFFFFFFFFFFFFFFFFF000FFFFFFFFFFFFFFFFFFFFFFFFFFFF
310
FFFFFFFFFFFFFFFFFFFFFFFFFFFFFFFFFFFFFFFFFFFFFFFFFFFFFFFFFFFFFFFF
310
FFFFFFFFFFFFFFFFFFFFFFFFFFFFFFFFFFFFFFFFFFFFFFFFFFFFFFFFFFFFFFFF
310
FFFFFFFFFFFFFFFFF000FFFFFFFFFFFFFFFFFFFFFFFFFFFFFFFFFFFFFFFFFFFF
310
FFFFFFFFFFFFFFFFFFFFFFFFFFFFFFFFFFFFFFFFFFFFFFFFFFFFFFFFFFFFFFFF
310
FFFFFFFFFFFFFFFFFFFFFFFFFFFFFFFFFFFFFFFFFFFFFFFFFFFFFFFFFFFFFFFF
310
F000FFFFFFFFFFFFFFFFFFFFFFFFFFFFFFFFFFFFFFFFFFFFFFFFFFFFFFFFFFFF
310
FFFFFFFFFFFFFFFFFFFFFFFFFFFFFFFFFFFFFFFFFFFFFFFFFFFFFFFFFFFFFFFF
310
FFFFFFFFFFFFFFFFFFFFFFFFFFFFFFFFFFFFFFFFFFFFFFFFF000FFFFFFFFFFFF
310
FFFFFFFFFFFFFFFFFFFFFFFFFFFFFFFFFFFFFFFFFFFFFFFFFFFFFFFFFFFFFFFF
310
FFFFFFFFFFFFFFFFFFFFFFFFFFFFFFFFFFFFFFFFFFFFFFFFFFFFFFFFFFFFFFFF
310
FFFFFFFFFFFFFFFFFFFFFFFFFFFFFFFFF000FFFFFFFFFFFFFFFFFFFFFFFFFFFF
310
FFFFFFFFFFFFFFFFFFFFFFFFFFFFFFFFFFFFFFFFFFFFFFFFFFFFFFFFFFFFFFFF
310
FFFFFFFFFFFFFFFFFFFFFFFFFFFFFFFFFFFFFFFFFFFFFFFFFFFFFFFFFFFFFFFF
310
FFFFFFFFFFFFFFFFF000FFFFFFFFFFFFFFFFFFFFFFFFFFFFFFFFFFFFFFFFFFFF
310
FFFFFFFFFFFFFFFFFFFFFFFFFFFFFFFFFFFFFFFFFFFFFFFFFFFFFFFFFFFFFFFF
310
FFFFFFFFFFFFFFFFFFFFFFFFFFFFFFFFFFFFFFFFFFFFFFFFFFFFFFFFFFFFFFFF
310
F000FFFFFFFFFFFFFFFFFFFFFFFFFFFFFFFFFFFFFFFFFFFFFFFFFFFFFFFFFFFF
310
FFFFFFFFFFFFFFFFFFFFFFFFFFFFFFFFFFFFFFFFFFFFFFFFFFFFFFFFFFFFFFFF
310
FFFFFFFFFFFFFFFFFFFFFFFFFFFFFFFFFFFFFFFFFFFFFFFFF000FFFFFFFFFFFF
310
FFFFFFFFFFFFFFFFFFFFFFFFFFFFFFFFFFFFFFFFFFFFFFFFFFFFFFFFFFFFFFFF
310
FFFFFFFFFFFFFFFFFFFFFFFFFFFFFFFFFFFFFFFFFFFFFFFFFFFFFFFFFFFFFFFF
310
FFFFFFFFFFFFFFFFFFFFFFFFFFFFFFFFF000FFFFFFFFFFFFFFFFFFFFFFFFFFFF
310
FFFFFFFFFFFFFFFFFFFFFFFFFFFFFFFFFFFFFFFFFFFFFFFFFFFFFFFFFFFFFFFF
310
FFFFFFFFFFFFFFFFFFFFFFFFFFFFFFFFFFFFFFFFFFFFFFFFFFFFFFFFFFFFFFFF
310
FFFFFFFFFFFFFFFFF000FFFFFFFFFFFFFFFFFFFFFFFFFFFFFFFFFFFFFFFFFFFF
310
FFFFFFFFFFFFFFFFFFFFFFFFFFFFFFFFFFFFFFFFFFFFFFFFFFFFFFFFFFFFFFFF
310
FFFFFFFFFFFFFFFFFFFFFFFFFFFFFFFFFFFFFFFFFFFFFFFFFFFFFFFFFFFFFFFF
310
F000FFFFFFFFFFFFFFFFFFFFFFFFFFFFFFFFFFFFFFFFFFFFFFFFFFFFFFFFFFFF
310
FFFFFFFFFFFFFFFFFFFFFFFFFFFFFFFFFFFFFFFFFFFFFFFFFFFFFFFFFFFFFFFF
310
FFFFFFFFFFFFFFFFFFFFFFFFFFFFFFFFFFFFFFFFFFFFFFFFF000FFFFFFFFFFFF
310
FFFFFFFFFFFFFFFFFFFFFFFFFFFFFFFFFFFFFFFFFFFFFFFFFFFFFFFFFFFFFFFF
310
FFFFFFFFFFFFFFFFFFFFFFFFFFFFFFFFFFFFFFFFFFFFFFFFFFFFFFFFFFFFFFFF
310
FFFFFFFFFFFFFFFFFFFFFFFFFFFFFFFFF000FFFFFFFFFFFFFFFFFFFFFFFFFFFF
310
FFFFFFFFFFFFFFFFFFFFFFFFFFFFFFFFFFFFFFFFFFFFFFFFFFFFFFFFFFFFFFFF
310
FFFFFFFFFFFFFFFFFFFFFFFFFFFFFFFFFFFFFFFFFFFFFFFFFFFFFFFFFFFFFFFF
310
FFFFFFFFFFFFFFFFF000FFFFFFFFFFFFFFFFFFFFFFFFFFFFFFFFFFFFFFFFFFFF
310
FFFFFFFFFFFFFFFFFFFFFFFFFFFFFFFFFFFFFFFFFFFFFFFFFFFFFFFFFFFFFFFF
310
FFFFFFFFFFFFFFFFFFFFFFFFFFFFFFFFFFFFFFFFFFFFFFFFFFFFFFFFFFFFFFFF
310
F000FFFFFFFFFFFFFFFFFFFFFFFFFFFFFFFFFFFFFFFFFFFFFFFFFFFFFFFFFFFF
310
FFFFFFFFFFFFFFFFFFFFFFFFFFFFFFFFFFFFFFFFFFFFFFFFFFFFFFFFFFFFFFFF
310
FFFFFFFFFFFFFFFFFFFFFFFFFFFFFFFFFFFFFFFFFFFFFFFFF000FFFFFFFFFFFF
310
FFFFFFFFFFFFFFFFFFFFFFFFFFFFFFFFFFFFFFFFFFFFFFFFFFFFFFFFFFFFFFFF
310
FFFFFFFFFFFFFFFFFFFFFFFFFFFFFFFFFFFFFFFFFFFFFFFFFFFFFFFFFFFFFFFF
310
FFFFFFFFFFFFFFFFFFFFFFFFFFFFFFFFF0000000000000000000000000000000
310
0000000000000000000000000000000000000000000000000000000000000000
310
0000000000000000000000000000000000000000000000000000000000000000
310
0000000000000000000000000000000000000000000000000000000000000000
310
0000000000000000000000000000000000000000000000000000000000000000
310
0000000000000000000000000000000000000000000000000000000000000000
310
0000000000000000000000000000000000000000000000000000000000000000
310
0000000000000000000000000000000000000000000000000000000000000000
310
0000000000000000000000000000000000000000000000000000000000000000
310
0000000000000000000000000000000000000000000000000000000000000000
310
0000000000000000000000000000000000000000000000000000000000000000
310
0000000000000000000000000000000000000000000000000000000000000000
310
0000000000000000000000000000000000000000000000000000000000000000
310
0000000000000000000000000000000000000000000000000000000000000000
310
0000000000000000000000000000000000000000000000000000000000000000
310
0000000000000000000000000000000000000000000000000000000000000000
  1
OLE
  0
ENDSEC
  0
SECTION
  2
OBJECTS
  0
DICTIONARY
  5
C
330
0
100
AcDbDictionary
281
     1
  3
ACAD_GROUP
350
D
  3
ACAD_LAYOUT
350
1A
  3
ACAD_MLINESTYLE
350
17
  3
ACAD_PLOTSETTINGS
350
19
  3
ACAD_PLOTSTYLENAME
350
E
  0
DICTIONARY
  5
D
102
{ACAD_REACTORS
330
C
102
}
330
C
100
AcDbDictionary
281
     1
  0
DICTIONARY
  5
1A
102
{ACAD_REACTORS
330
C
102
}
330
C
100
AcDbDictionary
281
     1
  3
Layout1
350
1E
  3
Layout2
350
26
  3
Model
350
22
  0
DICTIONARY
  5
17
102
{ACAD_REACTORS
330
C
102
}
330
C
100
AcDbDictionary
281
     1
  3
Standard
350
18
  0
DICTIONARY
  5
19
102
{ACAD_REACTORS
330
C
102
}
330
C
100
AcDbDictionary
281
     1
  0
ACDBDICTIONARYWDFLT
  5
E
102
{ACAD_REACTORS
330
C
102
}
330
C
100
AcDbDictionary
281
     1
  3
Normal
350
F
100
AcDbDictionaryWithDefault
340
F
  0
LAYOUT
  5
1E
102
{ACAD_REACTORS
330
1A
102
}
330
1A
100
AcDbPlotSettings
  1

  2
none_device
  4

  6

 40
0.0
 41
0.0
 42
0.0
 43
0.0
 44
0.0
 45
0.0
 46
0.0
 47
0.0
 48
0.0
 49
0.0
140
0.0
141
0.0
142
1.0
143
1.0
 70
   688
 72
     0
 73
     0
 74
     5
  7

 75
    16
147
1.0
148
0.0
149
0.0
100
AcDbLayout
  1
Layout1
 70
     1
 71
     1
 10
0.0
 20
0.0
 11
420.0
 21
297.0
 12
0.0
 22
0.0
 32
0.0
 14
1.0000000000E+20
 24
1.0000000000E+20
 34
1.0000000000E+20
 15
-1.0000000000E+20
 25
-1.0000000000E+20
 35
-1.0000000000E+20
146
0.0
 13
0.0
 23
0.0
 33
0.0
 16
1.0
 26
0.0
 36
0.0
 17
0.0
 27
1.0
 37
0.0
 76
     0
330
1B
  0
LAYOUT
  5
26
102
{ACAD_REACTORS
330
1A
102
}
330
1A
100
AcDbPlotSettings
  1

  2
none_device
  4

  6

 40
0.0
 41
0.0
 42
0.0
 43
0.0
 44
0.0
 45
0.0
 46
0.0
 47
0.0
 48
0.0
 49
0.0
140
0.0
141
0.0
142
1.0
143
1.0
 70
   688
 72
     0
 73
     0
 74
     5
  7

 75
    16
147
1.0
148
0.0
149
0.0
100
AcDbLayout
  1
Layout2
 70
     1
 71
     2
 10
0.0
 20
0.0
 11
0.0
 21
0.0
 12
0.0
 22
0.0
 32
0.0
 14
0.0
 24
0.0
 34
0.0
 15
0.0
 25
0.0
 35
0.0
146
0.0
 13
0.0
 23
0.0
 33
0.0
 16
1.0
 26
0.0
 36
0.0
 17
0.0
 27
1.0
 37
0.0
 76
     0
330
23
  0
LAYOUT
  5
22
102
{ACAD_REACTORS
330
1A
102
}
330
1A
100
AcDbPlotSettings
  1

  2
none_device
  4

  6

 40
0.0
 41
0.0
 42
0.0
 43
0.0
 44
0.0
 45
0.0
 46
0.0
 47
0.0
 48
0.0
 49
0.0
140
0.0
141
0.0
142
1.0
143
1.0
 70
  1712
 72
     0
 73
     0
 74
     0
  7

 75
     0
147
1.0
148
0.0
149
0.0
100
AcDbLayout
  1
Model
 70
     1
 71
     0
 10
0.0
 20
0.0
 11
297.0
 21
210.0
 12
0.0
 22
0.0
 32
0.0
 14
0.0
 24
0.0
 34
0.0
 15
297.0
 25
210.0
 35
0.0
146
0.0
 13
0.0
 23
0.0
 33
0.0
 16
1.0
 26
0.0
 36
0.0
 17
0.0
 27
1.0
 37
0.0
 76
     0
330
1F
331
29
  0
MLINESTYLE
  5
18
102
{ACAD_REACTORS
330
17
102
}
330
17
100
AcDbMlineStyle
  2
Standard
 70
     0
  3

 62
   256
 51
90.0
 52
90.0
 71
     2
 49
0.5
 62
   256
  6
BYLAYER
 49
-0.5
 62
   256
  6
BYLAYER
  0
ACDBPLACEHOLDER
  5
F
102
{ACAD_REACTORS
330
E
102
}
330
E
  0
ENDSEC
  0
EOF
