  0
SECTION
  2
HEADER
  9
$ACADVER
  1
AC1015
  9
$ACADMAINTVER
 70
     6
  9
$DWGCODEPAGE
  3
ANSI_1252
  9
$INSBASE
 10
0.0
 20
0.0
 30
0.0
  9
$EXTMIN
 10
0.0
 20
0.0
 30
0.0
  9
$EXTMAX
 10
297.0
 20
210.0
 30
0.0
  9
$LIMMIN
 10
0.0
 20
0.0
  9
$LIMMAX
 10
297.0
 20
210.0
  9
$ORTHOMODE
 70
     0
  9
$REGENMODE
 70
     1
  9
$FILLMODE
 70
     1
  9
$QTEXTMODE
 70
     0
  9
$MIRRTEXT
 70
     1
  9
$LTSCALE
 40
1.0
  9
$ATTMODE
 70
     1
  9
$TEXTSIZE
 40
2.0
  9
$TRACEWID
 40
1.0
  9
$TEXTSTYLE
  7
Standard
  9
$CLAYER
  8
0
  9
$CELTYPE
  6
ByLayer
  9
$CECOLOR
 62
   256
  9
$CELTSCALE
 40
1.0
  9
$DISPSILH
 70
     0
  9
$DIMSCALE
 40
1.0
  9
$DIMASZ
 40
3.0
  9
$DIMEXO
 40
0.0
  9
$DIMDLI
 40
3.75
  9
$DIMRND
 40
0.0
  9
$DIMDLE
 40
0.0
  9
$DIMEXE
 40
1.0
  9
$DIMTP
 40
0.0
  9
$DIMTM
 40
0.0
  9
$DIMTXT
 40
2.0
  9
$DIMCEN
 40
2.5
  9
$DIMTSZ
 40
0.0
  9
$DIMTOL
 70
     0
  9
$DIMLIM
 70
     0
  9
$DIMTIH
 70
     1
  9
$DIMTOH
 70
     1
  9
$DIMSE1
 70
     0
  9
$DIMSE2
 70
     0
  9
$DIMTAD
 70
     1
  9
$DIMZIN
 70
     0
  9
$DIMBLK
  1

  9
$DIMASO
 70
     1
  9
$DIMSHO
 70
     1
  9
$DIMPOST
  1

  9
$DIMAPOST
  1

  9
$DIMALT
 70
     0
  9
$DIMALTD
 70
     3
  9
$DIMALTF
 40
0.0393700787
  9
$DIMLFAC
 40
1.0
  9
$DIMTOFL
 70
     1
  9
$DIMTVP
 40
0.0
  9
$DIMTIX
 70
     0
  9
$DIMSOXD
 70
     0
  9
$DIMSAH
 70
     0
  9
$DIMBLK1
  1

  9
$DIMBLK2
  1

  9
$DIMSTYLE
  2
ISO-25
  9
$DIMCLRD
 70
     0
  9
$DIMCLRE
 70
     0
  9
$DIMCLRT
 70
     0
  9
$DIMTFAC
 40
1.0
  9
$DIMGAP
 40
1.524
  9
$DIMJUST
 70
     0
  9
$DIMSD1
 70
     0
  9
$DIMSD2
 70
     0
  9
$DIMTOLJ
 70
     0
  9
$DIMTZIN
 70
     0
  9
$DIMALTZ
 70
     0
  9
$DIMALTTZ
 70
     0
  9
$DIMUPT
 70
     0
  9
$DIMDEC
 70
     2
  9
$DIMTDEC
 70
     3
  9
$DIMALTU
 70
     2
  9
$DIMALTTD
 70
     3
  9
$DIMTXSTY
  7
Standard
  9
$DIMAUNIT
 70
     0
  9
$DIMADEC
 70
     2
  9
$DIMALTRND
 40
0.0
  9
$DIMAZIN
 70
     0
  9
$DIMDSEP
 70
    44
  9
$DIMATFIT
 70
     3
  9
$DIMFRAC
 70
     0
  9
$DIMLDRBLK
  1

  9
$DIMLUNIT
 70
     2
  9
$DIMLWD
 70
    -2
  9
$DIMLWE
 70
    -2
  9
$DIMTMOVE
 70
     0
  9
$LUNITS
 70
     2
  9
$LUPREC
 70
     2
  9
$SKETCHINC
 40
1.0
  9
$FILLETRAD
 40
10.0
  9
$AUNITS
 70
     0
  9
$AUPREC
 70
     2
  9
$MENU
  1
.
  9
$ELEVATION
 40
0.0
  9
$PELEVATION
 40
0.0
  9
$THICKNESS
 40
0.0
  9
$LIMCHECK
 70
     0
  9
$CHAMFERA
 40
10.0
  9
$CHAMFERB
 40
10.0
  9
$CHAMFERC
 40
20.0
  9
$CHAMFERD
 40
0.0
  9
$SKPOLY
 70
     0
  9
$TDCREATE
 40
2456413.563673519
  9
$TDUCREATE
 40
2456413.480340185
  9
$TDUPDATE
 40
2456413.563675139
  9
$TDUUPDATE
 40
2456413.480341806
  9
$TDINDWG
 40
0.0000000116
  9
$TDUSRTIMER
 40
0.0000000116
  9
$USRTIMER
 70
     1
  9
$ANGBASE
 50
0.0
  9
$ANGDIR
 70
     0
  9
$PDMODE
 70
     0
  9
$PDSIZE
 40
-1.0
  9
$PLINEWID
 40
0.0
  9
$SPLFRAME
 70
     0
  9
$SPLINETYPE
 70
     6
  9
$SPLINESEGS
 70
     8
  9
$HANDSEED
  5
377
  9
$SURFTAB1
 70
     6
  9
$SURFTAB2
 70
     6
  9
$SURFTYPE
 70
     6
  9
$SURFU
 70
     6
  9
$SURFV
 70
     6
  9
$UCSBASE
  2

  9
$UCSNAME
  2

  9
$UCSORG
 10
0.0
 20
0.0
 30
0.0
  9
$UCSXDIR
 10
1.0
 20
0.0
 30
0.0
  9
$UCSYDIR
 10
0.0
 20
1.0
 30
0.0
  9
$UCSORTHOREF
  2

  9
$UCSORTHOVIEW
 70
     0
  9
$UCSORGTOP
 10
0.0
 20
0.0
 30
0.0
  9
$UCSORGBOTTOM
 10
0.0
 20
0.0
 30
0.0
  9
$UCSORGLEFT
 10
0.0
 20
0.0
 30
0.0
  9
$UCSORGRIGHT
 10
0.0
 20
0.0
 30
0.0
  9
$UCSORGFRONT
 10
0.0
 20
0.0
 30
0.0
  9
$UCSORGBACK
 10
0.0
 20
0.0
 30
0.0
  9
$PUCSBASE
  2

  9
$PUCSNAME
  2

  9
$PUCSORG
 10
0.0
 20
0.0
 30
0.0
  9
$PUCSXDIR
 10
1.0
 20
0.0
 30
0.0
  9
$PUCSYDIR
 10
0.0
 20
1.0
 30
0.0
  9
$PUCSORTHOREF
  2

  9
$PUCSORTHOVIEW
 70
     0
  9
$PUCSORGTOP
 10
0.0
 20
0.0
 30
0.0
  9
$PUCSORGBOTTOM
 10
0.0
 20
0.0
 30
0.0
  9
$PUCSORGLEFT
 10
0.0
 20
0.0
 30
0.0
  9
$PUCSORGRIGHT
 10
0.0
 20
0.0
 30
0.0
  9
$PUCSORGFRONT
 10
0.0
 20
0.0
 30
0.0
  9
$PUCSORGBACK
 10
0.0
 20
0.0
 30
0.0
  9
$USERI1
 70
     0
  9
$USERI2
 70
     0
  9
$USERI3
 70
     0
  9
$USERI4
 70
     0
  9
$USERI5
 70
     0
  9
$USERR1
 40
0.0
  9
$USERR2
 40
0.0
  9
$USERR3
 40
0.0
  9
$USERR4
 40
0.0
  9
$USERR5
 40
0.0
  9
$WORLDVIEW
 70
     1
  9
$SHADEDGE
 70
     3
  9
$SHADEDIF
 70
    70
  9
$TILEMODE
 70
     1
  9
$MAXACTVP
 70
    64
  9
$PINSBASE
 10
0.0
 20
0.0
 30
0.0
  9
$PLIMCHECK
 70
     0
  9
$PEXTMIN
 10
1.0000000000E+20
 20
1.0000000000E+20
 30
1.0000000000E+20
  9
$PEXTMAX
 10
-1.0000000000E+20
 20
-1.0000000000E+20
 30
-1.0000000000E+20
  9
$PLIMMIN
 10
0.0
 20
0.0
  9
$PLIMMAX
 10
420.0
 20
297.0
  9
$UNITMODE
 70
     0
  9
$VISRETAIN
 70
     1
  9
$PLINEGEN
 70
     0
  9
$PSLTSCALE
 70
     1
  9
$TREEDEPTH
 70
  3020
  9
$CMLSTYLE
  2
Standard
  9
$CMLJUST
 70
     0
  9
$CMLSCALE
 40
20.0
  9
$PROXYGRAPHICS
 70
     1
  9
$MEASUREMENT
 70
     1
  9
$CELWEIGHT
370
    -1
  9
$ENDCAPS
280
     0
  9
$JOINSTYLE
280
     0
  9
$LWDISPLAY
290
     1
  9
$INSUNITS
 70
     4
  9
$HYPERLINKBASE
  1

  9
$STYLESHEET
  1

  9
$XEDIT
290
     1
  9
$CEPSNTYPE
380
     0
  9
$PSTYLEMODE
290
     1
  9
$FINGERPRINTGUID
  2
{786F6581-BF1E-449B-9677-E690D65E065C}
  9
$VERSIONGUID
  2
{FAEB1C32-E019-11D5-929B-00C0DF256EC4}
  9
$EXTNAMES
290
     1
  9
$PSVPSCALE
 40
0.0
  9
$OLESTARTUP
290
     0
  0
ENDSEC
  0
SECTION
  2
CLASSES
  0
CLASS
  1
ACDBDICTIONARYWDFLT
  2
AcDbDictionaryWithDefault
  3
ObjectDBX Classes
 90
        0
280
     0
281
     0
  0
CLASS
  1
VISUALSTYLE
  2
AcDbVisualStyle
  3
ObjectDBX Classes
 90
     4095
280
     0
281
     0
  0
CLASS
  1
MATERIAL
  2
AcDbMaterial
  3
ObjectDBX Classes
 90
     1153
280
     0
281
     0
  0
CLASS
  1
ACDBPLACEHOLDER
  2
AcDbPlaceHolder
  3
ObjectDBX Classes
 90
        0
280
     0
281
     0
  0
CLASS
  1
LAYOUT
  2
AcDbLayout
  3
ObjectDBX Classes
 90
        0
280
     0
281
     0
  0
ENDSEC
  0
SECTION
  2
TABLES
  0
TABLE
  2
VPORT
  5
8
330
0
100
AcDbSymbolTable
 70
     1
  0
VPORT
  5
29
330
8
100
AcDbSymbolTableRecord
100
AcDbViewportTableRecord
  2
*Active
 70
     0
 10
0.0
 20
0.0
 11
1.0
 21
1.0
 12
148.5
 22
105.0
 13
0.0
 23
0.0
 14
10.0
 24
10.0
 15
10.0
 25
10.0
 16
0.0
 26
0.0
 36
1.0
 17
0.0
 27
0.0
 37
0.0
 40
210.0
 41
1.4142857143
 42
50.0
 43
0.0
 44
0.0
 50
0.0
 51
0.0
 71
     0
 72
  2000
 73
     1
 74
     3
 75
     0
 76
     0
 77
     0
 78
     0
281
     0
 65
     1
110
0.0
120
0.0
130
0.0
111
1.0
121
0.0
131
0.0
112
0.0
122
1.0
132
0.0
 79
     0
146
0.0
  0
ENDTAB
  0
TABLE
  2
LTYPE
  5
5
330
0
100
AcDbSymbolTable
 70
     6
  0
LTYPE
  5
14
330
5
100
AcDbSymbolTableRecord
100
AcDbLinetypeTableRecord
  2
ByBlock
 70
     0
  3

 72
    65
 73
     0
 40
0.0
  0
LTYPE
  5
15
330
5
100
AcDbSymbolTableRecord
100
AcDbLinetypeTableRecord
  2
ByLayer
 70
     0
  3

 72
    65
 73
     0
 40
0.0
  0
LTYPE
  5
16
330
5
100
AcDbSymbolTableRecord
100
AcDbLinetypeTableRecord
  2
Continuous
 70
     0
  3
Solid line
 72
    65
 73
     0
 40
0.0
  0
LTYPE
  5
3F
330
5
100
AcDbSymbolTableRecord
100
AcDbLinetypeTableRecord
  2
HIDDEN
 70
     0
  3
Hidden __ __ __ __ __ __ __ __ __ __ __ __ __ __
 72
    65
 73
     2
 40
1.905
 49
1.27
 74
     0
 49
-0.635
 74
     0
  0
LTYPE
  5
40
330
5
100
AcDbSymbolTableRecord
100
AcDbLinetypeTableRecord
  2
PHANTOM
 70
     0
  3
Phantom ______  __  __  ______  __  __  ______
 72
    65
 73
     6
 40
12.7
 49
6.35
 74
     0
 49
-1.27
 74
     0
 49
1.27
 74
     0
 49
-1.27
 74
     0
 49
1.27
 74
     0
 49
-1.27
 74
     0
  0
LTYPE
  5
41
330
5
100
AcDbSymbolTableRecord
100
AcDbLinetypeTableRecord
  2
CENTER
 70
     0
  3
Center ____ _ ____ _ ____ _ ____ _ ____ _ ____
 72
    65
 73
     4
 40
10.16
 49
6.35
 74
     0
 49
-1.27
 74
     0
 49
1.27
 74
     0
 49
-1.27
 74
     0
  0
LTYPE
  5
42
330
5
100
AcDbSymbolTableRecord
100
AcDbLinetypeTableRecord
  2
CENTERX2
 70
     0
  3
Center (2x) ________  __  ________  __  _____
 72
    65
 73
     4
 40
20.32
 49
12.7
 74
     0
 49
-2.54
 74
     0
 49
2.54
 74
     0
 49
-2.54
 74
     0
  0
LTYPE
  5
43
330
5
100
AcDbSymbolTableRecord
100
AcDbLinetypeTableRecord
  2
DOT2
 70
     0
  3
Dot (.5x) ........................................
 72
    65
 73
     2
 40
0.635
 49
0.0
 74
     0
 49
-0.635
 74
     0
  0
ENDTAB
  0
TABLE
  2
LAYER
  5
2
330
0
100
AcDbSymbolTable
 70
     5
  0
LAYER
  5
10
330
2
100
AcDbSymbolTableRecord
100
AcDbLayerTableRecord
  2
0
 70
     0
 62
     7
  6
Continuous
370
    -3
390
F
  0
LAYER
  5
44
330
2
100
AcDbSymbolTableRecord
100
AcDbLayerTableRecord
  2
FORMAT
 70
     0
 62
     7
  6
Continuous
370
    -3
390
F
  0
LAYER
  5
45
330
2
100
AcDbSymbolTableRecord
100
AcDbLayerTableRecord
  2
VERMASSUNG
 70
     0
 62
     7
  6
Continuous
370
    -3
390
F
  0
LAYER
  5
46
330
2
100
AcDbSymbolTableRecord
100
AcDbLayerTableRecord
  2
KOPF_DÜNN
 70
     0
 62
     7
  6
Continuous
370
    -3
390
F
  0
LAYER
  5
47
330
2
100
AcDbSymbolTableRecord
100
AcDbLayerTableRecord
  2
KOPF_DICK
 70
     0
 62
     7
  6
Continuous
370
    15
390
F
  0
ENDTAB
  0
TABLE
  2
STYLE
  5
3
330
0
100
AcDbSymbolTable
 70
     3
  0
STYLE
  5
11
330
3
100
AcDbSymbolTableRecord
100
AcDbTextStyleTableRecord
  2
Standard
 70
     0
 40
0.0
 41
1.0
 50
0.0
 71
     0
 42
2.0
  3
txt
  4

  0
STYLE
  5
48
330
3
100
AcDbSymbolTableRecord
100
AcDbTextStyleTableRecord
  2
SLDTEXTSTYLE0
 70
     0
 40
0.0
 41
0.7
 50
0.0
 71
     0
 42
0.2
  3
TXT
  4

  0
STYLE
  5
4C
330
3
100
AcDbSymbolTableRecord
100
AcDbTextStyleTableRecord
  2
SLDTEXTSTYLE1
 70
     0
 40
0.0
 41
0.6461538462
 50
0.0
 71
     0
 42
0.2
  3
TXT
  4

  0
ENDTAB
  0
TABLE
  2
VIEW
  5
6
330
0
100
AcDbSymbolTable
 70
     0
  0
ENDTAB
  0
TABLE
  2
UCS
  5
7
330
0
100
AcDbSymbolTable
 70
     0
  0
ENDTAB
  0
TABLE
  2
APPID
  5
9
330
0
100
AcDbSymbolTable
 70
     1
  0
APPID
  5
12
330
9
100
AcDbSymbolTableRecord
100
AcDbRegAppTableRecord
  2
ACAD
 70
     0
  0
ENDTAB
  0
TABLE
  2
DIMSTYLE
  5
A
330
0
100
AcDbSymbolTable
 70
     2
100
AcDbDimStyleTable
  0
DIMSTYLE
105
27
330
A
100
AcDbSymbolTableRecord
100
AcDbDimStyleTableRecord
  2
ISO-25
 70
     0
 41
2.5
 42
0.625
 43
3.75
 44
1.25
 73
     0
 74
     0
 77
     1
 78
     8
140
2.5
141
2.5
143
0.0393700787
147
0.625
171
     3
172
     1
178
     0
271
     2
272
     2
274
     3
278
    44
283
     0
284
     8
340
11
  0
DIMSTYLE
105
1BC
102
{ACAD_REACTORS
330
1BB
330
1C8
330
1D2
330
1DC
330
1E6
330
1F1
330
1FC
330
206
330
210
330
21A
102
}
330
A
100
AcDbSymbolTableRecord
100
AcDbDimStyleTableRecord
  2
SLDDIMSTYLE0
 70
     0
 41
3.0
 44
0.0
 45
0.000000001
 73
     0
 74
     0
 77
     1
 78
    12
 79
     3
140
2.0
147
0.5
173
     1
178
     0
271
     2
272
     3
276
     2
284
    12
340
48
  0
ENDTAB
  0
TABLE
  2
BLOCK_RECORD
  5
1
330
0
100
AcDbSymbolTable
 70
    12
  0
BLOCK_RECORD
  5
1F
330
1
100
AcDbSymbolTableRecord
100
AcDbBlockTableRecord
  2
*Model_Space
340
22
  0
BLOCK_RECORD
  5
1B
330
1
100
AcDbSymbolTableRecord
100
AcDbBlockTableRecord
  2
*Paper_Space
340
1E
  0
BLOCK_RECORD
  5
23
330
1
100
AcDbSymbolTableRecord
100
AcDbBlockTableRecord
  2
*Paper_Space0
340
26
  0
BLOCK_RECORD
  5
1BD
330
1
100
AcDbSymbolTableRecord
100
AcDbBlockTableRecord
  2
_D
340
0
  0
BLOCK_RECORD
  5
1C9
330
1
100
AcDbSymbolTableRecord
100
AcDbBlockTableRecord
  2
_D_1
340
0
  0
BLOCK_RECORD
  5
1D3
330
1
100
AcDbSymbolTableRecord
100
AcDbBlockTableRecord
  2
_D_2
340
0
  0
BLOCK_RECORD
  5
1DD
330
1
100
AcDbSymbolTableRecord
100
AcDbBlockTableRecord
  2
_D_3
340
0
  0
BLOCK_RECORD
  5
1E7
330
1
100
AcDbSymbolTableRecord
100
AcDbBlockTableRecord
  2
_D_4
340
0
  0
BLOCK_RECORD
  5
1F2
330
1
100
AcDbSymbolTableRecord
100
AcDbBlockTableRecord
  2
_D_5
340
0
  0
BLOCK_RECORD
  5
1FD
330
1
100
AcDbSymbolTableRecord
100
AcDbBlockTableRecord
  2
_D_6
340
0
  0
BLOCK_RECORD
  5
207
330
1
100
AcDbSymbolTableRecord
100
AcDbBlockTableRecord
  2
_D_7
340
0
  0
BLOCK_RECORD
  5
211
330
1
100
AcDbSymbolTableRecord
100
AcDbBlockTableRecord
  2
_D_8
340
0
  0
BLOCK_RECORD
  5
21B
330
1
100
AcDbSymbolTableRecord
100
AcDbBlockTableRecord
  2
_D_9
340
0
  0
BLOCK_RECORD
  5
36A
330
1
100
AcDbSymbolTableRecord
100
AcDbBlockTableRecord
  2
SW_CENTERMARKSYMBOL_0
340
0
102
{BLKREFS
331
375
102
}
  0
ENDTAB
  0
ENDSEC
  0
SECTION
  2
BLOCKS
  0
BLOCK
  5
20
330
1F
100
AcDbEntity
  8
0
100
AcDbBlockBegin
  2
*Model_Space
 70
     0
 10
0.0
 20
0.0
 30
0.0
  3
*Model_Space
  1

  0
ENDBLK
  5
21
330
1F
100
AcDbEntity
  8
0
100
AcDbBlockEnd
  0
BLOCK
  5
1C
330
1B
100
AcDbEntity
 67
     1
  8
0
100
AcDbBlockBegin
  2
*Paper_Space
 70
     0
 10
0.0
 20
0.0
 30
0.0
  3
*Paper_Space
  1

  0
ENDBLK
  5
1D
330
1B
100
AcDbEntity
 67
     1
  8
0
100
AcDbBlockEnd
  0
BLOCK
  5
24
330
23
100
AcDbEntity
  8
0
100
AcDbBlockBegin
  2
*Paper_Space0
 70
     0
 10
0.0
 20
0.0
 30
0.0
  3
*Paper_Space0
  1

  0
ENDBLK
  5
25
330
23
100
AcDbEntity
  8
0
100
AcDbBlockEnd
  0
BLOCK
  5
1BE
330
1BD
100
AcDbEntity
  8
0
100
AcDbBlockBegin
  2
_D
 70
     0
 10
0.0
 20
0.0
 30
0.0
  3
_D
  1

  0
SOLID
  5
1C0
330
1BD
100
AcDbEntity
  8
VERMASSUNG
100
AcDbTrace
 10
125.8749378349
 20
172.2379535936
 30
0.0
 11
125.4249378349
 21
169.2379535936
 31
0.0
 12
126.3249378349
 22
169.2379535936
 32
0.0
 13
126.3249378349
 23
169.2379535936
 33
0.0
  0
SOLID
  5
1C1
330
1BD
100
AcDbEntity
  8
VERMASSUNG
100
AcDbTrace
 10
125.8749378349
 20
72.2379535936
 30
0.0
 11
126.3249378349
 21
75.2379535936
 31
0.0
 12
125.4249378349
 22
75.2379535936
 32
0.0
 13
125.4249378349
 23
75.2379535936
 33
0.0
  0
LINE
  5
1C2
330
1BD
100
AcDbEntity
  8
VERMASSUNG
100
AcDbLine
 10
184.158143921
 20
172.2379535936
 30
0.0
 11
124.8749378349
 21
172.2379535936
 31
0.0
  0
LINE
  5
1C3
330
1BD
100
AcDbEntity
  8
VERMASSUNG
100
AcDbLine
 10
184.158143921
 20
72.2379535936
 30
0.0
 11
124.8749378349
 21
72.2379535936
 31
0.0
  0
LINE
  5
1C4
330
1BD
100
AcDbEntity
  8
VERMASSUNG
100
AcDbLine
 10
125.8749378349
 20
172.2379535936
 30
0.0
 11
125.8749378349
 21
72.2379535936
 31
0.0
  0
MTEXT
  5
1C5
330
1BD
100
AcDbEntity
  8
VERMASSUNG
100
AcDbMText
 10
123.0968023459
 20
113.553388742
 30
0.0
 40
2.0
 41
0.0
 71
     1
 72
     1
  1
HSK T
  7
SLDTEXTSTYLE0
 11
-7.044195017643634E-15
 21
1.0
 31
0.0
 73
     1
 44
1.0
  0
MTEXT
  5
1C6
330
1BD
100
AcDbEntity
  8
VERMASSUNG
100
AcDbMText
 10
123.2968023554
 20
122.3533886944
 30
0.0
 40
2.0
 41
0.0
 71
     1
 72
     1
  1
%%c
  7
SLDTEXTSTYLE0
 11
-7.044195017643634E-15
 21
1.0
 31
0.0
 73
     1
 44
1.0
  0
MTEXT
  5
1C7
330
1BD
100
AcDbEntity
  8
VERMASSUNG
100
AcDbMText
 10
123.2968024718
 20
125.9596506252
 30
0.0
 40
2.0
 41
0.0
 71
     1
 72
     1
  1
100
  7
SLDTEXTSTYLE0
 11
-7.044195017643634E-15
 21
1.0
 31
0.0
 73
     1
 44
1.0
  0
ENDBLK
  5
1BF
330
1BD
100
AcDbEntity
  8
0
100
AcDbBlockEnd
  0
BLOCK
  5
1CA
330
1C9
100
AcDbEntity
  8
0
100
AcDbBlockBegin
  2
_D_1
 70
     0
 10
0.0
 20
0.0
 30
0.0
  3
_D_1
  1

  0
SOLID
  5
1CC
330
1C9
100
AcDbEntity
  8
VERMASSUNG
100
AcDbTrace
 10
268.658143921
 20
189.4283376076
 30
0.0
 11
265.658143921
 21
189.8783376076
 31
0.0
 12
265.658143921
 22
188.9783376076
 32
0.0
 13
265.658143921
 23
188.9783376076
 33
0.0
  0
SOLID
  5
1CD
330
1C9
100
AcDbEntity
  8
VERMASSUNG
100
AcDbTrace
 10
133.758143921
 20
189.4283376076
 30
0.0
 11
136.758143921
 21
188.9783376076
 31
0.0
 12
136.758143921
 22
189.8783376076
 32
0.0
 13
136.758143921
 23
189.8783376076
 33
0.0
  0
LINE
  5
1CE
330
1C9
100
AcDbEntity
  8
VERMASSUNG
100
AcDbLine
 10
268.658143921
 20
141.2379535936
 30
0.0
 11
268.658143921
 21
190.4283376076
 31
0.0
  0
LINE
  5
1CF
330
1C9
100
AcDbEntity
  8
VERMASSUNG
100
AcDbLine
 10
133.758143921
 20
152.7406233362
 30
0.0
 11
133.758143921
 21
190.4283376076
 31
0.0
  0
LINE
  5
1D0
330
1C9
100
AcDbEntity
  8
VERMASSUNG
100
AcDbLine
 10
268.658143921
 20
189.4283376076
 30
0.0
 11
133.758143921
 21
189.4283376076
 31
0.0
  0
MTEXT
  5
1D1
330
1C9
100
AcDbEntity
  8
VERMASSUNG
100
AcDbMText
 10
203.2382779343
 20
192.0064729708
 30
0.0
 40
2.0
 41
0.0
 71
     1
 72
     1
  1
134.9
  7
SLDTEXTSTYLE0
 73
     1
 44
1.0
  0
ENDBLK
  5
1CB
330
1C9
100
AcDbEntity
  8
0
100
AcDbBlockEnd
  0
BLOCK
  5
1D4
330
1D3
100
AcDbEntity
  8
0
100
AcDbBlockBegin
  2
_D_2
 70
     0
 10
0.0
 20
0.0
 30
0.0
  3
_D_2
  1

  0
SOLID
  5
1D6
330
1D3
100
AcDbEntity
  8
VERMASSUNG
100
AcDbTrace
 10
183.658143921
 20
183.4283376076
 30
0.0
 11
186.658143921
 21
182.9783376076
 31
0.0
 12
186.658143921
 22
183.8783376076
 32
0.0
 13
186.658143921
 23
183.8783376076
 33
0.0
  0
SOLID
  5
1D7
330
1D3
100
AcDbEntity
  8
VERMASSUNG
100
AcDbTrace
 10
268.658143921
 20
183.4283376076
 30
0.0
 11
265.658143921
 21
183.8783376076
 31
0.0
 12
265.658143921
 22
182.9783376076
 32
0.0
 13
265.658143921
 23
182.9783376076
 33
0.0
  0
LINE
  5
1D8
330
1D3
100
AcDbEntity
  8
VERMASSUNG
100
AcDbLine
 10
183.658143921
 20
171.7379535936
 30
0.0
 11
183.658143921
 21
184.4283376076
 31
0.0
  0
LINE
  5
1D9
330
1D3
100
AcDbEntity
  8
VERMASSUNG
100
AcDbLine
 10
268.658143921
 20
141.2379535936
 30
0.0
 11
268.658143921
 21
184.4283376076
 31
0.0
  0
LINE
  5
1DA
330
1D3
100
AcDbEntity
  8
VERMASSUNG
100
AcDbLine
 10
183.658143921
 20
183.4283376076
 30
0.0
 11
268.658143921
 21
183.4283376076
 31
0.0
  0
MTEXT
  5
1DB
330
1D3
100
AcDbEntity
  8
VERMASSUNG
100
AcDbMText
 10
223.6763081049
 20
186.0064729708
 30
0.0
 40
2.0
 41
0.0
 71
     1
 72
     1
  1
85
  7
SLDTEXTSTYLE0
 73
     1
 44
1.0
  0
ENDBLK
  5
1D5
330
1D3
100
AcDbEntity
  8
0
100
AcDbBlockEnd
  0
BLOCK
  5
1DE
330
1DD
100
AcDbEntity
  8
0
100
AcDbBlockBegin
  2
_D_3
 70
     0
 10
0.0
 20
0.0
 30
0.0
  3
_D_3
  1

  0
SOLID
  5
1E0
330
1DD
100
AcDbEntity
  8
VERMASSUNG
100
AcDbTrace
 10
212.608143921
 20
177.4283376076
 30
0.0
 11
215.608143921
 21
176.9783376076
 31
0.0
 12
215.608143921
 22
177.8783376076
 32
0.0
 13
215.608143921
 23
177.8783376076
 33
0.0
  0
SOLID
  5
1E1
330
1DD
100
AcDbEntity
  8
VERMASSUNG
100
AcDbTrace
 10
268.658143921
 20
177.4283376076
 30
0.0
 11
265.658143921
 21
177.8783376076
 31
0.0
 12
265.658143921
 22
176.9783376076
 32
0.0
 13
265.658143921
 23
176.9783376076
 33
0.0
  0
LINE
  5
1E2
330
1DD
100
AcDbEntity
  8
VERMASSUNG
100
AcDbLine
 10
212.608143921
 20
170.2066934144
 30
0.0
 11
212.608143921
 21
178.4283376076
 31
0.0
  0
LINE
  5
1E3
330
1DD
100
AcDbEntity
  8
VERMASSUNG
100
AcDbLine
 10
268.658143921
 20
141.2379535936
 30
0.0
 11
268.658143921
 21
178.4283376076
 31
0.0
  0
LINE
  5
1E4
330
1DD
100
AcDbEntity
  8
VERMASSUNG
100
AcDbLine
 10
212.608143921
 20
177.4283376076
 30
0.0
 11
268.658143921
 21
177.4283376076
 31
0.0
  0
MTEXT
  5
1E5
330
1DD
100
AcDbEntity
  8
VERMASSUNG
100
AcDbMText
 10
236.4982240161
 20
180.0064729708
 30
0.0
 40
2.0
 41
0.0
 71
     1
 72
     1
  1
56.05
  7
SLDTEXTSTYLE0
 73
     1
 44
1.0
  0
ENDBLK
  5
1DF
330
1DD
100
AcDbEntity
  8
0
100
AcDbBlockEnd
  0
BLOCK
  5
1E8
330
1E7
100
AcDbEntity
  8
0
100
AcDbBlockBegin
  2
_D_4
 70
     0
 10
0.0
 20
0.0
 30
0.0
  3
_D_4
  1

  0
SOLID
  5
1EA
330
1E7
100
AcDbEntity
  8
VERMASSUNG
100
AcDbTrace
 10
283.8162115808
 20
142.2379535936
 30
0.0
 11
283.3662115808
 21
139.2379535936
 31
0.0
 12
284.2662115808
 22
139.2379535936
 32
0.0
 13
284.2662115808
 23
139.2379535936
 33
0.0
  0
SOLID
  5
1EB
330
1E7
100
AcDbEntity
  8
VERMASSUNG
100
AcDbTrace
 10
283.8162115808
 20
102.2379535936
 30
0.0
 11
284.2662115808
 21
105.2379535936
 31
0.0
 12
283.3662115808
 22
105.2379535936
 32
0.0
 13
283.3662115808
 23
105.2379535936
 33
0.0
  0
LINE
  5
1EC
330
1E7
100
AcDbEntity
  8
VERMASSUNG
100
AcDbLine
 10
267.658143921
 20
142.2379535936
 30
0.0
 11
284.8162115808
 21
142.2379535936
 31
0.0
  0
LINE
  5
1ED
330
1E7
100
AcDbEntity
  8
VERMASSUNG
100
AcDbLine
 10
267.658143921
 20
102.2379535936
 30
0.0
 11
284.8162115808
 21
102.2379535936
 31
0.0
  0
LINE
  5
1EE
330
1E7
100
AcDbEntity
  8
VERMASSUNG
100
AcDbLine
 10
283.8162115808
 20
142.2379535936
 30
0.0
 11
283.8162115808
 21
102.2379535936
 31
0.0
  0
MTEXT
  5
1EF
330
1E7
100
AcDbEntity
  8
VERMASSUNG
100
AcDbMText
 10
281.2380761012
 20
119.2845317288
 30
0.0
 40
2.0
 41
0.0
 71
     1
 72
     1
  1
%%c
  7
SLDTEXTSTYLE0
 11
-7.044195017643634E-15
 21
1.0
 31
0.0
 73
     1
 44
1.0
  0
MTEXT
  5
1F0
330
1E7
100
AcDbEntity
  8
VERMASSUNG
100
AcDbMText
 10
281.2380762176
 20
122.8915617589
 30
0.0
 40
2.0
 41
0.0
 71
     1
 72
     1
  1
40
  7
SLDTEXTSTYLE0
 11
-7.044195017643634E-15
 21
1.0
 31
0.0
 73
     1
 44
1.0
  0
ENDBLK
  5
1E9
330
1E7
100
AcDbEntity
  8
0
100
AcDbBlockEnd
  0
BLOCK
  5
1F3
330
1F2
100
AcDbEntity
  8
0
100
AcDbBlockBegin
  2
_D_5
 70
     0
 10
0.0
 20
0.0
 30
0.0
  3
_D_5
  1

  0
SOLID
  5
1F5
330
1F2
100
AcDbEntity
  8
VERMASSUNG
100
AcDbTrace
 10
277.8162115808
 20
130.2379535936
 30
0.0
 11
277.3662115808
 21
127.2379535936
 31
0.0
 12
278.2662115808
 22
127.2379535936
 32
0.0
 13
278.2662115808
 23
127.2379535936
 33
0.0
  0
SOLID
  5
1F6
330
1F2
100
AcDbEntity
  8
VERMASSUNG
100
AcDbTrace
 10
277.8162115808
 20
114.2379535936
 30
0.0
 11
278.2662115808
 21
117.2379535936
 31
0.0
 12
277.3662115808
 22
117.2379535936
 32
0.0
 13
277.3662115808
 23
117.2379535936
 33
0.0
  0
LINE
  5
1F7
330
1F2
100
AcDbEntity
  8
VERMASSUNG
100
AcDbLine
 10
268.358143921
 20
130.2379535936
 30
0.0
 11
278.8162115808
 21
130.2379535936
 31
0.0
  0
LINE
  5
1F8
330
1F2
100
AcDbEntity
  8
VERMASSUNG
100
AcDbLine
 10
268.358143921
 20
114.2379535936
 30
0.0
 11
278.8162115808
 21
114.2379535936
 31
0.0
  0
LINE
  5
1F9
330
1F2
100
AcDbEntity
  8
VERMASSUNG
100
AcDbLine
 10
277.8162115808
 20
130.2379535936
 30
0.0
 11
277.8162115808
 21
114.2379535936
 31
0.0
  0
MTEXT
  5
1FA
330
1F2
100
AcDbEntity
  8
VERMASSUNG
100
AcDbMText
 10
275.2380761012
 20
118.6777506029
 30
0.0
 40
2.0
 41
0.0
 71
     1
 72
     1
  1
%%c
  7
SLDTEXTSTYLE0
 11
-7.044195017643634E-15
 21
1.0
 31
0.0
 73
     1
 44
1.0
  0
MTEXT
  5
1FB
330
1F2
100
AcDbEntity
  8
VERMASSUNG
100
AcDbMText
 10
275.2380762176
 20
122.284780633
 30
0.0
 40
2.0
 41
0.0
 71
     1
 72
     1
  1
16
  7
SLDTEXTSTYLE0
 11
-7.044195017643634E-15
 21
1.0
 31
0.0
 73
     1
 44
1.0
  0
ENDBLK
  5
1F4
330
1F2
100
AcDbEntity
  8
0
100
AcDbBlockEnd
  0
BLOCK
  5
1FE
330
1FD
100
AcDbEntity
  8
0
100
AcDbBlockBegin
  2
_D_6
 70
     0
 10
0.0
 20
0.0
 30
0.0
  3
_D_6
  1

  0
SOLID
  5
200
330
1FD
100
AcDbEntity
  8
VERMASSUNG
100
AcDbTrace
 10
268.658143921
 20
96.0630285148
 30
0.0
 11
265.658143921
 21
96.5130285148
 31
0.0
 12
265.658143921
 22
95.6130285148
 32
0.0
 13
265.658143921
 23
95.6130285148
 33
0.0
  0
SOLID
  5
201
330
1FD
100
AcDbEntity
  8
VERMASSUNG
100
AcDbTrace
 10
258.158143921
 20
96.0630285148
 30
0.0
 11
261.158143921
 21
95.6130285148
 31
0.0
 12
261.158143921
 22
96.5130285148
 32
0.0
 13
261.158143921
 23
96.5130285148
 33
0.0
  0
LINE
  5
202
330
1FD
100
AcDbEntity
  8
VERMASSUNG
100
AcDbLine
 10
268.658143921
 20
103.2379535936
 30
0.0
 11
268.658143921
 21
95.0630285148
 31
0.0
  0
LINE
  5
203
330
1FD
100
AcDbEntity
  8
VERMASSUNG
100
AcDbLine
 10
258.158143921
 20
126.8523617053
 30
0.0
 11
258.158143921
 21
95.0630285148
 31
0.0
  0
LINE
  5
204
330
1FD
100
AcDbEntity
  8
VERMASSUNG
100
AcDbLine
 10
268.658143921
 20
96.0630285148
 30
0.0
 11
258.158143921
 21
96.0630285148
 31
0.0
  0
MTEXT
  5
205
330
1FD
100
AcDbEntity
  8
VERMASSUNG
100
AcDbMText
 10
261.0456920422
 20
98.6411638779
 30
0.0
 40
2.0
 41
0.0
 71
     1
 72
     1
  1
10.5
  7
SLDTEXTSTYLE0
 73
     1
 44
1.0
  0
ENDBLK
  5
1FF
330
1FD
100
AcDbEntity
  8
0
100
AcDbBlockEnd
  0
BLOCK
  5
208
330
207
100
AcDbEntity
  8
0
100
AcDbBlockBegin
  2
_D_7
 70
     0
 10
0.0
 20
0.0
 30
0.0
  3
_D_7
  1

  0
SOLID
  5
20A
330
207
100
AcDbEntity
  8
VERMASSUNG
100
AcDbTrace
 10
258.158143921
 20
96.0630285148
 30
0.0
 11
255.158143921
 21
96.5130285148
 31
0.0
 12
255.158143921
 22
95.6130285148
 32
0.0
 13
255.158143921
 23
95.6130285148
 33
0.0
  0
SOLID
  5
20B
330
207
100
AcDbEntity
  8
VERMASSUNG
100
AcDbTrace
 10
242.658143921
 20
96.0630285148
 30
0.0
 11
245.658143921
 21
95.6130285148
 31
0.0
 12
245.658143921
 22
96.5130285148
 32
0.0
 13
245.658143921
 23
96.5130285148
 33
0.0
  0
LINE
  5
20C
330
207
100
AcDbEntity
  8
VERMASSUNG
100
AcDbLine
 10
258.158143921
 20
126.8523617053
 30
0.0
 11
258.158143921
 21
95.0630285148
 31
0.0
  0
LINE
  5
20D
330
207
100
AcDbEntity
  8
VERMASSUNG
100
AcDbLine
 10
242.658143921
 20
126.8523617053
 30
0.0
 11
242.658143921
 21
95.0630285148
 31
0.0
  0
LINE
  5
20E
330
207
100
AcDbEntity
  8
VERMASSUNG
100
AcDbLine
 10
258.158143921
 20
96.0630285148
 30
0.0
 11
242.658143921
 21
96.0630285148
 31
0.0
  0
MTEXT
  5
20F
330
207
100
AcDbEntity
  8
VERMASSUNG
100
AcDbMText
 10
248.6313429801
 20
98.6411638779
 30
0.0
 40
2.0
 41
0.0
 71
     1
 72
     1
  1
15.5
  7
SLDTEXTSTYLE0
 73
     1
 44
1.0
  0
ENDBLK
  5
209
330
207
100
AcDbEntity
  8
0
100
AcDbBlockEnd
  0
BLOCK
  5
212
330
211
100
AcDbEntity
  8
0
100
AcDbBlockBegin
  2
_D_8
 70
     0
 10
0.0
 20
0.0
 30
0.0
  3
_D_8
  1

  0
SOLID
  5
214
330
211
100
AcDbEntity
  8
VERMASSUNG
100
AcDbTrace
 10
242.658143921
 20
96.0630285148
 30
0.0
 11
239.658143921
 21
96.5130285148
 31
0.0
 12
239.658143921
 22
95.6130285148
 32
0.0
 13
239.658143921
 23
95.6130285148
 33
0.0
  0
SOLID
  5
215
330
211
100
AcDbEntity
  8
VERMASSUNG
100
AcDbTrace
 10
227.158143921
 20
96.0630285148
 30
0.0
 11
230.158143921
 21
95.6130285148
 31
0.0
 12
230.158143921
 22
96.5130285148
 32
0.0
 13
230.158143921
 23
96.5130285148
 33
0.0
  0
LINE
  5
216
330
211
100
AcDbEntity
  8
VERMASSUNG
100
AcDbLine
 10
242.658143921
 20
126.8523617053
 30
0.0
 11
242.658143921
 21
95.0630285148
 31
0.0
  0
LINE
  5
217
330
211
100
AcDbEntity
  8
VERMASSUNG
100
AcDbLine
 10
227.158143921
 20
126.8523617053
 30
0.0
 11
227.158143921
 21
95.0630285148
 31
0.0
  0
LINE
  5
218
330
211
100
AcDbEntity
  8
VERMASSUNG
100
AcDbLine
 10
242.658143921
 20
96.0630285148
 30
0.0
 11
227.158143921
 21
96.0630285148
 31
0.0
  0
MTEXT
  5
219
330
211
100
AcDbEntity
  8
VERMASSUNG
100
AcDbMText
 10
234.0888197929
 20
98.6411638779
 30
0.0
 40
2.0
 41
0.0
 71
     1
 72
     1
  1
15.5
  7
SLDTEXTSTYLE0
 73
     1
 44
1.0
  0
ENDBLK
  5
213
330
211
100
AcDbEntity
  8
0
100
AcDbBlockEnd
  0
BLOCK
  5
21C
330
21B
100
AcDbEntity
  8
0
100
AcDbBlockBegin
  2
_D_9
 70
     0
 10
0.0
 20
0.0
 30
0.0
  3
_D_9
  1

  0
SOLID
  5
21E
330
21B
100
AcDbEntity
  8
VERMASSUNG
100
AcDbTrace
 10
217.658143921
 20
90.0630285148
 30
0.0
 11
220.658143921
 21
89.6130285148
 31
0.0
 12
220.658143921
 22
90.5130285148
 32
0.0
 13
220.658143921
 23
90.5130285148
 33
0.0
  0
SOLID
  5
21F
330
21B
100
AcDbEntity
  8
VERMASSUNG
100
AcDbTrace
 10
268.658143921
 20
90.0630285148
 30
0.0
 11
265.658143921
 21
90.5130285148
 31
0.0
 12
265.658143921
 22
89.6130285148
 32
0.0
 13
265.658143921
 23
89.6130285148
 33
0.0
  0
LINE
  5
220
330
21B
100
AcDbEntity
  8
VERMASSUNG
100
AcDbLine
 10
217.658143921
 20
114.3379535936
 30
0.0
 11
217.658143921
 21
89.0630285148
 31
0.0
  0
LINE
  5
221
330
21B
100
AcDbEntity
  8
VERMASSUNG
100
AcDbLine
 10
268.658143921
 20
103.2379535936
 30
0.0
 11
268.658143921
 21
89.0630285148
 31
0.0
  0
LINE
  5
222
330
21B
100
AcDbEntity
  8
VERMASSUNG
100
AcDbLine
 10
217.658143921
 20
90.0630285148
 30
0.0
 11
268.658143921
 21
90.0630285148
 31
0.0
  0
MTEXT
  5
223
330
21B
100
AcDbEntity
  8
VERMASSUNG
100
AcDbMText
 10
242.171752435
 20
92.6411638779
 30
0.0
 40
2.0
 41
0.0
 71
     1
 72
     1
  1
51
  7
SLDTEXTSTYLE0
 73
     1
 44
1.0
  0
ENDBLK
  5
21D
330
21B
100
AcDbEntity
  8
0
100
AcDbBlockEnd
  0
BLOCK
  5
36B
330
36A
100
AcDbEntity
  8
0
100
AcDbBlockBegin
  2
SW_CENTERMARKSYMBOL_0
 70
     0
 10
0.0
 20
0.0
 30
0.0
  3
SW_CENTERMARKSYMBOL_0
  1

  0
LINE
  5
36D
330
36A
100
AcDbEntity
  8
VERMASSUNG
 62
     0
100
AcDbLine
 10
0.0
 20
0.0
 30
0.0
 11
0.0
 21
2.5
 31
0.0
  0
LINE
  5
36E
330
36A
100
AcDbEntity
  8
VERMASSUNG
 62
     0
100
AcDbLine
 10
0.0
 20
0.0
 30
0.0
 11
-2.5
 21
0.0
 31
0.0
  0
LINE
  5
36F
330
36A
100
AcDbEntity
  8
VERMASSUNG
 62
     0
100
AcDbLine
 10
0.0
 20
0.0
 30
0.0
 11
0.0
 21
-2.5
 31
0.0
  0
LINE
  5
370
330
36A
100
AcDbEntity
  8
VERMASSUNG
 62
     0
100
AcDbLine
 10
0.0
 20
0.0
 30
0.0
 11
2.5
 21
0.0
 31
0.0
  0
LINE
  5
371
330
36A
100
AcDbEntity
  8
VERMASSUNG
 62
     0
100
AcDbLine
 10
0.0
 20
5.0
 30
0.0
 11
0.0
 21
56.1639476124
 31
0.0
  0
LINE
  5
372
330
36A
100
AcDbEntity
  8
VERMASSUNG
 62
     0
100
AcDbLine
 10
-5.0
 20
0.0
 30
0.0
 11
-55.2601834512
 21
0.0
 31
0.0
  0
LINE
  5
373
330
36A
100
AcDbEntity
  8
VERMASSUNG
 62
     0
100
AcDbLine
 10
0.0
 20
-5.0
 30
0.0
 11
0.0
 21
-55.6007023957
 31
0.0
  0
LINE
  5
374
330
36A
100
AcDbEntity
  8
VERMASSUNG
 62
     0
100
AcDbLine
 10
5.0
 20
0.0
 30
0.0
 11
53.065554249
 21
0.0
 31
0.0
  0
ENDBLK
  5
36C
330
36A
100
AcDbEntity
  8
0
100
AcDbBlockEnd
  0
ENDSEC
  0
SECTION
  2
ENTITIES
  0
MTEXT
  5
49
330
1F
100
AcDbEntity
  8
KOPF_DÜNN
100
AcDbMText
 10
13.8892156294
 20
23.8442973028
 30
0.0
 40
3.0
 41
0.0
 71
     1
 72
     1
  1
HA0.B16.K01.085
  7
SLDTEXTSTYLE0
 73
     1
 44
1.0
  0
MTEXT
  5
4A
330
1F
100
AcDbEntity
  8
VERMASSUNG
100
AcDbMText
 10
13.9329988022
 20
28.8834360957
 30
0.0
 40
3.0
 41
0.0
 71
     1
 72
     1
  1
Bohrstangenhalter_Boring bar holder
  7
SLDTEXTSTYLE0
 73
     1
 44
1.0
  0
MTEXT
  5
4B
330
1F
100
AcDbEntity
  8
VERMASSUNG
100
AcDbMText
 10
98.8601118557
 20
13.8365368179
 30
0.0
 40
2.0
 41
0.0
 71
     1
 72
     1
  1
Datum: 31.10.2006
  7
SLDTEXTSTYLE0
 73
     1
 44
1.0
  0
MTEXT
  5
4D
330
1F
100
AcDbEntity
  8
VERMASSUNG
100
AcDbMText
 10
13.933048693
 20
18.0482802738
 30
0.0
 40
2.0
 41
0.0
 71
     1
 72
     1
  1
DIN 69893 HSK 100 T  / ø16
  7
SLDTEXTSTYLE1
 73
     1
 44
1.0
  0
MTEXT
  5
4E
330
1F
100
AcDbEntity
  8
VERMASSUNG
100
AcDbMText
 10
13.9808475933
 20
13.9090973692
 30
0.0
 40
2.0
 41
0.0
 71
     1
 72
     1
  1
Gewicht: 2464g
  7
SLDTEXTSTYLE0
 73
     1
 44
1.0
  0
LINE
  5
4F
330
1F
100
AcDbEntity
  8
0
  6
Continuous
 62
     7
370
    15
100
AcDbLine
 10
184.1581439447
 20
72.2379528485
 30
0.0
 11
188.6081438942
 21
72.2379528485
 31
0.0
  0
LINE
  5
50
330
1F
100
AcDbEntity
  8
0
  6
Continuous
 62
     7
370
    15
100
AcDbLine
 10
188.6422167962
 20
172.2379543387
 30
0.0
 11
184.1581439447
 21
172.2379543387
 31
0.0
  0
ARC
  5
51
330
1F
100
AcDbEntity
  8
0
  6
Continuous
 62
     7
370
    15
100
AcDbCircle
 10
184.158143921
 20
72.7379535936
 30
0.0
 40
0.5
100
AcDbArc
 50
180.0
 51
270.0
  0
ARC
  5
52
330
1F
100
AcDbEntity
  8
0
  6
Continuous
 62
     7
370
    15
100
AcDbCircle
 10
184.158143921
 20
171.7379535936
 30
0.0
 40
0.5
100
AcDbArc
 50
90.0
 51
180.0
  0
ARC
  5
53
330
1F
100
AcDbEntity
  8
0
  6
Continuous
 62
     7
370
    15
100
AcDbCircle
 10
182.7612070025
 20
83.6094682692
 30
0.0
 40
0.9962338214386921
100
AcDbArc
 50
25.7988228126
 51
90.0
  0
ARC
  5
54
330
1F
100
AcDbEntity
  8
0
  6
Continuous
 62
     7
370
    15
100
AcDbCircle
 10
182.7612070025
 20
160.866438918
 30
0.0
 40
0.9962338214386921
100
AcDbArc
 50
270.0
 51
334.2011771874
  0
LINE
  5
55
330
1F
100
AcDbEntity
  8
0
  6
Continuous
 62
     7
370
    15
100
AcDbLine
 10
162.1774476452
 20
159.1692671679
 30
0.0
 11
143.8581444753
 21
158.2514673971
 31
0.0
  0
LINE
  5
56
330
1F
100
AcDbEntity
  8
0
  6
Continuous
 62
     7
370
    15
100
AcDbLine
 10
181.1581439769
 20
160.120203396
 30
0.0
 11
175.090104757
 21
159.8161936306
 31
0.0
  0
LINE
  5
57
330
1F
100
AcDbEntity
  8
0
  6
Continuous
 62
     7
370
    15
100
AcDbLine
 10
175.0902276916
 20
84.6597061061
 30
0.0
 11
181.1581439769
 21
84.3557037912
 31
0.0
  0
LINE
  5
58
330
1F
100
AcDbEntity
  8
0
  6
Continuous
 62
     7
370
    15
100
AcDbLine
 10
148.8581434322
 20
85.9739400946
 30
0.0
 11
162.1780958457
 21
85.3066064917
 31
0.0
  0
LINE
  5
59
330
1F
100
AcDbEntity
  8
0
  6
Continuous
 62
     7
370
    15
100
AcDbLine
 10
181.1581439769
 20
84.3557037912
 30
0.0
 11
181.9639900431
 21
84.5716290675
 31
0.0
  0
LINE
  5
5A
330
1F
100
AcDbEntity
  8
0
  6
Continuous
 62
     7
370
    15
100
AcDbLine
 10
181.9639900431
 20
159.9042781197
 30
0.0
 11
181.1581439769
 21
160.120203396
 31
0.0
  0
ARC
  5
5B
330
1F
100
AcDbEntity
  8
0
  6
Continuous
 62
     7
370
    15
100
AcDbCircle
 10
182.2228091205
 20
83.6057020906
 30
0.0
 40
0.9999999999999893
100
AcDbArc
 50
90.0
 51
105.0
  0
ARC
  5
5C
330
1F
100
AcDbEntity
  8
0
  6
Continuous
 62
     7
370
    15
100
AcDbCircle
 10
182.2228091205
 20
160.8702050966
 30
0.0
 40
0.9999999999999756
100
AcDbArc
 50
255.0
 51
270.0
  0
LINE
  5
5D
330
1F
100
AcDbEntity
  8
0
  6
Continuous
 62
     7
370
    15
100
AcDbLine
 10
182.2228091268
 20
84.6057005726
 30
0.0
 11
182.7612069982
 21
84.6057005726
 31
0.0
  0
LINE
  5
5E
330
1F
100
AcDbEntity
  8
0
  6
Continuous
 62
     7
370
    15
100
AcDbLine
 10
182.7612069982
 20
159.8702066146
 30
0.0
 11
182.2228091268
 21
159.8702066146
 31
0.0
  0
ARC
  5
5F
330
1F
100
AcDbEntity
  8
0
  6
Continuous
 62
     7
370
    15
100
AcDbCircle
 10
217.608143921
 20
97.2379535936
 30
0.0
 40
5.0
100
AcDbArc
 50
90.0
 51
180.0
  0
ARC
  5
60
330
1F
100
AcDbEntity
  8
0
  6
Continuous
 62
     7
370
    15
100
AcDbCircle
 10
217.608143921
 20
147.2379535936
 30
0.0
 40
5.0
100
AcDbArc
 50
180.0
 51
270.0
  0
LINE
  5
61
330
1F
100
AcDbEntity
  8
0
  6
Continuous
 62
     7
370
    15
100
AcDbLine
 10
222.6777993573
 20
142.2379531466
 30
0.0
 11
217.6081449223
 21
142.2379531466
 31
0.0
  0
LINE
  5
62
330
1F
100
AcDbEntity
  8
0
  6
Continuous
 62
     7
370
    15
100
AcDbLine
 10
238.1777972413
 20
142.2379531466
 30
0.0
 11
231.6039972437
 21
142.2379531466
 31
0.0
  0
LINE
  5
63
330
1F
100
AcDbEntity
  8
0
  6
Continuous
 62
     7
370
    15
100
AcDbLine
 10
253.6777988506
 20
142.2379531466
 30
0.0
 11
247.1039951278
 21
142.2379531466
 31
0.0
  0
LINE
  5
64
330
1F
100
AcDbEntity
  8
0
  6
Continuous
 62
     7
370
    15
100
AcDbLine
 10
267.6581427885
 20
142.2379531466
 30
0.0
 11
262.6039967371
 21
142.2379531466
 31
0.0
  0
LINE
  5
65
330
1F
100
AcDbEntity
  8
0
  6
Continuous
 62
     7
370
    15
100
AcDbLine
 10
217.6081449223
 20
102.2379540406
 30
0.0
 11
267.6581427885
 21
102.2379540406
 31
0.0
  0
ARC
  5
66
330
1F
100
AcDbEntity
  8
0
  6
Continuous
 62
     7
370
    15
100
AcDbCircle
 10
267.658143921
 20
141.2379535936
 30
0.0
 40
1.0
100
AcDbArc
 50
0.0
 51
90.0
  0
ARC
  5
67
330
1F
100
AcDbEntity
  8
0
  6
Continuous
 62
     7
370
    15
100
AcDbCircle
 10
267.658143921
 20
103.2379535936
 30
0.0
 40
1.000000000000014
100
AcDbArc
 50
270.0
 51
0.0
  0
LINE
  5
68
330
1F
100
AcDbEntity
  8
0
  6
Continuous
 62
     7
370
    15
100
AcDbLine
 10
135.4081429971
 20
90.042951753
 30
0.0
 11
146.9581447972
 21
90.042951753
 31
0.0
  0
ARC
  5
69
330
1F
100
AcDbEntity
  8
0
  6
Continuous
 62
     7
370
    15
100
AcDbCircle
 10
146.958143921
 20
88.1429535936
 30
0.0
 40
1.900000000000023
100
AcDbArc
 50
32.8598554769
 51
90.0
  0
ARC
  5
6A
330
1F
100
AcDbEntity
  8
0
  6
Continuous
 62
     7
370
    15
100
AcDbCircle
 10
141.958143921
 20
156.3879535936
 30
0.0
 40
1.900000000000008
100
AcDbArc
 50
270.0
 51
310.9212832533
  0
LINE
  5
6B
330
1F
100
AcDbEntity
  8
0
  6
Continuous
 62
     7
370
    15
100
AcDbLine
 10
135.4081429971
 20
154.4879518949
 30
0.0
 11
133.8088274432
 21
152.8886382036
 31
0.0
  0
LINE
  5
6C
330
1F
100
AcDbEntity
  8
0
  6
Continuous
 62
     7
370
    15
100
AcDbLine
 10
133.7933004332
 20
91.6577961795
 30
0.0
 11
135.4081429971
 21
90.042951753
 31
0.0
  0
LINE
  5
6D
330
1F
100
AcDbEntity
  8
0
  6
Continuous
 62
     7
370
    15
100
AcDbLine
 10
141.958142115
 20
154.4879518949
 30
0.0
 11
135.4081429971
 21
154.4879518949
 31
0.0
  0
LINE
  5
6E
330
1F
100
AcDbEntity
  8
0
  6
Continuous
 62
     7
370
    15
100
AcDbLine
 10
238.4581439627
 20
142.2379531466
 30
0.0
 11
246.8581408692
 21
142.2379531466
 31
0.0
  0
LINE
  5
6F
330
1F
100
AcDbEntity
  8
0
  6
Continuous
 62
     7
370
    15
100
AcDbLine
 10
257.7416137291
 20
142.2379531466
 30
0.0
 11
262.3581424786
 21
142.2379531466
 31
0.0
  0
LINE
  5
70
330
1F
100
AcDbEntity
  8
0
  6
Continuous
 62
     7
370
    15
100
AcDbLine
 10
253.9581418467
 20
142.2379531466
 30
0.0
 11
257.7416137291
 21
142.2379531466
 31
0.0
  0
CIRCLE
  5
71
330
1F
100
AcDbEntity
  8
0
  6
Continuous
 62
     7
370
    15
100
AcDbCircle
 10
258.158143921
 20
122.2379535936
 30
0.0
 40
4.200000000000018
  0
LINE
  5
72
330
1F
100
AcDbEntity
  8
0
  6
Continuous
 62
     7
370
    15
100
AcDbLine
 10
257.8684673143
 20
125.1101340201
 30
0.0
 11
255.5259228183
 21
123.4231750747
 31
0.0
  0
LINE
  5
73
330
1F
100
AcDbEntity
  8
0
  6
Continuous
 62
     7
370
    15
100
AcDbLine
 10
255.8156013919
 20
120.5509947647
 30
0.0
 11
255.5259228183
 21
123.4231750747
 31
0.0
  0
LINE
  5
74
330
1F
100
AcDbEntity
  8
0
  6
Continuous
 62
     7
370
    15
100
AcDbLine
 10
258.4478244615
 20
119.3657731671
 30
0.0
 11
255.8156013919
 21
120.5509947647
 31
0.0
  0
LINE
  5
75
330
1F
100
AcDbEntity
  8
0
  6
Continuous
 62
     7
370
    15
100
AcDbLine
 10
258.4478244615
 20
119.3657731671
 30
0.0
 11
260.790361507
 21
121.0527321125
 31
0.0
  0
LINE
  5
76
330
1F
100
AcDbEntity
  8
0
  6
Continuous
 62
     7
370
    15
100
AcDbLine
 10
260.5006829334
 20
123.9249124225
 30
0.0
 11
260.790361507
 21
121.0527321125
 31
0.0
  0
LINE
  5
77
330
1F
100
AcDbEntity
  8
0
  6
Continuous
 62
     7
370
    15
100
AcDbLine
 10
260.5006829334
 20
123.9249124225
 30
0.0
 11
257.8684673143
 21
125.1101340201
 31
0.0
  0
CIRCLE
  5
78
330
1F
100
AcDbEntity
  8
0
  6
Continuous
 62
     7
370
    15
100
AcDbCircle
 10
227.158143921
 20
122.2379535936
 30
0.0
 40
4.199999999999978
  0
LINE
  5
79
330
1F
100
AcDbEntity
  8
0
  6
Continuous
 62
     7
370
    15
100
AcDbLine
 10
224.4292967451
 20
121.2962951428
 30
0.0
 11
226.6092211438
 21
119.4038724095
 31
0.0
  0
LINE
  5
7A
330
1F
100
AcDbEntity
  8
0
  6
Continuous
 62
     7
370
    15
100
AcDbLine
 10
229.3380670679
 20
120.3455309184
 30
0.0
 11
226.6092211438
 21
119.4038724095
 31
0.0
  0
LINE
  5
7B
330
1F
100
AcDbEntity
  8
0
  6
Continuous
 62
     7
370
    15
100
AcDbLine
 10
229.8869923187
 20
123.1796120444
 30
0.0
 11
229.3380670679
 21
120.3455309184
 31
0.0
  0
LINE
  5
7C
330
1F
100
AcDbEntity
  8
0
  6
Continuous
 62
     7
370
    15
100
AcDbLine
 10
229.8869923187
 20
123.1796120444
 30
0.0
 11
227.7070679201
 21
125.0720347777
 31
0.0
  0
LINE
  5
7D
330
1F
100
AcDbEntity
  8
0
  6
Continuous
 62
     7
370
    15
100
AcDbLine
 10
224.9782182706
 20
124.1303762688
 30
0.0
 11
227.7070679201
 21
125.0720347777
 31
0.0
  0
LINE
  5
7E
330
1F
100
AcDbEntity
  8
0
  6
Continuous
 62
     7
370
    15
100
AcDbLine
 10
224.9782182706
 20
124.1303762688
 30
0.0
 11
224.4292967451
 21
121.2962951428
 31
0.0
  0
LINE
  5
7F
330
1F
100
AcDbEntity
  8
0
  6
Continuous
 62
     7
370
    15
100
AcDbLine
 10
229.0395856334
 20
142.2379531466
 30
0.0
 11
231.3581429852
 21
142.2379531466
 31
0.0
  0
LINE
  5
80
330
1F
100
AcDbEntity
  8
0
  6
Continuous
 62
     7
370
    15
100
AcDbLine
 10
222.9581423534
 20
142.2379531466
 30
0.0
 11
229.0395856334
 21
142.2379531466
 31
0.0
  0
CIRCLE
  5
81
330
1F
100
AcDbEntity
  8
0
  6
Continuous
 62
     7
370
    15
100
AcDbCircle
 10
242.658143921
 20
122.2379535936
 30
0.0
 40
4.199999999999988
  0
LINE
  5
82
330
1F
100
AcDbEntity
  8
0
  6
Continuous
 62
     7
370
    15
100
AcDbLine
 10
245.0102366937
 20
123.9115708774
 30
0.0
 11
242.3847936524
 21
125.1117340323
 31
0.0
  0
LINE
  5
83
330
1F
100
AcDbEntity
  8
0
  6
Continuous
 62
     7
370
    15
100
AcDbLine
 10
240.0327012373
 20
123.438116632
 30
0.0
 11
242.3847936524
 21
125.1117340323
 31
0.0
  0
LINE
  5
84
330
1F
100
AcDbEntity
  8
0
  6
Continuous
 62
     7
370
    15
100
AcDbLine
 10
240.3060518635
 20
120.5643363098
 30
0.0
 11
240.0327012373
 21
123.438116632
 31
0.0
  0
LINE
  5
85
330
1F
100
AcDbEntity
  8
0
  6
Continuous
 62
     7
370
    15
100
AcDbLine
 10
240.3060518635
 20
120.5643363098
 30
0.0
 11
242.9314911796
 21
119.3641731549
 31
0.0
  0
LINE
  5
86
330
1F
100
AcDbEntity
  8
0
  6
Continuous
 62
     7
370
    15
100
AcDbLine
 10
245.2835835946
 20
121.0377905552
 30
0.0
 11
242.9314911796
 21
119.3641731549
 31
0.0
  0
LINE
  5
87
330
1F
100
AcDbEntity
  8
0
  6
Continuous
 62
     7
370
    15
100
AcDbLine
 10
245.2835835946
 20
121.0377905552
 30
0.0
 11
245.0102366937
 21
123.9115708774
 31
0.0
  0
LINE
  5
88
330
1F
100
AcDbEntity
  8
0
  6
Continuous
 62
     7
370
    15
100
AcDbLine
 10
188.6081438942
 20
153.5879552864
 30
0.0
 11
200.3961153758
 21
153.5879552864
 31
0.0
  0
LINE
  5
89
330
1F
100
AcDbEntity
  8
0
  6
Continuous
 62
     7
370
    15
100
AcDbLine
 10
200.3961153758
 20
73.4629586838
 30
0.0
 11
200.3961153758
 21
153.5879552864
 31
0.0
  0
LINE
  5
8A
330
1F
100
AcDbEntity
  8
0
  6
Continuous
 62
     7
370
    15
100
AcDbLine
 10
200.3961153758
 20
73.4629586838
 30
0.0
 11
198.6081436706
 21
73.4629586838
 31
0.0
  0
SPLINE
  5
8B
330
1F
100
AcDbEntity
  8
0
  6
Continuous
 62
     7
370
    15
100
AcDbSpline
210
0.0
220
0.0
230
1.0
 70
     8
 71
     3
 72
    30
 73
    26
 74
     0
 42
0.00000001
 43
0.00000001
 12
1.0
 22
0.0
 32
0.0
 13
1.0
 23
0.0
 33
0.0
 40
0.0
 40
0.0
 40
0.0
 40
0.0
 40
0.1250000000000002
 40
0.1250000000000002
 40
0.1875000000000003
 40
0.1875000000000003
 40
0.2500000000000004
 40
0.2500000000000004
 40
0.3750000000000001
 40
0.3750000000000001
 40
0.4374999999999998
 40
0.4374999999999998
 40
0.4999999999999996
 40
0.4999999999999996
 40
0.6249999999999996
 40
0.6249999999999996
 40
0.6874999999999997
 40
0.6874999999999997
 40
0.7499999999999997
 40
0.7499999999999997
 40
0.8124999999999998
 40
0.8124999999999998
 40
0.8749999999999999
 40
0.8749999999999999
 40
1.0
 40
1.0
 40
1.0
 40
1.0
 10
198.6081439209847
 20
73.46296000057026
 30
0.0
 10
197.9453992271397
 20
73.46296000057026
 30
0.0
 10
197.294143368024
 20
73.44811992398145
 30
0.0
 10
196.3336928297657
 20
73.40575035975183
 30
0.0
 10
196.0163013865327
 20
73.38827225697266
 30
0.0
 10
195.3871378849779
 20
73.34694397042036
 30
0.0
 10
195.0749896985361
 20
73.32301869696265
 30
0.0
 10
194.1676823966879
 20
73.24421218049574
 30
0.0
 10
193.5942574390467
 20
73.18190616051929
 30
0.0
 10
192.780380569472
 20
73.07877684027991
 30
0.0
 10
192.5155743729021
 20
73.0425929212334
 30
0.0
 10
192.0086669620878
 20
72.9687981370329
 30
0.0
 10
191.7672728107343
 20
72.93132427826126
 30
0.0
 10
191.078131338602
 20
72.81861233492151
 30
0.0
 10
190.6650765237377
 20
72.74307623744775
 30
0.0
 10
190.1169217043627
 20
72.63468298043024
 30
0.0
 10
189.9474590970171
 20
72.59961074876698
 30
0.0
 10
189.6394418490017
 20
72.53337528816714
 30
0.0
 10
189.5000618283933
 20
72.5020485914124
 30
0.0
 10
189.2502763157666
 20
72.44363981983149
 30
0.0
 10
189.1398702031127
 20
72.41655658464863
 30
0.0
 10
188.948612349475
 20
72.36729683003504
 30
0.0
 10
188.8674928311907
 20
72.34503485022739
 30
0.0
 10
188.6733459110823
 20
72.28746794305913
 30
0.0
 10
188.6081439209847
 20
72.26120833827312
 30
0.0
 10
188.6081439209847
 20
72.2479545937991
 30
0.0
  0
LINE
  5
8C
330
1F
100
AcDbEntity
  8
0
  6
Continuous
 62
     7
370
    15
100
AcDbLine
 10
188.6081438942
 20
72.247955253
 30
0.0
 11
188.6081438942
 21
72.2379528485
 31
0.0
  0
SPLINE
  5
8D
330
1F
100
AcDbEntity
  8
0
  6
Continuous
 62
     7
370
    15
100
AcDbSpline
210
0.0
220
0.0
230
1.0
 70
     8
 71
     3
 72
    17
 73
    13
 74
     0
 42
0.00000001
 43
0.00000001
 12
1.0
 22
0.0
 32
0.0
 13
1.0
 23
0.0
 33
0.0
 40
0.0
 40
0.0
 40
0.0
 40
0.0
 40
0.1043843958185158
 40
0.2118345569819801
 40
0.3162081801235555
 40
0.4235375330682647
 40
0.5292275935501746
 40
0.6379275752951962
 40
0.7444714855043735
 40
0.8541836194561564
 40
0.959308052615968
 40
1.0
 40
1.0
 40
1.0
 40
1.0
 10
198.6081436706452
 20
171.2277487419717
 30
0.0
 10
198.0602051301315
 20
171.2331161823045
 30
0.0
 10
196.9482351170573
 20
171.2440087044685
 30
0.0
 10
195.3353797845348
 20
171.3291908882865
 30
0.0
 10
193.8018666337971
 20
171.455561391618
 30
0.0
 10
192.4108457454228
 20
171.6124652631268
 30
0.0
 10
191.1753286291247
 20
171.7841606605625
 30
0.0
 10
190.1519734832683
 20
171.9495055147725
 30
0.0
 10
189.3516308104093
 20
172.0932098126046
 30
0.0
 10
188.8412992576493
 20
172.1913738085364
 30
0.0
 10
188.6013904991899
 20
172.2392951230092
 30
0.0
 10
188.6333094109593
 20
172.2329286149954
 30
0.0
 10
188.6422167962162
 20
172.2311519585721
 30
0.0
  0
LINE
  5
8E
330
1F
100
AcDbEntity
  8
0
  6
Continuous
 62
     7
370
    15
100
AcDbLine
 10
200.3961153758
 20
171.227748742
 30
0.0
 11
198.6081436706
 21
171.227748742
 31
0.0
  0
LINE
  5
8F
330
1F
100
AcDbEntity
  8
0
  6
Continuous
 62
     7
370
    15
100
AcDbLine
 10
200.3961153758
 20
161.1889146768
 30
0.0
 11
200.3961153758
 21
171.227748742
 31
0.0
  0
LINE
  5
90
330
1F
100
AcDbEntity
  8
0
  6
Continuous
 62
     7
370
    15
100
AcDbLine
 10
198.3161107136
 20
161.1889146768
 30
0.0
 11
200.3961153758
 21
161.1889146768
 31
0.0
  0
SPLINE
  5
91
330
1F
100
AcDbEntity
  8
0
  6
Continuous
 62
     7
370
    15
100
AcDbSpline
210
0.0
220
0.0
230
1.0
 70
     8
 71
     3
 72
    22
 73
    18
 74
     0
 42
0.00000001
 43
0.00000001
 12
1.0
 22
0.0
 32
0.0
 13
1.0
 23
0.0
 33
0.0
 40
0.0
 40
0.0
 40
0.0
 40
0.0
 40
0.2500000000000002
 40
0.2500000000000002
 40
0.3750000000000003
 40
0.3750000000000003
 40
0.5000000000000004
 40
0.5000000000000004
 40
0.6250000000000004
 40
0.6250000000000004
 40
0.7500000000000004
 40
0.7500000000000004
 40
0.8750000000000004
 40
0.8750000000000004
 40
0.9375000000000002
 40
0.9375000000000002
 40
1.0
 40
1.0
 40
1.0
 40
1.0
 10
188.6081439209847
 20
153.5879535935991
 30
0.0
 10
188.8108688769038
 20
154.6071999354637
 30
0.0
 10
189.1256125986992
 20
155.566308085403
 30
0.0
 10
189.8336680683701
 20
156.9087871629123
 30
0.0
 10
190.1121306985878
 20
157.3429957456523
 30
0.0
 10
190.750898105225
 20
158.1546234611544
 30
0.0
 10
191.1113117850152
 20
158.5339037540912
 30
0.0
 10
191.9288440170045
 20
159.2368623331122
 30
0.0
 10
192.3900120002916
 20
159.5618911508128
 30
0.0
 10
193.3880022467754
 20
160.1269064742037
 30
0.0
 10
193.9277614407677
 20
160.3706100684102
 30
0.0
 10
195.102354404799
 20
160.7748099960552
 30
0.0
 10
195.7140905907909
 20
160.9272471891007
 30
0.0
 10
196.6659998156526
 20
161.0825747367094
 30
0.0
 10
196.9892329799133
 20
161.1220795167594
 30
0.0
 10
197.6482961511885
 20
161.1753886374281
 30
0.0
 10
197.9823601617625
 20
161.188916354486
 30
0.0
 10
198.316110769164
 20
161.188916354486
 30
0.0
  0
LINE
  5
92
330
1F
100
AcDbEntity
  8
0
  6
Continuous
 62
     7
370
    15
100
AcDbLine
 10
206.9201734347
 20
73.4629586838
 30
0.0
 11
206.9201734347
 21
153.5879552864
 31
0.0
  0
SPLINE
  5
93
330
1F
100
AcDbEntity
  8
0
  6
Continuous
 62
     7
370
    15
100
AcDbSpline
210
0.0
220
0.0
230
1.0
 70
     8
 71
     3
 72
     8
 73
     4
 74
     0
 42
0.00000001
 43
0.00000001
 12
1.0
 22
0.0
 32
0.0
 13
1.0
 23
0.0
 33
0.0
 40
0.0
 40
0.0
 40
0.0
 40
0.0
 40
1.0
 40
1.0
 40
1.0
 40
1.0
 10
206.9201729419061
 20
73.46296000057026
 30
0.0
 10
206.4690682125059
 20
74.26391993239018
 30
0.0
 10
206.0183703852625
 20
75.06510994395083
 30
0.0
 10
205.5681439209847
 20
75.8665653065756
 30
0.0
  0
LINE
  5
94
330
1F
100
AcDbEntity
  8
0
  6
Continuous
 62
     7
370
    15
100
AcDbLine
 10
205.5681445135
 20
75.8665644132
 30
0.0
 11
205.5681445135
 21
153.5879552864
 31
0.0
  0
SPLINE
  5
95
330
1F
100
AcDbEntity
  8
0
  6
Continuous
 62
     7
370
    15
100
AcDbSpline
210
0.0
220
0.0
230
1.0
 70
    24
 71
     3
 72
     8
 73
     4
 74
     0
 42
0.00000001
 43
0.00000001
 12
1.0
 22
0.0
 32
0.0
 13
1.0
 23
0.0
 33
0.0
 40
0.0
 40
0.0
 40
0.0
 40
0.0
 40
1.0
 40
1.0
 40
1.0
 40
1.0
 10
205.5681439209847
 20
153.5879535935991
 30
0.0
 10
206.0123568033387
 20
153.5879535935991
 30
0.0
 10
206.4633713695779
 20
153.5879535935991
 30
0.0
 10
206.9201729419061
 20
153.5879535935991
 30
0.0
  0
LINE
  5
96
330
1F
100
AcDbEntity
  8
0
  6
Continuous
 62
     7
370
    15
100
AcDbLine
 10
212.6081441028
 20
74.4886093341
 30
0.0
 11
212.6081441028
 21
153.5879552864
 31
0.0
  0
SPLINE
  5
97
330
1F
100
AcDbEntity
  8
0
  6
Continuous
 62
     7
370
    15
100
AcDbSpline
210
0.0
220
0.0
230
1.0
 70
     8
 71
     3
 72
    14
 73
    10
 74
     0
 42
0.00000001
 43
0.00000001
 12
1.0
 22
0.0
 32
0.0
 13
1.0
 23
0.0
 33
0.0
 40
0.0
 40
0.0
 40
0.0
 40
0.0
 40
0.25
 40
0.25
 40
0.5
 40
0.5
 40
0.75
 40
0.75
 40
1.0
 40
1.0
 40
1.0
 40
1.0
 10
212.6081439209847
 20
74.48860804834575
 30
0.0
 10
212.6081439209847
 20
74.35518235229122
 30
0.0
 10
212.5828328210739
 20
74.22333454444689
 30
0.0
 10
212.4844980572291
 20
73.97681199575275
 30
0.0
 10
212.4113540529731
 20
73.86300680751224
 30
0.0
 10
212.2279159918774
 20
73.67254963056494
 30
0.0
 10
212.1162296575388
 20
73.59491476671504
 30
0.0
 10
211.8737262272325
 20
73.49062335660255
 30
0.0
 10
211.7403517985383
 20
73.4629600005702
 30
0.0
 10
211.6081439209847
 20
73.46296000057022
 30
0.0
  0
SPLINE
  5
98
330
1F
100
AcDbEntity
  8
0
  6
Continuous
 62
     7
370
    15
100
AcDbSpline
210
0.0
220
0.0
230
1.0
 70
    24
 71
     3
 72
    12
 73
     8
 74
     0
 42
0.00000001
 43
0.00000001
 12
1.0
 22
0.0
 32
0.0
 13
1.0
 23
0.0
 33
0.0
 40
0.0
 40
0.0
 40
0.0
 40
0.0
 40
0.2500000000000032
 40
0.2500000000000032
 40
0.5000000000000064
 40
0.5000000000000064
 40
1.0
 40
1.0
 40
1.0
 40
1.0
 10
211.6081439209847
 20
153.5879535935991
 30
0.0
 10
211.7602341579297
 20
153.5879535935991
 30
0.0
 10
211.9086934190051
 20
153.5879535935991
 30
0.0
 10
212.1660970512708
 20
153.5879535935991
 30
0.0
 10
212.2752017991128
 20
153.5879535935991
 30
0.0
 10
212.5292612755203
 20
153.5879535935991
 30
0.0
 10
212.6081439209847
 20
153.5879535935991
 30
0.0
 10
212.6081439209847
 20
153.5879535935991
 30
0.0
  0
LINE
  5
99
330
1F
100
AcDbEntity
  8
0
  6
Continuous
 62
     7
370
    15
100
AcDbLine
 10
211.6081439389
 20
73.4629586838
 30
0.0
 11
206.9201734347
 21
73.4629586838
 31
0.0
  0
LINE
  5
9A
330
1F
100
AcDbEntity
  8
0
  6
Continuous
 62
     7
370
    15
100
AcDbLine
 10
206.9201734347
 20
153.5879552864
 30
0.0
 11
211.6081439389
 21
153.5879552864
 31
0.0
  0
LINE
  5
9B
330
1F
100
AcDbEntity
  8
0
  6
Continuous
 62
     7
370
    15
100
AcDbLine
 10
201.7481442971
 20
75.8665644132
 30
0.0
 11
201.7481442971
 21
153.5879552864
 31
0.0
  0
SPLINE
  5
9C
330
1F
100
AcDbEntity
  8
0
  6
Continuous
 62
     7
370
    15
100
AcDbSpline
210
0.0
220
0.0
230
1.0
 70
     8
 71
     3
 72
     8
 73
     4
 74
     0
 42
0.00000001
 43
0.00000001
 12
1.0
 22
0.0
 32
0.0
 13
1.0
 23
0.0
 33
0.0
 40
0.0
 40
0.0
 40
0.0
 40
0.0
 40
1.0
 40
1.0
 40
1.0
 40
1.0
 10
201.7481439209847
 20
75.86656530657558
 30
0.0
 10
201.297917456707
 20
75.06510994395083
 30
0.0
 10
200.8472196294636
 20
74.26391993239015
 30
0.0
 10
200.3961149000633
 20
73.46296000057025
 30
0.0
  0
SPLINE
  5
9D
330
1F
100
AcDbEntity
  8
0
  6
Continuous
 62
     7
370
    15
100
AcDbSpline
210
0.0
220
0.0
230
1.0
 70
    24
 71
     3
 72
     8
 73
     4
 74
     0
 42
0.00000001
 43
0.00000001
 12
1.0
 22
0.0
 32
0.0
 13
1.0
 23
0.0
 33
0.0
 40
0.0
 40
0.0
 40
0.0
 40
0.0
 40
1.0
 40
1.0
 40
1.0
 40
1.0
 10
200.3961149000633
 20
153.5879535935991
 30
0.0
 10
200.8529164723916
 20
153.5879535935991
 30
0.0
 10
201.3039310386308
 20
153.5879535935991
 30
0.0
 10
201.7481439209847
 20
153.5879535935991
 30
0.0
  0
LINE
  5
9E
330
1F
100
AcDbEntity
  8
0
  6
Continuous
 62
     7
370
    15
100
AcDbLine
 10
183.658143921
 20
72.7379538618
 30
0.0
 11
183.658143921
 21
171.7379533254
 31
0.0
  0
SPLINE
  5
9F
330
1F
100
AcDbEntity
  8
0
  6
Continuous
 62
     7
370
    15
100
AcDbSpline
210
0.0
220
0.0
230
1.0
 70
     8
 71
     3
 72
    12
 73
     8
 74
     0
 42
0.00000001
 43
0.00000001
 12
1.0
 22
0.0
 32
0.0
 13
1.0
 23
0.0
 33
0.0
 40
0.0
 40
0.0
 40
0.0
 40
0.0
 40
0.25
 40
0.25
 40
0.5
 40
0.5
 40
1.0
 40
1.0
 40
1.0
 40
1.0
 10
202.5481439209847
 20
77.59827813554942
 30
0.0
 10
202.4423832676358
 20
77.59827813554939
 30
0.0
 10
202.3343956394529
 20
77.57573862954901
 30
0.0
 10
202.1398009741873
 20
77.4911679975537
 30
0.0
 10
202.0509290613484
 20
77.42868634479491
 30
0.0
 10
201.8317367690225
 20
77.19929739332275
 30
0.0
 10
201.7481439209847
 20
76.98671405580036
 30
0.0
 10
201.7481439209847
 20
76.77477481120418
 30
0.0
  0
SPLINE
  5
A0
330
1F
100
AcDbEntity
  8
0
  6
Continuous
 62
     7
370
    15
100
AcDbSpline
210
0.0
220
0.0
230
1.0
 70
    24
 71
     3
 72
    14
 73
    10
 74
     0
 42
0.00000001
 43
0.00000001
 12
1.0
 22
0.0
 32
0.0
 13
1.0
 23
0.0
 33
0.0
 40
0.0
 40
0.0
 40
0.0
 40
0.0
 40
0.25
 40
0.25
 40
0.5
 40
0.5
 40
0.75
 40
0.75
 40
1.0
 40
1.0
 40
1.0
 40
1.0
 10
201.7481439209847
 20
153.5879535935991
 30
0.0
 10
201.7481439209847
 20
153.5879535935991
 30
0.0
 10
201.7638582414507
 20
153.5879535935991
 30
0.0
 10
201.8275422199191
 20
153.5879535935991
 30
0.0
 10
201.8761454143295
 20
153.5879535935991
 30
0.0
 10
202.0088289367551
 20
153.5879535935991
 30
0.0
 10
202.0939310410657
 20
153.5879535935991
 30
0.0
 10
202.3003732759758
 20
153.5879535935991
 30
0.0
 10
202.4244542175988
 20
153.5879535935991
 30
0.0
 10
202.5481439209847
 20
153.5879535935991
 30
0.0
  0
SPLINE
  5
A1
330
1F
100
AcDbEntity
  8
0
  6
Continuous
 62
     7
370
    15
100
AcDbSpline
210
0.0
220
0.0
230
1.0
 70
     8
 71
     3
 72
    14
 73
    10
 74
     0
 42
0.00000001
 43
0.00000001
 12
1.0
 22
0.0
 32
0.0
 13
1.0
 23
0.0
 33
0.0
 40
0.0
 40
0.0
 40
0.0
 40
0.0
 40
0.25
 40
0.25
 40
0.5
 40
0.5
 40
0.75
 40
0.75
 40
1.0
 40
1.0
 40
1.0
 40
1.0
 10
205.5681439209847
 20
76.77477481120418
 30
0.0
 10
205.5681439209847
 20
76.88181889219855
 30
0.0
 10
205.5480262338266
 20
76.987054032441
 30
0.0
 10
205.469535044561
 20
77.1849045192887
 30
0.0
 10
205.4113784197597
 20
77.27595628285361
 30
0.0
 10
205.2648631641417
 20
77.4291223767784
 30
0.0
 10
205.1762206155006
 20
77.4914168229878
 30
0.0
 10
204.9804972927003
 20
77.5762106085238
 30
0.0
 10
204.8752661016293
 20
77.5982781355494
 30
0.0
 10
204.7681439209848
 20
77.59827813554942
 30
0.0
  0
SPLINE
  5
A2
330
1F
100
AcDbEntity
  8
0
  6
Continuous
 62
     7
370
    15
100
AcDbSpline
210
0.0
220
0.0
230
1.0
 70
    24
 71
     3
 72
    14
 73
    10
 74
     0
 42
0.00000001
 43
0.00000001
 12
1.0
 22
0.0
 32
0.0
 13
1.0
 23
0.0
 33
0.0
 40
0.0
 40
0.0
 40
0.0
 40
0.0
 40
0.25
 40
0.25
 40
0.5
 40
0.5
 40
0.75
 40
0.75
 40
1.0
 40
1.0
 40
1.0
 40
1.0
 10
204.7681439209848
 20
153.5879535935991
 30
0.0
 10
204.8919136857498
 20
153.5879535935991
 30
0.0
 10
205.0162807897568
 20
153.5879535935991
 30
0.0
 10
205.2226372584828
 20
153.5879535935991
 30
0.0
 10
205.3079654019012
 20
153.5879535935991
 30
0.0
 10
205.4401574606164
 20
153.5879535935991
 30
0.0
 10
205.488802704367
 20
153.5879535935991
 30
0.0
 10
205.5523384960957
 20
153.5879535935991
 30
0.0
 10
205.5681439209847
 20
153.5879535935991
 30
0.0
 10
205.5681439209847
 20
153.5879535935991
 30
0.0
  0
LINE
  5
A3
330
1F
100
AcDbEntity
  8
0
  6
Continuous
 62
     7
370
    15
100
AcDbLine
 10
204.7681440098
 20
77.5982767843
 30
0.0
 11
202.5481448007
 21
77.5982767843
 31
0.0
  0
LINE
  5
A4
330
1F
100
AcDbEntity
  8
0
  6
Continuous
 62
     7
370
    15
100
AcDbLine
 10
202.5481448007
 20
153.5879552864
 30
0.0
 11
204.7681440098
 21
153.5879552864
 31
0.0
  0
LINE
  5
A5
330
1F
100
AcDbEntity
  8
0
  6
Continuous
 62
     7
370
    15
100
AcDbLine
 10
148.8581434322
 20
85.9739400946
 30
0.0
 11
148.8581434322
 21
88.3922309183
 31
0.0
  0
SPLINE
  5
A6
330
1F
100
AcDbEntity
  8
0
  6
Continuous
 62
     7
370
    15
100
AcDbSpline
210
0.0
220
0.0
230
1.0
 70
     8
 71
     3
 72
    14
 73
    10
 74
     0
 42
0.00000001
 43
0.00000001
 12
1.0
 22
0.0
 32
0.0
 13
1.0
 23
0.0
 33
0.0
 40
0.0
 40
0.0
 40
0.0
 40
0.0
 40
0.2500000000000008
 40
0.2500000000000008
 40
0.5000000000000006
 40
0.5000000000000006
 40
0.7500000000000002
 40
0.7500000000000002
 40
1.0
 40
1.0
 40
1.0
 40
1.0
 10
148.0016711832652
 20
90.04054750301455
 30
0.0
 10
148.0701755294609
 20
89.88670140298727
 30
0.0
 10
148.16876601487
 20
89.73857189577615
 30
0.0
 10
148.36695660783
 20
89.4498894983807
 30
0.0
 10
148.4674049896051
 20
89.30945042486522
 30
0.0
 10
148.6427290367244
 20
89.0354898127444
 30
0.0
 10
148.7181474636812
 20
88.90197062066343
 30
0.0
 10
148.8256840886121
 20
88.64166998070911
 30
0.0
 10
148.8581439209847
 20
88.51393349414727
 30
0.0
 10
148.8581439209847
 20
88.39223263937821
 30
0.0
  0
SPLINE
  5
A7
330
1F
100
AcDbEntity
  8
0
  6
Continuous
 62
     7
370
    15
100
AcDbSpline
210
0.0
220
0.0
230
1.0
 70
     8
 71
     3
 72
    20
 73
    16
 74
     0
 42
0.00000001
 43
0.00000001
 12
1.0
 22
0.0
 32
0.0
 13
1.0
 23
0.0
 33
0.0
 40
0.0
 40
0.0
 40
0.0
 40
0.0
 40
0.0625000000000001
 40
0.0625000000000001
 40
0.1250000000000002
 40
0.1250000000000002
 40
0.2500000000000004
 40
0.2500000000000004
 40
0.3750000000000006
 40
0.3750000000000006
 40
0.5000000000000008
 40
0.5000000000000008
 40
0.7500000000000003
 40
0.7500000000000003
 40
1.0
 40
1.0
 40
1.0
 40
1.0
 10
146.9581439209847
 20
90.91795015373552
 30
0.0
 10
147.0028651568652
 20
90.92235885223579
 30
0.0
 10
147.0494088582517
 20
90.92222208043894
 30
0.0
 10
147.1408280664118
 20
90.91222775871948
 30
0.0
 10
147.1851179827693
 20
90.90245617913342
 30
0.0
 10
147.3063828941744
 20
90.86469357518244
 30
0.0
 10
147.3735675174507
 20
90.82894423899023
 30
0.0
 10
147.4885345835708
 20
90.75361658627362
 30
0.0
 10
147.5377389925899
 20
90.71277974431428
 30
0.0
 10
147.6246402263842
 20
90.63069962720344
 30
0.0
 10
147.6627226463434
 20
90.58900462112588
 30
0.0
 10
147.7670618367064
 20
90.46306714649263
 30
0.0
 10
147.8236491318214
 20
90.37784836622085
 30
0.0
 10
147.9226024444382
 20
90.20817077607519
 30
0.0
 10
147.964540063329
 20
90.12393605146517
 30
0.0
 10
148.0016711832651
 20
90.04054750301455
 30
0.0
  0
SPLINE
  5
A8
330
1F
100
AcDbEntity
  8
0
  6
Continuous
 62
     7
370
    15
100
AcDbSpline
210
0.0
220
0.0
230
1.0
 70
     8
 71
     3
 72
    10
 73
     6
 74
     0
 42
0.00000001
 43
0.00000001
 12
1.0
 22
0.0
 32
0.0
 13
1.0
 23
0.0
 33
0.0
 40
0.0
 40
0.0
 40
0.0
 40
0.0
 40
0.5
 40
0.5
 40
1.0
 40
1.0
 40
1.0
 40
1.0
 10
141.8202311244077
 20
90.3339366983071
 30
0.0
 10
142.6599764390161
 20
90.4467803192932
 30
0.0
 10
143.5106165053604
 20
90.54942956638058
 30
0.0
 10
145.2252272900789
 20
90.7422543801632
 30
0.0
 10
146.0893353168073
 20
90.83230146548169
 30
0.0
 10
146.9581439209847
 20
90.91795015373553
 30
0.0
  0
SPLINE
  5
A9
330
1F
100
AcDbEntity
  8
0
  6
Continuous
 62
     7
370
    15
100
AcDbSpline
210
0.0
220
0.0
230
1.0
 70
     8
 71
     3
 72
    14
 73
    10
 74
     0
 42
0.00000001
 43
0.00000001
 12
1.0
 22
0.0
 32
0.0
 13
1.0
 23
0.0
 33
0.0
 40
0.0
 40
0.0
 40
0.0
 40
0.0
 40
0.5000000000000014
 40
0.5000000000000014
 40
0.7500000000000006
 40
0.7500000000000006
 40
0.8750000000000003
 40
0.8750000000000003
 40
1.0
 40
1.0
 40
1.0
 40
1.0
 10
135.6580690369539
 20
90.05955374436434
 30
0.0
 10
136.6988755610637
 20
90.07184768460544
 30
0.0
 10
137.7367028060233
 20
90.0912935293475
 30
0.0
 10
139.2829667165852
 20
90.14588846365606
 30
0.0
 10
139.7966514832576
 20
90.16830094444198
 30
0.0
 10
140.561839080268
 20
90.21493074206704
 30
0.0
 10
140.8160014171451
 20
90.2326676439566
 30
0.0
 10
141.321231643439
 20
90.27569414904876
 30
0.0
 10
141.5724404816223
 20
90.30063899138094
 30
0.0
 10
141.8202311244077
 20
90.33393669830703
 30
0.0
  0
SPLINE
  5
AA
330
1F
100
AcDbEntity
  8
0
  6
Continuous
 62
     7
370
    15
100
AcDbSpline
210
0.0
220
0.0
230
1.0
 70
     8
 71
     3
 72
    12
 73
     8
 74
     0
 42
0.00000001
 43
0.00000001
 12
1.0
 22
0.0
 32
0.0
 13
1.0
 23
0.0
 33
0.0
 40
0.0
 40
0.0
 40
0.0
 40
0.0
 40
0.2500000000000009
 40
0.2500000000000009
 40
0.5000000000000018
 40
0.5000000000000018
 40
1.0
 40
1.0
 40
1.0
 40
1.0
 10
141.9581439209847
 20
154.3244764850955
 30
0.0
 10
141.4394450991565
 20
154.3569992599437
 30
0.0
 10
140.9177335259515
 20
154.3802960011142
 30
0.0
 10
139.871441509456
 20
154.4181415155363
 30
0.0
 10
139.3467698837857
 20
154.4324099900324
 30
0.0
 10
137.7699238612465
 20
154.4666194774908
 30
0.0
 10
136.7149685466996
 20
154.4781189814346
 30
0.0
 10
135.6580690369543
 20
154.4837857621642
 30
0.0
  0
SPLINE
  5
AB
330
1F
100
AcDbEntity
  8
0
  6
Continuous
 62
     7
370
    15
100
AcDbSpline
210
0.0
220
0.0
230
1.0
 70
     8
 71
     3
 72
    20
 73
    16
 74
     0
 42
0.00000001
 43
0.00000001
 12
1.0
 22
0.0
 32
0.0
 13
1.0
 23
0.0
 33
0.0
 40
0.0
 40
0.0
 40
0.0
 40
0.0
 40
0.2500000000000011
 40
0.2500000000000011
 40
0.5000000000000021
 40
0.5000000000000021
 40
0.7500000000000031
 40
0.7500000000000031
 40
0.8750000000000008
 40
0.8750000000000008
 40
0.9375000000000006
 40
0.9375000000000006
 40
0.9687500000000003
 40
0.9687500000000003
 40
1.0
 40
1.0
 40
1.0
 40
1.0
 10
143.8581439209847
 20
155.9825623305836
 30
0.0
 10
143.8581439209847
 20
155.8468800108369
 30
0.0
 10
143.8094321317681
 20
155.7057930246968
 30
0.0
 10
143.6402707085429
 20
155.4137213059662
 30
0.0
 10
143.5184902946246
 20
155.2620725638758
 30
0.0
 10
143.2209431998751
 20
154.9596641237227
 30
0.0
 10
143.0470305941723
 20
154.8070754875994
 30
0.0
 10
142.7276157602905
 20
154.5818047237571
 30
0.0
 10
142.6125749848432
 20
154.5070816292464
 30
0.0
 10
142.4054906608268
 20
154.4076712199894
 30
0.0
 10
142.3293828260204
 20
154.3761061276448
 30
0.0
 10
142.1979882864671
 20
154.3416627434518
 30
0.0
 10
142.1514350674656
 20
154.3326111716842
 30
0.0
 10
142.0551017163849
 20
154.3224355228458
 30
0.0
 10
142.0058422930294
 20
154.3214857641707
 30
0.0
 10
141.9581439209827
 20
154.3244764850853
 30
0.0
  0
LINE
  5
AC
330
1F
100
AcDbEntity
  8
0
  6
Continuous
 62
     7
370
    15
100
AcDbLine
 10
143.8581444753
 20
155.9825607144
 30
0.0
 11
143.8581444753
 21
158.2514673971
 31
0.0
  0
LINE
  5
AD
330
1F
100
AcDbEntity
  8
0
  6
Continuous
 62
     7
370
    15
100
AcDbLine
 10
181.1581439769
 20
84.3557037912
 30
0.0
 11
181.1581439769
 21
160.120203396
 31
0.0
  0
SPLINE
  5
AE
330
1F
100
AcDbEntity
  8
0
  6
Continuous
 62
     7
370
    15
100
AcDbSpline
210
0.0
220
0.0
230
1.0
 70
     8
 71
     3
 72
    24
 73
    20
 74
     0
 42
0.00000001
 43
0.00000001
 12
1.0
 22
0.0
 32
0.0
 13
1.0
 23
0.0
 33
0.0
 40
0.0
 40
0.0
 40
0.0
 40
0.0
 40
0.0002934239329635
 40
0.0628079954843725
 40
0.1260453886222317
 40
0.1890746649056576
 40
0.2513200327496127
 40
0.3133304381321615
 40
0.3759158074016681
 40
0.4383740215105411
 40
0.5000631209931454
 40
0.5616593985498132
 40
0.6245050468179062
 40
0.6872231543007362
 40
0.7494953203649202
 40
0.811758388799549
 40
0.8747365576758938
 40
0.937898032705022
 40
1.0
 40
1.0
 40
1.0
 40
1.0
 10
162.1780995709567
 20
85.30670707451031
 30
0.0
 10
162.1779050271739
 20
85.3066833772497
 30
0.0
 10
162.1362625309182
 20
85.30161092994729
 30
0.0
 10
162.281285743091
 20
85.3200522200934
 30
0.0
 10
162.6364029701095
 20
85.36265454886019
 30
0.0
 10
163.2409685237456
 20
85.43076488218655
 30
0.0
 10
164.0474056821513
 20
85.50403019551449
 30
0.0
 10
165.0328827921725
 20
85.5685457988232
 30
0.0
 10
166.1645519335548
 20
85.60711271410248
 30
0.0
 10
167.3868448472172
 20
85.61080201594932
 30
0.0
 10
168.6541739931774
 20
85.56838358955515
 30
0.0
 10
169.9206592362744
 20
85.48012872330364
 30
0.0
 10
171.1367973671351
 20
85.35174311607263
 30
0.0
 10
172.2622067927508
 20
85.1990953894027
 30
0.0
 10
173.2396249859688
 20
85.03732500803768
 30
0.0
 10
174.0428896664864
 20
84.88479257156126
 30
0.0
 10
174.631383075518
 20
84.76077893280038
 30
0.0
 10
175.0202898120033
 20
84.67585734164976
 30
0.0
 10
175.0670506283736
 20
84.66513163334166
 30
0.0
 10
175.0902332795529
 20
84.6598141394727
 30
0.0
  0
SPLINE
  5
AF
330
1F
100
AcDbEntity
  8
0
  6
Continuous
 62
     7
370
    15
100
AcDbSpline
210
0.0
220
0.0
230
1.0
 70
     8
 71
     3
 72
    41
 73
    37
 74
     0
 42
0.00000001
 43
0.00000001
 12
1.0
 22
0.0
 32
0.0
 13
1.0
 23
0.0
 33
0.0
 40
0.0
 40
0.0
 40
0.0
 40
0.0
 40
0.0619930085184813
 40
0.1254347856011715
 40
0.1886508880900376
 40
0.2510246598126379
 40
0.3131658302741298
 40
0.3756581730070438
 40
0.4382227162559227
 40
0.4998045089875787
 40
0.5615164229499278
 40
0.6240683623784647
 40
0.6867257688368309
 40
0.7488365772489655
 40
0.811068658633541
 40
0.874174327755461
 40
0.9373213213306892
 40
0.9685512108215084
 40
0.9842087278453592
 40
0.992064161706849
 40
0.9960005299564133
 40
0.9979711235159539
 40
0.998957053070188
 40
0.9994501798397873
 40
0.9996967843242086
 40
0.9998200968848417
 40
0.999881755774932
 40
0.9999125858373288
 40
0.9999280010298993
 40
0.9999357086679188
 40
0.9999395624952753
 40
0.9999414894117359
 40
0.9999424528699662
 40
0.9999434163281964
 40
0.9999502136995695
 40
1.0
 40
1.0
 40
1.0
 40
1.0
 10
175.0901122076182
 20
159.8160483442418
 30
0.0
 10
175.0665406166592
 20
159.8107387591984
 30
0.0
 10
175.0188465697194
 20
159.7999955047981
 30
0.0
 10
174.6268034763402
 20
159.7147686196226
 30
0.0
 10
174.0362908311542
 20
159.590199938663
 30
0.0
 10
173.2322523830841
 20
159.4372510285062
 30
0.0
 10
172.2561776166962
 20
159.2754938258504
 30
0.0
 10
171.1343693037539
 20
159.1232604080999
 30
0.0
 10
169.9208376681481
 20
158.9954850536081
 30
0.0
 10
168.6560072366915
 20
158.9076365381325
 30
0.0
 10
167.3879638673464
 20
158.8652484989632
 30
0.0
 10
166.1644565575413
 20
158.8689875704124
 30
0.0
 10
165.0309572450233
 20
158.9075760499002
 30
0.0
 10
164.0448524995822
 20
158.9720224798074
 30
0.0
 10
163.2362231176338
 20
159.0455293519517
 30
0.0
 10
162.6396066002374
 20
159.1128428819821
 30
0.0
 10
162.3242143697555
 20
159.1508059757737
 30
0.0
 10
162.2141480551886
 20
159.1646053041241
 30
0.0
 10
162.1867296987383
 20
159.1680899186437
 30
0.0
 10
162.179805884837
 20
159.1689712005735
 30
0.0
 10
162.1780374294797
 20
159.1691943083927
 30
0.0
 10
162.177577397716
 20
159.1692473534998
 30
0.0
 10
162.1774529388699
 20
159.1692669030345
 30
0.0
 10
162.177418573146
 20
159.1692602634463
 30
0.0
 10
162.177407467472
 20
159.1692677795139
 30
0.0
 10
162.1774039773689
 20
159.1692671137332
 30
0.0
 10
162.1774008222389
 20
159.1692671727257
 30
0.0
 10
162.1774011018962
 20
159.1692671674672
 30
0.0
 10
162.1774010768191
 20
159.1692671679805
 30
0.0
 10
162.1774010794769
 20
159.1692671678679
 30
0.0
 10
162.1774010786248
 20
159.1692671679727
 30
0.0
 10
162.1774010795707
 20
159.1692671678295
 30
0.0
 10
162.1774010780709
 20
159.16926716806
 30
0.0
 10
162.1774010919684
 20
159.1692671659221
 30
0.0
 10
162.1773994277834
 20
159.1692674219502
 30
0.0
 10
162.1774260679257
 20
159.1692633234669
 30
0.0
 10
162.1774495077996
 20
159.1692597173326
 30
0.0
  0
SPLINE
  5
B0
330
1F
100
AcDbEntity
  8
0
  6
Continuous
 62
     7
370
    15
100
AcDbSpline
210
0.0
220
0.0
230
1.0
 70
     8
 71
     3
 72
    22
 73
    18
 74
     0
 42
0.00000001
 43
0.00000001
 12
1.0
 22
0.0
 32
0.0
 13
1.0
 23
0.0
 33
0.0
 40
0.0
 40
0.0
 40
0.0
 40
0.0
 40
0.2499999999999975
 40
0.2499999999999975
 40
0.3749999999999944
 40
0.3749999999999944
 40
0.4374999999999946
 40
0.4374999999999946
 40
0.4999999999999947
 40
0.4999999999999947
 40
0.5624999999999948
 40
0.5624999999999948
 40
0.624999999999995
 40
0.624999999999995
 40
0.7499999999999957
 40
0.7499999999999957
 40
1.0
 40
1.0
 40
1.0
 40
1.0
 10
133.9551634864371
 20
91.6992916907978
 30
0.0
 10
133.9822291457351
 20
91.74993766626747
 30
0.0
 10
134.0150588255683
 20
91.79434341833276
 30
0.0
 10
134.0963261995948
 20
91.82628357786464
 30
0.0
 10
134.1288917411356
 20
91.83202102402585
 30
0.0
 10
134.2016047684679
 20
91.81108239757435
 30
0.0
 10
134.2303987279301
 20
91.79871920902262
 30
0.0
 10
134.3010484402008
 20
91.75234934166087
 30
0.0
 10
134.3435243217901
 20
91.71656263168053
 30
0.0
 10
134.4240780497016
 20
91.63392236312008
 30
0.0
 10
134.4611963869363
 20
91.58918286185859
 30
0.0
 10
134.5262640536453
 20
91.50417446637697
 30
0.0
 10
134.5547377124785
 20
91.463388481862
 30
0.0
 10
134.6340801096211
 20
91.34360290430499
 30
0.0
 10
134.6769810682886
 20
91.27017214544502
 30
0.0
 10
134.7935956203741
 20
91.05824784674734
 30
0.0
 10
134.8547524258119
 20
90.92776668413339
 30
0.0
 10
134.908196362892
 20
90.80373372942677
 30
0.0
  0
SPLINE
  5
B1
330
1F
100
AcDbEntity
  8
0
  6
Continuous
 62
     7
370
    15
100
AcDbSpline
210
0.0
220
0.0
230
1.0
 70
     8
 71
     3
 72
     8
 73
     4
 74
     0
 42
0.00000001
 43
0.00000001
 12
1.0
 22
0.0
 32
0.0
 13
1.0
 23
0.0
 33
0.0
 40
0.0
 40
0.0
 40
0.0
 40
0.0
 40
1.0
 40
1.0
 40
1.0
 40
1.0
 10
133.7581439209847
 20
91.76430845241981
 30
0.0
 10
133.7581439209847
 20
91.74317770796326
 30
0.0
 10
133.7608887823225
 20
91.72393800988698
 30
0.0
 10
133.7660561291649
 20
91.70698766054802
 30
0.0
  0
SPLINE
  5
B2
330
1F
100
AcDbEntity
  8
0
  6
Continuous
 62
     7
370
    15
100
AcDbSpline
210
0.0
220
0.0
230
1.0
 70
     8
 71
     3
 72
    10
 73
     6
 74
     0
 42
0.00000001
 43
0.00000001
 12
1.0
 22
0.0
 32
0.0
 13
1.0
 23
0.0
 33
0.0
 40
0.0
 40
0.0
 40
0.0
 40
0.0
 40
0.2982592819525376
 40
0.938080604865855
 40
1.0
 40
1.0
 40
1.0
 40
1.0
 10
133.8033363653092
 20
91.66783397422955
 30
0.0
 10
133.8136201583007
 20
91.65334486103625
 30
0.0
 10
133.8459645892489
 20
91.60777392027836
 30
0.0
 10
133.9185647042982
 20
91.6358640145917
 30
0.0
 10
133.9521967139034
 20
91.6941492795838
 30
0.0
 10
133.9551642967133
 20
91.69929218815491
 30
0.0
  0
LINE
  5
B3
330
1F
100
AcDbEntity
  8
0
  6
Continuous
 62
     7
370
    15
100
AcDbLine
 10
133.7581448687
 20
91.7643078171
 30
0.0
 11
133.7581448687
 21
152.7406231068
 31
0.0
  0
SPLINE
  5
B4
330
1F
100
AcDbEntity
  8
0
  6
Continuous
 62
     7
370
    15
100
AcDbSpline
210
0.0
220
0.0
230
1.0
 70
     8
 71
     3
 72
     9
 73
     5
 74
     0
 42
0.00000001
 43
0.00000001
 12
1.0
 22
0.0
 32
0.0
 13
1.0
 23
0.0
 33
0.0
 40
0.0
 40
0.0
 40
0.0
 40
0.0
 40
0.0592942499244465
 40
1.0
 40
1.0
 40
1.0
 40
1.0
 10
134.048959655848
 20
152.9164363198154
 30
0.0
 10
134.0440766581492
 20
152.9197294595131
 30
0.0
 10
133.9617246981366
 20
152.9752683979762
 30
0.0
 10
133.8955940437213
 20
152.9179761948634
 30
0.0
 10
133.8333845568566
 20
152.8640810899608
 30
0.0
  0
SPLINE
  5
B5
330
1F
100
AcDbEntity
  8
0
  6
Continuous
 62
     7
370
    15
100
AcDbSpline
210
0.0
220
0.0
230
1.0
 70
     8
 71
     3
 72
     8
 73
     4
 74
     0
 42
0.00000001
 43
0.00000001
 12
1.0
 22
0.0
 32
0.0
 13
1.0
 23
0.0
 33
0.0
 40
0.0
 40
0.0
 40
0.0
 40
0.0
 40
1.0
 40
1.0
 40
1.0
 40
1.0
 10
133.7817775899209
 20
152.8482028372367
 30
0.0
 10
133.7664285512849
 20
152.8176927822407
 30
0.0
 10
133.7581439209847
 20
152.7813812267284
 30
0.0
 10
133.7581439209847
 20
152.740623336167
 30
0.0
  0
SPLINE
  5
B6
330
1F
100
AcDbEntity
  8
0
  6
Continuous
 62
     7
370
    15
100
AcDbSpline
210
0.0
220
0.0
230
1.0
 70
     8
 71
     3
 72
    20
 73
    16
 74
     0
 42
0.00000001
 43
0.00000001
 12
1.0
 22
0.0
 32
0.0
 13
1.0
 23
0.0
 33
0.0
 40
0.0
 40
0.0
 40
0.0
 40
0.0
 40
0.2500000000000037
 40
0.2500000000000037
 40
0.3750000000000055
 40
0.3750000000000055
 40
0.5000000000000073
 40
0.5000000000000073
 40
0.5625000000000057
 40
0.5625000000000057
 40
0.625000000000004
 40
0.625000000000004
 40
0.7500000000000027
 40
0.7500000000000027
 40
1.0
 40
1.0
 40
1.0
 40
1.0
 10
134.7346961626872
 20
153.5608196940772
 30
0.0
 10
134.6946999448633
 20
153.4819412875198
 30
0.0
 10
134.6495863170257
 20
153.3988116408283
 30
0.0
 10
134.5663321026591
 20
153.2653229764773
 30
0.0
 10
134.5361127740387
 20
153.2194579205953
 30
0.0
 10
134.4640245388972
 20
153.1212663681904
 30
0.0
 10
134.4221072214861
 20
153.0689565486669
 30
0.0
 10
134.3508566169347
 20
152.9969506459324
 30
0.0
 10
134.3266208045553
 20
152.9751804336308
 30
0.0
 10
134.2810226143707
 20
152.9397057753018
 30
0.0
 10
134.260220124771
 20
152.9263355911242
 30
0.0
 10
134.2052791263519
 20
152.896765678989
 30
0.0
 10
134.1772101382651
 20
152.8896391566871
 30
0.0
 10
134.1067073082022
 20
152.8827647852044
 30
0.0
 10
134.0752832204113
 20
152.8970799442915
 30
0.0
 10
134.0489581527027
 20
152.9164367463021
 30
0.0
  0
SPLINE
  5
B7
330
1F
100
AcDbEntity
  8
0
  6
Continuous
 62
     7
370
    15
100
AcDbSpline
210
0.0
220
0.0
230
1.0
 70
     8
 71
     3
 72
    10
 73
     6
 74
     0
 42
0.00000001
 43
0.00000001
 12
1.0
 22
0.0
 32
0.0
 13
1.0
 23
0.0
 33
0.0
 40
0.0
 40
0.0
 40
0.0
 40
0.0
 40
0.4999999999999989
 40
0.4999999999999989
 40
1.0
 40
1.0
 40
1.0
 40
1.0
 10
135.4081439209847
 20
154.4862387954191
 30
0.0
 10
135.2832556502345
 20
154.3552425173476
 30
0.0
 10
135.1618055321741
 20
154.2115296806826
 30
0.0
 10
134.9322215572166
 20
153.9009593879934
 30
0.0
 10
134.8219465818207
 20
153.7328903149303
 30
0.0
 10
134.7346961626872
 20
153.5608196940772
 30
0.0
  0
SPLINE
  5
B8
330
1F
100
AcDbEntity
  8
0
  6
Continuous
 62
     7
370
    15
100
AcDbSpline
210
0.0
220
0.0
230
1.0
 70
     8
 71
     3
 72
     8
 73
     4
 74
     0
 42
0.00000001
 43
0.00000001
 12
1.0
 22
0.0
 32
0.0
 13
1.0
 23
0.0
 33
0.0
 40
0.0
 40
0.0
 40
0.0
 40
0.0
 40
1.0
 40
1.0
 40
1.0
 40
1.0
 10
135.6580690369505
 20
154.4837857621636
 30
0.0
 10
135.5710510071021
 20
154.4842523269507
 30
0.0
 10
135.4880969807222
 20
154.4852923465268
 30
0.0
 10
135.4081439209824
 20
154.4862387954191
 30
0.0
  0
SPLINE
  5
B9
330
1F
100
AcDbEntity
  8
0
  6
Continuous
 62
     7
370
    15
100
AcDbSpline
210
0.0
220
0.0
230
1.0
 70
     8
 71
     3
 72
     8
 73
     4
 74
     0
 42
0.00000001
 43
0.00000001
 12
1.0
 22
0.0
 32
0.0
 13
1.0
 23
0.0
 33
0.0
 40
0.0
 40
0.0
 40
0.0
 40
0.0
 40
1.0
 40
1.0
 40
1.0
 40
1.0
 10
135.4081439209754
 20
90.05364029979046
 30
0.0
 10
135.487558539849
 20
90.05621337104012
 30
0.0
 10
135.5703620857809
 20
90.05851775545432
 30
0.0
 10
135.6580690369538
 20
90.05955374436434
 30
0.0
  0
SPLINE
  5
BA
330
1F
100
AcDbEntity
  8
0
  6
Continuous
 62
     7
370
    15
100
AcDbSpline
210
0.0
220
0.0
230
1.0
 70
     8
 71
     3
 72
    10
 73
     6
 74
     0
 42
0.00000001
 43
0.00000001
 12
1.0
 22
0.0
 32
0.0
 13
1.0
 23
0.0
 33
0.0
 40
0.0
 40
0.0
 40
0.0
 40
0.0
 40
0.5
 40
0.5
 40
1.0
 40
1.0
 40
1.0
 40
1.0
 10
134.908196362892
 20
90.80373372942677
 30
0.0
 10
134.9656219933852
 20
90.67046004086419
 30
0.0
 10
135.0439577617437
 20
90.5374267177771
 30
0.0
 10
135.2157499182036
 20
90.28495141150769
 30
0.0
 10
135.3099330804848
 20
90.1651197074067
 30
0.0
 10
135.4081439209915
 20
90.05364029978111
 30
0.0
  0
SPLINE
  5
BB
330
1F
100
AcDbEntity
  8
0
  6
Continuous
 62
     7
370
    15
100
AcDbSpline
210
0.0
220
0.0
230
1.0
 70
     8
 71
     3
 72
     8
 73
     4
 74
     0
 42
0.00000001
 43
0.00000001
 12
1.0
 22
0.0
 32
0.0
 13
1.0
 23
0.0
 33
0.0
 40
0.0
 40
0.0
 40
0.0
 40
0.0
 40
1.0
 40
1.0
 40
1.0
 40
1.0
 10
201.7481439209847
 20
168.8352244543039
 30
0.0
 10
201.2978356853002
 20
169.6329395794176
 30
0.0
 10
200.8471418687766
 20
170.4304378790748
 30
0.0
 10
200.3961149000633
 20
171.2277484492626
 30
0.0
  0
LINE
  5
BC
330
1F
100
AcDbEntity
  8
0
  6
Continuous
 62
     7
370
    15
100
AcDbLine
 10
201.7481442971
 20
158.1334017717
 30
0.0
 11
201.7481442971
 21
168.8352257513
 31
0.0
  0
SPLINE
  5
BD
330
1F
100
AcDbEntity
  8
0
  6
Continuous
 62
     7
370
    15
100
AcDbSpline
210
0.0
220
0.0
230
1.0
 70
     8
 71
     3
 72
     8
 73
     4
 74
     0
 42
0.00000001
 43
0.00000001
 12
1.0
 22
0.0
 32
0.0
 13
1.0
 23
0.0
 33
0.0
 40
0.0
 40
0.0
 40
0.0
 40
0.0
 40
1.0
 40
1.0
 40
1.0
 40
1.0
 10
200.3961149000633
 20
161.188916354486
 30
0.0
 10
200.8530412538629
 20
160.1729983848117
 30
0.0
 10
201.3042468956659
 20
159.1542025557206
 30
0.0
 10
201.7481439209847
 20
158.1334010997369
 30
0.0
  0
SPLINE
  5
BE
330
1F
100
AcDbEntity
  8
0
  6
Continuous
 62
     7
370
    15
100
AcDbSpline
210
0.0
220
0.0
230
1.0
 70
     8
 71
     3
 72
     8
 73
     4
 74
     0
 42
0.00000001
 43
0.00000001
 12
1.0
 22
0.0
 32
0.0
 13
1.0
 23
0.0
 33
0.0
 40
0.0
 40
0.0
 40
0.0
 40
0.0
 40
1.0
 40
1.0
 40
1.0
 40
1.0
 10
206.9201729419061
 20
171.2277484492626
 30
0.0
 10
206.4691459731929
 20
170.4304378790748
 30
0.0
 10
206.0184521566693
 20
169.6329395794176
 30
0.0
 10
205.5681439209847
 20
168.8352244543039
 30
0.0
  0
LINE
  5
BF
330
1F
100
AcDbEntity
  8
0
  6
Continuous
 62
     7
370
    15
100
AcDbLine
 10
206.9201734347
 20
161.1889146768
 30
0.0
 11
206.9201734347
 21
171.227748742
 31
0.0
  0
SPLINE
  5
C0
330
1F
100
AcDbEntity
  8
0
  6
Continuous
 62
     7
370
    15
100
AcDbSpline
210
0.0
220
0.0
230
1.0
 70
     8
 71
     3
 72
     8
 73
     4
 74
     0
 42
0.00000001
 43
0.00000001
 12
1.0
 22
0.0
 32
0.0
 13
1.0
 23
0.0
 33
0.0
 40
0.0
 40
0.0
 40
0.0
 40
0.0
 40
1.0
 40
1.0
 40
1.0
 40
1.0
 10
205.5681439209847
 20
158.1334010997369
 30
0.0
 10
206.0122939320102
 20
159.1547843306885
 30
0.0
 10
206.4633682422682
 20
160.1732688674569
 30
0.0
 10
206.9201729419061
 20
161.188916354486
 30
0.0
  0
LINE
  5
C1
330
1F
100
AcDbEntity
  8
0
  6
Continuous
 62
     7
370
    15
100
AcDbLine
 10
205.5681445135
 20
158.1334017717
 30
0.0
 11
205.5681445135
 21
168.8352257513
 31
0.0
  0
LINE
  5
C2
330
1F
100
AcDbEntity
  8
0
  6
Continuous
 62
     7
370
    15
100
AcDbLine
 10
201.7481442971
 20
158.1334017717
 30
0.0
 11
201.7481442971
 21
156.9521904491
 31
0.0
  0
SPLINE
  5
C3
330
1F
100
AcDbEntity
  8
0
  6
Continuous
 62
     7
370
    15
100
AcDbSpline
210
0.0
220
0.0
230
1.0
 70
     8
 71
     3
 72
    14
 73
    10
 74
     0
 42
0.00000001
 43
0.00000001
 12
1.0
 22
0.0
 32
0.0
 13
1.0
 23
0.0
 33
0.0
 40
0.0
 40
0.0
 40
0.0
 40
0.0
 40
0.25
 40
0.25
 40
0.5
 40
0.5
 40
0.75
 40
0.75
 40
1.0
 40
1.0
 40
1.0
 40
1.0
 10
201.7481439209847
 20
156.9521887860961
 30
0.0
 10
201.7481439209847
 20
156.8283219093069
 30
0.0
 10
201.7640030486123
 20
156.7040622324694
 30
0.0
 10
201.8273646941322
 20
156.4664538700635
 30
0.0
 10
201.8759544021815
 20
156.3496734853111
 30
0.0
 10
202.0082400069564
 20
156.1408709567021
 30
0.0
 10
202.093564798217
 20
156.0463602531094
 30
0.0
 10
202.3004560465232
 20
155.9084034523072
 30
0.0
 10
202.4244239924132
 20
155.8664850066715
 30
0.0
 10
202.5481439209847
 20
155.8664850066715
 30
0.0
  0
LINE
  5
C4
330
1F
100
AcDbEntity
  8
0
  6
Continuous
 62
     7
370
    15
100
AcDbLine
 10
202.5481448007
 20
155.8664843939
 30
0.0
 11
204.7681440098
 21
155.8664843939
 31
0.0
  0
SPLINE
  5
C5
330
1F
100
AcDbEntity
  8
0
  6
Continuous
 62
     7
370
    15
100
AcDbSpline
210
0.0
220
0.0
230
1.0
 70
     8
 71
     3
 72
    12
 73
     8
 74
     0
 42
0.00000001
 43
0.00000001
 12
1.0
 22
0.0
 32
0.0
 13
1.0
 23
0.0
 33
0.0
 40
0.0
 40
0.0
 40
0.0
 40
0.0
 40
0.250000000000002
 40
0.250000000000002
 40
0.500000000000004
 40
0.500000000000004
 40
1.0
 40
1.0
 40
1.0
 40
1.0
 10
204.7681439209847
 20
155.8664850066716
 30
0.0
 10
204.8918448709647
 20
155.8664850066716
 30
0.0
 10
205.0159414832349
 20
155.9084786184041
 30
0.0
 10
205.2225966463219
 20
156.0462739450485
 30
0.0
 10
205.3076374130488
 20
156.1402475435133
 30
0.0
 10
205.5071159815224
 20
156.4550357497343
 30
0.0
 10
205.5681439209847
 20
156.7052747419619
 30
0.0
 10
205.5681439209847
 20
156.9521887860961
 30
0.0
  0
LINE
  5
C6
330
1F
100
AcDbEntity
  8
0
  6
Continuous
 62
     7
370
    15
100
AcDbLine
 10
205.5681445135
 20
156.9521904491
 30
0.0
 11
205.5681445135
 21
158.1334017717
 31
0.0
  0
LINE
  5
C7
330
1F
100
AcDbEntity
  8
0
  6
Continuous
 62
     7
370
    15
100
AcDbLine
 10
206.9201734347
 20
161.1889146768
 30
0.0
 11
211.6081439389
 21
161.1889146768
 31
0.0
  0
SPLINE
  5
C8
330
1F
100
AcDbEntity
  8
0
  6
Continuous
 62
     7
370
    15
100
AcDbSpline
210
0.0
220
0.0
230
1.0
 70
     8
 71
     3
 72
    16
 73
    12
 74
     0
 42
0.00000001
 43
0.00000001
 12
1.0
 22
0.0
 32
0.0
 13
1.0
 23
0.0
 33
0.0
 40
0.0
 40
0.0
 40
0.0
 40
0.0
 40
0.1249999999999978
 40
0.1249999999999978
 40
0.2499999999999955
 40
0.2499999999999955
 40
0.499999999999997
 40
0.499999999999997
 40
0.7499999999999984
 40
0.7499999999999984
 40
1.0
 40
1.0
 40
1.0
 40
1.0
 10
211.6081439209847
 20
161.188916354486
 30
0.0
 10
211.6837816273959
 20
161.188916354486
 30
0.0
 10
211.7600972918141
 20
161.1775713543511
 30
0.0
 10
211.9045080297061
 20
161.1349188037125
 30
0.0
 10
211.9729544788145
 20
161.1039844790297
 30
0.0
 10
212.1678857314276
 20
160.9847281072621
 30
0.0
 10
212.2757269052086
 20
160.8745760936415
 30
0.0
 10
212.4444396534206
 20
160.6264400079834
 30
0.0
 10
212.5068040661441
 20
160.4860976839798
 30
0.0
 10
212.5881079906525
 20
160.1978259924911
 30
0.0
 10
212.6081439209847
 20
160.0470210195113
 30
0.0
 10
212.6081439209847
 20
159.896651128166
 30
0.0
  0
LINE
  5
C9
330
1F
100
AcDbEntity
  8
0
  6
Continuous
 62
     7
370
    15
100
AcDbLine
 10
212.6081441028
 20
159.8966524504
 30
0.0
 11
212.6081441028
 21
153.5879552864
 31
0.0
  0
SPLINE
  5
CA
330
1F
100
AcDbEntity
  8
0
  6
Continuous
 62
     7
370
    15
100
AcDbSpline
210
0.0
220
0.0
230
1.0
 70
     8
 71
     3
 72
    10
 73
     6
 74
     0
 42
0.00000001
 43
0.00000001
 12
1.0
 22
0.0
 32
0.0
 13
1.0
 23
0.0
 33
0.0
 40
0.0
 40
0.0
 40
0.0
 40
0.0
 40
0.5
 40
0.5
 40
1.0
 40
1.0
 40
1.0
 40
1.0
 10
202.5481439209847
 20
167.1122293537715
 30
0.0
 10
202.3356076071284
 20
167.1122293537715
 30
0.0
 10
202.1256714354744
 20
167.2036419404017
 30
0.0
 10
201.8319642944631
 20
167.5083868063059
 30
0.0
 10
201.7481439209847
 20
167.7205417762145
 30
0.0
 10
201.7481439209847
 20
167.9315048344471
 30
0.0
  0
SPLINE
  5
CB
330
1F
100
AcDbEntity
  8
0
  6
Continuous
 62
     7
370
    15
100
AcDbSpline
210
0.0
220
0.0
230
1.0
 70
     8
 71
     3
 72
    14
 73
    10
 74
     0
 42
0.00000001
 43
0.00000001
 12
1.0
 22
0.0
 32
0.0
 13
1.0
 23
0.0
 33
0.0
 40
0.0
 40
0.0
 40
0.0
 40
0.0
 40
0.25
 40
0.25
 40
0.5
 40
0.5
 40
0.75
 40
0.75
 40
1.0
 40
1.0
 40
1.0
 40
1.0
 10
205.5681439209847
 20
167.9315048344471
 30
0.0
 10
205.5681439209847
 20
167.8251481406947
 30
0.0
 10
205.5477563648435
 20
167.7193076529346
 30
0.0
 10
205.469122019382
 20
167.5227427393981
 30
0.0
 10
205.4103906597433
 20
167.431571997111
 30
0.0
 10
205.2637817541408
 20
167.2796609080794
 30
0.0
 10
205.1743764341142
 20
167.2175920712598
 30
0.0
 10
204.9804857015139
 20
167.1343240235011
 30
0.0
 10
204.8739807116241
 20
167.1122293537715
 30
0.0
 10
204.7681439209848
 20
167.1122293537715
 30
0.0
  0
SPLINE
  5
CC
330
1F
100
AcDbEntity
  8
0
  6
Continuous
 62
     7
370
    15
100
AcDbSpline
210
0.0
220
0.0
230
1.0
 70
     8
 71
     3
 72
    12
 73
     8
 74
     0
 42
0.00000001
 43
0.00000001
 12
1.0
 22
0.0
 32
0.0
 13
1.0
 23
0.0
 33
0.0
 40
0.0
 40
0.0
 40
0.0
 40
0.0
 40
0.4999999999999953
 40
0.4999999999999953
 40
0.7499999999999977
 40
0.7499999999999977
 40
1.0
 40
1.0
 40
1.0
 40
1.0
 10
212.6081439209847
 20
170.2066934144449
 30
0.0
 10
212.6081439209847
 20
170.4719628472113
 30
0.0
 10
212.5035371774983
 20
170.7344779528637
 30
0.0
 10
212.226868825753
 20
171.020015558901
 30
0.0
 10
212.116503566401
 20
171.0963371757624
 30
0.0
 10
211.8724315177852
 20
171.2006793406025
 30
0.0
 10
211.7406790564535
 20
171.2277484492626
 30
0.0
 10
211.6081439209847
 20
171.2277484492626
 30
0.0
  0
LINE
  5
CD
330
1F
100
AcDbEntity
  8
0
  6
Continuous
 62
     7
370
    15
100
AcDbLine
 10
212.6081441028
 20
159.8966524504
 30
0.0
 11
212.6081441028
 21
170.2066950999
 31
0.0
  0
LINE
  5
CE
330
1F
100
AcDbEntity
  8
0
  6
Continuous
 62
     7
370
    15
100
AcDbLine
 10
211.6081439389
 20
171.227748742
 30
0.0
 11
206.9201734347
 21
171.227748742
 31
0.0
  0
LINE
  5
CF
330
1F
100
AcDbEntity
  8
0
  6
Continuous
 62
     7
370
    15
100
AcDbLine
 10
204.7681440098
 20
167.1122305595
 30
0.0
 11
202.5481448007
 21
167.1122305595
 31
0.0
  0
SPLINE
  5
D0
330
1F
100
AcDbEntity
  8
0
  6
Continuous
 62
     7
370
    15
100
AcDbSpline
210
0.0
220
0.0
230
1.0
 70
     8
 71
     3
 72
    12
 73
     8
 74
     0
 42
0.00000001
 43
0.00000001
 12
1.0
 22
0.0
 32
0.0
 13
1.0
 23
0.0
 33
0.0
 40
0.0
 40
0.0
 40
0.0
 40
0.0
 40
0.2111168680268751
 40
0.4221027664818962
 40
0.6364759329327274
 40
0.8531927388279812
 40
1.0
 40
1.0
 40
1.0
 40
1.0
 10
258.158145887938
 20
141.725129684078
 30
0.0
 10
258.6567170182126
 20
141.7365893508204
 30
0.0
 10
259.6535499825503
 20
141.7595015751261
 30
0.0
 10
260.9896568388884
 20
141.9196404786781
 30
0.0
 10
262.0047125572854
 20
142.0949858690561
 30
0.0
 10
262.5968022746208
 20
142.2239926688716
 30
0.0
 10
262.6019271025754
 20
142.2253420078979
 30
0.0
 10
262.6039967370896
 20
142.2258869312875
 30
0.0
  0
SPLINE
  5
D1
330
1F
100
AcDbEntity
  8
0
  6
Continuous
 62
     7
370
    15
100
AcDbSpline
210
0.0
220
0.0
230
1.0
 70
     8
 71
     3
 72
    12
 73
     8
 74
     0
 42
0.00000001
 43
0.00000001
 12
1.0
 22
0.0
 32
0.0
 13
1.0
 23
0.0
 33
0.0
 40
0.0
 40
0.0
 40
0.0
 40
0.0
 40
0.1917433368860927
 40
0.4012686310951193
 40
0.6150034615645965
 40
0.8316935264461534
 40
1.0
 40
1.0
 40
1.0
 40
1.0
 10
253.6777988506227
 20
142.233618771302
 30
0.0
 10
253.7099069184975
 20
142.226189397791
 30
0.0
 10
253.7771007029204
 20
142.2106416630587
 30
0.0
 10
254.4718901078226
 20
142.0638468705582
 30
0.0
 10
255.5527896798815
 20
141.8866321074967
 30
0.0
 10
256.8532813310466
 20
141.7489891221879
 30
0.0
 10
257.7612256701242
 20
141.7323873671237
 30
0.0
 10
258.158145887938
 20
141.725129684078
 30
0.0
  0
SPLINE
  5
D2
330
1F
100
AcDbEntity
  8
0
  6
Continuous
 62
     7
370
    15
100
AcDbSpline
210
0.0
220
0.0
230
1.0
 70
     8
 71
     3
 72
    12
 73
     8
 74
     0
 42
0.00000001
 43
0.00000001
 12
1.0
 22
0.0
 32
0.0
 13
1.0
 23
0.0
 33
0.0
 40
0.0
 40
0.0
 40
0.0
 40
0.0
 40
0.2111168680268751
 40
0.4221027664818962
 40
0.6364759329327274
 40
0.8531927388279812
 40
1.0
 40
1.0
 40
1.0
 40
1.0
 10
242.6581442786126
 20
141.725129684078
 30
0.0
 10
243.1567154088872
 20
141.7365893508204
 30
0.0
 10
244.1535483732249
 20
141.7595015751261
 30
0.0
 10
245.489655229563
 20
141.9196404786781
 30
0.0
 10
246.5047109479599
 20
142.0949858690561
 30
0.0
 10
247.0968006652954
 20
142.2239926688716
 30
0.0
 10
247.1019254932499
 20
142.2253420078979
 30
0.0
 10
247.1039951277642
 20
142.2258869312875
 30
0.0
  0
SPLINE
  5
D3
330
1F
100
AcDbEntity
  8
0
  6
Continuous
 62
     7
370
    15
100
AcDbSpline
210
0.0
220
0.0
230
1.0
 70
     8
 71
     3
 72
    12
 73
     8
 74
     0
 42
0.00000001
 43
0.00000001
 12
1.0
 22
0.0
 32
0.0
 13
1.0
 23
0.0
 33
0.0
 40
0.0
 40
0.0
 40
0.0
 40
0.0
 40
0.1917433829704201
 40
0.4012689640941877
 40
0.615003845933512
 40
0.8316934859947313
 40
1.0
 40
1.0
 40
1.0
 40
1.0
 10
238.1777972412972
 20
142.233618771302
 30
0.0
 10
238.2099050362504
 20
142.2261893812645
 30
0.0
 10
238.2770982891317
 20
142.2106416027806
 30
0.0
 10
238.9718929305959
 20
142.0638469611125
 30
0.0
 10
240.0527908594385
 20
141.886632320298
 30
0.0
 10
241.3532807029725
 20
141.7489890115139
 30
0.0
 10
242.2612240171691
 20
141.7323873397138
 30
0.0
 10
242.6581442786126
 20
141.725129684078
 30
0.0
  0
SPLINE
  5
D4
330
1F
100
AcDbEntity
  8
0
  6
Continuous
 62
     7
370
    15
100
AcDbSpline
210
0.0
220
0.0
230
1.0
 70
     8
 71
     3
 72
    12
 73
     8
 74
     0
 42
0.00000001
 43
0.00000001
 12
1.0
 22
0.0
 32
0.0
 13
1.0
 23
0.0
 33
0.0
 40
0.0
 40
0.0
 40
0.0
 40
0.0
 40
0.2111173148841165
 40
0.4221031398728547
 40
0.6364762316779401
 40
0.8531927562431081
 40
1.0
 40
1.0
 40
1.0
 40
1.0
 10
227.1581426692872
 20
141.725129684078
 30
0.0
 10
227.6567151208526
 20
141.7365893127943
 30
0.0
 10
228.6535494988163
 20
141.7595014328429
 30
0.0
 10
229.9896569052962
 20
141.9196404908647
 30
0.0
 10
231.0047144344796
 20
142.0949857747733
 30
0.0
 10
231.5967968999057
 20
142.2239927100274
 30
0.0
 10
231.6019259162852
 20
142.2253420194643
 30
0.0
 10
231.6039972437291
 20
142.2258869312875
 30
0.0
  0
SPLINE
  5
D5
330
1F
100
AcDbEntity
  8
0
  6
Continuous
 62
     7
370
    15
100
AcDbSpline
210
0.0
220
0.0
230
1.0
 70
     8
 71
     3
 72
    12
 73
     8
 74
     0
 42
0.00000001
 43
0.00000001
 12
1.0
 22
0.0
 32
0.0
 13
1.0
 23
0.0
 33
0.0
 40
0.0
 40
0.0
 40
0.0
 40
0.0
 40
0.1917434283285993
 40
0.4012688224603582
 40
0.615003754860098
 40
0.8316934461807002
 40
1.0
 40
1.0
 40
1.0
 40
1.0
 10
222.6777993572621
 20
142.233618771302
 30
0.0
 10
222.7099074286541
 20
142.2261893995653
 30
0.0
 10
222.7771012204373
 20
142.2106416685458
 30
0.0
 10
223.4718905657972
 20
142.0638468460091
 30
0.0
 10
224.5527895681409
 20
141.886632333954
 30
0.0
 10
225.853279034133
 20
141.7489890089584
 30
0.0
 10
226.7612223897404
 20
141.7323873389365
 30
0.0
 10
227.1581426692872
 20
141.725129684078
 30
0.0
  0
SPLINE
  5
D6
330
1F
100
AcDbEntity
  8
0
  6
Continuous
 62
     7
370
    15
100
AcDbSpline
210
0.0
220
0.0
230
1.0
 70
     8
 71
     3
 72
    15
 73
    11
 74
     0
 42
0.00000001
 43
0.00000001
 12
1.0
 22
0.0
 32
0.0
 13
1.0
 23
0.0
 33
0.0
 40
0.0
 40
0.0
 40
0.0
 40
0.0
 40
0.1355943993466849
 40
0.2711043466274945
 40
0.4087898350743221
 40
0.547980440984808
 40
0.6848500921628157
 40
0.8192772422315849
 40
0.9547606820921355
 40
1.0
 40
1.0
 40
1.0
 40
1.0
 10
227.1581426692872
 20
117.7379537873142
 30
0.0
 10
227.6569780828493
 20
117.7864203113161
 30
0.0
 10
228.6543382210261
 20
117.883323172984
 30
0.0
 10
229.986483221214
 20
118.6369455908404
 30
0.0
 10
231.0168855776543
 20
119.7574676535354
 30
0.0
 10
231.6190763237922
 20
121.1744633999678
 30
0.0
 10
231.7218293943599
 20
122.7097453425909
 30
0.0
 10
231.3017967456353
 20
124.1486372471535
 30
0.0
 10
230.6932226226054
 20
125.1762015039426
 30
0.0
 10
230.1485542828933
 20
125.5503553183945
 30
0.0
 10
230.0122105015187
 20
125.644015151652
 30
0.0
  0
SPLINE
  5
D7
330
1F
100
AcDbEntity
  8
0
  6
Continuous
 62
     7
370
    15
100
AcDbSpline
210
0.0
220
0.0
230
1.0
 70
     8
 71
     3
 72
    15
 73
    11
 74
     0
 42
0.00000001
 43
0.00000001
 12
1.0
 22
0.0
 32
0.0
 13
1.0
 23
0.0
 33
0.0
 40
0.0
 40
0.0
 40
0.0
 40
0.0
 40
0.0686479131224128
 40
0.2076784631629476
 40
0.3457537613933077
 40
0.4808026084158338
 40
0.615394818261893
 40
0.7526910967974153
 40
0.8918854151116918
 40
1.0
 40
1.0
 40
1.0
 40
1.0
 10
224.3102811706929
 20
125.6416833527558
 30
0.0
 10
224.1102334542871
 20
125.4895453109474
 30
0.0
 10
223.5050351254125
 20
125.0292866770826
 30
0.0
 10
222.8892297140131
 20
123.8768094752305
 30
0.0
 10
222.5724354852642
 20
122.3841706285588
 30
0.0
 10
222.7841246092129
 20
120.8732943115224
 30
0.0
 10
223.4642556124502
 20
119.523753047173
 30
0.0
 10
224.5548917961031
 20
118.4677116851193
 30
0.0
 10
225.852885633893
 20
117.8399629948914
 30
0.0
 10
226.7611027231874
 20
117.7689834842856
 30
0.0
 10
227.1581426692872
 20
117.7379537873142
 30
0.0
  0
SPLINE
  5
D8
330
1F
100
AcDbEntity
  8
0
  6
Continuous
 62
     7
370
    15
100
AcDbSpline
210
0.0
220
0.0
230
1.0
 70
     8
 71
     3
 72
    15
 73
    11
 74
     0
 42
0.00000001
 43
0.00000001
 12
1.0
 22
0.0
 32
0.0
 13
1.0
 23
0.0
 33
0.0
 40
0.0
 40
0.0
 40
0.0
 40
0.0
 40
0.1355941215197213
 40
0.2711041251562659
 40
0.4087896708635901
 40
0.54798046688367
 40
0.6848501316895899
 40
0.8192772478455582
 40
0.9547609340244403
 40
1.0
 40
1.0
 40
1.0
 40
1.0
 10
258.158145887938
 20
117.7379537873142
 30
0.0
 10
258.6569799715008
 20
117.7864204977163
 30
0.0
 10
259.6543386792878
 20
117.8833238514569
 30
0.0
 10
260.9864832481708
 20
118.6369454504407
 30
0.0
 10
262.0168833463142
 20
119.7574685226708
 30
0.0
 10
262.6190837800221
 20
121.1744622992029
 30
0.0
 10
262.7218205202341
 20
122.7097447748526
 30
0.0
 10
262.3017994071322
 20
124.1486397010014
 30
0.0
 10
261.6932179814128
 20
125.1761985802228
 30
0.0
 10
261.1485523446073
 20
125.5503551478757
 30
0.0
 10
261.0122099948792
 20
125.644015151652
 30
0.0
  0
SPLINE
  5
D9
330
1F
100
AcDbEntity
  8
0
  6
Continuous
 62
     7
370
    15
100
AcDbSpline
210
0.0
220
0.0
230
1.0
 70
     8
 71
     3
 72
    15
 73
    11
 74
     0
 42
0.00000001
 43
0.00000001
 12
1.0
 22
0.0
 32
0.0
 13
1.0
 23
0.0
 33
0.0
 40
0.0
 40
0.0
 40
0.0
 40
0.0
 40
0.0686478998386621
 40
0.2076784229760169
 40
0.3457536278643193
 40
0.4808024025382453
 40
0.6153945863399678
 40
0.7526908383079012
 40
0.8918854360324617
 40
1.0
 40
1.0
 40
1.0
 40
1.0
 10
255.3102806640534
 20
125.6416833527558
 30
0.0
 10
255.1102329954068
 20
125.489545304912
 30
0.0
 10
254.5050348110163
 20
125.0292866527888
 30
0.0
 10
253.889227575685
 20
123.876809918495
 30
0.0
 10
253.5724413915241
 20
122.3841704907332
 30
0.0
 10
253.7841224875992
 20
120.8732940096175
 30
0.0
 10
254.4642556143514
 20
119.523753188619
 30
0.0
 10
255.5548917865066
 20
118.467710471806
 30
0.0
 10
256.8528879541595
 20
117.8399635398195
 30
0.0
 10
257.7611060107781
 20
117.7689836232996
 30
0.0
 10
258.158145887938
 20
117.7379537873142
 30
0.0
  0
SPLINE
  5
DA
330
1F
100
AcDbEntity
  8
0
  6
Continuous
 62
     7
370
    15
100
AcDbSpline
210
0.0
220
0.0
230
1.0
 70
     8
 71
     3
 72
    15
 73
    11
 74
     0
 42
0.00000001
 43
0.00000001
 12
1.0
 22
0.0
 32
0.0
 13
1.0
 23
0.0
 33
0.0
 40
0.0
 40
0.0
 40
0.0
 40
0.0
 40
0.1355941170509574
 40
0.2711041162215102
 40
0.4087896573911436
 40
0.5479804488239243
 40
0.6848501524123356
 40
0.819277443775237
 40
0.9547609355153804
 40
1.0
 40
1.0
 40
1.0
 40
1.0
 10
242.6581442786126
 20
117.7379537873142
 30
0.0
 10
243.1569783827032
 20
117.786420498079
 30
0.0
 10
244.1543371315331
 20
117.8833238525447
 30
0.0
 10
245.4864813910947
 20
118.6369454460634
 30
0.0
 10
246.5168826871181
 20
119.7574685394581
 30
0.0
 10
247.1190786705855
 20
121.1744623845188
 30
0.0
 10
247.2218319001892
 20
122.7097460059871
 30
0.0
 10
246.8017939359688
 20
124.148637082844
 30
0.0
 10
246.1932200383258
 20
125.1761992137153
 30
0.0
 10
245.6485545633773
 20
125.5503551959621
 30
0.0
 10
245.5122121108441
 20
125.644015151652
 30
0.0
  0
SPLINE
  5
DB
330
1F
100
AcDbEntity
  8
0
  6
Continuous
 62
     7
370
    15
100
AcDbSpline
210
0.0
220
0.0
230
1.0
 70
     8
 71
     3
 72
    15
 73
    11
 74
     0
 42
0.00000001
 43
0.00000001
 12
1.0
 22
0.0
 32
0.0
 13
1.0
 23
0.0
 33
0.0
 40
0.0
 40
0.0
 40
0.0
 40
0.0
 40
0.0686478985890693
 40
0.2076785917875488
 40
0.3457537941624783
 40
0.4808025663781212
 40
0.6153948996860609
 40
0.7526911491548004
 40
0.8918854380004633
 40
0.9999999999999999
 40
0.9999999999999999
 40
0.9999999999999999
 40
0.9999999999999999
 10
239.8102827800183
 20
125.6416833527558
 30
0.0
 10
239.610235226185
 20
125.4895452373926
 30
0.0
 10
239.0050368861842
 20
125.0292859985052
 30
0.0
 10
238.3892249990093
 20
123.8768111143003
 30
0.0
 10
238.0724403301838
 20
122.3841704676877
 30
0.0
 10
238.2841198639386
 20
120.8732929961378
 30
0.0
 10
238.9642584590991
 20
119.5237540464677
 30
0.0
 10
240.0548929537359
 20
118.4677115174549
 30
0.0
 10
241.3528873277458
 20
117.8399630262673
 30
0.0
 10
242.2611043582249
 20
117.7689834938297
 30
0.0
 10
242.6581442786126
 20
117.7379537873142
 30
0.0
  0
LINE
  5
DC
330
1F
100
AcDbEntity
  8
0
  6
Continuous
 62
     7
370
    15
100
AcDbLine
 10
268.6581448151
 20
122.2379535936
 30
0.0
 11
268.6581448151
 21
103.2379542045
 31
0.0
  0
LINE
  5
DD
330
1F
100
AcDbEntity
  8
0
  6
Continuous
 62
     7
370
    15
100
AcDbLine
 10
268.6581448151
 20
141.2379529827
 30
0.0
 11
268.6581448151
 21
122.2379535936
 31
0.0
  0
LINE
  5
DE
330
1F
100
AcDbEntity
  8
0
  6
Continuous
 62
     7
370
    15
100
AcDbLine
 10
135.4081429971
 20
90.042951753
 30
0.0
 11
135.4081429971
 21
90.0536396109
 31
0.0
  0
LINE
  5
DF
330
1F
100
AcDbEntity
  8
0
  6
Continuous
 62
     7
370
    15
100
AcDbLine
 10
135.4081429971
 20
154.4879518949
 30
0.0
 11
135.4081429971
 21
154.4862382613
 31
0.0
  0
LINE
  5
E0
330
1F
100
AcDbEntity
  8
0
  6
HIDDEN
 62
     7
370
     0
100
AcDbLine
 10
237.6581453217
 20
131.2379532062
 30
0.0
 11
247.6581469608
 21
131.2379532062
 31
0.0
  0
LINE
  5
E1
330
1F
100
AcDbEntity
  8
0
  6
HIDDEN
 62
     7
370
     0
100
AcDbLine
 10
239.1581446362
 20
129.737953426
 30
0.0
 11
246.158143921
 21
129.737953426
 31
0.0
  0
LINE
  5
E2
330
1F
100
AcDbEntity
  8
0
  6
HIDDEN
 62
     7
370
     0
100
AcDbLine
 10
237.6581453217
 20
141.4379545056
 30
0.0
 11
247.6581469608
 21
141.4379545056
 31
0.0
  0
LINE
  5
E3
330
1F
100
AcDbEntity
  8
0
  6
HIDDEN
 62
     7
370
     0
100
AcDbLine
 10
241.7680308653
 20
136.2379540257
 30
0.0
 11
244.5912756456
 21
136.2379540257
 31
0.0
  0
LINE
  5
E4
330
1F
100
AcDbEntity
  8
0
  6
HIDDEN
 62
     7
370
     0
100
AcDbLine
 10
241.7680308653
 20
136.2379540257
 30
0.0
 11
241.7680308653
 21
142.2379531466
 31
0.0
  0
LINE
  5
E5
330
1F
100
AcDbEntity
  8
0
  6
HIDDEN
 62
     7
370
     0
100
AcDbLine
 10
239.8348994983
 20
136.2379540257
 30
0.0
 11
241.7680308653
 21
136.2379540257
 31
0.0
  0
LINE
  5
E6
330
1F
100
AcDbEntity
  8
0
  6
HIDDEN
 62
     7
370
     0
100
AcDbLine
 10
244.5912756456
 20
136.2379540257
 30
0.0
 11
244.5912756456
 21
142.2379531466
 31
0.0
  0
LINE
  5
E7
330
1F
100
AcDbEntity
  8
0
  6
HIDDEN
 62
     7
370
     0
100
AcDbLine
 10
245.4813890589
 20
136.2379540257
 30
0.0
 11
244.5912756456
 21
136.2379540257
 31
0.0
  0
LINE
  5
E8
330
1F
100
AcDbEntity
  8
0
  6
HIDDEN
 62
     7
370
     0
100
AcDbLine
 10
240.7250129116
 20
136.2379540257
 30
0.0
 11
240.7250129116
 21
142.2379531466
 31
0.0
  0
LINE
  5
E9
330
1F
100
AcDbEntity
  8
0
  6
HIDDEN
 62
     7
370
     0
100
AcDbLine
 10
239.8348994983
 20
136.2379540257
 30
0.0
 11
239.8348994983
 21
142.2379531466
 31
0.0
  0
LINE
  5
EA
330
1F
100
AcDbEntity
  8
0
  6
HIDDEN
 62
     7
370
     0
100
AcDbLine
 10
243.5482576919
 20
136.2379540257
 30
0.0
 11
243.5482576919
 21
142.2379531466
 31
0.0
  0
LINE
  5
EB
330
1F
100
AcDbEntity
  8
0
  6
HIDDEN
 62
     7
370
     0
100
AcDbLine
 10
245.4813890589
 20
136.2379540257
 30
0.0
 11
245.4813890589
 21
142.2379531466
 31
0.0
  0
LINE
  5
EC
330
1F
100
AcDbEntity
  8
0
  6
HIDDEN
 62
     7
370
     0
100
AcDbLine
 10
257.6622724963
 20
131.2379532062
 30
0.0
 11
263.1581411196
 21
131.2379532062
 31
0.0
  0
LINE
  5
ED
330
1F
100
AcDbEntity
  8
0
  6
HIDDEN
 62
     7
370
     0
100
AcDbLine
 10
253.1581432057
 20
131.2379532062
 30
0.0
 11
257.6622724963
 21
131.2379532062
 31
0.0
  0
LINE
  5
EE
330
1F
100
AcDbEntity
  8
0
  6
HIDDEN
 62
     7
370
     0
100
AcDbLine
 10
257.8110307885
 20
129.737953426
 30
0.0
 11
261.6581455303
 21
129.737953426
 31
0.0
  0
LINE
  5
EF
330
1F
100
AcDbEntity
  8
0
  6
HIDDEN
 62
     7
370
     0
100
AcDbLine
 10
254.6581462456
 20
129.737953426
 30
0.0
 11
257.8110307885
 21
129.737953426
 31
0.0
  0
LINE
  5
F0
330
1F
100
AcDbEntity
  8
0
  6
HIDDEN
 62
     7
370
     0
100
AcDbLine
 10
257.6622724963
 20
141.4379545056
 30
0.0
 11
263.1581411196
 21
141.4379545056
 31
0.0
  0
LINE
  5
F1
330
1F
100
AcDbEntity
  8
0
  6
HIDDEN
 62
     7
370
     0
100
AcDbLine
 10
253.1581432057
 20
141.4379545056
 30
0.0
 11
257.6622724963
 21
141.4379545056
 31
0.0
  0
LINE
  5
F2
330
1F
100
AcDbEntity
  8
0
  6
HIDDEN
 62
     7
370
     0
100
AcDbLine
 10
260.5026722384
 20
136.2379540257
 30
0.0
 11
257.8718498779
 21
136.2379540257
 31
0.0
  0
LINE
  5
F3
330
1F
100
AcDbEntity
  8
0
  6
HIDDEN
 62
     7
370
     0
100
AcDbLine
 10
255.5273235274
 20
136.2379540257
 30
0.0
 11
257.8718498779
 21
136.2379540257
 31
0.0
  0
LINE
  5
F4
330
1F
100
AcDbEntity
  8
0
  6
HIDDEN
 62
     7
370
     0
100
AcDbLine
 10
257.8718498779
 20
136.2379540257
 30
0.0
 11
257.8718498779
 21
142.2379531466
 31
0.0
  0
LINE
  5
F5
330
1F
100
AcDbEntity
  8
0
  6
HIDDEN
 62
     7
370
     0
100
AcDbLine
 10
260.5026722384
 20
136.2379540257
 30
0.0
 11
260.7889682485
 21
136.2379540257
 31
0.0
  0
LINE
  5
F6
330
1F
100
AcDbEntity
  8
0
  6
HIDDEN
 62
     7
370
     0
100
AcDbLine
 10
260.5026722384
 20
136.2379540257
 30
0.0
 11
260.5026722384
 21
142.2379531466
 31
0.0
  0
LINE
  5
F7
330
1F
100
AcDbEntity
  8
0
  6
HIDDEN
 62
     7
370
     0
100
AcDbLine
 10
255.8136120869
 20
136.2379540257
 30
0.0
 11
255.8136120869
 21
142.2379531466
 31
0.0
  0
LINE
  5
F8
330
1F
100
AcDbEntity
  8
0
  6
HIDDEN
 62
     7
370
     0
100
AcDbLine
 10
255.5273235274
 20
136.2379540257
 30
0.0
 11
255.5273235274
 21
142.2379531466
 31
0.0
  0
LINE
  5
F9
330
1F
100
AcDbEntity
  8
0
  6
HIDDEN
 62
     7
370
     0
100
AcDbLine
 10
258.4444344474
 20
136.2379540257
 30
0.0
 11
258.4444344474
 21
142.2379531466
 31
0.0
  0
LINE
  5
FA
330
1F
100
AcDbEntity
  8
0
  6
HIDDEN
 62
     7
370
     0
100
AcDbLine
 10
260.7889682485
 20
136.2379540257
 30
0.0
 11
260.7889682485
 21
142.2379531466
 31
0.0
  0
LINE
  5
FB
330
1F
100
AcDbEntity
  8
0
  6
HIDDEN
 62
     7
370
     0
100
AcDbLine
 10
225.658094926
 20
119.7715410996
 30
0.0
 11
224.2721453739
 21
122.3038268251
 31
0.0
  0
LINE
  5
FC
330
1F
100
AcDbEntity
  8
0
  6
HIDDEN
 62
     7
370
     0
100
AcDbLine
 10
225.658094926
 20
119.7715410996
 30
0.0
 11
228.5440959466
 21
119.7056679554
 31
0.0
  0
LINE
  5
FD
330
1F
100
AcDbEntity
  8
0
  6
HIDDEN
 62
     7
370
     0
100
AcDbLine
 10
228.5440959466
 20
119.7056679554
 30
0.0
 11
230.04414369
 21
122.1720803621
 31
0.0
  0
LINE
  5
FE
330
1F
100
AcDbEntity
  8
0
  6
HIDDEN
 62
     7
370
     0
100
AcDbLine
 10
228.6581904126
 20
124.7043660876
 30
0.0
 11
230.04414369
 21
122.1720803621
 31
0.0
  0
LINE
  5
FF
330
1F
100
AcDbEntity
  8
0
  6
HIDDEN
 62
     7
370
     0
100
AcDbLine
 10
225.7721931172
 20
124.7702392318
 30
0.0
 11
224.2721453739
 21
122.3038268251
 31
0.0
  0
LINE
  5
100
330
1F
100
AcDbEntity
  8
0
  6
HIDDEN
 62
     7
370
     0
100
AcDbLine
 10
225.7721931172
 20
124.7702392318
 30
0.0
 11
228.6581904126
 21
124.7043660876
 31
0.0
  0
CIRCLE
  5
101
330
1F
100
AcDbEntity
  8
0
  6
HIDDEN
 62
     7
370
     0
100
AcDbCircle
 10
258.158143921
 20
122.2379535936
 30
0.0
 40
5.000000000000048
  0
CIRCLE
  5
102
330
1F
100
AcDbEntity
  8
0
  6
HIDDEN
 62
     7
370
     0
100
AcDbCircle
 10
258.158143921
 20
122.2379535936
 30
0.0
 40
2.500000000000001
  0
CIRCLE
  5
103
330
1F
100
AcDbEntity
  8
0
  6
HIDDEN
 62
     7
370
     0
100
AcDbCircle
 10
258.158143921
 20
122.2379535936
 30
0.0
 40
3.500000000000052
  0
LINE
  5
104
330
1F
100
AcDbEntity
  8
0
  6
HIDDEN
 62
     7
370
     0
100
AcDbLine
 10
243.3107331825
 20
119.4259324145
 30
0.0
 11
245.4197206033
 21
121.397100276
 31
0.0
  0
LINE
  5
105
330
1F
100
AcDbEntity
  8
0
  6
HIDDEN
 62
     7
370
     0
100
AcDbLine
 10
240.5491568578
 20
120.2667858485
 30
0.0
 11
243.3107331825
 21
119.4259324145
 31
0.0
  0
LINE
  5
106
330
1F
100
AcDbEntity
  8
0
  6
HIDDEN
 62
     7
370
     0
100
AcDbLine
 10
240.5491568578
 20
120.2667858485
 30
0.0
 11
239.8965679539
 21
123.0788069112
 31
0.0
  0
LINE
  5
107
330
1F
100
AcDbEntity
  8
0
  6
HIDDEN
 62
     7
370
     0
100
AcDbLine
 10
244.7671316994
 20
124.2091213387
 30
0.0
 11
245.4197206033
 21
121.397100276
 31
0.0
  0
LINE
  5
108
330
1F
100
AcDbEntity
  8
0
  6
HIDDEN
 62
     7
370
     0
100
AcDbLine
 10
242.0055553747
 20
125.0499747727
 30
0.0
 11
239.8965679539
 21
123.0788069112
 31
0.0
  0
LINE
  5
109
330
1F
100
AcDbEntity
  8
0
  6
HIDDEN
 62
     7
370
     0
100
AcDbLine
 10
242.0055553747
 20
125.0499747727
 30
0.0
 11
244.7671316994
 21
124.2091213387
 31
0.0
  0
CIRCLE
  5
10A
330
1F
100
AcDbEntity
  8
0
  6
HIDDEN
 62
     7
370
     0
100
AcDbCircle
 10
227.158143921
 20
122.2379535936
 30
0.0
 40
5.000000000000014
  0
CIRCLE
  5
10B
330
1F
100
AcDbEntity
  8
0
  6
HIDDEN
 62
     7
370
     0
100
AcDbCircle
 10
227.158143921
 20
122.2379535936
 30
0.0
 40
2.499999999999996
  0
CIRCLE
  5
10C
330
1F
100
AcDbEntity
  8
0
  6
HIDDEN
 62
     7
370
     0
100
AcDbCircle
 10
227.158143921
 20
122.2379535936
 30
0.0
 40
3.500000000000003
  0
LINE
  5
10D
330
1F
100
AcDbEntity
  8
0
  6
HIDDEN
 62
     7
370
     0
100
AcDbLine
 10
257.6753333641
 20
119.3918637034
 30
0.0
 11
260.3815257979
 21
120.3967822982
 31
0.0
  0
LINE
  5
10E
330
1F
100
AcDbEntity
  8
0
  6
HIDDEN
 62
     7
370
     0
100
AcDbLine
 10
255.4519534541
 20
121.2330351152
 30
0.0
 11
257.6753333641
 21
119.3918637034
 31
0.0
  0
LINE
  5
10F
330
1F
100
AcDbEntity
  8
0
  6
HIDDEN
 62
     7
370
     0
100
AcDbLine
 10
260.8643383218
 20
123.242872072
 30
0.0
 11
260.3815257979
 21
120.3967822982
 31
0.0
  0
LINE
  5
110
330
1F
100
AcDbEntity
  8
0
  6
HIDDEN
 62
     7
370
     0
100
AcDbLine
 10
255.4519534541
 20
121.2330351152
 30
0.0
 11
255.9347659779
 21
124.079124889
 31
0.0
  0
LINE
  5
111
330
1F
100
AcDbEntity
  8
0
  6
HIDDEN
 62
     7
370
     0
100
AcDbLine
 10
258.6409509612
 20
125.0840434838
 30
0.0
 11
255.9347659779
 21
124.079124889
 31
0.0
  0
LINE
  5
112
330
1F
100
AcDbEntity
  8
0
  6
HIDDEN
 62
     7
370
     0
100
AcDbLine
 10
258.6409509612
 20
125.0840434838
 30
0.0
 11
260.8643383218
 21
123.242872072
 31
0.0
  0
LINE
  5
113
330
1F
100
AcDbEntity
  8
0
  6
HIDDEN
 62
     7
370
     0
100
AcDbLine
 10
229.3979585601
 20
131.2379532062
 30
0.0
 11
232.1581453515
 21
131.2379532062
 31
0.0
  0
LINE
  5
114
330
1F
100
AcDbEntity
  8
0
  6
HIDDEN
 62
     7
370
     0
100
AcDbLine
 10
222.1581437124
 20
131.2379532062
 30
0.0
 11
229.3979585601
 21
131.2379532062
 31
0.0
  0
LINE
  5
115
330
1F
100
AcDbEntity
  8
0
  6
HIDDEN
 62
     7
370
     0
100
AcDbLine
 10
228.7260130478
 20
129.737953426
 30
0.0
 11
230.6581423117
 21
129.737953426
 31
0.0
  0
LINE
  5
116
330
1F
100
AcDbEntity
  8
0
  6
HIDDEN
 62
     7
370
     0
100
AcDbLine
 10
223.6581430269
 20
129.737953426
 30
0.0
 11
228.7260130478
 21
129.737953426
 31
0.0
  0
LINE
  5
117
330
1F
100
AcDbEntity
  8
0
  6
HIDDEN
 62
     7
370
     0
100
AcDbLine
 10
229.3979585601
 20
141.4379545056
 30
0.0
 11
232.1581453515
 21
141.4379545056
 31
0.0
  0
LINE
  5
118
330
1F
100
AcDbEntity
  8
0
  6
HIDDEN
 62
     7
370
     0
100
AcDbLine
 10
222.1581437124
 20
141.4379545056
 30
0.0
 11
229.3979585601
 21
141.4379545056
 31
0.0
  0
LINE
  5
119
330
1F
100
AcDbEntity
  8
0
  6
HIDDEN
 62
     7
370
     0
100
AcDbLine
 10
225.5695932043
 20
136.2379540257
 30
0.0
 11
228.4512989653
 21
136.2379540257
 31
0.0
  0
LINE
  5
11A
330
1F
100
AcDbEntity
  8
0
  6
HIDDEN
 62
     7
370
     0
100
AcDbLine
 10
228.4512989653
 20
136.2379540257
 30
0.0
 11
228.4512989653
 21
142.2379531466
 31
0.0
  0
LINE
  5
11B
330
1F
100
AcDbEntity
  8
0
  6
HIDDEN
 62
     7
370
     0
100
AcDbLine
 10
230.0398521555
 20
136.2379540257
 30
0.0
 11
228.4512989653
 21
136.2379540257
 31
0.0
  0
LINE
  5
11C
330
1F
100
AcDbEntity
  8
0
  6
HIDDEN
 62
     7
370
     0
100
AcDbLine
 10
225.5695932043
 20
136.2379540257
 30
0.0
 11
225.5695932043
 21
142.2379531466
 31
0.0
  0
LINE
  5
11D
330
1F
100
AcDbEntity
  8
0
  6
HIDDEN
 62
     7
370
     0
100
AcDbLine
 10
225.5695932043
 20
136.2379540257
 30
0.0
 11
224.276433183
 21
136.2379540257
 31
0.0
  0
LINE
  5
11E
330
1F
100
AcDbEntity
  8
0
  6
HIDDEN
 62
     7
370
     0
100
AcDbLine
 10
228.7466958595
 20
136.2379540257
 30
0.0
 11
228.7466958595
 21
142.2379531466
 31
0.0
  0
LINE
  5
11F
330
1F
100
AcDbEntity
  8
0
  6
HIDDEN
 62
     7
370
     0
100
AcDbLine
 10
230.0398521555
 20
136.2379540257
 30
0.0
 11
230.0398521555
 21
142.2379531466
 31
0.0
  0
LINE
  5
120
330
1F
100
AcDbEntity
  8
0
  6
HIDDEN
 62
     7
370
     0
100
AcDbLine
 10
225.8649863733
 20
136.2379540257
 30
0.0
 11
225.8649863733
 21
142.2379531466
 31
0.0
  0
LINE
  5
121
330
1F
100
AcDbEntity
  8
0
  6
HIDDEN
 62
     7
370
     0
100
AcDbLine
 10
224.276433183
 20
136.2379540257
 30
0.0
 11
224.276433183
 21
142.2379531466
 31
0.0
  0
CIRCLE
  5
122
330
1F
100
AcDbEntity
  8
0
  6
HIDDEN
 62
     7
370
     0
100
AcDbCircle
 10
242.658143921
 20
122.2379535936
 30
0.0
 40
4.999999999999983
  0
CIRCLE
  5
123
330
1F
100
AcDbEntity
  8
0
  6
HIDDEN
 62
     7
370
     0
100
AcDbCircle
 10
242.658143921
 20
122.2379535936
 30
0.0
 40
2.499999999999994
  0
CIRCLE
  5
124
330
1F
100
AcDbEntity
  8
0
  6
HIDDEN
 62
     7
370
     0
100
AcDbCircle
 10
242.658143921
 20
122.2379535936
 30
0.0
 40
3.500000000000011
  0
LINE
  5
125
330
1F
100
AcDbEntity
  8
0
  6
HIDDEN
 62
     7
370
     0
100
AcDbLine
 10
200.3961153758
 20
161.1889146768
 30
0.0
 11
200.3961153758
 21
153.5879552864
 31
0.0
  0
LINE
  5
126
330
1F
100
AcDbEntity
  8
0
  6
HIDDEN
 62
     7
370
     0
100
AcDbLine
 10
164.0715677721
 20
85.5021469794
 30
0.0
 11
163.801612748
 21
85.4782194399
 31
0.0
  0
SPLINE
  5
127
330
1F
100
AcDbEntity
  8
0
  6
HIDDEN
 62
     7
370
     0
100
AcDbSpline
210
0.0
220
0.0
230
1.0
 70
     8
 71
     3
 72
    13
 73
     9
 74
     0
 42
0.00000001
 43
0.00000001
 12
1.0
 22
0.0
 32
0.0
 13
1.0
 23
0.0
 33
0.0
 40
0.0
 40
0.0
 40
0.0
 40
0.0
 40
0.1247122110153692
 40
0.2490589593365458
 40
0.3740779090298711
 40
0.5009710337636518
 40
0.7521756045195616
 40
0.9999999999999999
 40
0.9999999999999999
 40
0.9999999999999999
 40
0.9999999999999999
 10
162.1774495077996
 20
159.1692597173326
 30
0.0
 10
162.1832352779211
 20
159.1684840977368
 30
0.0
 10
162.1947898632635
 20
159.1669351314583
 30
0.0
 10
162.291803656867
 20
159.1547142047607
 30
0.0
 10
162.4470969555348
 20
159.1357903881044
 30
0.0
 10
162.7372835691847
 20
159.1018180798935
 30
0.0
 10
163.2248107276232
 20
159.0452896198084
 30
0.0
 10
163.790533127171
 20
158.9974854771328
 30
0.0
 10
164.07147836515
 20
158.9737453065984
 30
0.0
  0
SPLINE
  5
128
330
1F
100
AcDbEntity
  8
0
  6
HIDDEN
 62
     7
370
     0
100
AcDbSpline
210
0.0
220
0.0
230
1.0
 70
     8
 71
     3
 72
     9
 73
     5
 74
     0
 42
0.00000001
 43
0.00000001
 12
1.0
 22
0.0
 32
0.0
 13
1.0
 23
0.0
 33
0.0
 40
0.0
 40
0.0
 40
0.0
 40
0.0
 40
0.6612137735729747
 40
1.0
 40
1.0
 40
1.0
 40
1.0
 10
173.9113493321209
 20
153.6042757831685
 30
0.0
 10
174.2028511076144
 20
153.6480613354095
 30
0.0
 10
174.6437097030402
 20
153.714281299347
 30
0.0
 10
174.5922965503108
 20
153.7064750805228
 30
0.0
 10
174.5748784823089
 20
153.7038304411046
 30
0.0
  0
SPLINE
  5
129
330
1F
100
AcDbEntity
  8
0
  6
HIDDEN
 62
     7
370
     0
100
AcDbSpline
210
0.0
220
0.0
230
1.0
 70
     8
 71
     3
 72
     9
 73
     5
 74
     0
 42
0.00000001
 43
0.00000001
 12
1.0
 22
0.0
 32
0.0
 13
1.0
 23
0.0
 33
0.0
 40
0.0
 40
0.0
 40
0.0
 40
0.0
 40
0.3224752073365101
 40
0.9999999999999999
 40
0.9999999999999999
 40
0.9999999999999999
 40
0.9999999999999999
 10
174.5748784823089
 20
90.77207674609349
 30
0.0
 10
174.5935201181942
 20
90.76930867786334
 30
0.0
 10
174.651328084392
 20
90.76072486066693
 30
0.0
 10
174.2102146322944
 20
90.82683806736746
 30
0.0
 10
173.9113493321209
 20
90.87163140402959
 30
0.0
  0
SPLINE
  5
12A
330
1F
100
AcDbEntity
  8
0
  6
HIDDEN
 62
     7
370
     0
100
AcDbSpline
210
0.0
220
0.0
230
1.0
 70
     8
 71
     3
 72
    15
 73
    11
 74
     0
 42
0.00000001
 43
0.00000001
 12
1.0
 22
0.0
 32
0.0
 13
1.0
 23
0.0
 33
0.0
 40
0.0
 40
0.0
 40
0.0
 40
0.0
 40
0.1285821426710073
 40
0.2571635607496992
 40
0.3853235406184768
 40
0.5113778076015207
 40
0.636926046588634
 40
0.7643185585868897
 40
0.893060358186539
 40
1.0
 40
1.0
 40
1.0
 40
1.0
 10
173.9113493321209
 20
90.87163140402959
 30
0.0
 10
173.5258272049772
 20
90.93343716918959
 30
0.0
 10
172.7547851232027
 20
91.05704835121871
 30
0.0
 10
170.9762274598615
 20
91.24779781348528
 30
0.0
 10
168.9824161984281
 20
91.33544419440744
 30
0.0
 10
166.9583785732688
 20
91.28854029105166
 30
0.0
 10
165.1302700844147
 20
91.12828916254078
 30
0.0
 10
163.6988391295872
 20
90.92711157735944
 30
0.0
 10
162.794953880953
 20
90.76456584933528
 30
0.0
 10
162.7323712438919
 20
90.75216618572694
 30
0.0
 10
162.7039745880036
 20
90.74653988109753
 30
0.0
  0
SPLINE
  5
12B
330
1F
100
AcDbEntity
  8
0
  6
HIDDEN
 62
     7
370
     0
100
AcDbSpline
210
0.0
220
0.0
230
1.0
 70
     8
 71
     3
 72
    16
 73
    12
 74
     0
 42
0.00000001
 43
0.00000001
 12
1.0
 22
0.0
 32
0.0
 13
1.0
 23
0.0
 33
0.0
 40
0.0
 40
0.0
 40
0.0
 40
0.0
 40
0.0205567972010308
 40
0.1461296555129789
 40
0.2720439735959893
 40
0.3999540038647748
 40
0.5285040859845025
 40
0.6552455845570215
 40
0.7805595113940985
 40
0.907037898122843
 40
1.0
 40
1.0
 40
1.0
 40
1.0
 10
162.7039745880036
 20
153.7293673061006
 30
0.0
 10
162.6893073063551
 20
153.7321130022167
 30
0.0
 10
162.5850437484839
 20
153.7516310051268
 30
0.0
 10
163.035823639248
 20
153.665264890584
 30
0.0
 10
164.0490619459608
 20
153.4941277873286
 30
0.0
 10
165.6433911037182
 20
153.2905866541938
 30
0.0
 10
167.5698905000069
 20
153.1581959232513
 30
0.0
 10
169.616382349737
 20
153.1544008362003
 30
0.0
 10
171.5295420417273
 20
153.2771754988999
 30
0.0
 10
173.0142502408851
 20
153.4589927951818
 30
0.0
 10
173.6443982259075
 20
153.5610437091023
 30
0.0
 10
173.9113493321209
 20
153.6042757831685
 30
0.0
  0
LINE
  5
12C
330
1F
100
AcDbEntity
  8
0
  6
HIDDEN
 62
     7
370
     0
100
AcDbLine
 10
153.6547676159
 20
95.7379539065
 30
0.0
 11
153.6547676159
 21
148.7379532807
 31
0.0
  0
LINE
  5
12D
330
1F
100
AcDbEntity
  8
0
  6
HIDDEN
 62
     7
370
     0
100
AcDbLine
 10
192.9422211332
 20
95.7379539065
 30
0.0
 11
192.9422211332
 21
148.7379532807
 31
0.0
  0
LINE
  5
12E
330
1F
100
AcDbEntity
  8
0
  6
HIDDEN
 62
     7
370
     0
100
AcDbLine
 10
196.1081441922
 20
97.3629534744
 30
0.0
 11
196.1081441922
 21
147.1129537128
 31
0.0
  0
SPLINE
  5
12F
330
1F
100
AcDbEntity
  8
0
  6
HIDDEN
 62
     7
370
     0
100
AcDbSpline
210
0.0
220
0.0
230
1.0
 70
     8
 71
     3
 72
    20
 73
    16
 74
     0
 42
0.00000001
 43
0.00000001
 12
1.0
 22
0.0
 32
0.0
 13
1.0
 23
0.0
 33
0.0
 40
0.0
 40
0.0
 40
0.0
 40
0.0
 40
0.2499999999999978
 40
0.2499999999999978
 40
0.3749999999999982
 40
0.3749999999999982
 40
0.4999999999999986
 40
0.4999999999999986
 40
0.6249999999999989
 40
0.6249999999999989
 40
0.7499999999999992
 40
0.7499999999999992
 40
0.8749999999999997
 40
0.8749999999999997
 40
1.0
 40
1.0
 40
1.0
 40
1.0
 10
143.8581439209847
 20
147.4664672240133
 30
0.0
 10
143.8581439209847
 20
147.3872642374811
 30
0.0
 10
143.811161425772
 20
147.3061680190781
 30
0.0
 10
143.6733398349944
 20
147.1859713273273
 30
0.0
 10
143.6170575510845
 20
147.1470446233251
 30
0.0
 10
143.4839726996172
 20
147.0718558909008
 30
0.0
 10
143.4061327573841
 20
147.0352136855588
 30
0.0
 10
143.2335004012698
 20
146.967623152727
 30
0.0
 10
143.1391074041787
 20
146.9366649709513
 30
0.0
 10
142.9336700978636
 20
146.8811405495817
 30
0.0
 10
142.8213238578764
 20
146.8564320357484
 30
0.0
 10
142.5890829939768
 20
146.8166358086402
 30
0.0
 10
142.4683723515541
 20
146.8012159712432
 30
0.0
 10
142.217301492285
 20
146.7801359964035
 30
0.0
 10
142.0877794958692
 20
146.7746587513826
 30
0.0
 10
141.9581439209848
 20
146.7746587513826
 30
0.0
  0
LINE
  5
130
330
1F
100
AcDbEntity
  8
0
  6
HIDDEN
 62
     7
370
     0
100
AcDbLine
 10
141.958142115
 20
146.7746582382
 30
0.0
 11
135.4081429971
 21
146.7746582382
 31
0.0
  0
LINE
  5
131
330
1F
100
AcDbEntity
  8
0
  6
HIDDEN
 62
     7
370
     0
100
AcDbLine
 10
135.4081429971
 20
97.701248949
 30
0.0
 11
146.9581447972
 21
97.701248949
 31
0.0
  0
SPLINE
  5
132
330
1F
100
AcDbEntity
  8
0
  6
HIDDEN
 62
     7
370
     0
100
AcDbSpline
210
0.0
220
0.0
230
1.0
 70
     8
 71
     3
 72
    18
 73
    14
 74
     0
 42
0.00000001
 43
0.00000001
 12
1.0
 22
0.0
 32
0.0
 13
1.0
 23
0.0
 33
0.0
 40
0.0
 40
0.0
 40
0.0
 40
0.0
 40
0.1250000000000023
 40
0.1250000000000023
 40
0.2500000000000046
 40
0.2500000000000046
 40
0.5000000000000036
 40
0.5000000000000036
 40
0.7500000000000024
 40
0.7500000000000024
 40
0.8750000000000012
 40
0.8750000000000012
 40
1.0
 40
1.0
 40
1.0
 40
1.0
 10
146.9581439209847
 20
97.70124843581554
 30
0.0
 10
147.0876112339419
 20
97.70124843581554
 30
0.0
 10
147.2146219828386
 20
97.6958954372229
 30
0.0
 10
147.4639853040358
 20
97.67515746453412
 30
0.0
 10
147.5876089586642
 20
97.65948556027983
 30
0.0
 10
147.9366412955983
 20
97.59979083187773
 30
0.0
 10
148.1471530604051
 20
97.54202565219674
 30
0.0
 10
148.4910697381046
 20
97.40750381091925
 30
0.0
 10
148.6274201396224
 20
97.32983469741386
 30
0.0
 10
148.7644581961849
 20
97.21054356332651
 30
0.0
 10
148.7996772148979
 20
97.16962455419146
 30
0.0
 10
148.8463007918364
 20
97.08896856090144
 30
0.0
 10
148.8581439209847
 20
97.04900004070858
 30
0.0
 10
148.8581439209847
 20
97.00943996318476
 30
0.0
  0
LINE
  5
133
330
1F
100
AcDbEntity
  8
0
  6
HIDDEN
 62
     7
370
     0
100
AcDbLine
 10
135.4081429971
 20
97.701248949
 30
0.0
 11
135.4081429971
 21
146.7746582382
 31
0.0
  0
LINE
  5
134
330
1F
100
AcDbEntity
  8
0
  6
HIDDEN
 62
     7
370
     0
100
AcDbLine
 10
258.4531516267
 20
141.7362254612
 30
0.0
 11
257.5344652368
 21
141.743947988
 31
0.0
  0
LINE
  5
135
330
1F
100
AcDbEntity
  8
0
  6
HIDDEN
 62
     7
370
     0
100
AcDbLine
 10
242.9531537426
 20
141.7362254612
 30
0.0
 11
242.0344636274
 21
141.743947988
 31
0.0
  0
LINE
  5
136
330
1F
100
AcDbEntity
  8
0
  6
HIDDEN
 62
     7
370
     0
100
AcDbLine
 10
227.4531521333
 20
141.7362254612
 30
0.0
 11
226.5344657434
 21
141.743947988
 31
0.0
  0
SPLINE
  5
137
330
1F
100
AcDbEntity
  8
0
  6
HIDDEN
 62
     7
370
     0
100
AcDbSpline
210
0.0
220
0.0
230
1.0
 70
     8
 71
     3
 72
    12
 73
     8
 74
     0
 42
0.00000001
 43
0.00000001
 12
1.0
 22
0.0
 32
0.0
 13
1.0
 23
0.0
 33
0.0
 40
0.0
 40
0.0
 40
0.0
 40
0.0
 40
0.1635757096545588
 40
0.4072709393218821
 40
0.645704921606625
 40
0.881172379459274
 40
1.0
 40
1.0
 40
1.0
 40
1.0
 10
230.0122105015187
 20
125.644015151652
 30
0.0
 10
229.7502625907769
 20
125.8630519806548
 30
0.0
 10
229.098064462543
 20
126.4084100615243
 30
0.0
 10
227.7522534638242
 20
126.7780928478049
 30
0.0
 10
226.2491189304864
 20
126.7174717039274
 30
0.0
 10
225.0347693127567
 20
126.3107511114092
 30
0.0
 10
224.4922407389516
 20
125.8097237573282
 30
0.0
 10
224.3102811706929
 20
125.6416833527558
 30
0.0
  0
SPLINE
  5
138
330
1F
100
AcDbEntity
  8
0
  6
HIDDEN
 62
     7
370
     0
100
AcDbSpline
210
0.0
220
0.0
230
1.0
 70
     8
 71
     3
 72
    12
 73
     8
 74
     0
 42
0.00000001
 43
0.00000001
 12
1.0
 22
0.0
 32
0.0
 13
1.0
 23
0.0
 33
0.0
 40
0.0
 40
0.0
 40
0.0
 40
0.0
 40
0.1635757216433792
 40
0.4072704017789968
 40
0.6457049961814249
 40
0.8811719175821509
 40
0.9999999999999999
 40
0.9999999999999999
 40
0.9999999999999999
 40
0.9999999999999999
 10
261.0122099948792
 20
125.644015151652
 30
0.0
 10
260.75026206983
 20
125.8630519624697
 30
0.0
 10
260.0980648145883
 20
126.4084092382923
 30
0.0
 10
258.7522545588203
 20
126.7780931941219
 30
0.0
 10
257.2491202058902
 20
126.7174729586054
 30
0.0
 10
256.0347717794926
 20
126.3107487511496
 30
0.0
 10
255.4922415374093
 20
125.809723680138
 30
0.0
 10
255.3102806640534
 20
125.6416833527558
 30
0.0
  0
SPLINE
  5
139
330
1F
100
AcDbEntity
  8
0
  6
HIDDEN
 62
     7
370
     0
100
AcDbSpline
210
0.0
220
0.0
230
1.0
 70
     8
 71
     3
 72
    12
 73
     8
 74
     0
 42
0.00000001
 43
0.00000001
 12
1.0
 22
0.0
 32
0.0
 13
1.0
 23
0.0
 33
0.0
 40
0.0
 40
0.0
 40
0.0
 40
0.0
 40
0.1635757096545588
 40
0.4072709393218821
 40
0.645704921606625
 40
0.881172379459274
 40
1.0
 40
1.0
 40
1.0
 40
1.0
 10
245.5122121108441
 20
125.644015151652
 30
0.0
 10
245.2502642001023
 20
125.8630519806548
 30
0.0
 10
244.5980660718684
 20
126.4084100615243
 30
0.0
 10
243.2522550731496
 20
126.7780928478049
 30
0.0
 10
241.7491205398118
 20
126.7174717039274
 30
0.0
 10
240.5347709220821
 20
126.3107511114092
 30
0.0
 10
239.992242348277
 20
125.8097237573282
 30
0.0
 10
239.8102827800183
 20
125.6416833527558
 30
0.0
  0
LINE
  5
13A
330
1F
100
AcDbEntity
  8
0
  6
HIDDEN
 62
     7
370
     0
100
AcDbLine
 10
135.4081429971
 20
94.8679533355
 30
0.0
 11
135.4081429971
 21
90.0536396109
 31
0.0
  0
LINE
  5
13B
330
1F
100
AcDbEntity
  8
0
  6
HIDDEN
 62
     7
370
     0
100
AcDbLine
 10
148.8581434322
 20
94.8679533355
 30
0.0
 11
148.8581434322
 21
88.3922309183
 31
0.0
  0
LINE
  5
13C
330
1F
100
AcDbEntity
  8
0
  6
HIDDEN
 62
     7
370
     0
100
AcDbLine
 10
143.8581444753
 20
149.6079538517
 30
0.0
 11
143.8581444753
 21
155.9825607144
 31
0.0
  0
LINE
  5
13D
330
1F
100
AcDbEntity
  8
0
  6
HIDDEN
 62
     7
370
     0
100
AcDbLine
 10
135.4081429971
 20
149.6079538517
 30
0.0
 11
135.4081429971
 21
154.4862382613
 31
0.0
  0
LINE
  5
13E
330
1F
100
AcDbEntity
  8
0
  6
HIDDEN
 62
     7
370
     0
100
AcDbLine
 10
207.95814362
 20
109.2379533254
 30
0.0
 11
207.95814362
 21
135.2379538618
 31
0.0
  0
LINE
  5
13F
330
1F
100
AcDbEntity
  8
0
  6
HIDDEN
 62
     7
370
     0
100
AcDbLine
 10
211.9581442756
 20
109.2379533254
 30
0.0
 11
211.9581442756
 21
135.2379538618
 31
0.0
  0
LINE
  5
140
330
1F
100
AcDbEntity
  8
0
  6
HIDDEN
 62
     7
370
     0
100
AcDbLine
 10
196.8581438495
 20
110.9879531466
 30
0.0
 11
196.8581438495
 21
133.4879540406
 31
0.0
  0
ELLIPSE
  5
141
330
1F
100
AcDbEntity
  8
0
  6
HIDDEN
 62
     7
370
     0
100
AcDbEllipse
 10
127.4734707207
 20
122.2379535936
 30
0.0
 11
31.0810857081166
 21
1.421085471520200E-14
 31
0.0
210
0.0
220
0.0
230
1.0
 40
0.8164965809
 41
1.312649268214811
 42
1.367189972061496
  0
ELLIPSE
  5
142
330
1F
100
AcDbEntity
  8
0
  6
HIDDEN
 62
     7
370
     0
100
AcDbEllipse
 10
127.4734707207
 20
122.2379535936
 30
0.0
 11
31.08108570811663
 21
1.421085471520200E-14
 31
0.0
210
0.0
220
0.0
230
1.0
 40
0.8164965809
 41
4.915995335118101
 42
4.970536038964786
  0
LINE
  5
143
330
1F
100
AcDbEntity
  8
0
  6
HIDDEN
 62
     7
370
     0
100
AcDbLine
 10
212.6081441028
 20
78.3379517995
 30
0.0
 11
198.6081436706
 21
78.3379517995
 31
0.0
  0
LINE
  5
144
330
1F
100
AcDbEntity
  8
0
  6
HIDDEN
 62
     7
370
     0
100
AcDbLine
 10
188.6081438942
 20
72.247955253
 30
0.0
 11
188.6081438942
 21
78.3379517995
 31
0.0
  0
LINE
  5
145
330
1F
100
AcDbEntity
  8
0
  6
HIDDEN
 62
     7
370
     0
100
AcDbLine
 10
198.6081436706
 20
78.3379517995
 30
0.0
 11
188.6081438942
 21
78.3379517995
 31
0.0
  0
LINE
  5
146
330
1F
100
AcDbEntity
  8
0
  6
HIDDEN
 62
     7
370
     0
100
AcDbLine
 10
143.8581444753
 20
149.6079538517
 30
0.0
 11
143.8581444753
 21
147.4664669983
 31
0.0
  0
LINE
  5
147
330
1F
100
AcDbEntity
  8
0
  6
HIDDEN
 62
     7
370
     0
100
AcDbLine
 10
135.4081429971
 20
149.6079538517
 30
0.0
 11
135.4081429971
 21
146.7746582382
 31
0.0
  0
LINE
  5
148
330
1F
100
AcDbEntity
  8
0
  6
HIDDEN
 62
     7
370
     0
100
AcDbLine
 10
148.8581434322
 20
94.8679533355
 30
0.0
 11
148.8581434322
 21
97.0094401889
 31
0.0
  0
LINE
  5
149
330
1F
100
AcDbEntity
  8
0
  6
HIDDEN
 62
     7
370
     0
100
AcDbLine
 10
135.4081429971
 20
94.8679533355
 30
0.0
 11
135.4081429971
 21
97.701248949
 31
0.0
  0
LINE
  5
14A
330
1F
100
AcDbEntity
  8
0
  6
HIDDEN
 62
     7
370
     0
100
AcDbLine
 10
198.6081436706
 20
166.1379553877
 30
0.0
 11
188.6081438942
 21
166.1379553877
 31
0.0
  0
LINE
  5
14B
330
1F
100
AcDbEntity
  8
0
  6
HIDDEN
 62
     7
370
     0
100
AcDbLine
 10
212.6081441028
 20
166.1379553877
 30
0.0
 11
198.6081436706
 21
166.1379553877
 31
0.0
  0
LINE
  5
14C
330
1F
100
AcDbEntity
  8
0
  6
HIDDEN
 62
     7
370
     0
100
AcDbLine
 10
220.8338998688
 20
122.2379535936
 30
0.0
 11
220.8338998688
 21
113.9379537232
 31
0.0
  0
LINE
  5
14D
330
1F
100
AcDbEntity
  8
0
  6
HIDDEN
 62
     7
370
     0
100
AcDbLine
 10
220.8338998688
 20
130.537953464
 30
0.0
 11
220.8338998688
 21
122.2379535936
 31
0.0
  0
LINE
  5
14E
330
1F
100
AcDbEntity
  8
0
  6
HIDDEN
 62
     7
370
     0
100
AcDbLine
 10
221.6581426991
 20
122.2379535936
 30
0.0
 11
221.6581426991
 21
114.2379532136
 31
0.0
  0
LINE
  5
14F
330
1F
100
AcDbEntity
  8
0
  6
HIDDEN
 62
     7
370
     0
100
AcDbLine
 10
221.6581426991
 20
130.2379539736
 30
0.0
 11
221.6581426991
 21
122.2379535936
 31
0.0
  0
LINE
  5
150
330
1F
100
AcDbEntity
  8
0
  6
HIDDEN
 62
     7
370
     0
100
AcDbLine
 10
217.6581457687
 20
122.2379535936
 30
0.0
 11
217.6581457687
 21
114.3379539751
 31
0.0
  0
LINE
  5
151
330
1F
100
AcDbEntity
  8
0
  6
HIDDEN
 62
     7
370
     0
100
AcDbLine
 10
217.6581457687
 20
130.1379532121
 30
0.0
 11
217.6581457687
 21
122.2379535936
 31
0.0
  0
SPLINE
  5
152
330
1F
100
AcDbEntity
  8
0
  6
HIDDEN
 62
     7
370
     0
100
AcDbSpline
210
0.0
220
0.0
230
1.0
 70
     8
 71
     3
 72
    12
 73
     8
 74
     0
 42
0.00000001
 43
0.00000001
 12
1.0
 22
0.0
 32
0.0
 13
1.0
 23
0.0
 33
0.0
 40
0.0
 40
0.0
 40
0.0
 40
0.0
 40
0.1906614644110577
 40
0.3804853240856174
 40
0.5905189247735243
 40
0.819346889734498
 40
1.0
 40
1.0
 40
1.0
 40
1.0
 10
258.158145887938
 20
128.8523317814045
 30
0.0
 10
257.6990138574939
 20
128.8814749441981
 30
0.0
 10
256.7827668332658
 20
128.9396332394503
 30
0.0
 10
255.5344857169312
 20
129.3314546094593
 30
0.0
 10
254.4886971875386
 20
129.7858704269368
 30
0.0
 10
253.771925325154
 20
130.1732448990144
 30
0.0
 10
253.7133079260479
 20
130.2068523292051
 30
0.0
 10
253.6874473524957
 20
130.2216791115873
 30
0.0
  0
LINE
  5
153
330
1F
100
AcDbEntity
  8
0
  6
HIDDEN
 62
     7
370
     0
100
AcDbLine
 10
257.42632751
 20
128.9262136012
 30
0.0
 11
258.4030241204
 21
128.8686816149
 31
0.0
  0
SPLINE
  5
154
330
1F
100
AcDbEntity
  8
0
  6
HIDDEN
 62
     7
370
     0
100
AcDbSpline
210
0.0
220
0.0
230
1.0
 70
     8
 71
     3
 72
    13
 73
     9
 74
     0
 42
0.00000001
 43
0.00000001
 12
1.0
 22
0.0
 32
0.0
 13
1.0
 23
0.0
 33
0.0
 40
0.0
 40
0.0
 40
0.0
 40
0.0
 40
0.0593907597073526
 40
0.2438992167601398
 40
0.4342881364533476
 40
0.6472839813599627
 40
0.8759488271541243
 40
1.0
 40
1.0
 40
1.0
 40
1.0
 10
262.6084670854478
 20
130.2102080114357
 30
0.0
 10
262.6230670451358
 20
130.218352560611
 30
0.0
 10
262.6830244989586
 20
130.2517996687893
 30
0.0
 10
262.3548999747681
 20
130.0674967471314
 30
0.0
 10
261.668136654017
 20
129.7128259596531
 30
0.0
 10
260.5601467615064
 20
129.241942587835
 30
0.0
 10
259.3052307090673
 20
128.9000298184966
 30
0.0
 10
258.456608575715
 20
128.8647424454548
 30
0.0
 10
258.158145887938
 20
128.8523317814045
 30
0.0
  0
SPLINE
  5
155
330
1F
100
AcDbEntity
  8
0
  6
HIDDEN
 62
     7
370
     0
100
AcDbSpline
210
0.0
220
0.0
230
1.0
 70
     8
 71
     3
 72
    12
 73
     8
 74
     0
 42
0.00000001
 43
0.00000001
 12
1.0
 22
0.0
 32
0.0
 13
1.0
 23
0.0
 33
0.0
 40
0.0
 40
0.0
 40
0.0
 40
0.0
 40
0.1906609661943512
 40
0.3804852883215749
 40
0.5905189011345386
 40
0.8193468793055514
 40
1.0
 40
1.0
 40
1.0
 40
1.0
 10
242.6581442786126
 20
128.8523317814045
 30
0.0
 10
242.1990136523263
 20
128.8814751483173
 30
0.0
 10
241.282767122128
 20
128.9396339974192
 30
0.0
 10
240.0344845693484
 20
129.3314539825859
 30
0.0
 10
238.9886956673312
 20
129.7858705195158
 30
0.0
 10
238.271923698316
 20
130.1732448808216
 30
0.0
 10
238.2133063113615
 20
130.2068523236359
 30
0.0
 10
238.1874457431703
 20
130.2216791115873
 30
0.0
  0
LINE
  5
156
330
1F
100
AcDbEntity
  8
0
  6
HIDDEN
 62
     7
370
     0
100
AcDbLine
 10
241.9263259006
 20
128.9262136012
 30
0.0
 11
242.9030225111
 21
128.8686816149
 31
0.0
  0
SPLINE
  5
157
330
1F
100
AcDbEntity
  8
0
  6
HIDDEN
 62
     7
370
     0
100
AcDbSpline
210
0.0
220
0.0
230
1.0
 70
     8
 71
     3
 72
    13
 73
     9
 74
     0
 42
0.00000001
 43
0.00000001
 12
1.0
 22
0.0
 32
0.0
 13
1.0
 23
0.0
 33
0.0
 40
0.0
 40
0.0
 40
0.0
 40
0.0
 40
0.0593907298351438
 40
0.243899339955207
 40
0.4342879074905134
 40
0.6472836452650361
 40
0.8759483760459522
 40
1.0
 40
1.0
 40
1.0
 40
1.0
 10
247.108472926703
 20
130.2102080114357
 30
0.0
 10
247.1230730226985
 20
130.2183525513
 30
0.0
 10
247.1830310967362
 20
130.2517996549585
 30
0.0
 10
246.8548948590079
 20
130.067497262669
 30
0.0
 10
246.1681404668399
 20
129.7128255637179
 30
0.0
 10
245.0601482187729
 20
129.2419426605019
 30
0.0
 10
243.805231761316
 20
128.9000294669526
 30
0.0
 10
242.9566082514616
 20
128.8647423786249
 30
0.0
 10
242.6581442786126
 20
128.8523317814045
 30
0.0
  0
SPLINE
  5
158
330
1F
100
AcDbEntity
  8
0
  6
HIDDEN
 62
     7
370
     0
100
AcDbSpline
210
0.0
220
0.0
230
1.0
 70
     8
 71
     3
 72
    12
 73
     8
 74
     0
 42
0.00000001
 43
0.00000001
 12
1.0
 22
0.0
 32
0.0
 13
1.0
 23
0.0
 33
0.0
 40
0.0
 40
0.0
 40
0.0
 40
0.0
 40
0.1906610153331766
 40
0.3804849348891839
 40
0.5905189605039669
 40
0.8193467696590518
 40
1.0
 40
1.0
 40
1.0
 40
1.0
 10
227.1581426692872
 20
128.8523317814045
 30
0.0
 10
226.6990118479667
 20
128.8814750185277
 30
0.0
 10
225.7827660157996
 20
128.9396335396073
 30
0.0
 10
224.5344864654292
 20
129.331455109988
 30
0.0
 10
223.4886926221477
 20
129.7858696150827
 30
0.0
 10
222.7719279108573
 20
130.1732451412901
 30
0.0
 10
222.7133064977318
 20
130.2068523956353
 30
0.0
 10
222.6874441338448
 20
130.2216791115873
 30
0.0
  0
LINE
  5
159
330
1F
100
AcDbEntity
  8
0
  6
HIDDEN
 62
     7
370
     0
100
AcDbLine
 10
226.4263242913
 20
128.9262136012
 30
0.0
 11
227.4030209018
 21
128.8686816149
 31
0.0
  0
SPLINE
  5
15A
330
1F
100
AcDbEntity
  8
0
  6
HIDDEN
 62
     7
370
     0
100
AcDbSpline
210
0.0
220
0.0
230
1.0
 70
     8
 71
     3
 72
    13
 73
     9
 74
     0
 42
0.00000001
 43
0.00000001
 12
1.0
 22
0.0
 32
0.0
 13
1.0
 23
0.0
 33
0.0
 40
0.0
 40
0.0
 40
0.0
 40
0.0
 40
0.0593907145653388
 40
0.2438992772468455
 40
0.4342875394363584
 40
0.6472832224480691
 40
0.8759478944375567
 40
1.0
 40
1.0
 40
1.0
 40
1.0
 10
231.6084713173776
 20
130.2102080114357
 30
0.0
 10
231.6230714259196
 20
130.2183525489881
 30
0.0
 10
231.6830295514819
 20
130.2517996431519
 30
0.0
 10
231.3548924689213
 20
130.0674975510497
 30
0.0
 10
230.6681433541171
 20
129.7128251919983
 30
0.0
 10
229.560149961068
 20
129.2419427257113
 30
0.0
 10
228.3052327776429
 20
128.9000291163494
 30
0.0
 10
227.4566079178618
 20
128.8647423120393
 30
0.0
 10
227.1581426692872
 20
128.8523317814045
 30
0.0
  0
LINE
  5
15B
330
1F
100
AcDbEntity
  8
0
  6
HIDDEN
 62
     7
370
     0
100
AcDbLine
 10
227.1581426693
 20
126.7379533999
 30
0.0
 11
226.6491823328
 21
126.6598531544
 31
0.0
  0
SPLINE
  5
15C
330
1F
100
AcDbEntity
  8
0
  6
HIDDEN
 62
     7
370
     0
100
AcDbSpline
210
0.0
220
0.0
230
1.0
 70
     8
 71
     3
 72
     9
 73
     5
 74
     0
 42
0.00000001
 43
0.00000001
 12
1.0
 22
0.0
 32
0.0
 13
1.0
 23
0.0
 33
0.0
 40
0.0
 40
0.0
 40
0.0
 40
0.0
 40
0.627157329335874
 40
1.0
 40
1.0
 40
1.0
 40
1.0
 10
226.1156462562947
 20
117.8767110720448
 30
0.0
 10
226.5866548054389
 20
117.7903002537938
 30
0.0
 10
227.3376761634178
 20
117.6525185294815
 30
0.0
 10
228.0569671044764
 20
117.8573063955821
 30
0.0
 10
228.3251494599252
 20
117.9336600504987
 30
0.0
  0
LINE
  5
15D
330
1F
100
AcDbEntity
  8
0
  6
HIDDEN
 62
     7
370
     0
100
AcDbLine
 10
227.5924034847
 20
126.6947209403
 30
0.0
 11
227.1581426693
 21
126.7379533999
 31
0.0
  0
LINE
  5
15E
330
1F
100
AcDbEntity
  8
0
  6
HIDDEN
 62
     7
370
     0
100
AcDbLine
 10
258.1581458879
 20
126.7379533999
 30
0.0
 11
257.6491818262
 21
126.6598531544
 31
0.0
  0
SPLINE
  5
15F
330
1F
100
AcDbEntity
  8
0
  6
HIDDEN
 62
     7
370
     0
100
AcDbSpline
210
0.0
220
0.0
230
1.0
 70
     8
 71
     3
 72
     9
 73
     5
 74
     0
 42
0.00000001
 43
0.00000001
 12
1.0
 22
0.0
 32
0.0
 13
1.0
 23
0.0
 33
0.0
 40
0.0
 40
0.0
 40
0.0
 40
0.0
 40
0.6271563242927699
 40
1.0
 40
1.0
 40
1.0
 40
1.0
 10
257.1156457496552
 20
117.8767110720448
 30
0.0
 10
257.5866542484841
 20
117.7903004628864
 30
0.0
 10
258.3376767297771
 20
117.6525188511712
 30
0.0
 10
259.0569690762201
 20
117.8573063330254
 30
0.0
 10
259.325152678576
 20
117.9336600504987
 30
0.0
  0
LINE
  5
160
330
1F
100
AcDbEntity
  8
0
  6
HIDDEN
 62
     7
370
     0
100
AcDbLine
 10
258.592402978
 20
126.6947209403
 30
0.0
 11
258.1581458879
 21
126.7379533999
 31
0.0
  0
LINE
  5
161
330
1F
100
AcDbEntity
  8
0
  6
HIDDEN
 62
     7
370
     0
100
AcDbLine
 10
242.6581442786
 20
126.7379533999
 30
0.0
 11
242.1491839422
 21
126.6598531544
 31
0.0
  0
SPLINE
  5
162
330
1F
100
AcDbEntity
  8
0
  6
HIDDEN
 62
     7
370
     0
100
AcDbSpline
210
0.0
220
0.0
230
1.0
 70
     8
 71
     3
 72
     9
 73
     5
 74
     0
 42
0.00000001
 43
0.00000001
 12
1.0
 22
0.0
 32
0.0
 13
1.0
 23
0.0
 33
0.0
 40
0.0
 40
0.0
 40
0.0
 40
0.0
 40
0.6271557093199738
 40
1.0
 40
1.0
 40
1.0
 40
1.0
 10
241.6156478656201
 20
117.8767110720448
 30
0.0
 10
242.0866551032875
 20
117.7903005908268
 30
0.0
 10
242.8376763100914
 20
117.6525190480076
 30
0.0
 10
243.5569674677725
 20
117.8573062947476
 30
0.0
 10
243.8251510692506
 20
117.9336600504987
 30
0.0
  0
LINE
  5
163
330
1F
100
AcDbEntity
  8
0
  6
HIDDEN
 62
     7
370
     0
100
AcDbLine
 10
243.0924013687
 20
126.6947209403
 30
0.0
 11
242.6581442786
 21
126.7379533999
 31
0.0
  0
SPLINE
  5
164
330
1F
100
AcDbEntity
  8
0
  6
HIDDEN
 62
     7
370
     0
100
AcDbSpline
210
0.0
220
0.0
230
1.0
 70
     8
 71
     3
 72
    30
 73
    26
 74
     0
 42
0.00000001
 43
0.00000001
 12
1.0
 22
0.0
 32
0.0
 13
1.0
 23
0.0
 33
0.0
 40
0.0
 40
0.0
 40
0.0
 40
0.0
 40
0.0531143696206517
 40
0.1124968992317297
 40
0.1778960810039124
 40
0.212921130027286
 40
0.2494753180853425
 40
0.2912423429874979
 40
0.3260856825780566
 40
0.3540016341031921
 40
0.3749874803045857
 40
0.4414470409909171
 40
0.5001663375723658
 40
0.5546826222472117
 40
0.6144284421925437
 40
0.679455707993576
 40
0.7140136704485129
 40
0.749911629931879
 40
0.7913773550189606
 40
0.8260452421999083
 40
0.8539116611848684
 40
0.8749736110439715
 40
0.941161978672302
 40
0.9999141552579491
 40
1.0
 40
1.0
 40
1.0
 40
1.0
 10
174.657633943644
 20
85.13804083095715
 30
0.0
 10
174.6414434335003
 20
85.1429385605442
 30
0.0
 10
174.6071517304989
 20
85.15331201307231
 30
0.0
 10
174.3058700476857
 20
85.22896009205057
 30
0.0
 10
173.8637047412055
 20
85.32524676150629
 30
0.0
 10
173.3688721378677
 20
85.42490809501155
 30
0.0
 10
172.8983962385482
 20
85.51718861962578
 30
0.0
 10
172.3674746730271
 20
85.61281855325053
 30
0.0
 10
171.8293240530818
 20
85.69846812948958
 30
0.0
 10
171.3712771163251
 20
85.76576234871773
 30
0.0
 10
170.7157123037689
 20
85.85410514889178
 30
0.0
 10
169.832406459533
 20
85.95076939795837
 30
0.0
 10
168.703744097058
 20
86.037540919331
 30
0.0
 10
167.6139825633223
 20
86.07562212532024
 30
0.0
 10
166.5179543786941
 20
86.0774728806606
 30
0.0
 10
165.6125631376817
 20
86.05131102873132
 30
0.0
 10
164.9162596702443
 20
86.01470479155246
 30
0.0
 10
164.3895820714449
 20
85.97568625107263
 30
0.0
 10
163.9229333513872
 20
85.93347798473697
 30
0.0
 10
163.5517209327428
 20
85.89647358079434
 30
0.0
 10
163.2976709752802
 20
85.86777231782585
 30
0.0
 10
162.9966233612999
 20
85.83139190728018
 30
0.0
 10
162.7410895623319
 20
85.79859511025431
 30
0.0
 10
162.6419916510367
 20
85.78230841628428
 30
0.0
 10
162.6581932091753
 20
85.78486670351562
 30
0.0
 10
162.6582168472676
 20
85.78487043605969
 30
0.0
  0
SPLINE
  5
165
330
1F
100
AcDbEntity
  8
0
  6
HIDDEN
 62
     7
370
     0
100
AcDbSpline
210
0.0
220
0.0
230
1.0
 70
     8
 71
     3
 72
    30
 73
    26
 74
     0
 42
0.00000001
 43
0.00000001
 12
1.0
 22
0.0
 32
0.0
 13
1.0
 23
0.0
 33
0.0
 40
0.0
 40
0.0
 40
0.0
 40
0.0
 40
0.0001254945779594
 40
0.0285559074234649
 40
0.0588590658112889
 40
0.0910391711941226
 40
0.1250996116848435
 40
0.1546877754617193
 40
0.1963660207488223
 40
0.2501200199556065
 40
0.320534356805628
 40
0.3856185627871055
 40
0.4454111263216317
 40
0.4999637433237747
 40
0.5283556746054187
 40
0.5586398612800533
 40
0.5908239907201038
 40
0.6249144227675094
 40
0.6541890138496862
 40
0.6958670295788169
 40
0.7499340291136475
 40
0.821592871047849
 40
0.8871437747903796
 40
0.9466385706416498
 40
1.0
 40
1.0
 40
1.0
 40
1.0
 10
162.6582503748803
 20
158.6909622453325
 30
0.0
 10
162.6582148431434
 20
158.6909697235943
 30
0.0
 10
162.6501297050767
 20
158.6926713792054
 30
0.0
 10
162.6787620770412
 20
158.6873161060576
 30
0.0
 10
162.7521621125572
 20
158.6767313715066
 30
0.0
 10
162.8958162689013
 20
158.6570583236987
 30
0.0
 10
163.0968518895021
 20
158.632214032152
 30
0.0
 10
163.3794840024224
 20
158.5980045026659
 30
0.0
 10
163.7928913960257
 20
158.554330139381
 30
0.0
 10
164.4691793090591
 20
158.4912853736765
 30
0.0
 10
165.4076109411608
 20
158.4299857464623
 30
0.0
 10
166.5171036781973
 20
158.3986958319753
 30
0.0
 10
167.6145840828075
 20
158.4003577394206
 30
0.0
 10
168.5146156113599
 20
158.4316545641768
 30
0.0
 10
169.2259563436486
 20
158.478496522928
 30
0.0
 10
169.7913739378151
 20
158.5256558642849
 30
0.0
 10
170.3802964755536
 20
158.5851029508518
 30
0.0
 10
170.9447065739642
 20
158.6514539118746
 30
0.0
 10
171.538902862217
 20
158.7333743723743
 30
0.0
 10
172.2055102084594
 20
158.8350264955298
 30
0.0
 10
173.0068438285783
 20
158.9771593906395
 30
0.0
 10
173.759353694684
 20
159.1284044020684
 30
0.0
 10
174.3046394960591
 20
159.2462603221795
 30
0.0
 10
174.6073610140174
 20
159.3224835935663
 30
0.0
 10
174.6416521027992
 20
159.3329380920495
 30
0.0
 10
174.6578658429651
 20
159.3378812574022
 30
0.0
  0
LINE
  5
166
330
1F
100
AcDbEntity
  8
0
  6
HIDDEN
 62
     7
370
     0
100
AcDbLine
 10
206.9201734347
 20
161.1889146768
 30
0.0
 11
206.9201734347
 21
153.5879552864
 31
0.0
  0
LINE
  5
167
330
1F
100
AcDbEntity
  8
0
  6
HIDDEN
 62
     7
370
     0
100
AcDbLine
 10
205.5681445135
 20
156.9521904491
 30
0.0
 11
205.5681445135
 21
153.5879552864
 31
0.0
  0
LINE
  5
168
330
1F
100
AcDbEntity
  8
0
  6
HIDDEN
 62
     7
370
     0
100
AcDbLine
 10
201.7481442971
 20
156.9521904491
 30
0.0
 11
201.7481442971
 21
153.5879552864
 31
0.0
  0
CIRCLE
  5
169
330
1F
100
AcDbEntity
  8
0
  6
HIDDEN
 62
     7
370
     0
100
AcDbCircle
 10
190.658143921
 20
122.2379535936
 30
0.0
 40
5.000000000000014
  0
LINE
  5
16A
330
1F
100
AcDbEntity
  8
0
  6
HIDDEN
 62
     7
370
     0
100
AcDbLine
 10
237.6581453217
 20
131.2379532062
 30
0.0
 11
239.1581446362
 21
129.737953426
 31
0.0
  0
LINE
  5
16B
330
1F
100
AcDbEntity
  8
0
  6
HIDDEN
 62
     7
370
     0
100
AcDbLine
 10
246.158143921
 20
129.737953426
 30
0.0
 11
247.6581469608
 21
131.2379532062
 31
0.0
  0
LINE
  5
16C
330
1F
100
AcDbEntity
  8
0
  6
HIDDEN
 62
     7
370
     0
100
AcDbLine
 10
237.6581453217
 20
141.4379545056
 30
0.0
 11
237.6581453217
 21
131.2379532062
 31
0.0
  0
LINE
  5
16D
330
1F
100
AcDbEntity
  8
0
  6
HIDDEN
 62
     7
370
     0
100
AcDbLine
 10
247.6581469608
 20
131.2379532062
 30
0.0
 11
247.6581469608
 21
141.4379545056
 31
0.0
  0
LINE
  5
16E
330
1F
100
AcDbEntity
  8
0
  6
HIDDEN
 62
     7
370
     0
100
AcDbLine
 10
247.6581469608
 20
141.4379545056
 30
0.0
 11
246.8581408692
 21
142.2379531466
 31
0.0
  0
LINE
  5
16F
330
1F
100
AcDbEntity
  8
0
  6
HIDDEN
 62
     7
370
     0
100
AcDbLine
 10
238.4581439627
 20
142.2379531466
 30
0.0
 11
237.6581453217
 21
141.4379545056
 31
0.0
  0
LINE
  5
170
330
1F
100
AcDbEntity
  8
0
  6
HIDDEN
 62
     7
370
     0
100
AcDbLine
 10
245.1581456197
 20
129.737953426
 30
0.0
 11
242.6581442786
 21
131.181329725
 31
0.0
  0
LINE
  5
171
330
1F
100
AcDbEntity
  8
0
  6
HIDDEN
 62
     7
370
     0
100
AcDbLine
 10
242.6581442786
 20
131.181329725
 30
0.0
 11
240.1581429375
 21
129.737953426
 31
0.0
  0
LINE
  5
172
330
1F
100
AcDbEntity
  8
0
  6
HIDDEN
 62
     7
370
     0
100
AcDbLine
 10
253.1581432057
 20
131.2379532062
 30
0.0
 11
254.6581462456
 21
129.737953426
 31
0.0
  0
LINE
  5
173
330
1F
100
AcDbEntity
  8
0
  6
HIDDEN
 62
     7
370
     0
100
AcDbLine
 10
261.6581455303
 20
129.737953426
 30
0.0
 11
263.1581411196
 21
131.2379532062
 31
0.0
  0
LINE
  5
174
330
1F
100
AcDbEntity
  8
0
  6
HIDDEN
 62
     7
370
     0
100
AcDbLine
 10
253.1581432057
 20
141.4379545056
 30
0.0
 11
253.1581432057
 21
131.2379532062
 31
0.0
  0
LINE
  5
175
330
1F
100
AcDbEntity
  8
0
  6
HIDDEN
 62
     7
370
     0
100
AcDbLine
 10
263.1581411196
 20
131.2379532062
 30
0.0
 11
263.1581411196
 21
141.4379545056
 31
0.0
  0
LINE
  5
176
330
1F
100
AcDbEntity
  8
0
  6
HIDDEN
 62
     7
370
     0
100
AcDbLine
 10
263.1581411196
 20
141.4379545056
 30
0.0
 11
262.3581424786
 21
142.2379531466
 31
0.0
  0
LINE
  5
177
330
1F
100
AcDbEntity
  8
0
  6
HIDDEN
 62
     7
370
     0
100
AcDbLine
 10
253.9581418467
 20
142.2379531466
 30
0.0
 11
253.1581432057
 21
141.4379545056
 31
0.0
  0
LINE
  5
178
330
1F
100
AcDbEntity
  8
0
  6
HIDDEN
 62
     7
370
     0
100
AcDbLine
 10
260.6581435038
 20
129.737953426
 30
0.0
 11
258.1581458879
 21
131.181329725
 31
0.0
  0
LINE
  5
179
330
1F
100
AcDbEntity
  8
0
  6
HIDDEN
 62
     7
370
     0
100
AcDbLine
 10
258.1581458879
 20
131.181329725
 30
0.0
 11
255.6581408215
 21
129.737953426
 31
0.0
  0
LINE
  5
17A
330
1F
100
AcDbEntity
  8
0
  6
HIDDEN
 62
     7
370
     0
100
AcDbLine
 10
222.1581437124
 20
131.2379532062
 30
0.0
 11
223.6581430269
 21
129.737953426
 31
0.0
  0
LINE
  5
17B
330
1F
100
AcDbEntity
  8
0
  6
HIDDEN
 62
     7
370
     0
100
AcDbLine
 10
230.6581423117
 20
129.737953426
 30
0.0
 11
232.1581453515
 21
131.2379532062
 31
0.0
  0
LINE
  5
17C
330
1F
100
AcDbEntity
  8
0
  6
HIDDEN
 62
     7
370
     0
100
AcDbLine
 10
222.1581437124
 20
141.4379545056
 30
0.0
 11
222.1581437124
 21
131.2379532062
 31
0.0
  0
LINE
  5
17D
330
1F
100
AcDbEntity
  8
0
  6
HIDDEN
 62
     7
370
     0
100
AcDbLine
 10
232.1581453515
 20
131.2379532062
 30
0.0
 11
232.1581453515
 21
141.4379545056
 31
0.0
  0
LINE
  5
17E
330
1F
100
AcDbEntity
  8
0
  6
HIDDEN
 62
     7
370
     0
100
AcDbLine
 10
232.1581453515
 20
141.4379545056
 30
0.0
 11
231.3581429852
 21
142.2379531466
 31
0.0
  0
LINE
  5
17F
330
1F
100
AcDbEntity
  8
0
  6
HIDDEN
 62
     7
370
     0
100
AcDbLine
 10
222.9581423534
 20
142.2379531466
 30
0.0
 11
222.1581437124
 21
141.4379545056
 31
0.0
  0
LINE
  5
180
330
1F
100
AcDbEntity
  8
0
  6
HIDDEN
 62
     7
370
     0
100
AcDbLine
 10
229.6581440104
 20
129.737953426
 30
0.0
 11
227.1581426693
 21
131.181329725
 31
0.0
  0
LINE
  5
181
330
1F
100
AcDbEntity
  8
0
  6
HIDDEN
 62
     7
370
     0
100
AcDbLine
 10
227.1581426693
 20
131.181329725
 30
0.0
 11
224.6581450535
 21
129.737953426
 31
0.0
  0
LINE
  5
182
330
1F
100
AcDbEntity
  8
0
  6
HIDDEN
 62
     7
370
     0
100
AcDbLine
 10
183.658143921
 20
82.8332707785
 30
0.0
 11
183.7477455418
 21
83.4708206855
 31
0.0
  0
LINE
  5
183
330
1F
100
AcDbEntity
  8
0
  6
HIDDEN
 62
     7
370
     0
100
AcDbLine
 10
183.7477455418
 20
161.0050865017
 30
0.0
 11
183.658143921
 21
161.6426364087
 31
0.0
  0
ARC
  5
184
330
1F
100
AcDbEntity
  8
0
  6
HIDDEN
 62
     7
370
     0
100
AcDbCircle
 10
182.7612070025
 20
83.6094682692
 30
0.0
 40
0.9962338214386721
100
AcDbArc
 50
352.0
 51
0.0
  0
ARC
  5
185
330
1F
100
AcDbEntity
  8
0
  6
HIDDEN
 62
     7
370
     0
100
AcDbCircle
 10
182.7612070025
 20
83.6094682692
 30
0.0
 40
0.9962338214386921
100
AcDbArc
 50
0.0
 51
25.7988228126
  0
ARC
  5
186
330
1F
100
AcDbEntity
  8
0
  6
HIDDEN
 62
     7
370
     0
100
AcDbCircle
 10
182.7612070025
 20
160.866438918
 30
0.0
 40
0.996233821438676
100
AcDbArc
 50
348.75
 51
8.0
  0
LWPOLYLINE
  5
187
330
1F
100
AcDbEntity
  8
0
  6
HIDDEN
 62
     7
370
     0
100
AcDbPolyline
 90
        3
 70
   128
 43
0.0
 10
183.7382984676
 20
160.6720828019
 10
183.6816070398
 20
160.4851961635
 10
183.658143921
 20
160.4328670107
  0
LINE
  5
188
330
1F
100
AcDbEntity
  8
0
  6
HIDDEN
 62
     7
370
     0
100
AcDbLine
 10
183.7574408208
 20
83.6094685398
 30
0.0
 11
183.7574408208
 21
160.8664386474
 31
0.0
  0
ARC
  5
189
330
1F
100
AcDbEntity
  8
0
  6
HIDDEN
 62
     7
370
     0
100
AcDbCircle
 10
173.9113495762
 20
102.7379535936
 30
0.0
 40
12.0
100
AcDbArc
 50
273.1714843805
 51
324.3146652873
  0
ARC
  5
18A
330
1F
100
AcDbEntity
  8
0
  6
HIDDEN
 62
     7
370
     0
100
AcDbCircle
 10
173.9113495762
 20
141.7379535936
 30
0.0
 40
11.99999999999999
100
AcDbArc
 50
35.6853347127
 51
86.8223095101
  0
ARC
  5
18B
330
1F
100
AcDbEntity
  8
0
  6
HIDDEN
 62
     7
370
     0
100
AcDbCircle
 10
157.1188698631
 20
91.7379535936
 30
0.0
 40
1.000000000000008
100
AcDbArc
 50
210.0
 51
270.0
  0
ARC
  5
18C
330
1F
100
AcDbEntity
  8
0
  6
HIDDEN
 62
     7
370
     0
100
AcDbCircle
 10
157.1188698631
 20
152.7379535936
 30
0.0
 40
1.000000000000008
100
AcDbArc
 50
90.0
 51
150.0
  0
LINE
  5
18D
330
1F
100
AcDbEntity
  8
0
  6
HIDDEN
 62
     7
370
     0
100
AcDbLine
 10
157.1188703609
 20
90.737953087
 30
0.0
 11
162.703974588
 21
90.737953087
 31
0.0
  0
LINE
  5
18E
330
1F
100
AcDbEntity
  8
0
  6
HIDDEN
 62
     7
370
     0
100
AcDbLine
 10
162.703974588
 20
153.7379541002
 30
0.0
 11
157.1188703609
 21
153.7379541002
 31
0.0
  0
LINE
  5
18F
330
1F
100
AcDbEntity
  8
0
  6
HIDDEN
 62
     7
370
     0
100
AcDbLine
 10
156.2528446747
 20
153.237953087
 30
0.0
 11
153.6547676159
 21
148.7379532807
 31
0.0
  0
LINE
  5
190
330
1F
100
AcDbEntity
  8
0
  6
HIDDEN
 62
     7
370
     0
100
AcDbLine
 10
153.6547676159
 20
95.7379539065
 30
0.0
 11
156.2528446747
 21
91.2379541002
 31
0.0
  0
ARC
  5
191
330
1F
100
AcDbEntity
  8
0
  6
HIDDEN
 62
     7
370
     0
100
AcDbCircle
 10
194.108143921
 20
97.3629535936
 30
0.0
 40
2.000000000000028
100
AcDbArc
 50
234.3409123039
 51
0.0
  0
ARC
  5
192
330
1F
100
AcDbEntity
  8
0
  6
HIDDEN
 62
     7
370
     0
100
AcDbCircle
 10
194.108143921
 20
147.1129535936
 30
0.0
 40
2.000000000000028
100
AcDbArc
 50
0.0
 51
125.6590876961
  0
LINE
  5
193
330
1F
100
AcDbEntity
  8
0
  6
HIDDEN
 62
     7
370
     0
100
AcDbLine
 10
148.8581434322
 20
95.7379539065
 30
0.0
 11
153.6547676159
 21
95.7379539065
 31
0.0
  0
LINE
  5
194
330
1F
100
AcDbEntity
  8
0
  6
HIDDEN
 62
     7
370
     0
100
AcDbLine
 10
153.6547676159
 20
148.7379532807
 30
0.0
 11
143.8581444753
 21
148.7379532807
 31
0.0
  0
LINE
  5
195
330
1F
100
AcDbEntity
  8
0
  6
HIDDEN
 62
     7
370
     0
100
AcDbLine
 10
183.658143921
 20
95.7379539065
 30
0.0
 11
192.9422211332
 21
95.7379539065
 31
0.0
  0
LINE
  5
196
330
1F
100
AcDbEntity
  8
0
  6
HIDDEN
 62
     7
370
     0
100
AcDbLine
 10
192.9422211332
 20
148.7379532807
 30
0.0
 11
183.658143921
 21
148.7379532807
 31
0.0
  0
LINE
  5
197
330
1F
100
AcDbEntity
  8
0
  6
HIDDEN
 62
     7
370
     0
100
AcDbLine
 10
207.95814362
 20
109.2379533254
 30
0.0
 11
211.9581442756
 21
109.2379533254
 31
0.0
  0
LINE
  5
198
330
1F
100
AcDbEntity
  8
0
  6
HIDDEN
 62
     7
370
     0
100
AcDbLine
 10
211.9581442756
 20
135.2379538618
 30
0.0
 11
207.95814362
 21
135.2379538618
 31
0.0
  0
LINE
  5
199
330
1F
100
AcDbEntity
  8
0
  6
HIDDEN
 62
     7
370
     0
100
AcDbLine
 10
196.1081441922
 20
110.2379534893
 30
0.0
 11
196.8581438495
 21
110.9879531466
 31
0.0
  0
LINE
  5
19A
330
1F
100
AcDbEntity
  8
0
  6
HIDDEN
 62
     7
370
     0
100
AcDbLine
 10
196.8581438495
 20
133.4879540406
 30
0.0
 11
196.1081441922
 21
134.2379536979
 31
0.0
  0
LINE
  5
19B
330
1F
100
AcDbEntity
  8
0
  6
HIDDEN
 62
     7
370
     0
100
AcDbLine
 10
196.8581438495
 20
110.9879531466
 30
0.0
 11
207.95814362
 21
110.9879531466
 31
0.0
  0
LINE
  5
19C
330
1F
100
AcDbEntity
  8
0
  6
HIDDEN
 62
     7
370
     0
100
AcDbLine
 10
207.95814362
 20
133.4879540406
 30
0.0
 11
196.8581438495
 21
133.4879540406
 31
0.0
  0
LINE
  5
19D
330
1F
100
AcDbEntity
  8
0
  6
HIDDEN
 62
     7
370
     0
100
AcDbLine
 10
188.6081438942
 20
172.2379543387
 30
0.0
 11
188.6081438942
 21
166.1379553877
 31
0.0
  0
ARC
  5
19E
330
1F
100
AcDbEntity
  8
0
  6
HIDDEN
 62
     7
370
     0
100
AcDbCircle
 10
268.358143921
 20
130.5379535936
 30
0.0
 40
0.2999999999999829
100
AcDbArc
 50
270.0
 51
0.0
  0
ARC
  5
19F
330
1F
100
AcDbEntity
  8
0
  6
HIDDEN
 62
     7
370
     0
100
AcDbCircle
 10
268.358143921
 20
113.9379535936
 30
0.0
 40
0.2999999999999972
100
AcDbArc
 50
0.0
 51
90.0
  0
LINE
  5
1A0
330
1F
100
AcDbEntity
  8
0
  6
HIDDEN
 62
     7
370
     0
100
AcDbLine
 10
220.8338998688
 20
130.537953464
 30
0.0
 11
218.0581450892
 21
130.537953464
 31
0.0
  0
LINE
  5
1A1
330
1F
100
AcDbEntity
  8
0
  6
HIDDEN
 62
     7
370
     0
100
AcDbLine
 10
218.0581450892
 20
113.9379537232
 30
0.0
 11
220.8338998688
 21
113.9379537232
 31
0.0
  0
LINE
  5
1A2
330
1F
100
AcDbEntity
  8
0
  6
HIDDEN
 62
     7
370
     0
100
AcDbLine
 10
220.8338998688
 20
113.9379537232
 30
0.0
 11
221.6581426991
 21
114.2379532136
 31
0.0
  0
LINE
  5
1A3
330
1F
100
AcDbEntity
  8
0
  6
HIDDEN
 62
     7
370
     0
100
AcDbLine
 10
221.6581426991
 20
130.2379539736
 30
0.0
 11
220.8338998688
 21
130.537953464
 31
0.0
  0
ARC
  5
1A4
330
1F
100
AcDbEntity
  8
0
  6
HIDDEN
 62
     7
370
     0
100
AcDbCircle
 10
218.058143921
 20
130.1379535936
 30
0.0
 40
0.3999999999999773
100
AcDbArc
 50
90.0
 51
180.0
  0
ARC
  5
1A5
330
1F
100
AcDbEntity
  8
0
  6
HIDDEN
 62
     7
370
     0
100
AcDbCircle
 10
218.058143921
 20
114.3379535936
 30
0.0
 40
0.4000000000000057
100
AcDbArc
 50
180.0
 51
270.0
  0
LINE
  5
1A6
330
1F
100
AcDbEntity
  8
0
  6
HIDDEN
 62
     7
370
     0
100
AcDbLine
 10
222.6874441338
 20
130.2379539736
 30
0.0
 11
221.6581426991
 21
130.2379539736
 31
0.0
  0
LINE
  5
1A7
330
1F
100
AcDbEntity
  8
0
  6
HIDDEN
 62
     7
370
     0
100
AcDbLine
 10
238.1874457432
 20
130.2379539736
 30
0.0
 11
231.6084713174
 21
130.2379539736
 31
0.0
  0
LINE
  5
1A8
330
1F
100
AcDbEntity
  8
0
  6
HIDDEN
 62
     7
370
     0
100
AcDbLine
 10
253.6874473525
 20
130.2379539736
 30
0.0
 11
247.1084729267
 21
130.2379539736
 31
0.0
  0
LINE
  5
1A9
330
1F
100
AcDbEntity
  8
0
  6
HIDDEN
 62
     7
370
     0
100
AcDbLine
 10
268.3581471873
 20
130.2379539736
 30
0.0
 11
262.6084670854
 21
130.2379539736
 31
0.0
  0
LINE
  5
1AA
330
1F
100
AcDbEntity
  8
0
  6
HIDDEN
 62
     7
370
     0
100
AcDbLine
 10
221.6581426991
 20
114.2379532136
 30
0.0
 11
268.3581471873
 21
114.2379532136
 31
0.0
  0
LINE
  5
1AB
330
1F
100
AcDbEntity
  8
0
  6
HIDDEN
 62
     7
370
     0
100
AcDbLine
 10
175.0908563344
 20
84.6596725784
 30
0.0
 11
174.6581471024
 21
85.1378992699
 31
0.0
  0
LINE
  5
1AC
330
1F
100
AcDbEntity
  8
0
  6
HIDDEN
 62
     7
370
     0
100
AcDbLine
 10
162.6581442041
 20
85.7848592602
 30
0.0
 11
162.177516563
 21
85.306636294
 31
0.0
  0
LINE
  5
1AD
330
1F
100
AcDbEntity
  8
0
  6
HIDDEN
 62
     7
370
     0
100
AcDbLine
 10
162.1773992164
 20
159.1692671679
 30
0.0
 11
162.6581442041
 21
158.6909845971
 31
0.0
  0
LINE
  5
1AE
330
1F
100
AcDbEntity
  8
0
  6
HIDDEN
 62
     7
370
     0
100
AcDbLine
 10
174.6581443084
 20
159.3379594885
 30
0.0
 11
175.0909652991
 21
159.816238334
 31
0.0
  0
LINE
  5
1AF
330
1F
100
AcDbEntity
  8
0
  6
HIDDEN
 62
     7
370
     0
100
AcDbLine
 10
174.6581443084
 20
153.7038304411
 30
0.0
 11
174.6581443084
 21
159.3378067516
 31
0.0
  0
LINE
  5
1B0
330
1F
100
AcDbEntity
  8
0
  6
HIDDEN
 62
     7
370
     0
100
AcDbLine
 10
162.6581442041
 20
158.6909771465
 30
0.0
 11
162.6581442041
 21
153.7294753395
 31
0.0
  0
LINE
  5
1B1
330
1F
100
AcDbEntity
  8
0
  6
HIDDEN
 62
     7
370
     0
100
AcDbLine
 10
174.6581443084
 20
85.1380184792
 30
0.0
 11
174.6581443084
 21
90.7720767461
 31
0.0
  0
LINE
  5
1B2
330
1F
100
AcDbEntity
  8
0
  6
HIDDEN
 62
     7
370
     0
100
AcDbLine
 10
162.6581442041
 20
90.7464318477
 30
0.0
 11
162.6581442041
 21
85.7849002384
 31
0.0
  0
LINE
  5
1B3
330
1F
100
AcDbEntity
  8
0
  6
HIDDEN
 62
     7
370
     0
100
AcDbLine
 10
211.9581442756
 20
116.2379535414
 30
0.0
 11
217.6581457687
 21
116.2379535414
 31
0.0
  0
LINE
  5
1B4
330
1F
100
AcDbEntity
  8
0
  6
HIDDEN
 62
     7
370
     0
100
AcDbLine
 10
217.6581457687
 20
128.2379536458
 30
0.0
 11
211.9581442756
 21
128.2379536458
 31
0.0
  0
LINE
  5
1B5
330
1F
100
AcDbEntity
  8
0
  6
HIDDEN
 62
     7
370
     0
100
AcDbLine
 10
238.1581426097
 20
142.2379531466
 30
0.0
 11
238.1581426097
 21
130.2218467497
 31
0.0
  0
LINE
  5
1B6
330
1F
100
AcDbEntity
  8
0
  6
HIDDEN
 62
     7
370
     0
100
AcDbLine
 10
247.1581459475
 20
130.2102974184
 30
0.0
 11
247.1581459475
 21
142.2379531466
 31
0.0
  0
LINE
  5
1B7
330
1F
100
AcDbEntity
  8
0
  6
HIDDEN
 62
     7
370
     0
100
AcDbLine
 10
222.6581447256
 20
142.2379531466
 30
0.0
 11
222.6581447256
 21
130.2218467497
 31
0.0
  0
LINE
  5
1B8
330
1F
100
AcDbEntity
  8
0
  6
HIDDEN
 62
     7
370
     0
100
AcDbLine
 10
231.6581443382
 20
130.2102974184
 30
0.0
 11
231.6581443382
 21
142.2379531466
 31
0.0
  0
LINE
  5
1B9
330
1F
100
AcDbEntity
  8
0
  6
HIDDEN
 62
     7
370
     0
100
AcDbLine
 10
253.658144219
 20
142.2379531466
 30
0.0
 11
253.658144219
 21
130.2218467497
 31
0.0
  0
LINE
  5
1BA
330
1F
100
AcDbEntity
  8
0
  6
HIDDEN
 62
     7
370
     0
100
AcDbLine
 10
262.6581475569
 20
130.2102974184
 30
0.0
 11
262.6581475569
 21
142.2379531466
 31
0.0
  0
DIMENSION
  5
1BB
330
1F
100
AcDbEntity
  8
VERMASSUNG
100
AcDbDimension
  2
_D
 10
125.8749378349
 20
72.2379535936
 30
0.0
 11
125.8749378349
 21
121.6561057164
 31
0.0
 70
   160
  1
HSK T %%c<>
 71
     2
 42
-1.0
  3
SLDDIMSTYLE0
100
AcDbAlignedDimension
 13
184.158143921
 23
172.2379535936
 33
0.0
 14
184.158143921
 24
72.2379535936
 34
0.0
 50
90.0
100
AcDbRotatedDimension
  0
DIMENSION
  5
1C8
330
1F
100
AcDbEntity
  8
VERMASSUNG
100
AcDbDimension
  2
_D_1
 10
133.758143921
 20
189.4283376076
 30
0.0
 11
206.2361303746
 21
189.4283376076
 31
0.0
 70
   160
  1
<>
 71
     2
 42
-1.0
  3
SLDDIMSTYLE0
100
AcDbAlignedDimension
 13
268.658143921
 23
141.2379535936
 33
0.0
 14
133.758143921
 24
152.7406233362
 34
0.0
100
AcDbRotatedDimension
  0
DIMENSION
  5
1D2
330
1F
100
AcDbEntity
  8
VERMASSUNG
100
AcDbDimension
  2
_D_2
 10
268.658143921
 20
183.4283376076
 30
0.0
 11
225.075888159
 21
183.4283376076
 31
0.0
 70
   160
  1
<>
 71
     2
 42
-1.0
  3
SLDDIMSTYLE0
100
AcDbAlignedDimension
 13
183.658143921
 23
171.7379535936
 33
0.0
 14
268.658143921
 24
141.2379535936
 34
0.0
100
AcDbRotatedDimension
  0
DIMENSION
  5
1DC
330
1F
100
AcDbEntity
  8
VERMASSUNG
100
AcDbDimension
  2
_D_3
 10
268.658143921
 20
177.4283376076
 30
0.0
 11
239.5965143386
 21
177.4283376076
 31
0.0
 70
   160
  1
<>
 71
     2
 42
-1.0
  3
SLDDIMSTYLE0
100
AcDbAlignedDimension
 13
212.608143921
 23
170.2066934144
 33
0.0
 14
268.658143921
 24
141.2379535936
 34
0.0
100
AcDbRotatedDimension
  0
DIMENSION
  5
1E6
330
1F
100
AcDbEntity
  8
VERMASSUNG
100
AcDbDimension
  2
_D_4
 10
283.8162115808
 20
102.2379535936
 30
0.0
 11
283.8162115808
 21
122.5858812478
 31
0.0
 70
   160
  1
%%c<>
 71
     2
 42
-1.0
  3
SLDDIMSTYLE0
100
AcDbAlignedDimension
 13
267.658143921
 23
142.2379535936
 33
0.0
 14
267.658143921
 24
102.2379535936
 34
0.0
 50
90.0
100
AcDbRotatedDimension
  0
DIMENSION
  5
1F1
330
1F
100
AcDbEntity
  8
VERMASSUNG
100
AcDbDimension
  2
_D_5
 10
277.8162115808
 20
114.2379535936
 30
0.0
 11
277.8162115808
 21
121.6799699076
 31
0.0
 70
   160
  1
%%c<>
 71
     2
 42
-1.0
  3
SLDDIMSTYLE0
100
AcDbAlignedDimension
 13
268.358143921
 23
130.2379535936
 33
0.0
 14
268.358143921
 24
114.2379535936
 34
0.0
 50
90.0
100
AcDbRotatedDimension
  0
DIMENSION
  5
1FC
330
1F
100
AcDbEntity
  8
VERMASSUNG
100
AcDbDimension
  2
_D_6
 10
258.158143921
 20
96.0630285148
 30
0.0
 11
263.2444082894
 21
96.0630285148
 31
0.0
 70
   160
  1
<>
 71
     2
 42
-1.0
  3
SLDDIMSTYLE0
100
AcDbAlignedDimension
 13
268.658143921
 23
103.2379535936
 33
0.0
 14
258.158143921
 24
126.8523617053
 34
0.0
100
AcDbRotatedDimension
  0
DIMENSION
  5
206
330
1F
100
AcDbEntity
  8
VERMASSUNG
100
AcDbDimension
  2
_D_7
 10
242.658143921
 20
96.0630285148
 30
0.0
 11
250.8300592272
 21
96.0630285148
 31
0.0
 70
   160
  1
<>
 71
     2
 42
-1.0
  3
SLDDIMSTYLE0
100
AcDbAlignedDimension
 13
258.158143921
 23
126.8523617053
 33
0.0
 14
242.658143921
 24
126.8523617053
 34
0.0
100
AcDbRotatedDimension
  0
DIMENSION
  5
210
330
1F
100
AcDbEntity
  8
VERMASSUNG
100
AcDbDimension
  2
_D_8
 10
227.158143921
 20
96.0630285148
 30
0.0
 11
236.2875360401
 21
96.0630285148
 31
0.0
 70
   160
  1
<>
 71
     2
 42
-1.0
  3
SLDDIMSTYLE0
100
AcDbAlignedDimension
 13
242.658143921
 23
126.8523617053
 33
0.0
 14
227.158143921
 24
126.8523617053
 34
0.0
100
AcDbRotatedDimension
  0
DIMENSION
  5
21A
330
1F
100
AcDbEntity
  8
VERMASSUNG
100
AcDbDimension
  2
_D_9
 10
268.658143921
 20
90.0630285148
 30
0.0
 11
243.3704567247
 21
90.0630285148
 31
0.0
 70
   160
  1
<>
 71
     2
 42
-1.0
  3
SLDDIMSTYLE0
100
AcDbAlignedDimension
 13
217.658143921
 23
114.3379535936
 33
0.0
 14
268.658143921
 24
103.2379535936
 34
0.0
100
AcDbRotatedDimension
  0
LINE
  5
224
330
1F
100
AcDbEntity
  8
VERMASSUNG
  6
CENTERX2
 62
     7
370
     0
100
AcDbLine
 10
131.4507948705
 20
122.2379535936
 30
0.0
 11
272.0462814888
 21
122.2379535936
 31
0.0
  0
LINE
  5
225
330
1F
100
AcDbEntity
  8
VERMASSUNG
  6
CENTERX2
 62
     7
370
     0
100
AcDbLine
 10
258.158143921
 20
126.8523617053
 30
0.0
 11
258.158143921
 21
144.2379535936
 31
0.0
  0
LINE
  5
226
330
1F
100
AcDbEntity
  8
VERMASSUNG
  6
CENTERX2
 62
     7
370
     0
100
AcDbLine
 10
242.658143921
 20
126.8523617053
 30
0.0
 11
242.658143921
 21
144.2379535936
 31
0.0
  0
LINE
  5
227
330
1F
100
AcDbEntity
  8
VERMASSUNG
  6
CENTERX2
 62
     7
370
     0
100
AcDbLine
 10
227.158143921
 20
126.8523617053
 30
0.0
 11
227.158143921
 21
143.7251289542
 31
0.0
  0
LINE
  5
228
330
1F
100
AcDbEntity
  8
0
  6
Continuous
 62
     7
370
    15
100
AcDbLine
 10
69.9243268593
 20
141.6584730648
 30
0.0
 11
69.3448458461
 21
142.2379531466
 31
0.0
  0
LINE
  5
229
330
1F
100
AcDbEntity
  8
0
  6
Continuous
 62
     7
370
    15
100
AcDbLine
 10
60.9448461456
 20
142.2379531466
 30
0.0
 11
60.3653651325
 21
141.6584730648
 31
0.0
  0
LINE
  5
22A
330
1F
100
AcDbEntity
  8
0
  6
Continuous
 62
     7
370
    15
100
AcDbLine
 10
45.7243265247
 20
127.017434457
 30
0.0
 11
45.1448464429
 21
126.4379534438
 31
0.0
  0
LINE
  5
22B
330
1F
100
AcDbEntity
  8
0
  6
Continuous
 62
     7
370
    15
100
AcDbLine
 10
45.1448464429
 20
118.0379537434
 30
0.0
 11
45.7243265247
 21
117.4584727302
 31
0.0
  0
LINE
  5
22C
330
1F
100
AcDbEntity
  8
0
  6
Continuous
 62
     7
370
    15
100
AcDbLine
 10
84.5653654671
 20
117.4584727302
 30
0.0
 11
85.1448455489
 21
118.0379537434
 31
0.0
  0
LINE
  5
22D
330
1F
100
AcDbEntity
  8
0
  6
Continuous
 62
     7
370
    15
100
AcDbLine
 10
85.1448455489
 20
126.4379534438
 30
0.0
 11
84.5653654671
 21
127.017434457
 31
0.0
  0
LINE
  5
22E
330
1F
100
AcDbEntity
  8
0
  6
Continuous
 62
     7
370
    15
100
AcDbLine
 10
60.9448461456
 20
142.2379531466
 30
0.0
 11
69.3448458461
 21
142.2379531466
 31
0.0
  0
LINE
  5
22F
330
1F
100
AcDbEntity
  8
0
  6
Continuous
 62
     7
370
    15
100
AcDbLine
 10
62.360963797
 20
129.737953426
 30
0.0
 11
67.9287281947
 21
129.737953426
 31
0.0
  0
LINE
  5
230
330
1F
100
AcDbEntity
  8
0
  6
Continuous
 62
     7
370
    15
100
AcDbLine
 10
57.6448461635
 20
120.800948938
 30
0.0
 11
57.6448461635
 21
125.0218357925
 31
0.0
  0
LINE
  5
231
330
1F
100
AcDbEntity
  8
0
  6
Continuous
 62
     7
370
    15
100
AcDbLine
 10
57.6448461635
 20
119.4540713947
 30
0.0
 11
57.6448461635
 21
120.800948938
 31
0.0
  0
LINE
  5
232
330
1F
100
AcDbEntity
  8
0
  6
Continuous
 62
     7
370
    15
100
AcDbLine
 10
45.1448464429
 20
120.5135480302
 30
0.0
 11
45.1448464429
 21
126.4379534438
 31
0.0
  0
LINE
  5
233
330
1F
100
AcDbEntity
  8
0
  6
Continuous
 62
     7
370
    15
100
AcDbLine
 10
45.1448464429
 20
118.0379537434
 30
0.0
 11
45.1448464429
 21
120.5135480302
 31
0.0
  0
LINE
  5
234
330
1F
100
AcDbEntity
  8
0
  6
Continuous
 62
     7
370
    15
100
AcDbLine
 10
85.1448455489
 20
126.4379534438
 30
0.0
 11
85.1448455489
 21
118.0379537434
 31
0.0
  0
LINE
  5
235
330
1F
100
AcDbEntity
  8
0
  6
Continuous
 62
     7
370
    15
100
AcDbLine
 10
72.6448458283
 20
125.0218357925
 30
0.0
 11
72.6448458283
 21
119.4540713947
 31
0.0
  0
CIRCLE
  5
236
330
1F
100
AcDbEntity
  8
0
  6
Continuous
 62
     7
370
    15
100
AcDbCircle
 10
65.1448459959
 20
122.2379535936
 30
0.0
 40
20.0
  0
CIRCLE
  5
237
330
1F
100
AcDbEntity
  8
0
  6
Continuous
 62
     7
370
    15
100
AcDbCircle
 10
65.1448459959
 20
122.2379535936
 30
0.0
 40
7.999999999999993
  0
CIRCLE
  5
238
330
1F
100
AcDbEntity
  8
0
  6
Continuous
 62
     7
370
    15
100
AcDbCircle
 10
65.1448459959
 20
122.2379535936
 30
0.0
 40
5.999999999999993
  0
SPLINE
  5
239
330
1F
100
AcDbEntity
  8
0
  6
Continuous
 62
     7
370
    15
100
AcDbSpline
210
0.0
220
0.0
230
1.0
 70
    24
 71
     3
 72
    12
 73
     8
 74
     0
 42
0.00000001
 43
0.00000001
 12
1.0
 22
0.0
 32
0.0
 13
1.0
 23
0.0
 33
0.0
 40
0.0
 40
0.0
 40
0.0
 40
0.0
 40
0.4999999999999953
 40
0.4999999999999953
 40
0.7499999999999977
 40
0.7499999999999977
 40
1.0
 40
1.0
 40
1.0
 40
1.0
 10
55.14484599589326
 20
170.2066934144449
 30
0.0
 10
55.14484599589326
 20
170.4719628472113
 30
0.0
 10
55.14484599589326
 20
170.7344779528637
 30
0.0
 10
55.14484599589326
 20
171.020015558901
 30
0.0
 10
55.14484599589326
 20
171.0963371757624
 30
0.0
 10
55.14484599589326
 20
171.2006793406025
 30
0.0
 10
55.14484599589326
 20
171.2277484492626
 30
0.0
 10
55.14484599589326
 20
171.2277484492626
 30
0.0
  0
SPLINE
  5
23A
330
1F
100
AcDbEntity
  8
0
  6
Continuous
 62
     7
370
    15
100
AcDbSpline
210
0.0
220
0.0
230
1.0
 70
    24
 71
     3
 72
    16
 73
    12
 74
     0
 42
0.00000001
 43
0.00000001
 12
1.0
 22
0.0
 32
0.0
 13
1.0
 23
0.0
 33
0.0
 40
0.0
 40
0.0
 40
0.0
 40
0.0
 40
0.1249999999999978
 40
0.1249999999999978
 40
0.2499999999999955
 40
0.2499999999999955
 40
0.499999999999997
 40
0.499999999999997
 40
0.7499999999999984
 40
0.7499999999999984
 40
1.0
 40
1.0
 40
1.0
 40
1.0
 10
33.79484599589325
 20
161.188916354486
 30
0.0
 10
33.79484599589325
 20
161.188916354486
 30
0.0
 10
33.79484599589325
 20
161.1775713543511
 30
0.0
 10
33.79484599589325
 20
161.1349188037125
 30
0.0
 10
33.79484599589323
 20
161.1039844790297
 30
0.0
 10
33.79484599589325
 20
160.9847281072621
 30
0.0
 10
33.79484599589324
 20
160.8745760936415
 30
0.0
 10
33.79484599589324
 20
160.6264400079834
 30
0.0
 10
33.79484599589324
 20
160.4860976839798
 30
0.0
 10
33.79484599589325
 20
160.1978259924911
 30
0.0
 10
33.79484599589326
 20
160.0470210195113
 30
0.0
 10
33.79484599589325
 20
159.896651128166
 30
0.0
  0
ARC
  5
23B
330
1F
100
AcDbEntity
  8
0
  6
Continuous
 62
     7
370
    15
100
AcDbCircle
 10
65.1448459959
 20
122.2379535936
 30
0.0
 40
50.00000000000001
100
AcDbArc
 50
101.5369590328
 51
128.8291331614
  0
SPLINE
  5
23C
330
1F
100
AcDbEntity
  8
0
  6
Continuous
 62
     7
370
    15
100
AcDbSpline
210
0.0
220
0.0
230
1.0
 70
    24
 71
     3
 72
    14
 73
    10
 74
     0
 42
0.00000001
 43
0.00000001
 12
1.0
 22
0.0
 32
0.0
 13
1.0
 23
0.0
 33
0.0
 40
0.0
 40
0.0
 40
0.0
 40
0.0
 40
0.25
 40
0.25
 40
0.5
 40
0.5
 40
0.75
 40
0.75
 40
1.0
 40
1.0
 40
1.0
 40
1.0
 10
54.14484599589326
 20
74.48860804834575
 30
0.0
 10
54.14484599589326
 20
74.35518235229122
 30
0.0
 10
54.14484599589326
 20
74.22333454444689
 30
0.0
 10
54.14484599589326
 20
73.97681199575275
 30
0.0
 10
54.14484599589326
 20
73.86300680751224
 30
0.0
 10
54.14484599589326
 20
73.67254963056494
 30
0.0
 10
54.14484599589326
 20
73.59491476671504
 30
0.0
 10
54.14484599589326
 20
73.49062335660255
 30
0.0
 10
54.14484599589326
 20
73.4629600005702
 30
0.0
 10
54.14484599589326
 20
73.46296000057022
 30
0.0
  0
ARC
  5
23D
330
1F
100
AcDbEntity
  8
0
  6
Continuous
 62
     7
370
    15
100
AcDbCircle
 10
65.1448459959
 20
122.2379535936
 30
0.0
 40
49.99999999999999
100
AcDbArc
 50
141.1708668386
 51
257.2909670056
  0
SPLINE
  5
23E
330
1F
100
AcDbEntity
  8
0
  6
Continuous
 62
     7
370
    15
100
AcDbSpline
210
0.0
220
0.0
230
1.0
 70
    24
 71
     3
 72
    12
 73
     8
 74
     0
 42
0.00000001
 43
0.00000001
 12
1.0
 22
0.0
 32
0.0
 13
1.0
 23
0.0
 33
0.0
 40
0.0
 40
0.0
 40
0.0
 40
0.0
 40
0.2500000000000032
 40
0.2500000000000032
 40
0.5000000000000064
 40
0.5000000000000064
 40
1.0
 40
1.0
 40
1.0
 40
1.0
 10
26.19388323500633
 20
153.5879535935991
 30
0.0
 10
26.19388323500633
 20
153.5879535935991
 30
0.0
 10
26.23962202167981
 20
153.5879535935991
 30
0.0
 10
26.39685671360582
 20
153.5879535935991
 30
0.0
 10
26.50752592788467
 20
153.5879535935991
 30
0.0
 10
26.88096267576419
 20
153.5879535935991
 30
0.0
 10
27.18532644908407
 20
153.5879535935991
 30
0.0
 10
27.48614846132629
 20
153.5879535935991
 30
0.0
  0
SPLINE
  5
23F
330
1F
100
AcDbEntity
  8
0
  6
Continuous
 62
     7
370
    15
100
AcDbSpline
210
0.0
220
0.0
230
1.0
 70
    24
 71
     3
 72
    14
 73
    10
 74
     0
 42
0.00000001
 43
0.00000001
 12
1.0
 22
0.0
 32
0.0
 13
1.0
 23
0.0
 33
0.0
 40
0.0
 40
0.0
 40
0.0
 40
0.0
 40
0.25
 40
0.25
 40
0.5
 40
0.5
 40
0.75
 40
0.75
 40
1.0
 40
1.0
 40
1.0
 40
1.0
 10
75.14484599589326
 20
171.2277484492626
 30
0.0
 10
75.14484599589326
 20
171.2277484492626
 30
0.0
 10
75.14484599589326
 20
171.1999420018142
 30
0.0
 10
75.14484599589326
 20
171.0960829923501
 30
0.0
 10
75.14484599589326
 20
171.0188919837777
 30
0.0
 10
75.14484599589326
 20
170.8297449060648
 30
0.0
 10
75.14484599589326
 20
170.7160406863621
 30
0.0
 10
75.14484599589326
 20
170.4712419193267
 30
0.0
 10
75.14484599589326
 20
170.339113105397
 30
0.0
 10
75.14484599589326
 20
170.2066934144449
 30
0.0
  0
ARC
  5
240
330
1F
100
AcDbEntity
  8
0
  6
Continuous
 62
     7
370
    15
100
AcDbCircle
 10
65.1448459959
 20
122.2379535936
 30
0.0
 40
50.0
100
AcDbArc
 50
282.7090329944
 51
78.4630409672
  0
SPLINE
  5
241
330
1F
100
AcDbEntity
  8
0
  6
Continuous
 62
     7
370
    15
100
AcDbSpline
210
0.0
220
0.0
230
1.0
 70
    24
 71
     3
 72
    14
 73
    10
 74
     0
 42
0.00000001
 43
0.00000001
 12
1.0
 22
0.0
 32
0.0
 13
1.0
 23
0.0
 33
0.0
 40
0.0
 40
0.0
 40
0.0
 40
0.0
 40
0.25
 40
0.25
 40
0.5
 40
0.5
 40
0.75
 40
0.75
 40
1.0
 40
1.0
 40
1.0
 40
1.0
 10
76.14484599589326
 20
73.46296000057026
 30
0.0
 10
76.14484599589326
 20
73.46296000057026
 30
0.0
 10
76.14484599589326
 20
73.49042597717273
 30
0.0
 10
76.14484599589326
 20
73.5955195339394
 30
0.0
 10
76.14484599589326
 20
73.67301695662498
 30
0.0
 10
76.14484599589326
 20
73.86350056996115
 30
0.0
 10
76.14484599589326
 20
73.97790161963667
 30
0.0
 10
76.14484599589326
 20
74.22316351809951
 30
0.0
 10
76.14484599589326
 20
74.35642271291829
 30
0.0
 10
76.14484599589326
 20
74.48860804834665
 30
0.0
  0
LINE
  5
242
330
1F
100
AcDbEntity
  8
0
  6
Continuous
 62
     7
370
    15
100
AcDbLine
 10
75.1448457724
 20
166.1379553877
 30
0.0
 11
55.1448462194
 21
166.1379553877
 31
0.0
  0
LINE
  5
243
330
1F
100
AcDbEntity
  8
0
  6
Continuous
 62
     7
370
    15
100
AcDbLine
 10
76.1448459363
 20
78.3379517995
 30
0.0
 11
54.1448460555
 21
78.3379517995
 31
0.0
  0
LINE
  5
244
330
1F
100
AcDbEntity
  8
0
  6
Continuous
 62
     7
370
    15
100
AcDbLine
 10
76.1448459363
 20
74.4886093341
 30
0.0
 11
76.1448459363
 21
78.3379517995
 31
0.0
  0
LINE
  5
245
330
1F
100
AcDbEntity
  8
0
  6
Continuous
 62
     7
370
    15
100
AcDbLine
 10
75.1448457724
 20
170.2066950999
 30
0.0
 11
75.1448457724
 21
166.1379553877
 31
0.0
  0
LINE
  5
246
330
1F
100
AcDbEntity
  8
0
  6
Continuous
 62
     7
370
    15
100
AcDbLine
 10
55.1448462194
 20
166.1379553877
 30
0.0
 11
55.1448462194
 21
170.2066950999
 31
0.0
  0
LINE
  5
247
330
1F
100
AcDbEntity
  8
0
  6
Continuous
 62
     7
370
    15
100
AcDbLine
 10
54.1448460555
 20
78.3379517995
 30
0.0
 11
54.1448460555
 21
74.4886093341
 31
0.0
  0
LINE
  5
248
330
1F
100
AcDbEntity
  8
0
  6
Continuous
 62
     7
370
    15
100
AcDbLine
 10
27.4861471391
 20
153.5879552864
 30
0.0
 11
33.7948443031
 21
153.5879552864
 31
0.0
  0
LINE
  5
249
330
1F
100
AcDbEntity
  8
0
  6
Continuous
 62
     7
370
    15
100
AcDbLine
 10
33.7948443031
 20
159.8966524504
 30
0.0
 11
33.7948443031
 21
153.5879552864
 31
0.0
  0
SPLINE
  5
24A
330
1F
100
AcDbEntity
  8
0
  6
Continuous
 62
     7
370
    15
100
AcDbSpline
210
0.0
220
0.0
230
1.0
 70
     8
 71
     3
 72
    30
 73
    26
 74
     0
 42
0.00000001
 43
0.00000001
 12
1.0
 22
0.0
 32
0.0
 13
1.0
 23
0.0
 33
0.0
 40
0.0
 40
0.0
 40
0.0
 40
0.0
 40
0.1249999999999996
 40
0.1249999999999996
 40
0.1874999999999994
 40
0.1874999999999994
 40
0.2499999999999993
 40
0.2499999999999993
 40
0.3749999999999992
 40
0.3749999999999992
 40
0.4374999999999993
 40
0.4374999999999993
 40
0.4999999999999994
 40
0.4999999999999994
 40
0.6249999999999992
 40
0.6249999999999992
 40
0.6874999999999993
 40
0.6874999999999993
 40
0.7499999999999994
 40
0.7499999999999994
 40
0.8124999999999997
 40
0.8124999999999997
 40
0.8749999999999998
 40
0.8749999999999998
 40
1.0
 40
1.0
 40
1.0
 40
1.0
 10
66.14484599589325
 20
72.2479545937991
 30
0.0
 10
66.80744879371026
 20
72.26120930096202
 30
0.0
 10
67.45837289330561
 20
72.2873941717466
 30
0.0
 10
68.41809166120333
 20
72.34418082454708
 30
0.0
 10
68.73520002083812
 20
72.36603037542258
 30
0.0
 10
69.3637269330449
 20
72.41526387152298
 30
0.0
 10
69.67569286313332
 20
72.4427362602765
 30
0.0
 10
70.58257018912813
 20
72.53080998196982
 30
0.0
 10
71.15568763290878
 20
72.59755683794985
 30
0.0
 10
71.96910770780117
 20
72.7050932491946
 30
0.0
 10
72.23366269981754
 20
72.74235354270324
 30
0.0
 10
72.74092538722523
 20
72.81766095443457
 30
0.0
 10
72.98246965985925
 20
72.85550837945337
 30
0.0
 10
73.67199968935624
 20
72.96824068605011
 30
0.0
 10
74.08523048297369
 20
73.04234429113447
 30
0.0
 10
74.63361019213497
 20
73.14622347148465
 30
0.0
 10
74.80356494567526
 20
73.17947922454313
 30
0.0
 10
75.11214553474234
 20
73.24124248894373
 30
0.0
 10
75.2517411809331
 20
73.26993348049405
 30
0.0
 10
75.50186493016675
 20
73.32222521433499
 30
0.0
 10
75.61239349365938
 20
73.34582702524183
 30
0.0
 10
75.80383976487346
 20
73.38720699923171
 30
0.0
 10
75.88503765212471
 20
73.40504772587616
 30
0.0
 10
76.07960438188563
 20
73.44811132869883
 30
0.0
 10
76.14484599589326
 20
73.46296000057025
 30
0.0
 10
76.14484599589326
 20
73.46296000057026
 30
0.0
  0
SPLINE
  5
24B
330
1F
100
AcDbEntity
  8
0
  6
Continuous
 62
     7
370
    15
100
AcDbSpline
210
0.0
220
0.0
230
1.0
 70
     8
 71
     3
 72
    30
 73
    26
 74
     0
 42
0.00000001
 43
0.00000001
 12
1.0
 22
0.0
 32
0.0
 13
1.0
 23
0.0
 33
0.0
 40
0.0
 40
0.0
 40
0.0
 40
0.0
 40
0.1250000000000002
 40
0.1250000000000002
 40
0.1875000000000003
 40
0.1875000000000003
 40
0.2500000000000004
 40
0.2500000000000004
 40
0.3750000000000001
 40
0.3750000000000001
 40
0.4374999999999998
 40
0.4374999999999998
 40
0.4999999999999996
 40
0.4999999999999996
 40
0.6249999999999996
 40
0.6249999999999996
 40
0.6874999999999997
 40
0.6874999999999997
 40
0.7499999999999997
 40
0.7499999999999997
 40
0.8124999999999998
 40
0.8124999999999998
 40
0.8749999999999999
 40
0.8749999999999999
 40
1.0
 40
1.0
 40
1.0
 40
1.0
 10
54.14484599589326
 20
73.46296000057026
 30
0.0
 10
54.14484599589326
 20
73.46296000057026
 30
0.0
 10
54.21007536966058
 20
73.44811992398145
 30
0.0
 10
54.40146678506954
 20
73.40575035975183
 30
0.0
 10
54.48097281472143
 20
73.38827225697266
 30
0.0
 10
54.67208437632453
 20
73.34694397042036
 30
0.0
 10
54.78407325789836
 20
73.32301869696265
 30
0.0
 10
55.16090023140769
 20
73.24421218049574
 30
0.0
 10
55.46804758110683
 20
73.18190616051929
 30
0.0
 10
56.01197157076437
 20
73.07877684027991
 30
0.0
 10
56.20833867047229
 20
73.0425929212334
 30
0.0
 10
56.62457631364964
 20
72.9687981370329
 30
0.0
 10
56.84361288611949
 20
72.93132427826126
 30
0.0
 10
57.53266024605077
 20
72.81861233492151
 30
0.0
 10
58.03428943148243
 20
72.74307623744775
 30
0.0
 10
58.85268664748336
 20
72.63468298043024
 30
0.0
 10
59.13496631249112
 20
72.59961074876698
 30
0.0
 10
59.70990076440771
 20
72.53337528816714
 30
0.0
 10
60.00376213868276
 20
72.5020485914124
 30
0.0
 10
60.60421768992236
 20
72.44363981983149
 30
0.0
 10
60.91081148974022
 20
72.41655658464863
 30
0.0
 10
61.5370430503966
 20
72.36729683003504
 30
0.0
 10
61.85828448444924
 20
72.34503485022739
 30
0.0
 10
62.82788840457467
 20
72.28746794305913
 30
0.0
 10
63.48229132289342
 20
72.26120833827312
 30
0.0
 10
64.14484599589325
 20
72.2479545937991
 30
0.0
  0
SPLINE
  5
24C
330
1F
100
AcDbEntity
  8
0
  6
Continuous
 62
     7
370
    15
100
AcDbSpline
210
0.0
220
0.0
230
1.0
 70
     8
 71
     3
 72
    54
 73
    50
 74
     0
 42
0.00000001
 43
0.00000001
 12
1.0
 22
0.0
 32
0.0
 13
1.0
 23
0.0
 33
0.0
 40
0.0
 40
0.0
 40
0.0
 40
0.0
 40
0.0625000000000001
 40
0.0625000000000001
 40
0.0937500000000001
 40
0.0937500000000001
 40
0.1250000000000001
 40
0.1250000000000001
 40
0.1875000000000002
 40
0.1875000000000002
 40
0.2187500000000001
 40
0.2187500000000001
 40
0.2500000000000001
 40
0.2500000000000001
 40
0.3125
 40
0.3125
 40
0.3437499999999999
 40
0.3437499999999999
 40
0.3749999999999999
 40
0.3749999999999999
 40
0.4062499999999998
 40
0.4062499999999998
 40
0.4374999999999998
 40
0.4374999999999998
 40
0.4999999999999997
 40
0.4999999999999997
 40
0.5624999999999997
 40
0.5624999999999997
 40
0.6249999999999996
 40
0.6249999999999996
 40
0.6562499999999994
 40
0.6562499999999994
 40
0.6874999999999994
 40
0.6874999999999994
 40
0.7187499999999993
 40
0.7187499999999993
 40
0.7499999999999993
 40
0.7499999999999993
 40
0.8124999999999992
 40
0.8124999999999992
 40
0.8437499999999992
 40
0.8437499999999992
 40
0.8749999999999993
 40
0.8749999999999993
 40
0.9374999999999997
 40
0.9374999999999997
 40
0.9687499999999998
 40
0.9687499999999998
 40
1.0
 40
1.0
 40
1.0
 40
1.0
 10
55.14484599589326
 20
171.2277484492626
 30
0.0
 10
55.14484599589326
 20
171.2277484492626
 30
0.0
 10
55.20999887934595
 20
171.2411750590513
 30
0.0
 10
55.40121780251108
 20
171.2794251756638
 30
0.0
 10
55.4806563427087
 20
171.2951946659772
 30
0.0
 10
55.67161918817447
 20
171.3324282026186
 30
0.0
 10
55.78356013670291
 20
171.3539658111307
 30
0.0
 10
56.16031945493061
 20
171.4247770242245
 30
0.0
 10
56.46747701858132
 20
171.4806033914894
 30
0.0
 10
57.01152477134039
 20
171.5723524318312
 30
0.0
 10
57.2079043167662
 20
171.6044344271113
 30
0.0
 10
57.62460820423622
 20
171.6696286275318
 30
0.0
 10
57.8438957197823
 20
171.7025882098347
 30
0.0
 10
58.53372363703642
 20
171.8011341994076
 30
0.0
 10
59.03591165183626
 20
171.8664021191814
 30
0.0
 10
59.8550873919866
 20
171.9581099628372
 30
0.0
 10
60.13796327403956
 20
171.9874738292509
 30
0.0
 10
60.71378707422684
 20
172.0420634149849
 30
0.0
 10
61.00805030826564
 20
172.0674408591157
 30
0.0
 10
61.60919830824405
 20
172.1136999552755
 30
0.0
 10
61.91608277668494
 20
172.1345827678674
 30
0.0
 10
62.54275634705449
 20
172.1711854571543
 30
0.0
 10
62.86444688292331
 20
172.1869692970607
 30
0.0
 10
63.83298632364484
 20
172.2249177306289
 30
0.0
 10
64.4828242258882
 20
172.2378468022894
 30
0.0
 10
65.79063719895723
 20
172.2380590677523
 30
0.0
 10
66.45506469783717
 20
172.2249112881491
 30
0.0
 10
67.73878379710523
 20
172.1747546453996
 30
0.0
 10
68.36292351250749
 20
172.1379919437654
 30
0.0
 10
69.27248079017261
 20
172.0682164222036
 30
0.0
 10
69.57208788395941
 20
172.0424079107381
 30
0.0
 10
70.14964141734748
 20
171.9876889029736
 30
0.0
 10
70.42912216584658
 20
171.9586782535572
 30
0.0
 10
70.96994236160937
 20
171.8982222968777
 30
0.0
 10
71.23128119476577
 20
171.8667754873371
 30
0.0
 10
71.73572891499467
 20
171.8023048789447
 30
0.0
 10
71.97976453520198
 20
171.7691460529582
 30
0.0
 10
72.67713567616715
 20
171.6695746848874
 30
0.0
 10
73.08978520917219
 20
171.6040636994226
 30
0.0
 10
73.63303128058055
 20
171.512535601908
 30
0.0
 10
73.80139684168151
 20
171.4831464153634
 30
0.0
 10
74.11198063266353
 20
171.4275397374618
 30
0.0
 10
74.25374937485294
 20
171.4013972258877
 30
0.0
 10
74.63029661636067
 20
171.3306360293395
 30
0.0
 10
74.82039324907574
 20
171.2930356056719
 30
0.0
 10
75.01377809962183
 20
171.2543641169833
 30
0.0
 10
75.0629387130543
 20
171.2444077962439
 30
0.0
 10
75.12843478082613
 20
171.2311069074601
 30
0.0
 10
75.14484599589326
 20
171.2277484492626
 30
0.0
 10
75.14484599589326
 20
171.2277484492626
 30
0.0
  0
SPLINE
  5
24D
330
1F
100
AcDbEntity
  8
0
  6
Continuous
 62
     7
370
    15
100
AcDbSpline
210
0.0
220
0.0
230
1.0
 70
     8
 71
     3
 72
    22
 73
    18
 74
     0
 42
0.00000001
 43
0.00000001
 12
1.0
 22
0.0
 32
0.0
 13
1.0
 23
0.0
 33
0.0
 40
0.0
 40
0.0
 40
0.0
 40
0.0
 40
0.2500000000000002
 40
0.2500000000000002
 40
0.3750000000000003
 40
0.3750000000000003
 40
0.5000000000000004
 40
0.5000000000000004
 40
0.6250000000000004
 40
0.6250000000000004
 40
0.7500000000000004
 40
0.7500000000000004
 40
0.8750000000000004
 40
0.8750000000000004
 40
0.9375000000000002
 40
0.9375000000000002
 40
1.0
 40
1.0
 40
1.0
 40
1.0
 10
26.19388323500633
 20
153.5879535935991
 30
0.0
 10
27.01423196460286
 20
154.6071999354637
 30
0.0
 10
27.85238257857307
 20
155.566308085403
 30
0.0
 10
29.1127761160645
 20
156.9087871629123
 30
0.0
 10
29.53630326991773
 20
157.3429957456523
 30
0.0
 10
30.35511870190456
 20
158.1546234611544
 30
0.0
 10
30.75195508534392
 20
158.5339037540912
 30
0.0
 10
31.50933358232867
 20
159.2368623331122
 30
0.0
 10
31.87162173604395
 20
159.5618911508128
 30
0.0
 10
32.51646851505097
 20
160.1269064742037
 30
0.0
 10
32.80292885877515
 20
160.3706100684102
 30
0.0
 10
33.28562766670871
 20
160.7748099960552
 30
0.0
 10
33.47205799010752
 20
160.9272471891007
 30
0.0
 10
33.66307122075044
 20
161.0825747367094
 30
0.0
 10
33.71195633133378
 20
161.1220795167594
 30
0.0
 10
33.77801712078774
 20
161.1753886374281
 30
0.0
 10
33.79484599589325
 20
161.188916354486
 30
0.0
 10
33.79484599589326
 20
161.188916354486
 30
0.0
  0
ARC
  5
24E
330
1F
100
AcDbEntity
  8
0
  6
Continuous
 62
     7
370
    15
100
AcDbCircle
 10
65.1448459959
 20
122.2379535936
 30
0.0
 40
50.00000000000001
100
AcDbArc
 50
268.8540080016
 51
271.1459919984
  0
LINE
  5
24F
330
1F
100
AcDbEntity
  8
0
  6
HIDDEN
 62
     7
370
     0
100
AcDbLine
 10
69.3301211706
 20
142.2379531466
 30
0.0
 11
60.9461136757
 21
142.2379531466
 31
0.0
  0
LINE
  5
250
330
1F
100
AcDbEntity
  8
0
  6
HIDDEN
 62
     7
370
     0
100
AcDbLine
 10
70.1300355269
 20
141.4379545056
 30
0.0
 11
60.1463287732
 21
141.4379545056
 31
0.0
  0
LINE
  5
251
330
1F
100
AcDbEntity
  8
0
  6
HIDDEN
 62
     7
370
     0
100
AcDbLine
 10
70.1300355269
 20
131.2379532062
 30
0.0
 11
60.1463287732
 21
131.2379532062
 31
0.0
  0
LINE
  5
252
330
1F
100
AcDbEntity
  8
0
  6
HIDDEN
 62
     7
370
     0
100
AcDbLine
 10
68.6447115278
 20
129.737953426
 30
0.0
 11
61.644980464
 21
129.737953426
 31
0.0
  0
LINE
  5
253
330
1F
100
AcDbEntity
  8
0
  6
HIDDEN
 62
     7
370
     0
100
AcDbLine
 10
65.7470327698
 20
142.2379531466
 30
0.0
 11
63.0009386352
 21
142.2379531466
 31
0.0
  0
LINE
  5
254
330
1F
100
AcDbEntity
  8
0
  6
HIDDEN
 62
     7
370
     0
100
AcDbLine
 10
65.7470327698
 20
136.2379540257
 30
0.0
 11
63.0009386352
 21
136.2379540257
 31
0.0
  0
LINE
  5
255
330
1F
100
AcDbEntity
  8
0
  6
HIDDEN
 62
     7
370
     0
100
AcDbLine
 10
67.6259426529
 20
129.737953426
 30
0.0
 11
62.6637493389
 21
129.737953426
 31
0.0
  0
LINE
  5
256
330
1F
100
AcDbEntity
  8
0
  6
HIDDEN
 62
     7
370
     0
100
AcDbLine
 10
67.8909400141
 20
136.2379540257
 30
0.0
 11
65.7470327698
 21
136.2379540257
 31
0.0
  0
LINE
  5
257
330
1F
100
AcDbEntity
  8
0
  6
HIDDEN
 62
     7
370
     0
100
AcDbLine
 10
65.7470327698
 20
136.2379540257
 30
0.0
 11
65.7470327698
 21
142.2379531466
 31
0.0
  0
LINE
  5
258
330
1F
100
AcDbEntity
  8
0
  6
HIDDEN
 62
     7
370
     0
100
AcDbLine
 10
67.8909400141
 20
142.2379531466
 30
0.0
 11
65.7470327698
 21
142.2379531466
 31
0.0
  0
LINE
  5
259
330
1F
100
AcDbEntity
  8
0
  6
HIDDEN
 62
     7
370
     0
100
AcDbLine
 10
62.3987519777
 20
136.2379540257
 30
0.0
 11
63.0009386352
 21
136.2379540257
 31
0.0
  0
LINE
  5
25A
330
1F
100
AcDbEntity
  8
0
  6
HIDDEN
 62
     7
370
     0
100
AcDbLine
 10
63.0009386352
 20
136.2379540257
 30
0.0
 11
63.0009386352
 21
142.2379531466
 31
0.0
  0
LINE
  5
25B
330
1F
100
AcDbEntity
  8
0
  6
HIDDEN
 62
     7
370
     0
100
AcDbLine
 10
62.3987519777
 20
142.2379531466
 30
0.0
 11
63.0009386352
 21
142.2379531466
 31
0.0
  0
LINE
  5
25C
330
1F
100
AcDbEntity
  8
0
  6
HIDDEN
 62
     7
370
     0
100
AcDbLine
 10
67.2887533566
 20
136.2379540257
 30
0.0
 11
67.2887533566
 21
142.2379531466
 31
0.0
  0
LINE
  5
25D
330
1F
100
AcDbEntity
  8
0
  6
HIDDEN
 62
     7
370
     0
100
AcDbLine
 10
67.8909400141
 20
136.2379540257
 30
0.0
 11
67.8909400141
 21
142.2379531466
 31
0.0
  0
LINE
  5
25E
330
1F
100
AcDbEntity
  8
0
  6
HIDDEN
 62
     7
370
     0
100
AcDbLine
 10
67.8909400141
 20
136.2379540257
 30
0.0
 11
67.2887533566
 21
136.2379540257
 31
0.0
  0
LINE
  5
25F
330
1F
100
AcDbEntity
  8
0
  6
HIDDEN
 62
     7
370
     0
100
AcDbLine
 10
67.8909400141
 20
142.2379531466
 30
0.0
 11
67.2887533566
 21
142.2379531466
 31
0.0
  0
LINE
  5
260
330
1F
100
AcDbEntity
  8
0
  6
HIDDEN
 62
     7
370
     0
100
AcDbLine
 10
64.542659222
 20
136.2379540257
 30
0.0
 11
64.542659222
 21
142.2379531466
 31
0.0
  0
LINE
  5
261
330
1F
100
AcDbEntity
  8
0
  6
HIDDEN
 62
     7
370
     0
100
AcDbLine
 10
62.3987519777
 20
136.2379540257
 30
0.0
 11
62.3987519777
 21
142.2379531466
 31
0.0
  0
LINE
  5
262
330
1F
100
AcDbEntity
  8
0
  6
HIDDEN
 62
     7
370
     0
100
AcDbLine
 10
64.542659222
 20
136.2379540257
 30
0.0
 11
62.3987519777
 21
136.2379540257
 31
0.0
  0
LINE
  5
263
330
1F
100
AcDbEntity
  8
0
  6
HIDDEN
 62
     7
370
     0
100
AcDbLine
 10
64.542659222
 20
142.2379531466
 30
0.0
 11
62.3987519777
 21
142.2379531466
 31
0.0
  0
LINE
  5
264
330
1F
100
AcDbEntity
  8
0
  6
HIDDEN
 62
     7
370
     0
100
AcDbLine
 10
64.542659222
 20
136.2379540257
 30
0.0
 11
67.2887533566
 21
136.2379540257
 31
0.0
  0
LINE
  5
265
330
1F
100
AcDbEntity
  8
0
  6
HIDDEN
 62
     7
370
     0
100
AcDbLine
 10
64.542659222
 20
142.2379531466
 30
0.0
 11
67.2887533566
 21
142.2379531466
 31
0.0
  0
LINE
  5
266
330
1F
100
AcDbEntity
  8
0
  6
HIDDEN
 62
     7
370
     0
100
AcDbLine
 10
60.9655517748
 20
142.2379531466
 30
0.0
 11
60.9448461456
 21
142.2379531466
 31
0.0
  0
LINE
  5
267
330
1F
100
AcDbEntity
  8
0
  6
HIDDEN
 62
     7
370
     0
100
AcDbLine
 10
69.3448458461
 20
142.2379531466
 30
0.0
 11
60.9655517748
 21
142.2379531466
 31
0.0
  0
LINE
  5
268
330
1F
100
AcDbEntity
  8
0
  6
HIDDEN
 62
     7
370
     0
100
AcDbLine
 10
70.1448458841
 20
141.4379545056
 30
0.0
 11
60.1448461077
 21
141.4379545056
 31
0.0
  0
LINE
  5
269
330
1F
100
AcDbEntity
  8
0
  6
HIDDEN
 62
     7
370
     0
100
AcDbLine
 10
70.1448458841
 20
131.2379532062
 30
0.0
 11
60.1448461077
 21
131.2379532062
 31
0.0
  0
LINE
  5
26A
330
1F
100
AcDbEntity
  8
0
  6
HIDDEN
 62
     7
370
     0
100
AcDbLine
 10
62.360963797
 20
129.737953426
 30
0.0
 11
61.6448458879
 21
129.737953426
 31
0.0
  0
LINE
  5
26B
330
1F
100
AcDbEntity
  8
0
  6
HIDDEN
 62
     7
370
     0
100
AcDbLine
 10
61.662100734
 20
129.737953426
 30
0.0
 11
68.6448461039
 21
129.737953426
 31
0.0
  0
LINE
  5
26C
330
1F
100
AcDbEntity
  8
0
  6
HIDDEN
 62
     7
370
     0
100
AcDbLine
 10
66.3331700618
 20
136.2379540257
 30
0.0
 11
68.0173658895
 21
136.2379540257
 31
0.0
  0
LINE
  5
26D
330
1F
100
AcDbEntity
  8
0
  6
HIDDEN
 62
     7
370
     0
100
AcDbLine
 10
66.3331700618
 20
142.2379531466
 30
0.0
 11
68.0173658895
 21
142.2379531466
 31
0.0
  0
LINE
  5
26E
330
1F
100
AcDbEntity
  8
0
  6
HIDDEN
 62
     7
370
     0
100
AcDbLine
 10
62.6571707091
 20
129.737953426
 30
0.0
 11
67.6325212827
 21
129.737953426
 31
0.0
  0
LINE
  5
26F
330
1F
100
AcDbEntity
  8
0
  6
HIDDEN
 62
     7
370
     0
100
AcDbLine
 10
66.3331700618
 20
136.2379540257
 30
0.0
 11
66.3331700618
 21
142.2379531466
 31
0.0
  0
LINE
  5
270
330
1F
100
AcDbEntity
  8
0
  6
HIDDEN
 62
     7
370
     0
100
AcDbLine
 10
63.4606501682
 20
136.2379540257
 30
0.0
 11
66.3331700618
 21
136.2379540257
 31
0.0
  0
LINE
  5
271
330
1F
100
AcDbEntity
  8
0
  6
HIDDEN
 62
     7
370
     0
100
AcDbLine
 10
63.4606501682
 20
142.2379531466
 30
0.0
 11
66.3331700618
 21
142.2379531466
 31
0.0
  0
LINE
  5
272
330
1F
100
AcDbEntity
  8
0
  6
HIDDEN
 62
     7
370
     0
100
AcDbLine
 10
63.4606501682
 20
136.2379540257
 30
0.0
 11
63.4606501682
 21
142.2379531466
 31
0.0
  0
LINE
  5
273
330
1F
100
AcDbEntity
  8
0
  6
HIDDEN
 62
     7
370
     0
100
AcDbLine
 10
63.4606501682
 20
136.2379540257
 30
0.0
 11
62.2723261023
 21
136.2379540257
 31
0.0
  0
LINE
  5
274
330
1F
100
AcDbEntity
  8
0
  6
HIDDEN
 62
     7
370
     0
100
AcDbLine
 10
63.4606501682
 20
142.2379531466
 30
0.0
 11
62.2723261023
 21
142.2379531466
 31
0.0
  0
LINE
  5
275
330
1F
100
AcDbEntity
  8
0
  6
HIDDEN
 62
     7
370
     0
100
AcDbLine
 10
66.8290418236
 20
136.2379540257
 30
0.0
 11
66.8290418236
 21
142.2379531466
 31
0.0
  0
LINE
  5
276
330
1F
100
AcDbEntity
  8
0
  6
HIDDEN
 62
     7
370
     0
100
AcDbLine
 10
68.0173658895
 20
136.2379540257
 30
0.0
 11
68.0173658895
 21
142.2379531466
 31
0.0
  0
LINE
  5
277
330
1F
100
AcDbEntity
  8
0
  6
HIDDEN
 62
     7
370
     0
100
AcDbLine
 10
66.8290418236
 20
136.2379540257
 30
0.0
 11
68.0173658895
 21
136.2379540257
 31
0.0
  0
LINE
  5
278
330
1F
100
AcDbEntity
  8
0
  6
HIDDEN
 62
     7
370
     0
100
AcDbLine
 10
66.8290418236
 20
142.2379531466
 30
0.0
 11
68.0173658895
 21
142.2379531466
 31
0.0
  0
LINE
  5
279
330
1F
100
AcDbEntity
  8
0
  6
HIDDEN
 62
     7
370
     0
100
AcDbLine
 10
63.95652193
 20
136.2379540257
 30
0.0
 11
63.95652193
 21
142.2379531466
 31
0.0
  0
LINE
  5
27A
330
1F
100
AcDbEntity
  8
0
  6
HIDDEN
 62
     7
370
     0
100
AcDbLine
 10
62.2723261023
 20
136.2379540257
 30
0.0
 11
62.2723261023
 21
142.2379531466
 31
0.0
  0
LINE
  5
27B
330
1F
100
AcDbEntity
  8
0
  6
HIDDEN
 62
     7
370
     0
100
AcDbLine
 10
63.95652193
 20
136.2379540257
 30
0.0
 11
62.2723261023
 21
136.2379540257
 31
0.0
  0
LINE
  5
27C
330
1F
100
AcDbEntity
  8
0
  6
HIDDEN
 62
     7
370
     0
100
AcDbLine
 10
63.95652193
 20
142.2379531466
 30
0.0
 11
62.2723261023
 21
142.2379531466
 31
0.0
  0
LINE
  5
27D
330
1F
100
AcDbEntity
  8
0
  6
HIDDEN
 62
     7
370
     0
100
AcDbLine
 10
63.95652193
 20
136.2379540257
 30
0.0
 11
66.8290418236
 21
136.2379540257
 31
0.0
  0
LINE
  5
27E
330
1F
100
AcDbEntity
  8
0
  6
HIDDEN
 62
     7
370
     0
100
AcDbLine
 10
63.95652193
 20
142.2379531466
 30
0.0
 11
66.8290418236
 21
142.2379531466
 31
0.0
  0
LINE
  5
27F
330
1F
100
AcDbEntity
  8
0
  6
HIDDEN
 62
     7
370
     0
100
AcDbLine
 10
84.3448469078
 20
117.2398922533
 30
0.0
 11
84.3448469078
 21
127.2244572208
 31
0.0
  0
LINE
  5
280
330
1F
100
AcDbEntity
  8
0
  6
HIDDEN
 62
     7
370
     0
100
AcDbLine
 10
74.1448456085
 20
117.2398922533
 30
0.0
 11
74.1448456085
 21
127.2244572208
 31
0.0
  0
LINE
  5
281
330
1F
100
AcDbEntity
  8
0
  6
HIDDEN
 62
     7
370
     0
100
AcDbLine
 10
85.1448455489
 20
118.0503938846
 30
0.0
 11
85.1448455489
 21
126.4358905643
 31
0.0
  0
LINE
  5
282
330
1F
100
AcDbEntity
  8
0
  6
HIDDEN
 62
     7
370
     0
100
AcDbLine
 10
72.6448458283
 20
118.7547503539
 30
0.0
 11
72.6448458283
 21
125.7211568333
 31
0.0
  0
LINE
  5
283
330
1F
100
AcDbEntity
  8
0
  6
HIDDEN
 62
     7
370
     0
100
AcDbLine
 10
85.1448455489
 20
124.7043660876
 30
0.0
 11
85.1448455489
 21
122.1720803621
 31
0.0
  0
LINE
  5
284
330
1F
100
AcDbEntity
  8
0
  6
HIDDEN
 62
     7
370
     0
100
AcDbLine
 10
79.144846428
 20
124.7043660876
 30
0.0
 11
79.144846428
 21
122.1720803621
 31
0.0
  0
LINE
  5
285
330
1F
100
AcDbEntity
  8
0
  6
HIDDEN
 62
     7
370
     0
100
AcDbLine
 10
79.144846428
 20
119.7056679554
 30
0.0
 11
79.144846428
 21
122.1720803621
 31
0.0
  0
LINE
  5
286
330
1F
100
AcDbEntity
  8
0
  6
HIDDEN
 62
     7
370
     0
100
AcDbLine
 10
79.144846428
 20
122.1720803621
 30
0.0
 11
85.1448455489
 21
122.1720803621
 31
0.0
  0
LINE
  5
287
330
1F
100
AcDbEntity
  8
0
  6
HIDDEN
 62
     7
370
     0
100
AcDbLine
 10
85.1448455489
 20
119.7056679554
 30
0.0
 11
85.1448455489
 21
122.1720803621
 31
0.0
  0
LINE
  5
288
330
1F
100
AcDbEntity
  8
0
  6
HIDDEN
 62
     7
370
     0
100
AcDbLine
 10
72.6448458283
 20
119.755925614
 30
0.0
 11
72.6448458283
 21
124.7199815732
 31
0.0
  0
LINE
  5
289
330
1F
100
AcDbEntity
  8
0
  6
HIDDEN
 62
     7
370
     0
100
AcDbLine
 10
79.144846428
 20
124.7702392318
 30
0.0
 11
79.144846428
 21
124.7043660876
 31
0.0
  0
LINE
  5
28A
330
1F
100
AcDbEntity
  8
0
  6
HIDDEN
 62
     7
370
     0
100
AcDbLine
 10
79.144846428
 20
124.7043660876
 30
0.0
 11
85.1448455489
 21
124.7043660876
 31
0.0
  0
LINE
  5
28B
330
1F
100
AcDbEntity
  8
0
  6
HIDDEN
 62
     7
370
     0
100
AcDbLine
 10
85.1448455489
 20
124.7702392318
 30
0.0
 11
85.1448455489
 21
124.7043660876
 31
0.0
  0
LINE
  5
28C
330
1F
100
AcDbEntity
  8
0
  6
HIDDEN
 62
     7
370
     0
100
AcDbLine
 10
79.144846428
 20
119.7715410996
 30
0.0
 11
85.1448455489
 21
119.7715410996
 31
0.0
  0
LINE
  5
28D
330
1F
100
AcDbEntity
  8
0
  6
HIDDEN
 62
     7
370
     0
100
AcDbLine
 10
79.144846428
 20
119.7056679554
 30
0.0
 11
85.1448455489
 21
119.7056679554
 31
0.0
  0
LINE
  5
28E
330
1F
100
AcDbEntity
  8
0
  6
HIDDEN
 62
     7
370
     0
100
AcDbLine
 10
79.144846428
 20
119.7715410996
 30
0.0
 11
79.144846428
 21
119.7056679554
 31
0.0
  0
LINE
  5
28F
330
1F
100
AcDbEntity
  8
0
  6
HIDDEN
 62
     7
370
     0
100
AcDbLine
 10
85.1448455489
 20
119.7715410996
 30
0.0
 11
85.1448455489
 21
119.7056679554
 31
0.0
  0
LINE
  5
290
330
1F
100
AcDbEntity
  8
0
  6
HIDDEN
 62
     7
370
     0
100
AcDbLine
 10
79.144846428
 20
122.3038268251
 30
0.0
 11
85.1448455489
 21
122.3038268251
 31
0.0
  0
LINE
  5
291
330
1F
100
AcDbEntity
  8
0
  6
HIDDEN
 62
     7
370
     0
100
AcDbLine
 10
79.144846428
 20
124.7702392318
 30
0.0
 11
85.1448455489
 21
124.7702392318
 31
0.0
  0
LINE
  5
292
330
1F
100
AcDbEntity
  8
0
  6
HIDDEN
 62
     7
370
     0
100
AcDbLine
 10
79.144846428
 20
124.7702392318
 30
0.0
 11
79.144846428
 21
122.3038268251
 31
0.0
  0
LINE
  5
293
330
1F
100
AcDbEntity
  8
0
  6
HIDDEN
 62
     7
370
     0
100
AcDbLine
 10
85.1448455489
 20
124.7702392318
 30
0.0
 11
85.1448455489
 21
122.3038268251
 31
0.0
  0
LINE
  5
294
330
1F
100
AcDbEntity
  8
0
  6
HIDDEN
 62
     7
370
     0
100
AcDbLine
 10
79.144846428
 20
119.7715410996
 30
0.0
 11
79.144846428
 21
122.3038268251
 31
0.0
  0
LINE
  5
295
330
1F
100
AcDbEntity
  8
0
  6
HIDDEN
 62
     7
370
     0
100
AcDbLine
 10
85.1448455489
 20
119.7715410996
 30
0.0
 11
85.1448455489
 21
122.3038268251
 31
0.0
  0
LINE
  5
296
330
1F
100
AcDbEntity
  8
0
  6
HIDDEN
 62
     7
370
     0
100
AcDbLine
 10
56.1448463833
 20
117.2379537054
 30
0.0
 11
56.1448463833
 21
127.2379534818
 31
0.0
  0
LINE
  5
297
330
1F
100
AcDbEntity
  8
0
  6
HIDDEN
 62
     7
370
     0
100
AcDbLine
 10
57.6448461635
 20
118.7379534856
 30
0.0
 11
57.6448461635
 21
125.7379537016
 31
0.0
  0
LINE
  5
298
330
1F
100
AcDbEntity
  8
0
  6
HIDDEN
 62
     7
370
     0
100
AcDbLine
 10
45.9448450839
 20
117.2379537054
 30
0.0
 11
45.9448450839
 21
127.2379534818
 31
0.0
  0
LINE
  5
299
330
1F
100
AcDbEntity
  8
0
  6
HIDDEN
 62
     7
370
     0
100
AcDbLine
 10
45.1448464429
 20
126.4379534438
 30
0.0
 11
45.1448464429
 21
118.0379537434
 31
0.0
  0
LINE
  5
29A
330
1F
100
AcDbEntity
  8
0
  6
HIDDEN
 62
     7
370
     0
100
AcDbLine
 10
51.1448455638
 20
123.9249124225
 30
0.0
 11
51.1448455638
 21
121.0527321125
 31
0.0
  0
LINE
  5
29B
330
1F
100
AcDbEntity
  8
0
  6
HIDDEN
 62
     7
370
     0
100
AcDbLine
 10
45.1448464429
 20
123.9249124225
 30
0.0
 11
45.1448464429
 21
121.0527321125
 31
0.0
  0
LINE
  5
29C
330
1F
100
AcDbEntity
  8
0
  6
HIDDEN
 62
     7
370
     0
100
AcDbLine
 10
57.6448461635
 20
119.7379890397
 30
0.0
 11
57.6448461635
 21
124.7379181475
 31
0.0
  0
LINE
  5
29D
330
1F
100
AcDbEntity
  8
0
  6
HIDDEN
 62
     7
370
     0
100
AcDbLine
 10
51.1448455638
 20
121.0527321125
 30
0.0
 11
45.1448464429
 21
121.0527321125
 31
0.0
  0
LINE
  5
29E
330
1F
100
AcDbEntity
  8
0
  6
HIDDEN
 62
     7
370
     0
100
AcDbLine
 10
51.1448455638
 20
119.3657731671
 30
0.0
 11
51.1448455638
 21
121.0527321125
 31
0.0
  0
LINE
  5
29F
330
1F
100
AcDbEntity
  8
0
  6
HIDDEN
 62
     7
370
     0
100
AcDbLine
 10
45.1448464429
 20
119.3657731671
 30
0.0
 11
45.1448464429
 21
121.0527321125
 31
0.0
  0
LINE
  5
2A0
330
1F
100
AcDbEntity
  8
0
  6
HIDDEN
 62
     7
370
     0
100
AcDbLine
 10
51.1448455638
 20
123.9249124225
 30
0.0
 11
45.1448464429
 21
123.9249124225
 31
0.0
  0
LINE
  5
2A1
330
1F
100
AcDbEntity
  8
0
  6
HIDDEN
 62
     7
370
     0
100
AcDbLine
 10
51.1448455638
 20
123.9249124225
 30
0.0
 11
51.1448455638
 21
125.1101340201
 31
0.0
  0
LINE
  5
2A2
330
1F
100
AcDbEntity
  8
0
  6
HIDDEN
 62
     7
370
     0
100
AcDbLine
 10
45.1448464429
 20
123.9249124225
 30
0.0
 11
45.1448464429
 21
125.1101340201
 31
0.0
  0
LINE
  5
2A3
330
1F
100
AcDbEntity
  8
0
  6
HIDDEN
 62
     7
370
     0
100
AcDbLine
 10
51.1448455638
 20
120.5509947647
 30
0.0
 11
45.1448464429
 21
120.5509947647
 31
0.0
  0
LINE
  5
2A4
330
1F
100
AcDbEntity
  8
0
  6
HIDDEN
 62
     7
370
     0
100
AcDbLine
 10
51.1448455638
 20
119.3657731671
 30
0.0
 11
45.1448464429
 21
119.3657731671
 31
0.0
  0
LINE
  5
2A5
330
1F
100
AcDbEntity
  8
0
  6
HIDDEN
 62
     7
370
     0
100
AcDbLine
 10
51.1448455638
 20
119.3657731671
 30
0.0
 11
51.1448455638
 21
120.5509947647
 31
0.0
  0
LINE
  5
2A6
330
1F
100
AcDbEntity
  8
0
  6
HIDDEN
 62
     7
370
     0
100
AcDbLine
 10
45.1448464429
 20
119.3657731671
 30
0.0
 11
45.1448464429
 21
120.5509947647
 31
0.0
  0
LINE
  5
2A7
330
1F
100
AcDbEntity
  8
0
  6
HIDDEN
 62
     7
370
     0
100
AcDbLine
 10
51.1448455638
 20
123.4231750747
 30
0.0
 11
45.1448464429
 21
123.4231750747
 31
0.0
  0
LINE
  5
2A8
330
1F
100
AcDbEntity
  8
0
  6
HIDDEN
 62
     7
370
     0
100
AcDbLine
 10
51.1448455638
 20
125.1101340201
 30
0.0
 11
45.1448464429
 21
125.1101340201
 31
0.0
  0
LINE
  5
2A9
330
1F
100
AcDbEntity
  8
0
  6
HIDDEN
 62
     7
370
     0
100
AcDbLine
 10
51.1448455638
 20
125.1101340201
 30
0.0
 11
51.1448455638
 21
123.4231750747
 31
0.0
  0
LINE
  5
2AA
330
1F
100
AcDbEntity
  8
0
  6
HIDDEN
 62
     7
370
     0
100
AcDbLine
 10
45.1448464429
 20
125.1101340201
 30
0.0
 11
45.1448464429
 21
123.4231750747
 31
0.0
  0
LINE
  5
2AB
330
1F
100
AcDbEntity
  8
0
  6
HIDDEN
 62
     7
370
     0
100
AcDbLine
 10
51.1448455638
 20
120.5509947647
 30
0.0
 11
51.1448455638
 21
123.4231750747
 31
0.0
  0
LINE
  5
2AC
330
1F
100
AcDbEntity
  8
0
  6
HIDDEN
 62
     7
370
     0
100
AcDbLine
 10
45.1448464429
 20
120.5509947647
 30
0.0
 11
45.1448464429
 21
123.4231750747
 31
0.0
  0
LINE
  5
2AD
330
1F
100
AcDbEntity
  8
0
  6
HIDDEN
 62
     7
370
     0
100
AcDbLine
 10
85.1448455489
 20
118.0526192799
 30
0.0
 11
85.1448455489
 21
126.4366686844
 31
0.0
  0
LINE
  5
2AE
330
1F
100
AcDbEntity
  8
0
  6
HIDDEN
 62
     7
370
     0
100
AcDbLine
 10
84.3448469078
 20
117.2424072899
 30
0.0
 11
84.3448469078
 21
127.2292148821
 31
0.0
  0
LINE
  5
2AF
330
1F
100
AcDbEntity
  8
0
  6
HIDDEN
 62
     7
370
     0
100
AcDbLine
 10
74.1448456085
 20
117.2424072899
 30
0.0
 11
74.1448456085
 21
127.2292148821
 31
0.0
  0
LINE
  5
2B0
330
1F
100
AcDbEntity
  8
0
  6
HIDDEN
 62
     7
370
     0
100
AcDbLine
 10
72.6448458283
 20
118.745789168
 30
0.0
 11
72.6448458283
 21
125.7301180192
 31
0.0
  0
LINE
  5
2B1
330
1F
100
AcDbEntity
  8
0
  6
HIDDEN
 62
     7
370
     0
100
AcDbLine
 10
85.1448455489
 20
124.2091213387
 30
0.0
 11
85.1448455489
 21
121.397100276
 31
0.0
  0
LINE
  5
2B2
330
1F
100
AcDbEntity
  8
0
  6
HIDDEN
 62
     7
370
     0
100
AcDbLine
 10
79.144846428
 20
124.2091213387
 30
0.0
 11
79.144846428
 21
121.397100276
 31
0.0
  0
LINE
  5
2B3
330
1F
100
AcDbEntity
  8
0
  6
HIDDEN
 62
     7
370
     0
100
AcDbLine
 10
72.6448458283
 20
119.7599773329
 30
0.0
 11
72.6448458283
 21
124.7159298543
 31
0.0
  0
LINE
  5
2B4
330
1F
100
AcDbEntity
  8
0
  6
HIDDEN
 62
     7
370
     0
100
AcDbLine
 10
79.144846428
 20
119.4259324145
 30
0.0
 11
79.144846428
 21
121.397100276
 31
0.0
  0
LINE
  5
2B5
330
1F
100
AcDbEntity
  8
0
  6
HIDDEN
 62
     7
370
     0
100
AcDbLine
 10
79.144846428
 20
121.397100276
 30
0.0
 11
85.1448455489
 21
121.397100276
 31
0.0
  0
LINE
  5
2B6
330
1F
100
AcDbEntity
  8
0
  6
HIDDEN
 62
     7
370
     0
100
AcDbLine
 10
85.1448455489
 20
119.4259324145
 30
0.0
 11
85.1448455489
 21
121.397100276
 31
0.0
  0
LINE
  5
2B7
330
1F
100
AcDbEntity
  8
0
  6
HIDDEN
 62
     7
370
     0
100
AcDbLine
 10
79.144846428
 20
125.0499747727
 30
0.0
 11
79.144846428
 21
124.2091213387
 31
0.0
  0
LINE
  5
2B8
330
1F
100
AcDbEntity
  8
0
  6
HIDDEN
 62
     7
370
     0
100
AcDbLine
 10
79.144846428
 20
124.2091213387
 30
0.0
 11
85.1448455489
 21
124.2091213387
 31
0.0
  0
LINE
  5
2B9
330
1F
100
AcDbEntity
  8
0
  6
HIDDEN
 62
     7
370
     0
100
AcDbLine
 10
85.1448455489
 20
125.0499747727
 30
0.0
 11
85.1448455489
 21
124.2091213387
 31
0.0
  0
LINE
  5
2BA
330
1F
100
AcDbEntity
  8
0
  6
HIDDEN
 62
     7
370
     0
100
AcDbLine
 10
79.144846428
 20
120.2667858485
 30
0.0
 11
85.1448455489
 21
120.2667858485
 31
0.0
  0
LINE
  5
2BB
330
1F
100
AcDbEntity
  8
0
  6
HIDDEN
 62
     7
370
     0
100
AcDbLine
 10
79.144846428
 20
119.4259324145
 30
0.0
 11
85.1448455489
 21
119.4259324145
 31
0.0
  0
LINE
  5
2BC
330
1F
100
AcDbEntity
  8
0
  6
HIDDEN
 62
     7
370
     0
100
AcDbLine
 10
79.144846428
 20
120.2667858485
 30
0.0
 11
79.144846428
 21
119.4259324145
 31
0.0
  0
LINE
  5
2BD
330
1F
100
AcDbEntity
  8
0
  6
HIDDEN
 62
     7
370
     0
100
AcDbLine
 10
85.1448455489
 20
120.2667858485
 30
0.0
 11
85.1448455489
 21
119.4259324145
 31
0.0
  0
LINE
  5
2BE
330
1F
100
AcDbEntity
  8
0
  6
HIDDEN
 62
     7
370
     0
100
AcDbLine
 10
79.144846428
 20
123.0788069112
 30
0.0
 11
85.1448455489
 21
123.0788069112
 31
0.0
  0
LINE
  5
2BF
330
1F
100
AcDbEntity
  8
0
  6
HIDDEN
 62
     7
370
     0
100
AcDbLine
 10
79.144846428
 20
125.0499747727
 30
0.0
 11
85.1448455489
 21
125.0499747727
 31
0.0
  0
LINE
  5
2C0
330
1F
100
AcDbEntity
  8
0
  6
HIDDEN
 62
     7
370
     0
100
AcDbLine
 10
79.144846428
 20
125.0499747727
 30
0.0
 11
79.144846428
 21
123.0788069112
 31
0.0
  0
LINE
  5
2C1
330
1F
100
AcDbEntity
  8
0
  6
HIDDEN
 62
     7
370
     0
100
AcDbLine
 10
85.1448455489
 20
125.0499747727
 30
0.0
 11
85.1448455489
 21
123.0788069112
 31
0.0
  0
LINE
  5
2C2
330
1F
100
AcDbEntity
  8
0
  6
HIDDEN
 62
     7
370
     0
100
AcDbLine
 10
79.144846428
 20
120.2667858485
 30
0.0
 11
79.144846428
 21
123.0788069112
 31
0.0
  0
LINE
  5
2C3
330
1F
100
AcDbEntity
  8
0
  6
HIDDEN
 62
     7
370
     0
100
AcDbLine
 10
85.1448455489
 20
120.2667858485
 30
0.0
 11
85.1448455489
 21
123.0788069112
 31
0.0
  0
LINE
  5
2C4
330
1F
100
AcDbEntity
  8
0
  6
HIDDEN
 62
     7
370
     0
100
AcDbLine
 10
56.1448463833
 20
117.2581792377
 30
0.0
 11
56.1448463833
 21
127.2376307786
 31
0.0
  0
LINE
  5
2C5
330
1F
100
AcDbEntity
  8
0
  6
HIDDEN
 62
     7
370
     0
100
AcDbLine
 10
57.6448461635
 20
118.742387978
 30
0.0
 11
57.6448461635
 21
125.7335192092
 31
0.0
  0
LINE
  5
2C6
330
1F
100
AcDbEntity
  8
0
  6
HIDDEN
 62
     7
370
     0
100
AcDbLine
 10
45.9448450839
 20
117.2581792377
 30
0.0
 11
45.9448450839
 21
127.2376307786
 31
0.0
  0
LINE
  5
2C7
330
1F
100
AcDbEntity
  8
0
  6
HIDDEN
 62
     7
370
     0
100
AcDbLine
 10
45.1448464429
 20
118.0524078697
 30
0.0
 11
45.1448464429
 21
126.4366048888
 31
0.0
  0
LINE
  5
2C8
330
1F
100
AcDbEntity
  8
0
  6
HIDDEN
 62
     7
370
     0
100
AcDbLine
 10
51.1448455638
 20
123.1796120444
 30
0.0
 11
51.1448455638
 21
125.0720347777
 31
0.0
  0
LINE
  5
2C9
330
1F
100
AcDbEntity
  8
0
  6
HIDDEN
 62
     7
370
     0
100
AcDbLine
 10
45.1448464429
 20
123.1796120444
 30
0.0
 11
45.1448464429
 21
125.0720347777
 31
0.0
  0
LINE
  5
2CA
330
1F
100
AcDbEntity
  8
0
  6
HIDDEN
 62
     7
370
     0
100
AcDbLine
 10
57.6448461635
 20
119.7490566444
 30
0.0
 11
57.6448461635
 21
124.7268505428
 31
0.0
  0
LINE
  5
2CB
330
1F
100
AcDbEntity
  8
0
  6
HIDDEN
 62
     7
370
     0
100
AcDbLine
 10
51.1448455638
 20
123.1796120444
 30
0.0
 11
45.1448464429
 21
123.1796120444
 31
0.0
  0
LINE
  5
2CC
330
1F
100
AcDbEntity
  8
0
  6
HIDDEN
 62
     7
370
     0
100
AcDbLine
 10
51.1448455638
 20
123.1796120444
 30
0.0
 11
51.1448455638
 21
120.3455309184
 31
0.0
  0
LINE
  5
2CD
330
1F
100
AcDbEntity
  8
0
  6
HIDDEN
 62
     7
370
     0
100
AcDbLine
 10
45.1448464429
 20
123.1796120444
 30
0.0
 11
45.1448464429
 21
120.3455309184
 31
0.0
  0
LINE
  5
2CE
330
1F
100
AcDbEntity
  8
0
  6
HIDDEN
 62
     7
370
     0
100
AcDbLine
 10
51.1448455638
 20
120.3455309184
 30
0.0
 11
45.1448464429
 21
120.3455309184
 31
0.0
  0
LINE
  5
2CF
330
1F
100
AcDbEntity
  8
0
  6
HIDDEN
 62
     7
370
     0
100
AcDbLine
 10
51.1448455638
 20
120.3455309184
 30
0.0
 11
51.1448455638
 21
119.4038724095
 31
0.0
  0
LINE
  5
2D0
330
1F
100
AcDbEntity
  8
0
  6
HIDDEN
 62
     7
370
     0
100
AcDbLine
 10
45.1448464429
 20
120.3455309184
 30
0.0
 11
45.1448464429
 21
119.4038724095
 31
0.0
  0
LINE
  5
2D1
330
1F
100
AcDbEntity
  8
0
  6
HIDDEN
 62
     7
370
     0
100
AcDbLine
 10
51.1448455638
 20
124.1303762688
 30
0.0
 11
45.1448464429
 21
124.1303762688
 31
0.0
  0
LINE
  5
2D2
330
1F
100
AcDbEntity
  8
0
  6
HIDDEN
 62
     7
370
     0
100
AcDbLine
 10
51.1448455638
 20
125.0720347777
 30
0.0
 11
45.1448464429
 21
125.0720347777
 31
0.0
  0
LINE
  5
2D3
330
1F
100
AcDbEntity
  8
0
  6
HIDDEN
 62
     7
370
     0
100
AcDbLine
 10
51.1448455638
 20
124.1303762688
 30
0.0
 11
51.1448455638
 21
125.0720347777
 31
0.0
  0
LINE
  5
2D4
330
1F
100
AcDbEntity
  8
0
  6
HIDDEN
 62
     7
370
     0
100
AcDbLine
 10
45.1448464429
 20
124.1303762688
 30
0.0
 11
45.1448464429
 21
125.0720347777
 31
0.0
  0
LINE
  5
2D5
330
1F
100
AcDbEntity
  8
0
  6
HIDDEN
 62
     7
370
     0
100
AcDbLine
 10
51.1448455638
 20
121.2962951428
 30
0.0
 11
45.1448464429
 21
121.2962951428
 31
0.0
  0
LINE
  5
2D6
330
1F
100
AcDbEntity
  8
0
  6
HIDDEN
 62
     7
370
     0
100
AcDbLine
 10
51.1448455638
 20
119.4038724095
 30
0.0
 11
45.1448464429
 21
119.4038724095
 31
0.0
  0
LINE
  5
2D7
330
1F
100
AcDbEntity
  8
0
  6
HIDDEN
 62
     7
370
     0
100
AcDbLine
 10
51.1448455638
 20
121.2962951428
 30
0.0
 11
51.1448455638
 21
119.4038724095
 31
0.0
  0
LINE
  5
2D8
330
1F
100
AcDbEntity
  8
0
  6
HIDDEN
 62
     7
370
     0
100
AcDbLine
 10
45.1448464429
 20
121.2962951428
 30
0.0
 11
45.1448464429
 21
119.4038724095
 31
0.0
  0
LINE
  5
2D9
330
1F
100
AcDbEntity
  8
0
  6
HIDDEN
 62
     7
370
     0
100
AcDbLine
 10
51.1448455638
 20
124.1303762688
 30
0.0
 11
51.1448455638
 21
121.2962951428
 31
0.0
  0
LINE
  5
2DA
330
1F
100
AcDbEntity
  8
0
  6
HIDDEN
 62
     7
370
     0
100
AcDbLine
 10
45.1448464429
 20
124.1303762688
 30
0.0
 11
45.1448464429
 21
121.2962951428
 31
0.0
  0
LINE
  5
2DB
330
1F
100
AcDbEntity
  8
0
  6
HIDDEN
 62
     7
370
     0
100
AcDbLine
 10
85.1448455489
 20
124.9167155508
 30
0.0
 11
85.1448455489
 21
126.4379534438
 31
0.0
  0
LINE
  5
2DC
330
1F
100
AcDbEntity
  8
0
  6
HIDDEN
 62
     7
370
     0
100
AcDbLine
 10
85.1448455489
 20
118.0379537434
 30
0.0
 11
85.1448455489
 21
124.9167155508
 31
0.0
  0
LINE
  5
2DD
330
1F
100
AcDbEntity
  8
0
  6
HIDDEN
 62
     7
370
     0
100
AcDbLine
 10
84.3448469078
 20
117.2379537054
 30
0.0
 11
84.3448469078
 21
127.2379534818
 31
0.0
  0
LINE
  5
2DE
330
1F
100
AcDbEntity
  8
0
  6
HIDDEN
 62
     7
370
     0
100
AcDbLine
 10
74.1448456085
 20
117.2379537054
 30
0.0
 11
74.1448456085
 21
127.2379534818
 31
0.0
  0
LINE
  5
2DF
330
1F
100
AcDbEntity
  8
0
  6
HIDDEN
 62
     7
370
     0
100
AcDbLine
 10
72.6448458283
 20
124.4702551082
 30
0.0
 11
72.6448458283
 21
125.7379537016
 31
0.0
  0
LINE
  5
2E0
330
1F
100
AcDbEntity
  8
0
  6
HIDDEN
 62
     7
370
     0
100
AcDbLine
 10
72.6448458283
 20
124.4702551082
 30
0.0
 11
72.6448458283
 21
118.7379534856
 31
0.0
  0
LINE
  5
2E1
330
1F
100
AcDbEntity
  8
0
  6
HIDDEN
 62
     7
370
     0
100
AcDbLine
 10
79.144846428
 20
123.242872072
 30
0.0
 11
79.144846428
 21
120.3967822982
 31
0.0
  0
LINE
  5
2E2
330
1F
100
AcDbEntity
  8
0
  6
HIDDEN
 62
     7
370
     0
100
AcDbLine
 10
85.1448455489
 20
123.242872072
 30
0.0
 11
85.1448455489
 21
120.3967822982
 31
0.0
  0
LINE
  5
2E3
330
1F
100
AcDbEntity
  8
0
  6
HIDDEN
 62
     7
370
     0
100
AcDbLine
 10
72.6448458283
 20
119.7385785669
 30
0.0
 11
72.6448458283
 21
124.7373286203
 31
0.0
  0
LINE
  5
2E4
330
1F
100
AcDbEntity
  8
0
  6
HIDDEN
 62
     7
370
     0
100
AcDbLine
 10
79.144846428
 20
123.242872072
 30
0.0
 11
85.1448455489
 21
123.242872072
 31
0.0
  0
LINE
  5
2E5
330
1F
100
AcDbEntity
  8
0
  6
HIDDEN
 62
     7
370
     0
100
AcDbLine
 10
79.144846428
 20
125.0840434838
 30
0.0
 11
79.144846428
 21
123.242872072
 31
0.0
  0
LINE
  5
2E6
330
1F
100
AcDbEntity
  8
0
  6
HIDDEN
 62
     7
370
     0
100
AcDbLine
 10
85.1448455489
 20
125.0840434838
 30
0.0
 11
85.1448455489
 21
123.242872072
 31
0.0
  0
LINE
  5
2E7
330
1F
100
AcDbEntity
  8
0
  6
HIDDEN
 62
     7
370
     0
100
AcDbLine
 10
79.144846428
 20
120.3967822982
 30
0.0
 11
85.1448455489
 21
120.3967822982
 31
0.0
  0
LINE
  5
2E8
330
1F
100
AcDbEntity
  8
0
  6
HIDDEN
 62
     7
370
     0
100
AcDbLine
 10
79.144846428
 20
119.3918637034
 30
0.0
 11
79.144846428
 21
120.3967822982
 31
0.0
  0
LINE
  5
2E9
330
1F
100
AcDbEntity
  8
0
  6
HIDDEN
 62
     7
370
     0
100
AcDbLine
 10
85.1448455489
 20
119.3918637034
 30
0.0
 11
85.1448455489
 21
120.3967822982
 31
0.0
  0
LINE
  5
2EA
330
1F
100
AcDbEntity
  8
0
  6
HIDDEN
 62
     7
370
     0
100
AcDbLine
 10
79.144846428
 20
124.079124889
 30
0.0
 11
85.1448455489
 21
124.079124889
 31
0.0
  0
LINE
  5
2EB
330
1F
100
AcDbEntity
  8
0
  6
HIDDEN
 62
     7
370
     0
100
AcDbLine
 10
79.144846428
 20
125.0840434838
 30
0.0
 11
85.1448455489
 21
125.0840434838
 31
0.0
  0
LINE
  5
2EC
330
1F
100
AcDbEntity
  8
0
  6
HIDDEN
 62
     7
370
     0
100
AcDbLine
 10
79.144846428
 20
125.0840434838
 30
0.0
 11
79.144846428
 21
124.079124889
 31
0.0
  0
LINE
  5
2ED
330
1F
100
AcDbEntity
  8
0
  6
HIDDEN
 62
     7
370
     0
100
AcDbLine
 10
85.1448455489
 20
125.0840434838
 30
0.0
 11
85.1448455489
 21
124.079124889
 31
0.0
  0
LINE
  5
2EE
330
1F
100
AcDbEntity
  8
0
  6
HIDDEN
 62
     7
370
     0
100
AcDbLine
 10
79.144846428
 20
121.2330351152
 30
0.0
 11
85.1448455489
 21
121.2330351152
 31
0.0
  0
LINE
  5
2EF
330
1F
100
AcDbEntity
  8
0
  6
HIDDEN
 62
     7
370
     0
100
AcDbLine
 10
79.144846428
 20
119.3918637034
 30
0.0
 11
85.1448455489
 21
119.3918637034
 31
0.0
  0
LINE
  5
2F0
330
1F
100
AcDbEntity
  8
0
  6
HIDDEN
 62
     7
370
     0
100
AcDbLine
 10
79.144846428
 20
121.2330351152
 30
0.0
 11
79.144846428
 21
119.3918637034
 31
0.0
  0
LINE
  5
2F1
330
1F
100
AcDbEntity
  8
0
  6
HIDDEN
 62
     7
370
     0
100
AcDbLine
 10
85.1448455489
 20
121.2330351152
 30
0.0
 11
85.1448455489
 21
119.3918637034
 31
0.0
  0
LINE
  5
2F2
330
1F
100
AcDbEntity
  8
0
  6
HIDDEN
 62
     7
370
     0
100
AcDbLine
 10
79.144846428
 20
121.2330351152
 30
0.0
 11
79.144846428
 21
124.079124889
 31
0.0
  0
LINE
  5
2F3
330
1F
100
AcDbEntity
  8
0
  6
HIDDEN
 62
     7
370
     0
100
AcDbLine
 10
85.1448455489
 20
121.2330351152
 30
0.0
 11
85.1448455489
 21
124.079124889
 31
0.0
  0
LINE
  5
2F4
330
1F
100
AcDbEntity
  8
0
  6
HIDDEN
 62
     7
370
     0
100
AcDbLine
 10
60.1535809821
 20
141.4379545056
 30
0.0
 11
70.1403895056
 21
141.4379545056
 31
0.0
  0
LINE
  5
2F5
330
1F
100
AcDbEntity
  8
0
  6
HIDDEN
 62
     7
370
     0
100
AcDbLine
 10
60.1535809821
 20
131.2379532062
 30
0.0
 11
70.1403895056
 21
131.2379532062
 31
0.0
  0
LINE
  5
2F6
330
1F
100
AcDbEntity
  8
0
  6
HIDDEN
 62
     7
370
     0
100
AcDbLine
 10
60.9468852764
 20
142.2379531466
 30
0.0
 11
69.3323465659
 21
142.2379531466
 31
0.0
  0
LINE
  5
2F7
330
1F
100
AcDbEntity
  8
0
  6
HIDDEN
 62
     7
370
     0
100
AcDbLine
 10
61.6454668472
 20
129.737953426
 30
0.0
 11
68.6442251446
 21
129.737953426
 31
0.0
  0
LINE
  5
2F8
330
1F
100
AcDbEntity
  8
0
  6
HIDDEN
 62
     7
370
     0
100
AcDbLine
 10
64.9742991501
 20
136.2379540257
 30
0.0
 11
62.5639392657
 21
136.2379540257
 31
0.0
  0
LINE
  5
2F9
330
1F
100
AcDbEntity
  8
0
  6
HIDDEN
 62
     7
370
     0
100
AcDbLine
 10
64.9742991501
 20
142.2379531466
 30
0.0
 11
62.5639392657
 21
142.2379531466
 31
0.0
  0
LINE
  5
2FA
330
1F
100
AcDbEntity
  8
0
  6
HIDDEN
 62
     7
370
     0
100
AcDbLine
 10
62.6590671147
 20
129.737953426
 30
0.0
 11
67.6306248771
 21
129.737953426
 31
0.0
  0
LINE
  5
2FB
330
1F
100
AcDbEntity
  8
0
  6
HIDDEN
 62
     7
370
     0
100
AcDbLine
 10
64.9742991501
 20
136.2379540257
 30
0.0
 11
64.9742991501
 21
142.2379531466
 31
0.0
  0
LINE
  5
2FC
330
1F
100
AcDbEntity
  8
0
  6
HIDDEN
 62
     7
370
     0
100
AcDbLine
 10
64.9742991501
 20
136.2379540257
 30
0.0
 11
67.5552059094
 21
136.2379540257
 31
0.0
  0
LINE
  5
2FD
330
1F
100
AcDbEntity
  8
0
  6
HIDDEN
 62
     7
370
     0
100
AcDbLine
 10
64.9742991501
 20
142.2379531466
 30
0.0
 11
67.5552059094
 21
142.2379531466
 31
0.0
  0
LINE
  5
2FE
330
1F
100
AcDbEntity
  8
0
  6
HIDDEN
 62
     7
370
     0
100
AcDbLine
 10
67.5552059094
 20
136.2379540257
 30
0.0
 11
67.5552059094
 21
142.2379531466
 31
0.0
  0
LINE
  5
2FF
330
1F
100
AcDbEntity
  8
0
  6
HIDDEN
 62
     7
370
     0
100
AcDbLine
 10
67.5552059094
 20
136.2379540257
 30
0.0
 11
67.725752726
 21
136.2379540257
 31
0.0
  0
LINE
  5
300
330
1F
100
AcDbEntity
  8
0
  6
HIDDEN
 62
     7
370
     0
100
AcDbLine
 10
67.5552059094
 20
142.2379531466
 30
0.0
 11
67.725752726
 21
142.2379531466
 31
0.0
  0
LINE
  5
301
330
1F
100
AcDbEntity
  8
0
  6
HIDDEN
 62
     7
370
     0
100
AcDbLine
 10
62.7344860824
 20
136.2379540257
 30
0.0
 11
62.7344860824
 21
142.2379531466
 31
0.0
  0
LINE
  5
302
330
1F
100
AcDbEntity
  8
0
  6
HIDDEN
 62
     7
370
     0
100
AcDbLine
 10
62.5639392657
 20
136.2379540257
 30
0.0
 11
62.5639392657
 21
142.2379531466
 31
0.0
  0
LINE
  5
303
330
1F
100
AcDbEntity
  8
0
  6
HIDDEN
 62
     7
370
     0
100
AcDbLine
 10
62.7344860824
 20
136.2379540257
 30
0.0
 11
62.5639392657
 21
136.2379540257
 31
0.0
  0
LINE
  5
304
330
1F
100
AcDbEntity
  8
0
  6
HIDDEN
 62
     7
370
     0
100
AcDbLine
 10
62.7344860824
 20
142.2379531466
 30
0.0
 11
62.5639392657
 21
142.2379531466
 31
0.0
  0
LINE
  5
305
330
1F
100
AcDbEntity
  8
0
  6
HIDDEN
 62
     7
370
     0
100
AcDbLine
 10
65.3153928417
 20
136.2379540257
 30
0.0
 11
65.3153928417
 21
142.2379531466
 31
0.0
  0
LINE
  5
306
330
1F
100
AcDbEntity
  8
0
  6
HIDDEN
 62
     7
370
     0
100
AcDbLine
 10
67.725752726
 20
136.2379540257
 30
0.0
 11
67.725752726
 21
142.2379531466
 31
0.0
  0
LINE
  5
307
330
1F
100
AcDbEntity
  8
0
  6
HIDDEN
 62
     7
370
     0
100
AcDbLine
 10
65.3153928417
 20
136.2379540257
 30
0.0
 11
67.725752726
 21
136.2379540257
 31
0.0
  0
LINE
  5
308
330
1F
100
AcDbEntity
  8
0
  6
HIDDEN
 62
     7
370
     0
100
AcDbLine
 10
65.3153928417
 20
142.2379531466
 30
0.0
 11
67.725752726
 21
142.2379531466
 31
0.0
  0
LINE
  5
309
330
1F
100
AcDbEntity
  8
0
  6
HIDDEN
 62
     7
370
     0
100
AcDbLine
 10
62.7344860824
 20
136.2379540257
 30
0.0
 11
65.3153928417
 21
136.2379540257
 31
0.0
  0
LINE
  5
30A
330
1F
100
AcDbEntity
  8
0
  6
HIDDEN
 62
     7
370
     0
100
AcDbLine
 10
62.7344860824
 20
142.2379531466
 30
0.0
 11
65.3153928417
 21
142.2379531466
 31
0.0
  0
LINE
  5
30B
330
1F
100
AcDbEntity
  8
0
  6
HIDDEN
 62
     7
370
     0
100
AcDbLine
 10
45.9448450839
 20
117.2604199998
 30
0.0
 11
45.9448450839
 21
127.2378477767
 31
0.0
  0
LINE
  5
30C
330
1F
100
AcDbEntity
  8
0
  6
HIDDEN
 62
     7
370
     0
100
AcDbLine
 10
56.1448463833
 20
117.2604199998
 30
0.0
 11
56.1448463833
 21
127.2378477767
 31
0.0
  0
LINE
  5
30D
330
1F
100
AcDbEntity
  8
0
  6
HIDDEN
 62
     7
370
     0
100
AcDbLine
 10
57.6448461635
 20
118.7536800314
 30
0.0
 11
57.6448461635
 21
125.7222271558
 31
0.0
  0
LINE
  5
30E
330
1F
100
AcDbEntity
  8
0
  6
HIDDEN
 62
     7
370
     0
100
AcDbLine
 10
45.1448464429
 20
118.0568251327
 30
0.0
 11
45.1448464429
 21
126.4375711359
 31
0.0
  0
LINE
  5
30F
330
1F
100
AcDbEntity
  8
0
  6
HIDDEN
 62
     7
370
     0
100
AcDbLine
 10
51.1448455638
 20
121.0377905552
 30
0.0
 11
51.1448455638
 21
119.3641731549
 31
0.0
  0
LINE
  5
310
330
1F
100
AcDbEntity
  8
0
  6
HIDDEN
 62
     7
370
     0
100
AcDbLine
 10
45.1448464429
 20
121.0377905552
 30
0.0
 11
45.1448464429
 21
119.3641731549
 31
0.0
  0
LINE
  5
311
330
1F
100
AcDbEntity
  8
0
  6
HIDDEN
 62
     7
370
     0
100
AcDbLine
 10
57.6448461635
 20
119.7491867967
 30
0.0
 11
57.6448461635
 21
124.7267203905
 31
0.0
  0
LINE
  5
312
330
1F
100
AcDbEntity
  8
0
  6
HIDDEN
 62
     7
370
     0
100
AcDbLine
 10
51.1448455638
 20
121.0377905552
 30
0.0
 11
45.1448464429
 21
121.0377905552
 31
0.0
  0
LINE
  5
313
330
1F
100
AcDbEntity
  8
0
  6
HIDDEN
 62
     7
370
     0
100
AcDbLine
 10
51.1448455638
 20
121.0377905552
 30
0.0
 11
51.1448455638
 21
123.9115708774
 31
0.0
  0
LINE
  5
314
330
1F
100
AcDbEntity
  8
0
  6
HIDDEN
 62
     7
370
     0
100
AcDbLine
 10
45.1448464429
 20
121.0377905552
 30
0.0
 11
45.1448464429
 21
123.9115708774
 31
0.0
  0
LINE
  5
315
330
1F
100
AcDbEntity
  8
0
  6
HIDDEN
 62
     7
370
     0
100
AcDbLine
 10
51.1448455638
 20
123.9115708774
 30
0.0
 11
45.1448464429
 21
123.9115708774
 31
0.0
  0
LINE
  5
316
330
1F
100
AcDbEntity
  8
0
  6
HIDDEN
 62
     7
370
     0
100
AcDbLine
 10
51.1448455638
 20
123.9115708774
 30
0.0
 11
51.1448455638
 21
125.1117340323
 31
0.0
  0
LINE
  5
317
330
1F
100
AcDbEntity
  8
0
  6
HIDDEN
 62
     7
370
     0
100
AcDbLine
 10
45.1448464429
 20
123.9115708774
 30
0.0
 11
45.1448464429
 21
125.1117340323
 31
0.0
  0
LINE
  5
318
330
1F
100
AcDbEntity
  8
0
  6
HIDDEN
 62
     7
370
     0
100
AcDbLine
 10
51.1448455638
 20
120.5643363098
 30
0.0
 11
45.1448464429
 21
120.5643363098
 31
0.0
  0
LINE
  5
319
330
1F
100
AcDbEntity
  8
0
  6
HIDDEN
 62
     7
370
     0
100
AcDbLine
 10
51.1448455638
 20
119.3641731549
 30
0.0
 11
45.1448464429
 21
119.3641731549
 31
0.0
  0
LINE
  5
31A
330
1F
100
AcDbEntity
  8
0
  6
HIDDEN
 62
     7
370
     0
100
AcDbLine
 10
51.1448455638
 20
120.5643363098
 30
0.0
 11
51.1448455638
 21
119.3641731549
 31
0.0
  0
LINE
  5
31B
330
1F
100
AcDbEntity
  8
0
  6
HIDDEN
 62
     7
370
     0
100
AcDbLine
 10
45.1448464429
 20
120.5643363098
 30
0.0
 11
45.1448464429
 21
119.3641731549
 31
0.0
  0
LINE
  5
31C
330
1F
100
AcDbEntity
  8
0
  6
HIDDEN
 62
     7
370
     0
100
AcDbLine
 10
51.1448455638
 20
123.438116632
 30
0.0
 11
45.1448464429
 21
123.438116632
 31
0.0
  0
LINE
  5
31D
330
1F
100
AcDbEntity
  8
0
  6
HIDDEN
 62
     7
370
     0
100
AcDbLine
 10
51.1448455638
 20
125.1117340323
 30
0.0
 11
45.1448464429
 21
125.1117340323
 31
0.0
  0
LINE
  5
31E
330
1F
100
AcDbEntity
  8
0
  6
HIDDEN
 62
     7
370
     0
100
AcDbLine
 10
51.1448455638
 20
123.438116632
 30
0.0
 11
51.1448455638
 21
125.1117340323
 31
0.0
  0
LINE
  5
31F
330
1F
100
AcDbEntity
  8
0
  6
HIDDEN
 62
     7
370
     0
100
AcDbLine
 10
45.1448464429
 20
123.438116632
 30
0.0
 11
45.1448464429
 21
125.1117340323
 31
0.0
  0
LINE
  5
320
330
1F
100
AcDbEntity
  8
0
  6
HIDDEN
 62
     7
370
     0
100
AcDbLine
 10
51.1448455638
 20
120.5643363098
 30
0.0
 11
51.1448455638
 21
123.438116632
 31
0.0
  0
LINE
  5
321
330
1F
100
AcDbEntity
  8
0
  6
HIDDEN
 62
     7
370
     0
100
AcDbLine
 10
45.1448464429
 20
120.5643363098
 30
0.0
 11
45.1448464429
 21
123.438116632
 31
0.0
  0
LINE
  5
322
330
1F
100
AcDbEntity
  8
0
  6
HIDDEN
 62
     7
370
     0
100
AcDbLine
 10
70.1448458841
 20
141.4379545056
 30
0.0
 11
69.3448458461
 21
142.2379531466
 31
0.0
  0
LINE
  5
323
330
1F
100
AcDbEntity
  8
0
  6
HIDDEN
 62
     7
370
     0
100
AcDbLine
 10
60.9448461456
 20
142.2379531466
 30
0.0
 11
60.1448461077
 21
141.4379545056
 31
0.0
  0
LINE
  5
324
330
1F
100
AcDbEntity
  8
0
  6
HIDDEN
 62
     7
370
     0
100
AcDbLine
 10
60.1448461077
 20
141.4379545056
 30
0.0
 11
60.1448461077
 21
131.2379532062
 31
0.0
  0
LINE
  5
325
330
1F
100
AcDbEntity
  8
0
  6
HIDDEN
 62
     7
370
     0
100
AcDbLine
 10
70.1448458841
 20
131.2379532062
 30
0.0
 11
70.1448458841
 21
141.4379545056
 31
0.0
  0
LINE
  5
326
330
1F
100
AcDbEntity
  8
0
  6
HIDDEN
 62
     7
370
     0
100
AcDbLine
 10
60.1448461077
 20
131.2379532062
 30
0.0
 11
61.6448458879
 21
129.737953426
 31
0.0
  0
LINE
  5
327
330
1F
100
AcDbEntity
  8
0
  6
HIDDEN
 62
     7
370
     0
100
AcDbLine
 10
68.6448461039
 20
129.737953426
 30
0.0
 11
70.1448458841
 21
131.2379532062
 31
0.0
  0
LINE
  5
328
330
1F
100
AcDbEntity
  8
0
  6
HIDDEN
 62
     7
370
     0
100
AcDbLine
 10
67.64484594
 20
129.737953426
 30
0.0
 11
65.1448459959
 21
131.181329725
 31
0.0
  0
LINE
  5
329
330
1F
100
AcDbEntity
  8
0
  6
HIDDEN
 62
     7
370
     0
100
AcDbLine
 10
65.1448459959
 20
131.181329725
 30
0.0
 11
62.6448460518
 21
129.737953426
 31
0.0
  0
LINE
  5
32A
330
1F
100
AcDbEntity
  8
0
  6
HIDDEN
 62
     7
370
     0
100
AcDbLine
 10
70.1448458841
 20
141.4379545056
 30
0.0
 11
69.9243268593
 21
141.6584730648
 31
0.0
  0
LINE
  5
32B
330
1F
100
AcDbEntity
  8
0
  6
HIDDEN
 62
     7
370
     0
100
AcDbLine
 10
60.3653651325
 20
141.6584730648
 30
0.0
 11
60.1448461077
 21
141.4379545056
 31
0.0
  0
LINE
  5
32C
330
1F
100
AcDbEntity
  8
0
  6
HIDDEN
 62
     7
370
     0
100
AcDbLine
 10
60.1448461077
 20
131.2379532062
 30
0.0
 11
61.6448458879
 21
129.737953426
 31
0.0
  0
LINE
  5
32D
330
1F
100
AcDbEntity
  8
0
  6
HIDDEN
 62
     7
370
     0
100
AcDbLine
 10
68.6448461039
 20
129.737953426
 30
0.0
 11
70.1448458841
 21
131.2379532062
 31
0.0
  0
LINE
  5
32E
330
1F
100
AcDbEntity
  8
0
  6
HIDDEN
 62
     7
370
     0
100
AcDbLine
 10
60.1448461077
 20
141.4379545056
 30
0.0
 11
60.1448461077
 21
131.2379532062
 31
0.0
  0
LINE
  5
32F
330
1F
100
AcDbEntity
  8
0
  6
HIDDEN
 62
     7
370
     0
100
AcDbLine
 10
70.1448458841
 20
131.2379532062
 30
0.0
 11
70.1448458841
 21
141.4379545056
 31
0.0
  0
LINE
  5
330
330
1F
100
AcDbEntity
  8
0
  6
HIDDEN
 62
     7
370
     0
100
AcDbLine
 10
67.64484594
 20
129.737953426
 30
0.0
 11
65.1448459959
 21
131.181329725
 31
0.0
  0
LINE
  5
331
330
1F
100
AcDbEntity
  8
0
  6
HIDDEN
 62
     7
370
     0
100
AcDbLine
 10
65.1448459959
 20
131.181329725
 30
0.0
 11
62.6448460518
 21
129.737953426
 31
0.0
  0
LINE
  5
332
330
1F
100
AcDbEntity
  8
0
  6
HIDDEN
 62
     7
370
     0
100
AcDbLine
 10
84.3448469078
 20
127.2379534818
 30
0.0
 11
74.1448456085
 21
127.2379534818
 31
0.0
  0
LINE
  5
333
330
1F
100
AcDbEntity
  8
0
  6
HIDDEN
 62
     7
370
     0
100
AcDbLine
 10
74.1448456085
 20
117.2379537054
 30
0.0
 11
84.3448469078
 21
117.2379537054
 31
0.0
  0
LINE
  5
334
330
1F
100
AcDbEntity
  8
0
  6
HIDDEN
 62
     7
370
     0
100
AcDbLine
 10
84.3448469078
 20
117.2379537054
 30
0.0
 11
85.1448455489
 21
118.0379537434
 31
0.0
  0
LINE
  5
335
330
1F
100
AcDbEntity
  8
0
  6
HIDDEN
 62
     7
370
     0
100
AcDbLine
 10
85.1448455489
 20
126.4379534438
 30
0.0
 11
84.3448469078
 21
127.2379534818
 31
0.0
  0
LINE
  5
336
330
1F
100
AcDbEntity
  8
0
  6
HIDDEN
 62
     7
370
     0
100
AcDbLine
 10
74.1448456085
 20
127.2379534818
 30
0.0
 11
72.6448458283
 21
125.7379537016
 31
0.0
  0
LINE
  5
337
330
1F
100
AcDbEntity
  8
0
  6
HIDDEN
 62
     7
370
     0
100
AcDbLine
 10
72.6448458283
 20
118.7379534856
 30
0.0
 11
74.1448456085
 21
117.2379537054
 31
0.0
  0
LINE
  5
338
330
1F
100
AcDbEntity
  8
0
  6
HIDDEN
 62
     7
370
     0
100
AcDbLine
 10
72.6448458283
 20
119.7379536495
 30
0.0
 11
74.0882221272
 21
122.2379535936
 31
0.0
  0
LINE
  5
339
330
1F
100
AcDbEntity
  8
0
  6
HIDDEN
 62
     7
370
     0
100
AcDbLine
 10
74.0882221272
 20
122.2379535936
 30
0.0
 11
72.6448458283
 21
124.7379535377
 31
0.0
  0
LINE
  5
33A
330
1F
100
AcDbEntity
  8
0
  6
HIDDEN
 62
     7
370
     0
100
AcDbLine
 10
56.1448463833
 20
117.2379537054
 30
0.0
 11
57.6448461635
 21
118.7379534856
 31
0.0
  0
LINE
  5
33B
330
1F
100
AcDbEntity
  8
0
  6
HIDDEN
 62
     7
370
     0
100
AcDbLine
 10
57.6448461635
 20
125.7379537016
 30
0.0
 11
56.1448463833
 21
127.2379534818
 31
0.0
  0
LINE
  5
33C
330
1F
100
AcDbEntity
  8
0
  6
HIDDEN
 62
     7
370
     0
100
AcDbLine
 10
45.9448450839
 20
117.2379537054
 30
0.0
 11
56.1448463833
 21
117.2379537054
 31
0.0
  0
LINE
  5
33D
330
1F
100
AcDbEntity
  8
0
  6
HIDDEN
 62
     7
370
     0
100
AcDbLine
 10
56.1448463833
 20
127.2379534818
 30
0.0
 11
45.9448450839
 21
127.2379534818
 31
0.0
  0
LINE
  5
33E
330
1F
100
AcDbEntity
  8
0
  6
HIDDEN
 62
     7
370
     0
100
AcDbLine
 10
45.9448450839
 20
127.2379534818
 30
0.0
 11
45.7243265247
 21
127.017434457
 31
0.0
  0
LINE
  5
33F
330
1F
100
AcDbEntity
  8
0
  6
HIDDEN
 62
     7
370
     0
100
AcDbLine
 10
45.7243265247
 20
117.4584727302
 30
0.0
 11
45.9448450839
 21
117.2379537054
 31
0.0
  0
LINE
  5
340
330
1F
100
AcDbEntity
  8
0
  6
HIDDEN
 62
     7
370
     0
100
AcDbLine
 10
57.6448461635
 20
124.7379535377
 30
0.0
 11
56.2014698645
 21
122.2379535936
 31
0.0
  0
LINE
  5
341
330
1F
100
AcDbEntity
  8
0
  6
HIDDEN
 62
     7
370
     0
100
AcDbLine
 10
56.2014698645
 20
122.2379535936
 30
0.0
 11
57.6448461635
 21
119.7379536495
 31
0.0
  0
LINE
  5
342
330
1F
100
AcDbEntity
  8
0
  6
HIDDEN
 62
     7
370
     0
100
AcDbLine
 10
84.3448469078
 20
117.2379537054
 30
0.0
 11
85.1448455489
 21
118.0379537434
 31
0.0
  0
LINE
  5
343
330
1F
100
AcDbEntity
  8
0
  6
HIDDEN
 62
     7
370
     0
100
AcDbLine
 10
85.1448455489
 20
126.4379534438
 30
0.0
 11
84.3448469078
 21
127.2379534818
 31
0.0
  0
LINE
  5
344
330
1F
100
AcDbEntity
  8
0
  6
HIDDEN
 62
     7
370
     0
100
AcDbLine
 10
84.3448469078
 20
127.2379534818
 30
0.0
 11
74.1448456085
 21
127.2379534818
 31
0.0
  0
LINE
  5
345
330
1F
100
AcDbEntity
  8
0
  6
HIDDEN
 62
     7
370
     0
100
AcDbLine
 10
74.1448456085
 20
117.2379537054
 30
0.0
 11
84.3448469078
 21
117.2379537054
 31
0.0
  0
LINE
  5
346
330
1F
100
AcDbEntity
  8
0
  6
HIDDEN
 62
     7
370
     0
100
AcDbLine
 10
74.1448456085
 20
127.2379534818
 30
0.0
 11
72.6448458283
 21
125.7379537016
 31
0.0
  0
LINE
  5
347
330
1F
100
AcDbEntity
  8
0
  6
HIDDEN
 62
     7
370
     0
100
AcDbLine
 10
72.6448458283
 20
118.7379534856
 30
0.0
 11
74.1448456085
 21
117.2379537054
 31
0.0
  0
LINE
  5
348
330
1F
100
AcDbEntity
  8
0
  6
HIDDEN
 62
     7
370
     0
100
AcDbLine
 10
72.6448458283
 20
119.7379536495
 30
0.0
 11
74.0882221272
 21
122.2379535936
 31
0.0
  0
LINE
  5
349
330
1F
100
AcDbEntity
  8
0
  6
HIDDEN
 62
     7
370
     0
100
AcDbLine
 10
74.0882221272
 20
122.2379535936
 30
0.0
 11
72.6448458283
 21
124.7379535377
 31
0.0
  0
LINE
  5
34A
330
1F
100
AcDbEntity
  8
0
  6
HIDDEN
 62
     7
370
     0
100
AcDbLine
 10
56.1448463833
 20
117.2379537054
 30
0.0
 11
57.6448461635
 21
118.7379534856
 31
0.0
  0
LINE
  5
34B
330
1F
100
AcDbEntity
  8
0
  6
HIDDEN
 62
     7
370
     0
100
AcDbLine
 10
57.6448461635
 20
125.7379537016
 30
0.0
 11
56.1448463833
 21
127.2379534818
 31
0.0
  0
LINE
  5
34C
330
1F
100
AcDbEntity
  8
0
  6
HIDDEN
 62
     7
370
     0
100
AcDbLine
 10
45.9448450839
 20
117.2379537054
 30
0.0
 11
56.1448463833
 21
117.2379537054
 31
0.0
  0
LINE
  5
34D
330
1F
100
AcDbEntity
  8
0
  6
HIDDEN
 62
     7
370
     0
100
AcDbLine
 10
56.1448463833
 20
127.2379534818
 30
0.0
 11
45.9448450839
 21
127.2379534818
 31
0.0
  0
LINE
  5
34E
330
1F
100
AcDbEntity
  8
0
  6
HIDDEN
 62
     7
370
     0
100
AcDbLine
 10
45.9448450839
 20
127.2379534818
 30
0.0
 11
45.1448464429
 21
126.4379534438
 31
0.0
  0
LINE
  5
34F
330
1F
100
AcDbEntity
  8
0
  6
HIDDEN
 62
     7
370
     0
100
AcDbLine
 10
45.1448464429
 20
118.0379537434
 30
0.0
 11
45.9448450839
 21
117.2379537054
 31
0.0
  0
LINE
  5
350
330
1F
100
AcDbEntity
  8
0
  6
HIDDEN
 62
     7
370
     0
100
AcDbLine
 10
57.6448461635
 20
124.7379535377
 30
0.0
 11
56.2014698645
 21
122.2379535936
 31
0.0
  0
LINE
  5
351
330
1F
100
AcDbEntity
  8
0
  6
HIDDEN
 62
     7
370
     0
100
AcDbLine
 10
56.2014698645
 20
122.2379535936
 30
0.0
 11
57.6448461635
 21
119.7379536495
 31
0.0
  0
LINE
  5
352
330
1F
100
AcDbEntity
  8
0
  6
HIDDEN
 62
     7
370
     0
100
AcDbLine
 10
84.3448469078
 20
117.2379537054
 30
0.0
 11
84.5653654671
 21
117.4584727302
 31
0.0
  0
LINE
  5
353
330
1F
100
AcDbEntity
  8
0
  6
HIDDEN
 62
     7
370
     0
100
AcDbLine
 10
84.5653654671
 20
127.017434457
 30
0.0
 11
84.3448469078
 21
127.2379534818
 31
0.0
  0
LINE
  5
354
330
1F
100
AcDbEntity
  8
0
  6
HIDDEN
 62
     7
370
     0
100
AcDbLine
 10
84.3448469078
 20
127.2379534818
 30
0.0
 11
74.1448456085
 21
127.2379534818
 31
0.0
  0
LINE
  5
355
330
1F
100
AcDbEntity
  8
0
  6
HIDDEN
 62
     7
370
     0
100
AcDbLine
 10
74.1448456085
 20
117.2379537054
 30
0.0
 11
84.3448469078
 21
117.2379537054
 31
0.0
  0
LINE
  5
356
330
1F
100
AcDbEntity
  8
0
  6
HIDDEN
 62
     7
370
     0
100
AcDbLine
 10
74.1448456085
 20
127.2379534818
 30
0.0
 11
72.6448458283
 21
125.7379537016
 31
0.0
  0
LINE
  5
357
330
1F
100
AcDbEntity
  8
0
  6
HIDDEN
 62
     7
370
     0
100
AcDbLine
 10
72.6448458283
 20
118.7379534856
 30
0.0
 11
74.1448456085
 21
117.2379537054
 31
0.0
  0
LINE
  5
358
330
1F
100
AcDbEntity
  8
0
  6
HIDDEN
 62
     7
370
     0
100
AcDbLine
 10
72.6448458283
 20
119.7379536495
 30
0.0
 11
74.0882221272
 21
122.2379535936
 31
0.0
  0
LINE
  5
359
330
1F
100
AcDbEntity
  8
0
  6
HIDDEN
 62
     7
370
     0
100
AcDbLine
 10
74.0882221272
 20
122.2379535936
 30
0.0
 11
72.6448458283
 21
124.7379535377
 31
0.0
  0
LINE
  5
35A
330
1F
100
AcDbEntity
  8
0
  6
HIDDEN
 62
     7
370
     0
100
AcDbLine
 10
60.1448461077
 20
141.4379545056
 30
0.0
 11
60.1448461077
 21
131.2379532062
 31
0.0
  0
LINE
  5
35B
330
1F
100
AcDbEntity
  8
0
  6
HIDDEN
 62
     7
370
     0
100
AcDbLine
 10
70.1448458841
 20
131.2379532062
 30
0.0
 11
70.1448458841
 21
141.4379545056
 31
0.0
  0
LINE
  5
35C
330
1F
100
AcDbEntity
  8
0
  6
HIDDEN
 62
     7
370
     0
100
AcDbLine
 10
70.1448458841
 20
141.4379545056
 30
0.0
 11
69.3448458461
 21
142.2379531466
 31
0.0
  0
LINE
  5
35D
330
1F
100
AcDbEntity
  8
0
  6
HIDDEN
 62
     7
370
     0
100
AcDbLine
 10
60.9448461456
 20
142.2379531466
 30
0.0
 11
60.1448461077
 21
141.4379545056
 31
0.0
  0
LINE
  5
35E
330
1F
100
AcDbEntity
  8
0
  6
HIDDEN
 62
     7
370
     0
100
AcDbLine
 10
60.1448461077
 20
131.2379532062
 30
0.0
 11
61.6448458879
 21
129.737953426
 31
0.0
  0
LINE
  5
35F
330
1F
100
AcDbEntity
  8
0
  6
HIDDEN
 62
     7
370
     0
100
AcDbLine
 10
68.6448461039
 20
129.737953426
 30
0.0
 11
70.1448458841
 21
131.2379532062
 31
0.0
  0
LINE
  5
360
330
1F
100
AcDbEntity
  8
0
  6
HIDDEN
 62
     7
370
     0
100
AcDbLine
 10
67.64484594
 20
129.737953426
 30
0.0
 11
65.1448459959
 21
131.181329725
 31
0.0
  0
LINE
  5
361
330
1F
100
AcDbEntity
  8
0
  6
HIDDEN
 62
     7
370
     0
100
AcDbLine
 10
65.1448459959
 20
131.181329725
 30
0.0
 11
62.6448460518
 21
129.737953426
 31
0.0
  0
LINE
  5
362
330
1F
100
AcDbEntity
  8
0
  6
HIDDEN
 62
     7
370
     0
100
AcDbLine
 10
45.9448450839
 20
117.2379537054
 30
0.0
 11
56.1448463833
 21
117.2379537054
 31
0.0
  0
LINE
  5
363
330
1F
100
AcDbEntity
  8
0
  6
HIDDEN
 62
     7
370
     0
100
AcDbLine
 10
56.1448463833
 20
127.2379534818
 30
0.0
 11
45.9448450839
 21
127.2379534818
 31
0.0
  0
LINE
  5
364
330
1F
100
AcDbEntity
  8
0
  6
HIDDEN
 62
     7
370
     0
100
AcDbLine
 10
56.1448463833
 20
117.2379537054
 30
0.0
 11
57.6448461635
 21
118.7379534856
 31
0.0
  0
LINE
  5
365
330
1F
100
AcDbEntity
  8
0
  6
HIDDEN
 62
     7
370
     0
100
AcDbLine
 10
57.6448461635
 20
125.7379537016
 30
0.0
 11
56.1448463833
 21
127.2379534818
 31
0.0
  0
LINE
  5
366
330
1F
100
AcDbEntity
  8
0
  6
HIDDEN
 62
     7
370
     0
100
AcDbLine
 10
45.9448450839
 20
127.2379534818
 30
0.0
 11
45.1448464429
 21
126.4379534438
 31
0.0
  0
LINE
  5
367
330
1F
100
AcDbEntity
  8
0
  6
HIDDEN
 62
     7
370
     0
100
AcDbLine
 10
45.1448464429
 20
118.0379537434
 30
0.0
 11
45.9448450839
 21
117.2379537054
 31
0.0
  0
LINE
  5
368
330
1F
100
AcDbEntity
  8
0
  6
HIDDEN
 62
     7
370
     0
100
AcDbLine
 10
57.6448461635
 20
124.7379535377
 30
0.0
 11
56.2014698645
 21
122.2379535936
 31
0.0
  0
LINE
  5
369
330
1F
100
AcDbEntity
  8
0
  6
HIDDEN
 62
     7
370
     0
100
AcDbLine
 10
56.2014698645
 20
122.2379535936
 30
0.0
 11
57.6448461635
 21
119.7379536495
 31
0.0
  0
INSERT
  5
375
330
1F
100
AcDbEntity
  8
VERMASSUNG
100
AcDbBlockReference
  2
SW_CENTERMARKSYMBOL_0
 10
65.1448459959
 20
122.2379535936
 30
0.0
  0
OLE2FRAME
  5
376
330
1F
100
AcDbEntity
  8
0
100
AcDbOle2Frame
 70
     2
  3
Paintbrush-Bild
 10
13.8511154363
 20
38.264191557
 30
0.0
 11
51.6290888628
 21
31.9806341108
 31
0.0
 71
     2
 72
     0
 73
     1
 90
    12928
310
80552BED0767C5B32B40DDAF6807D121434000000000000000006FFBDDFB85D0
310
4940DDAF6807D121434000000000000000006FFBDDFB85D04940416F4BD60AFB
310
3F4000000000000000002BED0767C5B32B40416F4BD60AFB3F40000000000000
310
0000000000000100000000010000010000000100000000000100000000320000
310
D0CF11E0A1B11AE1000000000000000000000000000000003E000300FEFF0900
310
0600000000000000000000000100000001000000000000000010000002000000
310
01000000FEFFFFFF0000000000000000FFFFFFFFFFFFFFFFFFFFFFFFFFFFFFFF
310
FFFFFFFFFFFFFFFFFFFFFFFFFFFFFFFFFFFFFFFFFFFFFFFFFFFFFFFFFFFFFFFF
310
FFFFFFFFFFFFFFFFFFFFFFFFFFFFFFFFFFFFFFFFFFFFFFFFFFFFFFFFFFFFFFFF
310
FFFFFFFFFFFFFFFFFFFFFFFFFFFFFFFFFFFFFFFFFFFFFFFFFFFFFFFFFFFFFFFF
310
FFFFFFFFFFFFFFFFFFFFFFFFFFFFFFFFFFFFFFFFFFFFFFFFFFFFFFFFFFFFFFFF
310
FFFFFFFFFFFFFFFFFFFFFFFFFFFFFFFFFFFFFFFFFFFFFFFFFFFFFFFFFFFFFFFF
310
FFFFFFFFFFFFFFFFFFFFFFFFFFFFFFFFFFFFFFFFFFFFFFFFFFFFFFFFFFFFFFFF
310
FFFFFFFFFFFFFFFFFFFFFFFFFFFFFFFFFFFFFFFFFFFFFFFFFFFFFFFFFFFFFFFF
310
FFFFFFFFFFFFFFFFFFFFFFFFFFFFFFFFFFFFFFFFFFFFFFFFFFFFFFFFFFFFFFFF
310
FFFFFFFFFFFFFFFFFFFFFFFFFFFFFFFFFFFFFFFFFFFFFFFFFFFFFFFFFFFFFFFF
310
FFFFFFFFFFFFFFFFFFFFFFFFFFFFFFFFFFFFFFFFFFFFFFFFFFFFFFFFFFFFFFFF
310
FFFFFFFFFFFFFFFFFFFFFFFFFFFFFFFFFFFFFFFFFFFFFFFFFFFFFFFFFFFFFFFF
310
FFFFFFFFFFFFFFFFFFFFFFFFFFFFFFFFFFFFFFFFFFFFFFFFFFFFFFFFFFFFFFFF
310
FFFFFFFFFFFFFFFFFFFFFFFFFFFFFFFFFFFFFFFFFFFFFFFFFFFFFFFFFFFFFFFF
310
FDFFFFFFFEFFFFFFFEFFFFFFFEFFFFFF05000000060000000700000008000000
310
090000000A0000000B0000000C0000000D0000000E0000000F00000010000000
310
11000000120000001300000014000000150000001600000017000000FEFFFFFF
310
FFFFFFFFFFFFFFFFFFFFFFFFFFFFFFFFFFFFFFFFFFFFFFFFFFFFFFFFFFFFFFFF
310
FFFFFFFFFFFFFFFFFFFFFFFFFFFFFFFFFFFFFFFFFFFFFFFFFFFFFFFFFFFFFFFF
310
FFFFFFFFFFFFFFFFFFFFFFFFFFFFFFFFFFFFFFFFFFFFFFFFFFFFFFFFFFFFFFFF
310
FFFFFFFFFFFFFFFFFFFFFFFFFFFFFFFFFFFFFFFFFFFFFFFFFFFFFFFFFFFFFFFF
310
FFFFFFFFFFFFFFFFFFFFFFFFFFFFFFFFFFFFFFFFFFFFFFFFFFFFFFFFFFFFFFFF
310
FFFFFFFFFFFFFFFFFFFFFFFFFFFFFFFFFFFFFFFFFFFFFFFFFFFFFFFFFFFFFFFF
310
FFFFFFFFFFFFFFFFFFFFFFFFFFFFFFFFFFFFFFFFFFFFFFFFFFFFFFFFFFFFFFFF
310
FFFFFFFFFFFFFFFFFFFFFFFFFFFFFFFFFFFFFFFFFFFFFFFFFFFFFFFFFFFFFFFF
310
FFFFFFFFFFFFFFFFFFFFFFFFFFFFFFFFFFFFFFFFFFFFFFFFFFFFFFFFFFFFFFFF
310
FFFFFFFFFFFFFFFFFFFFFFFFFFFFFFFFFFFFFFFFFFFFFFFFFFFFFFFFFFFFFFFF
310
FFFFFFFFFFFFFFFFFFFFFFFFFFFFFFFFFFFFFFFFFFFFFFFFFFFFFFFFFFFFFFFF
310
FFFFFFFFFFFFFFFFFFFFFFFFFFFFFFFFFFFFFFFFFFFFFFFFFFFFFFFFFFFFFFFF
310
FFFFFFFFFFFFFFFFFFFFFFFFFFFFFFFFFFFFFFFFFFFFFFFFFFFFFFFFFFFFFFFF
310
52006F006F007400200045006E00740072007900000000000000000000000000
310
0000000000000000000000000000000000000000000000000000000000000000
310
16000500FFFFFFFFFFFFFFFF020000000A00030000000000C000000000000046
310
000000000000000000000000C0792B499645CE0103000000C000000000000000
310
01004F006C006500000000000000000000000000000000000000000000000000
310
0000000000000000000000000000000000000000000000000000000000000000
310
0A000200FFFFFFFFFFFFFFFFFFFFFFFF00000000000000000000000000000000
310
0000000000000000000000000000000000000000000000001400000000000000
310
010043006F006D0070004F0062006A0000000000000000000000000000000000
310
0000000000000000000000000000000000000000000000000000000000000000
310
120002010100000003000000FFFFFFFF00000000000000000000000000000000
310
0000000000000000000000000000000000000000010000004D00000000000000
310
01004F006C006500310030004E00610074006900760065000000000000000000
310
0000000000000000000000000000000000000000000000000000000000000000
310
1A000200FFFFFFFFFFFFFFFFFFFFFFFF00000000000000000000000000000000
310
0000000000000000000000000000000000000000040000002426000000000000
310
FEFFFFFF02000000FEFFFFFFFFFFFFFFFFFFFFFFFFFFFFFFFFFFFFFFFFFFFFFF
310
FFFFFFFFFFFFFFFFFFFFFFFFFFFFFFFFFFFFFFFFFFFFFFFFFFFFFFFFFFFFFFFF
310
FFFFFFFFFFFFFFFFFFFFFFFFFFFFFFFFFFFFFFFFFFFFFFFFFFFFFFFFFFFFFFFF
310
FFFFFFFFFFFFFFFFFFFFFFFFFFFFFFFFFFFFFFFFFFFFFFFFFFFFFFFFFFFFFFFF
310
FFFFFFFFFFFFFFFFFFFFFFFFFFFFFFFFFFFFFFFFFFFFFFFFFFFFFFFFFFFFFFFF
310
FFFFFFFFFFFFFFFFFFFFFFFFFFFFFFFFFFFFFFFFFFFFFFFFFFFFFFFFFFFFFFFF
310
FFFFFFFFFFFFFFFFFFFFFFFFFFFFFFFFFFFFFFFFFFFFFFFFFFFFFFFFFFFFFFFF
310
FFFFFFFFFFFFFFFFFFFFFFFFFFFFFFFFFFFFFFFFFFFFFFFFFFFFFFFFFFFFFFFF
310
FFFFFFFFFFFFFFFFFFFFFFFFFFFFFFFFFFFFFFFFFFFFFFFFFFFFFFFFFFFFFFFF
310
FFFFFFFFFFFFFFFFFFFFFFFFFFFFFFFFFFFFFFFFFFFFFFFFFFFFFFFFFFFFFFFF
310
FFFFFFFFFFFFFFFFFFFFFFFFFFFFFFFFFFFFFFFFFFFFFFFFFFFFFFFFFFFFFFFF
310
FFFFFFFFFFFFFFFFFFFFFFFFFFFFFFFFFFFFFFFFFFFFFFFFFFFFFFFFFFFFFFFF
310
FFFFFFFFFFFFFFFFFFFFFFFFFFFFFFFFFFFFFFFFFFFFFFFFFFFFFFFFFFFFFFFF
310
FFFFFFFFFFFFFFFFFFFFFFFFFFFFFFFFFFFFFFFFFFFFFFFFFFFFFFFFFFFFFFFF
310
FFFFFFFFFFFFFFFFFFFFFFFFFFFFFFFFFFFFFFFFFFFFFFFFFFFFFFFFFFFFFFFF
310
FFFFFFFFFFFFFFFFFFFFFFFFFFFFFFFFFFFFFFFFFFFFFFFFFFFFFFFFFFFFFFFF
310
0100000200000000000000000000000000000000000000000000000000000000
310
0000000000000000000000000000000000000000000000000000000000000000
310
0100FEFF030A0000FFFFFFFF0A00030000000000C00000000000004607000000
310
5042727573680007000000504272757368000700000050427275736800F439B2
310
7100000000000000000000000000000000000000000000000000000000000000
310
0000000000000000000000000000000000000000000000000000000000000000
310
0000000000000000000000000000000000000000000000000000000000000000
310
0000000000000000000000000000000000000000000000000000000000000000
310
0000000000000000000000000000000000000000000000000000000000000000
310
0000000000000000000000000000000000000000000000000000000000000000
310
0000000000000000000000000000000000000000000000000000000000000000
310
0000000000000000000000000000000000000000000000000000000000000000
310
0000000000000000000000000000000000000000000000000000000000000000
310
0000000000000000000000000000000000000000000000000000000000000000
310
0000000000000000000000000000000000000000000000000000000000000000
310
0000000000000000000000000000000000000000000000000000000000000000
310
20260000424D0E260000000000003E00000028000000B40200006E0000000100
310
01000000000000000000130B0000130B00000200000002000000000000FFFFFF
310
FFFFFFFFFFFFFFFFFFFFFFFFFFFFFFFFFFFFFFFFFFFFFFFFFFFFFFFFFFFFFFFF
310
FFFFFFFFFFFFFFFFFFFFFFFFFFFFFFFFFFFFFFFFFFFFFFFFFFFFFFFFFFFFFFFF
310
FFFFFFFFFFFFFFFFFFFFFFFFFFFFFFFFFFFFFFFFFFFFFFFFF000FFFFFFFFFFFF
310
FFFFFFFFFFFFFFFFFFFFFFFFFFFFFFFFFFFFFFFFFFFFFFFFFFFFFFFFFFFFFFFF
310
FFFFFFFFFFFFFFFFFFFFFFFFFFFFFFFFFFFFFFFFFFFFFFFFFFFFFFFFFFFFFFFF
310
FFFFFFFFFFFFFFFFFFFFFFFFFFFFFFFFF000FFFFFFFFFFFFFFFFFFFFFFFFFFFF
310
FFFFFFFFFFFFFFFFFFFFFFFFFFFFFFFFFFFFFFFFFFFFFFFFFFFFFFFFFFFFFFFF
310
FFFFFFFFFFFFFFFFFFFFFFFFFFFFFFFFFFFFFFFFFFFFFFFFFFFFFFFFFFFFFFFF
310
FFFFFFFFFFFFFFFFF000FFFFFFFFFFFFFFFFFFFFFFFFFFFFFFFFFFFFFFFFFFFF
310
FFFFFFFFFFFFFFFFFFFFFFFFFFFFFFFFFFFFFFFFFFFFFFFFFFFFFFFFFFFFFFFF
310
FFFFFFFFFFFFFFFFFFFFFFFFFFFFFFFFFFFFFFFFFFFFFFFFFFFFFFFFFFFFFFFF
310
F000FFFFFFFFFFFFFFFFFFFFFFFFFFFFFFFFFFFFFFFFFFFFFFFFFFFFFFFFFFFF
310
FFFFFFFFFFFFFFFFFFFFFFFFFFFFFFFFFFFFFFFFFFFFFFFFFFFFFFFFFFFFFFFF
310
FFFFFFFFFFFFFFFFFFFFFFFFFFFFFFFFFFFFFFFFFFFFFFFFF000FFFFFFFFFFFF
310
FFFFFFFFFFFFFFFFFFFFFFFFFFFFFFFFFFFFFFFFFFFFFFFFFFFFFFFFFFFFFFFF
310
FFFFFFFFFFFFFFFFFFFFFFFFFFFFFFFFFFFFFFFFFFFFFFFFFFFFFFFFFFFFFFFF
310
FFFFFFFFFFFFFFFFFFFFFFFFFFFFFFFFF000FFFFFFFFFFFFFFFFFFFFFFFFFFFF
310
FFFFFFFFFFFFFFFFFFFFFFFFFFFFFFFFFFFFFFFFFFFFFFFFFFFFFFFFFFFFFFFF
310
FFFFFFFFFFFFFFFFFFFFFFFFFFFFFFFFFFFFFFFFFFFFFFFFFFFFFFFFFFFFFFFF
310
FFFFFFFFFFFFFFFFF000FFFFFFFFFFFFFFFFFFFFFFFFFFFFFFFFFFFFFFFFFFFF
310
FFFFFFFFFFFFFFFFFFFFFFFFFFFFFFFFFFFFFFFFFFFFFFFFFFFFFFFFFFFFFFFF
310
FFFFFFFFFFFFFFFFFFFFFFFFFFFFFFFFFFFFFFFFFFFFFFFFFFFFFFFFFFFFFFFF
310
F000FFFFFFFFFFFFFFFFFFFFFFFFFFFFFFFFFFFFFFFFFFFFFFFFFFFFFFFFFFFF
310
FFFFFFFFFFFFFFFFFFFFFFFFFFFFFFFFFFFFFFFFFFFFFFFFFFFFFFFFFFFFFFFF
310
FFFFFFFFFFFFFFFFFFFFFFFFFFFFFFFFFFFFFFFFFFFFFFFFF000FFFFFFFFFFFF
310
FFFFFFFFFFFFFFFFFFFFFFFFFFFFFFFFFFFFFFFFFFFFFFFFFFFFFFFFFFFFFFFF
310
FFFFFFFFFFFFFFFFFFFFFFFFFFFFFFFFFFFFFFFFFFFFFFFFFFFFFFFFFFFFFFFF
310
FFFFFFFFFFFFFFFFFFFFFFFFFFFFFFFFF000FFFFFFFFFFFFFFFFFFFFFFFFFFFF
310
FFFFFFFFFFFFFFFFFFFFFFFFFFFFFFFFFFFFFFFFFFFFFFFFFFFFFFFFFFFFFFFF
310
FFFFFFFFFFFFFFFFFFFFFFFFFFFFFFFFFFFFFFFFFFFFFFFFFFFFFFFFFFFFFFFF
310
FFFFFFFFFFFFFFFFF000FFFFFFFFFFFFFFFFFFFFFFFFFFFFFFFFFFFFFFFFFFFF
310
FFFFFFFFFFFFFFFFFFFFFFFFFFFFFFFFFFFFFFFFFFFFFFFFFFFFFFFFFFFFFFFF
310
FFFFFFFFFFFFFFFFFFFFFFFFFFFFFFFFFFFFFFFFFFFFFFFFFFFFFFFFFFFFFFFF
310
F000FFFFFFFFFFFFFFFFFFFFFFFFFFFFFFFFFFFFFFFFFFFFFFFFFFFFFFFFFFFF
310
FFFFFFFFFFFFFFFFFFFFFFFFFFFFFFFFFFFFFFFFFFFFFFFFFFFFFFFFFFFFFFFF
310
FFFFFFFFFFFFFFFFFFFFFFFFFFFFFFFFFFFFFFFFFFFFFFFFF000FFFFFFFFFFFF
310
FFFFFFFFFFFFFFFFFFFFFFFFFFFFFFFFFFFFFFFFFFFFFFFFFFFFFFFFFFFFFFFF
310
FFFFFFFFFFFFFFFFFFFFFFFFFFFFFFFFFFFFFFFFFFFFFFFFFFFFFFFFFFFFFFFF
310
FFFFFFFFFFFFFFFFFFFFFFFFFFFFFFFFF000FFFFFFFFFFFFFFFFFFFFFFFFFFFF
310
FFFFFFFFFFFFFFFFFFFFFFFFFFFFFFFFFFFFFFFFFFFFFFFFFFFFFFFFFFFFFFFF
310
FFFFFFFFFFFFFFFFFFFFFFFFFFFFFFFFFFFFFFFFFFFFFFFFFFFFFFFFFFFFFFFF
310
FFFFFFFFFFFFFFFFF000FFFFFFFFFFFFFFFFFFFFFFFFFFFFFFFFFFFFFFFFFFFF
310
FFFFFFFFFFFFFFFFFFFFFFFFFFFFFFFFFFFFFFFFFFFFFFFFFFFFFFFFFFFFFFFF
310
FFFFFFFFFFFFFFFFFFFFFFFFFFFFFFFFFFFFFFFFFFFFFFFFFFFFFFFFFFFFFFFF
310
F000FFFFFFFFFFFFFFFFFFFFFFFFFFFFFFFFFFFFFFFFFFFFFFFFFFFFFFFFFFFF
310
FFFFFFFFFFFFFFFFFFFFFFFFFFFFFFFFFFFFFFFFFFFFFFFFFFFFFFFFFFFFFFFF
310
FFFFFFFFFFFFFFFFFFFFFFFFFFFFFFFFFFFFFFFFFFFFFFFFF000FFFFFFFFFFFF
310
FFFFFFFFFFFFFFFFFFFFFFFFFFFFFFFFFFFFFFFFFFFFFFFFFFFFFFFFFFFFFFFF
310
FFFFFFFFFFFFFFFFFFFFFFFFFFFFFFFFFFFFFFFFFFFFFFFFFFFFFFFFFFFFFFFF
310
FFFFFFFFFFFFFFFFFFFFFFFFFFFFFFFFF000FFFFFFFFFFFFFFFFFFFFFFFFFFFF
310
FFFFFFFFFFFFFFFFFFFFFFFFFFFFFFFFFFFFFFFFFFFFFFFFFFFFFFFFFFFFFFFF
310
FFFFFFFFFFFFFFFFFFFFFFFFFFFFFFFFFFFFFFFFFFFFFFFFFFFFFFFFFFFFFFFF
310
FFFFFFFFFFFFFFFFF000FFFFF80003FFFFFFFFFFFFFFFFFFFFFFFFFFFFFFFFFF
310
FFFFF00007FFFFFFFFFF00007FFFFFF800000000000000007FFFFFFFFFFFFFFF
310
FFFFFFFC001FFFFFFFFFFFFFFC001FFFFFFFFFFFFFFFFFFFFFFFFFFE0007FFFF
310
F000FFFF8000007FFFFFFFF8000FFFFFC0007FFFFF80007FFFFF0000007FFFFF
310
FFF8000007FFFFF800000000000000007FFFFFF0001FFFFFFFFFFFC00001FFFF
310
FFFFFFFFC00001FFFFFFFF000000000003FFFFE000007FFFF000FFFE0000000F
310
FFFFFFF0000FFFFF80007FFFFF80007FFFFC0000001FFFFFFFC0000001FFFFF8
310
00000000000000007FFFFFF0001FFFFFFFFFFE0000003FFFFFFFFFFE0000003F
310
FFFFFF000000000003FFFF0000000FFFF000FFF800000003FFFFFFF00007FFFF
310
80007FFFFF80007FFFF000000007FFFFFF000000003FFFF80000000000000000
310
7FFFFFF0001FFFFFFFFFF80000000FFFFFFFFFF80000000FFFFFFF0000000000
310
03FFFC00000003FFF000FFE000000000FFFFFFF00007FFFF80003FFFFF80007F
310
FFC000000001FFFFFC000000001FFFF800000000000000007FFFFFF0001FFFFF
310
FFFFE000000003FFFFFFFFE000000003FFFFFF000000000003FFF000000000FF
310
F000FF80000000007FFFFFF00007FFFF80003FFFFF80007FFF8000000000FFFF
310
F80000000007FFF800000000000000007FFFFFF0001FFFFFFFFFC000000001FF
310
FFFFFFC000000001FFFFFF000000000003FFC0000000007FF000FF0000000000
310
3FFFFFE00007FFFF00003FFFFF80007FFE00000000003FFFF00000000003FFF8
310
00000000000000007FFFFFF0001FFFFFFFFF8000000000FFFFFFFF8000000000
310
FFFFFF000000000003FF80000000003FF000FE00000000001FFFFFE00003FFFF
310
00003FFFFF80007FFC00000000001FFFE00000000001FFF8000001FFFE000000
310
7FFFFFF0001FFFFFFFFE00000000003FFFFFFE00000000003FFFFF0000000000
310
03FF00000000001FF000FC00000000000FFFFFE00003FFFF00001FFFFF80007F
310
F800000000001FFFC00000000000FFF8000001FFFE0000007FFFFFF0001FFFFF
310
FFFC00000000001FFFFFFC00000000001FFFFF000000000003FE00000000000F
310
F000F8000000000007FFFFE00003FFFF00001FFFFF80007FF800000000000FFF
310
800000000000FFF8000001FFFE0000007FFFFFF0001FFFFFFFF800000000000F
310
FFFFF800000000000FFFFF000000000003FC000000000007F000F80000000000
310
03FFFFC00003FFFE00001FFFFF80007FF0000000000007FF0000000000007FF8
310
000001FFFE0000007FFFFFF0001FFFFFFFF0000000000007FFFFF00000000000
310
07FFFF000000000003F8000000000003F000F0000000000003FFFFC00001FFFE
310
00001FFFFF80007FE0000000000007FE0000000000003FF8000001FFFE000000
310
7FFFFFF0001FFFFFFFF0000000000007FFFFF0000000000007FFFF0000000000
310
03F800001F800003F000E00001FFF00001FFFFC00001FFFE00000FFFFF80007F
310
E00001FFE00003FE00001FFF00003FF8000001FFFE0000007FFFFFF0001FFFFF
310
FFE000003E000003FFFFE000003E000003FFFF000000000003F00001FFF80001
310
F000E00007FFFC0001FFFFC00001FFFE00000FFFFF80007FC0000FFFFC0003FC
310
0000FFFFC0001FF8000001FFFE0000007FFFFFF0001FFFFFFFC00003FFE00001
310
FFFFC00003FFE00001FFFF0001FFFFFFFFF00007FFFE0001F000E0000FFFFF00
310
00FFFF800001FFFC00000FFFFF80007FC0001FFFFE0001FC0001FFFFE0001FF8
310
000001FFFE0000007FFFFFF0001FFFFFFF80000FFFF80000FFFF80000FFFF800
310
00FFFF0003FFFFFFFFE0000FFFFF8000F000C0003FFFFF8000FFFF800000FFFC
310
000007FFFF80007F80003FFFFF0001FC0003FFFFF0001FF8000001FFFE000000
310
7FFFFFF0001FFFFFFF80003FFFFE0000FFFF80003FFFFE0000FFFF0003FFFFFF
310
FFE0003FFFFF8000F000C0003FFFFF8000FFFF800000FFFC000007FFFF80007F
310
80007FFFFF8001F80007FFFFF8000FF8000001FFFE0000007FFFFFF0001FFFFF
310
FF00007FFFFF00007FFF00007FFFFF00007FFF0003FFFFFFFFE0003FFFFFC000
310
F000C0007FFFFFC000FFFF000000FFFC000007FFFF80007F8000FFFFFF8000F8
310
000FFFFFF8000FF8000001FFFE0000007FFFFFF0001FFFFFFF0000FFFFFF8000
310
7FFF0000FFFFFF80007FFF0003FFFFFFFFC0007FFFFFC00070008000FFFFFFC0
310
00FFFF000000FFF8000007FFFF80007F8000FFFFFF8000F8000FFFFFF8000FF8
310
000001FFFE0000007FFFFFF0001FFFFFFE0001FFFFFFC0003FFE0001FFFFFFC0
310
003FFF0003FFFFFFFFC0007FFFFFE00070008000FFFFFFC0007FFF0000007FF8
310
000003FFFF80007F0001FFFFFF8000F8000FFFFFF8000FF8000001FFFE000000
310
7FFFFFF0001FFFFFFE0001FFFFFFC0003FFE0001FFFFFFC0003FFF0003FFFFFF
310
FFC000FFFFFFE00070008000FFFFFFC0007FFF0000007FF8000003FFFF80007F
310
0001FFFFFF8000F8001FFFFFF8000FF8000001FFFE0000007FFFFFF0001FFFFF
310
FE0003FFFFFFE0003FFE0003FFFFFFE0003FFF0003FFFFFFFFC000FFFFFFE000
310
70008000FFFFFFC0007FFE0000007FF8000003FFFF80007F0001FFFFFF8000F0
310
001FFFFFF8000FF8000001FFFE0000007FFFFFF0001FFFFFFC0003FFFFFFE000
310
1FFC0003FFFFFFE0001FFF0003FFFFFFFFC000FFFFFFC00070008000FFFFFF80
310
007FFE0000007FF0000003FFFF80007F0001FFFFFF0000F0001FFFFFF8000FF8
310
000001FFFE0000007FFFFFF0001FFFFFFC0007FFFFFFF0001FFC0007FFFFFFF0
310
001FFF0003FFFFFFFFC000FFFFFFC00070008001FFFFFF0000FFFE0000003FF0
310
000001FFFF80007F0001FFFFFF0000F8001FFFFFF0000FF8000001FFFE000000
310
7FFFFFF0001FFFFFFC0007FFFFFFF0001FFC0007FFFFFFF0001FFF0003FFFFFF
310
FFC001FFFFFF80007000FFFFFFFFFE0000FFFE0008003FF0008001FFFF80007F
310
FFFFFFFFFC0000FFFFFFFFFFE0000FF8000001FFFE0000007FFFFFF0001FFFFF
310
F8000FFFFFFFF8000FF8000FFFFFFFF8000FFF0003FFFFFFFFFFFFFFFFFF0000
310
7000FFFFFFFFFC0000FFFC0008003FF0008001FFFF80007FFFFFFFFFF80001FF
310
FFFFFFFF80000FF8000001FFFE0000007FFFFFF0001FFFFFF8000FFFFFFFF800
310
0FF8000FFFFFFFF8000FFF0003FFFFFFFFFFFFFFFFFE0000F000FFFFFFFFE000
310
00FFFC000C003FE000C001FFFF80007FFFFFFFFFC00001FFFFFFFFFE00001FF8
310
000001FFFE0000007FFFFFF0001FFFFFF8000FFFFFFFF8000FF8000FFFFFFFF8
310
000FFF0003FFFFFFFFFFFFFFFFF00000F000FFFFFFFE000001FFFC000C001FE0
310
00C000FFFF80007FFFFFFFFE000001FFFFFFFFE000001FF80FFFFFFFFFFFFFC0
310
7FFFFFF0001FFFFFF8000FFFFFFFF8000FF8000FFFFFFFF8000FFF0003FFFFFF
310
FFFFFFFFFF800000F000FFFFFFC0000001FFFC001C001FE001C000FFFF80007F
310
FFFFFF80000003FFFFFFF80000001FF80FFFFFFFFFFFFFC07FFFFFF0001FFFFF
310
F8001FFFFFFFFC000FF8001FFFFFFFFC000FFF0003FFFFFFFFFFFFFFF0000001
310
F000FFFFF800000001FFF8001C001FE001C000FFFF80007FFFFFF800000003FF
310
FFFF800000003FF80FFFFFFFFFFFFFC07FFFFFF0001FFFFFF8001FFFFFFFFC00
310
0FF8001FFFFFFFFC000FFF0003FFFFFFFFFFFFFE00000001F000FFFFC0000000
310
03FFF8001E001FC001E000FFFF80007FFFFF8000000007FFFFFC000000003FF8
310
0FFFFFFFFFFFFFC07FFFFFF0001FFFFFF8001FFFFFFFFC000FF8001FFFFFFFFC
310
000FFF0003FFFFFFFFFFFFE000000003F000FFFE0000000007FFF8001E000FC0
310
01E0007FFF80007FFFFE0000000007FFFFE0000000007FF80FFFFFFFFFFFFFC0
310
7FFFFFF0001FFFFFF0001FFFFFFFFC0007F0001FFFFFFFFC0007FF0003FFFFFF
310
FFFFFF0000000003F000FFF80000000007FFF8001E000FC003E0007FFF80007F
310
FFF0000000000FFFFF8000000000FFF80FFFFFFFFFFFFFC07FFFFFF0001FFFFF
310
F0001FFFFFFFFC0007F0001FFFFFFFFC0007FF0003FFFFFFFFFFFC0000000007
310
F000FFE0000000000FFFF0003E000FC003E0007FFF80007FFFC0000000001FFF
310
FE0000000001FFF80FFFFFFFFFFFFFC07FFFFFF0001FFFFFF0001FFFFFFFFC00
310
07F0001FFFFFFFFC0007FF0003FFFFFFFFFFF0000000000FF000FFC000000000
310
1FFFF0003F000F8003F0003FFF80007FFF80000000003FFFF80000000003FFF8
310
0FFFFFFFFFFFFFC07FFFFFF0001FFFFFF0001FFFFFFFFC0007F0001FFFFFFFFC
310
0007FF0003FFFFFFFFFFE0000000001FF000FF00000000007FFFF0003F000780
310
03F0003FFF80007FFF00000000007FFFF00000000007FFF80FFFFFFFFFFFFFC0
310
7FFFFFF0001FFFFFF0001FFFFFFFFC0007F0001FFFFFFFFC0007FF0003FFFFFF
310
FFFF80000000007FF000FE0000000000FFFFE0003F00078007F0003FFF80007F
310
FE0000000001FFFFE0000000001FFFF80FFFFFFFFFFFFFC07FFFFFF0001FFFFF
310
F0001FFFFFFFFC0007F0001FFFFFFFFC0007FF0003FFFFFFFFFF0000000000FF
310
F000FC0000000003FFFFE0007F00078007F0003FFF80007FFC0000000007FFFF
310
C0000000007FFFF80FFFFFFFFFFFFFC07FFFFFF0001FFFFFF8001FFFFFFFFC00
310
0FF8001FFFFFFFFC000FFF0003FFFFFFFFFE0000000003FFF000FC000000000F
310
FFFFE0007F80070007F8001FFF80007FF8000000001FFFFF8000000001FFFFF8
310
0FFFFFFFFFFFFFC07FFFFFF0001FFFFFF8001FFFFFFFFC000FF8001FFFFFFFFC
310
000FFF0003FFFFFFFFFC000000000FFFF000F8000000007FFFFFE0007F800700
310
07F8001FFF80007FF000000000FFFFFF800000000FFFFFF80FFFFFFFFFFFFFC0
310
7FFFFFF0001FFFFFF8000FFFFFFFF8000FF8000FFFFFFFF8000FFF0003FFFFFF
310
FFFC000000007FFFF000F800000007FFFFFFC0007F8003000FF8001FFF80007F
310
F000000007FFFFFF000000007FFFFFF80FFFFFFFFFFFFFC07FFFFFF0001FFFFF
310
F8000FFFFFFFF8000FF8000FFFFFFFF8000FFF0003FFFFFFFFF80000000FFFFF
310
F000F0000000FFFFFFFFC000FF8003000FF8001FFF80007FE0000000FFFFFFFF
310
0000000FFFFFFFF8000001FFFE0000007FFFFFF0001FFFFFF8000FFFFFFFF800
310
0FF8000FFFFFFFF8000FFF0003FFFFFFFFF8000000FFFFFFF000F000000FFFFF
310
FFFFC000FFC002000FF8000FFF80007FE000001FFFFFFFFE000001FFFFFFFFF8
310
000001FFFE0000007FFFFFF0001FFFFFF8000FFFFFFFF8000FF8000FFFFFFFF8
310
000FFF0003FFFFFFFFF000001FFFFFFFF000E00000FFFFFFFFFFC000FFC00200
310
0FFC000FFF80007FE00001FFFFFFFFFE00001FFFFFFFFFF8000001FFFE000000
310
7FFFFFF0001FFFFFFC000FFFFFFFF8001FFC000FFFFFFFF8001FFF0003FFFFFF
310
FFF00001FFFFFFFFF000E00007FFFFFFFFFF8000FFC000001FFC000FFF80007F
310
C0000FFFFFFFFFFE0000FFFFFFFFFFF8000001FFFE0000007FFFFFF0001FFFFF
310
FC0007FFFFFFF0001FFC0007FFFFFFF0001FFF0003FFFFFFFFF00007FFFFFFFF
310
F000E0001FFFFFFFFFFF8000FFC000001FFC000FFF80007FC0003FFFFFFFFFFE
310
0001FFFFFFFFFFF8000001FFFE0000007FFFFFF0001FFFFFFC0007FFFFFFF000
310
1FFC0007FFFFFFF0001FFF0003FFFFFFFFF0001FFFFFFFFFF000E0003FFFFF00
310
03FF8001FFE000001FFC0007FF80007FC0007FFFFF0007FC0003FFFFF0003FF8
310
000001FFFE0000007FFFFFF0001FFFFFFC0003FFFFFFE0001FFC0003FFFFFFE0
310
001FFF0003FFFFFFFFF0003FFFFFFFFFF000E0003FFFFF0001FF8001FFE00000
310
1FFE0007FF80007FC0007FFFFE0003FC0007FFFFE0003FF8000001FFFE000000
310
7FFFFFF0001FFFFFFE0003FFFFFFE0003FFE0003FFFFFFE0003FFF0003FFFFFF
310
FFF0003FFFFF8001F000E0003FFFFF0001FF0001FFE000001FFE0007FF80007F
310
C0007FFFFE0003FC0007FFFFE0003FF8000001FFFE0000007FFFFFF0001FFFFF
310
FE0001FFFFFFC0003FFE0001FFFFFFC0003FFF0003FFFFFFFFF0003FFFFF0001
310
F000E0003FFFFF0003FF0001FFE000003FFE0007FF80007FC0007FFFFE0003FC
310
0007FFFFE0003FF8000001FFFE0000007FFFFFF0001FFFFFFF0001FFFFFFC000
310
7FFF0001FFFFFFC0007FFF0003FFFFFFFFF0003FFFFF0001F000E0003FFFFE00
310
03FF0003FFF000003FFE0003FF80007FC0007FFFFC0003FE0007FFFFE0003FF8
310
000001FFFE0000007FFFFFF0001FFFFFFF0000FFFFFF80007FFF0000FFFFFF80
310
007FFF0003FFFFFFFFF0003FFFFF0001F000E0003FFFFE0003FF0003FFF00000
310
3FFF0003FF80007FC0007FFFFC0007FE0007FFFFC0003FF8000001FFFE000000
310
7FFFFFF0001FFFFFFF80007FFFFF0000FFFF80007FFFFF0000FFFF0003FFFFFF
310
FFF0003FFFFF0003F000E0003FFFFC0003FE0003FFF000003FFF0003FF80007F
310
E0003FFFF80007FE0003FFFFC0007FF8000001FFFE0000007FFFFFF0001FFFFF
310
FF80003FFFFE0000FFFF80003FFFFE0000FFFF0003FFFFFFFFF0001FFFFE0003
310
F000F0001FFFF80003FE0003FFF000007FFF0001FF80007FE0003FFFF00007FE
310
0001FFFF80007FF8000001FFFE0000007FFFFFF0001FFFFFFFC0000FFFF80001
310
FFFFC0000FFFF80001FFFF0003FFFFFFFFF0001FFFFC0003F000F0000FFFF000
310
07FE0007FFF800007FFF0001FF80007FE0001FFFE00007FF0000FFFE00007FF8
310
000001FFFE0000007FFFFFF0001FFFFFFFC00003FFE00001FFFFC00003FFE000
310
01FFFF0003FFFFFFFFF8000FFFF80003F000F00003FFC00007FC0007FFF80000
310
7FFF8001FF80007FF00007FF80000FFF00007FF80000FFF8000001FFFE000000
310
7F80000000000001FFE000003E000003FFFFE000003E000003FFFF0003FFFFFF
310
FFF80003FFE00007F000F800000000000FFC0007FFF800007FFF8001FF80007F
310
F000000000000FFF000000000000FFF8000001FFFE0000007F80000000000001
310
FFF0000000000007FFFFF0000000000007FFFF0003FFFFFFFFFC00007E000007
310
F000F800000000000FFC0007FFF80000FFFF8000FF80007FF800000000001FFF
310
800000000001FFF8000001FFFE0000007F80000000000001FFF800000000000F
310
FFFFF800000000000FFFFF0003FFFFFFFFFC00000000000FF000FC0000000000
310
1FFC0007FFFC0000FFFF8000FF80007FF800000000003FFFC00000000001FFF8
310
000001FFFE0000007F80000000000001FFF800000000000FFFFFF80000000000
310
0FFFFF0003FFFFFFFFFE00000000001FF000FE00000000003FF8000FFFFC0000
310
FFFF8000FF80007FFC00000000003FFFC00000000003FFF8000001FFFE000000
310
7F80000000000001FFFC00000000001FFFFFFC00000000001FFFFF0003FFFFFF
310
FFFF00000000001FF000FF00000000003FF8000FFFFC0000FFFFC000FF80007F
310
FE00000000007FFFE00000000007FFF8000001FFFE0000007F80000000000001
310
FFFE00000000003FFFFFFE00000000003FFFFF0003FFFFFFFFFF80000000003F
310
F000FF80000000007FF8000FFFFC0001FFFFC0007F80007FFF0000000000FFFF
310
F0000000000FFFF800000000000000007F80000000000001FFFF8000000000FF
310
FFFFFF8000000000FFFFFF0003FFFFFFFFFFC0000000007FF000FFC000000000
310
FFF8000FFFFE0001FFFFC0007F80007FFF8000000001FFFFF8000000001FFFF8
310
00000000000000007F80000000000001FFFFC000000001FFFFFFFFC000000001
310
FFFFFF0003FFFFFFFFFFE000000000FFF000FFE000000003FFF0001FFFFE0001
310
FFFFC0007F80007FFFC000000007FFFFFE000000003FFFF80000000000000000
310
7F80000000000001FFFFE000000003FFFFFFFFE000000003FFFFFF0003FFFFFF
310
FFFFF000000003FFF000FFF80000000FFFF0001FFFFE0001FFFFE0007F80007F
310
FFF00000000FFFFFFF00000000FFFFF800000000000000007F80000000000001
310
FFFFF80000000FFFFFFFFFF80000000FFFFFFF0003FFFFFFFFFFFC0000000FFF
310
F000FFFE0000003FFFF0001FFFFE0003FFFFE0003F80007FFFFC0000003FFFFF
310
FFC0000003FFFFF800000000000000007F80000000000001FFFFFE0000003FFF
310
FFFFFFFE0000003FFFFFFF0003FFFFFFFFFFFF0000003FFFF000FFFF800000FF
310
FFF0001FFFFF0003FFFFE0003F80007FFFFF000001FFFFFFFFF800001FFFFFF8
310
00000000000000007F80000000000001FFFFFFC00001FFFFFFFFFFFFC00001FF
310
FFFFFF0003FFFFFFFFFFFFC00000FFFFF000FFFFF8000FFFFFFFFFFFFFFFFFFF
310
FFFFFFFFFFFFFFFFFFFFF0001FFFFFFFFFFF0000FFFFFFF80000000000000000
310
7FFFFFFFFFFFFFFFFFFFFFFC001FFFFFFFFFFFFFFC001FFFFFFFFFFFFFFFFFFF
310
FFFFFFFC001FFFFFF000FFFFFFFFFFFFFFFFFFFFFFFFFFFFFFFFFFFFFFFFFFFF
310
FFFFFFFFFFFFFFFFFFFFFFFFFFFFFFFFFFFFFFFFFFFFFFFFFFFFFFFFFFFFFFFF
310
FFFFFFFFFFFFFFFFFFFFFFFFFFFFFFFFFFFFFFFFFFFFFFFFFFFFFFFFFFFFFFFF
310
F000FFFFFFFFFFFFFFFFFFFFFFFFFFFFFFFFFFFFFFFFFFFFFFFFFFFFFFFFFFFF
310
FFFFFFFFFFFFFFFFFFFFFFFFFFFFFFFFFFFFFFFFFFFFFFFFFFFFFFFFFFFFFFFF
310
FFFFFFFFFFFFFFFFFFFFFFFFFFFFFFFFFFFFFFFFFFFFFFFFF000FFFFFFFFFFFF
310
FFFFFFFFFFFFFFFFFFFFFFFFFFFFFFFFFFFFFFFFFFFFFFFFFFFFFFFFFFFFFFFF
310
FFFFFFFFFFFFFFFFFFFFFFFFFFFFFFFFFFFFFFFFFFFFFFFFFFFFFFFFFFFFFFFF
310
FFFFFFFFFFFFFFFFFFFFFFFFFFFFFFFFF000FFFFFFFFFFFFFFFFFFFFFFFFFFFF
310
FFFFFFFFFFFFFFFFFFFFFFFFFFFFFFFFFFFFFFFFFFFFFFFFFFFFFFFFFFFFFFFF
310
FFFFFFFFFFFFFFFFFFFFFFFFFFFFFFFFFFFFFFFFFFFFFFFFFFFFFFFFFFFFFFFF
310
FFFFFFFFFFFFFFFFF000FFFFFFFFFFFFFFFFFFFFFFFFFFFFFFFFFFFFFFFFFFFF
310
FFFFFFFFFFFFFFFFFFFFFFFFFFFFFFFFFFFFFFFFFFFFFFFFFFFFFFFFFFFFFFFF
310
FFFFFFFFFFFFFFFFFFFFFFFFFFFFFFFFFFFFFFFFFFFFFFFFFFFFFFFFFFFFFFFF
310
F000FFFFFFFFFFFFFFFFFFFFFFFFFFFFFFFFFFFFFFFFFFFFFFFFFFFFFFFFFFFF
310
FFFFFFFFFFFFFFFFFFFFFFFFFFFFFFFFFFFFFFFFFFFFFFFFFFFFFFFFFFFFFFFF
310
FFFFFFFFFFFFFFFFFFFFFFFFFFFFFFFFFFFFFFFFFFFFFFFFF000FFFFFFFFFFFF
310
FFFFFFFFFFFFFFFFFFFFFFFFFFFFFFFFFFFFFFFFFFFFFFFFFFFFFFFFFFFFFFFF
310
FFFFFFFFFFFFFFFFFFFFFFFFFFFFFFFFFFFFFFFFFFFFFFFFFFFFFFFFFFFFFFFF
310
FFFFFFFFFFFFFFFFFFFFFFFFFFFFFFFFF000FFFFFFFFFFFFFFFFFFFFFFFFFFFF
310
FFFFFFFFFFFFFFFFFFFFFFFFFFFFFFFFFFFFFFFFFFFFFFFFFFFFFFFFFFFFFFFF
310
FFFFFFFFFFFFFFFFFFFFFFFFFFFFFFFFFFFFFFFFFFFFFFFFFFFFFFFFFFFFFFFF
310
FFFFFFFFFFFFFFFFF000FFFFFFFFFFFFFFFFFFFFFFFFFFFFFFFFFFFFFFFFFFFF
310
FFFFFFFFFFFFFFFFFFFFFFFFFFFFFFFFFFFFFFFFFFFFFFFFFFFFFFFFFFFFFFFF
310
FFFFFFFFFFFFFFFFFFFFFFFFFFFFFFFFFFFFFFFFFFFFFFFFFFFFFFFFFFFFFFFF
310
F000FFFFFFFFFFFFFFFFFFFFFFFFFFFFFFFFFFFFFFFFFFFFFFFFFFFFFFFFFFFF
310
FFFFFFFFFFFFFFFFFFFFFFFFFFFFFFFFFFFFFFFFFFFFFFFFFFFFFFFFFFFFFFFF
310
FFFFFFFFFFFFFFFFFFFFFFFFFFFFFFFFFFFFFFFFFFFFFFFFF000FFFFFFFFFFFF
310
FFFFFFFFFFFFFFFFFFFFFFFFFFFFFFFFFFFFFFFFFFFFFFFFFFFFFFFFFFFFFFFF
310
FFFFFFFFFFFFFFFFFFFFFFFFFFFFFFFFFFFFFFFFFFFFFFFFFFFFFFFFFFFFFFFF
310
FFFFFFFFFFFFFFFFFFFFFFFFFFFFFFFFF000FFFFFFFFFFFFFFFFFFFFFFFFFFFF
310
FFFFFFFFFFFFFFFFFFFFFFFFFFFFFFFFFFFFFFFFFFFFFFFFFFFFFFFFFFFFFFFF
310
FFFFFFFFFFFFFFFFFFFFFFFFFFFFFFFFFFFFFFFFFFFFFFFFFFFFFFFFFFFFFFFF
310
FFFFFFFFFFFFFFFFF000FFFFFFFFFFFFFFFFFFFFFFFFFFFFFFFFFFFFFFFFFFFF
310
FFFFFFFFFFFFFFFFFFFFFFFFFFFFFFFFFFFFFFFFFFFFFFFFFFFFFFFFFFFFFFFF
310
FFFFFFFFFFFFFFFFFFFFFFFFFFFFFFFFFFFFFFFFFFFFFFFFFFFFFFFFFFFFFFFF
310
F000FFFFFFFFFFFFFFFFFFFFFFFFFFFFFFFFFFFFFFFFFFFFFFFFFFFFFFFFFFFF
310
FFFFFFFFFFFFFFFFFFFFFFFFFFFFFFFFFFFFFFFFFFFFFFFFFFFFFFFFFFFFFFFF
310
FFFFFFFFFFFFFFFFFFFFFFFFFFFFFFFFFFFFFFFFFFFFFFFFF000FFFFFFFFFFFF
310
FFFFFFFFFFFFFFFFFFFFFFFFFFFFFFFFFFFFFFFFFFFFFFFFFFFFFFFFFFFFFFFF
310
FFFFFFFFFFFFFFFFFFFFFFFFFFFFFFFFFFFFFFFFFFFFFFFFFFFFFFFFFFFFFFFF
310
FFFFFFFFFFFFFFFFFFFFFFFFFFFFFFFFF000FFFFFFFFFFFFFFFFFFFFFFFFFFFF
310
FFFFFFFFFFFFFFFFFFFFFFFFFFFFFFFFFFFFFFFFFFFFFFFFFFFFFFFFFFFFFFFF
310
FFFFFFFFFFFFFFFFFFFFFFFFFFFFFFFFFFFFFFFFFFFFFFFFFFFFFFFFFFFFFFFF
310
FFFFFFFFFFFFFFFFF000FFFFFFFFFFFFFFFFFFFFFFFFFFFFFFFFFFFFFFFFFFFF
310
FFFFFFFFFFFFFFFFFFFFFFFFFFFFFFFFFFFFFFFFFFFFFFFFFFFFFFFFFFFFFFFF
310
FFFFFFFFFFFFFFFFFFFFFFFFFFFFFFFFFFFFFFFFFFFFFFFFFFFFFFFFFFFFFFFF
310
F000FFFFFFFFFFFFFFFFFFFFFFFFFFFFFFFFFFFFFFFFFFFFFFFFFFFFFFFFFFFF
310
FFFFFFFFFFFFFFFFFFFFFFFFFFFFFFFFFFFFFFFFFFFFFFFFFFFFFFFFFFFFFFFF
310
FFFFFFFFFFFFFFFFFFFFFFFFFFFFFFFFFFFFFFFFFFFFFFFFF000FFFFFFFFFFFF
310
FFFFFFFFFFFFFFFFFFFFFFFFFFFFFFFFFFFFFFFFFFFFFFFFFFFFFFFFFFFFFFFF
310
FFFFFFFFFFFFFFFFFFFFFFFFFFFFFFFFFFFFFFFFFFFFFFFFFFFFFFFFFFFFFFFF
310
FFFFFFFFFFFFFFFFFFFFFFFFFFFFFFFFF000FFFFFFFFFFFFFFFFFFFFFFFFFFFF
310
FFFFFFFFFFFFFFFFFFFFFFFFFFFFFFFFFFFFFFFFFFFFFFFFFFFFFFFFFFFFFFFF
310
FFFFFFFFFFFFFFFFFFFFFFFFFFFFFFFFFFFFFFFFFFFFFFFFFFFFFFFFFFFFFFFF
310
FFFFFFFFFFFFFFFFF000FFFFFFFFFFFFFFFFFFFFFFFFFFFFFFFFFFFFFFFFFFFF
310
FFFFFFFFFFFFFFFFFFFFFFFFFFFFFFFFFFFFFFFFFFFFFFFFFFFFFFFFFFFFFFFF
310
FFFFFFFFFFFFFFFFFFFFFFFFFFFFFFFFFFFFFFFFFFFFFFFFFFFFFFFFFFFFFFFF
310
F000FFFFFFFFFFFFFFFFFFFFFFFFFFFFFFFFFFFFFFFFFFFFFFFFFFFFFFFFFFFF
310
FFFFFFFFFFFFFFFFFFFFFFFFFFFFFFFFFFFFFFFFFFFFFFFFFFFFFFFFFFFFFFFF
310
FFFFFFFFFFFFFFFFFFFFFFFFFFFFFFFFFFFFFFFFFFFFFFFFF000FFFFFFFFFFFF
310
FFFFFFFFFFFFFFFFFFFFFFFFFFFFFFFFFFFFFFFFFFFFFFFFFFFFFFFFFFFFFFFF
310
FFFFFFFFFFFFFFFFFFFFFFFFFFFFFFFFFFFFFFFFFFFFFFFFFFFFFFFFFFFFFFFF
310
FFFFFFFFFFFFFFFFFFFFFFFFFFFFFFFFF0000000000000000000000000000000
310
0000000000000000000000000000000000000000000000000000000000000000
310
0000000000000000000000000000000000000000000000000000000000000000
310
0000000000000000000000000000000000000000000000000000000000000000
310
0000000000000000000000000000000000000000000000000000000000000000
310
0000000000000000000000000000000000000000000000000000000000000000
310
0000000000000000000000000000000000000000000000000000000000000000
310
0000000000000000000000000000000000000000000000000000000000000000
310
0000000000000000000000000000000000000000000000000000000000000000
310
0000000000000000000000000000000000000000000000000000000000000000
310
0000000000000000000000000000000000000000000000000000000000000000
310
0000000000000000000000000000000000000000000000000000000000000000
310
0000000000000000000000000000000000000000000000000000000000000000
310
0000000000000000000000000000000000000000000000000000000000000000
310
0000000000000000000000000000000000000000000000000000000000000000
310
0000000000000000000000000000000000000000000000000000000000000000
  1
OLE
  0
ENDSEC
  0
SECTION
  2
OBJECTS
  0
DICTIONARY
  5
C
330
0
100
AcDbDictionary
281
     1
  3
ACAD_GROUP
350
D
  3
ACAD_LAYOUT
350
1A
  3
ACAD_MLINESTYLE
350
17
  3
ACAD_PLOTSETTINGS
350
19
  3
ACAD_PLOTSTYLENAME
350
E
  0
DICTIONARY
  5
D
102
{ACAD_REACTORS
330
C
102
}
330
C
100
AcDbDictionary
281
     1
  0
DICTIONARY
  5
1A
102
{ACAD_REACTORS
330
C
102
}
330
C
100
AcDbDictionary
281
     1
  3
Layout1
350
1E
  3
Layout2
350
26
  3
Model
350
22
  0
DICTIONARY
  5
17
102
{ACAD_REACTORS
330
C
102
}
330
C
100
AcDbDictionary
281
     1
  3
Standard
350
18
  0
DICTIONARY
  5
19
102
{ACAD_REACTORS
330
C
102
}
330
C
100
AcDbDictionary
281
     1
  0
ACDBDICTIONARYWDFLT
  5
E
102
{ACAD_REACTORS
330
C
102
}
330
C
100
AcDbDictionary
281
     1
  3
Normal
350
F
100
AcDbDictionaryWithDefault
340
F
  0
LAYOUT
  5
1E
102
{ACAD_REACTORS
330
1A
102
}
330
1A
100
AcDbPlotSettings
  1

  2
none_device
  4

  6

 40
0.0
 41
0.0
 42
0.0
 43
0.0
 44
0.0
 45
0.0
 46
0.0
 47
0.0
 48
0.0
 49
0.0
140
0.0
141
0.0
142
1.0
143
1.0
 70
   688
 72
     0
 73
     0
 74
     5
  7

 75
    16
147
1.0
148
0.0
149
0.0
100
AcDbLayout
  1
Layout1
 70
     1
 71
     1
 10
0.0
 20
0.0
 11
420.0
 21
297.0
 12
0.0
 22
0.0
 32
0.0
 14
1.0000000000E+20
 24
1.0000000000E+20
 34
1.0000000000E+20
 15
-1.0000000000E+20
 25
-1.0000000000E+20
 35
-1.0000000000E+20
146
0.0
 13
0.0
 23
0.0
 33
0.0
 16
1.0
 26
0.0
 36
0.0
 17
0.0
 27
1.0
 37
0.0
 76
     0
330
1B
  0
LAYOUT
  5
26
102
{ACAD_REACTORS
330
1A
102
}
330
1A
100
AcDbPlotSettings
  1

  2
none_device
  4

  6

 40
0.0
 41
0.0
 42
0.0
 43
0.0
 44
0.0
 45
0.0
 46
0.0
 47
0.0
 48
0.0
 49
0.0
140
0.0
141
0.0
142
1.0
143
1.0
 70
   688
 72
     0
 73
     0
 74
     5
  7

 75
    16
147
1.0
148
0.0
149
0.0
100
AcDbLayout
  1
Layout2
 70
     1
 71
     2
 10
0.0
 20
0.0
 11
0.0
 21
0.0
 12
0.0
 22
0.0
 32
0.0
 14
0.0
 24
0.0
 34
0.0
 15
0.0
 25
0.0
 35
0.0
146
0.0
 13
0.0
 23
0.0
 33
0.0
 16
1.0
 26
0.0
 36
0.0
 17
0.0
 27
1.0
 37
0.0
 76
     0
330
23
  0
LAYOUT
  5
22
102
{ACAD_REACTORS
330
1A
102
}
330
1A
100
AcDbPlotSettings
  1

  2
none_device
  4

  6

 40
0.0
 41
0.0
 42
0.0
 43
0.0
 44
0.0
 45
0.0
 46
0.0
 47
0.0
 48
0.0
 49
0.0
140
0.0
141
0.0
142
1.0
143
1.0
 70
  1712
 72
     0
 73
     0
 74
     0
  7

 75
     0
147
1.0
148
0.0
149
0.0
100
AcDbLayout
  1
Model
 70
     1
 71
     0
 10
0.0
 20
0.0
 11
297.0
 21
210.0
 12
0.0
 22
0.0
 32
0.0
 14
0.0
 24
0.0
 34
0.0
 15
297.0
 25
210.0
 35
0.0
146
0.0
 13
0.0
 23
0.0
 33
0.0
 16
1.0
 26
0.0
 36
0.0
 17
0.0
 27
1.0
 37
0.0
 76
     0
330
1F
331
29
  0
MLINESTYLE
  5
18
102
{ACAD_REACTORS
330
17
102
}
330
17
100
AcDbMlineStyle
  2
Standard
 70
     0
  3

 62
   256
 51
90.0
 52
90.0
 71
     2
 49
0.5
 62
   256
  6
BYLAYER
 49
-0.5
 62
   256
  6
BYLAYER
  0
ACDBPLACEHOLDER
  5
F
102
{ACAD_REACTORS
330
E
102
}
330
E
  0
ENDSEC
  0
EOF
