  0
SECTION
  2
HEADER
  9
$ACADVER
  1
AC1015
  9
$ACADMAINTVER
 70
     6
  9
$DWGCODEPAGE
  3
ANSI_1252
  9
$INSBASE
 10
0.0
 20
0.0
 30
0.0
  9
$EXTMIN
 10
0.0
 20
0.0
 30
0.0
  9
$EXTMAX
 10
297.0
 20
210.0
 30
0.0
  9
$LIMMIN
 10
0.0
 20
0.0
  9
$LIMMAX
 10
297.0
 20
210.0
  9
$ORTHOMODE
 70
     0
  9
$REGENMODE
 70
     1
  9
$FILLMODE
 70
     1
  9
$QTEXTMODE
 70
     0
  9
$MIRRTEXT
 70
     1
  9
$LTSCALE
 40
1.0
  9
$ATTMODE
 70
     1
  9
$TEXTSIZE
 40
2.0
  9
$TRACEWID
 40
1.0
  9
$TEXTSTYLE
  7
Standard
  9
$CLAYER
  8
0
  9
$CELTYPE
  6
ByLayer
  9
$CECOLOR
 62
   256
  9
$CELTSCALE
 40
1.0
  9
$DISPSILH
 70
     0
  9
$DIMSCALE
 40
1.0
  9
$DIMASZ
 40
3.0
  9
$DIMEXO
 40
0.0
  9
$DIMDLI
 40
3.75
  9
$DIMRND
 40
0.0
  9
$DIMDLE
 40
0.0
  9
$DIMEXE
 40
1.0
  9
$DIMTP
 40
0.0
  9
$DIMTM
 40
0.0
  9
$DIMTXT
 40
2.0
  9
$DIMCEN
 40
2.5
  9
$DIMTSZ
 40
0.0
  9
$DIMTOL
 70
     0
  9
$DIMLIM
 70
     0
  9
$DIMTIH
 70
     1
  9
$DIMTOH
 70
     1
  9
$DIMSE1
 70
     0
  9
$DIMSE2
 70
     0
  9
$DIMTAD
 70
     1
  9
$DIMZIN
 70
     0
  9
$DIMBLK
  1

  9
$DIMASO
 70
     1
  9
$DIMSHO
 70
     1
  9
$DIMPOST
  1

  9
$DIMAPOST
  1

  9
$DIMALT
 70
     0
  9
$DIMALTD
 70
     3
  9
$DIMALTF
 40
0.0393700787
  9
$DIMLFAC
 40
1.0
  9
$DIMTOFL
 70
     1
  9
$DIMTVP
 40
0.0
  9
$DIMTIX
 70
     0
  9
$DIMSOXD
 70
     0
  9
$DIMSAH
 70
     0
  9
$DIMBLK1
  1

  9
$DIMBLK2
  1

  9
$DIMSTYLE
  2
ISO-25
  9
$DIMCLRD
 70
     0
  9
$DIMCLRE
 70
     0
  9
$DIMCLRT
 70
     0
  9
$DIMTFAC
 40
1.0
  9
$DIMGAP
 40
1.524
  9
$DIMJUST
 70
     0
  9
$DIMSD1
 70
     0
  9
$DIMSD2
 70
     0
  9
$DIMTOLJ
 70
     0
  9
$DIMTZIN
 70
     0
  9
$DIMALTZ
 70
     0
  9
$DIMALTTZ
 70
     0
  9
$DIMUPT
 70
     0
  9
$DIMDEC
 70
     2
  9
$DIMTDEC
 70
     3
  9
$DIMALTU
 70
     2
  9
$DIMALTTD
 70
     3
  9
$DIMTXSTY
  7
Standard
  9
$DIMAUNIT
 70
     0
  9
$DIMADEC
 70
     2
  9
$DIMALTRND
 40
0.0
  9
$DIMAZIN
 70
     0
  9
$DIMDSEP
 70
    44
  9
$DIMATFIT
 70
     3
  9
$DIMFRAC
 70
     0
  9
$DIMLDRBLK
  1

  9
$DIMLUNIT
 70
     2
  9
$DIMLWD
 70
    -2
  9
$DIMLWE
 70
    -2
  9
$DIMTMOVE
 70
     0
  9
$LUNITS
 70
     2
  9
$LUPREC
 70
     2
  9
$SKETCHINC
 40
1.0
  9
$FILLETRAD
 40
10.0
  9
$AUNITS
 70
     0
  9
$AUPREC
 70
     2
  9
$MENU
  1
.
  9
$ELEVATION
 40
0.0
  9
$PELEVATION
 40
0.0
  9
$THICKNESS
 40
0.0
  9
$LIMCHECK
 70
     0
  9
$CHAMFERA
 40
10.0
  9
$CHAMFERB
 40
10.0
  9
$CHAMFERC
 40
20.0
  9
$CHAMFERD
 40
0.0
  9
$SKPOLY
 70
     0
  9
$TDCREATE
 40
2456461.708563727
  9
$TDUCREATE
 40
2456461.625230393
  9
$TDUPDATE
 40
2456461.708565162
  9
$TDUUPDATE
 40
2456461.625231829
  9
$TDINDWG
 40
0.0000000116
  9
$TDUSRTIMER
 40
0.0000000116
  9
$USRTIMER
 70
     1
  9
$ANGBASE
 50
0.0
  9
$ANGDIR
 70
     0
  9
$PDMODE
 70
     0
  9
$PDSIZE
 40
-1.0
  9
$PLINEWID
 40
0.0
  9
$SPLFRAME
 70
     0
  9
$SPLINETYPE
 70
     6
  9
$SPLINESEGS
 70
     8
  9
$HANDSEED
  5
376
  9
$SURFTAB1
 70
     6
  9
$SURFTAB2
 70
     6
  9
$SURFTYPE
 70
     6
  9
$SURFU
 70
     6
  9
$SURFV
 70
     6
  9
$UCSBASE
  2

  9
$UCSNAME
  2

  9
$UCSORG
 10
0.0
 20
0.0
 30
0.0
  9
$UCSXDIR
 10
1.0
 20
0.0
 30
0.0
  9
$UCSYDIR
 10
0.0
 20
1.0
 30
0.0
  9
$UCSORTHOREF
  2

  9
$UCSORTHOVIEW
 70
     0
  9
$UCSORGTOP
 10
0.0
 20
0.0
 30
0.0
  9
$UCSORGBOTTOM
 10
0.0
 20
0.0
 30
0.0
  9
$UCSORGLEFT
 10
0.0
 20
0.0
 30
0.0
  9
$UCSORGRIGHT
 10
0.0
 20
0.0
 30
0.0
  9
$UCSORGFRONT
 10
0.0
 20
0.0
 30
0.0
  9
$UCSORGBACK
 10
0.0
 20
0.0
 30
0.0
  9
$PUCSBASE
  2

  9
$PUCSNAME
  2

  9
$PUCSORG
 10
0.0
 20
0.0
 30
0.0
  9
$PUCSXDIR
 10
1.0
 20
0.0
 30
0.0
  9
$PUCSYDIR
 10
0.0
 20
1.0
 30
0.0
  9
$PUCSORTHOREF
  2

  9
$PUCSORTHOVIEW
 70
     0
  9
$PUCSORGTOP
 10
0.0
 20
0.0
 30
0.0
  9
$PUCSORGBOTTOM
 10
0.0
 20
0.0
 30
0.0
  9
$PUCSORGLEFT
 10
0.0
 20
0.0
 30
0.0
  9
$PUCSORGRIGHT
 10
0.0
 20
0.0
 30
0.0
  9
$PUCSORGFRONT
 10
0.0
 20
0.0
 30
0.0
  9
$PUCSORGBACK
 10
0.0
 20
0.0
 30
0.0
  9
$USERI1
 70
     0
  9
$USERI2
 70
     0
  9
$USERI3
 70
     0
  9
$USERI4
 70
     0
  9
$USERI5
 70
     0
  9
$USERR1
 40
0.0
  9
$USERR2
 40
0.0
  9
$USERR3
 40
0.0
  9
$USERR4
 40
0.0
  9
$USERR5
 40
0.0
  9
$WORLDVIEW
 70
     1
  9
$SHADEDGE
 70
     3
  9
$SHADEDIF
 70
    70
  9
$TILEMODE
 70
     1
  9
$MAXACTVP
 70
    64
  9
$PINSBASE
 10
0.0
 20
0.0
 30
0.0
  9
$PLIMCHECK
 70
     0
  9
$PEXTMIN
 10
1.0000000000E+20
 20
1.0000000000E+20
 30
1.0000000000E+20
  9
$PEXTMAX
 10
-1.0000000000E+20
 20
-1.0000000000E+20
 30
-1.0000000000E+20
  9
$PLIMMIN
 10
0.0
 20
0.0
  9
$PLIMMAX
 10
420.0
 20
297.0
  9
$UNITMODE
 70
     0
  9
$VISRETAIN
 70
     1
  9
$PLINEGEN
 70
     0
  9
$PSLTSCALE
 70
     1
  9
$TREEDEPTH
 70
  3020
  9
$CMLSTYLE
  2
Standard
  9
$CMLJUST
 70
     0
  9
$CMLSCALE
 40
20.0
  9
$PROXYGRAPHICS
 70
     1
  9
$MEASUREMENT
 70
     1
  9
$CELWEIGHT
370
    -1
  9
$ENDCAPS
280
     0
  9
$JOINSTYLE
280
     0
  9
$LWDISPLAY
290
     1
  9
$INSUNITS
 70
     4
  9
$HYPERLINKBASE
  1

  9
$STYLESHEET
  1

  9
$XEDIT
290
     1
  9
$CEPSNTYPE
380
     0
  9
$PSTYLEMODE
290
     1
  9
$FINGERPRINTGUID
  2
{6660F0ED-E446-4BA1-9618-D22B338AA565}
  9
$VERSIONGUID
  2
{FAEB1C32-E019-11D5-929B-00C0DF256EC4}
  9
$EXTNAMES
290
     1
  9
$PSVPSCALE
 40
0.0
  9
$OLESTARTUP
290
     0
  0
ENDSEC
  0
SECTION
  2
CLASSES
  0
CLASS
  1
ACDBDICTIONARYWDFLT
  2
AcDbDictionaryWithDefault
  3
ObjectDBX Classes
 90
        0
280
     0
281
     0
  0
CLASS
  1
VISUALSTYLE
  2
AcDbVisualStyle
  3
ObjectDBX Classes
 90
     4095
280
     0
281
     0
  0
CLASS
  1
MATERIAL
  2
AcDbMaterial
  3
ObjectDBX Classes
 90
     1153
280
     0
281
     0
  0
CLASS
  1
ACDBPLACEHOLDER
  2
AcDbPlaceHolder
  3
ObjectDBX Classes
 90
        0
280
     0
281
     0
  0
CLASS
  1
LAYOUT
  2
AcDbLayout
  3
ObjectDBX Classes
 90
        0
280
     0
281
     0
  0
ENDSEC
  0
SECTION
  2
TABLES
  0
TABLE
  2
VPORT
  5
8
330
0
100
AcDbSymbolTable
 70
     1
  0
VPORT
  5
29
330
8
100
AcDbSymbolTableRecord
100
AcDbViewportTableRecord
  2
*Active
 70
     0
 10
0.0
 20
0.0
 11
1.0
 21
1.0
 12
148.5
 22
105.0
 13
0.0
 23
0.0
 14
10.0
 24
10.0
 15
10.0
 25
10.0
 16
0.0
 26
0.0
 36
1.0
 17
0.0
 27
0.0
 37
0.0
 40
210.0
 41
1.4142857143
 42
50.0
 43
0.0
 44
0.0
 50
0.0
 51
0.0
 71
     0
 72
  2000
 73
     1
 74
     3
 75
     0
 76
     0
 77
     0
 78
     0
281
     0
 65
     1
110
0.0
120
0.0
130
0.0
111
1.0
121
0.0
131
0.0
112
0.0
122
1.0
132
0.0
 79
     0
146
0.0
  0
ENDTAB
  0
TABLE
  2
LTYPE
  5
5
330
0
100
AcDbSymbolTable
 70
     6
  0
LTYPE
  5
14
330
5
100
AcDbSymbolTableRecord
100
AcDbLinetypeTableRecord
  2
ByBlock
 70
     0
  3

 72
    65
 73
     0
 40
0.0
  0
LTYPE
  5
15
330
5
100
AcDbSymbolTableRecord
100
AcDbLinetypeTableRecord
  2
ByLayer
 70
     0
  3

 72
    65
 73
     0
 40
0.0
  0
LTYPE
  5
16
330
5
100
AcDbSymbolTableRecord
100
AcDbLinetypeTableRecord
  2
Continuous
 70
     0
  3
Solid line
 72
    65
 73
     0
 40
0.0
  0
LTYPE
  5
3F
330
5
100
AcDbSymbolTableRecord
100
AcDbLinetypeTableRecord
  2
HIDDEN
 70
     0
  3
Hidden __ __ __ __ __ __ __ __ __ __ __ __ __ __
 72
    65
 73
     2
 40
1.905
 49
1.27
 74
     0
 49
-0.635
 74
     0
  0
LTYPE
  5
40
330
5
100
AcDbSymbolTableRecord
100
AcDbLinetypeTableRecord
  2
PHANTOM
 70
     0
  3
Phantom ______  __  __  ______  __  __  ______
 72
    65
 73
     6
 40
12.7
 49
6.35
 74
     0
 49
-1.27
 74
     0
 49
1.27
 74
     0
 49
-1.27
 74
     0
 49
1.27
 74
     0
 49
-1.27
 74
     0
  0
LTYPE
  5
41
330
5
100
AcDbSymbolTableRecord
100
AcDbLinetypeTableRecord
  2
CENTER
 70
     0
  3
Center ____ _ ____ _ ____ _ ____ _ ____ _ ____
 72
    65
 73
     4
 40
10.16
 49
6.35
 74
     0
 49
-1.27
 74
     0
 49
1.27
 74
     0
 49
-1.27
 74
     0
  0
LTYPE
  5
42
330
5
100
AcDbSymbolTableRecord
100
AcDbLinetypeTableRecord
  2
CENTERX2
 70
     0
  3
Center (2x) ________  __  ________  __  _____
 72
    65
 73
     4
 40
20.32
 49
12.7
 74
     0
 49
-2.54
 74
     0
 49
2.54
 74
     0
 49
-2.54
 74
     0
  0
LTYPE
  5
43
330
5
100
AcDbSymbolTableRecord
100
AcDbLinetypeTableRecord
  2
DOT2
 70
     0
  3
Dot (.5x) ........................................
 72
    65
 73
     2
 40
0.635
 49
0.0
 74
     0
 49
-0.635
 74
     0
  0
ENDTAB
  0
TABLE
  2
LAYER
  5
2
330
0
100
AcDbSymbolTable
 70
     5
  0
LAYER
  5
10
330
2
100
AcDbSymbolTableRecord
100
AcDbLayerTableRecord
  2
0
 70
     0
 62
     7
  6
Continuous
370
    -3
390
F
  0
LAYER
  5
44
330
2
100
AcDbSymbolTableRecord
100
AcDbLayerTableRecord
  2
FORMAT
 70
     0
 62
     7
  6
Continuous
370
    -3
390
F
  0
LAYER
  5
45
330
2
100
AcDbSymbolTableRecord
100
AcDbLayerTableRecord
  2
VERMASSUNG
 70
     0
 62
     7
  6
Continuous
370
    -3
390
F
  0
LAYER
  5
46
330
2
100
AcDbSymbolTableRecord
100
AcDbLayerTableRecord
  2
KOPF_DÜNN
 70
     0
 62
     7
  6
Continuous
370
    -3
390
F
  0
LAYER
  5
47
330
2
100
AcDbSymbolTableRecord
100
AcDbLayerTableRecord
  2
KOPF_DICK
 70
     0
 62
     7
  6
Continuous
370
    15
390
F
  0
ENDTAB
  0
TABLE
  2
STYLE
  5
3
330
0
100
AcDbSymbolTable
 70
     3
  0
STYLE
  5
11
330
3
100
AcDbSymbolTableRecord
100
AcDbTextStyleTableRecord
  2
Standard
 70
     0
 40
0.0
 41
1.0
 50
0.0
 71
     0
 42
2.0
  3
txt
  4

  0
STYLE
  5
48
330
3
100
AcDbSymbolTableRecord
100
AcDbTextStyleTableRecord
  2
SLDTEXTSTYLE0
 70
     0
 40
0.0
 41
0.7
 50
0.0
 71
     0
 42
0.2
  3
TXT
  4

  0
STYLE
  5
4C
330
3
100
AcDbSymbolTableRecord
100
AcDbTextStyleTableRecord
  2
SLDTEXTSTYLE1
 70
     0
 40
0.0
 41
0.6533333333
 50
0.0
 71
     0
 42
0.2
  3
TXT
  4

  0
ENDTAB
  0
TABLE
  2
VIEW
  5
6
330
0
100
AcDbSymbolTable
 70
     0
  0
ENDTAB
  0
TABLE
  2
UCS
  5
7
330
0
100
AcDbSymbolTable
 70
     0
  0
ENDTAB
  0
TABLE
  2
APPID
  5
9
330
0
100
AcDbSymbolTable
 70
     1
  0
APPID
  5
12
330
9
100
AcDbSymbolTableRecord
100
AcDbRegAppTableRecord
  2
ACAD
 70
     0
  0
ENDTAB
  0
TABLE
  2
DIMSTYLE
  5
A
330
0
100
AcDbSymbolTable
 70
     2
100
AcDbDimStyleTable
  0
DIMSTYLE
105
27
330
A
100
AcDbSymbolTableRecord
100
AcDbDimStyleTableRecord
  2
ISO-25
 70
     0
 41
2.5
 42
0.625
 43
3.75
 44
1.25
 73
     0
 74
     0
 77
     1
 78
     8
140
2.5
141
2.5
143
0.0393700787
147
0.625
171
     3
172
     1
178
     0
271
     2
272
     2
274
     3
278
    44
283
     0
284
     8
340
11
  0
DIMSTYLE
105
1C2
102
{ACAD_REACTORS
330
1C1
330
1CE
330
1D8
330
1E2
330
1EC
330
1F7
330
202
330
20C
330
216
330
220
102
}
330
A
100
AcDbSymbolTableRecord
100
AcDbDimStyleTableRecord
  2
SLDDIMSTYLE0
 70
     0
 41
3.0
 44
0.0
 45
0.000000001
 73
     0
 74
     0
 77
     1
 78
    12
 79
     3
140
2.0
147
0.5
173
     1
178
     0
271
     2
272
     3
276
     2
284
    12
340
48
  0
ENDTAB
  0
TABLE
  2
BLOCK_RECORD
  5
1
330
0
100
AcDbSymbolTable
 70
    12
  0
BLOCK_RECORD
  5
1F
330
1
100
AcDbSymbolTableRecord
100
AcDbBlockTableRecord
  2
*Model_Space
340
22
  0
BLOCK_RECORD
  5
1B
330
1
100
AcDbSymbolTableRecord
100
AcDbBlockTableRecord
  2
*Paper_Space
340
1E
  0
BLOCK_RECORD
  5
23
330
1
100
AcDbSymbolTableRecord
100
AcDbBlockTableRecord
  2
*Paper_Space0
340
26
  0
BLOCK_RECORD
  5
1C3
330
1
100
AcDbSymbolTableRecord
100
AcDbBlockTableRecord
  2
_D
340
0
  0
BLOCK_RECORD
  5
1CF
330
1
100
AcDbSymbolTableRecord
100
AcDbBlockTableRecord
  2
_D_1
340
0
  0
BLOCK_RECORD
  5
1D9
330
1
100
AcDbSymbolTableRecord
100
AcDbBlockTableRecord
  2
_D_2
340
0
  0
BLOCK_RECORD
  5
1E3
330
1
100
AcDbSymbolTableRecord
100
AcDbBlockTableRecord
  2
_D_3
340
0
  0
BLOCK_RECORD
  5
1ED
330
1
100
AcDbSymbolTableRecord
100
AcDbBlockTableRecord
  2
_D_4
340
0
  0
BLOCK_RECORD
  5
1F8
330
1
100
AcDbSymbolTableRecord
100
AcDbBlockTableRecord
  2
_D_5
340
0
  0
BLOCK_RECORD
  5
203
330
1
100
AcDbSymbolTableRecord
100
AcDbBlockTableRecord
  2
_D_6
340
0
  0
BLOCK_RECORD
  5
20D
330
1
100
AcDbSymbolTableRecord
100
AcDbBlockTableRecord
  2
_D_7
340
0
  0
BLOCK_RECORD
  5
217
330
1
100
AcDbSymbolTableRecord
100
AcDbBlockTableRecord
  2
_D_8
340
0
  0
BLOCK_RECORD
  5
221
330
1
100
AcDbSymbolTableRecord
100
AcDbBlockTableRecord
  2
_D_9
340
0
  0
BLOCK_RECORD
  5
369
330
1
100
AcDbSymbolTableRecord
100
AcDbBlockTableRecord
  2
SW_CENTERMARKSYMBOL_0
340
0
102
{BLKREFS
331
374
102
}
  0
ENDTAB
  0
ENDSEC
  0
SECTION
  2
BLOCKS
  0
BLOCK
  5
20
330
1F
100
AcDbEntity
  8
0
100
AcDbBlockBegin
  2
*Model_Space
 70
     0
 10
0.0
 20
0.0
 30
0.0
  3
*Model_Space
  1

  0
ENDBLK
  5
21
330
1F
100
AcDbEntity
  8
0
100
AcDbBlockEnd
  0
BLOCK
  5
1C
330
1B
100
AcDbEntity
 67
     1
  8
0
100
AcDbBlockBegin
  2
*Paper_Space
 70
     0
 10
0.0
 20
0.0
 30
0.0
  3
*Paper_Space
  1

  0
ENDBLK
  5
1D
330
1B
100
AcDbEntity
 67
     1
  8
0
100
AcDbBlockEnd
  0
BLOCK
  5
24
330
23
100
AcDbEntity
  8
0
100
AcDbBlockBegin
  2
*Paper_Space0
 70
     0
 10
0.0
 20
0.0
 30
0.0
  3
*Paper_Space0
  1

  0
ENDBLK
  5
25
330
23
100
AcDbEntity
  8
0
100
AcDbBlockEnd
  0
BLOCK
  5
1C4
330
1C3
100
AcDbEntity
  8
0
100
AcDbBlockBegin
  2
_D
 70
     0
 10
0.0
 20
0.0
 30
0.0
  3
_D
  1

  0
SOLID
  5
1C6
330
1C3
100
AcDbEntity
  8
VERMASSUNG
100
AcDbTrace
 10
137.624554887
 20
172.2379535936
 30
0.0
 11
137.174554887
 21
169.2379535936
 31
0.0
 12
138.074554887
 22
169.2379535936
 32
0.0
 13
138.074554887
 23
169.2379535936
 33
0.0
  0
SOLID
  5
1C7
330
1C3
100
AcDbEntity
  8
VERMASSUNG
100
AcDbTrace
 10
137.624554887
 20
72.2379535936
 30
0.0
 11
138.074554887
 21
75.2379535936
 31
0.0
 12
137.174554887
 22
75.2379535936
 32
0.0
 13
137.174554887
 23
75.2379535936
 33
0.0
  0
LINE
  5
1C8
330
1C3
100
AcDbEntity
  8
VERMASSUNG
100
AcDbLine
 10
195.9077609731
 20
172.2379535936
 30
0.0
 11
136.624554887
 21
172.2379535936
 31
0.0
  0
LINE
  5
1C9
330
1C3
100
AcDbEntity
  8
VERMASSUNG
100
AcDbLine
 10
195.9077609731
 20
72.2379535936
 30
0.0
 11
136.624554887
 21
72.2379535936
 31
0.0
  0
LINE
  5
1CA
330
1C3
100
AcDbEntity
  8
VERMASSUNG
100
AcDbLine
 10
137.624554887
 20
172.2379535936
 30
0.0
 11
137.624554887
 21
72.2379535936
 31
0.0
  0
MTEXT
  5
1CB
330
1C3
100
AcDbEntity
  8
VERMASSUNG
100
AcDbMText
 10
134.846419398
 20
113.4521665568
 30
0.0
 40
2.0
 41
0.0
 71
     1
 72
     1
  1
HSK A
  7
SLDTEXTSTYLE0
 11
-7.044195017643634E-15
 21
1.0
 31
0.0
 73
     1
 44
1.0
  0
MTEXT
  5
1CC
330
1C3
100
AcDbEntity
  8
VERMASSUNG
100
AcDbMText
 10
135.0464194075
 20
122.4521671007
 30
0.0
 40
2.0
 41
0.0
 71
     1
 72
     1
  1
%%c
  7
SLDTEXTSTYLE0
 11
-7.044195017643634E-15
 21
1.0
 31
0.0
 73
     1
 44
1.0
  0
MTEXT
  5
1CD
330
1C3
100
AcDbEntity
  8
VERMASSUNG
100
AcDbMText
 10
135.0464195239
 20
126.0613929232
 30
0.0
 40
2.0
 41
0.0
 71
     1
 72
     1
  1
100
  7
SLDTEXTSTYLE0
 11
-7.044195017643634E-15
 21
1.0
 31
0.0
 73
     1
 44
1.0
  0
ENDBLK
  5
1C5
330
1C3
100
AcDbEntity
  8
0
100
AcDbBlockEnd
  0
BLOCK
  5
1D0
330
1CF
100
AcDbEntity
  8
0
100
AcDbBlockBegin
  2
_D_1
 70
     0
 10
0.0
 20
0.0
 30
0.0
  3
_D_1
  1

  0
SOLID
  5
1D2
330
1CF
100
AcDbEntity
  8
VERMASSUNG
100
AcDbTrace
 10
265.4077609731
 20
189.9615006313
 30
0.0
 11
262.4077609731
 21
190.4115006313
 31
0.0
 12
262.4077609731
 22
189.5115006313
 32
0.0
 13
262.4077609731
 23
189.5115006313
 33
0.0
  0
SOLID
  5
1D3
330
1CF
100
AcDbEntity
  8
VERMASSUNG
100
AcDbTrace
 10
145.5077609731
 20
189.9615006313
 30
0.0
 11
148.5077609731
 21
189.5115006313
 31
0.0
 12
148.5077609731
 22
190.4115006313
 32
0.0
 13
148.5077609731
 23
190.4115006313
 33
0.0
  0
LINE
  5
1D4
330
1CF
100
AcDbEntity
  8
VERMASSUNG
100
AcDbLine
 10
265.4077609731
 20
139.2379535936
 30
0.0
 11
265.4077609731
 21
190.9615006313
 31
0.0
  0
LINE
  5
1D5
330
1CF
100
AcDbEntity
  8
VERMASSUNG
100
AcDbLine
 10
145.5077609731
 20
152.7406233362
 30
0.0
 11
145.5077609731
 21
190.9615006313
 31
0.0
  0
LINE
  5
1D6
330
1CF
100
AcDbEntity
  8
VERMASSUNG
100
AcDbLine
 10
265.4077609731
 20
189.9615006313
 30
0.0
 11
145.5077609731
 21
189.9615006313
 31
0.0
  0
MTEXT
  5
1D7
330
1CF
100
AcDbEntity
  8
VERMASSUNG
100
AcDbMText
 10
207.2280706375
 20
192.5396359944
 30
0.0
 40
2.0
 41
0.0
 71
     1
 72
     1
  1
119.9
  7
SLDTEXTSTYLE0
 73
     1
 44
1.0
  0
ENDBLK
  5
1D1
330
1CF
100
AcDbEntity
  8
0
100
AcDbBlockEnd
  0
BLOCK
  5
1DA
330
1D9
100
AcDbEntity
  8
0
100
AcDbBlockBegin
  2
_D_2
 70
     0
 10
0.0
 20
0.0
 30
0.0
  3
_D_2
  1

  0
SOLID
  5
1DC
330
1D9
100
AcDbEntity
  8
VERMASSUNG
100
AcDbTrace
 10
195.4077609731
 20
183.9615006313
 30
0.0
 11
198.4077609731
 21
183.5115006313
 31
0.0
 12
198.4077609731
 22
184.4115006313
 32
0.0
 13
198.4077609731
 23
184.4115006313
 33
0.0
  0
SOLID
  5
1DD
330
1D9
100
AcDbEntity
  8
VERMASSUNG
100
AcDbTrace
 10
265.4077609731
 20
183.9615006313
 30
0.0
 11
262.4077609731
 21
184.4115006313
 31
0.0
 12
262.4077609731
 22
183.5115006313
 32
0.0
 13
262.4077609731
 23
183.5115006313
 33
0.0
  0
LINE
  5
1DE
330
1D9
100
AcDbEntity
  8
VERMASSUNG
100
AcDbLine
 10
195.4077609731
 20
171.7379535936
 30
0.0
 11
195.4077609731
 21
184.9615006313
 31
0.0
  0
LINE
  5
1DF
330
1D9
100
AcDbEntity
  8
VERMASSUNG
100
AcDbLine
 10
265.4077609731
 20
139.2379535936
 30
0.0
 11
265.4077609731
 21
184.9615006313
 31
0.0
  0
LINE
  5
1E0
330
1D9
100
AcDbEntity
  8
VERMASSUNG
100
AcDbLine
 10
195.4077609731
 20
183.9615006313
 30
0.0
 11
265.4077609731
 21
183.9615006313
 31
0.0
  0
MTEXT
  5
1E1
330
1D9
100
AcDbEntity
  8
VERMASSUNG
100
AcDbMText
 10
228.1173439167
 20
186.5396359944
 30
0.0
 40
2.0
 41
0.0
 71
     1
 72
     1
  1
70
  7
SLDTEXTSTYLE0
 73
     1
 44
1.0
  0
ENDBLK
  5
1DB
330
1D9
100
AcDbEntity
  8
0
100
AcDbBlockEnd
  0
BLOCK
  5
1E4
330
1E3
100
AcDbEntity
  8
0
100
AcDbBlockBegin
  2
_D_3
 70
     0
 10
0.0
 20
0.0
 30
0.0
  3
_D_3
  1

  0
SOLID
  5
1E6
330
1E3
100
AcDbEntity
  8
VERMASSUNG
100
AcDbTrace
 10
224.3577609731
 20
177.9615006313
 30
0.0
 11
227.3577609731
 21
177.5115006313
 31
0.0
 12
227.3577609731
 22
178.4115006313
 32
0.0
 13
227.3577609731
 23
178.4115006313
 33
0.0
  0
SOLID
  5
1E7
330
1E3
100
AcDbEntity
  8
VERMASSUNG
100
AcDbTrace
 10
265.4077609731
 20
177.9615006313
 30
0.0
 11
262.4077609731
 21
178.4115006313
 31
0.0
 12
262.4077609731
 22
177.5115006313
 32
0.0
 13
262.4077609731
 23
177.5115006313
 33
0.0
  0
LINE
  5
1E8
330
1E3
100
AcDbEntity
  8
VERMASSUNG
100
AcDbLine
 10
224.3577609731
 20
170.2066934144
 30
0.0
 11
224.3577609731
 21
178.9615006313
 31
0.0
  0
LINE
  5
1E9
330
1E3
100
AcDbEntity
  8
VERMASSUNG
100
AcDbLine
 10
265.4077609731
 20
139.2379535936
 30
0.0
 11
265.4077609731
 21
178.9615006313
 31
0.0
  0
LINE
  5
1EA
330
1E3
100
AcDbEntity
  8
VERMASSUNG
100
AcDbLine
 10
224.3577609731
 20
177.9615006313
 30
0.0
 11
265.4077609731
 21
177.9615006313
 31
0.0
  0
MTEXT
  5
1EB
330
1E3
100
AcDbEntity
  8
VERMASSUNG
100
AcDbMText
 10
242.7705617578
 20
180.5396359944
 30
0.0
 40
2.0
 41
0.0
 71
     1
 72
     1
  1
41.05
  7
SLDTEXTSTYLE0
 73
     1
 44
1.0
  0
ENDBLK
  5
1E5
330
1E3
100
AcDbEntity
  8
0
100
AcDbBlockEnd
  0
BLOCK
  5
1EE
330
1ED
100
AcDbEntity
  8
0
100
AcDbBlockBegin
  2
_D_4
 70
     0
 10
0.0
 20
0.0
 30
0.0
  3
_D_4
  1

  0
SOLID
  5
1F0
330
1ED
100
AcDbEntity
  8
VERMASSUNG
100
AcDbTrace
 10
271.3270643719
 20
128.2379535936
 30
0.0
 11
270.8770643719
 21
125.2379535936
 31
0.0
 12
271.7770643719
 22
125.2379535936
 32
0.0
 13
271.7770643719
 23
125.2379535936
 33
0.0
  0
SOLID
  5
1F1
330
1ED
100
AcDbEntity
  8
VERMASSUNG
100
AcDbTrace
 10
271.3270643719
 20
116.2379535936
 30
0.0
 11
271.7770643719
 21
119.2379535936
 31
0.0
 12
270.8770643719
 22
119.2379535936
 32
0.0
 13
270.8770643719
 23
119.2379535936
 33
0.0
  0
LINE
  5
1F2
330
1ED
100
AcDbEntity
  8
VERMASSUNG
100
AcDbLine
 10
265.1077609731
 20
128.2379535936
 30
0.0
 11
272.3270643719
 21
128.2379535936
 31
0.0
  0
LINE
  5
1F3
330
1ED
100
AcDbEntity
  8
VERMASSUNG
100
AcDbLine
 10
265.1077609731
 20
116.2379535936
 30
0.0
 11
272.3270643719
 21
116.2379535936
 31
0.0
  0
LINE
  5
1F4
330
1ED
100
AcDbEntity
  8
VERMASSUNG
100
AcDbLine
 10
271.3270643719
 20
128.2379535936
 30
0.0
 11
271.3270643719
 21
116.2379535936
 31
0.0
  0
MTEXT
  5
1F5
330
1ED
100
AcDbEntity
  8
VERMASSUNG
100
AcDbMText
 10
268.7489288924
 20
119.3998126633
 30
0.0
 40
2.0
 41
0.0
 71
     1
 72
     1
  1
%%c
  7
SLDTEXTSTYLE0
 11
-7.044195017643634E-15
 21
1.0
 31
0.0
 73
     1
 44
1.0
  0
MTEXT
  5
1F6
330
1ED
100
AcDbEntity
  8
VERMASSUNG
100
AcDbMText
 10
268.7489290088
 20
123.0092079352
 30
0.0
 40
2.0
 41
0.0
 71
     1
 72
     1
  1
12
  7
SLDTEXTSTYLE0
 11
-7.044195017643634E-15
 21
1.0
 31
0.0
 73
     1
 44
1.0
  0
ENDBLK
  5
1EF
330
1ED
100
AcDbEntity
  8
0
100
AcDbBlockEnd
  0
BLOCK
  5
1F9
330
1F8
100
AcDbEntity
  8
0
100
AcDbBlockBegin
  2
_D_5
 70
     0
 10
0.0
 20
0.0
 30
0.0
  3
_D_5
  1

  0
SOLID
  5
1FB
330
1F8
100
AcDbEntity
  8
VERMASSUNG
100
AcDbTrace
 10
277.3270643719
 20
140.2379535936
 30
0.0
 11
276.8770643719
 21
137.2379535936
 31
0.0
 12
277.7770643719
 22
137.2379535936
 32
0.0
 13
277.7770643719
 23
137.2379535936
 33
0.0
  0
SOLID
  5
1FC
330
1F8
100
AcDbEntity
  8
VERMASSUNG
100
AcDbTrace
 10
277.3270643719
 20
104.2379535936
 30
0.0
 11
277.7770643719
 21
107.2379535936
 31
0.0
 12
276.8770643719
 22
107.2379535936
 32
0.0
 13
276.8770643719
 23
107.2379535936
 33
0.0
  0
LINE
  5
1FD
330
1F8
100
AcDbEntity
  8
VERMASSUNG
100
AcDbLine
 10
264.4077609731
 20
140.2379535936
 30
0.0
 11
278.3270643719
 21
140.2379535936
 31
0.0
  0
LINE
  5
1FE
330
1F8
100
AcDbEntity
  8
VERMASSUNG
100
AcDbLine
 10
264.4077609731
 20
104.2379535936
 30
0.0
 11
278.3270643719
 21
104.2379535936
 31
0.0
  0
LINE
  5
1FF
330
1F8
100
AcDbEntity
  8
VERMASSUNG
100
AcDbLine
 10
277.3270643719
 20
140.2379535936
 30
0.0
 11
277.3270643719
 21
104.2379535936
 31
0.0
  0
MTEXT
  5
200
330
1F8
100
AcDbEntity
  8
VERMASSUNG
100
AcDbMText
 10
274.7489288924
 20
118.7953799249
 30
0.0
 40
2.0
 41
0.0
 71
     1
 72
     1
  1
%%c
  7
SLDTEXTSTYLE0
 11
-7.044195017643634E-15
 21
1.0
 31
0.0
 73
     1
 44
1.0
  0
MTEXT
  5
201
330
1F8
100
AcDbEntity
  8
VERMASSUNG
100
AcDbMText
 10
274.7489290088
 20
122.4047751967
 30
0.0
 40
2.0
 41
0.0
 71
     1
 72
     1
  1
36
  7
SLDTEXTSTYLE0
 11
-7.044195017643634E-15
 21
1.0
 31
0.0
 73
     1
 44
1.0
  0
ENDBLK
  5
1FA
330
1F8
100
AcDbEntity
  8
0
100
AcDbBlockEnd
  0
BLOCK
  5
204
330
203
100
AcDbEntity
  8
0
100
AcDbBlockBegin
  2
_D_6
 70
     0
 10
0.0
 20
0.0
 30
0.0
  3
_D_6
  1

  0
SOLID
  5
206
330
203
100
AcDbEntity
  8
VERMASSUNG
100
AcDbTrace
 10
265.4077609731
 20
97.4546399474
 30
0.0
 11
262.4077609731
 21
97.9046399474
 31
0.0
 12
262.4077609731
 22
97.0046399474
 32
0.0
 13
262.4077609731
 23
97.0046399474
 33
0.0
  0
SOLID
  5
207
330
203
100
AcDbEntity
  8
VERMASSUNG
100
AcDbTrace
 10
257.4077609731
 20
97.4546399474
 30
0.0
 11
260.4077609731
 21
97.0046399474
 31
0.0
 12
260.4077609731
 22
97.9046399474
 32
0.0
 13
260.4077609731
 23
97.9046399474
 33
0.0
  0
LINE
  5
208
330
203
100
AcDbEntity
  8
VERMASSUNG
100
AcDbLine
 10
265.4077609731
 20
105.2379535936
 30
0.0
 11
265.4077609731
 21
96.4546399474
 31
0.0
  0
LINE
  5
209
330
203
100
AcDbEntity
  8
VERMASSUNG
100
AcDbLine
 10
257.4077609731
 20
114.4807681804
 30
0.0
 11
257.4077609731
 21
96.4546399474
 31
0.0
  0
LINE
  5
20A
330
203
100
AcDbEntity
  8
VERMASSUNG
100
AcDbLine
 10
265.4077609731
 20
97.4546399474
 30
0.0
 11
257.4077609731
 21
97.4546399474
 31
0.0
  0
MTEXT
  5
20B
330
203
100
AcDbEntity
  8
VERMASSUNG
100
AcDbMText
 10
260.7002314667
 20
100.0327753105
 30
0.0
 40
2.0
 41
0.0
 71
     1
 72
     1
  1
8
  7
SLDTEXTSTYLE0
 73
     1
 44
1.0
  0
ENDBLK
  5
205
330
203
100
AcDbEntity
  8
0
100
AcDbBlockEnd
  0
BLOCK
  5
20E
330
20D
100
AcDbEntity
  8
0
100
AcDbBlockBegin
  2
_D_7
 70
     0
 10
0.0
 20
0.0
 30
0.0
  3
_D_7
  1

  0
SOLID
  5
210
330
20D
100
AcDbEntity
  8
VERMASSUNG
100
AcDbTrace
 10
247.4077609731
 20
97.4546399474
 30
0.0
 11
250.4077609731
 21
97.0046399474
 31
0.0
 12
250.4077609731
 22
97.9046399474
 32
0.0
 13
250.4077609731
 23
97.9046399474
 33
0.0
  0
SOLID
  5
211
330
20D
100
AcDbEntity
  8
VERMASSUNG
100
AcDbTrace
 10
257.4077609731
 20
97.4546399474
 30
0.0
 11
254.4077609731
 21
97.9046399474
 31
0.0
 12
254.4077609731
 22
97.0046399474
 32
0.0
 13
254.4077609731
 23
97.0046399474
 33
0.0
  0
LINE
  5
212
330
20D
100
AcDbEntity
  8
VERMASSUNG
100
AcDbLine
 10
247.4077609731
 20
114.677996312
 30
0.0
 11
247.4077609731
 21
96.4546399474
 31
0.0
  0
LINE
  5
213
330
20D
100
AcDbEntity
  8
VERMASSUNG
100
AcDbLine
 10
257.4077609731
 20
114.4807681804
 30
0.0
 11
257.4077609731
 21
96.4546399474
 31
0.0
  0
LINE
  5
214
330
20D
100
AcDbEntity
  8
VERMASSUNG
100
AcDbLine
 10
247.4077609731
 20
97.4546399474
 30
0.0
 11
257.4077609731
 21
97.4546399474
 31
0.0
  0
MTEXT
  5
215
330
20D
100
AcDbEntity
  8
VERMASSUNG
100
AcDbMText
 10
251.5584809877
 20
100.0327753105
 30
0.0
 40
2.0
 41
0.0
 71
     1
 72
     1
  1
10
  7
SLDTEXTSTYLE0
 73
     1
 44
1.0
  0
ENDBLK
  5
20F
330
20D
100
AcDbEntity
  8
0
100
AcDbBlockEnd
  0
BLOCK
  5
218
330
217
100
AcDbEntity
  8
0
100
AcDbBlockBegin
  2
_D_8
 70
     0
 10
0.0
 20
0.0
 30
0.0
  3
_D_8
  1

  0
SOLID
  5
21A
330
217
100
AcDbEntity
  8
VERMASSUNG
100
AcDbTrace
 10
247.4077609731
 20
97.4546399474
 30
0.0
 11
244.4077609731
 21
97.9046399474
 31
0.0
 12
244.4077609731
 22
97.0046399474
 32
0.0
 13
244.4077609731
 23
97.0046399474
 33
0.0
  0
SOLID
  5
21B
330
217
100
AcDbEntity
  8
VERMASSUNG
100
AcDbTrace
 10
237.4077609731
 20
97.4546399474
 30
0.0
 11
240.4077609731
 21
97.0046399474
 31
0.0
 12
240.4077609731
 22
97.9046399474
 32
0.0
 13
240.4077609731
 23
97.9046399474
 33
0.0
  0
LINE
  5
21C
330
217
100
AcDbEntity
  8
VERMASSUNG
100
AcDbLine
 10
247.4077609731
 20
114.677996312
 30
0.0
 11
247.4077609731
 21
96.4546399474
 31
0.0
  0
LINE
  5
21D
330
217
100
AcDbEntity
  8
VERMASSUNG
100
AcDbLine
 10
237.4077609731
 20
115.0067098648
 30
0.0
 11
237.4077609731
 21
96.4546399474
 31
0.0
  0
LINE
  5
21E
330
217
100
AcDbEntity
  8
VERMASSUNG
100
AcDbLine
 10
247.4077609731
 20
97.4546399474
 30
0.0
 11
237.4077609731
 21
97.4546399474
 31
0.0
  0
MTEXT
  5
21F
330
217
100
AcDbEntity
  8
VERMASSUNG
100
AcDbMText
 10
242.0895243161
 20
100.0327753105
 30
0.0
 40
2.0
 41
0.0
 71
     1
 72
     1
  1
10
  7
SLDTEXTSTYLE0
 73
     1
 44
1.0
  0
ENDBLK
  5
219
330
217
100
AcDbEntity
  8
0
100
AcDbBlockEnd
  0
BLOCK
  5
222
330
221
100
AcDbEntity
  8
0
100
AcDbBlockBegin
  2
_D_9
 70
     0
 10
0.0
 20
0.0
 30
0.0
  3
_D_9
  1

  0
SOLID
  5
224
330
221
100
AcDbEntity
  8
VERMASSUNG
100
AcDbTrace
 10
229.4077609731
 20
91.4546399474
 30
0.0
 11
232.4077609731
 21
91.0046399474
 31
0.0
 12
232.4077609731
 22
91.9046399474
 32
0.0
 13
232.4077609731
 23
91.9046399474
 33
0.0
  0
SOLID
  5
225
330
221
100
AcDbEntity
  8
VERMASSUNG
100
AcDbTrace
 10
265.4077609731
 20
91.4546399474
 30
0.0
 11
262.4077609731
 21
91.9046399474
 31
0.0
 12
262.4077609731
 22
91.0046399474
 32
0.0
 13
262.4077609731
 23
91.0046399474
 33
0.0
  0
LINE
  5
226
330
221
100
AcDbEntity
  8
VERMASSUNG
100
AcDbLine
 10
229.4077609731
 20
116.3379535936
 30
0.0
 11
229.4077609731
 21
90.4546399474
 31
0.0
  0
LINE
  5
227
330
221
100
AcDbEntity
  8
VERMASSUNG
100
AcDbLine
 10
265.4077609731
 20
105.2379535936
 30
0.0
 11
265.4077609731
 21
90.4546399474
 31
0.0
  0
LINE
  5
228
330
221
100
AcDbEntity
  8
VERMASSUNG
100
AcDbLine
 10
229.4077609731
 20
91.4546399474
 30
0.0
 11
265.4077609731
 21
91.4546399474
 31
0.0
  0
MTEXT
  5
229
330
221
100
AcDbEntity
  8
VERMASSUNG
100
AcDbMText
 10
246.6127206418
 20
94.0327753105
 30
0.0
 40
2.0
 41
0.0
 71
     1
 72
     1
  1
36
  7
SLDTEXTSTYLE0
 73
     1
 44
1.0
  0
ENDBLK
  5
223
330
221
100
AcDbEntity
  8
0
100
AcDbBlockEnd
  0
BLOCK
  5
36A
330
369
100
AcDbEntity
  8
0
100
AcDbBlockBegin
  2
SW_CENTERMARKSYMBOL_0
 70
     0
 10
0.0
 20
0.0
 30
0.0
  3
SW_CENTERMARKSYMBOL_0
  1

  0
LINE
  5
36C
330
369
100
AcDbEntity
  8
VERMASSUNG
 62
     0
100
AcDbLine
 10
0.0
 20
0.0
 30
0.0
 11
0.0
 21
2.5
 31
0.0
  0
LINE
  5
36D
330
369
100
AcDbEntity
  8
VERMASSUNG
 62
     0
100
AcDbLine
 10
0.0
 20
0.0
 30
0.0
 11
-2.5
 21
0.0
 31
0.0
  0
LINE
  5
36E
330
369
100
AcDbEntity
  8
VERMASSUNG
 62
     0
100
AcDbLine
 10
0.0
 20
0.0
 30
0.0
 11
0.0
 21
-2.5
 31
0.0
  0
LINE
  5
36F
330
369
100
AcDbEntity
  8
VERMASSUNG
 62
     0
100
AcDbLine
 10
0.0
 20
0.0
 30
0.0
 11
2.5
 21
0.0
 31
0.0
  0
LINE
  5
370
330
369
100
AcDbEntity
  8
VERMASSUNG
 62
     0
100
AcDbLine
 10
0.0
 20
5.0
 30
0.0
 11
0.0
 21
53.6907088256
 31
0.0
  0
LINE
  5
371
330
369
100
AcDbEntity
  8
VERMASSUNG
 62
     0
100
AcDbLine
 10
-5.0
 20
0.0
 30
0.0
 11
-55.1923644778
 21
0.0
 31
0.0
  0
LINE
  5
372
330
369
100
AcDbEntity
  8
VERMASSUNG
 62
     0
100
AcDbLine
 10
0.0
 20
-5.0
 30
0.0
 11
0.0
 21
-52.7272204317
 31
0.0
  0
LINE
  5
373
330
369
100
AcDbEntity
  8
VERMASSUNG
 62
     0
100
AcDbLine
 10
5.0
 20
0.0
 30
0.0
 11
55.6646441285
 21
0.0
 31
0.0
  0
ENDBLK
  5
36B
330
369
100
AcDbEntity
  8
0
100
AcDbBlockEnd
  0
ENDSEC
  0
SECTION
  2
ENTITIES
  0
MTEXT
  5
49
330
1F
100
AcDbEntity
  8
KOPF_DÜNN
100
AcDbMText
 10
13.8892156294
 20
23.8442973028
 30
0.0
 40
3.0
 41
0.0
 71
     1
 72
     1
  1
HA0.B12.K01.070
  7
SLDTEXTSTYLE0
 73
     1
 44
1.0
  0
MTEXT
  5
4A
330
1F
100
AcDbEntity
  8
VERMASSUNG
100
AcDbMText
 10
13.9329988022
 20
28.8834360957
 30
0.0
 40
3.0
 41
0.0
 71
     1
 72
     1
  1
Bohrstangenhalter_Boring bar holder
  7
SLDTEXTSTYLE0
 73
     1
 44
1.0
  0
MTEXT
  5
4B
330
1F
100
AcDbEntity
  8
VERMASSUNG
100
AcDbMText
 10
98.8601118557
 20
13.8365368179
 30
0.0
 40
2.0
 41
0.0
 71
     1
 72
     1
  1
Datum: 31.10.2006
  7
SLDTEXTSTYLE0
 73
     1
 44
1.0
  0
MTEXT
  5
4D
330
1F
100
AcDbEntity
  8
VERMASSUNG
100
AcDbMText
 10
13.933048693
 20
18.0482802738
 30
0.0
 40
2.0
 41
0.0
 71
     1
 72
     1
  1
DIN 69893 HSK 100 A ICTM / ø12
  7
SLDTEXTSTYLE1
 73
     1
 44
1.0
  0
MTEXT
  5
4E
330
1F
100
AcDbEntity
  8
VERMASSUNG
100
AcDbMText
 10
13.9808475933
 20
13.9090973692
 30
0.0
 40
2.0
 41
0.0
 71
     1
 72
     1
  1
Gewicht: 2285g
  7
SLDTEXTSTYLE0
 73
     1
 44
1.0
  0
LINE
  5
4F
330
1F
100
AcDbEntity
  8
0
  6
Continuous
 62
     7
370
    15
100
AcDbLine
 10
195.9077609969
 20
72.2379528485
 30
0.0
 11
200.3577609463
 21
72.2379528485
 31
0.0
  0
LINE
  5
50
330
1F
100
AcDbEntity
  8
0
  6
Continuous
 62
     7
370
    15
100
AcDbLine
 10
200.3918338483
 20
172.2379543387
 30
0.0
 11
195.9077609969
 21
172.2379543387
 31
0.0
  0
ARC
  5
51
330
1F
100
AcDbEntity
  8
0
  6
Continuous
 62
     7
370
    15
100
AcDbCircle
 10
195.9077609731
 20
72.7379535936
 30
0.0
 40
0.5
100
AcDbArc
 50
180.0
 51
270.0
  0
ARC
  5
52
330
1F
100
AcDbEntity
  8
0
  6
Continuous
 62
     7
370
    15
100
AcDbCircle
 10
195.9077609731
 20
171.7379535936
 30
0.0
 40
0.5
100
AcDbArc
 50
90.0
 51
180.0
  0
ARC
  5
53
330
1F
100
AcDbEntity
  8
0
  6
Continuous
 62
     7
370
    15
100
AcDbCircle
 10
194.5108240547
 20
83.6094682692
 30
0.0
 40
0.996233821438679
100
AcDbArc
 50
25.7988228126
 51
90.0
  0
ARC
  5
54
330
1F
100
AcDbEntity
  8
0
  6
Continuous
 62
     7
370
    15
100
AcDbCircle
 10
194.5108240547
 20
160.866438918
 30
0.0
 40
0.9962338214386665
100
AcDbArc
 50
270.0
 51
334.2011771874
  0
LINE
  5
55
330
1F
100
AcDbEntity
  8
0
  6
Continuous
 62
     7
370
    15
100
AcDbLine
 10
173.9270646973
 20
159.1692671679
 30
0.0
 11
155.6077615274
 21
158.2514673971
 31
0.0
  0
LINE
  5
56
330
1F
100
AcDbEntity
  8
0
  6
Continuous
 62
     7
370
    15
100
AcDbLine
 10
192.907761029
 20
160.120203396
 30
0.0
 11
186.8397218092
 21
159.8161936306
 31
0.0
  0
LINE
  5
57
330
1F
100
AcDbEntity
  8
0
  6
Continuous
 62
     7
370
    15
100
AcDbLine
 10
186.8398447437
 20
84.6597061061
 30
0.0
 11
192.907761029
 21
84.3557037912
 31
0.0
  0
LINE
  5
58
330
1F
100
AcDbEntity
  8
0
  6
Continuous
 62
     7
370
    15
100
AcDbLine
 10
160.6077604844
 20
85.9739400946
 30
0.0
 11
173.9277128978
 21
85.3066064917
 31
0.0
  0
LINE
  5
59
330
1F
100
AcDbEntity
  8
0
  6
Continuous
 62
     7
370
    15
100
AcDbLine
 10
192.907761029
 20
84.3557037912
 30
0.0
 11
193.7136070952
 21
84.5716290675
 31
0.0
  0
LINE
  5
5A
330
1F
100
AcDbEntity
  8
0
  6
Continuous
 62
     7
370
    15
100
AcDbLine
 10
193.7136070952
 20
159.9042781197
 30
0.0
 11
192.907761029
 21
160.120203396
 31
0.0
  0
ARC
  5
5B
330
1F
100
AcDbEntity
  8
0
  6
Continuous
 62
     7
370
    15
100
AcDbCircle
 10
193.9724261726
 20
83.6057020906
 30
0.0
 40
0.9999999999999893
100
AcDbArc
 50
90.0
 51
105.0
  0
ARC
  5
5C
330
1F
100
AcDbEntity
  8
0
  6
Continuous
 62
     7
370
    15
100
AcDbCircle
 10
193.9724261726
 20
160.8702050966
 30
0.0
 40
0.9999999999999756
100
AcDbArc
 50
255.0
 51
270.0
  0
LINE
  5
5D
330
1F
100
AcDbEntity
  8
0
  6
Continuous
 62
     7
370
    15
100
AcDbLine
 10
193.9724261789
 20
84.6057005726
 30
0.0
 11
194.5108240503
 21
84.6057005726
 31
0.0
  0
LINE
  5
5E
330
1F
100
AcDbEntity
  8
0
  6
Continuous
 62
     7
370
    15
100
AcDbLine
 10
194.5108240503
 20
159.8702066146
 30
0.0
 11
193.9724261789
 21
159.8702066146
 31
0.0
  0
ARC
  5
5F
330
1F
100
AcDbEntity
  8
0
  6
Continuous
 62
     7
370
    15
100
AcDbCircle
 10
229.3577609731
 20
99.2379535936
 30
0.0
 40
5.0
100
AcDbArc
 50
90.0
 51
180.0
  0
ARC
  5
60
330
1F
100
AcDbEntity
  8
0
  6
Continuous
 62
     7
370
    15
100
AcDbCircle
 10
229.3577609731
 20
145.2379535936
 30
0.0
 40
5.0
100
AcDbArc
 50
180.0
 51
270.0
  0
ARC
  5
61
330
1F
100
AcDbEntity
  8
0
  6
Continuous
 62
     7
370
    15
100
AcDbCircle
 10
264.4077609731
 20
139.2379535936
 30
0.0
 40
1.0
100
AcDbArc
 50
0.0
 51
90.0
  0
ARC
  5
62
330
1F
100
AcDbEntity
  8
0
  6
Continuous
 62
     7
370
    15
100
AcDbCircle
 10
264.4077609731
 20
105.2379535936
 30
0.0
 40
1.0
100
AcDbArc
 50
270.0
 51
0.0
  0
LINE
  5
63
330
1F
100
AcDbEntity
  8
0
  6
Continuous
 62
     7
370
    15
100
AcDbLine
 10
233.9181580497
 20
140.2379528187
 30
0.0
 11
229.3577619745
 21
140.2379528187
 31
0.0
  0
LINE
  5
64
330
1F
100
AcDbEntity
  8
0
  6
Continuous
 62
     7
370
    15
100
AcDbLine
 10
243.9181596889
 20
140.2379528187
 30
0.0
 11
240.8649154855
 21
140.2379528187
 31
0.0
  0
LINE
  5
65
330
1F
100
AcDbEntity
  8
0
  6
Continuous
 62
     7
370
    15
100
AcDbLine
 10
253.9181576027
 20
140.2379528187
 30
0.0
 11
250.8649171247
 21
140.2379528187
 31
0.0
  0
LINE
  5
66
330
1F
100
AcDbEntity
  8
0
  6
Continuous
 62
     7
370
    15
100
AcDbLine
 10
264.4077592446
 20
140.2379528187
 30
0.0
 11
260.8649187638
 21
140.2379528187
 31
0.0
  0
LINE
  5
67
330
1F
100
AcDbEntity
  8
0
  6
Continuous
 62
     7
370
    15
100
AcDbLine
 10
229.3577619745
 20
104.2379543685
 30
0.0
 11
264.4077592446
 21
104.2379543685
 31
0.0
  0
LINE
  5
68
330
1F
100
AcDbEntity
  8
0
  6
Continuous
 62
     7
370
    15
100
AcDbLine
 10
147.1577600492
 20
90.042951753
 30
0.0
 11
158.7077618493
 21
90.042951753
 31
0.0
  0
ARC
  5
69
330
1F
100
AcDbEntity
  8
0
  6
Continuous
 62
     7
370
    15
100
AcDbCircle
 10
158.7077609731
 20
88.1429535936
 30
0.0
 40
1.899999999999999
100
AcDbArc
 50
32.8598554769
 51
90.0
  0
ARC
  5
6A
330
1F
100
AcDbEntity
  8
0
  6
Continuous
 62
     7
370
    15
100
AcDbCircle
 10
153.7077609731
 20
156.3879535936
 30
0.0
 40
1.900000000000027
100
AcDbArc
 50
270.0
 51
310.9212832533
  0
LINE
  5
6B
330
1F
100
AcDbEntity
  8
0
  6
Continuous
 62
     7
370
    15
100
AcDbLine
 10
147.1577600492
 20
154.4879518949
 30
0.0
 11
145.5584444953
 21
152.8886382036
 31
0.0
  0
LINE
  5
6C
330
1F
100
AcDbEntity
  8
0
  6
Continuous
 62
     7
370
    15
100
AcDbLine
 10
145.5429174854
 20
91.6577961795
 30
0.0
 11
147.1577600492
 21
90.042951753
 31
0.0
  0
LINE
  5
6D
330
1F
100
AcDbEntity
  8
0
  6
Continuous
 62
     7
370
    15
100
AcDbLine
 10
153.7077591671
 20
154.4879518949
 30
0.0
 11
147.1577600492
 21
154.4879518949
 31
0.0
  0
CIRCLE
  5
6E
330
1F
100
AcDbEntity
  8
0
  6
Continuous
 62
     7
370
    15
100
AcDbCircle
 10
247.4077609731
 20
122.2379535936
 30
0.0
 40
3.400000000000015
  0
LINE
  5
6F
330
1F
100
AcDbEntity
  8
0
  6
Continuous
 62
     7
370
    15
100
AcDbLine
 10
247.1760191871
 20
124.5356977485
 30
0.0
 11
245.3019858254
 21
123.1861307785
 31
0.0
  0
LINE
  5
70
330
1F
100
AcDbEntity
  8
0
  6
Continuous
 62
     7
370
    15
100
AcDbLine
 10
245.5337286843
 20
120.8883865072
 30
0.0
 11
245.3019858254
 21
123.1861307785
 31
0.0
  0
LINE
  5
71
330
1F
100
AcDbEntity
  8
0
  6
Continuous
 62
     7
370
    15
100
AcDbLine
 10
247.6395049049
 20
119.9402094387
 30
0.0
 11
245.5337286843
 21
120.8883865072
 31
0.0
  0
LINE
  5
72
330
1F
100
AcDbEntity
  8
0
  6
Continuous
 62
     7
370
    15
100
AcDbLine
 10
247.6395049049
 20
119.9402094387
 30
0.0
 11
249.5135382666
 21
121.2897764087
 31
0.0
  0
LINE
  5
73
330
1F
100
AcDbEntity
  8
0
  6
Continuous
 62
     7
370
    15
100
AcDbLine
 10
249.2817954077
 20
123.58752068
 30
0.0
 11
249.5135382666
 21
121.2897764087
 31
0.0
  0
LINE
  5
74
330
1F
100
AcDbEntity
  8
0
  6
Continuous
 62
     7
370
    15
100
AcDbLine
 10
249.2817954077
 20
123.58752068
 30
0.0
 11
247.1760191871
 21
124.5356977485
 31
0.0
  0
LINE
  5
75
330
1F
100
AcDbEntity
  8
0
  6
Continuous
 62
     7
370
    15
100
AcDbLine
 10
257.0705690338
 20
140.2379528187
 30
0.0
 11
260.8077579094
 21
140.2379528187
 31
0.0
  0
LINE
  5
76
330
1F
100
AcDbEntity
  8
0
  6
Continuous
 62
     7
370
    15
100
AcDbLine
 10
254.0077620102
 20
140.2379528187
 30
0.0
 11
257.0705690338
 21
140.2379528187
 31
0.0
  0
CIRCLE
  5
77
330
1F
100
AcDbEntity
  8
0
  6
Continuous
 62
     7
370
    15
100
AcDbCircle
 10
257.4077609731
 20
122.2379535936
 30
0.0
 40
3.400000000000006
  0
LINE
  5
78
330
1F
100
AcDbEntity
  8
0
  6
Continuous
 62
     7
370
    15
100
AcDbLine
 10
259.2894338919
 20
123.5768474905
 30
0.0
 11
257.189081694
 21
124.5369778514
 31
0.0
  0
LINE
  5
79
330
1F
100
AcDbEntity
  8
0
  6
Continuous
 62
     7
370
    15
100
AcDbLine
 10
255.307407762
 20
123.1980840127
 30
0.0
 11
257.189081694
 21
124.5369778514
 31
0.0
  0
LINE
  5
7A
330
1F
100
AcDbEntity
  8
0
  6
Continuous
 62
     7
370
    15
100
AcDbLine
 10
255.5260860278
 20
120.8990596967
 30
0.0
 11
255.307407762
 21
123.1980840127
 31
0.0
  0
LINE
  5
7B
330
1F
100
AcDbEntity
  8
0
  6
Continuous
 62
     7
370
    15
100
AcDbLine
 10
255.5260860278
 20
120.8990596967
 30
0.0
 11
257.6264419509
 21
119.9389293358
 31
0.0
  0
LINE
  5
7C
330
1F
100
AcDbEntity
  8
0
  6
Continuous
 62
     7
370
    15
100
AcDbLine
 10
259.508115883
 20
121.2778231745
 30
0.0
 11
257.6264419509
 21
119.9389293358
 31
0.0
  0
LINE
  5
7D
330
1F
100
AcDbEntity
  8
0
  6
Continuous
 62
     7
370
    15
100
AcDbLine
 10
259.508115883
 20
121.2778231745
 30
0.0
 11
259.2894338919
 21
123.5768474905
 31
0.0
  0
LINE
  5
7E
330
1F
100
AcDbEntity
  8
0
  6
Continuous
 62
     7
370
    15
100
AcDbLine
 10
244.0077603711
 20
140.2379528187
 30
0.0
 11
250.8077599956
 21
140.2379528187
 31
0.0
  0
CIRCLE
  5
7F
330
1F
100
AcDbEntity
  8
0
  6
Continuous
 62
     7
370
    15
100
AcDbCircle
 10
237.4077609731
 20
122.2379535936
 30
0.0
 40
3.400000000000011
  0
LINE
  5
80
330
1F
100
AcDbEntity
  8
0
  6
Continuous
 62
     7
370
    15
100
AcDbLine
 10
235.2246806873
 20
121.4846268446
 30
0.0
 11
236.9686231865
 21
119.9706885997
 31
0.0
  0
LINE
  5
81
330
1F
100
AcDbEntity
  8
0
  6
Continuous
 62
     7
370
    15
100
AcDbLine
 10
239.1516991807
 20
120.7240154069
 30
0.0
 11
236.9686231865
 21
119.9706885997
 31
0.0
  0
LINE
  5
82
330
1F
100
AcDbEntity
  8
0
  6
Continuous
 62
     7
370
    15
100
AcDbLine
 10
239.5908401264
 20
122.9912803426
 30
0.0
 11
239.1516991807
 21
120.7240154069
 31
0.0
  0
LINE
  5
83
330
1F
100
AcDbEntity
  8
0
  6
Continuous
 62
     7
370
    15
100
AcDbLine
 10
239.5908401264
 20
122.9912803426
 30
0.0
 11
237.8469013525
 21
124.5052185875
 31
0.0
  0
LINE
  5
84
330
1F
100
AcDbEntity
  8
0
  6
Continuous
 62
     7
370
    15
100
AcDbLine
 10
235.663821633
 20
123.7518917803
 30
0.0
 11
237.8469013525
 21
124.5052185875
 31
0.0
  0
LINE
  5
85
330
1F
100
AcDbEntity
  8
0
  6
Continuous
 62
     7
370
    15
100
AcDbLine
 10
235.663821633
 20
123.7518917803
 30
0.0
 11
235.2246806873
 21
121.4846268446
 31
0.0
  0
LINE
  5
86
330
1F
100
AcDbEntity
  8
0
  6
Continuous
 62
     7
370
    15
100
AcDbLine
 10
238.9308341695
 20
140.2379528187
 30
0.0
 11
240.8077620818
 21
140.2379528187
 31
0.0
  0
LINE
  5
87
330
1F
100
AcDbEntity
  8
0
  6
Continuous
 62
     7
370
    15
100
AcDbLine
 10
234.0077624573
 20
140.2379528187
 30
0.0
 11
238.9308341695
 21
140.2379528187
 31
0.0
  0
LINE
  5
88
330
1F
100
AcDbEntity
  8
0
  6
Continuous
 62
     7
370
    15
100
AcDbLine
 10
200.3577609463
 20
153.5879552864
 30
0.0
 11
212.145732428
 21
153.5879552864
 31
0.0
  0
LINE
  5
89
330
1F
100
AcDbEntity
  8
0
  6
Continuous
 62
     7
370
    15
100
AcDbLine
 10
212.145732428
 20
73.4629586838
 30
0.0
 11
212.145732428
 21
153.5879552864
 31
0.0
  0
LINE
  5
8A
330
1F
100
AcDbEntity
  8
0
  6
Continuous
 62
     7
370
    15
100
AcDbLine
 10
212.145732428
 20
73.4629586838
 30
0.0
 11
210.3577607228
 21
73.4629586838
 31
0.0
  0
SPLINE
  5
8B
330
1F
100
AcDbEntity
  8
0
  6
Continuous
 62
     7
370
    15
100
AcDbSpline
210
0.0
220
0.0
230
1.0
 70
     8
 71
     3
 72
    30
 73
    26
 74
     0
 42
0.00000001
 43
0.00000001
 12
1.0
 22
0.0
 32
0.0
 13
1.0
 23
0.0
 33
0.0
 40
0.0
 40
0.0
 40
0.0
 40
0.0
 40
0.1250000000000002
 40
0.1250000000000002
 40
0.1875000000000003
 40
0.1875000000000003
 40
0.2500000000000004
 40
0.2500000000000004
 40
0.3750000000000001
 40
0.3750000000000001
 40
0.4374999999999998
 40
0.4374999999999998
 40
0.4999999999999996
 40
0.4999999999999996
 40
0.6249999999999996
 40
0.6249999999999996
 40
0.6874999999999997
 40
0.6874999999999997
 40
0.7499999999999997
 40
0.7499999999999997
 40
0.8124999999999998
 40
0.8124999999999998
 40
0.8749999999999999
 40
0.8749999999999999
 40
1.0
 40
1.0
 40
1.0
 40
1.0
 10
210.3577609731169
 20
73.46296000057026
 30
0.0
 10
209.6950162792719
 20
73.46296000057026
 30
0.0
 10
209.0437604201562
 20
73.44811992398145
 30
0.0
 10
208.0833098818979
 20
73.40575035975183
 30
0.0
 10
207.765918438665
 20
73.38827225697266
 30
0.0
 10
207.1367549371101
 20
73.34694397042036
 30
0.0
 10
206.8246067506684
 20
73.32301869696265
 30
0.0
 10
205.9172994488202
 20
73.24421218049574
 30
0.0
 10
205.3438744911789
 20
73.18190616051929
 30
0.0
 10
204.5299976216042
 20
73.07877684027991
 30
0.0
 10
204.2651914250343
 20
73.0425929212334
 30
0.0
 10
203.75828401422
 20
72.9687981370329
 30
0.0
 10
203.5168898628665
 20
72.93132427826126
 30
0.0
 10
202.8277483907342
 20
72.81861233492151
 30
0.0
 10
202.4146935758699
 20
72.74307623744775
 30
0.0
 10
201.8665387564949
 20
72.63468298043024
 30
0.0
 10
201.6970761491493
 20
72.59961074876698
 30
0.0
 10
201.3890589011339
 20
72.53337528816714
 30
0.0
 10
201.2496788805256
 20
72.5020485914124
 30
0.0
 10
200.9998933678988
 20
72.44363981983149
 30
0.0
 10
200.8894872552449
 20
72.41655658464863
 30
0.0
 10
200.6982294016072
 20
72.36729683003504
 30
0.0
 10
200.6171098833229
 20
72.34503485022739
 30
0.0
 10
200.4229629632145
 20
72.28746794305913
 30
0.0
 10
200.3577609731169
 20
72.26120833827312
 30
0.0
 10
200.3577609731169
 20
72.2479545937991
 30
0.0
  0
LINE
  5
8C
330
1F
100
AcDbEntity
  8
0
  6
Continuous
 62
     7
370
    15
100
AcDbLine
 10
200.3577609463
 20
72.247955253
 30
0.0
 11
200.3577609463
 21
72.2379528485
 31
0.0
  0
SPLINE
  5
8D
330
1F
100
AcDbEntity
  8
0
  6
Continuous
 62
     7
370
    15
100
AcDbSpline
210
0.0
220
0.0
230
1.0
 70
     8
 71
     3
 72
    17
 73
    13
 74
     0
 42
0.00000001
 43
0.00000001
 12
1.0
 22
0.0
 32
0.0
 13
1.0
 23
0.0
 33
0.0
 40
0.0
 40
0.0
 40
0.0
 40
0.0
 40
0.1043843958185158
 40
0.2118345569819801
 40
0.3162081801235555
 40
0.4235375330682647
 40
0.5292275935501746
 40
0.6379275752951962
 40
0.7444714855043735
 40
0.8541836194561564
 40
0.959308052615968
 40
1.0
 40
1.0
 40
1.0
 40
1.0
 10
210.3577607227774
 20
171.2277487419717
 30
0.0
 10
209.8098221822638
 20
171.2331161823045
 30
0.0
 10
208.6978521691895
 20
171.2440087044685
 30
0.0
 10
207.084996836667
 20
171.3291908882865
 30
0.0
 10
205.5514836859293
 20
171.455561391618
 30
0.0
 10
204.160462797555
 20
171.6124652631268
 30
0.0
 10
202.9249456812569
 20
171.7841606605625
 30
0.0
 10
201.9015905354005
 20
171.9495055147725
 30
0.0
 10
201.1012478625416
 20
172.0932098126046
 30
0.0
 10
200.5909163097815
 20
172.1913738085364
 30
0.0
 10
200.3510075513221
 20
172.2392951230092
 30
0.0
 10
200.3829264630915
 20
172.2329286149954
 30
0.0
 10
200.3918338483485
 20
172.2311519585721
 30
0.0
  0
LINE
  5
8E
330
1F
100
AcDbEntity
  8
0
  6
Continuous
 62
     7
370
    15
100
AcDbLine
 10
212.145732428
 20
171.227748742
 30
0.0
 11
210.3577607228
 21
171.227748742
 31
0.0
  0
LINE
  5
8F
330
1F
100
AcDbEntity
  8
0
  6
Continuous
 62
     7
370
    15
100
AcDbLine
 10
212.145732428
 20
161.1889146768
 30
0.0
 11
212.145732428
 21
171.227748742
 31
0.0
  0
LINE
  5
90
330
1F
100
AcDbEntity
  8
0
  6
Continuous
 62
     7
370
    15
100
AcDbLine
 10
210.0657277657
 20
161.1889146768
 30
0.0
 11
212.145732428
 21
161.1889146768
 31
0.0
  0
SPLINE
  5
91
330
1F
100
AcDbEntity
  8
0
  6
Continuous
 62
     7
370
    15
100
AcDbSpline
210
0.0
220
0.0
230
1.0
 70
     8
 71
     3
 72
    22
 73
    18
 74
     0
 42
0.00000001
 43
0.00000001
 12
1.0
 22
0.0
 32
0.0
 13
1.0
 23
0.0
 33
0.0
 40
0.0
 40
0.0
 40
0.0
 40
0.0
 40
0.2500000000000002
 40
0.2500000000000002
 40
0.3750000000000003
 40
0.3750000000000003
 40
0.5000000000000004
 40
0.5000000000000004
 40
0.6250000000000004
 40
0.6250000000000004
 40
0.7500000000000004
 40
0.7500000000000004
 40
0.8750000000000004
 40
0.8750000000000004
 40
0.9375000000000002
 40
0.9375000000000002
 40
1.0
 40
1.0
 40
1.0
 40
1.0
 10
200.3577609731169
 20
153.5879535935991
 30
0.0
 10
200.560485929036
 20
154.6071999354637
 30
0.0
 10
200.8752296508314
 20
155.566308085403
 30
0.0
 10
201.5832851205024
 20
156.9087871629123
 30
0.0
 10
201.86174775072
 20
157.3429957456523
 30
0.0
 10
202.5005151573572
 20
158.1546234611544
 30
0.0
 10
202.8609288371474
 20
158.5339037540912
 30
0.0
 10
203.6784610691367
 20
159.2368623331122
 30
0.0
 10
204.1396290524238
 20
159.5618911508128
 30
0.0
 10
205.1376192989077
 20
160.1269064742037
 30
0.0
 10
205.6773784928999
 20
160.3706100684102
 30
0.0
 10
206.8519714569312
 20
160.7748099960552
 30
0.0
 10
207.4637076429231
 20
160.9272471891007
 30
0.0
 10
208.4156168677848
 20
161.0825747367094
 30
0.0
 10
208.7388500320455
 20
161.1220795167594
 30
0.0
 10
209.3979132033207
 20
161.1753886374281
 30
0.0
 10
209.7319772138947
 20
161.188916354486
 30
0.0
 10
210.0657278212963
 20
161.188916354486
 30
0.0
  0
LINE
  5
92
330
1F
100
AcDbEntity
  8
0
  6
Continuous
 62
     7
370
    15
100
AcDbLine
 10
218.6697904868
 20
73.4629586838
 30
0.0
 11
218.6697904868
 21
153.5879552864
 31
0.0
  0
SPLINE
  5
93
330
1F
100
AcDbEntity
  8
0
  6
Continuous
 62
     7
370
    15
100
AcDbSpline
210
0.0
220
0.0
230
1.0
 70
     8
 71
     3
 72
     8
 73
     4
 74
     0
 42
0.00000001
 43
0.00000001
 12
1.0
 22
0.0
 32
0.0
 13
1.0
 23
0.0
 33
0.0
 40
0.0
 40
0.0
 40
0.0
 40
0.0
 40
1.0
 40
1.0
 40
1.0
 40
1.0
 10
218.6697899940384
 20
73.46296000057026
 30
0.0
 10
218.2186852646381
 20
74.26391993239018
 30
0.0
 10
217.7679874373948
 20
75.06510994395083
 30
0.0
 10
217.3177609731169
 20
75.8665653065756
 30
0.0
  0
LINE
  5
94
330
1F
100
AcDbEntity
  8
0
  6
Continuous
 62
     7
370
    15
100
AcDbLine
 10
217.3177615656
 20
75.8665644132
 30
0.0
 11
217.3177615656
 21
153.5879552864
 31
0.0
  0
SPLINE
  5
95
330
1F
100
AcDbEntity
  8
0
  6
Continuous
 62
     7
370
    15
100
AcDbSpline
210
0.0
220
0.0
230
1.0
 70
    24
 71
     3
 72
     8
 73
     4
 74
     0
 42
0.00000001
 43
0.00000001
 12
1.0
 22
0.0
 32
0.0
 13
1.0
 23
0.0
 33
0.0
 40
0.0
 40
0.0
 40
0.0
 40
0.0
 40
1.0
 40
1.0
 40
1.0
 40
1.0
 10
217.317760973117
 20
153.5879535935991
 30
0.0
 10
217.7619738554709
 20
153.5879535935991
 30
0.0
 10
218.2129884217101
 20
153.5879535935991
 30
0.0
 10
218.6697899940384
 20
153.5879535935991
 30
0.0
  0
LINE
  5
96
330
1F
100
AcDbEntity
  8
0
  6
Continuous
 62
     7
370
    15
100
AcDbLine
 10
224.3577611549
 20
74.4886093341
 30
0.0
 11
224.3577611549
 21
153.5879552864
 31
0.0
  0
SPLINE
  5
97
330
1F
100
AcDbEntity
  8
0
  6
Continuous
 62
     7
370
    15
100
AcDbSpline
210
0.0
220
0.0
230
1.0
 70
     8
 71
     3
 72
    14
 73
    10
 74
     0
 42
0.00000001
 43
0.00000001
 12
1.0
 22
0.0
 32
0.0
 13
1.0
 23
0.0
 33
0.0
 40
0.0
 40
0.0
 40
0.0
 40
0.0
 40
0.25
 40
0.25
 40
0.5
 40
0.5
 40
0.75
 40
0.75
 40
1.0
 40
1.0
 40
1.0
 40
1.0
 10
224.357760973117
 20
74.48860804834575
 30
0.0
 10
224.357760973117
 20
74.35518235229122
 30
0.0
 10
224.3324498732061
 20
74.22333454444689
 30
0.0
 10
224.2341151093614
 20
73.97681199575275
 30
0.0
 10
224.1609711051053
 20
73.86300680751224
 30
0.0
 10
223.9775330440096
 20
73.67254963056494
 30
0.0
 10
223.865846709671
 20
73.59491476671504
 30
0.0
 10
223.6233432793647
 20
73.49062335660255
 30
0.0
 10
223.4899688506705
 20
73.4629600005702
 30
0.0
 10
223.357760973117
 20
73.46296000057022
 30
0.0
  0
SPLINE
  5
98
330
1F
100
AcDbEntity
  8
0
  6
Continuous
 62
     7
370
    15
100
AcDbSpline
210
0.0
220
0.0
230
1.0
 70
    24
 71
     3
 72
    12
 73
     8
 74
     0
 42
0.00000001
 43
0.00000001
 12
1.0
 22
0.0
 32
0.0
 13
1.0
 23
0.0
 33
0.0
 40
0.0
 40
0.0
 40
0.0
 40
0.0
 40
0.2500000000000032
 40
0.2500000000000032
 40
0.5000000000000064
 40
0.5000000000000064
 40
1.0
 40
1.0
 40
1.0
 40
1.0
 10
223.357760973117
 20
153.5879535935991
 30
0.0
 10
223.509851210062
 20
153.5879535935991
 30
0.0
 10
223.6583104711374
 20
153.5879535935991
 30
0.0
 10
223.9157141034031
 20
153.5879535935991
 30
0.0
 10
224.024818851245
 20
153.5879535935991
 30
0.0
 10
224.2788783276525
 20
153.5879535935991
 30
0.0
 10
224.357760973117
 20
153.5879535935991
 30
0.0
 10
224.357760973117
 20
153.5879535935991
 30
0.0
  0
LINE
  5
99
330
1F
100
AcDbEntity
  8
0
  6
Continuous
 62
     7
370
    15
100
AcDbLine
 10
223.357760991
 20
73.4629586838
 30
0.0
 11
218.6697904868
 21
73.4629586838
 31
0.0
  0
LINE
  5
9A
330
1F
100
AcDbEntity
  8
0
  6
Continuous
 62
     7
370
    15
100
AcDbLine
 10
218.6697904868
 20
153.5879552864
 30
0.0
 11
223.357760991
 21
153.5879552864
 31
0.0
  0
LINE
  5
9B
330
1F
100
AcDbEntity
  8
0
  6
Continuous
 62
     7
370
    15
100
AcDbLine
 10
213.4977613492
 20
75.8665644132
 30
0.0
 11
213.4977613492
 21
153.5879552864
 31
0.0
  0
SPLINE
  5
9C
330
1F
100
AcDbEntity
  8
0
  6
Continuous
 62
     7
370
    15
100
AcDbSpline
210
0.0
220
0.0
230
1.0
 70
     8
 71
     3
 72
     8
 73
     4
 74
     0
 42
0.00000001
 43
0.00000001
 12
1.0
 22
0.0
 32
0.0
 13
1.0
 23
0.0
 33
0.0
 40
0.0
 40
0.0
 40
0.0
 40
0.0
 40
1.0
 40
1.0
 40
1.0
 40
1.0
 10
213.497760973117
 20
75.86656530657557
 30
0.0
 10
213.0475345088392
 20
75.06510994395083
 30
0.0
 10
212.5968366815958
 20
74.26391993239017
 30
0.0
 10
212.1457319521956
 20
73.46296000057026
 30
0.0
  0
SPLINE
  5
9D
330
1F
100
AcDbEntity
  8
0
  6
Continuous
 62
     7
370
    15
100
AcDbSpline
210
0.0
220
0.0
230
1.0
 70
    24
 71
     3
 72
     8
 73
     4
 74
     0
 42
0.00000001
 43
0.00000001
 12
1.0
 22
0.0
 32
0.0
 13
1.0
 23
0.0
 33
0.0
 40
0.0
 40
0.0
 40
0.0
 40
0.0
 40
1.0
 40
1.0
 40
1.0
 40
1.0
 10
212.1457319521956
 20
153.5879535935991
 30
0.0
 10
212.6025335245238
 20
153.5879535935991
 30
0.0
 10
213.053548090763
 20
153.5879535935991
 30
0.0
 10
213.497760973117
 20
153.5879535935991
 30
0.0
  0
LINE
  5
9E
330
1F
100
AcDbEntity
  8
0
  6
Continuous
 62
     7
370
    15
100
AcDbLine
 10
195.4077609731
 20
72.7379538618
 30
0.0
 11
195.4077609731
 21
171.7379533254
 31
0.0
  0
SPLINE
  5
9F
330
1F
100
AcDbEntity
  8
0
  6
Continuous
 62
     7
370
    15
100
AcDbSpline
210
0.0
220
0.0
230
1.0
 70
     8
 71
     3
 72
    12
 73
     8
 74
     0
 42
0.00000001
 43
0.00000001
 12
1.0
 22
0.0
 32
0.0
 13
1.0
 23
0.0
 33
0.0
 40
0.0
 40
0.0
 40
0.0
 40
0.0
 40
0.25
 40
0.25
 40
0.5
 40
0.5
 40
1.0
 40
1.0
 40
1.0
 40
1.0
 10
214.297760973117
 20
77.59827813554942
 30
0.0
 10
214.192000319768
 20
77.59827813554939
 30
0.0
 10
214.0840126915851
 20
77.57573862954901
 30
0.0
 10
213.8894180263195
 20
77.4911679975537
 30
0.0
 10
213.8005461134807
 20
77.42868634479491
 30
0.0
 10
213.5813538211547
 20
77.19929739332275
 30
0.0
 10
213.4977609731169
 20
76.98671405580036
 30
0.0
 10
213.4977609731169
 20
76.77477481120418
 30
0.0
  0
SPLINE
  5
A0
330
1F
100
AcDbEntity
  8
0
  6
Continuous
 62
     7
370
    15
100
AcDbSpline
210
0.0
220
0.0
230
1.0
 70
    24
 71
     3
 72
    14
 73
    10
 74
     0
 42
0.00000001
 43
0.00000001
 12
1.0
 22
0.0
 32
0.0
 13
1.0
 23
0.0
 33
0.0
 40
0.0
 40
0.0
 40
0.0
 40
0.0
 40
0.25
 40
0.25
 40
0.5
 40
0.5
 40
0.75
 40
0.75
 40
1.0
 40
1.0
 40
1.0
 40
1.0
 10
213.497760973117
 20
153.5879535935991
 30
0.0
 10
213.4977609731169
 20
153.5879535935991
 30
0.0
 10
213.5134752935829
 20
153.5879535935991
 30
0.0
 10
213.5771592720513
 20
153.5879535935991
 30
0.0
 10
213.6257624664617
 20
153.5879535935991
 30
0.0
 10
213.7584459888873
 20
153.5879535935991
 30
0.0
 10
213.843548093198
 20
153.5879535935991
 30
0.0
 10
214.049990328108
 20
153.5879535935991
 30
0.0
 10
214.174071269731
 20
153.5879535935991
 30
0.0
 10
214.297760973117
 20
153.5879535935991
 30
0.0
  0
SPLINE
  5
A1
330
1F
100
AcDbEntity
  8
0
  6
Continuous
 62
     7
370
    15
100
AcDbSpline
210
0.0
220
0.0
230
1.0
 70
     8
 71
     3
 72
    14
 73
    10
 74
     0
 42
0.00000001
 43
0.00000001
 12
1.0
 22
0.0
 32
0.0
 13
1.0
 23
0.0
 33
0.0
 40
0.0
 40
0.0
 40
0.0
 40
0.0
 40
0.25
 40
0.25
 40
0.5
 40
0.5
 40
0.75
 40
0.75
 40
1.0
 40
1.0
 40
1.0
 40
1.0
 10
217.317760973117
 20
76.77477481120418
 30
0.0
 10
217.317760973117
 20
76.88181889219855
 30
0.0
 10
217.2976432859588
 20
76.987054032441
 30
0.0
 10
217.2191520966932
 20
77.1849045192887
 30
0.0
 10
217.160995471892
 20
77.27595628285361
 30
0.0
 10
217.0144802162739
 20
77.4291223767784
 30
0.0
 10
216.9258376676328
 20
77.4914168229878
 30
0.0
 10
216.7301143448325
 20
77.5762106085238
 30
0.0
 10
216.6248831537615
 20
77.5982781355494
 30
0.0
 10
216.517760973117
 20
77.59827813554942
 30
0.0
  0
SPLINE
  5
A2
330
1F
100
AcDbEntity
  8
0
  6
Continuous
 62
     7
370
    15
100
AcDbSpline
210
0.0
220
0.0
230
1.0
 70
    24
 71
     3
 72
    14
 73
    10
 74
     0
 42
0.00000001
 43
0.00000001
 12
1.0
 22
0.0
 32
0.0
 13
1.0
 23
0.0
 33
0.0
 40
0.0
 40
0.0
 40
0.0
 40
0.0
 40
0.25
 40
0.25
 40
0.5
 40
0.5
 40
0.75
 40
0.75
 40
1.0
 40
1.0
 40
1.0
 40
1.0
 10
216.517760973117
 20
153.5879535935991
 30
0.0
 10
216.6415307378821
 20
153.5879535935991
 30
0.0
 10
216.765897841889
 20
153.5879535935991
 30
0.0
 10
216.972254310615
 20
153.5879535935991
 30
0.0
 10
217.0575824540334
 20
153.5879535935991
 30
0.0
 10
217.1897745127486
 20
153.5879535935991
 30
0.0
 10
217.2384197564992
 20
153.5879535935991
 30
0.0
 10
217.301955548228
 20
153.5879535935991
 30
0.0
 10
217.317760973117
 20
153.5879535935991
 30
0.0
 10
217.317760973117
 20
153.5879535935991
 30
0.0
  0
LINE
  5
A3
330
1F
100
AcDbEntity
  8
0
  6
Continuous
 62
     7
370
    15
100
AcDbLine
 10
216.5177610619
 20
77.5982767843
 30
0.0
 11
214.2977618529
 21
77.5982767843
 31
0.0
  0
LINE
  5
A4
330
1F
100
AcDbEntity
  8
0
  6
Continuous
 62
     7
370
    15
100
AcDbLine
 10
214.2977618529
 20
153.5879552864
 30
0.0
 11
216.5177610619
 21
153.5879552864
 31
0.0
  0
LINE
  5
A5
330
1F
100
AcDbEntity
  8
0
  6
Continuous
 62
     7
370
    15
100
AcDbLine
 10
160.6077604844
 20
85.9739400946
 30
0.0
 11
160.6077604844
 21
88.3922309183
 31
0.0
  0
SPLINE
  5
A6
330
1F
100
AcDbEntity
  8
0
  6
Continuous
 62
     7
370
    15
100
AcDbSpline
210
0.0
220
0.0
230
1.0
 70
     8
 71
     3
 72
    14
 73
    10
 74
     0
 42
0.00000001
 43
0.00000001
 12
1.0
 22
0.0
 32
0.0
 13
1.0
 23
0.0
 33
0.0
 40
0.0
 40
0.0
 40
0.0
 40
0.0
 40
0.2500000000000008
 40
0.2500000000000008
 40
0.5000000000000006
 40
0.5000000000000006
 40
0.7500000000000002
 40
0.7500000000000002
 40
1.0
 40
1.0
 40
1.0
 40
1.0
 10
159.7512882353974
 20
90.04054750301455
 30
0.0
 10
159.8197925815932
 20
89.88670140298727
 30
0.0
 10
159.9183830670022
 20
89.73857189577615
 30
0.0
 10
160.1165736599623
 20
89.4498894983807
 30
0.0
 10
160.2170220417373
 20
89.30945042486522
 30
0.0
 10
160.3923460888566
 20
89.0354898127444
 30
0.0
 10
160.4677645158135
 20
88.90197062066343
 30
0.0
 10
160.5753011407443
 20
88.64166998070911
 30
0.0
 10
160.607760973117
 20
88.51393349414727
 30
0.0
 10
160.607760973117
 20
88.39223263937821
 30
0.0
  0
SPLINE
  5
A7
330
1F
100
AcDbEntity
  8
0
  6
Continuous
 62
     7
370
    15
100
AcDbSpline
210
0.0
220
0.0
230
1.0
 70
     8
 71
     3
 72
    20
 73
    16
 74
     0
 42
0.00000001
 43
0.00000001
 12
1.0
 22
0.0
 32
0.0
 13
1.0
 23
0.0
 33
0.0
 40
0.0
 40
0.0
 40
0.0
 40
0.0
 40
0.0625000000000001
 40
0.0625000000000001
 40
0.1250000000000002
 40
0.1250000000000002
 40
0.2500000000000004
 40
0.2500000000000004
 40
0.3750000000000006
 40
0.3750000000000006
 40
0.5000000000000008
 40
0.5000000000000008
 40
0.7500000000000003
 40
0.7500000000000003
 40
1.0
 40
1.0
 40
1.0
 40
1.0
 10
158.707760973117
 20
90.91795015373552
 30
0.0
 10
158.7524822089974
 20
90.92235885223579
 30
0.0
 10
158.7990259103839
 20
90.92222208043894
 30
0.0
 10
158.8904451185441
 20
90.91222775871948
 30
0.0
 10
158.9347350349015
 20
90.90245617913342
 30
0.0
 10
159.0559999463067
 20
90.86469357518244
 30
0.0
 10
159.1231845695829
 20
90.82894423899023
 30
0.0
 10
159.238151635703
 20
90.75361658627362
 30
0.0
 10
159.2873560447221
 20
90.71277974431428
 30
0.0
 10
159.3742572785164
 20
90.63069962720344
 30
0.0
 10
159.4123396984756
 20
90.58900462112588
 30
0.0
 10
159.5166788888386
 20
90.46306714649263
 30
0.0
 10
159.5732661839536
 20
90.37784836622085
 30
0.0
 10
159.6722194965705
 20
90.20817077607519
 30
0.0
 10
159.7141571154612
 20
90.12393605146517
 30
0.0
 10
159.7512882353974
 20
90.04054750301455
 30
0.0
  0
SPLINE
  5
A8
330
1F
100
AcDbEntity
  8
0
  6
Continuous
 62
     7
370
    15
100
AcDbSpline
210
0.0
220
0.0
230
1.0
 70
     8
 71
     3
 72
    10
 73
     6
 74
     0
 42
0.00000001
 43
0.00000001
 12
1.0
 22
0.0
 32
0.0
 13
1.0
 23
0.0
 33
0.0
 40
0.0
 40
0.0
 40
0.0
 40
0.0
 40
0.5
 40
0.5
 40
1.0
 40
1.0
 40
1.0
 40
1.0
 10
153.5698481765399
 20
90.3339366983071
 30
0.0
 10
154.4095934911483
 20
90.4467803192932
 30
0.0
 10
155.2602335574927
 20
90.54942956638058
 30
0.0
 10
156.9748443422112
 20
90.7422543801632
 30
0.0
 10
157.8389523689396
 20
90.83230146548169
 30
0.0
 10
158.707760973117
 20
90.91795015373553
 30
0.0
  0
SPLINE
  5
A9
330
1F
100
AcDbEntity
  8
0
  6
Continuous
 62
     7
370
    15
100
AcDbSpline
210
0.0
220
0.0
230
1.0
 70
     8
 71
     3
 72
    14
 73
    10
 74
     0
 42
0.00000001
 43
0.00000001
 12
1.0
 22
0.0
 32
0.0
 13
1.0
 23
0.0
 33
0.0
 40
0.0
 40
0.0
 40
0.0
 40
0.0
 40
0.5000000000000014
 40
0.5000000000000014
 40
0.7500000000000006
 40
0.7500000000000006
 40
0.8750000000000003
 40
0.8750000000000003
 40
1.0
 40
1.0
 40
1.0
 40
1.0
 10
147.4076860890861
 20
90.05955374436434
 30
0.0
 10
148.448492613196
 20
90.07184768460544
 30
0.0
 10
149.4863198581556
 20
90.0912935293475
 30
0.0
 10
151.0325837687175
 20
90.14588846365606
 30
0.0
 10
151.5462685353899
 20
90.16830094444198
 30
0.0
 10
152.3114561324002
 20
90.21493074206704
 30
0.0
 10
152.5656184692773
 20
90.2326676439566
 30
0.0
 10
153.0708486955713
 20
90.27569414904876
 30
0.0
 10
153.3220575337545
 20
90.30063899138094
 30
0.0
 10
153.5698481765399
 20
90.33393669830703
 30
0.0
  0
SPLINE
  5
AA
330
1F
100
AcDbEntity
  8
0
  6
Continuous
 62
     7
370
    15
100
AcDbSpline
210
0.0
220
0.0
230
1.0
 70
     8
 71
     3
 72
    12
 73
     8
 74
     0
 42
0.00000001
 43
0.00000001
 12
1.0
 22
0.0
 32
0.0
 13
1.0
 23
0.0
 33
0.0
 40
0.0
 40
0.0
 40
0.0
 40
0.0
 40
0.2500000000000009
 40
0.2500000000000009
 40
0.5000000000000018
 40
0.5000000000000018
 40
1.0
 40
1.0
 40
1.0
 40
1.0
 10
153.7077609731169
 20
154.3244764850955
 30
0.0
 10
153.1890621512888
 20
154.3569992599437
 30
0.0
 10
152.6673505780838
 20
154.3802960011142
 30
0.0
 10
151.6210585615882
 20
154.4181415155363
 30
0.0
 10
151.0963869359179
 20
154.4324099900324
 30
0.0
 10
149.5195409133787
 20
154.4666194774908
 30
0.0
 10
148.4645855988318
 20
154.4781189814346
 30
0.0
 10
147.4076860890866
 20
154.4837857621642
 30
0.0
  0
SPLINE
  5
AB
330
1F
100
AcDbEntity
  8
0
  6
Continuous
 62
     7
370
    15
100
AcDbSpline
210
0.0
220
0.0
230
1.0
 70
     8
 71
     3
 72
    20
 73
    16
 74
     0
 42
0.00000001
 43
0.00000001
 12
1.0
 22
0.0
 32
0.0
 13
1.0
 23
0.0
 33
0.0
 40
0.0
 40
0.0
 40
0.0
 40
0.0
 40
0.2500000000000011
 40
0.2500000000000011
 40
0.5000000000000021
 40
0.5000000000000021
 40
0.7500000000000031
 40
0.7500000000000031
 40
0.8750000000000008
 40
0.8750000000000008
 40
0.9375000000000006
 40
0.9375000000000006
 40
0.9687500000000003
 40
0.9687500000000003
 40
1.0
 40
1.0
 40
1.0
 40
1.0
 10
155.607760973117
 20
155.9825623305836
 30
0.0
 10
155.607760973117
 20
155.8468800108369
 30
0.0
 10
155.5590491839004
 20
155.7057930246968
 30
0.0
 10
155.3898877606752
 20
155.4137213059662
 30
0.0
 10
155.2681073467568
 20
155.2620725638758
 30
0.0
 10
154.9705602520073
 20
154.9596641237227
 30
0.0
 10
154.7966476463045
 20
154.8070754875994
 30
0.0
 10
154.4772328124227
 20
154.5818047237571
 30
0.0
 10
154.3621920369755
 20
154.5070816292464
 30
0.0
 10
154.1551077129591
 20
154.4076712199894
 30
0.0
 10
154.0789998781526
 20
154.3761061276448
 30
0.0
 10
153.9476053385993
 20
154.3416627434518
 30
0.0
 10
153.9010521195978
 20
154.3326111716842
 30
0.0
 10
153.8047187685171
 20
154.3224355228458
 30
0.0
 10
153.7554593451617
 20
154.3214857641707
 30
0.0
 10
153.707760973115
 20
154.3244764850853
 30
0.0
  0
LINE
  5
AC
330
1F
100
AcDbEntity
  8
0
  6
Continuous
 62
     7
370
    15
100
AcDbLine
 10
155.6077615274
 20
155.9825607144
 30
0.0
 11
155.6077615274
 21
158.2514673971
 31
0.0
  0
LINE
  5
AD
330
1F
100
AcDbEntity
  8
0
  6
Continuous
 62
     7
370
    15
100
AcDbLine
 10
192.907761029
 20
84.3557037912
 30
0.0
 11
192.907761029
 21
160.120203396
 31
0.0
  0
SPLINE
  5
AE
330
1F
100
AcDbEntity
  8
0
  6
Continuous
 62
     7
370
    15
100
AcDbSpline
210
0.0
220
0.0
230
1.0
 70
     8
 71
     3
 72
    24
 73
    20
 74
     0
 42
0.00000001
 43
0.00000001
 12
1.0
 22
0.0
 32
0.0
 13
1.0
 23
0.0
 33
0.0
 40
0.0
 40
0.0
 40
0.0
 40
0.0
 40
0.0002934239329635
 40
0.0628079954843725
 40
0.1260453886222317
 40
0.1890746649056576
 40
0.2513200327496127
 40
0.3133304381321615
 40
0.3759158074016681
 40
0.4383740215105411
 40
0.5000631209931454
 40
0.5616593985498132
 40
0.6245050468179062
 40
0.6872231543007362
 40
0.7494953203649202
 40
0.811758388799549
 40
0.8747365576758938
 40
0.937898032705022
 40
1.0
 40
1.0
 40
1.0
 40
1.0
 10
173.9277166230889
 20
85.30670707451031
 30
0.0
 10
173.9275220793062
 20
85.3066833772497
 30
0.0
 10
173.8858795830505
 20
85.30161092994729
 30
0.0
 10
174.0309027952233
 20
85.3200522200934
 30
0.0
 10
174.3860200222418
 20
85.36265454886019
 30
0.0
 10
174.9905855758778
 20
85.43076488218655
 30
0.0
 10
175.7970227342835
 20
85.50403019551449
 30
0.0
 10
176.7824998443047
 20
85.5685457988232
 30
0.0
 10
177.914168985687
 20
85.60711271410248
 30
0.0
 10
179.1364618993494
 20
85.61080201594932
 30
0.0
 10
180.4037910453096
 20
85.56838358955515
 30
0.0
 10
181.6702762884066
 20
85.48012872330364
 30
0.0
 10
182.8864144192674
 20
85.35174311607263
 30
0.0
 10
184.0118238448831
 20
85.1990953894027
 30
0.0
 10
184.9892420381011
 20
85.03732500803768
 30
0.0
 10
185.7925067186187
 20
84.88479257156126
 30
0.0
 10
186.3810001276502
 20
84.76077893280038
 30
0.0
 10
186.7699068641355
 20
84.67585734164976
 30
0.0
 10
186.8166676805059
 20
84.66513163334166
 30
0.0
 10
186.8398503316851
 20
84.6598141394727
 30
0.0
  0
SPLINE
  5
AF
330
1F
100
AcDbEntity
  8
0
  6
Continuous
 62
     7
370
    15
100
AcDbSpline
210
0.0
220
0.0
230
1.0
 70
     8
 71
     3
 72
    41
 73
    37
 74
     0
 42
0.00000001
 43
0.00000001
 12
1.0
 22
0.0
 32
0.0
 13
1.0
 23
0.0
 33
0.0
 40
0.0
 40
0.0
 40
0.0
 40
0.0
 40
0.0619930085184813
 40
0.1254347856011715
 40
0.1886508880900376
 40
0.2510246598126379
 40
0.3131658302741298
 40
0.3756581730070438
 40
0.4382227162559227
 40
0.4998045089875787
 40
0.5615164229499278
 40
0.6240683623784647
 40
0.6867257688368309
 40
0.7488365772489655
 40
0.811068658633541
 40
0.874174327755461
 40
0.9373213213306892
 40
0.9685512108215084
 40
0.9842087278453592
 40
0.992064161706849
 40
0.9960005299564133
 40
0.9979711235159539
 40
0.998957053070188
 40
0.9994501798397873
 40
0.9996967843242086
 40
0.9998200968848417
 40
0.999881755774932
 40
0.9999125858373288
 40
0.9999280010298993
 40
0.9999357086679188
 40
0.9999395624952753
 40
0.9999414894117359
 40
0.9999424528699662
 40
0.9999434163281964
 40
0.9999502136995695
 40
1.0
 40
1.0
 40
1.0
 40
1.0
 10
186.8397292597504
 20
159.8160483442418
 30
0.0
 10
186.8161576687914
 20
159.8107387591984
 30
0.0
 10
186.7684636218517
 20
159.7999955047981
 30
0.0
 10
186.3764205284724
 20
159.7147686196226
 30
0.0
 10
185.7859078832865
 20
159.590199938663
 30
0.0
 10
184.9818694352164
 20
159.4372510285062
 30
0.0
 10
184.0057946688284
 20
159.2754938258504
 30
0.0
 10
182.8839863558861
 20
159.1232604080999
 30
0.0
 10
181.6704547202803
 20
158.9954850536081
 30
0.0
 10
180.4056242888237
 20
158.9076365381325
 30
0.0
 10
179.1375809194786
 20
158.8652484989632
 30
0.0
 10
177.9140736096736
 20
158.8689875704124
 30
0.0
 10
176.7805742971556
 20
158.9075760499002
 30
0.0
 10
175.7944695517145
 20
158.9720224798074
 30
0.0
 10
174.985840169766
 20
159.0455293519517
 30
0.0
 10
174.3892236523697
 20
159.1128428819821
 30
0.0
 10
174.0738314218877
 20
159.1508059757737
 30
0.0
 10
173.9637651073209
 20
159.1646053041241
 30
0.0
 10
173.9363467508706
 20
159.1680899186437
 30
0.0
 10
173.9294229369692
 20
159.1689712005735
 30
0.0
 10
173.9276544816119
 20
159.1691943083927
 30
0.0
 10
173.9271944498483
 20
159.1692473534998
 30
0.0
 10
173.9270699910022
 20
159.1692669030345
 30
0.0
 10
173.9270356252782
 20
159.1692602634463
 30
0.0
 10
173.9270245196042
 20
159.1692677795139
 30
0.0
 10
173.9270210295012
 20
159.1692671137332
 30
0.0
 10
173.9270178743711
 20
159.1692671727257
 30
0.0
 10
173.9270181540285
 20
159.1692671674672
 30
0.0
 10
173.9270181289513
 20
159.1692671679805
 30
0.0
 10
173.9270181316091
 20
159.1692671678679
 30
0.0
 10
173.927018130757
 20
159.1692671679727
 30
0.0
 10
173.927018131703
 20
159.1692671678295
 30
0.0
 10
173.9270181302031
 20
159.16926716806
 30
0.0
 10
173.9270181441006
 20
159.1692671659221
 30
0.0
 10
173.9270164799157
 20
159.1692674219502
 30
0.0
 10
173.927043120058
 20
159.1692633234669
 30
0.0
 10
173.9270665599318
 20
159.1692597173326
 30
0.0
  0
SPLINE
  5
B0
330
1F
100
AcDbEntity
  8
0
  6
Continuous
 62
     7
370
    15
100
AcDbSpline
210
0.0
220
0.0
230
1.0
 70
     8
 71
     3
 72
    22
 73
    18
 74
     0
 42
0.00000001
 43
0.00000001
 12
1.0
 22
0.0
 32
0.0
 13
1.0
 23
0.0
 33
0.0
 40
0.0
 40
0.0
 40
0.0
 40
0.0
 40
0.2499999999999975
 40
0.2499999999999975
 40
0.3749999999999944
 40
0.3749999999999944
 40
0.4374999999999946
 40
0.4374999999999946
 40
0.4999999999999947
 40
0.4999999999999947
 40
0.5624999999999948
 40
0.5624999999999948
 40
0.624999999999995
 40
0.624999999999995
 40
0.7499999999999957
 40
0.7499999999999957
 40
1.0
 40
1.0
 40
1.0
 40
1.0
 10
145.7047805385693
 20
91.6992916907978
 30
0.0
 10
145.7318461978674
 20
91.74993766626747
 30
0.0
 10
145.7646758777005
 20
91.79434341833276
 30
0.0
 10
145.845943251727
 20
91.82628357786464
 30
0.0
 10
145.8785087932678
 20
91.83202102402585
 30
0.0
 10
145.9512218206002
 20
91.81108239757435
 30
0.0
 10
145.9800157800623
 20
91.79871920902262
 30
0.0
 10
146.0506654923331
 20
91.75234934166087
 30
0.0
 10
146.0931413739223
 20
91.71656263168053
 30
0.0
 10
146.1736951018339
 20
91.63392236312008
 30
0.0
 10
146.2108134390686
 20
91.58918286185859
 30
0.0
 10
146.2758811057776
 20
91.50417446637697
 30
0.0
 10
146.3043547646107
 20
91.463388481862
 30
0.0
 10
146.3836971617533
 20
91.34360290430499
 30
0.0
 10
146.4265981204209
 20
91.27017214544502
 30
0.0
 10
146.5432126725064
 20
91.05824784674734
 30
0.0
 10
146.6043694779441
 20
90.92776668413339
 30
0.0
 10
146.6578134150242
 20
90.80373372942677
 30
0.0
  0
SPLINE
  5
B1
330
1F
100
AcDbEntity
  8
0
  6
Continuous
 62
     7
370
    15
100
AcDbSpline
210
0.0
220
0.0
230
1.0
 70
     8
 71
     3
 72
     8
 73
     4
 74
     0
 42
0.00000001
 43
0.00000001
 12
1.0
 22
0.0
 32
0.0
 13
1.0
 23
0.0
 33
0.0
 40
0.0
 40
0.0
 40
0.0
 40
0.0
 40
1.0
 40
1.0
 40
1.0
 40
1.0
 10
145.507760973117
 20
91.76430845241981
 30
0.0
 10
145.507760973117
 20
91.74317770796326
 30
0.0
 10
145.5105058344547
 20
91.72393800988698
 30
0.0
 10
145.5156731812971
 20
91.70698766054802
 30
0.0
  0
SPLINE
  5
B2
330
1F
100
AcDbEntity
  8
0
  6
Continuous
 62
     7
370
    15
100
AcDbSpline
210
0.0
220
0.0
230
1.0
 70
     8
 71
     3
 72
    10
 73
     6
 74
     0
 42
0.00000001
 43
0.00000001
 12
1.0
 22
0.0
 32
0.0
 13
1.0
 23
0.0
 33
0.0
 40
0.0
 40
0.0
 40
0.0
 40
0.0
 40
0.2982592819525376
 40
0.938080604865855
 40
1.0
 40
1.0
 40
1.0
 40
1.0
 10
145.5529534174414
 20
91.66783397422955
 30
0.0
 10
145.563237210433
 20
91.65334486103625
 30
0.0
 10
145.5955816413811
 20
91.60777392027836
 30
0.0
 10
145.6681817564304
 20
91.6358640145917
 30
0.0
 10
145.7018137660356
 20
91.6941492795838
 30
0.0
 10
145.7047813488456
 20
91.69929218815491
 30
0.0
  0
LINE
  5
B3
330
1F
100
AcDbEntity
  8
0
  6
Continuous
 62
     7
370
    15
100
AcDbLine
 10
145.5077619208
 20
91.7643078171
 30
0.0
 11
145.5077619208
 21
152.7406231068
 31
0.0
  0
SPLINE
  5
B4
330
1F
100
AcDbEntity
  8
0
  6
Continuous
 62
     7
370
    15
100
AcDbSpline
210
0.0
220
0.0
230
1.0
 70
     8
 71
     3
 72
     9
 73
     5
 74
     0
 42
0.00000001
 43
0.00000001
 12
1.0
 22
0.0
 32
0.0
 13
1.0
 23
0.0
 33
0.0
 40
0.0
 40
0.0
 40
0.0
 40
0.0
 40
0.0592942499244465
 40
1.0
 40
1.0
 40
1.0
 40
1.0
 10
145.7985767079802
 20
152.9164363198154
 30
0.0
 10
145.7936937102815
 20
152.9197294595131
 30
0.0
 10
145.7113417502689
 20
152.9752683979762
 30
0.0
 10
145.6452110958536
 20
152.9179761948634
 30
0.0
 10
145.5830016089888
 20
152.8640810899608
 30
0.0
  0
SPLINE
  5
B5
330
1F
100
AcDbEntity
  8
0
  6
Continuous
 62
     7
370
    15
100
AcDbSpline
210
0.0
220
0.0
230
1.0
 70
     8
 71
     3
 72
     8
 73
     4
 74
     0
 42
0.00000001
 43
0.00000001
 12
1.0
 22
0.0
 32
0.0
 13
1.0
 23
0.0
 33
0.0
 40
0.0
 40
0.0
 40
0.0
 40
0.0
 40
1.0
 40
1.0
 40
1.0
 40
1.0
 10
145.5313946420532
 20
152.8482028372367
 30
0.0
 10
145.5160456034171
 20
152.8176927822407
 30
0.0
 10
145.507760973117
 20
152.7813812267284
 30
0.0
 10
145.507760973117
 20
152.740623336167
 30
0.0
  0
SPLINE
  5
B6
330
1F
100
AcDbEntity
  8
0
  6
Continuous
 62
     7
370
    15
100
AcDbSpline
210
0.0
220
0.0
230
1.0
 70
     8
 71
     3
 72
    20
 73
    16
 74
     0
 42
0.00000001
 43
0.00000001
 12
1.0
 22
0.0
 32
0.0
 13
1.0
 23
0.0
 33
0.0
 40
0.0
 40
0.0
 40
0.0
 40
0.0
 40
0.2500000000000037
 40
0.2500000000000037
 40
0.3750000000000055
 40
0.3750000000000055
 40
0.5000000000000073
 40
0.5000000000000073
 40
0.5625000000000057
 40
0.5625000000000057
 40
0.625000000000004
 40
0.625000000000004
 40
0.7500000000000027
 40
0.7500000000000027
 40
1.0
 40
1.0
 40
1.0
 40
1.0
 10
146.4843132148194
 20
153.5608196940772
 30
0.0
 10
146.4443169969956
 20
153.4819412875198
 30
0.0
 10
146.3992033691579
 20
153.3988116408283
 30
0.0
 10
146.3159491547914
 20
153.2653229764773
 30
0.0
 10
146.2857298261709
 20
153.2194579205953
 30
0.0
 10
146.2136415910294
 20
153.1212663681904
 30
0.0
 10
146.1717242736184
 20
153.0689565486669
 30
0.0
 10
146.1004736690669
 20
152.9969506459324
 30
0.0
 10
146.0762378566876
 20
152.9751804336308
 30
0.0
 10
146.0306396665029
 20
152.9397057753018
 30
0.0
 10
146.0098371769032
 20
152.9263355911242
 30
0.0
 10
145.9548961784841
 20
152.896765678989
 30
0.0
 10
145.9268271903973
 20
152.8896391566871
 30
0.0
 10
145.8563243603345
 20
152.8827647852044
 30
0.0
 10
145.8249002725436
 20
152.8970799442915
 30
0.0
 10
145.798575204835
 20
152.9164367463021
 30
0.0
  0
SPLINE
  5
B7
330
1F
100
AcDbEntity
  8
0
  6
Continuous
 62
     7
370
    15
100
AcDbSpline
210
0.0
220
0.0
230
1.0
 70
     8
 71
     3
 72
    10
 73
     6
 74
     0
 42
0.00000001
 43
0.00000001
 12
1.0
 22
0.0
 32
0.0
 13
1.0
 23
0.0
 33
0.0
 40
0.0
 40
0.0
 40
0.0
 40
0.0
 40
0.4999999999999989
 40
0.4999999999999989
 40
1.0
 40
1.0
 40
1.0
 40
1.0
 10
147.157760973117
 20
154.4862387954191
 30
0.0
 10
147.0328727023667
 20
154.3552425173476
 30
0.0
 10
146.9114225843063
 20
154.2115296806826
 30
0.0
 10
146.6818386093489
 20
153.9009593879934
 30
0.0
 10
146.5715636339529
 20
153.7328903149303
 30
0.0
 10
146.4843132148194
 20
153.5608196940772
 30
0.0
  0
SPLINE
  5
B8
330
1F
100
AcDbEntity
  8
0
  6
Continuous
 62
     7
370
    15
100
AcDbSpline
210
0.0
220
0.0
230
1.0
 70
     8
 71
     3
 72
     8
 73
     4
 74
     0
 42
0.00000001
 43
0.00000001
 12
1.0
 22
0.0
 32
0.0
 13
1.0
 23
0.0
 33
0.0
 40
0.0
 40
0.0
 40
0.0
 40
0.0
 40
1.0
 40
1.0
 40
1.0
 40
1.0
 10
147.4076860890827
 20
154.4837857621636
 30
0.0
 10
147.3206680592343
 20
154.4842523269507
 30
0.0
 10
147.2377140328544
 20
154.4852923465268
 30
0.0
 10
147.1577609731147
 20
154.4862387954191
 30
0.0
  0
SPLINE
  5
B9
330
1F
100
AcDbEntity
  8
0
  6
Continuous
 62
     7
370
    15
100
AcDbSpline
210
0.0
220
0.0
230
1.0
 70
     8
 71
     3
 72
     8
 73
     4
 74
     0
 42
0.00000001
 43
0.00000001
 12
1.0
 22
0.0
 32
0.0
 13
1.0
 23
0.0
 33
0.0
 40
0.0
 40
0.0
 40
0.0
 40
0.0
 40
1.0
 40
1.0
 40
1.0
 40
1.0
 10
147.1577609731076
 20
90.05364029979046
 30
0.0
 10
147.2371755919812
 20
90.05621337104012
 30
0.0
 10
147.3199791379131
 20
90.05851775545432
 30
0.0
 10
147.407686089086
 20
90.05955374436434
 30
0.0
  0
SPLINE
  5
BA
330
1F
100
AcDbEntity
  8
0
  6
Continuous
 62
     7
370
    15
100
AcDbSpline
210
0.0
220
0.0
230
1.0
 70
     8
 71
     3
 72
    10
 73
     6
 74
     0
 42
0.00000001
 43
0.00000001
 12
1.0
 22
0.0
 32
0.0
 13
1.0
 23
0.0
 33
0.0
 40
0.0
 40
0.0
 40
0.0
 40
0.0
 40
0.5
 40
0.5
 40
1.0
 40
1.0
 40
1.0
 40
1.0
 10
146.6578134150242
 20
90.80373372942677
 30
0.0
 10
146.7152390455174
 20
90.67046004086419
 30
0.0
 10
146.7935748138759
 20
90.5374267177771
 30
0.0
 10
146.9653669703359
 20
90.28495141150769
 30
0.0
 10
147.059550132617
 20
90.1651197074067
 30
0.0
 10
147.1577609731237
 20
90.05364029978111
 30
0.0
  0
SPLINE
  5
BB
330
1F
100
AcDbEntity
  8
0
  6
Continuous
 62
     7
370
    15
100
AcDbSpline
210
0.0
220
0.0
230
1.0
 70
     8
 71
     3
 72
     8
 73
     4
 74
     0
 42
0.00000001
 43
0.00000001
 12
1.0
 22
0.0
 32
0.0
 13
1.0
 23
0.0
 33
0.0
 40
0.0
 40
0.0
 40
0.0
 40
0.0
 40
1.0
 40
1.0
 40
1.0
 40
1.0
 10
213.497760973117
 20
168.835224454304
 30
0.0
 10
213.0474527374324
 20
169.6329395794176
 30
0.0
 10
212.5967589209088
 20
170.4304378790748
 30
0.0
 10
212.1457319521956
 20
171.2277484492626
 30
0.0
  0
LINE
  5
BC
330
1F
100
AcDbEntity
  8
0
  6
Continuous
 62
     7
370
    15
100
AcDbLine
 10
213.4977613492
 20
158.1334017717
 30
0.0
 11
213.4977613492
 21
168.8352257513
 31
0.0
  0
SPLINE
  5
BD
330
1F
100
AcDbEntity
  8
0
  6
Continuous
 62
     7
370
    15
100
AcDbSpline
210
0.0
220
0.0
230
1.0
 70
     8
 71
     3
 72
     8
 73
     4
 74
     0
 42
0.00000001
 43
0.00000001
 12
1.0
 22
0.0
 32
0.0
 13
1.0
 23
0.0
 33
0.0
 40
0.0
 40
0.0
 40
0.0
 40
0.0
 40
1.0
 40
1.0
 40
1.0
 40
1.0
 10
212.1457319521956
 20
161.188916354486
 30
0.0
 10
212.6026583059951
 20
160.1729983848117
 30
0.0
 10
213.0538639477981
 20
159.1542025557206
 30
0.0
 10
213.497760973117
 20
158.1334010997369
 30
0.0
  0
SPLINE
  5
BE
330
1F
100
AcDbEntity
  8
0
  6
Continuous
 62
     7
370
    15
100
AcDbSpline
210
0.0
220
0.0
230
1.0
 70
     8
 71
     3
 72
     8
 73
     4
 74
     0
 42
0.00000001
 43
0.00000001
 12
1.0
 22
0.0
 32
0.0
 13
1.0
 23
0.0
 33
0.0
 40
0.0
 40
0.0
 40
0.0
 40
0.0
 40
1.0
 40
1.0
 40
1.0
 40
1.0
 10
218.6697899940384
 20
171.2277484492626
 30
0.0
 10
218.2187630253251
 20
170.4304378790748
 30
0.0
 10
217.7680692088015
 20
169.6329395794176
 30
0.0
 10
217.317760973117
 20
168.8352244543039
 30
0.0
  0
LINE
  5
BF
330
1F
100
AcDbEntity
  8
0
  6
Continuous
 62
     7
370
    15
100
AcDbLine
 10
218.6697904868
 20
161.1889146768
 30
0.0
 11
218.6697904868
 21
171.227748742
 31
0.0
  0
SPLINE
  5
C0
330
1F
100
AcDbEntity
  8
0
  6
Continuous
 62
     7
370
    15
100
AcDbSpline
210
0.0
220
0.0
230
1.0
 70
     8
 71
     3
 72
     8
 73
     4
 74
     0
 42
0.00000001
 43
0.00000001
 12
1.0
 22
0.0
 32
0.0
 13
1.0
 23
0.0
 33
0.0
 40
0.0
 40
0.0
 40
0.0
 40
0.0
 40
1.0
 40
1.0
 40
1.0
 40
1.0
 10
217.317760973117
 20
158.1334010997369
 30
0.0
 10
217.7619109841425
 20
159.1547843306885
 30
0.0
 10
218.2129852944004
 20
160.1732688674569
 30
0.0
 10
218.6697899940384
 20
161.188916354486
 30
0.0
  0
LINE
  5
C1
330
1F
100
AcDbEntity
  8
0
  6
Continuous
 62
     7
370
    15
100
AcDbLine
 10
217.3177615656
 20
158.1334017717
 30
0.0
 11
217.3177615656
 21
168.8352257513
 31
0.0
  0
LINE
  5
C2
330
1F
100
AcDbEntity
  8
0
  6
Continuous
 62
     7
370
    15
100
AcDbLine
 10
213.4977613492
 20
158.1334017717
 30
0.0
 11
213.4977613492
 21
156.9521904491
 31
0.0
  0
SPLINE
  5
C3
330
1F
100
AcDbEntity
  8
0
  6
Continuous
 62
     7
370
    15
100
AcDbSpline
210
0.0
220
0.0
230
1.0
 70
     8
 71
     3
 72
    14
 73
    10
 74
     0
 42
0.00000001
 43
0.00000001
 12
1.0
 22
0.0
 32
0.0
 13
1.0
 23
0.0
 33
0.0
 40
0.0
 40
0.0
 40
0.0
 40
0.0
 40
0.25
 40
0.25
 40
0.5
 40
0.5
 40
0.75
 40
0.75
 40
1.0
 40
1.0
 40
1.0
 40
1.0
 10
213.497760973117
 20
156.9521887860961
 30
0.0
 10
213.497760973117
 20
156.8283219093069
 30
0.0
 10
213.5136201007445
 20
156.7040622324694
 30
0.0
 10
213.5769817462644
 20
156.4664538700635
 30
0.0
 10
213.6255714543138
 20
156.3496734853111
 30
0.0
 10
213.7578570590886
 20
156.1408709567021
 30
0.0
 10
213.8431818503492
 20
156.0463602531094
 30
0.0
 10
214.0500730986554
 20
155.9084034523072
 30
0.0
 10
214.1740410445454
 20
155.8664850066715
 30
0.0
 10
214.297760973117
 20
155.8664850066715
 30
0.0
  0
LINE
  5
C4
330
1F
100
AcDbEntity
  8
0
  6
Continuous
 62
     7
370
    15
100
AcDbLine
 10
214.2977618529
 20
155.8664843939
 30
0.0
 11
216.5177610619
 21
155.8664843939
 31
0.0
  0
SPLINE
  5
C5
330
1F
100
AcDbEntity
  8
0
  6
Continuous
 62
     7
370
    15
100
AcDbSpline
210
0.0
220
0.0
230
1.0
 70
     8
 71
     3
 72
    12
 73
     8
 74
     0
 42
0.00000001
 43
0.00000001
 12
1.0
 22
0.0
 32
0.0
 13
1.0
 23
0.0
 33
0.0
 40
0.0
 40
0.0
 40
0.0
 40
0.0
 40
0.250000000000002
 40
0.250000000000002
 40
0.500000000000004
 40
0.500000000000004
 40
1.0
 40
1.0
 40
1.0
 40
1.0
 10
216.517760973117
 20
155.8664850066716
 30
0.0
 10
216.6414619230969
 20
155.8664850066716
 30
0.0
 10
216.7655585353671
 20
155.9084786184041
 30
0.0
 10
216.9722136984541
 20
156.0462739450485
 30
0.0
 10
217.057254465181
 20
156.1402475435133
 30
0.0
 10
217.2567330336546
 20
156.4550357497343
 30
0.0
 10
217.317760973117
 20
156.7052747419619
 30
0.0
 10
217.317760973117
 20
156.9521887860961
 30
0.0
  0
LINE
  5
C6
330
1F
100
AcDbEntity
  8
0
  6
Continuous
 62
     7
370
    15
100
AcDbLine
 10
217.3177615656
 20
156.9521904491
 30
0.0
 11
217.3177615656
 21
158.1334017717
 31
0.0
  0
LINE
  5
C7
330
1F
100
AcDbEntity
  8
0
  6
Continuous
 62
     7
370
    15
100
AcDbLine
 10
218.6697904868
 20
161.1889146768
 30
0.0
 11
223.357760991
 21
161.1889146768
 31
0.0
  0
SPLINE
  5
C8
330
1F
100
AcDbEntity
  8
0
  6
Continuous
 62
     7
370
    15
100
AcDbSpline
210
0.0
220
0.0
230
1.0
 70
     8
 71
     3
 72
    16
 73
    12
 74
     0
 42
0.00000001
 43
0.00000001
 12
1.0
 22
0.0
 32
0.0
 13
1.0
 23
0.0
 33
0.0
 40
0.0
 40
0.0
 40
0.0
 40
0.0
 40
0.1249999999999978
 40
0.1249999999999978
 40
0.2499999999999955
 40
0.2499999999999955
 40
0.499999999999997
 40
0.499999999999997
 40
0.7499999999999984
 40
0.7499999999999984
 40
1.0
 40
1.0
 40
1.0
 40
1.0
 10
223.357760973117
 20
161.188916354486
 30
0.0
 10
223.4333986795282
 20
161.188916354486
 30
0.0
 10
223.5097143439464
 20
161.1775713543511
 30
0.0
 10
223.6541250818383
 20
161.1349188037125
 30
0.0
 10
223.7225715309467
 20
161.1039844790297
 30
0.0
 10
223.9175027835599
 20
160.9847281072621
 30
0.0
 10
224.0253439573408
 20
160.8745760936415
 30
0.0
 10
224.1940567055528
 20
160.6264400079834
 30
0.0
 10
224.2564211182763
 20
160.4860976839798
 30
0.0
 10
224.3377250427847
 20
160.1978259924911
 30
0.0
 10
224.357760973117
 20
160.0470210195113
 30
0.0
 10
224.357760973117
 20
159.896651128166
 30
0.0
  0
LINE
  5
C9
330
1F
100
AcDbEntity
  8
0
  6
Continuous
 62
     7
370
    15
100
AcDbLine
 10
224.3577611549
 20
159.8966524504
 30
0.0
 11
224.3577611549
 21
153.5879552864
 31
0.0
  0
SPLINE
  5
CA
330
1F
100
AcDbEntity
  8
0
  6
Continuous
 62
     7
370
    15
100
AcDbSpline
210
0.0
220
0.0
230
1.0
 70
     8
 71
     3
 72
    10
 73
     6
 74
     0
 42
0.00000001
 43
0.00000001
 12
1.0
 22
0.0
 32
0.0
 13
1.0
 23
0.0
 33
0.0
 40
0.0
 40
0.0
 40
0.0
 40
0.0
 40
0.5
 40
0.5
 40
1.0
 40
1.0
 40
1.0
 40
1.0
 10
214.297760973117
 20
167.1122293537715
 30
0.0
 10
214.0852246592606
 20
167.1122293537715
 30
0.0
 10
213.8752884876066
 20
167.2036419404017
 30
0.0
 10
213.5815813465954
 20
167.5083868063059
 30
0.0
 10
213.497760973117
 20
167.7205417762145
 30
0.0
 10
213.497760973117
 20
167.9315048344471
 30
0.0
  0
SPLINE
  5
CB
330
1F
100
AcDbEntity
  8
0
  6
Continuous
 62
     7
370
    15
100
AcDbSpline
210
0.0
220
0.0
230
1.0
 70
     8
 71
     3
 72
    14
 73
    10
 74
     0
 42
0.00000001
 43
0.00000001
 12
1.0
 22
0.0
 32
0.0
 13
1.0
 23
0.0
 33
0.0
 40
0.0
 40
0.0
 40
0.0
 40
0.0
 40
0.25
 40
0.25
 40
0.5
 40
0.5
 40
0.75
 40
0.75
 40
1.0
 40
1.0
 40
1.0
 40
1.0
 10
217.317760973117
 20
167.9315048344471
 30
0.0
 10
217.317760973117
 20
167.8251481406947
 30
0.0
 10
217.2973734169757
 20
167.7193076529346
 30
0.0
 10
217.2187390715142
 20
167.5227427393981
 30
0.0
 10
217.1600077118756
 20
167.431571997111
 30
0.0
 10
217.013398806273
 20
167.2796609080794
 30
0.0
 10
216.9239934862465
 20
167.2175920712598
 30
0.0
 10
216.7301027536461
 20
167.1343240235011
 30
0.0
 10
216.6235977637563
 20
167.1122293537715
 30
0.0
 10
216.517760973117
 20
167.1122293537715
 30
0.0
  0
SPLINE
  5
CC
330
1F
100
AcDbEntity
  8
0
  6
Continuous
 62
     7
370
    15
100
AcDbSpline
210
0.0
220
0.0
230
1.0
 70
     8
 71
     3
 72
    12
 73
     8
 74
     0
 42
0.00000001
 43
0.00000001
 12
1.0
 22
0.0
 32
0.0
 13
1.0
 23
0.0
 33
0.0
 40
0.0
 40
0.0
 40
0.0
 40
0.0
 40
0.4999999999999953
 40
0.4999999999999953
 40
0.7499999999999977
 40
0.7499999999999977
 40
1.0
 40
1.0
 40
1.0
 40
1.0
 10
224.357760973117
 20
170.2066934144449
 30
0.0
 10
224.357760973117
 20
170.4719628472113
 30
0.0
 10
224.2531542296305
 20
170.7344779528637
 30
0.0
 10
223.9764858778852
 20
171.020015558901
 30
0.0
 10
223.8661206185332
 20
171.0963371757624
 30
0.0
 10
223.6220485699175
 20
171.2006793406025
 30
0.0
 10
223.4902961085857
 20
171.2277484492626
 30
0.0
 10
223.357760973117
 20
171.2277484492626
 30
0.0
  0
LINE
  5
CD
330
1F
100
AcDbEntity
  8
0
  6
Continuous
 62
     7
370
    15
100
AcDbLine
 10
224.3577611549
 20
159.8966524504
 30
0.0
 11
224.3577611549
 21
170.2066950999
 31
0.0
  0
LINE
  5
CE
330
1F
100
AcDbEntity
  8
0
  6
Continuous
 62
     7
370
    15
100
AcDbLine
 10
223.357760991
 20
171.227748742
 30
0.0
 11
218.6697904868
 21
171.227748742
 31
0.0
  0
LINE
  5
CF
330
1F
100
AcDbEntity
  8
0
  6
Continuous
 62
     7
370
    15
100
AcDbLine
 10
216.5177610619
 20
167.1122305595
 30
0.0
 11
214.2977618529
 21
167.1122305595
 31
0.0
  0
LINE
  5
D0
330
1F
100
AcDbEntity
  8
0
  6
Continuous
 62
     7
370
    15
100
AcDbLine
 10
265.4077612711
 20
122.2379535936
 30
0.0
 11
265.4077612711
 21
105.2379526697
 31
0.0
  0
LINE
  5
D1
330
1F
100
AcDbEntity
  8
0
  6
Continuous
 62
     7
370
    15
100
AcDbLine
 10
265.4077612711
 20
139.2379545175
 30
0.0
 11
265.4077612711
 21
122.2379535936
 31
0.0
  0
SPLINE
  5
D2
330
1F
100
AcDbEntity
  8
0
  6
Continuous
 62
     7
370
    15
100
AcDbSpline
210
0.0
220
0.0
230
1.0
 70
     8
 71
     3
 72
    12
 73
     8
 74
     0
 42
0.00000001
 43
0.00000001
 12
1.0
 22
0.0
 32
0.0
 13
1.0
 23
0.0
 33
0.0
 40
0.0
 40
0.0
 40
0.0
 40
0.0
 40
0.212064039961918
 40
0.4240300207278061
 40
0.6385312223242974
 40
0.8547600168047199
 40
1.0
 40
1.0
 40
1.0
 40
1.0
 10
257.407759959838
 20
139.8943972341888
 30
0.0
 10
257.7969566532493
 20
139.902098654294
 30
0.0
 10
258.5751700740819
 20
139.9174979333392
 30
0.0
 10
259.6173571971871
 20
140.0252770606876
 30
0.0
 10
260.4054615241799
 20
140.1429423060792
 30
0.0
 10
260.8617716632009
 20
140.2289092188296
 30
0.0
 10
260.8640166976006
 20
140.229474263087
 30
0.0
 10
260.8649187637778
 20
140.2297013007276
 30
0.0
  0
SPLINE
  5
D3
330
1F
100
AcDbEntity
  8
0
  6
Continuous
 62
     7
370
    15
100
AcDbSpline
210
0.0
220
0.0
230
1.0
 70
     8
 71
     3
 72
    12
 73
     8
 74
     0
 42
0.00000001
 43
0.00000001
 12
1.0
 22
0.0
 32
0.0
 13
1.0
 23
0.0
 33
0.0
 40
0.0
 40
0.0
 40
0.0
 40
0.0
 40
0.1991234553131102
 40
0.4099875634801957
 40
0.6241047228974651
 40
0.8402709156787562
 40
1.0
 40
1.0
 40
1.0
 40
1.0
 10
253.9181576026889
 20
140.2359765522353
 30
0.0
 10
253.9474658796755
 20
140.230121516727
 30
0.0
 10
254.0078104988097
 20
140.2180662229979
 30
0.0
 10
254.5674227909294
 20
140.1165372411099
 30
0.0
 10
255.4226814031223
 20
139.9973899503029
 30
0.0
 10
256.4263547457144
 20
139.90899061299
 30
0.0
 10
257.1150941150968
 20
139.8987491404891
 30
0.0
 10
257.407759959838
 20
139.8943972341888
 30
0.0
  0
SPLINE
  5
D4
330
1F
100
AcDbEntity
  8
0
  6
Continuous
 62
     7
370
    15
100
AcDbSpline
210
0.0
220
0.0
230
1.0
 70
     8
 71
     3
 72
    12
 73
     8
 74
     0
 42
0.00000001
 43
0.00000001
 12
1.0
 22
0.0
 32
0.0
 13
1.0
 23
0.0
 33
0.0
 40
0.0
 40
0.0
 40
0.0
 40
0.0
 40
0.2120635123280341
 40
0.424029635034942
 40
0.6385309802701398
 40
0.8547599195461351
 40
1.0
 40
1.0
 40
1.0
 40
1.0
 10
247.4077620460006
 20
139.8943972341888
 30
0.0
 10
247.7969574549486
 20
139.9020986864244
 30
0.0
 10
248.5751695358569
 20
139.9174980540235
 30
0.0
 10
249.6173555559029
 20
140.025277058609
 30
0.0
 10
250.405459885643
 20
140.1429423066487
 30
0.0
 10
250.8617700239801
 20
140.2289092187399
 30
0.0
 10
250.8640150584461
 20
140.2294742630613
 30
0.0
 10
250.8649171246501
 20
140.2297013007276
 30
0.0
  0
SPLINE
  5
D5
330
1F
100
AcDbEntity
  8
0
  6
Continuous
 62
     7
370
    15
100
AcDbSpline
210
0.0
220
0.0
230
1.0
 70
     8
 71
     3
 72
    12
 73
     8
 74
     0
 42
0.00000001
 43
0.00000001
 12
1.0
 22
0.0
 32
0.0
 13
1.0
 23
0.0
 33
0.0
 40
0.0
 40
0.0
 40
0.0
 40
0.0
 40
0.199123277735577
 40
0.4099873034530894
 40
0.6241048698755611
 40
0.8402709781341211
 40
1.0
 40
1.0
 40
1.0
 40
1.0
 10
243.9181596888514
 20
140.2359765522353
 30
0.0
 10
243.9474664688586
 20
140.2301215194094
 30
0.0
 10
244.0078080213112
 20
140.2180662280982
 30
0.0
 10
244.5674213138109
 20
140.1165370668096
 30
0.0
 10
245.4226832962766
 20
139.9973901239259
 30
0.0
 10
246.4263567187965
 20
139.9089905953525
 30
0.0
 10
247.1150961675375
 20
139.8987491352294
 30
0.0
 10
247.4077620460006
 20
139.8943972341888
 30
0.0
  0
SPLINE
  5
D6
330
1F
100
AcDbEntity
  8
0
  6
Continuous
 62
     7
370
    15
100
AcDbSpline
210
0.0
220
0.0
230
1.0
 70
     8
 71
     3
 72
    12
 73
     8
 74
     0
 42
0.00000001
 43
0.00000001
 12
1.0
 22
0.0
 32
0.0
 13
1.0
 23
0.0
 33
0.0
 40
0.0
 40
0.0
 40
0.0
 40
0.0
 40
0.212064165992677
 40
0.4240296784258596
 40
0.6385310075015278
 40
0.8547599304878445
 40
1.0
 40
1.0
 40
1.0
 40
1.0
 10
237.4077604068728
 20
139.8943972341888
 30
0.0
 10
237.7969572136276
 20
139.9020986179442
 30
0.0
 10
238.5751697703795
 20
139.9174978027237
 30
0.0
 10
239.6173543993322
 20
140.0252772582984
 30
0.0
 10
240.4054583139726
 20
140.1429422817479
 30
0.0
 10
240.8617683742295
 20
140.2289092226612
 30
0.0
 10
240.8640134162735
 20
140.2294742641852
 30
0.0
 10
240.8649154855223
 20
140.2297013007276
 30
0.0
  0
SPLINE
  5
D7
330
1F
100
AcDbEntity
  8
0
  6
Continuous
 62
     7
370
    15
100
AcDbSpline
210
0.0
220
0.0
230
1.0
 70
     8
 71
     3
 72
    12
 73
     8
 74
     0
 42
0.00000001
 43
0.00000001
 12
1.0
 22
0.0
 32
0.0
 13
1.0
 23
0.0
 33
0.0
 40
0.0
 40
0.0
 40
0.0
 40
0.0
 40
0.1991234197503708
 40
0.409987178127465
 40
0.6241047900310218
 40
0.8402709442058013
 40
0.9999999999999999
 40
0.9999999999999999
 40
0.9999999999999999
 40
0.9999999999999999
 10
233.9181580497237
 20
140.2359765522353
 30
0.0
 10
233.9474666558459
 20
140.2301215410727
 30
0.0
 10
234.0078119067157
 20
140.2180663066482
 30
0.0
 10
234.5674186624157
 20
140.1165369640057
 30
0.0
 10
235.4226820485716
 20
139.9973901362003
 30
0.0
 10
236.4263550106997
 20
139.9089905931897
 30
0.0
 10
237.1150945078425
 20
139.8987491345844
 30
0.0
 10
237.4077604068728
 20
139.8943972341888
 30
0.0
  0
SPLINE
  5
D8
330
1F
100
AcDbEntity
  8
0
  6
Continuous
 62
     7
370
    15
100
AcDbSpline
210
0.0
220
0.0
230
1.0
 70
     8
 71
     3
 72
    12
 73
     8
 74
     0
 42
0.00000001
 43
0.00000001
 12
1.0
 22
0.0
 32
0.0
 13
1.0
 23
0.0
 33
0.0
 40
0.0
 40
0.0
 40
0.0
 40
0.0
 40
0.0029555155260192
 40
0.3000321268732778
 40
0.5933751528979949
 40
0.8828032366865232
 40
1.0
 40
1.0
 40
1.0
 40
1.0
 10
240.3490931643458
 20
120.3445543103091
 30
0.0
 10
240.3517266654537
 20
120.3474499795177
 30
0.0
 10
240.6190691752649
 20
120.6414067473742
 30
0.0
 10
240.8611569776846
 20
121.4438364327201
 30
0.0
 10
240.9473420431972
 20
122.6003206692026
 30
0.0
 10
240.7315999633367
 20
123.5497603224177
 30
0.0
 10
240.4063158381663
 20
123.9816196628486
 30
0.0
 10
240.3125629676791
 20
124.106089471484
 30
0.0
  0
SPLINE
  5
D9
330
1F
100
AcDbEntity
  8
0
  6
Continuous
 62
     7
370
    15
100
AcDbSpline
210
0.0
220
0.0
230
1.0
 70
     8
 71
     3
 72
    11
 73
     7
 74
     0
 42
0.00000001
 43
0.00000001
 12
1.0
 22
0.0
 32
0.0
 13
1.0
 23
0.0
 33
0.0
 40
0.0
 40
0.0
 40
0.0
 40
0.0
 40
0.1884307618804621
 40
0.4834928113901909
 40
0.7737142472045601
 40
1.0
 40
1.0
 40
1.0
 40
1.0
 10
234.505010481021
 20
124.1090004366063
 30
0.0
 10
234.3662482240886
 20
123.8987707352735
 30
0.0
 10
234.0101993865762
 20
123.3593442195565
 30
0.0
 10
233.8572174352412
 20
122.3102549924006
 30
0.0
 10
233.9811252804344
 20
121.2106865370764
 30
0.0
 10
234.3376911527446
 20
120.6181538214415
 30
0.0
 10
234.4939053906413
 20
120.3585607033394
 30
0.0
  0
SPLINE
  5
DA
330
1F
100
AcDbEntity
  8
0
  6
Continuous
 62
     7
370
    15
100
AcDbSpline
210
0.0
220
0.0
230
1.0
 70
     8
 71
     3
 72
    12
 73
     8
 74
     0
 42
0.00000001
 43
0.00000001
 12
1.0
 22
0.0
 32
0.0
 13
1.0
 23
0.0
 33
0.0
 40
0.0
 40
0.0
 40
0.0
 40
0.0
 40
0.002956136313925
 40
0.3000324053220014
 40
0.5933750933099703
 40
0.882802843573173
 40
1.0
 40
1.0
 40
1.0
 40
1.0
 10
260.349092717311
 20
120.3445543103091
 30
0.0
 10
260.3517274660528
 20
120.3474499745149
 30
0.0
 10
260.6191407103879
 20
120.6413447765075
 30
0.0
 10
260.8611292078942
 20
121.4438644243856
 30
0.0
 10
260.9473530889258
 20
122.6003127404034
 30
0.0
 10
260.7316040856911
 20
123.5497628774908
 30
0.0
 10
260.4063166469136
 20
123.9816199245682
 30
0.0
 10
260.3125625206443
 20
124.106089471484
 30
0.0
  0
SPLINE
  5
DB
330
1F
100
AcDbEntity
  8
0
  6
Continuous
 62
     7
370
    15
100
AcDbSpline
210
0.0
220
0.0
230
1.0
 70
     8
 71
     3
 72
    11
 73
     7
 74
     0
 42
0.00000001
 43
0.00000001
 12
1.0
 22
0.0
 32
0.0
 13
1.0
 23
0.0
 33
0.0
 40
0.0
 40
0.0
 40
0.0
 40
0.0
 40
0.1884303500214524
 40
0.4834926600773392
 40
0.7737141809132416
 40
1.0
 40
1.0
 40
1.0
 40
1.0
 10
254.5050100339862
 20
124.1090004366063
 30
0.0
 10
254.3662494797142
 20
123.8987705573009
 30
0.0
 10
254.0102043442507
 20
123.3593425746988
 30
0.0
 10
253.8572152757011
 20
122.3102556908027
 30
0.0
 10
253.9811251462405
 20
121.2106864512526
 30
0.0
 10
254.3376908010142
 20
120.618153795296
 30
0.0
 10
254.4939049436065
 20
120.3585607033394
 30
0.0
  0
SPLINE
  5
DC
330
1F
100
AcDbEntity
  8
0
  6
Continuous
 62
     7
370
    15
100
AcDbSpline
210
0.0
220
0.0
230
1.0
 70
     8
 71
     3
 72
    12
 73
     8
 74
     0
 42
0.00000001
 43
0.00000001
 12
1.0
 22
0.0
 32
0.0
 13
1.0
 23
0.0
 33
0.0
 40
0.0
 40
0.0
 40
0.0
 40
0.0
 40
0.002956136313925
 40
0.3000324053220014
 40
0.5933750933099703
 40
0.882802843573173
 40
1.0
 40
1.0
 40
1.0
 40
1.0
 10
250.3490910781832
 20
120.3445543103091
 30
0.0
 10
250.351725826925
 20
120.3474499745149
 30
0.0
 10
250.61913907126
 20
120.6413447765075
 30
0.0
 10
250.8611275687665
 20
121.4438644243856
 30
0.0
 10
250.947351449798
 20
122.6003127404034
 30
0.0
 10
250.7316024465633
 20
123.5497628774908
 30
0.0
 10
250.4063150077859
 20
123.9816199245682
 30
0.0
 10
250.3125608815165
 20
124.106089471484
 30
0.0
  0
SPLINE
  5
DD
330
1F
100
AcDbEntity
  8
0
  6
Continuous
 62
     7
370
    15
100
AcDbSpline
210
0.0
220
0.0
230
1.0
 70
     8
 71
     3
 72
    11
 73
     7
 74
     0
 42
0.00000001
 43
0.00000001
 12
1.0
 22
0.0
 32
0.0
 13
1.0
 23
0.0
 33
0.0
 40
0.0
 40
0.0
 40
0.0
 40
0.0
 40
0.188430729073448
 40
0.4834929013174323
 40
0.7737142866023728
 40
1.0
 40
1.0
 40
1.0
 40
1.0
 10
244.5050121201487
 20
124.1090004366063
 30
0.0
 10
244.3662500749681
 20
123.8987706940498
 30
0.0
 10
244.0102016525741
 20
123.3593438783087
 30
0.0
 10
243.8572139934546
 20
122.3102554818558
 30
0.0
 10
243.9811234408897
 20
121.2106864900249
 30
0.0
 10
244.3376891417121
 20
120.6181538071077
 30
0.0
 10
244.4939033044787
 20
120.3585607033394
 30
0.0
  0
LINE
  5
DE
330
1F
100
AcDbEntity
  8
0
  6
Continuous
 62
     7
370
    15
100
AcDbLine
 10
147.1577600492
 20
90.042951753
 30
0.0
 11
147.1577600492
 21
90.0536396109
 31
0.0
  0
LINE
  5
DF
330
1F
100
AcDbEntity
  8
0
  6
Continuous
 62
     7
370
    15
100
AcDbLine
 10
147.1577600492
 20
154.4879518949
 30
0.0
 11
147.1577600492
 21
154.4862382613
 31
0.0
  0
LINE
  5
E0
330
1F
100
AcDbEntity
  8
0
  6
HIDDEN
 62
     7
370
     0
100
AcDbLine
 10
236.2077214672
 20
120.2648237847
 30
0.0
 11
235.0989595903
 21
122.2906521832
 31
0.0
  0
LINE
  5
E1
330
1F
100
AcDbEntity
  8
0
  6
HIDDEN
 62
     7
370
     0
100
AcDbLine
 10
236.2989985301
 20
124.2637820576
 30
0.0
 11
235.0989595903
 21
122.2906521832
 31
0.0
  0
LINE
  5
E2
330
1F
100
AcDbEntity
  8
0
  6
HIDDEN
 62
     7
370
     0
100
AcDbLine
 10
236.2989985301
 20
124.2637820576
 30
0.0
 11
238.6077993466
 21
124.2110834025
 31
0.0
  0
LINE
  5
E3
330
1F
100
AcDbEntity
  8
0
  6
HIDDEN
 62
     7
370
     0
100
AcDbLine
 10
238.5165222837
 20
120.2121251296
 30
0.0
 11
239.7165612234
 21
122.185255004
 31
0.0
  0
LINE
  5
E4
330
1F
100
AcDbEntity
  8
0
  6
HIDDEN
 62
     7
370
     0
100
AcDbLine
 10
236.2077214672
 20
120.2648237847
 30
0.0
 11
238.5165222837
 21
120.2121251296
 31
0.0
  0
LINE
  5
E5
330
1F
100
AcDbEntity
  8
0
  6
HIDDEN
 62
     7
370
     0
100
AcDbLine
 10
238.6077993466
 20
124.2110834025
 30
0.0
 11
239.7165612234
 21
122.185255004
 31
0.0
  0
LINE
  5
E6
330
1F
100
AcDbEntity
  8
0
  6
HIDDEN
 62
     7
370
     0
100
AcDbLine
 10
245.7205706192
 20
120.661019351
 30
0.0
 11
245.1985009862
 21
122.9106362477
 31
0.0
  0
LINE
  5
E7
330
1F
100
AcDbEntity
  8
0
  6
HIDDEN
 62
     7
370
     0
100
AcDbLine
 10
246.885692413
 20
124.4875704903
 30
0.0
 11
245.1985009862
 21
122.9106362477
 31
0.0
  0
LINE
  5
E8
330
1F
100
AcDbEntity
  8
0
  6
HIDDEN
 62
     7
370
     0
100
AcDbLine
 10
246.885692413
 20
124.4875704903
 30
0.0
 11
249.0949497475
 21
123.8148878362
 31
0.0
  0
LINE
  5
E9
330
1F
100
AcDbEntity
  8
0
  6
HIDDEN
 62
     7
370
     0
100
AcDbLine
 10
247.929831679
 20
119.9883366969
 30
0.0
 11
249.6170231058
 21
121.5652709395
 31
0.0
  0
LINE
  5
EA
330
1F
100
AcDbEntity
  8
0
  6
HIDDEN
 62
     7
370
     0
100
AcDbLine
 10
245.7205706192
 20
120.661019351
 30
0.0
 11
247.929831679
 21
119.9883366969
 31
0.0
  0
LINE
  5
EB
330
1F
100
AcDbEntity
  8
0
  6
HIDDEN
 62
     7
370
     0
100
AcDbLine
 10
249.0949497475
 20
123.8148878362
 30
0.0
 11
249.6170231058
 21
121.5652709395
 31
0.0
  0
CIRCLE
  5
EC
330
1F
100
AcDbEntity
  8
0
  6
HIDDEN
 62
     7
370
     0
100
AcDbCircle
 10
247.4077609731
 20
122.2379535936
 30
0.0
 40
4.000000000000022
  0
CIRCLE
  5
ED
330
1F
100
AcDbEntity
  8
0
  6
HIDDEN
 62
     7
370
     0
100
AcDbCircle
 10
247.4077609731
 20
122.2379535936
 30
0.0
 40
1.850000000000017
  0
CIRCLE
  5
EE
330
1F
100
AcDbEntity
  8
0
  6
HIDDEN
 62
     7
370
     0
100
AcDbCircle
 10
247.4077609731
 20
122.2379535936
 30
0.0
 40
2.750000000000031
  0
LINE
  5
EF
330
1F
100
AcDbEntity
  8
0
  6
HIDDEN
 62
     7
370
     0
100
AcDbLine
 10
257.0110649718
 20
139.637953838
 30
0.0
 11
261.4077606155
 21
139.637953838
 31
0.0
  0
LINE
  5
F0
330
1F
100
AcDbEntity
  8
0
  6
HIDDEN
 62
     7
370
     0
100
AcDbLine
 10
253.4077593042
 20
139.637953838
 30
0.0
 11
257.0110649718
 21
139.637953838
 31
0.0
  0
LINE
  5
F1
330
1F
100
AcDbEntity
  8
0
  6
HIDDEN
 62
     7
370
     0
100
AcDbLine
 10
257.0110649718
 20
130.9879536309
 30
0.0
 11
261.4077606155
 21
130.9879536309
 31
0.0
  0
LINE
  5
F2
330
1F
100
AcDbEntity
  8
0
  6
HIDDEN
 62
     7
370
     0
100
AcDbLine
 10
253.4077593042
 20
130.9879536309
 30
0.0
 11
257.0110649718
 21
130.9879536309
 31
0.0
  0
LINE
  5
F3
330
1F
100
AcDbEntity
  8
0
  6
HIDDEN
 62
     7
370
     0
100
AcDbLine
 10
257.1350314571
 20
129.737953426
 30
0.0
 11
260.1577618076
 21
129.737953426
 31
0.0
  0
LINE
  5
F4
330
1F
100
AcDbEntity
  8
0
  6
HIDDEN
 62
     7
370
     0
100
AcDbLine
 10
254.6577618374
 20
129.737953426
 30
0.0
 11
257.1350314571
 21
129.737953426
 31
0.0
  0
LINE
  5
F5
330
1F
100
AcDbEntity
  8
0
  6
HIDDEN
 62
     7
370
     0
100
AcDbLine
 10
259.2833840205
 20
135.2379538618
 30
0.0
 11
257.1787291123
 21
135.2379538618
 31
0.0
  0
LINE
  5
F6
330
1F
100
AcDbEntity
  8
0
  6
HIDDEN
 62
     7
370
     0
100
AcDbLine
 10
255.3031050517
 20
135.2379538618
 30
0.0
 11
257.1787291123
 21
135.2379538618
 31
0.0
  0
LINE
  5
F7
330
1F
100
AcDbEntity
  8
0
  6
HIDDEN
 62
     7
370
     0
100
AcDbLine
 10
257.1787291123
 20
135.2379538618
 30
0.0
 11
257.1787291123
 21
140.2379528187
 31
0.0
  0
LINE
  5
F8
330
1F
100
AcDbEntity
  8
0
  6
HIDDEN
 62
     7
370
     0
100
AcDbLine
 10
259.2833840205
 20
135.2379538618
 30
0.0
 11
259.512414868
 21
135.2379538618
 31
0.0
  0
LINE
  5
F9
330
1F
100
AcDbEntity
  8
0
  6
HIDDEN
 62
     7
370
     0
100
AcDbLine
 10
259.2833840205
 20
135.2379538618
 30
0.0
 11
259.2833840205
 21
140.2379528187
 31
0.0
  0
LINE
  5
FA
330
1F
100
AcDbEntity
  8
0
  6
HIDDEN
 62
     7
370
     0
100
AcDbLine
 10
255.5321358992
 20
135.2379538618
 30
0.0
 11
255.5321358992
 21
140.2379528187
 31
0.0
  0
LINE
  5
FB
330
1F
100
AcDbEntity
  8
0
  6
HIDDEN
 62
     7
370
     0
100
AcDbLine
 10
255.3031050517
 20
135.2379538618
 30
0.0
 11
255.3031050517
 21
140.2379528187
 31
0.0
  0
LINE
  5
FC
330
1F
100
AcDbEntity
  8
0
  6
HIDDEN
 62
     7
370
     0
100
AcDbLine
 10
257.6367945327
 20
135.2379538618
 30
0.0
 11
257.6367945327
 21
140.2379528187
 31
0.0
  0
LINE
  5
FD
330
1F
100
AcDbEntity
  8
0
  6
HIDDEN
 62
     7
370
     0
100
AcDbLine
 10
259.512414868
 20
135.2379538618
 30
0.0
 11
259.512414868
 21
140.2379528187
 31
0.0
  0
CIRCLE
  5
FE
330
1F
100
AcDbEntity
  8
0
  6
HIDDEN
 62
     7
370
     0
100
AcDbCircle
 10
257.4077609731
 20
122.2379535936
 30
0.0
 40
4.000000000000023
  0
CIRCLE
  5
FF
330
1F
100
AcDbEntity
  8
0
  6
HIDDEN
 62
     7
370
     0
100
AcDbCircle
 10
257.4077609731
 20
122.2379535936
 30
0.0
 40
1.850000000000019
  0
CIRCLE
  5
100
330
1F
100
AcDbEntity
  8
0
  6
HIDDEN
 62
     7
370
     0
100
AcDbCircle
 10
257.4077609731
 20
122.2379535936
 30
0.0
 40
2.750000000000016
  0
LINE
  5
101
330
1F
100
AcDbEntity
  8
0
  6
HIDDEN
 62
     7
370
     0
100
AcDbLine
 10
255.2428075029
 20
121.4340187759
 30
0.0
 11
255.6290567769
 21
123.7108906532
 31
0.0
  0
LINE
  5
102
330
1F
100
AcDbEntity
  8
0
  6
HIDDEN
 62
     7
370
     0
100
AcDbLine
 10
257.7940092339
 20
124.5148254126
 30
0.0
 11
255.6290567769
 21
123.7108906532
 31
0.0
  0
LINE
  5
103
330
1F
100
AcDbEntity
  8
0
  6
HIDDEN
 62
     7
370
     0
100
AcDbLine
 10
257.7940092339
 20
124.5148254126
 30
0.0
 11
259.5727124168
 21
123.0418884113
 31
0.0
  0
LINE
  5
104
330
1F
100
AcDbEntity
  8
0
  6
HIDDEN
 62
     7
370
     0
100
AcDbLine
 10
257.0215106858
 20
119.9610817745
 30
0.0
 11
259.1864668681
 21
120.765016534
 31
0.0
  0
LINE
  5
105
330
1F
100
AcDbEntity
  8
0
  6
HIDDEN
 62
     7
370
     0
100
AcDbLine
 10
255.2428075029
 20
121.4340187759
 30
0.0
 11
257.0215106858
 21
119.9610817745
 31
0.0
  0
LINE
  5
106
330
1F
100
AcDbEntity
  8
0
  6
HIDDEN
 62
     7
370
     0
100
AcDbLine
 10
259.5727124168
 20
123.0418884113
 30
0.0
 11
259.1864668681
 21
120.765016534
 31
0.0
  0
LINE
  5
107
330
1F
100
AcDbEntity
  8
0
  6
HIDDEN
 62
     7
370
     0
100
AcDbLine
 10
243.4077613903
 20
139.637953838
 30
0.0
 11
251.4077627017
 21
139.637953838
 31
0.0
  0
LINE
  5
108
330
1F
100
AcDbEntity
  8
0
  6
HIDDEN
 62
     7
370
     0
100
AcDbLine
 10
243.4077613903
 20
130.9879536309
 30
0.0
 11
251.4077627017
 21
130.9879536309
 31
0.0
  0
LINE
  5
109
330
1F
100
AcDbEntity
  8
0
  6
HIDDEN
 62
     7
370
     0
100
AcDbLine
 10
244.6577601983
 20
129.737953426
 30
0.0
 11
250.1577601685
 21
129.737953426
 31
0.0
  0
LINE
  5
10A
330
1F
100
AcDbEntity
  8
0
  6
HIDDEN
 62
     7
370
     0
100
AcDbLine
 10
246.6956690802
 20
135.2379538618
 30
0.0
 11
248.9542641593
 21
135.2379538618
 31
0.0
  0
LINE
  5
10B
330
1F
100
AcDbEntity
  8
0
  6
HIDDEN
 62
     7
370
     0
100
AcDbLine
 10
246.6956690802
 20
135.2379538618
 30
0.0
 11
246.6956690802
 21
140.2379528187
 31
0.0
  0
LINE
  5
10C
330
1F
100
AcDbEntity
  8
0
  6
HIDDEN
 62
     7
370
     0
100
AcDbLine
 10
245.1491669668
 20
135.2379538618
 30
0.0
 11
246.6956690802
 21
135.2379538618
 31
0.0
  0
LINE
  5
10D
330
1F
100
AcDbEntity
  8
0
  6
HIDDEN
 62
     7
370
     0
100
AcDbLine
 10
248.9542641593
 20
135.2379538618
 30
0.0
 11
248.9542641593
 21
140.2379528187
 31
0.0
  0
LINE
  5
10E
330
1F
100
AcDbEntity
  8
0
  6
HIDDEN
 62
     7
370
     0
100
AcDbLine
 10
249.6663571252
 20
135.2379538618
 30
0.0
 11
248.9542641593
 21
135.2379538618
 31
0.0
  0
LINE
  5
10F
330
1F
100
AcDbEntity
  8
0
  6
HIDDEN
 62
     7
370
     0
100
AcDbLine
 10
245.8612562074
 20
135.2379538618
 30
0.0
 11
245.8612562074
 21
140.2379528187
 31
0.0
  0
LINE
  5
110
330
1F
100
AcDbEntity
  8
0
  6
HIDDEN
 62
     7
370
     0
100
AcDbLine
 10
245.1491669668
 20
135.2379538618
 30
0.0
 11
245.1491669668
 21
140.2379528187
 31
0.0
  0
LINE
  5
111
330
1F
100
AcDbEntity
  8
0
  6
HIDDEN
 62
     7
370
     0
100
AcDbLine
 10
248.1198512866
 20
135.2379538618
 30
0.0
 11
248.1198512866
 21
140.2379528187
 31
0.0
  0
LINE
  5
112
330
1F
100
AcDbEntity
  8
0
  6
HIDDEN
 62
     7
370
     0
100
AcDbLine
 10
249.6663571252
 20
135.2379538618
 30
0.0
 11
249.6663571252
 21
140.2379528187
 31
0.0
  0
CIRCLE
  5
113
330
1F
100
AcDbEntity
  8
0
  6
HIDDEN
 62
     7
370
     0
100
AcDbCircle
 10
237.4077609731
 20
122.2379535936
 30
0.0
 40
4.00000000000002
  0
CIRCLE
  5
114
330
1F
100
AcDbEntity
  8
0
  6
HIDDEN
 62
     7
370
     0
100
AcDbCircle
 10
237.4077609731
 20
122.2379535936
 30
0.0
 40
1.850000000000008
  0
CIRCLE
  5
115
330
1F
100
AcDbEntity
  8
0
  6
HIDDEN
 62
     7
370
     0
100
AcDbCircle
 10
237.4077609731
 20
122.2379535936
 30
0.0
 40
2.750000000000009
  0
LINE
  5
116
330
1F
100
AcDbEntity
  8
0
  6
HIDDEN
 62
     7
370
     0
100
AcDbLine
 10
239.1996101393
 20
139.637953838
 30
0.0
 11
241.4077610625
 21
139.637953838
 31
0.0
  0
LINE
  5
117
330
1F
100
AcDbEntity
  8
0
  6
HIDDEN
 62
     7
370
     0
100
AcDbLine
 10
233.4077597512
 20
139.637953838
 30
0.0
 11
239.1996101393
 21
139.637953838
 31
0.0
  0
LINE
  5
118
330
1F
100
AcDbEntity
  8
0
  6
HIDDEN
 62
     7
370
     0
100
AcDbLine
 10
239.1996101393
 20
130.9879536309
 30
0.0
 11
241.4077610625
 21
130.9879536309
 31
0.0
  0
LINE
  5
119
330
1F
100
AcDbEntity
  8
0
  6
HIDDEN
 62
     7
370
     0
100
AcDbLine
 10
233.4077597512
 20
130.9879536309
 30
0.0
 11
239.1996101393
 21
130.9879536309
 31
0.0
  0
LINE
  5
11A
330
1F
100
AcDbEntity
  8
0
  6
HIDDEN
 62
     7
370
     0
100
AcDbLine
 10
238.6396580292
 20
129.737953426
 30
0.0
 11
240.1577622546
 21
129.737953426
 31
0.0
  0
LINE
  5
11B
330
1F
100
AcDbEntity
  8
0
  6
HIDDEN
 62
     7
370
     0
100
AcDbLine
 10
234.6577622844
 20
129.737953426
 30
0.0
 11
238.6396580292
 21
129.737953426
 31
0.0
  0
LINE
  5
11C
330
1F
100
AcDbEntity
  8
0
  6
HIDDEN
 62
     7
370
     0
100
AcDbLine
 10
236.1369185997
 20
135.2379538618
 30
0.0
 11
238.4422846986
 21
135.2379538618
 31
0.0
  0
LINE
  5
11D
330
1F
100
AcDbEntity
  8
0
  6
HIDDEN
 62
     7
370
     0
100
AcDbLine
 10
239.7131265058
 20
135.2379538618
 30
0.0
 11
238.4422846986
 21
135.2379538618
 31
0.0
  0
LINE
  5
11E
330
1F
100
AcDbEntity
  8
0
  6
HIDDEN
 62
     7
370
     0
100
AcDbLine
 10
238.4422846986
 20
135.2379538618
 30
0.0
 11
238.4422846986
 21
140.2379528187
 31
0.0
  0
LINE
  5
11F
330
1F
100
AcDbEntity
  8
0
  6
HIDDEN
 62
     7
370
     0
100
AcDbLine
 10
236.1369185997
 20
135.2379538618
 30
0.0
 11
235.102394308
 21
135.2379538618
 31
0.0
  0
LINE
  5
120
330
1F
100
AcDbEntity
  8
0
  6
HIDDEN
 62
     7
370
     0
100
AcDbLine
 10
236.1369185997
 20
135.2379538618
 30
0.0
 11
236.1369185997
 21
140.2379528187
 31
0.0
  0
LINE
  5
121
330
1F
100
AcDbEntity
  8
0
  6
HIDDEN
 62
     7
370
     0
100
AcDbLine
 10
238.678602214
 20
135.2379538618
 30
0.0
 11
238.678602214
 21
140.2379528187
 31
0.0
  0
LINE
  5
122
330
1F
100
AcDbEntity
  8
0
  6
HIDDEN
 62
     7
370
     0
100
AcDbLine
 10
239.7131265058
 20
135.2379538618
 30
0.0
 11
239.7131265058
 21
140.2379528187
 31
0.0
  0
LINE
  5
123
330
1F
100
AcDbEntity
  8
0
  6
HIDDEN
 62
     7
370
     0
100
AcDbLine
 10
236.3732361151
 20
135.2379538618
 30
0.0
 11
236.3732361151
 21
140.2379528187
 31
0.0
  0
LINE
  5
124
330
1F
100
AcDbEntity
  8
0
  6
HIDDEN
 62
     7
370
     0
100
AcDbLine
 10
235.102394308
 20
135.2379538618
 30
0.0
 11
235.102394308
 21
140.2379528187
 31
0.0
  0
LINE
  5
125
330
1F
100
AcDbEntity
  8
0
  6
HIDDEN
 62
     7
370
     0
100
AcDbLine
 10
212.145732428
 20
161.1889146768
 30
0.0
 11
212.145732428
 21
153.5879552864
 31
0.0
  0
LINE
  5
126
330
1F
100
AcDbEntity
  8
0
  6
HIDDEN
 62
     7
370
     0
100
AcDbLine
 10
175.8211848242
 20
85.5021469794
 30
0.0
 11
175.5512298001
 21
85.4782194399
 31
0.0
  0
SPLINE
  5
127
330
1F
100
AcDbEntity
  8
0
  6
HIDDEN
 62
     7
370
     0
100
AcDbSpline
210
0.0
220
0.0
230
1.0
 70
     8
 71
     3
 72
    13
 73
     9
 74
     0
 42
0.00000001
 43
0.00000001
 12
1.0
 22
0.0
 32
0.0
 13
1.0
 23
0.0
 33
0.0
 40
0.0
 40
0.0
 40
0.0
 40
0.0
 40
0.1247122110153692
 40
0.2490589593365458
 40
0.3740779090298711
 40
0.5009710337636518
 40
0.7521756045195616
 40
0.9999999999999999
 40
0.9999999999999999
 40
0.9999999999999999
 40
0.9999999999999999
 10
173.9270665599318
 20
159.1692597173326
 30
0.0
 10
173.9328523300534
 20
159.1684840977368
 30
0.0
 10
173.9444069153957
 20
159.1669351314583
 30
0.0
 10
174.0414207089993
 20
159.1547142047607
 30
0.0
 10
174.196714007667
 20
159.1357903881044
 30
0.0
 10
174.4869006213169
 20
159.1018180798935
 30
0.0
 10
174.9744277797554
 20
159.0452896198084
 30
0.0
 10
175.5401501793032
 20
158.9974854771328
 30
0.0
 10
175.8210954172822
 20
158.9737453065984
 30
0.0
  0
SPLINE
  5
128
330
1F
100
AcDbEntity
  8
0
  6
HIDDEN
 62
     7
370
     0
100
AcDbSpline
210
0.0
220
0.0
230
1.0
 70
     8
 71
     3
 72
     9
 73
     5
 74
     0
 42
0.00000001
 43
0.00000001
 12
1.0
 22
0.0
 32
0.0
 13
1.0
 23
0.0
 33
0.0
 40
0.0
 40
0.0
 40
0.0
 40
0.0
 40
0.6612122345420527
 40
1.0
 40
1.0
 40
1.0
 40
1.0
 10
185.6609663842531
 20
153.6042757831685
 30
0.0
 10
185.9524679990389
 20
153.6480613111304
 30
0.0
 10
186.3933273775525
 20
153.7142813924817
 30
0.0
 10
186.3419138190428
 20
153.7064751130648
 30
0.0
 10
186.3244955344411
 20
153.7038304411046
 30
0.0
  0
SPLINE
  5
129
330
1F
100
AcDbEntity
  8
0
  6
HIDDEN
 62
     7
370
     0
100
AcDbSpline
210
0.0
220
0.0
230
1.0
 70
     8
 71
     3
 72
     9
 73
     5
 74
     0
 42
0.00000001
 43
0.00000001
 12
1.0
 22
0.0
 32
0.0
 13
1.0
 23
0.0
 33
0.0
 40
0.0
 40
0.0
 40
0.0
 40
0.0
 40
0.3224725271098507
 40
1.0
 40
1.0
 40
1.0
 40
1.0
 10
186.3244955344411
 20
90.77207674609349
 30
0.0
 10
186.3431368170984
 20
90.76930873079287
 30
0.0
 10
186.4009441683925
 20
90.76072500638875
 30
0.0
 10
185.9598319981909
 20
90.82683802059158
 30
0.0
 10
185.6609663842531
 20
90.87163140402959
 30
0.0
  0
SPLINE
  5
12A
330
1F
100
AcDbEntity
  8
0
  6
HIDDEN
 62
     7
370
     0
100
AcDbSpline
210
0.0
220
0.0
230
1.0
 70
     8
 71
     3
 72
    15
 73
    11
 74
     0
 42
0.00000001
 43
0.00000001
 12
1.0
 22
0.0
 32
0.0
 13
1.0
 23
0.0
 33
0.0
 40
0.0
 40
0.0
 40
0.0
 40
0.0
 40
0.1285821426710073
 40
0.2571635607496992
 40
0.3853235406184768
 40
0.5113778076015207
 40
0.636926046588634
 40
0.7643185585868897
 40
0.893060358186539
 40
1.0
 40
1.0
 40
1.0
 40
1.0
 10
185.6609663842531
 20
90.87163140402959
 30
0.0
 10
185.2754442571094
 20
90.93343716918959
 30
0.0
 10
184.5044021753349
 20
91.05704835121871
 30
0.0
 10
182.7258445119938
 20
91.24779781348528
 30
0.0
 10
180.7320332505603
 20
91.33544419440744
 30
0.0
 10
178.707995625401
 20
91.28854029105166
 30
0.0
 10
176.879887136547
 20
91.12828916254078
 30
0.0
 10
175.4484561817194
 20
90.92711157735944
 30
0.0
 10
174.5445709330853
 20
90.76456584933528
 30
0.0
 10
174.4819882960241
 20
90.75216618572694
 30
0.0
 10
174.4535916401358
 20
90.74653988109753
 30
0.0
  0
SPLINE
  5
12B
330
1F
100
AcDbEntity
  8
0
  6
HIDDEN
 62
     7
370
     0
100
AcDbSpline
210
0.0
220
0.0
230
1.0
 70
     8
 71
     3
 72
    16
 73
    12
 74
     0
 42
0.00000001
 43
0.00000001
 12
1.0
 22
0.0
 32
0.0
 13
1.0
 23
0.0
 33
0.0
 40
0.0
 40
0.0
 40
0.0
 40
0.0
 40
0.0205567972010308
 40
0.1461296555129789
 40
0.2720439735959893
 40
0.3999540038647748
 40
0.5285040859845025
 40
0.6552455845570215
 40
0.7805595113940985
 40
0.907037898122843
 40
1.0
 40
1.0
 40
1.0
 40
1.0
 10
174.4535916401358
 20
153.7293673061006
 30
0.0
 10
174.4389243584873
 20
153.7321130022167
 30
0.0
 10
174.3346608006161
 20
153.7516310051268
 30
0.0
 10
174.7854406913802
 20
153.665264890584
 30
0.0
 10
175.798678998093
 20
153.4941277873286
 30
0.0
 10
177.3930081558505
 20
153.2905866541938
 30
0.0
 10
179.3195075521391
 20
153.1581959232513
 30
0.0
 10
181.3659994018692
 20
153.1544008362003
 30
0.0
 10
183.2791590938596
 20
153.2771754988999
 30
0.0
 10
184.7638672930173
 20
153.4589927951818
 30
0.0
 10
185.3940152780398
 20
153.5610437091023
 30
0.0
 10
185.6609663842531
 20
153.6042757831685
 30
0.0
  0
LINE
  5
12C
330
1F
100
AcDbEntity
  8
0
  6
HIDDEN
 62
     7
370
     0
100
AcDbLine
 10
165.404384668
 20
95.7379539065
 30
0.0
 11
165.404384668
 21
148.7379532807
 31
0.0
  0
LINE
  5
12D
330
1F
100
AcDbEntity
  8
0
  6
HIDDEN
 62
     7
370
     0
100
AcDbLine
 10
204.6918381853
 20
95.7379539065
 30
0.0
 11
204.6918381853
 21
148.7379532807
 31
0.0
  0
LINE
  5
12E
330
1F
100
AcDbEntity
  8
0
  6
HIDDEN
 62
     7
370
     0
100
AcDbLine
 10
207.8577612443
 20
97.3629534744
 30
0.0
 11
207.8577612443
 21
147.1129537128
 31
0.0
  0
SPLINE
  5
12F
330
1F
100
AcDbEntity
  8
0
  6
HIDDEN
 62
     7
370
     0
100
AcDbSpline
210
0.0
220
0.0
230
1.0
 70
     8
 71
     3
 72
    20
 73
    16
 74
     0
 42
0.00000001
 43
0.00000001
 12
1.0
 22
0.0
 32
0.0
 13
1.0
 23
0.0
 33
0.0
 40
0.0
 40
0.0
 40
0.0
 40
0.0
 40
0.2499999999999978
 40
0.2499999999999978
 40
0.3749999999999982
 40
0.3749999999999982
 40
0.4999999999999986
 40
0.4999999999999986
 40
0.6249999999999989
 40
0.6249999999999989
 40
0.7499999999999992
 40
0.7499999999999992
 40
0.8749999999999997
 40
0.8749999999999997
 40
1.0
 40
1.0
 40
1.0
 40
1.0
 10
155.607760973117
 20
147.4664672240133
 30
0.0
 10
155.607760973117
 20
147.3872642374811
 30
0.0
 10
155.5607784779042
 20
147.3061680190781
 30
0.0
 10
155.4229568871266
 20
147.1859713273273
 30
0.0
 10
155.3666746032167
 20
147.1470446233251
 30
0.0
 10
155.2335897517494
 20
147.0718558909008
 30
0.0
 10
155.1557498095164
 20
147.0352136855588
 30
0.0
 10
154.983117453402
 20
146.967623152727
 30
0.0
 10
154.888724456311
 20
146.9366649709513
 30
0.0
 10
154.6832871499958
 20
146.8811405495817
 30
0.0
 10
154.5709409100086
 20
146.8564320357484
 30
0.0
 10
154.338700046109
 20
146.8166358086402
 30
0.0
 10
154.2179894036863
 20
146.8012159712432
 30
0.0
 10
153.9669185444172
 20
146.7801359964035
 30
0.0
 10
153.8373965480015
 20
146.7746587513826
 30
0.0
 10
153.707760973117
 20
146.7746587513826
 30
0.0
  0
LINE
  5
130
330
1F
100
AcDbEntity
  8
0
  6
HIDDEN
 62
     7
370
     0
100
AcDbLine
 10
153.7077591671
 20
146.7746582382
 30
0.0
 11
147.1577600492
 21
146.7746582382
 31
0.0
  0
LINE
  5
131
330
1F
100
AcDbEntity
  8
0
  6
HIDDEN
 62
     7
370
     0
100
AcDbLine
 10
147.1577600492
 20
97.701248949
 30
0.0
 11
158.7077618493
 21
97.701248949
 31
0.0
  0
SPLINE
  5
132
330
1F
100
AcDbEntity
  8
0
  6
HIDDEN
 62
     7
370
     0
100
AcDbSpline
210
0.0
220
0.0
230
1.0
 70
     8
 71
     3
 72
    18
 73
    14
 74
     0
 42
0.00000001
 43
0.00000001
 12
1.0
 22
0.0
 32
0.0
 13
1.0
 23
0.0
 33
0.0
 40
0.0
 40
0.0
 40
0.0
 40
0.0
 40
0.1250000000000023
 40
0.1250000000000023
 40
0.2500000000000046
 40
0.2500000000000046
 40
0.5000000000000036
 40
0.5000000000000036
 40
0.7500000000000024
 40
0.7500000000000024
 40
0.8750000000000012
 40
0.8750000000000012
 40
1.0
 40
1.0
 40
1.0
 40
1.0
 10
158.707760973117
 20
97.70124843581554
 30
0.0
 10
158.8372282860742
 20
97.70124843581554
 30
0.0
 10
158.9642390349708
 20
97.6958954372229
 30
0.0
 10
159.2136023561681
 20
97.67515746453412
 30
0.0
 10
159.3372260107965
 20
97.65948556027983
 30
0.0
 10
159.6862583477305
 20
97.59979083187773
 30
0.0
 10
159.8967701125373
 20
97.54202565219674
 30
0.0
 10
160.2406867902369
 20
97.40750381091925
 30
0.0
 10
160.3770371917547
 20
97.32983469741386
 30
0.0
 10
160.5140752483172
 20
97.21054356332651
 30
0.0
 10
160.5492942670301
 20
97.16962455419146
 30
0.0
 10
160.5959178439687
 20
97.08896856090144
 30
0.0
 10
160.607760973117
 20
97.04900004070858
 30
0.0
 10
160.607760973117
 20
97.00943996318476
 30
0.0
  0
LINE
  5
133
330
1F
100
AcDbEntity
  8
0
  6
HIDDEN
 62
     7
370
     0
100
AcDbLine
 10
147.1577600492
 20
97.701248949
 30
0.0
 11
147.1577600492
 21
146.7746582382
 31
0.0
  0
LINE
  5
134
330
1F
100
AcDbEntity
  8
0
  6
HIDDEN
 62
     7
370
     0
100
AcDbLine
 10
257.6260694219
 20
139.9014752858
 30
0.0
 11
256.8526246501
 21
139.9080522858
 31
0.0
  0
LINE
  5
135
330
1F
100
AcDbEntity
  8
0
  6
HIDDEN
 62
     7
370
     0
100
AcDbLine
 10
247.6260715081
 20
139.9014752858
 30
0.0
 11
246.8526267363
 21
139.9080522858
 31
0.0
  0
LINE
  5
136
330
1F
100
AcDbEntity
  8
0
  6
HIDDEN
 62
     7
370
     0
100
AcDbLine
 10
237.6260698689
 20
139.9014752858
 30
0.0
 11
236.8526250972
 21
139.9080522858
 31
0.0
  0
SPLINE
  5
137
330
1F
100
AcDbEntity
  8
0
  6
HIDDEN
 62
     7
370
     0
100
AcDbSpline
210
0.0
220
0.0
230
1.0
 70
     8
 71
     3
 72
    10
 73
     6
 74
     0
 42
0.00000001
 43
0.00000001
 12
1.0
 22
0.0
 32
0.0
 13
1.0
 23
0.0
 33
0.0
 40
0.0
 40
0.0
 40
0.0
 40
0.0
 40
0.3332352155372267
 40
0.6663154079944921
 40
1.0
 40
1.0
 40
1.0
 40
1.0
 10
237.4077604068728
 20
118.7379534855656
 30
0.0
 10
237.7959202044969
 20
118.7767469376367
 30
0.0
 10
238.5720592254102
 20
118.8543157948254
 30
0.0
 10
239.6262881441815
 20
119.4301795366377
 30
0.0
 10
240.1080126020244
 20
120.0395785859304
 30
0.0
 10
240.3490931643458
 20
120.3445543103091
 30
0.0
  0
SPLINE
  5
138
330
1F
100
AcDbEntity
  8
0
  6
HIDDEN
 62
     7
370
     0
100
AcDbSpline
210
0.0
220
0.0
230
1.0
 70
     8
 71
     3
 72
    14
 73
    10
 74
     0
 42
0.00000001
 43
0.00000001
 12
1.0
 22
0.0
 32
0.0
 13
1.0
 23
0.0
 33
0.0
 40
0.0
 40
0.0
 40
0.0
 40
0.0
 40
0.0995220861078378
 40
0.2688096426111659
 40
0.4383927443617854
 40
0.605225291672871
 40
0.7705872017794244
 40
0.9380107117218203
 40
1.0
 40
1.0
 40
1.0
 40
1.0
 10
240.3125629676791
 20
124.106089471484
 30
0.0
 10
240.1909920374821
 20
124.3037909300813
 30
0.0
 10
239.8626283588634
 20
124.8377835392361
 30
0.0
 10
238.9911798087992
 20
125.4241909054212
 30
0.0
 10
237.8574051222074
 20
125.7778493235399
 30
0.0
 10
236.6608789306347
 20
125.7267205561764
 30
0.0
 10
235.5807691906539
 20
125.2824784669514
 30
0.0
 10
234.822548857872
 20
124.7089097769396
 30
0.0
 10
234.5725596815724
 20
124.2366177556362
 30
0.0
 10
234.505010481021
 20
124.1090004366063
 30
0.0
  0
SPLINE
  5
139
330
1F
100
AcDbEntity
  8
0
  6
HIDDEN
 62
     7
370
     0
100
AcDbSpline
210
0.0
220
0.0
230
1.0
 70
     8
 71
     3
 72
    11
 73
     7
 74
     0
 42
0.00000001
 43
0.00000001
 12
1.0
 22
0.0
 32
0.0
 13
1.0
 23
0.0
 33
0.0
 40
0.0
 40
0.0
 40
0.0
 40
0.0
 40
0.0725346071907182
 40
0.4091148774317264
 40
0.7489153354243095
 40
1.0
 40
1.0
 40
1.0
 40
1.0
 10
234.4939053906413
 20
120.3585607033394
 30
0.0
 10
234.5308475123192
 20
120.2826771703596
 30
0.0
 10
234.7392111082313
 20
119.8546734422564
 30
0.0
 10
235.4422066786497
 20
119.2879331400429
 30
0.0
 10
236.4229147511653
 20
118.8089505217268
 30
0.0
 10
237.1140685845558
 20
118.7591255837604
 30
0.0
 10
237.4077604068728
 20
118.7379534855656
 30
0.0
  0
SPLINE
  5
13A
330
1F
100
AcDbEntity
  8
0
  6
HIDDEN
 62
     7
370
     0
100
AcDbSpline
210
0.0
220
0.0
230
1.0
 70
     8
 71
     3
 72
    10
 73
     6
 74
     0
 42
0.00000001
 43
0.00000001
 12
1.0
 22
0.0
 32
0.0
 13
1.0
 23
0.0
 33
0.0
 40
0.0
 40
0.0
 40
0.0
 40
0.0
 40
0.3332351422508394
 40
0.6663161953400092
 40
1.0
 40
1.0
 40
1.0
 40
1.0
 10
257.407759959838
 20
118.7379534855656
 30
0.0
 10
257.7959195943649
 20
118.7767471971702
 30
0.0
 10
258.5720593769689
 20
118.8543166820236
 30
0.0
 10
259.6262908190845
 20
119.4301773013613
 30
0.0
 10
260.108013593036
 20
120.0395783423223
 30
0.0
 10
260.349092717311
 20
120.3445543103091
 30
0.0
  0
SPLINE
  5
13B
330
1F
100
AcDbEntity
  8
0
  6
HIDDEN
 62
     7
370
     0
100
AcDbSpline
210
0.0
220
0.0
230
1.0
 70
     8
 71
     3
 72
    14
 73
    10
 74
     0
 42
0.00000001
 43
0.00000001
 12
1.0
 22
0.0
 32
0.0
 13
1.0
 23
0.0
 33
0.0
 40
0.0
 40
0.0
 40
0.0
 40
0.0
 40
0.0995217849792943
 40
0.2688097721194251
 40
0.4383928754748725
 40
0.6052254243647566
 40
0.7705873360361912
 40
0.9380104438523401
 40
1.0
 40
1.0
 40
1.0
 40
1.0
 10
260.3125625206443
 20
124.106089471484
 30
0.0
 10
260.1909930072525
 20
124.3037910827144
 30
0.0
 10
259.862632003696
 20
124.8377859771341
 30
0.0
 10
258.9911793710181
 20
125.4241895195399
 30
0.0
 10
257.8574048219496
 20
125.7778496977209
 30
0.0
 10
256.6608788246007
 20
125.7267201360685
 30
0.0
 10
255.5807681139782
 20
125.282480133945
 30
0.0
 10
254.8225536528119
 20
124.708907027542
 30
0.0
 10
254.5725606105775
 20
124.2366176637088
 30
0.0
 10
254.5050100339862
 20
124.1090004366063
 30
0.0
  0
SPLINE
  5
13C
330
1F
100
AcDbEntity
  8
0
  6
HIDDEN
 62
     7
370
     0
100
AcDbSpline
210
0.0
220
0.0
230
1.0
 70
     8
 71
     3
 72
    11
 73
     7
 74
     0
 42
0.00000001
 43
0.00000001
 12
1.0
 22
0.0
 32
0.0
 13
1.0
 23
0.0
 33
0.0
 40
0.0
 40
0.0
 40
0.0
 40
0.0
 40
0.0725351182050842
 40
0.4091147115447835
 40
0.7489152649340131
 40
1.0
 40
1.0
 40
1.0
 40
1.0
 10
254.4939049436065
 20
120.3585607033394
 30
0.0
 10
254.5308483948459
 20
120.2826772197008
 30
0.0
 10
254.7392179373692
 20
119.8546769587507
 30
0.0
 10
255.4422044820071
 20
119.2879309770324
 30
0.0
 10
256.4229147561365
 20
118.8089508326567
 30
0.0
 10
257.1140682723142
 20
118.7591256764831
 30
0.0
 10
257.407759959838
 20
118.7379534855656
 30
0.0
  0
SPLINE
  5
13D
330
1F
100
AcDbEntity
  8
0
  6
HIDDEN
 62
     7
370
     0
100
AcDbSpline
210
0.0
220
0.0
230
1.0
 70
     8
 71
     3
 72
    10
 73
     6
 74
     0
 42
0.00000001
 43
0.00000001
 12
1.0
 22
0.0
 32
0.0
 13
1.0
 23
0.0
 33
0.0
 40
0.0
 40
0.0
 40
0.0
 40
0.0
 40
0.3332344406366098
 40
0.6663158442157668
 40
1.0
 40
1.0
 40
1.0
 40
1.0
 10
247.4077620460006
 20
118.7379534855656
 30
0.0
 10
247.7959204008552
 20
118.7767473695365
 30
0.0
 10
248.572058849841
 20
118.8543173214869
 30
0.0
 10
249.6262891792884
 20
119.4301772929689
 30
0.0
 10
250.1080119536853
 20
120.0395783395232
 30
0.0
 10
250.3490910781832
 20
120.3445543103091
 30
0.0
  0
SPLINE
  5
13E
330
1F
100
AcDbEntity
  8
0
  6
HIDDEN
 62
     7
370
     0
100
AcDbSpline
210
0.0
220
0.0
230
1.0
 70
     8
 71
     3
 72
    14
 73
    10
 74
     0
 42
0.00000001
 43
0.00000001
 12
1.0
 22
0.0
 32
0.0
 13
1.0
 23
0.0
 33
0.0
 40
0.0
 40
0.0
 40
0.0
 40
0.0
 40
0.099521811579768
 40
0.2688098439676869
 40
0.4383929926498021
 40
0.6052255861311776
 40
0.7705875420010275
 40
0.9380106945665142
 40
1.0
 40
1.0
 40
1.0
 40
1.0
 10
250.3125608815165
 20
124.106089471484
 30
0.0
 10
250.1909913687377
 20
124.3037910823576
 30
0.0
 10
249.862630366837
 20
124.8377859758137
 30
0.0
 10
248.9911777149782
 20
125.4241895293828
 30
0.0
 10
247.8574032448357
 20
125.7778496616288
 30
0.0
 10
246.6608769592725
 20
125.7267202677175
 30
0.0
 10
245.5807673155586
 20
125.2824796446519
 30
0.0
 10
244.8225501927893
 20
124.708908774414
 30
0.0
 10
244.5725613495694
 20
124.2366177191732
 30
0.0
 10
244.5050121201487
 20
124.1090004366063
 30
0.0
  0
SPLINE
  5
13F
330
1F
100
AcDbEntity
  8
0
  6
HIDDEN
 62
     7
370
     0
100
AcDbSpline
210
0.0
220
0.0
230
1.0
 70
     8
 71
     3
 72
    11
 73
     7
 74
     0
 42
0.00000001
 43
0.00000001
 12
1.0
 22
0.0
 32
0.0
 13
1.0
 23
0.0
 33
0.0
 40
0.0
 40
0.0
 40
0.0
 40
0.0
 40
0.0725350622519789
 40
0.4091151673497447
 40
0.7489154586190991
 40
1.0
 40
1.0
 40
1.0
 40
1.0
 10
244.4939033044787
 20
120.3585607033394
 30
0.0
 10
244.5308467430901
 20
120.2826772055571
 30
0.0
 10
244.7392166072732
 20
119.8546760578298
 30
0.0
 10
245.4422065580776
 20
119.2879322259664
 30
0.0
 10
246.4229167003539
 20
118.808950682788
 30
0.0
 10
247.1140703161471
 20
118.7591256317906
 30
0.0
 10
247.4077620460006
 20
118.7379534855656
 30
0.0
  0
LINE
  5
140
330
1F
100
AcDbEntity
  8
0
  6
HIDDEN
 62
     7
370
     0
100
AcDbLine
 10
147.1577600492
 20
94.8679533355
 30
0.0
 11
147.1577600492
 21
90.0536396109
 31
0.0
  0
LINE
  5
141
330
1F
100
AcDbEntity
  8
0
  6
HIDDEN
 62
     7
370
     0
100
AcDbLine
 10
160.6077604844
 20
94.8679533355
 30
0.0
 11
160.6077604844
 21
88.3922309183
 31
0.0
  0
LINE
  5
142
330
1F
100
AcDbEntity
  8
0
  6
HIDDEN
 62
     7
370
     0
100
AcDbLine
 10
155.6077615274
 20
149.6079538517
 30
0.0
 11
155.6077615274
 21
155.9825607144
 31
0.0
  0
LINE
  5
143
330
1F
100
AcDbEntity
  8
0
  6
HIDDEN
 62
     7
370
     0
100
AcDbLine
 10
147.1577600492
 20
149.6079538517
 30
0.0
 11
147.1577600492
 21
154.4862382613
 31
0.0
  0
LINE
  5
144
330
1F
100
AcDbEntity
  8
0
  6
HIDDEN
 62
     7
370
     0
100
AcDbLine
 10
223.7077613278
 20
109.2379533254
 30
0.0
 11
223.7077613278
 21
135.2379538618
 31
0.0
  0
LINE
  5
145
330
1F
100
AcDbEntity
  8
0
  6
HIDDEN
 62
     7
370
     0
100
AcDbLine
 10
219.7077606721
 20
109.2379533254
 30
0.0
 11
219.7077606721
 21
135.2379538618
 31
0.0
  0
LINE
  5
146
330
1F
100
AcDbEntity
  8
0
  6
HIDDEN
 62
     7
370
     0
100
AcDbLine
 10
208.6077609016
 20
110.9879531466
 30
0.0
 11
208.6077609016
 21
133.4879540406
 31
0.0
  0
ELLIPSE
  5
147
330
1F
100
AcDbEntity
  8
0
  6
HIDDEN
 62
     7
370
     0
100
AcDbEllipse
 10
139.2230877728
 20
122.2379535936
 30
0.0
 11
31.0810857081166
 21
1.421085471520200E-14
 31
0.0
210
0.0
220
0.0
230
1.0
 40
0.8164965809
 41
1.312649268214811
 42
1.367189972061496
  0
ELLIPSE
  5
148
330
1F
100
AcDbEntity
  8
0
  6
HIDDEN
 62
     7
370
     0
100
AcDbEllipse
 10
139.2230877728
 20
122.2379535936
 30
0.0
 11
31.08108570811663
 21
1.421085471520200E-14
 31
0.0
210
0.0
220
0.0
230
1.0
 40
0.8164965809
 41
4.915995335118101
 42
4.970536038964786
  0
LINE
  5
149
330
1F
100
AcDbEntity
  8
0
  6
HIDDEN
 62
     7
370
     0
100
AcDbLine
 10
224.3577611549
 20
78.3379517995
 30
0.0
 11
210.3577607228
 21
78.3379517995
 31
0.0
  0
LINE
  5
14A
330
1F
100
AcDbEntity
  8
0
  6
HIDDEN
 62
     7
370
     0
100
AcDbLine
 10
200.3577609463
 20
72.247955253
 30
0.0
 11
200.3577609463
 21
78.3379517995
 31
0.0
  0
LINE
  5
14B
330
1F
100
AcDbEntity
  8
0
  6
HIDDEN
 62
     7
370
     0
100
AcDbLine
 10
210.3577607228
 20
78.3379517995
 30
0.0
 11
200.3577609463
 21
78.3379517995
 31
0.0
  0
LINE
  5
14C
330
1F
100
AcDbEntity
  8
0
  6
HIDDEN
 62
     7
370
     0
100
AcDbLine
 10
147.1577600492
 20
149.6079538517
 30
0.0
 11
147.1577600492
 21
146.7746582382
 31
0.0
  0
LINE
  5
14D
330
1F
100
AcDbEntity
  8
0
  6
HIDDEN
 62
     7
370
     0
100
AcDbLine
 10
155.6077615274
 20
149.6079538517
 30
0.0
 11
155.6077615274
 21
147.4664669983
 31
0.0
  0
LINE
  5
14E
330
1F
100
AcDbEntity
  8
0
  6
HIDDEN
 62
     7
370
     0
100
AcDbLine
 10
147.1577600492
 20
94.8679533355
 30
0.0
 11
147.1577600492
 21
97.701248949
 31
0.0
  0
LINE
  5
14F
330
1F
100
AcDbEntity
  8
0
  6
HIDDEN
 62
     7
370
     0
100
AcDbLine
 10
160.6077604844
 20
94.8679533355
 30
0.0
 11
160.6077604844
 21
97.0094401889
 31
0.0
  0
LINE
  5
150
330
1F
100
AcDbEntity
  8
0
  6
HIDDEN
 62
     7
370
     0
100
AcDbLine
 10
210.3577607228
 20
166.1379553877
 30
0.0
 11
200.3577609463
 21
166.1379553877
 31
0.0
  0
LINE
  5
151
330
1F
100
AcDbEntity
  8
0
  6
HIDDEN
 62
     7
370
     0
100
AcDbLine
 10
224.3577611549
 20
166.1379553877
 30
0.0
 11
210.3577607228
 21
166.1379553877
 31
0.0
  0
SPLINE
  5
152
330
1F
100
AcDbEntity
  8
0
  6
HIDDEN
 62
     7
370
     0
100
AcDbSpline
210
0.0
220
0.0
230
1.0
 70
     8
 71
     3
 72
    31
 73
    27
 74
     0
 42
0.00000001
 43
0.00000001
 12
1.0
 22
0.0
 32
0.0
 13
1.0
 23
0.0
 33
0.0
 40
0.0
 40
0.0
 40
0.0
 40
0.0
 40
0.0531041738860546
 40
0.1124860775117009
 40
0.1778845698734576
 40
0.2129092496776252
 40
0.2494630523969408
 40
0.291229637008841
 40
0.3260726092956975
 40
0.3539882665427165
 40
0.3749738915202235
 40
0.4414327516180643
 40
0.5001514292056024
 40
0.554667139192906
 40
0.6144123293231537
 40
0.6794389096343405
 40
0.7023348292570072
 40
0.725826251023315
 40
0.749914266257366
 40
0.7913795542303671
 40
0.8260470759571574
 40
0.8539132011861523
 40
0.8749749290191163
 40
0.9411625989177584
 40
0.9999141561628879
 40
1.0
 40
1.0
 40
1.0
 40
1.0
 10
186.4072360946151
 20
85.13804455624744
 30
0.0
 10
186.3910473881797
 20
85.14294183649828
 30
0.0
 10
186.3567562213344
 20
85.15331533081303
 30
0.0
 10
186.0554859046109
 20
85.22896034007795
 30
0.0
 10
185.6133219598619
 20
85.32524672692222
 30
0.0
 10
185.1184891557266
 20
85.4249081021776
 30
0.0
 10
184.6480133020965
 20
85.51718861702825
 30
0.0
 10
184.1170917204055
 20
85.61281855515634
 30
0.0
 10
183.5789411118878
 20
85.6984681255419
 30
0.0
 10
183.1208941521167
 20
85.76576235884973
 30
0.0
 10
182.4653294399342
 20
85.85410509663868
 30
0.0
 10
181.5820224323454
 20
85.95077006946251
 30
0.0
 10
180.453364450094
 20
86.03753886563022
 30
0.0
 10
179.3635877986495
 20
86.07562947730872
 30
0.0
 10
178.267622247196
 20
86.07744126455141
 30
0.0
 10
177.4282974582009
 20
86.05331943132482
 30
0.0
 10
176.848934120856
 20
86.02439402150938
 30
0.0
 10
176.5015260702814
 20
86.00291149955333
 30
0.0
 10
176.0900893046223
 20
85.97111338491698
 30
0.0
 10
175.672528391148
 20
85.93351136224956
 30
0.0
 10
175.3013422825569
 20
85.89646706418931
 30
0.0
 10
175.0472872960014
 20
85.86777342686936
 30
0.0
 10
174.7462410309988
 20
85.83139097085987
 30
0.0
 10
174.4907063940772
 20
85.7985954444237
 30
0.0
 10
174.3916087032228
 20
85.78230841621132
 30
0.0
 10
174.4078102613076
 20
85.7848667035155
 30
0.0
 10
174.4078338993998
 20
85.78487043605968
 30
0.0
  0
SPLINE
  5
153
330
1F
100
AcDbEntity
  8
0
  6
HIDDEN
 62
     7
370
     0
100
AcDbSpline
210
0.0
220
0.0
230
1.0
 70
     8
 71
     3
 72
    30
 73
    26
 74
     0
 42
0.00000001
 43
0.00000001
 12
1.0
 22
0.0
 32
0.0
 13
1.0
 23
0.0
 33
0.0
 40
0.0
 40
0.0
 40
0.0
 40
0.0
 40
0.0001305923415538
 40
0.0285608602373453
 40
0.058863864127443
 40
0.0910438054431175
 40
0.1251040722799722
 40
0.1546920852044528
 40
0.1963701179990475
 40
0.2501238431462586
 40
0.3205378209955845
 40
0.3856216951515239
 40
0.4454139538394399
 40
0.499966292710334
 40
0.5283580792384586
 40
0.5586421115120923
 40
0.5908260768644673
 40
0.6249163351050978
 40
0.6541907769335994
 40
0.6958685801713922
 40
0.7499353040508477
 40
0.8215937806393646
 40
0.8871443501769438
 40
0.9466388426997435
 40
0.9999999999999999
 40
0.9999999999999999
 40
0.9999999999999999
 40
0.9999999999999999
 10
174.4078711523028
 20
158.6909622453325
 30
0.0
 10
174.4078343676193
 20
158.6909697250884
 30
0.0
 10
174.3997894685731
 20
158.6926055657651
 30
0.0
 10
174.428356841954
 20
158.6873487922097
 30
0.0
 10
174.5017857096583
 20
158.6767217727385
 30
0.0
 10
174.6454313988571
 20
158.6570611427383
 30
0.0
 10
174.8464693866667
 20
158.6322133794733
 30
0.0
 10
175.1291008913252
 20
158.5980047420561
 30
0.0
 10
175.5425085135849
 20
158.5543300434267
 30
0.0
 10
176.2187963350492
 20
158.4912854120162
 30
0.0
 10
177.1572280004534
 20
158.429985735961
 30
0.0
 10
178.2667207286346
 20
158.3986958344611
 30
0.0
 10
179.3642011353436
 20
158.4003577388283
 30
0.0
 10
180.2642326634421
 20
158.4316545642502
 30
0.0
 10
180.9755733957912
 20
158.4784965229128
 30
0.0
 10
181.5409909899443
 20
158.5256558642894
 30
0.0
 10
182.1299135276868
 20
158.5851029508505
 30
0.0
 10
182.6943236260963
 20
158.6514539118749
 30
0.0
 10
183.2885199143493
 20
158.7333743723742
 30
0.0
 10
183.9551272605916
 20
158.8350264955299
 30
0.0
 10
184.7564608807105
 20
158.9771593906395
 30
0.0
 10
185.5089707468162
 20
159.1284044020684
 30
0.0
 10
186.0542565481913
 20
159.2462603221796
 30
0.0
 10
186.3569780661496
 20
159.3224835935663
 30
0.0
 10
186.3912691549315
 20
159.3329380920495
 30
0.0
 10
186.4074828950973
 20
159.3378812574022
 30
0.0
  0
LINE
  5
154
330
1F
100
AcDbEntity
  8
0
  6
HIDDEN
 62
     7
370
     0
100
AcDbLine
 10
232.5835169209
 20
122.2379535936
 30
0.0
 11
232.5835169209
 21
115.9379535854
 31
0.0
  0
LINE
  5
155
330
1F
100
AcDbEntity
  8
0
  6
HIDDEN
 62
     7
370
     0
100
AcDbLine
 10
232.5835169209
 20
128.5379536018
 30
0.0
 11
232.5835169209
 21
122.2379535936
 31
0.0
  0
LINE
  5
156
330
1F
100
AcDbEntity
  8
0
  6
HIDDEN
 62
     7
370
     0
100
AcDbLine
 10
233.4077597512
 20
122.2379535936
 30
0.0
 11
233.4077597512
 21
116.2379535414
 31
0.0
  0
LINE
  5
157
330
1F
100
AcDbEntity
  8
0
  6
HIDDEN
 62
     7
370
     0
100
AcDbLine
 10
233.4077597512
 20
128.2379536458
 30
0.0
 11
233.4077597512
 21
122.2379535936
 31
0.0
  0
LINE
  5
158
330
1F
100
AcDbEntity
  8
0
  6
HIDDEN
 62
     7
370
     0
100
AcDbLine
 10
229.4077628209
 20
122.2379535936
 30
0.0
 11
229.4077628209
 21
116.3379533716
 31
0.0
  0
LINE
  5
159
330
1F
100
AcDbEntity
  8
0
  6
HIDDEN
 62
     7
370
     0
100
AcDbLine
 10
229.4077628209
 20
128.1379538156
 30
0.0
 11
229.4077628209
 21
122.2379535936
 31
0.0
  0
SPLINE
  5
15A
330
1F
100
AcDbEntity
  8
0
  6
HIDDEN
 62
     7
370
     0
100
AcDbSpline
210
0.0
220
0.0
230
1.0
 70
     8
 71
     3
 72
    12
 73
     8
 74
     0
 42
0.00000001
 43
0.00000001
 12
1.0
 22
0.0
 32
0.0
 13
1.0
 23
0.0
 33
0.0
 40
0.0
 40
0.0
 40
0.0
 40
0.0
 40
0.1887385661928727
 40
0.3765720015741637
 40
0.5860633316478392
 40
0.8161894006167136
 40
1.0
 40
1.0
 40
1.0
 40
1.0
 10
257.407759959838
 20
127.111350888031
 30
0.0
 10
257.0535425046274
 20
127.1349354559788
 30
0.0
 10
256.3468063097321
 20
127.181991487703
 30
0.0
 10
255.3827422818034
 20
127.4976712810986
 30
0.0
 10
254.5676326137434
 20
127.8655034064938
 30
0.0
 10
254.0004915361548
 20
128.1832720666271
 30
0.0
 10
253.9505751961687
 20
128.2129045401702
 30
0.0
 10
253.9284096015902
 20
128.2260629847817
 30
0.0
  0
LINE
  5
15B
330
1F
100
AcDbEntity
  8
0
  6
HIDDEN
 62
     7
370
     0
100
AcDbLine
 10
257.161466117
 20
127.1373562083
 30
0.0
 11
257.4264907195
 21
127.1133299485
 31
0.0
  0
SPLINE
  5
15C
330
1F
100
AcDbEntity
  8
0
  6
HIDDEN
 62
     7
370
     0
100
AcDbSpline
210
0.0
220
0.0
230
1.0
 70
     8
 71
     3
 72
    13
 73
     9
 74
     0
 42
0.00000001
 43
0.00000001
 12
1.0
 22
0.0
 32
0.0
 13
1.0
 23
0.0
 33
0.0
 40
0.0
 40
0.0
 40
0.0
 40
0.0
 40
0.0073455853832983
 40
0.1929221519945895
 40
0.3776872556082833
 40
0.5828927509431836
 40
0.8112416454781746
 40
1.0
 40
1.0
 40
1.0
 40
1.0
 10
260.9010615302535
 20
128.2341119401328
 30
0.0
 10
260.903291829407
 20
128.2353907526347
 30
0.0
 10
260.9618677072738
 20
128.2689770833322
 30
0.0
 10
260.7642713666031
 20
128.1538241960012
 30
0.0
 10
260.3273393857648
 20
127.9112794548945
 30
0.0
 10
259.5519703480701
 20
127.5436114560229
 30
0.0
 10
258.5461141487762
 20
127.1886231934339
 30
0.0
 10
257.7624159467397
 20
127.1354251928468
 30
0.0
 10
257.407759959838
 20
127.111350888031
 30
0.0
  0
SPLINE
  5
15D
330
1F
100
AcDbEntity
  8
0
  6
HIDDEN
 62
     7
370
     0
100
AcDbSpline
210
0.0
220
0.0
230
1.0
 70
     8
 71
     3
 72
    12
 73
     8
 74
     0
 42
0.00000001
 43
0.00000001
 12
1.0
 22
0.0
 32
0.0
 13
1.0
 23
0.0
 33
0.0
 40
0.0
 40
0.0
 40
0.0
 40
0.0
 40
0.1887391672437759
 40
0.3765725507316297
 40
0.5860633616423805
 40
0.8161893670334756
 40
1.0
 40
1.0
 40
1.0
 40
1.0
 10
247.4077620460006
 20
127.111350888031
 30
0.0
 10
247.053543348009
 20
127.1349353762176
 30
0.0
 10
246.346805893524
 20
127.1819911675715
 30
0.0
 10
245.3827408117737
 20
127.4976707880864
 30
0.0
 10
244.5676346749202
 20
127.865503968461
 30
0.0
 10
244.0004946835999
 20
128.1832720448592
 30
0.0
 10
243.9505750328556
 20
128.2129045311514
 30
0.0
 10
243.9284079624625
 20
128.2260629847817
 30
0.0
  0
LINE
  5
15E
330
1F
100
AcDbEntity
  8
0
  6
HIDDEN
 62
     7
370
     0
100
AcDbLine
 10
247.1614644779
 20
127.1373562083
 30
0.0
 11
247.4264928056
 21
127.1133299485
 31
0.0
  0
SPLINE
  5
15F
330
1F
100
AcDbEntity
  8
0
  6
HIDDEN
 62
     7
370
     0
100
AcDbSpline
210
0.0
220
0.0
230
1.0
 70
     8
 71
     3
 72
    13
 73
     9
 74
     0
 42
0.00000001
 43
0.00000001
 12
1.0
 22
0.0
 32
0.0
 13
1.0
 23
0.0
 33
0.0
 40
0.0
 40
0.0
 40
0.0
 40
0.0
 40
0.0073456904071579
 40
0.1929222814999385
 40
0.3776876927041636
 40
0.5828927806117369
 40
0.8112422732964608
 40
1.0
 40
1.0
 40
1.0
 40
1.0
 10
250.9010598911258
 20
128.2341119401328
 30
0.0
 10
250.9032914603071
 20
128.2353907535503
 30
0.0
 10
250.9618998951769
 20
128.2689766506472
 30
0.0
 10
250.7642612039331
 20
128.153824078985
 30
0.0
 10
250.3273404602305
 20
127.9112801953491
 30
0.0
 10
249.5519713771297
 20
127.5436102766631
 30
0.0
 10
248.5461143056091
 20
127.1886240317852
 30
0.0
 10
247.7624166370899
 20
127.1354254000891
 30
0.0
 10
247.4077620460006
 20
127.111350888031
 30
0.0
  0
SPLINE
  5
160
330
1F
100
AcDbEntity
  8
0
  6
HIDDEN
 62
     7
370
     0
100
AcDbSpline
210
0.0
220
0.0
230
1.0
 70
     8
 71
     3
 72
    12
 73
     8
 74
     0
 42
0.00000001
 43
0.00000001
 12
1.0
 22
0.0
 32
0.0
 13
1.0
 23
0.0
 33
0.0
 40
0.0
 40
0.0
 40
0.0
 40
0.0
 40
0.1887392053672215
 40
0.3765720478846634
 40
0.5860633623965609
 40
0.8161894142708336
 40
1.0
 40
1.0
 40
1.0
 40
1.0
 10
237.4077604068728
 20
127.111350888031
 30
0.0
 10
237.0535415465227
 20
127.1349352435426
 30
0.0
 10
236.3468048545783
 20
127.181990697844
 30
0.0
 10
235.3827422709711
 20
127.4976719362277
 30
0.0
 10
234.5676329690706
 20
127.8655033080629
 30
0.0
 10
234.0004920015194
 20
128.1832720863006
 30
0.0
 10
233.9505756488401
 20
128.21290454622
 30
0.0
 10
233.9284100486251
 20
128.2260629847817
 30
0.0
  0
LINE
  5
161
330
1F
100
AcDbEntity
  8
0
  6
HIDDEN
 62
     7
370
     0
100
AcDbLine
 10
237.1614665641
 20
127.1373562083
 30
0.0
 11
237.4264911665
 21
127.1133299485
 31
0.0
  0
SPLINE
  5
162
330
1F
100
AcDbEntity
  8
0
  6
HIDDEN
 62
     7
370
     0
100
AcDbSpline
210
0.0
220
0.0
230
1.0
 70
     8
 71
     3
 72
    13
 73
     9
 74
     0
 42
0.00000001
 43
0.00000001
 12
1.0
 22
0.0
 32
0.0
 13
1.0
 23
0.0
 33
0.0
 40
0.0
 40
0.0
 40
0.0
 40
0.0
 40
0.007345688480074
 40
0.1929221253185992
 40
0.3776877712690463
 40
0.5828928053426863
 40
0.811241670096209
 40
0.9999999999999999
 40
0.9999999999999999
 40
0.9999999999999999
 40
0.9999999999999999
 10
240.901058251998
 20
128.2341119401328
 30
0.0
 10
240.9032898196116
 20
128.2353907536296
 30
0.0
 10
240.961898181233
 20
128.2689766344284
 30
0.0
 10
240.7642658388619
 20
128.1538237907413
 30
0.0
 10
240.3273374375208
 20
127.9112804450264
 30
0.0
 10
239.5519707497046
 20
127.5436108377697
 30
0.0
 10
238.5461144584453
 20
127.1886232708906
 30
0.0
 10
237.762416350978
 20
127.1354252169785
 30
0.0
 10
237.4077604068728
 20
127.111350888031
 30
0.0
  0
LINE
  5
163
330
1F
100
AcDbEntity
  8
0
  6
HIDDEN
 62
     7
370
     0
100
AcDbLine
 10
237.4077604069
 20
125.7379537016
 30
0.0
 11
236.988918568
 21
125.674240993
 31
0.0
  0
SPLINE
  5
164
330
1F
100
AcDbEntity
  8
0
  6
HIDDEN
 62
     7
370
     0
100
AcDbSpline
210
0.0
220
0.0
230
1.0
 70
     8
 71
     3
 72
    10
 73
     6
 74
     0
 42
0.00000001
 43
0.00000001
 12
1.0
 22
0.0
 32
0.0
 13
1.0
 23
0.0
 33
0.0
 40
0.0
 40
0.0
 40
0.0
 40
0.0
 40
0.4696421693692718
 40
0.9572864724515003
 40
1.0
 40
1.0
 40
1.0
 40
1.0
 10
236.5123384548636
 20
118.8593537114732
 30
0.0
 10
236.8200357946655
 20
118.8048032403602
 30
0.0
 10
237.4472250042658
 20
118.6936112915356
 30
0.0
 10
238.1509426641925
 20
118.7617725482184
 30
0.0
 10
238.462958282764
 20
118.9080577555406
 30
0.0
 10
238.4880871428462
 20
118.9198391545735
 30
0.0
  0
LINE
  5
165
330
1F
100
AcDbEntity
  8
0
  6
HIDDEN
 62
     7
370
     0
100
AcDbLine
 10
237.6399503006
 20
125.7026051205
 30
0.0
 11
237.4077604069
 21
125.7379537016
 31
0.0
  0
LINE
  5
166
330
1F
100
AcDbEntity
  8
0
  6
HIDDEN
 62
     7
370
     0
100
AcDbLine
 10
257.4077599598
 20
125.7379537016
 30
0.0
 11
256.988918121
 21
125.674240993
 31
0.0
  0
SPLINE
  5
167
330
1F
100
AcDbEntity
  8
0
  6
HIDDEN
 62
     7
370
     0
100
AcDbSpline
210
0.0
220
0.0
230
1.0
 70
     8
 71
     3
 72
    10
 73
     6
 74
     0
 42
0.00000001
 43
0.00000001
 12
1.0
 22
0.0
 32
0.0
 13
1.0
 23
0.0
 33
0.0
 40
0.0
 40
0.0
 40
0.0
 40
0.0
 40
0.4696420804832886
 40
0.9572881098628135
 40
1.0
 40
1.0
 40
1.0
 40
1.0
 10
256.5123380078288
 20
118.8593537114732
 30
0.0
 10
256.8200349314468
 20
118.804803981628
 30
0.0
 10
257.4472244842181
 20
118.6936133325207
 30
0.0
 10
258.1509469023306
 20
118.7617668788926
 30
0.0
 10
258.4629590803317
 20
118.9080577527986
 30
0.0
 10
258.4880866958114
 20
118.9198391545735
 30
0.0
  0
LINE
  5
168
330
1F
100
AcDbEntity
  8
0
  6
HIDDEN
 62
     7
370
     0
100
AcDbLine
 10
257.6399498536
 20
125.7026051205
 30
0.0
 11
257.4077599598
 21
125.7379537016
 31
0.0
  0
LINE
  5
169
330
1F
100
AcDbEntity
  8
0
  6
HIDDEN
 62
     7
370
     0
100
AcDbLine
 10
247.407762046
 20
125.7379537016
 30
0.0
 11
246.9889164819
 21
125.674240993
 31
0.0
  0
SPLINE
  5
16A
330
1F
100
AcDbEntity
  8
0
  6
HIDDEN
 62
     7
370
     0
100
AcDbSpline
210
0.0
220
0.0
230
1.0
 70
     8
 71
     3
 72
    10
 73
     6
 74
     0
 42
0.00000001
 43
0.00000001
 12
1.0
 22
0.0
 32
0.0
 13
1.0
 23
0.0
 33
0.0
 40
0.0
 40
0.0
 40
0.0
 40
0.0
 40
0.469640346383329
 40
0.9572864720975265
 40
1.0
 40
1.0
 40
1.0
 40
1.0
 10
246.5123400939914
 20
118.8593537114732
 30
0.0
 10
246.820036193207
 20
118.8048033735807
 30
0.0
 10
247.4472253083769
 20
118.693611264736
 30
0.0
 10
248.1509432314182
 20
118.7617720504283
 30
0.0
 10
248.4629599217424
 20
118.9080577558253
 30
0.0
 10
248.4880887819739
 20
118.9198391545735
 30
0.0
  0
LINE
  5
16B
330
1F
100
AcDbEntity
  8
0
  6
HIDDEN
 62
     7
370
     0
100
AcDbLine
 10
247.6399519397
 20
125.7026051205
 30
0.0
 11
247.407762046
 21
125.7379537016
 31
0.0
  0
LINE
  5
16C
330
1F
100
AcDbEntity
  8
0
  6
HIDDEN
 62
     7
370
     0
100
AcDbLine
 10
218.6697904868
 20
161.1889146768
 30
0.0
 11
218.6697904868
 21
153.5879552864
 31
0.0
  0
LINE
  5
16D
330
1F
100
AcDbEntity
  8
0
  6
HIDDEN
 62
     7
370
     0
100
AcDbLine
 10
217.3177615656
 20
156.9521904491
 30
0.0
 11
217.3177615656
 21
153.5879552864
 31
0.0
  0
LINE
  5
16E
330
1F
100
AcDbEntity
  8
0
  6
HIDDEN
 62
     7
370
     0
100
AcDbLine
 10
213.4977613492
 20
156.9521904491
 30
0.0
 11
213.4977613492
 21
153.5879552864
 31
0.0
  0
CIRCLE
  5
16F
330
1F
100
AcDbEntity
  8
0
  6
HIDDEN
 62
     7
370
     0
100
AcDbCircle
 10
202.4077609731
 20
122.2379535936
 30
0.0
 40
5.000000000000014
  0
LINE
  5
170
330
1F
100
AcDbEntity
  8
0
  6
HIDDEN
 62
     7
370
     0
100
AcDbLine
 10
261.4077606155
 20
139.637953838
 30
0.0
 11
260.8077579094
 21
140.2379528187
 31
0.0
  0
LINE
  5
171
330
1F
100
AcDbEntity
  8
0
  6
HIDDEN
 62
     7
370
     0
100
AcDbLine
 10
254.0077620102
 20
140.2379528187
 30
0.0
 11
253.4077593042
 21
139.637953838
 31
0.0
  0
LINE
  5
172
330
1F
100
AcDbEntity
  8
0
  6
HIDDEN
 62
     7
370
     0
100
AcDbLine
 10
253.4077593042
 20
139.637953838
 30
0.0
 11
253.4077593042
 21
130.9879536309
 31
0.0
  0
LINE
  5
173
330
1F
100
AcDbEntity
  8
0
  6
HIDDEN
 62
     7
370
     0
100
AcDbLine
 10
261.4077606155
 20
130.9879536309
 30
0.0
 11
261.4077606155
 21
139.637953838
 31
0.0
  0
LINE
  5
174
330
1F
100
AcDbEntity
  8
0
  6
HIDDEN
 62
     7
370
     0
100
AcDbLine
 10
253.4077593042
 20
130.9879536309
 30
0.0
 11
254.6577618374
 21
129.737953426
 31
0.0
  0
LINE
  5
175
330
1F
100
AcDbEntity
  8
0
  6
HIDDEN
 62
     7
370
     0
100
AcDbLine
 10
260.1577618076
 20
129.737953426
 30
0.0
 11
261.4077606155
 21
130.9879536309
 31
0.0
  0
LINE
  5
176
330
1F
100
AcDbEntity
  8
0
  6
HIDDEN
 62
     7
370
     0
100
AcDbLine
 10
259.2577614738
 20
129.737953426
 30
0.0
 11
257.4077599598
 21
130.8060514309
 31
0.0
  0
LINE
  5
177
330
1F
100
AcDbEntity
  8
0
  6
HIDDEN
 62
     7
370
     0
100
AcDbLine
 10
257.4077599598
 20
130.8060514309
 30
0.0
 11
255.5577621712
 21
129.737953426
 31
0.0
  0
LINE
  5
178
330
1F
100
AcDbEntity
  8
0
  6
HIDDEN
 62
     7
370
     0
100
AcDbLine
 10
243.4077613903
 20
139.637953838
 30
0.0
 11
243.4077613903
 21
130.9879536309
 31
0.0
  0
LINE
  5
179
330
1F
100
AcDbEntity
  8
0
  6
HIDDEN
 62
     7
370
     0
100
AcDbLine
 10
251.4077627017
 20
130.9879536309
 30
0.0
 11
251.4077627017
 21
139.637953838
 31
0.0
  0
LINE
  5
17A
330
1F
100
AcDbEntity
  8
0
  6
HIDDEN
 62
     7
370
     0
100
AcDbLine
 10
243.4077613903
 20
130.9879536309
 30
0.0
 11
244.6577601983
 21
129.737953426
 31
0.0
  0
LINE
  5
17B
330
1F
100
AcDbEntity
  8
0
  6
HIDDEN
 62
     7
370
     0
100
AcDbLine
 10
250.1577601685
 20
129.737953426
 30
0.0
 11
251.4077627017
 21
130.9879536309
 31
0.0
  0
LINE
  5
17C
330
1F
100
AcDbEntity
  8
0
  6
HIDDEN
 62
     7
370
     0
100
AcDbLine
 10
251.4077627017
 20
139.637953838
 30
0.0
 11
250.8077599956
 21
140.2379528187
 31
0.0
  0
LINE
  5
17D
330
1F
100
AcDbEntity
  8
0
  6
HIDDEN
 62
     7
370
     0
100
AcDbLine
 10
244.0077603711
 20
140.2379528187
 30
0.0
 11
243.4077613903
 21
139.637953838
 31
0.0
  0
LINE
  5
17E
330
1F
100
AcDbEntity
  8
0
  6
HIDDEN
 62
     7
370
     0
100
AcDbLine
 10
249.2577598347
 20
129.737953426
 30
0.0
 11
247.407762046
 21
130.8060514309
 31
0.0
  0
LINE
  5
17F
330
1F
100
AcDbEntity
  8
0
  6
HIDDEN
 62
     7
370
     0
100
AcDbLine
 10
247.407762046
 20
130.8060514309
 30
0.0
 11
245.557760532
 21
129.737953426
 31
0.0
  0
LINE
  5
180
330
1F
100
AcDbEntity
  8
0
  6
HIDDEN
 62
     7
370
     0
100
AcDbLine
 10
233.4077597512
 20
139.637953838
 30
0.0
 11
233.4077597512
 21
130.9879536309
 31
0.0
  0
LINE
  5
181
330
1F
100
AcDbEntity
  8
0
  6
HIDDEN
 62
     7
370
     0
100
AcDbLine
 10
241.4077610625
 20
130.9879536309
 30
0.0
 11
241.4077610625
 21
139.637953838
 31
0.0
  0
LINE
  5
182
330
1F
100
AcDbEntity
  8
0
  6
HIDDEN
 62
     7
370
     0
100
AcDbLine
 10
233.4077597512
 20
130.9879536309
 30
0.0
 11
234.6577622844
 21
129.737953426
 31
0.0
  0
LINE
  5
183
330
1F
100
AcDbEntity
  8
0
  6
HIDDEN
 62
     7
370
     0
100
AcDbLine
 10
240.1577622546
 20
129.737953426
 30
0.0
 11
241.4077610625
 21
130.9879536309
 31
0.0
  0
LINE
  5
184
330
1F
100
AcDbEntity
  8
0
  6
HIDDEN
 62
     7
370
     0
100
AcDbLine
 10
241.4077610625
 20
139.637953838
 30
0.0
 11
240.8077620818
 21
140.2379528187
 31
0.0
  0
LINE
  5
185
330
1F
100
AcDbEntity
  8
0
  6
HIDDEN
 62
     7
370
     0
100
AcDbLine
 10
234.0077624573
 20
140.2379528187
 30
0.0
 11
233.4077597512
 21
139.637953838
 31
0.0
  0
LINE
  5
186
330
1F
100
AcDbEntity
  8
0
  6
HIDDEN
 62
     7
370
     0
100
AcDbLine
 10
239.2577619208
 20
129.737953426
 30
0.0
 11
237.4077604069
 21
130.8060514309
 31
0.0
  0
LINE
  5
187
330
1F
100
AcDbEntity
  8
0
  6
HIDDEN
 62
     7
370
     0
100
AcDbLine
 10
237.4077604069
 20
130.8060514309
 30
0.0
 11
235.5577626182
 21
129.737953426
 31
0.0
  0
LINE
  5
188
330
1F
100
AcDbEntity
  8
0
  6
HIDDEN
 62
     7
370
     0
100
AcDbLine
 10
195.4077609731
 20
82.8332707785
 30
0.0
 11
195.497362594
 21
83.4708206855
 31
0.0
  0
LINE
  5
189
330
1F
100
AcDbEntity
  8
0
  6
HIDDEN
 62
     7
370
     0
100
AcDbLine
 10
195.497362594
 20
161.0050865017
 30
0.0
 11
195.4077609731
 21
161.6426364087
 31
0.0
  0
ARC
  5
18A
330
1F
100
AcDbEntity
  8
0
  6
HIDDEN
 62
     7
370
     0
100
AcDbCircle
 10
194.5108240547
 20
83.6094682692
 30
0.0
 40
0.9962338214386721
100
AcDbArc
 50
352.0
 51
0.0
  0
ARC
  5
18B
330
1F
100
AcDbEntity
  8
0
  6
HIDDEN
 62
     7
370
     0
100
AcDbCircle
 10
194.5108240547
 20
83.6094682692
 30
0.0
 40
0.9962338214386665
100
AcDbArc
 50
0.0
 51
25.7988228126
  0
ARC
  5
18C
330
1F
100
AcDbEntity
  8
0
  6
HIDDEN
 62
     7
370
     0
100
AcDbCircle
 10
194.5108240547
 20
160.866438918
 30
0.0
 40
0.996233821438676
100
AcDbArc
 50
348.75
 51
8.0
  0
LWPOLYLINE
  5
18D
330
1F
100
AcDbEntity
  8
0
  6
HIDDEN
 62
     7
370
     0
100
AcDbPolyline
 90
        3
 70
   128
 43
0.0
 10
195.4879155197
 20
160.6720828019
 10
195.431224092
 20
160.4851961635
 10
195.4077609731
 20
160.4328670107
  0
LINE
  5
18E
330
1F
100
AcDbEntity
  8
0
  6
HIDDEN
 62
     7
370
     0
100
AcDbLine
 10
195.507057873
 20
83.6094685398
 30
0.0
 11
195.507057873
 21
160.8664386474
 31
0.0
  0
ARC
  5
18F
330
1F
100
AcDbEntity
  8
0
  6
HIDDEN
 62
     7
370
     0
100
AcDbCircle
 10
185.6609666283
 20
102.7379535936
 30
0.0
 40
12.00000000000001
100
AcDbArc
 50
273.1745040388
 51
324.3146652873
  0
ARC
  5
190
330
1F
100
AcDbEntity
  8
0
  6
HIDDEN
 62
     7
370
     0
100
AcDbCircle
 10
185.6609666283
 20
141.7379535936
 30
0.0
 40
11.99999999999999
100
AcDbArc
 50
35.6853347127
 51
86.828907754
  0
ARC
  5
191
330
1F
100
AcDbEntity
  8
0
  6
HIDDEN
 62
     7
370
     0
100
AcDbCircle
 10
168.8684869153
 20
91.7379535936
 30
0.0
 40
1.000000000000008
100
AcDbArc
 50
210.0
 51
270.0
  0
ARC
  5
192
330
1F
100
AcDbEntity
  8
0
  6
HIDDEN
 62
     7
370
     0
100
AcDbCircle
 10
168.8684869153
 20
152.7379535936
 30
0.0
 40
1.000000000000008
100
AcDbArc
 50
90.0
 51
150.0
  0
LINE
  5
193
330
1F
100
AcDbEntity
  8
0
  6
HIDDEN
 62
     7
370
     0
100
AcDbLine
 10
168.8684874131
 20
90.737953087
 30
0.0
 11
174.4535916401
 21
90.737953087
 31
0.0
  0
LINE
  5
194
330
1F
100
AcDbEntity
  8
0
  6
HIDDEN
 62
     7
370
     0
100
AcDbLine
 10
174.4535916401
 20
153.7379541002
 30
0.0
 11
168.8684874131
 21
153.7379541002
 31
0.0
  0
LINE
  5
195
330
1F
100
AcDbEntity
  8
0
  6
HIDDEN
 62
     7
370
     0
100
AcDbLine
 10
168.0024617268
 20
153.237953087
 30
0.0
 11
165.404384668
 21
148.7379532807
 31
0.0
  0
LINE
  5
196
330
1F
100
AcDbEntity
  8
0
  6
HIDDEN
 62
     7
370
     0
100
AcDbLine
 10
165.404384668
 20
95.7379539065
 30
0.0
 11
168.0024617268
 21
91.2379541002
 31
0.0
  0
ARC
  5
197
330
1F
100
AcDbEntity
  8
0
  6
HIDDEN
 62
     7
370
     0
100
AcDbCircle
 10
205.8577609731
 20
97.3629535936
 30
0.0
 40
2.000000000000015
100
AcDbArc
 50
234.3409123039
 51
0.0
  0
ARC
  5
198
330
1F
100
AcDbEntity
  8
0
  6
HIDDEN
 62
     7
370
     0
100
AcDbCircle
 10
205.8577609731
 20
147.1129535936
 30
0.0
 40
2.000000000000003
100
AcDbArc
 50
0.0
 51
125.6590876961
  0
LINE
  5
199
330
1F
100
AcDbEntity
  8
0
  6
HIDDEN
 62
     7
370
     0
100
AcDbLine
 10
160.6077604844
 20
95.7379539065
 30
0.0
 11
165.404384668
 21
95.7379539065
 31
0.0
  0
LINE
  5
19A
330
1F
100
AcDbEntity
  8
0
  6
HIDDEN
 62
     7
370
     0
100
AcDbLine
 10
165.404384668
 20
148.7379532807
 30
0.0
 11
155.6077615274
 21
148.7379532807
 31
0.0
  0
LINE
  5
19B
330
1F
100
AcDbEntity
  8
0
  6
HIDDEN
 62
     7
370
     0
100
AcDbLine
 10
195.4077609731
 20
95.7379539065
 30
0.0
 11
204.6918381853
 21
95.7379539065
 31
0.0
  0
LINE
  5
19C
330
1F
100
AcDbEntity
  8
0
  6
HIDDEN
 62
     7
370
     0
100
AcDbLine
 10
204.6918381853
 20
148.7379532807
 30
0.0
 11
195.4077609731
 21
148.7379532807
 31
0.0
  0
LINE
  5
19D
330
1F
100
AcDbEntity
  8
0
  6
HIDDEN
 62
     7
370
     0
100
AcDbLine
 10
219.7077606721
 20
109.2379533254
 30
0.0
 11
223.7077613278
 21
109.2379533254
 31
0.0
  0
LINE
  5
19E
330
1F
100
AcDbEntity
  8
0
  6
HIDDEN
 62
     7
370
     0
100
AcDbLine
 10
223.7077613278
 20
135.2379538618
 30
0.0
 11
219.7077606721
 21
135.2379538618
 31
0.0
  0
LINE
  5
19F
330
1F
100
AcDbEntity
  8
0
  6
HIDDEN
 62
     7
370
     0
100
AcDbLine
 10
207.8577612443
 20
110.2379534893
 30
0.0
 11
208.6077609016
 21
110.9879531466
 31
0.0
  0
LINE
  5
1A0
330
1F
100
AcDbEntity
  8
0
  6
HIDDEN
 62
     7
370
     0
100
AcDbLine
 10
208.6077609016
 20
133.4879540406
 30
0.0
 11
207.8577612443
 21
134.2379536979
 31
0.0
  0
LINE
  5
1A1
330
1F
100
AcDbEntity
  8
0
  6
HIDDEN
 62
     7
370
     0
100
AcDbLine
 10
208.6077609016
 20
110.9879531466
 30
0.0
 11
219.7077606721
 21
110.9879531466
 31
0.0
  0
LINE
  5
1A2
330
1F
100
AcDbEntity
  8
0
  6
HIDDEN
 62
     7
370
     0
100
AcDbLine
 10
219.7077606721
 20
133.4879540406
 30
0.0
 11
208.6077609016
 21
133.4879540406
 31
0.0
  0
LINE
  5
1A3
330
1F
100
AcDbEntity
  8
0
  6
HIDDEN
 62
     7
370
     0
100
AcDbLine
 10
200.3577609463
 20
172.2379543387
 30
0.0
 11
200.3577609463
 21
166.1379553877
 31
0.0
  0
LINE
  5
1A4
330
1F
100
AcDbEntity
  8
0
  6
HIDDEN
 62
     7
370
     0
100
AcDbLine
 10
186.8404733865
 20
84.6596725784
 30
0.0
 11
186.4077641545
 21
85.1378992699
 31
0.0
  0
LINE
  5
1A5
330
1F
100
AcDbEntity
  8
0
  6
HIDDEN
 62
     7
370
     0
100
AcDbLine
 10
174.4077612562
 20
85.7848592602
 30
0.0
 11
173.9271336152
 21
85.306636294
 31
0.0
  0
LINE
  5
1A6
330
1F
100
AcDbEntity
  8
0
  6
HIDDEN
 62
     7
370
     0
100
AcDbLine
 10
173.9270162685
 20
159.1692671679
 30
0.0
 11
174.4077612562
 21
158.6909845971
 31
0.0
  0
LINE
  5
1A7
330
1F
100
AcDbEntity
  8
0
  6
HIDDEN
 62
     7
370
     0
100
AcDbLine
 10
186.4077613605
 20
159.3379594885
 30
0.0
 11
186.8405823512
 21
159.816238334
 31
0.0
  0
ARC
  5
1A8
330
1F
100
AcDbEntity
  8
0
  6
HIDDEN
 62
     7
370
     0
100
AcDbCircle
 10
265.1077609731
 20
128.5379535936
 30
0.0
 40
0.3000000000000114
100
AcDbArc
 50
270.0
 51
0.0
  0
ARC
  5
1A9
330
1F
100
AcDbEntity
  8
0
  6
HIDDEN
 62
     7
370
     0
100
AcDbCircle
 10
265.1077609731
 20
115.9379535936
 30
0.0
 40
0.3000000000000114
100
AcDbArc
 50
0.0
 51
90.0
  0
LINE
  5
1AA
330
1F
100
AcDbEntity
  8
0
  6
HIDDEN
 62
     7
370
     0
100
AcDbLine
 10
232.5835169209
 20
115.9379535854
 30
0.0
 11
233.4077597512
 21
116.2379535414
 31
0.0
  0
LINE
  5
1AB
330
1F
100
AcDbEntity
  8
0
  6
HIDDEN
 62
     7
370
     0
100
AcDbLine
 10
233.4077597512
 20
128.2379536458
 30
0.0
 11
232.5835169209
 21
128.5379536018
 31
0.0
  0
LINE
  5
1AC
330
1F
100
AcDbEntity
  8
0
  6
HIDDEN
 62
     7
370
     0
100
AcDbLine
 10
232.5835169209
 20
128.5379536018
 30
0.0
 11
229.8077621414
 21
128.5379536018
 31
0.0
  0
LINE
  5
1AD
330
1F
100
AcDbEntity
  8
0
  6
HIDDEN
 62
     7
370
     0
100
AcDbLine
 10
229.8077621414
 20
115.9379535854
 30
0.0
 11
232.5835169209
 21
115.9379535854
 31
0.0
  0
ARC
  5
1AE
330
1F
100
AcDbEntity
  8
0
  6
HIDDEN
 62
     7
370
     0
100
AcDbCircle
 10
229.8077609731
 20
128.1379535936
 30
0.0
 40
0.4000000000000057
100
AcDbArc
 50
90.0
 51
180.0
  0
ARC
  5
1AF
330
1F
100
AcDbEntity
  8
0
  6
HIDDEN
 62
     7
370
     0
100
AcDbCircle
 10
229.8077609731
 20
116.3379535936
 30
0.0
 40
0.4000000000000057
100
AcDbArc
 50
180.0
 51
270.0
  0
LINE
  5
1B0
330
1F
100
AcDbEntity
  8
0
  6
HIDDEN
 62
     7
370
     0
100
AcDbLine
 10
186.4077613605
 20
153.7038304411
 30
0.0
 11
186.4077613605
 21
159.3378067516
 31
0.0
  0
LINE
  5
1B1
330
1F
100
AcDbEntity
  8
0
  6
HIDDEN
 62
     7
370
     0
100
AcDbLine
 10
174.4077612562
 20
158.6909771465
 30
0.0
 11
174.4077612562
 21
153.7294753395
 31
0.0
  0
LINE
  5
1B2
330
1F
100
AcDbEntity
  8
0
  6
HIDDEN
 62
     7
370
     0
100
AcDbLine
 10
186.4077613605
 20
85.1380184792
 30
0.0
 11
186.4077613605
 21
90.7720767461
 31
0.0
  0
LINE
  5
1B3
330
1F
100
AcDbEntity
  8
0
  6
HIDDEN
 62
     7
370
     0
100
AcDbLine
 10
174.4077612562
 20
90.7464318477
 30
0.0
 11
174.4077612562
 21
85.7849002384
 31
0.0
  0
LINE
  5
1B4
330
1F
100
AcDbEntity
  8
0
  6
HIDDEN
 62
     7
370
     0
100
AcDbLine
 10
233.9284100486
 20
128.2379536458
 30
0.0
 11
233.4077597512
 21
128.2379536458
 31
0.0
  0
LINE
  5
1B5
330
1F
100
AcDbEntity
  8
0
  6
HIDDEN
 62
     7
370
     0
100
AcDbLine
 10
243.9284079625
 20
128.2379536458
 30
0.0
 11
240.901058252
 21
128.2379536458
 31
0.0
  0
LINE
  5
1B6
330
1F
100
AcDbEntity
  8
0
  6
HIDDEN
 62
     7
370
     0
100
AcDbLine
 10
253.9284096016
 20
128.2379536458
 30
0.0
 11
250.9010598911
 21
128.2379536458
 31
0.0
  0
LINE
  5
1B7
330
1F
100
AcDbEntity
  8
0
  6
HIDDEN
 62
     7
370
     0
100
AcDbLine
 10
265.1077636434
 20
128.2379536458
 30
0.0
 11
260.9010615303
 21
128.2379536458
 31
0.0
  0
LINE
  5
1B8
330
1F
100
AcDbEntity
  8
0
  6
HIDDEN
 62
     7
370
     0
100
AcDbLine
 10
233.4077597512
 20
116.2379535414
 30
0.0
 11
265.1077636434
 21
116.2379535414
 31
0.0
  0
LINE
  5
1B9
330
1F
100
AcDbEntity
  8
0
  6
HIDDEN
 62
     7
370
     0
100
AcDbLine
 10
223.7077613278
 20
117.9879533626
 30
0.0
 11
229.4077628209
 21
117.9879533626
 31
0.0
  0
LINE
  5
1BA
330
1F
100
AcDbEntity
  8
0
  6
HIDDEN
 62
     7
370
     0
100
AcDbLine
 10
229.4077628209
 20
126.4879538246
 30
0.0
 11
223.7077613278
 21
126.4879538246
 31
0.0
  0
LINE
  5
1BB
330
1F
100
AcDbEntity
  8
0
  6
HIDDEN
 62
     7
370
     0
100
AcDbLine
 10
243.9077624036
 20
140.2379528187
 30
0.0
 11
243.9077624036
 21
128.226191973
 31
0.0
  0
LINE
  5
1BC
330
1F
100
AcDbEntity
  8
0
  6
HIDDEN
 62
     7
370
     0
100
AcDbLine
 10
250.9077616884
 20
128.2341757357
 30
0.0
 11
250.9077616884
 21
140.2379528187
 31
0.0
  0
LINE
  5
1BD
330
1F
100
AcDbEntity
  8
0
  6
HIDDEN
 62
     7
370
     0
100
AcDbLine
 10
233.9077607645
 20
140.2379528187
 30
0.0
 11
233.9077607645
 21
128.226191973
 31
0.0
  0
LINE
  5
1BE
330
1F
100
AcDbEntity
  8
0
  6
HIDDEN
 62
     7
370
     0
100
AcDbLine
 10
240.9077600492
 20
128.2341757357
 30
0.0
 11
240.9077600492
 21
140.2379528187
 31
0.0
  0
LINE
  5
1BF
330
1F
100
AcDbEntity
  8
0
  6
HIDDEN
 62
     7
370
     0
100
AcDbLine
 10
253.9077603175
 20
140.2379528187
 30
0.0
 11
253.9077603175
 21
128.226191973
 31
0.0
  0
LINE
  5
1C0
330
1F
100
AcDbEntity
  8
0
  6
HIDDEN
 62
     7
370
     0
100
AcDbLine
 10
260.9077596022
 20
128.2341757357
 30
0.0
 11
260.9077596022
 21
140.2379528187
 31
0.0
  0
DIMENSION
  5
1C1
330
1F
100
AcDbEntity
  8
VERMASSUNG
100
AcDbDimension
  2
_D
 10
137.624554887
 20
72.2379535936
 30
0.0
 11
137.624554887
 21
121.6561057164
 31
0.0
 70
   160
  1
HSK A %%c<>
 71
     2
 42
-1.0
  3
SLDDIMSTYLE0
100
AcDbAlignedDimension
 13
195.9077609731
 23
172.2379535936
 33
0.0
 14
195.9077609731
 24
72.2379535936
 34
0.0
 50
90.0
100
AcDbRotatedDimension
  0
DIMENSION
  5
1CE
330
1F
100
AcDbEntity
  8
VERMASSUNG
100
AcDbDimension
  2
_D_1
 10
145.5077609731
 20
189.9615006313
 30
0.0
 11
209.9266681324
 21
189.9615006313
 31
0.0
 70
   160
  1
<>
 71
     2
 42
-1.0
  3
SLDDIMSTYLE0
100
AcDbAlignedDimension
 13
265.4077609731
 23
139.2379535936
 33
0.0
 14
145.5077609731
 24
152.7406233362
 34
0.0
100
AcDbRotatedDimension
  0
DIMENSION
  5
1D8
330
1F
100
AcDbEntity
  8
VERMASSUNG
100
AcDbDimension
  2
_D_2
 10
265.4077609731
 20
183.9615006313
 30
0.0
 11
229.516491522
 21
183.9615006313
 31
0.0
 70
   160
  1
<>
 71
     2
 42
-1.0
  3
SLDDIMSTYLE0
100
AcDbAlignedDimension
 13
195.4077609731
 23
171.7379535936
 33
0.0
 14
265.4077609731
 24
139.2379535936
 34
0.0
100
AcDbRotatedDimension
  0
DIMENSION
  5
1E2
330
1F
100
AcDbEntity
  8
VERMASSUNG
100
AcDbDimension
  2
_D_3
 10
265.4077609731
 20
177.9615006313
 30
0.0
 11
245.7699421921
 21
177.9615006313
 31
0.0
 70
   160
  1
<>
 71
     2
 42
-1.0
  3
SLDDIMSTYLE0
100
AcDbAlignedDimension
 13
224.3577609731
 23
170.2066934144
 33
0.0
 14
265.4077609731
 24
139.2379535936
 34
0.0
100
AcDbRotatedDimension
  0
DIMENSION
  5
1EC
330
1F
100
AcDbEntity
  8
VERMASSUNG
100
AcDbDimension
  2
_D_4
 10
271.3270643719
 20
116.2379535936
 30
0.0
 11
271.3270643719
 21
122.404262473
 31
0.0
 70
   160
  1
%%c<>
 71
     2
 42
-1.0
  3
SLDDIMSTYLE0
100
AcDbAlignedDimension
 13
265.1077609731
 23
128.2379535936
 33
0.0
 14
265.1077609731
 24
116.2379535936
 34
0.0
 50
90.0
100
AcDbRotatedDimension
  0
DIMENSION
  5
1F7
330
1F
100
AcDbEntity
  8
VERMASSUNG
100
AcDbDimension
  2
_D_5
 10
277.3270643719
 20
104.2379535936
 30
0.0
 11
277.3270643719
 21
121.9992251662
 31
0.0
 70
   160
  1
%%c<>
 71
     2
 42
-1.0
  3
SLDDIMSTYLE0
100
AcDbAlignedDimension
 13
264.4077609731
 23
140.2379535936
 33
0.0
 14
264.4077609731
 24
104.2379535936
 34
0.0
 50
90.0
100
AcDbRotatedDimension
  0
DIMENSION
  5
202
330
1F
100
AcDbEntity
  8
VERMASSUNG
100
AcDbDimension
  2
_D_6
 10
257.4077609731
 20
97.4546399474
 30
0.0
 11
261.3998052694
 21
97.4546399474
 31
0.0
 70
   160
  1
<>
 71
     2
 42
-1.0
  3
SLDDIMSTYLE0
100
AcDbAlignedDimension
 13
265.4077609731
 23
105.2379535936
 33
0.0
 14
257.4077609731
 24
114.4807681804
 34
0.0
100
AcDbRotatedDimension
  0
DIMENSION
  5
20C
330
1F
100
AcDbEntity
  8
VERMASSUNG
100
AcDbDimension
  2
_D_7
 10
257.4077609731
 20
97.4546399474
 30
0.0
 11
252.7582331614
 21
97.4546399474
 31
0.0
 70
   160
  1
<>
 71
     2
 42
-1.0
  3
SLDDIMSTYLE0
100
AcDbAlignedDimension
 13
247.4077609731
 23
114.677996312
 33
0.0
 14
257.4077609731
 24
114.4807681804
 34
0.0
100
AcDbRotatedDimension
  0
DIMENSION
  5
216
330
1F
100
AcDbEntity
  8
VERMASSUNG
100
AcDbDimension
  2
_D_8
 10
237.4077609731
 20
97.4546399474
 30
0.0
 11
243.2892764898
 21
97.4546399474
 31
0.0
 70
   160
  1
<>
 71
     2
 42
-1.0
  3
SLDDIMSTYLE0
100
AcDbAlignedDimension
 13
247.4077609731
 23
114.677996312
 33
0.0
 14
237.4077609731
 24
115.0067098648
 34
0.0
100
AcDbRotatedDimension
  0
DIMENSION
  5
220
330
1F
100
AcDbEntity
  8
VERMASSUNG
100
AcDbDimension
  2
_D_9
 10
265.4077609731
 20
91.4546399474
 30
0.0
 11
248.0118682472
 21
91.4546399474
 31
0.0
 70
   160
  1
<>
 71
     2
 42
-1.0
  3
SLDDIMSTYLE0
100
AcDbAlignedDimension
 13
229.4077609731
 23
116.3379535936
 33
0.0
 14
265.4077609731
 24
105.2379535936
 34
0.0
100
AcDbRotatedDimension
  0
LINE
  5
22A
330
1F
100
AcDbEntity
  8
VERMASSUNG
  6
CENTERX2
 62
     7
370
     0
100
AcDbLine
 10
143.2004119227
 20
122.2379535936
 30
0.0
 11
266.3641126505
 21
122.2379535936
 31
0.0
  0
LINE
  5
22B
330
1F
100
AcDbEntity
  8
VERMASSUNG
  6
CENTERX2
370
     0
100
AcDbLine
 10
247.4077609731
 20
141.2379535936
 30
0.0
 11
247.4077609731
 21
114.677996312
 31
0.0
  0
LINE
  5
22C
330
1F
100
AcDbEntity
  8
VERMASSUNG
  6
CENTERX2
370
     0
100
AcDbLine
 10
237.4077609731
 20
141.2379535936
 30
0.0
 11
237.4077609731
 21
115.0067098648
 31
0.0
  0
LINE
  5
22D
330
1F
100
AcDbEntity
  8
VERMASSUNG
  6
CENTERX2
370
     0
100
AcDbLine
 10
257.4077609731
 20
114.4807681804
 30
0.0
 11
257.4077609731
 21
141.2379535936
 31
0.0
  0
LINE
  5
22E
330
1F
100
AcDbEntity
  8
0
  6
Continuous
 62
     7
370
    15
100
AcDbLine
 10
68.9520961734
 20
139.8307040833
 30
0.0
 11
68.544846041
 21
140.2379528187
 31
0.0
  0
LINE
  5
22F
330
1F
100
AcDbEntity
  8
0
  6
Continuous
 62
     7
370
    15
100
AcDbLine
 10
61.7448459508
 20
140.2379528187
 30
0.0
 11
61.3375958184
 21
139.8307040833
 31
0.0
  0
LINE
  5
230
330
1F
100
AcDbEntity
  8
0
  6
Continuous
 62
     7
370
    15
100
AcDbLine
 10
47.5520955062
 20
126.0452037711
 30
0.0
 11
47.1448467708
 21
125.6379536387
 31
0.0
  0
LINE
  5
231
330
1F
100
AcDbEntity
  8
0
  6
Continuous
 62
     7
370
    15
100
AcDbLine
 10
47.1448467708
 20
118.8379535485
 30
0.0
 11
47.5520955062
 21
118.4307034161
 31
0.0
  0
LINE
  5
232
330
1F
100
AcDbEntity
  8
0
  6
Continuous
 62
     7
370
    15
100
AcDbLine
 10
82.7375964856
 20
118.4307034161
 30
0.0
 11
83.144845221
 21
118.8379535485
 31
0.0
  0
LINE
  5
233
330
1F
100
AcDbEntity
  8
0
  6
Continuous
 62
     7
370
    15
100
AcDbLine
 10
83.144845221
 20
125.6379536387
 30
0.0
 11
82.7375964856
 21
126.0452037711
 31
0.0
  0
LINE
  5
234
330
1F
100
AcDbEntity
  8
0
  6
Continuous
 62
     7
370
    15
100
AcDbLine
 10
61.7448459508
 20
140.2379528187
 30
0.0
 11
68.544846041
 21
140.2379528187
 31
0.0
  0
LINE
  5
235
330
1F
100
AcDbEntity
  8
0
  6
Continuous
 62
     7
370
    15
100
AcDbLine
 10
47.1448467708
 20
118.8379535485
 30
0.0
 11
47.1448467708
 21
125.6379536387
 31
0.0
  0
LINE
  5
236
330
1F
100
AcDbEntity
  8
0
  6
Continuous
 62
     7
370
    15
100
AcDbLine
 10
83.144845221
 20
125.6379536387
 30
0.0
 11
83.144845221
 21
118.8379535485
 31
0.0
  0
CIRCLE
  5
237
330
1F
100
AcDbEntity
  8
0
  6
Continuous
 62
     7
370
    15
100
AcDbCircle
 10
65.1448459959
 20
122.2379535936
 30
0.0
 40
17.99999999999999
  0
CIRCLE
  5
238
330
1F
100
AcDbEntity
  8
0
  6
Continuous
 62
     7
370
    15
100
AcDbCircle
 10
65.1448459959
 20
122.2379535936
 30
0.0
 40
6.000000000000007
  0
CIRCLE
  5
239
330
1F
100
AcDbEntity
  8
0
  6
Continuous
 62
     7
370
    15
100
AcDbCircle
 10
65.1448459959
 20
122.2379535936
 30
0.0
 40
4.249999999999993
  0
SPLINE
  5
23A
330
1F
100
AcDbEntity
  8
0
  6
Continuous
 62
     7
370
    15
100
AcDbSpline
210
0.0
220
0.0
230
1.0
 70
    24
 71
     3
 72
    12
 73
     8
 74
     0
 42
0.00000001
 43
0.00000001
 12
1.0
 22
0.0
 32
0.0
 13
1.0
 23
0.0
 33
0.0
 40
0.0
 40
0.0
 40
0.0
 40
0.0
 40
0.4999999999999953
 40
0.4999999999999953
 40
0.7499999999999977
 40
0.7499999999999977
 40
1.0
 40
1.0
 40
1.0
 40
1.0
 10
55.14484599589326
 20
170.2066934144449
 30
0.0
 10
55.14484599589326
 20
170.4719628472113
 30
0.0
 10
55.14484599589326
 20
170.7344779528637
 30
0.0
 10
55.14484599589326
 20
171.020015558901
 30
0.0
 10
55.14484599589326
 20
171.0963371757624
 30
0.0
 10
55.14484599589326
 20
171.2006793406025
 30
0.0
 10
55.14484599589326
 20
171.2277484492626
 30
0.0
 10
55.14484599589326
 20
171.2277484492626
 30
0.0
  0
SPLINE
  5
23B
330
1F
100
AcDbEntity
  8
0
  6
Continuous
 62
     7
370
    15
100
AcDbSpline
210
0.0
220
0.0
230
1.0
 70
    24
 71
     3
 72
    16
 73
    12
 74
     0
 42
0.00000001
 43
0.00000001
 12
1.0
 22
0.0
 32
0.0
 13
1.0
 23
0.0
 33
0.0
 40
0.0
 40
0.0
 40
0.0
 40
0.0
 40
0.1249999999999978
 40
0.1249999999999978
 40
0.2499999999999955
 40
0.2499999999999955
 40
0.499999999999997
 40
0.499999999999997
 40
0.7499999999999984
 40
0.7499999999999984
 40
1.0
 40
1.0
 40
1.0
 40
1.0
 10
33.79484599589325
 20
161.188916354486
 30
0.0
 10
33.79484599589325
 20
161.188916354486
 30
0.0
 10
33.79484599589325
 20
161.1775713543511
 30
0.0
 10
33.79484599589325
 20
161.1349188037125
 30
0.0
 10
33.79484599589323
 20
161.1039844790297
 30
0.0
 10
33.79484599589325
 20
160.9847281072621
 30
0.0
 10
33.79484599589324
 20
160.8745760936415
 30
0.0
 10
33.79484599589324
 20
160.6264400079834
 30
0.0
 10
33.79484599589324
 20
160.4860976839798
 30
0.0
 10
33.79484599589325
 20
160.1978259924911
 30
0.0
 10
33.79484599589326
 20
160.0470210195113
 30
0.0
 10
33.79484599589325
 20
159.896651128166
 30
0.0
  0
ARC
  5
23C
330
1F
100
AcDbEntity
  8
0
  6
Continuous
 62
     7
370
    15
100
AcDbCircle
 10
65.1448459959
 20
122.2379535936
 30
0.0
 40
50.00000000000001
100
AcDbArc
 50
101.5369590328
 51
128.8291331614
  0
SPLINE
  5
23D
330
1F
100
AcDbEntity
  8
0
  6
Continuous
 62
     7
370
    15
100
AcDbSpline
210
0.0
220
0.0
230
1.0
 70
    24
 71
     3
 72
    14
 73
    10
 74
     0
 42
0.00000001
 43
0.00000001
 12
1.0
 22
0.0
 32
0.0
 13
1.0
 23
0.0
 33
0.0
 40
0.0
 40
0.0
 40
0.0
 40
0.0
 40
0.25
 40
0.25
 40
0.5
 40
0.5
 40
0.75
 40
0.75
 40
1.0
 40
1.0
 40
1.0
 40
1.0
 10
54.14484599589326
 20
74.48860804834575
 30
0.0
 10
54.14484599589326
 20
74.35518235229122
 30
0.0
 10
54.14484599589326
 20
74.22333454444689
 30
0.0
 10
54.14484599589326
 20
73.97681199575275
 30
0.0
 10
54.14484599589326
 20
73.86300680751224
 30
0.0
 10
54.14484599589326
 20
73.67254963056494
 30
0.0
 10
54.14484599589326
 20
73.59491476671504
 30
0.0
 10
54.14484599589326
 20
73.49062335660255
 30
0.0
 10
54.14484599589326
 20
73.4629600005702
 30
0.0
 10
54.14484599589326
 20
73.46296000057022
 30
0.0
  0
ARC
  5
23E
330
1F
100
AcDbEntity
  8
0
  6
Continuous
 62
     7
370
    15
100
AcDbCircle
 10
65.1448459959
 20
122.2379535936
 30
0.0
 40
49.99999999999999
100
AcDbArc
 50
141.1708668386
 51
257.2909670056
  0
SPLINE
  5
23F
330
1F
100
AcDbEntity
  8
0
  6
Continuous
 62
     7
370
    15
100
AcDbSpline
210
0.0
220
0.0
230
1.0
 70
    24
 71
     3
 72
    12
 73
     8
 74
     0
 42
0.00000001
 43
0.00000001
 12
1.0
 22
0.0
 32
0.0
 13
1.0
 23
0.0
 33
0.0
 40
0.0
 40
0.0
 40
0.0
 40
0.0
 40
0.2500000000000032
 40
0.2500000000000032
 40
0.5000000000000064
 40
0.5000000000000064
 40
1.0
 40
1.0
 40
1.0
 40
1.0
 10
26.19388323500633
 20
153.5879535935991
 30
0.0
 10
26.19388323500633
 20
153.5879535935991
 30
0.0
 10
26.23962202167981
 20
153.5879535935991
 30
0.0
 10
26.39685671360582
 20
153.5879535935991
 30
0.0
 10
26.50752592788467
 20
153.5879535935991
 30
0.0
 10
26.88096267576419
 20
153.5879535935991
 30
0.0
 10
27.18532644908407
 20
153.5879535935991
 30
0.0
 10
27.48614846132629
 20
153.5879535935991
 30
0.0
  0
SPLINE
  5
240
330
1F
100
AcDbEntity
  8
0
  6
Continuous
 62
     7
370
    15
100
AcDbSpline
210
0.0
220
0.0
230
1.0
 70
    24
 71
     3
 72
    14
 73
    10
 74
     0
 42
0.00000001
 43
0.00000001
 12
1.0
 22
0.0
 32
0.0
 13
1.0
 23
0.0
 33
0.0
 40
0.0
 40
0.0
 40
0.0
 40
0.0
 40
0.25
 40
0.25
 40
0.5
 40
0.5
 40
0.75
 40
0.75
 40
1.0
 40
1.0
 40
1.0
 40
1.0
 10
75.14484599589326
 20
171.2277484492626
 30
0.0
 10
75.14484599589326
 20
171.2277484492626
 30
0.0
 10
75.14484599589326
 20
171.1999420018142
 30
0.0
 10
75.14484599589326
 20
171.0960829923501
 30
0.0
 10
75.14484599589326
 20
171.0188919837777
 30
0.0
 10
75.14484599589326
 20
170.8297449060648
 30
0.0
 10
75.14484599589326
 20
170.7160406863621
 30
0.0
 10
75.14484599589326
 20
170.4712419193267
 30
0.0
 10
75.14484599589326
 20
170.339113105397
 30
0.0
 10
75.14484599589326
 20
170.2066934144449
 30
0.0
  0
ARC
  5
241
330
1F
100
AcDbEntity
  8
0
  6
Continuous
 62
     7
370
    15
100
AcDbCircle
 10
65.1448459959
 20
122.2379535936
 30
0.0
 40
50.0
100
AcDbArc
 50
282.7090329944
 51
78.4630409672
  0
SPLINE
  5
242
330
1F
100
AcDbEntity
  8
0
  6
Continuous
 62
     7
370
    15
100
AcDbSpline
210
0.0
220
0.0
230
1.0
 70
    24
 71
     3
 72
    14
 73
    10
 74
     0
 42
0.00000001
 43
0.00000001
 12
1.0
 22
0.0
 32
0.0
 13
1.0
 23
0.0
 33
0.0
 40
0.0
 40
0.0
 40
0.0
 40
0.0
 40
0.25
 40
0.25
 40
0.5
 40
0.5
 40
0.75
 40
0.75
 40
1.0
 40
1.0
 40
1.0
 40
1.0
 10
76.14484599589326
 20
73.46296000057026
 30
0.0
 10
76.14484599589326
 20
73.46296000057026
 30
0.0
 10
76.14484599589326
 20
73.49042597717273
 30
0.0
 10
76.14484599589326
 20
73.5955195339394
 30
0.0
 10
76.14484599589326
 20
73.67301695662498
 30
0.0
 10
76.14484599589326
 20
73.86350056996115
 30
0.0
 10
76.14484599589326
 20
73.97790161963667
 30
0.0
 10
76.14484599589326
 20
74.22316351809951
 30
0.0
 10
76.14484599589326
 20
74.35642271291829
 30
0.0
 10
76.14484599589326
 20
74.48860804834665
 30
0.0
  0
LINE
  5
243
330
1F
100
AcDbEntity
  8
0
  6
Continuous
 62
     7
370
    15
100
AcDbLine
 10
75.1448457724
 20
166.1379553877
 30
0.0
 11
55.1448462194
 21
166.1379553877
 31
0.0
  0
LINE
  5
244
330
1F
100
AcDbEntity
  8
0
  6
Continuous
 62
     7
370
    15
100
AcDbLine
 10
76.1448459363
 20
78.3379517995
 30
0.0
 11
54.1448460555
 21
78.3379517995
 31
0.0
  0
LINE
  5
245
330
1F
100
AcDbEntity
  8
0
  6
Continuous
 62
     7
370
    15
100
AcDbLine
 10
76.1448459363
 20
74.4886093341
 30
0.0
 11
76.1448459363
 21
78.3379517995
 31
0.0
  0
LINE
  5
246
330
1F
100
AcDbEntity
  8
0
  6
Continuous
 62
     7
370
    15
100
AcDbLine
 10
75.1448457724
 20
170.2066950999
 30
0.0
 11
75.1448457724
 21
166.1379553877
 31
0.0
  0
LINE
  5
247
330
1F
100
AcDbEntity
  8
0
  6
Continuous
 62
     7
370
    15
100
AcDbLine
 10
55.1448462194
 20
166.1379553877
 30
0.0
 11
55.1448462194
 21
170.2066950999
 31
0.0
  0
LINE
  5
248
330
1F
100
AcDbEntity
  8
0
  6
Continuous
 62
     7
370
    15
100
AcDbLine
 10
54.1448460555
 20
78.3379517995
 30
0.0
 11
54.1448460555
 21
74.4886093341
 31
0.0
  0
LINE
  5
249
330
1F
100
AcDbEntity
  8
0
  6
Continuous
 62
     7
370
    15
100
AcDbLine
 10
27.4861471391
 20
153.5879552864
 30
0.0
 11
33.7948443031
 21
153.5879552864
 31
0.0
  0
LINE
  5
24A
330
1F
100
AcDbEntity
  8
0
  6
Continuous
 62
     7
370
    15
100
AcDbLine
 10
33.7948443031
 20
159.8966524504
 30
0.0
 11
33.7948443031
 21
153.5879552864
 31
0.0
  0
SPLINE
  5
24B
330
1F
100
AcDbEntity
  8
0
  6
Continuous
 62
     7
370
    15
100
AcDbSpline
210
0.0
220
0.0
230
1.0
 70
     8
 71
     3
 72
    30
 73
    26
 74
     0
 42
0.00000001
 43
0.00000001
 12
1.0
 22
0.0
 32
0.0
 13
1.0
 23
0.0
 33
0.0
 40
0.0
 40
0.0
 40
0.0
 40
0.0
 40
0.1249999999999996
 40
0.1249999999999996
 40
0.1874999999999994
 40
0.1874999999999994
 40
0.2499999999999993
 40
0.2499999999999993
 40
0.3749999999999992
 40
0.3749999999999992
 40
0.4374999999999993
 40
0.4374999999999993
 40
0.4999999999999994
 40
0.4999999999999994
 40
0.6249999999999992
 40
0.6249999999999992
 40
0.6874999999999993
 40
0.6874999999999993
 40
0.7499999999999994
 40
0.7499999999999994
 40
0.8124999999999997
 40
0.8124999999999997
 40
0.8749999999999998
 40
0.8749999999999998
 40
1.0
 40
1.0
 40
1.0
 40
1.0
 10
66.14484599589325
 20
72.2479545937991
 30
0.0
 10
66.80744879371026
 20
72.26120930096202
 30
0.0
 10
67.45837289330561
 20
72.2873941717466
 30
0.0
 10
68.41809166120333
 20
72.34418082454708
 30
0.0
 10
68.73520002083812
 20
72.36603037542258
 30
0.0
 10
69.3637269330449
 20
72.41526387152298
 30
0.0
 10
69.67569286313332
 20
72.4427362602765
 30
0.0
 10
70.58257018912813
 20
72.53080998196982
 30
0.0
 10
71.15568763290878
 20
72.59755683794985
 30
0.0
 10
71.96910770780117
 20
72.7050932491946
 30
0.0
 10
72.23366269981754
 20
72.74235354270324
 30
0.0
 10
72.74092538722523
 20
72.81766095443457
 30
0.0
 10
72.98246965985925
 20
72.85550837945337
 30
0.0
 10
73.67199968935624
 20
72.96824068605011
 30
0.0
 10
74.08523048297369
 20
73.04234429113447
 30
0.0
 10
74.63361019213497
 20
73.14622347148465
 30
0.0
 10
74.80356494567526
 20
73.17947922454313
 30
0.0
 10
75.11214553474234
 20
73.24124248894373
 30
0.0
 10
75.2517411809331
 20
73.26993348049405
 30
0.0
 10
75.50186493016675
 20
73.32222521433499
 30
0.0
 10
75.61239349365938
 20
73.34582702524183
 30
0.0
 10
75.80383976487346
 20
73.38720699923171
 30
0.0
 10
75.88503765212471
 20
73.40504772587616
 30
0.0
 10
76.07960438188563
 20
73.44811132869883
 30
0.0
 10
76.14484599589326
 20
73.46296000057025
 30
0.0
 10
76.14484599589326
 20
73.46296000057026
 30
0.0
  0
SPLINE
  5
24C
330
1F
100
AcDbEntity
  8
0
  6
Continuous
 62
     7
370
    15
100
AcDbSpline
210
0.0
220
0.0
230
1.0
 70
     8
 71
     3
 72
    30
 73
    26
 74
     0
 42
0.00000001
 43
0.00000001
 12
1.0
 22
0.0
 32
0.0
 13
1.0
 23
0.0
 33
0.0
 40
0.0
 40
0.0
 40
0.0
 40
0.0
 40
0.1250000000000002
 40
0.1250000000000002
 40
0.1875000000000003
 40
0.1875000000000003
 40
0.2500000000000004
 40
0.2500000000000004
 40
0.3750000000000001
 40
0.3750000000000001
 40
0.4374999999999998
 40
0.4374999999999998
 40
0.4999999999999996
 40
0.4999999999999996
 40
0.6249999999999996
 40
0.6249999999999996
 40
0.6874999999999997
 40
0.6874999999999997
 40
0.7499999999999997
 40
0.7499999999999997
 40
0.8124999999999998
 40
0.8124999999999998
 40
0.8749999999999999
 40
0.8749999999999999
 40
1.0
 40
1.0
 40
1.0
 40
1.0
 10
54.14484599589326
 20
73.46296000057026
 30
0.0
 10
54.14484599589326
 20
73.46296000057026
 30
0.0
 10
54.21007536966058
 20
73.44811992398145
 30
0.0
 10
54.40146678506954
 20
73.40575035975183
 30
0.0
 10
54.48097281472143
 20
73.38827225697266
 30
0.0
 10
54.67208437632453
 20
73.34694397042036
 30
0.0
 10
54.78407325789836
 20
73.32301869696265
 30
0.0
 10
55.16090023140769
 20
73.24421218049574
 30
0.0
 10
55.46804758110683
 20
73.18190616051929
 30
0.0
 10
56.01197157076437
 20
73.07877684027991
 30
0.0
 10
56.20833867047229
 20
73.0425929212334
 30
0.0
 10
56.62457631364964
 20
72.9687981370329
 30
0.0
 10
56.84361288611949
 20
72.93132427826126
 30
0.0
 10
57.53266024605077
 20
72.81861233492151
 30
0.0
 10
58.03428943148243
 20
72.74307623744775
 30
0.0
 10
58.85268664748336
 20
72.63468298043024
 30
0.0
 10
59.13496631249112
 20
72.59961074876698
 30
0.0
 10
59.70990076440771
 20
72.53337528816714
 30
0.0
 10
60.00376213868276
 20
72.5020485914124
 30
0.0
 10
60.60421768992236
 20
72.44363981983149
 30
0.0
 10
60.91081148974022
 20
72.41655658464863
 30
0.0
 10
61.5370430503966
 20
72.36729683003504
 30
0.0
 10
61.85828448444924
 20
72.34503485022739
 30
0.0
 10
62.82788840457467
 20
72.28746794305913
 30
0.0
 10
63.48229132289342
 20
72.26120833827312
 30
0.0
 10
64.14484599589325
 20
72.2479545937991
 30
0.0
  0
SPLINE
  5
24D
330
1F
100
AcDbEntity
  8
0
  6
Continuous
 62
     7
370
    15
100
AcDbSpline
210
0.0
220
0.0
230
1.0
 70
     8
 71
     3
 72
    54
 73
    50
 74
     0
 42
0.00000001
 43
0.00000001
 12
1.0
 22
0.0
 32
0.0
 13
1.0
 23
0.0
 33
0.0
 40
0.0
 40
0.0
 40
0.0
 40
0.0
 40
0.0625000000000001
 40
0.0625000000000001
 40
0.0937500000000001
 40
0.0937500000000001
 40
0.1250000000000001
 40
0.1250000000000001
 40
0.1875000000000002
 40
0.1875000000000002
 40
0.2187500000000001
 40
0.2187500000000001
 40
0.2500000000000001
 40
0.2500000000000001
 40
0.3125
 40
0.3125
 40
0.3437499999999999
 40
0.3437499999999999
 40
0.3749999999999999
 40
0.3749999999999999
 40
0.4062499999999998
 40
0.4062499999999998
 40
0.4374999999999998
 40
0.4374999999999998
 40
0.4999999999999997
 40
0.4999999999999997
 40
0.5624999999999997
 40
0.5624999999999997
 40
0.6249999999999996
 40
0.6249999999999996
 40
0.6562499999999994
 40
0.6562499999999994
 40
0.6874999999999994
 40
0.6874999999999994
 40
0.7187499999999993
 40
0.7187499999999993
 40
0.7499999999999993
 40
0.7499999999999993
 40
0.8124999999999992
 40
0.8124999999999992
 40
0.8437499999999992
 40
0.8437499999999992
 40
0.8749999999999993
 40
0.8749999999999993
 40
0.9374999999999997
 40
0.9374999999999997
 40
0.9687499999999998
 40
0.9687499999999998
 40
1.0
 40
1.0
 40
1.0
 40
1.0
 10
55.14484599589326
 20
171.2277484492626
 30
0.0
 10
55.14484599589326
 20
171.2277484492626
 30
0.0
 10
55.20999887934595
 20
171.2411750590513
 30
0.0
 10
55.40121780251108
 20
171.2794251756638
 30
0.0
 10
55.4806563427087
 20
171.2951946659772
 30
0.0
 10
55.67161918817447
 20
171.3324282026186
 30
0.0
 10
55.78356013670291
 20
171.3539658111307
 30
0.0
 10
56.16031945493061
 20
171.4247770242245
 30
0.0
 10
56.46747701858132
 20
171.4806033914894
 30
0.0
 10
57.01152477134039
 20
171.5723524318312
 30
0.0
 10
57.2079043167662
 20
171.6044344271113
 30
0.0
 10
57.62460820423622
 20
171.6696286275318
 30
0.0
 10
57.8438957197823
 20
171.7025882098347
 30
0.0
 10
58.53372363703642
 20
171.8011341994076
 30
0.0
 10
59.03591165183626
 20
171.8664021191814
 30
0.0
 10
59.8550873919866
 20
171.9581099628372
 30
0.0
 10
60.13796327403956
 20
171.9874738292509
 30
0.0
 10
60.71378707422684
 20
172.0420634149849
 30
0.0
 10
61.00805030826564
 20
172.0674408591157
 30
0.0
 10
61.60919830824405
 20
172.1136999552755
 30
0.0
 10
61.91608277668494
 20
172.1345827678674
 30
0.0
 10
62.54275634705449
 20
172.1711854571543
 30
0.0
 10
62.86444688292331
 20
172.1869692970607
 30
0.0
 10
63.83298632364484
 20
172.2249177306289
 30
0.0
 10
64.4828242258882
 20
172.2378468022894
 30
0.0
 10
65.79063719895723
 20
172.2380590677523
 30
0.0
 10
66.45506469783717
 20
172.2249112881491
 30
0.0
 10
67.73878379710523
 20
172.1747546453996
 30
0.0
 10
68.36292351250749
 20
172.1379919437654
 30
0.0
 10
69.27248079017261
 20
172.0682164222036
 30
0.0
 10
69.57208788395941
 20
172.0424079107381
 30
0.0
 10
70.14964141734748
 20
171.9876889029736
 30
0.0
 10
70.42912216584658
 20
171.9586782535572
 30
0.0
 10
70.96994236160937
 20
171.8982222968777
 30
0.0
 10
71.23128119476577
 20
171.8667754873371
 30
0.0
 10
71.73572891499467
 20
171.8023048789447
 30
0.0
 10
71.97976453520198
 20
171.7691460529582
 30
0.0
 10
72.67713567616715
 20
171.6695746848874
 30
0.0
 10
73.08978520917219
 20
171.6040636994226
 30
0.0
 10
73.63303128058055
 20
171.512535601908
 30
0.0
 10
73.80139684168151
 20
171.4831464153634
 30
0.0
 10
74.11198063266353
 20
171.4275397374618
 30
0.0
 10
74.25374937485294
 20
171.4013972258877
 30
0.0
 10
74.63029661636067
 20
171.3306360293395
 30
0.0
 10
74.82039324907574
 20
171.2930356056719
 30
0.0
 10
75.01377809962183
 20
171.2543641169833
 30
0.0
 10
75.0629387130543
 20
171.2444077962439
 30
0.0
 10
75.12843478082613
 20
171.2311069074601
 30
0.0
 10
75.14484599589326
 20
171.2277484492626
 30
0.0
 10
75.14484599589326
 20
171.2277484492626
 30
0.0
  0
SPLINE
  5
24E
330
1F
100
AcDbEntity
  8
0
  6
Continuous
 62
     7
370
    15
100
AcDbSpline
210
0.0
220
0.0
230
1.0
 70
     8
 71
     3
 72
    22
 73
    18
 74
     0
 42
0.00000001
 43
0.00000001
 12
1.0
 22
0.0
 32
0.0
 13
1.0
 23
0.0
 33
0.0
 40
0.0
 40
0.0
 40
0.0
 40
0.0
 40
0.2500000000000002
 40
0.2500000000000002
 40
0.3750000000000003
 40
0.3750000000000003
 40
0.5000000000000004
 40
0.5000000000000004
 40
0.6250000000000004
 40
0.6250000000000004
 40
0.7500000000000004
 40
0.7500000000000004
 40
0.8750000000000004
 40
0.8750000000000004
 40
0.9375000000000002
 40
0.9375000000000002
 40
1.0
 40
1.0
 40
1.0
 40
1.0
 10
26.19388323500633
 20
153.5879535935991
 30
0.0
 10
27.01423196460286
 20
154.6071999354637
 30
0.0
 10
27.85238257857307
 20
155.566308085403
 30
0.0
 10
29.1127761160645
 20
156.9087871629123
 30
0.0
 10
29.53630326991773
 20
157.3429957456523
 30
0.0
 10
30.35511870190456
 20
158.1546234611544
 30
0.0
 10
30.75195508534392
 20
158.5339037540912
 30
0.0
 10
31.50933358232867
 20
159.2368623331122
 30
0.0
 10
31.87162173604395
 20
159.5618911508128
 30
0.0
 10
32.51646851505097
 20
160.1269064742037
 30
0.0
 10
32.80292885877515
 20
160.3706100684102
 30
0.0
 10
33.28562766670871
 20
160.7748099960552
 30
0.0
 10
33.47205799010752
 20
160.9272471891007
 30
0.0
 10
33.66307122075044
 20
161.0825747367094
 30
0.0
 10
33.71195633133378
 20
161.1220795167594
 30
0.0
 10
33.77801712078774
 20
161.1753886374281
 30
0.0
 10
33.79484599589325
 20
161.188916354486
 30
0.0
 10
33.79484599589326
 20
161.188916354486
 30
0.0
  0
ARC
  5
24F
330
1F
100
AcDbEntity
  8
0
  6
Continuous
 62
     7
370
    15
100
AcDbCircle
 10
65.1448459959
 20
122.2379535936
 30
0.0
 40
50.00000000000001
100
AcDbArc
 50
268.8540080016
 51
271.1459919984
  0
LINE
  5
250
330
1F
100
AcDbEntity
  8
0
  6
HIDDEN
 62
     7
370
     0
100
AcDbLine
 10
83.144845221
 20
118.8542705529
 30
0.0
 11
83.144845221
 21
125.6216366343
 31
0.0
  0
LINE
  5
251
330
1F
100
AcDbEntity
  8
0
  6
HIDDEN
 62
     7
370
     0
100
AcDbLine
 10
82.5448462403
 20
118.2498016894
 30
0.0
 11
82.5448462403
 21
126.235988693
 31
0.0
  0
LINE
  5
252
330
1F
100
AcDbEntity
  8
0
  6
HIDDEN
 62
     7
370
     0
100
AcDbLine
 10
73.8948460331
 20
118.2498016894
 30
0.0
 11
73.8948460331
 21
126.235988693
 31
0.0
  0
LINE
  5
253
330
1F
100
AcDbEntity
  8
0
  6
HIDDEN
 62
     7
370
     0
100
AcDbLine
 10
72.6448458283
 20
119.4886695627
 30
0.0
 11
72.6448458283
 21
124.9872376245
 31
0.0
  0
LINE
  5
254
330
1F
100
AcDbEntity
  8
0
  6
HIDDEN
 62
     7
370
     0
100
AcDbLine
 10
83.144845221
 20
124.2110834025
 30
0.0
 11
83.144845221
 21
122.185255004
 31
0.0
  0
LINE
  5
255
330
1F
100
AcDbEntity
  8
0
  6
HIDDEN
 62
     7
370
     0
100
AcDbLine
 10
78.1448462641
 20
124.2110834025
 30
0.0
 11
78.1448462641
 21
122.185255004
 31
0.0
  0
LINE
  5
256
330
1F
100
AcDbEntity
  8
0
  6
HIDDEN
 62
     7
370
     0
100
AcDbLine
 10
78.1448462641
 20
120.2121251296
 30
0.0
 11
78.1448462641
 21
122.185255004
 31
0.0
  0
LINE
  5
257
330
1F
100
AcDbEntity
  8
0
  6
HIDDEN
 62
     7
370
     0
100
AcDbLine
 10
78.1448462641
 20
122.185255004
 30
0.0
 11
83.144845221
 21
122.185255004
 31
0.0
  0
LINE
  5
258
330
1F
100
AcDbEntity
  8
0
  6
HIDDEN
 62
     7
370
     0
100
AcDbLine
 10
83.144845221
 20
120.2121251296
 30
0.0
 11
83.144845221
 21
122.185255004
 31
0.0
  0
LINE
  5
259
330
1F
100
AcDbEntity
  8
0
  6
HIDDEN
 62
     7
370
     0
100
AcDbLine
 10
72.6448458283
 20
120.391266191
 30
0.0
 11
72.6448458283
 21
124.0776686497
 31
0.0
  0
LINE
  5
25A
330
1F
100
AcDbEntity
  8
0
  6
HIDDEN
 62
     7
370
     0
100
AcDbLine
 10
78.1448462641
 20
124.2637820576
 30
0.0
 11
78.1448462641
 21
124.2110834025
 31
0.0
  0
LINE
  5
25B
330
1F
100
AcDbEntity
  8
0
  6
HIDDEN
 62
     7
370
     0
100
AcDbLine
 10
78.1448462641
 20
124.2110834025
 30
0.0
 11
83.144845221
 21
124.2110834025
 31
0.0
  0
LINE
  5
25C
330
1F
100
AcDbEntity
  8
0
  6
HIDDEN
 62
     7
370
     0
100
AcDbLine
 10
83.144845221
 20
124.2637820576
 30
0.0
 11
83.144845221
 21
124.2110834025
 31
0.0
  0
LINE
  5
25D
330
1F
100
AcDbEntity
  8
0
  6
HIDDEN
 62
     7
370
     0
100
AcDbLine
 10
78.1448462641
 20
120.2648237847
 30
0.0
 11
83.144845221
 21
120.2648237847
 31
0.0
  0
LINE
  5
25E
330
1F
100
AcDbEntity
  8
0
  6
HIDDEN
 62
     7
370
     0
100
AcDbLine
 10
78.1448462641
 20
120.2121251296
 30
0.0
 11
83.144845221
 21
120.2121251296
 31
0.0
  0
LINE
  5
25F
330
1F
100
AcDbEntity
  8
0
  6
HIDDEN
 62
     7
370
     0
100
AcDbLine
 10
78.1448462641
 20
120.2648237847
 30
0.0
 11
78.1448462641
 21
120.2121251296
 31
0.0
  0
LINE
  5
260
330
1F
100
AcDbEntity
  8
0
  6
HIDDEN
 62
     7
370
     0
100
AcDbLine
 10
83.144845221
 20
120.2648237847
 30
0.0
 11
83.144845221
 21
120.2121251296
 31
0.0
  0
LINE
  5
261
330
1F
100
AcDbEntity
  8
0
  6
HIDDEN
 62
     7
370
     0
100
AcDbLine
 10
78.1448462641
 20
122.2906521832
 30
0.0
 11
83.144845221
 21
122.2906521832
 31
0.0
  0
LINE
  5
262
330
1F
100
AcDbEntity
  8
0
  6
HIDDEN
 62
     7
370
     0
100
AcDbLine
 10
78.1448462641
 20
124.2637820576
 30
0.0
 11
83.144845221
 21
124.2637820576
 31
0.0
  0
LINE
  5
263
330
1F
100
AcDbEntity
  8
0
  6
HIDDEN
 62
     7
370
     0
100
AcDbLine
 10
78.1448462641
 20
124.2637820576
 30
0.0
 11
78.1448462641
 21
122.2906521832
 31
0.0
  0
LINE
  5
264
330
1F
100
AcDbEntity
  8
0
  6
HIDDEN
 62
     7
370
     0
100
AcDbLine
 10
83.144845221
 20
124.2637820576
 30
0.0
 11
83.144845221
 21
122.2906521832
 31
0.0
  0
LINE
  5
265
330
1F
100
AcDbEntity
  8
0
  6
HIDDEN
 62
     7
370
     0
100
AcDbLine
 10
78.1448462641
 20
120.2648237847
 30
0.0
 11
78.1448462641
 21
122.2906521832
 31
0.0
  0
LINE
  5
266
330
1F
100
AcDbEntity
  8
0
  6
HIDDEN
 62
     7
370
     0
100
AcDbLine
 10
83.144845221
 20
120.2648237847
 30
0.0
 11
83.144845221
 21
122.2906521832
 31
0.0
  0
LINE
  5
267
330
1F
100
AcDbEntity
  8
0
  6
HIDDEN
 62
     7
370
     0
100
AcDbLine
 10
82.5448462403
 20
118.2519209139
 30
0.0
 11
82.5448462403
 21
126.2367295601
 31
0.0
  0
LINE
  5
268
330
1F
100
AcDbEntity
  8
0
  6
HIDDEN
 62
     7
370
     0
100
AcDbLine
 10
73.8948460331
 20
118.2519209139
 30
0.0
 11
73.8948460331
 21
126.2367295601
 31
0.0
  0
LINE
  5
269
330
1F
100
AcDbEntity
  8
0
  6
HIDDEN
 62
     7
370
     0
100
AcDbLine
 10
83.144845221
 20
118.8455654808
 30
0.0
 11
83.144845221
 21
125.6303417064
 31
0.0
  0
LINE
  5
26A
330
1F
100
AcDbEntity
  8
0
  6
HIDDEN
 62
     7
370
     0
100
AcDbLine
 10
72.6448458283
 20
119.4895210244
 30
0.0
 11
72.6448458283
 21
124.9863861628
 31
0.0
  0
LINE
  5
26B
330
1F
100
AcDbEntity
  8
0
  6
HIDDEN
 62
     7
370
     0
100
AcDbLine
 10
83.144845221
 20
123.8148878362
 30
0.0
 11
83.144845221
 21
121.5652709395
 31
0.0
  0
LINE
  5
26C
330
1F
100
AcDbEntity
  8
0
  6
HIDDEN
 62
     7
370
     0
100
AcDbLine
 10
78.1448462641
 20
123.8148878362
 30
0.0
 11
78.1448462641
 21
121.5652709395
 31
0.0
  0
LINE
  5
26D
330
1F
100
AcDbEntity
  8
0
  6
HIDDEN
 62
     7
370
     0
100
AcDbLine
 10
72.6448458283
 20
120.4007754602
 30
0.0
 11
72.6448458283
 21
124.0858630078
 31
0.0
  0
LINE
  5
26E
330
1F
100
AcDbEntity
  8
0
  6
HIDDEN
 62
     7
370
     0
100
AcDbLine
 10
78.1448462641
 20
119.9883366969
 30
0.0
 11
78.1448462641
 21
121.5652709395
 31
0.0
  0
LINE
  5
26F
330
1F
100
AcDbEntity
  8
0
  6
HIDDEN
 62
     7
370
     0
100
AcDbLine
 10
78.1448462641
 20
121.5652709395
 30
0.0
 11
83.144845221
 21
121.5652709395
 31
0.0
  0
LINE
  5
270
330
1F
100
AcDbEntity
  8
0
  6
HIDDEN
 62
     7
370
     0
100
AcDbLine
 10
83.144845221
 20
119.9883366969
 30
0.0
 11
83.144845221
 21
121.5652709395
 31
0.0
  0
LINE
  5
271
330
1F
100
AcDbEntity
  8
0
  6
HIDDEN
 62
     7
370
     0
100
AcDbLine
 10
78.1448462641
 20
124.4875704903
 30
0.0
 11
78.1448462641
 21
123.8148878362
 31
0.0
  0
LINE
  5
272
330
1F
100
AcDbEntity
  8
0
  6
HIDDEN
 62
     7
370
     0
100
AcDbLine
 10
78.1448462641
 20
123.8148878362
 30
0.0
 11
83.144845221
 21
123.8148878362
 31
0.0
  0
LINE
  5
273
330
1F
100
AcDbEntity
  8
0
  6
HIDDEN
 62
     7
370
     0
100
AcDbLine
 10
83.144845221
 20
124.4875704903
 30
0.0
 11
83.144845221
 21
123.8148878362
 31
0.0
  0
LINE
  5
274
330
1F
100
AcDbEntity
  8
0
  6
HIDDEN
 62
     7
370
     0
100
AcDbLine
 10
78.1448462641
 20
120.661019351
 30
0.0
 11
83.144845221
 21
120.661019351
 31
0.0
  0
LINE
  5
275
330
1F
100
AcDbEntity
  8
0
  6
HIDDEN
 62
     7
370
     0
100
AcDbLine
 10
78.1448462641
 20
119.9883366969
 30
0.0
 11
83.144845221
 21
119.9883366969
 31
0.0
  0
LINE
  5
276
330
1F
100
AcDbEntity
  8
0
  6
HIDDEN
 62
     7
370
     0
100
AcDbLine
 10
78.1448462641
 20
120.661019351
 30
0.0
 11
78.1448462641
 21
119.9883366969
 31
0.0
  0
LINE
  5
277
330
1F
100
AcDbEntity
  8
0
  6
HIDDEN
 62
     7
370
     0
100
AcDbLine
 10
83.144845221
 20
120.661019351
 30
0.0
 11
83.144845221
 21
119.9883366969
 31
0.0
  0
LINE
  5
278
330
1F
100
AcDbEntity
  8
0
  6
HIDDEN
 62
     7
370
     0
100
AcDbLine
 10
78.1448462641
 20
122.9106362477
 30
0.0
 11
83.144845221
 21
122.9106362477
 31
0.0
  0
LINE
  5
279
330
1F
100
AcDbEntity
  8
0
  6
HIDDEN
 62
     7
370
     0
100
AcDbLine
 10
78.1448462641
 20
124.4875704903
 30
0.0
 11
83.144845221
 21
124.4875704903
 31
0.0
  0
LINE
  5
27A
330
1F
100
AcDbEntity
  8
0
  6
HIDDEN
 62
     7
370
     0
100
AcDbLine
 10
78.1448462641
 20
124.4875704903
 30
0.0
 11
78.1448462641
 21
122.9106362477
 31
0.0
  0
LINE
  5
27B
330
1F
100
AcDbEntity
  8
0
  6
HIDDEN
 62
     7
370
     0
100
AcDbLine
 10
83.144845221
 20
124.4875704903
 30
0.0
 11
83.144845221
 21
122.9106362477
 31
0.0
  0
LINE
  5
27C
330
1F
100
AcDbEntity
  8
0
  6
HIDDEN
 62
     7
370
     0
100
AcDbLine
 10
78.1448462641
 20
120.661019351
 30
0.0
 11
78.1448462641
 21
122.9106362477
 31
0.0
  0
LINE
  5
27D
330
1F
100
AcDbEntity
  8
0
  6
HIDDEN
 62
     7
370
     0
100
AcDbLine
 10
83.144845221
 20
120.661019351
 30
0.0
 11
83.144845221
 21
122.9106362477
 31
0.0
  0
LINE
  5
27E
330
1F
100
AcDbEntity
  8
0
  6
HIDDEN
 62
     7
370
     0
100
AcDbLine
 10
47.7448457515
 20
118.2462472968
 30
0.0
 11
47.7448457515
 21
126.2340953142
 31
0.0
  0
LINE
  5
27F
330
1F
100
AcDbEntity
  8
0
  6
HIDDEN
 62
     7
370
     0
100
AcDbLine
 10
56.3948459586
 20
118.2462472968
 30
0.0
 11
56.3948459586
 21
126.2340953142
 31
0.0
  0
LINE
  5
280
330
1F
100
AcDbEntity
  8
0
  6
HIDDEN
 62
     7
370
     0
100
AcDbLine
 10
57.6448461635
 20
119.501834273
 30
0.0
 11
57.6448461635
 21
124.9740729142
 31
0.0
  0
LINE
  5
281
330
1F
100
AcDbEntity
  8
0
  6
HIDDEN
 62
     7
370
     0
100
AcDbLine
 10
47.1448467708
 20
118.8441927113
 30
0.0
 11
47.1448467708
 21
125.6317144759
 31
0.0
  0
LINE
  5
282
330
1F
100
AcDbEntity
  8
0
  6
HIDDEN
 62
     7
370
     0
100
AcDbLine
 10
47.1448467708
 20
123.58752068
 30
0.0
 11
47.1448467708
 21
121.2897764087
 31
0.0
  0
LINE
  5
283
330
1F
100
AcDbEntity
  8
0
  6
HIDDEN
 62
     7
370
     0
100
AcDbLine
 10
52.1448457277
 20
123.58752068
 30
0.0
 11
52.1448457277
 21
121.2897764087
 31
0.0
  0
LINE
  5
284
330
1F
100
AcDbEntity
  8
0
  6
HIDDEN
 62
     7
370
     0
100
AcDbLine
 10
57.6448461635
 20
120.4103132511
 30
0.0
 11
57.6448461635
 21
124.0878662827
 31
0.0
  0
LINE
  5
285
330
1F
100
AcDbEntity
  8
0
  6
HIDDEN
 62
     7
370
     0
100
AcDbLine
 10
52.1448457277
 20
119.9402094387
 30
0.0
 11
52.1448457277
 21
121.2897764087
 31
0.0
  0
LINE
  5
286
330
1F
100
AcDbEntity
  8
0
  6
HIDDEN
 62
     7
370
     0
100
AcDbLine
 10
52.1448457277
 20
121.2897764087
 30
0.0
 11
47.1448467708
 21
121.2897764087
 31
0.0
  0
LINE
  5
287
330
1F
100
AcDbEntity
  8
0
  6
HIDDEN
 62
     7
370
     0
100
AcDbLine
 10
47.1448467708
 20
119.9402094387
 30
0.0
 11
47.1448467708
 21
121.2897764087
 31
0.0
  0
LINE
  5
288
330
1F
100
AcDbEntity
  8
0
  6
HIDDEN
 62
     7
370
     0
100
AcDbLine
 10
52.1448457277
 20
123.58752068
 30
0.0
 11
52.1448457277
 21
124.5356977485
 31
0.0
  0
LINE
  5
289
330
1F
100
AcDbEntity
  8
0
  6
HIDDEN
 62
     7
370
     0
100
AcDbLine
 10
52.1448457277
 20
123.58752068
 30
0.0
 11
47.1448467708
 21
123.58752068
 31
0.0
  0
LINE
  5
28A
330
1F
100
AcDbEntity
  8
0
  6
HIDDEN
 62
     7
370
     0
100
AcDbLine
 10
47.1448467708
 20
123.58752068
 30
0.0
 11
47.1448467708
 21
124.5356977485
 31
0.0
  0
LINE
  5
28B
330
1F
100
AcDbEntity
  8
0
  6
HIDDEN
 62
     7
370
     0
100
AcDbLine
 10
52.1448457277
 20
120.8883865072
 30
0.0
 11
47.1448467708
 21
120.8883865072
 31
0.0
  0
LINE
  5
28C
330
1F
100
AcDbEntity
  8
0
  6
HIDDEN
 62
     7
370
     0
100
AcDbLine
 10
52.1448457277
 20
119.9402094387
 30
0.0
 11
47.1448467708
 21
119.9402094387
 31
0.0
  0
LINE
  5
28D
330
1F
100
AcDbEntity
  8
0
  6
HIDDEN
 62
     7
370
     0
100
AcDbLine
 10
52.1448457277
 20
119.9402094387
 30
0.0
 11
52.1448457277
 21
120.8883865072
 31
0.0
  0
LINE
  5
28E
330
1F
100
AcDbEntity
  8
0
  6
HIDDEN
 62
     7
370
     0
100
AcDbLine
 10
47.1448467708
 20
119.9402094387
 30
0.0
 11
47.1448467708
 21
120.8883865072
 31
0.0
  0
LINE
  5
28F
330
1F
100
AcDbEntity
  8
0
  6
HIDDEN
 62
     7
370
     0
100
AcDbLine
 10
52.1448457277
 20
123.1861307785
 30
0.0
 11
47.1448467708
 21
123.1861307785
 31
0.0
  0
LINE
  5
290
330
1F
100
AcDbEntity
  8
0
  6
HIDDEN
 62
     7
370
     0
100
AcDbLine
 10
52.1448457277
 20
124.5356977485
 30
0.0
 11
47.1448467708
 21
124.5356977485
 31
0.0
  0
LINE
  5
291
330
1F
100
AcDbEntity
  8
0
  6
HIDDEN
 62
     7
370
     0
100
AcDbLine
 10
52.1448457277
 20
124.5356977485
 30
0.0
 11
52.1448457277
 21
123.1861307785
 31
0.0
  0
LINE
  5
292
330
1F
100
AcDbEntity
  8
0
  6
HIDDEN
 62
     7
370
     0
100
AcDbLine
 10
47.1448467708
 20
124.5356977485
 30
0.0
 11
47.1448467708
 21
123.1861307785
 31
0.0
  0
LINE
  5
293
330
1F
100
AcDbEntity
  8
0
  6
HIDDEN
 62
     7
370
     0
100
AcDbLine
 10
52.1448457277
 20
120.8883865072
 30
0.0
 11
52.1448457277
 21
123.1861307785
 31
0.0
  0
LINE
  5
294
330
1F
100
AcDbEntity
  8
0
  6
HIDDEN
 62
     7
370
     0
100
AcDbLine
 10
47.1448467708
 20
120.8883865072
 30
0.0
 11
47.1448467708
 21
123.1861307785
 31
0.0
  0
LINE
  5
295
330
1F
100
AcDbEntity
  8
0
  6
HIDDEN
 62
     7
370
     0
100
AcDbLine
 10
69.1448461859
 20
139.637953838
 30
0.0
 11
61.1448458059
 21
139.637953838
 31
0.0
  0
LINE
  5
296
330
1F
100
AcDbEntity
  8
0
  6
HIDDEN
 62
     7
370
     0
100
AcDbLine
 10
69.1448461859
 20
130.9879536309
 30
0.0
 11
61.1448458059
 21
130.9879536309
 31
0.0
  0
LINE
  5
297
330
1F
100
AcDbEntity
  8
0
  6
HIDDEN
 62
     7
370
     0
100
AcDbLine
 10
61.7616076617
 20
140.2379528187
 30
0.0
 11
61.7448459508
 21
140.2379528187
 31
0.0
  0
LINE
  5
298
330
1F
100
AcDbEntity
  8
0
  6
HIDDEN
 62
     7
370
     0
100
AcDbLine
 10
68.544846041
 20
140.2379528187
 30
0.0
 11
61.7616076617
 21
140.2379528187
 31
0.0
  0
LINE
  5
299
330
1F
100
AcDbEntity
  8
0
  6
HIDDEN
 62
     7
370
     0
100
AcDbLine
 10
67.894845981
 20
129.737953426
 30
0.0
 11
62.3948460108
 21
129.737953426
 31
0.0
  0
LINE
  5
29A
330
1F
100
AcDbEntity
  8
0
  6
HIDDEN
 62
     7
370
     0
100
AcDbLine
 10
66.0955052719
 20
135.2379538618
 30
0.0
 11
67.4428618642
 21
135.2379538618
 31
0.0
  0
LINE
  5
29B
330
1F
100
AcDbEntity
  8
0
  6
HIDDEN
 62
     7
370
     0
100
AcDbLine
 10
66.0955052719
 20
140.2379528187
 30
0.0
 11
67.4428618642
 21
140.2379528187
 31
0.0
  0
LINE
  5
29C
330
1F
100
AcDbEntity
  8
0
  6
HIDDEN
 62
     7
370
     0
100
AcDbLine
 10
66.0955052719
 20
135.2379538618
 30
0.0
 11
66.0955052719
 21
140.2379528187
 31
0.0
  0
LINE
  5
29D
330
1F
100
AcDbEntity
  8
0
  6
HIDDEN
 62
     7
370
     0
100
AcDbLine
 10
63.7974894036
 20
135.2379538618
 30
0.0
 11
66.0955052719
 21
135.2379538618
 31
0.0
  0
LINE
  5
29E
330
1F
100
AcDbEntity
  8
0
  6
HIDDEN
 62
     7
370
     0
100
AcDbLine
 10
63.7974894036
 20
140.2379528187
 30
0.0
 11
66.0955052719
 21
140.2379528187
 31
0.0
  0
LINE
  5
29F
330
1F
100
AcDbEntity
  8
0
  6
HIDDEN
 62
     7
370
     0
100
AcDbLine
 10
63.3039663209
 20
129.737953426
 30
0.0
 11
66.9908169786
 21
129.737953426
 31
0.0
  0
LINE
  5
2A0
330
1F
100
AcDbEntity
  8
0
  6
HIDDEN
 62
     7
370
     0
100
AcDbLine
 10
63.7974894036
 20
135.2379538618
 30
0.0
 11
63.7974894036
 21
140.2379528187
 31
0.0
  0
LINE
  5
2A1
330
1F
100
AcDbEntity
  8
0
  6
HIDDEN
 62
     7
370
     0
100
AcDbLine
 10
63.7974894036
 20
135.2379538618
 30
0.0
 11
62.8468301276
 21
135.2379538618
 31
0.0
  0
LINE
  5
2A2
330
1F
100
AcDbEntity
  8
0
  6
HIDDEN
 62
     7
370
     0
100
AcDbLine
 10
63.7974894036
 20
140.2379528187
 30
0.0
 11
62.8468301276
 21
140.2379528187
 31
0.0
  0
LINE
  5
2A3
330
1F
100
AcDbEntity
  8
0
  6
HIDDEN
 62
     7
370
     0
100
AcDbLine
 10
66.4922025882
 20
135.2379538618
 30
0.0
 11
66.4922025882
 21
140.2379528187
 31
0.0
  0
LINE
  5
2A4
330
1F
100
AcDbEntity
  8
0
  6
HIDDEN
 62
     7
370
     0
100
AcDbLine
 10
67.4428618642
 20
135.2379538618
 30
0.0
 11
67.4428618642
 21
140.2379528187
 31
0.0
  0
LINE
  5
2A5
330
1F
100
AcDbEntity
  8
0
  6
HIDDEN
 62
     7
370
     0
100
AcDbLine
 10
66.4922025882
 20
135.2379538618
 30
0.0
 11
67.4428618642
 21
135.2379538618
 31
0.0
  0
LINE
  5
2A6
330
1F
100
AcDbEntity
  8
0
  6
HIDDEN
 62
     7
370
     0
100
AcDbLine
 10
66.4922025882
 20
140.2379528187
 30
0.0
 11
67.4428618642
 21
140.2379528187
 31
0.0
  0
LINE
  5
2A7
330
1F
100
AcDbEntity
  8
0
  6
HIDDEN
 62
     7
370
     0
100
AcDbLine
 10
64.1941867199
 20
135.2379538618
 30
0.0
 11
64.1941867199
 21
140.2379528187
 31
0.0
  0
LINE
  5
2A8
330
1F
100
AcDbEntity
  8
0
  6
HIDDEN
 62
     7
370
     0
100
AcDbLine
 10
62.8468301276
 20
135.2379538618
 30
0.0
 11
62.8468301276
 21
140.2379528187
 31
0.0
  0
LINE
  5
2A9
330
1F
100
AcDbEntity
  8
0
  6
HIDDEN
 62
     7
370
     0
100
AcDbLine
 10
64.1941867199
 20
135.2379538618
 30
0.0
 11
62.8468301276
 21
135.2379538618
 31
0.0
  0
LINE
  5
2AA
330
1F
100
AcDbEntity
  8
0
  6
HIDDEN
 62
     7
370
     0
100
AcDbLine
 10
64.1941867199
 20
140.2379528187
 30
0.0
 11
62.8468301276
 21
140.2379528187
 31
0.0
  0
LINE
  5
2AB
330
1F
100
AcDbEntity
  8
0
  6
HIDDEN
 62
     7
370
     0
100
AcDbLine
 10
64.1941867199
 20
135.2379538618
 30
0.0
 11
66.4922025882
 21
135.2379538618
 31
0.0
  0
LINE
  5
2AC
330
1F
100
AcDbEntity
  8
0
  6
HIDDEN
 62
     7
370
     0
100
AcDbLine
 10
64.1941867199
 20
140.2379528187
 30
0.0
 11
66.4922025882
 21
140.2379528187
 31
0.0
  0
LINE
  5
2AD
330
1F
100
AcDbEntity
  8
0
  6
HIDDEN
 62
     7
370
     0
100
AcDbLine
 10
56.3948459586
 20
118.2379534036
 30
0.0
 11
56.3948459586
 21
126.2379537836
 31
0.0
  0
LINE
  5
2AE
330
1F
100
AcDbEntity
  8
0
  6
HIDDEN
 62
     7
370
     0
100
AcDbLine
 10
57.6448461635
 20
119.4879536085
 30
0.0
 11
57.6448461635
 21
124.9879535787
 31
0.0
  0
LINE
  5
2AF
330
1F
100
AcDbEntity
  8
0
  6
HIDDEN
 62
     7
370
     0
100
AcDbLine
 10
47.7448457515
 20
118.2379534036
 30
0.0
 11
47.7448457515
 21
126.2379537836
 31
0.0
  0
LINE
  5
2B0
330
1F
100
AcDbEntity
  8
0
  6
HIDDEN
 62
     7
370
     0
100
AcDbLine
 10
47.1448467708
 20
125.6379536387
 30
0.0
 11
47.1448467708
 21
118.8379535485
 31
0.0
  0
LINE
  5
2B1
330
1F
100
AcDbEntity
  8
0
  6
HIDDEN
 62
     7
370
     0
100
AcDbLine
 10
47.1448467708
 20
121.2778231745
 30
0.0
 11
47.1448467708
 21
119.9389293358
 31
0.0
  0
LINE
  5
2B2
330
1F
100
AcDbEntity
  8
0
  6
HIDDEN
 62
     7
370
     0
100
AcDbLine
 10
52.1448457277
 20
121.2778231745
 30
0.0
 11
52.1448457277
 21
119.9389293358
 31
0.0
  0
LINE
  5
2B3
330
1F
100
AcDbEntity
  8
0
  6
HIDDEN
 62
     7
370
     0
100
AcDbLine
 10
52.1448457277
 20
121.2778231745
 30
0.0
 11
52.1448457277
 21
123.5768474905
 31
0.0
  0
LINE
  5
2B4
330
1F
100
AcDbEntity
  8
0
  6
HIDDEN
 62
     7
370
     0
100
AcDbLine
 10
52.1448457277
 20
121.2778231745
 30
0.0
 11
47.1448467708
 21
121.2778231745
 31
0.0
  0
LINE
  5
2B5
330
1F
100
AcDbEntity
  8
0
  6
HIDDEN
 62
     7
370
     0
100
AcDbLine
 10
47.1448467708
 20
121.2778231745
 30
0.0
 11
47.1448467708
 21
123.5768474905
 31
0.0
  0
LINE
  5
2B6
330
1F
100
AcDbEntity
  8
0
  6
HIDDEN
 62
     7
370
     0
100
AcDbLine
 10
57.6448461635
 20
120.3962661127
 30
0.0
 11
57.6448461635
 21
124.0833562367
 31
0.0
  0
LINE
  5
2B7
330
1F
100
AcDbEntity
  8
0
  6
HIDDEN
 62
     7
370
     0
100
AcDbLine
 10
52.1448457277
 20
123.5768474905
 30
0.0
 11
47.1448467708
 21
123.5768474905
 31
0.0
  0
LINE
  5
2B8
330
1F
100
AcDbEntity
  8
0
  6
HIDDEN
 62
     7
370
     0
100
AcDbLine
 10
52.1448457277
 20
123.5768474905
 30
0.0
 11
52.1448457277
 21
124.5369778514
 31
0.0
  0
LINE
  5
2B9
330
1F
100
AcDbEntity
  8
0
  6
HIDDEN
 62
     7
370
     0
100
AcDbLine
 10
47.1448467708
 20
123.5768474905
 30
0.0
 11
47.1448467708
 21
124.5369778514
 31
0.0
  0
LINE
  5
2BA
330
1F
100
AcDbEntity
  8
0
  6
HIDDEN
 62
     7
370
     0
100
AcDbLine
 10
52.1448457277
 20
120.8990596967
 30
0.0
 11
47.1448467708
 21
120.8990596967
 31
0.0
  0
LINE
  5
2BB
330
1F
100
AcDbEntity
  8
0
  6
HIDDEN
 62
     7
370
     0
100
AcDbLine
 10
52.1448457277
 20
120.8990596967
 30
0.0
 11
52.1448457277
 21
119.9389293358
 31
0.0
  0
LINE
  5
2BC
330
1F
100
AcDbEntity
  8
0
  6
HIDDEN
 62
     7
370
     0
100
AcDbLine
 10
52.1448457277
 20
119.9389293358
 30
0.0
 11
47.1448467708
 21
119.9389293358
 31
0.0
  0
LINE
  5
2BD
330
1F
100
AcDbEntity
  8
0
  6
HIDDEN
 62
     7
370
     0
100
AcDbLine
 10
47.1448467708
 20
120.8990596967
 30
0.0
 11
47.1448467708
 21
119.9389293358
 31
0.0
  0
LINE
  5
2BE
330
1F
100
AcDbEntity
  8
0
  6
HIDDEN
 62
     7
370
     0
100
AcDbLine
 10
52.1448457277
 20
123.1980840127
 30
0.0
 11
47.1448467708
 21
123.1980840127
 31
0.0
  0
LINE
  5
2BF
330
1F
100
AcDbEntity
  8
0
  6
HIDDEN
 62
     7
370
     0
100
AcDbLine
 10
52.1448457277
 20
124.5369778514
 30
0.0
 11
47.1448467708
 21
124.5369778514
 31
0.0
  0
LINE
  5
2C0
330
1F
100
AcDbEntity
  8
0
  6
HIDDEN
 62
     7
370
     0
100
AcDbLine
 10
52.1448457277
 20
123.1980840127
 30
0.0
 11
52.1448457277
 21
124.5369778514
 31
0.0
  0
LINE
  5
2C1
330
1F
100
AcDbEntity
  8
0
  6
HIDDEN
 62
     7
370
     0
100
AcDbLine
 10
47.1448467708
 20
123.1980840127
 30
0.0
 11
47.1448467708
 21
124.5369778514
 31
0.0
  0
LINE
  5
2C2
330
1F
100
AcDbEntity
  8
0
  6
HIDDEN
 62
     7
370
     0
100
AcDbLine
 10
52.1448457277
 20
120.8990596967
 30
0.0
 11
52.1448457277
 21
123.1980840127
 31
0.0
  0
LINE
  5
2C3
330
1F
100
AcDbEntity
  8
0
  6
HIDDEN
 62
     7
370
     0
100
AcDbLine
 10
47.1448467708
 20
120.8990596967
 30
0.0
 11
47.1448467708
 21
123.1980840127
 31
0.0
  0
LINE
  5
2C4
330
1F
100
AcDbEntity
  8
0
  6
HIDDEN
 62
     7
370
     0
100
AcDbLine
 10
83.144845221
 20
124.4064751115
 30
0.0
 11
83.144845221
 21
125.6379536387
 31
0.0
  0
LINE
  5
2C5
330
1F
100
AcDbEntity
  8
0
  6
HIDDEN
 62
     7
370
     0
100
AcDbLine
 10
83.144845221
 20
118.8379535485
 30
0.0
 11
83.144845221
 21
124.4064751115
 31
0.0
  0
LINE
  5
2C6
330
1F
100
AcDbEntity
  8
0
  6
HIDDEN
 62
     7
370
     0
100
AcDbLine
 10
82.5448462403
 20
118.2379534036
 30
0.0
 11
82.5448462403
 21
126.2379537836
 31
0.0
  0
LINE
  5
2C7
330
1F
100
AcDbEntity
  8
0
  6
HIDDEN
 62
     7
370
     0
100
AcDbLine
 10
73.8948460331
 20
118.2379534036
 30
0.0
 11
73.8948460331
 21
126.2379537836
 31
0.0
  0
LINE
  5
2C8
330
1F
100
AcDbEntity
  8
0
  6
HIDDEN
 62
     7
370
     0
100
AcDbLine
 10
72.6448458283
 20
119.4879536085
 30
0.0
 11
72.6448458283
 21
124.9879535787
 31
0.0
  0
LINE
  5
2C9
330
1F
100
AcDbEntity
  8
0
  6
HIDDEN
 62
     7
370
     0
100
AcDbLine
 10
83.144845221
 20
123.0418884113
 30
0.0
 11
83.144845221
 21
120.765016534
 31
0.0
  0
LINE
  5
2CA
330
1F
100
AcDbEntity
  8
0
  6
HIDDEN
 62
     7
370
     0
100
AcDbLine
 10
78.1448462641
 20
123.0418884113
 30
0.0
 11
78.1448462641
 21
120.765016534
 31
0.0
  0
LINE
  5
2CB
330
1F
100
AcDbEntity
  8
0
  6
HIDDEN
 62
     7
370
     0
100
AcDbLine
 10
72.6448458283
 20
120.3904950559
 30
0.0
 11
72.6448458283
 21
124.0761705009
 31
0.0
  0
LINE
  5
2CC
330
1F
100
AcDbEntity
  8
0
  6
HIDDEN
 62
     7
370
     0
100
AcDbLine
 10
78.1448462641
 20
124.5148254126
 30
0.0
 11
78.1448462641
 21
123.0418884113
 31
0.0
  0
LINE
  5
2CD
330
1F
100
AcDbEntity
  8
0
  6
HIDDEN
 62
     7
370
     0
100
AcDbLine
 10
78.1448462641
 20
123.0418884113
 30
0.0
 11
83.144845221
 21
123.0418884113
 31
0.0
  0
LINE
  5
2CE
330
1F
100
AcDbEntity
  8
0
  6
HIDDEN
 62
     7
370
     0
100
AcDbLine
 10
83.144845221
 20
124.5148254126
 30
0.0
 11
83.144845221
 21
123.0418884113
 31
0.0
  0
LINE
  5
2CF
330
1F
100
AcDbEntity
  8
0
  6
HIDDEN
 62
     7
370
     0
100
AcDbLine
 10
78.1448462641
 20
119.9610817745
 30
0.0
 11
78.1448462641
 21
120.765016534
 31
0.0
  0
LINE
  5
2D0
330
1F
100
AcDbEntity
  8
0
  6
HIDDEN
 62
     7
370
     0
100
AcDbLine
 10
78.1448462641
 20
120.765016534
 30
0.0
 11
83.144845221
 21
120.765016534
 31
0.0
  0
LINE
  5
2D1
330
1F
100
AcDbEntity
  8
0
  6
HIDDEN
 62
     7
370
     0
100
AcDbLine
 10
83.144845221
 20
119.9610817745
 30
0.0
 11
83.144845221
 21
120.765016534
 31
0.0
  0
LINE
  5
2D2
330
1F
100
AcDbEntity
  8
0
  6
HIDDEN
 62
     7
370
     0
100
AcDbLine
 10
78.1448462641
 20
123.7108906532
 30
0.0
 11
83.144845221
 21
123.7108906532
 31
0.0
  0
LINE
  5
2D3
330
1F
100
AcDbEntity
  8
0
  6
HIDDEN
 62
     7
370
     0
100
AcDbLine
 10
78.1448462641
 20
124.5148254126
 30
0.0
 11
83.144845221
 21
124.5148254126
 31
0.0
  0
LINE
  5
2D4
330
1F
100
AcDbEntity
  8
0
  6
HIDDEN
 62
     7
370
     0
100
AcDbLine
 10
78.1448462641
 20
124.5148254126
 30
0.0
 11
78.1448462641
 21
123.7108906532
 31
0.0
  0
LINE
  5
2D5
330
1F
100
AcDbEntity
  8
0
  6
HIDDEN
 62
     7
370
     0
100
AcDbLine
 10
83.144845221
 20
124.5148254126
 30
0.0
 11
83.144845221
 21
123.7108906532
 31
0.0
  0
LINE
  5
2D6
330
1F
100
AcDbEntity
  8
0
  6
HIDDEN
 62
     7
370
     0
100
AcDbLine
 10
78.1448462641
 20
121.4340187759
 30
0.0
 11
83.144845221
 21
121.4340187759
 31
0.0
  0
LINE
  5
2D7
330
1F
100
AcDbEntity
  8
0
  6
HIDDEN
 62
     7
370
     0
100
AcDbLine
 10
78.1448462641
 20
119.9610817745
 30
0.0
 11
83.144845221
 21
119.9610817745
 31
0.0
  0
LINE
  5
2D8
330
1F
100
AcDbEntity
  8
0
  6
HIDDEN
 62
     7
370
     0
100
AcDbLine
 10
78.1448462641
 20
121.4340187759
 30
0.0
 11
78.1448462641
 21
119.9610817745
 31
0.0
  0
LINE
  5
2D9
330
1F
100
AcDbEntity
  8
0
  6
HIDDEN
 62
     7
370
     0
100
AcDbLine
 10
83.144845221
 20
121.4340187759
 30
0.0
 11
83.144845221
 21
119.9610817745
 31
0.0
  0
LINE
  5
2DA
330
1F
100
AcDbEntity
  8
0
  6
HIDDEN
 62
     7
370
     0
100
AcDbLine
 10
78.1448462641
 20
121.4340187759
 30
0.0
 11
78.1448462641
 21
123.7108906532
 31
0.0
  0
LINE
  5
2DB
330
1F
100
AcDbEntity
  8
0
  6
HIDDEN
 62
     7
370
     0
100
AcDbLine
 10
83.144845221
 20
121.4340187759
 30
0.0
 11
83.144845221
 21
123.7108906532
 31
0.0
  0
LINE
  5
2DC
330
1F
100
AcDbEntity
  8
0
  6
HIDDEN
 62
     7
370
     0
100
AcDbLine
 10
69.1308223306
 20
130.9879536309
 30
0.0
 11
61.1460532656
 21
130.9879536309
 31
0.0
  0
LINE
  5
2DD
330
1F
100
AcDbEntity
  8
0
  6
HIDDEN
 62
     7
370
     0
100
AcDbLine
 10
67.8911784327
 20
129.737953426
 30
0.0
 11
62.3985135591
 21
129.737953426
 31
0.0
  0
LINE
  5
2DE
330
1F
100
AcDbEntity
  8
0
  6
HIDDEN
 62
     7
370
     0
100
AcDbLine
 10
69.1308223306
 20
139.637953838
 30
0.0
 11
61.1460532656
 21
139.637953838
 31
0.0
  0
LINE
  5
2DF
330
1F
100
AcDbEntity
  8
0
  6
HIDDEN
 62
     7
370
     0
100
AcDbLine
 10
68.544715423
 20
140.2379528187
 30
0.0
 11
61.7449765688
 21
140.2379528187
 31
0.0
  0
LINE
  5
2E0
330
1F
100
AcDbEntity
  8
0
  6
HIDDEN
 62
     7
370
     0
100
AcDbLine
 10
65.6265954441
 20
135.2379538618
 30
0.0
 11
63.4297201306
 21
135.2379538618
 31
0.0
  0
LINE
  5
2E1
330
1F
100
AcDbEntity
  8
0
  6
HIDDEN
 62
     7
370
     0
100
AcDbLine
 10
65.6265954441
 20
140.2379528187
 30
0.0
 11
63.4297201306
 21
140.2379528187
 31
0.0
  0
LINE
  5
2E2
330
1F
100
AcDbEntity
  8
0
  6
HIDDEN
 62
     7
370
     0
100
AcDbLine
 10
66.9900050981
 20
129.737953426
 30
0.0
 11
63.3028387221
 21
129.737953426
 31
0.0
  0
LINE
  5
2E3
330
1F
100
AcDbEntity
  8
0
  6
HIDDEN
 62
     7
370
     0
100
AcDbLine
 10
65.6265954441
 20
135.2379538618
 30
0.0
 11
65.6265954441
 21
140.2379528187
 31
0.0
  0
LINE
  5
2E4
330
1F
100
AcDbEntity
  8
0
  6
HIDDEN
 62
     7
370
     0
100
AcDbLine
 10
67.3417211639
 20
135.2379538618
 30
0.0
 11
65.6265954441
 21
135.2379538618
 31
0.0
  0
LINE
  5
2E5
330
1F
100
AcDbEntity
  8
0
  6
HIDDEN
 62
     7
370
     0
100
AcDbLine
 10
67.3417211639
 20
140.2379528187
 30
0.0
 11
65.6265954441
 21
140.2379528187
 31
0.0
  0
LINE
  5
2E6
330
1F
100
AcDbEntity
  8
0
  6
HIDDEN
 62
     7
370
     0
100
AcDbLine
 10
63.4297201306
 20
135.2379538618
 30
0.0
 11
63.4297201306
 21
140.2379528187
 31
0.0
  0
LINE
  5
2E7
330
1F
100
AcDbEntity
  8
0
  6
HIDDEN
 62
     7
370
     0
100
AcDbLine
 10
62.9479708279
 20
135.2379538618
 30
0.0
 11
63.4297201306
 21
135.2379538618
 31
0.0
  0
LINE
  5
2E8
330
1F
100
AcDbEntity
  8
0
  6
HIDDEN
 62
     7
370
     0
100
AcDbLine
 10
62.9479708279
 20
140.2379528187
 30
0.0
 11
63.4297201306
 21
140.2379528187
 31
0.0
  0
LINE
  5
2E9
330
1F
100
AcDbEntity
  8
0
  6
HIDDEN
 62
     7
370
     0
100
AcDbLine
 10
66.8599718612
 20
135.2379538618
 30
0.0
 11
66.8599718612
 21
140.2379528187
 31
0.0
  0
LINE
  5
2EA
330
1F
100
AcDbEntity
  8
0
  6
HIDDEN
 62
     7
370
     0
100
AcDbLine
 10
67.3417211639
 20
135.2379538618
 30
0.0
 11
67.3417211639
 21
140.2379528187
 31
0.0
  0
LINE
  5
2EB
330
1F
100
AcDbEntity
  8
0
  6
HIDDEN
 62
     7
370
     0
100
AcDbLine
 10
67.3417211639
 20
135.2379538618
 30
0.0
 11
66.8599718612
 21
135.2379538618
 31
0.0
  0
LINE
  5
2EC
330
1F
100
AcDbEntity
  8
0
  6
HIDDEN
 62
     7
370
     0
100
AcDbLine
 10
67.3417211639
 20
140.2379528187
 30
0.0
 11
66.8599718612
 21
140.2379528187
 31
0.0
  0
LINE
  5
2ED
330
1F
100
AcDbEntity
  8
0
  6
HIDDEN
 62
     7
370
     0
100
AcDbLine
 10
64.6630965477
 20
135.2379538618
 30
0.0
 11
64.6630965477
 21
140.2379528187
 31
0.0
  0
LINE
  5
2EE
330
1F
100
AcDbEntity
  8
0
  6
HIDDEN
 62
     7
370
     0
100
AcDbLine
 10
62.9479708279
 20
135.2379538618
 30
0.0
 11
62.9479708279
 21
140.2379528187
 31
0.0
  0
LINE
  5
2EF
330
1F
100
AcDbEntity
  8
0
  6
HIDDEN
 62
     7
370
     0
100
AcDbLine
 10
64.6630965477
 20
135.2379538618
 30
0.0
 11
62.9479708279
 21
135.2379538618
 31
0.0
  0
LINE
  5
2F0
330
1F
100
AcDbEntity
  8
0
  6
HIDDEN
 62
     7
370
     0
100
AcDbLine
 10
64.6630965477
 20
140.2379528187
 30
0.0
 11
62.9479708279
 21
140.2379528187
 31
0.0
  0
LINE
  5
2F1
330
1F
100
AcDbEntity
  8
0
  6
HIDDEN
 62
     7
370
     0
100
AcDbLine
 10
64.6630965477
 20
135.2379538618
 30
0.0
 11
66.8599718612
 21
135.2379538618
 31
0.0
  0
LINE
  5
2F2
330
1F
100
AcDbEntity
  8
0
  6
HIDDEN
 62
     7
370
     0
100
AcDbLine
 10
64.6630965477
 20
140.2379528187
 30
0.0
 11
66.8599718612
 21
140.2379528187
 31
0.0
  0
LINE
  5
2F3
330
1F
100
AcDbEntity
  8
0
  6
HIDDEN
 62
     7
370
     0
100
AcDbLine
 10
47.7448457515
 20
118.2517192826
 30
0.0
 11
47.7448457515
 21
126.2366690241
 31
0.0
  0
LINE
  5
2F4
330
1F
100
AcDbEntity
  8
0
  6
HIDDEN
 62
     7
370
     0
100
AcDbLine
 10
56.3948459586
 20
118.2517192826
 30
0.0
 11
56.3948459586
 21
126.2366690241
 31
0.0
  0
LINE
  5
2F5
330
1F
100
AcDbEntity
  8
0
  6
HIDDEN
 62
     7
370
     0
100
AcDbLine
 10
57.6448461635
 20
119.4947813671
 30
0.0
 11
57.6448461635
 21
124.9811258201
 31
0.0
  0
LINE
  5
2F6
330
1F
100
AcDbEntity
  8
0
  6
HIDDEN
 62
     7
370
     0
100
AcDbLine
 10
47.1448467708
 20
118.8422611483
 30
0.0
 11
47.1448467708
 21
125.6336460389
 31
0.0
  0
LINE
  5
2F7
330
1F
100
AcDbEntity
  8
0
  6
HIDDEN
 62
     7
370
     0
100
AcDbLine
 10
47.1448467708
 20
122.9912803426
 30
0.0
 11
47.1448467708
 21
124.5052185875
 31
0.0
  0
LINE
  5
2F8
330
1F
100
AcDbEntity
  8
0
  6
HIDDEN
 62
     7
370
     0
100
AcDbLine
 10
52.1448457277
 20
122.9912803426
 30
0.0
 11
52.1448457277
 21
124.5052185875
 31
0.0
  0
LINE
  5
2F9
330
1F
100
AcDbEntity
  8
0
  6
HIDDEN
 62
     7
370
     0
100
AcDbLine
 10
52.1448457277
 20
122.9912803426
 30
0.0
 11
52.1448457277
 21
120.7240154069
 31
0.0
  0
LINE
  5
2FA
330
1F
100
AcDbEntity
  8
0
  6
HIDDEN
 62
     7
370
     0
100
AcDbLine
 10
52.1448457277
 20
122.9912803426
 30
0.0
 11
47.1448467708
 21
122.9912803426
 31
0.0
  0
LINE
  5
2FB
330
1F
100
AcDbEntity
  8
0
  6
HIDDEN
 62
     7
370
     0
100
AcDbLine
 10
47.1448467708
 20
122.9912803426
 30
0.0
 11
47.1448467708
 21
120.7240154069
 31
0.0
  0
LINE
  5
2FC
330
1F
100
AcDbEntity
  8
0
  6
HIDDEN
 62
     7
370
     0
100
AcDbLine
 10
57.6448461635
 20
120.3885774627
 30
0.0
 11
57.6448461635
 21
124.0700138766
 31
0.0
  0
LINE
  5
2FD
330
1F
100
AcDbEntity
  8
0
  6
HIDDEN
 62
     7
370
     0
100
AcDbLine
 10
52.1448457277
 20
120.7240154069
 30
0.0
 11
47.1448467708
 21
120.7240154069
 31
0.0
  0
LINE
  5
2FE
330
1F
100
AcDbEntity
  8
0
  6
HIDDEN
 62
     7
370
     0
100
AcDbLine
 10
52.1448457277
 20
120.7240154069
 30
0.0
 11
52.1448457277
 21
119.9706885997
 31
0.0
  0
LINE
  5
2FF
330
1F
100
AcDbEntity
  8
0
  6
HIDDEN
 62
     7
370
     0
100
AcDbLine
 10
47.1448467708
 20
120.7240154069
 30
0.0
 11
47.1448467708
 21
119.9706885997
 31
0.0
  0
LINE
  5
300
330
1F
100
AcDbEntity
  8
0
  6
HIDDEN
 62
     7
370
     0
100
AcDbLine
 10
52.1448457277
 20
123.7518917803
 30
0.0
 11
47.1448467708
 21
123.7518917803
 31
0.0
  0
LINE
  5
301
330
1F
100
AcDbEntity
  8
0
  6
HIDDEN
 62
     7
370
     0
100
AcDbLine
 10
52.1448457277
 20
123.7518917803
 30
0.0
 11
52.1448457277
 21
124.5052185875
 31
0.0
  0
LINE
  5
302
330
1F
100
AcDbEntity
  8
0
  6
HIDDEN
 62
     7
370
     0
100
AcDbLine
 10
52.1448457277
 20
124.5052185875
 30
0.0
 11
47.1448467708
 21
124.5052185875
 31
0.0
  0
LINE
  5
303
330
1F
100
AcDbEntity
  8
0
  6
HIDDEN
 62
     7
370
     0
100
AcDbLine
 10
47.1448467708
 20
123.7518917803
 30
0.0
 11
47.1448467708
 21
124.5052185875
 31
0.0
  0
LINE
  5
304
330
1F
100
AcDbEntity
  8
0
  6
HIDDEN
 62
     7
370
     0
100
AcDbLine
 10
52.1448457277
 20
121.4846268446
 30
0.0
 11
47.1448467708
 21
121.4846268446
 31
0.0
  0
LINE
  5
305
330
1F
100
AcDbEntity
  8
0
  6
HIDDEN
 62
     7
370
     0
100
AcDbLine
 10
52.1448457277
 20
119.9706885997
 30
0.0
 11
47.1448467708
 21
119.9706885997
 31
0.0
  0
LINE
  5
306
330
1F
100
AcDbEntity
  8
0
  6
HIDDEN
 62
     7
370
     0
100
AcDbLine
 10
52.1448457277
 20
121.4846268446
 30
0.0
 11
52.1448457277
 21
119.9706885997
 31
0.0
  0
LINE
  5
307
330
1F
100
AcDbEntity
  8
0
  6
HIDDEN
 62
     7
370
     0
100
AcDbLine
 10
47.1448467708
 20
121.4846268446
 30
0.0
 11
47.1448467708
 21
119.9706885997
 31
0.0
  0
LINE
  5
308
330
1F
100
AcDbEntity
  8
0
  6
HIDDEN
 62
     7
370
     0
100
AcDbLine
 10
52.1448457277
 20
123.7518917803
 30
0.0
 11
52.1448457277
 21
121.4846268446
 31
0.0
  0
LINE
  5
309
330
1F
100
AcDbEntity
  8
0
  6
HIDDEN
 62
     7
370
     0
100
AcDbLine
 10
47.1448467708
 20
123.7518917803
 30
0.0
 11
47.1448467708
 21
121.4846268446
 31
0.0
  0
LINE
  5
30A
330
1F
100
AcDbEntity
  8
0
  6
HIDDEN
 62
     7
370
     0
100
AcDbLine
 10
61.1467880791
 20
139.637953838
 30
0.0
 11
69.1329420207
 21
139.637953838
 31
0.0
  0
LINE
  5
30B
330
1F
100
AcDbEntity
  8
0
  6
HIDDEN
 62
     7
370
     0
100
AcDbLine
 10
61.1467880791
 20
130.9879536309
 30
0.0
 11
69.1329420207
 21
130.9879536309
 31
0.0
  0
LINE
  5
30C
330
1F
100
AcDbEntity
  8
0
  6
HIDDEN
 62
     7
370
     0
100
AcDbLine
 10
62.399649307
 20
129.737953426
 30
0.0
 11
67.8900426848
 21
129.737953426
 31
0.0
  0
LINE
  5
30D
330
1F
100
AcDbEntity
  8
0
  6
HIDDEN
 62
     7
370
     0
100
AcDbLine
 10
61.745449215
 20
140.2379528187
 30
0.0
 11
68.5442427768
 21
140.2379528187
 31
0.0
  0
LINE
  5
30E
330
1F
100
AcDbEntity
  8
0
  6
HIDDEN
 62
     7
370
     0
100
AcDbLine
 10
65.0084085193
 20
140.2379528187
 30
0.0
 11
63.0801206118
 21
140.2379528187
 31
0.0
  0
LINE
  5
30F
330
1F
100
AcDbEntity
  8
0
  6
HIDDEN
 62
     7
370
     0
100
AcDbLine
 10
65.0084085193
 20
135.2379538618
 30
0.0
 11
63.0801206118
 21
135.2379538618
 31
0.0
  0
LINE
  5
310
330
1F
100
AcDbEntity
  8
0
  6
HIDDEN
 62
     7
370
     0
100
AcDbLine
 10
63.3113789501
 20
129.737953426
 30
0.0
 11
66.9939250348
 21
129.737953426
 31
0.0
  0
LINE
  5
311
330
1F
100
AcDbEntity
  8
0
  6
HIDDEN
 62
     7
370
     0
100
AcDbLine
 10
65.0084085193
 20
135.2379538618
 30
0.0
 11
67.0731339034
 21
135.2379538618
 31
0.0
  0
LINE
  5
312
330
1F
100
AcDbEntity
  8
0
  6
HIDDEN
 62
     7
370
     0
100
AcDbLine
 10
65.0084085193
 20
135.2379538618
 30
0.0
 11
65.0084085193
 21
140.2379528187
 31
0.0
  0
LINE
  5
313
330
1F
100
AcDbEntity
  8
0
  6
HIDDEN
 62
     7
370
     0
100
AcDbLine
 10
65.0084085193
 20
140.2379528187
 30
0.0
 11
67.0731339034
 21
140.2379528187
 31
0.0
  0
LINE
  5
314
330
1F
100
AcDbEntity
  8
0
  6
HIDDEN
 62
     7
370
     0
100
AcDbLine
 10
67.0731339034
 20
135.2379538618
 30
0.0
 11
67.0731339034
 21
140.2379528187
 31
0.0
  0
LINE
  5
315
330
1F
100
AcDbEntity
  8
0
  6
HIDDEN
 62
     7
370
     0
100
AcDbLine
 10
67.0731339034
 20
135.2379538618
 30
0.0
 11
67.20957138
 21
135.2379538618
 31
0.0
  0
LINE
  5
316
330
1F
100
AcDbEntity
  8
0
  6
HIDDEN
 62
     7
370
     0
100
AcDbLine
 10
67.0731339034
 20
140.2379528187
 30
0.0
 11
67.20957138
 21
140.2379528187
 31
0.0
  0
LINE
  5
317
330
1F
100
AcDbEntity
  8
0
  6
HIDDEN
 62
     7
370
     0
100
AcDbLine
 10
63.2165580884
 20
135.2379538618
 30
0.0
 11
63.2165580884
 21
140.2379528187
 31
0.0
  0
LINE
  5
318
330
1F
100
AcDbEntity
  8
0
  6
HIDDEN
 62
     7
370
     0
100
AcDbLine
 10
63.2165580884
 20
135.2379538618
 30
0.0
 11
63.0801206118
 21
135.2379538618
 31
0.0
  0
LINE
  5
319
330
1F
100
AcDbEntity
  8
0
  6
HIDDEN
 62
     7
370
     0
100
AcDbLine
 10
63.0801206118
 20
135.2379538618
 30
0.0
 11
63.0801206118
 21
140.2379528187
 31
0.0
  0
LINE
  5
31A
330
1F
100
AcDbEntity
  8
0
  6
HIDDEN
 62
     7
370
     0
100
AcDbLine
 10
63.2165580884
 20
140.2379528187
 30
0.0
 11
63.0801206118
 21
140.2379528187
 31
0.0
  0
LINE
  5
31B
330
1F
100
AcDbEntity
  8
0
  6
HIDDEN
 62
     7
370
     0
100
AcDbLine
 10
65.2812834725
 20
135.2379538618
 30
0.0
 11
65.2812834725
 21
140.2379528187
 31
0.0
  0
LINE
  5
31C
330
1F
100
AcDbEntity
  8
0
  6
HIDDEN
 62
     7
370
     0
100
AcDbLine
 10
67.20957138
 20
135.2379538618
 30
0.0
 11
67.20957138
 21
140.2379528187
 31
0.0
  0
LINE
  5
31D
330
1F
100
AcDbEntity
  8
0
  6
HIDDEN
 62
     7
370
     0
100
AcDbLine
 10
65.2812834725
 20
135.2379538618
 30
0.0
 11
67.20957138
 21
135.2379538618
 31
0.0
  0
LINE
  5
31E
330
1F
100
AcDbEntity
  8
0
  6
HIDDEN
 62
     7
370
     0
100
AcDbLine
 10
65.2812834725
 20
140.2379528187
 30
0.0
 11
67.20957138
 21
140.2379528187
 31
0.0
  0
LINE
  5
31F
330
1F
100
AcDbEntity
  8
0
  6
HIDDEN
 62
     7
370
     0
100
AcDbLine
 10
63.2165580884
 20
135.2379538618
 30
0.0
 11
65.2812834725
 21
135.2379538618
 31
0.0
  0
LINE
  5
320
330
1F
100
AcDbEntity
  8
0
  6
HIDDEN
 62
     7
370
     0
100
AcDbLine
 10
63.2165580884
 20
140.2379528187
 30
0.0
 11
65.2812834725
 21
140.2379528187
 31
0.0
  0
LINE
  5
321
330
1F
100
AcDbEntity
  8
0
  6
HIDDEN
 62
     7
370
     0
100
AcDbLine
 10
82.5448462403
 20
118.2379534036
 30
0.0
 11
83.144845221
 21
118.8379535485
 31
0.0
  0
LINE
  5
322
330
1F
100
AcDbEntity
  8
0
  6
HIDDEN
 62
     7
370
     0
100
AcDbLine
 10
83.144845221
 20
125.6379536387
 30
0.0
 11
82.5448462403
 21
126.2379537836
 31
0.0
  0
LINE
  5
323
330
1F
100
AcDbEntity
  8
0
  6
HIDDEN
 62
     7
370
     0
100
AcDbLine
 10
82.5448462403
 20
126.2379537836
 30
0.0
 11
73.8948460331
 21
126.2379537836
 31
0.0
  0
LINE
  5
324
330
1F
100
AcDbEntity
  8
0
  6
HIDDEN
 62
     7
370
     0
100
AcDbLine
 10
73.8948460331
 20
118.2379534036
 30
0.0
 11
82.5448462403
 21
118.2379534036
 31
0.0
  0
LINE
  5
325
330
1F
100
AcDbEntity
  8
0
  6
HIDDEN
 62
     7
370
     0
100
AcDbLine
 10
73.8948460331
 20
126.2379537836
 30
0.0
 11
72.6448458283
 21
124.9879535787
 31
0.0
  0
LINE
  5
326
330
1F
100
AcDbEntity
  8
0
  6
HIDDEN
 62
     7
370
     0
100
AcDbLine
 10
72.6448458283
 20
119.4879536085
 30
0.0
 11
73.8948460331
 21
118.2379534036
 31
0.0
  0
LINE
  5
327
330
1F
100
AcDbEntity
  8
0
  6
HIDDEN
 62
     7
370
     0
100
AcDbLine
 10
72.6448458283
 20
120.387953593
 30
0.0
 11
73.7129438332
 21
122.2379535936
 31
0.0
  0
LINE
  5
328
330
1F
100
AcDbEntity
  8
0
  6
HIDDEN
 62
     7
370
     0
100
AcDbLine
 10
73.7129438332
 20
122.2379535936
 30
0.0
 11
72.6448458283
 21
124.0879535942
 31
0.0
  0
LINE
  5
329
330
1F
100
AcDbEntity
  8
0
  6
HIDDEN
 62
     7
370
     0
100
AcDbLine
 10
82.5448462403
 20
126.2379537836
 30
0.0
 11
73.8948460331
 21
126.2379537836
 31
0.0
  0
LINE
  5
32A
330
1F
100
AcDbEntity
  8
0
  6
HIDDEN
 62
     7
370
     0
100
AcDbLine
 10
73.8948460331
 20
118.2379534036
 30
0.0
 11
82.5448462403
 21
118.2379534036
 31
0.0
  0
LINE
  5
32B
330
1F
100
AcDbEntity
  8
0
  6
HIDDEN
 62
     7
370
     0
100
AcDbLine
 10
82.5448462403
 20
118.2379534036
 30
0.0
 11
83.144845221
 21
118.8379535485
 31
0.0
  0
LINE
  5
32C
330
1F
100
AcDbEntity
  8
0
  6
HIDDEN
 62
     7
370
     0
100
AcDbLine
 10
83.144845221
 20
125.6379536387
 30
0.0
 11
82.5448462403
 21
126.2379537836
 31
0.0
  0
LINE
  5
32D
330
1F
100
AcDbEntity
  8
0
  6
HIDDEN
 62
     7
370
     0
100
AcDbLine
 10
73.8948460331
 20
126.2379537836
 30
0.0
 11
72.6448458283
 21
124.9879535787
 31
0.0
  0
LINE
  5
32E
330
1F
100
AcDbEntity
  8
0
  6
HIDDEN
 62
     7
370
     0
100
AcDbLine
 10
72.6448458283
 20
119.4879536085
 30
0.0
 11
73.8948460331
 21
118.2379534036
 31
0.0
  0
LINE
  5
32F
330
1F
100
AcDbEntity
  8
0
  6
HIDDEN
 62
     7
370
     0
100
AcDbLine
 10
72.6448458283
 20
120.387953593
 30
0.0
 11
73.7129438332
 21
122.2379535936
 31
0.0
  0
LINE
  5
330
330
1F
100
AcDbEntity
  8
0
  6
HIDDEN
 62
     7
370
     0
100
AcDbLine
 10
73.7129438332
 20
122.2379535936
 30
0.0
 11
72.6448458283
 21
124.0879535942
 31
0.0
  0
LINE
  5
331
330
1F
100
AcDbEntity
  8
0
  6
HIDDEN
 62
     7
370
     0
100
AcDbLine
 10
47.7448457515
 20
118.2379534036
 30
0.0
 11
56.3948459586
 21
118.2379534036
 31
0.0
  0
LINE
  5
332
330
1F
100
AcDbEntity
  8
0
  6
HIDDEN
 62
     7
370
     0
100
AcDbLine
 10
56.3948459586
 20
126.2379537836
 30
0.0
 11
47.7448457515
 21
126.2379537836
 31
0.0
  0
LINE
  5
333
330
1F
100
AcDbEntity
  8
0
  6
HIDDEN
 62
     7
370
     0
100
AcDbLine
 10
56.3948459586
 20
118.2379534036
 30
0.0
 11
57.6448461635
 21
119.4879536085
 31
0.0
  0
LINE
  5
334
330
1F
100
AcDbEntity
  8
0
  6
HIDDEN
 62
     7
370
     0
100
AcDbLine
 10
57.6448461635
 20
124.9879535787
 30
0.0
 11
56.3948459586
 21
126.2379537836
 31
0.0
  0
LINE
  5
335
330
1F
100
AcDbEntity
  8
0
  6
HIDDEN
 62
     7
370
     0
100
AcDbLine
 10
47.7448457515
 20
126.2379537836
 30
0.0
 11
47.1448467708
 21
125.6379536387
 31
0.0
  0
LINE
  5
336
330
1F
100
AcDbEntity
  8
0
  6
HIDDEN
 62
     7
370
     0
100
AcDbLine
 10
47.1448467708
 20
118.8379535485
 30
0.0
 11
47.7448457515
 21
118.2379534036
 31
0.0
  0
LINE
  5
337
330
1F
100
AcDbEntity
  8
0
  6
HIDDEN
 62
     7
370
     0
100
AcDbLine
 10
57.6448461635
 20
124.0879535942
 30
0.0
 11
56.5767481586
 21
122.2379535936
 31
0.0
  0
LINE
  5
338
330
1F
100
AcDbEntity
  8
0
  6
HIDDEN
 62
     7
370
     0
100
AcDbLine
 10
56.5767481586
 20
122.2379535936
 30
0.0
 11
57.6448461635
 21
120.387953593
 31
0.0
  0
LINE
  5
339
330
1F
100
AcDbEntity
  8
0
  6
HIDDEN
 62
     7
370
     0
100
AcDbLine
 10
61.1448458059
 20
139.637953838
 30
0.0
 11
61.1448458059
 21
130.9879536309
 31
0.0
  0
LINE
  5
33A
330
1F
100
AcDbEntity
  8
0
  6
HIDDEN
 62
     7
370
     0
100
AcDbLine
 10
69.1448461859
 20
130.9879536309
 30
0.0
 11
69.1448461859
 21
139.637953838
 31
0.0
  0
LINE
  5
33B
330
1F
100
AcDbEntity
  8
0
  6
HIDDEN
 62
     7
370
     0
100
AcDbLine
 10
69.1448461859
 20
139.637953838
 30
0.0
 11
68.9520961734
 21
139.8307040833
 31
0.0
  0
LINE
  5
33C
330
1F
100
AcDbEntity
  8
0
  6
HIDDEN
 62
     7
370
     0
100
AcDbLine
 10
61.3375958184
 20
139.8307040833
 30
0.0
 11
61.1448458059
 21
139.637953838
 31
0.0
  0
LINE
  5
33D
330
1F
100
AcDbEntity
  8
0
  6
HIDDEN
 62
     7
370
     0
100
AcDbLine
 10
61.1448458059
 20
130.9879536309
 30
0.0
 11
62.3948460108
 21
129.737953426
 31
0.0
  0
LINE
  5
33E
330
1F
100
AcDbEntity
  8
0
  6
HIDDEN
 62
     7
370
     0
100
AcDbLine
 10
67.894845981
 20
129.737953426
 30
0.0
 11
69.1448461859
 21
130.9879536309
 31
0.0
  0
LINE
  5
33F
330
1F
100
AcDbEntity
  8
0
  6
HIDDEN
 62
     7
370
     0
100
AcDbLine
 10
66.9948459965
 20
129.737953426
 30
0.0
 11
65.1448459959
 21
130.8060514309
 31
0.0
  0
LINE
  5
340
330
1F
100
AcDbEntity
  8
0
  6
HIDDEN
 62
     7
370
     0
100
AcDbLine
 10
65.1448459959
 20
130.8060514309
 30
0.0
 11
63.2948459953
 21
129.737953426
 31
0.0
  0
LINE
  5
341
330
1F
100
AcDbEntity
  8
0
  6
HIDDEN
 62
     7
370
     0
100
AcDbLine
 10
56.3948459586
 20
118.2379534036
 30
0.0
 11
57.6448461635
 21
119.4879536085
 31
0.0
  0
LINE
  5
342
330
1F
100
AcDbEntity
  8
0
  6
HIDDEN
 62
     7
370
     0
100
AcDbLine
 10
57.6448461635
 20
124.9879535787
 30
0.0
 11
56.3948459586
 21
126.2379537836
 31
0.0
  0
LINE
  5
343
330
1F
100
AcDbEntity
  8
0
  6
HIDDEN
 62
     7
370
     0
100
AcDbLine
 10
47.7448457515
 20
118.2379534036
 30
0.0
 11
56.3948459586
 21
118.2379534036
 31
0.0
  0
LINE
  5
344
330
1F
100
AcDbEntity
  8
0
  6
HIDDEN
 62
     7
370
     0
100
AcDbLine
 10
56.3948459586
 20
126.2379537836
 30
0.0
 11
47.7448457515
 21
126.2379537836
 31
0.0
  0
LINE
  5
345
330
1F
100
AcDbEntity
  8
0
  6
HIDDEN
 62
     7
370
     0
100
AcDbLine
 10
47.7448457515
 20
126.2379537836
 30
0.0
 11
47.5520955062
 21
126.0452037711
 31
0.0
  0
LINE
  5
346
330
1F
100
AcDbEntity
  8
0
  6
HIDDEN
 62
     7
370
     0
100
AcDbLine
 10
47.5520955062
 20
118.4307034161
 30
0.0
 11
47.7448457515
 21
118.2379534036
 31
0.0
  0
LINE
  5
347
330
1F
100
AcDbEntity
  8
0
  6
HIDDEN
 62
     7
370
     0
100
AcDbLine
 10
57.6448461635
 20
124.0879535942
 30
0.0
 11
56.5767481586
 21
122.2379535936
 31
0.0
  0
LINE
  5
348
330
1F
100
AcDbEntity
  8
0
  6
HIDDEN
 62
     7
370
     0
100
AcDbLine
 10
56.5767481586
 20
122.2379535936
 30
0.0
 11
57.6448461635
 21
120.387953593
 31
0.0
  0
LINE
  5
349
330
1F
100
AcDbEntity
  8
0
  6
HIDDEN
 62
     7
370
     0
100
AcDbLine
 10
82.5448462403
 20
118.2379534036
 30
0.0
 11
82.7375964856
 21
118.4307034161
 31
0.0
  0
LINE
  5
34A
330
1F
100
AcDbEntity
  8
0
  6
HIDDEN
 62
     7
370
     0
100
AcDbLine
 10
82.7375964856
 20
126.0452037711
 30
0.0
 11
82.5448462403
 21
126.2379537836
 31
0.0
  0
LINE
  5
34B
330
1F
100
AcDbEntity
  8
0
  6
HIDDEN
 62
     7
370
     0
100
AcDbLine
 10
82.5448462403
 20
126.2379537836
 30
0.0
 11
73.8948460331
 21
126.2379537836
 31
0.0
  0
LINE
  5
34C
330
1F
100
AcDbEntity
  8
0
  6
HIDDEN
 62
     7
370
     0
100
AcDbLine
 10
73.8948460331
 20
118.2379534036
 30
0.0
 11
82.5448462403
 21
118.2379534036
 31
0.0
  0
LINE
  5
34D
330
1F
100
AcDbEntity
  8
0
  6
HIDDEN
 62
     7
370
     0
100
AcDbLine
 10
73.8948460331
 20
126.2379537836
 30
0.0
 11
72.6448458283
 21
124.9879535787
 31
0.0
  0
LINE
  5
34E
330
1F
100
AcDbEntity
  8
0
  6
HIDDEN
 62
     7
370
     0
100
AcDbLine
 10
72.6448458283
 20
119.4879536085
 30
0.0
 11
73.8948460331
 21
118.2379534036
 31
0.0
  0
LINE
  5
34F
330
1F
100
AcDbEntity
  8
0
  6
HIDDEN
 62
     7
370
     0
100
AcDbLine
 10
72.6448458283
 20
120.387953593
 30
0.0
 11
73.7129438332
 21
122.2379535936
 31
0.0
  0
LINE
  5
350
330
1F
100
AcDbEntity
  8
0
  6
HIDDEN
 62
     7
370
     0
100
AcDbLine
 10
73.7129438332
 20
122.2379535936
 30
0.0
 11
72.6448458283
 21
124.0879535942
 31
0.0
  0
LINE
  5
351
330
1F
100
AcDbEntity
  8
0
  6
HIDDEN
 62
     7
370
     0
100
AcDbLine
 10
61.1448458059
 20
130.9879536309
 30
0.0
 11
62.3948460108
 21
129.737953426
 31
0.0
  0
LINE
  5
352
330
1F
100
AcDbEntity
  8
0
  6
HIDDEN
 62
     7
370
     0
100
AcDbLine
 10
67.894845981
 20
129.737953426
 30
0.0
 11
69.1448461859
 21
130.9879536309
 31
0.0
  0
LINE
  5
353
330
1F
100
AcDbEntity
  8
0
  6
HIDDEN
 62
     7
370
     0
100
AcDbLine
 10
61.1448458059
 20
139.637953838
 30
0.0
 11
61.1448458059
 21
130.9879536309
 31
0.0
  0
LINE
  5
354
330
1F
100
AcDbEntity
  8
0
  6
HIDDEN
 62
     7
370
     0
100
AcDbLine
 10
69.1448461859
 20
130.9879536309
 30
0.0
 11
69.1448461859
 21
139.637953838
 31
0.0
  0
LINE
  5
355
330
1F
100
AcDbEntity
  8
0
  6
HIDDEN
 62
     7
370
     0
100
AcDbLine
 10
69.1448461859
 20
139.637953838
 30
0.0
 11
68.544846041
 21
140.2379528187
 31
0.0
  0
LINE
  5
356
330
1F
100
AcDbEntity
  8
0
  6
HIDDEN
 62
     7
370
     0
100
AcDbLine
 10
61.7448459508
 20
140.2379528187
 30
0.0
 11
61.1448458059
 21
139.637953838
 31
0.0
  0
LINE
  5
357
330
1F
100
AcDbEntity
  8
0
  6
HIDDEN
 62
     7
370
     0
100
AcDbLine
 10
66.9948459965
 20
129.737953426
 30
0.0
 11
65.1448459959
 21
130.8060514309
 31
0.0
  0
LINE
  5
358
330
1F
100
AcDbEntity
  8
0
  6
HIDDEN
 62
     7
370
     0
100
AcDbLine
 10
65.1448459959
 20
130.8060514309
 30
0.0
 11
63.2948459953
 21
129.737953426
 31
0.0
  0
LINE
  5
359
330
1F
100
AcDbEntity
  8
0
  6
HIDDEN
 62
     7
370
     0
100
AcDbLine
 10
47.7448457515
 20
118.2379534036
 30
0.0
 11
56.3948459586
 21
118.2379534036
 31
0.0
  0
LINE
  5
35A
330
1F
100
AcDbEntity
  8
0
  6
HIDDEN
 62
     7
370
     0
100
AcDbLine
 10
56.3948459586
 20
126.2379537836
 30
0.0
 11
47.7448457515
 21
126.2379537836
 31
0.0
  0
LINE
  5
35B
330
1F
100
AcDbEntity
  8
0
  6
HIDDEN
 62
     7
370
     0
100
AcDbLine
 10
56.3948459586
 20
118.2379534036
 30
0.0
 11
57.6448461635
 21
119.4879536085
 31
0.0
  0
LINE
  5
35C
330
1F
100
AcDbEntity
  8
0
  6
HIDDEN
 62
     7
370
     0
100
AcDbLine
 10
57.6448461635
 20
124.9879535787
 30
0.0
 11
56.3948459586
 21
126.2379537836
 31
0.0
  0
LINE
  5
35D
330
1F
100
AcDbEntity
  8
0
  6
HIDDEN
 62
     7
370
     0
100
AcDbLine
 10
47.7448457515
 20
126.2379537836
 30
0.0
 11
47.1448467708
 21
125.6379536387
 31
0.0
  0
LINE
  5
35E
330
1F
100
AcDbEntity
  8
0
  6
HIDDEN
 62
     7
370
     0
100
AcDbLine
 10
47.1448467708
 20
118.8379535485
 30
0.0
 11
47.7448457515
 21
118.2379534036
 31
0.0
  0
LINE
  5
35F
330
1F
100
AcDbEntity
  8
0
  6
HIDDEN
 62
     7
370
     0
100
AcDbLine
 10
57.6448461635
 20
124.0879535942
 30
0.0
 11
56.5767481586
 21
122.2379535936
 31
0.0
  0
LINE
  5
360
330
1F
100
AcDbEntity
  8
0
  6
HIDDEN
 62
     7
370
     0
100
AcDbLine
 10
56.5767481586
 20
122.2379535936
 30
0.0
 11
57.6448461635
 21
120.387953593
 31
0.0
  0
LINE
  5
361
330
1F
100
AcDbEntity
  8
0
  6
HIDDEN
 62
     7
370
     0
100
AcDbLine
 10
61.1448458059
 20
139.637953838
 30
0.0
 11
61.1448458059
 21
130.9879536309
 31
0.0
  0
LINE
  5
362
330
1F
100
AcDbEntity
  8
0
  6
HIDDEN
 62
     7
370
     0
100
AcDbLine
 10
69.1448461859
 20
130.9879536309
 30
0.0
 11
69.1448461859
 21
139.637953838
 31
0.0
  0
LINE
  5
363
330
1F
100
AcDbEntity
  8
0
  6
HIDDEN
 62
     7
370
     0
100
AcDbLine
 10
61.1448458059
 20
130.9879536309
 30
0.0
 11
62.3948460108
 21
129.737953426
 31
0.0
  0
LINE
  5
364
330
1F
100
AcDbEntity
  8
0
  6
HIDDEN
 62
     7
370
     0
100
AcDbLine
 10
67.894845981
 20
129.737953426
 30
0.0
 11
69.1448461859
 21
130.9879536309
 31
0.0
  0
LINE
  5
365
330
1F
100
AcDbEntity
  8
0
  6
HIDDEN
 62
     7
370
     0
100
AcDbLine
 10
69.1448461859
 20
139.637953838
 30
0.0
 11
68.544846041
 21
140.2379528187
 31
0.0
  0
LINE
  5
366
330
1F
100
AcDbEntity
  8
0
  6
HIDDEN
 62
     7
370
     0
100
AcDbLine
 10
61.7448459508
 20
140.2379528187
 30
0.0
 11
61.1448458059
 21
139.637953838
 31
0.0
  0
LINE
  5
367
330
1F
100
AcDbEntity
  8
0
  6
HIDDEN
 62
     7
370
     0
100
AcDbLine
 10
66.9948459965
 20
129.737953426
 30
0.0
 11
65.1448459959
 21
130.8060514309
 31
0.0
  0
LINE
  5
368
330
1F
100
AcDbEntity
  8
0
  6
HIDDEN
 62
     7
370
     0
100
AcDbLine
 10
65.1448459959
 20
130.8060514309
 30
0.0
 11
63.2948459953
 21
129.737953426
 31
0.0
  0
INSERT
  5
374
330
1F
100
AcDbEntity
  8
VERMASSUNG
100
AcDbBlockReference
  2
SW_CENTERMARKSYMBOL_0
 10
65.1448459959
 20
122.2379535936
 30
0.0
  0
OLE2FRAME
  5
375
330
1F
100
AcDbEntity
  8
0
100
AcDbOle2Frame
 70
     2
  3
Paintbrush-Bild
 10
13.8511154363
 20
38.264191557
 30
0.0
 11
51.6290888628
 21
31.9806341108
 31
0.0
 71
     2
 72
     0
 73
     1
 90
    12928
310
80552BED0767C5B32B40DDAF6807D121434000000000000000006FFBDDFB85D0
310
4940DDAF6807D121434000000000000000006FFBDDFB85D04940416F4BD60AFB
310
3F4000000000000000002BED0767C5B32B40416F4BD60AFB3F40000000000000
310
0000000000000100000000010000010000000100000000000100000000320000
310
D0CF11E0A1B11AE1000000000000000000000000000000003E000300FEFF0900
310
0600000000000000000000000100000001000000000000000010000002000000
310
01000000FEFFFFFF0000000000000000FFFFFFFFFFFFFFFFFFFFFFFFFFFFFFFF
310
FFFFFFFFFFFFFFFFFFFFFFFFFFFFFFFFFFFFFFFFFFFFFFFFFFFFFFFFFFFFFFFF
310
FFFFFFFFFFFFFFFFFFFFFFFFFFFFFFFFFFFFFFFFFFFFFFFFFFFFFFFFFFFFFFFF
310
FFFFFFFFFFFFFFFFFFFFFFFFFFFFFFFFFFFFFFFFFFFFFFFFFFFFFFFFFFFFFFFF
310
FFFFFFFFFFFFFFFFFFFFFFFFFFFFFFFFFFFFFFFFFFFFFFFFFFFFFFFFFFFFFFFF
310
FFFFFFFFFFFFFFFFFFFFFFFFFFFFFFFFFFFFFFFFFFFFFFFFFFFFFFFFFFFFFFFF
310
FFFFFFFFFFFFFFFFFFFFFFFFFFFFFFFFFFFFFFFFFFFFFFFFFFFFFFFFFFFFFFFF
310
FFFFFFFFFFFFFFFFFFFFFFFFFFFFFFFFFFFFFFFFFFFFFFFFFFFFFFFFFFFFFFFF
310
FFFFFFFFFFFFFFFFFFFFFFFFFFFFFFFFFFFFFFFFFFFFFFFFFFFFFFFFFFFFFFFF
310
FFFFFFFFFFFFFFFFFFFFFFFFFFFFFFFFFFFFFFFFFFFFFFFFFFFFFFFFFFFFFFFF
310
FFFFFFFFFFFFFFFFFFFFFFFFFFFFFFFFFFFFFFFFFFFFFFFFFFFFFFFFFFFFFFFF
310
FFFFFFFFFFFFFFFFFFFFFFFFFFFFFFFFFFFFFFFFFFFFFFFFFFFFFFFFFFFFFFFF
310
FFFFFFFFFFFFFFFFFFFFFFFFFFFFFFFFFFFFFFFFFFFFFFFFFFFFFFFFFFFFFFFF
310
FFFFFFFFFFFFFFFFFFFFFFFFFFFFFFFFFFFFFFFFFFFFFFFFFFFFFFFFFFFFFFFF
310
FDFFFFFFFEFFFFFFFEFFFFFFFEFFFFFF05000000060000000700000008000000
310
090000000A0000000B0000000C0000000D0000000E0000000F00000010000000
310
11000000120000001300000014000000150000001600000017000000FEFFFFFF
310
FFFFFFFFFFFFFFFFFFFFFFFFFFFFFFFFFFFFFFFFFFFFFFFFFFFFFFFFFFFFFFFF
310
FFFFFFFFFFFFFFFFFFFFFFFFFFFFFFFFFFFFFFFFFFFFFFFFFFFFFFFFFFFFFFFF
310
FFFFFFFFFFFFFFFFFFFFFFFFFFFFFFFFFFFFFFFFFFFFFFFFFFFFFFFFFFFFFFFF
310
FFFFFFFFFFFFFFFFFFFFFFFFFFFFFFFFFFFFFFFFFFFFFFFFFFFFFFFFFFFFFFFF
310
FFFFFFFFFFFFFFFFFFFFFFFFFFFFFFFFFFFFFFFFFFFFFFFFFFFFFFFFFFFFFFFF
310
FFFFFFFFFFFFFFFFFFFFFFFFFFFFFFFFFFFFFFFFFFFFFFFFFFFFFFFFFFFFFFFF
310
FFFFFFFFFFFFFFFFFFFFFFFFFFFFFFFFFFFFFFFFFFFFFFFFFFFFFFFFFFFFFFFF
310
FFFFFFFFFFFFFFFFFFFFFFFFFFFFFFFFFFFFFFFFFFFFFFFFFFFFFFFFFFFFFFFF
310
FFFFFFFFFFFFFFFFFFFFFFFFFFFFFFFFFFFFFFFFFFFFFFFFFFFFFFFFFFFFFFFF
310
FFFFFFFFFFFFFFFFFFFFFFFFFFFFFFFFFFFFFFFFFFFFFFFFFFFFFFFFFFFFFFFF
310
FFFFFFFFFFFFFFFFFFFFFFFFFFFFFFFFFFFFFFFFFFFFFFFFFFFFFFFFFFFFFFFF
310
FFFFFFFFFFFFFFFFFFFFFFFFFFFFFFFFFFFFFFFFFFFFFFFFFFFFFFFFFFFFFFFF
310
FFFFFFFFFFFFFFFFFFFFFFFFFFFFFFFFFFFFFFFFFFFFFFFFFFFFFFFFFFFFFFFF
310
52006F006F007400200045006E00740072007900000000000000000000000000
310
0000000000000000000000000000000000000000000000000000000000000000
310
16000500FFFFFFFFFFFFFFFF020000000A00030000000000C000000000000046
310
000000000000000000000000E0AD9A626B6BCE0103000000C000000000000000
310
01004F006C006500000000000000000000000000000000000000000000000000
310
0000000000000000000000000000000000000000000000000000000000000000
310
0A000200FFFFFFFFFFFFFFFFFFFFFFFF00000000000000000000000000000000
310
0000000000000000000000000000000000000000000000001400000000000000
310
010043006F006D0070004F0062006A0000000000000000000000000000000000
310
0000000000000000000000000000000000000000000000000000000000000000
310
120002010100000003000000FFFFFFFF00000000000000000000000000000000
310
0000000000000000000000000000000000000000010000004D00000000000000
310
01004F006C006500310030004E00610074006900760065000000000000000000
310
0000000000000000000000000000000000000000000000000000000000000000
310
1A000200FFFFFFFFFFFFFFFFFFFFFFFF00000000000000000000000000000000
310
0000000000000000000000000000000000000000040000002426000000000000
310
FEFFFFFF02000000FEFFFFFFFFFFFFFFFFFFFFFFFFFFFFFFFFFFFFFFFFFFFFFF
310
FFFFFFFFFFFFFFFFFFFFFFFFFFFFFFFFFFFFFFFFFFFFFFFFFFFFFFFFFFFFFFFF
310
FFFFFFFFFFFFFFFFFFFFFFFFFFFFFFFFFFFFFFFFFFFFFFFFFFFFFFFFFFFFFFFF
310
FFFFFFFFFFFFFFFFFFFFFFFFFFFFFFFFFFFFFFFFFFFFFFFFFFFFFFFFFFFFFFFF
310
FFFFFFFFFFFFFFFFFFFFFFFFFFFFFFFFFFFFFFFFFFFFFFFFFFFFFFFFFFFFFFFF
310
FFFFFFFFFFFFFFFFFFFFFFFFFFFFFFFFFFFFFFFFFFFFFFFFFFFFFFFFFFFFFFFF
310
FFFFFFFFFFFFFFFFFFFFFFFFFFFFFFFFFFFFFFFFFFFFFFFFFFFFFFFFFFFFFFFF
310
FFFFFFFFFFFFFFFFFFFFFFFFFFFFFFFFFFFFFFFFFFFFFFFFFFFFFFFFFFFFFFFF
310
FFFFFFFFFFFFFFFFFFFFFFFFFFFFFFFFFFFFFFFFFFFFFFFFFFFFFFFFFFFFFFFF
310
FFFFFFFFFFFFFFFFFFFFFFFFFFFFFFFFFFFFFFFFFFFFFFFFFFFFFFFFFFFFFFFF
310
FFFFFFFFFFFFFFFFFFFFFFFFFFFFFFFFFFFFFFFFFFFFFFFFFFFFFFFFFFFFFFFF
310
FFFFFFFFFFFFFFFFFFFFFFFFFFFFFFFFFFFFFFFFFFFFFFFFFFFFFFFFFFFFFFFF
310
FFFFFFFFFFFFFFFFFFFFFFFFFFFFFFFFFFFFFFFFFFFFFFFFFFFFFFFFFFFFFFFF
310
FFFFFFFFFFFFFFFFFFFFFFFFFFFFFFFFFFFFFFFFFFFFFFFFFFFFFFFFFFFFFFFF
310
FFFFFFFFFFFFFFFFFFFFFFFFFFFFFFFFFFFFFFFFFFFFFFFFFFFFFFFFFFFFFFFF
310
FFFFFFFFFFFFFFFFFFFFFFFFFFFFFFFFFFFFFFFFFFFFFFFFFFFFFFFFFFFFFFFF
310
0100000200000000000000000000000000000000000000000000000000000000
310
0000000000000000000000000000000000000000000000000000000000000000
310
0100FEFF030A0000FFFFFFFF0A00030000000000C00000000000004607000000
310
5042727573680007000000504272757368000700000050427275736800F439B2
310
7100000000000000000000000000000000000000000000000000000000000000
310
0000000000000000000000000000000000000000000000000000000000000000
310
0000000000000000000000000000000000000000000000000000000000000000
310
0000000000000000000000000000000000000000000000000000000000000000
310
0000000000000000000000000000000000000000000000000000000000000000
310
0000000000000000000000000000000000000000000000000000000000000000
310
0000000000000000000000000000000000000000000000000000000000000000
310
0000000000000000000000000000000000000000000000000000000000000000
310
0000000000000000000000000000000000000000000000000000000000000000
310
0000000000000000000000000000000000000000000000000000000000000000
310
0000000000000000000000000000000000000000000000000000000000000000
310
0000000000000000000000000000000000000000000000000000000000000000
310
20260000424D0E260000000000003E00000028000000B40200006E0000000100
310
01000000000000000000130B0000130B00000200000002000000000000FFFFFF
310
FFFFFFFFFFFFFFFFFFFFFFFFFFFFFFFFFFFFFFFFFFFFFFFFFFFFFFFFFFFFFFFF
310
FFFFFFFFFFFFFFFFFFFFFFFFFFFFFFFFFFFFFFFFFFFFFFFFFFFFFFFFFFFFFFFF
310
FFFFFFFFFFFFFFFFFFFFFFFFFFFFFFFFFFFFFFFFFFFFFFFFF000FFFFFFFFFFFF
310
FFFFFFFFFFFFFFFFFFFFFFFFFFFFFFFFFFFFFFFFFFFFFFFFFFFFFFFFFFFFFFFF
310
FFFFFFFFFFFFFFFFFFFFFFFFFFFFFFFFFFFFFFFFFFFFFFFFFFFFFFFFFFFFFFFF
310
FFFFFFFFFFFFFFFFFFFFFFFFFFFFFFFFF000FFFFFFFFFFFFFFFFFFFFFFFFFFFF
310
FFFFFFFFFFFFFFFFFFFFFFFFFFFFFFFFFFFFFFFFFFFFFFFFFFFFFFFFFFFFFFFF
310
FFFFFFFFFFFFFFFFFFFFFFFFFFFFFFFFFFFFFFFFFFFFFFFFFFFFFFFFFFFFFFFF
310
FFFFFFFFFFFFFFFFF000FFFFFFFFFFFFFFFFFFFFFFFFFFFFFFFFFFFFFFFFFFFF
310
FFFFFFFFFFFFFFFFFFFFFFFFFFFFFFFFFFFFFFFFFFFFFFFFFFFFFFFFFFFFFFFF
310
FFFFFFFFFFFFFFFFFFFFFFFFFFFFFFFFFFFFFFFFFFFFFFFFFFFFFFFFFFFFFFFF
310
F000FFFFFFFFFFFFFFFFFFFFFFFFFFFFFFFFFFFFFFFFFFFFFFFFFFFFFFFFFFFF
310
FFFFFFFFFFFFFFFFFFFFFFFFFFFFFFFFFFFFFFFFFFFFFFFFFFFFFFFFFFFFFFFF
310
FFFFFFFFFFFFFFFFFFFFFFFFFFFFFFFFFFFFFFFFFFFFFFFFF000FFFFFFFFFFFF
310
FFFFFFFFFFFFFFFFFFFFFFFFFFFFFFFFFFFFFFFFFFFFFFFFFFFFFFFFFFFFFFFF
310
FFFFFFFFFFFFFFFFFFFFFFFFFFFFFFFFFFFFFFFFFFFFFFFFFFFFFFFFFFFFFFFF
310
FFFFFFFFFFFFFFFFFFFFFFFFFFFFFFFFF000FFFFFFFFFFFFFFFFFFFFFFFFFFFF
310
FFFFFFFFFFFFFFFFFFFFFFFFFFFFFFFFFFFFFFFFFFFFFFFFFFFFFFFFFFFFFFFF
310
FFFFFFFFFFFFFFFFFFFFFFFFFFFFFFFFFFFFFFFFFFFFFFFFFFFFFFFFFFFFFFFF
310
FFFFFFFFFFFFFFFFF000FFFFFFFFFFFFFFFFFFFFFFFFFFFFFFFFFFFFFFFFFFFF
310
FFFFFFFFFFFFFFFFFFFFFFFFFFFFFFFFFFFFFFFFFFFFFFFFFFFFFFFFFFFFFFFF
310
FFFFFFFFFFFFFFFFFFFFFFFFFFFFFFFFFFFFFFFFFFFFFFFFFFFFFFFFFFFFFFFF
310
F000FFFFFFFFFFFFFFFFFFFFFFFFFFFFFFFFFFFFFFFFFFFFFFFFFFFFFFFFFFFF
310
FFFFFFFFFFFFFFFFFFFFFFFFFFFFFFFFFFFFFFFFFFFFFFFFFFFFFFFFFFFFFFFF
310
FFFFFFFFFFFFFFFFFFFFFFFFFFFFFFFFFFFFFFFFFFFFFFFFF000FFFFFFFFFFFF
310
FFFFFFFFFFFFFFFFFFFFFFFFFFFFFFFFFFFFFFFFFFFFFFFFFFFFFFFFFFFFFFFF
310
FFFFFFFFFFFFFFFFFFFFFFFFFFFFFFFFFFFFFFFFFFFFFFFFFFFFFFFFFFFFFFFF
310
FFFFFFFFFFFFFFFFFFFFFFFFFFFFFFFFF000FFFFFFFFFFFFFFFFFFFFFFFFFFFF
310
FFFFFFFFFFFFFFFFFFFFFFFFFFFFFFFFFFFFFFFFFFFFFFFFFFFFFFFFFFFFFFFF
310
FFFFFFFFFFFFFFFFFFFFFFFFFFFFFFFFFFFFFFFFFFFFFFFFFFFFFFFFFFFFFFFF
310
FFFFFFFFFFFFFFFFF000FFFFFFFFFFFFFFFFFFFFFFFFFFFFFFFFFFFFFFFFFFFF
310
FFFFFFFFFFFFFFFFFFFFFFFFFFFFFFFFFFFFFFFFFFFFFFFFFFFFFFFFFFFFFFFF
310
FFFFFFFFFFFFFFFFFFFFFFFFFFFFFFFFFFFFFFFFFFFFFFFFFFFFFFFFFFFFFFFF
310
F000FFFFFFFFFFFFFFFFFFFFFFFFFFFFFFFFFFFFFFFFFFFFFFFFFFFFFFFFFFFF
310
FFFFFFFFFFFFFFFFFFFFFFFFFFFFFFFFFFFFFFFFFFFFFFFFFFFFFFFFFFFFFFFF
310
FFFFFFFFFFFFFFFFFFFFFFFFFFFFFFFFFFFFFFFFFFFFFFFFF000FFFFFFFFFFFF
310
FFFFFFFFFFFFFFFFFFFFFFFFFFFFFFFFFFFFFFFFFFFFFFFFFFFFFFFFFFFFFFFF
310
FFFFFFFFFFFFFFFFFFFFFFFFFFFFFFFFFFFFFFFFFFFFFFFFFFFFFFFFFFFFFFFF
310
FFFFFFFFFFFFFFFFFFFFFFFFFFFFFFFFF000FFFFFFFFFFFFFFFFFFFFFFFFFFFF
310
FFFFFFFFFFFFFFFFFFFFFFFFFFFFFFFFFFFFFFFFFFFFFFFFFFFFFFFFFFFFFFFF
310
FFFFFFFFFFFFFFFFFFFFFFFFFFFFFFFFFFFFFFFFFFFFFFFFFFFFFFFFFFFFFFFF
310
FFFFFFFFFFFFFFFFF000FFFFFFFFFFFFFFFFFFFFFFFFFFFFFFFFFFFFFFFFFFFF
310
FFFFFFFFFFFFFFFFFFFFFFFFFFFFFFFFFFFFFFFFFFFFFFFFFFFFFFFFFFFFFFFF
310
FFFFFFFFFFFFFFFFFFFFFFFFFFFFFFFFFFFFFFFFFFFFFFFFFFFFFFFFFFFFFFFF
310
F000FFFFFFFFFFFFFFFFFFFFFFFFFFFFFFFFFFFFFFFFFFFFFFFFFFFFFFFFFFFF
310
FFFFFFFFFFFFFFFFFFFFFFFFFFFFFFFFFFFFFFFFFFFFFFFFFFFFFFFFFFFFFFFF
310
FFFFFFFFFFFFFFFFFFFFFFFFFFFFFFFFFFFFFFFFFFFFFFFFF000FFFFFFFFFFFF
310
FFFFFFFFFFFFFFFFFFFFFFFFFFFFFFFFFFFFFFFFFFFFFFFFFFFFFFFFFFFFFFFF
310
FFFFFFFFFFFFFFFFFFFFFFFFFFFFFFFFFFFFFFFFFFFFFFFFFFFFFFFFFFFFFFFF
310
FFFFFFFFFFFFFFFFFFFFFFFFFFFFFFFFF000FFFFFFFFFFFFFFFFFFFFFFFFFFFF
310
FFFFFFFFFFFFFFFFFFFFFFFFFFFFFFFFFFFFFFFFFFFFFFFFFFFFFFFFFFFFFFFF
310
FFFFFFFFFFFFFFFFFFFFFFFFFFFFFFFFFFFFFFFFFFFFFFFFFFFFFFFFFFFFFFFF
310
FFFFFFFFFFFFFFFFF000FFFFF80003FFFFFFFFFFFFFFFFFFFFFFFFFFFFFFFFFF
310
FFFFF00007FFFFFFFFFF00007FFFFFF800000000000000007FFFFFFFFFFFFFFF
310
FFFFFFFC001FFFFFFFFFFFFFFC001FFFFFFFFFFFFFFFFFFFFFFFFFFE0007FFFF
310
F000FFFF8000007FFFFFFFF8000FFFFFC0007FFFFF80007FFFFF0000007FFFFF
310
FFF8000007FFFFF800000000000000007FFFFFF0001FFFFFFFFFFFC00001FFFF
310
FFFFFFFFC00001FFFFFFFF000000000003FFFFE000007FFFF000FFFE0000000F
310
FFFFFFF0000FFFFF80007FFFFF80007FFFFC0000001FFFFFFFC0000001FFFFF8
310
00000000000000007FFFFFF0001FFFFFFFFFFE0000003FFFFFFFFFFE0000003F
310
FFFFFF000000000003FFFF0000000FFFF000FFF800000003FFFFFFF00007FFFF
310
80007FFFFF80007FFFF000000007FFFFFF000000003FFFF80000000000000000
310
7FFFFFF0001FFFFFFFFFF80000000FFFFFFFFFF80000000FFFFFFF0000000000
310
03FFFC00000003FFF000FFE000000000FFFFFFF00007FFFF80003FFFFF80007F
310
FFC000000001FFFFFC000000001FFFF800000000000000007FFFFFF0001FFFFF
310
FFFFE000000003FFFFFFFFE000000003FFFFFF000000000003FFF000000000FF
310
F000FF80000000007FFFFFF00007FFFF80003FFFFF80007FFF8000000000FFFF
310
F80000000007FFF800000000000000007FFFFFF0001FFFFFFFFFC000000001FF
310
FFFFFFC000000001FFFFFF000000000003FFC0000000007FF000FF0000000000
310
3FFFFFE00007FFFF00003FFFFF80007FFE00000000003FFFF00000000003FFF8
310
00000000000000007FFFFFF0001FFFFFFFFF8000000000FFFFFFFF8000000000
310
FFFFFF000000000003FF80000000003FF000FE00000000001FFFFFE00003FFFF
310
00003FFFFF80007FFC00000000001FFFE00000000001FFF8000001FFFE000000
310
7FFFFFF0001FFFFFFFFE00000000003FFFFFFE00000000003FFFFF0000000000
310
03FF00000000001FF000FC00000000000FFFFFE00003FFFF00001FFFFF80007F
310
F800000000001FFFC00000000000FFF8000001FFFE0000007FFFFFF0001FFFFF
310
FFFC00000000001FFFFFFC00000000001FFFFF000000000003FE00000000000F
310
F000F8000000000007FFFFE00003FFFF00001FFFFF80007FF800000000000FFF
310
800000000000FFF8000001FFFE0000007FFFFFF0001FFFFFFFF800000000000F
310
FFFFF800000000000FFFFF000000000003FC000000000007F000F80000000000
310
03FFFFC00003FFFE00001FFFFF80007FF0000000000007FF0000000000007FF8
310
000001FFFE0000007FFFFFF0001FFFFFFFF0000000000007FFFFF00000000000
310
07FFFF000000000003F8000000000003F000F0000000000003FFFFC00001FFFE
310
00001FFFFF80007FE0000000000007FE0000000000003FF8000001FFFE000000
310
7FFFFFF0001FFFFFFFF0000000000007FFFFF0000000000007FFFF0000000000
310
03F800001F800003F000E00001FFF00001FFFFC00001FFFE00000FFFFF80007F
310
E00001FFE00003FE00001FFF00003FF8000001FFFE0000007FFFFFF0001FFFFF
310
FFE000003E000003FFFFE000003E000003FFFF000000000003F00001FFF80001
310
F000E00007FFFC0001FFFFC00001FFFE00000FFFFF80007FC0000FFFFC0003FC
310
0000FFFFC0001FF8000001FFFE0000007FFFFFF0001FFFFFFFC00003FFE00001
310
FFFFC00003FFE00001FFFF0001FFFFFFFFF00007FFFE0001F000E0000FFFFF00
310
00FFFF800001FFFC00000FFFFF80007FC0001FFFFE0001FC0001FFFFE0001FF8
310
000001FFFE0000007FFFFFF0001FFFFFFF80000FFFF80000FFFF80000FFFF800
310
00FFFF0003FFFFFFFFE0000FFFFF8000F000C0003FFFFF8000FFFF800000FFFC
310
000007FFFF80007F80003FFFFF0001FC0003FFFFF0001FF8000001FFFE000000
310
7FFFFFF0001FFFFFFF80003FFFFE0000FFFF80003FFFFE0000FFFF0003FFFFFF
310
FFE0003FFFFF8000F000C0003FFFFF8000FFFF800000FFFC000007FFFF80007F
310
80007FFFFF8001F80007FFFFF8000FF8000001FFFE0000007FFFFFF0001FFFFF
310
FF00007FFFFF00007FFF00007FFFFF00007FFF0003FFFFFFFFE0003FFFFFC000
310
F000C0007FFFFFC000FFFF000000FFFC000007FFFF80007F8000FFFFFF8000F8
310
000FFFFFF8000FF8000001FFFE0000007FFFFFF0001FFFFFFF0000FFFFFF8000
310
7FFF0000FFFFFF80007FFF0003FFFFFFFFC0007FFFFFC00070008000FFFFFFC0
310
00FFFF000000FFF8000007FFFF80007F8000FFFFFF8000F8000FFFFFF8000FF8
310
000001FFFE0000007FFFFFF0001FFFFFFE0001FFFFFFC0003FFE0001FFFFFFC0
310
003FFF0003FFFFFFFFC0007FFFFFE00070008000FFFFFFC0007FFF0000007FF8
310
000003FFFF80007F0001FFFFFF8000F8000FFFFFF8000FF8000001FFFE000000
310
7FFFFFF0001FFFFFFE0001FFFFFFC0003FFE0001FFFFFFC0003FFF0003FFFFFF
310
FFC000FFFFFFE00070008000FFFFFFC0007FFF0000007FF8000003FFFF80007F
310
0001FFFFFF8000F8001FFFFFF8000FF8000001FFFE0000007FFFFFF0001FFFFF
310
FE0003FFFFFFE0003FFE0003FFFFFFE0003FFF0003FFFFFFFFC000FFFFFFE000
310
70008000FFFFFFC0007FFE0000007FF8000003FFFF80007F0001FFFFFF8000F0
310
001FFFFFF8000FF8000001FFFE0000007FFFFFF0001FFFFFFC0003FFFFFFE000
310
1FFC0003FFFFFFE0001FFF0003FFFFFFFFC000FFFFFFC00070008000FFFFFF80
310
007FFE0000007FF0000003FFFF80007F0001FFFFFF0000F0001FFFFFF8000FF8
310
000001FFFE0000007FFFFFF0001FFFFFFC0007FFFFFFF0001FFC0007FFFFFFF0
310
001FFF0003FFFFFFFFC000FFFFFFC00070008001FFFFFF0000FFFE0000003FF0
310
000001FFFF80007F0001FFFFFF0000F8001FFFFFF0000FF8000001FFFE000000
310
7FFFFFF0001FFFFFFC0007FFFFFFF0001FFC0007FFFFFFF0001FFF0003FFFFFF
310
FFC001FFFFFF80007000FFFFFFFFFE0000FFFE0008003FF0008001FFFF80007F
310
FFFFFFFFFC0000FFFFFFFFFFE0000FF8000001FFFE0000007FFFFFF0001FFFFF
310
F8000FFFFFFFF8000FF8000FFFFFFFF8000FFF0003FFFFFFFFFFFFFFFFFF0000
310
7000FFFFFFFFFC0000FFFC0008003FF0008001FFFF80007FFFFFFFFFF80001FF
310
FFFFFFFF80000FF8000001FFFE0000007FFFFFF0001FFFFFF8000FFFFFFFF800
310
0FF8000FFFFFFFF8000FFF0003FFFFFFFFFFFFFFFFFE0000F000FFFFFFFFE000
310
00FFFC000C003FE000C001FFFF80007FFFFFFFFFC00001FFFFFFFFFE00001FF8
310
000001FFFE0000007FFFFFF0001FFFFFF8000FFFFFFFF8000FF8000FFFFFFFF8
310
000FFF0003FFFFFFFFFFFFFFFFF00000F000FFFFFFFE000001FFFC000C001FE0
310
00C000FFFF80007FFFFFFFFE000001FFFFFFFFE000001FF80FFFFFFFFFFFFFC0
310
7FFFFFF0001FFFFFF8000FFFFFFFF8000FF8000FFFFFFFF8000FFF0003FFFFFF
310
FFFFFFFFFF800000F000FFFFFFC0000001FFFC001C001FE001C000FFFF80007F
310
FFFFFF80000003FFFFFFF80000001FF80FFFFFFFFFFFFFC07FFFFFF0001FFFFF
310
F8001FFFFFFFFC000FF8001FFFFFFFFC000FFF0003FFFFFFFFFFFFFFF0000001
310
F000FFFFF800000001FFF8001C001FE001C000FFFF80007FFFFFF800000003FF
310
FFFF800000003FF80FFFFFFFFFFFFFC07FFFFFF0001FFFFFF8001FFFFFFFFC00
310
0FF8001FFFFFFFFC000FFF0003FFFFFFFFFFFFFE00000001F000FFFFC0000000
310
03FFF8001E001FC001E000FFFF80007FFFFF8000000007FFFFFC000000003FF8
310
0FFFFFFFFFFFFFC07FFFFFF0001FFFFFF8001FFFFFFFFC000FF8001FFFFFFFFC
310
000FFF0003FFFFFFFFFFFFE000000003F000FFFE0000000007FFF8001E000FC0
310
01E0007FFF80007FFFFE0000000007FFFFE0000000007FF80FFFFFFFFFFFFFC0
310
7FFFFFF0001FFFFFF0001FFFFFFFFC0007F0001FFFFFFFFC0007FF0003FFFFFF
310
FFFFFF0000000003F000FFF80000000007FFF8001E000FC003E0007FFF80007F
310
FFF0000000000FFFFF8000000000FFF80FFFFFFFFFFFFFC07FFFFFF0001FFFFF
310
F0001FFFFFFFFC0007F0001FFFFFFFFC0007FF0003FFFFFFFFFFFC0000000007
310
F000FFE0000000000FFFF0003E000FC003E0007FFF80007FFFC0000000001FFF
310
FE0000000001FFF80FFFFFFFFFFFFFC07FFFFFF0001FFFFFF0001FFFFFFFFC00
310
07F0001FFFFFFFFC0007FF0003FFFFFFFFFFF0000000000FF000FFC000000000
310
1FFFF0003F000F8003F0003FFF80007FFF80000000003FFFF80000000003FFF8
310
0FFFFFFFFFFFFFC07FFFFFF0001FFFFFF0001FFFFFFFFC0007F0001FFFFFFFFC
310
0007FF0003FFFFFFFFFFE0000000001FF000FF00000000007FFFF0003F000780
310
03F0003FFF80007FFF00000000007FFFF00000000007FFF80FFFFFFFFFFFFFC0
310
7FFFFFF0001FFFFFF0001FFFFFFFFC0007F0001FFFFFFFFC0007FF0003FFFFFF
310
FFFF80000000007FF000FE0000000000FFFFE0003F00078007F0003FFF80007F
310
FE0000000001FFFFE0000000001FFFF80FFFFFFFFFFFFFC07FFFFFF0001FFFFF
310
F0001FFFFFFFFC0007F0001FFFFFFFFC0007FF0003FFFFFFFFFF0000000000FF
310
F000FC0000000003FFFFE0007F00078007F0003FFF80007FFC0000000007FFFF
310
C0000000007FFFF80FFFFFFFFFFFFFC07FFFFFF0001FFFFFF8001FFFFFFFFC00
310
0FF8001FFFFFFFFC000FFF0003FFFFFFFFFE0000000003FFF000FC000000000F
310
FFFFE0007F80070007F8001FFF80007FF8000000001FFFFF8000000001FFFFF8
310
0FFFFFFFFFFFFFC07FFFFFF0001FFFFFF8001FFFFFFFFC000FF8001FFFFFFFFC
310
000FFF0003FFFFFFFFFC000000000FFFF000F8000000007FFFFFE0007F800700
310
07F8001FFF80007FF000000000FFFFFF800000000FFFFFF80FFFFFFFFFFFFFC0
310
7FFFFFF0001FFFFFF8000FFFFFFFF8000FF8000FFFFFFFF8000FFF0003FFFFFF
310
FFFC000000007FFFF000F800000007FFFFFFC0007F8003000FF8001FFF80007F
310
F000000007FFFFFF000000007FFFFFF80FFFFFFFFFFFFFC07FFFFFF0001FFFFF
310
F8000FFFFFFFF8000FF8000FFFFFFFF8000FFF0003FFFFFFFFF80000000FFFFF
310
F000F0000000FFFFFFFFC000FF8003000FF8001FFF80007FE0000000FFFFFFFF
310
0000000FFFFFFFF8000001FFFE0000007FFFFFF0001FFFFFF8000FFFFFFFF800
310
0FF8000FFFFFFFF8000FFF0003FFFFFFFFF8000000FFFFFFF000F000000FFFFF
310
FFFFC000FFC002000FF8000FFF80007FE000001FFFFFFFFE000001FFFFFFFFF8
310
000001FFFE0000007FFFFFF0001FFFFFF8000FFFFFFFF8000FF8000FFFFFFFF8
310
000FFF0003FFFFFFFFF000001FFFFFFFF000E00000FFFFFFFFFFC000FFC00200
310
0FFC000FFF80007FE00001FFFFFFFFFE00001FFFFFFFFFF8000001FFFE000000
310
7FFFFFF0001FFFFFFC000FFFFFFFF8001FFC000FFFFFFFF8001FFF0003FFFFFF
310
FFF00001FFFFFFFFF000E00007FFFFFFFFFF8000FFC000001FFC000FFF80007F
310
C0000FFFFFFFFFFE0000FFFFFFFFFFF8000001FFFE0000007FFFFFF0001FFFFF
310
FC0007FFFFFFF0001FFC0007FFFFFFF0001FFF0003FFFFFFFFF00007FFFFFFFF
310
F000E0001FFFFFFFFFFF8000FFC000001FFC000FFF80007FC0003FFFFFFFFFFE
310
0001FFFFFFFFFFF8000001FFFE0000007FFFFFF0001FFFFFFC0007FFFFFFF000
310
1FFC0007FFFFFFF0001FFF0003FFFFFFFFF0001FFFFFFFFFF000E0003FFFFF00
310
03FF8001FFE000001FFC0007FF80007FC0007FFFFF0007FC0003FFFFF0003FF8
310
000001FFFE0000007FFFFFF0001FFFFFFC0003FFFFFFE0001FFC0003FFFFFFE0
310
001FFF0003FFFFFFFFF0003FFFFFFFFFF000E0003FFFFF0001FF8001FFE00000
310
1FFE0007FF80007FC0007FFFFE0003FC0007FFFFE0003FF8000001FFFE000000
310
7FFFFFF0001FFFFFFE0003FFFFFFE0003FFE0003FFFFFFE0003FFF0003FFFFFF
310
FFF0003FFFFF8001F000E0003FFFFF0001FF0001FFE000001FFE0007FF80007F
310
C0007FFFFE0003FC0007FFFFE0003FF8000001FFFE0000007FFFFFF0001FFFFF
310
FE0001FFFFFFC0003FFE0001FFFFFFC0003FFF0003FFFFFFFFF0003FFFFF0001
310
F000E0003FFFFF0003FF0001FFE000003FFE0007FF80007FC0007FFFFE0003FC
310
0007FFFFE0003FF8000001FFFE0000007FFFFFF0001FFFFFFF0001FFFFFFC000
310
7FFF0001FFFFFFC0007FFF0003FFFFFFFFF0003FFFFF0001F000E0003FFFFE00
310
03FF0003FFF000003FFE0003FF80007FC0007FFFFC0003FE0007FFFFE0003FF8
310
000001FFFE0000007FFFFFF0001FFFFFFF0000FFFFFF80007FFF0000FFFFFF80
310
007FFF0003FFFFFFFFF0003FFFFF0001F000E0003FFFFE0003FF0003FFF00000
310
3FFF0003FF80007FC0007FFFFC0007FE0007FFFFC0003FF8000001FFFE000000
310
7FFFFFF0001FFFFFFF80007FFFFF0000FFFF80007FFFFF0000FFFF0003FFFFFF
310
FFF0003FFFFF0003F000E0003FFFFC0003FE0003FFF000003FFF0003FF80007F
310
E0003FFFF80007FE0003FFFFC0007FF8000001FFFE0000007FFFFFF0001FFFFF
310
FF80003FFFFE0000FFFF80003FFFFE0000FFFF0003FFFFFFFFF0001FFFFE0003
310
F000F0001FFFF80003FE0003FFF000007FFF0001FF80007FE0003FFFF00007FE
310
0001FFFF80007FF8000001FFFE0000007FFFFFF0001FFFFFFFC0000FFFF80001
310
FFFFC0000FFFF80001FFFF0003FFFFFFFFF0001FFFFC0003F000F0000FFFF000
310
07FE0007FFF800007FFF0001FF80007FE0001FFFE00007FF0000FFFE00007FF8
310
000001FFFE0000007FFFFFF0001FFFFFFFC00003FFE00001FFFFC00003FFE000
310
01FFFF0003FFFFFFFFF8000FFFF80003F000F00003FFC00007FC0007FFF80000
310
7FFF8001FF80007FF00007FF80000FFF00007FF80000FFF8000001FFFE000000
310
7F80000000000001FFE000003E000003FFFFE000003E000003FFFF0003FFFFFF
310
FFF80003FFE00007F000F800000000000FFC0007FFF800007FFF8001FF80007F
310
F000000000000FFF000000000000FFF8000001FFFE0000007F80000000000001
310
FFF0000000000007FFFFF0000000000007FFFF0003FFFFFFFFFC00007E000007
310
F000F800000000000FFC0007FFF80000FFFF8000FF80007FF800000000001FFF
310
800000000001FFF8000001FFFE0000007F80000000000001FFF800000000000F
310
FFFFF800000000000FFFFF0003FFFFFFFFFC00000000000FF000FC0000000000
310
1FFC0007FFFC0000FFFF8000FF80007FF800000000003FFFC00000000001FFF8
310
000001FFFE0000007F80000000000001FFF800000000000FFFFFF80000000000
310
0FFFFF0003FFFFFFFFFE00000000001FF000FE00000000003FF8000FFFFC0000
310
FFFF8000FF80007FFC00000000003FFFC00000000003FFF8000001FFFE000000
310
7F80000000000001FFFC00000000001FFFFFFC00000000001FFFFF0003FFFFFF
310
FFFF00000000001FF000FF00000000003FF8000FFFFC0000FFFFC000FF80007F
310
FE00000000007FFFE00000000007FFF8000001FFFE0000007F80000000000001
310
FFFE00000000003FFFFFFE00000000003FFFFF0003FFFFFFFFFF80000000003F
310
F000FF80000000007FF8000FFFFC0001FFFFC0007F80007FFF0000000000FFFF
310
F0000000000FFFF800000000000000007F80000000000001FFFF8000000000FF
310
FFFFFF8000000000FFFFFF0003FFFFFFFFFFC0000000007FF000FFC000000000
310
FFF8000FFFFE0001FFFFC0007F80007FFF8000000001FFFFF8000000001FFFF8
310
00000000000000007F80000000000001FFFFC000000001FFFFFFFFC000000001
310
FFFFFF0003FFFFFFFFFFE000000000FFF000FFE000000003FFF0001FFFFE0001
310
FFFFC0007F80007FFFC000000007FFFFFE000000003FFFF80000000000000000
310
7F80000000000001FFFFE000000003FFFFFFFFE000000003FFFFFF0003FFFFFF
310
FFFFF000000003FFF000FFF80000000FFFF0001FFFFE0001FFFFE0007F80007F
310
FFF00000000FFFFFFF00000000FFFFF800000000000000007F80000000000001
310
FFFFF80000000FFFFFFFFFF80000000FFFFFFF0003FFFFFFFFFFFC0000000FFF
310
F000FFFE0000003FFFF0001FFFFE0003FFFFE0003F80007FFFFC0000003FFFFF
310
FFC0000003FFFFF800000000000000007F80000000000001FFFFFE0000003FFF
310
FFFFFFFE0000003FFFFFFF0003FFFFFFFFFFFF0000003FFFF000FFFF800000FF
310
FFF0001FFFFF0003FFFFE0003F80007FFFFF000001FFFFFFFFF800001FFFFFF8
310
00000000000000007F80000000000001FFFFFFC00001FFFFFFFFFFFFC00001FF
310
FFFFFF0003FFFFFFFFFFFFC00000FFFFF000FFFFF8000FFFFFFFFFFFFFFFFFFF
310
FFFFFFFFFFFFFFFFFFFFF0001FFFFFFFFFFF0000FFFFFFF80000000000000000
310
7FFFFFFFFFFFFFFFFFFFFFFC001FFFFFFFFFFFFFFC001FFFFFFFFFFFFFFFFFFF
310
FFFFFFFC001FFFFFF000FFFFFFFFFFFFFFFFFFFFFFFFFFFFFFFFFFFFFFFFFFFF
310
FFFFFFFFFFFFFFFFFFFFFFFFFFFFFFFFFFFFFFFFFFFFFFFFFFFFFFFFFFFFFFFF
310
FFFFFFFFFFFFFFFFFFFFFFFFFFFFFFFFFFFFFFFFFFFFFFFFFFFFFFFFFFFFFFFF
310
F000FFFFFFFFFFFFFFFFFFFFFFFFFFFFFFFFFFFFFFFFFFFFFFFFFFFFFFFFFFFF
310
FFFFFFFFFFFFFFFFFFFFFFFFFFFFFFFFFFFFFFFFFFFFFFFFFFFFFFFFFFFFFFFF
310
FFFFFFFFFFFFFFFFFFFFFFFFFFFFFFFFFFFFFFFFFFFFFFFFF000FFFFFFFFFFFF
310
FFFFFFFFFFFFFFFFFFFFFFFFFFFFFFFFFFFFFFFFFFFFFFFFFFFFFFFFFFFFFFFF
310
FFFFFFFFFFFFFFFFFFFFFFFFFFFFFFFFFFFFFFFFFFFFFFFFFFFFFFFFFFFFFFFF
310
FFFFFFFFFFFFFFFFFFFFFFFFFFFFFFFFF000FFFFFFFFFFFFFFFFFFFFFFFFFFFF
310
FFFFFFFFFFFFFFFFFFFFFFFFFFFFFFFFFFFFFFFFFFFFFFFFFFFFFFFFFFFFFFFF
310
FFFFFFFFFFFFFFFFFFFFFFFFFFFFFFFFFFFFFFFFFFFFFFFFFFFFFFFFFFFFFFFF
310
FFFFFFFFFFFFFFFFF000FFFFFFFFFFFFFFFFFFFFFFFFFFFFFFFFFFFFFFFFFFFF
310
FFFFFFFFFFFFFFFFFFFFFFFFFFFFFFFFFFFFFFFFFFFFFFFFFFFFFFFFFFFFFFFF
310
FFFFFFFFFFFFFFFFFFFFFFFFFFFFFFFFFFFFFFFFFFFFFFFFFFFFFFFFFFFFFFFF
310
F000FFFFFFFFFFFFFFFFFFFFFFFFFFFFFFFFFFFFFFFFFFFFFFFFFFFFFFFFFFFF
310
FFFFFFFFFFFFFFFFFFFFFFFFFFFFFFFFFFFFFFFFFFFFFFFFFFFFFFFFFFFFFFFF
310
FFFFFFFFFFFFFFFFFFFFFFFFFFFFFFFFFFFFFFFFFFFFFFFFF000FFFFFFFFFFFF
310
FFFFFFFFFFFFFFFFFFFFFFFFFFFFFFFFFFFFFFFFFFFFFFFFFFFFFFFFFFFFFFFF
310
FFFFFFFFFFFFFFFFFFFFFFFFFFFFFFFFFFFFFFFFFFFFFFFFFFFFFFFFFFFFFFFF
310
FFFFFFFFFFFFFFFFFFFFFFFFFFFFFFFFF000FFFFFFFFFFFFFFFFFFFFFFFFFFFF
310
FFFFFFFFFFFFFFFFFFFFFFFFFFFFFFFFFFFFFFFFFFFFFFFFFFFFFFFFFFFFFFFF
310
FFFFFFFFFFFFFFFFFFFFFFFFFFFFFFFFFFFFFFFFFFFFFFFFFFFFFFFFFFFFFFFF
310
FFFFFFFFFFFFFFFFF000FFFFFFFFFFFFFFFFFFFFFFFFFFFFFFFFFFFFFFFFFFFF
310
FFFFFFFFFFFFFFFFFFFFFFFFFFFFFFFFFFFFFFFFFFFFFFFFFFFFFFFFFFFFFFFF
310
FFFFFFFFFFFFFFFFFFFFFFFFFFFFFFFFFFFFFFFFFFFFFFFFFFFFFFFFFFFFFFFF
310
F000FFFFFFFFFFFFFFFFFFFFFFFFFFFFFFFFFFFFFFFFFFFFFFFFFFFFFFFFFFFF
310
FFFFFFFFFFFFFFFFFFFFFFFFFFFFFFFFFFFFFFFFFFFFFFFFFFFFFFFFFFFFFFFF
310
FFFFFFFFFFFFFFFFFFFFFFFFFFFFFFFFFFFFFFFFFFFFFFFFF000FFFFFFFFFFFF
310
FFFFFFFFFFFFFFFFFFFFFFFFFFFFFFFFFFFFFFFFFFFFFFFFFFFFFFFFFFFFFFFF
310
FFFFFFFFFFFFFFFFFFFFFFFFFFFFFFFFFFFFFFFFFFFFFFFFFFFFFFFFFFFFFFFF
310
FFFFFFFFFFFFFFFFFFFFFFFFFFFFFFFFF000FFFFFFFFFFFFFFFFFFFFFFFFFFFF
310
FFFFFFFFFFFFFFFFFFFFFFFFFFFFFFFFFFFFFFFFFFFFFFFFFFFFFFFFFFFFFFFF
310
FFFFFFFFFFFFFFFFFFFFFFFFFFFFFFFFFFFFFFFFFFFFFFFFFFFFFFFFFFFFFFFF
310
FFFFFFFFFFFFFFFFF000FFFFFFFFFFFFFFFFFFFFFFFFFFFFFFFFFFFFFFFFFFFF
310
FFFFFFFFFFFFFFFFFFFFFFFFFFFFFFFFFFFFFFFFFFFFFFFFFFFFFFFFFFFFFFFF
310
FFFFFFFFFFFFFFFFFFFFFFFFFFFFFFFFFFFFFFFFFFFFFFFFFFFFFFFFFFFFFFFF
310
F000FFFFFFFFFFFFFFFFFFFFFFFFFFFFFFFFFFFFFFFFFFFFFFFFFFFFFFFFFFFF
310
FFFFFFFFFFFFFFFFFFFFFFFFFFFFFFFFFFFFFFFFFFFFFFFFFFFFFFFFFFFFFFFF
310
FFFFFFFFFFFFFFFFFFFFFFFFFFFFFFFFFFFFFFFFFFFFFFFFF000FFFFFFFFFFFF
310
FFFFFFFFFFFFFFFFFFFFFFFFFFFFFFFFFFFFFFFFFFFFFFFFFFFFFFFFFFFFFFFF
310
FFFFFFFFFFFFFFFFFFFFFFFFFFFFFFFFFFFFFFFFFFFFFFFFFFFFFFFFFFFFFFFF
310
FFFFFFFFFFFFFFFFFFFFFFFFFFFFFFFFF000FFFFFFFFFFFFFFFFFFFFFFFFFFFF
310
FFFFFFFFFFFFFFFFFFFFFFFFFFFFFFFFFFFFFFFFFFFFFFFFFFFFFFFFFFFFFFFF
310
FFFFFFFFFFFFFFFFFFFFFFFFFFFFFFFFFFFFFFFFFFFFFFFFFFFFFFFFFFFFFFFF
310
FFFFFFFFFFFFFFFFF000FFFFFFFFFFFFFFFFFFFFFFFFFFFFFFFFFFFFFFFFFFFF
310
FFFFFFFFFFFFFFFFFFFFFFFFFFFFFFFFFFFFFFFFFFFFFFFFFFFFFFFFFFFFFFFF
310
FFFFFFFFFFFFFFFFFFFFFFFFFFFFFFFFFFFFFFFFFFFFFFFFFFFFFFFFFFFFFFFF
310
F000FFFFFFFFFFFFFFFFFFFFFFFFFFFFFFFFFFFFFFFFFFFFFFFFFFFFFFFFFFFF
310
FFFFFFFFFFFFFFFFFFFFFFFFFFFFFFFFFFFFFFFFFFFFFFFFFFFFFFFFFFFFFFFF
310
FFFFFFFFFFFFFFFFFFFFFFFFFFFFFFFFFFFFFFFFFFFFFFFFF000FFFFFFFFFFFF
310
FFFFFFFFFFFFFFFFFFFFFFFFFFFFFFFFFFFFFFFFFFFFFFFFFFFFFFFFFFFFFFFF
310
FFFFFFFFFFFFFFFFFFFFFFFFFFFFFFFFFFFFFFFFFFFFFFFFFFFFFFFFFFFFFFFF
310
FFFFFFFFFFFFFFFFFFFFFFFFFFFFFFFFF000FFFFFFFFFFFFFFFFFFFFFFFFFFFF
310
FFFFFFFFFFFFFFFFFFFFFFFFFFFFFFFFFFFFFFFFFFFFFFFFFFFFFFFFFFFFFFFF
310
FFFFFFFFFFFFFFFFFFFFFFFFFFFFFFFFFFFFFFFFFFFFFFFFFFFFFFFFFFFFFFFF
310
FFFFFFFFFFFFFFFFF000FFFFFFFFFFFFFFFFFFFFFFFFFFFFFFFFFFFFFFFFFFFF
310
FFFFFFFFFFFFFFFFFFFFFFFFFFFFFFFFFFFFFFFFFFFFFFFFFFFFFFFFFFFFFFFF
310
FFFFFFFFFFFFFFFFFFFFFFFFFFFFFFFFFFFFFFFFFFFFFFFFFFFFFFFFFFFFFFFF
310
F000FFFFFFFFFFFFFFFFFFFFFFFFFFFFFFFFFFFFFFFFFFFFFFFFFFFFFFFFFFFF
310
FFFFFFFFFFFFFFFFFFFFFFFFFFFFFFFFFFFFFFFFFFFFFFFFFFFFFFFFFFFFFFFF
310
FFFFFFFFFFFFFFFFFFFFFFFFFFFFFFFFFFFFFFFFFFFFFFFFF000FFFFFFFFFFFF
310
FFFFFFFFFFFFFFFFFFFFFFFFFFFFFFFFFFFFFFFFFFFFFFFFFFFFFFFFFFFFFFFF
310
FFFFFFFFFFFFFFFFFFFFFFFFFFFFFFFFFFFFFFFFFFFFFFFFFFFFFFFFFFFFFFFF
310
FFFFFFFFFFFFFFFFFFFFFFFFFFFFFFFFF0000000000000000000000000000000
310
0000000000000000000000000000000000000000000000000000000000000000
310
0000000000000000000000000000000000000000000000000000000000000000
310
0000000000000000000000000000000000000000000000000000000000000000
310
0000000000000000000000000000000000000000000000000000000000000000
310
0000000000000000000000000000000000000000000000000000000000000000
310
0000000000000000000000000000000000000000000000000000000000000000
310
0000000000000000000000000000000000000000000000000000000000000000
310
0000000000000000000000000000000000000000000000000000000000000000
310
0000000000000000000000000000000000000000000000000000000000000000
310
0000000000000000000000000000000000000000000000000000000000000000
310
0000000000000000000000000000000000000000000000000000000000000000
310
0000000000000000000000000000000000000000000000000000000000000000
310
0000000000000000000000000000000000000000000000000000000000000000
310
0000000000000000000000000000000000000000000000000000000000000000
310
0000000000000000000000000000000000000000000000000000000000000000
  1
OLE
  0
ENDSEC
  0
SECTION
  2
OBJECTS
  0
DICTIONARY
  5
C
330
0
100
AcDbDictionary
281
     1
  3
ACAD_GROUP
350
D
  3
ACAD_LAYOUT
350
1A
  3
ACAD_MLINESTYLE
350
17
  3
ACAD_PLOTSETTINGS
350
19
  3
ACAD_PLOTSTYLENAME
350
E
  0
DICTIONARY
  5
D
102
{ACAD_REACTORS
330
C
102
}
330
C
100
AcDbDictionary
281
     1
  0
DICTIONARY
  5
1A
102
{ACAD_REACTORS
330
C
102
}
330
C
100
AcDbDictionary
281
     1
  3
Layout1
350
1E
  3
Layout2
350
26
  3
Model
350
22
  0
DICTIONARY
  5
17
102
{ACAD_REACTORS
330
C
102
}
330
C
100
AcDbDictionary
281
     1
  3
Standard
350
18
  0
DICTIONARY
  5
19
102
{ACAD_REACTORS
330
C
102
}
330
C
100
AcDbDictionary
281
     1
  0
ACDBDICTIONARYWDFLT
  5
E
102
{ACAD_REACTORS
330
C
102
}
330
C
100
AcDbDictionary
281
     1
  3
Normal
350
F
100
AcDbDictionaryWithDefault
340
F
  0
LAYOUT
  5
1E
102
{ACAD_REACTORS
330
1A
102
}
330
1A
100
AcDbPlotSettings
  1

  2
none_device
  4

  6

 40
0.0
 41
0.0
 42
0.0
 43
0.0
 44
0.0
 45
0.0
 46
0.0
 47
0.0
 48
0.0
 49
0.0
140
0.0
141
0.0
142
1.0
143
1.0
 70
   688
 72
     0
 73
     0
 74
     5
  7

 75
    16
147
1.0
148
0.0
149
0.0
100
AcDbLayout
  1
Layout1
 70
     1
 71
     1
 10
0.0
 20
0.0
 11
420.0
 21
297.0
 12
0.0
 22
0.0
 32
0.0
 14
1.0000000000E+20
 24
1.0000000000E+20
 34
1.0000000000E+20
 15
-1.0000000000E+20
 25
-1.0000000000E+20
 35
-1.0000000000E+20
146
0.0
 13
0.0
 23
0.0
 33
0.0
 16
1.0
 26
0.0
 36
0.0
 17
0.0
 27
1.0
 37
0.0
 76
     0
330
1B
  0
LAYOUT
  5
26
102
{ACAD_REACTORS
330
1A
102
}
330
1A
100
AcDbPlotSettings
  1

  2
none_device
  4

  6

 40
0.0
 41
0.0
 42
0.0
 43
0.0
 44
0.0
 45
0.0
 46
0.0
 47
0.0
 48
0.0
 49
0.0
140
0.0
141
0.0
142
1.0
143
1.0
 70
   688
 72
     0
 73
     0
 74
     5
  7

 75
    16
147
1.0
148
0.0
149
0.0
100
AcDbLayout
  1
Layout2
 70
     1
 71
     2
 10
0.0
 20
0.0
 11
0.0
 21
0.0
 12
0.0
 22
0.0
 32
0.0
 14
0.0
 24
0.0
 34
0.0
 15
0.0
 25
0.0
 35
0.0
146
0.0
 13
0.0
 23
0.0
 33
0.0
 16
1.0
 26
0.0
 36
0.0
 17
0.0
 27
1.0
 37
0.0
 76
     0
330
23
  0
LAYOUT
  5
22
102
{ACAD_REACTORS
330
1A
102
}
330
1A
100
AcDbPlotSettings
  1

  2
none_device
  4

  6

 40
0.0
 41
0.0
 42
0.0
 43
0.0
 44
0.0
 45
0.0
 46
0.0
 47
0.0
 48
0.0
 49
0.0
140
0.0
141
0.0
142
1.0
143
1.0
 70
  1712
 72
     0
 73
     0
 74
     0
  7

 75
     0
147
1.0
148
0.0
149
0.0
100
AcDbLayout
  1
Model
 70
     1
 71
     0
 10
0.0
 20
0.0
 11
297.0
 21
210.0
 12
0.0
 22
0.0
 32
0.0
 14
0.0
 24
0.0
 34
0.0
 15
297.0
 25
210.0
 35
0.0
146
0.0
 13
0.0
 23
0.0
 33
0.0
 16
1.0
 26
0.0
 36
0.0
 17
0.0
 27
1.0
 37
0.0
 76
     0
330
1F
331
29
  0
MLINESTYLE
  5
18
102
{ACAD_REACTORS
330
17
102
}
330
17
100
AcDbMlineStyle
  2
Standard
 70
     0
  3

 62
   256
 51
90.0
 52
90.0
 71
     2
 49
0.5
 62
   256
  6
BYLAYER
 49
-0.5
 62
   256
  6
BYLAYER
  0
ACDBPLACEHOLDER
  5
F
102
{ACAD_REACTORS
330
E
102
}
330
E
  0
ENDSEC
  0
EOF
