  0
SECTION
  2
HEADER
  9
$ACADVER
  1
AC1015
  9
$ACADMAINTVER
 70
     6
  9
$DWGCODEPAGE
  3
ANSI_1252
  9
$INSBASE
 10
0.0
 20
0.0
 30
0.0
  9
$EXTMIN
 10
0.0
 20
0.0
 30
0.0
  9
$EXTMAX
 10
297.0
 20
210.0
 30
0.0
  9
$LIMMIN
 10
0.0
 20
0.0
  9
$LIMMAX
 10
297.0
 20
210.0
  9
$ORTHOMODE
 70
     0
  9
$REGENMODE
 70
     1
  9
$FILLMODE
 70
     1
  9
$QTEXTMODE
 70
     0
  9
$MIRRTEXT
 70
     1
  9
$LTSCALE
 40
1.0
  9
$ATTMODE
 70
     1
  9
$TEXTSIZE
 40
2.0
  9
$TRACEWID
 40
1.0
  9
$TEXTSTYLE
  7
Standard
  9
$CLAYER
  8
0
  9
$CELTYPE
  6
ByLayer
  9
$CECOLOR
 62
   256
  9
$CELTSCALE
 40
1.0
  9
$DISPSILH
 70
     0
  9
$DIMSCALE
 40
1.0
  9
$DIMASZ
 40
3.0
  9
$DIMEXO
 40
0.0
  9
$DIMDLI
 40
3.75
  9
$DIMRND
 40
0.0
  9
$DIMDLE
 40
0.0
  9
$DIMEXE
 40
1.0
  9
$DIMTP
 40
0.0
  9
$DIMTM
 40
0.0
  9
$DIMTXT
 40
2.0
  9
$DIMCEN
 40
2.5
  9
$DIMTSZ
 40
0.0
  9
$DIMTOL
 70
     0
  9
$DIMLIM
 70
     0
  9
$DIMTIH
 70
     1
  9
$DIMTOH
 70
     1
  9
$DIMSE1
 70
     0
  9
$DIMSE2
 70
     0
  9
$DIMTAD
 70
     1
  9
$DIMZIN
 70
     0
  9
$DIMBLK
  1

  9
$DIMASO
 70
     1
  9
$DIMSHO
 70
     1
  9
$DIMPOST
  1

  9
$DIMAPOST
  1

  9
$DIMALT
 70
     0
  9
$DIMALTD
 70
     3
  9
$DIMALTF
 40
0.0393700787
  9
$DIMLFAC
 40
1.0
  9
$DIMTOFL
 70
     1
  9
$DIMTVP
 40
0.0
  9
$DIMTIX
 70
     0
  9
$DIMSOXD
 70
     0
  9
$DIMSAH
 70
     0
  9
$DIMBLK1
  1

  9
$DIMBLK2
  1

  9
$DIMSTYLE
  2
ISO-25
  9
$DIMCLRD
 70
     0
  9
$DIMCLRE
 70
     0
  9
$DIMCLRT
 70
     0
  9
$DIMTFAC
 40
1.0
  9
$DIMGAP
 40
1.524
  9
$DIMJUST
 70
     0
  9
$DIMSD1
 70
     0
  9
$DIMSD2
 70
     0
  9
$DIMTOLJ
 70
     0
  9
$DIMTZIN
 70
     0
  9
$DIMALTZ
 70
     0
  9
$DIMALTTZ
 70
     0
  9
$DIMUPT
 70
     0
  9
$DIMDEC
 70
     2
  9
$DIMTDEC
 70
     3
  9
$DIMALTU
 70
     2
  9
$DIMALTTD
 70
     3
  9
$DIMTXSTY
  7
Standard
  9
$DIMAUNIT
 70
     0
  9
$DIMADEC
 70
     2
  9
$DIMALTRND
 40
0.0
  9
$DIMAZIN
 70
     0
  9
$DIMDSEP
 70
    44
  9
$DIMATFIT
 70
     3
  9
$DIMFRAC
 70
     0
  9
$DIMLDRBLK
  1

  9
$DIMLUNIT
 70
     2
  9
$DIMLWD
 70
    -2
  9
$DIMLWE
 70
    -2
  9
$DIMTMOVE
 70
     0
  9
$LUNITS
 70
     2
  9
$LUPREC
 70
     2
  9
$SKETCHINC
 40
1.0
  9
$FILLETRAD
 40
10.0
  9
$AUNITS
 70
     0
  9
$AUPREC
 70
     2
  9
$MENU
  1
.
  9
$ELEVATION
 40
0.0
  9
$PELEVATION
 40
0.0
  9
$THICKNESS
 40
0.0
  9
$LIMCHECK
 70
     0
  9
$CHAMFERA
 40
10.0
  9
$CHAMFERB
 40
10.0
  9
$CHAMFERC
 40
20.0
  9
$CHAMFERD
 40
0.0
  9
$SKPOLY
 70
     0
  9
$TDCREATE
 40
2456457.649058287
  9
$TDUCREATE
 40
2456457.565724954
  9
$TDUPDATE
 40
2456457.649059919
  9
$TDUUPDATE
 40
2456457.565726586
  9
$TDINDWG
 40
0.0000000116
  9
$TDUSRTIMER
 40
0.0000000116
  9
$USRTIMER
 70
     1
  9
$ANGBASE
 50
0.0
  9
$ANGDIR
 70
     0
  9
$PDMODE
 70
     0
  9
$PDSIZE
 40
-1.0
  9
$PLINEWID
 40
0.0
  9
$SPLFRAME
 70
     0
  9
$SPLINETYPE
 70
     6
  9
$SPLINESEGS
 70
     8
  9
$HANDSEED
  5
39D
  9
$SURFTAB1
 70
     6
  9
$SURFTAB2
 70
     6
  9
$SURFTYPE
 70
     6
  9
$SURFU
 70
     6
  9
$SURFV
 70
     6
  9
$UCSBASE
  2

  9
$UCSNAME
  2

  9
$UCSORG
 10
0.0
 20
0.0
 30
0.0
  9
$UCSXDIR
 10
1.0
 20
0.0
 30
0.0
  9
$UCSYDIR
 10
0.0
 20
1.0
 30
0.0
  9
$UCSORTHOREF
  2

  9
$UCSORTHOVIEW
 70
     0
  9
$UCSORGTOP
 10
0.0
 20
0.0
 30
0.0
  9
$UCSORGBOTTOM
 10
0.0
 20
0.0
 30
0.0
  9
$UCSORGLEFT
 10
0.0
 20
0.0
 30
0.0
  9
$UCSORGRIGHT
 10
0.0
 20
0.0
 30
0.0
  9
$UCSORGFRONT
 10
0.0
 20
0.0
 30
0.0
  9
$UCSORGBACK
 10
0.0
 20
0.0
 30
0.0
  9
$PUCSBASE
  2

  9
$PUCSNAME
  2

  9
$PUCSORG
 10
0.0
 20
0.0
 30
0.0
  9
$PUCSXDIR
 10
1.0
 20
0.0
 30
0.0
  9
$PUCSYDIR
 10
0.0
 20
1.0
 30
0.0
  9
$PUCSORTHOREF
  2

  9
$PUCSORTHOVIEW
 70
     0
  9
$PUCSORGTOP
 10
0.0
 20
0.0
 30
0.0
  9
$PUCSORGBOTTOM
 10
0.0
 20
0.0
 30
0.0
  9
$PUCSORGLEFT
 10
0.0
 20
0.0
 30
0.0
  9
$PUCSORGRIGHT
 10
0.0
 20
0.0
 30
0.0
  9
$PUCSORGFRONT
 10
0.0
 20
0.0
 30
0.0
  9
$PUCSORGBACK
 10
0.0
 20
0.0
 30
0.0
  9
$USERI1
 70
     0
  9
$USERI2
 70
     0
  9
$USERI3
 70
     0
  9
$USERI4
 70
     0
  9
$USERI5
 70
     0
  9
$USERR1
 40
0.0
  9
$USERR2
 40
0.0
  9
$USERR3
 40
0.0
  9
$USERR4
 40
0.0
  9
$USERR5
 40
0.0
  9
$WORLDVIEW
 70
     1
  9
$SHADEDGE
 70
     3
  9
$SHADEDIF
 70
    70
  9
$TILEMODE
 70
     1
  9
$MAXACTVP
 70
    64
  9
$PINSBASE
 10
0.0
 20
0.0
 30
0.0
  9
$PLIMCHECK
 70
     0
  9
$PEXTMIN
 10
1.0000000000E+20
 20
1.0000000000E+20
 30
1.0000000000E+20
  9
$PEXTMAX
 10
-1.0000000000E+20
 20
-1.0000000000E+20
 30
-1.0000000000E+20
  9
$PLIMMIN
 10
0.0
 20
0.0
  9
$PLIMMAX
 10
420.0
 20
297.0
  9
$UNITMODE
 70
     0
  9
$VISRETAIN
 70
     1
  9
$PLINEGEN
 70
     0
  9
$PSLTSCALE
 70
     1
  9
$TREEDEPTH
 70
  3020
  9
$CMLSTYLE
  2
Standard
  9
$CMLJUST
 70
     0
  9
$CMLSCALE
 40
20.0
  9
$PROXYGRAPHICS
 70
     1
  9
$MEASUREMENT
 70
     1
  9
$CELWEIGHT
370
    -1
  9
$ENDCAPS
280
     0
  9
$JOINSTYLE
280
     0
  9
$LWDISPLAY
290
     1
  9
$INSUNITS
 70
     4
  9
$HYPERLINKBASE
  1

  9
$STYLESHEET
  1

  9
$XEDIT
290
     1
  9
$CEPSNTYPE
380
     0
  9
$PSTYLEMODE
290
     1
  9
$FINGERPRINTGUID
  2
{E5B0EBBB-35A0-4114-B58D-48C05397B55D}
  9
$VERSIONGUID
  2
{FAEB1C32-E019-11D5-929B-00C0DF256EC4}
  9
$EXTNAMES
290
     1
  9
$PSVPSCALE
 40
0.0
  9
$OLESTARTUP
290
     0
  0
ENDSEC
  0
SECTION
  2
CLASSES
  0
CLASS
  1
ACDBDICTIONARYWDFLT
  2
AcDbDictionaryWithDefault
  3
ObjectDBX Classes
 90
        0
280
     0
281
     0
  0
CLASS
  1
VISUALSTYLE
  2
AcDbVisualStyle
  3
ObjectDBX Classes
 90
     4095
280
     0
281
     0
  0
CLASS
  1
MATERIAL
  2
AcDbMaterial
  3
ObjectDBX Classes
 90
     1153
280
     0
281
     0
  0
CLASS
  1
ACDBPLACEHOLDER
  2
AcDbPlaceHolder
  3
ObjectDBX Classes
 90
        0
280
     0
281
     0
  0
CLASS
  1
LAYOUT
  2
AcDbLayout
  3
ObjectDBX Classes
 90
        0
280
     0
281
     0
  0
ENDSEC
  0
SECTION
  2
TABLES
  0
TABLE
  2
VPORT
  5
8
330
0
100
AcDbSymbolTable
 70
     1
  0
VPORT
  5
29
330
8
100
AcDbSymbolTableRecord
100
AcDbViewportTableRecord
  2
*Active
 70
     0
 10
0.0
 20
0.0
 11
1.0
 21
1.0
 12
148.5
 22
105.0
 13
0.0
 23
0.0
 14
10.0
 24
10.0
 15
10.0
 25
10.0
 16
0.0
 26
0.0
 36
1.0
 17
0.0
 27
0.0
 37
0.0
 40
210.0
 41
1.4142857143
 42
50.0
 43
0.0
 44
0.0
 50
0.0
 51
0.0
 71
     0
 72
  2000
 73
     1
 74
     3
 75
     0
 76
     0
 77
     0
 78
     0
281
     0
 65
     1
110
0.0
120
0.0
130
0.0
111
1.0
121
0.0
131
0.0
112
0.0
122
1.0
132
0.0
 79
     0
146
0.0
  0
ENDTAB
  0
TABLE
  2
LTYPE
  5
5
330
0
100
AcDbSymbolTable
 70
     6
  0
LTYPE
  5
14
330
5
100
AcDbSymbolTableRecord
100
AcDbLinetypeTableRecord
  2
ByBlock
 70
     0
  3

 72
    65
 73
     0
 40
0.0
  0
LTYPE
  5
15
330
5
100
AcDbSymbolTableRecord
100
AcDbLinetypeTableRecord
  2
ByLayer
 70
     0
  3

 72
    65
 73
     0
 40
0.0
  0
LTYPE
  5
16
330
5
100
AcDbSymbolTableRecord
100
AcDbLinetypeTableRecord
  2
Continuous
 70
     0
  3
Solid line
 72
    65
 73
     0
 40
0.0
  0
LTYPE
  5
3F
330
5
100
AcDbSymbolTableRecord
100
AcDbLinetypeTableRecord
  2
HIDDEN
 70
     0
  3
Hidden __ __ __ __ __ __ __ __ __ __ __ __ __ __
 72
    65
 73
     2
 40
1.905
 49
1.27
 74
     0
 49
-0.635
 74
     0
  0
LTYPE
  5
40
330
5
100
AcDbSymbolTableRecord
100
AcDbLinetypeTableRecord
  2
PHANTOM
 70
     0
  3
Phantom ______  __  __  ______  __  __  ______
 72
    65
 73
     6
 40
12.7
 49
6.35
 74
     0
 49
-1.27
 74
     0
 49
1.27
 74
     0
 49
-1.27
 74
     0
 49
1.27
 74
     0
 49
-1.27
 74
     0
  0
LTYPE
  5
41
330
5
100
AcDbSymbolTableRecord
100
AcDbLinetypeTableRecord
  2
CENTER
 70
     0
  3
Center ____ _ ____ _ ____ _ ____ _ ____ _ ____
 72
    65
 73
     4
 40
10.16
 49
6.35
 74
     0
 49
-1.27
 74
     0
 49
1.27
 74
     0
 49
-1.27
 74
     0
  0
LTYPE
  5
42
330
5
100
AcDbSymbolTableRecord
100
AcDbLinetypeTableRecord
  2
CENTERX2
 70
     0
  3
Center (2x) ________  __  ________  __  _____
 72
    65
 73
     4
 40
20.32
 49
12.7
 74
     0
 49
-2.54
 74
     0
 49
2.54
 74
     0
 49
-2.54
 74
     0
  0
LTYPE
  5
43
330
5
100
AcDbSymbolTableRecord
100
AcDbLinetypeTableRecord
  2
DOT2
 70
     0
  3
Dot (.5x) ........................................
 72
    65
 73
     2
 40
0.635
 49
0.0
 74
     0
 49
-0.635
 74
     0
  0
ENDTAB
  0
TABLE
  2
LAYER
  5
2
330
0
100
AcDbSymbolTable
 70
     5
  0
LAYER
  5
10
330
2
100
AcDbSymbolTableRecord
100
AcDbLayerTableRecord
  2
0
 70
     0
 62
     7
  6
Continuous
370
    -3
390
F
  0
LAYER
  5
44
330
2
100
AcDbSymbolTableRecord
100
AcDbLayerTableRecord
  2
FORMAT
 70
     0
 62
     7
  6
Continuous
370
    -3
390
F
  0
LAYER
  5
45
330
2
100
AcDbSymbolTableRecord
100
AcDbLayerTableRecord
  2
VERMASSUNG
 70
     0
 62
     7
  6
Continuous
370
    -3
390
F
  0
LAYER
  5
46
330
2
100
AcDbSymbolTableRecord
100
AcDbLayerTableRecord
  2
KOPF_DÜNN
 70
     0
 62
     7
  6
Continuous
370
    -3
390
F
  0
LAYER
  5
47
330
2
100
AcDbSymbolTableRecord
100
AcDbLayerTableRecord
  2
KOPF_DICK
 70
     0
 62
     7
  6
Continuous
370
    15
390
F
  0
ENDTAB
  0
TABLE
  2
STYLE
  5
3
330
0
100
AcDbSymbolTable
 70
     2
  0
STYLE
  5
11
330
3
100
AcDbSymbolTableRecord
100
AcDbTextStyleTableRecord
  2
Standard
 70
     0
 40
0.0
 41
1.0
 50
0.0
 71
     0
 42
2.0
  3
txt
  4

  0
STYLE
  5
48
330
3
100
AcDbSymbolTableRecord
100
AcDbTextStyleTableRecord
  2
SLDTEXTSTYLE0
 70
     0
 40
0.0
 41
0.7
 50
0.0
 71
     0
 42
0.2
  3
TXT
  4

  0
ENDTAB
  0
TABLE
  2
VIEW
  5
6
330
0
100
AcDbSymbolTable
 70
     0
  0
ENDTAB
  0
TABLE
  2
UCS
  5
7
330
0
100
AcDbSymbolTable
 70
     0
  0
ENDTAB
  0
TABLE
  2
APPID
  5
9
330
0
100
AcDbSymbolTable
 70
     1
  0
APPID
  5
12
330
9
100
AcDbSymbolTableRecord
100
AcDbRegAppTableRecord
  2
ACAD
 70
     0
  0
ENDTAB
  0
TABLE
  2
DIMSTYLE
  5
A
330
0
100
AcDbSymbolTable
 70
     3
100
AcDbDimStyleTable
  0
DIMSTYLE
105
27
330
A
100
AcDbSymbolTableRecord
100
AcDbDimStyleTableRecord
  2
ISO-25
 70
     0
 41
2.5
 42
0.625
 43
3.75
 44
1.25
 73
     0
 74
     0
 77
     1
 78
     8
140
2.5
141
2.5
143
0.0393700787
147
0.625
171
     3
172
     1
178
     0
271
     2
272
     2
274
     3
278
    44
283
     0
284
     8
340
11
  0
DIMSTYLE
105
1B9
102
{ACAD_REACTORS
330
1B8
330
1C5
330
1DE
330
1E8
330
1F2
330
1FC
330
206
330
210
330
21A
102
}
330
A
100
AcDbSymbolTableRecord
100
AcDbDimStyleTableRecord
  2
SLDDIMSTYLE0
 70
     0
 41
3.0
 44
0.0
 45
0.000000001
 73
     0
 74
     0
 77
     1
 78
    12
 79
     3
140
2.0
147
0.5
173
     1
178
     0
271
     2
272
     3
276
     2
284
    12
340
48
  0
DIMSTYLE
105
1D1
102
{ACAD_REACTORS
330
1D0
102
}
330
A
100
AcDbSymbolTableRecord
100
AcDbDimStyleTableRecord
  2
SLDDIMSTYLE1
 70
     0
 41
3.0
 44
0.0
 45
0.000000001
 73
     0
 74
     0
 77
     1
 78
    12
 79
     3
140
2.0
147
0.5
172
     1
173
     1
178
     0
271
     2
272
     3
276
     2
284
    12
289
     0
340
48
  0
ENDTAB
  0
TABLE
  2
BLOCK_RECORD
  5
1
330
0
100
AcDbSymbolTable
 70
    12
  0
BLOCK_RECORD
  5
1F
330
1
100
AcDbSymbolTableRecord
100
AcDbBlockTableRecord
  2
*Model_Space
340
22
  0
BLOCK_RECORD
  5
1B
330
1
100
AcDbSymbolTableRecord
100
AcDbBlockTableRecord
  2
*Paper_Space
340
1E
  0
BLOCK_RECORD
  5
23
330
1
100
AcDbSymbolTableRecord
100
AcDbBlockTableRecord
  2
*Paper_Space0
340
26
  0
BLOCK_RECORD
  5
1BA
330
1
100
AcDbSymbolTableRecord
100
AcDbBlockTableRecord
  2
_D
340
0
  0
BLOCK_RECORD
  5
1C6
330
1
100
AcDbSymbolTableRecord
100
AcDbBlockTableRecord
  2
_D_1
340
0
  0
BLOCK_RECORD
  5
1D2
330
1
100
AcDbSymbolTableRecord
100
AcDbBlockTableRecord
  2
_D_2
340
0
  0
BLOCK_RECORD
  5
1DF
330
1
100
AcDbSymbolTableRecord
100
AcDbBlockTableRecord
  2
_D_3
340
0
  0
BLOCK_RECORD
  5
1E9
330
1
100
AcDbSymbolTableRecord
100
AcDbBlockTableRecord
  2
_D_4
340
0
  0
BLOCK_RECORD
  5
1F3
330
1
100
AcDbSymbolTableRecord
100
AcDbBlockTableRecord
  2
_D_5
340
0
  0
BLOCK_RECORD
  5
1FD
330
1
100
AcDbSymbolTableRecord
100
AcDbBlockTableRecord
  2
_D_6
340
0
  0
BLOCK_RECORD
  5
207
330
1
100
AcDbSymbolTableRecord
100
AcDbBlockTableRecord
  2
_D_7
340
0
  0
BLOCK_RECORD
  5
211
330
1
100
AcDbSymbolTableRecord
100
AcDbBlockTableRecord
  2
_D_8
340
0
  0
BLOCK_RECORD
  5
21B
330
1
100
AcDbSymbolTableRecord
100
AcDbBlockTableRecord
  2
_D_9
340
0
  0
BLOCK_RECORD
  5
390
330
1
100
AcDbSymbolTableRecord
100
AcDbBlockTableRecord
  2
SW_CENTERMARKSYMBOL_0
340
0
102
{BLKREFS
331
39B
102
}
  0
ENDTAB
  0
ENDSEC
  0
SECTION
  2
BLOCKS
  0
BLOCK
  5
20
330
1F
100
AcDbEntity
  8
0
100
AcDbBlockBegin
  2
*Model_Space
 70
     0
 10
0.0
 20
0.0
 30
0.0
  3
*Model_Space
  1

  0
ENDBLK
  5
21
330
1F
100
AcDbEntity
  8
0
100
AcDbBlockEnd
  0
BLOCK
  5
1C
330
1B
100
AcDbEntity
 67
     1
  8
0
100
AcDbBlockBegin
  2
*Paper_Space
 70
     0
 10
0.0
 20
0.0
 30
0.0
  3
*Paper_Space
  1

  0
ENDBLK
  5
1D
330
1B
100
AcDbEntity
 67
     1
  8
0
100
AcDbBlockEnd
  0
BLOCK
  5
24
330
23
100
AcDbEntity
  8
0
100
AcDbBlockBegin
  2
*Paper_Space0
 70
     0
 10
0.0
 20
0.0
 30
0.0
  3
*Paper_Space0
  1

  0
ENDBLK
  5
25
330
23
100
AcDbEntity
  8
0
100
AcDbBlockEnd
  0
BLOCK
  5
1BB
330
1BA
100
AcDbEntity
  8
0
100
AcDbBlockBegin
  2
_D
 70
     0
 10
0.0
 20
0.0
 30
0.0
  3
_D
  1

  0
SOLID
  5
1BD
330
1BA
100
AcDbEntity
  8
VERMASSUNG
100
AcDbTrace
 10
135.003183791
 20
172.1064681725
 30
0.0
 11
134.553183791
 21
169.1064681725
 31
0.0
 12
135.453183791
 22
169.1064681725
 32
0.0
 13
135.453183791
 23
169.1064681725
 33
0.0
  0
SOLID
  5
1BE
330
1BA
100
AcDbEntity
  8
VERMASSUNG
100
AcDbTrace
 10
135.003183791
 20
72.1064681725
 30
0.0
 11
135.453183791
 21
75.1064681725
 31
0.0
 12
134.553183791
 22
75.1064681725
 32
0.0
 13
134.553183791
 23
75.1064681725
 33
0.0
  0
LINE
  5
1BF
330
1BA
100
AcDbEntity
  8
VERMASSUNG
100
AcDbLine
 10
195.7105328414
 20
172.1064681725
 30
0.0
 11
134.003183791
 21
172.1064681725
 31
0.0
  0
LINE
  5
1C0
330
1BA
100
AcDbEntity
  8
VERMASSUNG
100
AcDbLine
 10
195.7105328414
 20
72.1064681725
 30
0.0
 11
134.003183791
 21
72.1064681725
 31
0.0
  0
LINE
  5
1C1
330
1BA
100
AcDbEntity
  8
VERMASSUNG
100
AcDbLine
 10
135.003183791
 20
172.1064681725
 30
0.0
 11
135.003183791
 21
72.1064681725
 31
0.0
  0
MTEXT
  5
1C2
330
1BA
100
AcDbEntity
  8
VERMASSUNG
100
AcDbMText
 10
132.225048302
 20
113.7562340357
 30
0.0
 40
2.0
 41
0.0
 71
     1
 72
     1
  1
HSK T
  7
SLDTEXTSTYLE0
 11
-7.044195017643634E-15
 21
1.0
 31
0.0
 73
     1
 44
1.0
  0
MTEXT
  5
1C3
330
1BA
100
AcDbEntity
  8
VERMASSUNG
100
AcDbMText
 10
132.4250483115
 20
122.556233988
 30
0.0
 40
2.0
 41
0.0
 71
     1
 72
     1
  1
%%c
  7
SLDTEXTSTYLE0
 11
-7.044195017643634E-15
 21
1.0
 31
0.0
 73
     1
 44
1.0
  0
MTEXT
  5
1C4
330
1BA
100
AcDbEntity
  8
VERMASSUNG
100
AcDbMText
 10
132.4250484279
 20
126.163844771
 30
0.0
 40
2.0
 41
0.0
 71
     1
 72
     1
  1
100
  7
SLDTEXTSTYLE0
 11
-7.044195017643634E-15
 21
1.0
 31
0.0
 73
     1
 44
1.0
  0
ENDBLK
  5
1BC
330
1BA
100
AcDbEntity
  8
0
100
AcDbBlockEnd
  0
BLOCK
  5
1C7
330
1C6
100
AcDbEntity
  8
0
100
AcDbBlockBegin
  2
_D_1
 70
     0
 10
0.0
 20
0.0
 30
0.0
  3
_D_1
  1

  0
SOLID
  5
1C9
330
1C6
100
AcDbEntity
  8
VERMASSUNG
100
AcDbTrace
 10
277.3879032139
 20
139.1064681725
 30
0.0
 11
276.9379032139
 21
136.1064681725
 31
0.0
 12
277.8379032139
 22
136.1064681725
 32
0.0
 13
277.8379032139
 23
136.1064681725
 33
0.0
  0
SOLID
  5
1CA
330
1C6
100
AcDbEntity
  8
VERMASSUNG
100
AcDbTrace
 10
277.3879032139
 20
105.1064681725
 30
0.0
 11
277.8379032139
 21
108.1064681725
 31
0.0
 12
276.9379032139
 22
108.1064681725
 32
0.0
 13
276.9379032139
 23
108.1064681725
 33
0.0
  0
LINE
  5
1CB
330
1C6
100
AcDbEntity
  8
VERMASSUNG
100
AcDbLine
 10
264.2105328414
 20
139.1064681725
 30
0.0
 11
278.3879032139
 21
139.1064681725
 31
0.0
  0
LINE
  5
1CC
330
1C6
100
AcDbEntity
  8
VERMASSUNG
100
AcDbLine
 10
264.2105328414
 20
105.1064681725
 30
0.0
 11
278.3879032139
 21
105.1064681725
 31
0.0
  0
LINE
  5
1CD
330
1C6
100
AcDbEntity
  8
VERMASSUNG
100
AcDbLine
 10
277.3879032139
 20
139.1064681725
 30
0.0
 11
277.3879032139
 21
105.1064681725
 31
0.0
  0
MTEXT
  5
1CE
330
1C6
100
AcDbEntity
  8
VERMASSUNG
100
AcDbMText
 10
274.8097677344
 20
119.2334704849
 30
0.0
 40
2.0
 41
0.0
 71
     1
 72
     1
  1
%%c
  7
SLDTEXTSTYLE0
 11
-7.044195017643634E-15
 21
1.0
 31
0.0
 73
     1
 44
1.0
  0
MTEXT
  5
1CF
330
1C6
100
AcDbEntity
  8
VERMASSUNG
100
AcDbMText
 10
274.8097678508
 20
122.84180626
 30
0.0
 40
2.0
 41
0.0
 71
     1
 72
     1
  1
34
  7
SLDTEXTSTYLE0
 11
-7.044195017643634E-15
 21
1.0
 31
0.0
 73
     1
 44
1.0
  0
ENDBLK
  5
1C8
330
1C6
100
AcDbEntity
  8
0
100
AcDbBlockEnd
  0
BLOCK
  5
1D3
330
1D2
100
AcDbEntity
  8
0
100
AcDbBlockBegin
  2
_D_2
 70
     0
 10
0.0
 20
0.0
 30
0.0
  3
_D_2
  1

  0
SOLID
  5
1D5
330
1D2
100
AcDbEntity
  8
VERMASSUNG
100
AcDbTrace
 10
271.3879032139
 20
125.1064681725
 30
0.0
 11
271.8379032139
 21
128.1064681725
 31
0.0
 12
270.9379032139
 22
128.1064681725
 32
0.0
 13
270.9379032139
 23
128.1064681725
 33
0.0
  0
SOLID
  5
1D6
330
1D2
100
AcDbEntity
  8
VERMASSUNG
100
AcDbTrace
 10
271.3879032139
 20
119.1064681725
 30
0.0
 11
270.9379032139
 21
116.1064681725
 31
0.0
 12
271.8379032139
 22
116.1064681725
 32
0.0
 13
271.8379032139
 23
116.1064681725
 33
0.0
  0
LINE
  5
1D7
330
1D2
100
AcDbEntity
  8
VERMASSUNG
100
AcDbLine
 10
264.9105328414
 20
125.1064681725
 30
0.0
 11
272.3879032139
 21
125.1064681725
 31
0.0
  0
LINE
  5
1D8
330
1D2
100
AcDbEntity
  8
VERMASSUNG
100
AcDbLine
 10
264.9105328414
 20
119.1064681725
 30
0.0
 11
272.3879032139
 21
119.1064681725
 31
0.0
  0
LINE
  5
1D9
330
1D2
100
AcDbEntity
  8
VERMASSUNG
100
AcDbLine
 10
271.3879032139
 20
125.1064681725
 30
0.0
 11
271.3879032139
 21
131.1064681725
 31
0.0
  0
LINE
  5
1DA
330
1D2
100
AcDbEntity
  8
VERMASSUNG
100
AcDbLine
 10
271.3879032139
 20
125.1064681725
 30
0.0
 11
271.3879032139
 21
119.1064681725
 31
0.0
  0
LINE
  5
1DB
330
1D2
100
AcDbEntity
  8
VERMASSUNG
100
AcDbLine
 10
271.3879032139
 20
119.1064681725
 30
0.0
 11
271.3879032139
 21
113.1064681725
 31
0.0
  0
MTEXT
  5
1DC
330
1D2
100
AcDbEntity
  8
VERMASSUNG
100
AcDbMText
 10
268.8097677344
 20
119.3551332111
 30
0.0
 40
2.0
 41
0.0
 71
     1
 72
     1
  1
%%c
  7
SLDTEXTSTYLE0
 11
-7.044195017643634E-15
 21
1.0
 31
0.0
 73
     1
 44
1.0
  0
MTEXT
  5
1DD
330
1D2
100
AcDbEntity
  8
VERMASSUNG
100
AcDbMText
 10
268.8097678508
 20
122.9634689861
 30
0.0
 40
2.0
 41
0.0
 71
     1
 72
     1
  1
6
  7
SLDTEXTSTYLE0
 11
-7.044195017643634E-15
 21
1.0
 31
0.0
 73
     1
 44
1.0
  0
ENDBLK
  5
1D4
330
1D2
100
AcDbEntity
  8
0
100
AcDbBlockEnd
  0
BLOCK
  5
1E0
330
1DF
100
AcDbEntity
  8
0
100
AcDbBlockBegin
  2
_D_3
 70
     0
 10
0.0
 20
0.0
 30
0.0
  3
_D_3
  1

  0
SOLID
  5
1E2
330
1DF
100
AcDbEntity
  8
VERMASSUNG
100
AcDbTrace
 10
265.2105328414
 20
189.8300152102
 30
0.0
 11
262.2105328414
 21
190.2800152102
 31
0.0
 12
262.2105328414
 22
189.3800152102
 32
0.0
 13
262.2105328414
 23
189.3800152102
 33
0.0
  0
SOLID
  5
1E3
330
1DF
100
AcDbEntity
  8
VERMASSUNG
100
AcDbTrace
 10
145.3105328414
 20
189.8300152102
 30
0.0
 11
148.3105328414
 21
189.3800152102
 31
0.0
 12
148.3105328414
 22
190.2800152102
 32
0.0
 13
148.3105328414
 23
190.2800152102
 33
0.0
  0
LINE
  5
1E4
330
1DF
100
AcDbEntity
  8
VERMASSUNG
100
AcDbLine
 10
265.2105328414
 20
138.1064681725
 30
0.0
 11
265.2105328414
 21
190.8300152102
 31
0.0
  0
LINE
  5
1E5
330
1DF
100
AcDbEntity
  8
VERMASSUNG
100
AcDbLine
 10
145.3105328414
 20
152.6091379151
 30
0.0
 11
145.3105328414
 21
190.8300152102
 31
0.0
  0
LINE
  5
1E6
330
1DF
100
AcDbEntity
  8
VERMASSUNG
100
AcDbLine
 10
265.2105328414
 20
189.8300152102
 30
0.0
 11
145.3105328414
 21
189.8300152102
 31
0.0
  0
MTEXT
  5
1E7
330
1DF
100
AcDbEntity
  8
VERMASSUNG
100
AcDbMText
 10
207.0302219624
 20
192.4081505733
 30
0.0
 40
2.0
 41
0.0
 71
     1
 72
     1
  1
119.9
  7
SLDTEXTSTYLE0
 73
     1
 44
1.0
  0
ENDBLK
  5
1E1
330
1DF
100
AcDbEntity
  8
0
100
AcDbBlockEnd
  0
BLOCK
  5
1EA
330
1E9
100
AcDbEntity
  8
0
100
AcDbBlockBegin
  2
_D_4
 70
     0
 10
0.0
 20
0.0
 30
0.0
  3
_D_4
  1

  0
SOLID
  5
1EC
330
1E9
100
AcDbEntity
  8
VERMASSUNG
100
AcDbTrace
 10
195.2105328414
 20
183.8300152102
 30
0.0
 11
198.2105328414
 21
183.3800152102
 31
0.0
 12
198.2105328414
 22
184.2800152102
 32
0.0
 13
198.2105328414
 23
184.2800152102
 33
0.0
  0
SOLID
  5
1ED
330
1E9
100
AcDbEntity
  8
VERMASSUNG
100
AcDbTrace
 10
265.2105328414
 20
183.8300152102
 30
0.0
 11
262.2105328414
 21
184.2800152102
 31
0.0
 12
262.2105328414
 22
183.3800152102
 32
0.0
 13
262.2105328414
 23
183.3800152102
 33
0.0
  0
LINE
  5
1EE
330
1E9
100
AcDbEntity
  8
VERMASSUNG
100
AcDbLine
 10
195.2105328414
 20
171.6064681725
 30
0.0
 11
195.2105328414
 21
184.8300152102
 31
0.0
  0
LINE
  5
1EF
330
1E9
100
AcDbEntity
  8
VERMASSUNG
100
AcDbLine
 10
265.2105328414
 20
138.1064681725
 30
0.0
 11
265.2105328414
 21
184.8300152102
 31
0.0
  0
LINE
  5
1F0
330
1E9
100
AcDbEntity
  8
VERMASSUNG
100
AcDbLine
 10
195.2105328414
 20
183.8300152102
 30
0.0
 11
265.2105328414
 21
183.8300152102
 31
0.0
  0
MTEXT
  5
1F1
330
1E9
100
AcDbEntity
  8
VERMASSUNG
100
AcDbMText
 10
227.9195385965
 20
186.4081505733
 30
0.0
 40
2.0
 41
0.0
 71
     1
 72
     1
  1
70
  7
SLDTEXTSTYLE0
 73
     1
 44
1.0
  0
ENDBLK
  5
1EB
330
1E9
100
AcDbEntity
  8
0
100
AcDbBlockEnd
  0
BLOCK
  5
1F4
330
1F3
100
AcDbEntity
  8
0
100
AcDbBlockBegin
  2
_D_5
 70
     0
 10
0.0
 20
0.0
 30
0.0
  3
_D_5
  1

  0
SOLID
  5
1F6
330
1F3
100
AcDbEntity
  8
VERMASSUNG
100
AcDbTrace
 10
224.1605328414
 20
177.8300152102
 30
0.0
 11
227.1605328414
 21
177.3800152102
 31
0.0
 12
227.1605328414
 22
178.2800152102
 32
0.0
 13
227.1605328414
 23
178.2800152102
 33
0.0
  0
SOLID
  5
1F7
330
1F3
100
AcDbEntity
  8
VERMASSUNG
100
AcDbTrace
 10
265.2105328414
 20
177.8300152102
 30
0.0
 11
262.2105328414
 21
178.2800152102
 31
0.0
 12
262.2105328414
 22
177.3800152102
 32
0.0
 13
262.2105328414
 23
177.3800152102
 33
0.0
  0
LINE
  5
1F8
330
1F3
100
AcDbEntity
  8
VERMASSUNG
100
AcDbLine
 10
224.1605328414
 20
170.0752079933
 30
0.0
 11
224.1605328414
 21
178.8300152102
 31
0.0
  0
LINE
  5
1F9
330
1F3
100
AcDbEntity
  8
VERMASSUNG
100
AcDbLine
 10
265.2105328414
 20
138.1064681725
 30
0.0
 11
265.2105328414
 21
178.8300152102
 31
0.0
  0
LINE
  5
1FA
330
1F3
100
AcDbEntity
  8
VERMASSUNG
100
AcDbLine
 10
224.1605328414
 20
177.8300152102
 30
0.0
 11
265.2105328414
 21
177.8300152102
 31
0.0
  0
MTEXT
  5
1FB
330
1F3
100
AcDbEntity
  8
VERMASSUNG
100
AcDbMText
 10
242.5728013741
 20
180.4081505733
 30
0.0
 40
2.0
 41
0.0
 71
     1
 72
     1
  1
41.05
  7
SLDTEXTSTYLE0
 73
     1
 44
1.0
  0
ENDBLK
  5
1F5
330
1F3
100
AcDbEntity
  8
0
100
AcDbBlockEnd
  0
BLOCK
  5
1FE
330
1FD
100
AcDbEntity
  8
0
100
AcDbBlockBegin
  2
_D_6
 70
     0
 10
0.0
 20
0.0
 30
0.0
  3
_D_6
  1

  0
SOLID
  5
200
330
1FD
100
AcDbEntity
  8
VERMASSUNG
100
AcDbTrace
 10
257.2105328414
 20
150.0845251821
 30
0.0
 11
260.2105328414
 21
149.6345251821
 31
0.0
 12
260.2105328414
 22
150.5345251821
 32
0.0
 13
260.2105328414
 23
150.5345251821
 33
0.0
  0
SOLID
  5
201
330
1FD
100
AcDbEntity
  8
VERMASSUNG
100
AcDbTrace
 10
265.2105328414
 20
150.0845251821
 30
0.0
 11
262.2105328414
 21
150.5345251821
 31
0.0
 12
262.2105328414
 22
149.6345251821
 32
0.0
 13
262.2105328414
 23
149.6345251821
 33
0.0
  0
LINE
  5
202
330
1FD
100
AcDbEntity
  8
VERMASSUNG
100
AcDbLine
 10
257.2105328414
 20
141.1064681725
 30
0.0
 11
257.2105328414
 21
151.0845251821
 31
0.0
  0
LINE
  5
203
330
1FD
100
AcDbEntity
  8
VERMASSUNG
100
AcDbLine
 10
265.2105328414
 20
138.1064681725
 30
0.0
 11
265.2105328414
 21
151.0845251821
 31
0.0
  0
LINE
  5
204
330
1FD
100
AcDbEntity
  8
VERMASSUNG
100
AcDbLine
 10
257.2105328414
 20
150.0845251821
 30
0.0
 11
265.2105328414
 21
150.0845251821
 31
0.0
  0
MTEXT
  5
205
330
1FD
100
AcDbEntity
  8
VERMASSUNG
100
AcDbMText
 10
260.1970200787
 20
152.6626605453
 30
0.0
 40
2.0
 41
0.0
 71
     1
 72
     1
  1
8
  7
SLDTEXTSTYLE0
 73
     1
 44
1.0
  0
ENDBLK
  5
1FF
330
1FD
100
AcDbEntity
  8
0
100
AcDbBlockEnd
  0
BLOCK
  5
208
330
207
100
AcDbEntity
  8
0
100
AcDbBlockBegin
  2
_D_7
 70
     0
 10
0.0
 20
0.0
 30
0.0
  3
_D_7
  1

  0
SOLID
  5
20A
330
207
100
AcDbEntity
  8
VERMASSUNG
100
AcDbTrace
 10
247.2105328414
 20
150.0845251821
 30
0.0
 11
250.2105328414
 21
149.6345251821
 31
0.0
 12
250.2105328414
 22
150.5345251821
 32
0.0
 13
250.2105328414
 23
150.5345251821
 33
0.0
  0
SOLID
  5
20B
330
207
100
AcDbEntity
  8
VERMASSUNG
100
AcDbTrace
 10
257.2105328414
 20
150.0845251821
 30
0.0
 11
254.2105328414
 21
150.5345251821
 31
0.0
 12
254.2105328414
 22
149.6345251821
 32
0.0
 13
254.2105328414
 23
149.6345251821
 33
0.0
  0
LINE
  5
20C
330
207
100
AcDbEntity
  8
VERMASSUNG
100
AcDbLine
 10
247.2105328414
 20
141.1064681725
 30
0.0
 11
247.2105328414
 21
151.0845251821
 31
0.0
  0
LINE
  5
20D
330
207
100
AcDbEntity
  8
VERMASSUNG
100
AcDbLine
 10
257.2105328414
 20
141.1064681725
 30
0.0
 11
257.2105328414
 21
151.0845251821
 31
0.0
  0
LINE
  5
20E
330
207
100
AcDbEntity
  8
VERMASSUNG
100
AcDbLine
 10
247.2105328414
 20
150.0845251821
 30
0.0
 11
257.2105328414
 21
150.0845251821
 31
0.0
  0
MTEXT
  5
20F
330
207
100
AcDbEntity
  8
VERMASSUNG
100
AcDbMText
 10
251.3837176836
 20
152.6626605453
 30
0.0
 40
2.0
 41
0.0
 71
     1
 72
     1
  1
10
  7
SLDTEXTSTYLE0
 73
     1
 44
1.0
  0
ENDBLK
  5
209
330
207
100
AcDbEntity
  8
0
100
AcDbBlockEnd
  0
BLOCK
  5
212
330
211
100
AcDbEntity
  8
0
100
AcDbBlockBegin
  2
_D_8
 70
     0
 10
0.0
 20
0.0
 30
0.0
  3
_D_8
  1

  0
SOLID
  5
214
330
211
100
AcDbEntity
  8
VERMASSUNG
100
AcDbTrace
 10
237.2105328414
 20
150.0845251821
 30
0.0
 11
240.2105328414
 21
149.6345251821
 31
0.0
 12
240.2105328414
 22
150.5345251821
 32
0.0
 13
240.2105328414
 23
150.5345251821
 33
0.0
  0
SOLID
  5
215
330
211
100
AcDbEntity
  8
VERMASSUNG
100
AcDbTrace
 10
247.2105328414
 20
150.0845251821
 30
0.0
 11
244.2105328414
 21
150.5345251821
 31
0.0
 12
244.2105328414
 22
149.6345251821
 32
0.0
 13
244.2105328414
 23
149.6345251821
 33
0.0
  0
LINE
  5
216
330
211
100
AcDbEntity
  8
VERMASSUNG
100
AcDbLine
 10
237.2105328414
 20
141.1064681725
 30
0.0
 11
237.2105328414
 21
151.0845251821
 31
0.0
  0
LINE
  5
217
330
211
100
AcDbEntity
  8
VERMASSUNG
100
AcDbLine
 10
247.2105328414
 20
141.1064681725
 30
0.0
 11
247.2105328414
 21
151.0845251821
 31
0.0
  0
LINE
  5
218
330
211
100
AcDbEntity
  8
VERMASSUNG
100
AcDbLine
 10
237.2105328414
 20
150.0845251821
 30
0.0
 11
247.2105328414
 21
150.0845251821
 31
0.0
  0
MTEXT
  5
219
330
211
100
AcDbEntity
  8
VERMASSUNG
100
AcDbMText
 10
239.7396800143
 20
152.6626605453
 30
0.0
 40
2.0
 41
0.0
 71
     1
 72
     1
  1
10
  7
SLDTEXTSTYLE0
 73
     1
 44
1.0
  0
ENDBLK
  5
213
330
211
100
AcDbEntity
  8
0
100
AcDbBlockEnd
  0
BLOCK
  5
21C
330
21B
100
AcDbEntity
  8
0
100
AcDbBlockBegin
  2
_D_9
 70
     0
 10
0.0
 20
0.0
 30
0.0
  3
_D_9
  1

  0
SOLID
  5
21E
330
21B
100
AcDbEntity
  8
VERMASSUNG
100
AcDbTrace
 10
229.2105328414
 20
156.0845251821
 30
0.0
 11
232.2105328414
 21
155.6345251821
 31
0.0
 12
232.2105328414
 22
156.5345251821
 32
0.0
 13
232.2105328414
 23
156.5345251821
 33
0.0
  0
SOLID
  5
21F
330
21B
100
AcDbEntity
  8
VERMASSUNG
100
AcDbTrace
 10
265.2105328414
 20
156.0845251821
 30
0.0
 11
262.2105328414
 21
156.5345251821
 31
0.0
 12
262.2105328414
 22
155.6345251821
 32
0.0
 13
262.2105328414
 23
155.6345251821
 33
0.0
  0
LINE
  5
220
330
21B
100
AcDbEntity
  8
VERMASSUNG
100
AcDbLine
 10
229.2105328414
 20
125.0064681725
 30
0.0
 11
229.2105328414
 21
157.0845251821
 31
0.0
  0
LINE
  5
221
330
21B
100
AcDbEntity
  8
VERMASSUNG
100
AcDbLine
 10
265.2105328414
 20
138.1064681725
 30
0.0
 11
265.2105328414
 21
157.0845251821
 31
0.0
  0
LINE
  5
222
330
21B
100
AcDbEntity
  8
VERMASSUNG
100
AcDbLine
 10
229.2105328414
 20
156.0845251821
 30
0.0
 11
265.2105328414
 21
156.0845251821
 31
0.0
  0
MTEXT
  5
223
330
21B
100
AcDbEntity
  8
VERMASSUNG
100
AcDbMText
 10
245.9233364284
 20
158.6626605453
 30
0.0
 40
2.0
 41
0.0
 71
     1
 72
     1
  1
36
  7
SLDTEXTSTYLE0
 73
     1
 44
1.0
  0
ENDBLK
  5
21D
330
21B
100
AcDbEntity
  8
0
100
AcDbBlockEnd
  0
BLOCK
  5
391
330
390
100
AcDbEntity
  8
0
100
AcDbBlockBegin
  2
SW_CENTERMARKSYMBOL_0
 70
     0
 10
0.0
 20
0.0
 30
0.0
  3
SW_CENTERMARKSYMBOL_0
  1

  0
LINE
  5
393
330
390
100
AcDbEntity
  8
VERMASSUNG
 62
     0
100
AcDbLine
 10
0.0
 20
0.0
 30
0.0
 11
0.0
 21
2.5
 31
0.0
  0
LINE
  5
394
330
390
100
AcDbEntity
  8
VERMASSUNG
 62
     0
100
AcDbLine
 10
0.0
 20
0.0
 30
0.0
 11
-2.5
 21
0.0
 31
0.0
  0
LINE
  5
395
330
390
100
AcDbEntity
  8
VERMASSUNG
 62
     0
100
AcDbLine
 10
0.0
 20
0.0
 30
0.0
 11
0.0
 21
-2.5
 31
0.0
  0
LINE
  5
396
330
390
100
AcDbEntity
  8
VERMASSUNG
 62
     0
100
AcDbLine
 10
0.0
 20
0.0
 30
0.0
 11
2.5
 21
0.0
 31
0.0
  0
LINE
  5
397
330
390
100
AcDbEntity
  8
VERMASSUNG
 62
     0
100
AcDbLine
 10
0.0
 20
5.0
 30
0.0
 11
0.0
 21
55.443065626
 31
0.0
  0
LINE
  5
398
330
390
100
AcDbEntity
  8
VERMASSUNG
 62
     0
100
AcDbLine
 10
-5.0
 20
0.0
 30
0.0
 11
-53.7866598369
 21
0.0
 31
0.0
  0
LINE
  5
399
330
390
100
AcDbEntity
  8
VERMASSUNG
 62
     0
100
AcDbLine
 10
0.0
 20
-5.0
 30
0.0
 11
0.0
 21
-58.20984344
 31
0.0
  0
LINE
  5
39A
330
390
100
AcDbEntity
  8
VERMASSUNG
 62
     0
100
AcDbLine
 10
5.0
 20
0.0
 30
0.0
 11
57.0176191805
 21
0.0
 31
0.0
  0
ENDBLK
  5
392
330
390
100
AcDbEntity
  8
0
100
AcDbBlockEnd
  0
ENDSEC
  0
SECTION
  2
ENTITIES
  0
MTEXT
  5
49
330
1F
100
AcDbEntity
  8
KOPF_DÜNN
100
AcDbMText
 10
13.8892156294
 20
23.8442973028
 30
0.0
 40
3.0
 41
0.0
 71
     1
 72
     1
  1
HA0.B06.K01.070
  7
SLDTEXTSTYLE0
 73
     1
 44
1.0
  0
MTEXT
  5
4A
330
1F
100
AcDbEntity
  8
VERMASSUNG
100
AcDbMText
 10
13.9329988022
 20
28.8834360957
 30
0.0
 40
3.0
 41
0.0
 71
     1
 72
     1
  1
Bohrstangenhalter_Boring bar holder
  7
SLDTEXTSTYLE0
 73
     1
 44
1.0
  0
MTEXT
  5
4B
330
1F
100
AcDbEntity
  8
VERMASSUNG
100
AcDbMText
 10
98.8601118557
 20
13.8365368179
 30
0.0
 40
2.0
 41
0.0
 71
     1
 72
     1
  1
Datum: 31.10.2006
  7
SLDTEXTSTYLE0
 73
     1
 44
1.0
  0
MTEXT
  5
4C
330
1F
100
AcDbEntity
  8
VERMASSUNG
100
AcDbMText
 10
13.933048693
 20
18.0482802738
 30
0.0
 40
2.0
 41
0.0
 71
     1
 72
     1
  1
DIN 69893 HSK T100 / ø6
  7
SLDTEXTSTYLE0
 73
     1
 44
1.0
  0
MTEXT
  5
4D
330
1F
100
AcDbEntity
  8
VERMASSUNG
100
AcDbMText
 10
13.9808475933
 20
13.9090973692
 30
0.0
 40
2.0
 41
0.0
 71
     1
 72
     1
  1
Gewicht: 2277g
  7
SLDTEXTSTYLE0
 73
     1
 44
1.0
  0
LINE
  5
4E
330
1F
100
AcDbEntity
  8
0
  6
Continuous
 62
     7
370
    15
100
AcDbLine
 10
195.7105328414
 20
72.1064681725
 30
0.0
 11
200.1605328414
 21
72.1064681725
 31
0.0
  0
LINE
  5
4F
330
1F
100
AcDbEntity
  8
0
  6
Continuous
 62
     7
370
    15
100
AcDbLine
 10
200.1946056739
 20
172.1064681725
 30
0.0
 11
195.7105328414
 21
172.1064681725
 31
0.0
  0
ARC
  5
50
330
1F
100
AcDbEntity
  8
0
  6
Continuous
 62
     7
370
    15
100
AcDbCircle
 10
195.7105328414
 20
72.6064681725
 30
0.0
 40
0.5
100
AcDbArc
 50
180.0
 51
270.0
  0
ARC
  5
51
330
1F
100
AcDbEntity
  8
0
  6
Continuous
 62
     7
370
    15
100
AcDbCircle
 10
195.7105328414
 20
171.6064681725
 30
0.0
 40
0.5
100
AcDbArc
 50
90.0
 51
180.0
  0
ARC
  5
52
330
1F
100
AcDbEntity
  8
0
  6
Continuous
 62
     7
370
    15
100
AcDbCircle
 10
194.313595923
 20
83.477982848
 30
0.0
 40
0.9962338214386932
100
AcDbArc
 50
25.7988228126
 51
90.0
  0
ARC
  5
53
330
1F
100
AcDbEntity
  8
0
  6
Continuous
 62
     7
370
    15
100
AcDbCircle
 10
194.313595923
 20
160.7349534969
 30
0.0
 40
0.9962338214386665
100
AcDbArc
 50
270.0
 51
334.2011771874
  0
LINE
  5
54
330
1F
100
AcDbEntity
  8
0
  6
Continuous
 62
     7
370
    15
100
AcDbLine
 10
192.7105328414
 20
84.2242166695
 30
0.0
 11
193.5163789958
 21
84.4401424958
 31
0.0
  0
LINE
  5
55
330
1F
100
AcDbEntity
  8
0
  6
Continuous
 62
     7
370
    15
100
AcDbLine
 10
193.5163789958
 20
159.7727938492
 30
0.0
 11
192.7105328414
 21
159.9887196755
 31
0.0
  0
LINE
  5
56
330
1F
100
AcDbEntity
  8
0
  6
Continuous
 62
     7
370
    15
100
AcDbLine
 10
173.7298374201
 20
159.0377830311
 30
0.0
 11
155.4105328414
 21
158.1199822005
 31
0.0
  0
LINE
  5
57
330
1F
100
AcDbEntity
  8
0
  6
Continuous
 62
     7
370
    15
100
AcDbLine
 10
192.7105328414
 20
159.9887196755
 30
0.0
 11
186.642493687
 21
159.6847096978
 31
0.0
  0
LINE
  5
58
330
1F
100
AcDbEntity
  8
0
  6
Continuous
 62
     7
370
    15
100
AcDbLine
 10
186.6426169634
 20
84.528220471
 30
0.0
 11
192.7105328414
 21
84.2242166695
 31
0.0
  0
LINE
  5
59
330
1F
100
AcDbEntity
  8
0
  6
Continuous
 62
     7
370
    15
100
AcDbLine
 10
160.4105328414
 20
85.8424531424
 30
0.0
 11
173.7304839954
 21
85.1751209203
 31
0.0
  0
ARC
  5
5A
330
1F
100
AcDbEntity
  8
0
  6
Continuous
 62
     7
370
    15
100
AcDbCircle
 10
193.7751980409
 20
83.4742166695
 30
0.0
 40
1.000000000000003
100
AcDbArc
 50
90.0
 51
105.0
  0
ARC
  5
5B
330
1F
100
AcDbEntity
  8
0
  6
Continuous
 62
     7
370
    15
100
AcDbCircle
 10
193.7751980409
 20
160.7387196755
 30
0.0
 40
1.000000000000003
100
AcDbArc
 50
255.0
 51
270.0
  0
LINE
  5
5C
330
1F
100
AcDbEntity
  8
0
  6
Continuous
 62
     7
370
    15
100
AcDbLine
 10
193.7751980409
 20
84.4742166695
 30
0.0
 11
194.313595923
 21
84.4742166695
 31
0.0
  0
LINE
  5
5D
330
1F
100
AcDbEntity
  8
0
  6
Continuous
 62
     7
370
    15
100
AcDbLine
 10
194.313595923
 20
159.7387196755
 30
0.0
 11
193.7751980409
 21
159.7387196755
 31
0.0
  0
ARC
  5
5E
330
1F
100
AcDbEntity
  8
0
  6
Continuous
 62
     7
370
    15
100
AcDbCircle
 10
229.1605328414
 20
100.1064681725
 30
0.0
 40
5.000000000000014
100
AcDbArc
 50
90.0
 51
180.0
  0
ARC
  5
5F
330
1F
100
AcDbEntity
  8
0
  6
Continuous
 62
     7
370
    15
100
AcDbCircle
 10
229.1605328414
 20
144.1064681725
 30
0.0
 40
5.0
100
AcDbArc
 50
180.0
 51
270.0
  0
LINE
  5
60
330
1F
100
AcDbEntity
  8
0
  6
Continuous
 62
     7
370
    15
100
AcDbLine
 10
146.9605328414
 20
89.9114681725
 30
0.0
 11
158.5105328414
 21
89.9114681725
 31
0.0
  0
ARC
  5
61
330
1F
100
AcDbEntity
  8
0
  6
Continuous
 62
     7
370
    15
100
AcDbCircle
 10
264.2105328414
 20
138.1064681725
 30
0.0
 40
1.0
100
AcDbArc
 50
0.0
 51
90.0
  0
ARC
  5
62
330
1F
100
AcDbEntity
  8
0
  6
Continuous
 62
     7
370
    15
100
AcDbCircle
 10
264.2105328414
 20
106.1064681725
 30
0.0
 40
1.0
100
AcDbArc
 50
270.0
 51
0.0
  0
LINE
  5
63
330
1F
100
AcDbEntity
  8
0
  6
Continuous
 62
     7
370
    15
100
AcDbLine
 10
234.7105328414
 20
139.1064681725
 30
0.0
 11
229.1605328414
 21
139.1064681725
 31
0.0
  0
LINE
  5
64
330
1F
100
AcDbEntity
  8
0
  6
Continuous
 62
     7
370
    15
100
AcDbLine
 10
244.7105328414
 20
139.1064681725
 30
0.0
 11
239.7105328414
 21
139.1064681725
 31
0.0
  0
LINE
  5
65
330
1F
100
AcDbEntity
  8
0
  6
Continuous
 62
     7
370
    15
100
AcDbLine
 10
254.7105328414
 20
139.1064681725
 30
0.0
 11
249.7105328414
 21
139.1064681725
 31
0.0
  0
LINE
  5
66
330
1F
100
AcDbEntity
  8
0
  6
Continuous
 62
     7
370
    15
100
AcDbLine
 10
264.2105328414
 20
139.1064681725
 30
0.0
 11
259.7105328414
 21
139.1064681725
 31
0.0
  0
LINE
  5
67
330
1F
100
AcDbEntity
  8
0
  6
Continuous
 62
     7
370
    15
100
AcDbLine
 10
229.1605328414
 20
105.1064681725
 30
0.0
 11
264.2105328414
 21
105.1064681725
 31
0.0
  0
ARC
  5
68
330
1F
100
AcDbEntity
  8
0
  6
Continuous
 62
     7
370
    15
100
AcDbCircle
 10
158.5105328414
 20
88.0114681725
 30
0.0
 40
1.899999999999999
100
AcDbArc
 50
32.8598554769
 51
90.0
  0
ARC
  5
69
330
1F
100
AcDbEntity
  8
0
  6
Continuous
 62
     7
370
    15
100
AcDbCircle
 10
153.5105328414
 20
156.2564681725
 30
0.0
 40
1.900000000000048
100
AcDbArc
 50
270.0
 51
310.9212832533
  0
LINE
  5
6A
330
1F
100
AcDbEntity
  8
0
  6
Continuous
 62
     7
370
    15
100
AcDbLine
 10
146.9605328414
 20
154.3564681725
 30
0.0
 11
145.3612167226
 21
152.7571520536
 31
0.0
  0
LINE
  5
6B
330
1F
100
AcDbEntity
  8
0
  6
Continuous
 62
     7
370
    15
100
AcDbLine
 10
145.3456893256
 20
91.5263116883
 30
0.0
 11
146.9605328414
 21
89.9114681725
 31
0.0
  0
LINE
  5
6C
330
1F
100
AcDbEntity
  8
0
  6
Continuous
 62
     7
370
    15
100
AcDbLine
 10
153.5105328414
 20
154.3564681725
 30
0.0
 11
146.9605328414
 21
154.3564681725
 31
0.0
  0
LINE
  5
6D
330
1F
100
AcDbEntity
  8
0
  6
Continuous
 62
     7
370
    15
100
AcDbLine
 10
218.4725618624
 20
73.3314745795
 30
0.0
 11
218.4725618624
 21
153.4564681725
 31
0.0
  0
SPLINE
  5
6E
330
1F
100
AcDbEntity
  8
0
  6
Continuous
 62
     7
370
    15
100
AcDbSpline
210
0.0
220
0.0
230
1.0
 70
     8
 71
     3
 72
     8
 73
     4
 74
     0
 42
0.00000001
 43
0.00000001
 12
1.0
 22
0.0
 32
0.0
 13
1.0
 23
0.0
 33
0.0
 40
0.0
 40
0.0
 40
0.0
 40
0.0
 40
1.0
 40
1.0
 40
1.0
 40
1.0
 10
218.4725618623666
 20
73.3314745794558
 30
0.0
 10
218.0214571329664
 20
74.13243451127572
 30
0.0
 10
217.570759305723
 20
74.9336245228364
 30
0.0
 10
217.1205328414452
 20
75.73507988546115
 30
0.0
  0
LINE
  5
6F
330
1F
100
AcDbEntity
  8
0
  6
Continuous
 62
     7
370
    15
100
AcDbLine
 10
217.1205328414
 20
75.7350798855
 30
0.0
 11
217.1205328414
 21
153.4564681725
 31
0.0
  0
SPLINE
  5
70
330
1F
100
AcDbEntity
  8
0
  6
Continuous
 62
     7
370
    15
100
AcDbSpline
210
0.0
220
0.0
230
1.0
 70
    24
 71
     3
 72
     8
 73
     4
 74
     0
 42
0.00000001
 43
0.00000001
 12
1.0
 22
0.0
 32
0.0
 13
1.0
 23
0.0
 33
0.0
 40
0.0
 40
0.0
 40
0.0
 40
0.0
 40
1.0
 40
1.0
 40
1.0
 40
1.0
 10
217.1205328414453
 20
153.4564681724846
 30
0.0
 10
217.5647457237992
 20
153.4564681724846
 30
0.0
 10
218.0157602900384
 20
153.4564681724846
 30
0.0
 10
218.4725618623666
 20
153.4564681724846
 30
0.0
  0
LINE
  5
71
330
1F
100
AcDbEntity
  8
0
  6
Continuous
 62
     7
370
    15
100
AcDbLine
 10
213.3005328414
 20
75.7350798855
 30
0.0
 11
213.3005328414
 21
153.4564681725
 31
0.0
  0
SPLINE
  5
72
330
1F
100
AcDbEntity
  8
0
  6
Continuous
 62
     7
370
    15
100
AcDbSpline
210
0.0
220
0.0
230
1.0
 70
     8
 71
     3
 72
     8
 73
     4
 74
     0
 42
0.00000001
 43
0.00000001
 12
1.0
 22
0.0
 32
0.0
 13
1.0
 23
0.0
 33
0.0
 40
0.0
 40
0.0
 40
0.0
 40
0.0
 40
1.0
 40
1.0
 40
1.0
 40
1.0
 10
213.3005328414452
 20
75.73507988546113
 30
0.0
 10
212.8503063771674
 20
74.93362452283637
 30
0.0
 10
212.3996085499241
 20
74.13243451127572
 30
0.0
 10
211.9485038205239
 20
73.3314745794558
 30
0.0
  0
LINE
  5
73
330
1F
100
AcDbEntity
  8
0
  6
Continuous
 62
     7
370
    15
100
AcDbLine
 10
211.9485038205
 20
73.3314745795
 30
0.0
 11
211.9485038205
 21
153.4564681725
 31
0.0
  0
SPLINE
  5
74
330
1F
100
AcDbEntity
  8
0
  6
Continuous
 62
     7
370
    15
100
AcDbSpline
210
0.0
220
0.0
230
1.0
 70
    24
 71
     3
 72
     8
 73
     4
 74
     0
 42
0.00000001
 43
0.00000001
 12
1.0
 22
0.0
 32
0.0
 13
1.0
 23
0.0
 33
0.0
 40
0.0
 40
0.0
 40
0.0
 40
0.0
 40
1.0
 40
1.0
 40
1.0
 40
1.0
 10
211.9485038205239
 20
153.4564681724846
 30
0.0
 10
212.4053053928521
 20
153.4564681724846
 30
0.0
 10
212.8563199590913
 20
153.4564681724846
 30
0.0
 10
213.3005328414453
 20
153.4564681724846
 30
0.0
  0
LINE
  5
75
330
1F
100
AcDbEntity
  8
0
  6
Continuous
 62
     7
370
    15
100
AcDbLine
 10
223.1605328414
 20
73.3314745795
 30
0.0
 11
218.4725618624
 21
73.3314745795
 31
0.0
  0
LINE
  5
76
330
1F
100
AcDbEntity
  8
0
  6
Continuous
 62
     7
370
    15
100
AcDbLine
 10
218.4725618624
 20
153.4564681725
 30
0.0
 11
223.1605328414
 21
153.4564681725
 31
0.0
  0
LINE
  5
77
330
1F
100
AcDbEntity
  8
0
  6
Continuous
 62
     7
370
    15
100
AcDbLine
 10
200.1605328414
 20
153.4564681725
 30
0.0
 11
211.9485038205
 21
153.4564681725
 31
0.0
  0
LINE
  5
78
330
1F
100
AcDbEntity
  8
0
  6
Continuous
 62
     7
370
    15
100
AcDbLine
 10
211.9485038205
 20
73.3314745795
 30
0.0
 11
210.1605328414
 21
73.3314745795
 31
0.0
  0
SPLINE
  5
79
330
1F
100
AcDbEntity
  8
0
  6
Continuous
 62
     7
370
    15
100
AcDbSpline
210
0.0
220
0.0
230
1.0
 70
     8
 71
     3
 72
    30
 73
    26
 74
     0
 42
0.00000001
 43
0.00000001
 12
1.0
 22
0.0
 32
0.0
 13
1.0
 23
0.0
 33
0.0
 40
0.0
 40
0.0
 40
0.0
 40
0.0
 40
0.1250000000000002
 40
0.1250000000000002
 40
0.1875000000000003
 40
0.1875000000000003
 40
0.2500000000000004
 40
0.2500000000000004
 40
0.3750000000000001
 40
0.3750000000000001
 40
0.4374999999999998
 40
0.4374999999999998
 40
0.4999999999999996
 40
0.4999999999999996
 40
0.6249999999999996
 40
0.6249999999999996
 40
0.6874999999999997
 40
0.6874999999999997
 40
0.7499999999999997
 40
0.7499999999999997
 40
0.8124999999999998
 40
0.8124999999999998
 40
0.8749999999999999
 40
0.8749999999999999
 40
1.0
 40
1.0
 40
1.0
 40
1.0
 10
210.1605328414452
 20
73.3314745794558
 30
0.0
 10
209.4977881476002
 20
73.33147457945581
 30
0.0
 10
208.8465322884845
 20
73.31663450286699
 30
0.0
 10
207.8860817502262
 20
73.27426493863737
 30
0.0
 10
207.5686903069932
 20
73.25678683585821
 30
0.0
 10
206.9395268054384
 20
73.2154585493059
 30
0.0
 10
206.6273786189967
 20
73.19153327584822
 30
0.0
 10
205.7200713171484
 20
73.1127267593813
 30
0.0
 10
205.1466463595072
 20
73.05042073940481
 30
0.0
 10
204.3327694899325
 20
72.94729141916547
 30
0.0
 10
204.0679632933626
 20
72.91110750011894
 30
0.0
 10
203.5610558825483
 20
72.83731271591846
 30
0.0
 10
203.3196617311948
 20
72.79983885714681
 30
0.0
 10
202.6305202590625
 20
72.68712691380708
 30
0.0
 10
202.2174654441982
 20
72.61159081633328
 30
0.0
 10
201.6693106248232
 20
72.5031975593158
 30
0.0
 10
201.4998480174776
 20
72.46812532765254
 30
0.0
 10
201.1918307694622
 20
72.40188986705267
 30
0.0
 10
201.0524507488539
 20
72.37056317029797
 30
0.0
 10
200.8026652362271
 20
72.31215439871703
 30
0.0
 10
200.6922591235732
 20
72.28507116353418
 30
0.0
 10
200.5010012699355
 20
72.2358114089206
 30
0.0
 10
200.4198817516512
 20
72.21354942911296
 30
0.0
 10
200.2257348315428
 20
72.15598252194468
 30
0.0
 10
200.1605328414452
 20
72.12972291715869
 30
0.0
 10
200.1605328414452
 20
72.11646917268466
 30
0.0
  0
LINE
  5
7A
330
1F
100
AcDbEntity
  8
0
  6
Continuous
 62
     7
370
    15
100
AcDbLine
 10
200.1605328414
 20
72.1164691727
 30
0.0
 11
200.1605328414
 21
72.1064681725
 31
0.0
  0
SPLINE
  5
7B
330
1F
100
AcDbEntity
  8
0
  6
Continuous
 62
     7
370
    15
100
AcDbSpline
210
0.0
220
0.0
230
1.0
 70
     8
 71
     3
 72
    17
 73
    13
 74
     0
 42
0.00000001
 43
0.00000001
 12
1.0
 22
0.0
 32
0.0
 13
1.0
 23
0.0
 33
0.0
 40
0.0
 40
0.0
 40
0.0
 40
0.0
 40
0.104384384054747
 40
0.2118345768143993
 40
0.316208200519045
 40
0.4235375806108392
 40
0.5292276236193852
 40
0.6379275864803491
 40
0.7444714844189683
 40
0.8541836219421859
 40
0.9593080534965217
 40
1.0
 40
1.0
 40
1.0
 40
1.0
 10
210.1605328414452
 20
171.0962630281482
 30
0.0
 10
209.6125943935859
 20
171.1016312318969
 30
0.0
 10
208.5006243391211
 20
171.1125253055619
 30
0.0
 10
206.8877684259062
 20
171.1977026798208
 30
0.0
 10
205.3542552089293
 20
171.3240773861134
 30
0.0
 10
203.9632343595926
 20
171.4809802066902
 30
0.0
 10
202.7277178423623
 20
171.6526790362108
 30
0.0
 10
201.704362075207
 20
171.8180153123118
 30
0.0
 10
200.9040200769419
 20
171.9617287918984
 30
0.0
 10
200.3936879750283
 20
172.0598835990775
 30
0.0
 10
200.1537795462038
 20
172.1078119959474
 30
0.0
 10
200.1856983256236
 20
172.1014445967078
 30
0.0
 10
200.1946056739058
 20
172.0996676915846
 30
0.0
  0
LINE
  5
7C
330
1F
100
AcDbEntity
  8
0
  6
Continuous
 62
     7
370
    15
100
AcDbLine
 10
211.9485038205
 20
171.0962630281
 30
0.0
 11
210.1605328414
 21
171.0962630281
 31
0.0
  0
LINE
  5
7D
330
1F
100
AcDbEntity
  8
0
  6
Continuous
 62
     7
370
    15
100
AcDbLine
 10
211.9485038205
 20
161.0574309334
 30
0.0
 11
211.9485038205
 21
171.0962630281
 31
0.0
  0
LINE
  5
7E
330
1F
100
AcDbEntity
  8
0
  6
Continuous
 62
     7
370
    15
100
AcDbLine
 10
209.8684996896
 20
161.0574309334
 30
0.0
 11
211.9485038205
 21
161.0574309334
 31
0.0
  0
SPLINE
  5
7F
330
1F
100
AcDbEntity
  8
0
  6
Continuous
 62
     7
370
    15
100
AcDbSpline
210
0.0
220
0.0
230
1.0
 70
     8
 71
     3
 72
    22
 73
    18
 74
     0
 42
0.00000001
 43
0.00000001
 12
1.0
 22
0.0
 32
0.0
 13
1.0
 23
0.0
 33
0.0
 40
0.0
 40
0.0
 40
0.0
 40
0.0
 40
0.2500000000000002
 40
0.2500000000000002
 40
0.3750000000000003
 40
0.3750000000000003
 40
0.5000000000000004
 40
0.5000000000000004
 40
0.6250000000000004
 40
0.6250000000000004
 40
0.7500000000000004
 40
0.7500000000000004
 40
0.8750000000000004
 40
0.8750000000000004
 40
0.9375000000000002
 40
0.9375000000000002
 40
1.0
 40
1.0
 40
1.0
 40
1.0
 10
200.1605328414452
 20
153.4564681724846
 30
0.0
 10
200.3632577973643
 20
154.4757145143492
 30
0.0
 10
200.6780015191597
 20
155.4348226642885
 30
0.0
 10
201.3860569888307
 20
156.7773017417978
 30
0.0
 10
201.6645196190483
 20
157.2115103245378
 30
0.0
 10
202.3032870256855
 20
158.0231380400399
 30
0.0
 10
202.6637007054757
 20
158.4024183329768
 30
0.0
 10
203.481232937465
 20
159.1053769119978
 30
0.0
 10
203.9424009207521
 20
159.4304057296984
 30
0.0
 10
204.9403911672359
 20
159.9954210530892
 30
0.0
 10
205.4801503612282
 20
160.2391246472958
 30
0.0
 10
206.6547433252595
 20
160.6433245749407
 30
0.0
 10
207.2664795112514
 20
160.7957617679862
 30
0.0
 10
208.2183887361131
 20
160.9510893155949
 30
0.0
 10
208.5416219003738
 20
160.990594095645
 30
0.0
 10
209.200685071649
 20
161.0439032163137
 30
0.0
 10
209.534749082223
 20
161.0574309333715
 30
0.0
 10
209.8684996896245
 20
161.0574309333715
 30
0.0
  0
LINE
  5
80
330
1F
100
AcDbEntity
  8
0
  6
Continuous
 62
     7
370
    15
100
AcDbLine
 10
195.2105328414
 20
72.6064681725
 30
0.0
 11
195.2105328414
 21
171.6064681725
 31
0.0
  0
LINE
  5
81
330
1F
100
AcDbEntity
  8
0
  6
Continuous
 62
     7
370
    15
100
AcDbLine
 10
224.1605328414
 20
74.3571226272
 30
0.0
 11
224.1605328414
 21
153.4564681725
 31
0.0
  0
SPLINE
  5
82
330
1F
100
AcDbEntity
  8
0
  6
Continuous
 62
     7
370
    15
100
AcDbSpline
210
0.0
220
0.0
230
1.0
 70
     8
 71
     3
 72
    14
 73
    10
 74
     0
 42
0.00000001
 43
0.00000001
 12
1.0
 22
0.0
 32
0.0
 13
1.0
 23
0.0
 33
0.0
 40
0.0
 40
0.0
 40
0.0
 40
0.0
 40
0.25
 40
0.25
 40
0.5
 40
0.5
 40
0.75
 40
0.75
 40
1.0
 40
1.0
 40
1.0
 40
1.0
 10
224.1605328414452
 20
74.35712262723132
 30
0.0
 10
224.1605328414452
 20
74.22369693117678
 30
0.0
 10
224.1352217415344
 20
74.09184912333241
 30
0.0
 10
224.0368869776896
 20
73.84532657463832
 30
0.0
 10
223.9637429734335
 20
73.73152138639777
 30
0.0
 10
223.7803049123379
 20
73.5410642094505
 30
0.0
 10
223.6686185779993
 20
73.46342934560059
 30
0.0
 10
223.426115147693
 20
73.35913793548812
 30
0.0
 10
223.2927407189988
 20
73.33147457945577
 30
0.0
 10
223.1605328414452
 20
73.33147457945577
 30
0.0
  0
SPLINE
  5
83
330
1F
100
AcDbEntity
  8
0
  6
Continuous
 62
     7
370
    15
100
AcDbSpline
210
0.0
220
0.0
230
1.0
 70
    24
 71
     3
 72
    12
 73
     8
 74
     0
 42
0.00000001
 43
0.00000001
 12
1.0
 22
0.0
 32
0.0
 13
1.0
 23
0.0
 33
0.0
 40
0.0
 40
0.0
 40
0.0
 40
0.0
 40
0.2500000000000032
 40
0.2500000000000032
 40
0.5000000000000064
 40
0.5000000000000064
 40
1.0
 40
1.0
 40
1.0
 40
1.0
 10
223.1605328414452
 20
153.4564681724846
 30
0.0
 10
223.3126230783902
 20
153.4564681724846
 30
0.0
 10
223.4610823394657
 20
153.4564681724846
 30
0.0
 10
223.7184859717314
 20
153.4564681724846
 30
0.0
 10
223.8275907195733
 20
153.4564681724846
 30
0.0
 10
224.0816501959808
 20
153.4564681724846
 30
0.0
 10
224.1605328414452
 20
153.4564681724846
 30
0.0
 10
224.1605328414452
 20
153.4564681724846
 30
0.0
  0
SPLINE
  5
84
330
1F
100
AcDbEntity
  8
0
  6
Continuous
 62
     7
370
    15
100
AcDbSpline
210
0.0
220
0.0
230
1.0
 70
     8
 71
     3
 72
    12
 73
     8
 74
     0
 42
0.00000001
 43
0.00000001
 12
1.0
 22
0.0
 32
0.0
 13
1.0
 23
0.0
 33
0.0
 40
0.0
 40
0.0
 40
0.0
 40
0.0
 40
0.25
 40
0.25
 40
0.5
 40
0.5
 40
1.0
 40
1.0
 40
1.0
 40
1.0
 10
214.1005328414452
 20
77.46679271443496
 30
0.0
 10
213.9947721880963
 20
77.46679271443496
 30
0.0
 10
213.8867845599134
 20
77.44425320843456
 30
0.0
 10
213.6921898946478
 20
77.35968257643924
 30
0.0
 10
213.6033179818089
 20
77.29720092368048
 30
0.0
 10
213.384125689483
 20
77.0678119722083
 30
0.0
 10
213.3005328414452
 20
76.85522863468591
 30
0.0
 10
213.3005328414452
 20
76.64328939008972
 30
0.0
  0
SPLINE
  5
85
330
1F
100
AcDbEntity
  8
0
  6
Continuous
 62
     7
370
    15
100
AcDbSpline
210
0.0
220
0.0
230
1.0
 70
    24
 71
     3
 72
    14
 73
    10
 74
     0
 42
0.00000001
 43
0.00000001
 12
1.0
 22
0.0
 32
0.0
 13
1.0
 23
0.0
 33
0.0
 40
0.0
 40
0.0
 40
0.0
 40
0.0
 40
0.25
 40
0.25
 40
0.5
 40
0.5
 40
0.75
 40
0.75
 40
1.0
 40
1.0
 40
1.0
 40
1.0
 10
213.3005328414452
 20
153.4564681724846
 30
0.0
 10
213.3005328414452
 20
153.4564681724846
 30
0.0
 10
213.3162471619112
 20
153.4564681724846
 30
0.0
 10
213.3799311403796
 20
153.4564681724846
 30
0.0
 10
213.42853433479
 20
153.4564681724846
 30
0.0
 10
213.5612178572156
 20
153.4564681724846
 30
0.0
 10
213.6463199615262
 20
153.4564681724846
 30
0.0
 10
213.8527621964363
 20
153.4564681724846
 30
0.0
 10
213.9768431380593
 20
153.4564681724846
 30
0.0
 10
214.1005328414452
 20
153.4564681724846
 30
0.0
  0
SPLINE
  5
86
330
1F
100
AcDbEntity
  8
0
  6
Continuous
 62
     7
370
    15
100
AcDbSpline
210
0.0
220
0.0
230
1.0
 70
     8
 71
     3
 72
    14
 73
    10
 74
     0
 42
0.00000001
 43
0.00000001
 12
1.0
 22
0.0
 32
0.0
 13
1.0
 23
0.0
 33
0.0
 40
0.0
 40
0.0
 40
0.0
 40
0.0
 40
0.25
 40
0.25
 40
0.5
 40
0.5
 40
0.75
 40
0.75
 40
1.0
 40
1.0
 40
1.0
 40
1.0
 10
217.1205328414453
 20
76.64328939008972
 30
0.0
 10
217.1205328414453
 20
76.7503334710841
 30
0.0
 10
217.1004151542871
 20
76.85556861132656
 30
0.0
 10
217.0219239650214
 20
77.05341909817423
 30
0.0
 10
216.9637673402202
 20
77.14447086173917
 30
0.0
 10
216.8172520846022
 20
77.29763695566393
 30
0.0
 10
216.7286095359611
 20
77.35993140187335
 30
0.0
 10
216.5328862131608
 20
77.44472518740933
 30
0.0
 10
216.4276550220898
 20
77.46679271443496
 30
0.0
 10
216.3205328414452
 20
77.46679271443496
 30
0.0
  0
SPLINE
  5
87
330
1F
100
AcDbEntity
  8
0
  6
Continuous
 62
     7
370
    15
100
AcDbSpline
210
0.0
220
0.0
230
1.0
 70
    24
 71
     3
 72
    14
 73
    10
 74
     0
 42
0.00000001
 43
0.00000001
 12
1.0
 22
0.0
 32
0.0
 13
1.0
 23
0.0
 33
0.0
 40
0.0
 40
0.0
 40
0.0
 40
0.0
 40
0.25
 40
0.25
 40
0.5
 40
0.5
 40
0.75
 40
0.75
 40
1.0
 40
1.0
 40
1.0
 40
1.0
 10
216.3205328414452
 20
153.4564681724846
 30
0.0
 10
216.4443026062104
 20
153.4564681724846
 30
0.0
 10
216.5686697102173
 20
153.4564681724846
 30
0.0
 10
216.7750261789433
 20
153.4564681724846
 30
0.0
 10
216.8603543223617
 20
153.4564681724846
 30
0.0
 10
216.9925463810769
 20
153.4564681724846
 30
0.0
 10
217.0411916248275
 20
153.4564681724846
 30
0.0
 10
217.1047274165562
 20
153.4564681724846
 30
0.0
 10
217.1205328414453
 20
153.4564681724846
 30
0.0
 10
217.1205328414453
 20
153.4564681724846
 30
0.0
  0
LINE
  5
88
330
1F
100
AcDbEntity
  8
0
  6
Continuous
 62
     7
370
    15
100
AcDbLine
 10
216.3205328414
 20
77.4667927144
 30
0.0
 11
214.1005328414
 21
77.4667927144
 31
0.0
  0
LINE
  5
89
330
1F
100
AcDbEntity
  8
0
  6
Continuous
 62
     7
370
    15
100
AcDbLine
 10
214.1005328414
 20
153.4564681725
 30
0.0
 11
216.3205328414
 21
153.4564681725
 31
0.0
  0
LINE
  5
8A
330
1F
100
AcDbEntity
  8
0
  6
Continuous
 62
     7
370
    15
100
AcDbLine
 10
192.7105328414
 20
84.2242166695
 30
0.0
 11
192.7105328414
 21
159.9887196755
 31
0.0
  0
LINE
  5
8B
330
1F
100
AcDbEntity
  8
0
  6
Continuous
 62
     7
370
    15
100
AcDbLine
 10
160.4105328414
 20
85.8424531424
 30
0.0
 11
160.4105328414
 21
88.2607472183
 31
0.0
  0
SPLINE
  5
8C
330
1F
100
AcDbEntity
  8
0
  6
Continuous
 62
     7
370
    15
100
AcDbSpline
210
0.0
220
0.0
230
1.0
 70
     8
 71
     3
 72
    14
 73
    10
 74
     0
 42
0.00000001
 43
0.00000001
 12
1.0
 22
0.0
 32
0.0
 13
1.0
 23
0.0
 33
0.0
 40
0.0
 40
0.0
 40
0.0
 40
0.0
 40
0.2500000000000008
 40
0.2500000000000008
 40
0.5000000000000006
 40
0.5000000000000006
 40
0.7500000000000002
 40
0.7500000000000002
 40
1.0
 40
1.0
 40
1.0
 40
1.0
 10
159.5540601037257
 20
89.9090620819001
 30
0.0
 10
159.6225644499214
 20
89.75521598187281
 30
0.0
 10
159.7211549353304
 20
89.6070864746617
 30
0.0
 10
159.9193455282906
 20
89.31840407726624
 30
0.0
 10
160.0197939100656
 20
89.17796500375077
 30
0.0
 10
160.1951179571849
 20
88.90400439162993
 30
0.0
 10
160.2705363841417
 20
88.77048519954899
 30
0.0
 10
160.3780730090726
 20
88.51018455959466
 30
0.0
 10
160.4105328414452
 20
88.38244807303283
 30
0.0
 10
160.4105328414452
 20
88.26074721826376
 30
0.0
  0
SPLINE
  5
8D
330
1F
100
AcDbEntity
  8
0
  6
Continuous
 62
     7
370
    15
100
AcDbSpline
210
0.0
220
0.0
230
1.0
 70
     8
 71
     3
 72
    20
 73
    16
 74
     0
 42
0.00000001
 43
0.00000001
 12
1.0
 22
0.0
 32
0.0
 13
1.0
 23
0.0
 33
0.0
 40
0.0
 40
0.0
 40
0.0
 40
0.0
 40
0.0625000000000001
 40
0.0625000000000001
 40
0.1250000000000002
 40
0.1250000000000002
 40
0.2500000000000004
 40
0.2500000000000004
 40
0.3750000000000006
 40
0.3750000000000006
 40
0.5000000000000008
 40
0.5000000000000008
 40
0.7500000000000003
 40
0.7500000000000003
 40
1.0
 40
1.0
 40
1.0
 40
1.0
 10
158.5105328414452
 20
90.78646473262106
 30
0.0
 10
158.5552540773257
 20
90.79087343112133
 30
0.0
 10
158.6017977787122
 20
90.7907366593245
 30
0.0
 10
158.6932169868723
 20
90.78074233760505
 30
0.0
 10
158.7375069032298
 20
90.77097075801898
 30
0.0
 10
158.858771814635
 20
90.733208154068
 30
0.0
 10
158.9259564379112
 20
90.6974588178758
 30
0.0
 10
159.0409235040313
 20
90.62213116515917
 30
0.0
 10
159.0901279130504
 20
90.58129432319981
 30
0.0
 10
159.1770291468447
 20
90.49921420608898
 30
0.0
 10
159.2151115668039
 20
90.45751920001143
 30
0.0
 10
159.3194507571669
 20
90.33158172537819
 30
0.0
 10
159.3760380522819
 20
90.24636294510641
 30
0.0
 10
159.4749913648988
 20
90.07668535496074
 30
0.0
 10
159.5169289837895
 20
89.99245063035072
 30
0.0
 10
159.5540601037256
 20
89.90906208190009
 30
0.0
  0
SPLINE
  5
8E
330
1F
100
AcDbEntity
  8
0
  6
Continuous
 62
     7
370
    15
100
AcDbSpline
210
0.0
220
0.0
230
1.0
 70
     8
 71
     3
 72
    10
 73
     6
 74
     0
 42
0.00000001
 43
0.00000001
 12
1.0
 22
0.0
 32
0.0
 13
1.0
 23
0.0
 33
0.0
 40
0.0
 40
0.0
 40
0.0
 40
0.0
 40
0.5
 40
0.5
 40
1.0
 40
1.0
 40
1.0
 40
1.0
 10
153.3726200448682
 20
90.20245127719265
 30
0.0
 10
154.2123653594766
 20
90.31529489817875
 30
0.0
 10
155.063005425821
 20
90.41794414526613
 30
0.0
 10
156.7776162105395
 20
90.61076895904874
 30
0.0
 10
157.6417242372679
 20
90.70081604436723
 30
0.0
 10
158.5105328414452
 20
90.78646473262108
 30
0.0
  0
SPLINE
  5
8F
330
1F
100
AcDbEntity
  8
0
  6
Continuous
 62
     7
370
    15
100
AcDbSpline
210
0.0
220
0.0
230
1.0
 70
     8
 71
     3
 72
    14
 73
    10
 74
     0
 42
0.00000001
 43
0.00000001
 12
1.0
 22
0.0
 32
0.0
 13
1.0
 23
0.0
 33
0.0
 40
0.0
 40
0.0
 40
0.0
 40
0.0
 40
0.5000000000000014
 40
0.5000000000000014
 40
0.7500000000000006
 40
0.7500000000000006
 40
0.8750000000000003
 40
0.8750000000000003
 40
1.0
 40
1.0
 40
1.0
 40
1.0
 10
147.2104579574143
 20
89.92806832324989
 30
0.0
 10
148.2512644815243
 20
89.940362263491
 30
0.0
 10
149.2890917264839
 20
89.95980810823303
 30
0.0
 10
150.8353556370458
 20
90.01440304254163
 30
0.0
 10
151.3490404037182
 20
90.03681552332753
 30
0.0
 10
152.1142280007285
 20
90.0834453209526
 30
0.0
 10
152.3683903376056
 20
90.10118222284216
 30
0.0
 10
152.8736205638996
 20
90.1442087279343
 30
0.0
 10
153.1248294020828
 20
90.16915357026649
 30
0.0
 10
153.3726200448682
 20
90.2024512771926
 30
0.0
  0
SPLINE
  5
90
330
1F
100
AcDbEntity
  8
0
  6
Continuous
 62
     7
370
    15
100
AcDbSpline
210
0.0
220
0.0
230
1.0
 70
     8
 71
     3
 72
    12
 73
     8
 74
     0
 42
0.00000001
 43
0.00000001
 12
1.0
 22
0.0
 32
0.0
 13
1.0
 23
0.0
 33
0.0
 40
0.0
 40
0.0
 40
0.0
 40
0.0
 40
0.2500000000000009
 40
0.2500000000000009
 40
0.5000000000000018
 40
0.5000000000000018
 40
1.0
 40
1.0
 40
1.0
 40
1.0
 10
153.5105328414452
 20
154.1929910639811
 30
0.0
 10
152.991834019617
 20
154.2255138388293
 30
0.0
 10
152.4701224464121
 20
154.2488105799997
 30
0.0
 10
151.4238304299165
 20
154.2866560944219
 30
0.0
 10
150.8991588042462
 20
154.300924568918
 30
0.0
 10
149.322312781707
 20
154.3351340563763
 30
0.0
 10
148.2673574671601
 20
154.3466335603202
 30
0.0
 10
147.2104579574148
 20
154.3523003410498
 30
0.0
  0
SPLINE
  5
91
330
1F
100
AcDbEntity
  8
0
  6
Continuous
 62
     7
370
    15
100
AcDbSpline
210
0.0
220
0.0
230
1.0
 70
     8
 71
     3
 72
    20
 73
    16
 74
     0
 42
0.00000001
 43
0.00000001
 12
1.0
 22
0.0
 32
0.0
 13
1.0
 23
0.0
 33
0.0
 40
0.0
 40
0.0
 40
0.0
 40
0.0
 40
0.2500000000000011
 40
0.2500000000000011
 40
0.5000000000000021
 40
0.5000000000000021
 40
0.7500000000000031
 40
0.7500000000000031
 40
0.8750000000000008
 40
0.8750000000000008
 40
0.9375000000000006
 40
0.9375000000000006
 40
0.9687500000000003
 40
0.9687500000000003
 40
1.0
 40
1.0
 40
1.0
 40
1.0
 10
155.4105328414452
 20
155.8510769094692
 30
0.0
 10
155.4105328414452
 20
155.7153945897224
 30
0.0
 10
155.3618210522286
 20
155.5743076035823
 30
0.0
 10
155.1926596290034
 20
155.2822358848518
 30
0.0
 10
155.0708792150851
 20
155.1305871427614
 30
0.0
 10
154.7733321203356
 20
154.8281787026083
 30
0.0
 10
154.5994195146328
 20
154.675590066485
 30
0.0
 10
154.280004680751
 20
154.4503193026427
 30
0.0
 10
154.1649639053038
 20
154.3755962081319
 30
0.0
 10
153.9578795812873
 20
154.276185798875
 30
0.0
 10
153.8817717464809
 20
154.2446207065303
 30
0.0
 10
153.7503772069276
 20
154.2101773223374
 30
0.0
 10
153.7038239879261
 20
154.2011257505697
 30
0.0
 10
153.6074906368454
 20
154.1909501017313
 30
0.0
 10
153.55823121349
 20
154.1900003430563
 30
0.0
 10
153.5105328414433
 20
154.1929910639709
 30
0.0
  0
LINE
  5
92
330
1F
100
AcDbEntity
  8
0
  6
Continuous
 62
     7
370
    15
100
AcDbLine
 10
155.4105328414
 20
155.8510769095
 30
0.0
 11
155.4105328414
 21
158.1199822005
 31
0.0
  0
SPLINE
  5
93
330
1F
100
AcDbEntity
  8
0
  6
Continuous
 62
     7
370
    15
100
AcDbSpline
210
0.0
220
0.0
230
1.0
 70
     8
 71
     3
 72
    24
 73
    20
 74
     0
 42
0.00000001
 43
0.00000001
 12
1.0
 22
0.0
 32
0.0
 13
1.0
 23
0.0
 33
0.0
 40
0.0
 40
0.0
 40
0.0
 40
0.0
 40
0.0002934293894791
 40
0.062808005175641
 40
0.1260453927228619
 40
0.18907467666103
 40
0.2513200540860133
 40
0.3133304633786587
 40
0.3759158453762907
 40
0.4383740564599686
 40
0.5000631094857209
 40
0.5616593988040849
 40
0.6245050380644152
 40
0.6872231506510951
 40
0.7494953263230465
 40
0.8117583797535242
 40
0.8747365508229858
 40
0.9378980306234599
 40
1.0
 40
1.0
 40
1.0
 40
1.0
 10
173.7304891052846
 20
85.17522291417224
 30
0.0
 10
173.7302942523999
 20
85.17519860677825
 30
0.0
 10
173.6885863613892
 20
85.16999565512509
 30
0.0
 10
173.833704752919
 20
85.18863027845408
 30
0.0
 10
174.1887836944585
 20
85.2311500570034
 30
0.0
 10
174.7933593320016
 20
85.2992863406051
 30
0.0
 10
175.5997946408178
 20
85.372541877621
 30
0.0
 10
176.5852720647367
 20
85.43706121843886
 30
0.0
 10
177.7169416614163
 20
85.47562544649995
 30
0.0
 10
178.9392341315786
 20
85.47931995250134
 30
0.0
 10
180.2065628130304
 20
85.43689397245235
 30
0.0
 10
181.4730483434569
 20
85.3486468316714
 30
0.0
 10
182.6891857072769
 20
85.22025356140472
 30
0.0
 10
183.8145962031176
 20
85.06761257281218
 30
0.0
 10
184.7920132646716
 20
84.90583795770786
 30
0.0
 10
185.5952787432141
 20
84.75330906460695
 30
0.0
 10
186.1837722662153
 20
84.62929532133955
 30
0.0
 10
186.5726783778674
 20
84.5443713950633
 30
0.0
 10
186.6194395086054
 20
84.53364508378449
 30
0.0
 10
186.6426223151478
 20
84.52832729109289
 30
0.0
  0
SPLINE
  5
94
330
1F
100
AcDbEntity
  8
0
  6
Continuous
 62
     7
370
    15
100
AcDbSpline
210
0.0
220
0.0
230
1.0
 70
     8
 71
     3
 72
    41
 73
    37
 74
     0
 42
0.00000001
 43
0.00000001
 12
1.0
 22
0.0
 32
0.0
 13
1.0
 23
0.0
 33
0.0
 40
0.0
 40
0.0
 40
0.0
 40
0.0
 40
0.0619930088506718
 40
0.125434783814564
 40
0.1886508980471406
 40
0.2510246518033811
 40
0.3131658325491701
 40
0.3756581805174193
 40
0.4382227337757709
 40
0.4998045140815297
 40
0.5615164441954765
 40
0.624068336616565
 40
0.6867257531766615
 40
0.7488365631577111
 40
0.8110686297814758
 40
0.8741743265521147
 40
0.9373213196242014
 40
0.9685512131827939
 40
0.9842087301523141
 40
0.9920641614992075
 40
0.9960005295431575
 40
0.9979711229155388
 40
0.9989570525954627
 40
0.999450179507506
 40
0.9996967839589672
 40
0.9998200964931991
 40
0.9998817553448945
 40
0.9999125854178207
 40
0.9999280006161647
 40
0.9999357082558249
 40
0.9999395620857793
 40
0.9999414890032862
 40
0.9999424524626737
 40
0.9999434159224813
 40
0.9999502132908483
 40
1.0
 40
1.0
 40
1.0
 40
1.0
 10
186.6425009846698
 20
159.6845640359248
 30
0.0
 10
186.6189293393262
 20
159.679254556275
 30
0.0
 10
186.5712351832811
 20
159.6685115153354
 30
0.0
 10
186.1791931938556
 20
159.58328237888
 30
0.0
 10
185.5886791445854
 20
159.4587136002392
 30
0.0
 10
184.7846416985403
 20
159.3057666540874
 30
0.0
 10
183.8085662983588
 20
159.1440101001338
 30
0.0
 10
182.6867575630783
 20
158.9917773322016
 30
0.0
 10
181.473226643291
 20
158.8639973910002
 30
0.0
 10
180.2083959368918
 20
158.7761488393176
 30
0.0
 10
178.9403528994491
 20
158.733763355447
 30
0.0
 10
177.716845541748
 20
158.7374991634186
 30
0.0
 10
176.583347001334
 20
158.7760946338668
 30
0.0
 10
175.5972411903597
 20
158.8405340051579
 30
0.0
 10
174.7886133815727
 20
158.914043812439
 30
0.0
 10
174.191994686463
 20
158.9813574972509
 30
0.0
 10
173.8766033970064
 20
159.0193220485187
 30
0.0
 10
173.7665368282059
 20
159.0331211078508
 30
0.0
 10
173.7391174403953
 20
159.036607181771
 30
0.0
 10
173.7321953895607
 20
159.0374864074651
 30
0.0
 10
173.7304271493844
 20
159.0377071820704
 30
0.0
 10
173.729966770201
 20
159.0377623847825
 30
0.0
 10
173.7298426115304
 20
159.0377761245677
 30
0.0
 10
173.7298070570171
 20
159.0377795204012
 30
0.0
 10
173.7297959129754
 20
159.037780348718
 30
0.0
 10
173.7297919997392
 20
159.0377805453118
 30
0.0
 10
173.729790457591
 20
159.0377805892348
 30
0.0
 10
173.7297897905096
 20
159.0377805975515
 30
0.0
 10
173.7297894824447
 20
159.0377805983677
 30
0.0
 10
173.7297893355194
 20
159.0377805978424
 30
0.0
 10
173.7297892627917
 20
159.0377805974845
 30
0.0
 10
173.7297892280821
 20
159.0377805970867
 30
0.0
 10
173.7297892063486
 20
159.0377805971116
 30
0.0
 10
173.7297891744935
 20
159.0377805948669
 30
0.0
 10
173.7297872251528
 20
159.0377808108129
 30
0.0
 10
173.7298141600156
 20
159.0377773296823
 30
0.0
 10
173.7298378592299
 20
159.0377742667351
 30
0.0
  0
SPLINE
  5
95
330
1F
100
AcDbEntity
  8
0
  6
Continuous
 62
     7
370
    15
100
AcDbSpline
210
0.0
220
0.0
230
1.0
 70
     8
 71
     3
 72
    22
 73
    18
 74
     0
 42
0.00000001
 43
0.00000001
 12
1.0
 22
0.0
 32
0.0
 13
1.0
 23
0.0
 33
0.0
 40
0.0
 40
0.0
 40
0.0
 40
0.0
 40
0.2499999999999975
 40
0.2499999999999975
 40
0.3749999999999944
 40
0.3749999999999944
 40
0.4374999999999946
 40
0.4374999999999946
 40
0.4999999999999947
 40
0.4999999999999947
 40
0.5624999999999948
 40
0.5624999999999948
 40
0.624999999999995
 40
0.624999999999995
 40
0.7499999999999957
 40
0.7499999999999957
 40
1.0
 40
1.0
 40
1.0
 40
1.0
 10
145.5075524068976
 20
91.56780626968336
 30
0.0
 10
145.5346180661957
 20
91.61845224515302
 30
0.0
 10
145.5674477460288
 20
91.66285799721831
 30
0.0
 10
145.6487151200553
 20
91.6947981567502
 30
0.0
 10
145.6812806615961
 20
91.70053560291142
 30
0.0
 10
145.7539936889284
 20
91.6795969764599
 30
0.0
 10
145.7827876483906
 20
91.66723378790817
 30
0.0
 10
145.8534373606614
 20
91.62086392054643
 30
0.0
 10
145.8959132422506
 20
91.58507721056608
 30
0.0
 10
145.9764669701621
 20
91.50243694200563
 30
0.0
 10
146.0135853073969
 20
91.45769744074414
 30
0.0
 10
146.0786529741058
 20
91.37268904526252
 30
0.0
 10
146.107126632939
 20
91.33190306074755
 30
0.0
 10
146.1864690300816
 20
91.21211748319054
 30
0.0
 10
146.2293699887491
 20
91.13868672433057
 30
0.0
 10
146.3459845408346
 20
90.92676242563289
 30
0.0
 10
146.4071413462724
 20
90.79628126301893
 30
0.0
 10
146.4605852833525
 20
90.6722483083123
 30
0.0
  0
SPLINE
  5
96
330
1F
100
AcDbEntity
  8
0
  6
Continuous
 62
     7
370
    15
100
AcDbSpline
210
0.0
220
0.0
230
1.0
 70
     8
 71
     3
 72
     8
 73
     4
 74
     0
 42
0.00000001
 43
0.00000001
 12
1.0
 22
0.0
 32
0.0
 13
1.0
 23
0.0
 33
0.0
 40
0.0
 40
0.0
 40
0.0
 40
0.0
 40
1.0
 40
1.0
 40
1.0
 40
1.0
 10
145.3105328414453
 20
91.63282303130538
 30
0.0
 10
145.3105328414453
 20
91.61169228684882
 30
0.0
 10
145.313277702783
 20
91.59245258877253
 30
0.0
 10
145.3184450496254
 20
91.57550223943358
 30
0.0
  0
SPLINE
  5
97
330
1F
100
AcDbEntity
  8
0
  6
Continuous
 62
     7
370
    15
100
AcDbSpline
210
0.0
220
0.0
230
1.0
 70
     8
 71
     3
 72
    10
 73
     6
 74
     0
 42
0.00000001
 43
0.00000001
 12
1.0
 22
0.0
 32
0.0
 13
1.0
 23
0.0
 33
0.0
 40
0.0
 40
0.0
 40
0.0
 40
0.0
 40
0.298258961501276
 40
0.9380805289263748
 40
1.0
 40
1.0
 40
1.0
 40
1.0
 10
145.3557260745119
 20
91.53634843723714
 30
0.0
 10
145.3660098592461
 20
91.52185919401049
 30
0.0
 10
145.3983542963562
 20
91.47628779900066
 30
0.0
 10
145.4709482936061
 20
91.50437803801556
 30
0.0
 10
145.5045844554248
 20
91.56266335276308
 30
0.0
 10
145.5075524068976
 20
91.56780626968332
 30
0.0
  0
LINE
  5
98
330
1F
100
AcDbEntity
  8
0
  6
Continuous
 62
     7
370
    15
100
AcDbLine
 10
145.3105328414
 20
91.6328230313
 30
0.0
 11
145.3105328414
 21
152.6091379151
 31
0.0
  0
SPLINE
  5
99
330
1F
100
AcDbEntity
  8
0
  6
Continuous
 62
     7
370
    15
100
AcDbSpline
210
0.0
220
0.0
230
1.0
 70
     8
 71
     3
 72
     9
 73
     5
 74
     0
 42
0.00000001
 43
0.00000001
 12
1.0
 22
0.0
 32
0.0
 13
1.0
 23
0.0
 33
0.0
 40
0.0
 40
0.0
 40
0.0
 40
0.0
 40
0.0592950272321202
 40
1.0
 40
1.0
 40
1.0
 40
1.0
 10
145.6013470731659
 20
152.7849513251905
 30
0.0
 10
145.5964642317037
 20
152.788244170584
 30
0.0
 10
145.5141159861573
 20
152.8437774175896
 30
0.0
 10
145.4479839356758
 20
152.7864880150771
 30
0.0
 10
145.3857731869285
 20
152.7325955892467
 30
0.0
  0
SPLINE
  5
9A
330
1F
100
AcDbEntity
  8
0
  6
Continuous
 62
     7
370
    15
100
AcDbSpline
210
0.0
220
0.0
230
1.0
 70
     8
 71
     3
 72
     8
 73
     4
 74
     0
 42
0.00000001
 43
0.00000001
 12
1.0
 22
0.0
 32
0.0
 13
1.0
 23
0.0
 33
0.0
 40
0.0
 40
0.0
 40
0.0
 40
0.0
 40
1.0
 40
1.0
 40
1.0
 40
1.0
 10
145.3341665103814
 20
152.7167174161222
 30
0.0
 10
145.3188174717454
 20
152.6862073611263
 30
0.0
 10
145.3105328414453
 20
152.6498958056139
 30
0.0
 10
145.3105328414453
 20
152.6091379150525
 30
0.0
  0
SPLINE
  5
9B
330
1F
100
AcDbEntity
  8
0
  6
Continuous
 62
     7
370
    15
100
AcDbSpline
210
0.0
220
0.0
230
1.0
 70
     8
 71
     3
 72
    20
 73
    16
 74
     0
 42
0.00000001
 43
0.00000001
 12
1.0
 22
0.0
 32
0.0
 13
1.0
 23
0.0
 33
0.0
 40
0.0
 40
0.0
 40
0.0
 40
0.0
 40
0.2500000000000037
 40
0.2500000000000037
 40
0.3750000000000055
 40
0.3750000000000055
 40
0.5000000000000073
 40
0.5000000000000073
 40
0.5625000000000057
 40
0.5625000000000057
 40
0.625000000000004
 40
0.625000000000004
 40
0.7500000000000027
 40
0.7500000000000027
 40
1.0
 40
1.0
 40
1.0
 40
1.0
 10
146.2870850831477
 20
153.4293342729628
 30
0.0
 10
146.2470888653238
 20
153.3504558664053
 30
0.0
 10
146.2019752374862
 20
153.2673262197138
 30
0.0
 10
146.1187210231197
 20
153.1338375553629
 30
0.0
 10
146.0885016944992
 20
153.0879724994809
 30
0.0
 10
146.0164134593577
 20
152.989780947076
 30
0.0
 10
145.9744961419466
 20
152.9374711275524
 30
0.0
 10
145.9032455373952
 20
152.8654652248179
 30
0.0
 10
145.8790097250159
 20
152.8436950125163
 30
0.0
 10
145.8334115348312
 20
152.8082203541873
 30
0.0
 10
145.8126090452315
 20
152.7948501700098
 30
0.0
 10
145.7576680468124
 20
152.7652802578746
 30
0.0
 10
145.7295990587256
 20
152.7581537355726
 30
0.0
 10
145.6590962286627
 20
152.7512793640899
 30
0.0
 10
145.6276721408719
 20
152.7655945231771
 30
0.0
 10
145.6013470731633
 20
152.7849513251876
 30
0.0
  0
SPLINE
  5
9C
330
1F
100
AcDbEntity
  8
0
  6
Continuous
 62
     7
370
    15
100
AcDbSpline
210
0.0
220
0.0
230
1.0
 70
     8
 71
     3
 72
    10
 73
     6
 74
     0
 42
0.00000001
 43
0.00000001
 12
1.0
 22
0.0
 32
0.0
 13
1.0
 23
0.0
 33
0.0
 40
0.0
 40
0.0
 40
0.0
 40
0.0
 40
0.4999999999999989
 40
0.4999999999999989
 40
1.0
 40
1.0
 40
1.0
 40
1.0
 10
146.9605328414453
 20
154.3547533743046
 30
0.0
 10
146.835644570695
 20
154.2237570962331
 30
0.0
 10
146.7141944526346
 20
154.0800442595681
 30
0.0
 10
146.4846104776772
 20
153.7694739668789
 30
0.0
 10
146.3743355022812
 20
153.6014048938158
 30
0.0
 10
146.2870850831477
 20
153.4293342729628
 30
0.0
  0
SPLINE
  5
9D
330
1F
100
AcDbEntity
  8
0
  6
Continuous
 62
     7
370
    15
100
AcDbSpline
210
0.0
220
0.0
230
1.0
 70
     8
 71
     3
 72
     8
 73
     4
 74
     0
 42
0.00000001
 43
0.00000001
 12
1.0
 22
0.0
 32
0.0
 13
1.0
 23
0.0
 33
0.0
 40
0.0
 40
0.0
 40
0.0
 40
0.0
 40
1.0
 40
1.0
 40
1.0
 40
1.0
 10
147.210457957411
 20
154.3523003410492
 30
0.0
 10
147.1234399275626
 20
154.3527669058363
 30
0.0
 10
147.0404859011827
 20
154.3538069254124
 30
0.0
 10
146.960532841443
 20
154.3547533743047
 30
0.0
  0
SPLINE
  5
9E
330
1F
100
AcDbEntity
  8
0
  6
Continuous
 62
     7
370
    15
100
AcDbSpline
210
0.0
220
0.0
230
1.0
 70
     8
 71
     3
 72
     8
 73
     4
 74
     0
 42
0.00000001
 43
0.00000001
 12
1.0
 22
0.0
 32
0.0
 13
1.0
 23
0.0
 33
0.0
 40
0.0
 40
0.0
 40
0.0
 40
0.0
 40
1.0
 40
1.0
 40
1.0
 40
1.0
 10
146.9605328414359
 20
89.92215487867603
 30
0.0
 10
147.0399474603095
 20
89.92472794992568
 30
0.0
 10
147.1227510062414
 20
89.92703233433988
 30
0.0
 10
147.2104579574143
 20
89.9280683232499
 30
0.0
  0
SPLINE
  5
9F
330
1F
100
AcDbEntity
  8
0
  6
Continuous
 62
     7
370
    15
100
AcDbSpline
210
0.0
220
0.0
230
1.0
 70
     8
 71
     3
 72
    10
 73
     6
 74
     0
 42
0.00000001
 43
0.00000001
 12
1.0
 22
0.0
 32
0.0
 13
1.0
 23
0.0
 33
0.0
 40
0.0
 40
0.0
 40
0.0
 40
0.0
 40
0.5
 40
0.5
 40
1.0
 40
1.0
 40
1.0
 40
1.0
 10
146.4605852833525
 20
90.6722483083123
 30
0.0
 10
146.5180109138457
 20
90.53897461974974
 30
0.0
 10
146.5963466822042
 20
90.40594129666263
 30
0.0
 10
146.7681388386641
 20
90.15346599039323
 30
0.0
 10
146.8623220009453
 20
90.03363428629225
 30
0.0
 10
146.960532841452
 20
89.92215487866667
 30
0.0
  0
SPLINE
  5
A0
330
1F
100
AcDbEntity
  8
0
  6
Continuous
 62
     7
370
    15
100
AcDbSpline
210
0.0
220
0.0
230
1.0
 70
     8
 71
     3
 72
     8
 73
     4
 74
     0
 42
0.00000001
 43
0.00000001
 12
1.0
 22
0.0
 32
0.0
 13
1.0
 23
0.0
 33
0.0
 40
0.0
 40
0.0
 40
0.0
 40
0.0
 40
1.0
 40
1.0
 40
1.0
 40
1.0
 10
213.3005328414452
 20
168.7037390331895
 30
0.0
 10
212.8502246057607
 20
169.5014541583031
 30
0.0
 10
212.3995307892371
 20
170.2989524579603
 30
0.0
 10
211.9485038205239
 20
171.0962630281482
 30
0.0
  0
LINE
  5
A1
330
1F
100
AcDbEntity
  8
0
  6
Continuous
 62
     7
370
    15
100
AcDbLine
 10
213.3005328414
 20
158.0019156786
 30
0.0
 11
213.3005328414
 21
168.7037390332
 31
0.0
  0
SPLINE
  5
A2
330
1F
100
AcDbEntity
  8
0
  6
Continuous
 62
     7
370
    15
100
AcDbSpline
210
0.0
220
0.0
230
1.0
 70
     8
 71
     3
 72
     8
 73
     4
 74
     0
 42
0.00000001
 43
0.00000001
 12
1.0
 22
0.0
 32
0.0
 13
1.0
 23
0.0
 33
0.0
 40
0.0
 40
0.0
 40
0.0
 40
0.0
 40
1.0
 40
1.0
 40
1.0
 40
1.0
 10
211.9485038205239
 20
161.0574309333715
 30
0.0
 10
212.4054301743234
 20
160.0415129636972
 30
0.0
 10
212.8566358161264
 20
159.0227171346061
 30
0.0
 10
213.3005328414452
 20
158.0019156786225
 30
0.0
  0
LINE
  5
A3
330
1F
100
AcDbEntity
  8
0
  6
Continuous
 62
     7
370
    15
100
AcDbLine
 10
223.1605328414
 20
171.0962630281
 30
0.0
 11
218.4725618624
 21
171.0962630281
 31
0.0
  0
LINE
  5
A4
330
1F
100
AcDbEntity
  8
0
  6
Continuous
 62
     7
370
    15
100
AcDbLine
 10
218.4725618624
 20
161.0574309334
 30
0.0
 11
223.1605328414
 21
161.0574309334
 31
0.0
  0
LINE
  5
A5
330
1F
100
AcDbEntity
  8
0
  6
Continuous
 62
     7
370
    15
100
AcDbLine
 10
218.4725618624
 20
161.0574309334
 30
0.0
 11
218.4725618624
 21
171.0962630281
 31
0.0
  0
SPLINE
  5
A6
330
1F
100
AcDbEntity
  8
0
  6
Continuous
 62
     7
370
    15
100
AcDbSpline
210
0.0
220
0.0
230
1.0
 70
     8
 71
     3
 72
    10
 73
     6
 74
     0
 42
0.00000001
 43
0.00000001
 12
1.0
 22
0.0
 32
0.0
 13
1.0
 23
0.0
 33
0.0
 40
0.0
 40
0.0
 40
0.0
 40
0.0
 40
0.5
 40
0.5
 40
1.0
 40
1.0
 40
1.0
 40
1.0
 10
214.1005328414452
 20
166.980743932657
 30
0.0
 10
213.8879965275889
 20
166.980743932657
 30
0.0
 10
213.6780603559349
 20
167.0721565192872
 30
0.0
 10
213.3843532149236
 20
167.3769013851914
 30
0.0
 10
213.3005328414452
 20
167.5890563551001
 30
0.0
 10
213.3005328414452
 20
167.8000194133326
 30
0.0
  0
SPLINE
  5
A7
330
1F
100
AcDbEntity
  8
0
  6
Continuous
 62
     7
370
    15
100
AcDbSpline
210
0.0
220
0.0
230
1.0
 70
     8
 71
     3
 72
    14
 73
    10
 74
     0
 42
0.00000001
 43
0.00000001
 12
1.0
 22
0.0
 32
0.0
 13
1.0
 23
0.0
 33
0.0
 40
0.0
 40
0.0
 40
0.0
 40
0.0
 40
0.25
 40
0.25
 40
0.5
 40
0.5
 40
0.75
 40
0.75
 40
1.0
 40
1.0
 40
1.0
 40
1.0
 10
213.3005328414452
 20
156.8207033649817
 30
0.0
 10
213.3005328414452
 20
156.6968364881924
 30
0.0
 10
213.3163919690728
 20
156.5725768113549
 30
0.0
 10
213.3797536145927
 20
156.3349684489491
 30
0.0
 10
213.4283433226421
 20
156.2181880641966
 30
0.0
 10
213.5606289274169
 20
156.0093855355876
 30
0.0
 10
213.6459537186775
 20
155.914874831995
 30
0.0
 10
213.8528449669837
 20
155.7769180311927
 30
0.0
 10
213.9768129128737
 20
155.734999585557
 30
0.0
 10
214.1005328414452
 20
155.734999585557
 30
0.0
  0
SPLINE
  5
A8
330
1F
100
AcDbEntity
  8
0
  6
Continuous
 62
     7
370
    15
100
AcDbSpline
210
0.0
220
0.0
230
1.0
 70
     8
 71
     3
 72
    14
 73
    10
 74
     0
 42
0.00000001
 43
0.00000001
 12
1.0
 22
0.0
 32
0.0
 13
1.0
 23
0.0
 33
0.0
 40
0.0
 40
0.0
 40
0.0
 40
0.0
 40
0.25
 40
0.25
 40
0.5
 40
0.5
 40
0.75
 40
0.75
 40
1.0
 40
1.0
 40
1.0
 40
1.0
 10
217.1205328414453
 20
167.8000194133326
 30
0.0
 10
217.1205328414453
 20
167.6936627195803
 30
0.0
 10
217.100145285304
 20
167.5878222318202
 30
0.0
 10
217.0215109398424
 20
167.3912573182837
 30
0.0
 10
216.9627795802038
 20
167.3000865759965
 30
0.0
 10
216.8161706746013
 20
167.148175486965
 30
0.0
 10
216.7267653545748
 20
167.0861066501454
 30
0.0
 10
216.5328746219744
 20
167.0028386023866
 30
0.0
 10
216.4263696320846
 20
166.980743932657
 30
0.0
 10
216.3205328414452
 20
166.980743932657
 30
0.0
  0
SPLINE
  5
A9
330
1F
100
AcDbEntity
  8
0
  6
Continuous
 62
     7
370
    15
100
AcDbSpline
210
0.0
220
0.0
230
1.0
 70
     8
 71
     3
 72
    12
 73
     8
 74
     0
 42
0.00000001
 43
0.00000001
 12
1.0
 22
0.0
 32
0.0
 13
1.0
 23
0.0
 33
0.0
 40
0.0
 40
0.0
 40
0.0
 40
0.0
 40
0.250000000000002
 40
0.250000000000002
 40
0.500000000000004
 40
0.500000000000004
 40
1.0
 40
1.0
 40
1.0
 40
1.0
 10
216.3205328414452
 20
155.7349995855571
 30
0.0
 10
216.4442337914252
 20
155.7349995855571
 30
0.0
 10
216.5683304036954
 20
155.7769931972896
 30
0.0
 10
216.7749855667824
 20
155.914788523934
 30
0.0
 10
216.8600263335093
 20
156.0087621223989
 30
0.0
 10
217.0595049019829
 20
156.3235503286198
 30
0.0
 10
217.1205328414453
 20
156.5737893208474
 30
0.0
 10
217.1205328414453
 20
156.8207033649817
 30
0.0
  0
SPLINE
  5
AA
330
1F
100
AcDbEntity
  8
0
  6
Continuous
 62
     7
370
    15
100
AcDbSpline
210
0.0
220
0.0
230
1.0
 70
     8
 71
     3
 72
     8
 73
     4
 74
     0
 42
0.00000001
 43
0.00000001
 12
1.0
 22
0.0
 32
0.0
 13
1.0
 23
0.0
 33
0.0
 40
0.0
 40
0.0
 40
0.0
 40
0.0
 40
1.0
 40
1.0
 40
1.0
 40
1.0
 10
218.4725618623666
 20
171.0962630281482
 30
0.0
 10
218.0215348936534
 20
170.2989524579603
 30
0.0
 10
217.5708410771298
 20
169.5014541583031
 30
0.0
 10
217.1205328414453
 20
168.7037390331895
 30
0.0
  0
SPLINE
  5
AB
330
1F
100
AcDbEntity
  8
0
  6
Continuous
 62
     7
370
    15
100
AcDbSpline
210
0.0
220
0.0
230
1.0
 70
     8
 71
     3
 72
     8
 73
     4
 74
     0
 42
0.00000001
 43
0.00000001
 12
1.0
 22
0.0
 32
0.0
 13
1.0
 23
0.0
 33
0.0
 40
0.0
 40
0.0
 40
0.0
 40
0.0
 40
1.0
 40
1.0
 40
1.0
 40
1.0
 10
217.1205328414453
 20
158.0019156786224
 30
0.0
 10
217.5646828524708
 20
159.0232989095741
 30
0.0
 10
218.0157571627287
 20
160.0417834463424
 30
0.0
 10
218.4725618623666
 20
161.0574309333715
 30
0.0
  0
LINE
  5
AC
330
1F
100
AcDbEntity
  8
0
  6
Continuous
 62
     7
370
    15
100
AcDbLine
 10
217.1205328414
 20
158.0019156786
 30
0.0
 11
217.1205328414
 21
168.7037390332
 31
0.0
  0
SPLINE
  5
AD
330
1F
100
AcDbEntity
  8
0
  6
Continuous
 62
     7
370
    15
100
AcDbSpline
210
0.0
220
0.0
230
1.0
 70
     8
 71
     3
 72
    12
 73
     8
 74
     0
 42
0.00000001
 43
0.00000001
 12
1.0
 22
0.0
 32
0.0
 13
1.0
 23
0.0
 33
0.0
 40
0.0
 40
0.0
 40
0.0
 40
0.0
 40
0.4999999999999953
 40
0.4999999999999953
 40
0.7499999999999977
 40
0.7499999999999977
 40
1.0
 40
1.0
 40
1.0
 40
1.0
 10
224.1605328414452
 20
170.0752079933304
 30
0.0
 10
224.1605328414452
 20
170.3404774260968
 30
0.0
 10
224.0559260979588
 20
170.6029925317492
 30
0.0
 10
223.7792577462135
 20
170.8885301377865
 30
0.0
 10
223.6688924868615
 20
170.9648517546479
 30
0.0
 10
223.4248204382457
 20
171.069193919488
 30
0.0
 10
223.293067976914
 20
171.0962630281482
 30
0.0
 10
223.1605328414452
 20
171.0962630281482
 30
0.0
  0
SPLINE
  5
AE
330
1F
100
AcDbEntity
  8
0
  6
Continuous
 62
     7
370
    15
100
AcDbSpline
210
0.0
220
0.0
230
1.0
 70
     8
 71
     3
 72
    16
 73
    12
 74
     0
 42
0.00000001
 43
0.00000001
 12
1.0
 22
0.0
 32
0.0
 13
1.0
 23
0.0
 33
0.0
 40
0.0
 40
0.0
 40
0.0
 40
0.0
 40
0.1249999999999978
 40
0.1249999999999978
 40
0.2499999999999955
 40
0.2499999999999955
 40
0.499999999999997
 40
0.499999999999997
 40
0.7499999999999984
 40
0.7499999999999984
 40
1.0
 40
1.0
 40
1.0
 40
1.0
 10
223.1605328414452
 20
161.0574309333715
 30
0.0
 10
223.2361705478564
 20
161.0574309333715
 30
0.0
 10
223.3124862122746
 20
161.0460859332366
 30
0.0
 10
223.4568969501666
 20
161.0034333825981
 30
0.0
 10
223.525343399275
 20
160.9724990579153
 30
0.0
 10
223.7202746518882
 20
160.8532426861476
 30
0.0
 10
223.828115825669
 20
160.7430906725271
 30
0.0
 10
223.9968285738811
 20
160.494954586869
 30
0.0
 10
224.0591929866046
 20
160.3546122628653
 30
0.0
 10
224.140496911113
 20
160.0663405713767
 30
0.0
 10
224.1605328414452
 20
159.9155355983968
 30
0.0
 10
224.1605328414452
 20
159.7651657070516
 30
0.0
  0
LINE
  5
AF
330
1F
100
AcDbEntity
  8
0
  6
Continuous
 62
     7
370
    15
100
AcDbLine
 10
224.1605328414
 20
159.7651657071
 30
0.0
 11
224.1605328414
 21
170.0752079933
 31
0.0
  0
LINE
  5
B0
330
1F
100
AcDbEntity
  8
0
  6
Continuous
 62
     7
370
    15
100
AcDbLine
 10
213.3005328414
 20
158.0019156786
 30
0.0
 11
213.3005328414
 21
156.820703365
 31
0.0
  0
LINE
  5
B1
330
1F
100
AcDbEntity
  8
0
  6
Continuous
 62
     7
370
    15
100
AcDbLine
 10
214.1005328414
 20
155.7349995856
 30
0.0
 11
216.3205328414
 21
155.7349995856
 31
0.0
  0
LINE
  5
B2
330
1F
100
AcDbEntity
  8
0
  6
Continuous
 62
     7
370
    15
100
AcDbLine
 10
217.1205328414
 20
156.820703365
 30
0.0
 11
217.1205328414
 21
158.0019156786
 31
0.0
  0
LINE
  5
B3
330
1F
100
AcDbEntity
  8
0
  6
Continuous
 62
     7
370
    15
100
AcDbLine
 10
224.1605328414
 20
159.7651657071
 30
0.0
 11
224.1605328414
 21
153.4564681725
 31
0.0
  0
LINE
  5
B4
330
1F
100
AcDbEntity
  8
0
  6
Continuous
 62
     7
370
    15
100
AcDbLine
 10
216.3205328414
 20
166.9807439327
 30
0.0
 11
214.1005328414
 21
166.9807439327
 31
0.0
  0
LINE
  5
B5
330
1F
100
AcDbEntity
  8
0
  6
Continuous
 62
     7
370
    15
100
AcDbLine
 10
146.9605328414
 20
89.9114681725
 30
0.0
 11
146.9605328414
 21
89.9221548787
 31
0.0
  0
LINE
  5
B6
330
1F
100
AcDbEntity
  8
0
  6
Continuous
 62
     7
370
    15
100
AcDbLine
 10
265.2105328414
 20
122.1064681725
 30
0.0
 11
265.2105328414
 21
106.1064681725
 31
0.0
  0
LINE
  5
B7
330
1F
100
AcDbEntity
  8
0
  6
Continuous
 62
     7
370
    15
100
AcDbLine
 10
265.2105328414
 20
138.1064681725
 30
0.0
 11
265.2105328414
 21
122.1064681725
 31
0.0
  0
SPLINE
  5
B8
330
1F
100
AcDbEntity
  8
0
  6
Continuous
 62
     7
370
    15
100
AcDbSpline
210
0.0
220
0.0
230
1.0
 70
     8
 71
     3
 72
    12
 73
     8
 74
     0
 42
0.00000001
 43
0.00000001
 12
1.0
 22
0.0
 32
0.0
 13
1.0
 23
0.0
 33
0.0
 40
0.0
 40
0.0
 40
0.0
 40
0.0
 40
0.2132545412029007
 40
0.4264529242206605
 40
0.6411059092874172
 40
0.8567306150391891
 40
1.0
 40
1.0
 40
1.0
 40
1.0
 10
257.2105328414452
 20
138.9216398932849
 30
0.0
 10
257.4898038826301
 20
138.9257995360126
 30
0.0
 10
258.0482724221118
 20
138.9341177260731
 30
0.0
 10
258.7953631411692
 20
138.992442241619
 30
0.0
 10
259.3570268690074
 20
139.05587072668
 30
0.0
 10
259.6792147212528
 20
139.1018100893589
 30
0.0
 10
259.67926895811
 20
139.1018861850531
 30
0.0
 10
259.6792906092917
 20
139.1019165622134
 30
0.0
  0
SPLINE
  5
B9
330
1F
100
AcDbEntity
  8
0
  6
Continuous
 62
     7
370
    15
100
AcDbSpline
210
0.0
220
0.0
230
1.0
 70
     8
 71
     3
 72
    12
 73
     8
 74
     0
 42
0.00000001
 43
0.00000001
 12
1.0
 22
0.0
 32
0.0
 13
1.0
 23
0.0
 33
0.0
 40
0.0
 40
0.0
 40
0.0
 40
0.0
 40
0.2086257414761426
 40
0.4211486354725595
 40
0.6356065616619325
 40
0.8511130415168067
 40
1.0
 40
1.0
 40
1.0
 40
1.0
 10
254.7131054900681
 20
139.1060995521731
 30
0.0
 10
254.7382599887749
 20
139.1023028114997
 30
0.0
 10
254.7890388750781
 20
139.0946384066062
 30
0.0
 10
255.2066643467342
 20
139.0378225741267
 30
0.0
 10
255.8305151377366
 20
138.9735564335135
 30
0.0
 10
256.539647613376
 20
138.9286044553189
 30
0.0
 10
257.0159295374478
 20
138.9236600999104
 30
0.0
 10
257.2105328414452
 20
138.9216398932849
 30
0.0
  0
SPLINE
  5
BA
330
1F
100
AcDbEntity
  8
0
  6
Continuous
 62
     7
370
    15
100
AcDbSpline
210
0.0
220
0.0
230
1.0
 70
     8
 71
     3
 72
    12
 73
     8
 74
     0
 42
0.00000001
 43
0.00000001
 12
1.0
 22
0.0
 32
0.0
 13
1.0
 23
0.0
 33
0.0
 40
0.0
 40
0.0
 40
0.0
 40
0.0
 40
0.2132545412029023
 40
0.4264529242206638
 40
0.6411059092874237
 40
0.8567306150391919
 40
1.0
 40
1.0
 40
1.0
 40
1.0
 10
247.2105328414453
 20
138.9216398932849
 30
0.0
 10
247.4898038826301
 20
138.9257995360126
 30
0.0
 10
248.0482724221118
 20
138.9341177260731
 30
0.0
 10
248.7953631411692
 20
138.992442241619
 30
0.0
 10
249.3570268690075
 20
139.05587072668
 30
0.0
 10
249.6792147212528
 20
139.1018100893589
 30
0.0
 10
249.67926895811
 20
139.1018861850531
 30
0.0
 10
249.6792906092917
 20
139.1019165622134
 30
0.0
  0
SPLINE
  5
BB
330
1F
100
AcDbEntity
  8
0
  6
Continuous
 62
     7
370
    15
100
AcDbSpline
210
0.0
220
0.0
230
1.0
 70
     8
 71
     3
 72
    12
 73
     8
 74
     0
 42
0.00000001
 43
0.00000001
 12
1.0
 22
0.0
 32
0.0
 13
1.0
 23
0.0
 33
0.0
 40
0.0
 40
0.0
 40
0.0
 40
0.0
 40
0.2086257414761454
 40
0.4211486354725609
 40
0.6356065616619347
 40
0.8511130415168083
 40
1.0
 40
1.0
 40
1.0
 40
1.0
 10
244.7131054900681
 20
139.1060995521731
 30
0.0
 10
244.7382599887748
 20
139.1023028114997
 30
0.0
 10
244.7890388750781
 20
139.0946384066062
 30
0.0
 10
245.2066643467342
 20
139.0378225741267
 30
0.0
 10
245.8305151377366
 20
138.9735564335135
 30
0.0
 10
246.5396476133759
 20
138.9286044553189
 30
0.0
 10
247.0159295374478
 20
138.9236600999104
 30
0.0
 10
247.2105328414453
 20
138.9216398932849
 30
0.0
  0
SPLINE
  5
BC
330
1F
100
AcDbEntity
  8
0
  6
Continuous
 62
     7
370
    15
100
AcDbSpline
210
0.0
220
0.0
230
1.0
 70
     8
 71
     3
 72
    12
 73
     8
 74
     0
 42
0.00000001
 43
0.00000001
 12
1.0
 22
0.0
 32
0.0
 13
1.0
 23
0.0
 33
0.0
 40
0.0
 40
0.0
 40
0.0
 40
0.0
 40
0.2132545412029023
 40
0.4264529242206638
 40
0.6411059092874237
 40
0.8567306150391919
 40
1.0
 40
1.0
 40
1.0
 40
1.0
 10
237.2105328414453
 20
138.9216398932849
 30
0.0
 10
237.4898038826301
 20
138.9257995360126
 30
0.0
 10
238.0482724221118
 20
138.9341177260731
 30
0.0
 10
238.7953631411692
 20
138.992442241619
 30
0.0
 10
239.3570268690075
 20
139.05587072668
 30
0.0
 10
239.6792147212527
 20
139.1018100893589
 30
0.0
 10
239.67926895811
 20
139.1018861850531
 30
0.0
 10
239.6792906092917
 20
139.1019165622134
 30
0.0
  0
SPLINE
  5
BD
330
1F
100
AcDbEntity
  8
0
  6
Continuous
 62
     7
370
    15
100
AcDbSpline
210
0.0
220
0.0
230
1.0
 70
     8
 71
     3
 72
    12
 73
     8
 74
     0
 42
0.00000001
 43
0.00000001
 12
1.0
 22
0.0
 32
0.0
 13
1.0
 23
0.0
 33
0.0
 40
0.0
 40
0.0
 40
0.0
 40
0.0
 40
0.208625741476145
 40
0.4211486354725607
 40
0.6356065616619345
 40
0.8511130415168083
 40
1.0
 40
1.0
 40
1.0
 40
1.0
 10
234.7131054900681
 20
139.1060995521731
 30
0.0
 10
234.7382599887748
 20
139.1023028114997
 30
0.0
 10
234.7890388750781
 20
139.0946384066062
 30
0.0
 10
235.2066643467342
 20
139.0378225741267
 30
0.0
 10
235.8305151377366
 20
138.9735564335135
 30
0.0
 10
236.539647613376
 20
138.9286044553189
 30
0.0
 10
237.0159295374478
 20
138.9236600999104
 30
0.0
 10
237.2105328414453
 20
138.9216398932849
 30
0.0
  0
SPLINE
  5
BE
330
1F
100
AcDbEntity
  8
0
  6
Continuous
 62
     7
370
    15
100
AcDbSpline
210
0.0
220
0.0
230
1.0
 70
     8
 71
     3
 72
    16
 73
    12
 74
     0
 42
0.00000001
 43
0.00000001
 12
1.0
 22
0.0
 32
0.0
 13
1.0
 23
0.0
 33
0.0
 40
0.0
 40
0.0
 40
0.0
 40
0.0
 40
0.0595277181473083
 40
0.191568347595993
 40
0.3245098589717751
 40
0.458053188283888
 40
0.5906253770423961
 40
0.7221837942954386
 40
0.8542329682062756
 40
0.9875264655194808
 40
1.0
 40
1.0
 40
1.0
 40
1.0
 10
237.6622853530457
 20
119.6829023105205
 30
0.0
 10
237.7873637004234
 20
119.698323568104
 30
0.0
 10
238.189882948144
 20
119.7479512865023
 30
0.0
 10
238.7917811222732
 20
120.120658257971
 30
0.0
 10
239.3643240298355
 20
120.7417557336821
 30
0.0
 10
239.6933612572332
 20
121.5349701693893
 30
0.0
 10
239.7420274545915
 20
122.3848147669272
 30
0.0
 10
239.5109172422654
 20
123.207736277202
 30
0.0
 10
239.0152675560152
 20
123.8807049151074
 30
0.0
 10
238.55287625646
 20
124.2856242576647
 30
0.0
 10
238.2570126151745
 20
124.3681374533746
 30
0.0
 10
238.2316950568371
 20
124.3751982488036
 30
0.0
  0
SPLINE
  5
BF
330
1F
100
AcDbEntity
  8
0
  6
Continuous
 62
     7
370
    15
100
AcDbSpline
210
0.0
220
0.0
230
1.0
 70
     8
 71
     3
 72
    17
 73
    13
 74
     0
 42
0.00000001
 43
0.00000001
 12
1.0
 22
0.0
 32
0.0
 13
1.0
 23
0.0
 33
0.0
 40
0.0
 40
0.0
 40
0.0
 40
0.0
 40
0.0020256705349394
 40
0.119597018066245
 40
0.238026844408623
 40
0.3573946471512536
 40
0.4763246756148252
 40
0.5941372854399786
 40
0.7118802088927634
 40
0.830695187892552
 40
0.9500910914772239
 40
1.0
 40
1.0
 40
1.0
 40
1.0
 10
236.6800113123243
 20
124.547124702179
 30
0.0
 10
236.6752446630969
 20
124.5468890685035
 30
0.0
 10
236.393818328496
 20
124.5329770899976
 30
0.0
 10
235.8728661898564
 20
124.2515445238698
 30
0.0
 10
235.2311932137514
 20
123.7169181954501
 30
0.0
 10
234.8122566128852
 20
122.9653133479603
 30
0.0
 10
234.6629655392328
 20
122.1252355037135
 30
0.0
 10
234.7996503094182
 20
121.2855430897051
 30
0.0
 10
235.202926883184
 20
120.5370762621016
 30
0.0
 10
235.8320980175181
 20
119.9699960535849
 30
0.0
 10
236.465846286645
 20
119.6756241317085
 30
0.0
 10
236.8644302745488
 20
119.6429337321668
 30
0.0
 10
236.9819277723654
 20
119.6332970175336
 30
0.0
  0
SPLINE
  5
C0
330
1F
100
AcDbEntity
  8
0
  6
Continuous
 62
     7
370
    15
100
AcDbSpline
210
0.0
220
0.0
230
1.0
 70
     8
 71
     3
 72
    11
 73
     7
 74
     0
 42
0.00000001
 43
0.00000001
 12
1.0
 22
0.0
 32
0.0
 13
1.0
 23
0.0
 33
0.0
 40
0.0
 40
0.0
 40
0.0
 40
0.0
 40
0.2109880876457953
 40
0.5060440520627523
 40
0.802435716441077
 40
1.0
 40
1.0
 40
1.0
 40
1.0
 10
258.2372921654343
 20
119.8579102454948
 30
0.0
 10
258.4195408344159
 20
119.9442520493324
 30
0.0
 10
258.8566548722912
 20
120.1513384150316
 30
0.0
 10
259.3542177349956
 20
120.7502879588258
 30
0.0
 10
259.6798274954489
 20
121.4463913318505
 30
0.0
 10
259.6795175633945
 20
121.9191933626982
 30
0.0
 10
259.6793936019268
 20
122.1082968543753
 30
0.0
  0
SPLINE
  5
C1
330
1F
100
AcDbEntity
  8
0
  6
Continuous
 62
     7
370
    15
100
AcDbSpline
210
0.0
220
0.0
230
1.0
 70
     8
 71
     3
 72
    12
 73
     8
 74
     0
 42
0.00000001
 43
0.00000001
 12
1.0
 22
0.0
 32
0.0
 13
1.0
 23
0.0
 33
0.0
 40
0.0
 40
0.0
 40
0.0
 40
0.0
 40
0.2248660384964925
 40
0.4538170139674335
 40
0.6848526001822527
 40
0.9170177935656724
 40
1.0
 40
1.0
 40
1.0
 40
1.0
 10
254.7130394014324
 20
122.1068836442925
 30
0.0
 10
254.7382183935881
 20
121.8332532141126
 30
0.0
 10
254.7890337817685
 20
121.2810215583895
 30
0.0
 10
255.2064600564068
 20
120.5368325503763
 30
0.0
 10
255.8312754452256
 20
119.9709172730687
 30
0.0
 10
256.4495407093008
 20
119.6804978319642
 30
0.0
 10
256.8307832169995
 20
119.6478504595561
 30
0.0
 10
256.9311690824507
 20
119.6392540027924
 30
0.0
  0
SPLINE
  5
C2
330
1F
100
AcDbEntity
  8
0
  6
Continuous
 62
     7
370
    15
100
AcDbSpline
210
0.0
220
0.0
230
1.0
 70
     8
 71
     3
 72
    12
 73
     8
 74
     0
 42
0.00000001
 43
0.00000001
 12
1.0
 22
0.0
 32
0.0
 13
1.0
 23
0.0
 33
0.0
 40
0.0
 40
0.0
 40
0.0
 40
0.0
 40
0.1919469141101264
 40
0.4107918706195237
 40
0.6311299544108714
 40
0.852465494974826
 40
1.0
 40
1.0
 40
1.0
 40
1.0
 10
247.311806952451
 20
119.6236032169644
 30
0.0
 10
247.556413880271
 20
119.6485961523379
 30
0.0
 10
248.0799051690551
 20
119.7020843509992
 30
0.0
 10
248.7950626005486
 20
120.1152543144405
 30
0.0
 10
249.3571337138863
 20
120.7434306493635
 30
0.0
 10
249.6793730924483
 20
121.4474599205175
 30
0.0
 10
249.6793877424591
 20
121.9194986537725
 30
0.0
 10
249.6793936019268
 20
122.1082968543753
 30
0.0
  0
SPLINE
  5
C3
330
1F
100
AcDbEntity
  8
0
  6
Continuous
 62
     7
370
    15
100
AcDbSpline
210
0.0
220
0.0
230
1.0
 70
     8
 71
     3
 72
    12
 73
     8
 74
     0
 42
0.00000001
 43
0.00000001
 12
1.0
 22
0.0
 32
0.0
 13
1.0
 23
0.0
 33
0.0
 40
0.0
 40
0.0
 40
0.0
 40
0.0
 40
0.0069158512012744
 40
0.2639814108911571
 40
0.5208949158362864
 40
0.7801476318354632
 40
0.9999999999999999
 40
0.9999999999999999
 40
0.9999999999999999
 40
0.9999999999999999
 10
244.7144805425051
 20
122.1440661465474
 30
0.0
 10
244.7131509084259
 20
122.1367193919555
 30
0.0
 10
244.6623981276041
 20
121.8562901886378
 30
0.0
 10
244.8197430580288
 20
121.2813865332288
 30
0.0
 10
245.1989931707708
 20
120.5439499416224
 30
0.0
 10
245.7945735005795
 20
119.9776905355575
 30
0.0
 10
246.2854645380945
 20
119.8051487633295
 30
0.0
 10
246.5107252599606
 20
119.7259725690341
 30
0.0
  0
LINE
  5
C4
330
1F
100
AcDbEntity
  8
0
  6
Continuous
 62
     7
370
    15
100
AcDbLine
 10
146.9605328414
 20
154.3564681725
 30
0.0
 11
146.9605328414
 21
154.3547533743
 31
0.0
  0
CIRCLE
  5
C5
330
1F
100
AcDbEntity
  8
0
  6
Continuous
 62
     7
370
    15
100
AcDbCircle
 10
237.2105328414
 20
122.1064681725
 30
0.0
 40
2.499999999999991
  0
LINE
  5
C6
330
1F
100
AcDbEntity
  8
0
  6
Continuous
 62
     7
370
    15
100
AcDbLine
 10
235.5732238979
 20
121.5414731077
 30
0.0
 11
236.8811784488
 21
120.4060195011
 31
0.0
  0
LINE
  5
C7
330
1F
100
AcDbEntity
  8
0
  6
Continuous
 62
     7
370
    15
100
AcDbLine
 10
238.5184873924
 20
120.9710145659
 30
0.0
 11
236.8811784488
 21
120.4060195011
 31
0.0
  0
LINE
  5
C8
330
1F
100
AcDbEntity
  8
0
  6
Continuous
 62
     7
370
    15
100
AcDbLine
 10
238.847841785
 20
122.6714632373
 30
0.0
 11
238.5184873924
 21
120.9710145659
 31
0.0
  0
LINE
  5
C9
330
1F
100
AcDbEntity
  8
0
  6
Continuous
 62
     7
370
    15
100
AcDbLine
 10
238.847841785
 20
122.6714632373
 30
0.0
 11
237.5398872341
 21
123.8069168439
 31
0.0
  0
LINE
  5
CA
330
1F
100
AcDbEntity
  8
0
  6
Continuous
 62
     7
370
    15
100
AcDbLine
 10
235.9025782905
 20
123.2419217791
 30
0.0
 11
237.5398872341
 21
123.8069168439
 31
0.0
  0
LINE
  5
CB
330
1F
100
AcDbEntity
  8
0
  6
Continuous
 62
     7
370
    15
100
AcDbLine
 10
235.9025782905
 20
123.2419217791
 30
0.0
 11
235.5732238979
 21
121.5414731077
 31
0.0
  0
LINE
  5
CC
330
1F
100
AcDbEntity
  8
0
  6
Continuous
 62
     7
370
    15
100
AcDbLine
 10
238.3304393328
 20
139.1064681725
 30
0.0
 11
239.7105328414
 21
139.1064681725
 31
0.0
  0
LINE
  5
CD
330
1F
100
AcDbEntity
  8
0
  6
Continuous
 62
     7
370
    15
100
AcDbLine
 10
234.7105328414
 20
139.1064681725
 30
0.0
 11
238.3304393328
 21
139.1064681725
 31
0.0
  0
LINE
  5
CE
330
1F
100
AcDbEntity
  8
0
  6
Continuous
 62
     7
370
    15
100
AcDbLine
 10
256.9625969913
 20
139.1064681725
 30
0.0
 11
259.7105328414
 21
139.1064681725
 31
0.0
  0
LINE
  5
CF
330
1F
100
AcDbEntity
  8
0
  6
Continuous
 62
     7
370
    15
100
AcDbLine
 10
254.7105328414
 20
139.1064681725
 30
0.0
 11
256.9625969913
 21
139.1064681725
 31
0.0
  0
CIRCLE
  5
D0
330
1F
100
AcDbEntity
  8
0
  6
Continuous
 62
     7
370
    15
100
AcDbCircle
 10
247.2105328414
 20
122.1064681725
 30
0.0
 40
2.499999999999995
  0
LINE
  5
D1
330
1F
100
AcDbEntity
  8
0
  6
Continuous
 62
     7
370
    15
100
AcDbLine
 10
247.0367259143
 20
123.8297763725
 30
0.0
 11
245.6312006981
 21
122.8176010582
 31
0.0
  0
LINE
  5
D2
330
1F
100
AcDbEntity
  8
0
  6
Continuous
 62
     7
370
    15
100
AcDbLine
 10
245.8050076253
 20
121.0942928582
 30
0.0
 11
245.6312006981
 21
122.8176010582
 31
0.0
  0
LINE
  5
D3
330
1F
100
AcDbEntity
  8
0
  6
Continuous
 62
     7
370
    15
100
AcDbLine
 10
247.3843397686
 20
120.3831599725
 30
0.0
 11
245.8050076253
 21
121.0942928582
 31
0.0
  0
LINE
  5
D4
330
1F
100
AcDbEntity
  8
0
  6
Continuous
 62
     7
370
    15
100
AcDbLine
 10
247.3843397686
 20
120.3831599725
 30
0.0
 11
248.7898649847
 21
121.3953352868
 31
0.0
  0
LINE
  5
D5
330
1F
100
AcDbEntity
  8
0
  6
Continuous
 62
     7
370
    15
100
AcDbLine
 10
248.6160580576
 20
123.1186434867
 30
0.0
 11
248.7898649847
 21
121.3953352868
 31
0.0
  0
LINE
  5
D6
330
1F
100
AcDbEntity
  8
0
  6
Continuous
 62
     7
370
    15
100
AcDbLine
 10
248.6160580576
 20
123.1186434867
 30
0.0
 11
247.0367259143
 21
123.8297763725
 31
0.0
  0
LINE
  5
D7
330
1F
100
AcDbEntity
  8
0
  6
Continuous
 62
     7
370
    15
100
AcDbLine
 10
244.7105328414
 20
139.1064681725
 30
0.0
 11
249.7105328414
 21
139.1064681725
 31
0.0
  0
CIRCLE
  5
D8
330
1F
100
AcDbEntity
  8
0
  6
Continuous
 62
     7
370
    15
100
AcDbCircle
 10
257.2105328414
 20
122.1064681725
 30
0.0
 40
2.499999999999994
  0
LINE
  5
D9
330
1F
100
AcDbEntity
  8
0
  6
Continuous
 62
     7
370
    15
100
AcDbLine
 10
258.6217882469
 20
123.1106385666
 30
0.0
 11
257.0465234731
 21
123.8307364019
 31
0.0
  0
LINE
  5
DA
330
1F
100
AcDbEntity
  8
0
  6
Continuous
 62
     7
370
    15
100
AcDbLine
 10
255.6352680676
 20
122.8265660078
 30
0.0
 11
257.0465234731
 21
123.8307364019
 31
0.0
  0
LINE
  5
DB
330
1F
100
AcDbEntity
  8
0
  6
Continuous
 62
     7
370
    15
100
AcDbLine
 10
255.799277436
 20
121.1022977783
 30
0.0
 11
255.6352680676
 21
122.8265660078
 31
0.0
  0
LINE
  5
DC
330
1F
100
AcDbEntity
  8
0
  6
Continuous
 62
     7
370
    15
100
AcDbLine
 10
255.799277436
 20
121.1022977783
 30
0.0
 11
257.3745422098
 21
120.382199943
 31
0.0
  0
LINE
  5
DD
330
1F
100
AcDbEntity
  8
0
  6
Continuous
 62
     7
370
    15
100
AcDbLine
 10
258.7857976153
 20
121.3863703372
 30
0.0
 11
257.3745422098
 21
120.382199943
 31
0.0
  0
LINE
  5
DE
330
1F
100
AcDbEntity
  8
0
  6
Continuous
 62
     7
370
    15
100
AcDbLine
 10
258.7857976153
 20
121.3863703372
 30
0.0
 11
258.6217882469
 21
123.1106385666
 31
0.0
  0
LINE
  5
DF
330
1F
100
AcDbEntity
  8
0
  6
HIDDEN
 62
     7
370
     0
100
AcDbLine
 10
211.9485038205
 20
161.0574309334
 30
0.0
 11
211.9485038205
 21
153.4564681725
 31
0.0
  0
LINE
  5
E0
330
1F
100
AcDbEntity
  8
0
  6
HIDDEN
 62
     7
370
     0
100
AcDbLine
 10
175.6239575909
 20
85.3706618102
 30
0.0
 11
175.35400189
 21
85.3467357109
 31
0.0
  0
SPLINE
  5
E1
330
1F
100
AcDbEntity
  8
0
  6
HIDDEN
 62
     7
370
     0
100
AcDbSpline
210
0.0
220
0.0
230
1.0
 70
     8
 71
     3
 72
    13
 73
     9
 74
     0
 42
0.00000001
 43
0.00000001
 12
1.0
 22
0.0
 32
0.0
 13
1.0
 23
0.0
 33
0.0
 40
0.0
 40
0.0
 40
0.0
 40
0.0
 40
0.1247122447407212
 40
0.2490589432165421
 40
0.3740779474703908
 40
0.5009711379560823
 40
0.7521757810472769
 40
1.0
 40
1.0
 40
1.0
 40
1.0
 10
173.7298378592299
 20
159.0377742667351
 30
0.0
 10
173.735624452793
 20
159.0369980200536
 30
0.0
 10
173.7471806787325
 20
159.0354478019609
 30
0.0
 10
173.8441910483228
 20
159.0232315233435
 30
0.0
 10
173.9994856141722
 20
159.004304704034
 30
0.0
 10
174.2896726453689
 20
158.9703315467038
 30
0.0
 10
174.7772005735931
 20
158.9138051464693
 30
0.0
 10
175.3429218434285
 20
158.8659994146473
 30
0.0
 10
175.6238663789162
 20
158.8422584668757
 30
0.0
  0
SPLINE
  5
E2
330
1F
100
AcDbEntity
  8
0
  6
HIDDEN
 62
     7
370
     0
100
AcDbSpline
210
0.0
220
0.0
230
1.0
 70
     8
 71
     3
 72
    15
 73
    11
 74
     0
 42
0.00000001
 43
0.00000001
 12
1.0
 22
0.0
 32
0.0
 13
1.0
 23
0.0
 33
0.0
 40
0.0
 40
0.0
 40
0.0
 40
0.0
 40
0.1285821516379736
 40
0.2571635483376876
 40
0.385323567199189
 40
0.5113778119466696
 40
0.6369260966772228
 40
0.7643185820319293
 40
0.8930603485208921
 40
1.0
 40
1.0
 40
1.0
 40
1.0
 10
185.4637384966363
 20
90.74014595173755
 30
0.0
 10
185.0782163753961
 20
90.80195174232148
 30
0.0
 10
184.3071743964135
 20
90.92556296061194
 30
0.0
 10
182.5286165496568
 20
91.11631154461769
 30
0.0
 10
180.5348052542172
 20
91.20395898172302
 30
0.0
 10
178.5107673469825
 20
91.15705381902059
 30
0.0
 10
176.6826587800235
 20
90.99680361127908
 30
0.0
 10
175.2512275587445
 20
90.79562425339999
 30
0.0
 10
174.3473440812689
 20
90.63308251875327
 30
0.0
 10
174.2847601435127
 20
90.62068223205294
 30
0.0
 10
174.256362892047
 20
90.61505564362943
 30
0.0
  0
SPLINE
  5
E3
330
1F
100
AcDbEntity
  8
0
  6
HIDDEN
 62
     7
370
     0
100
AcDbSpline
210
0.0
220
0.0
230
1.0
 70
     8
 71
     3
 72
    16
 73
    12
 74
     0
 42
0.00000001
 43
0.00000001
 12
1.0
 22
0.0
 32
0.0
 13
1.0
 23
0.0
 33
0.0
 40
0.0
 40
0.0
 40
0.0
 40
0.0
 40
0.0205567982654305
 40
0.1461296737692548
 40
0.2720439921275847
 40
0.3999539720187822
 40
0.528504097482051
 40
0.655245546444081
 40
0.7805594897978894
 40
0.9070378665747952
 40
1.0
 40
1.0
 40
1.0
 40
1.0
 10
174.256362892047
 20
153.5978807013398
 30
0.0
 10
174.2416956797641
 20
153.6006270779445
 30
0.0
 10
174.1374326073563
 20
153.6201499195908
 30
0.0
 10
174.588212618203
 20
153.5337753618339
 30
0.0
 10
175.6014517487778
 20
153.3626427598999
 30
0.0
 10
177.1957800667591
 20
153.1591019749625
 30
0.0
 10
179.1222794288936
 20
153.0267110089878
 30
0.0
 10
181.1687712294452
 20
153.022914830297
 30
0.0
 10
183.0819306451682
 20
153.1456914029268
 30
0.0
 10
184.5666390305674
 20
153.3275062630482
 30
0.0
 10
185.1967872337018
 20
153.4295579719632
 30
0.0
 10
185.4637384966363
 20
153.4727903932317
 30
0.0
  0
SPLINE
  5
E4
330
1F
100
AcDbEntity
  8
0
  6
HIDDEN
 62
     7
370
     0
100
AcDbSpline
210
0.0
220
0.0
230
1.0
 70
     8
 71
     3
 72
     9
 73
     5
 74
     0
 42
0.00000001
 43
0.00000001
 12
1.0
 22
0.0
 32
0.0
 13
1.0
 23
0.0
 33
0.0
 40
0.0
 40
0.0
 40
0.0
 40
0.0
 40
0.6612122249930633
 40
1.0
 40
1.0
 40
1.0
 40
1.0
 10
185.4637384966363
 20
153.4727903932317
 30
0.0
 10
185.755240023507
 20
153.5165758014948
 30
0.0
 10
186.1960992754268
 20
153.5827957027732
 30
0.0
 10
186.1446856967309
 20
153.5749902856088
 30
0.0
 10
186.1272674047993
 20
153.5723459056947
 30
0.0
  0
SPLINE
  5
E5
330
1F
100
AcDbEntity
  8
0
  6
HIDDEN
 62
     7
370
     0
100
AcDbSpline
210
0.0
220
0.0
230
1.0
 70
     8
 71
     3
 72
     9
 73
     5
 74
     0
 42
0.00000001
 43
0.00000001
 12
1.0
 22
0.0
 32
0.0
 13
1.0
 23
0.0
 33
0.0
 40
0.0
 40
0.0
 40
0.0
 40
0.0
 40
0.3224725434372142
 40
0.9999999999999999
 40
0.9999999999999999
 40
0.9999999999999999
 40
0.9999999999999999
 10
186.1272671878951
 20
90.64059046804365
 30
0.0
 10
186.1459086254485
 20
90.63782254881869
 30
0.0
 10
186.2037164541543
 20
90.62923912278353
 30
0.0
 10
185.7626041763057
 20
90.69535239474227
 30
0.0
 10
185.4637384966363
 20
90.74014595173755
 30
0.0
  0
LINE
  5
E6
330
1F
100
AcDbEntity
  8
0
  6
HIDDEN
 62
     7
370
     0
100
AcDbLine
 10
165.2071571685
 20
95.6064681725
 30
0.0
 11
165.2071571685
 21
148.6064681725
 31
0.0
  0
LINE
  5
E7
330
1F
100
AcDbEntity
  8
0
  6
HIDDEN
 62
     7
370
     0
100
AcDbLine
 10
204.4946104598
 20
95.6064681725
 30
0.0
 11
204.4946104598
 21
148.6064681725
 31
0.0
  0
LINE
  5
E8
330
1F
100
AcDbEntity
  8
0
  6
HIDDEN
 62
     7
370
     0
100
AcDbLine
 10
207.6605328414
 20
97.2314681725
 30
0.0
 11
207.6605328414
 21
146.981468152
 31
0.0
  0
SPLINE
  5
E9
330
1F
100
AcDbEntity
  8
0
  6
HIDDEN
 62
     7
370
     0
100
AcDbSpline
210
0.0
220
0.0
230
1.0
 70
     8
 71
     3
 72
    20
 73
    16
 74
     0
 42
0.00000001
 43
0.00000001
 12
1.0
 22
0.0
 32
0.0
 13
1.0
 23
0.0
 33
0.0
 40
0.0
 40
0.0
 40
0.0
 40
0.0
 40
0.2499999999999978
 40
0.2499999999999978
 40
0.3749999999999982
 40
0.3749999999999982
 40
0.4999999999999986
 40
0.4999999999999986
 40
0.6249999999999989
 40
0.6249999999999989
 40
0.7499999999999992
 40
0.7499999999999992
 40
0.8749999999999997
 40
0.8749999999999997
 40
1.0
 40
1.0
 40
1.0
 40
1.0
 10
155.4105328414452
 20
147.3349818028989
 30
0.0
 10
155.4105328414452
 20
147.2557788163666
 30
0.0
 10
155.3635503462325
 20
147.1746825979637
 30
0.0
 10
155.2257287554549
 20
147.0544859062128
 30
0.0
 10
155.169446471545
 20
147.0155592022107
 30
0.0
 10
155.0363616200777
 20
146.9403704697863
 30
0.0
 10
154.9585216778447
 20
146.9037282644444
 30
0.0
 10
154.7858893217303
 20
146.8361377316125
 30
0.0
 10
154.6914963246392
 20
146.8051795498369
 30
0.0
 10
154.4860590183241
 20
146.7496551284672
 30
0.0
 10
154.3737127783369
 20
146.724946614634
 30
0.0
 10
154.1414719144373
 20
146.6851503875257
 30
0.0
 10
154.0207612720146
 20
146.6697305501287
 30
0.0
 10
153.7696904127455
 20
146.6486505752891
 30
0.0
 10
153.6401684163297
 20
146.6431733302681
 30
0.0
 10
153.5105328414452
 20
146.6431733302681
 30
0.0
  0
LINE
  5
EA
330
1F
100
AcDbEntity
  8
0
  6
HIDDEN
 62
     7
370
     0
100
AcDbLine
 10
153.5105328414
 20
146.6431733303
 30
0.0
 11
146.9605328414
 21
146.6431733303
 31
0.0
  0
LINE
  5
EB
330
1F
100
AcDbEntity
  8
0
  6
HIDDEN
 62
     7
370
     0
100
AcDbLine
 10
146.9605328414
 20
97.5697630147
 30
0.0
 11
158.5105328414
 21
97.5697630147
 31
0.0
  0
SPLINE
  5
EC
330
1F
100
AcDbEntity
  8
0
  6
HIDDEN
 62
     7
370
     0
100
AcDbSpline
210
0.0
220
0.0
230
1.0
 70
     8
 71
     3
 72
    18
 73
    14
 74
     0
 42
0.00000001
 43
0.00000001
 12
1.0
 22
0.0
 32
0.0
 13
1.0
 23
0.0
 33
0.0
 40
0.0
 40
0.0
 40
0.0
 40
0.0
 40
0.1250000000000023
 40
0.1250000000000023
 40
0.2500000000000046
 40
0.2500000000000046
 40
0.5000000000000036
 40
0.5000000000000036
 40
0.7500000000000024
 40
0.7500000000000024
 40
0.8750000000000012
 40
0.8750000000000012
 40
1.0
 40
1.0
 40
1.0
 40
1.0
 10
158.5105328414452
 20
97.5697630147011
 30
0.0
 10
158.6400001544024
 20
97.5697630147011
 30
0.0
 10
158.7670109032991
 20
97.56441001610847
 30
0.0
 10
159.0163742244963
 20
97.54367204341966
 30
0.0
 10
159.1399978791248
 20
97.52800013916537
 30
0.0
 10
159.4890302160588
 20
97.46830541076329
 30
0.0
 10
159.6995419808656
 20
97.41054023108228
 30
0.0
 10
160.0434586585651
 20
97.27601838980479
 30
0.0
 10
160.1798090600829
 20
97.19834927629941
 30
0.0
 10
160.3168471166454
 20
97.07905814221205
 30
0.0
 10
160.3520661353584
 20
97.03813913307701
 30
0.0
 10
160.3986897122969
 20
96.95748313978699
 30
0.0
 10
160.4105328414452
 20
96.91751461959412
 30
0.0
 10
160.4105328414452
 20
96.87795454207031
 30
0.0
  0
LINE
  5
ED
330
1F
100
AcDbEntity
  8
0
  6
HIDDEN
 62
     7
370
     0
100
AcDbLine
 10
146.9605328414
 20
97.5697630147
 30
0.0
 11
146.9605328414
 21
146.6431733303
 31
0.0
  0
LINE
  5
EE
330
1F
100
AcDbEntity
  8
0
  6
HIDDEN
 62
     7
370
     0
100
AcDbLine
 10
146.9605328414
 20
94.7364681725
 30
0.0
 11
146.9605328414
 21
89.9221548787
 31
0.0
  0
LINE
  5
EF
330
1F
100
AcDbEntity
  8
0
  6
HIDDEN
 62
     7
370
     0
100
AcDbLine
 10
257.3564485584
 20
138.9252061304
 30
0.0
 11
256.7230873977
 21
138.9300269866
 31
0.0
  0
LINE
  5
F0
330
1F
100
AcDbEntity
  8
0
  6
HIDDEN
 62
     7
370
     0
100
AcDbLine
 10
247.3564485584
 20
138.9252061304
 30
0.0
 11
246.7230873977
 21
138.9300269866
 31
0.0
  0
LINE
  5
F1
330
1F
100
AcDbEntity
  8
0
  6
HIDDEN
 62
     7
370
     0
100
AcDbLine
 10
237.3564485584
 20
138.9252061304
 30
0.0
 11
236.7230873977
 21
138.9300269866
 31
0.0
  0
LINE
  5
F2
330
1F
100
AcDbEntity
  8
0
  6
HIDDEN
 62
     7
370
     0
100
AcDbLine
 10
237.2105328414
 20
119.6064681725
 30
0.0
 11
237.662285353
 21
119.6829023105
 31
0.0
  0
SPLINE
  5
F3
330
1F
100
AcDbEntity
  8
0
  6
HIDDEN
 62
     7
370
     0
100
AcDbSpline
210
0.0
220
0.0
230
1.0
 70
     8
 71
     3
 72
     9
 73
     5
 74
     0
 42
0.00000001
 43
0.00000001
 12
1.0
 22
0.0
 32
0.0
 13
1.0
 23
0.0
 33
0.0
 40
0.0
 40
0.0
 40
0.0
 40
0.0
 40
0.482128768860333
 40
1.0
 40
1.0
 40
1.0
 40
1.0
 10
238.2316950568371
 20
124.3751982488036
 30
0.0
 10
237.9899940655166
 20
124.4671380433587
 30
0.0
 10
237.4886736570875
 20
124.657833559771
 30
0.0
 10
236.9559128219302
 20
124.5848966364531
 30
0.0
 10
236.6800113123243
 20
124.547124702179
 30
0.0
  0
LINE
  5
F4
330
1F
100
AcDbEntity
  8
0
  6
HIDDEN
 62
     7
370
     0
100
AcDbLine
 10
236.9819277724
 20
119.6332970175
 30
0.0
 11
237.2105328414
 21
119.6064681725
 31
0.0
  0
SPLINE
  5
F5
330
1F
100
AcDbEntity
  8
0
  6
HIDDEN
 62
     7
370
     0
100
AcDbSpline
210
0.0
220
0.0
230
1.0
 70
     8
 71
     3
 72
     9
 73
     5
 74
     0
 42
0.00000001
 43
0.00000001
 12
1.0
 22
0.0
 32
0.0
 13
1.0
 23
0.0
 33
0.0
 40
0.0
 40
0.0
 40
0.0
 40
0.0
 40
0.781268771388984
 40
1.0
 40
1.0
 40
1.0
 40
1.0
 10
257.2105328414452
 20
119.6064681724848
 30
0.0
 10
257.4967340490439
 20
119.6187450363378
 30
0.0
 10
257.8630627928509
 20
119.6344590445032
 30
0.0
 10
258.1701275203297
 20
119.8178064436228
 30
0.0
 10
258.2372921654343
 20
119.8579102454948
 30
0.0
  0
SPLINE
  5
F6
330
1F
100
AcDbEntity
  8
0
  6
HIDDEN
 62
     7
370
     0
100
AcDbSpline
210
0.0
220
0.0
230
1.0
 70
     8
 71
     3
 72
    18
 73
    14
 74
     0
 42
0.00000001
 43
0.00000001
 12
1.0
 22
0.0
 32
0.0
 13
1.0
 23
0.0
 33
0.0
 40
0.0
 40
0.0
 40
0.0
 40
0.0
 40
0.0351569006302676
 40
0.1413441437565086
 40
0.2479275006216126
 40
0.3555152118595803
 40
0.4631698985026246
 40
0.5698200168837568
 40
0.6759691928834302
 40
0.7828934456371072
 40
0.8906645494653409
 40
0.9980404092143692
 40
1.0
 40
1.0
 40
1.0
 40
1.0
 10
259.6793936019268
 20
122.1082968543753
 30
0.0
 10
259.6880296229235
 20
122.2000036993457
 30
0.0
 10
259.7227497197284
 20
122.5687001784599
 30
0.0
 10
259.4970316143023
 20
123.2034625355236
 30
0.0
 10
259.0247428206772
 20
123.8980201473055
 30
0.0
 10
258.3275452986891
 20
124.3961965371549
 30
0.0
 10
257.5079001722407
 20
124.6369214472148
 30
0.0
 10
256.6560184645638
 20
124.592521729966
 30
0.0
 10
255.8720576494073
 20
124.2726413237251
 30
0.0
 10
255.2262201673515
 20
123.7106401718826
 30
0.0
 10
254.833114357699
 20
122.9690892245773
 30
0.0
 10
254.6657061073153
 20
122.3933579894222
 30
0.0
 10
254.7122059960452
 20
122.1119276469755
 30
0.0
 10
254.7130394014324
 20
122.1068836442925
 30
0.0
  0
LINE
  5
F7
330
1F
100
AcDbEntity
  8
0
  6
HIDDEN
 62
     7
370
     0
100
AcDbLine
 10
256.9311690825
 20
119.6392540028
 30
0.0
 11
257.2105328414
 21
119.6064681725
 31
0.0
  0
LINE
  5
F8
330
1F
100
AcDbEntity
  8
0
  6
HIDDEN
 62
     7
370
     0
100
AcDbLine
 10
247.2105328414
 20
119.6064681725
 30
0.0
 11
247.3118069525
 21
119.623603217
 31
0.0
  0
SPLINE
  5
F9
330
1F
100
AcDbEntity
  8
0
  6
HIDDEN
 62
     7
370
     0
100
AcDbSpline
210
0.0
220
0.0
230
1.0
 70
     8
 71
     3
 72
    17
 73
    13
 74
     0
 42
0.00000001
 43
0.00000001
 12
1.0
 22
0.0
 32
0.0
 13
1.0
 23
0.0
 33
0.0
 40
0.0
 40
0.0
 40
0.0
 40
0.0
 40
0.0353272198331292
 40
0.1420288918845249
 40
0.2491285966657939
 40
0.3572375214603289
 40
0.4654137461253366
 40
0.5725805358518312
 40
0.6792439563587338
 40
0.7866862085142005
 40
0.8949794143527408
 40
0.9999999999999999
 40
0.9999999999999999
 40
0.9999999999999999
 40
0.9999999999999999
 10
249.6793936019268
 20
122.1082968543753
 30
0.0
 10
249.688029575065
 20
122.2000036966384
 30
0.0
 10
249.7227494794606
 20
122.5687001648685
 30
0.0
 10
249.4970351071654
 20
123.2034627331061
 30
0.0
 10
249.0247300586635
 20
123.8980194253907
 30
0.0
 10
248.3275933304173
 20
124.3961992541882
 30
0.0
 10
247.5077215835841
 20
124.6369113449064
 30
0.0
 10
246.6566767025077
 20
124.5925589648208
 30
0.0
 10
245.8696056224039
 20
124.2725026187622
 30
0.0
 10
245.2354782434257
 20
123.711163877819
 30
0.0
 10
244.8022042126472
 20
122.9737318101055
 30
0.0
 10
244.7434211529928
 20
122.4177782560061
 30
0.0
 10
244.7144805425051
 20
122.1440661465474
 30
0.0
  0
SPLINE
  5
FA
330
1F
100
AcDbEntity
  8
0
  6
HIDDEN
 62
     7
370
     0
100
AcDbSpline
210
0.0
220
0.0
230
1.0
 70
     8
 71
     3
 72
     9
 73
     5
 74
     0
 42
0.00000001
 43
0.00000001
 12
1.0
 22
0.0
 32
0.0
 13
1.0
 23
0.0
 33
0.0
 40
0.0
 40
0.0
 40
0.0
 40
0.0
 40
0.1843066432478259
 40
1.0
 40
1.0
 40
1.0
 40
1.0
 10
246.5107252599606
 20
119.7259725690341
 30
0.0
 10
246.5507525992933
 20
119.7076683271358
 30
0.0
 10
246.7679305513588
 20
119.6083542624027
 30
0.0
 10
247.011695440645
 20
119.6073154912298
 30
0.0
 10
247.2105328414453
 20
119.6064681724848
 30
0.0
  0
LINE
  5
FB
330
1F
100
AcDbEntity
  8
0
  6
HIDDEN
 62
     7
370
     0
100
AcDbLine
 10
160.4105328414
 20
94.7364681725
 30
0.0
 11
160.4105328414
 21
88.2607472183
 31
0.0
  0
LINE
  5
FC
330
1F
100
AcDbEntity
  8
0
  6
HIDDEN
 62
     7
370
     0
100
AcDbLine
 10
155.4105328414
 20
149.4764681725
 30
0.0
 11
155.4105328414
 21
155.8510769095
 31
0.0
  0
LINE
  5
FD
330
1F
100
AcDbEntity
  8
0
  6
HIDDEN
 62
     7
370
     0
100
AcDbLine
 10
146.9605328414
 20
149.4764681725
 30
0.0
 11
146.9605328414
 21
154.3547533743
 31
0.0
  0
LINE
  5
FE
330
1F
100
AcDbEntity
  8
0
  6
HIDDEN
 62
     7
370
     0
100
AcDbLine
 10
219.5105328414
 20
109.1064681725
 30
0.0
 11
219.5105328414
 21
135.1064681725
 31
0.0
  0
LINE
  5
FF
330
1F
100
AcDbEntity
  8
0
  6
HIDDEN
 62
     7
370
     0
100
AcDbLine
 10
223.5105328414
 20
109.1064681725
 30
0.0
 11
223.5105328414
 21
135.1064681725
 31
0.0
  0
LINE
  5
100
330
1F
100
AcDbEntity
  8
0
  6
HIDDEN
 62
     7
370
     0
100
AcDbLine
 10
208.4105328414
 20
110.8564681725
 30
0.0
 11
208.4105328414
 21
133.3564681725
 31
0.0
  0
ELLIPSE
  5
101
330
1F
100
AcDbEntity
  8
0
  6
HIDDEN
 62
     7
370
     0
100
AcDbEllipse
 10
139.0258596412
 20
122.1064681725
 30
0.0
 11
31.0810857081166
 21
1.421085471520200E-14
 31
0.0
210
0.0
220
0.0
230
1.0
 40
0.8164965809
 41
1.312649268214811
 42
1.367189972061496
  0
ELLIPSE
  5
102
330
1F
100
AcDbEntity
  8
0
  6
HIDDEN
 62
     7
370
     0
100
AcDbEllipse
 10
139.0258596412
 20
122.1064681725
 30
0.0
 11
31.08108570811663
 21
1.421085471520200E-14
 31
0.0
210
0.0
220
0.0
230
1.0
 40
0.8164965809
 41
4.915995335118101
 42
4.970536038964786
  0
LINE
  5
103
330
1F
100
AcDbEntity
  8
0
  6
HIDDEN
 62
     7
370
     0
100
AcDbLine
 10
224.1605328414
 20
78.2064681725
 30
0.0
 11
210.1605328414
 21
78.2064681725
 31
0.0
  0
LINE
  5
104
330
1F
100
AcDbEntity
  8
0
  6
HIDDEN
 62
     7
370
     0
100
AcDbLine
 10
200.1605328414
 20
72.1164691727
 30
0.0
 11
200.1605328414
 21
78.2064681725
 31
0.0
  0
LINE
  5
105
330
1F
100
AcDbEntity
  8
0
  6
HIDDEN
 62
     7
370
     0
100
AcDbLine
 10
210.1605328414
 20
78.2064681725
 30
0.0
 11
200.1605328414
 21
78.2064681725
 31
0.0
  0
LINE
  5
106
330
1F
100
AcDbEntity
  8
0
  6
HIDDEN
 62
     7
370
     0
100
AcDbLine
 10
155.4105328414
 20
149.4764681725
 30
0.0
 11
155.4105328414
 21
147.3349818029
 31
0.0
  0
LINE
  5
107
330
1F
100
AcDbEntity
  8
0
  6
HIDDEN
 62
     7
370
     0
100
AcDbLine
 10
146.9605328414
 20
149.4764681725
 30
0.0
 11
146.9605328414
 21
146.6431733303
 31
0.0
  0
LINE
  5
108
330
1F
100
AcDbEntity
  8
0
  6
HIDDEN
 62
     7
370
     0
100
AcDbLine
 10
146.9605328414
 20
94.7364681725
 30
0.0
 11
146.9605328414
 21
97.5697630147
 31
0.0
  0
LINE
  5
109
330
1F
100
AcDbEntity
  8
0
  6
HIDDEN
 62
     7
370
     0
100
AcDbLine
 10
160.4105328414
 20
94.7364681725
 30
0.0
 11
160.4105328414
 21
96.8779545421
 31
0.0
  0
LINE
  5
10A
330
1F
100
AcDbEntity
  8
0
  6
HIDDEN
 62
     7
370
     0
100
AcDbLine
 10
210.1605328414
 20
166.0064681725
 30
0.0
 11
200.1605328414
 21
166.0064681725
 31
0.0
  0
LINE
  5
10B
330
1F
100
AcDbEntity
  8
0
  6
HIDDEN
 62
     7
370
     0
100
AcDbLine
 10
224.1605328414
 20
166.0064681725
 30
0.0
 11
210.1605328414
 21
166.0064681725
 31
0.0
  0
SPLINE
  5
10C
330
1F
100
AcDbEntity
  8
0
  6
HIDDEN
 62
     7
370
     0
100
AcDbSpline
210
0.0
220
0.0
230
1.0
 70
     8
 71
     3
 72
    31
 73
    27
 74
     0
 42
0.00000001
 43
0.00000001
 12
1.0
 22
0.0
 32
0.0
 13
1.0
 23
0.0
 33
0.0
 40
0.0
 40
0.0
 40
0.0
 40
0.0
 40
0.0531041756451746
 40
0.11248607679683
 40
0.1778845458345061
 40
0.2129092574402316
 40
0.2494630397639358
 40
0.2912296348527916
 40
0.3260726085863812
 40
0.3539882485176908
 40
0.3749739073599785
 40
0.4414327632140455
 40
0.5001514153127145
 40
0.5546670954379695
 40
0.6144123686519366
 40
0.6794388718511891
 40
0.7023348384991663
 40
0.7258262338442194
 40
0.7499142910606172
 40
0.7913795409358196
 40
0.8260471005665078
 40
0.8539131860711487
 40
0.8749749452978444
 40
0.941162598622799
 40
0.9999141553174983
 40
1.0
 40
1.0
 40
1.0
 40
1.0
 10
186.2100076112276
 20
85.00655939254045
 30
0.0
 10
186.1938188909399
 20
85.01145722922703
 30
0.0
 10
186.1595276961062
 20
85.02183190178283
 30
0.0
 10
185.8582571608579
 20
85.09747368321449
 30
0.0
 10
185.4160942438666
 20
85.19375857415285
 30
0.0
 10
184.9212606951575
 20
85.293423614274
 30
0.0
 10
184.4507852046669
 20
85.38570171260173
 30
0.0
 10
183.9198637242414
 20
85.4813337612189
 30
0.0
 10
183.3817132424093
 20
85.5669839959489
 30
0.0
 10
182.9236658835334
 20
85.63427580333
 30
0.0
 10
182.2681016627962
 20
85.7226239106717
 30
0.0
 10
181.3847940659805
 20
85.81928270858234
 30
0.0
 10
180.2561366955579
 20
85.90605519840331
 30
0.0
 10
179.166359890226
 20
85.9441431696818
 30
0.0
 10
178.0703939875886
 20
85.94595518372255
 30
0.0
 10
177.2310698635987
 20
85.92183195484877
 30
0.0
 10
176.6517059699115
 20
85.89290874936621
 30
0.0
 10
176.3042980689299
 20
85.87142889956847
 30
0.0
 10
175.8928600965475
 20
85.83962587427895
 30
0.0
 10
175.4753015913593
 20
85.80202558238683
 30
0.0
 10
175.1041125965608
 20
85.76498096188476
 30
0.0
 10
174.8500610958003
 20
85.73628794880415
 30
0.0
 10
174.5490072905754
 20
85.69990592009881
 30
0.0
 10
174.2935226587473
 20
85.6671270439849
 30
0.0
 10
174.1943021539942
 20
85.6507888196957
 30
0.0
 10
174.2105827112259
 20
85.65338240594464
 30
0.0
 10
174.2106064648118
 20
85.65338619002728
 30
0.0
  0
SPLINE
  5
10D
330
1F
100
AcDbEntity
  8
0
  6
HIDDEN
 62
     7
370
     0
100
AcDbSpline
210
0.0
220
0.0
230
1.0
 70
     8
 71
     3
 72
    30
 73
    26
 74
     0
 42
0.00000001
 43
0.00000001
 12
1.0
 22
0.0
 32
0.0
 13
1.0
 23
0.0
 33
0.0
 40
0.0
 40
0.0
 40
0.0
 40
0.0
 40
0.0001305952116666
 40
0.0285608622855831
 40
0.0588638730261982
 40
0.0910438019819355
 40
0.1251040742965983
 40
0.1546920569045237
 40
0.1963701373951433
 40
0.2501238489604111
 40
0.3205378001917936
 40
0.3856216539747073
 40
0.4454139925054653
 40
0.499966304243065
 40
0.528358055179348
 40
0.558642090104432
 40
0.5908260716127919
 40
0.6249163237836993
 40
0.654190775102079
 40
0.6958685639775224
 40
0.7499352975979958
 40
0.8215937878353661
 40
0.8871443527079117
 40
0.9466388497305488
 40
1.0
 40
1.0
 40
1.0
 40
1.0
 10
174.2106436628391
 20
158.5594765030498
 30
0.0
 10
174.210606600153
 20
158.5594845843175
 30
0.0
 10
174.2025010788195
 20
158.5612519383335
 30
0.0
 10
174.2311575213024
 20
158.5557981201126
 30
0.0
 10
174.3045503207494
 20
158.5452540789649
 30
0.0
 10
174.448205115998
 20
158.5255692218948
 30
0.0
 10
174.6492413047385
 20
158.500729860025
 30
0.0
 10
174.9318717284133
 20
158.4665214200713
 30
0.0
 10
175.3452809012011
 20
158.4228415138438
 30
0.0
 10
176.0215683834761
 20
158.3597984501019
 30
0.0
 10
176.9599992912683
 20
158.2985012782903
 30
0.0
 10
178.0694925029358
 20
158.2672128351565
 30
0.0
 10
179.1669732340579
 20
158.2688680026662
 30
0.0
 10
180.0670044724214
 20
158.3001742047823
 30
0.0
 10
180.7783453982849
 20
158.3470073535823
 30
0.0
 10
181.3437622992728
 20
158.3941742154788
 30
0.0
 10
181.932685722102
 20
158.4536132220287
 30
0.0
 10
182.4970953745793
 20
158.5199704286367
 30
0.0
 10
183.0912915685155
 20
158.6018898350682
 30
0.0
 10
183.757899729486
 20
158.7035378178186
 30
0.0
 10
184.5592324751862
 20
158.8456767284189
 30
0.0
 10
185.3117424596941
 20
158.9969212991853
 30
0.0
 10
185.8570289546603
 20
159.1147721724446
 30
0.0
 10
186.1597504861591
 20
159.1910014041939
 30
0.0
 10
186.1940409367722
 20
159.2014537136885
 30
0.0
 10
186.2102543734222
 20
159.2063958434886
 30
0.0
  0
LINE
  5
10E
330
1F
100
AcDbEntity
  8
0
  6
HIDDEN
 62
     7
370
     0
100
AcDbLine
 10
232.3862896156
 20
122.1064681725
 30
0.0
 11
232.3862896156
 21
118.8064681725
 31
0.0
  0
LINE
  5
10F
330
1F
100
AcDbEntity
  8
0
  6
HIDDEN
 62
     7
370
     0
100
AcDbLine
 10
232.3862896156
 20
125.4064681725
 30
0.0
 11
232.3862896156
 21
122.1064681725
 31
0.0
  0
LINE
  5
110
330
1F
100
AcDbEntity
  8
0
  6
HIDDEN
 62
     7
370
     0
100
AcDbLine
 10
233.2105328414
 20
122.1064681725
 30
0.0
 11
233.2105328414
 21
119.1064681725
 31
0.0
  0
LINE
  5
111
330
1F
100
AcDbEntity
  8
0
  6
HIDDEN
 62
     7
370
     0
100
AcDbLine
 10
233.2105328414
 20
125.1064681725
 30
0.0
 11
233.2105328414
 21
122.1064681725
 31
0.0
  0
LINE
  5
112
330
1F
100
AcDbEntity
  8
0
  6
HIDDEN
 62
     7
370
     0
100
AcDbLine
 10
229.2105328414
 20
122.1064681725
 30
0.0
 11
229.2105328414
 21
119.2064681725
 31
0.0
  0
LINE
  5
113
330
1F
100
AcDbEntity
  8
0
  6
HIDDEN
 62
     7
370
     0
100
AcDbLine
 10
229.2105328414
 20
125.0064681725
 30
0.0
 11
229.2105328414
 21
122.1064681725
 31
0.0
  0
SPLINE
  5
114
330
1F
100
AcDbEntity
  8
0
  6
HIDDEN
 62
     7
370
     0
100
AcDbSpline
210
0.0
220
0.0
230
1.0
 70
     8
 71
     3
 72
    11
 73
     7
 74
     0
 42
0.00000001
 43
0.00000001
 12
1.0
 22
0.0
 32
0.0
 13
1.0
 23
0.0
 33
0.0
 40
0.0
 40
0.0
 40
0.0
 40
0.0
 40
0.3162878873678534
 40
0.6267048574320491
 40
0.883142191392591
 40
0.9999999999999999
 40
0.9999999999999999
 40
0.9999999999999999
 40
0.9999999999999999
 10
235.887657185913
 20
124.2277885160443
 30
0.0
 10
235.6853685830934
 20
124.3647274150166
 30
0.0
 10
235.2845462466924
 20
124.6360633611117
 30
0.0
 10
234.9040354874537
 20
124.9469187782936
 30
0.0
 10
234.7122808493142
 20
125.1048725141857
 30
0.0
 10
234.7292646471891
 20
125.0908485506407
 30
0.0
 10
234.734581323393
 20
125.0864584328466
 30
0.0
  0
SPLINE
  5
115
330
1F
100
AcDbEntity
  8
0
  6
HIDDEN
 62
     7
370
     0
100
AcDbSpline
210
0.0
220
0.0
230
1.0
 70
     8
 71
     3
 72
    11
 73
     7
 74
     0
 42
0.00000001
 43
0.00000001
 12
1.0
 22
0.0
 32
0.0
 13
1.0
 23
0.0
 33
0.0
 40
0.0
 40
0.0
 40
0.0
 40
0.0
 40
0.1208091566547853
 40
0.3611963134276689
 40
0.6192967282226857
 40
1.0
 40
1.0
 40
1.0
 40
1.0
 10
239.6860700181035
 20
125.0861137291193
 30
0.0
 10
239.6913865272661
 20
125.0905007607405
 30
0.0
 10
239.7072818746305
 20
125.1036171477127
 30
0.0
 10
239.5370758844826
 20
124.9634321859425
 30
0.0
 10
239.180847296139
 20
124.671547441141
 30
0.0
 10
238.7751744477616
 20
124.3934965313561
 30
0.0
 10
238.5334084969776
 20
124.2277885160443
 30
0.0
  0
SPLINE
  5
116
330
1F
100
AcDbEntity
  8
0
  6
HIDDEN
 62
     7
370
     0
100
AcDbSpline
210
0.0
220
0.0
230
1.0
 70
     8
 71
     3
 72
    11
 73
     7
 74
     0
 42
0.00000001
 43
0.00000001
 12
1.0
 22
0.0
 32
0.0
 13
1.0
 23
0.0
 33
0.0
 40
0.0
 40
0.0
 40
0.0
 40
0.0
 40
0.3162878873678553
 40
0.6267048574320488
 40
0.8831421913925904
 40
1.0
 40
1.0
 40
1.0
 40
1.0
 10
255.8876571859129
 20
124.2277885160443
 30
0.0
 10
255.6853685830934
 20
124.3647274150166
 30
0.0
 10
255.2845462466923
 20
124.6360633611117
 30
0.0
 10
254.9040354874537
 20
124.9469187782936
 30
0.0
 10
254.7122808493142
 20
125.1048725141857
 30
0.0
 10
254.7292646471892
 20
125.0908485506407
 30
0.0
 10
254.734581323393
 20
125.0864584328466
 30
0.0
  0
SPLINE
  5
117
330
1F
100
AcDbEntity
  8
0
  6
HIDDEN
 62
     7
370
     0
100
AcDbSpline
210
0.0
220
0.0
230
1.0
 70
     8
 71
     3
 72
     9
 73
     5
 74
     0
 42
0.00000001
 43
0.00000001
 12
1.0
 22
0.0
 32
0.0
 13
1.0
 23
0.0
 33
0.0
 40
0.0
 40
0.0
 40
0.0
 40
0.0
 40
0.445016248409539
 40
1.0
 40
1.0
 40
1.0
 40
1.0
 10
257.3298267548493
 20
119.6226055248131
 30
0.0
 10
257.4210929044362
 20
119.6231883818377
 30
0.0
 10
257.6261778870928
 20
119.6244981250811
 30
0.0
 10
257.8036292113095
 20
119.6881525235154
 30
0.0
 10
257.902111812948
 20
119.7234796803637
 30
0.0
  0
LINE
  5
118
330
1F
100
AcDbEntity
  8
0
  6
HIDDEN
 62
     7
370
     0
100
AcDbLine
 10
258.6172128938
 20
124.1510949559
 30
0.0
 11
258.533408497
 21
124.227788516
 31
0.0
  0
SPLINE
  5
119
330
1F
100
AcDbEntity
  8
0
  6
HIDDEN
 62
     7
370
     0
100
AcDbSpline
210
0.0
220
0.0
230
1.0
 70
     8
 71
     3
 72
    11
 73
     7
 74
     0
 42
0.00000001
 43
0.00000001
 12
1.0
 22
0.0
 32
0.0
 13
1.0
 23
0.0
 33
0.0
 40
0.0
 40
0.0
 40
0.0
 40
0.0
 40
0.1208091566547857
 40
0.3611963134276688
 40
0.6192967282226888
 40
0.9999999999999999
 40
0.9999999999999999
 40
0.9999999999999999
 40
0.9999999999999999
 10
259.6860700181036
 20
125.0861137291193
 30
0.0
 10
259.6913865272661
 20
125.0905007607405
 30
0.0
 10
259.7072818746304
 20
125.1036171477127
 30
0.0
 10
259.5370758844826
 20
124.9634321859425
 30
0.0
 10
259.180847296139
 20
124.671547441141
 30
0.0
 10
258.7751744477616
 20
124.3934965313561
 30
0.0
 10
258.5334084969776
 20
124.2277885160443
 30
0.0
  0
SPLINE
  5
11A
330
1F
100
AcDbEntity
  8
0
  6
HIDDEN
 62
     7
370
     0
100
AcDbSpline
210
0.0
220
0.0
230
1.0
 70
     8
 71
     3
 72
    11
 73
     7
 74
     0
 42
0.00000001
 43
0.00000001
 12
1.0
 22
0.0
 32
0.0
 13
1.0
 23
0.0
 33
0.0
 40
0.0
 40
0.0
 40
0.0
 40
0.0
 40
0.316287887367849
 40
0.6267048574320438
 40
0.8831421913925867
 40
1.0
 40
1.0
 40
1.0
 40
1.0
 10
245.8876571859129
 20
124.2277885160443
 30
0.0
 10
245.6853685830935
 20
124.3647274150166
 30
0.0
 10
245.2845462466924
 20
124.6360633611117
 30
0.0
 10
244.9040354874537
 20
124.9469187782936
 30
0.0
 10
244.7122808493142
 20
125.1048725141857
 30
0.0
 10
244.7292646471891
 20
125.0908485506407
 30
0.0
 10
244.734581323393
 20
125.0864584328466
 30
0.0
  0
LINE
  5
11B
330
1F
100
AcDbEntity
  8
0
  6
HIDDEN
 62
     7
370
     0
100
AcDbLine
 10
245.8876571859
 20
124.227788516
 30
0.0
 11
245.5302102547
 21
123.9209517281
 31
0.0
  0
LINE
  5
11C
330
1F
100
AcDbEntity
  8
0
  6
HIDDEN
 62
     7
370
     0
100
AcDbLine
 10
248.7223774499
 20
124.0548536548
 30
0.0
 11
248.533408497
 21
124.227788516
 31
0.0
  0
SPLINE
  5
11D
330
1F
100
AcDbEntity
  8
0
  6
HIDDEN
 62
     7
370
     0
100
AcDbSpline
210
0.0
220
0.0
230
1.0
 70
     8
 71
     3
 72
    11
 73
     7
 74
     0
 42
0.00000001
 43
0.00000001
 12
1.0
 22
0.0
 32
0.0
 13
1.0
 23
0.0
 33
0.0
 40
0.0
 40
0.0
 40
0.0
 40
0.0
 40
0.1208091566547887
 40
0.3611963134276718
 40
0.6192967282226902
 40
1.0
 40
1.0
 40
1.0
 40
1.0
 10
249.6860700181035
 20
125.0861137291193
 30
0.0
 10
249.6913865272661
 20
125.0905007607405
 30
0.0
 10
249.7072818746305
 20
125.1036171477127
 30
0.0
 10
249.5370758844826
 20
124.9634321859425
 30
0.0
 10
249.1808472961389
 20
124.671547441141
 30
0.0
 10
248.7751744477616
 20
124.3934965313561
 30
0.0
 10
248.5334084969776
 20
124.2277885160443
 30
0.0
  0
LINE
  5
11E
330
1F
100
AcDbEntity
  8
0
  6
HIDDEN
 62
     7
370
     0
100
AcDbLine
 10
218.4725618624
 20
161.0574309334
 30
0.0
 11
218.4725618624
 21
153.4564681725
 31
0.0
  0
LINE
  5
11F
330
1F
100
AcDbEntity
  8
0
  6
HIDDEN
 62
     7
370
     0
100
AcDbLine
 10
213.3005328414
 20
156.820703365
 30
0.0
 11
213.3005328414
 21
153.4564681725
 31
0.0
  0
LINE
  5
120
330
1F
100
AcDbEntity
  8
0
  6
HIDDEN
 62
     7
370
     0
100
AcDbLine
 10
217.1205328414
 20
156.820703365
 30
0.0
 11
217.1205328414
 21
153.4564681725
 31
0.0
  0
CIRCLE
  5
121
330
1F
100
AcDbEntity
  8
0
  6
HIDDEN
 62
     7
370
     0
100
AcDbCircle
 10
202.2105328414
 20
122.1064681725
 30
0.0
 40
5.000000000000014
  0
LINE
  5
122
330
1F
100
AcDbEntity
  8
0
  6
HIDDEN
 62
     7
370
     0
100
AcDbLine
 10
236.310504206
 20
120.6266207292
 30
0.0
 11
238.0421040033
 21
120.5870967884
 31
0.0
  0
LINE
  5
123
330
1F
100
AcDbEntity
  8
0
  6
HIDDEN
 62
     7
370
     0
100
AcDbLine
 10
238.0421040033
 20
120.5870967884
 30
0.0
 11
238.9421326388
 21
122.0669442316
 31
0.0
  0
LINE
  5
124
330
1F
100
AcDbEntity
  8
0
  6
HIDDEN
 62
     7
370
     0
100
AcDbLine
 10
236.310504206
 20
120.6266207292
 30
0.0
 11
235.4789330441
 21
122.1459921133
 31
0.0
  0
LINE
  5
125
330
1F
100
AcDbEntity
  8
0
  6
HIDDEN
 62
     7
370
     0
100
AcDbLine
 10
236.3789616796
 20
123.6258395566
 30
0.0
 11
235.4789330441
 21
122.1459921133
 31
0.0
  0
LINE
  5
126
330
1F
100
AcDbEntity
  8
0
  6
HIDDEN
 62
     7
370
     0
100
AcDbLine
 10
238.1105614769
 20
123.5863156157
 30
0.0
 11
238.9421326388
 21
122.0669442316
 31
0.0
  0
LINE
  5
127
330
1F
100
AcDbEntity
  8
0
  6
HIDDEN
 62
     7
370
     0
100
AcDbLine
 10
236.3789616796
 20
123.6258395566
 30
0.0
 11
238.1105614769
 21
123.5863156157
 31
0.0
  0
LINE
  5
128
330
1F
100
AcDbEntity
  8
0
  6
HIDDEN
 62
     7
370
     0
100
AcDbLine
 10
247.6020852826
 20
120.4192554752
 30
0.0
 11
248.8674781194
 21
121.6019561848
 31
0.0
  0
LINE
  5
129
330
1F
100
AcDbEntity
  8
0
  6
HIDDEN
 62
     7
370
     0
100
AcDbLine
 10
245.9451400046
 20
120.9237674629
 30
0.0
 11
247.6020852826
 21
120.4192554752
 31
0.0
  0
LINE
  5
12A
330
1F
100
AcDbEntity
  8
0
  6
HIDDEN
 62
     7
370
     0
100
AcDbLine
 10
245.9451400046
 20
120.9237674629
 30
0.0
 11
245.5535875635
 21
122.6109801602
 31
0.0
  0
LINE
  5
12B
330
1F
100
AcDbEntity
  8
0
  6
HIDDEN
 62
     7
370
     0
100
AcDbLine
 10
248.4759256783
 20
123.2891688821
 30
0.0
 11
248.8674781194
 21
121.6019561848
 31
0.0
  0
LINE
  5
12C
330
1F
100
AcDbEntity
  8
0
  6
HIDDEN
 62
     7
370
     0
100
AcDbLine
 10
246.8189804003
 20
123.7936808698
 30
0.0
 11
245.5535875635
 21
122.6109801602
 31
0.0
  0
LINE
  5
12D
330
1F
100
AcDbEntity
  8
0
  6
HIDDEN
 62
     7
370
     0
100
AcDbLine
 10
246.8189804003
 20
123.7936808698
 30
0.0
 11
248.4759256783
 21
123.2891688821
 31
0.0
  0
CIRCLE
  5
12E
330
1F
100
AcDbEntity
  8
0
  6
HIDDEN
 62
     7
370
     0
100
AcDbCircle
 10
237.2105328414
 20
122.1064681725
 30
0.0
 40
3.000000000000014
  0
CIRCLE
  5
12F
330
1F
100
AcDbEntity
  8
0
  6
HIDDEN
 62
     7
370
     0
100
AcDbCircle
 10
237.2105328414
 20
122.1064681725
 30
0.0
 40
1.249999999999984
  0
CIRCLE
  5
130
330
1F
100
AcDbEntity
  8
0
  6
HIDDEN
 62
     7
370
     0
100
AcDbCircle
 10
237.2105328414
 20
122.1064681725
 30
0.0
 40
2.099999999999993
  0
LINE
  5
131
330
1F
100
AcDbEntity
  8
0
  6
HIDDEN
 62
     7
370
     0
100
AcDbLine
 10
238.554420631
 20
138.6064681725
 30
0.0
 11
240.2105328414
 21
138.6064681725
 31
0.0
  0
LINE
  5
132
330
1F
100
AcDbEntity
  8
0
  6
HIDDEN
 62
     7
370
     0
100
AcDbLine
 10
234.2105328414
 20
138.6064681725
 30
0.0
 11
238.554420631
 21
138.6064681725
 31
0.0
  0
LINE
  5
133
330
1F
100
AcDbEntity
  8
0
  6
HIDDEN
 62
     7
370
     0
100
AcDbLine
 10
238.554420631
 20
129.5064681725
 30
0.0
 11
240.2105328414
 21
129.5064681725
 31
0.0
  0
LINE
  5
134
330
1F
100
AcDbEntity
  8
0
  6
HIDDEN
 62
     7
370
     0
100
AcDbLine
 10
234.2105328414
 20
129.5064681725
 30
0.0
 11
238.554420631
 21
129.5064681725
 31
0.0
  0
LINE
  5
135
330
1F
100
AcDbEntity
  8
0
  6
HIDDEN
 62
     7
370
     0
100
AcDbLine
 10
238.1512542941
 20
128.6064681725
 30
0.0
 11
239.3105328414
 21
128.6064681725
 31
0.0
  0
LINE
  5
136
330
1F
100
AcDbEntity
  8
0
  6
HIDDEN
 62
     7
370
     0
100
AcDbLine
 10
235.1105328414
 20
128.6064681725
 30
0.0
 11
238.1512542941
 21
128.6064681725
 31
0.0
  0
LINE
  5
137
330
1F
100
AcDbEntity
  8
0
  6
HIDDEN
 62
     7
370
     0
100
AcDbLine
 10
236.2574013825
 20
135.6064681725
 30
0.0
 11
237.9864268185
 21
135.6064681725
 31
0.0
  0
LINE
  5
138
330
1F
100
AcDbEntity
  8
0
  6
HIDDEN
 62
     7
370
     0
100
AcDbLine
 10
237.9864268185
 20
135.6064681725
 30
0.0
 11
237.9864268185
 21
139.1064681725
 31
0.0
  0
LINE
  5
139
330
1F
100
AcDbEntity
  8
0
  6
HIDDEN
 62
     7
370
     0
100
AcDbLine
 10
238.9395582774
 20
135.6064681725
 30
0.0
 11
237.9864268185
 21
135.6064681725
 31
0.0
  0
LINE
  5
13A
330
1F
100
AcDbEntity
  8
0
  6
HIDDEN
 62
     7
370
     0
100
AcDbLine
 10
236.2574013825
 20
135.6064681725
 30
0.0
 11
236.2574013825
 21
139.1064681725
 31
0.0
  0
LINE
  5
13B
330
1F
100
AcDbEntity
  8
0
  6
HIDDEN
 62
     7
370
     0
100
AcDbLine
 10
236.2574013825
 20
135.6064681725
 30
0.0
 11
235.4815074054
 21
135.6064681725
 31
0.0
  0
LINE
  5
13C
330
1F
100
AcDbEntity
  8
0
  6
HIDDEN
 62
     7
370
     0
100
AcDbLine
 10
238.1636643004
 20
135.6064681725
 30
0.0
 11
238.1636643004
 21
139.1064681725
 31
0.0
  0
LINE
  5
13D
330
1F
100
AcDbEntity
  8
0
  6
HIDDEN
 62
     7
370
     0
100
AcDbLine
 10
238.9395582774
 20
135.6064681725
 30
0.0
 11
238.9395582774
 21
139.1064681725
 31
0.0
  0
LINE
  5
13E
330
1F
100
AcDbEntity
  8
0
  6
HIDDEN
 62
     7
370
     0
100
AcDbLine
 10
236.4346388644
 20
135.6064681725
 30
0.0
 11
236.4346388644
 21
139.1064681725
 31
0.0
  0
LINE
  5
13F
330
1F
100
AcDbEntity
  8
0
  6
HIDDEN
 62
     7
370
     0
100
AcDbLine
 10
235.4815074054
 20
135.6064681725
 30
0.0
 11
235.4815074054
 21
139.1064681725
 31
0.0
  0
LINE
  5
140
330
1F
100
AcDbEntity
  8
0
  6
HIDDEN
 62
     7
370
     0
100
AcDbLine
 10
256.9130098213
 20
129.5064681725
 30
0.0
 11
260.2105328414
 21
129.5064681725
 31
0.0
  0
LINE
  5
141
330
1F
100
AcDbEntity
  8
0
  6
HIDDEN
 62
     7
370
     0
100
AcDbLine
 10
254.2105328414
 20
129.5064681725
 30
0.0
 11
256.9130098213
 21
129.5064681725
 31
0.0
  0
LINE
  5
142
330
1F
100
AcDbEntity
  8
0
  6
HIDDEN
 62
     7
370
     0
100
AcDbLine
 10
257.0022667273
 20
128.6064681725
 30
0.0
 11
259.3105328414
 21
128.6064681725
 31
0.0
  0
LINE
  5
143
330
1F
100
AcDbEntity
  8
0
  6
HIDDEN
 62
     7
370
     0
100
AcDbLine
 10
255.1105328414
 20
128.6064681725
 30
0.0
 11
257.0022667273
 21
128.6064681725
 31
0.0
  0
LINE
  5
144
330
1F
100
AcDbEntity
  8
0
  6
HIDDEN
 62
     7
370
     0
100
AcDbLine
 10
256.9130098213
 20
138.6064681725
 30
0.0
 11
260.2105328414
 21
138.6064681725
 31
0.0
  0
LINE
  5
145
330
1F
100
AcDbEntity
  8
0
  6
HIDDEN
 62
     7
370
     0
100
AcDbLine
 10
254.2105328414
 20
138.6064681725
 30
0.0
 11
256.9130098213
 21
138.6064681725
 31
0.0
  0
LINE
  5
146
330
1F
100
AcDbEntity
  8
0
  6
HIDDEN
 62
     7
370
     0
100
AcDbLine
 10
258.6172504531
 20
135.6064681725
 30
0.0
 11
257.0387578457
 21
135.6064681725
 31
0.0
  0
LINE
  5
147
330
1F
100
AcDbEntity
  8
0
  6
HIDDEN
 62
     7
370
     0
100
AcDbLine
 10
257.0387578457
 20
135.6064681725
 30
0.0
 11
257.0387578457
 21
139.1064681725
 31
0.0
  0
LINE
  5
148
330
1F
100
AcDbEntity
  8
0
  6
HIDDEN
 62
     7
370
     0
100
AcDbLine
 10
255.632040234
 20
135.6064681725
 30
0.0
 11
257.0387578457
 21
135.6064681725
 31
0.0
  0
LINE
  5
149
330
1F
100
AcDbEntity
  8
0
  6
HIDDEN
 62
     7
370
     0
100
AcDbLine
 10
258.6172504531
 20
135.6064681725
 30
0.0
 11
258.6172504531
 21
139.1064681725
 31
0.0
  0
LINE
  5
14A
330
1F
100
AcDbEntity
  8
0
  6
HIDDEN
 62
     7
370
     0
100
AcDbLine
 10
258.6172504531
 20
135.6064681725
 30
0.0
 11
258.7890254489
 21
135.6064681725
 31
0.0
  0
LINE
  5
14B
330
1F
100
AcDbEntity
  8
0
  6
HIDDEN
 62
     7
370
     0
100
AcDbLine
 10
255.8038152298
 20
135.6064681725
 30
0.0
 11
255.8038152298
 21
139.1064681725
 31
0.0
  0
LINE
  5
14C
330
1F
100
AcDbEntity
  8
0
  6
HIDDEN
 62
     7
370
     0
100
AcDbLine
 10
255.632040234
 20
135.6064681725
 30
0.0
 11
255.632040234
 21
139.1064681725
 31
0.0
  0
LINE
  5
14D
330
1F
100
AcDbEntity
  8
0
  6
HIDDEN
 62
     7
370
     0
100
AcDbLine
 10
257.3823078372
 20
135.6064681725
 30
0.0
 11
257.3823078372
 21
139.1064681725
 31
0.0
  0
LINE
  5
14E
330
1F
100
AcDbEntity
  8
0
  6
HIDDEN
 62
     7
370
     0
100
AcDbLine
 10
258.7890254489
 20
135.6064681725
 30
0.0
 11
258.7890254489
 21
139.1064681725
 31
0.0
  0
CIRCLE
  5
14F
330
1F
100
AcDbEntity
  8
0
  6
HIDDEN
 62
     7
370
     0
100
AcDbCircle
 10
247.2105328414
 20
122.1064681725
 30
0.0
 40
2.999999999999998
  0
CIRCLE
  5
150
330
1F
100
AcDbEntity
  8
0
  6
HIDDEN
 62
     7
370
     0
100
AcDbCircle
 10
247.2105328414
 20
122.1064681725
 30
0.0
 40
1.250000000000003
  0
CIRCLE
  5
151
330
1F
100
AcDbEntity
  8
0
  6
HIDDEN
 62
     7
370
     0
100
AcDbCircle
 10
247.2105328414
 20
122.1064681725
 30
0.0
 40
2.099999999999983
  0
LINE
  5
152
330
1F
100
AcDbEntity
  8
0
  6
HIDDEN
 62
     7
370
     0
100
AcDbLine
 10
244.2105328414
 20
138.6064681725
 30
0.0
 11
250.2105328414
 21
138.6064681725
 31
0.0
  0
LINE
  5
153
330
1F
100
AcDbEntity
  8
0
  6
HIDDEN
 62
     7
370
     0
100
AcDbLine
 10
244.2105328414
 20
129.5064681725
 30
0.0
 11
250.2105328414
 21
129.5064681725
 31
0.0
  0
LINE
  5
154
330
1F
100
AcDbEntity
  8
0
  6
HIDDEN
 62
     7
370
     0
100
AcDbLine
 10
245.1105328414
 20
128.6064681725
 30
0.0
 11
249.3105328414
 21
128.6064681725
 31
0.0
  0
LINE
  5
155
330
1F
100
AcDbEntity
  8
0
  6
HIDDEN
 62
     7
370
     0
100
AcDbLine
 10
246.6764652043
 20
135.6064681725
 30
0.0
 11
248.3704113605
 21
135.6064681725
 31
0.0
  0
LINE
  5
156
330
1F
100
AcDbEntity
  8
0
  6
HIDDEN
 62
     7
370
     0
100
AcDbLine
 10
246.6764652043
 20
135.6064681725
 30
0.0
 11
246.6764652043
 21
139.1064681725
 31
0.0
  0
LINE
  5
157
330
1F
100
AcDbEntity
  8
0
  6
HIDDEN
 62
     7
370
     0
100
AcDbLine
 10
245.5165866853
 20
135.6064681725
 30
0.0
 11
246.6764652043
 21
135.6064681725
 31
0.0
  0
LINE
  5
158
330
1F
100
AcDbEntity
  8
0
  6
HIDDEN
 62
     7
370
     0
100
AcDbLine
 10
248.3704113605
 20
135.6064681725
 30
0.0
 11
248.3704113605
 21
139.1064681725
 31
0.0
  0
LINE
  5
159
330
1F
100
AcDbEntity
  8
0
  6
HIDDEN
 62
     7
370
     0
100
AcDbLine
 10
248.9044789976
 20
135.6064681725
 30
0.0
 11
248.3704113605
 21
135.6064681725
 31
0.0
  0
LINE
  5
15A
330
1F
100
AcDbEntity
  8
0
  6
HIDDEN
 62
     7
370
     0
100
AcDbLine
 10
246.0506543224
 20
135.6064681725
 30
0.0
 11
246.0506543224
 21
139.1064681725
 31
0.0
  0
LINE
  5
15B
330
1F
100
AcDbEntity
  8
0
  6
HIDDEN
 62
     7
370
     0
100
AcDbLine
 10
245.5165866853
 20
135.6064681725
 30
0.0
 11
245.5165866853
 21
139.1064681725
 31
0.0
  0
LINE
  5
15C
330
1F
100
AcDbEntity
  8
0
  6
HIDDEN
 62
     7
370
     0
100
AcDbLine
 10
247.7446004786
 20
135.6064681725
 30
0.0
 11
247.7446004786
 21
139.1064681725
 31
0.0
  0
LINE
  5
15D
330
1F
100
AcDbEntity
  8
0
  6
HIDDEN
 62
     7
370
     0
100
AcDbLine
 10
248.9044789976
 20
135.6064681725
 30
0.0
 11
248.9044789976
 21
139.1064681725
 31
0.0
  0
CIRCLE
  5
15E
330
1F
100
AcDbEntity
  8
0
  6
HIDDEN
 62
     7
370
     0
100
AcDbCircle
 10
257.2105328414
 20
122.1064681725
 30
0.0
 40
2.999999999999998
  0
CIRCLE
  5
15F
330
1F
100
AcDbEntity
  8
0
  6
HIDDEN
 62
     7
370
     0
100
AcDbCircle
 10
257.2105328414
 20
122.1064681725
 30
0.0
 40
1.250000000000002
  0
CIRCLE
  5
160
330
1F
100
AcDbEntity
  8
0
  6
HIDDEN
 62
     7
370
     0
100
AcDbCircle
 10
257.2105328414
 20
122.1064681725
 30
0.0
 40
2.100000000000001
  0
LINE
  5
161
330
1F
100
AcDbEntity
  8
0
  6
HIDDEN
 62
     7
370
     0
100
AcDbLine
 10
256.9208463853
 20
120.3988142974
 30
0.0
 11
258.5445612501
 21
121.0017654048
 31
0.0
  0
LINE
  5
162
330
1F
100
AcDbEntity
  8
0
  6
HIDDEN
 62
     7
370
     0
100
AcDbLine
 10
255.5868179767
 20
121.5035170651
 30
0.0
 11
256.9208463853
 21
120.3988142974
 31
0.0
  0
LINE
  5
163
330
1F
100
AcDbEntity
  8
0
  6
HIDDEN
 62
     7
370
     0
100
AcDbLine
 10
258.8342477062
 20
122.7094192798
 30
0.0
 11
258.5445612501
 21
121.0017654048
 31
0.0
  0
LINE
  5
164
330
1F
100
AcDbEntity
  8
0
  6
HIDDEN
 62
     7
370
     0
100
AcDbLine
 10
255.5868179767
 20
121.5035170651
 30
0.0
 11
255.8765044328
 21
123.2111709402
 31
0.0
  0
LINE
  5
165
330
1F
100
AcDbEntity
  8
0
  6
HIDDEN
 62
     7
370
     0
100
AcDbLine
 10
257.5002192976
 20
123.8141220476
 30
0.0
 11
255.8765044328
 21
123.2111709402
 31
0.0
  0
LINE
  5
166
330
1F
100
AcDbEntity
  8
0
  6
HIDDEN
 62
     7
370
     0
100
AcDbLine
 10
257.5002192976
 20
123.8141220476
 30
0.0
 11
258.8342477062
 21
122.7094192798
 31
0.0
  0
LINE
  5
167
330
1F
100
AcDbEntity
  8
0
  6
HIDDEN
 62
     7
370
     0
100
AcDbLine
 10
195.2105328414
 20
82.7017852159
 30
0.0
 11
195.3001344654
 21
83.3393338978
 31
0.0
  0
LINE
  5
168
330
1F
100
AcDbEntity
  8
0
  6
HIDDEN
 62
     7
370
     0
100
AcDbLine
 10
195.3001344654
 20
160.8736024471
 30
0.0
 11
195.2105328414
 21
161.5111511291
 31
0.0
  0
ARC
  5
169
330
1F
100
AcDbEntity
  8
0
  6
HIDDEN
 62
     7
370
     0
100
AcDbCircle
 10
194.313595923
 20
83.477982848
 30
0.0
 40
0.9962338214386701
100
AcDbArc
 50
352.0
 51
0.0
  0
ARC
  5
16A
330
1F
100
AcDbEntity
  8
0
  6
HIDDEN
 62
     7
370
     0
100
AcDbCircle
 10
194.313595923
 20
83.477982848
 30
0.0
 40
0.9962338214386727
100
AcDbArc
 50
0.0
 51
25.7988228126
  0
ARC
  5
16B
330
1F
100
AcDbEntity
  8
0
  6
HIDDEN
 62
     7
370
     0
100
AcDbCircle
 10
194.313595923
 20
160.7349534969
 30
0.0
 40
0.9962338214386743
100
AcDbArc
 50
348.75
 51
8.0
  0
LWPOLYLINE
  5
16C
330
1F
100
AcDbEntity
  8
0
  6
HIDDEN
 62
     7
370
     0
100
AcDbPolyline
 90
        3
 70
   128
 43
0.0
 10
195.2906873909
 20
160.5405979199
 10
195.2339959602
 20
160.3537113187
 10
195.2105328414
 20
160.3013799838
  0
LINE
  5
16D
330
1F
100
AcDbEntity
  8
0
  6
HIDDEN
 62
     7
370
     0
100
AcDbLine
 10
195.3098297444
 20
83.477982848
 30
0.0
 11
195.3098297444
 21
160.7349534969
 31
0.0
  0
LINE
  5
16E
330
1F
100
AcDbEntity
  8
0
  6
HIDDEN
 62
     7
370
     0
100
AcDbLine
 10
168.6712587836
 20
90.6064681725
 30
0.0
 11
174.256362892
 21
90.6064681725
 31
0.0
  0
LINE
  5
16F
330
1F
100
AcDbEntity
  8
0
  6
HIDDEN
 62
     7
370
     0
100
AcDbLine
 10
174.256362892
 20
153.6064681725
 30
0.0
 11
168.6712587836
 21
153.6064681725
 31
0.0
  0
ARC
  5
170
330
1F
100
AcDbEntity
  8
0
  6
HIDDEN
 62
     7
370
     0
100
AcDbCircle
 10
168.6712587836
 20
91.6064681725
 30
0.0
 40
1.000000000000008
100
AcDbArc
 50
210.0
 51
270.0
  0
ARC
  5
171
330
1F
100
AcDbEntity
  8
0
  6
HIDDEN
 62
     7
370
     0
100
AcDbCircle
 10
168.6712587836
 20
152.6064681725
 30
0.0
 40
1.000000000000008
100
AcDbArc
 50
90.0
 51
150.0
  0
ARC
  5
172
330
1F
100
AcDbEntity
  8
0
  6
HIDDEN
 62
     7
370
     0
100
AcDbCircle
 10
185.4637384966
 20
102.6064681725
 30
0.0
 40
11.99999999999999
100
AcDbArc
 50
273.1745040388
 51
324.3146652873
  0
ARC
  5
173
330
1F
100
AcDbEntity
  8
0
  6
HIDDEN
 62
     7
370
     0
100
AcDbCircle
 10
185.4637384966
 20
141.6064681725
 30
0.0
 40
12.00000000000002
100
AcDbArc
 50
35.6853347127
 51
86.828907754
  0
LINE
  5
174
330
1F
100
AcDbEntity
  8
0
  6
HIDDEN
 62
     7
370
     0
100
AcDbLine
 10
167.8052333798
 20
153.1064681725
 30
0.0
 11
165.2071571685
 21
148.6064681725
 31
0.0
  0
LINE
  5
175
330
1F
100
AcDbEntity
  8
0
  6
HIDDEN
 62
     7
370
     0
100
AcDbLine
 10
165.2071571685
 20
95.6064681725
 30
0.0
 11
167.8052333798
 21
91.1064681725
 31
0.0
  0
ARC
  5
176
330
1F
100
AcDbEntity
  8
0
  6
HIDDEN
 62
     7
370
     0
100
AcDbCircle
 10
205.6605328414
 20
97.2314681725
 30
0.0
 40
2.0
100
AcDbArc
 50
234.3409123039
 51
0.0
  0
ARC
  5
177
330
1F
100
AcDbEntity
  8
0
  6
HIDDEN
 62
     7
370
     0
100
AcDbCircle
 10
205.6605328414
 20
146.9814681725
 30
0.0
 40
2.0
100
AcDbArc
 50
0.0
 51
125.6590876961
  0
LINE
  5
178
330
1F
100
AcDbEntity
  8
0
  6
HIDDEN
 62
     7
370
     0
100
AcDbLine
 10
160.4105328414
 20
95.6064681725
 30
0.0
 11
165.2071571685
 21
95.6064681725
 31
0.0
  0
LINE
  5
179
330
1F
100
AcDbEntity
  8
0
  6
HIDDEN
 62
     7
370
     0
100
AcDbLine
 10
165.2071571685
 20
148.6064681725
 30
0.0
 11
155.4105328414
 21
148.6064681725
 31
0.0
  0
LINE
  5
17A
330
1F
100
AcDbEntity
  8
0
  6
HIDDEN
 62
     7
370
     0
100
AcDbLine
 10
195.2105328414
 20
95.6064681725
 30
0.0
 11
204.4946104598
 21
95.6064681725
 31
0.0
  0
LINE
  5
17B
330
1F
100
AcDbEntity
  8
0
  6
HIDDEN
 62
     7
370
     0
100
AcDbLine
 10
204.4946104598
 20
148.6064681725
 30
0.0
 11
195.2105328414
 21
148.6064681725
 31
0.0
  0
LINE
  5
17C
330
1F
100
AcDbEntity
  8
0
  6
HIDDEN
 62
     7
370
     0
100
AcDbLine
 10
219.5105328414
 20
109.1064681725
 30
0.0
 11
223.5105328414
 21
109.1064681725
 31
0.0
  0
LINE
  5
17D
330
1F
100
AcDbEntity
  8
0
  6
HIDDEN
 62
     7
370
     0
100
AcDbLine
 10
223.5105328414
 20
135.1064681725
 30
0.0
 11
219.5105328414
 21
135.1064681725
 31
0.0
  0
LINE
  5
17E
330
1F
100
AcDbEntity
  8
0
  6
HIDDEN
 62
     7
370
     0
100
AcDbLine
 10
207.6605328414
 20
110.1064681725
 30
0.0
 11
208.4105328414
 21
110.8564681725
 31
0.0
  0
LINE
  5
17F
330
1F
100
AcDbEntity
  8
0
  6
HIDDEN
 62
     7
370
     0
100
AcDbLine
 10
208.4105328414
 20
133.3564681725
 30
0.0
 11
207.6605328414
 21
134.1064681725
 31
0.0
  0
LINE
  5
180
330
1F
100
AcDbEntity
  8
0
  6
HIDDEN
 62
     7
370
     0
100
AcDbLine
 10
208.4105328414
 20
110.8564681725
 30
0.0
 11
219.5105328414
 21
110.8564681725
 31
0.0
  0
LINE
  5
181
330
1F
100
AcDbEntity
  8
0
  6
HIDDEN
 62
     7
370
     0
100
AcDbLine
 10
219.5105328414
 20
133.3564681725
 30
0.0
 11
208.4105328414
 21
133.3564681725
 31
0.0
  0
LINE
  5
182
330
1F
100
AcDbEntity
  8
0
  6
HIDDEN
 62
     7
370
     0
100
AcDbLine
 10
200.1605328414
 20
172.1064681725
 30
0.0
 11
200.1605328414
 21
166.0064681725
 31
0.0
  0
LINE
  5
183
330
1F
100
AcDbEntity
  8
0
  6
HIDDEN
 62
     7
370
     0
100
AcDbLine
 10
186.6432454575
 20
84.5281886019
 30
0.0
 11
186.210536171
 21
85.0064133193
 31
0.0
  0
LINE
  5
184
330
1F
100
AcDbEntity
  8
0
  6
HIDDEN
 62
     7
370
     0
100
AcDbLine
 10
174.2105332995
 20
85.6533746759
 30
0.0
 11
173.7299059943
 21
85.1751499651
 31
0.0
  0
LINE
  5
185
330
1F
100
AcDbEntity
  8
0
  6
HIDDEN
 62
     7
370
     0
100
AcDbLine
 10
173.7297876528
 20
159.0377804637
 30
0.0
 11
174.2105331168
 21
158.5595007919
 31
0.0
  0
LINE
  5
186
330
1F
100
AcDbEntity
  8
0
  6
HIDDEN
 62
     7
370
     0
100
AcDbLine
 10
186.2105328436
 20
159.2064731792
 30
0.0
 11
186.6433545133
 21
159.6847528521
 31
0.0
  0
LINE
  5
187
330
1F
100
AcDbEntity
  8
0
  6
HIDDEN
 62
     7
370
     0
100
AcDbLine
 10
186.2105328414
 20
85.0065323884
 30
0.0
 11
186.2105328414
 21
90.6405902454
 31
0.0
  0
LINE
  5
188
330
1F
100
AcDbEntity
  8
0
  6
HIDDEN
 62
     7
370
     0
100
AcDbLine
 10
174.2105328414
 20
90.6149475405
 30
0.0
 11
174.2105328414
 21
85.6534130905
 31
0.0
  0
LINE
  5
189
330
1F
100
AcDbEntity
  8
0
  6
HIDDEN
 62
     7
370
     0
100
AcDbLine
 10
186.2105328414
 20
153.5723460996
 30
0.0
 11
186.2105328414
 21
159.2063211773
 31
0.0
  0
LINE
  5
18A
330
1F
100
AcDbEntity
  8
0
  6
HIDDEN
 62
     7
370
     0
100
AcDbLine
 10
174.2105328414
 20
158.5594902926
 30
0.0
 11
174.2105328414
 21
153.5979888045
 31
0.0
  0
ARC
  5
18B
330
1F
100
AcDbEntity
  8
0
  6
HIDDEN
 62
     7
370
     0
100
AcDbCircle
 10
264.9105328414
 20
125.4064681725
 30
0.0
 40
0.2999999999999972
100
AcDbArc
 50
270.0
 51
0.0
  0
ARC
  5
18C
330
1F
100
AcDbEntity
  8
0
  6
HIDDEN
 62
     7
370
     0
100
AcDbCircle
 10
264.9105328414
 20
118.8064681725
 30
0.0
 40
0.2999999999999829
100
AcDbArc
 50
0.0
 51
90.0
  0
LINE
  5
18D
330
1F
100
AcDbEntity
  8
0
  6
HIDDEN
 62
     7
370
     0
100
AcDbLine
 10
232.3862896156
 20
118.8064681725
 30
0.0
 11
233.2105328414
 21
119.1064681725
 31
0.0
  0
LINE
  5
18E
330
1F
100
AcDbEntity
  8
0
  6
HIDDEN
 62
     7
370
     0
100
AcDbLine
 10
233.2105328414
 20
125.1064681725
 30
0.0
 11
232.3862896156
 21
125.4064681725
 31
0.0
  0
LINE
  5
18F
330
1F
100
AcDbEntity
  8
0
  6
HIDDEN
 62
     7
370
     0
100
AcDbLine
 10
232.3862896156
 20
125.4064681725
 30
0.0
 11
229.6105328414
 21
125.4064681725
 31
0.0
  0
LINE
  5
190
330
1F
100
AcDbEntity
  8
0
  6
HIDDEN
 62
     7
370
     0
100
AcDbLine
 10
229.6105328414
 20
118.8064681725
 30
0.0
 11
232.3862896156
 21
118.8064681725
 31
0.0
  0
ARC
  5
191
330
1F
100
AcDbEntity
  8
0
  6
HIDDEN
 62
     7
370
     0
100
AcDbCircle
 10
229.6105328414
 20
125.0064681725
 30
0.0
 40
0.4000000000000199
100
AcDbArc
 50
90.0
 51
180.0
  0
ARC
  5
192
330
1F
100
AcDbEntity
  8
0
  6
HIDDEN
 62
     7
370
     0
100
AcDbCircle
 10
229.6105328414
 20
119.2064681725
 30
0.0
 40
0.4000000000000057
100
AcDbArc
 50
180.0
 51
270.0
  0
LINE
  5
193
330
1F
100
AcDbEntity
  8
0
  6
HIDDEN
 62
     7
370
     0
100
AcDbLine
 10
234.7345813234
 20
125.1064681725
 30
0.0
 11
233.2105328414
 21
125.1064681725
 31
0.0
  0
LINE
  5
194
330
1F
100
AcDbEntity
  8
0
  6
HIDDEN
 62
     7
370
     0
100
AcDbLine
 10
244.7345813234
 20
125.1064681725
 30
0.0
 11
239.6860700181
 21
125.1064681725
 31
0.0
  0
LINE
  5
195
330
1F
100
AcDbEntity
  8
0
  6
HIDDEN
 62
     7
370
     0
100
AcDbLine
 10
254.7345813234
 20
125.1064681725
 30
0.0
 11
249.6860700181
 21
125.1064681725
 31
0.0
  0
LINE
  5
196
330
1F
100
AcDbEntity
  8
0
  6
HIDDEN
 62
     7
370
     0
100
AcDbLine
 10
264.9105328414
 20
125.1064681725
 30
0.0
 11
259.6860700181
 21
125.1064681725
 31
0.0
  0
LINE
  5
197
330
1F
100
AcDbEntity
  8
0
  6
HIDDEN
 62
     7
370
     0
100
AcDbLine
 10
233.2105328414
 20
119.1064681725
 30
0.0
 11
264.9105328414
 21
119.1064681725
 31
0.0
  0
LINE
  5
198
330
1F
100
AcDbEntity
  8
0
  6
HIDDEN
 62
     7
370
     0
100
AcDbLine
 10
254.7105328414
 20
139.1064681725
 30
0.0
 11
254.7105328414
 21
125.0864594367
 31
0.0
  0
LINE
  5
199
330
1F
100
AcDbEntity
  8
0
  6
HIDDEN
 62
     7
370
     0
100
AcDbLine
 10
259.7105328414
 20
125.0861142833
 30
0.0
 11
259.7105328414
 21
139.1064681725
 31
0.0
  0
LINE
  5
19A
330
1F
100
AcDbEntity
  8
0
  6
HIDDEN
 62
     7
370
     0
100
AcDbLine
 10
244.7105328414
 20
139.1064681725
 30
0.0
 11
244.7105328414
 21
125.0864594367
 31
0.0
  0
LINE
  5
19B
330
1F
100
AcDbEntity
  8
0
  6
HIDDEN
 62
     7
370
     0
100
AcDbLine
 10
249.7105328414
 20
125.0861142833
 30
0.0
 11
249.7105328414
 21
139.1064681725
 31
0.0
  0
LINE
  5
19C
330
1F
100
AcDbEntity
  8
0
  6
HIDDEN
 62
     7
370
     0
100
AcDbLine
 10
234.7105328414
 20
139.1064681725
 30
0.0
 11
234.7105328414
 21
125.0864594367
 31
0.0
  0
LINE
  5
19D
330
1F
100
AcDbEntity
  8
0
  6
HIDDEN
 62
     7
370
     0
100
AcDbLine
 10
239.7105328414
 20
125.0861142833
 30
0.0
 11
239.7105328414
 21
139.1064681725
 31
0.0
  0
LINE
  5
19E
330
1F
100
AcDbEntity
  8
0
  6
HIDDEN
 62
     7
370
     0
100
AcDbLine
 10
223.5105328414
 20
120.0064681725
 30
0.0
 11
229.2105328414
 21
120.0064681725
 31
0.0
  0
LINE
  5
19F
330
1F
100
AcDbEntity
  8
0
  6
HIDDEN
 62
     7
370
     0
100
AcDbLine
 10
229.2105328414
 20
124.2064681725
 30
0.0
 11
223.5105328414
 21
124.2064681725
 31
0.0
  0
LINE
  5
1A0
330
1F
100
AcDbEntity
  8
0
  6
HIDDEN
 62
     7
370
     0
100
AcDbLine
 10
234.2105328414
 20
138.6064681725
 30
0.0
 11
234.2105328414
 21
129.5064681725
 31
0.0
  0
LINE
  5
1A1
330
1F
100
AcDbEntity
  8
0
  6
HIDDEN
 62
     7
370
     0
100
AcDbLine
 10
240.2105328414
 20
129.5064681725
 30
0.0
 11
240.2105328414
 21
138.6064681725
 31
0.0
  0
LINE
  5
1A2
330
1F
100
AcDbEntity
  8
0
  6
HIDDEN
 62
     7
370
     0
100
AcDbLine
 10
234.2105328414
 20
129.5064681725
 30
0.0
 11
235.1105328414
 21
128.6064681725
 31
0.0
  0
LINE
  5
1A3
330
1F
100
AcDbEntity
  8
0
  6
HIDDEN
 62
     7
370
     0
100
AcDbLine
 10
239.3105328414
 20
128.6064681725
 30
0.0
 11
240.2105328414
 21
129.5064681725
 31
0.0
  0
LINE
  5
1A4
330
1F
100
AcDbEntity
  8
0
  6
HIDDEN
 62
     7
370
     0
100
AcDbLine
 10
240.2105328414
 20
138.6064681725
 30
0.0
 11
239.7105328414
 21
139.1064681725
 31
0.0
  0
LINE
  5
1A5
330
1F
100
AcDbEntity
  8
0
  6
HIDDEN
 62
     7
370
     0
100
AcDbLine
 10
234.7105328414
 20
139.1064681725
 30
0.0
 11
234.2105328414
 21
138.6064681725
 31
0.0
  0
LINE
  5
1A6
330
1F
100
AcDbEntity
  8
0
  6
HIDDEN
 62
     7
370
     0
100
AcDbLine
 10
238.4605328414
 20
128.6064681725
 30
0.0
 11
237.2105328414
 21
129.328156009
 31
0.0
  0
LINE
  5
1A7
330
1F
100
AcDbEntity
  8
0
  6
HIDDEN
 62
     7
370
     0
100
AcDbLine
 10
237.2105328414
 20
129.328156009
 30
0.0
 11
235.9605328414
 21
128.6064681725
 31
0.0
  0
LINE
  5
1A8
330
1F
100
AcDbEntity
  8
0
  6
HIDDEN
 62
     7
370
     0
100
AcDbLine
 10
254.2105328414
 20
129.5064681725
 30
0.0
 11
255.1105328414
 21
128.6064681725
 31
0.0
  0
LINE
  5
1A9
330
1F
100
AcDbEntity
  8
0
  6
HIDDEN
 62
     7
370
     0
100
AcDbLine
 10
259.3105328414
 20
128.6064681725
 30
0.0
 11
260.2105328414
 21
129.5064681725
 31
0.0
  0
LINE
  5
1AA
330
1F
100
AcDbEntity
  8
0
  6
HIDDEN
 62
     7
370
     0
100
AcDbLine
 10
254.2105328414
 20
138.6064681725
 30
0.0
 11
254.2105328414
 21
129.5064681725
 31
0.0
  0
LINE
  5
1AB
330
1F
100
AcDbEntity
  8
0
  6
HIDDEN
 62
     7
370
     0
100
AcDbLine
 10
260.2105328414
 20
129.5064681725
 30
0.0
 11
260.2105328414
 21
138.6064681725
 31
0.0
  0
LINE
  5
1AC
330
1F
100
AcDbEntity
  8
0
  6
HIDDEN
 62
     7
370
     0
100
AcDbLine
 10
260.2105328414
 20
138.6064681725
 30
0.0
 11
259.7105328414
 21
139.1064681725
 31
0.0
  0
LINE
  5
1AD
330
1F
100
AcDbEntity
  8
0
  6
HIDDEN
 62
     7
370
     0
100
AcDbLine
 10
254.7105328414
 20
139.1064681725
 30
0.0
 11
254.2105328414
 21
138.6064681725
 31
0.0
  0
LINE
  5
1AE
330
1F
100
AcDbEntity
  8
0
  6
HIDDEN
 62
     7
370
     0
100
AcDbLine
 10
258.4605328414
 20
128.6064681725
 30
0.0
 11
257.2105328414
 21
129.328156009
 31
0.0
  0
LINE
  5
1AF
330
1F
100
AcDbEntity
  8
0
  6
HIDDEN
 62
     7
370
     0
100
AcDbLine
 10
257.2105328414
 20
129.328156009
 30
0.0
 11
255.9605328414
 21
128.6064681725
 31
0.0
  0
LINE
  5
1B0
330
1F
100
AcDbEntity
  8
0
  6
HIDDEN
 62
     7
370
     0
100
AcDbLine
 10
244.2105328414
 20
138.6064681725
 30
0.0
 11
244.2105328414
 21
129.5064681725
 31
0.0
  0
LINE
  5
1B1
330
1F
100
AcDbEntity
  8
0
  6
HIDDEN
 62
     7
370
     0
100
AcDbLine
 10
250.2105328414
 20
129.5064681725
 30
0.0
 11
250.2105328414
 21
138.6064681725
 31
0.0
  0
LINE
  5
1B2
330
1F
100
AcDbEntity
  8
0
  6
HIDDEN
 62
     7
370
     0
100
AcDbLine
 10
244.2105328414
 20
129.5064681725
 30
0.0
 11
245.1105328414
 21
128.6064681725
 31
0.0
  0
LINE
  5
1B3
330
1F
100
AcDbEntity
  8
0
  6
HIDDEN
 62
     7
370
     0
100
AcDbLine
 10
249.3105328414
 20
128.6064681725
 30
0.0
 11
250.2105328414
 21
129.5064681725
 31
0.0
  0
LINE
  5
1B4
330
1F
100
AcDbEntity
  8
0
  6
HIDDEN
 62
     7
370
     0
100
AcDbLine
 10
250.2105328414
 20
138.6064681725
 30
0.0
 11
249.7105328414
 21
139.1064681725
 31
0.0
  0
LINE
  5
1B5
330
1F
100
AcDbEntity
  8
0
  6
HIDDEN
 62
     7
370
     0
100
AcDbLine
 10
244.7105328414
 20
139.1064681725
 30
0.0
 11
244.2105328414
 21
138.6064681725
 31
0.0
  0
LINE
  5
1B6
330
1F
100
AcDbEntity
  8
0
  6
HIDDEN
 62
     7
370
     0
100
AcDbLine
 10
248.4605328414
 20
128.6064681725
 30
0.0
 11
247.2105328414
 21
129.328156009
 31
0.0
  0
LINE
  5
1B7
330
1F
100
AcDbEntity
  8
0
  6
HIDDEN
 62
     7
370
     0
100
AcDbLine
 10
247.2105328414
 20
129.328156009
 30
0.0
 11
245.9605328414
 21
128.6064681725
 31
0.0
  0
DIMENSION
  5
1B8
330
1F
100
AcDbEntity
  8
VERMASSUNG
100
AcDbDimension
  2
_D
 10
135.003183791
 20
72.1064681725
 30
0.0
 11
135.003183791
 21
121.8591634955
 31
0.0
 70
   160
  1
HSK T %%c<>
 71
     2
 42
-1.0
  3
SLDDIMSTYLE0
100
AcDbAlignedDimension
 13
195.7105328414
 23
172.1064681725
 33
0.0
 14
195.7105328414
 24
72.1064681725
 34
0.0
 50
90.0
100
AcDbRotatedDimension
  0
DIMENSION
  5
1C5
330
1F
100
AcDbEntity
  8
VERMASSUNG
100
AcDbDimension
  2
_D_1
 10
277.3879032139
 20
105.1064681725
 30
0.0
 11
277.3879032139
 21
122.5375947156
 31
0.0
 70
   160
  1
%%c<>
 71
     2
 42
-1.0
  3
SLDDIMSTYLE0
100
AcDbAlignedDimension
 13
264.2105328414
 23
139.1064681725
 33
0.0
 14
264.2105328414
 24
105.1064681725
 34
0.0
 50
90.0
100
AcDbRotatedDimension
  0
DIMENSION
  5
1D0
330
1F
100
AcDbEntity
  8
VERMASSUNG
100
AcDbDimension
  2
_D_2
 10
271.3879032139
 20
119.1064681725
 30
0.0
 11
271.3879032139
 21
121.8591634955
 31
0.0
 70
   160
  1
%%c<>
 71
     2
 42
-1.0
  3
SLDDIMSTYLE1
100
AcDbAlignedDimension
 13
264.9105328414
 23
125.1064681725
 33
0.0
 14
264.9105328414
 24
119.1064681725
 34
0.0
 50
90.0
100
AcDbRotatedDimension
  0
DIMENSION
  5
1DE
330
1F
100
AcDbEntity
  8
VERMASSUNG
100
AcDbDimension
  2
_D_3
 10
145.3105328414
 20
189.8300152102
 30
0.0
 11
209.7294400007
 21
189.8300152102
 31
0.0
 70
   160
  1
<>
 71
     2
 42
-1.0
  3
SLDDIMSTYLE0
100
AcDbAlignedDimension
 13
265.2105328414
 23
138.1064681725
 33
0.0
 14
145.3105328414
 24
152.6091379151
 34
0.0
100
AcDbRotatedDimension
  0
DIMENSION
  5
1E8
330
1F
100
AcDbEntity
  8
VERMASSUNG
100
AcDbDimension
  2
_D_4
 10
265.2105328414
 20
183.8300152102
 30
0.0
 11
229.3192633904
 21
183.8300152102
 31
0.0
 70
   160
  1
<>
 71
     2
 42
-1.0
  3
SLDDIMSTYLE0
100
AcDbAlignedDimension
 13
195.2105328414
 23
171.6064681725
 33
0.0
 14
265.2105328414
 24
138.1064681725
 34
0.0
100
AcDbRotatedDimension
  0
DIMENSION
  5
1F2
330
1F
100
AcDbEntity
  8
VERMASSUNG
100
AcDbDimension
  2
_D_5
 10
265.2105328414
 20
177.8300152102
 30
0.0
 11
245.5727140604
 21
177.8300152102
 31
0.0
 70
   160
  1
<>
 71
     2
 42
-1.0
  3
SLDDIMSTYLE0
100
AcDbAlignedDimension
 13
224.1605328414
 23
170.0752079933
 33
0.0
 14
265.2105328414
 24
138.1064681725
 34
0.0
100
AcDbRotatedDimension
  0
DIMENSION
  5
1FC
330
1F
100
AcDbEntity
  8
VERMASSUNG
100
AcDbDimension
  2
_D_6
 10
265.2105328414
 20
150.0845251821
 30
0.0
 11
260.8968824756
 21
150.0845251821
 31
0.0
 70
   160
  1
<>
 71
     2
 42
-1.0
  3
SLDDIMSTYLE0
100
AcDbAlignedDimension
 13
257.2105328414
 23
141.1064681725
 33
0.0
 14
265.2105328414
 24
138.1064681725
 34
0.0
100
AcDbRotatedDimension
  0
DIMENSION
  5
206
330
1F
100
AcDbEntity
  8
VERMASSUNG
100
AcDbDimension
  2
_D_7
 10
257.2105328414
 20
150.0845251821
 30
0.0
 11
252.5829793788
 21
150.0845251821
 31
0.0
 70
   160
  1
<>
 71
     2
 42
-1.0
  3
SLDDIMSTYLE0
100
AcDbAlignedDimension
 13
247.2105328414
 23
141.1064681725
 33
0.0
 14
257.2105328414
 24
141.1064681725
 34
0.0
100
AcDbRotatedDimension
  0
DIMENSION
  5
210
330
1F
100
AcDbEntity
  8
VERMASSUNG
100
AcDbDimension
  2
_D_8
 10
247.2105328414
 20
150.0845251821
 30
0.0
 11
240.9389417095
 21
150.0845251821
 31
0.0
 70
   160
  1
<>
 71
     2
 42
-1.0
  3
SLDDIMSTYLE0
100
AcDbAlignedDimension
 13
237.2105328414
 23
141.1064681725
 33
0.0
 14
247.2105328414
 24
141.1064681725
 34
0.0
100
AcDbRotatedDimension
  0
DIMENSION
  5
21A
330
1F
100
AcDbEntity
  8
VERMASSUNG
100
AcDbDimension
  2
_D_9
 10
265.2105328414
 20
156.0845251821
 30
0.0
 11
247.3230612222
 21
156.0845251821
 31
0.0
 70
   160
  1
<>
 71
     2
 42
-1.0
  3
SLDDIMSTYLE0
100
AcDbAlignedDimension
 13
229.2105328414
 23
125.0064681725
 33
0.0
 14
265.2105328414
 24
138.1064681725
 34
0.0
100
AcDbRotatedDimension
  0
LINE
  5
224
330
1F
100
AcDbEntity
  8
VERMASSUNG
  6
CENTERX2
 62
     7
370
     0
100
AcDbLine
 10
143.003183791
 20
122.1064681725
 30
0.0
 11
267.2105328414
 21
122.1064681725
 31
0.0
  0
LINE
  5
225
330
1F
100
AcDbEntity
  8
VERMASSUNG
  6
CENTERX2
370
     0
100
AcDbLine
 10
257.4605328414
 20
140.8564681725
 30
0.0
 11
257.4605328414
 21
125.3064681725
 31
0.0
  0
LINE
  5
226
330
1F
100
AcDbEntity
  8
VERMASSUNG
  6
CENTERX2
370
     0
100
AcDbLine
 10
247.2105328414
 20
139.1064681725
 30
0.0
 11
247.2105328414
 21
123.1064681725
 31
0.0
  0
LINE
  5
227
330
1F
100
AcDbEntity
  8
VERMASSUNG
  6
CENTERX2
370
     0
100
AcDbLine
 10
236.9605328414
 20
125.3064681725
 30
0.0
 11
236.9605328414
 21
140.8564681725
 31
0.0
  0
LINE
  5
228
330
1F
100
AcDbEntity
  8
0
  6
Continuous
 62
     7
370
    15
100
AcDbLine
 10
67.8636654407
 20
138.8876487277
 30
0.0
 11
67.6448459959
 21
139.1064681725
 31
0.0
  0
LINE
  5
229
330
1F
100
AcDbEntity
  8
0
  6
Continuous
 62
     7
370
    15
100
AcDbLine
 10
62.6448459959
 20
139.1064681725
 30
0.0
 11
62.4260265511
 21
138.8876487277
 31
0.0
  0
LINE
  5
22A
330
1F
100
AcDbEntity
  8
0
  6
Continuous
 62
     7
370
    15
100
AcDbLine
 10
48.3636654407
 20
124.8252876173
 30
0.0
 11
48.1448459959
 21
124.6064681725
 31
0.0
  0
LINE
  5
22B
330
1F
100
AcDbEntity
  8
0
  6
Continuous
 62
     7
370
    15
100
AcDbLine
 10
48.1448459959
 20
119.6064681725
 30
0.0
 11
48.3636654407
 21
119.3876487277
 31
0.0
  0
LINE
  5
22C
330
1F
100
AcDbEntity
  8
0
  6
Continuous
 62
     7
370
    15
100
AcDbLine
 10
81.9260265511
 20
119.3876487277
 30
0.0
 11
82.1448459959
 21
119.6064681725
 31
0.0
  0
LINE
  5
22D
330
1F
100
AcDbEntity
  8
0
  6
Continuous
 62
     7
370
    15
100
AcDbLine
 10
82.1448459959
 20
124.6064681725
 30
0.0
 11
81.9260265511
 21
124.8252876173
 31
0.0
  0
CIRCLE
  5
22E
330
1F
100
AcDbEntity
  8
0
  6
Continuous
 62
     7
370
    15
100
AcDbCircle
 10
65.1448459959
 20
122.1064681725
 30
0.0
 40
17.0
  0
CIRCLE
  5
22F
330
1F
100
AcDbEntity
  8
0
  6
Continuous
 62
     7
370
    15
100
AcDbCircle
 10
65.1448459959
 20
122.1064681725
 30
0.0
 40
3.0
  0
CIRCLE
  5
230
330
1F
100
AcDbEntity
  8
0
  6
Continuous
 62
     7
370
    15
100
AcDbCircle
 10
65.1448459959
 20
122.1064681725
 30
0.0
 40
2.099999999999987
  0
SPLINE
  5
231
330
1F
100
AcDbEntity
  8
0
  6
Continuous
 62
     7
370
    15
100
AcDbSpline
210
0.0
220
0.0
230
1.0
 70
    24
 71
     3
 72
    12
 73
     8
 74
     0
 42
0.00000001
 43
0.00000001
 12
1.0
 22
0.0
 32
0.0
 13
1.0
 23
0.0
 33
0.0
 40
0.0
 40
0.0
 40
0.0
 40
0.0
 40
0.4999999999999953
 40
0.4999999999999953
 40
0.7499999999999977
 40
0.7499999999999977
 40
1.0
 40
1.0
 40
1.0
 40
1.0
 10
55.14484599589326
 20
170.0752079933304
 30
0.0
 10
55.14484599589326
 20
170.3404774260968
 30
0.0
 10
55.14484599589326
 20
170.6029925317492
 30
0.0
 10
55.14484599589326
 20
170.8885301377865
 30
0.0
 10
55.14484599589326
 20
170.9648517546479
 30
0.0
 10
55.14484599589326
 20
171.069193919488
 30
0.0
 10
55.14484599589326
 20
171.0962630281482
 30
0.0
 10
55.14484599589326
 20
171.0962630281482
 30
0.0
  0
SPLINE
  5
232
330
1F
100
AcDbEntity
  8
0
  6
Continuous
 62
     7
370
    15
100
AcDbSpline
210
0.0
220
0.0
230
1.0
 70
    24
 71
     3
 72
    16
 73
    12
 74
     0
 42
0.00000001
 43
0.00000001
 12
1.0
 22
0.0
 32
0.0
 13
1.0
 23
0.0
 33
0.0
 40
0.0
 40
0.0
 40
0.0
 40
0.0
 40
0.1249999999999978
 40
0.1249999999999978
 40
0.2499999999999955
 40
0.2499999999999955
 40
0.499999999999997
 40
0.499999999999997
 40
0.7499999999999984
 40
0.7499999999999984
 40
1.0
 40
1.0
 40
1.0
 40
1.0
 10
33.79484599589325
 20
161.0574309333715
 30
0.0
 10
33.79484599589325
 20
161.0574309333715
 30
0.0
 10
33.79484599589325
 20
161.0460859332366
 30
0.0
 10
33.79484599589325
 20
161.0034333825981
 30
0.0
 10
33.79484599589323
 20
160.9724990579153
 30
0.0
 10
33.79484599589325
 20
160.8532426861476
 30
0.0
 10
33.79484599589324
 20
160.7430906725271
 30
0.0
 10
33.79484599589324
 20
160.494954586869
 30
0.0
 10
33.79484599589324
 20
160.3546122628653
 30
0.0
 10
33.79484599589325
 20
160.0663405713767
 30
0.0
 10
33.79484599589326
 20
159.9155355983968
 30
0.0
 10
33.79484599589325
 20
159.7651657070516
 30
0.0
  0
ARC
  5
233
330
1F
100
AcDbEntity
  8
0
  6
Continuous
 62
     7
370
    15
100
AcDbCircle
 10
65.1448459959
 20
122.1064681725
 30
0.0
 40
50.0
100
AcDbArc
 50
101.5369590328
 51
128.8291331614
  0
SPLINE
  5
234
330
1F
100
AcDbEntity
  8
0
  6
Continuous
 62
     7
370
    15
100
AcDbSpline
210
0.0
220
0.0
230
1.0
 70
    24
 71
     3
 72
    14
 73
    10
 74
     0
 42
0.00000001
 43
0.00000001
 12
1.0
 22
0.0
 32
0.0
 13
1.0
 23
0.0
 33
0.0
 40
0.0
 40
0.0
 40
0.0
 40
0.0
 40
0.25
 40
0.25
 40
0.5
 40
0.5
 40
0.75
 40
0.75
 40
1.0
 40
1.0
 40
1.0
 40
1.0
 10
54.14484599589326
 20
74.35712262723132
 30
0.0
 10
54.14484599589326
 20
74.22369693117678
 30
0.0
 10
54.14484599589326
 20
74.09184912333241
 30
0.0
 10
54.14484599589326
 20
73.84532657463832
 30
0.0
 10
54.14484599589326
 20
73.73152138639777
 30
0.0
 10
54.14484599589326
 20
73.5410642094505
 30
0.0
 10
54.14484599589326
 20
73.46342934560059
 30
0.0
 10
54.14484599589326
 20
73.35913793548812
 30
0.0
 10
54.14484599589326
 20
73.33147457945577
 30
0.0
 10
54.14484599589326
 20
73.33147457945577
 30
0.0
  0
ARC
  5
235
330
1F
100
AcDbEntity
  8
0
  6
Continuous
 62
     7
370
    15
100
AcDbCircle
 10
65.1448459959
 20
122.1064681725
 30
0.0
 40
50.00000000000001
100
AcDbArc
 50
141.1708668386
 51
257.2909670056
  0
SPLINE
  5
236
330
1F
100
AcDbEntity
  8
0
  6
Continuous
 62
     7
370
    15
100
AcDbSpline
210
0.0
220
0.0
230
1.0
 70
    24
 71
     3
 72
    12
 73
     8
 74
     0
 42
0.00000001
 43
0.00000001
 12
1.0
 22
0.0
 32
0.0
 13
1.0
 23
0.0
 33
0.0
 40
0.0
 40
0.0
 40
0.0
 40
0.0
 40
0.2500000000000032
 40
0.2500000000000032
 40
0.5000000000000064
 40
0.5000000000000064
 40
1.0
 40
1.0
 40
1.0
 40
1.0
 10
26.19388323500633
 20
153.4564681724846
 30
0.0
 10
26.19388323500633
 20
153.4564681724846
 30
0.0
 10
26.23962202167981
 20
153.4564681724846
 30
0.0
 10
26.39685671360582
 20
153.4564681724846
 30
0.0
 10
26.50752592788467
 20
153.4564681724846
 30
0.0
 10
26.88096267576419
 20
153.4564681724846
 30
0.0
 10
27.18532644908407
 20
153.4564681724846
 30
0.0
 10
27.48614846132629
 20
153.4564681724846
 30
0.0
  0
SPLINE
  5
237
330
1F
100
AcDbEntity
  8
0
  6
Continuous
 62
     7
370
    15
100
AcDbSpline
210
0.0
220
0.0
230
1.0
 70
    24
 71
     3
 72
    14
 73
    10
 74
     0
 42
0.00000001
 43
0.00000001
 12
1.0
 22
0.0
 32
0.0
 13
1.0
 23
0.0
 33
0.0
 40
0.0
 40
0.0
 40
0.0
 40
0.0
 40
0.25
 40
0.25
 40
0.5
 40
0.5
 40
0.75
 40
0.75
 40
1.0
 40
1.0
 40
1.0
 40
1.0
 10
75.14484599589326
 20
171.0962630281482
 30
0.0
 10
75.14484599589326
 20
171.0962630281482
 30
0.0
 10
75.14484599589326
 20
171.0684565806997
 30
0.0
 10
75.14484599589326
 20
170.9645975712357
 30
0.0
 10
75.14484599589326
 20
170.8874065626633
 30
0.0
 10
75.14484599589326
 20
170.6982594849503
 30
0.0
 10
75.14484599589326
 20
170.5845552652476
 30
0.0
 10
75.14484599589326
 20
170.3397564982123
 30
0.0
 10
75.14484599589326
 20
170.2076276842825
 30
0.0
 10
75.14484599589326
 20
170.0752079933304
 30
0.0
  0
ARC
  5
238
330
1F
100
AcDbEntity
  8
0
  6
Continuous
 62
     7
370
    15
100
AcDbCircle
 10
65.1448459959
 20
122.1064681725
 30
0.0
 40
50.00000000000001
100
AcDbArc
 50
282.7090329944
 51
78.4630409672
  0
SPLINE
  5
239
330
1F
100
AcDbEntity
  8
0
  6
Continuous
 62
     7
370
    15
100
AcDbSpline
210
0.0
220
0.0
230
1.0
 70
    24
 71
     3
 72
    14
 73
    10
 74
     0
 42
0.00000001
 43
0.00000001
 12
1.0
 22
0.0
 32
0.0
 13
1.0
 23
0.0
 33
0.0
 40
0.0
 40
0.0
 40
0.0
 40
0.0
 40
0.25
 40
0.25
 40
0.5
 40
0.5
 40
0.75
 40
0.75
 40
1.0
 40
1.0
 40
1.0
 40
1.0
 10
76.14484599589326
 20
73.33147457945581
 30
0.0
 10
76.14484599589326
 20
73.33147457945583
 30
0.0
 10
76.14484599589326
 20
73.35894055605829
 30
0.0
 10
76.14484599589326
 20
73.46403411282496
 30
0.0
 10
76.14484599589326
 20
73.54153153551054
 30
0.0
 10
76.14484599589326
 20
73.7320151488467
 30
0.0
 10
76.14484599589326
 20
73.84641619852222
 30
0.0
 10
76.14484599589326
 20
74.09167809698508
 30
0.0
 10
76.14484599589326
 20
74.22493729180384
 30
0.0
 10
76.14484599589326
 20
74.35712262723221
 30
0.0
  0
LINE
  5
23A
330
1F
100
AcDbEntity
  8
0
  6
Continuous
 62
     7
370
    15
100
AcDbLine
 10
75.1448459959
 20
166.0064681725
 30
0.0
 11
55.1448459959
 21
166.0064681725
 31
0.0
  0
LINE
  5
23B
330
1F
100
AcDbEntity
  8
0
  6
Continuous
 62
     7
370
    15
100
AcDbLine
 10
76.1448459959
 20
78.2064681725
 30
0.0
 11
54.1448459959
 21
78.2064681725
 31
0.0
  0
LINE
  5
23C
330
1F
100
AcDbEntity
  8
0
  6
Continuous
 62
     7
370
    15
100
AcDbLine
 10
76.1448459959
 20
74.3571226272
 30
0.0
 11
76.1448459959
 21
78.2064681725
 31
0.0
  0
LINE
  5
23D
330
1F
100
AcDbEntity
  8
0
  6
Continuous
 62
     7
370
    15
100
AcDbLine
 10
75.1448459959
 20
170.0752079933
 30
0.0
 11
75.1448459959
 21
166.0064681725
 31
0.0
  0
LINE
  5
23E
330
1F
100
AcDbEntity
  8
0
  6
Continuous
 62
     7
370
    15
100
AcDbLine
 10
55.1448459959
 20
166.0064681725
 30
0.0
 11
55.1448459959
 21
170.0752079933
 31
0.0
  0
LINE
  5
23F
330
1F
100
AcDbEntity
  8
0
  6
Continuous
 62
     7
370
    15
100
AcDbLine
 10
54.1448459959
 20
78.2064681725
 30
0.0
 11
54.1448459959
 21
74.3571226272
 31
0.0
  0
LINE
  5
240
330
1F
100
AcDbEntity
  8
0
  6
Continuous
 62
     7
370
    15
100
AcDbLine
 10
27.4861484613
 20
153.4564681725
 30
0.0
 11
33.7948459959
 21
153.4564681725
 31
0.0
  0
LINE
  5
241
330
1F
100
AcDbEntity
  8
0
  6
Continuous
 62
     7
370
    15
100
AcDbLine
 10
33.7948459959
 20
159.7651657071
 30
0.0
 11
33.7948459959
 21
153.4564681725
 31
0.0
  0
SPLINE
  5
242
330
1F
100
AcDbEntity
  8
0
  6
Continuous
 62
     7
370
    15
100
AcDbSpline
210
0.0
220
0.0
230
1.0
 70
     8
 71
     3
 72
    30
 73
    26
 74
     0
 42
0.00000001
 43
0.00000001
 12
1.0
 22
0.0
 32
0.0
 13
1.0
 23
0.0
 33
0.0
 40
0.0
 40
0.0
 40
0.0
 40
0.0
 40
0.1249999999999996
 40
0.1249999999999996
 40
0.1874999999999994
 40
0.1874999999999994
 40
0.2499999999999993
 40
0.2499999999999993
 40
0.3749999999999992
 40
0.3749999999999992
 40
0.4374999999999993
 40
0.4374999999999993
 40
0.4999999999999994
 40
0.4999999999999994
 40
0.6249999999999992
 40
0.6249999999999992
 40
0.6874999999999993
 40
0.6874999999999993
 40
0.7499999999999994
 40
0.7499999999999994
 40
0.8124999999999997
 40
0.8124999999999997
 40
0.8749999999999998
 40
0.8749999999999998
 40
1.0
 40
1.0
 40
1.0
 40
1.0
 10
66.14484599589325
 20
72.11646917268466
 30
0.0
 10
66.80744879371026
 20
72.12972387984756
 30
0.0
 10
67.45837289330561
 20
72.15590875063216
 30
0.0
 10
68.41809166120333
 20
72.21269540343265
 30
0.0
 10
68.73520002083812
 20
72.23454495430813
 30
0.0
 10
69.3637269330449
 20
72.28377845040853
 30
0.0
 10
69.67569286313332
 20
72.31125083916207
 30
0.0
 10
70.58257018912813
 20
72.39932456085538
 30
0.0
 10
71.15568763290878
 20
72.4660714168354
 30
0.0
 10
71.96910770780117
 20
72.57360782808014
 30
0.0
 10
72.23366269981754
 20
72.6108681215888
 30
0.0
 10
72.74092538722523
 20
72.68617553332012
 30
0.0
 10
72.98246965985925
 20
72.7240229583389
 30
0.0
 10
73.67199968935624
 20
72.83675526493566
 30
0.0
 10
74.08523048297369
 20
72.91085887002002
 30
0.0
 10
74.63361019213497
 20
73.01473805037017
 30
0.0
 10
74.80356494567526
 20
73.0479938034287
 30
0.0
 10
75.11214553474234
 20
73.10975706782928
 30
0.0
 10
75.2517411809331
 20
73.13844805937958
 30
0.0
 10
75.50186493016675
 20
73.19073979322054
 30
0.0
 10
75.61239349365938
 20
73.21434160412737
 30
0.0
 10
75.80383976487346
 20
73.25572157811725
 30
0.0
 10
75.88503765212471
 20
73.27356230476171
 30
0.0
 10
76.07960438188563
 20
73.31662590758437
 30
0.0
 10
76.14484599589326
 20
73.3314745794558
 30
0.0
 10
76.14484599589326
 20
73.33147457945581
 30
0.0
  0
SPLINE
  5
243
330
1F
100
AcDbEntity
  8
0
  6
Continuous
 62
     7
370
    15
100
AcDbSpline
210
0.0
220
0.0
230
1.0
 70
     8
 71
     3
 72
    30
 73
    26
 74
     0
 42
0.00000001
 43
0.00000001
 12
1.0
 22
0.0
 32
0.0
 13
1.0
 23
0.0
 33
0.0
 40
0.0
 40
0.0
 40
0.0
 40
0.0
 40
0.1250000000000002
 40
0.1250000000000002
 40
0.1875000000000003
 40
0.1875000000000003
 40
0.2500000000000004
 40
0.2500000000000004
 40
0.3750000000000001
 40
0.3750000000000001
 40
0.4374999999999998
 40
0.4374999999999998
 40
0.4999999999999996
 40
0.4999999999999996
 40
0.6249999999999996
 40
0.6249999999999996
 40
0.6874999999999997
 40
0.6874999999999997
 40
0.7499999999999997
 40
0.7499999999999997
 40
0.8124999999999998
 40
0.8124999999999998
 40
0.8749999999999999
 40
0.8749999999999999
 40
1.0
 40
1.0
 40
1.0
 40
1.0
 10
54.14484599589326
 20
73.3314745794558
 30
0.0
 10
54.14484599589326
 20
73.33147457945581
 30
0.0
 10
54.21007536966058
 20
73.31663450286699
 30
0.0
 10
54.40146678506954
 20
73.27426493863737
 30
0.0
 10
54.48097281472143
 20
73.25678683585821
 30
0.0
 10
54.67208437632453
 20
73.2154585493059
 30
0.0
 10
54.78407325789836
 20
73.19153327584822
 30
0.0
 10
55.16090023140769
 20
73.1127267593813
 30
0.0
 10
55.46804758110683
 20
73.05042073940481
 30
0.0
 10
56.01197157076437
 20
72.94729141916547
 30
0.0
 10
56.20833867047229
 20
72.91110750011894
 30
0.0
 10
56.62457631364964
 20
72.83731271591846
 30
0.0
 10
56.84361288611949
 20
72.79983885714681
 30
0.0
 10
57.53266024605077
 20
72.68712691380708
 30
0.0
 10
58.03428943148243
 20
72.61159081633328
 30
0.0
 10
58.85268664748336
 20
72.5031975593158
 30
0.0
 10
59.13496631249112
 20
72.46812532765254
 30
0.0
 10
59.70990076440771
 20
72.40188986705267
 30
0.0
 10
60.00376213868276
 20
72.37056317029797
 30
0.0
 10
60.60421768992236
 20
72.31215439871703
 30
0.0
 10
60.91081148974022
 20
72.28507116353418
 30
0.0
 10
61.5370430503966
 20
72.2358114089206
 30
0.0
 10
61.85828448444924
 20
72.21354942911296
 30
0.0
 10
62.82788840457467
 20
72.15598252194468
 30
0.0
 10
63.48229132289342
 20
72.12972291715869
 30
0.0
 10
64.14484599589325
 20
72.11646917268466
 30
0.0
  0
SPLINE
  5
244
330
1F
100
AcDbEntity
  8
0
  6
Continuous
 62
     7
370
    15
100
AcDbSpline
210
0.0
220
0.0
230
1.0
 70
     8
 71
     3
 72
    54
 73
    50
 74
     0
 42
0.00000001
 43
0.00000001
 12
1.0
 22
0.0
 32
0.0
 13
1.0
 23
0.0
 33
0.0
 40
0.0
 40
0.0
 40
0.0
 40
0.0
 40
0.0625000000000001
 40
0.0625000000000001
 40
0.0937500000000001
 40
0.0937500000000001
 40
0.1250000000000001
 40
0.1250000000000001
 40
0.1875000000000002
 40
0.1875000000000002
 40
0.2187500000000001
 40
0.2187500000000001
 40
0.2500000000000001
 40
0.2500000000000001
 40
0.3125
 40
0.3125
 40
0.3437499999999999
 40
0.3437499999999999
 40
0.3749999999999999
 40
0.3749999999999999
 40
0.4062499999999998
 40
0.4062499999999998
 40
0.4374999999999998
 40
0.4374999999999998
 40
0.4999999999999997
 40
0.4999999999999997
 40
0.5624999999999997
 40
0.5624999999999997
 40
0.6249999999999996
 40
0.6249999999999996
 40
0.6562499999999994
 40
0.6562499999999994
 40
0.6874999999999994
 40
0.6874999999999994
 40
0.7187499999999993
 40
0.7187499999999993
 40
0.7499999999999993
 40
0.7499999999999993
 40
0.8124999999999992
 40
0.8124999999999992
 40
0.8437499999999992
 40
0.8437499999999992
 40
0.8749999999999993
 40
0.8749999999999993
 40
0.9374999999999997
 40
0.9374999999999997
 40
0.9687499999999998
 40
0.9687499999999998
 40
1.0
 40
1.0
 40
1.0
 40
1.0
 10
55.14484599589326
 20
171.0962630281482
 30
0.0
 10
55.14484599589326
 20
171.0962630281482
 30
0.0
 10
55.20999887934595
 20
171.1096896379369
 30
0.0
 10
55.40121780251108
 20
171.1479397545493
 30
0.0
 10
55.4806563427087
 20
171.1637092448628
 30
0.0
 10
55.67161918817447
 20
171.2009427815042
 30
0.0
 10
55.78356013670291
 20
171.2224803900162
 30
0.0
 10
56.16031945493061
 20
171.29329160311
 30
0.0
 10
56.46747701858132
 20
171.3491179703749
 30
0.0
 10
57.01152477134039
 20
171.4408670107167
 30
0.0
 10
57.2079043167662
 20
171.4729490059969
 30
0.0
 10
57.62460820423622
 20
171.5381432064174
 30
0.0
 10
57.8438957197823
 20
171.5711027887203
 30
0.0
 10
58.53372363703642
 20
171.6696487782932
 30
0.0
 10
59.03591165183626
 20
171.7349166980669
 30
0.0
 10
59.8550873919866
 20
171.8266245417227
 30
0.0
 10
60.13796327403956
 20
171.8559884081365
 30
0.0
 10
60.71378707422684
 20
171.9105779938704
 30
0.0
 10
61.00805030826564
 20
171.9359554380013
 30
0.0
 10
61.60919830824405
 20
171.9822145341611
 30
0.0
 10
61.91608277668494
 20
172.003097346753
 30
0.0
 10
62.54275634705449
 20
172.0397000360399
 30
0.0
 10
62.86444688292331
 20
172.0554838759463
 30
0.0
 10
63.83298632364484
 20
172.0934323095144
 30
0.0
 10
64.4828242258882
 20
172.1063613811749
 30
0.0
 10
65.79063719895723
 20
172.1065736466378
 30
0.0
 10
66.45506469783717
 20
172.0934258670346
 30
0.0
 10
67.73878379710523
 20
172.0432692242851
 30
0.0
 10
68.36292351250749
 20
172.0065065226509
 30
0.0
 10
69.27248079017261
 20
171.9367310010892
 30
0.0
 10
69.57208788395941
 20
171.9109224896236
 30
0.0
 10
70.14964141734748
 20
171.8562034818591
 30
0.0
 10
70.42912216584658
 20
171.8271928324428
 30
0.0
 10
70.96994236160937
 20
171.7667368757632
 30
0.0
 10
71.23128119476577
 20
171.7352900662227
 30
0.0
 10
71.73572891499467
 20
171.6708194578302
 30
0.0
 10
71.97976453520198
 20
171.6376606318438
 30
0.0
 10
72.67713567616715
 20
171.5380892637729
 30
0.0
 10
73.08978520917219
 20
171.4725782783082
 30
0.0
 10
73.63303128058055
 20
171.3810501807936
 30
0.0
 10
73.80139684168151
 20
171.3516609942489
 30
0.0
 10
74.11198063266353
 20
171.2960543163474
 30
0.0
 10
74.25374937485294
 20
171.2699118047733
 30
0.0
 10
74.63029661636067
 20
171.1991506082251
 30
0.0
 10
74.82039324907574
 20
171.1615501845575
 30
0.0
 10
75.01377809962183
 20
171.1228786958688
 30
0.0
 10
75.0629387130543
 20
171.1129223751295
 30
0.0
 10
75.12843478082613
 20
171.0996214863457
 30
0.0
 10
75.14484599589326
 20
171.0962630281482
 30
0.0
 10
75.14484599589326
 20
171.0962630281482
 30
0.0
  0
SPLINE
  5
245
330
1F
100
AcDbEntity
  8
0
  6
Continuous
 62
     7
370
    15
100
AcDbSpline
210
0.0
220
0.0
230
1.0
 70
     8
 71
     3
 72
    22
 73
    18
 74
     0
 42
0.00000001
 43
0.00000001
 12
1.0
 22
0.0
 32
0.0
 13
1.0
 23
0.0
 33
0.0
 40
0.0
 40
0.0
 40
0.0
 40
0.0
 40
0.2500000000000002
 40
0.2500000000000002
 40
0.3750000000000003
 40
0.3750000000000003
 40
0.5000000000000004
 40
0.5000000000000004
 40
0.6250000000000004
 40
0.6250000000000004
 40
0.7500000000000004
 40
0.7500000000000004
 40
0.8750000000000004
 40
0.8750000000000004
 40
0.9375000000000002
 40
0.9375000000000002
 40
1.0
 40
1.0
 40
1.0
 40
1.0
 10
26.19388323500633
 20
153.4564681724846
 30
0.0
 10
27.01423196460286
 20
154.4757145143492
 30
0.0
 10
27.85238257857307
 20
155.4348226642885
 30
0.0
 10
29.1127761160645
 20
156.7773017417978
 30
0.0
 10
29.53630326991773
 20
157.2115103245378
 30
0.0
 10
30.35511870190456
 20
158.0231380400399
 30
0.0
 10
30.75195508534392
 20
158.4024183329768
 30
0.0
 10
31.50933358232867
 20
159.1053769119978
 30
0.0
 10
31.87162173604395
 20
159.4304057296984
 30
0.0
 10
32.51646851505097
 20
159.9954210530892
 30
0.0
 10
32.80292885877515
 20
160.2391246472958
 30
0.0
 10
33.28562766670871
 20
160.6433245749407
 30
0.0
 10
33.47205799010752
 20
160.7957617679862
 30
0.0
 10
33.66307122075044
 20
160.9510893155949
 30
0.0
 10
33.71195633133378
 20
160.990594095645
 30
0.0
 10
33.77801712078774
 20
161.0439032163137
 30
0.0
 10
33.79484599589325
 20
161.0574309333715
 30
0.0
 10
33.79484599589326
 20
161.0574309333715
 30
0.0
  0
ARC
  5
246
330
1F
100
AcDbEntity
  8
0
  6
Continuous
 62
     7
370
    15
100
AcDbCircle
 10
65.1448459959
 20
122.1064681725
 30
0.0
 40
50.0
100
AcDbArc
 50
268.8540080016
 51
271.1459919984
  0
LINE
  5
247
330
1F
100
AcDbEntity
  8
0
  6
Continuous
 62
     7
370
    15
100
AcDbLine
 10
62.6448459959
 20
139.1064681725
 30
0.0
 11
67.6448459959
 21
139.1064681725
 31
0.0
  0
LINE
  5
248
330
1F
100
AcDbEntity
  8
0
  6
Continuous
 62
     7
370
    15
100
AcDbLine
 10
48.1448459959
 20
119.6064681725
 30
0.0
 11
48.1448459959
 21
124.6064681725
 31
0.0
  0
LINE
  5
249
330
1F
100
AcDbEntity
  8
0
  6
Continuous
 62
     7
370
    15
100
AcDbLine
 10
82.1448459959
 20
124.6064681725
 30
0.0
 11
82.1448459959
 21
119.6064681725
 31
0.0
  0
LINE
  5
24A
330
1F
100
AcDbEntity
  8
0
  6
HIDDEN
 62
     7
370
     0
100
AcDbLine
 10
67.2661663395
 20
124.227788516
 30
0.0
 11
67.6448459959
 21
124.6064681725
 31
0.0
  0
SPLINE
  5
24B
330
1F
100
AcDbEntity
  8
0
  6
HIDDEN
 62
     7
370
     0
100
AcDbSpline
210
0.0
220
0.0
230
1.0
 70
    11
 71
     3
 72
    68
 73
    64
 74
     0
 42
0.00000001
 43
0.00000001
 12
1.0
 22
0.0
 32
0.0
 13
1.0
 23
0.0
 33
0.0
 40
-0.0312500000000004
 40
-0.0312500000000004
 40
0.0
 40
0.0
 40
0.0312500000000006
 40
0.0312500000000006
 40
0.0624999999999999
 40
0.0624999999999999
 40
0.0937499999999991
 40
0.0937499999999991
 40
0.1249999999999984
 40
0.1249999999999984
 40
0.1562499999999977
 40
0.1562499999999977
 40
0.1874999999999969
 40
0.1874999999999969
 40
0.2187499999999962
 40
0.2187499999999962
 40
0.2499999999999954
 40
0.2499999999999954
 40
0.2812499999999947
 40
0.2812499999999947
 40
0.3124999999999939
 40
0.3124999999999939
 40
0.3437499999999932
 40
0.3437499999999932
 40
0.3749999999999925
 40
0.3749999999999925
 40
0.4062499999999917
 40
0.4062499999999917
 40
0.437499999999991
 40
0.437499999999991
 40
0.4687499999999902
 40
0.4687499999999902
 40
0.4999999999999908
 40
0.4999999999999908
 40
0.5312499999999913
 40
0.5312499999999913
 40
0.5624999999999919
 40
0.5624999999999919
 40
0.5937499999999926
 40
0.5937499999999926
 40
0.6249999999999931
 40
0.6249999999999931
 40
0.6562499999999937
 40
0.6562499999999937
 40
0.6874999999999942
 40
0.6874999999999942
 40
0.7187499999999949
 40
0.7187499999999949
 40
0.7499999999999954
 40
0.7499999999999954
 40
0.781249999999996
 40
0.781249999999996
 40
0.8124999999999966
 40
0.8124999999999966
 40
0.8437499999999972
 40
0.8437499999999972
 40
0.8749999999999978
 40
0.8749999999999978
 40
0.9374999999999989
 40
0.9374999999999989
 40
0.9687499999999996
 40
0.9687499999999996
 40
1.0
 40
1.0
 40
1.031250000000001
 40
1.031250000000001
 10
81.9600177166935
 20
124.6064681724846
 30
0.0
 10
81.96001771669349
 20
124.6064681724846
 30
0.0
 10
81.96245678690511
 20
124.5902155916688
 30
0.0
 10
81.97173236057344
 20
124.5265775151389
 30
0.0
 10
81.97867915557458
 20
124.4784033409266
 30
0.0
 10
81.99589359564234
 20
124.3528452740125
 30
0.0
 10
82.00608235245684
 20
124.2760443604059
 30
0.0
 10
82.02843411990617
 20
124.0946342535219
 30
0.0
 10
82.04066648836631
 20
123.9891935652494
 30
0.0
 10
82.06474291958328
 20
123.7588885518491
 30
0.0
 10
82.0767073782595
 20
123.6331817383393
 30
0.0
 10
82.09912185679254
 20
123.3599889008168
 30
0.0
 10
82.1093453623935
 20
123.2148187725305
 30
0.0
 10
82.126318515614
 20
122.9141010535505
 30
0.0
 10
82.13318787593737
 20
122.7563238995704
 30
0.0
 10
82.1424667162726
 20
122.4335188496251
 30
0.0
 10
82.14483238193773
 20
122.2711645074836
 30
0.0
 10
82.14485949268882
 20
121.9445944030595
 30
0.0
 10
82.14244348142088
 20
121.778704956316
 30
0.0
 10
82.1332278459347
 20
121.4579073634073
 30
0.0
 10
82.12647683843677
 20
121.3019610919042
 30
0.0
 10
82.1094135666891
 20
120.9990094368963
 30
0.0
 10
82.09911037770162
 20
120.8529317658435
 30
0.0
 10
82.07692581694667
 20
120.5822939093159
 30
0.0
 10
82.06492720449384
 20
120.4558372531415
 30
0.0
 10
82.04056570435748
 20
120.2227521454401
 30
0.0
 10
82.02857094178933
 20
120.1194726028871
 30
0.0
 10
82.00627766044737
 20
119.9384179738395
 30
0.0
 10
81.99588283441757
 20
119.8600113928341
 30
0.0
 10
81.97867814190478
 20
119.7345267996741
 30
0.0
 10
81.97184497985087
 20
119.6871383526583
 30
0.0
 10
81.96249263639943
 20
119.6229599566168
 30
0.0
 10
81.96002705810191
 20
119.6065310034441
 30
0.0
 10
81.96000843001441
 20
119.6064057096385
 30
0.0
 10
81.962377436605
 20
119.6221806824857
 30
0.0
 10
81.97171741572338
 20
119.6862520018096
 30
0.0
 10
81.97862546421756
 20
119.7341656287368
 30
0.0
 10
81.99570703198467
 20
119.858706421412
 30
0.0
 10
82.0060179355837
 20
119.9363725710508
 30
0.0
 10
82.02847970473064
 20
120.1186686642403
 30
0.0
 10
82.04046220717848
 20
120.2219125750969
 30
0.0
 10
82.06455681096294
 20
120.4521456848472
 30
0.0
 10
82.07677226158465
 20
120.5805665635298
 30
0.0
 10
82.09902165997518
 20
120.8517051117943
 30
0.0
 10
82.10915773325519
 20
120.9951087633185
 30
0.0
 10
82.12628274436936
 20
121.2978901513617
 30
0.0
 10
82.13316964648527
 20
121.4565275347846
 30
0.0
 10
82.14238885250003
 20
121.7761650880099
 30
0.0
 10
82.14482511671324
 20
121.9390807913981
 30
0.0
 10
82.14486660716561
 20
122.2695873313156
 30
0.0
 10
82.14247952941619
 20
122.4321490937631
 30
0.0
 10
82.13333525399896
 20
122.7521047030925
 30
0.0
 10
82.12646502544894
 20
122.9111884833789
 30
0.0
 10
82.10942289923305
 20
123.2137577165526
 30
0.0
 10
82.0993120404981
 20
123.3573442600639
 30
0.0
 10
82.07705442781396
 20
123.6292706751519
 30
0.0
 10
82.06486022107356
 20
123.7576896695746
 30
0.0
 10
82.0287574442867
 20
124.1032629676085
 30
0.0
 10
82.00453687238615
 20
124.2897567449061
 30
0.0
 10
81.97883390224409
 20
124.4772976748266
 30
0.0
 10
81.97187541297836
 20
124.5255893429272
 30
0.0
 10
81.96245806155099
 20
124.5902134592994
 30
0.0
 10
81.9600177166935
 20
124.6064681724846
 30
0.0
 10
81.96001771669349
 20
124.6064681724846
 30
0.0
  0
SPLINE
  5
24C
330
1F
100
AcDbEntity
  8
0
  6
HIDDEN
 62
     7
370
     0
100
AcDbSpline
210
0.0
220
0.0
230
1.0
 70
    11
 71
     3
 72
    60
 73
    56
 74
     0
 42
0.00000001
 43
0.00000001
 12
1.0
 22
0.0
 32
0.0
 13
1.0
 23
0.0
 33
0.0
 40
0.0
 40
0.0
 40
0.0
 40
0.0
 40
0.0625000000000038
 40
0.0625000000000038
 40
0.1250000000000077
 40
0.1250000000000077
 40
0.1562500000000093
 40
0.1562500000000093
 40
0.1875000000000109
 40
0.1875000000000109
 40
0.2187500000000126
 40
0.2187500000000126
 40
0.2500000000000142
 40
0.2500000000000142
 40
0.2812500000000158
 40
0.2812500000000158
 40
0.3125000000000175
 40
0.3125000000000175
 40
0.3437500000000191
 40
0.3437500000000191
 40
0.3750000000000208
 40
0.3750000000000208
 40
0.4375000000000241
 40
0.4375000000000241
 40
0.4687500000000251
 40
0.4687500000000251
 40
0.5000000000000262
 40
0.5000000000000262
 40
0.5312500000000272
 40
0.5312500000000272
 40
0.5625000000000268
 40
0.5625000000000268
 40
0.5937500000000264
 40
0.5937500000000264
 40
0.625000000000026
 40
0.625000000000026
 40
0.687500000000023
 40
0.687500000000023
 40
0.7187500000000208
 40
0.7187500000000208
 40
0.7500000000000184
 40
0.7500000000000184
 40
0.7812500000000161
 40
0.7812500000000161
 40
0.8125000000000138
 40
0.8125000000000138
 40
0.8437500000000115
 40
0.8437500000000115
 40
0.8750000000000092
 40
0.8750000000000092
 40
0.9062500000000069
 40
0.9062500000000069
 40
0.9375000000000046
 40
0.9375000000000046
 40
1.0
 40
1.0
 40
1.0
 40
1.0
 10
67.26616633945288
 20
124.2277885160443
 30
0.0
 10
67.40043586032633
 20
124.0935189951708
 30
0.0
 10
67.53792293698957
 20
123.9308859406988
 30
0.0
 10
67.79300215842679
 20
123.5356589847341
 30
0.0
 10
67.90546292401372
 20
123.3114822789781
 30
0.0
 10
68.03366550499007
 20
122.9268266606043
 30
0.0
 10
68.06835680366359
 20
122.7940176526033
 30
0.0
 10
68.11972168207113
 20
122.518480772473
 30
0.0
 10
68.13633437383987
 20
122.3739784686773
 30
0.0
 10
68.14821103680575
 20
122.0874181073013
 30
0.0
 10
68.14389993574895
 20
121.9444033034203
 30
0.0
 10
68.11474140898599
 20
121.658907236701
 30
0.0
 10
68.08992112147253
 20
121.5186387303484
 30
0.0
 10
68.02358595717398
 20
121.2509758091795
 30
0.0
 10
67.98143744808364
 20
121.1211021303789
 30
0.0
 10
67.88463575807367
 20
120.8773427262318
 30
0.0
 10
67.8301598467728
 20
120.7633059622232
 30
0.0
 10
67.71175774840137
 20
120.548919054275
 30
0.0
 10
67.64782504598122
 20
120.4488554537738
 30
0.0
 10
67.51704259732605
 20
120.2665585729222
 30
0.0
 10
67.4496977531663
 20
120.1834502645182
 30
0.0
 10
67.24644873940095
 20
119.955974299455
 30
0.0
 10
67.10734937460965
 20
119.8330160254141
 30
0.0
 10
66.94040327226666
 20
119.7021023285695
 30
0.0
 10
66.89132397139548
 20
119.666886861864
 30
0.0
 10
66.82277441567972
 20
119.6192411003988
 30
0.0
 10
66.80309180359674
 20
119.6064240033442
 30
0.0
 10
66.8032253349455
 20
119.6065125780342
 30
0.0
 10
66.82255595323457
 20
119.6190873496885
 30
0.0
 10
66.89172585454949
 20
119.6671681052528
 30
0.0
 10
66.93984136010847
 20
119.70168366515
 30
0.0
 10
67.05111368680035
 20
119.7888960862542
 30
0.0
 10
67.11459993163992
 20
119.8419680282222
 30
0.0
 10
67.24514085283369
 20
119.9624875324919
 30
0.0
 10
67.31273775729798
 20
120.0302812336475
 30
0.0
 10
67.5158375555338
 20
120.2572449299392
 30
0.0
 10
67.65221063696752
 20
120.4417060359697
 30
0.0
 10
67.82770566763823
 20
120.7585655108116
 30
0.0
 10
67.88198430318748
 20
120.8714721729772
 30
0.0
 10
67.97916718435323
 20
121.1146190747366
 30
0.0
 10
68.02156873214128
 20
121.2442545243479
 30
0.0
 10
68.08843573112628
 20
121.5112996695291
 30
0.0
 10
68.11358324351839
 20
121.6512134859922
 30
0.0
 10
68.14350811887648
 20
121.9371071758062
 30
0.0
 10
68.14815922056125
 20
122.0802514010486
 30
0.0
 10
68.13695843117017
 20
122.3669308746733
 30
0.0
 10
68.12067766383159
 20
122.5116754966177
 30
0.0
 10
68.06973743453337
 20
122.7882138461823
 30
0.0
 10
68.03515879769701
 20
122.9216264132587
 30
0.0
 10
67.94982305949186
 20
123.1790793426941
 30
0.0
 10
67.90027266346446
 20
123.2995845723018
 30
0.0
 10
67.7904226376245
 20
123.5266185506493
 30
0.0
 10
67.72958849075926
 20
123.6338108411188
 30
0.0
 10
67.53952880699929
 20
123.9286020322712
 30
0.0
 10
67.40183891299458
 20
124.0921159425026
 30
0.0
 10
67.2661663394529
 20
124.2277885160443
 30
0.0
  0
LINE
  5
24D
330
1F
100
AcDbEntity
  8
0
  6
HIDDEN
 62
     7
370
     0
100
AcDbLine
 10
63.0235256523
 20
124.227788516
 30
0.0
 11
62.6448459959
 21
124.6064681725
 31
0.0
  0
SPLINE
  5
24E
330
1F
100
AcDbEntity
  8
0
  6
HIDDEN
 62
     7
370
     0
100
AcDbSpline
210
0.0
220
0.0
230
1.0
 70
    11
 71
     3
 72
    68
 73
    64
 74
     0
 42
0.00000001
 43
0.00000001
 12
1.0
 22
0.0
 32
0.0
 13
1.0
 23
0.0
 33
0.0
 40
-0.0312500000000006
 40
-0.0312500000000006
 40
0.0
 40
0.0
 40
0.0312500000000006
 40
0.0312500000000006
 40
0.0624999999999998
 40
0.0624999999999998
 40
0.0937499999999991
 40
0.0937499999999991
 40
0.1249999999999983
 40
0.1249999999999983
 40
0.1562499999999976
 40
0.1562499999999976
 40
0.1874999999999968
 40
0.1874999999999968
 40
0.218749999999996
 40
0.218749999999996
 40
0.2499999999999953
 40
0.2499999999999953
 40
0.2812499999999945
 40
0.2812499999999945
 40
0.3124999999999937
 40
0.3124999999999937
 40
0.343749999999993
 40
0.343749999999993
 40
0.3749999999999922
 40
0.3749999999999922
 40
0.4062499999999915
 40
0.4062499999999915
 40
0.4374999999999907
 40
0.4374999999999907
 40
0.46874999999999
 40
0.46874999999999
 40
0.4999999999999906
 40
0.4999999999999906
 40
0.5312499999999911
 40
0.5312499999999911
 40
0.5624999999999917
 40
0.5624999999999917
 40
0.5937499999999922
 40
0.5937499999999922
 40
0.6249999999999928
 40
0.6249999999999928
 40
0.6562499999999933
 40
0.6562499999999933
 40
0.6874999999999939
 40
0.6874999999999939
 40
0.7187499999999946
 40
0.7187499999999946
 40
0.7499999999999952
 40
0.7499999999999952
 40
0.7812499999999959
 40
0.7812499999999959
 40
0.8124999999999964
 40
0.8124999999999964
 40
0.843749999999997
 40
0.843749999999997
 40
0.8749999999999976
 40
0.8749999999999976
 40
0.9374999999999988
 40
0.9374999999999988
 40
0.9687499999999994
 40
0.9687499999999994
 40
1.0
 40
1.0
 40
1.03125
 40
1.03125
 10
62.64484599589325
 20
138.9216398932849
 30
0.0
 10
62.64484599589325
 20
138.9216398932849
 30
0.0
 10
62.661098576709
 20
138.9240789634965
 30
0.0
 10
62.72473665323886
 20
138.9333545371648
 30
0.0
 10
62.77291082745121
 20
138.9403013321659
 30
0.0
 10
62.89846889436527
 20
138.9575157722337
 30
0.0
 10
62.97526980797191
 20
138.9677045290482
 30
0.0
 10
63.15667991485592
 20
138.9900562964975
 30
0.0
 10
63.26212060312839
 20
139.0022886649577
 30
0.0
 10
63.49242561652865
 20
139.0263650961746
 30
0.0
 10
63.61813243003847
 20
139.0383295548509
 30
0.0
 10
63.89132526756103
 20
139.0607440333839
 30
0.0
 10
64.0364953958473
 20
139.0709675389849
 30
0.0
 10
64.33721311482729
 20
139.0879406922053
 30
0.0
 10
64.49499026880736
 20
139.0948100525287
 30
0.0
 10
64.81779531875269
 20
139.1040888928639
 30
0.0
 10
64.98014966089417
 20
139.1064545585291
 30
0.0
 10
65.30671976531832
 20
139.1064816692802
 30
0.0
 10
65.47260921206181
 20
139.1040656580122
 30
0.0
 10
65.7934068049705
 20
139.0948500225261
 30
0.0
 10
65.94935307647356
 20
139.0880990150281
 30
0.0
 10
66.25230473148152
 20
139.0710357432804
 30
0.0
 10
66.39838240253434
 20
139.060732554293
 30
0.0
 10
66.66902025906191
 20
139.038547993538
 30
0.0
 10
66.79547691523628
 20
139.0265493810852
 30
0.0
 10
67.02856202293772
 20
139.0021878809488
 30
0.0
 10
67.13184156549065
 20
138.9901931183807
 30
0.0
 10
67.31289619453825
 20
138.9678998370387
 30
0.0
 10
67.39130277554365
 20
138.9575050110089
 30
0.0
 10
67.51678736870373
 20
138.9403003184961
 30
0.0
 10
67.56417581571952
 20
138.9334671564422
 30
0.0
 10
67.628354211761
 20
138.9241148129908
 30
0.0
 10
67.64478316493373
 20
138.9216492346933
 30
0.0
 10
67.64490845873927
 20
138.9216306066058
 30
0.0
 10
67.62913348589213
 20
138.9239996131963
 30
0.0
 10
67.56506216656815
 20
138.9333395923148
 30
0.0
 10
67.51714853964101
 20
138.9402476408089
 30
0.0
 10
67.39260774696584
 20
138.957329208576
 30
0.0
 10
67.31494159732696
 20
138.967640112175
 30
0.0
 10
67.13264550413747
 20
138.990101881322
 30
0.0
 10
67.02940159328085
 20
139.0020843837698
 30
0.0
 10
66.79916848353061
 20
139.0261789875543
 30
0.0
 10
66.670747604848
 20
139.038394438176
 30
0.0
 10
66.39960905658349
 20
139.0606438365666
 30
0.0
 10
66.25620540505928
 20
139.0707799098466
 30
0.0
 10
65.95342401701612
 20
139.0879049209607
 30
0.0
 10
65.79478663359322
 20
139.0947918230766
 30
0.0
 10
65.47514908036784
 20
139.1040110290914
 30
0.0
 10
65.31223337697968
 20
139.1064472933046
 30
0.0
 10
64.98172683706218
 20
139.106488783757
 30
0.0
 10
64.8191650746147
 20
139.1041017060076
 30
0.0
 10
64.49920946528528
 20
139.0949574305903
 30
0.0
 10
64.34012568499894
 20
139.0880872020403
 30
0.0
 10
64.03755645182515
 20
139.0710450758244
 30
0.0
 10
63.89396990831393
 20
139.0609342170895
 30
0.0
 10
63.62204349322591
 20
139.0386766044053
 30
0.0
 10
63.49362449880321
 20
139.0264823976649
 30
0.0
 10
63.1480512007693
 20
138.990379620878
 30
0.0
 10
62.96155742347166
 20
138.9661590489775
 30
0.0
 10
62.77401649355119
 20
138.9404560788354
 30
0.0
 10
62.72572482545055
 20
138.9334975895697
 30
0.0
 10
62.66110070907839
 20
138.9240802381424
 30
0.0
 10
62.64484599589325
 20
138.9216398932849
 30
0.0
 10
62.64484599589325
 20
138.9216398932849
 30
0.0
  0
SPLINE
  5
24F
330
1F
100
AcDbEntity
  8
0
  6
HIDDEN
 62
     7
370
     0
100
AcDbSpline
210
0.0
220
0.0
230
1.0
 70
     8
 71
     3
 72
    22
 73
    18
 74
     0
 42
0.00000001
 43
0.00000001
 12
1.0
 22
0.0
 32
0.0
 13
1.0
 23
0.0
 33
0.0
 40
0.0
 40
0.0
 40
0.0
 40
0.0
 40
0.125
 40
0.125
 40
0.25
 40
0.25
 40
0.375
 40
0.375
 40
0.5
 40
0.5
 40
0.625
 40
0.625
 40
0.75
 40
0.75
 40
0.875
 40
0.875
 40
1.0
 40
1.0
 40
1.0
 40
1.0
 10
63.0235256523336
 20
124.2277885160443
 30
0.0
 10
63.12900789312597
 20
124.3332707568366
 30
0.0
 10
63.25221736519673
 20
124.4408148083333
 30
0.0
 10
63.53931270703722
 20
124.6468382652871
 30
0.0
 10
63.70316654941615
 20
124.744855955179
 30
0.0
 10
64.06395709859059
 20
124.9120356569614
 30
0.0
 10
64.26587519086722
 20
124.9830473142266
 30
0.0
 10
64.68994922585104
 20
125.0797434983497
 30
0.0
 10
64.91808845008771
 20
125.1063271354181
 30
0.0
 10
65.36785622281198
 20
125.1066080393511
 30
0.0
 10
65.59578722474863
 20
125.0803833107961
 30
0.0
 10
66.02096780625803
 20
124.9839548909879
 30
0.0
 10
66.22281971088118
 20
124.9132188630949
 30
0.0
 10
66.58531762208382
 20
124.7455813310259
 30
0.0
 10
66.74991953330911
 20
124.6471008645651
 30
0.0
 10
67.03642562742812
 20
124.4416345550243
 30
0.0
 10
67.1600476298878
 20
124.3339072256093
 30
0.0
 10
67.26616633945288
 20
124.2277885160443
 30
0.0
  0
SPLINE
  5
250
330
1F
100
AcDbEntity
  8
0
  6
HIDDEN
 62
     7
370
     0
100
AcDbSpline
210
0.0
220
0.0
230
1.0
 70
     8
 71
     3
 72
    22
 73
    18
 74
     0
 42
0.00000001
 43
0.00000001
 12
1.0
 22
0.0
 32
0.0
 13
1.0
 23
0.0
 33
0.0
 40
0.0
 40
0.0
 40
0.0
 40
0.0
 40
0.125
 40
0.125
 40
0.25
 40
0.25
 40
0.375
 40
0.375
 40
0.5
 40
0.5
 40
0.625
 40
0.625
 40
0.75
 40
0.75
 40
0.875
 40
0.875
 40
1.0
 40
1.0
 40
1.0
 40
1.0
 10
67.26616633945288
 20
124.2277885160443
 30
0.0
 10
67.16112483594533
 20
124.3328300195518
 30
0.0
 10
67.03646497406767
 20
124.441672901287
 30
0.0
 10
66.74838786768142
 20
124.648132381115
 30
0.0
 10
66.58807625215078
 20
124.7439632172791
 30
0.0
 10
66.22849664357344
 20
124.9109280059775
 30
0.0
 10
66.02653139864887
 20
124.982226187123
 30
0.0
 10
65.60229332059302
 20
125.0793615868731
 30
0.0
 10
65.3741566566375
 20
125.1061389271169
 30
0.0
 10
64.92423262309335
 20
125.1067911142809
 30
0.0
 10
64.69585966674329
 20
125.0806895346264
 30
0.0
 10
64.27034210518998
 20
124.9844578145662
 30
0.0
 10
64.06821064065237
 20
124.9137459309951
 30
0.0
 10
63.70530074726172
 20
124.7461010217128
 30
0.0
 10
63.54051241215961
 20
124.6475646181954
 30
0.0
 10
63.25402677666847
 20
124.4422464313333
 30
0.0
 10
63.13007252757533
 20
124.334335391286
 30
0.0
 10
63.02352565233362
 20
124.2277885160443
 30
0.0
  0
SPLINE
  5
251
330
1F
100
AcDbEntity
  8
0
  6
HIDDEN
 62
     7
370
     0
100
AcDbSpline
210
0.0
220
0.0
230
1.0
 70
    11
 71
     3
 72
    68
 73
    64
 74
     0
 42
0.00000001
 43
0.00000001
 12
1.0
 22
0.0
 32
0.0
 13
1.0
 23
0.0
 33
0.0
 40
-0.0312500000000003
 40
-0.0312500000000003
 40
0.0
 40
0.0
 40
0.0312500000000006
 40
0.0312500000000006
 40
0.0624999999999999
 40
0.0624999999999999
 40
0.0937499999999991
 40
0.0937499999999991
 40
0.1249999999999984
 40
0.1249999999999984
 40
0.1562499999999977
 40
0.1562499999999977
 40
0.187499999999997
 40
0.187499999999997
 40
0.2187499999999963
 40
0.2187499999999963
 40
0.2499999999999956
 40
0.2499999999999956
 40
0.2812499999999948
 40
0.2812499999999948
 40
0.3124999999999942
 40
0.3124999999999942
 40
0.3437499999999934
 40
0.3437499999999934
 40
0.3749999999999928
 40
0.3749999999999928
 40
0.406249999999992
 40
0.406249999999992
 40
0.4374999999999913
 40
0.4374999999999913
 40
0.4687499999999905
 40
0.4687499999999905
 40
0.4999999999999911
 40
0.4999999999999911
 40
0.5312499999999917
 40
0.5312499999999917
 40
0.5624999999999922
 40
0.5624999999999922
 40
0.5937499999999929
 40
0.5937499999999929
 40
0.6249999999999934
 40
0.6249999999999934
 40
0.656249999999994
 40
0.656249999999994
 40
0.6874999999999946
 40
0.6874999999999946
 40
0.7187499999999952
 40
0.7187499999999952
 40
0.7499999999999958
 40
0.7499999999999958
 40
0.7812499999999963
 40
0.7812499999999963
 40
0.8124999999999969
 40
0.8124999999999969
 40
0.8437499999999976
 40
0.8437499999999976
 40
0.8749999999999981
 40
0.8749999999999981
 40
0.9374999999999991
 40
0.9374999999999991
 40
0.9687499999999997
 40
0.9687499999999997
 40
1.0
 40
1.0
 40
1.031250000000001
 40
1.031250000000001
 10
48.32967427509299
 20
119.6064681724848
 30
0.0
 10
48.32967427509299
 20
119.6064681724848
 30
0.0
 10
48.32723520488137
 20
119.6227207533005
 30
0.0
 10
48.31795963121305
 20
119.6863588298304
 30
0.0
 10
48.31101283621192
 20
119.7345330040427
 30
0.0
 10
48.29379839614415
 20
119.8600910709568
 30
0.0
 10
48.28360963932963
 20
119.9368919845634
 30
0.0
 10
48.26125787188032
 20
120.1183020914474
 30
0.0
 10
48.24902550342017
 20
120.2237427797199
 30
0.0
 10
48.22494907220322
 20
120.4540477931202
 30
0.0
 10
48.21298461352699
 20
120.57975460663
 30
0.0
 10
48.19057013499396
 20
120.8529474441526
 30
0.0
 10
48.18034662939299
 20
120.9981175724388
 30
0.0
 10
48.1633734761725
 20
121.2988352914188
 30
0.0
 10
48.15650411584914
 20
121.4566124453989
 30
0.0
 10
48.14722527551391
 20
121.7794174953442
 30
0.0
 10
48.14485960984877
 20
121.9417718374857
 30
0.0
 10
48.14483249909768
 20
122.2683419419099
 30
0.0
 10
48.14724851036562
 20
122.4342313886533
 30
0.0
 10
48.15646414585181
 20
122.755028981562
 30
0.0
 10
48.16321515334975
 20
122.9109752530651
 30
0.0
 10
48.18027842509742
 20
123.213926908073
 30
0.0
 10
48.1905816140849
 20
123.3600045791259
 30
0.0
 10
48.21276617483984
 20
123.6306424356534
 30
0.0
 10
48.22476478729267
 20
123.7570990918278
 30
0.0
 10
48.24912628742906
 20
123.9901841995293
 30
0.0
 10
48.26112104999719
 20
124.0934637420822
 30
0.0
 10
48.28341433133915
 20
124.2745183711298
 30
0.0
 10
48.29380915736895
 20
124.3529249521352
 30
0.0
 10
48.31101384988175
 20
124.4784095452952
 30
0.0
 10
48.31784701193564
 20
124.525797992311
 30
0.0
 10
48.3271993553871
 20
124.5899763883525
 30
0.0
 10
48.3296649336846
 20
124.6064053415253
 30
0.0
 10
48.32968356177211
 20
124.6065306353308
 30
0.0
 10
48.32731455518155
 20
124.5907556624837
 30
0.0
 10
48.31797457606315
 20
124.5266843431597
 30
0.0
 10
48.31106652756896
 20
124.4787707162325
 30
0.0
 10
48.29398495980184
 20
124.3542299235574
 30
0.0
 10
48.28367405620283
 20
124.2765637739185
 30
0.0
 10
48.26121228705588
 20
124.094267680729
 30
0.0
 10
48.24922978460804
 20
123.9910237698724
 30
0.0
 10
48.22513518082356
 20
123.7607906601221
 30
0.0
 10
48.21291973020187
 20
123.6323697814395
 30
0.0
 10
48.19067033181133
 20
123.361231233175
 30
0.0
 10
48.18053425853132
 20
123.2178275816508
 30
0.0
 10
48.16340924741714
 20
122.9150461936077
 30
0.0
 10
48.15652234530124
 20
122.7564088101848
 30
0.0
 10
48.14730313928647
 20
122.4367712569594
 30
0.0
 10
48.14486687507327
 20
122.2738555535712
 30
0.0
 10
48.14482538462091
 20
121.9433490136537
 30
0.0
 10
48.14721246237031
 20
121.7807872512062
 30
0.0
 10
48.15635673778755
 20
121.4608316418768
 30
0.0
 10
48.16322696633758
 20
121.3017478615905
 30
0.0
 10
48.18026909255344
 20
120.9991786284167
 30
0.0
 10
48.19037995128839
 20
120.8555920849055
 30
0.0
 10
48.21263756397254
 20
120.5836656698174
 30
0.0
 10
48.22483177071293
 20
120.4552466753947
 30
0.0
 10
48.2609345474998
 20
120.1096733773608
 30
0.0
 10
48.28515511940034
 20
119.9231796000632
 30
0.0
 10
48.31085808954241
 20
119.7356386701427
 30
0.0
 10
48.31781657880813
 20
119.6873470020421
 30
0.0
 10
48.32723393023549
 20
119.6227228856699
 30
0.0
 10
48.32967427509299
 20
119.6064681724848
 30
0.0
 10
48.32967427509299
 20
119.6064681724848
 30
0.0
  0
SPLINE
  5
252
330
1F
100
AcDbEntity
  8
0
  6
HIDDEN
 62
     7
370
     0
100
AcDbSpline
210
0.0
220
0.0
230
1.0
 70
    11
 71
     3
 72
    58
 73
    54
 74
     0
 42
0.00000001
 43
0.00000001
 12
1.0
 22
0.0
 32
0.0
 13
1.0
 23
0.0
 33
0.0
 40
0.0
 40
0.0
 40
0.0
 40
0.0
 40
0.0312499999999997
 40
0.0312499999999997
 40
0.0624999999999995
 40
0.0624999999999995
 40
0.0937499999999992
 40
0.0937499999999992
 40
0.1249999999999989
 40
0.1249999999999989
 40
0.1562499999999987
 40
0.1562499999999987
 40
0.1874999999999984
 40
0.1874999999999984
 40
0.2499999999999976
 40
0.2499999999999976
 40
0.2812499999999968
 40
0.2812499999999968
 40
0.312499999999996
 40
0.312499999999996
 40
0.3749999999999944
 40
0.3749999999999944
 40
0.4062499999999946
 40
0.4062499999999946
 40
0.4374999999999949
 40
0.4374999999999949
 40
0.4687499999999951
 40
0.4687499999999951
 40
0.4999999999999953
 40
0.4999999999999953
 40
0.5312499999999956
 40
0.5312499999999956
 40
0.5624999999999957
 40
0.5624999999999957
 40
0.6249999999999961
 40
0.6249999999999961
 40
0.6562499999999963
 40
0.6562499999999963
 40
0.6874999999999966
 40
0.6874999999999966
 40
0.7187499999999967
 40
0.7187499999999967
 40
0.7499999999999969
 40
0.7499999999999969
 40
0.8124999999999973
 40
0.8124999999999973
 40
0.8437499999999977
 40
0.8437499999999977
 40
0.8749999999999979
 40
0.8749999999999979
 40
0.937499999999999
 40
0.937499999999999
 40
1.0
 40
1.0
 40
1.0
 40
1.0
 10
63.02352565233362
 20
124.2277885160443
 30
0.0
 10
62.95666269693671
 20
124.1609255606474
 30
0.0
 10
62.88854493736191
 20
124.0864941209673
 30
0.0
 10
62.75350839728701
 20
123.9211035939637
 30
0.0
 10
62.68649946176587
 20
123.8298372900958
 30
0.0
 10
62.56070846704586
 20
123.6347685452499
 30
0.0
 10
62.50134848841552
 20
123.5303649141442
 30
0.0
 10
62.39226350054619
 20
123.3059891640719
 30
0.0
 10
62.34210438962318
 20
123.1847948435598
 30
0.0
 10
62.25673363714922
 20
122.9292414853354
 30
0.0
 10
62.22191593698292
 20
122.7965522937167
 30
0.0
 10
62.17021748714595
 20
122.5203781368563
 30
0.0
 10
62.15353504945679
 20
122.3758540097999
 30
0.0
 10
62.13544727154471
 20
121.9465965103429
 30
0.0
 10
62.1663029488873
 20
121.6541957842838
 30
0.0
 10
62.26577342624804
 20
121.2520628894276
 30
0.0
 10
62.30802293825933
 20
121.1217810438865
 30
0.0
 10
62.40469300328922
 20
120.8781622746426
 30
0.0
 10
62.45919773501729
 20
120.7639406551426
 30
0.0
 10
62.63730500537677
 20
120.4413600544497
 30
0.0
 10
62.77185304415607
 20
120.2597217608402
 30
0.0
 10
62.97561114436026
 20
120.0316640556163
 30
0.0
 10
63.0445146400136
 20
119.9625080109415
 30
0.0
 10
63.17560945905286
 20
119.8415036163054
 30
0.0
 10
63.23811174843731
 20
119.7892766671966
 30
0.0
 10
63.3495374082386
 20
119.7019143598836
 30
0.0
 10
63.39860294445901
 20
119.6667197636167
 30
0.0
 10
63.46705377465742
 20
119.6191502684731
 30
0.0
 10
63.4867864348356
 20
119.6063004609303
 30
0.0
 10
63.48627568091861
 20
119.606639257499
 30
0.0
 10
63.46663771169482
 20
119.6194245226653
 30
0.0
 10
63.39757204764092
 20
119.6674513806159
 30
0.0
 10
63.34860298917719
 20
119.702618473559
 30
0.0
 10
63.18200141063017
 20
119.8333270877941
 30
0.0
 10
63.0427927075859
 20
119.9564746964064
 30
0.0
 10
62.84018155010205
 20
120.1832425523814
 30
0.0
 10
62.77286321839458
 20
120.2662671756443
 30
0.0
 10
62.64177366316455
 20
120.4489788353694
 30
0.0
 10
62.57778093800425
 20
120.5492279006894
 30
0.0
 10
62.46004505217098
 20
120.7623460916737
 30
0.0
 10
62.4057637198549
 20
120.8758127323753
 30
0.0
 10
62.30910878819866
 20
121.118703516266
 30
0.0
 10
62.26679587990967
 20
121.2486991514854
 30
0.0
 10
62.1671269015083
 20
121.6493580665679
 30
0.0
 10
62.13575092028207
 20
121.9415048174116
 30
0.0
 10
62.15305083052419
 20
122.3703397494314
 30
0.0
 10
62.16942221898142
 20
122.514666394347
 30
0.0
 10
62.22064904773318
 20
122.7911904876718
 30
0.0
 10
62.25527732079542
 20
122.92416314064
 30
0.0
 10
62.38299024483296
 20
123.3085836272344
 30
0.0
 10
62.49719085172289
 20
123.5364004687446
 30
0.0
 10
62.75100580806178
 20
123.9297381166953
 30
0.0
 10
62.88847604002835
 20
124.092738903739
 30
0.0
 10
63.02352565233362
 20
124.2277885160443
 30
0.0
  0
LINE
  5
253
330
1F
100
AcDbEntity
  8
0
  6
HIDDEN
 62
     7
370
     0
100
AcDbLine
 10
67.2661663395
 20
124.227788516
 30
0.0
 11
67.6448459959
 21
124.6064681725
 31
0.0
  0
SPLINE
  5
254
330
1F
100
AcDbEntity
  8
0
  6
HIDDEN
 62
     7
370
     0
100
AcDbSpline
210
0.0
220
0.0
230
1.0
 70
    11
 71
     3
 72
    68
 73
    64
 74
     0
 42
0.00000001
 43
0.00000001
 12
1.0
 22
0.0
 32
0.0
 13
1.0
 23
0.0
 33
0.0
 40
-0.0312500000000004
 40
-0.0312500000000004
 40
0.0
 40
0.0
 40
0.0312499999999999
 40
0.0312499999999999
 40
0.0624999999999999
 40
0.0624999999999999
 40
0.0937499999999998
 40
0.0937499999999998
 40
0.1249999999999998
 40
0.1249999999999998
 40
0.1562499999999997
 40
0.1562499999999997
 40
0.1874999999999997
 40
0.1874999999999997
 40
0.2187499999999996
 40
0.2187499999999996
 40
0.2499999999999996
 40
0.2499999999999996
 40
0.2812499999999995
 40
0.2812499999999995
 40
0.3124999999999994
 40
0.3124999999999994
 40
0.3437499999999994
 40
0.3437499999999994
 40
0.3749999999999993
 40
0.3749999999999993
 40
0.4062499999999993
 40
0.4062499999999993
 40
0.4374999999999992
 40
0.4374999999999992
 40
0.4687499999999992
 40
0.4687499999999992
 40
0.4999999999999991
 40
0.4999999999999991
 40
0.5312499999999991
 40
0.5312499999999991
 40
0.562499999999999
 40
0.562499999999999
 40
0.5937499999999989
 40
0.5937499999999989
 40
0.6249999999999989
 40
0.6249999999999989
 40
0.6562499999999989
 40
0.6562499999999989
 40
0.6874999999999988
 40
0.6874999999999988
 40
0.7187499999999987
 40
0.7187499999999987
 40
0.7499999999999987
 40
0.7499999999999987
 40
0.7812499999999987
 40
0.7812499999999987
 40
0.8124999999999986
 40
0.8124999999999986
 40
0.8437499999999984
 40
0.8437499999999984
 40
0.8749999999999984
 40
0.8749999999999984
 40
0.9374999999999992
 40
0.9374999999999992
 40
0.9687499999999996
 40
0.9687499999999996
 40
1.0
 40
1.0
 40
1.03125
 40
1.03125
 10
81.96001771669349
 20
124.6064681724846
 30
0.0
 10
81.9600177166935
 20
124.6064681724846
 30
0.0
 10
81.96245678690511
 20
124.5902155916688
 30
0.0
 10
81.97173236057345
 20
124.5265775151389
 30
0.0
 10
81.97867915557458
 20
124.4784033409266
 30
0.0
 10
81.99589359564234
 20
124.3528452740125
 30
0.0
 10
82.00608235245684
 20
124.2760443604059
 30
0.0
 10
82.02843411990617
 20
124.0946342535219
 30
0.0
 10
82.04066648836631
 20
123.9891935652494
 30
0.0
 10
82.06474291958327
 20
123.7588885518491
 30
0.0
 10
82.0767073782595
 20
123.6331817383393
 30
0.0
 10
82.09912185679254
 20
123.3599889008168
 30
0.0
 10
82.1093453623935
 20
123.2148187725305
 30
0.0
 10
82.126318515614
 20
122.9141010535505
 30
0.0
 10
82.13318787593738
 20
122.7563238995704
 30
0.0
 10
82.1424667162726
 20
122.4335188496251
 30
0.0
 10
82.14483238193773
 20
122.2711645074836
 30
0.0
 10
82.14485949268882
 20
121.9445944030595
 30
0.0
 10
82.1424434814209
 20
121.778704956316
 30
0.0
 10
82.13322784593468
 20
121.4579073634073
 30
0.0
 10
82.12647683843676
 20
121.3019610919042
 30
0.0
 10
82.10941356668908
 20
120.9990094368963
 30
0.0
 10
82.09911037770162
 20
120.8529317658435
 30
0.0
 10
82.07692581694667
 20
120.5822939093159
 30
0.0
 10
82.06492720449384
 20
120.4558372531415
 30
0.0
 10
82.04056570435746
 20
120.2227521454401
 30
0.0
 10
82.02857094178931
 20
120.1194726028871
 30
0.0
 10
82.00627766044738
 20
119.9384179738395
 30
0.0
 10
81.99588283441759
 20
119.8600113928341
 30
0.0
 10
81.97867814190478
 20
119.7345267996741
 30
0.0
 10
81.97184497985089
 20
119.6871383526583
 30
0.0
 10
81.96249263639942
 20
119.6229599566168
 30
0.0
 10
81.96002705810191
 20
119.6065310034441
 30
0.0
 10
81.96000843001441
 20
119.6064057096385
 30
0.0
 10
81.96237743660498
 20
119.6221806824857
 30
0.0
 10
81.97171741572338
 20
119.6862520018096
 30
0.0
 10
81.97862546421756
 20
119.7341656287368
 30
0.0
 10
81.99570703198468
 20
119.858706421412
 30
0.0
 10
82.0060179355837
 20
119.9363725710508
 30
0.0
 10
82.02847970473064
 20
120.1186686642403
 30
0.0
 10
82.04046220717849
 20
120.2219125750969
 30
0.0
 10
82.06455681096294
 20
120.4521456848472
 30
0.0
 10
82.07677226158467
 20
120.5805665635298
 30
0.0
 10
82.0990216599752
 20
120.8517051117943
 30
0.0
 10
82.10915773325519
 20
120.9951087633185
 30
0.0
 10
82.12628274436936
 20
121.2978901513617
 30
0.0
 10
82.13316964648527
 20
121.4565275347846
 30
0.0
 10
82.14238885250003
 20
121.7761650880099
 30
0.0
 10
82.14482511671325
 20
121.9390807913981
 30
0.0
 10
82.14486660716561
 20
122.2695873313156
 30
0.0
 10
82.1424795294162
 20
122.4321490937631
 30
0.0
 10
82.13333525399896
 20
122.7521047030925
 30
0.0
 10
82.12646502544894
 20
122.9111884833789
 30
0.0
 10
82.10942289923307
 20
123.2137577165526
 30
0.0
 10
82.0993120404981
 20
123.3573442600639
 30
0.0
 10
82.07705442781396
 20
123.6292706751519
 30
0.0
 10
82.06486022107356
 20
123.7576896695746
 30
0.0
 10
82.0287574442867
 20
124.1032629676085
 30
0.0
 10
82.00453687238615
 20
124.2897567449061
 30
0.0
 10
81.97883390224409
 20
124.4772976748266
 30
0.0
 10
81.97187541297836
 20
124.5255893429272
 30
0.0
 10
81.96245806155099
 20
124.5902134592994
 30
0.0
 10
81.96001771669349
 20
124.6064681724846
 30
0.0
 10
81.9600177166935
 20
124.6064681724846
 30
0.0
  0
SPLINE
  5
255
330
1F
100
AcDbEntity
  8
0
  6
HIDDEN
 62
     7
370
     0
100
AcDbSpline
210
0.0
220
0.0
230
1.0
 70
    11
 71
     3
 72
    60
 73
    56
 74
     0
 42
0.00000001
 43
0.00000001
 12
1.0
 22
0.0
 32
0.0
 13
1.0
 23
0.0
 33
0.0
 40
0.0
 40
0.0
 40
0.0
 40
0.0
 40
0.0624999999999993
 40
0.0624999999999993
 40
0.1249999999999985
 40
0.1249999999999985
 40
0.1562499999999982
 40
0.1562499999999982
 40
0.1874999999999978
 40
0.1874999999999978
 40
0.2187499999999974
 40
0.2187499999999974
 40
0.2499999999999971
 40
0.2499999999999971
 40
0.2812499999999967
 40
0.2812499999999967
 40
0.3124999999999963
 40
0.3124999999999963
 40
0.3437499999999959
 40
0.3437499999999959
 40
0.3749999999999956
 40
0.3749999999999956
 40
0.4374999999999948
 40
0.4374999999999948
 40
0.4687499999999951
 40
0.4687499999999951
 40
0.4999999999999952
 40
0.4999999999999952
 40
0.5312499999999956
 40
0.5312499999999956
 40
0.5624999999999958
 40
0.5624999999999958
 40
0.5937499999999961
 40
0.5937499999999961
 40
0.6249999999999964
 40
0.6249999999999964
 40
0.687499999999997
 40
0.687499999999997
 40
0.7187499999999973
 40
0.7187499999999973
 40
0.7499999999999976
 40
0.7499999999999976
 40
0.7812499999999979
 40
0.7812499999999979
 40
0.8124999999999982
 40
0.8124999999999982
 40
0.8437499999999986
 40
0.8437499999999986
 40
0.8749999999999988
 40
0.8749999999999988
 40
0.9062499999999991
 40
0.9062499999999991
 40
0.9374999999999994
 40
0.9374999999999994
 40
1.0
 40
1.0
 40
1.0
 40
1.0
 10
67.2661663394529
 20
124.2277885160443
 30
0.0
 10
67.40043586032633
 20
124.0935189951708
 30
0.0
 10
67.53792293698957
 20
123.9308859406988
 30
0.0
 10
67.79300215842679
 20
123.5356589847341
 30
0.0
 10
67.90546292401372
 20
123.3114822789781
 30
0.0
 10
68.03366550499007
 20
122.9268266606043
 30
0.0
 10
68.06835680366359
 20
122.7940176526033
 30
0.0
 10
68.11972168207113
 20
122.518480772473
 30
0.0
 10
68.13633437383987
 20
122.3739784686773
 30
0.0
 10
68.14821103680575
 20
122.0874181073013
 30
0.0
 10
68.14389993574895
 20
121.9444033034203
 30
0.0
 10
68.11474140898599
 20
121.658907236701
 30
0.0
 10
68.08992112147254
 20
121.5186387303484
 30
0.0
 10
68.02358595717398
 20
121.2509758091795
 30
0.0
 10
67.98143744808364
 20
121.1211021303789
 30
0.0
 10
67.88463575807367
 20
120.8773427262318
 30
0.0
 10
67.8301598467728
 20
120.7633059622232
 30
0.0
 10
67.71175774840137
 20
120.548919054275
 30
0.0
 10
67.64782504598122
 20
120.4488554537738
 30
0.0
 10
67.51704259732605
 20
120.2665585729222
 30
0.0
 10
67.44969775316632
 20
120.1834502645182
 30
0.0
 10
67.24644873940095
 20
119.955974299455
 30
0.0
 10
67.10734937460965
 20
119.8330160254141
 30
0.0
 10
66.94040327226666
 20
119.7021023285695
 30
0.0
 10
66.89132397139548
 20
119.666886861864
 30
0.0
 10
66.82277441567972
 20
119.6192411003988
 30
0.0
 10
66.80309180359674
 20
119.6064240033442
 30
0.0
 10
66.8032253349455
 20
119.6065125780342
 30
0.0
 10
66.82255595323457
 20
119.6190873496885
 30
0.0
 10
66.89172585454949
 20
119.6671681052528
 30
0.0
 10
66.93984136010847
 20
119.70168366515
 30
0.0
 10
67.05111368680033
 20
119.7888960862542
 30
0.0
 10
67.11459993163992
 20
119.8419680282222
 30
0.0
 10
67.24514085283369
 20
119.9624875324919
 30
0.0
 10
67.31273775729798
 20
120.0302812336475
 30
0.0
 10
67.5158375555338
 20
120.2572449299392
 30
0.0
 10
67.65221063696752
 20
120.4417060359697
 30
0.0
 10
67.82770566763823
 20
120.7585655108116
 30
0.0
 10
67.88198430318748
 20
120.8714721729772
 30
0.0
 10
67.97916718435323
 20
121.1146190747366
 30
0.0
 10
68.02156873214128
 20
121.2442545243479
 30
0.0
 10
68.08843573112628
 20
121.5112996695291
 30
0.0
 10
68.11358324351839
 20
121.6512134859922
 30
0.0
 10
68.14350811887648
 20
121.9371071758062
 30
0.0
 10
68.14815922056125
 20
122.0802514010486
 30
0.0
 10
68.13695843117017
 20
122.3669308746733
 30
0.0
 10
68.12067766383159
 20
122.5116754966177
 30
0.0
 10
68.06973743453338
 20
122.7882138461823
 30
0.0
 10
68.03515879769701
 20
122.9216264132587
 30
0.0
 10
67.94982305949186
 20
123.1790793426941
 30
0.0
 10
67.90027266346448
 20
123.2995845723018
 30
0.0
 10
67.7904226376245
 20
123.5266185506493
 30
0.0
 10
67.72958849075927
 20
123.6338108411188
 30
0.0
 10
67.5395288069993
 20
123.9286020322712
 30
0.0
 10
67.40183891299458
 20
124.0921159425026
 30
0.0
 10
67.2661663394529
 20
124.2277885160443
 30
0.0
  0
LINE
  5
256
330
1F
100
AcDbEntity
  8
0
  6
HIDDEN
 62
     7
370
     0
100
AcDbLine
 10
63.0235256523
 20
124.227788516
 30
0.0
 11
62.6448459959
 21
124.6064681725
 31
0.0
  0
SPLINE
  5
257
330
1F
100
AcDbEntity
  8
0
  6
HIDDEN
 62
     7
370
     0
100
AcDbSpline
210
0.0
220
0.0
230
1.0
 70
    11
 71
     3
 72
    68
 73
    64
 74
     0
 42
0.00000001
 43
0.00000001
 12
1.0
 22
0.0
 32
0.0
 13
1.0
 23
0.0
 33
0.0
 40
-0.0312499999999997
 40
-0.0312499999999997
 40
0.0
 40
0.0
 40
0.0312500000000001
 40
0.0312500000000001
 40
0.0625000000000001
 40
0.0625000000000001
 40
0.0937500000000002
 40
0.0937500000000002
 40
0.1250000000000002
 40
0.1250000000000002
 40
0.1562500000000003
 40
0.1562500000000003
 40
0.1875000000000004
 40
0.1875000000000004
 40
0.2187500000000004
 40
0.2187500000000004
 40
0.2500000000000005
 40
0.2500000000000005
 40
0.2812500000000006
 40
0.2812500000000006
 40
0.3125000000000006
 40
0.3125000000000006
 40
0.3437500000000007
 40
0.3437500000000007
 40
0.3750000000000008
 40
0.3750000000000008
 40
0.4062500000000008
 40
0.4062500000000008
 40
0.4375000000000009
 40
0.4375000000000009
 40
0.4687500000000009
 40
0.4687500000000009
 40
0.500000000000001
 40
0.500000000000001
 40
0.5312500000000011
 40
0.5312500000000011
 40
0.5625000000000011
 40
0.5625000000000011
 40
0.5937500000000012
 40
0.5937500000000012
 40
0.6250000000000012
 40
0.6250000000000012
 40
0.6562500000000013
 40
0.6562500000000013
 40
0.6875000000000013
 40
0.6875000000000013
 40
0.7187500000000014
 40
0.7187500000000014
 40
0.7500000000000016
 40
0.7500000000000016
 40
0.7812500000000016
 40
0.7812500000000016
 40
0.8125000000000017
 40
0.8125000000000017
 40
0.8437500000000017
 40
0.8437500000000017
 40
0.8750000000000018
 40
0.8750000000000018
 40
0.9375000000000009
 40
0.9375000000000009
 40
0.9687500000000003
 40
0.9687500000000003
 40
1.0
 40
1.0
 40
1.03125
 40
1.03125
 10
62.64484599589325
 20
138.9216398932849
 30
0.0
 10
62.64484599589325
 20
138.9216398932849
 30
0.0
 10
62.66109857670902
 20
138.9240789634965
 30
0.0
 10
62.72473665323886
 20
138.9333545371648
 30
0.0
 10
62.77291082745121
 20
138.9403013321659
 30
0.0
 10
62.89846889436527
 20
138.9575157722337
 30
0.0
 10
62.97526980797191
 20
138.9677045290482
 30
0.0
 10
63.15667991485592
 20
138.9900562964975
 30
0.0
 10
63.26212060312839
 20
139.0022886649577
 30
0.0
 10
63.49242561652865
 20
139.0263650961746
 30
0.0
 10
63.61813243003847
 20
139.0383295548509
 30
0.0
 10
63.89132526756103
 20
139.0607440333839
 30
0.0
 10
64.03649539584731
 20
139.0709675389849
 30
0.0
 10
64.3372131148273
 20
139.0879406922053
 30
0.0
 10
64.49499026880736
 20
139.0948100525287
 30
0.0
 10
64.81779531875269
 20
139.1040888928639
 30
0.0
 10
64.98014966089417
 20
139.1064545585291
 30
0.0
 10
65.30671976531832
 20
139.1064816692802
 30
0.0
 10
65.47260921206181
 20
139.1040656580122
 30
0.0
 10
65.7934068049705
 20
139.0948500225261
 30
0.0
 10
65.94935307647356
 20
139.0880990150281
 30
0.0
 10
66.25230473148152
 20
139.0710357432804
 30
0.0
 10
66.39838240253434
 20
139.060732554293
 30
0.0
 10
66.66902025906191
 20
139.038547993538
 30
0.0
 10
66.79547691523629
 20
139.0265493810852
 30
0.0
 10
67.02856202293772
 20
139.0021878809488
 30
0.0
 10
67.13184156549065
 20
138.9901931183807
 30
0.0
 10
67.31289619453825
 20
138.9678998370387
 30
0.0
 10
67.39130277554365
 20
138.9575050110089
 30
0.0
 10
67.51678736870373
 20
138.9403003184961
 30
0.0
 10
67.56417581571952
 20
138.9334671564422
 30
0.0
 10
67.628354211761
 20
138.9241148129908
 30
0.0
 10
67.64478316493373
 20
138.9216492346933
 30
0.0
 10
67.64490845873927
 20
138.9216306066058
 30
0.0
 10
67.62913348589213
 20
138.9239996131963
 30
0.0
 10
67.56506216656815
 20
138.9333395923148
 30
0.0
 10
67.51714853964101
 20
138.9402476408089
 30
0.0
 10
67.39260774696584
 20
138.957329208576
 30
0.0
 10
67.31494159732696
 20
138.967640112175
 30
0.0
 10
67.13264550413747
 20
138.990101881322
 30
0.0
 10
67.02940159328085
 20
139.0020843837698
 30
0.0
 10
66.79916848353062
 20
139.0261789875543
 30
0.0
 10
66.670747604848
 20
139.038394438176
 30
0.0
 10
66.39960905658349
 20
139.0606438365666
 30
0.0
 10
66.25620540505928
 20
139.0707799098466
 30
0.0
 10
65.95342401701612
 20
139.0879049209607
 30
0.0
 10
65.79478663359322
 20
139.0947918230766
 30
0.0
 10
65.47514908036784
 20
139.1040110290914
 30
0.0
 10
65.31223337697968
 20
139.1064472933046
 30
0.0
 10
64.98172683706218
 20
139.106488783757
 30
0.0
 10
64.8191650746147
 20
139.1041017060076
 30
0.0
 10
64.49920946528528
 20
139.0949574305903
 30
0.0
 10
64.34012568499894
 20
139.0880872020403
 30
0.0
 10
64.03755645182515
 20
139.0710450758244
 30
0.0
 10
63.89396990831393
 20
139.0609342170895
 30
0.0
 10
63.62204349322591
 20
139.0386766044053
 30
0.0
 10
63.49362449880322
 20
139.0264823976649
 30
0.0
 10
63.1480512007693
 20
138.990379620878
 30
0.0
 10
62.96155742347166
 20
138.9661590489775
 30
0.0
 10
62.77401649355119
 20
138.9404560788354
 30
0.0
 10
62.72572482545055
 20
138.9334975895697
 30
0.0
 10
62.66110070907839
 20
138.9240802381424
 30
0.0
 10
62.64484599589325
 20
138.9216398932849
 30
0.0
 10
62.64484599589325
 20
138.9216398932849
 30
0.0
  0
SPLINE
  5
258
330
1F
100
AcDbEntity
  8
0
  6
HIDDEN
 62
     7
370
     0
100
AcDbSpline
210
0.0
220
0.0
230
1.0
 70
     8
 71
     3
 72
    22
 73
    18
 74
     0
 42
0.00000001
 43
0.00000001
 12
1.0
 22
0.0
 32
0.0
 13
1.0
 23
0.0
 33
0.0
 40
0.0
 40
0.0
 40
0.0
 40
0.0
 40
0.125
 40
0.125
 40
0.25
 40
0.25
 40
0.375
 40
0.375
 40
0.5
 40
0.5
 40
0.625
 40
0.625
 40
0.75
 40
0.75
 40
0.875
 40
0.875
 40
1.0
 40
1.0
 40
1.0
 40
1.0
 10
63.02352565233362
 20
124.2277885160443
 30
0.0
 10
63.12900789312598
 20
124.3332707568366
 30
0.0
 10
63.25221736519673
 20
124.4408148083333
 30
0.0
 10
63.53931270703722
 20
124.6468382652871
 30
0.0
 10
63.70316654941616
 20
124.744855955179
 30
0.0
 10
64.06395709859059
 20
124.9120356569614
 30
0.0
 10
64.26587519086723
 20
124.9830473142266
 30
0.0
 10
64.68994922585104
 20
125.0797434983497
 30
0.0
 10
64.91808845008772
 20
125.1063271354181
 30
0.0
 10
65.367856222812
 20
125.1066080393511
 30
0.0
 10
65.59578722474863
 20
125.0803833107961
 30
0.0
 10
66.02096780625803
 20
124.9839548909879
 30
0.0
 10
66.2228197108812
 20
124.9132188630949
 30
0.0
 10
66.58531762208382
 20
124.7455813310259
 30
0.0
 10
66.74991953330911
 20
124.6471008645651
 30
0.0
 10
67.03642562742812
 20
124.4416345550243
 30
0.0
 10
67.1600476298878
 20
124.3339072256093
 30
0.0
 10
67.2661663394529
 20
124.2277885160443
 30
0.0
  0
SPLINE
  5
259
330
1F
100
AcDbEntity
  8
0
  6
HIDDEN
 62
     7
370
     0
100
AcDbSpline
210
0.0
220
0.0
230
1.0
 70
     8
 71
     3
 72
    22
 73
    18
 74
     0
 42
0.00000001
 43
0.00000001
 12
1.0
 22
0.0
 32
0.0
 13
1.0
 23
0.0
 33
0.0
 40
0.0
 40
0.0
 40
0.0
 40
0.0
 40
0.125
 40
0.125
 40
0.25
 40
0.25
 40
0.375
 40
0.375
 40
0.5
 40
0.5
 40
0.625
 40
0.625
 40
0.75
 40
0.75
 40
0.875
 40
0.875
 40
1.0
 40
1.0
 40
1.0
 40
1.0
 10
67.26616633945288
 20
124.2277885160443
 30
0.0
 10
67.16112483594533
 20
124.3328300195518
 30
0.0
 10
67.03646497406767
 20
124.441672901287
 30
0.0
 10
66.74838786768142
 20
124.648132381115
 30
0.0
 10
66.58807625215078
 20
124.7439632172791
 30
0.0
 10
66.22849664357344
 20
124.9109280059775
 30
0.0
 10
66.02653139864887
 20
124.982226187123
 30
0.0
 10
65.60229332059302
 20
125.0793615868731
 30
0.0
 10
65.37415665663748
 20
125.1061389271169
 30
0.0
 10
64.92423262309333
 20
125.1067911142809
 30
0.0
 10
64.69585966674329
 20
125.0806895346264
 30
0.0
 10
64.27034210518998
 20
124.9844578145662
 30
0.0
 10
64.06821064065235
 20
124.9137459309951
 30
0.0
 10
63.70530074726172
 20
124.7461010217128
 30
0.0
 10
63.54051241215961
 20
124.6475646181954
 30
0.0
 10
63.25402677666847
 20
124.4422464313333
 30
0.0
 10
63.13007252757533
 20
124.334335391286
 30
0.0
 10
63.02352565233362
 20
124.2277885160443
 30
0.0
  0
SPLINE
  5
25A
330
1F
100
AcDbEntity
  8
0
  6
HIDDEN
 62
     7
370
     0
100
AcDbSpline
210
0.0
220
0.0
230
1.0
 70
    11
 71
     3
 72
    68
 73
    64
 74
     0
 42
0.00000001
 43
0.00000001
 12
1.0
 22
0.0
 32
0.0
 13
1.0
 23
0.0
 33
0.0
 40
-0.03125
 40
-0.03125
 40
0.0
 40
0.0
 40
0.03125
 40
0.03125
 40
0.0625
 40
0.0625
 40
0.09375
 40
0.09375
 40
0.125
 40
0.125
 40
0.15625
 40
0.15625
 40
0.1875
 40
0.1875
 40
0.21875
 40
0.21875
 40
0.25
 40
0.25
 40
0.28125
 40
0.28125
 40
0.3125
 40
0.3125
 40
0.34375
 40
0.34375
 40
0.375
 40
0.375
 40
0.40625
 40
0.40625
 40
0.4375
 40
0.4375
 40
0.46875
 40
0.46875
 40
0.5
 40
0.5
 40
0.53125
 40
0.53125
 40
0.5625
 40
0.5625
 40
0.59375
 40
0.59375
 40
0.625
 40
0.625
 40
0.65625
 40
0.65625
 40
0.6875
 40
0.6875
 40
0.71875
 40
0.71875
 40
0.75
 40
0.75
 40
0.78125
 40
0.78125
 40
0.8125
 40
0.8125
 40
0.84375
 40
0.84375
 40
0.875
 40
0.875
 40
0.9375
 40
0.9375
 40
0.96875
 40
0.96875
 40
1.0
 40
1.0
 40
1.03125
 40
1.03125
 10
48.32967427509298
 20
119.6064681724848
 30
0.0
 10
48.32967427509299
 20
119.6064681724848
 30
0.0
 10
48.32723520488136
 20
119.6227207533005
 30
0.0
 10
48.31795963121305
 20
119.6863588298304
 30
0.0
 10
48.31101283621191
 20
119.7345330040427
 30
0.0
 10
48.29379839614415
 20
119.8600910709568
 30
0.0
 10
48.28360963932963
 20
119.9368919845634
 30
0.0
 10
48.26125787188033
 20
120.1183020914474
 30
0.0
 10
48.24902550342017
 20
120.2237427797199
 30
0.0
 10
48.22494907220322
 20
120.4540477931202
 30
0.0
 10
48.21298461352698
 20
120.57975460663
 30
0.0
 10
48.19057013499396
 20
120.8529474441526
 30
0.0
 10
48.18034662939298
 20
120.9981175724388
 30
0.0
 10
48.1633734761725
 20
121.2988352914188
 30
0.0
 10
48.15650411584914
 20
121.4566124453989
 30
0.0
 10
48.14722527551392
 20
121.7794174953442
 30
0.0
 10
48.14485960984877
 20
121.9417718374857
 30
0.0
 10
48.14483249909768
 20
122.2683419419099
 30
0.0
 10
48.14724851036562
 20
122.4342313886533
 30
0.0
 10
48.15646414585181
 20
122.755028981562
 30
0.0
 10
48.16321515334976
 20
122.9109752530651
 30
0.0
 10
48.18027842509742
 20
123.213926908073
 30
0.0
 10
48.19058161408491
 20
123.3600045791259
 30
0.0
 10
48.21276617483984
 20
123.6306424356534
 30
0.0
 10
48.22476478729268
 20
123.7570990918278
 30
0.0
 10
48.24912628742906
 20
123.9901841995293
 30
0.0
 10
48.2611210499972
 20
124.0934637420822
 30
0.0
 10
48.28341433133915
 20
124.2745183711298
 30
0.0
 10
48.29380915736895
 20
124.3529249521352
 30
0.0
 10
48.31101384988175
 20
124.4784095452953
 30
0.0
 10
48.31784701193565
 20
124.5257979923111
 30
0.0
 10
48.3271993553871
 20
124.5899763883525
 30
0.0
 10
48.3296649336846
 20
124.6064053415253
 30
0.0
 10
48.32968356177211
 20
124.6065306353308
 30
0.0
 10
48.32731455518155
 20
124.5907556624837
 30
0.0
 10
48.31797457606315
 20
124.5266843431597
 30
0.0
 10
48.31106652756896
 20
124.4787707162325
 30
0.0
 10
48.29398495980184
 20
124.3542299235574
 30
0.0
 10
48.28367405620283
 20
124.2765637739185
 30
0.0
 10
48.26121228705588
 20
124.094267680729
 30
0.0
 10
48.24922978460803
 20
123.9910237698724
 30
0.0
 10
48.22513518082356
 20
123.7607906601221
 30
0.0
 10
48.21291973020187
 20
123.6323697814395
 30
0.0
 10
48.19067033181133
 20
123.361231233175
 30
0.0
 10
48.18053425853132
 20
123.2178275816508
 30
0.0
 10
48.16340924741715
 20
122.9150461936077
 30
0.0
 10
48.15652234530125
 20
122.7564088101848
 30
0.0
 10
48.14730313928647
 20
122.4367712569594
 30
0.0
 10
48.14486687507327
 20
122.2738555535712
 30
0.0
 10
48.1448253846209
 20
121.9433490136537
 30
0.0
 10
48.14721246237031
 20
121.7807872512062
 30
0.0
 10
48.15635673778754
 20
121.4608316418768
 30
0.0
 10
48.16322696633758
 20
121.3017478615905
 30
0.0
 10
48.18026909255344
 20
120.9991786284167
 30
0.0
 10
48.1903799512884
 20
120.8555920849055
 30
0.0
 10
48.21263756397254
 20
120.5836656698174
 30
0.0
 10
48.22483177071292
 20
120.4552466753947
 30
0.0
 10
48.26093454749979
 20
120.1096733773608
 30
0.0
 10
48.28515511940034
 20
119.9231796000632
 30
0.0
 10
48.31085808954241
 20
119.7356386701427
 30
0.0
 10
48.31781657880813
 20
119.6873470020421
 30
0.0
 10
48.3272339302355
 20
119.6227228856699
 30
0.0
 10
48.32967427509298
 20
119.6064681724848
 30
0.0
 10
48.32967427509299
 20
119.6064681724848
 30
0.0
  0
SPLINE
  5
25B
330
1F
100
AcDbEntity
  8
0
  6
HIDDEN
 62
     7
370
     0
100
AcDbSpline
210
0.0
220
0.0
230
1.0
 70
    11
 71
     3
 72
    58
 73
    54
 74
     0
 42
0.00000001
 43
0.00000001
 12
1.0
 22
0.0
 32
0.0
 13
1.0
 23
0.0
 33
0.0
 40
0.0
 40
0.0
 40
0.0
 40
0.0
 40
0.0312500000000005
 40
0.0312500000000005
 40
0.062500000000001
 40
0.062500000000001
 40
0.0937500000000015
 40
0.0937500000000015
 40
0.1250000000000021
 40
0.1250000000000021
 40
0.1562500000000026
 40
0.1562500000000026
 40
0.1875000000000031
 40
0.1875000000000031
 40
0.2500000000000042
 40
0.2500000000000042
 40
0.2812500000000046
 40
0.2812500000000046
 40
0.3125000000000049
 40
0.3125000000000049
 40
0.3750000000000047
 40
0.3750000000000047
 40
0.4062500000000042
 40
0.4062500000000042
 40
0.4375000000000036
 40
0.4375000000000036
 40
0.4687500000000031
 40
0.4687500000000031
 40
0.5000000000000024
 40
0.5000000000000024
 40
0.5312500000000019
 40
0.5312500000000019
 40
0.5625000000000013
 40
0.5625000000000013
 40
0.6250000000000002
 40
0.6250000000000002
 40
0.6562500000000001
 40
0.6562500000000001
 40
0.6875000000000001
 40
0.6875000000000001
 40
0.71875
 40
0.71875
 40
0.7499999999999999
 40
0.7499999999999999
 40
0.8125000000000002
 40
0.8125000000000002
 40
0.8437500000000004
 40
0.8437500000000004
 40
0.8750000000000006
 40
0.8750000000000006
 40
0.9375000000000003
 40
0.9375000000000003
 40
1.0
 40
1.0
 40
1.0
 40
1.0
 10
63.02352565233362
 20
124.2277885160443
 30
0.0
 10
62.95666269693671
 20
124.1609255606474
 30
0.0
 10
62.88854493736193
 20
124.0864941209673
 30
0.0
 10
62.75350839728701
 20
123.9211035939637
 30
0.0
 10
62.68649946176588
 20
123.8298372900958
 30
0.0
 10
62.56070846704586
 20
123.6347685452499
 30
0.0
 10
62.50134848841553
 20
123.5303649141442
 30
0.0
 10
62.3922635005462
 20
123.305989164072
 30
0.0
 10
62.34210438962318
 20
123.1847948435598
 30
0.0
 10
62.25673363714922
 20
122.9292414853354
 30
0.0
 10
62.22191593698292
 20
122.7965522937167
 30
0.0
 10
62.17021748714595
 20
122.5203781368563
 30
0.0
 10
62.15353504945679
 20
122.3758540097999
 30
0.0
 10
62.13544727154471
 20
121.9465965103429
 30
0.0
 10
62.16630294888731
 20
121.6541957842838
 30
0.0
 10
62.26577342624804
 20
121.2520628894276
 30
0.0
 10
62.30802293825933
 20
121.1217810438865
 30
0.0
 10
62.40469300328922
 20
120.8781622746426
 30
0.0
 10
62.45919773501729
 20
120.7639406551426
 30
0.0
 10
62.63730500537676
 20
120.4413600544498
 30
0.0
 10
62.77185304415607
 20
120.2597217608402
 30
0.0
 10
62.97561114436026
 20
120.0316640556163
 30
0.0
 10
63.0445146400136
 20
119.9625080109415
 30
0.0
 10
63.17560945905287
 20
119.8415036163054
 30
0.0
 10
63.23811174843731
 20
119.7892766671966
 30
0.0
 10
63.3495374082386
 20
119.7019143598836
 30
0.0
 10
63.39860294445901
 20
119.6667197636167
 30
0.0
 10
63.46705377465742
 20
119.6191502684731
 30
0.0
 10
63.4867864348356
 20
119.6063004609303
 30
0.0
 10
63.48627568091861
 20
119.606639257499
 30
0.0
 10
63.46663771169482
 20
119.6194245226653
 30
0.0
 10
63.39757204764092
 20
119.6674513806159
 30
0.0
 10
63.34860298917719
 20
119.702618473559
 30
0.0
 10
63.18200141063019
 20
119.8333270877941
 30
0.0
 10
63.04279270758591
 20
119.9564746964064
 30
0.0
 10
62.84018155010205
 20
120.1832425523814
 30
0.0
 10
62.77286321839458
 20
120.2662671756443
 30
0.0
 10
62.64177366316456
 20
120.4489788353694
 30
0.0
 10
62.57778093800425
 20
120.5492279006894
 30
0.0
 10
62.46004505217098
 20
120.7623460916737
 30
0.0
 10
62.4057637198549
 20
120.8758127323753
 30
0.0
 10
62.30910878819866
 20
121.118703516266
 30
0.0
 10
62.26679587990967
 20
121.2486991514854
 30
0.0
 10
62.1671269015083
 20
121.6493580665679
 30
0.0
 10
62.13575092028207
 20
121.9415048174116
 30
0.0
 10
62.15305083052419
 20
122.3703397494314
 30
0.0
 10
62.16942221898142
 20
122.514666394347
 30
0.0
 10
62.22064904773318
 20
122.7911904876718
 30
0.0
 10
62.25527732079542
 20
122.92416314064
 30
0.0
 10
62.38299024483296
 20
123.3085836272344
 30
0.0
 10
62.49719085172289
 20
123.5364004687446
 30
0.0
 10
62.75100580806178
 20
123.9297381166953
 30
0.0
 10
62.88847604002835
 20
124.092738903739
 30
0.0
 10
63.02352565233362
 20
124.2277885160443
 30
0.0
  0
LINE
  5
25C
330
1F
100
AcDbEntity
  8
0
  6
HIDDEN
 62
     7
370
     0
100
AcDbLine
 10
67.2661663395
 20
124.227788516
 30
0.0
 11
67.6448459959
 21
124.6064681725
 31
0.0
  0
SPLINE
  5
25D
330
1F
100
AcDbEntity
  8
0
  6
HIDDEN
 62
     7
370
     0
100
AcDbSpline
210
0.0
220
0.0
230
1.0
 70
    11
 71
     3
 72
    68
 73
    64
 74
     0
 42
0.00000001
 43
0.00000001
 12
1.0
 22
0.0
 32
0.0
 13
1.0
 23
0.0
 33
0.0
 40
-0.0312500000000001
 40
-0.0312500000000001
 40
0.0
 40
0.0
 40
0.03125
 40
0.03125
 40
0.0625
 40
0.0625
 40
0.09375
 40
0.09375
 40
0.125
 40
0.125
 40
0.15625
 40
0.15625
 40
0.1874999999999999
 40
0.1874999999999999
 40
0.2187499999999999
 40
0.2187499999999999
 40
0.2499999999999999
 40
0.2499999999999999
 40
0.2812499999999999
 40
0.2812499999999999
 40
0.3124999999999999
 40
0.3124999999999999
 40
0.3437499999999999
 40
0.3437499999999999
 40
0.3749999999999999
 40
0.3749999999999999
 40
0.4062499999999999
 40
0.4062499999999999
 40
0.4374999999999999
 40
0.4374999999999999
 40
0.4687499999999999
 40
0.4687499999999999
 40
0.4999999999999999
 40
0.4999999999999999
 40
0.5312499999999999
 40
0.5312499999999999
 40
0.5624999999999999
 40
0.5624999999999999
 40
0.5937499999999999
 40
0.5937499999999999
 40
0.6249999999999999
 40
0.6249999999999999
 40
0.6562499999999999
 40
0.6562499999999999
 40
0.6874999999999999
 40
0.6874999999999999
 40
0.7187499999999999
 40
0.7187499999999999
 40
0.7499999999999998
 40
0.7499999999999998
 40
0.7812499999999998
 40
0.7812499999999998
 40
0.8124999999999998
 40
0.8124999999999998
 40
0.8437499999999998
 40
0.8437499999999998
 40
0.8749999999999998
 40
0.8749999999999998
 40
0.9374999999999999
 40
0.9374999999999999
 40
0.9687499999999999
 40
0.9687499999999999
 40
1.0
 40
1.0
 40
1.03125
 40
1.03125
 10
81.9600177166935
 20
124.6064681724846
 30
0.0
 10
81.96001771669349
 20
124.6064681724846
 30
0.0
 10
81.96245678690512
 20
124.5902155916688
 30
0.0
 10
81.97173236057345
 20
124.5265775151389
 30
0.0
 10
81.97867915557458
 20
124.4784033409266
 30
0.0
 10
81.99589359564236
 20
124.3528452740125
 30
0.0
 10
82.00608235245684
 20
124.2760443604059
 30
0.0
 10
82.02843411990617
 20
124.0946342535219
 30
0.0
 10
82.04066648836631
 20
123.9891935652494
 30
0.0
 10
82.06474291958328
 20
123.7588885518491
 30
0.0
 10
82.0767073782595
 20
123.6331817383393
 30
0.0
 10
82.09912185679255
 20
123.3599889008168
 30
0.0
 10
82.10934536239353
 20
123.2148187725305
 30
0.0
 10
82.126318515614
 20
122.9141010535505
 30
0.0
 10
82.13318787593738
 20
122.7563238995704
 30
0.0
 10
82.1424667162726
 20
122.4335188496251
 30
0.0
 10
82.14483238193773
 20
122.2711645074836
 30
0.0
 10
82.14485949268884
 20
121.9445944030595
 30
0.0
 10
82.14244348142088
 20
121.778704956316
 30
0.0
 10
82.1332278459347
 20
121.4579073634073
 30
0.0
 10
82.12647683843677
 20
121.3019610919042
 30
0.0
 10
82.1094135666891
 20
120.9990094368963
 30
0.0
 10
82.0991103777016
 20
120.8529317658434
 30
0.0
 10
82.07692581694667
 20
120.5822939093159
 30
0.0
 10
82.06492720449384
 20
120.4558372531415
 30
0.0
 10
82.04056570435748
 20
120.2227521454401
 30
0.0
 10
82.02857094178934
 20
120.1194726028871
 30
0.0
 10
82.00627766044738
 20
119.9384179738395
 30
0.0
 10
81.99588283441759
 20
119.8600113928341
 30
0.0
 10
81.9786781419048
 20
119.7345267996741
 30
0.0
 10
81.97184497985089
 20
119.6871383526583
 30
0.0
 10
81.96249263639943
 20
119.6229599566168
 30
0.0
 10
81.96002705810191
 20
119.6065310034441
 30
0.0
 10
81.96000843001441
 20
119.6064057096385
 30
0.0
 10
81.96237743660498
 20
119.6221806824857
 30
0.0
 10
81.97171741572338
 20
119.6862520018096
 30
0.0
 10
81.97862546421756
 20
119.7341656287368
 30
0.0
 10
81.99570703198468
 20
119.858706421412
 30
0.0
 10
82.0060179355837
 20
119.9363725710508
 30
0.0
 10
82.02847970473066
 20
120.1186686642403
 30
0.0
 10
82.04046220717849
 20
120.2219125750969
 30
0.0
 10
82.06455681096294
 20
120.4521456848472
 30
0.0
 10
82.07677226158465
 20
120.5805665635298
 30
0.0
 10
82.0990216599752
 20
120.8517051117943
 30
0.0
 10
82.10915773325519
 20
120.9951087633185
 30
0.0
 10
82.12628274436936
 20
121.2978901513617
 30
0.0
 10
82.13316964648527
 20
121.4565275347846
 30
0.0
 10
82.14238885250003
 20
121.7761650880099
 30
0.0
 10
82.14482511671324
 20
121.9390807913981
 30
0.0
 10
82.14486660716561
 20
122.2695873313156
 30
0.0
 10
82.14247952941619
 20
122.4321490937631
 30
0.0
 10
82.13333525399896
 20
122.7521047030925
 30
0.0
 10
82.12646502544894
 20
122.9111884833789
 30
0.0
 10
82.10942289923307
 20
123.2137577165526
 30
0.0
 10
82.0993120404981
 20
123.3573442600639
 30
0.0
 10
82.07705442781396
 20
123.6292706751519
 30
0.0
 10
82.06486022107357
 20
123.7576896695746
 30
0.0
 10
82.0287574442867
 20
124.1032629676085
 30
0.0
 10
82.00453687238618
 20
124.2897567449061
 30
0.0
 10
81.97883390224409
 20
124.4772976748266
 30
0.0
 10
81.97187541297836
 20
124.5255893429272
 30
0.0
 10
81.96245806155099
 20
124.5902134592994
 30
0.0
 10
81.9600177166935
 20
124.6064681724846
 30
0.0
 10
81.96001771669349
 20
124.6064681724846
 30
0.0
  0
SPLINE
  5
25E
330
1F
100
AcDbEntity
  8
0
  6
HIDDEN
 62
     7
370
     0
100
AcDbSpline
210
0.0
220
0.0
230
1.0
 70
    11
 71
     3
 72
    60
 73
    56
 74
     0
 42
0.00000001
 43
0.00000001
 12
1.0
 22
0.0
 32
0.0
 13
1.0
 23
0.0
 33
0.0
 40
0.0
 40
0.0
 40
0.0
 40
0.0
 40
0.0625000000000016
 40
0.0625000000000016
 40
0.1250000000000032
 40
0.1250000000000032
 40
0.1562500000000038
 40
0.1562500000000038
 40
0.1875000000000043
 40
0.1875000000000043
 40
0.2187500000000049
 40
0.2187500000000049
 40
0.2500000000000054
 40
0.2500000000000054
 40
0.2812500000000059
 40
0.2812500000000059
 40
0.3125000000000064
 40
0.3125000000000064
 40
0.343750000000007
 40
0.343750000000007
 40
0.3750000000000075
 40
0.3750000000000075
 40
0.4375000000000086
 40
0.4375000000000086
 40
0.4687500000000084
 40
0.4687500000000084
 40
0.5000000000000083
 40
0.5000000000000083
 40
0.5312500000000081
 40
0.5312500000000081
 40
0.562500000000008
 40
0.562500000000008
 40
0.5937500000000078
 40
0.5937500000000078
 40
0.6250000000000075
 40
0.6250000000000075
 40
0.6875000000000063
 40
0.6875000000000063
 40
0.7187500000000057
 40
0.7187500000000057
 40
0.750000000000005
 40
0.750000000000005
 40
0.7812500000000044
 40
0.7812500000000044
 40
0.8125000000000038
 40
0.8125000000000038
 40
0.8437500000000031
 40
0.8437500000000031
 40
0.8750000000000026
 40
0.8750000000000026
 40
0.9062500000000019
 40
0.9062500000000019
 40
0.9375000000000012
 40
0.9375000000000012
 40
1.0
 40
1.0
 40
1.0
 40
1.0
 10
67.2661663394529
 20
124.2277885160443
 30
0.0
 10
67.40043586032633
 20
124.0935189951708
 30
0.0
 10
67.53792293698957
 20
123.9308859406988
 30
0.0
 10
67.79300215842679
 20
123.5356589847341
 30
0.0
 10
67.90546292401372
 20
123.3114822789781
 30
0.0
 10
68.03366550499007
 20
122.9268266606043
 30
0.0
 10
68.06835680366359
 20
122.7940176526033
 30
0.0
 10
68.11972168207113
 20
122.518480772473
 30
0.0
 10
68.13633437383987
 20
122.3739784686773
 30
0.0
 10
68.14821103680575
 20
122.0874181073013
 30
0.0
 10
68.14389993574895
 20
121.9444033034203
 30
0.0
 10
68.11474140898599
 20
121.658907236701
 30
0.0
 10
68.08992112147254
 20
121.5186387303484
 30
0.0
 10
68.02358595717398
 20
121.2509758091795
 30
0.0
 10
67.98143744808364
 20
121.1211021303789
 30
0.0
 10
67.88463575807367
 20
120.8773427262318
 30
0.0
 10
67.8301598467728
 20
120.7633059622232
 30
0.0
 10
67.71175774840137
 20
120.548919054275
 30
0.0
 10
67.64782504598122
 20
120.4488554537738
 30
0.0
 10
67.51704259732605
 20
120.2665585729222
 30
0.0
 10
67.44969775316632
 20
120.1834502645182
 30
0.0
 10
67.24644873940096
 20
119.955974299455
 30
0.0
 10
67.10734937460967
 20
119.8330160254141
 30
0.0
 10
66.94040327226668
 20
119.7021023285695
 30
0.0
 10
66.89132397139548
 20
119.666886861864
 30
0.0
 10
66.82277441567972
 20
119.6192411003988
 30
0.0
 10
66.80309180359674
 20
119.6064240033442
 30
0.0
 10
66.8032253349455
 20
119.6065125780342
 30
0.0
 10
66.82255595323457
 20
119.6190873496885
 30
0.0
 10
66.89172585454949
 20
119.6671681052528
 30
0.0
 10
66.93984136010847
 20
119.70168366515
 30
0.0
 10
67.05111368680033
 20
119.7888960862542
 30
0.0
 10
67.11459993163992
 20
119.8419680282222
 30
0.0
 10
67.24514085283369
 20
119.9624875324919
 30
0.0
 10
67.31273775729798
 20
120.0302812336475
 30
0.0
 10
67.5158375555338
 20
120.2572449299392
 30
0.0
 10
67.65221063696752
 20
120.4417060359697
 30
0.0
 10
67.82770566763823
 20
120.7585655108116
 30
0.0
 10
67.88198430318748
 20
120.8714721729772
 30
0.0
 10
67.97916718435323
 20
121.1146190747366
 30
0.0
 10
68.02156873214128
 20
121.2442545243479
 30
0.0
 10
68.08843573112628
 20
121.5112996695291
 30
0.0
 10
68.11358324351839
 20
121.6512134859922
 30
0.0
 10
68.14350811887648
 20
121.9371071758062
 30
0.0
 10
68.14815922056125
 20
122.0802514010486
 30
0.0
 10
68.13695843117017
 20
122.3669308746733
 30
0.0
 10
68.12067766383159
 20
122.5116754966177
 30
0.0
 10
68.06973743453337
 20
122.7882138461823
 30
0.0
 10
68.03515879769701
 20
122.9216264132587
 30
0.0
 10
67.94982305949186
 20
123.1790793426941
 30
0.0
 10
67.90027266346448
 20
123.2995845723018
 30
0.0
 10
67.7904226376245
 20
123.5266185506493
 30
0.0
 10
67.72958849075927
 20
123.6338108411188
 30
0.0
 10
67.5395288069993
 20
123.9286020322712
 30
0.0
 10
67.40183891299458
 20
124.0921159425026
 30
0.0
 10
67.2661663394529
 20
124.2277885160443
 30
0.0
  0
LINE
  5
25F
330
1F
100
AcDbEntity
  8
0
  6
HIDDEN
 62
     7
370
     0
100
AcDbLine
 10
63.0235256523
 20
124.227788516
 30
0.0
 11
62.6448459959
 21
124.6064681725
 31
0.0
  0
SPLINE
  5
260
330
1F
100
AcDbEntity
  8
0
  6
HIDDEN
 62
     7
370
     0
100
AcDbSpline
210
0.0
220
0.0
230
1.0
 70
    11
 71
     3
 72
    68
 73
    64
 74
     0
 42
0.00000001
 43
0.00000001
 12
1.0
 22
0.0
 32
0.0
 13
1.0
 23
0.0
 33
0.0
 40
-0.0312500000000004
 40
-0.0312500000000004
 40
0.0
 40
0.0
 40
0.0312499999999999
 40
0.0312499999999999
 40
0.0624999999999999
 40
0.0624999999999999
 40
0.0937499999999998
 40
0.0937499999999998
 40
0.1249999999999998
 40
0.1249999999999998
 40
0.1562499999999997
 40
0.1562499999999997
 40
0.1874999999999997
 40
0.1874999999999997
 40
0.2187499999999996
 40
0.2187499999999996
 40
0.2499999999999996
 40
0.2499999999999996
 40
0.2812499999999995
 40
0.2812499999999995
 40
0.3124999999999994
 40
0.3124999999999994
 40
0.3437499999999994
 40
0.3437499999999994
 40
0.3749999999999993
 40
0.3749999999999993
 40
0.4062499999999993
 40
0.4062499999999993
 40
0.4374999999999992
 40
0.4374999999999992
 40
0.4687499999999992
 40
0.4687499999999992
 40
0.4999999999999991
 40
0.4999999999999991
 40
0.5312499999999991
 40
0.5312499999999991
 40
0.562499999999999
 40
0.562499999999999
 40
0.5937499999999989
 40
0.5937499999999989
 40
0.6249999999999989
 40
0.6249999999999989
 40
0.6562499999999989
 40
0.6562499999999989
 40
0.6874999999999988
 40
0.6874999999999988
 40
0.7187499999999987
 40
0.7187499999999987
 40
0.7499999999999987
 40
0.7499999999999987
 40
0.7812499999999987
 40
0.7812499999999987
 40
0.8124999999999986
 40
0.8124999999999986
 40
0.8437499999999984
 40
0.8437499999999984
 40
0.8749999999999984
 40
0.8749999999999984
 40
0.9374999999999992
 40
0.9374999999999992
 40
0.9687499999999996
 40
0.9687499999999996
 40
1.0
 40
1.0
 40
1.03125
 40
1.03125
 10
62.64484599589325
 20
138.9216398932849
 30
0.0
 10
62.64484599589325
 20
138.9216398932849
 30
0.0
 10
62.66109857670902
 20
138.9240789634965
 30
0.0
 10
62.72473665323886
 20
138.9333545371648
 30
0.0
 10
62.77291082745121
 20
138.9403013321659
 30
0.0
 10
62.89846889436527
 20
138.9575157722337
 30
0.0
 10
62.97526980797191
 20
138.9677045290482
 30
0.0
 10
63.15667991485592
 20
138.9900562964975
 30
0.0
 10
63.26212060312839
 20
139.0022886649577
 30
0.0
 10
63.49242561652866
 20
139.0263650961746
 30
0.0
 10
63.61813243003847
 20
139.0383295548509
 30
0.0
 10
63.89132526756103
 20
139.0607440333839
 30
0.0
 10
64.03649539584731
 20
139.0709675389849
 30
0.0
 10
64.3372131148273
 20
139.0879406922053
 30
0.0
 10
64.49499026880736
 20
139.0948100525287
 30
0.0
 10
64.81779531875269
 20
139.1040888928639
 30
0.0
 10
64.98014966089417
 20
139.1064545585291
 30
0.0
 10
65.30671976531833
 20
139.1064816692802
 30
0.0
 10
65.47260921206181
 20
139.1040656580122
 30
0.0
 10
65.7934068049705
 20
139.0948500225261
 30
0.0
 10
65.94935307647356
 20
139.0880990150281
 30
0.0
 10
66.25230473148152
 20
139.0710357432804
 30
0.0
 10
66.39838240253434
 20
139.060732554293
 30
0.0
 10
66.66902025906192
 20
139.038547993538
 30
0.0
 10
66.79547691523629
 20
139.0265493810852
 30
0.0
 10
67.02856202293772
 20
139.0021878809488
 30
0.0
 10
67.13184156549065
 20
138.9901931183807
 30
0.0
 10
67.31289619453825
 20
138.9678998370387
 30
0.0
 10
67.39130277554365
 20
138.9575050110089
 30
0.0
 10
67.51678736870373
 20
138.9403003184961
 30
0.0
 10
67.56417581571952
 20
138.9334671564422
 30
0.0
 10
67.628354211761
 20
138.9241148129908
 30
0.0
 10
67.64478316493373
 20
138.9216492346933
 30
0.0
 10
67.64490845873927
 20
138.9216306066058
 30
0.0
 10
67.62913348589213
 20
138.9239996131963
 30
0.0
 10
67.56506216656815
 20
138.9333395923148
 30
0.0
 10
67.51714853964103
 20
138.9402476408089
 30
0.0
 10
67.39260774696584
 20
138.957329208576
 30
0.0
 10
67.31494159732696
 20
138.967640112175
 30
0.0
 10
67.13264550413747
 20
138.990101881322
 30
0.0
 10
67.02940159328085
 20
139.0020843837698
 30
0.0
 10
66.79916848353062
 20
139.0261789875543
 30
0.0
 10
66.670747604848
 20
139.038394438176
 30
0.0
 10
66.39960905658349
 20
139.0606438365666
 30
0.0
 10
66.25620540505928
 20
139.0707799098466
 30
0.0
 10
65.95342401701612
 20
139.0879049209607
 30
0.0
 10
65.79478663359322
 20
139.0947918230766
 30
0.0
 10
65.47514908036784
 20
139.1040110290914
 30
0.0
 10
65.31223337697968
 20
139.1064472933046
 30
0.0
 10
64.9817268370622
 20
139.106488783757
 30
0.0
 10
64.8191650746147
 20
139.1041017060076
 30
0.0
 10
64.49920946528528
 20
139.0949574305903
 30
0.0
 10
64.34012568499894
 20
139.0880872020403
 30
0.0
 10
64.03755645182515
 20
139.0710450758244
 30
0.0
 10
63.89396990831393
 20
139.0609342170895
 30
0.0
 10
63.62204349322591
 20
139.0386766044053
 30
0.0
 10
63.49362449880322
 20
139.0264823976649
 30
0.0
 10
63.14805120076932
 20
138.990379620878
 30
0.0
 10
62.96155742347166
 20
138.9661590489775
 30
0.0
 10
62.7740164935512
 20
138.9404560788354
 30
0.0
 10
62.72572482545055
 20
138.9334975895697
 30
0.0
 10
62.66110070907839
 20
138.9240802381424
 30
0.0
 10
62.64484599589325
 20
138.9216398932849
 30
0.0
 10
62.64484599589325
 20
138.9216398932849
 30
0.0
  0
SPLINE
  5
261
330
1F
100
AcDbEntity
  8
0
  6
HIDDEN
 62
     7
370
     0
100
AcDbSpline
210
0.0
220
0.0
230
1.0
 70
     8
 71
     3
 72
    22
 73
    18
 74
     0
 42
0.00000001
 43
0.00000001
 12
1.0
 22
0.0
 32
0.0
 13
1.0
 23
0.0
 33
0.0
 40
0.0
 40
0.0
 40
0.0
 40
0.0
 40
0.125
 40
0.125
 40
0.25
 40
0.25
 40
0.375
 40
0.375
 40
0.5
 40
0.5
 40
0.625
 40
0.625
 40
0.75
 40
0.75
 40
0.875
 40
0.875
 40
1.0
 40
1.0
 40
1.0
 40
1.0
 10
63.02352565233362
 20
124.2277885160443
 30
0.0
 10
63.12900789312598
 20
124.3332707568366
 30
0.0
 10
63.25221736519675
 20
124.4408148083333
 30
0.0
 10
63.53931270703722
 20
124.6468382652871
 30
0.0
 10
63.70316654941616
 20
124.744855955179
 30
0.0
 10
64.06395709859059
 20
124.9120356569614
 30
0.0
 10
64.26587519086723
 20
124.9830473142266
 30
0.0
 10
64.68994922585105
 20
125.0797434983497
 30
0.0
 10
64.91808845008772
 20
125.1063271354181
 30
0.0
 10
65.367856222812
 20
125.1066080393511
 30
0.0
 10
65.59578722474863
 20
125.0803833107961
 30
0.0
 10
66.02096780625803
 20
124.9839548909879
 30
0.0
 10
66.2228197108812
 20
124.9132188630949
 30
0.0
 10
66.58531762208382
 20
124.7455813310259
 30
0.0
 10
66.74991953330911
 20
124.6471008645651
 30
0.0
 10
67.03642562742813
 20
124.4416345550243
 30
0.0
 10
67.1600476298878
 20
124.3339072256093
 30
0.0
 10
67.2661663394529
 20
124.2277885160443
 30
0.0
  0
SPLINE
  5
262
330
1F
100
AcDbEntity
  8
0
  6
HIDDEN
 62
     7
370
     0
100
AcDbSpline
210
0.0
220
0.0
230
1.0
 70
     8
 71
     3
 72
    22
 73
    18
 74
     0
 42
0.00000001
 43
0.00000001
 12
1.0
 22
0.0
 32
0.0
 13
1.0
 23
0.0
 33
0.0
 40
0.0
 40
0.0
 40
0.0
 40
0.0
 40
0.125
 40
0.125
 40
0.25
 40
0.25
 40
0.375
 40
0.375
 40
0.5
 40
0.5
 40
0.625
 40
0.625
 40
0.75
 40
0.75
 40
0.875
 40
0.875
 40
1.0
 40
1.0
 40
1.0
 40
1.0
 10
67.26616633945288
 20
124.2277885160443
 30
0.0
 10
67.16112483594533
 20
124.3328300195518
 30
0.0
 10
67.03646497406767
 20
124.441672901287
 30
0.0
 10
66.74838786768142
 20
124.648132381115
 30
0.0
 10
66.58807625215078
 20
124.7439632172791
 30
0.0
 10
66.22849664357344
 20
124.9109280059775
 30
0.0
 10
66.02653139864887
 20
124.982226187123
 30
0.0
 10
65.60229332059303
 20
125.0793615868731
 30
0.0
 10
65.3741566566375
 20
125.1061389271169
 30
0.0
 10
64.92423262309333
 20
125.1067911142809
 30
0.0
 10
64.69585966674329
 20
125.0806895346264
 30
0.0
 10
64.27034210518998
 20
124.9844578145662
 30
0.0
 10
64.06821064065235
 20
124.9137459309951
 30
0.0
 10
63.70530074726172
 20
124.7461010217128
 30
0.0
 10
63.54051241215961
 20
124.6475646181954
 30
0.0
 10
63.25402677666848
 20
124.4422464313333
 30
0.0
 10
63.13007252757533
 20
124.334335391286
 30
0.0
 10
63.02352565233362
 20
124.2277885160443
 30
0.0
  0
SPLINE
  5
263
330
1F
100
AcDbEntity
  8
0
  6
HIDDEN
 62
     7
370
     0
100
AcDbSpline
210
0.0
220
0.0
230
1.0
 70
    11
 71
     3
 72
    68
 73
    64
 74
     0
 42
0.00000001
 43
0.00000001
 12
1.0
 22
0.0
 32
0.0
 13
1.0
 23
0.0
 33
0.0
 40
-0.0312500000000004
 40
-0.0312500000000004
 40
0.0
 40
0.0
 40
0.0312499999999999
 40
0.0312499999999999
 40
0.0624999999999999
 40
0.0624999999999999
 40
0.0937499999999998
 40
0.0937499999999998
 40
0.1249999999999998
 40
0.1249999999999998
 40
0.1562499999999997
 40
0.1562499999999997
 40
0.1874999999999996
 40
0.1874999999999996
 40
0.2187499999999996
 40
0.2187499999999996
 40
0.2499999999999995
 40
0.2499999999999995
 40
0.2812499999999994
 40
0.2812499999999994
 40
0.3124999999999994
 40
0.3124999999999994
 40
0.3437499999999993
 40
0.3437499999999993
 40
0.3749999999999992
 40
0.3749999999999992
 40
0.4062499999999992
 40
0.4062499999999992
 40
0.4374999999999991
 40
0.4374999999999991
 40
0.4687499999999991
 40
0.4687499999999991
 40
0.499999999999999
 40
0.499999999999999
 40
0.5312499999999989
 40
0.5312499999999989
 40
0.5624999999999989
 40
0.5624999999999989
 40
0.5937499999999988
 40
0.5937499999999988
 40
0.6249999999999988
 40
0.6249999999999988
 40
0.6562499999999987
 40
0.6562499999999987
 40
0.6874999999999987
 40
0.6874999999999987
 40
0.7187499999999986
 40
0.7187499999999986
 40
0.7499999999999984
 40
0.7499999999999984
 40
0.7812499999999984
 40
0.7812499999999984
 40
0.8124999999999983
 40
0.8124999999999983
 40
0.8437499999999983
 40
0.8437499999999983
 40
0.8749999999999982
 40
0.8749999999999982
 40
0.9374999999999991
 40
0.9374999999999991
 40
0.9687499999999996
 40
0.9687499999999996
 40
1.0
 40
1.0
 40
1.03125
 40
1.03125
 10
48.32967427509298
 20
119.6064681724848
 30
0.0
 10
48.32967427509299
 20
119.6064681724848
 30
0.0
 10
48.32723520488137
 20
119.6227207533005
 30
0.0
 10
48.31795963121305
 20
119.6863588298304
 30
0.0
 10
48.31101283621192
 20
119.7345330040427
 30
0.0
 10
48.29379839614415
 20
119.8600910709568
 30
0.0
 10
48.28360963932964
 20
119.9368919845634
 30
0.0
 10
48.26125787188033
 20
120.1183020914474
 30
0.0
 10
48.24902550342017
 20
120.2237427797199
 30
0.0
 10
48.22494907220322
 20
120.4540477931202
 30
0.0
 10
48.21298461352698
 20
120.57975460663
 30
0.0
 10
48.19057013499397
 20
120.8529474441526
 30
0.0
 10
48.18034662939299
 20
120.9981175724388
 30
0.0
 10
48.1633734761725
 20
121.2988352914188
 30
0.0
 10
48.15650411584913
 20
121.4566124453989
 30
0.0
 10
48.1472252755139
 20
121.7794174953442
 30
0.0
 10
48.14485960984877
 20
121.9417718374857
 30
0.0
 10
48.14483249909768
 20
122.2683419419099
 30
0.0
 10
48.14724851036562
 20
122.4342313886533
 30
0.0
 10
48.15646414585181
 20
122.755028981562
 30
0.0
 10
48.16321515334975
 20
122.9109752530651
 30
0.0
 10
48.18027842509742
 20
123.213926908073
 30
0.0
 10
48.19058161408491
 20
123.3600045791259
 30
0.0
 10
48.21276617483984
 20
123.6306424356534
 30
0.0
 10
48.22476478729268
 20
123.7570990918278
 30
0.0
 10
48.24912628742906
 20
123.9901841995293
 30
0.0
 10
48.26112104999719
 20
124.0934637420822
 30
0.0
 10
48.28341433133915
 20
124.2745183711298
 30
0.0
 10
48.29380915736895
 20
124.3529249521352
 30
0.0
 10
48.31101384988175
 20
124.4784095452953
 30
0.0
 10
48.31784701193564
 20
124.5257979923111
 30
0.0
 10
48.32719935538709
 20
124.5899763883525
 30
0.0
 10
48.32966493368461
 20
124.6064053415253
 30
0.0
 10
48.32968356177212
 20
124.6065306353308
 30
0.0
 10
48.32731455518155
 20
124.5907556624837
 30
0.0
 10
48.31797457606316
 20
124.5266843431597
 30
0.0
 10
48.31106652756896
 20
124.4787707162325
 30
0.0
 10
48.29398495980184
 20
124.3542299235574
 30
0.0
 10
48.28367405620283
 20
124.2765637739185
 30
0.0
 10
48.26121228705588
 20
124.094267680729
 30
0.0
 10
48.24922978460803
 20
123.9910237698724
 30
0.0
 10
48.22513518082356
 20
123.7607906601221
 30
0.0
 10
48.21291973020187
 20
123.6323697814395
 30
0.0
 10
48.19067033181133
 20
123.361231233175
 30
0.0
 10
48.18053425853132
 20
123.2178275816508
 30
0.0
 10
48.16340924741715
 20
122.9150461936077
 30
0.0
 10
48.15652234530125
 20
122.7564088101848
 30
0.0
 10
48.14730313928647
 20
122.4367712569594
 30
0.0
 10
48.14486687507327
 20
122.2738555535712
 30
0.0
 10
48.14482538462091
 20
121.9433490136537
 30
0.0
 10
48.14721246237031
 20
121.7807872512062
 30
0.0
 10
48.15635673778754
 20
121.4608316418768
 30
0.0
 10
48.16322696633758
 20
121.3017478615905
 30
0.0
 10
48.18026909255345
 20
120.9991786284167
 30
0.0
 10
48.19037995128839
 20
120.8555920849055
 30
0.0
 10
48.21263756397254
 20
120.5836656698174
 30
0.0
 10
48.22483177071293
 20
120.4552466753947
 30
0.0
 10
48.26093454749981
 20
120.1096733773608
 30
0.0
 10
48.28515511940034
 20
119.9231796000632
 30
0.0
 10
48.31085808954241
 20
119.7356386701427
 30
0.0
 10
48.31781657880813
 20
119.6873470020421
 30
0.0
 10
48.32723393023551
 20
119.6227228856699
 30
0.0
 10
48.32967427509298
 20
119.6064681724848
 30
0.0
 10
48.32967427509299
 20
119.6064681724848
 30
0.0
  0
SPLINE
  5
264
330
1F
100
AcDbEntity
  8
0
  6
HIDDEN
 62
     7
370
     0
100
AcDbSpline
210
0.0
220
0.0
230
1.0
 70
    11
 71
     3
 72
    58
 73
    54
 74
     0
 42
0.00000001
 43
0.00000001
 12
1.0
 22
0.0
 32
0.0
 13
1.0
 23
0.0
 33
0.0
 40
0.0
 40
0.0
 40
0.0
 40
0.0
 40
0.0312499999999995
 40
0.0312499999999995
 40
0.0624999999999989
 40
0.0624999999999989
 40
0.0937499999999984
 40
0.0937499999999984
 40
0.1249999999999979
 40
0.1249999999999979
 40
0.1562499999999973
 40
0.1562499999999973
 40
0.1874999999999968
 40
0.1874999999999968
 40
0.2499999999999956
 40
0.2499999999999956
 40
0.2812499999999951
 40
0.2812499999999951
 40
0.3124999999999945
 40
0.3124999999999945
 40
0.3749999999999941
 40
0.3749999999999941
 40
0.4062499999999944
 40
0.4062499999999944
 40
0.4374999999999947
 40
0.4374999999999947
 40
0.468749999999995
 40
0.468749999999995
 40
0.4999999999999953
 40
0.4999999999999953
 40
0.5312499999999957
 40
0.5312499999999957
 40
0.562499999999996
 40
0.562499999999996
 40
0.6249999999999967
 40
0.6249999999999967
 40
0.656249999999997
 40
0.656249999999997
 40
0.6874999999999973
 40
0.6874999999999973
 40
0.7187499999999977
 40
0.7187499999999977
 40
0.749999999999998
 40
0.749999999999998
 40
0.8124999999999988
 40
0.8124999999999988
 40
0.8437499999999991
 40
0.8437499999999991
 40
0.8749999999999994
 40
0.8749999999999994
 40
0.9374999999999998
 40
0.9374999999999998
 40
1.0
 40
1.0
 40
1.0
 40
1.0
 10
63.02352565233362
 20
124.2277885160443
 30
0.0
 10
62.95666269693671
 20
124.1609255606474
 30
0.0
 10
62.88854493736193
 20
124.0864941209673
 30
0.0
 10
62.75350839728701
 20
123.9211035939637
 30
0.0
 10
62.68649946176588
 20
123.8298372900958
 30
0.0
 10
62.56070846704587
 20
123.6347685452499
 30
0.0
 10
62.50134848841553
 20
123.5303649141442
 30
0.0
 10
62.39226350054619
 20
123.305989164072
 30
0.0
 10
62.34210438962318
 20
123.1847948435598
 30
0.0
 10
62.25673363714922
 20
122.9292414853354
 30
0.0
 10
62.22191593698292
 20
122.7965522937167
 30
0.0
 10
62.17021748714596
 20
122.5203781368563
 30
0.0
 10
62.15353504945679
 20
122.3758540097999
 30
0.0
 10
62.13544727154471
 20
121.9465965103429
 30
0.0
 10
62.16630294888731
 20
121.6541957842838
 30
0.0
 10
62.26577342624805
 20
121.2520628894276
 30
0.0
 10
62.30802293825934
 20
121.1217810438865
 30
0.0
 10
62.40469300328923
 20
120.8781622746426
 30
0.0
 10
62.45919773501729
 20
120.7639406551426
 30
0.0
 10
62.63730500537677
 20
120.4413600544498
 30
0.0
 10
62.77185304415607
 20
120.2597217608402
 30
0.0
 10
62.97561114436026
 20
120.0316640556163
 30
0.0
 10
63.0445146400136
 20
119.9625080109415
 30
0.0
 10
63.17560945905287
 20
119.8415036163054
 30
0.0
 10
63.23811174843731
 20
119.7892766671966
 30
0.0
 10
63.3495374082386
 20
119.7019143598836
 30
0.0
 10
63.39860294445901
 20
119.6667197636167
 30
0.0
 10
63.46705377465742
 20
119.6191502684731
 30
0.0
 10
63.48678643483562
 20
119.6063004609303
 30
0.0
 10
63.48627568091861
 20
119.606639257499
 30
0.0
 10
63.46663771169482
 20
119.6194245226653
 30
0.0
 10
63.39757204764092
 20
119.6674513806159
 30
0.0
 10
63.3486029891772
 20
119.702618473559
 30
0.0
 10
63.18200141063019
 20
119.8333270877941
 30
0.0
 10
63.04279270758591
 20
119.9564746964064
 30
0.0
 10
62.84018155010205
 20
120.1832425523814
 30
0.0
 10
62.77286321839458
 20
120.2662671756443
 30
0.0
 10
62.64177366316456
 20
120.4489788353694
 30
0.0
 10
62.57778093800425
 20
120.5492279006895
 30
0.0
 10
62.46004505217098
 20
120.7623460916737
 30
0.0
 10
62.4057637198549
 20
120.8758127323753
 30
0.0
 10
62.30910878819866
 20
121.118703516266
 30
0.0
 10
62.26679587990967
 20
121.2486991514854
 30
0.0
 10
62.1671269015083
 20
121.6493580665679
 30
0.0
 10
62.13575092028208
 20
121.9415048174116
 30
0.0
 10
62.15305083052419
 20
122.3703397494315
 30
0.0
 10
62.16942221898142
 20
122.514666394347
 30
0.0
 10
62.22064904773318
 20
122.7911904876718
 30
0.0
 10
62.25527732079542
 20
122.92416314064
 30
0.0
 10
62.38299024483296
 20
123.3085836272344
 30
0.0
 10
62.49719085172289
 20
123.5364004687446
 30
0.0
 10
62.75100580806178
 20
123.9297381166953
 30
0.0
 10
62.88847604002835
 20
124.092738903739
 30
0.0
 10
63.02352565233362
 20
124.2277885160443
 30
0.0
  0
LINE
  5
265
330
1F
100
AcDbEntity
  8
0
  6
HIDDEN
 62
     7
370
     0
100
AcDbLine
 10
82.1448459959
 20
119.6244401571
 30
0.0
 11
82.1448459959
 21
124.5884961879
 31
0.0
  0
LINE
  5
266
330
1F
100
AcDbEntity
  8
0
  6
HIDDEN
 62
     7
370
     0
100
AcDbLine
 10
81.6448459959
 20
119.1174660987
 30
0.0
 11
81.6448459959
 21
125.1040672069
 31
0.0
  0
LINE
  5
267
330
1F
100
AcDbEntity
  8
0
  6
HIDDEN
 62
     7
370
     0
100
AcDbLine
 10
72.5448459959
 20
119.1174660987
 30
0.0
 11
72.5448459959
 21
125.1040672069
 31
0.0
  0
LINE
  5
268
330
1F
100
AcDbEntity
  8
0
  6
HIDDEN
 62
     7
370
     0
100
AcDbLine
 10
71.6448459959
 20
120.0164665736
 30
0.0
 11
71.6448459959
 21
124.2036319381
 31
0.0
  0
LINE
  5
269
330
1F
100
AcDbEntity
  8
0
  6
HIDDEN
 62
     7
370
     0
100
AcDbLine
 10
82.1448459959
 20
123.5863156157
 30
0.0
 11
82.1448459959
 21
122.0669442316
 31
0.0
  0
LINE
  5
26A
330
1F
100
AcDbEntity
  8
0
  6
HIDDEN
 62
     7
370
     0
100
AcDbLine
 10
78.6448459959
 20
123.5863156157
 30
0.0
 11
78.6448459959
 21
122.0669442316
 31
0.0
  0
LINE
  5
26B
330
1F
100
AcDbEntity
  8
0
  6
HIDDEN
 62
     7
370
     0
100
AcDbLine
 10
78.6448459959
 20
120.5870967884
 30
0.0
 11
78.6448459959
 21
122.0669442316
 31
0.0
  0
LINE
  5
26C
330
1F
100
AcDbEntity
  8
0
  6
HIDDEN
 62
     7
370
     0
100
AcDbLine
 10
78.6448459959
 20
122.0669442316
 30
0.0
 11
82.1448459959
 21
122.0669442316
 31
0.0
  0
LINE
  5
26D
330
1F
100
AcDbEntity
  8
0
  6
HIDDEN
 62
     7
370
     0
100
AcDbLine
 10
82.1448459959
 20
120.5870967884
 30
0.0
 11
82.1448459959
 21
122.0669442316
 31
0.0
  0
LINE
  5
26E
330
1F
100
AcDbEntity
  8
0
  6
HIDDEN
 62
     7
370
     0
100
AcDbLine
 10
71.6448459959
 20
120.8567936611
 30
0.0
 11
71.6448459959
 21
123.3561426839
 31
0.0
  0
LINE
  5
26F
330
1F
100
AcDbEntity
  8
0
  6
HIDDEN
 62
     7
370
     0
100
AcDbLine
 10
78.6448459959
 20
123.6258395566
 30
0.0
 11
78.6448459959
 21
123.5863156157
 31
0.0
  0
LINE
  5
270
330
1F
100
AcDbEntity
  8
0
  6
HIDDEN
 62
     7
370
     0
100
AcDbLine
 10
78.6448459959
 20
123.5863156157
 30
0.0
 11
82.1448459959
 21
123.5863156157
 31
0.0
  0
LINE
  5
271
330
1F
100
AcDbEntity
  8
0
  6
HIDDEN
 62
     7
370
     0
100
AcDbLine
 10
82.1448459959
 20
123.6258395566
 30
0.0
 11
82.1448459959
 21
123.5863156157
 31
0.0
  0
LINE
  5
272
330
1F
100
AcDbEntity
  8
0
  6
HIDDEN
 62
     7
370
     0
100
AcDbLine
 10
78.6448459959
 20
120.6266207292
 30
0.0
 11
82.1448459959
 21
120.6266207292
 31
0.0
  0
LINE
  5
273
330
1F
100
AcDbEntity
  8
0
  6
HIDDEN
 62
     7
370
     0
100
AcDbLine
 10
78.6448459959
 20
120.5870967884
 30
0.0
 11
82.1448459959
 21
120.5870967884
 31
0.0
  0
LINE
  5
274
330
1F
100
AcDbEntity
  8
0
  6
HIDDEN
 62
     7
370
     0
100
AcDbLine
 10
78.6448459959
 20
120.6266207292
 30
0.0
 11
78.6448459959
 21
120.5870967884
 31
0.0
  0
LINE
  5
275
330
1F
100
AcDbEntity
  8
0
  6
HIDDEN
 62
     7
370
     0
100
AcDbLine
 10
82.1448459959
 20
120.6266207292
 30
0.0
 11
82.1448459959
 21
120.5870967884
 31
0.0
  0
LINE
  5
276
330
1F
100
AcDbEntity
  8
0
  6
HIDDEN
 62
     7
370
     0
100
AcDbLine
 10
78.6448459959
 20
122.1459921133
 30
0.0
 11
82.1448459959
 21
122.1459921133
 31
0.0
  0
LINE
  5
277
330
1F
100
AcDbEntity
  8
0
  6
HIDDEN
 62
     7
370
     0
100
AcDbLine
 10
78.6448459959
 20
123.6258395566
 30
0.0
 11
82.1448459959
 21
123.6258395566
 31
0.0
  0
LINE
  5
278
330
1F
100
AcDbEntity
  8
0
  6
HIDDEN
 62
     7
370
     0
100
AcDbLine
 10
78.6448459959
 20
123.6258395566
 30
0.0
 11
78.6448459959
 21
122.1459921133
 31
0.0
  0
LINE
  5
279
330
1F
100
AcDbEntity
  8
0
  6
HIDDEN
 62
     7
370
     0
100
AcDbLine
 10
82.1448459959
 20
123.6258395566
 30
0.0
 11
82.1448459959
 21
122.1459921133
 31
0.0
  0
LINE
  5
27A
330
1F
100
AcDbEntity
  8
0
  6
HIDDEN
 62
     7
370
     0
100
AcDbLine
 10
78.6448459959
 20
120.6266207292
 30
0.0
 11
78.6448459959
 21
122.1459921133
 31
0.0
  0
LINE
  5
27B
330
1F
100
AcDbEntity
  8
0
  6
HIDDEN
 62
     7
370
     0
100
AcDbLine
 10
82.1448459959
 20
120.6266207292
 30
0.0
 11
82.1448459959
 21
122.1459921133
 31
0.0
  0
LINE
  5
27C
330
1F
100
AcDbEntity
  8
0
  6
HIDDEN
 62
     7
370
     0
100
AcDbLine
 10
82.1448459959
 20
119.6284919407
 30
0.0
 11
82.1448459959
 21
124.5844444042
 31
0.0
  0
LINE
  5
27D
330
1F
100
AcDbEntity
  8
0
  6
HIDDEN
 62
     7
370
     0
100
AcDbLine
 10
81.6448459959
 20
119.1236474602
 30
0.0
 11
81.6448459959
 21
125.1059495519
 31
0.0
  0
LINE
  5
27E
330
1F
100
AcDbEntity
  8
0
  6
HIDDEN
 62
     7
370
     0
100
AcDbLine
 10
72.5448459959
 20
119.1236474602
 30
0.0
 11
72.5448459959
 21
125.1059495519
 31
0.0
  0
LINE
  5
27F
330
1F
100
AcDbEntity
  8
0
  6
HIDDEN
 62
     7
370
     0
100
AcDbLine
 10
71.6448459959
 20
120.0117836457
 30
0.0
 11
71.6448459959
 21
124.2000119301
 31
0.0
  0
LINE
  5
280
330
1F
100
AcDbEntity
  8
0
  6
HIDDEN
 62
     7
370
     0
100
AcDbLine
 10
82.1448459959
 20
123.2891688821
 30
0.0
 11
82.1448459959
 21
121.6019561848
 31
0.0
  0
LINE
  5
281
330
1F
100
AcDbEntity
  8
0
  6
HIDDEN
 62
     7
370
     0
100
AcDbLine
 10
78.6448459959
 20
123.2891688821
 30
0.0
 11
78.6448459959
 21
121.6019561848
 31
0.0
  0
LINE
  5
282
330
1F
100
AcDbEntity
  8
0
  6
HIDDEN
 62
     7
370
     0
100
AcDbLine
 10
78.6448459959
 20
120.4192554752
 30
0.0
 11
78.6448459959
 21
121.6019561848
 31
0.0
  0
LINE
  5
283
330
1F
100
AcDbEntity
  8
0
  6
HIDDEN
 62
     7
370
     0
100
AcDbLine
 10
78.6448459959
 20
121.6019561848
 30
0.0
 11
82.1448459959
 21
121.6019561848
 31
0.0
  0
LINE
  5
284
330
1F
100
AcDbEntity
  8
0
  6
HIDDEN
 62
     7
370
     0
100
AcDbLine
 10
82.1448459959
 20
120.4192554752
 30
0.0
 11
82.1448459959
 21
121.6019561848
 31
0.0
  0
LINE
  5
285
330
1F
100
AcDbEntity
  8
0
  6
HIDDEN
 62
     7
370
     0
100
AcDbLine
 10
71.6448459959
 20
120.8623604647
 30
0.0
 11
71.6448459959
 21
123.3505758803
 31
0.0
  0
LINE
  5
286
330
1F
100
AcDbEntity
  8
0
  6
HIDDEN
 62
     7
370
     0
100
AcDbLine
 10
78.6448459959
 20
123.7936808698
 30
0.0
 11
78.6448459959
 21
123.2891688821
 31
0.0
  0
LINE
  5
287
330
1F
100
AcDbEntity
  8
0
  6
HIDDEN
 62
     7
370
     0
100
AcDbLine
 10
78.6448459959
 20
123.2891688821
 30
0.0
 11
82.1448459959
 21
123.2891688821
 31
0.0
  0
LINE
  5
288
330
1F
100
AcDbEntity
  8
0
  6
HIDDEN
 62
     7
370
     0
100
AcDbLine
 10
82.1448459959
 20
123.7936808698
 30
0.0
 11
82.1448459959
 21
123.2891688821
 31
0.0
  0
LINE
  5
289
330
1F
100
AcDbEntity
  8
0
  6
HIDDEN
 62
     7
370
     0
100
AcDbLine
 10
78.6448459959
 20
120.9237674629
 30
0.0
 11
82.1448459959
 21
120.9237674629
 31
0.0
  0
LINE
  5
28A
330
1F
100
AcDbEntity
  8
0
  6
HIDDEN
 62
     7
370
     0
100
AcDbLine
 10
78.6448459959
 20
120.4192554752
 30
0.0
 11
82.1448459959
 21
120.4192554752
 31
0.0
  0
LINE
  5
28B
330
1F
100
AcDbEntity
  8
0
  6
HIDDEN
 62
     7
370
     0
100
AcDbLine
 10
78.6448459959
 20
120.9237674629
 30
0.0
 11
78.6448459959
 21
120.4192554752
 31
0.0
  0
LINE
  5
28C
330
1F
100
AcDbEntity
  8
0
  6
HIDDEN
 62
     7
370
     0
100
AcDbLine
 10
82.1448459959
 20
120.9237674629
 30
0.0
 11
82.1448459959
 21
120.4192554752
 31
0.0
  0
LINE
  5
28D
330
1F
100
AcDbEntity
  8
0
  6
HIDDEN
 62
     7
370
     0
100
AcDbLine
 10
78.6448459959
 20
122.6109801602
 30
0.0
 11
82.1448459959
 21
122.6109801602
 31
0.0
  0
LINE
  5
28E
330
1F
100
AcDbEntity
  8
0
  6
HIDDEN
 62
     7
370
     0
100
AcDbLine
 10
78.6448459959
 20
123.7936808698
 30
0.0
 11
82.1448459959
 21
123.7936808698
 31
0.0
  0
LINE
  5
28F
330
1F
100
AcDbEntity
  8
0
  6
HIDDEN
 62
     7
370
     0
100
AcDbLine
 10
78.6448459959
 20
123.7936808698
 30
0.0
 11
78.6448459959
 21
122.6109801602
 31
0.0
  0
LINE
  5
290
330
1F
100
AcDbEntity
  8
0
  6
HIDDEN
 62
     7
370
     0
100
AcDbLine
 10
82.1448459959
 20
123.7936808698
 30
0.0
 11
82.1448459959
 21
122.6109801602
 31
0.0
  0
LINE
  5
291
330
1F
100
AcDbEntity
  8
0
  6
HIDDEN
 62
     7
370
     0
100
AcDbLine
 10
78.6448459959
 20
120.9237674629
 30
0.0
 11
78.6448459959
 21
122.6109801602
 31
0.0
  0
LINE
  5
292
330
1F
100
AcDbEntity
  8
0
  6
HIDDEN
 62
     7
370
     0
100
AcDbLine
 10
82.1448459959
 20
120.9237674629
 30
0.0
 11
82.1448459959
 21
122.6109801602
 31
0.0
  0
LINE
  5
293
330
1F
100
AcDbEntity
  8
0
  6
HIDDEN
 62
     7
370
     0
100
AcDbLine
 10
57.7448459959
 20
119.1129315467
 30
0.0
 11
57.7448459959
 21
125.1010680687
 31
0.0
  0
LINE
  5
294
330
1F
100
AcDbEntity
  8
0
  6
HIDDEN
 62
     7
370
     0
100
AcDbLine
 10
58.6448459959
 20
120.0082953345
 30
0.0
 11
58.6448459959
 21
124.1942596882
 31
0.0
  0
LINE
  5
295
330
1F
100
AcDbEntity
  8
0
  6
HIDDEN
 62
     7
370
     0
100
AcDbLine
 10
48.6448459959
 20
119.1129315467
 30
0.0
 11
48.6448459959
 21
125.1010680687
 31
0.0
  0
LINE
  5
296
330
1F
100
AcDbEntity
  8
0
  6
HIDDEN
 62
     7
370
     0
100
AcDbLine
 10
48.1448459959
 20
119.6175711958
 30
0.0
 11
48.1448459959
 21
124.5953651491
 31
0.0
  0
LINE
  5
297
330
1F
100
AcDbEntity
  8
0
  6
HIDDEN
 62
     7
370
     0
100
AcDbLine
 10
51.6448459959
 20
122.6714632373
 30
0.0
 11
51.6448459959
 21
123.8069168439
 31
0.0
  0
LINE
  5
298
330
1F
100
AcDbEntity
  8
0
  6
HIDDEN
 62
     7
370
     0
100
AcDbLine
 10
48.1448459959
 20
122.6714632373
 30
0.0
 11
48.1448459959
 21
123.8069168439
 31
0.0
  0
LINE
  5
299
330
1F
100
AcDbEntity
  8
0
  6
HIDDEN
 62
     7
370
     0
100
AcDbLine
 10
51.6448459959
 20
122.6714632373
 30
0.0
 11
48.1448459959
 21
122.6714632373
 31
0.0
  0
LINE
  5
29A
330
1F
100
AcDbEntity
  8
0
  6
HIDDEN
 62
     7
370
     0
100
AcDbLine
 10
51.6448459959
 20
122.6714632373
 30
0.0
 11
51.6448459959
 21
120.9710145659
 31
0.0
  0
LINE
  5
29B
330
1F
100
AcDbEntity
  8
0
  6
HIDDEN
 62
     7
370
     0
100
AcDbLine
 10
48.1448459959
 20
122.6714632373
 30
0.0
 11
48.1448459959
 21
120.9710145659
 31
0.0
  0
LINE
  5
29C
330
1F
100
AcDbEntity
  8
0
  6
HIDDEN
 62
     7
370
     0
100
AcDbLine
 10
58.6448459959
 20
123.3336612952
 30
0.0
 11
58.6448459959
 21
120.8792750498
 31
0.0
  0
LINE
  5
29D
330
1F
100
AcDbEntity
  8
0
  6
HIDDEN
 62
     7
370
     0
100
AcDbLine
 10
51.6448459959
 20
120.9710145659
 30
0.0
 11
48.1448459959
 21
120.9710145659
 31
0.0
  0
LINE
  5
29E
330
1F
100
AcDbEntity
  8
0
  6
HIDDEN
 62
     7
370
     0
100
AcDbLine
 10
51.6448459959
 20
120.9710145659
 30
0.0
 11
51.6448459959
 21
120.4060195011
 31
0.0
  0
LINE
  5
29F
330
1F
100
AcDbEntity
  8
0
  6
HIDDEN
 62
     7
370
     0
100
AcDbLine
 10
48.1448459959
 20
120.9710145659
 30
0.0
 11
48.1448459959
 21
120.4060195011
 31
0.0
  0
LINE
  5
2A0
330
1F
100
AcDbEntity
  8
0
  6
HIDDEN
 62
     7
370
     0
100
AcDbLine
 10
51.6448459959
 20
123.2419217791
 30
0.0
 11
48.1448459959
 21
123.2419217791
 31
0.0
  0
LINE
  5
2A1
330
1F
100
AcDbEntity
  8
0
  6
HIDDEN
 62
     7
370
     0
100
AcDbLine
 10
51.6448459959
 20
123.8069168439
 30
0.0
 11
48.1448459959
 21
123.8069168439
 31
0.0
  0
LINE
  5
2A2
330
1F
100
AcDbEntity
  8
0
  6
HIDDEN
 62
     7
370
     0
100
AcDbLine
 10
51.6448459959
 20
123.2419217791
 30
0.0
 11
51.6448459959
 21
123.8069168439
 31
0.0
  0
LINE
  5
2A3
330
1F
100
AcDbEntity
  8
0
  6
HIDDEN
 62
     7
370
     0
100
AcDbLine
 10
48.1448459959
 20
123.2419217791
 30
0.0
 11
48.1448459959
 21
123.8069168439
 31
0.0
  0
LINE
  5
2A4
330
1F
100
AcDbEntity
  8
0
  6
HIDDEN
 62
     7
370
     0
100
AcDbLine
 10
51.6448459959
 20
121.5414731077
 30
0.0
 11
48.1448459959
 21
121.5414731077
 31
0.0
  0
LINE
  5
2A5
330
1F
100
AcDbEntity
  8
0
  6
HIDDEN
 62
     7
370
     0
100
AcDbLine
 10
51.6448459959
 20
120.4060195011
 30
0.0
 11
48.1448459959
 21
120.4060195011
 31
0.0
  0
LINE
  5
2A6
330
1F
100
AcDbEntity
  8
0
  6
HIDDEN
 62
     7
370
     0
100
AcDbLine
 10
51.6448459959
 20
121.5414731077
 30
0.0
 11
51.6448459959
 21
120.4060195011
 31
0.0
  0
LINE
  5
2A7
330
1F
100
AcDbEntity
  8
0
  6
HIDDEN
 62
     7
370
     0
100
AcDbLine
 10
48.1448459959
 20
121.5414731077
 30
0.0
 11
48.1448459959
 21
120.4060195011
 31
0.0
  0
LINE
  5
2A8
330
1F
100
AcDbEntity
  8
0
  6
HIDDEN
 62
     7
370
     0
100
AcDbLine
 10
51.6448459959
 20
123.2419217791
 30
0.0
 11
51.6448459959
 21
121.5414731077
 31
0.0
  0
LINE
  5
2A9
330
1F
100
AcDbEntity
  8
0
  6
HIDDEN
 62
     7
370
     0
100
AcDbLine
 10
48.1448459959
 20
123.2419217791
 30
0.0
 11
48.1448459959
 21
121.5414731077
 31
0.0
  0
LINE
  5
2AA
330
1F
100
AcDbEntity
  8
0
  6
HIDDEN
 62
     7
370
     0
100
AcDbLine
 10
62.1470311117
 20
129.5064681725
 30
0.0
 11
68.1333704997
 21
129.5064681725
 31
0.0
  0
LINE
  5
2AB
330
1F
100
AcDbEntity
  8
0
  6
HIDDEN
 62
     7
370
     0
100
AcDbLine
 10
63.0636473148
 20
128.6064681725
 30
0.0
 11
67.2445876401
 21
128.6064681725
 31
0.0
  0
LINE
  5
2AC
330
1F
100
AcDbEntity
  8
0
  6
HIDDEN
 62
     7
370
     0
100
AcDbLine
 10
62.1470311117
 20
138.6064681725
 30
0.0
 11
68.1333704997
 21
138.6064681725
 31
0.0
  0
LINE
  5
2AD
330
1F
100
AcDbEntity
  8
0
  6
HIDDEN
 62
     7
370
     0
100
AcDbLine
 10
62.6590671987
 20
139.1064681725
 30
0.0
 11
67.6306247931
 21
139.1064681725
 31
0.0
  0
LINE
  5
2AE
330
1F
100
AcDbEntity
  8
0
  6
HIDDEN
 62
     7
370
     0
100
AcDbLine
 10
65.042517888
 20
139.1064681725
 30
0.0
 11
63.5963019906
 21
139.1064681725
 31
0.0
  0
LINE
  5
2AF
330
1F
100
AcDbEntity
  8
0
  6
HIDDEN
 62
     7
370
     0
100
AcDbLine
 10
65.042517888
 20
135.6064681725
 30
0.0
 11
63.5963019906
 21
135.6064681725
 31
0.0
  0
LINE
  5
2B0
330
1F
100
AcDbEntity
  8
0
  6
HIDDEN
 62
     7
370
     0
100
AcDbLine
 10
65.042517888
 20
135.6064681725
 30
0.0
 11
66.5910618933
 21
135.6064681725
 31
0.0
  0
LINE
  5
2B1
330
1F
100
AcDbEntity
  8
0
  6
HIDDEN
 62
     7
370
     0
100
AcDbLine
 10
65.042517888
 20
135.6064681725
 30
0.0
 11
65.042517888
 21
139.1064681725
 31
0.0
  0
LINE
  5
2B2
330
1F
100
AcDbEntity
  8
0
  6
HIDDEN
 62
     7
370
     0
100
AcDbLine
 10
65.042517888
 20
139.1064681725
 30
0.0
 11
66.5910618933
 21
139.1064681725
 31
0.0
  0
LINE
  5
2B3
330
1F
100
AcDbEntity
  8
0
  6
HIDDEN
 62
     7
370
     0
100
AcDbLine
 10
63.8980653916
 20
128.6064681725
 30
0.0
 11
66.3916266002
 21
128.6064681725
 31
0.0
  0
LINE
  5
2B4
330
1F
100
AcDbEntity
  8
0
  6
HIDDEN
 62
     7
370
     0
100
AcDbLine
 10
66.5910618933
 20
135.6064681725
 30
0.0
 11
66.5910618933
 21
139.1064681725
 31
0.0
  0
LINE
  5
2B5
330
1F
100
AcDbEntity
  8
0
  6
HIDDEN
 62
     7
370
     0
100
AcDbLine
 10
66.5910618933
 20
135.6064681725
 30
0.0
 11
66.6933900012
 21
135.6064681725
 31
0.0
  0
LINE
  5
2B6
330
1F
100
AcDbEntity
  8
0
  6
HIDDEN
 62
     7
370
     0
100
AcDbLine
 10
66.5910618933
 20
139.1064681725
 30
0.0
 11
66.6933900012
 21
139.1064681725
 31
0.0
  0
LINE
  5
2B7
330
1F
100
AcDbEntity
  8
0
  6
HIDDEN
 62
     7
370
     0
100
AcDbLine
 10
63.6986300985
 20
135.6064681725
 30
0.0
 11
63.6986300985
 21
139.1064681725
 31
0.0
  0
LINE
  5
2B8
330
1F
100
AcDbEntity
  8
0
  6
HIDDEN
 62
     7
370
     0
100
AcDbLine
 10
63.6986300985
 20
135.6064681725
 30
0.0
 11
63.5963019906
 21
135.6064681725
 31
0.0
  0
LINE
  5
2B9
330
1F
100
AcDbEntity
  8
0
  6
HIDDEN
 62
     7
370
     0
100
AcDbLine
 10
63.5963019906
 20
135.6064681725
 30
0.0
 11
63.5963019906
 21
139.1064681725
 31
0.0
  0
LINE
  5
2BA
330
1F
100
AcDbEntity
  8
0
  6
HIDDEN
 62
     7
370
     0
100
AcDbLine
 10
63.6986300985
 20
139.1064681725
 30
0.0
 11
63.5963019906
 21
139.1064681725
 31
0.0
  0
LINE
  5
2BB
330
1F
100
AcDbEntity
  8
0
  6
HIDDEN
 62
     7
370
     0
100
AcDbLine
 10
65.2471741038
 20
135.6064681725
 30
0.0
 11
65.2471741038
 21
139.1064681725
 31
0.0
  0
LINE
  5
2BC
330
1F
100
AcDbEntity
  8
0
  6
HIDDEN
 62
     7
370
     0
100
AcDbLine
 10
66.6933900012
 20
135.6064681725
 30
0.0
 11
66.6933900012
 21
139.1064681725
 31
0.0
  0
LINE
  5
2BD
330
1F
100
AcDbEntity
  8
0
  6
HIDDEN
 62
     7
370
     0
100
AcDbLine
 10
65.2471741038
 20
135.6064681725
 30
0.0
 11
66.6933900012
 21
135.6064681725
 31
0.0
  0
LINE
  5
2BE
330
1F
100
AcDbEntity
  8
0
  6
HIDDEN
 62
     7
370
     0
100
AcDbLine
 10
65.2471741038
 20
139.1064681725
 30
0.0
 11
66.6933900012
 21
139.1064681725
 31
0.0
  0
LINE
  5
2BF
330
1F
100
AcDbEntity
  8
0
  6
HIDDEN
 62
     7
370
     0
100
AcDbLine
 10
63.6986300985
 20
135.6064681725
 30
0.0
 11
65.2471741038
 21
135.6064681725
 31
0.0
  0
LINE
  5
2C0
330
1F
100
AcDbEntity
  8
0
  6
HIDDEN
 62
     7
370
     0
100
AcDbLine
 10
63.6986300985
 20
139.1064681725
 30
0.0
 11
65.2471741038
 21
139.1064681725
 31
0.0
  0
LINE
  5
2C1
330
1F
100
AcDbEntity
  8
0
  6
HIDDEN
 62
     7
370
     0
100
AcDbLine
 10
68.1448459959
 20
138.6064681725
 30
0.0
 11
62.1448459959
 21
138.6064681725
 31
0.0
  0
LINE
  5
2C2
330
1F
100
AcDbEntity
  8
0
  6
HIDDEN
 62
     7
370
     0
100
AcDbLine
 10
68.1448459959
 20
129.5064681725
 30
0.0
 11
62.1448459959
 21
129.5064681725
 31
0.0
  0
LINE
  5
2C3
330
1F
100
AcDbEntity
  8
0
  6
HIDDEN
 62
     7
370
     0
100
AcDbLine
 10
62.6571708133
 20
139.1064681725
 30
0.0
 11
62.6448459959
 21
139.1064681725
 31
0.0
  0
LINE
  5
2C4
330
1F
100
AcDbEntity
  8
0
  6
HIDDEN
 62
     7
370
     0
100
AcDbLine
 10
67.6448459959
 20
139.1064681725
 30
0.0
 11
62.6571708133
 21
139.1064681725
 31
0.0
  0
LINE
  5
2C5
330
1F
100
AcDbEntity
  8
0
  6
HIDDEN
 62
     7
370
     0
100
AcDbLine
 10
67.2448459959
 20
128.6064681725
 30
0.0
 11
63.0448459959
 21
128.6064681725
 31
0.0
  0
LINE
  5
2C6
330
1F
100
AcDbEntity
  8
0
  6
HIDDEN
 62
     7
370
     0
100
AcDbLine
 10
65.8578404476
 20
135.6064681725
 30
0.0
 11
66.8683579195
 21
135.6064681725
 31
0.0
  0
LINE
  5
2C7
330
1F
100
AcDbEntity
  8
0
  6
HIDDEN
 62
     7
370
     0
100
AcDbLine
 10
65.8578404476
 20
139.1064681725
 30
0.0
 11
66.8683579195
 21
139.1064681725
 31
0.0
  0
LINE
  5
2C8
330
1F
100
AcDbEntity
  8
0
  6
HIDDEN
 62
     7
370
     0
100
AcDbLine
 10
65.8578404476
 20
135.6064681725
 30
0.0
 11
65.8578404476
 21
139.1064681725
 31
0.0
  0
LINE
  5
2C9
330
1F
100
AcDbEntity
  8
0
  6
HIDDEN
 62
     7
370
     0
100
AcDbLine
 10
64.134328524
 20
135.6064681725
 30
0.0
 11
65.8578404476
 21
135.6064681725
 31
0.0
  0
LINE
  5
2CA
330
1F
100
AcDbEntity
  8
0
  6
HIDDEN
 62
     7
370
     0
100
AcDbLine
 10
64.134328524
 20
139.1064681725
 30
0.0
 11
65.8578404476
 21
139.1064681725
 31
0.0
  0
LINE
  5
2CB
330
1F
100
AcDbEntity
  8
0
  6
HIDDEN
 62
     7
370
     0
100
AcDbLine
 10
64.134328524
 20
135.6064681725
 30
0.0
 11
64.134328524
 21
139.1064681725
 31
0.0
  0
LINE
  5
2CC
330
1F
100
AcDbEntity
  8
0
  6
HIDDEN
 62
     7
370
     0
100
AcDbLine
 10
64.134328524
 20
135.6064681725
 30
0.0
 11
63.4213340723
 21
135.6064681725
 31
0.0
  0
LINE
  5
2CD
330
1F
100
AcDbEntity
  8
0
  6
HIDDEN
 62
     7
370
     0
100
AcDbLine
 10
64.134328524
 20
139.1064681725
 30
0.0
 11
63.4213340723
 21
139.1064681725
 31
0.0
  0
LINE
  5
2CE
330
1F
100
AcDbEntity
  8
0
  6
HIDDEN
 62
     7
370
     0
100
AcDbLine
 10
63.9010084046
 20
128.6064681725
 30
0.0
 11
66.3886835872
 21
128.6064681725
 31
0.0
  0
LINE
  5
2CF
330
1F
100
AcDbEntity
  8
0
  6
HIDDEN
 62
     7
370
     0
100
AcDbLine
 10
66.1553634678
 20
135.6064681725
 30
0.0
 11
66.1553634678
 21
139.1064681725
 31
0.0
  0
LINE
  5
2D0
330
1F
100
AcDbEntity
  8
0
  6
HIDDEN
 62
     7
370
     0
100
AcDbLine
 10
66.8683579195
 20
135.6064681725
 30
0.0
 11
66.8683579195
 21
139.1064681725
 31
0.0
  0
LINE
  5
2D1
330
1F
100
AcDbEntity
  8
0
  6
HIDDEN
 62
     7
370
     0
100
AcDbLine
 10
66.1553634678
 20
135.6064681725
 30
0.0
 11
66.8683579195
 21
135.6064681725
 31
0.0
  0
LINE
  5
2D2
330
1F
100
AcDbEntity
  8
0
  6
HIDDEN
 62
     7
370
     0
100
AcDbLine
 10
66.1553634678
 20
139.1064681725
 30
0.0
 11
66.8683579195
 21
139.1064681725
 31
0.0
  0
LINE
  5
2D3
330
1F
100
AcDbEntity
  8
0
  6
HIDDEN
 62
     7
370
     0
100
AcDbLine
 10
64.4318515442
 20
135.6064681725
 30
0.0
 11
64.4318515442
 21
139.1064681725
 31
0.0
  0
LINE
  5
2D4
330
1F
100
AcDbEntity
  8
0
  6
HIDDEN
 62
     7
370
     0
100
AcDbLine
 10
63.4213340723
 20
135.6064681725
 30
0.0
 11
63.4213340723
 21
139.1064681725
 31
0.0
  0
LINE
  5
2D5
330
1F
100
AcDbEntity
  8
0
  6
HIDDEN
 62
     7
370
     0
100
AcDbLine
 10
64.4318515442
 20
135.6064681725
 30
0.0
 11
63.4213340723
 21
135.6064681725
 31
0.0
  0
LINE
  5
2D6
330
1F
100
AcDbEntity
  8
0
  6
HIDDEN
 62
     7
370
     0
100
AcDbLine
 10
64.4318515442
 20
139.1064681725
 30
0.0
 11
63.4213340723
 21
139.1064681725
 31
0.0
  0
LINE
  5
2D7
330
1F
100
AcDbEntity
  8
0
  6
HIDDEN
 62
     7
370
     0
100
AcDbLine
 10
64.4318515442
 20
135.6064681725
 30
0.0
 11
66.1553634678
 21
135.6064681725
 31
0.0
  0
LINE
  5
2D8
330
1F
100
AcDbEntity
  8
0
  6
HIDDEN
 62
     7
370
     0
100
AcDbLine
 10
64.4318515442
 20
139.1064681725
 30
0.0
 11
66.1553634678
 21
139.1064681725
 31
0.0
  0
LINE
  5
2D9
330
1F
100
AcDbEntity
  8
0
  6
HIDDEN
 62
     7
370
     0
100
AcDbLine
 10
57.7448459959
 20
119.1242468675
 30
0.0
 11
57.7448459959
 21
125.1060477982
 31
0.0
  0
LINE
  5
2DA
330
1F
100
AcDbEntity
  8
0
  6
HIDDEN
 62
     7
370
     0
100
AcDbLine
 10
58.6448459959
 20
120.0089972622
 30
0.0
 11
58.6448459959
 21
124.1958683241
 31
0.0
  0
LINE
  5
2DB
330
1F
100
AcDbEntity
  8
0
  6
HIDDEN
 62
     7
370
     0
100
AcDbLine
 10
48.6448459959
 20
119.1242468675
 30
0.0
 11
48.6448459959
 21
125.1060477982
 31
0.0
  0
LINE
  5
2DC
330
1F
100
AcDbEntity
  8
0
  6
HIDDEN
 62
     7
370
     0
100
AcDbLine
 10
48.1448459959
 20
119.6065035089
 30
0.0
 11
48.1448459959
 21
124.6064328361
 31
0.0
  0
LINE
  5
2DD
330
1F
100
AcDbEntity
  8
0
  6
HIDDEN
 62
     7
370
     0
100
AcDbLine
 10
48.1448459959
 20
123.1186434867
 30
0.0
 11
48.1448459959
 21
121.3953352868
 31
0.0
  0
LINE
  5
2DE
330
1F
100
AcDbEntity
  8
0
  6
HIDDEN
 62
     7
370
     0
100
AcDbLine
 10
51.6448459959
 20
123.1186434867
 30
0.0
 11
51.6448459959
 21
121.3953352868
 31
0.0
  0
LINE
  5
2DF
330
1F
100
AcDbEntity
  8
0
  6
HIDDEN
 62
     7
370
     0
100
AcDbLine
 10
58.6448459959
 20
120.8570450838
 30
0.0
 11
58.6448459959
 21
123.3558912612
 31
0.0
  0
LINE
  5
2E0
330
1F
100
AcDbEntity
  8
0
  6
HIDDEN
 62
     7
370
     0
100
AcDbLine
 10
51.6448459959
 20
120.3831599725
 30
0.0
 11
51.6448459959
 21
121.3953352868
 31
0.0
  0
LINE
  5
2E1
330
1F
100
AcDbEntity
  8
0
  6
HIDDEN
 62
     7
370
     0
100
AcDbLine
 10
51.6448459959
 20
121.3953352868
 30
0.0
 11
48.1448459959
 21
121.3953352868
 31
0.0
  0
LINE
  5
2E2
330
1F
100
AcDbEntity
  8
0
  6
HIDDEN
 62
     7
370
     0
100
AcDbLine
 10
48.1448459959
 20
120.3831599725
 30
0.0
 11
48.1448459959
 21
121.3953352868
 31
0.0
  0
LINE
  5
2E3
330
1F
100
AcDbEntity
  8
0
  6
HIDDEN
 62
     7
370
     0
100
AcDbLine
 10
51.6448459959
 20
123.1186434867
 30
0.0
 11
51.6448459959
 21
123.8297763725
 31
0.0
  0
LINE
  5
2E4
330
1F
100
AcDbEntity
  8
0
  6
HIDDEN
 62
     7
370
     0
100
AcDbLine
 10
51.6448459959
 20
123.1186434867
 30
0.0
 11
48.1448459959
 21
123.1186434867
 31
0.0
  0
LINE
  5
2E5
330
1F
100
AcDbEntity
  8
0
  6
HIDDEN
 62
     7
370
     0
100
AcDbLine
 10
48.1448459959
 20
123.1186434867
 30
0.0
 11
48.1448459959
 21
123.8297763725
 31
0.0
  0
LINE
  5
2E6
330
1F
100
AcDbEntity
  8
0
  6
HIDDEN
 62
     7
370
     0
100
AcDbLine
 10
51.6448459959
 20
121.0942928582
 30
0.0
 11
48.1448459959
 21
121.0942928582
 31
0.0
  0
LINE
  5
2E7
330
1F
100
AcDbEntity
  8
0
  6
HIDDEN
 62
     7
370
     0
100
AcDbLine
 10
51.6448459959
 20
120.3831599725
 30
0.0
 11
48.1448459959
 21
120.3831599725
 31
0.0
  0
LINE
  5
2E8
330
1F
100
AcDbEntity
  8
0
  6
HIDDEN
 62
     7
370
     0
100
AcDbLine
 10
51.6448459959
 20
120.3831599725
 30
0.0
 11
51.6448459959
 21
121.0942928582
 31
0.0
  0
LINE
  5
2E9
330
1F
100
AcDbEntity
  8
0
  6
HIDDEN
 62
     7
370
     0
100
AcDbLine
 10
48.1448459959
 20
120.3831599725
 30
0.0
 11
48.1448459959
 21
121.0942928582
 31
0.0
  0
LINE
  5
2EA
330
1F
100
AcDbEntity
  8
0
  6
HIDDEN
 62
     7
370
     0
100
AcDbLine
 10
51.6448459959
 20
122.8176010582
 30
0.0
 11
48.1448459959
 21
122.8176010582
 31
0.0
  0
LINE
  5
2EB
330
1F
100
AcDbEntity
  8
0
  6
HIDDEN
 62
     7
370
     0
100
AcDbLine
 10
51.6448459959
 20
123.8297763725
 30
0.0
 11
48.1448459959
 21
123.8297763725
 31
0.0
  0
LINE
  5
2EC
330
1F
100
AcDbEntity
  8
0
  6
HIDDEN
 62
     7
370
     0
100
AcDbLine
 10
51.6448459959
 20
123.8297763725
 30
0.0
 11
51.6448459959
 21
122.8176010582
 31
0.0
  0
LINE
  5
2ED
330
1F
100
AcDbEntity
  8
0
  6
HIDDEN
 62
     7
370
     0
100
AcDbLine
 10
48.1448459959
 20
123.8297763725
 30
0.0
 11
48.1448459959
 21
122.8176010582
 31
0.0
  0
LINE
  5
2EE
330
1F
100
AcDbEntity
  8
0
  6
HIDDEN
 62
     7
370
     0
100
AcDbLine
 10
51.6448459959
 20
121.0942928582
 30
0.0
 11
51.6448459959
 21
122.8176010582
 31
0.0
  0
LINE
  5
2EF
330
1F
100
AcDbEntity
  8
0
  6
HIDDEN
 62
     7
370
     0
100
AcDbLine
 10
48.1448459959
 20
121.0942928582
 30
0.0
 11
48.1448459959
 21
122.8176010582
 31
0.0
  0
LINE
  5
2F0
330
1F
100
AcDbEntity
  8
0
  6
HIDDEN
 62
     7
370
     0
100
AcDbLine
 10
68.1442317428
 20
138.6064681725
 30
0.0
 11
62.1615029017
 21
138.6064681725
 31
0.0
  0
LINE
  5
2F1
330
1F
100
AcDbEntity
  8
0
  6
HIDDEN
 62
     7
370
     0
100
AcDbLine
 10
68.1442317428
 20
129.5064681725
 30
0.0
 11
62.1615029017
 21
129.5064681725
 31
0.0
  0
LINE
  5
2F2
330
1F
100
AcDbEntity
  8
0
  6
HIDDEN
 62
     7
370
     0
100
AcDbLine
 10
67.6259425426
 20
139.1064681725
 30
0.0
 11
62.6637494492
 21
139.1064681725
 31
0.0
  0
LINE
  5
2F3
330
1F
100
AcDbEntity
  8
0
  6
HIDDEN
 62
     7
370
     0
100
AcDbLine
 10
67.2256405525
 20
128.6064681725
 30
0.0
 11
63.0450592832
 21
128.6064681725
 31
0.0
  0
LINE
  5
2F4
330
1F
100
AcDbEntity
  8
0
  6
HIDDEN
 62
     7
370
     0
100
AcDbLine
 10
65.506158077
 20
135.6064681725
 30
0.0
 11
63.8585016325
 21
135.6064681725
 31
0.0
  0
LINE
  5
2F5
330
1F
100
AcDbEntity
  8
0
  6
HIDDEN
 62
     7
370
     0
100
AcDbLine
 10
65.506158077
 20
139.1064681725
 30
0.0
 11
63.8585016325
 21
139.1064681725
 31
0.0
  0
LINE
  5
2F6
330
1F
100
AcDbEntity
  8
0
  6
HIDDEN
 62
     7
370
     0
100
AcDbLine
 10
66.3931788832
 20
128.6064681725
 30
0.0
 11
63.8965131086
 21
128.6064681725
 31
0.0
  0
LINE
  5
2F7
330
1F
100
AcDbEntity
  8
0
  6
HIDDEN
 62
     7
370
     0
100
AcDbLine
 10
65.506158077
 20
135.6064681725
 30
0.0
 11
65.506158077
 21
139.1064681725
 31
0.0
  0
LINE
  5
2F8
330
1F
100
AcDbEntity
  8
0
  6
HIDDEN
 62
     7
370
     0
100
AcDbLine
 10
66.7925024403
 20
135.6064681725
 30
0.0
 11
65.506158077
 21
135.6064681725
 31
0.0
  0
LINE
  5
2F9
330
1F
100
AcDbEntity
  8
0
  6
HIDDEN
 62
     7
370
     0
100
AcDbLine
 10
66.7925024403
 20
139.1064681725
 30
0.0
 11
65.506158077
 21
139.1064681725
 31
0.0
  0
LINE
  5
2FA
330
1F
100
AcDbEntity
  8
0
  6
HIDDEN
 62
     7
370
     0
100
AcDbLine
 10
63.8585016325
 20
135.6064681725
 30
0.0
 11
63.8585016325
 21
139.1064681725
 31
0.0
  0
LINE
  5
2FB
330
1F
100
AcDbEntity
  8
0
  6
HIDDEN
 62
     7
370
     0
100
AcDbLine
 10
63.4971895514
 20
135.6064681725
 30
0.0
 11
63.8585016325
 21
135.6064681725
 31
0.0
  0
LINE
  5
2FC
330
1F
100
AcDbEntity
  8
0
  6
HIDDEN
 62
     7
370
     0
100
AcDbLine
 10
63.4971895514
 20
139.1064681725
 30
0.0
 11
63.8585016325
 21
139.1064681725
 31
0.0
  0
LINE
  5
2FD
330
1F
100
AcDbEntity
  8
0
  6
HIDDEN
 62
     7
370
     0
100
AcDbLine
 10
66.4311903592
 20
135.6064681725
 30
0.0
 11
66.4311903592
 21
139.1064681725
 31
0.0
  0
LINE
  5
2FE
330
1F
100
AcDbEntity
  8
0
  6
HIDDEN
 62
     7
370
     0
100
AcDbLine
 10
66.7925024403
 20
135.6064681725
 30
0.0
 11
66.7925024403
 21
139.1064681725
 31
0.0
  0
LINE
  5
2FF
330
1F
100
AcDbEntity
  8
0
  6
HIDDEN
 62
     7
370
     0
100
AcDbLine
 10
66.7925024403
 20
135.6064681725
 30
0.0
 11
66.4311903592
 21
135.6064681725
 31
0.0
  0
LINE
  5
300
330
1F
100
AcDbEntity
  8
0
  6
HIDDEN
 62
     7
370
     0
100
AcDbLine
 10
66.7925024403
 20
139.1064681725
 30
0.0
 11
66.4311903592
 21
139.1064681725
 31
0.0
  0
LINE
  5
301
330
1F
100
AcDbEntity
  8
0
  6
HIDDEN
 62
     7
370
     0
100
AcDbLine
 10
64.7835339148
 20
135.6064681725
 30
0.0
 11
64.7835339148
 21
139.1064681725
 31
0.0
  0
LINE
  5
302
330
1F
100
AcDbEntity
  8
0
  6
HIDDEN
 62
     7
370
     0
100
AcDbLine
 10
63.4971895514
 20
135.6064681725
 30
0.0
 11
63.4971895514
 21
139.1064681725
 31
0.0
  0
LINE
  5
303
330
1F
100
AcDbEntity
  8
0
  6
HIDDEN
 62
     7
370
     0
100
AcDbLine
 10
64.7835339148
 20
135.6064681725
 30
0.0
 11
63.4971895514
 21
135.6064681725
 31
0.0
  0
LINE
  5
304
330
1F
100
AcDbEntity
  8
0
  6
HIDDEN
 62
     7
370
     0
100
AcDbLine
 10
64.7835339148
 20
139.1064681725
 30
0.0
 11
63.4971895514
 21
139.1064681725
 31
0.0
  0
LINE
  5
305
330
1F
100
AcDbEntity
  8
0
  6
HIDDEN
 62
     7
370
     0
100
AcDbLine
 10
64.7835339148
 20
135.6064681725
 30
0.0
 11
66.4311903592
 21
135.6064681725
 31
0.0
  0
LINE
  5
306
330
1F
100
AcDbEntity
  8
0
  6
HIDDEN
 62
     7
370
     0
100
AcDbLine
 10
64.7835339148
 20
139.1064681725
 30
0.0
 11
66.4311903592
 21
139.1064681725
 31
0.0
  0
LINE
  5
307
330
1F
100
AcDbEntity
  8
0
  6
HIDDEN
 62
     7
370
     0
100
AcDbLine
 10
48.6448459959
 20
119.1064681725
 30
0.0
 11
48.6448459959
 21
125.1064681725
 31
0.0
  0
LINE
  5
308
330
1F
100
AcDbEntity
  8
0
  6
HIDDEN
 62
     7
370
     0
100
AcDbLine
 10
57.7448459959
 20
119.1064681725
 30
0.0
 11
57.7448459959
 21
125.1064681725
 31
0.0
  0
LINE
  5
309
330
1F
100
AcDbEntity
  8
0
  6
HIDDEN
 62
     7
370
     0
100
AcDbLine
 10
58.6448459959
 20
120.0064681725
 30
0.0
 11
58.6448459959
 21
124.2064681725
 31
0.0
  0
LINE
  5
30A
330
1F
100
AcDbEntity
  8
0
  6
HIDDEN
 62
     7
370
     0
100
AcDbLine
 10
48.1448459959
 20
124.6064681725
 30
0.0
 11
48.1448459959
 21
119.6064681725
 31
0.0
  0
LINE
  5
30B
330
1F
100
AcDbEntity
  8
0
  6
HIDDEN
 62
     7
370
     0
100
AcDbLine
 10
48.1448459959
 20
121.3863703372
 30
0.0
 11
48.1448459959
 21
120.382199943
 31
0.0
  0
LINE
  5
30C
330
1F
100
AcDbEntity
  8
0
  6
HIDDEN
 62
     7
370
     0
100
AcDbLine
 10
51.6448459959
 20
121.3863703372
 30
0.0
 11
51.6448459959
 21
120.382199943
 31
0.0
  0
LINE
  5
30D
330
1F
100
AcDbEntity
  8
0
  6
HIDDEN
 62
     7
370
     0
100
AcDbLine
 10
51.6448459959
 20
121.3863703372
 30
0.0
 11
51.6448459959
 21
123.1106385666
 31
0.0
  0
LINE
  5
30E
330
1F
100
AcDbEntity
  8
0
  6
HIDDEN
 62
     7
370
     0
100
AcDbLine
 10
51.6448459959
 20
121.3863703372
 30
0.0
 11
48.1448459959
 21
121.3863703372
 31
0.0
  0
LINE
  5
30F
330
1F
100
AcDbEntity
  8
0
  6
HIDDEN
 62
     7
370
     0
100
AcDbLine
 10
48.1448459959
 20
121.3863703372
 30
0.0
 11
48.1448459959
 21
123.1106385666
 31
0.0
  0
LINE
  5
310
330
1F
100
AcDbEntity
  8
0
  6
HIDDEN
 62
     7
370
     0
100
AcDbLine
 10
51.6448459959
 20
123.1106385666
 30
0.0
 11
48.1448459959
 21
123.1106385666
 31
0.0
  0
LINE
  5
311
330
1F
100
AcDbEntity
  8
0
  6
HIDDEN
 62
     7
370
     0
100
AcDbLine
 10
51.6448459959
 20
123.1106385666
 30
0.0
 11
51.6448459959
 21
123.8307364019
 31
0.0
  0
LINE
  5
312
330
1F
100
AcDbEntity
  8
0
  6
HIDDEN
 62
     7
370
     0
100
AcDbLine
 10
48.1448459959
 20
123.1106385666
 30
0.0
 11
48.1448459959
 21
123.8307364019
 31
0.0
  0
LINE
  5
313
330
1F
100
AcDbEntity
  8
0
  6
HIDDEN
 62
     7
370
     0
100
AcDbLine
 10
58.6448459959
 20
120.8620847644
 30
0.0
 11
58.6448459959
 21
123.3508515805
 31
0.0
  0
LINE
  5
314
330
1F
100
AcDbEntity
  8
0
  6
HIDDEN
 62
     7
370
     0
100
AcDbLine
 10
51.6448459959
 20
121.1022977783
 30
0.0
 11
48.1448459959
 21
121.1022977783
 31
0.0
  0
LINE
  5
315
330
1F
100
AcDbEntity
  8
0
  6
HIDDEN
 62
     7
370
     0
100
AcDbLine
 10
51.6448459959
 20
121.1022977783
 30
0.0
 11
51.6448459959
 21
120.382199943
 31
0.0
  0
LINE
  5
316
330
1F
100
AcDbEntity
  8
0
  6
HIDDEN
 62
     7
370
     0
100
AcDbLine
 10
51.6448459959
 20
120.382199943
 30
0.0
 11
48.1448459959
 21
120.382199943
 31
0.0
  0
LINE
  5
317
330
1F
100
AcDbEntity
  8
0
  6
HIDDEN
 62
     7
370
     0
100
AcDbLine
 10
48.1448459959
 20
121.1022977783
 30
0.0
 11
48.1448459959
 21
120.382199943
 31
0.0
  0
LINE
  5
318
330
1F
100
AcDbEntity
  8
0
  6
HIDDEN
 62
     7
370
     0
100
AcDbLine
 10
51.6448459959
 20
122.8265660078
 30
0.0
 11
48.1448459959
 21
122.8265660078
 31
0.0
  0
LINE
  5
319
330
1F
100
AcDbEntity
  8
0
  6
HIDDEN
 62
     7
370
     0
100
AcDbLine
 10
51.6448459959
 20
123.8307364019
 30
0.0
 11
48.1448459959
 21
123.8307364019
 31
0.0
  0
LINE
  5
31A
330
1F
100
AcDbEntity
  8
0
  6
HIDDEN
 62
     7
370
     0
100
AcDbLine
 10
51.6448459959
 20
122.8265660078
 30
0.0
 11
51.6448459959
 21
123.8307364019
 31
0.0
  0
LINE
  5
31B
330
1F
100
AcDbEntity
  8
0
  6
HIDDEN
 62
     7
370
     0
100
AcDbLine
 10
48.1448459959
 20
122.8265660078
 30
0.0
 11
48.1448459959
 21
123.8307364019
 31
0.0
  0
LINE
  5
31C
330
1F
100
AcDbEntity
  8
0
  6
HIDDEN
 62
     7
370
     0
100
AcDbLine
 10
51.6448459959
 20
121.1022977783
 30
0.0
 11
51.6448459959
 21
122.8265660078
 31
0.0
  0
LINE
  5
31D
330
1F
100
AcDbEntity
  8
0
  6
HIDDEN
 62
     7
370
     0
100
AcDbLine
 10
48.1448459959
 20
121.1022977783
 30
0.0
 11
48.1448459959
 21
122.8265660078
 31
0.0
  0
LINE
  5
31E
330
1F
100
AcDbEntity
  8
0
  6
HIDDEN
 62
     7
370
     0
100
AcDbLine
 10
81.6448459959
 20
119.1064681725
 30
0.0
 11
81.6448459959
 21
125.1064681725
 31
0.0
  0
LINE
  5
31F
330
1F
100
AcDbEntity
  8
0
  6
HIDDEN
 62
     7
370
     0
100
AcDbLine
 10
72.5448459959
 20
119.1064681725
 30
0.0
 11
72.5448459959
 21
125.1064681725
 31
0.0
  0
LINE
  5
320
330
1F
100
AcDbEntity
  8
0
  6
HIDDEN
 62
     7
370
     0
100
AcDbLine
 10
82.1448459959
 20
123.7009692733
 30
0.0
 11
82.1448459959
 21
124.6064681725
 31
0.0
  0
LINE
  5
321
330
1F
100
AcDbEntity
  8
0
  6
HIDDEN
 62
     7
370
     0
100
AcDbLine
 10
82.1448459959
 20
119.6064681725
 30
0.0
 11
82.1448459959
 21
123.7009692733
 31
0.0
  0
LINE
  5
322
330
1F
100
AcDbEntity
  8
0
  6
HIDDEN
 62
     7
370
     0
100
AcDbLine
 10
71.6448459959
 20
120.0064681725
 30
0.0
 11
71.6448459959
 21
124.2064681725
 31
0.0
  0
LINE
  5
323
330
1F
100
AcDbEntity
  8
0
  6
HIDDEN
 62
     7
370
     0
100
AcDbLine
 10
82.1448459959
 20
122.7094192798
 30
0.0
 11
82.1448459959
 21
121.0017654048
 31
0.0
  0
LINE
  5
324
330
1F
100
AcDbEntity
  8
0
  6
HIDDEN
 62
     7
370
     0
100
AcDbLine
 10
78.6448459959
 20
122.7094192798
 30
0.0
 11
78.6448459959
 21
121.0017654048
 31
0.0
  0
LINE
  5
325
330
1F
100
AcDbEntity
  8
0
  6
HIDDEN
 62
     7
370
     0
100
AcDbLine
 10
71.6448459959
 20
120.8619583804
 30
0.0
 11
71.6448459959
 21
123.3509779645
 31
0.0
  0
LINE
  5
326
330
1F
100
AcDbEntity
  8
0
  6
HIDDEN
 62
     7
370
     0
100
AcDbLine
 10
78.6448459959
 20
123.8141220476
 30
0.0
 11
78.6448459959
 21
122.7094192798
 31
0.0
  0
LINE
  5
327
330
1F
100
AcDbEntity
  8
0
  6
HIDDEN
 62
     7
370
     0
100
AcDbLine
 10
78.6448459959
 20
122.7094192798
 30
0.0
 11
82.1448459959
 21
122.7094192798
 31
0.0
  0
LINE
  5
328
330
1F
100
AcDbEntity
  8
0
  6
HIDDEN
 62
     7
370
     0
100
AcDbLine
 10
82.1448459959
 20
123.8141220476
 30
0.0
 11
82.1448459959
 21
122.7094192798
 31
0.0
  0
LINE
  5
329
330
1F
100
AcDbEntity
  8
0
  6
HIDDEN
 62
     7
370
     0
100
AcDbLine
 10
78.6448459959
 20
120.3988142974
 30
0.0
 11
78.6448459959
 21
121.0017654048
 31
0.0
  0
LINE
  5
32A
330
1F
100
AcDbEntity
  8
0
  6
HIDDEN
 62
     7
370
     0
100
AcDbLine
 10
78.6448459959
 20
121.0017654048
 30
0.0
 11
82.1448459959
 21
121.0017654048
 31
0.0
  0
LINE
  5
32B
330
1F
100
AcDbEntity
  8
0
  6
HIDDEN
 62
     7
370
     0
100
AcDbLine
 10
82.1448459959
 20
120.3988142974
 30
0.0
 11
82.1448459959
 21
121.0017654048
 31
0.0
  0
LINE
  5
32C
330
1F
100
AcDbEntity
  8
0
  6
HIDDEN
 62
     7
370
     0
100
AcDbLine
 10
78.6448459959
 20
123.2111709402
 30
0.0
 11
82.1448459959
 21
123.2111709402
 31
0.0
  0
LINE
  5
32D
330
1F
100
AcDbEntity
  8
0
  6
HIDDEN
 62
     7
370
     0
100
AcDbLine
 10
78.6448459959
 20
123.8141220476
 30
0.0
 11
82.1448459959
 21
123.8141220476
 31
0.0
  0
LINE
  5
32E
330
1F
100
AcDbEntity
  8
0
  6
HIDDEN
 62
     7
370
     0
100
AcDbLine
 10
78.6448459959
 20
123.8141220476
 30
0.0
 11
78.6448459959
 21
123.2111709402
 31
0.0
  0
LINE
  5
32F
330
1F
100
AcDbEntity
  8
0
  6
HIDDEN
 62
     7
370
     0
100
AcDbLine
 10
82.1448459959
 20
123.8141220476
 30
0.0
 11
82.1448459959
 21
123.2111709402
 31
0.0
  0
LINE
  5
330
330
1F
100
AcDbEntity
  8
0
  6
HIDDEN
 62
     7
370
     0
100
AcDbLine
 10
78.6448459959
 20
121.5035170651
 30
0.0
 11
82.1448459959
 21
121.5035170651
 31
0.0
  0
LINE
  5
331
330
1F
100
AcDbEntity
  8
0
  6
HIDDEN
 62
     7
370
     0
100
AcDbLine
 10
78.6448459959
 20
120.3988142974
 30
0.0
 11
82.1448459959
 21
120.3988142974
 31
0.0
  0
LINE
  5
332
330
1F
100
AcDbEntity
  8
0
  6
HIDDEN
 62
     7
370
     0
100
AcDbLine
 10
78.6448459959
 20
121.5035170651
 30
0.0
 11
78.6448459959
 21
120.3988142974
 31
0.0
  0
LINE
  5
333
330
1F
100
AcDbEntity
  8
0
  6
HIDDEN
 62
     7
370
     0
100
AcDbLine
 10
82.1448459959
 20
121.5035170651
 30
0.0
 11
82.1448459959
 21
120.3988142974
 31
0.0
  0
LINE
  5
334
330
1F
100
AcDbEntity
  8
0
  6
HIDDEN
 62
     7
370
     0
100
AcDbLine
 10
78.6448459959
 20
121.5035170651
 30
0.0
 11
78.6448459959
 21
123.2111709402
 31
0.0
  0
LINE
  5
335
330
1F
100
AcDbEntity
  8
0
  6
HIDDEN
 62
     7
370
     0
100
AcDbLine
 10
82.1448459959
 20
121.5035170651
 30
0.0
 11
82.1448459959
 21
123.2111709402
 31
0.0
  0
LINE
  5
336
330
1F
100
AcDbEntity
  8
0
  6
HIDDEN
 62
     7
370
     0
100
AcDbLine
 10
81.9600177167
 20
124.6064681725
 30
0.0
 11
67.6448459959
 21
124.6064681725
 31
0.0
  0
LINE
  5
337
330
1F
100
AcDbEntity
  8
0
  6
HIDDEN
 62
     7
370
     0
100
AcDbLine
 10
66.8177751084
 20
119.6064681725
 30
0.0
 11
81.964682062
 21
119.6064681725
 31
0.0
  0
LINE
  5
338
330
1F
100
AcDbEntity
  8
0
  6
HIDDEN
 62
     7
370
     0
100
AcDbLine
 10
62.6448459959
 20
138.9216398933
 30
0.0
 11
62.6448459959
 21
124.6064681725
 31
0.0
  0
LINE
  5
339
330
1F
100
AcDbEntity
  8
0
  6
HIDDEN
 62
     7
370
     0
100
AcDbLine
 10
67.6448459959
 20
124.6064681725
 30
0.0
 11
67.6448459959
 21
138.9263042386
 31
0.0
  0
LINE
  5
33A
330
1F
100
AcDbEntity
  8
0
  6
HIDDEN
 62
     7
370
     0
100
AcDbLine
 10
48.3296742751
 20
119.6064681725
 30
0.0
 11
63.4865336007
 21
119.6064681725
 31
0.0
  0
LINE
  5
33B
330
1F
100
AcDbEntity
  8
0
  6
HIDDEN
 62
     7
370
     0
100
AcDbLine
 10
62.6448459959
 20
124.6064681725
 30
0.0
 11
48.3250099297
 21
124.6064681725
 31
0.0
  0
LINE
  5
33C
330
1F
100
AcDbEntity
  8
0
  6
HIDDEN
 62
     7
370
     0
100
AcDbLine
 10
81.9600177167
 20
124.6064681725
 30
0.0
 11
67.6448459959
 21
124.6064681725
 31
0.0
  0
LINE
  5
33D
330
1F
100
AcDbEntity
  8
0
  6
HIDDEN
 62
     7
370
     0
100
AcDbLine
 10
66.8177751084
 20
119.6064681725
 30
0.0
 11
81.964682062
 21
119.6064681725
 31
0.0
  0
LINE
  5
33E
330
1F
100
AcDbEntity
  8
0
  6
HIDDEN
 62
     7
370
     0
100
AcDbLine
 10
62.6448459959
 20
138.9216398933
 30
0.0
 11
62.6448459959
 21
124.6064681725
 31
0.0
  0
LINE
  5
33F
330
1F
100
AcDbEntity
  8
0
  6
HIDDEN
 62
     7
370
     0
100
AcDbLine
 10
67.6448459959
 20
124.6064681725
 30
0.0
 11
67.6448459959
 21
138.9263042386
 31
0.0
  0
LINE
  5
340
330
1F
100
AcDbEntity
  8
0
  6
HIDDEN
 62
     7
370
     0
100
AcDbLine
 10
48.3296742751
 20
119.6064681725
 30
0.0
 11
63.4865336007
 21
119.6064681725
 31
0.0
  0
LINE
  5
341
330
1F
100
AcDbEntity
  8
0
  6
HIDDEN
 62
     7
370
     0
100
AcDbLine
 10
62.6448459959
 20
124.6064681725
 30
0.0
 11
48.3250099297
 21
124.6064681725
 31
0.0
  0
LINE
  5
342
330
1F
100
AcDbEntity
  8
0
  6
HIDDEN
 62
     7
370
     0
100
AcDbLine
 10
81.9600177167
 20
124.6064681725
 30
0.0
 11
67.6448459959
 21
124.6064681725
 31
0.0
  0
LINE
  5
343
330
1F
100
AcDbEntity
  8
0
  6
HIDDEN
 62
     7
370
     0
100
AcDbLine
 10
66.8177751084
 20
119.6064681725
 30
0.0
 11
81.964682062
 21
119.6064681725
 31
0.0
  0
LINE
  5
344
330
1F
100
AcDbEntity
  8
0
  6
HIDDEN
 62
     7
370
     0
100
AcDbLine
 10
62.6448459959
 20
138.9216398933
 30
0.0
 11
62.6448459959
 21
124.6064681725
 31
0.0
  0
LINE
  5
345
330
1F
100
AcDbEntity
  8
0
  6
HIDDEN
 62
     7
370
     0
100
AcDbLine
 10
67.6448459959
 20
124.6064681725
 30
0.0
 11
67.6448459959
 21
138.9263042386
 31
0.0
  0
LINE
  5
346
330
1F
100
AcDbEntity
  8
0
  6
HIDDEN
 62
     7
370
     0
100
AcDbLine
 10
48.3296742751
 20
119.6064681725
 30
0.0
 11
63.4865336007
 21
119.6064681725
 31
0.0
  0
LINE
  5
347
330
1F
100
AcDbEntity
  8
0
  6
HIDDEN
 62
     7
370
     0
100
AcDbLine
 10
62.6448459959
 20
124.6064681725
 30
0.0
 11
48.3250099297
 21
124.6064681725
 31
0.0
  0
LINE
  5
348
330
1F
100
AcDbEntity
  8
0
  6
HIDDEN
 62
     7
370
     0
100
AcDbLine
 10
81.6448459959
 20
119.1064681725
 30
0.0
 11
82.1448459959
 21
119.6064681725
 31
0.0
  0
LINE
  5
349
330
1F
100
AcDbEntity
  8
0
  6
HIDDEN
 62
     7
370
     0
100
AcDbLine
 10
82.1448459959
 20
124.6064681725
 30
0.0
 11
81.6448459959
 21
125.1064681725
 31
0.0
  0
LINE
  5
34A
330
1F
100
AcDbEntity
  8
0
  6
HIDDEN
 62
     7
370
     0
100
AcDbLine
 10
81.6448459959
 20
125.1064681725
 30
0.0
 11
72.5448459959
 21
125.1064681725
 31
0.0
  0
LINE
  5
34B
330
1F
100
AcDbEntity
  8
0
  6
HIDDEN
 62
     7
370
     0
100
AcDbLine
 10
72.5448459959
 20
119.1064681725
 30
0.0
 11
81.6448459959
 21
119.1064681725
 31
0.0
  0
LINE
  5
34C
330
1F
100
AcDbEntity
  8
0
  6
HIDDEN
 62
     7
370
     0
100
AcDbLine
 10
72.5448459959
 20
125.1064681725
 30
0.0
 11
71.6448459959
 21
124.2064681725
 31
0.0
  0
LINE
  5
34D
330
1F
100
AcDbEntity
  8
0
  6
HIDDEN
 62
     7
370
     0
100
AcDbLine
 10
71.6448459959
 20
120.0064681725
 30
0.0
 11
72.5448459959
 21
119.1064681725
 31
0.0
  0
LINE
  5
34E
330
1F
100
AcDbEntity
  8
0
  6
HIDDEN
 62
     7
370
     0
100
AcDbLine
 10
71.6448459959
 20
120.8564681725
 30
0.0
 11
72.3665338324
 21
122.1064681725
 31
0.0
  0
LINE
  5
34F
330
1F
100
AcDbEntity
  8
0
  6
HIDDEN
 62
     7
370
     0
100
AcDbLine
 10
72.3665338324
 20
122.1064681725
 30
0.0
 11
71.6448459959
 21
123.3564681725
 31
0.0
  0
LINE
  5
350
330
1F
100
AcDbEntity
  8
0
  6
HIDDEN
 62
     7
370
     0
100
AcDbLine
 10
81.6448459959
 20
119.1064681725
 30
0.0
 11
82.1448459959
 21
119.6064681725
 31
0.0
  0
LINE
  5
351
330
1F
100
AcDbEntity
  8
0
  6
HIDDEN
 62
     7
370
     0
100
AcDbLine
 10
82.1448459959
 20
124.6064681725
 30
0.0
 11
81.6448459959
 21
125.1064681725
 31
0.0
  0
LINE
  5
352
330
1F
100
AcDbEntity
  8
0
  6
HIDDEN
 62
     7
370
     0
100
AcDbLine
 10
81.6448459959
 20
125.1064681725
 30
0.0
 11
72.5448459959
 21
125.1064681725
 31
0.0
  0
LINE
  5
353
330
1F
100
AcDbEntity
  8
0
  6
HIDDEN
 62
     7
370
     0
100
AcDbLine
 10
72.5448459959
 20
119.1064681725
 30
0.0
 11
81.6448459959
 21
119.1064681725
 31
0.0
  0
LINE
  5
354
330
1F
100
AcDbEntity
  8
0
  6
HIDDEN
 62
     7
370
     0
100
AcDbLine
 10
72.5448459959
 20
125.1064681725
 30
0.0
 11
71.6448459959
 21
124.2064681725
 31
0.0
  0
LINE
  5
355
330
1F
100
AcDbEntity
  8
0
  6
HIDDEN
 62
     7
370
     0
100
AcDbLine
 10
71.6448459959
 20
120.0064681725
 30
0.0
 11
72.5448459959
 21
119.1064681725
 31
0.0
  0
LINE
  5
356
330
1F
100
AcDbEntity
  8
0
  6
HIDDEN
 62
     7
370
     0
100
AcDbLine
 10
71.6448459959
 20
120.8564681725
 30
0.0
 11
72.3665338324
 21
122.1064681725
 31
0.0
  0
LINE
  5
357
330
1F
100
AcDbEntity
  8
0
  6
HIDDEN
 62
     7
370
     0
100
AcDbLine
 10
72.3665338324
 20
122.1064681725
 30
0.0
 11
71.6448459959
 21
123.3564681725
 31
0.0
  0
LINE
  5
358
330
1F
100
AcDbEntity
  8
0
  6
HIDDEN
 62
     7
370
     0
100
AcDbLine
 10
57.7448459959
 20
119.1064681725
 30
0.0
 11
58.6448459959
 21
120.0064681725
 31
0.0
  0
LINE
  5
359
330
1F
100
AcDbEntity
  8
0
  6
HIDDEN
 62
     7
370
     0
100
AcDbLine
 10
58.6448459959
 20
124.2064681725
 30
0.0
 11
57.7448459959
 21
125.1064681725
 31
0.0
  0
LINE
  5
35A
330
1F
100
AcDbEntity
  8
0
  6
HIDDEN
 62
     7
370
     0
100
AcDbLine
 10
48.6448459959
 20
119.1064681725
 30
0.0
 11
57.7448459959
 21
119.1064681725
 31
0.0
  0
LINE
  5
35B
330
1F
100
AcDbEntity
  8
0
  6
HIDDEN
 62
     7
370
     0
100
AcDbLine
 10
57.7448459959
 20
125.1064681725
 30
0.0
 11
48.6448459959
 21
125.1064681725
 31
0.0
  0
LINE
  5
35C
330
1F
100
AcDbEntity
  8
0
  6
HIDDEN
 62
     7
370
     0
100
AcDbLine
 10
48.6448459959
 20
125.1064681725
 30
0.0
 11
48.1448459959
 21
124.6064681725
 31
0.0
  0
LINE
  5
35D
330
1F
100
AcDbEntity
  8
0
  6
HIDDEN
 62
     7
370
     0
100
AcDbLine
 10
48.1448459959
 20
119.6064681725
 30
0.0
 11
48.6448459959
 21
119.1064681725
 31
0.0
  0
LINE
  5
35E
330
1F
100
AcDbEntity
  8
0
  6
HIDDEN
 62
     7
370
     0
100
AcDbLine
 10
58.6448459959
 20
123.3564681725
 30
0.0
 11
57.9231581594
 21
122.1064681725
 31
0.0
  0
LINE
  5
35F
330
1F
100
AcDbEntity
  8
0
  6
HIDDEN
 62
     7
370
     0
100
AcDbLine
 10
57.9231581594
 20
122.1064681725
 30
0.0
 11
58.6448459959
 21
120.8564681725
 31
0.0
  0
LINE
  5
360
330
1F
100
AcDbEntity
  8
0
  6
HIDDEN
 62
     7
370
     0
100
AcDbLine
 10
62.1448459959
 20
129.5064681725
 30
0.0
 11
63.0448459959
 21
128.6064681725
 31
0.0
  0
LINE
  5
361
330
1F
100
AcDbEntity
  8
0
  6
HIDDEN
 62
     7
370
     0
100
AcDbLine
 10
67.2448459959
 20
128.6064681725
 30
0.0
 11
68.1448459959
 21
129.5064681725
 31
0.0
  0
LINE
  5
362
330
1F
100
AcDbEntity
  8
0
  6
HIDDEN
 62
     7
370
     0
100
AcDbLine
 10
62.1448459959
 20
138.6064681725
 30
0.0
 11
62.1448459959
 21
129.5064681725
 31
0.0
  0
LINE
  5
363
330
1F
100
AcDbEntity
  8
0
  6
HIDDEN
 62
     7
370
     0
100
AcDbLine
 10
68.1448459959
 20
129.5064681725
 30
0.0
 11
68.1448459959
 21
138.6064681725
 31
0.0
  0
LINE
  5
364
330
1F
100
AcDbEntity
  8
0
  6
HIDDEN
 62
     7
370
     0
100
AcDbLine
 10
68.1448459959
 20
138.6064681725
 30
0.0
 11
67.6448459959
 21
139.1064681725
 31
0.0
  0
LINE
  5
365
330
1F
100
AcDbEntity
  8
0
  6
HIDDEN
 62
     7
370
     0
100
AcDbLine
 10
62.6448459959
 20
139.1064681725
 30
0.0
 11
62.1448459959
 21
138.6064681725
 31
0.0
  0
LINE
  5
366
330
1F
100
AcDbEntity
  8
0
  6
HIDDEN
 62
     7
370
     0
100
AcDbLine
 10
66.3948459959
 20
128.6064681725
 30
0.0
 11
65.1448459959
 21
129.328156009
 31
0.0
  0
LINE
  5
367
330
1F
100
AcDbEntity
  8
0
  6
HIDDEN
 62
     7
370
     0
100
AcDbLine
 10
65.1448459959
 20
129.328156009
 30
0.0
 11
63.8948459959
 21
128.6064681725
 31
0.0
  0
LINE
  5
368
330
1F
100
AcDbEntity
  8
0
  6
HIDDEN
 62
     7
370
     0
100
AcDbLine
 10
62.1448459959
 20
138.6064681725
 30
0.0
 11
62.1448459959
 21
129.5064681725
 31
0.0
  0
LINE
  5
369
330
1F
100
AcDbEntity
  8
0
  6
HIDDEN
 62
     7
370
     0
100
AcDbLine
 10
68.1448459959
 20
129.5064681725
 30
0.0
 11
68.1448459959
 21
138.6064681725
 31
0.0
  0
LINE
  5
36A
330
1F
100
AcDbEntity
  8
0
  6
HIDDEN
 62
     7
370
     0
100
AcDbLine
 10
68.1448459959
 20
138.6064681725
 30
0.0
 11
67.8636654407
 21
138.8876487277
 31
0.0
  0
LINE
  5
36B
330
1F
100
AcDbEntity
  8
0
  6
HIDDEN
 62
     7
370
     0
100
AcDbLine
 10
62.4260265511
 20
138.8876487277
 30
0.0
 11
62.1448459959
 21
138.6064681725
 31
0.0
  0
LINE
  5
36C
330
1F
100
AcDbEntity
  8
0
  6
HIDDEN
 62
     7
370
     0
100
AcDbLine
 10
62.1448459959
 20
129.5064681725
 30
0.0
 11
63.0448459959
 21
128.6064681725
 31
0.0
  0
LINE
  5
36D
330
1F
100
AcDbEntity
  8
0
  6
HIDDEN
 62
     7
370
     0
100
AcDbLine
 10
67.2448459959
 20
128.6064681725
 30
0.0
 11
68.1448459959
 21
129.5064681725
 31
0.0
  0
LINE
  5
36E
330
1F
100
AcDbEntity
  8
0
  6
HIDDEN
 62
     7
370
     0
100
AcDbLine
 10
66.3948459959
 20
128.6064681725
 30
0.0
 11
65.1448459959
 21
129.328156009
 31
0.0
  0
LINE
  5
36F
330
1F
100
AcDbEntity
  8
0
  6
HIDDEN
 62
     7
370
     0
100
AcDbLine
 10
65.1448459959
 20
129.328156009
 30
0.0
 11
63.8948459959
 21
128.6064681725
 31
0.0
  0
LINE
  5
370
330
1F
100
AcDbEntity
  8
0
  6
HIDDEN
 62
     7
370
     0
100
AcDbLine
 10
57.7448459959
 20
119.1064681725
 30
0.0
 11
58.6448459959
 21
120.0064681725
 31
0.0
  0
LINE
  5
371
330
1F
100
AcDbEntity
  8
0
  6
HIDDEN
 62
     7
370
     0
100
AcDbLine
 10
58.6448459959
 20
124.2064681725
 30
0.0
 11
57.7448459959
 21
125.1064681725
 31
0.0
  0
LINE
  5
372
330
1F
100
AcDbEntity
  8
0
  6
HIDDEN
 62
     7
370
     0
100
AcDbLine
 10
48.6448459959
 20
119.1064681725
 30
0.0
 11
57.7448459959
 21
119.1064681725
 31
0.0
  0
LINE
  5
373
330
1F
100
AcDbEntity
  8
0
  6
HIDDEN
 62
     7
370
     0
100
AcDbLine
 10
57.7448459959
 20
125.1064681725
 30
0.0
 11
48.6448459959
 21
125.1064681725
 31
0.0
  0
LINE
  5
374
330
1F
100
AcDbEntity
  8
0
  6
HIDDEN
 62
     7
370
     0
100
AcDbLine
 10
48.6448459959
 20
125.1064681725
 30
0.0
 11
48.1448459959
 21
124.6064681725
 31
0.0
  0
LINE
  5
375
330
1F
100
AcDbEntity
  8
0
  6
HIDDEN
 62
     7
370
     0
100
AcDbLine
 10
48.1448459959
 20
119.6064681725
 30
0.0
 11
48.6448459959
 21
119.1064681725
 31
0.0
  0
LINE
  5
376
330
1F
100
AcDbEntity
  8
0
  6
HIDDEN
 62
     7
370
     0
100
AcDbLine
 10
58.6448459959
 20
123.3564681725
 30
0.0
 11
57.9231581594
 21
122.1064681725
 31
0.0
  0
LINE
  5
377
330
1F
100
AcDbEntity
  8
0
  6
HIDDEN
 62
     7
370
     0
100
AcDbLine
 10
57.9231581594
 20
122.1064681725
 30
0.0
 11
58.6448459959
 21
120.8564681725
 31
0.0
  0
LINE
  5
378
330
1F
100
AcDbEntity
  8
0
  6
HIDDEN
 62
     7
370
     0
100
AcDbLine
 10
62.1448459959
 20
138.6064681725
 30
0.0
 11
62.1448459959
 21
129.5064681725
 31
0.0
  0
LINE
  5
379
330
1F
100
AcDbEntity
  8
0
  6
HIDDEN
 62
     7
370
     0
100
AcDbLine
 10
68.1448459959
 20
129.5064681725
 30
0.0
 11
68.1448459959
 21
138.6064681725
 31
0.0
  0
LINE
  5
37A
330
1F
100
AcDbEntity
  8
0
  6
HIDDEN
 62
     7
370
     0
100
AcDbLine
 10
68.1448459959
 20
138.6064681725
 30
0.0
 11
67.6448459959
 21
139.1064681725
 31
0.0
  0
LINE
  5
37B
330
1F
100
AcDbEntity
  8
0
  6
HIDDEN
 62
     7
370
     0
100
AcDbLine
 10
62.6448459959
 20
139.1064681725
 30
0.0
 11
62.1448459959
 21
138.6064681725
 31
0.0
  0
LINE
  5
37C
330
1F
100
AcDbEntity
  8
0
  6
HIDDEN
 62
     7
370
     0
100
AcDbLine
 10
62.1448459959
 20
129.5064681725
 30
0.0
 11
63.0448459959
 21
128.6064681725
 31
0.0
  0
LINE
  5
37D
330
1F
100
AcDbEntity
  8
0
  6
HIDDEN
 62
     7
370
     0
100
AcDbLine
 10
67.2448459959
 20
128.6064681725
 30
0.0
 11
68.1448459959
 21
129.5064681725
 31
0.0
  0
LINE
  5
37E
330
1F
100
AcDbEntity
  8
0
  6
HIDDEN
 62
     7
370
     0
100
AcDbLine
 10
66.3948459959
 20
128.6064681725
 30
0.0
 11
65.1448459959
 21
129.328156009
 31
0.0
  0
LINE
  5
37F
330
1F
100
AcDbEntity
  8
0
  6
HIDDEN
 62
     7
370
     0
100
AcDbLine
 10
65.1448459959
 20
129.328156009
 30
0.0
 11
63.8948459959
 21
128.6064681725
 31
0.0
  0
LINE
  5
380
330
1F
100
AcDbEntity
  8
0
  6
HIDDEN
 62
     7
370
     0
100
AcDbLine
 10
48.6448459959
 20
119.1064681725
 30
0.0
 11
57.7448459959
 21
119.1064681725
 31
0.0
  0
LINE
  5
381
330
1F
100
AcDbEntity
  8
0
  6
HIDDEN
 62
     7
370
     0
100
AcDbLine
 10
57.7448459959
 20
125.1064681725
 30
0.0
 11
48.6448459959
 21
125.1064681725
 31
0.0
  0
LINE
  5
382
330
1F
100
AcDbEntity
  8
0
  6
HIDDEN
 62
     7
370
     0
100
AcDbLine
 10
57.7448459959
 20
119.1064681725
 30
0.0
 11
58.6448459959
 21
120.0064681725
 31
0.0
  0
LINE
  5
383
330
1F
100
AcDbEntity
  8
0
  6
HIDDEN
 62
     7
370
     0
100
AcDbLine
 10
58.6448459959
 20
124.2064681725
 30
0.0
 11
57.7448459959
 21
125.1064681725
 31
0.0
  0
LINE
  5
384
330
1F
100
AcDbEntity
  8
0
  6
HIDDEN
 62
     7
370
     0
100
AcDbLine
 10
48.6448459959
 20
125.1064681725
 30
0.0
 11
48.3636654407
 21
124.8252876173
 31
0.0
  0
LINE
  5
385
330
1F
100
AcDbEntity
  8
0
  6
HIDDEN
 62
     7
370
     0
100
AcDbLine
 10
48.3636654407
 20
119.3876487277
 30
0.0
 11
48.6448459959
 21
119.1064681725
 31
0.0
  0
LINE
  5
386
330
1F
100
AcDbEntity
  8
0
  6
HIDDEN
 62
     7
370
     0
100
AcDbLine
 10
58.6448459959
 20
123.3564681725
 30
0.0
 11
57.9231581594
 21
122.1064681725
 31
0.0
  0
LINE
  5
387
330
1F
100
AcDbEntity
  8
0
  6
HIDDEN
 62
     7
370
     0
100
AcDbLine
 10
57.9231581594
 20
122.1064681725
 30
0.0
 11
58.6448459959
 21
120.8564681725
 31
0.0
  0
LINE
  5
388
330
1F
100
AcDbEntity
  8
0
  6
HIDDEN
 62
     7
370
     0
100
AcDbLine
 10
81.6448459959
 20
125.1064681725
 30
0.0
 11
72.5448459959
 21
125.1064681725
 31
0.0
  0
LINE
  5
389
330
1F
100
AcDbEntity
  8
0
  6
HIDDEN
 62
     7
370
     0
100
AcDbLine
 10
72.5448459959
 20
119.1064681725
 30
0.0
 11
81.6448459959
 21
119.1064681725
 31
0.0
  0
LINE
  5
38A
330
1F
100
AcDbEntity
  8
0
  6
HIDDEN
 62
     7
370
     0
100
AcDbLine
 10
81.6448459959
 20
119.1064681725
 30
0.0
 11
81.9260265511
 21
119.3876487277
 31
0.0
  0
LINE
  5
38B
330
1F
100
AcDbEntity
  8
0
  6
HIDDEN
 62
     7
370
     0
100
AcDbLine
 10
81.9260265511
 20
124.8252876173
 30
0.0
 11
81.6448459959
 21
125.1064681725
 31
0.0
  0
LINE
  5
38C
330
1F
100
AcDbEntity
  8
0
  6
HIDDEN
 62
     7
370
     0
100
AcDbLine
 10
72.5448459959
 20
125.1064681725
 30
0.0
 11
71.6448459959
 21
124.2064681725
 31
0.0
  0
LINE
  5
38D
330
1F
100
AcDbEntity
  8
0
  6
HIDDEN
 62
     7
370
     0
100
AcDbLine
 10
71.6448459959
 20
120.0064681725
 30
0.0
 11
72.5448459959
 21
119.1064681725
 31
0.0
  0
LINE
  5
38E
330
1F
100
AcDbEntity
  8
0
  6
HIDDEN
 62
     7
370
     0
100
AcDbLine
 10
71.6448459959
 20
120.8564681725
 30
0.0
 11
72.3665338324
 21
122.1064681725
 31
0.0
  0
LINE
  5
38F
330
1F
100
AcDbEntity
  8
0
  6
HIDDEN
 62
     7
370
     0
100
AcDbLine
 10
72.3665338324
 20
122.1064681725
 30
0.0
 11
71.6448459959
 21
123.3564681725
 31
0.0
  0
INSERT
  5
39B
330
1F
100
AcDbEntity
  8
VERMASSUNG
100
AcDbBlockReference
  2
SW_CENTERMARKSYMBOL_0
 10
65.1448459959
 20
122.1064681725
 30
0.0
  0
OLE2FRAME
  5
39C
330
1F
100
AcDbEntity
  8
0
100
AcDbOle2Frame
 70
     2
  3
Paintbrush-Bild
 10
13.8511154363
 20
38.264191557
 30
0.0
 11
51.6290888628
 21
31.9806341108
 31
0.0
 71
     2
 72
     0
 73
     1
 90
    12928
310
80552BED0767C5B32B40DDAF6807D121434000000000000000006FFBDDFB85D0
310
4940DDAF6807D121434000000000000000006FFBDDFB85D04940416F4BD60AFB
310
3F4000000000000000002BED0767C5B32B40416F4BD60AFB3F40000000000000
310
0000000000000100000000010000010000000100000000000100000000320000
310
D0CF11E0A1B11AE1000000000000000000000000000000003E000300FEFF0900
310
0600000000000000000000000100000001000000000000000010000002000000
310
01000000FEFFFFFF0000000000000000FFFFFFFFFFFFFFFFFFFFFFFFFFFFFFFF
310
FFFFFFFFFFFFFFFFFFFFFFFFFFFFFFFFFFFFFFFFFFFFFFFFFFFFFFFFFFFFFFFF
310
FFFFFFFFFFFFFFFFFFFFFFFFFFFFFFFFFFFFFFFFFFFFFFFFFFFFFFFFFFFFFFFF
310
FFFFFFFFFFFFFFFFFFFFFFFFFFFFFFFFFFFFFFFFFFFFFFFFFFFFFFFFFFFFFFFF
310
FFFFFFFFFFFFFFFFFFFFFFFFFFFFFFFFFFFFFFFFFFFFFFFFFFFFFFFFFFFFFFFF
310
FFFFFFFFFFFFFFFFFFFFFFFFFFFFFFFFFFFFFFFFFFFFFFFFFFFFFFFFFFFFFFFF
310
FFFFFFFFFFFFFFFFFFFFFFFFFFFFFFFFFFFFFFFFFFFFFFFFFFFFFFFFFFFFFFFF
310
FFFFFFFFFFFFFFFFFFFFFFFFFFFFFFFFFFFFFFFFFFFFFFFFFFFFFFFFFFFFFFFF
310
FFFFFFFFFFFFFFFFFFFFFFFFFFFFFFFFFFFFFFFFFFFFFFFFFFFFFFFFFFFFFFFF
310
FFFFFFFFFFFFFFFFFFFFFFFFFFFFFFFFFFFFFFFFFFFFFFFFFFFFFFFFFFFFFFFF
310
FFFFFFFFFFFFFFFFFFFFFFFFFFFFFFFFFFFFFFFFFFFFFFFFFFFFFFFFFFFFFFFF
310
FFFFFFFFFFFFFFFFFFFFFFFFFFFFFFFFFFFFFFFFFFFFFFFFFFFFFFFFFFFFFFFF
310
FFFFFFFFFFFFFFFFFFFFFFFFFFFFFFFFFFFFFFFFFFFFFFFFFFFFFFFFFFFFFFFF
310
FFFFFFFFFFFFFFFFFFFFFFFFFFFFFFFFFFFFFFFFFFFFFFFFFFFFFFFFFFFFFFFF
310
FDFFFFFFFEFFFFFFFEFFFFFFFEFFFFFF05000000060000000700000008000000
310
090000000A0000000B0000000C0000000D0000000E0000000F00000010000000
310
11000000120000001300000014000000150000001600000017000000FEFFFFFF
310
FFFFFFFFFFFFFFFFFFFFFFFFFFFFFFFFFFFFFFFFFFFFFFFFFFFFFFFFFFFFFFFF
310
FFFFFFFFFFFFFFFFFFFFFFFFFFFFFFFFFFFFFFFFFFFFFFFFFFFFFFFFFFFFFFFF
310
FFFFFFFFFFFFFFFFFFFFFFFFFFFFFFFFFFFFFFFFFFFFFFFFFFFFFFFFFFFFFFFF
310
FFFFFFFFFFFFFFFFFFFFFFFFFFFFFFFFFFFFFFFFFFFFFFFFFFFFFFFFFFFFFFFF
310
FFFFFFFFFFFFFFFFFFFFFFFFFFFFFFFFFFFFFFFFFFFFFFFFFFFFFFFFFFFFFFFF
310
FFFFFFFFFFFFFFFFFFFFFFFFFFFFFFFFFFFFFFFFFFFFFFFFFFFFFFFFFFFFFFFF
310
FFFFFFFFFFFFFFFFFFFFFFFFFFFFFFFFFFFFFFFFFFFFFFFFFFFFFFFFFFFFFFFF
310
FFFFFFFFFFFFFFFFFFFFFFFFFFFFFFFFFFFFFFFFFFFFFFFFFFFFFFFFFFFFFFFF
310
FFFFFFFFFFFFFFFFFFFFFFFFFFFFFFFFFFFFFFFFFFFFFFFFFFFFFFFFFFFFFFFF
310
FFFFFFFFFFFFFFFFFFFFFFFFFFFFFFFFFFFFFFFFFFFFFFFFFFFFFFFFFFFFFFFF
310
FFFFFFFFFFFFFFFFFFFFFFFFFFFFFFFFFFFFFFFFFFFFFFFFFFFFFFFFFFFFFFFF
310
FFFFFFFFFFFFFFFFFFFFFFFFFFFFFFFFFFFFFFFFFFFFFFFFFFFFFFFFFFFFFFFF
310
FFFFFFFFFFFFFFFFFFFFFFFFFFFFFFFFFFFFFFFFFFFFFFFFFFFFFFFFFFFFFFFF
310
52006F006F007400200045006E00740072007900000000000000000000000000
310
0000000000000000000000000000000000000000000000000000000000000000
310
16000500FFFFFFFFFFFFFFFF020000000A00030000000000C000000000000046
310
000000000000000000000000904984C03A68CE0103000000C000000000000000
310
01004F006C006500000000000000000000000000000000000000000000000000
310
0000000000000000000000000000000000000000000000000000000000000000
310
0A000200FFFFFFFFFFFFFFFFFFFFFFFF00000000000000000000000000000000
310
0000000000000000000000000000000000000000000000001400000000000000
310
010043006F006D0070004F0062006A0000000000000000000000000000000000
310
0000000000000000000000000000000000000000000000000000000000000000
310
120002010100000003000000FFFFFFFF00000000000000000000000000000000
310
0000000000000000000000000000000000000000010000004D00000000000000
310
01004F006C006500310030004E00610074006900760065000000000000000000
310
0000000000000000000000000000000000000000000000000000000000000000
310
1A000200FFFFFFFFFFFFFFFFFFFFFFFF00000000000000000000000000000000
310
0000000000000000000000000000000000000000040000002426000000000000
310
FEFFFFFF02000000FEFFFFFFFFFFFFFFFFFFFFFFFFFFFFFFFFFFFFFFFFFFFFFF
310
FFFFFFFFFFFFFFFFFFFFFFFFFFFFFFFFFFFFFFFFFFFFFFFFFFFFFFFFFFFFFFFF
310
FFFFFFFFFFFFFFFFFFFFFFFFFFFFFFFFFFFFFFFFFFFFFFFFFFFFFFFFFFFFFFFF
310
FFFFFFFFFFFFFFFFFFFFFFFFFFFFFFFFFFFFFFFFFFFFFFFFFFFFFFFFFFFFFFFF
310
FFFFFFFFFFFFFFFFFFFFFFFFFFFFFFFFFFFFFFFFFFFFFFFFFFFFFFFFFFFFFFFF
310
FFFFFFFFFFFFFFFFFFFFFFFFFFFFFFFFFFFFFFFFFFFFFFFFFFFFFFFFFFFFFFFF
310
FFFFFFFFFFFFFFFFFFFFFFFFFFFFFFFFFFFFFFFFFFFFFFFFFFFFFFFFFFFFFFFF
310
FFFFFFFFFFFFFFFFFFFFFFFFFFFFFFFFFFFFFFFFFFFFFFFFFFFFFFFFFFFFFFFF
310
FFFFFFFFFFFFFFFFFFFFFFFFFFFFFFFFFFFFFFFFFFFFFFFFFFFFFFFFFFFFFFFF
310
FFFFFFFFFFFFFFFFFFFFFFFFFFFFFFFFFFFFFFFFFFFFFFFFFFFFFFFFFFFFFFFF
310
FFFFFFFFFFFFFFFFFFFFFFFFFFFFFFFFFFFFFFFFFFFFFFFFFFFFFFFFFFFFFFFF
310
FFFFFFFFFFFFFFFFFFFFFFFFFFFFFFFFFFFFFFFFFFFFFFFFFFFFFFFFFFFFFFFF
310
FFFFFFFFFFFFFFFFFFFFFFFFFFFFFFFFFFFFFFFFFFFFFFFFFFFFFFFFFFFFFFFF
310
FFFFFFFFFFFFFFFFFFFFFFFFFFFFFFFFFFFFFFFFFFFFFFFFFFFFFFFFFFFFFFFF
310
FFFFFFFFFFFFFFFFFFFFFFFFFFFFFFFFFFFFFFFFFFFFFFFFFFFFFFFFFFFFFFFF
310
FFFFFFFFFFFFFFFFFFFFFFFFFFFFFFFFFFFFFFFFFFFFFFFFFFFFFFFFFFFFFFFF
310
0100000200000000000000000000000000000000000000000000000000000000
310
0000000000000000000000000000000000000000000000000000000000000000
310
0100FEFF030A0000FFFFFFFF0A00030000000000C00000000000004607000000
310
5042727573680007000000504272757368000700000050427275736800F439B2
310
7100000000000000000000000000000000000000000000000000000000000000
310
0000000000000000000000000000000000000000000000000000000000000000
310
0000000000000000000000000000000000000000000000000000000000000000
310
0000000000000000000000000000000000000000000000000000000000000000
310
0000000000000000000000000000000000000000000000000000000000000000
310
0000000000000000000000000000000000000000000000000000000000000000
310
0000000000000000000000000000000000000000000000000000000000000000
310
0000000000000000000000000000000000000000000000000000000000000000
310
0000000000000000000000000000000000000000000000000000000000000000
310
0000000000000000000000000000000000000000000000000000000000000000
310
0000000000000000000000000000000000000000000000000000000000000000
310
0000000000000000000000000000000000000000000000000000000000000000
310
20260000424D0E260000000000003E00000028000000B40200006E0000000100
310
01000000000000000000130B0000130B00000200000002000000000000FFFFFF
310
FFFFFFFFFFFFFFFFFFFFFFFFFFFFFFFFFFFFFFFFFFFFFFFFFFFFFFFFFFFFFFFF
310
FFFFFFFFFFFFFFFFFFFFFFFFFFFFFFFFFFFFFFFFFFFFFFFFFFFFFFFFFFFFFFFF
310
FFFFFFFFFFFFFFFFFFFFFFFFFFFFFFFFFFFFFFFFFFFFFFFFF000FFFFFFFFFFFF
310
FFFFFFFFFFFFFFFFFFFFFFFFFFFFFFFFFFFFFFFFFFFFFFFFFFFFFFFFFFFFFFFF
310
FFFFFFFFFFFFFFFFFFFFFFFFFFFFFFFFFFFFFFFFFFFFFFFFFFFFFFFFFFFFFFFF
310
FFFFFFFFFFFFFFFFFFFFFFFFFFFFFFFFF000FFFFFFFFFFFFFFFFFFFFFFFFFFFF
310
FFFFFFFFFFFFFFFFFFFFFFFFFFFFFFFFFFFFFFFFFFFFFFFFFFFFFFFFFFFFFFFF
310
FFFFFFFFFFFFFFFFFFFFFFFFFFFFFFFFFFFFFFFFFFFFFFFFFFFFFFFFFFFFFFFF
310
FFFFFFFFFFFFFFFFF000FFFFFFFFFFFFFFFFFFFFFFFFFFFFFFFFFFFFFFFFFFFF
310
FFFFFFFFFFFFFFFFFFFFFFFFFFFFFFFFFFFFFFFFFFFFFFFFFFFFFFFFFFFFFFFF
310
FFFFFFFFFFFFFFFFFFFFFFFFFFFFFFFFFFFFFFFFFFFFFFFFFFFFFFFFFFFFFFFF
310
F000FFFFFFFFFFFFFFFFFFFFFFFFFFFFFFFFFFFFFFFFFFFFFFFFFFFFFFFFFFFF
310
FFFFFFFFFFFFFFFFFFFFFFFFFFFFFFFFFFFFFFFFFFFFFFFFFFFFFFFFFFFFFFFF
310
FFFFFFFFFFFFFFFFFFFFFFFFFFFFFFFFFFFFFFFFFFFFFFFFF000FFFFFFFFFFFF
310
FFFFFFFFFFFFFFFFFFFFFFFFFFFFFFFFFFFFFFFFFFFFFFFFFFFFFFFFFFFFFFFF
310
FFFFFFFFFFFFFFFFFFFFFFFFFFFFFFFFFFFFFFFFFFFFFFFFFFFFFFFFFFFFFFFF
310
FFFFFFFFFFFFFFFFFFFFFFFFFFFFFFFFF000FFFFFFFFFFFFFFFFFFFFFFFFFFFF
310
FFFFFFFFFFFFFFFFFFFFFFFFFFFFFFFFFFFFFFFFFFFFFFFFFFFFFFFFFFFFFFFF
310
FFFFFFFFFFFFFFFFFFFFFFFFFFFFFFFFFFFFFFFFFFFFFFFFFFFFFFFFFFFFFFFF
310
FFFFFFFFFFFFFFFFF000FFFFFFFFFFFFFFFFFFFFFFFFFFFFFFFFFFFFFFFFFFFF
310
FFFFFFFFFFFFFFFFFFFFFFFFFFFFFFFFFFFFFFFFFFFFFFFFFFFFFFFFFFFFFFFF
310
FFFFFFFFFFFFFFFFFFFFFFFFFFFFFFFFFFFFFFFFFFFFFFFFFFFFFFFFFFFFFFFF
310
F000FFFFFFFFFFFFFFFFFFFFFFFFFFFFFFFFFFFFFFFFFFFFFFFFFFFFFFFFFFFF
310
FFFFFFFFFFFFFFFFFFFFFFFFFFFFFFFFFFFFFFFFFFFFFFFFFFFFFFFFFFFFFFFF
310
FFFFFFFFFFFFFFFFFFFFFFFFFFFFFFFFFFFFFFFFFFFFFFFFF000FFFFFFFFFFFF
310
FFFFFFFFFFFFFFFFFFFFFFFFFFFFFFFFFFFFFFFFFFFFFFFFFFFFFFFFFFFFFFFF
310
FFFFFFFFFFFFFFFFFFFFFFFFFFFFFFFFFFFFFFFFFFFFFFFFFFFFFFFFFFFFFFFF
310
FFFFFFFFFFFFFFFFFFFFFFFFFFFFFFFFF000FFFFFFFFFFFFFFFFFFFFFFFFFFFF
310
FFFFFFFFFFFFFFFFFFFFFFFFFFFFFFFFFFFFFFFFFFFFFFFFFFFFFFFFFFFFFFFF
310
FFFFFFFFFFFFFFFFFFFFFFFFFFFFFFFFFFFFFFFFFFFFFFFFFFFFFFFFFFFFFFFF
310
FFFFFFFFFFFFFFFFF000FFFFFFFFFFFFFFFFFFFFFFFFFFFFFFFFFFFFFFFFFFFF
310
FFFFFFFFFFFFFFFFFFFFFFFFFFFFFFFFFFFFFFFFFFFFFFFFFFFFFFFFFFFFFFFF
310
FFFFFFFFFFFFFFFFFFFFFFFFFFFFFFFFFFFFFFFFFFFFFFFFFFFFFFFFFFFFFFFF
310
F000FFFFFFFFFFFFFFFFFFFFFFFFFFFFFFFFFFFFFFFFFFFFFFFFFFFFFFFFFFFF
310
FFFFFFFFFFFFFFFFFFFFFFFFFFFFFFFFFFFFFFFFFFFFFFFFFFFFFFFFFFFFFFFF
310
FFFFFFFFFFFFFFFFFFFFFFFFFFFFFFFFFFFFFFFFFFFFFFFFF000FFFFFFFFFFFF
310
FFFFFFFFFFFFFFFFFFFFFFFFFFFFFFFFFFFFFFFFFFFFFFFFFFFFFFFFFFFFFFFF
310
FFFFFFFFFFFFFFFFFFFFFFFFFFFFFFFFFFFFFFFFFFFFFFFFFFFFFFFFFFFFFFFF
310
FFFFFFFFFFFFFFFFFFFFFFFFFFFFFFFFF000FFFFFFFFFFFFFFFFFFFFFFFFFFFF
310
FFFFFFFFFFFFFFFFFFFFFFFFFFFFFFFFFFFFFFFFFFFFFFFFFFFFFFFFFFFFFFFF
310
FFFFFFFFFFFFFFFFFFFFFFFFFFFFFFFFFFFFFFFFFFFFFFFFFFFFFFFFFFFFFFFF
310
FFFFFFFFFFFFFFFFF000FFFFFFFFFFFFFFFFFFFFFFFFFFFFFFFFFFFFFFFFFFFF
310
FFFFFFFFFFFFFFFFFFFFFFFFFFFFFFFFFFFFFFFFFFFFFFFFFFFFFFFFFFFFFFFF
310
FFFFFFFFFFFFFFFFFFFFFFFFFFFFFFFFFFFFFFFFFFFFFFFFFFFFFFFFFFFFFFFF
310
F000FFFFFFFFFFFFFFFFFFFFFFFFFFFFFFFFFFFFFFFFFFFFFFFFFFFFFFFFFFFF
310
FFFFFFFFFFFFFFFFFFFFFFFFFFFFFFFFFFFFFFFFFFFFFFFFFFFFFFFFFFFFFFFF
310
FFFFFFFFFFFFFFFFFFFFFFFFFFFFFFFFFFFFFFFFFFFFFFFFF000FFFFFFFFFFFF
310
FFFFFFFFFFFFFFFFFFFFFFFFFFFFFFFFFFFFFFFFFFFFFFFFFFFFFFFFFFFFFFFF
310
FFFFFFFFFFFFFFFFFFFFFFFFFFFFFFFFFFFFFFFFFFFFFFFFFFFFFFFFFFFFFFFF
310
FFFFFFFFFFFFFFFFFFFFFFFFFFFFFFFFF000FFFFFFFFFFFFFFFFFFFFFFFFFFFF
310
FFFFFFFFFFFFFFFFFFFFFFFFFFFFFFFFFFFFFFFFFFFFFFFFFFFFFFFFFFFFFFFF
310
FFFFFFFFFFFFFFFFFFFFFFFFFFFFFFFFFFFFFFFFFFFFFFFFFFFFFFFFFFFFFFFF
310
FFFFFFFFFFFFFFFFF000FFFFF80003FFFFFFFFFFFFFFFFFFFFFFFFFFFFFFFFFF
310
FFFFF00007FFFFFFFFFF00007FFFFFF800000000000000007FFFFFFFFFFFFFFF
310
FFFFFFFC001FFFFFFFFFFFFFFC001FFFFFFFFFFFFFFFFFFFFFFFFFFE0007FFFF
310
F000FFFF8000007FFFFFFFF8000FFFFFC0007FFFFF80007FFFFF0000007FFFFF
310
FFF8000007FFFFF800000000000000007FFFFFF0001FFFFFFFFFFFC00001FFFF
310
FFFFFFFFC00001FFFFFFFF000000000003FFFFE000007FFFF000FFFE0000000F
310
FFFFFFF0000FFFFF80007FFFFF80007FFFFC0000001FFFFFFFC0000001FFFFF8
310
00000000000000007FFFFFF0001FFFFFFFFFFE0000003FFFFFFFFFFE0000003F
310
FFFFFF000000000003FFFF0000000FFFF000FFF800000003FFFFFFF00007FFFF
310
80007FFFFF80007FFFF000000007FFFFFF000000003FFFF80000000000000000
310
7FFFFFF0001FFFFFFFFFF80000000FFFFFFFFFF80000000FFFFFFF0000000000
310
03FFFC00000003FFF000FFE000000000FFFFFFF00007FFFF80003FFFFF80007F
310
FFC000000001FFFFFC000000001FFFF800000000000000007FFFFFF0001FFFFF
310
FFFFE000000003FFFFFFFFE000000003FFFFFF000000000003FFF000000000FF
310
F000FF80000000007FFFFFF00007FFFF80003FFFFF80007FFF8000000000FFFF
310
F80000000007FFF800000000000000007FFFFFF0001FFFFFFFFFC000000001FF
310
FFFFFFC000000001FFFFFF000000000003FFC0000000007FF000FF0000000000
310
3FFFFFE00007FFFF00003FFFFF80007FFE00000000003FFFF00000000003FFF8
310
00000000000000007FFFFFF0001FFFFFFFFF8000000000FFFFFFFF8000000000
310
FFFFFF000000000003FF80000000003FF000FE00000000001FFFFFE00003FFFF
310
00003FFFFF80007FFC00000000001FFFE00000000001FFF8000001FFFE000000
310
7FFFFFF0001FFFFFFFFE00000000003FFFFFFE00000000003FFFFF0000000000
310
03FF00000000001FF000FC00000000000FFFFFE00003FFFF00001FFFFF80007F
310
F800000000001FFFC00000000000FFF8000001FFFE0000007FFFFFF0001FFFFF
310
FFFC00000000001FFFFFFC00000000001FFFFF000000000003FE00000000000F
310
F000F8000000000007FFFFE00003FFFF00001FFFFF80007FF800000000000FFF
310
800000000000FFF8000001FFFE0000007FFFFFF0001FFFFFFFF800000000000F
310
FFFFF800000000000FFFFF000000000003FC000000000007F000F80000000000
310
03FFFFC00003FFFE00001FFFFF80007FF0000000000007FF0000000000007FF8
310
000001FFFE0000007FFFFFF0001FFFFFFFF0000000000007FFFFF00000000000
310
07FFFF000000000003F8000000000003F000F0000000000003FFFFC00001FFFE
310
00001FFFFF80007FE0000000000007FE0000000000003FF8000001FFFE000000
310
7FFFFFF0001FFFFFFFF0000000000007FFFFF0000000000007FFFF0000000000
310
03F800001F800003F000E00001FFF00001FFFFC00001FFFE00000FFFFF80007F
310
E00001FFE00003FE00001FFF00003FF8000001FFFE0000007FFFFFF0001FFFFF
310
FFE000003E000003FFFFE000003E000003FFFF000000000003F00001FFF80001
310
F000E00007FFFC0001FFFFC00001FFFE00000FFFFF80007FC0000FFFFC0003FC
310
0000FFFFC0001FF8000001FFFE0000007FFFFFF0001FFFFFFFC00003FFE00001
310
FFFFC00003FFE00001FFFF0001FFFFFFFFF00007FFFE0001F000E0000FFFFF00
310
00FFFF800001FFFC00000FFFFF80007FC0001FFFFE0001FC0001FFFFE0001FF8
310
000001FFFE0000007FFFFFF0001FFFFFFF80000FFFF80000FFFF80000FFFF800
310
00FFFF0003FFFFFFFFE0000FFFFF8000F000C0003FFFFF8000FFFF800000FFFC
310
000007FFFF80007F80003FFFFF0001FC0003FFFFF0001FF8000001FFFE000000
310
7FFFFFF0001FFFFFFF80003FFFFE0000FFFF80003FFFFE0000FFFF0003FFFFFF
310
FFE0003FFFFF8000F000C0003FFFFF8000FFFF800000FFFC000007FFFF80007F
310
80007FFFFF8001F80007FFFFF8000FF8000001FFFE0000007FFFFFF0001FFFFF
310
FF00007FFFFF00007FFF00007FFFFF00007FFF0003FFFFFFFFE0003FFFFFC000
310
F000C0007FFFFFC000FFFF000000FFFC000007FFFF80007F8000FFFFFF8000F8
310
000FFFFFF8000FF8000001FFFE0000007FFFFFF0001FFFFFFF0000FFFFFF8000
310
7FFF0000FFFFFF80007FFF0003FFFFFFFFC0007FFFFFC00070008000FFFFFFC0
310
00FFFF000000FFF8000007FFFF80007F8000FFFFFF8000F8000FFFFFF8000FF8
310
000001FFFE0000007FFFFFF0001FFFFFFE0001FFFFFFC0003FFE0001FFFFFFC0
310
003FFF0003FFFFFFFFC0007FFFFFE00070008000FFFFFFC0007FFF0000007FF8
310
000003FFFF80007F0001FFFFFF8000F8000FFFFFF8000FF8000001FFFE000000
310
7FFFFFF0001FFFFFFE0001FFFFFFC0003FFE0001FFFFFFC0003FFF0003FFFFFF
310
FFC000FFFFFFE00070008000FFFFFFC0007FFF0000007FF8000003FFFF80007F
310
0001FFFFFF8000F8001FFFFFF8000FF8000001FFFE0000007FFFFFF0001FFFFF
310
FE0003FFFFFFE0003FFE0003FFFFFFE0003FFF0003FFFFFFFFC000FFFFFFE000
310
70008000FFFFFFC0007FFE0000007FF8000003FFFF80007F0001FFFFFF8000F0
310
001FFFFFF8000FF8000001FFFE0000007FFFFFF0001FFFFFFC0003FFFFFFE000
310
1FFC0003FFFFFFE0001FFF0003FFFFFFFFC000FFFFFFC00070008000FFFFFF80
310
007FFE0000007FF0000003FFFF80007F0001FFFFFF0000F0001FFFFFF8000FF8
310
000001FFFE0000007FFFFFF0001FFFFFFC0007FFFFFFF0001FFC0007FFFFFFF0
310
001FFF0003FFFFFFFFC000FFFFFFC00070008001FFFFFF0000FFFE0000003FF0
310
000001FFFF80007F0001FFFFFF0000F8001FFFFFF0000FF8000001FFFE000000
310
7FFFFFF0001FFFFFFC0007FFFFFFF0001FFC0007FFFFFFF0001FFF0003FFFFFF
310
FFC001FFFFFF80007000FFFFFFFFFE0000FFFE0008003FF0008001FFFF80007F
310
FFFFFFFFFC0000FFFFFFFFFFE0000FF8000001FFFE0000007FFFFFF0001FFFFF
310
F8000FFFFFFFF8000FF8000FFFFFFFF8000FFF0003FFFFFFFFFFFFFFFFFF0000
310
7000FFFFFFFFFC0000FFFC0008003FF0008001FFFF80007FFFFFFFFFF80001FF
310
FFFFFFFF80000FF8000001FFFE0000007FFFFFF0001FFFFFF8000FFFFFFFF800
310
0FF8000FFFFFFFF8000FFF0003FFFFFFFFFFFFFFFFFE0000F000FFFFFFFFE000
310
00FFFC000C003FE000C001FFFF80007FFFFFFFFFC00001FFFFFFFFFE00001FF8
310
000001FFFE0000007FFFFFF0001FFFFFF8000FFFFFFFF8000FF8000FFFFFFFF8
310
000FFF0003FFFFFFFFFFFFFFFFF00000F000FFFFFFFE000001FFFC000C001FE0
310
00C000FFFF80007FFFFFFFFE000001FFFFFFFFE000001FF80FFFFFFFFFFFFFC0
310
7FFFFFF0001FFFFFF8000FFFFFFFF8000FF8000FFFFFFFF8000FFF0003FFFFFF
310
FFFFFFFFFF800000F000FFFFFFC0000001FFFC001C001FE001C000FFFF80007F
310
FFFFFF80000003FFFFFFF80000001FF80FFFFFFFFFFFFFC07FFFFFF0001FFFFF
310
F8001FFFFFFFFC000FF8001FFFFFFFFC000FFF0003FFFFFFFFFFFFFFF0000001
310
F000FFFFF800000001FFF8001C001FE001C000FFFF80007FFFFFF800000003FF
310
FFFF800000003FF80FFFFFFFFFFFFFC07FFFFFF0001FFFFFF8001FFFFFFFFC00
310
0FF8001FFFFFFFFC000FFF0003FFFFFFFFFFFFFE00000001F000FFFFC0000000
310
03FFF8001E001FC001E000FFFF80007FFFFF8000000007FFFFFC000000003FF8
310
0FFFFFFFFFFFFFC07FFFFFF0001FFFFFF8001FFFFFFFFC000FF8001FFFFFFFFC
310
000FFF0003FFFFFFFFFFFFE000000003F000FFFE0000000007FFF8001E000FC0
310
01E0007FFF80007FFFFE0000000007FFFFE0000000007FF80FFFFFFFFFFFFFC0
310
7FFFFFF0001FFFFFF0001FFFFFFFFC0007F0001FFFFFFFFC0007FF0003FFFFFF
310
FFFFFF0000000003F000FFF80000000007FFF8001E000FC003E0007FFF80007F
310
FFF0000000000FFFFF8000000000FFF80FFFFFFFFFFFFFC07FFFFFF0001FFFFF
310
F0001FFFFFFFFC0007F0001FFFFFFFFC0007FF0003FFFFFFFFFFFC0000000007
310
F000FFE0000000000FFFF0003E000FC003E0007FFF80007FFFC0000000001FFF
310
FE0000000001FFF80FFFFFFFFFFFFFC07FFFFFF0001FFFFFF0001FFFFFFFFC00
310
07F0001FFFFFFFFC0007FF0003FFFFFFFFFFF0000000000FF000FFC000000000
310
1FFFF0003F000F8003F0003FFF80007FFF80000000003FFFF80000000003FFF8
310
0FFFFFFFFFFFFFC07FFFFFF0001FFFFFF0001FFFFFFFFC0007F0001FFFFFFFFC
310
0007FF0003FFFFFFFFFFE0000000001FF000FF00000000007FFFF0003F000780
310
03F0003FFF80007FFF00000000007FFFF00000000007FFF80FFFFFFFFFFFFFC0
310
7FFFFFF0001FFFFFF0001FFFFFFFFC0007F0001FFFFFFFFC0007FF0003FFFFFF
310
FFFF80000000007FF000FE0000000000FFFFE0003F00078007F0003FFF80007F
310
FE0000000001FFFFE0000000001FFFF80FFFFFFFFFFFFFC07FFFFFF0001FFFFF
310
F0001FFFFFFFFC0007F0001FFFFFFFFC0007FF0003FFFFFFFFFF0000000000FF
310
F000FC0000000003FFFFE0007F00078007F0003FFF80007FFC0000000007FFFF
310
C0000000007FFFF80FFFFFFFFFFFFFC07FFFFFF0001FFFFFF8001FFFFFFFFC00
310
0FF8001FFFFFFFFC000FFF0003FFFFFFFFFE0000000003FFF000FC000000000F
310
FFFFE0007F80070007F8001FFF80007FF8000000001FFFFF8000000001FFFFF8
310
0FFFFFFFFFFFFFC07FFFFFF0001FFFFFF8001FFFFFFFFC000FF8001FFFFFFFFC
310
000FFF0003FFFFFFFFFC000000000FFFF000F8000000007FFFFFE0007F800700
310
07F8001FFF80007FF000000000FFFFFF800000000FFFFFF80FFFFFFFFFFFFFC0
310
7FFFFFF0001FFFFFF8000FFFFFFFF8000FF8000FFFFFFFF8000FFF0003FFFFFF
310
FFFC000000007FFFF000F800000007FFFFFFC0007F8003000FF8001FFF80007F
310
F000000007FFFFFF000000007FFFFFF80FFFFFFFFFFFFFC07FFFFFF0001FFFFF
310
F8000FFFFFFFF8000FF8000FFFFFFFF8000FFF0003FFFFFFFFF80000000FFFFF
310
F000F0000000FFFFFFFFC000FF8003000FF8001FFF80007FE0000000FFFFFFFF
310
0000000FFFFFFFF8000001FFFE0000007FFFFFF0001FFFFFF8000FFFFFFFF800
310
0FF8000FFFFFFFF8000FFF0003FFFFFFFFF8000000FFFFFFF000F000000FFFFF
310
FFFFC000FFC002000FF8000FFF80007FE000001FFFFFFFFE000001FFFFFFFFF8
310
000001FFFE0000007FFFFFF0001FFFFFF8000FFFFFFFF8000FF8000FFFFFFFF8
310
000FFF0003FFFFFFFFF000001FFFFFFFF000E00000FFFFFFFFFFC000FFC00200
310
0FFC000FFF80007FE00001FFFFFFFFFE00001FFFFFFFFFF8000001FFFE000000
310
7FFFFFF0001FFFFFFC000FFFFFFFF8001FFC000FFFFFFFF8001FFF0003FFFFFF
310
FFF00001FFFFFFFFF000E00007FFFFFFFFFF8000FFC000001FFC000FFF80007F
310
C0000FFFFFFFFFFE0000FFFFFFFFFFF8000001FFFE0000007FFFFFF0001FFFFF
310
FC0007FFFFFFF0001FFC0007FFFFFFF0001FFF0003FFFFFFFFF00007FFFFFFFF
310
F000E0001FFFFFFFFFFF8000FFC000001FFC000FFF80007FC0003FFFFFFFFFFE
310
0001FFFFFFFFFFF8000001FFFE0000007FFFFFF0001FFFFFFC0007FFFFFFF000
310
1FFC0007FFFFFFF0001FFF0003FFFFFFFFF0001FFFFFFFFFF000E0003FFFFF00
310
03FF8001FFE000001FFC0007FF80007FC0007FFFFF0007FC0003FFFFF0003FF8
310
000001FFFE0000007FFFFFF0001FFFFFFC0003FFFFFFE0001FFC0003FFFFFFE0
310
001FFF0003FFFFFFFFF0003FFFFFFFFFF000E0003FFFFF0001FF8001FFE00000
310
1FFE0007FF80007FC0007FFFFE0003FC0007FFFFE0003FF8000001FFFE000000
310
7FFFFFF0001FFFFFFE0003FFFFFFE0003FFE0003FFFFFFE0003FFF0003FFFFFF
310
FFF0003FFFFF8001F000E0003FFFFF0001FF0001FFE000001FFE0007FF80007F
310
C0007FFFFE0003FC0007FFFFE0003FF8000001FFFE0000007FFFFFF0001FFFFF
310
FE0001FFFFFFC0003FFE0001FFFFFFC0003FFF0003FFFFFFFFF0003FFFFF0001
310
F000E0003FFFFF0003FF0001FFE000003FFE0007FF80007FC0007FFFFE0003FC
310
0007FFFFE0003FF8000001FFFE0000007FFFFFF0001FFFFFFF0001FFFFFFC000
310
7FFF0001FFFFFFC0007FFF0003FFFFFFFFF0003FFFFF0001F000E0003FFFFE00
310
03FF0003FFF000003FFE0003FF80007FC0007FFFFC0003FE0007FFFFE0003FF8
310
000001FFFE0000007FFFFFF0001FFFFFFF0000FFFFFF80007FFF0000FFFFFF80
310
007FFF0003FFFFFFFFF0003FFFFF0001F000E0003FFFFE0003FF0003FFF00000
310
3FFF0003FF80007FC0007FFFFC0007FE0007FFFFC0003FF8000001FFFE000000
310
7FFFFFF0001FFFFFFF80007FFFFF0000FFFF80007FFFFF0000FFFF0003FFFFFF
310
FFF0003FFFFF0003F000E0003FFFFC0003FE0003FFF000003FFF0003FF80007F
310
E0003FFFF80007FE0003FFFFC0007FF8000001FFFE0000007FFFFFF0001FFFFF
310
FF80003FFFFE0000FFFF80003FFFFE0000FFFF0003FFFFFFFFF0001FFFFE0003
310
F000F0001FFFF80003FE0003FFF000007FFF0001FF80007FE0003FFFF00007FE
310
0001FFFF80007FF8000001FFFE0000007FFFFFF0001FFFFFFFC0000FFFF80001
310
FFFFC0000FFFF80001FFFF0003FFFFFFFFF0001FFFFC0003F000F0000FFFF000
310
07FE0007FFF800007FFF0001FF80007FE0001FFFE00007FF0000FFFE00007FF8
310
000001FFFE0000007FFFFFF0001FFFFFFFC00003FFE00001FFFFC00003FFE000
310
01FFFF0003FFFFFFFFF8000FFFF80003F000F00003FFC00007FC0007FFF80000
310
7FFF8001FF80007FF00007FF80000FFF00007FF80000FFF8000001FFFE000000
310
7F80000000000001FFE000003E000003FFFFE000003E000003FFFF0003FFFFFF
310
FFF80003FFE00007F000F800000000000FFC0007FFF800007FFF8001FF80007F
310
F000000000000FFF000000000000FFF8000001FFFE0000007F80000000000001
310
FFF0000000000007FFFFF0000000000007FFFF0003FFFFFFFFFC00007E000007
310
F000F800000000000FFC0007FFF80000FFFF8000FF80007FF800000000001FFF
310
800000000001FFF8000001FFFE0000007F80000000000001FFF800000000000F
310
FFFFF800000000000FFFFF0003FFFFFFFFFC00000000000FF000FC0000000000
310
1FFC0007FFFC0000FFFF8000FF80007FF800000000003FFFC00000000001FFF8
310
000001FFFE0000007F80000000000001FFF800000000000FFFFFF80000000000
310
0FFFFF0003FFFFFFFFFE00000000001FF000FE00000000003FF8000FFFFC0000
310
FFFF8000FF80007FFC00000000003FFFC00000000003FFF8000001FFFE000000
310
7F80000000000001FFFC00000000001FFFFFFC00000000001FFFFF0003FFFFFF
310
FFFF00000000001FF000FF00000000003FF8000FFFFC0000FFFFC000FF80007F
310
FE00000000007FFFE00000000007FFF8000001FFFE0000007F80000000000001
310
FFFE00000000003FFFFFFE00000000003FFFFF0003FFFFFFFFFF80000000003F
310
F000FF80000000007FF8000FFFFC0001FFFFC0007F80007FFF0000000000FFFF
310
F0000000000FFFF800000000000000007F80000000000001FFFF8000000000FF
310
FFFFFF8000000000FFFFFF0003FFFFFFFFFFC0000000007FF000FFC000000000
310
FFF8000FFFFE0001FFFFC0007F80007FFF8000000001FFFFF8000000001FFFF8
310
00000000000000007F80000000000001FFFFC000000001FFFFFFFFC000000001
310
FFFFFF0003FFFFFFFFFFE000000000FFF000FFE000000003FFF0001FFFFE0001
310
FFFFC0007F80007FFFC000000007FFFFFE000000003FFFF80000000000000000
310
7F80000000000001FFFFE000000003FFFFFFFFE000000003FFFFFF0003FFFFFF
310
FFFFF000000003FFF000FFF80000000FFFF0001FFFFE0001FFFFE0007F80007F
310
FFF00000000FFFFFFF00000000FFFFF800000000000000007F80000000000001
310
FFFFF80000000FFFFFFFFFF80000000FFFFFFF0003FFFFFFFFFFFC0000000FFF
310
F000FFFE0000003FFFF0001FFFFE0003FFFFE0003F80007FFFFC0000003FFFFF
310
FFC0000003FFFFF800000000000000007F80000000000001FFFFFE0000003FFF
310
FFFFFFFE0000003FFFFFFF0003FFFFFFFFFFFF0000003FFFF000FFFF800000FF
310
FFF0001FFFFF0003FFFFE0003F80007FFFFF000001FFFFFFFFF800001FFFFFF8
310
00000000000000007F80000000000001FFFFFFC00001FFFFFFFFFFFFC00001FF
310
FFFFFF0003FFFFFFFFFFFFC00000FFFFF000FFFFF8000FFFFFFFFFFFFFFFFFFF
310
FFFFFFFFFFFFFFFFFFFFF0001FFFFFFFFFFF0000FFFFFFF80000000000000000
310
7FFFFFFFFFFFFFFFFFFFFFFC001FFFFFFFFFFFFFFC001FFFFFFFFFFFFFFFFFFF
310
FFFFFFFC001FFFFFF000FFFFFFFFFFFFFFFFFFFFFFFFFFFFFFFFFFFFFFFFFFFF
310
FFFFFFFFFFFFFFFFFFFFFFFFFFFFFFFFFFFFFFFFFFFFFFFFFFFFFFFFFFFFFFFF
310
FFFFFFFFFFFFFFFFFFFFFFFFFFFFFFFFFFFFFFFFFFFFFFFFFFFFFFFFFFFFFFFF
310
F000FFFFFFFFFFFFFFFFFFFFFFFFFFFFFFFFFFFFFFFFFFFFFFFFFFFFFFFFFFFF
310
FFFFFFFFFFFFFFFFFFFFFFFFFFFFFFFFFFFFFFFFFFFFFFFFFFFFFFFFFFFFFFFF
310
FFFFFFFFFFFFFFFFFFFFFFFFFFFFFFFFFFFFFFFFFFFFFFFFF000FFFFFFFFFFFF
310
FFFFFFFFFFFFFFFFFFFFFFFFFFFFFFFFFFFFFFFFFFFFFFFFFFFFFFFFFFFFFFFF
310
FFFFFFFFFFFFFFFFFFFFFFFFFFFFFFFFFFFFFFFFFFFFFFFFFFFFFFFFFFFFFFFF
310
FFFFFFFFFFFFFFFFFFFFFFFFFFFFFFFFF000FFFFFFFFFFFFFFFFFFFFFFFFFFFF
310
FFFFFFFFFFFFFFFFFFFFFFFFFFFFFFFFFFFFFFFFFFFFFFFFFFFFFFFFFFFFFFFF
310
FFFFFFFFFFFFFFFFFFFFFFFFFFFFFFFFFFFFFFFFFFFFFFFFFFFFFFFFFFFFFFFF
310
FFFFFFFFFFFFFFFFF000FFFFFFFFFFFFFFFFFFFFFFFFFFFFFFFFFFFFFFFFFFFF
310
FFFFFFFFFFFFFFFFFFFFFFFFFFFFFFFFFFFFFFFFFFFFFFFFFFFFFFFFFFFFFFFF
310
FFFFFFFFFFFFFFFFFFFFFFFFFFFFFFFFFFFFFFFFFFFFFFFFFFFFFFFFFFFFFFFF
310
F000FFFFFFFFFFFFFFFFFFFFFFFFFFFFFFFFFFFFFFFFFFFFFFFFFFFFFFFFFFFF
310
FFFFFFFFFFFFFFFFFFFFFFFFFFFFFFFFFFFFFFFFFFFFFFFFFFFFFFFFFFFFFFFF
310
FFFFFFFFFFFFFFFFFFFFFFFFFFFFFFFFFFFFFFFFFFFFFFFFF000FFFFFFFFFFFF
310
FFFFFFFFFFFFFFFFFFFFFFFFFFFFFFFFFFFFFFFFFFFFFFFFFFFFFFFFFFFFFFFF
310
FFFFFFFFFFFFFFFFFFFFFFFFFFFFFFFFFFFFFFFFFFFFFFFFFFFFFFFFFFFFFFFF
310
FFFFFFFFFFFFFFFFFFFFFFFFFFFFFFFFF000FFFFFFFFFFFFFFFFFFFFFFFFFFFF
310
FFFFFFFFFFFFFFFFFFFFFFFFFFFFFFFFFFFFFFFFFFFFFFFFFFFFFFFFFFFFFFFF
310
FFFFFFFFFFFFFFFFFFFFFFFFFFFFFFFFFFFFFFFFFFFFFFFFFFFFFFFFFFFFFFFF
310
FFFFFFFFFFFFFFFFF000FFFFFFFFFFFFFFFFFFFFFFFFFFFFFFFFFFFFFFFFFFFF
310
FFFFFFFFFFFFFFFFFFFFFFFFFFFFFFFFFFFFFFFFFFFFFFFFFFFFFFFFFFFFFFFF
310
FFFFFFFFFFFFFFFFFFFFFFFFFFFFFFFFFFFFFFFFFFFFFFFFFFFFFFFFFFFFFFFF
310
F000FFFFFFFFFFFFFFFFFFFFFFFFFFFFFFFFFFFFFFFFFFFFFFFFFFFFFFFFFFFF
310
FFFFFFFFFFFFFFFFFFFFFFFFFFFFFFFFFFFFFFFFFFFFFFFFFFFFFFFFFFFFFFFF
310
FFFFFFFFFFFFFFFFFFFFFFFFFFFFFFFFFFFFFFFFFFFFFFFFF000FFFFFFFFFFFF
310
FFFFFFFFFFFFFFFFFFFFFFFFFFFFFFFFFFFFFFFFFFFFFFFFFFFFFFFFFFFFFFFF
310
FFFFFFFFFFFFFFFFFFFFFFFFFFFFFFFFFFFFFFFFFFFFFFFFFFFFFFFFFFFFFFFF
310
FFFFFFFFFFFFFFFFFFFFFFFFFFFFFFFFF000FFFFFFFFFFFFFFFFFFFFFFFFFFFF
310
FFFFFFFFFFFFFFFFFFFFFFFFFFFFFFFFFFFFFFFFFFFFFFFFFFFFFFFFFFFFFFFF
310
FFFFFFFFFFFFFFFFFFFFFFFFFFFFFFFFFFFFFFFFFFFFFFFFFFFFFFFFFFFFFFFF
310
FFFFFFFFFFFFFFFFF000FFFFFFFFFFFFFFFFFFFFFFFFFFFFFFFFFFFFFFFFFFFF
310
FFFFFFFFFFFFFFFFFFFFFFFFFFFFFFFFFFFFFFFFFFFFFFFFFFFFFFFFFFFFFFFF
310
FFFFFFFFFFFFFFFFFFFFFFFFFFFFFFFFFFFFFFFFFFFFFFFFFFFFFFFFFFFFFFFF
310
F000FFFFFFFFFFFFFFFFFFFFFFFFFFFFFFFFFFFFFFFFFFFFFFFFFFFFFFFFFFFF
310
FFFFFFFFFFFFFFFFFFFFFFFFFFFFFFFFFFFFFFFFFFFFFFFFFFFFFFFFFFFFFFFF
310
FFFFFFFFFFFFFFFFFFFFFFFFFFFFFFFFFFFFFFFFFFFFFFFFF000FFFFFFFFFFFF
310
FFFFFFFFFFFFFFFFFFFFFFFFFFFFFFFFFFFFFFFFFFFFFFFFFFFFFFFFFFFFFFFF
310
FFFFFFFFFFFFFFFFFFFFFFFFFFFFFFFFFFFFFFFFFFFFFFFFFFFFFFFFFFFFFFFF
310
FFFFFFFFFFFFFFFFFFFFFFFFFFFFFFFFF000FFFFFFFFFFFFFFFFFFFFFFFFFFFF
310
FFFFFFFFFFFFFFFFFFFFFFFFFFFFFFFFFFFFFFFFFFFFFFFFFFFFFFFFFFFFFFFF
310
FFFFFFFFFFFFFFFFFFFFFFFFFFFFFFFFFFFFFFFFFFFFFFFFFFFFFFFFFFFFFFFF
310
FFFFFFFFFFFFFFFFF000FFFFFFFFFFFFFFFFFFFFFFFFFFFFFFFFFFFFFFFFFFFF
310
FFFFFFFFFFFFFFFFFFFFFFFFFFFFFFFFFFFFFFFFFFFFFFFFFFFFFFFFFFFFFFFF
310
FFFFFFFFFFFFFFFFFFFFFFFFFFFFFFFFFFFFFFFFFFFFFFFFFFFFFFFFFFFFFFFF
310
F000FFFFFFFFFFFFFFFFFFFFFFFFFFFFFFFFFFFFFFFFFFFFFFFFFFFFFFFFFFFF
310
FFFFFFFFFFFFFFFFFFFFFFFFFFFFFFFFFFFFFFFFFFFFFFFFFFFFFFFFFFFFFFFF
310
FFFFFFFFFFFFFFFFFFFFFFFFFFFFFFFFFFFFFFFFFFFFFFFFF000FFFFFFFFFFFF
310
FFFFFFFFFFFFFFFFFFFFFFFFFFFFFFFFFFFFFFFFFFFFFFFFFFFFFFFFFFFFFFFF
310
FFFFFFFFFFFFFFFFFFFFFFFFFFFFFFFFFFFFFFFFFFFFFFFFFFFFFFFFFFFFFFFF
310
FFFFFFFFFFFFFFFFFFFFFFFFFFFFFFFFF000FFFFFFFFFFFFFFFFFFFFFFFFFFFF
310
FFFFFFFFFFFFFFFFFFFFFFFFFFFFFFFFFFFFFFFFFFFFFFFFFFFFFFFFFFFFFFFF
310
FFFFFFFFFFFFFFFFFFFFFFFFFFFFFFFFFFFFFFFFFFFFFFFFFFFFFFFFFFFFFFFF
310
FFFFFFFFFFFFFFFFF000FFFFFFFFFFFFFFFFFFFFFFFFFFFFFFFFFFFFFFFFFFFF
310
FFFFFFFFFFFFFFFFFFFFFFFFFFFFFFFFFFFFFFFFFFFFFFFFFFFFFFFFFFFFFFFF
310
FFFFFFFFFFFFFFFFFFFFFFFFFFFFFFFFFFFFFFFFFFFFFFFFFFFFFFFFFFFFFFFF
310
F000FFFFFFFFFFFFFFFFFFFFFFFFFFFFFFFFFFFFFFFFFFFFFFFFFFFFFFFFFFFF
310
FFFFFFFFFFFFFFFFFFFFFFFFFFFFFFFFFFFFFFFFFFFFFFFFFFFFFFFFFFFFFFFF
310
FFFFFFFFFFFFFFFFFFFFFFFFFFFFFFFFFFFFFFFFFFFFFFFFF000FFFFFFFFFFFF
310
FFFFFFFFFFFFFFFFFFFFFFFFFFFFFFFFFFFFFFFFFFFFFFFFFFFFFFFFFFFFFFFF
310
FFFFFFFFFFFFFFFFFFFFFFFFFFFFFFFFFFFFFFFFFFFFFFFFFFFFFFFFFFFFFFFF
310
FFFFFFFFFFFFFFFFFFFFFFFFFFFFFFFFF0000000000000000000000000000000
310
0000000000000000000000000000000000000000000000000000000000000000
310
0000000000000000000000000000000000000000000000000000000000000000
310
0000000000000000000000000000000000000000000000000000000000000000
310
0000000000000000000000000000000000000000000000000000000000000000
310
0000000000000000000000000000000000000000000000000000000000000000
310
0000000000000000000000000000000000000000000000000000000000000000
310
0000000000000000000000000000000000000000000000000000000000000000
310
0000000000000000000000000000000000000000000000000000000000000000
310
0000000000000000000000000000000000000000000000000000000000000000
310
0000000000000000000000000000000000000000000000000000000000000000
310
0000000000000000000000000000000000000000000000000000000000000000
310
0000000000000000000000000000000000000000000000000000000000000000
310
0000000000000000000000000000000000000000000000000000000000000000
310
0000000000000000000000000000000000000000000000000000000000000000
310
0000000000000000000000000000000000000000000000000000000000000000
  1
OLE
  0
ENDSEC
  0
SECTION
  2
OBJECTS
  0
DICTIONARY
  5
C
330
0
100
AcDbDictionary
281
     1
  3
ACAD_GROUP
350
D
  3
ACAD_LAYOUT
350
1A
  3
ACAD_MLINESTYLE
350
17
  3
ACAD_PLOTSETTINGS
350
19
  3
ACAD_PLOTSTYLENAME
350
E
  0
DICTIONARY
  5
D
102
{ACAD_REACTORS
330
C
102
}
330
C
100
AcDbDictionary
281
     1
  0
DICTIONARY
  5
1A
102
{ACAD_REACTORS
330
C
102
}
330
C
100
AcDbDictionary
281
     1
  3
Layout1
350
1E
  3
Layout2
350
26
  3
Model
350
22
  0
DICTIONARY
  5
17
102
{ACAD_REACTORS
330
C
102
}
330
C
100
AcDbDictionary
281
     1
  3
Standard
350
18
  0
DICTIONARY
  5
19
102
{ACAD_REACTORS
330
C
102
}
330
C
100
AcDbDictionary
281
     1
  0
ACDBDICTIONARYWDFLT
  5
E
102
{ACAD_REACTORS
330
C
102
}
330
C
100
AcDbDictionary
281
     1
  3
Normal
350
F
100
AcDbDictionaryWithDefault
340
F
  0
LAYOUT
  5
1E
102
{ACAD_REACTORS
330
1A
102
}
330
1A
100
AcDbPlotSettings
  1

  2
none_device
  4

  6

 40
0.0
 41
0.0
 42
0.0
 43
0.0
 44
0.0
 45
0.0
 46
0.0
 47
0.0
 48
0.0
 49
0.0
140
0.0
141
0.0
142
1.0
143
1.0
 70
   688
 72
     0
 73
     0
 74
     5
  7

 75
    16
147
1.0
148
0.0
149
0.0
100
AcDbLayout
  1
Layout1
 70
     1
 71
     1
 10
0.0
 20
0.0
 11
420.0
 21
297.0
 12
0.0
 22
0.0
 32
0.0
 14
1.0000000000E+20
 24
1.0000000000E+20
 34
1.0000000000E+20
 15
-1.0000000000E+20
 25
-1.0000000000E+20
 35
-1.0000000000E+20
146
0.0
 13
0.0
 23
0.0
 33
0.0
 16
1.0
 26
0.0
 36
0.0
 17
0.0
 27
1.0
 37
0.0
 76
     0
330
1B
  0
LAYOUT
  5
26
102
{ACAD_REACTORS
330
1A
102
}
330
1A
100
AcDbPlotSettings
  1

  2
none_device
  4

  6

 40
0.0
 41
0.0
 42
0.0
 43
0.0
 44
0.0
 45
0.0
 46
0.0
 47
0.0
 48
0.0
 49
0.0
140
0.0
141
0.0
142
1.0
143
1.0
 70
   688
 72
     0
 73
     0
 74
     5
  7

 75
    16
147
1.0
148
0.0
149
0.0
100
AcDbLayout
  1
Layout2
 70
     1
 71
     2
 10
0.0
 20
0.0
 11
0.0
 21
0.0
 12
0.0
 22
0.0
 32
0.0
 14
0.0
 24
0.0
 34
0.0
 15
0.0
 25
0.0
 35
0.0
146
0.0
 13
0.0
 23
0.0
 33
0.0
 16
1.0
 26
0.0
 36
0.0
 17
0.0
 27
1.0
 37
0.0
 76
     0
330
23
  0
LAYOUT
  5
22
102
{ACAD_REACTORS
330
1A
102
}
330
1A
100
AcDbPlotSettings
  1

  2
none_device
  4

  6

 40
0.0
 41
0.0
 42
0.0
 43
0.0
 44
0.0
 45
0.0
 46
0.0
 47
0.0
 48
0.0
 49
0.0
140
0.0
141
0.0
142
1.0
143
1.0
 70
  1712
 72
     0
 73
     0
 74
     0
  7

 75
     0
147
1.0
148
0.0
149
0.0
100
AcDbLayout
  1
Model
 70
     1
 71
     0
 10
0.0
 20
0.0
 11
297.0
 21
210.0
 12
0.0
 22
0.0
 32
0.0
 14
0.0
 24
0.0
 34
0.0
 15
297.0
 25
210.0
 35
0.0
146
0.0
 13
0.0
 23
0.0
 33
0.0
 16
1.0
 26
0.0
 36
0.0
 17
0.0
 27
1.0
 37
0.0
 76
     0
330
1F
331
29
  0
MLINESTYLE
  5
18
102
{ACAD_REACTORS
330
17
102
}
330
17
100
AcDbMlineStyle
  2
Standard
 70
     0
  3

 62
   256
 51
90.0
 52
90.0
 71
     2
 49
0.5
 62
   256
  6
BYLAYER
 49
-0.5
 62
   256
  6
BYLAYER
  0
ACDBPLACEHOLDER
  5
F
102
{ACAD_REACTORS
330
E
102
}
330
E
  0
ENDSEC
  0
EOF
