  0
SECTION
  2
HEADER
  9
$ACADVER
  1
AC1015
  9
$ACADMAINTVER
 70
     6
  9
$DWGCODEPAGE
  3
ANSI_1252
  9
$INSBASE
 10
0.0
 20
0.0
 30
0.0
  9
$EXTMIN
 10
0.0
 20
0.0
 30
0.0
  9
$EXTMAX
 10
297.0
 20
210.0
 30
0.0
  9
$LIMMIN
 10
0.0
 20
0.0
  9
$LIMMAX
 10
297.0
 20
210.0
  9
$ORTHOMODE
 70
     0
  9
$REGENMODE
 70
     1
  9
$FILLMODE
 70
     1
  9
$QTEXTMODE
 70
     0
  9
$MIRRTEXT
 70
     1
  9
$LTSCALE
 40
1.0
  9
$ATTMODE
 70
     1
  9
$TEXTSIZE
 40
2.0
  9
$TRACEWID
 40
1.0
  9
$TEXTSTYLE
  7
Standard
  9
$CLAYER
  8
0
  9
$CELTYPE
  6
ByLayer
  9
$CECOLOR
 62
   256
  9
$CELTSCALE
 40
1.0
  9
$DISPSILH
 70
     0
  9
$DIMSCALE
 40
1.0
  9
$DIMASZ
 40
3.0
  9
$DIMEXO
 40
0.0
  9
$DIMDLI
 40
3.75
  9
$DIMRND
 40
0.0
  9
$DIMDLE
 40
0.0
  9
$DIMEXE
 40
1.0
  9
$DIMTP
 40
0.0
  9
$DIMTM
 40
0.0
  9
$DIMTXT
 40
2.0
  9
$DIMCEN
 40
2.5
  9
$DIMTSZ
 40
0.0
  9
$DIMTOL
 70
     0
  9
$DIMLIM
 70
     0
  9
$DIMTIH
 70
     1
  9
$DIMTOH
 70
     1
  9
$DIMSE1
 70
     0
  9
$DIMSE2
 70
     0
  9
$DIMTAD
 70
     1
  9
$DIMZIN
 70
     0
  9
$DIMBLK
  1

  9
$DIMASO
 70
     1
  9
$DIMSHO
 70
     1
  9
$DIMPOST
  1

  9
$DIMAPOST
  1

  9
$DIMALT
 70
     0
  9
$DIMALTD
 70
     3
  9
$DIMALTF
 40
0.0393700787
  9
$DIMLFAC
 40
1.0
  9
$DIMTOFL
 70
     1
  9
$DIMTVP
 40
0.0
  9
$DIMTIX
 70
     0
  9
$DIMSOXD
 70
     0
  9
$DIMSAH
 70
     0
  9
$DIMBLK1
  1

  9
$DIMBLK2
  1

  9
$DIMSTYLE
  2
ISO-25
  9
$DIMCLRD
 70
     0
  9
$DIMCLRE
 70
     0
  9
$DIMCLRT
 70
     0
  9
$DIMTFAC
 40
1.0
  9
$DIMGAP
 40
1.524
  9
$DIMJUST
 70
     0
  9
$DIMSD1
 70
     0
  9
$DIMSD2
 70
     0
  9
$DIMTOLJ
 70
     0
  9
$DIMTZIN
 70
     0
  9
$DIMALTZ
 70
     0
  9
$DIMALTTZ
 70
     0
  9
$DIMUPT
 70
     0
  9
$DIMDEC
 70
     2
  9
$DIMTDEC
 70
     3
  9
$DIMALTU
 70
     2
  9
$DIMALTTD
 70
     3
  9
$DIMTXSTY
  7
Standard
  9
$DIMAUNIT
 70
     0
  9
$DIMADEC
 70
     2
  9
$DIMALTRND
 40
0.0
  9
$DIMAZIN
 70
     0
  9
$DIMDSEP
 70
    44
  9
$DIMATFIT
 70
     3
  9
$DIMFRAC
 70
     0
  9
$DIMLDRBLK
  1

  9
$DIMLUNIT
 70
     2
  9
$DIMLWD
 70
    -2
  9
$DIMLWE
 70
    -2
  9
$DIMTMOVE
 70
     0
  9
$LUNITS
 70
     2
  9
$LUPREC
 70
     2
  9
$SKETCHINC
 40
1.0
  9
$FILLETRAD
 40
10.0
  9
$AUNITS
 70
     0
  9
$AUPREC
 70
     2
  9
$MENU
  1
.
  9
$ELEVATION
 40
0.0
  9
$PELEVATION
 40
0.0
  9
$THICKNESS
 40
0.0
  9
$LIMCHECK
 70
     0
  9
$CHAMFERA
 40
10.0
  9
$CHAMFERB
 40
10.0
  9
$CHAMFERC
 40
20.0
  9
$CHAMFERD
 40
0.0
  9
$SKPOLY
 70
     0
  9
$TDCREATE
 40
2455973.464967789
  9
$TDUCREATE
 40
2455973.423301123
  9
$TDUPDATE
 40
2455973.464967801
  9
$TDUUPDATE
 40
2455973.423301134
  9
$TDINDWG
 40
0.0000000116
  9
$TDUSRTIMER
 40
0.0000000116
  9
$USRTIMER
 70
     1
  9
$ANGBASE
 50
0.0
  9
$ANGDIR
 70
     0
  9
$PDMODE
 70
     0
  9
$PDSIZE
 40
-1.0
  9
$PLINEWID
 40
0.0
  9
$SPLFRAME
 70
     0
  9
$SPLINETYPE
 70
     6
  9
$SPLINESEGS
 70
     8
  9
$HANDSEED
  5
31C
  9
$SURFTAB1
 70
     6
  9
$SURFTAB2
 70
     6
  9
$SURFTYPE
 70
     6
  9
$SURFU
 70
     6
  9
$SURFV
 70
     6
  9
$UCSBASE
  2

  9
$UCSNAME
  2

  9
$UCSORG
 10
0.0
 20
0.0
 30
0.0
  9
$UCSXDIR
 10
1.0
 20
0.0
 30
0.0
  9
$UCSYDIR
 10
0.0
 20
1.0
 30
0.0
  9
$UCSORTHOREF
  2

  9
$UCSORTHOVIEW
 70
     0
  9
$UCSORGTOP
 10
0.0
 20
0.0
 30
0.0
  9
$UCSORGBOTTOM
 10
0.0
 20
0.0
 30
0.0
  9
$UCSORGLEFT
 10
0.0
 20
0.0
 30
0.0
  9
$UCSORGRIGHT
 10
0.0
 20
0.0
 30
0.0
  9
$UCSORGFRONT
 10
0.0
 20
0.0
 30
0.0
  9
$UCSORGBACK
 10
0.0
 20
0.0
 30
0.0
  9
$PUCSBASE
  2

  9
$PUCSNAME
  2

  9
$PUCSORG
 10
0.0
 20
0.0
 30
0.0
  9
$PUCSXDIR
 10
1.0
 20
0.0
 30
0.0
  9
$PUCSYDIR
 10
0.0
 20
1.0
 30
0.0
  9
$PUCSORTHOREF
  2

  9
$PUCSORTHOVIEW
 70
     0
  9
$PUCSORGTOP
 10
0.0
 20
0.0
 30
0.0
  9
$PUCSORGBOTTOM
 10
0.0
 20
0.0
 30
0.0
  9
$PUCSORGLEFT
 10
0.0
 20
0.0
 30
0.0
  9
$PUCSORGRIGHT
 10
0.0
 20
0.0
 30
0.0
  9
$PUCSORGFRONT
 10
0.0
 20
0.0
 30
0.0
  9
$PUCSORGBACK
 10
0.0
 20
0.0
 30
0.0
  9
$USERI1
 70
     0
  9
$USERI2
 70
     0
  9
$USERI3
 70
     0
  9
$USERI4
 70
     0
  9
$USERI5
 70
     0
  9
$USERR1
 40
0.0
  9
$USERR2
 40
0.0
  9
$USERR3
 40
0.0
  9
$USERR4
 40
0.0
  9
$USERR5
 40
0.0
  9
$WORLDVIEW
 70
     1
  9
$SHADEDGE
 70
     3
  9
$SHADEDIF
 70
    70
  9
$TILEMODE
 70
     1
  9
$MAXACTVP
 70
    64
  9
$PINSBASE
 10
0.0
 20
0.0
 30
0.0
  9
$PLIMCHECK
 70
     0
  9
$PEXTMIN
 10
1.0000000000E+20
 20
1.0000000000E+20
 30
1.0000000000E+20
  9
$PEXTMAX
 10
-1.0000000000E+20
 20
-1.0000000000E+20
 30
-1.0000000000E+20
  9
$PLIMMIN
 10
0.0
 20
0.0
  9
$PLIMMAX
 10
420.0
 20
297.0
  9
$UNITMODE
 70
     0
  9
$VISRETAIN
 70
     1
  9
$PLINEGEN
 70
     0
  9
$PSLTSCALE
 70
     1
  9
$TREEDEPTH
 70
  3020
  9
$CMLSTYLE
  2
Standard
  9
$CMLJUST
 70
     0
  9
$CMLSCALE
 40
20.0
  9
$PROXYGRAPHICS
 70
     1
  9
$MEASUREMENT
 70
     1
  9
$CELWEIGHT
370
    -1
  9
$ENDCAPS
280
     0
  9
$JOINSTYLE
280
     0
  9
$LWDISPLAY
290
     1
  9
$INSUNITS
 70
     4
  9
$HYPERLINKBASE
  1

  9
$STYLESHEET
  1

  9
$XEDIT
290
     1
  9
$CEPSNTYPE
380
     0
  9
$PSTYLEMODE
290
     1
  9
$FINGERPRINTGUID
  2
{B9D3F278-FD8F-4B31-A1E5-7A72CE0F98DE}
  9
$VERSIONGUID
  2
{FAEB1C32-E019-11D5-929B-00C0DF256EC4}
  9
$EXTNAMES
290
     1
  9
$PSVPSCALE
 40
0.0
  9
$OLESTARTUP
290
     0
  0
ENDSEC
  0
SECTION
  2
CLASSES
  0
CLASS
  1
ACDBDICTIONARYWDFLT
  2
AcDbDictionaryWithDefault
  3
ObjectDBX Classes
 90
        0
280
     0
281
     0
  0
CLASS
  1
VISUALSTYLE
  2
AcDbVisualStyle
  3
ObjectDBX Classes
 90
     4095
280
     0
281
     0
  0
CLASS
  1
MATERIAL
  2
AcDbMaterial
  3
ObjectDBX Classes
 90
     1153
280
     0
281
     0
  0
CLASS
  1
ACDBPLACEHOLDER
  2
AcDbPlaceHolder
  3
ObjectDBX Classes
 90
        0
280
     0
281
     0
  0
CLASS
  1
LAYOUT
  2
AcDbLayout
  3
ObjectDBX Classes
 90
        0
280
     0
281
     0
  0
ENDSEC
  0
SECTION
  2
TABLES
  0
TABLE
  2
VPORT
  5
8
330
0
100
AcDbSymbolTable
 70
     1
  0
VPORT
  5
29
330
8
100
AcDbSymbolTableRecord
100
AcDbViewportTableRecord
  2
*Active
 70
     0
 10
0.0
 20
0.0
 11
1.0
 21
1.0
 12
148.5
 22
105.0
 13
0.0
 23
0.0
 14
10.0
 24
10.0
 15
10.0
 25
10.0
 16
0.0
 26
0.0
 36
1.0
 17
0.0
 27
0.0
 37
0.0
 40
210.0
 41
1.4142857143
 42
50.0
 43
0.0
 44
0.0
 50
0.0
 51
0.0
 71
     0
 72
  2000
 73
     1
 74
     3
 75
     0
 76
     0
 77
     0
 78
     0
281
     0
 65
     1
110
0.0
120
0.0
130
0.0
111
1.0
121
0.0
131
0.0
112
0.0
122
1.0
132
0.0
 79
     0
146
0.0
  0
ENDTAB
  0
TABLE
  2
LTYPE
  5
5
330
0
100
AcDbSymbolTable
 70
     6
  0
LTYPE
  5
14
330
5
100
AcDbSymbolTableRecord
100
AcDbLinetypeTableRecord
  2
ByBlock
 70
     0
  3

 72
    65
 73
     0
 40
0.0
  0
LTYPE
  5
15
330
5
100
AcDbSymbolTableRecord
100
AcDbLinetypeTableRecord
  2
ByLayer
 70
     0
  3

 72
    65
 73
     0
 40
0.0
  0
LTYPE
  5
16
330
5
100
AcDbSymbolTableRecord
100
AcDbLinetypeTableRecord
  2
Continuous
 70
     0
  3
Solid line
 72
    65
 73
     0
 40
0.0
  0
LTYPE
  5
3F
330
5
100
AcDbSymbolTableRecord
100
AcDbLinetypeTableRecord
  2
HIDDEN
 70
     0
  3
Hidden __ __ __ __ __ __ __ __ __ __ __ __ __ __
 72
    65
 73
     2
 40
1.905
 49
1.27
 74
     0
 49
-0.635
 74
     0
  0
LTYPE
  5
40
330
5
100
AcDbSymbolTableRecord
100
AcDbLinetypeTableRecord
  2
PHANTOM
 70
     0
  3
Phantom ______  __  __  ______  __  __  ______
 72
    65
 73
     6
 40
12.7
 49
6.35
 74
     0
 49
-1.27
 74
     0
 49
1.27
 74
     0
 49
-1.27
 74
     0
 49
1.27
 74
     0
 49
-1.27
 74
     0
  0
LTYPE
  5
41
330
5
100
AcDbSymbolTableRecord
100
AcDbLinetypeTableRecord
  2
CENTER
 70
     0
  3
Center ____ _ ____ _ ____ _ ____ _ ____ _ ____
 72
    65
 73
     4
 40
10.16
 49
6.35
 74
     0
 49
-1.27
 74
     0
 49
1.27
 74
     0
 49
-1.27
 74
     0
  0
LTYPE
  5
42
330
5
100
AcDbSymbolTableRecord
100
AcDbLinetypeTableRecord
  2
CENTERX2
 70
     0
  3
Center (2x) ________  __  ________  __  _____
 72
    65
 73
     4
 40
20.32
 49
12.7
 74
     0
 49
-2.54
 74
     0
 49
2.54
 74
     0
 49
-2.54
 74
     0
  0
LTYPE
  5
43
330
5
100
AcDbSymbolTableRecord
100
AcDbLinetypeTableRecord
  2
DOT2
 70
     0
  3
Dot (.5x) ........................................
 72
    65
 73
     2
 40
0.635
 49
0.0
 74
     0
 49
-0.635
 74
     0
  0
ENDTAB
  0
TABLE
  2
LAYER
  5
2
330
0
100
AcDbSymbolTable
 70
     5
  0
LAYER
  5
10
330
2
100
AcDbSymbolTableRecord
100
AcDbLayerTableRecord
  2
0
 70
     0
 62
     7
  6
Continuous
370
    -3
390
F
  0
LAYER
  5
44
330
2
100
AcDbSymbolTableRecord
100
AcDbLayerTableRecord
  2
FORMAT
 70
     0
 62
     7
  6
Continuous
370
    -3
390
F
  0
LAYER
  5
45
330
2
100
AcDbSymbolTableRecord
100
AcDbLayerTableRecord
  2
VERMASSUNG
 70
     0
 62
     7
  6
Continuous
370
    -3
390
F
  0
LAYER
  5
46
330
2
100
AcDbSymbolTableRecord
100
AcDbLayerTableRecord
  2
KOPF_DÜNN
 70
     0
 62
     7
  6
Continuous
370
    -3
390
F
  0
LAYER
  5
47
330
2
100
AcDbSymbolTableRecord
100
AcDbLayerTableRecord
  2
KOPF_DICK
 70
     0
 62
     7
  6
Continuous
370
    15
390
F
  0
ENDTAB
  0
TABLE
  2
STYLE
  5
3
330
0
100
AcDbSymbolTable
 70
     2
  0
STYLE
  5
11
330
3
100
AcDbSymbolTableRecord
100
AcDbTextStyleTableRecord
  2
Standard
 70
     0
 40
0.0
 41
1.0
 50
0.0
 71
     0
 42
2.5
  3
txt
  4

  0
STYLE
  5
48
330
3
100
AcDbSymbolTableRecord
100
AcDbTextStyleTableRecord
  2
SLDTEXTSTYLE0
 70
     0
 40
0.0
 41
0.7
 50
0.0
 71
     0
 42
0.2
  3
TXT
  4

  0
ENDTAB
  0
TABLE
  2
VIEW
  5
6
330
0
100
AcDbSymbolTable
 70
     0
  0
ENDTAB
  0
TABLE
  2
UCS
  5
7
330
0
100
AcDbSymbolTable
 70
     0
  0
ENDTAB
  0
TABLE
  2
APPID
  5
9
330
0
100
AcDbSymbolTable
 70
     1
  0
APPID
  5
12
330
9
100
AcDbSymbolTableRecord
100
AcDbRegAppTableRecord
  2
ACAD
 70
     0
  0
ENDTAB
  0
TABLE
  2
DIMSTYLE
  5
A
330
0
100
AcDbSymbolTable
 70
     2
100
AcDbDimStyleTable
  0
DIMSTYLE
105
27
330
A
100
AcDbSymbolTableRecord
100
AcDbDimStyleTableRecord
  2
ISO-25
 70
     0
 41
2.5
 42
0.625
 43
3.75
 44
1.25
 73
     0
 74
     0
 77
     1
 78
     8
140
2.5
141
2.5
143
0.0393700787
147
0.625
171
     3
172
     1
178
     0
271
     2
272
     2
274
     3
278
    44
283
     0
284
     8
340
11
  0
DIMSTYLE
105
2E2
102
{ACAD_REACTORS
330
2E1
330
2ED
330
2F9
330
304
330
30E
102
}
330
A
100
AcDbSymbolTableRecord
100
AcDbDimStyleTableRecord
  2
SLDDIMSTYLE0
 70
     0
 41
3.0
 44
0.0
 45
0.000000001
 73
     0
 74
     0
 77
     1
 78
    12
 79
     3
140
2.0
147
0.5
173
     1
178
     0
271
     2
272
     3
276
     2
284
    12
340
48
  0
ENDTAB
  0
TABLE
  2
BLOCK_RECORD
  5
1
330
0
100
AcDbSymbolTable
 70
     6
  0
BLOCK_RECORD
  5
1F
330
1
100
AcDbSymbolTableRecord
100
AcDbBlockTableRecord
  2
*Model_Space
340
22
  0
BLOCK_RECORD
  5
1B
330
1
100
AcDbSymbolTableRecord
100
AcDbBlockTableRecord
  2
*Paper_Space
340
1E
  0
BLOCK_RECORD
  5
23
330
1
100
AcDbSymbolTableRecord
100
AcDbBlockTableRecord
  2
*Paper_Space0
340
26
  0
BLOCK_RECORD
  5
2E3
330
1
100
AcDbSymbolTableRecord
100
AcDbBlockTableRecord
  2
*D1
340
0
  0
BLOCK_RECORD
  5
2EE
330
1
100
AcDbSymbolTableRecord
100
AcDbBlockTableRecord
  2
*D2
340
0
  0
BLOCK_RECORD
  5
2FA
330
1
100
AcDbSymbolTableRecord
100
AcDbBlockTableRecord
  2
*D3
340
0
  0
BLOCK_RECORD
  5
305
330
1
100
AcDbSymbolTableRecord
100
AcDbBlockTableRecord
  2
*D4
340
0
  0
BLOCK_RECORD
  5
30F
330
1
100
AcDbSymbolTableRecord
100
AcDbBlockTableRecord
  2
*D5
340
0
  0
ENDTAB
  0
ENDSEC
  0
SECTION
  2
BLOCKS
  0
BLOCK
  5
20
330
1F
100
AcDbEntity
  8
0
100
AcDbBlockBegin
  2
*Model_Space
 70
     0
 10
0.0
 20
0.0
 30
0.0
  3
*Model_Space
  1

  0
ENDBLK
  5
21
330
1F
100
AcDbEntity
  8
0
100
AcDbBlockEnd
  0
BLOCK
  5
1C
330
1B
100
AcDbEntity
 67
     1
  8
0
100
AcDbBlockBegin
  2
*Paper_Space
 70
     0
 10
0.0
 20
0.0
 30
0.0
  3
*Paper_Space
  1

  0
ENDBLK
  5
1D
330
1B
100
AcDbEntity
 67
     1
  8
0
100
AcDbBlockEnd
  0
BLOCK
  5
24
330
23
100
AcDbEntity
  8
0
100
AcDbBlockBegin
  2
*Paper_Space0
 70
     0
 10
0.0
 20
0.0
 30
0.0
  3
*Paper_Space0
  1

  0
ENDBLK
  5
25
330
23
100
AcDbEntity
  8
0
100
AcDbBlockEnd
  0
BLOCK
  5
2E4
330
2E3
100
AcDbEntity
  8
0
100
AcDbBlockBegin
  2
*D1
 70
     1
 10
0.0
 20
0.0
 30
0.0
  3
*D1
  1

  0
SOLID
  5
2E6
330
2E3
100
AcDbEntity
  8
VERMASSUNG
100
AcDbTrace
 10
67.1481238745
 20
142.5919640833
 30
0.0
 11
66.6981238745
 21
139.5919640833
 31
0.0
 12
67.5981238745
 22
139.5919640833
 32
0.0
 13
67.5981238745
 23
139.5919640833
 33
0.0
  0
SOLID
  5
2E7
330
2E3
100
AcDbEntity
  8
VERMASSUNG
100
AcDbTrace
 10
67.1481238745
 20
106.5919640833
 30
0.0
 11
67.5981238745
 21
109.5919640833
 31
0.0
 12
66.6981238745
 22
109.5919640833
 32
0.0
 13
66.6981238745
 23
109.5919640833
 33
0.0
  0
LINE
  5
2E8
330
2E3
100
AcDbEntity
  8
VERMASSUNG
100
AcDbLine
 10
81.159259446
 20
142.5919640833
 30
0.0
 11
66.1481238745
 21
142.5919640833
 31
0.0
  0
LINE
  5
2E9
330
2E3
100
AcDbEntity
  8
VERMASSUNG
100
AcDbLine
 10
81.159259446
 20
106.5919640833
 30
0.0
 11
66.1481238745
 21
106.5919640833
 31
0.0
  0
LINE
  5
2EA
330
2E3
100
AcDbEntity
  8
VERMASSUNG
100
AcDbLine
 10
67.1481238745
 20
142.5919640833
 30
0.0
 11
67.1481238745
 21
106.5919640833
 31
0.0
  0
MTEXT
  5
2EB
330
2E3
100
AcDbEntity
  8
VERMASSUNG
100
AcDbMText
 10
64.5699883949
 20
121.3883992107
 30
0.0
 40
2.0
 41
0.0
 71
     1
 72
     1
  1
%%c
  7
SLDTEXTSTYLE0
 11
-7.044195017643634E-15
 21
1.0
 31
0.0
 73
     1
 44
1.0
  0
MTEXT
  5
2EC
330
2E3
100
AcDbEntity
  8
VERMASSUNG
100
AcDbMText
 10
64.5699885113
 20
124.9975184195
 30
0.0
 40
2.0
 41
0.0
 71
     1
 72
     1
  1
36
  7
SLDTEXTSTYLE0
 11
-7.044195017643634E-15
 21
1.0
 31
0.0
 73
     1
 44
1.0
  0
ENDBLK
  5
2E5
330
2E3
100
AcDbEntity
  8
0
100
AcDbBlockEnd
  0
BLOCK
  5
2EF
330
2EE
100
AcDbEntity
  8
0
100
AcDbBlockBegin
  2
*D2
 70
     1
 10
0.0
 20
0.0
 30
0.0
  3
*D2
  1

  0
SOLID
  5
2F1
330
2EE
100
AcDbEntity
  8
VERMASSUNG
100
AcDbTrace
 10
61.1481238745
 20
156.0919640833
 30
0.0
 11
60.6981238745
 21
153.0919640833
 31
0.0
 12
61.5981238745
 22
153.0919640833
 32
0.0
 13
61.5981238745
 23
153.0919640833
 33
0.0
  0
SOLID
  5
2F2
330
2EE
100
AcDbEntity
  8
VERMASSUNG
100
AcDbTrace
 10
61.1481238745
 20
93.0919640833
 30
0.0
 11
61.5981238745
 21
96.0919640833
 31
0.0
 12
60.6981238745
 22
96.0919640833
 32
0.0
 13
60.6981238745
 23
96.0919640833
 33
0.0
  0
LINE
  5
2F3
330
2EE
100
AcDbEntity
  8
VERMASSUNG
100
AcDbLine
 10
113.659259446
 20
156.0919640833
 30
0.0
 11
60.1481238745
 21
156.0919640833
 31
0.0
  0
LINE
  5
2F4
330
2EE
100
AcDbEntity
  8
VERMASSUNG
100
AcDbLine
 10
113.659259446
 20
93.0919640833
 30
0.0
 11
60.1481238745
 21
93.0919640833
 31
0.0
  0
LINE
  5
2F5
330
2EE
100
AcDbEntity
  8
VERMASSUNG
100
AcDbLine
 10
61.1481238745
 20
156.0919640833
 30
0.0
 11
61.1481238745
 21
93.0919640833
 31
0.0
  0
MTEXT
  5
2F6
330
2EE
100
AcDbEntity
  8
VERMASSUNG
100
AcDbMText
 10
58.3699883854
 20
118.8880047762
 30
0.0
 40
2.0
 41
0.0
 71
     1
 72
     1
  1
WH
  7
SLDTEXTSTYLE0
 11
-7.044195017643634E-15
 21
1.0
 31
0.0
 73
     1
 44
1.0
  0
MTEXT
  5
2F7
330
2EE
100
AcDbEntity
  8
VERMASSUNG
100
AcDbMText
 10
58.5699883949
 20
123.8880046645
 30
0.0
 40
2.0
 41
0.0
 71
     1
 72
     1
  1
%%c
  7
SLDTEXTSTYLE0
 11
-7.044195017643634E-15
 21
1.0
 31
0.0
 73
     1
 44
1.0
  0
MTEXT
  5
2F8
330
2EE
100
AcDbEntity
  8
VERMASSUNG
100
AcDbMText
 10
58.5699885113
 20
127.4979128539
 30
0.0
 40
2.0
 41
0.0
 71
     1
 72
     1
  1
63
  7
SLDTEXTSTYLE0
 11
-7.044195017643634E-15
 21
1.0
 31
0.0
 73
     1
 44
1.0
  0
ENDBLK
  5
2F0
330
2EE
100
AcDbEntity
  8
0
100
AcDbBlockEnd
  0
BLOCK
  5
2FB
330
2FA
100
AcDbEntity
  8
0
100
AcDbBlockBegin
  2
*D3
 70
     1
 10
0.0
 20
0.0
 30
0.0
  3
*D3
  1

  0
SOLID
  5
2FD
330
2FA
100
AcDbEntity
  8
VERMASSUNG
100
AcDbTrace
 10
55.1481238745
 20
160.5919640833
 30
0.0
 11
54.6981238745
 21
157.5919640833
 31
0.0
 12
55.5981238745
 22
157.5919640833
 32
0.0
 13
55.5981238745
 23
157.5919640833
 33
0.0
  0
SOLID
  5
2FE
330
2FA
100
AcDbEntity
  8
VERMASSUNG
100
AcDbTrace
 10
55.1481238745
 20
88.5919640833
 30
0.0
 11
55.5981238745
 21
91.5919640833
 31
0.0
 12
54.6981238745
 22
91.5919640833
 32
0.0
 13
54.6981238745
 23
91.5919640833
 33
0.0
  0
LINE
  5
2FF
330
2FA
100
AcDbEntity
  8
VERMASSUNG
100
AcDbLine
 10
121.3346859265
 20
160.5919640833
 30
0.0
 11
54.1481238745
 21
160.5919640833
 31
0.0
  0
LINE
  5
300
330
2FA
100
AcDbEntity
  8
VERMASSUNG
100
AcDbLine
 10
121.3346859265
 20
88.5919640833
 30
0.0
 11
54.1481238745
 21
88.5919640833
 31
0.0
  0
LINE
  5
301
330
2FA
100
AcDbEntity
  8
VERMASSUNG
100
AcDbLine
 10
55.1481238745
 20
160.5919640833
 30
0.0
 11
55.1481238745
 21
88.5919640833
 31
0.0
  0
MTEXT
  5
302
330
2FA
100
AcDbEntity
  8
VERMASSUNG
100
AcDbMText
 10
52.5699883949
 20
121.3883992107
 30
0.0
 40
2.0
 41
0.0
 71
     1
 72
     1
  1
%%c
  7
SLDTEXTSTYLE0
 11
-7.044195017643634E-15
 21
1.0
 31
0.0
 73
     1
 44
1.0
  0
MTEXT
  5
303
330
2FA
100
AcDbEntity
  8
VERMASSUNG
100
AcDbMText
 10
52.5699885113
 20
124.9975184195
 30
0.0
 40
2.0
 41
0.0
 71
     1
 72
     1
  1
72
  7
SLDTEXTSTYLE0
 11
-7.044195017643634E-15
 21
1.0
 31
0.0
 73
     1
 44
1.0
  0
ENDBLK
  5
2FC
330
2FA
100
AcDbEntity
  8
0
100
AcDbBlockEnd
  0
BLOCK
  5
306
330
305
100
AcDbEntity
  8
0
100
AcDbBlockBegin
  2
*D4
 70
     1
 10
0.0
 20
0.0
 30
0.0
  3
*D4
  1

  0
SOLID
  5
308
330
305
100
AcDbEntity
  8
VERMASSUNG
100
AcDbTrace
 10
113.159259446
 20
175.6855420649
 30
0.0
 11
116.159259446
 21
175.2355420649
 31
0.0
 12
116.159259446
 22
176.1355420649
 32
0.0
 13
116.159259446
 23
176.1355420649
 33
0.0
  0
SOLID
  5
309
330
305
100
AcDbEntity
  8
VERMASSUNG
100
AcDbTrace
 10
223.159259446
 20
175.6855420649
 30
0.0
 11
220.159259446
 21
176.1355420649
 31
0.0
 12
220.159259446
 22
175.2355420649
 32
0.0
 13
220.159259446
 23
175.2355420649
 33
0.0
  0
LINE
  5
30A
330
305
100
AcDbEntity
  8
VERMASSUNG
100
AcDbLine
 10
113.159259446
 20
155.5919640833
 30
0.0
 11
113.159259446
 21
176.6855420649
 31
0.0
  0
LINE
  5
30B
330
305
100
AcDbEntity
  8
VERMASSUNG
100
AcDbLine
 10
223.159259446
 20
167.8419640833
 30
0.0
 11
223.159259446
 21
176.6855420649
 31
0.0
  0
LINE
  5
30C
330
305
100
AcDbEntity
  8
VERMASSUNG
100
AcDbLine
 10
113.159259446
 20
175.6855420649
 30
0.0
 11
223.159259446
 21
175.6855420649
 31
0.0
  0
MTEXT
  5
30D
330
305
100
AcDbEntity
  8
VERMASSUNG
100
AcDbMText
 10
166.4594942437
 20
178.2636774281
 30
0.0
 40
2.0
 41
0.0
 71
     1
 72
     1
  1
110
  7
SLDTEXTSTYLE0
 73
     1
 44
1.0
  0
ENDBLK
  5
307
330
305
100
AcDbEntity
  8
0
100
AcDbBlockEnd
  0
BLOCK
  5
310
330
30F
100
AcDbEntity
  8
0
100
AcDbBlockBegin
  2
*D5
 70
     1
 10
0.0
 20
0.0
 30
0.0
  3
*D5
  1

  0
SOLID
  5
312
330
30F
100
AcDbEntity
  8
VERMASSUNG
100
AcDbTrace
 10
231.9199289931
 20
167.8419640833
 30
0.0
 11
231.4699289931
 21
164.8419640833
 31
0.0
 12
232.3699289931
 22
164.8419640833
 32
0.0
 13
232.3699289931
 23
164.8419640833
 33
0.0
  0
SOLID
  5
313
330
30F
100
AcDbEntity
  8
VERMASSUNG
100
AcDbTrace
 10
231.9199289931
 20
81.3419640833
 30
0.0
 11
232.3699289931
 21
84.3419640833
 31
0.0
 12
231.4699289931
 22
84.3419640833
 32
0.0
 13
231.4699289931
 23
84.3419640833
 33
0.0
  0
LINE
  5
314
330
30F
100
AcDbEntity
  8
VERMASSUNG
100
AcDbLine
 10
223.159259446
 20
167.8419640833
 30
0.0
 11
232.9199289931
 21
167.8419640833
 31
0.0
  0
LINE
  5
315
330
30F
100
AcDbEntity
  8
VERMASSUNG
100
AcDbLine
 10
223.159259446
 20
81.3419640833
 30
0.0
 11
232.9199289931
 21
81.3419640833
 31
0.0
  0
LINE
  5
316
330
30F
100
AcDbEntity
  8
VERMASSUNG
100
AcDbLine
 10
231.9199289931
 20
167.8419640833
 30
0.0
 11
231.9199289931
 21
81.3419640833
 31
0.0
  0
MTEXT
  5
317
330
30F
100
AcDbEntity
  8
VERMASSUNG
100
AcDbMText
 10
229.3417935136
 20
116.9880822659
 30
0.0
 40
2.0
 41
0.0
 71
     1
 72
     1
  1
%%c
  7
SLDTEXTSTYLE0
 11
-7.044195017643634E-15
 21
1.0
 31
0.0
 73
     1
 44
1.0
  0
MTEXT
  5
318
330
30F
100
AcDbEntity
  8
VERMASSUNG
100
AcDbMText
 10
229.34179363
 20
120.5972014747
 30
0.0
 40
2.0
 41
0.0
 71
     1
 72
     1
  1
86.5
  7
SLDTEXTSTYLE0
 11
-7.044195017643634E-15
 21
1.0
 31
0.0
 73
     1
 44
1.0
  0
MTEXT
  5
319
330
30F
100
AcDbEntity
  8
VERMASSUNG
100
AcDbMText
 10
229.34179363
 20
125.3967850915
 30
0.0
 40
2.0
 41
0.0
 71
     1
 72
     1
  1
-115.5
  7
SLDTEXTSTYLE0
 11
-7.044195017643634E-15
 21
1.0
 31
0.0
 73
     1
 44
1.0
  0
ENDBLK
  5
311
330
30F
100
AcDbEntity
  8
0
100
AcDbBlockEnd
  0
ENDSEC
  0
SECTION
  2
ENTITIES
  0
MTEXT
  5
49
330
1F
100
AcDbEntity
  8
KOPF_DÜNN
100
AcDbMText
 10
13.8892156294
 20
23.8442973028
 30
0.0
 40
3.0
 41
0.0
 71
     1
 72
     1
  1
D04.063.087.110
  7
SLDTEXTSTYLE0
 73
     1
 44
1.0
  0
MTEXT
  5
4A
330
1F
100
AcDbEntity
  8
VERMASSUNG
100
AcDbMText
 10
13.9329988022
 20
28.8834360957
 30
0.0
 40
3.0
 41
0.0
 71
     1
 72
     1
  1
Zweischneiderkopf_Twin cutter head
  7
SLDTEXTSTYLE0
 73
     1
 44
1.0
  0
MTEXT
  5
4B
330
1F
100
AcDbEntity
  8
VERMASSUNG
100
AcDbMText
 10
98.8601118557
 20
13.8365368179
 30
0.0
 40
2.0
 41
0.0
 71
     1
 72
     1
  1
Datum: 27.02.2008
  7
SLDTEXTSTYLE0
 73
     1
 44
1.0
  0
MTEXT
  5
4C
330
1F
100
AcDbEntity
  8
VERMASSUNG
100
AcDbMText
 10
13.933048693
 20
18.0482802738
 30
0.0
 40
2.0
 41
0.0
 71
     1
 72
     1
  1
Wohlhaupter ø63
  7
SLDTEXTSTYLE0
 73
     1
 44
1.0
  0
MTEXT
  5
4D
330
1F
100
AcDbEntity
  8
VERMASSUNG
100
AcDbMText
 10
13.9808475933
 20
13.9090973692
 30
0.0
 40
2.0
 41
0.0
 71
     1
 72
     1
  1
Gewicht: 2639g
  7
SLDTEXTSTYLE0
 73
     1
 44
1.0
  0
LINE
  5
4E
330
1F
100
AcDbEntity
  8
0
  6
Continuous
 62
     7
370
    15
100
AcDbLine
 10
172.6977095381
 20
160.5919625336
 30
0.0
 11
121.3346856088
 21
160.5919625336
 31
0.0
  0
LINE
  5
4F
330
1F
100
AcDbEntity
  8
0
  6
Continuous
 62
     7
370
    15
100
AcDbLine
 10
121.3346856088
 20
88.591965633
 30
0.0
 11
173.1592581049
 21
88.591965633
 31
0.0
  0
ARC
  5
50
330
1F
100
AcDbEntity
  8
0
  6
Continuous
 62
     7
370
    15
100
AcDbCircle
 10
121.3346859265
 20
159.5919640833
 30
0.0
 40
1.0
100
AcDbArc
 50
90.0
 51
150.0
  0
ARC
  5
51
330
1F
100
AcDbEntity
  8
0
  6
Continuous
 62
     7
370
    15
100
AcDbCircle
 10
121.3346859265
 20
89.5919640833
 30
0.0
 40
0.9999999999999888
100
AcDbArc
 50
210.0
 51
270.0
  0
LINE
  5
52
330
1F
100
AcDbEntity
  8
0
  6
Continuous
 62
     7
370
    15
100
AcDbLine
 10
120.4686603882
 20
160.0919652456
 30
0.0
 11
118.4479344078
 21
156.5919656032
 31
0.0
  0
LINE
  5
53
330
1F
100
AcDbEntity
  8
0
  6
Continuous
 62
     7
370
    15
100
AcDbLine
 10
118.4479344078
 20
92.5919625634
 30
0.0
 11
120.4686603882
 21
89.091962921
 31
0.0
  0
ARC
  5
54
330
1F
100
AcDbEntity
  8
0
  6
Continuous
 62
     7
370
    15
100
AcDbCircle
 10
117.5819091768
 20
157.0919640833
 30
0.0
 40
1.0
100
AcDbArc
 50
270.0
 51
330.0
  0
ARC
  5
55
330
1F
100
AcDbEntity
  8
0
  6
Continuous
 62
     7
370
    15
100
AcDbCircle
 10
117.5819091768
 20
92.0919640833
 30
0.0
 40
1.000000000000003
100
AcDbArc
 50
30.0
 51
90.0
  0
LINE
  5
56
330
1F
100
AcDbEntity
  8
0
  6
Continuous
 62
     7
370
    15
100
AcDbLine
 10
113.6592594697
 20
93.0919635767
 30
0.0
 11
117.5819091872
 21
93.0919635767
 31
0.0
  0
LINE
  5
57
330
1F
100
AcDbEntity
  8
0
  6
Continuous
 62
     7
370
    15
100
AcDbLine
 10
117.5819091872
 20
156.0919645899
 30
0.0
 11
113.6592594697
 21
156.0919645899
 31
0.0
  0
ARC
  5
58
330
1F
100
AcDbEntity
  8
0
  6
Continuous
 62
     7
370
    15
100
AcDbCircle
 10
113.659259446
 20
93.5919640833
 30
0.0
 40
0.5
100
AcDbArc
 50
180.0
 51
270.0
  0
ARC
  5
59
330
1F
100
AcDbEntity
  8
0
  6
Continuous
 62
     7
370
    15
100
AcDbCircle
 10
113.659259446
 20
155.5919640833
 30
0.0
 40
0.5
100
AcDbArc
 50
90.0
 51
180.0
  0
ARC
  5
5A
330
1F
100
AcDbEntity
  8
0
  6
Continuous
 62
     7
370
    15
100
AcDbCircle
 10
112.759259446
 20
106.3419640833
 30
0.0
 40
0.5999999999999959
100
AcDbArc
 50
48.1896851042
 51
90.0
  0
ARC
  5
5B
330
1F
100
AcDbEntity
  8
0
  6
Continuous
 62
     7
370
    15
100
AcDbCircle
 10
112.759259446
 20
142.8419640833
 30
0.0
 40
0.6000000000000227
100
AcDbArc
 50
270.0
 51
311.8103148958
  0
LINE
  5
5C
330
1F
100
AcDbEntity
  8
0
  6
Continuous
 62
     7
370
    15
100
AcDbLine
 10
81.1592579261
 20
142.5919633084
 30
0.0
 11
75.7562011853
 21
142.1941246563
 31
0.0
  0
LINE
  5
5D
330
1F
100
AcDbEntity
  8
0
  6
Continuous
 62
     7
370
    15
100
AcDbLine
 10
75.7562011853
 20
106.9898035103
 30
0.0
 11
81.1592579261
 21
106.5919648582
 31
0.0
  0
LINE
  5
5E
330
1F
100
AcDbEntity
  8
0
  6
Continuous
 62
     7
370
    15
100
AcDbLine
 10
81.1592579261
 20
106.5919648582
 30
0.0
 11
110.6592595019
 21
106.5919648582
 31
0.0
  0
LINE
  5
5F
330
1F
100
AcDbEntity
  8
0
  6
Continuous
 62
     7
370
    15
100
AcDbLine
 10
86.1781236157
 20
142.5919633084
 30
0.0
 11
81.1592579261
 21
142.5919633084
 31
0.0
  0
LINE
  5
60
330
1F
100
AcDbEntity
  8
0
  6
Continuous
 62
     7
370
    15
100
AcDbLine
 10
110.6592595019
 20
142.5919633084
 30
0.0
 11
104.6339474991
 21
142.5919633084
 31
0.0
  0
LINE
  5
61
330
1F
100
AcDbEntity
  8
0
  6
Continuous
 62
     7
370
    15
100
AcDbLine
 10
110.6592595019
 20
106.5919648582
 30
0.0
 11
111.8891772488
 21
106.9215189391
 31
0.0
  0
LINE
  5
62
330
1F
100
AcDbEntity
  8
0
  6
Continuous
 62
     7
370
    15
100
AcDbLine
 10
111.8891772488
 20
142.2624092275
 30
0.0
 11
110.6592595019
 21
142.5919633084
 31
0.0
  0
ARC
  5
63
330
1F
100
AcDbEntity
  8
0
  6
Continuous
 62
     7
370
    15
100
AcDbCircle
 10
74.459259446
 20
107.9019640833
 30
0.0
 40
1.300000000000004
100
AcDbArc
 50
180.0
 51
300.0
  0
ARC
  5
64
330
1F
100
AcDbEntity
  8
0
  6
Continuous
 62
     7
370
    15
100
AcDbCircle
 10
74.459259446
 20
141.2819640833
 30
0.0
 40
1.300000000000016
100
AcDbArc
 50
60.0
 51
180.0
  0
LINE
  5
65
330
1F
100
AcDbEntity
  8
0
  6
Continuous
 62
     7
370
    15
100
AcDbLine
 10
75.1092598215
 20
106.776130172
 30
0.0
 11
75.2974540368
 21
106.8847838515
 31
0.0
  0
LINE
  5
66
330
1F
100
AcDbEntity
  8
0
  6
Continuous
 62
     7
370
    15
100
AcDbLine
 10
75.2974540368
 20
142.2991443151
 30
0.0
 11
75.1092598215
 21
142.4077979946
 31
0.0
  0
ARC
  5
67
330
1F
100
AcDbEntity
  8
0
  6
Continuous
 62
     7
370
    15
100
AcDbCircle
 10
75.697452565
 20
106.1919640833
 30
0.0
 40
0.8000000000000189
100
AcDbArc
 50
85.7887759701
 51
120.0
  0
ARC
  5
68
330
1F
100
AcDbEntity
  8
0
  6
Continuous
 62
     7
370
    15
100
AcDbCircle
 10
75.697452565
 20
142.9919640833
 30
0.0
 40
0.8000000000000067
100
AcDbArc
 50
240.0
 51
274.2112240299
  0
ARC
  5
69
330
1F
100
AcDbEntity
  8
0
  6
Continuous
 62
     7
370
    15
100
AcDbCircle
 10
112.0444687272
 20
106.3419640833
 30
0.0
 40
0.5999999999999943
100
AcDbArc
 50
90.0
 51
105.0
  0
ARC
  5
6A
330
1F
100
AcDbEntity
  8
0
  6
Continuous
 62
     7
370
    15
100
AcDbCircle
 10
112.0444687272
 20
142.8419640833
 30
0.0
 40
0.6000000000000227
100
AcDbArc
 50
255.0
 51
270.0
  0
LINE
  5
6B
330
1F
100
AcDbEntity
  8
0
  6
Continuous
 62
     7
370
    15
100
AcDbLine
 10
112.0444687689
 20
106.9419633323
 30
0.0
 11
112.7592594561
 21
106.9419633323
 31
0.0
  0
LINE
  5
6C
330
1F
100
AcDbEntity
  8
0
  6
Continuous
 62
     7
370
    15
100
AcDbLine
 10
112.7592594561
 20
142.2419648343
 30
0.0
 11
112.0444687689
 21
142.2419648343
 31
0.0
  0
LINE
  5
6D
330
1F
100
AcDbEntity
  8
0
  6
Continuous
 62
     7
370
    15
100
AcDbLine
 10
173.1592581049
 20
88.591965633
 30
0.0
 11
173.6592591182
 21
89.091962921
 31
0.0
  0
LINE
  5
6E
330
1F
100
AcDbEntity
  8
0
  6
PHANTOM
 62
     7
370
     0
100
AcDbLine
 10
181.6592567042
 20
127.0919640274
 30
0.0
 11
181.6592567042
 21
127.5919641094
 31
0.0
  0
LINE
  5
6F
330
1F
100
AcDbEntity
  8
0
  6
PHANTOM
 62
     7
370
     0
100
AcDbLine
 10
181.6592567042
 20
121.5919640572
 30
0.0
 11
181.6592567042
 21
122.0919641392
 31
0.0
  0
LINE
  5
70
330
1F
100
AcDbEntity
  8
0
  6
PHANTOM
 62
     7
370
     0
100
AcDbLine
 10
223.0347000435
 20
96.967252689
 30
0.0
 11
222.2608305887
 21
97.7353553945
 31
0.0
  0
LINE
  5
71
330
1F
100
AcDbEntity
  8
0
  6
PHANTOM
 62
     7
370
     0
100
AcDbLine
 10
207.0291616395
 20
84.8081174963
 30
0.0
 11
207.8030310944
 21
84.0400147909
 31
0.0
  0
LINE
  5
72
330
1F
100
AcDbEntity
  8
0
  6
PHANTOM
 62
     7
370
     0
100
AcDbLine
 10
207.8030310944
 20
165.1439133757
 30
0.0
 11
207.0291616395
 21
164.3758106702
 31
0.0
  0
LINE
  5
73
330
1F
100
AcDbEntity
  8
0
  6
PHANTOM
 62
     7
370
     0
100
AcDbLine
 10
222.2921006754
 20
151.4796081656
 30
0.0
 11
223.0347000435
 21
152.2166754776
 31
0.0
  0
LINE
  5
74
330
1F
100
AcDbEntity
  8
0
  6
PHANTOM
 62
     7
370
     0
100
AcDbLine
 10
221.7082731799
 20
96.97166157
 30
0.0
 11
221.1647309736
 21
97.5111469352
 31
0.0
  0
LINE
  5
75
330
1F
100
AcDbEntity
  8
0
  6
PHANTOM
 62
     7
370
     0
100
AcDbLine
 10
207.3744736985
 20
85.703163194
 30
0.0
 11
207.9180084542
 21
85.1636778289
 31
0.0
  0
LINE
  5
76
330
1F
100
AcDbEntity
  8
0
  6
PHANTOM
 62
     7
370
     0
100
AcDbLine
 10
213.5739900545
 20
160.7832189375
 30
0.0
 11
212.5282861665
 21
159.9787089699
 31
0.0
  0
LINE
  5
77
330
1F
100
AcDbEntity
  8
0
  6
PHANTOM
 62
     7
370
     0
100
AcDbLine
 10
206.6281192377
 20
104.3981823796
 30
0.0
 11
206.9209643081
 21
104.107516604
 31
0.0
  0
LINE
  5
78
330
1F
100
AcDbEntity
  8
0
  6
PHANTOM
 62
     7
370
     0
100
AcDbLine
 10
212.486175485
 20
109.7145190188
 30
0.0
 11
212.193322964
 21
110.0051829317
 31
0.0
  0
LINE
  5
79
330
1F
100
AcDbEntity
  8
0
  6
PHANTOM
 62
     7
370
     0
100
AcDbLine
 10
195.187596269
 20
87.5919636065
 30
0.0
 11
195.4450436309
 21
87.5919636065
 31
0.0
  0
LINE
  5
7A
330
1F
100
AcDbEntity
  8
0
  6
PHANTOM
 62
     7
370
     0
100
AcDbLine
 10
182.8987650946
 20
87.5919636065
 30
0.0
 11
193.334540017
 21
87.5919636065
 31
0.0
  0
LINE
  5
7B
330
1F
100
AcDbEntity
  8
0
  6
PHANTOM
 62
     7
370
     0
100
AcDbLine
 10
173.6592591182
 20
87.5919636065
 30
0.0
 11
176.4518745616
 21
87.5919636065
 31
0.0
  0
ARC
  5
7C
330
1F
100
AcDbEntity
  8
0
  6
PHANTOM
 62
     7
370
     0
100
AcDbCircle
 10
195.4450458836
 20
86.5919640833
 30
0.0
 40
1.000000000000003
100
AcDbArc
 50
57.1283916685
 51
90.0
  0
LINE
  5
7D
330
1F
100
AcDbEntity
  8
0
  6
PHANTOM
 62
     7
370
     0
100
AcDbLine
 10
195.9995605424
 20
87.4216396087
 30
0.0
 11
206.8021349982
 21
85.1254824275
 31
0.0
  0
ARC
  5
7E
330
1F
100
AcDbEntity
  8
0
  6
PHANTOM
 62
     7
370
     0
100
AcDbCircle
 10
194.2316174595
 20
84.730404595
 30
0.0
 40
3.000000000000002
100
AcDbArc
 50
78.0
 51
107.3275442993
  0
LINE
  5
7F
330
1F
100
AcDbEntity
  8
0
  6
PHANTOM
 62
     7
370
     0
100
AcDbLine
 10
194.8553525284
 20
87.6648489111
 30
0.0
 11
195.1982431486
 21
87.5919636065
 31
0.0
  0
LINE
  5
80
330
1F
100
AcDbEntity
  8
0
  6
PHANTOM
 62
     7
370
     0
100
AcDbLine
 10
176.4518745616
 20
161.5919645601
 30
0.0
 11
173.6592591182
 21
161.5919645601
 31
0.0
  0
LINE
  5
81
330
1F
100
AcDbEntity
  8
0
  6
PHANTOM
 62
     7
370
     0
100
AcDbLine
 10
193.334540017
 20
161.5919645601
 30
0.0
 11
182.8987650946
 21
161.5919645601
 31
0.0
  0
LINE
  5
82
330
1F
100
AcDbEntity
  8
0
  6
PHANTOM
 62
     7
370
     0
100
AcDbLine
 10
195.4450436309
 20
161.5919645601
 30
0.0
 11
195.187596269
 21
161.5919645601
 31
0.0
  0
ARC
  5
83
330
1F
100
AcDbEntity
  8
0
  6
PHANTOM
 62
     7
370
     0
100
AcDbCircle
 10
177.0439043743
 20
104.329402366
 30
0.0
 40
1.000000000000015
100
AcDbArc
 50
348.4187261198
 51
360.0
  0
SPLINE
  5
84
330
1F
100
AcDbEntity
  8
0
  6
PHANTOM
 62
     7
370
     0
100
AcDbSpline
210
0.0
220
0.0
230
1.0
 70
     8
 71
     3
 72
    17
 73
    13
 74
     0
 42
0.00000001
 43
0.00000001
 40
0.0
 40
0.0
 40
0.0
 40
0.0
 40
0.0489484578987417
 40
0.1571357452919122
 40
0.2661362187789484
 40
0.37487258993734
 40
0.4827322703453069
 40
0.5896455307166546
 40
0.6956807760178327
 40
0.8009327545327352
 40
0.9054901214545521
 40
0.9999999999999999
 40
0.9999999999999999
 40
0.9999999999999999
 40
0.9999999999999999
 10
172.699009664381
 20
91.05086957154317
 30
0.0
 10
172.8093504084446
 20
91.16301370744388
 30
0.0
 10
173.1635694339013
 20
91.5230220331674
 30
0.0
 10
173.7311771022773
 20
92.24970724032117
 30
0.0
 10
174.3937705059178
 20
93.28328284990245
 30
0.0
 10
175.0230655248961
 20
94.47173871490753
 30
0.0
 10
175.6184814583406
 20
95.80085751871972
 30
0.0
 10
176.1790012602065
 20
97.2626986371987
 30
0.0
 10
176.7047337345787
 20
98.84896565367943
 30
0.0
 10
177.1942973144969
 20
100.5550672852966
 30
0.0
 10
177.6364177876952
 20
102.3098673819769
 30
0.0
 10
177.8989188103832
 20
103.5431343462655
 30
0.0
 10
178.0235447362308
 20
104.1286445879702
 30
0.0
  0
SPLINE
  5
85
330
1F
100
AcDbEntity
  8
0
  6
PHANTOM
 62
     7
370
     0
100
AcDbSpline
210
0.0
220
0.0
230
1.0
 70
     8
 71
     3
 72
    15
 73
    11
 74
     0
 42
0.00000001
 43
0.00000001
 40
0.0
 40
0.0
 40
0.0
 40
0.0
 40
0.0577924025247702
 40
0.1749726622654984
 40
0.2955285441124584
 40
0.4218005477518703
 40
0.5559083305719689
 40
0.6995732170644721
 40
0.8544774508601325
 40
1.0
 40
1.0
 40
1.0
 40
1.0
 10
178.0439071730022
 20
124.5919640832905
 30
0.0
 10
178.0465477498284
 20
124.6984714891351
 30
0.0
 10
178.05454237779
 20
125.0209340194588
 30
0.0
 10
178.1476096118213
 20
125.5529572799261
 30
0.0
 10
178.353945372612
 20
126.1405852036188
 30
0.0
 10
178.6492284682775
 20
126.653936571247
 30
0.0
 10
179.0157327174443
 20
127.0724516980355
 30
0.0
 10
179.436505913413
 20
127.3776568071782
 30
0.0
 10
179.8741033136973
 20
127.5600061918336
 30
0.0
 10
180.167683398782
 20
127.5815355756974
 30
0.0
 10
180.3098895028477
 20
127.5919641093676
 30
0.0
  0
LINE
  5
86
330
1F
100
AcDbEntity
  8
0
  6
PHANTOM
 62
     7
370
     0
100
AcDbLine
 10
178.043907173
 20
104.3294023448
 30
0.0
 11
178.043907173
 21
124.5919640833
 31
0.0
  0
ARC
  5
87
330
1F
100
AcDbEntity
  8
0
  6
PHANTOM
 62
     7
370
     0
100
AcDbCircle
 10
194.2316174595
 20
164.4535235716
 30
0.0
 40
2.999999999999982
100
AcDbArc
 50
252.6911289908
 51
282.0
  0
LINE
  5
88
330
1F
100
AcDbEntity
  8
0
  6
PHANTOM
 62
     7
370
     0
100
AcDbLine
 10
195.1982431486
 20
161.5919645601
 30
0.0
 11
194.8553525284
 21
161.5190792554
 31
0.0
  0
ARC
  5
89
330
1F
100
AcDbEntity
  8
0
  6
PHANTOM
 62
     7
370
     0
100
AcDbCircle
 10
195.4450458836
 20
162.5919640833
 30
0.0
 40
1.0
100
AcDbArc
 50
270.0
 51
303.0131410795
  0
LINE
  5
8A
330
1F
100
AcDbEntity
  8
0
  6
PHANTOM
 62
     7
370
     0
100
AcDbLine
 10
207.1632497385
 20
164.1352053457
 30
0.0
 11
195.9995605424
 21
161.7622885579
 31
0.0
  0
LINE
  5
8B
330
1F
100
AcDbEntity
  8
0
  6
Continuous
 62
     7
370
    15
100
AcDbLine
 10
158.3739795164
 20
144.3419649923
 30
0.0
 11
158.2756281272
 21
144.3419649923
 31
0.0
  0
LINE
  5
8C
330
1F
100
AcDbEntity
  8
0
  6
Continuous
 62
     7
370
    15
100
AcDbLine
 10
158.2756281272
 20
126.8419639864
 30
0.0
 11
158.3739795164
 21
126.8419639864
 31
0.0
  0
LINE
  5
8D
330
1F
100
AcDbEntity
  8
0
  6
Continuous
 62
     7
370
    15
100
AcDbLine
 10
182.4592627958
 20
122.0919641392
 30
0.0
 11
182.6592587307
 21
122.2919640323
 31
0.0
  0
LINE
  5
8E
330
1F
100
AcDbEntity
  8
0
  6
Continuous
 62
     7
370
    15
100
AcDbLine
 10
182.6592587307
 20
126.8919641343
 30
0.0
 11
182.4592627958
 21
127.0919640274
 31
0.0
  0
LINE
  5
8F
330
1F
100
AcDbEntity
  8
0
  6
Continuous
 62
     7
370
    15
100
AcDbLine
 10
181.6592567042
 20
122.0919641392
 30
0.0
 11
182.4592627958
 21
122.0919641392
 31
0.0
  0
LINE
  5
90
330
1F
100
AcDbEntity
  8
0
  6
Continuous
 62
     7
370
    15
100
AcDbLine
 10
182.4592627958
 20
127.0919640274
 30
0.0
 11
181.6592567042
 21
127.0919640274
 31
0.0
  0
ELLIPSE
  5
91
330
1F
100
AcDbEntity
  8
0
  6
Continuous
 62
     7
370
    15
100
AcDbEllipse
 10
142.0054303735
 20
124.5919640833
 30
0.0
 11
0.0
 21
36.00000000000001
 31
0.0
210
0.0
220
0.0
230
1.0
 40
0.2679491924
 41
0.8657220574714889
 42
2.275870596118303
  0
LINE
  5
92
330
1F
100
AcDbEntity
  8
0
  6
Continuous
 62
     7
370
    15
100
AcDbLine
 10
134.6592601761
 20
147.923218804
 30
0.0
 11
134.6592601761
 21
101.2607093626
 31
0.0
  0
LWPOLYLINE
  5
93
330
1F
100
AcDbEntity
  8
0
  6
Continuous
 62
     7
370
    15
100
AcDbPolyline
 90
       23
 70
   128
 43
0.0
 10
132.9849712923
 20
124.5919640833
 10
133.0111805722
 20
123.8876327016
 10
133.0876868591
 20
123.240362057
 10
133.2082912699
 20
122.7025900926
 10
133.3632242307
 20
122.3178841365
 10
133.539933376
 20
122.117410433
 10
133.7241024152
 20
122.117410433
 10
133.9008115605
 20
122.3178841365
 10
134.0557445213
 20
122.7025900926
 10
134.1763489321
 20
123.240362057
 10
134.252855219
 20
123.8876327016
 10
134.2790663615
 20
124.5919640833
 10
134.252855219
 20
125.296295465
 10
134.1763489321
 20
125.9435661096
 10
134.0557445213
 20
126.481338074
 10
133.9008115605
 20
126.8660440301
 10
133.7241024152
 20
127.0665177335
 10
133.539933376
 20
127.0665177335
 10
133.3632242307
 20
126.8660440301
 10
133.2082912699
 20
126.481338074
 10
133.0876868591
 20
125.9435661096
 10
133.0111805722
 20
125.296295465
 10
132.9849712923
 20
124.5919640833
  0
ELLIPSE
  5
94
330
1F
100
AcDbEntity
  8
0
  6
Continuous
 62
     7
370
    15
100
AcDbEllipse
 10
212.1959256051
 20
124.5919640833
 30
0.0
 11
134.3538290724865
 21
0.0
 31
0.0
210
0.0
220
0.0
230
1.0
 40
0.2679491924
 41
2.176418003218762
 42
2.185979317380839
  0
LINE
  5
95
330
1F
100
AcDbEntity
  8
0
  6
Continuous
 62
     7
370
    15
100
AcDbLine
 10
134.6592601761
 20
153.9920072728
 30
0.0
 11
134.6592601761
 21
147.923218804
 31
0.0
  0
LINE
  5
96
330
1F
100
AcDbEntity
  8
0
  6
Continuous
 62
     7
370
    15
100
AcDbLine
 10
134.6592601761
 20
101.2607093626
 30
0.0
 11
134.6592601761
 21
95.1919208938
 31
0.0
  0
ELLIPSE
  5
97
330
1F
100
AcDbEntity
  8
0
  6
Continuous
 62
     7
370
    15
100
AcDbEllipse
 10
212.1959256051
 20
124.5919640833
 30
0.0
 11
134.3538290724865
 21
0.0
 31
0.0
210
0.0
220
0.0
230
1.0
 40
0.2679491924
 41
4.097205989798766
 42
4.106767303960844
  0
ELLIPSE
  5
98
330
1F
100
AcDbEntity
  8
0
  6
Continuous
 62
     7
370
    15
100
AcDbEllipse
 10
141.2031859566
 20
124.5919640833
 30
0.0
 11
0.0
 21
36.00000000000001
 31
0.0
210
0.0
220
0.0
230
1.0
 40
0.2679491924
 41
2.535970977165927
 42
2.640957403107521
  0
SPLINE
  5
99
330
1F
100
AcDbEntity
  8
0
  6
Continuous
 62
     7
370
    15
100
AcDbSpline
210
0.0
220
0.0
230
1.0
 70
     8
 71
     3
 72
    14
 73
    10
 74
     0
 42
0.00000001
 43
0.00000001
 40
0.0
 40
0.0
 40
0.0
 40
0.0
 40
0.25
 40
0.25
 40
0.5
 40
0.5
 40
0.75
 40
0.75
 40
1.0
 40
1.0
 40
1.0
 40
1.0
 10
136.5731886045236
 20
93.00996222002969
 30
0.0
 10
136.5874871073938
 20
92.9807659918095
 30
0.0
 10
136.6149522158018
 20
92.95345953075046
 30
0.0
 10
136.6935744556761
 20
92.90834828955053
 30
0.0
 10
136.7455451937153
 20
92.89046700530726
 30
0.0
 10
136.8628275949896
 20
92.8716178438534
 30
0.0
 10
136.9282315411105
 20
92.87098878594713
 30
0.0
 10
137.0468813485915
 20
92.88764543160801
 30
0.0
 10
137.1006380539269
 20
92.90466428928897
 30
0.0
 10
137.1420196910653
 20
92.92704685072944
 30
0.0
  0
ARC
  5
9A
330
1F
100
AcDbEntity
  8
0
  6
Continuous
 62
     7
370
    15
100
AcDbCircle
 10
120.0150521645
 20
124.5919640833
 30
0.0
 40
36.0000000000002
100
AcDbArc
 50
298.4081349316
 51
302.7595185234
  0
ELLIPSE
  5
9B
330
1F
100
AcDbEntity
  8
0
  6
Continuous
 62
     7
370
    15
100
AcDbEllipse
 10
212.1959256051
 20
124.5919640833
 30
0.0
 11
134.3538290724742
 21
0.0
 31
0.0
210
0.0
220
0.0
230
1.0
 40
0.2679491924
 41
4.140627520782997
 42
4.147309393774828
  0
ELLIPSE
  5
9C
330
1F
100
AcDbEntity
  8
0
  6
Continuous
 62
     7
370
    15
100
AcDbEllipse
 10
145.4170906758
 20
124.5919640833
 30
0.0
 11
0.0
 21
36.00000000000001
 31
0.0
210
0.0
220
0.0
230
1.0
 40
0.2679491924
 41
2.576513066979914
 42
2.679086157257083
  0
SPLINE
  5
9D
330
1F
100
AcDbEntity
  8
0
  6
Continuous
 62
     7
370
    15
100
AcDbSpline
210
0.0
220
0.0
230
1.0
 70
     8
 71
     3
 72
    14
 73
    10
 74
     0
 42
0.00000001
 43
0.00000001
 40
0.0
 40
0.0
 40
0.0
 40
0.0
 40
0.25
 40
0.25
 40
0.5
 40
0.5
 40
0.75
 40
0.75
 40
1.0
 40
1.0
 40
1.0
 40
1.0
 10
141.1130399880822
 20
92.37423461572754
 30
0.0
 10
141.1275110025303
 20
92.34730832571881
 30
0.0
 10
141.1554534359284
 20
92.32223046479854
 30
0.0
 10
141.2348371290259
 20
92.28110807453479
 30
0.0
 10
141.286950675647
 20
92.26500464031383
 30
0.0
 10
141.4041297969273
 20
92.24814215494328
 30
0.0
 10
141.4687466000444
 20
92.24769362029373
 30
0.0
 10
141.5866456348951
 20
92.26282068399416
 30
0.0
 10
141.640341571301
 20
92.2782309812998
 30
0.0
 10
141.6818710746239
 20
92.29869208263203
 30
0.0
  0
ARC
  5
9E
330
1F
100
AcDbEntity
  8
0
  6
Continuous
 62
     7
370
    15
100
AcDbCircle
 10
125.7713530601
 20
124.5919640833
 30
0.0
 40
36.0000000000002
100
AcDbArc
 50
296.2289293729
 51
300.4857413005
  0
ELLIPSE
  5
9F
330
1F
100
AcDbEntity
  8
0
  6
Continuous
 62
     7
370
    15
100
AcDbEllipse
 10
212.1959256051
 20
124.5919640833
 30
0.0
 11
134.3538290724741
 21
0.0
 31
0.0
210
0.0
220
0.0
230
1.0
 40
0.2679491924
 41
4.180312419780587
 42
4.186834459210826
  0
ELLIPSE
  5
A0
330
1F
100
AcDbEntity
  8
0
  6
Continuous
 62
     7
370
    15
100
AcDbEllipse
 10
149.630995395
 20
124.5919640833
 30
0.0
 11
0.0
 21
36.00000000000001
 31
0.0
210
0.0
220
0.0
230
1.0
 40
0.2679491924
 41
2.616038132415914
 42
2.716503065690982
  0
SPLINE
  5
A1
330
1F
100
AcDbEntity
  8
0
  6
Continuous
 62
     7
370
    15
100
AcDbSpline
210
0.0
220
0.0
230
1.0
 70
     8
 71
     3
 72
    12
 73
     8
 74
     0
 42
0.00000001
 43
0.00000001
 40
0.0
 40
0.0
 40
0.0
 40
0.0
 40
0.5000000000000009
 40
0.5000000000000009
 40
0.7500000000000004
 40
0.7500000000000004
 40
1.0
 40
1.0
 40
1.0
 40
1.0
 10
145.6528913716409
 20
91.79589963084838
 30
0.0
 10
145.6821473754842
 20
91.7464726021691
 30
0.0
 10
145.7696284161643
 20
91.70399578938623
 30
0.0
 10
145.9452599765247
 20
91.68141109976935
 30
0.0
 10
146.0091710572868
 20
91.68110060267082
 30
0.0
 10
146.1264278726279
 20
91.69479182947154
 30
0.0
 10
146.1800604868836
 20
91.70869986661904
 30
0.0
 10
146.2217224581826
 20
91.72732730085092
 30
0.0
  0
ARC
  5
A2
330
1F
100
AcDbEntity
  8
0
  6
Continuous
 62
     7
370
    15
100
AcDbCircle
 10
131.5276539556
 20
124.5919640833
 30
0.0
 40
36.00000000000016
100
AcDbArc
 50
294.0898390138
 51
298.2639194432
  0
ELLIPSE
  5
A3
330
1F
100
AcDbEntity
  8
0
  6
Continuous
 62
     7
370
    15
100
AcDbEllipse
 10
212.1959256051
 20
124.5919640833
 30
0.0
 11
134.3538290724742
 21
0.0
 31
0.0
210
0.0
220
0.0
230
1.0
 40
0.2679491924
 41
4.219090526582484
 42
4.225473021187137
  0
ELLIPSE
  5
A4
330
1F
100
AcDbEntity
  8
0
  6
Continuous
 62
     7
370
    15
100
AcDbEllipse
 10
153.8449001142
 20
124.5919640833
 30
0.0
 11
0.0
 21
36.00000000000001
 31
0.0
210
0.0
220
0.0
230
1.0
 40
0.2679491924
 41
2.654676694392223
 42
2.753296313226241
  0
SPLINE
  5
A5
330
1F
100
AcDbEntity
  8
0
  6
Continuous
 62
     7
370
    15
100
AcDbSpline
210
0.0
220
0.0
230
1.0
 70
     8
 71
     3
 72
    12
 73
     8
 74
     0
 42
0.00000001
 43
0.00000001
 40
0.0
 40
0.0
 40
0.0
 40
0.0
 40
0.499999999999999
 40
0.499999999999999
 40
0.7499999999999994
 40
0.7499999999999994
 40
1.0
 40
1.0
 40
1.0
 40
1.0
 10
150.1927427551995
 20
91.27196864118399
 30
0.0
 10
150.2222833028905
 20
91.22687054731053
 30
0.0
 10
150.3107302891734
 20
91.18863331719612
 30
0.0
 10
150.4862353752376
 20
91.16853458811208
 30
0.0
 10
150.5495195050869
 20
91.16832874150008
 30
0.0
 10
150.6662241573077
 20
91.18066230509457
 30
0.0
 10
150.7197936689639
 20
91.19315773658383
 30
0.0
 10
150.7615738417412
 20
91.21002605769876
 30
0.0
  0
ARC
  5
A6
330
1F
100
AcDbEntity
  8
0
  6
Continuous
 62
     7
370
    15
100
AcDbCircle
 10
137.2839548511
 20
124.5919640833
 30
0.0
 40
36.00000000000012
100
AcDbArc
 50
291.9858935254
 51
296.0875097304
  0
ELLIPSE
  5
A7
330
1F
100
AcDbEntity
  8
0
  6
Continuous
 62
     7
370
    15
100
AcDbEllipse
 10
212.1959256051
 20
124.5919640833
 30
0.0
 11
134.3538290724742
 21
0.0
 31
0.0
210
0.0
220
0.0
230
1.0
 40
0.2679491924
 41
4.257076041942673
 42
4.263336397984634
  0
ELLIPSE
  5
A8
330
1F
100
AcDbEntity
  8
0
  6
Continuous
 62
     7
370
    15
100
AcDbEllipse
 10
158.0588048333
 20
124.5919640833
 30
0.0
 11
0.0
 21
36.00000000000001
 31
0.0
210
0.0
220
0.0
230
1.0
 40
0.2679491924
 41
2.692540071189725
 42
2.78954364431622
  0
SPLINE
  5
A9
330
1F
100
AcDbEntity
  8
0
  6
Continuous
 62
     7
370
    15
100
AcDbSpline
210
0.0
220
0.0
230
1.0
 70
     8
 71
     3
 72
    12
 73
     8
 74
     0
 42
0.00000001
 43
0.00000001
 40
0.0
 40
0.0
 40
0.0
 40
0.0
 40
0.500000000000016
 40
0.500000000000016
 40
0.750000000000008
 40
0.750000000000008
 40
1.0
 40
1.0
 40
1.0
 40
1.0
 10
154.7325941387581
 20
90.79991102158888
 30
0.0
 10
154.7623911654958
 20
90.75905997355422
 30
0.0
 10
154.8516847127398
 20
90.72486206129803
 30
0.0
 10
155.0270709993774
 20
90.70706426268418
 30
0.0
 10
155.0898026966423
 20
90.70693669479435
 30
0.0
 10
155.2060315548563
 20
90.71797811059199
 30
0.0
 10
155.2595400979036
 20
90.72913675716171
 30
0.0
 10
155.3014252252998
 20
90.74430946710163
 30
0.0
  0
ARC
  5
AA
330
1F
100
AcDbEntity
  8
0
  6
Continuous
 62
     7
370
    15
100
AcDbCircle
 10
143.0402557467
 20
124.5919640833
 30
0.0
 40
36.00000000000011
100
AcDbArc
 50
289.9127047503
 51
293.9508688731
  0
ELLIPSE
  5
AB
330
1F
100
AcDbEntity
  8
0
  6
Continuous
 62
     7
370
    15
100
AcDbEllipse
 10
212.1959256051
 20
124.5919640833
 30
0.0
 11
134.3538290724742
 21
0.0
 31
0.0
210
0.0
220
0.0
230
1.0
 40
0.2679491924
 41
4.294367459836055
 42
4.300520803442666
  0
ELLIPSE
  5
AC
330
1F
100
AcDbEntity
  8
0
  6
Continuous
 62
     7
370
    15
100
AcDbEllipse
 10
162.2727095525
 20
124.5919640833
 30
0.0
 11
0.0
 21
36.00000000000001
 31
0.0
210
0.0
220
0.0
230
1.0
 40
0.2679491924
 41
2.729724476647758
 42
2.825314369699352
  0
SPLINE
  5
AD
330
1F
100
AcDbEntity
  8
0
  6
Continuous
 62
     7
370
    15
100
AcDbSpline
210
0.0
220
0.0
230
1.0
 70
     8
 71
     3
 72
    12
 73
     8
 74
     0
 42
0.00000001
 43
0.00000001
 40
0.0
 40
0.0
 40
0.0
 40
0.0
 40
0.4999999999999863
 40
0.4999999999999863
 40
0.7499999999999931
 40
0.7499999999999931
 40
1.0
 40
1.0
 40
1.0
 40
1.0
 10
159.2724455223167
 20
90.37757960603713
 30
0.0
 10
159.3024721219342
 20
90.34090613707528
 30
0.0
 10
159.3925053855166
 20
90.31057365493697
 30
0.0
 10
159.5677798105404
 20
90.2949226854108
 30
0.0
 10
159.6300287275357
 20
90.29485248159696
 30
0.0
 10
159.7458478381178
 20
90.30465679287913
 30
0.0
 10
159.7992988766262
 20
90.31454281874063
 30
0.0
 10
159.8412766088584
 20
90.32807404058266
 30
0.0
  0
ARC
  5
AE
330
1F
100
AcDbEntity
  8
0
  6
Continuous
 62
     7
370
    15
100
AcDbCircle
 10
148.7965566422
 20
124.5919640833
 30
0.0
 40
36.00000000000011
100
AcDbArc
 50
287.8663552104
 51
291.8490687053
  0
ELLIPSE
  5
AF
330
1F
100
AcDbEntity
  8
0
  6
Continuous
 62
     7
370
    15
100
AcDbEllipse
 10
212.1959256051
 20
124.5919640833
 30
0.0
 11
134.3538290724741
 21
0.0
 31
0.0
210
0.0
220
0.0
230
1.0
 40
0.2679491924
 41
4.331050792982605
 42
4.337110426752864
  0
ELLIPSE
  5
B0
330
1F
100
AcDbEntity
  8
0
  6
Continuous
 62
     7
370
    15
100
AcDbEllipse
 10
166.4866142717
 20
124.5919640833
 30
0.0
 11
0.0
 21
36.00000000000001
 31
0.0
210
0.0
220
0.0
230
1.0
 40
0.2679491924
 41
2.766314099957957
 42
2.860670947971814
  0
SPLINE
  5
B1
330
1F
100
AcDbEntity
  8
0
  6
Continuous
 62
     7
370
    15
100
AcDbSpline
210
0.0
220
0.0
230
1.0
 70
     8
 71
     3
 72
    10
 73
     6
 74
     0
 42
0.00000001
 43
0.00000001
 40
0.0
 40
0.0
 40
0.0
 40
0.0
 40
0.5
 40
0.5
 40
1.0
 40
1.0
 40
1.0
 40
1.0
 10
163.8122969058754
 20
90.00315286695393
 30
0.0
 10
163.8425271556386
 20
89.9705981338731
 30
0.0
 10
163.9334584118164
 20
89.94396123831802
 30
0.0
 10
164.1665030901032
 20
89.92582405814028
 30
0.0
 10
164.2970104649987
 20
89.93566408833712
 30
0.0
 10
164.3811279924171
 20
89.9595356401343
 30
0.0
  0
ARC
  5
B2
330
1F
100
AcDbEntity
  8
0
  6
Continuous
 62
     7
370
    15
100
AcDbCircle
 10
154.5528575378
 20
124.5919640833
 30
0.0
 40
36.00000000000005
100
AcDbArc
 50
285.8433100504
 51
289.7777550511
  0
ELLIPSE
  5
B3
330
1F
100
AcDbEntity
  8
0
  6
Continuous
 62
     7
370
    15
100
AcDbEllipse
 10
212.1959256051
 20
124.5919640833
 30
0.0
 11
134.3538290724741
 21
0.0
 31
0.0
210
0.0
220
0.0
230
1.0
 40
0.2679491924
 41
4.367202036089371
 42
4.373179791651638
  0
ELLIPSE
  5
B4
330
1F
100
AcDbEntity
  8
0
  6
Continuous
 62
     7
370
    15
100
AcDbEllipse
 10
170.7005189909
 20
124.5919640833
 30
0.0
 11
0.0
 21
36.00000000000001
 31
0.0
210
0.0
220
0.0
230
1.0
 40
0.2679491924
 41
2.802383464856731
 42
2.895670252680683
  0
SPLINE
  5
B5
330
1F
100
AcDbEntity
  8
0
  6
Continuous
 62
     7
370
    15
100
AcDbSpline
210
0.0
220
0.0
230
1.0
 70
     8
 71
     3
 72
    10
 73
     6
 74
     0
 42
0.00000001
 43
0.00000001
 40
0.0
 40
0.0
 40
0.0
 40
0.0
 40
0.5
 40
0.5
 40
1.0
 40
1.0
 40
1.0
 40
1.0
 10
168.352148289434
 20
89.67508967089464
 30
0.0
 10
168.3825570997251
 20
89.64660404168664
 30
0.0
 10
168.474333562454
 20
89.62353754431355
 30
0.0
 10
168.7066491952839
 20
89.6079822231892
 30
0.0
 10
168.8367216061458
 20
89.6164269662534
 30
0.0
 10
168.9209793759757
 20
89.63718558232596
 30
0.0
  0
ARC
  5
B6
330
1F
100
AcDbEntity
  8
0
  6
Continuous
 62
     7
370
    15
100
AcDbCircle
 10
160.3091584333
 20
124.5919640833
 30
0.0
 40
36.00000000000007
100
AcDbArc
 50
283.8403463466
 51
287.733038
  0
ELLIPSE
  5
B7
330
1F
100
AcDbEntity
  8
0
  6
Continuous
 62
     7
370
    15
100
AcDbEllipse
 10
212.1959256051
 20
124.5919640833
 30
0.0
 11
134.3538290724765
 21
0.0
 31
0.0
210
0.0
220
0.0
230
1.0
 40
0.2679491924
 41
4.402889080904082
 42
4.408795595844533
  0
ELLIPSE
  5
B8
330
1F
100
AcDbEntity
  8
0
  6
Continuous
 62
     7
370
    15
100
AcDbEllipse
 10
174.9144237101
 20
124.5919640833
 30
0.0
 11
0.0
 21
36.00000000000001
 31
0.0
210
0.0
220
0.0
230
1.0
 40
0.2679491924
 41
2.837999269049627
 42
2.930364604014205
  0
SPLINE
  5
B9
330
1F
100
AcDbEntity
  8
0
  6
Continuous
 62
     7
370
    15
100
AcDbSpline
210
0.0
220
0.0
230
1.0
 70
     8
 71
     3
 72
     8
 73
     4
 74
     0
 42
0.00000001
 43
0.00000001
 40
0.0
 40
0.0
 40
0.0
 40
0.0
 40
1.0
 40
1.0
 40
1.0
 40
1.0
 10
172.8919996729926
 20
89.39209366772965
 30
0.0
 10
172.9227172089789
 20
89.36751192752418
 30
0.0
 10
173.0154428460495
 20
89.34789685454831
 30
0.0
 10
173.132415978596
 20
89.34139954183304
 30
0.0
  0
ELLIPSE
  5
BA
330
1F
100
AcDbEntity
  8
0
  6
Continuous
 62
     7
370
    15
100
AcDbEllipse
 10
200.4039031178
 20
124.5919640833
 30
0.0
 11
134.3538290724769
 21
0.0
 31
0.0
210
0.0
220
0.0
230
1.0
 40
0.2679491924
 41
4.507986023443256
 42
4.50819006367472
  0
LINE
  5
BB
330
1F
100
AcDbEntity
  8
0
  6
Continuous
 62
     7
370
    15
100
AcDbLine
 10
173.1592581049
 20
89.3399107927
 30
0.0
 11
173.1592581049
 21
88.591965633
 31
0.0
  0
LINE
  5
BC
330
1F
100
AcDbEntity
  8
0
  6
Continuous
 62
     7
370
    15
100
AcDbLine
 10
113.159259446
 20
93.5919645899
 30
0.0
 11
113.159259446
 21
155.5919635767
 31
0.0
  0
LINE
  5
BD
330
1F
100
AcDbEntity
  8
0
  6
Continuous
 62
     7
370
    15
100
AcDbLine
 10
135.7118782029
 20
138.015999245
 30
0.0
 11
135.7118782029
 21
113.1679292494
 31
0.0
  0
LINE
  5
BE
330
1F
100
AcDbEntity
  8
0
  6
Continuous
 62
     7
370
    15
100
AcDbLine
 10
135.7118782029
 20
96.1013368988
 30
0.0
 11
135.7118782029
 21
94.9946239316
 31
0.0
  0
LINE
  5
BF
330
1F
100
AcDbEntity
  8
0
  6
Continuous
 62
     7
370
    15
100
AcDbLine
 10
140.2517293021
 20
95.2860291773
 30
0.0
 11
140.2517293021
 21
94.1883090609
 31
0.0
  0
LINE
  5
C0
330
1F
100
AcDbEntity
  8
0
  6
Continuous
 62
     7
370
    15
100
AcDbLine
 10
139.4951619581
 20
95.3731283271
 30
0.0
 11
139.4951619581
 21
94.3177945637
 31
0.0
  0
ELLIPSE
  5
C1
330
1F
100
AcDbEntity
  8
0
  6
Continuous
 62
     7
370
    15
100
AcDbEllipse
 10
148.6787198633
 20
113.5919640833
 30
0.0
 11
0.0
 21
5.125
 31
0.0
210
0.0
220
0.0
230
1.0
 40
0.8164965809
 41
5.145046870352119
 42
5.243769087497528
  0
LINE
  5
C2
330
1F
100
AcDbEntity
  8
0
  6
Continuous
 62
     7
370
    15
100
AcDbLine
 10
144.03501492
 20
94.619395929
 30
0.0
 11
144.03501492
 21
93.5687690699
 31
0.0
  0
LINE
  5
C3
330
1F
100
AcDbEntity
  8
0
  6
Continuous
 62
     7
370
    15
100
AcDbLine
 10
144.791582264
 20
94.5397063815
 30
0.0
 11
144.791582264
 21
93.450312289
 31
0.0
  0
LINE
  5
C4
330
1F
100
AcDbEntity
  8
0
  6
Continuous
 62
     7
370
    15
100
AcDbLine
 10
81.1592579261
 20
106.5919648582
 30
0.0
 11
81.1592579261
 21
142.5919633084
 31
0.0
  0
SPLINE
  5
C5
330
1F
100
AcDbEntity
  8
0
  6
Continuous
 62
     7
370
    15
100
AcDbSpline
210
0.0
220
0.0
230
1.0
 70
     8
 71
     3
 72
    26
 73
    22
 74
     0
 42
0.00000001
 43
0.00000001
 40
0.0
 40
0.0
 40
0.0
 40
0.0
 40
0.0094445784043376
 40
0.0841666234833647
 40
0.1595657073687279
 40
0.2125646642806304
 40
0.2670935239834585
 40
0.320989790202527
 40
0.3760555999129697
 40
0.4381704096972907
 40
0.5020312434159392
 40
0.5650047116716276
 40
0.6298074627039673
 40
0.692801496000191
 40
0.7576832361519814
 40
0.8077338462388308
 40
0.8590895627353374
 40
0.8995795854105865
 40
0.9411583153521114
 40
0.9816971396589133
 40
0.9999999999999999
 40
0.9999999999999999
 40
0.9999999999999999
 40
0.9999999999999999
 10
86.17812361570643
 20
142.5855744355683
 30
0.0
 10
86.17253414431715
 20
142.5874690016589
 30
0.0
 10
86.12272282254597
 20
142.604352680737
 30
0.0
 10
86.49395704634391
 20
142.4775149881809
 30
0.0
 10
87.35773413473244
 20
142.2005683766267
 30
0.0
 10
88.44061277337731
 20
141.8893178016083
 30
0.0
 10
89.55055996047864
 20
141.6086849658671
 30
0.0
 10
90.80071985501712
 20
141.3450352898411
 30
0.0
 10
92.20784442089297
 20
141.1172254699778
 30
0.0
 10
93.77713047025932
 20
140.9557629384961
 30
0.0
 10
95.46079589917181
 20
140.8991435114272
 30
0.0
 10
97.1665500187623
 20
140.9641276510966
 30
0.0
 10
98.81535751152327
 20
141.1424700657703
 30
0.0
 10
100.383481288782
 20
141.4122973262095
 30
0.0
 10
101.701371300888
 20
141.7125210945721
 30
0.0
 10
102.7801119998823
 20
142.0018306347553
 30
0.0
 10
103.5538622286624
 20
142.2322598310364
 30
0.0
 10
104.1244462166803
 20
142.4135703626491
 30
0.0
 10
104.4804388807038
 20
142.5313464313073
 30
0.0
 10
104.6588438262306
 20
142.59181876178
 30
0.0
 10
104.6398542550444
 20
142.5853837343788
 30
0.0
 10
104.6339474991207
 20
142.5833821022277
 30
0.0
  0
LINE
  5
C6
330
1F
100
AcDbEntity
  8
0
  6
Continuous
 62
     7
370
    15
100
AcDbLine
 10
110.6592595019
 20
106.5919648582
 30
0.0
 11
110.6592595019
 21
142.5919633084
 31
0.0
  0
SPLINE
  5
C7
330
1F
100
AcDbEntity
  8
0
  6
Continuous
 62
     7
370
    15
100
AcDbSpline
210
0.0
220
0.0
230
1.0
 70
     8
 71
     3
 72
    98
 73
    94
 74
     0
 42
0.00000001
 43
0.00000001
 40
-0.0312500000000003
 40
-0.0312500000000003
 40
0.0
 40
0.0
 40
0.0312499999999998
 40
0.0312499999999998
 40
0.0624999999999997
 40
0.0624999999999997
 40
0.0781249999999995
 40
0.0781249999999995
 40
0.0937499999999994
 40
0.0937499999999994
 40
0.1249999999999991
 40
0.1249999999999991
 40
0.1406249999999989
 40
0.1406249999999989
 40
0.1562499999999987
 40
0.1562499999999987
 40
0.1718749999999986
 40
0.1718749999999986
 40
0.1874999999999984
 40
0.1874999999999984
 40
0.2031249999999982
 40
0.2031249999999982
 40
0.2187499999999981
 40
0.2187499999999981
 40
0.2499999999999978
 40
0.2499999999999978
 40
0.2656249999999978
 40
0.2656249999999978
 40
0.2812499999999978
 40
0.2812499999999978
 40
0.3124999999999977
 40
0.3124999999999977
 40
0.3437499999999976
 40
0.3437499999999976
 40
0.3749999999999974
 40
0.3749999999999974
 40
0.3906249999999973
 40
0.3906249999999973
 40
0.4062499999999972
 40
0.4062499999999972
 40
0.4374999999999971
 40
0.4374999999999971
 40
0.4531249999999971
 40
0.4531249999999971
 40
0.4687499999999971
 40
0.4687499999999971
 40
0.4999999999999972
 40
0.4999999999999972
 40
0.5156249999999972
 40
0.5156249999999972
 40
0.5312499999999972
 40
0.5312499999999972
 40
0.5468749999999973
 40
0.5468749999999973
 40
0.5624999999999973
 40
0.5624999999999973
 40
0.5937499999999973
 40
0.5937499999999973
 40
0.6093749999999974
 40
0.6093749999999974
 40
0.6249999999999974
 40
0.6249999999999974
 40
0.6406249999999974
 40
0.6406249999999974
 40
0.6562499999999974
 40
0.6562499999999974
 40
0.6718749999999976
 40
0.6718749999999976
 40
0.6874999999999976
 40
0.6874999999999976
 40
0.7031249999999976
 40
0.7031249999999976
 40
0.7187499999999976
 40
0.7187499999999976
 40
0.7499999999999978
 40
0.7499999999999978
 40
0.7656249999999979
 40
0.7656249999999979
 40
0.781249999999998
 40
0.781249999999998
 40
0.8124999999999983
 40
0.8124999999999983
 40
0.8437499999999986
 40
0.8437499999999986
 40
0.8749999999999989
 40
0.8749999999999989
 40
0.9062499999999991
 40
0.9062499999999991
 40
0.9374999999999994
 40
0.9374999999999994
 40
0.9687499999999997
 40
0.9687499999999997
 40
1.0
 40
1.0
 40
1.03125
 40
1.03125
 10
89.73823885202741
 20
130.5787675062562
 30
0.0
 10
88.84698707204952
 20
129.9318124410966
 30
0.0
 10
88.43649259387638
 20
129.5726001935911
 30
0.0
 10
87.69087862061743
 20
128.7742025405569
 30
0.0
 10
87.35398507248297
 20
128.3304948954719
 30
0.0
 10
86.93597795251229
 20
127.6221498978669
 30
0.0
 10
86.81032846485198
 20
127.3781075374182
 30
0.0
 10
86.58851348284207
 20
126.8727528610612
 30
0.0
 10
86.49176322098218
 20
126.6092070606379
 30
0.0
 10
86.25631170828403
 20
125.8086646153914
 30
0.0
 10
86.1707296084494
 20
125.2634455660686
 30
0.0
 10
86.15512096648952
 20
124.4272922157908
 30
0.0
 10
86.1693566343564
 20
124.1441923578386
 30
0.0
 10
86.23522340310694
 20
123.5910306451711
 30
0.0
 10
86.2866246309265
 20
123.3186606288976
 30
0.0
 10
86.42481655747677
 20
122.7819571595682
 30
0.0
 10
86.51217766217592
 20
122.5162698044987
 30
0.0
 10
86.71940764547145
 20
121.9991836542498
 30
0.0
 10
86.83821559477936
 20
121.7498221880271
 30
0.0
 10
87.10360844340694
 20
121.2677099506411
 30
0.0
 10
87.25020530244073
 20
121.0349667281923
 30
0.0
 10
87.56984591648379
 20
120.5850858014324
 30
0.0
 10
87.74240655253259
 20
120.3689258079766
 30
0.0
 10
88.28608486738335
 20
119.7555038792075
 30
0.0
 10
88.68620858992799
 20
119.3880706217608
 30
0.0
 10
89.3376154614611
 20
118.8910781858277
 30
0.0
 10
89.56444380513913
 20
118.7339075594556
 30
0.0
 10
90.02922531134536
 20
118.441227911024
 30
0.0
 10
90.26702695054948
 20
118.3056439737216
 30
0.0
 10
90.99604853602821
 20
117.9292043839786
 30
0.0
 10
91.5027509005598
 20
117.7183840769324
 30
0.0
 10
92.55799782374913
 20
117.3745224682661
 30
0.0
 10
93.09734241176888
 20
117.244869604637
 30
0.0
 10
94.18651002656617
 20
117.0683020754248
 30
0.0
 10
94.73830941771682
 20
117.0207754468038
 30
0.0
 10
95.5772655599637
 20
117.0123319000921
 30
0.0
 10
95.85757182377021
 20
117.0201621353991
 30
0.0
 10
96.41192276309866
 20
117.0565188521879
 30
0.0
 10
96.68709018515673
 20
117.0850230745273
 30
0.0
 10
97.50668016058762
 20
117.2011527909995
 30
0.0
 10
98.04523232030407
 20
117.3191255459915
 30
0.0
 10
98.84104180896536
 20
117.5600170624163
 30
0.0
 10
99.10400049859054
 20
117.6510819934684
 30
0.0
 10
99.61616229088864
 20
117.8516997321387
 30
0.0
 10
99.8666169179809
 20
117.9616019664963
 30
0.0
 10
100.6012585436588
 20
118.3204438097159
 30
0.0
 10
101.0689200407687
 20
118.5981376202815
 30
0.0
 10
101.7347877358277
 20
119.0796795020259
 30
0.0
 10
101.9510950454422
 20
119.2515975542086
 30
0.0
 10
102.3623656177064
 20
119.6118937386317
 30
0.0
 10
102.5584478165909
 20
119.8009993952566
 30
0.0
 10
102.9307653317036
 20
120.198193554468
 30
0.0
 10
103.1070079163076
 20
120.40627424004
 30
0.0
 10
103.4380840865473
 20
120.843278001169
 30
0.0
 10
103.5937877705091
 20
121.0737814160815
 30
0.0
 10
104.0164907589026
 20
121.7862477576903
 30
0.0
 10
104.2409338604218
 20
122.2888325108521
 30
0.0
 10
104.4793955723533
 20
123.0908942770923
 30
0.0
 10
104.541706630444
 20
123.3655177496871
 30
0.0
 10
104.627801446688
 20
123.9136720012175
 30
0.0
 10
104.6522823354591
 20
124.1893243587868
 30
0.0
 10
104.6636631555839
 20
124.743823557734
 30
0.0
 10
104.6504243612818
 20
125.0238358090505
 30
0.0
 10
104.5851757642751
 20
125.5821602047873
 30
0.0
 10
104.5338898196499
 20
125.8557989728511
 30
0.0
 10
104.3964886231218
 20
126.3928094500786
 30
0.0
 10
104.3103634620217
 20
126.6561781987887
 30
0.0
 10
104.1043574253392
 20
127.1730344995672
 30
0.0
 10
103.9845772640592
 20
127.4256058617723
 30
0.0
 10
103.7191669504151
 20
127.9091986428195
 30
0.0
 10
103.5729076134015
 20
128.1418793220884
 30
0.0
 10
103.2550659422667
 20
128.5904398289632
 30
0.0
 10
103.0824874290306
 20
128.8073769112009
 30
0.0
 10
102.5358945064866
 20
129.4253660519824
 30
0.0
 10
102.1352171935858
 20
129.7932005703083
 30
0.0
 10
101.486244511214
 20
130.2889911383925
 30
0.0
 10
101.2618351145134
 20
130.4448133362644
 30
0.0
 10
100.7969926042129
 20
130.7381622520392
 30
0.0
 10
100.5568813710273
 20
130.8753371240087
 30
0.0
 10
99.82549967040472
 20
131.2534832889605
 30
0.0
 10
99.31926013824226
 20
131.4640269345586
 30
0.0
 10
98.27002190662029
 20
131.8066843071758
 30
0.0
 10
97.72420916327695
 20
131.9384972861475
 30
0.0
 10
96.63165670496352
 20
132.1157526504658
 30
0.0
 10
96.08078662802087
 20
132.1629270324572
 30
0.0
 10
94.96977015958701
 20
132.1745467221863
 30
0.0
 10
94.4061318688833
 20
132.1378618390098
 30
0.0
 10
93.3090344919326
 20
131.9823446152238
 30
0.0
 10
92.77112076021571
 20
131.8640895892076
 30
0.0
 10
91.71639541346724
 20
131.5449390182367
 30
0.0
 10
91.1964388963485
 20
131.3420592438034
 30
0.0
 10
90.20918259269313
 20
130.8592493120596
 30
0.0
 10
89.73823885202741
 20
130.5787675062562
 30
0.0
 10
88.84698707204952
 20
129.9318124410966
 30
0.0
  0
CIRCLE
  5
C8
330
1F
100
AcDbEntity
  8
0
  6
Continuous
 62
     7
370
    15
100
AcDbCircle
 10
95.409259446
 20
124.5919640833
 30
0.0
 40
7.325658596124484
  0
LINE
  5
C9
330
1F
100
AcDbEntity
  8
0
  6
Continuous
 62
     7
370
    15
100
AcDbLine
 10
73.1592603401
 20
107.9019631916
 30
0.0
 11
73.1592603401
 21
141.2819631123
 31
0.0
  0
LINE
  5
CA
330
1F
100
AcDbEntity
  8
0
  6
Continuous
 62
     7
370
    15
100
AcDbLine
 10
148.5748641566
 20
93.9302768284
 30
0.0
 11
148.5748641566
 21
92.8840364986
 31
0.0
  0
LINE
  5
CB
330
1F
100
AcDbEntity
  8
0
  6
Continuous
 62
     7
370
    15
100
AcDbLine
 10
149.3314333633
 20
93.8574995571
 30
0.0
 11
149.3314333633
 21
92.7758801454
 31
0.0
  0
SPLINE
  5
CC
330
1F
100
AcDbEntity
  8
0
  6
Continuous
 62
     7
370
    15
100
AcDbSpline
210
0.0
220
0.0
230
1.0
 70
     8
 71
     3
 72
    80
 73
    76
 74
     0
 42
0.00000001
 43
0.00000001
 40
-0.0312499999999999
 40
-0.0312499999999999
 40
0.0
 40
0.0
 40
0.0312500000000002
 40
0.0312500000000002
 40
0.0625000000000004
 40
0.0625000000000004
 40
0.0937500000000006
 40
0.0937500000000006
 40
0.1250000000000008
 40
0.1250000000000008
 40
0.1562500000000011
 40
0.1562500000000011
 40
0.1875000000000012
 40
0.1875000000000012
 40
0.2187500000000011
 40
0.2187500000000011
 40
0.2500000000000011
 40
0.2500000000000011
 40
0.281250000000001
 40
0.281250000000001
 40
0.3125000000000009
 40
0.3125000000000009
 40
0.3281250000000008
 40
0.3281250000000008
 40
0.3437500000000008
 40
0.3437500000000008
 40
0.3750000000000007
 40
0.3750000000000007
 40
0.3906250000000006
 40
0.3906250000000006
 40
0.4062500000000006
 40
0.4062500000000006
 40
0.4375000000000004
 40
0.4375000000000004
 40
0.4687500000000004
 40
0.4687500000000004
 40
0.5000000000000003
 40
0.5000000000000003
 40
0.5312500000000002
 40
0.5312500000000002
 40
0.5625000000000001
 40
0.5625000000000001
 40
0.5781250000000001
 40
0.5781250000000001
 40
0.5937500000000001
 40
0.5937500000000001
 40
0.6250000000000003
 40
0.6250000000000003
 40
0.6406250000000003
 40
0.6406250000000003
 40
0.6562500000000003
 40
0.6562500000000003
 40
0.6875000000000002
 40
0.6875000000000002
 40
0.7187500000000002
 40
0.7187500000000002
 40
0.7500000000000002
 40
0.7500000000000002
 40
0.7812500000000002
 40
0.7812500000000002
 40
0.8125000000000002
 40
0.8125000000000002
 40
0.8437500000000002
 40
0.8437500000000002
 40
0.8750000000000001
 40
0.8750000000000001
 40
0.9062500000000001
 40
0.9062500000000001
 40
0.9218750000000001
 40
0.9218750000000001
 40
0.9375000000000001
 40
0.9375000000000001
 40
0.9687500000000001
 40
0.9687500000000001
 40
1.0
 40
1.0
 40
1.03125
 40
1.03125
 10
91.98608764296657
 20
127.427399240774
 30
0.0
 10
92.4104763117278
 20
127.7950083014605
 30
0.0
 10
92.63650538949175
 20
127.9555501709506
 30
0.0
 10
93.11684640191254
 20
128.2360335821328
 30
0.0
 10
93.37112916736535
 20
128.3559532596654
 30
0.0
 10
93.91341970808305
 20
128.5546989957833
 30
0.0
 10
94.19279907249559
 20
128.630296266164
 30
0.0
 10
94.76976010798514
 20
128.7345073013992
 30
0.0
 10
95.0713420923704
 20
128.7627919579832
 30
0.0
 10
95.66554781230327
 20
128.767406495439
 30
0.0
 10
95.96028423328835
 20
128.7447616351947
 30
0.0
 10
96.54519002432795
 20
128.6491194546133
 30
0.0
 10
96.82912797420484
 20
128.576821911799
 30
0.0
 10
97.37100207183522
 20
128.3882540779625
 30
0.0
 10
97.63281734083289
 20
128.2703595186992
 30
0.0
 10
98.12186309041654
 20
127.9951768512668
 30
0.0
 10
98.35070837909524
 20
127.8377413939443
 30
0.0
 10
98.77890237612459
 20
127.4790969469959
 30
0.0
 10
98.9766795770092
 20
127.2783919389489
 30
0.0
 10
99.32638165297469
 20
126.8438450488086
 30
0.0
 10
99.48047046820248
 20
126.6084430069518
 30
0.0
 10
99.67651663930329
 20
126.2223032826004
 30
0.0
 10
99.73591953555456
 20
126.0877185434339
 30
0.0
 10
99.8386103590889
 20
125.8143729585255
 30
0.0
 10
99.88241056629955
 20
125.6747101991698
 30
0.0
 10
99.99032064213834
 20
125.2462662029422
 30
0.0
 10
100.0304833312434
 20
124.9444611362848
 30
0.0
 10
100.0368946814017
 20
124.4983582799179
 30
0.0
 10
100.0304010581765
 20
124.3498483453391
 30
0.0
 10
100.0000543347796
 20
124.0532118878747
 30
0.0
 10
99.97590314474942
 20
123.9040902185867
 30
0.0
 10
99.87940921401825
 20
123.4691522229541
 30
0.0
 10
99.7835536754971
 20
123.192989250449
 30
0.0
 10
99.53331107917077
 20
122.6653927620234
 30
0.0
 10
99.38329534206606
 20
122.4230319933284
 30
0.0
 10
99.03878815368114
 20
121.9740406024547
 30
0.0
 10
98.84395439582636
 20
121.7681057282092
 30
0.0
 10
98.42417414728388
 20
121.4013993593193
 30
0.0
 10
98.19661698927784
 20
121.237861473333
 30
0.0
 10
97.70994591563236
 20
120.9518133912837
 30
0.0
 10
97.4552611996236
 20
120.8316473046463
 30
0.0
 10
97.0543095501613
 20
120.6835452793117
 30
0.0
 10
96.91747856445977
 20
120.6395865776901
 30
0.0
 10
96.63678844477556
 20
120.5627610494661
 30
0.0
 10
96.49201160996542
 20
120.529765402386
 30
0.0
 10
96.05554068168512
 20
120.4501042314251
 30
0.0
 10
95.7604378995563
 20
120.4218677526236
 30
0.0
 10
95.31113925421236
 20
120.41745245249
 30
0.0
 10
95.15948809001729
 20
120.4224772836077
 30
0.0
 10
94.8614557428457
 20
120.4451844239304
 30
0.0
 10
94.71430932769003
 20
120.4627934896533
 30
0.0
 10
94.27813163163486
 20
120.533840972488
 30
0.0
 10
93.99165979984487
 20
120.6063563029872
 30
0.0
 10
93.44645657513996
 20
120.7960035321166
 30
0.0
 10
93.18798536285539
 20
120.9123323167339
 30
0.0
 10
92.69559362913672
 20
121.1893003592868
 30
0.0
 10
92.46371067470608
 20
121.3493038148642
 30
0.0
 10
92.03778398717508
 20
121.7066874202188
 30
0.0
 10
91.84181255116692
 20
121.9050200265516
 30
0.0
 10
91.48577691479187
 20
122.348545982001
 30
0.0
 10
91.33080602085062
 20
122.5876703783102
 30
0.0
 10
91.07183228966821
 20
123.102012739802
 30
0.0
 10
90.96706381972746
 20
123.3816333350608
 30
0.0
 10
90.82571197396555
 20
123.9524659625799
 30
0.0
 10
90.78699702668955
 20
124.2462598714249
 30
0.0
 10
90.78021476829645
 20
124.8517901336407
 30
0.0
 10
90.81231846995938
 20
125.1477621321972
 30
0.0
 10
90.91024790792812
 20
125.5822908314819
 30
0.0
 10
90.95161730111212
 20
125.7263063290298
 30
0.0
 10
91.04866621168564
 20
126.0041133930752
 30
0.0
 10
91.1044203364492
 20
126.1386583622908
 30
0.0
 10
91.29209253024966
 20
126.5302562222487
 30
0.0
 10
91.44586220066473
 20
126.776786940959
 30
0.0
 10
91.7919608784505
 20
127.2236625128674
 30
0.0
 10
91.98608764296657
 20
127.427399240774
 30
0.0
 10
92.4104763117278
 20
127.7950083014605
 30
0.0
  0
LINE
  5
CD
330
1F
100
AcDbEntity
  8
0
  6
Continuous
 62
     7
370
    15
100
AcDbLine
 10
153.1147152558
 20
128.6626660922
 30
0.0
 11
153.1147152558
 21
114.6678093546
 31
0.0
  0
LINE
  5
CE
330
1F
100
AcDbEntity
  8
0
  6
Continuous
 62
     7
370
    15
100
AcDbLine
 10
153.1147152558
 20
93.3016340905
 30
0.0
 11
153.1147152558
 21
92.2595213824
 31
0.0
  0
LINE
  5
CF
330
1F
100
AcDbEntity
  8
0
  6
Continuous
 62
     7
370
    15
100
AcDbLine
 10
153.8712844625
 20
128.1239316059
 30
0.0
 11
153.8712844625
 21
113.8062726432
 31
0.0
  0
LINE
  5
D0
330
1F
100
AcDbEntity
  8
0
  6
Continuous
 62
     7
370
    15
100
AcDbLine
 10
153.8712844625
 20
93.2353500002
 30
0.0
 11
153.8712844625
 21
92.1610470587
 31
0.0
  0
LINE
  5
D1
330
1F
100
AcDbEntity
  8
0
  6
Continuous
 62
     7
370
    15
100
AcDbLine
 10
157.6545700804
 20
126.8656195798
 30
0.0
 11
157.6545700804
 21
112.3727418208
 31
0.0
  0
LINE
  5
D2
330
1F
100
AcDbEntity
  8
0
  6
Continuous
 62
     7
370
    15
100
AcDbLine
 10
157.6545700804
 20
92.7299994701
 30
0.0
 11
157.6545700804
 21
91.6917834157
 31
0.0
  0
LINE
  5
D3
330
1F
100
AcDbEntity
  8
0
  6
Continuous
 62
     7
370
    15
100
AcDbLine
 10
158.4111355618
 20
126.8420487368
 30
0.0
 11
158.4111355618
 21
112.6591719413
 31
0.0
  0
LINE
  5
D4
330
1F
100
AcDbEntity
  8
0
  6
Continuous
 62
     7
370
    15
100
AcDbLine
 10
158.4111355618
 20
92.6698583835
 30
0.0
 11
158.4111355618
 21
91.6024807566
 31
0.0
  0
LINE
  5
D5
330
1F
100
AcDbEntity
  8
0
  6
Continuous
 62
     7
370
    15
100
AcDbLine
 10
162.1944211796
 20
92.2124374383
 30
0.0
 11
162.1944211796
 21
91.1779354983
 31
0.0
  0
LINE
  5
D6
330
1F
100
AcDbEntity
  8
0
  6
Continuous
 62
     7
370
    15
100
AcDbLine
 10
162.950986661
 20
92.1581487828
 30
0.0
 11
162.950986661
 21
91.0973649198
 31
0.0
  0
LINE
  5
D7
330
1F
100
AcDbEntity
  8
0
  6
Continuous
 62
     7
370
    15
100
AcDbLine
 10
167.4908377603
 20
91.697781133
 30
0.0
 11
167.4908377603
 21
90.643311637
 31
0.0
  0
LINE
  5
D8
330
1F
100
AcDbEntity
  8
0
  6
Continuous
 62
     7
370
    15
100
AcDbLine
 10
166.7342722789
 20
91.7464744025
 30
0.0
 11
166.7342722789
 21
90.7155226642
 31
0.0
  0
LINE
  5
D9
330
1F
100
AcDbEntity
  8
0
  6
Continuous
 62
     7
370
    15
100
AcDbLine
 10
171.2741233781
 20
91.329998123
 30
0.0
 11
171.2741233781
 21
90.3024662012
 31
0.0
  0
LINE
  5
DA
330
1F
100
AcDbEntity
  8
0
  6
Continuous
 62
     7
370
    15
100
AcDbLine
 10
172.0306888595
 20
91.2866916233
 30
0.0
 11
172.0306888595
 21
90.2383018011
 31
0.0
  0
LINE
  5
DB
330
1F
100
AcDbEntity
  8
0
  6
Continuous
 62
     7
370
    15
100
AcDbLine
 10
173.1592581049
 20
89.3399107927
 30
0.0
 11
173.6592591182
 21
89.8227903718
 31
0.0
  0
LINE
  5
DC
330
1F
100
AcDbEntity
  8
0
  6
Continuous
 62
     7
370
    15
100
AcDbLine
 10
173.6592591182
 20
92.1895455295
 30
0.0
 11
173.6592591182
 21
89.8227903718
 31
0.0
  0
LINE
  5
DD
330
1F
100
AcDbEntity
  8
0
  6
Continuous
 62
     7
370
    15
100
AcDbLine
 10
173.6592591182
 20
89.8227903718
 30
0.0
 11
173.6592591182
 21
89.6375652128
 31
0.0
  0
LINE
  5
DE
330
1F
100
AcDbEntity
  8
0
  6
PHANTOM
 62
     7
370
     0
100
AcDbLine
 10
179.0763117746
 20
127.0919640274
 30
0.0
 11
181.6592567042
 21
127.0919640274
 31
0.0
  0
LINE
  5
DF
330
1F
100
AcDbEntity
  8
0
  6
PHANTOM
 62
     7
370
     0
100
AcDbLine
 10
181.6592567042
 20
122.0919641392
 30
0.0
 11
178.043907173
 21
122.0919641392
 31
0.0
  0
LINE
  5
E0
330
1F
100
AcDbEntity
  8
0
  6
PHANTOM
 62
     7
370
     0
100
AcDbLine
 10
222.6064034179
 20
96.8836590373
 30
0.0
 11
222.4032111839
 21
83.3012561971
 31
0.0
  0
ARC
  5
E1
330
1F
100
AcDbEntity
  8
0
  6
PHANTOM
 62
     7
370
     0
100
AcDbCircle
 10
221.1928128298
 20
83.3212632853
 30
0.0
 40
1.210563694828545
100
AcDbArc
 50
260.2563235728
 51
359.0530247075
  0
LINE
  5
E2
330
1F
100
AcDbEntity
  8
0
  6
PHANTOM
 62
     7
370
     0
100
AcDbLine
 10
220.9879361466
 20
82.1281622821
 30
0.0
 11
207.6501600817
 21
84.4867218011
 31
0.0
  0
ARC
  5
E3
330
1F
100
AcDbEntity
  8
0
  6
PHANTOM
 62
     7
370
     0
100
AcDbCircle
 10
207.852168213
 20
85.6372235877
 30
0.0
 40
1.168101727559154
100
AcDbArc
 50
193.3616117713
 51
260.0413673264
  0
LINE
  5
E4
330
1F
100
AcDbEntity
  8
0
  6
PHANTOM
 62
     7
370
     0
100
AcDbLine
 10
221.5730749443
 20
98.0685565346
 30
0.0
 11
221.6398395971
 21
98.0567510897
 31
0.0
  0
ARC
  5
E5
330
1F
100
AcDbEntity
  8
0
  6
PHANTOM
 62
     7
370
     0
100
AcDbCircle
 10
221.4368818545
 20
96.9047810461
 30
0.0
 40
1.169712283674776
100
AcDbArc
 50
358.9653286948
 51
80.0079910711
  0
ARC
  5
E6
330
1F
100
AcDbEntity
  8
0
  6
PHANTOM
 62
     7
370
     0
100
AcDbCircle
 10
221.9666792003
 20
82.5531643009
 30
0.0
 40
1.210566840247044
100
AcDbArc
 50
260.256497254
 51
359.0528510263
  0
LINE
  5
E7
330
1F
100
AcDbEntity
  8
0
  6
PHANTOM
 62
     7
370
     0
100
AcDbLine
 10
223.3802803234
 20
96.1155563318
 30
0.0
 11
223.1770806387
 21
82.5331534916
 31
0.0
  0
LINE
  5
E8
330
1F
100
AcDbEntity
  8
0
  6
PHANTOM
 62
     7
370
     0
100
AcDbLine
 10
221.7618056014
 20
81.3600595766
 30
0.0
 11
208.4240295366
 21
83.7186190957
 31
0.0
  0
ARC
  5
E9
330
1F
100
AcDbEntity
  8
0
  6
PHANTOM
 62
     7
370
     0
100
AcDbCircle
 10
222.2067254449
 20
96.1353389502
 30
0.0
 40
1.173721604480653
100
AcDbArc
 50
359.0342563293
 51
45.1359703995
  0
ARC
  5
EA
330
1F
100
AcDbEntity
  8
0
  6
PHANTOM
 62
     7
370
     0
100
AcDbCircle
 10
208.6265869136
 20
84.8706411984
 30
0.0
 40
1.169694155013909
100
AcDbArc
 50
225.2449019213
 51
260.027747396
  0
LINE
  5
EB
330
1F
100
AcDbEntity
  8
0
  6
PHANTOM
 62
     7
370
     0
100
AcDbLine
 10
221.7618056014
 20
167.82386859
 30
0.0
 11
208.4240295366
 21
165.4653090709
 31
0.0
  0
ARC
  5
EC
330
1F
100
AcDbEntity
  8
0
  6
PHANTOM
 62
     7
370
     0
100
AcDbCircle
 10
221.9666792003
 20
166.6307638656
 30
0.0
 40
1.210566840247044
100
AcDbArc
 50
0.9471489737
 51
99.743502746
  0
LINE
  5
ED
330
1F
100
AcDbEntity
  8
0
  6
PHANTOM
 62
     7
370
     0
100
AcDbLine
 10
223.3802803234
 20
153.0683718347
 30
0.0
 11
223.1770806387
 21
166.650774675
 31
0.0
  0
ARC
  5
EE
330
1F
100
AcDbEntity
  8
0
  6
PHANTOM
 62
     7
370
     0
100
AcDbCircle
 10
222.2107456278
 20
153.0472619352
 30
0.0
 40
1.169725195033028
100
AcDbArc
 50
279.9921800855
 51
1.0340666496
  0
LINE
  5
EF
330
1F
100
AcDbEntity
  8
0
  6
PHANTOM
 62
     7
370
     0
100
AcDbLine
 10
209.0759255365
 20
149.5367202633
 30
0.0
 11
222.4137090519
 21
151.8952797824
 31
0.0
  0
ARC
  5
F0
330
1F
100
AcDbEntity
  8
0
  6
PHANTOM
 62
     7
370
     0
100
AcDbCircle
 10
208.8710511937
 20
150.7298164344
 30
0.0
 40
1.21055853629539
100
AcDbArc
 50
180.9468387625
 51
279.7436059591
  0
LINE
  5
F1
330
1F
100
AcDbEntity
  8
0
  6
PHANTOM
 62
     7
370
     0
100
AcDbLine
 10
207.4574582652
 20
164.2922151559
 30
0.0
 11
207.6606579498
 21
150.7098123157
 31
0.0
  0
ARC
  5
F2
330
1F
100
AcDbEntity
  8
0
  6
PHANTOM
 62
     7
370
     0
100
AcDbCircle
 10
208.6269966027
 20
164.3133238837
 30
0.0
 40
1.169728815368425
100
AcDbArc
 50
99.9923299863
 51
181.034006044
  0
ARC
  5
F3
330
1F
100
AcDbEntity
  8
0
  6
PHANTOM
 62
     7
370
     0
100
AcDbCircle
 10
222.2103843732
 20
153.0476188891
 30
0.0
 40
1.150234834704634
100
AcDbArc
 50
279.9923272216
 51
1.0338069088
  0
LINE
  5
F4
330
1F
100
AcDbEntity
  8
0
  6
PHANTOM
 62
     7
370
     0
100
AcDbLine
 10
223.3604319766
 20
153.0683718347
 30
0.0
 11
223.157232292
 21
166.650774675
 31
0.0
  0
ARC
  5
F5
330
1F
100
AcDbEntity
  8
0
  6
PHANTOM
 62
     7
370
     0
100
AcDbCircle
 10
221.9670055931
 20
166.6310964123
 30
0.0
 40
1.190389360225959
100
AcDbArc
 50
0.9471966005
 51
99.7435512155
  0
LINE
  5
F6
330
1F
100
AcDbEntity
  8
0
  6
PHANTOM
 62
     7
370
     0
100
AcDbLine
 10
221.7655457929
 20
167.8043145412
 30
0.0
 11
208.427769728
 21
165.4457550221
 31
0.0
  0
ARC
  5
F7
330
1F
100
AcDbEntity
  8
0
  6
PHANTOM
 62
     7
370
     0
100
AcDbCircle
 10
208.6273444644
 20
164.3129761359
 30
0.0
 40
1.150225230345313
100
AcDbArc
 50
99.9919183126
 51
181.0342158179
  0
LINE
  5
F8
330
1F
100
AcDbEntity
  8
0
  6
PHANTOM
 62
     7
370
     0
100
AcDbLine
 10
207.4773066119
 20
164.2922151559
 30
0.0
 11
207.6805062965
 21
150.7098123157
 31
0.0
  0
ARC
  5
F9
330
1F
100
AcDbEntity
  8
0
  6
PHANTOM
 62
     7
370
     0
100
AcDbCircle
 10
208.8707273908
 20
150.7294819223
 30
0.0
 40
1.190383613332385
100
AcDbArc
 50
180.9467844814
 51
279.7438724238
  0
LINE
  5
FA
330
1F
100
AcDbEntity
  8
0
  6
PHANTOM
 62
     7
370
     0
100
AcDbLine
 10
209.0721927956
 20
149.5562705868
 30
0.0
 11
222.4099688605
 21
151.9148319685
 31
0.0
  0
ARC
  5
FB
330
1F
100
AcDbEntity
  8
0
  6
PHANTOM
 62
     7
370
     0
100
AcDbCircle
 10
208.0959814113
 20
149.9619710871
 30
0.0
 40
1.209362657179804
100
AcDbArc
 50
180.9599696361
 51
222.3818845091
  0
LINE
  5
FC
330
1F
100
AcDbEntity
  8
0
  6
PHANTOM
 62
     7
370
     0
100
AcDbLine
 10
206.8024628237
 20
155.5779006058
 30
0.0
 11
206.8867884949
 21
149.9417096102
 31
0.0
  0
LINE
  5
FD
330
1F
100
AcDbEntity
  8
0
  6
PHANTOM
 62
     7
370
     0
100
AcDbLine
 10
209.3501292542
 20
151.3432495022
 30
0.0
 11
208.768551834
 21
150.627405169
 31
0.0
  0
LINE
  5
FE
330
1F
100
AcDbEntity
  8
0
  6
PHANTOM
 62
     7
370
     0
100
AcDbLine
 10
208.9268692211
 20
163.8605806702
 30
0.0
 11
208.5653521493
 21
164.2098080092
 31
0.0
  0
LINE
  5
FF
330
1F
100
AcDbEntity
  8
0
  6
PHANTOM
 62
     7
370
     0
100
AcDbLine
 10
221.6903768853
 20
153.2811622792
 30
0.0
 11
222.1063278988
 21
152.985964688
 31
0.0
  0
ARC
  5
100
330
1F
100
AcDbEntity
  8
0
  6
PHANTOM
 62
     7
370
     0
100
AcDbCircle
 10
211.616569886
 20
154.0625602704
 30
0.0
 40
1.008808769477859
100
AcDbArc
 50
180.9473754344
 51
279.743371322
  0
SPLINE
  5
101
330
1F
100
AcDbEntity
  8
0
  6
PHANTOM
 62
     7
370
     0
100
AcDbSpline
210
0.0
220
0.0
230
1.0
 70
     8
 71
     3
 72
    11
 73
     7
 74
     0
 42
0.00000001
 43
0.00000001
 40
0.0
 40
0.0
 40
0.0
 40
0.0
 40
0.0077121059399675
 40
0.2978256565983198
 40
0.6482701148870593
 40
1.0
 40
1.0
 40
1.0
 40
1.0
 10
209.7934984043484
 20
151.8793318146233
 30
0.0
 10
209.7923836600481
 20
151.878006129355
 30
0.0
 10
209.7493345297911
 20
151.8268108931173
 30
0.0
 10
209.6521318109307
 20
151.7103301071764
 30
0.0
 10
209.4969182288064
 20
151.5231083368326
 30
0.0
 10
209.3991185909612
 20
151.4032755705098
 30
0.0
 10
209.3501292541866
 20
151.3432495021586
 30
0.0
  0
LINE
  5
102
330
1F
100
AcDbEntity
  8
0
  6
PHANTOM
 62
     7
370
     0
100
AcDbLine
 10
210.4897551611
 20
161.9433302158
 30
0.0
 11
210.6078990177
 21
154.0458805585
 31
0.0
  0
LINE
  5
103
330
1F
100
AcDbEntity
  8
0
  6
PHANTOM
 62
     7
370
     0
100
AcDbLine
 10
219.0504424647
 20
164.2922822112
 30
0.0
 11
211.2952299789
 21
162.9209059947
 31
0.0
  0
ARC
  5
104
330
1F
100
AcDbEntity
  8
0
  6
PHANTOM
 62
     7
370
     0
100
AcDbCircle
 10
219.2211763555
 20
163.2980417462
 30
0.0
 40
1.008793419675613
100
AcDbArc
 50
0.9465363142
 51
99.7439620448
  0
LINE
  5
105
330
1F
100
AcDbEntity
  8
0
  6
PHANTOM
 62
     7
370
     0
100
AcDbLine
 10
220.3479834274
 20
155.4172567749
 30
0.0
 11
220.2298321203
 21
163.3147064322
 31
0.0
  0
ARC
  5
106
330
1F
100
AcDbEntity
  8
0
  6
PHANTOM
 62
     7
370
     0
100
AcDbCircle
 10
219.3733800033
 20
155.3996586225
 30
0.0
 40
0.9747622936286083
100
AcDbArc
 50
279.9918177689
 51
1.0344620886
  0
LINE
  5
107
330
1F
100
AcDbEntity
  8
0
  6
PHANTOM
 62
     7
370
     0
100
AcDbLine
 10
211.7872961238
 20
153.0683029169
 30
0.0
 11
219.5425086096
 21
154.4396809959
 31
0.0
  0
ARC
  5
108
330
1F
100
AcDbEntity
  8
0
  6
PHANTOM
 62
     7
370
     0
100
AcDbCircle
 10
211.4643562624
 20
161.960930282
 30
0.0
 40
0.9747600057613895
100
AcDbArc
 50
99.9917028259
 51
181.0345770316
  0
CIRCLE
  5
109
330
1F
100
AcDbEntity
  8
0
  6
PHANTOM
 62
     7
370
     0
100
AcDbCircle
 10
215.4134966695
 20
158.7268113697
 30
0.0
 40
3.145952247562194
  0
ARC
  5
10A
330
1F
100
AcDbEntity
  8
0
  6
PHANTOM
 62
     7
370
     0
100
AcDbCircle
 10
214.5881969139
 20
157.9645139905
 30
0.0
 40
3.098212138090305
100
AcDbArc
 50
103.668227613
 51
124.5859805979
  0
ARC
  5
10B
330
1F
100
AcDbEntity
  8
0
  6
PHANTOM
 62
     7
370
     0
100
AcDbCircle
 10
207.851079176
 20
163.5479688083
 30
0.0
 40
1.166563579566896
100
AcDbArc
 50
134.7942503696
 51
154.0497650981
  0
LINE
  5
10C
330
1F
100
AcDbEntity
  8
0
  6
PHANTOM
 62
     7
370
     0
100
AcDbLine
 10
221.231056042
 20
165.7627027207
 30
0.0
 11
221.9031282142
 21
166.5683675283
 31
0.0
  0
SPLINE
  5
10D
330
1F
100
AcDbEntity
  8
0
  6
PHANTOM
 62
     7
370
     0
100
AcDbSpline
210
0.0
220
0.0
230
1.0
 70
     8
 71
     3
 72
    11
 73
     7
 74
     0
 42
0.00000001
 43
0.00000001
 40
0.0
 40
0.0
 40
0.0
 40
0.0
 40
0.0082319521007205
 40
0.3244007700499676
 40
0.6617822163122996
 40
0.9999999999999999
 40
0.9999999999999999
 40
0.9999999999999999
 40
0.9999999999999999
 10
209.4679676369076
 20
163.4230527752404
 30
0.0
 10
209.4665278480328
 20
163.4240265270937
 30
0.0
 10
209.4097893473763
 20
163.4623996671696
 30
0.0
 10
209.287800558856
 20
163.5504938842076
 30
0.0
 10
209.0976312674277
 20
163.7022563693496
 30
0.0
 10
208.9838368592835
 20
163.8077623672837
 30
0.0
 10
208.926869221056
 20
163.8605806702141
 30
0.0
  0
SPLINE
  5
10E
330
1F
100
AcDbEntity
  8
0
  6
PHANTOM
 62
     7
370
     0
100
AcDbSpline
210
0.0
220
0.0
230
1.0
 70
     8
 71
     3
 72
    11
 73
     7
 74
     0
 42
0.00000001
 43
0.00000001
 40
0.0
 40
0.0
 40
0.0
 40
0.0
 40
0.3382173940022275
 40
0.6756019033275896
 40
0.9917738179919598
 40
1.0
 40
1.0
 40
1.0
 40
1.0
 10
221.6903768852596
 20
153.2811622792248
 30
0.0
 10
221.6272609592418
 20
153.3278777595594
 30
0.0
 10
221.5011845347168
 20
153.4211936799957
 30
0.0
 10
221.317451579422
 20
153.5793403549509
 30
0.0
 10
221.209789023308
 20
153.6816673199595
 30
0.0
 10
221.1625318695682
 20
153.7294406317066
 30
0.0
 10
221.1613335088138
 20
153.730652081347
 30
0.0
  0
SPLINE
  5
10F
330
1F
100
AcDbEntity
  8
0
  6
PHANTOM
 62
     7
370
     0
100
AcDbSpline
210
0.0
220
0.0
230
1.0
 70
     8
 71
     3
 72
    11
 73
     7
 74
     0
 42
0.00000001
 43
0.00000001
 40
0.0
 40
0.0
 40
0.0
 40
0.0
 40
0.3517310529122766
 40
0.702172455930681
 40
0.9922925406657352
 40
1.0
 40
1.0
 40
1.0
 40
1.0
 10
221.2310560420399
 20
165.7627027207379
 30
0.0
 10
221.17696216019
 20
165.6976167401191
 30
0.0
 10
221.0689727360126
 20
165.5676834218086
 30
0.0
 10
220.9236272393312
 20
165.3901525876201
 30
0.0
 10
220.8411246819599
 20
165.2884758764905
 30
0.0
 10
220.8067993158985
 20
165.2458053719055
 30
0.0
 10
220.8059110120182
 20
165.2447011047368
 30
0.0
  0
ARC
  5
110
330
1F
100
AcDbEntity
  8
0
  6
PHANTOM
 62
     7
370
     0
100
AcDbCircle
 10
219.8767869766
 20
84.7902048547
 30
0.0
 40
1.210563694828545
100
AcDbArc
 50
260.2563235728
 51
359.0530247075
  0
ARC
  5
111
330
1F
100
AcDbEntity
  8
0
  6
PHANTOM
 62
     7
370
     0
100
AcDbCircle
 10
219.9084772995
 20
84.7589216163
 30
0.0
 40
1.513207468785791
100
AcDbArc
 50
260.2563757633
 51
359.0527702055
  0
LINE
  5
112
330
1F
100
AcDbEntity
  8
0
  6
PHANTOM
 62
     7
370
     0
100
AcDbLine
 10
221.0871853307
 20
84.7701977664
 30
0.0
 11
221.2624080852
 21
96.4828140759
 31
0.0
  0
LINE
  5
113
330
1F
100
AcDbEntity
  8
0
  6
PHANTOM
 62
     7
370
     0
100
AcDbLine
 10
208.1702404097
 20
85.6309782439
 30
0.0
 11
219.6719102934
 21
83.5971038514
 31
0.0
  0
ARC
  5
114
330
1F
100
AcDbEntity
  8
0
  6
PHANTOM
 62
     7
370
     0
100
AcDbCircle
 10
208.3725776205
 20
86.7823909156
 30
0.0
 40
1.16905581025016
100
AcDbArc
 50
220.1555571843
 51
260.0332024353
  0
ARC
  5
115
330
1F
100
AcDbEntity
  8
0
  6
PHANTOM
 62
     7
370
     0
100
AcDbCircle
 10
220.0869706786
 20
96.5021767766
 30
0.0
 40
1.175596874312566
100
AcDbArc
 50
359.0562656128
 51
38.1657136393
  0
LINE
  5
116
330
1F
100
AcDbEntity
  8
0
  6
PHANTOM
 62
     7
370
     0
100
AcDbLine
 10
221.5967007354
 20
96.4465260231
 30
0.0
 11
221.4214779809
 21
84.7339059883
 31
0.0
  0
LINE
  5
117
330
1F
100
AcDbEntity
  8
0
  6
PHANTOM
 62
     7
370
     0
100
AcDbLine
 10
219.6523823217
 20
83.2675423199
 30
0.0
 11
208.1507198885
 21
85.3014167124
 31
0.0
  0
ARC
  5
118
330
1F
100
AcDbEntity
  8
0
  6
PHANTOM
 62
     7
370
     0
100
AcDbCircle
 10
220.4520241498
 20
84.219422961
 30
0.0
 40
1.513195156231452
100
AcDbArc
 50
260.2561172946
 51
359.0532657887
  0
LINE
  5
119
330
1F
100
AcDbEntity
  8
0
  6
PHANTOM
 62
     7
370
     0
100
AcDbLine
 10
222.1402354911
 20
95.907040658
 30
0.0
 11
221.9650127366
 21
84.1944206232
 31
0.0
  0
LINE
  5
11A
330
1F
100
AcDbEntity
  8
0
  6
PHANTOM
 62
     7
370
     0
100
AcDbLine
 10
220.195924528
 20
82.7280569547
 30
0.0
 11
208.6942546442
 21
84.7619313472
 31
0.0
  0
ARC
  5
11B
330
1F
100
AcDbEntity
  8
0
  6
PHANTOM
 62
     7
370
     0
100
AcDbCircle
 10
220.1323264371
 20
96.4720475958
 30
0.0
 40
1.464596680366718
100
AcDbArc
 50
359.001532344
 51
53.1216900752
  0
ARC
  5
11C
330
1F
100
AcDbEntity
  8
0
  6
PHANTOM
 62
     7
370
     0
100
AcDbCircle
 10
208.4029861912
 20
86.7392164553
 30
0.0
 40
1.459762442382121
100
AcDbArc
 50
206.0922479201
 51
260.0485717553
  0
ARC
  5
11D
330
1F
100
AcDbEntity
  8
0
  6
PHANTOM
 62
     7
370
     0
100
AcDbCircle
 10
220.6732439243
 20
95.9317625982
 30
0.0
 40
1.467199860822181
100
AcDbArc
 50
359.0345351656
 51
45.1344690733
  0
ARC
  5
11E
330
1F
100
AcDbEntity
  8
0
  6
PHANTOM
 62
     7
370
     0
100
AcDbCircle
 10
208.947387769
 20
86.2018265091
 30
0.0
 40
1.461976215915258
100
AcDbArc
 50
225.2430170777
 51
260.0293031189
  0
LINE
  5
11F
330
1F
100
AcDbEntity
  8
0
  6
PHANTOM
 62
     7
370
     0
100
AcDbLine
 10
212.7919324115
 20
160.4603256756
 30
0.0
 11
213.2569976524
 21
160.5393390828
 31
0.0
  0
ELLIPSE
  5
120
330
1F
100
AcDbEntity
  8
0
  6
PHANTOM
 62
     7
370
     0
100
AcDbEllipse
 10
215.4141991068
 20
158.413865889
 30
0.0
 11
2.142313802535824
 21
-2.101494032444521
 31
0.0
210
0.0
220
0.0
230
1.0
 40
0.9831856447
 41
2.093019233784263
 42
4.593559179632103
  0
ELLIPSE
  5
121
330
1F
100
AcDbEntity
  8
0
  6
PHANTOM
 62
     7
370
     0
100
AcDbEllipse
 10
215.4141991068
 20
158.413865889
 30
0.0
 11
2.142313802535824
 21
-2.101494032444521
 31
0.0
210
0.0
220
0.0
230
1.0
 40
0.9831856447
 41
0.1183750826749472
 42
2.093019233784283
  0
CIRCLE
  5
122
330
1F
100
AcDbEntity
  8
0
  6
PHANTOM
 62
     7
370
     0
100
AcDbCircle
 10
209.3363822446
 20
107.225902829
 30
0.0
 40
3.32382245631098
  0
ARC
  5
123
330
1F
100
AcDbEntity
  8
0
  6
PHANTOM
 62
     7
370
     0
100
AcDbCircle
 10
209.3341164519
 20
107.1248973333
 30
0.0
 40
3.841409160970533
100
AcDbArc
 50
194.1341116757
 51
239.728978999
  0
ARC
  5
124
330
1F
100
AcDbEntity
  8
0
  6
PHANTOM
 62
     7
370
     0
100
AcDbCircle
 10
209.4161884682
 20
107.1812125159
 30
0.0
 40
3.93490018529987
100
AcDbArc
 50
15.2531719635
 51
194.6374744153
  0
LINE
  5
125
330
1F
100
AcDbEntity
  8
0
  6
PHANTOM
 62
     7
370
     0
100
AcDbLine
 10
206.9209643081
 20
104.107516604
 30
0.0
 11
207.106073983
 21
103.935519951
 31
0.0
  0
LWPOLYLINE
  5
126
330
1F
100
AcDbEntity
  8
0
  6
PHANTOM
 62
     7
370
     0
100
AcDbPolyline
 90
        3
 70
   128
 43
0.0
 10
212.9058592394
 20
109.2208174714
 10
212.713172324
 20
109.4686349579
 10
212.486175485
 20
109.7145190188
  0
LINE
  5
127
330
1F
100
AcDbEntity
  8
0
  6
PHANTOM
 62
     7
370
     0
100
AcDbLine
 10
212.8406815604
 20
109.3410176882
 30
0.0
 11
212.7735443786
 21
109.3954050639
 31
0.0
  0
CIRCLE
  5
128
330
1F
100
AcDbEntity
  8
0
  6
PHANTOM
 62
     7
370
     0
100
AcDbCircle
 10
211.8124906619
 20
144.4153538256
 30
0.0
 40
3.474880281125968
  0
CIRCLE
  5
129
330
1F
100
AcDbEntity
  8
0
  6
PHANTOM
 62
     7
370
     0
100
AcDbCircle
 10
211.8124588517
 20
144.3940790111
 30
0.0
 40
1.985951881253037
  0
SPLINE
  5
12A
330
1F
100
AcDbEntity
  8
0
  6
PHANTOM
 62
     7
370
     0
100
AcDbSpline
210
0.0
220
0.0
230
1.0
 70
     8
 71
     3
 72
    11
 73
     7
 74
     0
 42
0.00000001
 43
0.00000001
 40
0.0
 40
0.0
 40
0.0
 40
0.0
 40
0.1081106036290019
 40
0.4711580591619921
 40
0.8135804587859753
 40
0.9999999999999999
 40
0.9999999999999999
 40
0.9999999999999999
 40
0.9999999999999999
 10
213.0125590041523
 20
143.117013173676
 30
0.0
 10
213.0233522060616
 20
143.1697711893793
 30
0.0
 10
213.0703901828468
 20
143.3996965015101
 30
0.0
 10
213.1726485920939
 20
143.8500708550468
 30
0.0
 10
213.3160205036763
 20
144.3820917288341
 30
0.0
 10
213.402227035669
 20
144.6746369216289
 30
0.0
 10
213.4326152876262
 20
144.7777606272464
 30
0.0
  0
SPLINE
  5
12B
330
1F
100
AcDbEntity
  8
0
  6
PHANTOM
 62
     7
370
     0
100
AcDbSpline
210
0.0
220
0.0
230
1.0
 70
     8
 71
     3
 72
    10
 73
     6
 74
     0
 42
0.00000001
 43
0.00000001
 40
0.0
 40
0.0
 40
0.0
 40
0.0
 40
0.439117674007292
 40
0.7513673933042769
 40
1.0
 40
1.0
 40
1.0
 40
1.0
 10
213.4326152876262
 20
144.7777606272464
 30
0.0
 10
213.2434841853755
 20
144.9393781459523
 30
0.0
 10
212.9198649104007
 20
145.2159193578654
 30
0.0
 10
212.4900938196519
 20
145.6582835391511
 30
0.0
 10
212.2883648195277
 20
145.8905512629646
 30
0.0
 10
212.198940701807
 20
145.9935128414397
 30
0.0
  0
SPLINE
  5
12C
330
1F
100
AcDbEntity
  8
0
  6
PHANTOM
 62
     7
370
     0
100
AcDbSpline
210
0.0
220
0.0
230
1.0
 70
     8
 71
     3
 72
    10
 73
     6
 74
     0
 42
0.00000001
 43
0.00000001
 40
0.0
 40
0.0
 40
0.0
 40
0.0
 40
0.4391157799667745
 40
0.7513677489387698
 40
1.0
 40
1.0
 40
1.0
 40
1.0
 10
212.198940701807
 20
145.9935128414397
 30
0.0
 10
211.9496789677989
 20
145.9173810338946
 30
0.0
 10
211.5231690664867
 20
145.7871124635824
 30
0.0
 10
210.9438251861459
 20
145.6381089822406
 30
0.0
 10
210.6676495777772
 20
145.5760344066302
 30
0.0
 10
210.545224733675
 20
145.5485176020627
 30
0.0
  0
SPLINE
  5
12D
330
1F
100
AcDbEntity
  8
0
  6
PHANTOM
 62
     7
370
     0
100
AcDbSpline
210
0.0
220
0.0
230
1.0
 70
     8
 71
     3
 72
    11
 73
     7
 74
     0
 42
0.00000001
 43
0.00000001
 40
0.0
 40
0.0
 40
0.0
 40
0.0
 40
0.1864195116043469
 40
0.5288418440990313
 40
0.8918901657703608
 40
1.0
 40
1.0
 40
1.0
 40
1.0
 10
210.545224733675
 20
145.5485176020627
 30
0.0
 10
210.5148359793889
 20
145.4453940110664
 30
0.0
 10
210.4286280244478
 20
145.1528491504814
 30
0.0
 10
210.2852740163829
 20
144.6208236155219
 30
0.0
 10
210.1829916545037
 20
144.1704537764405
 30
0.0
 10
210.1359661596208
 20
143.9405263909865
 30
0.0
 10
210.1251759007816
 20
143.8877682858472
 30
0.0
  0
SPLINE
  5
12E
330
1F
100
AcDbEntity
  8
0
  6
PHANTOM
 62
     7
370
     0
100
AcDbSpline
210
0.0
220
0.0
230
1.0
 70
     8
 71
     3
 72
    10
 73
     6
 74
     0
 42
0.00000001
 43
0.00000001
 40
0.0
 40
0.0
 40
0.0
 40
0.0
 40
0.4391171674649418
 40
0.751364450109602
 40
0.9999999999999999
 40
0.9999999999999999
 40
0.9999999999999999
 40
0.9999999999999999
 10
210.1251759007816
 20
143.8877682858472
 30
0.0
 10
210.2892655839174
 20
143.7012975001057
 30
0.0
 10
210.5700361018402
 20
143.382231132924
 30
0.0
 10
211.0188455220011
 20
142.9587665366825
 30
0.0
 10
211.2544161685213
 20
142.7600886356642
 30
0.0
 10
211.3588430360203
 20
142.6720160716538
 30
0.0
  0
SPLINE
  5
12F
330
1F
100
AcDbEntity
  8
0
  6
PHANTOM
 62
     7
370
     0
100
AcDbSpline
210
0.0
220
0.0
230
1.0
 70
     8
 71
     3
 72
    10
 73
     6
 74
     0
 42
0.00000001
 43
0.00000001
 40
0.0
 40
0.0
 40
0.0
 40
0.0
 40
0.4391174732855558
 40
0.7513658430643368
 40
1.0
 40
1.0
 40
1.0
 40
1.0
 10
211.3588430360203
 20
142.6720160716538
 30
0.0
 10
211.5830657217009
 20
142.7232936430232
 30
0.0
 10
211.9667290407668
 20
142.8110337535545
 30
0.0
 10
212.5651152350029
 20
142.9789459024423
 30
0.0
 10
212.8751315655763
 20
143.0746073279696
 30
0.0
 10
213.0125590041523
 20
143.117013173676
 30
0.0
  0
LINE
  5
130
330
1F
100
AcDbEntity
  8
0
  6
PHANTOM
 62
     7
370
     0
100
AcDbLine
 10
211.7441200093
 20
145.5420803004
 30
0.0
 11
212.1989407018
 21
145.9935128414
 31
0.0
  0
LINE
  5
131
330
1F
100
AcDbEntity
  8
0
  6
PHANTOM
 62
     7
370
     0
100
AcDbLine
 10
211.7441200093
 20
145.5420803004
 30
0.0
 11
210.9172620252
 21
145.3195817494
 31
0.0
  0
LINE
  5
132
330
1F
100
AcDbEntity
  8
0
  6
PHANTOM
 62
     7
370
     0
100
AcDbLine
 10
210.9172620252
 20
145.3195817494
 30
0.0
 11
210.442272611
 21
145.1917689019
 31
0.0
  0
LINE
  5
133
330
1F
100
AcDbEntity
  8
0
  6
PHANTOM
 62
     7
370
     0
100
AcDbLine
 10
212.6435317472
 20
143.0047720396
 30
0.0
 11
212.7677627281
 21
143.4959552908
 31
0.0
  0
LINE
  5
134
330
1F
100
AcDbEntity
  8
0
  6
PHANTOM
 62
     7
370
     0
100
AcDbLine
 10
212.7677627281
 20
143.4959552908
 30
0.0
 11
212.9777871445
 21
144.3263280862
 31
0.0
  0
LINE
  5
135
330
1F
100
AcDbEntity
  8
0
  6
PHANTOM
 62
     7
370
     0
100
AcDbLine
 10
212.9777871445
 20
144.3263280862
 30
0.0
 11
213.4326152876
 21
144.7777606272
 31
0.0
  0
LINE
  5
136
330
1F
100
AcDbEntity
  8
0
  6
PHANTOM
 62
     7
370
     0
100
AcDbLine
 10
212.9777871445
 20
144.3263280862
 30
0.0
 11
212.3609535769
 21
144.9342041933
 31
0.0
  0
LINE
  5
137
330
1F
100
AcDbEntity
  8
0
  6
PHANTOM
 62
     7
370
     0
100
AcDbLine
 10
212.3609535769
 20
144.9342041933
 30
0.0
 11
211.7441200093
 21
145.5420803004
 31
0.0
  0
ARC
  5
138
330
1F
100
AcDbEntity
  8
0
  6
PHANTOM
 62
     7
370
     0
100
AcDbCircle
 10
211.3026170691
 20
143.866339991
 30
0.0
 40
1.503466034974331
100
AcDbArc
 50
45.2567457679
 51
104.8512882976
  0
ARC
  5
139
330
1F
100
AcDbEntity
  8
0
  6
PHANTOM
 62
     7
370
     0
100
AcDbCircle
 10
211.3077454889
 20
143.8596464578
 30
0.0
 40
1.504633378437894
100
AcDbArc
 50
346.0122674468
 51
45.5748770087
  0
ARC
  5
13A
330
1F
100
AcDbEntity
  8
0
  6
PHANTOM
 62
     7
370
     0
100
AcDbCircle
 10
211.3498339155
 20
143.8537556649
 30
0.0
 40
1.462375883713377
100
AcDbArc
 50
322.6591790517
 51
345.8376323791
  0
ARC
  5
13B
330
1F
100
AcDbEntity
  8
0
  6
PHANTOM
 62
     7
370
     0
100
AcDbCircle
 10
211.2963110444
 20
143.9080354173
 30
0.0
 40
1.461554380320519
100
AcDbArc
 50
105.0312895576
 51
128.9171826469
  0
ELLIPSE
  5
13C
330
1F
100
AcDbEntity
  8
0
  6
PHANTOM
 62
     7
370
     0
100
AcDbEllipse
 10
208.8973618615
 20
107.7112161134
 30
0.0
 11
3.90935748872812
 21
-2.088225304438552
 31
0.0
210
0.0
220
0.0
230
0.9999999999999999
 40
0.9427838111
 41
0.0
 42
6.283185307179586
  0
LINE
  5
13D
330
1F
100
AcDbEntity
  8
0
  6
PHANTOM
 62
     7
370
     0
100
AcDbLine
 10
219.7932355479
 20
109.9115254083
 30
0.0
 11
220.1363869384
 21
87.7278249436
 31
0.0
  0
LINE
  5
13E
330
1F
100
AcDbEntity
  8
0
  6
PHANTOM
 62
     7
370
     0
100
AcDbLine
 10
219.271501191
 20
86.9134727591
 30
0.0
 11
220.1363869384
 21
87.7278249436
 31
0.0
  0
ELLIPSE
  5
13F
330
1F
100
AcDbEntity
  8
0
  6
PHANTOM
 62
     7
370
     0
100
AcDbEllipse
 10
285.0979744529
 20
107.3321285705
 30
0.0
 11
141.564999403237
 21
-32.40975870700377
 31
0.0
210
0.0
220
0.0
230
1.0
 40
0.2612235458
 41
4.107476001632494
 42
4.289433974330448
  0
LINE
  5
140
330
1F
100
AcDbEntity
  8
0
  6
PHANTOM
 62
     7
370
     0
100
AcDbLine
 10
180.5612497404
 20
121.5919640572
 30
0.0
 11
208.8539727405
 21
121.5919640572
 31
0.0
  0
SPLINE
  5
141
330
1F
100
AcDbEntity
  8
0
  6
PHANTOM
 62
     7
370
     0
100
AcDbSpline
210
0.0
220
0.0
230
1.0
 70
     8
 71
     3
 72
    12
 73
     8
 74
     0
 42
0.00000001
 43
0.00000001
 40
0.0
 40
0.0
 40
0.0
 40
0.0
 40
0.2222266658785853
 40
0.4447565455105444
 40
0.6601138603492228
 40
0.8695022944756584
 40
1.0
 40
1.0
 40
1.0
 40
1.0
 10
174.9483883753662
 20
88.12987317380949
 30
0.0
 10
174.834166771044
 20
88.1406953391279
 30
0.0
 10
174.6055677144899
 20
88.16235443590156
 30
0.0
 10
174.3033820628859
 20
88.33528421375222
 30
0.0
 10
174.0828734709604
 20
88.58849843300615
 30
0.0
 10
173.9737665518081
 20
88.85899529122257
 30
0.0
 10
173.9632848658542
 20
89.03306735413527
 30
0.0
 10
173.9592604711895
 20
89.09990151462598
 30
0.0
  0
LINE
  5
142
330
1F
100
AcDbEntity
  8
0
  6
PHANTOM
 62
     7
370
     0
100
AcDbLine
 10
179.6592601016
 20
87.7335544401
 30
0.0
 11
179.4750668481
 21
87.7308685058
 31
0.0
  0
SPLINE
  5
143
330
1F
100
AcDbEntity
  8
0
  6
PHANTOM
 62
     7
370
     0
100
AcDbSpline
210
0.0
220
0.0
230
1.0
 70
     8
 71
     3
 72
    17
 73
    13
 74
     0
 42
0.00000001
 43
0.00000001
 40
0.0
 40
0.0
 40
0.0
 40
0.0
 40
0.0404827308740191
 40
0.1447023801968194
 40
0.2494265401181021
 40
0.3557690685305967
 40
0.4640431935732032
 40
0.5737362793388839
 40
0.6838394045789429
 40
0.7932008132301137
 40
0.9008636401195872
 40
1.0
 40
1.0
 40
1.0
 40
1.0
 10
176.4518745616321
 20
87.59564791855856
 30
0.0
 10
176.4409027708932
 20
87.5947008896133
 30
0.0
 10
176.4016849562682
 20
87.59131580813445
 30
0.0
 10
176.705872495081
 20
87.6176947293647
 30
0.0
 10
177.3247957556172
 20
87.6630629435406
 30
0.0
 10
178.2262304185133
 20
87.71052402352237
 30
0.0
 10
179.2921832751477
 20
87.73729130202743
 30
0.0
 10
180.4127705280484
 20
87.73142790977361
 30
0.0
 10
181.4547568925866
 20
87.69434055120074
 30
0.0
 10
182.2789353441038
 20
87.64371164014214
 30
0.0
 10
182.8152035046702
 20
87.6003701529363
 30
0.0
 10
182.8716875224067
 20
87.59529204379793
 30
0.0
 10
182.8987650946026
 20
87.592857676125
 30
0.0
  0
SPLINE
  5
144
330
1F
100
AcDbEntity
  8
0
  6
PHANTOM
 62
     7
370
     0
100
AcDbSpline
210
0.0
220
0.0
230
1.0
 70
     8
 71
     3
 72
     9
 73
     5
 74
     0
 42
0.00000001
 43
0.00000001
 40
0.0
 40
0.0
 40
0.0
 40
0.0
 40
0.0163378337594441
 40
1.0
 40
1.0
 40
1.0
 40
1.0
 10
180.3875767067318
 20
87.72629757461591
 30
0.0
 10
180.3838759558824
 20
87.72641869776457
 30
0.0
 10
180.1573617861397
 20
87.73383235800968
 30
0.0
 10
179.9062597119175
 20
87.73369225457014
 30
0.0
 10
179.6592601016407
 20
87.73355444011732
 30
0.0
  0
SPLINE
  5
145
330
1F
100
AcDbEntity
  8
0
  6
PHANTOM
 62
     7
370
     0
100
AcDbSpline
210
0.0
220
0.0
230
1.0
 70
     8
 71
     3
 72
    22
 73
    18
 74
     0
 42
0.00000001
 43
0.00000001
 40
0.0
 40
0.0
 40
0.0
 40
0.0
 40
0.1634066537813658
 40
0.1886770209441057
 40
0.201354715883746
 40
0.2052592066446806
 40
0.2075713398756394
 40
0.2093717603376014
 40
0.2111807424460794
 40
0.2132865276572088
 40
0.2168525169255381
 40
0.2278366411030169
 40
0.2780473775517392
 40
0.4775282251653749
 40
0.6558976704699618
 40
0.8342919629491108
 40
1.0
 40
1.0
 40
1.0
 40
1.0
 10
195.0473763421421
 20
88.56824670968099
 30
0.0
 10
195.0232732540615
 20
88.76705492433926
 30
0.0
 10
194.9954426930081
 20
88.99660825532615
 30
0.0
 10
194.8044555826649
 20
89.28680536790533
 30
0.0
 10
194.7348764253963
 20
89.34656447852652
 30
0.0
 10
194.6804102490592
 20
89.36995004728308
 30
0.0
 10
194.6494675605895
 20
89.37764831833121
 30
0.0
 10
194.621877920572
 20
89.38085696082263
 30
0.0
 10
194.5933093874648
 20
89.3806784691445
 30
0.0
 10
194.5589627791684
 20
89.3762449455533
 30
0.0
 10
194.4972398953452
 20
89.3592564973012
 30
0.0
 10
194.3403044958154
 20
89.27301790680104
 30
0.0
 10
194.0121058799164
 20
88.9049212452504
 30
0.0
 10
193.7199715096187
 20
88.38561552559901
 30
0.0
 10
193.4781708451785
 20
87.91582417720944
 30
0.0
 10
193.3525284741131
 20
87.63797895927166
 30
0.0
 10
193.3403869595183
 20
87.61292482357466
 30
0.0
 10
193.3345400169735
 20
87.6008595996861
 30
0.0
  0
ELLIPSE
  5
146
330
1F
100
AcDbEntity
  8
0
  6
PHANTOM
 62
     7
370
     0
100
AcDbEllipse
 10
174.9554912297
 20
123.5919640833
 30
0.0
 11
0.0
 21
35.99999999999999
 31
0.0
210
0.0
220
0.0
230
1.0
 40
0.2679491924
 41
2.905341347605021
 42
2.922182990784157
  0
ELLIPSE
  5
147
330
1F
100
AcDbEntity
  8
0
  6
PHANTOM
 62
     7
370
     0
100
AcDbEllipse
 10
202.0985465743
 20
123.5919640833
 30
0.0
 11
134.3538290724782
 21
-2.842170943040401E-14
 31
0.0
210
0.0
220
0.0
230
1.0
 40
0.2679491924
 41
4.492979317579061
 42
4.499100956629442
  0
LINE
  5
148
330
1F
100
AcDbEntity
  8
0
  6
PHANTOM
 62
     7
370
     0
100
AcDbLine
 10
173.6592591182
 20
88.1298731738
 30
0.0
 11
173.6592591182
 21
87.5919636065
 31
0.0
  0
LINE
  5
149
330
1F
100
AcDbEntity
  8
0
  6
PHANTOM
 62
     7
370
     0
100
AcDbLine
 10
173.6592591182
 20
88.1298731738
 30
0.0
 11
174.9483883754
 21
88.1298731738
 31
0.0
  0
SPLINE
  5
14A
330
1F
100
AcDbEntity
  8
0
  6
PHANTOM
 62
     7
370
     0
100
AcDbSpline
210
0.0
220
0.0
230
1.0
 70
     8
 71
     3
 72
    10
 73
     6
 74
     0
 42
0.00000001
 43
0.00000001
 40
0.0
 40
0.0
 40
0.0
 40
0.0
 40
0.2011544593648016
 40
0.7755622127406578
 40
1.0
 40
1.0
 40
1.0
 40
1.0
 10
195.1875962689762
 20
87.66357113657041
 30
0.0
 10
195.1904132700076
 20
87.64454998023099
 30
0.0
 10
195.2012743742559
 20
87.57121285339781
 30
0.0
 10
195.1444074173817
 20
87.95918533983127
 30
0.0
 10
195.0686582679084
 20
88.43466065152106
 30
0.0
 10
195.0473763421421
 20
88.56824670968099
 30
0.0
  0
LINE
  5
14B
330
1F
100
AcDbEntity
  8
0
  6
PHANTOM
 62
     7
370
     0
100
AcDbLine
 10
178.043907173
 20
121.5919640572
 30
0.0
 11
180.5612497404
 21
121.5919640572
 31
0.0
  0
LINE
  5
14C
330
1F
100
AcDbEntity
  8
0
  6
PHANTOM
 62
     7
370
     0
100
AcDbLine
 10
173.9592604712
 20
92.6388378912
 30
0.0
 11
173.9592604712
 21
89.0999015146
 31
0.0
  0
SPLINE
  5
14D
330
1F
100
AcDbEntity
  8
0
  6
PHANTOM
 62
     7
370
     0
100
AcDbSpline
210
0.0
220
0.0
230
1.0
 70
     8
 71
     3
 72
    11
 73
     7
 74
     0
 42
0.00000001
 43
0.00000001
 40
0.0
 40
0.0
 40
0.0
 40
0.0
 40
0.2010660904958599
 40
0.4637167403993906
 40
0.7302216356094301
 40
0.9999999999999999
 40
0.9999999999999999
 40
0.9999999999999999
 40
0.9999999999999999
 10
196.0072346404438
 20
87.4577339464192
 30
0.0
 10
196.0078512359705
 20
87.46722455749222
 30
0.0
 10
196.0092732841494
 20
87.48911266015693
 30
0.0
 10
196.0411379074346
 20
88.04373118884385
 30
0.0
 10
196.0902992650906
 20
89.00830858328396
 30
0.0
 10
196.1314532761901
 20
90.03111396264498
 30
0.0
 10
196.1521558836345
 20
90.54563825068517
 30
0.0
  0
ELLIPSE
  5
14E
330
1F
100
AcDbEntity
  8
0
  6
PHANTOM
 62
     7
370
     0
100
AcDbEllipse
 10
207.9693485146
 20
123.7263241063
 30
0.0
 11
-0.1226598013137448
 21
38.86178735419469
 31
0.0
210
0.0
220
0.0
230
0.9999999999999998
 40
0.1209221839
 41
2.885109611805197
 42
3.005314665462837
  0
ELLIPSE
  5
14F
330
1F
100
AcDbEntity
  8
0
  6
PHANTOM
 62
     7
370
     0
100
AcDbEllipse
 10
211.2085108653
 20
123.0378188943
 30
0.0
 11
255.5476892121339
 21
-50.58930668211126
 31
0.0
210
0.0
220
0.0
230
1.0
 40
0.1452100801
 41
4.723338024588129
 42
4.726434916957484
  0
ELLIPSE
  5
150
330
1F
100
AcDbEntity
  8
0
  6
PHANTOM
 62
     7
370
     0
100
AcDbEllipse
 10
207.1632504221
 20
123.8976655452
 30
0.0
 11
-0.1226598013137448
 21
38.86178735419467
 31
0.0
210
0.0
220
0.0
230
0.9999999999999998
 40
0.1209221839
 41
3.008411557832188
 42
3.023801288384084
  0
SPLINE
  5
151
330
1F
100
AcDbEntity
  8
0
  6
PHANTOM
 62
     7
370
     0
100
AcDbSpline
210
0.0
220
0.0
230
1.0
 70
     8
 71
     3
 72
     9
 73
     5
 74
     0
 42
0.00000001
 43
0.00000001
 40
0.0
 40
0.0
 40
0.0
 40
0.0
 40
0.4971931808036484
 40
1.0
 40
1.0
 40
1.0
 40
1.0
 10
196.3095195964222
 20
94.50615827975317
 30
0.0
 10
196.2789532328291
 20
93.75792475898325
 30
0.0
 10
196.2174753912711
 20
92.2530096683127
 30
0.0
 10
196.1740103851225
 20
91.11688798200005
 30
0.0
 10
196.1521558836345
 20
90.54563825068517
 30
0.0
  0
SPLINE
  5
152
330
1F
100
AcDbEntity
  8
0
  6
PHANTOM
 62
     7
370
     0
100
AcDbSpline
210
0.0
220
0.0
230
1.0
 70
     8
 71
     3
 72
    11
 73
     7
 74
     0
 42
0.00000001
 43
0.00000001
 40
0.0
 40
0.0
 40
0.0
 40
0.0
 40
0.5030409834843235
 40
0.7088116100694075
 40
0.9167544764956118
 40
1.0
 40
1.0
 40
1.0
 40
1.0
 10
197.6274229958896
 20
95.34520168838544
 30
0.0
 10
197.4461944876286
 20
95.41583458358538
 30
0.0
 10
197.1908338411834
 20
95.5153601049927
 30
0.0
 10
196.8359971091019
 20
95.57049449118104
 30
0.0
 10
196.6433030080575
 20
95.56593145850256
 30
0.0
 10
196.5524992650283
 20
95.53577383834522
 30
0.0
 10
196.5265401080494
 20
95.52715231714292
 30
0.0
  0
SPLINE
  5
153
330
1F
100
AcDbEntity
  8
0
  6
PHANTOM
 62
     7
370
     0
100
AcDbSpline
210
0.0
220
0.0
230
1.0
 70
     8
 71
     3
 72
     9
 73
     5
 74
     0
 42
0.00000001
 43
0.00000001
 40
0.0
 40
0.0
 40
0.0
 40
0.0
 40
0.4890692930893302
 40
0.9999999999999999
 40
0.9999999999999999
 40
0.9999999999999999
 40
0.9999999999999999
 10
220.1413937285785
 20
83.83173008499189
 30
0.0
 10
219.9959430911557
 20
84.24722246873246
 30
0.0
 10
219.6985401679337
 20
85.09677975971675
 30
0.0
 10
219.4159071027668
 20
86.29917126846108
 30
0.0
 10
219.2715011909847
 20
86.9135100120072
 30
0.0
  0
ELLIPSE
  5
154
330
1F
100
AcDbEntity
  8
0
  6
PHANTOM
 62
     7
370
     0
100
AcDbEllipse
 10
179.9712976605
 20
129.6774935293
 30
0.0
 11
255.5476892121339
 21
-50.58930668211124
 31
0.0
210
0.0
220
0.0
230
1.0
 40
0.1452100801
 41
4.846639970615124
 42
4.898908587399017
  0
SPLINE
  5
155
330
1F
100
AcDbEntity
  8
0
  6
PHANTOM
 62
     7
370
     0
100
AcDbSpline
210
0.0
220
0.0
230
1.0
 70
     8
 71
     3
 72
    10
 73
     6
 74
     0
 42
0.00000001
 43
0.00000001
 40
0.0
 40
0.0
 40
0.0
 40
0.0
 40
0.3105693514931328
 40
0.7057924388250856
 40
1.0
 40
1.0
 40
1.0
 40
1.0
 10
196.5265401080494
 20
95.52715231714292
 30
0.0
 10
196.491137761443
 20
95.50799751195109
 30
0.0
 10
196.4106832399927
 20
95.4644667623566
 30
0.0
 10
196.3572006370792
 20
95.36898803957325
 30
0.0
 10
196.3484293815049
 20
95.30033280940802
 30
0.0
 10
196.3446863368397
 20
95.27103488383337
 30
0.0
  0
LINE
  5
156
330
1F
100
AcDbEntity
  8
0
  6
PHANTOM
 62
     7
370
     0
100
AcDbLine
 10
196.3446863368
 20
95.2710348838
 30
0.0
 11
196.3095195964
 21
94.5061582798
 31
0.0
  0
LINE
  5
157
330
1F
100
AcDbEntity
  8
0
  6
PHANTOM
 62
     7
370
     0
100
AcDbLine
 10
209.5610849932
 20
121.2990707909
 30
0.0
 11
219.8833130673
 21
110.976841087
 31
0.0
  0
ELLIPSE
  5
158
330
1F
100
AcDbEntity
  8
0
  6
PHANTOM
 62
     7
370
     0
100
AcDbEllipse
 10
219.9297765366
 20
109.5161628074
 30
0.0
 11
-0.05827440475104596
 21
1.466464742208729
 31
0.0
210
0.0
220
0.0
230
0.9999999999999999
 40
0.0855122968
 41
6.190858822457676
 42
7.577605107886339
  0
ARC
  5
159
330
1F
100
AcDbEntity
  8
0
  6
PHANTOM
 62
     7
370
     0
100
AcDbCircle
 10
208.8539752607
 20
120.5919640833
 30
0.0
 40
1.0
100
AcDbArc
 50
45.0
 51
90.0
  0
SPLINE
  5
15A
330
1F
100
AcDbEntity
  8
0
  6
PHANTOM
 62
     7
370
     0
100
AcDbSpline
210
0.0
220
0.0
230
1.0
 70
     8
 71
     3
 72
     9
 73
     5
 74
     0
 42
0.00000001
 43
0.00000001
 40
0.0
 40
0.0
 40
0.0
 40
0.0
 40
0.5007688173809736
 40
1.0
 40
1.0
 40
1.0
 40
1.0
 10
220.1363869384174
 20
87.72782494363828
 30
0.0
 10
220.2791643166775
 20
87.1395673181629
 30
0.0
 10
220.5642806683842
 20
85.96485834057121
 30
0.0
 10
220.862417340465
 20
85.1291447733408
 30
0.0
 10
221.01125646385
 20
84.71193050084158
 30
0.0
  0
LINE
  5
15B
330
1F
100
AcDbEntity
  8
0
  6
PHANTOM
 62
     7
370
     0
100
AcDbLine
 10
221.0112564639
 20
84.7119305008
 30
0.0
 11
220.1413937286
 21
83.8317002827
 31
0.0
  0
LINE
  5
15C
330
1F
100
AcDbEntity
  8
0
  6
PHANTOM
 62
     7
370
     0
100
AcDbLine
 10
222.2921006754
 20
108.5680525476
 30
0.0
 11
222.2921006754
 21
97.704320001
 31
0.0
  0
LINE
  5
15D
330
1F
100
AcDbEntity
  8
0
  6
PHANTOM
 62
     7
370
     0
100
AcDbLine
 10
221.5913512185
 20
98.0653248453
 30
0.0
 11
221.5730749443
 21
98.0834688717
 31
0.0
  0
LINE
  5
15E
330
1F
100
AcDbEntity
  8
0
  6
PHANTOM
 62
     7
370
     0
100
AcDbLine
 10
221.5730749443
 20
98.0834688717
 30
0.0
 11
221.5730749443
 21
97.2749579423
 31
0.0
  0
LINE
  5
15F
330
1F
100
AcDbEntity
  8
0
  6
PHANTOM
 62
     7
370
     0
100
AcDbLine
 10
221.5730749443
 20
97.2749579423
 30
0.0
 11
221.0112564639
 21
97.8325891965
 31
0.0
  0
LINE
  5
160
330
1F
100
AcDbEntity
  8
0
  6
PHANTOM
 62
     7
370
     0
100
AcDbLine
 10
221.0112564639
 20
84.7119305008
 30
0.0
 11
221.0112564639
 21
97.8325891965
 31
0.0
  0
LINE
  5
161
330
1F
100
AcDbEntity
  8
0
  6
PHANTOM
 62
     7
370
     0
100
AcDbLine
 10
222.2921006754
 20
108.5680525476
 30
0.0
 11
219.8833130673
 21
110.976841087
 31
0.0
  0
LINE
  5
162
330
1F
100
AcDbEntity
  8
0
  6
PHANTOM
 62
     7
370
     0
100
AcDbLine
 10
221.5730749443
 20
97.2749579423
 30
0.0
 11
221.3657625392
 21
97.3116185242
 31
0.0
  0
LINE
  5
163
330
1F
100
AcDbEntity
  8
0
  6
PHANTOM
 62
     7
370
     0
100
AcDbLine
 10
207.4583895877
 20
85.6198731535
 30
0.0
 11
207.4524440244
 21
85.2228279882
 31
0.0
  0
LINE
  5
164
330
1F
100
AcDbEntity
  8
0
  6
PHANTOM
 62
     7
370
     0
100
AcDbLine
 10
173.6592591182
 20
88.1298731738
 30
0.0
 11
173.6592591182
 21
89.6375652128
 31
0.0
  0
LINE
  5
165
330
1F
100
AcDbEntity
  8
0
  6
PHANTOM
 62
     7
370
     0
100
AcDbLine
 10
172.8559673205
 20
88.4550239616
 30
0.0
 11
172.8559673205
 21
88.591965633
 31
0.0
  0
SPLINE
  5
166
330
1F
100
AcDbEntity
  8
0
  6
PHANTOM
 62
     7
370
     0
100
AcDbSpline
210
0.0
220
0.0
230
1.0
 70
     8
 71
     3
 72
    33
 73
    29
 74
     0
 42
0.00000001
 43
0.00000001
 40
0.0
 40
0.0
 40
0.0
 40
0.0
 40
0.0584290197056268
 40
0.1188835125383323
 40
0.1815346323542797
 40
0.2029671948155324
 40
0.2246670956221684
 40
0.2466394134931461
 40
0.2697164803493102
 40
0.2938574990476367
 40
0.3190666508320966
 40
0.3453474406015417
 40
0.3727029654818806
 40
0.4057490923154545
 40
0.4482003741219638
 40
0.5000501665412055
 40
0.532303187062672
 40
0.5611706970159226
 40
0.5866521506469264
 40
0.6087473940986531
 40
0.6274563871211721
 40
0.67241772826638
 40
0.714414855467213
 40
0.7534637702202626
 40
0.8184639331301518
 40
0.8811145949408629
 40
0.9415695622444622
 40
1.0
 40
1.0
 40
1.0
 40
1.0
 10
148.0044439807777
 20
118.5919640311365
 30
0.0
 10
148.0435239872007
 20
117.9042406664019
 30
0.0
 10
148.1230387293099
 20
116.5049536397457
 30
0.0
 10
148.7738205831776
 20
114.4512783501523
 30
0.0
 10
149.5857537382504
 20
112.947716436375
 30
0.0
 10
150.3223828570099
 20
111.9453543341224
 30
0.0
 10
150.8167979438255
 20
111.3607966995829
 30
0.0
 10
151.3639866129127
 20
110.7980410156434
 30
0.0
 10
151.9710327762453
 20
110.2562492000712
 30
0.0
 10
152.6463727591201
 20
109.7372024358745
 30
0.0
 10
153.3907192673155
 20
109.250247043953
 30
0.0
 10
154.2042056415635
 20
108.8050447576221
 30
0.0
 10
155.1353304103618
 20
108.3897151980495
 30
0.0
 10
156.2808541701298
 20
107.9990866443966
 30
0.0
 10
157.7458412648904
 20
107.677107872743
 30
0.0
 10
159.2346797652901
 20
107.5628800594922
 30
0.0
 10
160.5621599019539
 20
107.6262076902084
 30
0.0
 10
161.5712043876854
 20
107.766348988965
 30
0.0
 10
162.4487454904509
 20
107.9612477882542
 30
0.0
 10
163.1956985100823
 20
108.1835311740721
 30
0.0
 10
164.1424977114289
 20
108.5293527131702
 30
0.0
 10
165.2663544626912
 20
109.0667211470495
 30
0.0
 10
166.5094425817303
 20
109.8784146612624
 30
0.0
 10
167.8205891832506
 20
110.9907523466687
 30
0.0
 10
169.0994806954094
 20
112.4957565128262
 30
0.0
 10
170.1556322302158
 20
114.4508961791901
 30
0.0
 10
170.8065646140589
 20
116.5049910879288
 30
0.0
 10
170.886057443897
 20
117.9042491562562
 30
0.0
 10
170.9251270070915
 20
118.5919640311365
 30
0.0
  0
SPLINE
  5
167
330
1F
100
AcDbEntity
  8
0
  6
PHANTOM
 62
     7
370
     0
100
AcDbSpline
210
0.0
220
0.0
230
1.0
 70
     8
 71
     3
 72
    26
 73
    22
 74
     0
 42
0.00000001
 43
0.00000001
 40
0.0
 40
0.0
 40
0.0
 40
0.0
 40
0.0470617049246078
 40
0.0941398404509996
 40
0.1411129915760264
 40
0.1880899576032619
 40
0.2409849677465894
 40
0.2938881540355351
 40
0.3469901832991188
 40
0.4000949535606051
 40
0.4553658419140075
 40
0.5106357254577961
 40
0.5670716859443018
 40
0.6235043906410604
 40
0.6798771492662179
 40
0.73624397482973
 40
0.7912682395709396
 40
0.846293673414168
 40
0.8991696484078258
 40
0.9520307699465916
 40
1.0
 40
1.0
 40
1.0
 40
1.0
 10
147.5345209613685
 20
118.5919640311365
 30
0.0
 10
147.5597986226286
 20
118.0231478459034
 30
0.0
 10
147.6103627703111
 20
116.8853168852619
 30
0.0
 10
148.0262749395851
 20
115.2221308710187
 30
0.0
 10
148.672342316232
 20
113.6416821506007
 30
0.0
 10
149.5837854090693
 20
112.1127813520769
 30
0.0
 10
150.7763101839659
 20
110.6942186083129
 30
0.0
 10
152.2426315329764
 20
109.443477178319
 30
0.0
 10
153.8982526174184
 20
108.4526716125182
 30
0.0
 10
155.7161397112926
 20
107.7255484183854
 30
0.0
 10
157.6555268090726
 20
107.3034655299975
 30
0.0
 10
159.6777882563098
 20
107.1968828942011
 30
0.0
 10
161.7032741643851
 20
107.4363428300905
 30
0.0
 10
163.6748568178171
 20
108.0092188420058
 30
0.0
 10
165.516362817772
 20
108.9154443509955
 30
0.0
 10
167.1661126033191
 20
110.108445786728
 30
0.0
 10
168.5649570043909
 20
111.5646357051955
 30
0.0
 10
169.6708695475907
 20
113.2045678721589
 30
0.0
 10
170.4578971101292
 20
114.9864222565911
 30
0.0
 10
170.939182420454
 20
116.7932340008679
 30
0.0
 10
170.9938952703494
 20
118.0120988616803
 30
0.0
 10
171.0199244693165
 20
118.5919640311365
 30
0.0
  0
ARC
  5
168
330
1F
100
AcDbEntity
  8
0
  6
PHANTOM
 62
     7
370
     0
100
AcDbCircle
 10
157.9231611365
 20
118.4053490326
 30
0.0
 40
10.82357957437548
100
AcDbArc
 50
273.6669470897
 51
0.987915463
  0
SPLINE
  5
169
330
1F
100
AcDbEntity
  8
0
  6
PHANTOM
 62
     7
370
     0
100
AcDbSpline
210
0.0
220
0.0
230
1.0
 70
     8
 71
     3
 72
    16
 73
    12
 74
     0
 42
0.00000001
 43
0.00000001
 40
0.0
 40
0.0
 40
0.0
 40
0.0
 40
0.1196877727481886
 40
0.2418136082811582
 40
0.3247588297779665
 40
0.4089652500638966
 40
0.4944977718950682
 40
0.6054731416088385
 40
0.7266636778035196
 40
0.8581516641579461
 40
0.9999999999999999
 40
0.9999999999999999
 40
0.9999999999999999
 40
0.9999999999999999
 10
170.9251940623169
 20
136.5919641875987
 30
0.0
 10
170.8980812341314
 20
137.1656319982713
 30
0.0
 10
170.8433032842731
 20
138.3246533424594
 30
0.0
 10
170.4475172311931
 20
139.8400560295352
 30
0.0
 10
169.9308301184961
 20
141.1267356558154
 30
0.0
 10
169.354309489116
 20
142.1936800178409
 30
0.0
 10
168.5865403858759
 20
143.2997483736575
 30
0.0
 10
167.5631426410752
 20
144.4328835672275
 30
0.0
 10
166.2113742424914
 20
145.5378417883438
 30
0.0
 10
164.5787294741787
 20
146.5130540039871
 30
0.0
 10
163.3352059337975
 20
146.9306866399232
 30
0.0
 10
162.6898773387317
 20
147.147417786098
 30
0.0
  0
ARC
  5
16A
330
1F
100
AcDbEntity
  8
0
  6
PHANTOM
 62
     7
370
     0
100
AcDbCircle
 10
157.9241670008
 20
136.7789878975
 30
0.0
 40
10.82258091480754
100
AcDbArc
 50
359.009829288
 51
86.5156967052
  0
SPLINE
  5
16B
330
1F
100
AcDbEntity
  8
0
  6
PHANTOM
 62
     7
370
     0
100
AcDbSpline
210
0.0
220
0.0
230
1.0
 70
     8
 71
     3
 72
    17
 73
    13
 74
     0
 42
0.00000001
 43
0.00000001
 40
0.0
 40
0.0
 40
0.0
 40
0.0
 40
0.1443854031553985
 40
0.2767707067319235
 40
0.3385306418513767
 40
0.3973062630672501
 40
0.4531084658236734
 40
0.5059497123568586
 40
0.6340096876543545
 40
0.7588712284017016
 40
0.8807800124495223
 40
1.0
 40
1.0
 40
1.0
 40
1.0
 10
156.9628246501331
 20
147.3266266011958
 30
0.0
 10
156.2591675719187
 20
147.1362595909441
 30
0.0
 10
154.9103354699318
 20
146.7713472742255
 30
0.0
 10
153.3962288542042
 20
145.9582570903729
 30
0.0
 10
152.3507475873972
 20
145.230761271426
 30
0.0
 10
151.6648959323772
 20
144.665273001822
 30
0.0
 10
151.0565591947055
 20
144.0806486846766
 30
0.0
 10
150.2598822813384
 20
143.1933557844501
 30
0.0
 10
149.3740799505926
 20
141.9223784205562
 30
0.0
 10
148.5850199548742
 20
140.1997676529181
 30
0.0
 10
148.094608489093
 20
138.4087206415911
 30
0.0
 10
148.0342197167658
 20
137.193031005031
 30
0.0
 10
148.0043620243912
 20
136.5919641875987
 30
0.0
  0
SPLINE
  5
16C
330
1F
100
AcDbEntity
  8
0
  6
PHANTOM
 62
     7
370
     0
100
AcDbSpline
210
0.0
220
0.0
230
1.0
 70
     8
 71
     3
 72
    11
 73
     7
 74
     0
 42
0.00000001
 43
0.00000001
 40
0.0
 40
0.0
 40
0.0
 40
0.0
 40
0.3621736227996162
 40
0.6139544131467233
 40
0.8715209576891242
 40
1.0
 40
1.0
 40
1.0
 40
1.0
 10
156.9628246501331
 20
147.3266266011958
 30
0.0
 10
157.6528695526632
 20
147.4419248442983
 30
0.0
 10
158.8226292659821
 20
147.6373776899078
 30
0.0
 10
160.5199093552048
 20
147.5645592094699
 30
0.0
 10
161.7384744552604
 20
147.3862138278782
 30
0.0
 10
162.4523078923113
 20
147.2070461984548
 30
0.0
 10
162.6898773387317
 20
147.147417786098
 30
0.0
  0
LINE
  5
16D
330
1F
100
AcDbEntity
  8
0
  6
PHANTOM
 62
     7
370
     0
100
AcDbLine
 10
162.6898773387
 20
147.1474177861
 30
0.0
 11
164.4314840809
 21
146.7864818597
 31
0.0
  0
SPLINE
  5
16E
330
1F
100
AcDbEntity
  8
0
  6
PHANTOM
 62
     7
370
     0
100
AcDbSpline
210
0.0
220
0.0
230
1.0
 70
     8
 71
     3
 72
    14
 73
    10
 74
     0
 42
0.00000001
 43
0.00000001
 40
0.0
 40
0.0
 40
0.0
 40
0.0
 40
0.1133150328780677
 40
0.2266469902498469
 40
0.374478283125858
 40
0.5223006853828508
 40
0.6696629667158519
 40
0.8170764969843561
 40
1.0
 40
1.0
 40
1.0
 40
1.0
 10
171.020829714859
 20
136.5919641875987
 30
0.0
 10
171.0015801817299
 20
137.0755870107238
 30
0.0
 10
170.9630782404022
 20
138.0429048898563
 30
0.0
 10
170.633688948284
 20
139.6127050455321
 30
0.0
 10
170.0354512942022
 20
141.2585219655314
 30
0.0
 10
169.0974533410479
 20
142.910743303237
 30
0.0
 10
167.8883376922134
 20
144.3691443037333
 30
0.0
 10
166.3586836754427
 20
145.7359182609136
 30
0.0
 10
165.1170552998726
 20
146.4117988827461
 30
0.0
 10
164.4295059517269
 20
146.7860664897923
 30
0.0
  0
SPLINE
  5
16F
330
1F
100
AcDbEntity
  8
0
  6
PHANTOM
 62
     7
370
     0
100
AcDbSpline
210
0.0
220
0.0
230
1.0
 70
     8
 71
     3
 72
    15
 73
    11
 74
     0
 42
0.00000001
 43
0.00000001
 40
0.0
 40
0.0
 40
0.0
 40
0.0
 40
0.0384406488287363
 40
0.1710084979757745
 40
0.3035584808481849
 40
0.4600020929760327
 40
0.6164357836866804
 40
0.7644571876429206
 40
0.9124513468524609
 40
0.9999999999999999
 40
0.9999999999999999
 40
0.9999999999999999
 40
0.9999999999999999
 10
154.1311197355633
 20
146.7860664897923
 30
0.0
 10
153.9837792804598
 20
146.7139717675703
 30
0.0
 10
153.3283150600049
 20
146.3932485088633
 30
0.0
 10
152.2252843668106
 20
145.7041634575741
 30
0.0
 10
150.8383219666071
 20
144.5499698521065
 30
0.0
 10
149.5916156382823
 20
143.1018065548737
 30
0.0
 10
148.5814029518232
 20
141.4016306939079
 30
0.0
 10
147.9040095789698
 20
139.5857079968344
 30
0.0
 10
147.5766196885306
 20
137.9710201813933
 30
0.0
 10
147.5450676043751
 20
136.9656493751142
 30
0.0
 10
147.5333400443439
 20
136.5919641875987
 30
0.0
  0
LINE
  5
170
330
1F
100
AcDbEntity
  8
0
  6
PHANTOM
 62
     7
370
     0
100
AcDbLine
 10
154.1268431023
 20
146.7870238894
 30
0.0
 11
156.9628246501
 21
147.3266266012
 31
0.0
  0
SPLINE
  5
171
330
1F
100
AcDbEntity
  8
0
  6
PHANTOM
 62
     7
370
     0
100
AcDbSpline
210
0.0
220
0.0
230
1.0
 70
     8
 71
     3
 72
    12
 73
     8
 74
     0
 42
0.00000001
 43
0.00000001
 40
0.0
 40
0.0
 40
0.0
 40
0.0
 40
0.2193376668117716
 40
0.4387319578603968
 40
0.6565833001383019
 40
0.8706608399825517
 40
1.0
 40
1.0
 40
1.0
 40
1.0
 10
179.6592601016407
 20
161.4503737264638
 30
0.0
 10
179.2896177749819
 20
161.4536507298617
 30
0.0
 10
178.5502376947595
 20
161.4602055826492
 30
0.0
 10
177.5636669301875
 20
161.5063073703931
 30
0.0
 10
176.8374103140122
 20
161.5554637832519
 30
0.0
 10
176.439427972849
 20
161.589310811087
 30
0.0
 10
176.4484693551082
 20
161.5885621951593
 30
0.0
 10
176.4518745616321
 20
161.5882802480225
 30
0.0
  0
LINE
  5
172
330
1F
100
AcDbEntity
  8
0
  6
PHANTOM
 62
     7
370
     0
100
AcDbLine
 10
179.4750668481
 20
161.4530596608
 30
0.0
 11
180.3875767067
 21
161.457630592
 31
0.0
  0
SPLINE
  5
173
330
1F
100
AcDbEntity
  8
0
  6
PHANTOM
 62
     7
370
     0
100
AcDbSpline
210
0.0
220
0.0
230
1.0
 70
     8
 71
     3
 72
    13
 73
     9
 74
     0
 42
0.00000001
 43
0.00000001
 40
0.0
 40
0.0
 40
0.0
 40
0.0
 40
0.0130684186626898
 40
0.2216582223224653
 40
0.4303327692610459
 40
0.6416661206758065
 40
0.8568545248435068
 40
1.0
 40
1.0
 40
1.0
 40
1.0
 10
182.8987650946026
 20
161.5910704904561
 30
0.0
 10
182.9022373294689
 20
161.5913658978797
 30
0.0
 10
182.9611311733079
 20
161.596376411092
 30
0.0
 10
182.7421197629601
 20
161.5771962597399
 30
0.0
 10
182.2350356853851
 20
161.5372841775768
 30
0.0
 10
181.4061264010502
 20
161.4875916708673
 30
0.0
 10
180.5033664472868
 20
161.4552957283936
 30
0.0
 10
179.9002072171112
 20
161.4517786941831
 30
0.0
 10
179.6592601016407
 20
161.4503737264638
 30
0.0
  0
SPLINE
  5
174
330
1F
100
AcDbEntity
  8
0
  6
PHANTOM
 62
     7
370
     0
100
AcDbSpline
210
0.0
220
0.0
230
1.0
 70
     8
 71
     3
 72
    12
 73
     8
 74
     0
 42
0.00000001
 43
0.00000001
 40
0.0
 40
0.0
 40
0.0
 40
0.0
 40
0.0306002944285384
 40
0.348152907097757
 40
0.6441558461320348
 40
0.9994641073449488
 40
1.0
 40
1.0
 40
1.0
 40
1.0
 10
193.3345400169735
 20
161.583068566895
 30
0.0
 10
193.3332154178904
 20
161.5859117639709
 30
0.0
 10
193.3181448759201
 20
161.6182600581926
 30
0.0
 10
193.3747612531018
 20
161.4955239464141
 30
0.0
 10
193.5173389093277
 20
161.1946871276753
 30
0.0
 10
193.6964983399423
 20
160.8385126489574
 30
0.0
 10
193.8317445506954
 20
160.6084432447885
 30
0.0
 10
193.8319482282047
 20
160.6080967658524
 30
0.0
  0
LINE
  5
175
330
1F
100
AcDbEntity
  8
0
  6
PHANTOM
 62
     7
370
     0
100
AcDbLine
 10
164.4331492856
 20
146.7860664898
 30
0.0
 11
176.5533812717
 21
146.7860664898
 31
0.0
  0
LINE
  5
176
330
1F
100
AcDbEntity
  8
0
  6
PHANTOM
 62
     7
370
     0
100
AcDbLine
 10
136.6592586413
 20
146.7860664898
 30
0.0
 11
154.1233785823
 21
146.7860664898
 31
0.0
  0
ARC
  5
177
330
1F
100
AcDbEntity
  8
0
  6
PHANTOM
 62
     7
370
     0
100
AcDbCircle
 10
107.559259446
 20
125.5919640833
 30
0.0
 40
35.99999999999991
100
AcDbArc
 50
36.0665882598
 51
38.6885302761
  0
LINE
  5
178
330
1F
100
AcDbEntity
  8
0
  6
PHANTOM
 62
     7
370
     0
100
AcDbLine
 10
135.6592603401
 20
154.9441244179
 30
0.0
 11
135.6592603401
 21
148.0950757587
 31
0.0
  0
ELLIPSE
  5
179
330
1F
100
AcDbEntity
  8
0
  6
PHANTOM
 62
     7
370
     0
100
AcDbEllipse
 10
141.2442534762
 20
125.5919640833
 30
0.0
 11
0.0
 21
36.0
 31
0.0
210
0.0
220
0.0
230
1.0
 40
0.2679491924
 41
0.5097689546557118
 42
0.6174839892478213
  0
ELLIPSE
  5
17A
330
1F
100
AcDbEntity
  8
0
  6
PHANTOM
 62
     7
370
     0
100
AcDbEllipse
 10
202.0985465743
 20
125.5919640833
 30
0.0
 11
134.3538290724862
 21
0.0
 31
0.0
210
0.0
220
0.0
230
1.0
 40
0.2679491924
 41
2.074125427481077
 42
2.080565281450612
  0
ARC
  5
17B
330
1F
100
AcDbEntity
  8
0
  6
PHANTOM
 62
     7
370
     0
100
AcDbCircle
 10
119.9293247649
 20
125.5919640833
 30
0.0
 40
35.99999999999981
100
AcDbArc
 50
56.7876519512
 51
61.1613668246
  0
SPLINE
  5
17C
330
1F
100
AcDbEntity
  8
0
  6
PHANTOM
 62
     7
370
     0
100
AcDbSpline
210
0.0
220
0.0
230
1.0
 70
     8
 71
     3
 72
    14
 73
    10
 74
     0
 42
0.00000001
 43
0.00000001
 40
0.0
 40
0.0
 40
0.0
 40
0.0
 40
0.2296612648802457
 40
0.3885123928793956
 40
0.548243461759121
 40
0.6863092869402018
 40
0.8133275355679705
 40
0.945109607031143
 40
1.0
 40
1.0
 40
1.0
 40
1.0
 10
140.21525125953
 20
155.8101780438189
 30
0.0
 10
140.1965601705427
 20
155.78002577093
 30
0.0
 10
140.1649409085318
 20
155.7290179020281
 30
0.0
 10
140.0652090092415
 20
155.6742389612996
 30
0.0
 10
139.9592377999078
 20
155.6467339680518
 30
0.0
 10
139.8501565748822
 20
155.6440413557108
 30
0.0
 10
139.7539024240712
 20
155.6610631866449
 30
0.0
 10
139.6884918141165
 20
155.6864782955183
 30
0.0
 10
139.657272505261
 20
155.7056061335422
 30
0.0
 10
139.6480925753956
 20
155.7112306082015
 30
0.0
  0
ELLIPSE
  5
17D
330
1F
100
AcDbEntity
  8
0
  6
PHANTOM
 62
     7
370
     0
100
AcDbEllipse
 10
145.4581581954
 20
125.5919640833
 30
0.0
 11
0.0
 21
36.0
 31
0.0
210
0.0
220
0.0
230
1.0
 40
0.2679491924
 41
0.4714575689334131
 42
0.5746275182041893
  0
ELLIPSE
  5
17E
330
1F
100
AcDbEntity
  8
0
  6
PHANTOM
 62
     7
370
     0
100
AcDbEllipse
 10
202.0985465747
 20
125.5919640833
 30
0.0
 11
134.3538290733153
 21
0.0
 31
0.0
210
0.0
220
0.0
230
1.0
 40
0.2679491924
 41
2.035943309577282
 42
2.042253895728293
  0
ARC
  5
17F
330
1F
100
AcDbEntity
  8
0
  6
PHANTOM
 62
     7
370
     0
100
AcDbCircle
 10
125.6856256604
 20
125.5919640833
 30
0.0
 40
35.99999999999927
100
AcDbArc
 50
59.0724835298
 51
63.3490410333
  0
SPLINE
  5
180
330
1F
100
AcDbEntity
  8
0
  6
PHANTOM
 62
     7
370
     0
100
AcDbSpline
210
0.0
220
0.0
230
1.0
 70
     8
 71
     3
 72
    14
 73
    10
 74
     0
 42
0.00000001
 43
0.00000001
 40
0.0
 40
0.0
 40
0.0
 40
0.0
 40
0.1886992120503159
 40
0.3782468387193228
 40
0.5443865408413887
 40
0.6858779290504753
 40
0.8172873321016548
 40
0.9529715822190346
 40
1.0
 40
1.0
 40
1.0
 40
1.0
 10
144.7551004961376
 20
156.5639625960355
 30
0.0
 10
144.7403504691268
 20
156.5410164684096
 30
0.0
 10
144.7107840971889
 20
156.495021044576
 30
0.0
 10
144.6154143620427
 20
156.4423228500439
 30
0.0
 10
144.5010768276093
 20
156.4144683070759
 30
0.0
 10
144.3894745034889
 20
156.411840860017
 30
0.0
 10
144.2912040356721
 20
156.4280084319304
 30
0.0
 10
144.2263367766815
 20
156.451701977516
 30
0.0
 10
144.1958028124119
 20
156.4689738163402
 30
0.0
 10
144.1879436746483
 20
156.4734194153313
 30
0.0
  0
ELLIPSE
  5
181
330
1F
100
AcDbEntity
  8
0
  6
PHANTOM
 62
     7
370
     0
100
AcDbEllipse
 10
149.6720629146
 20
125.5919640833
 30
0.0
 11
0.0
 21
36.0
 31
0.0
210
0.0
220
0.0
230
1.0
 40
0.2679491924
 41
0.4338806822494102
 42
0.5348731437643952
  0
ELLIPSE
  5
182
330
1F
100
AcDbEntity
  8
0
  6
PHANTOM
 62
     7
370
     0
100
AcDbEllipse
 10
202.0985465743
 20
125.5919640833
 30
0.0
 11
134.3538290724748
 21
0.0
 31
0.0
210
0.0
220
0.0
230
1.0
 40
0.2679491924
 41
1.998479653272302
 42
2.004677009044306
  0
ARC
  5
183
330
1F
100
AcDbEntity
  8
0
  6
PHANTOM
 62
     7
370
     0
100
AcDbCircle
 10
131.441926556
 20
125.5919640833
 30
0.0
 40
35.9999999999994
100
AcDbArc
 50
61.3039505588
 51
65.4955504247
  0
SPLINE
  5
184
330
1F
100
AcDbEntity
  8
0
  6
PHANTOM
 62
     7
370
     0
100
AcDbSpline
210
0.0
220
0.0
230
1.0
 70
     8
 71
     3
 72
    14
 73
    10
 74
     0
 42
0.00000001
 43
0.00000001
 40
0.0
 40
0.0
 40
0.0
 40
0.0
 40
0.1839790661685772
 40
0.3686417354680399
 40
0.5344054858809953
 40
0.6791914718434378
 40
0.8147127225226451
 40
0.9535315669485835
 40
1.0
 40
1.0
 40
1.0
 40
1.0
 10
149.2949515953903
 20
157.25313012538
 30
0.0
 10
149.2804371866782
 20
157.2324473544512
 30
0.0
 10
149.2513544386876
 20
157.1910049625081
 30
0.0
 10
149.1582752069999
 20
157.143285559572
 30
0.0
 10
149.0459248220251
 20
157.1171740667435
 30
0.0
 10
148.9336083591886
 20
157.1137933155487
 30
0.0
 10
148.8330564774501
 20
157.1283167980588
 30
0.0
 10
148.7666718491969
 20
157.1503228856271
 30
0.0
 10
148.735589864544
 20
157.1663884111989
 30
0.0
 10
148.727794773901
 20
157.1704175048833
 30
0.0
  0
ELLIPSE
  5
185
330
1F
100
AcDbEntity
  8
0
  6
PHANTOM
 62
     7
370
     0
100
AcDbEllipse
 10
153.8859676337
 20
125.5919640833
 30
0.0
 11
0.0
 21
36.0
 31
0.0
210
0.0
220
0.0
230
1.0
 40
0.2679491924
 41
0.3969472873612976
 42
0.4960344046174244
  0
ELLIPSE
  5
186
330
1F
100
AcDbEntity
  8
0
  6
PHANTOM
 62
     7
370
     0
100
AcDbEllipse
 10
202.0985465743
 20
125.5919640833
 30
0.0
 11
134.3538290724748
 21
0.0
 31
0.0
210
0.0
220
0.0
230
1.0
 40
0.2679491924
 41
1.961645455217777
 42
1.967743614156196
  0
ARC
  5
187
330
1F
100
AcDbEntity
  8
0
  6
PHANTOM
 62
     7
370
     0
100
AcDbCircle
 10
137.1982274515
 20
125.5919640833
 30
0.0
 40
35.99999999999948
100
AcDbArc
 50
63.4887994194
 51
67.605994515
  0
SPLINE
  5
188
330
1F
100
AcDbEntity
  8
0
  6
PHANTOM
 62
     7
370
     0
100
AcDbSpline
210
0.0
220
0.0
230
1.0
 70
     8
 71
     3
 72
    14
 73
    10
 74
     0
 42
0.00000001
 43
0.00000001
 40
0.0
 40
0.0
 40
0.0
 40
0.0
 40
0.1799780111051768
 40
0.3604986982131244
 40
0.5257931885445519
 40
0.6733753698840346
 40
0.8126418936979384
 40
0.9544345675187648
 40
1.0
 40
1.0
 40
1.0
 40
1.0
 10
153.8348064199333
 20
157.8818212920193
 30
0.0
 10
153.8204856494031
 20
157.8631871802746
 30
0.0
 10
153.7918009278538
 20
157.8258627705587
 30
0.0
 10
153.7006237322673
 20
157.7827201634848
 30
0.0
 10
153.5899448101919
 20
157.7584371035299
 30
0.0
 10
153.4770645977427
 20
157.7545987749463
 30
0.0
 10
153.3745074912192
 20
157.7676364126978
 30
0.0
 10
153.3068381248107
 20
157.787990044375
 30
0.0
 10
153.2753128178772
 20
157.802845763151
 30
0.0
 10
153.2676458731537
 20
157.8064586692815
 30
0.0
  0
ELLIPSE
  5
189
330
1F
100
AcDbEntity
  8
0
  6
PHANTOM
 62
     7
370
     0
100
AcDbEllipse
 10
158.0998723529
 20
125.5919640833
 30
0.0
 11
0.0
 21
35.99999999999997
 31
0.0
210
0.0
220
0.0
230
1.0
 40
0.2679491924
 41
0.360577370144181
 42
0.4579958315740696
  0
ELLIPSE
  5
18A
330
1F
100
AcDbEntity
  8
0
  6
PHANTOM
 62
     7
370
     0
100
AcDbEllipse
 10
202.0985465743
 20
125.5919640833
 30
0.0
 11
134.3538290724748
 21
0.0
 31
0.0
210
0.0
220
0.0
230
1.0
 40
0.2679491924
 41
1.925362312271269
 42
1.931373696939079
  0
ARC
  5
18B
330
1F
100
AcDbEntity
  8
0
  6
PHANTOM
 62
     7
370
     0
100
AcDbCircle
 10
142.954528347
 20
125.5919640833
 30
0.0
 40
35.99999999999957
100
AcDbArc
 50
65.6328337458
 51
69.6848654733
  0
SPLINE
  5
18C
330
1F
100
AcDbEntity
  8
0
  6
PHANTOM
 62
     7
370
     0
100
AcDbSpline
210
0.0
220
0.0
230
1.0
 70
     8
 71
     3
 72
    14
 73
    10
 74
     0
 42
0.00000001
 43
0.00000001
 40
0.0
 40
0.0
 40
0.0
 40
0.0
 40
0.176562518122434
 40
0.3535702177813796
 40
0.518342694751295
 40
0.6683205230150324
 40
0.8109754398849186
 40
0.9555526066468375
 40
1.0
 40
1.0
 40
1.0
 40
1.0
 10
158.374657519186
 20
158.453500615931
 30
0.0
 10
158.3605001043856
 20
158.4367477625072
 30
0.0
 10
158.3321495785353
 20
158.4031998153182
 30
0.0
 10
158.2425602515854
 20
158.3642930013276
 30
0.0
 10
158.1332907475379
 20
158.3418899691573
 30
0.0
 10
158.0199571479347
 20
158.3378070195512
 30
0.0
 10
157.9156367865166
 20
158.3494957226923
 30
0.0
 10
157.8468786639865
 20
158.3682234139129
 30
0.0
 10
157.814994290652
 20
158.3818815294547
 30
0.0
 10
157.8074969724064
 20
158.3850931101803
 30
0.0
  0
ELLIPSE
  5
18D
330
1F
100
AcDbEntity
  8
0
  6
PHANTOM
 62
     7
370
     0
100
AcDbEllipse
 10
162.3137770721
 20
125.5919640833
 30
0.0
 11
0.0
 21
35.99999999999997
 31
0.0
210
0.0
220
0.0
230
1.0
 40
0.2679491924
 41
0.3246997814990852
 42
0.4206579287433392
  0
ELLIPSE
  5
18E
330
1F
100
AcDbEntity
  8
0
  6
PHANTOM
 62
     7
370
     0
100
AcDbEllipse
 10
202.0985465743
 20
125.5919640833
 30
0.0
 11
134.3538290724748
 21
0.0
 31
0.0
210
0.0
220
0.0
230
1.0
 40
0.2679491924
 41
1.889560379908601
 42
1.895496108293981
  0
ARC
  5
18F
330
1F
100
AcDbEntity
  8
0
  6
PHANTOM
 62
     7
370
     0
100
AcDbCircle
 10
148.7108292426
 20
125.5919640833
 30
0.0
 40
35.99999999999964
100
AcDbArc
 50
67.7411097069
 51
71.7361650961
  0
SPLINE
  5
190
330
1F
100
AcDbEntity
  8
0
  6
PHANTOM
 62
     7
370
     0
100
AcDbSpline
210
0.0
220
0.0
230
1.0
 70
     8
 71
     3
 72
    14
 73
    10
 74
     0
 42
0.00000001
 43
0.00000001
 40
0.0
 40
0.0
 40
0.0
 40
0.0
 40
0.1736483368790196
 40
0.3476557478709992
 40
0.5119070857103855
 40
0.6639346018066015
 40
0.8096416461694022
 40
0.9568035995795664
 40
0.9999999999999999
 40
0.9999999999999999
 40
0.9999999999999999
 40
0.9999999999999999
 10
162.9145086184387
 20
158.9711036258702
 30
0.0
 10
162.9004864289617
 20
158.9560934442389
 30
0.0
 10
162.8724130545946
 20
158.9260420425698
 30
0.0
 10
162.7841602378472
 20
158.8910885870027
 30
0.0
 10
162.6760804723661
 20
158.8705823316807
 30
0.0
 10
162.5623737613062
 20
158.8664266633839
 30
0.0
 10
162.4565041880985
 20
158.8768846313363
 30
0.0
 10
162.386820236459
 20
158.8940048806198
 30
0.0
 10
162.3546485243586
 20
158.9064780746757
 30
0.0
 10
162.3473480716591
 20
158.9093085103993
 30
0.0
  0
ELLIPSE
  5
191
330
1F
100
AcDbEntity
  8
0
  6
PHANTOM
 62
     7
370
     0
100
AcDbEllipse
 10
166.5276817913
 20
125.5919640833
 30
0.0
 11
0.0
 21
35.99999999999997
 31
0.0
210
0.0
220
0.0
230
1.0
 40
0.2679491924
 41
0.2892505666682669
 42
0.3839338830659192
  0
ELLIPSE
  5
192
330
1F
100
AcDbEntity
  8
0
  6
PHANTOM
 62
     7
370
     0
100
AcDbEllipse
 10
202.0985465743
 20
125.5919640833
 30
0.0
 11
134.3538290724864
 21
0.0
 31
0.0
210
0.0
220
0.0
230
1.0
 40
0.2679491924
 41
1.854176764981753
 42
1.860046893463165
  0
ARC
  5
193
330
1F
100
AcDbEntity
  8
0
  6
PHANTOM
 62
     7
370
     0
100
AcDbCircle
 10
154.4671301381
 20
125.5919640833
 30
0.0
 40
35.99999999999972
100
AcDbArc
 50
69.8180845899
 51
73.7634968953
  0
SPLINE
  5
194
330
1F
100
AcDbEntity
  8
0
  6
PHANTOM
 62
     7
370
     0
100
AcDbSpline
210
0.0
220
0.0
230
1.0
 70
     8
 71
     3
 72
    14
 73
    10
 74
     0
 42
0.00000001
 43
0.00000001
 40
0.0
 40
0.0
 40
0.0
 40
0.0
 40
0.1711629655904572
 40
0.3426068083592032
 40
0.5063551051985993
 40
0.660135609226694
 40
0.8085785832635509
 40
0.9581121012484244
 40
1.0
 40
1.0
 40
1.0
 40
1.0
 10
167.4543597176914
 20
159.4371076398854
 30
0.0
 10
167.4404480308625
 20
159.4237263920638
 30
0.0
 10
167.412601828228
 20
159.3969419378904
 30
0.0
 10
167.3254787557671
 20
159.365716467089
 30
0.0
 10
167.2184061215995
 20
159.3470982866666
 30
0.0
 10
167.1043902521903
 20
159.3430173810916
 30
0.0
 10
166.9971602008517
 20
159.3523248698544
 30
0.0
 10
166.926694617409
 20
159.3678658426454
 30
0.0
 10
166.8942901062247
 20
159.3791623725634
 30
0.0
 10
166.8871991709118
 20
159.381634342051
 30
0.0
  0
ELLIPSE
  5
195
330
1F
100
AcDbEntity
  8
0
  6
PHANTOM
 62
     7
370
     0
100
AcDbEllipse
 10
170.7415865105
 20
125.5919640833
 30
0.0
 11
0.0
 21
35.99999999999997
 31
0.0
210
0.0
220
0.0
230
1.0
 40
0.2679491924
 41
0.2541716318708309
 42
0.3477470548109192
  0
ELLIPSE
  5
196
330
1F
100
AcDbEntity
  8
0
  6
PHANTOM
 62
     7
370
     0
100
AcDbEllipse
 10
202.0985465743
 20
125.5919640833
 30
0.0
 11
134.3538290724794
 21
0.0
 31
0.0
210
0.0
220
0.0
230
1.0
 40
0.2679491924
 41
1.819154239516401
 42
1.824967958665729
  0
ARC
  5
197
330
1F
100
AcDbEntity
  8
0
  6
PHANTOM
 62
     7
370
     0
100
AcDbCircle
 10
160.2234310337
 20
125.5919640833
 30
0.0
 40
35.99999999999977
100
AcDbArc
 50
71.8677319245
 51
75.7701397924
  0
SPLINE
  5
198
330
1F
100
AcDbEntity
  8
0
  6
PHANTOM
 62
     7
370
     0
100
AcDbSpline
210
0.0
220
0.0
230
1.0
 70
     8
 71
     3
 72
    14
 73
    10
 74
     0
 42
0.00000001
 43
0.00000001
 40
0.0
 40
0.0
 40
0.0
 40
0.0
 40
0.1690413200289824
 40
0.338302186492478
 40
0.5015756898246432
 40
0.6568666079190503
 40
0.8077410106740643
 40
0.9594262482834992
 40
0.9999999999999999
 40
0.9999999999999999
 40
0.9999999999999999
 40
0.9999999999999999
 10
171.9942108169441
 20
159.8536174469952
 30
0.0
 10
171.9803926750387
 20
159.8417738450803
 30
0.0
 10
171.9527384445873
 20
159.8180712590908
 30
0.0
 10
171.8665617510362
 20
159.7903781317211
 30
0.0
 10
171.7603394273485
 20
159.7736410424511
 30
0.0
 10
171.6460617596763
 20
159.769739674354
 30
0.0
 10
171.5376400543942
 20
159.7779662943575
 30
0.0
 10
171.4665143634865
 20
159.7919534176069
 30
0.0
 10
171.4339273370108
 20
159.8020886414402
 30
0.0
 10
171.4270502701645
 20
159.8042275482182
 30
0.0
  0
ELLIPSE
  5
199
330
1F
100
AcDbEntity
  8
0
  6
PHANTOM
 62
     7
370
     0
100
AcDbEllipse
 10
174.9554912297
 20
125.5919640833
 30
0.0
 11
0.0
 21
35.99999999999997
 31
0.0
210
0.0
220
0.0
230
1.0
 40
0.2679491924
 41
0.2194096628056338
 42
0.3120290289628035
  0
ELLIPSE
  5
19A
330
1F
100
AcDbEntity
  8
0
  6
PHANTOM
 62
     7
370
     0
100
AcDbEllipse
 10
202.0985465743
 20
125.5919640833
 30
0.0
 11
134.3538290724784
 21
0.0
 31
0.0
210
0.0
220
0.0
230
1.0
 40
0.2679491924
 41
1.78408435055015
 42
1.790205989600532
  0
LINE
  5
19B
330
1F
100
AcDbEntity
  8
0
  6
PHANTOM
 62
     7
370
     0
100
AcDbLine
 10
173.6592591182
 20
161.5919645601
 30
0.0
 11
173.6592591182
 21
160.7762116664
 31
0.0
  0
LINE
  5
19C
330
1F
100
AcDbEntity
  8
0
  6
PHANTOM
 62
     7
370
     0
100
AcDbLine
 10
195.1790132001
 20
161.4628236466
 30
0.0
 11
195.4450436309
 21
161.4802095765
 31
0.0
  0
LINE
  5
19D
330
1F
100
AcDbEntity
  8
0
  6
PHANTOM
 62
     7
370
     0
100
AcDbLine
 10
195.1790132001
 20
161.4628236466
 30
0.0
 11
195.187596269
 21
161.52035703
 31
0.0
  0
SPLINE
  5
19E
330
1F
100
AcDbEntity
  8
0
  6
PHANTOM
 62
     7
370
     0
100
AcDbSpline
210
0.0
220
0.0
230
1.0
 70
     8
 71
     3
 72
    11
 73
     7
 74
     0
 42
0.00000001
 43
0.00000001
 40
0.0
 40
0.0
 40
0.0
 40
0.0
 40
0.2491405353743488
 40
0.3747234992504794
 40
0.5004759247485535
 40
1.0
 40
1.0
 40
1.0
 40
1.0
 10
141.2823364511375
 20
115.4337104135518
 30
0.0
 10
141.2691236795396
 20
115.3206705162521
 30
0.0
 10
141.2492508154128
 20
115.1506511903829
 30
0.0
 10
141.1009109969752
 20
114.9775795094858
 30
0.0
 10
140.8202538353821
 20
114.7918961430507
 30
0.0
 10
140.5343663594886
 20
114.7769675358342
 30
0.0
 10
140.3059751168136
 20
114.7650412940745
 30
0.0
  0
SPLINE
  5
19F
330
1F
100
AcDbEntity
  8
0
  6
PHANTOM
 62
     7
370
     0
100
AcDbSpline
210
0.0
220
0.0
230
1.0
 70
     8
 71
     3
 72
    11
 73
     7
 74
     0
 42
0.00000001
 43
0.00000001
 40
0.0
 40
0.0
 40
0.0
 40
0.0
 40
0.4996102319528152
 40
0.6253662708919614
 40
0.7509495425758058
 40
1.0
 40
1.0
 40
1.0
 40
1.0
 10
140.3059751168136
 20
116.0983739146356
 30
0.0
 10
140.5338282075421
 20
116.0866706985543
 30
0.0
 10
140.8190338109244
 20
116.0720216859237
 30
0.0
 10
141.0998215015657
 20
115.8879787797564
 30
0.0
 10
141.2488721292522
 20
115.716153205238
 30
0.0
 10
141.2689734304728
 20
115.5464958712956
 30
0.0
 10
141.2823364511375
 20
115.4337104135518
 30
0.0
  0
SPLINE
  5
1A0
330
1F
100
AcDbEntity
  8
0
  6
PHANTOM
 62
     7
370
     0
100
AcDbSpline
210
0.0
220
0.0
230
1.0
 70
     8
 71
     3
 72
    11
 73
     7
 74
     0
 42
0.00000001
 43
0.00000001
 40
0.0
 40
0.0
 40
0.0
 40
0.0
 40
0.2491325677779706
 40
0.3747122572191716
 40
0.500450182552075
 40
0.9999999999999999
 40
0.9999999999999999
 40
0.9999999999999999
 40
0.9999999999999999
 10
139.3336184695606
 20
115.4337104135518
 30
0.0
 10
139.3467096076381
 20
115.5462809898897
 30
0.0
 10
139.3663995660499
 20
115.7155947617994
 30
0.0
 10
139.5144918682257
 20
115.8875254613834
 30
0.0
 10
139.7939118550258
 20
116.0722388704394
 30
0.0
 10
140.0785635171371
 20
116.0867671217805
 30
0.0
 10
140.3059751168136
 20
116.0983739146356
 30
0.0
  0
SPLINE
  5
1A1
330
1F
100
AcDbEntity
  8
0
  6
PHANTOM
 62
     7
370
     0
100
AcDbSpline
210
0.0
220
0.0
230
1.0
 70
     8
 71
     3
 72
    11
 73
     7
 74
     0
 42
0.00000001
 43
0.00000001
 40
0.0
 40
0.0
 40
0.0
 40
0.0
 40
0.4994604516214772
 40
0.625201014144957
 40
0.7508022605825893
 40
1.0
 40
1.0
 40
1.0
 40
1.0
 10
140.3059751168136
 20
114.7650412940745
 30
0.0
 10
140.0781132758101
 20
114.7770475608724
 30
0.0
 10
139.7928865804473
 20
114.7920764388421
 30
0.0
 10
139.5130440107277
 20
114.9777526659569
 30
0.0
 10
139.3658829755033
 20
115.1512178699296
 30
0.0
 10
139.3465035402969
 20
115.3208949124092
 30
0.0
 10
139.3336184695606
 20
115.4337104135518
 30
0.0
  0
LINE
  5
1A2
330
1F
100
AcDbEntity
  8
0
  6
PHANTOM
 62
     7
370
     0
100
AcDbLine
 10
141.2823364511
 20
118.4505375759
 30
0.0
 11
141.2823364511
 21
118.277861523
 31
0.0
  0
SPLINE
  5
1A3
330
1F
100
AcDbEntity
  8
0
  6
PHANTOM
 62
     7
370
     0
100
AcDbSpline
210
0.0
220
0.0
230
1.0
 70
     8
 71
     3
 72
    11
 73
     7
 74
     0
 42
0.00000001
 43
0.00000001
 40
0.0
 40
0.0
 40
0.0
 40
0.0
 40
0.2810644033420754
 40
0.560363292943159
 40
0.779677790680128
 40
1.0
 40
1.0
 40
1.0
 40
1.0
 10
140.9233618900423
 20
118.9445282989506
 30
0.0
 10
140.9265641278219
 20
118.8808407405244
 30
0.0
 10
140.9329484884369
 20
118.7538656788131
 30
0.0
 10
140.9986388746507
 20
118.5821939882697
 30
0.0
 10
141.1333850822093
 20
118.4767982839755
 30
0.0
 10
141.2326101820181
 20
118.4593045113576
 30
0.0
 10
141.2823364511375
 20
118.4505375759069
 30
0.0
  0
LINE
  5
1A4
330
1F
100
AcDbEntity
  8
0
  6
PHANTOM
 62
     7
370
     0
100
AcDbLine
 10
140.7182343677
 20
118.944528299
 30
0.0
 11
140.92336189
 21
118.944528299
 31
0.0
  0
LINE
  5
1A5
330
1F
100
AcDbEntity
  8
0
  6
PHANTOM
 62
     7
370
     0
100
AcDbLine
 10
140.7182343677
 20
118.5086306841
 30
0.0
 11
140.7182343677
 21
118.944528299
 31
0.0
  0
LINE
  5
1A6
330
1F
100
AcDbEntity
  8
0
  6
PHANTOM
 62
     7
370
     0
100
AcDbLine
 10
139.3592596427
 20
118.5086306841
 30
0.0
 11
140.7182343677
 21
118.5086306841
 31
0.0
  0
LINE
  5
1A7
330
1F
100
AcDbEntity
  8
0
  6
PHANTOM
 62
     7
370
     0
100
AcDbLine
 10
139.3592596427
 20
118.277861523
 30
0.0
 11
139.3592596427
 21
118.5086306841
 31
0.0
  0
LINE
  5
1A8
330
1F
100
AcDbEntity
  8
0
  6
PHANTOM
 62
     7
370
     0
100
AcDbLine
 10
141.2823364511
 20
118.277861523
 30
0.0
 11
139.3592596427
 21
118.277861523
 31
0.0
  0
SPLINE
  5
1A9
330
1F
100
AcDbEntity
  8
0
  6
PHANTOM
 62
     7
370
     0
100
AcDbSpline
210
0.0
220
0.0
230
1.0
 70
     8
 71
     3
 72
     9
 73
     5
 74
     0
 42
0.00000001
 43
0.00000001
 40
0.0
 40
0.0
 40
0.0
 40
0.0
 40
0.5599667200870363
 40
1.0
 40
1.0
 40
1.0
 40
1.0
 10
139.3336184695606
 20
120.0494959676032
 30
0.0
 10
139.3388465492517
 20
120.1478129616781
 30
0.0
 10
139.348182960691
 20
120.3233894567591
 30
0.0
 10
139.4532502089476
 20
120.4628767567031
 30
0.0
 10
139.4994832948093
 20
120.5242558108036
 30
0.0
  0
SPLINE
  5
1AA
330
1F
100
AcDbEntity
  8
0
  6
PHANTOM
 62
     7
370
     0
100
AcDbSpline
210
0.0
220
0.0
230
1.0
 70
     8
 71
     3
 72
    11
 73
     7
 74
     0
 42
0.00000001
 43
0.00000001
 40
0.0
 40
0.0
 40
0.0
 40
0.0
 40
0.280689115874995
 40
0.5595495808521432
 40
0.7793501714788117
 40
1.0
 40
1.0
 40
1.0
 40
1.0
 10
140.0888260826711
 20
119.3547847406332
 30
0.0
 10
139.9796037664315
 20
119.3614465245616
 30
0.0
 10
139.7618707022864
 20
119.3747266918145
 30
0.0
 10
139.4925364264066
 20
119.5417897558685
 30
0.0
 10
139.3505336306705
 20
119.792493563402
 30
0.0
 10
139.3392640995713
 20
119.9637184525947
 30
0.0
 10
139.3336184695606
 20
120.0494959676032
 30
0.0
  0
SPLINE
  5
1AB
330
1F
100
AcDbEntity
  8
0
  6
PHANTOM
 62
     7
370
     0
100
AcDbSpline
210
0.0
220
0.0
230
1.0
 70
     8
 71
     3
 72
     9
 73
     5
 74
     0
 42
0.00000001
 43
0.00000001
 40
0.0
 40
0.0
 40
0.0
 40
0.0
 40
0.5587362063421696
 40
1.0
 40
1.0
 40
1.0
 40
1.0
 10
140.5896280333643
 20
119.48018546266
 30
0.0
 10
140.5010092409907
 20
119.4367663796507
 30
0.0
 10
140.3424034600019
 20
119.3590569301528
 30
0.0
 10
140.166462470957
 20
119.3560927333566
 30
0.0
 10
140.0888260826711
 20
119.3547847406332
 30
0.0
  0
LINE
  5
1AC
330
1F
100
AcDbEntity
  8
0
  6
PHANTOM
 62
     7
370
     0
100
AcDbLine
 10
140.7803330943
 20
119.3211309337
 30
0.0
 11
140.5896280334
 21
119.4801854627
 31
0.0
  0
LINE
  5
1AD
330
1F
100
AcDbEntity
  8
0
  6
PHANTOM
 62
     7
370
     0
100
AcDbLine
 10
140.8572566137
 20
119.4052652181
 30
0.0
 11
140.7803330943
 21
119.3211309337
 31
0.0
  0
LINE
  5
1AE
330
1F
100
AcDbEntity
  8
0
  6
PHANTOM
 62
     7
370
     0
100
AcDbLine
 10
140.6749651209
 20
119.5559061789
 30
0.0
 11
140.8572566137
 21
119.4052652181
 31
0.0
  0
SPLINE
  5
1AF
330
1F
100
AcDbEntity
  8
0
  6
PHANTOM
 62
     7
370
     0
100
AcDbSpline
210
0.0
220
0.0
230
1.0
 70
     8
 71
     3
 72
     9
 73
     5
 74
     0
 42
0.00000001
 43
0.00000001
 40
0.0
 40
0.0
 40
0.0
 40
0.0
 40
0.5598527079948727
 40
1.0
 40
1.0
 40
1.0
 40
1.0
 10
140.8464383706693
 20
120.0362749123339
 30
0.0
 10
140.8399038441781
 20
119.9368495216375
 30
0.0
 10
140.8282319769208
 20
119.7592574705915
 30
0.0
 10
140.7218075459648
 20
119.6180557388016
 30
0.0
 10
140.6749651208763
 20
119.5559061789279
 30
0.0
  0
SPLINE
  5
1B0
330
1F
100
AcDbEntity
  8
0
  6
PHANTOM
 62
     7
370
     0
100
AcDbSpline
210
0.0
220
0.0
230
1.0
 70
     8
 71
     3
 72
    11
 73
     7
 74
     0
 42
0.00000001
 43
0.00000001
 40
0.0
 40
0.0
 40
0.0
 40
0.0
 40
0.2806218605606162
 40
0.5594429165003753
 40
0.7793142473846173
 40
1.0
 40
1.0
 40
1.0
 40
1.0
 10
140.0896288827305
 20
120.7393999402736
 30
0.0
 10
140.1995439716417
 20
120.7323576193429
 30
0.0
 10
140.4186688031322
 20
120.7183181694135
 30
0.0
 10
140.6891546429777
 20
120.5485605282179
 30
0.0
 10
140.8297826755431
 20
120.2949682411843
 30
0.0
 10
140.8408796342816
 20
120.1226122287567
 30
0.0
 10
140.8464383706693
 20
120.0362749123339
 30
0.0
  0
SPLINE
  5
1B1
330
1F
100
AcDbEntity
  8
0
  6
PHANTOM
 62
     7
370
     0
100
AcDbSpline
210
0.0
220
0.0
230
1.0
 70
     8
 71
     3
 72
     9
 73
     5
 74
     0
 42
0.00000001
 43
0.00000001
 40
0.0
 40
0.0
 40
0.0
 40
0.0
 40
0.5584322132811903
 40
1.0
 40
1.0
 40
1.0
 40
1.0
 10
139.5876255259161
 20
120.6031821393733
 30
0.0
 10
139.6756770976099
 20
120.6499769514635
 30
0.0
 10
139.8333534808839
 20
120.7337737149334
 30
0.0
 10
140.0111289585323
 20
120.7376765666703
 30
0.0
 10
140.0896288827305
 20
120.7393999402736
 30
0.0
  0
LINE
  5
1B2
330
1F
100
AcDbEntity
  8
0
  6
PHANTOM
 62
     7
370
     0
100
AcDbLine
 10
139.3712792918
 20
120.7758584251
 30
0.0
 11
139.5876255259
 21
120.6031821394
 31
0.0
  0
LINE
  5
1B3
330
1F
100
AcDbEntity
  8
0
  6
PHANTOM
 62
     7
370
     0
100
AcDbLine
 10
139.3147889897
 20
120.6909225048
 30
0.0
 11
139.3712792918
 21
120.7758584251
 31
0.0
  0
LINE
  5
1B4
330
1F
100
AcDbEntity
  8
0
  6
PHANTOM
 62
     7
370
     0
100
AcDbLine
 10
139.4994832948
 20
120.5242558108
 30
0.0
 11
139.3147889897
 21
120.6909225048
 31
0.0
  0
LINE
  5
1B5
330
1F
100
AcDbEntity
  8
0
  6
PHANTOM
 62
     7
370
     0
100
AcDbLine
 10
141.2823364511
 20
116.9377172091
 30
0.0
 11
141.2823364511
 21
116.7650406906
 31
0.0
  0
SPLINE
  5
1B6
330
1F
100
AcDbEntity
  8
0
  6
PHANTOM
 62
     7
370
     0
100
AcDbSpline
210
0.0
220
0.0
230
1.0
 70
     8
 71
     3
 72
    11
 73
     7
 74
     0
 42
0.00000001
 43
0.00000001
 40
0.0
 40
0.0
 40
0.0
 40
0.0
 40
0.2810637866975147
 40
0.5603633665327585
 40
0.7796779143546896
 40
1.0
 40
1.0
 40
1.0
 40
1.0
 10
140.9233618900423
 20
117.4317074665193
 30
0.0
 10
140.9265641683212
 20
117.3680200711428
 30
0.0
 10
140.9329486245261
 20
117.2410450392534
 30
0.0
 10
140.9986387377614
 20
117.0693732788619
 30
0.0
 10
141.1333850244883
 20
116.9639773593886
 30
0.0
 10
141.2326101757982
 20
116.9464839560641
 30
0.0
 10
141.2823364511375
 20
116.9377172091369
 30
0.0
  0
LINE
  5
1B7
330
1F
100
AcDbEntity
  8
0
  6
PHANTOM
 62
     7
370
     0
100
AcDbLine
 10
140.7182343677
 20
117.4317074665
 30
0.0
 11
140.92336189
 21
117.4317074665
 31
0.0
  0
LINE
  5
1B8
330
1F
100
AcDbEntity
  8
0
  6
PHANTOM
 62
     7
370
     0
100
AcDbLine
 10
140.7182343677
 20
116.9958103174
 30
0.0
 11
140.7182343677
 21
117.4317074665
 31
0.0
  0
LINE
  5
1B9
330
1F
100
AcDbEntity
  8
0
  6
PHANTOM
 62
     7
370
     0
100
AcDbLine
 10
139.3592596427
 20
116.9958103174
 30
0.0
 11
140.7182343677
 21
116.9958103174
 31
0.0
  0
LINE
  5
1BA
330
1F
100
AcDbEntity
  8
0
  6
PHANTOM
 62
     7
370
     0
100
AcDbLine
 10
139.3592596427
 20
116.7650406906
 30
0.0
 11
139.3592596427
 21
116.9958103174
 31
0.0
  0
LINE
  5
1BB
330
1F
100
AcDbEntity
  8
0
  6
PHANTOM
 62
     7
370
     0
100
AcDbLine
 10
141.2823364511
 20
116.7650406906
 30
0.0
 11
139.3592596427
 21
116.7650406906
 31
0.0
  0
LINE
  5
1BC
330
1F
100
AcDbEntity
  8
0
  6
PHANTOM
 62
     7
370
     0
100
AcDbLine
 10
136.6592586413
 20
117.7419640781
 30
0.0
 11
136.6592586413
 21
116.9419640401
 31
0.0
  0
LINE
  5
1BD
330
1F
100
AcDbEntity
  8
0
  6
PHANTOM
 62
     7
370
     0
100
AcDbLine
 10
136.6592586413
 20
117.7419640781
 30
0.0
 11
139.1592599824
 21
117.7419640781
 31
0.0
  0
LINE
  5
1BE
330
1F
100
AcDbEntity
  8
0
  6
PHANTOM
 62
     7
370
     0
100
AcDbLine
 10
139.1592599824
 20
117.7419640781
 30
0.0
 11
139.1592599824
 21
117.941964204
 31
0.0
  0
LINE
  5
1BF
330
1F
100
AcDbEntity
  8
0
  6
PHANTOM
 62
     7
370
     0
100
AcDbLine
 10
139.1592599824
 20
117.941964204
 30
0.0
 11
136.6592586413
 21
117.941964204
 31
0.0
  0
LINE
  5
1C0
330
1F
100
AcDbEntity
  8
0
  6
PHANTOM
 62
     7
370
     0
100
AcDbLine
 10
136.6592586413
 20
118.741964242
 30
0.0
 11
136.6592586413
 21
117.941964204
 31
0.0
  0
LINE
  5
1C1
330
1F
100
AcDbEntity
  8
0
  6
PHANTOM
 62
     7
370
     0
100
AcDbLine
 10
136.6592586413
 20
118.741964242
 30
0.0
 11
138.1592598185
 21
118.741964242
 31
0.0
  0
LINE
  5
1C2
330
1F
100
AcDbEntity
  8
0
  6
PHANTOM
 62
     7
370
     0
100
AcDbLine
 10
138.1592598185
 20
118.741964242
 30
0.0
 11
138.1592598185
 21
118.9419639022
 31
0.0
  0
LINE
  5
1C3
330
1F
100
AcDbEntity
  8
0
  6
PHANTOM
 62
     7
370
     0
100
AcDbLine
 10
138.1592598185
 20
118.9419639022
 30
0.0
 11
136.6592586413
 21
118.9419639022
 31
0.0
  0
LINE
  5
1C4
330
1F
100
AcDbEntity
  8
0
  6
PHANTOM
 62
     7
370
     0
100
AcDbLine
 10
136.6592586413
 20
119.7419639402
 30
0.0
 11
136.6592586413
 21
118.9419639022
 31
0.0
  0
LINE
  5
1C5
330
1F
100
AcDbEntity
  8
0
  6
PHANTOM
 62
     7
370
     0
100
AcDbLine
 10
136.6592586413
 20
119.7419639402
 30
0.0
 11
138.1592598185
 21
119.7419639402
 31
0.0
  0
LINE
  5
1C6
330
1F
100
AcDbEntity
  8
0
  6
PHANTOM
 62
     7
370
     0
100
AcDbLine
 10
138.1592598185
 20
119.7419639402
 30
0.0
 11
138.1592598185
 21
119.9419640662
 31
0.0
  0
LINE
  5
1C7
330
1F
100
AcDbEntity
  8
0
  6
PHANTOM
 62
     7
370
     0
100
AcDbLine
 10
138.1592598185
 20
119.9419640662
 30
0.0
 11
136.6592586413
 21
119.9419640662
 31
0.0
  0
LINE
  5
1C8
330
1F
100
AcDbEntity
  8
0
  6
PHANTOM
 62
     7
370
     0
100
AcDbLine
 10
136.6592586413
 20
120.7419641042
 30
0.0
 11
136.6592586413
 21
119.9419640662
 31
0.0
  0
LINE
  5
1C9
330
1F
100
AcDbEntity
  8
0
  6
PHANTOM
 62
     7
370
     0
100
AcDbLine
 10
136.6592586413
 20
120.7419641042
 30
0.0
 11
138.1592598185
 21
120.7419641042
 31
0.0
  0
LINE
  5
1CA
330
1F
100
AcDbEntity
  8
0
  6
PHANTOM
 62
     7
370
     0
100
AcDbLine
 10
138.1592598185
 20
120.7419641042
 30
0.0
 11
138.1592598185
 21
120.9419639972
 31
0.0
  0
LINE
  5
1CB
330
1F
100
AcDbEntity
  8
0
  6
PHANTOM
 62
     7
370
     0
100
AcDbLine
 10
138.1592598185
 20
120.9419639972
 30
0.0
 11
136.6592586413
 21
120.9419639972
 31
0.0
  0
LINE
  5
1CC
330
1F
100
AcDbEntity
  8
0
  6
PHANTOM
 62
     7
370
     0
100
AcDbLine
 10
136.6592586413
 20
121.7419640352
 30
0.0
 11
136.6592586413
 21
120.9419639972
 31
0.0
  0
LINE
  5
1CD
330
1F
100
AcDbEntity
  8
0
  6
PHANTOM
 62
     7
370
     0
100
AcDbLine
 10
136.6592586413
 20
121.7419640352
 30
0.0
 11
138.1592598185
 21
121.7419640352
 31
0.0
  0
LINE
  5
1CE
330
1F
100
AcDbEntity
  8
0
  6
PHANTOM
 62
     7
370
     0
100
AcDbLine
 10
138.1592598185
 20
121.7419640352
 30
0.0
 11
138.1592598185
 21
121.9419641611
 31
0.0
  0
LINE
  5
1CF
330
1F
100
AcDbEntity
  8
0
  6
PHANTOM
 62
     7
370
     0
100
AcDbLine
 10
138.1592598185
 20
121.9419641611
 30
0.0
 11
136.6592586413
 21
121.9419641611
 31
0.0
  0
LINE
  5
1D0
330
1F
100
AcDbEntity
  8
0
  6
PHANTOM
 62
     7
370
     0
100
AcDbLine
 10
136.6592586413
 20
122.7419640827
 30
0.0
 11
136.6592586413
 21
121.9419641611
 31
0.0
  0
LINE
  5
1D1
330
1F
100
AcDbEntity
  8
0
  6
PHANTOM
 62
     7
370
     0
100
AcDbLine
 10
136.6592586413
 20
122.7419640827
 30
0.0
 11
139.1592599824
 21
122.7419640827
 31
0.0
  0
LINE
  5
1D2
330
1F
100
AcDbEntity
  8
0
  6
PHANTOM
 62
     7
370
     0
100
AcDbLine
 10
139.1592599824
 20
122.7419640827
 30
0.0
 11
139.1592599824
 21
122.9419640922
 31
0.0
  0
LINE
  5
1D3
330
1F
100
AcDbEntity
  8
0
  6
PHANTOM
 62
     7
370
     0
100
AcDbLine
 10
139.1592599824
 20
122.9419640922
 30
0.0
 11
136.6592586413
 21
122.9419640922
 31
0.0
  0
LINE
  5
1D4
330
1F
100
AcDbEntity
  8
0
  6
PHANTOM
 62
     7
370
     0
100
AcDbLine
 10
136.6592586413
 20
123.741964072
 30
0.0
 11
136.6592586413
 21
122.9419640922
 31
0.0
  0
LINE
  5
1D5
330
1F
100
AcDbEntity
  8
0
  6
PHANTOM
 62
     7
370
     0
100
AcDbLine
 10
136.6592586413
 20
123.741964072
 30
0.0
 11
138.1592598185
 21
123.741964072
 31
0.0
  0
LINE
  5
1D6
330
1F
100
AcDbEntity
  8
0
  6
PHANTOM
 62
     7
370
     0
100
AcDbLine
 10
138.1592598185
 20
123.741964072
 30
0.0
 11
138.1592598185
 21
123.9419640815
 31
0.0
  0
LINE
  5
1D7
330
1F
100
AcDbEntity
  8
0
  6
PHANTOM
 62
     7
370
     0
100
AcDbLine
 10
138.1592598185
 20
123.9419640815
 30
0.0
 11
136.6592586413
 21
123.9419640815
 31
0.0
  0
LINE
  5
1D8
330
1F
100
AcDbEntity
  8
0
  6
PHANTOM
 62
     7
370
     0
100
AcDbLine
 10
136.6592586413
 20
124.7419640904
 30
0.0
 11
136.6592586413
 21
123.9419640815
 31
0.0
  0
LINE
  5
1D9
330
1F
100
AcDbEntity
  8
0
  6
PHANTOM
 62
     7
370
     0
100
AcDbLine
 10
136.6592586413
 20
124.7419640904
 30
0.0
 11
138.1592598185
 21
124.7419640904
 31
0.0
  0
LINE
  5
1DA
330
1F
100
AcDbEntity
  8
0
  6
PHANTOM
 62
     7
370
     0
100
AcDbLine
 10
138.1592598185
 20
124.7419640904
 30
0.0
 11
138.1592598185
 21
124.9419640708
 31
0.0
  0
LINE
  5
1DB
330
1F
100
AcDbEntity
  8
0
  6
PHANTOM
 62
     7
370
     0
100
AcDbLine
 10
138.1592598185
 20
124.9419640708
 30
0.0
 11
136.6592586413
 21
124.9419640708
 31
0.0
  0
LINE
  5
1DC
330
1F
100
AcDbEntity
  8
0
  6
PHANTOM
 62
     7
370
     0
100
AcDbLine
 10
136.6592586413
 20
125.7419641088
 30
0.0
 11
136.6592586413
 21
124.9419640708
 31
0.0
  0
LINE
  5
1DD
330
1F
100
AcDbEntity
  8
0
  6
PHANTOM
 62
     7
370
     0
100
AcDbLine
 10
136.6592586413
 20
125.7419641088
 30
0.0
 11
138.1592598185
 21
125.7419641088
 31
0.0
  0
LINE
  5
1DE
330
1F
100
AcDbEntity
  8
0
  6
PHANTOM
 62
     7
370
     0
100
AcDbLine
 10
138.1592598185
 20
125.7419641088
 30
0.0
 11
138.1592598185
 21
125.9419641183
 31
0.0
  0
LINE
  5
1DF
330
1F
100
AcDbEntity
  8
0
  6
PHANTOM
 62
     7
370
     0
100
AcDbLine
 10
138.1592598185
 20
125.9419641183
 30
0.0
 11
136.6592586413
 21
125.9419641183
 31
0.0
  0
LINE
  5
1E0
330
1F
100
AcDbEntity
  8
0
  6
PHANTOM
 62
     7
370
     0
100
AcDbLine
 10
136.6592586413
 20
126.7419641563
 30
0.0
 11
136.6592586413
 21
125.9419641183
 31
0.0
  0
LINE
  5
1E1
330
1F
100
AcDbEntity
  8
0
  6
PHANTOM
 62
     7
370
     0
100
AcDbLine
 10
136.6592586413
 20
126.7419641563
 30
0.0
 11
138.1592598185
 21
126.7419641563
 31
0.0
  0
LINE
  5
1E2
330
1F
100
AcDbEntity
  8
0
  6
PHANTOM
 62
     7
370
     0
100
AcDbLine
 10
138.1592598185
 20
126.7419641563
 30
0.0
 11
138.1592598185
 21
126.9419640494
 31
0.0
  0
LINE
  5
1E3
330
1F
100
AcDbEntity
  8
0
  6
PHANTOM
 62
     7
370
     0
100
AcDbLine
 10
138.1592598185
 20
126.9419640494
 30
0.0
 11
136.6592586413
 21
126.9419640494
 31
0.0
  0
LINE
  5
1E4
330
1F
100
AcDbEntity
  8
0
  6
PHANTOM
 62
     7
370
     0
100
AcDbLine
 10
136.6592586413
 20
127.7419640874
 30
0.0
 11
136.6592586413
 21
126.9419640494
 31
0.0
  0
LINE
  5
1E5
330
1F
100
AcDbEntity
  8
0
  6
PHANTOM
 62
     7
370
     0
100
AcDbLine
 10
136.6592586413
 20
127.7419640874
 30
0.0
 11
139.1592599824
 21
127.7419640874
 31
0.0
  0
LINE
  5
1E6
330
1F
100
AcDbEntity
  8
0
  6
PHANTOM
 62
     7
370
     0
100
AcDbLine
 10
139.1592599824
 20
127.7419640874
 30
0.0
 11
139.1592599824
 21
127.9419639805
 31
0.0
  0
LINE
  5
1E7
330
1F
100
AcDbEntity
  8
0
  6
PHANTOM
 62
     7
370
     0
100
AcDbLine
 10
139.1592599824
 20
127.9419639805
 30
0.0
 11
136.6592586413
 21
127.9419639805
 31
0.0
  0
LINE
  5
1E8
330
1F
100
AcDbEntity
  8
0
  6
PHANTOM
 62
     7
370
     0
100
AcDbLine
 10
136.6592586413
 20
128.7419640185
 30
0.0
 11
136.6592586413
 21
127.9419639805
 31
0.0
  0
LINE
  5
1E9
330
1F
100
AcDbEntity
  8
0
  6
PHANTOM
 62
     7
370
     0
100
AcDbLine
 10
136.6592586413
 20
128.7419640185
 30
0.0
 11
138.1592598185
 21
128.7419640185
 31
0.0
  0
LINE
  5
1EA
330
1F
100
AcDbEntity
  8
0
  6
PHANTOM
 62
     7
370
     0
100
AcDbLine
 10
138.1592598185
 20
128.7419640185
 30
0.0
 11
138.1592598185
 21
128.9419641444
 31
0.0
  0
LINE
  5
1EB
330
1F
100
AcDbEntity
  8
0
  6
PHANTOM
 62
     7
370
     0
100
AcDbLine
 10
138.1592598185
 20
128.9419641444
 30
0.0
 11
136.6592586413
 21
128.9419641444
 31
0.0
  0
LINE
  5
1EC
330
1F
100
AcDbEntity
  8
0
  6
PHANTOM
 62
     7
370
     0
100
AcDbLine
 10
136.6592586413
 20
129.7419641824
 30
0.0
 11
136.6592586413
 21
128.9419641444
 31
0.0
  0
LINE
  5
1ED
330
1F
100
AcDbEntity
  8
0
  6
PHANTOM
 62
     7
370
     0
100
AcDbLine
 10
136.6592586413
 20
129.7419641824
 30
0.0
 11
138.1592598185
 21
129.7419641824
 31
0.0
  0
LINE
  5
1EE
330
1F
100
AcDbEntity
  8
0
  6
PHANTOM
 62
     7
370
     0
100
AcDbLine
 10
138.1592598185
 20
129.7419641824
 30
0.0
 11
138.1592598185
 21
129.9419643083
 31
0.0
  0
LINE
  5
1EF
330
1F
100
AcDbEntity
  8
0
  6
PHANTOM
 62
     7
370
     0
100
AcDbLine
 10
138.1592598185
 20
129.9419643083
 30
0.0
 11
136.6592586413
 21
129.9419643083
 31
0.0
  0
LINE
  5
1F0
330
1F
100
AcDbEntity
  8
0
  6
PHANTOM
 62
     7
370
     0
100
AcDbLine
 10
136.6592586413
 20
146.7860664898
 30
0.0
 11
136.6592586413
 21
129.9419643083
 31
0.0
  0
LINE
  5
1F1
330
1F
100
AcDbEntity
  8
0
  6
PHANTOM
 62
     7
370
     0
100
AcDbLine
 10
147.5345209614
 20
136.5919641876
 30
0.0
 11
147.5345209614
 21
118.5919640311
 31
0.0
  0
LINE
  5
1F2
330
1F
100
AcDbEntity
  8
0
  6
PHANTOM
 62
     7
370
     0
100
AcDbLine
 10
171.0199244693
 20
118.5919640311
 30
0.0
 11
171.0199244693
 21
136.5919641876
 31
0.0
  0
SPLINE
  5
1F3
330
1F
100
AcDbEntity
  8
0
  6
PHANTOM
 62
     7
370
     0
100
AcDbSpline
210
0.0
220
0.0
230
1.0
 70
     8
 71
     3
 72
    12
 73
     8
 74
     0
 42
0.00000001
 43
0.00000001
 40
0.0
 40
0.0
 40
0.0
 40
0.0
 40
0.1811607772444449
 40
0.3635907377933526
 40
0.5301619016798186
 40
0.7426725047732678
 40
1.0
 40
1.0
 40
1.0
 40
1.0
 10
176.5533812716846
 20
146.7860664897923
 30
0.0
 10
176.6181882029647
 20
146.7814956024026
 30
0.0
 10
176.7482560924751
 20
146.7723218047203
 30
0.0
 10
176.9214701432211
 20
146.6830964304595
 30
0.0
 10
177.0568222733342
 20
146.531842010378
 30
0.0
 10
177.1450942583411
 20
146.3174469788937
 30
0.0
 10
177.1542486698223
 20
146.149575006014
 30
0.0
 10
177.1592624858265
 20
146.0576325380568
 30
0.0
  0
LINE
  5
1F4
330
1F
100
AcDbEntity
  8
0
  6
PHANTOM
 62
     7
370
     0
100
AcDbLine
 10
177.1592624858
 20
105.1262940937
 30
0.0
 11
177.1592624858
 21
146.0576325381
 31
0.0
  0
SPLINE
  5
1F5
330
1F
100
AcDbEntity
  8
0
  6
PHANTOM
 62
     7
370
     0
100
AcDbSpline
210
0.0
220
0.0
230
1.0
 70
     8
 71
     3
 72
    12
 73
     8
 74
     0
 42
0.00000001
 43
0.00000001
 40
0.0
 40
0.0
 40
0.0
 40
0.0
 40
0.2708394802974338
 40
0.4755709711410675
 40
0.6418885706001327
 40
0.8084753662311195
 40
1.0
 40
1.0
 40
1.0
 40
1.0
 10
177.1592624858265
 20
105.1262940937047
 30
0.0
 10
177.1537386968423
 20
105.0294196791859
 30
0.0
 10
177.1440393956595
 20
104.8593164898695
 30
0.0
 10
177.0517338520599
 20
104.6446162437912
 30
0.0
 10
176.9203318341124
 20
104.5013722281934
 30
0.0
 10
176.7502544750579
 20
104.4125253945951
 30
0.0
 10
176.621983153369
 20
104.4029715681675
 30
0.0
 10
176.5533812716846
 20
104.3978620046143
 30
0.0
  0
LINE
  5
1F6
330
1F
100
AcDbEntity
  8
0
  6
PHANTOM
 62
     7
370
     0
100
AcDbLine
 10
176.5533812717
 20
104.3978620046
 30
0.0
 11
136.6592586413
 21
104.3978620046
 31
0.0
  0
LINE
  5
1F7
330
1F
100
AcDbEntity
  8
0
  6
PHANTOM
 62
     7
370
     0
100
AcDbLine
 10
136.6592586413
 20
114.741964052
 30
0.0
 11
136.6592586413
 21
104.3978620046
 31
0.0
  0
LINE
  5
1F8
330
1F
100
AcDbEntity
  8
0
  6
PHANTOM
 62
     7
370
     0
100
AcDbLine
 10
136.6592586413
 20
114.741964052
 30
0.0
 11
138.1592598185
 21
114.741964052
 31
0.0
  0
LINE
  5
1F9
330
1F
100
AcDbEntity
  8
0
  6
PHANTOM
 62
     7
370
     0
100
AcDbLine
 10
138.1592598185
 20
114.741964052
 30
0.0
 11
138.1592598185
 21
114.9419637123
 31
0.0
  0
LINE
  5
1FA
330
1F
100
AcDbEntity
  8
0
  6
PHANTOM
 62
     7
370
     0
100
AcDbLine
 10
138.1592598185
 20
114.9419637123
 30
0.0
 11
136.6592586413
 21
114.9419637123
 31
0.0
  0
LINE
  5
1FB
330
1F
100
AcDbEntity
  8
0
  6
PHANTOM
 62
     7
370
     0
100
AcDbLine
 10
136.6592586413
 20
115.7419642159
 30
0.0
 11
136.6592586413
 21
114.9419637123
 31
0.0
  0
LINE
  5
1FC
330
1F
100
AcDbEntity
  8
0
  6
PHANTOM
 62
     7
370
     0
100
AcDbLine
 10
136.6592586413
 20
115.7419642159
 30
0.0
 11
138.1592598185
 21
115.7419642159
 31
0.0
  0
LINE
  5
1FD
330
1F
100
AcDbEntity
  8
0
  6
PHANTOM
 62
     7
370
     0
100
AcDbLine
 10
138.1592598185
 20
115.7419642159
 30
0.0
 11
138.1592598185
 21
115.9419638762
 31
0.0
  0
LINE
  5
1FE
330
1F
100
AcDbEntity
  8
0
  6
PHANTOM
 62
     7
370
     0
100
AcDbLine
 10
138.1592598185
 20
115.9419638762
 30
0.0
 11
136.6592586413
 21
115.9419638762
 31
0.0
  0
LINE
  5
1FF
330
1F
100
AcDbEntity
  8
0
  6
PHANTOM
 62
     7
370
     0
100
AcDbLine
 10
136.6592586413
 20
116.7419643798
 30
0.0
 11
136.6592586413
 21
115.9419638762
 31
0.0
  0
LINE
  5
200
330
1F
100
AcDbEntity
  8
0
  6
PHANTOM
 62
     7
370
     0
100
AcDbLine
 10
136.6592586413
 20
116.7419643798
 30
0.0
 11
138.1592598185
 21
116.7419643798
 31
0.0
  0
LINE
  5
201
330
1F
100
AcDbEntity
  8
0
  6
PHANTOM
 62
     7
370
     0
100
AcDbLine
 10
138.1592598185
 20
116.7419643798
 30
0.0
 11
138.1592598185
 21
116.9419640401
 31
0.0
  0
LINE
  5
202
330
1F
100
AcDbEntity
  8
0
  6
PHANTOM
 62
     7
370
     0
100
AcDbLine
 10
138.1592598185
 20
116.9419640401
 30
0.0
 11
136.6592586413
 21
116.9419640401
 31
0.0
  0
LINE
  5
203
330
1F
100
AcDbEntity
  8
0
  6
PHANTOM
 62
     7
370
     0
100
AcDbLine
 10
148.0044439808
 20
136.5919641876
 30
0.0
 11
148.0044439808
 21
118.5919640311
 31
0.0
  0
LINE
  5
204
330
1F
100
AcDbEntity
  8
0
  6
PHANTOM
 62
     7
370
     0
100
AcDbLine
 10
170.9251270071
 20
118.5919640311
 30
0.0
 11
170.9251270071
 21
136.5919641876
 31
0.0
  0
LINE
  5
205
330
1F
100
AcDbEntity
  8
0
  6
PHANTOM
 62
     7
370
     0
100
AcDbLine
 10
168.7451318279
 20
118.5919640311
 30
0.0
 11
168.7451318279
 21
136.5919641876
 31
0.0
  0
SPLINE
  5
206
330
1F
100
AcDbEntity
  8
0
  6
PHANTOM
 62
     7
370
     0
100
AcDbSpline
210
0.0
220
0.0
230
1.0
 70
     8
 71
     3
 72
    12
 73
     8
 74
     0
 42
0.00000001
 43
0.00000001
 40
0.0
 40
0.0
 40
0.0
 40
0.0
 40
0.0130640677344854
 40
0.1608423934948002
 40
0.4410155685092711
 40
0.7204922959240223
 40
1.0
 40
1.0
 40
1.0
 40
1.0
 10
187.0902903750782
 20
156.6161166602139
 30
0.0
 10
187.0945271902128
 20
156.6145356776935
 30
0.0
 10
187.1466900770635
 20
156.5950709123672
 30
0.0
 10
187.2898179499191
 20
156.526488565581
 30
0.0
 10
187.5077239462299
 20
156.358305870152
 30
0.0
 10
187.7253400352525
 20
156.0909175220772
 30
0.0
 10
187.8076529138745
 20
155.8866700108732
 30
0.0
 10
187.8488116339092
 20
155.7845405959849
 30
0.0
  0
SPLINE
  5
207
330
1F
100
AcDbEntity
  8
0
  6
PHANTOM
 62
     7
370
     0
100
AcDbSpline
210
0.0
220
0.0
230
1.0
 70
     8
 71
     3
 72
     9
 73
     5
 74
     0
 42
0.00000001
 43
0.00000001
 40
0.0
 40
0.0
 40
0.0
 40
0.0
 40
0.7935397641001141
 40
1.0
 40
1.0
 40
1.0
 40
1.0
 10
187.8592573479061
 20
155.7120334082608
 30
0.0
 10
187.8582687945915
 20
155.7318962050748
 30
0.0
 10
187.8570230431379
 20
155.7569268307757
 30
0.0
 10
187.8502168434934
 20
155.7798150821971
 30
0.0
 10
187.8488116339092
 20
155.7845405959849
 30
0.0
  0
LINE
  5
208
330
1F
100
AcDbEntity
  8
0
  6
PHANTOM
 62
     7
370
     0
100
AcDbLine
 10
187.8592573479
 20
128.5919642733
 30
0.0
 11
187.8592573479
 21
155.7120334083
 31
0.0
  0
ARC
  5
209
330
1F
100
AcDbEntity
  8
0
  6
PHANTOM
 62
     7
370
     0
100
AcDbCircle
 10
160.2234310337
 20
125.5919640833
 30
0.0
 40
35.9999999999998
100
AcDbArc
 50
284.2298602076
 51
288.1322680755
  0
ELLIPSE
  5
20A
330
1F
100
AcDbEntity
  8
0
  6
PHANTOM
 62
     7
370
     0
100
AcDbEllipse
 10
202.0985465743
 20
125.5919640833
 30
0.0
 11
134.3538290724794
 21
0.0
 31
0.0
210
0.0
220
0.0
230
1.0
 40
0.2679491924
 41
4.458217348513864
 42
4.464031067663192
  0
ELLIPSE
  5
20B
330
1F
100
AcDbEntity
  8
0
  6
PHANTOM
 62
     7
370
     0
100
AcDbEllipse
 10
170.7415865105
 20
125.5919640833
 30
0.0
 11
0.0
 21
35.99999999999997
 31
0.0
210
0.0
220
0.0
230
1.0
 40
0.2679491924
 41
2.793845598778874
 42
2.887421021718963
  0
SPLINE
  5
20C
330
1F
100
AcDbEntity
  8
0
  6
PHANTOM
 62
     7
370
     0
100
AcDbSpline
210
0.0
220
0.0
230
1.0
 70
     8
 71
     3
 72
    14
 73
    10
 74
     0
 42
0.00000001
 43
0.00000001
 40
0.0
 40
0.0
 40
0.0
 40
0.0
 40
0.1560982213223335
 40
0.312452151800406
 40
0.4632273691373051
 40
0.611287775325444
 40
0.7628370052920006
 40
0.922433129227455
 40
1.0
 40
1.0
 40
1.0
 40
1.0
 10
166.8871991709118
 20
91.80229415235563
 30
0.0
 10
166.9156125479897
 20
91.81097177047165
 30
0.0
 10
166.9724858469467
 20
91.82834122176894
 30
0.0
 10
167.082284582468
 20
91.84006011357246
 30
0.0
 10
167.1935270746864
 20
91.83871655595306
 30
0.0
 10
167.2963309915684
 20
91.82457485910595
 30
0.0
 10
167.3817495102774
 20
91.79944023651726
 30
0.0
 10
167.4325732380969
 20
91.77160909142482
 30
0.0
 10
167.4489903224333
 20
91.7529300490384
 30
0.0
 10
167.4543597176914
 20
91.74682085452123
 30
0.0
  0
ARC
  5
20D
330
1F
100
AcDbEntity
  8
0
  6
PHANTOM
 62
     7
370
     0
100
AcDbCircle
 10
154.4671301381
 20
125.5919640833
 30
0.0
 40
35.99999999999971
100
AcDbArc
 50
286.2365031047
 51
290.1819154101
  0
ELLIPSE
  5
20E
330
1F
100
AcDbEntity
  8
0
  6
PHANTOM
 62
     7
370
     0
100
AcDbEllipse
 10
202.0985465743
 20
125.5919640833
 30
0.0
 11
134.3538290724864
 21
0.0
 31
0.0
210
0.0
220
0.0
230
1.0
 40
0.2679491924
 41
4.423138413716428
 42
4.429008542197841
  0
ELLIPSE
  5
20F
330
1F
100
AcDbEntity
  8
0
  6
PHANTOM
 62
     7
370
     0
100
AcDbEllipse
 10
166.5276817913
 20
125.5919640833
 30
0.0
 11
0.0
 21
35.99999999999997
 31
0.0
210
0.0
220
0.0
230
1.0
 40
0.2679491924
 41
2.757658770523874
 42
2.852342086921527
  0
SPLINE
  5
210
330
1F
100
AcDbEntity
  8
0
  6
PHANTOM
 62
     7
370
     0
100
AcDbSpline
210
0.0
220
0.0
230
1.0
 70
     8
 71
     3
 72
    14
 73
    10
 74
     0
 42
0.00000001
 43
0.00000001
 40
0.0
 40
0.0
 40
0.0
 40
0.0
 40
0.1551023534756706
 40
0.3105172681545625
 40
0.4591804641817122
 40
0.6044759615433294
 40
0.7538142523329273
 40
0.9126903993755596
 40
1.0
 40
1.0
 40
1.0
 40
1.0
 10
162.3473480716591
 20
92.27461998400732
 30
0.0
 10
162.3755154540321
 20
92.28421776443119
 30
0.0
 10
162.4319069814947
 20
92.30343266666044
 30
0.0
 10
162.5410552555511
 20
92.31656436971619
 30
0.0
 10
162.6514617384207
 20
92.31529133176775
 30
0.0
 10
162.7532805840146
 20
92.30008607975218
 30
0.0
 10
162.8384306800749
 20
92.2729007311227
 30
0.0
 10
162.8912253221066
 20
92.24184090629413
 30
0.0
 10
162.9084130152634
 20
92.22042131232885
 30
0.0
 10
162.9145086184387
 20
92.21282486853643
 30
0.0
  0
ARC
  5
211
330
1F
100
AcDbEntity
  8
0
  6
PHANTOM
 62
     7
370
     0
100
AcDbCircle
 10
148.7108292426
 20
125.5919640833
 30
0.0
 40
35.99999999999965
100
AcDbArc
 50
288.2638349039
 51
292.2588902932
  0
ELLIPSE
  5
212
330
1F
100
AcDbEntity
  8
0
  6
PHANTOM
 62
     7
370
     0
100
AcDbEllipse
 10
202.0985465743
 20
125.5919640833
 30
0.0
 11
134.3538290724748
 21
0.0
 31
0.0
210
0.0
220
0.0
230
1.0
 40
0.2679491924
 41
4.387689198885614
 42
4.393624927270994
  0
ELLIPSE
  5
213
330
1F
100
AcDbEntity
  8
0
  6
PHANTOM
 62
     7
370
     0
100
AcDbEllipse
 10
162.3137770721
 20
125.5919640833
 30
0.0
 11
0.0
 21
35.99999999999997
 31
0.0
210
0.0
220
0.0
230
1.0
 40
0.2679491924
 41
2.720934724846455
 42
2.816892872090708
  0
SPLINE
  5
214
330
1F
100
AcDbEntity
  8
0
  6
PHANTOM
 62
     7
370
     0
100
AcDbSpline
210
0.0
220
0.0
230
1.0
 70
     8
 71
     3
 72
    14
 73
    10
 74
     0
 42
0.00000001
 43
0.00000001
 40
0.0
 40
0.0
 40
0.0
 40
0.0
 40
0.1540346936706708
 40
0.3084393589457827
 40
0.4547846445389762
 40
0.5970184761654573
 40
0.7438447347967637
 40
0.9017671859665808
 40
1.0
 40
1.0
 40
1.0
 40
1.0
 10
157.8074969724064
 20
92.79883538422628
 30
0.0
 10
157.83539705328
 20
92.8093774042171
 30
0.0
 10
157.8912642274478
 20
92.8304867647804
 30
0.0
 10
157.9997127875759
 20
92.8451256029062
 30
0.0
 10
158.1092103793655
 20
92.84396755811348
 30
0.0
 10
158.2099200557946
 20
92.82778855689267
 30
0.0
 10
158.2947144112344
 20
92.79866790364935
 30
0.0
 10
158.349698400744
 20
92.76424148581839
 30
0.0
 10
158.3677391023881
 20
92.7398006706109
 30
0.0
 10
158.374657519186
 20
92.73042787847562
 30
0.0
  0
ARC
  5
215
330
1F
100
AcDbEntity
  8
0
  6
PHANTOM
 62
     7
370
     0
100
AcDbCircle
 10
142.954528347
 20
125.5919640833
 30
0.0
 40
35.99999999999957
100
AcDbArc
 50
290.3151345267
 51
294.3671662542
  0
ELLIPSE
  5
216
330
1F
100
AcDbEntity
  8
0
  6
PHANTOM
 62
     7
370
     0
100
AcDbEllipse
 10
202.0985465743
 20
125.5919640833
 30
0.0
 11
134.3538290724748
 21
0.0
 31
0.0
210
0.0
220
0.0
230
1.0
 40
0.2679491924
 41
4.351811610240516
 42
4.357822994908328
  0
ELLIPSE
  5
217
330
1F
100
AcDbEntity
  8
0
  6
PHANTOM
 62
     7
370
     0
100
AcDbEllipse
 10
158.0998723529
 20
125.5919640833
 30
0.0
 11
0.0
 21
35.99999999999997
 31
0.0
210
0.0
220
0.0
230
1.0
 40
0.2679491924
 41
2.683596822015724
 42
2.781015283445612
  0
SPLINE
  5
218
330
1F
100
AcDbEntity
  8
0
  6
PHANTOM
 62
     7
370
     0
100
AcDbSpline
210
0.0
220
0.0
230
1.0
 70
     8
 71
     3
 72
    14
 73
    10
 74
     0
 42
0.00000001
 43
0.00000001
 40
0.0
 40
0.0
 40
0.0
 40
0.0
 40
0.1528956739196629
 40
0.306239882827767
 40
0.4500610586804727
 40
0.588921313657736
 40
0.7329068603347487
 40
0.8895967030131225
 40
0.9999999999999999
 40
0.9999999999999999
 40
0.9999999999999999
 40
0.9999999999999999
 10
153.2676458731537
 20
93.37746796248003
 30
0.0
 10
153.2952556142997
 20
93.38898415925905
 30
0.0
 10
153.3505560925715
 20
93.41205033675001
 30
0.0
 10
153.4582651886794
 20
93.42830002367732
 30
0.0
 10
153.5667872345177
 20
93.42731460369477
 30
0.0
 10
153.6662550780817
 20
93.41025220632433
 30
0.0
 10
153.750586397195
 20
93.37933351987127
 30
0.0
 10
153.8079798836758
 20
93.34137333053894
 30
0.0
 10
153.8269606821673
 20
93.31359104590724
 30
0.0
 10
153.8348064199333
 20
93.30210720238729
 30
0.0
  0
ARC
  5
219
330
1F
100
AcDbEntity
  8
0
  6
PHANTOM
 62
     7
370
     0
100
AcDbCircle
 10
137.1982274515
 20
125.5919640833
 30
0.0
 40
35.99999999999948
100
AcDbArc
 50
292.394005485
 51
296.5112005806
  0
ELLIPSE
  5
21A
330
1F
100
AcDbEntity
  8
0
  6
PHANTOM
 62
     7
370
     0
100
AcDbEllipse
 10
202.0985465743
 20
125.5919640833
 30
0.0
 11
134.3538290724748
 21
0.0
 31
0.0
210
0.0
220
0.0
230
1.0
 40
0.2679491924
 41
4.315441693023402
 42
4.321539851961821
  0
ELLIPSE
  5
21B
330
1F
100
AcDbEntity
  8
0
  6
PHANTOM
 62
     7
370
     0
100
AcDbEllipse
 10
153.8859676337
 20
125.5919640833
 30
0.0
 11
0.0
 21
36.0
 31
0.0
210
0.0
220
0.0
230
1.0
 40
0.2679491924
 41
2.645558248972369
 42
2.744645366228496
  0
SPLINE
  5
21C
330
1F
100
AcDbEntity
  8
0
  6
PHANTOM
 62
     7
370
     0
100
AcDbSpline
210
0.0
220
0.0
230
1.0
 70
     8
 71
     3
 72
    14
 73
    10
 74
     0
 42
0.00000001
 43
0.00000001
 40
0.0
 40
0.0
 40
0.0
 40
0.0
 40
0.1517051395499479
 40
0.3039376073978504
 40
0.4450375741759119
 40
0.5801976310577682
 40
0.7209864732562621
 40
0.8761099505478909
 40
1.0
 40
1.0
 40
1.0
 40
1.0
 10
148.727794773901
 20
94.01351098952337
 30
0.0
 10
148.7550943757342
 20
94.02603878374389
 30
0.0
 10
148.8097884730385
 20
94.05113791889941
 30
0.0
 10
148.9167267589837
 20
94.06912059305476
 30
0.0
 10
149.0242128609143
 20
94.06836500236429
 30
0.0
 10
149.1222941838555
 20
94.05051349956226
 30
0.0
 10
149.2060316845218
 20
94.01794492068663
 30
0.0
 10
149.2660710552783
 20
93.9762716078915
 30
0.0
 10
149.2860710300291
 20
93.9447797840384
 30
0.0
 10
149.2949515953903
 20
93.93079650638147
 30
0.0
  0
ARC
  5
21D
330
1F
100
AcDbEntity
  8
0
  6
PHANTOM
 62
     7
370
     0
100
AcDbCircle
 10
131.441926556
 20
125.5919640833
 30
0.0
 40
35.99999999999939
100
AcDbArc
 50
294.5044495753
 51
298.6960494412
  0
ELLIPSE
  5
21E
330
1F
100
AcDbEntity
  8
0
  6
PHANTOM
 62
     7
370
     0
100
AcDbEllipse
 10
202.0985465743
 20
125.5919640833
 30
0.0
 11
134.3538290724748
 21
0.0
 31
0.0
210
0.0
220
0.0
230
1.0
 40
0.2679491924
 41
4.278508298135293
 42
4.284705653907297
  0
ELLIPSE
  5
21F
330
1F
100
AcDbEntity
  8
0
  6
PHANTOM
 62
     7
370
     0
100
AcDbEllipse
 10
149.6720629146
 20
125.5919640833
 30
0.0
 11
0.0
 21
36.0
 31
0.0
210
0.0
220
0.0
230
1.0
 40
0.2679491924
 41
2.606719509825398
 42
2.707711971340383
  0
SPLINE
  5
220
330
1F
100
AcDbEntity
  8
0
  6
PHANTOM
 62
     7
370
     0
100
AcDbSpline
210
0.0
220
0.0
230
1.0
 70
     8
 71
     3
 72
    14
 73
    10
 74
     0
 42
0.00000001
 43
0.00000001
 40
0.0
 40
0.0
 40
0.0
 40
0.0
 40
0.1504831689465458
 40
0.3015754126218303
 40
0.4397409003825817
 40
0.5708587168423387
 40
0.708065003476514
 40
0.8612388490342197
 40
1.0
 40
1.0
 40
1.0
 40
1.0
 10
144.1879436746483
 20
94.7105090790753
 30
0.0
 10
144.2149157126451
 20
94.72409435999626
 30
0.0
 10
144.2689689569054
 20
94.7513199077303
 30
0.0
 10
144.3751164935136
 20
94.77118105809905
 30
0.0
 10
144.4815118004385
 20
94.770717169323
 30
0.0
 10
144.5780503219143
 20
94.75216739768359
 30
0.0
 10
144.6610397735269
 20
94.71811446164772
 30
0.0
 10
144.7239613092203
 20
94.67251154206227
 30
0.0
 10
144.7450681114925
 20
94.63689498872715
 30
0.0
 10
144.7551004961376
 20
94.61996589837118
 30
0.0
  0
ARC
  5
221
330
1F
100
AcDbEntity
  8
0
  6
PHANTOM
 62
     7
370
     0
100
AcDbCircle
 10
125.6856256604
 20
125.5919640833
 30
0.0
 40
35.99999999999925
100
AcDbArc
 50
296.6509589667
 51
300.9275164702
  0
ELLIPSE
  5
222
330
1F
100
AcDbEntity
  8
0
  6
PHANTOM
 62
     7
370
     0
100
AcDbEllipse
 10
202.0985465747
 20
125.5919640833
 30
0.0
 11
134.3538290733153
 21
0.0
 31
0.0
210
0.0
220
0.0
230
1.0
 40
0.2679491924
 41
4.240931411451307
 42
4.247241997602318
  0
ELLIPSE
  5
223
330
1F
100
AcDbEntity
  8
0
  6
PHANTOM
 62
     7
370
     0
100
AcDbEllipse
 10
145.4581581954
 20
125.5919640833
 30
0.0
 11
0.0
 21
36.0
 31
0.0
210
0.0
220
0.0
230
1.0
 40
0.2679491924
 41
2.566965135385604
 42
2.67013508465638
  0
SPLINE
  5
224
330
1F
100
AcDbEntity
  8
0
  6
PHANTOM
 62
     7
370
     0
100
AcDbSpline
210
0.0
220
0.0
230
1.0
 70
     8
 71
     3
 72
    14
 73
    10
 74
     0
 42
0.00000001
 43
0.00000001
 40
0.0
 40
0.0
 40
0.0
 40
0.0
 40
0.149243579394005
 40
0.299200986631554
 40
0.4342135266958018
 40
0.5609301897667242
 40
0.6941456057926703
 40
0.8449240608869182
 40
1.0
 40
1.0
 40
1.0
 40
1.0
 10
139.6480925753956
 20
95.47269788620515
 30
0.0
 10
139.6747206649785
 20
95.4873973461759
 30
0.0
 10
139.7281042055482
 20
95.51686657322105
 30
0.0
 10
139.8334597383224
 20
95.53877248720732
 30
0.0
 10
139.9387231597651
 20
95.53865571942553
 30
0.0
 10
140.0335489722178
 20
95.51950380475895
 30
0.0
 10
140.1156075120156
 20
95.48413312605763
 30
0.0
 10
140.1816553277933
 20
95.43436728983866
 30
0.0
 10
140.2039482050599
 20
95.39414445070742
 30
0.0
 10
140.21525125953
 20
95.3737504505877
 30
0.0
  0
ARC
  5
225
330
1F
100
AcDbEntity
  8
0
  6
PHANTOM
 62
     7
370
     0
100
AcDbCircle
 10
119.9293247649
 20
125.5919640833
 30
0.0
 40
35.99999999999981
100
AcDbArc
 50
298.8386331754
 51
303.2123480488
  0
ELLIPSE
  5
226
330
1F
100
AcDbEntity
  8
0
  6
PHANTOM
 62
     7
370
     0
100
AcDbEllipse
 10
202.0985465743
 20
125.5919640833
 30
0.0
 11
134.3538290724862
 21
0.0
 31
0.0
210
0.0
220
0.0
230
1.0
 40
0.2679491924
 41
4.202620025728991
 42
4.209059879698525
  0
ELLIPSE
  5
227
330
1F
100
AcDbEntity
  8
0
  6
PHANTOM
 62
     7
370
     0
100
AcDbEllipse
 10
141.2442534762
 20
125.5919640833
 30
0.0
 11
0.0
 21
36.0
 31
0.0
210
0.0
220
0.0
230
1.0
 40
0.2679491924
 41
2.524108664341972
 42
2.631823698934081
  0
LINE
  5
228
330
1F
100
AcDbEntity
  8
0
  6
PHANTOM
 62
     7
370
     0
100
AcDbLine
 10
135.6592603401
 20
103.0888527357
 30
0.0
 11
135.6592603401
 21
96.2398040765
 31
0.0
  0
ARC
  5
229
330
1F
100
AcDbEntity
  8
0
  6
PHANTOM
 62
     7
370
     0
100
AcDbCircle
 10
107.559259446
 20
125.5919640833
 30
0.0
 40
35.99999999999991
100
AcDbArc
 50
321.3114697239
 51
323.9334117402
  0
ELLIPSE
  5
22A
330
1F
100
AcDbEntity
  8
0
  6
PHANTOM
 62
     7
370
     0
100
AcDbEllipse
 10
174.9554912297
 20
125.5919640833
 30
0.0
 11
0.0
 21
35.99999999999997
 31
0.0
210
0.0
220
0.0
230
1.0
 40
0.2679491924
 41
2.82956362462699
 42
2.855933635488657
  0
SPLINE
  5
22B
330
1F
100
AcDbEntity
  8
0
  6
PHANTOM
 62
     7
370
     0
100
AcDbSpline
210
0.0
220
0.0
230
1.0
 70
     8
 71
     3
 72
    14
 73
    10
 74
     0
 42
0.00000001
 43
0.00000001
 40
0.0
 40
0.0
 40
0.0
 40
0.0
 40
0.1570146893704819
 40
0.3142291446058081
 40
0.4669236331449843
 40
0.6174555960073039
 40
0.7709328069600728
 40
0.9310595934516199
 40
0.9999999999999999
 40
0.9999999999999999
 40
0.9999999999999999
 40
0.9999999999999999
 10
171.4270502701645
 20
91.37970094618841
 30
0.0
 10
171.4556873471984
 20
91.3874811655335
 30
0.0
 10
171.5129979355035
 20
91.40305150280228
 30
0.0
 10
171.6233958949796
 20
91.41342985579968
 30
0.0
 10
171.7354011290806
 20
91.41207167287135
 30
0.0
 10
171.8390734772179
 20
91.39906957492822
 30
0.0
 10
171.924688294029
 20
91.37609603455077
 30
0.0
 10
171.9737481062023
 20
91.35136167064198
 30
0.0
 10
171.9894770195525
 20
91.33517798766336
 30
0.0
 10
171.9942108169441
 20
91.3303073221211
 30
0.0
  0
SPLINE
  5
22C
330
1F
100
AcDbEntity
  8
0
  6
PHANTOM
 62
     7
370
     0
100
AcDbSpline
210
0.0
220
0.0
230
1.0
 70
     8
 71
     3
 72
    12
 73
     8
 74
     0
 42
0.00000001
 43
0.00000001
 40
0.0
 40
0.0
 40
0.0
 40
0.0
 40
0.1251066534406001
 40
0.249966394820093
 40
0.3749003080755132
 40
0.5001446677603117
 40
1.0
 40
1.0
 40
1.0
 40
1.0
 10
139.5643871650343
 20
115.4317080700163
 30
0.0
 10
139.5669685381401
 20
115.3917253651213
 30
0.0
 10
139.5721261897214
 20
115.3118388656994
 30
0.0
 10
139.6282785856887
 20
115.2021975328971
 30
0.0
 10
139.7212708084693
 20
115.1238267366755
 30
0.0
 10
139.9428499594435
 20
115.0295844336193
 30
0.0
 10
140.144626403058
 20
115.0250650483515
 30
0.0
 10
140.3059751168136
 20
115.0214511626725
 30
0.0
  0
SPLINE
  5
22D
330
1F
100
AcDbEntity
  8
0
  6
PHANTOM
 62
     7
370
     0
100
AcDbSpline
210
0.0
220
0.0
230
1.0
 70
     8
 71
     3
 72
    12
 73
     8
 74
     0
 42
0.00000001
 43
0.00000001
 40
0.0
 40
0.0
 40
0.0
 40
0.0
 40
0.4999003390543067
 40
0.6251624300200719
 40
0.7500856479260936
 40
0.8748836220571006
 40
1.0
 40
1.0
 40
1.0
 40
1.0
 10
140.3059751168136
 20
115.8419640460376
 30
0.0
 10
140.1447624044714
 20
115.838307938524
 30
0.0
 10
139.9431539574983
 20
115.8337357050626
 30
0.0
 10
139.7219372878647
 20
115.7389889514746
 30
0.0
 10
139.6294615504879
 20
115.6604321153188
 30
0.0
 10
139.5723936464304
 20
115.5514925842964
 30
0.0
 10
139.5670582580199
 20
115.4716701407504
 30
0.0
 10
139.5643871650343
 20
115.4317080700163
 30
0.0
  0
SPLINE
  5
22E
330
1F
100
AcDbEntity
  8
0
  6
PHANTOM
 62
     7
370
     0
100
AcDbSpline
210
0.0
220
0.0
230
1.0
 70
     8
 71
     3
 72
    12
 73
     8
 74
     0
 42
0.00000001
 43
0.00000001
 40
0.0
 40
0.0
 40
0.0
 40
0.0
 40
0.1250773278580822
 40
0.24985740664184
 40
0.3747919573754203
 40
0.500056046991338
 40
1.0
 40
1.0
 40
1.0
 40
1.0
 10
141.0515677556639
 20
115.4317080700163
 30
0.0
 10
141.0488041080788
 20
115.4717883692936
 30
0.0
 10
141.0432833807792
 20
115.551853716118
 30
0.0
 10
140.9857343668637
 20
115.6611292233156
 30
0.0
 10
140.8921460207949
 20
115.7390226803672
 30
0.0
 10
140.6702015400689
 20
115.8339495253941
 30
0.0
 10
140.4678135160158
 20
115.8384029172768
 30
0.0
 10
140.3059751168136
 20
115.8419640460376
 30
0.0
  0
SPLINE
  5
22F
330
1F
100
AcDbEntity
  8
0
  6
PHANTOM
 62
     7
370
     0
100
AcDbSpline
210
0.0
220
0.0
230
1.0
 70
     8
 71
     3
 72
    12
 73
     8
 74
     0
 42
0.00000001
 43
0.00000001
 40
0.0
 40
0.0
 40
0.0
 40
0.0
 40
0.4999044631026388
 40
0.6251666775285571
 40
0.7500865878078335
 40
0.8748734733196999
 40
0.9999999999999999
 40
0.9999999999999999
 40
0.9999999999999999
 40
0.9999999999999999
 10
140.3059751168136
 20
115.0214511626725
 30
0.0
 10
140.4678715143989
 20
115.0250501238832
 30
0.0
 10
140.6703346657661
 20
115.0295508851061
 30
0.0
 10
140.8928477483065
 20
115.1236502735612
 30
0.0
 10
140.9865162583153
 20
115.2017522389318
 30
0.0
 10
141.0435780251902
 20
115.3114231528653
 30
0.0
 10
141.0489021003038
 20
115.3915767870912
 30
0.0
 10
141.0515677556639
 20
115.4317080700163
 30
0.0
  0
SPLINE
  5
230
330
1F
100
AcDbEntity
  8
0
  6
PHANTOM
 62
     7
370
     0
100
AcDbSpline
210
0.0
220
0.0
230
1.0
 70
     8
 71
     3
 72
    11
 73
     7
 74
     0
 42
0.00000001
 43
0.00000001
 40
0.0
 40
0.0
 40
0.0
 40
0.0
 40
0.1875658580711322
 40
0.3744439242854689
 40
0.5612335177708703
 40
0.9999999999999999
 40
0.9999999999999999
 40
0.9999999999999999
 40
0.9999999999999999
 10
140.64131084832
 20
120.0458903522555
 30
0.0
 10
140.6383770654233
 20
120.0971783645947
 30
0.0
 10
140.6325202576218
 20
120.1995663194525
 30
0.0
 10
140.5667435816673
 20
120.3429175486013
 30
0.0
 10
140.3902053495774
 20
120.48983589355
 30
0.0
 10
140.2140121434975
 20
120.5008824594016
 30
0.0
 10
140.0904298201446
 20
120.508630546308
 30
0.0
  0
SPLINE
  5
231
330
1F
100
AcDbEntity
  8
0
  6
PHANTOM
 62
     7
370
     0
100
AcDbSpline
210
0.0
220
0.0
230
1.0
 70
     8
 71
     3
 72
     9
 73
     5
 74
     0
 42
0.00000001
 43
0.00000001
 40
0.0
 40
0.0
 40
0.0
 40
0.0
 40
0.5583893144641102
 40
1.0
 40
1.0
 40
1.0
 40
1.0
 10
140.5066956207399
 20
119.7097527520124
 30
0.0
 10
140.5509432151837
 20
119.7651750822536
 30
0.0
 10
140.6301846929441
 20
119.8644290056464
 30
0.0
 10
140.6379025570578
 20
119.9903030355976
 30
0.0
 10
140.64131084832
 20
120.0458903522555
 30
0.0
  0
LINE
  5
232
330
1F
100
AcDbEntity
  8
0
  6
PHANTOM
 62
     7
370
     0
100
AcDbLine
 10
139.7631053254
 20
120.4485346289
 30
0.0
 11
140.5066956207
 21
119.709752752
 31
0.0
  0
SPLINE
  5
233
330
1F
100
AcDbEntity
  8
0
  6
PHANTOM
 62
     7
370
     0
100
AcDbSpline
210
0.0
220
0.0
230
1.0
 70
     8
 71
     3
 72
     9
 73
     5
 74
     0
 42
0.00000001
 43
0.00000001
 40
0.0
 40
0.0
 40
0.0
 40
0.0
 40
0.5606572617052439
 40
1.0
 40
1.0
 40
1.0
 40
1.0
 10
140.0904298201446
 20
120.508630546308
 30
0.0
 10
140.0270707499647
 20
120.5083709935237
 30
0.0
 10
139.9140621892851
 20
120.5079080497573
 30
0.0
 10
139.8091831637107
 20
120.4666576794993
 30
0.0
 10
139.7631053254251
 20
120.4485346288745
 30
0.0
  0
SPLINE
  5
234
330
1F
100
AcDbEntity
  8
0
  6
PHANTOM
 62
     7
370
     0
100
AcDbSpline
210
0.0
220
0.0
230
1.0
 70
     8
 71
     3
 72
    11
 73
     7
 74
     0
 42
0.00000001
 43
0.00000001
 40
0.0
 40
0.0
 40
0.0
 40
0.0
 40
0.2799805053777467
 40
0.5580467871077348
 40
0.7787036749999483
 40
0.9999999999999999
 40
0.9999999999999999
 40
0.9999999999999999
 40
0.9999999999999999
 10
139.53874599191
 20
120.048695030189
 30
0.0
 10
139.5449011729287
 20
119.9724225701084
 30
0.0
 10
139.5571694520609
 20
119.8203991239213
 30
0.0
 10
139.7107151996669
 20
119.6565174570218
 30
0.0
 10
139.8961434192136
 20
119.5935771781084
 30
0.0
 10
140.0143925663145
 20
119.5882309056213
 30
0.0
 10
140.0736026838665
 20
119.5855539017682
 30
0.0
  0
LINE
  5
235
330
1F
100
AcDbEntity
  8
0
  6
PHANTOM
 62
     7
370
     0
100
AcDbLine
 10
140.4141463712
 20
119.6428456069
 30
0.0
 11
139.6681532637
 21
120.3860345022
 31
0.0
  0
SPLINE
  5
236
330
1F
100
AcDbEntity
  8
0
  6
PHANTOM
 62
     7
370
     0
100
AcDbSpline
210
0.0
220
0.0
230
1.0
 70
     8
 71
     3
 72
     9
 73
     5
 74
     0
 42
0.00000001
 43
0.00000001
 40
0.0
 40
0.0
 40
0.0
 40
0.0
 40
0.5604739215529931
 40
1.0
 40
1.0
 40
1.0
 40
1.0
 10
140.0736026838665
 20
119.5855539017682
 30
0.0
 10
140.1389527775835
 20
119.5867223855344
 30
0.0
 10
140.2555506980289
 20
119.5888071993344
 30
0.0
 10
140.3657228411778
 20
119.6263462258267
 30
0.0
 10
140.4141463712101
 20
119.6428456069295
 30
0.0
  0
SPLINE
  5
237
330
1F
100
AcDbEntity
  8
0
  6
PHANTOM
 62
     7
370
     0
100
AcDbSpline
210
0.0
220
0.0
230
1.0
 70
     8
 71
     3
 72
     9
 73
     5
 74
     0
 42
0.00000001
 43
0.00000001
 40
0.0
 40
0.0
 40
0.0
 40
0.0
 40
0.5582131966869104
 40
1.0
 40
1.0
 40
1.0
 40
1.0
 10
139.6681532636528
 20
120.3860345022146
 30
0.0
 10
139.6246574485491
 20
120.330167606394
 30
0.0
 10
139.5467377301299
 20
120.2300859598973
 30
0.0
 10
139.5411947897995
 20
120.1042761457892
 30
0.0
 10
139.53874599191
 20
120.048695030189
 30
0.0
  0
LINE
  5
238
330
1F
100
AcDbEntity
  8
0
  6
PHANTOM
 62
     7
370
     0
100
AcDbLine
 10
135.6592603401
 20
148.0950757587
 30
0.0
 11
135.6592603401
 21
138.2584225112
 31
0.0
  0
LINE
  5
239
330
1F
100
AcDbEntity
  8
0
  6
PHANTOM
 62
     7
370
     0
100
AcDbLine
 10
136.6592586413
 20
124.9419640708
 30
0.0
 11
136.6592586413
 21
124.7419640904
 31
0.0
  0
LINE
  5
23A
330
1F
100
AcDbEntity
  8
0
  6
PHANTOM
 62
     7
370
     0
100
AcDbLine
 10
136.6592586413
 20
121.9419641611
 30
0.0
 11
136.6592586413
 21
121.7419640352
 31
0.0
  0
LINE
  5
23B
330
1F
100
AcDbEntity
  8
0
  6
PHANTOM
 62
     7
370
     0
100
AcDbLine
 10
136.6592586413
 20
115.9419638762
 30
0.0
 11
136.6592586413
 21
115.7419642159
 31
0.0
  0
LINE
  5
23C
330
1F
100
AcDbEntity
  8
0
  6
PHANTOM
 62
     7
370
     0
100
AcDbLine
 10
135.6592603401
 20
112.9255059832
 30
0.0
 11
135.6592603401
 21
103.0888527357
 31
0.0
  0
ARC
  5
23D
330
1F
100
AcDbEntity
  8
0
  6
PHANTOM
 62
     7
370
     0
100
AcDbCircle
 10
123.959259446
 20
115.5919640833
 30
0.0
 40
11.99999999999994
100
AcDbArc
 50
347.161431859
 51
0.0
  0
LINE
  5
23E
330
1F
100
AcDbEntity
  8
0
  6
PHANTOM
 62
     7
370
     0
100
AcDbLine
 10
135.9592598304
 20
115.5919644707
 30
0.0
 11
135.9592598304
 21
135.5919640237
 31
0.0
  0
ARC
  5
23F
330
1F
100
AcDbEntity
  8
0
  6
PHANTOM
 62
     7
370
     0
100
AcDbCircle
 10
123.959259446
 20
135.5919640833
 30
0.0
 40
11.99999999999993
100
AcDbArc
 50
0.0
 51
12.838568141
  0
LINE
  5
240
330
1F
100
AcDbEntity
  8
0
  6
PHANTOM
 62
     7
370
     0
100
AcDbLine
 10
136.6592586413
 20
114.9419637123
 30
0.0
 11
136.6592586413
 21
114.741964052
 31
0.0
  0
LINE
  5
241
330
1F
100
AcDbEntity
  8
0
  6
PHANTOM
 62
     7
370
     0
100
AcDbLine
 10
136.6592586413
 20
129.9419643083
 30
0.0
 11
136.6592586413
 21
129.7419641824
 31
0.0
  0
LINE
  5
242
330
1F
100
AcDbEntity
  8
0
  6
PHANTOM
 62
     7
370
     0
100
AcDbLine
 10
136.6592586413
 20
127.9419639805
 30
0.0
 11
136.6592586413
 21
127.7419640874
 31
0.0
  0
LINE
  5
243
330
1F
100
AcDbEntity
  8
0
  6
PHANTOM
 62
     7
370
     0
100
AcDbLine
 10
136.6592586413
 20
118.9419639022
 30
0.0
 11
136.6592586413
 21
118.741964242
 31
0.0
  0
LINE
  5
244
330
1F
100
AcDbEntity
  8
0
  6
PHANTOM
 62
     7
370
     0
100
AcDbLine
 10
136.6592586413
 20
116.9419640401
 30
0.0
 11
136.6592586413
 21
116.7419643798
 31
0.0
  0
LINE
  5
245
330
1F
100
AcDbEntity
  8
0
  6
PHANTOM
 62
     7
370
     0
100
AcDbLine
 10
136.6592586413
 20
128.9419641444
 30
0.0
 11
136.6592586413
 21
128.7419640185
 31
0.0
  0
LINE
  5
246
330
1F
100
AcDbEntity
  8
0
  6
PHANTOM
 62
     7
370
     0
100
AcDbLine
 10
136.6592586413
 20
123.9419640815
 30
0.0
 11
136.6592586413
 21
123.741964072
 31
0.0
  0
LINE
  5
247
330
1F
100
AcDbEntity
  8
0
  6
PHANTOM
 62
     7
370
     0
100
AcDbLine
 10
136.6592586413
 20
125.9419641183
 30
0.0
 11
136.6592586413
 21
125.7419641088
 31
0.0
  0
LINE
  5
248
330
1F
100
AcDbEntity
  8
0
  6
PHANTOM
 62
     7
370
     0
100
AcDbLine
 10
136.6592586413
 20
122.9419640922
 30
0.0
 11
136.6592586413
 21
122.7419640827
 31
0.0
  0
LINE
  5
249
330
1F
100
AcDbEntity
  8
0
  6
PHANTOM
 62
     7
370
     0
100
AcDbLine
 10
136.6592586413
 20
126.9419640494
 30
0.0
 11
136.6592586413
 21
126.7419641563
 31
0.0
  0
LINE
  5
24A
330
1F
100
AcDbEntity
  8
0
  6
PHANTOM
 62
     7
370
     0
100
AcDbLine
 10
136.6592586413
 20
117.941964204
 30
0.0
 11
136.6592586413
 21
117.7419640781
 31
0.0
  0
LINE
  5
24B
330
1F
100
AcDbEntity
  8
0
  6
PHANTOM
 62
     7
370
     0
100
AcDbLine
 10
136.6592586413
 20
120.9419639972
 30
0.0
 11
136.6592586413
 21
120.7419641042
 31
0.0
  0
LINE
  5
24C
330
1F
100
AcDbEntity
  8
0
  6
PHANTOM
 62
     7
370
     0
100
AcDbLine
 10
136.6592586413
 20
119.9419640662
 30
0.0
 11
136.6592586413
 21
119.7419639402
 31
0.0
  0
LINE
  5
24D
330
1F
100
AcDbEntity
  8
0
  6
PHANTOM
 62
     7
370
     0
100
AcDbLine
 10
172.6917304471
 20
91.0587150329
 30
0.0
 11
172.543050386
 21
90.9221682423
 31
0.0
  0
SPLINE
  5
24E
330
1F
100
AcDbEntity
  8
0
  6
PHANTOM
 62
     7
370
     0
100
AcDbSpline
210
0.0
220
0.0
230
1.0
 70
     8
 71
     3
 72
     9
 73
     5
 74
     0
 42
0.00000001
 43
0.00000001
 40
0.0
 40
0.0
 40
0.0
 40
0.0
 40
0.8476708414088135
 40
1.0
 40
1.0
 40
1.0
 40
1.0
 10
172.2372971847896
 20
91.0508211427693
 30
0.0
 10
172.3232879032415
 20
90.97729094426518
 30
0.0
 10
172.4247314285478
 20
90.89054713415379
 30
0.0
 10
172.5274095189233
 20
90.91798817209192
 30
0.0
 10
172.5430503860359
 20
90.92216824231191
 30
0.0
  0
LINE
  5
24F
330
1F
100
AcDbEntity
  8
0
  6
PHANTOM
 62
     7
370
     0
100
AcDbLine
 10
151.8414296583
 20
129.9182295525
 30
0.0
 11
151.8414296583
 21
118.5919640311
 31
0.0
  0
ARC
  5
250
330
1F
100
AcDbEntity
  8
0
  6
PHANTOM
 62
     7
370
     0
100
AcDbCircle
 10
158.1199482456
 20
118.4261015954
 30
0.0
 40
6.280709036349913
100
AcDbArc
 50
178.4867437068
 51
1.5132562932
  0
LINE
  5
251
330
1F
100
AcDbEntity
  8
0
  6
PHANTOM
 62
     7
370
     0
100
AcDbLine
 10
164.398466833
 20
118.5919640311
 30
0.0
 11
164.398466833
 21
129.4550050707
 31
0.0
  0
ELLIPSE
  5
252
330
1F
100
AcDbEntity
  8
0
  6
PHANTOM
 62
     7
370
     0
100
AcDbEllipse
 10
154.9820147017
 20
118.5919640833
 30
0.0
 11
9.192388155425505
 21
0.0
 31
0.0
210
0.0
220
0.0
230
1.0
 40
0.7071067812
 41
4.916634060963743
 42
5.024819137868051
  0
SPLINE
  5
253
330
1F
100
AcDbEntity
  8
0
  6
PHANTOM
 62
     7
370
     0
100
AcDbSpline
210
0.0
220
0.0
230
1.0
 70
     8
 71
     3
 72
    13
 73
     9
 74
     0
 42
0.00000001
 43
0.00000001
 40
0.0
 40
0.0
 40
0.0
 40
0.0
 40
0.156817399481238
 40
0.3133929449741102
 40
0.4762720452463848
 40
0.6474527924784393
 40
0.8230744917147748
 40
1.0
 40
1.0
 40
1.0
 40
1.0
 10
157.8074969724064
 20
112.4066326492791
 30
0.0
 10
157.8372488658502
 20
112.4139363772159
 30
0.0
 10
157.8967067674336
 20
112.4285325688054
 30
0.0
 10
158.0086058988843
 20
112.4629418579965
 30
0.0
 10
158.124398596535
 20
112.504083678321
 30
0.0
 10
158.2343888049997
 20
112.5496570461728
 30
0.0
 10
158.3278836824034
 20
112.59539011455
 30
0.0
 10
158.3590278472498
 20
112.6171886099787
 30
0.0
 10
158.374657519186
 20
112.6281281658773
 30
0.0
  0
ELLIPSE
  5
254
330
1F
100
AcDbEntity
  8
0
  6
PHANTOM
 62
     7
370
     0
100
AcDbEllipse
 10
157.0365182591
 20
118.5919640833
 30
0.0
 11
0.0
 21
6.5
 31
0.0
210
0.0
220
0.0
230
1.0
 40
0.5176380902
 41
3.550606993685656
 42
3.854223474160371
  0
ARC
  5
255
330
1F
100
AcDbEntity
  8
0
  6
PHANTOM
 62
     7
370
     0
100
AcDbCircle
 10
154.965805655
 20
118.445053332
 30
0.0
 40
6.403373363494036
100
AcDbArc
 50
311.8306395236
 51
321.7283265667
  0
ELLIPSE
  5
256
330
1F
100
AcDbEntity
  8
0
  6
PHANTOM
 62
     7
370
     0
100
AcDbEllipse
 10
152.8750623421
 20
118.5919640833
 30
0.0
 11
9.192388155425505
 21
0.0
 31
0.0
210
0.0
220
0.0
230
1.0
 40
0.7071067812
 41
5.598040645238251
 42
6.283185307179586
  0
ELLIPSE
  5
257
330
1F
100
AcDbEntity
  8
0
  6
PHANTOM
 62
     7
370
     0
100
AcDbEllipse
 10
187.0902888375
 20
128.5919640833
 30
0.0
 11
0.0
 21
1.0
 31
0.0
210
0.0
220
0.0
230
1.0
 40
0.7689706084
 41
3.141592653589793
 42
4.7123889803847
  0
LINE
  5
258
330
1F
100
AcDbEntity
  8
0
  6
PHANTOM
 62
     7
370
     0
100
AcDbLine
 10
187.0902903751
 20
127.5919641094
 30
0.0
 11
180.3098895028
 21
127.5919641094
 31
0.0
  0
LINE
  5
259
330
1F
100
AcDbEntity
  8
0
  6
PHANTOM
 62
     7
370
     0
100
AcDbLine
 10
162.0674521104
 20
118.5919640311
 30
0.0
 11
162.0674521104
 21
127.7216812787
 31
0.0
  0
SPLINE
  5
25A
330
1F
100
AcDbEntity
  8
0
  6
PHANTOM
 62
     7
370
     0
100
AcDbSpline
210
0.0
220
0.0
230
1.0
 70
    24
 71
     3
 72
    11
 73
     7
 74
     0
 42
0.00000001
 43
0.00000001
 40
0.0
 40
0.0
 40
0.0
 40
0.0
 40
0.1806257217774327
 40
0.4091277152164985
 40
0.7811108961541019
 40
1.0
 40
1.0
 40
1.0
 40
1.0
 10
194.1592596844082
 20
159.4600479775433
 30
0.0
 10
194.1592596844082
 20
159.5533256538346
 30
0.0
 10
194.1592596844082
 20
159.764604989946
 30
0.0
 10
194.1592596844081
 20
160.1010553516527
 30
0.0
 10
194.1592596844082
 20
160.3675161521409
 30
0.0
 10
194.1592596844082
 20
160.4991261470642
 30
0.0
 10
194.1592596844082
 20
160.5478811734681
 30
0.0
  0
SPLINE
  5
25B
330
1F
100
AcDbEntity
  8
0
  6
PHANTOM
 62
     7
370
     0
100
AcDbSpline
210
0.0
220
0.0
230
1.0
 70
     8
 71
     3
 72
    15
 73
    11
 74
     0
 42
0.00000001
 43
0.00000001
 40
0.0
 40
0.0
 40
0.0
 40
0.0
 40
0.1793864995659475
 40
0.2817915762448638
 40
0.3628151940515895
 40
0.4443030158688782
 40
0.5177157318552955
 40
0.6473631560769305
 40
0.9103635772981811
 40
0.9999999999999999
 40
0.9999999999999999
 40
0.9999999999999999
 40
0.9999999999999999
 10
193.8319482282047
 20
160.6080967658524
 30
0.0
 10
193.8368429879162
 20
160.6015439995202
 30
0.0
 10
193.844531983787
 20
160.5912505027521
 30
0.0
 10
193.8710043741821
 20
160.5758667030785
 30
0.0
 10
193.9001587084703
 20
160.5644967784159
 30
0.0
 10
193.9338591320189
 20
160.555686028346
 30
0.0
 10
193.977172423135
 20
160.5482456078806
 30
0.0
 10
194.0457906448181
 20
160.5423686947336
 30
0.0
 10
194.1077096081929
 20
160.5436889103821
 30
0.0
 10
194.1488119255888
 20
160.5470315189798
 30
0.0
 10
194.1592596844082
 20
160.5478811734681
 30
0.0
  0
LINE
  5
25C
330
1F
100
AcDbEntity
  8
0
  6
PHANTOM
 62
     7
370
     0
100
AcDbLine
 10
194.1592596844
 20
159.4600479775
 30
0.0
 11
194.1592596844
 21
128.5919642733
 31
0.0
  0
LINE
  5
25D
330
1F
100
AcDbEntity
  8
0
  6
PHANTOM
 62
     7
370
     0
100
AcDbLine
 10
194.1592596844
 20
128.4142341656
 30
0.0
 11
194.1592596844
 21
128.5919642733
 31
0.0
  0
SPLINE
  5
25E
330
1F
100
AcDbEntity
  8
0
  6
PHANTOM
 62
     7
370
     0
100
AcDbSpline
210
0.0
220
0.0
230
1.0
 70
     8
 71
     3
 72
    11
 73
     7
 74
     0
 42
0.00000001
 43
0.00000001
 40
0.0
 40
0.0
 40
0.0
 40
0.0
 40
0.4771896176100432
 40
0.7233115458521023
 40
0.9357727105664603
 40
1.0
 40
1.0
 40
1.0
 40
1.0
 10
194.2902483418827
 20
127.812972078598
 30
0.0
 10
194.2490150024935
 20
127.862290907697
 30
0.0
 10
194.1865145847275
 20
127.9370470993634
 30
0.0
 10
194.1629869440522
 20
128.1455069317073
 30
0.0
 10
194.1593765799538
 20
128.3004948683975
 30
0.0
 10
194.159281707105
 20
128.3928060945918
 30
0.0
 10
194.1592596844082
 20
128.4142341656004
 30
0.0
  0
LINE
  5
25F
330
1F
100
AcDbEntity
  8
0
  6
PHANTOM
 62
     7
370
     0
100
AcDbLine
 10
193.7766127661
 20
127.5919641094
 30
0.0
 11
187.0902903751
 21
127.5919641094
 31
0.0
  0
SPLINE
  5
260
330
1F
100
AcDbEntity
  8
0
  6
PHANTOM
 62
     7
370
     0
100
AcDbSpline
210
0.0
220
0.0
230
1.0
 70
     8
 71
     3
 72
    10
 73
     6
 74
     0
 42
0.00000001
 43
0.00000001
 40
0.0
 40
0.0
 40
0.0
 40
0.0
 40
0.107326264892208
 40
0.5997660837745374
 40
1.0
 40
1.0
 40
1.0
 40
1.0
 10
194.1592596844082
 20
161.0862564021115
 30
0.0
 10
194.1611203374256
 20
161.0967599418156
 30
0.0
 10
194.1715181331065
 20
161.155456355787
 30
0.0
 10
194.347443583188
 20
161.2212070938328
 30
0.0
 10
194.7194308309378
 20
161.3266277394634
 30
0.0
 10
194.88621283325
 20
161.3738935166363
 30
0.0
  0
SPLINE
  5
261
330
1F
100
AcDbEntity
  8
0
  6
PHANTOM
 62
     7
370
     0
100
AcDbSpline
210
0.0
220
0.0
230
1.0
 70
    24
 71
     3
 72
     9
 73
     5
 74
     0
 42
0.00000001
 43
0.00000001
 40
0.0
 40
0.0
 40
0.0
 40
0.0
 40
0.6391367739335361
 40
1.0
 40
1.0
 40
1.0
 40
1.0
 10
194.1592596844082
 20
160.5478811734681
 30
0.0
 10
194.1592596844082
 20
160.6795118923965
 30
0.0
 10
194.1592596844082
 20
160.8854626752288
 30
0.0
 10
194.1592596844082
 20
161.033011468551
 30
0.0
 10
194.1592596844082
 20
161.0862564021115
 30
0.0
  0
SPLINE
  5
262
330
1F
100
AcDbEntity
  8
0
  6
PHANTOM
 62
     7
370
     0
100
AcDbSpline
210
0.0
220
0.0
230
1.0
 70
     8
 71
     3
 72
    11
 73
     7
 74
     0
 42
0.00000001
 43
0.00000001
 40
0.0
 40
0.0
 40
0.0
 40
0.0
 40
0.2464342341308083
 40
0.5789894720347634
 40
0.9117911883953331
 40
1.0
 40
1.0
 40
1.0
 40
1.0
 10
196.3803075626736
 20
127.5919641093676
 30
0.0
 10
196.1446005980935
 20
127.5923600818653
 30
0.0
 10
195.59081450803
 20
127.5932904067783
 30
0.0
 10
194.8682710033858
 20
127.6232386779119
 30
0.0
 10
194.4529038505788
 20
127.7004936633766
 30
0.0
 10
194.318424116069
 20
127.7934881616159
 30
0.0
 10
194.2902483418827
 20
127.812972078598
 30
0.0
  0
LINE
  5
263
330
1F
100
AcDbEntity
  8
0
  6
PHANTOM
 62
     7
370
     0
100
AcDbLine
 10
194.8862128333
 20
161.3738935166
 30
0.0
 11
195.1790132001
 21
161.4628236466
 31
0.0
  0
SPLINE
  5
264
330
1F
100
AcDbEntity
  8
0
  6
PHANTOM
 62
     7
370
     0
100
AcDbSpline
210
0.0
220
0.0
230
1.0
 70
     8
 71
     3
 72
    10
 73
     6
 74
     0
 42
0.00000001
 43
0.00000001
 40
0.0
 40
0.0
 40
0.0
 40
0.0
 40
0.2794903083464191
 40
0.8449415239468705
 40
1.0
 40
1.0
 40
1.0
 40
1.0
 10
196.0099764541035
 20
161.6804476552968
 30
0.0
 10
195.9600646223779
 20
161.6482386865073
 30
0.0
 10
195.8091735971733
 20
161.5508660966142
 30
0.0
 10
195.6108600627404
 20
161.4939349683976
 30
0.0
 10
195.4744088410459
 20
161.4826402705379
 30
0.0
 10
195.4450436309223
 20
161.4802095764641
 30
0.0
  0
SPLINE
  5
265
330
1F
100
AcDbEntity
  8
0
  6
PHANTOM
 62
     7
370
     0
100
AcDbSpline
210
0.0
220
0.0
230
1.0
 70
     8
 71
     3
 72
     9
 73
     5
 74
     0
 42
0.00000001
 43
0.00000001
 40
0.0
 40
0.0
 40
0.0
 40
0.0
 40
0.6025359758802521
 40
1.0
 40
1.0
 40
1.0
 40
1.0
 10
196.0099764541035
 20
161.6804476552968
 30
0.0
 10
196.234003961571
 20
161.7335605669811
 30
0.0
 10
196.6058116484735
 20
161.8217095137834
 30
0.0
 10
197.0018480798059
 20
161.9074248751955
 30
0.0
 10
197.1592583135013
 20
161.9414936476712
 30
0.0
  0
LINE
  5
266
330
1F
100
AcDbEntity
  8
0
  6
PHANTOM
 62
     7
370
     0
100
AcDbLine
 10
196.3803075627
 20
127.5919641094
 30
0.0
 11
197.1592583135
 21
127.5919641094
 31
0.0
  0
LINE
  5
267
330
1F
100
AcDbEntity
  8
0
  6
PHANTOM
 62
     7
370
     0
100
AcDbLine
 10
196.3803075627
 20
127.5919641094
 30
0.0
 11
193.7766127661
 21
127.5919641094
 31
0.0
  0
CIRCLE
  5
268
330
1F
100
AcDbEntity
  8
0
  6
PHANTOM
 62
     7
370
     0
100
AcDbCircle
 10
211.8812894059
 20
144.4860905806
 30
0.0
 40
3.876063489992735
  0
LINE
  5
269
330
1F
100
AcDbEntity
  8
0
  6
PHANTOM
 62
     7
370
     0
100
AcDbLine
 10
207.2823398188
 20
149.1599071496
 30
0.0
 11
222.2921006754
 21
151.8141299212
 31
0.0
  0
LINE
  5
26A
330
1F
100
AcDbEntity
  8
0
  6
PHANTOM
 62
     7
370
     0
100
AcDbLine
 10
222.2921006754
 20
140.615875619
 30
0.0
 11
222.2921006754
 21
151.8141299212
 31
0.0
  0
LINE
  5
26B
330
1F
100
AcDbEntity
  8
0
  6
PHANTOM
 62
     7
370
     0
100
AcDbLine
 10
209.5610849932
 20
127.8848573757
 30
0.0
 11
222.2921006754
 21
140.615875619
 31
0.0
  0
ARC
  5
26C
330
1F
100
AcDbEntity
  8
0
  6
PHANTOM
 62
     7
370
     0
100
AcDbCircle
 10
208.8539752607
 20
128.5919640833
 30
0.0
 40
1.000000000000028
100
AcDbArc
 50
270.0
 51
315.0
  0
LINE
  5
26D
330
1F
100
AcDbEntity
  8
0
  6
PHANTOM
 62
     7
370
     0
100
AcDbLine
 10
206.0194366053
 20
127.5919641094
 30
0.0
 11
206.0194366053
 21
149.1703379625
 31
0.0
  0
ARC
  5
26E
330
1F
100
AcDbEntity
  8
0
  6
PHANTOM
 62
     7
370
     0
100
AcDbCircle
 10
206.6791023405
 20
152.5811280091
 30
0.0
 40
3.473995915971733
100
AcDbArc
 50
259.053825853
 51
279.9997390494
  0
LINE
  5
26F
330
1F
100
AcDbEntity
  8
0
  6
PHANTOM
 62
     7
370
     0
100
AcDbLine
 10
206.0194366053
 20
127.5919641094
 30
0.0
 11
208.8539727405
 21
127.5919641094
 31
0.0
  0
LINE
  5
270
330
1F
100
AcDbEntity
  8
0
  6
PHANTOM
 62
     7
370
     0
100
AcDbLine
 10
206.0194366053
 20
156.0110438341
 30
0.0
 11
206.0194366053
 21
163.8380799168
 31
0.0
  0
LINE
  5
271
330
1F
100
AcDbEntity
  8
0
  6
PHANTOM
 62
     7
370
     0
100
AcDbLine
 10
206.0194366053
 20
156.0110438341
 30
0.0
 11
205.9729300812
 21
156.0022595995
 31
0.0
  0
ELLIPSE
  5
272
330
1F
100
AcDbEntity
  8
0
  6
PHANTOM
 62
     7
370
     0
100
AcDbEllipse
 10
206.6371559108
 20
152.5905318409
 30
0.0
 11
3.526284389105939
 21
2.842170943040401E-14
 31
0.0
210
0.0
220
0.0
230
1.0
 40
0.9851478631
 41
1.760291809115484
 42
4.536304122047179
  0
ELLIPSE
  5
273
330
1F
100
AcDbEntity
  8
0
  6
PHANTOM
 62
     7
370
     0
100
AcDbEllipse
 10
465.2779122468
 20
180.1502276555
 30
0.0
 11
1467.419349928407
 21
307.2741536090641
 31
0.0
210
0.0
220
0.0
230
0.9999999999999998
 40
0.0251651217
 41
1.743133143970079
 42
1.749270906205326
  0
LINE
  5
274
330
1F
100
AcDbEntity
  8
0
  6
PHANTOM
 62
     7
370
     0
100
AcDbLine
 10
197.1592583135
 20
127.5919641094
 30
0.0
 11
206.0194366053
 21
127.5919641094
 31
0.0
  0
CIRCLE
  5
275
330
1F
100
AcDbEntity
  8
0
  6
PHANTOM
 62
     7
370
     0
100
AcDbCircle
 10
211.8222073523
 20
144.4322587577
 30
0.0
 40
3.468720143918455
  0
LWPOLYLINE
  5
276
330
1F
100
AcDbEntity
  8
0
  6
PHANTOM
 62
     7
370
     0
100
AcDbPolyline
 90
        3
 70
   128
 43
0.0
 10
205.2545972541
 20
155.2892744267
 10
204.4571318105
 20
155.0454709404
 10
203.810823746
 20
154.6678885543
  0
LINE
  5
277
330
1F
100
AcDbEntity
  8
0
  6
PHANTOM
 62
     7
370
     0
100
AcDbLine
 10
206.7841865495
 20
155.5597565794
 30
0.0
 11
207.5032122806
 21
156.2734272057
 31
0.0
  0
LINE
  5
278
330
1F
100
AcDbEntity
  8
0
  6
PHANTOM
 62
     7
370
     0
100
AcDbLine
 10
206.7841865495
 20
155.5597565794
 30
0.0
 11
206.8026863411
 21
155.5630292469
 31
0.0
  0
LINE
  5
279
330
1F
100
AcDbEntity
  8
0
  6
PHANTOM
 62
     7
370
     0
100
AcDbLine
 10
204.6927787736
 20
154.7316450351
 30
0.0
 11
206.8095259741
 21
155.1059547537
 31
0.0
  0
LINE
  5
27A
330
1F
100
AcDbEntity
  8
0
  6
PHANTOM
 62
     7
370
     0
100
AcDbLine
 10
207.5032122806
 20
156.2734272057
 30
0.0
 11
206.0194366053
 21
156.0110438341
 31
0.0
  0
LINE
  5
27B
330
1F
100
AcDbEntity
  8
0
  6
PHANTOM
 62
     7
370
     0
100
AcDbLine
 10
207.3855452612
 20
164.138993966
 30
0.0
 11
207.5032122806
 21
156.2734272057
 31
0.0
  0
ELLIPSE
  5
27C
330
1F
100
AcDbEntity
  8
0
  6
PHANTOM
 62
     7
370
     0
100
AcDbEllipse
 10
251.1867229928
 20
134.6437405838
 30
0.0
 11
255.5476892121338
 21
50.58930668211119
 31
0.0
210
0.0
220
0.0
230
1.0
 40
0.1452100801
 41
1.714237736096113
 42
1.719664122082931
  0
SPLINE
  5
27D
330
1F
100
AcDbEntity
  8
0
  6
PHANTOM
 62
     7
370
     0
100
AcDbSpline
210
0.0
220
0.0
230
1.0
 70
     8
 71
     3
 72
     9
 73
     5
 74
     0
 42
0.00000001
 43
0.00000001
 40
0.0
 40
0.0
 40
0.0
 40
0.0
 40
0.6384470991235344
 40
1.0
 40
1.0
 40
1.0
 40
1.0
 10
196.0099764541035
 20
161.6804476552968
 30
0.0
 10
196.0077887445946
 20
161.7171246887238
 30
0.0
 10
196.0043621341331
 20
161.7745719439113
 30
0.0
 10
196.0064718621568
 20
161.7390433952754
 30
0.0
 10
196.0072346404438
 20
161.7261979454522
 30
0.0
  0
ELLIPSE
  5
27E
330
1F
100
AcDbEntity
  8
0
  6
PHANTOM
 62
     7
370
     0
100
AcDbEllipse
 10
207.1632504221
 20
125.2862626214
 30
0.0
 11
0.1226598013137448
 21
38.86178735419469
 31
0.0
210
0.0
220
0.0
230
0.9999999999999998
 40
0.1209221839
 41
6.261975949432649
 42
6.309281364791024
  0
LINE
  5
27F
330
1F
100
AcDbEntity
  8
0
  6
PHANTOM
 62
     7
370
     0
100
AcDbLine
 10
206.4137436822
 20
149.2282997542
 30
0.0
 11
205.9540056065
 21
149.1824358427
 31
0.0
  0
ARC
  5
280
330
1F
100
AcDbEntity
  8
0
  6
PHANTOM
 62
     7
370
     0
100
AcDbCircle
 10
205.7772527922
 20
152.3144155875
 30
0.0
 40
3.020422805602414
100
AcDbArc
 50
99.9646487052
 51
134.7627562891
  0
LINE
  5
281
330
1F
100
AcDbEntity
  8
0
  6
PHANTOM
 62
     7
370
     0
100
AcDbLine
 10
207.0576005057
 20
149.3421558016
 30
0.0
 11
206.4137436822
 21
149.2282997542
 31
0.0
  0
LWPOLYLINE
  5
282
330
1F
100
AcDbEntity
  8
0
  6
PHANTOM
 62
     7
370
     0
100
AcDbPolyline
 90
        3
 70
   128
 43
0.0
 10
203.5564534739
 20
154.2808420682
 10
203.9304204658
 20
154.4900804484
 10
204.6927787736
 20
154.7316450351
  0
LWPOLYLINE
  5
283
330
1F
100
AcDbEntity
  8
0
  6
Continuous
 62
     7
370
    15
100
AcDbPolyline
 90
       31
 70
   128
 43
0.0
 10
160.5472766236
 20
131.3059830764
 10
161.3894828037
 20
131.5822012448
 10
162.1578164771
 20
132.0336654508
 10
162.8186904267
 20
132.6406437629
 10
163.3432262019
 20
133.3766093203
 10
163.7084983662
 20
134.2093970352
 10
163.8985403255
 20
135.1026089588
 10
163.9050484076
 20
136.0172077739
 10
163.7277394906
 20
136.9132220471
 10
163.3743621782
 20
137.7514905953
 10
162.8603577987
 20
138.4953779825
 10
162.2081898526
 20
139.1123717376
 10
161.4463679865
 20
139.5755072781
 10
160.6081813947
 20
139.8645423078
 10
159.7302683071
 20
139.9668452987
 10
158.8509917632
 20
139.877944971
 10
158.0087855831
 20
139.6017268026
 10
157.2404519096
 20
139.1502625966
 10
156.5795779601
 20
138.5432842844
 10
156.0550421849
 20
137.8073187271
 10
155.6897700206
 20
136.9745310122
 10
155.4997280613
 20
136.0813190886
 10
155.4932199791
 20
135.1667202735
 10
155.6705288962
 20
134.2707060003
 10
156.0239062086
 20
133.4324374521
 10
156.5379105881
 20
132.6885500648
 10
157.1900785342
 20
132.0715563097
 10
157.9519004002
 20
131.6084212349
 10
158.7900869921
 20
131.3193857395
 10
159.6680000797
 20
131.2170827487
 10
160.5472766236
 20
131.3059830764
  0
LWPOLYLINE
  5
284
330
1F
100
AcDbEntity
  8
0
  6
Continuous
 62
     7
370
    15
100
AcDbPolyline
 90
       43
 70
   128
 43
0.0
 10
160.0702643767
 20
127.0200018962
 10
161.2853721157
 20
127.3774802876
 10
162.4354400113
 20
127.9184564674
 10
163.4947859124
 20
128.6308460594
 10
164.4397393242
 20
129.4987357878
 10
165.249192752
 20
130.5027378449
 10
165.9050673619
 20
131.6204250516
 10
166.392707862
 20
132.8268300467
 10
166.7012252286
 20
134.0950026834
 10
166.8237239495
 20
135.3966163197
 10
166.7574733868
 20
136.7025922709
 10
166.5039450303
 20
137.9837596515
 10
166.0688087717
 20
139.2114979872
 10
165.4617801681
 20
140.358381691
 10
164.6964230016
 20
141.3987919414
 10
163.7898363546
 20
142.3094875836
 10
162.7622634545
 20
143.0701229447
 10
161.6366669908
 20
143.6637107008
 10
160.4381852225
 20
144.0769888186
 10
159.1935955361
 20
144.300724166
 10
157.9306960479
 20
144.3299211287
 10
156.6776983813
 20
144.1639259183
 10
155.4625906423
 20
143.8064470613
 10
154.3125190214
 20
143.26547158
 10
153.2531768456
 20
142.5530824536
 10
152.3082234338
 20
141.6851922595
 10
151.498770006
 20
140.6811911338
 10
150.8428953961
 20
139.5635034615
 10
150.3552511707
 20
138.3570980006
 10
150.0467375294
 20
137.088925364
 10
149.9242350832
 20
135.787312659
 10
149.9904893711
 20
134.4813357764
 10
150.2440177277
 20
133.2001683959
 10
150.6791539863
 20
131.9724300602
 10
151.2861788646
 20
130.8255463564
 10
152.0515360311
 20
129.7851365717
 10
152.9581264034
 20
128.8744413951
 10
153.9856955782
 20
128.113804637
 10
155.1112957672
 20
127.5202175794
 10
156.3097738102
 20
127.1069401601
 10
157.5543672219
 20
126.8832041142
 10
158.8172667101
 20
126.8540071515
 10
160.0702643767
 20
127.0200018962
  0
LINE
  5
285
330
1F
100
AcDbEntity
  8
0
  6
Continuous
 62
     7
370
    15
100
AcDbLine
 10
162.9771158472
 20
136.2872084328
 30
0.0
 11
161.9197070971
 21
133.0006278777
 31
0.0
  0
LINE
  5
286
330
1F
100
AcDbEntity
  8
0
  6
Continuous
 62
     7
370
    15
100
AcDbLine
 10
160.7565410808
 20
138.8785445788
 30
0.0
 11
162.9771158472
 21
136.2872084328
 31
0.0
  0
LINE
  5
287
330
1F
100
AcDbEntity
  8
0
  6
Continuous
 62
     7
370
    15
100
AcDbLine
 10
157.4785612896
 20
138.1833001697
 30
0.0
 11
160.7565410808
 21
138.8785445788
 31
0.0
  0
LINE
  5
288
330
1F
100
AcDbEntity
  8
0
  6
Continuous
 62
     7
370
    15
100
AcDbLine
 10
156.4211525396
 20
134.8967196145
 30
0.0
 11
157.4785612896
 21
138.1833001697
 31
0.0
  0
LINE
  5
289
330
1F
100
AcDbEntity
  8
0
  6
Continuous
 62
     7
370
    15
100
AcDbLine
 10
158.641727306
 20
132.3053834685
 30
0.0
 11
156.4211525396
 21
134.8967196145
 31
0.0
  0
LINE
  5
28A
330
1F
100
AcDbEntity
  8
0
  6
Continuous
 62
     7
370
    15
100
AcDbLine
 10
161.9197070971
 20
133.0006278777
 30
0.0
 11
158.641727306
 21
132.3053834685
 31
0.0
  0
LINE
  5
28B
330
1F
100
AcDbEntity
  8
0
  6
Continuous
 62
     7
370
    15
100
AcDbLine
 10
161.1121945456
 20
133.0006278777
 30
0.0
 11
161.9197070971
 21
133.0006278777
 31
0.0
  0
LINE
  5
28C
330
1F
100
AcDbEntity
  8
0
  6
Continuous
 62
     7
370
    15
100
AcDbLine
 10
159.4732009247
 20
132.6530052075
 30
0.0
 11
158.517533578
 21
132.4503130936
 31
0.0
  0
LINE
  5
28D
330
1F
100
AcDbEntity
  8
0
  6
Continuous
 62
     7
370
    15
100
AcDbLine
 10
161.1121945456
 20
133.0006278777
 30
0.0
 11
159.4732009247
 21
132.6530052075
 31
0.0
  0
LINE
  5
28E
330
1F
100
AcDbEntity
  8
0
  6
Continuous
 62
     7
370
    15
100
AcDbLine
 10
162.1695995704
 20
136.2872084328
 30
0.0
 11
162.9771158472
 21
136.2872084328
 31
0.0
  0
LINE
  5
28F
330
1F
100
AcDbEntity
  8
0
  6
Continuous
 62
     7
370
    15
100
AcDbLine
 10
161.0593140498
 20
137.5828765058
 30
0.0
 11
162.1695995704
 21
136.2872084328
 31
0.0
  0
LINE
  5
290
330
1F
100
AcDbEntity
  8
0
  6
Continuous
 62
     7
370
    15
100
AcDbLine
 10
160.0732185319
 20
138.7336149537
 30
0.0
 11
161.0593140498
 21
137.5828765058
 31
0.0
  0
LINE
  5
291
330
1F
100
AcDbEntity
  8
0
  6
Continuous
 62
     7
370
    15
100
AcDbLine
 10
161.6408951953
 20
134.6439176896
 30
0.0
 11
161.1121945456
 21
133.0006278777
 31
0.0
  0
LINE
  5
292
330
1F
100
AcDbEntity
  8
0
  6
Continuous
 62
     7
370
    15
100
AcDbLine
 10
162.1695995704
 20
136.2872084328
 30
0.0
 11
161.6408951953
 21
134.6439176896
 31
0.0
  0
ARC
  5
293
330
1F
100
AcDbEntity
  8
0
  6
Continuous
 62
     7
370
    15
100
AcDbCircle
 10
158.891631279
 20
135.3931398369
 30
0.0
 40
2.801171369282498
100
AcDbArc
 50
258.8723294941
 51
281.9827147457
  0
ARC
  5
294
330
1F
100
AcDbEntity
  8
0
  6
Continuous
 62
     7
370
    15
100
AcDbCircle
 10
158.8738785611
 20
135.7260651741
 30
0.0
 40
2.867730216882926
100
AcDbArc
 50
40.3522235711
 51
81.8860511506
  0
ARC
  5
295
330
1F
100
AcDbEntity
  8
0
  6
Continuous
 62
     7
370
    15
100
AcDbCircle
 10
158.7118099498
 20
135.5913134164
 30
0.0
 40
3.078489733379715
100
AcDbArc
 50
342.0764983669
 51
40.3104306339
  0
ARC
  5
296
330
1F
100
AcDbEntity
  8
0
  6
Continuous
 62
     7
370
    15
100
AcDbCircle
 10
158.8398750386
 20
135.5181097398
 30
0.0
 40
2.934267482571408
100
AcDbArc
 50
282.4646847826
 51
342.6669752465
  0
ARC
  5
297
330
1F
100
AcDbEntity
  8
0
  6
Continuous
 62
     7
370
    15
100
AcDbCircle
 10
158.5028235425
 20
135.5919644893
 30
0.0
 40
8.752949591866516
100
AcDbArc
 50
91.4873615392
 51
268.5126384608
  0
LINE
  5
298
330
1F
100
AcDbEntity
  8
0
  6
Continuous
 62
     7
370
    15
100
AcDbLine
 10
182.6592587307
 20
122.2919640323
 30
0.0
 11
182.6592587307
 21
126.8919641343
 31
0.0
  0
LINE
  5
299
330
1F
100
AcDbEntity
  8
0
  6
Continuous
 62
     7
370
    15
100
AcDbLine
 10
182.4592627958
 20
122.0919641392
 30
0.0
 11
182.4592627958
 21
127.0919640274
 31
0.0
  0
LINE
  5
29A
330
1F
100
AcDbEntity
  8
0
  6
HIDDEN
 62
     7
370
     0
100
AcDbLine
 10
173.1592581049
 20
159.8440173739
 30
0.0
 11
173.1592581049
 21
160.5919625336
 31
0.0
  0
LINE
  5
29B
330
1F
100
AcDbEntity
  8
0
  6
HIDDEN
 62
     7
370
     0
100
AcDbLine
 10
173.1592581049
 20
88.591965633
 30
0.0
 11
173.1592581049
 21
89.3399107927
 31
0.0
  0
SPLINE
  5
29C
330
1F
100
AcDbEntity
  8
0
  6
HIDDEN
 62
     7
370
     0
100
AcDbSpline
210
0.0
220
0.0
230
1.0
 70
     8
 71
     3
 72
    22
 73
    18
 74
     0
 42
0.00000001
 43
0.00000001
 40
0.0
 40
0.0
 40
0.0
 40
0.0
 40
0.2499999999999964
 40
0.2499999999999964
 40
0.3749999999999958
 40
0.3749999999999958
 40
0.4999999999999952
 40
0.4999999999999952
 40
0.5624999999999953
 40
0.5624999999999953
 40
0.6249999999999954
 40
0.6249999999999954
 40
0.7499999999999969
 40
0.7499999999999969
 40
0.8749999999999984
 40
0.8749999999999984
 40
1.0
 40
1.0
 40
1.0
 40
1.0
 10
128.6954546342965
 20
122.3168158393887
 30
0.0
 10
128.4624351799496
 20
122.3866000932056
 30
0.0
 10
128.2344858367078
 20
122.4729484152731
 30
0.0
 10
127.8962795577996
 20
122.6253192621967
 30
0.0
 10
127.7840316970703
 20
122.6800695190439
 30
0.0
 10
127.5583289598534
 20
122.7924330772852
 30
0.0
 10
127.4444045520834
 20
122.8511757009219
 30
0.0
 10
127.2652481217048
 20
122.9263153072853
 30
0.0
 10
127.2043721743829
 20
122.9487547419078
 30
0.0
 10
127.078202260676
 20
122.9831442657927
 30
0.0
 10
127.0135557860639
 20
122.9944679700068
 30
0.0
 10
126.8239850878119
 20
123.009063700499
 30
0.0
 10
126.6996906307963
 20
122.9947768112221
 30
0.0
 10
126.464006310489
 20
122.9541932476611
 30
0.0
 10
126.3498092681302
 20
122.9275904953936
 30
0.0
 10
126.1233072386064
 20
122.8728682225404
 30
0.0
 10
126.0111607145479
 20
122.8443831278872
 30
0.0
 10
125.8993892970532
 20
122.8163354456294
 30
0.0
  0
ARC
  5
29D
330
1F
100
AcDbEntity
  8
0
  6
HIDDEN
 62
     7
370
     0
100
AcDbCircle
 10
127.659259446
 20
124.5919640833
 30
0.0
 40
2.499999999999986
100
AcDbArc
 50
270.0
 51
294.4864527025
  0
ARC
  5
29E
330
1F
100
AcDbEntity
  8
0
  6
HIDDEN
 62
     7
370
     0
100
AcDbCircle
 10
127.659259446
 20
124.5919640833
 30
0.0
 40
2.500000000000014
100
AcDbArc
 50
270.0
 51
90.0
  0
ARC
  5
29F
330
1F
100
AcDbEntity
  8
0
  6
HIDDEN
 62
     7
370
     0
100
AcDbCircle
 10
127.659259446
 20
124.5919640833
 30
0.0
 40
2.500000000000014
100
AcDbArc
 50
65.5135472975
 51
90.0
  0
SPLINE
  5
2A0
330
1F
100
AcDbEntity
  8
0
  6
HIDDEN
 62
     7
370
     0
100
AcDbSpline
210
0.0
220
0.0
230
1.0
 70
     8
 71
     3
 72
    22
 73
    18
 74
     0
 42
0.00000001
 43
0.00000001
 40
0.0
 40
0.0
 40
0.0
 40
0.0
 40
0.1250000000000011
 40
0.1250000000000011
 40
0.2500000000000022
 40
0.2500000000000022
 40
0.3750000000000008
 40
0.3750000000000008
 40
0.4374999999999999
 40
0.4374999999999999
 40
0.499999999999999
 40
0.499999999999999
 40
0.6249999999999996
 40
0.6249999999999996
 40
0.75
 40
0.75
 40
1.0
 40
1.0
 40
1.0
 40
1.0
 10
125.899389297053
 20
126.3675927209515
 30
0.0
 10
126.0120682512167
 20
126.3393173033684
 30
0.0
 10
126.1250971282217
 20
126.3106010991314
 30
0.0
 10
126.3536522036024
 20
126.2554362982525
 30
0.0
 10
126.4693279846902
 20
126.228539291335
 30
0.0
 10
126.7072457979867
 20
126.1881451339417
 30
0.0
 10
126.8318022166219
 20
126.1744528740956
 30
0.0
 10
127.0221480771835
 20
126.1906800065926
 30
0.0
 10
127.0863968447239
 20
126.2025492974201
 30
0.0
 10
127.212492623594
 20
126.2379198380772
 30
0.0
 10
127.273067248203
 20
126.2606550139519
 30
0.0
 10
127.4509970869775
 20
126.3360396184806
 30
0.0
 10
127.5647635461702
 20
126.3947227192107
 30
0.0
 10
127.7891639173831
 20
126.5063881704215
 30
0.0
 10
127.9003348947836
 20
126.5605087092413
 30
0.0
 10
128.2361717182187
 20
126.7115905185999
 30
0.0
 10
128.4630631049465
 20
126.7975161232424
 30
0.0
 10
128.6954546342965
 20
126.8671123271924
 30
0.0
  0
ARC
  5
2A1
330
1F
100
AcDbEntity
  8
0
  6
HIDDEN
 62
     7
370
     0
100
AcDbCircle
 10
127.659259446
 20
124.5919640833
 30
0.0
 40
2.500000000000014
100
AcDbArc
 50
90.0
 51
134.7446219131
  0
ARC
  5
2A2
330
1F
100
AcDbEntity
  8
0
  6
HIDDEN
 62
     7
370
     0
100
AcDbCircle
 10
127.659259446
 20
124.5919640833
 30
0.0
 40
2.500000000000014
100
AcDbArc
 50
90.0
 51
149.8238899583
  0
LWPOLYLINE
  5
2A3
330
1F
100
AcDbEntity
  8
0
  6
HIDDEN
 62
     7
370
     0
100
AcDbPolyline
 90
       19
 70
   128
 43
0.0
 10
125.4980486259
 20
125.8486128836
 10
125.3814293444
 20
126.4150787802
 10
125.2276968584
 20
126.8287215107
 10
125.0497378782
 20
127.0548678194
 10
124.8624703288
 20
127.0745608681
 10
124.6815916524
 20
126.8861494218
 10
124.5222637803
 20
126.5054277801
 10
124.3978428096
 20
125.9643095737
 10
124.3187576905
 20
125.30815417
 10
124.2916385085
 20
124.5919640833
 10
124.3187576905
 20
123.8757739966
 10
124.3978428096
 20
123.2196185929
 10
124.5222637803
 20
122.6785003865
 10
124.6815916524
 20
122.2977787447
 10
124.8624703288
 20
122.1093672985
 10
125.0497378782
 20
122.1290603471
 10
125.2276968584
 20
122.3552066558
 10
125.3814293444
 20
122.7688493864
 10
125.4980486259
 20
123.335315283
  0
ARC
  5
2A4
330
1F
100
AcDbEntity
  8
0
  6
HIDDEN
 62
     7
370
     0
100
AcDbCircle
 10
127.659259446
 20
124.5919640833
 30
0.0
 40
2.499999999999986
100
AcDbArc
 50
210.1761100417
 51
270.0
  0
ARC
  5
2A5
330
1F
100
AcDbEntity
  8
0
  6
HIDDEN
 62
     7
370
     0
100
AcDbCircle
 10
127.659259446
 20
124.5919640833
 30
0.0
 40
2.499999999999986
100
AcDbArc
 50
225.2553780869
 51
270.0
  0
SPLINE
  5
2A6
330
1F
100
AcDbEntity
  8
0
  6
HIDDEN
 62
     7
370
     0
100
AcDbSpline
210
0.0
220
0.0
230
1.0
 70
     8
 71
     3
 72
    36
 73
    32
 74
     0
 42
0.00000001
 43
0.00000001
 40
-0.0625000000000001
 40
-0.0625000000000001
 40
0.0
 40
0.0
 40
0.0624999999999999
 40
0.0624999999999999
 40
0.1249999999999998
 40
0.1249999999999998
 40
0.2499999999999997
 40
0.2499999999999997
 40
0.3124999999999997
 40
0.3124999999999997
 40
0.3749999999999997
 40
0.3749999999999997
 40
0.4374999999999998
 40
0.4374999999999998
 40
0.4999999999999998
 40
0.4999999999999998
 40
0.5624999999999998
 40
0.5624999999999998
 40
0.6249999999999998
 40
0.6249999999999998
 40
0.6874999999999998
 40
0.6874999999999998
 40
0.7499999999999998
 40
0.7499999999999998
 40
0.8124999999999999
 40
0.8124999999999999
 40
0.8749999999999999
 40
0.8749999999999999
 40
0.9374999999999999
 40
0.9374999999999999
 40
1.0
 40
1.0
 40
1.0625
 40
1.0625
 10
127.1474858220989
 20
125.2176372176495
 30
0.0
 10
127.0239310884945
 20
125.1100870272429
 30
0.0
 10
126.9785079486791
 20
125.0416498950394
 30
0.0
 10
126.9105689220456
 20
124.8952061403656
 30
0.0
 10
126.8883548552279
 20
124.8171232168523
 30
0.0
 10
126.851698235576
 20
124.5769711582265
 30
0.0
 10
126.8668858952691
 20
124.4114916973654
 30
0.0
 10
126.9539565615095
 20
124.1867498964078
 30
0.0
 10
126.9943611277418
 20
124.114683031144
 30
0.0
 10
127.1055820832447
 20
123.9948352508397
 30
0.0
 10
127.1770969305712
 20
123.9502117444897
 30
0.0
 10
127.3327918632177
 20
123.9185061804399
 30
0.0
 10
127.4131723162368
 20
123.9305246402569
 30
0.0
 10
127.5569981019165
 20
123.981650443824
 30
0.0
 10
127.623841410074
 20
124.0208536005138
 30
0.0
 10
127.7434076239863
 20
124.1143970486894
 30
0.0
 10
127.7979650629587
 20
124.1704857434281
 30
0.0
 10
127.8878581129329
 20
124.2971263757155
 30
0.0
 10
127.924090821487
 20
124.3695495058839
 30
0.0
 10
127.9649589751772
 20
124.5243728040464
 30
0.0
 10
127.969107694959
 20
124.6073325748613
 30
0.0
 10
127.9416182255724
 20
124.7670947605822
 30
0.0
 10
127.9107163929966
 20
124.8428073336678
 30
0.0
 10
127.8287015320165
 20
124.976383927781
 30
0.0
 10
127.7777050210628
 20
125.0352747751654
 30
0.0
 10
127.6625868861724
 20
125.1366704746125
 30
0.0
 10
127.5989328058177
 20
125.1791404122673
 30
0.0
 10
127.4589235175742
 20
125.2414385746811
 30
0.0
 10
127.3822475832087
 20
125.2610630290832
 30
0.0
 10
127.2251899291711
 20
125.2510027013846
 30
0.0
 10
127.1474858220989
 20
125.2176372176495
 30
0.0
 10
127.0239310884945
 20
125.1100870272429
 30
0.0
  0
LINE
  5
2A7
330
1F
100
AcDbEntity
  8
0
  6
HIDDEN
 62
     7
370
     0
100
AcDbLine
 10
113.159259446
 20
93.5919645899
 30
0.0
 11
113.159259446
 21
155.5919635767
 31
0.0
  0
SPLINE
  5
2A8
330
1F
100
AcDbEntity
  8
0
  6
HIDDEN
 62
     7
370
     0
100
AcDbSpline
210
0.0
220
0.0
230
1.0
 70
     8
 71
     3
 72
    14
 73
    10
 74
     0
 42
0.00000001
 43
0.00000001
 40
0.0
 40
0.0
 40
0.0
 40
0.0
 40
0.25
 40
0.25
 40
0.5
 40
0.5
 40
0.75
 40
0.75
 40
1.0
 40
1.0
 40
1.0
 40
1.0
 10
125.4980482829251
 20
123.3353152426651
 30
0.0
 10
125.3896568329539
 20
123.5217291429413
 30
0.0
 10
125.3037272174972
 20
123.7257879797526
 30
0.0
 10
125.1883419690727
 20
124.1522369587315
 30
0.0
 10
125.1591288559666
 20
124.37216578007
 30
0.0
 10
125.1593909125918
 20
124.81472309432
 30
0.0
 10
125.1884036225566
 20
125.0320239666411
 30
0.0
 10
125.303827702949
 20
125.4584065251205
 30
0.0
 10
125.3896696090422
 20
125.6622209962258
 30
0.0
 10
125.4980482829251
 20
125.8486129239159
 30
0.0
  0
LINE
  5
2A9
330
1F
100
AcDbEntity
  8
0
  6
HIDDEN
 62
     7
370
     0
100
AcDbLine
 10
113.159259446
 20
104.876934337
 30
0.0
 11
113.159259446
 21
144.3069938296
 31
0.0
  0
LINE
  5
2AA
330
1F
100
AcDbEntity
  8
0
  6
HIDDEN
 62
     7
370
     0
100
AcDbLine
 10
81.1592579261
 20
142.5919633084
 30
0.0
 11
81.1592579261
 21
106.5919648582
 31
0.0
  0
SPLINE
  5
2AB
330
1F
100
AcDbEntity
  8
0
  6
HIDDEN
 62
     7
370
     0
100
AcDbSpline
210
0.0
220
0.0
230
1.0
 70
     8
 71
     3
 72
    14
 73
    10
 74
     0
 42
0.00000001
 43
0.00000001
 40
0.0
 40
0.0
 40
0.0
 40
0.0
 40
0.1264887942780344
 40
0.1802754763762719
 40
0.3642032130781544
 40
0.5296608104858231
 40
0.699482234219826
 40
0.8651691061632154
 40
1.0
 40
1.0
 40
1.0
 40
1.0
 10
89.29261345418738
 20
141.6778273606066
 30
0.0
 10
89.0781054794355
 20
141.7330288043757
 30
0.0
 10
88.77238252938582
 20
141.8117034935364
 30
0.0
 10
88.14296597977935
 20
141.9710431091229
 30
0.0
 10
87.5614495508819
 20
142.1435314724109
 30
0.0
 10
86.91922277317752
 20
142.3404891895235
 30
0.0
 10
86.4696022102596
 20
142.4874422061215
 30
0.0
 10
86.19651554473194
 20
142.5792537381881
 30
0.0
 10
86.183819740353
 20
142.5836168660235
 30
0.0
 10
86.17812361570643
 20
142.5855744355683
 30
0.0
  0
SPLINE
  5
2AC
330
1F
100
AcDbEntity
  8
0
  6
HIDDEN
 62
     7
370
     0
100
AcDbSpline
210
0.0
220
0.0
230
1.0
 70
     8
 71
     3
 72
    20
 73
    16
 74
     0
 42
0.00000001
 43
0.00000001
 40
0.0
 40
0.0
 40
0.0
 40
0.0
 40
0.0317895218683614
 40
0.1306788281378689
 40
0.2338340180394272
 40
0.3073225359561187
 40
0.382933208287811
 40
0.4575489997410959
 40
0.5338557784872927
 40
0.6179368864720038
 40
0.7044397310064117
 40
0.7887394726099033
 40
0.8754648469077866
 40
0.9950742221864208
 40
1.0
 40
1.0
 40
1.0
 40
1.0
 10
104.6339474991207
 20
142.5833821022277
 30
0.0
 10
104.6367646564756
 20
142.5843402403174
 30
0.0
 10
104.6483452906024
 20
142.5882789080107
 30
0.0
 10
104.1876387972125
 20
142.4318707004992
 30
0.0
 10
103.2234045374896
 20
142.1280595225577
 30
0.0
 10
102.0526609990495
 20
141.802307822399
 30
0.0
 10
100.8601325442253
 20
141.5158127199795
 30
0.0
 10
99.53052922772102
 20
141.2573523824248
 30
0.0
 10
98.05775335943744
 20
141.0491144874337
 30
0.0
 10
96.44179856933017
 20
140.9216512905351
 30
0.0
 10
94.74198688152862
 20
140.908049577677
 30
0.0
 10
93.05066421312577
 20
141.017809013809
 30
0.0
 10
91.18996514325877
 20
141.25461590649
 30
0.0
 10
90.03532742391651
 20
141.5281984545161
 30
0.0
 10
89.3208725124865
 20
141.6721342241466
 30
0.0
 10
89.29261345418738
 20
141.6778273606066
 30
0.0
  0
LINE
  5
2AD
330
1F
100
AcDbEntity
  8
0
  6
HIDDEN
 62
     7
370
     0
100
AcDbLine
 10
110.6592595019
 20
142.5919633084
 30
0.0
 11
110.6592595019
 21
106.5919648582
 31
0.0
  0
LINE
  5
2AE
330
1F
100
AcDbEntity
  8
0
  6
HIDDEN
 62
     7
370
     0
100
AcDbLine
 10
73.1592603401
 20
141.2819631123
 30
0.0
 11
73.1592603401
 21
107.9019631916
 31
0.0
  0
LINE
  5
2AF
330
1F
100
AcDbEntity
  8
0
  6
HIDDEN
 62
     7
370
     0
100
AcDbLine
 10
173.6592591182
 20
127.2087097359
 30
0.0
 11
173.6592591182
 21
127.0919640274
 31
0.0
  0
LINE
  5
2B0
330
1F
100
AcDbEntity
  8
0
  6
HIDDEN
 62
     7
370
     0
100
AcDbLine
 10
173.6592591182
 20
121.9752184307
 30
0.0
 11
173.6592591182
 21
122.0919641392
 31
0.0
  0
LINE
  5
2B1
330
1F
100
AcDbEntity
  8
0
  6
HIDDEN
 62
     7
370
     0
100
AcDbLine
 10
102.7349183709
 20
140.6676217639
 30
0.0
 11
88.0836002901
 21
140.6676217639
 31
0.0
  0
SPLINE
  5
2B2
330
1F
100
AcDbEntity
  8
0
  6
HIDDEN
 62
     7
370
     0
100
AcDbSpline
210
0.0
220
0.0
230
1.0
 70
    11
 71
     3
 72
    33
 73
    29
 74
     0
 42
0.00000001
 43
0.00000001
 40
0.0
 40
0.0
 40
0.0
 40
0.0
 40
0.0224371427940899
 40
0.0313892963458751
 40
0.0846786978275352
 40
0.133089555384439
 40
0.1816951865993138
 40
0.2268034741146209
 40
0.2794816072965828
 40
0.3090775144641661
 40
0.3397924687974299
 40
0.3803166357512576
 40
0.3985344717356157
 40
0.4209646084700321
 40
0.4591737070334237
 40
0.5006331781189447
 40
0.5502585460536767
 40
0.6090616004282341
 40
0.6546647424532214
 40
0.7002796333225204
 40
0.7474391900486048
 40
0.804326600831972
 40
0.8504178976226711
 40
0.8968093273959974
 40
0.8984402578391278
 40
0.9364559150287527
 40
0.9752555478248528
 40
1.0
 40
1.0
 40
1.0
 40
1.0
 10
91.80595878514097
 20
129.992076913393
 30
0.0
 10
91.92093458153187
 20
129.9201308591763
 30
0.0
 10
92.08178435543743
 20
129.8194791836289
 30
0.0
 10
92.76595080596047
 20
129.5517649514946
 30
0.0
 10
93.5408775151268
 20
129.1529265717985
 30
0.0
 10
94.96922851593484
 20
128.8615722223455
 30
0.0
 10
96.3425543696655
 20
128.9304062698205
 30
0.0
 10
97.64154926437342
 20
129.3073267077016
 30
0.0
 10
98.59687247066665
 20
129.7532511316849
 30
0.0
 10
99.28088088137763
 20
130.130082987797
 30
0.0
 10
99.7415794878931
 20
130.4051359118264
 30
0.0
 10
100.0403907462453
 20
130.5952335530823
 30
0.0
 10
99.97688455045434
 20
130.5548679222471
 30
0.0
 10
100.0241394496854
 20
130.5848098853945
 30
0.0
 10
99.67551638885774
 20
130.3639165174774
 30
0.0
 10
99.03412244576309
 20
129.9848412821003
 30
0.0
 10
97.99428304422975
 20
129.4512485286209
 30
0.0
 10
96.67372835128292
 20
128.9861354962752
 30
0.0
 10
95.22918555453768
 20
128.8504865193099
 30
0.0
 10
93.91944026450602
 20
129.0603960204243
 30
0.0
 10
92.6734860570308
 20
129.5193507314382
 30
0.0
 10
91.64113822638588
 20
130.0638336558172
 30
0.0
 10
90.98672283959915
 20
130.4608248024414
 30
0.0
 10
90.72351328675266
 20
130.6298723903919
 30
0.0
 10
90.83866287625739
 20
130.5569398605908
 30
0.0
 10
90.87041365772481
 20
130.5379360073118
 30
0.0
 10
91.26589491072323
 20
130.2833002960492
 30
0.0
 10
91.65459616045624
 20
130.0736975098751
 30
0.0
 10
91.80595878514097
 20
129.992076913393
 30
0.0
  0
LINE
  5
2B3
330
1F
100
AcDbEntity
  8
0
  6
HIDDEN
 62
     7
370
     0
100
AcDbLine
 10
173.6592591182
 20
159.3611377948
 30
0.0
 11
173.1592581049
 21
159.8440173739
 31
0.0
  0
LINE
  5
2B4
330
1F
100
AcDbEntity
  8
0
  6
HIDDEN
 62
     7
370
     0
100
AcDbLine
 10
173.6592591182
 20
159.3611377948
 30
0.0
 11
173.6592591182
 21
127.2087097359
 31
0.0
  0
LINE
  5
2B5
330
1F
100
AcDbEntity
  8
0
  6
HIDDEN
 62
     7
370
     0
100
AcDbLine
 10
173.6592591182
 20
121.9752184307
 30
0.0
 11
173.6592591182
 21
92.1895455295
 31
0.0
  0
LINE
  5
2B6
330
1F
100
AcDbEntity
  8
0
  6
HIDDEN
 62
     7
370
     0
100
AcDbLine
 10
173.6592591182
 20
89.8227903718
 30
0.0
 11
173.6592591182
 21
89.091962921
 31
0.0
  0
LINE
  5
2B7
330
1F
100
AcDbEntity
  8
0
  6
HIDDEN
 62
     7
370
     0
100
AcDbLine
 10
173.1592581049
 20
89.3399107927
 30
0.0
 11
173.6592591182
 21
89.8227903718
 31
0.0
  0
LINE
  5
2B8
330
1F
100
AcDbEntity
  8
0
  6
HIDDEN
 62
     7
370
     0
100
AcDbLine
 10
173.6592591182
 20
159.3611377948
 30
0.0
 11
173.1592581049
 21
159.8440173739
 31
0.0
  0
LINE
  5
2B9
330
1F
100
AcDbEntity
  8
0
  6
HIDDEN
 62
     7
370
     0
100
AcDbLine
 10
173.6592591182
 20
159.3611377948
 30
0.0
 11
173.6592591182
 21
160.0919652456
 31
0.0
  0
LINE
  5
2BA
330
1F
100
AcDbEntity
  8
0
  6
HIDDEN
 62
     7
370
     0
100
AcDbLine
 10
74.0252860263
 20
130.5919641354
 30
0.0
 11
74.0252860263
 21
118.5919640311
 31
0.0
  0
LINE
  5
2BB
330
1F
100
AcDbEntity
  8
0
  6
HIDDEN
 62
     7
370
     0
100
AcDbLine
 10
73.1592603401
 20
118.0919639492
 30
0.0
 11
73.1592603401
 21
131.0919642174
 31
0.0
  0
LINE
  5
2BC
330
1F
100
AcDbEntity
  8
0
  6
HIDDEN
 62
     7
370
     0
100
AcDbLine
 10
133.159258999
 20
130.5919641354
 30
0.0
 11
133.159258999
 21
118.5919640311
 31
0.0
  0
LINE
  5
2BD
330
1F
100
AcDbEntity
  8
0
  6
HIDDEN
 62
     7
370
     0
100
AcDbLine
 10
173.6592591182
 20
121.9752184307
 30
0.0
 11
173.6592591182
 21
89.8227903718
 31
0.0
  0
LWPOLYLINE
  5
2BE
330
1F
100
AcDbEntity
  8
0
  6
HIDDEN
 62
     7
370
     0
100
AcDbPolyline
 90
       19
 70
   128
 43
0.0
 10
125.4980486259
 20
123.335315283
 10
125.3814293444
 20
122.7688493864
 10
125.2276968584
 20
122.3552066558
 10
125.0497378782
 20
122.1290603471
 10
124.8624703288
 20
122.1093672985
 10
124.6815916524
 20
122.2977787447
 10
124.5222637803
 20
122.6785003865
 10
124.3978428096
 20
123.2196185929
 10
124.3187576905
 20
123.8757739966
 10
124.2916385085
 20
124.5919640833
 10
124.3187576905
 20
125.30815417
 10
124.3978428096
 20
125.9643095737
 10
124.5222637803
 20
126.5054277801
 10
124.6815916524
 20
126.8861494218
 10
124.8624703288
 20
127.0745608681
 10
125.0497378782
 20
127.0548678194
 10
125.2276968584
 20
126.8287215107
 10
125.3814293444
 20
126.4150787802
 10
125.4980486259
 20
125.8486128836
  0
SPLINE
  5
2BF
330
1F
100
AcDbEntity
  8
0
  6
HIDDEN
 62
     7
370
     0
100
AcDbSpline
210
0.0
220
0.0
230
1.0
 70
     8
 71
     3
 72
    14
 73
    10
 74
     0
 42
0.00000001
 43
0.00000001
 40
0.0
 40
0.0
 40
0.0
 40
0.0
 40
0.2500000000000001
 40
0.2500000000000001
 40
0.5000000000000001
 40
0.5000000000000001
 40
0.75
 40
0.75
 40
1.0
 40
1.0
 40
1.0
 40
1.0
 10
125.4980482829251
 20
125.848612923916
 30
0.0
 10
125.3896568329539
 20
125.6621990236398
 30
0.0
 10
125.3037272174972
 20
125.4581401868285
 30
0.0
 10
125.1883419690727
 20
125.0316912078495
 30
0.0
 10
125.1591288559666
 20
124.8117623865111
 30
0.0
 10
125.1593909125918
 20
124.3692050722611
 30
0.0
 10
125.1884036225566
 20
124.15190419994
 30
0.0
 10
125.303827702949
 20
123.7255216414605
 30
0.0
 10
125.3896696090422
 20
123.5217071703553
 30
0.0
 10
125.4980482829251
 20
123.3353152426651
 30
0.0
  0
ARC
  5
2C0
330
1F
100
AcDbEntity
  8
0
  6
HIDDEN
 62
     7
370
     0
100
AcDbCircle
 10
127.659259446
 20
124.5919640833
 30
0.0
 40
2.500000000000014
100
AcDbArc
 50
90.0
 51
270.0
  0
LWPOLYLINE
  5
2C1
330
1F
100
AcDbEntity
  8
0
  6
HIDDEN
 62
     7
370
     0
100
AcDbPolyline
 90
       23
 70
   128
 43
0.0
 10
134.2790663615
 20
124.5919640833
 10
134.252855219
 20
123.8876327016
 10
134.1763489321
 20
123.240362057
 10
134.0557445213
 20
122.7025900926
 10
133.9008115605
 20
122.3178841365
 10
133.7241024152
 20
122.117410433
 10
133.539933376
 20
122.117410433
 10
133.3632242307
 20
122.3178841365
 10
133.2082912699
 20
122.7025900926
 10
133.0876868591
 20
123.240362057
 10
133.0111805722
 20
123.8876327016
 10
132.9849712923
 20
124.5919640833
 10
133.0111805722
 20
125.296295465
 10
133.0876868591
 20
125.9435661096
 10
133.2082912699
 20
126.481338074
 10
133.3632242307
 20
126.8660440301
 10
133.539933376
 20
127.0665177335
 10
133.7241024152
 20
127.0665177335
 10
133.9008115605
 20
126.8660440301
 10
134.0557445213
 20
126.481338074
 10
134.1763489321
 20
125.9435661096
 10
134.252855219
 20
125.296295465
 10
134.2790663615
 20
124.5919640833
  0
LINE
  5
2C2
330
1F
100
AcDbEntity
  8
0
  6
HIDDEN
 62
     7
370
     0
100
AcDbLine
 10
127.6592590288
 20
127.0919640274
 30
0.0
 11
124.938686043
 21
127.0919640274
 31
0.0
  0
LINE
  5
2C3
330
1F
100
AcDbEntity
  8
0
  6
HIDDEN
 62
     7
370
     0
100
AcDbLine
 10
133.6320188269
 20
127.0919640274
 30
0.0
 11
127.6592590288
 21
127.0919640274
 31
0.0
  0
LINE
  5
2C4
330
1F
100
AcDbEntity
  8
0
  6
HIDDEN
 62
     7
370
     0
100
AcDbLine
 10
127.6592590288
 20
122.0919641392
 30
0.0
 11
133.6320188269
 21
122.0919641392
 31
0.0
  0
LINE
  5
2C5
330
1F
100
AcDbEntity
  8
0
  6
HIDDEN
 62
     7
370
     0
100
AcDbLine
 10
124.938686043
 20
122.0919641392
 30
0.0
 11
127.6592590288
 21
122.0919641392
 31
0.0
  0
LINE
  5
2C6
330
1F
100
AcDbEntity
  8
0
  6
HIDDEN
 62
     7
370
     0
100
AcDbLine
 10
124.6501399577
 20
126.8296183744
 30
0.0
 11
123.4877189994
 21
124.5919640833
 31
0.0
  0
LINE
  5
2C7
330
1F
100
AcDbEntity
  8
0
  6
HIDDEN
 62
     7
370
     0
100
AcDbLine
 10
123.4877189994
 20
124.5919640833
 30
0.0
 11
124.6501399577
 21
122.3543097922
 31
0.0
  0
LINE
  5
2C8
330
1F
100
AcDbEntity
  8
0
  6
HIDDEN
 62
     7
370
     0
100
AcDbLine
 10
113.159259446
 20
104.876934337
 30
0.0
 11
113.3534202812
 21
106.2584601068
 31
0.0
  0
LINE
  5
2C9
330
1F
100
AcDbEntity
  8
0
  6
HIDDEN
 62
     7
370
     0
100
AcDbLine
 10
113.3534202812
 20
142.9254680598
 30
0.0
 11
113.159259446
 21
144.3069938296
 31
0.0
  0
ARC
  5
2CA
330
1F
100
AcDbEntity
  8
0
  6
HIDDEN
 62
     7
370
     0
100
AcDbCircle
 10
112.759259446
 20
106.3419640833
 30
0.0
 40
0.5999999999999943
100
AcDbArc
 50
352.0
 51
0.0
  0
ARC
  5
2CB
330
1F
100
AcDbEntity
  8
0
  6
HIDDEN
 62
     7
370
     0
100
AcDbCircle
 10
112.759259446
 20
106.3419640833
 30
0.0
 40
0.5999999999999959
100
AcDbArc
 50
0.0
 51
48.1896851042
  0
ARC
  5
2CC
330
1F
100
AcDbEntity
  8
0
  6
HIDDEN
 62
     7
370
     0
100
AcDbCircle
 10
112.759259446
 20
142.8419640833
 30
0.0
 40
0.599999999999998
100
AcDbArc
 50
348.75
 51
8.0
  0
ARC
  5
2CD
330
1F
100
AcDbEntity
  8
0
  6
HIDDEN
 62
     7
370
     0
100
AcDbCircle
 10
112.759259446
 20
142.8419640833
 30
0.0
 40
0.599999999999998
100
AcDbArc
 50
311.8103148958
 51
348.75
  0
LINE
  5
2CE
330
1F
100
AcDbEntity
  8
0
  6
HIDDEN
 62
     7
370
     0
100
AcDbLine
 10
113.3592594409
 20
106.3419643515
 30
0.0
 11
113.3592594409
 21
142.8419638151
 31
0.0
  0
LINE
  5
2CF
330
1F
100
AcDbEntity
  8
0
  6
HIDDEN
 62
     7
370
     0
100
AcDbLine
 10
113.3592594409
 20
106.3419643515
 30
0.0
 11
113.3592594409
 21
142.8419638151
 31
0.0
  0
LINE
  5
2D0
330
1F
100
AcDbEntity
  8
0
  6
HIDDEN
 62
     7
370
     0
100
AcDbLine
 10
86.1592587456
 20
142.5919633084
 30
0.0
 11
88.0836002901
 21
140.6676217639
 31
0.0
  0
LINE
  5
2D1
330
1F
100
AcDbEntity
  8
0
  6
HIDDEN
 62
     7
370
     0
100
AcDbLine
 10
102.7349183709
 20
140.6676217639
 30
0.0
 11
104.6592589841
 21
142.5919633084
 31
0.0
  0
LINE
  5
2D2
330
1F
100
AcDbEntity
  8
0
  6
HIDDEN
 62
     7
370
     0
100
AcDbLine
 10
88.0836002901
 20
140.6676217639
 30
0.0
 11
90.7848380879
 21
130.586465607
 31
0.0
  0
LINE
  5
2D3
330
1F
100
AcDbEntity
  8
0
  6
HIDDEN
 62
     7
370
     0
100
AcDbLine
 10
100.0252660737
 20
130.5550646694
 30
0.0
 11
102.7349183709
 21
140.6676217639
 31
0.0
  0
LINE
  5
2D4
330
1F
100
AcDbEntity
  8
0
  6
HIDDEN
 62
     7
370
     0
100
AcDbLine
 10
173.6592591182
 20
160.0919652456
 30
0.0
 11
173.1592581049
 21
160.5919625336
 31
0.0
  0
LINE
  5
2D5
330
1F
100
AcDbEntity
  8
0
  6
HIDDEN
 62
     7
370
     0
100
AcDbLine
 10
73.1592603401
 20
118.0919639492
 30
0.0
 11
74.0252860263
 21
118.5919640311
 31
0.0
  0
LINE
  5
2D6
330
1F
100
AcDbEntity
  8
0
  6
HIDDEN
 62
     7
370
     0
100
AcDbLine
 10
74.0252860263
 20
130.5919641354
 30
0.0
 11
73.1592603401
 21
131.0919642174
 31
0.0
  0
LINE
  5
2D7
330
1F
100
AcDbEntity
  8
0
  6
HIDDEN
 62
     7
370
     0
100
AcDbLine
 10
133.159258999
 20
118.5919640311
 30
0.0
 11
136.7644235865
 21
124.5919640833
 31
0.0
  0
LINE
  5
2D8
330
1F
100
AcDbEntity
  8
0
  6
HIDDEN
 62
     7
370
     0
100
AcDbLine
 10
136.7644235865
 20
124.5919640833
 30
0.0
 11
133.159258999
 21
130.5919641354
 31
0.0
  0
LINE
  5
2D9
330
1F
100
AcDbEntity
  8
0
  6
HIDDEN
 62
     7
370
     0
100
AcDbLine
 10
124.6501399577
 20
126.8296183744
 30
0.0
 11
123.4877189994
 21
124.5919640833
 31
0.0
  0
LINE
  5
2DA
330
1F
100
AcDbEntity
  8
0
  6
HIDDEN
 62
     7
370
     0
100
AcDbLine
 10
123.4877189994
 20
124.5919640833
 30
0.0
 11
124.6501399577
 21
122.3543097922
 31
0.0
  0
LINE
  5
2DB
330
1F
100
AcDbEntity
  8
0
  6
HIDDEN
 62
     7
370
     0
100
AcDbLine
 10
127.6592590288
 20
127.0919640274
 30
0.0
 11
124.938686043
 21
127.0919640274
 31
0.0
  0
LINE
  5
2DC
330
1F
100
AcDbEntity
  8
0
  6
HIDDEN
 62
     7
370
     0
100
AcDbLine
 10
124.938686043
 20
122.0919641392
 30
0.0
 11
127.6592590288
 21
122.0919641392
 31
0.0
  0
LINE
  5
2DD
330
1F
100
AcDbEntity
  8
0
  6
HIDDEN
 62
     7
370
     0
100
AcDbLine
 10
133.6320188269
 20
127.0919640274
 30
0.0
 11
127.6592590288
 21
127.0919640274
 31
0.0
  0
LINE
  5
2DE
330
1F
100
AcDbEntity
  8
0
  6
HIDDEN
 62
     7
370
     0
100
AcDbLine
 10
127.6592590288
 20
122.0919641392
 30
0.0
 11
133.6320188269
 21
122.0919641392
 31
0.0
  0
LINE
  5
2DF
330
1F
100
AcDbEntity
  8
VERMASSUNG
100
AcDbLine
 10
121.3346859265
 20
160.5919640833
 30
0.0
 11
121.3346859265
 21
88.5919640833
 31
0.0
  0
LINE
  5
2E0
330
1F
100
AcDbEntity
  8
VERMASSUNG
100
AcDbLine
 10
117.5819091768
 20
93.0919640833
 30
0.0
 11
117.5819091768
 21
156.0919640833
 31
0.0
  0
DIMENSION
  5
2E1
330
1F
100
AcDbEntity
  8
VERMASSUNG
100
AcDbDimension
  2
*D1
 10
67.1481238745
 20
106.5919640833
 30
0.0
 11
67.1481238745
 21
124.5919640833
 31
0.0
 70
   160
  1
%%c<>
 71
     2
 42
-1.0
  3
SLDDIMSTYLE0
100
AcDbAlignedDimension
 13
81.159259446
 23
142.5919640833
 33
0.0
 14
81.159259446
 24
106.5919640833
 34
0.0
 50
90.0
100
AcDbRotatedDimension
  0
DIMENSION
  5
2ED
330
1F
100
AcDbEntity
  8
VERMASSUNG
100
AcDbDimension
  2
*D2
 10
61.1481238745
 20
93.0919640833
 30
0.0
 11
61.1481238745
 21
124.5919640833
 31
0.0
 70
   160
  1
WH %%c<>
 71
     2
 42
-1.0
  3
SLDDIMSTYLE0
100
AcDbAlignedDimension
 13
113.659259446
 23
156.0919640833
 33
0.0
 14
113.659259446
 24
93.0919640833
 34
0.0
 50
90.0
100
AcDbRotatedDimension
  0
DIMENSION
  5
2F9
330
1F
100
AcDbEntity
  8
VERMASSUNG
100
AcDbDimension
  2
*D3
 10
55.1481238745
 20
88.5919640833
 30
0.0
 11
55.1481238745
 21
124.5919640833
 31
0.0
 70
   160
  1
%%c<>
 71
     2
 42
-1.0
  3
SLDDIMSTYLE0
100
AcDbAlignedDimension
 13
121.3346859265
 23
160.5919640833
 33
0.0
 14
121.3346859265
 24
88.5919640833
 34
0.0
 50
90.0
100
AcDbRotatedDimension
  0
DIMENSION
  5
304
330
1F
100
AcDbEntity
  8
VERMASSUNG
100
AcDbDimension
  2
*D4
 10
223.159259446
 20
175.6855420649
 30
0.0
 11
168.159259446
 21
175.6855420649
 31
0.0
 70
   160
 71
     2
 42
-1.0
  3
SLDDIMSTYLE0
100
AcDbAlignedDimension
 13
113.159259446
 23
155.5919640833
 33
0.0
 14
223.159259446
 24
167.8419640833
 34
0.0
100
AcDbRotatedDimension
  0
DIMENSION
  5
30E
330
1F
100
AcDbEntity
  8
VERMASSUNG
100
AcDbDimension
  2
*D5
 10
231.9199289931
 20
81.3419640833
 30
0.0
 11
231.9199289931
 21
124.5919640833
 31
0.0
 70
   160
  1
%%c<>-115.5
 71
     2
 42
-1.0
  3
SLDDIMSTYLE0
100
AcDbAlignedDimension
 13
223.159259446
 23
167.8419640833
 33
0.0
 14
223.159259446
 24
81.3419640833
 34
0.0
 50
90.0
100
AcDbRotatedDimension
  0
LINE
  5
31A
330
1F
100
AcDbEntity
  8
VERMASSUNG
  6
CENTERX2
 62
     7
370
     0
100
AcDbLine
 10
184.5932924734
 20
124.5919640833
 30
0.0
 11
72.0252848498
 21
124.5919640833
 31
0.0
  0
OLE2FRAME
  5
31B
330
1F
100
AcDbEntity
  8
0
100
AcDbOle2Frame
 70
     2
  3
Paintbrush-Bild
 10
13.8511154363
 20
38.264191557
 30
0.0
 11
51.6290888628
 21
31.9806341108
 31
0.0
 71
     2
 72
     0
 73
     1
 90
    12928
310
80552BED0767C5B32B40DDAF6807D121434000000000000000006FFBDDFB85D0
310
4940DDAF6807D121434000000000000000006FFBDDFB85D04940416F4BD60AFB
310
3F4000000000000000002BED0767C5B32B40416F4BD60AFB3F40000000000000
310
0000000000000100000000010000010000000100000000000100000000320000
310
D0CF11E0A1B11AE1000000000000000000000000000000003E000300FEFF0900
310
0600000000000000000000000100000001000000000000000010000002000000
310
01000000FEFFFFFF0000000000000000FFFFFFFFFFFFFFFFFFFFFFFFFFFFFFFF
310
FFFFFFFFFFFFFFFFFFFFFFFFFFFFFFFFFFFFFFFFFFFFFFFFFFFFFFFFFFFFFFFF
310
FFFFFFFFFFFFFFFFFFFFFFFFFFFFFFFFFFFFFFFFFFFFFFFFFFFFFFFFFFFFFFFF
310
FFFFFFFFFFFFFFFFFFFFFFFFFFFFFFFFFFFFFFFFFFFFFFFFFFFFFFFFFFFFFFFF
310
FFFFFFFFFFFFFFFFFFFFFFFFFFFFFFFFFFFFFFFFFFFFFFFFFFFFFFFFFFFFFFFF
310
FFFFFFFFFFFFFFFFFFFFFFFFFFFFFFFFFFFFFFFFFFFFFFFFFFFFFFFFFFFFFFFF
310
FFFFFFFFFFFFFFFFFFFFFFFFFFFFFFFFFFFFFFFFFFFFFFFFFFFFFFFFFFFFFFFF
310
FFFFFFFFFFFFFFFFFFFFFFFFFFFFFFFFFFFFFFFFFFFFFFFFFFFFFFFFFFFFFFFF
310
FFFFFFFFFFFFFFFFFFFFFFFFFFFFFFFFFFFFFFFFFFFFFFFFFFFFFFFFFFFFFFFF
310
FFFFFFFFFFFFFFFFFFFFFFFFFFFFFFFFFFFFFFFFFFFFFFFFFFFFFFFFFFFFFFFF
310
FFFFFFFFFFFFFFFFFFFFFFFFFFFFFFFFFFFFFFFFFFFFFFFFFFFFFFFFFFFFFFFF
310
FFFFFFFFFFFFFFFFFFFFFFFFFFFFFFFFFFFFFFFFFFFFFFFFFFFFFFFFFFFFFFFF
310
FFFFFFFFFFFFFFFFFFFFFFFFFFFFFFFFFFFFFFFFFFFFFFFFFFFFFFFFFFFFFFFF
310
FFFFFFFFFFFFFFFFFFFFFFFFFFFFFFFFFFFFFFFFFFFFFFFFFFFFFFFFFFFFFFFF
310
FDFFFFFFFEFFFFFFFEFFFFFFFEFFFFFF05000000060000000700000008000000
310
090000000A0000000B0000000C0000000D0000000E0000000F00000010000000
310
11000000120000001300000014000000150000001600000017000000FEFFFFFF
310
FFFFFFFFFFFFFFFFFFFFFFFFFFFFFFFFFFFFFFFFFFFFFFFFFFFFFFFFFFFFFFFF
310
FFFFFFFFFFFFFFFFFFFFFFFFFFFFFFFFFFFFFFFFFFFFFFFFFFFFFFFFFFFFFFFF
310
FFFFFFFFFFFFFFFFFFFFFFFFFFFFFFFFFFFFFFFFFFFFFFFFFFFFFFFFFFFFFFFF
310
FFFFFFFFFFFFFFFFFFFFFFFFFFFFFFFFFFFFFFFFFFFFFFFFFFFFFFFFFFFFFFFF
310
FFFFFFFFFFFFFFFFFFFFFFFFFFFFFFFFFFFFFFFFFFFFFFFFFFFFFFFFFFFFFFFF
310
FFFFFFFFFFFFFFFFFFFFFFFFFFFFFFFFFFFFFFFFFFFFFFFFFFFFFFFFFFFFFFFF
310
FFFFFFFFFFFFFFFFFFFFFFFFFFFFFFFFFFFFFFFFFFFFFFFFFFFFFFFFFFFFFFFF
310
FFFFFFFFFFFFFFFFFFFFFFFFFFFFFFFFFFFFFFFFFFFFFFFFFFFFFFFFFFFFFFFF
310
FFFFFFFFFFFFFFFFFFFFFFFFFFFFFFFFFFFFFFFFFFFFFFFFFFFFFFFFFFFFFFFF
310
FFFFFFFFFFFFFFFFFFFFFFFFFFFFFFFFFFFFFFFFFFFFFFFFFFFFFFFFFFFFFFFF
310
FFFFFFFFFFFFFFFFFFFFFFFFFFFFFFFFFFFFFFFFFFFFFFFFFFFFFFFFFFFFFFFF
310
FFFFFFFFFFFFFFFFFFFFFFFFFFFFFFFFFFFFFFFFFFFFFFFFFFFFFFFFFFFFFFFF
310
FFFFFFFFFFFFFFFFFFFFFFFFFFFFFFFFFFFFFFFFFFFFFFFFFFFFFFFFFFFFFFFF
310
52006F006F007400200045006E00740072007900000000000000000000000000
310
0000000000000000000000000000000000000000000000000000000000000000
310
16000500FFFFFFFFFFFFFFFF020000000A00030000000000C000000000000046
310
000000000000000000000000E05BFBE9C9EBCC0103000000C000000000000000
310
01004F006C006500000000000000000000000000000000000000000000000000
310
0000000000000000000000000000000000000000000000000000000000000000
310
0A000200FFFFFFFFFFFFFFFFFFFFFFFF00000000000000000000000000000000
310
0000000000000000000000000000000000000000000000001400000000000000
310
010043006F006D0070004F0062006A0000000000000000000000000000000000
310
0000000000000000000000000000000000000000000000000000000000000000
310
120002010100000003000000FFFFFFFF00000000000000000000000000000000
310
0000000000000000000000000000000000000000010000004D00000000000000
310
01004F006C006500310030004E00610074006900760065000000000000000000
310
0000000000000000000000000000000000000000000000000000000000000000
310
1A000200FFFFFFFFFFFFFFFFFFFFFFFF00000000000000000000000000000000
310
0000000000000000000000000000000000000000040000002426000000000000
310
FEFFFFFF02000000FEFFFFFFFFFFFFFFFFFFFFFFFFFFFFFFFFFFFFFFFFFFFFFF
310
FFFFFFFFFFFFFFFFFFFFFFFFFFFFFFFFFFFFFFFFFFFFFFFFFFFFFFFFFFFFFFFF
310
FFFFFFFFFFFFFFFFFFFFFFFFFFFFFFFFFFFFFFFFFFFFFFFFFFFFFFFFFFFFFFFF
310
FFFFFFFFFFFFFFFFFFFFFFFFFFFFFFFFFFFFFFFFFFFFFFFFFFFFFFFFFFFFFFFF
310
FFFFFFFFFFFFFFFFFFFFFFFFFFFFFFFFFFFFFFFFFFFFFFFFFFFFFFFFFFFFFFFF
310
FFFFFFFFFFFFFFFFFFFFFFFFFFFFFFFFFFFFFFFFFFFFFFFFFFFFFFFFFFFFFFFF
310
FFFFFFFFFFFFFFFFFFFFFFFFFFFFFFFFFFFFFFFFFFFFFFFFFFFFFFFFFFFFFFFF
310
FFFFFFFFFFFFFFFFFFFFFFFFFFFFFFFFFFFFFFFFFFFFFFFFFFFFFFFFFFFFFFFF
310
FFFFFFFFFFFFFFFFFFFFFFFFFFFFFFFFFFFFFFFFFFFFFFFFFFFFFFFFFFFFFFFF
310
FFFFFFFFFFFFFFFFFFFFFFFFFFFFFFFFFFFFFFFFFFFFFFFFFFFFFFFFFFFFFFFF
310
FFFFFFFFFFFFFFFFFFFFFFFFFFFFFFFFFFFFFFFFFFFFFFFFFFFFFFFFFFFFFFFF
310
FFFFFFFFFFFFFFFFFFFFFFFFFFFFFFFFFFFFFFFFFFFFFFFFFFFFFFFFFFFFFFFF
310
FFFFFFFFFFFFFFFFFFFFFFFFFFFFFFFFFFFFFFFFFFFFFFFFFFFFFFFFFFFFFFFF
310
FFFFFFFFFFFFFFFFFFFFFFFFFFFFFFFFFFFFFFFFFFFFFFFFFFFFFFFFFFFFFFFF
310
FFFFFFFFFFFFFFFFFFFFFFFFFFFFFFFFFFFFFFFFFFFFFFFFFFFFFFFFFFFFFFFF
310
FFFFFFFFFFFFFFFFFFFFFFFFFFFFFFFFFFFFFFFFFFFFFFFFFFFFFFFFFFFFFFFF
310
0100000200000000000000000000000000000000000000000000000000000000
310
0000000000000000000000000000000000000000000000000000000000000000
310
0100FEFF030A0000FFFFFFFF0A00030000000000C00000000000004607000000
310
5042727573680007000000504272757368000700000050427275736800F439B2
310
7100000000000000000000000000000000000000000000000000000000000000
310
0000000000000000000000000000000000000000000000000000000000000000
310
0000000000000000000000000000000000000000000000000000000000000000
310
0000000000000000000000000000000000000000000000000000000000000000
310
0000000000000000000000000000000000000000000000000000000000000000
310
0000000000000000000000000000000000000000000000000000000000000000
310
0000000000000000000000000000000000000000000000000000000000000000
310
0000000000000000000000000000000000000000000000000000000000000000
310
0000000000000000000000000000000000000000000000000000000000000000
310
0000000000000000000000000000000000000000000000000000000000000000
310
0000000000000000000000000000000000000000000000000000000000000000
310
0000000000000000000000000000000000000000000000000000000000000000
310
20260000424D0E260000000000003E00000028000000B40200006E0000000100
310
01000000000000000000130B0000130B00000200000002000000000000FFFFFF
310
FFFFFFFFFFFFFFFFFFFFFFFFFFFFFFFFFFFFFFFFFFFFFFFFFFFFFFFFFFFFFFFF
310
FFFFFFFFFFFFFFFFFFFFFFFFFFFFFFFFFFFFFFFFFFFFFFFFFFFFFFFFFFFFFFFF
310
FFFFFFFFFFFFFFFFFFFFFFFFFFFFFFFFFFFFFFFFFFFFFFFFF000FFFFFFFFFFFF
310
FFFFFFFFFFFFFFFFFFFFFFFFFFFFFFFFFFFFFFFFFFFFFFFFFFFFFFFFFFFFFFFF
310
FFFFFFFFFFFFFFFFFFFFFFFFFFFFFFFFFFFFFFFFFFFFFFFFFFFFFFFFFFFFFFFF
310
FFFFFFFFFFFFFFFFFFFFFFFFFFFFFFFFF000FFFFFFFFFFFFFFFFFFFFFFFFFFFF
310
FFFFFFFFFFFFFFFFFFFFFFFFFFFFFFFFFFFFFFFFFFFFFFFFFFFFFFFFFFFFFFFF
310
FFFFFFFFFFFFFFFFFFFFFFFFFFFFFFFFFFFFFFFFFFFFFFFFFFFFFFFFFFFFFFFF
310
FFFFFFFFFFFFFFFFF000FFFFFFFFFFFFFFFFFFFFFFFFFFFFFFFFFFFFFFFFFFFF
310
FFFFFFFFFFFFFFFFFFFFFFFFFFFFFFFFFFFFFFFFFFFFFFFFFFFFFFFFFFFFFFFF
310
FFFFFFFFFFFFFFFFFFFFFFFFFFFFFFFFFFFFFFFFFFFFFFFFFFFFFFFFFFFFFFFF
310
F000FFFFFFFFFFFFFFFFFFFFFFFFFFFFFFFFFFFFFFFFFFFFFFFFFFFFFFFFFFFF
310
FFFFFFFFFFFFFFFFFFFFFFFFFFFFFFFFFFFFFFFFFFFFFFFFFFFFFFFFFFFFFFFF
310
FFFFFFFFFFFFFFFFFFFFFFFFFFFFFFFFFFFFFFFFFFFFFFFFF000FFFFFFFFFFFF
310
FFFFFFFFFFFFFFFFFFFFFFFFFFFFFFFFFFFFFFFFFFFFFFFFFFFFFFFFFFFFFFFF
310
FFFFFFFFFFFFFFFFFFFFFFFFFFFFFFFFFFFFFFFFFFFFFFFFFFFFFFFFFFFFFFFF
310
FFFFFFFFFFFFFFFFFFFFFFFFFFFFFFFFF000FFFFFFFFFFFFFFFFFFFFFFFFFFFF
310
FFFFFFFFFFFFFFFFFFFFFFFFFFFFFFFFFFFFFFFFFFFFFFFFFFFFFFFFFFFFFFFF
310
FFFFFFFFFFFFFFFFFFFFFFFFFFFFFFFFFFFFFFFFFFFFFFFFFFFFFFFFFFFFFFFF
310
FFFFFFFFFFFFFFFFF000FFFFFFFFFFFFFFFFFFFFFFFFFFFFFFFFFFFFFFFFFFFF
310
FFFFFFFFFFFFFFFFFFFFFFFFFFFFFFFFFFFFFFFFFFFFFFFFFFFFFFFFFFFFFFFF
310
FFFFFFFFFFFFFFFFFFFFFFFFFFFFFFFFFFFFFFFFFFFFFFFFFFFFFFFFFFFFFFFF
310
F000FFFFFFFFFFFFFFFFFFFFFFFFFFFFFFFFFFFFFFFFFFFFFFFFFFFFFFFFFFFF
310
FFFFFFFFFFFFFFFFFFFFFFFFFFFFFFFFFFFFFFFFFFFFFFFFFFFFFFFFFFFFFFFF
310
FFFFFFFFFFFFFFFFFFFFFFFFFFFFFFFFFFFFFFFFFFFFFFFFF000FFFFFFFFFFFF
310
FFFFFFFFFFFFFFFFFFFFFFFFFFFFFFFFFFFFFFFFFFFFFFFFFFFFFFFFFFFFFFFF
310
FFFFFFFFFFFFFFFFFFFFFFFFFFFFFFFFFFFFFFFFFFFFFFFFFFFFFFFFFFFFFFFF
310
FFFFFFFFFFFFFFFFFFFFFFFFFFFFFFFFF000FFFFFFFFFFFFFFFFFFFFFFFFFFFF
310
FFFFFFFFFFFFFFFFFFFFFFFFFFFFFFFFFFFFFFFFFFFFFFFFFFFFFFFFFFFFFFFF
310
FFFFFFFFFFFFFFFFFFFFFFFFFFFFFFFFFFFFFFFFFFFFFFFFFFFFFFFFFFFFFFFF
310
FFFFFFFFFFFFFFFFF000FFFFFFFFFFFFFFFFFFFFFFFFFFFFFFFFFFFFFFFFFFFF
310
FFFFFFFFFFFFFFFFFFFFFFFFFFFFFFFFFFFFFFFFFFFFFFFFFFFFFFFFFFFFFFFF
310
FFFFFFFFFFFFFFFFFFFFFFFFFFFFFFFFFFFFFFFFFFFFFFFFFFFFFFFFFFFFFFFF
310
F000FFFFFFFFFFFFFFFFFFFFFFFFFFFFFFFFFFFFFFFFFFFFFFFFFFFFFFFFFFFF
310
FFFFFFFFFFFFFFFFFFFFFFFFFFFFFFFFFFFFFFFFFFFFFFFFFFFFFFFFFFFFFFFF
310
FFFFFFFFFFFFFFFFFFFFFFFFFFFFFFFFFFFFFFFFFFFFFFFFF000FFFFFFFFFFFF
310
FFFFFFFFFFFFFFFFFFFFFFFFFFFFFFFFFFFFFFFFFFFFFFFFFFFFFFFFFFFFFFFF
310
FFFFFFFFFFFFFFFFFFFFFFFFFFFFFFFFFFFFFFFFFFFFFFFFFFFFFFFFFFFFFFFF
310
FFFFFFFFFFFFFFFFFFFFFFFFFFFFFFFFF000FFFFFFFFFFFFFFFFFFFFFFFFFFFF
310
FFFFFFFFFFFFFFFFFFFFFFFFFFFFFFFFFFFFFFFFFFFFFFFFFFFFFFFFFFFFFFFF
310
FFFFFFFFFFFFFFFFFFFFFFFFFFFFFFFFFFFFFFFFFFFFFFFFFFFFFFFFFFFFFFFF
310
FFFFFFFFFFFFFFFFF000FFFFFFFFFFFFFFFFFFFFFFFFFFFFFFFFFFFFFFFFFFFF
310
FFFFFFFFFFFFFFFFFFFFFFFFFFFFFFFFFFFFFFFFFFFFFFFFFFFFFFFFFFFFFFFF
310
FFFFFFFFFFFFFFFFFFFFFFFFFFFFFFFFFFFFFFFFFFFFFFFFFFFFFFFFFFFFFFFF
310
F000FFFFFFFFFFFFFFFFFFFFFFFFFFFFFFFFFFFFFFFFFFFFFFFFFFFFFFFFFFFF
310
FFFFFFFFFFFFFFFFFFFFFFFFFFFFFFFFFFFFFFFFFFFFFFFFFFFFFFFFFFFFFFFF
310
FFFFFFFFFFFFFFFFFFFFFFFFFFFFFFFFFFFFFFFFFFFFFFFFF000FFFFFFFFFFFF
310
FFFFFFFFFFFFFFFFFFFFFFFFFFFFFFFFFFFFFFFFFFFFFFFFFFFFFFFFFFFFFFFF
310
FFFFFFFFFFFFFFFFFFFFFFFFFFFFFFFFFFFFFFFFFFFFFFFFFFFFFFFFFFFFFFFF
310
FFFFFFFFFFFFFFFFFFFFFFFFFFFFFFFFF000FFFFFFFFFFFFFFFFFFFFFFFFFFFF
310
FFFFFFFFFFFFFFFFFFFFFFFFFFFFFFFFFFFFFFFFFFFFFFFFFFFFFFFFFFFFFFFF
310
FFFFFFFFFFFFFFFFFFFFFFFFFFFFFFFFFFFFFFFFFFFFFFFFFFFFFFFFFFFFFFFF
310
FFFFFFFFFFFFFFFFF000FFFFF80003FFFFFFFFFFFFFFFFFFFFFFFFFFFFFFFFFF
310
FFFFF00007FFFFFFFFFF00007FFFFFF800000000000000007FFFFFFFFFFFFFFF
310
FFFFFFFC001FFFFFFFFFFFFFFC001FFFFFFFFFFFFFFFFFFFFFFFFFFE0007FFFF
310
F000FFFF8000007FFFFFFFF8000FFFFFC0007FFFFF80007FFFFF0000007FFFFF
310
FFF8000007FFFFF800000000000000007FFFFFF0001FFFFFFFFFFFC00001FFFF
310
FFFFFFFFC00001FFFFFFFF000000000003FFFFE000007FFFF000FFFE0000000F
310
FFFFFFF0000FFFFF80007FFFFF80007FFFFC0000001FFFFFFFC0000001FFFFF8
310
00000000000000007FFFFFF0001FFFFFFFFFFE0000003FFFFFFFFFFE0000003F
310
FFFFFF000000000003FFFF0000000FFFF000FFF800000003FFFFFFF00007FFFF
310
80007FFFFF80007FFFF000000007FFFFFF000000003FFFF80000000000000000
310
7FFFFFF0001FFFFFFFFFF80000000FFFFFFFFFF80000000FFFFFFF0000000000
310
03FFFC00000003FFF000FFE000000000FFFFFFF00007FFFF80003FFFFF80007F
310
FFC000000001FFFFFC000000001FFFF800000000000000007FFFFFF0001FFFFF
310
FFFFE000000003FFFFFFFFE000000003FFFFFF000000000003FFF000000000FF
310
F000FF80000000007FFFFFF00007FFFF80003FFFFF80007FFF8000000000FFFF
310
F80000000007FFF800000000000000007FFFFFF0001FFFFFFFFFC000000001FF
310
FFFFFFC000000001FFFFFF000000000003FFC0000000007FF000FF0000000000
310
3FFFFFE00007FFFF00003FFFFF80007FFE00000000003FFFF00000000003FFF8
310
00000000000000007FFFFFF0001FFFFFFFFF8000000000FFFFFFFF8000000000
310
FFFFFF000000000003FF80000000003FF000FE00000000001FFFFFE00003FFFF
310
00003FFFFF80007FFC00000000001FFFE00000000001FFF8000001FFFE000000
310
7FFFFFF0001FFFFFFFFE00000000003FFFFFFE00000000003FFFFF0000000000
310
03FF00000000001FF000FC00000000000FFFFFE00003FFFF00001FFFFF80007F
310
F800000000001FFFC00000000000FFF8000001FFFE0000007FFFFFF0001FFFFF
310
FFFC00000000001FFFFFFC00000000001FFFFF000000000003FE00000000000F
310
F000F8000000000007FFFFE00003FFFF00001FFFFF80007FF800000000000FFF
310
800000000000FFF8000001FFFE0000007FFFFFF0001FFFFFFFF800000000000F
310
FFFFF800000000000FFFFF000000000003FC000000000007F000F80000000000
310
03FFFFC00003FFFE00001FFFFF80007FF0000000000007FF0000000000007FF8
310
000001FFFE0000007FFFFFF0001FFFFFFFF0000000000007FFFFF00000000000
310
07FFFF000000000003F8000000000003F000F0000000000003FFFFC00001FFFE
310
00001FFFFF80007FE0000000000007FE0000000000003FF8000001FFFE000000
310
7FFFFFF0001FFFFFFFF0000000000007FFFFF0000000000007FFFF0000000000
310
03F800001F800003F000E00001FFF00001FFFFC00001FFFE00000FFFFF80007F
310
E00001FFE00003FE00001FFF00003FF8000001FFFE0000007FFFFFF0001FFFFF
310
FFE000003E000003FFFFE000003E000003FFFF000000000003F00001FFF80001
310
F000E00007FFFC0001FFFFC00001FFFE00000FFFFF80007FC0000FFFFC0003FC
310
0000FFFFC0001FF8000001FFFE0000007FFFFFF0001FFFFFFFC00003FFE00001
310
FFFFC00003FFE00001FFFF0001FFFFFFFFF00007FFFE0001F000E0000FFFFF00
310
00FFFF800001FFFC00000FFFFF80007FC0001FFFFE0001FC0001FFFFE0001FF8
310
000001FFFE0000007FFFFFF0001FFFFFFF80000FFFF80000FFFF80000FFFF800
310
00FFFF0003FFFFFFFFE0000FFFFF8000F000C0003FFFFF8000FFFF800000FFFC
310
000007FFFF80007F80003FFFFF0001FC0003FFFFF0001FF8000001FFFE000000
310
7FFFFFF0001FFFFFFF80003FFFFE0000FFFF80003FFFFE0000FFFF0003FFFFFF
310
FFE0003FFFFF8000F000C0003FFFFF8000FFFF800000FFFC000007FFFF80007F
310
80007FFFFF8001F80007FFFFF8000FF8000001FFFE0000007FFFFFF0001FFFFF
310
FF00007FFFFF00007FFF00007FFFFF00007FFF0003FFFFFFFFE0003FFFFFC000
310
F000C0007FFFFFC000FFFF000000FFFC000007FFFF80007F8000FFFFFF8000F8
310
000FFFFFF8000FF8000001FFFE0000007FFFFFF0001FFFFFFF0000FFFFFF8000
310
7FFF0000FFFFFF80007FFF0003FFFFFFFFC0007FFFFFC00070008000FFFFFFC0
310
00FFFF000000FFF8000007FFFF80007F8000FFFFFF8000F8000FFFFFF8000FF8
310
000001FFFE0000007FFFFFF0001FFFFFFE0001FFFFFFC0003FFE0001FFFFFFC0
310
003FFF0003FFFFFFFFC0007FFFFFE00070008000FFFFFFC0007FFF0000007FF8
310
000003FFFF80007F0001FFFFFF8000F8000FFFFFF8000FF8000001FFFE000000
310
7FFFFFF0001FFFFFFE0001FFFFFFC0003FFE0001FFFFFFC0003FFF0003FFFFFF
310
FFC000FFFFFFE00070008000FFFFFFC0007FFF0000007FF8000003FFFF80007F
310
0001FFFFFF8000F8001FFFFFF8000FF8000001FFFE0000007FFFFFF0001FFFFF
310
FE0003FFFFFFE0003FFE0003FFFFFFE0003FFF0003FFFFFFFFC000FFFFFFE000
310
70008000FFFFFFC0007FFE0000007FF8000003FFFF80007F0001FFFFFF8000F0
310
001FFFFFF8000FF8000001FFFE0000007FFFFFF0001FFFFFFC0003FFFFFFE000
310
1FFC0003FFFFFFE0001FFF0003FFFFFFFFC000FFFFFFC00070008000FFFFFF80
310
007FFE0000007FF0000003FFFF80007F0001FFFFFF0000F0001FFFFFF8000FF8
310
000001FFFE0000007FFFFFF0001FFFFFFC0007FFFFFFF0001FFC0007FFFFFFF0
310
001FFF0003FFFFFFFFC000FFFFFFC00070008001FFFFFF0000FFFE0000003FF0
310
000001FFFF80007F0001FFFFFF0000F8001FFFFFF0000FF8000001FFFE000000
310
7FFFFFF0001FFFFFFC0007FFFFFFF0001FFC0007FFFFFFF0001FFF0003FFFFFF
310
FFC001FFFFFF80007000FFFFFFFFFE0000FFFE0008003FF0008001FFFF80007F
310
FFFFFFFFFC0000FFFFFFFFFFE0000FF8000001FFFE0000007FFFFFF0001FFFFF
310
F8000FFFFFFFF8000FF8000FFFFFFFF8000FFF0003FFFFFFFFFFFFFFFFFF0000
310
7000FFFFFFFFFC0000FFFC0008003FF0008001FFFF80007FFFFFFFFFF80001FF
310
FFFFFFFF80000FF8000001FFFE0000007FFFFFF0001FFFFFF8000FFFFFFFF800
310
0FF8000FFFFFFFF8000FFF0003FFFFFFFFFFFFFFFFFE0000F000FFFFFFFFE000
310
00FFFC000C003FE000C001FFFF80007FFFFFFFFFC00001FFFFFFFFFE00001FF8
310
000001FFFE0000007FFFFFF0001FFFFFF8000FFFFFFFF8000FF8000FFFFFFFF8
310
000FFF0003FFFFFFFFFFFFFFFFF00000F000FFFFFFFE000001FFFC000C001FE0
310
00C000FFFF80007FFFFFFFFE000001FFFFFFFFE000001FF80FFFFFFFFFFFFFC0
310
7FFFFFF0001FFFFFF8000FFFFFFFF8000FF8000FFFFFFFF8000FFF0003FFFFFF
310
FFFFFFFFFF800000F000FFFFFFC0000001FFFC001C001FE001C000FFFF80007F
310
FFFFFF80000003FFFFFFF80000001FF80FFFFFFFFFFFFFC07FFFFFF0001FFFFF
310
F8001FFFFFFFFC000FF8001FFFFFFFFC000FFF0003FFFFFFFFFFFFFFF0000001
310
F000FFFFF800000001FFF8001C001FE001C000FFFF80007FFFFFF800000003FF
310
FFFF800000003FF80FFFFFFFFFFFFFC07FFFFFF0001FFFFFF8001FFFFFFFFC00
310
0FF8001FFFFFFFFC000FFF0003FFFFFFFFFFFFFE00000001F000FFFFC0000000
310
03FFF8001E001FC001E000FFFF80007FFFFF8000000007FFFFFC000000003FF8
310
0FFFFFFFFFFFFFC07FFFFFF0001FFFFFF8001FFFFFFFFC000FF8001FFFFFFFFC
310
000FFF0003FFFFFFFFFFFFE000000003F000FFFE0000000007FFF8001E000FC0
310
01E0007FFF80007FFFFE0000000007FFFFE0000000007FF80FFFFFFFFFFFFFC0
310
7FFFFFF0001FFFFFF0001FFFFFFFFC0007F0001FFFFFFFFC0007FF0003FFFFFF
310
FFFFFF0000000003F000FFF80000000007FFF8001E000FC003E0007FFF80007F
310
FFF0000000000FFFFF8000000000FFF80FFFFFFFFFFFFFC07FFFFFF0001FFFFF
310
F0001FFFFFFFFC0007F0001FFFFFFFFC0007FF0003FFFFFFFFFFFC0000000007
310
F000FFE0000000000FFFF0003E000FC003E0007FFF80007FFFC0000000001FFF
310
FE0000000001FFF80FFFFFFFFFFFFFC07FFFFFF0001FFFFFF0001FFFFFFFFC00
310
07F0001FFFFFFFFC0007FF0003FFFFFFFFFFF0000000000FF000FFC000000000
310
1FFFF0003F000F8003F0003FFF80007FFF80000000003FFFF80000000003FFF8
310
0FFFFFFFFFFFFFC07FFFFFF0001FFFFFF0001FFFFFFFFC0007F0001FFFFFFFFC
310
0007FF0003FFFFFFFFFFE0000000001FF000FF00000000007FFFF0003F000780
310
03F0003FFF80007FFF00000000007FFFF00000000007FFF80FFFFFFFFFFFFFC0
310
7FFFFFF0001FFFFFF0001FFFFFFFFC0007F0001FFFFFFFFC0007FF0003FFFFFF
310
FFFF80000000007FF000FE0000000000FFFFE0003F00078007F0003FFF80007F
310
FE0000000001FFFFE0000000001FFFF80FFFFFFFFFFFFFC07FFFFFF0001FFFFF
310
F0001FFFFFFFFC0007F0001FFFFFFFFC0007FF0003FFFFFFFFFF0000000000FF
310
F000FC0000000003FFFFE0007F00078007F0003FFF80007FFC0000000007FFFF
310
C0000000007FFFF80FFFFFFFFFFFFFC07FFFFFF0001FFFFFF8001FFFFFFFFC00
310
0FF8001FFFFFFFFC000FFF0003FFFFFFFFFE0000000003FFF000FC000000000F
310
FFFFE0007F80070007F8001FFF80007FF8000000001FFFFF8000000001FFFFF8
310
0FFFFFFFFFFFFFC07FFFFFF0001FFFFFF8001FFFFFFFFC000FF8001FFFFFFFFC
310
000FFF0003FFFFFFFFFC000000000FFFF000F8000000007FFFFFE0007F800700
310
07F8001FFF80007FF000000000FFFFFF800000000FFFFFF80FFFFFFFFFFFFFC0
310
7FFFFFF0001FFFFFF8000FFFFFFFF8000FF8000FFFFFFFF8000FFF0003FFFFFF
310
FFFC000000007FFFF000F800000007FFFFFFC0007F8003000FF8001FFF80007F
310
F000000007FFFFFF000000007FFFFFF80FFFFFFFFFFFFFC07FFFFFF0001FFFFF
310
F8000FFFFFFFF8000FF8000FFFFFFFF8000FFF0003FFFFFFFFF80000000FFFFF
310
F000F0000000FFFFFFFFC000FF8003000FF8001FFF80007FE0000000FFFFFFFF
310
0000000FFFFFFFF8000001FFFE0000007FFFFFF0001FFFFFF8000FFFFFFFF800
310
0FF8000FFFFFFFF8000FFF0003FFFFFFFFF8000000FFFFFFF000F000000FFFFF
310
FFFFC000FFC002000FF8000FFF80007FE000001FFFFFFFFE000001FFFFFFFFF8
310
000001FFFE0000007FFFFFF0001FFFFFF8000FFFFFFFF8000FF8000FFFFFFFF8
310
000FFF0003FFFFFFFFF000001FFFFFFFF000E00000FFFFFFFFFFC000FFC00200
310
0FFC000FFF80007FE00001FFFFFFFFFE00001FFFFFFFFFF8000001FFFE000000
310
7FFFFFF0001FFFFFFC000FFFFFFFF8001FFC000FFFFFFFF8001FFF0003FFFFFF
310
FFF00001FFFFFFFFF000E00007FFFFFFFFFF8000FFC000001FFC000FFF80007F
310
C0000FFFFFFFFFFE0000FFFFFFFFFFF8000001FFFE0000007FFFFFF0001FFFFF
310
FC0007FFFFFFF0001FFC0007FFFFFFF0001FFF0003FFFFFFFFF00007FFFFFFFF
310
F000E0001FFFFFFFFFFF8000FFC000001FFC000FFF80007FC0003FFFFFFFFFFE
310
0001FFFFFFFFFFF8000001FFFE0000007FFFFFF0001FFFFFFC0007FFFFFFF000
310
1FFC0007FFFFFFF0001FFF0003FFFFFFFFF0001FFFFFFFFFF000E0003FFFFF00
310
03FF8001FFE000001FFC0007FF80007FC0007FFFFF0007FC0003FFFFF0003FF8
310
000001FFFE0000007FFFFFF0001FFFFFFC0003FFFFFFE0001FFC0003FFFFFFE0
310
001FFF0003FFFFFFFFF0003FFFFFFFFFF000E0003FFFFF0001FF8001FFE00000
310
1FFE0007FF80007FC0007FFFFE0003FC0007FFFFE0003FF8000001FFFE000000
310
7FFFFFF0001FFFFFFE0003FFFFFFE0003FFE0003FFFFFFE0003FFF0003FFFFFF
310
FFF0003FFFFF8001F000E0003FFFFF0001FF0001FFE000001FFE0007FF80007F
310
C0007FFFFE0003FC0007FFFFE0003FF8000001FFFE0000007FFFFFF0001FFFFF
310
FE0001FFFFFFC0003FFE0001FFFFFFC0003FFF0003FFFFFFFFF0003FFFFF0001
310
F000E0003FFFFF0003FF0001FFE000003FFE0007FF80007FC0007FFFFE0003FC
310
0007FFFFE0003FF8000001FFFE0000007FFFFFF0001FFFFFFF0001FFFFFFC000
310
7FFF0001FFFFFFC0007FFF0003FFFFFFFFF0003FFFFF0001F000E0003FFFFE00
310
03FF0003FFF000003FFE0003FF80007FC0007FFFFC0003FE0007FFFFE0003FF8
310
000001FFFE0000007FFFFFF0001FFFFFFF0000FFFFFF80007FFF0000FFFFFF80
310
007FFF0003FFFFFFFFF0003FFFFF0001F000E0003FFFFE0003FF0003FFF00000
310
3FFF0003FF80007FC0007FFFFC0007FE0007FFFFC0003FF8000001FFFE000000
310
7FFFFFF0001FFFFFFF80007FFFFF0000FFFF80007FFFFF0000FFFF0003FFFFFF
310
FFF0003FFFFF0003F000E0003FFFFC0003FE0003FFF000003FFF0003FF80007F
310
E0003FFFF80007FE0003FFFFC0007FF8000001FFFE0000007FFFFFF0001FFFFF
310
FF80003FFFFE0000FFFF80003FFFFE0000FFFF0003FFFFFFFFF0001FFFFE0003
310
F000F0001FFFF80003FE0003FFF000007FFF0001FF80007FE0003FFFF00007FE
310
0001FFFF80007FF8000001FFFE0000007FFFFFF0001FFFFFFFC0000FFFF80001
310
FFFFC0000FFFF80001FFFF0003FFFFFFFFF0001FFFFC0003F000F0000FFFF000
310
07FE0007FFF800007FFF0001FF80007FE0001FFFE00007FF0000FFFE00007FF8
310
000001FFFE0000007FFFFFF0001FFFFFFFC00003FFE00001FFFFC00003FFE000
310
01FFFF0003FFFFFFFFF8000FFFF80003F000F00003FFC00007FC0007FFF80000
310
7FFF8001FF80007FF00007FF80000FFF00007FF80000FFF8000001FFFE000000
310
7F80000000000001FFE000003E000003FFFFE000003E000003FFFF0003FFFFFF
310
FFF80003FFE00007F000F800000000000FFC0007FFF800007FFF8001FF80007F
310
F000000000000FFF000000000000FFF8000001FFFE0000007F80000000000001
310
FFF0000000000007FFFFF0000000000007FFFF0003FFFFFFFFFC00007E000007
310
F000F800000000000FFC0007FFF80000FFFF8000FF80007FF800000000001FFF
310
800000000001FFF8000001FFFE0000007F80000000000001FFF800000000000F
310
FFFFF800000000000FFFFF0003FFFFFFFFFC00000000000FF000FC0000000000
310
1FFC0007FFFC0000FFFF8000FF80007FF800000000003FFFC00000000001FFF8
310
000001FFFE0000007F80000000000001FFF800000000000FFFFFF80000000000
310
0FFFFF0003FFFFFFFFFE00000000001FF000FE00000000003FF8000FFFFC0000
310
FFFF8000FF80007FFC00000000003FFFC00000000003FFF8000001FFFE000000
310
7F80000000000001FFFC00000000001FFFFFFC00000000001FFFFF0003FFFFFF
310
FFFF00000000001FF000FF00000000003FF8000FFFFC0000FFFFC000FF80007F
310
FE00000000007FFFE00000000007FFF8000001FFFE0000007F80000000000001
310
FFFE00000000003FFFFFFE00000000003FFFFF0003FFFFFFFFFF80000000003F
310
F000FF80000000007FF8000FFFFC0001FFFFC0007F80007FFF0000000000FFFF
310
F0000000000FFFF800000000000000007F80000000000001FFFF8000000000FF
310
FFFFFF8000000000FFFFFF0003FFFFFFFFFFC0000000007FF000FFC000000000
310
FFF8000FFFFE0001FFFFC0007F80007FFF8000000001FFFFF8000000001FFFF8
310
00000000000000007F80000000000001FFFFC000000001FFFFFFFFC000000001
310
FFFFFF0003FFFFFFFFFFE000000000FFF000FFE000000003FFF0001FFFFE0001
310
FFFFC0007F80007FFFC000000007FFFFFE000000003FFFF80000000000000000
310
7F80000000000001FFFFE000000003FFFFFFFFE000000003FFFFFF0003FFFFFF
310
FFFFF000000003FFF000FFF80000000FFFF0001FFFFE0001FFFFE0007F80007F
310
FFF00000000FFFFFFF00000000FFFFF800000000000000007F80000000000001
310
FFFFF80000000FFFFFFFFFF80000000FFFFFFF0003FFFFFFFFFFFC0000000FFF
310
F000FFFE0000003FFFF0001FFFFE0003FFFFE0003F80007FFFFC0000003FFFFF
310
FFC0000003FFFFF800000000000000007F80000000000001FFFFFE0000003FFF
310
FFFFFFFE0000003FFFFFFF0003FFFFFFFFFFFF0000003FFFF000FFFF800000FF
310
FFF0001FFFFF0003FFFFE0003F80007FFFFF000001FFFFFFFFF800001FFFFFF8
310
00000000000000007F80000000000001FFFFFFC00001FFFFFFFFFFFFC00001FF
310
FFFFFF0003FFFFFFFFFFFFC00000FFFFF000FFFFF8000FFFFFFFFFFFFFFFFFFF
310
FFFFFFFFFFFFFFFFFFFFF0001FFFFFFFFFFF0000FFFFFFF80000000000000000
310
7FFFFFFFFFFFFFFFFFFFFFFC001FFFFFFFFFFFFFFC001FFFFFFFFFFFFFFFFFFF
310
FFFFFFFC001FFFFFF000FFFFFFFFFFFFFFFFFFFFFFFFFFFFFFFFFFFFFFFFFFFF
310
FFFFFFFFFFFFFFFFFFFFFFFFFFFFFFFFFFFFFFFFFFFFFFFFFFFFFFFFFFFFFFFF
310
FFFFFFFFFFFFFFFFFFFFFFFFFFFFFFFFFFFFFFFFFFFFFFFFFFFFFFFFFFFFFFFF
310
F000FFFFFFFFFFFFFFFFFFFFFFFFFFFFFFFFFFFFFFFFFFFFFFFFFFFFFFFFFFFF
310
FFFFFFFFFFFFFFFFFFFFFFFFFFFFFFFFFFFFFFFFFFFFFFFFFFFFFFFFFFFFFFFF
310
FFFFFFFFFFFFFFFFFFFFFFFFFFFFFFFFFFFFFFFFFFFFFFFFF000FFFFFFFFFFFF
310
FFFFFFFFFFFFFFFFFFFFFFFFFFFFFFFFFFFFFFFFFFFFFFFFFFFFFFFFFFFFFFFF
310
FFFFFFFFFFFFFFFFFFFFFFFFFFFFFFFFFFFFFFFFFFFFFFFFFFFFFFFFFFFFFFFF
310
FFFFFFFFFFFFFFFFFFFFFFFFFFFFFFFFF000FFFFFFFFFFFFFFFFFFFFFFFFFFFF
310
FFFFFFFFFFFFFFFFFFFFFFFFFFFFFFFFFFFFFFFFFFFFFFFFFFFFFFFFFFFFFFFF
310
FFFFFFFFFFFFFFFFFFFFFFFFFFFFFFFFFFFFFFFFFFFFFFFFFFFFFFFFFFFFFFFF
310
FFFFFFFFFFFFFFFFF000FFFFFFFFFFFFFFFFFFFFFFFFFFFFFFFFFFFFFFFFFFFF
310
FFFFFFFFFFFFFFFFFFFFFFFFFFFFFFFFFFFFFFFFFFFFFFFFFFFFFFFFFFFFFFFF
310
FFFFFFFFFFFFFFFFFFFFFFFFFFFFFFFFFFFFFFFFFFFFFFFFFFFFFFFFFFFFFFFF
310
F000FFFFFFFFFFFFFFFFFFFFFFFFFFFFFFFFFFFFFFFFFFFFFFFFFFFFFFFFFFFF
310
FFFFFFFFFFFFFFFFFFFFFFFFFFFFFFFFFFFFFFFFFFFFFFFFFFFFFFFFFFFFFFFF
310
FFFFFFFFFFFFFFFFFFFFFFFFFFFFFFFFFFFFFFFFFFFFFFFFF000FFFFFFFFFFFF
310
FFFFFFFFFFFFFFFFFFFFFFFFFFFFFFFFFFFFFFFFFFFFFFFFFFFFFFFFFFFFFFFF
310
FFFFFFFFFFFFFFFFFFFFFFFFFFFFFFFFFFFFFFFFFFFFFFFFFFFFFFFFFFFFFFFF
310
FFFFFFFFFFFFFFFFFFFFFFFFFFFFFFFFF000FFFFFFFFFFFFFFFFFFFFFFFFFFFF
310
FFFFFFFFFFFFFFFFFFFFFFFFFFFFFFFFFFFFFFFFFFFFFFFFFFFFFFFFFFFFFFFF
310
FFFFFFFFFFFFFFFFFFFFFFFFFFFFFFFFFFFFFFFFFFFFFFFFFFFFFFFFFFFFFFFF
310
FFFFFFFFFFFFFFFFF000FFFFFFFFFFFFFFFFFFFFFFFFFFFFFFFFFFFFFFFFFFFF
310
FFFFFFFFFFFFFFFFFFFFFFFFFFFFFFFFFFFFFFFFFFFFFFFFFFFFFFFFFFFFFFFF
310
FFFFFFFFFFFFFFFFFFFFFFFFFFFFFFFFFFFFFFFFFFFFFFFFFFFFFFFFFFFFFFFF
310
F000FFFFFFFFFFFFFFFFFFFFFFFFFFFFFFFFFFFFFFFFFFFFFFFFFFFFFFFFFFFF
310
FFFFFFFFFFFFFFFFFFFFFFFFFFFFFFFFFFFFFFFFFFFFFFFFFFFFFFFFFFFFFFFF
310
FFFFFFFFFFFFFFFFFFFFFFFFFFFFFFFFFFFFFFFFFFFFFFFFF000FFFFFFFFFFFF
310
FFFFFFFFFFFFFFFFFFFFFFFFFFFFFFFFFFFFFFFFFFFFFFFFFFFFFFFFFFFFFFFF
310
FFFFFFFFFFFFFFFFFFFFFFFFFFFFFFFFFFFFFFFFFFFFFFFFFFFFFFFFFFFFFFFF
310
FFFFFFFFFFFFFFFFFFFFFFFFFFFFFFFFF000FFFFFFFFFFFFFFFFFFFFFFFFFFFF
310
FFFFFFFFFFFFFFFFFFFFFFFFFFFFFFFFFFFFFFFFFFFFFFFFFFFFFFFFFFFFFFFF
310
FFFFFFFFFFFFFFFFFFFFFFFFFFFFFFFFFFFFFFFFFFFFFFFFFFFFFFFFFFFFFFFF
310
FFFFFFFFFFFFFFFFF000FFFFFFFFFFFFFFFFFFFFFFFFFFFFFFFFFFFFFFFFFFFF
310
FFFFFFFFFFFFFFFFFFFFFFFFFFFFFFFFFFFFFFFFFFFFFFFFFFFFFFFFFFFFFFFF
310
FFFFFFFFFFFFFFFFFFFFFFFFFFFFFFFFFFFFFFFFFFFFFFFFFFFFFFFFFFFFFFFF
310
F000FFFFFFFFFFFFFFFFFFFFFFFFFFFFFFFFFFFFFFFFFFFFFFFFFFFFFFFFFFFF
310
FFFFFFFFFFFFFFFFFFFFFFFFFFFFFFFFFFFFFFFFFFFFFFFFFFFFFFFFFFFFFFFF
310
FFFFFFFFFFFFFFFFFFFFFFFFFFFFFFFFFFFFFFFFFFFFFFFFF000FFFFFFFFFFFF
310
FFFFFFFFFFFFFFFFFFFFFFFFFFFFFFFFFFFFFFFFFFFFFFFFFFFFFFFFFFFFFFFF
310
FFFFFFFFFFFFFFFFFFFFFFFFFFFFFFFFFFFFFFFFFFFFFFFFFFFFFFFFFFFFFFFF
310
FFFFFFFFFFFFFFFFFFFFFFFFFFFFFFFFF000FFFFFFFFFFFFFFFFFFFFFFFFFFFF
310
FFFFFFFFFFFFFFFFFFFFFFFFFFFFFFFFFFFFFFFFFFFFFFFFFFFFFFFFFFFFFFFF
310
FFFFFFFFFFFFFFFFFFFFFFFFFFFFFFFFFFFFFFFFFFFFFFFFFFFFFFFFFFFFFFFF
310
FFFFFFFFFFFFFFFFF000FFFFFFFFFFFFFFFFFFFFFFFFFFFFFFFFFFFFFFFFFFFF
310
FFFFFFFFFFFFFFFFFFFFFFFFFFFFFFFFFFFFFFFFFFFFFFFFFFFFFFFFFFFFFFFF
310
FFFFFFFFFFFFFFFFFFFFFFFFFFFFFFFFFFFFFFFFFFFFFFFFFFFFFFFFFFFFFFFF
310
F000FFFFFFFFFFFFFFFFFFFFFFFFFFFFFFFFFFFFFFFFFFFFFFFFFFFFFFFFFFFF
310
FFFFFFFFFFFFFFFFFFFFFFFFFFFFFFFFFFFFFFFFFFFFFFFFFFFFFFFFFFFFFFFF
310
FFFFFFFFFFFFFFFFFFFFFFFFFFFFFFFFFFFFFFFFFFFFFFFFF000FFFFFFFFFFFF
310
FFFFFFFFFFFFFFFFFFFFFFFFFFFFFFFFFFFFFFFFFFFFFFFFFFFFFFFFFFFFFFFF
310
FFFFFFFFFFFFFFFFFFFFFFFFFFFFFFFFFFFFFFFFFFFFFFFFFFFFFFFFFFFFFFFF
310
FFFFFFFFFFFFFFFFFFFFFFFFFFFFFFFFF000FFFFFFFFFFFFFFFFFFFFFFFFFFFF
310
FFFFFFFFFFFFFFFFFFFFFFFFFFFFFFFFFFFFFFFFFFFFFFFFFFFFFFFFFFFFFFFF
310
FFFFFFFFFFFFFFFFFFFFFFFFFFFFFFFFFFFFFFFFFFFFFFFFFFFFFFFFFFFFFFFF
310
FFFFFFFFFFFFFFFFF000FFFFFFFFFFFFFFFFFFFFFFFFFFFFFFFFFFFFFFFFFFFF
310
FFFFFFFFFFFFFFFFFFFFFFFFFFFFFFFFFFFFFFFFFFFFFFFFFFFFFFFFFFFFFFFF
310
FFFFFFFFFFFFFFFFFFFFFFFFFFFFFFFFFFFFFFFFFFFFFFFFFFFFFFFFFFFFFFFF
310
F000FFFFFFFFFFFFFFFFFFFFFFFFFFFFFFFFFFFFFFFFFFFFFFFFFFFFFFFFFFFF
310
FFFFFFFFFFFFFFFFFFFFFFFFFFFFFFFFFFFFFFFFFFFFFFFFFFFFFFFFFFFFFFFF
310
FFFFFFFFFFFFFFFFFFFFFFFFFFFFFFFFFFFFFFFFFFFFFFFFF000FFFFFFFFFFFF
310
FFFFFFFFFFFFFFFFFFFFFFFFFFFFFFFFFFFFFFFFFFFFFFFFFFFFFFFFFFFFFFFF
310
FFFFFFFFFFFFFFFFFFFFFFFFFFFFFFFFFFFFFFFFFFFFFFFFFFFFFFFFFFFFFFFF
310
FFFFFFFFFFFFFFFFFFFFFFFFFFFFFFFFF0000000000000000000000000000000
310
0000000000000000000000000000000000000000000000000000000000000000
310
0000000000000000000000000000000000000000000000000000000000000000
310
0000000000000000000000000000000000000000000000000000000000000000
310
0000000000000000000000000000000000000000000000000000000000000000
310
0000000000000000000000000000000000000000000000000000000000000000
310
0000000000000000000000000000000000000000000000000000000000000000
310
0000000000000000000000000000000000000000000000000000000000000000
310
0000000000000000000000000000000000000000000000000000000000000000
310
0000000000000000000000000000000000000000000000000000000000000000
310
0000000000000000000000000000000000000000000000000000000000000000
310
0000000000000000000000000000000000000000000000000000000000000000
310
0000000000000000000000000000000000000000000000000000000000000000
310
0000000000000000000000000000000000000000000000000000000000000000
310
0000000000000000000000000000000000000000000000000000000000000000
310
0000000000000000000000000000000000000000000000000000000000000000
  1
OLE
  0
ENDSEC
  0
SECTION
  2
OBJECTS
  0
DICTIONARY
  5
C
330
0
100
AcDbDictionary
281
     1
  3
ACAD_GROUP
350
D
  3
ACAD_LAYOUT
350
1A
  3
ACAD_MLINESTYLE
350
17
  3
ACAD_PLOTSETTINGS
350
19
  3
ACAD_PLOTSTYLENAME
350
E
  0
DICTIONARY
  5
D
102
{ACAD_REACTORS
330
C
102
}
330
C
100
AcDbDictionary
281
     1
  0
DICTIONARY
  5
1A
102
{ACAD_REACTORS
330
C
102
}
330
C
100
AcDbDictionary
281
     1
  3
Layout1
350
1E
  3
Layout2
350
26
  3
Model
350
22
  0
DICTIONARY
  5
17
102
{ACAD_REACTORS
330
C
102
}
330
C
100
AcDbDictionary
281
     1
  3
Standard
350
18
  0
DICTIONARY
  5
19
102
{ACAD_REACTORS
330
C
102
}
330
C
100
AcDbDictionary
281
     1
  0
ACDBDICTIONARYWDFLT
  5
E
102
{ACAD_REACTORS
330
C
102
}
330
C
100
AcDbDictionary
281
     1
  3
Normal
350
F
100
AcDbDictionaryWithDefault
340
F
  0
LAYOUT
  5
1E
102
{ACAD_REACTORS
330
1A
102
}
330
1A
100
AcDbPlotSettings
  1

  2
none_device
  4

  6

 40
0.0
 41
0.0
 42
0.0
 43
0.0
 44
0.0
 45
0.0
 46
0.0
 47
0.0
 48
0.0
 49
0.0
140
0.0
141
0.0
142
1.0
143
1.0
 70
   688
 72
     0
 73
     0
 74
     5
  7

 75
    16
147
1.0
148
0.0
149
0.0
100
AcDbLayout
  1
Layout1
 70
     1
 71
     1
 10
0.0
 20
0.0
 11
420.0
 21
297.0
 12
0.0
 22
0.0
 32
0.0
 14
1.0000000000E+20
 24
1.0000000000E+20
 34
1.0000000000E+20
 15
-1.0000000000E+20
 25
-1.0000000000E+20
 35
-1.0000000000E+20
146
0.0
 13
0.0
 23
0.0
 33
0.0
 16
1.0
 26
0.0
 36
0.0
 17
0.0
 27
1.0
 37
0.0
 76
     0
330
1B
  0
LAYOUT
  5
26
102
{ACAD_REACTORS
330
1A
102
}
330
1A
100
AcDbPlotSettings
  1

  2
none_device
  4

  6

 40
0.0
 41
0.0
 42
0.0
 43
0.0
 44
0.0
 45
0.0
 46
0.0
 47
0.0
 48
0.0
 49
0.0
140
0.0
141
0.0
142
1.0
143
1.0
 70
   688
 72
     0
 73
     0
 74
     5
  7

 75
    16
147
1.0
148
0.0
149
0.0
100
AcDbLayout
  1
Layout2
 70
     1
 71
     2
 10
0.0
 20
0.0
 11
0.0
 21
0.0
 12
0.0
 22
0.0
 32
0.0
 14
0.0
 24
0.0
 34
0.0
 15
0.0
 25
0.0
 35
0.0
146
0.0
 13
0.0
 23
0.0
 33
0.0
 16
1.0
 26
0.0
 36
0.0
 17
0.0
 27
1.0
 37
0.0
 76
     0
330
23
  0
LAYOUT
  5
22
102
{ACAD_REACTORS
330
1A
102
}
330
1A
100
AcDbPlotSettings
  1

  2
none_device
  4

  6

 40
0.0
 41
0.0
 42
0.0
 43
0.0
 44
0.0
 45
0.0
 46
0.0
 47
0.0
 48
0.0
 49
0.0
140
0.0
141
0.0
142
1.0
143
1.0
 70
  1712
 72
     0
 73
     0
 74
     0
  7

 75
     0
147
1.0
148
0.0
149
0.0
100
AcDbLayout
  1
Model
 70
     1
 71
     0
 10
0.0
 20
0.0
 11
297.0
 21
210.0
 12
0.0
 22
0.0
 32
0.0
 14
0.0
 24
0.0
 34
0.0
 15
297.0
 25
210.0
 35
0.0
146
0.0
 13
0.0
 23
0.0
 33
0.0
 16
1.0
 26
0.0
 36
0.0
 17
0.0
 27
1.0
 37
0.0
 76
     0
330
1F
331
29
  0
MLINESTYLE
  5
18
102
{ACAD_REACTORS
330
17
102
}
330
17
100
AcDbMlineStyle
  2
Standard
 70
     0
  3

 62
   256
 51
90.0
 52
90.0
 71
     2
 49
0.5
 62
   256
  6
BYLAYER
 49
-0.5
 62
   256
  6
BYLAYER
  0
ACDBPLACEHOLDER
  5
F
102
{ACAD_REACTORS
330
E
102
}
330
E
  0
ENDSEC
  0
EOF
