  0
SECTION
  2
HEADER
  9
$ACADVER
  1
AC1015
  9
$ACADMAINTVER
 70
     6
  9
$DWGCODEPAGE
  3
ANSI_1252
  9
$INSBASE
 10
0.0
 20
0.0
 30
0.0
  9
$EXTMIN
 10
0.0
 20
0.0
 30
0.0
  9
$EXTMAX
 10
297.0
 20
210.0
 30
0.0
  9
$LIMMIN
 10
0.0
 20
0.0
  9
$LIMMAX
 10
297.0
 20
210.0
  9
$ORTHOMODE
 70
     0
  9
$REGENMODE
 70
     1
  9
$FILLMODE
 70
     1
  9
$QTEXTMODE
 70
     0
  9
$MIRRTEXT
 70
     1
  9
$LTSCALE
 40
1.0
  9
$ATTMODE
 70
     1
  9
$TEXTSIZE
 40
2.0
  9
$TRACEWID
 40
1.0
  9
$TEXTSTYLE
  7
Standard
  9
$CLAYER
  8
0
  9
$CELTYPE
  6
ByLayer
  9
$CECOLOR
 62
   256
  9
$CELTSCALE
 40
1.0
  9
$DISPSILH
 70
     0
  9
$DIMSCALE
 40
1.0
  9
$DIMASZ
 40
3.0
  9
$DIMEXO
 40
0.0
  9
$DIMDLI
 40
3.75
  9
$DIMRND
 40
0.0
  9
$DIMDLE
 40
0.0
  9
$DIMEXE
 40
1.0
  9
$DIMTP
 40
0.0
  9
$DIMTM
 40
0.0
  9
$DIMTXT
 40
2.0
  9
$DIMCEN
 40
2.5
  9
$DIMTSZ
 40
0.0
  9
$DIMTOL
 70
     0
  9
$DIMLIM
 70
     0
  9
$DIMTIH
 70
     1
  9
$DIMTOH
 70
     1
  9
$DIMSE1
 70
     0
  9
$DIMSE2
 70
     0
  9
$DIMTAD
 70
     1
  9
$DIMZIN
 70
     0
  9
$DIMBLK
  1

  9
$DIMASO
 70
     1
  9
$DIMSHO
 70
     1
  9
$DIMPOST
  1

  9
$DIMAPOST
  1

  9
$DIMALT
 70
     0
  9
$DIMALTD
 70
     3
  9
$DIMALTF
 40
0.0393700787
  9
$DIMLFAC
 40
1.0
  9
$DIMTOFL
 70
     1
  9
$DIMTVP
 40
0.0
  9
$DIMTIX
 70
     0
  9
$DIMSOXD
 70
     0
  9
$DIMSAH
 70
     0
  9
$DIMBLK1
  1

  9
$DIMBLK2
  1

  9
$DIMSTYLE
  2
ISO-25
  9
$DIMCLRD
 70
     0
  9
$DIMCLRE
 70
     0
  9
$DIMCLRT
 70
     0
  9
$DIMTFAC
 40
1.0
  9
$DIMGAP
 40
1.524
  9
$DIMJUST
 70
     0
  9
$DIMSD1
 70
     0
  9
$DIMSD2
 70
     0
  9
$DIMTOLJ
 70
     0
  9
$DIMTZIN
 70
     0
  9
$DIMALTZ
 70
     0
  9
$DIMALTTZ
 70
     0
  9
$DIMUPT
 70
     0
  9
$DIMDEC
 70
     2
  9
$DIMTDEC
 70
     3
  9
$DIMALTU
 70
     2
  9
$DIMALTTD
 70
     3
  9
$DIMTXSTY
  7
Standard
  9
$DIMAUNIT
 70
     0
  9
$DIMADEC
 70
     2
  9
$DIMALTRND
 40
0.0
  9
$DIMAZIN
 70
     0
  9
$DIMDSEP
 70
    44
  9
$DIMATFIT
 70
     3
  9
$DIMFRAC
 70
     0
  9
$DIMLDRBLK
  1

  9
$DIMLUNIT
 70
     2
  9
$DIMLWD
 70
    -2
  9
$DIMLWE
 70
    -2
  9
$DIMTMOVE
 70
     0
  9
$LUNITS
 70
     2
  9
$LUPREC
 70
     2
  9
$SKETCHINC
 40
1.0
  9
$FILLETRAD
 40
10.0
  9
$AUNITS
 70
     0
  9
$AUPREC
 70
     2
  9
$MENU
  1
.
  9
$ELEVATION
 40
0.0
  9
$PELEVATION
 40
0.0
  9
$THICKNESS
 40
0.0
  9
$LIMCHECK
 70
     0
  9
$CHAMFERA
 40
10.0
  9
$CHAMFERB
 40
10.0
  9
$CHAMFERC
 40
20.0
  9
$CHAMFERD
 40
0.0
  9
$SKPOLY
 70
     0
  9
$TDCREATE
 40
2455973.464207651
  9
$TDUCREATE
 40
2455973.422540984
  9
$TDUPDATE
 40
2455973.464207662
  9
$TDUUPDATE
 40
2455973.422540995
  9
$TDINDWG
 40
0.0000000116
  9
$TDUSRTIMER
 40
0.0000000116
  9
$USRTIMER
 70
     1
  9
$ANGBASE
 50
0.0
  9
$ANGDIR
 70
     0
  9
$PDMODE
 70
     0
  9
$PDSIZE
 40
-1.0
  9
$PLINEWID
 40
0.0
  9
$SPLFRAME
 70
     0
  9
$SPLINETYPE
 70
     6
  9
$SPLINESEGS
 70
     8
  9
$HANDSEED
  5
2FA
  9
$SURFTAB1
 70
     6
  9
$SURFTAB2
 70
     6
  9
$SURFTYPE
 70
     6
  9
$SURFU
 70
     6
  9
$SURFV
 70
     6
  9
$UCSBASE
  2

  9
$UCSNAME
  2

  9
$UCSORG
 10
0.0
 20
0.0
 30
0.0
  9
$UCSXDIR
 10
1.0
 20
0.0
 30
0.0
  9
$UCSYDIR
 10
0.0
 20
1.0
 30
0.0
  9
$UCSORTHOREF
  2

  9
$UCSORTHOVIEW
 70
     0
  9
$UCSORGTOP
 10
0.0
 20
0.0
 30
0.0
  9
$UCSORGBOTTOM
 10
0.0
 20
0.0
 30
0.0
  9
$UCSORGLEFT
 10
0.0
 20
0.0
 30
0.0
  9
$UCSORGRIGHT
 10
0.0
 20
0.0
 30
0.0
  9
$UCSORGFRONT
 10
0.0
 20
0.0
 30
0.0
  9
$UCSORGBACK
 10
0.0
 20
0.0
 30
0.0
  9
$PUCSBASE
  2

  9
$PUCSNAME
  2

  9
$PUCSORG
 10
0.0
 20
0.0
 30
0.0
  9
$PUCSXDIR
 10
1.0
 20
0.0
 30
0.0
  9
$PUCSYDIR
 10
0.0
 20
1.0
 30
0.0
  9
$PUCSORTHOREF
  2

  9
$PUCSORTHOVIEW
 70
     0
  9
$PUCSORGTOP
 10
0.0
 20
0.0
 30
0.0
  9
$PUCSORGBOTTOM
 10
0.0
 20
0.0
 30
0.0
  9
$PUCSORGLEFT
 10
0.0
 20
0.0
 30
0.0
  9
$PUCSORGRIGHT
 10
0.0
 20
0.0
 30
0.0
  9
$PUCSORGFRONT
 10
0.0
 20
0.0
 30
0.0
  9
$PUCSORGBACK
 10
0.0
 20
0.0
 30
0.0
  9
$USERI1
 70
     0
  9
$USERI2
 70
     0
  9
$USERI3
 70
     0
  9
$USERI4
 70
     0
  9
$USERI5
 70
     0
  9
$USERR1
 40
0.0
  9
$USERR2
 40
0.0
  9
$USERR3
 40
0.0
  9
$USERR4
 40
0.0
  9
$USERR5
 40
0.0
  9
$WORLDVIEW
 70
     1
  9
$SHADEDGE
 70
     3
  9
$SHADEDIF
 70
    70
  9
$TILEMODE
 70
     1
  9
$MAXACTVP
 70
    64
  9
$PINSBASE
 10
0.0
 20
0.0
 30
0.0
  9
$PLIMCHECK
 70
     0
  9
$PEXTMIN
 10
1.0000000000E+20
 20
1.0000000000E+20
 30
1.0000000000E+20
  9
$PEXTMAX
 10
-1.0000000000E+20
 20
-1.0000000000E+20
 30
-1.0000000000E+20
  9
$PLIMMIN
 10
0.0
 20
0.0
  9
$PLIMMAX
 10
420.0
 20
297.0
  9
$UNITMODE
 70
     0
  9
$VISRETAIN
 70
     1
  9
$PLINEGEN
 70
     0
  9
$PSLTSCALE
 70
     1
  9
$TREEDEPTH
 70
  3020
  9
$CMLSTYLE
  2
Standard
  9
$CMLJUST
 70
     0
  9
$CMLSCALE
 40
20.0
  9
$PROXYGRAPHICS
 70
     1
  9
$MEASUREMENT
 70
     1
  9
$CELWEIGHT
370
    -1
  9
$ENDCAPS
280
     0
  9
$JOINSTYLE
280
     0
  9
$LWDISPLAY
290
     1
  9
$INSUNITS
 70
     4
  9
$HYPERLINKBASE
  1

  9
$STYLESHEET
  1

  9
$XEDIT
290
     1
  9
$CEPSNTYPE
380
     0
  9
$PSTYLEMODE
290
     1
  9
$FINGERPRINTGUID
  2
{C136A139-FC9C-4A1C-9F2F-8CB7C83CD45D}
  9
$VERSIONGUID
  2
{FAEB1C32-E019-11D5-929B-00C0DF256EC4}
  9
$EXTNAMES
290
     1
  9
$PSVPSCALE
 40
0.0
  9
$OLESTARTUP
290
     0
  0
ENDSEC
  0
SECTION
  2
CLASSES
  0
CLASS
  1
ACDBDICTIONARYWDFLT
  2
AcDbDictionaryWithDefault
  3
ObjectDBX Classes
 90
        0
280
     0
281
     0
  0
CLASS
  1
VISUALSTYLE
  2
AcDbVisualStyle
  3
ObjectDBX Classes
 90
     4095
280
     0
281
     0
  0
CLASS
  1
MATERIAL
  2
AcDbMaterial
  3
ObjectDBX Classes
 90
     1153
280
     0
281
     0
  0
CLASS
  1
ACDBPLACEHOLDER
  2
AcDbPlaceHolder
  3
ObjectDBX Classes
 90
        0
280
     0
281
     0
  0
CLASS
  1
LAYOUT
  2
AcDbLayout
  3
ObjectDBX Classes
 90
        0
280
     0
281
     0
  0
ENDSEC
  0
SECTION
  2
TABLES
  0
TABLE
  2
VPORT
  5
8
330
0
100
AcDbSymbolTable
 70
     1
  0
VPORT
  5
29
330
8
100
AcDbSymbolTableRecord
100
AcDbViewportTableRecord
  2
*Active
 70
     0
 10
0.0
 20
0.0
 11
1.0
 21
1.0
 12
148.5
 22
105.0
 13
0.0
 23
0.0
 14
10.0
 24
10.0
 15
10.0
 25
10.0
 16
0.0
 26
0.0
 36
1.0
 17
0.0
 27
0.0
 37
0.0
 40
210.0
 41
1.4142857143
 42
50.0
 43
0.0
 44
0.0
 50
0.0
 51
0.0
 71
     0
 72
  2000
 73
     1
 74
     3
 75
     0
 76
     0
 77
     0
 78
     0
281
     0
 65
     1
110
0.0
120
0.0
130
0.0
111
1.0
121
0.0
131
0.0
112
0.0
122
1.0
132
0.0
 79
     0
146
0.0
  0
ENDTAB
  0
TABLE
  2
LTYPE
  5
5
330
0
100
AcDbSymbolTable
 70
     6
  0
LTYPE
  5
14
330
5
100
AcDbSymbolTableRecord
100
AcDbLinetypeTableRecord
  2
ByBlock
 70
     0
  3

 72
    65
 73
     0
 40
0.0
  0
LTYPE
  5
15
330
5
100
AcDbSymbolTableRecord
100
AcDbLinetypeTableRecord
  2
ByLayer
 70
     0
  3

 72
    65
 73
     0
 40
0.0
  0
LTYPE
  5
16
330
5
100
AcDbSymbolTableRecord
100
AcDbLinetypeTableRecord
  2
Continuous
 70
     0
  3
Solid line
 72
    65
 73
     0
 40
0.0
  0
LTYPE
  5
3F
330
5
100
AcDbSymbolTableRecord
100
AcDbLinetypeTableRecord
  2
HIDDEN
 70
     0
  3
Hidden __ __ __ __ __ __ __ __ __ __ __ __ __ __
 72
    65
 73
     2
 40
1.905
 49
1.27
 74
     0
 49
-0.635
 74
     0
  0
LTYPE
  5
40
330
5
100
AcDbSymbolTableRecord
100
AcDbLinetypeTableRecord
  2
PHANTOM
 70
     0
  3
Phantom ______  __  __  ______  __  __  ______
 72
    65
 73
     6
 40
12.7
 49
6.35
 74
     0
 49
-1.27
 74
     0
 49
1.27
 74
     0
 49
-1.27
 74
     0
 49
1.27
 74
     0
 49
-1.27
 74
     0
  0
LTYPE
  5
41
330
5
100
AcDbSymbolTableRecord
100
AcDbLinetypeTableRecord
  2
CENTER
 70
     0
  3
Center ____ _ ____ _ ____ _ ____ _ ____ _ ____
 72
    65
 73
     4
 40
10.16
 49
6.35
 74
     0
 49
-1.27
 74
     0
 49
1.27
 74
     0
 49
-1.27
 74
     0
  0
LTYPE
  5
42
330
5
100
AcDbSymbolTableRecord
100
AcDbLinetypeTableRecord
  2
CENTERX2
 70
     0
  3
Center (2x) ________  __  ________  __  _____
 72
    65
 73
     4
 40
20.32
 49
12.7
 74
     0
 49
-2.54
 74
     0
 49
2.54
 74
     0
 49
-2.54
 74
     0
  0
LTYPE
  5
43
330
5
100
AcDbSymbolTableRecord
100
AcDbLinetypeTableRecord
  2
DOT2
 70
     0
  3
Dot (.5x) ........................................
 72
    65
 73
     2
 40
0.635
 49
0.0
 74
     0
 49
-0.635
 74
     0
  0
ENDTAB
  0
TABLE
  2
LAYER
  5
2
330
0
100
AcDbSymbolTable
 70
     5
  0
LAYER
  5
10
330
2
100
AcDbSymbolTableRecord
100
AcDbLayerTableRecord
  2
0
 70
     0
 62
     7
  6
Continuous
370
    -3
390
F
  0
LAYER
  5
44
330
2
100
AcDbSymbolTableRecord
100
AcDbLayerTableRecord
  2
FORMAT
 70
     0
 62
     7
  6
Continuous
370
    -3
390
F
  0
LAYER
  5
45
330
2
100
AcDbSymbolTableRecord
100
AcDbLayerTableRecord
  2
VERMASSUNG
 70
     0
 62
     7
  6
Continuous
370
    -3
390
F
  0
LAYER
  5
46
330
2
100
AcDbSymbolTableRecord
100
AcDbLayerTableRecord
  2
KOPF_DÜNN
 70
     0
 62
     7
  6
Continuous
370
    -3
390
F
  0
LAYER
  5
47
330
2
100
AcDbSymbolTableRecord
100
AcDbLayerTableRecord
  2
KOPF_DICK
 70
     0
 62
     7
  6
Continuous
370
    15
390
F
  0
ENDTAB
  0
TABLE
  2
STYLE
  5
3
330
0
100
AcDbSymbolTable
 70
     2
  0
STYLE
  5
11
330
3
100
AcDbSymbolTableRecord
100
AcDbTextStyleTableRecord
  2
Standard
 70
     0
 40
0.0
 41
1.0
 50
0.0
 71
     0
 42
2.5
  3
txt
  4

  0
STYLE
  5
48
330
3
100
AcDbSymbolTableRecord
100
AcDbTextStyleTableRecord
  2
SLDTEXTSTYLE0
 70
     0
 40
0.0
 41
0.7
 50
0.0
 71
     0
 42
0.2
  3
TXT
  4

  0
ENDTAB
  0
TABLE
  2
VIEW
  5
6
330
0
100
AcDbSymbolTable
 70
     0
  0
ENDTAB
  0
TABLE
  2
UCS
  5
7
330
0
100
AcDbSymbolTable
 70
     0
  0
ENDTAB
  0
TABLE
  2
APPID
  5
9
330
0
100
AcDbSymbolTable
 70
     1
  0
APPID
  5
12
330
9
100
AcDbSymbolTableRecord
100
AcDbRegAppTableRecord
  2
ACAD
 70
     0
  0
ENDTAB
  0
TABLE
  2
DIMSTYLE
  5
A
330
0
100
AcDbSymbolTable
 70
     2
100
AcDbDimStyleTable
  0
DIMSTYLE
105
27
330
A
100
AcDbSymbolTableRecord
100
AcDbDimStyleTableRecord
  2
ISO-25
 70
     0
 41
2.5
 42
0.625
 43
3.75
 44
1.25
 73
     0
 74
     0
 77
     1
 78
     8
140
2.5
141
2.5
143
0.0393700787
147
0.625
171
     3
172
     1
178
     0
271
     2
272
     2
274
     3
278
    44
283
     0
284
     8
340
11
  0
DIMSTYLE
105
2C1
102
{ACAD_REACTORS
330
2C0
330
2CC
330
2D7
330
2E2
330
2EE
102
}
330
A
100
AcDbSymbolTableRecord
100
AcDbDimStyleTableRecord
  2
SLDDIMSTYLE0
 70
     0
 41
3.0
 44
0.0
 45
0.000000001
 73
     0
 74
     0
 77
     1
 78
    12
 79
     3
140
2.0
147
0.5
173
     1
178
     0
271
     2
272
     3
276
     2
284
    12
340
48
  0
ENDTAB
  0
TABLE
  2
BLOCK_RECORD
  5
1
330
0
100
AcDbSymbolTable
 70
     6
  0
BLOCK_RECORD
  5
1F
330
1
100
AcDbSymbolTableRecord
100
AcDbBlockTableRecord
  2
*Model_Space
340
22
  0
BLOCK_RECORD
  5
1B
330
1
100
AcDbSymbolTableRecord
100
AcDbBlockTableRecord
  2
*Paper_Space
340
1E
  0
BLOCK_RECORD
  5
23
330
1
100
AcDbSymbolTableRecord
100
AcDbBlockTableRecord
  2
*Paper_Space0
340
26
  0
BLOCK_RECORD
  5
2C2
330
1
100
AcDbSymbolTableRecord
100
AcDbBlockTableRecord
  2
*D1
340
0
  0
BLOCK_RECORD
  5
2CD
330
1
100
AcDbSymbolTableRecord
100
AcDbBlockTableRecord
  2
*D2
340
0
  0
BLOCK_RECORD
  5
2D8
330
1
100
AcDbSymbolTableRecord
100
AcDbBlockTableRecord
  2
*D3
340
0
  0
BLOCK_RECORD
  5
2E3
330
1
100
AcDbSymbolTableRecord
100
AcDbBlockTableRecord
  2
*D4
340
0
  0
BLOCK_RECORD
  5
2EF
330
1
100
AcDbSymbolTableRecord
100
AcDbBlockTableRecord
  2
*D5
340
0
  0
ENDTAB
  0
ENDSEC
  0
SECTION
  2
BLOCKS
  0
BLOCK
  5
20
330
1F
100
AcDbEntity
  8
0
100
AcDbBlockBegin
  2
*Model_Space
 70
     0
 10
0.0
 20
0.0
 30
0.0
  3
*Model_Space
  1

  0
ENDBLK
  5
21
330
1F
100
AcDbEntity
  8
0
100
AcDbBlockEnd
  0
BLOCK
  5
1C
330
1B
100
AcDbEntity
 67
     1
  8
0
100
AcDbBlockBegin
  2
*Paper_Space
 70
     0
 10
0.0
 20
0.0
 30
0.0
  3
*Paper_Space
  1

  0
ENDBLK
  5
1D
330
1B
100
AcDbEntity
 67
     1
  8
0
100
AcDbBlockEnd
  0
BLOCK
  5
24
330
23
100
AcDbEntity
  8
0
100
AcDbBlockBegin
  2
*Paper_Space0
 70
     0
 10
0.0
 20
0.0
 30
0.0
  3
*Paper_Space0
  1

  0
ENDBLK
  5
25
330
23
100
AcDbEntity
  8
0
100
AcDbBlockEnd
  0
BLOCK
  5
2C3
330
2C2
100
AcDbEntity
  8
0
100
AcDbBlockBegin
  2
*D1
 70
     1
 10
0.0
 20
0.0
 30
0.0
  3
*D1
  1

  0
SOLID
  5
2C5
330
2C2
100
AcDbEntity
  8
VERMASSUNG
100
AcDbTrace
 10
84.4221477468
 20
139.3883027523
 30
0.0
 11
83.9721477468
 21
136.3883027523
 31
0.0
 12
84.8721477468
 22
136.3883027523
 32
0.0
 13
84.8721477468
 23
136.3883027523
 33
0.0
  0
SOLID
  5
2C6
330
2C2
100
AcDbEntity
  8
VERMASSUNG
100
AcDbTrace
 10
84.4221477468
 20
111.3883027523
 30
0.0
 11
84.8721477468
 21
114.3883027523
 31
0.0
 12
83.9721477468
 22
114.3883027523
 32
0.0
 13
83.9721477468
 23
114.3883027523
 33
0.0
  0
LINE
  5
2C7
330
2C2
100
AcDbEntity
  8
VERMASSUNG
100
AcDbLine
 10
112.0500122609
 20
139.3883027523
 30
0.0
 11
83.4221477468
 21
139.3883027523
 31
0.0
  0
LINE
  5
2C8
330
2C2
100
AcDbEntity
  8
VERMASSUNG
100
AcDbLine
 10
97.8000122609
 20
111.3883027523
 30
0.0
 11
83.4221477468
 21
111.3883027523
 31
0.0
  0
LINE
  5
2C9
330
2C2
100
AcDbEntity
  8
VERMASSUNG
100
AcDbLine
 10
84.4221477468
 20
139.3883027523
 30
0.0
 11
84.4221477468
 21
111.3883027523
 31
0.0
  0
MTEXT
  5
2CA
330
2C2
100
AcDbEntity
  8
VERMASSUNG
100
AcDbMText
 10
81.8440122672
 20
122.1849181753
 30
0.0
 40
2.0
 41
0.0
 71
     1
 72
     1
  1
%%c
  7
SLDTEXTSTYLE0
 11
-7.044195017643634E-15
 21
1.0
 31
0.0
 73
     1
 44
1.0
  0
MTEXT
  5
2CB
330
2C2
100
AcDbEntity
  8
VERMASSUNG
100
AcDbMText
 10
81.8440123836
 20
125.793173634
 30
0.0
 40
2.0
 41
0.0
 71
     1
 72
     1
  1
28
  7
SLDTEXTSTYLE0
 11
-7.044195017643634E-15
 21
1.0
 31
0.0
 73
     1
 44
1.0
  0
ENDBLK
  5
2C4
330
2C2
100
AcDbEntity
  8
0
100
AcDbBlockEnd
  0
BLOCK
  5
2CE
330
2CD
100
AcDbEntity
  8
0
100
AcDbBlockBegin
  2
*D2
 70
     1
 10
0.0
 20
0.0
 30
0.0
  3
*D2
  1

  0
SOLID
  5
2D0
330
2CD
100
AcDbEntity
  8
VERMASSUNG
100
AcDbTrace
 10
78.0483116056
 20
150.3883027523
 30
0.0
 11
77.5983116056
 21
147.3883027523
 31
0.0
 12
78.4983116056
 22
147.3883027523
 32
0.0
 13
78.4983116056
 23
147.3883027523
 33
0.0
  0
SOLID
  5
2D1
330
2CD
100
AcDbEntity
  8
VERMASSUNG
100
AcDbTrace
 10
78.0483116056
 20
100.3883027523
 30
0.0
 11
78.4983116056
 21
103.3883027523
 31
0.0
 12
77.5983116056
 22
103.3883027523
 32
0.0
 13
77.5983116056
 23
103.3883027523
 33
0.0
  0
LINE
  5
2D2
330
2CD
100
AcDbEntity
  8
VERMASSUNG
100
AcDbLine
 10
119.3000122609
 20
150.3883027523
 30
0.0
 11
77.0483116056
 21
150.3883027523
 31
0.0
  0
LINE
  5
2D3
330
2CD
100
AcDbEntity
  8
VERMASSUNG
100
AcDbLine
 10
119.3000122609
 20
100.3883027523
 30
0.0
 11
77.0483116056
 21
100.3883027523
 31
0.0
  0
LINE
  5
2D4
330
2CD
100
AcDbEntity
  8
VERMASSUNG
100
AcDbLine
 10
78.0483116056
 20
150.3883027523
 30
0.0
 11
78.0483116056
 21
100.3883027523
 31
0.0
  0
MTEXT
  5
2D5
330
2CD
100
AcDbEntity
  8
VERMASSUNG
100
AcDbMText
 10
75.4701761261
 20
122.1849181753
 30
0.0
 40
2.0
 41
0.0
 71
     1
 72
     1
  1
%%c
  7
SLDTEXTSTYLE0
 11
-7.044195017643634E-15
 21
1.0
 31
0.0
 73
     1
 44
1.0
  0
MTEXT
  5
2D6
330
2CD
100
AcDbEntity
  8
VERMASSUNG
100
AcDbMText
 10
75.4701762425
 20
125.793173634
 30
0.0
 40
2.0
 41
0.0
 71
     1
 72
     1
  1
50
  7
SLDTEXTSTYLE0
 11
-7.044195017643634E-15
 21
1.0
 31
0.0
 73
     1
 44
1.0
  0
ENDBLK
  5
2CF
330
2CD
100
AcDbEntity
  8
0
100
AcDbBlockEnd
  0
BLOCK
  5
2D9
330
2D8
100
AcDbEntity
  8
0
100
AcDbBlockBegin
  2
*D3
 70
     1
 10
0.0
 20
0.0
 30
0.0
  3
*D3
  1

  0
SOLID
  5
2DB
330
2D8
100
AcDbEntity
  8
VERMASSUNG
100
AcDbTrace
 10
71.4763989239
 20
152.8883027523
 30
0.0
 11
71.0263989239
 21
149.8883027523
 31
0.0
 12
71.9263989239
 22
149.8883027523
 32
0.0
 13
71.9263989239
 23
149.8883027523
 33
0.0
  0
SOLID
  5
2DC
330
2D8
100
AcDbEntity
  8
VERMASSUNG
100
AcDbTrace
 10
71.4763989239
 20
97.8883027523
 30
0.0
 11
71.9263989239
 21
100.8883027523
 31
0.0
 12
71.0263989239
 22
100.8883027523
 32
0.0
 13
71.0263989239
 23
100.8883027523
 33
0.0
  0
LINE
  5
2DD
330
2D8
100
AcDbEntity
  8
VERMASSUNG
100
AcDbLine
 10
125.8207382031
 20
152.8883027523
 30
0.0
 11
70.4763989239
 21
152.8883027523
 31
0.0
  0
LINE
  5
2DE
330
2D8
100
AcDbEntity
  8
VERMASSUNG
100
AcDbLine
 10
125.8207382031
 20
97.8883027523
 30
0.0
 11
70.4763989239
 21
97.8883027523
 31
0.0
  0
LINE
  5
2DF
330
2D8
100
AcDbEntity
  8
VERMASSUNG
100
AcDbLine
 10
71.4763989239
 20
152.8883027523
 30
0.0
 11
71.4763989239
 21
97.8883027523
 31
0.0
  0
MTEXT
  5
2E0
330
2D8
100
AcDbEntity
  8
VERMASSUNG
100
AcDbMText
 10
68.8982634444
 20
122.1849181753
 30
0.0
 40
2.0
 41
0.0
 71
     1
 72
     1
  1
%%c
  7
SLDTEXTSTYLE0
 11
-7.044195017643634E-15
 21
1.0
 31
0.0
 73
     1
 44
1.0
  0
MTEXT
  5
2E1
330
2D8
100
AcDbEntity
  8
VERMASSUNG
100
AcDbMText
 10
68.8982635608
 20
125.793173634
 30
0.0
 40
2.0
 41
0.0
 71
     1
 72
     1
  1
55
  7
SLDTEXTSTYLE0
 11
-7.044195017643634E-15
 21
1.0
 31
0.0
 73
     1
 44
1.0
  0
ENDBLK
  5
2DA
330
2D8
100
AcDbEntity
  8
0
100
AcDbBlockEnd
  0
BLOCK
  5
2E4
330
2E3
100
AcDbEntity
  8
0
100
AcDbBlockBegin
  2
*D4
 70
     1
 10
0.0
 20
0.0
 30
0.0
  3
*D4
  1

  0
SOLID
  5
2E6
330
2E3
100
AcDbEntity
  8
VERMASSUNG
100
AcDbTrace
 10
219.6481120485
 20
158.1383027523
 30
0.0
 11
219.1981120485
 21
155.1383027523
 31
0.0
 12
220.0981120485
 22
155.1383027523
 32
0.0
 13
220.0981120485
 23
155.1383027523
 33
0.0
  0
SOLID
  5
2E7
330
2E3
100
AcDbEntity
  8
VERMASSUNG
100
AcDbTrace
 10
219.6481120485
 20
92.6383027523
 30
0.0
 11
220.0981120485
 21
95.6383027523
 31
0.0
 12
219.1981120485
 22
95.6383027523
 32
0.0
 13
219.1981120485
 23
95.6383027523
 33
0.0
  0
LINE
  5
2E8
330
2E3
100
AcDbEntity
  8
VERMASSUNG
100
AcDbLine
 10
208.8000122609
 20
158.1383027523
 30
0.0
 11
220.6481120485
 21
158.1383027523
 31
0.0
  0
LINE
  5
2E9
330
2E3
100
AcDbEntity
  8
VERMASSUNG
100
AcDbLine
 10
208.8000122609
 20
92.6383027523
 30
0.0
 11
220.6481120485
 21
92.6383027523
 31
0.0
  0
LINE
  5
2EA
330
2E3
100
AcDbEntity
  8
VERMASSUNG
100
AcDbLine
 10
219.6481120485
 20
158.1383027523
 30
0.0
 11
219.6481120485
 21
92.6383027523
 31
0.0
  0
MTEXT
  5
2EB
330
2E3
100
AcDbEntity
  8
VERMASSUNG
100
AcDbMText
 10
217.0699765689
 20
118.0852398649
 30
0.0
 40
2.0
 41
0.0
 71
     1
 72
     1
  1
%%c
  7
SLDTEXTSTYLE0
 11
-7.044195017643634E-15
 21
1.0
 31
0.0
 73
     1
 44
1.0
  0
MTEXT
  5
2EC
330
2E3
100
AcDbEntity
  8
VERMASSUNG
100
AcDbMText
 10
217.0699766853
 20
121.6934953236
 30
0.0
 40
2.0
 41
0.0
 71
     1
 72
     1
  1
65.5
  7
SLDTEXTSTYLE0
 11
-7.044195017643634E-15
 21
1.0
 31
0.0
 73
     1
 44
1.0
  0
MTEXT
  5
2ED
330
2E3
100
AcDbEntity
  8
VERMASSUNG
100
AcDbMText
 10
217.0699766853
 20
126.4923212135
 30
0.0
 40
2.0
 41
0.0
 71
     1
 72
     1
  1
-87.5
  7
SLDTEXTSTYLE0
 11
-7.044195017643634E-15
 21
1.0
 31
0.0
 73
     1
 44
1.0
  0
ENDBLK
  5
2E5
330
2E3
100
AcDbEntity
  8
0
100
AcDbBlockEnd
  0
BLOCK
  5
2F0
330
2EF
100
AcDbEntity
  8
0
100
AcDbBlockBegin
  2
*D5
 70
     1
 10
0.0
 20
0.0
 30
0.0
  3
*D5
  1

  0
SOLID
  5
2F2
330
2EF
100
AcDbEntity
  8
VERMASSUNG
100
AcDbTrace
 10
118.8000122609
 20
164.4082870282
 30
0.0
 11
121.8000122609
 21
163.9582870282
 31
0.0
 12
121.8000122609
 22
164.8582870282
 32
0.0
 13
121.8000122609
 23
164.8582870282
 33
0.0
  0
SOLID
  5
2F3
330
2EF
100
AcDbEntity
  8
VERMASSUNG
100
AcDbTrace
 10
208.8000122609
 20
164.4082870282
 30
0.0
 11
205.8000122609
 21
164.8582870282
 31
0.0
 12
205.8000122609
 22
163.9582870282
 32
0.0
 13
205.8000122609
 23
163.9582870282
 33
0.0
  0
LINE
  5
2F4
330
2EF
100
AcDbEntity
  8
VERMASSUNG
100
AcDbLine
 10
118.8000122609
 20
149.8883027523
 30
0.0
 11
118.8000122609
 21
165.4082870282
 31
0.0
  0
LINE
  5
2F5
330
2EF
100
AcDbEntity
  8
VERMASSUNG
100
AcDbLine
 10
208.8000122609
 20
158.1383027523
 30
0.0
 11
208.8000122609
 21
165.4082870282
 31
0.0
  0
LINE
  5
2F6
330
2EF
100
AcDbEntity
  8
VERMASSUNG
100
AcDbLine
 10
118.8000122609
 20
164.4082870282
 30
0.0
 11
208.8000122609
 21
164.4082870282
 31
0.0
  0
MTEXT
  5
2F7
330
2EF
100
AcDbEntity
  8
VERMASSUNG
100
AcDbMText
 10
162.4007554133
 20
166.9864223914
 30
0.0
 40
2.0
 41
0.0
 71
     1
 72
     1
  1
90
  7
SLDTEXTSTYLE0
 73
     1
 44
1.0
  0
ENDBLK
  5
2F1
330
2EF
100
AcDbEntity
  8
0
100
AcDbBlockEnd
  0
ENDSEC
  0
SECTION
  2
ENTITIES
  0
MTEXT
  5
49
330
1F
100
AcDbEntity
  8
KOPF_DÜNN
100
AcDbMText
 10
13.8892156294
 20
23.8442973028
 30
0.0
 40
3.0
 41
0.0
 71
     1
 72
     1
  1
D04.050.067.090
  7
SLDTEXTSTYLE0
 73
     1
 44
1.0
  0
MTEXT
  5
4A
330
1F
100
AcDbEntity
  8
VERMASSUNG
100
AcDbMText
 10
13.9329988022
 20
28.8834360957
 30
0.0
 40
3.0
 41
0.0
 71
     1
 72
     1
  1
Zweischneiderkopf_Twin cutter head
  7
SLDTEXTSTYLE0
 73
     1
 44
1.0
  0
MTEXT
  5
4B
330
1F
100
AcDbEntity
  8
VERMASSUNG
100
AcDbMText
 10
98.8601118557
 20
13.8365368179
 30
0.0
 40
2.0
 41
0.0
 71
     1
 72
     1
  1
Datum: 27.02.2008
  7
SLDTEXTSTYLE0
 73
     1
 44
1.0
  0
MTEXT
  5
4C
330
1F
100
AcDbEntity
  8
VERMASSUNG
100
AcDbMText
 10
13.933048693
 20
18.0482802738
 30
0.0
 40
2.0
 41
0.0
 71
     1
 72
     1
  1
Wohlhaupter ø50
  7
SLDTEXTSTYLE0
 73
     1
 44
1.0
  0
MTEXT
  5
4D
330
1F
100
AcDbEntity
  8
VERMASSUNG
100
AcDbMText
 10
13.9808475933
 20
13.9090973692
 30
0.0
 40
2.0
 41
0.0
 71
     1
 72
     1
  1
Gewicht: 1305g
  7
SLDTEXTSTYLE0
 73
     1
 44
1.0
  0
LINE
  5
4E
330
1F
100
AcDbEntity
  8
0
  6
PHANTOM
 62
     7
370
     0
100
AcDbLine
 10
208.870207757
 20
105.314114043
 30
0.0
 11
208.2901130023
 21
105.8898893236
 31
0.0
  0
LINE
  5
4F
330
1F
100
AcDbEntity
  8
0
  6
PHANTOM
 62
     7
370
     0
100
AcDbLine
 10
195.7682798209
 20
95.4101243108
 30
0.0
 11
196.3483820262
 21
94.8343508928
 31
0.0
  0
LINE
  5
50
330
1F
100
AcDbEntity
  8
0
  6
PHANTOM
 62
     7
370
     0
100
AcDbLine
 10
196.3483820262
 20
155.9422546118
 30
0.0
 11
195.7682798209
 21
155.3664811938
 31
0.0
  0
LINE
  5
51
330
1F
100
AcDbEntity
  8
0
  6
PHANTOM
 62
     7
370
     0
100
AcDbLine
 10
208.2901130023
 20
144.886716181
 30
0.0
 11
208.870207757
 21
145.4624914616
 31
0.0
  0
LINE
  5
52
330
1F
100
AcDbEntity
  8
0
  6
PHANTOM
 62
     7
370
     0
100
AcDbLine
 10
207.5282091799
 20
105.4135066508
 30
0.0
 11
207.1772272291
 21
105.7618753105
 31
0.0
  0
LINE
  5
53
330
1F
100
AcDbEntity
  8
0
  6
PHANTOM
 62
     7
370
     0
100
AcDbLine
 10
196.1012164655
 20
96.3295147806
 30
0.0
 11
196.4521984163
 21
95.9811461209
 31
0.0
  0
LINE
  5
54
330
1F
100
AcDbEntity
  8
0
  6
PHANTOM
 62
     7
370
     0
100
AcDbLine
 10
203.4217173758
 20
148.2617379218
 30
0.0
 11
203.7125954929
 21
148.4666493773
 31
0.0
  0
LINE
  5
55
330
1F
100
AcDbEntity
  8
0
  6
PHANTOM
 62
     7
370
     0
100
AcDbLine
 10
201.1041695776
 20
152.1335979044
 30
0.0
 11
200.1531625691
 21
151.4636603235
 31
0.0
  0
LINE
  5
56
330
1F
100
AcDbEntity
  8
0
  6
PHANTOM
 62
     7
370
     0
100
AcDbLine
 10
194.6482712927
 20
111.6111659496
 30
0.0
 11
194.8679963651
 21
111.3930781423
 31
0.0
  0
LINE
  5
57
330
1F
100
AcDbEntity
  8
0
  6
PHANTOM
 62
     7
370
     0
100
AcDbLine
 10
200.4332000914
 20
117.0000796258
 30
0.0
 11
200.213475019
 21
117.2181674331
 31
0.0
  0
LINE
  5
58
330
1F
100
AcDbEntity
  8
0
  6
PHANTOM
 62
     7
370
     0
100
AcDbLine
 10
174.5926494303
 20
153.3883036166
 30
0.0
 11
171.8000116351
 21
153.3883036166
 31
0.0
  0
LINE
  5
59
330
1F
100
AcDbEntity
  8
0
  6
PHANTOM
 62
     7
370
     0
100
AcDbLine
 10
189.7857988777
 20
153.3883036166
 30
0.0
 11
181.0391078296
 21
153.3883036166
 31
0.0
  0
ARC
  5
5A
330
1F
100
AcDbEntity
  8
0
  6
PHANTOM
 62
     7
370
     0
100
AcDbCircle
 10
173.8528593882
 20
109.8849586886
 30
0.0
 40
1.0
100
AcDbArc
 50
348.5241120903
 51
360.0
  0
LINE
  5
5B
330
1F
100
AcDbEntity
  8
0
  6
PHANTOM
 62
     7
370
     0
100
AcDbLine
 10
174.8528609577
 20
109.8849586262
 30
0.0
 11
174.8528609577
 21
124.8883027285
 31
0.0
  0
SPLINE
  5
5C
330
1F
100
AcDbEntity
  8
0
  6
PHANTOM
 62
     7
370
     0
100
AcDbSpline
210
0.0
220
0.0
230
1.0
 70
     8
 71
     3
 72
    14
 73
    10
 74
     0
 42
0.00000001
 43
0.00000001
 40
0.0
 40
0.0
 40
0.0
 40
0.0
 40
0.0733295416784486
 40
0.224592953229932
 40
0.377529415102348
 40
0.5333856463599655
 40
0.6935433129994303
 40
0.8592762167856884
 40
1.0
 40
1.0
 40
1.0
 40
1.0
 10
174.8528609576524
 20
124.8883027285448
 30
0.0
 10
174.8552057506947
 20
124.9845248409375
 30
0.0
 10
174.8623873582983
 20
125.2792329202961
 30
0.0
 10
174.9464020318296
 20
125.7670052127345
 30
0.0
 10
175.1368305487594
 20
126.3174359004148
 30
0.0
 10
175.4131382370458
 20
126.8108906344844
 30
0.0
 10
175.7623357563645
 20
127.2256542071335
 30
0.0
 10
176.1432220258505
 20
127.5406740538467
 30
0.0
 10
176.4131998920824
 20
127.6615392876536
 30
0.0
 10
176.5371727350057
 20
127.7170401583537
 30
0.0
  0
SPLINE
  5
5D
330
1F
100
AcDbEntity
  8
0
  6
PHANTOM
 62
     7
370
     0
100
AcDbSpline
210
0.0
220
0.0
230
1.0
 70
     8
 71
     3
 72
    17
 73
    13
 74
     0
 42
0.00000001
 43
0.00000001
 40
0.0
 40
0.0
 40
0.0
 40
0.0
 40
0.0457110742650227
 40
0.1546332382117293
 40
0.2649517763674097
 40
0.3752811038680681
 40
0.4845798223726316
 40
0.5927278265372182
 40
0.6998174839370627
 40
0.8059811187622961
 40
0.9113404927699958
 40
1.0
 40
1.0
 40
1.0
 40
1.0
 10
170.7209701242746
 20
99.57068684092901
 30
0.0
 10
170.8026306207077
 20
99.65330391857559
 30
0.0
 10
171.0788749925685
 20
99.93278425137225
 30
0.0
 10
171.5216858436925
 20
100.499738873347
 30
0.0
 10
172.043178850383
 20
101.3132921054225
 30
0.0
 10
172.5362058046673
 20
102.2480700669585
 30
0.0
 10
173.00052086165
 20
103.2912759821508
 30
0.0
 10
173.4353618919266
 20
104.4354204473806
 30
0.0
 10
173.8413321549118
 20
105.6738323279878
 30
0.0
 10
174.2178290794361
 20
107.0029500228624
 30
0.0
 10
174.5493559426316
 20
108.3389848157024
 30
0.0
 10
174.7439465565439
 20
109.2635229750892
 30
0.0
 10
174.8328673246206
 20
109.6860029786005
 30
0.0
  0
ARC
  5
5E
330
1F
100
AcDbEntity
  8
0
  6
PHANTOM
 62
     7
370
     0
100
AcDbCircle
 10
189.7857986986
 20
154.3883027523
 30
0.0
 40
1.0
100
AcDbArc
 50
270.0
 51
315.0
  0
LINE
  5
5F
330
1F
100
AcDbEntity
  8
0
  6
PHANTOM
 62
     7
370
     0
100
AcDbLine
 10
196.0032040778
 20
155.0093208491
 30
0.0
 11
190.6895915571
 21
153.8798780232
 31
0.0
  0
LINE
  5
60
330
1F
100
AcDbEntity
  8
0
  6
PHANTOM
 62
     7
370
     0
100
AcDbLine
 10
190.6864399615
 20
153.8747315346
 30
0.0
 11
190.4929036799
 21
153.6811952531
 31
0.0
  0
LINE
  5
61
330
1F
100
AcDbEntity
  8
0
  6
PHANTOM
 62
     7
370
     0
100
AcDbLine
 10
181.0391078296
 20
97.388301888
 30
0.0
 11
189.7857988777
 21
97.388301888
 31
0.0
  0
LINE
  5
62
330
1F
100
AcDbEntity
  8
0
  6
PHANTOM
 62
     7
370
     0
100
AcDbLine
 10
171.8000116351
 20
97.388301888
 30
0.0
 11
174.5926494303
 21
97.388301888
 31
0.0
  0
ARC
  5
63
330
1F
100
AcDbEntity
  8
0
  6
PHANTOM
 62
     7
370
     0
100
AcDbCircle
 10
189.7857986986
 20
96.3883027523
 30
0.0
 40
1.0
100
AcDbArc
 50
45.0
 51
90.0
  0
LINE
  5
64
330
1F
100
AcDbEntity
  8
0
  6
PHANTOM
 62
     7
370
     0
100
AcDbLine
 10
190.6895915571
 20
96.8967274814
 30
0.0
 11
195.6552917662
 21
95.8412353932
 31
0.0
  0
LINE
  5
65
330
1F
100
AcDbEntity
  8
0
  6
PHANTOM
 62
     7
370
     0
100
AcDbLine
 10
190.4929036799
 20
97.0954102515
 30
0.0
 11
190.6864399615
 21
96.9018739699
 31
0.0
  0
LINE
  5
66
330
1F
100
AcDbEntity
  8
0
  6
Continuous
 62
     7
370
    15
100
AcDbLine
 10
171.4000123146
 20
152.8883026033
 30
0.0
 11
125.8207381296
 21
152.8883026033
 31
0.0
  0
LINE
  5
67
330
1F
100
AcDbEntity
  8
0
  6
Continuous
 62
     7
370
    15
100
AcDbLine
 10
125.8207381296
 20
97.8883029013
 30
0.0
 11
171.4000123146
 21
97.8883029013
 31
0.0
  0
ARC
  5
68
330
1F
100
AcDbEntity
  8
0
  6
Continuous
 62
     7
370
    15
100
AcDbCircle
 10
125.8207382031
 20
151.8883027523
 30
0.0
 40
1.0
100
AcDbArc
 50
90.0
 51
150.0
  0
ARC
  5
69
330
1F
100
AcDbEntity
  8
0
  6
Continuous
 62
     7
370
    15
100
AcDbCircle
 10
125.8207382031
 20
98.8883027523
 30
0.0
 40
1.0
100
AcDbArc
 50
210.0
 51
270.0
  0
LINE
  5
6A
330
1F
100
AcDbEntity
  8
0
  6
Continuous
 62
     7
370
    15
100
AcDbLine
 10
124.954712909
 20
152.3883034526
 30
0.0
 11
124.0886872227
 21
150.8883022755
 31
0.0
  0
LINE
  5
6B
330
1F
100
AcDbEntity
  8
0
  6
Continuous
 62
     7
370
    15
100
AcDbLine
 10
124.0886872227
 20
99.8883032291
 30
0.0
 11
124.954712909
 21
98.3883020519
 31
0.0
  0
ARC
  5
6C
330
1F
100
AcDbEntity
  8
0
  6
Continuous
 62
     7
370
    15
100
AcDbCircle
 10
123.2226619918
 20
151.3883027523
 30
0.0
 40
1.0
100
AcDbArc
 50
270.0
 51
330.0
  0
ARC
  5
6D
330
1F
100
AcDbEntity
  8
0
  6
Continuous
 62
     7
370
    15
100
AcDbCircle
 10
123.2226619918
 20
99.3883027523
 30
0.0
 40
1.0
100
AcDbArc
 50
30.0
 51
90.0
  0
ARC
  5
6E
330
1F
100
AcDbEntity
  8
0
  6
Continuous
 62
     7
370
    15
100
AcDbCircle
 10
119.3000122609
 20
100.8883027523
 30
0.0
 40
0.5
100
AcDbArc
 50
180.0
 51
270.0
  0
ARC
  5
6F
330
1F
100
AcDbEntity
  8
0
  6
Continuous
 62
     7
370
    15
100
AcDbCircle
 10
119.3000122609
 20
149.8883027523
 30
0.0
 40
0.5
100
AcDbArc
 50
90.0
 51
180.0
  0
LINE
  5
70
330
1F
100
AcDbEntity
  8
0
  6
Continuous
 62
     7
370
    15
100
AcDbLine
 10
119.3000122847
 20
100.3883023798
 30
0.0
 11
123.2226620021
 21
100.3883023798
 31
0.0
  0
LINE
  5
71
330
1F
100
AcDbEntity
  8
0
  6
Continuous
 62
     7
370
    15
100
AcDbLine
 10
123.2226620021
 20
150.3883031248
 30
0.0
 11
119.3000122847
 21
150.3883031248
 31
0.0
  0
ARC
  5
72
330
1F
100
AcDbEntity
  8
0
  6
Continuous
 62
     7
370
    15
100
AcDbCircle
 10
118.4000122609
 20
111.1383027523
 30
0.0
 40
0.6000000000000085
100
AcDbArc
 50
48.1896851042
 51
90.0
  0
ARC
  5
73
330
1F
100
AcDbEntity
  8
0
  6
Continuous
 62
     7
370
    15
100
AcDbCircle
 10
118.4000122609
 20
139.6383027523
 30
0.0
 40
0.6000000000000227
100
AcDbArc
 50
270.0
 51
311.8103148958
  0
LINE
  5
74
330
1F
100
AcDbEntity
  8
0
  6
Continuous
 62
     7
370
    15
100
AcDbLine
 10
97.8000125441
 20
111.3883023202
 30
0.0
 11
116.3000123168
 21
111.3883023202
 31
0.0
  0
LINE
  5
75
330
1F
100
AcDbEntity
  8
0
  6
Continuous
 62
     7
370
    15
100
AcDbLine
 10
98.0648490193
 20
139.3883031844
 30
0.0
 11
97.8000125441
 21
139.3883031844
 31
0.0
  0
LINE
  5
76
330
1F
100
AcDbEntity
  8
0
  6
Continuous
 62
     7
370
    15
100
AcDbLine
 10
116.3000123168
 20
139.3883031844
 30
0.0
 11
112.0324017073
 21
139.3883031844
 31
0.0
  0
LINE
  5
77
330
1F
100
AcDbEntity
  8
0
  6
Continuous
 62
     7
370
    15
100
AcDbLine
 10
97.8000125441
 20
139.3883031844
 30
0.0
 11
93.4755595925
 21
138.8934887066
 31
0.0
  0
LINE
  5
78
330
1F
100
AcDbEntity
  8
0
  6
Continuous
 62
     7
370
    15
100
AcDbLine
 10
93.4755595925
 20
111.883116798
 30
0.0
 11
97.8000125441
 21
111.3883023202
 31
0.0
  0
LINE
  5
79
330
1F
100
AcDbEntity
  8
0
  6
Continuous
 62
     7
370
    15
100
AcDbLine
 10
116.3000123168
 20
111.3883023202
 30
0.0
 11
117.5299300638
 21
111.7178582638
 31
0.0
  0
LINE
  5
7A
330
1F
100
AcDbEntity
  8
0
  6
Continuous
 62
     7
370
    15
100
AcDbLine
 10
117.5299300638
 20
139.0587472408
 30
0.0
 11
116.3000123168
 21
139.3883031844
 31
0.0
  0
ARC
  5
7B
330
1F
100
AcDbEntity
  8
0
  6
Continuous
 62
     7
370
    15
100
AcDbCircle
 10
92.0000122609
 20
112.5983027523
 30
0.0
 40
1.200000000000017
100
AcDbArc
 50
180.0
 51
300.0
  0
ARC
  5
7C
330
1F
100
AcDbEntity
  8
0
  6
Continuous
 62
     7
370
    15
100
AcDbCircle
 10
92.0000122609
 20
138.1783027523
 30
0.0
 40
1.200000000000003
100
AcDbArc
 50
60.0
 51
180.0
  0
LINE
  5
7D
330
1F
100
AcDbEntity
  8
0
  6
Continuous
 62
     7
370
    15
100
AcDbLine
 10
92.6000120642
 20
111.5590724214
 30
0.0
 11
92.98461476
 21
111.7811230063
 31
0.0
  0
LINE
  5
7E
330
1F
100
AcDbEntity
  8
0
  6
Continuous
 62
     7
370
    15
100
AcDbLine
 10
92.98461476
 20
138.9954824983
 30
0.0
 11
92.6000120642
 21
139.2175330832
 31
0.0
  0
ARC
  5
7F
330
1F
100
AcDbEntity
  8
0
  6
Continuous
 62
     7
370
    15
100
AcDbCircle
 10
117.6852215421
 20
111.1383027523
 30
0.0
 40
0.6000000000000085
100
AcDbArc
 50
90.0
 51
105.0
  0
ARC
  5
80
330
1F
100
AcDbEntity
  8
0
  6
Continuous
 62
     7
370
    15
100
AcDbCircle
 10
117.6852215421
 20
139.6383027523
 30
0.0
 40
0.6000000000000227
100
AcDbArc
 50
255.0
 51
270.0
  0
LINE
  5
81
330
1F
100
AcDbEntity
  8
0
  6
Continuous
 62
     7
370
    15
100
AcDbLine
 10
117.6852215839
 20
111.7383026569
 30
0.0
 11
118.400012271
 21
111.7383026569
 31
0.0
  0
LINE
  5
82
330
1F
100
AcDbEntity
  8
0
  6
Continuous
 62
     7
370
    15
100
AcDbLine
 10
118.400012271
 20
139.0383028477
 30
0.0
 11
117.6852215839
 21
139.0383028477
 31
0.0
  0
ARC
  5
83
330
1F
100
AcDbEntity
  8
0
  6
Continuous
 62
     7
370
    15
100
AcDbCircle
 10
93.3846155415
 20
111.0883027523
 30
0.0
 40
0.8000000000000064
100
AcDbArc
 50
83.4724720784
 51
120.0
  0
ARC
  5
84
330
1F
100
AcDbEntity
  8
0
  6
Continuous
 62
     7
370
    15
100
AcDbCircle
 10
93.3846155415
 20
139.6883027523
 30
0.0
 40
0.7999999999999925
100
AcDbArc
 50
240.0
 51
276.5275279216
  0
LINE
  5
85
330
1F
100
AcDbEntity
  8
0
  6
Continuous
 62
     7
370
    15
100
AcDbLine
 10
171.487523109
 20
152.8007918089
 30
0.0
 11
171.4000123146
 21
152.8883026033
 31
0.0
  0
LINE
  5
86
330
1F
100
AcDbEntity
  8
0
  6
Continuous
 62
     7
370
    15
100
AcDbLine
 10
171.4000123146
 20
97.8883029013
 30
0.0
 11
171.8000116351
 21
98.2883022218
 31
0.0
  0
LINE
  5
87
330
1F
100
AcDbEntity
  8
0
  6
Continuous
 62
     7
370
    15
100
AcDbLine
 10
160.3665145638
 20
141.6383021562
 30
0.0
 11
160.2681631747
 21
141.6383021562
 31
0.0
  0
LINE
  5
88
330
1F
100
AcDbEntity
  8
0
  6
Continuous
 62
     7
370
    15
100
AcDbLine
 10
160.2681631747
 20
124.1383027802
 30
0.0
 11
160.3665145638
 21
124.1383027802
 31
0.0
  0
LINE
  5
89
330
1F
100
AcDbEntity
  8
0
  6
Continuous
 62
     7
370
    15
100
AcDbLine
 10
180.6000115874
 20
122.8883028082
 30
0.0
 11
180.8000112477
 21
123.0883027013
 31
0.0
  0
LINE
  5
8A
330
1F
100
AcDbEntity
  8
0
  6
Continuous
 62
     7
370
    15
100
AcDbLine
 10
180.8000112477
 20
127.6883028033
 30
0.0
 11
180.6000115874
 21
127.8883026964
 31
0.0
  0
LINE
  5
8B
330
1F
100
AcDbEntity
  8
0
  6
PHANTOM
 62
     7
370
     0
100
AcDbLine
 10
208.4052989784
 20
105.6059905379
 30
0.0
 11
208.2258517447
 21
93.6111406474
 31
0.0
  0
ARC
  5
8C
330
1F
100
AcDbEntity
  8
0
  6
PHANTOM
 62
     7
370
     0
100
AcDbCircle
 10
207.8223854159
 20
93.6178091019
 30
0.0
 40
0.4035214328491877
100
AcDbArc
 50
260.2567166402
 51
359.0531068249
  0
LINE
  5
8D
330
1F
100
AcDbEntity
  8
0
  6
PHANTOM
 62
     7
370
     0
100
AcDbLine
 10
207.7540958824
 20
93.2201081007
 30
0.0
 11
195.9752793017
 21
95.3029924124
 31
0.0
  0
ARC
  5
8E
330
1F
100
AcDbEntity
  8
0
  6
PHANTOM
 62
     7
370
     0
100
AcDbCircle
 10
196.0429336177
 20
95.6869888086
 30
0.0
 40
0.3899106805475295
100
AcDbArc
 50
178.9662840922
 51
260.007902669
  0
LINE
  5
8F
330
1F
100
AcDbEntity
  8
0
  6
PHANTOM
 62
     7
370
     0
100
AcDbLine
 10
195.6530863943
 20
95.6940230965
 30
0.0
 11
195.6578100624
 21
96.0094341128
 31
0.0
  0
LINE
  5
90
330
1F
100
AcDbEntity
  8
0
  6
PHANTOM
 62
     7
370
     0
100
AcDbLine
 10
207.3966319266
 20
106.1184135317
 30
0.0
 11
208.0831135216
 21
105.997021222
 31
0.0
  0
ARC
  5
91
330
1F
100
AcDbEntity
  8
0
  6
PHANTOM
 62
     7
370
     0
100
AcDbCircle
 10
208.0154587292
 20
105.6130318613
 30
0.0
 40
0.3899038344686896
100
AcDbArc
 50
358.9652319218
 51
80.0076543424
  0
ARC
  5
92
330
1F
100
AcDbEntity
  8
0
  6
PHANTOM
 62
     7
370
     0
100
AcDbCircle
 10
208.4024860571
 20
93.0420375709
 30
0.0
 40
0.4035230278343228
100
AcDbArc
 50
260.2569808499
 51
359.0528426152
  0
LINE
  5
93
330
1F
100
AcDbEntity
  8
0
  6
PHANTOM
 62
     7
370
     0
100
AcDbLine
 10
208.9854011836
 20
105.0302152573
 30
0.0
 11
208.80595395
 21
93.0353672295
 31
0.0
  0
LINE
  5
94
330
1F
100
AcDbEntity
  8
0
  6
PHANTOM
 62
     7
370
     0
100
AcDbLine
 10
208.3341980877
 20
92.6443346827
 30
0.0
 11
196.5553815069
 21
94.7272189944
 31
0.0
  0
ARC
  5
95
330
1F
100
AcDbEntity
  8
0
  6
PHANTOM
 62
     7
370
     0
100
AcDbCircle
 10
208.59420701
 20
105.0368057248
 30
0.0
 40
0.391249684611118
100
AcDbArc
 50
359.0348264954
 51
45.1354002334
  0
ARC
  5
96
330
1F
100
AcDbEntity
  8
0
  6
PHANTOM
 62
     7
370
     0
100
AcDbCircle
 10
196.6228727113
 20
95.1111724126
 30
0.0
 40
0.3898400826250231
100
AcDbArc
 50
225.2422333412
 51
260.0304159761
  0
LINE
  5
97
330
1F
100
AcDbEntity
  8
0
  6
PHANTOM
 62
     7
370
     0
100
AcDbLine
 10
208.3341980877
 20
158.1322708218
 30
0.0
 11
196.5553815069
 21
156.0493865102
 31
0.0
  0
ARC
  5
98
330
1F
100
AcDbEntity
  8
0
  6
PHANTOM
 62
     7
370
     0
100
AcDbCircle
 10
208.4024860571
 20
157.7345679337
 30
0.0
 40
0.4035230278343232
100
AcDbArc
 50
0.9471573848
 51
99.7430191501
  0
LINE
  5
99
330
1F
100
AcDbEntity
  8
0
  6
PHANTOM
 62
     7
370
     0
100
AcDbLine
 10
208.9854011836
 20
145.7463902473
 30
0.0
 11
208.80595395
 21
157.7412382751
 31
0.0
  0
ARC
  5
9A
330
1F
100
AcDbEntity
  8
0
  6
PHANTOM
 62
     7
370
     0
100
AcDbCircle
 10
208.5955539602
 20
145.7393559594
 30
0.0
 40
0.3899106805475582
100
AcDbArc
 50
279.992097331
 51
1.0337159078
  0
LINE
  5
9B
330
1F
100
AcDbEntity
  8
0
  6
PHANTOM
 62
     7
370
     0
100
AcDbLine
 10
196.8843916955
 20
143.2724752515
 30
0.0
 11
208.6632082763
 21
145.3553595631
 31
0.0
  0
ARC
  5
9C
330
1F
100
AcDbEntity
  8
0
  6
PHANTOM
 62
     7
370
     0
100
AcDbCircle
 10
196.8161000287
 20
143.6701737107
 30
0.0
 40
0.4035192885118881
100
AcDbArc
 50
180.9468017246
 51
279.743642997
  0
LINE
  5
9D
330
1F
100
AcDbEntity
  8
0
  6
PHANTOM
 62
     7
370
     0
100
AcDbLine
 10
196.2331885996
 20
155.6583558261
 30
0.0
 11
196.4126358333
 21
143.6635059356
 31
0.0
  0
ARC
  5
9E
330
1F
100
AcDbEntity
  8
0
  6
PHANTOM
 62
     7
370
     0
100
AcDbCircle
 10
196.6230256578
 20
155.6653984897
 30
0.0
 40
0.3899006681637404
100
AcDbArc
 50
99.9908397717
 51
181.0349734672
  0
ARC
  5
9F
330
1F
100
AcDbEntity
  8
0
  6
PHANTOM
 62
     7
370
     0
100
AcDbCircle
 10
196.8157704798
 20
143.6698354619
 30
0.0
 40
0.3833385585916659
100
AcDbArc
 50
180.9460869881
 51
279.744362941
  0
LINE
  5
A0
330
1F
100
AcDbEntity
  8
0
  6
PHANTOM
 62
     7
370
     0
100
AcDbLine
 10
196.8806515041
 20
143.2920274376
 30
0.0
 11
208.6594680848
 21
145.3749098866
 31
0.0
  0
ARC
  5
A1
330
1F
100
AcDbEntity
  8
0
  6
PHANTOM
 62
     7
370
     0
100
AcDbCircle
 10
208.5951904956
 20
145.7397129051
 30
0.0
 40
0.3704225300564397
100
AcDbArc
 50
279.9928367414
 51
1.0328860021
  0
LINE
  5
A2
330
1F
100
AcDbEntity
  8
0
  6
PHANTOM
 62
     7
370
     0
100
AcDbLine
 10
208.9655528369
 20
145.7463902473
 30
0.0
 11
208.7861056032
 21
157.7412382751
 31
0.0
  0
ARC
  5
A3
330
1F
100
AcDbEntity
  8
0
  6
PHANTOM
 62
     7
370
     0
100
AcDbCircle
 10
208.4028071475
 20
157.7348991734
 30
0.0
 40
0.3833508711053732
100
AcDbArc
 50
0.9474879451
 51
99.7433333578
  0
LINE
  5
A4
330
1F
100
AcDbEntity
  8
0
  6
PHANTOM
 62
     7
370
     0
100
AcDbLine
 10
208.3379308286
 20
158.1127204984
 30
0.0
 11
196.5591142478
 21
156.029834324
 31
0.0
  0
ARC
  5
A5
330
1F
100
AcDbEntity
  8
0
  6
PHANTOM
 62
     7
370
     0
100
AcDbCircle
 10
196.6233785283
 20
155.6650497328
 30
0.0
 40
0.3704020730739513
100
AcDbArc
 50
99.9913039227
 51
181.0355057752
  0
LINE
  5
A6
330
1F
100
AcDbEntity
  8
0
  6
PHANTOM
 62
     7
370
     0
100
AcDbLine
 10
196.2530369463
 20
155.6583558261
 30
0.0
 11
196.43248418
 21
143.6635059356
 31
0.0
  0
LINE
  5
A7
330
1F
100
AcDbEntity
  8
0
  6
PHANTOM
 62
     7
370
     0
100
AcDbLine
 10
195.832533628
 20
143.0877325176
 30
0.0
 11
195.834060997
 21
143.0583995818
 31
0.0
  0
LINE
  5
A8
330
1F
100
AcDbEntity
  8
0
  6
PHANTOM
 62
     7
370
     0
100
AcDbLine
 10
195.6530863943
 20
155.0825824081
 30
0.0
 11
195.6552917662
 21
154.9353701114
 31
0.0
  0
LINE
  5
A9
330
1F
100
AcDbEntity
  8
0
  6
PHANTOM
 62
     7
370
     0
100
AcDbLine
 10
195.7687417569
 20
147.3519922285
 30
0.0
 11
195.832533628
 21
143.0877325176
 31
0.0
  0
LINE
  5
AA
330
1F
100
AcDbEntity
  8
0
  6
PHANTOM
 62
     7
370
     0
100
AcDbLine
 10
197.1842477622
 20
155.0707322597
 30
0.0
 11
196.6034228506
 21
155.6318187206
 31
0.0
  0
LINE
  5
AB
330
1F
100
AcDbEntity
  8
0
  6
PHANTOM
 62
     7
370
     0
100
AcDbLine
 10
197.5383962097
 20
144.56691491
 30
0.0
 11
196.7828700843
 21
143.6369669675
 31
0.0
  0
LINE
  5
AC
330
1F
100
AcDbEntity
  8
0
  6
PHANTOM
 62
     7
370
     0
100
AcDbLine
 10
207.8933993879
 20
146.1941291629
 30
0.0
 11
208.5616866651
 21
145.7198512792
 31
0.0
  0
LINE
  5
AD
330
1F
100
AcDbEntity
  8
0
  6
PHANTOM
 62
     7
370
     0
100
AcDbLine
 10
207.9694176617
 20
144.7594788908
 30
0.0
 11
208.0831135216
 21
144.7795842826
 31
0.0
  0
ARC
  5
AE
330
1F
100
AcDbEntity
  8
0
  6
PHANTOM
 62
     7
370
     0
100
AcDbCircle
 10
199.3796538614
 20
146.7796524118
 30
0.0
 40
1.008808058489526
100
AcDbArc
 50
180.9473283244
 51
279.743418432
  0
SPLINE
  5
AF
330
1F
100
AcDbEntity
  8
0
  6
PHANTOM
 62
     7
370
     0
100
AcDbSpline
210
0.0
220
0.0
230
1.0
 70
     8
 71
     3
 72
    11
 73
     7
 74
     0
 42
0.00000001
 43
0.00000001
 40
0.0
 40
0.0
 40
0.0
 40
0.0
 40
0.0076290935457849
 40
0.320988110050793
 40
0.6632214914007695
 40
1.0
 40
1.0
 40
1.0
 40
1.0
 10
197.9808042350114
 20
145.1018200307264
 30
0.0
 10
197.9797043953915
 20
145.1005110958288
 30
0.0
 10
197.9334295084959
 20
145.0454386895939
 30
0.0
 10
197.8338361544476
 20
144.9261113857466
 30
0.0
 10
197.6792257383847
 20
144.7395016262907
 30
0.0
 10
197.5850872974841
 20
144.6241348807703
 30
0.0
 10
197.5383962097467
 20
144.566914909996
 30
0.0
  0
LINE
  5
B0
330
1F
100
AcDbEntity
  8
0
  6
PHANTOM
 62
     7
370
     0
100
AcDbLine
 10
205.6682089868
 20
155.6193483113
 30
0.0
 11
199.0760321322
 21
154.4536341964
 31
0.0
  0
ARC
  5
B1
330
1F
100
AcDbEntity
  8
0
  6
PHANTOM
 62
     7
370
     0
100
AcDbCircle
 10
205.8389366915
 20
154.6250926956
 30
0.0
 40
1.008807304934375
100
AcDbArc
 50
0.9473838987
 51
99.7434701324
  0
LINE
  5
B2
330
1F
100
AcDbEntity
  8
0
  6
PHANTOM
 62
     7
370
     0
100
AcDbLine
 10
206.9480324688
 20
147.9286876558
 30
0.0
 11
206.847606093
 21
154.6417725324
 31
0.0
  0
ARC
  5
B3
330
1F
100
AcDbEntity
  8
0
  6
PHANTOM
 62
     7
370
     0
100
AcDbCircle
 10
205.9734313676
 20
147.9110875896
 30
0.0
 40
0.9747600057613895
100
AcDbArc
 50
279.9917028259
 51
1.0345770316
  0
LINE
  5
B4
330
1F
100
AcDbEntity
  8
0
  6
PHANTOM
 62
     7
370
     0
100
AcDbLine
 10
199.5503807965
 20
145.7853958993
 30
0.0
 11
206.1425576511
 21
146.9511118769
 31
0.0
  0
LINE
  5
B5
330
1F
100
AcDbEntity
  8
0
  6
PHANTOM
 62
     7
370
     0
100
AcDbLine
 10
198.2705573144
 20
153.4760584175
 30
0.0
 11
198.3709836903
 21
146.7629735409
 31
0.0
  0
ARC
  5
B6
330
1F
100
AcDbEntity
  8
0
  6
PHANTOM
 62
     7
370
     0
100
AcDbCircle
 10
199.2451607384
 20
153.4936565698
 30
0.0
 40
0.9747622936286062
100
AcDbArc
 50
99.9918177689
 51
181.0344620886
  0
CIRCLE
  5
B7
330
1F
100
AcDbEntity
  8
0
  6
PHANTOM
 62
     7
370
     0
100
AcDbCircle
 10
202.6065012681
 20
150.7400531045
 30
0.0
 40
2.557969068327244
  0
ARC
  5
B8
330
1F
100
AcDbEntity
  8
0
  6
PHANTOM
 62
     7
370
     0
100
AcDbCircle
 10
202.0634713955
 20
150.0841555857
 30
0.0
 40
2.526352736669995
100
AcDbArc
 50
324.2228542373
 51
357.6439699475
  0
ARC
  5
B9
330
1F
100
AcDbEntity
  8
0
  6
PHANTOM
 62
     7
370
     0
100
AcDbCircle
 10
201.9966470479
 20
150.1350017317
 30
0.0
 40
2.553302092827845
100
AcDbArc
 50
60.0062743138
 51
125.1848326894
  0
LINE
  5
BA
330
1F
100
AcDbEntity
  8
0
  6
PHANTOM
 62
     7
370
     0
100
AcDbLine
 10
207.5091580453
 20
156.6680715471
 30
0.0
 11
208.3822394314
 21
157.7147030323
 31
0.0
  0
SPLINE
  5
BB
330
1F
100
AcDbEntity
  8
0
  6
PHANTOM
 62
     7
370
     0
100
AcDbSpline
210
0.0
220
0.0
230
1.0
 70
     8
 71
     3
 72
    11
 73
     7
 74
     0
 42
0.00000001
 43
0.00000001
 40
0.0
 40
0.0
 40
0.0
 40
0.0
 40
0.0081193187496734
 40
0.326366088958353
 40
0.662768175572609
 40
1.0
 40
1.0
 40
1.0
 40
1.0
 10
197.7244968118966
 20
154.6340276538505
 30
0.0
 10
197.7230793564287
 20
154.6349865415874
 30
0.0
 10
197.6661029755762
 20
154.6735302236452
 30
0.0
 10
197.5441143416967
 20
154.761601004342
 30
0.0
 10
197.3542418788149
 20
154.9131188516417
 30
0.0
 10
197.2409589792279
 20
155.0181513329655
 30
0.0
 10
197.1842477622331
 20
155.0707322596683
 30
0.0
  0
ARC
  5
BC
330
1F
100
AcDbEntity
  8
0
  6
PHANTOM
 62
     7
370
     0
100
AcDbCircle
 10
196.0442805679
 20
155.0891728756
 30
0.0
 40
0.3912496846110973
100
AcDbArc
 50
134.8645997666
 51
180.9651735046
  0
SPLINE
  5
BD
330
1F
100
AcDbEntity
  8
0
  6
PHANTOM
 62
     7
370
     0
100
AcDbSpline
210
0.0
220
0.0
230
1.0
 70
     8
 71
     3
 72
    11
 73
     7
 74
     0
 42
0.00000001
 43
0.00000001
 40
0.0
 40
0.0
 40
0.0
 40
0.0
 40
0.3372314846779294
 40
0.6736305838874715
 40
0.9918814291318121
 40
1.0
 40
1.0
 40
1.0
 40
1.0
 10
207.8933993878663
 20
146.1941291629448
 30
0.0
 10
207.8305691686824
 20
146.2406352721355
 30
0.0
 10
207.7050638135848
 20
146.3335326999021
 30
0.0
 10
207.5216122601638
 20
146.4914250428965
 30
0.0
 10
207.4139979773315
 20
146.5937533095097
 30
0.0
 10
207.3665205092286
 20
146.641730740479
 30
0.0
 10
207.3653394880594
 20
146.6429241984262
 30
0.0
  0
ARC
  5
BE
330
1F
100
AcDbEntity
  8
0
  6
PHANTOM
 62
     7
370
     0
100
AcDbCircle
 10
208.0155656321
 20
145.1636472275
 30
0.0
 40
0.3899577708730806
100
AcDbArc
 50
279.9750008814
 51
314.7523498013
  0
SPLINE
  5
BF
330
1F
100
AcDbEntity
  8
0
  6
PHANTOM
 62
     7
370
     0
100
AcDbSpline
210
0.0
220
0.0
230
1.0
 70
     8
 71
     3
 72
    11
 73
     7
 74
     0
 42
0.00000001
 43
0.00000001
 40
0.0
 40
0.0
 40
0.0
 40
0.0
 40
0.3367817258401553
 40
0.679009518732341
 40
0.992372302372144
 40
1.0
 40
1.0
 40
1.0
 40
1.0
 10
207.5091580453218
 20
156.6680715470686
 30
0.0
 10
207.4575193260177
 20
156.6059412700953
 30
0.0
 10
207.3534068423158
 20
156.480676013018
 30
0.0
 10
207.2076865385688
 20
156.3028772129862
 30
0.0
 10
207.122959461495
 20
156.1983287410463
 30
0.0
 10
207.0859941089945
 20
156.1524855072947
 30
0.0
 10
207.0851157012285
 20
156.1513961344137
 30
0.0
  0
ARC
  5
C0
330
1F
100
AcDbEntity
  8
0
  6
PHANTOM
 62
     7
370
     0
100
AcDbCircle
 10
206.2793823196
 20
95.4036306765
 30
0.0
 40
0.7065693873267175
100
AcDbArc
 50
264.8374704439
 51
359.0355875768
  0
ARC
  5
C1
330
1F
100
AcDbEntity
  8
0
  6
PHANTOM
 62
     7
370
     0
100
AcDbCircle
 10
206.311473378
 20
95.372131718
 30
0.0
 40
1.008808821050705
100
AcDbArc
 50
260.2566303251
 51
359.0525156438
  0
LINE
  5
C2
330
1F
100
AcDbEntity
  8
0
  6
PHANTOM
 62
     7
370
     0
100
AcDbLine
 10
206.9858516159
 20
95.3917381405
 30
0.0
 11
206.9871182146
 21
95.4763804614
 31
0.0
  0
LINE
  5
C3
330
1F
100
AcDbEntity
  8
0
  6
PHANTOM
 62
     7
370
     0
100
AcDbLine
 10
207.0383335057
 20
98.8998160749
 30
0.0
 11
207.1309144202
 21
105.0884154677
 31
0.0
  0
ARC
  5
C4
330
1F
100
AcDbEntity
  8
0
  6
PHANTOM
 62
     7
370
     0
100
AcDbCircle
 10
206.444199061
 20
105.0995480628
 30
0.0
 40
0.6868055905506262
100
AcDbArc
 50
359.0712384091
 51
30.1093784518
  0
LINE
  5
C5
330
1F
100
AcDbEntity
  8
0
  6
PHANTOM
 62
     7
370
     0
100
AcDbLine
 10
207.4652070704
 20
105.0521274149
 30
0.0
 11
207.3201442662
 21
95.3554500877
 31
0.0
  0
LINE
  5
C6
330
1F
100
AcDbEntity
  8
0
  6
PHANTOM
 62
     7
370
     0
100
AcDbLine
 10
206.14074716
 20
94.3778743087
 30
0.0
 11
196.618711442
 21
96.0616850346
 31
0.0
  0
ARC
  5
C7
330
1F
100
AcDbEntity
  8
0
  6
PHANTOM
 62
     7
370
     0
100
AcDbCircle
 10
206.6624630104
 20
95.0237537592
 30
0.0
 40
1.008800955974721
100
AcDbArc
 50
260.2561109505
 51
359.0531422931
  0
LINE
  5
C8
330
1F
100
AcDbEntity
  8
0
  6
PHANTOM
 62
     7
370
     0
100
AcDbLine
 10
207.8161890211
 20
104.7037606179
 30
0.0
 11
207.6711262169
 21
95.0070832907
 31
0.0
  0
LINE
  5
C9
330
1F
100
AcDbEntity
  8
0
  6
PHANTOM
 62
     7
370
     0
100
AcDbLine
 10
206.4917291107
 20
94.0295056491
 30
0.0
 11
196.9696933928
 21
95.7133163749
 31
0.0
  0
ARC
  5
CA
330
1F
100
AcDbEntity
  8
0
  6
PHANTOM
 62
     7
370
     0
100
AcDbCircle
 10
206.4892000292
 20
105.0691913276
 30
0.0
 40
0.9761561973391741
100
AcDbArc
 50
358.9983775296
 51
55.7678953138
  0
ARC
  5
CB
330
1F
100
AcDbEntity
  8
0
  6
PHANTOM
 62
     7
370
     0
100
AcDbCircle
 10
196.7869446831
 20
97.0204734341
 30
0.0
 40
0.9734359858168212
100
AcDbArc
 50
217.1017042774
 51
260.047938461
  0
ARC
  5
CC
330
1F
100
AcDbEntity
  8
0
  6
PHANTOM
 62
     7
370
     0
100
AcDbCircle
 10
206.8382674305
 20
104.7202654029
 30
0.0
 40
0.9780608597280038
100
AcDbArc
 50
359.0330873548
 51
45.1366753211
  0
ARC
  5
CD
330
1F
100
AcDbEntity
  8
0
  6
PHANTOM
 62
     7
370
     0
100
AcDbCircle
 10
197.138471368
 20
96.6732869157
 30
0.0
 40
0.9746945388600489
100
AcDbArc
 50
225.2439039876
 51
260.0284085964
  0
ARC
  5
CE
330
1F
100
AcDbEntity
  8
0
  6
PHANTOM
 62
     7
370
     0
100
AcDbCircle
 10
201.762072467
 20
149.8744686327
 30
0.0
 40
2.80042037419449
100
AcDbArc
 50
70.1460915118
 51
90.5663467624
  0
LWPOLYLINE
  5
CF
330
1F
100
AcDbEntity
  8
0
  6
PHANTOM
 62
     7
370
     0
100
AcDbPolyline
 90
        3
 70
   128
 43
0.0
 10
200.3522271815
 20
151.9457743554
 10
200.7347623411
 20
152.0314336806
 10
200.9970078769
 20
152.0581104844
  0
LINE
  5
D0
330
1F
100
AcDbEntity
  8
0
  6
PHANTOM
 62
     7
370
     0
100
AcDbLine
 10
203.8936744037
 20
148.6090728133
 30
0.0
 11
203.849239141
 21
148.4432675927
 31
0.0
  0
LINE
  5
D1
330
1F
100
AcDbEntity
  8
0
  6
PHANTOM
 62
     7
370
     0
100
AcDbLine
 10
200.0715265575
 20
151.082825759
 30
0.0
 11
200.4050666991
 21
151.3177835434
 31
0.0
  0
LINE
  5
D2
330
1F
100
AcDbEntity
  8
0
  6
PHANTOM
 62
     7
370
     0
100
AcDbLine
 10
200.4050666991
 20
151.3177835434
 30
0.0
 11
200.1768703165
 21
150.412904942
 31
0.0
  0
LINE
  5
D3
330
1F
100
AcDbEntity
  8
0
  6
PHANTOM
 62
     7
370
     0
100
AcDbLine
 10
200.1768703165
 20
150.412904942
 30
0.0
 11
200.0793347659
 21
150.3441956877
 31
0.0
  0
ELLIPSE
  5
D4
330
1F
100
AcDbEntity
  8
0
  6
PHANTOM
 62
     7
370
     0
100
AcDbEllipse
 10
202.4083837272
 20
150.3001234022
 30
0.0
 11
-1.560683174337981
 21
1.62183114379016
 31
0.0
210
0.0
220
0.0
230
0.9999999999999998
 40
0.9846168192
 41
3.903444703277947
 42
6.622615596149384
  0
ELLIPSE
  5
D5
330
1F
100
AcDbEntity
  8
0
  6
PHANTOM
 62
     7
370
     0
100
AcDbEllipse
 10
202.4083837272
 20
150.3001234022
 30
0.0
 11
-1.560683174337981
 21
1.62183114379016
 31
0.0
210
0.0
220
0.0
230
0.9999999999999998
 40
0.9846168192
 41
0.7618520496881522
 42
1.081237797382973
  0
ELLIPSE
  5
D6
330
1F
100
AcDbEntity
  8
0
  6
PHANTOM
 62
     7
370
     0
100
AcDbEllipse
 10
202.4083837272
 20
150.3001234022
 30
0.0
 11
-1.560683174337981
 21
1.62183114379016
 31
0.0
210
0.0
220
0.0
230
0.9999999999999998
 40
0.9846168192
 41
2.739508502360762
 42
3.481022942559616
  0
LINE
  5
D7
330
1F
100
AcDbEntity
  8
0
  6
PHANTOM
 62
     7
370
     0
100
AcDbLine
 10
204.411705822
 20
149.2824618756
 30
0.0
 11
204.639894754
 21
150.1873423397
 31
0.0
  0
LINE
  5
D8
330
1F
100
AcDbEntity
  8
0
  6
PHANTOM
 62
     7
370
     0
100
AcDbLine
 10
203.6149481836
 20
148.3528734236
 30
0.0
 11
203.6376724544
 21
148.413865739
 31
0.0
  0
CIRCLE
  5
D9
330
1F
100
AcDbEntity
  8
0
  6
PHANTOM
 62
     7
370
     0
100
AcDbCircle
 10
199.4643714488
 20
138.4323344586
 30
0.0
 40
3.472255643493301
  0
CIRCLE
  5
DA
330
1F
100
AcDbEntity
  8
0
  6
PHANTOM
 62
     7
370
     0
100
AcDbCircle
 10
199.4671504247
 20
138.4107627129
 30
0.0
 40
1.986125114398075
  0
SPLINE
  5
DB
330
1F
100
AcDbEntity
  8
0
  6
PHANTOM
 62
     7
370
     0
100
AcDbSpline
210
0.0
220
0.0
230
1.0
 70
     8
 71
     3
 72
    11
 73
     7
 74
     0
 42
0.00000001
 43
0.00000001
 40
0.0
 40
0.0
 40
0.0
 40
0.0
 40
0.1081100068514376
 40
0.4711586714674271
 40
0.813581399740837
 40
1.0
 40
1.0
 40
1.0
 40
1.0
 10
200.6671036186517
 20
137.1338236197009
 30
0.0
 10
200.6778939289538
 20
137.1865817057864
 30
0.0
 10
200.72491962449
 20
137.416508892669
 30
0.0
 10
200.8271972508082
 20
137.8668802216692
 30
0.0
 10
200.9705679094679
 20
138.3989006484057
 30
0.0
 10
201.0567669563271
 20
138.6914472663889
 30
0.0
 10
201.0871524515451
 20
138.7945710732712
 30
0.0
  0
SPLINE
  5
DC
330
1F
100
AcDbEntity
  8
0
  6
PHANTOM
 62
     7
370
     0
100
AcDbSpline
210
0.0
220
0.0
230
1.0
 70
     8
 71
     3
 72
    10
 73
     6
 74
     0
 42
0.00000001
 43
0.00000001
 40
0.0
 40
0.0
 40
0.0
 40
0.0
 40
0.4391156779389032
 40
0.7513666777976986
 40
1.0
 40
1.0
 40
1.0
 40
1.0
 10
201.0871524515451
 20
138.7945710732712
 30
0.0
 10
200.8980240808523
 20
138.9561885574793
 30
0.0
 10
200.5744083169338
 20
139.2327307040804
 30
0.0
 10
200.1446385970577
 20
139.6750938588983
 30
0.0
 10
199.942909441866
 20
139.9073617187884
 30
0.0
 10
199.8534853163064
 20
140.0103232874646
 30
0.0
  0
SPLINE
  5
DD
330
1F
100
AcDbEntity
  8
0
  6
PHANTOM
 62
     7
370
     0
100
AcDbSpline
210
0.0
220
0.0
230
1.0
 70
     8
 71
     3
 72
    10
 73
     6
 74
     0
 42
0.00000001
 43
0.00000001
 40
0.0
 40
0.0
 40
0.0
 40
0.0
 40
0.4391157359627156
 40
0.7513676736437515
 40
1.0
 40
1.0
 40
1.0
 40
1.0
 10
199.8534853163064
 20
140.0103232874646
 30
0.0
 10
199.6042235896255
 20
139.93419143419
 30
0.0
 10
199.1777137008508
 20
139.8039227856302
 30
0.0
 10
198.5983696934846
 20
139.6549197197968
 30
0.0
 10
198.3221941783965
 20
139.5928443011939
 30
0.0
 10
198.1997693481744
 20
139.565327116765
 30
0.0
  0
SPLINE
  5
DE
330
1F
100
AcDbEntity
  8
0
  6
PHANTOM
 62
     7
370
     0
100
AcDbSpline
210
0.0
220
0.0
230
1.0
 70
     8
 71
     3
 72
    11
 73
     7
 74
     0
 42
0.00000001
 43
0.00000001
 40
0.0
 40
0.0
 40
0.0
 40
0.0
 40
0.1864195922129169
 40
0.5288425829807495
 40
0.8918901378328236
 40
1.0
 40
1.0
 40
1.0
 40
1.0
 10
198.1997693481744
 20
139.565327116765
 30
0.0
 10
198.1693810028517
 20
139.462203426248
 30
0.0
 10
198.0831741249038
 20
139.1696580011018
 30
0.0
 10
197.9398054901228
 20
138.6376362516163
 30
0.0
 10
197.8375369964511
 20
138.1872636227228
 30
0.0
 10
197.7905109259168
 20
137.9573368034648
 30
0.0
 10
197.779720515281
 20
137.904578731872
 30
0.0
  0
SPLINE
  5
DF
330
1F
100
AcDbEntity
  8
0
  6
PHANTOM
 62
     7
370
     0
100
AcDbSpline
210
0.0
220
0.0
230
1.0
 70
     8
 71
     3
 72
    10
 73
     6
 74
     0
 42
0.00000001
 43
0.00000001
 40
0.0
 40
0.0
 40
0.0
 40
0.0
 40
0.4391141160892648
 40
0.7513650835802249
 40
1.0
 40
1.0
 40
1.0
 40
1.0
 10
197.779720515281
 20
137.904578731872
 30
0.0
 10
197.9438069438826
 20
137.7181075254304
 30
0.0
 10
198.2245740807686
 20
137.3990379522153
 30
0.0
 10
198.6733888066313
 20
136.9755780116079
 30
0.0
 10
198.9089609525294
 20
136.7768995555338
 30
0.0
 10
199.0133876505197
 20
136.6888274490013
 30
0.0
  0
SPLINE
  5
E0
330
1F
100
AcDbEntity
  8
0
  6
PHANTOM
 62
     7
370
     0
100
AcDbSpline
210
0.0
220
0.0
230
1.0
 70
     8
 71
     3
 72
    10
 73
     6
 74
     0
 42
0.00000001
 43
0.00000001
 40
0.0
 40
0.0
 40
0.0
 40
0.0
 40
0.439117408708824
 40
0.7513656712390709
 40
1.0
 40
1.0
 40
1.0
 40
1.0
 10
199.0133876505197
 20
136.6888274490013
 30
0.0
 10
199.2376102986361
 20
136.7401048227948
 30
0.0
 10
199.6212735221106
 20
136.827844588096
 30
0.0
 10
200.2196601507592
 20
136.9957549881823
 30
0.0
 10
200.5296762177633
 20
137.0914173392758
 30
0.0
 10
200.6671036186517
 20
137.1338236197009
 30
0.0
  0
LINE
  5
E1
330
1F
100
AcDbEntity
  8
0
  6
PHANTOM
 62
     7
370
     0
100
AcDbLine
 10
199.3986646238
 20
139.5588907465
 30
0.0
 11
199.8534853163
 21
140.0103232875
 31
0.0
  0
LINE
  5
E2
330
1F
100
AcDbEntity
  8
0
  6
PHANTOM
 62
     7
370
     0
100
AcDbLine
 10
199.3986646238
 20
139.5588907465
 30
0.0
 11
198.5718066397
 21
139.3363931268
 31
0.0
  0
LINE
  5
E3
330
1F
100
AcDbEntity
  8
0
  6
PHANTOM
 62
     7
370
     0
100
AcDbLine
 10
198.5718066397
 20
139.3363931268
 30
0.0
 11
198.0968172255
 21
139.2085784166
 31
0.0
  0
LINE
  5
E4
330
1F
100
AcDbEntity
  8
0
  6
PHANTOM
 62
     7
370
     0
100
AcDbLine
 10
200.2980763617
 20
137.0215815543
 30
0.0
 11
200.4223073426
 21
137.5127648055
 31
0.0
  0
LINE
  5
E5
330
1F
100
AcDbEntity
  8
0
  6
PHANTOM
 62
     7
370
     0
100
AcDbLine
 10
200.4223073426
 20
137.5127648055
 30
0.0
 11
200.632331759
 21
138.3431385323
 31
0.0
  0
LINE
  5
E6
330
1F
100
AcDbEntity
  8
0
  6
PHANTOM
 62
     7
370
     0
100
AcDbLine
 10
200.632331759
 20
138.3431385323
 30
0.0
 11
201.0871524515
 21
138.7945710733
 31
0.0
  0
LINE
  5
E7
330
1F
100
AcDbEntity
  8
0
  6
PHANTOM
 62
     7
370
     0
100
AcDbLine
 10
200.632331759
 20
138.3431385323
 30
0.0
 11
200.0154981914
 21
138.9510146394
 31
0.0
  0
LINE
  5
E8
330
1F
100
AcDbEntity
  8
0
  6
PHANTOM
 62
     7
370
     0
100
AcDbLine
 10
200.0154981914
 20
138.9510146394
 30
0.0
 11
199.3986646238
 21
139.5588907465
 31
0.0
  0
ARC
  5
E9
330
1F
100
AcDbEntity
  8
0
  6
PHANTOM
 62
     7
370
     0
100
AcDbCircle
 10
198.9571596071
 20
137.88314617
 30
0.0
 40
1.503470527384677
100
AcDbArc
 50
45.256804028
 51
104.8511610318
  0
ARC
  5
EA
330
1F
100
AcDbEntity
  8
0
  6
PHANTOM
 62
     7
370
     0
100
AcDbCircle
 10
198.9622732352
 20
137.8764518971
 30
0.0
 40
1.504648761401489
100
AcDbArc
 50
346.0125732907
 51
45.5745517313
  0
ARC
  5
EB
330
1F
100
AcDbEntity
  8
0
  6
PHANTOM
 62
     7
370
     0
100
AcDbCircle
 10
199.0042581721
 20
137.8706247986
 30
0.0
 40
1.462507170785452
100
AcDbArc
 50
322.660211137
 51
345.8365213791
  0
ARC
  5
EC
330
1F
100
AcDbEntity
  8
0
  6
PHANTOM
 62
     7
370
     0
100
AcDbCircle
 10
198.9509040141
 20
137.9247517867
 30
0.0
 40
1.461658678409057
100
AcDbArc
 50
105.0321543176
 51
128.9163178869
  0
CIRCLE
  5
ED
330
1F
100
AcDbEntity
  8
0
  6
PHANTOM
 62
     7
370
     0
100
AcDbCircle
 10
197.3584896096
 20
114.4392949656
 30
0.0
 40
3.325818098167158
  0
ARC
  5
EE
330
1F
100
AcDbEntity
  8
0
  6
PHANTOM
 62
     7
370
     0
100
AcDbCircle
 10
197.3564811055
 20
114.3397661836
 30
0.0
 40
3.844015364008909
100
AcDbArc
 50
194.1533081744
 51
255.3953681465
  0
ARC
  5
EF
330
1F
100
AcDbEntity
  8
0
  6
PHANTOM
 62
     7
370
     0
100
AcDbCircle
 10
197.4071792793
 20
114.4242000876
 30
0.0
 40
3.914436711620046
100
AcDbArc
 50
306.6255363891
 51
195.1702603126
  0
LWPOLYLINE
  5
F0
330
1F
100
AcDbEntity
  8
0
  6
PHANTOM
 62
     7
370
     0
100
AcDbPolyline
 90
        3
 70
   128
 43
0.0
 10
194.8679963651
 20
111.3930781423
 10
195.0217837992
 20
111.2486179038
 10
195.4684237542
 20
110.9067983045
  0
ARC
  5
F1
330
1F
100
AcDbEntity
  8
0
  6
PHANTOM
 62
     7
370
     0
100
AcDbCircle
 10
197.7255785015
 20
114.2734201543
 30
0.0
 40
3.842640569685411
100
AcDbArc
 50
21.6827948872
 51
45.2007231113
  0
LINE
  5
F2
330
1F
100
AcDbEntity
  8
0
  6
PHANTOM
 62
     7
370
     0
100
AcDbLine
 10
195.1892504993
 20
111.108103679
 30
0.0
 11
195.2900196019
 21
110.987868072
 31
0.0
  0
LWPOLYLINE
  5
F3
330
1F
100
AcDbEntity
  8
0
  6
PHANTOM
 62
     7
370
     0
100
AcDbPolyline
 90
        3
 70
   128
 43
0.0
 10
201.0418305698
 20
116.3959912076
 10
200.8880431357
 20
116.5404514461
 10
200.720568985
 20
116.6809656709
  0
ARC
  5
F4
330
1F
100
AcDbEntity
  8
0
  6
PHANTOM
 62
     7
370
     0
100
AcDbCircle
 10
159.9262627388
 20
120.7361374017
 30
0.0
 40
9.103520212298525
100
AcDbArc
 50
272.5285186577
 51
0.9577448395
  0
SPLINE
  5
F5
330
1F
100
AcDbEntity
  8
0
  6
PHANTOM
 62
     7
370
     0
100
AcDbSpline
210
0.0
220
0.0
230
1.0
 70
     8
 71
     3
 72
    33
 73
    29
 74
     0
 42
0.00000001
 43
0.00000001
 40
0.0
 40
0.0
 40
0.0
 40
0.0
 40
0.0583991968251817
 40
0.118822867565549
 40
0.1814476364645255
 40
0.2028732926301542
 40
0.2245675163683984
 40
0.2465355512553187
 40
0.2693838621571144
 40
0.2934143164550569
 40
0.3186310789304125
 40
0.3450379085843386
 40
0.3726375770959749
 40
0.4061244897209595
 40
0.4485972385978491
 40
0.5000504855713639
 40
0.532013943274671
 40
0.5607431209211379
 40
0.5862375008398498
 40
0.608496994930894
 40
0.6275217667692788
 40
0.6728223028953164
 40
0.7148322370288986
 40
0.7535675925132279
 40
0.8185506150001844
 40
0.8811748403883751
 40
0.9415990746202083
 40
1.0
 40
1.0
 40
1.0
 40
1.0
 10
151.5812891128362
 20
120.8883029460087
 30
0.0
 10
151.6142002195824
 20
120.3098942568471
 30
0.0
 10
151.681163333648
 20
119.1330256900286
 30
0.0
 10
152.2292150426679
 20
117.4059372809414
 30
0.0
 10
152.9128122819317
 20
116.1416914789855
 30
0.0
 10
153.5329160208587
 20
115.298939521138
 30
0.0
 10
153.9491277616972
 20
114.8074546319601
 30
0.0
 10
154.4081843705377
 20
114.3359030303356
 30
0.0
 10
154.9165437825155
 20
113.8824458072504
 30
0.0
 10
155.4820661090864
 20
113.447587236449
 30
0.0
 10
156.108359677307
 20
113.0374519139662
 30
0.0
 10
156.7959791625291
 20
112.660827017371
 30
0.0
 10
157.5867945638914
 20
112.3081596056091
 30
0.0
 10
158.5576112820115
 20
111.9781607234378
 30
0.0
 10
159.7912738681975
 20
111.7089719683912
 30
0.0
 10
161.0373438118727
 20
111.6142843618928
 30
0.0
 10
162.1461026939871
 20
111.6666033662831
 30
0.0
 10
162.9911709240653
 20
111.7828502205257
 30
0.0
 10
163.7301618088096
 20
111.9457278745293
 30
0.0
 10
164.3635911204768
 20
112.1332348274239
 30
0.0
 10
165.1680821294623
 20
112.4263321370506
 30
0.0
 10
166.1197012198523
 20
112.8813600399818
 30
0.0
 10
167.1657005800505
 20
113.5648982619166
 30
0.0
 10
168.2666146983358
 20
114.4985793420984
 30
0.0
 10
169.3412102707462
 20
115.7615864509956
 30
0.0
 10
170.2304712547982
 20
117.4056049031699
 30
0.0
 10
170.7786508923266
 20
119.1330507097077
 30
0.0
 10
170.8455979302809
 20
120.3098985035707
 30
0.0
 10
170.8785014751256
 20
120.8883029460087
 30
0.0
  0
SPLINE
  5
F6
330
1F
100
AcDbEntity
  8
0
  6
PHANTOM
 62
     7
370
     0
100
AcDbSpline
210
0.0
220
0.0
230
1.0
 70
     8
 71
     3
 72
    26
 73
    22
 74
     0
 42
0.00000001
 43
0.00000001
 40
0.0
 40
0.0
 40
0.0
 40
0.0
 40
0.0491709354696266
 40
0.09836081858673
 40
0.1474324514597802
 40
0.1965077251322513
 40
0.2494511619585018
 40
0.3024005148407548
 40
0.3551230272166916
 40
0.4078558196947939
 40
0.4642248789161216
 40
0.520578290030591
 40
0.576406851078832
 40
0.6322450779821516
 40
0.6886889171328456
 40
0.7451083528010816
 40
0.8002439498397067
 40
0.8553879955939987
 40
0.9080276003848231
 40
0.9606508885350634
 40
1.0
 40
1.0
 40
1.0
 40
1.0
 10
151.1113623681367
 20
120.8883029460087
 30
0.0
 10
151.1347937749911
 20
120.3857360204114
 30
0.0
 10
151.1816656178149
 20
119.3804085088593
 30
0.0
 10
151.5647924583938
 20
117.914261241984
 30
0.0
 10
152.1590166615208
 20
116.5275533996323
 30
0.0
 10
152.9829324007919
 20
115.2156310288702
 30
0.0
 10
154.0381919259496
 20
114.0269064843736
 30
0.0
 10
155.3054632434134
 20
113.0066706520768
 30
0.0
 10
156.7224083161851
 20
112.2131021780352
 30
0.0
 10
158.2766580329744
 20
111.6343145616506
 30
0.0
 10
159.9420208259569
 20
111.3080626198782
 30
0.0
 10
161.6707509859176
 20
111.2628487607801
 30
0.0
 10
163.3749040418314
 20
111.5204016446717
 30
0.0
 10
165.015039437707
 20
112.0511824250702
 30
0.0
 10
166.5485971815613
 20
112.852438878816
 30
0.0
 10
167.9209537132161
 20
113.8963396698285
 30
0.0
 10
169.0699445448872
 20
115.1636422695471
 30
0.0
 10
169.9637582484727
 20
116.577057159598
 30
0.0
 10
170.5847332499391
 20
118.0988646107641
 30
0.0
 10
170.9242929047691
 20
119.5466047074792
 30
0.0
 10
170.9586147944204
 20
120.4862771613069
 30
0.0
 10
170.9732989373506
 20
120.8883029460087
 30
0.0
  0
SPLINE
  5
F7
330
1F
100
AcDbEntity
  8
0
  6
PHANTOM
 62
     7
370
     0
100
AcDbSpline
210
0.0
220
0.0
230
1.0
 70
     8
 71
     3
 72
    16
 73
    12
 74
     0
 42
0.00000001
 43
0.00000001
 40
0.0
 40
0.0
 40
0.0
 40
0.0
 40
0.1200715894405932
 40
0.2423552083513728
 40
0.3252688016253825
 40
0.4093340328218474
 40
0.4946127467723286
 40
0.6075280754869147
 40
0.7293411754942201
 40
0.860141323608772
 40
1.0
 40
1.0
 40
1.0
 40
1.0
 10
170.8785499038995
 20
133.8883032142296
 30
0.0
 10
170.8577586539492
 20
134.3488276010394
 30
0.0
 10
170.8157931254088
 20
135.2783604258832
 30
0.0
 10
170.5126429672348
 20
136.4957656233929
 30
0.0
 10
170.1170641544335
 20
137.5322811351816
 30
0.0
 10
169.6759289209348
 20
138.3946634018905
 30
0.0
 10
169.083316661839
 20
139.3013941115112
 30
0.0
 10
168.2888261382089
 20
140.2410229947188
 30
0.0
 10
167.2361107295231
 20
141.1700792432733
 30
0.0
 10
165.9729830947998
 20
142.002636013027
 30
0.0
 10
165.0080917088117
 20
142.3882818683589
 30
0.0
 10
164.5094993117154
 20
142.5875582783594
 30
0.0
  0
ARC
  5
F8
330
1F
100
AcDbEntity
  8
0
  6
PHANTOM
 62
     7
370
     0
100
AcDbCircle
 10
159.9152917016
 20
134.0361946325
 30
0.0
 40
9.114419364408517
100
AcDbArc
 50
359.0702725398
 51
85.1432620449
  0
SPLINE
  5
F9
330
1F
100
AcDbEntity
  8
0
  6
PHANTOM
 62
     7
370
     0
100
AcDbSpline
210
0.0
220
0.0
230
1.0
 70
     8
 71
     3
 72
    16
 73
    12
 74
     0
 42
0.00000001
 43
0.00000001
 40
0.0
 40
0.0
 40
0.0
 40
0.0
 40
0.1424383762939972
 40
0.274166697684935
 40
0.3561125202349594
 40
0.4333431684930104
 40
0.50588785773987
 40
0.6336448003776078
 40
0.7584207049504889
 40
0.8804540467282198
 40
1.0
 40
1.0
 40
1.0
 40
1.0
 10
158.6443873646558
 20
142.8000134467258
 30
0.0
 10
158.0907844037521
 20
142.622242805288
 30
0.0
 10
157.0252043292762
 20
142.2800682384581
 30
0.0
 10
155.7635200521623
 20
141.5436853752963
 30
0.0
 10
154.8209845227782
 20
140.8245066270261
 30
0.0
 10
154.1329383290804
 20
140.1760236711673
 30
0.0
 10
153.3884355181516
 20
139.3240565809691
 30
0.0
 10
152.6514133915577
 20
138.2152562052323
 30
0.0
 10
152.0351153357502
 20
136.8137626757564
 30
0.0
 10
151.6518230841182
 20
135.3608005934313
 30
0.0
 10
151.6045961279868
 20
134.3757542543241
 30
0.0
 10
151.5812257829011
 20
133.888302282907
 30
0.0
  0
SPLINE
  5
FA
330
1F
100
AcDbEntity
  8
0
  6
PHANTOM
 62
     7
370
     0
100
AcDbSpline
210
0.0
220
0.0
230
1.0
 70
     8
 71
     3
 72
    11
 73
     7
 74
     0
 42
0.00000001
 43
0.00000001
 40
0.0
 40
0.0
 40
0.0
 40
0.0
 40
0.2773735816188136
 40
0.4788562782993043
 40
0.6853656870750131
 40
1.0
 40
1.0
 40
1.0
 40
1.0
 10
158.6443873646558
 20
142.8000134467258
 30
0.0
 10
159.1799765132048
 20
142.9212836764507
 30
0.0
 10
160.1046147749845
 20
143.1306439570355
 30
0.0
 10
161.4840193702957
 20
143.1533764163307
 30
0.0
 10
162.9269146988968
 20
143.0285847837052
 30
0.0
 10
163.9137245944212
 20
142.7535856992084
 30
0.0
 10
164.5094993117154
 20
142.5875582783594
 30
0.0
  0
LINE
  5
FB
330
1F
100
AcDbEntity
  8
0
  6
PHANTOM
 62
     7
370
     0
100
AcDbLine
 10
164.5094993117
 20
142.5875582784
 30
0.0
 11
165.9069972637
 21
142.2545303642
 31
0.0
  0
SPLINE
  5
FC
330
1F
100
AcDbEntity
  8
0
  6
PHANTOM
 62
     7
370
     0
100
AcDbSpline
210
0.0
220
0.0
230
1.0
 70
     8
 71
     3
 72
    14
 73
    10
 74
     0
 42
0.00000001
 43
0.00000001
 40
0.0
 40
0.0
 40
0.0
 40
0.0
 40
0.1407745692595585
 40
0.2815776591838988
 40
0.4222669583019531
 40
0.5629463586756419
 40
0.7178028322138446
 40
0.8727006378397898
 40
1.0
 40
1.0
 40
1.0
 40
1.0
 10
170.9739247861207
 20
133.888302282907
 30
0.0
 10
170.9513513333335
 20
134.3700571691402
 30
0.0
 10
170.9061998544198
 20
135.3336645442466
 30
0.0
 10
170.557280473799
 20
136.7437103569019
 30
0.0
 10
170.0126343765675
 20
138.0849123604628
 30
0.0
 10
169.2439584072568
 20
139.3709858950365
 30
0.0
 10
168.2431036087367
 20
140.5490735617627
 30
0.0
 10
167.1101178943956
 20
141.5372510399963
 30
0.0
 10
166.2797510166739
 20
142.0312687903433
 30
0.0
 10
165.9051718714536
 20
142.2541205822601
 30
0.0
  0
SPLINE
  5
FD
330
1F
100
AcDbEntity
  8
0
  6
PHANTOM
 62
     7
370
     0
100
AcDbSpline
210
0.0
220
0.0
230
1.0
 70
     8
 71
     3
 72
    14
 73
    10
 74
     0
 42
0.00000001
 43
0.00000001
 40
0.0
 40
0.0
 40
0.0
 40
0.0
 40
0.0780801873102069
 40
0.2407100113538782
 40
0.4032818568710049
 40
0.5648397882447626
 40
0.7264110335372148
 40
0.8632198935145632
 40
1.0
 40
1.0
 40
1.0
 40
1.0
 10
156.1848054232896
 20
142.2541205822601
 30
0.0
 10
155.9532723775683
 20
142.1208569210891
 30
0.0
 10
155.2394892273955
 20
141.7100241797932
 30
0.0
 10
154.1495113945087
 20
140.8515148103912
 30
0.0
 10
153.0164976890171
 20
139.6219687956252
 30
0.0
 10
152.1244828621775
 20
138.209318969219
 30
0.0
 10
151.5252039294467
 20
136.7480149256016
 30
0.0
 10
151.174741270033
 20
135.2929814466511
 30
0.0
 10
151.1319134736993
 20
134.3564958634184
 30
0.0
 10
151.1105018260778
 20
133.888302282907
 30
0.0
  0
LINE
  5
FE
330
1F
100
AcDbEntity
  8
0
  6
PHANTOM
 62
     7
370
     0
100
AcDbLine
 10
156.1803760531
 20
142.2551841526
 30
0.0
 11
158.6443873647
 21
142.8000134467
 31
0.0
  0
SPLINE
  5
FF
330
1F
100
AcDbEntity
  8
0
  6
PHANTOM
 62
     7
370
     0
100
AcDbSpline
210
0.0
220
0.0
230
1.0
 70
     8
 71
     3
 72
    12
 73
     8
 74
     0
 42
0.00000001
 43
0.00000001
 40
0.0
 40
0.0
 40
0.0
 40
0.0
 40
0.2206612487672262
 40
0.4413958738844856
 40
0.6601312194342744
 40
0.8738910082372776
 40
1.0
 40
1.0
 40
1.0
 40
1.0
 10
177.8000126185716
 20
153.2049206136837
 30
0.0
 10
177.4291002753834
 20
153.2091940373371
 30
0.0
 10
176.6871522497526
 20
153.217742305683
 30
0.0
 10
175.6974888417993
 20
153.2778564098398
 30
0.0
 10
174.9718037462942
 20
153.3416676218735
 30
0.0
 10
174.5780099923316
 20
153.3851140070371
 30
0.0
 10
174.5886875143672
 20
153.3839570759831
 30
0.0
 10
174.5926494303048
 20
153.3835277943983
 30
0.0
  0
LINE
  5
100
330
1F
100
AcDbEntity
  8
0
  6
PHANTOM
 62
     7
370
     0
100
AcDbLine
 10
177.609735966
 20
153.20853042
 30
0.0
 11
178.5154993239
 21
153.2140922784
 31
0.0
  0
SPLINE
  5
101
330
1F
100
AcDbEntity
  8
0
  6
PHANTOM
 62
     7
370
     0
100
AcDbSpline
210
0.0
220
0.0
230
1.0
 70
     8
 71
     3
 72
    13
 73
     9
 74
     0
 42
0.00000001
 43
0.00000001
 40
0.0
 40
0.0
 40
0.0
 40
0.0
 40
0.0136206122731731
 40
0.2201289544454711
 40
0.42675795278908
 40
0.6369336895919261
 40
0.8521967621042381
 40
1.0
 40
1.0
 40
1.0
 40
1.0
 10
181.0391078296007
 20
153.3871003477945
 30
0.0
 10
181.0427138044636
 20
153.3874978967728
 30
0.0
 10
181.1009916160938
 20
153.3939228679251
 30
0.0
 10
180.8840206361949
 20
153.3693141244271
 30
0.0
 10
180.3828710956723
 20
153.3181777070122
 30
0.0
 10
179.5621053624921
 20
153.2541441551098
 30
0.0
 10
178.6578709017445
 20
153.2115839441555
 30
0.0
 10
178.0482055913757
 20
153.2068484283718
 30
0.0
 10
177.8000126185716
 20
153.2049206136837
 30
0.0
  0
LINE
  5
102
330
1F
100
AcDbEntity
  8
0
  6
PHANTOM
 62
     7
370
     0
100
AcDbLine
 10
165.9084687534
 20
142.2541205823
 30
0.0
 11
173.6039797368
 21
142.2541205823
 31
0.0
  0
LINE
  5
103
330
1F
100
AcDbEntity
  8
0
  6
PHANTOM
 62
     7
370
     0
100
AcDbLine
 10
144.0000122937
 20
142.2541205823
 30
0.0
 11
156.1769785884
 21
142.2541205823
 31
0.0
  0
ARC
  5
104
330
1F
100
AcDbEntity
  8
0
  6
PHANTOM
 62
     7
370
     0
100
AcDbCircle
 10
121.9000122609
 20
125.8883027523
 30
0.0
 40
27.50000000000001
100
AcDbArc
 50
36.52123386
 51
39.890390145
  0
LINE
  5
105
330
1F
100
AcDbEntity
  8
0
  6
PHANTOM
 62
     7
370
     0
100
AcDbLine
 10
143.0000121298
 20
148.3175278693
 30
0.0
 11
143.0000121298
 21
143.5246289759
 31
0.0
  0
ELLIPSE
  5
106
330
1F
100
AcDbEntity
  8
0
  6
PHANTOM
 62
     7
370
     0
100
AcDbEllipse
 10
147.263519885
 20
125.8883027523
 30
0.0
 11
0.0
 21
27.49999999999995
 31
0.0
210
0.0
220
0.0
230
1.0
 40
0.2679491924
 41
0.4958618765711714
 42
0.6170168052861038
  0
ELLIPSE
  5
107
330
1F
100
AcDbEntity
  8
0
  6
PHANTOM
 62
     7
370
     0
100
AcDbEllipse
 10
192.5885952338
 20
125.8883027523
 30
0.0
 11
102.6313972081012
 21
2.842170943040401E-14
 31
0.0
210
0.0
220
0.0
230
1.0
 40
0.2679491924
 41
2.058295896933509
 42
2.06665820336607
  0
ARC
  5
108
330
1F
100
AcDbEntity
  8
0
  6
PHANTOM
 62
     7
370
     0
100
AcDbCircle
 10
131.6326793709
 20
125.8883027523
 30
0.0
 40
27.50000000000193
100
AcDbArc
 50
56.3559613144
 51
62.0683321166
  0
SPLINE
  5
109
330
1F
100
AcDbEntity
  8
0
  6
PHANTOM
 62
     7
370
     0
100
AcDbSpline
210
0.0
220
0.0
230
1.0
 70
     8
 71
     3
 72
    14
 73
    10
 74
     0
 42
0.00000001
 43
0.00000001
 40
0.0
 40
0.0
 40
0.0
 40
0.0
 40
0.2291565975521657
 40
0.3881935093428391
 40
0.5481481601728998
 40
0.685748113033061
 40
0.8118444012154432
 40
0.9427632407404282
 40
1.0
 40
1.0
 40
1.0
 40
1.0
 10
147.4357059749664
 20
148.8823452084436
 30
0.0
 10
147.4171213948622
 20
148.8518966083408
 30
0.0
 10
147.3856389350624
 20
148.8003163830505
 30
0.0
 10
147.2862339807975
 20
148.7445319954569
 30
0.0
 10
147.1802514793678
 20
148.7163721073379
 30
0.0
 10
147.0712497976805
 20
148.7135293285031
 30
0.0
 10
146.9753383263724
 20
148.7306569216527
 30
0.0
 10
146.9096102352174
 20
148.7564205485004
 30
0.0
 10
146.8781250538927
 20
148.7759828881092
 30
0.0
 10
146.8685472908319
 20
148.7819337337389
 30
0.0
  0
ELLIPSE
  5
10A
330
1F
100
AcDbEntity
  8
0
  6
PHANTOM
 62
     7
370
     0
100
AcDbEllipse
 10
151.4774246042
 20
125.8883027523
 30
0.0
 11
0.0
 21
27.49999999999995
 31
0.0
210
0.0
220
0.0
230
1.0
 40
0.2679491924
 41
0.4462162606166906
 42
0.5805757275194166
  0
ELLIPSE
  5
10B
330
1F
100
AcDbEntity
  8
0
  6
PHANTOM
 62
     7
370
     0
100
AcDbEllipse
 10
192.5885952335
 20
125.8883027523
 30
0.0
 11
102.6313972073767
 21
2.842170943040401E-14
 31
0.0
210
0.0
220
0.0
230
1.0
 40
0.2679491924
 41
2.008856584879866
 42
2.017012587411611
  0
ARC
  5
10C
330
1F
100
AcDbEntity
  8
0
  6
PHANTOM
 62
     7
370
     0
100
AcDbCircle
 10
137.3889802665
 20
125.8883027523
 30
0.0
 40
27.50000000000126
100
AcDbArc
 50
59.3496871771
 51
64.9009960393
  0
SPLINE
  5
10D
330
1F
100
AcDbEntity
  8
0
  6
PHANTOM
 62
     7
370
     0
100
AcDbSpline
210
0.0
220
0.0
230
1.0
 70
     8
 71
     3
 72
    14
 73
    10
 74
     0
 42
0.00000001
 43
0.00000001
 40
0.0
 40
0.0
 40
0.0
 40
0.0
 40
0.1880620814523815
 40
0.3769415836449052
 40
0.5431504517783396
 40
0.6850871974799229
 40
0.8169570270463686
 40
0.9530127589646418
 40
1.0
 40
1.0
 40
1.0
 40
1.0
 10
151.9755589368642
 20
149.635803797759
 30
0.0
 10
151.9608276787986
 20
149.6131991431805
 30
0.0
 10
151.9313011325568
 20
149.567891581822
 30
0.0
 10
151.8362262980332
 20
149.5158076422279
 30
0.0
 10
151.7221357287631
 20
149.4881107862039
 30
0.0
 10
151.6104240911228
 20
149.4853877313778
 30
0.0
 10
151.5118919824607
 20
149.5013768609213
 30
0.0
 10
151.4468596024211
 20
149.5248916251999
 30
0.0
 10
151.416254689582
 20
149.5420114695104
 30
0.0
 10
151.4083983900846
 20
149.5464061438217
 30
0.0
  0
ELLIPSE
  5
10E
330
1F
100
AcDbEntity
  8
0
  6
PHANTOM
 62
     7
370
     0
100
AcDbEllipse
 10
155.6913293234
 20
125.8883027523
 30
0.0
 11
-2.842170943040400E-14
 21
27.49999999999995
 31
0.0
210
0.0
220
0.0
230
1.0
 40
0.2679491924
 41
0.3977238297853813
 42
0.5285374387742559
  0
ELLIPSE
  5
10F
330
1F
100
AcDbEntity
  8
0
  6
PHANTOM
 62
     7
370
     0
100
AcDbEllipse
 10
192.5885952338
 20
125.8883027523
 30
0.0
 11
102.6313972081076
 21
2.842170943040401E-14
 31
0.0
210
0.0
220
0.0
230
1.0
 40
0.2679491924
 41
1.960537652724439
 42
1.968520156580279
  0
ARC
  5
110
330
1F
100
AcDbEntity
  8
0
  6
PHANTOM
 62
     7
370
     0
100
AcDbCircle
 10
143.145281162
 20
125.8883027523
 30
0.0
 40
27.50000000000107
100
AcDbArc
 50
62.2533658826
 51
67.6694669224
  0
SPLINE
  5
111
330
1F
100
AcDbEntity
  8
0
  6
PHANTOM
 62
     7
370
     0
100
AcDbSpline
210
0.0
220
0.0
230
1.0
 70
     8
 71
     3
 72
    14
 73
    10
 74
     0
 42
0.00000001
 43
0.00000001
 40
0.0
 40
0.0
 40
0.0
 40
0.0
 40
0.1821638425842405
 40
0.3649428375000019
 40
0.5306014575702847
 40
0.6766662974061073
 40
0.8137920074814949
 40
0.9538910363433876
 40
1.0
 40
1.0
 40
1.0
 40
1.0
 10
156.5154100361169
 20
150.305555114068
 30
0.0
 10
156.5009739260348
 20
150.2858276283204
 30
0.0
 10
156.4720529563127
 20
150.2463060387262
 30
0.0
 10
156.3798204276416
 20
150.2005868702786
 30
0.0
 10
156.2682115235009
 20
150.1752160571929
 30
0.0
 10
156.1556235043893
 20
150.1716077656671
 30
0.0
 10
156.0542057063093
 20
150.185514850913
 30
0.0
 10
155.9872739990547
 20
150.2068246940194
 30
0.0
 10
155.9559948546774
 20
150.222367117342
 30
0.0
 10
155.9482494893373
 20
150.2262157439365
 30
0.0
  0
ELLIPSE
  5
112
330
1F
100
AcDbEntity
  8
0
  6
PHANTOM
 62
     7
370
     0
100
AcDbEllipse
 10
159.9052340426
 20
125.8883027523
 30
0.0
 11
0.0
 21
27.49999999999995
 31
0.0
210
0.0
220
0.0
230
1.0
 40
0.2679491924
 41
0.350200682306381
 42
0.4780361543714454
  0
ELLIPSE
  5
113
330
1F
100
AcDbEntity
  8
0
  6
PHANTOM
 62
     7
370
     0
100
AcDbEllipse
 10
192.5885952338
 20
125.8883027523
 30
0.0
 11
102.6313972080868
 21
2.842170943040401E-14
 31
0.0
210
0.0
220
0.0
230
1.0
 40
0.2679491924
 41
1.913160108588353
 42
1.920997009101279
  0
ARC
  5
114
330
1F
100
AcDbEntity
  8
0
  6
PHANTOM
 62
     7
370
     0
100
AcDbCircle
 10
148.9015820575
 20
125.8883027523
 30
0.0
 40
27.50000000000133
100
AcDbArc
 50
65.0815417337
 51
70.3840002451
  0
SPLINE
  5
115
330
1F
100
AcDbEntity
  8
0
  6
PHANTOM
 62
     7
370
     0
100
AcDbSpline
210
0.0
220
0.0
230
1.0
 70
     8
 71
     3
 72
    14
 73
    10
 74
     0
 42
0.00000001
 43
0.00000001
 40
0.0
 40
0.0
 40
0.0
 40
0.0
 40
0.1773919945413839
 40
0.3552487798836135
 40
0.5202379073370513
 40
0.6696511230140859
 40
0.8114074530934022
 40
0.9552625022849459
 40
1.0
 40
1.0
 40
1.0
 40
1.0
 10
161.0552611353696
 20
150.8983214437141
 30
0.0
 10
161.0410569085954
 20
150.8811402656486
 30
0.0
 10
161.0126112380692
 20
150.8467328925284
 30
0.0
 10
160.9226184706276
 20
150.8067405712156
 30
0.0
 10
160.812989322606
 20
150.7838071433283
 30
0.0
 10
160.6997515619375
 20
150.7797681280014
 30
0.0
 10
160.5958946795482
 20
150.7918347274224
 30
0.0
 10
160.5274307810933
 20
150.8110018117991
 30
0.0
 10
160.4956415565785
 20
150.8249689967643
 30
0.0
 10
160.48810058859
 20
150.8282822608127
 30
0.0
  0
ELLIPSE
  5
116
330
1F
100
AcDbEntity
  8
0
  6
PHANTOM
 62
     7
370
     0
100
AcDbEllipse
 10
164.1191387618
 20
125.8883027523
 30
0.0
 11
0.0
 21
27.49999999999995
 31
0.0
210
0.0
220
0.0
230
1.0
 40
0.2679491924
 41
0.3034892285591231
 42
0.4288242932403493
  0
ELLIPSE
  5
117
330
1F
100
AcDbEntity
  8
0
  6
PHANTOM
 62
     7
370
     0
100
AcDbEllipse
 10
192.5885952339
 20
125.8883027523
 30
0.0
 11
102.6313972083837
 21
2.842170943040401E-14
 31
0.0
210
0.0
220
0.0
230
1.0
 40
0.2679491924
 41
1.866570085494667
 42
1.874285555354008
  0
ARC
  5
118
330
1F
100
AcDbEntity
  8
0
  6
PHANTOM
 62
     7
370
     0
100
AcDbCircle
 10
154.6578829531
 20
125.8883027523
 30
0.0
 40
27.50000000000094
100
AcDbArc
 50
67.8462384022
 51
73.0534119358
  0
SPLINE
  5
119
330
1F
100
AcDbEntity
  8
0
  6
PHANTOM
 62
     7
370
     0
100
AcDbSpline
210
0.0
220
0.0
230
1.0
 70
     8
 71
     3
 72
    14
 73
    10
 74
     0
 42
0.00000001
 43
0.00000001
 40
0.0
 40
0.0
 40
0.0
 40
0.0
 40
0.1735166539568316
 40
0.347376525853747
 40
0.5116737347253514
 40
0.6638105568540373
 40
0.8096218416256737
 40
0.9568832361197519
 40
1.0
 40
1.0
 40
1.0
 40
1.0
 10
165.5951122346223
 20
151.4194690673723
 30
0.0
 10
165.5810880484038
 20
151.4045845957964
 30
0.0
 10
165.5530119359649
 20
151.3747862109884
 30
0.0
 10
165.4648079691294
 20
151.3400113475847
 30
0.0
 10
165.3567665279092
 20
151.3195568649565
 30
0.0
 10
165.243031470647
 20
151.3154053431282
 30
0.0
 10
165.1371122432076
 20
151.3258317630626
 30
0.0
 10
165.0674161149671
 20
151.3429012760899
 30
0.0
 10
165.0352391199185
 20
151.3553105415936
 30
0.0
 10
165.0279516878427
 20
151.3581209867372
 30
0.0
  0
ELLIPSE
  5
11A
330
1F
100
AcDbEntity
  8
0
  6
PHANTOM
 62
     7
370
     0
100
AcDbEllipse
 10
168.333043481
 20
125.8883027523
 30
0.0
 11
0.0
 21
27.49999999999995
 31
0.0
210
0.0
220
0.0
230
1.0
 40
0.2679491924
 41
0.2574518989132169
 42
0.3806966242592444
  0
ELLIPSE
  5
11B
330
1F
100
AcDbEntity
  8
0
  6
PHANTOM
 62
     7
370
     0
100
AcDbEllipse
 10
192.5885952338
 20
125.8883027523
 30
0.0
 11
102.6313972081453
 21
2.842170943040401E-14
 31
0.0
210
0.0
220
0.0
230
1.0
 40
0.2679491924
 41
1.820632858294982
 42
1.828248225708109
  0
ARC
  5
11C
330
1F
100
AcDbEntity
  8
0
  6
PHANTOM
 62
     7
370
     0
100
AcDbCircle
 10
160.4141838486
 20
125.8883027523
 30
0.0
 40
27.49999999999997
100
AcDbArc
 50
70.5576058925
 51
75.6854211769
  0
SPLINE
  5
11D
330
1F
100
AcDbEntity
  8
0
  6
PHANTOM
 62
     7
370
     0
100
AcDbSpline
210
0.0
220
0.0
230
1.0
 70
     8
 71
     3
 72
    14
 73
    10
 74
     0
 42
0.00000001
 43
0.00000001
 40
0.0
 40
0.0
 40
0.0
 40
0.0
 40
0.170364875730448
 40
0.3409814275219784
 40
0.504615574872278
 40
0.6589844877076114
 40
0.8082979886748756
 40
0.9586075031006481
 40
1.0
 40
1.0
 40
1.0
 40
1.0
 10
170.134963333875
 20
151.8733044206276
 30
0.0
 10
170.1210811348433
 20
151.8605248960004
 30
0.0
 10
170.0932962289309
 20
151.834946967852
 30
0.0
 10
170.0065157800774
 20
151.804999235912
 30
0.0
 10
169.8997506639162
 20
151.7870211456964
 30
0.0
 10
169.7856251045518
 20
151.7829867952785
 30
0.0
 10
169.6779688710778
 20
151.7919274845446
 30
0.0
 10
169.6072805377758
 20
151.8069360029968
 30
0.0
 10
169.5748162376942
 20
151.8178112373589
 30
0.0
 10
169.5678065123857
 20
151.8201594292297
 30
0.0
  0
ELLIPSE
  5
11E
330
1F
100
AcDbEntity
  8
0
  6
PHANTOM
 62
     7
370
     0
100
AcDbEllipse
 10
172.5469482002
 20
125.8883027523
 30
0.0
 11
0.0
 21
27.49999999999995
 31
0.0
210
0.0
220
0.0
230
1.0
 40
0.2679491924
 41
0.211966438192812
 42
0.3334794655601998
  0
ELLIPSE
  5
11F
330
1F
100
AcDbEntity
  8
0
  6
PHANTOM
 62
     7
370
     0
100
AcDbEllipse
 10
192.5885952338
 20
125.8883027523
 30
0.0
 11
102.6313972081653
 21
2.842170943040401E-14
 31
0.0
210
0.0
220
0.0
230
1.0
 40
0.2679491924
 41
1.774763429980554
 42
1.782762764987704
  0
LINE
  5
120
330
1F
100
AcDbEntity
  8
0
  6
PHANTOM
 62
     7
370
     0
100
AcDbLine
 10
171.8000116351
 20
153.3883036166
 30
0.0
 11
171.8000116351
 21
152.8182485192
 31
0.0
  0
SPLINE
  5
121
330
1F
100
AcDbEntity
  8
0
  6
PHANTOM
 62
     7
370
     0
100
AcDbSpline
210
0.0
220
0.0
230
1.0
 70
     8
 71
     3
 72
    10
 73
     6
 74
     0
 42
0.00000001
 43
0.00000001
 40
0.0
 40
0.0
 40
0.0
 40
0.0
 40
0.4685265029335729
 40
0.9376645511565774
 40
1.0
 40
1.0
 40
1.0
 40
1.0
 10
189.0000159445108
 20
152.8965336321964
 30
0.0
 10
189.0337128328439
 20
152.9598754358928
 30
0.0
 10
189.1011505924509
 20
153.0866417203196
 30
0.0
 10
189.4909034239598
 20
153.1740650185346
 30
0.0
 10
189.7548420513117
 20
153.2090134915163
 30
0.0
 10
189.7857988777459
 20
153.21311252705
 30
0.0
  0
LINE
  5
122
330
1F
100
AcDbEntity
  8
0
  6
PHANTOM
 62
     7
370
     0
100
AcDbLine
 10
189.0000159445
 20
152.6438397407
 30
0.0
 11
189.0000159445
 21
152.8965336322
 31
0.0
  0
LINE
  5
123
330
1F
100
AcDbEntity
  8
0
  6
PHANTOM
 62
     7
370
     0
100
AcDbLine
 10
151.5812891128
 20
133.8883022829
 30
0.0
 11
151.5812891128
 21
120.888302946
 31
0.0
  0
LINE
  5
124
330
1F
100
AcDbEntity
  8
0
  6
PHANTOM
 62
     7
370
     0
100
AcDbLine
 10
151.1113623681
 20
133.8883022829
 30
0.0
 11
151.1113623681
 21
120.888302946
 31
0.0
  0
SPLINE
  5
125
330
1F
100
AcDbEntity
  8
0
  6
PHANTOM
 62
     7
370
     0
100
AcDbSpline
210
0.0
220
0.0
230
1.0
 70
     8
 71
     3
 72
    11
 73
     7
 74
     0
 42
0.00000001
 43
0.00000001
 40
0.0
 40
0.0
 40
0.0
 40
0.0
 40
0.2491406825545016
 40
0.3747240903173219
 40
0.5004748657348526
 40
1.0
 40
1.0
 40
1.0
 40
1.0
 10
148.6230901035369
 20
120.2428698591068
 30
0.0
 10
148.6098763816113
 20
120.1298301196093
 30
0.0
 10
148.5900020685224
 20
119.9598108633458
 30
0.0
 10
148.441663608558
 20
119.7867385908474
 30
0.0
 10
148.1610063556154
 20
119.6010548205897
 30
0.0
 10
147.8751188628321
 20
119.5861264017745
 30
0.0
 10
147.6467269065679
 20
119.5742002739682
 30
0.0
  0
SPLINE
  5
126
330
1F
100
AcDbEntity
  8
0
  6
PHANTOM
 62
     7
370
     0
100
AcDbSpline
210
0.0
220
0.0
230
1.0
 70
     8
 71
     3
 72
    11
 73
     7
 74
     0
 42
0.00000001
 43
0.00000001
 40
0.0
 40
0.0
 40
0.0
 40
0.0
 40
0.4996109593772657
 40
0.6253670299947135
 40
0.7509498679870931
 40
0.9999999999999999
 40
0.9999999999999999
 40
0.9999999999999999
 40
0.9999999999999999
 10
147.6467269065679
 20
120.9075333601906
 30
0.0
 10
147.8745808386402
 20
120.8958305231618
 30
0.0
 10
148.1597874260824
 20
120.8811819885413
 30
0.0
 10
148.4405748647769
 20
120.697137741178
 30
0.0
 10
148.5896260235379
 20
120.525312735587
 30
0.0
 10
148.609727173686
 20
120.3556553994651
 30
0.0
 10
148.6230901035369
 20
120.2428698591068
 30
0.0
  0
SPLINE
  5
127
330
1F
100
AcDbEntity
  8
0
  6
PHANTOM
 62
     7
370
     0
100
AcDbSpline
210
0.0
220
0.0
230
1.0
 70
     8
 71
     3
 72
    11
 73
     7
 74
     0
 42
0.00000001
 43
0.00000001
 40
0.0
 40
0.0
 40
0.0
 40
0.0
 40
0.2491323993858327
 40
0.3747121753782545
 40
0.5004511556395353
 40
1.0
 40
1.0
 40
1.0
 40
1.0
 10
146.67437212196
 20
120.2428698591068
 30
0.0
 10
146.6874625070184
 20
120.3554404055476
 30
0.0
 10
146.7071513418463
 20
120.5247542099518
 30
0.0
 10
146.8552437728436
 20
120.6966855461876
 30
0.0
 10
147.1346658184967
 20
120.8813955514163
 30
0.0
 10
147.419316535052
 20
120.8959253529773
 30
0.0
 10
147.6467269065679
 20
120.9075333601906
 30
0.0
  0
SPLINE
  5
128
330
1F
100
AcDbEntity
  8
0
  6
PHANTOM
 62
     7
370
     0
100
AcDbSpline
210
0.0
220
0.0
230
1.0
 70
     8
 71
     3
 72
    11
 73
     7
 74
     0
 42
0.00000001
 43
0.00000001
 40
0.0
 40
0.0
 40
0.0
 40
0.0
 40
0.4994593503333179
 40
0.6252001807207656
 40
0.750802115710692
 40
0.9999999999999999
 40
0.9999999999999999
 40
0.9999999999999999
 40
0.9999999999999999
 10
147.6467269065679
 20
119.5742002739682
 30
0.0
 10
147.4188653324709
 20
119.5862062800549
 30
0.0
 10
147.1336387225183
 20
119.6012348447821
 30
0.0
 10
146.8537980438289
 20
119.7869126714461
 30
0.0
 10
146.7066336119314
 20
119.9603756947136
 30
0.0
 10
146.6872559755365
 20
120.1300538219832
 30
0.0
 10
146.67437212196
 20
120.2428698591068
 30
0.0
  0
SPLINE
  5
129
330
1F
100
AcDbEntity
  8
0
  6
PHANTOM
 62
     7
370
     0
100
AcDbSpline
210
0.0
220
0.0
230
1.0
 70
     8
 71
     3
 72
     9
 73
     5
 74
     0
 42
0.00000001
 43
0.00000001
 40
0.0
 40
0.0
 40
0.0
 40
0.0
 40
0.5599667290788763
 40
1.0
 40
1.0
 40
1.0
 40
1.0
 10
146.67437212196
 20
123.3458348135575
 30
0.0
 10
146.6796002009696
 20
123.4441517710208
 30
0.0
 10
146.688936611042
 20
123.6197281979006
 30
0.0
 10
146.7940038613771
 20
123.7592154098163
 30
0.0
 10
146.8402369472087
 20
123.8205944239273
 30
0.0
  0
SPLINE
  5
12A
330
1F
100
AcDbEntity
  8
0
  6
PHANTOM
 62
     7
370
     0
100
AcDbSpline
210
0.0
220
0.0
230
1.0
 70
     8
 71
     3
 72
    11
 73
     7
 74
     0
 42
0.00000001
 43
0.00000001
 40
0.0
 40
0.0
 40
0.0
 40
0.0
 40
0.2806891231110399
 40
0.5595495664804412
 40
0.7793497903156041
 40
1.0
 40
1.0
 40
1.0
 40
1.0
 10
147.4295797350705
 20
122.6511233537569
 30
0.0
 10
147.3203574149051
 20
122.657785231098
 30
0.0
 10
147.1026243541395
 20
122.6710655838842
 30
0.0
 10
146.8332902694701
 20
122.8381285512431
 30
0.0
 10
146.6912871135587
 20
123.0888321794431
 30
0.0
 10
146.6800177017691
 20
123.2600571249563
 30
0.0
 10
146.67437212196
 20
123.3458348135575
 30
0.0
  0
SPLINE
  5
12B
330
1F
100
AcDbEntity
  8
0
  6
PHANTOM
 62
     7
370
     0
100
AcDbSpline
210
0.0
220
0.0
230
1.0
 70
     8
 71
     3
 72
     9
 73
     5
 74
     0
 42
0.00000001
 43
0.00000001
 40
0.0
 40
0.0
 40
0.0
 40
0.0
 40
0.5587360419514176
 40
1.0
 40
1.0
 40
1.0
 40
1.0
 10
147.9303816857637
 20
122.7765238429531
 30
0.0
 10
147.8417628748133
 20
122.7331049868174
 30
0.0
 10
147.6831570139118
 20
122.6553959205039
 30
0.0
 10
147.5072161132702
 20
122.6524314623121
 30
0.0
 10
147.4295797350705
 20
122.6511233537569
 30
0.0
  0
LINE
  5
12C
330
1F
100
AcDbEntity
  8
0
  6
PHANTOM
 62
     7
370
     0
100
AcDbLine
 10
148.1210867467
 20
122.617469314
 30
0.0
 11
147.9303816858
 21
122.776523843
 31
0.0
  0
LINE
  5
12D
330
1F
100
AcDbEntity
  8
0
  6
PHANTOM
 62
     7
370
     0
100
AcDbLine
 10
148.1980084035
 20
122.7016040641
 30
0.0
 11
148.1210867467
 21
122.617469314
 31
0.0
  0
LINE
  5
12E
330
1F
100
AcDbEntity
  8
0
  6
PHANTOM
 62
     7
370
     0
100
AcDbLine
 10
148.0157169106
 20
122.8522450249
 30
0.0
 11
148.1980084035
 21
122.7016040641
 31
0.0
  0
SPLINE
  5
12F
330
1F
100
AcDbEntity
  8
0
  6
PHANTOM
 62
     7
370
     0
100
AcDbSpline
210
0.0
220
0.0
230
1.0
 70
     8
 71
     3
 72
     9
 73
     5
 74
     0
 42
0.00000001
 43
0.00000001
 40
0.0
 40
0.0
 40
0.0
 40
0.0
 40
0.5598533813456201
 40
1.0
 40
1.0
 40
1.0
 40
1.0
 10
148.1871920230687
 20
123.3326137582882
 30
0.0
 10
148.1806567534229
 20
123.2331882988046
 30
0.0
 10
148.1689835727946
 20
123.055596338487
 30
0.0
 10
148.0625592267046
 20
122.9143945254419
 30
0.0
 10
148.0157169106305
 20
122.8522450248822
 30
0.0
  0
SPLINE
  5
130
330
1F
100
AcDbEntity
  8
0
  6
PHANTOM
 62
     7
370
     0
100
AcDbSpline
210
0.0
220
0.0
230
1.0
 70
     8
 71
     3
 72
    11
 73
     7
 74
     0
 42
0.00000001
 43
0.00000001
 40
0.0
 40
0.0
 40
0.0
 40
0.0
 40
0.2806230698051088
 40
0.5594437962178452
 40
0.7793146500618987
 40
1.0
 40
1.0
 40
1.0
 40
1.0
 10
147.4303806724847
 20
124.0357386698126
 30
0.0
 10
147.5402964109292
 20
124.0286964097229
 30
0.0
 10
147.7594219376443
 20
124.014657119506
 30
0.0
 10
148.0299081747496
 20
123.8448990470886
 30
0.0
 10
148.1705363577287
 20
123.5913069628479
 30
0.0
 10
148.1816332959843
 20
123.4189510431332
 30
0.0
 10
148.1871920230687
 20
123.3326137582882
 30
0.0
  0
SPLINE
  5
131
330
1F
100
AcDbEntity
  8
0
  6
PHANTOM
 62
     7
370
     0
100
AcDbSpline
210
0.0
220
0.0
230
1.0
 70
     8
 71
     3
 72
     9
 73
     5
 74
     0
 42
0.00000001
 43
0.00000001
 40
0.0
 40
0.0
 40
0.0
 40
0.0
 40
0.5584356063431197
 40
1.0
 40
1.0
 40
1.0
 40
1.0
 10
146.9283773156703
 20
123.8995207524969
 30
0.0
 10
147.0164295130775
 20
123.9463155677406
 30
0.0
 10
147.174106058783
 20
124.0301118277071
 30
0.0
 10
147.3518814081391
 20
124.0340151164747
 30
0.0
 10
147.4303806724847
 20
124.0357386698126
 30
0.0
  0
LINE
  5
132
330
1F
100
AcDbEntity
  8
0
  6
PHANTOM
 62
     7
370
     0
100
AcDbLine
 10
146.7120310816
 20
124.0721970382
 30
0.0
 11
146.9283773157
 21
123.8995207525
 31
0.0
  0
LINE
  5
133
330
1F
100
AcDbEntity
  8
0
  6
PHANTOM
 62
     7
370
     0
100
AcDbLine
 10
146.6555407795
 20
123.9872611179
 30
0.0
 11
146.7120310816
 21
124.0721970382
 31
0.0
  0
LINE
  5
134
330
1F
100
AcDbEntity
  8
0
  6
PHANTOM
 62
     7
370
     0
100
AcDbLine
 10
146.8402369472
 20
123.8205944239
 30
0.0
 11
146.6555407795
 21
123.9872611179
 31
0.0
  0
SPLINE
  5
135
330
1F
100
AcDbEntity
  8
0
  6
PHANTOM
 62
     7
370
     0
100
AcDbSpline
210
0.0
220
0.0
230
1.0
 70
     8
 71
     3
 72
    11
 73
     7
 74
     0
 42
0.00000001
 43
0.00000001
 40
0.0
 40
0.0
 40
0.0
 40
0.0
 40
0.2797271497312111
 40
0.5586116566179808
 40
0.7790231742491189
 40
1.0
 40
1.0
 40
1.0
 40
1.0
 10
147.2869514080585
 20
121.0870206407382
 30
0.0
 10
147.190574137947
 20
121.0964768152091
 30
0.0
 10
146.9981099221243
 20
121.1153606786148
 30
0.0
 10
146.7885079598414
 20
121.3025463474204
 30
0.0
 10
146.6868784848101
 20
121.5299672410318
 30
0.0
 10
146.6785444675076
 20
121.6803851702281
 30
0.0
 10
146.67437212196
 20
121.7556904587074
 30
0.0
  0
SPLINE
  5
136
330
1F
100
AcDbEntity
  8
0
  6
PHANTOM
 62
     7
370
     0
100
AcDbSpline
210
0.0
220
0.0
230
1.0
 70
     8
 71
     3
 72
    10
 73
     6
 74
     0
 42
0.00000001
 43
0.00000001
 40
0.0
 40
0.0
 40
0.0
 40
0.0
 40
0.2809217775832673
 40
0.561175806364886
 40
1.0
 40
1.0
 40
1.0
 40
1.0
 10
147.7753332408965
 20
121.4099371857121
 30
0.0
 10
147.74993957685
 20
121.3570154552699
 30
0.0
 10
147.6992126092919
 20
121.2512977889124
 30
0.0
 10
147.5319217031605
 20
121.1122291072059
 30
0.0
 10
147.3797907447094
 20
121.0965741962167
 30
0.0
 10
147.2869514080585
 20
121.0870206407382
 30
0.0
  0
SPLINE
  5
137
330
1F
100
AcDbEntity
  8
0
  6
PHANTOM
 62
     7
370
     0
100
AcDbSpline
210
0.0
220
0.0
230
1.0
 70
     8
 71
     3
 72
    10
 73
     6
 74
     0
 42
0.00000001
 43
0.00000001
 40
0.0
 40
0.0
 40
0.0
 40
0.0
 40
0.281115392977589
 40
0.5614403733937349
 40
0.9999999999999999
 40
0.9999999999999999
 40
0.9999999999999999
 40
0.9999999999999999
 10
148.1559424254001
 20
121.1639436944499
 30
0.0
 10
148.1108345697731
 20
121.166711448107
 30
0.0
 10
148.0207456883428
 20
121.1722391733242
 30
0.0
 10
147.8704125892753
 20
121.2454746828515
 30
0.0
 10
147.8113591351137
 20
121.3476217740925
 30
0.0
 10
147.7753332408965
 20
121.4099371857121
 30
0.0
  0
SPLINE
  5
138
330
1F
100
AcDbEntity
  8
0
  6
PHANTOM
 62
     7
370
     0
100
AcDbSpline
210
0.0
220
0.0
230
1.0
 70
     8
 71
     3
 72
    11
 73
     7
 74
     0
 42
0.00000001
 43
0.00000001
 40
0.0
 40
0.0
 40
0.0
 40
0.0
 40
0.2808615977653276
 40
0.5605902797057806
 40
0.7802888580022864
 40
1.0
 40
1.0
 40
1.0
 40
1.0
 10
148.6230901035369
 20
121.7556904587074
 30
0.0
 10
148.6183072413526
 20
121.6765135863654
 30
0.0
 10
148.6087608096902
 20
121.5184792186711
 30
0.0
 10
148.5050899742122
 20
121.318704498618
 30
0.0
 10
148.3431121411448
 20
121.1840063961291
 30
0.0
 10
148.2183335198811
 20
121.17063138915
 30
0.0
 10
148.1559424254001
 20
121.1639436944499
 30
0.0
  0
SPLINE
  5
139
330
1F
100
AcDbEntity
  8
0
  6
PHANTOM
 62
     7
370
     0
100
AcDbSpline
210
0.0
220
0.0
230
1.0
 70
     8
 71
     3
 72
    10
 73
     6
 74
     0
 42
0.00000001
 43
0.00000001
 40
0.0
 40
0.0
 40
0.0
 40
0.0
 40
0.2796465688002976
 40
0.5599836135002759
 40
1.0
 40
1.0
 40
1.0
 40
1.0
 10
148.1559424254001
 20
122.3434309060796
 30
0.0
 10
148.2349629526925
 20
122.3321592088563
 30
0.0
 10
148.3931991170187
 20
122.3095879834397
 30
0.0
 10
148.5902833233263
 20
122.0824720366446
 30
0.0
 10
148.6106496551033
 20
121.8796072022364
 30
0.0
 10
148.6230901035369
 20
121.7556904587074
 30
0.0
  0
SPLINE
  5
13A
330
1F
100
AcDbEntity
  8
0
  6
PHANTOM
 62
     7
370
     0
100
AcDbSpline
210
0.0
220
0.0
230
1.0
 70
     8
 71
     3
 72
    10
 73
     6
 74
     0
 42
0.00000001
 43
0.00000001
 40
0.0
 40
0.0
 40
0.0
 40
0.0
 40
0.2810466576431481
 40
0.5613114225583117
 40
0.9999999999999999
 40
0.9999999999999999
 40
0.9999999999999999
 40
0.9999999999999999
 10
147.7753332408965
 20
122.0942322681769
 30
0.0
 10
147.796151534937
 20
122.134560662324
 30
0.0
 10
147.8377302049737
 20
122.2151052540228
 30
0.0
 10
147.9658599508047
 20
122.3239480136868
 30
0.0
 10
148.083910643421
 20
122.3360478611138
 30
0.0
 10
148.1559424254001
 20
122.3434309060796
 30
0.0
  0
SPLINE
  5
13B
330
1F
100
AcDbEntity
  8
0
  6
PHANTOM
 62
     7
370
     0
100
AcDbSpline
210
0.0
220
0.0
230
1.0
 70
     8
 71
     3
 72
    10
 73
     6
 74
     0
 42
0.00000001
 43
0.00000001
 40
0.0
 40
0.0
 40
0.0
 40
0.0
 40
0.2812914593007943
 40
0.5617778431250149
 40
1.0
 40
1.0
 40
1.0
 40
1.0
 10
147.2869514080585
 20
122.4203539597913
 30
0.0
 10
147.3455908055157
 20
122.4164625197038
 30
0.0
 10
147.462701770447
 20
122.4086907770977
 30
0.0
 10
147.6581621553363
 20
122.3122837163583
 30
0.0
 10
147.7309511824506
 20
122.1768257857766
 30
0.0
 10
147.7753332408965
 20
122.0942322681769
 30
0.0
  0
SPLINE
  5
13C
330
1F
100
AcDbEntity
  8
0
  6
PHANTOM
 62
     7
370
     0
100
AcDbSpline
210
0.0
220
0.0
230
1.0
 70
     8
 71
     3
 72
    11
 73
     7
 74
     0
 42
0.00000001
 43
0.00000001
 40
0.0
 40
0.0
 40
0.0
 40
0.0
 40
0.2804695387968028
 40
0.559547970692176
 40
0.7794893637068118
 40
1.0
 40
1.0
 40
1.0
 40
1.0
 10
146.67437212196
 20
121.7556904587074
 30
0.0
 10
146.6811584295468
 20
121.8514182500194
 30
0.0
 10
146.6946973851674
 20
122.0423990303112
 30
0.0
 10
146.8452772068493
 20
122.2744661137235
 30
0.0
 10
147.0615651380952
 20
122.403697293886
 30
0.0
 10
147.2117579479919
 20
122.4147969560625
 30
0.0
 10
147.2869514080585
 20
122.4203539597913
 30
0.0
  0
LINE
  5
13D
330
1F
100
AcDbEntity
  8
0
  6
PHANTOM
 62
     7
370
     0
100
AcDbLine
 10
144.0000122937
 20
122.0383028551
 30
0.0
 11
144.0000122937
 21
121.2383028171
 31
0.0
  0
LINE
  5
13E
330
1F
100
AcDbEntity
  8
0
  6
PHANTOM
 62
     7
370
     0
100
AcDbLine
 10
144.0000122937
 20
122.0383028551
 30
0.0
 11
146.5000117722
 21
122.0383028551
 31
0.0
  0
LINE
  5
13F
330
1F
100
AcDbEntity
  8
0
  6
PHANTOM
 62
     7
370
     0
100
AcDbLine
 10
146.5000117722
 20
122.0383028551
 30
0.0
 11
146.5000117722
 21
122.2383027482
 31
0.0
  0
LINE
  5
140
330
1F
100
AcDbEntity
  8
0
  6
PHANTOM
 62
     7
370
     0
100
AcDbLine
 10
146.5000117722
 20
122.2383027482
 30
0.0
 11
144.0000122937
 21
122.2383027482
 31
0.0
  0
LINE
  5
141
330
1F
100
AcDbEntity
  8
0
  6
PHANTOM
 62
     7
370
     0
100
AcDbLine
 10
144.0000122937
 20
123.0383027862
 30
0.0
 11
144.0000122937
 21
122.2383027482
 31
0.0
  0
LINE
  5
142
330
1F
100
AcDbEntity
  8
0
  6
PHANTOM
 62
     7
370
     0
100
AcDbLine
 10
144.0000122937
 20
123.0383027862
 30
0.0
 11
145.5000116083
 21
123.0383027862
 31
0.0
  0
LINE
  5
143
330
1F
100
AcDbEntity
  8
0
  6
PHANTOM
 62
     7
370
     0
100
AcDbLine
 10
145.5000116083
 20
123.0383027862
 30
0.0
 11
145.5000116083
 21
123.2383026793
 31
0.0
  0
LINE
  5
144
330
1F
100
AcDbEntity
  8
0
  6
PHANTOM
 62
     7
370
     0
100
AcDbLine
 10
145.5000116083
 20
123.2383026793
 30
0.0
 11
144.0000122937
 21
123.2383026793
 31
0.0
  0
LINE
  5
145
330
1F
100
AcDbEntity
  8
0
  6
PHANTOM
 62
     7
370
     0
100
AcDbLine
 10
144.0000122937
 20
124.0383027173
 30
0.0
 11
144.0000122937
 21
123.2383026793
 31
0.0
  0
LINE
  5
146
330
1F
100
AcDbEntity
  8
0
  6
PHANTOM
 62
     7
370
     0
100
AcDbLine
 10
144.0000122937
 20
124.0383027173
 30
0.0
 11
145.5000116083
 21
124.0383027173
 31
0.0
  0
LINE
  5
147
330
1F
100
AcDbEntity
  8
0
  6
PHANTOM
 62
     7
370
     0
100
AcDbLine
 10
145.5000116083
 20
124.0383027173
 30
0.0
 11
145.5000116083
 21
124.2383027268
 31
0.0
  0
LINE
  5
148
330
1F
100
AcDbEntity
  8
0
  6
PHANTOM
 62
     7
370
     0
100
AcDbLine
 10
145.5000116083
 20
124.2383027268
 30
0.0
 11
144.0000122937
 21
124.2383027268
 31
0.0
  0
LINE
  5
149
330
1F
100
AcDbEntity
  8
0
  6
PHANTOM
 62
     7
370
     0
100
AcDbLine
 10
144.0000122937
 20
125.0383027648
 30
0.0
 11
144.0000122937
 21
124.2383027268
 31
0.0
  0
LINE
  5
14A
330
1F
100
AcDbEntity
  8
0
  6
PHANTOM
 62
     7
370
     0
100
AcDbLine
 10
144.0000122937
 20
125.0383027648
 30
0.0
 11
145.5000116083
 21
125.0383027648
 31
0.0
  0
LINE
  5
14B
330
1F
100
AcDbEntity
  8
0
  6
PHANTOM
 62
     7
370
     0
100
AcDbLine
 10
145.5000116083
 20
125.0383027648
 30
0.0
 11
145.5000116083
 21
125.2383027452
 31
0.0
  0
LINE
  5
14C
330
1F
100
AcDbEntity
  8
0
  6
PHANTOM
 62
     7
370
     0
100
AcDbLine
 10
145.5000116083
 20
125.2383027452
 30
0.0
 11
144.0000122937
 21
125.2383027452
 31
0.0
  0
LINE
  5
14D
330
1F
100
AcDbEntity
  8
0
  6
PHANTOM
 62
     7
370
     0
100
AcDbLine
 10
144.0000122937
 20
126.0383027541
 30
0.0
 11
144.0000122937
 21
125.2383027452
 31
0.0
  0
LINE
  5
14E
330
1F
100
AcDbEntity
  8
0
  6
PHANTOM
 62
     7
370
     0
100
AcDbLine
 10
144.0000122937
 20
126.0383027541
 30
0.0
 11
145.5000116083
 21
126.0383027541
 31
0.0
  0
LINE
  5
14F
330
1F
100
AcDbEntity
  8
0
  6
PHANTOM
 62
     7
370
     0
100
AcDbLine
 10
145.5000116083
 20
126.0383027541
 30
0.0
 11
145.5000116083
 21
126.2383027636
 31
0.0
  0
LINE
  5
150
330
1F
100
AcDbEntity
  8
0
  6
PHANTOM
 62
     7
370
     0
100
AcDbLine
 10
145.5000116083
 20
126.2383027636
 30
0.0
 11
144.0000122937
 21
126.2383027636
 31
0.0
  0
LINE
  5
151
330
1F
100
AcDbEntity
  8
0
  6
PHANTOM
 62
     7
370
     0
100
AcDbLine
 10
144.0000122937
 20
127.0383027434
 30
0.0
 11
144.0000122937
 21
126.2383027636
 31
0.0
  0
LINE
  5
152
330
1F
100
AcDbEntity
  8
0
  6
PHANTOM
 62
     7
370
     0
100
AcDbLine
 10
144.0000122937
 20
127.0383027434
 30
0.0
 11
146.5000117722
 21
127.0383027434
 31
0.0
  0
LINE
  5
153
330
1F
100
AcDbEntity
  8
0
  6
PHANTOM
 62
     7
370
     0
100
AcDbLine
 10
146.5000117722
 20
127.0383027434
 30
0.0
 11
146.5000117722
 21
127.2383027529
 31
0.0
  0
LINE
  5
154
330
1F
100
AcDbEntity
  8
0
  6
PHANTOM
 62
     7
370
     0
100
AcDbLine
 10
146.5000117722
 20
127.2383027529
 30
0.0
 11
144.0000122937
 21
127.2383027529
 31
0.0
  0
LINE
  5
155
330
1F
100
AcDbEntity
  8
0
  6
PHANTOM
 62
     7
370
     0
100
AcDbLine
 10
144.0000122937
 20
128.0383026744
 30
0.0
 11
144.0000122937
 21
127.2383027529
 31
0.0
  0
LINE
  5
156
330
1F
100
AcDbEntity
  8
0
  6
PHANTOM
 62
     7
370
     0
100
AcDbLine
 10
144.0000122937
 20
128.0383026744
 30
0.0
 11
145.5000116083
 21
128.0383026744
 31
0.0
  0
LINE
  5
157
330
1F
100
AcDbEntity
  8
0
  6
PHANTOM
 62
     7
370
     0
100
AcDbLine
 10
145.5000116083
 20
128.0383026744
 30
0.0
 11
145.5000116083
 21
128.2383028003
 31
0.0
  0
LINE
  5
158
330
1F
100
AcDbEntity
  8
0
  6
PHANTOM
 62
     7
370
     0
100
AcDbLine
 10
145.5000116083
 20
128.2383028003
 30
0.0
 11
144.0000122937
 21
128.2383028003
 31
0.0
  0
LINE
  5
159
330
1F
100
AcDbEntity
  8
0
  6
PHANTOM
 62
     7
370
     0
100
AcDbLine
 10
144.0000122937
 20
129.0383028383
 30
0.0
 11
144.0000122937
 21
128.2383028003
 31
0.0
  0
LINE
  5
15A
330
1F
100
AcDbEntity
  8
0
  6
PHANTOM
 62
     7
370
     0
100
AcDbLine
 10
144.0000122937
 20
129.0383028383
 30
0.0
 11
145.5000116083
 21
129.0383028383
 31
0.0
  0
LINE
  5
15B
330
1F
100
AcDbEntity
  8
0
  6
PHANTOM
 62
     7
370
     0
100
AcDbLine
 10
145.5000116083
 20
129.0383028383
 30
0.0
 11
145.5000116083
 21
129.2383027314
 31
0.0
  0
LINE
  5
15C
330
1F
100
AcDbEntity
  8
0
  6
PHANTOM
 62
     7
370
     0
100
AcDbLine
 10
145.5000116083
 20
129.2383027314
 30
0.0
 11
144.0000122937
 21
129.2383027314
 31
0.0
  0
LINE
  5
15D
330
1F
100
AcDbEntity
  8
0
  6
PHANTOM
 62
     7
370
     0
100
AcDbLine
 10
144.0000122937
 20
130.0383027694
 30
0.0
 11
144.0000122937
 21
129.2383027314
 31
0.0
  0
LINE
  5
15E
330
1F
100
AcDbEntity
  8
0
  6
PHANTOM
 62
     7
370
     0
100
AcDbLine
 10
144.0000122937
 20
130.0383027694
 30
0.0
 11
145.5000116083
 21
130.0383027694
 31
0.0
  0
LINE
  5
15F
330
1F
100
AcDbEntity
  8
0
  6
PHANTOM
 62
     7
370
     0
100
AcDbLine
 10
145.5000116083
 20
130.0383027694
 30
0.0
 11
145.5000116083
 21
130.2383028953
 31
0.0
  0
LINE
  5
160
330
1F
100
AcDbEntity
  8
0
  6
PHANTOM
 62
     7
370
     0
100
AcDbLine
 10
145.5000116083
 20
130.2383028953
 30
0.0
 11
144.0000122937
 21
130.2383028953
 31
0.0
  0
LINE
  5
161
330
1F
100
AcDbEntity
  8
0
  6
PHANTOM
 62
     7
370
     0
100
AcDbLine
 10
144.0000122937
 20
142.2541205823
 30
0.0
 11
144.0000122937
 21
130.2383028953
 31
0.0
  0
LINE
  5
162
330
1F
100
AcDbEntity
  8
0
  6
PHANTOM
 62
     7
370
     0
100
AcDbLine
 10
170.9732989374
 20
120.888302946
 30
0.0
 11
170.9732989374
 21
133.8883022829
 31
0.0
  0
SPLINE
  5
163
330
1F
100
AcDbEntity
  8
0
  6
PHANTOM
 62
     7
370
     0
100
AcDbSpline
210
0.0
220
0.0
230
1.0
 70
     8
 71
     3
 72
    12
 73
     8
 74
     0
 42
0.00000001
 43
0.00000001
 40
0.0
 40
0.0
 40
0.0
 40
0.0
 40
0.2155173245866001
 40
0.4329076153636321
 40
0.5988416739932877
 40
0.7645011103863547
 40
1.0
 40
1.0
 40
1.0
 40
1.0
 10
173.6039797368348
 20
142.2541205822601
 30
0.0
 10
173.6714612589589
 20
142.2503448799724
 30
0.0
 10
173.8070107554082
 20
142.2427606624305
 30
0.0
 10
173.9837814870873
 20
142.1660062935288
 30
0.0
 10
174.107057802792
 20
142.0428228239033
 30
0.0
 10
174.1863015198493
 20
141.8801190508291
 30
0.0
 10
174.1947546176994
 20
141.7539799967318
 30
0.0
 10
174.199716985494
 20
141.6799304126873
 30
0.0
  0
LINE
  5
164
330
1F
100
AcDbEntity
  8
0
  6
PHANTOM
 62
     7
370
     0
100
AcDbLine
 10
174.1997169855
 20
110.0966752558
 30
0.0
 11
174.1997169855
 21
141.6799304127
 31
0.0
  0
SPLINE
  5
165
330
1F
100
AcDbEntity
  8
0
  6
PHANTOM
 62
     7
370
     0
100
AcDbSpline
210
0.0
220
0.0
230
1.0
 70
     8
 71
     3
 72
    12
 73
     8
 74
     0
 42
0.00000001
 43
0.00000001
 40
0.0
 40
0.0
 40
0.0
 40
0.0
 40
0.2020523588384386
 40
0.4058143217712834
 40
0.5934439376585999
 40
0.7592092674973255
 40
1.0
 40
1.0
 40
1.0
 40
1.0
 10
174.199716985494
 20
110.0966752558126
 30
0.0
 10
174.1960312097452
 20
110.0333784857342
 30
0.0
 10
174.1886284721862
 20
109.9062493793613
 30
0.0
 10
174.110408033094
 20
109.732083053045
 30
0.0
 10
173.9802579790166
 20
109.6108369579546
 30
0.0
 10
173.8072750478748
 20
109.5350923726688
 30
0.0
 10
173.6795985971575
 20
109.5271745629751
 30
0.0
 10
173.6039797368348
 20
109.5224850862398
 30
0.0
  0
LINE
  5
166
330
1F
100
AcDbEntity
  8
0
  6
PHANTOM
 62
     7
370
     0
100
AcDbLine
 10
173.6039797368
 20
109.5224850862
 30
0.0
 11
144.0000122937
 21
109.5224850862
 31
0.0
  0
LINE
  5
167
330
1F
100
AcDbEntity
  8
0
  6
PHANTOM
 62
     7
370
     0
100
AcDbLine
 10
144.0000122937
 20
118.0383026651
 30
0.0
 11
144.0000122937
 21
109.5224850862
 31
0.0
  0
LINE
  5
168
330
1F
100
AcDbEntity
  8
0
  6
PHANTOM
 62
     7
370
     0
100
AcDbLine
 10
144.0000122937
 20
118.0383026651
 30
0.0
 11
145.5000116083
 21
118.0383026651
 31
0.0
  0
LINE
  5
169
330
1F
100
AcDbEntity
  8
0
  6
PHANTOM
 62
     7
370
     0
100
AcDbLine
 10
145.5000116083
 20
118.0383026651
 30
0.0
 11
145.5000116083
 21
118.238302791
 31
0.0
  0
LINE
  5
16A
330
1F
100
AcDbEntity
  8
0
  6
PHANTOM
 62
     7
370
     0
100
AcDbLine
 10
145.5000116083
 20
118.238302791
 30
0.0
 11
144.0000122937
 21
118.238302791
 31
0.0
  0
LINE
  5
16B
330
1F
100
AcDbEntity
  8
0
  6
PHANTOM
 62
     7
370
     0
100
AcDbLine
 10
144.0000122937
 20
119.038302829
 30
0.0
 11
144.0000122937
 21
118.238302791
 31
0.0
  0
LINE
  5
16C
330
1F
100
AcDbEntity
  8
0
  6
PHANTOM
 62
     7
370
     0
100
AcDbLine
 10
144.0000122937
 20
119.038302829
 30
0.0
 11
145.5000116083
 21
119.038302829
 31
0.0
  0
LINE
  5
16D
330
1F
100
AcDbEntity
  8
0
  6
PHANTOM
 62
     7
370
     0
100
AcDbLine
 10
145.5000116083
 20
119.038302829
 30
0.0
 11
145.5000116083
 21
119.2383029549
 31
0.0
  0
LINE
  5
16E
330
1F
100
AcDbEntity
  8
0
  6
PHANTOM
 62
     7
370
     0
100
AcDbLine
 10
145.5000116083
 20
119.2383029549
 30
0.0
 11
144.0000122937
 21
119.2383029549
 31
0.0
  0
LINE
  5
16F
330
1F
100
AcDbEntity
  8
0
  6
PHANTOM
 62
     7
370
     0
100
AcDbLine
 10
144.0000122937
 20
120.0383025273
 30
0.0
 11
144.0000122937
 21
119.2383029549
 31
0.0
  0
LINE
  5
170
330
1F
100
AcDbEntity
  8
0
  6
PHANTOM
 62
     7
370
     0
100
AcDbLine
 10
144.0000122937
 20
120.0383025273
 30
0.0
 11
145.5000116083
 21
120.0383025273
 31
0.0
  0
LINE
  5
171
330
1F
100
AcDbEntity
  8
0
  6
PHANTOM
 62
     7
370
     0
100
AcDbLine
 10
145.5000116083
 20
120.0383025273
 30
0.0
 11
145.5000116083
 21
120.2383026532
 31
0.0
  0
LINE
  5
172
330
1F
100
AcDbEntity
  8
0
  6
PHANTOM
 62
     7
370
     0
100
AcDbLine
 10
145.5000116083
 20
120.2383026532
 30
0.0
 11
144.0000122937
 21
120.2383026532
 31
0.0
  0
LINE
  5
173
330
1F
100
AcDbEntity
  8
0
  6
PHANTOM
 62
     7
370
     0
100
AcDbLine
 10
144.0000122937
 20
121.0383026912
 30
0.0
 11
144.0000122937
 21
120.2383026532
 31
0.0
  0
LINE
  5
174
330
1F
100
AcDbEntity
  8
0
  6
PHANTOM
 62
     7
370
     0
100
AcDbLine
 10
144.0000122937
 20
121.0383026912
 30
0.0
 11
145.5000116083
 21
121.0383026912
 31
0.0
  0
LINE
  5
175
330
1F
100
AcDbEntity
  8
0
  6
PHANTOM
 62
     7
370
     0
100
AcDbLine
 10
145.5000116083
 20
121.0383026912
 30
0.0
 11
145.5000116083
 21
121.2383028171
 31
0.0
  0
LINE
  5
176
330
1F
100
AcDbEntity
  8
0
  6
PHANTOM
 62
     7
370
     0
100
AcDbLine
 10
145.5000116083
 20
121.2383028171
 30
0.0
 11
144.0000122937
 21
121.2383028171
 31
0.0
  0
LINE
  5
177
330
1F
100
AcDbEntity
  8
0
  6
PHANTOM
 62
     7
370
     0
100
AcDbLine
 10
170.8785014751
 20
120.888302946
 30
0.0
 11
170.8785014751
 21
133.8883022829
 31
0.0
  0
LINE
  5
178
330
1F
100
AcDbEntity
  8
0
  6
PHANTOM
 62
     7
370
     0
100
AcDbLine
 10
169.028511137
 20
120.888302946
 30
0.0
 11
169.028511137
 21
133.8883032142
 31
0.0
  0
SPLINE
  5
179
330
1F
100
AcDbEntity
  8
0
  6
PHANTOM
 62
     7
370
     0
100
AcDbSpline
210
0.0
220
0.0
230
1.0
 70
     8
 71
     3
 72
     9
 73
     5
 74
     0
 42
0.00000001
 43
0.00000001
 40
0.0
 40
0.0
 40
0.0
 40
0.0
 40
0.5582139176415739
 40
1.0
 40
1.0
 40
1.0
 40
1.0
 10
147.0089069160522
 20
123.6823732317536
 30
0.0
 10
146.9654100854827
 20
123.6265064993385
 30
0.0
 10
146.8874886485661
 20
123.5264252748302
 30
0.0
 10
146.8819476016976
 20
123.4006147495604
 30
0.0
 10
146.8794996443094
 20
123.345033410482
 30
0.0
  0
LINE
  5
17A
330
1F
100
AcDbEntity
  8
0
  6
PHANTOM
 62
     7
370
     0
100
AcDbLine
 10
147.7549000236
 20
122.9391842201
 30
0.0
 11
147.0089069161
 21
123.6823732318
 31
0.0
  0
SPLINE
  5
17B
330
1F
100
AcDbEntity
  8
0
  6
PHANTOM
 62
     7
370
     0
100
AcDbSpline
210
0.0
220
0.0
230
1.0
 70
     8
 71
     3
 72
     9
 73
     5
 74
     0
 42
0.00000001
 43
0.00000001
 40
0.0
 40
0.0
 40
0.0
 40
0.0
 40
0.5604762729651973
 40
0.9999999999999999
 40
0.9999999999999999
 40
0.9999999999999999
 40
0.9999999999999999
 10
147.4143544736207
 20
122.8818925148918
 30
0.0
 10
147.4797051984501
 20
122.8830609345902
 30
0.0
 10
147.5963037557515
 20
122.8851456253341
 30
0.0
 10
147.7064764919694
 20
122.9226848431352
 30
0.0
 10
147.7549000236095
 20
122.9391842200532
 30
0.0
  0
SPLINE
  5
17C
330
1F
100
AcDbEntity
  8
0
  6
PHANTOM
 62
     7
370
     0
100
AcDbSpline
210
0.0
220
0.0
230
1.0
 70
     8
 71
     3
 72
    11
 73
     7
 74
     0
 42
0.00000001
 43
0.00000001
 40
0.0
 40
0.0
 40
0.0
 40
0.0
 40
0.2799807033736421
 40
0.5580479636944256
 40
0.7787053559719732
 40
1.0
 40
1.0
 40
1.0
 40
1.0
 10
146.8794996443094
 20
123.345033410482
 30
0.0
 10
146.8856548779443
 20
123.2687611406893
 30
0.0
 10
146.8979232791401
 20
123.1167378607587
 30
0.0
 10
147.0514687120789
 20
122.9528559696476
 30
0.0
 10
147.2368965436654
 20
122.88991635356
 30
0.0
 10
147.3551449960555
 20
122.8845696975668
 30
0.0
 10
147.4143544736207
 20
122.8818925148918
 30
0.0
  0
SPLINE
  5
17D
330
1F
100
AcDbEntity
  8
0
  6
PHANTOM
 62
     7
370
     0
100
AcDbSpline
210
0.0
220
0.0
230
1.0
 70
     8
 71
     3
 72
    11
 73
     7
 74
     0
 42
0.00000001
 43
0.00000001
 40
0.0
 40
0.0
 40
0.0
 40
0.0
 40
0.1875654500782828
 40
0.3744443483163803
 40
0.561231933903554
 40
0.9999999999999999
 40
0.9999999999999999
 40
0.9999999999999999
 40
0.9999999999999999
 10
147.9820626380742
 20
123.3422289653792
 30
0.0
 10
147.9791298097497
 20
123.393517131899
 30
0.0
 10
147.9732748882262
 20
123.4959057332157
 30
0.0
 10
147.9074949427269
 20
123.6392552299526
 30
0.0
 10
147.7309592249483
 20
123.7861762766374
 30
0.0
 10
147.5547651044851
 20
123.7972219195142
 30
0.0
 10
147.4311816098989
 20
123.8049693922623
 30
0.0
  0
LINE
  5
17E
330
1F
100
AcDbEntity
  8
0
  6
PHANTOM
 62
     7
370
     0
100
AcDbLine
 10
147.1038589778
 20
123.744873242
 30
0.0
 11
147.8474474105
 21
123.0060911323
 31
0.0
  0
SPLINE
  5
17F
330
1F
100
AcDbEntity
  8
0
  6
PHANTOM
 62
     7
370
     0
100
AcDbSpline
210
0.0
220
0.0
230
1.0
 70
     8
 71
     3
 72
     9
 73
     5
 74
     0
 42
0.00000001
 43
0.00000001
 40
0.0
 40
0.0
 40
0.0
 40
0.0
 40
0.5606601662941277
 40
1.0
 40
1.0
 40
1.0
 40
1.0
 10
147.4311816098989
 20
123.8049693922623
 30
0.0
 10
147.3678225097735
 20
123.8047098911977
 30
0.0
 10
147.2548144811417
 20
123.8042470420775
 30
0.0
 10
147.149936189176
 20
123.7629963251245
 30
0.0
 10
147.1038589778245
 20
123.7448732419982
 30
0.0
  0
SPLINE
  5
180
330
1F
100
AcDbEntity
  8
0
  6
PHANTOM
 62
     7
370
     0
100
AcDbSpline
210
0.0
220
0.0
230
1.0
 70
     8
 71
     3
 72
     9
 73
     5
 74
     0
 42
0.00000001
 43
0.00000001
 40
0.0
 40
0.0
 40
0.0
 40
0.0
 40
0.5583895493438441
 40
1.0
 40
1.0
 40
1.0
 40
1.0
 10
147.8474474104942
 20
123.0060911323055
 30
0.0
 10
147.8916950053553
 20
123.0615135425516
 30
0.0
 10
147.9709364505311
 20
123.1607675674725
 30
0.0
 10
147.9786543382157
 20
123.2866416535157
 30
0.0
 10
147.9820626380742
 20
123.3422289653792
 30
0.0
  0
SPLINE
  5
181
330
1F
100
AcDbEntity
  8
0
  6
PHANTOM
 62
     7
370
     0
100
AcDbSpline
210
0.0
220
0.0
230
1.0
 70
     8
 71
     3
 72
    11
 73
     7
 74
     0
 42
0.00000001
 43
0.00000001
 40
0.0
 40
0.0
 40
0.0
 40
0.0
 40
0.2804568503438605
 40
0.5594901052439875
 40
0.779442768417097
 40
0.9999999999999999
 40
0.9999999999999999
 40
0.9999999999999999
 40
0.9999999999999999
 10
146.9051408174337
 20
121.7552899900003
 30
0.0
 10
146.9093565229955
 20
121.6955227533931
 30
0.0
 10
146.9177665352507
 20
121.5762916579196
 30
0.0
 10
147.0124616704408
 20
121.4312439245971
 30
0.0
 10
147.1491143166402
 20
121.3533189484105
 30
0.0
 10
147.2428329326103
 20
121.3467299804314
 30
0.0
 10
147.2897565516532
 20
121.3434309749975
 30
0.0
  0
SPLINE
  5
182
330
1F
100
AcDbEntity
  8
0
  6
PHANTOM
 62
     7
370
     0
100
AcDbSpline
210
0.0
220
0.0
230
1.0
 70
     8
 71
     3
 72
    11
 73
     7
 74
     0
 42
0.00000001
 43
0.00000001
 40
0.0
 40
0.0
 40
0.0
 40
0.0
 40
0.2807400183531886
 40
0.5599004029102216
 40
0.7796041858047187
 40
1.0
 40
1.0
 40
1.0
 40
1.0
 10
147.6487311127485
 20
121.7552899900003
 30
0.0
 10
147.6451993359441
 20
121.8129612676438
 30
0.0
 10
147.6381556545076
 20
121.9279793251986
 30
0.0
 10
147.5543246178507
 20
122.0716019283021
 30
0.0
 10
147.4257788894296
 20
122.1539556588436
 30
0.0
 10
147.3351448365236
 20
122.1606109701582
 30
0.0
 10
147.2897565516532
 20
122.1639438583627
 30
0.0
  0
SPLINE
  5
183
330
1F
100
AcDbEntity
  8
0
  6
PHANTOM
 62
     7
370
     0
100
AcDbSpline
210
0.0
220
0.0
230
1.0
 70
     8
 71
     3
 72
    11
 73
     7
 74
     0
 42
0.00000001
 43
0.00000001
 40
0.0
 40
0.0
 40
0.0
 40
0.0
 40
0.2795438734168884
 40
0.5582750556582302
 40
0.7788179257232233
 40
1.0
 40
1.0
 40
1.0
 40
1.0
 10
147.2897565516532
 20
121.3434309749975
 30
0.0
 10
147.347978129938
 20
121.3494518651907
 30
0.0
 10
147.4642520244798
 20
121.3614761416186
 30
0.0
 10
147.5863162825996
 20
121.4802673323524
 30
0.0
 10
147.6418111555626
 20
121.6192206009334
 30
0.0
 10
147.6464222361771
 20
121.7098897922741
 30
0.0
 10
147.6487311127485
 20
121.7552899900003
 30
0.0
  0
SPLINE
  5
184
330
1F
100
AcDbEntity
  8
0
  6
PHANTOM
 62
     7
370
     0
100
AcDbSpline
210
0.0
220
0.0
230
1.0
 70
     8
 71
     3
 72
    11
 73
     7
 74
     0
 42
0.00000001
 43
0.00000001
 40
0.0
 40
0.0
 40
0.0
 40
0.0
 40
0.2800036946428239
 40
0.5586662005820634
 40
0.7789947768239464
 40
1.0
 40
1.0
 40
1.0
 40
1.0
 10
147.2897565516532
 20
122.1639438583627
 30
0.0
 10
147.2299346411221
 20
122.1588159158465
 30
0.0
 10
147.1105773608168
 20
122.1485845931279
 30
0.0
 10
146.9765707842056
 20
122.0367608552025
 30
0.0
 10
146.912984300117
 20
121.8953413500016
 30
0.0
 10
146.9077579826342
 20
121.8020214689218
 30
0.0
 10
146.9051408174337
 20
121.7552899900003
 30
0.0
  0
SPLINE
  5
185
330
1F
100
AcDbEntity
  8
0
  6
PHANTOM
 62
     7
370
     0
100
AcDbSpline
210
0.0
220
0.0
230
1.0
 70
     8
 71
     3
 72
    11
 73
     7
 74
     0
 42
0.00000001
 43
0.00000001
 40
0.0
 40
0.0
 40
0.0
 40
0.0
 40
0.2807847236638411
 40
0.5602520606691146
 40
0.7799584906218399
 40
0.9999999999999999
 40
0.9999999999999999
 40
0.9999999999999999
 40
0.9999999999999999
 10
147.8538586350978
 20
121.7536874166801
 30
0.0
 10
147.8567147102168
 20
121.7082795015852
 30
0.0
 10
147.8624134603126
 20
121.6176767163956
 30
0.0
 10
147.9241644810661
 20
121.5036113457696
 30
0.0
 10
148.0201552178862
 20
121.4305387847322
 30
0.0
 10
148.0916976404353
 20
121.4237506715205
 30
0.0
 10
148.127496108681
 20
121.4203540287092
 30
0.0
  0
SPLINE
  5
186
330
1F
100
AcDbEntity
  8
0
  6
PHANTOM
 62
     7
370
     0
100
AcDbSpline
210
0.0
220
0.0
230
1.0
 70
     8
 71
     3
 72
    10
 73
     6
 74
     0
 42
0.00000001
 43
0.00000001
 40
0.0
 40
0.0
 40
0.0
 40
0.0
 40
0.2799816218665748
 40
0.5602195000511777
 40
0.9999999999999999
 40
0.9999999999999999
 40
0.9999999999999999
 40
0.9999999999999999
 10
148.127496108681
 20
122.087020804651
 30
0.0
 10
148.082011929055
 20
122.0810749366826
 30
0.0
 10
147.9910019398976
 20
122.0691777587234
 30
0.0
 10
147.8729205541356
 20
121.9425516301806
 30
0.0
 10
147.8610866644078
 20
121.8253022456003
 30
0.0
 10
147.8538586350978
 20
121.7536874166801
 30
0.0
  0
SPLINE
  5
187
330
1F
100
AcDbEntity
  8
0
  6
PHANTOM
 62
     7
370
     0
100
AcDbSpline
210
0.0
220
0.0
230
1.0
 70
     8
 71
     3
 72
    11
 73
     7
 74
     0
 42
0.00000001
 43
0.00000001
 40
0.0
 40
0.0
 40
0.0
 40
0.0
 40
0.2810506815540912
 40
0.5604987269315249
 40
0.7799095598313164
 40
0.9999999999999999
 40
0.9999999999999999
 40
0.9999999999999999
 40
0.9999999999999999
 10
148.3923195454181
 20
121.7536874166801
 30
0.0
 10
148.3898644657916
 20
121.7986704811051
 30
0.0
 10
148.3849683061467
 20
121.8883801028868
 30
0.0
 10
148.3297916679433
 20
122.0047978006085
 30
0.0
 10
148.23406489603
 20
122.0778549133431
 30
0.0
 10
148.163055638683
 20
122.0839623595371
 30
0.0
 10
148.127496108681
 20
122.087020804651
 30
0.0
  0
SPLINE
  5
188
330
1F
100
AcDbEntity
  8
0
  6
PHANTOM
 62
     7
370
     0
100
AcDbSpline
210
0.0
220
0.0
230
1.0
 70
     8
 71
     3
 72
    11
 73
     7
 74
     0
 42
0.00000001
 43
0.00000001
 40
0.0
 40
0.0
 40
0.0
 40
0.0
 40
0.1872309501828696
 40
0.3740191353535802
 40
0.5611580781307889
 40
1.0
 40
1.0
 40
1.0
 40
1.0
 10
148.127496108681
 20
121.4203540287092
 30
0.0
 10
148.1575845153354
 20
121.4225446306576
 30
0.0
 10
148.2176901753773
 20
121.4269206542043
 30
0.0
 10
148.2974448635402
 20
121.4738486141139
 30
0.0
 10
148.3789557282393
 20
121.5790919780038
 30
0.0
 10
148.386811959284
 20
121.6817319712965
 30
0.0
 10
148.3923195454181
 20
121.7536874166801
 30
0.0
  0
SPLINE
  5
189
330
1F
100
AcDbEntity
  8
0
  6
PHANTOM
 62
     7
370
     0
100
AcDbSpline
210
0.0
220
0.0
230
1.0
 70
     8
 71
     3
 72
    12
 73
     8
 74
     0
 42
0.00000001
 43
0.00000001
 40
0.0
 40
0.0
 40
0.0
 40
0.0
 40
0.1251065252999474
 40
0.2499663974434632
 40
0.3749015920561097
 40
0.5001460829077371
 40
1.0
 40
1.0
 40
1.0
 40
1.0
 10
146.9051408174337
 20
120.2408670499101
 30
0.0
 10
146.9077214427236
 20
120.2008843579362
 30
0.0
 10
146.9128776054843
 20
120.1209978016687
 30
0.0
 10
146.9690303404516
 20
120.0113557982136
 30
0.0
 10
147.0620244697013
 20
119.9329867672612
 30
0.0
 10
147.2836026184311
 20
119.8387435879197
 30
0.0
 10
147.4853786487111
 20
119.8342243629318
 30
0.0
 10
147.6467269065679
 20
119.8306106082275
 30
0.0
  0
SPLINE
  5
18A
330
1F
100
AcDbEntity
  8
0
  6
PHANTOM
 62
     7
370
     0
100
AcDbSpline
210
0.0
220
0.0
230
1.0
 70
     8
 71
     3
 72
    12
 73
     8
 74
     0
 42
0.00000001
 43
0.00000001
 40
0.0
 40
0.0
 40
0.0
 40
0.0
 40
0.4999063816461566
 40
0.6251685926567265
 40
0.7500870267432497
 40
0.8748734767313486
 40
0.9999999999999999
 40
0.9999999999999999
 40
0.9999999999999999
 40
0.9999999999999999
 10
147.6467269065679
 20
119.8306106082275
 30
0.0
 10
147.8086237759808
 20
119.8342096617718
 30
0.0
 10
148.0110873606087
 20
119.8387105349788
 30
0.0
 10
148.2336012822226
 20
119.9328091674436
 30
0.0
 10
148.3272678654579
 20
120.0109123423317
 30
0.0
 10
148.3843299662039
 20
120.1205821595956
 30
0.0
 10
148.3896539374522
 20
120.2007357296991
 30
0.0
 10
148.3923195454181
 20
120.2408670499101
 30
0.0
  0
SPLINE
  5
18B
330
1F
100
AcDbEntity
  8
0
  6
PHANTOM
 62
     7
370
     0
100
AcDbSpline
210
0.0
220
0.0
230
1.0
 70
     8
 71
     3
 72
    12
 73
     8
 74
     0
 42
0.00000001
 43
0.00000001
 40
0.0
 40
0.0
 40
0.0
 40
0.0
 40
0.4999009475172873
 40
0.6251633945205708
 40
0.7500852934107753
 40
0.8748829855049596
 40
1.0
 40
1.0
 40
1.0
 40
1.0
 10
147.6467269065679
 20
120.6511234915926
 30
0.0
 10
147.485514245987
 20
120.6474674491177
 30
0.0
 10
147.2839057980956
 20
120.6428952955031
 30
0.0
 10
147.0626892952909
 20
120.5481484044157
 30
0.0
 10
146.9702153754369
 20
120.4695904725246
 30
0.0
 10
146.9131470763999
 20
120.3606518531524
 30
0.0
 10
146.9078118427439
 20
120.2808293147559
 30
0.0
 10
146.9051408174337
 20
120.2408670499101
 30
0.0
  0
SPLINE
  5
18C
330
1F
100
AcDbEntity
  8
0
  6
PHANTOM
 62
     7
370
     0
100
AcDbSpline
210
0.0
220
0.0
230
1.0
 70
     8
 71
     3
 72
    12
 73
     8
 74
     0
 42
0.00000001
 43
0.00000001
 40
0.0
 40
0.0
 40
0.0
 40
0.0
 40
0.125077144923458
 40
0.2498565701086778
 40
0.3747909381164557
 40
0.5000548445245967
 40
1.0
 40
1.0
 40
1.0
 40
1.0
 10
148.3923195454181
 20
120.2408670499101
 30
0.0
 10
148.3895557158252
 20
120.2809472529146
 30
0.0
 10
148.3840346353522
 20
120.3610122564617
 30
0.0
 10
148.3264885096855
 20
120.4702890870484
 30
0.0
 10
148.2328995171109
 20
120.5481820444144
 30
0.0
 10
148.0109548044588
 20
120.6431093061248
 30
0.0
 10
147.8085660306899
 20
120.6475625102285
 30
0.0
 10
147.6467269065679
 20
120.6511234915926
 30
0.0
  0
LINE
  5
18D
330
1F
100
AcDbEntity
  8
0
  6
PHANTOM
 62
     7
370
     0
100
AcDbLine
 10
143.0000121298
 20
143.5246289759
 30
0.0
 11
143.0000121298
 21
137.5547609343
 31
0.0
  0
LINE
  5
18E
330
1F
100
AcDbEntity
  8
0
  6
PHANTOM
 62
     7
370
     0
100
AcDbLine
 10
144.0000122937
 20
130.2383028953
 30
0.0
 11
144.0000122937
 21
130.0383027694
 31
0.0
  0
LINE
  5
18F
330
1F
100
AcDbEntity
  8
0
  6
PHANTOM
 62
     7
370
     0
100
AcDbLine
 10
144.0000122937
 20
129.2383027314
 30
0.0
 11
144.0000122937
 21
129.0383028383
 31
0.0
  0
LINE
  5
190
330
1F
100
AcDbEntity
  8
0
  6
PHANTOM
 62
     7
370
     0
100
AcDbLine
 10
144.0000122937
 20
128.2383028003
 30
0.0
 11
144.0000122937
 21
128.0383026744
 31
0.0
  0
LINE
  5
191
330
1F
100
AcDbEntity
  8
0
  6
PHANTOM
 62
     7
370
     0
100
AcDbLine
 10
144.0000122937
 20
127.2383027529
 30
0.0
 11
144.0000122937
 21
127.0383027434
 31
0.0
  0
LINE
  5
192
330
1F
100
AcDbEntity
  8
0
  6
PHANTOM
 62
     7
370
     0
100
AcDbLine
 10
144.0000122937
 20
126.2383027636
 30
0.0
 11
144.0000122937
 21
126.0383027541
 31
0.0
  0
LINE
  5
193
330
1F
100
AcDbEntity
  8
0
  6
PHANTOM
 62
     7
370
     0
100
AcDbLine
 10
144.0000122937
 20
125.2383027452
 30
0.0
 11
144.0000122937
 21
125.0383027648
 31
0.0
  0
LINE
  5
194
330
1F
100
AcDbEntity
  8
0
  6
PHANTOM
 62
     7
370
     0
100
AcDbLine
 10
144.0000122937
 20
124.2383027268
 30
0.0
 11
144.0000122937
 21
124.0383027173
 31
0.0
  0
LINE
  5
195
330
1F
100
AcDbEntity
  8
0
  6
PHANTOM
 62
     7
370
     0
100
AcDbLine
 10
144.0000122937
 20
123.2383026793
 30
0.0
 11
144.0000122937
 21
123.0383027862
 31
0.0
  0
LINE
  5
196
330
1F
100
AcDbEntity
  8
0
  6
PHANTOM
 62
     7
370
     0
100
AcDbLine
 10
144.0000122937
 20
122.2383027482
 30
0.0
 11
144.0000122937
 21
122.0383028551
 31
0.0
  0
LINE
  5
197
330
1F
100
AcDbEntity
  8
0
  6
PHANTOM
 62
     7
370
     0
100
AcDbLine
 10
144.0000122937
 20
121.2383028171
 30
0.0
 11
144.0000122937
 21
121.0383026912
 31
0.0
  0
LINE
  5
198
330
1F
100
AcDbEntity
  8
0
  6
PHANTOM
 62
     7
370
     0
100
AcDbLine
 10
144.0000122937
 20
120.2383026532
 30
0.0
 11
144.0000122937
 21
120.0383025273
 31
0.0
  0
LINE
  5
199
330
1F
100
AcDbEntity
  8
0
  6
PHANTOM
 62
     7
370
     0
100
AcDbLine
 10
144.0000122937
 20
119.2383029549
 30
0.0
 11
144.0000122937
 21
119.038302829
 31
0.0
  0
LINE
  5
19A
330
1F
100
AcDbEntity
  8
0
  6
PHANTOM
 62
     7
370
     0
100
AcDbLine
 10
144.0000122937
 20
118.238302791
 30
0.0
 11
144.0000122937
 21
118.0383026651
 31
0.0
  0
ARC
  5
19B
330
1F
100
AcDbEntity
  8
0
  6
PHANTOM
 62
     7
370
     0
100
AcDbCircle
 10
121.9000122609
 20
125.8883027523
 30
0.0
 40
27.5
100
AcDbArc
 50
320.109609855
 51
323.47876614
  0
LINE
  5
19C
330
1F
100
AcDbEntity
  8
0
  6
PHANTOM
 62
     7
370
     0
100
AcDbLine
 10
143.0000121298
 20
114.2218447342
 30
0.0
 11
143.0000121298
 21
108.2519766926
 31
0.0
  0
ARC
  5
19D
330
1F
100
AcDbEntity
  8
0
  6
PHANTOM
 62
     7
370
     0
100
AcDbCircle
 10
131.3000122609
 20
116.8883027523
 30
0.0
 40
12.00000000000001
100
AcDbArc
 50
347.161431859
 51
0.0
  0
LINE
  5
19E
330
1F
100
AcDbEntity
  8
0
  6
PHANTOM
 62
     7
370
     0
100
AcDbLine
 10
143.3000116202
 20
116.8883022904
 30
0.0
 11
143.3000116202
 21
134.8883024468
 31
0.0
  0
ARC
  5
19F
330
1F
100
AcDbEntity
  8
0
  6
PHANTOM
 62
     7
370
     0
100
AcDbCircle
 10
131.3000122609
 20
134.8883027523
 30
0.0
 40
12.00000000000003
100
AcDbArc
 50
0.0
 51
12.838568141
  0
SPLINE
  5
1A0
330
1F
100
AcDbEntity
  8
0
  6
PHANTOM
 62
     7
370
     0
100
AcDbSpline
210
0.0
220
0.0
230
1.0
 70
     8
 71
     3
 72
     9
 73
     5
 74
     0
 42
0.00000001
 43
0.00000001
 40
0.0
 40
0.0
 40
0.0
 40
0.0
 40
0.7919042944041564
 40
1.0
 40
1.0
 40
1.0
 40
1.0
 10
185.2000112238229
 20
148.4517519413604
 30
0.0
 10
185.1972459847616
 20
148.5012185194211
 30
0.0
 10
185.1937540993394
 20
148.5636838683403
 30
0.0
 10
185.174085736451
 20
148.6207984119658
 30
0.0
 10
185.1699928345979
 20
148.6326837032213
 30
0.0
  0
LINE
  5
1A1
330
1F
100
AcDbEntity
  8
0
  6
PHANTOM
 62
     7
370
     0
100
AcDbLine
 10
185.2000112238
 20
128.8883028603
 30
0.0
 11
185.2000112238
 21
148.4517519414
 31
0.0
  0
SPLINE
  5
1A2
330
1F
100
AcDbEntity
  8
0
  6
PHANTOM
 62
     7
370
     0
100
AcDbSpline
210
0.0
220
0.0
230
1.0
 70
     8
 71
     3
 72
    12
 73
     8
 74
     0
 42
0.00000001
 43
0.00000001
 40
0.0
 40
0.0
 40
0.0
 40
0.0
 40
0.0087534786272633
 40
0.1108389396313997
 40
0.4103374277451389
 40
0.7050728934933786
 40
1.0
 40
1.0
 40
1.0
 40
1.0
 10
184.4448352756799
 20
149.4247567891254
 30
0.0
 10
184.4474503929775
 20
149.4236693663731
 30
0.0
 10
184.480563723188
 20
149.4099001221755
 30
0.0
 10
184.6032177406275
 20
149.3505410107507
 30
0.0
 10
184.8058143002206
 20
149.2010092582531
 30
0.0
 10
185.0311738671042
 20
148.9392827462775
 30
0.0
 10
185.1237098206829
 20
148.7349055251545
 30
0.0
 10
185.1699928345979
 20
148.6326837032213
 30
0.0
  0
ARC
  5
1A3
330
1F
100
AcDbEntity
  8
0
  6
PHANTOM
 62
     7
370
     0
100
AcDbCircle
 10
160.4141838486
 20
125.8883027523
 30
0.0
 40
27.49999999999998
100
AcDbArc
 50
284.3145788231
 51
289.4423941075
  0
ELLIPSE
  5
1A4
330
1F
100
AcDbEntity
  8
0
  6
PHANTOM
 62
     7
370
     0
100
AcDbEllipse
 10
192.5885952338
 20
125.8883027523
 30
0.0
 11
102.6313972081453
 21
2.842170943040401E-14
 31
0.0
210
0.0
220
0.0
230
1.0
 40
0.2679491924
 41
4.454937081471485
 42
4.462552448884611
  0
ELLIPSE
  5
1A5
330
1F
100
AcDbEntity
  8
0
  6
PHANTOM
 62
     7
370
     0
100
AcDbEllipse
 10
168.333043481
 20
125.8883027523
 30
0.0
 11
0.0
 21
27.49999999999995
 31
0.0
210
0.0
220
0.0
230
1.0
 40
0.2679491924
 41
2.760896029330549
 42
2.884140754676581
  0
SPLINE
  5
1A6
330
1F
100
AcDbEntity
  8
0
  6
PHANTOM
 62
     7
370
     0
100
AcDbSpline
210
0.0
220
0.0
230
1.0
 70
     8
 71
     3
 72
    14
 73
    10
 74
     0
 42
0.00000001
 43
0.00000001
 40
0.0
 40
0.0
 40
0.0
 40
0.0
 40
0.1551969166869549
 40
0.3106984128876072
 40
0.4594589464167724
 40
0.6048551957807371
 40
0.7543111607138691
 40
0.9132922141118622
 40
0.9999999999999999
 40
0.9999999999999999
 40
0.9999999999999999
 40
0.9999999999999999
 10
165.0279516878427
 20
100.4184846817627
 30
0.0
 10
165.0561382645839
 20
100.4280430385009
 30
0.0
 10
165.1125667352339
 20
100.4471785105953
 30
0.0
 10
165.2217607090369
 20
100.4602766154556
 30
0.0
 10
165.3322032371845
 20
100.4589834080327
 30
0.0
 10
165.4340498784359
 20
100.4437982562509
 30
0.0
 10
165.51921445229
 20
100.4166883811269
 30
0.0
 10
165.5719108208551
 20
100.3858269138195
 30
0.0
 10
165.5890599974307
 20
100.364620652714
 30
0.0
 10
165.5951122346223
 20
100.3571366011276
 30
0.0
  0
ARC
  5
1A7
330
1F
100
AcDbEntity
  8
0
  6
PHANTOM
 62
     7
370
     0
100
AcDbCircle
 10
154.6578829531
 20
125.8883027523
 30
0.0
 40
27.50000000000096
100
AcDbArc
 50
286.9465880642
 51
292.1537615978
  0
ELLIPSE
  5
1A8
330
1F
100
AcDbEntity
  8
0
  6
PHANTOM
 62
     7
370
     0
100
AcDbEllipse
 10
192.5885952339
 20
125.8883027523
 30
0.0
 11
102.6313972083837
 21
2.842170943040401E-14
 31
0.0
210
0.0
220
0.0
230
1.0
 40
0.2679491924
 41
4.408899751825586
 42
4.416615221684927
  0
ELLIPSE
  5
1A9
330
1F
100
AcDbEntity
  8
0
  6
PHANTOM
 62
     7
370
     0
100
AcDbEllipse
 10
164.1191387618
 20
125.8883027523
 30
0.0
 11
0.0
 21
27.49999999999995
 31
0.0
210
0.0
220
0.0
230
1.0
 40
0.2679491924
 41
2.712768360349445
 42
2.83810342503067
  0
SPLINE
  5
1AA
330
1F
100
AcDbEntity
  8
0
  6
PHANTOM
 62
     7
370
     0
100
AcDbSpline
210
0.0
220
0.0
230
1.0
 70
     8
 71
     3
 72
    14
 73
    10
 74
     0
 42
0.00000001
 43
0.00000001
 40
0.0
 40
0.0
 40
0.0
 40
0.0
 40
0.1537901641719471
 40
0.3079753094824143
 40
0.4536784576621554
 40
0.5950152403193987
 40
0.7411329379758524
 40
0.8988384252159202
 40
1.0
 40
1.0
 40
1.0
 40
1.0
 10
160.48810058859
 20
100.9483234076872
 30
0.0
 10
160.5159331503675
 20
100.9591225462314
 30
0.0
 10
160.5716697566277
 20
100.9807485588779
 30
0.0
 10
160.6799477927526
 20
100.9958337344914
 30
0.0
 10
160.7891930815308
 20
100.9947016931746
 30
0.0
 10
160.8895660372876
 20
100.9782509460783
 30
0.0
 10
160.9742456872206
 20
100.9486286067857
 30
0.0
 10
161.0298380517337
 20
100.9133300228379
 30
0.0
 10
161.0481177058933
 20
100.8881314640275
 30
0.0
 10
161.0552611353696
 20
100.8782842247858
 30
0.0
  0
ARC
  5
1AB
330
1F
100
AcDbEntity
  8
0
  6
PHANTOM
 62
     7
370
     0
100
AcDbCircle
 10
148.9015820575
 20
125.8883027523
 30
0.0
 40
27.50000000000135
100
AcDbArc
 50
289.6159997549
 51
294.9184582663
  0
ELLIPSE
  5
1AC
330
1F
100
AcDbEntity
  8
0
  6
PHANTOM
 62
     7
370
     0
100
AcDbEllipse
 10
192.5885952338
 20
125.8883027523
 30
0.0
 11
102.6313972080868
 21
2.842170943040401E-14
 31
0.0
210
0.0
220
0.0
230
1.0
 40
0.2679491924
 41
4.362188298078316
 42
4.370025198591242
  0
ELLIPSE
  5
1AD
330
1F
100
AcDbEntity
  8
0
  6
PHANTOM
 62
     7
370
     0
100
AcDbEllipse
 10
159.9052340426
 20
125.8883027523
 30
0.0
 11
0.0
 21
27.49999999999995
 31
0.0
210
0.0
220
0.0
230
1.0
 40
0.2679491924
 41
2.663556499218352
 42
2.791391971283412
  0
SPLINE
  5
1AE
330
1F
100
AcDbEntity
  8
0
  6
PHANTOM
 62
     7
370
     0
100
AcDbSpline
210
0.0
220
0.0
230
1.0
 70
     8
 71
     3
 72
    14
 73
    10
 74
     0
 42
0.00000001
 43
0.00000001
 40
0.0
 40
0.0
 40
0.0
 40
0.0
 40
0.1522838561889743
 40
0.3050558649227458
 40
0.4473432903327446
 40
0.5840846086783307
 40
0.726293235850563
 40
0.8822143075307588
 40
1.0
 40
1.0
 40
1.0
 40
1.0
 10
155.9482494893373
 20
101.5503899245634
 30
0.0
 10
155.97569400206
 20
101.5624854411461
 30
0.0
 10
156.0306710020882
 20
101.5867152470178
 30
0.0
 10
156.1379642982138
 20
101.60397279008
 30
0.0
 10
156.2458977407612
 20
101.6030987531116
 30
0.0
 10
156.3445624183083
 20
101.5855410420935
 30
0.0
 10
156.4285675788731
 20
101.5536396122252
 30
0.0
 10
156.4874322133997
 20
101.5136186597932
 30
0.0
 10
156.5069925374734
 20
101.483857732916
 30
0.0
 10
156.5154100361169
 20
101.4710505544319
 30
0.0
  0
ARC
  5
1AF
330
1F
100
AcDbEntity
  8
0
  6
PHANTOM
 62
     7
370
     0
100
AcDbCircle
 10
143.145281162
 20
125.8883027523
 30
0.0
 40
27.50000000000107
100
AcDbArc
 50
292.3305330776
 51
297.7466341174
  0
ELLIPSE
  5
1B0
330
1F
100
AcDbEntity
  8
0
  6
PHANTOM
 62
     7
370
     0
100
AcDbEllipse
 10
192.5885952338
 20
125.8883027523
 30
0.0
 11
102.6313972081076
 21
2.842170943040401E-14
 31
0.0
210
0.0
220
0.0
230
1.0
 40
0.2679491924
 41
4.314665150599318
 42
4.322647654455158
  0
ELLIPSE
  5
1B1
330
1F
100
AcDbEntity
  8
0
  6
PHANTOM
 62
     7
370
     0
100
AcDbEllipse
 10
155.6913293234
 20
125.8883027523
 30
0.0
 11
-2.842170943040400E-14
 21
27.49999999999995
 31
0.0
210
0.0
220
0.0
230
1.0
 40
0.2679491924
 41
2.613055214815533
 42
2.743868823804409
  0
SPLINE
  5
1B2
330
1F
100
AcDbEntity
  8
0
  6
PHANTOM
 62
     7
370
     0
100
AcDbSpline
210
0.0
220
0.0
230
1.0
 70
     8
 71
     3
 72
    14
 73
    10
 74
     0
 42
0.00000001
 43
0.00000001
 40
0.0
 40
0.0
 40
0.0
 40
0.0
 40
0.1506979804320407
 40
0.3020043744838803
 40
0.4405262693939285
 40
0.5720957984454863
 40
0.7097540116381795
 40
0.8632747793979768
 40
1.0
 40
1.0
 40
1.0
 40
1.0
 10
151.4083983900846
 20
102.2301995246782
 30
0.0
 10
151.4354204970225
 20
102.2436626900777
 30
0.0
 10
151.4895738073697
 20
102.2706433757737
 30
0.0
 10
151.5958440074891
 20
102.2903040475938
 30
0.0
 10
151.7023703686107
 20
102.2897868957689
 30
0.0
 10
151.7990690541565
 20
102.2712821498774
 30
0.0
 10
151.8821486168533
 20
102.2373710238354
 30
0.0
 10
151.9446975189633
 20
102.1922897351747
 30
0.0
 10
151.9656764574792
 20
102.1572881088056
 30
0.0
 10
151.9755589368642
 20
102.1408000080957
 30
0.0
  0
ARC
  5
1B3
330
1F
100
AcDbEntity
  8
0
  6
PHANTOM
 62
     7
370
     0
100
AcDbCircle
 10
137.3889802665
 20
125.8883027523
 30
0.0
 40
27.50000000000127
100
AcDbArc
 50
295.0990039607
 51
300.6503128229
  0
ELLIPSE
  5
1B4
330
1F
100
AcDbEntity
  8
0
  6
PHANTOM
 62
     7
370
     0
100
AcDbEllipse
 10
192.5885952335
 20
125.8883027523
 30
0.0
 11
102.6313972073767
 21
2.842170943040401E-14
 31
0.0
210
0.0
220
0.0
230
1.0
 40
0.2679491924
 41
4.266172719767988
 42
4.274328722299732
  0
ELLIPSE
  5
1B5
330
1F
100
AcDbEntity
  8
0
  6
PHANTOM
 62
     7
370
     0
100
AcDbEllipse
 10
151.4774246042
 20
125.8883027523
 30
0.0
 11
0.0
 21
27.49999999999995
 31
0.0
210
0.0
220
0.0
230
1.0
 40
0.2679491924
 41
2.561016926070378
 42
2.695376392973103
  0
SPLINE
  5
1B6
330
1F
100
AcDbEntity
  8
0
  6
PHANTOM
 62
     7
370
     0
100
AcDbSpline
210
0.0
220
0.0
230
1.0
 70
     8
 71
     3
 72
    14
 73
    10
 74
     0
 42
0.00000001
 43
0.00000001
 40
0.0
 40
0.0
 40
0.0
 40
0.0
 40
0.1490952052958359
 40
0.2989239620948281
 40
0.4333135051830102
 40
0.5590942366340621
 40
0.6915042425132529
 40
0.8418775220425827
 40
1.0
 40
1.0
 40
1.0
 40
1.0
 10
146.8685472908319
 20
102.994671934761
 30
0.0
 10
146.8951211469763
 20
103.0095997475419
 30
0.0
 10
146.9483996031886
 20
103.0395288182523
 30
0.0
 10
147.0536414098487
 20
103.0618802559537
 30
0.0
 10
147.1586852940927
 20
103.0618180039277
 30
0.0
 10
147.2531274185847
 20
103.042522932851
 30
0.0
 10
147.3349752245454
 20
103.0068964033551
 30
0.0
 10
147.401623344902
 20
102.9563439653324
 30
0.0
 10
147.4241564265096
 20
102.9152986384832
 30
0.0
 10
147.4357059749664
 20
102.8942604600563
 30
0.0
  0
ARC
  5
1B7
330
1F
100
AcDbEntity
  8
0
  6
PHANTOM
 62
     7
370
     0
100
AcDbCircle
 10
131.6326793709
 20
125.8883027523
 30
0.0
 40
27.50000000000195
100
AcDbArc
 50
297.9316678834
 51
303.6440386856
  0
ELLIPSE
  5
1B8
330
1F
100
AcDbEntity
  8
0
  6
PHANTOM
 62
     7
370
     0
100
AcDbEllipse
 10
192.5885952338
 20
125.8883027523
 30
0.0
 11
102.6313972081012
 21
2.842170943040401E-14
 31
0.0
210
0.0
220
0.0
230
1.0
 40
0.2679491924
 41
4.216527103813531
 42
4.224889410246092
  0
ELLIPSE
  5
1B9
330
1F
100
AcDbEntity
  8
0
  6
PHANTOM
 62
     7
370
     0
100
AcDbEllipse
 10
147.263519885
 20
125.8883027523
 30
0.0
 11
0.0
 21
27.49999999999995
 31
0.0
210
0.0
220
0.0
230
1.0
 40
0.2679491924
 41
2.52457584830369
 42
2.645730777018623
  0
LINE
  5
1BA
330
1F
100
AcDbEntity
  8
0
  6
PHANTOM
 62
     7
370
     0
100
AcDbLine
 10
143.0000121298
 20
108.2519766926
 30
0.0
 11
143.0000121298
 21
103.4590777992
 31
0.0
  0
ELLIPSE
  5
1BB
330
1F
100
AcDbEntity
  8
0
  6
PHANTOM
 62
     7
370
     0
100
AcDbEllipse
 10
172.5469482002
 20
125.8883027523
 30
0.0
 11
0.0
 21
27.49999999999995
 31
0.0
210
0.0
220
0.0
230
1.0
 40
0.2679491924
 41
2.808113188029597
 42
2.835960868786406
  0
SPLINE
  5
1BC
330
1F
100
AcDbEntity
  8
0
  6
PHANTOM
 62
     7
370
     0
100
AcDbSpline
210
0.0
220
0.0
230
1.0
 70
     8
 71
     3
 72
    14
 73
    10
 74
     0
 42
0.00000001
 43
0.00000001
 40
0.0
 40
0.0
 40
0.0
 40
0.0
 40
0.1564664599776898
 40
0.3131724357225237
 40
0.464653882520633
 40
0.6135969022779122
 40
0.7658669032490882
 40
0.9257329308427433
 40
0.9999999999999999
 40
0.9999999999999999
 40
0.9999999999999999
 40
0.9999999999999999
 10
169.5678065123857
 20
99.95644623927019
 30
0.0
 10
169.5963063809263
 20
99.96480565711427
 30
0.0
 10
169.6533497450436
 20
99.98153728923418
 30
0.0
 10
169.7633798763818
 20
99.99280198276566
 30
0.0
 10
169.8748999597146
 20
99.99144216954303
 30
0.0
 10
169.9780075307378
 20
99.97766232485297
 30
0.0
 10
170.0635021504268
 20
99.95327607090913
 30
0.0
 10
170.1136751059713
 20
99.92660232015434
 30
0.0
 10
170.1298368311401
 20
99.90891247165852
 30
0.0
 10
170.134963333875
 20
99.90330124787234
 30
0.0
  0
ELLIPSE
  5
1BD
330
1F
100
AcDbEntity
  8
0
  6
PHANTOM
 62
     7
370
     0
100
AcDbEllipse
 10
177.3397529795
 20
124.8883027523
 30
0.0
 11
0.0
 21
3.0
 31
0.0
210
0.0
220
0.0
230
1.0
 40
0.8403225883
 41
0.0
 42
0.3522802088329032
  0
SPLINE
  5
1BE
330
1F
100
AcDbEntity
  8
0
  6
PHANTOM
 62
     7
370
     0
100
AcDbSpline
210
0.0
220
0.0
230
1.0
 70
     8
 71
     3
 72
    10
 73
     6
 74
     0
 42
0.00000001
 43
0.00000001
 40
0.0
 40
0.0
 40
0.0
 40
0.0
 40
0.6073340128804419
 40
0.9188203643811911
 40
1.0
 40
1.0
 40
1.0
 40
1.0
 10
170.3297662141622
 20
99.66273503891371
 30
0.0
 10
170.4152681374219
 20
99.58671362762794
 30
0.0
 10
170.5446218482608
 20
99.47170274508727
 30
0.0
 10
170.6898562355589
 20
99.52683125673249
 30
0.0
 10
170.7435714792701
 20
99.59269974966129
 30
0.0
 10
170.7546765508951
 20
99.60631737998865
 30
0.0
  0
LINE
  5
1BF
330
1F
100
AcDbEntity
  8
0
  6
PHANTOM
 62
     7
370
     0
100
AcDbLine
 10
154.781104863
 20
126.2329987651
 30
0.0
 11
154.781104863
 21
120.888302946
 31
0.0
  0
ARC
  5
1C0
330
1F
100
AcDbEntity
  8
0
  6
PHANTOM
 62
     7
370
     0
100
AcDbCircle
 10
160.0936985168
 20
120.7442164918
 30
0.0
 40
5.314547227814853
100
AcDbArc
 50
178.4464231739
 51
1.5535768261
  0
LINE
  5
1C1
330
1F
100
AcDbEntity
  8
0
  6
PHANTOM
 62
     7
370
     0
100
AcDbLine
 10
165.4062921706
 20
120.888302946
 30
0.0
 11
165.4062921706
 21
125.8640902517
 31
0.0
  0
ELLIPSE
  5
1C2
330
1F
100
AcDbEntity
  8
0
  6
PHANTOM
 62
     7
370
     0
100
AcDbEllipse
 10
184.4448341885
 20
128.8883027523
 30
0.0
 11
0.0
 21
1.0
 31
0.0
210
0.0
220
0.0
230
1.0
 40
0.7551780725
 41
3.141592653589793
 42
4.7123889803847
  0
LINE
  5
1C3
330
1F
100
AcDbEntity
  8
0
  6
PHANTOM
 62
     7
370
     0
100
AcDbLine
 10
184.4448352757
 20
127.8883026964
 30
0.0
 11
177.3397530022
 21
127.8883026964
 31
0.0
  0
ELLIPSE
  5
1C4
330
1F
100
AcDbEntity
  8
0
  6
PHANTOM
 62
     7
370
     0
100
AcDbEllipse
 10
157.7786028001
 20
120.8883027523
 30
0.0
 11
7.77817459305129
 21
0.0
 31
0.0
210
0.0
220
0.0
230
1.0
 40
0.7071067812
 41
4.890173579320873
 42
5.068195440892959
  0
SPLINE
  5
1C5
330
1F
100
AcDbEntity
  8
0
  6
PHANTOM
 62
     7
370
     0
100
AcDbSpline
210
0.0
220
0.0
230
1.0
 70
     8
 71
     3
 72
    13
 73
     9
 74
     0
 42
0.00000001
 43
0.00000001
 40
0.0
 40
0.0
 40
0.0
 40
0.0
 40
0.1552768721715834
 40
0.3102470166482831
 40
0.4734580844836357
 40
0.6477256088679644
 40
0.8283251876682164
 40
1.0
 40
1.0
 40
1.0
 40
1.0
 10
160.48810058859
 20
115.7327908142581
 30
0.0
 10
160.5178847358025
 20
115.7412105390443
 30
0.0
 10
160.5773941958198
 20
115.7580333566308
 30
0.0
 10
160.6888995422169
 20
115.7976590050102
 30
0.0
 10
160.8047420937196
 20
115.8453993317492
 30
0.0
 10
160.9158151190727
 20
115.8990745753559
 30
0.0
 10
161.0090293186872
 20
115.9526730747694
 30
0.0
 10
161.0401130286443
 20
115.9783687108976
 30
0.0
 10
161.0552611353696
 20
115.990891033329
 30
0.0
  0
ELLIPSE
  5
1C6
330
1F
100
AcDbEntity
  8
0
  6
PHANTOM
 62
     7
370
     0
100
AcDbEllipse
 10
159.7595755114
 20
120.8883027523
 30
0.0
 11
0.0
 21
5.499999999999972
 31
0.0
210
0.0
220
0.0
230
1.0
 40
0.5176380902
 41
3.614081369102717
 42
4.001516293675395
  0
ARC
  5
1C7
330
1F
100
AcDbEntity
  8
0
  6
PHANTOM
 62
     7
370
     0
100
AcDbCircle
 10
157.669687453
 20
120.82827695
 30
0.0
 40
5.521913575253497
100
AcDbArc
 50
320.280062176
 51
334.9839508385
  0
ELLIPSE
  5
1C8
330
1F
100
AcDbEntity
  8
0
  6
PHANTOM
 62
     7
370
     0
100
AcDbEllipse
 10
155.6716504405
 20
120.8883027523
 30
0.0
 11
7.778174593051374
 21
0.0
 31
0.0
210
0.0
220
0.0
230
1.0
 40
0.7071067812
 41
5.832624160911627
 42
6.283185307179586
  0
LINE
  5
1C9
330
1F
100
AcDbEntity
  8
0
  6
PHANTOM
 62
     7
370
     0
100
AcDbLine
 10
163.4498255852
 20
120.888302946
 30
0.0
 11
163.4498255852
 21
124.7413317608
 31
0.0
  0
SPLINE
  5
1CA
330
1F
100
AcDbEntity
  8
0
  6
PHANTOM
 62
     7
370
     0
100
AcDbSpline
210
0.0
220
0.0
230
1.0
 70
    24
 71
     3
 72
    10
 73
     6
 74
     0
 42
0.00000001
 43
0.00000001
 40
0.0
 40
0.0
 40
0.0
 40
0.0
 40
0.3301564647604578
 40
0.8009070828983472
 40
1.0
 40
1.0
 40
1.0
 40
1.0
 10
189.0000159445108
 20
151.3584879278316
 30
0.0
 10
189.0000159445107
 20
151.4318424483932
 30
0.0
 10
189.0000159445107
 20
151.6097888506331
 30
0.0
 10
189.0000159445108
 20
151.8030280644541
 30
0.0
 10
189.0000159445108
 20
151.9139294870259
 30
0.0
 10
189.0000159445108
 20
151.9468919425382
 30
0.0
  0
SPLINE
  5
1CB
330
1F
100
AcDbEntity
  8
0
  6
PHANTOM
 62
     7
370
     0
100
AcDbSpline
210
0.0
220
0.0
230
1.0
 70
     8
 71
     3
 72
    11
 73
     7
 74
     0
 42
0.00000001
 43
0.00000001
 40
0.0
 40
0.0
 40
0.0
 40
0.0
 40
0.3299633567135127
 40
0.6623855340768984
 40
0.900587961444207
 40
1.0
 40
1.0
 40
1.0
 40
1.0
 10
189.0897805395425
 20
128.4386042091175
 30
0.0
 10
189.0763196055709
 20
128.4717467938269
 30
0.0
 10
189.0492974294519
 20
128.538278935129
 30
0.0
 10
189.0291759247572
 20
128.6763878656465
 30
0.0
 10
189.0213399679025
 20
128.8022730617783
 30
0.0
 10
189.0198431111606
 20
128.8687333432322
 30
0.0
 10
189.019402355224
 20
128.888302860327
 30
0.0
  0
LINE
  5
1CC
330
1F
100
AcDbEntity
  8
0
  6
PHANTOM
 62
     7
370
     0
100
AcDbLine
 10
188.3162687126
 20
127.8883026964
 30
0.0
 11
184.4448352757
 21
127.8883026964
 31
0.0
  0
ELLIPSE
  5
1CD
330
1F
100
AcDbEntity
  8
0
  6
PHANTOM
 62
     7
370
     0
100
AcDbEllipse
 10
192.0000122609
 20
173.7284563553
 30
0.0
 11
2.595647597486959
 21
48.95801542792844
 31
0.0
210
0.0
220
0.0
230
1.0
 40
0.0307242568
 41
2.616377065238396
 42
2.730141492446543
  0
LINE
  5
1CE
330
1F
100
AcDbEntity
  8
0
  6
PHANTOM
 62
     7
370
     0
100
AcDbLine
 10
189.0000159445
 20
151.3584879278
 30
0.0
 11
189.0000159445
 21
131.4091909728
 31
0.0
  0
SPLINE
  5
1CF
330
1F
100
AcDbEntity
  8
0
  6
PHANTOM
 62
     7
370
     0
100
AcDbSpline
210
0.0
220
0.0
230
1.0
 70
     8
 71
     3
 72
    12
 73
     8
 74
     0
 42
0.00000001
 43
0.00000001
 40
0.0
 40
0.0
 40
0.0
 40
0.0
 40
0.2525473870741022
 40
0.5053134671305253
 40
0.7579743203093214
 40
0.9527747174715181
 40
1.0
 40
1.0
 40
1.0
 40
1.0
 10
192.0000145736039
 20
127.9119564271643
 30
0.0
 10
191.6632613676412
 20
127.9179651632878
 30
0.0
 10
190.9894633448472
 20
127.9299878387896
 30
0.0
 10
190.0918138199836
 20
127.9892647322665
 30
0.0
 10
189.462970790498
 20
128.1131243408951
 30
0.0
 10
189.184532410686
 20
128.2732564607309
 30
0.0
 10
189.1052504410098
 20
128.4116082950051
 30
0.0
 10
189.0897805395425
 20
128.4386042091175
 30
0.0
  0
SPLINE
  5
1D0
330
1F
100
AcDbEntity
  8
0
  6
PHANTOM
 62
     7
370
     0
100
AcDbSpline
210
0.0
220
0.0
230
1.0
 70
     8
 71
     3
 72
     9
 73
     5
 74
     0
 42
0.00000001
 43
0.00000001
 40
0.0
 40
0.0
 40
0.0
 40
0.0
 40
0.5001459081185873
 40
1.0
 40
1.0
 40
1.0
 40
1.0
 10
190.4929036798776
 20
153.5702169924154
 30
0.0
 10
190.3770597770896
 20
153.4732287490822
 30
0.0
 10
190.1454395620532
 20
153.2793088513906
 30
0.0
 10
189.9056557815815
 20
153.2351736753765
 30
0.0
 10
189.7857988777459
 20
153.21311252705
 30
0.0
  0
LINE
  5
1D1
330
1F
100
AcDbEntity
  8
0
  6
PHANTOM
 62
     7
370
     0
100
AcDbLine
 10
190.4929036799
 20
153.5702169924
 30
0.0
 11
190.6893680396
 21
153.77881276
 31
0.0
  0
SPLINE
  5
1D2
330
1F
100
AcDbEntity
  8
0
  6
PHANTOM
 62
     7
370
     0
100
AcDbSpline
210
0.0
220
0.0
230
1.0
 70
     8
 71
     3
 72
     9
 73
     5
 74
     0
 42
0.00000001
 43
0.00000001
 40
0.0
 40
0.0
 40
0.0
 40
0.0
 40
0.6785105982932805
 40
1.0
 40
1.0
 40
1.0
 40
1.0
 10
190.6893680396379
 20
153.7788127600326
 30
0.0
 10
190.9756337752082
 20
153.8495842311732
 30
0.0
 10
191.3975368910777
 20
153.9538883810547
 30
0.0
 10
191.8534449609783
 20
154.0528299414003
 30
0.0
 10
192.0000145736039
 20
154.0846386044397
 30
0.0
  0
SPLINE
  5
1D3
330
1F
100
AcDbEntity
  8
0
  6
PHANTOM
 62
     7
370
     0
100
AcDbSpline
210
0.0
220
0.0
230
1.0
 70
     8
 71
     3
 72
     9
 73
     5
 74
     0
 42
0.00000001
 43
0.00000001
 40
0.0
 40
0.0
 40
0.0
 40
0.0
 40
0.2612636960096016
 40
1.0
 40
1.0
 40
1.0
 40
1.0
 10
193.1044290366472
 20
127.8883026964142
 30
0.0
 10
193.0082293140211
 20
127.8893784971786
 30
0.0
 10
192.64002001401
 20
127.8934961789722
 30
0.0
 10
192.2719334680874
 20
127.9041132277735
 30
0.0
 10
192.0000145736039
 20
127.9119564271643
 30
0.0
  0
LINE
  5
1D4
330
1F
100
AcDbEntity
  8
0
  6
PHANTOM
 62
     7
370
     0
100
AcDbLine
 10
193.1044290366
 20
127.8883026964
 30
0.0
 11
188.3162687126
 21
127.8883026964
 31
0.0
  0
SPLINE
  5
1D5
330
1F
100
AcDbEntity
  8
0
  6
PHANTOM
 62
     7
370
     0
100
AcDbSpline
210
0.0
220
0.0
230
1.0
 70
    24
 71
     3
 72
     9
 73
     5
 74
     0
 42
0.00000001
 43
0.00000001
 40
0.0
 40
0.0
 40
0.0
 40
0.0
 40
0.6065169200955863
 40
1.0
 40
1.0
 40
1.0
 40
1.0
 10
189.0000159445108
 20
151.9468919425382
 30
0.0
 10
189.0000159445108
 20
152.1361359220493
 30
0.0
 10
189.0000159445108
 20
152.448153564494
 30
0.0
 10
189.0000159445108
 20
152.5885830960751
 30
0.0
 10
189.0000159445108
 20
152.6438397406711
 30
0.0
  0
LINE
  5
1D6
330
1F
100
AcDbEntity
  8
0
  6
PHANTOM
 62
     7
370
     0
100
AcDbLine
 10
194.1218430701
 20
127.8883026964
 30
0.0
 11
194.1218430701
 21
143.4896056592
 31
0.0
  0
ELLIPSE
  5
1D7
330
1F
100
AcDbEntity
  8
0
  6
PHANTOM
 62
     7
370
     0
100
AcDbEllipse
 10
403.3022950488
 20
170.4465663245
 30
0.0
 11
1081.256363105173
 21
226.4125342382644
 31
0.0
210
0.0
220
0.0
230
0.9999999999999999
 40
0.0251651217
 41
1.760212238402616
 42
1.762212764761662
  0
LINE
  5
1D8
330
1F
100
AcDbEntity
  8
0
  6
PHANTOM
 62
     7
370
     0
100
AcDbLine
 10
194.1218430701
 20
147.2880681097
 30
0.0
 11
194.1218430701
 21
154.5396995782
 31
0.0
  0
ELLIPSE
  5
1D9
330
1F
100
AcDbEntity
  8
0
  6
PHANTOM
 62
     7
370
     0
100
AcDbEllipse
 10
195.4962842166
 20
145.3888374539
 30
0.0
 11
2.367648089828293
 21
0.0
 31
0.0
210
0.0
220
0.0
230
1.0
 40
0.9851478631
 41
2.190151695517722
 42
4.093033611661886
  0
LINE
  5
1DA
330
1F
100
AcDbEntity
  8
0
  6
PHANTOM
 62
     7
370
     0
100
AcDbLine
 10
193.1044290366
 20
127.8883026964
 30
0.0
 11
194.1218430701
 21
127.8883026964
 31
0.0
  0
CIRCLE
  5
1DB
330
1F
100
AcDbEntity
  8
0
  6
PHANTOM
 62
     7
370
     0
100
AcDbCircle
 10
199.4265474916
 20
138.4044316301
 30
0.0
 40
3.967193743908906
  0
LINE
  5
1DC
330
1F
100
AcDbEntity
  8
0
  6
PHANTOM
 62
     7
370
     0
100
AcDbLine
 10
195.9152276221
 20
143.0712704598
 30
0.0
 11
207.9694176617
 21
145.2028499036
 31
0.0
  0
LINE
  5
1DD
330
1F
100
AcDbEntity
  8
0
  6
PHANTOM
 62
     7
370
     0
100
AcDbLine
 10
207.9694176617
 20
135.8417094736
 30
0.0
 11
207.9694176617
 21
145.2028499036
 31
0.0
  0
LINE
  5
1DE
330
1F
100
AcDbEntity
  8
0
  6
PHANTOM
 62
     7
370
     0
100
AcDbLine
 10
200.0160048309
 20
127.8883026964
 30
0.0
 11
207.9694176617
 21
135.8417094736
 31
0.0
  0
ARC
  5
1DF
330
1F
100
AcDbEntity
  8
0
  6
PHANTOM
 62
     7
370
     0
100
AcDbCircle
 10
195.5105995536
 20
145.3898956184
 30
0.0
 40
2.353666607660569
100
AcDbArc
 50
233.84018222
 51
279.8991174718
  0
LINE
  5
1E0
330
1F
100
AcDbEntity
  8
0
  6
PHANTOM
 62
     7
370
     0
100
AcDbLine
 10
194.1218430701
 20
127.8883026964
 30
0.0
 11
200.0160048309
 21
127.8883026964
 31
0.0
  0
ARC
  5
1E1
330
1F
100
AcDbEntity
  8
0
  6
PHANTOM
 62
     7
370
     0
100
AcDbCircle
 10
195.4351203229
 20
145.4047745803
 30
0.0
 40
2.295972922411626
100
AcDbArc
 50
99.9978514868
 51
124.889224002
  0
LWPOLYLINE
  5
1E2
330
1F
100
AcDbEntity
  8
0
  6
PHANTOM
 62
     7
370
     0
100
AcDbPolyline
 90
        3
 70
   128
 43
0.0
 10
194.4637278619
 20
147.0973649114
 10
193.8858161273
 20
146.9142445414
 10
193.5543845001
 20
146.7232619464
  0
ELLIPSE
  5
1E3
330
1F
100
AcDbEntity
  8
0
  6
PHANTOM
 62
     7
370
     0
100
AcDbEllipse
 10
230.5646751331
 20
133.7300517641
 30
0.0
 11
188.2982973142038
 21
37.27633123945042
 31
0.0
210
0.0
220
0.0
230
0.9999999999999997
 40
0.1452100801
 41
1.725479257338167
 42
1.736743216515465
  0
LINE
  5
1E4
330
1F
100
AcDbEntity
  8
0
  6
PHANTOM
 62
     7
370
     0
100
AcDbLine
 10
196.2058822217
 20
155.0033547967
 30
0.0
 11
196.3122765127
 21
147.8914775937
 31
0.0
  0
LINE
  5
1E5
330
1F
100
AcDbEntity
  8
0
  6
PHANTOM
 62
     7
370
     0
100
AcDbLine
 10
196.3122765127
 20
147.8914775937
 30
0.0
 11
195.036513597
 21
147.6658814638
 31
0.0
  0
LINE
  5
1E6
330
1F
100
AcDbEntity
  8
0
  6
PHANTOM
 62
     7
370
     0
100
AcDbLine
 10
195.7394907775
 20
147.3229610412
 30
0.0
 11
196.3122765127
 21
147.8914775937
 31
0.0
  0
LINE
  5
1E7
330
1F
100
AcDbEntity
  8
0
  6
PHANTOM
 62
     7
370
     0
100
AcDbLine
 10
195.7394907775
 20
147.3229610412
 30
0.0
 11
195.7690993848
 21
147.3281969368
 31
0.0
  0
LINE
  5
1E8
330
1F
100
AcDbEntity
  8
0
  6
PHANTOM
 62
     7
370
     0
100
AcDbLine
 10
194.1054368916
 20
146.7417393862
 30
0.0
 11
195.7734579745
 21
147.0367004215
 31
0.0
  0
LINE
  5
1E9
330
1F
100
AcDbEntity
  8
0
  6
PHANTOM
 62
     7
370
     0
100
AcDbLine
 10
190.6918267312
 20
153.8693522154
 30
0.0
 11
190.6893680396
 21
153.77881276
 31
0.0
  0
ELLIPSE
  5
1EA
330
1F
100
AcDbEntity
  8
0
  6
PHANTOM
 62
     7
370
     0
100
AcDbEllipse
 10
196.0032050418
 20
126.3837845153
 30
0.0
 11
0.09038090623118933
 21
28.63500120835398
 31
0.0
210
0.0
220
0.0
230
0.9999999999999999
 40
0.1209221839
 41
6.250734428190606
 42
6.309281364791032
  0
LWPOLYLINE
  5
1EB
330
1F
100
AcDbEntity
  8
0
  6
PHANTOM
 62
     7
370
     0
100
AcDbPolyline
 90
        3
 70
   128
 43
0.0
 10
193.5063804093
 20
146.652768278
 10
193.9029152098
 20
146.9122254341
 10
194.4637278619
 20
147.0973649114
  0
LINE
  5
1EC
330
1F
100
AcDbEntity
  8
0
  6
PHANTOM
 62
     7
370
     0
100
AcDbLine
 10
195.8324293199
 20
143.0947211622
 30
0.0
 11
195.4995671811
 21
143.0358578502
 31
0.0
  0
LWPOLYLINE
  5
1ED
330
1F
100
AcDbEntity
  8
0
  6
PHANTOM
 62
     7
370
     0
100
AcDbPolyline
 90
        3
 70
   128
 43
0.0
 10
193.4030110541
 20
146.4787432044
 10
193.5446242395
 20
146.556599909
 10
194.1054368916
 20
146.7417393862
  0
ELLIPSE
  5
1EE
330
1F
100
AcDbEntity
  8
0
  6
PHANTOM
 62
     7
370
     0
100
AcDbEllipse
 10
197.0775287427
 20
114.7653774222
 30
0.0
 11
3.909357488728091
 21
-2.088225304438581
 31
0.0
210
0.0
220
0.0
230
1.0
 40
0.9427838111
 41
0.0
 42
6.283185307179586
  0
LINE
  5
1EF
330
1F
100
AcDbEntity
  8
0
  6
PHANTOM
 62
     7
370
     0
100
AcDbLine
 10
206.023944408
 20
115.7249714299
 30
0.0
 11
206.2962482276
 21
98.1217817455
 31
0.0
  0
LINE
  5
1F0
330
1F
100
AcDbEntity
  8
0
  6
PHANTOM
 62
     7
370
     0
100
AcDbLine
 10
205.4341489973
 20
97.3031752794
 30
0.0
 11
206.2962482276
 21
98.1217836081
 31
0.0
  0
ELLIPSE
  5
1F1
330
1F
100
AcDbEntity
  8
0
  6
PHANTOM
 62
     7
370
     0
100
AcDbEllipse
 10
255.7746256527
 20
111.6880133381
 30
0.0
 11
104.3110521918587
 21
-23.88087483673961
 31
0.0
210
0.0
220
0.0
230
1.0
 40
0.2612235458
 41
4.11431331082958
 42
4.269484101453674
  0
ELLIPSE
  5
1F2
330
1F
100
AcDbEntity
  8
0
  6
PHANTOM
 62
     7
370
     0
100
AcDbEllipse
 10
199.6017946162
 20
121.8883027523
 30
0.0
 11
0.4124608943797057
 21
0.9957686851599165
 31
0.0
210
0.0
220
0.0
230
0.9999999999999999
 40
0.2227973359
 41
4.804414001067865
 42
6.191160286496509
  0
LINE
  5
1F3
330
1F
100
AcDbEntity
  8
0
  6
PHANTOM
 62
     7
370
     0
100
AcDbLine
 10
177.3622537556
 20
122.8883028082
 30
0.0
 11
200.0160048309
 21
122.8883028082
 31
0.0
  0
ARC
  5
1F4
330
1F
100
AcDbEntity
  8
0
  6
PHANTOM
 62
     7
370
     0
100
AcDbCircle
 10
190.5634158508
 20
113.4183021273
 30
0.0
 40
13.38029713127302
100
AcDbArc
 50
44.9504383776
 51
45.0527209387
  0
SPLINE
  5
1F5
330
1F
100
AcDbEntity
  8
0
  6
PHANTOM
 62
     7
370
     0
100
AcDbSpline
210
0.0
220
0.0
230
1.0
 70
     8
 71
     3
 72
    12
 73
     8
 74
     0
 42
0.00000001
 43
0.00000001
 40
0.0
 40
0.0
 40
0.0
 40
0.0
 40
0.2228357300813094
 40
0.4459596523687612
 40
0.6621792418224066
 40
0.8720202924037121
 40
1.0
 40
1.0
 40
1.0
 40
1.0
 10
173.0943637492956
 20
97.71092320374392
 30
0.0
 10
172.9794351692912
 20
97.7218459292053
 30
0.0
 10
172.7494293727915
 20
97.74370550642793
 30
0.0
 10
172.4452978051771
 20
97.91781615283355
 30
0.0
 10
172.2233166558976
 20
98.17262582671958
 30
0.0
 10
172.1143069453523
 20
98.4436436327138
 30
0.0
 10
172.1039402844658
 20
98.61724744546434
 30
0.0
 10
172.1000129881204
 20
98.68301535538576
 30
0.0
  0
LINE
  5
1F6
330
1F
100
AcDbEntity
  8
0
  6
PHANTOM
 62
     7
370
     0
100
AcDbLine
 10
177.8000126186
 20
97.5716848909
 30
0.0
 11
177.609735966
 21
97.5680750846
 31
0.0
  0
SPLINE
  5
1F7
330
1F
100
AcDbEntity
  8
0
  6
PHANTOM
 62
     7
370
     0
100
AcDbSpline
210
0.0
220
0.0
230
1.0
 70
     8
 71
     3
 72
    17
 73
    13
 74
     0
 42
0.00000001
 43
0.00000001
 40
0.0
 40
0.0
 40
0.0
 40
0.0
 40
0.0413065497161615
 40
0.144438143190021
 40
0.248264027085461
 40
0.3542506575952473
 40
0.4627738733773418
 40
0.5731325354307336
 40
0.6840258060216086
 40
0.7939829456442873
 40
0.9017260259484053
 40
1.0
 40
1.0
 40
1.0
 40
1.0
 10
174.5926494303048
 20
97.39307771018885
 30
0.0
 10
174.5818747001078
 20
97.39187371050556
 30
0.0
 10
174.5441983017226
 20
97.38766364019348
 30
0.0
 10
174.8478785573561
 20
97.42173328545334
 30
0.0
 10
175.4622697007652
 20
97.48006815991278
 30
0.0
 10
176.3579888221545
 20
97.541353817665
 30
0.0
 10
177.4221987593462
 20
97.57639598681816
 30
0.0
 10
178.5458540989601
 20
97.56920367678484
 30
0.0
 10
179.5932238646983
 20
97.52109345483414
 30
0.0
 10
180.4209434629165
 20
97.45522716367316
 30
0.0
 10
180.9568211292851
 20
97.39908629114025
 30
0.0
 10
181.0125324780567
 20
97.39259948446042
 30
0.0
 10
181.0391078296007
 20
97.38950515679262
 30
0.0
  0
LINE
  5
1F8
330
1F
100
AcDbEntity
  8
0
  6
PHANTOM
 62
     7
370
     0
100
AcDbLine
 10
178.5154993239
 20
97.5625132262
 30
0.0
 11
177.8000126186
 21
97.5716848909
 31
0.0
  0
ELLIPSE
  5
1F9
330
1F
100
AcDbEntity
  8
0
  6
PHANTOM
 62
     7
370
     0
100
AcDbEllipse
 10
192.5885952338
 20
124.8883027523
 30
0.0
 11
102.6313972081653
 21
1.421085471520200E-14
 31
0.0
210
0.0
220
0.0
230
1.0
 40
0.2679491924
 41
4.505311641407254
 42
4.508421877199037
  0
LINE
  5
1FA
330
1F
100
AcDbEntity
  8
0
  6
PHANTOM
 62
     7
370
     0
100
AcDbLine
 10
171.8000116351
 20
97.7109232037
 30
0.0
 11
171.8000116351
 21
97.388301888
 31
0.0
  0
LINE
  5
1FB
330
1F
100
AcDbEntity
  8
0
  6
PHANTOM
 62
     7
370
     0
100
AcDbLine
 10
171.8000116351
 20
97.7109232037
 30
0.0
 11
173.0943637493
 21
97.7109232037
 31
0.0
  0
LINE
  5
1FC
330
1F
100
AcDbEntity
  8
0
  6
PHANTOM
 62
     7
370
     0
100
AcDbLine
 10
172.1000129881
 20
101.4501535385
 30
0.0
 11
172.1000129881
 21
98.6830153554
 31
0.0
  0
LINE
  5
1FD
330
1F
100
AcDbEntity
  8
0
  6
PHANTOM
 62
     7
370
     0
100
AcDbLine
 10
174.8528609577
 20
122.8883028082
 30
0.0
 11
177.3622537556
 21
122.8883028082
 31
0.0
  0
SPLINE
  5
1FE
330
1F
100
AcDbEntity
  8
0
  6
PHANTOM
 62
     7
370
     0
100
AcDbSpline
210
0.0
220
0.0
230
1.0
 70
     8
 71
     3
 72
     9
 73
     5
 74
     0
 42
0.00000001
 43
0.00000001
 40
0.0
 40
0.0
 40
0.0
 40
0.0
 40
0.5038004418429721
 40
1.0
 40
1.0
 40
1.0
 40
1.0
 10
190.8469180169404
 20
102.8323368220701
 30
0.0
 10
190.8010678446534
 20
102.8207300579684
 30
0.0
 10
190.7100592458533
 20
102.7976916420844
 30
0.0
 10
190.6579662833222
 20
102.7466711712356
 30
0.0
 10
190.6321177783311
 20
102.7213548361435
 30
0.0
  0
SPLINE
  5
1FF
330
1F
100
AcDbEntity
  8
0
  6
PHANTOM
 62
     7
370
     0
100
AcDbSpline
210
0.0
220
0.0
230
1.0
 70
     8
 71
     3
 72
    10
 73
     6
 74
     0
 42
0.00000001
 43
0.00000001
 40
0.0
 40
0.0
 40
0.0
 40
0.0
 40
0.5512657879592219
 40
0.8000597370625381
 40
1.0
 40
1.0
 40
1.0
 40
1.0
 10
191.8865347805322
 20
102.6154913990869
 30
0.0
 10
191.7023393993179
 20
102.6864132950815
 30
0.0
 10
191.4350140700825
 20
102.7893432332361
 30
0.0
 10
191.068122336926
 20
102.8527282426056
 30
0.0
 10
190.9150995958476
 20
102.8386220485447
 30
0.0
 10
190.8469180169404
 20
102.8323368220701
 30
0.0
  0
ELLIPSE
  5
200
330
1F
100
AcDbEntity
  8
0
  6
PHANTOM
 62
     7
370
     0
100
AcDbEllipse
 10
196.5070163496
 20
124.28573259
 30
0.0
 11
-0.09038090623116091
 21
28.63500120835398
 31
0.0
210
0.0
220
0.0
230
0.9999999999999999
 40
0.1209221839
 41
2.900406380094683
 42
3.004396296705783
  0
ELLIPSE
  5
201
330
1F
100
AcDbEntity
  8
0
  6
PHANTOM
 62
     7
370
     0
100
AcDbEllipse
 10
198.7176247942
 20
123.8158532598
 30
0.0
 11
188.2982973142041
 21
-37.2763312394504
 31
0.0
210
0.0
220
0.0
230
1.0
 40
0.1452100801
 41
4.724726498307906
 42
4.727353285714541
  0
ELLIPSE
  5
202
330
1F
100
AcDbEntity
  8
0
  6
PHANTOM
 62
     7
370
     0
100
AcDbEllipse
 10
196.0032050418
 20
124.3928209893
 30
0.0
 11
-0.09038090623116091
 21
28.63500120835396
 31
0.0
210
0.0
220
0.0
230
0.9999999999999999
 40
0.1209221839
 41
3.007023084112417
 42
3.015502744355807
  0
SPLINE
  5
203
330
1F
100
AcDbEntity
  8
0
  6
PHANTOM
 62
     7
370
     0
100
AcDbSpline
210
0.0
220
0.0
230
1.0
 70
     8
 71
     3
 72
    16
 73
    12
 74
     0
 42
0.00000001
 43
0.00000001
 40
0.0
 40
0.0
 40
0.0
 40
0.0
 40
0.113942820452215
 40
0.22788446331823
 40
0.3443630704103559
 40
0.460840593538935
 40
0.5901054830694912
 40
0.7193690528163776
 40
0.8525348313592808
 40
0.9856999911100143
 40
1.0
 40
1.0
 40
1.0
 40
1.0
 10
190.5750761332811
 20
102.5457688658609
 30
0.0
 10
190.5811845955952
 20
102.1455867739282
 30
0.0
 10
190.5934014570933
 20
101.3452267258996
 30
0.0
 10
190.6128268364568
 20
100.2928075948196
 30
0.0
 10
190.6319086870754
 20
99.35914378156268
 30
0.0
 10
190.6504921812744
 20
98.53388801363762
 30
0.0
 10
190.6670940060354
 20
97.8490690911674
 30
0.0
 10
190.6808026497173
 20
97.31732975121217
 30
0.0
 10
190.6891371453854
 20
97.00469167995995
 30
0.0
 10
190.6929452339658
 20
96.86617587648654
 30
0.0
 10
190.6919256066494
 20
96.90362205419198
 30
0.0
 10
190.6918267312349
 20
96.90725328914068
 30
0.0
  0
SPLINE
  5
204
330
1F
100
AcDbEntity
  8
0
  6
PHANTOM
 62
     7
370
     0
100
AcDbSpline
210
0.0
220
0.0
230
1.0
 70
     8
 71
     3
 72
     9
 73
     5
 74
     0
 42
0.00000001
 43
0.00000001
 40
0.0
 40
0.0
 40
0.0
 40
0.0
 40
0.7647362369944518
 40
1.0
 40
1.0
 40
1.0
 40
1.0
 10
190.6321177783311
 20
102.7213548361435
 30
0.0
 10
190.6077308967162
 20
102.6785215004734
 30
0.0
 10
190.5758416250494
 20
102.6225109002194
 30
0.0
 10
190.5752219260092
 20
102.5603848696041
 30
0.0
 10
190.5750761332811
 20
102.5457688658609
 30
0.0
  0
SPLINE
  5
205
330
1F
100
AcDbEntity
  8
0
  6
PHANTOM
 62
     7
370
     0
100
AcDbSpline
210
0.0
220
0.0
230
1.0
 70
     8
 71
     3
 72
     9
 73
     5
 74
     0
 42
0.00000001
 43
0.00000001
 40
0.0
 40
0.0
 40
0.0
 40
0.0
 40
0.4872365075638556
 40
1.0
 40
1.0
 40
1.0
 40
1.0
 10
206.1655799451173
 20
94.64949081233881
 30
0.0
 10
206.0430328392768
 20
94.9947747887627
 30
0.0
 10
205.7915182176545
 20
95.70343263985491
 30
0.0
 10
205.555287126989
 20
96.76096643605946
 30
0.0
 10
205.4341564479173
 20
97.30323115877054
 30
0.0
  0
ELLIPSE
  5
206
330
1F
100
AcDbEntity
  8
0
  6
PHANTOM
 62
     7
370
     0
100
AcDbEllipse
 10
178.7962784119
 20
128.0502661507
 30
0.0
 11
188.2982973142041
 21
-37.27633123945036
 31
0.0
210
0.0
220
0.0
230
1.0
 40
0.1452100801
 41
4.831343202325636
 42
4.886934325303455
  0
LINE
  5
207
330
1F
100
AcDbEntity
  8
0
  6
PHANTOM
 62
     7
370
     0
100
AcDbLine
 10
195.1103414002
 20
111.0788685321
 30
0.0
 11
195.0315589609
 21
111.2399566039
 31
0.0
  0
LINE
  5
208
330
1F
100
AcDbEntity
  8
0
  6
PHANTOM
 62
     7
370
     0
100
AcDbLine
 10
200.587546319
 20
116.8376644193
 30
0.0
 11
200.8716891113
 21
116.6953667118
 31
0.0
  0
LINE
  5
209
330
1F
100
AcDbEntity
  8
0
  6
PHANTOM
 62
     7
370
     0
100
AcDbLine
 10
200.0328952971
 20
122.8714132733
 30
0.0
 11
206.1140219274
 21
116.79028804
 31
0.0
  0
ELLIPSE
  5
20A
330
1F
100
AcDbEntity
  8
0
  6
PHANTOM
 62
     7
370
     0
100
AcDbEllipse
 10
206.1604881739
 20
115.3296091946
 30
0.0
 11
-0.05827440475104595
 21
1.4664647422087
 31
0.0
210
0.0
220
0.0
230
1.0
 40
0.0855122968
 41
6.190858822457892
 42
7.577605107886357
  0
SPLINE
  5
20B
330
1F
100
AcDbEntity
  8
0
  6
PHANTOM
 62
     7
370
     0
100
AcDbSpline
210
0.0
220
0.0
230
1.0
 70
     8
 71
     3
 72
     9
 73
     5
 74
     0
 42
0.00000001
 43
0.00000001
 40
0.0
 40
0.0
 40
0.0
 40
0.0
 40
0.5008848623180521
 40
1.0
 40
1.0
 40
1.0
 40
1.0
 10
206.2962482276262
 20
98.12178174547098
 30
0.0
 10
206.4168634968027
 20
97.60496485611556
 30
0.0
 10
206.6576678777103
 20
96.57315709302274
 30
0.0
 10
206.9115947565614
 20
95.87593090075963
 30
0.0
 10
207.0383335056604
 20
95.52793475381277
 30
0.0
  0
LINE
  5
20C
330
1F
100
AcDbEntity
  8
0
  6
PHANTOM
 62
     7
370
     0
100
AcDbLine
 10
207.0383335057
 20
95.5279328912
 30
0.0
 11
206.1655799451
 21
94.6494479715
 31
0.0
  0
LINE
  5
20D
330
1F
100
AcDbEntity
  8
0
  6
PHANTOM
 62
     7
370
     0
100
AcDbLine
 10
207.9694176617
 20
114.9348960309
 30
0.0
 11
207.9694176617
 21
106.0171266138
 31
0.0
  0
LINE
  5
20E
330
1F
100
AcDbEntity
  8
0
  6
PHANTOM
 62
     7
370
     0
100
AcDbLine
 10
207.4258754554
 20
106.1132409661
 30
0.0
 11
207.3966319266
 21
106.1422721534
 31
0.0
  0
LINE
  5
20F
330
1F
100
AcDbEntity
  8
0
  6
PHANTOM
 62
     7
370
     0
100
AcDbLine
 10
207.3966319266
 20
106.1422721534
 30
0.0
 11
207.3966319266
 21
105.6369532882
 31
0.0
  0
LINE
  5
210
330
1F
100
AcDbEntity
  8
0
  6
PHANTOM
 62
     7
370
     0
100
AcDbLine
 10
207.3966319266
 20
105.6369532882
 30
0.0
 11
207.0383335057
 21
105.9925788134
 31
0.0
  0
LINE
  5
211
330
1F
100
AcDbEntity
  8
0
  6
PHANTOM
 62
     7
370
     0
100
AcDbLine
 10
207.0383335057
 20
95.5279328912
 30
0.0
 11
207.0383335057
 21
105.9925788134
 31
0.0
  0
LINE
  5
212
330
1F
100
AcDbEntity
  8
0
  6
PHANTOM
 62
     7
370
     0
100
AcDbLine
 10
207.9694176617
 20
114.9348960309
 30
0.0
 11
206.1140219274
 21
116.79028804
 31
0.0
  0
LINE
  5
213
330
1F
100
AcDbEntity
  8
0
  6
PHANTOM
 62
     7
370
     0
100
AcDbLine
 10
207.3966319266
 20
105.6369532882
 30
0.0
 11
207.2828094068
 21
105.6570791691
 31
0.0
  0
LINE
  5
214
330
1F
100
AcDbEntity
  8
0
  6
PHANTOM
 62
     7
370
     0
100
AcDbLine
 10
196.1287240091
 20
96.302212128
 30
0.0
 11
196.1229796114
 21
95.9183097868
 31
0.0
  0
LINE
  5
215
330
1F
100
AcDbEntity
  8
0
  6
PHANTOM
 62
     7
370
     0
100
AcDbLine
 10
171.8000116351
 20
97.7109232037
 30
0.0
 11
171.8000116351
 21
98.6157422005
 31
0.0
  0
LINE
  5
216
330
1F
100
AcDbEntity
  8
0
  6
Continuous
 62
     7
370
    15
100
AcDbLine
 10
171.4000123146
 20
152.8883026033
 30
0.0
 11
171.4000123146
 21
152.7958557992
 31
0.0
  0
ELLIPSE
  5
217
330
1F
100
AcDbEntity
  8
0
  6
Continuous
 62
     7
370
    15
100
AcDbEllipse
 10
147.2224523654
 20
125.3883027523
 30
0.0
 11
0.0
 21
27.49999999999999
 31
0.0
210
0.0
220
0.0
230
1.0
 40
0.2679491924
 41
0.6101999157004223
 42
0.621451616383591
  0
ELLIPSE
  5
218
330
1F
100
AcDbEntity
  8
0
  6
Continuous
 62
     7
370
    15
100
AcDbEllipse
 10
202.6859742646
 20
125.3883027523
 30
0.0
 11
102.6313972081401
 21
0.0
 31
0.0
210
0.0
220
0.0
230
1.0
 40
0.2679491924
 41
2.192247943178488
 42
2.205884981511684
  0
LINE
  5
219
330
1F
100
AcDbEntity
  8
0
  6
Continuous
 62
     7
370
    15
100
AcDbLine
 10
141.8000123056
 20
147.5263283639
 30
0.0
 11
141.8000123056
 21
143.3979020505
 31
0.0
  0
ELLIPSE
  5
21A
330
1F
100
AcDbEntity
  8
0
  6
Continuous
 62
     7
370
    15
100
AcDbEllipse
 10
147.3686150528
 20
125.3883027523
 30
0.0
 11
0.0
 21
27.49999999999999
 31
0.0
210
0.0
220
0.0
230
1.0
 40
0.2679491924
 41
0.8567533108677783
 42
2.284839342722015
  0
LINE
  5
21B
330
1F
100
AcDbEntity
  8
0
  6
Continuous
 62
     7
370
    15
100
AcDbLine
 10
141.8000123056
 20
107.3787034541
 30
0.0
 11
141.8000123056
 21
103.2502771407
 31
0.0
  0
ELLIPSE
  5
21C
330
1F
100
AcDbEntity
  8
0
  6
Continuous
 62
     7
370
    15
100
AcDbEllipse
 10
202.6859742646
 20
125.3883027523
 30
0.0
 11
102.6313972081401
 21
0.0
 31
0.0
210
0.0
220
0.0
230
1.0
 40
0.2679491924
 41
4.077300325667923
 42
4.090937364001118
  0
ELLIPSE
  5
21D
330
1F
100
AcDbEntity
  8
0
  6
Continuous
 62
     7
370
    15
100
AcDbEllipse
 10
147.2224523654
 20
125.3883027523
 30
0.0
 11
0.0
 21
27.49999999999999
 31
0.0
210
0.0
220
0.0
230
1.0
 40
0.2679491924
 41
2.520141037206202
 42
2.657588898028592
  0
SPLINE
  5
21E
330
1F
100
AcDbEntity
  8
0
  6
Continuous
 62
     7
370
    15
100
AcDbSpline
210
0.0
220
0.0
230
1.0
 70
     8
 71
     3
 72
    14
 73
    10
 74
     0
 42
0.00000001
 43
0.00000001
 40
0.0
 40
0.0
 40
0.0
 40
0.0
 40
0.25
 40
0.25
 40
0.5
 40
0.5
 40
0.75
 40
0.75
 40
1.0
 40
1.0
 40
1.0
 40
1.0
 10
143.7936441865948
 20
101.0469811461565
 30
0.0
 10
143.8080162392243
 20
101.0187834952771
 30
0.0
 10
143.835695470301
 20
100.992502873247
 30
0.0
 10
143.9146766187022
 20
100.9492911054536
 30
0.0
 10
143.9667243249034
 20
100.932290549291
 30
0.0
 10
144.0839670301616
 20
100.9144335191887
 30
0.0
 10
144.1489888695291
 20
100.913895319323
 30
0.0
 10
144.2672802854338
 20
100.9297808851952
 30
0.0
 10
144.321019601893
 20
100.9459966193095
 30
0.0
 10
144.3624752731365
 20
100.9674605943696
 30
0.0
  0
ARC
  5
21F
330
1F
100
AcDbEntity
  8
0
  6
Continuous
 62
     7
370
    15
100
AcDbCircle
 10
131.7184067706
 20
125.3883027523
 30
0.0
 40
27.50000000000025
100
AcDbArc
 50
297.3731902454
 51
303.0488000289
  0
ELLIPSE
  5
220
330
1F
100
AcDbEntity
  8
0
  6
Continuous
 62
     7
370
    15
100
AcDbEllipse
 10
202.6859742646
 20
125.3883027523
 30
0.0
 11
102.6313972081401
 21
0.0
 31
0.0
210
0.0
220
0.0
230
1.0
 40
0.2679491924
 41
4.1355786060469
 42
4.144348301600306
  0
ELLIPSE
  5
221
330
1F
100
AcDbEntity
  8
0
  6
Continuous
 62
     7
370
    15
100
AcDbEllipse
 10
151.4363570846
 20
125.3883027523
 30
0.0
 11
0.0
 21
27.49999999999999
 31
0.0
210
0.0
220
0.0
230
1.0
 40
0.2679491924
 41
2.573551974805391
 42
2.706943450724971
  0
SPLINE
  5
222
330
1F
100
AcDbEntity
  8
0
  6
Continuous
 62
     7
370
    15
100
AcDbSpline
210
0.0
220
0.0
230
1.0
 70
     8
 71
     3
 72
    12
 73
     8
 74
     0
 42
0.00000001
 43
0.00000001
 40
0.0
 40
0.0
 40
0.0
 40
0.0
 40
0.5000000000000001
 40
0.5000000000000001
 40
0.75
 40
0.75
 40
1.0
 40
1.0
 40
1.0
 40
1.0
 10
148.3334955701534
 20
100.4453128106781
 30
0.0
 10
148.3626681803978
 20
100.39476710479
 30
0.0
 10
148.4499035812592
 20
100.3513800683962
 30
0.0
 10
148.6255787855476
 20
100.3282655642655
 30
0.0
 10
148.6896365465926
 20
100.3279277065619
 30
0.0
 10
148.8070350904997
 20
100.3418928710274
 30
0.0
 10
148.8606904845306
 20
100.3560936874099
 30
0.0
 10
148.9023266566951
 20
100.3751157461186
 30
0.0
  0
ARC
  5
223
330
1F
100
AcDbEntity
  8
0
  6
Continuous
 62
     7
370
    15
100
AcDbCircle
 10
137.4747076661
 20
125.3883027523
 30
0.0
 40
27.5000000000002
100
AcDbArc
 50
294.5539436115
 51
300.0740351491
  0
ELLIPSE
  5
224
330
1F
100
AcDbEntity
  8
0
  6
Continuous
 62
     7
370
    15
100
AcDbEllipse
 10
202.6859742646
 20
125.3883027523
 30
0.0
 11
102.6313972081401
 21
0.0
 31
0.0
210
0.0
220
0.0
230
1.0
 40
0.2679491924
 41
4.18749804767274
 42
4.195995700608599
  0
ELLIPSE
  5
225
330
1F
100
AcDbEntity
  8
0
  6
Continuous
 62
     7
370
    15
100
AcDbEllipse
 10
155.6502618038
 20
125.3883027523
 30
0.0
 11
0.0
 21
27.49999999999999
 31
0.0
210
0.0
220
0.0
230
1.0
 40
0.2679491924
 41
2.625199373813686
 42
2.755191105186961
  0
SPLINE
  5
226
330
1F
100
AcDbEntity
  8
0
  6
Continuous
 62
     7
370
    15
100
AcDbSpline
210
0.0
220
0.0
230
1.0
 70
     8
 71
     3
 72
    12
 73
     8
 74
     0
 42
0.00000001
 43
0.00000001
 40
0.0
 40
0.0
 40
0.0
 40
0.0
 40
0.4999999999999993
 40
0.4999999999999993
 40
0.7499999999999997
 40
0.7499999999999997
 40
1.0
 40
1.0
 40
1.0
 40
1.0
 10
152.8733469537121
 20
99.9158459000136
 30
0.0
 10
152.902896812243
 20
99.87097732997115
 30
0.0
 10
152.9914110434383
 20
99.83316326295662
 30
0.0
 10
153.1669181489938
 20
99.8133203353326
 30
0.0
 10
153.2301481545033
 20
99.8131222906472
 30
0.0
 10
153.3468150172032
 20
99.8253060351966
 30
0.0
 10
153.4003862028426
 20
99.83765140509774
 30
0.0
 10
153.4421780402537
 20
99.85436420221639
 30
0.0
  0
ARC
  5
227
330
1F
100
AcDbEntity
  8
0
  6
Continuous
 62
     7
370
    15
100
AcDbCircle
 10
143.2310085616
 20
125.3883027523
 30
0.0
 40
27.50000000000017
100
AcDbArc
 50
291.7967552762
 51
297.1862259202
  0
ELLIPSE
  5
228
330
1F
100
AcDbEntity
  8
0
  6
Continuous
 62
     7
370
    15
100
AcDbEllipse
 10
202.6859742646
 20
125.3883027523
 30
0.0
 11
102.63139720814
 21
0.0
 31
0.0
210
0.0
220
0.0
230
1.0
 40
0.2679491924
 41
4.237899826885934
 42
4.246169568833065
  0
ELLIPSE
  5
229
330
1F
100
AcDbEntity
  8
0
  6
Continuous
 62
     7
370
    15
100
AcDbEllipse
 10
159.864166523
 20
125.3883027523
 30
0.0
 11
0.0
 21
27.49999999999999
 31
0.0
210
0.0
220
0.0
230
1.0
 40
0.2679491924
 41
2.675373242038154
 42
2.802508861918465
  0
SPLINE
  5
22A
330
1F
100
AcDbEntity
  8
0
  6
Continuous
 62
     7
370
    15
100
AcDbSpline
210
0.0
220
0.0
230
1.0
 70
     8
 71
     3
 72
    12
 73
     8
 74
     0
 42
0.00000001
 43
0.00000001
 40
0.0
 40
0.0
 40
0.0
 40
0.0
 40
0.499999999999987
 40
0.499999999999987
 40
0.7499999999999934
 40
0.7499999999999934
 40
1.0
 40
1.0
 40
1.0
 40
1.0
 10
157.4131983372707
 20
99.45415788255482
 30
0.0
 10
157.4430773417299
 20
99.41482760967085
 30
0.0
 10
157.5326671115004
 20
99.38224660115398
 30
0.0
 10
157.7080193160128
 20
99.36536289586662
 30
0.0
 10
157.7705486646446
 20
99.36526024741153
 30
0.0
 10
157.8866133880745
 20
99.3757727955128
 30
0.0
 10
157.9401044617768
 20
99.38639070957163
 30
0.0
 10
157.9820294238124
 20
99.40090171406057
 30
0.0
  0
ARC
  5
22B
330
1F
100
AcDbEntity
  8
0
  6
Continuous
 62
     7
370
    15
100
AcDbCircle
 10
148.9873094572
 20
125.3883027523
 30
0.0
 40
27.50000000000014
100
AcDbArc
 50
289.0916829029
 51
294.3713855336
  0
ELLIPSE
  5
22C
330
1F
100
AcDbEntity
  8
0
  6
Continuous
 62
     7
370
    15
100
AcDbEllipse
 10
202.6859742646
 20
125.3883027523
 30
0.0
 11
102.6313972081401
 21
0.0
 31
0.0
210
0.0
220
0.0
230
1.0
 40
0.2679491924
 41
4.287028059550637
 42
4.295106212266774
  0
ELLIPSE
  5
22D
330
1F
100
AcDbEntity
  8
0
  6
Continuous
 62
     7
370
    15
100
AcDbEllipse
 10
164.0780712422
 20
125.3883027523
 30
0.0
 11
0.0
 21
27.49999999999999
 31
0.0
210
0.0
220
0.0
230
1.0
 40
0.2679491924
 41
2.724309885471867
 42
2.849049076202071
  0
SPLINE
  5
22E
330
1F
100
AcDbEntity
  8
0
  6
Continuous
 62
     7
370
    15
100
AcDbSpline
210
0.0
220
0.0
230
1.0
 70
     8
 71
     3
 72
    12
 73
     8
 74
     0
 42
0.00000001
 43
0.00000001
 40
0.0
 40
0.0
 40
0.0
 40
0.0
 40
0.5000000000000132
 40
0.5000000000000132
 40
0.7500000000000066
 40
0.7500000000000066
 40
1.0
 40
1.0
 40
1.0
 40
1.0
 10
161.9530497208293
 20
99.05668329340867
 30
0.0
 10
161.9832123089657
 20
99.02277940876655
 30
0.0
 10
162.0738640978773
 20
98.99513627094014
 30
0.0
 10
162.2488276286809
 20
98.98098564948388
 30
0.0
 10
162.3108553030583
 20
98.98093893382173
 30
0.0
 10
162.4264255546402
 20
98.98986803476082
 30
0.0
 10
162.4798433209166
 20
98.99886129777435
 30
0.0
 10
162.521880807371
 20
99.01125764230468
 30
0.0
  0
ARC
  5
22F
330
1F
100
AcDbEntity
  8
0
  6
Continuous
 62
     7
370
    15
100
AcDbCircle
 10
154.7436103527
 20
125.3883027523
 30
0.0
 40
27.50000000000011
100
AcDbArc
 50
286.4301484183
 51
291.6179018603
  0
ELLIPSE
  5
230
330
1F
100
AcDbEntity
  8
0
  6
Continuous
 62
     7
370
    15
100
AcDbEllipse
 10
202.6859742646
 20
125.3883027523
 30
0.0
 11
102.6313972081419
 21
0.0
 31
0.0
210
0.0
220
0.0
230
1.0
 40
0.2679491924
 41
4.335085415548691
 42
4.343002515144269
  0
ELLIPSE
  5
231
330
1F
100
AcDbEntity
  8
0
  6
Continuous
 62
     7
370
    15
100
AcDbEllipse
 10
168.2919759614
 20
125.3883027523
 30
0.0
 11
0.0
 21
27.49999999999999
 31
0.0
210
0.0
220
0.0
230
1.0
 40
0.2679491924
 41
2.772206188349361
 42
2.894945317480679
  0
SPLINE
  5
232
330
1F
100
AcDbEntity
  8
0
  6
Continuous
 62
     7
370
    15
100
AcDbSpline
210
0.0
220
0.0
230
1.0
 70
     8
 71
     3
 72
    10
 73
     6
 74
     0
 42
0.00000001
 43
0.00000001
 40
0.0
 40
0.0
 40
0.0
 40
0.0
 40
0.5
 40
0.5
 40
1.0
 40
1.0
 40
1.0
 40
1.0
 10
166.492901104388
 20
98.7205507341715
 30
0.0
 10
166.52330376125
 20
98.69198341683818
 30
0.0
 10
166.6150913002091
 20
98.66903652973849
 30
0.0
 10
166.8473958611276
 20
98.65357617483382
 30
0.0
 10
166.9774701775841
 20
98.66193451684335
 30
0.0
 10
167.0617321909297
 20
98.68263844832201
 30
0.0
  0
ARC
  5
233
330
1F
100
AcDbEntity
  8
0
  6
Continuous
 62
     7
370
    15
100
AcDbCircle
 10
160.4999112483
 20
125.3883027523
 30
0.0
 40
27.50000000000006
100
AcDbArc
 50
283.8046145244
 51
288.9159339754
  0
ELLIPSE
  5
234
330
1F
100
AcDbEntity
  8
0
  6
Continuous
 62
     7
370
    15
100
AcDbEllipse
 10
202.6859742646
 20
125.3883027523
 30
0.0
 11
102.6313972081436
 21
0.0
 31
0.0
210
0.0
220
0.0
230
1.0
 40
0.2679491924
 41
4.382243651423398
 42
4.390025877685025
  0
ELLIPSE
  5
235
330
1F
100
AcDbEntity
  8
0
  6
Continuous
 62
     7
370
    15
100
AcDbEllipse
 10
172.5058806806
 20
125.3883027523
 30
0.0
 11
0.0
 21
27.49999999999999
 31
0.0
210
0.0
220
0.0
230
1.0
 40
0.2679491924
 41
2.81922955089012
 42
2.921895659608326
  0
LINE
  5
236
330
1F
100
AcDbEntity
  8
0
  6
Continuous
 62
     7
370
    15
100
AcDbLine
 10
170.9000113013
 20
98.5493053733
 30
0.0
 11
170.9000113013
 21
98.4855153649
 31
0.0
  0
ARC
  5
237
330
1F
100
AcDbEntity
  8
0
  6
Continuous
 62
     7
370
    15
100
AcDbCircle
 10
176.6000122609
 20
125.3883027523
 30
0.0
 40
27.49999999999997
100
AcDbArc
 50
258.0374252063
 51
258.2658758625
  0
ELLIPSE
  5
238
330
1F
100
AcDbEntity
  8
0
  6
Continuous
 62
     7
370
    15
100
AcDbEllipse
 10
172.5058806806
 20
125.3883027523
 30
0.0
 11
0.0
 21
27.49999999999999
 31
0.0
210
0.0
220
0.0
230
1.0
 40
0.2679491924
 41
2.936793552551789
 42
2.940316780334102
  0
SPLINE
  5
239
330
1F
100
AcDbEntity
  8
0
  6
Continuous
 62
     7
370
    15
100
AcDbSpline
210
0.0
220
0.0
230
1.0
 70
     8
 71
     3
 72
     8
 73
     4
 74
     0
 42
0.00000001
 43
0.00000001
 40
0.0
 40
0.0
 40
0.0
 40
0.0
 40
1.0
 40
1.0
 40
1.0
 40
1.0
 10
171.0327524879465
 20
98.44346441093069
 30
0.0
 10
171.0634960086297
 20
98.42005375110882
 30
0.0
 10
171.1563120253112
 20
98.40162395558839
 30
0.0
 10
171.2731687935499
 20
98.39552539225916
 30
0.0
  0
ELLIPSE
  5
23A
330
1F
100
AcDbEntity
  8
0
  6
Continuous
 62
     7
370
    15
100
AcDbEllipse
 10
190.8939517772
 20
125.3883027523
 30
0.0
 11
102.6313972081413
 21
0.0
 31
0.0
210
0.0
220
0.0
230
1.0
 40
0.2679491924
 41
4.520027654438332
 42
4.520969596918984
  0
ARC
  5
23B
330
1F
100
AcDbEntity
  8
0
  6
Continuous
 62
     7
370
    15
100
AcDbCircle
 10
176.6000122609
 20
125.3883027523
 30
0.0
 40
27.49999999999997
100
AcDbArc
 50
259.0324772104
 51
259.1002645459
  0
LINE
  5
23C
330
1F
100
AcDbEntity
  8
0
  6
Continuous
 62
     7
370
    15
100
AcDbLine
 10
171.4000123146
 20
98.3844147115
 30
0.0
 11
171.4000123146
 21
97.8883029013
 31
0.0
  0
LINE
  5
23D
330
1F
100
AcDbEntity
  8
0
  6
Continuous
 62
     7
370
    15
100
AcDbLine
 10
141.8000123056
 20
143.3979020505
 30
0.0
 11
141.8000123056
 21
107.3787034541
 31
0.0
  0
LWPOLYLINE
  5
23E
330
1F
100
AcDbEntity
  8
0
  6
Continuous
 62
     7
370
    15
100
AcDbPolyline
 90
       24
 70
   128
 43
0.0
 10
140.4613012972
 20
125.3883027523
 10
140.4814569804
 20
124.8217295208
 10
140.5404283258
 20
124.2971763997
 10
140.63383998
 20
123.8535471778
 10
140.7547666284
 20
123.5237438516
 10
140.8942396345
 20
123.3322260953
 10
141.0419120046
 20
123.2931983243
 10
141.1868351105
 20
123.40955474
 10
141.3182596269
 20
123.6726659401
 10
141.4264364692
 20
124.0630180393
 10
141.5033450874
 20
124.5516604679
 10
141.5432801994
 20
125.1023527868
 10
141.5432801994
 20
125.6742527178
 10
141.5033450874
 20
126.2249450367
 10
141.4264364692
 20
126.7135874652
 10
141.3182596269
 20
127.1039395644
 10
141.1868351105
 20
127.3670507646
 10
141.0419120046
 20
127.4834071803
 10
140.8942396345
 20
127.4443794093
 10
140.7547666284
 20
127.252861653
 10
140.63383998
 20
126.9230583268
 10
140.5404283258
 20
126.4794291048
 10
140.4814569804
 20
125.9548759838
 10
140.4613012972
 20
125.3883027523
  0
LINE
  5
23F
330
1F
100
AcDbEntity
  8
0
  6
Continuous
 62
     7
370
    15
100
AcDbLine
 10
118.8000122609
 20
100.888303393
 30
0.0
 11
118.8000122609
 21
149.8883021115
 31
0.0
  0
LINE
  5
240
330
1F
100
AcDbEntity
  8
0
  6
Continuous
 62
     7
370
    15
100
AcDbLine
 10
142.932334781
 20
147.746742615
 30
0.0
 11
142.932334781
 21
103.0298628896
 31
0.0
  0
LINE
  5
241
330
1F
100
AcDbEntity
  8
0
  6
Continuous
 62
     7
370
    15
100
AcDbLine
 10
146.7156185361
 20
102.893630886
 30
0.0
 11
146.7156185361
 21
102.3376275837
 31
0.0
  0
LINE
  5
242
330
1F
100
AcDbEntity
  8
0
  6
Continuous
 62
     7
370
    15
100
AcDbLine
 10
147.4721858802
 20
102.8055259078
 30
0.0
 11
147.4721858802
 21
102.2069946914
 31
0.0
  0
ELLIPSE
  5
243
330
1F
100
AcDbEntity
  8
0
  6
Continuous
 62
     7
370
    15
100
AcDbEllipse
 10
152.8227280028
 20
117.8883027523
 30
0.0
 11
0.0
 21
4.250000000000014
 31
0.0
210
0.0
220
0.0
230
1.0
 40
0.8164965809
 41
5.254487585403194
 42
5.683532021950834
  0
ELLIPSE
  5
244
330
1F
100
AcDbEntity
  8
0
  6
Continuous
 62
     7
370
    15
100
AcDbEllipse
 10
151.7346833825
 20
117.8883027523
 30
0.0
 11
4.740259054514269
 21
0.0
 31
0.0
210
0.0
220
0.0
230
1.0
 40
0.8965754722
 41
6.065906508916395
 42
6.82528391219808
  0
SPLINE
  5
245
330
1F
100
AcDbEntity
  8
0
  6
Continuous
 62
     7
370
    15
100
AcDbSpline
210
0.0
220
0.0
230
1.0
 70
     8
 71
     3
 72
    25
 73
    21
 74
     0
 42
0.00000001
 43
0.00000001
 40
0.0
 40
0.0
 40
0.0
 40
0.0
 40
0.0099523302824571
 40
0.0853277878627625
 40
0.1614580763289754
 40
0.2497385737041425
 40
0.3028459191644842
 40
0.3571127349554202
 40
0.4182421524414475
 40
0.4810336199954203
 40
0.5440026999417065
 40
0.6088123449572896
 40
0.6716106420494794
 40
0.7362505894136976
 40
0.7886373170784267
 40
0.8424121306833559
 40
0.8844102188465941
 40
0.9275265112556698
 40
0.9695801046967439
 40
1.0
 40
1.0
 40
1.0
 40
1.0
 10
98.06484901931888
 20
139.3833681061043
 30
0.0
 10
98.0604930958066
 20
139.3848180336051
 30
0.0
 10
98.02314693597746
 20
139.3972492032593
 30
0.0
 10
98.30889553378532
 20
139.3013956944041
 30
0.0
 10
99.08618097148859
 20
139.0569992914436
 30
0.0
 10
100.1385001117455
 20
138.7681951154637
 30
0.0
 10
101.235280376877
 20
138.526237688754
 30
0.0
 10
102.2628226529572
 20
138.3458482729566
 30
0.0
 10
103.4163756880095
 20
138.2068800400186
 30
0.0
 10
104.670798232843
 20
138.1376139807132
 30
0.0
 10
105.9605831797086
 20
138.1558662199825
 30
0.0
 10
107.2249479052624
 20
138.2619018793061
 30
0.0
 10
108.4379663787063
 20
138.4422112605864
 30
0.0
 10
109.4835257893067
 20
138.6576940972118
 30
0.0
 10
110.3666430979589
 20
138.8782554750561
 30
0.0
 10
111.0216542526863
 20
139.0635909585156
 30
0.0
 10
111.515180686055
 20
139.2144275978198
 30
0.0
 10
111.8414555892028
 20
139.3191554848883
 30
0.0
 10
112.0295213886006
 20
139.3814521695164
 30
0.0
 10
112.0315501560104
 20
139.382149623395
 30
0.0
 10
112.0324017072917
 20
139.3824423714652
 30
0.0
  0
LINE
  5
246
330
1F
100
AcDbEntity
  8
0
  6
Continuous
 62
     7
370
    15
100
AcDbLine
 10
116.3000123168
 20
111.3883023202
 30
0.0
 11
116.3000123168
 21
139.3883031844
 31
0.0
  0
LINE
  5
247
330
1F
100
AcDbEntity
  8
0
  6
Continuous
 62
     7
370
    15
100
AcDbLine
 10
97.8000125441
 20
111.3883023202
 30
0.0
 11
97.8000125441
 21
139.3883031844
 31
0.0
  0
SPLINE
  5
248
330
1F
100
AcDbEntity
  8
0
  6
Continuous
 62
     7
370
    15
100
AcDbSpline
210
0.0
220
0.0
230
1.0
 70
     8
 71
     3
 72
    86
 73
    82
 74
     0
 42
0.00000001
 43
0.00000001
 40
-0.03125
 40
-0.03125
 40
0.0
 40
0.0
 40
0.0312499999999997
 40
0.0312499999999997
 40
0.0624999999999993
 40
0.0624999999999993
 40
0.0781249999999992
 40
0.0781249999999992
 40
0.0937499999999991
 40
0.0937499999999991
 40
0.1249999999999989
 40
0.1249999999999989
 40
0.1406249999999988
 40
0.1406249999999988
 40
0.1562499999999987
 40
0.1562499999999987
 40
0.1874999999999986
 40
0.1874999999999986
 40
0.2031249999999985
 40
0.2031249999999985
 40
0.2187499999999985
 40
0.2187499999999985
 40
0.2499999999999986
 40
0.2499999999999986
 40
0.2812499999999987
 40
0.2812499999999987
 40
0.3124999999999988
 40
0.3124999999999988
 40
0.3437499999999989
 40
0.3437499999999989
 40
0.3593749999999989
 40
0.3593749999999989
 40
0.3749999999999989
 40
0.3749999999999989
 40
0.4062499999999989
 40
0.4062499999999989
 40
0.4218749999999989
 40
0.4218749999999989
 40
0.4374999999999989
 40
0.4374999999999989
 40
0.4687499999999989
 40
0.4687499999999989
 40
0.499999999999999
 40
0.499999999999999
 40
0.531249999999999
 40
0.531249999999999
 40
0.562499999999999
 40
0.562499999999999
 40
0.578124999999999
 40
0.578124999999999
 40
0.5937499999999991
 40
0.5937499999999991
 40
0.624999999999999
 40
0.624999999999999
 40
0.6406249999999991
 40
0.6406249999999991
 40
0.6562499999999991
 40
0.6562499999999991
 40
0.6874999999999991
 40
0.6874999999999991
 40
0.7031249999999992
 40
0.7031249999999992
 40
0.7187499999999992
 40
0.7187499999999992
 40
0.7499999999999993
 40
0.7499999999999993
 40
0.7812499999999994
 40
0.7812499999999994
 40
0.8124999999999996
 40
0.8124999999999996
 40
0.8437499999999997
 40
0.8437499999999997
 40
0.8749999999999997
 40
0.8749999999999997
 40
0.9062499999999998
 40
0.9062499999999998
 40
0.9374999999999999
 40
0.9374999999999999
 40
0.96875
 40
0.96875
 40
1.0
 40
1.0
 40
1.03125
 40
1.03125
 10
100.761817150072
 20
129.9417236055912
 30
0.0
 10
100.0869290067583
 20
129.4502345625239
 30
0.0
 10
99.77620215624748
 20
129.1773970567105
 30
0.0
 10
99.21195742502437
 20
128.5713127275981
 30
0.0
 10
98.9570914182728
 20
128.2346271715695
 30
0.0
 10
98.64080165791057
 20
127.6975373989051
 30
0.0
 10
98.545716692121
 20
127.5125630772629
 30
0.0
 10
98.37777675918854
 20
127.1297010999079
 30
0.0
 10
98.30447928282145
 20
126.9301592545432
 30
0.0
 10
98.12562787325487
 20
126.3235414531075
 30
0.0
 10
98.06016971219175
 20
125.9106111909407
 30
0.0
 10
98.04655331288991
 20
125.2777315134992
 30
0.0
 10
98.05658391743897
 20
125.0632553336245
 30
0.0
 10
98.10484747883605
 20
124.6438236548513
 30
0.0
 10
98.14288090821346
 20
124.43729820148
 30
0.0
 10
98.29690130261552
 20
123.8268480809703
 30
0.0
 10
98.45500296406436
 20
123.4297483435804
 30
0.0
 10
98.75343306358029
 20
122.8798793079896
 30
0.0
 10
98.86341279139259
 20
122.7028922764288
 30
0.0
 10
99.1033337800189
 20
122.3607433737784
 30
0.0
 10
99.2333379254933
 20
122.1957481391703
 30
0.0
 10
99.64386967933908
 20
121.7268849782616
 30
0.0
 10
99.94707974540476
 20
121.4451890060794
 30
0.0
 10
100.607685019809
 20
120.9362704675326
 30
0.0
 10
100.9591869254496
 20
120.7139496353442
 30
0.0
 10
101.6944034838874
 20
120.3304239775571
 30
0.0
 10
102.0822608746689
 20
120.1675381979743
 30
0.0
 10
102.8789655229532
 20
119.9053589768462
 30
0.0
 10
103.2847018041011
 20
119.8065307248168
 30
0.0
 10
103.9041981152224
 20
119.7045162647886
 30
0.0
 10
104.1125222245277
 20
119.6782679013791
 30
0.0
 10
104.5329041276976
 20
119.6415102814382
 30
0.0
 10
104.745840959215
 20
119.6310362371115
 30
0.0
 10
105.3797659639647
 20
119.62399430066
 30
0.0
 10
105.7981713497245
 20
119.6511516131057
 30
0.0
 10
106.4196406080141
 20
119.7387080902493
 30
0.0
 10
106.6257692036142
 20
119.7757417497473
 30
0.0
 10
107.0359411888054
 20
119.8659099649785
 30
0.0
 10
107.2409244727755
 20
119.9193572534456
 30
0.0
 10
107.8437950811537
 20
120.1022478711121
 30
0.0
 10
108.2302829138876
 20
120.2537549905235
 30
0.0
 10
108.9729655085997
 20
120.6171756871169
 30
0.0
 10
109.3313394010593
 20
120.8305785100699
 30
0.0
 10
110.0050789167381
 20
121.3198498712072
 30
0.0
 10
110.3155632376443
 20
121.591545152847
 30
0.0
 10
110.8799286191118
 20
122.1953772049258
 30
0.0
 10
111.1360345287813
 20
122.5319810591397
 30
0.0
 10
111.4541556889841
 20
123.0696390750205
 30
0.0
 10
111.5497111227565
 20
123.2546517718805
 30
0.0
 10
111.7184369878534
 20
123.6371811157814
 30
0.0
 10
111.791954619467
 20
123.8358726838586
 30
0.0
 10
111.9728781826458
 20
124.444817471047
 30
0.0
 10
112.0389836205929
 20
124.8584755034978
 30
0.0
 10
112.0536461310384
 20
125.4909694208424
 30
0.0
 10
112.0440055482307
 20
125.7055847425955
 30
0.0
 10
111.996230704632
 20
126.1263863627268
 30
0.0
 10
111.9583752695317
 20
126.333369288486
 30
0.0
 10
111.8049462284774
 20
126.9446013364605
 30
0.0
 10
111.647053111168
 20
127.3424166623201
 30
0.0
 10
111.3485845053248
 20
127.8933973302436
 30
0.0
 10
111.2386252498796
 20
128.0706026525678
 30
0.0
 10
110.9988940042322
 20
128.4129550293487
 30
0.0
 10
110.8686921663582
 20
128.5784240495597
 30
0.0
 10
110.4574700860295
 20
129.0485012070632
 30
0.0
 10
110.1539832350788
 20
129.3305074505029
 30
0.0
 10
109.4935138159944
 20
129.8395390398606
 30
0.0
 10
109.1405089548541
 20
130.0628820881888
 30
0.0
 10
108.4044073017289
 20
130.4467597744528
 30
0.0
 10
108.0171742975858
 20
130.6093675619137
 30
0.0
 10
107.2180203036098
 20
130.872139704139
 30
0.0
 10
106.8114554833046
 20
130.9709328821982
 30
0.0
 10
105.9846680880942
 20
131.1066377962688
 30
0.0
 10
105.5617022225403
 20
131.1435228219169
 30
0.0
 10
104.7137828031701
 20
131.1524212186371
 30
0.0
 10
104.2945514205061
 20
131.1248166160869
 30
0.0
 10
103.4652191060515
 20
131.0071849160497
 30
0.0
 10
103.0531322136293
 20
130.9165678107764
 30
0.0
 10
102.2471250759647
 20
130.6711297612132
 30
0.0
 10
101.8602743468343
 20
130.5188408338701
 30
0.0
 10
101.1180342723115
 20
130.1543750014492
 30
0.0
 10
100.761817150072
 20
129.9417236055912
 30
0.0
 10
100.0869290067583
 20
129.4502345625239
 30
0.0
  0
CIRCLE
  5
249
330
1F
100
AcDbEntity
  8
0
  6
Continuous
 62
     7
370
    15
100
AcDbCircle
 10
105.0500122609
 20
125.3883027523
 30
0.0
 40
5.478857305403139
  0
LINE
  5
24A
330
1F
100
AcDbEntity
  8
0
  6
Continuous
 62
     7
370
    15
100
AcDbLine
 10
90.8000113967
 20
112.5983026861
 30
0.0
 11
90.8000113967
 21
138.1783028185
 31
0.0
  0
LINE
  5
24B
330
1F
100
AcDbEntity
  8
0
  6
Continuous
 62
     7
370
    15
100
AcDbLine
 10
151.255471498
 20
102.1402412146
 30
0.0
 11
151.255471498
 21
101.5903920918
 31
0.0
  0
LINE
  5
24C
330
1F
100
AcDbEntity
  8
0
  6
Continuous
 62
     7
370
    15
100
AcDbLine
 10
152.0120369795
 20
102.0618219911
 30
0.0
 11
152.0120369795
 21
101.4741481333
 31
0.0
  0
LINE
  5
24D
330
1F
100
AcDbEntity
  8
0
  6
Continuous
 62
     7
370
    15
100
AcDbLine
 10
155.7953225973
 20
101.4705532282
 30
0.0
 11
155.7953225973
 21
100.9263311564
 31
0.0
  0
LINE
  5
24E
330
1F
100
AcDbEntity
  8
0
  6
Continuous
 62
     7
370
    15
100
AcDbLine
 10
155.7953225973
 20
125.4640318796
 30
0.0
 11
155.7953225973
 21
120.0810260191
 31
0.0
  0
LINE
  5
24F
330
1F
100
AcDbEntity
  8
0
  6
Continuous
 62
     7
370
    15
100
AcDbLine
 10
156.5518880787
 20
125.0295345083
 30
0.0
 11
156.5518880787
 21
116.7889208584
 31
0.0
  0
LINE
  5
250
330
1F
100
AcDbEntity
  8
0
  6
Continuous
 62
     7
370
    15
100
AcDbLine
 10
156.5518880787
 20
101.4009927451
 30
0.0
 11
156.5518880787
 21
100.8232654124
 31
0.0
  0
SPLINE
  5
251
330
1F
100
AcDbEntity
  8
0
  6
Continuous
 62
     7
370
    15
100
AcDbSpline
210
0.0
220
0.0
230
1.0
 70
     8
 71
     3
 72
    70
 73
    66
 74
     0
 42
0.00000001
 43
0.00000001
 40
-0.03125
 40
-0.03125
 40
0.0
 40
0.0
 40
0.0312499999999998
 40
0.0312499999999998
 40
0.0624999999999997
 40
0.0624999999999997
 40
0.0937499999999995
 40
0.0937499999999995
 40
0.1249999999999995
 40
0.1249999999999995
 40
0.1562499999999995
 40
0.1562499999999995
 40
0.1874999999999994
 40
0.1874999999999994
 40
0.2187499999999994
 40
0.2187499999999994
 40
0.2499999999999994
 40
0.2499999999999994
 40
0.2812499999999994
 40
0.2812499999999994
 40
0.3124999999999994
 40
0.3124999999999994
 40
0.3437499999999994
 40
0.3437499999999994
 40
0.3749999999999994
 40
0.3749999999999994
 40
0.4062499999999995
 40
0.4062499999999995
 40
0.4374999999999996
 40
0.4374999999999996
 40
0.4687499999999996
 40
0.4687499999999996
 40
0.4999999999999997
 40
0.4999999999999997
 40
0.5312499999999997
 40
0.5312499999999997
 40
0.5624999999999998
 40
0.5624999999999998
 40
0.5937499999999998
 40
0.5937499999999998
 40
0.6249999999999999
 40
0.6249999999999999
 40
0.6562499999999999
 40
0.6562499999999999
 40
0.6875
 40
0.6875
 40
0.71875
 40
0.71875
 40
0.75
 40
0.75
 40
0.7812500000000001
 40
0.7812500000000001
 40
0.8125000000000001
 40
0.8125000000000001
 40
0.8437500000000002
 40
0.8437500000000002
 40
0.8750000000000001
 40
0.8750000000000001
 40
0.9062500000000001
 40
0.9062500000000001
 40
0.9375
 40
0.9375
 40
0.96875
 40
0.96875
 40
1.0
 40
1.0
 40
1.03125
 40
1.03125
 10
101.9206419671565
 20
126.2874599665601
 30
0.0
 10
102.0853256827594
 20
126.6678220604781
 30
0.0
 10
102.1856155498094
 20
126.8424468404864
 30
0.0
 10
102.4174405869479
 20
127.1663212772752
 30
0.0
 10
102.5505409618302
 20
127.316723389772
 30
0.0
 10
102.8396345698914
 20
127.5859398396591
 30
0.0
 10
102.9955166112293
 20
127.7053643012331
 30
0.0
 10
103.3310142034599
 20
127.9168084827148
 30
0.0
 10
103.5103857740695
 20
128.0081762774133
 30
0.0
 10
103.8820114826366
 20
128.1580279687142
 30
0.0
 10
104.075768488711
 20
128.2175554642697
 30
0.0
 10
104.4823948457173
 20
128.3045429168484
 30
0.0
 10
104.6928121389574
 20
128.3309793898841
 30
0.0
 10
105.1128170495726
 20
128.3476215645478
 30
0.0
 10
105.3273425080552
 20
128.3378234348197
 30
0.0
 10
105.7430306236235
 20
128.2829228528449
 30
0.0
 10
105.9447390923613
 20
128.2384135836503
 30
0.0
 10
106.337320827181
 20
128.1155597994534
 30
0.0
 10
106.5243510180721
 20
128.0382747577722
 30
0.0
 10
106.8778424650779
 20
127.8543250371666
 30
0.0
 10
107.0465267850578
 20
127.74619487814
 30
0.0
 10
107.357176470954
 20
127.5032033847498
 30
0.0
 10
107.4996939576633
 20
127.3684918412764
 30
0.0
 10
107.7590982389924
 20
127.0691112158629
 30
0.0
 10
107.8767182452096
 20
126.9025517331666
 30
0.0
 10
108.0732366729151
 20
126.5483374584337
 30
0.0
 10
108.1539324242535
 20
126.3583896937619
 30
0.0
 10
108.272138254164
 20
125.9560990854265
 30
0.0
 10
108.3079182136543
 20
125.750470301028
 30
0.0
 10
108.3314871109306
 20
125.3298328583277
 30
0.0
 10
108.3181675434092
 20
125.1142572788575
 30
0.0
 10
108.2441555871185
 20
124.7018113645436
 30
0.0
 10
108.1826432503385
 20
124.4989186015354
 30
0.0
 10
108.0207546778669
 20
124.1206531374447
 30
0.0
 10
107.9199494382829
 20
123.9428352170034
 30
0.0
 10
107.6860152906392
 20
123.6141770453423
 30
0.0
 10
107.5547809555743
 20
123.4654388609902
 30
0.0
 10
107.2652321818241
 20
123.1945728124265
 30
0.0
 10
107.1068883618859
 20
123.0730000061915
 30
0.0
 10
106.7726537806233
 20
122.8618393497489
 30
0.0
 10
106.595559172656
 20
122.771026174779
 30
0.0
 10
106.2181460271438
 20
122.6184248579736
 30
0.0
 10
106.0220021339671
 20
122.5584899119529
 30
0.0
 10
105.6172660621063
 20
122.4720632710303
 30
0.0
 10
105.4049584218392
 20
122.4453649202445
 30
0.0
 10
104.9833722882632
 20
122.4290063603694
 30
0.0
 10
104.773720189844
 20
122.4386648939433
 30
0.0
 10
104.3566405932807
 20
122.4937094082869
 30
0.0
 10
104.1515577571333
 20
122.5391998372608
 30
0.0
 10
103.7614089877397
 20
122.6616115374407
 30
0.0
 10
103.5724843301011
 20
122.7397089022863
 30
0.0
 10
103.217904733559
 20
122.9247937109994
 30
0.0
 10
103.0517907118856
 20
123.0315234450618
 30
0.0
 10
102.7401408947649
 20
123.2757452638871
 30
0.0
 10
102.5950150057547
 20
123.4135424177069
 30
0.0
 10
102.3369608796096
 20
123.7128025855581
 30
0.0
 10
102.2223725536351
 20
123.8753540323888
 30
0.0
 10
102.0251886826735
 20
124.2315381306261
 30
0.0
 10
101.9439392285382
 20
124.4242534605164
 30
0.0
 10
101.8273021758493
 20
124.8238140022773
 30
0.0
 10
101.790747216115
 20
125.0361714408693
 30
0.0
 10
101.7687626875691
 20
125.4576969501942
 30
0.0
 10
101.7825329479319
 20
125.6707006528606
 30
0.0
 10
101.859016451905
 20
126.0875111050943
 30
0.0
 10
101.9206419671565
 20
126.2874599665601
 30
0.0
 10
102.0853256827594
 20
126.6678220604781
 30
0.0
  0
LINE
  5
252
330
1F
100
AcDbEntity
  8
0
  6
Continuous
 62
     7
370
    15
100
AcDbLine
 10
160.3351736965
 20
124.1383027802
 30
0.0
 11
160.3351736965
 21
115.6938848137
 31
0.0
  0
LINE
  5
253
330
1F
100
AcDbEntity
  8
0
  6
Continuous
 62
     7
370
    15
100
AcDbLine
 10
160.3351736965
 20
100.8778446405
 30
0.0
 11
160.3351736965
 21
100.3388323872
 31
0.0
  0
LINE
  5
254
330
1F
100
AcDbEntity
  8
0
  6
Continuous
 62
     7
370
    15
100
AcDbLine
 10
161.091739178
 20
124.1705745044
 30
0.0
 11
161.091739178
 21
116.0275544091
 31
0.0
  0
LINE
  5
255
330
1F
100
AcDbEntity
  8
0
  6
Continuous
 62
     7
370
    15
100
AcDbLine
 10
161.091739178
 20
100.816485384
 30
0.0
 11
161.091739178
 21
100.2479800074
 31
0.0
  0
LINE
  5
256
330
1F
100
AcDbEntity
  8
0
  6
Continuous
 62
     7
370
    15
100
AcDbLine
 10
165.6315902772
 20
100.3030696004
 30
0.0
 11
165.6315902772
 21
99.7432050347
 31
0.0
  0
LINE
  5
257
330
1F
100
AcDbEntity
  8
0
  6
Continuous
 62
     7
370
    15
100
AcDbLine
 10
164.8750247958
 20
100.3567528962
 30
0.0
 11
164.8750247958
 21
99.8226133227
 31
0.0
  0
LINE
  5
258
330
1F
100
AcDbEntity
  8
0
  6
Continuous
 62
     7
370
    15
100
AcDbLine
 10
169.4148758951
 20
99.902969697
 30
0.0
 11
169.4148758951
 21
99.3734327196
 31
0.0
  0
LINE
  5
259
330
1F
100
AcDbEntity
  8
0
  6
Continuous
 62
     7
370
    15
100
AcDbLine
 10
170.1714413765
 20
99.8565376788
 30
0.0
 11
170.1714413765
 21
99.3048445373
 31
0.0
  0
LINE
  5
25A
330
1F
100
AcDbEntity
  8
0
  6
Continuous
 62
     7
370
    15
100
AcDbLine
 10
170.9000113013
 20
99.7562882542
 30
0.0
 11
170.9000113013
 21
98.5493053733
 31
0.0
  0
LINE
  5
25B
330
1F
100
AcDbEntity
  8
0
  6
Continuous
 62
     7
370
    15
100
AcDbLine
 10
171.0073257389
 20
98.463001573
 30
0.0
 11
171.0073257389
 21
99.8769895225
 31
0.0
  0
LINE
  5
25C
330
1F
100
AcDbEntity
  8
0
  6
Continuous
 62
     7
370
    15
100
AcDbLine
 10
171.3680679503
 20
100.330429995
 30
0.0
 11
171.3680679503
 21
98.3905856549
 31
0.0
  0
LINE
  5
25D
330
1F
100
AcDbEntity
  8
0
  6
Continuous
 62
     7
370
    15
100
AcDbLine
 10
171.8000116351
 20
98.7167832493
 30
0.0
 11
171.8000116351
 21
100.9608385204
 31
0.0
  0
SPLINE
  5
25E
330
1F
100
AcDbEntity
  8
0
  6
Continuous
 62
     7
370
    15
100
AcDbSpline
210
0.0
220
0.0
230
1.0
 70
     8
 71
     3
 72
     8
 73
     4
 74
     0
 42
0.00000001
 43
0.00000001
 40
0.0000003275322004
 40
0.0000003275322004
 40
0.0000003275322004
 40
0.0000003275322004
 40
0.0006564286157556
 40
0.0006564286157556
 40
0.0006564286157556
 40
0.0006564286157556
 10
171.4000122609437
 20
98.38441414342836
 30
0.0
 10
171.533556014809
 20
98.49469550898762
 30
0.0
 10
171.6668922740832
 20
98.60548103014938
 30
0.0
 10
171.8000122609437
 20
98.71678236068486
 30
0.0
  0
LINE
  5
25F
330
1F
100
AcDbEntity
  8
0
  6
Continuous
 62
     7
370
    15
100
AcDbLine
 10
171.8000116351
 20
98.7167832493
 30
0.0
 11
171.8000116351
 21
98.6157422005
 31
0.0
  0
LWPOLYLINE
  5
260
330
1F
100
AcDbEntity
  8
0
  6
Continuous
 62
     7
370
    15
100
AcDbPolyline
 90
       35
 70
   128
 43
0.0
 10
161.7822999659
 20
128.5143090929
 10
162.5570895675
 20
128.6060255072
 10
163.3024083975
 20
128.8435698073
 10
163.9928760531
 20
129.2188525251
 10
164.6049785021
 20
129.7190942853
 10
165.1178727451
 20
130.3272591024
 10
165.5140871706
 20
131.022637622
 10
165.7801399532
 20
131.781549105
 10
165.9069600108
 20
132.5781498156
 10
165.8902371826
 20
133.3853117242
 10
165.7305339876
 20
134.1755491733
 10
165.4332930746
 20
134.9219511314
 10
165.0086360576
 20
135.599099943
 10
164.4710245135
 20
136.1839351296
 10
163.8387645188
 20
136.6565412893
 10
163.133384526
 20
137.0008251681
 10
162.3789126578
 20
137.2050614148
 10
161.6010347905
 20
137.2622967749
 10
160.826245189
 20
137.1705801278
 10
160.080926359
 20
136.9330360605
 10
159.3904587033
 20
136.5577531098
 10
158.7783562544
 20
136.057510884
 10
158.2654657367
 20
135.4493460669
 10
157.8692475858
 20
134.7539675473
 10
157.6031948033
 20
133.9950560643
 10
157.4763747456
 20
133.1984558194
 10
157.4931012991
 20
132.3912934451
 10
157.6528007689
 20
131.601055996
 10
157.9500416818
 20
130.8546540379
 10
158.3746986988
 20
130.1775061577
 10
158.9123139682
 20
129.5926705054
 10
159.544573963
 20
129.1200641128
 10
160.2499502304
 20
128.775780234
 10
161.0044220987
 20
128.5715437546
 10
161.7822999659
 20
128.5143090929
  0
LWPOLYLINE
  5
261
330
1F
100
AcDbEntity
  8
0
  6
Continuous
 62
     7
370
    15
100
AcDbPolyline
 90
       49
 70
   128
 43
0.0
 10
160.5477760139
 20
124.1403152519
 10
161.6491618159
 20
124.239649652
 10
162.7285982075
 20
124.4869648647
 10
163.7676189246
 20
124.8780293092
 10
164.748446882
 20
125.4061517804
 10
165.6542959216
 20
126.0622958937
 10
166.469672561
 20
126.8352349573
 10
167.1806218627
 20
127.711743494
 10
167.7749807539
 20
128.6768246493
 10
168.2425754669
 20
129.7139650262
 10
168.5754115286
 20
130.80541967
 10
168.7677892449
 20
131.932512769
 10
168.8164229098
 20
133.0759594268
 10
168.7204706075
 20
134.2161958157
 10
168.4815826419
 20
135.3337111934
 10
168.1038456562
 20
136.4093850418
 10
167.5937155786
 20
137.4248116328
 10
166.9599319401
 20
138.3626180752
 10
166.2133278849
 20
139.206757681
 10
165.3666848841
 20
139.942785637
 10
164.4344905916
 20
140.558110462
 10
163.4326892498
 20
141.0422016918
 10
162.3784246447
 20
141.3867798685
 10
161.2897383573
 20
141.5859432011
 10
160.1852531138
 20
141.6362904995
 10
159.0838673117
 20
141.5369556337
 10
158.0044309202
 20
141.2896410613
 10
156.965410203
 20
140.8985759183
 10
155.9845822456
 20
140.3704536199
 10
155.0787332061
 20
139.7143098577
 10
154.2633565667
 20
138.9413707941
 10
153.552407265
 20
138.0648621409
 10
152.9580483737
 20
137.0997809856
 10
152.4904536608
 20
136.0626406088
 10
152.157617599
 20
134.9711854993
 10
151.9652361574
 20
133.8440924003
 10
151.9166062179
 20
132.7006457425
 10
152.0125585201
 20
131.5604098193
 10
152.2514464858
 20
130.4428944416
 10
152.6291834715
 20
129.3672205932
 10
153.1393098238
 20
128.3517935365
 10
153.7730971875
 20
127.4139873269
 10
154.5197012427
 20
126.5698480704
 10
155.3663405183
 20
125.8338194159
 10
156.2985385361
 20
125.2184949546
 10
157.3003398779
 20
124.7344030119
 10
158.3546044829
 20
124.3898265814
 10
159.4432907703
 20
124.1906613861
 10
160.5477760139
 20
124.1403152519
  0
LINE
  5
262
330
1F
100
AcDbEntity
  8
0
  6
Continuous
 62
     7
370
    15
100
AcDbLine
 10
165.0369631651
 20
132.9625955834
 30
0.0
 11
163.4264642897
 21
129.9261394008
 31
0.0
  0
LINE
  5
263
330
1F
100
AcDbEntity
  8
0
  6
Continuous
 62
     7
370
    15
100
AcDbLine
 10
163.3021699789
 20
135.9247592329
 30
0.0
 11
165.0369631651
 21
132.9625955834
 31
0.0
  0
LINE
  5
264
330
1F
100
AcDbEntity
  8
0
  6
Continuous
 62
     7
370
    15
100
AcDbLine
 10
159.956874192
 20
135.8504666998
 30
0.0
 11
163.3021699789
 21
135.9247592329
 31
0.0
  0
LINE
  5
265
330
1F
100
AcDbEntity
  8
0
  6
Continuous
 62
     7
370
    15
100
AcDbLine
 10
158.3463715914
 20
132.8140100516
 30
0.0
 11
159.956874192
 21
135.8504666998
 31
0.0
  0
LINE
  5
266
330
1F
100
AcDbEntity
  8
0
  6
Continuous
 62
     7
370
    15
100
AcDbLine
 10
160.0811685028
 20
129.8518464021
 30
0.0
 11
158.3463715914
 21
132.8140100516
 31
0.0
  0
LINE
  5
267
330
1F
100
AcDbEntity
  8
0
  6
Continuous
 62
     7
370
    15
100
AcDbLine
 10
163.4264642897
 20
129.9261394008
 30
0.0
 11
160.0811685028
 21
129.8518464021
 31
0.0
  0
LINE
  5
268
330
1F
100
AcDbEntity
  8
0
  6
Continuous
 62
     7
370
    15
100
AcDbLine
 10
162.6189480129
 20
129.9261394008
 30
0.0
 11
163.4264642897
 21
129.9261394008
 31
0.0
  0
LINE
  5
269
330
1F
100
AcDbEntity
  8
0
  6
Continuous
 62
     7
370
    15
100
AcDbLine
 10
160.9463001194
 20
129.8889926686
 30
0.0
 11
160.0708010199
 21
129.8695494472
 31
0.0
  0
LINE
  5
26A
330
1F
100
AcDbEntity
  8
0
  6
Continuous
 62
     7
370
    15
100
AcDbLine
 10
162.6189480129
 20
129.9261394008
 30
0.0
 11
160.9463001194
 21
129.8889926686
 31
0.0
  0
LINE
  5
26B
330
1F
100
AcDbEntity
  8
0
  6
Continuous
 62
     7
370
    15
100
AcDbLine
 10
164.2294468882
 20
132.9625955834
 30
0.0
 11
165.0369631651
 21
132.9625955834
 31
0.0
  0
LINE
  5
26C
330
1F
100
AcDbEntity
  8
0
  6
Continuous
 62
     7
370
    15
100
AcDbLine
 10
163.3620502951
 20
134.4436769425
 30
0.0
 11
164.2294468882
 21
132.9625955834
 31
0.0
  0
LINE
  5
26D
330
1F
100
AcDbEntity
  8
0
  6
Continuous
 62
     7
370
    15
100
AcDbLine
 10
162.505021185
 20
135.9070557221
 30
0.0
 11
163.3620502951
 21
134.4436769425
 31
0.0
  0
LINE
  5
26E
330
1F
100
AcDbEntity
  8
0
  6
Continuous
 62
     7
370
    15
100
AcDbLine
 10
163.4241993132
 20
131.4443674921
 30
0.0
 11
162.6189480129
 21
129.9261394008
 31
0.0
  0
LINE
  5
26F
330
1F
100
AcDbEntity
  8
0
  6
Continuous
 62
     7
370
    15
100
AcDbLine
 10
164.2294468882
 20
132.9625955834
 30
0.0
 11
163.4241993132
 21
131.4443674921
 31
0.0
  0
ARC
  5
270
330
1F
100
AcDbEntity
  8
0
  6
Continuous
 62
     7
370
    15
100
AcDbCircle
 10
160.884767671
 20
132.6964328259
 30
0.0
 40
2.808114399212367
100
AcDbArc
 50
250.9911522665
 51
271.2555869496
  0
ARC
  5
271
330
1F
100
AcDbEntity
  8
0
  6
Continuous
 62
     7
370
    15
100
AcDbCircle
 10
160.8866624228
 20
133.072373574
 30
0.0
 40
2.816121499283892
100
AcDbArc
 50
97.7662924065
 51
110.9895275678
  0
ARC
  5
272
330
1F
100
AcDbEntity
  8
0
  6
Continuous
 62
     7
370
    15
100
AcDbCircle
 10
160.8614218739
 20
133.0052241952
 30
0.0
 40
2.884837743668984
100
AcDbArc
 50
29.9090844329
 51
84.4856484395
  0
ARC
  5
273
330
1F
100
AcDbEntity
  8
0
  6
Continuous
 62
     7
370
    15
100
AcDbCircle
 10
160.6925343541
 20
132.8880629882
 30
0.0
 40
3.089700654455079
100
AcDbArc
 50
332.1433750186
 51
30.2307494173
  0
ARC
  5
274
330
1F
100
AcDbEntity
  8
0
  6
Continuous
 62
     7
370
    15
100
AcDbCircle
 10
160.8618164629
 20
132.7750684521
 30
0.0
 40
2.887312057345398
100
AcDbArc
 50
271.6767318001
 51
332.5561696103
  0
ARC
  5
275
330
1F
100
AcDbEntity
  8
0
  6
Continuous
 62
     7
370
    15
100
AcDbCircle
 10
160.5025137588
 20
132.8883024682
 30
0.0
 40
8.753137422457833
100
AcDbArc
 50
91.5341817921
 51
268.4658182079
  0
LINE
  5
276
330
1F
100
AcDbEntity
  8
0
  6
Continuous
 62
     7
370
    15
100
AcDbLine
 10
180.6000115874
 20
122.8883028082
 30
0.0
 11
180.6000115874
 21
127.8883026964
 31
0.0
  0
LINE
  5
277
330
1F
100
AcDbEntity
  8
0
  6
Continuous
 62
     7
370
    15
100
AcDbLine
 10
180.8000112477
 20
123.0883027013
 30
0.0
 11
180.8000112477
 21
127.6883028033
 31
0.0
  0
LINE
  5
278
330
1F
100
AcDbEntity
  8
0
  6
HIDDEN
 62
     7
370
     0
100
AcDbLine
 10
171.4000123146
 20
152.3921907931
 30
0.0
 11
171.4000123146
 21
152.8883026033
 31
0.0
  0
LINE
  5
279
330
1F
100
AcDbEntity
  8
0
  6
HIDDEN
 62
     7
370
     0
100
AcDbLine
 10
171.4000123146
 20
152.7958557992
 30
0.0
 11
171.4000123146
 21
152.3921907931
 31
0.0
  0
LINE
  5
27A
330
1F
100
AcDbEntity
  8
0
  6
HIDDEN
 62
     7
370
     0
100
AcDbLine
 10
171.4000123146
 20
97.8883029013
 30
0.0
 11
171.4000123146
 21
98.3844147115
 31
0.0
  0
SPLINE
  5
27B
330
1F
100
AcDbEntity
  8
0
  6
HIDDEN
 62
     7
370
     0
100
AcDbSpline
210
0.0
220
0.0
230
1.0
 70
     8
 71
     3
 72
    12
 73
     8
 74
     0
 42
0.00000001
 43
0.00000001
 40
0.0
 40
0.0
 40
0.0
 40
0.0
 40
0.25
 40
0.25
 40
0.5
 40
0.5
 40
1.0
 40
1.0
 40
1.0
 40
1.0
 10
131.7584760097732
 20
124.6303979135963
 30
0.0
 10
131.7316792990655
 20
124.7511690528936
 30
0.0
 10
131.7145725614155
 20
124.8750997964177
 30
0.0
 10
131.6925839439656
 20
125.1288046420956
 30
0.0
 10
131.6877063183278
 20
125.2594387096908
 30
0.0
 10
131.6877058082411
 20
125.6460111493701
 30
0.0
 10
131.7049014203621
 20
125.9047501870903
 30
0.0
 10
131.7584760097732
 20
126.1462075909909
 30
0.0
  0
ARC
  5
27C
330
1F
100
AcDbEntity
  8
0
  6
HIDDEN
 62
     7
370
     0
100
AcDbCircle
 10
129.8000122609
 20
125.3883027523
 30
0.0
 40
2.100000000000021
100
AcDbArc
 50
270.0
 51
338.8440874974
  0
ARC
  5
27D
330
1F
100
AcDbEntity
  8
0
  6
HIDDEN
 62
     7
370
     0
100
AcDbCircle
 10
129.8000122609
 20
125.3883027523
 30
0.0
 40
2.099999999999994
100
AcDbArc
 50
270.0
 51
90.0
  0
ARC
  5
27E
330
1F
100
AcDbEntity
  8
0
  6
HIDDEN
 62
     7
370
     0
100
AcDbCircle
 10
129.8000122609
 20
125.3883027523
 30
0.0
 40
2.099999999999994
100
AcDbArc
 50
21.1559125026
 51
90.0
  0
LINE
  5
27F
330
1F
100
AcDbEntity
  8
0
  6
HIDDEN
 62
     7
370
     0
100
AcDbLine
 10
118.8000122609
 20
149.8883021115
 30
0.0
 11
118.8000122609
 21
100.888303393
 31
0.0
  0
ARC
  5
280
330
1F
100
AcDbEntity
  8
0
  6
HIDDEN
 62
     7
370
     0
100
AcDbCircle
 10
129.8000122609
 20
125.3883027523
 30
0.0
 40
2.099999999999994
100
AcDbArc
 50
90.0
 51
151.272871949
  0
LWPOLYLINE
  5
281
330
1F
100
AcDbEntity
  8
0
  6
HIDDEN
 62
     7
370
     0
100
AcDbPolyline
 90
       20
 70
   128
 43
0.0
 10
127.9584829288
 20
126.3976440816
 10
127.8685236874
 20
126.8641437921
 10
127.7488906461
 20
127.2173846657
 10
127.6087657141
 20
127.4302582308
 10
127.4589010107
 20
127.4864283907
 10
127.3107993009
 20
127.3815842862
 10
127.1758245828
 20
127.1237720787
 10
127.0643350261
 20
126.7327766684
 10
126.9848876226
 20
126.2386038136
 10
126.9435788098
 20
125.6791771732
 10
126.9435788098
 20
125.0974283314
 10
126.9848876226
 20
124.538001691
 10
127.0643350261
 20
124.0438288362
 10
127.1758245828
 20
123.6528334259
 10
127.3107993009
 20
123.3950212184
 10
127.4589010107
 20
123.2901771139
 10
127.6087657141
 20
123.3463472738
 10
127.7488906461
 20
123.5592208388
 10
127.8685236874
 20
123.9124617125
 10
127.9584829288
 20
124.378961423
  0
ARC
  5
282
330
1F
100
AcDbEntity
  8
0
  6
HIDDEN
 62
     7
370
     0
100
AcDbCircle
 10
129.8000122609
 20
125.3883027523
 30
0.0
 40
2.100000000000548
100
AcDbArc
 50
208.727128051
 51
270.0
  0
ARC
  5
283
330
1F
100
AcDbEntity
  8
0
  6
HIDDEN
 62
     7
370
     0
100
AcDbCircle
 10
129.8000122609
 20
125.3883027523
 30
0.0
 40
2.099999999999994
100
AcDbArc
 50
90.0
 51
270.0
  0
SPLINE
  5
284
330
1F
100
AcDbEntity
  8
0
  6
HIDDEN
 62
     7
370
     0
100
AcDbSpline
210
0.0
220
0.0
230
1.0
 70
     8
 71
     3
 72
    14
 73
    10
 74
     0
 42
0.00000001
 43
0.00000001
 40
0.0
 40
0.0
 40
0.0
 40
0.0
 40
0.25
 40
0.25
 40
0.5
 40
0.5
 40
0.75
 40
0.75
 40
1.0
 40
1.0
 40
1.0
 40
1.0
 10
127.9584830074345
 20
124.3789613786891
 30
0.0
 10
127.8753797118999
 20
124.5305821819099
 30
0.0
 10
127.8101239860345
 20
124.6943525704853
 30
0.0
 10
127.7221425461624
 20
125.0366215758743
 30
0.0
 10
127.7000137546364
 20
125.2109131400813
 30
0.0
 10
127.7000107673999
 20
125.5656569970344
 30
0.0
 10
127.7222113635306
 20
125.7397572836858
 30
0.0
 10
127.8093256483984
 20
126.0796374523916
 30
0.0
 10
127.8751943076914
 20
126.2456850552858
 30
0.0
 10
127.9584830074349
 20
126.3976441258989
 30
0.0
  0
LINE
  5
285
330
1F
100
AcDbEntity
  8
0
  6
HIDDEN
 62
     7
370
     0
100
AcDbLine
 10
118.8000122609
 20
109.673271799
 30
0.0
 11
118.8000122609
 21
141.0849810629
 31
0.0
  0
SPLINE
  5
286
330
1F
100
AcDbEntity
  8
0
  6
HIDDEN
 62
     7
370
     0
100
AcDbSpline
210
0.0
220
0.0
230
1.0
 70
     8
 71
     3
 72
    13
 73
     9
 74
     0
 42
0.00000001
 43
0.00000001
 40
0.0
 40
0.0
 40
0.0
 40
0.0
 40
0.1799845376380752
 40
0.3636282708277979
 40
0.5297023901830342
 40
0.7001743716836349
 40
0.8664734852655758
 40
1.0
 40
1.0
 40
1.0
 40
1.0
 10
100.4243733885587
 20
138.7091110511794
 30
0.0
 10
100.18555974592
 20
138.7677290085262
 30
0.0
 10
99.70307723346424
 20
138.8861566620859
 30
0.0
 10
99.10894398589173
 20
139.0551463469809
 30
0.0
 10
98.62498811570475
 20
139.2017191612943
 30
0.0
 10
98.28304670496489
 20
139.3111674134931
 30
0.0
 10
98.07746760099448
 20
139.3791160395505
 30
0.0
 10
98.06873711646817
 20
139.3820579392194
 30
0.0
 10
98.06484901931888
 20
139.3833681061043
 30
0.0
  0
SPLINE
  5
287
330
1F
100
AcDbEntity
  8
0
  6
HIDDEN
 62
     7
370
     0
100
AcDbSpline
210
0.0
220
0.0
230
1.0
 70
     8
 71
     3
 72
    20
 73
    16
 74
     0
 42
0.00000001
 43
0.00000001
 40
0.0
 40
0.0
 40
0.0
 40
0.0
 40
0.01772407963515
 40
0.1185320597002866
 40
0.2211153539772501
 40
0.3404946275784237
 40
0.4122995434346116
 40
0.4856842598736443
 40
0.5679984385393212
 40
0.6525677451872699
 40
0.7370517584356405
 40
0.824001646822672
 40
0.9106452328061853
 40
0.9883571396295268
 40
1.0
 40
1.0
 40
1.0
 40
1.0
 10
112.0324017072917
 20
139.3824423714652
 30
0.0
 10
112.0371619049729
 20
139.38402815992
 30
0.0
 10
112.068996338543
 20
139.3946333239494
 30
0.0
 10
111.7690007539609
 20
139.2941211596253
 30
0.0
 10
110.970976447916
 20
139.0441563183427
 30
0.0
 10
109.9011934700098
 20
138.7529280854813
 30
0.0
 10
108.7876522344207
 20
138.5108948525412
 30
0.0
 10
107.7480345341957
 20
138.332674676863
 30
0.0
 10
106.584512905388
 20
138.1982462464624
 30
0.0
 10
105.3254302979598
 20
138.1357492144267
 30
0.0
 10
104.0341554962339
 20
138.1611955395363
 30
0.0
 10
102.7660106765884
 20
138.275687873136
 30
0.0
 10
101.5776504110673
 20
138.4540804132441
 30
0.0
 10
100.8542623421274
 20
138.6196206636793
 30
0.0
 10
100.4739303651127
 20
138.6987947287935
 30
0.0
 10
100.4243733885587
 20
138.7091110511794
 30
0.0
  0
LINE
  5
288
330
1F
100
AcDbEntity
  8
0
  6
HIDDEN
 62
     7
370
     0
100
AcDbLine
 10
116.3000123168
 20
139.3883031844
 30
0.0
 11
116.3000123168
 21
111.3883023202
 31
0.0
  0
LINE
  5
289
330
1F
100
AcDbEntity
  8
0
  6
HIDDEN
 62
     7
370
     0
100
AcDbLine
 10
97.8000125441
 20
139.3883031844
 30
0.0
 11
97.8000125441
 21
111.3883023202
 31
0.0
  0
LINE
  5
28A
330
1F
100
AcDbEntity
  8
0
  6
HIDDEN
 62
     7
370
     0
100
AcDbLine
 10
90.8000113967
 20
138.1783028185
 30
0.0
 11
90.8000113967
 21
112.5983026861
 31
0.0
  0
LINE
  5
28B
330
1F
100
AcDbEntity
  8
0
  6
HIDDEN
 62
     7
370
     0
100
AcDbLine
 10
171.8000116351
 20
127.9406725946
 30
0.0
 11
171.8000116351
 21
127.8883026964
 31
0.0
  0
LINE
  5
28C
330
1F
100
AcDbEntity
  8
0
  6
HIDDEN
 62
     7
370
     0
100
AcDbLine
 10
171.8000116351
 20
122.83593291
 30
0.0
 11
171.8000116351
 21
122.8883028082
 31
0.0
  0
LINE
  5
28D
330
1F
100
AcDbEntity
  8
0
  6
HIDDEN
 62
     7
370
     0
100
AcDbLine
 10
110.5288694206
 20
137.8671600535
 30
0.0
 11
99.5711552503
 21
137.8671600535
 31
0.0
  0
SPLINE
  5
28E
330
1F
100
AcDbEntity
  8
0
  6
HIDDEN
 62
     7
370
     0
100
AcDbSpline
210
0.0
220
0.0
230
1.0
 70
    11
 71
     3
 72
    31
 73
    27
 74
     0
 42
0.00000001
 43
0.00000001
 40
0.0
 40
0.0
 40
0.0
 40
0.0
 40
0.0330267464766592
 40
0.0843369769916782
 40
0.1353580820422432
 40
0.1947751243883415
 40
0.2400731392398938
 40
0.2853324906009125
 40
0.3336470948082986
 40
0.3917417866565479
 40
0.4362174386767594
 40
0.4771831929109859
 40
0.4809490818134559
 40
0.5200270721162169
 40
0.5592520993055791
 40
0.6046161914682432
 40
0.6595869706841093
 40
0.7087270314132103
 40
0.7580918396891817
 40
0.803136398675678
 40
0.855242890205076
 40
0.9152129198231786
 40
0.9561449680337639
 40
0.9772411725664525
 40
0.997216599746245
 40
0.9999999999999999
 40
0.9999999999999999
 40
0.9999999999999999
 40
0.9999999999999999
 10
101.8215472402871
 20
129.6095372228994
 30
0.0
 10
101.8723143481112
 20
129.5773607598843
 30
0.0
 10
102.0019530458716
 20
129.4951950635781
 30
0.0
 10
102.5149409794527
 20
129.1887155246365
 30
0.0
 10
103.31960571398
 20
128.7876093791156
 30
0.0
 10
104.2886890970224
 20
128.471728439204
 30
0.0
 10
105.3160951588883
 20
128.415428284753
 30
0.0
 10
106.2328838345212
 20
128.5921864457224
 30
0.0
 10
107.1105047285932
 20
128.9385257581212
 30
0.0
 10
107.7952377742431
 20
129.3098597072448
 30
0.0
 10
108.2580741397694
 20
129.5954571644512
 30
0.0
 10
108.2736618848862
 20
129.6065400102601
 30
0.0
 10
108.3604084765214
 20
129.6613216201662
 30
0.0
 10
108.2040558502878
 20
129.5614186323654
 30
0.0
 10
107.8647659321335
 20
129.3532815055464
 30
0.0
 10
107.2556260551215
 20
129.0142876352753
 30
0.0
 10
106.4329425042671
 20
128.6522180820456
 30
0.0
 10
105.4345414199761
 20
128.4187060520748
 30
0.0
 10
104.4442251112207
 20
128.4535622088526
 30
0.0
 10
103.5204505828296
 20
128.7104250407388
 30
0.0
 10
102.6712074174441
 20
129.1002403133693
 30
0.0
 10
102.0799048981031
 20
129.445697703571
 30
0.0
 10
101.773594270111
 20
129.6396871962131
 30
0.0
 10
101.8286051506969
 20
129.6050605156059
 30
0.0
 10
101.7713712010606
 20
129.6408494248913
 30
0.0
 10
101.8160794321529
 20
129.6129493916435
 30
0.0
 10
101.8215472402871
 20
129.6095372228994
 30
0.0
  0
SPLINE
  5
28F
330
1F
100
AcDbEntity
  8
0
  6
HIDDEN
 62
     7
370
     0
100
AcDbSpline
210
0.0
220
0.0
230
1.0
 70
     8
 71
     3
 72
     8
 73
     4
 74
     0
 42
0.00000001
 43
0.00000001
 40
0.0000003285753489
 40
0.0000003285753489
 40
0.0000003285753489
 40
0.0000003285753489
 40
0.0006564296589041
 40
0.0006564296589041
 40
0.0006564296589041
 40
0.0006564296589041
 10
171.8000122609437
 20
152.0598231439023
 30
0.0
 10
171.6668922740832
 20
152.1711244744378
 30
0.0
 10
171.533556014809
 20
152.2819099955995
 30
0.0
 10
171.4000122609437
 20
152.3921913611588
 30
0.0
  0
LINE
  5
290
330
1F
100
AcDbEntity
  8
0
  6
HIDDEN
 62
     7
370
     0
100
AcDbLine
 10
171.8000116351
 20
127.9406725946
 30
0.0
 11
171.8000116351
 21
152.0598222553
 31
0.0
  0
LINE
  5
291
330
1F
100
AcDbEntity
  8
0
  6
HIDDEN
 62
     7
370
     0
100
AcDbLine
 10
171.8000116351
 20
100.9608385204
 30
0.0
 11
171.8000116351
 21
122.83593291
 31
0.0
  0
LINE
  5
292
330
1F
100
AcDbEntity
  8
0
  6
HIDDEN
 62
     7
370
     0
100
AcDbLine
 10
171.8000116351
 20
152.0598222553
 30
0.0
 11
171.8000116351
 21
152.4883032828
 31
0.0
  0
SPLINE
  5
293
330
1F
100
AcDbEntity
  8
0
  6
HIDDEN
 62
     7
370
     0
100
AcDbSpline
210
0.0
220
0.0
230
1.0
 70
     8
 71
     3
 72
     8
 73
     4
 74
     0
 42
0.00000001
 43
0.00000001
 40
0.0000003275322004
 40
0.0000003275322004
 40
0.0000003275322004
 40
0.0000003275322004
 40
0.0006564286157556
 40
0.0006564286157556
 40
0.0006564286157556
 40
0.0006564286157556
 10
171.4000122609437
 20
152.3921913611588
 30
0.0
 10
171.533556014809
 20
152.2819099955995
 30
0.0
 10
171.6668922740832
 20
152.1711244744378
 30
0.0
 10
171.8000122609437
 20
152.0598231439023
 30
0.0
  0
LINE
  5
294
330
1F
100
AcDbEntity
  8
0
  6
HIDDEN
 62
     7
370
     0
100
AcDbLine
 10
171.8000116351
 20
98.7167832493
 30
0.0
 11
171.8000116351
 21
98.2883022218
 31
0.0
  0
SPLINE
  5
295
330
1F
100
AcDbEntity
  8
0
  6
HIDDEN
 62
     7
370
     0
100
AcDbSpline
210
0.0
220
0.0
230
1.0
 70
     8
 71
     3
 72
     8
 73
     4
 74
     0
 42
0.00000001
 43
0.00000001
 40
0.0000003285753489
 40
0.0000003285753489
 40
0.0000003285753489
 40
0.0000003285753489
 40
0.0006564296589041
 40
0.0006564296589041
 40
0.0006564296589041
 40
0.0006564296589041
 10
171.8000122609437
 20
98.71678236068486
 30
0.0
 10
171.6668922740832
 20
98.60548103014938
 30
0.0
 10
171.533556014809
 20
98.49469550898762
 30
0.0
 10
171.4000122609437
 20
98.38441414342837
 30
0.0
  0
LINE
  5
296
330
1F
100
AcDbEntity
  8
0
  6
HIDDEN
 62
     7
370
     0
100
AcDbLine
 10
91.6660370829
 20
129.6383029833
 30
0.0
 11
91.6660370829
 21
121.1383025213
 31
0.0
  0
LINE
  5
297
330
1F
100
AcDbEntity
  8
0
  6
HIDDEN
 62
     7
370
     0
100
AcDbLine
 10
90.8000113967
 20
120.638302905
 30
0.0
 11
90.8000113967
 21
130.1191806845
 31
0.0
  0
LINE
  5
298
330
1F
100
AcDbEntity
  8
0
  6
HIDDEN
 62
     7
370
     0
100
AcDbLine
 10
130.8000123653
 20
123.5416842676
 30
0.0
 11
130.8000123653
 21
121.1383025213
 31
0.0
  0
LINE
  5
299
330
1F
100
AcDbEntity
  8
0
  6
HIDDEN
 62
     7
370
     0
100
AcDbLine
 10
130.8000123653
 20
127.234921237
 30
0.0
 11
130.8000123653
 21
129.6383029833
 31
0.0
  0
SPLINE
  5
29A
330
1F
100
AcDbEntity
  8
0
  6
HIDDEN
 62
     7
370
     0
100
AcDbSpline
210
0.0
220
0.0
230
1.0
 70
     8
 71
     3
 72
    30
 73
    26
 74
     0
 42
0.00000001
 43
0.00000001
 40
0.0
 40
0.0
 40
0.0
 40
0.0
 40
0.1249999999999997
 40
0.1249999999999997
 40
0.1874999999999997
 40
0.1874999999999997
 40
0.2499999999999997
 40
0.2499999999999997
 40
0.3749999999999996
 40
0.3749999999999996
 40
0.4374999999999997
 40
0.4374999999999997
 40
0.4999999999999998
 40
0.4999999999999998
 40
0.5624999999999999
 40
0.5624999999999999
 40
0.6249999999999999
 40
0.6249999999999999
 40
0.6875
 40
0.6875
 40
0.7499999999999999
 40
0.7499999999999999
 40
0.875
 40
0.875
 40
1.0
 40
1.0
 40
1.0
 40
1.0
 10
130.8000122609437
 20
123.5416842210316
 30
0.0
 10
130.9180381640586
 20
123.6055988309615
 30
0.0
 10
131.0358839328082
 20
123.6835073011816
 30
0.0
 10
131.2124586678874
 20
123.8323716074886
 30
0.0
 10
131.271282273706
 20
123.887405504823
 30
0.0
 10
131.3885620273931
 20
124.0121350163574
 30
0.0
 10
131.4469369714821
 20
124.0819421932914
 30
0.0
 10
131.6130297231865
 20
124.3118626328275
 30
0.0
 10
131.7154132931458
 20
124.499383698266
 30
0.0
 10
131.822800302593
 20
124.8133565911149
 30
0.0
 10
131.8516133782713
 20
124.9254828597336
 30
0.0
 10
131.8899266444328
 20
125.1526605080876
 30
0.0
 10
131.8998131056622
 20
125.2679017256169
 30
0.0
 10
131.9002054985473
 20
125.5016533563039
 30
0.0
 10
131.8905337452419
 20
125.6182624356295
 30
0.0
 10
131.8530418699066
 20
125.8446260554396
 30
0.0
 10
131.8247017250306
 20
125.9567009707441
 30
0.0
 10
131.7530905214429
 20
126.1680009433186
 30
0.0
 10
131.7102454023781
 20
126.2668876537491
 30
0.0
 10
131.6136721069783
 20
126.4520414639055
 30
0.0
 10
131.5601323512377
 20
126.5376098563448
 30
0.0
 10
131.3946251910983
 20
126.7677692468848
 30
0.0
 10
131.2743582498827
 20
126.8917817667197
 30
0.0
 10
131.0370164627049
 20
127.0924054037631
 30
0.0
 10
130.9185089972568
 20
127.170751703154
 30
0.0
 10
130.8000122609419
 20
127.2349212835565
 30
0.0
  0
SPLINE
  5
29B
330
1F
100
AcDbEntity
  8
0
  6
HIDDEN
 62
     7
370
     0
100
AcDbSpline
210
0.0
220
0.0
230
1.0
 70
     8
 71
     3
 72
    30
 73
    26
 74
     0
 42
0.00000001
 43
0.00000001
 40
0.0
 40
0.0
 40
0.0
 40
0.0
 40
0.1249999999999994
 40
0.1249999999999994
 40
0.1874999999999994
 40
0.1874999999999994
 40
0.2499999999999994
 40
0.2499999999999994
 40
0.3749999999999993
 40
0.3749999999999993
 40
0.4374999999999994
 40
0.4374999999999994
 40
0.4999999999999996
 40
0.4999999999999996
 40
0.5624999999999997
 40
0.5624999999999997
 40
0.6249999999999998
 40
0.6249999999999998
 40
0.6874999999999998
 40
0.6874999999999998
 40
0.7499999999999998
 40
0.7499999999999998
 40
0.8749999999999999
 40
0.8749999999999999
 40
1.0
 40
1.0
 40
1.0
 40
1.0
 10
130.8000122609437
 20
127.2349212835555
 30
0.0
 10
130.9180381640586
 20
127.1710066736256
 30
0.0
 10
131.0358839328082
 20
127.0930982034055
 30
0.0
 10
131.2124586678874
 20
126.9442338970985
 30
0.0
 10
131.271282273706
 20
126.8891999997641
 30
0.0
 10
131.3885620273931
 20
126.7644704882297
 30
0.0
 10
131.4469369714821
 20
126.6946633112957
 30
0.0
 10
131.6130297231865
 20
126.4647428717596
 30
0.0
 10
131.7154132931458
 20
126.2772218063211
 30
0.0
 10
131.822800302593
 20
125.9632489134723
 30
0.0
 10
131.8516133782713
 20
125.8511226448535
 30
0.0
 10
131.8899266444328
 20
125.6239449964996
 30
0.0
 10
131.8998131056622
 20
125.5087037789702
 30
0.0
 10
131.9002054985473
 20
125.2749521482833
 30
0.0
 10
131.8905337452419
 20
125.1583430689576
 30
0.0
 10
131.8530418699066
 20
124.9319794491475
 30
0.0
 10
131.8247017250306
 20
124.8199045338431
 30
0.0
 10
131.7530905214429
 20
124.6086045612685
 30
0.0
 10
131.7102454023781
 20
124.5097178508381
 30
0.0
 10
131.6136721069783
 20
124.3245640406817
 30
0.0
 10
131.5601323512377
 20
124.2389956482423
 30
0.0
 10
131.3946251910983
 20
124.0088362577023
 30
0.0
 10
131.2743582498827
 20
123.8848237378674
 30
0.0
 10
131.0370164627048
 20
123.684200100824
 30
0.0
 10
130.9185089972568
 20
123.6058538014332
 30
0.0
 10
130.8000122609419
 20
123.5416842210307
 30
0.0
  0
LINE
  5
29C
330
1F
100
AcDbEntity
  8
0
  6
HIDDEN
 62
     7
370
     0
100
AcDbLine
 10
171.8000116351
 20
122.83593291
 30
0.0
 11
171.8000116351
 21
98.7167832493
 31
0.0
  0
LWPOLYLINE
  5
29D
330
1F
100
AcDbEntity
  8
0
  6
HIDDEN
 62
     7
370
     0
100
AcDbPolyline
 90
       20
 70
   128
 43
0.0
 10
127.9584829288
 20
124.378961423
 10
127.8685236874
 20
123.9124617125
 10
127.7488906461
 20
123.5592208388
 10
127.6087657141
 20
123.3463472738
 10
127.4589010107
 20
123.2901771139
 10
127.3107993009
 20
123.3950212184
 10
127.1758245828
 20
123.6528334259
 10
127.0643350261
 20
124.0438288362
 10
126.9848876226
 20
124.538001691
 10
126.9435788098
 20
125.0974283314
 10
126.9435788098
 20
125.6791771732
 10
126.9848876226
 20
126.2386038136
 10
127.0643350261
 20
126.7327766684
 10
127.1758245828
 20
127.1237720787
 10
127.3107993009
 20
127.3815842862
 10
127.4589010107
 20
127.4864283907
 10
127.6087657141
 20
127.4302582308
 10
127.7488906461
 20
127.2173846657
 10
127.8685236874
 20
126.8641437921
 10
127.9584829288
 20
126.3976440816
  0
SPLINE
  5
29E
330
1F
100
AcDbEntity
  8
0
  6
HIDDEN
 62
     7
370
     0
100
AcDbSpline
210
0.0
220
0.0
230
1.0
 70
     8
 71
     3
 72
    14
 73
    10
 74
     0
 42
0.00000001
 43
0.00000001
 40
0.0
 40
0.0
 40
0.0
 40
0.0
 40
0.25
 40
0.25
 40
0.5
 40
0.5
 40
0.75
 40
0.75
 40
1.0
 40
1.0
 40
1.0
 40
1.0
 10
127.9584830074345
 20
126.397644125898
 30
0.0
 10
127.8753797119
 20
126.2460233226773
 30
0.0
 10
127.8101239860345
 20
126.0822529341018
 30
0.0
 10
127.7221425461624
 20
125.7399839287129
 30
0.0
 10
127.7000137546364
 20
125.5656923645058
 30
0.0
 10
127.7000107673999
 20
125.2109485075527
 30
0.0
 10
127.7222113635306
 20
125.0368482209013
 30
0.0
 10
127.8093256483984
 20
124.6969680521955
 30
0.0
 10
127.8751943076914
 20
124.5309204493013
 30
0.0
 10
127.9584830074349
 20
124.3789613786882
 30
0.0
  0
ARC
  5
29F
330
1F
100
AcDbEntity
  8
0
  6
HIDDEN
 62
     7
370
     0
100
AcDbCircle
 10
129.8000122609
 20
125.3883027523
 30
0.0
 40
2.10000000000001
100
AcDbArc
 50
338.8440874974
 51
21.1559125026
  0
LWPOLYLINE
  5
2A0
330
1F
100
AcDbEntity
  8
0
  6
HIDDEN
 62
     7
370
     0
100
AcDbPolyline
 90
       24
 70
   128
 43
0.0
 10
141.5483410063
 20
125.3883027523
 10
141.5281871858
 20
124.8217295208
 10
141.4692158404
 20
124.2971763997
 10
141.3758023235
 20
123.8535471778
 10
141.2548756751
 20
123.5237438516
 10
141.1154045316
 20
123.3322260953
 10
140.9677302989
 20
123.2931983243
 10
140.8228071931
 20
123.40955474
 10
140.6913845393
 20
123.6726659401
 10
140.5832076969
 20
124.0630180393
 10
140.5062990787
 20
124.5516604679
 10
140.4663639667
 20
125.1023527868
 10
140.4663639667
 20
125.6742527178
 10
140.5062990787
 20
126.2249450367
 10
140.5832076969
 20
126.7135874652
 10
140.6913845393
 20
127.1039395644
 10
140.8228071931
 20
127.3670507646
 10
140.9677302989
 20
127.4834071803
 10
141.1154045316
 20
127.4443794093
 10
141.2548756751
 20
127.252861653
 10
141.3758023235
 20
126.9230583268
 10
141.4692158404
 20
126.4794291048
 10
141.5281871858
 20
125.9548759838
 10
141.5483410063
 20
125.3883027523
  0
LINE
  5
2A1
330
1F
100
AcDbEntity
  8
0
  6
HIDDEN
 62
     7
370
     0
100
AcDbLine
 10
141.0048211518
 20
127.4883026774
 30
0.0
 11
129.8000122013
 21
127.4883026774
 31
0.0
  0
LINE
  5
2A2
330
1F
100
AcDbEntity
  8
0
  6
HIDDEN
 62
     7
370
     0
100
AcDbLine
 10
129.8000122013
 20
123.2883028272
 30
0.0
 11
141.0048211518
 21
123.2883028272
 31
0.0
  0
LINE
  5
2A3
330
1F
100
AcDbEntity
  8
0
  6
HIDDEN
 62
     7
370
     0
100
AcDbLine
 10
129.8000122013
 20
127.4883026774
 30
0.0
 11
127.4818599748
 21
127.4883026774
 31
0.0
  0
LINE
  5
2A4
330
1F
100
AcDbEntity
  8
0
  6
HIDDEN
 62
     7
370
     0
100
AcDbLine
 10
127.4818599748
 20
123.2883028272
 30
0.0
 11
129.8000122013
 21
123.2883028272
 31
0.0
  0
LINE
  5
2A5
330
1F
100
AcDbEntity
  8
0
  6
HIDDEN
 62
     7
370
     0
100
AcDbLine
 10
127.2394814121
 20
127.2679323149
 30
0.0
 11
126.2630479003
 21
125.3883027523
 31
0.0
  0
LINE
  5
2A6
330
1F
100
AcDbEntity
  8
0
  6
HIDDEN
 62
     7
370
     0
100
AcDbLine
 10
126.2630479003
 20
125.3883027523
 30
0.0
 11
127.2394814121
 21
123.5086731897
 31
0.0
  0
LINE
  5
2A7
330
1F
100
AcDbEntity
  8
0
  6
HIDDEN
 62
     7
370
     0
100
AcDbLine
 10
118.8000122609
 20
109.673271799
 30
0.0
 11
118.9941730962
 21
111.0547985002
 31
0.0
  0
LINE
  5
2A8
330
1F
100
AcDbEntity
  8
0
  6
HIDDEN
 62
     7
370
     0
100
AcDbLine
 10
118.9941730962
 20
139.7218070044
 30
0.0
 11
118.8000122609
 21
141.1033337056
 31
0.0
  0
ARC
  5
2A9
330
1F
100
AcDbEntity
  8
0
  6
HIDDEN
 62
     7
370
     0
100
AcDbCircle
 10
118.4000122609
 20
111.1383027523
 30
0.0
 40
0.6000000000000085
100
AcDbArc
 50
352.0
 51
0.0
  0
ARC
  5
2AA
330
1F
100
AcDbEntity
  8
0
  6
HIDDEN
 62
     7
370
     0
100
AcDbCircle
 10
118.4000122609
 20
111.1383027523
 30
0.0
 40
0.6000000000000085
100
AcDbArc
 50
0.0
 51
48.1896851042
  0
ARC
  5
2AB
330
1F
100
AcDbEntity
  8
0
  6
HIDDEN
 62
     7
370
     0
100
AcDbCircle
 10
118.4000122609
 20
139.6383027523
 30
0.0
 40
0.6000000000000035
100
AcDbArc
 50
348.75
 51
8.0
  0
ARC
  5
2AC
330
1F
100
AcDbEntity
  8
0
  6
HIDDEN
 62
     7
370
     0
100
AcDbCircle
 10
118.4000122609
 20
139.6383027523
 30
0.0
 40
0.6000000000000054
100
AcDbArc
 50
311.8103148958
 51
348.75
  0
LINE
  5
2AD
330
1F
100
AcDbEntity
  8
0
  6
HIDDEN
 62
     7
370
     0
100
AcDbLine
 10
119.0000122559
 20
111.1383027448
 30
0.0
 11
119.0000122559
 21
139.6383027597
 31
0.0
  0
LINE
  5
2AE
330
1F
100
AcDbEntity
  8
0
  6
HIDDEN
 62
     7
370
     0
100
AcDbLine
 10
119.0000122559
 20
111.1383027448
 30
0.0
 11
119.0000122559
 21
139.6383027597
 31
0.0
  0
LINE
  5
2AF
330
1F
100
AcDbEntity
  8
0
  6
HIDDEN
 62
     7
370
     0
100
AcDbLine
 10
98.0500130507
 20
139.3883031844
 30
0.0
 11
99.5711552503
 21
137.8671600535
 31
0.0
  0
LINE
  5
2B0
330
1F
100
AcDbEntity
  8
0
  6
HIDDEN
 62
     7
370
     0
100
AcDbLine
 10
110.5288694206
 20
137.8671600535
 30
0.0
 11
112.0500120859
 21
139.3883031844
 31
0.0
  0
LINE
  5
2B1
330
1F
100
AcDbEntity
  8
0
  6
HIDDEN
 62
     7
370
     0
100
AcDbLine
 10
99.5711552503
 20
137.8671600535
 30
0.0
 11
101.7832791957
 21
129.6113966084
 31
0.0
  0
LINE
  5
2B2
330
1F
100
AcDbEntity
  8
0
  6
HIDDEN
 62
     7
370
     0
100
AcDbLine
 10
108.3213629725
 20
129.628631664
 30
0.0
 11
110.5288694206
 21
137.8671600535
 31
0.0
  0
LINE
  5
2B3
330
1F
100
AcDbEntity
  8
0
  6
HIDDEN
 62
     7
370
     0
100
AcDbLine
 10
171.8000116351
 20
152.4883032828
 30
0.0
 11
171.487523109
 21
152.8007918089
 31
0.0
  0
LINE
  5
2B4
330
1F
100
AcDbEntity
  8
0
  6
HIDDEN
 62
     7
370
     0
100
AcDbLine
 10
90.8000113967
 20
120.638302905
 30
0.0
 11
91.6660370829
 21
121.1383025213
 31
0.0
  0
LINE
  5
2B5
330
1F
100
AcDbEntity
  8
0
  6
HIDDEN
 62
     7
370
     0
100
AcDbLine
 10
91.6660370829
 20
129.6383029833
 30
0.0
 11
90.8000113967
 21
130.1383025996
 31
0.0
  0
LINE
  5
2B6
330
1F
100
AcDbEntity
  8
0
  6
HIDDEN
 62
     7
370
     0
100
AcDbLine
 10
130.8000123653
 20
121.1383025213
 30
0.0
 11
133.3536699938
 21
125.3883027523
 31
0.0
  0
LINE
  5
2B7
330
1F
100
AcDbEntity
  8
0
  6
HIDDEN
 62
     7
370
     0
100
AcDbLine
 10
133.3536699938
 20
125.3883027523
 30
0.0
 11
130.8000123653
 21
129.6383029833
 31
0.0
  0
LINE
  5
2B8
330
1F
100
AcDbEntity
  8
0
  6
HIDDEN
 62
     7
370
     0
100
AcDbLine
 10
127.2394814121
 20
127.2679323149
 30
0.0
 11
126.2630479003
 21
125.3883027523
 31
0.0
  0
LINE
  5
2B9
330
1F
100
AcDbEntity
  8
0
  6
HIDDEN
 62
     7
370
     0
100
AcDbLine
 10
126.2630479003
 20
125.3883027523
 30
0.0
 11
127.2394814121
 21
123.5086731897
 31
0.0
  0
LINE
  5
2BA
330
1F
100
AcDbEntity
  8
0
  6
HIDDEN
 62
     7
370
     0
100
AcDbLine
 10
129.8000122013
 20
127.4883026774
 30
0.0
 11
127.4818599748
 21
127.4883026774
 31
0.0
  0
LINE
  5
2BB
330
1F
100
AcDbEntity
  8
0
  6
HIDDEN
 62
     7
370
     0
100
AcDbLine
 10
127.4818599748
 20
123.2883028272
 30
0.0
 11
129.8000122013
 21
123.2883028272
 31
0.0
  0
LINE
  5
2BC
330
1F
100
AcDbEntity
  8
0
  6
HIDDEN
 62
     7
370
     0
100
AcDbLine
 10
141.0048211518
 20
127.4883026774
 30
0.0
 11
129.8000122013
 21
127.4883026774
 31
0.0
  0
LINE
  5
2BD
330
1F
100
AcDbEntity
  8
0
  6
HIDDEN
 62
     7
370
     0
100
AcDbLine
 10
129.8000122013
 20
123.2883028272
 30
0.0
 11
141.0048211518
 21
123.2883028272
 31
0.0
  0
LINE
  5
2BE
330
1F
100
AcDbEntity
  8
VERMASSUNG
100
AcDbLine
 10
123.2226619918
 20
150.3883027523
 30
0.0
 11
123.2226619918
 21
100.3883027523
 31
0.0
  0
LINE
  5
2BF
330
1F
100
AcDbEntity
  8
VERMASSUNG
100
AcDbLine
 10
125.8207382031
 20
152.8883027523
 30
0.0
 11
125.8207382031
 21
97.8883027523
 31
0.0
  0
DIMENSION
  5
2C0
330
1F
100
AcDbEntity
  8
VERMASSUNG
100
AcDbDimension
  2
*D1
 10
84.4221477468
 20
111.3883027523
 30
0.0
 11
84.4221477468
 21
125.3883027523
 31
0.0
 70
   160
  1
%%c<>
 71
     2
 42
-1.0
  3
SLDDIMSTYLE0
100
AcDbAlignedDimension
 13
112.0500122609
 23
139.3883027523
 33
0.0
 14
97.8000122609
 24
111.3883027523
 34
0.0
 50
90.0
100
AcDbRotatedDimension
  0
DIMENSION
  5
2CC
330
1F
100
AcDbEntity
  8
VERMASSUNG
100
AcDbDimension
  2
*D2
 10
78.0483116056
 20
100.3883027523
 30
0.0
 11
78.0483116056
 21
125.3883027523
 31
0.0
 70
   160
  1
%%c<>
 71
     2
 42
-1.0
  3
SLDDIMSTYLE0
100
AcDbAlignedDimension
 13
119.3000122609
 23
150.3883027523
 33
0.0
 14
119.3000122609
 24
100.3883027523
 34
0.0
 50
90.0
100
AcDbRotatedDimension
  0
DIMENSION
  5
2D7
330
1F
100
AcDbEntity
  8
VERMASSUNG
100
AcDbDimension
  2
*D3
 10
71.4763989239
 20
97.8883027523
 30
0.0
 11
71.4763989239
 21
125.3883027523
 31
0.0
 70
   160
  1
%%c<>
 71
     2
 42
-1.0
  3
SLDDIMSTYLE0
100
AcDbAlignedDimension
 13
125.8207382031
 23
152.8883027523
 33
0.0
 14
125.8207382031
 24
97.8883027523
 34
0.0
 50
90.0
100
AcDbRotatedDimension
  0
DIMENSION
  5
2E2
330
1F
100
AcDbEntity
  8
VERMASSUNG
100
AcDbDimension
  2
*D4
 10
219.6481120485
 20
92.6383027523
 30
0.0
 11
219.6481120485
 21
125.3883027523
 31
0.0
 70
   160
  1
%%c<>-87.5
 71
     2
 42
-1.0
  3
SLDDIMSTYLE0
100
AcDbAlignedDimension
 13
208.8000122609
 23
158.1383027523
 33
0.0
 14
208.8000122609
 24
92.6383027523
 34
0.0
 50
90.0
100
AcDbRotatedDimension
  0
DIMENSION
  5
2EE
330
1F
100
AcDbEntity
  8
VERMASSUNG
100
AcDbDimension
  2
*D5
 10
208.8000122609
 20
164.4082870282
 30
0.0
 11
163.8000122609
 21
164.4082870282
 31
0.0
 70
   160
 71
     2
 42
-1.0
  3
SLDDIMSTYLE0
100
AcDbAlignedDimension
 13
118.8000122609
 23
149.8883027523
 33
0.0
 14
208.8000122609
 24
158.1383027523
 34
0.0
100
AcDbRotatedDimension
  0
LINE
  5
2F8
330
1F
100
AcDbEntity
  8
VERMASSUNG
  6
CENTERX2
370
     0
100
AcDbLine
 10
87.49743242
 20
125.3883027523
 30
0.0
 11
208.0998861988
 21
125.3883027523
 31
0.0
  0
OLE2FRAME
  5
2F9
330
1F
100
AcDbEntity
  8
0
100
AcDbOle2Frame
 70
     2
  3
Paintbrush-Bild
 10
13.8511154363
 20
38.264191557
 30
0.0
 11
51.6290888628
 21
31.9806341108
 31
0.0
 71
     2
 72
     0
 73
     1
 90
    12928
310
80552BED0767C5B32B40DDAF6807D121434000000000000000006FFBDDFB85D0
310
4940DDAF6807D121434000000000000000006FFBDDFB85D04940416F4BD60AFB
310
3F4000000000000000002BED0767C5B32B40416F4BD60AFB3F40000000000000
310
0000000000000100000000010000010000000100000000000100000000320000
310
D0CF11E0A1B11AE1000000000000000000000000000000003E000300FEFF0900
310
0600000000000000000000000100000001000000000000000010000002000000
310
01000000FEFFFFFF0000000000000000FFFFFFFFFFFFFFFFFFFFFFFFFFFFFFFF
310
FFFFFFFFFFFFFFFFFFFFFFFFFFFFFFFFFFFFFFFFFFFFFFFFFFFFFFFFFFFFFFFF
310
FFFFFFFFFFFFFFFFFFFFFFFFFFFFFFFFFFFFFFFFFFFFFFFFFFFFFFFFFFFFFFFF
310
FFFFFFFFFFFFFFFFFFFFFFFFFFFFFFFFFFFFFFFFFFFFFFFFFFFFFFFFFFFFFFFF
310
FFFFFFFFFFFFFFFFFFFFFFFFFFFFFFFFFFFFFFFFFFFFFFFFFFFFFFFFFFFFFFFF
310
FFFFFFFFFFFFFFFFFFFFFFFFFFFFFFFFFFFFFFFFFFFFFFFFFFFFFFFFFFFFFFFF
310
FFFFFFFFFFFFFFFFFFFFFFFFFFFFFFFFFFFFFFFFFFFFFFFFFFFFFFFFFFFFFFFF
310
FFFFFFFFFFFFFFFFFFFFFFFFFFFFFFFFFFFFFFFFFFFFFFFFFFFFFFFFFFFFFFFF
310
FFFFFFFFFFFFFFFFFFFFFFFFFFFFFFFFFFFFFFFFFFFFFFFFFFFFFFFFFFFFFFFF
310
FFFFFFFFFFFFFFFFFFFFFFFFFFFFFFFFFFFFFFFFFFFFFFFFFFFFFFFFFFFFFFFF
310
FFFFFFFFFFFFFFFFFFFFFFFFFFFFFFFFFFFFFFFFFFFFFFFFFFFFFFFFFFFFFFFF
310
FFFFFFFFFFFFFFFFFFFFFFFFFFFFFFFFFFFFFFFFFFFFFFFFFFFFFFFFFFFFFFFF
310
FFFFFFFFFFFFFFFFFFFFFFFFFFFFFFFFFFFFFFFFFFFFFFFFFFFFFFFFFFFFFFFF
310
FFFFFFFFFFFFFFFFFFFFFFFFFFFFFFFFFFFFFFFFFFFFFFFFFFFFFFFFFFFFFFFF
310
FDFFFFFFFEFFFFFFFEFFFFFFFEFFFFFF05000000060000000700000008000000
310
090000000A0000000B0000000C0000000D0000000E0000000F00000010000000
310
11000000120000001300000014000000150000001600000017000000FEFFFFFF
310
FFFFFFFFFFFFFFFFFFFFFFFFFFFFFFFFFFFFFFFFFFFFFFFFFFFFFFFFFFFFFFFF
310
FFFFFFFFFFFFFFFFFFFFFFFFFFFFFFFFFFFFFFFFFFFFFFFFFFFFFFFFFFFFFFFF
310
FFFFFFFFFFFFFFFFFFFFFFFFFFFFFFFFFFFFFFFFFFFFFFFFFFFFFFFFFFFFFFFF
310
FFFFFFFFFFFFFFFFFFFFFFFFFFFFFFFFFFFFFFFFFFFFFFFFFFFFFFFFFFFFFFFF
310
FFFFFFFFFFFFFFFFFFFFFFFFFFFFFFFFFFFFFFFFFFFFFFFFFFFFFFFFFFFFFFFF
310
FFFFFFFFFFFFFFFFFFFFFFFFFFFFFFFFFFFFFFFFFFFFFFFFFFFFFFFFFFFFFFFF
310
FFFFFFFFFFFFFFFFFFFFFFFFFFFFFFFFFFFFFFFFFFFFFFFFFFFFFFFFFFFFFFFF
310
FFFFFFFFFFFFFFFFFFFFFFFFFFFFFFFFFFFFFFFFFFFFFFFFFFFFFFFFFFFFFFFF
310
FFFFFFFFFFFFFFFFFFFFFFFFFFFFFFFFFFFFFFFFFFFFFFFFFFFFFFFFFFFFFFFF
310
FFFFFFFFFFFFFFFFFFFFFFFFFFFFFFFFFFFFFFFFFFFFFFFFFFFFFFFFFFFFFFFF
310
FFFFFFFFFFFFFFFFFFFFFFFFFFFFFFFFFFFFFFFFFFFFFFFFFFFFFFFFFFFFFFFF
310
FFFFFFFFFFFFFFFFFFFFFFFFFFFFFFFFFFFFFFFFFFFFFFFFFFFFFFFFFFFFFFFF
310
FFFFFFFFFFFFFFFFFFFFFFFFFFFFFFFFFFFFFFFFFFFFFFFFFFFFFFFFFFFFFFFF
310
52006F006F007400200045006E00740072007900000000000000000000000000
310
0000000000000000000000000000000000000000000000000000000000000000
310
16000500FFFFFFFFFFFFFFFF020000000A00030000000000C000000000000046
310
00000000000000000000000010D8D5C2C9EBCC0103000000C000000000000000
310
01004F006C006500000000000000000000000000000000000000000000000000
310
0000000000000000000000000000000000000000000000000000000000000000
310
0A000200FFFFFFFFFFFFFFFFFFFFFFFF00000000000000000000000000000000
310
0000000000000000000000000000000000000000000000001400000000000000
310
010043006F006D0070004F0062006A0000000000000000000000000000000000
310
0000000000000000000000000000000000000000000000000000000000000000
310
120002010100000003000000FFFFFFFF00000000000000000000000000000000
310
0000000000000000000000000000000000000000010000004D00000000000000
310
01004F006C006500310030004E00610074006900760065000000000000000000
310
0000000000000000000000000000000000000000000000000000000000000000
310
1A000200FFFFFFFFFFFFFFFFFFFFFFFF00000000000000000000000000000000
310
0000000000000000000000000000000000000000040000002426000000000000
310
FEFFFFFF02000000FEFFFFFFFFFFFFFFFFFFFFFFFFFFFFFFFFFFFFFFFFFFFFFF
310
FFFFFFFFFFFFFFFFFFFFFFFFFFFFFFFFFFFFFFFFFFFFFFFFFFFFFFFFFFFFFFFF
310
FFFFFFFFFFFFFFFFFFFFFFFFFFFFFFFFFFFFFFFFFFFFFFFFFFFFFFFFFFFFFFFF
310
FFFFFFFFFFFFFFFFFFFFFFFFFFFFFFFFFFFFFFFFFFFFFFFFFFFFFFFFFFFFFFFF
310
FFFFFFFFFFFFFFFFFFFFFFFFFFFFFFFFFFFFFFFFFFFFFFFFFFFFFFFFFFFFFFFF
310
FFFFFFFFFFFFFFFFFFFFFFFFFFFFFFFFFFFFFFFFFFFFFFFFFFFFFFFFFFFFFFFF
310
FFFFFFFFFFFFFFFFFFFFFFFFFFFFFFFFFFFFFFFFFFFFFFFFFFFFFFFFFFFFFFFF
310
FFFFFFFFFFFFFFFFFFFFFFFFFFFFFFFFFFFFFFFFFFFFFFFFFFFFFFFFFFFFFFFF
310
FFFFFFFFFFFFFFFFFFFFFFFFFFFFFFFFFFFFFFFFFFFFFFFFFFFFFFFFFFFFFFFF
310
FFFFFFFFFFFFFFFFFFFFFFFFFFFFFFFFFFFFFFFFFFFFFFFFFFFFFFFFFFFFFFFF
310
FFFFFFFFFFFFFFFFFFFFFFFFFFFFFFFFFFFFFFFFFFFFFFFFFFFFFFFFFFFFFFFF
310
FFFFFFFFFFFFFFFFFFFFFFFFFFFFFFFFFFFFFFFFFFFFFFFFFFFFFFFFFFFFFFFF
310
FFFFFFFFFFFFFFFFFFFFFFFFFFFFFFFFFFFFFFFFFFFFFFFFFFFFFFFFFFFFFFFF
310
FFFFFFFFFFFFFFFFFFFFFFFFFFFFFFFFFFFFFFFFFFFFFFFFFFFFFFFFFFFFFFFF
310
FFFFFFFFFFFFFFFFFFFFFFFFFFFFFFFFFFFFFFFFFFFFFFFFFFFFFFFFFFFFFFFF
310
FFFFFFFFFFFFFFFFFFFFFFFFFFFFFFFFFFFFFFFFFFFFFFFFFFFFFFFFFFFFFFFF
310
0100000200000000000000000000000000000000000000000000000000000000
310
0000000000000000000000000000000000000000000000000000000000000000
310
0100FEFF030A0000FFFFFFFF0A00030000000000C00000000000004607000000
310
5042727573680007000000504272757368000700000050427275736800F439B2
310
7100000000000000000000000000000000000000000000000000000000000000
310
0000000000000000000000000000000000000000000000000000000000000000
310
0000000000000000000000000000000000000000000000000000000000000000
310
0000000000000000000000000000000000000000000000000000000000000000
310
0000000000000000000000000000000000000000000000000000000000000000
310
0000000000000000000000000000000000000000000000000000000000000000
310
0000000000000000000000000000000000000000000000000000000000000000
310
0000000000000000000000000000000000000000000000000000000000000000
310
0000000000000000000000000000000000000000000000000000000000000000
310
0000000000000000000000000000000000000000000000000000000000000000
310
0000000000000000000000000000000000000000000000000000000000000000
310
0000000000000000000000000000000000000000000000000000000000000000
310
20260000424D0E260000000000003E00000028000000B40200006E0000000100
310
01000000000000000000130B0000130B00000200000002000000000000FFFFFF
310
FFFFFFFFFFFFFFFFFFFFFFFFFFFFFFFFFFFFFFFFFFFFFFFFFFFFFFFFFFFFFFFF
310
FFFFFFFFFFFFFFFFFFFFFFFFFFFFFFFFFFFFFFFFFFFFFFFFFFFFFFFFFFFFFFFF
310
FFFFFFFFFFFFFFFFFFFFFFFFFFFFFFFFFFFFFFFFFFFFFFFFF000FFFFFFFFFFFF
310
FFFFFFFFFFFFFFFFFFFFFFFFFFFFFFFFFFFFFFFFFFFFFFFFFFFFFFFFFFFFFFFF
310
FFFFFFFFFFFFFFFFFFFFFFFFFFFFFFFFFFFFFFFFFFFFFFFFFFFFFFFFFFFFFFFF
310
FFFFFFFFFFFFFFFFFFFFFFFFFFFFFFFFF000FFFFFFFFFFFFFFFFFFFFFFFFFFFF
310
FFFFFFFFFFFFFFFFFFFFFFFFFFFFFFFFFFFFFFFFFFFFFFFFFFFFFFFFFFFFFFFF
310
FFFFFFFFFFFFFFFFFFFFFFFFFFFFFFFFFFFFFFFFFFFFFFFFFFFFFFFFFFFFFFFF
310
FFFFFFFFFFFFFFFFF000FFFFFFFFFFFFFFFFFFFFFFFFFFFFFFFFFFFFFFFFFFFF
310
FFFFFFFFFFFFFFFFFFFFFFFFFFFFFFFFFFFFFFFFFFFFFFFFFFFFFFFFFFFFFFFF
310
FFFFFFFFFFFFFFFFFFFFFFFFFFFFFFFFFFFFFFFFFFFFFFFFFFFFFFFFFFFFFFFF
310
F000FFFFFFFFFFFFFFFFFFFFFFFFFFFFFFFFFFFFFFFFFFFFFFFFFFFFFFFFFFFF
310
FFFFFFFFFFFFFFFFFFFFFFFFFFFFFFFFFFFFFFFFFFFFFFFFFFFFFFFFFFFFFFFF
310
FFFFFFFFFFFFFFFFFFFFFFFFFFFFFFFFFFFFFFFFFFFFFFFFF000FFFFFFFFFFFF
310
FFFFFFFFFFFFFFFFFFFFFFFFFFFFFFFFFFFFFFFFFFFFFFFFFFFFFFFFFFFFFFFF
310
FFFFFFFFFFFFFFFFFFFFFFFFFFFFFFFFFFFFFFFFFFFFFFFFFFFFFFFFFFFFFFFF
310
FFFFFFFFFFFFFFFFFFFFFFFFFFFFFFFFF000FFFFFFFFFFFFFFFFFFFFFFFFFFFF
310
FFFFFFFFFFFFFFFFFFFFFFFFFFFFFFFFFFFFFFFFFFFFFFFFFFFFFFFFFFFFFFFF
310
FFFFFFFFFFFFFFFFFFFFFFFFFFFFFFFFFFFFFFFFFFFFFFFFFFFFFFFFFFFFFFFF
310
FFFFFFFFFFFFFFFFF000FFFFFFFFFFFFFFFFFFFFFFFFFFFFFFFFFFFFFFFFFFFF
310
FFFFFFFFFFFFFFFFFFFFFFFFFFFFFFFFFFFFFFFFFFFFFFFFFFFFFFFFFFFFFFFF
310
FFFFFFFFFFFFFFFFFFFFFFFFFFFFFFFFFFFFFFFFFFFFFFFFFFFFFFFFFFFFFFFF
310
F000FFFFFFFFFFFFFFFFFFFFFFFFFFFFFFFFFFFFFFFFFFFFFFFFFFFFFFFFFFFF
310
FFFFFFFFFFFFFFFFFFFFFFFFFFFFFFFFFFFFFFFFFFFFFFFFFFFFFFFFFFFFFFFF
310
FFFFFFFFFFFFFFFFFFFFFFFFFFFFFFFFFFFFFFFFFFFFFFFFF000FFFFFFFFFFFF
310
FFFFFFFFFFFFFFFFFFFFFFFFFFFFFFFFFFFFFFFFFFFFFFFFFFFFFFFFFFFFFFFF
310
FFFFFFFFFFFFFFFFFFFFFFFFFFFFFFFFFFFFFFFFFFFFFFFFFFFFFFFFFFFFFFFF
310
FFFFFFFFFFFFFFFFFFFFFFFFFFFFFFFFF000FFFFFFFFFFFFFFFFFFFFFFFFFFFF
310
FFFFFFFFFFFFFFFFFFFFFFFFFFFFFFFFFFFFFFFFFFFFFFFFFFFFFFFFFFFFFFFF
310
FFFFFFFFFFFFFFFFFFFFFFFFFFFFFFFFFFFFFFFFFFFFFFFFFFFFFFFFFFFFFFFF
310
FFFFFFFFFFFFFFFFF000FFFFFFFFFFFFFFFFFFFFFFFFFFFFFFFFFFFFFFFFFFFF
310
FFFFFFFFFFFFFFFFFFFFFFFFFFFFFFFFFFFFFFFFFFFFFFFFFFFFFFFFFFFFFFFF
310
FFFFFFFFFFFFFFFFFFFFFFFFFFFFFFFFFFFFFFFFFFFFFFFFFFFFFFFFFFFFFFFF
310
F000FFFFFFFFFFFFFFFFFFFFFFFFFFFFFFFFFFFFFFFFFFFFFFFFFFFFFFFFFFFF
310
FFFFFFFFFFFFFFFFFFFFFFFFFFFFFFFFFFFFFFFFFFFFFFFFFFFFFFFFFFFFFFFF
310
FFFFFFFFFFFFFFFFFFFFFFFFFFFFFFFFFFFFFFFFFFFFFFFFF000FFFFFFFFFFFF
310
FFFFFFFFFFFFFFFFFFFFFFFFFFFFFFFFFFFFFFFFFFFFFFFFFFFFFFFFFFFFFFFF
310
FFFFFFFFFFFFFFFFFFFFFFFFFFFFFFFFFFFFFFFFFFFFFFFFFFFFFFFFFFFFFFFF
310
FFFFFFFFFFFFFFFFFFFFFFFFFFFFFFFFF000FFFFFFFFFFFFFFFFFFFFFFFFFFFF
310
FFFFFFFFFFFFFFFFFFFFFFFFFFFFFFFFFFFFFFFFFFFFFFFFFFFFFFFFFFFFFFFF
310
FFFFFFFFFFFFFFFFFFFFFFFFFFFFFFFFFFFFFFFFFFFFFFFFFFFFFFFFFFFFFFFF
310
FFFFFFFFFFFFFFFFF000FFFFFFFFFFFFFFFFFFFFFFFFFFFFFFFFFFFFFFFFFFFF
310
FFFFFFFFFFFFFFFFFFFFFFFFFFFFFFFFFFFFFFFFFFFFFFFFFFFFFFFFFFFFFFFF
310
FFFFFFFFFFFFFFFFFFFFFFFFFFFFFFFFFFFFFFFFFFFFFFFFFFFFFFFFFFFFFFFF
310
F000FFFFFFFFFFFFFFFFFFFFFFFFFFFFFFFFFFFFFFFFFFFFFFFFFFFFFFFFFFFF
310
FFFFFFFFFFFFFFFFFFFFFFFFFFFFFFFFFFFFFFFFFFFFFFFFFFFFFFFFFFFFFFFF
310
FFFFFFFFFFFFFFFFFFFFFFFFFFFFFFFFFFFFFFFFFFFFFFFFF000FFFFFFFFFFFF
310
FFFFFFFFFFFFFFFFFFFFFFFFFFFFFFFFFFFFFFFFFFFFFFFFFFFFFFFFFFFFFFFF
310
FFFFFFFFFFFFFFFFFFFFFFFFFFFFFFFFFFFFFFFFFFFFFFFFFFFFFFFFFFFFFFFF
310
FFFFFFFFFFFFFFFFFFFFFFFFFFFFFFFFF000FFFFFFFFFFFFFFFFFFFFFFFFFFFF
310
FFFFFFFFFFFFFFFFFFFFFFFFFFFFFFFFFFFFFFFFFFFFFFFFFFFFFFFFFFFFFFFF
310
FFFFFFFFFFFFFFFFFFFFFFFFFFFFFFFFFFFFFFFFFFFFFFFFFFFFFFFFFFFFFFFF
310
FFFFFFFFFFFFFFFFF000FFFFF80003FFFFFFFFFFFFFFFFFFFFFFFFFFFFFFFFFF
310
FFFFF00007FFFFFFFFFF00007FFFFFF800000000000000007FFFFFFFFFFFFFFF
310
FFFFFFFC001FFFFFFFFFFFFFFC001FFFFFFFFFFFFFFFFFFFFFFFFFFE0007FFFF
310
F000FFFF8000007FFFFFFFF8000FFFFFC0007FFFFF80007FFFFF0000007FFFFF
310
FFF8000007FFFFF800000000000000007FFFFFF0001FFFFFFFFFFFC00001FFFF
310
FFFFFFFFC00001FFFFFFFF000000000003FFFFE000007FFFF000FFFE0000000F
310
FFFFFFF0000FFFFF80007FFFFF80007FFFFC0000001FFFFFFFC0000001FFFFF8
310
00000000000000007FFFFFF0001FFFFFFFFFFE0000003FFFFFFFFFFE0000003F
310
FFFFFF000000000003FFFF0000000FFFF000FFF800000003FFFFFFF00007FFFF
310
80007FFFFF80007FFFF000000007FFFFFF000000003FFFF80000000000000000
310
7FFFFFF0001FFFFFFFFFF80000000FFFFFFFFFF80000000FFFFFFF0000000000
310
03FFFC00000003FFF000FFE000000000FFFFFFF00007FFFF80003FFFFF80007F
310
FFC000000001FFFFFC000000001FFFF800000000000000007FFFFFF0001FFFFF
310
FFFFE000000003FFFFFFFFE000000003FFFFFF000000000003FFF000000000FF
310
F000FF80000000007FFFFFF00007FFFF80003FFFFF80007FFF8000000000FFFF
310
F80000000007FFF800000000000000007FFFFFF0001FFFFFFFFFC000000001FF
310
FFFFFFC000000001FFFFFF000000000003FFC0000000007FF000FF0000000000
310
3FFFFFE00007FFFF00003FFFFF80007FFE00000000003FFFF00000000003FFF8
310
00000000000000007FFFFFF0001FFFFFFFFF8000000000FFFFFFFF8000000000
310
FFFFFF000000000003FF80000000003FF000FE00000000001FFFFFE00003FFFF
310
00003FFFFF80007FFC00000000001FFFE00000000001FFF8000001FFFE000000
310
7FFFFFF0001FFFFFFFFE00000000003FFFFFFE00000000003FFFFF0000000000
310
03FF00000000001FF000FC00000000000FFFFFE00003FFFF00001FFFFF80007F
310
F800000000001FFFC00000000000FFF8000001FFFE0000007FFFFFF0001FFFFF
310
FFFC00000000001FFFFFFC00000000001FFFFF000000000003FE00000000000F
310
F000F8000000000007FFFFE00003FFFF00001FFFFF80007FF800000000000FFF
310
800000000000FFF8000001FFFE0000007FFFFFF0001FFFFFFFF800000000000F
310
FFFFF800000000000FFFFF000000000003FC000000000007F000F80000000000
310
03FFFFC00003FFFE00001FFFFF80007FF0000000000007FF0000000000007FF8
310
000001FFFE0000007FFFFFF0001FFFFFFFF0000000000007FFFFF00000000000
310
07FFFF000000000003F8000000000003F000F0000000000003FFFFC00001FFFE
310
00001FFFFF80007FE0000000000007FE0000000000003FF8000001FFFE000000
310
7FFFFFF0001FFFFFFFF0000000000007FFFFF0000000000007FFFF0000000000
310
03F800001F800003F000E00001FFF00001FFFFC00001FFFE00000FFFFF80007F
310
E00001FFE00003FE00001FFF00003FF8000001FFFE0000007FFFFFF0001FFFFF
310
FFE000003E000003FFFFE000003E000003FFFF000000000003F00001FFF80001
310
F000E00007FFFC0001FFFFC00001FFFE00000FFFFF80007FC0000FFFFC0003FC
310
0000FFFFC0001FF8000001FFFE0000007FFFFFF0001FFFFFFFC00003FFE00001
310
FFFFC00003FFE00001FFFF0001FFFFFFFFF00007FFFE0001F000E0000FFFFF00
310
00FFFF800001FFFC00000FFFFF80007FC0001FFFFE0001FC0001FFFFE0001FF8
310
000001FFFE0000007FFFFFF0001FFFFFFF80000FFFF80000FFFF80000FFFF800
310
00FFFF0003FFFFFFFFE0000FFFFF8000F000C0003FFFFF8000FFFF800000FFFC
310
000007FFFF80007F80003FFFFF0001FC0003FFFFF0001FF8000001FFFE000000
310
7FFFFFF0001FFFFFFF80003FFFFE0000FFFF80003FFFFE0000FFFF0003FFFFFF
310
FFE0003FFFFF8000F000C0003FFFFF8000FFFF800000FFFC000007FFFF80007F
310
80007FFFFF8001F80007FFFFF8000FF8000001FFFE0000007FFFFFF0001FFFFF
310
FF00007FFFFF00007FFF00007FFFFF00007FFF0003FFFFFFFFE0003FFFFFC000
310
F000C0007FFFFFC000FFFF000000FFFC000007FFFF80007F8000FFFFFF8000F8
310
000FFFFFF8000FF8000001FFFE0000007FFFFFF0001FFFFFFF0000FFFFFF8000
310
7FFF0000FFFFFF80007FFF0003FFFFFFFFC0007FFFFFC00070008000FFFFFFC0
310
00FFFF000000FFF8000007FFFF80007F8000FFFFFF8000F8000FFFFFF8000FF8
310
000001FFFE0000007FFFFFF0001FFFFFFE0001FFFFFFC0003FFE0001FFFFFFC0
310
003FFF0003FFFFFFFFC0007FFFFFE00070008000FFFFFFC0007FFF0000007FF8
310
000003FFFF80007F0001FFFFFF8000F8000FFFFFF8000FF8000001FFFE000000
310
7FFFFFF0001FFFFFFE0001FFFFFFC0003FFE0001FFFFFFC0003FFF0003FFFFFF
310
FFC000FFFFFFE00070008000FFFFFFC0007FFF0000007FF8000003FFFF80007F
310
0001FFFFFF8000F8001FFFFFF8000FF8000001FFFE0000007FFFFFF0001FFFFF
310
FE0003FFFFFFE0003FFE0003FFFFFFE0003FFF0003FFFFFFFFC000FFFFFFE000
310
70008000FFFFFFC0007FFE0000007FF8000003FFFF80007F0001FFFFFF8000F0
310
001FFFFFF8000FF8000001FFFE0000007FFFFFF0001FFFFFFC0003FFFFFFE000
310
1FFC0003FFFFFFE0001FFF0003FFFFFFFFC000FFFFFFC00070008000FFFFFF80
310
007FFE0000007FF0000003FFFF80007F0001FFFFFF0000F0001FFFFFF8000FF8
310
000001FFFE0000007FFFFFF0001FFFFFFC0007FFFFFFF0001FFC0007FFFFFFF0
310
001FFF0003FFFFFFFFC000FFFFFFC00070008001FFFFFF0000FFFE0000003FF0
310
000001FFFF80007F0001FFFFFF0000F8001FFFFFF0000FF8000001FFFE000000
310
7FFFFFF0001FFFFFFC0007FFFFFFF0001FFC0007FFFFFFF0001FFF0003FFFFFF
310
FFC001FFFFFF80007000FFFFFFFFFE0000FFFE0008003FF0008001FFFF80007F
310
FFFFFFFFFC0000FFFFFFFFFFE0000FF8000001FFFE0000007FFFFFF0001FFFFF
310
F8000FFFFFFFF8000FF8000FFFFFFFF8000FFF0003FFFFFFFFFFFFFFFFFF0000
310
7000FFFFFFFFFC0000FFFC0008003FF0008001FFFF80007FFFFFFFFFF80001FF
310
FFFFFFFF80000FF8000001FFFE0000007FFFFFF0001FFFFFF8000FFFFFFFF800
310
0FF8000FFFFFFFF8000FFF0003FFFFFFFFFFFFFFFFFE0000F000FFFFFFFFE000
310
00FFFC000C003FE000C001FFFF80007FFFFFFFFFC00001FFFFFFFFFE00001FF8
310
000001FFFE0000007FFFFFF0001FFFFFF8000FFFFFFFF8000FF8000FFFFFFFF8
310
000FFF0003FFFFFFFFFFFFFFFFF00000F000FFFFFFFE000001FFFC000C001FE0
310
00C000FFFF80007FFFFFFFFE000001FFFFFFFFE000001FF80FFFFFFFFFFFFFC0
310
7FFFFFF0001FFFFFF8000FFFFFFFF8000FF8000FFFFFFFF8000FFF0003FFFFFF
310
FFFFFFFFFF800000F000FFFFFFC0000001FFFC001C001FE001C000FFFF80007F
310
FFFFFF80000003FFFFFFF80000001FF80FFFFFFFFFFFFFC07FFFFFF0001FFFFF
310
F8001FFFFFFFFC000FF8001FFFFFFFFC000FFF0003FFFFFFFFFFFFFFF0000001
310
F000FFFFF800000001FFF8001C001FE001C000FFFF80007FFFFFF800000003FF
310
FFFF800000003FF80FFFFFFFFFFFFFC07FFFFFF0001FFFFFF8001FFFFFFFFC00
310
0FF8001FFFFFFFFC000FFF0003FFFFFFFFFFFFFE00000001F000FFFFC0000000
310
03FFF8001E001FC001E000FFFF80007FFFFF8000000007FFFFFC000000003FF8
310
0FFFFFFFFFFFFFC07FFFFFF0001FFFFFF8001FFFFFFFFC000FF8001FFFFFFFFC
310
000FFF0003FFFFFFFFFFFFE000000003F000FFFE0000000007FFF8001E000FC0
310
01E0007FFF80007FFFFE0000000007FFFFE0000000007FF80FFFFFFFFFFFFFC0
310
7FFFFFF0001FFFFFF0001FFFFFFFFC0007F0001FFFFFFFFC0007FF0003FFFFFF
310
FFFFFF0000000003F000FFF80000000007FFF8001E000FC003E0007FFF80007F
310
FFF0000000000FFFFF8000000000FFF80FFFFFFFFFFFFFC07FFFFFF0001FFFFF
310
F0001FFFFFFFFC0007F0001FFFFFFFFC0007FF0003FFFFFFFFFFFC0000000007
310
F000FFE0000000000FFFF0003E000FC003E0007FFF80007FFFC0000000001FFF
310
FE0000000001FFF80FFFFFFFFFFFFFC07FFFFFF0001FFFFFF0001FFFFFFFFC00
310
07F0001FFFFFFFFC0007FF0003FFFFFFFFFFF0000000000FF000FFC000000000
310
1FFFF0003F000F8003F0003FFF80007FFF80000000003FFFF80000000003FFF8
310
0FFFFFFFFFFFFFC07FFFFFF0001FFFFFF0001FFFFFFFFC0007F0001FFFFFFFFC
310
0007FF0003FFFFFFFFFFE0000000001FF000FF00000000007FFFF0003F000780
310
03F0003FFF80007FFF00000000007FFFF00000000007FFF80FFFFFFFFFFFFFC0
310
7FFFFFF0001FFFFFF0001FFFFFFFFC0007F0001FFFFFFFFC0007FF0003FFFFFF
310
FFFF80000000007FF000FE0000000000FFFFE0003F00078007F0003FFF80007F
310
FE0000000001FFFFE0000000001FFFF80FFFFFFFFFFFFFC07FFFFFF0001FFFFF
310
F0001FFFFFFFFC0007F0001FFFFFFFFC0007FF0003FFFFFFFFFF0000000000FF
310
F000FC0000000003FFFFE0007F00078007F0003FFF80007FFC0000000007FFFF
310
C0000000007FFFF80FFFFFFFFFFFFFC07FFFFFF0001FFFFFF8001FFFFFFFFC00
310
0FF8001FFFFFFFFC000FFF0003FFFFFFFFFE0000000003FFF000FC000000000F
310
FFFFE0007F80070007F8001FFF80007FF8000000001FFFFF8000000001FFFFF8
310
0FFFFFFFFFFFFFC07FFFFFF0001FFFFFF8001FFFFFFFFC000FF8001FFFFFFFFC
310
000FFF0003FFFFFFFFFC000000000FFFF000F8000000007FFFFFE0007F800700
310
07F8001FFF80007FF000000000FFFFFF800000000FFFFFF80FFFFFFFFFFFFFC0
310
7FFFFFF0001FFFFFF8000FFFFFFFF8000FF8000FFFFFFFF8000FFF0003FFFFFF
310
FFFC000000007FFFF000F800000007FFFFFFC0007F8003000FF8001FFF80007F
310
F000000007FFFFFF000000007FFFFFF80FFFFFFFFFFFFFC07FFFFFF0001FFFFF
310
F8000FFFFFFFF8000FF8000FFFFFFFF8000FFF0003FFFFFFFFF80000000FFFFF
310
F000F0000000FFFFFFFFC000FF8003000FF8001FFF80007FE0000000FFFFFFFF
310
0000000FFFFFFFF8000001FFFE0000007FFFFFF0001FFFFFF8000FFFFFFFF800
310
0FF8000FFFFFFFF8000FFF0003FFFFFFFFF8000000FFFFFFF000F000000FFFFF
310
FFFFC000FFC002000FF8000FFF80007FE000001FFFFFFFFE000001FFFFFFFFF8
310
000001FFFE0000007FFFFFF0001FFFFFF8000FFFFFFFF8000FF8000FFFFFFFF8
310
000FFF0003FFFFFFFFF000001FFFFFFFF000E00000FFFFFFFFFFC000FFC00200
310
0FFC000FFF80007FE00001FFFFFFFFFE00001FFFFFFFFFF8000001FFFE000000
310
7FFFFFF0001FFFFFFC000FFFFFFFF8001FFC000FFFFFFFF8001FFF0003FFFFFF
310
FFF00001FFFFFFFFF000E00007FFFFFFFFFF8000FFC000001FFC000FFF80007F
310
C0000FFFFFFFFFFE0000FFFFFFFFFFF8000001FFFE0000007FFFFFF0001FFFFF
310
FC0007FFFFFFF0001FFC0007FFFFFFF0001FFF0003FFFFFFFFF00007FFFFFFFF
310
F000E0001FFFFFFFFFFF8000FFC000001FFC000FFF80007FC0003FFFFFFFFFFE
310
0001FFFFFFFFFFF8000001FFFE0000007FFFFFF0001FFFFFFC0007FFFFFFF000
310
1FFC0007FFFFFFF0001FFF0003FFFFFFFFF0001FFFFFFFFFF000E0003FFFFF00
310
03FF8001FFE000001FFC0007FF80007FC0007FFFFF0007FC0003FFFFF0003FF8
310
000001FFFE0000007FFFFFF0001FFFFFFC0003FFFFFFE0001FFC0003FFFFFFE0
310
001FFF0003FFFFFFFFF0003FFFFFFFFFF000E0003FFFFF0001FF8001FFE00000
310
1FFE0007FF80007FC0007FFFFE0003FC0007FFFFE0003FF8000001FFFE000000
310
7FFFFFF0001FFFFFFE0003FFFFFFE0003FFE0003FFFFFFE0003FFF0003FFFFFF
310
FFF0003FFFFF8001F000E0003FFFFF0001FF0001FFE000001FFE0007FF80007F
310
C0007FFFFE0003FC0007FFFFE0003FF8000001FFFE0000007FFFFFF0001FFFFF
310
FE0001FFFFFFC0003FFE0001FFFFFFC0003FFF0003FFFFFFFFF0003FFFFF0001
310
F000E0003FFFFF0003FF0001FFE000003FFE0007FF80007FC0007FFFFE0003FC
310
0007FFFFE0003FF8000001FFFE0000007FFFFFF0001FFFFFFF0001FFFFFFC000
310
7FFF0001FFFFFFC0007FFF0003FFFFFFFFF0003FFFFF0001F000E0003FFFFE00
310
03FF0003FFF000003FFE0003FF80007FC0007FFFFC0003FE0007FFFFE0003FF8
310
000001FFFE0000007FFFFFF0001FFFFFFF0000FFFFFF80007FFF0000FFFFFF80
310
007FFF0003FFFFFFFFF0003FFFFF0001F000E0003FFFFE0003FF0003FFF00000
310
3FFF0003FF80007FC0007FFFFC0007FE0007FFFFC0003FF8000001FFFE000000
310
7FFFFFF0001FFFFFFF80007FFFFF0000FFFF80007FFFFF0000FFFF0003FFFFFF
310
FFF0003FFFFF0003F000E0003FFFFC0003FE0003FFF000003FFF0003FF80007F
310
E0003FFFF80007FE0003FFFFC0007FF8000001FFFE0000007FFFFFF0001FFFFF
310
FF80003FFFFE0000FFFF80003FFFFE0000FFFF0003FFFFFFFFF0001FFFFE0003
310
F000F0001FFFF80003FE0003FFF000007FFF0001FF80007FE0003FFFF00007FE
310
0001FFFF80007FF8000001FFFE0000007FFFFFF0001FFFFFFFC0000FFFF80001
310
FFFFC0000FFFF80001FFFF0003FFFFFFFFF0001FFFFC0003F000F0000FFFF000
310
07FE0007FFF800007FFF0001FF80007FE0001FFFE00007FF0000FFFE00007FF8
310
000001FFFE0000007FFFFFF0001FFFFFFFC00003FFE00001FFFFC00003FFE000
310
01FFFF0003FFFFFFFFF8000FFFF80003F000F00003FFC00007FC0007FFF80000
310
7FFF8001FF80007FF00007FF80000FFF00007FF80000FFF8000001FFFE000000
310
7F80000000000001FFE000003E000003FFFFE000003E000003FFFF0003FFFFFF
310
FFF80003FFE00007F000F800000000000FFC0007FFF800007FFF8001FF80007F
310
F000000000000FFF000000000000FFF8000001FFFE0000007F80000000000001
310
FFF0000000000007FFFFF0000000000007FFFF0003FFFFFFFFFC00007E000007
310
F000F800000000000FFC0007FFF80000FFFF8000FF80007FF800000000001FFF
310
800000000001FFF8000001FFFE0000007F80000000000001FFF800000000000F
310
FFFFF800000000000FFFFF0003FFFFFFFFFC00000000000FF000FC0000000000
310
1FFC0007FFFC0000FFFF8000FF80007FF800000000003FFFC00000000001FFF8
310
000001FFFE0000007F80000000000001FFF800000000000FFFFFF80000000000
310
0FFFFF0003FFFFFFFFFE00000000001FF000FE00000000003FF8000FFFFC0000
310
FFFF8000FF80007FFC00000000003FFFC00000000003FFF8000001FFFE000000
310
7F80000000000001FFFC00000000001FFFFFFC00000000001FFFFF0003FFFFFF
310
FFFF00000000001FF000FF00000000003FF8000FFFFC0000FFFFC000FF80007F
310
FE00000000007FFFE00000000007FFF8000001FFFE0000007F80000000000001
310
FFFE00000000003FFFFFFE00000000003FFFFF0003FFFFFFFFFF80000000003F
310
F000FF80000000007FF8000FFFFC0001FFFFC0007F80007FFF0000000000FFFF
310
F0000000000FFFF800000000000000007F80000000000001FFFF8000000000FF
310
FFFFFF8000000000FFFFFF0003FFFFFFFFFFC0000000007FF000FFC000000000
310
FFF8000FFFFE0001FFFFC0007F80007FFF8000000001FFFFF8000000001FFFF8
310
00000000000000007F80000000000001FFFFC000000001FFFFFFFFC000000001
310
FFFFFF0003FFFFFFFFFFE000000000FFF000FFE000000003FFF0001FFFFE0001
310
FFFFC0007F80007FFFC000000007FFFFFE000000003FFFF80000000000000000
310
7F80000000000001FFFFE000000003FFFFFFFFE000000003FFFFFF0003FFFFFF
310
FFFFF000000003FFF000FFF80000000FFFF0001FFFFE0001FFFFE0007F80007F
310
FFF00000000FFFFFFF00000000FFFFF800000000000000007F80000000000001
310
FFFFF80000000FFFFFFFFFF80000000FFFFFFF0003FFFFFFFFFFFC0000000FFF
310
F000FFFE0000003FFFF0001FFFFE0003FFFFE0003F80007FFFFC0000003FFFFF
310
FFC0000003FFFFF800000000000000007F80000000000001FFFFFE0000003FFF
310
FFFFFFFE0000003FFFFFFF0003FFFFFFFFFFFF0000003FFFF000FFFF800000FF
310
FFF0001FFFFF0003FFFFE0003F80007FFFFF000001FFFFFFFFF800001FFFFFF8
310
00000000000000007F80000000000001FFFFFFC00001FFFFFFFFFFFFC00001FF
310
FFFFFF0003FFFFFFFFFFFFC00000FFFFF000FFFFF8000FFFFFFFFFFFFFFFFFFF
310
FFFFFFFFFFFFFFFFFFFFF0001FFFFFFFFFFF0000FFFFFFF80000000000000000
310
7FFFFFFFFFFFFFFFFFFFFFFC001FFFFFFFFFFFFFFC001FFFFFFFFFFFFFFFFFFF
310
FFFFFFFC001FFFFFF000FFFFFFFFFFFFFFFFFFFFFFFFFFFFFFFFFFFFFFFFFFFF
310
FFFFFFFFFFFFFFFFFFFFFFFFFFFFFFFFFFFFFFFFFFFFFFFFFFFFFFFFFFFFFFFF
310
FFFFFFFFFFFFFFFFFFFFFFFFFFFFFFFFFFFFFFFFFFFFFFFFFFFFFFFFFFFFFFFF
310
F000FFFFFFFFFFFFFFFFFFFFFFFFFFFFFFFFFFFFFFFFFFFFFFFFFFFFFFFFFFFF
310
FFFFFFFFFFFFFFFFFFFFFFFFFFFFFFFFFFFFFFFFFFFFFFFFFFFFFFFFFFFFFFFF
310
FFFFFFFFFFFFFFFFFFFFFFFFFFFFFFFFFFFFFFFFFFFFFFFFF000FFFFFFFFFFFF
310
FFFFFFFFFFFFFFFFFFFFFFFFFFFFFFFFFFFFFFFFFFFFFFFFFFFFFFFFFFFFFFFF
310
FFFFFFFFFFFFFFFFFFFFFFFFFFFFFFFFFFFFFFFFFFFFFFFFFFFFFFFFFFFFFFFF
310
FFFFFFFFFFFFFFFFFFFFFFFFFFFFFFFFF000FFFFFFFFFFFFFFFFFFFFFFFFFFFF
310
FFFFFFFFFFFFFFFFFFFFFFFFFFFFFFFFFFFFFFFFFFFFFFFFFFFFFFFFFFFFFFFF
310
FFFFFFFFFFFFFFFFFFFFFFFFFFFFFFFFFFFFFFFFFFFFFFFFFFFFFFFFFFFFFFFF
310
FFFFFFFFFFFFFFFFF000FFFFFFFFFFFFFFFFFFFFFFFFFFFFFFFFFFFFFFFFFFFF
310
FFFFFFFFFFFFFFFFFFFFFFFFFFFFFFFFFFFFFFFFFFFFFFFFFFFFFFFFFFFFFFFF
310
FFFFFFFFFFFFFFFFFFFFFFFFFFFFFFFFFFFFFFFFFFFFFFFFFFFFFFFFFFFFFFFF
310
F000FFFFFFFFFFFFFFFFFFFFFFFFFFFFFFFFFFFFFFFFFFFFFFFFFFFFFFFFFFFF
310
FFFFFFFFFFFFFFFFFFFFFFFFFFFFFFFFFFFFFFFFFFFFFFFFFFFFFFFFFFFFFFFF
310
FFFFFFFFFFFFFFFFFFFFFFFFFFFFFFFFFFFFFFFFFFFFFFFFF000FFFFFFFFFFFF
310
FFFFFFFFFFFFFFFFFFFFFFFFFFFFFFFFFFFFFFFFFFFFFFFFFFFFFFFFFFFFFFFF
310
FFFFFFFFFFFFFFFFFFFFFFFFFFFFFFFFFFFFFFFFFFFFFFFFFFFFFFFFFFFFFFFF
310
FFFFFFFFFFFFFFFFFFFFFFFFFFFFFFFFF000FFFFFFFFFFFFFFFFFFFFFFFFFFFF
310
FFFFFFFFFFFFFFFFFFFFFFFFFFFFFFFFFFFFFFFFFFFFFFFFFFFFFFFFFFFFFFFF
310
FFFFFFFFFFFFFFFFFFFFFFFFFFFFFFFFFFFFFFFFFFFFFFFFFFFFFFFFFFFFFFFF
310
FFFFFFFFFFFFFFFFF000FFFFFFFFFFFFFFFFFFFFFFFFFFFFFFFFFFFFFFFFFFFF
310
FFFFFFFFFFFFFFFFFFFFFFFFFFFFFFFFFFFFFFFFFFFFFFFFFFFFFFFFFFFFFFFF
310
FFFFFFFFFFFFFFFFFFFFFFFFFFFFFFFFFFFFFFFFFFFFFFFFFFFFFFFFFFFFFFFF
310
F000FFFFFFFFFFFFFFFFFFFFFFFFFFFFFFFFFFFFFFFFFFFFFFFFFFFFFFFFFFFF
310
FFFFFFFFFFFFFFFFFFFFFFFFFFFFFFFFFFFFFFFFFFFFFFFFFFFFFFFFFFFFFFFF
310
FFFFFFFFFFFFFFFFFFFFFFFFFFFFFFFFFFFFFFFFFFFFFFFFF000FFFFFFFFFFFF
310
FFFFFFFFFFFFFFFFFFFFFFFFFFFFFFFFFFFFFFFFFFFFFFFFFFFFFFFFFFFFFFFF
310
FFFFFFFFFFFFFFFFFFFFFFFFFFFFFFFFFFFFFFFFFFFFFFFFFFFFFFFFFFFFFFFF
310
FFFFFFFFFFFFFFFFFFFFFFFFFFFFFFFFF000FFFFFFFFFFFFFFFFFFFFFFFFFFFF
310
FFFFFFFFFFFFFFFFFFFFFFFFFFFFFFFFFFFFFFFFFFFFFFFFFFFFFFFFFFFFFFFF
310
FFFFFFFFFFFFFFFFFFFFFFFFFFFFFFFFFFFFFFFFFFFFFFFFFFFFFFFFFFFFFFFF
310
FFFFFFFFFFFFFFFFF000FFFFFFFFFFFFFFFFFFFFFFFFFFFFFFFFFFFFFFFFFFFF
310
FFFFFFFFFFFFFFFFFFFFFFFFFFFFFFFFFFFFFFFFFFFFFFFFFFFFFFFFFFFFFFFF
310
FFFFFFFFFFFFFFFFFFFFFFFFFFFFFFFFFFFFFFFFFFFFFFFFFFFFFFFFFFFFFFFF
310
F000FFFFFFFFFFFFFFFFFFFFFFFFFFFFFFFFFFFFFFFFFFFFFFFFFFFFFFFFFFFF
310
FFFFFFFFFFFFFFFFFFFFFFFFFFFFFFFFFFFFFFFFFFFFFFFFFFFFFFFFFFFFFFFF
310
FFFFFFFFFFFFFFFFFFFFFFFFFFFFFFFFFFFFFFFFFFFFFFFFF000FFFFFFFFFFFF
310
FFFFFFFFFFFFFFFFFFFFFFFFFFFFFFFFFFFFFFFFFFFFFFFFFFFFFFFFFFFFFFFF
310
FFFFFFFFFFFFFFFFFFFFFFFFFFFFFFFFFFFFFFFFFFFFFFFFFFFFFFFFFFFFFFFF
310
FFFFFFFFFFFFFFFFFFFFFFFFFFFFFFFFF000FFFFFFFFFFFFFFFFFFFFFFFFFFFF
310
FFFFFFFFFFFFFFFFFFFFFFFFFFFFFFFFFFFFFFFFFFFFFFFFFFFFFFFFFFFFFFFF
310
FFFFFFFFFFFFFFFFFFFFFFFFFFFFFFFFFFFFFFFFFFFFFFFFFFFFFFFFFFFFFFFF
310
FFFFFFFFFFFFFFFFF000FFFFFFFFFFFFFFFFFFFFFFFFFFFFFFFFFFFFFFFFFFFF
310
FFFFFFFFFFFFFFFFFFFFFFFFFFFFFFFFFFFFFFFFFFFFFFFFFFFFFFFFFFFFFFFF
310
FFFFFFFFFFFFFFFFFFFFFFFFFFFFFFFFFFFFFFFFFFFFFFFFFFFFFFFFFFFFFFFF
310
F000FFFFFFFFFFFFFFFFFFFFFFFFFFFFFFFFFFFFFFFFFFFFFFFFFFFFFFFFFFFF
310
FFFFFFFFFFFFFFFFFFFFFFFFFFFFFFFFFFFFFFFFFFFFFFFFFFFFFFFFFFFFFFFF
310
FFFFFFFFFFFFFFFFFFFFFFFFFFFFFFFFFFFFFFFFFFFFFFFFF000FFFFFFFFFFFF
310
FFFFFFFFFFFFFFFFFFFFFFFFFFFFFFFFFFFFFFFFFFFFFFFFFFFFFFFFFFFFFFFF
310
FFFFFFFFFFFFFFFFFFFFFFFFFFFFFFFFFFFFFFFFFFFFFFFFFFFFFFFFFFFFFFFF
310
FFFFFFFFFFFFFFFFFFFFFFFFFFFFFFFFF000FFFFFFFFFFFFFFFFFFFFFFFFFFFF
310
FFFFFFFFFFFFFFFFFFFFFFFFFFFFFFFFFFFFFFFFFFFFFFFFFFFFFFFFFFFFFFFF
310
FFFFFFFFFFFFFFFFFFFFFFFFFFFFFFFFFFFFFFFFFFFFFFFFFFFFFFFFFFFFFFFF
310
FFFFFFFFFFFFFFFFF000FFFFFFFFFFFFFFFFFFFFFFFFFFFFFFFFFFFFFFFFFFFF
310
FFFFFFFFFFFFFFFFFFFFFFFFFFFFFFFFFFFFFFFFFFFFFFFFFFFFFFFFFFFFFFFF
310
FFFFFFFFFFFFFFFFFFFFFFFFFFFFFFFFFFFFFFFFFFFFFFFFFFFFFFFFFFFFFFFF
310
F000FFFFFFFFFFFFFFFFFFFFFFFFFFFFFFFFFFFFFFFFFFFFFFFFFFFFFFFFFFFF
310
FFFFFFFFFFFFFFFFFFFFFFFFFFFFFFFFFFFFFFFFFFFFFFFFFFFFFFFFFFFFFFFF
310
FFFFFFFFFFFFFFFFFFFFFFFFFFFFFFFFFFFFFFFFFFFFFFFFF000FFFFFFFFFFFF
310
FFFFFFFFFFFFFFFFFFFFFFFFFFFFFFFFFFFFFFFFFFFFFFFFFFFFFFFFFFFFFFFF
310
FFFFFFFFFFFFFFFFFFFFFFFFFFFFFFFFFFFFFFFFFFFFFFFFFFFFFFFFFFFFFFFF
310
FFFFFFFFFFFFFFFFFFFFFFFFFFFFFFFFF0000000000000000000000000000000
310
0000000000000000000000000000000000000000000000000000000000000000
310
0000000000000000000000000000000000000000000000000000000000000000
310
0000000000000000000000000000000000000000000000000000000000000000
310
0000000000000000000000000000000000000000000000000000000000000000
310
0000000000000000000000000000000000000000000000000000000000000000
310
0000000000000000000000000000000000000000000000000000000000000000
310
0000000000000000000000000000000000000000000000000000000000000000
310
0000000000000000000000000000000000000000000000000000000000000000
310
0000000000000000000000000000000000000000000000000000000000000000
310
0000000000000000000000000000000000000000000000000000000000000000
310
0000000000000000000000000000000000000000000000000000000000000000
310
0000000000000000000000000000000000000000000000000000000000000000
310
0000000000000000000000000000000000000000000000000000000000000000
310
0000000000000000000000000000000000000000000000000000000000000000
310
0000000000000000000000000000000000000000000000000000000000000000
  1
OLE
  0
ENDSEC
  0
SECTION
  2
OBJECTS
  0
DICTIONARY
  5
C
330
0
100
AcDbDictionary
281
     1
  3
ACAD_GROUP
350
D
  3
ACAD_LAYOUT
350
1A
  3
ACAD_MLINESTYLE
350
17
  3
ACAD_PLOTSETTINGS
350
19
  3
ACAD_PLOTSTYLENAME
350
E
  0
DICTIONARY
  5
D
102
{ACAD_REACTORS
330
C
102
}
330
C
100
AcDbDictionary
281
     1
  0
DICTIONARY
  5
1A
102
{ACAD_REACTORS
330
C
102
}
330
C
100
AcDbDictionary
281
     1
  3
Layout1
350
1E
  3
Layout2
350
26
  3
Model
350
22
  0
DICTIONARY
  5
17
102
{ACAD_REACTORS
330
C
102
}
330
C
100
AcDbDictionary
281
     1
  3
Standard
350
18
  0
DICTIONARY
  5
19
102
{ACAD_REACTORS
330
C
102
}
330
C
100
AcDbDictionary
281
     1
  0
ACDBDICTIONARYWDFLT
  5
E
102
{ACAD_REACTORS
330
C
102
}
330
C
100
AcDbDictionary
281
     1
  3
Normal
350
F
100
AcDbDictionaryWithDefault
340
F
  0
LAYOUT
  5
1E
102
{ACAD_REACTORS
330
1A
102
}
330
1A
100
AcDbPlotSettings
  1

  2
none_device
  4

  6

 40
0.0
 41
0.0
 42
0.0
 43
0.0
 44
0.0
 45
0.0
 46
0.0
 47
0.0
 48
0.0
 49
0.0
140
0.0
141
0.0
142
1.0
143
1.0
 70
   688
 72
     0
 73
     0
 74
     5
  7

 75
    16
147
1.0
148
0.0
149
0.0
100
AcDbLayout
  1
Layout1
 70
     1
 71
     1
 10
0.0
 20
0.0
 11
420.0
 21
297.0
 12
0.0
 22
0.0
 32
0.0
 14
1.0000000000E+20
 24
1.0000000000E+20
 34
1.0000000000E+20
 15
-1.0000000000E+20
 25
-1.0000000000E+20
 35
-1.0000000000E+20
146
0.0
 13
0.0
 23
0.0
 33
0.0
 16
1.0
 26
0.0
 36
0.0
 17
0.0
 27
1.0
 37
0.0
 76
     0
330
1B
  0
LAYOUT
  5
26
102
{ACAD_REACTORS
330
1A
102
}
330
1A
100
AcDbPlotSettings
  1

  2
none_device
  4

  6

 40
0.0
 41
0.0
 42
0.0
 43
0.0
 44
0.0
 45
0.0
 46
0.0
 47
0.0
 48
0.0
 49
0.0
140
0.0
141
0.0
142
1.0
143
1.0
 70
   688
 72
     0
 73
     0
 74
     5
  7

 75
    16
147
1.0
148
0.0
149
0.0
100
AcDbLayout
  1
Layout2
 70
     1
 71
     2
 10
0.0
 20
0.0
 11
0.0
 21
0.0
 12
0.0
 22
0.0
 32
0.0
 14
0.0
 24
0.0
 34
0.0
 15
0.0
 25
0.0
 35
0.0
146
0.0
 13
0.0
 23
0.0
 33
0.0
 16
1.0
 26
0.0
 36
0.0
 17
0.0
 27
1.0
 37
0.0
 76
     0
330
23
  0
LAYOUT
  5
22
102
{ACAD_REACTORS
330
1A
102
}
330
1A
100
AcDbPlotSettings
  1

  2
none_device
  4

  6

 40
0.0
 41
0.0
 42
0.0
 43
0.0
 44
0.0
 45
0.0
 46
0.0
 47
0.0
 48
0.0
 49
0.0
140
0.0
141
0.0
142
1.0
143
1.0
 70
  1712
 72
     0
 73
     0
 74
     0
  7

 75
     0
147
1.0
148
0.0
149
0.0
100
AcDbLayout
  1
Model
 70
     1
 71
     0
 10
0.0
 20
0.0
 11
297.0
 21
210.0
 12
0.0
 22
0.0
 32
0.0
 14
0.0
 24
0.0
 34
0.0
 15
297.0
 25
210.0
 35
0.0
146
0.0
 13
0.0
 23
0.0
 33
0.0
 16
1.0
 26
0.0
 36
0.0
 17
0.0
 27
1.0
 37
0.0
 76
     0
330
1F
331
29
  0
MLINESTYLE
  5
18
102
{ACAD_REACTORS
330
17
102
}
330
17
100
AcDbMlineStyle
  2
Standard
 70
     0
  3

 62
   256
 51
90.0
 52
90.0
 71
     2
 49
0.5
 62
   256
  6
BYLAYER
 49
-0.5
 62
   256
  6
BYLAYER
  0
ACDBPLACEHOLDER
  5
F
102
{ACAD_REACTORS
330
E
102
}
330
E
  0
ENDSEC
  0
EOF
