  0
SECTION
  2
HEADER
  9
$ACADVER
  1
AC1015
  9
$ACADMAINTVER
 70
     6
  9
$DWGCODEPAGE
  3
ANSI_1252
  9
$INSBASE
 10
0.0
 20
0.0
 30
0.0
  9
$EXTMIN
 10
0.0
 20
0.0
 30
0.0
  9
$EXTMAX
 10
297.0
 20
210.0
 30
0.0
  9
$LIMMIN
 10
0.0
 20
0.0
  9
$LIMMAX
 10
297.0
 20
210.0
  9
$ORTHOMODE
 70
     0
  9
$REGENMODE
 70
     1
  9
$FILLMODE
 70
     1
  9
$QTEXTMODE
 70
     0
  9
$MIRRTEXT
 70
     1
  9
$LTSCALE
 40
1.0
  9
$ATTMODE
 70
     1
  9
$TEXTSIZE
 40
2.0
  9
$TRACEWID
 40
1.0
  9
$TEXTSTYLE
  7
Standard
  9
$CLAYER
  8
0
  9
$CELTYPE
  6
ByLayer
  9
$CECOLOR
 62
   256
  9
$CELTSCALE
 40
1.0
  9
$DISPSILH
 70
     0
  9
$DIMSCALE
 40
1.0
  9
$DIMASZ
 40
3.0
  9
$DIMEXO
 40
0.0
  9
$DIMDLI
 40
3.75
  9
$DIMRND
 40
0.0
  9
$DIMDLE
 40
0.0
  9
$DIMEXE
 40
1.0
  9
$DIMTP
 40
0.0
  9
$DIMTM
 40
0.0
  9
$DIMTXT
 40
2.0
  9
$DIMCEN
 40
2.5
  9
$DIMTSZ
 40
0.0
  9
$DIMTOL
 70
     0
  9
$DIMLIM
 70
     0
  9
$DIMTIH
 70
     1
  9
$DIMTOH
 70
     1
  9
$DIMSE1
 70
     0
  9
$DIMSE2
 70
     0
  9
$DIMTAD
 70
     1
  9
$DIMZIN
 70
     0
  9
$DIMBLK
  1

  9
$DIMASO
 70
     1
  9
$DIMSHO
 70
     1
  9
$DIMPOST
  1

  9
$DIMAPOST
  1

  9
$DIMALT
 70
     0
  9
$DIMALTD
 70
     3
  9
$DIMALTF
 40
0.0393700787
  9
$DIMLFAC
 40
1.0
  9
$DIMTOFL
 70
     1
  9
$DIMTVP
 40
0.0
  9
$DIMTIX
 70
     0
  9
$DIMSOXD
 70
     0
  9
$DIMSAH
 70
     0
  9
$DIMBLK1
  1

  9
$DIMBLK2
  1

  9
$DIMSTYLE
  2
ISO-25
  9
$DIMCLRD
 70
     0
  9
$DIMCLRE
 70
     0
  9
$DIMCLRT
 70
     0
  9
$DIMTFAC
 40
1.0
  9
$DIMGAP
 40
1.524
  9
$DIMJUST
 70
     0
  9
$DIMSD1
 70
     0
  9
$DIMSD2
 70
     0
  9
$DIMTOLJ
 70
     0
  9
$DIMTZIN
 70
     0
  9
$DIMALTZ
 70
     0
  9
$DIMALTTZ
 70
     0
  9
$DIMUPT
 70
     0
  9
$DIMDEC
 70
     2
  9
$DIMTDEC
 70
     3
  9
$DIMALTU
 70
     2
  9
$DIMALTTD
 70
     3
  9
$DIMTXSTY
  7
Standard
  9
$DIMAUNIT
 70
     0
  9
$DIMADEC
 70
     2
  9
$DIMALTRND
 40
0.0
  9
$DIMAZIN
 70
     0
  9
$DIMDSEP
 70
    44
  9
$DIMATFIT
 70
     3
  9
$DIMFRAC
 70
     0
  9
$DIMLDRBLK
  1

  9
$DIMLUNIT
 70
     2
  9
$DIMLWD
 70
    -2
  9
$DIMLWE
 70
    -2
  9
$DIMTMOVE
 70
     0
  9
$LUNITS
 70
     2
  9
$LUPREC
 70
     2
  9
$SKETCHINC
 40
1.0
  9
$FILLETRAD
 40
10.0
  9
$AUNITS
 70
     0
  9
$AUPREC
 70
     2
  9
$MENU
  1
.
  9
$ELEVATION
 40
0.0
  9
$PELEVATION
 40
0.0
  9
$THICKNESS
 40
0.0
  9
$LIMCHECK
 70
     0
  9
$CHAMFERA
 40
10.0
  9
$CHAMFERB
 40
10.0
  9
$CHAMFERC
 40
20.0
  9
$CHAMFERD
 40
0.0
  9
$SKPOLY
 70
     0
  9
$TDCREATE
 40
2455973.462927673
  9
$TDUCREATE
 40
2455973.421261007
  9
$TDUPDATE
 40
2455973.462927685
  9
$TDUUPDATE
 40
2455973.421261019
  9
$TDINDWG
 40
0.0000000116
  9
$TDUSRTIMER
 40
0.0000000116
  9
$USRTIMER
 70
     1
  9
$ANGBASE
 50
0.0
  9
$ANGDIR
 70
     0
  9
$PDMODE
 70
     0
  9
$PDSIZE
 40
-1.0
  9
$PLINEWID
 40
0.0
  9
$SPLFRAME
 70
     0
  9
$SPLINETYPE
 70
     6
  9
$SPLINESEGS
 70
     8
  9
$HANDSEED
  5
337
  9
$SURFTAB1
 70
     6
  9
$SURFTAB2
 70
     6
  9
$SURFTYPE
 70
     6
  9
$SURFU
 70
     6
  9
$SURFV
 70
     6
  9
$UCSBASE
  2

  9
$UCSNAME
  2

  9
$UCSORG
 10
0.0
 20
0.0
 30
0.0
  9
$UCSXDIR
 10
1.0
 20
0.0
 30
0.0
  9
$UCSYDIR
 10
0.0
 20
1.0
 30
0.0
  9
$UCSORTHOREF
  2

  9
$UCSORTHOVIEW
 70
     0
  9
$UCSORGTOP
 10
0.0
 20
0.0
 30
0.0
  9
$UCSORGBOTTOM
 10
0.0
 20
0.0
 30
0.0
  9
$UCSORGLEFT
 10
0.0
 20
0.0
 30
0.0
  9
$UCSORGRIGHT
 10
0.0
 20
0.0
 30
0.0
  9
$UCSORGFRONT
 10
0.0
 20
0.0
 30
0.0
  9
$UCSORGBACK
 10
0.0
 20
0.0
 30
0.0
  9
$PUCSBASE
  2

  9
$PUCSNAME
  2

  9
$PUCSORG
 10
0.0
 20
0.0
 30
0.0
  9
$PUCSXDIR
 10
1.0
 20
0.0
 30
0.0
  9
$PUCSYDIR
 10
0.0
 20
1.0
 30
0.0
  9
$PUCSORTHOREF
  2

  9
$PUCSORTHOVIEW
 70
     0
  9
$PUCSORGTOP
 10
0.0
 20
0.0
 30
0.0
  9
$PUCSORGBOTTOM
 10
0.0
 20
0.0
 30
0.0
  9
$PUCSORGLEFT
 10
0.0
 20
0.0
 30
0.0
  9
$PUCSORGRIGHT
 10
0.0
 20
0.0
 30
0.0
  9
$PUCSORGFRONT
 10
0.0
 20
0.0
 30
0.0
  9
$PUCSORGBACK
 10
0.0
 20
0.0
 30
0.0
  9
$USERI1
 70
     0
  9
$USERI2
 70
     0
  9
$USERI3
 70
     0
  9
$USERI4
 70
     0
  9
$USERI5
 70
     0
  9
$USERR1
 40
0.0
  9
$USERR2
 40
0.0
  9
$USERR3
 40
0.0
  9
$USERR4
 40
0.0
  9
$USERR5
 40
0.0
  9
$WORLDVIEW
 70
     1
  9
$SHADEDGE
 70
     3
  9
$SHADEDIF
 70
    70
  9
$TILEMODE
 70
     1
  9
$MAXACTVP
 70
    64
  9
$PINSBASE
 10
0.0
 20
0.0
 30
0.0
  9
$PLIMCHECK
 70
     0
  9
$PEXTMIN
 10
1.0000000000E+20
 20
1.0000000000E+20
 30
1.0000000000E+20
  9
$PEXTMAX
 10
-1.0000000000E+20
 20
-1.0000000000E+20
 30
-1.0000000000E+20
  9
$PLIMMIN
 10
0.0
 20
0.0
  9
$PLIMMAX
 10
420.0
 20
297.0
  9
$UNITMODE
 70
     0
  9
$VISRETAIN
 70
     1
  9
$PLINEGEN
 70
     0
  9
$PSLTSCALE
 70
     1
  9
$TREEDEPTH
 70
  3020
  9
$CMLSTYLE
  2
Standard
  9
$CMLJUST
 70
     0
  9
$CMLSCALE
 40
20.0
  9
$PROXYGRAPHICS
 70
     1
  9
$MEASUREMENT
 70
     1
  9
$CELWEIGHT
370
    -1
  9
$ENDCAPS
280
     0
  9
$JOINSTYLE
280
     0
  9
$LWDISPLAY
290
     1
  9
$INSUNITS
 70
     4
  9
$HYPERLINKBASE
  1

  9
$STYLESHEET
  1

  9
$XEDIT
290
     1
  9
$CEPSNTYPE
380
     0
  9
$PSTYLEMODE
290
     1
  9
$FINGERPRINTGUID
  2
{D98291ED-CCD5-4D2B-8243-75F35BDA0F4D}
  9
$VERSIONGUID
  2
{FAEB1C32-E019-11D5-929B-00C0DF256EC4}
  9
$EXTNAMES
290
     1
  9
$PSVPSCALE
 40
0.0
  9
$OLESTARTUP
290
     0
  0
ENDSEC
  0
SECTION
  2
CLASSES
  0
CLASS
  1
ACDBDICTIONARYWDFLT
  2
AcDbDictionaryWithDefault
  3
ObjectDBX Classes
 90
        0
280
     0
281
     0
  0
CLASS
  1
VISUALSTYLE
  2
AcDbVisualStyle
  3
ObjectDBX Classes
 90
     4095
280
     0
281
     0
  0
CLASS
  1
MATERIAL
  2
AcDbMaterial
  3
ObjectDBX Classes
 90
     1153
280
     0
281
     0
  0
CLASS
  1
ACDBPLACEHOLDER
  2
AcDbPlaceHolder
  3
ObjectDBX Classes
 90
        0
280
     0
281
     0
  0
CLASS
  1
LAYOUT
  2
AcDbLayout
  3
ObjectDBX Classes
 90
        0
280
     0
281
     0
  0
ENDSEC
  0
SECTION
  2
TABLES
  0
TABLE
  2
VPORT
  5
8
330
0
100
AcDbSymbolTable
 70
     1
  0
VPORT
  5
29
330
8
100
AcDbSymbolTableRecord
100
AcDbViewportTableRecord
  2
*Active
 70
     0
 10
0.0
 20
0.0
 11
1.0
 21
1.0
 12
148.5
 22
105.0
 13
0.0
 23
0.0
 14
10.0
 24
10.0
 15
10.0
 25
10.0
 16
0.0
 26
0.0
 36
1.0
 17
0.0
 27
0.0
 37
0.0
 40
210.0
 41
1.4142857143
 42
50.0
 43
0.0
 44
0.0
 50
0.0
 51
0.0
 71
     0
 72
  2000
 73
     1
 74
     3
 75
     0
 76
     0
 77
     0
 78
     0
281
     0
 65
     1
110
0.0
120
0.0
130
0.0
111
1.0
121
0.0
131
0.0
112
0.0
122
1.0
132
0.0
 79
     0
146
0.0
  0
ENDTAB
  0
TABLE
  2
LTYPE
  5
5
330
0
100
AcDbSymbolTable
 70
     6
  0
LTYPE
  5
14
330
5
100
AcDbSymbolTableRecord
100
AcDbLinetypeTableRecord
  2
ByBlock
 70
     0
  3

 72
    65
 73
     0
 40
0.0
  0
LTYPE
  5
15
330
5
100
AcDbSymbolTableRecord
100
AcDbLinetypeTableRecord
  2
ByLayer
 70
     0
  3

 72
    65
 73
     0
 40
0.0
  0
LTYPE
  5
16
330
5
100
AcDbSymbolTableRecord
100
AcDbLinetypeTableRecord
  2
Continuous
 70
     0
  3
Solid line
 72
    65
 73
     0
 40
0.0
  0
LTYPE
  5
3F
330
5
100
AcDbSymbolTableRecord
100
AcDbLinetypeTableRecord
  2
HIDDEN
 70
     0
  3
Hidden __ __ __ __ __ __ __ __ __ __ __ __ __ __
 72
    65
 73
     2
 40
1.905
 49
1.27
 74
     0
 49
-0.635
 74
     0
  0
LTYPE
  5
40
330
5
100
AcDbSymbolTableRecord
100
AcDbLinetypeTableRecord
  2
PHANTOM
 70
     0
  3
Phantom ______  __  __  ______  __  __  ______
 72
    65
 73
     6
 40
12.7
 49
6.35
 74
     0
 49
-1.27
 74
     0
 49
1.27
 74
     0
 49
-1.27
 74
     0
 49
1.27
 74
     0
 49
-1.27
 74
     0
  0
LTYPE
  5
41
330
5
100
AcDbSymbolTableRecord
100
AcDbLinetypeTableRecord
  2
CENTER
 70
     0
  3
Center ____ _ ____ _ ____ _ ____ _ ____ _ ____
 72
    65
 73
     4
 40
10.16
 49
6.35
 74
     0
 49
-1.27
 74
     0
 49
1.27
 74
     0
 49
-1.27
 74
     0
  0
LTYPE
  5
42
330
5
100
AcDbSymbolTableRecord
100
AcDbLinetypeTableRecord
  2
CENTERX2
 70
     0
  3
Center (2x) ________  __  ________  __  _____
 72
    65
 73
     4
 40
20.32
 49
12.7
 74
     0
 49
-2.54
 74
     0
 49
2.54
 74
     0
 49
-2.54
 74
     0
  0
LTYPE
  5
43
330
5
100
AcDbSymbolTableRecord
100
AcDbLinetypeTableRecord
  2
DOT2
 70
     0
  3
Dot (.5x) ........................................
 72
    65
 73
     2
 40
0.635
 49
0.0
 74
     0
 49
-0.635
 74
     0
  0
ENDTAB
  0
TABLE
  2
LAYER
  5
2
330
0
100
AcDbSymbolTable
 70
     5
  0
LAYER
  5
10
330
2
100
AcDbSymbolTableRecord
100
AcDbLayerTableRecord
  2
0
 70
     0
 62
     7
  6
Continuous
370
    -3
390
F
  0
LAYER
  5
44
330
2
100
AcDbSymbolTableRecord
100
AcDbLayerTableRecord
  2
FORMAT
 70
     0
 62
     7
  6
Continuous
370
    -3
390
F
  0
LAYER
  5
45
330
2
100
AcDbSymbolTableRecord
100
AcDbLayerTableRecord
  2
VERMASSUNG
 70
     0
 62
     7
  6
Continuous
370
    -3
390
F
  0
LAYER
  5
46
330
2
100
AcDbSymbolTableRecord
100
AcDbLayerTableRecord
  2
KOPF_DÜNN
 70
     0
 62
     7
  6
Continuous
370
    -3
390
F
  0
LAYER
  5
47
330
2
100
AcDbSymbolTableRecord
100
AcDbLayerTableRecord
  2
KOPF_DICK
 70
     0
 62
     7
  6
Continuous
370
    15
390
F
  0
ENDTAB
  0
TABLE
  2
STYLE
  5
3
330
0
100
AcDbSymbolTable
 70
     2
  0
STYLE
  5
11
330
3
100
AcDbSymbolTableRecord
100
AcDbTextStyleTableRecord
  2
Standard
 70
     0
 40
0.0
 41
1.0
 50
0.0
 71
     0
 42
2.5
  3
txt
  4

  0
STYLE
  5
48
330
3
100
AcDbSymbolTableRecord
100
AcDbTextStyleTableRecord
  2
SLDTEXTSTYLE0
 70
     0
 40
0.0
 41
0.7
 50
0.0
 71
     0
 42
0.2
  3
TXT
  4

  0
ENDTAB
  0
TABLE
  2
VIEW
  5
6
330
0
100
AcDbSymbolTable
 70
     0
  0
ENDTAB
  0
TABLE
  2
UCS
  5
7
330
0
100
AcDbSymbolTable
 70
     0
  0
ENDTAB
  0
TABLE
  2
APPID
  5
9
330
0
100
AcDbSymbolTable
 70
     1
  0
APPID
  5
12
330
9
100
AcDbSymbolTableRecord
100
AcDbRegAppTableRecord
  2
ACAD
 70
     0
  0
ENDTAB
  0
TABLE
  2
DIMSTYLE
  5
A
330
0
100
AcDbSymbolTable
 70
     2
100
AcDbDimStyleTable
  0
DIMSTYLE
105
27
330
A
100
AcDbSymbolTableRecord
100
AcDbDimStyleTableRecord
  2
ISO-25
 70
     0
 41
2.5
 42
0.625
 43
3.75
 44
1.25
 73
     0
 74
     0
 77
     1
 78
     8
140
2.5
141
2.5
143
0.0393700787
147
0.625
171
     3
172
     1
178
     0
271
     2
272
     2
274
     3
278
    44
283
     0
284
     8
340
11
  0
DIMSTYLE
105
2FE
102
{ACAD_REACTORS
330
2FD
330
309
330
314
330
320
330
32B
102
}
330
A
100
AcDbSymbolTableRecord
100
AcDbDimStyleTableRecord
  2
SLDDIMSTYLE0
 70
     0
 41
3.0
 44
0.0
 45
0.000000001
 73
     0
 74
     0
 77
     1
 78
    12
 79
     3
140
2.0
147
0.5
173
     1
178
     0
271
     2
272
     3
276
     2
284
    12
340
48
  0
ENDTAB
  0
TABLE
  2
BLOCK_RECORD
  5
1
330
0
100
AcDbSymbolTable
 70
     6
  0
BLOCK_RECORD
  5
1F
330
1
100
AcDbSymbolTableRecord
100
AcDbBlockTableRecord
  2
*Model_Space
340
22
  0
BLOCK_RECORD
  5
1B
330
1
100
AcDbSymbolTableRecord
100
AcDbBlockTableRecord
  2
*Paper_Space
340
1E
  0
BLOCK_RECORD
  5
23
330
1
100
AcDbSymbolTableRecord
100
AcDbBlockTableRecord
  2
*Paper_Space0
340
26
  0
BLOCK_RECORD
  5
2FF
330
1
100
AcDbSymbolTableRecord
100
AcDbBlockTableRecord
  2
*D1
340
0
  0
BLOCK_RECORD
  5
30A
330
1
100
AcDbSymbolTableRecord
100
AcDbBlockTableRecord
  2
*D2
340
0
  0
BLOCK_RECORD
  5
315
330
1
100
AcDbSymbolTableRecord
100
AcDbBlockTableRecord
  2
*D3
340
0
  0
BLOCK_RECORD
  5
321
330
1
100
AcDbSymbolTableRecord
100
AcDbBlockTableRecord
  2
*D4
340
0
  0
BLOCK_RECORD
  5
32C
330
1
100
AcDbSymbolTableRecord
100
AcDbBlockTableRecord
  2
*D5
340
0
  0
ENDTAB
  0
ENDSEC
  0
SECTION
  2
BLOCKS
  0
BLOCK
  5
20
330
1F
100
AcDbEntity
  8
0
100
AcDbBlockBegin
  2
*Model_Space
 70
     0
 10
0.0
 20
0.0
 30
0.0
  3
*Model_Space
  1

  0
ENDBLK
  5
21
330
1F
100
AcDbEntity
  8
0
100
AcDbBlockEnd
  0
BLOCK
  5
1C
330
1B
100
AcDbEntity
 67
     1
  8
0
100
AcDbBlockBegin
  2
*Paper_Space
 70
     0
 10
0.0
 20
0.0
 30
0.0
  3
*Paper_Space
  1

  0
ENDBLK
  5
1D
330
1B
100
AcDbEntity
 67
     1
  8
0
100
AcDbBlockEnd
  0
BLOCK
  5
24
330
23
100
AcDbEntity
  8
0
100
AcDbBlockBegin
  2
*Paper_Space0
 70
     0
 10
0.0
 20
0.0
 30
0.0
  3
*Paper_Space0
  1

  0
ENDBLK
  5
25
330
23
100
AcDbEntity
  8
0
100
AcDbBlockEnd
  0
BLOCK
  5
300
330
2FF
100
AcDbEntity
  8
0
100
AcDbBlockBegin
  2
*D1
 70
     1
 10
0.0
 20
0.0
 30
0.0
  3
*D1
  1

  0
SOLID
  5
302
330
2FF
100
AcDbEntity
  8
VERMASSUNG
100
AcDbTrace
 10
213.4324056098
 20
144.4928899083
 30
0.0
 11
212.9824056098
 21
141.4928899083
 31
0.0
 12
213.8824056098
 22
141.4928899083
 32
0.0
 13
213.8824056098
 23
141.4928899083
 33
0.0
  0
SOLID
  5
303
330
2FF
100
AcDbEntity
  8
VERMASSUNG
100
AcDbTrace
 10
213.4324056098
 20
94.9928899083
 30
0.0
 11
213.8824056098
 21
97.9928899083
 31
0.0
 12
212.9824056098
 22
97.9928899083
 32
0.0
 13
212.9824056098
 23
97.9928899083
 33
0.0
  0
LINE
  5
304
330
2FF
100
AcDbEntity
  8
VERMASSUNG
100
AcDbLine
 10
203.4324056098
 20
144.4928899083
 30
0.0
 11
214.4324056098
 21
144.4928899083
 31
0.0
  0
LINE
  5
305
330
2FF
100
AcDbEntity
  8
VERMASSUNG
100
AcDbLine
 10
201.3174509818
 20
94.9928899083
 30
0.0
 11
214.4324056098
 21
94.9928899083
 31
0.0
  0
LINE
  5
306
330
2FF
100
AcDbEntity
  8
VERMASSUNG
100
AcDbLine
 10
213.4324056098
 20
144.4928899083
 30
0.0
 11
213.4324056098
 21
94.9928899083
 31
0.0
  0
MTEXT
  5
307
330
2FF
100
AcDbEntity
  8
VERMASSUNG
100
AcDbMText
 10
210.8542701303
 20
112.3378891695
 30
0.1
 40
2.0
 41
0.0
 71
     1
 72
     1
  1
%%c
  7
SLDTEXTSTYLE0
 11
-7.044195017643634E-15
 21
1.0
 31
0.0
 73
     1
 44
1.0
  0
MTEXT
  5
308
330
2FF
100
AcDbEntity
  8
VERMASSUNG
100
AcDbMText
 10
210.6542701208
 20
115.9478891838
 30
0.1
 40
2.0
 41
0.0
 71
     1
 72
     1
  1
49.5-66.5
  7
SLDTEXTSTYLE0
 11
-7.044195017643634E-15
 21
1.0
 31
0.0
 73
     1
 44
1.0
  0
ENDBLK
  5
301
330
2FF
100
AcDbEntity
  8
0
100
AcDbBlockEnd
  0
BLOCK
  5
30B
330
30A
100
AcDbEntity
  8
0
100
AcDbBlockBegin
  2
*D2
 70
     1
 10
0.0
 20
0.0
 30
0.0
  3
*D2
  1

  0
SOLID
  5
30D
330
30A
100
AcDbEntity
  8
VERMASSUNG
100
AcDbTrace
 10
91.2122033219
 20
130.4928899083
 30
0.0
 11
90.7622033219
 21
127.4928899083
 31
0.0
 12
91.6622033219
 22
127.4928899083
 32
0.0
 13
91.6622033219
 23
127.4928899083
 33
0.0
  0
SOLID
  5
30E
330
30A
100
AcDbEntity
  8
VERMASSUNG
100
AcDbTrace
 10
91.2122033219
 20
108.4928899083
 30
0.0
 11
91.6622033219
 21
111.4928899083
 31
0.0
 12
90.7622033219
 22
111.4928899083
 32
0.0
 13
90.7622033219
 23
111.4928899083
 33
0.0
  0
LINE
  5
30F
330
30A
100
AcDbEntity
  8
VERMASSUNG
100
AcDbLine
 10
102.5087155963
 20
130.4928899083
 30
0.0
 11
90.2122033219
 21
130.4928899083
 31
0.0
  0
LINE
  5
310
330
30A
100
AcDbEntity
  8
VERMASSUNG
100
AcDbLine
 10
102.5087155963
 20
108.4928899083
 30
0.0
 11
90.2122033219
 21
108.4928899083
 31
0.0
  0
LINE
  5
311
330
30A
100
AcDbEntity
  8
VERMASSUNG
100
AcDbLine
 10
91.2122033219
 20
130.4928899083
 30
0.0
 11
91.2122033219
 21
108.4928899083
 31
0.0
  0
MTEXT
  5
312
330
30A
100
AcDbEntity
  8
VERMASSUNG
100
AcDbMText
 10
88.6340678423
 20
116.2887159295
 30
0.0
 40
2.0
 41
0.0
 71
     1
 72
     1
  1
%%c
  7
SLDTEXTSTYLE0
 11
-7.044195017643634E-15
 21
1.0
 31
0.0
 73
     1
 44
1.0
  0
MTEXT
  5
313
330
30A
100
AcDbEntity
  8
VERMASSUNG
100
AcDbMText
 10
88.6340679587
 20
119.8971830468
 30
0.0
 40
2.0
 41
0.0
 71
     1
 72
     1
  1
22
  7
SLDTEXTSTYLE0
 11
-7.044195017643634E-15
 21
1.0
 31
0.0
 73
     1
 44
1.0
  0
ENDBLK
  5
30C
330
30A
100
AcDbEntity
  8
0
100
AcDbBlockEnd
  0
BLOCK
  5
316
330
315
100
AcDbEntity
  8
0
100
AcDbBlockBegin
  2
*D3
 70
     1
 10
0.0
 20
0.0
 30
0.0
  3
*D3
  1

  0
SOLID
  5
318
330
315
100
AcDbEntity
  8
VERMASSUNG
100
AcDbTrace
 10
85.2122033219
 20
139.4928899083
 30
0.0
 11
84.7622033219
 21
136.4928899083
 31
0.0
 12
85.6622033219
 22
136.4928899083
 32
0.0
 13
85.6622033219
 23
136.4928899083
 33
0.0
  0
SOLID
  5
319
330
315
100
AcDbEntity
  8
VERMASSUNG
100
AcDbTrace
 10
85.2122033219
 20
99.4928899083
 30
0.0
 11
85.6622033219
 21
102.4928899083
 31
0.0
 12
84.7622033219
 22
102.4928899083
 32
0.0
 13
84.7622033219
 23
102.4928899083
 33
0.0
  0
LINE
  5
31A
330
315
100
AcDbEntity
  8
VERMASSUNG
100
AcDbLine
 10
125.0087155963
 20
139.4928899083
 30
0.0
 11
84.2122033219
 21
139.4928899083
 31
0.0
  0
LINE
  5
31B
330
315
100
AcDbEntity
  8
VERMASSUNG
100
AcDbLine
 10
125.0087155963
 20
99.4928899083
 30
0.0
 11
84.2122033219
 21
99.4928899083
 31
0.0
  0
LINE
  5
31C
330
315
100
AcDbEntity
  8
VERMASSUNG
100
AcDbLine
 10
85.2122033219
 20
139.4928899083
 30
0.0
 11
85.2122033219
 21
99.4928899083
 31
0.0
  0
MTEXT
  5
31D
330
315
100
AcDbEntity
  8
VERMASSUNG
100
AcDbMText
 10
82.4340678328
 20
113.6879645457
 30
0.0
 40
2.0
 41
0.0
 71
     1
 72
     1
  1
WH
  7
SLDTEXTSTYLE0
 11
-7.044195017643634E-15
 21
1.0
 31
0.0
 73
     1
 44
1.0
  0
MTEXT
  5
31E
330
315
100
AcDbEntity
  8
VERMASSUNG
100
AcDbMText
 10
82.6340678423
 20
118.6879644339
 30
0.0
 40
2.0
 41
0.0
 71
     1
 72
     1
  1
%%c
  7
SLDTEXTSTYLE0
 11
-7.044195017643634E-15
 21
1.0
 31
0.0
 73
     1
 44
1.0
  0
MTEXT
  5
31F
330
315
100
AcDbEntity
  8
VERMASSUNG
100
AcDbMText
 10
82.6340679587
 20
122.2979429421
 30
0.0
 40
2.0
 41
0.0
 71
     1
 72
     1
  1
40
  7
SLDTEXTSTYLE0
 11
-7.044195017643634E-15
 21
1.0
 31
0.0
 73
     1
 44
1.0
  0
ENDBLK
  5
317
330
315
100
AcDbEntity
  8
0
100
AcDbBlockEnd
  0
BLOCK
  5
322
330
321
100
AcDbEntity
  8
0
100
AcDbBlockBegin
  2
*D4
 70
     1
 10
0.0
 20
0.0
 30
0.0
  3
*D4
  1

  0
SOLID
  5
324
330
321
100
AcDbEntity
  8
VERMASSUNG
100
AcDbTrace
 10
79.2122033219
 20
140.4928899083
 30
0.0
 11
78.7622033219
 21
137.4928899083
 31
0.0
 12
79.6622033219
 22
137.4928899083
 32
0.0
 13
79.6622033219
 23
137.4928899083
 33
0.0
  0
SOLID
  5
325
330
321
100
AcDbEntity
  8
VERMASSUNG
100
AcDbTrace
 10
79.2122033219
 20
98.4928899083
 30
0.0
 11
79.6622033219
 21
101.4928899083
 31
0.0
 12
78.7622033219
 22
101.4928899083
 32
0.0
 13
78.7622033219
 23
101.4928899083
 33
0.0
  0
LINE
  5
326
330
321
100
AcDbEntity
  8
VERMASSUNG
100
AcDbLine
 10
130.3747410001
 20
140.4928899083
 30
0.0
 11
78.2122033219
 21
140.4928899083
 31
0.0
  0
LINE
  5
327
330
321
100
AcDbEntity
  8
VERMASSUNG
100
AcDbLine
 10
130.3747410001
 20
98.4928899083
 30
0.0
 11
78.2122033219
 21
98.4928899083
 31
0.0
  0
LINE
  5
328
330
321
100
AcDbEntity
  8
VERMASSUNG
100
AcDbLine
 10
79.2122033219
 20
140.4928899083
 30
0.0
 11
79.2122033219
 21
98.4928899083
 31
0.0
  0
MTEXT
  5
329
330
321
100
AcDbEntity
  8
VERMASSUNG
100
AcDbMText
 10
76.6340678423
 20
116.1887201852
 30
0.0
 40
2.0
 41
0.0
 71
     1
 72
     1
  1
%%c
  7
SLDTEXTSTYLE0
 11
-7.044195017643634E-15
 21
1.0
 31
0.0
 73
     1
 44
1.0
  0
MTEXT
  5
32A
330
321
100
AcDbEntity
  8
VERMASSUNG
100
AcDbMText
 10
76.6340679587
 20
119.7971873025
 30
0.0
 40
2.0
 41
0.0
 71
     1
 72
     1
  1
42
  7
SLDTEXTSTYLE0
 11
-7.044195017643634E-15
 21
1.0
 31
0.0
 73
     1
 44
1.0
  0
ENDBLK
  5
323
330
321
100
AcDbEntity
  8
0
100
AcDbBlockEnd
  0
BLOCK
  5
32D
330
32C
100
AcDbEntity
  8
0
100
AcDbBlockBegin
  2
*D5
 70
     1
 10
0.0
 20
0.0
 30
0.0
  3
*D5
  1

  0
SOLID
  5
32F
330
32C
100
AcDbEntity
  8
VERMASSUNG
100
AcDbTrace
 10
124.5087155963
 20
150.7164899517
 30
0.0
 11
127.5087155963
 21
150.2664899517
 31
0.0
 12
127.5087155963
 22
151.1664899517
 32
0.0
 13
127.5087155963
 23
151.1664899517
 33
0.0
  0
SOLID
  5
330
330
32C
100
AcDbEntity
  8
VERMASSUNG
100
AcDbTrace
 10
199.5087155963
 20
150.7164899517
 30
0.0
 11
196.5087155963
 21
151.1664899517
 31
0.0
 12
196.5087155963
 22
150.2664899517
 32
0.0
 13
196.5087155963
 23
150.2664899517
 33
0.0
  0
LINE
  5
331
330
32C
100
AcDbEntity
  8
VERMASSUNG
100
AcDbLine
 10
124.5087155963
 20
138.9928899083
 30
0.0
 11
124.5087155963
 21
151.7164899517
 31
0.0
  0
LINE
  5
332
330
32C
100
AcDbEntity
  8
VERMASSUNG
100
AcDbLine
 10
199.5087155963
 20
144.4928899083
 30
0.0
 11
199.5087155963
 21
151.7164899517
 31
0.0
  0
LINE
  5
333
330
32C
100
AcDbEntity
  8
VERMASSUNG
100
AcDbLine
 10
124.5087155963
 20
150.7164899517
 30
0.0
 11
199.5087155963
 21
150.7164899517
 31
0.0
  0
MTEXT
  5
334
330
32C
100
AcDbEntity
  8
VERMASSUNG
100
AcDbMText
 10
160.6087751762
 20
153.2946253148
 30
0.0
 40
2.0
 41
0.0
 71
     1
 72
     1
  1
75
  7
SLDTEXTSTYLE0
 73
     1
 44
1.0
  0
ENDBLK
  5
32E
330
32C
100
AcDbEntity
  8
0
100
AcDbBlockEnd
  0
ENDSEC
  0
SECTION
  2
ENTITIES
  0
MTEXT
  5
49
330
1F
100
AcDbEntity
  8
KOPF_DÜNN
100
AcDbMText
 10
13.8892156294
 20
23.8442973028
 30
0.0
 40
3.0
 41
0.0
 71
     1
 72
     1
  1
D04.040.051.075
  7
SLDTEXTSTYLE0
 73
     1
 44
1.0
  0
MTEXT
  5
4A
330
1F
100
AcDbEntity
  8
VERMASSUNG
100
AcDbMText
 10
13.9329988022
 20
28.8834360957
 30
0.0
 40
3.0
 41
0.0
 71
     1
 72
     1
  1
Zweischneiderkopf_Twin cutter head
  7
SLDTEXTSTYLE0
 73
     1
 44
1.0
  0
MTEXT
  5
4B
330
1F
100
AcDbEntity
  8
VERMASSUNG
100
AcDbMText
 10
98.8601118557
 20
13.8365368179
 30
0.0
 40
2.0
 41
0.0
 71
     1
 72
     1
  1
Datum: 27.02.2008
  7
SLDTEXTSTYLE0
 73
     1
 44
1.0
  0
MTEXT
  5
4C
330
1F
100
AcDbEntity
  8
VERMASSUNG
100
AcDbMText
 10
13.933048693
 20
18.0482802738
 30
0.0
 40
2.0
 41
0.0
 71
     1
 72
     1
  1
Wohlhaupter ø40
  7
SLDTEXTSTYLE0
 73
     1
 44
1.0
  0
MTEXT
  5
4D
330
1F
100
AcDbEntity
  8
VERMASSUNG
100
AcDbMText
 10
13.9808475933
 20
13.9090973692
 30
0.0
 40
2.0
 41
0.0
 71
     1
 72
     1
  1
Gewicht: 666g
  7
SLDTEXTSTYLE0
 73
     1
 44
1.0
  0
LINE
  5
4E
330
1F
100
AcDbEntity
  8
0
  6
PHANTOM
 62
     7
370
     0
100
AcDbLine
 10
180.3023809458
 20
141.1573454413
 30
0.0
 11
180.1542149748
 21
141.2428892824
 31
0.0
  0
LINE
  5
4F
330
1F
100
AcDbEntity
  8
0
  6
PHANTOM
 62
     7
370
     0
100
AcDbLine
 10
175.2632142867
 20
141.2428892824
 30
0.0
 11
175.1178720857
 21
141.1589752558
 31
0.0
  0
LINE
  5
50
330
1F
100
AcDbEntity
  8
0
  6
PHANTOM
 62
     7
370
     0
100
AcDbLine
 10
175.1173691715
 20
98.327094284
 30
0.0
 11
175.2632142867
 21
98.2428896847
 31
0.0
  0
LINE
  5
51
330
1F
100
AcDbEntity
  8
0
  6
PHANTOM
 62
     7
370
     0
100
AcDbLine
 10
180.1542149748
 20
98.2428896847
 30
0.0
 11
180.3028317059
 21
98.3286924335
 31
0.0
  0
LINE
  5
52
330
1F
100
AcDbEntity
  8
0
  6
PHANTOM
 62
     7
370
     0
100
AcDbLine
 10
174.5012210573
 20
141.2428892824
 30
0.0
 11
171.7087173725
 21
141.2428892824
 31
0.0
  0
LINE
  5
53
330
1F
100
AcDbEntity
  8
0
  6
PHANTOM
 62
     7
370
     0
100
AcDbLine
 10
188.0378791953
 20
141.2428892824
 30
0.0
 11
180.9478992487
 21
141.2428892824
 31
0.0
  0
SPLINE
  5
54
330
1F
100
AcDbEntity
  8
0
  6
PHANTOM
 62
     7
370
     0
100
AcDbSpline
210
0.0
220
0.0
230
1.0
 70
     8
 71
     3
 72
    10
 73
     6
 74
     0
 42
0.00000001
 43
0.00000001
 40
0.0
 40
0.0
 40
0.0
 40
0.0
 40
0.1790171756814224
 40
0.7047827519005087
 40
1.0
 40
1.0
 40
1.0
 40
1.0
 10
174.721624132526
 20
122.0512837778059
 30
0.0
 10
174.760644291323
 20
122.0758289464941
 30
0.0
 10
174.9142649413634
 20
122.1724621967287
 30
0.0
 10
175.1514715980487
 20
122.2291100677451
 30
0.0
 10
175.3448935602012
 20
122.2392453476362
 30
0.0
 10
175.4144461716533
 20
122.2428898933557
 30
0.0
  0
SPLINE
  5
55
330
1F
100
AcDbEntity
  8
0
  6
PHANTOM
 62
     7
370
     0
100
AcDbSpline
210
0.0
220
0.0
230
1.0
 70
     8
 71
     3
 72
    13
 73
     9
 74
     0
 42
0.00000001
 43
0.00000001
 40
0.0
 40
0.0
 40
0.0
 40
0.0
 40
0.09236966361589
 40
0.2803709712565213
 40
0.4708125737985979
 40
0.665367352577325
 40
0.8657904128583349
 40
1.0
 40
1.0
 40
1.0
 40
1.0
 10
173.7351374591709
 20
120.2428899147761
 30
0.0
 10
173.7371953038546
 20
120.3161765305936
 30
0.0
 10
173.743441509482
 20
120.5386244518322
 30
0.0
 10
173.8161067991113
 20
120.9046553485023
 30
0.0
 10
173.978551004153
 20
121.3103451836296
 30
0.0
 10
174.2131855597011
 20
121.6585582504528
 30
0.0
 10
174.4668217560028
 20
121.9145199608571
 30
0.0
 10
174.6486850514561
 20
122.0121341149653
 30
0.0
 10
174.721624132526
 20
122.0512837778059
 30
0.0
  0
SPLINE
  5
56
330
1F
100
AcDbEntity
  8
0
  6
PHANTOM
 62
     7
370
     0
100
AcDbSpline
210
0.0
220
0.0
230
1.0
 70
     8
 71
     3
 72
    17
 73
    13
 74
     0
 42
0.00000001
 43
0.00000001
 40
0.0
 40
0.0
 40
0.0
 40
0.0
 40
0.0516557863401042
 40
0.1707674764688276
 40
0.2894168587893715
 40
0.4071561483957991
 40
0.5239046825515873
 40
0.6397313781481291
 40
0.7547325065748948
 40
0.8689977529255307
 40
0.9826055214425793
 40
1.0
 40
1.0
 40
1.0
 40
1.0
 10
170.872277941835
 20
100.4626337114004
 30
0.0
 10
170.9337850987473
 20
100.5400107600358
 30
0.0
 10
171.1371199565607
 20
100.7958094665946
 30
0.0
 10
171.4655787085681
 20
101.3043248096338
 30
0.0
 10
171.8512404628309
 20
102.0215930085183
 30
0.0
 10
172.215290668083
 20
102.833049315126
 30
0.0
 10
172.5578350523942
 20
103.7306514266913
 30
0.0
 10
172.8782758556269
 20
104.710112878634
 30
0.0
 10
173.1762706763129
 20
105.7658658467645
 30
0.0
 10
173.4505406573494
 20
106.894148575319
 30
0.0
 10
173.631755066715
 20
107.750222130092
 30
0.0
 10
173.7219242704925
 20
108.2256864166498
 30
0.0
 10
173.7338969375015
 20
108.2888185653118
 30
0.0
  0
LINE
  5
57
330
1F
100
AcDbEntity
  8
0
  6
PHANTOM
 62
     7
370
     0
100
AcDbLine
 10
173.7351374592
 20
108.2986263233
 30
0.0
 11
173.7351374592
 21
120.2428899148
 31
0.0
  0
LINE
  5
58
330
1F
100
AcDbEntity
  8
0
  6
PHANTOM
 62
     7
370
     0
100
AcDbLine
 10
180.9478992487
 20
98.2428896847
 30
0.0
 11
188.0378791953
 21
98.2428896847
 31
0.0
  0
LINE
  5
59
330
1F
100
AcDbEntity
  8
0
  6
PHANTOM
 62
     7
370
     0
100
AcDbLine
 10
171.7087173725
 20
98.2428896847
 30
0.0
 11
174.5012210573
 21
98.2428896847
 31
0.0
  0
LINE
  5
5A
330
1F
100
AcDbEntity
  8
0
  6
Continuous
 62
     7
370
    15
100
AcDbLine
 10
180.5087173249
 20
121.9928898524
 30
0.0
 11
174.6232094134
 21
121.9928898524
 31
0.0
  0
LINE
  5
5B
330
1F
100
AcDbEntity
  8
0
  6
Continuous
 62
     7
370
    15
100
AcDbLine
 10
180.7087169851
 20
121.7928899593
 30
0.0
 11
180.5087173249
 21
121.9928898524
 31
0.0
  0
LINE
  5
5C
330
1F
100
AcDbEntity
  8
0
  6
Continuous
 62
     7
370
    15
100
AcDbLine
 10
162.3564207817
 20
118.4928898608
 30
0.0
 11
162.4987715746
 21
118.4928898608
 31
0.0
  0
LINE
  5
5D
330
1F
100
AcDbEntity
  8
0
  6
Continuous
 62
     7
370
    15
100
AcDbLine
 10
162.4987715746
 20
132.4928901765
 30
0.0
 11
162.3564207817
 21
132.4928901765
 31
0.0
  0
LINE
  5
5E
330
1F
100
AcDbEntity
  8
0
  6
Continuous
 62
     7
370
    15
100
AcDbLine
 10
162.5971229638
 20
132.4928901765
 30
0.0
 11
162.4987715746
 21
132.4928901765
 31
0.0
  0
LINE
  5
5F
330
1F
100
AcDbEntity
  8
0
  6
Continuous
 62
     7
370
    15
100
AcDbLine
 10
162.4987715746
 20
118.4928898608
 30
0.0
 11
162.5971229638
 21
118.4928898608
 31
0.0
  0
LINE
  5
60
330
1F
100
AcDbEntity
  8
0
  6
Continuous
 62
     7
370
    15
100
AcDbLine
 10
170.8709442879
 20
140.4928896251
 30
0.0
 11
169.1441083218
 21
140.4928896251
 31
0.0
  0
LINE
  5
61
330
1F
100
AcDbEntity
  8
0
  6
Continuous
 62
     7
370
    15
100
AcDbLine
 10
168.4053609039
 20
140.4928896251
 30
0.0
 11
130.3747411708
 21
140.4928896251
 31
0.0
  0
LINE
  5
62
330
1F
100
AcDbEntity
  8
0
  6
Continuous
 62
     7
370
    15
100
AcDbLine
 10
130.3747411708
 20
98.4928901914
 30
0.0
 11
171.4087160195
 21
98.4928901914
 31
0.0
  0
ARC
  5
63
330
1F
100
AcDbEntity
  8
0
  6
Continuous
 62
     7
370
    15
100
AcDbCircle
 10
130.3747410001
 20
139.4928899083
 30
0.0
 40
1.000000000000008
100
AcDbArc
 50
90.0
 51
150.0
  0
ARC
  5
64
330
1F
100
AcDbEntity
  8
0
  6
Continuous
 62
     7
370
    15
100
AcDbCircle
 10
130.3747410001
 20
99.4928899083
 30
0.0
 40
1.000000000000008
100
AcDbArc
 50
210.0
 51
270.0
  0
ARC
  5
65
330
1F
100
AcDbEntity
  8
0
  6
Continuous
 62
     7
370
    15
100
AcDbCircle
 10
128.6426901925
 20
140.4928899083
 30
0.0
 40
1.0
100
AcDbArc
 50
270.0
 51
330.0
  0
ARC
  5
66
330
1F
100
AcDbEntity
  8
0
  6
Continuous
 62
     7
370
    15
100
AcDbCircle
 10
128.6426901925
 20
98.4928899083
 30
0.0
 40
1.0
100
AcDbArc
 50
30.0
 51
90.0
  0
LINE
  5
67
330
1F
100
AcDbEntity
  8
0
  6
Continuous
 62
     7
370
    15
100
AcDbLine
 10
125.0087156201
 20
99.4928903553
 30
0.0
 11
128.642690264
 21
99.4928903553
 31
0.0
  0
LINE
  5
68
330
1F
100
AcDbEntity
  8
0
  6
Continuous
 62
     7
370
    15
100
AcDbLine
 10
128.642690264
 20
139.4928894612
 30
0.0
 11
125.0087156201
 21
139.4928894612
 31
0.0
  0
ARC
  5
69
330
1F
100
AcDbEntity
  8
0
  6
Continuous
 62
     7
370
    15
100
AcDbCircle
 10
125.0087155963
 20
99.9928899083
 30
0.0
 40
0.5
100
AcDbArc
 50
180.0
 51
270.0
  0
ARC
  5
6A
330
1F
100
AcDbEntity
  8
0
  6
Continuous
 62
     7
370
    15
100
AcDbCircle
 10
125.0087155963
 20
138.9928899083
 30
0.0
 40
0.5000000000000284
100
AcDbArc
 50
90.0
 51
180.0
  0
ARC
  5
6B
330
1F
100
AcDbEntity
  8
0
  6
Continuous
 62
     7
370
    15
100
AcDbCircle
 10
124.1087155963
 20
108.2428899083
 30
0.0
 40
0.6000000000000054
100
AcDbArc
 50
48.1896851042
 51
90.0
  0
ARC
  5
6C
330
1F
100
AcDbEntity
  8
0
  6
Continuous
 62
     7
370
    15
100
AcDbCircle
 10
124.1087155963
 20
130.7428899083
 30
0.0
 40
0.6000000000000227
100
AcDbArc
 50
270.0
 51
311.8103148958
  0
LINE
  5
6D
330
1F
100
AcDbEntity
  8
0
  6
Continuous
 62
     7
370
    15
100
AcDbLine
 10
102.5087157155
 20
108.4928899679
 30
0.0
 11
122.0087156522
 21
108.4928899679
 31
0.0
  0
LINE
  5
6E
330
1F
100
AcDbEntity
  8
0
  6
Continuous
 62
     7
370
    15
100
AcDbLine
 10
106.7690228934
 20
130.4928898487
 30
0.0
 11
102.5087157155
 21
130.4928898487
 31
0.0
  0
LINE
  5
6F
330
1F
100
AcDbEntity
  8
0
  6
Continuous
 62
     7
370
    15
100
AcDbLine
 10
122.0087156522
 20
130.4928898487
 30
0.0
 11
118.7420798357
 21
130.4928898487
 31
0.0
  0
LINE
  5
70
330
1F
100
AcDbEntity
  8
0
  6
Continuous
 62
     7
370
    15
100
AcDbLine
 10
122.0087156522
 20
108.4928899679
 30
0.0
 11
123.2386333992
 21
108.8224449801
 31
0.0
  0
LINE
  5
71
330
1F
100
AcDbEntity
  8
0
  6
Continuous
 62
     7
370
    15
100
AcDbLine
 10
123.2386333992
 20
130.1633348364
 30
0.0
 11
122.0087156522
 21
130.4928898487
 31
0.0
  0
LINE
  5
72
330
1F
100
AcDbEntity
  8
0
  6
Continuous
 62
     7
370
    15
100
AcDbLine
 10
102.5087157155
 20
130.4928898487
 30
0.0
 11
99.0098485614
 21
130.0979382965
 31
0.0
  0
LINE
  5
73
330
1F
100
AcDbEntity
  8
0
  6
Continuous
 62
     7
370
    15
100
AcDbLine
 10
99.0098485614
 20
108.88784152
 30
0.0
 11
102.5087157155
 21
108.4928899679
 31
0.0
  0
ARC
  5
74
330
1F
100
AcDbEntity
  8
0
  6
Continuous
 62
     7
370
    15
100
AcDbCircle
 10
97.7087155963
 20
109.7028899083
 30
0.0
 40
1.200000000000003
100
AcDbArc
 50
180.0
 51
300.0
  0
ARC
  5
75
330
1F
100
AcDbEntity
  8
0
  6
Continuous
 62
     7
370
    15
100
AcDbCircle
 10
97.7087155963
 20
129.2828899083
 30
0.0
 40
1.200000000000003
100
AcDbArc
 50
60.0
 51
180.0
  0
LINE
  5
76
330
1F
100
AcDbEntity
  8
0
  6
Continuous
 62
     7
370
    15
100
AcDbLine
 10
98.3087153996
 20
108.6636591378
 30
0.0
 11
98.5201144482
 21
108.7857098925
 31
0.0
  0
LINE
  5
77
330
1F
100
AcDbEntity
  8
0
  6
Continuous
 62
     7
370
    15
100
AcDbLine
 10
98.5201144482
 20
130.200069924
 30
0.0
 11
98.3087153996
 21
130.3221206787
 31
0.0
  0
ARC
  5
78
330
1F
100
AcDbEntity
  8
0
  6
Continuous
 62
     7
370
    15
100
AcDbCircle
 10
98.9201137961
 20
108.0928899083
 30
0.0
 40
0.7999999999999996
100
AcDbArc
 50
83.5597259642
 51
120.0
  0
ARC
  5
79
330
1F
100
AcDbEntity
  8
0
  6
Continuous
 62
     7
370
    15
100
AcDbCircle
 10
98.9201137961
 20
130.8928899083
 30
0.0
 40
0.7999999999999996
100
AcDbArc
 50
240.0
 51
276.4402740358
  0
ARC
  5
7A
330
1F
100
AcDbEntity
  8
0
  6
Continuous
 62
     7
370
    15
100
AcDbCircle
 10
123.3939248775
 20
108.2428899083
 30
0.0
 40
0.5999999999999943
100
AcDbArc
 50
90.0
 51
105.0
  0
ARC
  5
7B
330
1F
100
AcDbEntity
  8
0
  6
Continuous
 62
     7
370
    15
100
AcDbCircle
 10
123.3939248775
 20
130.7428899083
 30
0.0
 40
0.6000000000000227
100
AcDbArc
 50
255.0
 51
270.0
  0
LINE
  5
7C
330
1F
100
AcDbEntity
  8
0
  6
Continuous
 62
     7
370
    15
100
AcDbLine
 10
123.3939249192
 20
108.8428903046
 30
0.0
 11
124.1087156064
 21
108.8428903046
 31
0.0
  0
LINE
  5
7D
330
1F
100
AcDbEntity
  8
0
  6
Continuous
 62
     7
370
    15
100
AcDbLine
 10
124.1087156064
 20
130.1428895119
 30
0.0
 11
123.3939249192
 21
130.1428895119
 31
0.0
  0
LINE
  5
7E
330
1F
100
AcDbEntity
  8
0
  6
Continuous
 62
     7
370
    15
100
AcDbLine
 10
171.4087160195
 20
98.4928901914
 30
0.0
 11
171.7087173725
 21
98.7928896818
 31
0.0
  0
LINE
  5
7F
330
1F
100
AcDbEntity
  8
0
  6
PHANTOM
 62
     7
370
     0
100
AcDbLine
 10
193.6959171559
 20
137.8518432054
 30
0.0
 11
193.6959171559
 21
137.8985322687
 31
0.0
  0
LINE
  5
80
330
1F
100
AcDbEntity
  8
0
  6
PHANTOM
 62
     7
370
     0
100
AcDbLine
 10
195.6298494603
 20
137.9014156434
 30
0.0
 11
195.6298494603
 21
137.854737756
 31
0.0
  0
LINE
  5
81
330
1F
100
AcDbEntity
  8
0
  6
PHANTOM
 62
     7
370
     0
100
AcDbLine
 10
193.6942482258
 20
139.644248006
 30
0.0
 11
193.6942482258
 21
139.6909352067
 31
0.0
  0
LINE
  5
82
330
1F
100
AcDbEntity
  8
0
  6
PHANTOM
 62
     7
370
     0
100
AcDbLine
 10
195.6281730796
 20
139.6938018176
 30
0.0
 11
195.6281730796
 21
139.6471425566
 31
0.0
  0
LINE
  5
83
330
1F
100
AcDbEntity
  8
0
  6
PHANTOM
 62
     7
370
     0
100
AcDbLine
 10
192.0392060543
 20
138.7899905118
 30
0.0
 11
192.0392060543
 21
138.7647032413
 31
0.0
  0
LINE
  5
84
330
1F
100
AcDbEntity
  8
0
  6
PHANTOM
 62
     7
370
     0
100
AcDbLine
 10
197.2892055179
 20
138.7647032413
 30
0.0
 11
197.2892055179
 21
138.7899905118
 31
0.0
  0
LINE
  5
85
330
1F
100
AcDbEntity
  8
0
  6
PHANTOM
 62
     7
370
     0
100
AcDbLine
 10
178.7046374644
 20
141.2428892824
 30
0.0
 11
180.1542149748
 21
141.2428892824
 31
0.0
  0
LINE
  5
86
330
1F
100
AcDbEntity
  8
0
  6
PHANTOM
 62
     7
370
     0
100
AcDbLine
 10
175.2632142867
 20
141.2428892824
 30
0.0
 11
178.7046374644
 21
141.2428892824
 31
0.0
  0
LINE
  5
87
330
1F
100
AcDbEntity
  8
0
  6
PHANTOM
 62
     7
370
     0
100
AcDbLine
 10
177.4813638891
 20
98.2428896847
 30
0.0
 11
175.2632142867
 21
98.2428896847
 31
0.0
  0
LINE
  5
88
330
1F
100
AcDbEntity
  8
0
  6
PHANTOM
 62
     7
370
     0
100
AcDbLine
 10
180.1542149748
 20
98.2428896847
 30
0.0
 11
177.4813638891
 21
98.2428896847
 31
0.0
  0
LINE
  5
89
330
1F
100
AcDbEntity
  8
0
  6
PHANTOM
 62
     7
370
     0
100
AcDbLine
 10
168.738331076
 20
132.4326401252
 30
0.0
 11
173.2325250174
 21
132.4326401252
 31
0.0
  0
SPLINE
  5
8A
330
1F
100
AcDbEntity
  8
0
  6
PHANTOM
 62
     7
370
     0
100
AcDbSpline
210
0.0
220
0.0
230
1.0
 70
     8
 71
     3
 72
    17
 73
    13
 74
     0
 42
0.00000001
 43
0.00000001
 40
0.0
 40
0.0
 40
0.0
 40
0.0
 40
0.1099682587149141
 40
0.2084690588321691
 40
0.3068429694961439
 40
0.3918855926208334
 40
0.4769590104043546
 40
0.5550239152599229
 40
0.6331524102464918
 40
0.7552497592520294
 40
0.8775282757478244
 40
1.0
 40
1.0
 40
1.0
 40
1.0
 10
157.8429633642555
 20
132.4326401251581
 30
0.0
 10
158.1367412756395
 20
132.7163726075952
 30
0.0
 10
158.6936620217494
 20
133.2542500302715
 30
0.0
 10
159.7214505670571
 20
133.8490283917583
 30
0.0
 10
160.7763363193425
 20
134.2468275680012
 30
0.0
 10
161.8636165061085
 20
134.4563562911565
 30
0.0
 10
162.8983947221298
 20
134.5140195856027
 30
0.0
 10
163.9012421291306
 20
134.4439433946236
 30
0.0
 10
165.0304320518688
 20
134.2448436863018
 30
0.0
 10
166.2737806063343
 20
133.8536632009262
 30
0.0
 10
167.5844125595007
 20
133.2416103602814
 30
0.0
 10
168.3534891988186
 20
132.7024387456306
 30
0.0
 10
168.738331076038
 20
132.4326401251581
 30
0.0
  0
LINE
  5
8B
330
1F
100
AcDbEntity
  8
0
  6
PHANTOM
 62
     7
370
     0
100
AcDbLine
 10
150.4087163026
 20
132.4326401252
 30
0.0
 11
157.8429633643
 21
132.4326401252
 31
0.0
  0
ARC
  5
8C
330
1F
100
AcDbEntity
  8
0
  6
PHANTOM
 62
     7
370
     0
100
AcDbCircle
 10
133.3087155963
 20
120.2428899083
 30
0.0
 40
21.00000000000001
100
AcDbArc
 50
35.4832039553
 51
39.9445051898
  0
LINE
  5
8D
330
1F
100
AcDbEntity
  8
0
  6
PHANTOM
 62
     7
370
     0
100
AcDbLine
 10
149.4087161387
 20
137.4438643131
 30
0.0
 11
149.4087161387
 21
133.725842056
 31
0.0
  0
ELLIPSE
  5
8E
330
1F
100
AcDbEntity
  8
0
  6
PHANTOM
 62
     7
370
     0
100
AcDbEllipse
 10
152.6366577285
 20
120.2428899083
 30
0.0
 11
0.0
 21
21.0
 31
0.0
210
0.0
220
0.0
230
1.0
 40
0.2679491924
 41
0.5183337037001674
 42
0.6109663264319911
  0
ELLIPSE
  5
8F
330
1F
100
AcDbEntity
  8
0
  6
PHANTOM
 62
     7
370
     0
100
AcDbEllipse
 10
188.677522543
 20
120.2428899083
 30
0.0
 11
78.37306695895452
 21
2.842170943040401E-14
 31
0.0
210
0.0
220
0.0
230
1.0
 40
0.2679491924
 41
2.082644823964641
 42
2.08913003049506
  0
ARC
  5
90
330
1F
100
AcDbEntity
  8
0
  6
PHANTOM
 62
     7
370
     0
100
AcDbCircle
 10
140.0056201071
 20
120.2428899083
 30
0.0
 40
21.00000000000032
100
AcDbArc
 50
56.2643390314
 51
60.6732413621
  0
SPLINE
  5
91
330
1F
100
AcDbEntity
  8
0
  6
PHANTOM
 62
     7
370
     0
100
AcDbSpline
210
0.0
220
0.0
230
1.0
 70
     8
 71
     3
 72
    14
 73
    10
 74
     0
 42
0.00000001
 43
0.00000001
 40
0.0
 40
0.0
 40
0.0
 40
0.0
 40
0.2290230645674181
 40
0.3879782166496654
 40
0.5478528118571456
 40
0.6853710732099284
 40
0.8113620270684833
 40
0.9421125890941315
 40
1.0
 40
1.0
 40
1.0
 40
1.0
 10
152.0011586959482
 20
137.7659175220159
 30
0.0
 10
151.9902762302503
 20
137.7479688638759
 30
0.0
 10
151.9718407087355
 20
137.7175628067847
 30
0.0
 10
151.9135734206688
 20
137.6847142242954
 30
0.0
 10
151.8514000046734
 20
137.6681219963102
 30
0.0
 10
151.7874260863508
 20
137.6664088717316
 30
0.0
 10
151.7311266740241
 20
137.6764311243125
 30
0.0
 10
151.6924490353749
 20
137.6915817163536
 30
0.0
 10
151.6739122919708
 20
137.7031274585426
 30
0.0
 10
151.6682239140392
 20
137.7066705051091
 30
0.0
  0
ELLIPSE
  5
92
330
1F
100
AcDbEntity
  8
0
  6
PHANTOM
 62
     7
370
     0
100
AcDbEllipse
 10
155.102240277
 20
120.2428899083
 30
0.0
 11
0.0
 21
21.0
 31
0.0
210
0.0
220
0.0
230
1.0
 40
0.2679491924
 41
0.4797308618288071
 42
0.5836987764046146
  0
ELLIPSE
  5
93
330
1F
100
AcDbEntity
  8
0
  6
PHANTOM
 62
     7
370
     0
100
AcDbEllipse
 10
188.677522543
 20
120.2428899083
 30
0.0
 11
78.37306695894794
 21
2.842170943040400E-14
 31
0.0
210
0.0
220
0.0
230
1.0
 40
0.2679491924
 41
2.044175780755772
 42
2.050527188623703
  0
ARC
  5
94
330
1F
100
AcDbEntity
  8
0
  6
PHANTOM
 62
     7
370
     0
100
AcDbCircle
 10
143.3736685034
 20
120.2428899083
 30
0.0
 40
20.99999999999813
100
AcDbArc
 50
58.569148525
 51
62.8773551798
  0
SPLINE
  5
95
330
1F
100
AcDbEntity
  8
0
  6
PHANTOM
 62
     7
370
     0
100
AcDbSpline
210
0.0
220
0.0
230
1.0
 70
     8
 71
     3
 72
    14
 73
    10
 74
     0
 42
0.00000001
 43
0.00000001
 40
0.0
 40
0.0
 40
0.0
 40
0.0
 40
0.1897861155795239
 40
0.3804622863418161
 40
0.5206577048696933
 40
0.6612461494654163
 40
0.7922540237748152
 40
0.9253183445260905
 40
1.0
 40
1.0
 40
1.0
 40
1.0
 10
154.6574545915247
 20
138.2157779905227
 30
0.0
 10
154.6487699350445
 20
138.2019940477348
 30
0.0
 10
154.6313598929536
 20
138.1743615184958
 30
0.0
 10
154.5775876581071
 20
138.1442357655458
 30
0.0
 10
154.5151843933759
 20
138.1276980768447
 30
0.0
 10
154.4538830972787
 20
138.1241138676162
 30
0.0
 10
154.3955936908294
 20
138.131824924423
 30
0.0
 10
154.3527244324075
 20
138.1457942699043
 30
0.0
 10
154.3319792599056
 20
138.1573925612101
 30
0.0
 10
154.3245216722608
 20
138.161561978164
 30
0.0
  0
ELLIPSE
  5
96
330
1F
100
AcDbEntity
  8
0
  6
PHANTOM
 62
     7
370
     0
100
AcDbEllipse
 10
157.5678228254
 20
120.2428899083
 30
0.0
 11
0.0
 21
20.99999999999999
 31
0.0
210
0.0
220
0.0
230
1.0
 40
0.2679491924
 41
0.4418886509072467
 42
0.5436008114491675
  0
ELLIPSE
  5
97
330
1F
100
AcDbEntity
  8
0
  6
PHANTOM
 62
     7
370
     0
100
AcDbEllipse
 10
188.677522543
 20
120.2428899083
 30
0.0
 11
78.37306695894794
 21
2.842170943040400E-14
 31
0.0
210
0.0
220
0.0
230
1.0
 40
0.2679491924
 41
2.006450694198581
 42
2.012684977702141
  0
ARC
  5
98
330
1F
100
AcDbEntity
  8
0
  6
PHANTOM
 62
     7
370
     0
100
AcDbCircle
 10
146.7417168997
 20
120.2428899083
 30
0.0
 40
20.9999999999985
100
AcDbArc
 50
60.818604381
 51
65.0388434213
  0
SPLINE
  5
99
330
1F
100
AcDbEntity
  8
0
  6
PHANTOM
 62
     7
370
     0
100
AcDbSpline
210
0.0
220
0.0
230
1.0
 70
     8
 71
     3
 72
    14
 73
    10
 74
     0
 42
0.00000001
 43
0.00000001
 40
0.0
 40
0.0
 40
0.0
 40
0.0
 40
0.1849496664577067
 40
0.3706148317424838
 40
0.5364714959543306
 40
0.6805803700810479
 40
0.8152329777616117
 40
0.9533708731400671
 40
1.0
 40
1.0
 40
1.0
 40
1.0
 10
157.313748624456
 20
138.6271152320531
 30
0.0
 10
157.3052002276653
 20
138.6146943976295
 30
0.0
 10
157.2880703636384
 20
138.5898046773712
 30
0.0
 10
157.2331566534669
 20
138.5611726117044
 30
0.0
 10
157.1669659574563
 20
138.5456148046549
 30
0.0
 10
157.1011174607077
 20
138.5437122397665
 30
0.0
 10
157.0423695046344
 20
138.5524389535995
 30
0.0
 10
157.0035871490418
 20
138.5655763664265
 30
0.0
 10
156.98540442695
 20
138.5751611599319
 30
0.0
 10
156.9808157051922
 20
138.5775800469545
 30
0.0
  0
ELLIPSE
  5
9A
330
1F
100
AcDbEntity
  8
0
  6
PHANTOM
 62
     7
370
     0
100
AcDbEllipse
 10
160.0334053739
 20
120.2428899083
 30
0.0
 11
0.0
 21
20.99999999999999
 31
0.0
210
0.0
220
0.0
230
1.0
 40
0.2679491924
 41
0.4047124913983704
 42
0.5044524076078639
  0
ELLIPSE
  5
9B
330
1F
100
AcDbEntity
  8
0
  6
PHANTOM
 62
     7
370
     0
100
AcDbEllipse
 10
188.6775225431
 20
120.2428899083
 30
0.0
 11
78.37306695930684
 21
2.842170943040401E-14
 31
0.0
210
0.0
220
0.0
230
1.0
 40
0.2679491924
 41
1.969377111917273
 42
1.975508818193256
  0
ARC
  5
9C
330
1F
100
AcDbEntity
  8
0
  6
PHANTOM
 62
     7
370
     0
100
AcDbCircle
 10
150.109765296
 20
120.2428899083
 30
0.0
 40
21.00000000000023
100
AcDbArc
 50
63.019757835
 51
67.1630032175
  0
SPLINE
  5
9D
330
1F
100
AcDbEntity
  8
0
  6
PHANTOM
 62
     7
370
     0
100
AcDbSpline
210
0.0
220
0.0
230
1.0
 70
     8
 71
     3
 72
    14
 73
    10
 74
     0
 42
0.00000001
 43
0.00000001
 40
0.0
 40
0.0
 40
0.0
 40
0.0
 40
0.180786442598748
 40
0.3621517734308085
 40
0.5275475430331201
 40
0.6745683721386878
 40
0.8130521749620823
 40
0.954213162843705
 40
1.0
 40
1.0
 40
1.0
 40
1.0
 10
159.9700445200325
 20
139.0024624440101
 30
0.0
 10
159.9616167219447
 20
138.9912734845742
 30
0.0
 10
159.9447341394914
 20
138.9688597380326
 30
0.0
 10
159.8909821168952
 20
138.9429719326
 30
0.0
 10
159.8258151512853
 20
138.9284800815412
 30
0.0
 10
159.7596171141363
 20
138.9262724405731
 30
0.0
 10
159.699656345953
 20
138.9341099862324
 30
0.0
 10
159.6600879733388
 20
138.9462649939715
 30
0.0
 10
159.6416318360417
 20
138.9551401139812
 30
0.0
 10
159.6371116007687
 20
138.9573137882379
 30
0.0
  0
ELLIPSE
  5
9E
330
1F
100
AcDbEntity
  8
0
  6
PHANTOM
 62
     7
370
     0
100
AcDbEllipse
 10
162.4989879223
 20
120.2428899083
 30
0.0
 11
0.0
 21
20.99999999999999
 31
0.0
210
0.0
220
0.0
230
1.0
 40
0.2679491924
 41
0.3681194700046148
 42
0.4661329389801146
  0
ELLIPSE
  5
9F
330
1F
100
AcDbEntity
  8
0
  6
PHANTOM
 62
     7
370
     0
100
AcDbEllipse
 10
188.6775225431
 20
120.2428899083
 30
0.0
 11
78.37306695933572
 21
2.842170943040401E-14
 31
0.0
210
0.0
220
0.0
230
1.0
 40
0.2679491924
 41
1.932873826359752
 42
1.938915796799489
  0
ARC
  5
A0
330
1F
100
AcDbEntity
  8
0
  6
PHANTOM
 62
     7
370
     0
100
AcDbCircle
 10
153.4778136924
 20
120.2428899083
 30
0.0
 40
21.00000000000021
100
AcDbArc
 50
65.1786542876
 51
69.2544874183
  0
SPLINE
  5
A1
330
1F
100
AcDbEntity
  8
0
  6
PHANTOM
 62
     7
370
     0
100
AcDbSpline
210
0.0
220
0.0
230
1.0
 70
     8
 71
     3
 72
    14
 73
    10
 74
     0
 42
0.00000001
 43
0.00000001
 40
0.0
 40
0.0
 40
0.0
 40
0.0
 40
0.1772454403322961
 40
0.3549539484259595
 40
0.519845033183319
 40
0.6693428785805107
 40
0.8113030223983809
 40
0.9553023410378515
 40
1.0
 40
1.0
 40
1.0
 40
1.0
 10
162.6263441408993
 20
139.3439411792186
 30
0.0
 10
162.61801348439
 20
139.3338802826491
 30
0.0
 10
162.601330406871
 20
139.3137322046204
 30
0.0
 10
162.5485562851883
 20
139.2903751728359
 30
0.0
 10
162.4842464086005
 20
139.2769876752026
 30
0.0
 10
162.4177689097186
 20
139.2746100279963
 30
0.0
 10
162.3567409076475
 20
139.2816384314981
 30
0.0
 10
162.3165065597694
 20
139.2928324751246
 30
0.0
 10
162.2978312229332
 20
139.3009987860197
 30
0.0
 10
162.2934074963451
 20
139.3029331836131
 30
0.0
  0
ELLIPSE
  5
A2
330
1F
100
AcDbEntity
  8
0
  6
PHANTOM
 62
     7
370
     0
100
AcDbEllipse
 10
164.9645704708
 20
120.2428899083
 30
0.0
 11
0.0
 21
20.99999999999999
 31
0.0
210
0.0
220
0.0
230
1.0
 40
0.2679491924
 41
0.3320360594594383
 42
0.4285388125622933
  0
ELLIPSE
  5
A3
330
1F
100
AcDbEntity
  8
0
  6
PHANTOM
 62
     7
370
     0
100
AcDbEllipse
 10
188.6775225431
 20
120.2428899083
 30
0.0
 11
78.37306695936564
 21
2.842170943040401E-14
 31
0.0
210
0.0
220
0.0
230
1.0
 40
0.2679491924
 41
1.896868688822121
 42
1.902832386254306
  0
ARC
  5
A4
330
1F
100
AcDbEntity
  8
0
  6
PHANTOM
 62
     7
370
     0
100
AcDbCircle
 10
156.8458620887
 20
120.2428899083
 30
0.0
 40
21.00000000000017
100
AcDbArc
 50
67.3005443017
 51
71.31742984
  0
SPLINE
  5
A5
330
1F
100
AcDbEntity
  8
0
  6
PHANTOM
 62
     7
370
     0
100
AcDbSpline
210
0.0
220
0.0
230
1.0
 70
     8
 71
     3
 72
    14
 73
    10
 74
     0
 42
0.00000001
 43
0.00000001
 40
0.0
 40
0.0
 40
0.0
 40
0.0
 40
0.1742242833040851
 40
0.3488221383220811
 40
0.5131837503926696
 40
0.6648083951208271
 40
0.8098941380970431
 40
0.9565315677263416
 40
0.9999999999999999
 40
0.9999999999999999
 40
0.9999999999999999
 40
0.9999999999999999
 10
165.2826400364757
 20
139.6533414396671
 30
0.0
 10
165.2743926339348
 20
139.6443215264775
 30
0.0
 10
165.2578801447721
 20
139.6262623596001
 30
0.0
 10
165.2059206581886
 20
139.6052695989465
 30
0.0
 10
165.1423378861139
 20
139.5929962102485
 30
0.0
 10
165.0756327346089
 20
139.5905589855454
 30
0.0
 10
165.013666898681
 20
139.5968443326616
 30
0.0
 10
164.9728696085726
 20
139.6070947359842
 30
0.0
 10
164.9540146502434
 20
139.6145603169754
 30
0.0
 10
164.9497033919216
 20
139.6162673506168
 30
0.0
  0
ELLIPSE
  5
A6
330
1F
100
AcDbEntity
  8
0
  6
PHANTOM
 62
     7
370
     0
100
AcDbEllipse
 10
167.4301530193
 20
120.2428899083
 30
0.0
 11
0.0
 21
20.99999999999999
 31
0.0
210
0.0
220
0.0
230
1.0
 40
0.2679491924
 41
0.2963963361446486
 42
0.391579915691066
  0
ELLIPSE
  5
A7
330
1F
100
AcDbEntity
  8
0
  6
PHANTOM
 62
     7
370
     0
100
AcDbEllipse
 10
188.6775225431
 20
120.2428899083
 30
0.0
 11
78.3730669593956
 21
2.842170943040401E-14
 31
0.0
210
0.0
220
0.0
230
1.0
 40
0.2679491924
 41
1.86129689588906
 42
1.867192662939517
  0
ARC
  5
A8
330
1F
100
AcDbEntity
  8
0
  6
PHANTOM
 62
     7
370
     0
100
AcDbCircle
 10
160.213910485
 20
120.2428899083
 30
0.0
 40
21.00000000000012
100
AcDbArc
 50
69.3900433465
 51
73.3555434448
  0
SPLINE
  5
A9
330
1F
100
AcDbEntity
  8
0
  6
PHANTOM
 62
     7
370
     0
100
AcDbSpline
210
0.0
220
0.0
230
1.0
 70
     8
 71
     3
 72
    14
 73
    10
 74
     0
 42
0.00000001
 43
0.00000001
 40
0.0
 40
0.0
 40
0.0
 40
0.0
 40
0.1716467002694194
 40
0.3435865171084853
 40
0.5074365459932678
 40
0.6608753267779574
 40
0.8087761752545625
 40
0.9578365948900984
 40
1.0
 40
1.0
 40
1.0
 40
1.0
 10
167.9389359320522
 20
139.9321738305715
 30
0.0
 10
167.930756141765
 20
139.9241266250056
 30
0.0
 10
167.914382592777
 20
139.9080184718719
 30
0.0
 10
167.863112916487
 20
139.8892430899947
 30
0.0
 10
167.8001445058214
 20
139.8780861591619
 30
0.0
 10
167.7332502793908
 20
139.8756756581744
 30
0.0
 10
167.6704605170421
 20
139.8812730565419
 30
0.0
 10
167.6291849628496
 20
139.8905888404859
 30
0.0
 10
167.6101879786411
 20
139.8973630376232
 30
0.0
 10
167.6059992874981
 20
139.8988566967872
 30
0.0
  0
ELLIPSE
  5
AA
330
1F
100
AcDbEntity
  8
0
  6
PHANTOM
 62
     7
370
     0
100
AcDbEllipse
 10
169.8957355677
 20
120.2428899083
 30
0.0
 11
0.0
 21
20.99999999999999
 31
0.0
210
0.0
220
0.0
230
1.0
 40
0.2679491924
 41
0.2611405634001852
 42
0.3551769199439735
  0
ELLIPSE
  5
AB
330
1F
100
AcDbEntity
  8
0
  6
PHANTOM
 62
     7
370
     0
100
AcDbEllipse
 10
188.6775225431
 20
120.2428899083
 30
0.0
 11
78.37306695941979
 21
2.842170943040401E-14
 31
0.0
210
0.0
220
0.0
230
1.0
 40
0.2679491924
 41
1.82609962372623
 42
1.831936890195048
  0
ARC
  5
AC
330
1F
100
AcDbEntity
  8
0
  6
PHANTOM
 62
     7
370
     0
100
AcDbCircle
 10
163.5819588813
 20
120.2428899083
 30
0.0
 40
21.00000000000009
100
AcDbArc
 50
71.4512550043
 51
75.3721985901
  0
SPLINE
  5
AD
330
1F
100
AcDbEntity
  8
0
  6
PHANTOM
 62
     7
370
     0
100
AcDbSpline
210
0.0
220
0.0
230
1.0
 70
     8
 71
     3
 72
    14
 73
    10
 74
     0
 42
0.00000001
 43
0.00000001
 40
0.0
 40
0.0
 40
0.0
 40
0.0
 40
0.1694462615163809
 40
0.3391256665903105
 40
0.5024908562203245
 40
0.6574944769395292
 40
0.8079003737476058
 40
0.9591565911534774
 40
1.0
 40
1.0
 40
1.0
 40
1.0
 10
170.5952318276287
 20
140.1817217144397
 30
0.0
 10
170.5871101595929
 20
140.1745894728167
 30
0.0
 10
170.5708556488012
 20
140.1603151762165
 30
0.0
 10
170.5201602604287
 20
140.1436449217192
 30
0.0
 10
170.4577115837861
 20
140.1335926834571
 30
0.0
 10
170.3906567716506
 20
140.1312759624279
 30
0.0
 10
170.3271449567838
 20
140.1362316479045
 30
0.0
 10
170.2854699982165
 20
140.144629568003
 30
0.0
 10
170.2663585732909
 20
140.1507164867773
 30
0.0
 10
170.2622951830745
 20
140.1520106616643
 30
0.0
  0
ELLIPSE
  5
AE
330
1F
100
AcDbEntity
  8
0
  6
PHANTOM
 62
     7
370
     0
100
AcDbEllipse
 10
172.3613181162
 20
120.2428899083
 30
0.0
 11
0.0
 21
20.99999999999999
 31
0.0
210
0.0
220
0.0
230
1.0
 40
0.2679491924
 41
0.2262140470015074
 42
0.3192591970501529
  0
ELLIPSE
  5
AF
330
1F
100
AcDbEntity
  8
0
  6
PHANTOM
 62
     7
370
     0
100
AcDbEllipse
 10
188.677522543
 20
120.2428899083
 30
0.0
 11
78.37306695895438
 21
2.842170943040401E-14
 31
0.0
210
0.0
220
0.0
230
1.0
 40
0.2679491924
 41
1.789037901389743
 42
1.797010373796406
  0
LINE
  5
B0
330
1F
100
AcDbEntity
  8
0
  6
PHANTOM
 62
     7
370
     0
100
AcDbLine
 10
171.7087173725
 20
141.2428892824
 30
0.0
 11
171.7087173725
 21
140.7447639528
 31
0.0
  0
SPLINE
  5
B1
330
1F
100
AcDbEntity
  8
0
  6
PHANTOM
 62
     7
370
     0
100
AcDbSpline
210
0.0
220
0.0
230
1.0
 70
     8
 71
     3
 72
    12
 73
     8
 74
     0
 42
0.00000001
 43
0.00000001
 40
0.0
 40
0.0
 40
0.0
 40
0.0
 40
0.2296531731704849
 40
0.4593281454764596
 40
0.6885471240060023
 40
0.9175349834063398
 40
1.0
 40
1.0
 40
1.0
 40
1.0
 10
187.4087149168373
 20
141.2229608419564
 30
0.0
 10
187.4197519520532
 20
141.2273270450781
 30
0.0
 10
187.4418270701422
 20
141.23605986577
 30
0.0
 10
187.6143566825723
 20
141.2415634701454
 30
0.0
 10
187.8683054360218
 20
141.2431029778647
 30
0.0
 10
188.1179813096767
 20
141.2428287199782
 30
0.0
 10
188.2687859204225
 20
141.24275142371
 30
0.0
 10
188.3087152506233
 20
141.2427309575704
 30
0.0
  0
SPLINE
  5
B2
330
1F
100
AcDbEntity
  8
0
  6
PHANTOM
 62
     7
370
     0
100
AcDbSpline
210
0.0
220
0.0
230
1.0
 70
     8
 71
     3
 72
    12
 73
     8
 74
     0
 42
0.00000001
 43
0.00000001
 40
0.0
 40
0.0
 40
0.0
 40
0.0
 40
0.2223495121854701
 40
0.4447916567399718
 40
0.6646552649697962
 40
0.8779424357331971
 40
1.0
 40
1.0
 40
1.0
 40
1.0
 10
177.708714630735
 20
141.0060520890382
 30
0.0
 10
177.33619717442
 20
141.0116176267695
 30
0.0
 10
176.5910070684002
 20
141.0227510208743
 30
0.0
 10
175.5974589940566
 20
141.1010490374703
 30
0.0
 10
174.8725483734176
 20
141.1837026730128
 30
0.0
 10
174.4840654769876
 20
141.2391651825371
 30
0.0
 10
174.4966430996747
 20
141.23738766513
 30
0.0
 10
174.5012210573078
 20
141.2367406907705
 30
0.0
  0
SPLINE
  5
B3
330
1F
100
AcDbEntity
  8
0
  6
PHANTOM
 62
     7
370
     0
100
AcDbSpline
210
0.0
220
0.0
230
1.0
 70
     8
 71
     3
 72
    13
 73
     9
 74
     0
 42
0.00000001
 43
0.00000001
 40
0.0
 40
0.0
 40
0.0
 40
0.0
 40
0.0135217029594558
 40
0.2171971119475388
 40
0.4210262019898166
 40
0.6295719634386271
 40
0.8448358501713711
 40
1.0
 40
1.0
 40
1.0
 40
1.0
 10
180.9478992487312
 20
141.2413488748697
 30
0.0
 10
180.9514757767874
 20
141.2418583358919
 30
0.0
 10
181.0089250172364
 20
141.2500417328359
 30
0.0
 10
180.7957158805428
 20
141.2188175707008
 30
0.0
 10
180.3042395441586
 20
141.1539144334328
 30
0.0
 10
179.4956926607838
 20
141.0717682162003
 30
0.0
 10
178.5886428836023
 20
141.0152842430372
 30
0.0
 10
177.9684850816698
 20
141.0087775848949
 30
0.0
 10
177.708714630735
 20
141.0060520890382
 30
0.0
  0
ARC
  5
B4
330
1F
100
AcDbEntity
  8
0
  6
PHANTOM
 62
     7
370
     0
100
AcDbCircle
 10
162.2895041191
 20
126.8726796406
 30
0.0
 40
7.62139441576916
100
AcDbArc
 50
359.024223794
 51
88.9898391635
  0
ELLIPSE
  5
B5
330
1F
100
AcDbEntity
  8
0
  6
PHANTOM
 62
     7
370
     0
100
AcDbEllipse
 10
163.2906467869
 20
126.7428899083
 30
0.0
 11
-8.023390398178151
 21
0.0
 31
0.0
210
0.0
220
0.0
230
1.0
 40
0.9659258263
 41
5.458754750371923
 42
6.283185307179586
  0
ELLIPSE
  5
B6
330
1F
100
AcDbEntity
  8
0
  6
PHANTOM
 62
     7
370
     0
100
AcDbEllipse
 10
163.2906467869
 20
126.7428899083
 30
0.0
 11
-8.023390398178151
 21
0.0
 31
0.0
210
0.0
220
0.0
230
1.0
 40
0.9659258263
 41
3.141592653589793
 42
3.966023210397485
  0
SPLINE
  5
B7
330
1F
100
AcDbEntity
  8
0
  6
PHANTOM
 62
     7
370
     0
100
AcDbSpline
210
0.0
220
0.0
230
1.0
 70
     8
 71
     3
 72
    12
 73
     8
 74
     0
 42
0.00000001
 43
0.00000001
 40
0.0
 40
0.0
 40
0.0
 40
0.0
 40
0.2483196256975652
 40
0.3734888963641246
 40
0.4988252523999706
 40
0.7490576020942268
 40
1.0
 40
1.0
 40
1.0
 40
1.0
 10
155.0317922498108
 20
115.597457219961
 30
0.0
 10
155.018611187967
 20
115.4844483271615
 30
0.0
 10
154.9987860121393
 20
115.3144755892739
 30
0.0
 10
154.8502229215327
 20
115.1411843317588
 30
0.0
 10
154.6633690572185
 20
115.0178576447936
 30
0.0
 10
154.3896690228131
 20
114.9400451931468
 30
0.0
 10
154.1669487988713
 20
114.9325433865955
 30
0.0
 10
154.0554309154869
 20
114.9287871691612
 30
0.0
  0
SPLINE
  5
B8
330
1F
100
AcDbEntity
  8
0
  6
PHANTOM
 62
     7
370
     0
100
AcDbSpline
210
0.0
220
0.0
230
1.0
 70
     8
 71
     3
 72
    12
 73
     8
 74
     0
 42
0.00000001
 43
0.00000001
 40
0.0
 40
0.0
 40
0.0
 40
0.0
 40
0.2509492057201693
 40
0.501236813554374
 40
0.626585278496543
 40
0.7517599118876381
 40
1.0
 40
1.0
 40
1.0
 40
1.0
 10
154.0554309154869
 20
116.2621207210449
 30
0.0
 10
154.1667016960253
 20
116.2584421405906
 30
0.0
 10
154.3889499048559
 20
116.2510946778242
 30
0.0
 10
154.6621874087498
 20
116.174104075126
 30
0.0
 10
154.8491357036406
 20
116.0518649558153
 30
0.0
 10
154.9984086349115
 20
115.8798232747317
 30
0.0
 10
155.01846145694
 20
115.7102120369945
 30
0.0
 10
155.0317922498108
 20
115.597457219961
 30
0.0
  0
SPLINE
  5
B9
330
1F
100
AcDbEntity
  8
0
  6
PHANTOM
 62
     7
370
     0
100
AcDbSpline
210
0.0
220
0.0
230
1.0
 70
     8
 71
     3
 72
    12
 73
     8
 74
     0
 42
0.00000001
 43
0.00000001
 40
0.0
 40
0.0
 40
0.0
 40
0.0
 40
0.2483184166329067
 40
0.3734877187495311
 40
0.4988144443778901
 40
0.7490786249112941
 40
1.0
 40
1.0
 40
1.0
 40
1.0
 10
153.0830742682338
 20
115.597457219961
 30
0.0
 10
153.0961331193302
 20
115.7099984450369
 30
0.0
 10
153.1157745159354
 20
115.8792680706604
 30
0.0
 10
153.264094521765
 20
116.0514057476826
 30
0.0
 10
153.4501059170158
 20
116.1741356262571
 30
0.0
 10
153.7227624996498
 20
116.2509753696938
 30
0.0
 10
153.9444445478017
 20
116.2584023576411
 30
0.0
 10
154.0554309154869
 20
116.2621207210449
 30
0.0
  0
SPLINE
  5
BA
330
1F
100
AcDbEntity
  8
0
  6
PHANTOM
 62
     7
370
     0
100
AcDbSpline
210
0.0
220
0.0
230
1.0
 70
     8
 71
     3
 72
    12
 73
     8
 74
     0
 42
0.00000001
 43
0.00000001
 40
0.0
 40
0.0
 40
0.0
 40
0.0
 40
0.2509045075411611
 40
0.5011057324792766
 40
0.6264332617973389
 40
0.7516212679849618
 40
1.0
 40
1.0
 40
1.0
 40
1.0
 10
154.0554309154869
 20
114.9287871691612
 30
0.0
 10
153.9441833421389
 20
114.9326434544664
 30
0.0
 10
153.72200002118
 20
114.9403452159512
 30
0.0
 10
153.4489549351086
 20
115.0180095339047
 30
0.0
 10
153.2626452449867
 20
115.1413619604384
 30
0.0
 10
153.1152585914135
 20
115.3150398931668
 30
0.0
 10
153.0959273265242
 20
115.484671677036
 30
0.0
 10
153.0830742682338
 20
115.597457219961
 30
0.0
  0
SPLINE
  5
BB
330
1F
100
AcDbEntity
  8
0
  6
PHANTOM
 62
     7
370
     0
100
AcDbSpline
210
0.0
220
0.0
230
1.0
 70
     8
 71
     3
 72
     9
 73
     5
 74
     0
 42
0.00000001
 43
0.00000001
 40
0.0
 40
0.0
 40
0.0
 40
0.0
 40
0.5599665991161724
 40
1.0
 40
1.0
 40
1.0
 40
1.0
 10
153.0830742682338
 20
118.7004219415811
 30
0.0
 10
153.0883023570928
 20
118.7987388749367
 30
0.0
 10
153.0976387869215
 20
118.9743152995141
 30
0.0
 10
153.2027060072153
 20
119.1138025373916
 30
0.0
 10
153.2489390934826
 20
119.1751815810547
 30
0.0
  0
SPLINE
  5
BC
330
1F
100
AcDbEntity
  8
0
  6
PHANTOM
 62
     7
370
     0
100
AcDbSpline
210
0.0
220
0.0
230
1.0
 70
     8
 71
     3
 72
    11
 73
     7
 74
     0
 42
0.00000001
 43
0.00000001
 40
0.0
 40
0.0
 40
0.0
 40
0.0
 40
0.2806889138478561
 40
0.5595491349190513
 40
0.7793500657755967
 40
1.0
 40
1.0
 40
1.0
 40
1.0
 10
153.8382837439895
 20
118.0057103653652
 30
0.0
 10
153.7290613625514
 20
118.0123722548151
 30
0.0
 10
153.5113281852426
 20
118.0256526313983
 30
0.0
 10
153.2419946510173
 20
118.1927162554492
 30
0.0
 10
153.0999888973447
 20
118.4434188081342
 30
0.0
 10
153.0887197186775
 20
118.6146442136611
 30
0.0
 10
153.0830742682338
 20
118.7004219415811
 30
0.0
  0
SPLINE
  5
BD
330
1F
100
AcDbEntity
  8
0
  6
PHANTOM
 62
     7
370
     0
100
AcDbSpline
210
0.0
220
0.0
230
1.0
 70
     8
 71
     3
 72
     9
 73
     5
 74
     0
 42
0.00000001
 43
0.00000001
 40
0.0
 40
0.0
 40
0.0
 40
0.0
 40
0.558738055901592
 40
1.0
 40
1.0
 40
1.0
 40
1.0
 10
154.3390838320375
 20
118.131111087392
 30
0.0
 10
154.2504650290397
 20
118.0876921850994
 30
0.0
 10
154.09185975406
 20
118.0099833162761
 30
0.0
 10
153.9159194878865
 20
118.007018587395
 30
0.0
 10
153.8382837439895
 20
118.0057103653652
 30
0.0
  0
LINE
  5
BE
330
1F
100
AcDbEntity
  8
0
  6
PHANTOM
 62
     7
370
     0
100
AcDbLine
 10
154.529788893
 20
117.9720565585
 30
0.0
 11
154.339083832
 21
118.1311110874
 31
0.0
  0
LINE
  5
BF
330
1F
100
AcDbEntity
  8
0
  6
PHANTOM
 62
     7
370
     0
100
AcDbLine
 10
154.6067124124
 20
118.0561911921
 30
0.0
 11
154.529788893
 21
117.9720565585
 31
0.0
  0
LINE
  5
C0
330
1F
100
AcDbEntity
  8
0
  6
PHANTOM
 62
     7
370
     0
100
AcDbLine
 10
154.4244209195
 20
118.2068322693
 30
0.0
 11
154.6067124124
 21
118.0561911921
 31
0.0
  0
SPLINE
  5
C1
330
1F
100
AcDbEntity
  8
0
  6
PHANTOM
 62
     7
370
     0
100
AcDbSpline
210
0.0
220
0.0
230
1.0
 70
     8
 71
     3
 72
     9
 73
     5
 74
     0
 42
0.00000001
 43
0.00000001
 40
0.0
 40
0.0
 40
0.0
 40
0.0
 40
0.5598529685564604
 40
1.0
 40
1.0
 40
1.0
 40
1.0
 10
154.5958941693426
 20
118.6872008281042
 30
0.0
 10
154.5893596627909
 20
118.5877754074544
 30
0.0
 10
154.5776878365817
 20
118.4101833855595
 30
0.0
 10
154.4712633440224
 20
118.2689817500331
 30
0.0
 10
154.4244209195495
 20
118.2068322693211
 30
0.0
  0
SPLINE
  5
C2
330
1F
100
AcDbEntity
  8
0
  6
PHANTOM
 62
     7
370
     0
100
AcDbSpline
210
0.0
220
0.0
230
1.0
 70
     8
 71
     3
 72
    11
 73
     7
 74
     0
 42
0.00000001
 43
0.00000001
 40
0.0
 40
0.0
 40
0.0
 40
0.0
 40
0.2806219185202833
 40
0.5594430928875957
 40
0.7793142621376495
 40
1.0
 40
1.0
 40
1.0
 40
1.0
 10
153.8390846814037
 20
119.3903258051122
 30
0.0
 10
153.9489997808127
 20
119.3832834526854
 30
0.0
 10
154.1681246570613
 20
119.3692439384392
 30
0.0
 10
154.4386102971759
 20
119.1994861441755
 30
0.0
 10
154.5792385210485
 20
118.9458940699622
 30
0.0
 10
154.5903354473495
 20
118.7735381346789
 30
0.0
 10
154.5958941693426
 20
118.6872008281042
 30
0.0
  0
SPLINE
  5
C3
330
1F
100
AcDbEntity
  8
0
  6
PHANTOM
 62
     7
370
     0
100
AcDbSpline
210
0.0
220
0.0
230
1.0
 70
     8
 71
     3
 72
     9
 73
     5
 74
     0
 42
0.00000001
 43
0.00000001
 40
0.0
 40
0.0
 40
0.0
 40
0.0
 40
0.5584321988208685
 40
0.9999999999999999
 40
0.9999999999999999
 40
0.9999999999999999
 40
0.9999999999999999
 10
153.3370813245893
 20
119.2541078514167
 30
0.0
 10
153.4251328979358
 20
119.3009026454505
 30
0.0
 10
153.5828092882519
 20
119.384699378756
 30
0.0
 10
153.7605847580857
 20
119.3886023698963
 30
0.0
 10
153.8390846814037
 20
119.3903258051122
 30
0.0
  0
LINE
  5
C4
330
1F
100
AcDbEntity
  8
0
  6
PHANTOM
 62
     7
370
     0
100
AcDbLine
 10
153.1207350905
 20
119.4267841371
 30
0.0
 11
153.3370813246
 21
119.2541078514
 31
0.0
  0
LINE
  5
C5
330
1F
100
AcDbEntity
  8
0
  6
PHANTOM
 62
     7
370
     0
100
AcDbLine
 10
153.0642447884
 20
119.3418482459
 30
0.0
 11
153.1207350905
 21
119.4267841371
 31
0.0
  0
LINE
  5
C6
330
1F
100
AcDbEntity
  8
0
  6
PHANTOM
 62
     7
370
     0
100
AcDbLine
 10
153.2489390935
 20
119.1751815811
 30
0.0
 11
153.0642447884
 21
119.3418482459
 31
0.0
  0
SPLINE
  5
C7
330
1F
100
AcDbEntity
  8
0
  6
PHANTOM
 62
     7
370
     0
100
AcDbSpline
210
0.0
220
0.0
230
1.0
 70
     8
 71
     3
 72
    11
 73
     7
 74
     0
 42
0.00000001
 43
0.00000001
 40
0.0
 40
0.0
 40
0.0
 40
0.0
 40
0.1873082607972381
 40
0.3739979924215034
 40
0.5609726664659483
 40
1.0
 40
1.0
 40
1.0
 40
1.0
 10
153.0830742682338
 20
117.0742200362709
 30
0.0
 10
153.0885077924146
 20
117.1545070069025
 30
0.0
 10
153.0993568981975
 20
117.3148158246022
 30
0.0
 10
153.2203507773164
 20
117.5308324822897
 30
0.0
 10
153.5064860098123
 20
117.7432537519532
 30
0.0
 10
153.7801619403434
 20
117.7618789747285
 30
0.0
 10
153.9720961715103
 20
117.7749412042302
 30
0.0
  0
SPLINE
  5
C8
330
1F
100
AcDbEntity
  8
0
  6
PHANTOM
 62
     7
370
     0
100
AcDbSpline
210
0.0
220
0.0
230
1.0
 70
     8
 71
     3
 72
    11
 73
     7
 74
     0
 42
0.00000001
 43
0.00000001
 40
0.0
 40
0.0
 40
0.0
 40
0.0
 40
0.2799272462584325
 40
0.5590837895368633
 40
0.7792578428587451
 40
1.0
 40
1.0
 40
1.0
 40
1.0
 10
153.7281064207674
 20
116.4159668284682
 30
0.0
 10
153.6306006130406
 20
116.4250091523298
 30
0.0
 10
153.4358574531147
 20
116.4430689044916
 30
0.0
 10
153.2161208851172
 20
116.6207680203769
 30
0.0
 10
153.0983986126374
 20
116.8452975446688
 30
0.0
 10
153.0881867688929
 20
116.9978470209982
 30
0.0
 10
153.0830742682338
 20
117.0742200362709
 30
0.0
  0
SPLINE
  5
C9
330
1F
100
AcDbEntity
  8
0
  6
PHANTOM
 62
     7
370
     0
100
AcDbSpline
210
0.0
220
0.0
230
1.0
 70
     8
 71
     3
 72
    11
 73
     7
 74
     0
 42
0.00000001
 43
0.00000001
 40
0.0
 40
0.0
 40
0.0
 40
0.0
 40
0.2799910412063446
 40
0.5591444844564682
 40
0.7792906402784252
 40
1.0
 40
1.0
 40
1.0
 40
1.0
 10
154.3651254738689
 20
117.0485790959773
 30
0.0
 10
154.3566124925696
 20
116.9535668983107
 30
0.0
 10
154.3396119966991
 20
116.763826733581
 30
0.0
 10
154.1696109656981
 20
116.5473576498558
 30
0.0
 10
153.9513072751645
 20
116.4307686655238
 30
0.0
 10
153.802570044072
 20
116.4209049745237
 30
0.0
 10
153.7281064207674
 20
116.4159668284682
 30
0.0
  0
SPLINE
  5
CA
330
1F
100
AcDbEntity
  8
0
  6
PHANTOM
 62
     7
370
     0
100
AcDbSpline
210
0.0
220
0.0
230
1.0
 70
     8
 71
     3
 72
     9
 73
     5
 74
     0
 42
0.00000001
 43
0.00000001
 40
0.0
 40
0.0
 40
0.0
 40
0.0
 40
0.5584155235402422
 40
1.0
 40
1.0
 40
1.0
 40
1.0
 10
154.1495801771999
 20
117.5185309863863
 30
0.0
 10
154.2197090526105
 20
117.4438324443775
 30
0.0
 10
154.3452945215923
 20
117.3100637025361
 30
0.0
 10
154.3590508796833
 20
117.1286767558613
 30
0.0
 10
154.3651254738689
 20
117.0485790959773
 30
0.0
  0
SPLINE
  5
CB
330
1F
100
AcDbEntity
  8
0
  6
PHANTOM
 62
     7
370
     0
100
AcDbSpline
210
0.0
220
0.0
230
1.0
 70
     8
 71
     3
 72
    11
 73
     7
 74
     0
 42
0.00000001
 43
0.00000001
 40
0.0
 40
0.0
 40
0.0
 40
0.0
 40
0.2488806489866046
 40
0.3743632715729332
 40
0.5000195789115491
 40
1.0
 40
1.0
 40
1.0
 40
1.0
 10
154.8010235543371
 20
117.0529861144004
 30
0.0
 10
154.7921050435358
 20
117.1287363473592
 30
0.0
 10
154.7786899271147
 20
117.2426789344922
 30
0.0
 10
154.6794237647571
 20
117.3588791701597
 30
0.0
 10
154.4919915271202
 20
117.4843095071082
 30
0.0
 10
154.3016736052294
 20
117.5033303743246
 30
0.0
 10
154.1495801771999
 20
117.5185309863863
 30
0.0
  0
SPLINE
  5
CC
330
1F
100
AcDbEntity
  8
0
  6
PHANTOM
 62
     7
370
     0
100
AcDbSpline
210
0.0
220
0.0
230
1.0
 70
     8
 71
     3
 72
    11
 73
     7
 74
     0
 42
0.00000001
 43
0.00000001
 40
0.0
 40
0.0
 40
0.0
 40
0.0
 40
0.280253902737077
 40
0.5589162595006588
 40
0.7791088278181129
 40
1.0
 40
1.0
 40
1.0
 40
1.0
 10
154.4933313394905
 20
116.6980181030211
 30
0.0
 10
154.5423270500663
 20
116.7059805417292
 30
0.0
 10
154.6400402273643
 20
116.7218602009089
 30
0.0
 10
154.748148027137
 20
116.8175530565552
 30
0.0
 10
154.7950487752136
 20
116.9371492432568
 30
0.0
 10
154.7990298595024
 20
117.0143330752011
 30
0.0
 10
154.8010235543371
 20
117.0529861144004
 30
0.0
  0
LINE
  5
CD
330
1F
100
AcDbEntity
  8
0
  6
PHANTOM
 62
     7
370
     0
100
AcDbLine
 10
154.4933313395
 20
116.4416077688
 30
0.0
 11
154.4933313395
 21
116.698018103
 31
0.0
  0
SPLINE
  5
CE
330
1F
100
AcDbEntity
  8
0
  6
PHANTOM
 62
     7
370
     0
100
AcDbSpline
210
0.0
220
0.0
230
1.0
 70
     8
 71
     3
 72
    11
 73
     7
 74
     0
 42
0.00000001
 43
0.00000001
 40
0.0
 40
0.0
 40
0.0
 40
0.0
 40
0.2804859702180845
 40
0.5594296294289384
 40
0.7793723871566802
 40
1.0
 40
1.0
 40
1.0
 40
1.0
 10
155.0317922498108
 20
117.0465758211193
 30
0.0
 10
155.0264498334838
 20
116.9613211785245
 30
0.0
 10
155.0157943772278
 20
116.7912806838902
 30
0.0
 10
154.8845966734276
 20
116.5819223067869
 30
0.0
 10
154.6923974572657
 20
116.4675440273335
 30
0.0
 10
154.5597554415967
 20
116.4502621430314
 30
0.0
 10
154.4933313394905
 20
116.4416077687618
 30
0.0
  0
SPLINE
  5
CF
330
1F
100
AcDbEntity
  8
0
  6
PHANTOM
 62
     7
370
     0
100
AcDbSpline
210
0.0
220
0.0
230
1.0
 70
     8
 71
     3
 72
    13
 73
     9
 74
     0
 42
0.00000001
 43
0.00000001
 40
0.0
 40
0.0
 40
0.0
 40
0.0
 40
0.2503169263459764
 40
0.5000033720802525
 40
0.6250963672809764
 40
0.7500526091115868
 40
0.8749405243779693
 40
0.9999999999999999
 40
0.9999999999999999
 40
0.9999999999999999
 40
0.9999999999999999
 10
153.9720961715103
 20
117.7749412042302
 30
0.0
 10
154.0927873285692
 20
117.7704794851085
 30
0.0
 10
154.3338656543166
 20
117.7615672847285
 30
0.0
 10
154.6280321271005
 20
117.67213617969
 30
0.0
 10
154.8297241010858
 20
117.5367728489805
 30
0.0
 10
154.9489625663828
 20
117.3978330935601
 30
0.0
 10
155.0209158193459
 20
117.2279112286049
 30
0.0
 10
155.0281651143846
 20
117.1070486097455
 30
0.0
 10
155.0317922498108
 20
117.0465758211193
 30
0.0
  0
LINE
  5
D0
330
1F
100
AcDbEntity
  8
0
  6
PHANTOM
 62
     7
370
     0
100
AcDbLine
 10
151.9087156172
 20
116.3928898192
 30
0.0
 11
151.9087156172
 21
116.5928899451
 31
0.0
  0
LINE
  5
D1
330
1F
100
AcDbEntity
  8
0
  6
PHANTOM
 62
     7
370
     0
100
AcDbLine
 10
151.9087156172
 20
116.5928899451
 30
0.0
 11
150.4087163026
 21
116.5928899451
 31
0.0
  0
LINE
  5
D2
330
1F
100
AcDbEntity
  8
0
  6
PHANTOM
 62
     7
370
     0
100
AcDbLine
 10
150.4087163026
 20
117.3928899831
 30
0.0
 11
150.4087163026
 21
116.5928899451
 31
0.0
  0
LINE
  5
D3
330
1F
100
AcDbEntity
  8
0
  6
PHANTOM
 62
     7
370
     0
100
AcDbLine
 10
150.4087163026
 20
117.3928899831
 30
0.0
 11
152.9087157811
 21
117.3928899831
 31
0.0
  0
LINE
  5
D4
330
1F
100
AcDbEntity
  8
0
  6
PHANTOM
 62
     7
370
     0
100
AcDbLine
 10
152.9087157811
 20
117.3928899831
 30
0.0
 11
152.9087157811
 21
117.5928898762
 31
0.0
  0
LINE
  5
D5
330
1F
100
AcDbEntity
  8
0
  6
PHANTOM
 62
     7
370
     0
100
AcDbLine
 10
152.9087157811
 20
117.5928898762
 30
0.0
 11
150.4087163026
 21
117.5928898762
 31
0.0
  0
LINE
  5
D6
330
1F
100
AcDbEntity
  8
0
  6
PHANTOM
 62
     7
370
     0
100
AcDbLine
 10
150.4087163026
 20
118.3928899142
 30
0.0
 11
150.4087163026
 21
117.5928898762
 31
0.0
  0
LINE
  5
D7
330
1F
100
AcDbEntity
  8
0
  6
PHANTOM
 62
     7
370
     0
100
AcDbLine
 10
150.4087163026
 20
118.3928899142
 30
0.0
 11
151.9087156172
 21
118.3928899142
 31
0.0
  0
LINE
  5
D8
330
1F
100
AcDbEntity
  8
0
  6
PHANTOM
 62
     7
370
     0
100
AcDbLine
 10
151.9087156172
 20
118.3928899142
 30
0.0
 11
151.9087156172
 21
118.5928899237
 31
0.0
  0
LINE
  5
D9
330
1F
100
AcDbEntity
  8
0
  6
PHANTOM
 62
     7
370
     0
100
AcDbLine
 10
151.9087156172
 20
118.5928899237
 30
0.0
 11
150.4087163026
 21
118.5928899237
 31
0.0
  0
LINE
  5
DA
330
1F
100
AcDbEntity
  8
0
  6
PHANTOM
 62
     7
370
     0
100
AcDbLine
 10
150.4087163026
 20
119.3928899108
 30
0.0
 11
150.4087163026
 21
118.5928899237
 31
0.0
  0
LINE
  5
DB
330
1F
100
AcDbEntity
  8
0
  6
PHANTOM
 62
     7
370
     0
100
AcDbLine
 10
150.4087163026
 20
119.3928899108
 30
0.0
 11
151.9087156172
 21
119.3928899108
 31
0.0
  0
LINE
  5
DC
330
1F
100
AcDbEntity
  8
0
  6
PHANTOM
 62
     7
370
     0
100
AcDbLine
 10
151.9087156172
 20
119.3928899108
 30
0.0
 11
151.9087156172
 21
119.5928899057
 31
0.0
  0
LINE
  5
DD
330
1F
100
AcDbEntity
  8
0
  6
PHANTOM
 62
     7
370
     0
100
AcDbLine
 10
151.9087156172
 20
119.5928899057
 30
0.0
 11
150.4087163026
 21
119.5928899057
 31
0.0
  0
LINE
  5
DE
330
1F
100
AcDbEntity
  8
0
  6
PHANTOM
 62
     7
370
     0
100
AcDbLine
 10
150.4087163026
 20
120.3928898928
 30
0.0
 11
150.4087163026
 21
119.5928899057
 31
0.0
  0
LINE
  5
DF
330
1F
100
AcDbEntity
  8
0
  6
PHANTOM
 62
     7
370
     0
100
AcDbLine
 10
150.4087163026
 20
120.3928898928
 30
0.0
 11
151.9087156172
 21
120.3928898928
 31
0.0
  0
LINE
  5
E0
330
1F
100
AcDbEntity
  8
0
  6
PHANTOM
 62
     7
370
     0
100
AcDbLine
 10
151.9087156172
 20
120.3928898928
 30
0.0
 11
151.9087156172
 21
120.5928899023
 31
0.0
  0
LINE
  5
E1
330
1F
100
AcDbEntity
  8
0
  6
PHANTOM
 62
     7
370
     0
100
AcDbLine
 10
151.9087156172
 20
120.5928899023
 30
0.0
 11
150.4087163026
 21
120.5928899023
 31
0.0
  0
LINE
  5
E2
330
1F
100
AcDbEntity
  8
0
  6
PHANTOM
 62
     7
370
     0
100
AcDbLine
 10
150.4087163026
 20
121.3928899403
 30
0.0
 11
150.4087163026
 21
120.5928899023
 31
0.0
  0
LINE
  5
E3
330
1F
100
AcDbEntity
  8
0
  6
PHANTOM
 62
     7
370
     0
100
AcDbLine
 10
150.4087163026
 20
121.3928899403
 30
0.0
 11
151.9087156172
 21
121.3928899403
 31
0.0
  0
LINE
  5
E4
330
1F
100
AcDbEntity
  8
0
  6
PHANTOM
 62
     7
370
     0
100
AcDbLine
 10
151.9087156172
 20
121.3928899403
 30
0.0
 11
151.9087156172
 21
121.5928898334
 31
0.0
  0
LINE
  5
E5
330
1F
100
AcDbEntity
  8
0
  6
PHANTOM
 62
     7
370
     0
100
AcDbLine
 10
151.9087156172
 20
121.5928898334
 30
0.0
 11
150.4087163026
 21
121.5928898334
 31
0.0
  0
LINE
  5
E6
330
1F
100
AcDbEntity
  8
0
  6
PHANTOM
 62
     7
370
     0
100
AcDbLine
 10
150.4087163026
 20
122.3928898714
 30
0.0
 11
150.4087163026
 21
121.5928898334
 31
0.0
  0
LINE
  5
E7
330
1F
100
AcDbEntity
  8
0
  6
PHANTOM
 62
     7
370
     0
100
AcDbLine
 10
150.4087163026
 20
122.3928898714
 30
0.0
 11
152.9087157811
 21
122.3928898714
 31
0.0
  0
LINE
  5
E8
330
1F
100
AcDbEntity
  8
0
  6
PHANTOM
 62
     7
370
     0
100
AcDbLine
 10
152.9087157811
 20
122.3928898714
 30
0.0
 11
152.9087157811
 21
122.5928899973
 31
0.0
  0
LINE
  5
E9
330
1F
100
AcDbEntity
  8
0
  6
PHANTOM
 62
     7
370
     0
100
AcDbLine
 10
152.9087157811
 20
122.5928899973
 30
0.0
 11
150.4087163026
 21
122.5928899973
 31
0.0
  0
LINE
  5
EA
330
1F
100
AcDbEntity
  8
0
  6
PHANTOM
 62
     7
370
     0
100
AcDbLine
 10
150.4087163026
 20
123.3928898025
 30
0.0
 11
150.4087163026
 21
122.5928899973
 31
0.0
  0
LINE
  5
EB
330
1F
100
AcDbEntity
  8
0
  6
PHANTOM
 62
     7
370
     0
100
AcDbLine
 10
150.4087163026
 20
123.3928898025
 30
0.0
 11
151.9087156172
 21
123.3928898025
 31
0.0
  0
LINE
  5
EC
330
1F
100
AcDbEntity
  8
0
  6
PHANTOM
 62
     7
370
     0
100
AcDbLine
 10
151.9087156172
 20
123.3928898025
 30
0.0
 11
151.9087156172
 21
123.5928899284
 31
0.0
  0
LINE
  5
ED
330
1F
100
AcDbEntity
  8
0
  6
PHANTOM
 62
     7
370
     0
100
AcDbLine
 10
151.9087156172
 20
123.5928899284
 30
0.0
 11
150.4087163026
 21
123.5928899284
 31
0.0
  0
LINE
  5
EE
330
1F
100
AcDbEntity
  8
0
  6
PHANTOM
 62
     7
370
     0
100
AcDbLine
 10
150.4087163026
 20
132.4326401252
 30
0.0
 11
150.4087163026
 21
123.5928899284
 31
0.0
  0
LINE
  5
EF
330
1F
100
AcDbEntity
  8
0
  6
PHANTOM
 62
     7
370
     0
100
AcDbLine
 10
155.2672566737
 20
126.7428896996
 30
0.0
 11
155.2672566737
 21
116.2428898412
 31
0.0
  0
ELLIPSE
  5
F0
330
1F
100
AcDbEntity
  8
0
  6
PHANTOM
 62
     7
370
     0
100
AcDbEllipse
 10
163.2906467869
 20
116.2428899083
 30
0.0
 11
-8.023390398178151
 21
0.0
 31
0.0
210
0.0
220
0.0
230
1.0
 40
0.9659258263
 41
0.0
 42
3.141592653589793
  0
LINE
  5
F1
330
1F
100
AcDbEntity
  8
0
  6
PHANTOM
 62
     7
370
     0
100
AcDbLine
 10
171.3140377666
 20
116.2428898412
 30
0.0
 11
171.3140377666
 21
126.7428896996
 31
0.0
  0
SPLINE
  5
F2
330
1F
100
AcDbEntity
  8
0
  6
PHANTOM
 62
     7
370
     0
100
AcDbSpline
210
0.0
220
0.0
230
1.0
 70
     8
 71
     3
 72
    12
 73
     8
 74
     0
 42
0.00000001
 43
0.00000001
 40
0.0
 40
0.0
 40
0.0
 40
0.0
 40
0.2098743718105981
 40
0.4215283772951577
 40
0.5869786203863876
 40
0.7520973193875252
 40
1.0
 40
1.0
 40
1.0
 40
1.0
 10
173.2325250173927
 20
132.4326401251581
 30
0.0
 10
173.2649541425421
 20
132.4308230204195
 30
0.0
 10
173.3300873762161
 20
132.4271734027684
 30
0.0
 10
173.4155459358828
 20
132.3900653464821
 30
0.0
 10
173.4757328692894
 20
132.3301264829228
 30
0.0
 10
173.5159107852922
 20
132.2484294015655
 30
0.0
 10
173.5202087485818
 20
132.1843071070515
 30
0.0
 10
173.522788461578
 20
132.1458197805312
 30
0.0
  0
LINE
  5
F3
330
1F
100
AcDbEntity
  8
0
  6
PHANTOM
 62
     7
370
     0
100
AcDbLine
 10
173.5227884616
 20
120.3132072139
 30
0.0
 11
173.5227884616
 21
132.1458197805
 31
0.0
  0
LINE
  5
F4
330
1F
100
AcDbEntity
  8
0
  6
PHANTOM
 62
     7
370
     0
100
AcDbLine
 10
173.5227884616
 20
120.3132072139
 30
0.0
 11
173.5227884616
 21
120.2428899148
 31
0.0
  0
LINE
  5
F5
330
1F
100
AcDbEntity
  8
0
  6
PHANTOM
 62
     7
370
     0
100
AcDbLine
 10
173.5227884616
 20
120.2428899148
 30
0.0
 11
173.5227884616
 21
108.187250388
 31
0.0
  0
SPLINE
  5
F6
330
1F
100
AcDbEntity
  8
0
  6
PHANTOM
 62
     7
370
     0
100
AcDbSpline
210
0.0
220
0.0
230
1.0
 70
     8
 71
     3
 72
    11
 73
     7
 74
     0
 42
0.00000001
 43
0.00000001
 40
0.0
 40
0.0
 40
0.0
 40
0.0
 40
0.0604859886308005
 40
0.4962721383411797
 40
0.867783707557983
 40
0.9999999999999999
 40
0.9999999999999999
 40
0.9999999999999999
 40
0.9999999999999999
 10
173.522788461578
 20
108.1872503879693
 30
0.0
 10
173.5180334282484
 20
108.1827790619021
 30
0.0
 10
173.4790195903043
 20
108.1460929698197
 30
0.0
 10
173.4021429756628
 20
108.0909493893991
 30
0.0
 10
173.3043016148896
 20
108.0561907749324
 30
0.0
 10
173.2499057687052
 20
108.0537742231883
 30
0.0
 10
173.2356281842113
 20
108.0531399372247
 30
0.0
  0
LINE
  5
F7
330
1F
100
AcDbEntity
  8
0
  6
PHANTOM
 62
     7
370
     0
100
AcDbLine
 10
173.2356281842
 20
108.0531399372
 30
0.0
 11
150.4087163026
 21
108.0531399372
 31
0.0
  0
LINE
  5
F8
330
1F
100
AcDbEntity
  8
0
  6
PHANTOM
 62
     7
370
     0
100
AcDbLine
 10
150.4087163026
 20
113.392890026
 30
0.0
 11
150.4087163026
 21
108.0531399372
 31
0.0
  0
LINE
  5
F9
330
1F
100
AcDbEntity
  8
0
  6
PHANTOM
 62
     7
370
     0
100
AcDbLine
 10
150.4087163026
 20
113.392890026
 30
0.0
 11
151.9087156172
 21
113.392890026
 31
0.0
  0
LINE
  5
FA
330
1F
100
AcDbEntity
  8
0
  6
PHANTOM
 62
     7
370
     0
100
AcDbLine
 10
151.9087156172
 20
113.392890026
 30
0.0
 11
151.9087156172
 21
113.5928896862
 31
0.0
  0
LINE
  5
FB
330
1F
100
AcDbEntity
  8
0
  6
PHANTOM
 62
     7
370
     0
100
AcDbLine
 10
151.9087156172
 20
113.5928896862
 30
0.0
 11
150.4087163026
 21
113.5928896862
 31
0.0
  0
LINE
  5
FC
330
1F
100
AcDbEntity
  8
0
  6
PHANTOM
 62
     7
370
     0
100
AcDbLine
 10
150.4087163026
 20
114.3928897242
 30
0.0
 11
150.4087163026
 21
113.5928896862
 31
0.0
  0
LINE
  5
FD
330
1F
100
AcDbEntity
  8
0
  6
PHANTOM
 62
     7
370
     0
100
AcDbLine
 10
150.4087163026
 20
114.3928897242
 30
0.0
 11
151.9087156172
 21
114.3928897242
 31
0.0
  0
LINE
  5
FE
330
1F
100
AcDbEntity
  8
0
  6
PHANTOM
 62
     7
370
     0
100
AcDbLine
 10
151.9087156172
 20
114.3928897242
 30
0.0
 11
151.9087156172
 21
114.5928898501
 31
0.0
  0
LINE
  5
FF
330
1F
100
AcDbEntity
  8
0
  6
PHANTOM
 62
     7
370
     0
100
AcDbLine
 10
151.9087156172
 20
114.5928898501
 30
0.0
 11
150.4087163026
 21
114.5928898501
 31
0.0
  0
LINE
  5
100
330
1F
100
AcDbEntity
  8
0
  6
PHANTOM
 62
     7
370
     0
100
AcDbLine
 10
150.4087163026
 20
115.3928898881
 30
0.0
 11
150.4087163026
 21
114.5928898501
 31
0.0
  0
LINE
  5
101
330
1F
100
AcDbEntity
  8
0
  6
PHANTOM
 62
     7
370
     0
100
AcDbLine
 10
150.4087163026
 20
115.3928898881
 30
0.0
 11
151.9087156172
 21
115.3928898881
 31
0.0
  0
LINE
  5
102
330
1F
100
AcDbEntity
  8
0
  6
PHANTOM
 62
     7
370
     0
100
AcDbLine
 10
151.9087156172
 20
115.3928898881
 30
0.0
 11
151.9087156172
 21
115.5928900141
 31
0.0
  0
LINE
  5
103
330
1F
100
AcDbEntity
  8
0
  6
PHANTOM
 62
     7
370
     0
100
AcDbLine
 10
151.9087156172
 20
115.5928900141
 30
0.0
 11
150.4087163026
 21
115.5928900141
 31
0.0
  0
LINE
  5
104
330
1F
100
AcDbEntity
  8
0
  6
PHANTOM
 62
     7
370
     0
100
AcDbLine
 10
150.4087163026
 20
116.3928898192
 30
0.0
 11
150.4087163026
 21
115.5928900141
 31
0.0
  0
LINE
  5
105
330
1F
100
AcDbEntity
  8
0
  6
PHANTOM
 62
     7
370
     0
100
AcDbLine
 10
150.4087163026
 20
116.3928898192
 30
0.0
 11
151.9087156172
 21
116.3928898192
 31
0.0
  0
SPLINE
  5
106
330
1F
100
AcDbEntity
  8
0
  6
PHANTOM
 62
     7
370
     0
100
AcDbSpline
210
0.0
220
0.0
230
1.0
 70
     8
 71
     3
 72
    12
 73
     8
 74
     0
 42
0.00000001
 43
0.00000001
 40
0.0
 40
0.0
 40
0.0
 40
0.0
 40
0.1251062306382922
 40
0.2499664679212611
 40
0.3748998001076703
 40
0.5001444232810323
 40
0.9999999999999999
 40
0.9999999999999999
 40
0.9999999999999999
 40
0.9999999999999999
 10
153.3138429637075
 20
115.595453945103
 30
0.0
 10
153.3164244007849
 20
115.5554714319903
 30
0.0
 10
153.3215821991225
 20
115.4755850224135
 30
0.0
 10
153.3777339291909
 20
115.3659434229566
 30
0.0
 10
153.4707270662886
 20
115.2875737169148
 30
0.0
 10
153.6923052281737
 20
115.1933299795616
 30
0.0
 10
153.8940819952652
 20
115.1888110352909
 30
0.0
 10
154.0554309154869
 20
115.1851975034204
 30
0.0
  0
SPLINE
  5
107
330
1F
100
AcDbEntity
  8
0
  6
PHANTOM
 62
     7
370
     0
100
AcDbSpline
210
0.0
220
0.0
230
1.0
 70
     8
 71
     3
 72
    12
 73
     8
 74
     0
 42
0.00000001
 43
0.00000001
 40
0.0
 40
0.0
 40
0.0
 40
0.0
 40
0.4999003615064765
 40
0.6251626691980333
 40
0.7500844291552548
 40
0.8748828825229891
 40
0.9999999999999999
 40
0.9999999999999999
 40
0.9999999999999999
 40
0.9999999999999999
 10
154.0554309154869
 20
116.0057103867856
 30
0.0
 10
153.8942183273467
 20
116.0020544121312
 30
0.0
 10
153.6926099676201
 20
115.9974823432762
 30
0.0
 10
153.471393161532
 20
115.9027356060868
 30
0.0
 10
153.3789197175869
 20
115.8241771199257
 30
0.0
 10
153.3218487381901
 20
115.7152394459708
 30
0.0
 10
153.3165138226956
 20
115.6354163725148
 30
0.0
 10
153.3138429637075
 20
115.595453945103
 30
0.0
  0
SPLINE
  5
108
330
1F
100
AcDbEntity
  8
0
  6
PHANTOM
 62
     7
370
     0
100
AcDbSpline
210
0.0
220
0.0
230
1.0
 70
     8
 71
     3
 72
    12
 73
     8
 74
     0
 42
0.00000001
 43
0.00000001
 40
0.0
 40
0.0
 40
0.0
 40
0.0
 40
0.1250774604436098
 40
0.2498580783154867
 40
0.3747907273227817
 40
0.50005648113041
 40
1.0
 40
1.0
 40
1.0
 40
1.0
 10
154.8010235543371
 20
115.595453945103
 30
0.0
 10
154.7982598913834
 20
115.635534323813
 30
0.0
 10
154.7927391243941
 20
115.7155999596767
 30
0.0
 10
154.7351905100687
 20
115.8248751800666
 30
0.0
 10
154.6416029896666
 20
115.9027700449261
 30
0.0
 10
154.4196571200436
 20
115.9976943102679
 30
0.0
 10
154.2172689624958
 20
116.0021485723086
 30
0.0
 10
154.0554309154869
 20
116.0057103867856
 30
0.0
  0
SPLINE
  5
109
330
1F
100
AcDbEntity
  8
0
  6
PHANTOM
 62
     7
370
     0
100
AcDbSpline
210
0.0
220
0.0
230
1.0
 70
     8
 71
     3
 72
    12
 73
     8
 74
     0
 42
0.00000001
 43
0.00000001
 40
0.0
 40
0.0
 40
0.0
 40
0.0
 40
0.4999046694907589
 40
0.6251689098533568
 40
0.7500873989190722
 40
0.8748739038282746
 40
0.9999999999999999
 40
0.9999999999999999
 40
0.9999999999999999
 40
0.9999999999999999
 10
154.0554309154869
 20
115.1851975034204
 30
0.0
 10
154.2173270239306
 20
115.1887969411022
 30
0.0
 10
154.4197904530646
 20
115.1932983124014
 30
0.0
 10
154.6423048137407
 20
115.2873960765839
 30
0.0
 10
154.7359718701322
 20
115.3654997142952
 30
0.0
 10
154.7930339029822
 20
115.4751693753286
 30
0.0
 10
154.7983579257203
 20
115.5553227832901
 30
0.0
 10
154.8010235543371
 20
115.595453945103
 30
0.0
  0
SPLINE
  5
10A
330
1F
100
AcDbEntity
  8
0
  6
PHANTOM
 62
     7
370
     0
100
AcDbSpline
210
0.0
220
0.0
230
1.0
 70
     8
 71
     3
 72
    11
 73
     7
 74
     0
 42
0.00000001
 43
0.00000001
 40
0.0
 40
0.0
 40
0.0
 40
0.0
 40
0.1875658038123031
 40
0.3744438741596943
 40
0.5612315644996513
 40
1.0
 40
1.0
 40
1.0
 40
1.0
 10
154.3907666469932
 20
118.6968162098182
 30
0.0
 10
154.3878328757685
 20
118.7481042582929
 30
0.0
 10
154.3819760903578
 20
118.8504923012017
 30
0.0
 10
154.3161994412024
 20
118.9938428796043
 30
0.0
 10
154.1396627359431
 20
119.1407631858392
 30
0.0
 10
153.9634689142312
 20
119.1518089911577
 30
0.0
 10
153.8398856188179
 20
119.1595565784936
 30
0.0
  0
SPLINE
  5
10B
330
1F
100
AcDbEntity
  8
0
  6
PHANTOM
 62
     7
370
     0
100
AcDbSpline
210
0.0
220
0.0
230
1.0
 70
     8
 71
     3
 72
     9
 73
     5
 74
     0
 42
0.00000001
 43
0.00000001
 40
0.0
 40
0.0
 40
0.0
 40
0.0
 40
0.5583892581198132
 40
0.9999999999999999
 40
0.9999999999999999
 40
0.9999999999999999
 40
0.9999999999999999
 10
154.2561514194132
 20
118.3606783767444
 30
0.0
 10
154.3003990137568
 20
118.4161007475492
 30
0.0
 10
154.3796404993337
 20
118.5153547536012
 30
0.0
 10
154.3873583577932
 20
118.6412288546642
 30
0.0
 10
154.3907666469932
 20
118.6968162098182
 30
0.0
  0
LINE
  5
10C
330
1F
100
AcDbEntity
  8
0
  6
PHANTOM
 62
     7
370
     0
100
AcDbLine
 10
153.5125611241
 20
119.0994604282
 30
0.0
 11
154.2561514194
 21
118.3606783767
 31
0.0
  0
SPLINE
  5
10D
330
1F
100
AcDbEntity
  8
0
  6
PHANTOM
 62
     7
370
     0
100
AcDbSpline
210
0.0
220
0.0
230
1.0
 70
     8
 71
     3
 72
     9
 73
     5
 74
     0
 42
0.00000001
 43
0.00000001
 40
0.0
 40
0.0
 40
0.0
 40
0.0
 40
0.5606572113136562
 40
1.0
 40
1.0
 40
1.0
 40
1.0
 10
153.8398856188179
 20
119.1595565784936
 30
0.0
 10
153.7765265453041
 20
119.1592969883895
 30
0.0
 10
153.6635179685209
 20
119.1588339780173
 30
0.0
 10
153.5586389601227
 20
119.1175835196452
 30
0.0
 10
153.5125611240984
 20
119.0994604282294
 30
0.0
  0
SPLINE
  5
10E
330
1F
100
AcDbEntity
  8
0
  6
PHANTOM
 62
     7
370
     0
100
AcDbSpline
210
0.0
220
0.0
230
1.0
 70
     8
 71
     3
 72
    11
 73
     7
 74
     0
 42
0.00000001
 43
0.00000001
 40
0.0
 40
0.0
 40
0.0
 40
0.0
 40
0.2804994227568595
 40
0.5592970974929669
 40
0.779277283020824
 40
1.0
 40
1.0
 40
1.0
 40
1.0
 10
154.1343567783952
 20
117.0686111460653
 30
0.0
 10
154.1300147610075
 20
117.1313351678495
 30
0.0
 10
154.1213570686017
 20
117.2564026741644
 30
0.0
 10
154.0188693121662
 20
117.4067942222832
 30
0.0
 10
153.8742936755381
 20
117.4853132696682
 30
0.0
 10
153.7760897222316
 20
117.491696230462
 30
0.0
 10
153.7269050146461
 20
117.49489308812
 30
0.0
  0
SPLINE
  5
10F
330
1F
100
AcDbEntity
  8
0
  6
PHANTOM
 62
     7
370
     0
100
AcDbSpline
210
0.0
220
0.0
230
1.0
 70
     8
 71
     3
 72
    11
 73
     7
 74
     0
 42
0.00000001
 43
0.00000001
 40
0.0
 40
0.0
 40
0.0
 40
0.0
 40
0.2799517217063849
 40
0.5590386158533328
 40
0.7792534319623226
 40
1.0
 40
1.0
 40
1.0
 40
1.0
 10
153.3138429637075
 20
117.0770244813738
 30
0.0
 10
153.3194135020915
 20
117.0155601323416
 30
0.0
 10
153.3305373703383
 20
116.8928213100983
 30
0.0
 10
153.4430964055099
 20
116.7546032781812
 30
0.0
 10
153.5850890718824
 20
116.681574455853
 30
0.0
 10
153.6811962769077
 20
116.6754453907667
 30
0.0
 10
153.7293078268886
 20
116.6723771627274
 30
0.0
  0
SPLINE
  5
110
330
1F
100
AcDbEntity
  8
0
  6
PHANTOM
 62
     7
370
     0
100
AcDbSpline
210
0.0
220
0.0
230
1.0
 70
     8
 71
     3
 72
    11
 73
     7
 74
     0
 42
0.00000001
 43
0.00000001
 40
0.0
 40
0.0
 40
0.0
 40
0.0
 40
0.2801397314709257
 40
0.5590141919083127
 40
0.7792299232366873
 40
1.0
 40
1.0
 40
1.0
 40
1.0
 10
153.7269050146461
 20
117.49489308812
 30
0.0
 10
153.6645227139107
 20
117.4896502338018
 30
0.0
 10
153.5400398665407
 20
117.4791882048902
 30
0.0
 10
153.3963846778423
 20
117.3685648892895
 30
0.0
 10
153.3231637898351
 20
117.2234071063154
 30
0.0
 10
153.3169525084003
 20
117.1258595640452
 30
0.0
 10
153.3138429637075
 20
117.0770244813738
 30
0.0
  0
SPLINE
  5
111
330
1F
100
AcDbEntity
  8
0
  6
PHANTOM
 62
     7
370
     0
100
AcDbSpline
210
0.0
220
0.0
230
1.0
 70
     8
 71
     3
 72
    11
 73
     7
 74
     0
 42
0.00000001
 43
0.00000001
 40
0.0
 40
0.0
 40
0.0
 40
0.0
 40
0.2802720639906857
 40
0.5593051880634073
 40
0.779358149857253
 40
0.9999999999999999
 40
0.9999999999999999
 40
0.9999999999999999
 40
0.9999999999999999
 10
153.7293078268886
 20
116.6723771627274
 30
0.0
 10
153.7893717161059
 20
116.6771749903832
 30
0.0
 10
153.9092339827056
 20
116.6867494369446
 30
0.0
 10
154.0487126180122
 20
116.790421154174
 30
0.0
 10
154.1243347794622
 20
116.9276344887758
 30
0.0
 10
154.1310131373823
 20
117.0215770826678
 30
0.0
 10
154.1343567783952
 20
117.0686111460653
 30
0.0
  0
SPLINE
  5
112
330
1F
100
AcDbEntity
  8
0
  6
PHANTOM
 62
     7
370
     0
100
AcDbSpline
210
0.0
220
0.0
230
1.0
 70
     8
 71
     3
 72
    11
 73
     7
 74
     0
 42
0.00000001
 43
0.00000001
 40
0.0
 40
0.0
 40
0.0
 40
0.0
 40
0.2799801478193504
 40
0.5580483624621779
 40
0.7787033657897232
 40
1.0
 40
1.0
 40
1.0
 40
1.0
 10
153.2882036532284
 20
118.699620654921
 30
0.0
 10
153.2943579835523
 20
118.6233481386818
 30
0.0
 10
153.3066246174049
 20
118.4713239572544
 30
0.0
 10
153.4601725154221
 20
118.3074444124582
 30
0.0
 10
153.6455996237464
 20
118.2445027093796
 30
0.0
 10
153.7638483046402
 20
118.2391565855932
 30
0.0
 10
153.8230584825397
 20
118.2364796429155
 30
0.0
  0
LINE
  5
113
330
1F
100
AcDbEntity
  8
0
  6
PHANTOM
 62
     7
370
     0
100
AcDbLine
 10
154.1636040325
 20
118.2937713481
 30
0.0
 11
153.4176090623
 21
119.036960418
 31
0.0
  0
SPLINE
  5
114
330
1F
100
AcDbEntity
  8
0
  6
PHANTOM
 62
     7
370
     0
100
AcDbSpline
210
0.0
220
0.0
230
1.0
 70
     8
 71
     3
 72
     9
 73
     5
 74
     0
 42
0.00000001
 43
0.00000001
 40
0.0
 40
0.0
 40
0.0
 40
0.0
 40
0.5604710980105144
 40
1.0
 40
1.0
 40
1.0
 40
1.0
 10
153.8230584825397
 20
118.2364796429155
 30
0.0
 10
153.8884085510284
 20
118.2376482671587
 30
0.0
 10
154.0050070138583
 20
118.2397333421026
 30
0.0
 10
154.1151798755848
 20
118.2772720159698
 30
0.0
 10
154.1636040325285
 20
118.2937713480768
 30
0.0
  0
SPLINE
  5
115
330
1F
100
AcDbEntity
  8
0
  6
PHANTOM
 62
     7
370
     0
100
AcDbSpline
210
0.0
220
0.0
230
1.0
 70
     8
 71
     3
 72
     9
 73
     5
 74
     0
 42
0.00000001
 43
0.00000001
 40
0.0
 40
0.0
 40
0.0
 40
0.0
 40
0.5582128380435484
 40
1.0
 40
1.0
 40
1.0
 40
1.0
 10
153.417609062326
 20
119.0369604179849
 30
0.0
 10
153.3741130294211
 20
118.9810935903334
 30
0.0
 10
153.2961928707636
 20
118.881012001656
 30
0.0
 10
153.2906516801177
 20
118.7552019296001
 30
0.0
 10
153.2882036532284
 20
118.699620654921
 30
0.0
  0
SPLINE
  5
116
330
1F
100
AcDbEntity
  8
0
  6
PHANTOM
 62
     7
370
     0
100
AcDbSpline
210
0.0
220
0.0
230
1.0
 70
     8
 71
     3
 72
    10
 73
     6
 74
     0
 42
0.00000001
 43
0.00000001
 40
0.0
 40
0.0
 40
0.0
 40
0.0
 40
0.3404901845645185
 40
0.682630921205153
 40
1.0
 40
1.0
 40
1.0
 40
1.0
 10
173.522788461578
 20
108.1872503879693
 30
0.0
 10
173.5647218365877
 20
108.1951197278854
 30
0.0
 10
173.6487918618331
 20
108.2108965549414
 30
0.0
 10
173.722304250248
 20
108.2510687168844
 30
0.0
 10
173.7292202617962
 20
108.2831757758501
 30
0.0
 10
173.7325483824135
 20
108.298626323345
 30
0.0
  0
SPLINE
  5
117
330
1F
100
AcDbEntity
  8
0
  6
PHANTOM
 62
     7
370
     0
100
AcDbSpline
210
0.0
220
0.0
230
1.0
 70
     8
 71
     3
 72
     9
 73
     5
 74
     0
 42
0.00000001
 43
0.00000001
 40
0.0
 40
0.0
 40
0.0
 40
0.0
 40
0.5495458276852515
 40
1.0
 40
1.0
 40
1.0
 40
1.0
 10
170.8724753822208
 20
100.462417644563
 30
0.0
 10
170.8332809816656
 20
100.4207981254659
 30
0.0
 10
170.7619595402488
 20
100.3450637335364
 30
0.0
 10
170.6652950791017
 20
100.3120524594985
 30
0.0
 10
170.6217521692634
 20
100.2971823933748
 30
0.0
  0
LINE
  5
118
330
1F
100
AcDbEntity
  8
0
  6
PHANTOM
 62
     7
370
     0
100
AcDbLine
 10
170.5952318276
 20
100.3156337562
 30
0.0
 11
170.6217521693
 21
100.2971823934
 31
0.0
  0
SPLINE
  5
119
330
1F
100
AcDbEntity
  8
0
  6
PHANTOM
 62
     7
370
     0
100
AcDbSpline
210
0.0
220
0.0
230
1.0
 70
     8
 71
     3
 72
     9
 73
     5
 74
     0
 42
0.00000001
 43
0.00000001
 40
0.0
 40
0.0
 40
0.0
 40
0.0
 40
0.486908716651006
 40
1.0
 40
1.0
 40
1.0
 40
1.0
 10
170.5161737169147
 20
100.341494721475
 30
0.0
 10
170.5339044089857
 20
100.3374358696005
 30
0.0
 10
170.5703192265164
 20
100.3290999090074
 30
0.0
 10
170.5867839311819
 20
100.3202001466913
 30
0.0
 10
170.5952318276287
 20
100.3156337562231
 30
0.0
  0
LINE
  5
11A
330
1F
100
AcDbEntity
  8
0
  6
PHANTOM
 62
     7
370
     0
100
AcDbLine
 10
149.4087161387
 20
133.725842056
 30
0.0
 11
149.4087161387
 21
127.9093479413
 31
0.0
  0
LINE
  5
11B
330
1F
100
AcDbEntity
  8
0
  6
PHANTOM
 62
     7
370
     0
100
AcDbLine
 10
150.4087163026
 20
118.5928899237
 30
0.0
 11
150.4087163026
 21
118.3928899142
 31
0.0
  0
LINE
  5
11C
330
1F
100
AcDbEntity
  8
0
  6
PHANTOM
 62
     7
370
     0
100
AcDbLine
 10
150.4087163026
 20
115.5928900141
 30
0.0
 11
150.4087163026
 21
115.3928898881
 31
0.0
  0
ARC
  5
11D
330
1F
100
AcDbEntity
  8
0
  6
PHANTOM
 62
     7
370
     0
100
AcDbCircle
 10
133.3087155963
 20
120.2428899083
 30
0.0
 40
21.00000000000001
100
AcDbArc
 50
320.0554948102
 51
324.5167960447
  0
LINE
  5
11E
330
1F
100
AcDbEntity
  8
0
  6
PHANTOM
 62
     7
370
     0
100
AcDbLine
 10
149.4087161387
 20
112.5764316554
 30
0.0
 11
149.4087161387
 21
106.7599380064
 31
0.0
  0
ARC
  5
11F
330
1F
100
AcDbEntity
  8
0
  6
PHANTOM
 62
     7
370
     0
100
AcDbCircle
 10
137.7087155963
 20
115.2428899083
 30
0.0
 40
11.99999999999999
100
AcDbArc
 50
347.161431859
 51
0.0
  0
LINE
  5
120
330
1F
100
AcDbEntity
  8
0
  6
PHANTOM
 62
     7
370
     0
100
AcDbLine
 10
149.7087156291
 20
115.2428896773
 30
0.0
 11
149.7087156291
 21
125.2428899194
 31
0.0
  0
ARC
  5
121
330
1F
100
AcDbEntity
  8
0
  6
PHANTOM
 62
     7
370
     0
100
AcDbCircle
 10
137.7087155963
 20
125.2428899083
 30
0.0
 40
12.00000000000002
100
AcDbArc
 50
0.0
 51
12.838568141
  0
LINE
  5
122
330
1F
100
AcDbEntity
  8
0
  6
PHANTOM
 62
     7
370
     0
100
AcDbLine
 10
150.4087163026
 20
122.5928899973
 30
0.0
 11
150.4087163026
 21
122.3928898714
 31
0.0
  0
LINE
  5
123
330
1F
100
AcDbEntity
  8
0
  6
PHANTOM
 62
     7
370
     0
100
AcDbLine
 10
150.4087163026
 20
120.5928899023
 30
0.0
 11
150.4087163026
 21
120.3928898928
 31
0.0
  0
LINE
  5
124
330
1F
100
AcDbEntity
  8
0
  6
PHANTOM
 62
     7
370
     0
100
AcDbLine
 10
150.4087163026
 20
119.5928899057
 30
0.0
 11
150.4087163026
 21
119.3928899108
 31
0.0
  0
LINE
  5
125
330
1F
100
AcDbEntity
  8
0
  6
PHANTOM
 62
     7
370
     0
100
AcDbLine
 10
150.4087163026
 20
114.5928898501
 30
0.0
 11
150.4087163026
 21
114.3928897242
 31
0.0
  0
LINE
  5
126
330
1F
100
AcDbEntity
  8
0
  6
PHANTOM
 62
     7
370
     0
100
AcDbLine
 10
150.4087163026
 20
123.5928899284
 30
0.0
 11
150.4087163026
 21
123.3928898025
 31
0.0
  0
LINE
  5
127
330
1F
100
AcDbEntity
  8
0
  6
PHANTOM
 62
     7
370
     0
100
AcDbLine
 10
150.4087163026
 20
113.5928896862
 30
0.0
 11
150.4087163026
 21
113.392890026
 31
0.0
  0
LINE
  5
128
330
1F
100
AcDbEntity
  8
0
  6
PHANTOM
 62
     7
370
     0
100
AcDbLine
 10
150.4087163026
 20
117.5928898762
 30
0.0
 11
150.4087163026
 21
117.3928899831
 31
0.0
  0
LINE
  5
129
330
1F
100
AcDbEntity
  8
0
  6
PHANTOM
 62
     7
370
     0
100
AcDbLine
 10
150.4087163026
 20
121.5928898334
 30
0.0
 11
150.4087163026
 21
121.3928899403
 31
0.0
  0
LINE
  5
12A
330
1F
100
AcDbEntity
  8
0
  6
PHANTOM
 62
     7
370
     0
100
AcDbLine
 10
150.4087163026
 20
116.5928899451
 30
0.0
 11
150.4087163026
 21
116.3928898192
 31
0.0
  0
SPLINE
  5
12B
330
1F
100
AcDbEntity
  8
0
  6
PHANTOM
 62
     7
370
     0
100
AcDbSpline
210
0.0
220
0.0
230
1.0
 70
     8
 71
     3
 72
    12
 73
     8
 74
     0
 42
0.00000001
 43
0.00000001
 40
0.0
 40
0.0
 40
0.0
 40
0.0
 40
0.0117854096202085
 40
0.1479303209752916
 40
0.4349819041348363
 40
0.7173971689724497
 40
1.0
 40
1.0
 40
1.0
 40
1.0
 10
183.4311256076217
 20
138.8240601542619
 30
0.0
 10
183.432936078642
 20
138.8233583931262
 30
0.0
 10
183.4556610892928
 20
138.814549895722
 30
0.0
 10
183.5225107629039
 20
138.7819746379542
 30
0.0
 10
183.6264216019543
 20
138.7006906733679
 30
0.0
 10
183.7337878652778
 20
138.5667908284764
 30
0.0
 10
183.7758186918472
 20
138.4627058359411
 30
0.0
 10
183.796841081512
 20
138.4106460633901
 30
0.0
  0
ELLIPSE
  5
12C
330
1F
100
AcDbEntity
  8
0
  6
PHANTOM
 62
     7
370
     0
100
AcDbEllipse
 10
188.6775225431
 20
120.2428899083
 30
0.0
 11
78.37306695941979
 21
2.842170943040401E-14
 31
0.0
210
0.0
220
0.0
230
1.0
 40
0.2679491924
 41
4.451248416984544
 42
4.457085683453363
  0
ELLIPSE
  5
12D
330
1F
100
AcDbEntity
  8
0
  6
PHANTOM
 62
     7
370
     0
100
AcDbEllipse
 10
169.8957355677
 20
120.2428899083
 30
0.0
 11
0.0
 21
20.99999999999999
 31
0.0
210
0.0
220
0.0
230
1.0
 40
0.2679491924
 41
2.78641573364582
 42
2.880452090189607
  0
SPLINE
  5
12E
330
1F
100
AcDbEntity
  8
0
  6
PHANTOM
 62
     7
370
     0
100
AcDbSpline
210
0.0
220
0.0
230
1.0
 70
     8
 71
     3
 72
    14
 73
    10
 74
     0
 42
0.00000001
 43
0.00000001
 40
0.0
 40
0.0
 40
0.0
 40
0.0
 40
0.155902771978787
 40
0.3120676579887879
 40
0.462421883767249
 40
0.6099349808778041
 40
0.7610401278553857
 40
0.920510023392532
 40
0.9999999999999999
 40
0.9999999999999999
 40
0.9999999999999999
 40
0.9999999999999999
 10
167.6059992874981
 20
100.5869242969182
 30
0.0
 10
167.6226505067885
 20
100.5921287180426
 30
0.0
 10
167.6559809404982
 20
100.6025463103076
 30
0.0
 10
167.7203584041779
 20
100.6095971039453
 30
0.0
 10
167.7855621109856
 20
100.6088143576473
 30
0.0
 10
167.8457956851587
 20
100.6003765534905
 30
0.0
 10
167.895905921899
 20
100.5853697952011
 30
0.0
 10
167.9259727869534
 20
100.568642819652
 30
0.0
 10
167.9357001318008
 20
100.5573588963884
 30
0.0
 10
167.9389359320522
 20
100.5536053004888
 30
0.0
  0
ARC
  5
12F
330
1F
100
AcDbEntity
  8
0
  6
PHANTOM
 62
     7
370
     0
100
AcDbCircle
 10
160.213910485
 20
120.2428899083
 30
0.0
 40
21.00000000000014
100
AcDbArc
 50
286.6444565552
 51
290.6099566535
  0
ELLIPSE
  5
130
330
1F
100
AcDbEntity
  8
0
  6
PHANTOM
 62
     7
370
     0
100
AcDbEllipse
 10
188.6775225431
 20
120.2428899083
 30
0.0
 11
78.3730669593956
 21
2.842170943040401E-14
 31
0.0
210
0.0
220
0.0
230
1.0
 40
0.2679491924
 41
4.415992644240077
 42
4.421888411290534
  0
ELLIPSE
  5
131
330
1F
100
AcDbEntity
  8
0
  6
PHANTOM
 62
     7
370
     0
100
AcDbEllipse
 10
167.4301530193
 20
120.2428899083
 30
0.0
 11
0.0
 21
20.99999999999999
 31
0.0
210
0.0
220
0.0
230
1.0
 40
0.2679491924
 41
2.750012737898727
 42
2.845196317445145
  0
SPLINE
  5
132
330
1F
100
AcDbEntity
  8
0
  6
PHANTOM
 62
     7
370
     0
100
AcDbSpline
210
0.0
220
0.0
230
1.0
 70
     8
 71
     3
 72
    14
 73
    10
 74
     0
 42
0.00000001
 43
0.00000001
 40
0.0
 40
0.0
 40
0.0
 40
0.0
 40
0.1548853963184305
 40
0.3100948084398539
 40
0.4582861910572342
 40
0.6029578124724285
 40
0.751797886502904
 40
0.9104936104603362
 40
1.0
 40
1.0
 40
1.0
 40
1.0
 10
164.9497033919216
 20
100.8695136430887
 30
0.0
 10
164.966206624511
 20
100.8752627532793
 30
0.0
 10
164.9992476139786
 20
100.8867730006339
 30
0.0
 10
165.0632360639326
 20
100.894663134602
 30
0.0
 10
165.1279378205473
 20
100.8939273520558
 30
0.0
 10
165.1875752644044
 20
100.8848754262647
 30
0.0
 10
165.2375236970786
 20
100.8686726872841
 30
0.0
 10
165.268772518896
 20
100.8500309003114
 30
0.0
 10
165.2789645843646
 20
100.8371006021477
 30
0.0
 10
165.2826400364757
 20
100.8324376913932
 30
0.0
  0
ARC
  5
133
330
1F
100
AcDbEntity
  8
0
  6
PHANTOM
 62
     7
370
     0
100
AcDbCircle
 10
156.8458620887
 20
120.2428899083
 30
0.0
 40
21.00000000000015
100
AcDbArc
 50
288.68257016
 51
292.6994556983
  0
ELLIPSE
  5
134
330
1F
100
AcDbEntity
  8
0
  6
PHANTOM
 62
     7
370
     0
100
AcDbEllipse
 10
188.6775225431
 20
120.2428899083
 30
0.0
 11
78.37306695936564
 21
2.842170943040401E-14
 31
0.0
210
0.0
220
0.0
230
1.0
 40
0.2679491924
 41
4.380352920925289
 42
4.386316618357474
  0
ELLIPSE
  5
135
330
1F
100
AcDbEntity
  8
0
  6
PHANTOM
 62
     7
370
     0
100
AcDbEllipse
 10
164.9645704708
 20
120.2428899083
 30
0.0
 11
0.0
 21
20.99999999999999
 31
0.0
210
0.0
220
0.0
230
1.0
 40
0.2679491924
 41
2.7130538410275
 42
2.809556594130355
  0
SPLINE
  5
136
330
1F
100
AcDbEntity
  8
0
  6
PHANTOM
 62
     7
370
     0
100
AcDbSpline
210
0.0
220
0.0
230
1.0
 70
     8
 71
     3
 72
    14
 73
    10
 74
     0
 42
0.00000001
 43
0.00000001
 40
0.0
 40
0.0
 40
0.0
 40
0.0
 40
0.1537965417020154
 40
0.307982267493889
 40
0.4538042967961244
 40
0.5953450892795752
 40
0.7415920521321885
 40
0.899280200004242
 40
0.9999999999999999
 40
0.9999999999999999
 40
0.9999999999999999
 40
0.9999999999999999
 10
162.2934074963451
 20
101.1828459474471
 30
0.0
 10
162.3097499327708
 20
101.1891544250641
 30
0.0
 10
162.3424761603637
 20
101.2017873439802
 30
0.0
 10
162.40604718454
 20
101.2105785853311
 30
0.0
 10
162.470205656939
 20
101.2099176481952
 30
0.0
 10
162.5291747078535
 20
101.200301389011
 30
0.0
 10
162.5788992918457
 20
101.1829799174987
 30
0.0
 10
162.6114649047944
 20
101.162331986318
 30
0.0
 10
162.6221711587405
 20
101.1475856420879
 30
0.0
 10
162.6263441408992
 20
101.1418379518417
 30
0.0
  0
ARC
  5
137
330
1F
100
AcDbEntity
  8
0
  6
PHANTOM
 62
     7
370
     0
100
AcDbCircle
 10
153.4778136924
 20
120.2428899083
 30
0.0
 40
21.00000000000019
100
AcDbArc
 50
290.7455125817
 51
294.8213457124
  0
ELLIPSE
  5
138
330
1F
100
AcDbEntity
  8
0
  6
PHANTOM
 62
     7
370
     0
100
AcDbEllipse
 10
188.6775225431
 20
120.2428899083
 30
0.0
 11
78.37306695933572
 21
2.842170943040401E-14
 31
0.0
210
0.0
220
0.0
230
1.0
 40
0.2679491924
 41
4.344269510380106
 42
4.350311480819844
  0
ELLIPSE
  5
139
330
1F
100
AcDbEntity
  8
0
  6
PHANTOM
 62
     7
370
     0
100
AcDbEllipse
 10
162.4989879223
 20
120.2428899083
 30
0.0
 11
0.0
 21
20.99999999999999
 31
0.0
210
0.0
220
0.0
230
1.0
 40
0.2679491924
 41
2.675459714609679
 42
2.773473183585178
  0
SPLINE
  5
13A
330
1F
100
AcDbEntity
  8
0
  6
PHANTOM
 62
     7
370
     0
100
AcDbSpline
210
0.0
220
0.0
230
1.0
 70
     8
 71
     3
 72
    14
 73
    10
 74
     0
 42
0.00000001
 43
0.00000001
 40
0.0
 40
0.0
 40
0.0
 40
0.0
 40
0.1526475085434547
 40
0.3057523986637962
 40
0.4490015555346918
 40
0.587089172401997
 40
0.7304115400407608
 40
0.8867975375384965
 40
0.9999999999999999
 40
0.9999999999999999
 40
0.9999999999999999
 40
0.9999999999999999
 10
159.6371116007686
 20
101.5284672054675
 30
0.0
 10
159.6532814397115
 20
101.5353540812569
 30
0.0
 10
159.6856695676933
 20
101.5491484681552
 30
0.0
 10
159.7488003788062
 20
101.5589025254348
 30
0.0
 10
159.8123759525692
 20
101.5583473483825
 30
0.0
 10
159.8705958701375
 20
101.5482263183012
 30
0.0
 10
159.9200310079218
 20
101.5298605006855
 30
0.0
 10
159.9540514205449
 20
101.5071158767297
 30
0.0
 10
159.9653148931309
 20
101.4903561147537
 30
0.0
 10
159.9700445200325
 20
101.4833185496953
 30
0.0
  0
ARC
  5
13B
330
1F
100
AcDbEntity
  8
0
  6
PHANTOM
 62
     7
370
     0
100
AcDbCircle
 10
150.109765296
 20
120.2428899083
 30
0.0
 40
21.00000000000021
100
AcDbArc
 50
292.8369967825
 51
296.980242165
  0
ELLIPSE
  5
13C
330
1F
100
AcDbEntity
  8
0
  6
PHANTOM
 62
     7
370
     0
100
AcDbEllipse
 10
188.6775225431
 20
120.2428899083
 30
0.0
 11
78.37306695930684
 21
2.842170943040401E-14
 31
0.0
210
0.0
220
0.0
230
1.0
 40
0.2679491924
 41
4.307676488986342
 42
4.313808195262324
  0
ELLIPSE
  5
13D
330
1F
100
AcDbEntity
  8
0
  6
PHANTOM
 62
     7
370
     0
100
AcDbEllipse
 10
160.0334053739
 20
120.2428899083
 30
0.0
 11
0.0
 21
20.99999999999999
 31
0.0
210
0.0
220
0.0
230
1.0
 40
0.2679491924
 41
2.63714024598193
 42
2.736880162191424
  0
SPLINE
  5
13E
330
1F
100
AcDbEntity
  8
0
  6
PHANTOM
 62
     7
370
     0
100
AcDbSpline
210
0.0
220
0.0
230
1.0
 70
     8
 71
     3
 72
    14
 73
    10
 74
     0
 42
0.00000001
 43
0.00000001
 40
0.0
 40
0.0
 40
0.0
 40
0.0
 40
0.1514448725690559
 40
0.3034230860190668
 40
0.4438971583575826
 40
0.5782024686298695
 40
0.7182399124470474
 40
0.8729708823038467
 40
1.0
 40
1.0
 40
1.0
 40
1.0
 10
156.9808157051922
 20
101.908200946751
 30
0.0
 10
156.9968007957852
 20
101.915688803515
 30
0.0
 10
157.0288272713981
 20
101.9306908869032
 30
0.0
 10
157.091500014656
 20
101.94148086945
 30
0.0
 10
157.154458334718
 20
101.9410733513329
 30
0.0
 10
157.2118435122958
 20
101.9304982619003
 30
0.0
 10
157.26091283354
 20
101.9111818060905
 30
0.0
 10
157.2965156619508
 20
101.886223634408
 30
0.0
 10
157.3083935710588
 20
101.8672292271665
 30
0.0
 10
157.313748624456
 20
101.8586657616523
 30
0.0
  0
ARC
  5
13F
330
1F
100
AcDbEntity
  8
0
  6
PHANTOM
 62
     7
370
     0
100
AcDbCircle
 10
146.7417168997
 20
120.2428899083
 30
0.0
 40
20.99999999999846
100
AcDbArc
 50
294.9611565787
 51
299.181395619
  0
ELLIPSE
  5
140
330
1F
100
AcDbEntity
  8
0
  6
PHANTOM
 62
     7
370
     0
100
AcDbEllipse
 10
188.677522543
 20
120.2428899083
 30
0.0
 11
78.37306695894794
 21
2.842170943040400E-14
 31
0.0
210
0.0
220
0.0
230
1.0
 40
0.2679491924
 41
4.270500329477457
 42
4.276734612981017
  0
ELLIPSE
  5
141
330
1F
100
AcDbEntity
  8
0
  6
PHANTOM
 62
     7
370
     0
100
AcDbEllipse
 10
157.5678228254
 20
120.2428899083
 30
0.0
 11
0.0
 21
20.99999999999999
 31
0.0
210
0.0
220
0.0
230
1.0
 40
0.2679491924
 41
2.597991842140627
 42
2.699704002682551
  0
SPLINE
  5
142
330
1F
100
AcDbEntity
  8
0
  6
PHANTOM
 62
     7
370
     0
100
AcDbSpline
210
0.0
220
0.0
230
1.0
 70
     8
 71
     3
 72
    14
 73
    10
 74
     0
 42
0.00000001
 43
0.00000001
 40
0.0
 40
0.0
 40
0.0
 40
0.0
 40
0.1502076008425949
 40
0.3010475443817257
 40
0.4385323508695974
 40
0.5687007475076356
 40
0.7050536921257106
 40
0.8577363759192812
 40
1.0
 40
1.0
 40
1.0
 40
1.0
 10
154.3245216722608
 20
102.3242171528963
 30
0.0
 10
154.340310518144
 20
102.3323346685478
 30
0.0
 10
154.3719546776612
 20
102.3486038729002
 30
0.0
 10
154.4341620258122
 20
102.3605194097203
 30
0.0
 10
154.4964723136774
 20
102.3602893291483
 30
0.0
 10
154.5529265832883
 20
102.3493162444267
 30
0.0
 10
154.601531560669
 20
102.3291467059679
 30
0.0
 10
154.6388617637972
 20
102.301846604729
 30
0.0
 10
154.6514046762298
 20
102.2803633277051
 30
0.0
 10
154.6574545915247
 20
102.2700011405376
 30
0.0
  0
ARC
  5
143
330
1F
100
AcDbEntity
  8
0
  6
PHANTOM
 62
     7
370
     0
100
AcDbCircle
 10
143.3736685034
 20
120.2428899083
 30
0.0
 40
20.99999999999814
100
AcDbArc
 50
297.1226448202
 51
301.430851475
  0
ELLIPSE
  5
144
330
1F
100
AcDbEntity
  8
0
  6
PHANTOM
 62
     7
370
     0
100
AcDbEllipse
 10
188.677522543
 20
120.2428899083
 30
0.0
 11
78.37306695894794
 21
2.842170943040400E-14
 31
0.0
210
0.0
220
0.0
230
1.0
 40
0.2679491924
 41
4.232658118555896
 42
4.239009526423828
  0
ELLIPSE
  5
145
330
1F
100
AcDbEntity
  8
0
  6
PHANTOM
 62
     7
370
     0
100
AcDbEllipse
 10
155.102240277
 20
120.2428899083
 30
0.0
 11
0.0
 21
21.0
 31
0.0
210
0.0
220
0.0
230
1.0
 40
0.2679491924
 41
2.557893877185178
 42
2.661861791760987
  0
SPLINE
  5
146
330
1F
100
AcDbEntity
  8
0
  6
PHANTOM
 62
     7
370
     0
100
AcDbSpline
210
0.0
220
0.0
230
1.0
 70
     8
 71
     3
 72
    14
 73
    10
 74
     0
 42
0.00000001
 43
0.00000001
 40
0.0
 40
0.0
 40
0.0
 40
0.0
 40
0.1489685779049731
 40
0.2986762978491083
 40
0.4329447384105559
 40
0.5586149537613303
 40
0.6908695653847869
 40
0.8410464020088138
 40
0.9999999999999999
 40
0.9999999999999999
 40
0.9999999999999999
 40
0.9999999999999999
 10
151.6682239140392
 20
102.7791086259511
 30
0.0
 10
151.6838090137179
 20
102.7878905083638
 30
0.0
 10
151.7150565421505
 20
102.8054978465291
 30
0.0
 10
151.7767992278119
 20
102.8186450689365
 30
0.0
 10
151.8384385697533
 20
102.8186259924675
 30
0.0
 10
151.8938611879148
 20
102.8073109547137
 30
0.0
 10
151.9418915129772
 20
102.7863875580918
 30
0.0
 10
151.9810982152046
 20
102.7566002500646
 30
0.0
 10
151.9943464883754
 20
102.732337444084
 30
0.0
 10
152.0011586959482
 20
102.7198616090444
 30
0.0
  0
ARC
  5
147
330
1F
100
AcDbEntity
  8
0
  6
PHANTOM
 62
     7
370
     0
100
AcDbCircle
 10
140.0056201071
 20
120.2428899083
 30
0.0
 40
21.00000000000032
100
AcDbArc
 50
299.3267586379
 51
303.7356609686
  0
ELLIPSE
  5
148
330
1F
100
AcDbEntity
  8
0
  6
PHANTOM
 62
     7
370
     0
100
AcDbEllipse
 10
188.677522543
 20
120.2428899083
 30
0.0
 11
78.37306695895452
 21
2.842170943040401E-14
 31
0.0
210
0.0
220
0.0
230
1.0
 40
0.2679491924
 41
4.194055276684542
 42
4.20054048321496
  0
ELLIPSE
  5
149
330
1F
100
AcDbEntity
  8
0
  6
PHANTOM
 62
     7
370
     0
100
AcDbEllipse
 10
152.6366577285
 20
120.2428899083
 30
0.0
 11
0.0
 21
21.0
 31
0.0
210
0.0
220
0.0
230
1.0
 40
0.2679491924
 41
2.530626327157802
 42
2.62325894988963
  0
LINE
  5
14A
330
1F
100
AcDbEntity
  8
0
  6
PHANTOM
 62
     7
370
     0
100
AcDbLine
 10
149.4087161387
 20
106.7599380064
 30
0.0
 11
149.4087161387
 21
103.041914818
 31
0.0
  0
SPLINE
  5
14B
330
1F
100
AcDbEntity
  8
0
  6
PHANTOM
 62
     7
370
     0
100
AcDbSpline
210
0.0
220
0.0
230
1.0
 70
     8
 71
     3
 72
    12
 73
     8
 74
     0
 42
0.00000001
 43
0.00000001
 40
0.0
 40
0.0
 40
0.0
 40
0.0
 40
0.2384418204509871
 40
0.4772009559368379
 40
0.708780870395741
 40
0.936900384569455
 40
1.0
 40
1.0
 40
1.0
 40
1.0
 10
170.2622951830745
 20
100.333768469396
 30
0.0
 10
170.2790786126475
 20
100.3384417746664
 30
0.0
 10
170.3126678069465
 20
100.3477946043765
 30
0.0
 10
170.3774324961528
 20
100.3540527228239
 30
0.0
 10
170.4429922366101
 20
100.3532312522321
 30
0.0
 10
170.4891477266453
 20
100.3474343390318
 30
0.0
 10
170.5113607353366
 20
100.3425524910367
 30
0.0
 10
170.5161737169147
 20
100.341494721475
 30
0.0
  0
ARC
  5
14C
330
1F
100
AcDbEntity
  8
0
  6
PHANTOM
 62
     7
370
     0
100
AcDbCircle
 10
163.5819588813
 20
120.2428899083
 30
0.0
 40
21.00000000000012
100
AcDbArc
 50
284.6278014099
 51
288.5487449957
  0
ARC
  5
14D
330
1F
100
AcDbEntity
  8
0
  6
PHANTOM
 62
     7
370
     0
100
AcDbCircle
 10
162.2768128324
 20
116.1180357925
 30
0.0
 40
7.634001543343431
100
AcDbArc
 50
274.2476101406
 51
0.9371139052
  0
LINE
  5
14E
330
1F
100
AcDbEntity
  8
0
  6
PHANTOM
 62
     7
370
     0
100
AcDbLine
 10
169.9097933139
 20
116.2428898412
 30
0.0
 11
169.9097933139
 21
126.7428896996
 31
0.0
  0
LINE
  5
14F
330
1F
100
AcDbEntity
  8
0
  6
PHANTOM
 62
     7
370
     0
100
AcDbLine
 10
183.808717307
 20
138.3307739767
 30
0.0
 11
183.7968410815
 21
138.4106460634
 31
0.0
  0
LINE
  5
150
330
1F
100
AcDbEntity
  8
0
  6
PHANTOM
 62
     7
370
     0
100
AcDbLine
 10
183.808717307
 20
122.7428899753
 30
0.0
 11
183.808717307
 21
138.3307739767
 31
0.0
  0
LINE
  5
151
330
1F
100
AcDbEntity
  8
0
  6
PHANTOM
 62
     7
370
     0
100
AcDbLine
 10
158.0772021676
 20
120.0731527667
 30
0.0
 11
158.0772021676
 21
116.2428898412
 31
0.0
  0
ARC
  5
152
330
1F
100
AcDbEntity
  8
0
  6
PHANTOM
 62
     7
370
     0
100
AcDbCircle
 10
162.4238690252
 20
116.12500068
 30
0.0
 40
4.348265243206941
100
AcDbArc
 50
178.4464197173
 51
1.5535802827
  0
LINE
  5
153
330
1F
100
AcDbEntity
  8
0
  6
PHANTOM
 62
     7
370
     0
100
AcDbLine
 10
166.7705358828
 20
116.2428898412
 30
0.0
 11
166.7705358828
 21
119.9854281173
 31
0.0
  0
ELLIPSE
  5
154
330
1F
100
AcDbEntity
  8
0
  6
PHANTOM
 62
     7
370
     0
100
AcDbEllipse
 10
183.4311265601
 20
122.7428899083
 30
0.0
 11
0.0
 21
0.5
 31
0.0
210
0.0
220
0.0
230
1.0
 40
0.7551780725
 41
3.141592653589793
 42
4.7123889803847
  0
LINE
  5
155
330
1F
100
AcDbEntity
  8
0
  6
PHANTOM
 62
     7
370
     0
100
AcDbLine
 10
183.4311256076
 20
122.2428898934
 30
0.0
 11
175.4144461717
 21
122.2428898934
 31
0.0
  0
ELLIPSE
  5
156
330
1F
100
AcDbEntity
  8
0
  6
PHANTOM
 62
     7
370
     0
100
AcDbEllipse
 10
160.6233585779
 20
116.2428899083
 30
0.0
 11
6.363961030678865
 21
0.0
 31
0.0
210
0.0
220
0.0
230
1.0
 40
0.7071067812
 41
4.88129597175211
 42
4.977921428171364
  0
SPLINE
  5
157
330
1F
100
AcDbEntity
  8
0
  6
PHANTOM
 62
     7
370
     0
100
AcDbSpline
210
0.0
220
0.0
230
1.0
 70
     8
 71
     3
 72
    13
 73
     9
 74
     0
 42
0.00000001
 43
0.00000001
 40
0.0
 40
0.0
 40
0.0
 40
0.0
 40
0.1580741249851194
 40
0.3159801080567544
 40
0.4784031379208827
 40
0.6467456535990523
 40
0.8181188620634737
 40
1.0
 40
1.0
 40
1.0
 40
1.0
 10
162.2934074963451
 20
111.900601596686
 30
0.0
 10
162.3108495987343
 20
111.9042048062314
 30
0.0
 10
162.3457152505177
 20
111.9114073926233
 30
0.0
 10
162.4115914295717
 20
111.9284240165942
 30
0.0
 10
162.4795178905941
 20
111.9486703456749
 30
0.0
 10
162.5435056133335
 20
111.9708402918511
 30
0.0
 10
162.5985702887522
 20
111.9932488744863
 30
0.0
 10
162.6169044009059
 20
112.0038980377166
 30
0.0
 10
162.6263441408992
 20
112.0093810047236
 30
0.0
  0
ELLIPSE
  5
158
330
1F
100
AcDbEntity
  8
0
  6
PHANTOM
 62
     7
370
     0
100
AcDbEllipse
 10
161.8366430336
 20
116.2428899083
 30
0.0
 11
0.0
 21
4.500000000000014
 31
0.0
210
0.0
220
0.0
230
1.0
 40
0.5176380902
 41
3.487465782141902
 42
3.730432077994137
  0
ARC
  5
159
330
1F
100
AcDbEntity
  8
0
  6
PHANTOM
 62
     7
370
     0
100
AcDbCircle
 10
160.646566993
 20
116.0919316368
 30
0.0
 40
4.366443422806645
100
AcDbArc
 50
304.669276028
 51
312.0776583532
  0
ELLIPSE
  5
15A
330
1F
100
AcDbEntity
  8
0
  6
PHANTOM
 62
     7
370
     0
100
AcDbEllipse
 10
159.3905673037
 20
116.2428899083
 30
0.0
 11
6.363961030678865
 21
0.0
 31
0.0
210
0.0
220
0.0
230
1.0
 40
0.7071067812
 41
5.429428596914542
 42
5.774805295370891
  0
SPLINE
  5
15B
330
1F
100
AcDbEntity
  8
0
  6
PHANTOM
 62
     7
370
     0
100
AcDbSpline
210
0.0
220
0.0
230
1.0
 70
     8
 71
     3
 72
    11
 73
     7
 74
     0
 42
0.00000001
 43
0.00000001
 40
0.0
 40
0.0
 40
0.0
 40
0.0
 40
0.1133451044293278
 40
0.3321049438036535
 40
0.7557078567680553
 40
1.0
 40
1.0
 40
1.0
 40
1.0
 10
164.9497033919216
 20
114.0524573299316
 30
0.0
 10
164.9677377366843
 20
114.0774321503555
 30
0.0
 10
165.02057896952
 20
114.1506092088191
 30
0.0
 10
165.1290175195863
 20
114.3529383079243
 30
0.0
 10
165.2285793931532
 20
114.5993415656505
 30
0.0
 10
165.2681620977039
 20
114.7752108838824
 30
0.0
 10
165.2826400364757
 20
114.8395375955132
 30
0.0
  0
ELLIPSE
  5
15C
330
1F
100
AcDbEntity
  8
0
  6
PHANTOM
 62
     7
370
     0
100
AcDbEllipse
 10
163.0694343078
 20
116.2428899083
 30
0.0
 11
0.0
 21
4.500000000000014
 31
0.0
210
0.0
220
0.0
230
1.0
 40
0.5176380902
 41
4.395243029349807
 42
4.712388980384697
  0
LINE
  5
15D
330
1F
100
AcDbEntity
  8
0
  6
PHANTOM
 62
     7
370
     0
100
AcDbLine
 10
165.3988057639
 20
116.2428898412
 30
0.0
 11
165.3988057639
 21
119.1220957286
 31
0.0
  0
SPLINE
  5
15E
330
1F
100
AcDbEntity
  8
0
  6
PHANTOM
 62
     7
370
     0
100
AcDbSpline
210
0.0
220
0.0
230
1.0
 70
     8
 71
     3
 72
    10
 73
     6
 74
     0
 42
0.00000001
 43
0.00000001
 40
0.0
 40
0.0
 40
0.0
 40
0.0
 40
0.0618729743341802
 40
0.8898733183468873
 40
1.0
 40
1.0
 40
1.0
 40
1.0
 10
187.3087132240654
 20
141.0410325649408
 30
0.0
 10
187.310786853973
 20
141.0409474805312
 30
0.0
 10
187.3406103422863
 20
141.039723774273
 30
0.0
 10
187.3742048622707
 20
141.0353343154341
 30
0.0
 10
187.4050893844241
 20
141.0281700923453
 30
0.0
 10
187.4087149168373
 20
141.0273290845779
 30
0.0
  0
SPLINE
  5
15F
330
1F
100
AcDbEntity
  8
0
  6
PHANTOM
 62
     7
370
     0
100
AcDbSpline
210
0.0
220
0.0
230
1.0
 70
    24
 71
     3
 72
    12
 73
     8
 74
     0
 42
0.00000001
 43
0.00000001
 40
0.0
 40
0.0
 40
0.0
 40
0.0
 40
0.1016770269288563
 40
0.2381578295223947
 40
0.4687695180681423
 40
0.8968927438040143
 40
1.0
 40
1.0
 40
1.0
 40
1.0
 10
187.4087149168373
 20
140.4568940076259
 30
0.0
 10
187.4087149168373
 20
140.4902930542267
 30
0.0
 10
187.4087149168373
 20
140.5685235521753
 30
0.0
 10
187.4087149168373
 20
140.7017088241886
 30
0.0
 10
187.4087149168373
 20
140.8725949825848
 30
0.0
 10
187.4087149168373
 20
140.9745983184802
 30
0.0
 10
187.4087149168373
 20
141.0187580595818
 30
0.0
 10
187.4087149168373
 20
141.0273290845779
 30
0.0
  0
LINE
  5
160
330
1F
100
AcDbEntity
  8
0
  6
PHANTOM
 62
     7
370
     0
100
AcDbLine
 10
187.4087149168
 20
122.2529919493
 30
0.0
 11
187.4087149168
 21
122.7428899753
 31
0.0
  0
ARC
  5
161
330
1F
100
AcDbEntity
  8
0
  6
PHANTOM
 62
     7
370
     0
100
AcDbCircle
 10
187.3087155963
 20
122.7428899083
 30
0.0
 40
0.5000000000000087
100
AcDbArc
 50
270.0
 51
281.5369590328
  0
LINE
  5
162
330
1F
100
AcDbEntity
  8
0
  6
PHANTOM
 62
     7
370
     0
100
AcDbLine
 10
187.3087132241
 20
122.2428898934
 30
0.0
 11
183.4311256076
 21
122.2428898934
 31
0.0
  0
LINE
  5
163
330
1F
100
AcDbEntity
  8
0
  6
PHANTOM
 62
     7
370
     0
100
AcDbLine
 10
187.4087149168
 20
140.4568940076
 30
0.0
 11
187.4087149168
 21
122.7428899753
 31
0.0
  0
LINE
  5
164
330
1F
100
AcDbEntity
  8
0
  6
PHANTOM
 62
     7
370
     0
100
AcDbLine
 10
187.4087149168
 20
141.0273290846
 30
0.0
 11
187.4087149168
 21
141.1659918401
 31
0.0
  0
LINE
  5
165
330
1F
100
AcDbEntity
  8
0
  6
PHANTOM
 62
     7
370
     0
100
AcDbLine
 10
187.4087149168
 20
122.2428898934
 30
0.0
 11
187.3087132241
 21
122.2428898934
 31
0.0
  0
LINE
  5
166
330
1F
100
AcDbEntity
  8
0
  6
PHANTOM
 62
     7
370
     0
100
AcDbLine
 10
188.3087152506
 20
141.2427309576
 30
0.0
 11
188.4087169434
 21
141.3426972601
 31
0.0
  0
LINE
  5
167
330
1F
100
AcDbEntity
  8
0
  6
PHANTOM
 62
     7
370
     0
100
AcDbLine
 10
187.4087149168
 20
122.2428898934
 30
0.0
 11
188.4087169434
 21
122.2428898934
 31
0.0
  0
LINE
  5
168
330
1F
100
AcDbEntity
  8
0
  6
PHANTOM
 62
     7
370
     0
100
AcDbLine
 10
199.2909232046
 20
134.8830587837
 30
0.0
 11
199.308715191
 21
134.8861945468
 31
0.0
  0
LINE
  5
169
330
1F
100
AcDbEntity
  8
0
  6
PHANTOM
 62
     7
370
     0
100
AcDbLine
 10
199.308715191
 20
129.3659289974
 30
0.0
 11
199.308715191
 21
134.8861945468
 31
0.0
  0
LINE
  5
16A
330
1F
100
AcDbEntity
  8
0
  6
PHANTOM
 62
     7
370
     0
100
AcDbLine
 10
192.3321256305
 20
122.3893364101
 30
0.0
 11
199.308715191
 21
129.3659289974
 31
0.0
  0
LINE
  5
16B
330
1F
100
AcDbEntity
  8
0
  6
PHANTOM
 62
     7
370
     0
100
AcDbLine
 10
188.4087169434
 20
141.3426972601
 30
0.0
 11
189.3636802102
 21
142.29750779
 31
0.0
  0
ELLIPSE
  5
16C
330
1F
100
AcDbEntity
  8
0
  6
PHANTOM
 62
     7
370
     0
100
AcDbEllipse
 10
290.2457528921
 20
138.7621482387
 30
0.0
 11
3412.63103163123
 21
601.0059963031349
 31
0.0
210
0.0
220
0.0
230
0.9999999999999999
 40
0.0060567645
 41
1.599106358224142
 42
1.599295325033803
  0
ARC
  5
16D
330
1F
100
AcDbEntity
  8
0
  6
PHANTOM
 62
     7
370
     0
100
AcDbCircle
 10
190.7645294928
 20
134.1474016468
 30
0.0
 40
1.649542633728078
100
AcDbArc
 50
117.2879950424
 51
342.7463487692
  0
ARC
  5
16E
330
1F
100
AcDbEntity
  8
0
  6
PHANTOM
 62
     7
370
     0
100
AcDbCircle
 10
191.9785695668
 20
122.7428899083
 30
0.0
 40
0.5
100
AcDbArc
 50
270.0
 51
315.0
  0
LINE
  5
16F
330
1F
100
AcDbEntity
  8
0
  6
PHANTOM
 62
     7
370
     0
100
AcDbLine
 10
188.4087169434
 20
122.2428898934
 30
0.0
 11
191.9785732294
 21
122.2428898934
 31
0.0
  0
ARC
  5
170
330
1F
100
AcDbEntity
  8
0
  6
PHANTOM
 62
     7
370
     0
100
AcDbCircle
 10
190.762999113
 20
134.0148308986
 30
0.0
 40
1.648793654849641
100
AcDbArc
 50
118.2056340707
 51
177.6893398074
  0
LINE
  5
171
330
1F
100
AcDbEntity
  8
0
  6
PHANTOM
 62
     7
370
     0
100
AcDbLine
 10
199.308715191
 20
134.8861945468
 30
0.0
 11
199.3028739358
 21
134.8894299614
 31
0.0
  0
SPLINE
  5
172
330
1F
100
AcDbEntity
  8
0
  6
PHANTOM
 62
     7
370
     0
100
AcDbSpline
210
0.0
220
0.0
230
1.0
 70
     8
 71
     3
 72
    11
 73
     7
 74
     0
 42
0.00000001
 43
0.00000001
 40
0.0
 40
0.0
 40
0.0
 40
0.0
 40
0.3549099619254011
 40
0.7091143315978135
 40
0.9891961123001247
 40
1.0
 40
1.0
 40
1.0
 40
1.0
 10
188.3627841140152
 20
102.5131508383182
 30
0.0
 10
188.3954525124149
 20
102.5477208042414
 30
0.0
 10
188.4607243615621
 20
102.6167920079519
 30
0.0
 10
188.5591608348463
 20
102.7482683472677
 30
0.0
 10
188.6189023498064
 20
102.8382799129748
 30
0.0
 10
188.6442925963012
 20
102.8789358198494
 30
0.0
 10
188.6452356244446
 20
102.880445835295
 30
0.0
  0
LINE
  5
173
330
1F
100
AcDbEntity
  8
0
  6
PHANTOM
 62
     7
370
     0
100
AcDbLine
 10
175.6861092414
 20
117.2428900051
 30
0.0
 11
191.9785732294
 21
117.2428900051
 31
0.0
  0
LINE
  5
174
330
1F
100
AcDbEntity
  8
0
  6
PHANTOM
 62
     7
370
     0
100
AcDbLine
 10
197.9972863461
 20
110.8535850096
 30
0.0
 11
198.0524802472
 21
98.4039172205
 31
0.0
  0
ELLIPSE
  5
175
330
1F
100
AcDbEntity
  8
0
  6
PHANTOM
 62
     7
370
     0
100
AcDbEllipse
 10
236.5381881959
 20
110.1937243019
 30
0.0
 11
78.27527386410139
 21
-14.86696516858488
 31
0.0
210
0.0
220
0.0
230
0.9999999999999998
 40
0.263265937
 41
4.202888534358914
 42
4.249046304524297
  0
ELLIPSE
  5
176
330
1F
100
AcDbEntity
  8
0
  6
PHANTOM
 62
     7
370
     0
100
AcDbEllipse
 10
194.6642089009
 20
101.0849336442
 30
0.0
 11
-1.130979878795955
 21
1.212724268314375
 31
0.0
210
0.0
220
0.0
230
1.0
 40
0.9906698644
 41
2.556323928165597
 42
7.841526763848593
  0
ELLIPSE
  5
177
330
1F
100
AcDbEntity
  8
0
  6
PHANTOM
 62
     7
370
     0
100
AcDbEllipse
 10
236.5381881959
 20
110.1937243019
 30
0.0
 11
78.27527386410139
 21
-14.86696516858488
 31
0.0
210
0.0
220
0.0
230
0.9999999999999998
 40
0.263265937
 41
4.122232991922486
 42
4.180227164138484
  0
SPLINE
  5
178
330
1F
100
AcDbEntity
  8
0
  6
PHANTOM
 62
     7
370
     0
100
AcDbSpline
210
0.0
220
0.0
230
1.0
 70
     8
 71
     3
 72
    12
 73
     8
 74
     0
 42
0.00000001
 43
0.00000001
 40
0.0
 40
0.0
 40
0.0
 40
0.0
 40
0.2217206748162473
 40
0.4437483263337133
 40
0.6584761061283909
 40
0.8675768119769142
 40
0.9999999999999999
 40
0.9999999999999999
 40
0.9999999999999999
 40
0.9999999999999999
 10
172.4759483600975
 20
98.6082102778581
 30
0.0
 10
172.4190963403105
 20
98.61358695594204
 30
0.0
 10
172.3053135879802
 20
98.62434775622806
 30
0.0
 10
172.1549229944519
 20
98.71038805994601
 30
0.0
 10
172.0451694514345
 20
98.83642826637657
 30
0.0
 10
171.9905293537843
 20
98.97154265398217
 30
0.0
 10
171.9852401558244
 20
99.05880314858683
 30
0.0
 10
171.9831893111587
 20
99.09263771504435
 30
0.0
  0
LINE
  5
179
330
1F
100
AcDbEntity
  8
0
  6
PHANTOM
 62
     7
370
     0
100
AcDbLine
 10
171.7087173725
 20
98.6082102779
 30
0.0
 11
171.7087173725
 21
98.2428896847
 31
0.0
  0
LINE
  5
17A
330
1F
100
AcDbEntity
  8
0
  6
PHANTOM
 62
     7
370
     0
100
AcDbLine
 10
171.7087173725
 20
98.6082102779
 30
0.0
 11
172.4759483601
 21
98.6082102779
 31
0.0
  0
SPLINE
  5
17B
330
1F
100
AcDbEntity
  8
0
  6
PHANTOM
 62
     7
370
     0
100
AcDbSpline
210
0.0
220
0.0
230
1.0
 70
     8
 71
     3
 72
     9
 73
     5
 74
     0
 42
0.00000001
 43
0.00000001
 40
0.0
 40
0.0
 40
0.0
 40
0.0
 40
0.6116519365115803
 40
0.9999999999999999
 40
0.9999999999999999
 40
0.9999999999999999
 40
0.9999999999999999
 10
188.3087152506233
 20
102.3842893216041
 30
0.0
 10
188.311207733704
 20
102.4119046758177
 30
0.0
 10
188.3152827360573
 20
102.4570534811515
 30
0.0
 10
188.3494970510458
 20
102.4974593121113
 30
0.0
 10
188.3627841140152
 20
102.5131508383182
 30
0.0
  0
LINE
  5
17C
330
1F
100
AcDbEntity
  8
0
  6
PHANTOM
 62
     7
370
     0
100
AcDbLine
 10
188.3087152506
 20
102.3842893216
 30
0.0
 11
188.3087152506
 21
98.2430480096
 31
0.0
  0
SPLINE
  5
17D
330
1F
100
AcDbEntity
  8
0
  6
PHANTOM
 62
     7
370
     0
100
AcDbSpline
210
0.0
220
0.0
230
1.0
 70
     8
 71
     3
 72
     9
 73
     5
 74
     0
 42
0.00000001
 43
0.00000001
 40
0.0
 40
0.0
 40
0.0
 40
0.0
 40
0.5754786209901461
 40
1.0
 40
1.0
 40
1.0
 40
1.0
 10
188.0378791953445
 20
98.2429865422872
 30
0.0
 10
188.0874149426193
 20
98.24297646693088
 30
0.0
 10
188.1734924187722
 20
98.24295895914527
 30
0.0
 10
188.2684175170147
 20
98.24302147167275
 30
0.0
 10
188.3087152506233
 20
98.24304800957712
 30
0.0
  0
SPLINE
  5
17E
330
1F
100
AcDbEntity
  8
0
  6
PHANTOM
 62
     7
370
     0
100
AcDbSpline
210
0.0
220
0.0
230
1.0
 70
     8
 71
     3
 72
    17
 73
    13
 74
     0
 42
0.00000001
 43
0.00000001
 40
0.0
 40
0.0
 40
0.0
 40
0.0
 40
0.0422366990630388
 40
0.1438809154068924
 40
0.2464842934240026
 40
0.3519737658462007
 40
0.4607976401889011
 40
0.5719908653740462
 40
0.6838815299424338
 40
0.7946146547408767
 40
0.9024698031368497
 40
1.0
 40
1.0
 40
1.0
 40
1.0
 10
174.5012210573078
 20
98.24903827637705
 30
0.0
 10
174.4907396070058
 20
98.24752668030742
 30
0.0
 10
174.4550341494845
 20
98.2423773710326
 30
0.0
 10
174.7573274729468
 20
98.28612231548098
 30
0.0
 10
175.3647975284391
 20
98.36065409436785
 30
0.0
 10
176.2522676051816
 20
98.43952207517096
 30
0.0
 10
177.3136864290552
 20
98.48553592326398
 30
0.0
 10
178.4411288554548
 20
98.47708357273581
 30
0.0
 10
179.4957167827651
 20
98.41499642111421
 30
0.0
 10
180.328907981022
 20
98.32944314439773
 30
0.0
 10
180.8658804783425
 20
98.2567600953187
 30
0.0
 10
180.9214915353255
 20
98.24840126581186
 30
0.0
 10
180.9478992487312
 20
98.244431954923
 30
0.0
  0
LINE
  5
17F
330
1F
100
AcDbEntity
  8
0
  6
PHANTOM
 62
     7
370
     0
100
AcDbLine
 10
171.9831893112
 20
102.3388761702
 30
0.0
 11
171.9831893112
 21
99.092637715
 31
0.0
  0
LINE
  5
180
330
1F
100
AcDbEntity
  8
0
  6
PHANTOM
 62
     7
370
     0
100
AcDbLine
 10
173.7351374592
 20
117.2428900051
 30
0.0
 11
175.6861092414
 21
117.2428900051
 31
0.0
  0
SPLINE
  5
181
330
1F
100
AcDbEntity
  8
0
  6
PHANTOM
 62
     7
370
     0
100
AcDbSpline
210
0.0
220
0.0
230
1.0
 70
     8
 71
     3
 72
    14
 73
    10
 74
     0
 42
0.00000001
 43
0.00000001
 40
0.0
 40
0.0
 40
0.0
 40
0.0
 40
0.344646448754276
 40
0.4807559553394241
 40
0.618057220407582
 40
0.7128738322801692
 40
0.8077872516782287
 40
0.9291323376215479
 40
1.0
 40
1.0
 40
1.0
 40
1.0
 10
189.726799156797
 20
101.3454679074911
 30
0.0
 10
189.6342834640097
 20
101.3771849951023
 30
0.0
 10
189.5052310091517
 20
101.4214279542572
 30
0.0
 10
189.3281902050173
 20
101.4431976613791
 30
0.0
 10
189.2247600076873
 20
101.4382334856772
 30
0.0
 10
189.1485986251697
 20
101.4125039489162
 30
0.0
 10
189.0997162784845
 20
101.3723313410392
 30
0.0
 10
189.0802320123374
 20
101.3257924902745
 30
0.0
 10
189.0803777537323
 20
101.2931217619873
 30
0.0
 10
189.0804314876915
 20
101.2810762646821
 30
0.0
  0
ELLIPSE
  5
182
330
1F
100
AcDbEntity
  8
0
  6
PHANTOM
 62
     7
370
     0
100
AcDbEllipse
 10
199.2399112921
 20
116.770416854
 30
0.0
 11
-0.1486535010427019
 21
21.34493535773279
 31
0.0
210
0.0
220
0.0
230
1.0
 40
0.1207670923
 41
2.606129861294313
 42
2.930651184498154
  0
ELLIPSE
  5
183
330
1F
100
AcDbEntity
  8
0
  6
PHANTOM
 62
     7
370
     0
100
AcDbEllipse
 10
-322.3915192789
 20
208.7481120492
 30
0.0
 11
3412.63103163123
 21
-601.0059963031339
 31
0.0
210
0.0
220
0.0
230
0.9999999999999998
 40
0.0060567645
 41
4.864219769898413
 42
4.866793342563349
  0
LINE
  5
184
330
1F
100
AcDbEntity
  8
0
  6
PHANTOM
 62
     7
370
     0
100
AcDbLine
 10
190.1642078425
 20
97.0940213326
 30
0.0
 11
190.1642078425
 21
97.4153723243
 31
0.0
  0
ELLIPSE
  5
185
330
1F
100
AcDbEntity
  8
0
  6
PHANTOM
 62
     7
370
     0
100
AcDbEllipse
 10
190.0839529778
 20
118.384859339
 30
0.0
 11
0.03697060087799287
 21
21.31269535512332
 31
0.0
210
0.0
220
0.0
230
1.0
 40
0.1208815913
 41
3.126565167787814
 42
3.187095171165838
  0
ELLIPSE
  5
186
330
1F
100
AcDbEntity
  8
0
  6
PHANTOM
 62
     7
370
     0
100
AcDbEllipse
 10
290.2457528921
 20
100.7236315778
 30
0.0
 11
3412.631031631229
 21
-601.0059963031337
 31
0.0
210
0.0
220
0.0
230
0.9999999999999998
 40
0.0060567645
 41
4.683889982145786
 42
4.684078948955446
  0
SPLINE
  5
187
330
1F
100
AcDbEntity
  8
0
  6
PHANTOM
 62
     7
370
     0
100
AcDbSpline
210
0.0
220
0.0
230
1.0
 70
     8
 71
     3
 72
    13
 73
     9
 74
     0
 42
0.00000001
 43
0.00000001
 40
0.0
 40
0.0
 40
0.0
 40
0.0
 40
0.2346109539034953
 40
0.4744738575051332
 40
0.6039931233476299
 40
0.7335110698574032
 40
0.8667558144908324
 40
1.0
 40
1.0
 40
1.0
 40
1.0
 10
189.0804314876915
 20
101.2810762646821
 30
0.0
 10
189.1179628818055
 20
100.7063938414535
 30
0.0
 10
189.1938658396451
 20
99.54416427947895
 30
0.0
 10
189.2683331091316
 20
98.49367046997668
 30
0.0
 10
189.3149354368174
 20
97.84778440894274
 30
0.0
 10
189.3419382414574
 20
97.48064279986384
 30
0.0
 10
189.3596578749814
 20
97.24192366263976
 30
0.0
 10
189.362339433699
 20
97.20615655570603
 30
0.0
 10
189.3636802102447
 20
97.18827303976092
 30
0.0
  0
SPLINE
  5
188
330
1F
100
AcDbEntity
  8
0
  6
PHANTOM
 62
     7
370
     0
100
AcDbSpline
210
0.0
220
0.0
230
1.0
 70
     8
 71
     3
 72
    13
 73
     9
 74
     0
 42
0.00000001
 43
0.00000001
 40
0.0
 40
0.0
 40
0.0
 40
0.0
 40
0.1007620953438552
 40
0.2605042355252428
 40
0.4209788656967873
 40
0.5705058473713491
 40
0.8168294701947004
 40
1.0
 40
1.0
 40
1.0
 40
1.0
 10
194.9432635570884
 20
99.4551010105041
 30
0.0
 10
194.8888669039601
 20
99.4463293720085
 30
0.0
 10
194.7482330823828
 20
99.4236517076269
 30
0.0
 10
194.4921547931561
 20
99.42534567703507
 30
0.0
 10
194.2016255473743
 20
99.48307228543318
 30
0.0
 10
193.8961544265641
 20
99.60653401705865
 30
0.0
 10
193.6418424989847
 20
99.77705644452874
 30
0.0
 10
193.5065172278638
 20
99.91911240810472
 30
0.0
 10
193.4488037492157
 20
99.9796963903335
 30
0.0
  0
LINE
  5
189
330
1F
100
AcDbEntity
  8
0
  6
PHANTOM
 62
     7
370
     0
100
AcDbLine
 10
188.4087169434
 20
98.1430817071
 30
0.0
 11
189.3636802102
 21
97.1882730398
 31
0.0
  0
LINE
  5
18A
330
1F
100
AcDbEntity
  8
0
  6
PHANTOM
 62
     7
370
     0
100
AcDbLine
 10
188.3087152506
 20
98.2430480096
 30
0.0
 11
188.4087169434
 21
98.1430817071
 31
0.0
  0
ARC
  5
18B
330
1F
100
AcDbEntity
  8
0
  6
PHANTOM
 62
     7
370
     0
100
AcDbCircle
 10
191.9785695668
 20
116.7428899083
 30
0.0
 40
0.5
100
AcDbArc
 50
45.0
 51
90.0
  0
LINE
  5
18C
330
1F
100
AcDbEntity
  8
0
  6
PHANTOM
 62
     7
370
     0
100
AcDbLine
 10
192.3321256305
 20
117.0964432555
 30
0.0
 11
198.0486431981
 21
111.3799228939
 31
0.0
  0
ELLIPSE
  5
18D
330
1F
100
AcDbEntity
  8
0
  6
PHANTOM
 62
     7
370
     0
100
AcDbEllipse
 10
198.0638735621
 20
110.657585913
 30
0.0
 11
-0.02113708561762451
 21
0.7252441122828657
 31
0.0
210
0.0
220
0.0
230
1.0
 40
0.0871723144
 41
6.19104089405784
 42
7.577787179486024
  0
LINE
  5
18E
330
1F
100
AcDbEntity
  8
0
  6
PHANTOM
 62
     7
370
     0
100
AcDbLine
 10
198.845534947
 20
95.8948503855
 30
0.0
 11
198.845534947
 21
104.6545324522
 31
0.0
  0
LINE
  5
18F
330
1F
100
AcDbEntity
  8
0
  6
PHANTOM
 62
     7
370
     0
100
AcDbLine
 10
199.308715191
 20
110.1198509011
 30
0.0
 11
199.308715191
 21
104.5995853516
 31
0.0
  0
LINE
  5
190
330
1F
100
AcDbEntity
  8
0
  6
PHANTOM
 62
     7
370
     0
100
AcDbLine
 10
199.308715191
 20
104.5995853516
 30
0.0
 11
199.1526851322
 21
104.5131576854
 31
0.0
  0
LINE
  5
191
330
1F
100
AcDbEntity
  8
0
  6
PHANTOM
 62
     7
370
     0
100
AcDbLine
 10
199.1526851322
 20
104.5131576854
 30
0.0
 11
198.845534947
 21
104.6545324522
 31
0.0
  0
LINE
  5
192
330
1F
100
AcDbEntity
  8
0
  6
PHANTOM
 62
     7
370
     0
100
AcDbLine
 10
199.308715191
 20
110.1198509011
 30
0.0
 11
198.0486431981
 21
111.3799228939
 31
0.0
  0
LINE
  5
193
330
1F
100
AcDbEntity
  8
0
  6
PHANTOM
 62
     7
370
     0
100
AcDbLine
 10
171.7087173725
 20
98.6082102779
 30
0.0
 11
171.7087173725
 21
99.1636007699
 31
0.0
  0
LINE
  5
194
330
1F
100
AcDbEntity
  8
0
  6
PHANTOM
 62
     7
370
     0
100
AcDbLine
 10
198.845534947
 20
104.5672833595
 30
0.0
 11
199.1526851322
 21
104.5131576854
 31
0.0
  0
LINE
  5
195
330
1F
100
AcDbEntity
  8
0
  6
Continuous
 62
     7
370
    15
100
AcDbLine
 10
180.5087173249
 20
117.2428900051
 30
0.0
 11
180.5087173249
 21
121.9928898524
 31
0.0
  0
LINE
  5
196
330
1F
100
AcDbEntity
  8
0
  6
Continuous
 62
     7
370
    15
100
AcDbLine
 10
180.7087169851
 20
117.2428900051
 30
0.0
 11
180.7087169851
 21
121.7928899593
 31
0.0
  0
ARC
  5
197
330
1F
100
AcDbEntity
  8
0
  6
Continuous
 62
     7
370
    15
100
AcDbCircle
 10
162.5414425625
 20
125.4928900186
 30
0.0
 40
7.002444949400191
100
AcDbArc
 50
91.514071317
 51
268.485928683
  0
ARC
  5
198
330
1F
100
AcDbEntity
  8
0
  6
Continuous
 62
     7
370
    15
100
AcDbCircle
 10
162.6837933554
 20
125.4928900186
 30
0.0
 40
7.002444949400191
100
AcDbArc
 50
91.514071317
 51
268.485928683
  0
LWPOLYLINE
  5
199
330
1F
100
AcDbEntity
  8
0
  6
Continuous
 62
     7
370
    15
100
AcDbPolyline
 90
       34
 70
   128
 43
0.0
 10
163.379851159
 20
128.9827046591
 10
162.7465592588
 20
128.869143841
 10
162.1454724933
 20
128.6335555512
 10
161.5983167554
 20
128.2844558033
 10
161.1248621608
 20
127.8344612244
 10
160.7422226931
 20
127.2998368974
 10
160.4642340804
 20
126.6999045062
 10
160.3009322549
 20
126.056347103
 10
160.2582292522
 20
125.3924254003
 10
160.3376636173
 20
124.7321344587
 10
160.5363668765
 20
124.0993389535
 10
160.8471529449
 20
123.5169103044
 10
161.2587937976
 20
123.0058989628
 10
161.7564106251
 20
122.5847735211
 10
162.3220177258
 20
122.2687552824
 10
162.9351707066
 20
122.0692655212
 10
163.5737115408
 20
121.993514537
 10
164.214562055
 20
122.0442399523
 10
164.8345583941
 20
122.2196086916
 10
165.4112892116
 20
122.5132821734
 10
165.923918959
 20
122.91464658
 10
166.3539105917
 20
123.4091953981
 10
166.6857259239
 20
123.979054452
 10
166.9073769714
 20
124.6036273102
 10
167.0108469094
 20
125.2603405762
 10
166.9923992719
 20
125.9254585627
 10
166.8526971604
 20
126.5749429028
 10
166.5967920686
 20
127.185318214
 10
166.2339376177
 20
127.7345256555
 10
165.7772393788
 20
128.202713621
 10
165.243211564
 20
128.5729618418
 10
164.6511474515
 20
128.8318890753
 10
164.0224562849
 20
128.9701355296
 10
163.379851159
 20
128.9827046591
  0
LWPOLYLINE
  5
19A
330
1F
100
AcDbEntity
  8
0
  6
Continuous
 62
     7
370
    15
100
AcDbPolyline
 90
       48
 70
   128
 43
0.0
 10
162.0816694464
 20
132.4725193578
 10
161.1876742805
 20
132.3391167122
 10
160.3188322748
 20
132.0835431713
 10
159.4906443621
 20
131.7103584904
 10
158.717888769
 20
131.2262234885
 10
158.0143639709
 20
130.6397771138
 10
157.3926167454
 20
129.9614837068
 10
156.863741007
 20
129.2034485984
 10
156.4371803666
 20
128.3791992489
 10
156.1205455924
 20
127.503442173
 10
155.9194842245
 20
126.5918077576
 10
155.8375837172
 20
125.6605629484
 10
155.8763081099
 20
124.7263257998
 10
156.0349682237
 20
123.8057683829
 10
156.3107253875
 20
122.9153171323
 10
156.6986659433
 20
122.0708629723
 10
157.1918645765
 20
121.2874750515
 10
157.7815221514
 20
120.5791328709
 10
158.4571109976
 20
119.9584766898
 10
159.2065835263
 20
119.4365823018
 10
160.0165547694
 20
119.0227628419
 10
160.8725780512
 20
118.724402974
 10
161.7593759562
 20
118.5468268838
 10
162.6611234511
 20
118.4932034836
 10
163.5617310072
 20
118.5644896493
 10
164.4451239969
 20
118.7594133104
 10
165.2955369915
 20
119.0744959774
 10
166.097800609
 20
119.5041150319
 10
166.8375911082
 20
120.0406039158
 10
167.5017135109
 20
120.6743890095
 10
168.078310218
 20
121.3941603807
 10
168.557095703
 20
122.187073636
 10
168.9295278753
 20
123.0389793079
 10
169.1889570917
 20
123.9346750687
 10
169.3307528163
 20
124.858176862
 10
169.3523893024
 20
125.7930054005
 10
169.2534753944
 20
126.7224788341
 10
169.0357806052
 20
127.6300098422
 10
168.7031866874
 20
128.4994031909
 10
168.2616317536
 20
129.3151458401
 10
167.7189910675
 20
130.0626802865
 10
167.0849541093
 20
130.7286671969
 10
166.370827135
 20
131.3012210327
 10
165.5893618132
 20
131.7701251853
 10
164.7544981803
 20
132.1270117211
 10
163.8811373974
 20
132.3655122566
 10
162.9848623539
 20
132.4813706476
 10
162.0816694464
 20
132.4725193578
  0
LINE
  5
19B
330
1F
100
AcDbEntity
  8
0
  6
Continuous
 62
     7
370
    15
100
AcDbLine
 10
160.857304361
 20
125.27282123
 30
0.0
 11
162.0633484687
 21
127.8755809787
 31
0.0
  0
LINE
  5
19C
330
1F
100
AcDbEntity
  8
0
  6
Continuous
 62
     7
370
    15
100
AcDbLine
 10
162.4315300847
 20
122.8901306774
 30
0.0
 11
160.857304361
 21
125.27282123
 31
0.0
  0
LINE
  5
19D
330
1F
100
AcDbEntity
  8
0
  6
Continuous
 62
     7
370
    15
100
AcDbLine
 10
165.2118036415
 20
123.1101994078
 30
0.0
 11
162.4315300847
 21
122.8901306774
 31
0.0
  0
LINE
  5
19E
330
1F
100
AcDbEntity
  8
0
  6
Continuous
 62
     7
370
    15
100
AcDbLine
 10
166.4178514744
 20
125.7129586908
 30
0.0
 11
165.2118036415
 21
123.1101994078
 31
0.0
  0
LINE
  5
19F
330
1F
100
AcDbEntity
  8
0
  6
Continuous
 62
     7
370
    15
100
AcDbLine
 10
164.8436220254
 20
128.0956487778
 30
0.0
 11
166.4178514744
 21
125.7129586908
 31
0.0
  0
LINE
  5
1A0
330
1F
100
AcDbEntity
  8
0
  6
Continuous
 62
     7
370
    15
100
AcDbLine
 10
162.0633484687
 20
127.8755809787
 30
0.0
 11
164.8436220254
 21
128.0956487778
 31
0.0
  0
LINE
  5
1A1
330
1F
100
AcDbEntity
  8
0
  6
Continuous
 62
     7
370
    15
100
AcDbLine
 10
164.5388746525
 20
123.1101994078
 30
0.0
 11
165.2118036415
 21
123.1101994078
 31
0.0
  0
LINE
  5
1A2
330
1F
100
AcDbEntity
  8
0
  6
Continuous
 62
     7
370
    15
100
AcDbLine
 10
163.1487378742
 20
123.0001650426
 30
0.0
 11
162.3980881537
 21
122.9407482921
 31
0.0
  0
LINE
  5
1A3
330
1F
100
AcDbEntity
  8
0
  6
Continuous
 62
     7
370
    15
100
AcDbLine
 10
164.5388746525
 20
123.1101994078
 30
0.0
 11
163.1487378742
 21
123.0001650426
 31
0.0
  0
LINE
  5
1A4
330
1F
100
AcDbEntity
  8
0
  6
Continuous
 62
     7
370
    15
100
AcDbLine
 10
165.7449224855
 20
125.7129586908
 30
0.0
 11
166.4178514744
 21
125.7129586908
 31
0.0
  0
LINE
  5
1A5
330
1F
100
AcDbEntity
  8
0
  6
Continuous
 62
     7
370
    15
100
AcDbLine
 10
164.9578058983
 20
126.9043037343
 30
0.0
 11
165.7449224855
 21
125.7129586908
 31
0.0
  0
LINE
  5
1A6
330
1F
100
AcDbEntity
  8
0
  6
Continuous
 62
     7
370
    15
100
AcDbLine
 10
164.2041349675
 20
128.0450313959
 30
0.0
 11
164.9578058983
 21
126.9043037343
 31
0.0
  0
LINE
  5
1A7
330
1F
100
AcDbEntity
  8
0
  6
Continuous
 62
     7
370
    15
100
AcDbLine
 10
165.141898569
 20
124.4115788165
 30
0.0
 11
164.5388746525
 21
123.1101994078
 31
0.0
  0
LINE
  5
1A8
330
1F
100
AcDbEntity
  8
0
  6
Continuous
 62
     7
370
    15
100
AcDbLine
 10
165.7449224855
 20
125.7129586908
 30
0.0
 11
165.141898569
 21
124.4115788165
 31
0.0
  0
ARC
  5
1A9
330
1F
100
AcDbEntity
  8
0
  6
Continuous
 62
     7
370
    15
100
AcDbCircle
 10
162.9472736887
 20
125.5958515252
 30
0.0
 40
2.398809485834729
100
AcDbArc
 50
33.0560352612
 51
82.0721441299
  0
ARC
  5
1AA
330
1F
100
AcDbEntity
  8
0
  6
Continuous
 62
     7
370
    15
100
AcDbCircle
 10
162.8063087645
 20
125.4922511481
 30
0.0
 40
2.573486433485306
100
AcDbArc
 50
335.1701219449
 51
33.2773560107
  0
ARC
  5
1AB
330
1F
100
AcDbEntity
  8
0
  6
Continuous
 62
     7
370
    15
100
AcDbCircle
 10
162.9396023271
 20
125.4085515933
 30
0.0
 40
2.417449783313315
100
AcDbArc
 50
274.9629081673
 51
335.6438826138
  0
ARC
  5
1AC
330
1F
100
AcDbEntity
  8
0
  6
Continuous
 62
     7
370
    15
100
AcDbCircle
 10
162.9647413263
 20
125.3298034975
 30
0.0
 40
2.33689324965698
100
AcDbArc
 50
253.4686995315
 51
274.5158881412
  0
LWPOLYLINE
  5
1AD
330
1F
100
AcDbEntity
  8
0
  6
Continuous
 62
     7
370
    15
100
AcDbPolyline
 90
        3
 70
   128
 43
0.0
 10
162.2908035184
 20
127.8935843754
 10
162.1636481847
 20
127.8513498279
 10
162.0267661179
 20
127.7966318327
  0
ARC
  5
1AE
330
1F
100
AcDbEntity
  8
0
  6
Continuous
 62
     7
370
    15
100
AcDbCircle
 10
162.6921209707
 20
125.4928900186
 30
0.0
 40
7.002669933604325
100
AcDbArc
 50
91.5821840148
 51
268.4178159852
  0
ELLIPSE
  5
1AF
330
1F
100
AcDbEntity
  8
0
  6
Continuous
 62
     7
370
    15
100
AcDbEllipse
 10
153.0356486374
 20
119.4928899083
 30
0.0
 11
0.0
 21
20.99999999999999
 31
0.0
210
0.0
220
0.0
230
1.0
 40
0.2679491924
 41
0.8772257260923492
 42
2.264366927497445
  0
LINE
  5
1B0
330
1F
100
AcDbEntity
  8
0
  6
Continuous
 62
     7
370
    15
100
AcDbLine
 10
148.7087154652
 20
132.9179150659
 30
0.0
 11
148.7087154652
 21
106.0678647506
 31
0.0
  0
LWPOLYLINE
  5
1B1
330
1F
100
AcDbEntity
  8
0
  6
Continuous
 62
     7
370
    15
100
AcDbPolyline
 90
       24
 70
   128
 43
0.0
 10
147.6515376831
 20
119.4928899083
 10
147.6673738922
 20
119.0477252264
 10
147.7137071903
 20
118.6355763954
 10
147.7871028597
 20
118.2870105283
 10
147.8821163888
 20
118.0278793351
 10
147.9917032535
 20
117.8774011229
 10
148.1077311452
 20
117.8467363958
 10
148.2216002311
 20
117.9381594436
 10
148.3248615528
 20
118.1448895392
 10
148.4098577763
 20
118.451594785
 10
148.4702857102
 20
118.8355280926
 10
148.5016619678
 20
119.2682149437
 10
148.5016619678
 20
119.7175648728
 10
148.4702857102
 20
120.1502517239
 10
148.4098577763
 20
120.5341850315
 10
148.3248615528
 20
120.8408902773
 10
148.2216002311
 20
121.047620373
 10
148.1077311452
 20
121.1390434207
 10
147.9917032535
 20
121.1083786936
 10
147.8821163888
 20
120.9579004814
 10
147.7871028597
 20
120.6987692883
 10
147.7137071903
 20
120.3502034211
 10
147.6673738922
 20
119.9380545901
 10
147.6515376831
 20
119.4928899083
  0
ELLIPSE
  5
1B2
330
1F
100
AcDbEntity
  8
0
  6
Continuous
 62
     7
370
    15
100
AcDbEllipse
 10
152.5996891039
 20
119.4928899083
 30
0.0
 11
0.0
 21
20.99999999999999
 31
0.0
210
0.0
220
0.0
230
1.0
 40
0.2679491924
 41
0.6029676588085333
 42
0.6141045486206798
  0
ELLIPSE
  5
1B3
330
1F
100
AcDbEntity
  8
0
  6
Continuous
 62
     7
370
    15
100
AcDbEllipse
 10
194.5179690776
 20
119.4928899083
 30
0.0
 11
78.37306695896021
 21
0.0
 31
0.0
210
0.0
220
0.0
230
1.0
 40
0.2679491924
 41
2.184900875415579
 42
2.19506310374874
  0
LINE
  5
1B4
330
1F
100
AcDbEntity
  8
0
  6
Continuous
 62
     7
370
    15
100
AcDbLine
 10
148.7087154652
 20
136.5321200016
 30
0.0
 11
148.7087154652
 21
132.9179150659
 31
0.0
  0
LINE
  5
1B5
330
1F
100
AcDbEntity
  8
0
  6
Continuous
 62
     7
370
    15
100
AcDbLine
 10
148.7087154652
 20
106.0678647506
 30
0.0
 11
148.7087154652
 21
102.4536598149
 31
0.0
  0
ELLIPSE
  5
1B6
330
1F
100
AcDbEntity
  8
0
  6
Continuous
 62
     7
370
    15
100
AcDbEllipse
 10
194.5179690776
 20
119.4928899083
 30
0.0
 11
78.37306695896021
 21
0.0
 31
0.0
210
0.0
220
0.0
230
1.0
 40
0.2679491924
 41
4.088122203430867
 42
4.098284431764027
  0
ELLIPSE
  5
1B7
330
1F
100
AcDbEntity
  8
0
  6
Continuous
 62
     7
370
    15
100
AcDbEllipse
 10
152.5996891039
 20
119.4928899083
 30
0.0
 11
0.0
 21
20.99999999999999
 31
0.0
210
0.0
220
0.0
230
1.0
 40
0.2679491924
 41
2.527488104969114
 42
2.633246787148743
  0
SPLINE
  5
1B8
330
1F
100
AcDbEntity
  8
0
  6
Continuous
 62
     7
370
    15
100
AcDbSpline
210
0.0
220
0.0
230
1.0
 70
     8
 71
     3
 72
    12
 73
     8
 74
     0
 42
0.00000001
 43
0.00000001
 40
0.0
 40
0.0
 40
0.0
 40
0.0
 40
0.4999999999999983
 40
0.4999999999999983
 40
0.7499999999999991
 40
0.7499999999999991
 40
1.0
 40
1.0
 40
1.0
 40
1.0
 10
149.8608754208849
 20
101.1483226113716
 30
0.0
 10
149.8776542495078
 20
101.1134317452853
 30
0.0
 10
149.9275634942143
 20
101.0824600725846
 30
0.0
 10
150.0310682501467
 20
101.0654588482294
 30
0.0
 10
150.0696388939556
 20
101.0650641531522
 30
0.0
 10
150.1395296747224
 20
101.0750478902234
 30
0.0
 10
150.1711581896454
 20
101.0852549767443
 30
0.0
 10
150.19548194238
 20
101.0986527489397
 30
0.0
  0
ARC
  5
1B9
330
1F
100
AcDbEntity
  8
0
  6
Continuous
 62
     7
370
    15
100
AcDbCircle
 10
140.0637476719
 20
119.4928899083
 30
0.0
 40
20.99999999999967
100
AcDbArc
 50
298.8464234679
 51
303.2283828075
  0
ELLIPSE
  5
1BA
330
1F
100
AcDbEntity
  8
0
  6
Continuous
 62
     7
370
    15
100
AcDbEllipse
 10
194.5179690776
 20
119.4928899083
 30
0.0
 11
78.37306695894321
 21
0.0
 31
0.0
210
0.0
220
0.0
230
1.0
 40
0.2679491924
 41
4.132444295279937
 42
4.13917639284724
  0
ELLIPSE
  5
1BB
330
1F
100
AcDbEntity
  8
0
  6
Continuous
 62
     7
370
    15
100
AcDbEllipse
 10
155.0652716524
 20
119.4928899083
 30
0.0
 11
0.0
 21
20.99999999999999
 31
0.0
210
0.0
220
0.0
230
1.0
 40
0.2679491924
 41
2.568380066052327
 42
2.671644597184933
  0
SPLINE
  5
1BC
330
1F
100
AcDbEntity
  8
0
  6
Continuous
 62
     7
370
    15
100
AcDbSpline
210
0.0
220
0.0
230
1.0
 70
     8
 71
     3
 72
    12
 73
     8
 74
     0
 42
0.00000001
 43
0.00000001
 40
0.0
 40
0.0
 40
0.0
 40
0.0
 40
0.499999999999987
 40
0.499999999999987
 40
0.7499999999999934
 40
0.7499999999999934
 40
1.0
 40
1.0
 40
1.0
 40
1.0
 10
152.5171714431798
 20
100.7694618660348
 30
0.0
 10
152.5341576168144
 20
100.7372643927294
 30
0.0
 10
152.5848312770118
 20
100.709117828485
 30
0.0
 10
152.6882416900782
 20
100.6939103967923
 30
0.0
 10
152.7263383795238
 20
100.6936279281797
 30
0.0
 10
152.795771912531
 20
100.7026970375422
 30
0.0
 10
152.8273650963618
 20
100.7119413497528
 30
0.0
 10
152.851777964675
 20
100.7241941338735
 30
0.0
  0
ARC
  5
1BD
330
1F
100
AcDbEntity
  8
0
  6
Continuous
 62
     7
370
    15
100
AcDbCircle
 10
143.4317960683
 20
119.4928899083
 30
0.0
 40
20.99999999999972
100
AcDbArc
 50
296.6520099066
 51
300.9362944599
  0
ELLIPSE
  5
1BE
330
1F
100
AcDbEntity
  8
0
  6
Continuous
 62
     7
370
    15
100
AcDbEllipse
 10
194.5179690776
 20
119.4928899083
 30
0.0
 11
78.37306695894324
 21
0.0
 31
0.0
210
0.0
220
0.0
230
1.0
 40
0.2679491924
 41
4.172448783692309
 42
4.179015676588159
  0
ELLIPSE
  5
1BF
330
1F
100
AcDbEntity
  8
0
  6
Continuous
 62
     7
370
    15
100
AcDbEllipse
 10
157.5308542009
 20
119.4928899083
 30
0.0
 11
0.0
 21
20.99999999999999
 31
0.0
210
0.0
220
0.0
230
1.0
 40
0.2679491924
 41
2.608219349793242
 42
2.709307318525746
  0
SPLINE
  5
1C0
330
1F
100
AcDbEntity
  8
0
  6
Continuous
 62
     7
370
    15
100
AcDbSpline
210
0.0
220
0.0
230
1.0
 70
     8
 71
     3
 72
    12
 73
     8
 74
     0
 42
0.00000001
 43
0.00000001
 40
0.0
 40
0.0
 40
0.0
 40
0.0
 40
0.4999999999999886
 40
0.4999999999999886
 40
0.7499999999999942
 40
0.7499999999999942
 40
1.0
 40
1.0
 40
1.0
 40
1.0
 10
155.1734674654747
 20
100.4246654730688
 30
0.0
 10
155.1906423992274
 20
100.3950914269251
 30
0.0
 10
155.2419832729716
 20
100.3696104442607
 30
0.0
 10
155.3453111537785
 20
100.3560300110214
 30
0.0
 10
155.3829821949941
 20
100.3558333922609
 30
0.0
 10
155.4520253076643
 20
100.364045400597
 30
0.0
 10
155.4835812529926
 20
100.3723920103901
 30
0.0
 10
155.5080739869699
 20
100.3835534837331
 30
0.0
  0
ARC
  5
1C1
330
1F
100
AcDbEntity
  8
0
  6
Continuous
 62
     7
370
    15
100
AcDbCircle
 10
146.7998444646
 20
119.4928899083
 30
0.0
 40
20.99999999999975
100
AcDbArc
 50
294.4990148301
 51
298.6979247359
  0
ELLIPSE
  5
1C2
330
1F
100
AcDbEntity
  8
0
  6
Continuous
 62
     7
370
    15
100
AcDbEllipse
 10
194.5179690776
 20
119.4928899083
 30
0.0
 11
78.37306695894321
 21
0.0
 31
0.0
210
0.0
220
0.0
230
1.0
 40
0.2679491924
 41
4.21151570525442
 42
4.217938522630464
  0
ELLIPSE
  5
1C3
330
1F
100
AcDbEntity
  8
0
  6
Continuous
 62
     7
370
    15
100
AcDbEllipse
 10
159.9964367493
 20
119.4928899083
 30
0.0
 11
0.0
 21
20.99999999999999
 31
0.0
210
0.0
220
0.0
230
1.0
 40
0.2679491924
 41
2.64714219583555
 42
2.746326284268769
  0
SPLINE
  5
1C4
330
1F
100
AcDbEntity
  8
0
  6
Continuous
 62
     7
370
    15
100
AcDbSpline
210
0.0
220
0.0
230
1.0
 70
     8
 71
     3
 72
    10
 73
     6
 74
     0
 42
0.00000001
 43
0.00000001
 40
0.0
 40
0.0
 40
0.0
 40
0.0
 40
0.5
 40
0.5
 40
1.0
 40
1.0
 40
1.0
 40
1.0
 10
157.8297634877696
 20
100.1121152672562
 30
0.0
 10
157.847109589742
 20
100.0851055969861
 30
0.0
 10
157.8990349208707
 20
100.0621506205055
 30
0.0
 10
158.0367045574191
 20
100.0460300843167
 30
0.0
 10
158.1152419442362
 20
100.0547195873929
 30
0.0
 10
158.1643700092648
 20
100.0749509543921
 30
0.0
  0
ARC
  5
1C5
330
1F
100
AcDbEntity
  8
0
  6
Continuous
 62
     7
370
    15
100
AcDbCircle
 10
150.1678928609
 20
119.4928899083
 30
0.0
 40
20.99999999999979
100
AcDbArc
 50
292.3822926716
 51
296.5064628145
  0
ELLIPSE
  5
1C6
330
1F
100
AcDbEntity
  8
0
  6
Continuous
 62
     7
370
    15
100
AcDbEllipse
 10
194.5179690776
 20
119.4928899083
 30
0.0
 11
78.37306695894327
 21
0.0
 31
0.0
210
0.0
220
0.0
230
1.0
 40
0.2679491924
 41
4.249763931213529
 42
4.256060743320535
  0
ELLIPSE
  5
1C7
330
1F
100
AcDbEntity
  8
0
  6
Continuous
 62
     7
370
    15
100
AcDbEllipse
 10
162.4620192978
 20
119.4928899083
 30
0.0
 11
0.0
 21
20.99999999999999
 31
0.0
210
0.0
220
0.0
230
1.0
 40
0.2679491924
 41
2.685264416525624
 42
2.782781803406139
  0
SPLINE
  5
1C8
330
1F
100
AcDbEntity
  8
0
  6
Continuous
 62
     7
370
    15
100
AcDbSpline
210
0.0
220
0.0
230
1.0
 70
     8
 71
     3
 72
    10
 73
     6
 74
     0
 42
0.00000001
 43
0.00000001
 40
0.0
 40
0.0
 40
0.0
 40
0.0
 40
0.5
 40
0.5
 40
1.0
 40
1.0
 40
1.0
 40
1.0
 10
160.4860595100645
 20
99.83027346547566
 30
0.0
 10
160.5035600260223
 20
99.8057781666129
 30
0.0
 10
160.5559975046334
 20
99.78522750810845
 30
0.0
 10
160.6935726023504
 20
99.77094246730836
 30
0.0
 10
160.7714112662338
 20
99.7786632774783
 30
0.0
 10
160.8206660315597
 20
99.796880541826
 30
0.0
  0
ARC
  5
1C9
330
1F
100
AcDbEntity
  8
0
  6
Continuous
 62
     7
370
    15
100
AcDbCircle
 10
153.5359412572
 20
119.4928899083
 30
0.0
 40
20.99999999999984
100
AcDbArc
 50
290.2973123221
 51
294.3560523968
  0
ELLIPSE
  5
1CA
330
1F
100
AcDbEntity
  8
0
  6
Continuous
 62
     7
370
    15
100
AcDbEllipse
 10
194.5179690776
 20
119.4928899083
 30
0.0
 11
78.37306695894324
 21
0.0
 31
0.0
210
0.0
220
0.0
230
1.0
 40
0.2679491924
 41
4.287295673272545
 42
4.29348213832071
  0
ELLIPSE
  5
1CB
330
1F
100
AcDbEntity
  8
0
  6
Continuous
 62
     7
370
    15
100
AcDbEllipse
 10
164.9276018463
 20
119.4928899083
 30
0.0
 11
0.0
 21
20.99999999999999
 31
0.0
210
0.0
220
0.0
230
1.0
 40
0.2679491924
 41
2.722685811525801
 42
2.818745297827939
  0
SPLINE
  5
1CC
330
1F
100
AcDbEntity
  8
0
  6
Continuous
 62
     7
370
    15
100
AcDbSpline
210
0.0
220
0.0
230
1.0
 70
     8
 71
     3
 72
    10
 73
     6
 74
     0
 42
0.00000001
 43
0.00000001
 40
0.0
 40
0.0
 40
0.0
 40
0.0
 40
0.5
 40
0.5
 40
1.0
 40
1.0
 40
1.0
 40
1.0
 10
163.1423555323595
 20
99.57783625071619
 30
0.0
 10
163.1599944177053
 20
99.55581292527208
 30
0.0
 10
163.2128795663056
 20
99.5375608848035
 30
0.0
 10
163.3503656213994
 20
99.52498553976034
 30
0.0
 10
163.4275953925653
 20
99.53179600247896
 30
0.0
 10
163.4769620538546
 20
99.5480651703665
 30
0.0
  0
ARC
  5
1CD
330
1F
100
AcDbEntity
  8
0
  6
Continuous
 62
     7
370
    15
100
AcDbCircle
 10
156.9039896536
 20
119.4928899083
 30
0.0
 40
20.99999999999987
100
AcDbArc
 50
288.2400384753
 51
292.2415934503
  0
ELLIPSE
  5
1CE
330
1F
100
AcDbEntity
  8
0
  6
Continuous
 62
     7
370
    15
100
AcDbEllipse
 10
194.5179690776
 20
119.4928899083
 30
0.0
 11
78.37306695894321
 21
0.0
 31
0.0
210
0.0
220
0.0
230
1.0
 40
0.2679491924
 41
4.324199943787633
 42
4.330289796031715
  0
ELLIPSE
  5
1CF
330
1F
100
AcDbEntity
  8
0
  6
Continuous
 62
     7
370
    15
100
AcDbEllipse
 10
167.3931843947
 20
119.4928899083
 30
0.0
 11
0.0
 21
20.99999999999999
 31
0.0
210
0.0
220
0.0
230
1.0
 40
0.2679491924
 41
2.759493469236808
 42
2.854280980043778
  0
SPLINE
  5
1D0
330
1F
100
AcDbEntity
  8
0
  6
Continuous
 62
     7
370
    15
100
AcDbSpline
210
0.0
220
0.0
230
1.0
 70
     8
 71
     3
 72
    10
 73
     6
 74
     0
 42
0.00000001
 43
0.00000001
 40
0.0
 40
0.0
 40
0.0
 40
0.0
 40
0.5
 40
0.5
 40
1.0
 40
1.0
 40
1.0
 40
1.0
 10
165.7986515546544
 20
99.35369786623
 30
0.0
 10
165.8164133668387
 20
99.33411060148192
 30
0.0
 10
165.8698026030172
 20
99.31805672831997
 30
0.0
 10
166.0069740989219
 20
99.3071045564576
 30
0.0
 10
166.0837933755319
 20
99.31304467851709
 30
0.0
 10
166.1332580761496
 20
99.32742190466435
 30
0.0
  0
ARC
  5
1D1
330
1F
100
AcDbEntity
  8
0
  6
Continuous
 62
     7
370
    15
100
AcDbCircle
 10
160.2720380499
 20
119.4928899083
 30
0.0
 40
20.99999999999988
100
AcDbArc
 50
286.2068382771
 51
290.1585914845
  0
ELLIPSE
  5
1D2
330
1F
100
AcDbEntity
  8
0
  6
Continuous
 62
     7
370
    15
100
AcDbEllipse
 10
194.5179690776
 20
119.4928899083
 30
0.0
 11
78.37306695894432
 21
0.0
 31
0.0
210
0.0
220
0.0
230
1.0
 40
0.2679491924
 41
4.360555186415182
 42
4.366560611425584
  0
ELLIPSE
  5
1D3
330
1F
100
AcDbEntity
  8
0
  6
Continuous
 62
     7
370
    15
100
AcDbEllipse
 10
169.8587669432
 20
119.4928899083
 30
0.0
 11
0.0
 21
20.99999999999999
 31
0.0
210
0.0
220
0.0
230
1.0
 40
0.2679491924
 41
2.795764284630673
 42
2.889447192299279
  0
SPLINE
  5
1D4
330
1F
100
AcDbEntity
  8
0
  6
Continuous
 62
     7
370
    15
100
AcDbSpline
210
0.0
220
0.0
230
1.0
 70
     8
 71
     3
 72
    10
 73
     6
 74
     0
 42
0.00000001
 43
0.00000001
 40
0.0
 40
0.0
 40
0.0
 40
0.0
 40
0.5
 40
0.5
 40
1.0
 40
1.0
 40
1.0
 40
1.0
 10
168.4549475769493
 20
99.15692258076857
 30
0.0
 10
168.472817383487
 20
99.13974107035175
 30
0.0
 10
168.5267217937893
 20
99.1258053346967
 30
0.0
 10
168.6634483092682
 20
99.1163928361599
 30
0.0
 10
168.7400044042409
 20
99.12150190777547
 30
0.0
 10
168.7895540984445
 20
99.13403476120145
 30
0.0
  0
ARC
  5
1D5
330
1F
100
AcDbEntity
  8
0
  6
Continuous
 62
     7
370
    15
100
AcDbCircle
 10
163.6400864462
 20
119.4928899083
 30
0.0
 40
20.99999999999991
100
AcDbArc
 50
284.1944066612
 51
288.1030408499
  0
ELLIPSE
  5
1D6
330
1F
100
AcDbEntity
  8
0
  6
Continuous
 62
     7
370
    15
100
AcDbEllipse
 10
194.5179690776
 20
119.4928899083
 30
0.0
 11
78.37306695894581
 21
0.0
 31
0.0
210
0.0
220
0.0
230
1.0
 40
0.2679491924
 41
4.3964313129304
 42
4.402363241207063
  0
ELLIPSE
  5
1D7
330
1F
100
AcDbEntity
  8
0
  6
Continuous
 62
     7
370
    15
100
AcDbEllipse
 10
172.3243494916
 20
119.4928899083
 30
0.0
 11
0.0
 21
20.99999999999999
 31
0.0
210
0.0
220
0.0
230
1.0
 40
0.2679491924
 41
2.831566914412154
 42
2.924297492954751
  0
SPLINE
  5
1D8
330
1F
100
AcDbEntity
  8
0
  6
Continuous
 62
     7
370
    15
100
AcDbSpline
210
0.0
220
0.0
230
1.0
 70
     8
 71
     3
 72
     8
 73
     4
 74
     0
 42
0.00000001
 43
0.00000001
 40
0.0
 40
0.0
 40
0.0
 40
0.0
 40
1.0
 40
1.0
 40
1.0
 40
1.0
 10
171.1112435992442
 20
98.98672265789472
 30
0.0
 10
171.1293020075026
 20
98.97184314276711
 30
0.0
 10
171.1838167350321
 20
98.95994996529545
 30
0.0
 10
171.2526649554815
 20
98.95601016205039
 30
0.0
  0
ELLIPSE
  5
1D9
330
1F
100
AcDbEntity
  8
0
  6
Continuous
 62
     7
370
    15
100
AcDbEllipse
 10
187.6212586779
 20
119.4928899083
 30
0.0
 11
78.37306695894598
 21
0.0
 31
0.0
210
0.0
220
0.0
230
1.0
 40
0.2679491924
 41
4.501985159789159
 42
4.504020745805473
  0
LINE
  5
1DA
330
1F
100
AcDbEntity
  8
0
  6
Continuous
 62
     7
370
    15
100
AcDbLine
 10
171.4087160195
 20
98.9471241507
 30
0.0
 11
171.4087160195
 21
98.4928901914
 31
0.0
  0
LINE
  5
1DB
330
1F
100
AcDbEntity
  8
0
  6
Continuous
 62
     7
370
    15
100
AcDbLine
 10
124.5087155963
 20
99.9928895059
 30
0.0
 11
124.5087155963
 21
138.9928903106
 31
0.0
  0
LINE
  5
1DC
330
1F
100
AcDbEntity
  8
0
  6
Continuous
 62
     7
370
    15
100
AcDbLine
 10
149.357299682
 20
136.6559747282
 30
0.0
 11
149.357299682
 21
102.3298050883
 31
0.0
  0
LINE
  5
1DD
330
1F
100
AcDbEntity
  8
0
  6
Continuous
 62
     7
370
    15
100
AcDbLine
 10
151.571278822
 20
102.714754236
 30
0.0
 11
151.571278822
 21
101.9265368256
 31
0.0
  0
LINE
  5
1DE
330
1F
100
AcDbEntity
  8
0
  6
Continuous
 62
     7
370
    15
100
AcDbLine
 10
152.0135955776
 20
102.6892956021
 30
0.0
 11
152.0135955776
 21
101.8494661573
 31
0.0
  0
SPLINE
  5
1DF
330
1F
100
AcDbEntity
  8
0
  6
Continuous
 62
     7
370
    15
100
AcDbSpline
210
0.0
220
0.0
230
1.0
 70
     8
 71
     3
 72
    26
 73
    22
 74
     0
 42
0.00000001
 43
0.00000001
 40
0.0
 40
0.0
 40
0.0
 40
0.0
 40
0.0075246710917128
 40
0.0809192841749097
 40
0.1546550344991162
 40
0.2071670212591467
 40
0.2611916304506885
 40
0.3147036721578675
 40
0.3693489278554243
 40
0.4317659256867355
 40
0.4959377895952009
 40
0.5591810029955561
 40
0.6242693007789153
 40
0.687437971233736
 40
0.7524640418814349
 40
0.8030704164972444
 40
0.8549877871362263
 40
0.8952841507554677
 40
0.9366515656527886
 40
0.9770011844656487
 40
1.0
 40
1.0
 40
1.0
 40
1.0
 10
106.7690228934408
 20
130.4892614159015
 30
0.0
 10
106.7658653142611
 20
130.4903734458089
 30
0.0
 10
106.7319091394555
 20
130.5023320634002
 30
0.0
 10
106.9608091149468
 20
130.4210095156494
 30
0.0
 10
107.4996971990437
 20
130.240511925435
 30
0.0
 10
108.1818225365057
 20
130.0342583886898
 30
0.0
 10
108.8864273577305
 20
129.8455660260712
 30
0.0
 10
109.6816709584329
 20
129.6661596174484
 30
0.0
 10
110.5826180020119
 20
129.5077094856439
 30
0.0
 10
111.5938529725761
 20
129.3912708235755
 30
0.0
 10
112.6858457106628
 20
129.3446647488212
 30
0.0
 10
113.7950518853444
 20
129.3811876771136
 30
0.0
 10
114.8693175942804
 20
129.4962140509043
 30
0.0
 10
115.8934318691539
 20
129.6751045266924
 30
0.0
 10
116.7596445000412
 20
129.877356118415
 30
0.0
 10
117.475173130131
 20
130.0750423922262
 30
0.0
 10
117.9920694551623
 20
130.2341374979071
 30
0.0
 10
118.3756263728452
 20
130.3602911106645
 30
0.0
 10
118.620900937569
 20
130.4443850479954
 30
0.0
 10
118.7517054320729
 20
130.490409961187
 30
0.0
 10
118.7446436384093
 20
130.4879268209773
 30
0.0
 10
118.7420798356653
 20
130.4870253103998
 30
0.0
  0
LINE
  5
1E0
330
1F
100
AcDbEntity
  8
0
  6
Continuous
 62
     7
370
    15
100
AcDbLine
 10
122.0087156522
 20
108.4928899679
 30
0.0
 11
122.0087156522
 21
130.4928898487
 31
0.0
  0
LINE
  5
1E1
330
1F
100
AcDbEntity
  8
0
  6
Continuous
 62
     7
370
    15
100
AcDbLine
 10
102.5087157155
 20
108.4928899679
 30
0.0
 11
102.5087157155
 21
130.4928898487
 31
0.0
  0
SPLINE
  5
1E2
330
1F
100
AcDbEntity
  8
0
  6
Continuous
 62
     7
370
    15
100
AcDbSpline
210
0.0
220
0.0
230
1.0
 70
     8
 71
     3
 72
    78
 73
    74
 74
     0
 42
0.00000001
 43
0.00000001
 40
-0.0312499999999999
 40
-0.0312499999999999
 40
0.0
 40
0.0
 40
0.0312500000000001
 40
0.0312500000000001
 40
0.0625000000000003
 40
0.0625000000000003
 40
0.0781250000000003
 40
0.0781250000000003
 40
0.0937500000000004
 40
0.0937500000000004
 40
0.1250000000000004
 40
0.1250000000000004
 40
0.1406250000000005
 40
0.1406250000000005
 40
0.1562500000000005
 40
0.1562500000000005
 40
0.1718750000000006
 40
0.1718750000000006
 40
0.1875000000000006
 40
0.1875000000000006
 40
0.2187500000000005
 40
0.2187500000000005
 40
0.2500000000000004
 40
0.2500000000000004
 40
0.2812500000000003
 40
0.2812500000000003
 40
0.3125000000000003
 40
0.3125000000000003
 40
0.3750000000000001
 40
0.3750000000000001
 40
0.4375
 40
0.4375
 40
0.4687499999999999
 40
0.4687499999999999
 40
0.4999999999999997
 40
0.4999999999999997
 40
0.5312499999999997
 40
0.5312499999999997
 40
0.5468749999999997
 40
0.5468749999999997
 40
0.5624999999999996
 40
0.5624999999999996
 40
0.5937499999999997
 40
0.5937499999999997
 40
0.6249999999999997
 40
0.6249999999999997
 40
0.6406249999999997
 40
0.6406249999999997
 40
0.6562499999999998
 40
0.6562499999999998
 40
0.6874999999999998
 40
0.6874999999999998
 40
0.7031249999999999
 40
0.7031249999999999
 40
0.7187499999999999
 40
0.7187499999999999
 40
0.7499999999999999
 40
0.7499999999999999
 40
0.78125
 40
0.78125
 40
0.8125
 40
0.8125
 40
0.84375
 40
0.84375
 40
0.875
 40
0.875
 40
0.90625
 40
0.90625
 40
0.9375000000000001
 40
0.9375000000000001
 40
0.9687500000000001
 40
0.9687500000000001
 40
1.0
 40
1.0
 40
1.03125
 40
1.03125
 10
109.0899783453612
 20
123.3427691310743
 30
0.0
 10
108.5120713416701
 20
122.929267518221
 30
0.0
 10
108.2454763978439
 20
122.6994688320424
 30
0.0
 10
107.7604223262455
 20
122.1879018561451
 30
0.0
 10
107.5408115998403
 20
121.9032583203078
 30
0.0
 10
107.2677381517268
 20
121.4478346925719
 30
0.0
 10
107.1855417638241
 20
121.2907706396695
 30
0.0
 10
107.0402711656026
 20
120.9651195356986
 30
0.0
 10
106.9768180868721
 20
120.7950586003378
 30
0.0
 10
106.8225128656787
 20
120.2788789363544
 30
0.0
 10
106.766190800109
 20
119.9267141277776
 30
0.0
 10
106.7560085888281
 20
119.3855348389185
 30
0.0
 10
106.7654274835643
 20
119.202593611774
 30
0.0
 10
106.8087612195597
 20
118.8453994960358
 30
0.0
 10
106.8425539502435
 20
118.6694800056574
 30
0.0
 10
106.9334217546009
 20
118.3227600588275
 30
0.0
 10
106.9909983790721
 20
118.1508357476251
 30
0.0
 10
107.1266748407724
 20
117.8181611138994
 30
0.0
 10
107.2044202157045
 20
117.6577336412435
 30
0.0
 10
107.4648559464867
 20
117.1924946914655
 30
0.0
 10
107.677094609234
 20
116.9014145656965
 30
0.0
 10
108.1483997431604
 20
116.377998380979
 30
0.0
 10
108.4084573079627
 20
116.1427707592775
 30
0.0
 10
108.9730679152087
 20
115.7184651161947
 30
0.0
 10
109.276460534696
 20
115.5310806646222
 30
0.0
 10
109.9056822417272
 20
115.2107951638514
 30
0.0
 10
110.2343364516693
 20
115.0759607439122
 30
0.0
 10
111.2593414480277
 20
114.7467415625928
 30
0.0
 10
111.9633019989939
 20
114.6347910389616
 30
0.0
 10
113.4134510512088
 20
114.6207499519972
 30
0.0
 10
114.1197654880073
 20
114.7191258297531
 30
0.0
 10
115.1512863679591
 20
115.0274666747758
 30
0.0
 10
115.4830424700136
 20
115.1556414106997
 30
0.0
 10
116.1169706431896
 20
115.4610665338511
 30
0.0
 10
116.4202336054812
 20
115.6385555153461
 30
0.0
 10
116.997157210509
 20
116.0499516183509
 30
0.0
 10
117.2657791032758
 20
116.2807399609326
 30
0.0
 10
117.6290341569314
 20
116.6624559091571
 30
0.0
 10
117.743871989662
 20
116.7959551467951
 30
0.0
 10
117.9599581809128
 20
117.0768397623338
 30
0.0
 10
118.0616182361359
 20
117.2250664611117
 30
0.0
 10
118.3371911900444
 20
117.6823632958245
 30
0.0
 10
118.4843568092724
 20
118.0060328318706
 30
0.0
 10
118.6933338467674
 20
118.6982072434095
 30
0.0
 10
118.7504556811122
 20
119.0536129864947
 30
0.0
 10
118.7615986054512
 20
119.5920197252448
 30
0.0
 10
118.7527102121456
 20
119.7743753101623
 30
0.0
 10
118.7097832762622
 20
120.1340677745919
 30
0.0
 10
118.6761057206378
 20
120.3105477687219
 30
0.0
 10
118.5406499432247
 20
120.8305413153647
 30
0.0
 10
118.4022246051879
 20
121.1678180407027
 30
0.0
 10
118.1420217366066
 20
121.6339187334543
 30
0.0
 10
118.0464072628592
 20
121.7835250240879
 30
0.0
 10
117.8385047705259
 20
122.0720776467496
 30
0.0
 10
117.7257600713008
 20
122.2113888375816
 30
0.0
 10
117.3710321148777
 20
122.6059944407547
 30
0.0
 10
117.1108856897607
 20
122.8412882840452
 30
0.0
 10
116.5484012819233
 20
123.2645611956419
 30
0.0
 10
116.2438334911088
 20
123.4530814337363
 30
0.0
 10
115.6134918622553
 20
123.7742567934148
 30
0.0
 10
115.2857706460624
 20
123.9087260464804
 30
0.0
 10
114.6051821136518
 20
124.1277871869048
 30
0.0
 10
114.2535570321914
 20
124.2113759455987
 30
0.0
 10
113.5483863344443
 20
124.3241802560971
 30
0.0
 10
113.1920420078585
 20
124.3543559300269
 30
0.0
 10
112.4716421010858
 20
124.3616076645664
 30
0.0
 10
112.1081966423612
 20
124.3380431189216
 30
0.0
 10
111.400239937369
 20
124.2388467957521
 30
0.0
 10
111.0522958793471
 20
124.1633934674598
 30
0.0
 10
110.3684948817393
 20
123.9590386219965
 30
0.0
 10
110.032433936001
 20
123.829451154541
 30
0.0
 10
109.3948004191086
 20
123.5217286268954
 30
0.0
 10
109.0899783453612
 20
123.3427691310743
 30
0.0
 10
108.5120713416701
 20
122.929267518221
 30
0.0
  0
CIRCLE
  5
1E3
330
1F
100
AcDbEntity
  8
0
  6
Continuous
 62
     7
370
    15
100
AcDbCircle
 10
112.7587155963
 20
119.4928899083
 30
0.0
 40
4.66858565927437
  0
LINE
  5
1E4
330
1F
100
AcDbEntity
  8
0
  6
Continuous
 62
     7
370
    15
100
AcDbLine
 10
96.5087147321
 20
109.7028903338
 30
0.0
 11
96.5087147321
 21
129.2828894827
 31
0.0
  0
LINE
  5
1E5
330
1F
100
AcDbEntity
  8
0
  6
Continuous
 62
     7
370
    15
100
AcDbLine
 10
154.2275747175
 20
102.2653277639
 30
0.0
 11
154.2275747175
 21
101.4803625318
 31
0.0
  0
LINE
  5
1E6
330
1F
100
AcDbEntity
  8
0
  6
Continuous
 62
     7
370
    15
100
AcDbLine
 10
154.6698914732
 20
102.2420335236
 30
0.0
 11
154.6698914732
 21
101.409855825
 31
0.0
  0
SPLINE
  5
1E7
330
1F
100
AcDbEntity
  8
0
  6
Continuous
 62
     7
370
    15
100
AcDbSpline
210
0.0
220
0.0
230
1.0
 70
     8
 71
     3
 72
     9
 73
     5
 74
     0
 42
0.00000001
 43
0.00000001
 40
0.0
 40
0.0
 40
0.0
 40
0.0
 40
0.7400356158399702
 40
0.9999999999999999
 40
0.9999999999999999
 40
0.9999999999999999
 40
0.9999999999999999
 10
158.1643702353359
 20
116.485560140687
 30
0.0
 10
158.1452031759827
 20
116.497866399632
 30
0.0
 10
158.1193029909877
 20
116.5144956789283
 30
0.0
 10
158.0858886946197
 20
116.5310786435371
 30
0.0
 10
158.0772021676422
 20
116.5353896237192
 30
0.0
  0
ELLIPSE
  5
1E8
330
1F
100
AcDbEntity
  8
0
  6
Continuous
 62
     7
370
    15
100
AcDbEllipse
 10
156.8468153777
 20
113.4928899083
 30
0.0
 11
0.0
 21
3.40000000000002
 31
0.0
210
0.0
220
0.0
230
1.0
 40
0.8164965809
 41
4.957144681393642
 42
5.788666323531001
  0
ELLIPSE
  5
1E9
330
1F
100
AcDbEntity
  8
0
  6
Continuous
 62
     7
370
    15
100
AcDbEllipse
 10
155.8609803548
 20
113.4928899083
 30
0.0
 11
3.792207243611472
 21
0.0
 31
0.0
210
0.0
220
0.0
230
1.0
 40
0.8965754722
 41
6.089295351410231
 42
6.527941008188529
  0
LINE
  5
1EA
330
1F
100
AcDbEntity
  8
0
  6
Continuous
 62
     7
370
    15
100
AcDbLine
 10
156.8838724758
 20
101.854396579
 30
0.0
 11
156.8838724758
 21
101.07245442
 31
0.0
  0
LINE
  5
1EB
330
1F
100
AcDbEntity
  8
0
  6
Continuous
 62
     7
370
    15
100
AcDbLine
 10
157.3261873688
 20
101.8331158581
 30
0.0
 11
157.3261873688
 21
101.0080683652
 31
0.0
  0
SPLINE
  5
1EC
330
1F
100
AcDbEntity
  8
0
  6
Continuous
 62
     7
370
    15
100
AcDbSpline
210
0.0
220
0.0
230
1.0
 70
     8
 71
     3
 72
    18
 73
    14
 74
     0
 42
0.00000001
 43
0.00000001
 40
0.0
 40
0.0
 40
0.0
 40
0.0
 40
0.2499999999999986
 40
0.2499999999999986
 40
0.3749999999999986
 40
0.3749999999999986
 40
0.4999999999999986
 40
0.4999999999999986
 40
0.6249999999999986
 40
0.6249999999999986
 40
0.7499999999999986
 40
0.7499999999999986
 40
1.0
 40
1.0
 40
1.0
 40
1.0
 10
111.4820906758748
 20
121.8970529642911
 30
0.0
 10
111.6457845560555
 20
122.0218308545886
 30
0.0
 10
111.839335707545
 20
122.1317319462871
 30
0.0
 10
112.1648505247557
 20
122.2481063063784
 30
0.0
 10
112.2803829112268
 20
122.2790718049571
 30
0.0
 10
112.5144099207796
 20
122.3203494368971
 30
0.0
 10
112.6344695973862
 20
122.3312646990029
 30
0.0
 10
112.8801409780213
 20
122.3314314410109
 30
0.0
 10
113.0003777196935
 20
122.3207075360362
 30
0.0
 10
113.2360637589252
 20
122.2793519722923
 30
0.0
 10
113.3518547999351
 20
122.2483172162665
 30
0.0
 10
113.6771943443592
 20
122.1321507749724
 30
0.0
 10
113.8709299849931
 20
122.0223771320432
 30
0.0
 10
114.0353405167856
 20
121.8970529642911
 30
0.0
  0
SPLINE
  5
1ED
330
1F
100
AcDbEntity
  8
0
  6
Continuous
 62
     7
370
    15
100
AcDbSpline
210
0.0
220
0.0
230
1.0
 70
     8
 71
     3
 72
    54
 73
    50
 74
     0
 42
0.00000001
 43
0.00000001
 40
0.0
 40
0.0
 40
0.0
 40
0.0
 40
0.0625000000000002
 40
0.0625000000000002
 40
0.1250000000000003
 40
0.1250000000000003
 40
0.1562500000000003
 40
0.1562500000000003
 40
0.1875000000000004
 40
0.1875000000000004
 40
0.2187500000000004
 40
0.2187500000000004
 40
0.2500000000000004
 40
0.2500000000000004
 40
0.2812500000000005
 40
0.2812500000000005
 40
0.3125000000000006
 40
0.3125000000000006
 40
0.3750000000000006
 40
0.3750000000000006
 40
0.4375000000000007
 40
0.4375000000000007
 40
0.4687500000000008
 40
0.4687500000000008
 40
0.5000000000000009
 40
0.5000000000000009
 40
0.531250000000001
 40
0.531250000000001
 40
0.562500000000001
 40
0.562500000000001
 40
0.6250000000000011
 40
0.6250000000000011
 40
0.6562500000000009
 40
0.6562500000000009
 40
0.6875000000000008
 40
0.6875000000000008
 40
0.7500000000000006
 40
0.7500000000000006
 40
0.7812500000000006
 40
0.7812500000000006
 40
0.8125000000000006
 40
0.8125000000000006
 40
0.8437500000000006
 40
0.8437500000000006
 40
0.8750000000000004
 40
0.8750000000000004
 40
0.9375000000000002
 40
0.9375000000000002
 40
1.0
 40
1.0
 40
1.0
 40
1.0
 10
114.0353405167856
 20
121.8970529642911
 30
0.0
 10
114.3237164832851
 20
121.7795668658747
 30
0.0
 10
114.5820349951591
 20
121.626382934365
 30
0.0
 10
115.0500908356331
 20
121.2354870544024
 30
0.0
 10
115.2502888533061
 20
121.0055103083093
 30
0.0
 10
115.4899398127525
 20
120.5942942288965
 30
0.0
 10
115.5571380472624
 20
120.4497810992402
 30
0.0
 10
115.6637737732035
 20
120.1450365136671
 30
0.0
 10
115.7033235098037
 20
119.9825004110751
 30
0.0
 10
115.7477069787707
 20
119.6563006319513
 30
0.0
 10
115.7534185081279
 20
119.4913231198013
 30
0.0
 10
115.73010594278
 20
119.1574005764209
 30
0.0
 10
115.7013766340675
 20
118.9945628984535
 30
0.0
 10
115.6133610339463
 20
118.6803248735278
 30
0.0
 10
115.5533953980116
 20
118.5278445427653
 30
0.0
 10
115.4100797414382
 20
118.2445986289374
 30
0.0
 10
115.3255822060363
 20
118.1110401630054
 30
0.0
 10
115.0431393395997
 20
117.7411422071371
 30
0.0
 10
114.8202389847145
 20
117.5372156739909
 30
0.0
 10
114.311819148201
 20
117.1997084240846
 30
0.0
 10
114.035651533956
 20
117.0718458359567
 30
0.0
 10
113.5754012966043
 20
116.9366067134277
 30
0.0
 10
113.4178412727591
 20
116.9024166538987
 30
0.0
 10
113.0948214041211
 20
116.856100040127
 30
0.0
 10
112.9268192291607
 20
116.8439896530459
 30
0.0
 10
112.5947854581167
 20
116.8437934375427
 30
0.0
 10
112.4306833331685
 20
116.8553013215886
 30
0.0
 10
112.1060322940011
 20
116.9011496899344
 30
0.0
 10
111.9462590200633
 20
116.9356808419127
 30
0.0
 10
111.4911589038379
 20
117.0684745162785
 30
0.0
 10
111.2082707252242
 20
117.1985968222142
 30
0.0
 10
110.8294315526426
 20
117.4491121055515
 30
0.0
 10
110.7103514401871
 20
117.5419141579749
 30
0.0
 10
110.486245784328
 20
117.7487680823109
 30
0.0
 10
110.3820430198443
 20
117.8623543917669
 30
0.0
 10
110.1013236064458
 20
118.2288121231597
 30
0.0
 10
109.9511080090186
 20
118.5164287803957
 30
0.0
 10
109.817840491181
 20
118.9862407668074
 30
0.0
 10
109.7882327033237
 20
119.1520238098221
 30
0.0
 10
109.7641883931621
 20
119.4815279733641
 30
0.0
 10
109.7689606702299
 20
119.647260421947
 30
0.0
 10
109.8131133498389
 20
119.9784884576712
 30
0.0
 10
109.8515343832961
 20
120.1375555737765
 30
0.0
 10
109.9578376527032
 20
120.444118110113
 30
0.0
 10
110.0259975337062
 20
120.5911357711972
 30
0.0
 10
110.2629257633875
 20
120.9994387542351
 30
0.0
 10
110.4683323585889
 20
121.2364229178221
 30
0.0
 10
110.9355655321006
 20
121.626416691165
 30
0.0
 10
111.1936288829045
 20
121.7795318996557
 30
0.0
 10
111.4820906758748
 20
121.8970529642911
 30
0.0
  0
LINE
  5
1EE
330
1F
100
AcDbEntity
  8
0
  6
Continuous
 62
     7
370
    15
100
AcDbLine
 10
159.5401683713
 20
119.1289869045
 30
0.0
 11
159.5401683713
 21
114.3167755242
 31
0.0
  0
LINE
  5
1EF
330
1F
100
AcDbEntity
  8
0
  6
Continuous
 62
     7
370
    15
100
AcDbLine
 10
159.5401683713
 20
101.479427484
 30
0.0
 11
159.5401683713
 21
100.7003258589
 31
0.0
  0
LINE
  5
1F0
330
1F
100
AcDbEntity
  8
0
  6
Continuous
 62
     7
370
    15
100
AcDbLine
 10
159.9824832643
 20
118.9385178174
 30
0.0
 11
159.9824832643
 21
112.5197592798
 31
0.0
  0
LINE
  5
1F1
330
1F
100
AcDbEntity
  8
0
  6
Continuous
 62
     7
370
    15
100
AcDbLine
 10
159.9824832643
 20
101.4600392106
 30
0.0
 11
159.9824832643
 21
100.641682339
 31
0.0
  0
LINE
  5
1F2
330
1F
100
AcDbEntity
  8
0
  6
Continuous
 62
     7
370
    15
100
AcDbLine
 10
162.1964642669
 20
118.4948490142
 30
0.0
 11
162.1964642669
 21
111.882537664
 31
0.0
  0
LINE
  5
1F3
330
1F
100
AcDbEntity
  8
0
  6
Continuous
 62
     7
370
    15
100
AcDbLine
 10
162.1964642669
 20
101.138304514
 30
0.0
 11
162.1964642669
 21
100.3618850979
 31
0.0
  0
LINE
  5
1F4
330
1F
100
AcDbEntity
  8
0
  6
Continuous
 62
     7
370
    15
100
AcDbLine
 10
162.6387791599
 20
118.4930226906
 30
0.0
 11
162.6387791599
 21
112.0079346608
 31
0.0
  0
LINE
  5
1F5
330
1F
100
AcDbEntity
  8
0
  6
Continuous
 62
     7
370
    15
100
AcDbLine
 10
162.6387791599
 20
101.1207025173
 30
0.0
 11
162.6387791599
 21
100.3086730513
 31
0.0
  0
LINE
  5
1F6
330
1F
100
AcDbEntity
  8
0
  6
Continuous
 62
     7
370
    15
100
AcDbLine
 10
164.8527601625
 20
118.8938885486
 30
0.0
 11
164.8527601625
 21
113.9337272058
 31
0.0
  0
LINE
  5
1F7
330
1F
100
AcDbEntity
  8
0
  6
Continuous
 62
     7
370
    15
100
AcDbLine
 10
164.8527601625
 20
100.8292451176
 30
0.0
 11
164.8527601625
 21
100.0553719375
 31
0.0
  0
LINE
  5
1F8
330
1F
100
AcDbEntity
  8
0
  6
Continuous
 62
     7
370
    15
100
AcDbLine
 10
165.2950750555
 20
119.0742874193
 30
0.0
 11
165.2950750555
 21
114.9149691361
 31
0.0
  0
LINE
  5
1F9
330
1F
100
AcDbEntity
  8
0
  6
Continuous
 62
     7
370
    15
100
AcDbLine
 10
165.2950750555
 20
100.813338128
 30
0.0
 11
165.2950750555
 21
100.0073268685
 31
0.0
  0
LINE
  5
1FA
330
1F
100
AcDbEntity
  8
0
  6
Continuous
 62
     7
370
    15
100
AcDbLine
 10
167.5090560581
 20
100.550736827
 30
0.0
 11
167.5090560581
 21
99.7793018493
 31
0.0
  0
LINE
  5
1FB
330
1F
100
AcDbEntity
  8
0
  6
Continuous
 62
     7
370
    15
100
AcDbLine
 10
167.9513709511
 20
100.5364522013
 30
0.0
 11
167.9513709511
 21
99.7361946526
 31
0.0
  0
LINE
  5
1FC
330
1F
100
AcDbEntity
  8
0
  6
Continuous
 62
     7
370
    15
100
AcDbLine
 10
170.1653519536
 20
100.3015018675
 30
0.0
 11
170.1653519536
 21
99.5324063721
 31
0.0
  0
LINE
  5
1FD
330
1F
100
AcDbEntity
  8
0
  6
Continuous
 62
     7
370
    15
100
AcDbLine
 10
170.6076668466
 20
100.317529929
 30
0.0
 11
170.6076668466
 21
99.4940489206
 31
0.0
  0
SPLINE
  5
1FE
330
1F
100
AcDbEntity
  8
0
  6
Continuous
 62
     7
370
    15
100
AcDbSpline
210
0.0
220
0.0
230
1.0
 70
     8
 71
     3
 72
    12
 73
     8
 74
     0
 42
0.00000001
 43
0.00000001
 40
0.0
 40
0.0
 40
0.0
 40
0.0
 40
0.0343581324599784
 40
0.3544956116099377
 40
0.6769129930504026
 40
0.9580704461615904
 40
1.0
 40
1.0
 40
1.0
 40
1.0
 10
111.482993129921
 20
121.9038204896477
 30
0.0
 10
111.5071446716167
 20
121.8916091748309
 30
0.0
 10
111.7563321254086
 20
121.7656169510226
 30
0.0
 10
112.3715769173813
 20
121.6119571227034
 30
0.0
 10
113.1973589083285
 20
121.6261093897372
 30
0.0
 10
113.7757758637988
 20
121.7750242684955
 30
0.0
 10
114.0036124911666
 20
121.8898611018083
 30
0.0
 10
114.0331806506038
 20
121.9047643850771
 30
0.0
  0
LINE
  5
1FF
330
1F
100
AcDbEntity
  8
0
  6
Continuous
 62
     7
370
    15
100
AcDbLine
 10
171.7087173725
 20
101.7785589817
 30
0.0
 11
171.7087173725
 21
99.2367691967
 31
0.0
  0
LINE
  5
200
330
1F
100
AcDbEntity
  8
0
  6
Continuous
 62
     7
370
    15
100
AcDbLine
 10
171.4087160195
 20
98.9471241507
 30
0.0
 11
171.7087173725
 21
99.2367691967
 31
0.0
  0
LINE
  5
201
330
1F
100
AcDbEntity
  8
0
  6
Continuous
 62
     7
370
    15
100
AcDbLine
 10
171.7087173725
 20
99.2367691967
 30
0.0
 11
171.7087173725
 21
99.1636007699
 31
0.0
  0
LINE
  5
202
330
1F
100
AcDbEntity
  8
0
  6
PHANTOM
 62
     7
370
     0
100
AcDbLine
 10
190.4531711604
 20
133.3077340993
 30
0.0
 11
199.1781735684
 21
134.8452498812
 31
0.0
  0
LINE
  5
203
330
1F
100
AcDbEntity
  8
0
  6
PHANTOM
 62
     7
370
     0
100
AcDbLine
 10
190.6765395666
 20
134.0362146172
 30
0.0
 11
190.383716848
 21
133.6933584559
 31
0.0
  0
LINE
  5
204
330
1F
100
AcDbEntity
  8
0
  6
PHANTOM
 62
     7
370
     0
100
AcDbLine
 10
190.6765395666
 20
134.0362146172
 30
0.0
 11
190.787545767
 21
134.0557770479
 31
0.0
  0
LINE
  5
205
330
1F
100
AcDbEntity
  8
0
  6
PHANTOM
 62
     7
370
     0
100
AcDbLine
 10
198.9590743448
 20
135.3533468816
 30
0.0
 11
199.1087192561
 21
135.2308742377
 31
0.0
  0
ARC
  5
206
330
1F
100
AcDbEntity
  8
0
  6
PHANTOM
 62
     7
370
     0
100
AcDbCircle
 10
190.3836390685
 20
133.7015647083
 30
0.0
 40
0.3999215677986829
100
AcDbArc
 50
180.0210011413
 51
280.0125753975
  0
LINE
  5
207
330
1F
100
AcDbEntity
  8
0
  6
PHANTOM
 62
     7
370
     0
100
AcDbLine
 10
189.9837175275
 20
142.5556182537
 30
0.0
 11
189.9837175275
 21
133.7014181215
 31
0.0
  0
LINE
  5
208
330
1F
100
AcDbEntity
  8
0
  6
PHANTOM
 62
     7
370
     0
100
AcDbLine
 10
190.5333543087
 20
142.4190546992
 30
0.0
 11
190.383716848
 21
142.5475585881
 31
0.0
  0
LINE
  5
209
330
1F
100
AcDbEntity
  8
0
  6
PHANTOM
 62
     7
370
     0
100
AcDbLine
 10
190.6765395666
 20
134.1488692585
 30
0.0
 11
190.6765395666
 21
134.0362146172
 31
0.0
  0
SPLINE
  5
20A
330
1F
100
AcDbEntity
  8
0
  6
PHANTOM
 62
     7
370
     0
100
AcDbSpline
210
0.0
220
0.0
230
1.0
 70
     8
 71
     3
 72
     9
 73
     5
 74
     0
 42
0.00000001
 43
0.00000001
 40
0.0
 40
0.0
 40
0.0
 40
0.0
 40
0.0432986923676054
 40
1.0
 40
1.0
 40
1.0
 40
1.0
 10
191.1566028262497
 20
134.6098962846425
 30
0.0
 10
191.1556052238621
 20
134.608676781161
 30
0.0
 10
191.1325652119576
 20
134.5805118779066
 30
0.0
 10
191.1082843925015
 20
134.5510035634547
 30
0.0
 10
191.0850549007774
 20
134.5227729204324
 30
0.0
  0
SPLINE
  5
20B
330
1F
100
AcDbEntity
  8
0
  6
PHANTOM
 62
     7
370
     0
100
AcDbSpline
210
0.0
220
0.0
230
1.0
 70
     8
 71
     3
 72
    14
 73
    10
 74
     0
 42
0.00000001
 43
0.00000001
 40
0.0
 40
0.0
 40
0.0
 40
0.0
 40
0.324045771028619
 40
0.4390819912322544
 40
0.5550350672453804
 40
0.6320182112542196
 40
0.7091785174593528
 40
0.8120452703310217
 40
0.9999999999999999
 40
0.9999999999999999
 40
0.9999999999999999
 40
0.9999999999999999
 10
190.7875457669616
 20
134.0557770478752
 30
0.0
 10
190.8651420004496
 20
134.0728726457752
 30
0.0
 10
190.9702848899985
 20
134.0960371794254
 30
0.0
 10
191.0880225583262
 20
134.1633833637531
 30
0.0
 10
191.1434905413909
 20
134.2157665158658
 30
0.0
 10
191.1724383545825
 20
134.2760970090623
 30
0.0
 10
191.1775284709706
 20
134.3395603478505
 30
0.0
 10
191.1529603980754
 20
134.4273249079521
 30
0.0
 10
191.1117127819799
 20
134.4853025847606
 30
0.0
 10
191.0850549007774
 20
134.5227729204324
 30
0.0
  0
SPLINE
  5
20C
330
1F
100
AcDbEntity
  8
0
  6
PHANTOM
 62
     7
370
     0
100
AcDbSpline
210
0.0
220
0.0
230
1.0
 70
     8
 71
     3
 72
    14
 73
    10
 74
     0
 42
0.00000001
 43
0.00000001
 40
0.0
 40
0.0
 40
0.0
 40
0.0
 40
0.1214991860840012
 40
0.2571309760602635
 40
0.3367079634285252
 40
0.4166990833197723
 40
0.5090603512638846
 40
0.6599913782829562
 40
1.0
 40
1.0
 40
1.0
 40
1.0
 10
191.0850549007774
 20
134.5227729204324
 30
0.0
 10
191.0585047859524
 20
134.5356438444203
 30
0.0
 10
191.0023162865929
 20
134.5628828190544
 30
0.0
 10
190.9212003129863
 20
134.5824267358369
 30
0.0
 10
190.8486863627903
 20
134.574521427109
 30
0.0
 10
190.7931013216647
 20
134.5455068637409
 30
0.0
 10
190.7405894697179
 20
134.4853063045686
 30
0.0
 10
190.6854387214047
 20
134.3521848708764
 30
0.0
 10
190.6801809357331
 20
134.2320622364254
 30
0.0
 10
190.6765395666481
 20
134.1488692584661
 30
0.0
  0
ARC
  5
20D
330
1F
100
AcDbEntity
  8
0
  6
PHANTOM
 62
     7
370
     0
100
AcDbCircle
 10
192.1835251511
 20
135.8456414906
 30
0.0
 40
0.9998097319488366
100
AcDbArc
 50
180.0214183975
 51
280.0128288593
  0
SPLINE
  5
20E
330
1F
100
AcDbEntity
  8
0
  6
PHANTOM
 62
     7
370
     0
100
AcDbSpline
210
0.0
220
0.0
230
1.0
 70
     8
 71
     3
 72
    11
 73
     7
 74
     0
 42
0.00000001
 43
0.00000001
 40
0.0
 40
0.0
 40
0.0
 40
0.0
 40
0.3360313710963921
 40
0.6712260517135556
 40
0.992020473283989
 40
0.9999999999999999
 40
0.9999999999999999
 40
0.9999999999999999
 40
0.9999999999999999
 10
198.9590743447662
 20
135.3533468815711
 30
0.0
 10
198.8999222227911
 20
135.4020793659388
 30
0.0
 10
198.7817652627599
 20
135.4994229947959
 30
0.0
 10
198.5963648441923
 20
135.6557983918055
 30
0.0
 10
198.4821601561889
 20
135.7536809919019
 30
0.0
 10
198.4299059484545
 20
135.798831406283
 30
0.0
 10
198.4286377097488
 20
135.7999272319701
 30
0.0
  0
LINE
  5
20F
330
1F
100
AcDbEntity
  8
0
  6
PHANTOM
 62
     7
370
     0
100
AcDbLine
 10
192.357360747
 20
134.8610600132
 30
0.0
 11
197.4823618199
 21
135.7641849342
 31
0.0
  0
ARC
  5
210
330
1F
100
AcDbEntity
  8
0
  6
PHANTOM
 62
     7
370
     0
100
AcDbCircle
 10
199.1088849246
 20
135.2390341408
 30
0.0
 40
0.3998336645517566
100
AcDbArc
 50
279.9793756185
 51
359.9856360594
  0
LINE
  5
211
330
1F
100
AcDbEntity
  8
0
  6
PHANTOM
 62
     7
370
     0
100
AcDbLine
 10
197.1350679065
 20
142.9334912124
 30
0.0
 11
192.0100668336
 21
142.0303672227
 31
0.0
  0
ARC
  5
212
330
1F
100
AcDbEntity
  8
0
  6
PHANTOM
 62
     7
370
     0
100
AcDbCircle
 10
197.3089046585
 20
141.9489111133
 30
0.0
 40
0.9998085756419481
100
AcDbArc
 50
0.0213928064
 51
100.0129078381
  0
LINE
  5
213
330
1F
100
AcDbEntity
  8
0
  6
PHANTOM
 62
     7
370
     0
100
AcDbLine
 10
198.3087131645
 20
136.7483935925
 30
0.0
 11
198.3087131645
 21
141.9492844167
 31
0.0
  0
ARC
  5
214
330
1F
100
AcDbEntity
  8
0
  6
PHANTOM
 62
     7
370
     0
100
AcDbCircle
 10
197.3091498895
 20
136.7486261066
 30
0.0
 40
0.9995633020275603
100
AcDbArc
 50
279.9790226669
 51
359.9866721048
  0
LINE
  5
215
330
1F
100
AcDbEntity
  8
0
  6
PHANTOM
 62
     7
370
     0
100
AcDbLine
 10
191.183715489
 20
141.0461585644
 30
0.0
 11
191.183715489
 21
135.8452677402
 31
0.0
  0
ARC
  5
216
330
1F
100
AcDbEntity
  8
0
  6
PHANTOM
 62
     7
370
     0
100
AcDbCircle
 10
192.183278764
 20
141.0459260503
 30
0.0
 40
0.9995633020275881
100
AcDbArc
 50
99.9790226669
 51
179.9866721048
  0
CIRCLE
  5
217
330
1F
100
AcDbEntity
  8
0
  6
PHANTOM
 62
     7
370
     0
100
AcDbCircle
 10
194.744928356
 20
138.897058428
 30
0.0
 40
3.048709787092835
  0
LINE
  5
218
330
1F
100
AcDbEntity
  8
0
  6
PHANTOM
 62
     7
370
     0
100
AcDbLine
 10
198.8158965374
 20
143.7304164889
 30
0.0
 11
199.1087192561
 21
144.0850734386
 31
0.0
  0
LINE
  5
219
330
1F
100
AcDbEntity
  8
0
  6
PHANTOM
 62
     7
370
     0
100
AcDbLine
 10
199.5087185766
 20
135.2389339033
 30
0.0
 11
199.5087185766
 21
144.0931331041
 31
0.0
  0
LINE
  5
21A
330
1F
100
AcDbEntity
  8
0
  6
PHANTOM
 62
     7
370
     0
100
AcDbLine
 10
198.8158965374
 20
143.6177618477
 30
0.0
 11
198.8158965374
 21
143.7304164889
 31
0.0
  0
ARC
  5
21B
330
1F
100
AcDbEntity
  8
0
  6
PHANTOM
 62
     7
370
     0
100
AcDbCircle
 10
194.746218052
 20
138.8556714159
 30
0.0
 40
3.049999829395604
100
AcDbArc
 50
0.0276018454
 51
179.9723981546
  0
SPLINE
  5
21C
330
1F
100
AcDbEntity
  8
0
  6
PHANTOM
 62
     7
370
     0
100
AcDbSpline
210
0.0
220
0.0
230
1.0
 70
     8
 71
     3
 72
    11
 73
     7
 74
     0
 42
0.00000001
 43
0.00000001
 40
0.0
 40
0.0
 40
0.0
 40
0.0
 40
0.0079790045132827
 40
0.3287733980609227
 40
0.6639682901328734
 40
1.0
 40
1.0
 40
1.0
 40
1.0
 10
191.0637909437538
 20
141.9760077866939
 30
0.0
 10
191.0625227037894
 20
141.9770370401101
 30
0.0
 10
191.0102651117605
 20
142.0194472358359
 30
0.0
 10
190.896065297219
 20
142.1132156357773
 30
0.0
 10
190.7106629596166
 20
142.2677527872576
 30
0.0
 10
190.5925062943106
 20
142.368578828661
 30
0.0
 10
190.5333543087364
 20
142.4190546992448
 30
0.0
  0
SPLINE
  5
21D
330
1F
100
AcDbEntity
  8
0
  6
PHANTOM
 62
     7
370
     0
100
AcDbSpline
210
0.0
220
0.0
230
1.0
 70
     8
 71
     3
 72
    14
 73
    10
 74
     0
 42
0.00000001
 43
0.00000001
 40
0.0
 40
0.0
 40
0.0
 40
0.0
 40
0.1215085270031534
 40
0.2571400536992985
 40
0.3367067326245958
 40
0.4166978480594554
 40
0.5090591114277605
 40
0.6599901308163878
 40
0.9999999999999999
 40
0.9999999999999999
 40
0.9999999999999999
 40
0.9999999999999999
 10
198.4073737527252
 20
143.2438581857112
 30
0.0
 10
198.4339263873008
 20
143.2309873373876
 30
0.0
 10
198.4901178830667
 20
143.2037496553029
 30
0.0
 10
198.5712333561563
 20
143.1842055206053
 30
0.0
 10
198.6437446352992
 20
143.1921105832687
 30
0.0
 10
198.6993272960582
 20
143.2211243318693
 30
0.0
 10
198.7518392776887
 20
143.2813247490972
 30
0.0
 10
198.8069892083266
 20
143.4144466604744
 30
0.0
 10
198.8122518210946
 20
143.5345689875005
 30
0.0
 10
198.8158965374351
 20
143.6177618476775
 30
0.0
  0
SPLINE
  5
21E
330
1F
100
AcDbEntity
  8
0
  6
PHANTOM
 62
     7
370
     0
100
AcDbSpline
210
0.0
220
0.0
230
1.0
 70
     8
 71
     3
 72
     9
 73
     5
 74
     0
 42
0.00000001
 43
0.00000001
 40
0.0
 40
0.0
 40
0.0
 40
0.0
 40
0.9567026561261562
 40
1.0
 40
1.0
 40
1.0
 40
1.0
 10
198.4073737527252
 20
143.2438581857112
 30
0.0
 10
198.3841482755151
 20
143.2167615084591
 30
0.0
 10
198.3598716864815
 20
143.188438521083
 30
0.0
 10
198.3368308834073
 20
143.1617176379052
 30
0.0
 10
198.3358332778335
 20
143.1605606946376
 30
0.0
  0
LINE
  5
21F
330
1F
100
AcDbEntity
  8
0
  6
PHANTOM
 62
     7
370
     0
100
AcDbLine
 10
199.0392574932
 20
144.486816195
 30
0.0
 11
190.3142550851
 21
142.9493013445
 31
0.0
  0
LINE
  5
220
330
1F
100
AcDbEntity
  8
0
  6
PHANTOM
 62
     7
370
     0
100
AcDbLine
 10
198.8158965374
 20
143.7304164889
 30
0.0
 11
198.7048828865
 21
143.7108549896
 31
0.0
  0
ARC
  5
221
330
1F
100
AcDbEntity
  8
0
  6
PHANTOM
 62
     7
370
     0
100
AcDbCircle
 10
190.38353356
 20
142.5555331894
 30
0.0
 40
0.3998160415133096
100
AcDbArc
 50
99.9783403416
 51
179.9878098309
  0
SPLINE
  5
222
330
1F
100
AcDbEntity
  8
0
  6
PHANTOM
 62
     7
370
     0
100
AcDbSpline
210
0.0
220
0.0
230
1.0
 70
     8
 71
     3
 72
    14
 73
    10
 74
     0
 42
0.00000001
 43
0.00000001
 40
0.0
 40
0.0
 40
0.0
 40
0.0
 40
0.3240385863973888
 40
0.4390844052518285
 40
0.5550310949407714
 40
0.6320190779792086
 40
0.7091789922497759
 40
0.8120439696202562
 40
0.9999999999999999
 40
0.9999999999999999
 40
0.9999999999999999
 40
0.9999999999999999
 10
198.704882886541
 20
143.710854989591
 30
0.0
 10
198.6272912739623
 20
143.6937562042627
 30
0.0
 10
198.5221517365993
 20
143.6705867105617
 30
0.0
 10
198.4044057526916
 20
143.6032530344708
 30
0.0
 10
198.3489497161349
 20
143.5508595678889
 30
0.0
 10
198.3199853661369
 20
143.4905366464017
 30
0.0
 10
198.3149137358207
 20
143.4270708275207
 30
0.0
 10
198.3394612661513
 20
143.3393048672338
 30
0.0
 10
198.3807129892109
 20
143.2813281935503
 30
0.0
 10
198.4073737527252
 20
143.2438581857112
 30
0.0
  0
ARC
  5
223
330
1F
100
AcDbEntity
  8
0
  6
PHANTOM
 62
     7
370
     0
100
AcDbCircle
 10
199.1087938744
 20
144.0929831319
 30
0.0
 40
0.3999247302994409
100
AcDbArc
 50
0.0214859922
 51
100.0131194269
  0
LINE
  5
224
330
1F
100
AcDbEntity
  8
0
  6
PHANTOM
 62
     7
370
     0
100
AcDbLine
 10
190.4711717631
 20
97.1420515004
 30
0.0
 11
190.383716848
 21
97.0438547108
 31
0.0
  0
LINE
  5
225
330
1F
100
AcDbEntity
  8
0
  6
PHANTOM
 62
     7
370
     0
100
AcDbLine
 10
199.021264341
 20
95.6353578392
 30
0.0
 11
190.4711717631
 21
97.1420515004
 31
0.0
  0
LINE
  5
226
330
1F
100
AcDbEntity
  8
0
  6
PHANTOM
 62
     7
370
     0
100
AcDbLine
 10
199.021264341
 20
95.6353578392
 30
0.0
 11
199.1087192561
 21
95.5063398603
 31
0.0
  0
LINE
  5
227
330
1F
100
AcDbEntity
  8
0
  6
PHANTOM
 62
     7
370
     0
100
AcDbLine
 10
199.0392574932
 20
94.9989627722
 30
0.0
 11
190.3142550851
 21
96.5364794853
 31
0.0
  0
LINE
  5
228
330
1F
100
AcDbEntity
  8
0
  6
PHANTOM
 62
     7
370
     0
100
AcDbLine
 10
199.021264341
 20
104.3120590645
 30
0.0
 11
199.021264341
 21
95.6353578392
 31
0.0
  0
LINE
  5
229
330
1F
100
AcDbEntity
  8
0
  6
PHANTOM
 62
     7
370
     0
100
AcDbLine
 10
199.021264341
 20
104.3120590645
 30
0.0
 11
199.1087192561
 21
104.3605399925
 31
0.0
  0
LINE
  5
22A
330
1F
100
AcDbEntity
  8
0
  6
PHANTOM
 62
     7
370
     0
100
AcDbLine
 10
199.5087185766
 20
104.2468459952
 30
0.0
 11
199.5087185766
 21
95.392645863
 31
0.0
  0
LINE
  5
22B
330
1F
100
AcDbEntity
  8
0
  6
PHANTOM
 62
     7
370
     0
100
AcDbLine
 10
198.845534947
 20
104.3430255401
 30
0.0
 11
199.021264341
 21
104.3120590645
 31
0.0
  0
LINE
  5
22C
330
1F
100
AcDbEntity
  8
0
  6
PHANTOM
 62
     7
370
     0
100
AcDbLine
 10
190.4711717631
 20
97.1420515004
 30
0.0
 11
190.4711717631
 21
97.3616070721
 31
0.0
  0
LINE
  5
22D
330
1F
100
AcDbEntity
  8
0
  6
PHANTOM
 62
     7
370
     0
100
AcDbLine
 10
189.9837175275
 20
96.9301625761
 30
0.0
 11
189.9837175275
 21
97.0789674345
 31
0.0
  0
ARC
  5
22E
330
1F
100
AcDbEntity
  8
0
  6
PHANTOM
 62
     7
370
     0
100
AcDbCircle
 10
199.1087909158
 20
95.3927993633
 30
0.0
 40
0.3999276901768454
100
AcDbArc
 50
259.9873858561
 51
359.9780087248
  0
ARC
  5
22F
330
1F
100
AcDbEntity
  8
0
  6
PHANTOM
 62
     7
370
     0
100
AcDbCircle
 10
190.3835289457
 20
96.9302437663
 30
0.0
 40
0.399811426456466
100
AcDbArc
 50
180.0116351184
 51
260.0222147091
  0
ARC
  5
230
330
1F
100
AcDbEntity
  8
0
  6
PHANTOM
 62
     7
370
     0
100
AcDbCircle
 10
199.1089927622
 20
104.2467919016
 30
0.0
 40
0.3997258180209029
100
AcDbArc
 50
0.0077536457
 51
60.9852079923
  0
ARC
  5
231
330
1F
100
AcDbEntity
  8
0
  6
PHANTOM
 62
     7
370
     0
100
AcDbCircle
 10
194.6654233003
 20
138.7997950776
 30
0.0
 40
1.673788498964513
100
AcDbArc
 50
301.3767518116
 51
359.9934462943
  0
ARC
  5
232
330
1F
100
AcDbEntity
  8
0
  6
PHANTOM
 62
     7
370
     0
100
AcDbCircle
 10
194.6653828957
 20
138.7993948254
 30
0.0
 40
1.673828905630022
100
AcDbArc
 50
0.0071472344
 51
60.1301517522
  0
ARC
  5
233
330
1F
100
AcDbEntity
  8
0
  6
PHANTOM
 62
     7
370
     0
100
AcDbCircle
 10
194.6642060765
 20
138.7977054545
 30
0.0
 40
1.675879961326781
100
AcDbArc
 50
60.1240275904
 51
118.6902786095
  0
LINE
  5
234
330
1F
100
AcDbEntity
  8
0
  6
PHANTOM
 62
     7
370
     0
100
AcDbLine
 10
193.786195841
 20
140.2251716378
 30
0.0
 11
193.8596585657
 21
140.2678336623
 31
0.0
  0
ARC
  5
235
330
1F
100
AcDbEntity
  8
0
  6
PHANTOM
 62
     7
370
     0
100
AcDbCircle
 10
194.6630212787
 20
138.7993878261
 30
0.0
 40
1.673822668626629
100
AcDbArc
 50
121.5905941289
 51
178.0495553701
  0
LINE
  5
236
330
1F
100
AcDbEntity
  8
0
  6
PHANTOM
 62
     7
370
     0
100
AcDbLine
 10
192.9903918768
 20
138.736622003
 30
0.0
 11
192.9901683594
 21
138.8563565585
 31
0.0
  0
ARC
  5
237
330
1F
100
AcDbEntity
  8
0
  6
PHANTOM
 62
     7
370
     0
100
AcDbCircle
 10
194.6630189949
 20
138.7998206897
 30
0.0
 40
1.673820644519949
100
AcDbArc
 50
182.163839321
 51
237.9733945823
  0
LINE
  5
238
330
1F
100
AcDbEntity
  8
0
  6
PHANTOM
 62
     7
370
     0
100
AcDbLine
 10
193.8791269328
 20
137.3208850297
 30
0.0
 11
193.7753701474
 21
137.3807523075
 31
0.0
  0
ARC
  5
239
330
1F
100
AcDbEntity
  8
0
  6
PHANTOM
 62
     7
370
     0
100
AcDbCircle
 10
194.6642092546
 20
138.8015083562
 30
0.0
 40
1.675887731067291
100
AcDbArc
 50
242.0657783578
 51
298.4770699101
  0
LINE
  5
23A
330
1F
100
AcDbEntity
  8
0
  6
PHANTOM
 62
     7
370
     0
100
AcDbLine
 10
195.5369034673
 20
137.3707778427
 30
0.0
 11
195.4632842804
 21
137.328389627
 31
0.0
  0
CIRCLE
  5
23B
330
1F
100
AcDbEntity
  8
0
  6
PHANTOM
 62
     7
370
     0
100
AcDbCircle
 10
194.6640164824
 20
138.800322446
 30
0.0
 40
1.799622402508495
  0
CIRCLE
  5
23C
330
1F
100
AcDbEntity
  8
0
  6
PHANTOM
 62
     7
370
     0
100
AcDbCircle
 10
194.6639906047
 20
138.791099087
 30
0.0
 40
2.624510166557952
  0
SPLINE
  5
23D
330
1F
100
AcDbEntity
  8
0
  6
PHANTOM
 62
     7
370
     0
100
AcDbSpline
210
0.0
220
0.0
230
1.0
 70
     8
 71
     3
 72
    11
 73
     7
 74
     0
 42
0.00000001
 43
0.00000001
 40
0.0
 40
0.0
 40
0.0
 40
0.0
 40
0.2657609380754238
 40
0.553004798044353
 40
0.8418261009303992
 40
1.0
 40
1.0
 40
1.0
 40
1.0
 10
193.8791269327522
 20
137.3208850297359
 30
0.0
 10
193.9127936979626
 20
137.3121199597764
 30
0.0
 10
193.9828486986366
 20
137.2938812909265
 30
0.0
 10
194.0931734410017
 20
137.3104515814275
 30
0.0
 10
194.1799992788828
 20
137.3522520306109
 30
0.0
 10
194.221579331524
 20
137.3916632406217
 30
0.0
 10
194.2362928654075
 20
137.4056093069938
 30
0.0
  0
SPLINE
  5
23E
330
1F
100
AcDbEntity
  8
0
  6
PHANTOM
 62
     7
370
     0
100
AcDbSpline
210
0.0
220
0.0
230
1.0
 70
     8
 71
     3
 72
    12
 73
     8
 74
     0
 42
0.00000001
 43
0.00000001
 40
0.0
 40
0.0
 40
0.0
 40
0.0
 40
0.2057893337143053
 40
0.4120322215547864
 40
0.6141289519182973
 40
0.813264538005366
 40
0.9999999999999999
 40
0.9999999999999999
 40
0.9999999999999999
 40
0.9999999999999999
 10
194.2362928654075
 20
137.4056093069938
 30
0.0
 10
194.2855579759629
 20
137.4484863463992
 30
0.0
 10
194.384196776045
 20
137.5343349250454
 30
0.0
 10
194.5766359687788
 20
137.593140267309
 30
0.0
 10
194.7729229556095
 20
137.5890993615558
 30
0.0
 10
194.9543990825503
 20
137.5264143779449
 30
0.0
 10
195.0460464849253
 20
137.4455365828921
 30
0.0
 10
195.0903976227165
 20
137.4063972058919
 30
0.0
  0
SPLINE
  5
23F
330
1F
100
AcDbEntity
  8
0
  6
PHANTOM
 62
     7
370
     0
100
AcDbSpline
210
0.0
220
0.0
230
1.0
 70
     8
 71
     3
 72
    11
 73
     7
 74
     0
 42
0.00000001
 43
0.00000001
 40
0.0
 40
0.0
 40
0.0
 40
0.0
 40
0.2802369622699564
 40
0.561281108543128
 40
0.8399819553578396
 40
1.0
 40
1.0
 40
1.0
 40
1.0
 10
195.0903976227165
 20
137.4063972058919
 30
0.0
 10
195.1189375749532
 20
137.3817001802143
 30
0.0
 10
195.1760996848313
 20
137.3322349924753
 30
0.0
 10
195.2872883513384
 20
137.2996087382241
 30
0.0
 10
195.3865973312288
 20
137.3014036519021
 30
0.0
 10
195.4427889761982
 20
137.3211773728545
 30
0.0
 10
195.4632842804313
 20
137.3283896270421
 30
0.0
  0
LINE
  5
240
330
1F
100
AcDbEntity
  8
0
  6
PHANTOM
 62
     7
370
     0
100
AcDbLine
 10
193.6570474769
 20
137.5872283849
 30
0.0
 11
193.6711812283
 21
137.6834526333
 31
0.0
  0
SPLINE
  5
241
330
1F
100
AcDbEntity
  8
0
  6
PHANTOM
 62
     7
370
     0
100
AcDbSpline
210
0.0
220
0.0
230
1.0
 70
     8
 71
     3
 72
    11
 73
     7
 74
     0
 42
0.00000001
 43
0.00000001
 40
0.0
 40
0.0
 40
0.0
 40
0.0
 40
0.2928955176511859
 40
0.5864304358346524
 40
0.8775185217114584
 40
1.0
 40
1.0
 40
1.0
 40
1.0
 10
193.6711812282921
 20
137.7309780243066
 30
0.0
 10
193.6638790905215
 20
137.6940040215773
 30
0.0
 10
193.649258874174
 20
137.6199753006566
 30
0.0
 10
193.6761963425055
 20
137.5075560422019
 30
0.0
 10
193.7243119139949
 20
137.4278716689204
 30
0.0
 10
193.7637039301413
 20
137.3915185379078
 30
0.0
 10
193.7753701473594
 20
137.3807523074773
 30
0.0
  0
SPLINE
  5
242
330
1F
100
AcDbEntity
  8
0
  6
PHANTOM
 62
     7
370
     0
100
AcDbSpline
210
0.0
220
0.0
230
1.0
 70
     8
 71
     3
 72
    11
 73
     7
 74
     0
 42
0.00000001
 43
0.00000001
 40
0.0
 40
0.0
 40
0.0
 40
0.0
 40
0.2668981057061061
 40
0.5546134209845064
 40
0.843911558928702
 40
0.9999999999999999
 40
0.9999999999999999
 40
0.9999999999999999
 40
0.9999999999999999
 10
192.9903918768287
 20
138.7366220030216
 30
0.0
 10
192.9997643587863
 20
138.7030067082233
 30
0.0
 10
193.0192403467023
 20
138.6331542317654
 30
0.0
 10
193.0893670874932
 20
138.5458864891044
 30
0.0
 10
193.1692622868299
 20
138.4918310174697
 30
0.0
 10
193.2241926986286
 20
138.4755213561761
 30
0.0
 10
193.2434433962227
 20
138.4698055359748
 30
0.0
  0
SPLINE
  5
243
330
1F
100
AcDbEntity
  8
0
  6
PHANTOM
 62
     7
370
     0
100
AcDbSpline
210
0.0
220
0.0
230
1.0
 70
     8
 71
     3
 72
    12
 73
     8
 74
     0
 42
0.00000001
 43
0.00000001
 40
0.0
 40
0.0
 40
0.0
 40
0.0
 40
0.2058397484996396
 40
0.4120612148148632
 40
0.6141383208008401
 40
0.8132764051619484
 40
0.9999999999999999
 40
0.9999999999999999
 40
0.9999999999999999
 40
0.9999999999999999
 10
193.2434433962227
 20
138.4698055359748
 30
0.0
 10
193.305543059563
 20
138.4484273760419
 30
0.0
 10
193.4298575464497
 20
138.4056314116245
 30
0.0
 10
193.5775061768159
 20
138.2681888143431
 30
0.0
 10
193.6721027662319
 20
138.0963130162449
 30
0.0
 10
193.708008035938
 20
137.9082057112652
 30
0.0
 10
193.683190677752
 20
137.7887730677949
 30
0.0
 10
193.6711812282921
 20
137.7309780243066
 30
0.0
  0
LINE
  5
244
330
1F
100
AcDbEntity
  8
0
  6
PHANTOM
 62
     7
370
     0
100
AcDbLine
 10
195.6548983122
 20
137.6853003773
 30
0.0
 11
195.6692108775
 21
137.5884800825
 31
0.0
  0
SPLINE
  5
245
330
1F
100
AcDbEntity
  8
0
  6
PHANTOM
 62
     7
370
     0
100
AcDbSpline
210
0.0
220
0.0
230
1.0
 70
     8
 71
     3
 72
    11
 73
     7
 74
     0
 42
0.00000001
 43
0.00000001
 40
0.0
 40
0.0
 40
0.0
 40
0.0
 40
0.2423626407399324
 40
0.5166808183160787
 40
0.7923339004312345
 40
1.0
 40
1.0
 40
1.0
 40
1.0
 10
195.5369034673095
 20
137.3707778427032
 30
0.0
 10
195.5614796282148
 20
137.3929900431303
 30
0.0
 10
195.6138723191379
 20
137.4403431246871
 30
0.0
 10
195.6605856729758
 20
137.5393997342894
 30
0.0
 10
195.6752696685831
 20
137.6423430070386
 30
0.0
 10
195.6610206425143
 20
137.7056206962223
 30
0.0
 10
195.654898312223
 20
137.7328090044883
 30
0.0
  0
SPLINE
  5
246
330
1F
100
AcDbEntity
  8
0
  6
PHANTOM
 62
     7
370
     0
100
AcDbSpline
210
0.0
220
0.0
230
1.0
 70
     8
 71
     3
 72
    12
 73
     8
 74
     0
 42
0.00000001
 43
0.00000001
 40
0.0
 40
0.0
 40
0.0
 40
0.0
 40
0.2058594469511777
 40
0.4121028661205107
 40
0.6141946585678404
 40
0.8133217386494512
 40
1.0
 40
1.0
 40
1.0
 40
1.0
 10
195.654898312223
 20
137.7328090044883
 30
0.0
 10
195.6420766079904
 20
137.7967380201673
 30
0.0
 10
195.6164092842845
 20
137.9247152929123
 30
0.0
 10
195.6612231046737
 20
138.1204145586032
 30
0.0
 10
195.762915860723
 20
138.2882875523769
 30
0.0
 10
195.9084738126694
 20
138.4142624612611
 30
0.0
 10
196.0249155410282
 20
138.4534586798648
 30
0.0
 10
196.081257786882
 20
138.4724244150546
 30
0.0
  0
SPLINE
  5
247
330
1F
100
AcDbEntity
  8
0
  6
PHANTOM
 62
     7
370
     0
100
AcDbSpline
210
0.0
220
0.0
230
1.0
 70
     8
 71
     3
 72
    11
 73
     7
 74
     0
 42
0.00000001
 43
0.00000001
 40
0.0
 40
0.0
 40
0.0
 40
0.0
 40
0.2524794850824538
 40
0.5068875035576078
 40
0.7591797166496563
 40
1.0
 40
1.0
 40
1.0
 40
1.0
 10
196.081257786882
 20
138.4724244150546
 30
0.0
 10
196.1169467450823
 20
138.4848024388859
 30
0.0
 10
196.1885972671863
 20
138.5096530345562
 30
0.0
 10
196.2726896870913
 20
138.5895087438141
 30
0.0
 10
196.3288059986072
 20
138.6893104268615
 30
0.0
 10
196.3357974085543
 20
138.7634138802145
 30
0.0
 10
196.3392117883087
 20
138.7996036234525
 30
0.0
  0
ARC
  5
248
330
1F
100
AcDbEntity
  8
0
  6
PHANTOM
 62
     7
370
     0
100
AcDbCircle
 10
193.3197177589
 20
138.7481775307
 30
0.0
 40
0.3348318675475237
100
AcDbArc
 50
103.2749145428
 51
179.9887891242
  0
SPLINE
  5
249
330
1F
100
AcDbEntity
  8
0
  6
PHANTOM
 62
     7
370
     0
100
AcDbSpline
210
0.0
220
0.0
230
1.0
 70
     8
 71
     3
 72
    11
 73
     7
 74
     0
 42
0.00000001
 43
0.00000001
 40
0.0
 40
0.0
 40
0.0
 40
0.0
 40
0.2908585254758964
 40
0.5839571901195502
 40
0.8745959176234593
 40
1.0
 40
1.0
 40
1.0
 40
1.0
 10
193.2428324486137
 20
139.121586051884
 30
0.0
 10
193.2071579050683
 20
139.1096040125579
 30
0.0
 10
193.1355340591676
 20
139.0855476504303
 30
0.0
 10
193.0512232671706
 20
139.006533892207
 30
0.0
 10
193.0056660557701
 20
138.9248802961158
 30
0.0
 10
192.9937577684899
 20
138.8722272866572
 30
0.0
 10
192.9901683594108
 20
138.8563565585044
 30
0.0
  0
LWPOLYLINE
  5
24A
330
1F
100
AcDbEntity
  8
0
  6
PHANTOM
 62
     7
370
     0
100
AcDbPolyline
 90
        3
 70
   128
 43
0.0
 10
193.6711812283
 20
137.6834526333
 10
193.6936745311
 20
137.8006390902
 10
193.6959171559
 20
137.8518432054
  0
LWPOLYLINE
  5
24B
330
1F
100
AcDbEntity
  8
0
  6
PHANTOM
 62
     7
370
     0
100
AcDbPolyline
 90
        3
 70
   128
 43
0.0
 10
195.6298494603
 20
137.854737756
 10
195.6321889426
 20
137.802445856
 10
195.6548983122
 20
137.6853003773
  0
SPLINE
  5
24C
330
1F
100
AcDbEntity
  8
0
  6
PHANTOM
 62
     7
370
     0
100
AcDbSpline
210
0.0
220
0.0
230
1.0
 70
     8
 71
     3
 72
    11
 73
     7
 74
     0
 42
0.00000001
 43
0.00000001
 40
0.0
 40
0.0
 40
0.0
 40
0.0
 40
0.2431025814332834
 40
0.5182775949774874
 40
0.7947781195801336
 40
1.0
 40
1.0
 40
1.0
 40
1.0
 10
193.7861958409668
 20
140.2251716378358
 30
0.0
 10
193.7617055338633
 20
140.2027986340321
 30
0.0
 10
193.7094939226535
 20
140.1551009644496
 30
0.0
 10
193.6631353212809
 20
140.0552417738901
 30
0.0
 10
193.6489184230199
 20
139.9518117910477
 30
0.0
 10
193.6631352954897
 20
139.8882696325136
 30
0.0
 10
193.6691919232727
 20
139.8611995998052
 30
0.0
  0
SPLINE
  5
24D
330
1F
100
AcDbEntity
  8
0
  6
PHANTOM
 62
     7
370
     0
100
AcDbSpline
210
0.0
220
0.0
230
1.0
 70
     8
 71
     3
 72
    12
 73
     8
 74
     0
 42
0.00000001
 43
0.00000001
 40
0.0
 40
0.0
 40
0.0
 40
0.0
 40
0.2058172975883282
 40
0.4120205653205529
 40
0.6140739289269069
 40
0.8132095925532926
 40
0.9999999999999999
 40
0.9999999999999999
 40
0.9999999999999999
 40
0.9999999999999999
 10
193.6691919232727
 20
139.8611995998052
 30
0.0
 10
193.6820120451302
 20
139.7965993955095
 30
0.0
 10
193.7076763304798
 20
139.6672778418518
 30
0.0
 10
193.6628853570004
 20
139.4705091896311
 30
0.0
 10
193.5612296796029
 20
139.3027259679124
 30
0.0
 10
193.4156831899701
 20
139.1778655132014
 30
0.0
 10
193.2992073943615
 20
139.1399414928476
 30
0.0
 10
193.2428324486137
 20
139.121586051884
 30
0.0
  0
ARC
  5
24E
330
1F
100
AcDbEntity
  8
0
  6
PHANTOM
 62
     7
370
     0
100
AcDbCircle
 10
196.0044625335
 20
138.7507444759
 30
0.0
 40
0.3347492547906812
100
AcDbArc
 50
0.0000175763
 51
76.8436884973
  0
SPLINE
  5
24F
330
1F
100
AcDbEntity
  8
0
  6
PHANTOM
 62
     7
370
     0
100
AcDbSpline
210
0.0
220
0.0
230
1.0
 70
     8
 71
     3
 72
    12
 73
     8
 74
     0
 42
0.00000001
 43
0.00000001
 40
0.0
 40
0.0
 40
0.0
 40
0.0
 40
0.0091698457625399
 40
0.2573290800102557
 40
0.5054947750529192
 40
0.7550020929609981
 40
1.0
 40
1.0
 40
1.0
 40
1.0
 10
196.3392117883087
 20
138.7996036234525
 30
0.0
 10
196.3392047444012
 20
138.8009756643241
 30
0.0
 10
196.3390070745297
 20
138.8394786036715
 30
0.0
 10
196.3252056285881
 20
138.9156133343656
 30
0.0
 10
196.2693208000472
 20
139.0134838048768
 30
0.0
 10
196.1853291738927
 20
139.089560032044
 30
0.0
 10
196.1153331524573
 20
139.1127258060683
 30
0.0
 10
196.0806542898536
 20
139.1242030683187
 30
0.0
  0
SPLINE
  5
250
330
1F
100
AcDbEntity
  8
0
  6
PHANTOM
 62
     7
370
     0
100
AcDbSpline
210
0.0
220
0.0
230
1.0
 70
     8
 71
     3
 72
    12
 73
     8
 74
     0
 42
0.00000001
 43
0.00000001
 40
0.0
 40
0.0
 40
0.0
 40
0.0
 40
0.2058486268791684
 40
0.412071966482369
 40
0.6141402409068799
 40
0.8132602251182631
 40
0.9999999999999999
 40
0.9999999999999999
 40
0.9999999999999999
 40
0.9999999999999999
 10
196.0806542898536
 20
139.1242030683187
 30
0.0
 10
196.0185520929606
 20
139.1449001366781
 30
0.0
 10
195.894234652594
 20
139.1863319489209
 30
0.0
 10
195.7465846252022
 20
139.3226810757267
 30
0.0
 10
195.6520009430887
 20
139.494637212821
 30
0.0
 10
195.6160794662395
 20
139.6838947787353
 30
0.0
 10
195.6408979247969
 20
139.8046096815856
 30
0.0
 10
195.6529090072036
 20
139.8630305799869
 30
0.0
  0
SPLINE
  5
251
330
1F
100
AcDbEntity
  8
0
  6
PHANTOM
 62
     7
370
     0
100
AcDbSpline
210
0.0
220
0.0
230
1.0
 70
     8
 71
     3
 72
    11
 73
     7
 74
     0
 42
0.00000001
 43
0.00000001
 40
0.0
 40
0.0
 40
0.0
 40
0.0
 40
0.2535084682780748
 40
0.5075659067390359
 40
0.7595096190153166
 40
0.9999999999999999
 40
0.9999999999999999
 40
0.9999999999999999
 40
0.9999999999999999
 10
195.6529090072036
 20
139.8630305799869
 30
0.0
 10
195.6602206923688
 20
139.9004180004189
 30
0.0
 10
195.6748598960838
 20
139.975273803387
 30
0.0
 10
195.6478245132295
 20
140.0883627163082
 30
0.0
 10
195.5894463446123
 20
140.1868553068567
 30
0.0
 10
195.5286792379856
 20
140.2298655906954
 30
0.0
 10
195.499002363813
 20
140.2508705529598
 30
0.0
  0
ARC
  5
252
330
1F
100
AcDbEntity
  8
0
  6
PHANTOM
 62
     7
370
     0
100
AcDbCircle
 10
193.1082962479
 20
139.6443604665
 30
0.0
 40
0.5859519887182947
100
AcDbArc
 50
283.2736863952
 51
359.9890033458
  0
ARC
  5
253
330
1F
100
AcDbEntity
  8
0
  6
PHANTOM
 62
     7
370
     0
100
AcDbCircle
 10
196.2141573384
 20
139.6472813196
 30
0.0
 40
0.5859842752407795
100
AcDbArc
 50
180.0135678298
 51
256.8308272538
  0
ARC
  5
254
330
1F
100
AcDbEntity
  8
0
  6
PHANTOM
 62
     7
370
     0
100
AcDbCircle
 10
193.9898967376
 20
139.9103294945
 30
0.0
 40
0.3350174269403521
100
AcDbArc
 50
43.3032992988
 51
179.9695496913
  0
SPLINE
  5
255
330
1F
100
AcDbEntity
  8
0
  6
PHANTOM
 62
     7
370
     0
100
AcDbSpline
210
0.0
220
0.0
230
1.0
 70
     8
 71
     3
 72
    11
 73
     7
 74
     0
 42
0.00000001
 43
0.00000001
 40
0.0
 40
0.0
 40
0.0
 40
0.0
 40
0.2794043418692094
 40
0.5596241216544287
 40
0.8374899386655701
 40
1.0
 40
1.0
 40
1.0
 40
1.0
 10
194.2337000633598
 20
140.1876113984016
 30
0.0
 10
194.2051577290485
 20
140.2127093393895
 30
0.0
 10
194.1479897599967
 20
140.2629784693777
 30
0.0
 10
194.0367911496791
 20
140.2964622678947
 30
0.0
 10
193.9370539345499
 20
140.2951525947345
 30
0.0
 10
193.8805207641525
 20
140.2751975782718
 30
0.0
 10
193.8596585656525
 20
140.2678336623338
 30
0.0
  0
SPLINE
  5
256
330
1F
100
AcDbEntity
  8
0
  6
PHANTOM
 62
     7
370
     0
100
AcDbSpline
210
0.0
220
0.0
230
1.0
 70
     8
 71
     3
 72
    12
 73
     8
 74
     0
 42
0.00000001
 43
0.00000001
 40
0.0
 40
0.0
 40
0.0
 40
0.0
 40
0.0091812293883341
 40
0.2576775014756875
 40
0.5061945417930644
 40
0.7560330765468348
 40
1.0
 40
1.0
 40
1.0
 40
1.0
 10
195.499002363813
 20
140.2508705529598
 30
0.0
 10
195.4978093446503
 20
140.2515491700755
 30
0.0
 10
195.4643264433904
 20
140.2705950249873
 30
0.0
 10
195.3913220220923
 20
140.2965115372132
 30
0.0
 10
195.2783339827021
 20
140.2967391970826
 30
0.0
 10
195.1703054610698
 20
140.2617278634959
 30
0.0
 10
195.1150811850115
 20
140.2126476225838
 30
0.0
 10
195.0877973700882
 20
140.1883992972997
 30
0.0
  0
SPLINE
  5
257
330
1F
100
AcDbEntity
  8
0
  6
PHANTOM
 62
     7
370
     0
100
AcDbSpline
210
0.0
220
0.0
230
1.0
 70
     8
 71
     3
 72
    12
 73
     8
 74
     0
 42
0.00000001
 43
0.00000001
 40
0.0
 40
0.0
 40
0.0
 40
0.0
 40
0.2057547011732412
 40
0.4119624709718884
 40
0.6140131169647207
 40
0.8131456660940218
 40
1.0
 40
1.0
 40
1.0
 40
1.0
 10
195.0877973700882
 20
140.1883992972997
 30
0.0
 10
195.0385392085619
 20
140.1448466621274
 30
0.0
 10
194.9399144198102
 20
140.0576454895631
 30
0.0
 10
194.7475089118108
 20
139.9977391304024
 30
0.0
 10
194.5512513352594
 20
140.0018350880771
 30
0.0
 10
194.3697521811568
 20
140.0656497113562
 30
0.0
 10
194.2780787272821
 20
140.1478288738189
 30
0.0
 10
194.2337000633598
 20
140.1876113984016
 30
0.0
  0
ARC
  5
258
330
1F
100
AcDbEntity
  8
0
  6
PHANTOM
 62
     7
370
     0
100
AcDbCircle
 10
195.3320297528
 20
139.9115873449
 30
0.0
 40
0.335013048924079
100
AcDbArc
 50
0.0290798524
 51
136.8045922812
  0
ARC
  5
259
330
1F
100
AcDbEntity
  8
0
  6
PHANTOM
 62
     7
370
     0
100
AcDbCircle
 10
194.6603743983
 20
140.5424694631
 30
0.0
 40
0.5864711790580526
100
AcDbArc
 50
223.3204254318
 51
316.7862840844
  0
ARC
  5
25A
330
1F
100
AcDbEntity
  8
0
  6
PHANTOM
 62
     7
370
     0
100
AcDbCircle
 10
194.6650966736
 20
138.7654123118
 30
0.0
 40
2.624108940091463
100
AcDbArc
 50
269.9806293672
 51
359.9845178877
  0
ARC
  5
25B
330
1F
100
AcDbEntity
  8
0
  6
PHANTOM
 62
     7
370
     0
100
AcDbCircle
 10
194.6633330559
 20
138.7654304777
 30
0.0
 40
2.624127102327932
100
AcDbArc
 50
180.015878642
 51
270.0191367265
  0
ELLIPSE
  5
25C
330
1F
100
AcDbEntity
  8
0
  6
HIDDEN
 62
     7
370
     0
100
AcDbEllipse
 10
152.5996891039
 20
119.4928899083
 30
0.0
 11
0.0
 21
20.99999999999999
 31
0.0
210
0.0
220
0.0
230
1.0
 40
0.2679491924
 41
0.5083458664410524
 42
0.6141045486206822
  0
SPLINE
  5
25D
330
1F
100
AcDbEntity
  8
0
  6
HIDDEN
 62
     7
370
     0
100
AcDbSpline
210
0.0
220
0.0
230
1.0
 70
     8
 71
     3
 72
    12
 73
     8
 74
     0
 42
0.00000001
 43
0.00000001
 40
0.0
 40
0.0
 40
0.0
 40
0.0
 40
0.2499999999999943
 40
0.2499999999999943
 40
0.4999999999999887
 40
0.4999999999999887
 40
1.0
 40
1.0
 40
1.0
 40
1.0
 10
150.19548194238
 20
137.887127067574
 30
0.0
 10
150.1712181965551
 20
137.9004917873487
 30
0.0
 10
150.1399366287289
 20
137.9106129033017
 30
0.0
 10
150.0703787026473
 20
137.9206698786721
 30
0.0
 10
150.0318006386101
 20
137.920362223302
 30
0.0
 10
149.928281675355
 20
137.9035933211534
 30
0.0
 10
149.8776487072239
 20
137.872336546283
 30
0.0
 10
149.8608754208848
 20
137.8374572051421
 30
0.0
  0
ARC
  5
25E
330
1F
100
AcDbEntity
  8
0
  6
HIDDEN
 62
     7
370
     0
100
AcDbCircle
 10
140.0637476719
 20
119.4928899083
 30
0.0
 40
20.99999999999965
100
AcDbArc
 50
56.7716171925
 51
61.1535765321
  0
ELLIPSE
  5
25F
330
1F
100
AcDbEntity
  8
0
  6
HIDDEN
 62
     7
370
     0
100
AcDbEllipse
 10
194.5179690776
 20
119.4928899083
 30
0.0
 11
78.37306695894324
 21
0.0
 31
0.0
210
0.0
220
0.0
230
1.0
 40
0.2679491924
 41
2.144008914332365
 42
2.150741011899668
  0
ELLIPSE
  5
260
330
1F
100
AcDbEntity
  8
0
  6
HIDDEN
 62
     7
370
     0
100
AcDbEllipse
 10
155.0652716524
 20
119.4928899083
 30
0.0
 11
0.0
 21
20.99999999999999
 31
0.0
210
0.0
220
0.0
230
1.0
 40
0.2679491924
 41
0.4699480564048607
 42
0.5732125875374663
  0
SPLINE
  5
261
330
1F
100
AcDbEntity
  8
0
  6
HIDDEN
 62
     7
370
     0
100
AcDbSpline
210
0.0
220
0.0
230
1.0
 70
     8
 71
     3
 72
    12
 73
     8
 74
     0
 42
0.00000001
 43
0.00000001
 40
0.0
 40
0.0
 40
0.0
 40
0.0
 40
0.2500000000000008
 40
0.2500000000000008
 40
0.5000000000000017
 40
0.5000000000000017
 40
1.0
 40
1.0
 40
1.0
 40
1.0
 10
152.851777964675
 20
138.2615856826402
 30
0.0
 10
152.8274147698393
 20
138.2738135357127
 30
0.0
 10
152.7961426607953
 20
138.2829851161686
 30
0.0
 10
152.726991691002
 20
138.2921150693184
 30
0.0
 10
152.6887864991155
 20
138.2918877569867
 30
0.0
 10
152.5856313090651
 20
138.2769015205121
 30
0.0
 10
152.5341503994203
 20
138.2485017431369
 30
0.0
 10
152.5171714431798
 20
138.2163179504789
 30
0.0
  0
ARC
  5
262
330
1F
100
AcDbEntity
  8
0
  6
HIDDEN
 62
     7
370
     0
100
AcDbCircle
 10
143.4317960683
 20
119.4928899083
 30
0.0
 40
20.99999999999969
100
AcDbArc
 50
59.0637055401
 51
63.3479900934
  0
ELLIPSE
  5
263
330
1F
100
AcDbEntity
  8
0
  6
HIDDEN
 62
     7
370
     0
100
AcDbEllipse
 10
194.5179690776
 20
119.4928899083
 30
0.0
 11
78.3730669589433
 21
0.0
 31
0.0
210
0.0
220
0.0
230
1.0
 40
0.2679491924
 41
2.104169630591445
 42
2.110736523487295
  0
ELLIPSE
  5
264
330
1F
100
AcDbEntity
  8
0
  6
HIDDEN
 62
     7
370
     0
100
AcDbEllipse
 10
157.5308542009
 20
119.4928899083
 30
0.0
 11
0.0
 21
20.99999999999999
 31
0.0
210
0.0
220
0.0
230
1.0
 40
0.2679491924
 41
0.4322853350640481
 42
0.5333733037965518
  0
SPLINE
  5
265
330
1F
100
AcDbEntity
  8
0
  6
HIDDEN
 62
     7
370
     0
100
AcDbSpline
210
0.0
220
0.0
230
1.0
 70
     8
 71
     3
 72
    12
 73
     8
 74
     0
 42
0.00000001
 43
0.00000001
 40
0.0
 40
0.0
 40
0.0
 40
0.0
 40
0.2500000000000066
 40
0.2500000000000066
 40
0.5000000000000132
 40
0.5000000000000132
 40
1.0
 40
1.0
 40
1.0
 40
1.0
 10
155.5080739869699
 20
138.6022263327806
 30
0.0
 10
155.4836221614017
 20
138.6133691639369
 30
0.0
 10
155.4523616926158
 20
138.6216545616721
 30
0.0
 10
155.3835635936969
 20
138.6299165891915
 30
0.0
 10
155.3456879820662
 20
138.6297519235751
 30
0.0
 10
155.2428394962631
 20
138.6163756184404
 30
0.0
 10
155.1906342873139
 20
138.5906744214355
 30
0.0
 10
155.1734674654747
 20
138.5611143434448
 30
0.0
  0
ARC
  5
266
330
1F
100
AcDbEntity
  8
0
  6
HIDDEN
 62
     7
370
     0
100
AcDbCircle
 10
146.7998444646
 20
119.4928899083
 30
0.0
 40
20.99999999999974
100
AcDbArc
 50
61.3020752641
 51
65.5009851699
  0
ELLIPSE
  5
267
330
1F
100
AcDbEntity
  8
0
  6
HIDDEN
 62
     7
370
     0
100
AcDbEllipse
 10
194.5179690776
 20
119.4928899083
 30
0.0
 11
78.37306695894333
 21
0.0
 31
0.0
210
0.0
220
0.0
230
1.0
 40
0.2679491924
 41
2.065246784549138
 42
2.071669601925182
  0
ELLIPSE
  5
268
330
1F
100
AcDbEntity
  8
0
  6
HIDDEN
 62
     7
370
     0
100
AcDbEllipse
 10
159.9964367493
 20
119.4928899083
 30
0.0
 11
0.0
 21
20.99999999999999
 31
0.0
210
0.0
220
0.0
230
1.0
 40
0.2679491924
 41
0.395266369321025
 42
0.4944504577542435
  0
SPLINE
  5
269
330
1F
100
AcDbEntity
  8
0
  6
HIDDEN
 62
     7
370
     0
100
AcDbSpline
210
0.0
220
0.0
230
1.0
 70
     8
 71
     3
 72
    12
 73
     8
 74
     0
 42
0.00000001
 43
0.00000001
 40
0.0
 40
0.0
 40
0.0
 40
0.0
 40
0.2499999999999886
 40
0.2499999999999886
 40
0.4999999999999771
 40
0.4999999999999771
 40
1.0
 40
1.0
 40
1.0
 40
1.0
 10
158.1643700092648
 20
138.9108288621216
 30
0.0
 10
158.1398393765516
 20
138.9209307912909
 30
0.0
 10
158.1085917529381
 20
138.9283832866627
 30
0.0
 10
158.0400997195415
 20
138.9358268159778
 30
0.0
 10
158.0025158533699
 20
138.9357107592375
 30
0.0
 10
157.8999254915566
 20
138.9238040190476
 30
0.0
 10
157.8471012294141
 20
138.9006612016346
 30
0.0
 10
157.8297634877696
 20
138.8736645492575
 30
0.0
  0
ARC
  5
26A
330
1F
100
AcDbEntity
  8
0
  6
HIDDEN
 62
     7
370
     0
100
AcDbCircle
 10
150.1678928609
 20
119.4928899083
 30
0.0
 40
20.99999999999977
100
AcDbArc
 50
63.4935371855
 51
67.6177073284
  0
ELLIPSE
  5
26B
330
1F
100
AcDbEntity
  8
0
  6
HIDDEN
 62
     7
370
     0
100
AcDbEllipse
 10
194.5179690776
 20
119.4928899083
 30
0.0
 11
78.37306695894333
 21
0.0
 31
0.0
210
0.0
220
0.0
230
1.0
 40
0.2679491924
 41
2.027124563859065
 42
2.03342137596607
  0
ELLIPSE
  5
26C
330
1F
100
AcDbEntity
  8
0
  6
HIDDEN
 62
     7
370
     0
100
AcDbEllipse
 10
162.4620192978
 20
119.4928899083
 30
0.0
 11
0.0
 21
20.99999999999999
 31
0.0
210
0.0
220
0.0
230
1.0
 40
0.2679491924
 41
0.3588108501836553
 42
0.4563282370641687
  0
SPLINE
  5
26D
330
1F
100
AcDbEntity
  8
0
  6
HIDDEN
 62
     7
370
     0
100
AcDbSpline
210
0.0
220
0.0
230
1.0
 70
     8
 71
     3
 72
    10
 73
     6
 74
     0
 42
0.00000001
 43
0.00000001
 40
0.0
 40
0.0
 40
0.0
 40
0.0
 40
0.5
 40
0.5
 40
1.0
 40
1.0
 40
1.0
 40
1.0
 10
160.8206660315597
 20
139.1888992746877
 30
0.0
 10
160.7714651453073
 20
139.2070966114341
 30
0.0
 10
160.6934031744408
 20
139.2147676787045
 30
0.0
 10
160.5569049755179
 20
139.2006983323222
 30
0.0
 10
160.5035519315998
 20
139.1799903202177
 30
0.0
 10
160.4860595100645
 20
139.155506351038
 30
0.0
  0
ARC
  5
26E
330
1F
100
AcDbEntity
  8
0
  6
HIDDEN
 62
     7
370
     0
100
AcDbCircle
 10
153.5359412572
 20
119.4928899083
 30
0.0
 40
20.99999999999982
100
AcDbArc
 50
65.6439476032
 51
69.7026876779
  0
ELLIPSE
  5
26F
330
1F
100
AcDbEntity
  8
0
  6
HIDDEN
 62
     7
370
     0
100
AcDbEllipse
 10
194.5179690776
 20
119.4928899083
 30
0.0
 11
78.3730669589433
 21
0.0
 31
0.0
210
0.0
220
0.0
230
1.0
 40
0.2679491924
 41
1.98970316885889
 42
1.995889633907054
  0
ELLIPSE
  5
270
330
1F
100
AcDbEntity
  8
0
  6
HIDDEN
 62
     7
370
     0
100
AcDbEllipse
 10
164.9276018463
 20
119.4928899083
 30
0.0
 11
0.0
 21
20.99999999999999
 31
0.0
210
0.0
220
0.0
230
1.0
 40
0.2679491924
 41
0.3228473557618554
 42
0.4189068420639936
  0
SPLINE
  5
271
330
1F
100
AcDbEntity
  8
0
  6
HIDDEN
 62
     7
370
     0
100
AcDbSpline
210
0.0
220
0.0
230
1.0
 70
     8
 71
     3
 72
    10
 73
     6
 74
     0
 42
0.00000001
 43
0.00000001
 40
0.0
 40
0.0
 40
0.0
 40
0.0
 40
0.5
 40
0.5
 40
1.0
 40
1.0
 40
1.0
 40
1.0
 10
163.4769620538546
 20
139.4377146461472
 30
0.0
 10
163.4276381567296
 20
139.4539697207712
 30
0.0
 10
163.3500471636711
 20
139.4607280700682
 30
0.0
 10
163.2137907352976
 20
139.4483391905441
 30
0.0
 10
163.1599869765443
 20
139.4299576004556
 30
0.0
 10
163.1423555323595
 20
139.4079435657975
 30
0.0
  0
ARC
  5
272
330
1F
100
AcDbEntity
  8
0
  6
HIDDEN
 62
     7
370
     0
100
AcDbCircle
 10
156.9039896536
 20
119.4928899083
 30
0.0
 40
20.99999999999985
100
AcDbArc
 50
67.7584065497
 51
71.7599615247
  0
ELLIPSE
  5
273
330
1F
100
AcDbEntity
  8
0
  6
HIDDEN
 62
     7
370
     0
100
AcDbEllipse
 10
194.5179690776
 20
119.4928899083
 30
0.0
 11
78.37306695894327
 21
0.0
 31
0.0
210
0.0
220
0.0
230
1.0
 40
0.2679491924
 41
1.952895511147883
 42
1.958985363391965
  0
ELLIPSE
  5
274
330
1F
100
AcDbEntity
  8
0
  6
HIDDEN
 62
     7
370
     0
100
AcDbEllipse
 10
167.3931843947
 20
119.4928899083
 30
0.0
 11
0.0
 21
20.99999999999999
 31
0.0
210
0.0
220
0.0
230
1.0
 40
0.2679491924
 41
0.2873116735460154
 42
0.3820991843529857
  0
SPLINE
  5
275
330
1F
100
AcDbEntity
  8
0
  6
HIDDEN
 62
     7
370
     0
100
AcDbSpline
210
0.0
220
0.0
230
1.0
 70
     8
 71
     3
 72
    10
 73
     6
 74
     0
 42
0.00000001
 43
0.00000001
 40
0.0
 40
0.0
 40
0.0
 40
0.0
 40
0.5
 40
0.5
 40
1.0
 40
1.0
 40
1.0
 40
1.0
 10
166.1332580761496
 20
139.6583579118494
 30
0.0
 10
166.0838266166929
 20
139.6727254762442
 30
0.0
 10
166.0066483101658
 20
139.6786237185908
 30
0.0
 10
165.8705932034741
 20
139.6678116544952
 30
0.0
 10
165.8164068469333
 20
139.6516620250497
 30
0.0
 10
165.7986515546544
 20
139.6320819502837
 30
0.0
  0
ARC
  5
276
330
1F
100
AcDbEntity
  8
0
  6
HIDDEN
 62
     7
370
     0
100
AcDbCircle
 10
160.2720380499
 20
119.4928899083
 30
0.0
 40
20.99999999999987
100
AcDbArc
 50
69.8414085155
 51
73.7931617229
  0
ELLIPSE
  5
277
330
1F
100
AcDbEntity
  8
0
  6
HIDDEN
 62
     7
370
     0
100
AcDbEllipse
 10
194.5179690776
 20
119.4928899083
 30
0.0
 11
78.37306695894443
 21
0.0
 31
0.0
210
0.0
220
0.0
230
1.0
 40
0.2679491924
 41
1.916624695754012
 42
1.922630120764414
  0
ELLIPSE
  5
278
330
1F
100
AcDbEntity
  8
0
  6
HIDDEN
 62
     7
370
     0
100
AcDbEllipse
 10
169.8587669432
 20
119.4928899083
 30
0.0
 11
0.0
 21
20.99999999999999
 31
0.0
210
0.0
220
0.0
230
1.0
 40
0.2679491924
 41
0.2521454612905142
 42
0.3458283689591202
  0
SPLINE
  5
279
330
1F
100
AcDbEntity
  8
0
  6
HIDDEN
 62
     7
370
     0
100
AcDbSpline
210
0.0
220
0.0
230
1.0
 70
     8
 71
     3
 72
    10
 73
     6
 74
     0
 42
0.00000001
 43
0.00000001
 40
0.0
 40
0.0
 40
0.0
 40
0.0
 40
0.5
 40
0.5
 40
1.0
 40
1.0
 40
1.0
 40
1.0
 10
168.7895540984445
 20
139.8517450553123
 30
0.0
 10
168.740029550017
 20
139.8642715484906
 30
0.0
 10
168.6632095018705
 20
139.8693533905771
 30
0.0
 10
168.5273208826559
 20
139.8600328286009
 30
0.0
 10
168.4728119435081
 20
139.8460335157162
 30
0.0
 10
168.4549475769493
 20
139.8288572357451
 30
0.0
  0
ARC
  5
27A
330
1F
100
AcDbEntity
  8
0
  6
HIDDEN
 62
     7
370
     0
100
AcDbCircle
 10
163.6400864462
 20
119.4928899083
 30
0.0
 40
20.99999999999991
100
AcDbArc
 50
71.8969591501
 51
75.8055933388
  0
ELLIPSE
  5
27B
330
1F
100
AcDbEntity
  8
0
  6
HIDDEN
 62
     7
370
     0
100
AcDbEllipse
 10
194.5179690776
 20
119.4928899083
 30
0.0
 11
78.37306695894588
 21
0.0
 31
0.0
210
0.0
220
0.0
230
1.0
 40
0.2679491924
 41
1.880822065972532
 42
1.886753994249197
  0
ELLIPSE
  5
27C
330
1F
100
AcDbEntity
  8
0
  6
HIDDEN
 62
     7
370
     0
100
AcDbEllipse
 10
172.3243494916
 20
119.4928899083
 30
0.0
 11
0.0
 21
20.99999999999999
 31
0.0
210
0.0
220
0.0
230
1.0
 40
0.2679491924
 41
0.2172951606350426
 42
0.3100257391776383
  0
SPLINE
  5
27D
330
1F
100
AcDbEntity
  8
0
  6
HIDDEN
 62
     7
370
     0
100
AcDbSpline
210
0.0
220
0.0
230
1.0
 70
     8
 71
     3
 72
     8
 73
     4
 74
     0
 42
0.00000001
 43
0.00000001
 40
0.0
 40
0.0
 40
0.0
 40
0.0
 40
1.0
 40
1.0
 40
1.0
 40
1.0
 10
171.2526649554815
 20
140.0297696544633
 30
0.0
 10
171.1839115365894
 20
140.0258352761876
 30
0.0
 10
171.1292784682753
 20
140.0139172782227
 30
0.0
 10
171.1112435992442
 20
139.999057158619
 30
0.0
  0
ELLIPSE
  5
27E
330
1F
100
AcDbEntity
  8
0
  6
HIDDEN
 62
     7
370
     0
100
AcDbEllipse
 10
187.6212586779
 20
119.4928899083
 30
0.0
 11
78.37306695894605
 21
0.0
 31
0.0
210
0.0
220
0.0
230
1.0
 40
0.2679491924
 41
1.779164561374119
 42
1.781200147390434
  0
LINE
  5
27F
330
1F
100
AcDbEntity
  8
0
  6
HIDDEN
 62
     7
370
     0
100
AcDbLine
 10
171.4087160195
 20
140.0386556658
 30
0.0
 11
171.4087160195
 21
140.4928896251
 31
0.0
  0
SPLINE
  5
280
330
1F
100
AcDbEntity
  8
0
  6
HIDDEN
 62
     7
370
     0
100
AcDbSpline
210
0.0
220
0.0
230
1.0
 70
     8
 71
     3
 72
     8
 73
     4
 74
     0
 42
0.00000001
 43
0.00000001
 40
0.0
 40
0.0
 40
0.0
 40
0.0
 40
1.0
 40
1.0
 40
1.0
 40
1.0
 10
171.2526649554815
 20
140.0297696544633
 30
0.0
 10
171.1839115365894
 20
140.0258352761876
 30
0.0
 10
171.1292784682753
 20
140.0139172782227
 30
0.0
 10
171.1112435992442
 20
139.999057158619
 30
0.0
  0
SPLINE
  5
281
330
1F
100
AcDbEntity
  8
0
  6
HIDDEN
 62
     7
370
     0
100
AcDbSpline
210
0.0
220
0.0
230
1.0
 70
     8
 71
     3
 72
    10
 73
     6
 74
     0
 42
0.00000001
 43
0.00000001
 40
0.0
 40
0.0
 40
0.0
 40
0.0
 40
0.5
 40
0.5
 40
1.0
 40
1.0
 40
1.0
 40
1.0
 10
168.7895540984445
 20
139.8517450553123
 30
0.0
 10
168.740029550017
 20
139.8642715484906
 30
0.0
 10
168.6632095018705
 20
139.8693533905771
 30
0.0
 10
168.5273208826559
 20
139.8600328286009
 30
0.0
 10
168.4728119435081
 20
139.8460335157162
 30
0.0
 10
168.4549475769493
 20
139.8288572357451
 30
0.0
  0
SPLINE
  5
282
330
1F
100
AcDbEntity
  8
0
  6
HIDDEN
 62
     7
370
     0
100
AcDbSpline
210
0.0
220
0.0
230
1.0
 70
     8
 71
     3
 72
    10
 73
     6
 74
     0
 42
0.00000001
 43
0.00000001
 40
0.0
 40
0.0
 40
0.0
 40
0.0
 40
0.5
 40
0.5
 40
1.0
 40
1.0
 40
1.0
 40
1.0
 10
166.1332580761496
 20
139.6583579118494
 30
0.0
 10
166.0838266166929
 20
139.6727254762442
 30
0.0
 10
166.0066483101658
 20
139.6786237185908
 30
0.0
 10
165.8705932034741
 20
139.6678116544952
 30
0.0
 10
165.8164068469333
 20
139.6516620250497
 30
0.0
 10
165.7986515546544
 20
139.6320819502837
 30
0.0
  0
SPLINE
  5
283
330
1F
100
AcDbEntity
  8
0
  6
HIDDEN
 62
     7
370
     0
100
AcDbSpline
210
0.0
220
0.0
230
1.0
 70
     8
 71
     3
 72
    10
 73
     6
 74
     0
 42
0.00000001
 43
0.00000001
 40
0.0
 40
0.0
 40
0.0
 40
0.0
 40
0.5
 40
0.5
 40
1.0
 40
1.0
 40
1.0
 40
1.0
 10
163.4769620538546
 20
139.4377146461472
 30
0.0
 10
163.4276381567296
 20
139.4539697207712
 30
0.0
 10
163.3500471636711
 20
139.4607280700682
 30
0.0
 10
163.2137907352976
 20
139.4483391905441
 30
0.0
 10
163.1599869765443
 20
139.4299576004556
 30
0.0
 10
163.1423555323595
 20
139.4079435657975
 30
0.0
  0
SPLINE
  5
284
330
1F
100
AcDbEntity
  8
0
  6
HIDDEN
 62
     7
370
     0
100
AcDbSpline
210
0.0
220
0.0
230
1.0
 70
     8
 71
     3
 72
    10
 73
     6
 74
     0
 42
0.00000001
 43
0.00000001
 40
0.0
 40
0.0
 40
0.0
 40
0.0
 40
0.5
 40
0.5
 40
1.0
 40
1.0
 40
1.0
 40
1.0
 10
160.8206660315597
 20
139.1888992746877
 30
0.0
 10
160.7714651453073
 20
139.2070966114341
 30
0.0
 10
160.6934031744408
 20
139.2147676787045
 30
0.0
 10
160.5569049755179
 20
139.2006983323222
 30
0.0
 10
160.5035519315998
 20
139.1799903202177
 30
0.0
 10
160.4860595100645
 20
139.155506351038
 30
0.0
  0
SPLINE
  5
285
330
1F
100
AcDbEntity
  8
0
  6
HIDDEN
 62
     7
370
     0
100
AcDbSpline
210
0.0
220
0.0
230
1.0
 70
     8
 71
     3
 72
    12
 73
     8
 74
     0
 42
0.00000001
 43
0.00000001
 40
0.0
 40
0.0
 40
0.0
 40
0.0
 40
0.2499999999999899
 40
0.2499999999999899
 40
0.4999999999999798
 40
0.4999999999999798
 40
1.0
 40
1.0
 40
1.0
 40
1.0
 10
158.1643700092648
 20
138.9108288621216
 30
0.0
 10
158.1398393765516
 20
138.9209307912909
 30
0.0
 10
158.1085917529381
 20
138.9283832866627
 30
0.0
 10
158.0400997195415
 20
138.9358268159778
 30
0.0
 10
158.0025158533699
 20
138.9357107592375
 30
0.0
 10
157.8999254915566
 20
138.9238040190476
 30
0.0
 10
157.8471012294141
 20
138.9006612016346
 30
0.0
 10
157.8297634877696
 20
138.8736645492575
 30
0.0
  0
SPLINE
  5
286
330
1F
100
AcDbEntity
  8
0
  6
HIDDEN
 62
     7
370
     0
100
AcDbSpline
210
0.0
220
0.0
230
1.0
 70
     8
 71
     3
 72
    12
 73
     8
 74
     0
 42
0.00000001
 43
0.00000001
 40
0.0
 40
0.0
 40
0.0
 40
0.0
 40
0.2500000000000066
 40
0.2500000000000066
 40
0.5000000000000132
 40
0.5000000000000132
 40
1.0
 40
1.0
 40
1.0
 40
1.0
 10
155.5080739869699
 20
138.6022263327806
 30
0.0
 10
155.4836221614017
 20
138.6133691639369
 30
0.0
 10
155.4523616926158
 20
138.6216545616721
 30
0.0
 10
155.3835635936969
 20
138.6299165891915
 30
0.0
 10
155.3456879820662
 20
138.6297519235751
 30
0.0
 10
155.2428394962631
 20
138.6163756184404
 30
0.0
 10
155.1906342873139
 20
138.5906744214355
 30
0.0
 10
155.1734674654747
 20
138.5611143434449
 30
0.0
  0
SPLINE
  5
287
330
1F
100
AcDbEntity
  8
0
  6
HIDDEN
 62
     7
370
     0
100
AcDbSpline
210
0.0
220
0.0
230
1.0
 70
     8
 71
     3
 72
    12
 73
     8
 74
     0
 42
0.00000001
 43
0.00000001
 40
0.0
 40
0.0
 40
0.0
 40
0.0
 40
0.2499999999999992
 40
0.2499999999999992
 40
0.4999999999999983
 40
0.4999999999999983
 40
1.0
 40
1.0
 40
1.0
 40
1.0
 10
152.851777964675
 20
138.2615856826402
 30
0.0
 10
152.8274147698393
 20
138.2738135357127
 30
0.0
 10
152.7961426607953
 20
138.2829851161686
 30
0.0
 10
152.726991691002
 20
138.2921150693184
 30
0.0
 10
152.6887864991155
 20
138.2918877569867
 30
0.0
 10
152.5856313090651
 20
138.2769015205121
 30
0.0
 10
152.5341503994203
 20
138.2485017431369
 30
0.0
 10
152.5171714431798
 20
138.2163179504789
 30
0.0
  0
SPLINE
  5
288
330
1F
100
AcDbEntity
  8
0
  6
HIDDEN
 62
     7
370
     0
100
AcDbSpline
210
0.0
220
0.0
230
1.0
 70
     8
 71
     3
 72
    12
 73
     8
 74
     0
 42
0.00000001
 43
0.00000001
 40
0.0
 40
0.0
 40
0.0
 40
0.0
 40
0.2499999999999943
 40
0.2499999999999943
 40
0.4999999999999887
 40
0.4999999999999887
 40
1.0
 40
1.0
 40
1.0
 40
1.0
 10
150.19548194238
 20
137.887127067574
 30
0.0
 10
150.1712181965551
 20
137.9004917873487
 30
0.0
 10
150.1399366287289
 20
137.9106129033017
 30
0.0
 10
150.0703787026473
 20
137.9206698786721
 30
0.0
 10
150.0318006386101
 20
137.920362223302
 30
0.0
 10
149.928281675355
 20
137.9035933211534
 30
0.0
 10
149.8776487072239
 20
137.872336546283
 30
0.0
 10
149.8608754208848
 20
137.8374572051421
 30
0.0
  0
ELLIPSE
  5
289
330
1F
100
AcDbEntity
  8
0
  6
HIDDEN
 62
     7
370
     0
100
AcDbEllipse
 10
152.5996891039
 20
119.4928899083
 30
0.0
 11
0.0
 21
20.99999999999999
 31
0.0
210
0.0
220
0.0
230
1.0
 40
0.2679491924
 41
0.5083458664410496
 42
0.6029676588085333
  0
LINE
  5
28A
330
1F
100
AcDbEntity
  8
0
  6
HIDDEN
 62
     7
370
     0
100
AcDbLine
 10
171.4087160195
 20
98.4928901914
 30
0.0
 11
171.4087160195
 21
98.9471241507
 31
0.0
  0
ELLIPSE
  5
28B
330
1F
100
AcDbEntity
  8
0
  6
HIDDEN
 62
     7
370
     0
100
AcDbEllipse
 10
187.6212586779
 20
119.4928899083
 30
0.0
 11
78.37306695894605
 21
0.0
 31
0.0
210
0.0
220
0.0
230
1.0
 40
0.2679491924
 41
4.501985159789159
 42
4.504020745805473
  0
SPLINE
  5
28C
330
1F
100
AcDbEntity
  8
0
  6
HIDDEN
 62
     7
370
     0
100
AcDbSpline
210
0.0
220
0.0
230
1.0
 70
     8
 71
     3
 72
     8
 73
     4
 74
     0
 42
0.00000001
 43
0.00000001
 40
0.0
 40
0.0
 40
0.0
 40
0.0
 40
1.0
 40
1.0
 40
1.0
 40
1.0
 10
171.1112435992442
 20
98.98672265789472
 30
0.0
 10
171.1293020075026
 20
98.97184314276713
 30
0.0
 10
171.1838167350321
 20
98.95994996529545
 30
0.0
 10
171.2526649554815
 20
98.95601016205039
 30
0.0
  0
ELLIPSE
  5
28D
330
1F
100
AcDbEntity
  8
0
  6
HIDDEN
 62
     7
370
     0
100
AcDbEllipse
 10
172.3243494916
 20
119.4928899083
 30
0.0
 11
0.0
 21
20.99999999999999
 31
0.0
210
0.0
220
0.0
230
1.0
 40
0.2679491924
 41
2.831566914412154
 42
2.924297492954751
  0
ELLIPSE
  5
28E
330
1F
100
AcDbEntity
  8
0
  6
HIDDEN
 62
     7
370
     0
100
AcDbEllipse
 10
194.5179690776
 20
119.4928899083
 30
0.0
 11
78.37306695894588
 21
0.0
 31
0.0
210
0.0
220
0.0
230
1.0
 40
0.2679491924
 41
4.396431312930398
 42
4.402363241207063
  0
ARC
  5
28F
330
1F
100
AcDbEntity
  8
0
  6
HIDDEN
 62
     7
370
     0
100
AcDbCircle
 10
163.6400864462
 20
119.4928899083
 30
0.0
 40
20.99999999999992
100
AcDbArc
 50
284.1944066612
 51
288.1030408499
  0
SPLINE
  5
290
330
1F
100
AcDbEntity
  8
0
  6
HIDDEN
 62
     7
370
     0
100
AcDbSpline
210
0.0
220
0.0
230
1.0
 70
     8
 71
     3
 72
    10
 73
     6
 74
     0
 42
0.00000001
 43
0.00000001
 40
0.0
 40
0.0
 40
0.0
 40
0.0
 40
0.5
 40
0.5
 40
1.0
 40
1.0
 40
1.0
 40
1.0
 10
168.4549475769493
 20
99.15692258076857
 30
0.0
 10
168.472817383487
 20
99.13974107035175
 30
0.0
 10
168.5267217937893
 20
99.1258053346967
 30
0.0
 10
168.6634483092682
 20
99.11639283615992
 30
0.0
 10
168.7400044042409
 20
99.12150190777547
 30
0.0
 10
168.7895540984445
 20
99.13403476120145
 30
0.0
  0
ELLIPSE
  5
291
330
1F
100
AcDbEntity
  8
0
  6
HIDDEN
 62
     7
370
     0
100
AcDbEllipse
 10
169.8587669432
 20
119.4928899083
 30
0.0
 11
0.0
 21
20.99999999999999
 31
0.0
210
0.0
220
0.0
230
1.0
 40
0.2679491924
 41
2.795764284630673
 42
2.889447192299279
  0
ELLIPSE
  5
292
330
1F
100
AcDbEntity
  8
0
  6
HIDDEN
 62
     7
370
     0
100
AcDbEllipse
 10
194.5179690776
 20
119.4928899083
 30
0.0
 11
78.37306695894443
 21
0.0
 31
0.0
210
0.0
220
0.0
230
1.0
 40
0.2679491924
 41
4.360555186415182
 42
4.366560611425584
  0
ARC
  5
293
330
1F
100
AcDbEntity
  8
0
  6
HIDDEN
 62
     7
370
     0
100
AcDbCircle
 10
160.2720380499
 20
119.4928899083
 30
0.0
 40
20.99999999999988
100
AcDbArc
 50
286.2068382771
 51
290.1585914845
  0
SPLINE
  5
294
330
1F
100
AcDbEntity
  8
0
  6
HIDDEN
 62
     7
370
     0
100
AcDbSpline
210
0.0
220
0.0
230
1.0
 70
     8
 71
     3
 72
    10
 73
     6
 74
     0
 42
0.00000001
 43
0.00000001
 40
0.0
 40
0.0
 40
0.0
 40
0.0
 40
0.5
 40
0.5
 40
1.0
 40
1.0
 40
1.0
 40
1.0
 10
165.7986515546544
 20
99.35369786623001
 30
0.0
 10
165.8164133668387
 20
99.33411060148192
 30
0.0
 10
165.8698026030172
 20
99.31805672831997
 30
0.0
 10
166.0069740989219
 20
99.3071045564576
 30
0.0
 10
166.0837933755319
 20
99.31304467851709
 30
0.0
 10
166.1332580761496
 20
99.32742190466435
 30
0.0
  0
ELLIPSE
  5
295
330
1F
100
AcDbEntity
  8
0
  6
HIDDEN
 62
     7
370
     0
100
AcDbEllipse
 10
167.3931843947
 20
119.4928899083
 30
0.0
 11
0.0
 21
20.99999999999999
 31
0.0
210
0.0
220
0.0
230
1.0
 40
0.2679491924
 41
2.759493469236808
 42
2.854280980043778
  0
ELLIPSE
  5
296
330
1F
100
AcDbEntity
  8
0
  6
HIDDEN
 62
     7
370
     0
100
AcDbEllipse
 10
194.5179690776
 20
119.4928899083
 30
0.0
 11
78.37306695894327
 21
0.0
 31
0.0
210
0.0
220
0.0
230
1.0
 40
0.2679491924
 41
4.324199943787632
 42
4.330289796031714
  0
ARC
  5
297
330
1F
100
AcDbEntity
  8
0
  6
HIDDEN
 62
     7
370
     0
100
AcDbCircle
 10
156.9039896536
 20
119.4928899083
 30
0.0
 40
20.99999999999986
100
AcDbArc
 50
288.2400384753
 51
292.2415934503
  0
SPLINE
  5
298
330
1F
100
AcDbEntity
  8
0
  6
HIDDEN
 62
     7
370
     0
100
AcDbSpline
210
0.0
220
0.0
230
1.0
 70
     8
 71
     3
 72
    10
 73
     6
 74
     0
 42
0.00000001
 43
0.00000001
 40
0.0
 40
0.0
 40
0.0
 40
0.0
 40
0.5
 40
0.5
 40
1.0
 40
1.0
 40
1.0
 40
1.0
 10
163.1423555323595
 20
99.57783625071619
 30
0.0
 10
163.1599944177053
 20
99.55581292527208
 30
0.0
 10
163.2128795663056
 20
99.5375608848035
 30
0.0
 10
163.3503656213994
 20
99.52498553976034
 30
0.0
 10
163.4275953925653
 20
99.53179600247896
 30
0.0
 10
163.4769620538546
 20
99.5480651703665
 30
0.0
  0
ELLIPSE
  5
299
330
1F
100
AcDbEntity
  8
0
  6
HIDDEN
 62
     7
370
     0
100
AcDbEllipse
 10
164.9276018463
 20
119.4928899083
 30
0.0
 11
0.0
 21
20.99999999999999
 31
0.0
210
0.0
220
0.0
230
1.0
 40
0.2679491924
 41
2.7226858115258
 42
2.818745297827939
  0
ELLIPSE
  5
29A
330
1F
100
AcDbEntity
  8
0
  6
HIDDEN
 62
     7
370
     0
100
AcDbEllipse
 10
194.5179690776
 20
119.4928899083
 30
0.0
 11
78.3730669589433
 21
0.0
 31
0.0
210
0.0
220
0.0
230
1.0
 40
0.2679491924
 41
4.287295673272545
 42
4.293482138320709
  0
ARC
  5
29B
330
1F
100
AcDbEntity
  8
0
  6
HIDDEN
 62
     7
370
     0
100
AcDbCircle
 10
153.5359412572
 20
119.4928899083
 30
0.0
 40
20.99999999999982
100
AcDbArc
 50
290.2973123221
 51
294.3560523968
  0
SPLINE
  5
29C
330
1F
100
AcDbEntity
  8
0
  6
HIDDEN
 62
     7
370
     0
100
AcDbSpline
210
0.0
220
0.0
230
1.0
 70
     8
 71
     3
 72
    10
 73
     6
 74
     0
 42
0.00000001
 43
0.00000001
 40
0.0
 40
0.0
 40
0.0
 40
0.0
 40
0.5
 40
0.5
 40
1.0
 40
1.0
 40
1.0
 40
1.0
 10
160.4860595100645
 20
99.83027346547566
 30
0.0
 10
160.5035600260223
 20
99.80577816661291
 30
0.0
 10
160.5559975046334
 20
99.78522750810845
 30
0.0
 10
160.6935726023504
 20
99.77094246730836
 30
0.0
 10
160.7714112662338
 20
99.77866327747832
 30
0.0
 10
160.8206660315597
 20
99.796880541826
 30
0.0
  0
ELLIPSE
  5
29D
330
1F
100
AcDbEntity
  8
0
  6
HIDDEN
 62
     7
370
     0
100
AcDbEllipse
 10
162.4620192978
 20
119.4928899083
 30
0.0
 11
0.0
 21
20.99999999999999
 31
0.0
210
0.0
220
0.0
230
1.0
 40
0.2679491924
 41
2.685264416525624
 42
2.782781803406139
  0
ELLIPSE
  5
29E
330
1F
100
AcDbEntity
  8
0
  6
HIDDEN
 62
     7
370
     0
100
AcDbEllipse
 10
194.5179690776
 20
119.4928899083
 30
0.0
 11
78.37306695894333
 21
0.0
 31
0.0
210
0.0
220
0.0
230
1.0
 40
0.2679491924
 41
4.249763931213529
 42
4.256060743320534
  0
ARC
  5
29F
330
1F
100
AcDbEntity
  8
0
  6
HIDDEN
 62
     7
370
     0
100
AcDbCircle
 10
150.1678928609
 20
119.4928899083
 30
0.0
 40
20.99999999999978
100
AcDbArc
 50
292.3822926716
 51
296.5064628145
  0
SPLINE
  5
2A0
330
1F
100
AcDbEntity
  8
0
  6
HIDDEN
 62
     7
370
     0
100
AcDbSpline
210
0.0
220
0.0
230
1.0
 70
     8
 71
     3
 72
    10
 73
     6
 74
     0
 42
0.00000001
 43
0.00000001
 40
0.0
 40
0.0
 40
0.0
 40
0.0
 40
0.5
 40
0.5
 40
1.0
 40
1.0
 40
1.0
 40
1.0
 10
157.8297634877696
 20
100.1121152672562
 30
0.0
 10
157.847109589742
 20
100.0851055969861
 30
0.0
 10
157.8990349208707
 20
100.0621506205055
 30
0.0
 10
158.0367045574191
 20
100.0460300843167
 30
0.0
 10
158.1152419442362
 20
100.0547195873929
 30
0.0
 10
158.1643700092648
 20
100.0749509543921
 30
0.0
  0
ELLIPSE
  5
2A1
330
1F
100
AcDbEntity
  8
0
  6
HIDDEN
 62
     7
370
     0
100
AcDbEllipse
 10
159.9964367493
 20
119.4928899083
 30
0.0
 11
0.0
 21
20.99999999999999
 31
0.0
210
0.0
220
0.0
230
1.0
 40
0.2679491924
 41
2.64714219583555
 42
2.746326284268769
  0
ELLIPSE
  5
2A2
330
1F
100
AcDbEntity
  8
0
  6
HIDDEN
 62
     7
370
     0
100
AcDbEllipse
 10
194.5179690776
 20
119.4928899083
 30
0.0
 11
78.37306695894333
 21
0.0
 31
0.0
210
0.0
220
0.0
230
1.0
 40
0.2679491924
 41
4.21151570525442
 42
4.217938522630463
  0
ARC
  5
2A3
330
1F
100
AcDbEntity
  8
0
  6
HIDDEN
 62
     7
370
     0
100
AcDbCircle
 10
146.7998444646
 20
119.4928899083
 30
0.0
 40
20.99999999999974
100
AcDbArc
 50
294.4990148301
 51
298.6979247359
  0
SPLINE
  5
2A4
330
1F
100
AcDbEntity
  8
0
  6
HIDDEN
 62
     7
370
     0
100
AcDbSpline
210
0.0
220
0.0
230
1.0
 70
     8
 71
     3
 72
    12
 73
     8
 74
     0
 42
0.00000001
 43
0.00000001
 40
0.0
 40
0.0
 40
0.0
 40
0.0
 40
0.5000000000000098
 40
0.5000000000000098
 40
0.7500000000000049
 40
0.7500000000000049
 40
1.0
 40
1.0
 40
1.0
 40
1.0
 10
155.1734674654747
 20
100.4246654730688
 30
0.0
 10
155.1906423992274
 20
100.3950914269251
 30
0.0
 10
155.2419832729716
 20
100.3696104442607
 30
0.0
 10
155.3453111537785
 20
100.3560300110214
 30
0.0
 10
155.3829821949941
 20
100.3558333922609
 30
0.0
 10
155.4520253076643
 20
100.364045400597
 30
0.0
 10
155.4835812529926
 20
100.3723920103901
 30
0.0
 10
155.5080739869699
 20
100.3835534837332
 30
0.0
  0
ELLIPSE
  5
2A5
330
1F
100
AcDbEntity
  8
0
  6
HIDDEN
 62
     7
370
     0
100
AcDbEllipse
 10
157.5308542009
 20
119.4928899083
 30
0.0
 11
0.0
 21
20.99999999999999
 31
0.0
210
0.0
220
0.0
230
1.0
 40
0.2679491924
 41
2.608219349793241
 42
2.709307318525746
  0
ELLIPSE
  5
2A6
330
1F
100
AcDbEntity
  8
0
  6
HIDDEN
 62
     7
370
     0
100
AcDbEllipse
 10
194.5179690776
 20
119.4928899083
 30
0.0
 11
78.3730669589433
 21
0.0
 31
0.0
210
0.0
220
0.0
230
1.0
 40
0.2679491924
 41
4.172448783692309
 42
4.179015676588158
  0
ARC
  5
2A7
330
1F
100
AcDbEntity
  8
0
  6
HIDDEN
 62
     7
370
     0
100
AcDbCircle
 10
143.4317960683
 20
119.4928899083
 30
0.0
 40
20.99999999999969
100
AcDbArc
 50
296.6520099066
 51
300.9362944599
  0
SPLINE
  5
2A8
330
1F
100
AcDbEntity
  8
0
  6
HIDDEN
 62
     7
370
     0
100
AcDbSpline
210
0.0
220
0.0
230
1.0
 70
     8
 71
     3
 72
    12
 73
     8
 74
     0
 42
0.00000001
 43
0.00000001
 40
0.0
 40
0.0
 40
0.0
 40
0.0
 40
0.4999999999999903
 40
0.4999999999999903
 40
0.7499999999999951
 40
0.7499999999999951
 40
1.0
 40
1.0
 40
1.0
 40
1.0
 10
152.5171714431798
 20
100.7694618660348
 30
0.0
 10
152.5341576168144
 20
100.7372643927294
 30
0.0
 10
152.5848312770118
 20
100.7091178284851
 30
0.0
 10
152.6882416900782
 20
100.6939103967923
 30
0.0
 10
152.7263383795238
 20
100.6936279281796
 30
0.0
 10
152.795771912531
 20
100.7026970375422
 30
0.0
 10
152.8273650963618
 20
100.7119413497528
 30
0.0
 10
152.851777964675
 20
100.7241941338735
 30
0.0
  0
ELLIPSE
  5
2A9
330
1F
100
AcDbEntity
  8
0
  6
HIDDEN
 62
     7
370
     0
100
AcDbEllipse
 10
155.0652716524
 20
119.4928899083
 30
0.0
 11
0.0
 21
20.99999999999999
 31
0.0
210
0.0
220
0.0
230
1.0
 40
0.2679491924
 41
2.568380066052327
 42
2.671644597184933
  0
ELLIPSE
  5
2AA
330
1F
100
AcDbEntity
  8
0
  6
HIDDEN
 62
     7
370
     0
100
AcDbEllipse
 10
194.5179690776
 20
119.4928899083
 30
0.0
 11
78.37306695894324
 21
0.0
 31
0.0
210
0.0
220
0.0
230
1.0
 40
0.2679491924
 41
4.132444295279936
 42
4.139176392847239
  0
ARC
  5
2AB
330
1F
100
AcDbEntity
  8
0
  6
HIDDEN
 62
     7
370
     0
100
AcDbCircle
 10
140.0637476719
 20
119.4928899083
 30
0.0
 40
20.99999999999964
100
AcDbArc
 50
298.8464234679
 51
303.2283828075
  0
SPLINE
  5
2AC
330
1F
100
AcDbEntity
  8
0
  6
HIDDEN
 62
     7
370
     0
100
AcDbSpline
210
0.0
220
0.0
230
1.0
 70
     8
 71
     3
 72
    12
 73
     8
 74
     0
 42
0.00000001
 43
0.00000001
 40
0.0
 40
0.0
 40
0.0
 40
0.0
 40
0.4999999999999983
 40
0.4999999999999983
 40
0.7499999999999991
 40
0.7499999999999991
 40
1.0
 40
1.0
 40
1.0
 40
1.0
 10
149.8608754208849
 20
101.1483226113716
 30
0.0
 10
149.8776542495078
 20
101.1134317452853
 30
0.0
 10
149.9275634942143
 20
101.0824600725846
 30
0.0
 10
150.0310682501467
 20
101.0654588482294
 30
0.0
 10
150.0696388939556
 20
101.0650641531522
 30
0.0
 10
150.1395296747224
 20
101.0750478902234
 30
0.0
 10
150.1711581896454
 20
101.0852549767443
 30
0.0
 10
150.19548194238
 20
101.0986527489397
 30
0.0
  0
ELLIPSE
  5
2AD
330
1F
100
AcDbEntity
  8
0
  6
HIDDEN
 62
     7
370
     0
100
AcDbEllipse
 10
152.5996891039
 20
119.4928899083
 30
0.0
 11
0.0
 21
20.99999999999999
 31
0.0
210
0.0
220
0.0
230
1.0
 40
0.2679491924
 41
2.527488104969112
 42
2.633246787148741
  0
ELLIPSE
  5
2AE
330
1F
100
AcDbEntity
  8
0
  6
HIDDEN
 62
     7
370
     0
100
AcDbEllipse
 10
194.5179690776
 20
119.4928899083
 30
0.0
 11
78.37306695896029
 21
0.0
 31
0.0
210
0.0
220
0.0
230
1.0
 40
0.2679491924
 41
4.088122203430867
 42
4.098284431764027
  0
LINE
  5
2AF
330
1F
100
AcDbEntity
  8
0
  6
HIDDEN
 62
     7
370
     0
100
AcDbLine
 10
148.7087154652
 20
102.4536598149
 30
0.0
 11
148.7087154652
 21
106.0678647506
 31
0.0
  0
ELLIPSE
  5
2B0
330
1F
100
AcDbEntity
  8
0
  6
HIDDEN
 62
     7
370
     0
100
AcDbEllipse
 10
153.0356486374
 20
119.4928899083
 30
0.0
 11
0.0
 21
20.99999999999999
 31
0.0
210
0.0
220
0.0
230
1.0
 40
0.2679491924
 41
0.8772257260923502
 42
2.264366927497444
  0
LINE
  5
2B1
330
1F
100
AcDbEntity
  8
0
  6
HIDDEN
 62
     7
370
     0
100
AcDbLine
 10
148.7087154652
 20
132.9179150659
 30
0.0
 11
148.7087154652
 21
136.5321200016
 31
0.0
  0
ELLIPSE
  5
2B2
330
1F
100
AcDbEntity
  8
0
  6
HIDDEN
 62
     7
370
     0
100
AcDbEllipse
 10
194.5179690776
 20
119.4928899083
 30
0.0
 11
78.37306695896029
 21
0.0
 31
0.0
210
0.0
220
0.0
230
1.0
 40
0.2679491924
 41
2.184900875415579
 42
2.19506310374874
  0
ARC
  5
2B3
330
1F
100
AcDbEntity
  8
0
  6
HIDDEN
 62
     7
370
     0
100
AcDbCircle
 10
135.7087155963
 20
119.4928899083
 30
0.0
 40
1.649999999999991
100
AcDbArc
 50
45.2260123243
 51
90.0
  0
SPLINE
  5
2B4
330
1F
100
AcDbEntity
  8
0
  6
HIDDEN
 62
     7
370
     0
100
AcDbSpline
210
0.0
220
0.0
230
1.0
 70
     8
 71
     3
 72
    22
 73
    18
 74
     0
 42
0.00000001
 43
0.00000001
 40
0.0
 40
0.0
 40
0.0
 40
0.0
 40
0.1249999999999999
 40
0.1249999999999999
 40
0.2499999999999999
 40
0.2499999999999999
 40
0.3749999999999999
 40
0.3749999999999999
 40
0.5
 40
0.5
 40
0.625
 40
0.625
 40
0.75
 40
0.75
 40
0.8750000000000001
 40
0.8750000000000001
 40
1.0
 40
1.0
 40
1.0
 40
1.0
 10
136.8708303827033
 20
118.3215704713426
 30
0.0
 10
136.8073203413797
 20
118.3927202391424
 30
0.0
 10
136.7564313811373
 20
118.4719290920431
 30
0.0
 10
136.6812425056965
 20
118.6487403465214
 30
0.0
 10
136.657510376579
 20
118.7470050403216
 30
0.0
 10
136.6313422973006
 20
118.9497452308097
 30
0.0
 10
136.6278443708212
 20
119.0565183776717
 30
0.0
 10
136.6257991315436
 20
119.2722356170496
 30
0.0
 10
136.6268826367297
 20
119.3822782049928
 30
0.0
 10
136.626880945688
 20
119.6039929431786
 30
0.0
 10
136.625810060009
 20
119.7130345644083
 30
0.0
 10
136.6278149121844
 20
119.9278014501616
 30
0.0
 10
136.6312633513151
 20
120.0346631072629
 30
0.0
 10
136.6572161596398
 20
120.237244316579
 30
0.0
 10
136.6803045203741
 20
120.3343479576777
 30
0.0
 10
136.7560311101426
 20
120.5133867527485
 30
0.0
 10
136.807272263827
 20
120.5930057164914
 30
0.0
 10
136.8708303827033
 20
120.6642093451711
 30
0.0
  0
ARC
  5
2B5
330
1F
100
AcDbEntity
  8
0
  6
HIDDEN
 62
     7
370
     0
100
AcDbCircle
 10
135.7087155963
 20
119.4928899083
 30
0.0
 40
1.650000000000006
100
AcDbArc
 50
270.0
 51
314.7739876757
  0
ARC
  5
2B6
330
1F
100
AcDbEntity
  8
0
  6
HIDDEN
 62
     7
370
     0
100
AcDbCircle
 10
135.7087155963
 20
119.4928899083
 30
0.0
 40
1.650000000000006
100
AcDbArc
 50
270.0
 51
90.0
  0
LINE
  5
2B7
330
1F
100
AcDbEntity
  8
0
  6
HIDDEN
 62
     7
370
     0
100
AcDbLine
 10
124.5087155963
 20
138.9928903106
 30
0.0
 11
124.5087155963
 21
99.9928895059
 31
0.0
  0
SPLINE
  5
2B8
330
1F
100
AcDbEntity
  8
0
  6
HIDDEN
 62
     7
370
     0
100
AcDbSpline
210
0.0
220
0.0
230
1.0
 70
     8
 71
     3
 72
    24
 73
    20
 74
     0
 42
0.00000001
 43
0.00000001
 40
0.0
 40
0.0
 40
0.0
 40
0.0
 40
0.1250000000000001
 40
0.1250000000000001
 40
0.2500000000000003
 40
0.2500000000000003
 40
0.3750000000000004
 40
0.3750000000000004
 40
0.5000000000000006
 40
0.5000000000000006
 40
0.5625000000000007
 40
0.5625000000000007
 40
0.6250000000000007
 40
0.6250000000000007
 40
0.7500000000000004
 40
0.7500000000000004
 40
0.8750000000000003
 40
0.8750000000000003
 40
1.0
 40
1.0
 40
1.0
 40
1.0
 10
134.7927073809674
 20
118.1205091486323
 30
0.0
 10
134.7004013654457
 20
118.182119651368
 30
0.0
 10
134.6070746841942
 20
118.2575793859068
 30
0.0
 10
134.4262227924145
 20
118.4465548788208
 30
0.0
 10
134.3392314101537
 20
118.561622473963
 30
0.0
 10
134.2000187530704
 20
118.8098234360144
 30
0.0
 10
134.1474430235055
 20
118.9412584249779
 30
0.0
 10
134.0771012098065
 20
119.2105712342588
 30
0.0
 10
134.0586080665831
 20
119.3520280050482
 30
0.0
 10
134.0587700759594
 20
119.5652018276351
 30
0.0
 10
134.0635451704396
 20
119.6373452166022
 30
0.0
 10
134.081821069879
 20
119.7769097423135
 30
0.0
 10
134.0952420015685
 20
119.8450436921607
 30
0.0
 10
134.1481022408716
 20
120.046264346416
 30
0.0
 10
134.2003906420083
 20
120.1768394150146
 30
0.0
 10
134.3400841712935
 20
120.4254557869091
 30
0.0
 10
134.4260524416759
 20
120.5390032448047
 30
0.0
 10
134.6067184539746
 20
120.7278717621524
 30
0.0
 10
134.6993722161274
 20
120.8029732499288
 30
0.0
 10
134.7927073809673
 20
120.8652706678836
 30
0.0
  0
LWPOLYLINE
  5
2B9
330
1F
100
AcDbEntity
  8
0
  6
HIDDEN
 62
     7
370
     0
100
AcDbPolyline
 90
        9
 70
   128
 43
0.0
 10
134.1529706384
 20
118.9432014386
 10
134.195424978
 20
118.6065285607
 10
134.2564368512
 20
118.3155184287
 10
134.3328611816
 20
118.085163124
 10
134.4207622002
 20
117.9273297918
 10
134.5156108852
 20
117.8501495767
 10
134.6125215183
 20
117.8575985274
 10
134.706500348
 20
117.9492930557
 10
134.7927072908
 20
118.120509144
  0
LWPOLYLINE
  5
2BA
330
1F
100
AcDbEntity
  8
0
  6
HIDDEN
 62
     7
370
     0
100
AcDbPolyline
 90
        9
 70
   128
 43
0.0
 10
134.7927072908
 20
120.8652706725
 10
134.706500348
 20
121.0364867608
 10
134.6125215183
 20
121.1281812891
 10
134.5156108852
 20
121.1356302398
 10
134.4207622002
 20
121.0584500247
 10
134.3328611816
 20
120.9006166925
 10
134.2564368512
 20
120.6702613878
 10
134.195424978
 20
120.3792512558
 10
134.1529706384
 20
120.0425783779
  0
SPLINE
  5
2BB
330
1F
100
AcDbEntity
  8
0
  6
HIDDEN
 62
     7
370
     0
100
AcDbSpline
210
0.0
220
0.0
230
1.0
 70
     8
 71
     3
 72
    14
 73
    10
 74
     0
 42
0.00000001
 43
0.00000001
 40
0.0
 40
0.0
 40
0.0
 40
0.0
 40
0.25
 40
0.25
 40
0.5
 40
0.5
 40
0.75
 40
0.75
 40
1.0
 40
1.0
 40
1.0
 40
1.0
 10
134.1529705662537
 20
120.0425783667422
 30
0.0
 10
134.1254542159559
 20
119.9647007534129
 30
0.0
 10
134.1009380380623
 20
119.8756041949551
 30
0.0
 10
134.0677705240367
 20
119.6896592448631
 30
0.0
 10
134.0587065277219
 20
119.5905686401154
 30
0.0
 10
134.0587246791385
 20
119.3949050403848
 30
0.0
 10
134.0678307735781
 20
119.2957177807081
 30
0.0
 10
134.1009480967872
 20
119.1101843859115
 30
0.0
 10
134.1252857009518
 20
119.0215559994018
 30
0.0
 10
134.1529705662537
 20
118.9432014497715
 30
0.0
  0
ARC
  5
2BC
330
1F
100
AcDbEntity
  8
0
  6
HIDDEN
 62
     7
370
     0
100
AcDbCircle
 10
135.7087155963
 20
119.4928899083
 30
0.0
 40
1.649999999999991
100
AcDbArc
 50
90.0
 51
123.7214943859
  0
ARC
  5
2BD
330
1F
100
AcDbEntity
  8
0
  6
HIDDEN
 62
     7
370
     0
100
AcDbCircle
 10
135.7087155963
 20
119.4928899083
 30
0.0
 40
1.649999999999991
100
AcDbArc
 50
90.0
 51
160.5402533829
  0
ARC
  5
2BE
330
1F
100
AcDbEntity
  8
0
  6
HIDDEN
 62
     7
370
     0
100
AcDbCircle
 10
135.7087155963
 20
119.4928899083
 30
0.0
 40
1.650000000000006
100
AcDbArc
 50
236.2785056141
 51
270.0
  0
ARC
  5
2BF
330
1F
100
AcDbEntity
  8
0
  6
HIDDEN
 62
     7
370
     0
100
AcDbCircle
 10
135.7087155963
 20
119.4928899083
 30
0.0
 40
1.650000000000006
100
AcDbArc
 50
199.4597466171
 51
270.0
  0
LINE
  5
2C0
330
1F
100
AcDbEntity
  8
0
  6
HIDDEN
 62
     7
370
     0
100
AcDbLine
 10
124.5087155963
 20
106.7778594467
 30
0.0
 11
124.5087155963
 21
132.2079203698
 31
0.0
  0
SPLINE
  5
2C1
330
1F
100
AcDbEntity
  8
0
  6
HIDDEN
 62
     7
370
     0
100
AcDbSpline
210
0.0
220
0.0
230
1.0
 70
     8
 71
     3
 72
    14
 73
    10
 74
     0
 42
0.00000001
 43
0.00000001
 40
0.0
 40
0.0
 40
0.0
 40
0.0
 40
0.1799677599207553
 40
0.1823826539982046
 40
0.3635288124034762
 40
0.5272785172184831
 40
0.6953030597874579
 40
0.8592928832594925
 40
1.0
 40
1.0
 40
1.0
 40
1.0
 10
108.8010253275753
 20
129.8720813962844
 30
0.0
 10
108.5893735381623
 20
129.9261333169281
 30
0.0
 10
108.3748817031047
 20
129.980910532275
 30
0.0
 10
108.0251141299939
 20
130.084897615697
 30
0.0
 10
107.6684966170577
 20
130.1878784440847
 30
0.0
 10
107.2650404815392
 20
130.3193679925196
 30
0.0
 10
106.9681920654563
 20
130.4193937639597
 30
0.0
 10
106.7861000447199
 20
130.4832124801262
 30
0.0
 10
106.7744177179403
 20
130.4873505031044
 30
0.0
 10
106.7690228934408
 20
130.4892614159015
 30
0.0
  0
SPLINE
  5
2C2
330
1F
100
AcDbEntity
  8
0
  6
HIDDEN
 62
     7
370
     0
100
AcDbSpline
210
0.0
220
0.0
230
1.0
 70
     8
 71
     3
 72
    20
 73
    16
 74
     0
 42
0.00000001
 43
0.00000001
 40
0.0
 40
0.0
 40
0.0
 40
0.0
 40
0.0252689684290893
 40
0.1224364661121077
 40
0.2228687532249024
 40
0.2953187851924733
 40
0.3698562148274975
 40
0.4435987050129451
 40
0.5189605049185314
 40
0.6033624679888853
 40
0.6901939159812603
 40
0.7747954211902397
 40
0.8618385687885718
 40
0.9302702401258707
 40
1.0
 40
1.0
 40
1.0
 40
1.0
 10
118.7420798356653
 20
130.4870253103998
 30
0.0
 10
118.7454341267835
 20
130.4882101834147
 30
0.0
 10
118.7616867708901
 20
130.4939512830223
 30
0.0
 10
118.4897478235807
 20
130.3977474281477
 30
0.0
 10
117.8995568935231
 20
130.2025917657242
 30
0.0
 10
117.1721787230839
 20
129.9878901923825
 30
0.0
 10
116.4238704859186
 20
129.7949922739296
 30
0.0
 10
115.5860880868767
 20
129.6171755116568
 30
0.0
 10
114.6492548036951
 20
129.4681908894199
 30
0.0
 10
113.6112256168037
 20
129.36942440086
 30
0.0
 10
112.5098290955189
 20
129.3465369908747
 30
0.0
 10
111.4042286493184
 20
129.4072129068494
 30
0.0
 10
110.414488013395
 20
129.5337478066899
 30
0.0
 10
109.5343805046319
 20
129.6960786998334
 30
0.0
 10
109.0470034285789
 20
129.8130475060236
 30
0.0
 10
108.8010253275753
 20
129.8720813962844
 30
0.0
  0
LINE
  5
2C3
330
1F
100
AcDbEntity
  8
0
  6
HIDDEN
 62
     7
370
     0
100
AcDbLine
 10
122.0087156522
 20
130.4928898487
 30
0.0
 11
122.0087156522
 21
108.4928899679
 31
0.0
  0
LINE
  5
2C4
330
1F
100
AcDbEntity
  8
0
  6
HIDDEN
 62
     7
370
     0
100
AcDbLine
 10
102.5087157155
 20
130.4928898487
 30
0.0
 11
102.5087157155
 21
108.4928899679
 31
0.0
  0
LINE
  5
2C5
330
1F
100
AcDbEntity
  8
0
  6
HIDDEN
 62
     7
370
     0
100
AcDbLine
 10
96.5087147321
 20
109.7028903338
 30
0.0
 11
96.5087147321
 21
129.2828894827
 31
0.0
  0
LINE
  5
2C6
330
1F
100
AcDbEntity
  8
0
  6
HIDDEN
 62
     7
370
     0
100
AcDbLine
 10
171.7087173725
 20
122.0342110052
 30
0.0
 11
171.7087173725
 21
121.9928898524
 31
0.0
  0
LINE
  5
2C7
330
1F
100
AcDbEntity
  8
0
  6
HIDDEN
 62
     7
370
     0
100
AcDbLine
 10
171.7087173725
 20
116.9515688113
 30
0.0
 11
171.7087173725
 21
116.9928899641
 31
0.0
  0
LINE
  5
2C8
330
1F
100
AcDbEntity
  8
0
  6
HIDDEN
 62
     7
370
     0
100
AcDbLine
 10
117.4273010234
 20
129.1614757526
 30
0.0
 11
108.0901300426
 21
129.1614757526
 31
0.0
  0
SPLINE
  5
2C9
330
1F
100
AcDbEntity
  8
0
  6
HIDDEN
 62
     7
370
     0
100
AcDbSpline
210
0.0
220
0.0
230
1.0
 70
     8
 71
     3
 72
    18
 73
    14
 74
     0
 42
0.00000001
 43
0.00000001
 40
0.0
 40
0.0
 40
0.0
 40
0.0
 40
0.0395967784646958
 40
0.1892572262251263
 40
0.3259497997967625
 40
0.4362566213759451
 40
0.5470179676558606
 40
0.5748981050270074
 40
0.6482011031904447
 40
0.7563426393752785
 40
0.8408480603157276
 40
0.8718440630235027
 40
1.0
 40
1.0
 40
1.0
 40
1.0
 10
111.4820906783462
 20
121.8970530341593
 30
0.0
 10
111.4077779682749
 20
121.9287441941157
 30
0.0
 10
111.0525920686466
 20
122.0802156335044
 30
0.0
 10
110.5172694117491
 20
122.3871435601449
 30
0.0
 10
110.0196885449644
 20
122.7160250433723
 30
0.0
 10
109.780863482855
 20
122.8851833438958
 30
0.0
 10
109.7317143576007
 20
122.9191893133834
 30
0.0
 10
109.8670430039495
 20
122.8248007282155
 30
0.0
 10
109.9490799776217
 20
122.7648963176856
 30
0.0
 10
110.2673138852644
 20
122.5562683781744
 30
0.0
 10
110.5529683614383
 20
122.3605539499845
 30
0.0
 10
110.9887999151356
 20
122.1512460690896
 30
0.0
 10
111.2625543615018
 20
122.014186614426
 30
0.0
 10
111.482993129921
 20
121.9038204896477
 30
0.0
  0
SPLINE
  5
2CA
330
1F
100
AcDbEntity
  8
0
  6
HIDDEN
 62
     7
370
     0
100
AcDbSpline
210
0.0
220
0.0
230
1.0
 70
     8
 71
     3
 72
    17
 73
    13
 74
     0
 42
0.00000001
 43
0.00000001
 40
0.0
 40
0.0
 40
0.0
 40
0.0
 40
0.1386289463174836
 40
0.1544254521031067
 40
0.3002503842427803
 40
0.4140392306611096
 40
0.4990141883201064
 40
0.5284122154254308
 40
0.6303461456299566
 40
0.7362349614428814
 40
0.8936856202281988
 40
0.9999999999999999
 40
0.9999999999999999
 40
0.9999999999999999
 40
0.9999999999999999
 10
114.0331806506038
 20
121.9047643850771
 30
0.0
 10
114.2741828040591
 20
122.0236375114207
 30
0.0
 10
114.5426466962964
 20
122.1560560052934
 30
0.0
 10
115.0734526631836
 20
122.413296475839
 30
0.0
 10
115.3945672577425
 20
122.6534664385233
 30
0.0
 10
115.7208378935179
 20
122.8720533418209
 30
0.0
 10
115.7082675766655
 20
122.865104534642
 30
0.0
 10
115.7648583611036
 20
122.9050282130663
 30
0.0
 10
115.6095925866988
 20
122.794261971994
 30
0.0
 10
115.2579945193129
 20
122.5558962650141
 30
0.0
 10
114.7137437253513
 20
122.2059765781502
 30
0.0
 10
114.2302283671266
 20
121.9857988907232
 30
0.0
 10
114.0353403876544
 20
121.8970530341593
 30
0.0
  0
LINE
  5
2CB
330
1F
100
AcDbEntity
  8
0
  6
HIDDEN
 62
     7
370
     0
100
AcDbLine
 10
171.7087173725
 20
139.7490106198
 30
0.0
 11
171.4087160195
 21
140.0386556658
 31
0.0
  0
LINE
  5
2CC
330
1F
100
AcDbEntity
  8
0
  6
HIDDEN
 62
     7
370
     0
100
AcDbLine
 10
171.7087173725
 20
139.7490106198
 30
0.0
 11
171.7087173725
 21
122.0342110052
 31
0.0
  0
LINE
  5
2CD
330
1F
100
AcDbEntity
  8
0
  6
HIDDEN
 62
     7
370
     0
100
AcDbLine
 10
171.7087173725
 20
116.9515688113
 30
0.0
 11
171.7087173725
 21
101.7785589817
 31
0.0
  0
LINE
  5
2CE
330
1F
100
AcDbEntity
  8
0
  6
HIDDEN
 62
     7
370
     0
100
AcDbLine
 10
171.7087173725
 20
139.7490106198
 30
0.0
 11
171.4087160195
 21
140.0386556658
 31
0.0
  0
LINE
  5
2CF
330
1F
100
AcDbEntity
  8
0
  6
HIDDEN
 62
     7
370
     0
100
AcDbLine
 10
171.7087173725
 20
139.7490106198
 30
0.0
 11
171.7087173725
 21
140.1928901348
 31
0.0
  0
LINE
  5
2D0
330
1F
100
AcDbEntity
  8
0
  6
HIDDEN
 62
     7
370
     0
100
AcDbLine
 10
171.7087173725
 20
99.2367691967
 30
0.0
 11
171.7087173725
 21
98.7928896818
 31
0.0
  0
LINE
  5
2D1
330
1F
100
AcDbEntity
  8
0
  6
HIDDEN
 62
     7
370
     0
100
AcDbLine
 10
171.4087160195
 20
98.9471241507
 30
0.0
 11
171.7087173725
 21
99.2367691967
 31
0.0
  0
LINE
  5
2D2
330
1F
100
AcDbEntity
  8
0
  6
HIDDEN
 62
     7
370
     0
100
AcDbLine
 10
97.5479459281
 20
122.8928899533
 30
0.0
 11
97.5479459281
 21
116.0928898632
 31
0.0
  0
LINE
  5
2D3
330
1F
100
AcDbEntity
  8
0
  6
HIDDEN
 62
     7
370
     0
100
AcDbLine
 10
96.5087147321
 20
115.4928897183
 30
0.0
 11
96.5087147321
 21
123.4767870653
 31
0.0
  0
LINE
  5
2D4
330
1F
100
AcDbEntity
  8
0
  6
HIDDEN
 62
     7
370
     0
100
AcDbLine
 10
138.5087160285
 20
122.8928899533
 30
0.0
 11
138.5087160285
 21
116.0928898632
 31
0.0
  0
LINE
  5
2D5
330
1F
100
AcDbEntity
  8
0
  6
HIDDEN
 62
     7
370
     0
100
AcDbLine
 10
171.7087173725
 20
116.9515688113
 30
0.0
 11
171.7087173725
 21
99.2367691967
 31
0.0
  0
LWPOLYLINE
  5
2D6
330
1F
100
AcDbEntity
  8
0
  6
HIDDEN
 62
     7
370
     0
100
AcDbPolyline
 90
        9
 70
   128
 43
0.0
 10
134.1529706384
 20
120.0425783779
 10
134.195424978
 20
120.3792512558
 10
134.2564368512
 20
120.6702613878
 10
134.3328611816
 20
120.9006166925
 10
134.4207622002
 20
121.0584500247
 10
134.5156108852
 20
121.1356302398
 10
134.6125215183
 20
121.1281812891
 10
134.706500348
 20
121.0364867608
 10
134.7927072908
 20
120.8652706725
  0
SPLINE
  5
2D7
330
1F
100
AcDbEntity
  8
0
  6
HIDDEN
 62
     7
370
     0
100
AcDbSpline
210
0.0
220
0.0
230
1.0
 70
     8
 71
     3
 72
    14
 73
    10
 74
     0
 42
0.00000001
 43
0.00000001
 40
0.0
 40
0.0
 40
0.0
 40
0.0
 40
0.25
 40
0.25
 40
0.5
 40
0.5
 40
0.75
 40
0.75
 40
1.0
 40
1.0
 40
1.0
 40
1.0
 10
134.1529705662537
 20
118.9432014497715
 30
0.0
 10
134.125454215956
 20
119.0210790631008
 30
0.0
 10
134.1009380380624
 20
119.1101756215586
 30
0.0
 10
134.0677705240367
 20
119.2961205716506
 30
0.0
 10
134.0587065277219
 20
119.3952111763983
 30
0.0
 10
134.0587246791385
 20
119.5908747761289
 30
0.0
 10
134.0678307735782
 20
119.6900620358056
 30
0.0
 10
134.1009480967873
 20
119.8755954306022
 30
0.0
 10
134.1252857009518
 20
119.9642238171119
 30
0.0
 10
134.1529705662537
 20
120.0425783667422
 30
0.0
  0
LWPOLYLINE
  5
2D8
330
1F
100
AcDbEntity
  8
0
  6
HIDDEN
 62
     7
370
     0
100
AcDbPolyline
 90
        9
 70
   128
 43
0.0
 10
134.7927072908
 20
118.120509144
 10
134.706500348
 20
117.9492930557
 10
134.6125215183
 20
117.8575985274
 10
134.5156108852
 20
117.8501495767
 10
134.4207622002
 20
117.9273297918
 10
134.3328611816
 20
118.085163124
 10
134.2564368512
 20
118.3155184287
 10
134.195424978
 20
118.6065285607
 10
134.1529706384
 20
118.9432014386
  0
SPLINE
  5
2D9
330
1F
100
AcDbEntity
  8
0
  6
HIDDEN
 62
     7
370
     0
100
AcDbSpline
210
0.0
220
0.0
230
1.0
 70
     8
 71
     3
 72
    24
 73
    20
 74
     0
 42
0.00000001
 43
0.00000001
 40
0.0
 40
0.0
 40
0.0
 40
0.0
 40
0.1250000000000001
 40
0.1250000000000001
 40
0.2500000000000003
 40
0.2500000000000003
 40
0.3750000000000004
 40
0.3750000000000004
 40
0.5000000000000006
 40
0.5000000000000006
 40
0.5625000000000007
 40
0.5625000000000007
 40
0.6250000000000007
 40
0.6250000000000007
 40
0.7500000000000004
 40
0.7500000000000004
 40
0.8750000000000003
 40
0.8750000000000003
 40
1.0
 40
1.0
 40
1.0
 40
1.0
 10
134.7927073809674
 20
120.8652706678814
 30
0.0
 10
134.7004013654457
 20
120.8036601651457
 30
0.0
 10
134.6070746841942
 20
120.7282004306069
 30
0.0
 10
134.4262227924145
 20
120.5392249376929
 30
0.0
 10
134.3392314101537
 20
120.4241573425507
 30
0.0
 10
134.2000187530704
 20
120.1759563804993
 30
0.0
 10
134.1474430235055
 20
120.0445213915358
 30
0.0
 10
134.0771012098065
 20
119.7752085822549
 30
0.0
 10
134.0586080665831
 20
119.6337518114655
 30
0.0
 10
134.0587700759594
 20
119.4205779888786
 30
0.0
 10
134.0635451704396
 20
119.3484345999115
 30
0.0
 10
134.081821069879
 20
119.2088700742002
 30
0.0
 10
134.0952420015685
 20
119.140736124353
 30
0.0
 10
134.1481022408716
 20
118.9395154700977
 30
0.0
 10
134.2003906420083
 20
118.8089404014991
 30
0.0
 10
134.3400841712935
 20
118.5603240296046
 30
0.0
 10
134.4260524416759
 20
118.446776571709
 30
0.0
 10
134.6067184539746
 20
118.2579080543613
 30
0.0
 10
134.6993722161274
 20
118.1828065665849
 30
0.0
 10
134.7927073809673
 20
118.1205091486301
 30
0.0
  0
LWPOLYLINE
  5
2DA
330
1F
100
AcDbEntity
  8
0
  6
HIDDEN
 62
     7
370
     0
100
AcDbPolyline
 90
       24
 70
   128
 43
0.0
 10
148.5056405778
 20
119.4928899083
 10
148.4898043687
 20
119.0477252264
 10
148.443469208
 20
118.6355763954
 10
148.3700735386
 20
118.2870105283
 10
148.2750600095
 20
118.0278793351
 10
148.1654750074
 20
117.8774011229
 10
148.0494452531
 20
117.8467363958
 10
147.9355780299
 20
117.9381594436
 10
147.8323167081
 20
118.1448895392
 10
147.7473204847
 20
118.451594785
 10
147.6868925507
 20
118.8355280926
 10
147.6555144305
 20
119.2682149437
 10
147.6555144305
 20
119.7175648728
 10
147.6868925507
 20
120.1502517239
 10
147.7473204847
 20
120.5341850315
 10
147.8323167081
 20
120.8408902773
 10
147.9355780299
 20
121.047620373
 10
148.0494452531
 20
121.1390434207
 10
148.1654750074
 20
121.1083786936
 10
148.2750600095
 20
120.9579004814
 10
148.3700735386
 20
120.6987692883
 10
148.443469208
 20
120.3502034211
 10
148.4898043687
 20
119.9380545901
 10
148.5056405778
 20
119.4928899083
  0
LINE
  5
2DB
330
1F
100
AcDbEntity
  8
0
  6
HIDDEN
 62
     7
370
     0
100
AcDbLine
 10
171.4087160195
 20
140.4928896251
 30
0.0
 11
170.8709442879
 21
140.4928896251
 31
0.0
  0
LINE
  5
2DC
330
1F
100
AcDbEntity
  8
0
  6
HIDDEN
 62
     7
370
     0
100
AcDbLine
 10
169.1441083218
 20
140.4928896251
 30
0.0
 11
168.4053609039
 21
140.4928896251
 31
0.0
  0
LINE
  5
2DD
330
1F
100
AcDbEntity
  8
0
  6
HIDDEN
 62
     7
370
     0
100
AcDbLine
 10
148.0785881992
 20
121.1428898993
 30
0.0
 11
135.708715197
 21
121.1428898993
 31
0.0
  0
LINE
  5
2DE
330
1F
100
AcDbEntity
  8
0
  6
HIDDEN
 62
     7
370
     0
100
AcDbLine
 10
135.708715197
 20
117.8428899172
 30
0.0
 11
148.0785881992
 21
117.8428899172
 31
0.0
  0
LINE
  5
2DF
330
1F
100
AcDbEntity
  8
0
  6
HIDDEN
 62
     7
370
     0
100
AcDbLine
 10
134.3651864569
 20
120.9697416659
 30
0.0
 11
133.5979889969
 21
119.4928899083
 31
0.0
  0
LINE
  5
2E0
330
1F
100
AcDbEntity
  8
0
  6
HIDDEN
 62
     7
370
     0
100
AcDbLine
 10
133.5979889969
 20
119.4928899083
 30
0.0
 11
134.3651864569
 21
118.0160381506
 31
0.0
  0
LINE
  5
2E1
330
1F
100
AcDbEntity
  8
0
  6
HIDDEN
 62
     7
370
     0
100
AcDbLine
 10
135.708715197
 20
121.1428898993
 30
0.0
 11
134.5556270222
 21
121.1428898993
 31
0.0
  0
LINE
  5
2E2
330
1F
100
AcDbEntity
  8
0
  6
HIDDEN
 62
     7
370
     0
100
AcDbLine
 10
134.5556270222
 20
117.8428899172
 30
0.0
 11
135.708715197
 21
117.8428899172
 31
0.0
  0
LINE
  5
2E3
330
1F
100
AcDbEntity
  8
0
  6
HIDDEN
 62
     7
370
     0
100
AcDbLine
 10
124.5087155963
 20
106.7778594467
 30
0.0
 11
124.7028764316
 21
108.1593861479
 31
0.0
  0
LINE
  5
2E4
330
1F
100
AcDbEntity
  8
0
  6
HIDDEN
 62
     7
370
     0
100
AcDbLine
 10
124.7028764316
 20
130.8263936687
 30
0.0
 11
124.5087155963
 21
132.2079203698
 31
0.0
  0
ARC
  5
2E5
330
1F
100
AcDbEntity
  8
0
  6
HIDDEN
 62
     7
370
     0
100
AcDbCircle
 10
124.1087155963
 20
108.2428899083
 30
0.0
 40
0.6000000000000085
100
AcDbArc
 50
352.0
 51
0.0
  0
ARC
  5
2E6
330
1F
100
AcDbEntity
  8
0
  6
HIDDEN
 62
     7
370
     0
100
AcDbCircle
 10
124.1087155963
 20
108.2428899083
 30
0.0
 40
0.6000000000000085
100
AcDbArc
 50
0.0
 51
48.1896851042
  0
ARC
  5
2E7
330
1F
100
AcDbEntity
  8
0
  6
HIDDEN
 62
     7
370
     0
100
AcDbCircle
 10
124.1087155963
 20
130.7428899083
 30
0.0
 40
0.6000000000000035
100
AcDbArc
 50
348.75
 51
8.0
  0
ARC
  5
2E8
330
1F
100
AcDbEntity
  8
0
  6
HIDDEN
 62
     7
370
     0
100
AcDbCircle
 10
124.1087155963
 20
130.7428899083
 30
0.0
 40
0.6000000000000054
100
AcDbArc
 50
311.8103148958
 51
348.75
  0
LINE
  5
2E9
330
1F
100
AcDbEntity
  8
0
  6
HIDDEN
 62
     7
370
     0
100
AcDbLine
 10
124.7087155913
 20
108.2428894612
 30
0.0
 11
124.7087155913
 21
130.7428903553
 31
0.0
  0
LINE
  5
2EA
330
1F
100
AcDbEntity
  8
0
  6
HIDDEN
 62
     7
370
     0
100
AcDbLine
 10
124.7087155913
 20
108.2428894612
 30
0.0
 11
124.7087155913
 21
130.7428903553
 31
0.0
  0
LINE
  5
2EB
330
1F
100
AcDbEntity
  8
0
  6
HIDDEN
 62
     7
370
     0
100
AcDbLine
 10
106.7587150152
 20
130.4928898487
 30
0.0
 11
108.0901300426
 21
129.1614757526
 31
0.0
  0
LINE
  5
2EC
330
1F
100
AcDbEntity
  8
0
  6
HIDDEN
 62
     7
370
     0
100
AcDbLine
 10
117.4273010234
 20
129.1614757526
 30
0.0
 11
118.7587155852
 21
130.4928898487
 31
0.0
  0
LINE
  5
2ED
330
1F
100
AcDbEntity
  8
0
  6
HIDDEN
 62
     7
370
     0
100
AcDbLine
 10
108.0901300426
 20
129.1614757526
 30
0.0
 11
109.7763845588
 21
122.8682858079
 31
0.0
  0
LINE
  5
2EE
330
1F
100
AcDbEntity
  8
0
  6
HIDDEN
 62
     7
370
     0
100
AcDbLine
 10
115.742160369
 20
122.872442999
 30
0.0
 11
117.4273010234
 21
129.1614757526
 31
0.0
  0
LINE
  5
2EF
330
1F
100
AcDbEntity
  8
0
  6
HIDDEN
 62
     7
370
     0
100
AcDbLine
 10
171.7087173725
 20
140.1928901348
 30
0.0
 11
171.4087160195
 21
140.4928896251
 31
0.0
  0
LINE
  5
2F0
330
1F
100
AcDbEntity
  8
0
  6
HIDDEN
 62
     7
370
     0
100
AcDbLine
 10
96.5087147321
 20
115.4928897183
 30
0.0
 11
97.5479459281
 21
116.0928898632
 31
0.0
  0
LINE
  5
2F1
330
1F
100
AcDbEntity
  8
0
  6
HIDDEN
 62
     7
370
     0
100
AcDbLine
 10
97.5479459281
 20
122.8928899533
 30
0.0
 11
96.5087147321
 21
123.4928900982
 31
0.0
  0
LINE
  5
2F2
330
1F
100
AcDbEntity
  8
0
  6
HIDDEN
 62
     7
370
     0
100
AcDbLine
 10
138.5087160285
 20
116.0928898632
 30
0.0
 11
140.5516410138
 21
119.4928899083
 31
0.0
  0
LINE
  5
2F3
330
1F
100
AcDbEntity
  8
0
  6
HIDDEN
 62
     7
370
     0
100
AcDbLine
 10
140.5516410138
 20
119.4928899083
 30
0.0
 11
138.5087160285
 21
122.8928899533
 31
0.0
  0
LINE
  5
2F4
330
1F
100
AcDbEntity
  8
0
  6
HIDDEN
 62
     7
370
     0
100
AcDbLine
 10
134.3651864569
 20
120.9697416659
 30
0.0
 11
133.5979889969
 21
119.4928899083
 31
0.0
  0
LINE
  5
2F5
330
1F
100
AcDbEntity
  8
0
  6
HIDDEN
 62
     7
370
     0
100
AcDbLine
 10
133.5979889969
 20
119.4928899083
 30
0.0
 11
134.3651864569
 21
118.0160381506
 31
0.0
  0
LINE
  5
2F6
330
1F
100
AcDbEntity
  8
0
  6
HIDDEN
 62
     7
370
     0
100
AcDbLine
 10
148.0785881992
 20
121.1428898993
 30
0.0
 11
135.708715197
 21
121.1428898993
 31
0.0
  0
LINE
  5
2F7
330
1F
100
AcDbEntity
  8
0
  6
HIDDEN
 62
     7
370
     0
100
AcDbLine
 10
135.708715197
 20
117.8428899172
 30
0.0
 11
148.0785881992
 21
117.8428899172
 31
0.0
  0
LINE
  5
2F8
330
1F
100
AcDbEntity
  8
0
  6
HIDDEN
 62
     7
370
     0
100
AcDbLine
 10
135.708715197
 20
121.1428898993
 30
0.0
 11
134.5556270222
 21
121.1428898993
 31
0.0
  0
LINE
  5
2F9
330
1F
100
AcDbEntity
  8
0
  6
HIDDEN
 62
     7
370
     0
100
AcDbLine
 10
134.5556270222
 20
117.8428899172
 30
0.0
 11
135.708715197
 21
117.8428899172
 31
0.0
  0
LINE
  5
2FA
330
1F
100
AcDbEntity
  8
VERMASSUNG
100
AcDbLine
 10
129.5087155963
 20
139.9928899083
 30
0.0
 11
129.5087155963
 21
98.9928899083
 31
0.0
  0
LINE
  5
2FB
330
1F
100
AcDbEntity
  8
VERMASSUNG
100
AcDbLine
 10
195.6114993553
 20
144.4928899083
 30
0.0
 11
203.4324056098
 21
144.4928899083
 31
0.0
  0
LINE
  5
2FC
330
1F
100
AcDbEntity
  8
VERMASSUNG
100
AcDbLine
 10
197.2271267135
 20
94.9928899083
 30
0.0
 11
201.3174509818
 21
94.9928899083
 31
0.0
  0
DIMENSION
  5
2FD
330
1F
100
AcDbEntity
  8
VERMASSUNG
100
AcDbDimension
  2
*D1
 10
213.4324056098
 20
94.9928899083
 30
0.0
 11
213.4324056098
 21
119.7428899083
 31
0.0
 70
   160
  1
%%c49.5-66.5
 71
     2
 42
-1.0
  3
SLDDIMSTYLE0
100
AcDbAlignedDimension
 13
203.4324056098
 23
144.4928899083
 33
0.0
 14
201.3174509818
 24
94.9928899083
 34
0.0
 50
90.0
100
AcDbRotatedDimension
  0
DIMENSION
  5
309
330
1F
100
AcDbEntity
  8
VERMASSUNG
100
AcDbDimension
  2
*D2
 10
91.2122033219
 20
108.4928899083
 30
0.0
 11
91.2122033219
 21
119.4928899083
 31
0.0
 70
   160
  1
%%c<>
 71
     2
 42
-1.0
  3
SLDDIMSTYLE0
100
AcDbAlignedDimension
 13
102.5087155963
 23
130.4928899083
 33
0.0
 14
102.5087155963
 24
108.4928899083
 34
0.0
 50
90.0
100
AcDbRotatedDimension
  0
DIMENSION
  5
314
330
1F
100
AcDbEntity
  8
VERMASSUNG
100
AcDbDimension
  2
*D3
 10
85.2122033219
 20
99.4928899083
 30
0.0
 11
85.2122033219
 21
119.4928899083
 31
0.0
 70
   160
  1
WH %%c<>
 71
     2
 42
-1.0
  3
SLDDIMSTYLE0
100
AcDbAlignedDimension
 13
125.0087155963
 23
139.4928899083
 33
0.0
 14
125.0087155963
 24
99.4928899083
 34
0.0
 50
90.0
100
AcDbRotatedDimension
  0
DIMENSION
  5
320
330
1F
100
AcDbEntity
  8
VERMASSUNG
100
AcDbDimension
  2
*D4
 10
79.2122033219
 20
98.4928899083
 30
0.0
 11
79.2122033219
 21
119.4928899083
 31
0.0
 70
   160
  1
%%c<>
 71
     2
 42
-1.0
  3
SLDDIMSTYLE0
100
AcDbAlignedDimension
 13
130.3747410001
 23
140.4928899083
 33
0.0
 14
130.3747410001
 24
98.4928899083
 34
0.0
 50
90.0
100
AcDbRotatedDimension
  0
DIMENSION
  5
32B
330
1F
100
AcDbEntity
  8
VERMASSUNG
100
AcDbDimension
  2
*D5
 10
199.5087155963
 20
150.7164899517
 30
0.0
 11
162.0087155963
 21
150.7164899517
 31
0.0
 70
   160
 71
     2
 42
-1.0
  3
SLDDIMSTYLE0
100
AcDbAlignedDimension
 13
124.5087155963
 23
138.9928899083
 33
0.0
 14
199.5087155963
 24
144.4928899083
 34
0.0
100
AcDbRotatedDimension
  0
LINE
  5
335
330
1F
100
AcDbEntity
  8
VERMASSUNG
  6
CENTERX2
 62
     7
370
     0
100
AcDbLine
 10
181.8566013532
 20
119.4928899083
 30
0.0
 11
95.5479460809
 21
119.4928899083
 31
0.0
  0
OLE2FRAME
  5
336
330
1F
100
AcDbEntity
  8
0
100
AcDbOle2Frame
 70
     2
  3
Paintbrush-Bild
 10
13.8511154363
 20
38.264191557
 30
0.0
 11
51.6290888628
 21
31.9806341108
 31
0.0
 71
     2
 72
     0
 73
     1
 90
    12928
310
80552BED0767C5B32B40DDAF6807D121434000000000000000006FFBDDFB85D0
310
4940DDAF6807D121434000000000000000006FFBDDFB85D04940416F4BD60AFB
310
3F4000000000000000002BED0767C5B32B40416F4BD60AFB3F40000000000000
310
0000000000000100000000010000010000000100000000000100000000320000
310
D0CF11E0A1B11AE1000000000000000000000000000000003E000300FEFF0900
310
0600000000000000000000000100000001000000000000000010000002000000
310
01000000FEFFFFFF0000000000000000FFFFFFFFFFFFFFFFFFFFFFFFFFFFFFFF
310
FFFFFFFFFFFFFFFFFFFFFFFFFFFFFFFFFFFFFFFFFFFFFFFFFFFFFFFFFFFFFFFF
310
FFFFFFFFFFFFFFFFFFFFFFFFFFFFFFFFFFFFFFFFFFFFFFFFFFFFFFFFFFFFFFFF
310
FFFFFFFFFFFFFFFFFFFFFFFFFFFFFFFFFFFFFFFFFFFFFFFFFFFFFFFFFFFFFFFF
310
FFFFFFFFFFFFFFFFFFFFFFFFFFFFFFFFFFFFFFFFFFFFFFFFFFFFFFFFFFFFFFFF
310
FFFFFFFFFFFFFFFFFFFFFFFFFFFFFFFFFFFFFFFFFFFFFFFFFFFFFFFFFFFFFFFF
310
FFFFFFFFFFFFFFFFFFFFFFFFFFFFFFFFFFFFFFFFFFFFFFFFFFFFFFFFFFFFFFFF
310
FFFFFFFFFFFFFFFFFFFFFFFFFFFFFFFFFFFFFFFFFFFFFFFFFFFFFFFFFFFFFFFF
310
FFFFFFFFFFFFFFFFFFFFFFFFFFFFFFFFFFFFFFFFFFFFFFFFFFFFFFFFFFFFFFFF
310
FFFFFFFFFFFFFFFFFFFFFFFFFFFFFFFFFFFFFFFFFFFFFFFFFFFFFFFFFFFFFFFF
310
FFFFFFFFFFFFFFFFFFFFFFFFFFFFFFFFFFFFFFFFFFFFFFFFFFFFFFFFFFFFFFFF
310
FFFFFFFFFFFFFFFFFFFFFFFFFFFFFFFFFFFFFFFFFFFFFFFFFFFFFFFFFFFFFFFF
310
FFFFFFFFFFFFFFFFFFFFFFFFFFFFFFFFFFFFFFFFFFFFFFFFFFFFFFFFFFFFFFFF
310
FFFFFFFFFFFFFFFFFFFFFFFFFFFFFFFFFFFFFFFFFFFFFFFFFFFFFFFFFFFFFFFF
310
FDFFFFFFFEFFFFFFFEFFFFFFFEFFFFFF05000000060000000700000008000000
310
090000000A0000000B0000000C0000000D0000000E0000000F00000010000000
310
11000000120000001300000014000000150000001600000017000000FEFFFFFF
310
FFFFFFFFFFFFFFFFFFFFFFFFFFFFFFFFFFFFFFFFFFFFFFFFFFFFFFFFFFFFFFFF
310
FFFFFFFFFFFFFFFFFFFFFFFFFFFFFFFFFFFFFFFFFFFFFFFFFFFFFFFFFFFFFFFF
310
FFFFFFFFFFFFFFFFFFFFFFFFFFFFFFFFFFFFFFFFFFFFFFFFFFFFFFFFFFFFFFFF
310
FFFFFFFFFFFFFFFFFFFFFFFFFFFFFFFFFFFFFFFFFFFFFFFFFFFFFFFFFFFFFFFF
310
FFFFFFFFFFFFFFFFFFFFFFFFFFFFFFFFFFFFFFFFFFFFFFFFFFFFFFFFFFFFFFFF
310
FFFFFFFFFFFFFFFFFFFFFFFFFFFFFFFFFFFFFFFFFFFFFFFFFFFFFFFFFFFFFFFF
310
FFFFFFFFFFFFFFFFFFFFFFFFFFFFFFFFFFFFFFFFFFFFFFFFFFFFFFFFFFFFFFFF
310
FFFFFFFFFFFFFFFFFFFFFFFFFFFFFFFFFFFFFFFFFFFFFFFFFFFFFFFFFFFFFFFF
310
FFFFFFFFFFFFFFFFFFFFFFFFFFFFFFFFFFFFFFFFFFFFFFFFFFFFFFFFFFFFFFFF
310
FFFFFFFFFFFFFFFFFFFFFFFFFFFFFFFFFFFFFFFFFFFFFFFFFFFFFFFFFFFFFFFF
310
FFFFFFFFFFFFFFFFFFFFFFFFFFFFFFFFFFFFFFFFFFFFFFFFFFFFFFFFFFFFFFFF
310
FFFFFFFFFFFFFFFFFFFFFFFFFFFFFFFFFFFFFFFFFFFFFFFFFFFFFFFFFFFFFFFF
310
FFFFFFFFFFFFFFFFFFFFFFFFFFFFFFFFFFFFFFFFFFFFFFFFFFFFFFFFFFFFFFFF
310
52006F006F007400200045006E00740072007900000000000000000000000000
310
0000000000000000000000000000000000000000000000000000000000000000
310
16000500FFFFFFFFFFFFFFFF020000000A00030000000000C000000000000046
310
0000000000000000000000003097ED80C9EBCC0103000000C000000000000000
310
01004F006C006500000000000000000000000000000000000000000000000000
310
0000000000000000000000000000000000000000000000000000000000000000
310
0A000200FFFFFFFFFFFFFFFFFFFFFFFF00000000000000000000000000000000
310
0000000000000000000000000000000000000000000000001400000000000000
310
010043006F006D0070004F0062006A0000000000000000000000000000000000
310
0000000000000000000000000000000000000000000000000000000000000000
310
120002010100000003000000FFFFFFFF00000000000000000000000000000000
310
0000000000000000000000000000000000000000010000004D00000000000000
310
01004F006C006500310030004E00610074006900760065000000000000000000
310
0000000000000000000000000000000000000000000000000000000000000000
310
1A000200FFFFFFFFFFFFFFFFFFFFFFFF00000000000000000000000000000000
310
0000000000000000000000000000000000000000040000002426000000000000
310
FEFFFFFF02000000FEFFFFFFFFFFFFFFFFFFFFFFFFFFFFFFFFFFFFFFFFFFFFFF
310
FFFFFFFFFFFFFFFFFFFFFFFFFFFFFFFFFFFFFFFFFFFFFFFFFFFFFFFFFFFFFFFF
310
FFFFFFFFFFFFFFFFFFFFFFFFFFFFFFFFFFFFFFFFFFFFFFFFFFFFFFFFFFFFFFFF
310
FFFFFFFFFFFFFFFFFFFFFFFFFFFFFFFFFFFFFFFFFFFFFFFFFFFFFFFFFFFFFFFF
310
FFFFFFFFFFFFFFFFFFFFFFFFFFFFFFFFFFFFFFFFFFFFFFFFFFFFFFFFFFFFFFFF
310
FFFFFFFFFFFFFFFFFFFFFFFFFFFFFFFFFFFFFFFFFFFFFFFFFFFFFFFFFFFFFFFF
310
FFFFFFFFFFFFFFFFFFFFFFFFFFFFFFFFFFFFFFFFFFFFFFFFFFFFFFFFFFFFFFFF
310
FFFFFFFFFFFFFFFFFFFFFFFFFFFFFFFFFFFFFFFFFFFFFFFFFFFFFFFFFFFFFFFF
310
FFFFFFFFFFFFFFFFFFFFFFFFFFFFFFFFFFFFFFFFFFFFFFFFFFFFFFFFFFFFFFFF
310
FFFFFFFFFFFFFFFFFFFFFFFFFFFFFFFFFFFFFFFFFFFFFFFFFFFFFFFFFFFFFFFF
310
FFFFFFFFFFFFFFFFFFFFFFFFFFFFFFFFFFFFFFFFFFFFFFFFFFFFFFFFFFFFFFFF
310
FFFFFFFFFFFFFFFFFFFFFFFFFFFFFFFFFFFFFFFFFFFFFFFFFFFFFFFFFFFFFFFF
310
FFFFFFFFFFFFFFFFFFFFFFFFFFFFFFFFFFFFFFFFFFFFFFFFFFFFFFFFFFFFFFFF
310
FFFFFFFFFFFFFFFFFFFFFFFFFFFFFFFFFFFFFFFFFFFFFFFFFFFFFFFFFFFFFFFF
310
FFFFFFFFFFFFFFFFFFFFFFFFFFFFFFFFFFFFFFFFFFFFFFFFFFFFFFFFFFFFFFFF
310
FFFFFFFFFFFFFFFFFFFFFFFFFFFFFFFFFFFFFFFFFFFFFFFFFFFFFFFFFFFFFFFF
310
0100000200000000000000000000000000000000000000000000000000000000
310
0000000000000000000000000000000000000000000000000000000000000000
310
0100FEFF030A0000FFFFFFFF0A00030000000000C00000000000004607000000
310
5042727573680007000000504272757368000700000050427275736800F439B2
310
7100000000000000000000000000000000000000000000000000000000000000
310
0000000000000000000000000000000000000000000000000000000000000000
310
0000000000000000000000000000000000000000000000000000000000000000
310
0000000000000000000000000000000000000000000000000000000000000000
310
0000000000000000000000000000000000000000000000000000000000000000
310
0000000000000000000000000000000000000000000000000000000000000000
310
0000000000000000000000000000000000000000000000000000000000000000
310
0000000000000000000000000000000000000000000000000000000000000000
310
0000000000000000000000000000000000000000000000000000000000000000
310
0000000000000000000000000000000000000000000000000000000000000000
310
0000000000000000000000000000000000000000000000000000000000000000
310
0000000000000000000000000000000000000000000000000000000000000000
310
20260000424D0E260000000000003E00000028000000B40200006E0000000100
310
01000000000000000000130B0000130B00000200000002000000000000FFFFFF
310
FFFFFFFFFFFFFFFFFFFFFFFFFFFFFFFFFFFFFFFFFFFFFFFFFFFFFFFFFFFFFFFF
310
FFFFFFFFFFFFFFFFFFFFFFFFFFFFFFFFFFFFFFFFFFFFFFFFFFFFFFFFFFFFFFFF
310
FFFFFFFFFFFFFFFFFFFFFFFFFFFFFFFFFFFFFFFFFFFFFFFFF000FFFFFFFFFFFF
310
FFFFFFFFFFFFFFFFFFFFFFFFFFFFFFFFFFFFFFFFFFFFFFFFFFFFFFFFFFFFFFFF
310
FFFFFFFFFFFFFFFFFFFFFFFFFFFFFFFFFFFFFFFFFFFFFFFFFFFFFFFFFFFFFFFF
310
FFFFFFFFFFFFFFFFFFFFFFFFFFFFFFFFF000FFFFFFFFFFFFFFFFFFFFFFFFFFFF
310
FFFFFFFFFFFFFFFFFFFFFFFFFFFFFFFFFFFFFFFFFFFFFFFFFFFFFFFFFFFFFFFF
310
FFFFFFFFFFFFFFFFFFFFFFFFFFFFFFFFFFFFFFFFFFFFFFFFFFFFFFFFFFFFFFFF
310
FFFFFFFFFFFFFFFFF000FFFFFFFFFFFFFFFFFFFFFFFFFFFFFFFFFFFFFFFFFFFF
310
FFFFFFFFFFFFFFFFFFFFFFFFFFFFFFFFFFFFFFFFFFFFFFFFFFFFFFFFFFFFFFFF
310
FFFFFFFFFFFFFFFFFFFFFFFFFFFFFFFFFFFFFFFFFFFFFFFFFFFFFFFFFFFFFFFF
310
F000FFFFFFFFFFFFFFFFFFFFFFFFFFFFFFFFFFFFFFFFFFFFFFFFFFFFFFFFFFFF
310
FFFFFFFFFFFFFFFFFFFFFFFFFFFFFFFFFFFFFFFFFFFFFFFFFFFFFFFFFFFFFFFF
310
FFFFFFFFFFFFFFFFFFFFFFFFFFFFFFFFFFFFFFFFFFFFFFFFF000FFFFFFFFFFFF
310
FFFFFFFFFFFFFFFFFFFFFFFFFFFFFFFFFFFFFFFFFFFFFFFFFFFFFFFFFFFFFFFF
310
FFFFFFFFFFFFFFFFFFFFFFFFFFFFFFFFFFFFFFFFFFFFFFFFFFFFFFFFFFFFFFFF
310
FFFFFFFFFFFFFFFFFFFFFFFFFFFFFFFFF000FFFFFFFFFFFFFFFFFFFFFFFFFFFF
310
FFFFFFFFFFFFFFFFFFFFFFFFFFFFFFFFFFFFFFFFFFFFFFFFFFFFFFFFFFFFFFFF
310
FFFFFFFFFFFFFFFFFFFFFFFFFFFFFFFFFFFFFFFFFFFFFFFFFFFFFFFFFFFFFFFF
310
FFFFFFFFFFFFFFFFF000FFFFFFFFFFFFFFFFFFFFFFFFFFFFFFFFFFFFFFFFFFFF
310
FFFFFFFFFFFFFFFFFFFFFFFFFFFFFFFFFFFFFFFFFFFFFFFFFFFFFFFFFFFFFFFF
310
FFFFFFFFFFFFFFFFFFFFFFFFFFFFFFFFFFFFFFFFFFFFFFFFFFFFFFFFFFFFFFFF
310
F000FFFFFFFFFFFFFFFFFFFFFFFFFFFFFFFFFFFFFFFFFFFFFFFFFFFFFFFFFFFF
310
FFFFFFFFFFFFFFFFFFFFFFFFFFFFFFFFFFFFFFFFFFFFFFFFFFFFFFFFFFFFFFFF
310
FFFFFFFFFFFFFFFFFFFFFFFFFFFFFFFFFFFFFFFFFFFFFFFFF000FFFFFFFFFFFF
310
FFFFFFFFFFFFFFFFFFFFFFFFFFFFFFFFFFFFFFFFFFFFFFFFFFFFFFFFFFFFFFFF
310
FFFFFFFFFFFFFFFFFFFFFFFFFFFFFFFFFFFFFFFFFFFFFFFFFFFFFFFFFFFFFFFF
310
FFFFFFFFFFFFFFFFFFFFFFFFFFFFFFFFF000FFFFFFFFFFFFFFFFFFFFFFFFFFFF
310
FFFFFFFFFFFFFFFFFFFFFFFFFFFFFFFFFFFFFFFFFFFFFFFFFFFFFFFFFFFFFFFF
310
FFFFFFFFFFFFFFFFFFFFFFFFFFFFFFFFFFFFFFFFFFFFFFFFFFFFFFFFFFFFFFFF
310
FFFFFFFFFFFFFFFFF000FFFFFFFFFFFFFFFFFFFFFFFFFFFFFFFFFFFFFFFFFFFF
310
FFFFFFFFFFFFFFFFFFFFFFFFFFFFFFFFFFFFFFFFFFFFFFFFFFFFFFFFFFFFFFFF
310
FFFFFFFFFFFFFFFFFFFFFFFFFFFFFFFFFFFFFFFFFFFFFFFFFFFFFFFFFFFFFFFF
310
F000FFFFFFFFFFFFFFFFFFFFFFFFFFFFFFFFFFFFFFFFFFFFFFFFFFFFFFFFFFFF
310
FFFFFFFFFFFFFFFFFFFFFFFFFFFFFFFFFFFFFFFFFFFFFFFFFFFFFFFFFFFFFFFF
310
FFFFFFFFFFFFFFFFFFFFFFFFFFFFFFFFFFFFFFFFFFFFFFFFF000FFFFFFFFFFFF
310
FFFFFFFFFFFFFFFFFFFFFFFFFFFFFFFFFFFFFFFFFFFFFFFFFFFFFFFFFFFFFFFF
310
FFFFFFFFFFFFFFFFFFFFFFFFFFFFFFFFFFFFFFFFFFFFFFFFFFFFFFFFFFFFFFFF
310
FFFFFFFFFFFFFFFFFFFFFFFFFFFFFFFFF000FFFFFFFFFFFFFFFFFFFFFFFFFFFF
310
FFFFFFFFFFFFFFFFFFFFFFFFFFFFFFFFFFFFFFFFFFFFFFFFFFFFFFFFFFFFFFFF
310
FFFFFFFFFFFFFFFFFFFFFFFFFFFFFFFFFFFFFFFFFFFFFFFFFFFFFFFFFFFFFFFF
310
FFFFFFFFFFFFFFFFF000FFFFFFFFFFFFFFFFFFFFFFFFFFFFFFFFFFFFFFFFFFFF
310
FFFFFFFFFFFFFFFFFFFFFFFFFFFFFFFFFFFFFFFFFFFFFFFFFFFFFFFFFFFFFFFF
310
FFFFFFFFFFFFFFFFFFFFFFFFFFFFFFFFFFFFFFFFFFFFFFFFFFFFFFFFFFFFFFFF
310
F000FFFFFFFFFFFFFFFFFFFFFFFFFFFFFFFFFFFFFFFFFFFFFFFFFFFFFFFFFFFF
310
FFFFFFFFFFFFFFFFFFFFFFFFFFFFFFFFFFFFFFFFFFFFFFFFFFFFFFFFFFFFFFFF
310
FFFFFFFFFFFFFFFFFFFFFFFFFFFFFFFFFFFFFFFFFFFFFFFFF000FFFFFFFFFFFF
310
FFFFFFFFFFFFFFFFFFFFFFFFFFFFFFFFFFFFFFFFFFFFFFFFFFFFFFFFFFFFFFFF
310
FFFFFFFFFFFFFFFFFFFFFFFFFFFFFFFFFFFFFFFFFFFFFFFFFFFFFFFFFFFFFFFF
310
FFFFFFFFFFFFFFFFFFFFFFFFFFFFFFFFF000FFFFFFFFFFFFFFFFFFFFFFFFFFFF
310
FFFFFFFFFFFFFFFFFFFFFFFFFFFFFFFFFFFFFFFFFFFFFFFFFFFFFFFFFFFFFFFF
310
FFFFFFFFFFFFFFFFFFFFFFFFFFFFFFFFFFFFFFFFFFFFFFFFFFFFFFFFFFFFFFFF
310
FFFFFFFFFFFFFFFFF000FFFFF80003FFFFFFFFFFFFFFFFFFFFFFFFFFFFFFFFFF
310
FFFFF00007FFFFFFFFFF00007FFFFFF800000000000000007FFFFFFFFFFFFFFF
310
FFFFFFFC001FFFFFFFFFFFFFFC001FFFFFFFFFFFFFFFFFFFFFFFFFFE0007FFFF
310
F000FFFF8000007FFFFFFFF8000FFFFFC0007FFFFF80007FFFFF0000007FFFFF
310
FFF8000007FFFFF800000000000000007FFFFFF0001FFFFFFFFFFFC00001FFFF
310
FFFFFFFFC00001FFFFFFFF000000000003FFFFE000007FFFF000FFFE0000000F
310
FFFFFFF0000FFFFF80007FFFFF80007FFFFC0000001FFFFFFFC0000001FFFFF8
310
00000000000000007FFFFFF0001FFFFFFFFFFE0000003FFFFFFFFFFE0000003F
310
FFFFFF000000000003FFFF0000000FFFF000FFF800000003FFFFFFF00007FFFF
310
80007FFFFF80007FFFF000000007FFFFFF000000003FFFF80000000000000000
310
7FFFFFF0001FFFFFFFFFF80000000FFFFFFFFFF80000000FFFFFFF0000000000
310
03FFFC00000003FFF000FFE000000000FFFFFFF00007FFFF80003FFFFF80007F
310
FFC000000001FFFFFC000000001FFFF800000000000000007FFFFFF0001FFFFF
310
FFFFE000000003FFFFFFFFE000000003FFFFFF000000000003FFF000000000FF
310
F000FF80000000007FFFFFF00007FFFF80003FFFFF80007FFF8000000000FFFF
310
F80000000007FFF800000000000000007FFFFFF0001FFFFFFFFFC000000001FF
310
FFFFFFC000000001FFFFFF000000000003FFC0000000007FF000FF0000000000
310
3FFFFFE00007FFFF00003FFFFF80007FFE00000000003FFFF00000000003FFF8
310
00000000000000007FFFFFF0001FFFFFFFFF8000000000FFFFFFFF8000000000
310
FFFFFF000000000003FF80000000003FF000FE00000000001FFFFFE00003FFFF
310
00003FFFFF80007FFC00000000001FFFE00000000001FFF8000001FFFE000000
310
7FFFFFF0001FFFFFFFFE00000000003FFFFFFE00000000003FFFFF0000000000
310
03FF00000000001FF000FC00000000000FFFFFE00003FFFF00001FFFFF80007F
310
F800000000001FFFC00000000000FFF8000001FFFE0000007FFFFFF0001FFFFF
310
FFFC00000000001FFFFFFC00000000001FFFFF000000000003FE00000000000F
310
F000F8000000000007FFFFE00003FFFF00001FFFFF80007FF800000000000FFF
310
800000000000FFF8000001FFFE0000007FFFFFF0001FFFFFFFF800000000000F
310
FFFFF800000000000FFFFF000000000003FC000000000007F000F80000000000
310
03FFFFC00003FFFE00001FFFFF80007FF0000000000007FF0000000000007FF8
310
000001FFFE0000007FFFFFF0001FFFFFFFF0000000000007FFFFF00000000000
310
07FFFF000000000003F8000000000003F000F0000000000003FFFFC00001FFFE
310
00001FFFFF80007FE0000000000007FE0000000000003FF8000001FFFE000000
310
7FFFFFF0001FFFFFFFF0000000000007FFFFF0000000000007FFFF0000000000
310
03F800001F800003F000E00001FFF00001FFFFC00001FFFE00000FFFFF80007F
310
E00001FFE00003FE00001FFF00003FF8000001FFFE0000007FFFFFF0001FFFFF
310
FFE000003E000003FFFFE000003E000003FFFF000000000003F00001FFF80001
310
F000E00007FFFC0001FFFFC00001FFFE00000FFFFF80007FC0000FFFFC0003FC
310
0000FFFFC0001FF8000001FFFE0000007FFFFFF0001FFFFFFFC00003FFE00001
310
FFFFC00003FFE00001FFFF0001FFFFFFFFF00007FFFE0001F000E0000FFFFF00
310
00FFFF800001FFFC00000FFFFF80007FC0001FFFFE0001FC0001FFFFE0001FF8
310
000001FFFE0000007FFFFFF0001FFFFFFF80000FFFF80000FFFF80000FFFF800
310
00FFFF0003FFFFFFFFE0000FFFFF8000F000C0003FFFFF8000FFFF800000FFFC
310
000007FFFF80007F80003FFFFF0001FC0003FFFFF0001FF8000001FFFE000000
310
7FFFFFF0001FFFFFFF80003FFFFE0000FFFF80003FFFFE0000FFFF0003FFFFFF
310
FFE0003FFFFF8000F000C0003FFFFF8000FFFF800000FFFC000007FFFF80007F
310
80007FFFFF8001F80007FFFFF8000FF8000001FFFE0000007FFFFFF0001FFFFF
310
FF00007FFFFF00007FFF00007FFFFF00007FFF0003FFFFFFFFE0003FFFFFC000
310
F000C0007FFFFFC000FFFF000000FFFC000007FFFF80007F8000FFFFFF8000F8
310
000FFFFFF8000FF8000001FFFE0000007FFFFFF0001FFFFFFF0000FFFFFF8000
310
7FFF0000FFFFFF80007FFF0003FFFFFFFFC0007FFFFFC00070008000FFFFFFC0
310
00FFFF000000FFF8000007FFFF80007F8000FFFFFF8000F8000FFFFFF8000FF8
310
000001FFFE0000007FFFFFF0001FFFFFFE0001FFFFFFC0003FFE0001FFFFFFC0
310
003FFF0003FFFFFFFFC0007FFFFFE00070008000FFFFFFC0007FFF0000007FF8
310
000003FFFF80007F0001FFFFFF8000F8000FFFFFF8000FF8000001FFFE000000
310
7FFFFFF0001FFFFFFE0001FFFFFFC0003FFE0001FFFFFFC0003FFF0003FFFFFF
310
FFC000FFFFFFE00070008000FFFFFFC0007FFF0000007FF8000003FFFF80007F
310
0001FFFFFF8000F8001FFFFFF8000FF8000001FFFE0000007FFFFFF0001FFFFF
310
FE0003FFFFFFE0003FFE0003FFFFFFE0003FFF0003FFFFFFFFC000FFFFFFE000
310
70008000FFFFFFC0007FFE0000007FF8000003FFFF80007F0001FFFFFF8000F0
310
001FFFFFF8000FF8000001FFFE0000007FFFFFF0001FFFFFFC0003FFFFFFE000
310
1FFC0003FFFFFFE0001FFF0003FFFFFFFFC000FFFFFFC00070008000FFFFFF80
310
007FFE0000007FF0000003FFFF80007F0001FFFFFF0000F0001FFFFFF8000FF8
310
000001FFFE0000007FFFFFF0001FFFFFFC0007FFFFFFF0001FFC0007FFFFFFF0
310
001FFF0003FFFFFFFFC000FFFFFFC00070008001FFFFFF0000FFFE0000003FF0
310
000001FFFF80007F0001FFFFFF0000F8001FFFFFF0000FF8000001FFFE000000
310
7FFFFFF0001FFFFFFC0007FFFFFFF0001FFC0007FFFFFFF0001FFF0003FFFFFF
310
FFC001FFFFFF80007000FFFFFFFFFE0000FFFE0008003FF0008001FFFF80007F
310
FFFFFFFFFC0000FFFFFFFFFFE0000FF8000001FFFE0000007FFFFFF0001FFFFF
310
F8000FFFFFFFF8000FF8000FFFFFFFF8000FFF0003FFFFFFFFFFFFFFFFFF0000
310
7000FFFFFFFFFC0000FFFC0008003FF0008001FFFF80007FFFFFFFFFF80001FF
310
FFFFFFFF80000FF8000001FFFE0000007FFFFFF0001FFFFFF8000FFFFFFFF800
310
0FF8000FFFFFFFF8000FFF0003FFFFFFFFFFFFFFFFFE0000F000FFFFFFFFE000
310
00FFFC000C003FE000C001FFFF80007FFFFFFFFFC00001FFFFFFFFFE00001FF8
310
000001FFFE0000007FFFFFF0001FFFFFF8000FFFFFFFF8000FF8000FFFFFFFF8
310
000FFF0003FFFFFFFFFFFFFFFFF00000F000FFFFFFFE000001FFFC000C001FE0
310
00C000FFFF80007FFFFFFFFE000001FFFFFFFFE000001FF80FFFFFFFFFFFFFC0
310
7FFFFFF0001FFFFFF8000FFFFFFFF8000FF8000FFFFFFFF8000FFF0003FFFFFF
310
FFFFFFFFFF800000F000FFFFFFC0000001FFFC001C001FE001C000FFFF80007F
310
FFFFFF80000003FFFFFFF80000001FF80FFFFFFFFFFFFFC07FFFFFF0001FFFFF
310
F8001FFFFFFFFC000FF8001FFFFFFFFC000FFF0003FFFFFFFFFFFFFFF0000001
310
F000FFFFF800000001FFF8001C001FE001C000FFFF80007FFFFFF800000003FF
310
FFFF800000003FF80FFFFFFFFFFFFFC07FFFFFF0001FFFFFF8001FFFFFFFFC00
310
0FF8001FFFFFFFFC000FFF0003FFFFFFFFFFFFFE00000001F000FFFFC0000000
310
03FFF8001E001FC001E000FFFF80007FFFFF8000000007FFFFFC000000003FF8
310
0FFFFFFFFFFFFFC07FFFFFF0001FFFFFF8001FFFFFFFFC000FF8001FFFFFFFFC
310
000FFF0003FFFFFFFFFFFFE000000003F000FFFE0000000007FFF8001E000FC0
310
01E0007FFF80007FFFFE0000000007FFFFE0000000007FF80FFFFFFFFFFFFFC0
310
7FFFFFF0001FFFFFF0001FFFFFFFFC0007F0001FFFFFFFFC0007FF0003FFFFFF
310
FFFFFF0000000003F000FFF80000000007FFF8001E000FC003E0007FFF80007F
310
FFF0000000000FFFFF8000000000FFF80FFFFFFFFFFFFFC07FFFFFF0001FFFFF
310
F0001FFFFFFFFC0007F0001FFFFFFFFC0007FF0003FFFFFFFFFFFC0000000007
310
F000FFE0000000000FFFF0003E000FC003E0007FFF80007FFFC0000000001FFF
310
FE0000000001FFF80FFFFFFFFFFFFFC07FFFFFF0001FFFFFF0001FFFFFFFFC00
310
07F0001FFFFFFFFC0007FF0003FFFFFFFFFFF0000000000FF000FFC000000000
310
1FFFF0003F000F8003F0003FFF80007FFF80000000003FFFF80000000003FFF8
310
0FFFFFFFFFFFFFC07FFFFFF0001FFFFFF0001FFFFFFFFC0007F0001FFFFFFFFC
310
0007FF0003FFFFFFFFFFE0000000001FF000FF00000000007FFFF0003F000780
310
03F0003FFF80007FFF00000000007FFFF00000000007FFF80FFFFFFFFFFFFFC0
310
7FFFFFF0001FFFFFF0001FFFFFFFFC0007F0001FFFFFFFFC0007FF0003FFFFFF
310
FFFF80000000007FF000FE0000000000FFFFE0003F00078007F0003FFF80007F
310
FE0000000001FFFFE0000000001FFFF80FFFFFFFFFFFFFC07FFFFFF0001FFFFF
310
F0001FFFFFFFFC0007F0001FFFFFFFFC0007FF0003FFFFFFFFFF0000000000FF
310
F000FC0000000003FFFFE0007F00078007F0003FFF80007FFC0000000007FFFF
310
C0000000007FFFF80FFFFFFFFFFFFFC07FFFFFF0001FFFFFF8001FFFFFFFFC00
310
0FF8001FFFFFFFFC000FFF0003FFFFFFFFFE0000000003FFF000FC000000000F
310
FFFFE0007F80070007F8001FFF80007FF8000000001FFFFF8000000001FFFFF8
310
0FFFFFFFFFFFFFC07FFFFFF0001FFFFFF8001FFFFFFFFC000FF8001FFFFFFFFC
310
000FFF0003FFFFFFFFFC000000000FFFF000F8000000007FFFFFE0007F800700
310
07F8001FFF80007FF000000000FFFFFF800000000FFFFFF80FFFFFFFFFFFFFC0
310
7FFFFFF0001FFFFFF8000FFFFFFFF8000FF8000FFFFFFFF8000FFF0003FFFFFF
310
FFFC000000007FFFF000F800000007FFFFFFC0007F8003000FF8001FFF80007F
310
F000000007FFFFFF000000007FFFFFF80FFFFFFFFFFFFFC07FFFFFF0001FFFFF
310
F8000FFFFFFFF8000FF8000FFFFFFFF8000FFF0003FFFFFFFFF80000000FFFFF
310
F000F0000000FFFFFFFFC000FF8003000FF8001FFF80007FE0000000FFFFFFFF
310
0000000FFFFFFFF8000001FFFE0000007FFFFFF0001FFFFFF8000FFFFFFFF800
310
0FF8000FFFFFFFF8000FFF0003FFFFFFFFF8000000FFFFFFF000F000000FFFFF
310
FFFFC000FFC002000FF8000FFF80007FE000001FFFFFFFFE000001FFFFFFFFF8
310
000001FFFE0000007FFFFFF0001FFFFFF8000FFFFFFFF8000FF8000FFFFFFFF8
310
000FFF0003FFFFFFFFF000001FFFFFFFF000E00000FFFFFFFFFFC000FFC00200
310
0FFC000FFF80007FE00001FFFFFFFFFE00001FFFFFFFFFF8000001FFFE000000
310
7FFFFFF0001FFFFFFC000FFFFFFFF8001FFC000FFFFFFFF8001FFF0003FFFFFF
310
FFF00001FFFFFFFFF000E00007FFFFFFFFFF8000FFC000001FFC000FFF80007F
310
C0000FFFFFFFFFFE0000FFFFFFFFFFF8000001FFFE0000007FFFFFF0001FFFFF
310
FC0007FFFFFFF0001FFC0007FFFFFFF0001FFF0003FFFFFFFFF00007FFFFFFFF
310
F000E0001FFFFFFFFFFF8000FFC000001FFC000FFF80007FC0003FFFFFFFFFFE
310
0001FFFFFFFFFFF8000001FFFE0000007FFFFFF0001FFFFFFC0007FFFFFFF000
310
1FFC0007FFFFFFF0001FFF0003FFFFFFFFF0001FFFFFFFFFF000E0003FFFFF00
310
03FF8001FFE000001FFC0007FF80007FC0007FFFFF0007FC0003FFFFF0003FF8
310
000001FFFE0000007FFFFFF0001FFFFFFC0003FFFFFFE0001FFC0003FFFFFFE0
310
001FFF0003FFFFFFFFF0003FFFFFFFFFF000E0003FFFFF0001FF8001FFE00000
310
1FFE0007FF80007FC0007FFFFE0003FC0007FFFFE0003FF8000001FFFE000000
310
7FFFFFF0001FFFFFFE0003FFFFFFE0003FFE0003FFFFFFE0003FFF0003FFFFFF
310
FFF0003FFFFF8001F000E0003FFFFF0001FF0001FFE000001FFE0007FF80007F
310
C0007FFFFE0003FC0007FFFFE0003FF8000001FFFE0000007FFFFFF0001FFFFF
310
FE0001FFFFFFC0003FFE0001FFFFFFC0003FFF0003FFFFFFFFF0003FFFFF0001
310
F000E0003FFFFF0003FF0001FFE000003FFE0007FF80007FC0007FFFFE0003FC
310
0007FFFFE0003FF8000001FFFE0000007FFFFFF0001FFFFFFF0001FFFFFFC000
310
7FFF0001FFFFFFC0007FFF0003FFFFFFFFF0003FFFFF0001F000E0003FFFFE00
310
03FF0003FFF000003FFE0003FF80007FC0007FFFFC0003FE0007FFFFE0003FF8
310
000001FFFE0000007FFFFFF0001FFFFFFF0000FFFFFF80007FFF0000FFFFFF80
310
007FFF0003FFFFFFFFF0003FFFFF0001F000E0003FFFFE0003FF0003FFF00000
310
3FFF0003FF80007FC0007FFFFC0007FE0007FFFFC0003FF8000001FFFE000000
310
7FFFFFF0001FFFFFFF80007FFFFF0000FFFF80007FFFFF0000FFFF0003FFFFFF
310
FFF0003FFFFF0003F000E0003FFFFC0003FE0003FFF000003FFF0003FF80007F
310
E0003FFFF80007FE0003FFFFC0007FF8000001FFFE0000007FFFFFF0001FFFFF
310
FF80003FFFFE0000FFFF80003FFFFE0000FFFF0003FFFFFFFFF0001FFFFE0003
310
F000F0001FFFF80003FE0003FFF000007FFF0001FF80007FE0003FFFF00007FE
310
0001FFFF80007FF8000001FFFE0000007FFFFFF0001FFFFFFFC0000FFFF80001
310
FFFFC0000FFFF80001FFFF0003FFFFFFFFF0001FFFFC0003F000F0000FFFF000
310
07FE0007FFF800007FFF0001FF80007FE0001FFFE00007FF0000FFFE00007FF8
310
000001FFFE0000007FFFFFF0001FFFFFFFC00003FFE00001FFFFC00003FFE000
310
01FFFF0003FFFFFFFFF8000FFFF80003F000F00003FFC00007FC0007FFF80000
310
7FFF8001FF80007FF00007FF80000FFF00007FF80000FFF8000001FFFE000000
310
7F80000000000001FFE000003E000003FFFFE000003E000003FFFF0003FFFFFF
310
FFF80003FFE00007F000F800000000000FFC0007FFF800007FFF8001FF80007F
310
F000000000000FFF000000000000FFF8000001FFFE0000007F80000000000001
310
FFF0000000000007FFFFF0000000000007FFFF0003FFFFFFFFFC00007E000007
310
F000F800000000000FFC0007FFF80000FFFF8000FF80007FF800000000001FFF
310
800000000001FFF8000001FFFE0000007F80000000000001FFF800000000000F
310
FFFFF800000000000FFFFF0003FFFFFFFFFC00000000000FF000FC0000000000
310
1FFC0007FFFC0000FFFF8000FF80007FF800000000003FFFC00000000001FFF8
310
000001FFFE0000007F80000000000001FFF800000000000FFFFFF80000000000
310
0FFFFF0003FFFFFFFFFE00000000001FF000FE00000000003FF8000FFFFC0000
310
FFFF8000FF80007FFC00000000003FFFC00000000003FFF8000001FFFE000000
310
7F80000000000001FFFC00000000001FFFFFFC00000000001FFFFF0003FFFFFF
310
FFFF00000000001FF000FF00000000003FF8000FFFFC0000FFFFC000FF80007F
310
FE00000000007FFFE00000000007FFF8000001FFFE0000007F80000000000001
310
FFFE00000000003FFFFFFE00000000003FFFFF0003FFFFFFFFFF80000000003F
310
F000FF80000000007FF8000FFFFC0001FFFFC0007F80007FFF0000000000FFFF
310
F0000000000FFFF800000000000000007F80000000000001FFFF8000000000FF
310
FFFFFF8000000000FFFFFF0003FFFFFFFFFFC0000000007FF000FFC000000000
310
FFF8000FFFFE0001FFFFC0007F80007FFF8000000001FFFFF8000000001FFFF8
310
00000000000000007F80000000000001FFFFC000000001FFFFFFFFC000000001
310
FFFFFF0003FFFFFFFFFFE000000000FFF000FFE000000003FFF0001FFFFE0001
310
FFFFC0007F80007FFFC000000007FFFFFE000000003FFFF80000000000000000
310
7F80000000000001FFFFE000000003FFFFFFFFE000000003FFFFFF0003FFFFFF
310
FFFFF000000003FFF000FFF80000000FFFF0001FFFFE0001FFFFE0007F80007F
310
FFF00000000FFFFFFF00000000FFFFF800000000000000007F80000000000001
310
FFFFF80000000FFFFFFFFFF80000000FFFFFFF0003FFFFFFFFFFFC0000000FFF
310
F000FFFE0000003FFFF0001FFFFE0003FFFFE0003F80007FFFFC0000003FFFFF
310
FFC0000003FFFFF800000000000000007F80000000000001FFFFFE0000003FFF
310
FFFFFFFE0000003FFFFFFF0003FFFFFFFFFFFF0000003FFFF000FFFF800000FF
310
FFF0001FFFFF0003FFFFE0003F80007FFFFF000001FFFFFFFFF800001FFFFFF8
310
00000000000000007F80000000000001FFFFFFC00001FFFFFFFFFFFFC00001FF
310
FFFFFF0003FFFFFFFFFFFFC00000FFFFF000FFFFF8000FFFFFFFFFFFFFFFFFFF
310
FFFFFFFFFFFFFFFFFFFFF0001FFFFFFFFFFF0000FFFFFFF80000000000000000
310
7FFFFFFFFFFFFFFFFFFFFFFC001FFFFFFFFFFFFFFC001FFFFFFFFFFFFFFFFFFF
310
FFFFFFFC001FFFFFF000FFFFFFFFFFFFFFFFFFFFFFFFFFFFFFFFFFFFFFFFFFFF
310
FFFFFFFFFFFFFFFFFFFFFFFFFFFFFFFFFFFFFFFFFFFFFFFFFFFFFFFFFFFFFFFF
310
FFFFFFFFFFFFFFFFFFFFFFFFFFFFFFFFFFFFFFFFFFFFFFFFFFFFFFFFFFFFFFFF
310
F000FFFFFFFFFFFFFFFFFFFFFFFFFFFFFFFFFFFFFFFFFFFFFFFFFFFFFFFFFFFF
310
FFFFFFFFFFFFFFFFFFFFFFFFFFFFFFFFFFFFFFFFFFFFFFFFFFFFFFFFFFFFFFFF
310
FFFFFFFFFFFFFFFFFFFFFFFFFFFFFFFFFFFFFFFFFFFFFFFFF000FFFFFFFFFFFF
310
FFFFFFFFFFFFFFFFFFFFFFFFFFFFFFFFFFFFFFFFFFFFFFFFFFFFFFFFFFFFFFFF
310
FFFFFFFFFFFFFFFFFFFFFFFFFFFFFFFFFFFFFFFFFFFFFFFFFFFFFFFFFFFFFFFF
310
FFFFFFFFFFFFFFFFFFFFFFFFFFFFFFFFF000FFFFFFFFFFFFFFFFFFFFFFFFFFFF
310
FFFFFFFFFFFFFFFFFFFFFFFFFFFFFFFFFFFFFFFFFFFFFFFFFFFFFFFFFFFFFFFF
310
FFFFFFFFFFFFFFFFFFFFFFFFFFFFFFFFFFFFFFFFFFFFFFFFFFFFFFFFFFFFFFFF
310
FFFFFFFFFFFFFFFFF000FFFFFFFFFFFFFFFFFFFFFFFFFFFFFFFFFFFFFFFFFFFF
310
FFFFFFFFFFFFFFFFFFFFFFFFFFFFFFFFFFFFFFFFFFFFFFFFFFFFFFFFFFFFFFFF
310
FFFFFFFFFFFFFFFFFFFFFFFFFFFFFFFFFFFFFFFFFFFFFFFFFFFFFFFFFFFFFFFF
310
F000FFFFFFFFFFFFFFFFFFFFFFFFFFFFFFFFFFFFFFFFFFFFFFFFFFFFFFFFFFFF
310
FFFFFFFFFFFFFFFFFFFFFFFFFFFFFFFFFFFFFFFFFFFFFFFFFFFFFFFFFFFFFFFF
310
FFFFFFFFFFFFFFFFFFFFFFFFFFFFFFFFFFFFFFFFFFFFFFFFF000FFFFFFFFFFFF
310
FFFFFFFFFFFFFFFFFFFFFFFFFFFFFFFFFFFFFFFFFFFFFFFFFFFFFFFFFFFFFFFF
310
FFFFFFFFFFFFFFFFFFFFFFFFFFFFFFFFFFFFFFFFFFFFFFFFFFFFFFFFFFFFFFFF
310
FFFFFFFFFFFFFFFFFFFFFFFFFFFFFFFFF000FFFFFFFFFFFFFFFFFFFFFFFFFFFF
310
FFFFFFFFFFFFFFFFFFFFFFFFFFFFFFFFFFFFFFFFFFFFFFFFFFFFFFFFFFFFFFFF
310
FFFFFFFFFFFFFFFFFFFFFFFFFFFFFFFFFFFFFFFFFFFFFFFFFFFFFFFFFFFFFFFF
310
FFFFFFFFFFFFFFFFF000FFFFFFFFFFFFFFFFFFFFFFFFFFFFFFFFFFFFFFFFFFFF
310
FFFFFFFFFFFFFFFFFFFFFFFFFFFFFFFFFFFFFFFFFFFFFFFFFFFFFFFFFFFFFFFF
310
FFFFFFFFFFFFFFFFFFFFFFFFFFFFFFFFFFFFFFFFFFFFFFFFFFFFFFFFFFFFFFFF
310
F000FFFFFFFFFFFFFFFFFFFFFFFFFFFFFFFFFFFFFFFFFFFFFFFFFFFFFFFFFFFF
310
FFFFFFFFFFFFFFFFFFFFFFFFFFFFFFFFFFFFFFFFFFFFFFFFFFFFFFFFFFFFFFFF
310
FFFFFFFFFFFFFFFFFFFFFFFFFFFFFFFFFFFFFFFFFFFFFFFFF000FFFFFFFFFFFF
310
FFFFFFFFFFFFFFFFFFFFFFFFFFFFFFFFFFFFFFFFFFFFFFFFFFFFFFFFFFFFFFFF
310
FFFFFFFFFFFFFFFFFFFFFFFFFFFFFFFFFFFFFFFFFFFFFFFFFFFFFFFFFFFFFFFF
310
FFFFFFFFFFFFFFFFFFFFFFFFFFFFFFFFF000FFFFFFFFFFFFFFFFFFFFFFFFFFFF
310
FFFFFFFFFFFFFFFFFFFFFFFFFFFFFFFFFFFFFFFFFFFFFFFFFFFFFFFFFFFFFFFF
310
FFFFFFFFFFFFFFFFFFFFFFFFFFFFFFFFFFFFFFFFFFFFFFFFFFFFFFFFFFFFFFFF
310
FFFFFFFFFFFFFFFFF000FFFFFFFFFFFFFFFFFFFFFFFFFFFFFFFFFFFFFFFFFFFF
310
FFFFFFFFFFFFFFFFFFFFFFFFFFFFFFFFFFFFFFFFFFFFFFFFFFFFFFFFFFFFFFFF
310
FFFFFFFFFFFFFFFFFFFFFFFFFFFFFFFFFFFFFFFFFFFFFFFFFFFFFFFFFFFFFFFF
310
F000FFFFFFFFFFFFFFFFFFFFFFFFFFFFFFFFFFFFFFFFFFFFFFFFFFFFFFFFFFFF
310
FFFFFFFFFFFFFFFFFFFFFFFFFFFFFFFFFFFFFFFFFFFFFFFFFFFFFFFFFFFFFFFF
310
FFFFFFFFFFFFFFFFFFFFFFFFFFFFFFFFFFFFFFFFFFFFFFFFF000FFFFFFFFFFFF
310
FFFFFFFFFFFFFFFFFFFFFFFFFFFFFFFFFFFFFFFFFFFFFFFFFFFFFFFFFFFFFFFF
310
FFFFFFFFFFFFFFFFFFFFFFFFFFFFFFFFFFFFFFFFFFFFFFFFFFFFFFFFFFFFFFFF
310
FFFFFFFFFFFFFFFFFFFFFFFFFFFFFFFFF000FFFFFFFFFFFFFFFFFFFFFFFFFFFF
310
FFFFFFFFFFFFFFFFFFFFFFFFFFFFFFFFFFFFFFFFFFFFFFFFFFFFFFFFFFFFFFFF
310
FFFFFFFFFFFFFFFFFFFFFFFFFFFFFFFFFFFFFFFFFFFFFFFFFFFFFFFFFFFFFFFF
310
FFFFFFFFFFFFFFFFF000FFFFFFFFFFFFFFFFFFFFFFFFFFFFFFFFFFFFFFFFFFFF
310
FFFFFFFFFFFFFFFFFFFFFFFFFFFFFFFFFFFFFFFFFFFFFFFFFFFFFFFFFFFFFFFF
310
FFFFFFFFFFFFFFFFFFFFFFFFFFFFFFFFFFFFFFFFFFFFFFFFFFFFFFFFFFFFFFFF
310
F000FFFFFFFFFFFFFFFFFFFFFFFFFFFFFFFFFFFFFFFFFFFFFFFFFFFFFFFFFFFF
310
FFFFFFFFFFFFFFFFFFFFFFFFFFFFFFFFFFFFFFFFFFFFFFFFFFFFFFFFFFFFFFFF
310
FFFFFFFFFFFFFFFFFFFFFFFFFFFFFFFFFFFFFFFFFFFFFFFFF000FFFFFFFFFFFF
310
FFFFFFFFFFFFFFFFFFFFFFFFFFFFFFFFFFFFFFFFFFFFFFFFFFFFFFFFFFFFFFFF
310
FFFFFFFFFFFFFFFFFFFFFFFFFFFFFFFFFFFFFFFFFFFFFFFFFFFFFFFFFFFFFFFF
310
FFFFFFFFFFFFFFFFFFFFFFFFFFFFFFFFF000FFFFFFFFFFFFFFFFFFFFFFFFFFFF
310
FFFFFFFFFFFFFFFFFFFFFFFFFFFFFFFFFFFFFFFFFFFFFFFFFFFFFFFFFFFFFFFF
310
FFFFFFFFFFFFFFFFFFFFFFFFFFFFFFFFFFFFFFFFFFFFFFFFFFFFFFFFFFFFFFFF
310
FFFFFFFFFFFFFFFFF000FFFFFFFFFFFFFFFFFFFFFFFFFFFFFFFFFFFFFFFFFFFF
310
FFFFFFFFFFFFFFFFFFFFFFFFFFFFFFFFFFFFFFFFFFFFFFFFFFFFFFFFFFFFFFFF
310
FFFFFFFFFFFFFFFFFFFFFFFFFFFFFFFFFFFFFFFFFFFFFFFFFFFFFFFFFFFFFFFF
310
F000FFFFFFFFFFFFFFFFFFFFFFFFFFFFFFFFFFFFFFFFFFFFFFFFFFFFFFFFFFFF
310
FFFFFFFFFFFFFFFFFFFFFFFFFFFFFFFFFFFFFFFFFFFFFFFFFFFFFFFFFFFFFFFF
310
FFFFFFFFFFFFFFFFFFFFFFFFFFFFFFFFFFFFFFFFFFFFFFFFF000FFFFFFFFFFFF
310
FFFFFFFFFFFFFFFFFFFFFFFFFFFFFFFFFFFFFFFFFFFFFFFFFFFFFFFFFFFFFFFF
310
FFFFFFFFFFFFFFFFFFFFFFFFFFFFFFFFFFFFFFFFFFFFFFFFFFFFFFFFFFFFFFFF
310
FFFFFFFFFFFFFFFFFFFFFFFFFFFFFFFFF0000000000000000000000000000000
310
0000000000000000000000000000000000000000000000000000000000000000
310
0000000000000000000000000000000000000000000000000000000000000000
310
0000000000000000000000000000000000000000000000000000000000000000
310
0000000000000000000000000000000000000000000000000000000000000000
310
0000000000000000000000000000000000000000000000000000000000000000
310
0000000000000000000000000000000000000000000000000000000000000000
310
0000000000000000000000000000000000000000000000000000000000000000
310
0000000000000000000000000000000000000000000000000000000000000000
310
0000000000000000000000000000000000000000000000000000000000000000
310
0000000000000000000000000000000000000000000000000000000000000000
310
0000000000000000000000000000000000000000000000000000000000000000
310
0000000000000000000000000000000000000000000000000000000000000000
310
0000000000000000000000000000000000000000000000000000000000000000
310
0000000000000000000000000000000000000000000000000000000000000000
310
0000000000000000000000000000000000000000000000000000000000000000
  1
OLE
  0
ENDSEC
  0
SECTION
  2
OBJECTS
  0
DICTIONARY
  5
C
330
0
100
AcDbDictionary
281
     1
  3
ACAD_GROUP
350
D
  3
ACAD_LAYOUT
350
1A
  3
ACAD_MLINESTYLE
350
17
  3
ACAD_PLOTSETTINGS
350
19
  3
ACAD_PLOTSTYLENAME
350
E
  0
DICTIONARY
  5
D
102
{ACAD_REACTORS
330
C
102
}
330
C
100
AcDbDictionary
281
     1
  0
DICTIONARY
  5
1A
102
{ACAD_REACTORS
330
C
102
}
330
C
100
AcDbDictionary
281
     1
  3
Layout1
350
1E
  3
Layout2
350
26
  3
Model
350
22
  0
DICTIONARY
  5
17
102
{ACAD_REACTORS
330
C
102
}
330
C
100
AcDbDictionary
281
     1
  3
Standard
350
18
  0
DICTIONARY
  5
19
102
{ACAD_REACTORS
330
C
102
}
330
C
100
AcDbDictionary
281
     1
  0
ACDBDICTIONARYWDFLT
  5
E
102
{ACAD_REACTORS
330
C
102
}
330
C
100
AcDbDictionary
281
     1
  3
Normal
350
F
100
AcDbDictionaryWithDefault
340
F
  0
LAYOUT
  5
1E
102
{ACAD_REACTORS
330
1A
102
}
330
1A
100
AcDbPlotSettings
  1

  2
none_device
  4

  6

 40
0.0
 41
0.0
 42
0.0
 43
0.0
 44
0.0
 45
0.0
 46
0.0
 47
0.0
 48
0.0
 49
0.0
140
0.0
141
0.0
142
1.0
143
1.0
 70
   688
 72
     0
 73
     0
 74
     5
  7

 75
    16
147
1.0
148
0.0
149
0.0
100
AcDbLayout
  1
Layout1
 70
     1
 71
     1
 10
0.0
 20
0.0
 11
420.0
 21
297.0
 12
0.0
 22
0.0
 32
0.0
 14
1.0000000000E+20
 24
1.0000000000E+20
 34
1.0000000000E+20
 15
-1.0000000000E+20
 25
-1.0000000000E+20
 35
-1.0000000000E+20
146
0.0
 13
0.0
 23
0.0
 33
0.0
 16
1.0
 26
0.0
 36
0.0
 17
0.0
 27
1.0
 37
0.0
 76
     0
330
1B
  0
LAYOUT
  5
26
102
{ACAD_REACTORS
330
1A
102
}
330
1A
100
AcDbPlotSettings
  1

  2
none_device
  4

  6

 40
0.0
 41
0.0
 42
0.0
 43
0.0
 44
0.0
 45
0.0
 46
0.0
 47
0.0
 48
0.0
 49
0.0
140
0.0
141
0.0
142
1.0
143
1.0
 70
   688
 72
     0
 73
     0
 74
     5
  7

 75
    16
147
1.0
148
0.0
149
0.0
100
AcDbLayout
  1
Layout2
 70
     1
 71
     2
 10
0.0
 20
0.0
 11
0.0
 21
0.0
 12
0.0
 22
0.0
 32
0.0
 14
0.0
 24
0.0
 34
0.0
 15
0.0
 25
0.0
 35
0.0
146
0.0
 13
0.0
 23
0.0
 33
0.0
 16
1.0
 26
0.0
 36
0.0
 17
0.0
 27
1.0
 37
0.0
 76
     0
330
23
  0
LAYOUT
  5
22
102
{ACAD_REACTORS
330
1A
102
}
330
1A
100
AcDbPlotSettings
  1

  2
none_device
  4

  6

 40
0.0
 41
0.0
 42
0.0
 43
0.0
 44
0.0
 45
0.0
 46
0.0
 47
0.0
 48
0.0
 49
0.0
140
0.0
141
0.0
142
1.0
143
1.0
 70
  1712
 72
     0
 73
     0
 74
     0
  7

 75
     0
147
1.0
148
0.0
149
0.0
100
AcDbLayout
  1
Model
 70
     1
 71
     0
 10
0.0
 20
0.0
 11
297.0
 21
210.0
 12
0.0
 22
0.0
 32
0.0
 14
0.0
 24
0.0
 34
0.0
 15
297.0
 25
210.0
 35
0.0
146
0.0
 13
0.0
 23
0.0
 33
0.0
 16
1.0
 26
0.0
 36
0.0
 17
0.0
 27
1.0
 37
0.0
 76
     0
330
1F
331
29
  0
MLINESTYLE
  5
18
102
{ACAD_REACTORS
330
17
102
}
330
17
100
AcDbMlineStyle
  2
Standard
 70
     0
  3

 62
   256
 51
90.0
 52
90.0
 71
     2
 49
0.5
 62
   256
  6
BYLAYER
 49
-0.5
 62
   256
  6
BYLAYER
  0
ACDBPLACEHOLDER
  5
F
102
{ACAD_REACTORS
330
E
102
}
330
E
  0
ENDSEC
  0
EOF
