  0
SECTION
  2
HEADER
  9
$ACADVER
  1
AC1015
  9
$ACADMAINTVER
 70
     6
  9
$DWGCODEPAGE
  3
ANSI_1252
  9
$INSBASE
 10
0.0
 20
0.0
 30
0.0
  9
$EXTMIN
 10
0.0
 20
0.0
 30
0.0
  9
$EXTMAX
 10
297.0
 20
210.0
 30
0.0
  9
$LIMMIN
 10
0.0
 20
0.0
  9
$LIMMAX
 10
297.0
 20
210.0
  9
$ORTHOMODE
 70
     0
  9
$REGENMODE
 70
     1
  9
$FILLMODE
 70
     1
  9
$QTEXTMODE
 70
     0
  9
$MIRRTEXT
 70
     1
  9
$LTSCALE
 40
1.0
  9
$ATTMODE
 70
     1
  9
$TEXTSIZE
 40
2.0
  9
$TRACEWID
 40
1.0
  9
$TEXTSTYLE
  7
Standard
  9
$CLAYER
  8
0
  9
$CELTYPE
  6
ByLayer
  9
$CECOLOR
 62
   256
  9
$CELTSCALE
 40
1.0
  9
$DISPSILH
 70
     0
  9
$DIMSCALE
 40
1.0
  9
$DIMASZ
 40
3.0
  9
$DIMEXO
 40
0.0
  9
$DIMDLI
 40
3.75
  9
$DIMRND
 40
0.0
  9
$DIMDLE
 40
0.0
  9
$DIMEXE
 40
1.0
  9
$DIMTP
 40
0.0
  9
$DIMTM
 40
0.0
  9
$DIMTXT
 40
2.0
  9
$DIMCEN
 40
2.5
  9
$DIMTSZ
 40
0.0
  9
$DIMTOL
 70
     0
  9
$DIMLIM
 70
     0
  9
$DIMTIH
 70
     1
  9
$DIMTOH
 70
     1
  9
$DIMSE1
 70
     0
  9
$DIMSE2
 70
     0
  9
$DIMTAD
 70
     1
  9
$DIMZIN
 70
     0
  9
$DIMBLK
  1

  9
$DIMASO
 70
     1
  9
$DIMSHO
 70
     1
  9
$DIMPOST
  1

  9
$DIMAPOST
  1

  9
$DIMALT
 70
     0
  9
$DIMALTD
 70
     3
  9
$DIMALTF
 40
0.0393700787
  9
$DIMLFAC
 40
1.0
  9
$DIMTOFL
 70
     1
  9
$DIMTVP
 40
0.0
  9
$DIMTIX
 70
     0
  9
$DIMSOXD
 70
     0
  9
$DIMSAH
 70
     0
  9
$DIMBLK1
  1

  9
$DIMBLK2
  1

  9
$DIMSTYLE
  2
ISO-25
  9
$DIMCLRD
 70
     0
  9
$DIMCLRE
 70
     0
  9
$DIMCLRT
 70
     0
  9
$DIMTFAC
 40
1.0
  9
$DIMGAP
 40
1.524
  9
$DIMJUST
 70
     0
  9
$DIMSD1
 70
     0
  9
$DIMSD2
 70
     0
  9
$DIMTOLJ
 70
     0
  9
$DIMTZIN
 70
     0
  9
$DIMALTZ
 70
     0
  9
$DIMALTTZ
 70
     0
  9
$DIMUPT
 70
     0
  9
$DIMDEC
 70
     2
  9
$DIMTDEC
 70
     3
  9
$DIMALTU
 70
     2
  9
$DIMALTTD
 70
     3
  9
$DIMTXSTY
  7
Standard
  9
$DIMAUNIT
 70
     0
  9
$DIMADEC
 70
     2
  9
$DIMALTRND
 40
0.0
  9
$DIMAZIN
 70
     0
  9
$DIMDSEP
 70
    44
  9
$DIMATFIT
 70
     3
  9
$DIMFRAC
 70
     0
  9
$DIMLDRBLK
  1

  9
$DIMLUNIT
 70
     2
  9
$DIMLWD
 70
    -2
  9
$DIMLWE
 70
    -2
  9
$DIMTMOVE
 70
     0
  9
$LUNITS
 70
     2
  9
$LUPREC
 70
     2
  9
$SKETCHINC
 40
1.0
  9
$FILLETRAD
 40
10.0
  9
$AUNITS
 70
     0
  9
$AUPREC
 70
     2
  9
$MENU
  1
.
  9
$ELEVATION
 40
0.0
  9
$PELEVATION
 40
0.0
  9
$THICKNESS
 40
0.0
  9
$LIMCHECK
 70
     0
  9
$CHAMFERA
 40
10.0
  9
$CHAMFERB
 40
10.0
  9
$CHAMFERC
 40
20.0
  9
$CHAMFERD
 40
0.0
  9
$SKPOLY
 70
     0
  9
$TDCREATE
 40
2455973.462702338
  9
$TDUCREATE
 40
2455973.421035671
  9
$TDUPDATE
 40
2455973.46270235
  9
$TDUUPDATE
 40
2455973.421035683
  9
$TDINDWG
 40
0.0000000116
  9
$TDUSRTIMER
 40
0.0000000116
  9
$USRTIMER
 70
     1
  9
$ANGBASE
 50
0.0
  9
$ANGDIR
 70
     0
  9
$PDMODE
 70
     0
  9
$PDSIZE
 40
-1.0
  9
$PLINEWID
 40
0.0
  9
$SPLFRAME
 70
     0
  9
$SPLINETYPE
 70
     6
  9
$SPLINESEGS
 70
     8
  9
$HANDSEED
  5
32E
  9
$SURFTAB1
 70
     6
  9
$SURFTAB2
 70
     6
  9
$SURFTYPE
 70
     6
  9
$SURFU
 70
     6
  9
$SURFV
 70
     6
  9
$UCSBASE
  2

  9
$UCSNAME
  2

  9
$UCSORG
 10
0.0
 20
0.0
 30
0.0
  9
$UCSXDIR
 10
1.0
 20
0.0
 30
0.0
  9
$UCSYDIR
 10
0.0
 20
1.0
 30
0.0
  9
$UCSORTHOREF
  2

  9
$UCSORTHOVIEW
 70
     0
  9
$UCSORGTOP
 10
0.0
 20
0.0
 30
0.0
  9
$UCSORGBOTTOM
 10
0.0
 20
0.0
 30
0.0
  9
$UCSORGLEFT
 10
0.0
 20
0.0
 30
0.0
  9
$UCSORGRIGHT
 10
0.0
 20
0.0
 30
0.0
  9
$UCSORGFRONT
 10
0.0
 20
0.0
 30
0.0
  9
$UCSORGBACK
 10
0.0
 20
0.0
 30
0.0
  9
$PUCSBASE
  2

  9
$PUCSNAME
  2

  9
$PUCSORG
 10
0.0
 20
0.0
 30
0.0
  9
$PUCSXDIR
 10
1.0
 20
0.0
 30
0.0
  9
$PUCSYDIR
 10
0.0
 20
1.0
 30
0.0
  9
$PUCSORTHOREF
  2

  9
$PUCSORTHOVIEW
 70
     0
  9
$PUCSORGTOP
 10
0.0
 20
0.0
 30
0.0
  9
$PUCSORGBOTTOM
 10
0.0
 20
0.0
 30
0.0
  9
$PUCSORGLEFT
 10
0.0
 20
0.0
 30
0.0
  9
$PUCSORGRIGHT
 10
0.0
 20
0.0
 30
0.0
  9
$PUCSORGFRONT
 10
0.0
 20
0.0
 30
0.0
  9
$PUCSORGBACK
 10
0.0
 20
0.0
 30
0.0
  9
$USERI1
 70
     0
  9
$USERI2
 70
     0
  9
$USERI3
 70
     0
  9
$USERI4
 70
     0
  9
$USERI5
 70
     0
  9
$USERR1
 40
0.0
  9
$USERR2
 40
0.0
  9
$USERR3
 40
0.0
  9
$USERR4
 40
0.0
  9
$USERR5
 40
0.0
  9
$WORLDVIEW
 70
     1
  9
$SHADEDGE
 70
     3
  9
$SHADEDIF
 70
    70
  9
$TILEMODE
 70
     1
  9
$MAXACTVP
 70
    64
  9
$PINSBASE
 10
0.0
 20
0.0
 30
0.0
  9
$PLIMCHECK
 70
     0
  9
$PEXTMIN
 10
1.0000000000E+20
 20
1.0000000000E+20
 30
1.0000000000E+20
  9
$PEXTMAX
 10
-1.0000000000E+20
 20
-1.0000000000E+20
 30
-1.0000000000E+20
  9
$PLIMMIN
 10
0.0
 20
0.0
  9
$PLIMMAX
 10
420.0
 20
297.0
  9
$UNITMODE
 70
     0
  9
$VISRETAIN
 70
     1
  9
$PLINEGEN
 70
     0
  9
$PSLTSCALE
 70
     1
  9
$TREEDEPTH
 70
  3020
  9
$CMLSTYLE
  2
Standard
  9
$CMLJUST
 70
     0
  9
$CMLSCALE
 40
20.0
  9
$PROXYGRAPHICS
 70
     1
  9
$MEASUREMENT
 70
     1
  9
$CELWEIGHT
370
    -1
  9
$ENDCAPS
280
     0
  9
$JOINSTYLE
280
     0
  9
$LWDISPLAY
290
     1
  9
$INSUNITS
 70
     4
  9
$HYPERLINKBASE
  1

  9
$STYLESHEET
  1

  9
$XEDIT
290
     1
  9
$CEPSNTYPE
380
     0
  9
$PSTYLEMODE
290
     1
  9
$FINGERPRINTGUID
  2
{F64C906C-516D-4137-8C9C-9F5788F02F50}
  9
$VERSIONGUID
  2
{FAEB1C32-E019-11D5-929B-00C0DF256EC4}
  9
$EXTNAMES
290
     1
  9
$PSVPSCALE
 40
0.0
  9
$OLESTARTUP
290
     0
  0
ENDSEC
  0
SECTION
  2
CLASSES
  0
CLASS
  1
ACDBDICTIONARYWDFLT
  2
AcDbDictionaryWithDefault
  3
ObjectDBX Classes
 90
        0
280
     0
281
     0
  0
CLASS
  1
VISUALSTYLE
  2
AcDbVisualStyle
  3
ObjectDBX Classes
 90
     4095
280
     0
281
     0
  0
CLASS
  1
MATERIAL
  2
AcDbMaterial
  3
ObjectDBX Classes
 90
     1153
280
     0
281
     0
  0
CLASS
  1
ACDBPLACEHOLDER
  2
AcDbPlaceHolder
  3
ObjectDBX Classes
 90
        0
280
     0
281
     0
  0
CLASS
  1
LAYOUT
  2
AcDbLayout
  3
ObjectDBX Classes
 90
        0
280
     0
281
     0
  0
ENDSEC
  0
SECTION
  2
TABLES
  0
TABLE
  2
VPORT
  5
8
330
0
100
AcDbSymbolTable
 70
     1
  0
VPORT
  5
29
330
8
100
AcDbSymbolTableRecord
100
AcDbViewportTableRecord
  2
*Active
 70
     0
 10
0.0
 20
0.0
 11
1.0
 21
1.0
 12
148.5
 22
105.0
 13
0.0
 23
0.0
 14
10.0
 24
10.0
 15
10.0
 25
10.0
 16
0.0
 26
0.0
 36
1.0
 17
0.0
 27
0.0
 37
0.0
 40
210.0
 41
1.4142857143
 42
50.0
 43
0.0
 44
0.0
 50
0.0
 51
0.0
 71
     0
 72
  2000
 73
     1
 74
     3
 75
     0
 76
     0
 77
     0
 78
     0
281
     0
 65
     1
110
0.0
120
0.0
130
0.0
111
1.0
121
0.0
131
0.0
112
0.0
122
1.0
132
0.0
 79
     0
146
0.0
  0
ENDTAB
  0
TABLE
  2
LTYPE
  5
5
330
0
100
AcDbSymbolTable
 70
     6
  0
LTYPE
  5
14
330
5
100
AcDbSymbolTableRecord
100
AcDbLinetypeTableRecord
  2
ByBlock
 70
     0
  3

 72
    65
 73
     0
 40
0.0
  0
LTYPE
  5
15
330
5
100
AcDbSymbolTableRecord
100
AcDbLinetypeTableRecord
  2
ByLayer
 70
     0
  3

 72
    65
 73
     0
 40
0.0
  0
LTYPE
  5
16
330
5
100
AcDbSymbolTableRecord
100
AcDbLinetypeTableRecord
  2
Continuous
 70
     0
  3
Solid line
 72
    65
 73
     0
 40
0.0
  0
LTYPE
  5
3F
330
5
100
AcDbSymbolTableRecord
100
AcDbLinetypeTableRecord
  2
HIDDEN
 70
     0
  3
Hidden __ __ __ __ __ __ __ __ __ __ __ __ __ __
 72
    65
 73
     2
 40
1.905
 49
1.27
 74
     0
 49
-0.635
 74
     0
  0
LTYPE
  5
40
330
5
100
AcDbSymbolTableRecord
100
AcDbLinetypeTableRecord
  2
PHANTOM
 70
     0
  3
Phantom ______  __  __  ______  __  __  ______
 72
    65
 73
     6
 40
12.7
 49
6.35
 74
     0
 49
-1.27
 74
     0
 49
1.27
 74
     0
 49
-1.27
 74
     0
 49
1.27
 74
     0
 49
-1.27
 74
     0
  0
LTYPE
  5
41
330
5
100
AcDbSymbolTableRecord
100
AcDbLinetypeTableRecord
  2
CENTER
 70
     0
  3
Center ____ _ ____ _ ____ _ ____ _ ____ _ ____
 72
    65
 73
     4
 40
10.16
 49
6.35
 74
     0
 49
-1.27
 74
     0
 49
1.27
 74
     0
 49
-1.27
 74
     0
  0
LTYPE
  5
42
330
5
100
AcDbSymbolTableRecord
100
AcDbLinetypeTableRecord
  2
CENTERX2
 70
     0
  3
Center (2x) ________  __  ________  __  _____
 72
    65
 73
     4
 40
20.32
 49
12.7
 74
     0
 49
-2.54
 74
     0
 49
2.54
 74
     0
 49
-2.54
 74
     0
  0
LTYPE
  5
43
330
5
100
AcDbSymbolTableRecord
100
AcDbLinetypeTableRecord
  2
DOT2
 70
     0
  3
Dot (.5x) ........................................
 72
    65
 73
     2
 40
0.635
 49
0.0
 74
     0
 49
-0.635
 74
     0
  0
ENDTAB
  0
TABLE
  2
LAYER
  5
2
330
0
100
AcDbSymbolTable
 70
     5
  0
LAYER
  5
10
330
2
100
AcDbSymbolTableRecord
100
AcDbLayerTableRecord
  2
0
 70
     0
 62
     7
  6
Continuous
370
    -3
390
F
  0
LAYER
  5
44
330
2
100
AcDbSymbolTableRecord
100
AcDbLayerTableRecord
  2
FORMAT
 70
     0
 62
     7
  6
Continuous
370
    -3
390
F
  0
LAYER
  5
45
330
2
100
AcDbSymbolTableRecord
100
AcDbLayerTableRecord
  2
VERMASSUNG
 70
     0
 62
     7
  6
Continuous
370
    -3
390
F
  0
LAYER
  5
46
330
2
100
AcDbSymbolTableRecord
100
AcDbLayerTableRecord
  2
KOPF_DÜNN
 70
     0
 62
     7
  6
Continuous
370
    -3
390
F
  0
LAYER
  5
47
330
2
100
AcDbSymbolTableRecord
100
AcDbLayerTableRecord
  2
KOPF_DICK
 70
     0
 62
     7
  6
Continuous
370
    15
390
F
  0
ENDTAB
  0
TABLE
  2
STYLE
  5
3
330
0
100
AcDbSymbolTable
 70
     2
  0
STYLE
  5
11
330
3
100
AcDbSymbolTableRecord
100
AcDbTextStyleTableRecord
  2
Standard
 70
     0
 40
0.0
 41
1.0
 50
0.0
 71
     0
 42
2.5
  3
txt
  4

  0
STYLE
  5
48
330
3
100
AcDbSymbolTableRecord
100
AcDbTextStyleTableRecord
  2
SLDTEXTSTYLE0
 70
     0
 40
0.0
 41
0.7
 50
0.0
 71
     0
 42
0.2
  3
TXT
  4

  0
ENDTAB
  0
TABLE
  2
VIEW
  5
6
330
0
100
AcDbSymbolTable
 70
     0
  0
ENDTAB
  0
TABLE
  2
UCS
  5
7
330
0
100
AcDbSymbolTable
 70
     0
  0
ENDTAB
  0
TABLE
  2
APPID
  5
9
330
0
100
AcDbSymbolTable
 70
     1
  0
APPID
  5
12
330
9
100
AcDbSymbolTableRecord
100
AcDbRegAppTableRecord
  2
ACAD
 70
     0
  0
ENDTAB
  0
TABLE
  2
DIMSTYLE
  5
A
330
0
100
AcDbSymbolTable
 70
     2
100
AcDbDimStyleTable
  0
DIMSTYLE
105
27
330
A
100
AcDbSymbolTableRecord
100
AcDbDimStyleTableRecord
  2
ISO-25
 70
     0
 41
2.5
 42
0.625
 43
3.75
 44
1.25
 73
     0
 74
     0
 77
     1
 78
     8
140
2.5
141
2.5
143
0.0393700787
147
0.625
171
     3
172
     1
178
     0
271
     2
272
     2
274
     3
278
    44
283
     0
284
     8
340
11
  0
DIMSTYLE
105
2FF
102
{ACAD_REACTORS
330
2FE
330
30B
330
317
330
321
102
}
330
A
100
AcDbSymbolTableRecord
100
AcDbDimStyleTableRecord
  2
SLDDIMSTYLE0
 70
     0
 41
3.0
 44
0.0
 45
0.000000001
 73
     0
 74
     0
 77
     1
 78
    12
 79
     3
140
2.0
147
0.5
173
     1
178
     0
271
     2
272
     3
276
     2
284
    12
340
48
  0
ENDTAB
  0
TABLE
  2
BLOCK_RECORD
  5
1
330
0
100
AcDbSymbolTable
 70
     5
  0
BLOCK_RECORD
  5
1F
330
1
100
AcDbSymbolTableRecord
100
AcDbBlockTableRecord
  2
*Model_Space
340
22
  0
BLOCK_RECORD
  5
1B
330
1
100
AcDbSymbolTableRecord
100
AcDbBlockTableRecord
  2
*Paper_Space
340
1E
  0
BLOCK_RECORD
  5
23
330
1
100
AcDbSymbolTableRecord
100
AcDbBlockTableRecord
  2
*Paper_Space0
340
26
  0
BLOCK_RECORD
  5
300
330
1
100
AcDbSymbolTableRecord
100
AcDbBlockTableRecord
  2
*D1
340
0
  0
BLOCK_RECORD
  5
30C
330
1
100
AcDbSymbolTableRecord
100
AcDbBlockTableRecord
  2
*D2
340
0
  0
BLOCK_RECORD
  5
318
330
1
100
AcDbSymbolTableRecord
100
AcDbBlockTableRecord
  2
*D3
340
0
  0
BLOCK_RECORD
  5
322
330
1
100
AcDbSymbolTableRecord
100
AcDbBlockTableRecord
  2
*D4
340
0
  0
ENDTAB
  0
ENDSEC
  0
SECTION
  2
BLOCKS
  0
BLOCK
  5
20
330
1F
100
AcDbEntity
  8
0
100
AcDbBlockBegin
  2
*Model_Space
 70
     0
 10
0.0
 20
0.0
 30
0.0
  3
*Model_Space
  1

  0
ENDBLK
  5
21
330
1F
100
AcDbEntity
  8
0
100
AcDbBlockEnd
  0
BLOCK
  5
1C
330
1B
100
AcDbEntity
 67
     1
  8
0
100
AcDbBlockBegin
  2
*Paper_Space
 70
     0
 10
0.0
 20
0.0
 30
0.0
  3
*Paper_Space
  1

  0
ENDBLK
  5
1D
330
1B
100
AcDbEntity
 67
     1
  8
0
100
AcDbBlockEnd
  0
BLOCK
  5
24
330
23
100
AcDbEntity
  8
0
100
AcDbBlockBegin
  2
*Paper_Space0
 70
     0
 10
0.0
 20
0.0
 30
0.0
  3
*Paper_Space0
  1

  0
ENDBLK
  5
25
330
23
100
AcDbEntity
  8
0
100
AcDbBlockEnd
  0
BLOCK
  5
301
330
300
100
AcDbEntity
  8
0
100
AcDbBlockBegin
  2
*D1
 70
     1
 10
0.0
 20
0.0
 30
0.0
  3
*D1
  1

  0
SOLID
  5
303
330
300
100
AcDbEntity
  8
VERMASSUNG
100
AcDbTrace
 10
86.4058472672
 20
140.1600917431
 30
0.0
 11
85.9558472672
 21
137.1600917431
 31
0.0
 12
86.8558472672
 22
137.1600917431
 32
0.0
 13
86.8558472672
 23
137.1600917431
 33
0.0
  0
SOLID
  5
304
330
300
100
AcDbEntity
  8
VERMASSUNG
100
AcDbTrace
 10
86.4058472672
 20
108.1600917431
 30
0.0
 11
86.8558472672
 21
111.1600917431
 31
0.0
 12
85.9558472672
 22
111.1600917431
 32
0.0
 13
85.9558472672
 23
111.1600917431
 33
0.0
  0
LINE
  5
305
330
300
100
AcDbEntity
  8
VERMASSUNG
100
AcDbLine
 10
119.8763761468
 20
140.1600917431
 30
0.0
 11
85.4058472672
 21
140.1600917431
 31
0.0
  0
LINE
  5
306
330
300
100
AcDbEntity
  8
VERMASSUNG
100
AcDbLine
 10
119.8763761468
 20
108.1600917431
 30
0.0
 11
85.4058472672
 21
108.1600917431
 31
0.0
  0
LINE
  5
307
330
300
100
AcDbEntity
  8
VERMASSUNG
100
AcDbLine
 10
86.4058472672
 20
140.1600917431
 30
0.0
 11
86.4058472672
 21
108.1600917431
 31
0.0
  0
MTEXT
  5
308
330
300
100
AcDbEntity
  8
VERMASSUNG
100
AcDbMText
 10
83.6277117782
 20
119.0555534307
 30
0.0
 40
2.0
 41
0.0
 71
     1
 72
     1
  1
WH
  7
SLDTEXTSTYLE0
 11
-7.044195017643634E-15
 21
1.0
 31
0.0
 73
     1
 44
1.0
  0
MTEXT
  5
309
330
300
100
AcDbEntity
  8
VERMASSUNG
100
AcDbMText
 10
83.8277117877
 20
122.8555534948
 30
0.0
 40
2.0
 41
0.0
 71
     1
 72
     1
  1
%%c
  7
SLDTEXTSTYLE0
 11
-7.044195017643634E-15
 21
1.0
 31
0.0
 73
     1
 44
1.0
  0
MTEXT
  5
30A
330
300
100
AcDbEntity
  8
VERMASSUNG
100
AcDbMText
 10
83.8277119041
 20
126.4647502371
 30
0.0
 40
2.0
 41
0.0
 71
     1
 72
     1
  1
32
  7
SLDTEXTSTYLE0
 11
-7.044195017643634E-15
 21
1.0
 31
0.0
 73
     1
 44
1.0
  0
ENDBLK
  5
302
330
300
100
AcDbEntity
  8
0
100
AcDbBlockEnd
  0
BLOCK
  5
30D
330
30C
100
AcDbEntity
  8
0
100
AcDbBlockBegin
  2
*D2
 70
     1
 10
0.0
 20
0.0
 30
0.0
  3
*D2
  1

  0
SOLID
  5
30F
330
30C
100
AcDbEntity
  8
VERMASSUNG
100
AcDbTrace
 10
192.3235681364
 20
144.1600917431
 30
0.0
 11
191.8735681364
 21
141.1600917431
 31
0.0
 12
192.7735681364
 22
141.1600917431
 32
0.0
 13
192.7735681364
 23
141.1600917431
 33
0.0
  0
SOLID
  5
310
330
30C
100
AcDbEntity
  8
VERMASSUNG
100
AcDbTrace
 10
192.3235681364
 20
104.1600917431
 30
0.0
 11
192.7735681364
 21
107.1600917431
 31
0.0
 12
191.8735681364
 22
107.1600917431
 32
0.0
 13
191.8735681364
 23
107.1600917431
 33
0.0
  0
LINE
  5
311
330
30C
100
AcDbEntity
  8
VERMASSUNG
100
AcDbLine
 10
185.3763761468
 20
144.1600917431
 30
0.0
 11
193.3235681364
 21
144.1600917431
 31
0.0
  0
LINE
  5
312
330
30C
100
AcDbEntity
  8
VERMASSUNG
100
AcDbLine
 10
185.3763761468
 20
104.1600917431
 30
0.0
 11
193.3235681364
 21
104.1600917431
 31
0.0
  0
LINE
  5
313
330
30C
100
AcDbEntity
  8
VERMASSUNG
100
AcDbLine
 10
192.3235681364
 20
144.1600917431
 30
0.0
 11
192.3235681364
 21
104.1600917431
 31
0.0
  0
MTEXT
  5
314
330
30C
100
AcDbEntity
  8
VERMASSUNG
100
AcDbMText
 10
189.7454326568
 20
117.755844735
 30
0.0
 40
2.0
 41
0.0
 71
     1
 72
     1
  1
%%c
  7
SLDTEXTSTYLE0
 11
-7.044195017643634E-15
 21
1.0
 31
0.0
 73
     1
 44
1.0
  0
MTEXT
  5
315
330
30C
100
AcDbEntity
  8
VERMASSUNG
100
AcDbMText
 10
189.7454327732
 20
121.3654872517
 30
0.0
 40
2.0
 41
0.0
 71
     1
 72
     1
  1
40
  7
SLDTEXTSTYLE0
 11
-7.044195017643634E-15
 21
1.0
 31
0.0
 73
     1
 44
1.0
  0
MTEXT
  5
316
330
30C
100
AcDbEntity
  8
VERMASSUNG
100
AcDbMText
 10
189.7454327732
 20
124.3645106653
 30
0.0
 40
2.0
 41
0.0
 71
     1
 72
     1
  1
-50.5
  7
SLDTEXTSTYLE0
 11
-7.044195017643634E-15
 21
1.0
 31
0.0
 73
     1
 44
1.0
  0
ENDBLK
  5
30E
330
30C
100
AcDbEntity
  8
0
100
AcDbBlockEnd
  0
BLOCK
  5
319
330
318
100
AcDbEntity
  8
0
100
AcDbBlockBegin
  2
*D3
 70
     1
 10
0.0
 20
0.0
 30
0.0
  3
*D3
  1

  0
SOLID
  5
31B
330
318
100
AcDbEntity
  8
VERMASSUNG
100
AcDbTrace
 10
119.3763761468
 20
148.4118385566
 30
0.0
 11
122.3763761468
 21
147.9618385566
 31
0.0
 12
122.3763761468
 22
148.8618385566
 32
0.0
 13
122.3763761468
 23
148.8618385566
 33
0.0
  0
SOLID
  5
31C
330
318
100
AcDbEntity
  8
VERMASSUNG
100
AcDbTrace
 10
185.3763761468
 20
148.4118385566
 30
0.0
 11
182.3763761468
 21
148.8618385566
 31
0.0
 12
182.3763761468
 22
147.9618385566
 32
0.0
 13
182.3763761468
 23
147.9618385566
 33
0.0
  0
LINE
  5
31D
330
318
100
AcDbEntity
  8
VERMASSUNG
100
AcDbLine
 10
119.3763761468
 20
139.6600917431
 30
0.0
 11
119.3763761468
 21
149.4118385566
 31
0.0
  0
LINE
  5
31E
330
318
100
AcDbEntity
  8
VERMASSUNG
100
AcDbLine
 10
185.3763761468
 20
144.1600917431
 30
0.0
 11
185.3763761468
 21
149.4118385566
 31
0.0
  0
LINE
  5
31F
330
318
100
AcDbEntity
  8
VERMASSUNG
100
AcDbLine
 10
119.3763761468
 20
148.4118385566
 30
0.0
 11
185.3763761468
 21
148.4118385566
 31
0.0
  0
MTEXT
  5
320
330
318
100
AcDbEntity
  8
VERMASSUNG
100
AcDbMText
 10
150.9764362376
 20
150.9899739198
 30
0.0
 40
2.0
 41
0.0
 71
     1
 72
     1
  1
66
  7
SLDTEXTSTYLE0
 73
     1
 44
1.0
  0
ENDBLK
  5
31A
330
318
100
AcDbEntity
  8
0
100
AcDbBlockEnd
  0
BLOCK
  5
323
330
322
100
AcDbEntity
  8
0
100
AcDbBlockBegin
  2
*D4
 70
     1
 10
0.0
 20
0.0
 30
0.0
  3
*D4
  1

  0
SOLID
  5
325
330
322
100
AcDbEntity
  8
VERMASSUNG
100
AcDbTrace
 10
92.4058472672
 20
133.1600917431
 30
0.0
 11
91.9558472672
 21
130.1600917431
 31
0.0
 12
92.8558472672
 22
130.1600917431
 32
0.0
 13
92.8558472672
 23
130.1600917431
 33
0.0
  0
SOLID
  5
326
330
322
100
AcDbEntity
  8
VERMASSUNG
100
AcDbTrace
 10
92.4058472672
 20
115.1600917431
 30
0.0
 11
92.8558472672
 21
118.1600917431
 31
0.0
 12
91.9558472672
 22
118.1600917431
 32
0.0
 13
91.9558472672
 23
118.1600917431
 33
0.0
  0
LINE
  5
327
330
322
100
AcDbEntity
  8
VERMASSUNG
100
AcDbLine
 10
112.3763761468
 20
133.1600917431
 30
0.0
 11
91.4058472672
 21
133.1600917431
 31
0.0
  0
LINE
  5
328
330
322
100
AcDbEntity
  8
VERMASSUNG
100
AcDbLine
 10
102.8763761468
 20
115.1600917431
 30
0.0
 11
91.4058472672
 21
115.1600917431
 31
0.0
  0
LINE
  5
329
330
322
100
AcDbEntity
  8
VERMASSUNG
100
AcDbLine
 10
92.4058472672
 20
133.1600917431
 30
0.0
 11
92.4058472672
 21
115.1600917431
 31
0.0
  0
MTEXT
  5
32A
330
322
100
AcDbEntity
  8
VERMASSUNG
100
AcDbMText
 10
89.8277117877
 20
121.1557930025
 30
0.0
 40
2.0
 41
0.0
 71
     1
 72
     1
  1
%%c
  7
SLDTEXTSTYLE0
 11
-7.044195017643634E-15
 21
1.0
 31
0.0
 73
     1
 44
1.0
  0
MTEXT
  5
32B
330
322
100
AcDbEntity
  8
VERMASSUNG
100
AcDbMText
 10
89.8277119041
 20
124.7654355192
 30
0.0
 40
2.0
 41
0.0
 71
     1
 72
     1
  1
18
  7
SLDTEXTSTYLE0
 11
-7.044195017643634E-15
 21
1.0
 31
0.0
 73
     1
 44
1.0
  0
ENDBLK
  5
324
330
322
100
AcDbEntity
  8
0
100
AcDbBlockEnd
  0
ENDSEC
  0
SECTION
  2
ENTITIES
  0
MTEXT
  5
49
330
1F
100
AcDbEntity
  8
KOPF_DÜNN
100
AcDbMText
 10
13.8892156294
 20
23.8442973028
 30
0.0
 40
3.0
 41
0.0
 71
     1
 72
     1
  1
D04.032.040.066
  7
SLDTEXTSTYLE0
 73
     1
 44
1.0
  0
MTEXT
  5
4A
330
1F
100
AcDbEntity
  8
VERMASSUNG
100
AcDbMText
 10
13.9329988022
 20
28.8834360957
 30
0.0
 40
3.0
 41
0.0
 71
     1
 72
     1
  1
Zweischneiderkopf_Twin cutter head
  7
SLDTEXTSTYLE0
 73
     1
 44
1.0
  0
MTEXT
  5
4B
330
1F
100
AcDbEntity
  8
VERMASSUNG
100
AcDbMText
 10
98.8601118557
 20
13.8365368179
 30
0.0
 40
2.0
 41
0.0
 71
     1
 72
     1
  1
Datum: 27.02.2008
  7
SLDTEXTSTYLE0
 73
     1
 44
1.0
  0
MTEXT
  5
4C
330
1F
100
AcDbEntity
  8
VERMASSUNG
100
AcDbMText
 10
13.933048693
 20
18.0482802738
 30
0.0
 40
2.0
 41
0.0
 71
     1
 72
     1
  1
Wohlhaupter ø32
  7
SLDTEXTSTYLE0
 73
     1
 44
1.0
  0
MTEXT
  5
4D
330
1F
100
AcDbEntity
  8
VERMASSUNG
100
AcDbMText
 10
13.9808475933
 20
13.9090973692
 30
0.0
 40
2.0
 41
0.0
 71
     1
 72
     1
  1
Gewicht: 349g
  7
SLDTEXTSTYLE0
 73
     1
 44
1.0
  0
LINE
  5
4E
330
1F
100
AcDbEntity
  8
0
  6
PHANTOM
 62
     7
370
     0
100
AcDbLine
 10
169.726375366
 20
121.91009184
 30
0.0
 11
169.4763748593
 21
122.1600916481
 31
0.0
  0
LINE
  5
4F
330
1F
100
AcDbEntity
  8
0
  6
PHANTOM
 62
     7
370
     0
100
AcDbLine
 10
165.976375217
 20
122.1600916481
 30
0.0
 11
165.9028007336
 21
122.0865153021
 31
0.0
  0
LINE
  5
50
330
1F
100
AcDbEntity
  8
0
  6
PHANTOM
 62
     7
370
     0
100
AcDbLine
 10
169.726375366
 20
121.810091777
 30
0.0
 11
169.726375366
 21
121.91009184
 31
0.0
  0
LINE
  5
51
330
1F
100
AcDbEntity
  8
0
  6
PHANTOM
 62
     7
370
     0
100
AcDbLine
 10
169.4763748593
 20
126.1600918381
 30
0.0
 11
169.726375366
 21
126.4100916463
 31
0.0
  0
LINE
  5
52
330
1F
100
AcDbEntity
  8
0
  6
PHANTOM
 62
     7
370
     0
100
AcDbLine
 10
169.726375366
 20
126.4100916463
 30
0.0
 11
169.726375366
 21
126.5100917092
 31
0.0
  0
LINE
  5
53
330
1F
100
AcDbEntity
  8
0
  6
PHANTOM
 62
     7
370
     0
100
AcDbLine
 10
179.5635780938
 20
137.4996559473
 30
0.0
 11
179.5635780938
 21
137.5696727785
 31
0.0
  0
LINE
  5
54
330
1F
100
AcDbEntity
  8
0
  6
PHANTOM
 62
     7
370
     0
100
AcDbLine
 10
181.4975066729
 20
137.5725477713
 30
0.0
 11
181.4975066729
 21
137.5025486353
 31
0.0
  0
LINE
  5
55
330
1F
100
AcDbEntity
  8
0
  6
PHANTOM
 62
     7
370
     0
100
AcDbLine
 10
179.5619054384
 20
139.2906954291
 30
0.0
 11
179.5619054384
 21
139.360708535
 31
0.0
  0
LINE
  5
56
330
1F
100
AcDbEntity
  8
0
  6
PHANTOM
 62
     7
370
     0
100
AcDbLine
 10
181.4958340175
 20
139.3635593134
 30
0.0
 11
181.4958340175
 21
139.293588117
 31
0.0
  0
LINE
  5
57
330
1F
100
AcDbEntity
  8
0
  6
PHANTOM
 62
     7
370
     0
100
AcDbLine
 10
177.9068707175
 20
138.4567267972
 30
0.0
 11
177.9068707175
 21
138.4188061359
 31
0.0
  0
LINE
  5
58
330
1F
100
AcDbEntity
  8
0
  6
PHANTOM
 62
     7
370
     0
100
AcDbLine
 10
183.1568701811
 20
138.4188061359
 30
0.0
 11
183.1568701811
 21
138.4567267972
 31
0.0
  0
LINE
  5
59
330
1F
100
AcDbEntity
  8
0
  6
PHANTOM
 62
     7
370
     0
100
AcDbLine
 10
182.5318707771
 20
110.2986031922
 30
0.0
 11
182.5318707771
 21
110.3148314881
 31
0.0
  0
LINE
  5
5A
330
1F
100
AcDbEntity
  8
0
  6
PHANTOM
 62
     7
370
     0
100
AcDbLine
 10
165.5059343822
 20
140.9100921604
 30
0.0
 11
164.1763745494
 21
140.9100921604
 31
0.0
  0
LINE
  5
5B
330
1F
100
AcDbEntity
  8
0
  6
PHANTOM
 62
     7
370
     0
100
AcDbLine
 10
172.7763748414
 20
140.9100921604
 30
0.0
 11
169.9672675378
 21
140.9100921604
 31
0.0
  0
SPLINE
  5
5C
330
1F
100
AcDbEntity
  8
0
  6
PHANTOM
 62
     7
370
     0
100
AcDbSpline
210
0.0
220
0.0
230
1.0
 70
     8
 71
     3
 72
    10
 73
     6
 74
     0
 42
0.00000001
 43
0.00000001
 40
0.0
 40
0.0
 40
0.0
 40
0.0
 40
0.2653215676632156
 40
0.8538952281469272
 40
0.9999999999999999
 40
0.9999999999999999
 40
0.9999999999999999
 40
0.9999999999999999
 10
167.0186816401436
 20
126.3824302016424
 30
0.0
 10
167.0669727656791
 20
126.405554549164
 30
0.0
 10
167.2223900655984
 20
126.4799765804243
 30
0.0
 10
167.4144247011804
 20
126.5063807034814
 30
0.0
 10
167.554293814144
 20
126.5094761256747
 30
0.0
 10
167.5821094460442
 20
126.5100917092191
 30
0.0
  0
SPLINE
  5
5D
330
1F
100
AcDbEntity
  8
0
  6
PHANTOM
 62
     7
370
     0
100
AcDbSpline
210
0.0
220
0.0
230
1.0
 70
     8
 71
     3
 72
    14
 73
    10
 74
     0
 42
0.00000001
 43
0.00000001
 40
0.0
 40
0.0
 40
0.0
 40
0.0
 40
0.078157504896906
 40
0.2370007731730816
 40
0.3975793423865466
 40
0.5611169113106038
 40
0.7289218713656395
 40
0.9020888481874945
 40
1.0
 40
1.0
 40
1.0
 40
1.0
 10
165.9028007335617
 20
124.5100917306395
 30
0.0
 10
165.9045189303604
 20
124.5770264898863
 30
0.0
 10
165.9097291014154
 20
124.7799959899308
 30
0.0
 10
165.9701477969463
 20
125.1149840237787
 30
0.0
 10
166.1062340911093
 20
125.4906563969123
 30
0.0
 10
166.3034246534121
 20
125.8258727298477
 30
0.0
 10
166.5528951023081
 20
126.1030494462691
 30
0.0
 10
166.7965694738865
 20
126.2938860371338
 30
0.0
 10
166.9597442693791
 20
126.3589350444855
 30
0.0
 10
167.0186816401436
 20
126.3824302016424
 30
0.0
  0
SPLINE
  5
5E
330
1F
100
AcDbEntity
  8
0
  6
PHANTOM
 62
     7
370
     0
100
AcDbSpline
210
0.0
220
0.0
230
1.0
 70
     8
 71
     3
 72
    17
 73
    13
 74
     0
 42
0.00000001
 43
0.00000001
 40
0.0
 40
0.0
 40
0.0
 40
0.0
 40
0.0516009606077518
 40
0.1729492624468506
 40
0.2941757974087743
 40
0.4143424877565962
 40
0.533260119184303
 40
0.6510245294128959
 40
0.7677814856117701
 40
0.8836645376463973
 40
0.9924029003616106
 40
1.0
 40
1.0
 40
1.0
 40
1.0
 10
163.6324300117447
 20
109.8061952518897
 30
0.0
 10
163.6823365907551
 20
109.8662117719072
 30
0.0
 10
163.8496068494757
 20
110.0673671912908
 30
0.0
 10
164.1176738635377
 20
110.4711502760962
 30
0.0
 10
164.4314269927638
 20
111.0455584407909
 30
0.0
 10
164.7256334853215
 20
111.6984492056924
 30
0.0
 10
165.0005855890029
 20
112.4220618880739
 30
0.0
 10
165.2560306420837
 20
113.2124438305494
 30
0.0
 10
165.4919447528853
 20
114.0648082120545
 30
0.0
 10
165.703494654694
 20
114.9592159003008
 30
0.0
 10
165.8357985571365
 20
115.6038581590936
 30
0.0
 10
165.8977318265147
 20
115.9383314225428
 30
0.0
 10
165.9017762787296
 20
115.9601736592727
 30
0.0
  0
LINE
  5
5F
330
1F
100
AcDbEntity
  8
0
  6
PHANTOM
 62
     7
370
     0
100
AcDbLine
 10
165.9028007336
 20
115.9697551059
 30
0.0
 11
165.9028007336
 21
124.5100917306
 31
0.0
  0
LINE
  5
60
330
1F
100
AcDbEntity
  8
0
  6
PHANTOM
 62
     7
370
     0
100
AcDbLine
 10
173.6549398549
 20
141.7886534485
 30
0.0
 11
172.7763748414
 21
140.9100921604
 31
0.0
  0
LINE
  5
61
330
1F
100
AcDbEntity
  8
0
  6
PHANTOM
 62
     7
370
     0
100
AcDbLine
 10
174.3784880884
 20
141.9162390533
 30
0.0
 11
173.6549398549
 21
141.7886590364
 31
0.0
  0
LINE
  5
62
330
1F
100
AcDbEntity
  8
0
  6
PHANTOM
 62
     7
370
     0
100
AcDbLine
 10
169.9672675378
 20
107.4100913259
 30
0.0
 11
172.7763748414
 21
107.4100913259
 31
0.0
  0
LINE
  5
63
330
1F
100
AcDbEntity
  8
0
  6
PHANTOM
 62
     7
370
     0
100
AcDbLine
 10
164.1763745494
 20
107.4100913259
 30
0.0
 11
165.5059343822
 21
107.4100913259
 31
0.0
  0
LINE
  5
64
330
1F
100
AcDbEntity
  8
0
  6
PHANTOM
 62
     7
370
     0
100
AcDbLine
 10
173.6549398549
 20
106.5315244498
 30
0.0
 11
174.3784880884
 21
106.403944433
 31
0.0
  0
LINE
  5
65
330
1F
100
AcDbEntity
  8
0
  6
PHANTOM
 62
     7
370
     0
100
AcDbLine
 10
172.7763748414
 20
107.4100913259
 30
0.0
 11
173.6549398549
 21
106.5315300378
 31
0.0
  0
LINE
  5
66
330
1F
100
AcDbEntity
  8
0
  6
Continuous
 62
     7
370
    15
100
AcDbLine
 10
157.1362799652
 20
134.9100921082
 30
0.0
 11
157.037928576
 21
134.9100921082
 31
0.0
  0
LINE
  5
67
330
1F
100
AcDbEntity
  8
0
  6
Continuous
 62
     7
370
    15
100
AcDbLine
 10
157.037928576
 20
124.410091755
 30
0.0
 11
157.1362799652
 21
124.410091755
 31
0.0
  0
LINE
  5
68
330
1F
100
AcDbEntity
  8
0
  6
Continuous
 62
     7
370
    15
100
AcDbLine
 10
119.8763761705
 20
108.1600909832
 30
0.0
 11
163.8763769216
 21
108.1600909832
 31
0.0
  0
LINE
  5
69
330
1F
100
AcDbEntity
  8
0
  6
Continuous
 62
     7
370
    15
100
AcDbLine
 10
163.1566471107
 20
140.1600925031
 30
0.0
 11
162.2908486671
 21
140.1600925031
 31
0.0
  0
LINE
  5
6A
330
1F
100
AcDbEntity
  8
0
  6
Continuous
 62
     7
370
    15
100
AcDbLine
 10
160.6910637267
 20
140.1600925031
 30
0.0
 11
158.9227988071
 21
140.1600925031
 31
0.0
  0
LINE
  5
6B
330
1F
100
AcDbEntity
  8
0
  6
Continuous
 62
     7
370
    15
100
AcDbLine
 10
158.2254803426
 20
140.1600925031
 30
0.0
 11
119.8763761705
 21
140.1600925031
 31
0.0
  0
ARC
  5
6C
330
1F
100
AcDbEntity
  8
0
  6
Continuous
 62
     7
370
    15
100
AcDbCircle
 10
119.8763761468
 20
108.6600917431
 30
0.0
 40
0.5
100
AcDbArc
 50
180.0
 51
270.0
  0
ARC
  5
6D
330
1F
100
AcDbEntity
  8
0
  6
Continuous
 62
     7
370
    15
100
AcDbCircle
 10
119.8763761468
 20
139.6600917431
 30
0.0
 40
0.5
100
AcDbArc
 50
90.0
 51
180.0
  0
ARC
  5
6E
330
1F
100
AcDbEntity
  8
0
  6
Continuous
 62
     7
370
    15
100
AcDbCircle
 10
118.9763761468
 20
114.9100917431
 30
0.0
 40
0.6000000000000085
100
AcDbArc
 50
48.1896851042
 51
90.0
  0
ARC
  5
6F
330
1F
100
AcDbEntity
  8
0
  6
Continuous
 62
     7
370
    15
100
AcDbCircle
 10
118.9763761468
 20
133.4100917431
 30
0.0
 40
0.6000000000000227
100
AcDbArc
 50
270.0
 51
311.8103148958
  0
LINE
  5
70
330
1F
100
AcDbEntity
  8
0
  6
Continuous
 62
     7
370
    15
100
AcDbLine
 10
116.8763762027
 20
115.1600921305
 30
0.0
 11
118.1062939496
 21
115.4896471428
 31
0.0
  0
LINE
  5
71
330
1F
100
AcDbEntity
  8
0
  6
Continuous
 62
     7
370
    15
100
AcDbLine
 10
118.1062939496
 20
132.8305363434
 30
0.0
 11
116.8763762027
 21
133.1600913557
 31
0.0
  0
LINE
  5
72
330
1F
100
AcDbEntity
  8
0
  6
Continuous
 62
     7
370
    15
100
AcDbLine
 10
102.8763762362
 20
115.1600921305
 30
0.0
 11
116.8763762027
 21
115.1600921305
 31
0.0
  0
LINE
  5
73
330
1F
100
AcDbEntity
  8
0
  6
Continuous
 62
     7
370
    15
100
AcDbLine
 10
116.8763762027
 20
133.1600913557
 30
0.0
 11
112.3631497532
 21
133.1600913557
 31
0.0
  0
LINE
  5
74
330
1F
100
AcDbEntity
  8
0
  6
Continuous
 62
     7
370
    15
100
AcDbLine
 10
102.8763762362
 20
133.1600913557
 30
0.0
 11
99.8922678329
 21
132.766945638
 31
0.0
  0
LINE
  5
75
330
1F
100
AcDbEntity
  8
0
  6
Continuous
 62
     7
370
    15
100
AcDbLine
 10
99.8922678329
 20
115.5532378482
 30
0.0
 11
102.8763762362
 21
115.1600921305
 31
0.0
  0
ARC
  5
76
330
1F
100
AcDbEntity
  8
0
  6
Continuous
 62
     7
370
    15
100
AcDbCircle
 10
98.5763761468
 20
116.3700917431
 30
0.0
 40
1.200000000000012
100
AcDbArc
 50
180.0
 51
300.0
  0
ARC
  5
77
330
1F
100
AcDbEntity
  8
0
  6
Continuous
 62
     7
370
    15
100
AcDbCircle
 10
98.5763761468
 20
131.9500917431
 30
0.0
 40
1.200000000000003
100
AcDbArc
 50
60.0
 51
180.0
  0
LINE
  5
78
330
1F
100
AcDbEntity
  8
0
  6
Continuous
 62
     7
370
    15
100
AcDbLine
 10
99.1763769336
 20
115.3308613005
 30
0.0
 11
99.3877741195
 21
115.4529120552
 31
0.0
  0
LINE
  5
79
330
1F
100
AcDbEntity
  8
0
  6
Continuous
 62
     7
370
    15
100
AcDbLine
 10
99.3877741195
 20
132.867271431
 30
0.0
 11
99.1763769336
 21
132.9893221858
 31
0.0
  0
ARC
  5
7A
330
1F
100
AcDbEntity
  8
0
  6
Continuous
 62
     7
370
    15
100
AcDbCircle
 10
99.7877743466
 20
114.7600917431
 30
0.0
 40
0.7999999999999996
100
AcDbArc
 50
82.4946962461
 51
120.0
  0
ARC
  5
7B
330
1F
100
AcDbEntity
  8
0
  6
Continuous
 62
     7
370
    15
100
AcDbCircle
 10
99.7877743466
 20
133.5600917431
 30
0.0
 40
0.799999999999975
100
AcDbArc
 50
240.0
 51
277.5053037539
  0
ARC
  5
7C
330
1F
100
AcDbEntity
  8
0
  6
Continuous
 62
     7
370
    15
100
AcDbCircle
 10
118.261585428
 20
114.9100917431
 30
0.0
 40
0.6000000000000109
100
AcDbArc
 50
90.0
 51
105.0
  0
ARC
  5
7D
330
1F
100
AcDbEntity
  8
0
  6
Continuous
 62
     7
370
    15
100
AcDbCircle
 10
118.261585428
 20
133.4100917431
 30
0.0
 40
0.6000000000000227
100
AcDbArc
 50
255.0
 51
270.0
  0
LINE
  5
7E
330
1F
100
AcDbEntity
  8
0
  6
Continuous
 62
     7
370
    15
100
AcDbLine
 10
118.2615854697
 20
115.510091536
 30
0.0
 11
118.9763761569
 21
115.510091536
 31
0.0
  0
LINE
  5
7F
330
1F
100
AcDbEntity
  8
0
  6
Continuous
 62
     7
370
    15
100
AcDbLine
 10
118.9763761569
 20
132.8100919502
 30
0.0
 11
118.2615854697
 21
132.8100919502
 31
0.0
  0
LINE
  5
80
330
1F
100
AcDbEntity
  8
0
  6
Continuous
 62
     7
370
    15
100
AcDbLine
 10
163.8763769216
 20
108.1600909832
 30
0.0
 11
164.1763745494
 21
108.4600923362
 31
0.0
  0
LINE
  5
81
330
1F
100
AcDbEntity
  8
0
  6
Continuous
 62
     7
370
    15
100
AcDbLine
 10
165.9028007336
 20
122.1600916481
 30
0.0
 11
165.976375217
 21
122.1600916481
 31
0.0
  0
LINE
  5
82
330
1F
100
AcDbEntity
  8
0
  6
Continuous
 62
     7
370
    15
100
AcDbLine
 10
169.4763748593
 20
122.1600916481
 30
0.0
 11
169.6763745196
 21
122.360091774
 31
0.0
  0
LINE
  5
83
330
1F
100
AcDbEntity
  8
0
  6
Continuous
 62
     7
370
    15
100
AcDbLine
 10
169.6763745196
 20
125.9600917122
 30
0.0
 11
169.4763748593
 21
126.1600918381
 31
0.0
  0
LINE
  5
84
330
1F
100
AcDbEntity
  8
0
  6
PHANTOM
 62
     7
370
     0
100
AcDbLine
 10
166.7135654635
 20
122.1600916481
 30
0.0
 11
165.976375217
 21
122.1600916481
 31
0.0
  0
LINE
  5
85
330
1F
100
AcDbEntity
  8
0
  6
PHANTOM
 62
     7
370
     0
100
AcDbLine
 10
169.4763748593
 20
122.1600916481
 30
0.0
 11
166.7135654635
 21
122.1600916481
 31
0.0
  0
LINE
  5
86
330
1F
100
AcDbEntity
  8
0
  6
PHANTOM
 62
     7
370
     0
100
AcDbLine
 10
166.5688789136
 20
121.91009184
 30
0.0
 11
165.9028007336
 21
121.91009184
 31
0.0
  0
LINE
  5
87
330
1F
100
AcDbEntity
  8
0
  6
PHANTOM
 62
     7
370
     0
100
AcDbLine
 10
169.726375366
 20
121.91009184
 30
0.0
 11
166.5688789136
 21
121.91009184
 31
0.0
  0
LINE
  5
88
330
1F
100
AcDbEntity
  8
0
  6
PHANTOM
 62
     7
370
     0
100
AcDbLine
 10
167.7614784486
 20
126.1600918381
 30
0.0
 11
169.4763748593
 21
126.1600918381
 31
0.0
  0
LINE
  5
89
330
1F
100
AcDbEntity
  8
0
  6
PHANTOM
 62
     7
370
     0
100
AcDbLine
 10
166.6457912571
 20
126.1600918381
 30
0.0
 11
167.7614784486
 21
126.1600918381
 31
0.0
  0
LINE
  5
8A
330
1F
100
AcDbEntity
  8
0
  6
PHANTOM
 62
     7
370
     0
100
AcDbLine
 10
167.7664926894
 20
126.4100916463
 30
0.0
 11
169.726375366
 21
126.4100916463
 31
0.0
  0
LINE
  5
8B
330
1F
100
AcDbEntity
  8
0
  6
PHANTOM
 62
     7
370
     0
100
AcDbLine
 10
166.9181025274
 20
126.4100916463
 30
0.0
 11
167.7664926894
 21
126.4100916463
 31
0.0
  0
LINE
  5
8C
330
1F
100
AcDbEntity
  8
0
  6
PHANTOM
 62
     7
370
     0
100
AcDbLine
 10
176.338832701
 20
106.3769435289
 30
0.0
 11
176.2513777859
 21
106.2663843634
 31
0.0
  0
LINE
  5
8D
330
1F
100
AcDbEntity
  8
0
  6
PHANTOM
 62
     7
370
     0
100
AcDbLine
 10
184.8889215536
 20
104.8713991197
 30
0.0
 11
176.338832701
 21
106.3769435289
 31
0.0
  0
LINE
  5
8E
330
1F
100
AcDbEntity
  8
0
  6
PHANTOM
 62
     7
370
     0
100
AcDbLine
 10
184.8889215536
 20
104.8713991197
 30
0.0
 11
184.9763764687
 21
104.7300411167
 31
0.0
  0
LINE
  5
8F
330
1F
100
AcDbEntity
  8
0
  6
PHANTOM
 62
     7
370
     0
100
AcDbLine
 10
184.9069147057
 20
104.1661606881
 30
0.0
 11
176.181916023
 21
105.7025039347
 31
0.0
  0
LINE
  5
90
330
1F
100
AcDbEntity
  8
0
  6
PHANTOM
 62
     7
370
     0
100
AcDbLine
 10
184.8889215536
 20
113.5414898174
 30
0.0
 11
184.8889215536
 21
104.8713991197
 31
0.0
  0
LINE
  5
91
330
1F
100
AcDbEntity
  8
0
  6
PHANTOM
 62
     7
370
     0
100
AcDbLine
 10
184.8889215536
 20
113.5414898174
 30
0.0
 11
184.9763764687
 21
113.5774956795
 31
0.0
  0
LINE
  5
92
330
1F
100
AcDbEntity
  8
0
  6
PHANTOM
 62
     7
370
     0
100
AcDbLine
 10
185.3763757892
 20
113.4069993871
 30
0.0
 11
185.3763757892
 21
104.559543893
 31
0.0
  0
LINE
  5
93
330
1F
100
AcDbEntity
  8
0
  6
PHANTOM
 62
     7
370
     0
100
AcDbLine
 10
184.7128419824
 20
113.5724944773
 30
0.0
 11
184.8889215536
 21
113.5414898174
 31
0.0
  0
LINE
  5
94
330
1F
100
AcDbEntity
  8
0
  6
PHANTOM
 62
     7
370
     0
100
AcDbLine
 10
176.338832701
 20
106.3769435289
 30
0.0
 11
176.338832701
 21
106.5073659422
 31
0.0
  0
LINE
  5
95
330
1F
100
AcDbEntity
  8
0
  6
PHANTOM
 62
     7
370
     0
100
AcDbLine
 10
175.8513747401
 20
106.0958871397
 30
0.0
 11
175.8513747401
 21
106.1445114913
 31
0.0
  0
ARC
  5
96
330
1F
100
AcDbEntity
  8
0
  6
PHANTOM
 62
     7
370
     0
100
AcDbCircle
 10
184.9765444375
 20
104.5598825759
 30
0.0
 40
0.3998314951524424
100
AcDbArc
 50
259.9709371787
 51
359.951466794
  0
ARC
  5
97
330
1F
100
AcDbEntity
  8
0
  6
PHANTOM
 62
     7
370
     0
100
AcDbCircle
 10
176.2509888892
 20
106.096103292
 30
0.0
 40
0.3996142075149575
100
AcDbArc
 50
180.0309914267
 51
260.0464998405
  0
ARC
  5
98
330
1F
100
AcDbEntity
  8
0
  6
PHANTOM
 62
     7
370
     0
100
AcDbCircle
 10
184.9769786767
 20
113.4068770029
 30
0.0
 40
0.3993971312427281
100
AcDbArc
 50
0.0175567089
 51
61.7508301097
  0
LINE
  5
99
330
1F
100
AcDbEntity
  8
0
  6
PHANTOM
 62
     7
370
     0
100
AcDbLine
 10
176.3208358235
 20
132.9834567162
 30
0.0
 11
185.0458382316
 21
134.5198008942
 31
0.0
  0
LINE
  5
9A
330
1F
100
AcDbEntity
  8
0
  6
PHANTOM
 62
     7
370
     0
100
AcDbLine
 10
176.5441967792
 20
133.7043972465
 30
0.0
 11
176.2513777859
 21
133.3647532168
 31
0.0
  0
LINE
  5
9B
330
1F
100
AcDbEntity
  8
0
  6
PHANTOM
 62
     7
370
     0
100
AcDbLine
 10
176.5441967792
 20
133.7043972465
 30
0.0
 11
176.6552067049
 21
133.723944776
 31
0.0
  0
LINE
  5
9C
330
1F
100
AcDbEntity
  8
0
  6
PHANTOM
 62
     7
370
     0
100
AcDbLine
 10
184.8267315574
 20
135.0219690951
 30
0.0
 11
184.9763764687
 21
134.9010983261
 31
0.0
  0
ARC
  5
9D
330
1F
100
AcDbEntity
  8
0
  6
PHANTOM
 62
     7
370
     0
100
AcDbCircle
 10
176.2512099939
 20
133.3771832607
 30
0.0
 40
0.3998354011449944
100
AcDbArc
 50
180.0492000226
 51
280.0283960047
  0
LINE
  5
9E
330
1F
100
AcDbEntity
  8
0
  6
PHANTOM
 62
     7
370
     0
100
AcDbLine
 10
175.8513747401
 20
142.2242963466
 30
0.0
 11
175.8513747401
 21
133.3768399211
 31
0.0
  0
LINE
  5
9F
330
1F
100
AcDbEntity
  8
0
  6
PHANTOM
 62
     7
370
     0
100
AcDbLine
 10
176.4010189719
 20
142.0822938683
 30
0.0
 11
176.2513777859
 21
142.2122096422
 31
0.0
  0
LINE
  5
A0
330
1F
100
AcDbEntity
  8
0
  6
PHANTOM
 62
     7
370
     0
100
AcDbLine
 10
176.5441967792
 20
133.8169652748
 30
0.0
 11
176.5441967792
 21
133.7043972465
 31
0.0
  0
SPLINE
  5
A1
330
1F
100
AcDbEntity
  8
0
  6
PHANTOM
 62
     7
370
     0
100
AcDbSpline
210
0.0
220
0.0
230
1.0
 70
     8
 71
     3
 72
     9
 73
     5
 74
     0
 42
0.00000001
 43
0.00000001
 40
0.0
 40
0.0
 40
0.0
 40
0.0
 40
0.043298594562156
 40
1.0
 40
1.0
 40
1.0
 40
1.0
 10
177.0242600388482
 20
134.2785985919313
 30
0.0
 10
177.0232624351893
 20
134.2773644585814
 30
0.0
 10
177.0002223418792
 20
134.2488616084904
 30
0.0
 10
176.9759434697524
 20
134.2190779857511
 30
0.0
 10
176.9527158386662
 20
134.1905839520173
 30
0.0
  0
SPLINE
  5
A2
330
1F
100
AcDbEntity
  8
0
  6
PHANTOM
 62
     7
370
     0
100
AcDbSpline
210
0.0
220
0.0
230
1.0
 70
     8
 71
     3
 72
    14
 73
    10
 74
     0
 42
0.00000001
 43
0.00000001
 40
0.0
 40
0.0
 40
0.0
 40
0.0
 40
0.3240412106748275
 40
0.439082582643279
 40
0.555035055077753
 40
0.6320190243652531
 40
0.7091787238908975
 40
0.8120424780738024
 40
1.0
 40
1.0
 40
1.0
 40
1.0
 10
176.6552067048504
 20
133.7239447760062
 30
0.0
 10
176.7328013052511
 20
133.7410278217066
 30
0.0
 10
176.8379436032699
 20
133.7641757040699
 30
0.0
 10
176.9556826195238
 20
133.831468273686
 30
0.0
 10
177.0111511706618
 20
133.8838119349085
 30
0.0
 10
177.0401007539789
 20
133.944096528666
 30
0.0
 10
177.0451822010132
 20
134.0075107168943
 30
0.0
 10
177.0206306221707
 20
134.0952113937369
 30
0.0
 10
176.979377617471
 20
134.1531428836414
 30
0.0
 10
176.9527158386662
 20
134.1905839520173
 30
0.0
  0
SPLINE
  5
A3
330
1F
100
AcDbEntity
  8
0
  6
PHANTOM
 62
     7
370
     0
100
AcDbSpline
210
0.0
220
0.0
230
1.0
 70
     8
 71
     3
 72
    14
 73
    10
 74
     0
 42
0.00000001
 43
0.00000001
 40
0.0
 40
0.0
 40
0.0
 40
0.0
 40
0.1215041285614529
 40
0.2571360739693951
 40
0.3367029925348969
 40
0.4166986381287699
 40
0.5090560813787541
 40
0.6599892501419931
 40
1.0
 40
1.0
 40
1.0
 40
1.0
 10
176.9527158386662
 20
134.1905839520173
 30
0.0
 10
176.9261644901449
 20
134.2034449926404
 30
0.0
 10
176.8699745515954
 20
134.2306624833722
 30
0.0
 10
176.7888596715903
 20
134.2501937572048
 30
0.0
 10
176.7163481760964
 20
134.2422912808468
 30
0.0
 10
176.6607628854073
 20
134.2133036054821
 30
0.0
 10
176.6082551494762
 20
134.1531441118747
 30
0.0
 10
176.553096387259
 20
134.0201290647674
 30
0.0
 10
176.5478383285495
 20
133.9000960100506
 30
0.0
 10
176.5441967792465
 20
133.8169652747588
 30
0.0
  0
ARC
  5
A4
330
1F
100
AcDbEntity
  8
0
  6
PHANTOM
 62
     7
370
     0
100
AcDbCircle
 10
178.0509518013
 20
135.5199007121
 30
0.0
 40
0.999575730509705
100
AcDbArc
 50
180.0483655968
 51
280.0290513734
  0
SPLINE
  5
A5
330
1F
100
AcDbEntity
  8
0
  6
PHANTOM
 62
     7
370
     0
100
AcDbSpline
210
0.0
220
0.0
230
1.0
 70
     8
 71
     3
 72
    11
 73
     7
 74
     0
 42
0.00000001
 43
0.00000001
 40
0.0
 40
0.0
 40
0.0
 40
0.0
 40
0.3360267927328948
 40
0.6712234804290799
 40
0.9920201610712427
 40
1.0
 40
1.0
 40
1.0
 40
1.0
 10
184.8267315573647
 20
135.0219690951185
 30
0.0
 10
184.7675821947534
 20
135.0702289962585
 30
0.0
 10
184.6494295893785
 20
135.1666295795121
 30
0.0
 10
184.4640298638424
 20
135.3233436670417
 30
0.0
 10
184.3498231588729
 20
135.4221798064115
 30
0.0
 10
184.2975706110484
 20
135.4679825757182
 30
0.0
 10
184.2963023729279
 20
135.4690942692237
 30
0.0
  0
LINE
  5
A6
330
1F
100
AcDbEntity
  8
0
  6
PHANTOM
 62
     7
370
     0
100
AcDbLine
 10
178.2250254102
 20
134.535598919
 30
0.0
 11
183.3500264831
 21
135.4380355927
 31
0.0
  0
ARC
  5
A7
330
1F
100
AcDbEntity
  8
0
  6
PHANTOM
 62
     7
370
     0
100
AcDbCircle
 10
184.9767675204
 20
134.9133946564
 30
0.0
 40
0.3996083242413573
100
AcDbArc
 50
279.9533344883
 51
359.9698103274
  0
LINE
  5
A8
330
1F
100
AcDbEntity
  8
0
  6
PHANTOM
 62
     7
370
     0
100
AcDbLine
 10
183.0027251191
 20
142.6018805953
 30
0.0
 11
177.8777277715
 21
141.6994439217
 31
0.0
  0
ARC
  5
A9
330
1F
100
AcDbEntity
  8
0
  6
PHANTOM
 62
     7
370
     0
100
AcDbCircle
 10
183.1768013718
 20
141.6175781711
 30
0.0
 40
0.9995768124710955
100
AcDbArc
 50
0.0484017238
 51
100.0291943034
  0
LINE
  5
AA
330
1F
100
AcDbEntity
  8
0
  6
PHANTOM
 62
     7
370
     0
100
AcDbLine
 10
184.1763778276
 20
136.421493605
 30
0.0
 11
184.1763778276
 21
141.618422583
 31
0.0
  0
ARC
  5
AB
330
1F
100
AcDbEntity
  8
0
  6
PHANTOM
 62
     7
370
     0
100
AcDbCircle
 10
183.1773480997
 20
136.4220289157
 30
0.0
 40
0.9990298713474641
100
AcDbArc
 50
279.9533367774
 51
359.9692991716
  0
LINE
  5
AC
330
1F
100
AcDbEntity
  8
0
  6
PHANTOM
 62
     7
370
     0
100
AcDbLine
 10
177.0513764269
 20
140.7159859094
 30
0.0
 11
177.0513764269
 21
135.5190569314
 31
0.0
  0
ARC
  5
AD
330
1F
100
AcDbEntity
  8
0
  6
PHANTOM
 62
     7
370
     0
100
AcDbCircle
 10
178.0503998288
 20
140.7154559141
 30
0.0
 40
0.9990235424745713
100
AcDbArc
 50
99.9530321207
 51
179.9696038282
  0
CIRCLE
  5
AE
330
1F
100
AcDbEntity
  8
0
  6
PHANTOM
 62
     7
370
     0
100
AcDbCircle
 10
180.6108592508
 20
138.5682591876
 30
0.0
 40
3.046983499510098
  0
LINE
  5
AF
330
1F
100
AcDbEntity
  8
0
  6
PHANTOM
 62
     7
370
     0
100
AcDbLine
 10
184.68355375
 20
143.3912137302
 30
0.0
 11
184.9763764687
 21
143.7485528889
 31
0.0
  0
LINE
  5
B0
330
1F
100
AcDbEntity
  8
0
  6
PHANTOM
 62
     7
370
     0
100
AcDbLine
 10
185.3763757892
 20
134.9131840991
 30
0.0
 11
185.3763757892
 21
143.7606395933
 31
0.0
  0
LINE
  5
B1
330
1F
100
AcDbEntity
  8
0
  6
PHANTOM
 62
     7
370
     0
100
AcDbLine
 10
184.68355375
 20
143.2786447706
 30
0.0
 11
184.68355375
 21
143.3912137302
 31
0.0
  0
CIRCLE
  5
B2
330
1F
100
AcDbEntity
  8
0
  6
PHANTOM
 62
     7
370
     0
100
AcDbCircle
 10
180.6108588022
 20
138.5080734391
 30
0.0
 40
3.04698305097719
  0
SPLINE
  5
B3
330
1F
100
AcDbEntity
  8
0
  6
PHANTOM
 62
     7
370
     0
100
AcDbSpline
210
0.0
220
0.0
230
1.0
 70
     8
 71
     3
 72
    11
 73
     7
 74
     0
 42
0.00000001
 43
0.00000001
 40
0.0
 40
0.0
 40
0.0
 40
0.0
 40
0.0079789741970951
 40
0.3287751718245452
 40
0.6639708131982377
 40
1.0
 40
1.0
 40
1.0
 40
1.0
 10
176.9314518816425
 20
141.6404688509779
 30
0.0
 10
176.9301836414633
 20
141.6414806858649
 30
0.0
 10
176.8779255600914
 20
141.6831735376803
 30
0.0
 10
176.7637269906307
 20
141.7758413535219
 30
0.0
 10
176.5783238645434
 20
141.9297988374389
 30
0.0
 10
176.4601695118983
 20
142.0314201259845
 30
0.0
 10
176.4010189719154
 20
142.0822938683109
 30
0.0
  0
SPLINE
  5
B4
330
1F
100
AcDbEntity
  8
0
  6
PHANTOM
 62
     7
370
     0
100
AcDbSpline
210
0.0
220
0.0
230
1.0
 70
     8
 71
     3
 72
    14
 73
    10
 74
     0
 42
0.00000001
 43
0.00000001
 40
0.0
 40
0.0
 40
0.0
 40
0.0
 40
0.1214995019046772
 40
0.2571318213741932
 40
0.336698946370637
 40
0.4166995063280977
 40
0.5090548624028849
 40
0.659990836346322
 40
1.0
 40
1.0
 40
1.0
 40
1.0
 10
184.2750384159042
 20
142.9050260933714
 30
0.0
 10
184.3015884919153
 20
142.8921652605609
 30
0.0
 10
184.3577769477963
 20
142.8649476233434
 30
0.0
 10
184.4388911187964
 20
142.8454185690283
 30
0.0
 10
184.511402999166
 20
142.8533203102473
 30
0.0
 10
184.5669911986895
 20
142.8823050711821
 30
0.0
 10
184.6194937175657
 20
142.9424705979822
 30
0.0
 10
184.6746618187658
 20
143.0754791796156
 30
0.0
 10
184.6799153572735
 20
143.195513649484
 30
0.0
 10
184.6835537500336
 20
143.2786447706299
 30
0.0
  0
SPLINE
  5
B5
330
1F
100
AcDbEntity
  8
0
  6
PHANTOM
 62
     7
370
     0
100
AcDbSpline
210
0.0
220
0.0
230
1.0
 70
     8
 71
     3
 72
     9
 73
     5
 74
     0
 42
0.00000001
 43
0.00000001
 40
0.0
 40
0.0
 40
0.0
 40
0.0
 40
0.9566998149149258
 40
1.0
 40
1.0
 40
1.0
 40
1.0
 10
184.2750384159042
 20
142.9050260933714
 30
0.0
 10
184.2518085445344
 20
142.8782361801611
 30
0.0
 10
184.2275272903649
 20
142.850233756838
 30
0.0
 10
184.204488091986
 20
142.8238882351593
 30
0.0
 10
184.203490490432
 20
142.8227474691944
 30
0.0
  0
LINE
  5
B6
330
1F
100
AcDbEntity
  8
0
  6
PHANTOM
 62
     7
370
     0
100
AcDbLine
 10
184.9069147057
 20
144.1540227982
 30
0.0
 11
176.181916023
 21
142.6176795515
 31
0.0
  0
LINE
  5
B7
330
1F
100
AcDbEntity
  8
0
  6
PHANTOM
 62
     7
370
     0
100
AcDbLine
 10
184.68355375
 20
143.3912137302
 30
0.0
 11
184.5725475497
 21
143.371667132
 31
0.0
  0
ARC
  5
B8
330
1F
100
AcDbEntity
  8
0
  6
PHANTOM
 62
     7
370
     0
100
AcDbCircle
 10
176.2509888892
 20
142.2240801943
 30
0.0
 40
0.3996142075149557
100
AcDbArc
 50
99.9535001595
 51
179.9690085733
  0
SPLINE
  5
B9
330
1F
100
AcDbEntity
  8
0
  6
PHANTOM
 62
     7
370
     0
100
AcDbSpline
210
0.0
220
0.0
230
1.0
 70
     8
 71
     3
 72
    14
 73
    10
 74
     0
 42
0.00000001
 43
0.00000001
 40
0.0
 40
0.0
 40
0.0
 40
0.0
 40
0.3240448545080232
 40
0.4390812503184454
 40
0.5550331427516061
 40
0.6320155700902433
 40
0.7091753482266102
 40
0.8120385875242244
 40
1.0
 40
1.0
 40
1.0
 40
1.0
 10
184.57254754972
 20
143.3716671320276
 30
0.0
 10
184.4949511482572
 20
143.3545847145215
 30
0.0
 10
184.3898079111389
 20
143.3314380138945
 30
0.0
 10
184.2720712171907
 20
143.2641415164719
 30
0.0
 10
184.2166028741364
 20
143.2117992928293
 30
0.0
 10
184.187654561041
 20
143.1515149195324
 30
0.0
 10
184.1825665948151
 20
143.0881014652136
 30
0.0
 10
184.2071209922224
 20
143.0003991566024
 30
0.0
 10
184.2483754533827
 20
142.9424675667467
 30
0.0
 10
184.2750384159043
 20
142.9050260933714
 30
0.0
  0
ARC
  5
BA
330
1F
100
AcDbEntity
  8
0
  6
PHANTOM
 62
     7
370
     0
100
AcDbCircle
 10
184.9765444375
 20
143.7603009103
 30
0.0
 40
0.3998314951524424
100
AcDbArc
 50
0.048533206
 51
100.0290628213
  0
CIRCLE
  5
BB
330
1F
100
AcDbEntity
  8
0
  6
PHANTOM
 62
     7
370
     0
100
AcDbCircle
 10
180.5314017059
 20
138.4592184901
 30
0.0
 40
2.62389469877857
  0
CIRCLE
  5
BC
330
1F
100
AcDbEntity
  8
0
  6
PHANTOM
 62
     7
370
     0
100
AcDbCircle
 10
180.5314995938
 20
138.4729598292
 30
0.0
 40
1.799350722141776
  0
ARC
  5
BD
330
1F
100
AcDbEntity
  8
0
  6
PHANTOM
 62
     7
370
     0
100
AcDbCircle
 10
180.5346328592
 20
138.4715502076
 30
0.0
 40
1.672236191592012
100
AcDbArc
 50
301.34689384
 51
359.9860070149
  0
ARC
  5
BE
330
1F
100
AcDbEntity
  8
0
  6
PHANTOM
 62
     7
370
     0
100
AcDbCircle
 10
180.5345732569
 20
138.4707173784
 30
0.0
 40
1.6722957978732
100
AcDbArc
 50
0.0145417001
 51
60.1604076406
  0
ARC
  5
BF
330
1F
100
AcDbEntity
  8
0
  6
PHANTOM
 62
     7
370
     0
100
AcDbCircle
 10
180.5318677191
 20
138.4668986282
 30
0.0
 40
1.676954528526443
100
AcDbArc
 50
60.145144283
 51
118.6700705309
  0
LINE
  5
C0
330
1F
100
AcDbEntity
  8
0
  6
PHANTOM
 62
     7
370
     0
100
AcDbLine
 10
179.6538605041
 20
139.8956248316
 30
0.0
 11
179.7273232288
 21
139.9382533285
 31
0.0
  0
ARC
  5
C1
330
1F
100
AcDbEntity
  8
0
  6
PHANTOM
 62
     7
370
     0
100
AcDbCircle
 10
180.529156741
 20
138.4706871931
 30
0.0
 40
1.672301042149901
100
AcDbArc
 50
121.5611521204
 51
178.0410615791
  0
LINE
  5
C2
330
1F
100
AcDbEntity
  8
0
  6
PHANTOM
 62
     7
370
     0
100
AcDbLine
 10
178.85805654
 20
138.408207685
 30
0.0
 11
178.8578330226
 21
138.5278519022
 31
0.0
  0
ARC
  5
C3
330
1F
100
AcDbEntity
  8
0
  6
PHANTOM
 62
     7
370
     0
100
AcDbCircle
 10
180.5291392731
 20
138.4715924935
 30
0.0
 40
1.672284406085414
100
AcDbArc
 50
182.1722095438
 51
238.0027284077
  0
LINE
  5
C4
330
1F
100
AcDbEntity
  8
0
  6
PHANTOM
 62
     7
370
     0
100
AcDbLine
 10
179.7467878706
 20
136.9935510459
 30
0.0
 11
179.6430310852
 21
137.0533726888
 31
0.0
  0
ARC
  5
C5
330
1F
100
AcDbEntity
  8
0
  6
PHANTOM
 62
     7
370
     0
100
AcDbCircle
 10
180.5318684786
 20
138.4754203002
 30
0.0
 40
1.676987790019848
100
AcDbArc
 50
242.0857715057
 51
298.4566064713
  0
LINE
  5
C6
330
1F
100
AcDbEntity
  8
0
  6
PHANTOM
 62
     7
370
     0
100
AcDbLine
 10
181.4045606799
 20
137.0434047433
 30
0.0
 11
181.330941493
 21
137.001049124
 31
0.0
  0
SPLINE
  5
C7
330
1F
100
AcDbEntity
  8
0
  6
PHANTOM
 62
     7
370
     0
100
AcDbSpline
210
0.0
220
0.0
230
1.0
 70
     8
 71
     3
 72
    11
 73
     7
 74
     0
 42
0.00000001
 43
0.00000001
 40
0.0
 40
0.0
 40
0.0
 40
0.0
 40
0.2657612578730665
 40
0.5530047764401533
 40
0.8418177369833214
 40
1.0
 40
1.0
 40
1.0
 40
1.0
 10
179.746787870641
 20
136.9935510459023
 30
0.0
 10
179.7804545659504
 20
136.984769397828
 30
0.0
 10
179.8505093341363
 20
136.9664962553507
 30
0.0
 10
179.9608340038174
 20
136.9828750745923
 30
0.0
 10
180.0476573732033
 20
137.0244359941078
 30
0.0
 10
180.0892389520181
 20
137.0636606540127
 30
0.0
 10
180.1039538032963
 20
137.0775414409714
 30
0.0
  0
SPLINE
  5
C8
330
1F
100
AcDbEntity
  8
0
  6
PHANTOM
 62
     7
370
     0
100
AcDbSpline
210
0.0
220
0.0
230
1.0
 70
     8
 71
     3
 72
    12
 73
     8
 74
     0
 42
0.00000001
 43
0.00000001
 40
0.0
 40
0.0
 40
0.0
 40
0.0
 40
0.2057896854560132
 40
0.4120334850519585
 40
0.6141309581847679
 40
0.8132637468242851
 40
0.9999999999999999
 40
0.9999999999999999
 40
0.9999999999999999
 40
0.9999999999999999
 10
180.1039538032963
 20
137.0775414409714
 30
0.0
 10
180.153218970467
 20
137.1202149117393
 30
0.0
 10
180.2518580177839
 20
137.2056560204169
 30
0.0
 10
180.4442967260157
 20
137.2641417810049
 30
0.0
 10
180.640583002548
 20
137.2601245719019
 30
0.0
 10
180.8220570640768
 20
137.1977737851788
 30
0.0
 10
180.9137036662576
 20
137.1172790518824
 30
0.0
 10
180.958054835315
 20
137.0783246832566
 30
0.0
  0
SPLINE
  5
C9
330
1F
100
AcDbEntity
  8
0
  6
PHANTOM
 62
     7
370
     0
100
AcDbSpline
210
0.0
220
0.0
230
1.0
 70
     8
 71
     3
 72
    11
 73
     7
 74
     0
 42
0.00000001
 43
0.00000001
 40
0.0
 40
0.0
 40
0.0
 40
0.0
 40
0.2802380737097606
 40
0.5612900644017073
 40
0.8399906532989502
 40
0.9999999999999999
 40
0.9999999999999999
 40
0.9999999999999999
 40
0.9999999999999999
 10
180.958054835315
 20
137.0783246832566
 30
0.0
 10
180.9865946955449
 20
137.0537454395693
 30
0.0
 10
181.0437573065149
 20
137.0045155648077
 30
0.0
 10
181.1549483721648
 20
136.9721341573064
 30
0.0
 10
181.254257286734
 20
136.9740455859987
 30
0.0
 10
181.3104474315983
 20
136.9938323554347
 30
0.0
 10
181.3309414930298
 20
137.0010491239505
 30
0.0
  0
SPLINE
  5
CA
330
1F
100
AcDbEntity
  8
0
  6
PHANTOM
 62
     7
370
     0
100
AcDbSpline
210
0.0
220
0.0
230
1.0
 70
     8
 71
     3
 72
    11
 73
     7
 74
     0
 42
0.00000001
 43
0.00000001
 40
0.0
 40
0.0
 40
0.0
 40
0.0
 40
0.2928981780559189
 40
0.586435032715364
 40
0.8775189704894972
 40
1.0
 40
1.0
 40
1.0
 40
1.0
 10
179.5388421661808
 20
137.4026633578019
 30
0.0
 10
179.5315375140182
 20
137.3658168671294
 30
0.0
 10
179.5169122815964
 20
137.292043540486
 30
0.0
 10
179.5438648268147
 20
137.1799304845647
 30
0.0
 10
179.5919724760622
 20
137.1004170177703
 30
0.0
 10
179.6313647150937
 20
137.0641218369979
 30
0.0
 10
179.6430310852482
 20
137.0533726888375
 30
0.0
  0
SPLINE
  5
CB
330
1F
100
AcDbEntity
  8
0
  6
PHANTOM
 62
     7
370
     0
100
AcDbSpline
210
0.0
220
0.0
230
1.0
 70
     8
 71
     3
 72
    11
 73
     7
 74
     0
 42
0.00000001
 43
0.00000001
 40
0.0
 40
0.0
 40
0.0
 40
0.0
 40
0.2669021384993429
 40
0.5546149224891529
 40
0.8439089143574597
 40
1.0
 40
1.0
 40
1.0
 40
1.0
 10
178.8580565400078
 20
138.4082076850014
 30
0.0
 10
178.8674291861994
 20
138.3745951428917
 30
0.0
 10
178.8869052738408
 20
138.3047492527777
 30
0.0
 10
178.9570275152058
 20
138.2173700027816
 30
0.0
 10
179.0369205519825
 20
138.1631448364825
 30
0.0
 10
179.0918498948041
 20
138.1466938249922
 30
0.0
 10
179.1111006088211
 20
138.1409283506351
 30
0.0
  0
SPLINE
  5
CC
330
1F
100
AcDbEntity
  8
0
  6
PHANTOM
 62
     7
370
     0
100
AcDbSpline
210
0.0
220
0.0
230
1.0
 70
     8
 71
     3
 72
    12
 73
     8
 74
     0
 42
0.00000001
 43
0.00000001
 40
0.0
 40
0.0
 40
0.0
 40
0.0
 40
0.2058398482055615
 40
0.4120612462659942
 40
0.6141381575528235
 40
0.8132767621158955
 40
1.0
 40
1.0
 40
1.0
 40
1.0
 10
179.1111006088211
 20
138.1409283506351
 30
0.0
 10
179.1732002318513
 20
138.119395782662
 30
0.0
 10
179.2975145873152
 20
138.0762907334131
 30
0.0
 10
179.4451637242807
 20
137.938678962106
 30
0.0
 10
179.539758741045
 20
137.766953883466
 30
0.0
 10
179.5756701339352
 20
137.5792802357021
 30
0.0
 10
179.5508519750634
 20
137.4602591220636
 30
0.0
 10
179.5388421661808
 20
137.4026633578019
 30
0.0
  0
SPLINE
  5
CD
330
1F
100
AcDbEntity
  8
0
  6
PHANTOM
 62
     7
370
     0
100
AcDbSpline
210
0.0
220
0.0
230
1.0
 70
     8
 71
     3
 72
    11
 73
     7
 74
     0
 42
0.00000001
 43
0.00000001
 40
0.0
 40
0.0
 40
0.0
 40
0.0
 40
0.2423618433142861
 40
0.5166856775242956
 40
0.7923331361924242
 40
0.9999999999999999
 40
0.9999999999999999
 40
0.9999999999999999
 40
0.9999999999999999
 10
181.404560679908
 20
137.0434047433214
 30
0.0
 10
181.42913648239
 20
137.0655828736748
 30
0.0
 10
181.4815290743195
 20
137.1128639231632
 30
0.0
 10
181.5282484322536
 20
137.2116847493328
 30
0.0
 10
181.5429257509245
 20
137.3143362110733
 30
0.0
 10
181.5286775742403
 20
137.3773911300079
 30
0.0
 10
181.5225555248215
 20
137.4044840934353
 30
0.0
  0
SPLINE
  5
CE
330
1F
100
AcDbEntity
  8
0
  6
PHANTOM
 62
     7
370
     0
100
AcDbSpline
210
0.0
220
0.0
230
1.0
 70
     8
 71
     3
 72
    12
 73
     8
 74
     0
 42
0.00000001
 43
0.00000001
 40
0.0
 40
0.0
 40
0.0
 40
0.0
 40
0.2058574404056933
 40
0.4120998470016745
 40
0.6141911923612062
 40
0.8133157194540547
 40
1.0
 40
1.0
 40
1.0
 40
1.0
 10
181.5225555248215
 20
137.4044840934353
 30
0.0
 10
181.5097374265196
 20
137.468193469013
 30
0.0
 10
181.4840772592766
 20
137.5957313606551
 30
0.0
 10
181.5288821118008
 20
137.7910070312342
 30
0.0
 10
181.6305777781371
 20
137.9587688851497
 30
0.0
 10
181.7761320060516
 20
138.0849432474452
 30
0.0
 10
181.8925772113309
 20
138.1244263865034
 30
0.0
 10
181.948922450061
 20
138.1435313972311
 30
0.0
  0
SPLINE
  5
CF
330
1F
100
AcDbEntity
  8
0
  6
PHANTOM
 62
     7
370
     0
100
AcDbSpline
210
0.0
220
0.0
230
1.0
 70
     8
 71
     3
 72
    11
 73
     7
 74
     0
 42
0.00000001
 43
0.00000001
 40
0.0
 40
0.0
 40
0.0
 40
0.0
 40
0.2524683800108405
 40
0.5068913217311911
 40
0.7591769695513182
 40
1.0
 40
1.0
 40
1.0
 40
1.0
 10
181.948922450061
 20
138.1435313972311
 30
0.0
 10
181.9846080649187
 20
138.1560006477336
 30
0.0
 10
182.0562555658103
 20
138.1810356832813
 30
0.0
 10
182.1403557034009
 20
138.2610369662303
 30
0.0
 10
182.1964614594131
 20
138.3609098431801
 30
0.0
 10
182.2034540024102
 20
138.4349716909247
 30
0.0
 10
182.2068690009072
 20
138.471141807981
 30
0.0
  0
LWPOLYLINE
  5
D0
330
1F
100
AcDbEntity
  8
0
  6
PHANTOM
 62
     7
370
     0
100
AcDbPolyline
 90
        3
 70
   128
 43
0.0
 10
179.5388421662
 20
137.3313929665
 10
179.561335469
 20
137.4484900164
 10
179.5635780938
 20
137.4996559473
  0
LWPOLYLINE
  5
D1
330
1F
100
AcDbEntity
  8
0
  6
PHANTOM
 62
     7
370
     0
100
AcDbPolyline
 90
        3
 70
   128
 43
0.0
 10
181.4975066729
 20
137.5025486353
 10
181.4998461552
 20
137.4502949196
 10
181.5225555248
 20
137.3332407104
  0
ARC
  5
D2
330
1F
100
AcDbEntity
  8
0
  6
PHANTOM
 62
     7
370
     0
100
AcDbCircle
 10
179.1871816022
 20
138.3952120643
 30
0.0
 40
0.3346385301932276
100
AcDbArc
 50
103.2480534696
 51
179.9725825263
  0
SPLINE
  5
D3
330
1F
100
AcDbEntity
  8
0
  6
PHANTOM
 62
     7
370
     0
100
AcDbSpline
210
0.0
220
0.0
230
1.0
 70
     8
 71
     3
 72
    11
 73
     7
 74
     0
 42
0.00000001
 43
0.00000001
 40
0.0
 40
0.0
 40
0.0
 40
0.0
 40
0.2908659707108137
 40
0.5839570116878567
 40
0.8745981363857946
 40
1.0
 40
1.0
 40
1.0
 40
1.0
 10
179.1104933865025
 20
138.7922096776443
 30
0.0
 10
179.0748172046399
 20
138.7803370098507
 30
0.0
 10
179.003191924797
 20
138.756500850576
 30
0.0
 10
178.9188847377589
 20
138.6777609278994
 30
0.0
 10
178.8733248096723
 20
138.5962860785532
 30
0.0
 10
178.8614210130638
 20
138.5437016664313
 30
0.0
 10
178.8578330225899
 20
138.5278519021945
 30
0.0
  0
SPLINE
  5
D4
330
1F
100
AcDbEntity
  8
0
  6
PHANTOM
 62
     7
370
     0
100
AcDbSpline
210
0.0
220
0.0
230
1.0
 70
     8
 71
     3
 72
    11
 73
     7
 74
     0
 42
0.00000001
 43
0.00000001
 40
0.0
 40
0.0
 40
0.0
 40
0.0
 40
0.2431087800763172
 40
0.5182788189659027
 40
0.7947778881654037
 40
0.9999999999999999
 40
0.9999999999999999
 40
0.9999999999999999
 40
0.9999999999999999
 10
179.6538605041458
 20
139.8956248315649
 30
0.0
 10
179.6293683173784
 20
139.87325172739
 30
0.0
 10
179.5771539069086
 20
139.8255549473529
 30
0.0
 10
179.5308029139069
 20
139.7256098473167
 30
0.0
 10
179.5165768817449
 20
139.6220461165257
 30
0.0
 10
179.530798089527
 20
139.5583799451946
 30
0.0
 10
179.5368565864517
 20
139.5312569814401
 30
0.0
  0
SPLINE
  5
D5
330
1F
100
AcDbEntity
  8
0
  6
PHANTOM
 62
     7
370
     0
100
AcDbSpline
210
0.0
220
0.0
230
1.0
 70
     8
 71
     3
 72
    12
 73
     8
 74
     0
 42
0.00000001
 43
0.00000001
 40
0.0
 40
0.0
 40
0.0
 40
0.0
 40
0.2058177534638505
 40
0.4120209735897327
 40
0.6140772241035216
 40
0.8132124067991541
 40
0.9999999999999999
 40
0.9999999999999999
 40
0.9999999999999999
 40
0.9999999999999999
 10
179.5368565864517
 20
139.5312569814401
 30
0.0
 10
179.5496750864065
 20
139.4665354425931
 30
0.0
 10
179.5753360934987
 20
139.3369711508875
 30
0.0
 10
179.5305470528869
 20
139.1400782044427
 30
0.0
 10
179.4288869504722
 20
138.9724456391649
 30
0.0
 10
179.2833407567929
 20
138.8479721352774
 30
0.0
 10
179.1668669847989
 20
138.8103964188215
 30
0.0
 10
179.1104933865025
 20
138.7922096776443
 30
0.0
  0
ARC
  5
D6
330
1F
100
AcDbEntity
  8
0
  6
PHANTOM
 62
     7
370
     0
100
AcDbCircle
 10
181.8722092249
 20
138.397674389
 30
0.0
 40
0.3346798625245898
100
AcDbArc
 50
8.3983363559
 51
76.856642661
  0
SPLINE
  5
D7
330
1F
100
AcDbEntity
  8
0
  6
PHANTOM
 62
     7
370
     0
100
AcDbSpline
210
0.0
220
0.0
230
1.0
 70
     8
 71
     3
 72
    12
 73
     8
 74
     0
 42
0.00000001
 43
0.00000001
 40
0.0
 40
0.0
 40
0.0
 40
0.0
 40
0.0091684557716511
 40
0.257327485439527
 40
0.5054978312814772
 40
0.7549898921474302
 40
1.0
 40
1.0
 40
1.0
 40
1.0
 10
182.2068690009071
 20
138.471141807981
 30
0.0
 10
182.2068644898653
 20
138.4725126142949
 30
0.0
 10
182.2067378802075
 20
138.5109865024339
 30
0.0
 10
182.1928429097885
 20
138.5870317909133
 30
0.0
 10
182.13698443266
 20
138.6846803783268
 30
0.0
 10
182.0529904221818
 20
138.7604914193896
 30
0.0
 10
181.982993000279
 20
138.7834416261943
 30
0.0
 10
181.9483115024521
 20
138.7948127242403
 30
0.0
  0
SPLINE
  5
D8
330
1F
100
AcDbEntity
  8
0
  6
PHANTOM
 62
     7
370
     0
100
AcDbSpline
210
0.0
220
0.0
230
1.0
 70
     8
 71
     3
 72
    12
 73
     8
 74
     0
 42
0.00000001
 43
0.00000001
 40
0.0
 40
0.0
 40
0.0
 40
0.0
 40
0.2058455944040813
 40
0.4120695112745553
 40
0.6141405887058604
 40
0.8132605381639361
 40
1.0
 40
1.0
 40
1.0
 40
1.0
 10
181.9483115024521
 20
138.7948127242403
 30
0.0
 10
181.8862104936681
 20
138.8153233660273
 30
0.0
 10
181.7618943410034
 20
138.8563823459952
 30
0.0
 10
181.6142468910631
 20
138.9923533445868
 30
0.0
 10
181.519654488331
 20
139.1641960040425
 30
0.0
 10
181.4837477327657
 20
139.3536018559466
 30
0.0
 10
181.5085612590188
 20
139.4745453191738
 30
0.0
 10
181.5205699450924
 20
139.5330767857509
 30
0.0
  0
SPLINE
  5
D9
330
1F
100
AcDbEntity
  8
0
  6
PHANTOM
 62
     7
370
     0
100
AcDbSpline
210
0.0
220
0.0
230
1.0
 70
     8
 71
     3
 72
    11
 73
     7
 74
     0
 42
0.00000001
 43
0.00000001
 40
0.0
 40
0.0
 40
0.0
 40
0.0
 40
0.2535086496076244
 40
0.5075687520044261
 40
0.7595030111197075
 40
1.0
 40
1.0
 40
1.0
 40
1.0
 10
181.5205699450924
 20
139.5330767857509
 30
0.0
 10
181.527880167574
 20
139.5705356977697
 30
0.0
 10
181.5425165143321
 20
139.6455350055023
 30
0.0
 10
181.5154807400728
 20
139.7587516248603
 30
0.0
 10
181.4571113663486
 20
139.857314986354
 30
0.0
 10
181.3963421789822
 20
139.900306677324
 30
0.0
 10
181.3666633017017
 20
139.9213032575922
 30
0.0
  0
ARC
  5
DA
330
1F
100
AcDbEntity
  8
0
  6
PHANTOM
 62
     7
370
     0
100
AcDbCircle
 10
178.9763718117
 20
139.2909107307
 30
0.0
 40
0.5855336663095648
100
AcDbArc
 50
283.2416592626
 51
359.9789322542
  0
ARC
  5
DB
330
1F
100
AcDbEntity
  8
0
  6
PHANTOM
 62
     7
370
     0
100
AcDbCircle
 10
182.0814922958
 20
139.2939015053
 30
0.0
 40
0.5856583621472744
100
AcDbArc
 50
180.0306592153
 51
256.8557438072
  0
ARC
  5
DC
330
1F
100
AcDbEntity
  8
0
  6
PHANTOM
 62
     7
370
     0
100
AcDbCircle
 10
179.8575876922
 20
139.5562400763
 30
0.0
 40
0.3351017631209816
100
AcDbArc
 50
43.327005917
 51
173.0624912742
  0
SPLINE
  5
DD
330
1F
100
AcDbEntity
  8
0
  6
PHANTOM
 62
     7
370
     0
100
AcDbSpline
210
0.0
220
0.0
230
1.0
 70
     8
 71
     3
 72
    11
 73
     7
 74
     0
 42
0.00000001
 43
0.00000001
 40
0.0
 40
0.0
 40
0.0
 40
0.0
 40
0.2794078191248049
 40
0.5596243194393928
 40
0.8375038163600453
 40
1.0
 40
1.0
 40
1.0
 40
1.0
 10
180.1013572759583
 20
139.8574163916187
 30
0.0
 10
180.0728148281042
 20
139.882594542388
 30
0.0
 10
180.0156473228946
 20
139.9330237162499
 30
0.0
 10
179.9044502685828
 20
139.9667017607361
 30
0.0
 10
179.804714022966
 20
139.9655174477832
 30
0.0
 10
179.7481828997541
 20
139.9456020133118
 30
0.0
 10
179.7273232288315
 20
139.9382533284502
 30
0.0
  0
SPLINE
  5
DE
330
1F
100
AcDbEntity
  8
0
  6
PHANTOM
 62
     7
370
     0
100
AcDbSpline
210
0.0
220
0.0
230
1.0
 70
     8
 71
     3
 72
    12
 73
     8
 74
     0
 42
0.00000001
 43
0.00000001
 40
0.0
 40
0.0
 40
0.0
 40
0.0
 40
0.0091737816307432
 40
0.2576803984107872
 40
0.5061907512768927
 40
0.7560395521430257
 40
0.9999999999999999
 40
0.9999999999999999
 40
0.9999999999999999
 40
0.9999999999999999
 10
181.3666633017017
 20
139.9213032575922
 30
0.0
 10
181.3654715271884
 20
139.9219812645519
 30
0.0
 10
181.3319960267026
 20
139.9410256576423
 30
0.0
 10
181.2589821878854
 20
139.9668700064466
 30
0.0
 10
181.145997146398
 20
139.9669651048195
 30
0.0
 10
181.0379680534229
 20
139.9317630781444
 30
0.0
 10
180.9827445385279
 20
139.8825256949793
 30
0.0
 10
180.9554620332673
 20
139.8582005652266
 30
0.0
  0
SPLINE
  5
DF
330
1F
100
AcDbEntity
  8
0
  6
PHANTOM
 62
     7
370
     0
100
AcDbSpline
210
0.0
220
0.0
230
1.0
 70
     8
 71
     3
 72
    12
 73
     8
 74
     0
 42
0.00000001
 43
0.00000001
 40
0.0
 40
0.0
 40
0.0
 40
0.0
 40
0.2057538581231358
 40
0.4119601973366577
 40
0.6140173329005756
 40
0.8131409964245625
 40
0.9999999999999999
 40
0.9999999999999999
 40
0.9999999999999999
 40
0.9999999999999999
 10
180.9554620332672
 20
139.8582005652266
 30
0.0
 10
180.906203911949
 20
139.814510404482
 30
0.0
 10
180.8075793439151
 20
139.7270340023083
 30
0.0
 10
180.6151711902758
 20
139.6669001177307
 30
0.0
 10
180.4189128700192
 20
139.6710137350999
 30
0.0
 10
180.2374142868485
 20
139.735074709057
 30
0.0
 10
180.1457386099043
 20
139.8175089510998
 30
0.0
 10
180.1013572759583
 20
139.8574163916187
 30
0.0
  0
ARC
  5
E0
330
1F
100
AcDbEntity
  8
0
  6
PHANTOM
 62
     7
370
     0
100
AcDbCircle
 10
181.1996829839
 20
139.5575752331
 30
0.0
 40
0.3350604510211284
100
AcDbArc
 50
5.7888152418
 51
136.7931043009
  0
ARC
  5
E1
330
1F
100
AcDbEntity
  8
0
  6
PHANTOM
 62
     7
370
     0
100
AcDbCircle
 10
180.5280349353
 20
140.1889727592
 30
0.0
 40
0.5867714322838921
100
AcDbArc
 50
223.3510334118
 51
316.7556751736
  0
ARC
  5
E2
330
1F
100
AcDbEntity
  8
0
  6
PHANTOM
 62
     7
370
     0
100
AcDbCircle
 10
180.5337288469
 20
138.4205453557
 30
0.0
 40
2.62314191075496
100
AcDbArc
 50
269.959408087
 51
359.9620112203
  0
ARC
  5
E3
330
1F
100
AcDbEntity
  8
0
  6
PHANTOM
 62
     7
370
     0
100
AcDbCircle
 10
180.5300098786
 20
138.4205431796
 30
0.0
 40
2.62313973621078
100
AcDbArc
 50
180.0379412802
 51
270.0406394125
  0
ARC
  5
E4
330
1F
100
AcDbEntity
  8
0
  6
PHANTOM
 62
     7
370
     0
100
AcDbCircle
 10
180.5341130607
 20
110.3199335117
 30
0.0
 40
1.897153793740711
100
AcDbArc
 50
272.987294046
 51
48.3706973935
  0
LWPOLYLINE
  5
E5
330
1F
100
AcDbEntity
  8
0
  6
PHANTOM
 62
     7
370
     0
100
AcDbPolyline
 90
        3
 70
   128
 43
0.0
 10
181.3394798584
 20
112.0375230687
 10
181.4329362161
 20
111.9905192184
 10
181.7944085844
 20
111.7379771324
  0
ARC
  5
E6
330
1F
100
AcDbEntity
  8
0
  6
PHANTOM
 62
     7
370
     0
100
AcDbCircle
 10
180.5349631039
 20
110.3146620352
 30
0.0
 40
1.996524481585831
100
AcDbArc
 50
283.3599255865
 51
54.5066884194
  0
SPLINE
  5
E7
330
1F
100
AcDbEntity
  8
0
  6
PHANTOM
 62
     7
370
     0
100
AcDbSpline
210
0.0
220
0.0
230
1.0
 70
     8
 71
     3
 72
    22
 73
    18
 74
     0
 42
0.00000001
 43
0.00000001
 40
0.0
 40
0.0
 40
0.0
 40
0.0
 40
0.1068723611400059
 40
0.2174269471158189
 40
0.3319719632561559
 40
0.3711508383112235
 40
0.4108149877498133
 40
0.4509737544722455
 40
0.4927351959099662
 40
0.5366541510468915
 40
0.5827376783571273
 40
0.6309919612547261
 40
0.6814228083907374
 40
0.7425926393024725
 40
0.8201746830565217
 40
0.9141590166096085
 40
1.0
 40
1.0
 40
1.0
 40
1.0
 10
151.5329963214352
 20
123.7100917508492
 30
0.0
 10
151.5543112381543
 20
123.334883272227
 30
0.0
 10
151.5976754646093
 20
122.5715387258113
 30
0.0
 10
151.9525329131601
 20
121.4513039010637
 30
0.0
 10
152.3951986717582
 20
120.6311997282881
 30
0.0
 10
152.7967737339337
 20
120.0845230482
 30
0.0
 10
153.0662635056481
 20
119.765749282587
 30
0.0
 10
153.3634888277398
 20
119.459911032056
 30
0.0
 10
153.6926328015279
 20
119.1657978860878
 30
0.0
 10
154.0588040129302
 20
118.8837384592249
 30
0.0
 10
154.4643448870672
 20
118.6177031300906
 30
0.0
 10
154.9096215808281
 20
118.3733685042458
 30
0.0
 10
155.4216967121949
 20
118.1446720837978
 30
0.0
 10
156.0503687497378
 20
117.9302906717658
 30
0.0
 10
156.8490229757195
 20
117.7573494161689
 30
0.0
 10
157.753168528887
 20
117.6809622708488
 30
0.0
 10
158.3812745224041
 20
117.7430849820962
 30
0.0
 10
158.6811056978657
 20
117.7727397310214
 30
0.0
  0
ARC
  5
E8
330
1F
100
AcDbEntity
  8
0
  6
PHANTOM
 62
     7
370
     0
100
AcDbCircle
 10
156.8621436708
 20
123.612891829
 30
0.0
 40
5.908822719585126
100
AcDbArc
 50
273.7970452024
 51
0.9425560311
  0
ELLIPSE
  5
E9
330
1F
100
AcDbEntity
  8
0
  6
PHANTOM
 62
     7
370
     0
100
AcDbEllipse
 10
157.7865105676
 20
123.7100917431
 30
0.0
 11
-6.211657082460533
 21
0.0
 31
-7.993605777301127E-14
210
-1.286871710911436E-14
220
0.0
230
1.0
 40
0.9659258263
 41
1.735733765916696
 42
3.141592653589793
  0
LINE
  5
EA
330
1F
100
AcDbEntity
  8
0
  6
PHANTOM
 62
     7
370
     0
100
AcDbLine
 10
158.6811056979
 20
117.772739731
 30
0.0
 11
158.8064021118
 21
117.7915193851
 31
0.0
  0
SPLINE
  5
EB
330
1F
100
AcDbEntity
  8
0
  6
PHANTOM
 62
     7
370
     0
100
AcDbSpline
210
0.0
220
0.0
230
1.0
 70
     8
 71
     3
 72
    18
 73
    14
 74
     0
 42
0.00000001
 43
0.00000001
 40
0.0
 40
0.0
 40
0.0
 40
0.0
 40
0.0798755565229694
 40
0.1597742409592158
 40
0.23951960995368
 40
0.3192721181807231
 40
0.4145423235235441
 40
0.5098064378679947
 40
0.6047310385854846
 40
0.6996824864333309
 40
0.8002312981426392
 40
0.9007579067697052
 40
1.0
 40
1.0
 40
1.0
 40
1.0
 10
151.4131313807919
 20
123.7100917508492
 30
0.0
 10
151.4248764045899
 20
123.426228212589
 30
0.0
 10
151.4483698529496
 20
122.8584189435734
 30
0.0
 10
151.643705728804
 20
122.0259319322639
 30
0.0
 10
151.9480692480484
 20
121.2301004060452
 30
0.0
 10
152.3885472230712
 20
120.436516669483
 30
0.0
 10
152.9813329231824
 20
119.6761880533717
 30
0.0
 10
153.7320820860521
 20
118.9881002004503
 30
0.0
 10
154.5873257445116
 20
118.4383445648987
 30
0.0
 10
155.5343006079731
 20
118.0193413302988
 30
0.0
 10
156.5556009088239
 20
117.7563001801531
 30
0.0
 10
157.6241075669981
 20
117.6489988140525
 30
0.0
 10
158.3302641679313
 20
117.7316015071796
 30
0.0
 10
158.681072170253
 20
117.7726372855382
 30
0.0
  0
SPLINE
  5
EC
330
1F
100
AcDbEntity
  8
0
  6
PHANTOM
 62
     7
370
     0
100
AcDbSpline
210
0.0
220
0.0
230
1.0
 70
     8
 71
     3
 72
    12
 73
     8
 74
     0
 42
0.00000001
 43
0.00000001
 40
0.0
 40
0.0
 40
0.0
 40
0.0
 40
0.223081071204789
 40
0.4462682470434945
 40
0.6666523389643491
 40
0.8798538696564517
 40
1.0
 40
1.0
 40
1.0
 40
1.0
 10
167.7263750381424
 20
140.7619746180849
 30
0.0
 10
167.4680207158661
 20
140.7654671218315
 30
0.0
 10
166.9511891895706
 20
140.7724537904734
 30
0.0
 10
166.2620483378072
 20
140.8216072224844
 30
0.0
 10
165.7603158722267
 20
140.8733768806347
 30
0.0
 10
165.4929426953242
 20
140.9078942948213
 30
0.0
 10
165.5024924367183
 20
140.9066702191972
 30
0.0
 10
165.5059343821957
 20
140.9062290343122
 30
0.0
  0
LINE
  5
ED
330
1F
100
AcDbEntity
  8
0
  6
PHANTOM
 62
     7
370
     0
100
AcDbLine
 10
167.5895637519
 20
140.7650219055
 30
0.0
 11
168.184973175
 21
140.7690414938
 31
0.0
  0
SPLINE
  5
EE
330
1F
100
AcDbEntity
  8
0
  6
PHANTOM
 62
     7
370
     0
100
AcDbSpline
210
0.0
220
0.0
230
1.0
 70
     8
 71
     3
 72
    13
 73
     9
 74
     0
 42
0.00000001
 43
0.00000001
 40
0.0
 40
0.0
 40
0.0
 40
0.0
 40
0.0166964966743435
 40
0.2198456573046891
 40
0.4232330741593809
 40
0.6315629970349447
 40
0.847025577841235
 40
1.0
 40
1.0
 40
1.0
 40
1.0
 10
169.9672675378277
 20
140.9089186939077
 30
0.0
 10
169.9702695147107
 20
140.9093052556355
 30
0.0
 10
170.0097970631492
 20
140.9143951807135
 30
0.0
 10
169.8602041775281
 20
140.8946005631176
 30
0.0
 10
169.5168820938611
 20
140.8537604417418
 30
0.0
 10
168.9557357643889
 20
140.8024939297997
 30
0.0
 10
168.3297775175867
 20
140.7676043399075
 30
0.0
 10
167.9034044264038
 20
140.7636276116109
 30
0.0
 10
167.7263750381424
 20
140.7619764807301
 30
0.0
  0
LINE
  5
EF
330
1F
100
AcDbEntity
  8
0
  6
PHANTOM
 62
     7
370
     0
100
AcDbLine
 10
172.7763748414
 20
140.9100921604
 30
0.0
 11
172.7763748414
 21
140.5207918736
 31
0.0
  0
SPLINE
  5
F0
330
1F
100
AcDbEntity
  8
0
  6
PHANTOM
 62
     7
370
     0
100
AcDbSpline
210
0.0
220
0.0
230
1.0
 70
     8
 71
     3
 72
    11
 73
     7
 74
     0
 42
0.00000001
 43
0.00000001
 40
0.0
 40
0.0
 40
0.0
 40
0.0
 40
0.1710119648393299
 40
0.3896731262289719
 40
0.7621796873959995
 40
0.9999999999999999
 40
0.9999999999999999
 40
0.9999999999999999
 40
0.9999999999999999
 10
172.9330046720459
 20
140.4292018863039
 30
0.0
 10
172.9118905465574
 20
140.4327237603796
 30
0.0
 10
172.8637792504007
 20
140.4407488110396
 30
0.0
 10
172.8071809935178
 20
140.4649695076218
 30
0.0
 10
172.779904527632
 20
140.4929766899103
 30
0.0
 10
172.7773645647939
 20
140.512992501277
 30
0.0
 10
172.7763748414471
 20
140.5207918735819
 30
0.0
  0
LINE
  5
F1
330
1F
100
AcDbEntity
  8
0
  6
PHANTOM
 62
     7
370
     0
100
AcDbLine
 10
163.1740665681
 20
134.0964942949
 30
0.0
 11
165.403373415
 21
134.0964942949
 31
0.0
  0
SPLINE
  5
F2
330
1F
100
AcDbEntity
  8
0
  6
PHANTOM
 62
     7
370
     0
100
AcDbSpline
210
0.0
220
0.0
230
1.0
 70
     8
 71
     3
 72
    21
 73
    17
 74
     0
 42
0.00000001
 43
0.00000001
 40
0.0
 40
0.0
 40
0.0
 40
0.0
 40
0.0890031848280136
 40
0.1596604576373533
 40
0.2302287743255483
 40
0.2829536032507218
 40
0.3356198136661352
 40
0.3886839130508132
 40
0.4417483168455515
 40
0.4889399584361718
 40
0.5361743544590548
 40
0.611369978136905
 40
0.6867127847299846
 40
0.7999257770320383
 40
0.9132227015191829
 40
1.0
 40
1.0
 40
1.0
 40
1.0
 10
152.4807250745251
 20
134.2870885285215
 30
0.0
 10
152.6408032227996
 20
134.5938233555938
 30
0.0
 10
152.9279631762398
 20
135.1440668436028
 30
0.0
 10
153.5248846268073
 20
135.8149123784052
 30
0.0
 10
154.1311374524426
 20
136.3002484843991
 30
0.0
 10
154.7755853200339
 20
136.6539511221538
 30
0.0
 10
155.422378919214
 20
136.8992501985411
 30
0.0
 10
156.1288434690692
 20
137.0556004673084
 30
0.0
 10
156.8418015860222
 20
137.1202911572961
 30
0.0
 10
157.532535840097
 20
137.1025851979182
 30
0.0
 10
158.3132421016325
 20
137.0086516801189
 30
0.0
 10
159.186242114927
 20
136.8004960863103
 30
0.0
 10
160.268680192953
 20
136.3975182041906
 30
0.0
 10
161.3889630213398
 20
135.7818946857415
 30
0.0
 10
162.4107660455357
 20
134.9865310404413
 30
0.0
 10
162.9431556182949
 20
134.3657450346084
 30
0.0
 10
163.1740665681317
 20
134.0964942949491
 30
0.0
  0
LINE
  5
F3
330
1F
100
AcDbEntity
  8
0
  6
PHANTOM
 62
     7
370
     0
100
AcDbLine
 10
152.2332391388
 20
134.0965743887
 30
0.0
 11
152.4807250745
 21
134.2870885285
 31
0.0
  0
LINE
  5
F4
330
1F
100
AcDbEntity
  8
0
  6
PHANTOM
 62
     7
370
     0
100
AcDbLine
 10
148.3763753123
 20
134.0964942949
 30
0.0
 11
152.2331422813
 21
134.0964942949
 31
0.0
  0
ARC
  5
F5
330
1F
100
AcDbEntity
  8
0
  6
PHANTOM
 62
     7
370
     0
100
AcDbCircle
 10
135.2763761468
 20
124.9100917431
 30
0.0
 40
15.99999999999993
100
AcDbArc
 50
35.0401409874
 51
40.8652878026
  0
LINE
  5
F6
330
1F
100
AcDbEntity
  8
0
  6
PHANTOM
 62
     7
370
     0
100
AcDbLine
 10
147.3763770111
 20
138.4505027684
 30
0.0
 11
147.3763770111
 21
135.3786162811
 31
0.0
  0
ELLIPSE
  5
F7
330
1F
100
AcDbEntity
  8
0
  6
PHANTOM
 62
     7
370
     0
100
AcDbEllipse
 10
149.6603545065
 20
124.9100917431
 30
0.0
 11
0.0
 21
15.99999999999997
 31
0.0
210
0.0
220
0.0
230
1.0
 40
0.2679491924
 41
0.4935864497085363
 42
0.56184113184646
  0
ELLIPSE
  5
F8
330
1F
100
AcDbEntity
  8
0
  6
PHANTOM
 62
     7
370
     0
100
AcDbEllipse
 10
175.9203119628
 20
124.9100917431
 30
0.0
 11
59.71281292115136
 21
0.0
 31
0.0
210
0.0
220
0.0
230
1.0
 40
0.2679491924
 41
2.05599024493332
 42
2.06438277650343
  0
ARC
  5
F9
330
1F
100
AcDbEntity
  8
0
  6
PHANTOM
 62
     7
370
     0
100
AcDbCircle
 10
140.6093774502
 20
124.9100917431
 30
0.0
 40
16.00000000000026
100
AcDbArc
 50
56.4651736456
 51
62.2004362453
  0
SPLINE
  5
FA
330
1F
100
AcDbEntity
  8
0
  6
PHANTOM
 62
     7
370
     0
100
AcDbSpline
210
0.0
220
0.0
230
1.0
 70
     8
 71
     3
 72
    14
 73
    10
 74
     0
 42
0.00000001
 43
0.00000001
 40
0.0
 40
0.0
 40
0.0
 40
0.0
 40
0.2292898134479705
 40
0.3883084259195622
 40
0.5482362527586543
 40
0.6859495241579248
 40
0.8122595646206819
 40
0.9433939742907472
 40
1.0
 40
1.0
 40
1.0
 40
1.0
 10
149.7814113892271
 20
138.3055917697625
 30
0.0
 10
149.7704825959286
 20
138.2877710934821
 30
0.0
 10
149.7519743924496
 20
138.2575913020156
 30
0.0
 10
149.6935627016148
 20
138.22498819273
 30
0.0
 10
149.6313405428745
 20
138.2085509764955
 30
0.0
 10
149.5673418361392
 20
138.2069113759147
 30
0.0
 10
149.5109983207407
 20
138.2169601462242
 30
0.0
 10
149.472473981612
 20
138.2320362464108
 30
0.0
 10
149.4540359102038
 20
138.2434521879043
 30
0.0
 10
149.4484766073181
 20
138.2468942331748
 30
0.0
  0
ELLIPSE
  5
FB
330
1F
100
AcDbEntity
  8
0
  6
PHANTOM
 62
     7
370
     0
100
AcDbEllipse
 10
152.1259370549
 20
124.9100917431
 30
0.0
 11
0.0
 21
15.99999999999997
 31
0.0
210
0.0
220
0.0
230
1.0
 40
0.2679491924
 41
0.4437206503406841
 42
0.5786188919784896
  0
ELLIPSE
  5
FC
330
1F
100
AcDbEntity
  8
0
  6
PHANTOM
 62
     7
370
     0
100
AcDbEllipse
 10
175.9203119628
 20
124.9100917431
 30
0.0
 11
59.71281292110091
 21
0.0
 31
0.0
210
0.0
220
0.0
230
1.0
 40
0.2679491924
 41
2.006331178243939
 42
2.014516977135577
  0
ARC
  5
FD
330
1F
100
AcDbEntity
  8
0
  6
PHANTOM
 62
     7
370
     0
100
AcDbCircle
 10
143.9774258465
 20
124.9100917431
 30
0.0
 40
15.9999999999999
100
AcDbArc
 50
59.4720099257
 51
65.0456911811
  0
SPLINE
  5
FE
330
1F
100
AcDbEntity
  8
0
  6
PHANTOM
 62
     7
370
     0
100
AcDbSpline
210
0.0
220
0.0
230
1.0
 70
     8
 71
     3
 72
    14
 73
    10
 74
     0
 42
0.00000001
 43
0.00000001
 40
0.0
 40
0.0
 40
0.0
 40
0.0
 40
0.1877885820894032
 40
0.3763898763273305
 40
0.5425830184331333
 40
0.6847129062575876
 40
0.816805589534175
 40
0.9530322986583036
 40
1.0
 40
1.0
 40
1.0
 40
1.0
 10
152.4377054221584
 20
138.7444086151795
 30
0.0
 10
152.4290673264404
 20
138.7312149702437
 30
0.0
 10
152.4117537510203
 20
138.7047705808647
 30
0.0
 10
152.3560164540445
 20
138.6743608280126
 30
0.0
 10
152.2891107950037
 20
138.6581553834893
 30
0.0
 10
152.2235087571879
 20
138.6565275639976
 30
0.0
 10
152.1655941346066
 20
138.6658629570038
 30
0.0
 10
152.127369615633
 20
138.6796116825647
 30
0.0
 10
152.1093837503061
 20
138.689622713031
 30
0.0
 10
152.1047725028946
 20
138.6921893584208
 30
0.0
  0
ELLIPSE
  5
FF
330
1F
100
AcDbEntity
  8
0
  6
PHANTOM
 62
     7
370
     0
100
AcDbEllipse
 10
154.5915196034
 20
124.9100917431
 30
0.0
 11
0.0
 21
15.99999999999997
 31
0.0
210
0.0
220
0.0
230
1.0
 40
0.2679491924
 41
0.395010900943558
 42
0.5263533666162517
  0
ELLIPSE
  5
100
330
1F
100
AcDbEntity
  8
0
  6
PHANTOM
 62
     7
370
     0
100
AcDbEllipse
 10
175.9203119628
 20
124.9100917431
 30
0.0
 11
59.71281292110089
 21
0.0
 31
0.0
210
0.0
220
0.0
230
1.0
 40
0.2679491924
 41
1.957795114314811
 42
1.965807227738457
  0
ARC
  5
101
330
1F
100
AcDbEntity
  8
0
  6
PHANTOM
 62
     7
370
     0
100
AcDbCircle
 10
147.3454742428
 20
124.9100917431
 30
0.0
 40
15.9999999999999
100
AcDbArc
 50
62.3884480823
 51
67.8266027984
  0
SPLINE
  5
102
330
1F
100
AcDbEntity
  8
0
  6
PHANTOM
 62
     7
370
     0
100
AcDbSpline
210
0.0
220
0.0
230
1.0
 70
     8
 71
     3
 72
    14
 73
    10
 74
     0
 42
0.00000001
 43
0.00000001
 40
0.0
 40
0.0
 40
0.0
 40
0.0
 40
0.1819146648409011
 40
0.3644371101395579
 40
0.5300705982888602
 40
0.6763077642528268
 40
0.8136612208770981
 40
0.9539445367176915
 40
0.9999999999999999
 40
0.9999999999999999
 40
0.9999999999999999
 40
0.9999999999999999
 10
155.0940013177349
 20
139.1341587307529
 30
0.0
 10
155.0855353514891
 20
139.1226532548454
 30
0.0
 10
155.0685751340385
 20
139.09960386301
 30
0.0
 10
155.0144993442735
 20
139.0729327191235
 30
0.0
 10
154.9490434440914
 20
139.0581057551322
 30
0.0
 10
154.882931744786
 20
139.0559710300854
 30
0.0
 10
154.8233255429382
 20
139.0640797805042
 30
0.0
 10
154.7839893193014
 20
139.0765312726526
 30
0.0
 10
154.7656108243796
 20
139.0856103262174
 30
0.0
 10
154.7610683984711
 20
139.0878543036656
 30
0.0
  0
ELLIPSE
  5
103
330
1F
100
AcDbEntity
  8
0
  6
PHANTOM
 62
     7
370
     0
100
AcDbEllipse
 10
157.0571021519
 20
124.9100917431
 30
0.0
 11
0.0
 21
15.99999999999997
 31
0.0
210
0.0
220
0.0
230
1.0
 40
0.2679491924
 41
0.3472717883534473
 42
0.4756305755487809
  0
ELLIPSE
  5
104
330
1F
100
AcDbEntity
  8
0
  6
PHANTOM
 62
     7
370
     0
100
AcDbEllipse
 10
175.9203119628
 20
124.9100917431
 30
0.0
 11
59.71281292110089
 21
0.0
 31
0.0
210
0.0
220
0.0
230
1.0
 40
0.2679491924
 41
1.910201582325797
 42
1.918068115148349
  0
ARC
  5
105
330
1F
100
AcDbEntity
  8
0
  6
PHANTOM
 62
     7
370
     0
100
AcDbCircle
 10
150.7135226391
 20
124.9100917431
 30
0.0
 40
15.99999999999994
100
AcDbArc
 50
65.2291504007
 51
70.5535113135
  0
SPLINE
  5
106
330
1F
100
AcDbEntity
  8
0
  6
PHANTOM
 62
     7
370
     0
100
AcDbSpline
210
0.0
220
0.0
230
1.0
 70
     8
 71
     3
 72
    14
 73
    10
 74
     0
 42
0.00000001
 43
0.00000001
 40
0.0
 40
0.0
 40
0.0
 40
0.0
 40
0.1771670095354687
 40
0.354790132308076
 40
0.5197462551441514
 40
0.6693157818619974
 40
0.8113039234365506
 40
0.955339479573562
 40
0.9999999999999999
 40
0.9999999999999999
 40
0.9999999999999999
 40
0.9999999999999999
 10
157.7502972133114
 20
139.4787778856831
 30
0.0
 10
157.7419650361258
 20
139.4687676418702
 30
0.0
 10
157.7252792307162
 20
139.4487213830542
 30
0.0
 10
157.6725146579419
 20
139.425413021291
 30
0.0
 10
157.6082141540344
 20
139.4120271523984
 30
0.0
 10
157.5417239680113
 20
139.409647806579
 30
0.0
 10
157.4806888601553
 20
139.4166790570471
 30
0.0
 10
157.440460633116
 20
139.4278656093928
 30
0.0
 10
157.4217845441543
 20
139.436015204194
 30
0.0
 10
157.4173642940476
 20
139.437944047399
 30
0.0
  0
ELLIPSE
  5
107
330
1F
100
AcDbEntity
  8
0
  6
PHANTOM
 62
     7
370
     0
100
AcDbEllipse
 10
159.5226847003
 20
124.9100917431
 30
0.0
 11
0.0
 21
15.99999999999997
 31
0.0
210
0.0
220
0.0
230
1.0
 40
0.2679491924
 41
0.3003443963874604
 42
0.426200953273255
  0
ELLIPSE
  5
108
330
1F
100
AcDbEntity
  8
0
  6
PHANTOM
 62
     7
370
     0
100
AcDbEllipse
 10
175.9203119628
 20
124.9100917431
 30
0.0
 11
59.71281292110091
 21
0.0
 31
0.0
210
0.0
220
0.0
230
1.0
 40
0.2679491924
 41
1.863395409650754
 42
1.87114072318236
  0
ARC
  5
109
330
1F
100
AcDbEntity
  8
0
  6
PHANTOM
 62
     7
370
     0
100
AcDbCircle
 10
154.0815710355
 20
124.9100917431
 30
0.0
 40
15.99999999999997
100
AcDbArc
 50
68.006237437
 51
73.235307463
  0
SPLINE
  5
10A
330
1F
100
AcDbEntity
  8
0
  6
PHANTOM
 62
     7
370
     0
100
AcDbSpline
210
0.0
220
0.0
230
1.0
 70
     8
 71
     3
 72
    14
 73
    10
 74
     0
 42
0.00000001
 43
0.00000001
 40
0.0
 40
0.0
 40
0.0
 40
0.0
 40
0.1733146857526489
 40
0.3469647293961657
 40
0.5112215085912185
 40
0.6635049670945787
 40
0.8095318458915816
 40
0.9569840589048664
 40
1.0
 40
1.0
 40
1.0
 40
1.0
 10
160.4065968341782
 20
139.7814064996915
 30
0.0
 10
160.3983688803909
 20
139.7727448281818
 30
0.0
 10
160.3818970520118
 20
139.7554047251292
 30
0.0
 10
160.3301742596826
 20
139.7351637417467
 30
0.0
 10
160.2668002427822
 20
139.7232404562425
 30
0.0
 10
160.2000203863295
 20
139.7208038262784
 30
0.0
 10
160.1377793501764
 20
139.7268721146166
 30
0.0
 10
160.0968286770947
 20
139.736821372662
 30
0.0
 10
160.0779286357957
 20
139.7440525173473
 30
0.0
 10
160.073660189624
 20
139.7456856223421
 30
0.0
  0
ELLIPSE
  5
10B
330
1F
100
AcDbEntity
  8
0
  6
PHANTOM
 62
     7
370
     0
100
AcDbEllipse
 10
161.9882672488
 20
124.9100917431
 30
0.0
 11
0.0
 21
15.99999999999997
 31
0.0
210
0.0
220
0.0
230
1.0
 40
0.2679491924
 41
0.2540899477971154
 42
0.3778576291878171
  0
ELLIPSE
  5
10C
330
1F
100
AcDbEntity
  8
0
  6
PHANTOM
 62
     7
370
     0
100
AcDbEllipse
 10
175.9203119628
 20
124.9100917431
 30
0.0
 11
59.71281292110044
 21
0.0
 31
0.0
210
0.0
220
0.0
230
1.0
 40
0.2679491924
 41
1.817240675942609
 42
1.824886274592006
  0
ARC
  5
10D
330
1F
100
AcDbEntity
  8
0
  6
PHANTOM
 62
     7
370
     0
100
AcDbCircle
 10
157.4496194318
 20
124.9100917431
 30
0.0
 40
15.99999999999997
100
AcDbArc
 50
70.7299419353
 51
75.879778909
  0
SPLINE
  5
10E
330
1F
100
AcDbEntity
  8
0
  6
PHANTOM
 62
     7
370
     0
100
AcDbSpline
210
0.0
220
0.0
230
1.0
 70
     8
 71
     3
 72
    14
 73
    10
 74
     0
 42
0.00000001
 43
0.00000001
 40
0.0
 40
0.0
 40
0.0
 40
0.0
 40
0.1701837977188489
 40
0.3406136374554727
 40
0.5042109971192144
 40
0.6587011287449346
 40
0.8082268015276072
 40
0.9587141441427709
 40
1.0
 40
1.0
 40
1.0
 40
1.0
 10
163.0628927297547
 20
140.0445619376974
 30
0.0
 10
163.0547472876136
 20
140.0371377298165
 30
0.0
 10
163.0384446271162
 20
140.0222785805589
 30
0.0
 10
162.9875512783597
 20
140.0048720390795
 30
0.0
 10
162.9249200333055
 20
139.994411139257
 30
0.0
 10
162.85791295758
 20
139.9920498814627
 30
0.0
 10
162.7946565199437
 20
139.9972456598894
 30
0.0
 10
162.753129956206
 20
140.0059809847655
 30
0.0
 10
162.7340612812022
 20
140.0123063501843
 30
0.0
 10
162.7299560852005
 20
140.0136681052523
 30
0.0
  0
ELLIPSE
  5
10F
330
1F
100
AcDbEntity
  8
0
  6
PHANTOM
 62
     7
370
     0
100
AcDbEllipse
 10
164.4538497972
 20
124.9100917431
 30
0.0
 11
0.0
 21
15.99999999999997
 31
0.0
210
0.0
220
0.0
230
1.0
 40
0.2679491924
 41
0.2083850491232251
 42
0.330425512967683
  0
ELLIPSE
  5
110
330
1F
100
AcDbEntity
  8
0
  6
PHANTOM
 62
     7
370
     0
100
AcDbEllipse
 10
175.9203119628
 20
124.9100917431
 30
0.0
 11
59.71281292110089
 21
0.0
 31
0.0
210
0.0
220
0.0
230
1.0
 40
0.2679491924
 41
1.768760456852116
 42
1.779181375918123
  0
LINE
  5
111
330
1F
100
AcDbEntity
  8
0
  6
PHANTOM
 62
     7
370
     0
100
AcDbLine
 10
164.1763745494
 20
140.9100921604
 30
0.0
 11
164.1763745494
 21
140.5975961837
 31
0.0
  0
ARC
  5
112
330
1F
100
AcDbEntity
  8
0
  6
PHANTOM
 62
     7
370
     0
100
AcDbCircle
 10
156.8705871942
 20
131.2105738497
 30
0.0
 40
5.900435324805885
100
AcDbArc
 50
359.0242265099
 51
88.9898068237
  0
SPLINE
  5
113
330
1F
100
AcDbEntity
  8
0
  6
PHANTOM
 62
     7
370
     0
100
AcDbSpline
210
0.0
220
0.0
230
1.0
 70
     8
 71
     3
 72
    11
 73
     7
 74
     0
 42
0.00000001
 43
0.00000001
 40
0.0
 40
0.0
 40
0.0
 40
0.0
 40
0.2561636577757944
 40
0.507974351126946
 40
0.7557938211979874
 40
1.0
 40
1.0
 40
1.0
 40
1.0
 10
152.4807250745251
 20
134.2870885285215
 30
0.0
 10
152.3341947557653
 20
134.0398848637343
 30
0.0
 10
152.0436240938738
 20
133.5496782422846
 30
0.0
 10
151.752963607458
 20
132.7508615276858
 30
0.0
 10
151.5667498472293
 20
131.9352923229049
 30
0.0
 10
151.544182319503
 20
131.3838085151245
 30
0.0
 10
151.532981420274
 20
131.1100915784614
 30
0.0
  0
ELLIPSE
  5
114
330
1F
100
AcDbEntity
  8
0
  6
PHANTOM
 62
     7
370
     0
100
AcDbEllipse
 10
157.7865105676
 20
131.1100917431
 30
0.0
 11
-6.211657082460533
 21
0.0
 31
-7.993605777301127E-14
210
-1.286871710911436E-14
220
0.0
230
1.0
 40
0.9659258263
 41
3.141592653589793
 42
3.662576655200367
  0
SPLINE
  5
115
330
1F
100
AcDbEntity
  8
0
  6
PHANTOM
 62
     7
370
     0
100
AcDbSpline
210
0.0
220
0.0
230
1.0
 70
     8
 71
     3
 72
    12
 73
     8
 74
     0
 42
0.00000001
 43
0.00000001
 40
0.0
 40
0.0
 40
0.0
 40
0.0
 40
0.2483200877365985
 40
0.3734890917739248
 40
0.4988253131678065
 40
0.7490573532974303
 40
1.0
 40
1.0
 40
1.0
 40
1.0
 10
150.2186841018154
 20
118.0789017828779
 30
0.0
 10
150.2087976608105
 20
117.9941452052702
 30
0.0
 10
150.1939278292738
 20
117.8666659607148
 30
0.0
 10
150.0825061547262
 20
117.7366973923887
 30
0.0
 10
149.9423664620299
 20
117.6442018810898
 30
0.0
 10
149.7370914310604
 20
117.5858432725249
 30
0.0
 10
149.5700514920434
 20
117.5802167351694
 30
0.0
 10
149.4864131010725
 20
117.5773994776087
 30
0.0
  0
SPLINE
  5
116
330
1F
100
AcDbEntity
  8
0
  6
PHANTOM
 62
     7
370
     0
100
AcDbSpline
210
0.0
220
0.0
230
1.0
 70
     8
 71
     3
 72
    12
 73
     8
 74
     0
 42
0.00000001
 43
0.00000001
 40
0.0
 40
0.0
 40
0.0
 40
0.0
 40
0.250949364295606
 40
0.5012365937699392
 40
0.6265840302696731
 40
0.7517597190795992
 40
1.0
 40
1.0
 40
1.0
 40
1.0
 10
149.4864131010725
 20
118.5773996415215
 30
0.0
 10
149.5698661242388
 20
118.5746405001652
 30
0.0
 10
149.7365519781324
 20
118.5691294975012
 30
0.0
 10
149.9414803477644
 20
118.511387867869
 30
0.0
 10
150.0816899511247
 20
118.4197067381916
 30
0.0
 10
150.1936464053801
 20
118.2906771171889
 30
0.0
 10
150.2086860284587
 20
118.1634680820607
 30
0.0
 10
150.2186841018154
 20
118.0789017828779
 30
0.0
  0
SPLINE
  5
117
330
1F
100
AcDbEntity
  8
0
  6
PHANTOM
 62
     7
370
     0
100
AcDbSpline
210
0.0
220
0.0
230
1.0
 70
     8
 71
     3
 72
    12
 73
     8
 74
     0
 42
0.00000001
 43
0.00000001
 40
0.0
 40
0.0
 40
0.0
 40
0.0
 40
0.248318008984752
 40
0.3734876412967252
 40
0.4988141197894407
 40
0.7490789139752586
 40
1.0
 40
1.0
 40
1.0
 40
1.0
 10
148.7571446843102
 20
118.0789017828779
 30
0.0
 10
148.7669385948944
 20
118.1633077353301
 30
0.0
 10
148.7816693209424
 20
118.2902601872349
 30
0.0
 10
148.8929097666997
 20
118.4193632775433
 30
0.0
 10
149.0324187186206
 20
118.5114107924189
 30
0.0
 10
149.2369115151663
 20
118.5690403877192
 30
0.0
 10
149.4031733337109
 20
118.5746107921468
 30
0.0
 10
149.4864131010725
 20
118.5773996415215
 30
0.0
  0
SPLINE
  5
118
330
1F
100
AcDbEntity
  8
0
  6
PHANTOM
 62
     7
370
     0
100
AcDbSpline
210
0.0
220
0.0
230
1.0
 70
     8
 71
     3
 72
    12
 73
     8
 74
     0
 42
0.00000001
 43
0.00000001
 40
0.0
 40
0.0
 40
0.0
 40
0.0
 40
0.2509054221413803
 40
0.5011056265363394
 40
0.6264327576329171
 40
0.7516209568236029
 40
1.0
 40
1.0
 40
1.0
 40
1.0
 10
149.4864131010725
 20
117.5773994776087
 30
0.0
 10
149.402977128763
 20
117.5802917389935
 30
0.0
 10
149.236339696925
 20
117.5860681325084
 30
0.0
 10
149.0315557788782
 20
117.6443159046751
 30
0.0
 10
148.8918243053642
 20
117.7368306304722
 30
0.0
 10
148.7812836546225
 20
117.8670884910255
 30
0.0
 10
148.7667847681708
 20
117.9943125120917
 30
0.0
 10
148.7571446843102
 20
118.0789017828779
 30
0.0
  0
SPLINE
  5
119
330
1F
100
AcDbEntity
  8
0
  6
PHANTOM
 62
     7
370
     0
100
AcDbSpline
210
0.0
220
0.0
230
1.0
 70
     8
 71
     3
 72
     9
 73
     5
 74
     0
 42
0.00000001
 43
0.00000001
 40
0.0
 40
0.0
 40
0.0
 40
0.0
 40
0.5599669275069248
 40
1.0
 40
1.0
 40
1.0
 40
1.0
 10
148.7571446843102
 20
120.406125324093
 30
0.0
 10
148.7610665270071
 20
120.4798630066964
 30
0.0
 10
148.7680702311623
 20
120.6115452168078
 30
0.0
 10
148.8468704593634
 20
120.7161607816499
 30
0.0
 10
148.8815451658919
 20
120.762195090078
 30
0.0
  0
SPLINE
  5
11A
330
1F
100
AcDbEntity
  8
0
  6
PHANTOM
 62
     7
370
     0
100
AcDbSpline
210
0.0
220
0.0
230
1.0
 70
     8
 71
     3
 72
    11
 73
     7
 74
     0
 42
0.00000001
 43
0.00000001
 40
0.0
 40
0.0
 40
0.0
 40
0.0
 40
0.2806892250918691
 40
0.5595492167887245
 40
0.779349847544648
 40
1.0
 40
1.0
 40
1.0
 40
1.0
 10
149.3235508598044
 20
119.8850915546195
 30
0.0
 10
149.2416341223741
 20
119.8900880169686
 30
0.0
 10
149.0783344935549
 20
119.9000483800472
 30
0.0
 10
148.8763339262126
 20
120.0253456741816
 30
0.0
 10
148.7698321899958
 20
120.2133735144771
 30
0.0
 10
148.7613792873984
 20
120.3417921581825
 30
0.0
 10
148.7571446843102
 20
120.406125324093
 30
0.0
  0
SPLINE
  5
11B
330
1F
100
AcDbEntity
  8
0
  6
PHANTOM
 62
     7
370
     0
100
AcDbSpline
210
0.0
220
0.0
230
1.0
 70
     8
 71
     3
 72
     9
 73
     5
 74
     0
 42
0.00000001
 43
0.00000001
 40
0.0
 40
0.0
 40
0.0
 40
0.0
 40
0.5587345737893312
 40
1.0
 40
1.0
 40
1.0
 40
1.0
 10
149.6991532541468
 20
119.9791420961397
 30
0.0
 10
149.6326891313182
 20
119.9465781069714
 30
0.0
 10
149.5137343969121
 20
119.888296427806
 30
0.0
 10
149.3817784548288
 20
119.8860727755015
 30
0.0
 10
149.3235508598044
 20
119.8850915546195
 30
0.0
  0
LINE
  5
11C
330
1F
100
AcDbEntity
  8
0
  6
PHANTOM
 62
     7
370
     0
100
AcDbLine
 10
149.8421820499
 20
119.8598513159
 30
0.0
 11
149.6991532541
 21
119.9791420961
 31
0.0
  0
LINE
  5
11D
330
1F
100
AcDbEntity
  8
0
  6
PHANTOM
 62
     7
370
     0
100
AcDbLine
 10
149.8998737581
 20
119.9229521456
 30
0.0
 11
149.8421820499
 21
119.8598513159
 31
0.0
  0
LINE
  5
11E
330
1F
100
AcDbEntity
  8
0
  6
PHANTOM
 62
     7
370
     0
100
AcDbLine
 10
149.7631556041
 20
120.0359332154
 30
0.0
 11
149.8998737581
 21
119.9229521456
 31
0.0
  0
SPLINE
  5
11F
330
1F
100
AcDbEntity
  8
0
  6
PHANTOM
 62
     7
370
     0
100
AcDbSpline
210
0.0
220
0.0
230
1.0
 70
     8
 71
     3
 72
     9
 73
     5
 74
     0
 42
0.00000001
 43
0.00000001
 40
0.0
 40
0.0
 40
0.0
 40
0.0
 40
0.5598535227152391
 40
0.9999999999999999
 40
0.9999999999999999
 40
0.9999999999999999
 40
0.9999999999999999
 10
149.891760075803
 20
120.3962095326411
 30
0.0
 10
149.8868589184888
 20
120.3216405782675
 30
0.0
 10
149.8781045620093
 20
120.1884468921549
 30
0.0
 10
149.7982870158757
 20
120.0825453889791
 30
0.0
 10
149.7631556041195
 20
120.0359332154171
 30
0.0
  0
SPLINE
  5
120
330
1F
100
AcDbEntity
  8
0
  6
PHANTOM
 62
     7
370
     0
100
AcDbSpline
210
0.0
220
0.0
230
1.0
 70
     8
 71
     3
 72
    11
 73
     7
 74
     0
 42
0.00000001
 43
0.00000001
 40
0.0
 40
0.0
 40
0.0
 40
0.0
 40
0.2806238098330758
 40
0.5594434287725472
 40
0.7793145115813834
 40
0.9999999999999999
 40
0.9999999999999999
 40
0.9999999999999999
 40
0.9999999999999999
 10
149.3241524941876
 20
120.9235532453881
 30
0.0
 10
149.4065895145546
 20
120.9182716816408
 30
0.0
 10
149.5709335499355
 20
120.9077425104567
 30
0.0
 10
149.7737973256003
 20
120.7804230303064
 30
0.0
 10
149.8792683291329
 20
120.5902294598081
 30
0.0
 10
149.8875910318426
 20
120.4609624952895
 30
0.0
 10
149.891760075803
 20
120.3962095326411
 30
0.0
  0
SPLINE
  5
121
330
1F
100
AcDbEntity
  8
0
  6
PHANTOM
 62
     7
370
     0
100
AcDbSpline
210
0.0
220
0.0
230
1.0
 70
     8
 71
     3
 72
     9
 73
     5
 74
     0
 42
0.00000001
 43
0.00000001
 40
0.0
 40
0.0
 40
0.0
 40
0.0
 40
0.5584352151911045
 40
1.0
 40
1.0
 40
1.0
 40
1.0
 10
148.9476504422381
 20
120.8213897200899
 30
0.0
 10
149.0136894252597
 20
120.8564859148027
 30
0.0
 10
149.1319466218425
 20
120.9193333029296
 30
0.0
 10
149.2652780366846
 20
120.9222606375198
 30
0.0
 10
149.3241524941876
 20
120.9235532453881
 30
0.0
  0
LINE
  5
122
330
1F
100
AcDbEntity
  8
0
  6
PHANTOM
 62
     7
370
     0
100
AcDbLine
 10
148.7853898354
 20
120.950897109
 30
0.0
 11
148.9476504422
 21
120.8213897201
 31
0.0
  0
LINE
  5
123
330
1F
100
AcDbEntity
  8
0
  6
PHANTOM
 62
     7
370
     0
100
AcDbLine
 10
148.7430221088
 20
120.8871951106
 30
0.0
 11
148.7853898354
 21
120.950897109
 31
0.0
  0
LINE
  5
124
330
1F
100
AcDbEntity
  8
0
  6
PHANTOM
 62
     7
370
     0
100
AcDbLine
 10
148.8815451659
 20
120.7621950901
 30
0.0
 11
148.7430221088
 21
120.8871951106
 31
0.0
  0
SPLINE
  5
125
330
1F
100
AcDbEntity
  8
0
  6
PHANTOM
 62
     7
370
     0
100
AcDbSpline
210
0.0
220
0.0
230
1.0
 70
     8
 71
     3
 72
    11
 73
     7
 74
     0
 42
0.00000001
 43
0.00000001
 40
0.0
 40
0.0
 40
0.0
 40
0.0
 40
0.2803178189180972
 40
0.5594416375740096
 40
0.7794464517817842
 40
1.0
 40
1.0
 40
1.0
 40
1.0
 10
149.7186830885365
 20
119.2186254786925
 30
0.0
 10
149.7130902246617
 20
119.147272995041
 30
0.0
 10
149.7019283194468
 20
119.0048719502091
 30
0.0
 10
149.5827330673676
 20
118.8366913384832
 30
0.0
 10
149.421014394214
 20
118.7432001163334
 30
0.0
 10
149.3092110371434
 20
118.7352338455163
 30
0.0
 10
149.2532397307112
 20
118.7312457489448
 30
0.0
  0
SPLINE
  5
126
330
1F
100
AcDbEntity
  8
0
  6
PHANTOM
 62
     7
370
     0
100
AcDbSpline
210
0.0
220
0.0
230
1.0
 70
     8
 71
     3
 72
     9
 73
     5
 74
     0
 42
0.00000001
 43
0.00000001
 40
0.0
 40
0.0
 40
0.0
 40
0.0
 40
0.5587821083280149
 40
1.0
 40
1.0
 40
1.0
 40
1.0
 10
149.6216281003906
 20
119.4950676302092
 30
0.0
 10
149.6533831131061
 20
119.448051215955
 30
0.0
 10
149.7102120849758
 20
119.3639103432366
 30
0.0
 10
149.7160897552501
 20
119.2631033345368
 30
0.0
 10
149.7186830885365
 20
119.2186254786925
 30
0.0
  0
LINE
  5
127
330
1F
100
AcDbEntity
  8
0
  6
PHANTOM
 62
     7
370
     0
100
AcDbLine
 10
150.0071453549
 20
119.4367742876
 30
0.0
 11
149.6216281004
 21
119.4950676302
 31
0.0
  0
LINE
  5
128
330
1F
100
AcDbEntity
  8
0
  6
PHANTOM
 62
     7
370
     0
100
AcDbLine
 10
150.0071453549
 20
118.8060654106
 30
0.0
 11
150.0071453549
 21
119.4367742876
 31
0.0
  0
LINE
  5
129
330
1F
100
AcDbEntity
  8
0
  6
PHANTOM
 62
     7
370
     0
100
AcDbLine
 10
150.1802223421
 20
118.8060654106
 30
0.0
 11
150.0071453549
 21
118.8060654106
 31
0.0
  0
LINE
  5
12A
330
1F
100
AcDbEntity
  8
0
  6
PHANTOM
 62
     7
370
     0
100
AcDbLine
 10
150.1802223421
 20
119.5752959477
 30
0.0
 11
150.1802223421
 21
118.8060654106
 31
0.0
  0
LINE
  5
12B
330
1F
100
AcDbEntity
  8
0
  6
PHANTOM
 62
     7
370
     0
100
AcDbLine
 10
149.4182030357
 20
119.6927841532
 30
0.0
 11
150.1802223421
 21
119.5752959477
 31
0.0
  0
LINE
  5
12C
330
1F
100
AcDbEntity
  8
0
  6
PHANTOM
 62
     7
370
     0
100
AcDbLine
 10
149.4182030357
 20
119.5227120782
 30
0.0
 11
149.4182030357
 21
119.6927841532
 31
0.0
  0
SPLINE
  5
12D
330
1F
100
AcDbEntity
  8
0
  6
PHANTOM
 62
     7
370
     0
100
AcDbSpline
210
0.0
220
0.0
230
1.0
 70
     8
 71
     3
 72
     9
 73
     5
 74
     0
 42
0.00000001
 43
0.00000001
 40
0.0
 40
0.0
 40
0.0
 40
0.0
 40
0.5591805744617749
 40
1.0
 40
1.0
 40
1.0
 40
1.0
 10
149.5456061012699
 20
119.2465702782052
 30
0.0
 10
149.5388623308579
 20
119.3064606850169
 30
0.0
 10
149.5268022366413
 20
119.4135645608433
 30
0.0
 10
149.451429015675
 20
119.4893183405423
 30
0.0
 10
149.4182030357077
 20
119.5227120781915
 30
0.0
  0
SPLINE
  5
12E
330
1F
100
AcDbEntity
  8
0
  6
PHANTOM
 62
     7
370
     0
100
AcDbSpline
210
0.0
220
0.0
230
1.0
 70
     8
 71
     3
 72
    11
 73
     7
 74
     0
 42
0.00000001
 43
0.00000001
 40
0.0
 40
0.0
 40
0.0
 40
0.0
 40
0.2800291065487441
 40
0.5588850676194793
 40
0.7791446769747574
 40
1.0
 40
1.0
 40
1.0
 40
1.0
 10
149.2373141146853
 20
118.9235531503932
 30
0.0
 10
149.2848362034003
 20
118.9276544497843
 30
0.0
 10
149.3796812932278
 20
118.9358398667068
 30
0.0
 10
149.4868568624228
 20
119.0235121901885
 30
0.0
 10
149.5391310497473
 20
119.1352516056209
 30
0.0
 10
149.5434458084411
 20
119.2094306617472
 30
0.0
 10
149.5456061012699
 20
119.2465702782052
 30
0.0
  0
SPLINE
  5
12F
330
1F
100
AcDbEntity
  8
0
  6
PHANTOM
 62
     7
370
     0
100
AcDbSpline
210
0.0
220
0.0
230
1.0
 70
     8
 71
     3
 72
    11
 73
     7
 74
     0
 42
0.00000001
 43
0.00000001
 40
0.0
 40
0.0
 40
0.0
 40
0.0
 40
0.2802986972319645
 40
0.5595094149675953
 40
0.7794584958373102
 40
1.0
 40
1.0
 40
1.0
 40
1.0
 10
148.9302216715767
 20
119.2486736702399
 30
0.0
 10
148.9339137024282
 20
119.201378303102
 30
0.0
 10
148.9412834335118
 20
119.1069711458111
 30
0.0
 10
149.0194849244586
 20
118.9951092165986
 30
0.0
 10
149.1260514989133
 20
118.931850417881
 30
0.0
 10
149.2001933378871
 20
118.9263213849194
 30
0.0
 10
149.2373141146853
 20
118.9235531503932
 30
0.0
  0
SPLINE
  5
130
330
1F
100
AcDbEntity
  8
0
  6
PHANTOM
 62
     7
370
     0
100
AcDbSpline
210
0.0
220
0.0
230
1.0
 70
     8
 71
     3
 72
    11
 73
     7
 74
     0
 42
0.00000001
 43
0.00000001
 40
0.0
 40
0.0
 40
0.0
 40
0.0
 40
0.2797259810626583
 40
0.558833762486382
 40
0.7792471794086523
 40
1.0
 40
1.0
 40
1.0
 40
1.0
 10
149.1597889609291
 20
119.5389380457478
 30
0.0
 10
149.1226273323113
 20
119.5293140229928
 30
0.0
 10
149.0483862029684
 20
119.510087246753
 30
0.0
 10
148.9727068396813
 20
119.4297231435804
 30
0.0
 10
148.9350434464289
 20
119.3384189239741
 30
0.0
 10
148.9318297539938
 20
119.2786040939888
 30
0.0
 10
148.9302216715767
 20
119.2486736702399
 30
0.0
  0
LINE
  5
131
330
1F
100
AcDbEntity
  8
0
  6
PHANTOM
 62
     7
370
     0
100
AcDbLine
 10
149.1597889609
 20
119.7312454472
 30
0.0
 11
149.1597889609
 21
119.5389380457
 31
0.0
  0
SPLINE
  5
132
330
1F
100
AcDbEntity
  8
0
  6
PHANTOM
 62
     7
370
     0
100
AcDbSpline
210
0.0
220
0.0
230
1.0
 70
     8
 71
     3
 72
    11
 73
     7
 74
     0
 42
0.00000001
 43
0.00000001
 40
0.0
 40
0.0
 40
0.0
 40
0.0
 40
0.2803354036900901
 40
0.559750929755755
 40
0.7797185144819107
 40
0.9999999999999999
 40
0.9999999999999999
 40
0.9999999999999999
 40
0.9999999999999999
 10
148.7571446843102
 20
119.2438657174485
 30
0.0
 10
148.7620485377952
 20
119.3094674364052
 30
0.0
 10
148.7718401535221
 20
119.4404556123412
 30
0.0
 10
148.8690501735605
 20
119.6011570015554
 30
0.0
 10
149.006978398226
 20
119.7042890566113
 30
0.0
 10
149.108827900216
 20
119.7222557135489
 30
0.0
 10
149.1597889609291
 20
119.7312454471962
 30
0.0
  0
SPLINE
  5
133
330
1F
100
AcDbEntity
  8
0
  6
PHANTOM
 62
     7
370
     0
100
AcDbSpline
210
0.0
220
0.0
230
1.0
 70
     8
 71
     3
 72
    11
 73
     7
 74
     0
 42
0.00000001
 43
0.00000001
 40
0.0
 40
0.0
 40
0.0
 40
0.0
 40
0.2798452065948907
 40
0.5589632586241153
 40
0.779249208406201
 40
0.9999999999999999
 40
0.9999999999999999
 40
0.9999999999999999
 40
0.9999999999999999
 10
149.2532397307112
 20
118.7312457489448
 30
0.0
 10
149.1777804020345
 20
118.7384623841373
 30
0.0
 10
149.0270578194898
 20
118.7528769026943
 30
0.0
 10
148.8575647166985
 20
118.8917406754812
 30
0.0
 10
148.7687898919299
 20
119.0666948277879
 30
0.0
 10
148.7610291467279
 20
119.1847672724166
 30
0.0
 10
148.7571446843102
 20
119.2438657174485
 30
0.0
  0
LINE
  5
134
330
1F
100
AcDbEntity
  8
0
  6
PHANTOM
 62
     7
370
     0
100
AcDbLine
 10
148.3763753123
 20
126.0600917752
 30
0.0
 11
148.3763753123
 21
125.2600917372
 31
0.0
  0
LINE
  5
135
330
1F
100
AcDbEntity
  8
0
  6
PHANTOM
 62
     7
370
     0
100
AcDbLine
 10
148.3763753123
 20
126.0600917752
 30
0.0
 11
150.8763766534
 21
126.0600917752
 31
0.0
  0
LINE
  5
136
330
1F
100
AcDbEntity
  8
0
  6
PHANTOM
 62
     7
370
     0
100
AcDbLine
 10
150.8763766534
 20
126.0600917752
 30
0.0
 11
150.8763766534
 21
126.2600916682
 31
0.0
  0
LINE
  5
137
330
1F
100
AcDbEntity
  8
0
  6
PHANTOM
 62
     7
370
     0
100
AcDbLine
 10
150.8763766534
 20
126.2600916682
 30
0.0
 11
148.3763753123
 21
126.2600916682
 31
0.0
  0
LINE
  5
138
330
1F
100
AcDbEntity
  8
0
  6
PHANTOM
 62
     7
370
     0
100
AcDbLine
 10
148.3763753123
 20
127.0600917062
 30
0.0
 11
148.3763753123
 21
126.2600916682
 31
0.0
  0
LINE
  5
139
330
1F
100
AcDbEntity
  8
0
  6
PHANTOM
 62
     7
370
     0
100
AcDbLine
 10
148.3763753123
 20
127.0600917062
 30
0.0
 11
149.8763764895
 21
127.0600917062
 31
0.0
  0
LINE
  5
13A
330
1F
100
AcDbEntity
  8
0
  6
PHANTOM
 62
     7
370
     0
100
AcDbLine
 10
149.8763764895
 20
127.0600917062
 30
0.0
 11
149.8763764895
 21
127.2600918322
 31
0.0
  0
LINE
  5
13B
330
1F
100
AcDbEntity
  8
0
  6
PHANTOM
 62
     7
370
     0
100
AcDbLine
 10
149.8763764895
 20
127.2600918322
 30
0.0
 11
148.3763753123
 21
127.2600918322
 31
0.0
  0
LINE
  5
13C
330
1F
100
AcDbEntity
  8
0
  6
PHANTOM
 62
     7
370
     0
100
AcDbLine
 10
148.3763753123
 20
134.0964942949
 30
0.0
 11
148.3763753123
 21
127.2600918322
 31
0.0
  0
SPLINE
  5
13D
330
1F
100
AcDbEntity
  8
0
  6
PHANTOM
 62
     7
370
     0
100
AcDbSpline
210
0.0
220
0.0
230
1.0
 70
     8
 71
     3
 72
    10
 73
     6
 74
     0
 42
0.00000001
 43
0.00000001
 40
0.0
 40
0.0
 40
0.0
 40
0.0
 40
0.4453442594960481
 40
0.7195971231723775
 40
1.0
 40
1.0
 40
1.0
 40
1.0
 10
152.2333657987072
 20
134.0966991859155
 30
0.0
 10
152.0239357504139
 20
133.6799390199492
 30
0.0
 10
151.6855340374823
 20
133.0065287085162
 30
0.0
 10
151.4526870818677
 20
131.981189321703
 30
0.0
 10
151.426257834635
 20
131.4025959705285
 30
0.0
 10
151.4128966875031
 20
131.1100915784614
 30
0.0
  0
LINE
  5
13E
330
1F
100
AcDbEntity
  8
0
  6
PHANTOM
 62
     7
370
     0
100
AcDbLine
 10
151.4131313808
 20
131.1100915785
 30
0.0
 11
151.4131313808
 21
123.7100917508
 31
0.0
  0
LINE
  5
13F
330
1F
100
AcDbEntity
  8
0
  6
PHANTOM
 62
     7
370
     0
100
AcDbLine
 10
163.9981678374
 20
123.7100917508
 30
0.0
 11
163.9981678374
 21
131.1100915785
 31
0.0
  0
SPLINE
  5
140
330
1F
100
AcDbEntity
  8
0
  6
PHANTOM
 62
     7
370
     0
100
AcDbSpline
210
0.0
220
0.0
230
1.0
 70
     8
 71
     3
 72
    12
 73
     8
 74
     0
 42
0.00000001
 43
0.00000001
 40
0.0
 40
0.0
 40
0.0
 40
0.0
 40
0.2077557640064545
 40
0.4172509419641761
 40
0.6119608900449669
 40
0.776902229330704
 40
0.9999999999999999
 40
0.9999999999999999
 40
0.9999999999999999
 40
0.9999999999999999
 10
165.4033734149887
 20
134.0964942949491
 30
0.0
 10
165.4352961500497
 20
134.0946825459141
 30
0.0
 10
165.4994088900159
 20
134.09104387916
 30
0.0
 10
165.5879394892926
 20
134.0525731730821
 30
0.0
 10
165.6491821976492
 20
133.98746404287
 30
0.0
 10
165.6848142128815
 20
133.9038133044707
 30
0.0
 10
165.6883937373883
 20
133.844060565407
 30
0.0
 10
165.6904517359688
 20
133.8097065466123
 30
0.0
  0
LINE
  5
141
330
1F
100
AcDbEntity
  8
0
  6
PHANTOM
 62
     7
370
     0
100
AcDbLine
 10
165.690451736
 20
124.5804090297
 30
0.0
 11
165.690451736
 21
133.8097065466
 31
0.0
  0
LINE
  5
142
330
1F
100
AcDbEntity
  8
0
  6
PHANTOM
 62
     7
370
     0
100
AcDbLine
 10
165.690451736
 20
124.5804090297
 30
0.0
 11
165.6904480107
 21
124.5100917306
 31
0.0
  0
LINE
  5
143
330
1F
100
AcDbEntity
  8
0
  6
PHANTOM
 62
     7
370
     0
100
AcDbLine
 10
165.6904480107
 20
124.5100917306
 30
0.0
 11
165.6904480107
 21
115.86015334
 31
0.0
  0
SPLINE
  5
144
330
1F
100
AcDbEntity
  8
0
  6
PHANTOM
 62
     7
370
     0
100
AcDbSpline
210
0.0
220
0.0
230
1.0
 70
     8
 71
     3
 72
    11
 73
     7
 74
     0
 42
0.00000001
 43
0.00000001
 40
0.0
 40
0.0
 40
0.0
 40
0.0
 40
0.1057453204960735
 40
0.5285514878976828
 40
0.8819074817095695
 40
0.9999999999999999
 40
0.9999999999999999
 40
0.9999999999999999
 40
0.9999999999999999
 10
165.6904480106785
 20
115.8601533400493
 30
0.0
 10
165.6821040876889
 20
115.852275454137
 30
0.0
 10
165.6403982903034
 20
115.8128990703795
 30
0.0
 10
165.5607810247502
 20
115.7578917808443
 30
0.0
 10
165.4667025943888
 20
115.726275796647
 30
0.0
 10
165.4155138805334
 20
115.7242067728805
 30
0.0
 10
165.4026916868641
 20
115.723688505836
 30
0.0
  0
LINE
  5
145
330
1F
100
AcDbEntity
  8
0
  6
PHANTOM
 62
     7
370
     0
100
AcDbLine
 10
165.4026916869
 20
115.7236885058
 30
0.0
 11
148.3763753123
 21
115.7236885058
 31
0.0
  0
LINE
  5
146
330
1F
100
AcDbEntity
  8
0
  6
PHANTOM
 62
     7
370
     0
100
AcDbLine
 10
148.3763753123
 20
121.0600916541
 30
0.0
 11
148.3763753123
 21
115.7236885058
 31
0.0
  0
LINE
  5
147
330
1F
100
AcDbEntity
  8
0
  6
PHANTOM
 62
     7
370
     0
100
AcDbLine
 10
148.3763753123
 20
121.0600916541
 30
0.0
 11
150.8763766534
 21
121.0600916541
 31
0.0
  0
LINE
  5
148
330
1F
100
AcDbEntity
  8
0
  6
PHANTOM
 62
     7
370
     0
100
AcDbLine
 10
150.8763766534
 20
121.0600916541
 30
0.0
 11
150.8763766534
 21
121.26009178
 31
0.0
  0
LINE
  5
149
330
1F
100
AcDbEntity
  8
0
  6
PHANTOM
 62
     7
370
     0
100
AcDbLine
 10
150.8763766534
 20
121.26009178
 30
0.0
 11
148.3763753123
 21
121.26009178
 31
0.0
  0
LINE
  5
14A
330
1F
100
AcDbEntity
  8
0
  6
PHANTOM
 62
     7
370
     0
100
AcDbLine
 10
148.3763753123
 20
122.060091818
 30
0.0
 11
148.3763753123
 21
121.26009178
 31
0.0
  0
LINE
  5
14B
330
1F
100
AcDbEntity
  8
0
  6
PHANTOM
 62
     7
370
     0
100
AcDbLine
 10
148.3763753123
 20
122.060091818
 30
0.0
 11
149.8763764895
 21
122.060091818
 31
0.0
  0
LINE
  5
14C
330
1F
100
AcDbEntity
  8
0
  6
PHANTOM
 62
     7
370
     0
100
AcDbLine
 10
149.8763764895
 20
122.060091818
 30
0.0
 11
149.8763764895
 21
122.2600917111
 31
0.0
  0
LINE
  5
14D
330
1F
100
AcDbEntity
  8
0
  6
PHANTOM
 62
     7
370
     0
100
AcDbLine
 10
149.8763764895
 20
122.2600917111
 30
0.0
 11
148.3763753123
 21
122.2600917111
 31
0.0
  0
LINE
  5
14E
330
1F
100
AcDbEntity
  8
0
  6
PHANTOM
 62
     7
370
     0
100
AcDbLine
 10
148.3763753123
 20
123.0600917491
 30
0.0
 11
148.3763753123
 21
122.2600917111
 31
0.0
  0
LINE
  5
14F
330
1F
100
AcDbEntity
  8
0
  6
PHANTOM
 62
     7
370
     0
100
AcDbLine
 10
148.3763753123
 20
123.0600917491
 30
0.0
 11
149.8763764895
 21
123.0600917491
 31
0.0
  0
LINE
  5
150
330
1F
100
AcDbEntity
  8
0
  6
PHANTOM
 62
     7
370
     0
100
AcDbLine
 10
149.8763764895
 20
123.0600917491
 30
0.0
 11
149.8763764895
 21
123.2600917586
 31
0.0
  0
LINE
  5
151
330
1F
100
AcDbEntity
  8
0
  6
PHANTOM
 62
     7
370
     0
100
AcDbLine
 10
149.8763764895
 20
123.2600917586
 30
0.0
 11
148.3763753123
 21
123.2600917586
 31
0.0
  0
LINE
  5
152
330
1F
100
AcDbEntity
  8
0
  6
PHANTOM
 62
     7
370
     0
100
AcDbLine
 10
148.3763753123
 20
124.0600917456
 30
0.0
 11
148.3763753123
 21
123.2600917586
 31
0.0
  0
LINE
  5
153
330
1F
100
AcDbEntity
  8
0
  6
PHANTOM
 62
     7
370
     0
100
AcDbLine
 10
148.3763753123
 20
124.0600917456
 30
0.0
 11
149.8763764895
 21
124.0600917456
 31
0.0
  0
LINE
  5
154
330
1F
100
AcDbEntity
  8
0
  6
PHANTOM
 62
     7
370
     0
100
AcDbLine
 10
149.8763764895
 20
124.0600917456
 30
0.0
 11
149.8763764895
 21
124.2600917406
 31
0.0
  0
LINE
  5
155
330
1F
100
AcDbEntity
  8
0
  6
PHANTOM
 62
     7
370
     0
100
AcDbLine
 10
149.8763764895
 20
124.2600917406
 30
0.0
 11
148.3763753123
 21
124.2600917406
 31
0.0
  0
LINE
  5
156
330
1F
100
AcDbEntity
  8
0
  6
PHANTOM
 62
     7
370
     0
100
AcDbLine
 10
148.3763753123
 20
125.0600917277
 30
0.0
 11
148.3763753123
 21
124.2600917406
 31
0.0
  0
LINE
  5
157
330
1F
100
AcDbEntity
  8
0
  6
PHANTOM
 62
     7
370
     0
100
AcDbLine
 10
148.3763753123
 20
125.0600917277
 30
0.0
 11
149.8763764895
 21
125.0600917277
 31
0.0
  0
LINE
  5
158
330
1F
100
AcDbEntity
  8
0
  6
PHANTOM
 62
     7
370
     0
100
AcDbLine
 10
149.8763764895
 20
125.0600917277
 30
0.0
 11
149.8763764895
 21
125.2600917372
 31
0.0
  0
LINE
  5
159
330
1F
100
AcDbEntity
  8
0
  6
PHANTOM
 62
     7
370
     0
100
AcDbLine
 10
149.8763764895
 20
125.2600917372
 30
0.0
 11
148.3763753123
 21
125.2600917372
 31
0.0
  0
LINE
  5
15A
330
1F
100
AcDbEntity
  8
0
  6
PHANTOM
 62
     7
370
     0
100
AcDbLine
 10
151.5329963214
 20
131.1100915785
 30
0.0
 11
151.5329963214
 21
123.7100917508
 31
0.0
  0
SPLINE
  5
15B
330
1F
100
AcDbEntity
  8
0
  6
PHANTOM
 62
     7
370
     0
100
AcDbSpline
210
0.0
220
0.0
230
1.0
 70
     8
 71
     3
 72
     9
 73
     5
 74
     0
 42
0.00000001
 43
0.00000001
 40
0.0
 40
0.0
 40
0.0
 40
0.0
 40
0.6101560981969861
 40
1.0
 40
1.0
 40
1.0
 40
1.0
 10
169.7763762123539
 20
136.7620875837879
 30
0.0
 10
169.775273359064
 20
136.7875614392272
 30
0.0
 10
169.7734658653861
 20
136.829311174278
 30
0.0
 10
169.7578909028658
 20
136.8662427437722
 30
0.0
 10
169.7518190987064
 20
136.8806402909236
 30
0.0
  0
LINE
  5
15C
330
1F
100
AcDbEntity
  8
0
  6
PHANTOM
 62
     7
370
     0
100
AcDbLine
 10
169.7763762124
 20
127.0100917912
 30
0.0
 11
169.7763762124
 21
136.7620875838
 31
0.0
  0
SPLINE
  5
15D
330
1F
100
AcDbEntity
  8
0
  6
PHANTOM
 62
     7
370
     0
100
AcDbSpline
210
0.0
220
0.0
230
1.0
 70
     8
 71
     3
 72
    11
 73
     7
 74
     0
 42
0.00000001
 43
0.00000001
 40
0.0
 40
0.0
 40
0.0
 40
0.0
 40
0.0138976252030496
 40
0.3411891875127222
 40
0.6704924111631744
 40
1.0
 40
1.0
 40
1.0
 40
1.0
 10
169.3987882382824
 20
137.2272450255828
 30
0.0
 10
169.4007253980908
 20
137.226342695956
 30
0.0
 10
169.4482830182916
 20
137.2041903420285
 30
0.0
 10
169.5417100422337
 20
137.1447808803222
 30
0.0
 10
169.6665266643742
 20
137.0243787533394
 30
0.0
 10
169.7233824083189
 20
136.9285630191762
 30
0.0
 10
169.7518190987064
 20
136.8806402909236
 30
0.0
  0
SPLINE
  5
15E
330
1F
100
AcDbEntity
  8
0
  6
PHANTOM
 62
     7
370
     0
100
AcDbSpline
210
0.0
220
0.0
230
1.0
 70
     8
 71
     3
 72
    10
 73
     6
 74
     0
 42
0.00000001
 43
0.00000001
 40
0.0
 40
0.0
 40
0.0
 40
0.0
 40
0.3483919160619005
 40
0.7216197158164256
 40
1.0
 40
1.0
 40
1.0
 40
1.0
 10
163.6313906557514
 20
109.8073240148501
 30
0.0
 10
163.5949388113949
 20
109.7697603479571
 30
0.0
 10
163.5194365728156
 20
109.6919552055911
 30
0.0
 10
163.3764675652811
 20
109.6370299856872
 30
0.0
 10
163.2807353333867
 20
109.6369757081398
 30
0.0
 10
163.239836568351
 20
109.6369525196629
 30
0.0
  0
SPLINE
  5
15F
330
1F
100
AcDbEntity
  8
0
  6
PHANTOM
 62
     7
370
     0
100
AcDbSpline
210
0.0
220
0.0
230
1.0
 70
     8
 71
     3
 72
    10
 73
     6
 74
     0
 42
0.00000001
 43
0.00000001
 40
0.0
 40
0.0
 40
0.0
 40
0.0
 40
0.3407313582791746
 40
0.6831347491005219
 40
1.0
 40
1.0
 40
1.0
 40
1.0
 10
165.6904480106785
 20
115.8601533400493
 30
0.0
 10
165.7323880384494
 20
115.8678888271192
 30
0.0
 10
165.8164739015564
 20
115.8833977607418
 30
0.0
 10
165.8899883104489
 20
115.9229144471742
 30
0.0
 10
165.8968754188127
 20
115.9545500431742
 30
0.0
 10
165.9001855797722
 20
115.9697551059203
 30
0.0
  0
ARC
  5
160
330
1F
100
AcDbEntity
  8
0
  6
PHANTOM
 62
     7
370
     0
100
AcDbCircle
 10
157.4496194318
 20
124.9100917431
 30
0.0
 40
15.99999999999998
100
AcDbArc
 50
284.120221091
 51
289.2700580647
  0
ELLIPSE
  5
161
330
1F
100
AcDbEntity
  8
0
  6
PHANTOM
 62
     7
370
     0
100
AcDbEllipse
 10
175.9203119628
 20
124.9100917431
 30
0.0
 11
59.71281292110044
 21
0.0
 31
0.0
210
0.0
220
0.0
230
1.0
 40
0.2679491924
 41
4.458299032587588
 42
4.465944631236984
  0
ELLIPSE
  5
162
330
1F
100
AcDbEntity
  8
0
  6
PHANTOM
 62
     7
370
     0
100
AcDbEllipse
 10
161.9882672488
 20
124.9100917431
 30
0.0
 11
0.0
 21
15.99999999999997
 31
0.0
210
0.0
220
0.0
230
1.0
 40
0.2679491924
 41
2.763735024401976
 42
2.887502705792678
  0
SPLINE
  5
163
330
1F
100
AcDbEntity
  8
0
  6
PHANTOM
 62
     7
370
     0
100
AcDbSpline
210
0.0
220
0.0
230
1.0
 70
     8
 71
     3
 72
    14
 73
    10
 74
     0
 42
0.00000001
 43
0.00000001
 40
0.0
 40
0.0
 40
0.0
 40
0.0
 40
0.1552771852043313
 40
0.3108513858789776
 40
0.4597839824163937
 40
0.6053986886481938
 40
0.7550321710084991
 40
0.9140762655125414
 40
0.9999999999999999
 40
0.9999999999999999
 40
0.9999999999999999
 40
0.9999999999999999
 10
160.073660189624
 20
110.0744981097655
 30
0.0
 10
160.0902180822303
 20
110.0800670101017
 30
0.0
 10
160.1233655395152
 20
110.0912154630121
 30
0.0
 10
160.1874949857315
 20
110.098840829328
 30
0.0
 10
160.2523661078582
 20
110.098077930826
 30
0.0
 10
160.3121981579255
 20
110.0892081506493
 30
0.0
 10
160.3622050126443
 20
110.0733852776677
 30
0.0
 10
160.3930441603718
 20
110.0554157542812
 30
0.0
 10
160.4030775654078
 20
110.0430978138174
 30
0.0
 10
160.4065968341782
 20
110.0387772324162
 30
0.0
  0
ARC
  5
164
330
1F
100
AcDbEntity
  8
0
  6
PHANTOM
 62
     7
370
     0
100
AcDbCircle
 10
154.0815710355
 20
124.9100917431
 30
0.0
 40
15.99999999999998
100
AcDbArc
 50
286.764692537
 51
291.993762563
  0
ELLIPSE
  5
165
330
1F
100
AcDbEntity
  8
0
  6
PHANTOM
 62
     7
370
     0
100
AcDbEllipse
 10
175.9203119628
 20
124.9100917431
 30
0.0
 11
59.71281292110091
 21
0.0
 31
0.0
210
0.0
220
0.0
230
1.0
 40
0.2679491924
 41
4.412044583997235
 42
4.41978989752884
  0
ELLIPSE
  5
166
330
1F
100
AcDbEntity
  8
0
  6
PHANTOM
 62
     7
370
     0
100
AcDbEllipse
 10
159.5226847003
 20
124.9100917431
 30
0.0
 11
0.0
 21
15.99999999999997
 31
0.0
210
0.0
220
0.0
230
1.0
 40
0.2679491924
 41
2.715391700316539
 42
2.841248257202333
  0
SPLINE
  5
167
330
1F
100
AcDbEntity
  8
0
  6
PHANTOM
 62
     7
370
     0
100
AcDbSpline
210
0.0
220
0.0
230
1.0
 70
     8
 71
     3
 72
    14
 73
    10
 74
     0
 42
0.00000001
 43
0.00000001
 40
0.0
 40
0.0
 40
0.0
 40
0.0
 40
0.153868757008898
 40
0.3081354664278256
 40
0.4540031062141484
 40
0.5955662119558593
 40
0.7418738865879377
 40
0.899657939873211
 40
0.9999999999999999
 40
0.9999999999999999
 40
0.9999999999999999
 40
0.9999999999999999
 10
157.4173642940476
 20
110.3822396847086
 30
0.0
 10
157.4337141265569
 20
110.3885399397916
 30
0.0
 10
157.4664560773219
 20
110.4011567443747
 30
0.0
 10
157.5300483192653
 20
110.4099478642909
 30
0.0
 10
157.5942164013782
 20
110.4092762039716
 30
0.0
 10
157.6531848823859
 20
110.3996553081603
 30
0.0
 10
157.7029116589899
 20
110.3823420533974
 30
0.0
 10
157.7354476239985
 20
110.3617628967393
 30
0.0
 10
157.7461405308116
 20
110.3471035013875
 30
0.0
 10
157.7502972133114
 20
110.341404915102
 30
0.0
  0
ARC
  5
168
330
1F
100
AcDbEntity
  8
0
  6
PHANTOM
 62
     7
370
     0
100
AcDbCircle
 10
150.7135226391
 20
124.9100917431
 30
0.0
 40
15.99999999999993
100
AcDbArc
 50
289.4464886865
 51
294.7708495993
  0
ELLIPSE
  5
169
330
1F
100
AcDbEntity
  8
0
  6
PHANTOM
 62
     7
370
     0
100
AcDbEllipse
 10
175.9203119628
 20
124.9100917431
 30
0.0
 11
59.71281292110089
 21
0.0
 31
0.0
210
0.0
220
0.0
230
1.0
 40
0.2679491924
 41
4.365117192031247
 42
4.372983724853798
  0
ELLIPSE
  5
16A
330
1F
100
AcDbEntity
  8
0
  6
PHANTOM
 62
     7
370
     0
100
AcDbEllipse
 10
157.0571021519
 20
124.9100917431
 30
0.0
 11
0.0
 21
15.99999999999997
 31
0.0
210
0.0
220
0.0
230
1.0
 40
0.2679491924
 41
2.665962078041014
 42
2.794320865236346
  0
SPLINE
  5
16B
330
1F
100
AcDbEntity
  8
0
  6
PHANTOM
 62
     7
370
     0
100
AcDbSpline
210
0.0
220
0.0
230
1.0
 70
     8
 71
     3
 72
    14
 73
    10
 74
     0
 42
0.00000001
 43
0.00000001
 40
0.0
 40
0.0
 40
0.0
 40
0.0
 40
0.152355866561923
 40
0.3052012811749388
 40
0.4476656834663923
 40
0.584629568845909
 40
0.7270312508403399
 40
0.8830548147762782
 40
1.0
 40
1.0
 40
1.0
 40
1.0
 10
154.7610683984711
 20
110.732329428442
 30
0.0
 10
154.7771896222684
 20
110.7393929660259
 30
0.0
 10
154.8094838703867
 20
110.7535427376685
 30
0.0
 10
154.872497178688
 20
110.7636121057093
 30
0.0
 10
154.9358949062816
 20
110.7630899016065
 30
0.0
 10
154.9938626925885
 20
110.7528085165259
 30
0.0
 10
155.0431949845375
 20
110.7341437502957
 30
0.0
 10
155.0776555616623
 20
110.7107857326612
 30
0.0
 10
155.0890988064293
 20
110.6934513794694
 30
0.0
 10
155.0940013177349
 20
110.6860250013547
 30
0.0
  0
ARC
  5
16C
330
1F
100
AcDbEntity
  8
0
  6
PHANTOM
 62
     7
370
     0
100
AcDbCircle
 10
147.3454742428
 20
124.9100917431
 30
0.0
 40
15.99999999999993
100
AcDbArc
 50
292.1733972016
 51
297.6115519177
  0
ELLIPSE
  5
16D
330
1F
100
AcDbEntity
  8
0
  6
PHANTOM
 62
     7
370
     0
100
AcDbEllipse
 10
175.9203119628
 20
124.9100917431
 30
0.0
 11
59.71281292110089
 21
0.0
 31
0.0
210
0.0
220
0.0
230
1.0
 40
0.2679491924
 41
4.317378079441141
 42
4.325390192864786
  0
ELLIPSE
  5
16E
330
1F
100
AcDbEntity
  8
0
  6
PHANTOM
 62
     7
370
     0
100
AcDbEllipse
 10
154.5915196034
 20
124.9100917431
 30
0.0
 11
0.0
 21
15.99999999999997
 31
0.0
210
0.0
220
0.0
230
1.0
 40
0.2679491924
 41
2.615239286973542
 42
2.746581752646236
  0
SPLINE
  5
16F
330
1F
100
AcDbEntity
  8
0
  6
PHANTOM
 62
     7
370
     0
100
AcDbSpline
210
0.0
220
0.0
230
1.0
 70
     8
 71
     3
 72
    14
 73
    10
 74
     0
 42
0.00000001
 43
0.00000001
 40
0.0
 40
0.0
 40
0.0
 40
0.0
 40
0.1507697961109369
 40
0.3021397887531201
 40
0.4408204333489821
 40
0.5726157871006158
 40
0.710478767957659
 40
0.8641160392175881
 40
1.0
 40
1.0
 40
1.0
 40
1.0
 10
152.1047725028946
 20
111.1279934423642
 30
0.0
 10
152.1206460845255
 20
111.1358630211281
 30
0.0
 10
152.1524564386177
 20
111.1516335065081
 30
0.0
 10
152.214864931342
 20
111.1631139712825
 30
0.0
 10
152.2774329130542
 20
111.1627997288589
 30
0.0
 10
152.3342471158248
 20
111.1519568915666
 30
0.0
 10
152.3830440639285
 20
111.1320964217327
 30
0.0
 10
152.4196678626219
 20
111.1057610322809
 30
0.0
 10
152.4319438210449
 20
111.0853526570637
 30
0.0
 10
152.4377054221584
 20
111.0757741856055
 30
0.0
  0
ARC
  5
170
330
1F
100
AcDbEntity
  8
0
  6
PHANTOM
 62
     7
370
     0
100
AcDbCircle
 10
143.9774258465
 20
124.9100917431
 30
0.0
 40
15.9999999999999
100
AcDbArc
 50
294.9543088189
 51
300.5279900743
  0
ELLIPSE
  5
171
330
1F
100
AcDbEntity
  8
0
  6
PHANTOM
 62
     7
370
     0
100
AcDbEllipse
 10
175.9203119628
 20
124.9100917431
 30
0.0
 11
59.71281292110091
 21
0.0
 31
0.0
210
0.0
220
0.0
230
1.0
 40
0.2679491924
 41
4.268668330044022
 42
4.27685412893566
  0
ELLIPSE
  5
172
330
1F
100
AcDbEntity
  8
0
  6
PHANTOM
 62
     7
370
     0
100
AcDbEllipse
 10
152.1259370549
 20
124.9100917431
 30
0.0
 11
0.0
 21
15.99999999999997
 31
0.0
210
0.0
220
0.0
230
1.0
 40
0.2679491924
 41
2.562973761611304
 42
2.697872003249109
  0
SPLINE
  5
173
330
1F
100
AcDbEntity
  8
0
  6
PHANTOM
 62
     7
370
     0
100
AcDbSpline
210
0.0
220
0.0
230
1.0
 70
     8
 71
     3
 72
    14
 73
    10
 74
     0
 42
0.00000001
 43
0.00000001
 40
0.0
 40
0.0
 40
0.0
 40
0.0
 40
0.1491566605092764
 40
0.2990408866976749
 40
0.4335827487096917
 40
0.5595823368795964
 40
0.692192617039296
 40
0.8426956525605105
 40
1.0
 40
1.0
 40
1.0
 40
1.0
 10
149.4484766073181
 20
111.5732885676103
 30
0.0
 10
149.4640861020194
 20
111.5820199206643
 30
0.0
 10
149.4953812323904
 20
111.599525217112
 30
0.0
 10
149.5571822912191
 20
111.6125872827813
 30
0.0
 10
149.6188769546804
 20
111.6125388330813
 30
0.0
 10
149.674366382495
 20
111.6012271319332
 30
0.0
 10
149.7224421021651
 20
111.5803447825369
 30
0.0
 10
149.761474676372
 20
111.5507909216785
 30
0.0
 10
149.7746686403331
 20
111.5268347274782
 30
0.0
 10
149.7814113892271
 20
111.5145919623451
 30
0.0
  0
ARC
  5
174
330
1F
100
AcDbEntity
  8
0
  6
PHANTOM
 62
     7
370
     0
100
AcDbCircle
 10
140.6093774502
 20
124.9100917431
 30
0.0
 40
16.00000000000029
100
AcDbArc
 50
297.7995637547
 51
303.5348263544
  0
ELLIPSE
  5
175
330
1F
100
AcDbEntity
  8
0
  6
PHANTOM
 62
     7
370
     0
100
AcDbEllipse
 10
175.9203119628
 20
124.9100917431
 30
0.0
 11
59.71281292115136
 21
0.0
 31
0.0
210
0.0
220
0.0
230
1.0
 40
0.2679491924
 41
4.218802530676172
 42
4.227195062246281
  0
ELLIPSE
  5
176
330
1F
100
AcDbEntity
  8
0
  6
PHANTOM
 62
     7
370
     0
100
AcDbEllipse
 10
149.6603545065
 20
124.9100917431
 30
0.0
 11
0.0
 21
15.99999999999997
 31
0.0
210
0.0
220
0.0
230
1.0
 40
0.2679491924
 41
2.579751521743333
 42
2.648006203881258
  0
LINE
  5
177
330
1F
100
AcDbEntity
  8
0
  6
PHANTOM
 62
     7
370
     0
100
AcDbLine
 10
147.3763770111
 20
114.441567451
 30
0.0
 11
147.3763770111
 21
111.3696809637
 31
0.0
  0
ARC
  5
178
330
1F
100
AcDbEntity
  8
0
  6
PHANTOM
 62
     7
370
     0
100
AcDbCircle
 10
135.2763761468
 20
124.9100917431
 30
0.0
 40
15.99999999999994
100
AcDbArc
 50
319.1347121974
 51
324.9598590126
  0
ELLIPSE
  5
179
330
1F
100
AcDbEntity
  8
0
  6
PHANTOM
 62
     7
370
     0
100
AcDbEllipse
 10
181.0332338056
 20
124.9100917431
 30
0.0
 11
59.71281292110254
 21
0.0
 31
0.0
210
0.0
220
0.0
230
1.0
 40
0.2679491924
 41
4.408609781416903
 42
4.409810100032793
  0
ELLIPSE
  5
17A
330
1F
100
AcDbEntity
  8
0
  6
PHANTOM
 62
     7
370
     0
100
AcDbEllipse
 10
164.4538497972
 20
124.9100917431
 30
0.0
 11
0.0
 21
15.99999999999997
 31
0.0
210
0.0
220
0.0
230
1.0
 40
0.2679491924
 41
2.81116714062211
 42
2.837813454622001
  0
SPLINE
  5
17B
330
1F
100
AcDbEntity
  8
0
  6
PHANTOM
 62
     7
370
     0
100
AcDbSpline
210
0.0
220
0.0
230
1.0
 70
     8
 71
     3
 72
    14
 73
    10
 74
     0
 42
0.00000001
 43
0.00000001
 40
0.0
 40
0.0
 40
0.0
 40
0.0
 40
0.1565491001172545
 40
0.3133342309386118
 40
0.4649702861168004
 40
0.6141194194243497
 40
0.7665528705683319
 40
0.9264654378335795
 40
1.0
 40
1.0
 40
1.0
 40
1.0
 10
162.7299560852005
 20
109.8065146955328
 30
0.0
 10
162.7466980762463
 20
109.8113777850316
 30
0.0
 10
162.7802073004117
 20
109.8211112961596
 30
0.0
 10
162.8448276731364
 20
109.8276596904654
 30
0.0
 10
162.9103294682796
 20
109.8268582847081
 30
0.0
 10
162.9708976344756
 20
109.8188253026887
 30
0.0
 10
163.0210945668875
 20
109.8046153340134
 30
0.0
 10
163.0504578867333
 20
109.7891111774153
 30
0.0
 10
163.0599140806619
 20
109.778853048587
 30
0.0
 10
163.0628927297547
 20
109.7756217944102
 30
0.0
  0
LINE
  5
17C
330
1F
100
AcDbEntity
  8
0
  6
PHANTOM
 62
     7
370
     0
100
AcDbLine
 10
162.7701668687
 20
123.7100917508
 30
0.0
 11
162.7701668687
 21
131.1100915785
 31
0.0
  0
SPLINE
  5
17D
330
1F
100
AcDbEntity
  8
0
  6
PHANTOM
 62
     7
370
     0
100
AcDbSpline
210
0.0
220
0.0
230
1.0
 70
     8
 71
     3
 72
    12
 73
     8
 74
     0
 42
0.00000001
 43
0.00000001
 40
0.0
 40
0.0
 40
0.0
 40
0.0
 40
0.1251062052137264
 40
0.2499670797673389
 40
0.3748993306658003
 40
0.5001461564348256
 40
1.0
 40
1.0
 40
1.0
 40
1.0
 10
148.9302216715767
 20
118.0773995595651
 30
0.0
 10
148.9321574660756
 20
118.0474125754464
 30
0.0
 10
148.9360252590206
 20
117.9874974110596
 30
0.0
 10
148.9781405604434
 20
117.9052671067693
 30
0.0
 10
149.0478846118837
 20
117.8464882928783
 30
0.0
 10
149.2140697977348
 20
117.7758082231314
 30
0.0
 10
149.365402122067
 20
117.772418163235
 30
0.0
 10
149.4864131010725
 20
117.7697073447185
 30
0.0
  0
SPLINE
  5
17E
330
1F
100
AcDbEntity
  8
0
  6
PHANTOM
 62
     7
370
     0
100
AcDbSpline
210
0.0
220
0.0
230
1.0
 70
     8
 71
     3
 72
    12
 73
     8
 74
     0
 42
0.00000001
 43
0.00000001
 40
0.0
 40
0.0
 40
0.0
 40
0.0
 40
0.4999020813092953
 40
0.6251626164652765
 40
0.750085079837502
 40
0.8748830259643157
 40
1.0
 40
1.0
 40
1.0
 40
1.0
 10
149.4864131010725
 20
118.3850917744117
 30
0.0
 10
149.3655028491686
 20
118.3823503933414
 30
0.0
 10
149.2142960983591
 20
118.378922104029
 30
0.0
 10
149.0483845923035
 20
118.3078596652729
 30
0.0
 10
148.9790286264143
 20
118.2489423082495
 30
0.0
 10
148.9362261485495
 20
118.1672384259957
 30
0.0
 10
148.9322248665079
 20
118.1073713227471
 30
0.0
 10
148.9302216715767
 20
118.0773995595651
 30
0.0
  0
SPLINE
  5
17F
330
1F
100
AcDbEntity
  8
0
  6
PHANTOM
 62
     7
370
     0
100
AcDbSpline
210
0.0
220
0.0
230
1.0
 70
     8
 71
     3
 72
    12
 73
     8
 74
     0
 42
0.00000001
 43
0.00000001
 40
0.0
 40
0.0
 40
0.0
 40
0.0
 40
0.1250775351742158
 40
0.2498570136193032
 40
0.3747918717170978
 40
0.5000565802173409
 40
1.0
 40
1.0
 40
1.0
 40
1.0
 10
150.0456071145489
 20
118.0773995595651
 30
0.0
 10
150.0435338005203
 20
118.1074596677477
 30
0.0
 10
150.03939211312
 20
118.1675082516051
 30
0.0
 10
149.9962336312549
 20
118.2494664932449
 30
0.0
 10
149.9260409616445
 20
118.3078856394546
 30
0.0
 10
149.759582948113
 20
118.3790807751607
 30
0.0
 10
149.6077918324494
 20
118.3824208812978
 30
0.0
 10
149.4864131010725
 20
118.3850917744117
 30
0.0
  0
SPLINE
  5
180
330
1F
100
AcDbEntity
  8
0
  6
PHANTOM
 62
     7
370
     0
100
AcDbSpline
210
0.0
220
0.0
230
1.0
 70
     8
 71
     3
 72
    12
 73
     8
 74
     0
 42
0.00000001
 43
0.00000001
 40
0.0
 40
0.0
 40
0.0
 40
0.0
 40
0.4999038346596901
 40
0.6251675403987929
 40
0.7500873465667115
 40
0.8748735319999462
 40
1.0
 40
1.0
 40
1.0
 40
1.0
 10
149.4864131010725
 20
117.7697073447185
 30
0.0
 10
149.6078349781761
 20
117.7724067130834
 30
0.0
 10
149.7596822155775
 20
117.775782477309
 30
0.0
 10
149.9265673567607
 20
117.8463563084883
 30
0.0
 10
149.9968183691644
 20
117.9049333868058
 30
0.0
 10
150.0396142051126
 20
117.9871862710146
 30
0.0
 10
150.0436076655636
 20
118.0473011791085
 30
0.0
 10
150.0456071145489
 20
118.0773995595651
 30
0.0
  0
SPLINE
  5
181
330
1F
100
AcDbEntity
  8
0
  6
PHANTOM
 62
     7
370
     0
100
AcDbSpline
210
0.0
220
0.0
230
1.0
 70
     8
 71
     3
 72
    11
 73
     7
 74
     0
 42
0.00000001
 43
0.00000001
 40
0.0
 40
0.0
 40
0.0
 40
0.0
 40
0.1875660181909508
 40
0.3744445539165645
 40
0.5612328406783753
 40
0.9999999999999999
 40
0.9999999999999999
 40
0.9999999999999999
 40
0.9999999999999999
 10
149.7379148997023
 20
120.4034209961669
 30
0.0
 10
149.7357146078639
 20
120.4418870699951
 30
0.0
 10
149.7313220888785
 20
120.5186782286199
 30
0.0
 10
149.6819889714045
 20
120.6261911541491
 30
0.0
 10
149.549586264699
 20
120.7363808371679
 30
0.0
 10
149.4174412115964
 20
120.744665418645
 30
0.0
 10
149.3247541285708
 20
120.7504762581216
 30
0.0
  0
SPLINE
  5
182
330
1F
100
AcDbEntity
  8
0
  6
PHANTOM
 62
     7
370
     0
100
AcDbSpline
210
0.0
220
0.0
230
1.0
 70
     8
 71
     3
 72
     9
 73
     5
 74
     0
 42
0.00000001
 43
0.00000001
 40
0.0
 40
0.0
 40
0.0
 40
0.0
 40
0.5583881615010912
 40
1.0
 40
1.0
 40
1.0
 40
1.0
 10
149.6369539446785
 20
120.151317563154
 30
0.0
 10
149.6701389337111
 20
120.1928844810699
 30
0.0
 10
149.7295688989585
 20
120.2673253821881
 30
0.0
 10
149.7353582525979
 20
120.3617305544712
 30
0.0
 10
149.7379148997023
 20
120.4034209961669
 30
0.0
  0
LINE
  5
183
330
1F
100
AcDbEntity
  8
0
  6
PHANTOM
 62
     7
370
     0
100
AcDbLine
 10
149.0792612232
 20
120.7054042036
 30
0.0
 11
149.6369539447
 21
120.1513175632
 31
0.0
  0
SPLINE
  5
184
330
1F
100
AcDbEntity
  8
0
  6
PHANTOM
 62
     7
370
     0
100
AcDbSpline
210
0.0
220
0.0
230
1.0
 70
     8
 71
     3
 72
     9
 73
     5
 74
     0
 42
0.00000001
 43
0.00000001
 40
0.0
 40
0.0
 40
0.0
 40
0.0
 40
0.5606634570490118
 40
1.0
 40
1.0
 40
1.0
 40
1.0
 10
149.3247541285708
 20
120.7504762581216
 30
0.0
 10
149.2772343150359
 20
120.7502818109913
 30
0.0
 10
149.1924779198448
 20
120.7499349948614
 30
0.0
 10
149.1138189729801
 20
120.7189965799032
 30
0.0
 10
149.0792612231924
 20
120.7054042036312
 30
0.0
  0
SPLINE
  5
185
330
1F
100
AcDbEntity
  8
0
  6
PHANTOM
 62
     7
370
     0
100
AcDbSpline
210
0.0
220
0.0
230
1.0
 70
     8
 71
     3
 72
    11
 73
     7
 74
     0
 42
0.00000001
 43
0.00000001
 40
0.0
 40
0.0
 40
0.0
 40
0.0
 40
0.2799800276312944
 40
0.5580471278741604
 40
0.7787064354608563
 40
1.0
 40
1.0
 40
1.0
 40
1.0
 10
148.910991723056
 20
120.4055243882017
 30
0.0
 10
148.9156077825738
 20
120.3483201940465
 30
0.0
 10
148.9248083629786
 20
120.2343026460065
 30
0.0
 10
149.0399678709665
 20
120.111390680359
 30
0.0
 10
149.1790393191516
 20
120.0641865954508
 30
0.0
 10
149.2677259110062
 20
120.0601764780789
 30
0.0
 10
149.3121328450396
 20
120.0581685418861
 30
0.0
  0
SPLINE
  5
186
330
1F
100
AcDbEntity
  8
0
  6
PHANTOM
 62
     7
370
     0
100
AcDbSpline
210
0.0
220
0.0
230
1.0
 70
     8
 71
     3
 72
     9
 73
     5
 74
     0
 42
0.00000001
 43
0.00000001
 40
0.0
 40
0.0
 40
0.0
 40
0.0
 40
0.558214159815405
 40
1.0
 40
1.0
 40
1.0
 40
1.0
 10
149.0080467112019
 20
120.6585293414669
 30
0.0
 10
148.975424032947
 20
120.6166292698
 30
0.0
 10
148.9169828814979
 20
120.5415683439346
 30
0.0
 10
148.9128275081582
 20
120.4472103942717
 30
0.0
 10
148.910991723056
 20
120.4055243882017
 30
0.0
  0
LINE
  5
187
330
1F
100
AcDbEntity
  8
0
  6
PHANTOM
 62
     7
370
     0
100
AcDbLine
 10
149.5675424732
 20
120.1011374372
 30
0.0
 11
149.0080467112
 21
120.6585293415
 31
0.0
  0
SPLINE
  5
188
330
1F
100
AcDbEntity
  8
0
  6
PHANTOM
 62
     7
370
     0
100
AcDbSpline
210
0.0
220
0.0
230
1.0
 70
     8
 71
     3
 72
     9
 73
     5
 74
     0
 42
0.00000001
 43
0.00000001
 40
0.0
 40
0.0
 40
0.0
 40
0.0
 40
0.5604735791767568
 40
1.0
 40
1.0
 40
1.0
 40
1.0
 10
149.3121328450396
 20
120.0581685418861
 30
0.0
 10
149.3611457197121
 20
120.0590449613868
 30
0.0
 10
149.4485947565507
 20
120.0606086738138
 30
0.0
 10
149.5312245123656
 20
120.0887629075759
 30
0.0
 10
149.5675424731924
 20
120.1011374371724
 30
0.0
  0
LINE
  5
189
330
1F
100
AcDbEntity
  8
0
  6
PHANTOM
 62
     7
370
     0
100
AcDbLine
 10
147.3763770111
 20
135.3786162811
 30
0.0
 11
147.3763770111
 21
131.5765500779
 31
0.0
  0
LINE
  5
18A
330
1F
100
AcDbEntity
  8
0
  6
PHANTOM
 62
     7
370
     0
100
AcDbLine
 10
148.3763753123
 20
127.2600918322
 30
0.0
 11
148.3763753123
 21
127.0600917062
 31
0.0
  0
LINE
  5
18B
330
1F
100
AcDbEntity
  8
0
  6
PHANTOM
 62
     7
370
     0
100
AcDbLine
 10
148.3763753123
 20
126.2600916682
 30
0.0
 11
148.3763753123
 21
126.0600917752
 31
0.0
  0
LINE
  5
18C
330
1F
100
AcDbEntity
  8
0
  6
PHANTOM
 62
     7
370
     0
100
AcDbLine
 10
148.3763753123
 20
125.2600917372
 30
0.0
 11
148.3763753123
 21
125.0600917277
 31
0.0
  0
LINE
  5
18D
330
1F
100
AcDbEntity
  8
0
  6
PHANTOM
 62
     7
370
     0
100
AcDbLine
 10
148.3763753123
 20
124.2600917406
 30
0.0
 11
148.3763753123
 21
124.0600917456
 31
0.0
  0
LINE
  5
18E
330
1F
100
AcDbEntity
  8
0
  6
PHANTOM
 62
     7
370
     0
100
AcDbLine
 10
148.3763753123
 20
123.2600917586
 30
0.0
 11
148.3763753123
 21
123.0600917491
 31
0.0
  0
LINE
  5
18F
330
1F
100
AcDbEntity
  8
0
  6
PHANTOM
 62
     7
370
     0
100
AcDbLine
 10
148.3763753123
 20
121.26009178
 30
0.0
 11
148.3763753123
 21
121.0600916541
 31
0.0
  0
LINE
  5
190
330
1F
100
AcDbEntity
  8
0
  6
PHANTOM
 62
     7
370
     0
100
AcDbLine
 10
147.3763770111
 20
118.2436331886
 30
0.0
 11
147.3763770111
 21
114.441567451
 31
0.0
  0
ARC
  5
191
330
1F
100
AcDbEntity
  8
0
  6
PHANTOM
 62
     7
370
     0
100
AcDbCircle
 10
135.6763761468
 20
120.9100917431
 30
0.0
 40
11.99999999999987
100
AcDbArc
 50
347.161431859
 51
0.0
  0
LINE
  5
192
330
1F
100
AcDbEntity
  8
0
  6
PHANTOM
 62
     7
370
     0
100
AcDbLine
 10
147.6763765014
 20
120.9100916761
 30
0.0
 11
147.6763765014
 21
128.9100915904
 31
0.0
  0
ARC
  5
193
330
1F
100
AcDbEntity
  8
0
  6
PHANTOM
 62
     7
370
     0
100
AcDbCircle
 10
135.6763761468
 20
128.9100917431
 30
0.0
 40
11.99999999999987
100
AcDbArc
 50
0.0
 51
12.838568141
  0
LINE
  5
194
330
1F
100
AcDbEntity
  8
0
  6
PHANTOM
 62
     7
370
     0
100
AcDbLine
 10
148.3763753123
 20
122.2600917111
 30
0.0
 11
148.3763753123
 21
122.060091818
 31
0.0
  0
LINE
  5
195
330
1F
100
AcDbEntity
  8
0
  6
PHANTOM
 62
     7
370
     0
100
AcDbLine
 10
153.7870577223
 20
125.6307536981
 30
0.0
 11
153.7870577223
 21
123.7100917508
 31
0.0
  0
ARC
  5
196
330
1F
100
AcDbEntity
  8
0
  6
PHANTOM
 62
     7
370
     0
100
AcDbCircle
 10
156.9746135421
 20
123.6237649625
 30
0.0
 40
3.188724575501206
100
AcDbArc
 50
178.4486697099
 51
1.5513302901
  0
LINE
  5
197
330
1F
100
AcDbEntity
  8
0
  6
PHANTOM
 62
     7
370
     0
100
AcDbLine
 10
160.1621693618
 20
123.7100917508
 30
0.0
 11
160.1621693618
 21
125.4471187724
 31
0.0
  0
ELLIPSE
  5
198
330
1F
100
AcDbEntity
  8
0
  6
PHANTOM
 62
     7
370
     0
100
AcDbEllipse
 10
169.3987871106
 20
127.0100917431
 30
0.0
 11
0.0
 21
0.5
 31
0.0
210
0.0
220
0.0
230
1.0
 40
0.7551780725
 41
3.141592653589793
 42
4.7123889803847
  0
LINE
  5
199
330
1F
100
AcDbEntity
  8
0
  6
PHANTOM
 62
     7
370
     0
100
AcDbLine
 10
169.3987882383
 20
126.5100917092
 30
0.0
 11
167.582109446
 21
126.5100917092
 31
0.0
  0
ELLIPSE
  5
19A
330
1F
100
AcDbEntity
  8
0
  6
PHANTOM
 62
     7
370
     0
100
AcDbEllipse
 10
155.5804710405
 20
123.7100917431
 30
0.0
 11
4.666904755831183
 21
0.0
 31
0.0
210
0.0
220
0.0
230
1.0
 40
0.7071067812
 41
4.89083123731916
 42
5.116933576533132
  0
SPLINE
  5
19B
330
1F
100
AcDbEntity
  8
0
  6
PHANTOM
 62
     7
370
     0
100
AcDbSpline
210
0.0
220
0.0
230
1.0
 70
     8
 71
     3
 72
    13
 73
     9
 74
     0
 42
0.00000001
 43
0.00000001
 40
0.0
 40
0.0
 40
0.0
 40
0.0
 40
0.1541379811295842
 40
0.3078907879344032
 40
0.4722986091460089
 40
0.6505361399727921
 40
0.8363712603665426
 40
1.0
 40
1.0
 40
1.0
 40
1.0
 10
157.4173642940476
 20
120.6764619576411
 30
0.0
 10
157.434897875995
 20
120.6821710646815
 30
0.0
 10
157.4699212253445
 20
120.6935750123144
 30
0.0
 10
157.5352542541668
 20
120.7201656504735
 30
0.0
 10
157.6034929914725
 20
120.7521862557142
 30
0.0
 10
157.6695232521889
 20
120.7883869979324
 30
0.0
 10
157.7238180829048
 20
120.8237710026648
 30
0.0
 10
157.741852837505
 20
120.8406128392961
 30
0.0
 10
157.7502972133114
 20
120.8484986575918
 30
0.0
  0
ELLIPSE
  5
19C
330
1F
100
AcDbEntity
  8
0
  6
PHANTOM
 62
     7
370
     0
100
AcDbEllipse
 10
156.8995304236
 20
123.7100917431
 30
0.0
 11
0.0
 21
3.299999999999997
 31
0.0
210
0.0
220
0.0
230
1.0
 40
0.5176380902
 41
3.662938996190945
 42
4.057489321081079
  0
ARC
  5
19D
330
1F
100
AcDbEntity
  8
0
  6
PHANTOM
 62
     7
370
     0
100
AcDbCircle
 10
155.5758461479
 20
123.6845166146
 30
0.0
 40
3.333473416927501
100
AcDbArc
 50
323.4665990003
 51
339.4227001644
  0
ELLIPSE
  5
19E
330
1F
100
AcDbEntity
  8
0
  6
PHANTOM
 62
     7
370
     0
100
AcDbEllipse
 10
154.3476797663
 20
123.7100917431
 30
0.0
 11
4.666904755831212
 21
0.0
 31
0.0
210
0.0
220
0.0
230
1.0
 40
0.7071067812
 41
5.911929555960336
 42
6.283185307179586
  0
SPLINE
  5
19F
330
1F
100
AcDbEntity
  8
0
  6
PHANTOM
 62
     7
370
     0
100
AcDbSpline
210
0.0
220
0.0
230
1.0
 70
     8
 71
     3
 72
    13
 73
     9
 74
     0
 42
0.00000001
 43
0.00000001
 40
0.0
 40
0.0
 40
0.0
 40
0.0
 40
0.227395381778771
 40
0.4546958225213604
 40
0.6846820227513531
 40
0.9194849518413929
 40
0.990400510942249
 40
1.0
 40
1.0
 40
1.0
 40
1.0
 10
172.9330046720459
 20
140.4292018863039
 30
0.0
 10
172.9826974868868
 20
140.4178901868534
 30
0.0
 10
173.0820623690613
 20
140.3952715107593
 30
0.0
 10
173.2213703148163
 20
140.3007639329132
 30
0.0
 10
173.3346905123442
 20
140.1730531979918
 30
0.0
 10
173.3921369289965
 20
140.0559411958531
 30
0.0
 10
173.4119588615723
 20
139.9859265738628
 30
0.0
 10
173.4160119634953
 20
139.9680271919551
 30
0.0
 10
173.4164951987221
 20
139.9658931198196
 30
0.0
  0
LINE
  5
1A0
330
1F
100
AcDbEntity
  8
0
  6
PHANTOM
 62
     7
370
     0
100
AcDbLine
 10
173.776376868
 20
140.4718173447
 30
0.0
 11
173.776376868
 21
127.0100917912
 31
0.0
  0
LINE
  5
1A1
330
1F
100
AcDbEntity
  8
0
  6
PHANTOM
 62
     7
370
     0
100
AcDbLine
 10
173.776376868
 20
126.5100917092
 30
0.0
 11
173.776376868
 21
127.0100917912
 31
0.0
  0
LINE
  5
1A2
330
1F
100
AcDbEntity
  8
0
  6
PHANTOM
 62
     7
370
     0
100
AcDbLine
 10
173.776376868
 20
126.5100917092
 30
0.0
 11
169.3987882383
 21
126.5100917092
 31
0.0
  0
LINE
  5
1A3
330
1F
100
AcDbEntity
  8
0
  6
PHANTOM
 62
     7
370
     0
100
AcDbLine
 10
159.0145862348
 20
123.7100917508
 30
0.0
 11
159.0145862348
 21
124.7834970139
 31
0.0
  0
SPLINE
  5
1A4
330
1F
100
AcDbEntity
  8
0
  6
PHANTOM
 62
     7
370
     0
100
AcDbSpline
210
0.0
220
0.0
230
1.0
 70
    24
 71
     3
 72
    10
 73
     6
 74
     0
 42
0.00000001
 43
0.00000001
 40
0.0
 40
0.0
 40
0.0
 40
0.0
 40
0.1534467732742014
 40
0.4295360406822606
 40
1.0
 40
1.0
 40
1.0
 40
1.0
 10
173.776376868005
 20
140.4718173446732
 30
0.0
 10
173.776376868005
 20
140.5390683549407
 30
0.0
 10
173.776376868005
 20
140.7273208158157
 30
0.0
 10
173.776376868005
 20
141.1058432010277
 30
0.0
 10
173.776376868005
 20
141.3389861275538
 30
0.0
 10
173.776376868005
 20
141.4960933628159
 30
0.0
  0
SPLINE
  5
1A5
330
1F
100
AcDbEntity
  8
0
  6
PHANTOM
 62
     7
370
     0
100
AcDbSpline
210
0.0
220
0.0
230
1.0
 70
     8
 71
     3
 72
     9
 73
     5
 74
     0
 42
0.00000001
 43
0.00000001
 40
0.0
 40
0.0
 40
0.0
 40
0.0
 40
0.0000985221955061
 40
1.0
 40
1.0
 40
1.0
 40
1.0
 10
173.654943580146
 20
141.7886497231798
 30
0.0
 10
173.654943580148
 20
141.7886528279407
 30
0.0
 10
173.6549435997106
 20
141.8201661423205
 30
0.0
 10
173.6543475141167
 20
141.7427831626302
 30
0.0
 10
173.6537514872505
 20
141.6654078068809
 30
0.0
  0
SPLINE
  5
1A6
330
1F
100
AcDbEntity
  8
0
  6
PHANTOM
 62
     7
370
     0
100
AcDbSpline
210
0.0
220
0.0
230
1.0
 70
     8
 71
     3
 72
    12
 73
     8
 74
     0
 42
0.00000001
 43
0.00000001
 40
0.0
 40
0.0
 40
0.0
 40
0.0
 40
0.0272257974968349
 40
0.2621530715712935
 40
0.4963820211884629
 40
0.866084029416493
 40
1.0
 40
1.0
 40
1.0
 40
1.0
 10
173.776376868005
 20
141.6532167943792
 30
0.0
 10
173.7740208988954
 20
141.6529913014021
 30
0.0
 10
173.751335629945
 20
141.6508200637522
 30
0.0
 10
173.7131405143136
 20
141.6487302971264
 30
0.0
 10
173.6708353056343
 20
141.6511524197991
 30
0.0
 10
173.6552009679813
 20
141.6578564192735
 30
0.0
 10
173.6540559551445
 20
141.663821614645
 30
0.0
 10
173.6537514872505
 20
141.6654078068809
 30
0.0
  0
LINE
  5
1A7
330
1F
100
AcDbEntity
  8
0
  6
PHANTOM
 62
     7
370
     0
100
AcDbLine
 10
173.776376868
 20
141.4960933628
 30
0.0
 11
173.776376868
 21
141.6532167944
 31
0.0
  0
ELLIPSE
  5
1A8
330
1F
100
AcDbEntity
  8
0
  6
PHANTOM
 62
     7
370
     0
100
AcDbEllipse
 10
263.330503238
 20
140.3386272213
 30
0.0
 11
1842.247284731029
 21
323.9480801314531
 31
0.0
210
0.0
220
0.0
230
1.0
 40
0.0090763362
 41
1.616689774912527
 42
1.617287312642109
  0
SPLINE
  5
1A9
330
1F
100
AcDbEntity
  8
0
  6
PHANTOM
 62
     7
370
     0
100
AcDbSpline
210
0.0
220
0.0
230
1.0
 70
     8
 71
     3
 72
    13
 73
     9
 74
     0
 42
0.00000001
 43
0.00000001
 40
0.0
 40
0.0
 40
0.0
 40
0.0
 40
0.2147642447790591
 40
0.4294596238215571
 40
0.6457843935613814
 40
0.738644675332596
 40
0.9574261955330962
 40
1.0
 40
1.0
 40
1.0
 40
1.0
 10
173.776376868005
 20
141.7844643595295
 30
0.0
 10
173.7876220331114
 20
141.7920472164282
 30
0.0
 10
173.8101087574793
 20
141.8072104987267
 30
0.0
 10
173.9839709326536
 20
141.8449295549319
 30
0.0
 10
174.1912972514847
 20
141.8831300462973
 30
0.0
 10
174.4351004056413
 20
141.9262930567795
 30
0.0
 10
174.6183234345137
 20
141.9583297915337
 30
0.0
 10
174.7542355880142
 20
141.9822751769827
 30
0.0
 10
174.7763751692726
 20
141.9861757906752
 30
0.0
  0
LINE
  5
1AA
330
1F
100
AcDbEntity
  8
0
  6
PHANTOM
 62
     7
370
     0
100
AcDbLine
 10
173.776376868
 20
141.7844643595
 30
0.0
 11
173.776376868
 21
141.6532167944
 31
0.0
  0
LINE
  5
1AB
330
1F
100
AcDbEntity
  8
0
  6
PHANTOM
 62
     7
370
     0
100
AcDbLine
 10
173.776376868
 20
126.5100917092
 30
0.0
 11
174.7763751693
 21
126.5100917092
 31
0.0
  0
LINE
  5
1AC
330
1F
100
AcDbEntity
  8
0
  6
PHANTOM
 62
     7
370
     0
100
AcDbLine
 10
185.147516305
 20
134.5521401393
 30
0.0
 11
185.1763798542
 21
134.5572223666
 31
0.0
  0
LINE
  5
1AD
330
1F
100
AcDbEntity
  8
0
  6
PHANTOM
 62
     7
370
     0
100
AcDbLine
 10
185.1763798542
 20
131.619218156
 30
0.0
 11
185.1763798542
 21
134.5572223666
 31
0.0
  0
LINE
  5
1AE
330
1F
100
AcDbEntity
  8
0
  6
PHANTOM
 62
     7
370
     0
100
AcDbLine
 10
180.2136971302
 20
126.6565384588
 30
0.0
 11
185.1763798542
 21
131.619218156
 31
0.0
  0
ARC
  5
1AF
330
1F
100
AcDbEntity
  8
0
  6
PHANTOM
 62
     7
370
     0
100
AcDbCircle
 10
179.8601429665
 20
127.0100917431
 30
0.0
 40
0.5
100
AcDbArc
 50
270.0
 51
315.0
  0
ARC
  5
1B0
330
1F
100
AcDbEntity
  8
0
  6
PHANTOM
 62
     7
370
     0
100
AcDbCircle
 10
176.6327226005
 20
133.8188835157
 30
0.0
 40
1.648891773229167
100
AcDbArc
 50
117.3206200054
 51
342.7568257054
  0
LINE
  5
1B1
330
1F
100
AcDbEntity
  8
0
  6
PHANTOM
 62
     7
370
     0
100
AcDbLine
 10
174.7763751693
 20
126.5100917092
 30
0.0
 11
179.8601447291
 21
126.5100917092
 31
0.0
  0
ARC
  5
1B2
330
1F
100
AcDbEntity
  8
0
  6
PHANTOM
 62
     7
370
     0
100
AcDbCircle
 10
176.6293748487
 20
133.6197974106
 30
0.0
 40
1.647534687238703
100
AcDbArc
 50
118.178548741
 51
176.5212578471
  0
LINE
  5
1B3
330
1F
100
AcDbEntity
  8
0
  6
PHANTOM
 62
     7
370
     0
100
AcDbLine
 10
185.1763798542
 20
134.5572223666
 30
0.0
 11
185.1660160966
 21
134.5614785107
 31
0.0
  0
SPLINE
  5
1B4
330
1F
100
AcDbEntity
  8
0
  6
PHANTOM
 62
     7
370
     0
100
AcDbSpline
210
0.0
220
0.0
230
1.0
 70
     8
 71
     3
 72
    11
 73
     7
 74
     0
 42
0.00000001
 43
0.00000001
 40
0.0
 40
0.0
 40
0.0
 40
0.0
 40
0.390665658463304
 40
0.7805859067737922
 40
0.9882897582305129
 40
1.0
 40
1.0
 40
1.0
 40
1.0
 10
172.8399655468418
 20
111.5084359201269
 30
0.0
 10
172.8751931488059
 20
111.5453287939063
 30
0.0
 10
172.9455811366593
 20
111.6190441479661
 30
0.0
 10
173.0396694010879
 20
111.7406323657683
 30
0.0
 10
173.0933230351007
 20
111.8169006852075
 30
0.0
 10
173.1119000264973
 20
111.8444560862976
 30
0.0
 10
173.112891489978
 20
111.8459267320709
 30
0.0
  0
LINE
  5
1B5
330
1F
100
AcDbEntity
  8
0
  6
PHANTOM
 62
     7
370
     0
100
AcDbLine
 10
184.1541229434
 20
117.1455223824
 30
0.0
 11
184.224247808
 21
106.6060861352
 31
0.0
  0
ELLIPSE
  5
1B6
330
1F
100
AcDbEntity
  8
0
  6
PHANTOM
 62
     7
370
     0
100
AcDbEllipse
 10
213.433298085
 20
116.7797797954
 30
0.0
 11
63.36569788998706
 21
-12.03516227933062
 31
0.0
210
0.0
220
0.0
230
1.0
 40
0.263265937
 41
4.096926097984845
 42
4.283921354660682
  0
ELLIPSE
  5
1B7
330
1F
100
AcDbEntity
  8
0
  6
PHANTOM
 62
     7
370
     0
100
AcDbEllipse
 10
180.5318694513
 20
110.3266888162
 30
0.0
 11
-1.112815599055921
 21
1.235552153550515
 31
0.0
210
0.0
220
0.0
230
1.0
 40
0.9859992036
 41
5.06570315147686
 42
8.776081314949899
  0
LINE
  5
1B8
330
1F
100
AcDbEntity
  8
0
  6
PHANTOM
 62
     7
370
     0
100
AcDbLine
 10
167.5094215817
 20
121.810091777
 30
0.0
 11
179.8601447291
 21
121.810091777
 31
0.0
  0
SPLINE
  5
1B9
330
1F
100
AcDbEntity
  8
0
  6
PHANTOM
 62
     7
370
     0
100
AcDbSpline
210
0.0
220
0.0
230
1.0
 70
     8
 71
     3
 72
    12
 73
     8
 74
     0
 42
0.00000001
 43
0.00000001
 40
0.0
 40
0.0
 40
0.0
 40
0.0
 40
0.2229485672936736
 40
0.4461827780266694
 40
0.66249465972474
 40
0.8723515371671275
 40
0.9999999999999999
 40
0.9999999999999999
 40
0.9999999999999999
 40
0.9999999999999999
 10
164.9739182240917
 20
107.591116220005
 30
0.0
 10
164.9163963943451
 20
107.5965835435912
 30
0.0
 10
164.801279037436
 20
107.6075251955412
 30
0.0
 10
164.6490652711414
 20
107.6946660750767
 30
0.0
 10
164.5379904857444
 20
107.8221879494729
 30
0.0
 10
164.48351178582
 20
107.9577243593418
 30
0.0
 10
164.4783341462039
 20
108.0444872538437
 30
0.0
 10
164.4763759024098
 20
108.0773019942121
 30
0.0
  0
LINE
  5
1BA
330
1F
100
AcDbEntity
  8
0
  6
PHANTOM
 62
     7
370
     0
100
AcDbLine
 10
167.7263750381
 20
107.5582088682
 30
0.0
 11
167.5895637519
 21
107.5551615807
 31
0.0
  0
SPLINE
  5
1BB
330
1F
100
AcDbEntity
  8
0
  6
PHANTOM
 62
     7
370
     0
100
AcDbSpline
210
0.0
220
0.0
230
1.0
 70
     8
 71
     3
 72
    17
 73
    13
 74
     0
 42
0.00000001
 43
0.00000001
 40
0.0
 40
0.0
 40
0.0
 40
0.0
 40
0.0429779862100677
 40
0.1443761937796754
 40
0.2467819288319374
 40
0.3522065729677571
 40
0.4612067927632781
 40
0.5728474085630247
 40
0.6852814353565136
 40
0.7963701394175234
 40
0.9042549170953719
 40
1.0
 40
1.0
 40
1.0
 40
1.0
 10
165.5059343821957
 20
107.4139544519262
 30
0.0
 10
165.4987619006753
 20
107.4130205184547
 30
0.0
 10
165.4746673426657
 20
107.4098831504265
 30
0.0
 10
165.6853491433559
 20
107.4374029967215
 30
0.0
 10
166.1067777483504
 20
107.4840399922003
 30
0.0
 10
166.7213378063161
 20
107.5332567967902
 30
0.0
 10
167.4567442415072
 20
107.5619176571697
 30
0.0
 10
168.2387224070283
 20
107.5564285274132
 30
0.0
 10
168.970289632107
 20
107.5172428709542
 30
0.0
 10
169.5465039337031
 20
107.4635527333549
 30
0.0
 10
169.9143244228493
 20
107.4184619081703
 30
0.0
 10
169.9503354496783
 20
107.4135665496011
 30
0.0
 10
169.9672675378277
 20
107.4112647923307
 30
0.0
  0
LINE
  5
1BC
330
1F
100
AcDbEntity
  8
0
  6
PHANTOM
 62
     7
370
     0
100
AcDbLine
 10
168.184973175
 20
107.5511419925
 30
0.0
 11
167.7263750381
 21
107.5582070055
 31
0.0
  0
SPLINE
  5
1BD
330
1F
100
AcDbEntity
  8
0
  6
PHANTOM
 62
     7
370
     0
100
AcDbSpline
210
0.0
220
0.0
230
1.0
 70
     8
 71
     3
 72
     9
 73
     5
 74
     0
 42
0.00000001
 43
0.00000001
 40
0.0
 40
0.0
 40
0.0
 40
0.0
 40
0.5667858579388356
 40
1.0
 40
1.0
 40
1.0
 40
1.0
 10
172.7763748414471
 20
111.3495373877363
 30
0.0
 10
172.7786155624493
 20
111.3812372139814
 30
0.0
 10
172.782568944438
 20
111.4371663198352
 30
0.0
 10
172.8226164158656
 20
111.4868934319255
 30
0.0
 10
172.8399655468419
 20
111.5084359201269
 30
0.0
  0
LINE
  5
1BE
330
1F
100
AcDbEntity
  8
0
  6
PHANTOM
 62
     7
370
     0
100
AcDbLine
 10
172.7763748414
 20
111.3495373877
 30
0.0
 11
172.7763748414
 21
107.4100913259
 31
0.0
  0
ELLIPSE
  5
1BF
330
1F
100
AcDbEntity
  8
0
  6
PHANTOM
 62
     7
370
     0
100
AcDbEllipse
 10
159.5226847003
 20
123.4100917431
 30
0.0
 11
0.0
 21
16.0
 31
0.0
210
0.0
220
0.0
230
1.0
 40
0.2679491924
 41
2.83419760250529
 42
2.841248257202334
  0
ELLIPSE
  5
1C0
330
1F
100
AcDbEntity
  8
0
  6
PHANTOM
 62
     7
370
     0
100
AcDbEllipse
 10
175.9203119628
 20
123.4100917431
 30
0.0
 11
59.71281292110049
 21
-1.421085471520200E-14
 31
0.0
210
0.0
220
0.0
230
1.0
 40
0.2679491924
 41
4.412044583997234
 42
4.419789897528839
  0
ARC
  5
1C1
330
1F
100
AcDbEntity
  8
0
  6
PHANTOM
 62
     7
370
     0
100
AcDbCircle
 10
154.0815710355
 20
123.4100917431
 30
0.0
 40
16.0
100
AcDbArc
 50
286.764692537
 51
287.6124390704
  0
ELLIPSE
  5
1C2
330
1F
100
AcDbEntity
  8
0
  6
PHANTOM
 62
     7
370
     0
100
AcDbEllipse
 10
161.9882672488
 20
123.4100917431
 30
0.0
 11
0.0
 21
15.99999999999999
 31
0.0
210
0.0
220
0.0
230
1.0
 40
0.2679491924
 41
2.83419760250529
 42
2.887502705792679
  0
ELLIPSE
  5
1C3
330
1F
100
AcDbEntity
  8
0
  6
PHANTOM
 62
     7
370
     0
100
AcDbEllipse
 10
175.9203119628
 20
123.4100917431
 30
0.0
 11
59.71281292110004
 21
-1.421085471520200E-14
 31
0.0
210
0.0
220
0.0
230
1.0
 40
0.2679491924
 41
4.458299032587587
 42
4.465944631236983
  0
ARC
  5
1C4
330
1F
100
AcDbEntity
  8
0
  6
PHANTOM
 62
     7
370
     0
100
AcDbCircle
 10
157.4496194318
 20
123.4100917431
 30
0.0
 40
15.99999999999999
100
AcDbArc
 50
284.120221091
 51
287.6124390704
  0
ELLIPSE
  5
1C5
330
1F
100
AcDbEntity
  8
0
  6
PHANTOM
 62
     7
370
     0
100
AcDbEllipse
 10
164.4538497972
 20
123.4100917431
 30
0.0
 11
0.0
 21
16.0
 31
0.0
210
0.0
220
0.0
230
1.0
 40
0.2679491924
 41
2.834197602505288
 42
2.933207604466567
  0
ELLIPSE
  5
1C6
330
1F
100
AcDbEntity
  8
0
  6
PHANTOM
 62
     7
370
     0
100
AcDbEllipse
 10
175.9203119628
 20
123.4100917431
 30
0.0
 11
59.71281292110046
 21
-1.421085471520200E-14
 31
0.0
210
0.0
220
0.0
230
1.0
 40
0.2679491924
 41
4.504003931261469
 42
4.514424850327476
  0
LINE
  5
1C7
330
1F
100
AcDbEntity
  8
0
  6
PHANTOM
 62
     7
370
     0
100
AcDbLine
 10
164.1763745494
 20
107.59111622
 30
0.0
 11
164.1763745494
 21
107.4100913259
 31
0.0
  0
LINE
  5
1C8
330
1F
100
AcDbEntity
  8
0
  6
PHANTOM
 62
     7
370
     0
100
AcDbLine
 10
164.1763745494
 20
107.59111622
 30
0.0
 11
164.9739182241
 21
107.59111622
 31
0.0
  0
LINE
  5
1C9
330
1F
100
AcDbEntity
  8
0
  6
PHANTOM
 62
     7
370
     0
100
AcDbLine
 10
164.4763759024
 20
111.1652593839
 30
0.0
 11
164.4763759024
 21
108.0773019942
 31
0.0
  0
LINE
  5
1CA
330
1F
100
AcDbEntity
  8
0
  6
PHANTOM
 62
     7
370
     0
100
AcDbLine
 10
165.9028007336
 20
121.810091777
 30
0.0
 11
167.5094215817
 21
121.810091777
 31
0.0
  0
SPLINE
  5
1CB
330
1F
100
AcDbEntity
  8
0
  6
PHANTOM
 62
     7
370
     0
100
AcDbSpline
210
0.0
220
0.0
230
1.0
 70
     8
 71
     3
 72
    14
 73
    10
 74
     0
 42
0.00000001
 43
0.00000001
 40
0.0
 40
0.0
 40
0.0
 40
0.0
 40
0.3936047805911291
 40
0.5169391395876657
 40
0.6412961146086409
 40
0.7389598990037006
 40
0.8364603144186693
 40
0.9786269231482273
 40
0.9999999999999999
 40
0.9999999999999999
 40
0.9999999999999999
 40
0.9999999999999999
 10
174.2629072315647
 20
110.1071363093929
 30
0.0
 10
174.1602940372097
 20
110.1429363239681
 30
0.0
 10
174.0255274413352
 20
110.1899541185789
 30
0.0
 10
173.8480900291619
 20
110.2020404751397
 30
0.0
 10
173.7574518771922
 20
110.1905178667597
 30
0.0
 10
173.6912413359353
 20
110.160029911358
 30
0.0
 10
173.6469883805125
 20
110.1132484424735
 30
0.0
 10
173.6351652872473
 20
110.0699249440651
 30
0.0
 10
173.6347178502219
 20
110.0424062584122
 30
0.0
 10
173.6346593744709
 20
110.0388098287063
 30
0.0
  0
ELLIPSE
  5
1CC
330
1F
100
AcDbEntity
  8
0
  6
PHANTOM
 62
     7
370
     0
100
AcDbEllipse
 10
263.330503238
 20
107.981556265
 30
0.0
 11
1842.247284730973
 21
-323.9480801314432
 31
0.0
210
0.0
220
0.0
230
1.0
 40
0.0090763362
 41
4.665897994537479
 42
4.666495532267061
  0
SPLINE
  5
1CD
330
1F
100
AcDbEntity
  8
0
  6
PHANTOM
 62
     7
370
     0
100
AcDbSpline
210
0.0
220
0.0
230
1.0
 70
     8
 71
     3
 72
     9
 73
     5
 74
     0
 42
0.00000001
 43
0.00000001
 40
0.0
 40
0.0
 40
0.0
 40
0.0
 40
0.8371037417312336
 40
1.0
 40
1.0
 40
1.0
 40
1.0
 10
174.3784880883648
 20
106.4039444329815
 30
0.0
 10
174.4876261834338
 20
106.3847880999288
 30
0.0
 10
174.6180020133677
 20
106.3619040389723
 30
0.0
 10
174.7541905639618
 20
106.3379153613834
 30
0.0
 10
174.7763751692726
 20
106.3340076955633
 30
0.0
  0
SPLINE
  5
1CE
330
1F
100
AcDbEntity
  8
0
  6
PHANTOM
 62
     7
370
     0
100
AcDbSpline
210
0.0
220
0.0
230
1.0
 70
     8
 71
     3
 72
    13
 73
     9
 74
     0
 42
0.00000001
 43
0.00000001
 40
0.0
 40
0.0
 40
0.0
 40
0.0
 40
0.2104476804588664
 40
0.4249765275405693
 40
0.5661381872145996
 40
0.707298679109719
 40
0.853658645744361
 40
1.0
 40
1.0
 40
1.0
 40
1.0
 10
173.6346593744709
 20
110.0388098287063
 30
0.0
 10
173.6359239972731
 20
109.5902418798624
 30
0.0
 10
173.6384777674355
 20
108.6844070003807
 30
0.0
 10
173.6443000468313
 20
107.7900569614375
 30
0.0
 10
173.6489028087503
 20
107.1895060851092
 30
0.0
 10
173.6522078265329
 20
106.8165715924528
 30
0.0
 10
173.6544831182332
 20
106.5769724532021
 30
0.0
 10
173.6547900993486
 20
106.5466793510109
 30
0.0
 10
173.654943580146
 20
106.5315337630587
 30
0.0
  0
ELLIPSE
  5
1CF
330
1F
100
AcDbEntity
  8
0
  6
PHANTOM
 62
     7
370
     0
100
AcDbEllipse
 10
185.0875985766
 20
121.7778914058
 30
0.0
 11
-0.1580294061878647
 21
17.2857782828025
 31
0.0
210
0.0
220
0.0
230
0.9999999999999998
 40
0.120717163
 41
2.640742359411016
 42
2.885953137350464
  0
ELLIPSE
  5
1D0
330
1F
100
AcDbEntity
  8
0
  6
PHANTOM
 62
     7
370
     0
100
AcDbEllipse
 10
-145.1980494975
 20
180.016162502
 30
0.0
 11
1842.247284730919
 21
-323.9480801314338
 31
0.0
210
0.0
220
0.0
230
0.9999999999999999
 40
0.0090763362
 41
4.889249192244597
 42
4.894036710141903
  0
LINE
  5
1D1
330
1F
100
AcDbEntity
  8
0
  6
PHANTOM
 62
     7
370
     0
100
AcDbLine
 10
176.0318687804
 20
106.1682900193
 30
0.0
 11
176.0318687804
 21
106.560829446
 31
0.0
  0
ELLIPSE
  5
1D2
330
1F
100
AcDbEntity
  8
0
  6
PHANTOM
 62
     7
370
     0
100
AcDbEllipse
 10
175.9749144133
 20
123.3847034905
 30
0.0
 11
0.06743946990809491
 21
17.24662108407323
 31
0.0
210
0.0
220
0.0
230
1.0
 40
0.1208336942
 41
3.126452908774541
 42
3.201261501049028
  0
LINE
  5
1D3
330
1F
100
AcDbEntity
  8
0
  6
PHANTOM
 62
     7
370
     0
100
AcDbLine
 10
180.2136971302
 20
121.6636450275
 30
0.0
 11
184.2043026037
 21
117.6730374585
 31
0.0
  0
ELLIPSE
  5
1D4
330
1F
100
AcDbEntity
  8
0
  6
PHANTOM
 62
     7
370
     0
100
AcDbEllipse
 10
184.2211488506
 20
116.9490858591
 30
0.0
 11
-0.02276965404854536
 21
0.726864717873454
 31
0.0
210
0.0
220
0.0
230
1.0
 40
0.0869665382
 41
6.190857213317433
 42
7.577603498745654
  0
ARC
  5
1D5
330
1F
100
AcDbEntity
  8
0
  6
PHANTOM
 62
     7
370
     0
100
AcDbCircle
 10
179.8601429665
 20
121.3100917431
 30
0.0
 40
0.500000000000004
100
AcDbArc
 50
45.0
 51
90.0
  0
LINE
  5
1D6
330
1F
100
AcDbEntity
  8
0
  6
PHANTOM
 62
     7
370
     0
100
AcDbLine
 10
184.7128419824
 20
105.0490470382
 30
0.0
 11
184.7128419824
 21
113.8837648335
 31
0.0
  0
LINE
  5
1D7
330
1F
100
AcDbEntity
  8
0
  6
PHANTOM
 62
     7
370
     0
100
AcDbLine
 10
185.1763798542
 20
116.7009653303
 30
0.0
 11
185.1763798542
 21
113.7629611197
 31
0.0
  0
LINE
  5
1D8
330
1F
100
AcDbEntity
  8
0
  6
PHANTOM
 62
     7
370
     0
100
AcDbLine
 10
185.1763798542
 20
113.7629611197
 30
0.0
 11
185.0202231355
 21
113.6987985822
 31
0.0
  0
LINE
  5
1D9
330
1F
100
AcDbEntity
  8
0
  6
PHANTOM
 62
     7
370
     0
100
AcDbLine
 10
185.0202231355
 20
113.6987985822
 30
0.0
 11
184.7128419824
 21
113.8837648335
 31
0.0
  0
LINE
  5
1DA
330
1F
100
AcDbEntity
  8
0
  6
PHANTOM
 62
     7
370
     0
100
AcDbLine
 10
185.1763798542
 20
116.7009653303
 30
0.0
 11
184.2043026037
 21
117.6730374585
 31
0.0
  0
LINE
  5
1DB
330
1F
100
AcDbEntity
  8
0
  6
PHANTOM
 62
     7
370
     0
100
AcDbLine
 10
184.7128419824
 20
113.7529242563
 30
0.0
 11
185.0202231355
 21
113.6987985822
 31
0.0
  0
LINE
  5
1DC
330
1F
100
AcDbEntity
  8
0
  6
PHANTOM
 62
     7
370
     0
100
AcDbLine
 10
164.1763745494
 20
107.59111622
 30
0.0
 11
164.1763745494
 21
108.6446152779
 31
0.0
  0
LINE
  5
1DD
330
1F
100
AcDbEntity
  8
0
  6
PHANTOM
 62
     7
370
     0
100
AcDbLine
 10
163.5669170566
 20
107.7562303993
 30
0.0
 11
163.5669170566
 21
108.1600909832
 31
0.0
  0
LINE
  5
1DE
330
1F
100
AcDbEntity
  8
0
  6
PHANTOM
 62
     7
370
     0
100
AcDbLine
 10
161.352936054
 20
107.89351666
 30
0.0
 11
161.352936054
 21
108.1600909832
 31
0.0
  0
LINE
  5
1DF
330
1F
100
AcDbEntity
  8
0
  6
PHANTOM
 62
     7
370
     0
100
AcDbLine
 10
160.910621161
 20
107.9238125833
 30
0.0
 11
160.910621161
 21
108.1600909832
 31
0.0
  0
LINE
  5
1E0
330
1F
100
AcDbEntity
  8
0
  6
PHANTOM
 62
     7
370
     0
100
AcDbLine
 10
158.6966401584
 20
108.0901337566
 30
0.0
 11
158.6966401584
 21
108.1600909832
 31
0.0
  0
LINE
  5
1E1
330
1F
100
AcDbEntity
  8
0
  6
PHANTOM
 62
     7
370
     0
100
AcDbLine
 10
158.2543252654
 20
108.1263379904
 30
0.0
 11
158.2543252654
 21
108.1600909832
 31
0.0
  0
LWPOLYLINE
  5
1E2
330
1F
100
AcDbEntity
  8
0
  6
Continuous
 62
     7
370
    15
100
AcDbPolyline
 90
       32
 70
   128
 43
0.0
 10
160.2499707289
 20
128.6949141661
 10
160.3893748171
 20
129.2060649733
 10
160.4265345879
 20
129.735803582
 10
160.3599301226
 20
130.2624427492
 10
160.1922920592
 20
130.764421426
 10
159.930478657
 20
131.2211885827
 10
159.5852150269
 20
131.6140441934
 10
159.1706274695
 20
131.9269047829
 10
158.7036995835
 20
132.1469623374
 10
158.2035383828
 20
132.2652067768
 10
157.6906255133
 20
132.2767970862
 10
157.1859567113
 20
132.1812592226
 10
156.710196162
 20
131.9825047406
 10
156.2828196831
 20
131.6886706057
 10
155.9213249631
 20
131.3117862458
 10
155.6405088551
 20
130.8672808821
 10
155.4518750555
 20
130.373353489
 10
155.3631386406
 20
129.8502244766
 10
155.3779354937
 20
129.3193119357
 10
155.4956583924
 20
128.802350607
 10
155.7114905364
 20
128.3205057273
 10
156.0165955372
 20
127.8935034073
 10
156.3984824963
 20
127.53882527
 10
156.841512645
 20
127.2709922644
 10
157.3275512702
 20
127.1009690839
 10
157.8367015965
 20
127.035716899
 10
158.3481168992
 20
127.0779067429
 10
158.8408573217
 20
127.2258117108
 10
159.2947541423
 20
127.4733761104
 10
159.6912256129
 20
127.8104652895
 10
160.0140369184
 20
128.2232779788
 10
160.2499707289
 20
128.6949141661
  0
LWPOLYLINE
  5
1E3
330
1F
100
AcDbEntity
  8
0
  6
Continuous
 62
     7
370
    15
100
AcDbPolyline
 90
       46
 70
   128
 43
0.0
 10
161.8521584816
 20
127.7297368518
 10
162.065762902
 20
128.4279989789
 10
162.1834224708
 20
129.1502424295
 10
162.2028424091
 20
129.8824091221
 10
162.123650188
 20
130.61024889
 10
161.9473806269
 20
131.3195949199
 10
161.6774721689
 20
131.9966403546
 10
161.319173748
 20
132.6282083767
 10
160.8794591076
 20
133.2020045968
 10
160.3668889649
 20
133.706861526
 10
159.7914359219
 20
134.1329527798
 10
159.1643056519
 20
134.4719849306
 10
158.4977022059
 20
134.717359558
 10
157.80460077
 20
134.8642999085
 10
157.0984906204
 20
134.9099458906
 10
156.3931143529
 20
134.8534099537
 10
155.702207113
 20
134.6957910585
 10
155.039209748
 20
134.4401588442
 10
154.4170266635
 20
134.0914884361
 10
153.8477762289
 20
133.6565654504
 10
153.3425300069
 20
133.1438546779
 10
152.9111227639
 20
132.5633380341
 10
152.5619587548
 20
131.9263119961
 10
152.3018254585
 20
131.2451766583
 10
152.1357892699
 20
130.5331898632
 10
152.0670800157
 20
129.8042087595
 10
152.0970425255
 20
129.0724229778
 10
152.2250844784
 20
128.3520752343
 10
152.4487173803
 20
127.6571865904
 10
152.7635863669
 20
127.0012821781
 10
153.1635670609
 20
126.3971285673
 10
153.6408736057
 20
125.8564848697
 10
154.1862151272
 20
125.3898739827
 10
154.7889708228
 20
125.0063779892
 10
155.4374209292
 20
124.7134612652
 10
156.118932987
 20
124.5168251055
 10
156.820248688
 20
124.4202967512
 10
157.5277148433
 20
124.4257550582
 10
158.2275590546
 20
124.5330937684
 10
158.906165386
 20
124.7402236343
 10
159.5503239579
 20
125.0431131933
 10
160.1474954433
 20
125.4358669988
 10
160.6860569365
 20
125.9108404641
 10
161.1555254705
 20
126.4587888739
 10
161.5467666335
 20
127.0690470713
 10
161.8521584816
 20
127.7297368518
  0
LINE
  5
1E4
330
1F
100
AcDbEntity
  8
0
  6
Continuous
 62
     7
370
    15
100
AcDbLine
 10
158.7122342236
 20
131.8077187764
 30
0.0
 11
160.0986606128
 21
129.9985320086
 31
0.0
  0
LINE
  5
1E5
330
1F
100
AcDbEntity
  8
0
  6
Continuous
 62
     7
370
    15
100
AcDbLine
 10
156.5056106694
 20
131.4692784811
 30
0.0
 11
158.7122342236
 21
131.8077187764
 31
0.0
  0
LINE
  5
1E6
330
1F
100
AcDbEntity
  8
0
  6
Continuous
 62
     7
370
    15
100
AcDbLine
 10
155.6854060538
 20
129.321651418
 30
0.0
 11
156.5056106694
 21
131.4692784811
 31
0.0
  0
LINE
  5
1E7
330
1F
100
AcDbEntity
  8
0
  6
Continuous
 62
     7
370
    15
100
AcDbLine
 10
157.0718287177
 20
127.5124648831
 30
0.0
 11
155.6854060538
 21
129.321651418
 31
0.0
  0
LINE
  5
1E8
330
1F
100
AcDbEntity
  8
0
  6
Continuous
 62
     7
370
    15
100
AcDbLine
 10
159.2784559972
 20
127.8509049455
 30
0.0
 11
157.0718287177
 21
127.5124648831
 31
0.0
  0
LINE
  5
1E9
330
1F
100
AcDbEntity
  8
0
  6
Continuous
 62
     7
370
    15
100
AcDbLine
 10
160.0986606128
 20
129.9985320086
 30
0.0
 11
159.2784559972
 21
127.8509049455
 31
0.0
  0
LINE
  5
1EA
330
1F
100
AcDbEntity
  8
0
  6
Continuous
 62
     7
370
    15
100
AcDbLine
 10
158.7401142962
 20
127.8509049455
 30
0.0
 11
159.2784559972
 21
127.8509049455
 31
0.0
  0
LINE
  5
1EB
330
1F
100
AcDbEntity
  8
0
  6
Continuous
 62
     7
370
    15
100
AcDbLine
 10
157.6367987938
 20
127.6816847979
 30
0.0
 11
157.0152117557
 21
127.5863490312
 31
0.0
  0
LINE
  5
1EC
330
1F
100
AcDbEntity
  8
0
  6
Continuous
 62
     7
370
    15
100
AcDbLine
 10
158.7401142962
 20
127.8509049455
 30
0.0
 11
157.6367987938
 21
127.6816847979
 31
0.0
  0
LINE
  5
1ED
330
1F
100
AcDbEntity
  8
0
  6
Continuous
 62
     7
370
    15
100
AcDbLine
 10
159.5603151865
 20
129.9985320086
 30
0.0
 11
160.0986606128
 21
129.9985320086
 31
0.0
  0
LINE
  5
1EE
330
1F
100
AcDbEntity
  8
0
  6
Continuous
 62
     7
370
    15
100
AcDbLine
 10
158.8671019919
 20
130.9031251597
 30
0.0
 11
159.5603151865
 21
129.9985320086
 31
0.0
  0
LINE
  5
1EF
330
1F
100
AcDbEntity
  8
0
  6
Continuous
 62
     7
370
    15
100
AcDbLine
 10
158.2305094845
 20
131.7338346283
 30
0.0
 11
158.8671019919
 21
130.9031251597
 31
0.0
  0
LINE
  5
1F0
330
1F
100
AcDbEntity
  8
0
  6
Continuous
 62
     7
370
    15
100
AcDbLine
 10
159.1502128787
 20
128.9247184771
 30
0.0
 11
158.7401142962
 21
127.8509049455
 31
0.0
  0
LINE
  5
1F1
330
1F
100
AcDbEntity
  8
0
  6
Continuous
 62
     7
370
    15
100
AcDbLine
 10
159.5603151865
 20
129.9985320086
 30
0.0
 11
159.1502128787
 21
128.9247184771
 31
0.0
  0
ARC
  5
1F2
330
1F
100
AcDbEntity
  8
0
  6
Continuous
 62
     7
370
    15
100
AcDbCircle
 10
157.179765432
 20
129.6600919316
 30
0.0
 40
5.251915797881459
100
AcDbArc
 50
91.5475574518
 51
268.4524425482
  0
ARC
  5
1F3
330
1F
100
AcDbEntity
  8
0
  6
Continuous
 62
     7
370
    15
100
AcDbCircle
 10
157.3259436865
 20
129.6029762301
 30
0.0
 40
1.946276358911067
100
AcDbArc
 50
279.1905205592
 51
339.6050184409
  0
ARC
  5
1F4
330
1F
100
AcDbEntity
  8
0
  6
Continuous
 62
     7
370
    15
100
AcDbCircle
 10
157.3536576959
 20
129.5277926322
 30
0.0
 40
1.867694572779202
100
AcDbArc
 50
256.5578424475
 51
278.7196168636
  0
LINE
  5
1F5
330
1F
100
AcDbEntity
  8
0
  6
Continuous
 62
     7
370
    15
100
AcDbLine
 10
156.5416006989
 20
131.47479843
 30
0.0
 11
156.4998215682
 21
131.4541281911
 31
0.0
  0
ARC
  5
1F6
330
1F
100
AcDbEntity
  8
0
  6
Continuous
 62
     7
370
    15
100
AcDbCircle
 10
157.3391217528
 20
129.7434815736
 30
0.0
 40
1.918201464354384
100
AcDbArc
 50
37.1962755827
 51
81.4990951119
  0
ARC
  5
1F7
330
1F
100
AcDbEntity
  8
0
  6
Continuous
 62
     7
370
    15
100
AcDbCircle
 10
157.2301232087
 20
129.65941277
 30
0.0
 40
2.055850200021083
100
AcDbArc
 50
339.0613797078
 51
37.2261474093
  0
ELLIPSE
  5
1F8
330
1F
100
AcDbEntity
  8
0
  6
Continuous
 62
     7
370
    15
100
AcDbEllipse
 10
149.6233858819
 20
124.1600917431
 30
0.0
 11
0.0
 21
15.99999999999997
 31
0.0
210
0.0
220
0.0
230
1.0
 40
0.2679491924
 41
0.5516840206956801
 42
0.6185185127992117
  0
ELLIPSE
  5
1F9
330
1F
100
AcDbEntity
  8
0
  6
Continuous
 62
     7
370
    15
100
AcDbEllipse
 10
181.7607584975
 20
124.1600917431
 30
0.0
 11
59.71281292103717
 21
0.0
 31
0.0
210
0.0
220
0.0
230
1.0
 40
0.2679491924
 41
2.189314839594109
 42
2.20504942842728
  0
LINE
  5
1FA
330
1F
100
AcDbEntity
  8
0
  6
Continuous
 62
     7
370
    15
100
AcDbLine
 10
146.3763768471
 20
134.8612628656
 30
0.0
 11
146.3763768471
 21
137.0483239892
 31
0.0
  0
ELLIPSE
  5
1FB
330
1F
100
AcDbEntity
  8
0
  6
Continuous
 62
     7
370
    15
100
AcDbEllipse
 10
149.5635632257
 20
124.1600917431
 30
0.0
 11
0.0
 21
15.99999999999997
 31
0.0
210
0.0
220
0.0
230
1.0
 40
0.2679491924
 41
0.8381716299743478
 42
2.303421023615444
  0
LINE
  5
1FC
330
1F
100
AcDbEntity
  8
0
  6
Continuous
 62
     7
370
    15
100
AcDbLine
 10
146.3763768471
 20
111.2718594971
 30
0.0
 11
146.3763768471
 21
113.4589206206
 31
0.0
  0
ELLIPSE
  5
1FD
330
1F
100
AcDbEntity
  8
0
  6
Continuous
 62
     7
370
    15
100
AcDbEllipse
 10
181.7607584975
 20
124.1600917431
 30
0.0
 11
59.71281292103717
 21
0.0
 31
0.0
210
0.0
220
0.0
230
1.0
 40
0.2679491924
 41
4.078135878752326
 42
4.093870467585496
  0
ELLIPSE
  5
1FE
330
1F
100
AcDbEntity
  8
0
  6
Continuous
 62
     7
370
    15
100
AcDbEllipse
 10
149.6233858819
 20
124.1600917431
 30
0.0
 11
0.0
 21
15.99999999999997
 31
0.0
210
0.0
220
0.0
230
1.0
 40
0.2679491924
 41
2.523074140790586
 42
2.660928762398187
  0
SPLINE
  5
1FF
330
1F
100
AcDbEntity
  8
0
  6
Continuous
 62
     7
370
    15
100
AcDbSpline
210
0.0
220
0.0
230
1.0
 70
     8
 71
     3
 72
    12
 73
     8
 74
     0
 42
0.00000001
 43
0.00000001
 40
0.0
 40
0.0
 40
0.0
 40
0.0
 40
0.2499999999999943
 40
0.2499999999999943
 40
0.4999999999999887
 40
0.4999999999999887
 40
1.0
 40
1.0
 40
1.0
 40
1.0
 10
147.9757345374285
 20
109.9266880304342
 30
0.0
 10
147.9513929538047
 20
109.914189693167
 30
0.0
 10
147.9201123972693
 20
109.9048117475688
 30
0.0
 10
147.8508591764745
 20
109.8954846214084
 30
0.0
 10
147.812567072907
 20
109.8957305636451
 30
0.0
 10
147.7093255670567
 20
109.9111046054657
 30
0.0
 10
147.6580471532186
 20
109.9401549712959
 30
0.0
 10
147.6411280159334
 20
109.9730812438789
 30
0.0
  0
ARC
  5
200
330
1F
100
AcDbEntity
  8
0
  6
Continuous
 62
     7
370
    15
100
AcDbCircle
 10
140.6675050151
 20
124.1600917431
 30
0.0
 40
16.0
100
AcDbArc
 50
297.1785128822
 51
302.8711521761
  0
ELLIPSE
  5
201
330
1F
100
AcDbEntity
  8
0
  6
Continuous
 62
     7
370
    15
100
AcDbEllipse
 10
181.7607584975
 20
124.1600917431
 30
0.0
 11
59.71281292103569
 21
0.0
 31
0.0
210
0.0
220
0.0
230
1.0
 40
0.2679491924
 41
4.138679145987511
 42
4.147473713512132
  0
ELLIPSE
  5
202
330
1F
100
AcDbEntity
  8
0
  6
Continuous
 62
     7
370
    15
100
AcDbEllipse
 10
152.0889684304
 20
124.1600917431
 30
0.0
 11
0.0
 21
15.99999999999997
 31
0.0
210
0.0
220
0.0
230
1.0
 40
0.2679491924
 41
2.576677386717215
 42
2.710478337602046
  0
SPLINE
  5
203
330
1F
100
AcDbEntity
  8
0
  6
Continuous
 62
     7
370
    15
100
AcDbSpline
210
0.0
220
0.0
230
1.0
 70
     8
 71
     3
 72
    12
 73
     8
 74
     0
 42
0.00000001
 43
0.00000001
 40
0.0
 40
0.0
 40
0.0
 40
0.0
 40
0.2500000000000062
 40
0.2500000000000062
 40
0.5000000000000123
 40
0.5000000000000123
 40
1.0
 40
1.0
 40
1.0
 40
1.0
 10
150.6320305597235
 20
109.5831754289127
 30
0.0
 10
150.6075716582586
 20
109.5721070670515
 30
0.0
 10
150.5763071162241
 20
109.5638983313651
 30
0.0
 10
150.507524681078
 20
109.5557150957183
 30
0.0
 10
150.469669859882
 20
109.5558766354164
 30
0.0
 10
150.3668380358848
 20
109.5691197703947
 30
0.0
 10
150.3145932518881
 20
109.5946079513318
 30
0.0
 10
150.2974240382283
 20
109.6240811888845
 30
0.0
  0
ARC
  5
204
330
1F
100
AcDbEntity
  8
0
  6
Continuous
 62
     7
370
    15
100
AcDbCircle
 10
144.0355534114
 20
124.1600917431
 30
0.0
 40
16.00000000000002
100
AcDbArc
 50
294.3481303217
 51
299.8854195167
  0
ELLIPSE
  5
205
330
1F
100
AcDbEntity
  8
0
  6
Continuous
 62
     7
370
    15
100
AcDbEllipse
 10
181.7607584975
 20
124.1600917431
 30
0.0
 11
59.71281292103799
 21
0.0
 31
0.0
210
0.0
220
0.0
230
1.0
 40
0.2679491924
 41
4.190790011477992
 42
4.199312715435735
  0
ELLIPSE
  5
206
330
1F
100
AcDbEntity
  8
0
  6
Continuous
 62
     7
370
    15
100
AcDbEllipse
 10
154.5545509789
 20
124.1600917431
 30
0.0
 11
0.0
 21
16.0
 31
0.0
210
0.0
220
0.0
230
1.0
 40
0.2679491924
 41
2.628516388640824
 42
2.75892242055641
  0
SPLINE
  5
207
330
1F
100
AcDbEntity
  8
0
  6
Continuous
 62
     7
370
    15
100
AcDbSpline
210
0.0
220
0.0
230
1.0
 70
     8
 71
     3
 72
    12
 73
     8
 74
     0
 42
0.00000001
 43
0.00000001
 40
0.0
 40
0.0
 40
0.0
 40
0.0
 40
0.2500000000000003
 40
0.2500000000000003
 40
0.5000000000000007
 40
0.5000000000000007
 40
1.0
 40
1.0
 40
1.0
 40
1.0
 10
153.2883265820184
 20
109.2815832718174
 30
0.0
 10
153.2637671642997
 20
109.2718695687153
 30
0.0
 10
153.232520485784
 20
109.2647393307969
 30
0.0
 10
153.164128531509
 20
109.2576160819065
 30
0.0
 10
153.1266463290195
 20
109.2577171686783
 30
0.0
 10
153.0241411050042
 20
109.2690683088963
 30
0.0
 10
152.9711100923011
 20
109.2912343934052
 30
0.0
 10
152.9537200605233
 20
109.3173576325786
 30
0.0
  0
ARC
  5
208
330
1F
100
AcDbEntity
  8
0
  6
Continuous
 62
     7
370
    15
100
AcDbCircle
 10
147.4036018077
 20
124.1600917431
 30
0.0
 40
16.00000000000001
100
AcDbArc
 50
291.5797117269
 51
296.986631545
  0
ELLIPSE
  5
209
330
1F
100
AcDbEntity
  8
0
  6
Continuous
 62
     7
370
    15
100
AcDbEllipse
 10
181.7607584975
 20
124.1600917431
 30
0.0
 11
59.71281292103643
 21
0.0
 31
0.0
210
0.0
220
0.0
230
1.0
 40
0.2679491924
 41
4.241383405901971
 42
4.249678503611243
  0
ELLIPSE
  5
20A
330
1F
100
AcDbEntity
  8
0
  6
Continuous
 62
     7
370
    15
100
AcDbEllipse
 10
157.0201335273
 20
124.1600917431
 30
0.0
 11
0.0
 21
16.0
 31
0.0
210
0.0
220
0.0
230
1.0
 40
0.2679491924
 41
2.67888217681633
 42
2.806438900787897
  0
SPLINE
  5
20B
330
1F
100
AcDbEntity
  8
0
  6
Continuous
 62
     7
370
    15
100
AcDbSpline
210
0.0
220
0.0
230
1.0
 70
     8
 71
     3
 72
    10
 73
     6
 74
     0
 42
0.00000001
 43
0.00000001
 40
0.0
 40
0.0
 40
0.0
 40
0.0
 40
0.5
 40
0.5
 40
1.0
 40
1.0
 40
1.0
 40
1.0
 10
155.9446226043134
 20
109.0194062716505
 30
0.0
 10
155.8953327519092
 20
109.0025658817896
 30
0.0
 10
155.8175969497036
 20
108.9955759733677
 30
0.0
 10
155.681268923532
 20
109.0084331811157
 30
0.0
 10
155.627599240321
 20
109.0274803034809
 30
0.0
 10
155.6100160828182
 20
109.0503357544968
 30
0.0
  0
ARC
  5
20C
330
1F
100
AcDbEntity
  8
0
  6
Continuous
 62
     7
370
    15
100
AcDbCircle
 10
150.771650204
 20
124.1600917431
 30
0.0
 40
16.00000000000002
100
AcDbArc
 50
288.8632651732
 51
294.1607483569
  0
ELLIPSE
  5
20D
330
1F
100
AcDbEntity
  8
0
  6
Continuous
 62
     7
370
    15
100
AcDbEllipse
 10
181.7607584975
 20
124.1600917431
 30
0.0
 11
59.71281292103495
 21
0.0
 31
0.0
210
0.0
220
0.0
230
1.0
 40
0.2679491924
 41
4.290704371811224
 42
4.298808303108553
  0
ELLIPSE
  5
20E
330
1F
100
AcDbEntity
  8
0
  6
Continuous
 62
     7
370
    15
100
AcDbEllipse
 10
159.4857160758
 20
124.1600917431
 30
0.0
 11
0.0
 21
16.0
 31
0.0
210
0.0
220
0.0
230
1.0
 40
0.2679491924
 41
2.728011976313641
 42
2.853180993196076
  0
SPLINE
  5
20F
330
1F
100
AcDbEntity
  8
0
  6
Continuous
 62
     7
370
    15
100
AcDbSpline
210
0.0
220
0.0
230
1.0
 70
     8
 71
     3
 72
    10
 73
     6
 74
     0
 42
0.00000001
 43
0.00000001
 40
0.0
 40
0.0
 40
0.0
 40
0.0
 40
0.5
 40
0.5
 40
1.0
 40
1.0
 40
1.0
 40
1.0
 10
158.6009186266083
 20
108.7946267037068
 30
0.0
 10
158.5514849286798
 20
108.7802740887613
 30
0.0
 10
158.4743032783416
 20
108.7744210995892
 30
0.0
 10
158.3382476137372
 20
108.7851903321802
 30
0.0
 10
158.2840619149665
 20
108.8012887663758
 30
0.0
 10
158.2663121051132
 20
108.8209420498886
 30
0.0
  0
ARC
  5
210
330
1F
100
AcDbEntity
  8
0
  6
Continuous
 62
     7
370
    15
100
AcDbCircle
 10
154.1396986004
 20
124.1600917431
 30
0.0
 40
16.00000000000001
100
AcDbArc
 50
286.1901642321
 51
291.3961085712
  0
ELLIPSE
  5
211
330
1F
100
AcDbEntity
  8
0
  6
Continuous
 62
     7
370
    15
100
AcDbEllipse
 10
181.7607584975
 20
124.1600917431
 30
0.0
 11
59.71281292103433
 21
0.0
 31
0.0
210
0.0
220
0.0
230
1.0
 40
0.2679491924
 41
4.338956438702541
 42
4.346899854417625
  0
ELLIPSE
  5
212
330
1F
100
AcDbEntity
  8
0
  6
Continuous
 62
     7
370
    15
100
AcDbEllipse
 10
161.9512986242
 20
124.1600917431
 30
0.0
 11
0.0
 21
16.0
 31
0.0
210
0.0
220
0.0
230
1.0
 40
0.2679491924
 41
2.776103527622725
 42
2.899283123298481
  0
SPLINE
  5
213
330
1F
100
AcDbEntity
  8
0
  6
Continuous
 62
     7
370
    15
100
AcDbSpline
210
0.0
220
0.0
230
1.0
 70
     8
 71
     3
 72
    10
 73
     6
 74
     0
 42
0.00000001
 43
0.00000001
 40
0.0
 40
0.0
 40
0.0
 40
0.0
 40
0.5
 40
0.5
 40
1.0
 40
1.0
 40
1.0
 40
1.0
 10
161.2572146489032
 20
108.6056231785881
 30
0.0
 10
161.2076620156869
 20
108.593678315634
 30
0.0
 10
161.1309405827886
 20
108.5888872980986
 30
0.0
 10
160.9950971509338
 20
108.5977154368658
 30
0.0
 10
160.9404990701562
 20
108.6110060424159
 30
0.0
 10
160.9226081274081
 20
108.6275092887081
 30
0.0
  0
ARC
  5
214
330
1F
100
AcDbEntity
  8
0
  6
Continuous
 62
     7
370
    15
100
AcDbCircle
 10
157.5077469967
 20
124.1600917431
 30
0.0
 40
16.00000000000016
100
AcDbArc
 50
283.5528230954
 51
288.68282405
  0
ELLIPSE
  5
215
330
1F
100
AcDbEntity
  8
0
  6
Continuous
 62
     7
370
    15
100
AcDbEllipse
 10
181.7607584975
 20
124.1600917431
 30
0.0
 11
59.71281292110126
 21
0.0
 31
0.0
210
0.0
220
0.0
230
1.0
 40
0.2679491924
 41
4.386312187141337
 42
4.394121381847857
  0
ELLIPSE
  5
216
330
1F
100
AcDbEntity
  8
0
  6
Continuous
 62
     7
370
    15
100
AcDbEllipse
 10
164.4168811727
 20
124.1600917431
 30
0.0
 11
0.0
 21
16.0
 31
0.0
210
0.0
220
0.0
230
1.0
 40
0.2679491924
 41
2.823325055052947
 42
2.89644341770455
  0
LINE
  5
217
330
1F
100
AcDbEntity
  8
0
  6
Continuous
 62
     7
370
    15
100
AcDbLine
 10
163.3763759084
 20
108.5041029158
 30
0.0
 11
163.3763759084
 21
108.6384741368
 31
0.0
  0
ARC
  5
218
330
1F
100
AcDbEntity
  8
0
  6
Continuous
 62
     7
370
    15
100
AcDbCircle
 10
166.6763761468
 20
124.1600917431
 30
0.0
 40
16.00000000000001
100
AcDbArc
 50
258.0973173508
 51
258.9191840587
  0
SPLINE
  5
219
330
1F
100
AcDbEntity
  8
0
  6
Continuous
 62
     7
370
    15
100
AcDbSpline
210
0.0
220
0.0
230
1.0
 70
     8
 71
     3
 72
     9
 73
     5
 74
     0
 42
0.00000001
 43
0.00000001
 40
0.0
 40
0.0
 40
0.0
 40
0.0
 40
0.4988985361902637
 40
1.0
 40
1.0
 40
1.0
 40
1.0
 10
163.6680469915092
 20
108.4454502997552
 30
0.0
 10
163.6548813118803
 20
108.447197641604
 30
0.0
 10
163.6284918184784
 20
108.4507000408337
 30
0.0
 10
163.6103651406254
 20
108.4558153378705
 30
0.0
 10
163.6012818358192
 20
108.4583786207035
 30
0.0
  0
ARC
  5
21A
330
1F
100
AcDbEntity
  8
0
  6
Continuous
 62
     7
370
    15
100
AcDbCircle
 10
166.6763761468
 20
124.1600917431
 30
0.0
 40
16.00000000000001
100
AcDbArc
 50
259.1627104598
 51
259.9213418922
  0
LINE
  5
21B
330
1F
100
AcDbEntity
  8
0
  6
Continuous
 62
     7
370
    15
100
AcDbLine
 10
163.8763769216
 20
108.4069976362
 30
0.0
 11
163.8763769216
 21
108.1600909832
 31
0.0
  0
LINE
  5
21C
330
1F
100
AcDbEntity
  8
0
  6
Continuous
 62
     7
370
    15
100
AcDbLine
 10
146.3763768471
 20
134.8612628656
 30
0.0
 11
146.3763768471
 21
113.4589206206
 31
0.0
  0
LWPOLYLINE
  5
21D
330
1F
100
AcDbEntity
  8
0
  6
Continuous
 62
     7
370
    15
100
AcDbPolyline
 90
       22
 70
   128
 43
0.0
 10
145.4217637576
 20
124.1600917431
 10
145.4361359276
 20
123.7916477851
 10
145.4779802508
 20
123.4559416783
 10
145.5435732998
 20
123.1828023458
 10
145.627090583
 20
122.9964995303
 10
145.7211094595
 20
122.9135870247
 10
145.8172778286
 20
122.9414318234
 10
145.9070498742
 20
123.0775599845
 10
145.9824478872
 20
123.3098758396
 10
146.036771933
 20
123.6177370895
 10
146.0651977606
 20
123.973788913
 10
146.0651977606
 20
124.3463945732
 10
146.036771933
 20
124.7024463967
 10
145.9824478872
 20
125.0103076466
 10
145.9070498742
 20
125.2426235017
 10
145.8172778286
 20
125.3787516628
 10
145.7211094595
 20
125.4065964616
 10
145.627090583
 20
125.323683956
 10
145.5435732998
 20
125.1373811404
 10
145.4779802508
 20
124.864241808
 10
145.4361359276
 20
124.5285357011
 10
145.4217637576
 20
124.1600917431
  0
LINE
  5
21E
330
1F
100
AcDbEntity
  8
0
  6
Continuous
 62
     7
370
    15
100
AcDbLine
 10
119.3763761468
 20
108.6600919964
 30
0.0
 11
119.3763761468
 21
139.6600914898
 31
0.0
  0
LINE
  5
21F
330
1F
100
AcDbEntity
  8
0
  6
Continuous
 62
     7
370
    15
100
AcDbLine
 10
147.1375523753
 20
137.1959050896
 30
0.0
 11
147.1375523753
 21
111.1242783966
 31
0.0
  0
LINE
  5
220
330
1F
100
AcDbEntity
  8
0
  6
Continuous
 62
     7
370
    15
100
AcDbLine
 10
116.8763762027
 20
115.1600921305
 30
0.0
 11
116.8763762027
 21
133.1600913557
 31
0.0
  0
LINE
  5
221
330
1F
100
AcDbEntity
  8
0
  6
Continuous
 62
     7
370
    15
100
AcDbLine
 10
102.8763762362
 20
115.1600921305
 30
0.0
 11
102.8763762362
 21
124.1600917431
 31
0.0
  0
SPLINE
  5
222
330
1F
100
AcDbEntity
  8
0
  6
Continuous
 62
     7
370
    15
100
AcDbSpline
210
0.0
220
0.0
230
1.0
 70
     8
 71
     3
 72
    74
 73
    70
 74
     0
 42
0.00000001
 43
0.00000001
 40
-0.0312499999999999
 40
-0.0312499999999999
 40
0.0
 40
0.0
 40
0.0156250000000001
 40
0.0156250000000001
 40
0.0312500000000002
 40
0.0312500000000002
 40
0.0468750000000003
 40
0.0468750000000003
 40
0.0625000000000004
 40
0.0625000000000004
 40
0.0937500000000006
 40
0.0937500000000006
 40
0.1250000000000009
 40
0.1250000000000009
 40
0.1562500000000011
 40
0.1562500000000011
 40
0.1875000000000013
 40
0.1875000000000013
 40
0.2500000000000016
 40
0.2500000000000016
 40
0.3125000000000018
 40
0.3125000000000018
 40
0.3750000000000021
 40
0.3750000000000021
 40
0.4062500000000022
 40
0.4062500000000022
 40
0.4218750000000021
 40
0.4218750000000021
 40
0.437500000000002
 40
0.437500000000002
 40
0.4687500000000019
 40
0.4687500000000019
 40
0.5000000000000018
 40
0.5000000000000018
 40
0.5156250000000018
 40
0.5156250000000018
 40
0.5312500000000018
 40
0.5312500000000018
 40
0.5625000000000017
 40
0.5625000000000017
 40
0.5937500000000016
 40
0.5937500000000016
 40
0.6250000000000013
 40
0.6250000000000013
 40
0.6562500000000012
 40
0.6562500000000012
 40
0.6875000000000011
 40
0.6875000000000011
 40
0.718750000000001
 40
0.718750000000001
 40
0.7500000000000009
 40
0.7500000000000009
 40
0.7812500000000008
 40
0.7812500000000008
 40
0.8125000000000007
 40
0.8125000000000007
 40
0.8437500000000006
 40
0.8437500000000006
 40
0.8750000000000003
 40
0.8750000000000003
 40
0.9062500000000002
 40
0.9062500000000002
 40
0.9375000000000001
 40
0.9375000000000001
 40
0.9531250000000001
 40
0.9531250000000001
 40
0.9687500000000001
 40
0.9687500000000001
 40
1.0
 40
1.0
 40
1.015625
 40
1.015625
 10
102.8763761467888
 20
124.4469254905539
 30
0.0
 10
102.8763761467888
 20
124.0166748694019
 30
0.0
 10
102.8864817522034
 20
123.8720961712495
 30
0.0
 10
102.925685688894
 20
123.5897590996431
 30
0.0
 10
102.9547481116281
 20
123.4507230599782
 30
0.0
 10
103.0311025085502
 20
123.176741406731
 30
0.0
 10
103.078823748268
 20
123.0409057828384
 30
0.0
 10
103.1899089650259
 20
122.7788637035689
 30
0.0
 10
103.2531578802031
 20
122.6524725258111
 30
0.0
 10
103.4641654553604
 20
122.2859290574978
 30
0.0
 10
103.63496828437
 20
122.056754376197
 30
0.0
 10
104.0128858816294
 20
121.6450241123755
 30
0.0
 10
104.2209572367053
 20
121.4600410567231
 30
0.0
 10
104.6721817703911
 20
121.1267739489127
 30
0.0
 10
104.9142072480029
 20
120.9799474781832
 30
0.0
 10
105.4158132586227
 20
120.7296408944765
 30
0.0
 10
105.677665985453
 20
120.6246574098447
 30
0.0
 10
106.4934858430237
 20
120.3700745388483
 30
0.0
 10
107.0530812859238
 20
120.2862166479462
 30
0.0
 10
108.2032044620477
 20
120.2865718331976
 30
0.0
 10
108.7623292904534
 20
120.3707203734764
 30
0.0
 10
109.8493752689213
 20
120.71056288788
 30
0.0
 10
110.3507065325792
 20
120.9574824464659
 30
0.0
 10
111.0300831030869
 20
121.458537521028
 30
0.0
 10
111.2400532370443
 20
121.6452425236194
 30
0.0
 10
111.5230613478523
 20
121.9535493538467
 30
0.0
 10
111.6123252511265
 20
122.0612770708867
 30
0.0
 10
111.7798055106125
 20
122.2877311391015
 30
0.0
 10
111.8582420767977
 20
122.407008950426
 30
0.0
 10
112.0697530536275
 20
122.7741846185268
 30
0.0
 10
112.1813955463282
 20
123.0335289055968
 30
0.0
 10
112.336264118179
 20
123.5867952152439
 30
0.0
 10
112.3758056162463
 20
123.8689744829389
 30
0.0
 10
112.3766522635196
 20
124.2964129016717
 30
0.0
 10
112.3669602880015
 20
124.4410590717766
 30
0.0
 10
112.328037235927
 20
124.7254095177955
 30
0.0
 10
112.2990622177668
 20
124.8648501746536
 30
0.0
 10
112.1852918447953
 20
125.2754909201567
 30
0.0
 10
112.0719235075934
 20
125.5413870813008
 30
0.0
 10
111.7908773375355
 20
126.0309455521896
 30
0.0
 10
111.6209056817743
 20
126.2596702722168
 30
0.0
 10
111.2414899822371
 20
126.6737439617403
 30
0.0
 10
111.033354544857
 20
126.8587516081523
 30
0.0
 10
110.584099700553
 20
127.1910392620336
 30
0.0
 10
110.3410586549462
 20
127.3388426467503
 30
0.0
 10
109.8384450052353
 20
127.5899290338799
 30
0.0
 10
109.5774494397341
 20
127.6945801562327
 30
0.0
 10
109.0360854271308
 20
127.8639311699731
 30
0.0
 10
108.7561355108224
 20
127.927980607858
 30
0.0
 10
108.1956589469077
 20
128.0124873767512
 30
0.0
 10
107.9128032516641
 20
128.0337446249338
 30
0.0
 10
107.3417451812661
 20
128.0338342710253
 30
0.0
 10
107.0535228605285
 20
128.0121352789698
 30
0.0
 10
106.4928794794336
 20
127.9272284183142
 30
0.0
 10
106.2177109114144
 20
127.864159331745
 30
0.0
 10
105.6776980004007
 20
127.6954272270448
 30
0.0
 10
105.4123934833923
 20
127.5891118316292
 30
0.0
 10
104.909566138462
 20
127.3376398485036
 30
0.0
 10
104.6689586380212
 20
127.1913999787871
 30
0.0
 10
104.2162323759867
 20
126.8562751620538
 30
0.0
 10
104.0077760490586
 20
126.6703570870881
 30
0.0
 10
103.629716434274
 20
126.2569214197259
 30
0.0
 10
103.4597472511444
 20
126.0276561645167
 30
0.0
 10
103.2501604821154
 20
125.6619455530903
 30
0.0
 10
103.1873686001297
 20
125.5358965808394
 30
0.0
 10
103.0771333926418
 20
125.2746987055635
 30
0.0
 10
103.0294985455902
 20
125.1385243834658
 30
0.0
 10
102.9155876690735
 20
124.7272189007218
 30
0.0
 10
102.8763761467888
 20
124.4469254905539
 30
0.0
 10
102.8763761467888
 20
124.0166748694019
 30
0.0
  0
LINE
  5
223
330
1F
100
AcDbEntity
  8
0
  6
Continuous
 62
     7
370
    15
100
AcDbLine
 10
102.8763762362
 20
124.1600917431
 30
0.0
 11
102.8763762362
 21
133.1600913557
 31
0.0
  0
SPLINE
  5
224
330
1F
100
AcDbEntity
  8
0
  6
Continuous
 62
     7
370
    15
100
AcDbSpline
210
0.0
220
0.0
230
1.0
 70
     8
 71
     3
 72
    26
 73
    22
 74
     0
 42
0.00000001
 43
0.00000001
 40
0.0
 40
0.0
 40
0.0
 40
0.0
 40
0.0087194092365916
 40
0.0828366834721272
 40
0.1575109253315986
 40
0.2103197933406044
 40
0.2646516545591615
 40
0.3184027082807893
 40
0.3733082510825594
 40
0.4355661581562312
 40
0.499574932494408
 40
0.5626663554212182
 40
0.6275932176769216
 40
0.690674195264944
 40
0.7556305794066671
 40
0.8058896434387538
 40
0.8574551624111932
 40
0.8978403486714339
 40
0.9393062113108147
 40
0.9797420713332079
 40
1.0
 40
1.0
 40
1.0
 40
1.0
 10
102.8763762361958
 20
133.160091355689
 30
0.0
 10
102.8768625827617
 20
133.1599246223205
 30
0.0
 10
102.881483003188
 20
133.1583406114208
 30
0.0
 10
103.0327362784689
 20
133.1056351266643
 30
0.0
 10
103.48200412519
 20
132.958527158374
 30
0.0
 10
104.0289559055434
 20
132.7978629495911
 30
0.0
 10
104.5946033704044
 20
132.6511212465847
 30
0.0
 10
105.2314044968464
 20
132.5128230679148
 30
0.0
 10
105.9503196498261
 20
132.3921650661292
 30
0.0
 10
106.7541547957752
 20
132.3053651782907
 30
0.0
 10
107.6188528078335
 20
132.2731355467886
 30
0.0
 10
108.4957473419536
 20
132.3048529451184
 30
0.0
 10
109.3440090603206
 20
132.3964764456591
 30
0.0
 10
110.1515784353494
 20
132.5366020703877
 30
0.0
 10
110.8319879850517
 20
132.693490137441
 30
0.0
 10
111.3909294278772
 20
132.8455089855356
 30
0.0
 10
111.7929361785062
 20
132.9670637278802
 30
0.0
 10
112.0901644051993
 20
133.063011402595
 30
0.0
 10
112.2776035329452
 20
133.1260368476904
 30
0.0
 10
112.3739903578905
 20
133.1592635671047
 30
0.0
 10
112.3658625825555
 20
133.1564627209935
 30
0.0
 10
112.3631497531786
 20
133.1555278750734
 30
0.0
  0
CIRCLE
  5
225
330
1F
100
AcDbEntity
  8
0
  6
Continuous
 62
     7
370
    15
100
AcDbCircle
 10
107.6263761468
 20
124.1600917431
 30
0.0
 40
3.760164906006423
  0
LINE
  5
226
330
1F
100
AcDbEntity
  8
0
  6
Continuous
 62
     7
370
    15
100
AcDbLine
 10
97.376376266
 20
116.3700915652
 30
0.0
 11
97.376376266
 21
131.950091921
 31
0.0
  0
LINE
  5
227
330
1F
100
AcDbEntity
  8
0
  6
Continuous
 62
     7
370
    15
100
AcDbLine
 10
149.3515315152
 20
111.5095414
 30
0.0
 11
149.3515315152
 21
110.7217998954
 31
0.0
  0
LINE
  5
228
330
1F
100
AcDbEntity
  8
0
  6
Continuous
 62
     7
370
    15
100
AcDbLine
 10
149.7938482709
 20
111.4843891713
 30
0.0
 11
149.7938482709
 21
110.6459483283
 31
0.0
  0
SPLINE
  5
229
330
1F
100
AcDbEntity
  8
0
  6
Continuous
 62
     7
370
    15
100
AcDbSpline
210
0.0
220
0.0
230
1.0
 70
     8
 71
     3
 72
    60
 73
    56
 74
     0
 42
0.00000001
 43
0.00000001
 40
-0.0624999999999999
 40
-0.0624999999999999
 40
0.0
 40
0.0
 40
0.0625
 40
0.0625
 40
0.0937500000000001
 40
0.0937500000000001
 40
0.1250000000000001
 40
0.1250000000000001
 40
0.1562500000000001
 40
0.1562500000000001
 40
0.1875000000000001
 40
0.1875000000000001
 40
0.2187500000000002
 40
0.2187500000000002
 40
0.2500000000000002
 40
0.2500000000000002
 40
0.2812500000000002
 40
0.2812500000000002
 40
0.3125000000000002
 40
0.3125000000000002
 40
0.3437500000000002
 40
0.3437500000000002
 40
0.3750000000000002
 40
0.3750000000000002
 40
0.4062500000000002
 40
0.4062500000000002
 40
0.4375000000000003
 40
0.4375000000000003
 40
0.5000000000000002
 40
0.5000000000000002
 40
0.5625000000000002
 40
0.5625000000000002
 40
0.5937500000000002
 40
0.5937500000000002
 40
0.6250000000000002
 40
0.6250000000000002
 40
0.6562500000000003
 40
0.6562500000000003
 40
0.6875000000000003
 40
0.6875000000000003
 40
0.75
 40
0.75
 40
0.78125
 40
0.78125
 40
0.8125
 40
0.8125
 40
0.84375
 40
0.84375
 40
0.875
 40
0.875
 40
0.9062500000000001
 40
0.9062500000000001
 40
0.9375000000000001
 40
0.9375000000000001
 40
1.0
 40
1.0
 40
1.0625
 40
1.0625
 10
105.6669660894122
 20
125.6400085345886
 30
0.0
 10
106.1374257567604
 20
126.0368065633371
 30
0.0
 10
106.4013228804044
 20
126.1860593343753
 30
0.0
 10
106.8496018305104
 20
126.3438082516319
 30
0.0
 10
107.0032792823396
 20
126.3832002912784
 30
0.0
 10
107.3196145831545
 20
126.4358680222424
 30
0.0
 10
107.4844594713059
 20
126.4489549064908
 30
0.0
 10
107.8087026655419
 20
126.446652385089
 30
0.0
 10
107.9691589232225
 20
126.431797513083
 30
0.0
 10
108.2868776542958
 20
126.3745433060026
 30
0.0
 10
108.4411621575681
 20
126.3324860270992
 30
0.0
 10
108.7350602917323
 20
126.2243925048772
 30
0.0
 10
108.8769716944926
 20
126.1573853328562
 30
0.0
 10
109.1418790170101
 20
126.0016786252497
 30
0.0
 10
109.2654804648063
 20
125.9130368622936
 30
0.0
 10
109.4958851615249
 20
125.7121025419402
 30
0.0
 10
109.6024551243027
 20
125.5994550551667
 30
0.0
 10
109.7892815180691
 20
125.3569957999849
 30
0.0
 10
109.8708614706777
 20
125.2262220992731
 30
0.0
 10
110.0076257199558
 20
124.9418653165907
 30
0.0
 10
110.0617999518439
 20
124.7889627577971
 30
0.0
 10
110.1337111484442
 20
124.475265748389
 30
0.0
 10
110.1521697268956
 20
124.3101147686767
 30
0.0
 10
110.1502596298079
 20
123.9853017563916
 30
0.0
 10
110.1303172649685
 20
123.8226083245253
 30
0.0
 10
110.0543306144678
 20
123.5073269026727
 30
0.0
 10
109.999478150228
 20
123.3578044267646
 30
0.0
 10
109.7885279357024
 20
122.9307604314934
 30
0.0
 10
109.5910140598244
 20
122.6862846990931
 30
0.0
 10
109.1254724240705
 20
122.2902889284028
 30
0.0
 10
108.8531230299112
 20
122.135551384121
 30
0.0
 10
108.4117517857506
 20
121.9789996033048
 30
0.0
 10
108.2583816731873
 20
121.9388625049604
 30
0.0
 10
107.9372260166875
 20
121.88461577003
 30
0.0
 10
107.7761825074489
 20
121.871667864645
 30
0.0
 10
107.4531634197409
 20
121.8729964753309
 30
0.0
 10
107.2891429678109
 20
121.8877098707836
 30
0.0
 10
106.9710086001476
 20
121.9444017638886
 30
0.0
 10
106.8177230361764
 20
121.9857710883748
 30
0.0
 10
106.3730141562561
 20
122.148359768982
 30
0.0
 10
106.1043565902304
 20
122.3051750074273
 30
0.0
 10
105.7568367153033
 20
122.6080391484109
 30
0.0
 10
105.6519839196992
 20
122.7187649970262
 30
0.0
 10
105.464262108523
 20
122.9619380774824
 30
0.0
 10
105.3805092991923
 20
123.0962665579643
 30
0.0
 10
105.2435424012296
 20
123.382191595325
 30
0.0
 10
105.1903665563457
 20
123.5325763478148
 30
0.0
 10
105.1180531510422
 20
123.8504536902125
 30
0.0
 10
105.1003536923154
 20
124.0130638912653
 30
0.0
 10
105.1027643829871
 20
124.3383332856081
 30
0.0
 10
105.1234765746946
 20
124.5035600362162
 30
0.0
 10
105.1998416259993
 20
124.8170300831075
 30
0.0
 10
105.2561556197573
 20
124.9693478877091
 30
0.0
 10
105.4679469149159
 20
125.3946093939892
 30
0.0
 10
105.6669660894122
 20
125.6400085345886
 30
0.0
 10
106.1374257567604
 20
126.0368065633371
 30
0.0
  0
LINE
  5
22A
330
1F
100
AcDbEntity
  8
0
  6
Continuous
 62
     7
370
    15
100
AcDbLine
 10
152.0078255482
 20
111.0712824168
 30
0.0
 11
152.0078255482
 21
110.2877141687
 31
0.0
  0
LINE
  5
22B
330
1F
100
AcDbEntity
  8
0
  6
Continuous
 62
     7
370
    15
100
AcDbLine
 10
152.4501441665
 20
111.0489111173
 30
0.0
 11
152.4501441665
 21
110.2202743071
 31
0.0
  0
LINE
  5
22C
330
1F
100
AcDbEntity
  8
0
  6
Continuous
 62
     7
370
    15
100
AcDbLine
 10
154.664125169
 20
125.0208062132
 30
0.0
 11
154.664125169
 21
121.4366882353
 31
0.0
  0
LINE
  5
22D
330
1F
100
AcDbEntity
  8
0
  6
Continuous
 62
     7
370
    15
100
AcDbLine
 10
154.664125169
 20
110.682042666
 30
0.0
 11
154.664125169
 21
109.9022928404
 31
0.0
  0
LINE
  5
22E
330
1F
100
AcDbEntity
  8
0
  6
Continuous
 62
     7
370
    15
100
AcDbLine
 10
155.106440062
 20
124.8058157519
 30
0.0
 11
155.106440062
 21
121.0362639988
 31
0.0
  0
LINE
  5
22F
330
1F
100
AcDbEntity
  8
0
  6
Continuous
 62
     7
370
    15
100
AcDbLine
 10
155.106440062
 20
110.6622148084
 30
0.0
 11
155.106440062
 21
109.8425578105
 31
0.0
  0
LINE
  5
230
330
1F
100
AcDbEntity
  8
0
  6
Continuous
 62
     7
370
    15
100
AcDbLine
 10
157.3204210646
 20
124.4135539467
 30
0.0
 11
157.3204210646
 21
120.6480189006
 31
0.0
  0
LINE
  5
231
330
1F
100
AcDbEntity
  8
0
  6
Continuous
 62
     7
370
    15
100
AcDbLine
 10
157.3204210646
 20
110.3378947603
 30
0.0
 11
157.3204210646
 21
109.5616802352
 31
0.0
  0
LINE
  5
232
330
1F
100
AcDbEntity
  8
0
  6
Continuous
 62
     7
370
    15
100
AcDbLine
 10
157.7627359576
 20
124.450304925
 30
0.0
 11
157.7627359576
 21
120.8486125118
 31
0.0
  0
LINE
  5
233
330
1F
100
AcDbEntity
  8
0
  6
Continuous
 62
     7
370
    15
100
AcDbLine
 10
157.7627359576
 20
110.3204212862
 30
0.0
 11
157.7627359576
 21
109.5090893807
 31
0.0
  0
LINE
  5
234
330
1F
100
AcDbEntity
  8
0
  6
Continuous
 62
     7
370
    15
100
AcDbLine
 10
160.4190318532
 20
110.0204376283
 30
0.0
 11
160.4190318532
 21
109.2169064807
 31
0.0
  0
LINE
  5
235
330
1F
100
AcDbEntity
  8
0
  6
Continuous
 62
     7
370
    15
100
AcDbLine
 10
159.9767169602
 20
110.0357085245
 30
0.0
 11
159.9767169602
 21
109.2628020572
 31
0.0
  0
LINE
  5
236
330
1F
100
AcDbEntity
  8
0
  6
Continuous
 62
     7
370
    15
100
AcDbLine
 10
163.0753277488
 20
109.7597809287
 30
0.0
 11
163.0753277488
 21
108.96362865
 31
0.0
  0
LINE
  5
237
330
1F
100
AcDbEntity
  8
0
  6
Continuous
 62
     7
370
    15
100
AcDbLine
 10
162.6330128558
 20
109.772970319
 30
0.0
 11
162.6330128558
 21
109.0031903016
 31
0.0
  0
LINE
  5
238
330
1F
100
AcDbEntity
  8
0
  6
Continuous
 62
     7
370
    15
100
AcDbLine
 10
163.3763759084
 20
109.6491379442
 30
0.0
 11
163.3763759084
 21
108.6384741368
 31
0.0
  0
LINE
  5
239
330
1F
100
AcDbEntity
  8
0
  6
Continuous
 62
     7
370
    15
100
AcDbLine
 10
163.6012828596
 20
108.4583787026
 30
0.0
 11
163.6012828596
 21
109.8074711638
 31
0.0
  0
LINE
  5
23A
330
1F
100
AcDbEntity
  8
0
  6
Continuous
 62
     7
370
    15
100
AcDbLine
 10
163.6680475123
 20
109.850045644
 30
0.0
 11
163.6680475123
 21
108.4454500827
 31
0.0
  0
LINE
  5
23B
330
1F
100
AcDbEntity
  8
0
  6
Continuous
 62
     7
370
    15
100
AcDbLine
 10
164.1763745494
 20
110.5968042987
 30
0.0
 11
164.1763745494
 21
108.660414234
 31
0.0
  0
SPLINE
  5
23C
330
1F
100
AcDbEntity
  8
0
  6
Continuous
 62
     7
370
    15
100
AcDbSpline
210
0.0
220
0.0
230
1.0
 70
     8
 71
     3
 72
     8
 73
     4
 74
     0
 42
0.00000001
 43
0.00000001
 40
0.0000003287604672
 40
0.0000003287604672
 40
0.0000003287604672
 40
0.0000003287604672
 40
0.0004945154037877
 40
0.0004945154037877
 40
0.0004945154037877
 40
0.0004945154037877
 10
163.8763761467889
 20
108.4069968091071
 30
0.0
 10
163.976587474701
 20
108.490966945387
 30
0.0
 10
164.0765912978226
 20
108.5754344936058
 30
0.0
 10
164.1763761467888
 20
108.6604143271212
 30
0.0
  0
LINE
  5
23D
330
1F
100
AcDbEntity
  8
0
  6
Continuous
 62
     7
370
    15
100
AcDbLine
 10
164.1763745494
 20
108.660414234
 30
0.0
 11
164.1763745494
 21
108.6446152779
 31
0.0
  0
LINE
  5
23E
330
1F
100
AcDbEntity
  8
0
  6
Continuous
 62
     7
370
    15
100
AcDbLine
 10
169.4763748593
 20
122.1600916481
 30
0.0
 11
169.4763748593
 21
126.1600918381
 31
0.0
  0
LINE
  5
23F
330
1F
100
AcDbEntity
  8
0
  6
Continuous
 62
     7
370
    15
100
AcDbLine
 10
169.6763745196
 20
122.360091774
 30
0.0
 11
169.6763745196
 21
125.9600917122
 31
0.0
  0
LINE
  5
240
330
1F
100
AcDbEntity
  8
0
  6
Continuous
 62
     8
370
     0
100
AcDbLine
 10
176.2513777859
 20
106.2663843634
 30
0.0
 11
176.181916023
 21
105.7025039347
 31
0.0
  0
LINE
  5
241
330
1F
100
AcDbEntity
  8
0
  6
Continuous
 62
     8
370
     0
100
AcDbLine
 10
184.9763764687
 20
104.7300411167
 30
0.0
 11
184.9069147057
 21
104.1661606881
 31
0.0
  0
LINE
  5
242
330
1F
100
AcDbEntity
  8
0
  6
Continuous
 62
     8
370
     0
100
AcDbLine
 10
184.9763764687
 20
104.7300411167
 30
0.0
 11
185.3763757892
 21
104.559543893
 31
0.0
  0
LINE
  5
243
330
1F
100
AcDbEntity
  8
0
  6
Continuous
 62
     8
370
     0
100
AcDbLine
 10
184.9763764687
 20
113.5774956795
 30
0.0
 11
185.3763757892
 21
113.4069993871
 31
0.0
  0
LINE
  5
244
330
1F
100
AcDbEntity
  8
0
  6
Continuous
 62
     8
370
     0
100
AcDbLine
 10
176.2513777859
 20
106.2663843634
 30
0.0
 11
176.0318687804
 21
106.1728218349
 31
0.0
  0
LINE
  5
245
330
1F
100
AcDbEntity
  8
0
  6
Continuous
 62
     8
370
     0
100
AcDbLine
 10
175.9655176349
 20
106.1445412936
 30
0.0
 11
175.8513747401
 21
106.0958871397
 31
0.0
  0
LINE
  5
246
330
1F
100
AcDbEntity
  8
0
  6
Continuous
 62
     8
370
     0
100
AcDbLine
 10
184.9763764687
 20
113.5774956795
 30
0.0
 11
185.014493639
 21
113.6998081359
 31
0.0
  0
LINE
  5
247
330
1F
100
AcDbEntity
  8
0
  6
Continuous
 62
     8
370
     0
100
AcDbLine
 10
184.9763764687
 20
134.9010983261
 30
0.0
 11
185.0458382316
 21
134.5198008942
 31
0.0
  0
LINE
  5
248
330
1F
100
AcDbEntity
  8
0
  6
Continuous
 62
     8
370
     0
100
AcDbLine
 10
176.2513777859
 20
133.3647532168
 30
0.0
 11
176.3208358235
 21
132.9834567162
 31
0.0
  0
SPLINE
  5
249
330
1F
100
AcDbEntity
  8
0
  6
Continuous
 62
     8
370
     0
100
AcDbSpline
210
0.0
220
0.0
230
1.0
 70
     8
 71
     3
 72
     9
 73
     5
 74
     0
 42
0.00000001
 43
0.00000001
 40
0.0
 40
0.0
 40
0.0
 40
0.0
 40
0.5189371141898514
 40
1.0
 40
1.0
 40
1.0
 40
1.0
 10
178.3899887151672
 20
133.593758918591
 30
0.0
 10
178.0807115837607
 20
133.5639062479003
 30
0.0
 10
177.4847296758382
 20
133.5063796808569
 30
0.0
 10
176.924643416885
 20
133.6532776264025
 30
0.0
 10
176.6552067048504
 20
133.7239447760062
 30
0.0
  0
LWPOLYLINE
  5
24A
330
1F
100
AcDbEntity
  8
0
  6
Continuous
 62
     8
370
     0
100
AcDbPolyline
 90
        3
 70
   128
 43
0.0
 10
183.5149897881
 20
134.4961965236
 10
180.6449888892
 20
133.9908320236
 10
178.3899887152
 20
133.5937589186
  0
SPLINE
  5
24B
330
1F
100
AcDbEntity
  8
0
  6
Continuous
 62
     8
370
     0
100
AcDbSpline
210
0.0
220
0.0
230
1.0
 70
     8
 71
     3
 72
     9
 73
     5
 74
     0
 42
0.00000001
 43
0.00000001
 40
0.0
 40
0.0
 40
0.0
 40
0.0
 40
0.3581851370769764
 40
1.0
 40
1.0
 40
1.0
 40
1.0
 10
184.8267315573647
 20
135.0219690951185
 30
0.0
 10
184.6834947442395
 20
134.9351013585614
 30
0.0
 10
184.2835987175811
 20
134.6925794681614
 30
0.0
 10
183.8154527975461
 20
134.5729661371815
 30
0.0
 10
183.5149897880509
 20
134.4961965235548
 30
0.0
  0
LINE
  5
24C
330
1F
100
AcDbEntity
  8
0
  6
Continuous
 62
     8
370
     0
100
AcDbLine
 10
176.2513777859
 20
133.3647532168
 30
0.0
 11
175.8513747401
 21
133.3768399211
 31
0.0
  0
LINE
  5
24D
330
1F
100
AcDbEntity
  8
0
  6
Continuous
 62
     8
370
     0
100
AcDbLine
 10
176.2513777859
 20
142.2122096422
 30
0.0
 11
175.8513747401
 21
142.2242963466
 31
0.0
  0
SPLINE
  5
24E
330
1F
100
AcDbEntity
  8
0
  6
Continuous
 62
     8
370
     0
100
AcDbSpline
210
0.0
220
0.0
230
1.0
 70
     8
 71
     3
 72
     9
 73
     5
 74
     0
 42
0.00000001
 43
0.00000001
 40
0.0
 40
0.0
 40
0.0
 40
0.0
 40
0.6418127017159739
 40
1.0
 40
1.0
 40
1.0
 40
1.0
 10
176.1013752467587
 20
140.7084328832703
 30
0.0
 10
176.1256312491117
 20
141.0166496587343
 30
0.0
 10
176.1634242100303
 20
141.4968781968109
 30
0.0
 10
176.3383594065127
 20
141.9279053992002
 30
0.0
 10
176.4010189719154
 20
142.0822938683109
 30
0.0
  0
LINE
  5
24F
330
1F
100
AcDbEntity
  8
0
  6
Continuous
 62
     8
370
     0
100
AcDbLine
 10
176.1013752468
 20
135.511502974
 30
0.0
 11
176.1013752468
 21
140.7084328833
 31
0.0
  0
SPLINE
  5
250
330
1F
100
AcDbEntity
  8
0
  6
Continuous
 62
     8
370
     0
100
AcDbSpline
210
0.0
220
0.0
230
1.0
 70
     8
 71
     3
 72
     9
 73
     5
 74
     0
 42
0.00000001
 43
0.00000001
 40
0.0
 40
0.0
 40
0.0
 40
0.0
 40
0.4810630496387421
 40
1.0
 40
1.0
 40
1.0
 40
1.0
 10
176.5441967792466
 20
133.8169652747588
 30
0.0
 10
176.4241431715676
 20
134.0726718597113
 30
0.0
 10
176.1745841838857
 20
134.6042167063682
 30
0.0
 10
176.1263867013571
 20
135.2015333148011
 30
0.0
 10
176.1013752467587
 20
135.5115029739814
 30
0.0
  0
SPLINE
  5
251
330
1F
100
AcDbEntity
  8
0
  6
Continuous
 62
     8
370
     0
100
AcDbSpline
210
0.0
220
0.0
230
1.0
 70
     8
 71
     3
 72
     9
 73
     5
 74
     0
 42
0.00000001
 43
0.00000001
 40
0.0
 40
0.0
 40
0.0
 40
0.0
 40
0.4216602504917986
 40
1.0
 40
1.0
 40
1.0
 40
1.0
 10
177.0242600388481
 20
134.2785985919313
 30
0.0
 10
177.1953893651553
 20
134.255462645083
 30
0.0
 10
177.6012358401493
 20
134.2005939520502
 30
0.0
 10
178.0239587539436
 20
134.2522847082426
 30
0.0
 10
178.2684362180187
 20
134.2821795272307
 30
0.0
  0
ARC
  5
252
330
1F
100
AcDbEntity
  8
0
  6
Continuous
 62
     8
370
     0
100
AcDbCircle
 10
248.1358396177
 20
146.2635297033
 30
0.0
 40
70.88728242676842
100
AcDbArc
 50
189.7308296768
 51
190.2958659398
  0
SPLINE
  5
253
330
1F
100
AcDbEntity
  8
0
  6
Continuous
 62
     8
370
     0
100
AcDbSpline
210
0.0
220
0.0
230
1.0
 70
     8
 71
     3
 72
    10
 73
     6
 74
     0
 42
0.00000001
 43
0.00000001
 40
0.0
 40
0.0
 40
0.0
 40
0.0
 40
0.2765315264705511
 40
0.5626693522265966
 40
1.0
 40
1.0
 40
1.0
 40
1.0
 10
176.8013759202912
 20
135.5115029739814
 30
0.0
 10
176.7402798617806
 20
135.5100097051895
 30
0.0
 10
176.615965357375
 20
135.50697129364
 30
0.0
 10
176.366193225641
 20
135.505807355976
 30
0.0
 10
176.2011453242176
 20
135.5093571519644
 30
0.0
 10
176.1013752467587
 20
135.5115029739814
 30
0.0
  0
SPLINE
  5
254
330
1F
100
AcDbEntity
  8
0
  6
Continuous
 62
     8
370
     0
100
AcDbSpline
210
0.0
220
0.0
230
1.0
 70
     8
 71
     3
 72
     9
 73
     5
 74
     0
 42
0.00000001
 43
0.00000001
 40
0.0
 40
0.0
 40
0.0
 40
0.0
 40
0.5783386021576433
 40
1.0
 40
1.0
 40
1.0
 40
1.0
 10
176.8013759202912
 20
135.5115029739814
 30
0.0
 10
176.8151412309286
 20
135.2652136709955
 30
0.0
 10
176.8389427039517
 20
134.839357084444
 30
0.0
 10
176.9692953569658
 20
134.4449182304639
 30
0.0
 10
177.0242600388481
 20
134.2785985919313
 30
0.0
  0
LINE
  5
255
330
1F
100
AcDbEntity
  8
0
  6
Continuous
 62
     8
370
     0
100
AcDbLine
 10
176.8013759203
 20
135.511502974
 30
0.0
 11
177.0513764269
 21
135.5190569314
 31
0.0
  0
LINE
  5
256
330
1F
100
AcDbEntity
  8
0
  6
Continuous
 62
     8
370
     0
100
AcDbLine
 10
178.268436218
 20
134.2821795272
 30
0.0
 11
178.2250254102
 21
134.535598919
 31
0.0
  0
SPLINE
  5
257
330
1F
100
AcDbEntity
  8
0
  6
Continuous
 62
     8
370
     0
100
AcDbSpline
210
0.0
220
0.0
230
1.0
 70
     8
 71
     3
 72
     9
 73
     5
 74
     0
 42
0.00000001
 43
0.00000001
 40
0.0
 40
0.0
 40
0.0
 40
0.0
 40
0.7645160620922306
 40
0.9999999999999999
 40
0.9999999999999999
 40
0.9999999999999999
 40
0.9999999999999999
 10
183.393433565612
 20
135.1846171321945
 30
0.0
 10
183.6329739047064
 20
135.2396850702792
 30
0.0
 10
183.9462967385508
 20
135.3117148690175
 30
0.0
 10
184.2295911008958
 20
135.4390976664602
 30
0.0
 10
184.2963023729279
 20
135.4690942692237
 30
0.0
  0
SPLINE
  5
258
330
1F
100
AcDbEntity
  8
0
  6
Continuous
 62
     8
370
     0
100
AcDbSpline
210
0.0
220
0.0
230
1.0
 70
     8
 71
     3
 72
    10
 73
     6
 74
     0
 42
0.00000001
 43
0.00000001
 40
0.0
 40
0.0
 40
0.0
 40
0.0
 40
0.2765312961271957
 40
0.5626686909567735
 40
0.9999999999999999
 40
0.9999999999999999
 40
0.9999999999999999
 40
0.9999999999999999
 10
183.393433565612
 20
135.1846171321945
 30
0.0
 10
183.4040455513231
 20
135.1230392183571
 30
0.0
 10
183.4256381601599
 20
134.9977443072351
 30
0.0
 10
183.4690050571355
 20
134.7509384401803
 30
0.0
 10
183.4976650444745
 20
134.5921705196147
 30
0.0
 10
183.5149897880509
 20
134.4961965235548
 30
0.0
  0
LINE
  5
259
330
1F
100
AcDbEntity
  8
0
  6
Continuous
 62
     8
370
     0
100
AcDbLine
 10
183.3934335656
 20
135.1846171322
 30
0.0
 11
183.3500264831
 21
135.4380355927
 31
0.0
  0
LWPOLYLINE
  5
25A
330
1F
100
AcDbEntity
  8
0
  6
Continuous
 62
     8
370
     0
100
AcDbPolyline
 90
        3
 70
   128
 43
0.0
 10
178.268436218
 20
134.2821795272
 10
181.1384371169
 20
134.7875449585
 10
183.3934335656
 20
135.1846171322
  0
LINE
  5
25B
330
1F
100
AcDbEntity
  8
0
  6
Continuous
 62
     8
370
     0
100
AcDbLine
 10
184.9763764687
 20
134.9010983261
 30
0.0
 11
185.3763757892
 21
134.9131840991
 31
0.0
  0
LINE
  5
25C
330
1F
100
AcDbEntity
  8
0
  6
Continuous
 62
     8
370
     0
100
AcDbLine
 10
184.9763764687
 20
143.7485528889
 30
0.0
 11
185.3763757892
 21
143.7606395933
 31
0.0
  0
SPLINE
  5
25D
330
1F
100
AcDbEntity
  8
0
  6
Continuous
 62
     8
370
     0
100
AcDbSpline
210
0.0
220
0.0
230
1.0
 70
     8
 71
     3
 72
     9
 73
     5
 74
     0
 42
0.00000001
 43
0.00000001
 40
0.0
 40
0.0
 40
0.0
 40
0.0
 40
0.6418124892289698
 40
0.9999999999999999
 40
0.9999999999999999
 40
0.9999999999999999
 40
0.9999999999999999
 10
185.1263790078117
 20
136.4139396476226
 30
0.0
 10
185.1021236830663
 20
136.104256341664
 30
0.0
 10
185.0643317654072
 20
135.621742661803
 30
0.0
 10
184.8893925864218
 20
135.1801441623852
 30
0.0
 10
184.8267315573647
 20
135.0219690951185
 30
0.0
  0
LINE
  5
25E
330
1F
100
AcDbEntity
  8
0
  6
Continuous
 62
     8
370
     0
100
AcDbLine
 10
185.1263790078
 20
141.6108695569
 30
0.0
 11
185.1263790078
 21
136.4139396476
 31
0.0
  0
SPLINE
  5
25F
330
1F
100
AcDbEntity
  8
0
  6
Continuous
 62
     8
370
     0
100
AcDbSpline
210
0.0
220
0.0
230
1.0
 70
     8
 71
     3
 72
     9
 73
     5
 74
     0
 42
0.00000001
 43
0.00000001
 40
0.0
 40
0.0
 40
0.0
 40
0.0
 40
0.481063245761044
 40
0.9999999999999999
 40
0.9999999999999999
 40
0.9999999999999999
 40
0.9999999999999999
 10
184.6835537500336
 20
143.2786447706299
 30
0.0
 10
184.8036088969444
 20
143.0301938669187
 30
0.0
 10
185.05317098253
 20
142.513731830169
 30
0.0
 10
185.1013678709636
 20
141.9193277045608
 30
0.0
 10
185.1263790078117
 20
141.6108695569115
 30
0.0
  0
SPLINE
  5
260
330
1F
100
AcDbEntity
  8
0
  6
Continuous
 62
     8
370
     0
100
AcDbSpline
210
0.0
220
0.0
230
1.0
 70
     8
 71
     3
 72
     9
 73
     5
 74
     0
 42
0.00000001
 43
0.00000001
 40
0.0
 40
0.0
 40
0.0
 40
0.0
 40
0.2354832493779065
 40
0.9999999999999999
 40
0.9999999999999999
 40
0.9999999999999999
 40
0.9999999999999999
 10
184.2963023729279
 20
135.4690942692237
 30
0.0
 10
184.3151703415352
 20
135.5409477520684
 30
0.0
 10
184.3952948032841
 20
135.8460797860222
 30
0.0
 10
184.412908580934
 20
136.1679015320613
 30
0.0
 10
184.426374608989
 20
136.4139396476226
 30
0.0
  0
SPLINE
  5
261
330
1F
100
AcDbEntity
  8
0
  6
Continuous
 62
     8
370
     0
100
AcDbSpline
210
0.0
220
0.0
230
1.0
 70
     8
 71
     3
 72
    10
 73
     6
 74
     0
 42
0.00000001
 43
0.00000001
 40
0.0
 40
0.0
 40
0.0
 40
0.0
 40
0.2765349981613815
 40
0.5626664402604018
 40
1.0
 40
1.0
 40
1.0
 40
1.0
 10
185.1263790078117
 20
136.4139396476226
 30
0.0
 10
185.0652816963122
 20
136.4124468618882
 30
0.0
 10
184.9409668464759
 20
136.4094094870865
 30
0.0
 10
184.6911940784249
 20
136.4082434254934
 30
0.0
 10
184.5261459604449
 20
136.4117935826779
 30
0.0
 10
184.426374608989
 20
136.4139396476226
 30
0.0
  0
LINE
  5
262
330
1F
100
AcDbEntity
  8
0
  6
Continuous
 62
     8
370
     0
100
AcDbLine
 10
184.426374609
 20
136.4139396476
 30
0.0
 11
184.1763778276
 21
136.421493605
 31
0.0
  0
LINE
  5
263
330
1F
100
AcDbEntity
  8
0
  6
Continuous
 62
     8
370
     0
100
AcDbLine
 10
176.8013759203
 20
140.7084328833
 30
0.0
 11
176.8013759203
 21
135.511502974
 31
0.0
  0
LINE
  5
264
330
1F
100
AcDbEntity
  8
0
  6
Continuous
 62
     8
370
     0
100
AcDbLine
 10
176.8013759203
 20
140.7084328833
 30
0.0
 11
177.0513764269
 21
140.7159859094
 31
0.0
  0
LINE
  5
265
330
1F
100
AcDbEntity
  8
0
  6
Continuous
 62
     8
370
     0
100
AcDbLine
 10
184.426374609
 20
141.6108695569
 30
0.0
 11
184.1763778276
 21
141.618422583
 31
0.0
  0
LINE
  5
266
330
1F
100
AcDbEntity
  8
0
  6
Continuous
 62
     8
370
     0
100
AcDbLine
 10
184.426374609
 20
136.4139396476
 30
0.0
 11
184.426374609
 21
141.6108695569
 31
0.0
  0
ARC
  5
267
330
1F
100
AcDbEntity
  8
0
  6
Continuous
 62
     8
370
     0
100
AcDbCircle
 10
176.4513755835
 20
153.0316581634
 30
0.0
 40
12.3281945774895
100
AcDbArc
 50
268.3731407828
 51
271.6268592172
  0
ARC
  5
268
330
1F
100
AcDbEntity
  8
0
  6
Continuous
 62
     8
370
     0
100
AcDbCircle
 10
184.7763768084
 20
153.9358977167
 30
0.0
 40
12.32999678340944
100
AcDbArc
 50
268.3733699766
 51
271.6266300234
  0
SPLINE
  5
269
330
1F
100
AcDbEntity
  8
0
  6
Continuous
 62
     8
370
     0
100
AcDbSpline
210
0.0
220
0.0
230
1.0
 70
     8
 71
     3
 72
     9
 73
     5
 74
     0
 42
0.00000001
 43
0.00000001
 40
0.0
 40
0.0
 40
0.0
 40
0.0
 40
0.2354842878169256
 40
0.9999999999999999
 40
0.9999999999999999
 40
0.9999999999999999
 40
0.9999999999999999
 10
176.9314518816425
 20
141.6404688509779
 30
0.0
 10
176.9125825253332
 20
141.5703829462502
 30
0.0
 10
176.8324525239465
 20
141.2727583982284
 30
0.0
 10
176.814840550621
 20
140.9529394750747
 30
0.0
 10
176.8013759202912
 20
140.7084328832703
 30
0.0
  0
SPLINE
  5
26A
330
1F
100
AcDbEntity
  8
0
  6
Continuous
 62
     8
370
     0
100
AcDbSpline
210
0.0
220
0.0
230
1.0
 70
     8
 71
     3
 72
     9
 73
     5
 74
     0
 42
0.00000001
 43
0.00000001
 40
0.0
 40
0.0
 40
0.0
 40
0.0
 40
0.7645152402423612
 40
1.0
 40
1.0
 40
1.0
 40
1.0
 10
177.8343169636681
 20
141.9377544673758
 30
0.0
 10
177.5947779662145
 20
141.8811547406784
 30
0.0
 10
177.2814565504405
 20
141.8071212568208
 30
0.0
 10
176.9981631580828
 20
141.6722329835931
 30
0.0
 10
176.9314518816425
 20
141.6404688509779
 30
0.0
  0
LINE
  5
26B
330
1F
100
AcDbEntity
  8
0
  6
Continuous
 62
     8
370
     0
100
AcDbLine
 10
177.8343169637
 20
141.9377544674
 30
0.0
 11
177.8777277715
 21
141.6994439217
 31
0.0
  0
SPLINE
  5
26C
330
1F
100
AcDbEntity
  8
0
  6
Continuous
 62
     8
370
     0
100
AcDbSpline
210
0.0
220
0.0
230
1.0
 70
     8
 71
     3
 72
     9
 73
     5
 74
     0
 42
0.00000001
 43
0.00000001
 40
0.0
 40
0.0
 40
0.0
 40
0.0
 40
0.3581876844615962
 40
1.0
 40
1.0
 40
1.0
 40
1.0
 10
176.4010189719154
 20
142.0822938683109
 30
0.0
 10
176.5442570301586
 20
142.1729485938594
 30
0.0
 10
176.9441536889687
 20
142.4260413982219
 30
0.0
 10
177.4122991919512
 20
142.5479394226791
 30
0.0
 10
177.7127607412293
 20
142.6261750760155
 30
0.0
  0
ARC
  5
26D
330
1F
100
AcDbEntity
  8
0
  6
Continuous
 62
     8
370
     0
100
AcDbCircle
 10
247.3939175742
 20
154.5750166298
 30
0.0
 40
70.69822085492692
100
AcDbArc
 50
189.7303745705
 51
190.2969223938
  0
SPLINE
  5
26E
330
1F
100
AcDbEntity
  8
0
  6
Continuous
 62
     8
370
     0
100
AcDbSpline
210
0.0
220
0.0
230
1.0
 70
     8
 71
     3
 72
     9
 73
     5
 74
     0
 42
0.00000001
 43
0.00000001
 40
0.0
 40
0.0
 40
0.0
 40
0.0
 40
0.5783388697560597
 40
1.0
 40
1.0
 40
1.0
 40
1.0
 10
184.426374608989
 20
141.6108695569115
 30
0.0
 10
184.4126093250216
 20
141.8555488556182
 30
0.0
 10
184.3888079091265
 20
142.2786214027045
 30
0.0
 10
184.2584551726324
 20
142.6613610408042
 30
0.0
 10
184.203490490432
 20
142.8227474691944
 30
0.0
  0
LINE
  5
26F
330
1F
100
AcDbEntity
  8
0
  6
Continuous
 62
     8
370
     0
100
AcDbLine
 10
182.9593180366
 20
142.840191141
 30
0.0
 11
183.0027251191
 21
142.6018805953
 31
0.0
  0
SPLINE
  5
270
330
1F
100
AcDbEntity
  8
0
  6
Continuous
 62
     8
370
     0
100
AcDbSpline
210
0.0
220
0.0
230
1.0
 70
     8
 71
     3
 72
     9
 73
     5
 74
     0
 42
0.00000001
 43
0.00000001
 40
0.0
 40
0.0
 40
0.0
 40
0.0
 40
0.4216586352582015
 40
1.0
 40
1.0
 40
1.0
 40
1.0
 10
184.203490490432
 20
142.8227474691944
 30
0.0
 10
184.0323624168653
 20
142.850816722192
 30
0.0
 10
183.6265173581914
 20
142.9173853885264
 30
0.0
 10
183.2037955462031
 20
142.8684769272557
 30
0.0
 10
182.9593180365517
 20
142.840191141017
 30
0.0
  0
LWPOLYLINE
  5
271
330
1F
100
AcDbEntity
  8
0
  6
Continuous
 62
     8
370
     0
100
AcDbPolyline
 90
        3
 70
   128
 43
0.0
 10
182.9593180366
 20
142.840191141
 10
180.0893171377
 20
142.3348275724
 10
177.8343169637
 20
141.9377544674
  0
LINE
  5
272
330
1F
100
AcDbEntity
  8
0
  6
Continuous
 62
     8
370
     0
100
AcDbLine
 10
176.2513777859
 20
142.2122096422
 30
0.0
 11
176.181916023
 21
142.6176795515
 31
0.0
  0
LINE
  5
273
330
1F
100
AcDbEntity
  8
0
  6
Continuous
 62
     8
370
     0
100
AcDbLine
 10
184.9763764687
 20
143.7485528889
 30
0.0
 11
184.9069147057
 21
144.1540227982
 31
0.0
  0
SPLINE
  5
274
330
1F
100
AcDbEntity
  8
0
  6
Continuous
 62
     8
370
     0
100
AcDbSpline
210
0.0
220
0.0
230
1.0
 70
     8
 71
     3
 72
     9
 73
     5
 74
     0
 42
0.00000001
 43
0.00000001
 40
0.0
 40
0.0
 40
0.0
 40
0.0
 40
0.5189361195533411
 40
0.9999999999999999
 40
0.9999999999999999
 40
0.9999999999999999
 40
0.9999999999999999
 10
182.8377618141129
 20
143.5286117496567
 30
0.0
 10
183.1470388953378
 20
143.5569533596803
 30
0.0
 10
183.743021848868
 20
143.6115681936757
 30
0.0
 10
184.3031095748626
 20
143.4495893183447
 30
0.0
 10
184.57254754972
 20
143.3716671320276
 30
0.0
  0
LWPOLYLINE
  5
275
330
1F
100
AcDbEntity
  8
0
  6
Continuous
 62
     8
370
     0
100
AcDbPolyline
 90
        3
 70
   128
 43
0.0
 10
177.7127607412
 20
142.626175076
 10
180.5827616401
 20
143.1315405073
 10
182.8377618141
 20
143.5286117497
  0
SPLINE
  5
276
330
1F
100
AcDbEntity
  8
0
  6
Continuous
 62
     8
370
     0
100
AcDbSpline
210
0.0
220
0.0
230
1.0
 70
     8
 71
     3
 72
    10
 73
     6
 74
     0
 42
0.00000001
 43
0.00000001
 40
0.0
 40
0.0
 40
0.0
 40
0.0
 40
0.2765284256072981
 40
0.562667047315237
 40
1.0
 40
1.0
 40
1.0
 40
1.0
 10
182.8377618141129
 20
143.5286117496567
 30
0.0
 10
182.8483708003999
 20
143.4670340563404
 30
0.0
 10
182.8699574672174
 20
143.3417386593023
 30
0.0
 10
182.9133253931184
 20
143.0949328327042
 30
0.0
 10
182.941990314196
 20
142.9361650398077
 30
0.0
 10
182.9593180365517
 20
142.840191141017
 30
0.0
  0
CIRCLE
  5
277
330
1F
100
AcDbEntity
  8
0
  6
Continuous
 62
     8
370
     0
100
AcDbCircle
 10
180.6110901011
 20
138.4988115988
 30
0.0
 40
2.940965349218458
  0
LINE
  5
278
330
1F
100
AcDbEntity
  8
0
  6
Continuous
 62
     8
370
     0
100
AcDbLine
 10
179.5388421662
 20
137.3313929665
 30
0.0
 11
179.5388421662
 21
137.4026633578
 31
0.0
  0
LINE
  5
279
330
1F
100
AcDbEntity
  8
0
  6
Continuous
 62
     8
370
     0
100
AcDbLine
 10
181.5225555248
 20
137.3332407104
 30
0.0
 11
181.5225555248
 21
137.4044840934
 31
0.0
  0
LINE
  5
27A
330
1F
100
AcDbEntity
  8
0
  6
Continuous
 62
     8
370
     0
100
AcDbLine
 10
179.1104933865
 20
138.7209448742
 30
0.0
 11
179.1104933865
 21
138.7922096776
 31
0.0
  0
LINE
  5
27B
330
1F
100
AcDbEntity
  8
0
  6
Continuous
 62
     8
370
     0
100
AcDbLine
 10
181.9483115025
 20
138.7235870364
 30
0.0
 11
181.9483115025
 21
138.7948127242
 31
0.0
  0
LINE
  5
27C
330
1F
100
AcDbEntity
  8
0
  6
Continuous
 62
     8
370
     0
100
AcDbLine
 10
180.101357276
 20
139.78617394
 30
0.0
 11
180.101357276
 21
139.8574163916
 31
0.0
  0
LINE
  5
27D
330
1F
100
AcDbEntity
  8
0
  6
Continuous
 62
     8
370
     0
100
AcDbLine
 10
180.9554620333
 20
139.7869692894
 30
0.0
 11
180.9554620333
 21
139.8582005652
 31
0.0
  0
LINE
  5
27E
330
1F
100
AcDbEntity
  8
0
  6
Continuous
 62
     8
370
     0
100
AcDbLine
 10
163.9981678374
 20
123.7100917508
 30
0.0
 11
162.7701668687
 21
123.7100917508
 31
0.0
  0
LINE
  5
27F
330
1F
100
AcDbEntity
  8
0
  6
Continuous
 62
     8
370
     0
100
AcDbLine
 10
151.4131313808
 20
123.7100917508
 30
0.0
 11
151.5329963214
 21
123.7100917508
 31
0.0
  0
ELLIPSE
  5
280
330
1F
100
AcDbEntity
  8
0
  6
Continuous
 62
     8
370
     0
100
AcDbEllipse
 10
175.1105174873
 20
124.9100917431
 30
0.0
 11
0.0
 21
15.99999999999997
 31
0.0
210
0.0
220
0.0
230
1.0
 40
0.5593080733
 41
0.2457942017915399
 42
0.6922339659697418
  0
ELLIPSE
  5
281
330
1F
100
AcDbEntity
  8
0
  6
Continuous
 62
     8
370
     0
100
AcDbEllipse
 10
183.5274656407
 20
124.9100917431
 30
0.0
 11
22.13629410450292
 21
0.0
 31
0.0
210
0.0
220
0.0
230
1.0
 40
0.7227948782
 41
2.263030292764634
 42
2.530026822995844
  0
LINE
  5
282
330
1F
100
AcDbEntity
  8
0
  6
Continuous
 62
     8
370
     0
100
AcDbLine
 10
163.9981678374
 20
131.1100915785
 30
0.0
 11
162.7701668687
 21
131.1100915785
 31
0.0
  0
LINE
  5
283
330
1F
100
AcDbEntity
  8
0
  6
Continuous
 62
     8
370
     0
100
AcDbLine
 10
151.4130904026
 20
131.1100915785
 30
0.0
 11
151.532914365
 21
131.1100915785
 31
0.0
  0
ELLIPSE
  5
284
330
1F
100
AcDbEntity
  8
0
  6
Continuous
 62
     8
370
     0
100
AcDbEllipse
 10
183.8142538588
 20
124.9100917431
 30
0.0
 11
22.13629410450289
 21
0.0
 31
0.0
210
0.0
220
0.0
230
1.0
 40
0.7002075382
 41
2.259149141403845
 42
2.530004234896024
  0
LINE
  5
285
330
1F
100
AcDbEntity
  8
0
  6
Continuous
 62
     8
370
     0
100
AcDbLine
 10
167.8688971944
 20
127.0100917912
 30
0.0
 11
169.7763762124
 21
127.0100917912
 31
0.0
  0
ELLIPSE
  5
286
330
1F
100
AcDbEntity
  8
0
  6
Continuous
 62
     8
370
     0
100
AcDbEllipse
 10
167.8688964231
 20
124.5100917431
 30
0.0
 11
0.0
 21
2.5
 31
0.0
210
0.0
220
0.0
230
1.0
 40
0.8717233978
 41
0.0
 42
1.542665700748536
  0
LWPOLYLINE
  5
287
330
1F
100
AcDbEntity
  8
0
  6
Continuous
 62
     8
370
     0
100
AcDbPolyline
 90
        9
 70
   128
 43
0.0
 10
167.8688971944
 20
127.0100917912
 10
167.86338749
 20
126.9125466945
 10
167.8470669932
 20
126.8187499384
 10
167.820565278
 20
126.7323066725
 10
167.7848993487
 20
126.6565384588
 10
167.7414401121
 20
126.5943568444
 10
167.6918564982
 20
126.5481520689
 10
167.638059581
 20
126.5196990001
 10
167.582109446
 20
126.5100917092
  0
LINE
  5
288
330
1F
100
AcDbEntity
  8
0
  6
Continuous
 62
     8
370
     0
100
AcDbLine
 10
165.6904480107
 20
124.5100917306
 30
0.0
 11
165.9028007336
 21
124.5100917306
 31
0.0
  0
ELLIPSE
  5
289
330
1F
100
AcDbEntity
  8
0
  6
Continuous
 62
     8
370
     0
100
AcDbEllipse
 10
162.0022490839
 20
124.9100917431
 30
0.0
 11
0.0
 21
15.99999999999997
 31
0.0
210
0.0
220
0.0
230
1.0
 40
0.2595757802
 41
3.444171533941751
 42
4.100823149790759
  0
LINE
  5
28A
330
1F
100
AcDbEntity
  8
0
  6
Continuous
 62
     8
370
     0
100
AcDbLine
 10
159.0145862348
 20
123.7100917508
 30
0.0
 11
160.1621693618
 21
123.7100917508
 31
0.0
  0
ELLIPSE
  5
28B
330
1F
100
AcDbEntity
  8
0
  6
Continuous
 62
     8
370
     0
100
AcDbEllipse
 10
175.5435301892
 20
124.9100917431
 30
0.0
 11
0.0
 21
15.49999999999997
 31
0.0
210
0.0
220
0.0
230
1.0
 40
0.5773502692
 41
0.2399828116837389
 42
0.7003062097086922
  0
LINE
  5
28C
330
1F
100
AcDbEntity
  8
0
  6
Continuous
 62
     8
370
     0
100
AcDbLine
 10
169.7763762124
 20
127.0100917912
 30
0.0
 11
173.776376868
 21
127.0100917912
 31
0.0
  0
ELLIPSE
  5
28D
330
1F
100
AcDbEntity
  8
0
  6
Continuous
 62
     8
370
     0
100
AcDbEllipse
 10
184.3570474689
 20
124.9100917431
 30
0.0
 11
0.0
 21
21.58862017442775
 31
0.0
210
0.0
220
0.0
230
1.0
 40
0.7071067812
 41
0.7657972065975425
 42
0.7990396710580817
  0
SPLINE
  5
28E
330
1F
100
AcDbEntity
  8
0
  6
Continuous
 62
     8
370
     0
100
AcDbSpline
210
0.0
220
0.0
230
1.0
 70
     8
 71
     3
 72
     9
 73
     5
 74
     0
 42
0.00000001
 43
0.00000001
 40
0.0
 40
0.0
 40
0.0
 40
0.0
 40
0.6021733294725456
 40
1.0
 40
1.0
 40
1.0
 40
1.0
 10
172.7763748414471
 20
140.5207918735819
 30
0.0
 10
172.9113332463761
 20
140.7093235578328
 30
0.0
 10
173.1354521143559
 20
141.0224089686663
 30
0.0
 10
173.3661474105429
 20
141.3157871354707
 30
0.0
 10
173.4579241521313
 20
141.432500794776
 30
0.0
  0
ARC
  5
28F
330
1F
100
AcDbEntity
  8
0
  6
Continuous
 62
     8
370
     0
100
AcDbCircle
 10
173.682929787
 20
141.1348939733
 30
0.0
 40
0.3730916187230078
100
AcDbArc
 50
75.4948605703
 51
127.0911031142
  0
LINE
  5
290
330
1F
100
AcDbEntity
  8
0
  6
Continuous
 62
     8
370
     0
100
AcDbLine
 10
173.4579241521
 20
141.4325007948
 30
0.0
 11
173.6537514873
 21
141.6654078069
 31
0.0
  0
LINE
  5
291
330
1F
100
AcDbEntity
  8
0
  6
Continuous
 62
     8
370
     0
100
AcDbLine
 10
174.7763751693
 20
126.5100917092
 30
0.0
 11
174.7763751693
 21
141.9861757907
 31
0.0
  0
ARC
  5
292
330
1F
100
AcDbEntity
  8
0
  6
Continuous
 62
     8
370
     0
100
AcDbCircle
 10
167.5395822564
 20
113.5869480194
 30
0.0
 40
0.5672136195333126
100
AcDbArc
 50
205.2256140751
 51
266.9519512987
  0
LINE
  5
293
330
1F
100
AcDbEntity
  8
0
  6
Continuous
 62
     8
370
     0
100
AcDbLine
 10
167.6388307161
 20
113.3452107909
 30
0.0
 11
167.0264600463
 21
113.3452107909
 31
0.0
  0
ARC
  5
294
330
1F
100
AcDbEntity
  8
0
  6
Continuous
 62
     8
370
     0
100
AcDbCircle
 10
165.991895155
 20
113.8135223258
 30
0.0
 40
1.712224411774188
100
AcDbArc
 50
332.4106211196
 51
344.1267243982
  0
LINE
  5
295
330
1F
100
AcDbEntity
  8
0
  6
Continuous
 62
     8
370
     0
100
AcDbLine
 10
167.6388307161
 20
121.3100916951
 30
0.0
 11
167.6388307161
 21
113.3452107909
 31
0.0
  0
LINE
  5
296
330
1F
100
AcDbEntity
  8
0
  6
Continuous
 62
     8
370
     0
100
AcDbLine
 10
167.0264600463
 20
113.3452107909
 30
0.0
 11
167.0264600463
 21
121.3100916951
 31
0.0
  0
LINE
  5
297
330
1F
100
AcDbEntity
  8
0
  6
Continuous
 62
     8
370
     0
100
AcDbLine
 10
167.6388307161
 20
121.3100916951
 30
0.0
 11
167.0264600463
 21
121.3100916951
 31
0.0
  0
ARC
  5
298
330
1F
100
AcDbEntity
  8
0
  6
Continuous
 62
     8
370
     0
100
AcDbCircle
 10
167.518088823
 20
121.3184680426
 30
0.0
 40
0.4917001294307065
100
AcDbArc
 50
91.0100100328
 51
180.9761083047
  0
ARC
  5
299
330
1F
100
AcDbEntity
  8
0
  6
Continuous
 62
     8
370
     0
100
AcDbCircle
 10
167.0588253021
 20
121.4267224848
 30
0.0
 40
0.5916156027645371
100
AcDbArc
 50
348.6302670129
 51
40.3912824537
  0
ELLIPSE
  5
29A
330
1F
100
AcDbEntity
  8
0
  6
Continuous
 62
     8
370
     0
100
AcDbEllipse
 10
211.5014464324
 20
123.4100917431
 30
0.0
 11
57.84678751731732
 21
0.0
 31
0.0
210
0.0
220
0.0
230
1.0
 40
0.2765927148
 41
3.848318361844121
 42
3.980410400071336
  0
ELLIPSE
  5
29B
330
1F
100
AcDbEntity
  8
0
  6
Continuous
 62
     8
370
     0
100
AcDbEllipse
 10
211.6308559549
 20
123.4100917431
 30
0.0
 11
57.8467875173173
 21
0.0
 31
0.0
210
0.0
220
0.0
230
1.0
 40
0.2679491924
 41
3.848318361844123
 42
3.98374070456708
  0
LINE
  5
29C
330
1F
100
AcDbEntity
  8
0
  6
Continuous
 62
     8
370
     0
100
AcDbLine
 10
179.9895538635
 20
121.3100916951
 30
0.0
 11
167.6388307161
 21
121.3100916951
 31
0.0
  0
LINE
  5
29D
330
1F
100
AcDbEntity
  8
0
  6
Continuous
 62
     8
370
     0
100
AcDbLine
 10
184.1541229434
 20
117.1455223824
 30
0.0
 11
179.9895538635
 21
121.3100916951
 31
0.0
  0
SPLINE
  5
29E
330
1F
100
AcDbEntity
  8
0
  6
Continuous
 62
     8
370
     0
100
AcDbSpline
210
0.0
220
0.0
230
1.0
 70
     8
 71
     3
 72
     9
 73
     5
 74
     0
 42
0.00000001
 43
0.00000001
 40
0.0
 40
0.0
 40
0.0
 40
0.0
 40
0.7761139908391482
 40
1.0
 40
1.0
 40
1.0
 40
1.0
 10
173.112891489978
 20
111.8459267320709
 30
0.0
 10
173.4053919451777
 20
111.3924993171677
 30
0.0
 10
173.7822701597855
 20
110.8082714585602
 30
0.0
 10
174.1749840793676
 20
110.2353952724455
 30
0.0
 10
174.2629072315647
 20
110.1071363093929
 30
0.0
  0
ARC
  5
29F
330
1F
100
AcDbEntity
  8
0
  6
Continuous
 62
     8
370
     0
100
AcDbCircle
 10
179.4095023882
 20
121.4267105633
 30
0.0
 40
0.5916584102643537
100
AcDbArc
 50
348.6322781745
 51
40.389271292
  0
ELLIPSE
  5
2A0
330
1F
100
AcDbEntity
  8
0
  6
Continuous
 62
     8
370
     0
100
AcDbEllipse
 10
163.867973262
 20
123.4100917431
 30
0.0
 11
0.0
 21
15.5
 31
0.0
210
0.0
220
0.0
230
1.0
 40
0.2679491924
 41
3.28861141294064
 42
4.005663272130417
  0
ELLIPSE
  5
2A1
330
1F
100
AcDbEntity
  8
0
  6
Continuous
 62
     8
370
     0
100
AcDbEllipse
 10
164.3509361752
 20
123.4100917431
 30
0.0
 11
0.0
 21
16.0
 31
0.0
210
0.0
220
0.0
230
1.0
 40
0.2595757802
 41
3.292160926366532
 42
4.005663272130417
  0
LINE
  5
2A2
330
1F
100
AcDbEntity
  8
0
  6
Continuous
 62
     8
370
     0
100
AcDbLine
 10
167.0264600463
 20
121.3100916951
 30
0.0
 11
165.9028007336
 21
121.3100916951
 31
0.0
  0
SPLINE
  5
2A3
330
1F
100
AcDbEntity
  8
0
  6
Continuous
 62
     8
370
     0
100
AcDbSpline
210
0.0
220
0.0
230
1.0
 70
     8
 71
     3
 72
     9
 73
     5
 74
     0
 42
0.00000001
 43
0.00000001
 40
0.0
 40
0.0
 40
0.0
 40
0.0
 40
0.1346420927406764
 40
1.0
 40
1.0
 40
1.0
 40
1.0
 10
173.6346593744709
 20
110.0388098287063
 30
0.0
 10
173.5953743973109
 20
110.0970951635023
 30
0.0
 10
173.303601027183
 20
110.5299860493288
 30
0.0
 10
173.0209602622745
 20
110.9693394491338
 30
0.0
 10
172.7763748414471
 20
111.3495373877363
 30
0.0
  0
ARC
  5
2A4
330
1F
100
AcDbEntity
  8
0
  6
Continuous
 62
     8
370
     0
100
AcDbCircle
 10
179.6364849265
 20
121.7817549239
 30
0.0
 40
0.5891721953748438
100
AcDbArc
 50
306.8171126576
 51
348.4356995881
  0
LINE
  5
2A5
330
1F
100
AcDbEntity
  8
0
  6
Continuous
 62
     8
370
     0
100
AcDbLine
 10
119.8763761705
 20
108.1600909832
 30
0.0
 11
119.8763761705
 21
140.1600925031
 31
0.0
  0
LINE
  5
2A6
330
1F
100
AcDbEntity
  8
0
  6
Continuous
 62
     8
370
     0
100
AcDbLine
 10
118.9763761569
 20
115.510091536
 30
0.0
 11
118.9763761569
 21
132.8100919502
 31
0.0
  0
LINE
  5
2A7
330
1F
100
AcDbEntity
  8
0
  6
Continuous
 62
     8
370
     0
100
AcDbLine
 10
147.6411278046
 20
129.8291742581
 30
0.0
 11
147.6411278046
 21
119.9910090084
 31
0.0
  0
LINE
  5
2A8
330
1F
100
AcDbEntity
  8
0
  6
Continuous
 62
     8
370
     0
100
AcDbLine
 10
147.6411278046
 20
110.8181349712
 30
0.0
 11
147.6411278046
 21
109.9730808067
 31
0.0
  0
LINE
  5
2A9
330
1F
100
AcDbEntity
  8
0
  6
Continuous
 62
     8
370
     0
100
AcDbLine
 10
118.1062939496
 20
115.4896471428
 30
0.0
 11
118.1062939496
 21
132.8305363434
 31
0.0
  0
LINE
  5
2AA
330
1F
100
AcDbEntity
  8
0
  6
Continuous
 62
     8
370
     0
100
AcDbLine
 10
99.8922678329
 20
115.5532378482
 30
0.0
 11
99.8922678329
 21
132.766945638
 31
0.0
  0
LINE
  5
2AB
330
1F
100
AcDbEntity
  8
0
  6
Continuous
 62
     8
370
     0
100
AcDbLine
 10
99.1763769336
 20
115.3308613005
 30
0.0
 11
99.1763769336
 21
132.9893221858
 31
0.0
  0
LINE
  5
2AC
330
1F
100
AcDbEntity
  8
0
  6
Continuous
 62
     8
370
     0
100
AcDbLine
 10
99.3877741195
 20
115.4529120552
 30
0.0
 11
99.3877741195
 21
132.867271431
 31
0.0
  0
LINE
  5
2AD
330
1F
100
AcDbEntity
  8
0
  6
Continuous
 62
     8
370
     0
100
AcDbLine
 10
147.9757352419
 20
110.7702919992
 30
0.0
 11
147.9757352419
 21
109.9266879039
 31
0.0
  0
LINE
  5
2AE
330
1F
100
AcDbEntity
  8
0
  6
Continuous
 62
     8
370
     0
100
AcDbLine
 10
118.2615854697
 20
115.510091536
 30
0.0
 11
118.2615854697
 21
132.8100919502
 31
0.0
  0
LINE
  5
2AF
330
1F
100
AcDbEntity
  8
0
  6
Continuous
 62
     8
370
     0
100
AcDbLine
 10
150.2974237002
 20
110.4579953256
 30
0.0
 11
150.2974237002
 21
109.6240816417
 31
0.0
  0
LINE
  5
2B0
330
1F
100
AcDbEntity
  8
0
  6
Continuous
 62
     8
370
     0
100
AcDbLine
 10
150.6320311375
 20
110.4157421517
 30
0.0
 11
150.6320311375
 21
109.5831751602
 31
0.0
  0
LINE
  5
2B1
330
1F
100
AcDbEntity
  8
0
  6
Continuous
 62
     8
370
     0
100
AcDbLine
 10
152.9537214584
 20
110.1408753323
 30
0.0
 11
152.9537214584
 21
109.3173580023
 31
0.0
  0
LINE
  5
2B2
330
1F
100
AcDbEntity
  8
0
  6
Continuous
 62
     8
370
     0
100
AcDbLine
 10
153.288327033
 20
110.1038357022
 30
0.0
 11
153.288327033
 21
109.2815831083
 31
0.0
  0
LINE
  5
2B3
330
1F
100
AcDbEntity
  8
0
  6
Continuous
 62
     8
370
     0
100
AcDbLine
 10
155.610017354
 20
124.6225156658
 30
0.0
 11
155.610017354
 21
120.7277801598
 31
0.0
  0
LINE
  5
2B4
330
1F
100
AcDbEntity
  8
0
  6
Continuous
 62
     8
370
     0
100
AcDbLine
 10
155.610017354
 20
109.8640536668
 30
0.0
 11
155.610017354
 21
109.050335713
 31
0.0
  0
LINE
  5
2B5
330
1F
100
AcDbEntity
  8
0
  6
Continuous
 62
     8
370
     0
100
AcDbLine
 10
155.9446229286
 20
124.5335569559
 30
0.0
 11
155.9446229286
 21
120.5871199502
 31
0.0
  0
LINE
  5
2B6
330
1F
100
AcDbEntity
  8
0
  6
Continuous
 62
     8
370
     0
100
AcDbLine
 10
155.9446229286
 20
109.8319267633
 30
0.0
 11
155.9446229286
 21
109.0194064903
 31
0.0
  0
LINE
  5
2B7
330
1F
100
AcDbEntity
  8
0
  6
Continuous
 62
     8
370
     0
100
AcDbLine
 10
158.2663132496
 20
124.5420991921
 30
0.0
 11
158.2663132496
 21
121.7163942068
 31
0.0
  0
LINE
  5
2B8
330
1F
100
AcDbEntity
  8
0
  6
Continuous
 62
     8
370
     0
100
AcDbLine
 10
158.2663132496
 20
109.6253426524
 30
0.0
 11
158.2663132496
 21
108.8209416496
 31
0.0
  0
LINE
  5
2B9
330
1F
100
AcDbEntity
  8
0
  6
Continuous
 62
     8
370
     0
100
AcDbLine
 10
158.6009188242
 20
124.6338285576
 30
0.0
 11
158.6009188242
 21
122.2842794389
 31
0.0
  0
LINE
  5
2BA
330
1F
100
AcDbEntity
  8
0
  6
Continuous
 62
     8
370
     0
100
AcDbLine
 10
158.6009188242
 20
109.5978826063
 30
0.0
 11
158.6009188242
 21
108.7946271303
 31
0.0
  0
LINE
  5
2BB
330
1F
100
AcDbEntity
  8
0
  6
Continuous
 62
     8
370
     0
100
AcDbLine
 10
160.9226091452
 20
109.4229783642
 30
0.0
 11
160.9226091452
 21
108.6275096762
 31
0.0
  0
LINE
  5
2BC
330
1F
100
AcDbEntity
  8
0
  6
Continuous
 62
     8
370
     0
100
AcDbLine
 10
161.2572147198
 20
109.3999905291
 30
0.0
 11
161.2572147198
 21
108.6056235957
 31
0.0
  0
LINE
  5
2BD
330
1F
100
AcDbEntity
  8
0
  6
HIDDEN
 62
     7
370
     0
100
AcDbLine
 10
163.8763769216
 20
139.91318585
 30
0.0
 11
163.8763769216
 21
140.1600925031
 31
0.0
  0
LINE
  5
2BE
330
1F
100
AcDbEntity
  8
0
  6
HIDDEN
 62
     7
370
     0
100
AcDbLine
 10
163.8763769216
 20
108.1600909832
 30
0.0
 11
163.8763769216
 21
108.4069976362
 31
0.0
  0
LINE
  5
2BF
330
1F
100
AcDbEntity
  8
0
  6
HIDDEN
 62
     7
370
     0
100
AcDbLine
 10
119.3763761468
 20
139.6600914898
 30
0.0
 11
119.3763761468
 21
108.6600919964
 31
0.0
  0
ARC
  5
2C0
330
1F
100
AcDbEntity
  8
0
  6
HIDDEN
 62
     7
370
     0
100
AcDbCircle
 10
134.1763761468
 20
124.1600917431
 30
0.0
 40
1.25
100
AcDbArc
 50
270.0
 51
90.0
  0
LWPOLYLINE
  5
2C1
330
1F
100
AcDbEntity
  8
0
  6
HIDDEN
 62
     7
370
     0
100
AcDbPolyline
 90
       22
 70
   128
 43
0.0
 10
131.8988016493
 20
124.1600917431
 10
131.9131747506
 20
123.7916477851
 10
131.9550181426
 20
123.4559416783
 10
132.0206121228
 20
123.1828023458
 10
132.104129406
 20
122.9964995303
 10
132.1981482826
 20
122.9135870247
 10
132.2943166516
 20
122.9414318234
 10
132.3840877659
 20
123.0775599845
 10
132.4594857789
 20
123.3098758396
 10
132.513810756
 20
123.6177370895
 10
132.5422356523
 20
123.973788913
 10
132.5422356523
 20
124.3463945732
 10
132.513810756
 20
124.7024463967
 10
132.4594857789
 20
125.0103076466
 10
132.3840877659
 20
125.2426235017
 10
132.2943166516
 20
125.3787516628
 10
132.1981482826
 20
125.4065964616
 10
132.104129406
 20
125.323683956
 10
132.0206121228
 20
125.1373811404
 10
131.9550181426
 20
124.864241808
 10
131.9131747506
 20
124.5285357011
 10
131.8988016493
 20
124.1600917431
  0
ARC
  5
2C2
330
1F
100
AcDbEntity
  8
0
  6
HIDDEN
 62
     7
370
     0
100
AcDbCircle
 10
134.1763761468
 20
124.1600917431
 30
0.0
 40
1.25
100
AcDbArc
 50
90.0
 51
270.0
  0
LINE
  5
2C3
330
1F
100
AcDbEntity
  8
0
  6
HIDDEN
 62
     7
370
     0
100
AcDbLine
 10
119.3763761468
 20
113.4450616094
 30
0.0
 11
119.3763761468
 21
134.8751218768
 31
0.0
  0
LINE
  5
2C4
330
1F
100
AcDbEntity
  8
0
  6
HIDDEN
 62
     7
370
     0
100
AcDbLine
 10
116.8763762027
 20
133.1600913557
 30
0.0
 11
116.8763762027
 21
115.1600921305
 31
0.0
  0
LINE
  5
2C5
330
1F
100
AcDbEntity
  8
0
  6
HIDDEN
 62
     7
370
     0
100
AcDbLine
 10
102.8763762362
 20
133.1600913557
 30
0.0
 11
102.8763762362
 21
115.1600921305
 31
0.0
  0
ARC
  5
2C6
330
1F
100
AcDbEntity
  8
0
  6
HIDDEN
 62
     7
370
     0
100
AcDbCircle
 10
107.6260140319
 20
146.1527534844
 30
0.0
 40
13.83359419610471
100
AcDbArc
 50
249.9194529128
 51
290.0254244138
  0
LINE
  5
2C7
330
1F
100
AcDbEntity
  8
0
  6
HIDDEN
 62
     7
370
     0
100
AcDbLine
 10
97.376376266
 20
131.950091921
 30
0.0
 11
97.376376266
 21
116.3700915652
 31
0.0
  0
LINE
  5
2C8
330
1F
100
AcDbEntity
  8
0
  6
HIDDEN
 62
     7
370
     0
100
AcDbLine
 10
164.1763745494
 20
122.1458866506
 30
0.0
 11
164.1763745494
 21
122.1600916481
 31
0.0
  0
LINE
  5
2C9
330
1F
100
AcDbEntity
  8
0
  6
HIDDEN
 62
     7
370
     0
100
AcDbLine
 10
164.1763745494
 20
126.1742968357
 30
0.0
 11
164.1763745494
 21
126.1600918381
 31
0.0
  0
LINE
  5
2CA
330
1F
100
AcDbEntity
  8
0
  6
HIDDEN
 62
     7
370
     0
100
AcDbLine
 10
111.3865411527
 20
132.1702565777
 30
0.0
 11
103.8662110142
 21
132.1702565777
 31
0.0
  0
LINE
  5
2CB
330
1F
100
AcDbEntity
  8
0
  6
HIDDEN
 62
     7
370
     0
100
AcDbLine
 10
98.415607462
 20
127.5600917882
 30
0.0
 11
98.415607462
 21
120.760091698
 31
0.0
  0
LINE
  5
2CC
330
1F
100
AcDbEntity
  8
0
  6
HIDDEN
 62
     7
370
     0
100
AcDbLine
 10
97.376376266
 20
120.1600915531
 30
0.0
 11
97.376376266
 21
128.147120938
 31
0.0
  0
SPLINE
  5
2CD
330
1F
100
AcDbEntity
  8
0
  6
HIDDEN
 62
     7
370
     0
100
AcDbSpline
210
0.0
220
0.0
230
1.0
 70
     8
 71
     3
 72
    60
 73
    56
 74
     0
 42
0.00000001
 43
0.00000001
 40
-0.0624999999999996
 40
-0.0624999999999996
 40
0.0
 40
0.0
 40
0.0625000000000002
 40
0.0625000000000002
 40
0.0937500000000003
 40
0.0937500000000003
 40
0.1250000000000004
 40
0.1250000000000004
 40
0.1562500000000005
 40
0.1562500000000005
 40
0.1875000000000006
 40
0.1875000000000006
 40
0.2187500000000007
 40
0.2187500000000007
 40
0.2500000000000008
 40
0.2500000000000008
 40
0.2812500000000009
 40
0.2812500000000009
 40
0.312500000000001
 40
0.312500000000001
 40
0.3437500000000011
 40
0.3437500000000011
 40
0.3750000000000012
 40
0.3750000000000012
 40
0.4062500000000013
 40
0.4062500000000013
 40
0.4375000000000014
 40
0.4375000000000014
 40
0.5000000000000014
 40
0.5000000000000014
 40
0.5625000000000014
 40
0.5625000000000014
 40
0.5937500000000014
 40
0.5937500000000014
 40
0.6250000000000014
 40
0.6250000000000014
 40
0.6562500000000014
 40
0.6562500000000014
 40
0.6875000000000014
 40
0.6875000000000014
 40
0.7500000000000011
 40
0.7500000000000011
 40
0.781250000000001
 40
0.781250000000001
 40
0.8125000000000009
 40
0.8125000000000009
 40
0.8437500000000008
 40
0.8437500000000008
 40
0.8750000000000007
 40
0.8750000000000007
 40
0.9062500000000006
 40
0.9062500000000006
 40
0.9375000000000004
 40
0.9375000000000004
 40
1.0
 40
1.0
 40
1.0625
 40
1.0625
 10
105.6669660894122
 20
127.2296013863975
 30
0.0
 10
106.1374257567604
 20
127.0043815742416
 30
0.0
 10
106.4013228804044
 20
126.8938935589455
 30
0.0
 10
106.8496018305104
 20
126.7669934429744
 30
0.0
 10
107.0032792823396
 20
126.7328376877365
 30
0.0
 10
107.3196145831545
 20
126.6863687746072
 30
0.0
 10
107.4844594713059
 20
126.6742730892492
 30
0.0
 10
107.8087026655418
 20
126.6763673346358
 30
0.0
 10
107.9691589232225
 20
126.6900727666175
 30
0.0
 10
108.2868776542957
 20
126.7403350185086
 30
0.0
 10
108.4411621575681
 20
126.7764780801283
 30
0.0
 10
108.7350602917323
 20
126.8625788854683
 30
0.0
 10
108.8769716944926
 20
126.9132199358512
 30
0.0
 10
109.1418790170101
 20
127.0197165934772
 30
0.0
 10
109.2654804648063
 20
127.0756360780833
 30
0.0
 10
109.4958851615249
 20
127.1873806028618
 30
0.0
 10
109.6024551243027
 20
127.2431956206332
 30
0.0
 10
109.7892815180691
 20
127.3451689701686
 30
0.0
 10
109.8708614706777
 20
127.3919940643466
 30
0.0
 10
110.0076257199558
 20
127.4722898999465
 30
0.0
 10
110.0617999518439
 20
127.5051786153282
 30
0.0
 10
110.1337111484442
 20
127.5491550771584
 30
0.0
 10
110.1521697268956
 20
127.560660712415
 30
0.0
 10
110.1502596298079
 20
127.5594776705588
 30
0.0
 10
110.1303172649686
 20
127.5470511390345
 30
0.0
 10
110.0543306144679
 20
127.5006436541784
 30
0.0
 10
109.999478150228
 20
127.4674007676344
 30
0.0
 10
109.7885279357024
 20
127.3438907651602
 30
0.0
 10
109.5910140598244
 20
127.232484416012
 30
0.0
 10
109.1254724240705
 20
127.008870669878
 30
0.0
 10
108.8531230299112
 20
126.8948958928149
 30
0.0
 10
108.4117517857506
 20
126.7691751891288
 30
0.0
 10
108.2583816731873
 20
126.7344747871158
 30
0.0
 10
107.9372260166875
 20
126.6866539294828
 30
0.0
 10
107.7761825074489
 20
126.6746726145239
 30
0.0
 10
107.4531634197409
 20
126.6758810909117
 30
0.0
 10
107.2891429678109
 20
126.6894600998879
 30
0.0
 10
106.9710086001477
 20
126.7392663347046
 30
0.0
 10
106.8177230361764
 20
126.7748834444134
 30
0.0
 10
106.3730141562561
 20
126.9045695199384
 30
0.0
 10
106.1043565902304
 20
127.0188799876591
 30
0.0
 10
105.7568367153033
 20
127.1873808479334
 30
0.0
 10
105.6519839196992
 20
127.2422959832725
 30
0.0
 10
105.464262108523
 20
127.344716298784
 30
0.0
 10
105.3805092991924
 20
127.3927890997569
 30
0.0
 10
105.2435424012296
 20
127.473236410085
 30
0.0
 10
105.1903665563457
 20
127.5055326740231
 30
0.0
 10
105.1180531510422
 20
127.5497635369221
 30
0.0
 10
105.1003536923153
 20
127.5608024648401
 30
0.0
 10
105.1027643829871
 20
127.5593093817207
 30
0.0
 10
105.1234765746946
 20
127.5464081581624
 30
0.0
 10
105.1998416259993
 20
127.4997835475538
 30
0.0
 10
105.2561556197573
 20
127.465678557192
 30
0.0
 10
105.4679469149159
 20
127.3417838937527
 30
0.0
 10
105.6669660894122
 20
127.2296013863975
 30
0.0
 10
106.1374257567604
 20
127.0043815742416
 30
0.0
  0
LINE
  5
2CE
330
1F
100
AcDbEntity
  8
0
  6
HIDDEN
 62
     7
370
     0
100
AcDbLine
 10
137.3763753719
 20
127.5600917882
 30
0.0
 11
137.3763753719
 21
120.760091698
 31
0.0
  0
LINE
  5
2CF
330
1F
100
AcDbEntity
  8
0
  6
HIDDEN
 62
     7
370
     0
100
AcDbLine
 10
164.1763745494
 20
122.1458866506
 30
0.0
 11
164.1763745494
 21
110.5968042987
 31
0.0
  0
SPLINE
  5
2D0
330
1F
100
AcDbEntity
  8
0
  6
HIDDEN
 62
     7
370
     0
100
AcDbSpline
210
0.0
220
0.0
230
1.0
 70
     8
 71
     3
 72
     8
 73
     4
 74
     0
 42
0.00000001
 43
0.00000001
 40
0.0000003301664733
 40
0.0000003301664733
 40
0.0000003301664733
 40
0.0000003301664733
 40
0.0004945168097938
 40
0.0004945168097938
 40
0.0004945168097938
 40
0.0004945168097938
 10
164.1763761467888
 20
139.6597691591173
 30
0.0
 10
164.0765912978226
 20
139.7447489926327
 30
0.0
 10
163.976587474701
 20
139.8292165408515
 30
0.0
 10
163.8763761467889
 20
139.9131866771314
 30
0.0
  0
LINE
  5
2D1
330
1F
100
AcDbEntity
  8
0
  6
HIDDEN
 62
     7
370
     0
100
AcDbLine
 10
164.1763745494
 20
139.6597692522
 30
0.0
 11
164.1763745494
 21
126.1742968357
 31
0.0
  0
LINE
  5
2D2
330
1F
100
AcDbEntity
  8
0
  6
HIDDEN
 62
     7
370
     0
100
AcDbLine
 10
164.1763745494
 20
139.6597692522
 30
0.0
 11
164.1763745494
 21
139.8600911501
 31
0.0
  0
SPLINE
  5
2D3
330
1F
100
AcDbEntity
  8
0
  6
HIDDEN
 62
     7
370
     0
100
AcDbSpline
210
0.0
220
0.0
230
1.0
 70
     8
 71
     3
 72
     8
 73
     4
 74
     0
 42
0.00000001
 43
0.00000001
 40
0.0000003287604672
 40
0.0000003287604672
 40
0.0000003287604672
 40
0.0000003287604672
 40
0.0004945154037877
 40
0.0004945154037877
 40
0.0004945154037877
 40
0.0004945154037877
 10
163.8763761467889
 20
139.9131866771314
 30
0.0
 10
163.976587474701
 20
139.8292165408515
 30
0.0
 10
164.0765912978226
 20
139.7447489926327
 30
0.0
 10
164.1763761467888
 20
139.6597691591173
 30
0.0
  0
LINE
  5
2D4
330
1F
100
AcDbEntity
  8
0
  6
HIDDEN
 62
     7
370
     0
100
AcDbLine
 10
164.1763745494
 20
108.660414234
 30
0.0
 11
164.1763745494
 21
108.4600923362
 31
0.0
  0
SPLINE
  5
2D5
330
1F
100
AcDbEntity
  8
0
  6
HIDDEN
 62
     7
370
     0
100
AcDbSpline
210
0.0
220
0.0
230
1.0
 70
     8
 71
     3
 72
     8
 73
     4
 74
     0
 42
0.00000001
 43
0.00000001
 40
0.0000003301664732
 40
0.0000003301664732
 40
0.0000003301664732
 40
0.0000003301664732
 40
0.0004945168097938
 40
0.0004945168097938
 40
0.0004945168097938
 40
0.0004945168097938
 10
164.1763761467888
 20
108.6604143271212
 30
0.0
 10
164.0765912978226
 20
108.5754344936058
 30
0.0
 10
163.976587474701
 20
108.490966945387
 30
0.0
 10
163.8763761467889
 20
108.4069968091071
 30
0.0
  0
LINE
  5
2D6
330
1F
100
AcDbEntity
  8
0
  6
HIDDEN
 62
     7
370
     0
100
AcDbLine
 10
164.1763745494
 20
122.1458866506
 30
0.0
 11
164.1763745494
 21
108.660414234
 31
0.0
  0
LWPOLYLINE
  5
2D7
330
1F
100
AcDbEntity
  8
0
  6
HIDDEN
 62
     7
370
     0
100
AcDbPolyline
 90
       22
 70
   128
 43
0.0
 10
132.5458491839
 20
124.1600917431
 10
132.5314760826
 20
123.7916477851
 10
132.489633622
 20
123.4559416783
 10
132.4240396417
 20
123.1828023458
 10
132.3405223585
 20
122.9964995303
 10
132.2465025507
 20
122.9135870247
 10
132.1503351129
 20
122.9414318234
 10
132.0605639986
 20
123.0775599845
 10
131.9851659856
 20
123.3098758396
 10
131.9308410085
 20
123.6177370895
 10
131.9024151809
 20
123.973788913
 10
131.9024151809
 20
124.3463945732
 10
131.9308410085
 20
124.7024463967
 10
131.9851659856
 20
125.0103076466
 10
132.0605639986
 20
125.2426235017
 10
132.1503351129
 20
125.3787516628
 10
132.2465025507
 20
125.4065964616
 10
132.3405223585
 20
125.323683956
 10
132.4240396417
 20
125.1373811404
 10
132.489633622
 20
124.864241808
 10
132.5314760826
 20
124.5285357011
 10
132.5458491839
 20
124.1600917431
  0
LWPOLYLINE
  5
2D8
330
1F
100
AcDbEntity
  8
0
  6
HIDDEN
 62
     7
370
     0
100
AcDbPolyline
 90
       22
 70
   128
 43
0.0
 10
146.0688112922
 20
124.1600917431
 10
146.0544372596
 20
123.7916477851
 10
146.0125947989
 20
123.4559416783
 10
145.94700175
 20
123.1828023458
 10
145.8634844668
 20
122.9964995303
 10
145.7694637276
 20
122.9135870247
 10
145.6732972212
 20
122.9414318234
 10
145.5835251756
 20
123.0775599845
 10
145.5081271626
 20
123.3098758396
 10
145.4538031168
 20
123.6177370895
 10
145.4253772892
 20
123.973788913
 10
145.4253772892
 20
124.3463945732
 10
145.4538031168
 20
124.7024463967
 10
145.5081271626
 20
125.0103076466
 10
145.5835251756
 20
125.2426235017
 10
145.6732972212
 20
125.3787516628
 10
145.7694637276
 20
125.4065964616
 10
145.8634844668
 20
125.323683956
 10
145.94700175
 20
125.1373811404
 10
146.0125947989
 20
124.864241808
 10
146.0544372596
 20
124.5285357011
 10
146.0688112922
 20
124.1600917431
  0
LINE
  5
2D9
330
1F
100
AcDbEntity
  8
0
  6
HIDDEN
 62
     7
370
     0
100
AcDbLine
 10
145.7452865936
 20
125.4100917152
 30
0.0
 11
134.1763761513
 21
125.4100917152
 31
0.0
  0
LINE
  5
2DA
330
1F
100
AcDbEntity
  8
0
  6
HIDDEN
 62
     7
370
     0
100
AcDbLine
 10
134.1763761513
 20
122.9100917711
 30
0.0
 11
145.7452865936
 21
122.9100917711
 31
0.0
  0
LINE
  5
2DB
330
1F
100
AcDbEntity
  8
0
  6
HIDDEN
 62
     7
370
     0
100
AcDbLine
 10
134.1763761513
 20
125.4100917152
 30
0.0
 11
132.2223254166
 21
125.4100917152
 31
0.0
  0
LINE
  5
2DC
330
1F
100
AcDbEntity
  8
0
  6
HIDDEN
 62
     7
370
     0
100
AcDbLine
 10
132.2223254166
 20
122.9100917711
 30
0.0
 11
134.1763761513
 21
122.9100917711
 31
0.0
  0
LINE
  5
2DD
330
1F
100
AcDbEntity
  8
0
  6
HIDDEN
 62
     7
370
     0
100
AcDbLine
 10
132.0780523739
 20
125.2789188887
 30
0.0
 11
131.4968418948
 21
124.1600917431
 31
0.0
  0
LINE
  5
2DE
330
1F
100
AcDbEntity
  8
0
  6
HIDDEN
 62
     7
370
     0
100
AcDbLine
 10
131.4968418948
 20
124.1600917431
 30
0.0
 11
132.0780523739
 21
123.0412645976
 31
0.0
  0
LINE
  5
2DF
330
1F
100
AcDbEntity
  8
0
  6
HIDDEN
 62
     7
370
     0
100
AcDbLine
 10
119.3763761468
 20
113.4450616094
 30
0.0
 11
119.570536982
 21
114.8265883105
 31
0.0
  0
LINE
  5
2E0
330
1F
100
AcDbEntity
  8
0
  6
HIDDEN
 62
     7
370
     0
100
AcDbLine
 10
119.570536982
 20
133.4935951757
 30
0.0
 11
119.3763761468
 21
134.8751218768
 31
0.0
  0
ARC
  5
2E1
330
1F
100
AcDbEntity
  8
0
  6
HIDDEN
 62
     7
370
     0
100
AcDbCircle
 10
118.9763761468
 20
114.9100917431
 30
0.0
 40
0.6000000000000031
100
AcDbArc
 50
352.0
 51
0.0
  0
ARC
  5
2E2
330
1F
100
AcDbEntity
  8
0
  6
HIDDEN
 62
     7
370
     0
100
AcDbCircle
 10
118.9763761468
 20
114.9100917431
 30
0.0
 40
0.6000000000000054
100
AcDbArc
 50
0.0
 51
48.1896851042
  0
ARC
  5
2E3
330
1F
100
AcDbEntity
  8
0
  6
HIDDEN
 62
     7
370
     0
100
AcDbCircle
 10
118.9763761468
 20
133.4100917431
 30
0.0
 40
0.5999999999999992
100
AcDbArc
 50
348.75
 51
8.0
  0
ARC
  5
2E4
330
1F
100
AcDbEntity
  8
0
  6
HIDDEN
 62
     7
370
     0
100
AcDbCircle
 10
118.9763761468
 20
133.4100917431
 30
0.0
 40
0.6000000000000054
100
AcDbArc
 50
311.8103148958
 51
348.75
  0
LINE
  5
2E5
330
1F
100
AcDbEntity
  8
0
  6
HIDDEN
 62
     7
370
     0
100
AcDbLine
 10
119.5763761417
 20
114.9100916239
 30
0.0
 11
119.5763761417
 21
133.4100918623
 31
0.0
  0
LINE
  5
2E6
330
1F
100
AcDbEntity
  8
0
  6
HIDDEN
 62
     7
370
     0
100
AcDbLine
 10
119.5763761417
 20
114.9100916239
 30
0.0
 11
119.5763761417
 21
133.4100918623
 31
0.0
  0
LINE
  5
2E7
330
1F
100
AcDbEntity
  8
0
  6
HIDDEN
 62
     7
370
     0
100
AcDbLine
 10
102.8763762362
 20
133.1600913557
 30
0.0
 11
103.8662110142
 21
132.1702565777
 31
0.0
  0
LINE
  5
2E8
330
1F
100
AcDbEntity
  8
0
  6
HIDDEN
 62
     7
370
     0
100
AcDbLine
 10
111.3865411527
 20
132.1702565777
 30
0.0
 11
112.3763759307
 21
133.1600913557
 31
0.0
  0
LINE
  5
2E9
330
1F
100
AcDbEntity
  8
0
  6
HIDDEN
 62
     7
370
     0
100
AcDbLine
 10
97.376376266
 20
120.1600915531
 30
0.0
 11
98.415607462
 21
120.760091698
 31
0.0
  0
LINE
  5
2EA
330
1F
100
AcDbEntity
  8
0
  6
HIDDEN
 62
     7
370
     0
100
AcDbLine
 10
98.415607462
 20
127.5600917882
 30
0.0
 11
97.376376266
 21
128.1600919331
 31
0.0
  0
LINE
  5
2EB
330
1F
100
AcDbEntity
  8
0
  6
HIDDEN
 62
     7
370
     0
100
AcDbLine
 10
103.8662110142
 20
132.1702565777
 30
0.0
 11
105.1068248845
 21
127.5402236509
 31
0.0
  0
LINE
  5
2EC
330
1F
100
AcDbEntity
  8
0
  6
HIDDEN
 62
     7
370
     0
100
AcDbLine
 10
110.1465941094
 20
127.5427100493
 30
0.0
 11
111.3865411527
 21
132.1702565777
 31
0.0
  0
LINE
  5
2ED
330
1F
100
AcDbEntity
  8
0
  6
HIDDEN
 62
     7
370
     0
100
AcDbLine
 10
137.3763753719
 20
120.760091698
 30
0.0
 11
139.4193022199
 21
124.1600917431
 31
0.0
  0
LINE
  5
2EE
330
1F
100
AcDbEntity
  8
0
  6
HIDDEN
 62
     7
370
     0
100
AcDbLine
 10
139.4193022199
 20
124.1600917431
 30
0.0
 11
137.3763753719
 21
127.5600917882
 31
0.0
  0
LINE
  5
2EF
330
1F
100
AcDbEntity
  8
0
  6
HIDDEN
 62
     7
370
     0
100
AcDbLine
 10
164.1763745494
 20
139.8600911501
 30
0.0
 11
163.8763769216
 21
140.1600925031
 31
0.0
  0
LINE
  5
2F0
330
1F
100
AcDbEntity
  8
0
  6
HIDDEN
 62
     7
370
     0
100
AcDbLine
 10
134.1763761513
 20
125.4100917152
 30
0.0
 11
132.2223254166
 21
125.4100917152
 31
0.0
  0
LINE
  5
2F1
330
1F
100
AcDbEntity
  8
0
  6
HIDDEN
 62
     7
370
     0
100
AcDbLine
 10
132.2223254166
 20
122.9100917711
 30
0.0
 11
134.1763761513
 21
122.9100917711
 31
0.0
  0
LINE
  5
2F2
330
1F
100
AcDbEntity
  8
0
  6
HIDDEN
 62
     7
370
     0
100
AcDbLine
 10
132.0780523739
 20
125.2789188887
 30
0.0
 11
131.4968418948
 21
124.1600917431
 31
0.0
  0
LINE
  5
2F3
330
1F
100
AcDbEntity
  8
0
  6
HIDDEN
 62
     7
370
     0
100
AcDbLine
 10
131.4968418948
 20
124.1600917431
 30
0.0
 11
132.0780523739
 21
123.0412645976
 31
0.0
  0
LINE
  5
2F4
330
1F
100
AcDbEntity
  8
0
  6
HIDDEN
 62
     7
370
     0
100
AcDbLine
 10
145.7452865936
 20
125.4100917152
 30
0.0
 11
134.1763761513
 21
125.4100917152
 31
0.0
  0
LINE
  5
2F5
330
1F
100
AcDbEntity
  8
0
  6
HIDDEN
 62
     7
370
     0
100
AcDbLine
 10
134.1763761513
 20
122.9100917711
 30
0.0
 11
145.7452865936
 21
122.9100917711
 31
0.0
  0
LINE
  5
2F6
330
1F
100
AcDbEntity
  8
0
  6
HIDDEN
 62
     7
370
     0
100
AcDbLine
 10
119.8763761705
 20
140.1600925031
 30
0.0
 11
119.8763761705
 21
108.1600909832
 31
0.0
  0
LINE
  5
2F7
330
1F
100
AcDbEntity
  8
0
  6
HIDDEN
 62
     7
370
     0
100
AcDbLine
 10
119.570536982
 20
133.4935951757
 30
0.0
 11
119.570536982
 21
114.8265883105
 31
0.0
  0
LINE
  5
2F8
330
1F
100
AcDbEntity
  8
0
  6
HIDDEN
 62
     7
370
     0
100
AcDbLine
 10
118.9763761569
 20
132.8100919502
 30
0.0
 11
118.9763761569
 21
115.510091536
 31
0.0
  0
LINE
  5
2F9
330
1F
100
AcDbEntity
  8
0
  6
HIDDEN
 62
     7
370
     0
100
AcDbLine
 10
118.1062939496
 20
132.8305363434
 30
0.0
 11
118.1062939496
 21
115.4896471428
 31
0.0
  0
LINE
  5
2FA
330
1F
100
AcDbEntity
  8
0
  6
HIDDEN
 62
     7
370
     0
100
AcDbLine
 10
99.8922678329
 20
132.766945638
 30
0.0
 11
99.8922678329
 21
115.5532378482
 31
0.0
  0
LINE
  5
2FB
330
1F
100
AcDbEntity
  8
0
  6
HIDDEN
 62
     7
370
     0
100
AcDbLine
 10
99.1763769336
 20
132.9893221858
 30
0.0
 11
99.1763769336
 21
115.3308613005
 31
0.0
  0
LINE
  5
2FC
330
1F
100
AcDbEntity
  8
0
  6
HIDDEN
 62
     7
370
     0
100
AcDbLine
 10
99.3877741195
 20
132.867271431
 30
0.0
 11
99.3877741195
 21
115.4529120552
 31
0.0
  0
LINE
  5
2FD
330
1F
100
AcDbEntity
  8
0
  6
HIDDEN
 62
     7
370
     0
100
AcDbLine
 10
118.2615854697
 20
132.8100919502
 30
0.0
 11
118.2615854697
 21
115.510091536
 31
0.0
  0
DIMENSION
  5
2FE
330
1F
100
AcDbEntity
  8
VERMASSUNG
100
AcDbDimension
  2
*D1
 10
86.4058472672
 20
108.1600917431
 30
0.0
 11
86.4058472672
 21
124.1600917431
 31
0.0
 70
   160
  1
WH%%c<>
 71
     2
 42
-1.0
  3
SLDDIMSTYLE0
100
AcDbAlignedDimension
 13
119.8763761468
 23
140.1600917431
 33
0.0
 14
119.8763761468
 24
108.1600917431
 34
0.0
 50
90.0
100
AcDbRotatedDimension
  0
DIMENSION
  5
30B
330
1F
100
AcDbEntity
  8
VERMASSUNG
100
AcDbDimension
  2
*D2
 10
192.3235681364
 20
104.1600917431
 30
0.0
 11
192.3235681364
 21
124.1600917431
 31
0.0
 70
   160
  1
%%c<>-50.5
 71
     2
 42
-1.0
  3
SLDDIMSTYLE0
100
AcDbAlignedDimension
 13
185.3763761468
 23
144.1600917431
 33
0.0
 14
185.3763761468
 24
104.1600917431
 34
0.0
 50
90.0
100
AcDbRotatedDimension
  0
DIMENSION
  5
317
330
1F
100
AcDbEntity
  8
VERMASSUNG
100
AcDbDimension
  2
*D3
 10
185.3763761468
 20
148.4118385566
 30
0.0
 11
152.3763761468
 21
148.4118385566
 31
0.0
 70
   160
 71
     2
 42
-1.0
  3
SLDDIMSTYLE0
100
AcDbAlignedDimension
 13
119.3763761468
 23
139.6600917431
 33
0.0
 14
185.3763761468
 24
144.1600917431
 34
0.0
100
AcDbRotatedDimension
  0
DIMENSION
  5
321
330
1F
100
AcDbEntity
  8
VERMASSUNG
100
AcDbDimension
  2
*D4
 10
92.4058472672
 20
115.1600917431
 30
0.0
 11
92.4058472672
 21
124.1600917431
 31
0.0
 70
   160
  1
%%c<>
 71
     2
 42
-1.0
  3
SLDDIMSTYLE0
100
AcDbAlignedDimension
 13
112.3763761468
 23
133.1600917431
 33
0.0
 14
102.8763761468
 24
115.1600917431
 34
0.0
 50
90.0
100
AcDbRotatedDimension
  0
LINE
  5
32C
330
1F
100
AcDbEntity
  8
VERMASSUNG
  6
CENTERX2
 62
     7
370
     0
100
AcDbLine
 10
95.3763761468
 20
124.1600917431
 30
0.0
 11
171.2291685304
 21
124.1600917431
 31
0.0
  0
OLE2FRAME
  5
32D
330
1F
100
AcDbEntity
  8
0
100
AcDbOle2Frame
 70
     2
  3
Paintbrush-Bild
 10
13.8511154363
 20
38.264191557
 30
0.0
 11
51.6290888628
 21
31.9806341108
 31
0.0
 71
     2
 72
     0
 73
     1
 90
    12928
310
80552BED0767C5B32B40DDAF6807D121434000000000000000006FFBDDFB85D0
310
4940DDAF6807D121434000000000000000006FFBDDFB85D04940416F4BD60AFB
310
3F4000000000000000002BED0767C5B32B40416F4BD60AFB3F40000000000000
310
0000000000000100000000010000010000000100000000000100000000320000
310
D0CF11E0A1B11AE1000000000000000000000000000000003E000300FEFF0900
310
0600000000000000000000000100000001000000000000000010000002000000
310
01000000FEFFFFFF0000000000000000FFFFFFFFFFFFFFFFFFFFFFFFFFFFFFFF
310
FFFFFFFFFFFFFFFFFFFFFFFFFFFFFFFFFFFFFFFFFFFFFFFFFFFFFFFFFFFFFFFF
310
FFFFFFFFFFFFFFFFFFFFFFFFFFFFFFFFFFFFFFFFFFFFFFFFFFFFFFFFFFFFFFFF
310
FFFFFFFFFFFFFFFFFFFFFFFFFFFFFFFFFFFFFFFFFFFFFFFFFFFFFFFFFFFFFFFF
310
FFFFFFFFFFFFFFFFFFFFFFFFFFFFFFFFFFFFFFFFFFFFFFFFFFFFFFFFFFFFFFFF
310
FFFFFFFFFFFFFFFFFFFFFFFFFFFFFFFFFFFFFFFFFFFFFFFFFFFFFFFFFFFFFFFF
310
FFFFFFFFFFFFFFFFFFFFFFFFFFFFFFFFFFFFFFFFFFFFFFFFFFFFFFFFFFFFFFFF
310
FFFFFFFFFFFFFFFFFFFFFFFFFFFFFFFFFFFFFFFFFFFFFFFFFFFFFFFFFFFFFFFF
310
FFFFFFFFFFFFFFFFFFFFFFFFFFFFFFFFFFFFFFFFFFFFFFFFFFFFFFFFFFFFFFFF
310
FFFFFFFFFFFFFFFFFFFFFFFFFFFFFFFFFFFFFFFFFFFFFFFFFFFFFFFFFFFFFFFF
310
FFFFFFFFFFFFFFFFFFFFFFFFFFFFFFFFFFFFFFFFFFFFFFFFFFFFFFFFFFFFFFFF
310
FFFFFFFFFFFFFFFFFFFFFFFFFFFFFFFFFFFFFFFFFFFFFFFFFFFFFFFFFFFFFFFF
310
FFFFFFFFFFFFFFFFFFFFFFFFFFFFFFFFFFFFFFFFFFFFFFFFFFFFFFFFFFFFFFFF
310
FFFFFFFFFFFFFFFFFFFFFFFFFFFFFFFFFFFFFFFFFFFFFFFFFFFFFFFFFFFFFFFF
310
FDFFFFFFFEFFFFFFFEFFFFFFFEFFFFFF05000000060000000700000008000000
310
090000000A0000000B0000000C0000000D0000000E0000000F00000010000000
310
11000000120000001300000014000000150000001600000017000000FEFFFFFF
310
FFFFFFFFFFFFFFFFFFFFFFFFFFFFFFFFFFFFFFFFFFFFFFFFFFFFFFFFFFFFFFFF
310
FFFFFFFFFFFFFFFFFFFFFFFFFFFFFFFFFFFFFFFFFFFFFFFFFFFFFFFFFFFFFFFF
310
FFFFFFFFFFFFFFFFFFFFFFFFFFFFFFFFFFFFFFFFFFFFFFFFFFFFFFFFFFFFFFFF
310
FFFFFFFFFFFFFFFFFFFFFFFFFFFFFFFFFFFFFFFFFFFFFFFFFFFFFFFFFFFFFFFF
310
FFFFFFFFFFFFFFFFFFFFFFFFFFFFFFFFFFFFFFFFFFFFFFFFFFFFFFFFFFFFFFFF
310
FFFFFFFFFFFFFFFFFFFFFFFFFFFFFFFFFFFFFFFFFFFFFFFFFFFFFFFFFFFFFFFF
310
FFFFFFFFFFFFFFFFFFFFFFFFFFFFFFFFFFFFFFFFFFFFFFFFFFFFFFFFFFFFFFFF
310
FFFFFFFFFFFFFFFFFFFFFFFFFFFFFFFFFFFFFFFFFFFFFFFFFFFFFFFFFFFFFFFF
310
FFFFFFFFFFFFFFFFFFFFFFFFFFFFFFFFFFFFFFFFFFFFFFFFFFFFFFFFFFFFFFFF
310
FFFFFFFFFFFFFFFFFFFFFFFFFFFFFFFFFFFFFFFFFFFFFFFFFFFFFFFFFFFFFFFF
310
FFFFFFFFFFFFFFFFFFFFFFFFFFFFFFFFFFFFFFFFFFFFFFFFFFFFFFFFFFFFFFFF
310
FFFFFFFFFFFFFFFFFFFFFFFFFFFFFFFFFFFFFFFFFFFFFFFFFFFFFFFFFFFFFFFF
310
FFFFFFFFFFFFFFFFFFFFFFFFFFFFFFFFFFFFFFFFFFFFFFFFFFFFFFFFFFFFFFFF
310
52006F006F007400200045006E00740072007900000000000000000000000000
310
0000000000000000000000000000000000000000000000000000000000000000
310
16000500FFFFFFFFFFFFFFFF020000000A00030000000000C000000000000046
310
00000000000000000000000060DB5275C9EBCC0103000000C000000000000000
310
01004F006C006500000000000000000000000000000000000000000000000000
310
0000000000000000000000000000000000000000000000000000000000000000
310
0A000200FFFFFFFFFFFFFFFFFFFFFFFF00000000000000000000000000000000
310
0000000000000000000000000000000000000000000000001400000000000000
310
010043006F006D0070004F0062006A0000000000000000000000000000000000
310
0000000000000000000000000000000000000000000000000000000000000000
310
120002010100000003000000FFFFFFFF00000000000000000000000000000000
310
0000000000000000000000000000000000000000010000004D00000000000000
310
01004F006C006500310030004E00610074006900760065000000000000000000
310
0000000000000000000000000000000000000000000000000000000000000000
310
1A000200FFFFFFFFFFFFFFFFFFFFFFFF00000000000000000000000000000000
310
0000000000000000000000000000000000000000040000002426000000000000
310
FEFFFFFF02000000FEFFFFFFFFFFFFFFFFFFFFFFFFFFFFFFFFFFFFFFFFFFFFFF
310
FFFFFFFFFFFFFFFFFFFFFFFFFFFFFFFFFFFFFFFFFFFFFFFFFFFFFFFFFFFFFFFF
310
FFFFFFFFFFFFFFFFFFFFFFFFFFFFFFFFFFFFFFFFFFFFFFFFFFFFFFFFFFFFFFFF
310
FFFFFFFFFFFFFFFFFFFFFFFFFFFFFFFFFFFFFFFFFFFFFFFFFFFFFFFFFFFFFFFF
310
FFFFFFFFFFFFFFFFFFFFFFFFFFFFFFFFFFFFFFFFFFFFFFFFFFFFFFFFFFFFFFFF
310
FFFFFFFFFFFFFFFFFFFFFFFFFFFFFFFFFFFFFFFFFFFFFFFFFFFFFFFFFFFFFFFF
310
FFFFFFFFFFFFFFFFFFFFFFFFFFFFFFFFFFFFFFFFFFFFFFFFFFFFFFFFFFFFFFFF
310
FFFFFFFFFFFFFFFFFFFFFFFFFFFFFFFFFFFFFFFFFFFFFFFFFFFFFFFFFFFFFFFF
310
FFFFFFFFFFFFFFFFFFFFFFFFFFFFFFFFFFFFFFFFFFFFFFFFFFFFFFFFFFFFFFFF
310
FFFFFFFFFFFFFFFFFFFFFFFFFFFFFFFFFFFFFFFFFFFFFFFFFFFFFFFFFFFFFFFF
310
FFFFFFFFFFFFFFFFFFFFFFFFFFFFFFFFFFFFFFFFFFFFFFFFFFFFFFFFFFFFFFFF
310
FFFFFFFFFFFFFFFFFFFFFFFFFFFFFFFFFFFFFFFFFFFFFFFFFFFFFFFFFFFFFFFF
310
FFFFFFFFFFFFFFFFFFFFFFFFFFFFFFFFFFFFFFFFFFFFFFFFFFFFFFFFFFFFFFFF
310
FFFFFFFFFFFFFFFFFFFFFFFFFFFFFFFFFFFFFFFFFFFFFFFFFFFFFFFFFFFFFFFF
310
FFFFFFFFFFFFFFFFFFFFFFFFFFFFFFFFFFFFFFFFFFFFFFFFFFFFFFFFFFFFFFFF
310
FFFFFFFFFFFFFFFFFFFFFFFFFFFFFFFFFFFFFFFFFFFFFFFFFFFFFFFFFFFFFFFF
310
0100000200000000000000000000000000000000000000000000000000000000
310
0000000000000000000000000000000000000000000000000000000000000000
310
0100FEFF030A0000FFFFFFFF0A00030000000000C00000000000004607000000
310
5042727573680007000000504272757368000700000050427275736800F439B2
310
7100000000000000000000000000000000000000000000000000000000000000
310
0000000000000000000000000000000000000000000000000000000000000000
310
0000000000000000000000000000000000000000000000000000000000000000
310
0000000000000000000000000000000000000000000000000000000000000000
310
0000000000000000000000000000000000000000000000000000000000000000
310
0000000000000000000000000000000000000000000000000000000000000000
310
0000000000000000000000000000000000000000000000000000000000000000
310
0000000000000000000000000000000000000000000000000000000000000000
310
0000000000000000000000000000000000000000000000000000000000000000
310
0000000000000000000000000000000000000000000000000000000000000000
310
0000000000000000000000000000000000000000000000000000000000000000
310
0000000000000000000000000000000000000000000000000000000000000000
310
20260000424D0E260000000000003E00000028000000B40200006E0000000100
310
01000000000000000000130B0000130B00000200000002000000000000FFFFFF
310
FFFFFFFFFFFFFFFFFFFFFFFFFFFFFFFFFFFFFFFFFFFFFFFFFFFFFFFFFFFFFFFF
310
FFFFFFFFFFFFFFFFFFFFFFFFFFFFFFFFFFFFFFFFFFFFFFFFFFFFFFFFFFFFFFFF
310
FFFFFFFFFFFFFFFFFFFFFFFFFFFFFFFFFFFFFFFFFFFFFFFFF000FFFFFFFFFFFF
310
FFFFFFFFFFFFFFFFFFFFFFFFFFFFFFFFFFFFFFFFFFFFFFFFFFFFFFFFFFFFFFFF
310
FFFFFFFFFFFFFFFFFFFFFFFFFFFFFFFFFFFFFFFFFFFFFFFFFFFFFFFFFFFFFFFF
310
FFFFFFFFFFFFFFFFFFFFFFFFFFFFFFFFF000FFFFFFFFFFFFFFFFFFFFFFFFFFFF
310
FFFFFFFFFFFFFFFFFFFFFFFFFFFFFFFFFFFFFFFFFFFFFFFFFFFFFFFFFFFFFFFF
310
FFFFFFFFFFFFFFFFFFFFFFFFFFFFFFFFFFFFFFFFFFFFFFFFFFFFFFFFFFFFFFFF
310
FFFFFFFFFFFFFFFFF000FFFFFFFFFFFFFFFFFFFFFFFFFFFFFFFFFFFFFFFFFFFF
310
FFFFFFFFFFFFFFFFFFFFFFFFFFFFFFFFFFFFFFFFFFFFFFFFFFFFFFFFFFFFFFFF
310
FFFFFFFFFFFFFFFFFFFFFFFFFFFFFFFFFFFFFFFFFFFFFFFFFFFFFFFFFFFFFFFF
310
F000FFFFFFFFFFFFFFFFFFFFFFFFFFFFFFFFFFFFFFFFFFFFFFFFFFFFFFFFFFFF
310
FFFFFFFFFFFFFFFFFFFFFFFFFFFFFFFFFFFFFFFFFFFFFFFFFFFFFFFFFFFFFFFF
310
FFFFFFFFFFFFFFFFFFFFFFFFFFFFFFFFFFFFFFFFFFFFFFFFF000FFFFFFFFFFFF
310
FFFFFFFFFFFFFFFFFFFFFFFFFFFFFFFFFFFFFFFFFFFFFFFFFFFFFFFFFFFFFFFF
310
FFFFFFFFFFFFFFFFFFFFFFFFFFFFFFFFFFFFFFFFFFFFFFFFFFFFFFFFFFFFFFFF
310
FFFFFFFFFFFFFFFFFFFFFFFFFFFFFFFFF000FFFFFFFFFFFFFFFFFFFFFFFFFFFF
310
FFFFFFFFFFFFFFFFFFFFFFFFFFFFFFFFFFFFFFFFFFFFFFFFFFFFFFFFFFFFFFFF
310
FFFFFFFFFFFFFFFFFFFFFFFFFFFFFFFFFFFFFFFFFFFFFFFFFFFFFFFFFFFFFFFF
310
FFFFFFFFFFFFFFFFF000FFFFFFFFFFFFFFFFFFFFFFFFFFFFFFFFFFFFFFFFFFFF
310
FFFFFFFFFFFFFFFFFFFFFFFFFFFFFFFFFFFFFFFFFFFFFFFFFFFFFFFFFFFFFFFF
310
FFFFFFFFFFFFFFFFFFFFFFFFFFFFFFFFFFFFFFFFFFFFFFFFFFFFFFFFFFFFFFFF
310
F000FFFFFFFFFFFFFFFFFFFFFFFFFFFFFFFFFFFFFFFFFFFFFFFFFFFFFFFFFFFF
310
FFFFFFFFFFFFFFFFFFFFFFFFFFFFFFFFFFFFFFFFFFFFFFFFFFFFFFFFFFFFFFFF
310
FFFFFFFFFFFFFFFFFFFFFFFFFFFFFFFFFFFFFFFFFFFFFFFFF000FFFFFFFFFFFF
310
FFFFFFFFFFFFFFFFFFFFFFFFFFFFFFFFFFFFFFFFFFFFFFFFFFFFFFFFFFFFFFFF
310
FFFFFFFFFFFFFFFFFFFFFFFFFFFFFFFFFFFFFFFFFFFFFFFFFFFFFFFFFFFFFFFF
310
FFFFFFFFFFFFFFFFFFFFFFFFFFFFFFFFF000FFFFFFFFFFFFFFFFFFFFFFFFFFFF
310
FFFFFFFFFFFFFFFFFFFFFFFFFFFFFFFFFFFFFFFFFFFFFFFFFFFFFFFFFFFFFFFF
310
FFFFFFFFFFFFFFFFFFFFFFFFFFFFFFFFFFFFFFFFFFFFFFFFFFFFFFFFFFFFFFFF
310
FFFFFFFFFFFFFFFFF000FFFFFFFFFFFFFFFFFFFFFFFFFFFFFFFFFFFFFFFFFFFF
310
FFFFFFFFFFFFFFFFFFFFFFFFFFFFFFFFFFFFFFFFFFFFFFFFFFFFFFFFFFFFFFFF
310
FFFFFFFFFFFFFFFFFFFFFFFFFFFFFFFFFFFFFFFFFFFFFFFFFFFFFFFFFFFFFFFF
310
F000FFFFFFFFFFFFFFFFFFFFFFFFFFFFFFFFFFFFFFFFFFFFFFFFFFFFFFFFFFFF
310
FFFFFFFFFFFFFFFFFFFFFFFFFFFFFFFFFFFFFFFFFFFFFFFFFFFFFFFFFFFFFFFF
310
FFFFFFFFFFFFFFFFFFFFFFFFFFFFFFFFFFFFFFFFFFFFFFFFF000FFFFFFFFFFFF
310
FFFFFFFFFFFFFFFFFFFFFFFFFFFFFFFFFFFFFFFFFFFFFFFFFFFFFFFFFFFFFFFF
310
FFFFFFFFFFFFFFFFFFFFFFFFFFFFFFFFFFFFFFFFFFFFFFFFFFFFFFFFFFFFFFFF
310
FFFFFFFFFFFFFFFFFFFFFFFFFFFFFFFFF000FFFFFFFFFFFFFFFFFFFFFFFFFFFF
310
FFFFFFFFFFFFFFFFFFFFFFFFFFFFFFFFFFFFFFFFFFFFFFFFFFFFFFFFFFFFFFFF
310
FFFFFFFFFFFFFFFFFFFFFFFFFFFFFFFFFFFFFFFFFFFFFFFFFFFFFFFFFFFFFFFF
310
FFFFFFFFFFFFFFFFF000FFFFFFFFFFFFFFFFFFFFFFFFFFFFFFFFFFFFFFFFFFFF
310
FFFFFFFFFFFFFFFFFFFFFFFFFFFFFFFFFFFFFFFFFFFFFFFFFFFFFFFFFFFFFFFF
310
FFFFFFFFFFFFFFFFFFFFFFFFFFFFFFFFFFFFFFFFFFFFFFFFFFFFFFFFFFFFFFFF
310
F000FFFFFFFFFFFFFFFFFFFFFFFFFFFFFFFFFFFFFFFFFFFFFFFFFFFFFFFFFFFF
310
FFFFFFFFFFFFFFFFFFFFFFFFFFFFFFFFFFFFFFFFFFFFFFFFFFFFFFFFFFFFFFFF
310
FFFFFFFFFFFFFFFFFFFFFFFFFFFFFFFFFFFFFFFFFFFFFFFFF000FFFFFFFFFFFF
310
FFFFFFFFFFFFFFFFFFFFFFFFFFFFFFFFFFFFFFFFFFFFFFFFFFFFFFFFFFFFFFFF
310
FFFFFFFFFFFFFFFFFFFFFFFFFFFFFFFFFFFFFFFFFFFFFFFFFFFFFFFFFFFFFFFF
310
FFFFFFFFFFFFFFFFFFFFFFFFFFFFFFFFF000FFFFFFFFFFFFFFFFFFFFFFFFFFFF
310
FFFFFFFFFFFFFFFFFFFFFFFFFFFFFFFFFFFFFFFFFFFFFFFFFFFFFFFFFFFFFFFF
310
FFFFFFFFFFFFFFFFFFFFFFFFFFFFFFFFFFFFFFFFFFFFFFFFFFFFFFFFFFFFFFFF
310
FFFFFFFFFFFFFFFFF000FFFFF80003FFFFFFFFFFFFFFFFFFFFFFFFFFFFFFFFFF
310
FFFFF00007FFFFFFFFFF00007FFFFFF800000000000000007FFFFFFFFFFFFFFF
310
FFFFFFFC001FFFFFFFFFFFFFFC001FFFFFFFFFFFFFFFFFFFFFFFFFFE0007FFFF
310
F000FFFF8000007FFFFFFFF8000FFFFFC0007FFFFF80007FFFFF0000007FFFFF
310
FFF8000007FFFFF800000000000000007FFFFFF0001FFFFFFFFFFFC00001FFFF
310
FFFFFFFFC00001FFFFFFFF000000000003FFFFE000007FFFF000FFFE0000000F
310
FFFFFFF0000FFFFF80007FFFFF80007FFFFC0000001FFFFFFFC0000001FFFFF8
310
00000000000000007FFFFFF0001FFFFFFFFFFE0000003FFFFFFFFFFE0000003F
310
FFFFFF000000000003FFFF0000000FFFF000FFF800000003FFFFFFF00007FFFF
310
80007FFFFF80007FFFF000000007FFFFFF000000003FFFF80000000000000000
310
7FFFFFF0001FFFFFFFFFF80000000FFFFFFFFFF80000000FFFFFFF0000000000
310
03FFFC00000003FFF000FFE000000000FFFFFFF00007FFFF80003FFFFF80007F
310
FFC000000001FFFFFC000000001FFFF800000000000000007FFFFFF0001FFFFF
310
FFFFE000000003FFFFFFFFE000000003FFFFFF000000000003FFF000000000FF
310
F000FF80000000007FFFFFF00007FFFF80003FFFFF80007FFF8000000000FFFF
310
F80000000007FFF800000000000000007FFFFFF0001FFFFFFFFFC000000001FF
310
FFFFFFC000000001FFFFFF000000000003FFC0000000007FF000FF0000000000
310
3FFFFFE00007FFFF00003FFFFF80007FFE00000000003FFFF00000000003FFF8
310
00000000000000007FFFFFF0001FFFFFFFFF8000000000FFFFFFFF8000000000
310
FFFFFF000000000003FF80000000003FF000FE00000000001FFFFFE00003FFFF
310
00003FFFFF80007FFC00000000001FFFE00000000001FFF8000001FFFE000000
310
7FFFFFF0001FFFFFFFFE00000000003FFFFFFE00000000003FFFFF0000000000
310
03FF00000000001FF000FC00000000000FFFFFE00003FFFF00001FFFFF80007F
310
F800000000001FFFC00000000000FFF8000001FFFE0000007FFFFFF0001FFFFF
310
FFFC00000000001FFFFFFC00000000001FFFFF000000000003FE00000000000F
310
F000F8000000000007FFFFE00003FFFF00001FFFFF80007FF800000000000FFF
310
800000000000FFF8000001FFFE0000007FFFFFF0001FFFFFFFF800000000000F
310
FFFFF800000000000FFFFF000000000003FC000000000007F000F80000000000
310
03FFFFC00003FFFE00001FFFFF80007FF0000000000007FF0000000000007FF8
310
000001FFFE0000007FFFFFF0001FFFFFFFF0000000000007FFFFF00000000000
310
07FFFF000000000003F8000000000003F000F0000000000003FFFFC00001FFFE
310
00001FFFFF80007FE0000000000007FE0000000000003FF8000001FFFE000000
310
7FFFFFF0001FFFFFFFF0000000000007FFFFF0000000000007FFFF0000000000
310
03F800001F800003F000E00001FFF00001FFFFC00001FFFE00000FFFFF80007F
310
E00001FFE00003FE00001FFF00003FF8000001FFFE0000007FFFFFF0001FFFFF
310
FFE000003E000003FFFFE000003E000003FFFF000000000003F00001FFF80001
310
F000E00007FFFC0001FFFFC00001FFFE00000FFFFF80007FC0000FFFFC0003FC
310
0000FFFFC0001FF8000001FFFE0000007FFFFFF0001FFFFFFFC00003FFE00001
310
FFFFC00003FFE00001FFFF0001FFFFFFFFF00007FFFE0001F000E0000FFFFF00
310
00FFFF800001FFFC00000FFFFF80007FC0001FFFFE0001FC0001FFFFE0001FF8
310
000001FFFE0000007FFFFFF0001FFFFFFF80000FFFF80000FFFF80000FFFF800
310
00FFFF0003FFFFFFFFE0000FFFFF8000F000C0003FFFFF8000FFFF800000FFFC
310
000007FFFF80007F80003FFFFF0001FC0003FFFFF0001FF8000001FFFE000000
310
7FFFFFF0001FFFFFFF80003FFFFE0000FFFF80003FFFFE0000FFFF0003FFFFFF
310
FFE0003FFFFF8000F000C0003FFFFF8000FFFF800000FFFC000007FFFF80007F
310
80007FFFFF8001F80007FFFFF8000FF8000001FFFE0000007FFFFFF0001FFFFF
310
FF00007FFFFF00007FFF00007FFFFF00007FFF0003FFFFFFFFE0003FFFFFC000
310
F000C0007FFFFFC000FFFF000000FFFC000007FFFF80007F8000FFFFFF8000F8
310
000FFFFFF8000FF8000001FFFE0000007FFFFFF0001FFFFFFF0000FFFFFF8000
310
7FFF0000FFFFFF80007FFF0003FFFFFFFFC0007FFFFFC00070008000FFFFFFC0
310
00FFFF000000FFF8000007FFFF80007F8000FFFFFF8000F8000FFFFFF8000FF8
310
000001FFFE0000007FFFFFF0001FFFFFFE0001FFFFFFC0003FFE0001FFFFFFC0
310
003FFF0003FFFFFFFFC0007FFFFFE00070008000FFFFFFC0007FFF0000007FF8
310
000003FFFF80007F0001FFFFFF8000F8000FFFFFF8000FF8000001FFFE000000
310
7FFFFFF0001FFFFFFE0001FFFFFFC0003FFE0001FFFFFFC0003FFF0003FFFFFF
310
FFC000FFFFFFE00070008000FFFFFFC0007FFF0000007FF8000003FFFF80007F
310
0001FFFFFF8000F8001FFFFFF8000FF8000001FFFE0000007FFFFFF0001FFFFF
310
FE0003FFFFFFE0003FFE0003FFFFFFE0003FFF0003FFFFFFFFC000FFFFFFE000
310
70008000FFFFFFC0007FFE0000007FF8000003FFFF80007F0001FFFFFF8000F0
310
001FFFFFF8000FF8000001FFFE0000007FFFFFF0001FFFFFFC0003FFFFFFE000
310
1FFC0003FFFFFFE0001FFF0003FFFFFFFFC000FFFFFFC00070008000FFFFFF80
310
007FFE0000007FF0000003FFFF80007F0001FFFFFF0000F0001FFFFFF8000FF8
310
000001FFFE0000007FFFFFF0001FFFFFFC0007FFFFFFF0001FFC0007FFFFFFF0
310
001FFF0003FFFFFFFFC000FFFFFFC00070008001FFFFFF0000FFFE0000003FF0
310
000001FFFF80007F0001FFFFFF0000F8001FFFFFF0000FF8000001FFFE000000
310
7FFFFFF0001FFFFFFC0007FFFFFFF0001FFC0007FFFFFFF0001FFF0003FFFFFF
310
FFC001FFFFFF80007000FFFFFFFFFE0000FFFE0008003FF0008001FFFF80007F
310
FFFFFFFFFC0000FFFFFFFFFFE0000FF8000001FFFE0000007FFFFFF0001FFFFF
310
F8000FFFFFFFF8000FF8000FFFFFFFF8000FFF0003FFFFFFFFFFFFFFFFFF0000
310
7000FFFFFFFFFC0000FFFC0008003FF0008001FFFF80007FFFFFFFFFF80001FF
310
FFFFFFFF80000FF8000001FFFE0000007FFFFFF0001FFFFFF8000FFFFFFFF800
310
0FF8000FFFFFFFF8000FFF0003FFFFFFFFFFFFFFFFFE0000F000FFFFFFFFE000
310
00FFFC000C003FE000C001FFFF80007FFFFFFFFFC00001FFFFFFFFFE00001FF8
310
000001FFFE0000007FFFFFF0001FFFFFF8000FFFFFFFF8000FF8000FFFFFFFF8
310
000FFF0003FFFFFFFFFFFFFFFFF00000F000FFFFFFFE000001FFFC000C001FE0
310
00C000FFFF80007FFFFFFFFE000001FFFFFFFFE000001FF80FFFFFFFFFFFFFC0
310
7FFFFFF0001FFFFFF8000FFFFFFFF8000FF8000FFFFFFFF8000FFF0003FFFFFF
310
FFFFFFFFFF800000F000FFFFFFC0000001FFFC001C001FE001C000FFFF80007F
310
FFFFFF80000003FFFFFFF80000001FF80FFFFFFFFFFFFFC07FFFFFF0001FFFFF
310
F8001FFFFFFFFC000FF8001FFFFFFFFC000FFF0003FFFFFFFFFFFFFFF0000001
310
F000FFFFF800000001FFF8001C001FE001C000FFFF80007FFFFFF800000003FF
310
FFFF800000003FF80FFFFFFFFFFFFFC07FFFFFF0001FFFFFF8001FFFFFFFFC00
310
0FF8001FFFFFFFFC000FFF0003FFFFFFFFFFFFFE00000001F000FFFFC0000000
310
03FFF8001E001FC001E000FFFF80007FFFFF8000000007FFFFFC000000003FF8
310
0FFFFFFFFFFFFFC07FFFFFF0001FFFFFF8001FFFFFFFFC000FF8001FFFFFFFFC
310
000FFF0003FFFFFFFFFFFFE000000003F000FFFE0000000007FFF8001E000FC0
310
01E0007FFF80007FFFFE0000000007FFFFE0000000007FF80FFFFFFFFFFFFFC0
310
7FFFFFF0001FFFFFF0001FFFFFFFFC0007F0001FFFFFFFFC0007FF0003FFFFFF
310
FFFFFF0000000003F000FFF80000000007FFF8001E000FC003E0007FFF80007F
310
FFF0000000000FFFFF8000000000FFF80FFFFFFFFFFFFFC07FFFFFF0001FFFFF
310
F0001FFFFFFFFC0007F0001FFFFFFFFC0007FF0003FFFFFFFFFFFC0000000007
310
F000FFE0000000000FFFF0003E000FC003E0007FFF80007FFFC0000000001FFF
310
FE0000000001FFF80FFFFFFFFFFFFFC07FFFFFF0001FFFFFF0001FFFFFFFFC00
310
07F0001FFFFFFFFC0007FF0003FFFFFFFFFFF0000000000FF000FFC000000000
310
1FFFF0003F000F8003F0003FFF80007FFF80000000003FFFF80000000003FFF8
310
0FFFFFFFFFFFFFC07FFFFFF0001FFFFFF0001FFFFFFFFC0007F0001FFFFFFFFC
310
0007FF0003FFFFFFFFFFE0000000001FF000FF00000000007FFFF0003F000780
310
03F0003FFF80007FFF00000000007FFFF00000000007FFF80FFFFFFFFFFFFFC0
310
7FFFFFF0001FFFFFF0001FFFFFFFFC0007F0001FFFFFFFFC0007FF0003FFFFFF
310
FFFF80000000007FF000FE0000000000FFFFE0003F00078007F0003FFF80007F
310
FE0000000001FFFFE0000000001FFFF80FFFFFFFFFFFFFC07FFFFFF0001FFFFF
310
F0001FFFFFFFFC0007F0001FFFFFFFFC0007FF0003FFFFFFFFFF0000000000FF
310
F000FC0000000003FFFFE0007F00078007F0003FFF80007FFC0000000007FFFF
310
C0000000007FFFF80FFFFFFFFFFFFFC07FFFFFF0001FFFFFF8001FFFFFFFFC00
310
0FF8001FFFFFFFFC000FFF0003FFFFFFFFFE0000000003FFF000FC000000000F
310
FFFFE0007F80070007F8001FFF80007FF8000000001FFFFF8000000001FFFFF8
310
0FFFFFFFFFFFFFC07FFFFFF0001FFFFFF8001FFFFFFFFC000FF8001FFFFFFFFC
310
000FFF0003FFFFFFFFFC000000000FFFF000F8000000007FFFFFE0007F800700
310
07F8001FFF80007FF000000000FFFFFF800000000FFFFFF80FFFFFFFFFFFFFC0
310
7FFFFFF0001FFFFFF8000FFFFFFFF8000FF8000FFFFFFFF8000FFF0003FFFFFF
310
FFFC000000007FFFF000F800000007FFFFFFC0007F8003000FF8001FFF80007F
310
F000000007FFFFFF000000007FFFFFF80FFFFFFFFFFFFFC07FFFFFF0001FFFFF
310
F8000FFFFFFFF8000FF8000FFFFFFFF8000FFF0003FFFFFFFFF80000000FFFFF
310
F000F0000000FFFFFFFFC000FF8003000FF8001FFF80007FE0000000FFFFFFFF
310
0000000FFFFFFFF8000001FFFE0000007FFFFFF0001FFFFFF8000FFFFFFFF800
310
0FF8000FFFFFFFF8000FFF0003FFFFFFFFF8000000FFFFFFF000F000000FFFFF
310
FFFFC000FFC002000FF8000FFF80007FE000001FFFFFFFFE000001FFFFFFFFF8
310
000001FFFE0000007FFFFFF0001FFFFFF8000FFFFFFFF8000FF8000FFFFFFFF8
310
000FFF0003FFFFFFFFF000001FFFFFFFF000E00000FFFFFFFFFFC000FFC00200
310
0FFC000FFF80007FE00001FFFFFFFFFE00001FFFFFFFFFF8000001FFFE000000
310
7FFFFFF0001FFFFFFC000FFFFFFFF8001FFC000FFFFFFFF8001FFF0003FFFFFF
310
FFF00001FFFFFFFFF000E00007FFFFFFFFFF8000FFC000001FFC000FFF80007F
310
C0000FFFFFFFFFFE0000FFFFFFFFFFF8000001FFFE0000007FFFFFF0001FFFFF
310
FC0007FFFFFFF0001FFC0007FFFFFFF0001FFF0003FFFFFFFFF00007FFFFFFFF
310
F000E0001FFFFFFFFFFF8000FFC000001FFC000FFF80007FC0003FFFFFFFFFFE
310
0001FFFFFFFFFFF8000001FFFE0000007FFFFFF0001FFFFFFC0007FFFFFFF000
310
1FFC0007FFFFFFF0001FFF0003FFFFFFFFF0001FFFFFFFFFF000E0003FFFFF00
310
03FF8001FFE000001FFC0007FF80007FC0007FFFFF0007FC0003FFFFF0003FF8
310
000001FFFE0000007FFFFFF0001FFFFFFC0003FFFFFFE0001FFC0003FFFFFFE0
310
001FFF0003FFFFFFFFF0003FFFFFFFFFF000E0003FFFFF0001FF8001FFE00000
310
1FFE0007FF80007FC0007FFFFE0003FC0007FFFFE0003FF8000001FFFE000000
310
7FFFFFF0001FFFFFFE0003FFFFFFE0003FFE0003FFFFFFE0003FFF0003FFFFFF
310
FFF0003FFFFF8001F000E0003FFFFF0001FF0001FFE000001FFE0007FF80007F
310
C0007FFFFE0003FC0007FFFFE0003FF8000001FFFE0000007FFFFFF0001FFFFF
310
FE0001FFFFFFC0003FFE0001FFFFFFC0003FFF0003FFFFFFFFF0003FFFFF0001
310
F000E0003FFFFF0003FF0001FFE000003FFE0007FF80007FC0007FFFFE0003FC
310
0007FFFFE0003FF8000001FFFE0000007FFFFFF0001FFFFFFF0001FFFFFFC000
310
7FFF0001FFFFFFC0007FFF0003FFFFFFFFF0003FFFFF0001F000E0003FFFFE00
310
03FF0003FFF000003FFE0003FF80007FC0007FFFFC0003FE0007FFFFE0003FF8
310
000001FFFE0000007FFFFFF0001FFFFFFF0000FFFFFF80007FFF0000FFFFFF80
310
007FFF0003FFFFFFFFF0003FFFFF0001F000E0003FFFFE0003FF0003FFF00000
310
3FFF0003FF80007FC0007FFFFC0007FE0007FFFFC0003FF8000001FFFE000000
310
7FFFFFF0001FFFFFFF80007FFFFF0000FFFF80007FFFFF0000FFFF0003FFFFFF
310
FFF0003FFFFF0003F000E0003FFFFC0003FE0003FFF000003FFF0003FF80007F
310
E0003FFFF80007FE0003FFFFC0007FF8000001FFFE0000007FFFFFF0001FFFFF
310
FF80003FFFFE0000FFFF80003FFFFE0000FFFF0003FFFFFFFFF0001FFFFE0003
310
F000F0001FFFF80003FE0003FFF000007FFF0001FF80007FE0003FFFF00007FE
310
0001FFFF80007FF8000001FFFE0000007FFFFFF0001FFFFFFFC0000FFFF80001
310
FFFFC0000FFFF80001FFFF0003FFFFFFFFF0001FFFFC0003F000F0000FFFF000
310
07FE0007FFF800007FFF0001FF80007FE0001FFFE00007FF0000FFFE00007FF8
310
000001FFFE0000007FFFFFF0001FFFFFFFC00003FFE00001FFFFC00003FFE000
310
01FFFF0003FFFFFFFFF8000FFFF80003F000F00003FFC00007FC0007FFF80000
310
7FFF8001FF80007FF00007FF80000FFF00007FF80000FFF8000001FFFE000000
310
7F80000000000001FFE000003E000003FFFFE000003E000003FFFF0003FFFFFF
310
FFF80003FFE00007F000F800000000000FFC0007FFF800007FFF8001FF80007F
310
F000000000000FFF000000000000FFF8000001FFFE0000007F80000000000001
310
FFF0000000000007FFFFF0000000000007FFFF0003FFFFFFFFFC00007E000007
310
F000F800000000000FFC0007FFF80000FFFF8000FF80007FF800000000001FFF
310
800000000001FFF8000001FFFE0000007F80000000000001FFF800000000000F
310
FFFFF800000000000FFFFF0003FFFFFFFFFC00000000000FF000FC0000000000
310
1FFC0007FFFC0000FFFF8000FF80007FF800000000003FFFC00000000001FFF8
310
000001FFFE0000007F80000000000001FFF800000000000FFFFFF80000000000
310
0FFFFF0003FFFFFFFFFE00000000001FF000FE00000000003FF8000FFFFC0000
310
FFFF8000FF80007FFC00000000003FFFC00000000003FFF8000001FFFE000000
310
7F80000000000001FFFC00000000001FFFFFFC00000000001FFFFF0003FFFFFF
310
FFFF00000000001FF000FF00000000003FF8000FFFFC0000FFFFC000FF80007F
310
FE00000000007FFFE00000000007FFF8000001FFFE0000007F80000000000001
310
FFFE00000000003FFFFFFE00000000003FFFFF0003FFFFFFFFFF80000000003F
310
F000FF80000000007FF8000FFFFC0001FFFFC0007F80007FFF0000000000FFFF
310
F0000000000FFFF800000000000000007F80000000000001FFFF8000000000FF
310
FFFFFF8000000000FFFFFF0003FFFFFFFFFFC0000000007FF000FFC000000000
310
FFF8000FFFFE0001FFFFC0007F80007FFF8000000001FFFFF8000000001FFFF8
310
00000000000000007F80000000000001FFFFC000000001FFFFFFFFC000000001
310
FFFFFF0003FFFFFFFFFFE000000000FFF000FFE000000003FFF0001FFFFE0001
310
FFFFC0007F80007FFFC000000007FFFFFE000000003FFFF80000000000000000
310
7F80000000000001FFFFE000000003FFFFFFFFE000000003FFFFFF0003FFFFFF
310
FFFFF000000003FFF000FFF80000000FFFF0001FFFFE0001FFFFE0007F80007F
310
FFF00000000FFFFFFF00000000FFFFF800000000000000007F80000000000001
310
FFFFF80000000FFFFFFFFFF80000000FFFFFFF0003FFFFFFFFFFFC0000000FFF
310
F000FFFE0000003FFFF0001FFFFE0003FFFFE0003F80007FFFFC0000003FFFFF
310
FFC0000003FFFFF800000000000000007F80000000000001FFFFFE0000003FFF
310
FFFFFFFE0000003FFFFFFF0003FFFFFFFFFFFF0000003FFFF000FFFF800000FF
310
FFF0001FFFFF0003FFFFE0003F80007FFFFF000001FFFFFFFFF800001FFFFFF8
310
00000000000000007F80000000000001FFFFFFC00001FFFFFFFFFFFFC00001FF
310
FFFFFF0003FFFFFFFFFFFFC00000FFFFF000FFFFF8000FFFFFFFFFFFFFFFFFFF
310
FFFFFFFFFFFFFFFFFFFFF0001FFFFFFFFFFF0000FFFFFFF80000000000000000
310
7FFFFFFFFFFFFFFFFFFFFFFC001FFFFFFFFFFFFFFC001FFFFFFFFFFFFFFFFFFF
310
FFFFFFFC001FFFFFF000FFFFFFFFFFFFFFFFFFFFFFFFFFFFFFFFFFFFFFFFFFFF
310
FFFFFFFFFFFFFFFFFFFFFFFFFFFFFFFFFFFFFFFFFFFFFFFFFFFFFFFFFFFFFFFF
310
FFFFFFFFFFFFFFFFFFFFFFFFFFFFFFFFFFFFFFFFFFFFFFFFFFFFFFFFFFFFFFFF
310
F000FFFFFFFFFFFFFFFFFFFFFFFFFFFFFFFFFFFFFFFFFFFFFFFFFFFFFFFFFFFF
310
FFFFFFFFFFFFFFFFFFFFFFFFFFFFFFFFFFFFFFFFFFFFFFFFFFFFFFFFFFFFFFFF
310
FFFFFFFFFFFFFFFFFFFFFFFFFFFFFFFFFFFFFFFFFFFFFFFFF000FFFFFFFFFFFF
310
FFFFFFFFFFFFFFFFFFFFFFFFFFFFFFFFFFFFFFFFFFFFFFFFFFFFFFFFFFFFFFFF
310
FFFFFFFFFFFFFFFFFFFFFFFFFFFFFFFFFFFFFFFFFFFFFFFFFFFFFFFFFFFFFFFF
310
FFFFFFFFFFFFFFFFFFFFFFFFFFFFFFFFF000FFFFFFFFFFFFFFFFFFFFFFFFFFFF
310
FFFFFFFFFFFFFFFFFFFFFFFFFFFFFFFFFFFFFFFFFFFFFFFFFFFFFFFFFFFFFFFF
310
FFFFFFFFFFFFFFFFFFFFFFFFFFFFFFFFFFFFFFFFFFFFFFFFFFFFFFFFFFFFFFFF
310
FFFFFFFFFFFFFFFFF000FFFFFFFFFFFFFFFFFFFFFFFFFFFFFFFFFFFFFFFFFFFF
310
FFFFFFFFFFFFFFFFFFFFFFFFFFFFFFFFFFFFFFFFFFFFFFFFFFFFFFFFFFFFFFFF
310
FFFFFFFFFFFFFFFFFFFFFFFFFFFFFFFFFFFFFFFFFFFFFFFFFFFFFFFFFFFFFFFF
310
F000FFFFFFFFFFFFFFFFFFFFFFFFFFFFFFFFFFFFFFFFFFFFFFFFFFFFFFFFFFFF
310
FFFFFFFFFFFFFFFFFFFFFFFFFFFFFFFFFFFFFFFFFFFFFFFFFFFFFFFFFFFFFFFF
310
FFFFFFFFFFFFFFFFFFFFFFFFFFFFFFFFFFFFFFFFFFFFFFFFF000FFFFFFFFFFFF
310
FFFFFFFFFFFFFFFFFFFFFFFFFFFFFFFFFFFFFFFFFFFFFFFFFFFFFFFFFFFFFFFF
310
FFFFFFFFFFFFFFFFFFFFFFFFFFFFFFFFFFFFFFFFFFFFFFFFFFFFFFFFFFFFFFFF
310
FFFFFFFFFFFFFFFFFFFFFFFFFFFFFFFFF000FFFFFFFFFFFFFFFFFFFFFFFFFFFF
310
FFFFFFFFFFFFFFFFFFFFFFFFFFFFFFFFFFFFFFFFFFFFFFFFFFFFFFFFFFFFFFFF
310
FFFFFFFFFFFFFFFFFFFFFFFFFFFFFFFFFFFFFFFFFFFFFFFFFFFFFFFFFFFFFFFF
310
FFFFFFFFFFFFFFFFF000FFFFFFFFFFFFFFFFFFFFFFFFFFFFFFFFFFFFFFFFFFFF
310
FFFFFFFFFFFFFFFFFFFFFFFFFFFFFFFFFFFFFFFFFFFFFFFFFFFFFFFFFFFFFFFF
310
FFFFFFFFFFFFFFFFFFFFFFFFFFFFFFFFFFFFFFFFFFFFFFFFFFFFFFFFFFFFFFFF
310
F000FFFFFFFFFFFFFFFFFFFFFFFFFFFFFFFFFFFFFFFFFFFFFFFFFFFFFFFFFFFF
310
FFFFFFFFFFFFFFFFFFFFFFFFFFFFFFFFFFFFFFFFFFFFFFFFFFFFFFFFFFFFFFFF
310
FFFFFFFFFFFFFFFFFFFFFFFFFFFFFFFFFFFFFFFFFFFFFFFFF000FFFFFFFFFFFF
310
FFFFFFFFFFFFFFFFFFFFFFFFFFFFFFFFFFFFFFFFFFFFFFFFFFFFFFFFFFFFFFFF
310
FFFFFFFFFFFFFFFFFFFFFFFFFFFFFFFFFFFFFFFFFFFFFFFFFFFFFFFFFFFFFFFF
310
FFFFFFFFFFFFFFFFFFFFFFFFFFFFFFFFF000FFFFFFFFFFFFFFFFFFFFFFFFFFFF
310
FFFFFFFFFFFFFFFFFFFFFFFFFFFFFFFFFFFFFFFFFFFFFFFFFFFFFFFFFFFFFFFF
310
FFFFFFFFFFFFFFFFFFFFFFFFFFFFFFFFFFFFFFFFFFFFFFFFFFFFFFFFFFFFFFFF
310
FFFFFFFFFFFFFFFFF000FFFFFFFFFFFFFFFFFFFFFFFFFFFFFFFFFFFFFFFFFFFF
310
FFFFFFFFFFFFFFFFFFFFFFFFFFFFFFFFFFFFFFFFFFFFFFFFFFFFFFFFFFFFFFFF
310
FFFFFFFFFFFFFFFFFFFFFFFFFFFFFFFFFFFFFFFFFFFFFFFFFFFFFFFFFFFFFFFF
310
F000FFFFFFFFFFFFFFFFFFFFFFFFFFFFFFFFFFFFFFFFFFFFFFFFFFFFFFFFFFFF
310
FFFFFFFFFFFFFFFFFFFFFFFFFFFFFFFFFFFFFFFFFFFFFFFFFFFFFFFFFFFFFFFF
310
FFFFFFFFFFFFFFFFFFFFFFFFFFFFFFFFFFFFFFFFFFFFFFFFF000FFFFFFFFFFFF
310
FFFFFFFFFFFFFFFFFFFFFFFFFFFFFFFFFFFFFFFFFFFFFFFFFFFFFFFFFFFFFFFF
310
FFFFFFFFFFFFFFFFFFFFFFFFFFFFFFFFFFFFFFFFFFFFFFFFFFFFFFFFFFFFFFFF
310
FFFFFFFFFFFFFFFFFFFFFFFFFFFFFFFFF000FFFFFFFFFFFFFFFFFFFFFFFFFFFF
310
FFFFFFFFFFFFFFFFFFFFFFFFFFFFFFFFFFFFFFFFFFFFFFFFFFFFFFFFFFFFFFFF
310
FFFFFFFFFFFFFFFFFFFFFFFFFFFFFFFFFFFFFFFFFFFFFFFFFFFFFFFFFFFFFFFF
310
FFFFFFFFFFFFFFFFF000FFFFFFFFFFFFFFFFFFFFFFFFFFFFFFFFFFFFFFFFFFFF
310
FFFFFFFFFFFFFFFFFFFFFFFFFFFFFFFFFFFFFFFFFFFFFFFFFFFFFFFFFFFFFFFF
310
FFFFFFFFFFFFFFFFFFFFFFFFFFFFFFFFFFFFFFFFFFFFFFFFFFFFFFFFFFFFFFFF
310
F000FFFFFFFFFFFFFFFFFFFFFFFFFFFFFFFFFFFFFFFFFFFFFFFFFFFFFFFFFFFF
310
FFFFFFFFFFFFFFFFFFFFFFFFFFFFFFFFFFFFFFFFFFFFFFFFFFFFFFFFFFFFFFFF
310
FFFFFFFFFFFFFFFFFFFFFFFFFFFFFFFFFFFFFFFFFFFFFFFFF000FFFFFFFFFFFF
310
FFFFFFFFFFFFFFFFFFFFFFFFFFFFFFFFFFFFFFFFFFFFFFFFFFFFFFFFFFFFFFFF
310
FFFFFFFFFFFFFFFFFFFFFFFFFFFFFFFFFFFFFFFFFFFFFFFFFFFFFFFFFFFFFFFF
310
FFFFFFFFFFFFFFFFFFFFFFFFFFFFFFFFF000FFFFFFFFFFFFFFFFFFFFFFFFFFFF
310
FFFFFFFFFFFFFFFFFFFFFFFFFFFFFFFFFFFFFFFFFFFFFFFFFFFFFFFFFFFFFFFF
310
FFFFFFFFFFFFFFFFFFFFFFFFFFFFFFFFFFFFFFFFFFFFFFFFFFFFFFFFFFFFFFFF
310
FFFFFFFFFFFFFFFFF000FFFFFFFFFFFFFFFFFFFFFFFFFFFFFFFFFFFFFFFFFFFF
310
FFFFFFFFFFFFFFFFFFFFFFFFFFFFFFFFFFFFFFFFFFFFFFFFFFFFFFFFFFFFFFFF
310
FFFFFFFFFFFFFFFFFFFFFFFFFFFFFFFFFFFFFFFFFFFFFFFFFFFFFFFFFFFFFFFF
310
F000FFFFFFFFFFFFFFFFFFFFFFFFFFFFFFFFFFFFFFFFFFFFFFFFFFFFFFFFFFFF
310
FFFFFFFFFFFFFFFFFFFFFFFFFFFFFFFFFFFFFFFFFFFFFFFFFFFFFFFFFFFFFFFF
310
FFFFFFFFFFFFFFFFFFFFFFFFFFFFFFFFFFFFFFFFFFFFFFFFF000FFFFFFFFFFFF
310
FFFFFFFFFFFFFFFFFFFFFFFFFFFFFFFFFFFFFFFFFFFFFFFFFFFFFFFFFFFFFFFF
310
FFFFFFFFFFFFFFFFFFFFFFFFFFFFFFFFFFFFFFFFFFFFFFFFFFFFFFFFFFFFFFFF
310
FFFFFFFFFFFFFFFFFFFFFFFFFFFFFFFFF0000000000000000000000000000000
310
0000000000000000000000000000000000000000000000000000000000000000
310
0000000000000000000000000000000000000000000000000000000000000000
310
0000000000000000000000000000000000000000000000000000000000000000
310
0000000000000000000000000000000000000000000000000000000000000000
310
0000000000000000000000000000000000000000000000000000000000000000
310
0000000000000000000000000000000000000000000000000000000000000000
310
0000000000000000000000000000000000000000000000000000000000000000
310
0000000000000000000000000000000000000000000000000000000000000000
310
0000000000000000000000000000000000000000000000000000000000000000
310
0000000000000000000000000000000000000000000000000000000000000000
310
0000000000000000000000000000000000000000000000000000000000000000
310
0000000000000000000000000000000000000000000000000000000000000000
310
0000000000000000000000000000000000000000000000000000000000000000
310
0000000000000000000000000000000000000000000000000000000000000000
310
0000000000000000000000000000000000000000000000000000000000000000
  1
OLE
  0
ENDSEC
  0
SECTION
  2
OBJECTS
  0
DICTIONARY
  5
C
330
0
100
AcDbDictionary
281
     1
  3
ACAD_GROUP
350
D
  3
ACAD_LAYOUT
350
1A
  3
ACAD_MLINESTYLE
350
17
  3
ACAD_PLOTSETTINGS
350
19
  3
ACAD_PLOTSTYLENAME
350
E
  0
DICTIONARY
  5
D
102
{ACAD_REACTORS
330
C
102
}
330
C
100
AcDbDictionary
281
     1
  0
DICTIONARY
  5
1A
102
{ACAD_REACTORS
330
C
102
}
330
C
100
AcDbDictionary
281
     1
  3
Layout1
350
1E
  3
Layout2
350
26
  3
Model
350
22
  0
DICTIONARY
  5
17
102
{ACAD_REACTORS
330
C
102
}
330
C
100
AcDbDictionary
281
     1
  3
Standard
350
18
  0
DICTIONARY
  5
19
102
{ACAD_REACTORS
330
C
102
}
330
C
100
AcDbDictionary
281
     1
  0
ACDBDICTIONARYWDFLT
  5
E
102
{ACAD_REACTORS
330
C
102
}
330
C
100
AcDbDictionary
281
     1
  3
Normal
350
F
100
AcDbDictionaryWithDefault
340
F
  0
LAYOUT
  5
1E
102
{ACAD_REACTORS
330
1A
102
}
330
1A
100
AcDbPlotSettings
  1

  2
none_device
  4

  6

 40
0.0
 41
0.0
 42
0.0
 43
0.0
 44
0.0
 45
0.0
 46
0.0
 47
0.0
 48
0.0
 49
0.0
140
0.0
141
0.0
142
1.0
143
1.0
 70
   688
 72
     0
 73
     0
 74
     5
  7

 75
    16
147
1.0
148
0.0
149
0.0
100
AcDbLayout
  1
Layout1
 70
     1
 71
     1
 10
0.0
 20
0.0
 11
420.0
 21
297.0
 12
0.0
 22
0.0
 32
0.0
 14
1.0000000000E+20
 24
1.0000000000E+20
 34
1.0000000000E+20
 15
-1.0000000000E+20
 25
-1.0000000000E+20
 35
-1.0000000000E+20
146
0.0
 13
0.0
 23
0.0
 33
0.0
 16
1.0
 26
0.0
 36
0.0
 17
0.0
 27
1.0
 37
0.0
 76
     0
330
1B
  0
LAYOUT
  5
26
102
{ACAD_REACTORS
330
1A
102
}
330
1A
100
AcDbPlotSettings
  1

  2
none_device
  4

  6

 40
0.0
 41
0.0
 42
0.0
 43
0.0
 44
0.0
 45
0.0
 46
0.0
 47
0.0
 48
0.0
 49
0.0
140
0.0
141
0.0
142
1.0
143
1.0
 70
   688
 72
     0
 73
     0
 74
     5
  7

 75
    16
147
1.0
148
0.0
149
0.0
100
AcDbLayout
  1
Layout2
 70
     1
 71
     2
 10
0.0
 20
0.0
 11
0.0
 21
0.0
 12
0.0
 22
0.0
 32
0.0
 14
0.0
 24
0.0
 34
0.0
 15
0.0
 25
0.0
 35
0.0
146
0.0
 13
0.0
 23
0.0
 33
0.0
 16
1.0
 26
0.0
 36
0.0
 17
0.0
 27
1.0
 37
0.0
 76
     0
330
23
  0
LAYOUT
  5
22
102
{ACAD_REACTORS
330
1A
102
}
330
1A
100
AcDbPlotSettings
  1

  2
none_device
  4

  6

 40
0.0
 41
0.0
 42
0.0
 43
0.0
 44
0.0
 45
0.0
 46
0.0
 47
0.0
 48
0.0
 49
0.0
140
0.0
141
0.0
142
1.0
143
1.0
 70
  1712
 72
     0
 73
     0
 74
     0
  7

 75
     0
147
1.0
148
0.0
149
0.0
100
AcDbLayout
  1
Model
 70
     1
 71
     0
 10
0.0
 20
0.0
 11
297.0
 21
210.0
 12
0.0
 22
0.0
 32
0.0
 14
0.0
 24
0.0
 34
0.0
 15
297.0
 25
210.0
 35
0.0
146
0.0
 13
0.0
 23
0.0
 33
0.0
 16
1.0
 26
0.0
 36
0.0
 17
0.0
 27
1.0
 37
0.0
 76
     0
330
1F
331
29
  0
MLINESTYLE
  5
18
102
{ACAD_REACTORS
330
17
102
}
330
17
100
AcDbMlineStyle
  2
Standard
 70
     0
  3

 62
   256
 51
90.0
 52
90.0
 71
     2
 49
0.5
 62
   256
  6
BYLAYER
 49
-0.5
 62
   256
  6
BYLAYER
  0
ACDBPLACEHOLDER
  5
F
102
{ACAD_REACTORS
330
E
102
}
330
E
  0
ENDSEC
  0
EOF
