  0
SECTION
  2
HEADER
  9
$ACADVER
  1
AC1015
  9
$ACADMAINTVER
 70
     6
  9
$DWGCODEPAGE
  3
ANSI_1252
  9
$INSBASE
 10
0.0
 20
0.0
 30
0.0
  9
$EXTMIN
 10
0.0
 20
0.0
 30
0.0
  9
$EXTMAX
 10
297.0
 20
210.0
 30
0.0
  9
$LIMMIN
 10
0.0
 20
0.0
  9
$LIMMAX
 10
297.0
 20
210.0
  9
$ORTHOMODE
 70
     0
  9
$REGENMODE
 70
     1
  9
$FILLMODE
 70
     1
  9
$QTEXTMODE
 70
     0
  9
$MIRRTEXT
 70
     1
  9
$LTSCALE
 40
1.0
  9
$ATTMODE
 70
     1
  9
$TEXTSIZE
 40
2.0
  9
$TRACEWID
 40
1.0
  9
$TEXTSTYLE
  7
Standard
  9
$CLAYER
  8
0
  9
$CELTYPE
  6
ByLayer
  9
$CECOLOR
 62
   256
  9
$CELTSCALE
 40
1.0
  9
$DISPSILH
 70
     0
  9
$DIMSCALE
 40
1.0
  9
$DIMASZ
 40
3.0
  9
$DIMEXO
 40
0.0
  9
$DIMDLI
 40
3.75
  9
$DIMRND
 40
0.0
  9
$DIMDLE
 40
0.0
  9
$DIMEXE
 40
1.0
  9
$DIMTP
 40
0.0
  9
$DIMTM
 40
0.0
  9
$DIMTXT
 40
2.0
  9
$DIMCEN
 40
2.5
  9
$DIMTSZ
 40
0.0
  9
$DIMTOL
 70
     0
  9
$DIMLIM
 70
     0
  9
$DIMTIH
 70
     1
  9
$DIMTOH
 70
     1
  9
$DIMSE1
 70
     0
  9
$DIMSE2
 70
     0
  9
$DIMTAD
 70
     1
  9
$DIMZIN
 70
     0
  9
$DIMBLK
  1

  9
$DIMASO
 70
     1
  9
$DIMSHO
 70
     1
  9
$DIMPOST
  1

  9
$DIMAPOST
  1

  9
$DIMALT
 70
     0
  9
$DIMALTD
 70
     3
  9
$DIMALTF
 40
0.0393700787
  9
$DIMLFAC
 40
0.5
  9
$DIMTOFL
 70
     1
  9
$DIMTVP
 40
0.0
  9
$DIMTIX
 70
     0
  9
$DIMSOXD
 70
     0
  9
$DIMSAH
 70
     0
  9
$DIMBLK1
  1

  9
$DIMBLK2
  1

  9
$DIMSTYLE
  2
ISO-25
  9
$DIMCLRD
 70
     0
  9
$DIMCLRE
 70
     0
  9
$DIMCLRT
 70
     0
  9
$DIMTFAC
 40
1.0
  9
$DIMGAP
 40
1.524
  9
$DIMJUST
 70
     0
  9
$DIMSD1
 70
     0
  9
$DIMSD2
 70
     0
  9
$DIMTOLJ
 70
     0
  9
$DIMTZIN
 70
     0
  9
$DIMALTZ
 70
     0
  9
$DIMALTTZ
 70
     0
  9
$DIMUPT
 70
     0
  9
$DIMDEC
 70
     2
  9
$DIMTDEC
 70
     3
  9
$DIMALTU
 70
     2
  9
$DIMALTTD
 70
     3
  9
$DIMTXSTY
  7
Standard
  9
$DIMAUNIT
 70
     0
  9
$DIMADEC
 70
     2
  9
$DIMALTRND
 40
0.0
  9
$DIMAZIN
 70
     0
  9
$DIMDSEP
 70
    44
  9
$DIMATFIT
 70
     3
  9
$DIMFRAC
 70
     0
  9
$DIMLDRBLK
  1

  9
$DIMLUNIT
 70
     2
  9
$DIMLWD
 70
    -2
  9
$DIMLWE
 70
    -2
  9
$DIMTMOVE
 70
     0
  9
$LUNITS
 70
     2
  9
$LUPREC
 70
     2
  9
$SKETCHINC
 40
1.0
  9
$FILLETRAD
 40
10.0
  9
$AUNITS
 70
     0
  9
$AUPREC
 70
     2
  9
$MENU
  1
.
  9
$ELEVATION
 40
0.0
  9
$PELEVATION
 40
0.0
  9
$THICKNESS
 40
0.0
  9
$LIMCHECK
 70
     0
  9
$CHAMFERA
 40
0.0
  9
$CHAMFERB
 40
0.0
  9
$CHAMFERC
 40
0.0
  9
$CHAMFERD
 40
0.0
  9
$SKPOLY
 70
     0
  9
$TDCREATE
 40
2457618.723303125
  9
$TDUCREATE
 40
2457618.639969792
  9
$TDUPDATE
 40
2457618.723304144
  9
$TDUUPDATE
 40
2457618.63997081
  9
$TDINDWG
 40
0.0000000116
  9
$TDUSRTIMER
 40
0.0000000116
  9
$USRTIMER
 70
     1
  9
$ANGBASE
 50
0.0
  9
$ANGDIR
 70
     0
  9
$PDMODE
 70
     0
  9
$PDSIZE
 40
-1.0
  9
$PLINEWID
 40
0.0
  9
$SPLFRAME
 70
     0
  9
$SPLINETYPE
 70
     6
  9
$SPLINESEGS
 70
     8
  9
$HANDSEED
  5
162
  9
$SURFTAB1
 70
     6
  9
$SURFTAB2
 70
     6
  9
$SURFTYPE
 70
     6
  9
$SURFU
 70
     6
  9
$SURFV
 70
     6
  9
$UCSBASE
  2

  9
$UCSNAME
  2

  9
$UCSORG
 10
0.0
 20
0.0
 30
0.0
  9
$UCSXDIR
 10
1.0
 20
0.0
 30
0.0
  9
$UCSYDIR
 10
0.0
 20
1.0
 30
0.0
  9
$UCSORTHOREF
  2

  9
$UCSORTHOVIEW
 70
     0
  9
$UCSORGTOP
 10
0.0
 20
0.0
 30
0.0
  9
$UCSORGBOTTOM
 10
0.0
 20
0.0
 30
0.0
  9
$UCSORGLEFT
 10
0.0
 20
0.0
 30
0.0
  9
$UCSORGRIGHT
 10
0.0
 20
0.0
 30
0.0
  9
$UCSORGFRONT
 10
0.0
 20
0.0
 30
0.0
  9
$UCSORGBACK
 10
0.0
 20
0.0
 30
0.0
  9
$PUCSBASE
  2

  9
$PUCSNAME
  2

  9
$PUCSORG
 10
0.0
 20
0.0
 30
0.0
  9
$PUCSXDIR
 10
1.0
 20
0.0
 30
0.0
  9
$PUCSYDIR
 10
0.0
 20
1.0
 30
0.0
  9
$PUCSORTHOREF
  2

  9
$PUCSORTHOVIEW
 70
     0
  9
$PUCSORGTOP
 10
0.0
 20
0.0
 30
0.0
  9
$PUCSORGBOTTOM
 10
0.0
 20
0.0
 30
0.0
  9
$PUCSORGLEFT
 10
0.0
 20
0.0
 30
0.0
  9
$PUCSORGRIGHT
 10
0.0
 20
0.0
 30
0.0
  9
$PUCSORGFRONT
 10
0.0
 20
0.0
 30
0.0
  9
$PUCSORGBACK
 10
0.0
 20
0.0
 30
0.0
  9
$USERI1
 70
     0
  9
$USERI2
 70
     0
  9
$USERI3
 70
     0
  9
$USERI4
 70
     0
  9
$USERI5
 70
     0
  9
$USERR1
 40
0.0
  9
$USERR2
 40
0.0
  9
$USERR3
 40
0.0
  9
$USERR4
 40
0.0
  9
$USERR5
 40
0.0
  9
$WORLDVIEW
 70
     1
  9
$SHADEDGE
 70
     3
  9
$SHADEDIF
 70
    70
  9
$TILEMODE
 70
     1
  9
$MAXACTVP
 70
    64
  9
$PINSBASE
 10
0.0
 20
0.0
 30
0.0
  9
$PLIMCHECK
 70
     0
  9
$PEXTMIN
 10
1.0000000000E+20
 20
1.0000000000E+20
 30
1.0000000000E+20
  9
$PEXTMAX
 10
-1.0000000000E+20
 20
-1.0000000000E+20
 30
-1.0000000000E+20
  9
$PLIMMIN
 10
0.0
 20
0.0
  9
$PLIMMAX
 10
420.0
 20
297.0
  9
$UNITMODE
 70
     0
  9
$VISRETAIN
 70
     1
  9
$PLINEGEN
 70
     0
  9
$PSLTSCALE
 70
     1
  9
$TREEDEPTH
 70
  3020
  9
$CMLSTYLE
  2
Standard
  9
$CMLJUST
 70
     0
  9
$CMLSCALE
 40
20.0
  9
$PROXYGRAPHICS
 70
     1
  9
$MEASUREMENT
 70
     1
  9
$CELWEIGHT
370
    -1
  9
$ENDCAPS
280
     0
  9
$JOINSTYLE
280
     0
  9
$LWDISPLAY
290
     1
  9
$INSUNITS
 70
     4
  9
$HYPERLINKBASE
  1

  9
$STYLESHEET
  1

  9
$XEDIT
290
     1
  9
$CEPSNTYPE
380
     0
  9
$PSTYLEMODE
290
     1
  9
$FINGERPRINTGUID
  2
{5B99B7E1-1FD5-4CBA-8D5C-E568FAD58A50}
  9
$VERSIONGUID
  2
{FAEB1C32-E019-11D5-929B-00C0DF256EC4}
  9
$EXTNAMES
290
     1
  9
$PSVPSCALE
 40
0.0
  9
$OLESTARTUP
290
     0
  0
ENDSEC
  0
SECTION
  2
CLASSES
  0
CLASS
  1
ACDBDICTIONARYWDFLT
  2
AcDbDictionaryWithDefault
  3
ObjectDBX Classes
 90
        0
280
     0
281
     0
  0
CLASS
  1
VISUALSTYLE
  2
AcDbVisualStyle
  3
ObjectDBX Classes
 90
     4095
280
     0
281
     0
  0
CLASS
  1
MATERIAL
  2
AcDbMaterial
  3
ObjectDBX Classes
 90
     1153
280
     0
281
     0
  0
CLASS
  1
SCALE
  2
AcDbScale
  3
ObjectDBX Classes
 90
     1153
280
     0
281
     0
  0
CLASS
  1
TABLESTYLE
  2
AcDbTableStyle
  3
ObjectDBX Classes
 90
     4095
280
     0
281
     0
  0
CLASS
  1
MLEADERSTYLE
  2
AcDbMLeaderStyle
  3
ACDB_MLEADERSTYLE_CLASS
 90
     4095
280
     0
281
     0
  0
CLASS
  1
SUN
  2
AcDbSun
  3
SCENEOE
 90
     1153
280
     0
281
     0
  0
CLASS
  1
ACDBPLACEHOLDER
  2
AcDbPlaceHolder
  3
ObjectDBX Classes
 90
        0
280
     0
281
     0
  0
CLASS
  1
LAYOUT
  2
AcDbLayout
  3
ObjectDBX Classes
 90
        0
280
     0
281
     0
  0
ENDSEC
  0
SECTION
  2
TABLES
  0
TABLE
  2
VPORT
  5
8
330
0
100
AcDbSymbolTable
 70
     1
  0
VPORT
  5
29
330
8
100
AcDbSymbolTableRecord
100
AcDbViewportTableRecord
  2
*Active
 70
     0
 10
0.0
 20
0.0
 11
1.0
 21
1.0
 12
148.5
 22
105.0
 13
0.0
 23
0.0
 14
10.0
 24
10.0
 15
10.0
 25
10.0
 16
0.0
 26
0.0
 36
1.0
 17
0.0
 27
0.0
 37
0.0
 40
210.0
 41
1.4142857143
 42
50.0
 43
0.0
 44
0.0
 50
0.0
 51
0.0
 71
     0
 72
  2000
 73
     1
 74
     3
 75
     0
 76
     0
 77
     0
 78
     0
281
     0
 65
     1
110
0.0
120
0.0
130
0.0
111
1.0
121
0.0
131
0.0
112
0.0
122
1.0
132
0.0
 79
     0
146
0.0
  0
ENDTAB
  0
TABLE
  2
LTYPE
  5
5
330
0
100
AcDbSymbolTable
 70
     6
  0
LTYPE
  5
14
330
5
100
AcDbSymbolTableRecord
100
AcDbLinetypeTableRecord
  2
ByBlock
 70
     0
  3

 72
    65
 73
     0
 40
0.0
  0
LTYPE
  5
15
330
5
100
AcDbSymbolTableRecord
100
AcDbLinetypeTableRecord
  2
ByLayer
 70
     0
  3

 72
    65
 73
     0
 40
0.0
  0
LTYPE
  5
16
330
5
100
AcDbSymbolTableRecord
100
AcDbLinetypeTableRecord
  2
Continuous
 70
     0
  3
Solid line
 72
    65
 73
     0
 40
0.0
  0
LTYPE
  5
6E
330
5
100
AcDbSymbolTableRecord
100
AcDbLinetypeTableRecord
  2
HIDDEN
 70
     0
  3
Hidden __ __ __ __ __ __ __ __ __ __ __ __ __ __
 72
    65
 73
     2
 40
1.905
 49
1.27
 74
     0
 49
-0.635
 74
     0
  0
LTYPE
  5
6F
330
5
100
AcDbSymbolTableRecord
100
AcDbLinetypeTableRecord
  2
PHANTOM
 70
     0
  3
Phantom ______  __  __  ______  __  __  ______
 72
    65
 73
     6
 40
12.7
 49
6.35
 74
     0
 49
-1.27
 74
     0
 49
1.27
 74
     0
 49
-1.27
 74
     0
 49
1.27
 74
     0
 49
-1.27
 74
     0
  0
LTYPE
  5
70
330
5
100
AcDbSymbolTableRecord
100
AcDbLinetypeTableRecord
  2
CENTER
 70
     0
  3
Center ____ _ ____ _ ____ _ ____ _ ____ _ ____
 72
    65
 73
     4
 40
10.16
 49
6.35
 74
     0
 49
-1.27
 74
     0
 49
1.27
 74
     0
 49
-1.27
 74
     0
  0
LTYPE
  5
71
330
5
100
AcDbSymbolTableRecord
100
AcDbLinetypeTableRecord
  2
CENTERX2
 70
     0
  3
Center (2x) ________  __  ________  __  _____
 72
    65
 73
     4
 40
20.32
 49
12.7
 74
     0
 49
-2.54
 74
     0
 49
2.54
 74
     0
 49
-2.54
 74
     0
  0
LTYPE
  5
72
330
5
100
AcDbSymbolTableRecord
100
AcDbLinetypeTableRecord
  2
DOT2
 70
     0
  3
Dot (.5x) ........................................
 72
    65
 73
     2
 40
0.635
 49
0.0
 74
     0
 49
-0.635
 74
     0
  0
ENDTAB
  0
TABLE
  2
LAYER
  5
2
330
0
100
AcDbSymbolTable
 70
     5
  0
LAYER
  5
10
330
2
100
AcDbSymbolTableRecord
100
AcDbLayerTableRecord
  2
0
 70
     0
 62
     7
  6
Continuous
370
    -3
390
F
  0
LAYER
  5
73
330
2
100
AcDbSymbolTableRecord
100
AcDbLayerTableRecord
  2
FORMAT
 70
     0
 62
     7
  6
Continuous
370
    -3
390
F
  0
LAYER
  5
74
330
2
100
AcDbSymbolTableRecord
100
AcDbLayerTableRecord
  2
VERMASSUNG
 70
     0
 62
     7
  6
Continuous
370
    -3
390
F
  0
LAYER
  5
75
330
2
100
AcDbSymbolTableRecord
100
AcDbLayerTableRecord
  2
KOPF_DÜNN
 70
     0
 62
     7
  6
Continuous
370
    -3
390
F
  0
LAYER
  5
76
330
2
100
AcDbSymbolTableRecord
100
AcDbLayerTableRecord
  2
KOPF_DICK
 70
     0
 62
     7
  6
Continuous
370
    15
390
F
  0
ENDTAB
  0
TABLE
  2
STYLE
  5
3
330
0
100
AcDbSymbolTable
 70
     3
  0
STYLE
  5
11
330
3
100
AcDbSymbolTableRecord
100
AcDbTextStyleTableRecord
  2
Standard
 70
     0
 40
0.0
 41
1.0
 50
0.0
 71
     0
 42
2.0
  3
txt
  4

  0
STYLE
  5
77
330
3
100
AcDbSymbolTableRecord
100
AcDbTextStyleTableRecord
  2
SLDTEXTSTYLE0
 70
     0
 40
0.0
 41
0.7
 50
0.0
 71
     0
 42
2.0
  3
TXT
  4

  0
STYLE
  5
7B
330
3
100
AcDbSymbolTableRecord
100
AcDbTextStyleTableRecord
  2
SLDTEXTSTYLE1
 70
     0
 40
0.0
 41
0.6529411765
 50
0.0
 71
     0
 42
2.0
  3
TXT
  4

  0
ENDTAB
  0
TABLE
  2
VIEW
  5
6
330
0
100
AcDbSymbolTable
 70
     0
  0
ENDTAB
  0
TABLE
  2
UCS
  5
7
330
0
100
AcDbSymbolTable
 70
     0
  0
ENDTAB
  0
TABLE
  2
APPID
  5
9
330
0
100
AcDbSymbolTable
 70
     1
  0
APPID
  5
12
330
9
100
AcDbSymbolTableRecord
100
AcDbRegAppTableRecord
  2
ACAD
 70
     0
  0
ENDTAB
  0
TABLE
  2
DIMSTYLE
  5
A
330
0
100
AcDbSymbolTable
 70
     3
100
AcDbDimStyleTable
  0
DIMSTYLE
105
27
330
A
100
AcDbSymbolTableRecord
100
AcDbDimStyleTableRecord
  2
ISO-25
 70
     0
 41
2.5
 42
0.625
 43
3.75
 44
1.25
 73
     0
 74
     0
 77
     1
 78
     8
140
2.5
141
2.5
143
0.0393700787
147
0.625
171
     3
172
     1
178
     0
271
     2
272
     2
274
     3
278
    44
283
     0
284
     8
340
11
  0
DIMSTYLE
105
11E
102
{ACAD_REACTORS
330
11D
102
}
330
A
100
AcDbSymbolTableRecord
100
AcDbDimStyleTableRecord
  2
SLDDIMSTYLE0
 70
     0
 41
3.0
 44
0.0
 45
0.000000001
 73
     0
 74
     0
 77
     1
 78
    12
 79
     3
140
2.0
147
0.5
173
     1
178
     0
271
     0
272
     3
276
     2
284
    12
340
77
  0
DIMSTYLE
105
129
102
{ACAD_REACTORS
330
128
330
135
330
13F
330
14B
330
156
102
}
330
A
100
AcDbSymbolTableRecord
100
AcDbDimStyleTableRecord
  2
SLDDIMSTYLE1
 70
     0
 41
3.0
 44
0.0
 45
0.000000001
 73
     0
 74
     0
 77
     1
 78
    12
 79
     3
140
2.0
147
0.5
173
     1
178
     0
271
     2
272
     3
276
     2
284
    12
340
77
  0
ENDTAB
  0
TABLE
  2
BLOCK_RECORD
  5
1
330
0
100
AcDbSymbolTable
 70
     7
  0
BLOCK_RECORD
  5
1F
330
1
100
AcDbSymbolTableRecord
100
AcDbBlockTableRecord
  2
*Model_Space
340
22
  0
BLOCK_RECORD
  5
1B
330
1
100
AcDbSymbolTableRecord
100
AcDbBlockTableRecord
  2
*Paper_Space
340
1E
  0
BLOCK_RECORD
  5
23
330
1
100
AcDbSymbolTableRecord
100
AcDbBlockTableRecord
  2
*Paper_Space0
340
26
  0
BLOCK_RECORD
  5
11F
330
1
100
AcDbSymbolTableRecord
100
AcDbBlockTableRecord
  2
_D
340
0
  0
BLOCK_RECORD
  5
12A
330
1
100
AcDbSymbolTableRecord
100
AcDbBlockTableRecord
  2
_D_1
340
0
  0
BLOCK_RECORD
  5
136
330
1
100
AcDbSymbolTableRecord
100
AcDbBlockTableRecord
  2
_D_2
340
0
  0
BLOCK_RECORD
  5
140
330
1
100
AcDbSymbolTableRecord
100
AcDbBlockTableRecord
  2
_D_3
340
0
  0
BLOCK_RECORD
  5
14C
330
1
100
AcDbSymbolTableRecord
100
AcDbBlockTableRecord
  2
_D_4
340
0
  0
BLOCK_RECORD
  5
157
330
1
100
AcDbSymbolTableRecord
100
AcDbBlockTableRecord
  2
_D_5
340
0
  0
ENDTAB
  0
ENDSEC
  0
SECTION
  2
BLOCKS
  0
BLOCK
  5
20
330
1F
100
AcDbEntity
  8
0
100
AcDbBlockBegin
  2
*Model_Space
 70
     0
 10
0.0
 20
0.0
 30
0.0
  3
*Model_Space
  1

  0
ENDBLK
  5
21
330
1F
100
AcDbEntity
  8
0
100
AcDbBlockEnd
  0
BLOCK
  5
1C
330
1B
100
AcDbEntity
 67
     1
  8
0
100
AcDbBlockBegin
  2
*Paper_Space
 70
     0
 10
0.0
 20
0.0
 30
0.0
  3
*Paper_Space
  1

  0
ENDBLK
  5
1D
330
1B
100
AcDbEntity
 67
     1
  8
0
100
AcDbBlockEnd
  0
BLOCK
  5
24
330
23
100
AcDbEntity
  8
0
100
AcDbBlockBegin
  2
*Paper_Space0
 70
     0
 10
0.0
 20
0.0
 30
0.0
  3
*Paper_Space0
  1

  0
ENDBLK
  5
25
330
23
100
AcDbEntity
  8
0
100
AcDbBlockEnd
  0
BLOCK
  5
120
330
11F
100
AcDbEntity
  8
0
100
AcDbBlockBegin
  2
_D
 70
     0
 10
0.0
 20
0.0
 30
0.0
  3
_D
  1

  0
SOLID
  5
122
330
11F
100
AcDbEntity
  8
VERMASSUNG
100
AcDbTrace
 10
172.170756972
 20
139.6282385196
 30
0.0
 11
169.170756972
 21
140.0782385196
 31
0.0
 12
169.170756972
 22
139.1782385196
 32
0.0
 13
169.170756972
 23
139.1782385196
 33
0.0
  0
SOLID
  5
123
330
11F
100
AcDbEntity
  8
VERMASSUNG
100
AcDbTrace
 10
146.5084313999
 20
139.6282385196
 30
0.0
 11
149.5084313999
 21
139.1782385196
 31
0.0
 12
149.5084313999
 22
140.0782385196
 32
0.0
 13
149.5084313999
 23
140.0782385196
 33
0.0
  0
LINE
  5
124
330
11F
100
AcDbEntity
  8
VERMASSUNG
100
AcDbLine
 10
172.170756972
 20
131.9042561449
 30
0.0
 11
172.170756972
 21
140.6282385196
 31
0.0
  0
LINE
  5
125
330
11F
100
AcDbEntity
  8
VERMASSUNG
100
AcDbLine
 10
146.5084313999
 20
135.1306783263
 30
0.0
 11
146.5084313999
 21
140.6282385196
 31
0.0
  0
LINE
  5
126
330
11F
100
AcDbEntity
  8
VERMASSUNG
100
AcDbLine
 10
172.170756972
 20
139.6282385196
 30
0.0
 11
146.5084313999
 21
139.6282385196
 31
0.0
  0
MTEXT
  5
127
330
11F
100
AcDbEntity
  8
VERMASSUNG
100
AcDbMText
 10
157.9395942359
 20
142.2063741156
 30
0.0
 40
2.0
 41
0.0
 71
     1
 72
     1
  1
26
  7
SLDTEXTSTYLE0
 73
     1
 44
1.0
  0
ENDBLK
  5
121
330
11F
100
AcDbEntity
  8
0
100
AcDbBlockEnd
  0
BLOCK
  5
12B
330
12A
100
AcDbEntity
  8
0
100
AcDbBlockBegin
  2
_D_1
 70
     0
 10
0.0
 20
0.0
 30
0.0
  3
_D_1
  1

  0
SOLID
  5
12D
330
12A
100
AcDbEntity
  8
VERMASSUNG
100
AcDbTrace
 10
188.170756972
 20
100.1696407603
 30
0.0
 11
188.620756972
 21
103.1696407603
 31
0.0
 12
187.720756972
 22
103.1696407603
 32
0.0
 13
187.720756972
 23
103.1696407603
 33
0.0
  0
SOLID
  5
12E
330
12A
100
AcDbEntity
  8
VERMASSUNG
100
AcDbTrace
 10
188.170756972
 20
132.1696407603
 30
0.0
 11
187.720756972
 21
129.1696407603
 31
0.0
 12
188.620756972
 22
129.1696407603
 32
0.0
 13
188.620756972
 23
129.1696407603
 33
0.0
  0
LINE
  5
12F
330
12A
100
AcDbEntity
  8
VERMASSUNG
100
AcDbLine
 10
172.170756972
 20
100.1696407603
 30
0.0
 11
189.170756972
 21
100.1696407603
 31
0.0
  0
LINE
  5
130
330
12A
100
AcDbEntity
  8
VERMASSUNG
100
AcDbLine
 10
172.170756972
 20
132.1696407603
 30
0.0
 11
189.170756972
 21
132.1696407603
 31
0.0
  0
LINE
  5
131
330
12A
100
AcDbEntity
  8
VERMASSUNG
100
AcDbLine
 10
188.170756972
 20
100.1696407603
 30
0.0
 11
188.170756972
 21
132.1696407603
 31
0.0
  0
MTEXT
  5
132
330
12A
100
AcDbEntity
  8
VERMASSUNG
100
AcDbMText
 10
185.3926217158
 20
111.0650187212
 30
0.0
 40
2.0
 41
0.0
 71
     1
 72
     1
  1
WH
  7
SLDTEXTSTYLE0
 11
6.123233995736766E-17
 21
1.0
 31
0.0
 73
     1
 44
1.0
  0
MTEXT
  5
133
330
12A
100
AcDbEntity
  8
VERMASSUNG
100
AcDbMText
 10
185.5926216671
 20
114.8650187852
 30
0.0
 40
2.0
 41
0.0
 71
     1
 72
     1
  1
%%c
  7
SLDTEXTSTYLE0
 11
6.123233995736766E-17
 21
1.0
 31
0.0
 73
     1
 44
1.0
  0
MTEXT
  5
134
330
12A
100
AcDbEntity
  8
VERMASSUNG
100
AcDbMText
 10
185.5926213761
 20
118.4748827788
 30
0.0
 40
2.0
 41
0.0
 71
     1
 72
     1
  1
32
  7
SLDTEXTSTYLE0
 11
6.123233995736766E-17
 21
1.0
 31
0.0
 73
     1
 44
1.0
  0
ENDBLK
  5
12C
330
12A
100
AcDbEntity
  8
0
100
AcDbBlockEnd
  0
BLOCK
  5
137
330
136
100
AcDbEntity
  8
0
100
AcDbBlockBegin
  2
_D_2
 70
     0
 10
0.0
 20
0.0
 30
0.0
  3
_D_2
  1

  0
SOLID
  5
139
330
136
100
AcDbEntity
  8
VERMASSUNG
100
AcDbTrace
 10
172.170756972
 20
155.146232359
 30
0.0
 11
169.170756972
 21
155.596232359
 31
0.0
 12
169.170756972
 22
154.696232359
 32
0.0
 13
169.170756972
 23
154.696232359
 33
0.0
  0
SOLID
  5
13A
330
136
100
AcDbEntity
  8
VERMASSUNG
100
AcDbTrace
 10
104.170756972
 20
155.146232359
 30
0.0
 11
107.170756972
 21
154.696232359
 31
0.0
 12
107.170756972
 22
155.596232359
 32
0.0
 13
107.170756972
 23
155.596232359
 33
0.0
  0
LINE
  5
13B
330
136
100
AcDbEntity
  8
VERMASSUNG
100
AcDbLine
 10
172.170756972
 20
131.9042561449
 30
0.0
 11
172.170756972
 21
156.146232359
 31
0.0
  0
LINE
  5
13C
330
136
100
AcDbEntity
  8
VERMASSUNG
100
AcDbLine
 10
104.170756972
 20
125.9596407603
 30
0.0
 11
104.170756972
 21
156.146232359
 31
0.0
  0
LINE
  5
13D
330
136
100
AcDbEntity
  8
VERMASSUNG
100
AcDbLine
 10
172.170756972
 20
155.146232359
 30
0.0
 11
104.170756972
 21
155.146232359
 31
0.0
  0
MTEXT
  5
13E
330
136
100
AcDbEntity
  8
VERMASSUNG
100
AcDbMText
 10
136.7707570219
 20
157.724367955
 30
0.0
 40
2.0
 41
0.0
 71
     1
 72
     1
  1
68
  7
SLDTEXTSTYLE0
 73
     1
 44
1.0
  0
ENDBLK
  5
138
330
136
100
AcDbEntity
  8
0
100
AcDbBlockEnd
  0
BLOCK
  5
141
330
140
100
AcDbEntity
  8
0
100
AcDbBlockBegin
  2
_D_3
 70
     0
 10
0.0
 20
0.0
 30
0.0
  3
_D_3
  1

  0
SOLID
  5
143
330
140
100
AcDbEntity
  8
VERMASSUNG
100
AcDbTrace
 10
95.9209186956
 20
136.1696407603
 30
0.0
 11
95.4709186956
 21
133.1696407603
 31
0.0
 12
96.3709186956
 22
133.1696407603
 32
0.0
 13
96.3709186956
 23
133.1696407603
 33
0.0
  0
SOLID
  5
144
330
140
100
AcDbEntity
  8
VERMASSUNG
100
AcDbTrace
 10
95.9209186956
 20
96.1696407603
 30
0.0
 11
96.3709186956
 21
99.1696407603
 31
0.0
 12
95.4709186956
 22
99.1696407603
 32
0.0
 13
95.4709186956
 23
99.1696407603
 33
0.0
  0
LINE
  5
145
330
140
100
AcDbEntity
  8
VERMASSUNG
100
AcDbLine
 10
132.570756972
 20
136.1696407603
 30
0.0
 11
94.9209186956
 21
136.1696407603
 31
0.0
  0
LINE
  5
146
330
140
100
AcDbEntity
  8
VERMASSUNG
100
AcDbLine
 10
132.570756972
 20
96.1696407603
 30
0.0
 11
94.9209186956
 21
96.1696407603
 31
0.0
  0
LINE
  5
147
330
140
100
AcDbEntity
  8
VERMASSUNG
100
AcDbLine
 10
95.9209186956
 20
136.1696407603
 30
0.0
 11
95.9209186956
 21
96.1696407603
 31
0.0
  0
MTEXT
  5
148
330
140
100
AcDbEntity
  8
VERMASSUNG
100
AcDbMText
 10
93.1427834394
 20
110.9646409409
 30
0.0
 40
2.0
 41
0.0
 71
     1
 72
     1
  1
WH
  7
SLDTEXTSTYLE0
 11
-7.044195017643634E-15
 21
1.0
 31
0.0
 73
     1
 44
1.0
  0
MTEXT
  5
149
330
140
100
AcDbEntity
  8
VERMASSUNG
100
AcDbMText
 10
93.3427833907
 20
114.764641005
 30
0.0
 40
2.0
 41
0.0
 71
     1
 72
     1
  1
%%c
  7
SLDTEXTSTYLE0
 11
-7.044195017643634E-15
 21
1.0
 31
0.0
 73
     1
 44
1.0
  0
MTEXT
  5
14A
330
140
100
AcDbEntity
  8
VERMASSUNG
100
AcDbMText
 10
93.1427834394
 20
118.3746410193
 30
0.0
 40
2.0
 41
0.0
 71
     1
 72
     1
  1
40
  7
SLDTEXTSTYLE0
 11
-7.044195017643634E-15
 21
1.0
 31
0.0
 73
     1
 44
1.0
  0
ENDBLK
  5
142
330
140
100
AcDbEntity
  8
0
100
AcDbBlockEnd
  0
BLOCK
  5
14D
330
14C
100
AcDbEntity
  8
0
100
AcDbBlockBegin
  2
_D_4
 70
     0
 10
0.0
 20
0.0
 30
0.0
  3
_D_4
  1

  0
SOLID
  5
14F
330
14C
100
AcDbEntity
  8
VERMASSUNG
100
AcDbTrace
 10
180.5077393854
 20
125.1696407603
 30
0.0
 11
180.0577393854
 21
122.1696407603
 31
0.0
 12
180.9577393854
 22
122.1696407603
 32
0.0
 13
180.9577393854
 23
122.1696407603
 33
0.0
  0
SOLID
  5
150
330
14C
100
AcDbEntity
  8
VERMASSUNG
100
AcDbTrace
 10
180.5077393854
 20
107.1696407603
 30
0.0
 11
180.9577393854
 21
110.1696407603
 31
0.0
 12
180.0577393854
 22
110.1696407603
 32
0.0
 13
180.0577393854
 23
110.1696407603
 33
0.0
  0
LINE
  5
151
330
14C
100
AcDbEntity
  8
VERMASSUNG
100
AcDbLine
 10
171.170756972
 20
125.1696407603
 30
0.0
 11
181.5077393854
 21
125.1696407603
 31
0.0
  0
LINE
  5
152
330
14C
100
AcDbEntity
  8
VERMASSUNG
100
AcDbLine
 10
171.170756972
 20
107.1696407603
 30
0.0
 11
181.5077393854
 21
107.1696407603
 31
0.0
  0
LINE
  5
153
330
14C
100
AcDbEntity
  8
VERMASSUNG
100
AcDbLine
 10
180.5077393854
 20
125.1696407603
 30
0.0
 11
180.5077393854
 21
107.1696407603
 31
0.0
  0
MTEXT
  5
154
330
14C
100
AcDbEntity
  8
VERMASSUNG
100
AcDbMText
 10
177.9296040805
 20
113.1646406961
 30
0.0
 40
2.0
 41
0.0
 71
     1
 72
     1
  1
%%c
  7
SLDTEXTSTYLE0
 11
-7.044195017643634E-15
 21
1.0
 31
0.0
 73
     1
 44
1.0
  0
MTEXT
  5
155
330
14C
100
AcDbEntity
  8
VERMASSUNG
100
AcDbMText
 10
177.7296041292
 20
116.7746407104
 30
0.0
 40
2.0
 41
0.0
 71
     1
 72
     1
  1
18
  7
SLDTEXTSTYLE0
 11
-7.044195017643634E-15
 21
1.0
 31
0.0
 73
     1
 44
1.0
  0
ENDBLK
  5
14E
330
14C
100
AcDbEntity
  8
0
100
AcDbBlockEnd
  0
BLOCK
  5
158
330
157
100
AcDbEntity
  8
0
100
AcDbBlockBegin
  2
_D_5
 70
     0
 10
0.0
 20
0.0
 30
0.0
  3
_D_5
  1

  0
SOLID
  5
15A
330
157
100
AcDbEntity
  8
VERMASSUNG
100
AcDbTrace
 10
172.170756972
 20
147.479924505
 30
0.0
 11
169.170756972
 21
147.929924505
 31
0.0
 12
169.170756972
 22
147.029924505
 32
0.0
 13
169.170756972
 23
147.029924505
 33
0.0
  0
SOLID
  5
15B
330
157
100
AcDbEntity
  8
VERMASSUNG
100
AcDbTrace
 10
132.170756972
 20
147.479924505
 30
0.0
 11
135.170756972
 21
147.029924505
 31
0.0
 12
135.170756972
 22
147.929924505
 32
0.0
 13
135.170756972
 23
147.929924505
 33
0.0
  0
LINE
  5
15C
330
157
100
AcDbEntity
  8
VERMASSUNG
100
AcDbLine
 10
172.170756972
 20
131.9042561449
 30
0.0
 11
172.170756972
 21
148.479924505
 31
0.0
  0
LINE
  5
15D
330
157
100
AcDbEntity
  8
VERMASSUNG
100
AcDbLine
 10
132.170756972
 20
135.7696407603
 30
0.0
 11
132.170756972
 21
148.479924505
 31
0.0
  0
LINE
  5
15E
330
157
100
AcDbEntity
  8
VERMASSUNG
100
AcDbLine
 10
172.170756972
 20
147.479924505
 30
0.0
 11
132.170756972
 21
147.479924505
 31
0.0
  0
MTEXT
  5
15F
330
157
100
AcDbEntity
  8
VERMASSUNG
100
AcDbMText
 10
150.670756959
 20
150.058060101
 30
0.0
 40
2.0
 41
0.0
 71
     1
 72
     1
  1
40
  7
SLDTEXTSTYLE0
 73
     1
 44
1.0
  0
ENDBLK
  5
159
330
157
100
AcDbEntity
  8
0
100
AcDbBlockEnd
  0
ENDSEC
  0
SECTION
  2
ENTITIES
  0
MTEXT
  5
78
330
1F
100
AcDbEntity
  8
KOPF_DÜNN
100
AcDbMText
 10
13.8892156294
 20
23.8442973028
 30
0.0
 40
3.0
 41
0.0
 71
     1
 72
     1
  1
A84.040.032.040
  7
SLDTEXTSTYLE0
 73
     1
 44
1.0
  0
MTEXT
  5
79
330
1F
100
AcDbEntity
  8
VERMASSUNG
100
AcDbMText
 10
13.9329988022
 20
28.8834360957
 30
0.0
 40
3.0
 41
0.0
 71
     1
 72
     1
  1
Reduktion_Reduction
  7
SLDTEXTSTYLE0
 73
     1
 44
1.0
  0
MTEXT
  5
7A
330
1F
100
AcDbEntity
  8
VERMASSUNG
100
AcDbMText
 10
98.8601118557
 20
13.8365368761
 30
0.0
 40
2.0
 41
0.0
 71
     1
 72
     1
  1
Datum: 02.02.2012
  7
SLDTEXTSTYLE0
 73
     1
 44
1.0
  0
MTEXT
  5
7C
330
1F
100
AcDbEntity
  8
VERMASSUNG
100
AcDbMText
 10
13.933048693
 20
18.0482802738
 30
0.0
 40
2.0
 41
0.0
 71
     1
 72
     1
  1
WH4 / WH3 40 lang
  7
SLDTEXTSTYLE1
 73
     1
 44
1.0
  0
MTEXT
  5
7D
330
1F
100
AcDbEntity
  8
VERMASSUNG
100
AcDbMText
 10
13.9808475933
 20
13.9090974274
 30
0.0
 40
2.0
 41
0.0
 71
     1
 72
     1
  1
Gewicht: 353g
  7
SLDTEXTSTYLE0
 73
     1
 44
1.0
  0
LINE
  5
7E
330
1F
100
AcDbEntity
  8
0
  6
Continuous
 62
     7
370
    15
100
AcDbLine
 10
132.570756972
 20
136.1696407603
 30
0.0
 11
132.170756972
 21
135.7696407603
 31
0.0
  0
LINE
  5
7F
330
1F
100
AcDbEntity
  8
0
  6
Continuous
 62
     7
370
    15
100
AcDbLine
 10
132.170756972
 20
96.5696407603
 30
0.0
 11
132.570756972
 21
96.1696407603
 31
0.0
  0
ARC
  5
80
330
1F
100
AcDbEntity
  8
0
  6
Continuous
 62
     7
370
    15
100
AcDbCircle
 10
145.5191442856
 20
135.6696407603
 30
0.0
 40
0.5000000000000152
100
AcDbArc
 50
15.0
 51
90.0
  0
ARC
  5
81
330
1F
100
AcDbEntity
  8
0
  6
Continuous
 62
     7
370
    15
100
AcDbCircle
 10
145.5191442856
 20
96.6696407603
 30
0.0
 40
0.5000000000000115
100
AcDbArc
 50
270.0
 51
345.0
  0
LINE
  5
82
330
1F
100
AcDbEntity
  8
0
  6
Continuous
 62
     7
370
    15
100
AcDbLine
 10
132.570756972
 20
96.1696407603
 30
0.0
 11
145.5191442856
 21
96.1696407603
 31
0.0
  0
LINE
  5
83
330
1F
100
AcDbEntity
  8
0
  6
Continuous
 62
     7
370
    15
100
AcDbLine
 10
145.5191442856
 20
136.1696407603
 30
0.0
 11
132.570756972
 21
136.1696407603
 31
0.0
  0
LINE
  5
84
330
1F
100
AcDbEntity
  8
0
  6
Continuous
 62
     7
370
    15
100
AcDbLine
 10
146.0021071987
 20
96.5402312377
 30
0.0
 11
146.0827805407
 21
96.8413082489
 31
0.0
  0
LINE
  5
85
330
1F
100
AcDbEntity
  8
0
  6
Continuous
 62
     7
370
    15
100
AcDbLine
 10
146.0827805407
 20
135.4979732717
 30
0.0
 11
146.0021071987
 21
135.7990502828
 31
0.0
  0
ARC
  5
86
330
1F
100
AcDbEntity
  8
0
  6
Continuous
 62
     7
370
    15
100
AcDbCircle
 10
146.5657434539
 20
135.6273827942
 30
0.0
 40
0.5000000000000187
100
AcDbArc
 50
195.0
 51
263.4180553448
  0
ARC
  5
87
330
1F
100
AcDbEntity
  8
0
  6
Continuous
 62
     7
370
    15
100
AcDbCircle
 10
146.5657434539
 20
96.7118987263
 30
0.0
 40
0.4999999999999905
100
AcDbArc
 50
96.5819446552
 51
165.0
  0
LINE
  5
88
330
1F
100
AcDbEntity
  8
0
  6
Continuous
 62
     7
370
    15
100
AcDbLine
 10
146.5084313999
 20
97.2086031943
 30
0.0
 11
171.870756972
 21
100.1350253757
 31
0.0
  0
LINE
  5
89
330
1F
100
AcDbEntity
  8
0
  6
Continuous
 62
     7
370
    15
100
AcDbLine
 10
154.3262903612
 20
134.2286176769
 30
0.0
 11
146.5084313999
 21
135.1306783263
 31
0.0
  0
LINE
  5
8A
330
1F
100
AcDbEntity
  8
0
  6
Continuous
 62
     7
370
    15
100
AcDbLine
 10
171.870756972
 20
132.2042561449
 30
0.0
 11
164.7259128482
 21
133.0286612361
 31
0.0
  0
LINE
  5
8B
330
1F
100
AcDbEntity
  8
0
  6
Continuous
 62
     7
370
    15
100
AcDbLine
 10
171.870756972
 20
100.1350253757
 30
0.0
 11
172.170756972
 21
100.4350253757
 31
0.0
  0
LINE
  5
8C
330
1F
100
AcDbEntity
  8
0
  6
Continuous
 62
     7
370
    15
100
AcDbLine
 10
172.170756972
 20
131.9042561449
 30
0.0
 11
171.870756972
 21
132.2042561449
 31
0.0
  0
ARC
  5
8D
330
1F
100
AcDbEntity
  8
0
  6
Continuous
 62
     7
370
    15
100
AcDbCircle
 10
131.770756972
 20
104.9196407603
 30
0.0
 40
0.5999999999999948
100
AcDbArc
 50
48.1896851042
 51
90.0
  0
ARC
  5
8E
330
1F
100
AcDbEntity
  8
0
  6
Continuous
 62
     7
370
    15
100
AcDbCircle
 10
131.770756972
 20
127.4196407603
 30
0.0
 40
0.6000000000000054
100
AcDbArc
 50
270.0
 51
311.8103148958
  0
LINE
  5
8F
330
1F
100
AcDbEntity
  8
0
  6
Continuous
 62
     7
370
    15
100
AcDbLine
 10
110.170756972
 20
105.1696407603
 30
0.0
 11
129.670756972
 21
105.1696407603
 31
0.0
  0
LINE
  5
90
330
1F
100
AcDbEntity
  8
0
  6
Continuous
 62
     7
370
    15
100
AcDbLine
 10
114.4310647887
 20
127.1696407603
 30
0.0
 11
110.170756972
 21
127.1696407603
 31
0.0
  0
LINE
  5
91
330
1F
100
AcDbEntity
  8
0
  6
Continuous
 62
     7
370
    15
100
AcDbLine
 10
129.670756972
 20
127.1696407603
 30
0.0
 11
126.4041214268
 21
127.1696407603
 31
0.0
  0
LINE
  5
92
330
1F
100
AcDbEntity
  8
0
  6
Continuous
 62
     7
370
    15
100
AcDbLine
 10
129.670756972
 20
105.1696407603
 30
0.0
 11
130.9006748262
 21
105.4991962561
 31
0.0
  0
LINE
  5
93
330
1F
100
AcDbEntity
  8
0
  6
Continuous
 62
     7
370
    15
100
AcDbLine
 10
130.9006748262
 20
126.8400852645
 30
0.0
 11
129.670756972
 21
127.1696407603
 31
0.0
  0
LINE
  5
94
330
1F
100
AcDbEntity
  8
0
  6
Continuous
 62
     7
370
    15
100
AcDbLine
 10
110.170756972
 20
127.1696407603
 30
0.0
 11
106.6718891227
 21
126.7746893039
 31
0.0
  0
LINE
  5
95
330
1F
100
AcDbEntity
  8
0
  6
Continuous
 62
     7
370
    15
100
AcDbLine
 10
106.6718891227
 20
105.5645922167
 30
0.0
 11
110.170756972
 21
105.1696407603
 31
0.0
  0
ARC
  5
96
330
1F
100
AcDbEntity
  8
0
  6
Continuous
 62
     7
370
    15
100
AcDbCircle
 10
105.370756972
 20
106.3796407603
 30
0.0
 40
1.200000000000003
100
AcDbArc
 50
180.0
 51
300.0
  0
ARC
  5
97
330
1F
100
AcDbEntity
  8
0
  6
Continuous
 62
     7
370
    15
100
AcDbCircle
 10
105.370756972
 20
125.9596407603
 30
0.0
 40
1.200000000000005
100
AcDbArc
 50
60.0
 51
180.0
  0
LINE
  5
98
330
1F
100
AcDbEntity
  8
0
  6
Continuous
 62
     7
370
    15
100
AcDbLine
 10
105.970756972
 20
105.3404102757
 30
0.0
 11
106.1821551718
 21
105.4624610833
 31
0.0
  0
LINE
  5
99
330
1F
100
AcDbEntity
  8
0
  6
Continuous
 62
     7
370
    15
100
AcDbLine
 10
106.1821551718
 20
126.8768204373
 30
0.0
 11
105.970756972
 21
126.9988712448
 31
0.0
  0
ARC
  5
9A
330
1F
100
AcDbEntity
  8
0
  6
Continuous
 62
     7
370
    15
100
AcDbCircle
 10
106.5821551718
 20
104.7696407603
 30
0.0
 40
0.8000000000000119
100
AcDbArc
 50
83.5597259642
 51
120.0
  0
ARC
  5
9B
330
1F
100
AcDbEntity
  8
0
  6
Continuous
 62
     7
370
    15
100
AcDbCircle
 10
106.5821551718
 20
127.5696407603
 30
0.0
 40
0.8000000000000181
100
AcDbArc
 50
240.0
 51
276.4402740358
  0
ARC
  5
9C
330
1F
100
AcDbEntity
  8
0
  6
Continuous
 62
     7
370
    15
100
AcDbCircle
 10
131.0559662532
 20
104.9196407603
 30
0.0
 40
0.5999999999999934
100
AcDbArc
 50
90.0
 51
105.0
  0
ARC
  5
9D
330
1F
100
AcDbEntity
  8
0
  6
Continuous
 62
     7
370
    15
100
AcDbCircle
 10
131.0559662532
 20
127.4196407603
 30
0.0
 40
0.5999999999999943
100
AcDbArc
 50
255.0
 51
270.0
  0
LINE
  5
9E
330
1F
100
AcDbEntity
  8
0
  6
Continuous
 62
     7
370
    15
100
AcDbLine
 10
131.0559662532
 20
105.5196407603
 30
0.0
 11
131.770756972
 21
105.5196407603
 31
0.0
  0
LINE
  5
9F
330
1F
100
AcDbEntity
  8
0
  6
Continuous
 62
     7
370
    15
100
AcDbLine
 10
131.770756972
 20
126.8196407603
 30
0.0
 11
131.0559662532
 21
126.8196407603
 31
0.0
  0
SPLINE
  5
A0
330
1F
100
AcDbEntity
  8
0
  6
Continuous
 62
     7
370
    15
100
AcDbSpline
210
0.0
220
0.0
230
1.0
 70
    24
 71
     3
 72
    11
 73
     7
 74
     0
 42
0.000000001
 43
0.00000001
 40
0.0
 40
0.0
 40
0.0
 40
0.0
 40
0.2164526859271186
 40
0.4403055508634002
 40
0.751896020422191
 40
1.0
 40
1.0
 40
1.0
 40
1.0
 10
159.7561514252893
 20
113.8892030547985
 30
0.0
 10
159.9039211954473
 20
113.9456787289335
 30
0.0
 10
160.2045127532358
 20
114.060560892229
 30
0.0
 10
160.762333614746
 20
114.2737527322562
 30
0.0
 10
161.3607038079317
 20
114.5024419966867
 30
0.0
 10
161.7436271353982
 20
114.6487902859044
 30
0.0
 10
161.9133711833589
 20
114.7136642417125
 30
0.0
  0
SPLINE
  5
A1
330
1F
100
AcDbEntity
  8
0
  6
Continuous
 62
     7
370
    15
100
AcDbSpline
210
0.0
220
0.0
230
1.0
 70
    24
 71
     3
 72
    11
 73
     7
 74
     0
 42
0.000000001
 43
0.00000001
 40
0.0
 40
0.0
 40
0.0
 40
0.0
 40
0.2164526859271177
 40
0.4403055508634
 40
0.7518960204221906
 40
1.0
 40
1.0
 40
1.0
 40
1.0
 10
161.9133711833589
 20
114.7136642417125
 30
0.0
 10
161.9383466999411
 20
114.8698744536482
 30
0.0
 10
161.9891516069798
 20
115.1876354605039
 30
0.0
 10
162.0834324883917
 20
115.7773184173463
 30
0.0
 10
162.184566872415
 20
116.4098668377278
 30
0.0
 10
162.2492871998853
 20
116.8146623116242
 30
0.0
 10
162.2779767300919
 20
116.9941019472035
 30
0.0
  0
SPLINE
  5
A2
330
1F
100
AcDbEntity
  8
0
  6
Continuous
 62
     7
370
    15
100
AcDbSpline
210
0.0
220
0.0
230
1.0
 70
    24
 71
     3
 72
    12
 73
     8
 74
     0
 42
0.000000001
 43
0.00000001
 40
0.0
 40
0.0
 40
0.0
 40
0.0
 40
0.1846759037506562
 40
0.519129851440286
 40
0.6951510038950937
 40
0.871621028286886
 40
1.0
 40
1.0
 40
1.0
 40
1.0
 10
162.2779767300919
 20
116.9941019472035
 30
0.0
 10
162.1736648786015
 20
117.078824920735
 30
0.0
 10
161.880440939431
 20
117.3169838996257
 30
0.0
 10
161.4423398535593
 20
117.672813330051
 30
0.0
 10
161.0160498710152
 20
118.0190496818347
 30
0.0
 10
160.72922152801
 20
118.25201410309
 30
0.0
 10
160.5576255561782
 20
118.3913858117875
 30
0.0
 10
160.4853625187553
 20
118.4500784657804
 30
0.0
  0
SPLINE
  5
A3
330
1F
100
AcDbEntity
  8
0
  6
Continuous
 62
     7
370
    15
100
AcDbSpline
210
0.0
220
0.0
230
1.0
 70
    24
 71
     3
 72
    11
 73
     7
 74
     0
 42
0.000000001
 43
0.00000001
 40
0.0
 40
0.0
 40
0.0
 40
0.0
 40
0.2164526859271181
 40
0.4403055508634004
 40
0.7518960204221908
 40
1.0
 40
1.0
 40
1.0
 40
1.0
 10
158.3281427606858
 20
117.6256172788664
 30
0.0
 10
158.3031672441036
 20
117.4694070669307
 30
0.0
 10
158.2523623370649
 20
117.151646060075
 30
0.0
 10
158.158081455653
 20
116.5619631032327
 30
0.0
 10
158.0569470716297
 20
115.9294146828511
 30
0.0
 10
157.9922267441594
 20
115.5246192089547
 30
0.0
 10
157.9635372139527
 20
115.3451795733754
 30
0.0
  0
SPLINE
  5
A4
330
1F
100
AcDbEntity
  8
0
  6
Continuous
 62
     7
370
    15
100
AcDbSpline
210
0.0
220
0.0
230
1.0
 70
    24
 71
     3
 72
    12
 73
     8
 74
     0
 42
0.000000001
 43
0.00000001
 40
0.0
 40
0.0
 40
0.0
 40
0.0
 40
0.128378971713114
 40
0.3048489961049064
 40
0.4808701485597141
 40
0.8153240962493437
 40
0.9999999999999999
 40
0.9999999999999999
 40
0.9999999999999999
 40
0.9999999999999999
 10
157.9635372139527
 20
115.3451795733754
 30
0.0
 10
158.0358002513757
 20
115.2864869193825
 30
0.0
 10
158.2073962232074
 20
115.147115210685
 30
0.0
 10
158.4942245662127
 20
114.9141507894297
 30
0.0
 10
158.9205145487568
 20
114.5679144376461
 30
0.0
 10
159.3586156346284
 20
114.2120850072207
 30
0.0
 10
159.651839573799
 20
113.97392602833
 30
0.0
 10
159.7561514252893
 20
113.8892030547985
 30
0.0
  0
CIRCLE
  5
A5
330
1F
100
AcDbEntity
  8
0
  6
Continuous
 62
     7
370
    15
100
AcDbCircle
 10
160.120756972
 20
116.1696407603
 30
0.0
 40
2.399999999999992
  0
SPLINE
  5
A6
330
1F
100
AcDbEntity
  8
0
  6
Continuous
 62
     7
370
    15
100
AcDbSpline
210
0.0
220
0.0
230
1.0
 70
    24
 71
     3
 72
    11
 73
     7
 74
     0
 42
0.000000001
 43
0.00000001
 40
0.0
 40
0.0
 40
0.0
 40
0.0
 40
0.2164526859271185
 40
0.4403055508634
 40
0.7518960204221905
 40
1.0
 40
1.0
 40
1.0
 40
1.0
 10
160.4853625187553
 20
118.4500784657804
 30
0.0
 10
160.3375927485974
 20
118.3936027916454
 30
0.0
 10
160.0370011908088
 20
118.2787206283499
 30
0.0
 10
159.4791803292987
 20
118.0655287883227
 30
0.0
 10
158.8808101361129
 20
117.8368395238922
 30
0.0
 10
158.4978868086465
 20
117.6904912346745
 30
0.0
 10
158.3281427606858
 20
117.6256172788664
 30
0.0
  0
CIRCLE
  5
A7
330
1F
100
AcDbEntity
  8
0
  6
Continuous
 62
     7
370
    15
100
AcDbCircle
 10
160.120756972
 20
116.1696407603
 30
0.0
 40
3.299999999999998
  0
ARC
  5
A8
330
1F
100
AcDbEntity
  8
0
  6
Continuous
 62
     7
370
    15
100
AcDbCircle
 10
160.120756972
 20
116.1696407603
 30
0.0
 40
2.000000000000004
100
AcDbArc
 50
50.916202515
 51
110.916202515
  0
ARC
  5
A9
330
1F
100
AcDbEntity
  8
0
  6
Continuous
 62
     7
370
    15
100
AcDbCircle
 10
160.120756972
 20
116.1696407603
 30
0.0
 40
2.000000000000004
100
AcDbArc
 50
110.916202515
 51
170.916202515
  0
ARC
  5
AA
330
1F
100
AcDbEntity
  8
0
  6
Continuous
 62
     7
370
    15
100
AcDbCircle
 10
160.120756972
 20
116.1696407603
 30
0.0
 40
2.000000000000002
100
AcDbArc
 50
350.916202515
 51
50.916202515
  0
ARC
  5
AB
330
1F
100
AcDbEntity
  8
0
  6
Continuous
 62
     7
370
    15
100
AcDbCircle
 10
160.120756972
 20
116.1696407603
 30
0.0
 40
2.000000000000008
100
AcDbArc
 50
170.916202515
 51
230.916202515
  0
ARC
  5
AC
330
1F
100
AcDbEntity
  8
0
  6
Continuous
 62
     7
370
    15
100
AcDbCircle
 10
160.120756972
 20
116.1696407603
 30
0.0
 40
2.000000000000004
100
AcDbArc
 50
290.916202515
 51
350.916202515
  0
ARC
  5
AD
330
1F
100
AcDbEntity
  8
0
  6
Continuous
 62
     7
370
    15
100
AcDbCircle
 10
160.120756972
 20
116.1696407603
 30
0.0
 40
2.000000000000008
100
AcDbArc
 50
230.916202515
 51
290.916202515
  0
LINE
  5
AE
330
1F
100
AcDbEntity
  8
0
  6
Continuous
 62
     7
370
    15
100
AcDbLine
 10
132.570756972
 20
116.1696407603
 30
0.0
 11
132.570756972
 21
136.1696407603
 31
0.0
  0
LINE
  5
AF
330
1F
100
AcDbEntity
  8
0
  6
Continuous
 62
     7
370
    15
100
AcDbLine
 10
132.570756972
 20
96.1696407603
 30
0.0
 11
132.570756972
 21
116.1696407603
 31
0.0
  0
LINE
  5
B0
330
1F
100
AcDbEntity
  8
0
  6
Continuous
 62
     7
370
    15
100
AcDbLine
 10
132.170756972
 20
116.1696407603
 30
0.0
 11
132.170756972
 21
135.7696407603
 31
0.0
  0
LINE
  5
B1
330
1F
100
AcDbEntity
  8
0
  6
Continuous
 62
     7
370
    15
100
AcDbLine
 10
132.170756972
 20
96.5696407603
 30
0.0
 11
132.170756972
 21
116.1696407603
 31
0.0
  0
SPLINE
  5
B2
330
1F
100
AcDbEntity
  8
0
  6
Continuous
 62
     7
370
    15
100
AcDbSpline
210
0.0
220
0.0
230
1.0
 70
    11
 71
     3
 72
    78
 73
    74
 74
     0
 42
0.000000001
 43
0.00000001
 40
0.0
 40
0.0
 40
0.0
 40
0.0
 40
0.0312500000000002
 40
0.0312500000000002
 40
0.0468750000000003
 40
0.0468750000000003
 40
0.0625000000000005
 40
0.0625000000000005
 40
0.0937500000000006
 40
0.0937500000000006
 40
0.1093750000000007
 40
0.1093750000000007
 40
0.1250000000000008
 40
0.1250000000000008
 40
0.1562500000000011
 40
0.1562500000000011
 40
0.1875000000000014
 40
0.1875000000000014
 40
0.2187500000000016
 40
0.2187500000000016
 40
0.2500000000000018
 40
0.2500000000000018
 40
0.2812500000000021
 40
0.2812500000000021
 40
0.3125000000000023
 40
0.3125000000000023
 40
0.3437500000000026
 40
0.3437500000000026
 40
0.3750000000000029
 40
0.3750000000000029
 40
0.4062500000000031
 40
0.4062500000000031
 40
0.4375000000000034
 40
0.4375000000000034
 40
0.4687500000000036
 40
0.4687500000000036
 40
0.4843750000000037
 40
0.4843750000000037
 40
0.5000000000000039
 40
0.5000000000000039
 40
0.5312500000000037
 40
0.5312500000000037
 40
0.5625000000000034
 40
0.5625000000000034
 40
0.5781250000000033
 40
0.5781250000000033
 40
0.5937500000000031
 40
0.5937500000000031
 40
0.6250000000000029
 40
0.6250000000000029
 40
0.6562500000000027
 40
0.6562500000000027
 40
0.6875000000000024
 40
0.6875000000000024
 40
0.7187500000000022
 40
0.7187500000000022
 40
0.7500000000000019
 40
0.7500000000000019
 40
0.7812500000000017
 40
0.7812500000000017
 40
0.8125000000000014
 40
0.8125000000000014
 40
0.8437500000000012
 40
0.8437500000000012
 40
0.875000000000001
 40
0.875000000000001
 40
0.9062500000000008
 40
0.9062500000000008
 40
0.9375000000000004
 40
0.9375000000000004
 40
0.9687500000000002
 40
0.9687500000000002
 40
1.0
 40
1.0
 40
1.0
 40
1.0
 10
155.3618428954441
 20
113.4485719756263
 30
0.0
 10
155.1531443058845
 20
113.689883708922
 30
0.0
 10
154.9717534046883
 20
113.9483349794301
 30
0.0
 10
154.7430528420416
 20
114.363747440653
 30
0.0
 10
154.6741053023428
 20
114.5068748153162
 30
0.0
 10
154.5520079339318
 20
114.8032963658739
 30
0.0
 10
154.4988629817514
 20
114.9571627664141
 30
0.0
 10
154.3694448668348
 20
115.4204038552124
 30
0.0
 10
154.3207353083958
 20
115.7357858286982
 30
0.0
 10
154.30686381733
 20
116.2192308738851
 30
0.0
 10
154.3124049992408
 20
116.3831032209712
 30
0.0
 10
154.3434230152136
 20
116.704478402282
 30
0.0
 10
154.3687517519381
 20
116.8630191987382
 30
0.0
 10
154.47308820058
 20
117.33245778003
 30
0.0
 10
154.5822940799618
 20
117.6403964475746
 30
0.0
 10
154.8624752233316
 20
118.2142592869898
 30
0.0
 10
155.0343912102504
 20
118.4842932014
 30
0.0
 10
155.4303105610921
 20
118.9842765102004
 30
0.0
 10
155.6506150156998
 20
119.2102520914278
 30
0.0
 10
156.1314775117304
 20
119.6200034036034
 30
0.0
 10
156.3929406039258
 20
119.8035847542713
 30
0.0
 10
156.9372864837754
 20
120.119448706342
 30
0.0
 10
157.2222041451218
 20
120.2536348835445
 30
0.0
 10
157.8176149502074
 20
120.4757710408055
 30
0.0
 10
158.1243950218877
 20
120.5619868034147
 30
0.0
 10
158.7449226608136
 20
120.6837205170973
 30
0.0
 10
159.0603470766306
 20
120.7198714105497
 30
0.0
 10
159.7021855110347
 20
120.7405600416837
 30
0.0
 10
160.0241032711469
 20
120.7245725540052
 30
0.0
 10
160.6564591322035
 20
120.6407499581878
 30
0.0
 10
160.9689888682807
 20
120.5730283857368
 30
0.0
 10
161.5860717626211
 20
120.3821463825553
 30
0.0
 10
161.8874469773222
 20
120.2593432116892
 30
0.0
 10
162.4562779706833
 20
119.9656100252029
 30
0.0
 10
162.7266767898911
 20
119.7939003917479
 30
0.0
 10
163.1092082816663
 20
119.495397084623
 30
0.0
 10
163.2327790714694
 20
119.3889045657542
 30
0.0
 10
163.4658367183296
 20
119.1668639637652
 30
0.0
 10
163.5761318171623
 20
119.0507267681229
 30
0.0
 10
163.8880818180446
 20
118.6867146227163
 30
0.0
 10
164.0712508481095
 20
118.4231084524018
 30
0.0
 10
164.3802496881237
 20
117.8503783213409
 30
0.0
 10
164.4999185125623
 20
117.5527163757659
 30
0.0
 10
164.6267969054576
 20
117.0890599760851
 30
0.0
 10
164.6602500982471
 20
116.931625395058
 30
0.0
 10
164.708491181632
 20
116.6106602173555
 30
0.0
 10
164.7229997188428
 20
116.4479181489989
 30
0.0
 10
164.7370324222906
 20
115.9645605724135
 30
0.0
 10
164.7081329236161
 20
115.6443902859992
 30
0.0
 10
164.5729295617245
 20
115.0082283288132
 30
0.0
 10
164.4682388374046
 20
114.7016297684304
 30
0.0
 10
164.1933063490207
 20
114.119081601909
 30
0.0
 10
164.0206152080517
 20
113.8398996365483
 30
0.0
 10
163.6260281706744
 20
113.3310801548179
 30
0.0
 10
163.4022958632316
 20
113.0975752240888
 30
0.0
 10
162.9085090780206
 20
112.6750870907339
 30
0.0
 10
162.6443864584169
 20
112.490887102794
 30
0.0
 10
162.0846023156254
 20
112.1718441141771
 30
0.0
 10
161.7861593638833
 20
112.0364066367354
 30
0.0
 10
161.1781094597105
 20
111.8222600666965
 30
0.0
 10
160.8671557341019
 20
111.7422538034856
 30
0.0
 10
160.2320313028358
 20
111.6342849275526
 30
0.0
 10
159.9077467131935
 20
111.6069586618071
 30
0.0
 10
159.2691019796931
 20
111.6050982602181
 30
0.0
 10
158.9517916365224
 20
111.6299242130801
 30
0.0
 10
158.3210617238859
 20
111.731030866418
 30
0.0
 10
158.0094603480589
 20
111.8075146137125
 30
0.0
 10
157.4111873924592
 20
112.0071270971221
 30
0.0
 10
157.121853328568
 20
112.1305885613569
 30
0.0
 10
156.5632989448696
 20
112.4276808863534
 30
0.0
 10
156.2953989857934
 20
112.6012626751046
 30
0.0
 10
155.8006063537132
 20
112.9901397046562
 30
0.0
 10
155.5705414850037
 20
113.2072602423305
 30
0.0
 10
155.3618428954441
 20
113.4485719756263
 30
0.0
  0
LINE
  5
B3
330
1F
100
AcDbEntity
  8
0
  6
Continuous
 62
     7
370
    15
100
AcDbLine
 10
171.870756972
 20
132.2042561449
 30
0.0
 11
171.870756972
 21
100.1350253757
 31
0.0
  0
SPLINE
  5
B4
330
1F
100
AcDbEntity
  8
0
  6
Continuous
 62
     7
370
    15
100
AcDbSpline
210
0.0
220
0.0
230
1.0
 70
     8
 71
     3
 72
    27
 73
    23
 74
     0
 42
0.000000001
 43
0.00000001
 40
0.0
 40
0.0
 40
0.0
 40
0.0
 40
0.0409483760831718
 40
0.0861394948539105
 40
0.1297328588582468
 40
0.1744325853349958
 40
0.2212256105500568
 40
0.2691392795642985
 40
0.3207643311752423
 40
0.3736574319506088
 40
0.4298276782380285
 40
0.4874315831768311
 40
0.5473963545736695
 40
0.6089299205672714
 40
0.6720304803985869
 40
0.7370030485268316
 40
0.7895596567981352
 40
0.8435311745453681
 40
0.8875638239259225
 40
0.9328026372088642
 40
0.9768800704783616
 40
1.0
 40
1.0
 40
1.0
 40
1.0
 10
164.7258161701355
 20
133.0278233591501
 30
0.0
 10
164.7176267236467
 20
133.026795264059
 30
0.0
 10
164.7003993058304
 20
133.0246325508995
 30
0.0
 10
164.5313834964271
 20
133.0042160461236
 30
0.0
 10
164.2602494236864
 20
132.9743518404514
 30
0.0
 10
163.8865577890726
 20
132.9386990352657
 30
0.0
 10
163.4123319457943
 20
132.9029303959036
 30
0.0
 10
162.8338169462366
 20
132.8737069429979
 30
0.0
 10
162.1609140534833
 20
132.8598692050639
 30
0.0
 10
161.3944005770186
 20
132.8707774430663
 30
0.0
 10
160.5589909096367
 20
132.9148482710739
 30
0.0
 10
159.6678816112227
 20
132.9985756317342
 30
0.0
 10
158.7511559054834
 20
133.1232326459057
 30
0.0
 10
157.8319304979892
 20
133.2862231818437
 30
0.0
 10
156.9382707495816
 20
133.4794602242239
 30
0.0
 10
156.1596839648004
 20
133.6753959639181
 30
0.0
 10
155.5088066151729
 20
133.8568015500171
 30
0.0
 10
155.026750232019
 20
134.0011415564185
 30
0.0
 10
154.6651611223726
 20
134.1146764832967
 30
0.0
 10
154.433775951231
 20
134.1896079736448
 30
0.0
 10
154.3140837723992
 20
134.2291195495993
 30
0.0
 10
154.3228739251167
 20
134.2262178685671
 30
0.0
 10
154.3258982656989
 20
134.2252195159804
 30
0.0
  0
LINE
  5
B5
330
1F
100
AcDbEntity
  8
0
  6
Continuous
 62
     7
370
    15
100
AcDbLine
 10
172.170756972
 20
131.9042561449
 30
0.0
 11
172.170756972
 21
100.4350253757
 31
0.0
  0
SPLINE
  5
B6
330
1F
100
AcDbEntity
  8
0
  6
Continuous
 62
     7
370
    15
100
AcDbSpline
210
0.0
220
0.0
230
1.0
 70
    11
 71
     3
 72
    72
 73
    68
 74
     0
 42
0.000000001
 43
0.00000001
 40
0.0
 40
0.0
 40
0.0
 40
0.0
 40
0.0625000000000005
 40
0.0625000000000005
 40
0.125000000000001
 40
0.125000000000001
 40
0.1875000000000015
 40
0.1875000000000015
 40
0.2187500000000017
 40
0.2187500000000017
 40
0.250000000000002
 40
0.250000000000002
 40
0.2812500000000021
 40
0.2812500000000021
 40
0.2968750000000022
 40
0.2968750000000022
 40
0.3125000000000022
 40
0.3125000000000022
 40
0.3437500000000022
 40
0.3437500000000022
 40
0.3750000000000023
 40
0.3750000000000023
 40
0.3906250000000023
 40
0.3906250000000023
 40
0.4062500000000023
 40
0.4062500000000023
 40
0.4375000000000024
 40
0.4375000000000024
 40
0.4531250000000023
 40
0.4531250000000023
 40
0.4687500000000023
 40
0.4687500000000023
 40
0.5000000000000022
 40
0.5000000000000022
 40
0.5312500000000021
 40
0.5312500000000021
 40
0.562500000000002
 40
0.562500000000002
 40
0.593750000000002
 40
0.593750000000002
 40
0.6250000000000019
 40
0.6250000000000019
 40
0.6562500000000018
 40
0.6562500000000018
 40
0.6875000000000017
 40
0.6875000000000017
 40
0.7187500000000017
 40
0.7187500000000017
 40
0.7500000000000016
 40
0.7500000000000016
 40
0.7812500000000013
 40
0.7812500000000013
 40
0.8125000000000011
 40
0.8125000000000011
 40
0.843750000000001
 40
0.843750000000001
 40
0.8593750000000009
 40
0.8593750000000009
 40
0.8750000000000008
 40
0.8750000000000008
 40
0.9062500000000006
 40
0.9062500000000006
 40
0.9375000000000003
 40
0.9375000000000003
 40
0.9687500000000002
 40
0.9687500000000002
 40
1.0
 40
1.0
 40
1.0
 40
1.0
 10
116.4630662192077
 20
112.5265123438989
 30
0.0
 10
117.0410284638302
 20
112.1129712052843
 30
0.0
 10
117.6754096356521
 20
111.8106391266895
 30
0.0
 10
119.0515804598739
 20
111.3973477313134
 30
0.0
 10
119.7581902284819
 20
111.2983030739696
 30
0.0
 10
121.2064917611482
 20
111.3105806318697
 30
0.0
 10
121.9116900637545
 20
111.4218792979008
 30
0.0
 10
122.9351066065213
 20
111.7489526058871
 30
0.0
 10
123.2645675893172
 20
111.8835766038074
 30
0.0
 10
123.8915300642776
 20
112.2012854215242
 30
0.0
 10
124.1906127066856
 20
112.3847767461135
 30
0.0
 10
124.7575572688369
 20
112.8080514141463
 30
0.0
 10
125.0213344482831
 20
113.0454177576165
 30
0.0
 10
125.3751554803477
 20
113.436178492874
 30
0.0
 10
125.4865856280176
 20
113.5726378056214
 30
0.0
 10
125.6952606884005
 20
113.8593322344453
 30
0.0
 10
125.79290041791
 20
114.0104400324171
 30
0.0
 10
126.0555518752452
 20
114.4757620613845
 30
0.0
 10
126.1929610963898
 20
114.8040781998323
 30
0.0
 10
126.3799592070455
 20
115.5036966350686
 30
0.0
 10
126.4250641396971
 20
115.8603428115401
 30
0.0
 10
126.4181200896717
 20
116.399315487787
 30
0.0
 10
126.4030483556036
 20
116.5815661738232
 30
0.0
 10
126.3483102885393
 20
116.9388569991758
 30
0.0
 10
126.3089417689003
 20
117.1138932376293
 30
0.0
 10
126.1570288100294
 20
117.6288849517313
 30
0.0
 10
126.0086039838438
 20
117.9612407609481
 30
0.0
 10
125.7356894507458
 20
118.4190392629619
 30
0.0
 10
125.6361086936587
 20
118.5658306973192
 30
0.0
 10
125.4207328069983
 20
118.848641585133
 30
0.0
 10
125.3046552506375
 20
118.9847936905537
 30
0.0
 10
124.9408606004184
 20
119.3699518390118
 30
0.0
 10
124.6755607774843
 20
119.599133244212
 30
0.0
 10
124.1040065554214
 20
120.0101423437695
 30
0.0
 10
123.7955988553296
 20
120.1924247759941
 30
0.0
 10
123.1589167044706
 20
120.5012236213639
 30
0.0
 10
122.8286035850273
 20
120.6295311674034
 30
0.0
 10
122.1439066541047
 20
120.8360868578052
 30
0.0
 10
121.7904952095344
 20
120.9134219063074
 30
0.0
 10
121.0832161758899
 20
121.013699328745
 30
0.0
 10
120.7264606203185
 20
121.0375855808122
 30
0.0
 10
120.0065750921514
 20
121.032210856471
 30
0.0
 10
119.6436261681421
 20
121.0022969948794
 30
0.0
 10
118.9379870395561
 20
120.8906759913725
 30
0.0
 10
118.5918343759679
 20
120.8091082641004
 30
0.0
 10
117.9128694440749
 20
120.5926662764057
 30
0.0
 10
117.5795372432704
 20
120.4568981487492
 30
0.0
 10
116.9508551708689
 20
120.1385566448701
 30
0.0
 10
116.6522153628959
 20
119.9552229894629
 30
0.0
 10
116.0881961018283
 20
119.5346555366787
 30
0.0
 10
115.8216238422909
 20
119.2953316901123
 30
0.0
 10
115.3486402783204
 20
118.7732215666583
 30
0.0
 10
115.1387995655525
 20
118.4882475549019
 30
0.0
 10
114.7855610380889
 20
117.8631771528022
 30
0.0
 10
114.6483953275098
 20
117.5342110893442
 30
0.0
 10
114.5088346540675
 20
117.0126743198257
 30
0.0
 10
114.473519576935
 20
116.8331198634359
 30
0.0
 10
114.4286878188862
 20
116.4758443296173
 30
0.0
 10
114.4186971775079
 20
116.296841475942
 30
0.0
 10
114.4259280369584
 20
115.7587384388818
 30
0.0
 10
114.4824095037221
 20
115.394545791357
 30
0.0
 10
114.6856488159724
 20
114.7073550867383
 30
0.0
 10
114.8340924070866
 20
114.3755227752275
 30
0.0
 10
115.1992160166643
 20
113.7641231258299
 30
0.0
 10
115.4166217625276
 20
113.481374011221
 30
0.0
 10
115.9053379121112
 20
112.9647864077293
 30
0.0
 10
116.1740850968965
 20
112.7332829132061
 30
0.0
 10
116.4630662192077
 20
112.5265123438988
 30
0.0
  0
CIRCLE
  5
B7
330
1F
100
AcDbEntity
  8
0
  6
Continuous
 62
     7
370
    15
100
AcDbCircle
 10
120.420756972
 20
116.1696407603
 30
0.0
 40
4.668585659274399
  0
LINE
  5
B8
330
1F
100
AcDbEntity
  8
0
  6
Continuous
 62
     7
370
    15
100
AcDbLine
 10
129.670756972
 20
116.1696407603
 30
0.0
 11
129.670756972
 21
127.1696407603
 31
0.0
  0
LINE
  5
B9
330
1F
100
AcDbEntity
  8
0
  6
Continuous
 62
     7
370
    15
100
AcDbLine
 10
129.670756972
 20
105.1696407603
 30
0.0
 11
129.670756972
 21
116.1696407603
 31
0.0
  0
LINE
  5
BA
330
1F
100
AcDbEntity
  8
0
  6
Continuous
 62
     7
370
    15
100
AcDbLine
 10
110.170756972
 20
116.1696407603
 30
0.0
 11
110.170756972
 21
127.1696407603
 31
0.0
  0
LINE
  5
BB
330
1F
100
AcDbEntity
  8
0
  6
Continuous
 62
     7
370
    15
100
AcDbLine
 10
110.170756972
 20
105.1696407603
 30
0.0
 11
110.170756972
 21
116.1696407603
 31
0.0
  0
SPLINE
  5
BC
330
1F
100
AcDbEntity
  8
0
  6
Continuous
 62
     7
370
    15
100
AcDbSpline
210
0.0
220
0.0
230
1.0
 70
     8
 71
     3
 72
    28
 73
    24
 74
     0
 42
0.000000001
 43
0.00000001
 40
0.0
 40
0.0
 40
0.0
 40
0.0
 40
0.0075212895430895
 40
0.0438037356138792
 40
0.0811417894268158
 40
0.117692981297683
 40
0.1550351901579143
 40
0.2075235413066464
 40
0.2615238585663707
 40
0.3150118354127444
 40
0.3696325225945302
 40
0.432021419764987
 40
0.4961644185371181
 40
0.5593792361329614
 40
0.6244382584818224
 40
0.6875785269392658
 40
0.7525753369684106
 40
0.8031589663366921
 40
0.8550529921870414
 40
0.8953312354016335
 40
0.9366800564407014
 40
0.9770115257706576
 40
0.9999999999999999
 40
0.9999999999999999
 40
0.9999999999999999
 40
0.9999999999999999
 10
114.4310647886861
 20
127.1660120367876
 30
0.0
 10
114.4277530873723
 20
127.1671776440451
 30
0.0
 10
114.4084658510612
 20
127.1739661012429
 30
0.0
 10
114.4852843082359
 20
127.1468477445174
 30
0.0
 10
114.6486958022353
 20
127.0900092510975
 30
0.0
 10
114.9146043248392
 20
127.0001229512956
 30
0.0
 10
115.3009510304077
 20
126.8750824780928
 30
0.0
 10
115.8433710169706
 20
126.7111866886495
 30
0.0
 10
116.5486012363178
 20
126.5222686370435
 30
0.0
 10
117.3436767176393
 20
126.3429240507236
 30
0.0
 10
118.2446708328605
 20
126.1844563713997
 30
0.0
 10
119.2558909717013
 20
126.0680235993374
 30
0.0
 10
120.3478878343678
 20
126.0214144560176
 30
0.0
 10
121.4570930358577
 20
126.0579389892129
 30
0.0
 10
122.5313592086983
 20
126.1729644062954
 30
0.0
 10
123.5554734452063
 20
126.3518557169122
 30
0.0
 10
124.4216857970619
 20
126.5541062282799
 30
0.0
 10
125.1372145170606
 20
126.751793363874
 30
0.0
 10
125.6541104579008
 20
126.9108883881609
 30
0.0
 10
126.0376678663594
 20
127.0370416228636
 30
0.0
 10
126.2829424845516
 20
127.1211364460613
 30
0.0
 10
126.4137463539575
 20
127.1671605918228
 30
0.0
 10
126.4066850514732
 20
127.1646773125934
 30
0.0
 10
126.404121426791
 20
127.1637757514523
 30
0.0
  0
LINE
  5
BD
330
1F
100
AcDbEntity
  8
0
  6
Continuous
 62
     7
370
    15
100
AcDbLine
 10
104.170756972
 20
116.1696407603
 30
0.0
 11
104.170756972
 21
125.9596407603
 31
0.0
  0
LINE
  5
BE
330
1F
100
AcDbEntity
  8
0
  6
Continuous
 62
     7
370
    15
100
AcDbLine
 10
104.170756972
 20
106.3796407603
 30
0.0
 11
104.170756972
 21
116.1696407603
 31
0.0
  0
SPLINE
  5
BF
330
1F
100
AcDbEntity
  8
0
  6
Continuous
 62
     7
370
    15
100
AcDbSpline
210
0.0
220
0.0
230
1.0
 70
     8
 71
     3
 72
    18
 73
    14
 74
     0
 42
0.000000001
 43
0.00000001
 40
0.0
 40
0.0
 40
0.0
 40
0.0
 40
0.25
 40
0.25
 40
0.375
 40
0.375
 40
0.5
 40
0.5
 40
0.625
 40
0.625
 40
0.75
 40
0.75
 40
1.0
 40
1.0
 40
1.0
 40
1.0
 10
121.6973818924778
 20
118.5738038163238
 30
0.0
 10
121.5336880122971
 20
118.6985817066213
 30
0.0
 10
121.3401368608076
 20
118.8084827983198
 30
0.0
 10
121.0146220435969
 20
118.9248571584111
 30
0.0
 10
120.8990896571258
 20
118.9558226569898
 30
0.0
 10
120.665062647573
 20
118.9971002889298
 30
0.0
 10
120.5450029709664
 20
119.0080155510357
 30
0.0
 10
120.2993315903312
 20
119.0081822930437
 30
0.0
 10
120.179094848659
 20
118.9974583880689
 30
0.0
 10
119.9434088094274
 20
118.956102824325
 30
0.0
 10
119.8276177684174
 20
118.9250680682992
 30
0.0
 10
119.5022782239934
 20
118.8089016270051
 30
0.0
 10
119.3085425833594
 20
118.6991279840759
 30
0.0
 10
119.1441320515669
 20
118.5738038163238
 30
0.0
  0
SPLINE
  5
C0
330
1F
100
AcDbEntity
  8
0
  6
Continuous
 62
     7
370
    15
100
AcDbSpline
210
0.0
220
0.0
230
1.0
 70
     8
 71
     3
 72
    64
 73
    60
 74
     0
 42
0.000000001
 43
0.00000001
 40
0.0
 40
0.0
 40
0.0
 40
0.0
 40
0.0312499999999999
 40
0.0312499999999999
 40
0.0624999999999998
 40
0.0624999999999998
 40
0.0937499999999998
 40
0.0937499999999998
 40
0.1249999999999997
 40
0.1249999999999997
 40
0.1562499999999997
 40
0.1562499999999997
 40
0.1874999999999996
 40
0.1874999999999996
 40
0.2187499999999996
 40
0.2187499999999996
 40
0.2499999999999995
 40
0.2499999999999995
 40
0.2812499999999994
 40
0.2812499999999994
 40
0.3124999999999994
 40
0.3124999999999994
 40
0.3749999999999996
 40
0.3749999999999996
 40
0.4062499999999995
 40
0.4062499999999995
 40
0.4374999999999995
 40
0.4374999999999995
 40
0.4687499999999994
 40
0.4687499999999994
 40
0.4999999999999994
 40
0.4999999999999994
 40
0.5312499999999993
 40
0.5312499999999993
 40
0.5624999999999992
 40
0.5624999999999992
 40
0.5937499999999992
 40
0.5937499999999992
 40
0.6249999999999991
 40
0.6249999999999991
 40
0.6874999999999992
 40
0.6874999999999992
 40
0.7187499999999994
 40
0.7187499999999994
 40
0.7499999999999996
 40
0.7499999999999996
 40
0.7812499999999997
 40
0.7812499999999997
 40
0.8124999999999997
 40
0.8124999999999997
 40
0.8749999999999999
 40
0.8749999999999999
 40
0.9062499999999999
 40
0.9062499999999999
 40
0.9374999999999999
 40
0.9374999999999999
 40
0.96875
 40
0.96875
 40
1.0
 40
1.0
 40
1.0
 40
1.0
 10
121.6973818924778
 20
118.5738038163238
 30
0.0
 10
121.8407956364968
 20
118.515376196822
 30
0.0
 10
121.9796101838286
 20
118.4463239465809
 30
0.0
 10
122.2408899619078
 20
118.2902600200295
 30
0.0
 10
122.3640156204395
 20
118.2031507039801
 30
0.0
 10
122.5962182839066
 20
118.0088560342005
 30
0.0
 10
122.7060081871728
 20
117.9006968861291
 30
0.0
 10
122.9048850611972
 20
117.6671328713345
 30
0.0
 10
122.9945505361993
 20
117.5415353457744
 30
0.0
 10
123.1525896883444
 20
117.26963860819
 30
0.0
 10
123.2208517839292
 20
117.1225719539922
 30
0.0
 10
123.3269087040975
 20
116.817821306708
 30
0.0
 10
123.3659484285021
 20
116.6568852021983
 30
0.0
 10
123.4101926779357
 20
116.3278182341212
 30
0.0
 10
123.415344984388
 20
116.1628479144942
 30
0.0
 10
123.3917438125454
 20
115.8320323766
 30
0.0
 10
123.3624404466818
 20
115.6667777096646
 30
0.0
 10
123.2740498324525
 20
115.3533206036188
 30
0.0
 10
123.2140142710912
 20
115.2012436380049
 30
0.0
 10
123.0700041088175
 20
114.9177192938
 30
0.0
 10
122.986257114574
 20
114.7857159405209
 30
0.0
 10
122.7025528656615
 20
114.4150306965981
 30
0.0
 10
122.4795331098816
 20
114.211826947232
 30
0.0
 10
122.0991902943344
 20
113.9598175528327
 30
0.0
 10
121.9647190490468
 20
113.8851805796318
 30
0.0
 10
121.6861942940493
 20
113.7568675897169
 30
0.0
 10
121.5412243746205
 20
113.7025385357555
 30
0.0
 10
121.2373585903015
 20
113.61341541901
 30
0.0
 10
121.0771086719665
 20
113.5786247866303
 30
0.0
 10
120.7535676832045
 20
113.5325261351228
 30
0.0
 10
120.588959788416
 20
113.5206610449435
 30
0.0
 10
120.253363977786
 20
113.5206225629765
 30
0.0
 10
120.0883278933985
 20
113.5324933302641
 30
0.0
 10
119.7649176680655
 20
113.5785302683817
 30
0.0
 10
119.6047976074562
 20
113.6132449580528
 30
0.0
 10
119.3003292717525
 20
113.7025090206892
 30
0.0
 10
119.1550431591971
 20
113.7569586982253
 30
0.0
 10
118.8758681443114
 20
113.8856439465795
 30
0.0
 10
118.7412736263146
 20
113.9604135944936
 30
0.0
 10
118.3601084711479
 20
114.2132684887474
 30
0.0
 10
118.1340174412905
 20
114.4207551643685
 30
0.0
 10
117.8542444830705
 20
114.7874129825356
 30
0.0
 10
117.7695846970394
 20
114.9209869808362
 30
0.0
 10
117.6259931733527
 20
115.2047447093825
 30
0.0
 10
117.5672396751285
 20
115.3538285913838
 30
0.0
 10
117.4786596474651
 20
115.6685353389822
 30
0.0
 10
117.4496918229797
 20
115.8331681239236
 30
0.0
 10
117.4262529434384
 20
116.1616326267473
 30
0.0
 10
117.4314681834128
 20
116.32984627583
 30
0.0
 10
117.4981292481275
 20
116.8228168535943
 30
0.0
 10
117.6102356539884
 20
117.1345156345761
 30
0.0
 10
117.8475841698922
 20
117.542474704853
 30
0.0
 10
117.9392159623818
 20
117.6705320611661
 30
0.0
 10
118.1382471557418
 20
117.9035457396972
 30
0.0
 10
118.2460739763492
 20
118.0095628491541
 30
0.0
 10
118.4779292356297
 20
118.203455415443
 30
0.0
 10
118.6029958351871
 20
118.2918483617299
 30
0.0
 10
118.8644886165351
 20
118.4476929906896
 30
0.0
 10
119.0009971898319
 20
118.5154898151373
 30
0.0
 10
119.1441320515669
 20
118.5738038163238
 30
0.0
  0
SPLINE
  5
C1
330
1F
100
AcDbEntity
  8
0
  6
Continuous
 62
     7
370
    15
100
AcDbSpline
210
0.0
220
0.0
230
1.0
 70
     8
 71
     3
 72
    12
 73
     8
 74
     0
 42
0.000000001
 43
0.00000001
 40
0.0
 40
0.0
 40
0.0
 40
0.0
 40
0.0315587056772853
 40
0.3536244088434018
 40
0.6779838884174451
 40
0.9608347569050962
 40
1.0
 40
1.0
 40
1.0
 40
1.0
 10
119.1476645453807
 20
118.576023955777
 30
0.0
 10
119.1710409860332
 20
118.5653737959041
 30
0.0
 10
119.4329807528647
 20
118.446035679581
 30
0.0
 10
120.0268895338508
 20
118.287392015336
 30
0.0
 10
120.8657540666098
 20
118.3012935502613
 30
0.0
 10
121.4247018719347
 20
118.4552286396874
 30
0.0
 10
121.6643472635701
 20
118.5633108673506
 30
0.0
 10
121.6934941592762
 20
118.5764563795421
 30
0.0
  0
CIRCLE
  5
C2
330
1F
100
AcDbEntity
  8
0
  6
HIDDEN
 62
     7
370
     0
100
AcDbCircle
 10
160.120756972
 20
116.1696407603
 30
0.0
 40
4.000000000000006
  0
LINE
  5
C3
330
1F
100
AcDbEntity
  8
0
  6
HIDDEN
 62
     7
370
     0
100
AcDbLine
 10
157.5989316672
 20
126.5558742597
 30
0.0
 11
164.120756972
 21
126.5558742597
 31
0.0
  0
LINE
  5
C4
330
1F
100
AcDbEntity
  8
0
  6
HIDDEN
 62
     7
370
     0
100
AcDbLine
 10
156.120756972
 20
126.5558742597
 30
0.0
 11
157.5989316672
 21
126.5558742597
 31
0.0
  0
LINE
  5
C5
330
1F
100
AcDbEntity
  8
0
  6
HIDDEN
 62
     7
370
     0
100
AcDbLine
 10
157.5989316672
 20
131.7506183714
 30
0.0
 11
164.120756972
 21
131.7506183714
 31
0.0
  0
LINE
  5
C6
330
1F
100
AcDbEntity
  8
0
  6
HIDDEN
 62
     7
370
     0
100
AcDbLine
 10
156.120756972
 20
131.7506183714
 30
0.0
 11
157.5989316672
 21
131.7506183714
 31
0.0
  0
LINE
  5
C7
330
1F
100
AcDbEntity
  8
0
  6
HIDDEN
 62
     7
370
     0
100
AcDbLine
 10
158.0402510956
 20
132.4506183714
 30
0.0
 11
163.420756972
 21
132.4506183714
 31
0.0
  0
LINE
  5
C8
330
1F
100
AcDbEntity
  8
0
  6
HIDDEN
 62
     7
370
     0
100
AcDbLine
 10
156.820756972
 20
132.4506183714
 30
0.0
 11
158.0402510956
 21
132.4506183714
 31
0.0
  0
LINE
  5
C9
330
1F
100
AcDbEntity
  8
0
  6
HIDDEN
 62
     7
370
     0
100
AcDbLine
 10
158.4375634722
 20
122.4506183714
 30
0.0
 11
162.7905588756
 21
122.4506183714
 31
0.0
  0
LINE
  5
CA
330
1F
100
AcDbEntity
  8
0
  6
HIDDEN
 62
     7
370
     0
100
AcDbLine
 10
157.4509550684
 20
122.4506183714
 30
0.0
 11
158.4375634722
 21
122.4506183714
 31
0.0
  0
SPLINE
  5
CB
330
1F
100
AcDbEntity
  8
0
  6
HIDDEN
 62
     7
370
     0
100
AcDbSpline
210
0.0
220
0.0
230
1.0
 70
     8
 71
     3
 72
    11
 73
     7
 74
     0
 42
0.000000001
 43
0.00000001
 40
0.0
 40
0.0
 40
0.0
 40
0.0
 40
0.2164526859271173
 40
0.4403055508634
 40
0.7518960204221905
 40
1.0
 40
1.0
 40
1.0
 40
1.0
 10
159.7561514252893
 20
132.3600194481768
 30
0.0
 10
159.9039211954473
 20
132.287581517514
 30
0.0
 10
160.2045127532358
 20
132.140229116562
 30
0.0
 10
160.762333614746
 20
132.0174072310319
 30
0.0
 10
161.3607038079317
 20
132.091453980756
 30
0.0
 10
161.7436271353982
 20
132.2775333243175
 30
0.0
 10
161.9133711833589
 20
132.3600194481768
 30
0.0
  0
SPLINE
  5
CC
330
1F
100
AcDbEntity
  8
0
  6
HIDDEN
 62
     7
370
     0
100
AcDbSpline
210
0.0
220
0.0
230
1.0
 70
     8
 71
     3
 72
    11
 73
     7
 74
     0
 42
0.000000001
 43
0.00000001
 40
0.0
 40
0.0
 40
0.0
 40
0.0
 40
0.216452685927118
 40
0.4403055508634001
 40
0.7518960204221907
 40
1.0
 40
1.0
 40
1.0
 40
1.0
 10
161.9133711833589
 20
132.3600194481768
 30
0.0
 10
161.9383466999411
 20
132.287581517514
 30
0.0
 10
161.9891516069798
 20
132.140229116562
 30
0.0
 10
162.0834324883917
 20
132.0174072310319
 30
0.0
 10
162.184566872415
 20
132.091453980756
 30
0.0
 10
162.2492871998853
 20
132.2775333243175
 30
0.0
 10
162.2779767300919
 20
132.3600194481768
 30
0.0
  0
SPLINE
  5
CD
330
1F
100
AcDbEntity
  8
0
  6
HIDDEN
 62
     7
370
     0
100
AcDbSpline
210
0.0
220
0.0
230
1.0
 70
     8
 71
     3
 72
    12
 73
     8
 74
     0
 42
0.000000001
 43
0.00000001
 40
0.0
 40
0.0
 40
0.0
 40
0.0
 40
0.184675903750656
 40
0.5191298514402858
 40
0.6951510038950934
 40
0.871621028286886
 40
0.9999999999999999
 40
0.9999999999999999
 40
0.9999999999999999
 40
0.9999999999999999
 10
162.2779767300919
 20
132.3600194481768
 30
0.0
 10
162.1736648786015
 20
132.2976458937386
 30
0.0
 10
161.880440939431
 20
132.1223118442405
 30
0.0
 10
161.4423398535593
 20
132.0179384872137
 30
0.0
 10
161.0160498710152
 20
132.0936043107085
 30
0.0
 10
160.72922152801
 20
132.2109056836748
 30
0.0
 10
160.5576255561782
 20
132.315832384605
 30
0.0
 10
160.4853625187553
 20
132.3600194481768
 30
0.0
  0
SPLINE
  5
CE
330
1F
100
AcDbEntity
  8
0
  6
HIDDEN
 62
     7
370
     0
100
AcDbSpline
210
0.0
220
0.0
230
1.0
 70
     8
 71
     3
 72
    11
 73
     7
 74
     0
 42
0.000000001
 43
0.00000001
 40
0.0
 40
0.0
 40
0.0
 40
0.0
 40
0.2164526859271186
 40
0.4403055508634001
 40
0.7518960204221908
 40
1.0
 40
1.0
 40
1.0
 40
1.0
 10
160.4853625187553
 20
132.3600194481768
 30
0.0
 10
160.3375927485974
 20
132.287581517514
 30
0.0
 10
160.0370011908088
 20
132.140229116562
 30
0.0
 10
159.4791803292987
 20
132.0174072310319
 30
0.0
 10
158.8808101361129
 20
132.091453980756
 30
0.0
 10
158.4978868086465
 20
132.2775333243175
 30
0.0
 10
158.3281427606858
 20
132.3600194481768
 30
0.0
  0
SPLINE
  5
CF
330
1F
100
AcDbEntity
  8
0
  6
HIDDEN
 62
     7
370
     0
100
AcDbSpline
210
0.0
220
0.0
230
1.0
 70
     8
 71
     3
 72
    11
 73
     7
 74
     0
 42
0.000000001
 43
0.00000001
 40
0.0
 40
0.0
 40
0.0
 40
0.0
 40
0.216452685927118
 40
0.4403055508634001
 40
0.7518960204221905
 40
1.0
 40
1.0
 40
1.0
 40
1.0
 10
158.3281427606858
 20
132.3600194481768
 30
0.0
 10
158.3031672441036
 20
132.287581517514
 30
0.0
 10
158.2523623370649
 20
132.140229116562
 30
0.0
 10
158.158081455653
 20
132.0174072310319
 30
0.0
 10
158.0569470716297
 20
132.091453980756
 30
0.0
 10
157.9922267441594
 20
132.2775333243175
 30
0.0
 10
157.9635372139527
 20
132.3600194481768
 30
0.0
  0
SPLINE
  5
D0
330
1F
100
AcDbEntity
  8
0
  6
HIDDEN
 62
     7
370
     0
100
AcDbSpline
210
0.0
220
0.0
230
1.0
 70
     8
 71
     3
 72
    12
 73
     8
 74
     0
 42
0.000000001
 43
0.00000001
 40
0.0
 40
0.0
 40
0.0
 40
0.0
 40
0.1283789717131141
 40
0.3048489961049065
 40
0.4808701485597141
 40
0.8153240962493438
 40
0.9999999999999999
 40
0.9999999999999999
 40
0.9999999999999999
 40
0.9999999999999999
 10
157.9635372139527
 20
132.3600194481768
 30
0.0
 10
158.0358002513757
 20
132.3158323846051
 30
0.0
 10
158.2073962232074
 20
132.2109056836748
 30
0.0
 10
158.4942245662127
 20
132.0936043107085
 30
0.0
 10
158.9205145487568
 20
132.0179384872137
 30
0.0
 10
159.3586156346284
 20
132.1223118442405
 30
0.0
 10
159.651839573799
 20
132.2976458937386
 30
0.0
 10
159.7561514252893
 20
132.3600194481768
 30
0.0
  0
LINE
  5
D1
330
1F
100
AcDbEntity
  8
0
  6
HIDDEN
 62
     7
370
     0
100
AcDbLine
 10
158.8598443196
 20
126.4506183714
 30
0.0
 11
162.120756972
 21
126.4506183714
 31
0.0
  0
LINE
  5
D2
330
1F
100
AcDbEntity
  8
0
  6
HIDDEN
 62
     7
370
     0
100
AcDbLine
 10
158.120756972
 20
126.4506183714
 30
0.0
 11
158.8598443196
 21
126.4506183714
 31
0.0
  0
LINE
  5
D3
330
1F
100
AcDbEntity
  8
0
  6
HIDDEN
 62
     7
370
     0
100
AcDbLine
 10
160.8347613043
 20
127.4506183714
 30
0.0
 11
159.7561514253
 21
127.4506183714
 31
0.0
  0
LINE
  5
D4
330
1F
100
AcDbEntity
  8
0
  6
HIDDEN
 62
     7
370
     0
100
AcDbLine
 10
159.7561514253
 20
127.4506183714
 30
0.0
 11
158.8598443196
 21
127.4506183714
 31
0.0
  0
LINE
  5
D5
330
1F
100
AcDbEntity
  8
0
  6
HIDDEN
 62
     7
370
     0
100
AcDbLine
 10
159.7561514253
 20
127.4506183714
 30
0.0
 11
159.7561514253
 21
132.3600194482
 31
0.0
  0
LINE
  5
D6
330
1F
100
AcDbEntity
  8
0
  6
HIDDEN
 62
     7
370
     0
100
AcDbLine
 10
161.9133711834
 20
127.4506183714
 30
0.0
 11
160.8347613043
 21
127.4506183714
 31
0.0
  0
LINE
  5
D7
330
1F
100
AcDbEntity
  8
0
  6
HIDDEN
 62
     7
370
     0
100
AcDbLine
 10
162.0956739567
 20
127.4506183714
 30
0.0
 11
161.9133711834
 21
127.4506183714
 31
0.0
  0
LINE
  5
D8
330
1F
100
AcDbEntity
  8
0
  6
HIDDEN
 62
     7
370
     0
100
AcDbLine
 10
161.9133711834
 20
127.4506183714
 30
0.0
 11
161.9133711834
 21
132.3600194482
 31
0.0
  0
LINE
  5
D9
330
1F
100
AcDbEntity
  8
0
  6
HIDDEN
 62
     7
370
     0
100
AcDbLine
 10
158.8598443196
 20
127.4506183714
 30
0.0
 11
157.963537214
 21
127.4506183714
 31
0.0
  0
LINE
  5
DA
330
1F
100
AcDbEntity
  8
0
  6
HIDDEN
 62
     7
370
     0
100
AcDbLine
 10
158.3281427607
 20
127.4506183714
 30
0.0
 11
158.3281427607
 21
132.3600194482
 31
0.0
  0
LINE
  5
DB
330
1F
100
AcDbEntity
  8
0
  6
HIDDEN
 62
     7
370
     0
100
AcDbLine
 10
157.963537214
 20
127.4506183714
 30
0.0
 11
157.963537214
 21
132.3600194482
 31
0.0
  0
LINE
  5
DC
330
1F
100
AcDbEntity
  8
0
  6
HIDDEN
 62
     7
370
     0
100
AcDbLine
 10
162.2779767301
 20
127.4506183714
 30
0.0
 11
162.0956739567
 21
127.4506183714
 31
0.0
  0
LINE
  5
DD
330
1F
100
AcDbEntity
  8
0
  6
HIDDEN
 62
     7
370
     0
100
AcDbLine
 10
160.4853625188
 20
127.4506183714
 30
0.0
 11
160.4853625188
 21
132.3600194482
 31
0.0
  0
LINE
  5
DE
330
1F
100
AcDbEntity
  8
0
  6
HIDDEN
 62
     7
370
     0
100
AcDbLine
 10
162.2779767301
 20
127.4506183714
 30
0.0
 11
162.2779767301
 21
132.3600194482
 31
0.0
  0
SPLINE
  5
DF
330
1F
100
AcDbEntity
  8
0
  6
HIDDEN
 62
     7
370
     0
100
AcDbSpline
210
0.0
220
0.0
230
1.0
 70
     8
 71
     3
 72
     9
 73
     5
 74
     0
 42
0.000000001
 43
0.00000001
 40
0.0
 40
0.0
 40
0.0
 40
0.0
 40
0.7872916107537064
 40
1.0
 40
1.0
 40
1.0
 40
1.0
 10
155.1116568118263
 20
133.9770094934961
 30
0.0
 10
155.1874473326077
 20
133.9534637191799
 30
0.0
 10
155.2837147381613
 20
133.9235564091127
 30
0.0
 10
155.4101403010362
 20
133.8878479008716
 30
0.0
 10
155.4370320788749
 20
133.8802524016012
 30
0.0
  0
CIRCLE
  5
E0
330
1F
100
AcDbEntity
  8
0
  6
HIDDEN
 62
     7
370
     0
100
AcDbCircle
 10
160.120756972
 20
116.1696407603
 30
0.0
 40
3.5
  0
LINE
  5
E1
330
1F
100
AcDbEntity
  8
0
  6
HIDDEN
 62
     7
370
     0
100
AcDbLine
 10
149.670756972
 20
124.8696407603
 30
0.0
 11
149.670756972
 21
107.4696407603
 31
0.0
  0
LINE
  5
E2
330
1F
100
AcDbEntity
  8
0
  6
HIDDEN
 62
     7
370
     0
100
AcDbLine
 10
153.0367823758
 20
125.1696407603
 30
0.0
 11
153.0367823758
 21
107.1696407603
 31
0.0
  0
SPLINE
  5
E3
330
1F
100
AcDbEntity
  8
0
  6
HIDDEN
 62
     7
370
     0
100
AcDbSpline
210
0.0
220
0.0
230
1.0
 70
     8
 71
     3
 72
    27
 73
    23
 74
     0
 42
0.000000001
 43
0.00000001
 40
0.0
 40
0.0
 40
0.0
 40
0.0
 40
0.0502798996615414
 40
0.1020815958434399
 40
0.1523451846184313
 40
0.2039612009162773
 40
0.256292630570366
 40
0.3100211317533155
 40
0.3643984459946342
 40
0.4204878619743405
 40
0.4724363672698234
 40
0.5261085115503357
 40
0.574789012407547
 40
0.6248348633336006
 40
0.6745588077235823
 40
0.7255396080705395
 40
0.778824645433835
 40
0.8335957636189002
 40
0.8876972333407355
 40
0.9435531930108754
 40
0.9945989271325595
 40
1.0
 40
1.0
 40
1.0
 40
1.0
 10
156.6207569720223
 20
125.1696407602895
 30
0.0
 10
156.6293775627108
 20
125.1662704746273
 30
0.0
 10
156.646879659185
 20
125.1594278965561
 30
0.0
 10
156.7870947874171
 20
125.1057480353356
 30
0.0
 10
157.0071378760106
 20
125.0254594127265
 30
0.0
 10
157.3079266595172
 20
124.9233566263396
 30
0.0
 10
157.6880175328407
 20
124.8076444123773
 30
0.0
 10
158.1415158150299
 20
124.6897514583118
 30
0.0
 10
158.6644942672573
 20
124.5822345441629
 30
0.0
 10
159.2288336873385
 20
124.5023488267005
 30
0.0
 10
159.8197387645111
 20
124.4597387775843
 30
0.0
 10
160.3937203655506
 20
124.4591860341846
 30
0.0
 10
160.9513139099339
 20
124.4970737335399
 30
0.0
 10
161.4713959790031
 20
124.5655053437439
 30
0.0
 10
161.9627088875132
 20
124.6592011665948
 30
0.0
 10
162.4160189709577
 20
124.7696642312395
 30
0.0
 10
162.8227805845183
 20
124.887903087186
 30
0.0
 10
163.1618077648679
 20
124.9997934829218
 30
0.0
 10
163.4222751329591
 20
125.0936572306284
 30
0.0
 10
163.571422317573
 20
125.1504058056092
 30
0.0
 10
163.6330674921012
 20
125.1744067015499
 30
0.0
 10
163.6177359066129
 20
125.1684708595918
 30
0.0
 10
163.6162689146816
 20
125.1679028927456
 30
0.0
  0
LINE
  5
E4
330
1F
100
AcDbEntity
  8
0
  6
HIDDEN
 62
     7
370
     0
100
AcDbLine
 10
115.7521713127
 20
125.8382264196
 30
0.0
 11
125.0893426313
 21
125.8382264196
 31
0.0
  0
LINE
  5
E5
330
1F
100
AcDbEntity
  8
0
  6
HIDDEN
 62
     7
370
     0
100
AcDbLine
 10
156.620756972
 20
131.9196407603
 30
0.0
 11
163.620756972
 21
131.9196407603
 31
0.0
  0
SPLINE
  5
E6
330
1F
100
AcDbEntity
  8
0
  6
HIDDEN
 62
     7
370
     0
100
AcDbSpline
210
0.0
220
0.0
230
1.0
 70
     8
 71
     3
 72
    12
 73
     8
 74
     0
 42
0.000000001
 43
0.00000001
 40
0.0
 40
0.0
 40
0.0
 40
0.0
 40
0.0791115262074476
 40
0.3781224868204056
 40
0.6512247015692618
 40
0.8716099544769367
 40
1.0
 40
1.0
 40
1.0
 40
1.0
 10
119.1441320515669
 20
118.5738038163238
 30
0.0
 10
119.0698549687781
 20
118.60547004213
 30
0.0
 10
118.7148392510407
 20
118.7568223497404
 30
0.0
 10
118.1756097773722
 20
119.0664872906957
 30
0.0
 10
117.6928319661982
 20
119.3849985913462
 30
0.0
 10
117.4469306673252
 20
119.5588721435406
 30
0.0
 10
117.455608180027
 20
119.5527501480165
 30
0.0
 10
117.4588025182035
 20
119.5504965386366
 30
0.0
  0
LINE
  5
E7
330
1F
100
AcDbEntity
  8
0
  6
HIDDEN
 62
     7
370
     0
100
AcDbLine
 10
118.8490563975
 20
118.7100987043
 30
0.0
 11
119.1476645454
 21
118.5760239558
 31
0.0
  0
LINE
  5
E8
330
1F
100
AcDbEntity
  8
0
  6
HIDDEN
 62
     7
370
     0
100
AcDbLine
 10
121.6934941593
 20
118.5764563795
 30
0.0
 11
121.8284623636
 21
118.6362190058
 31
0.0
  0
SPLINE
  5
E9
330
1F
100
AcDbEntity
  8
0
  6
HIDDEN
 62
     7
370
     0
100
AcDbSpline
210
0.0
220
0.0
230
1.0
 70
     8
 71
     3
 72
    13
 73
     9
 74
     0
 42
0.000000001
 43
0.00000001
 40
0.0
 40
0.0
 40
0.0
 40
0.0
 40
0.0586180077530824
 40
0.2618685475480735
 40
0.4730048744236239
 40
0.6282818090646689
 40
0.7880150458272751
 40
1.0
 40
1.0
 40
1.0
 40
1.0
 10
123.3872422901175
 20
119.5537381170983
 30
0.0
 10
123.3940414798854
 20
119.5585534711386
 30
0.0
 10
123.4244160015943
 20
119.5800654572466
 30
0.0
 10
123.2721349243686
 20
119.4718338489867
 30
0.0
 10
122.998148337602
 20
119.2839996070287
 30
0.0
 10
122.6442422681051
 20
119.0594560254316
 30
0.0
 10
122.236418352145
 20
118.8182474884665
 30
0.0
 10
121.8931451330182
 20
118.6625790457727
 30
0.0
 10
121.6973818924778
 20
118.5738038163238
 30
0.0
  0
LINE
  5
EA
330
1F
100
AcDbEntity
  8
0
  6
HIDDEN
 62
     7
370
     0
100
AcDbLine
 10
105.2099874566
 20
116.1696407603
 30
0.0
 11
105.2099874566
 21
119.5696407603
 31
0.0
  0
LINE
  5
EB
330
1F
100
AcDbEntity
  8
0
  6
HIDDEN
 62
     7
370
     0
100
AcDbLine
 10
105.2099874566
 20
112.7696407603
 30
0.0
 11
105.2099874566
 21
116.1696407603
 31
0.0
  0
LINE
  5
EC
330
1F
100
AcDbEntity
  8
0
  6
HIDDEN
 62
     7
370
     0
100
AcDbLine
 10
156.120756972
 20
126.5558742597
 30
0.0
 11
157.1611773205
 21
122.6729726579
 31
0.0
  0
LINE
  5
ED
330
1F
100
AcDbEntity
  8
0
  6
HIDDEN
 62
     7
370
     0
100
AcDbLine
 10
163.0803366235
 20
122.6729726579
 30
0.0
 11
164.120756972
 21
126.5558742597
 31
0.0
  0
LINE
  5
EE
330
1F
100
AcDbEntity
  8
0
  6
HIDDEN
 62
     7
370
     0
100
AcDbLine
 10
164.120756972
 20
131.7506183714
 30
0.0
 11
163.420756972
 21
132.4506183714
 31
0.0
  0
LINE
  5
EF
330
1F
100
AcDbEntity
  8
0
  6
HIDDEN
 62
     7
370
     0
100
AcDbLine
 10
156.820756972
 20
132.4506183714
 30
0.0
 11
156.120756972
 21
131.7506183714
 31
0.0
  0
LINE
  5
F0
330
1F
100
AcDbEntity
  8
0
  6
HIDDEN
 62
     7
370
     0
100
AcDbLine
 10
156.120756972
 20
131.7506183714
 30
0.0
 11
156.120756972
 21
126.5558742597
 31
0.0
  0
LINE
  5
F1
330
1F
100
AcDbEntity
  8
0
  6
HIDDEN
 62
     7
370
     0
100
AcDbLine
 10
164.120756972
 20
126.5558742597
 30
0.0
 11
164.120756972
 21
131.7506183714
 31
0.0
  0
ARC
  5
F2
330
1F
100
AcDbEntity
  8
0
  6
HIDDEN
 62
     7
370
     0
100
AcDbCircle
 10
157.4509550684
 20
122.7506183714
 30
0.0
 40
0.2999999999999972
100
AcDbArc
 50
195.0
 51
270.0
  0
ARC
  5
F3
330
1F
100
AcDbEntity
  8
0
  6
HIDDEN
 62
     7
370
     0
100
AcDbCircle
 10
162.7905588756
 20
122.7506183714
 30
0.0
 40
0.2999999999999972
100
AcDbArc
 50
270.0
 51
345.0
  0
LINE
  5
F4
330
1F
100
AcDbEntity
  8
0
  6
HIDDEN
 62
     7
370
     0
100
AcDbLine
 10
157.720756972
 20
132.4506183714
 30
0.0
 11
158.0794875303
 21
132.0918878131
 31
0.0
  0
LINE
  5
F5
330
1F
100
AcDbEntity
  8
0
  6
HIDDEN
 62
     7
370
     0
100
AcDbLine
 10
162.1620264137
 20
132.0918878131
 30
0.0
 11
162.520756972
 21
132.4506183714
 31
0.0
  0
LINE
  5
F6
330
1F
100
AcDbEntity
  8
0
  6
HIDDEN
 62
     7
370
     0
100
AcDbLine
 10
158.120756972
 20
127.4506183714
 30
0.0
 11
158.120756972
 21
126.4506183714
 31
0.0
  0
LINE
  5
F7
330
1F
100
AcDbEntity
  8
0
  6
HIDDEN
 62
     7
370
     0
100
AcDbLine
 10
162.120756972
 20
126.4506183714
 30
0.0
 11
162.120756972
 21
127.4506183714
 31
0.0
  0
LINE
  5
F8
330
1F
100
AcDbEntity
  8
0
  6
HIDDEN
 62
     7
370
     0
100
AcDbLine
 10
158.120756972
 20
126.4506183714
 30
0.0
 11
160.120756972
 21
125.7226779029
 31
0.0
  0
LINE
  5
F9
330
1F
100
AcDbEntity
  8
0
  6
HIDDEN
 62
     7
370
     0
100
AcDbLine
 10
160.120756972
 20
125.7226779029
 30
0.0
 11
162.120756972
 21
126.4506183714
 31
0.0
  0
LINE
  5
FA
330
1F
100
AcDbEntity
  8
0
  6
HIDDEN
 62
     7
370
     0
100
AcDbLine
 10
132.170756972
 20
103.4546107286
 30
0.0
 11
132.3649178133
 21
104.8361368997
 31
0.0
  0
LINE
  5
FB
330
1F
100
AcDbEntity
  8
0
  6
HIDDEN
 62
     7
370
     0
100
AcDbLine
 10
132.3649178133
 20
127.5031446209
 30
0.0
 11
132.170756972
 21
128.8846707919
 31
0.0
  0
ARC
  5
FC
330
1F
100
AcDbEntity
  8
0
  6
HIDDEN
 62
     7
370
     0
100
AcDbCircle
 10
131.770756972
 20
104.9196407603
 30
0.0
 40
0.5999999999999943
100
AcDbArc
 50
352.0
 51
0.0
  0
ARC
  5
FD
330
1F
100
AcDbEntity
  8
0
  6
HIDDEN
 62
     7
370
     0
100
AcDbCircle
 10
131.770756972
 20
104.9196407603
 30
0.0
 40
0.5999999999999948
100
AcDbArc
 50
0.0
 51
48.1896851042
  0
ARC
  5
FE
330
1F
100
AcDbEntity
  8
0
  6
HIDDEN
 62
     7
370
     0
100
AcDbCircle
 10
131.770756972
 20
127.4196407603
 30
0.0
 40
0.599999999999998
100
AcDbArc
 50
348.75
 51
8.0
  0
ARC
  5
FF
330
1F
100
AcDbEntity
  8
0
  6
HIDDEN
 62
     7
370
     0
100
AcDbCircle
 10
131.770756972
 20
127.4196407603
 30
0.0
 40
0.6000000000000054
100
AcDbArc
 50
311.8103148958
 51
348.75
  0
LINE
  5
100
330
1F
100
AcDbEntity
  8
0
  6
HIDDEN
 62
     7
370
     0
100
AcDbLine
 10
132.370756972
 20
104.9196407603
 30
0.0
 11
132.370756972
 21
127.4196407603
 31
0.0
  0
ARC
  5
101
330
1F
100
AcDbEntity
  8
0
  6
HIDDEN
 62
     7
370
     0
100
AcDbCircle
 10
171.170756972
 20
126.1696407603
 30
0.0
 40
1.0
100
AcDbArc
 50
270.0
 51
0.0
  0
ARC
  5
102
330
1F
100
AcDbEntity
  8
0
  6
HIDDEN
 62
     7
370
     0
100
AcDbCircle
 10
171.170756972
 20
106.1696407603
 30
0.0
 40
1.0
100
AcDbArc
 50
0.0
 51
90.0
  0
ARC
  5
103
330
1F
100
AcDbEntity
  8
0
  6
HIDDEN
 62
     7
370
     0
100
AcDbCircle
 10
151.065434974
 20
124.8696407603
 30
0.0
 40
0.7999999999999972
100
AcDbArc
 50
75.0
 51
90.0
  0
ARC
  5
104
330
1F
100
AcDbEntity
  8
0
  6
HIDDEN
 62
     7
370
     0
100
AcDbCircle
 10
151.065434974
 20
107.4696407603
 30
0.0
 40
0.7999999999999972
100
AcDbArc
 50
270.0
 51
285.0
  0
LINE
  5
105
330
1F
100
AcDbEntity
  8
0
  6
HIDDEN
 62
     7
370
     0
100
AcDbLine
 10
151.065434974
 20
125.6696407603
 30
0.0
 11
150.470756972
 21
125.6696407603
 31
0.0
  0
LINE
  5
106
330
1F
100
AcDbEntity
  8
0
  6
HIDDEN
 62
     7
370
     0
100
AcDbLine
 10
150.470756972
 20
106.6696407603
 30
0.0
 11
151.065434974
 21
106.6696407603
 31
0.0
  0
ARC
  5
107
330
1F
100
AcDbEntity
  8
0
  6
HIDDEN
 62
     7
370
     0
100
AcDbCircle
 10
150.470756972
 20
124.8696407603
 30
0.0
 40
0.8000000000000398
100
AcDbArc
 50
90.0
 51
180.0
  0
ARC
  5
108
330
1F
100
AcDbEntity
  8
0
  6
HIDDEN
 62
     7
370
     0
100
AcDbCircle
 10
150.470756972
 20
107.4696407603
 30
0.0
 40
0.8000000000000398
100
AcDbArc
 50
180.0
 51
270.0
  0
LINE
  5
109
330
1F
100
AcDbEntity
  8
0
  6
HIDDEN
 62
     7
370
     0
100
AcDbLine
 10
151.27249021
 20
106.6969000993
 30
0.0
 11
153.0367823758
 21
107.1696407603
 31
0.0
  0
LINE
  5
10A
330
1F
100
AcDbEntity
  8
0
  6
HIDDEN
 62
     7
370
     0
100
AcDbLine
 10
153.0367823758
 20
125.1696407603
 30
0.0
 11
151.27249021
 21
125.6423814213
 31
0.0
  0
LINE
  5
10B
330
1F
100
AcDbEntity
  8
0
  6
HIDDEN
 62
     7
370
     0
100
AcDbLine
 10
156.620756972
 20
125.1696407603
 30
0.0
 11
153.0367823758
 21
125.1696407603
 31
0.0
  0
LINE
  5
10C
330
1F
100
AcDbEntity
  8
0
  6
HIDDEN
 62
     7
370
     0
100
AcDbLine
 10
171.170756972
 20
125.1696407603
 30
0.0
 11
163.6162689147
 21
125.1696407603
 31
0.0
  0
LINE
  5
10D
330
1F
100
AcDbEntity
  8
0
  6
HIDDEN
 62
     7
370
     0
100
AcDbLine
 10
153.0367823758
 20
107.1696407603
 30
0.0
 11
171.170756972
 21
107.1696407603
 31
0.0
  0
LINE
  5
10E
330
1F
100
AcDbEntity
  8
0
  6
HIDDEN
 62
     7
370
     0
100
AcDbLine
 10
114.420756972
 20
127.1696407603
 30
0.0
 11
115.7521713127
 21
125.8382264196
 31
0.0
  0
LINE
  5
10F
330
1F
100
AcDbEntity
  8
0
  6
HIDDEN
 62
     7
370
     0
100
AcDbLine
 10
125.0893426313
 20
125.8382264196
 30
0.0
 11
126.420756972
 21
127.1696407603
 31
0.0
  0
LINE
  5
110
330
1F
100
AcDbEntity
  8
0
  6
HIDDEN
 62
     7
370
     0
100
AcDbLine
 10
154.3205382382
 20
134.2198594941
 30
0.0
 11
156.620756972
 21
131.9196407603
 31
0.0
  0
LINE
  5
111
330
1F
100
AcDbEntity
  8
0
  6
HIDDEN
 62
     7
370
     0
100
AcDbLine
 10
163.620756972
 20
131.9196407603
 30
0.0
 11
164.7273813566
 21
133.0262651449
 31
0.0
  0
LINE
  5
112
330
1F
100
AcDbEntity
  8
0
  6
HIDDEN
 62
     7
370
     0
100
AcDbLine
 10
115.7521713127
 20
125.8382264196
 30
0.0
 11
117.4384263963
 21
119.5450367732
 31
0.0
  0
LINE
  5
113
330
1F
100
AcDbEntity
  8
0
  6
HIDDEN
 62
     7
370
     0
100
AcDbLine
 10
123.4042014527
 20
119.5491939232
 30
0.0
 11
125.0893426313
 21
125.8382264196
 31
0.0
  0
LINE
  5
114
330
1F
100
AcDbEntity
  8
0
  6
HIDDEN
 62
     7
370
     0
100
AcDbLine
 10
104.170756972
 20
112.1696407603
 30
0.0
 11
105.2099874566
 21
112.7696407603
 31
0.0
  0
LINE
  5
115
330
1F
100
AcDbEntity
  8
0
  6
HIDDEN
 62
     7
370
     0
100
AcDbLine
 10
105.2099874566
 20
119.5696407603
 30
0.0
 11
104.170756972
 21
120.1696407603
 31
0.0
  0
LINE
  5
116
330
1F
100
AcDbEntity
  8
0
  6
HIDDEN
 62
     7
370
     0
100
AcDbLine
 10
156.620756972
 20
131.9196407603
 30
0.0
 11
156.620756972
 21
125.1696407603
 31
0.0
  0
LINE
  5
117
330
1F
100
AcDbEntity
  8
0
  6
HIDDEN
 62
     7
370
     0
100
AcDbLine
 10
163.620756972
 20
125.1679094015
 30
0.0
 11
163.620756972
 21
131.9196407603
 31
0.0
  0
LINE
  5
118
330
1F
100
AcDbEntity
  8
0
  6
HIDDEN
 62
     7
370
     0
100
AcDbLine
 10
105.2099874566
 20
112.7696407603
 30
0.0
 11
149.670756972
 21
112.7696407603
 31
0.0
  0
LINE
  5
119
330
1F
100
AcDbEntity
  8
0
  6
HIDDEN
 62
     7
370
     0
100
AcDbLine
 10
117.4588042547
 20
119.5696407603
 30
0.0
 11
105.2099874566
 21
119.5696407603
 31
0.0
  0
LINE
  5
11A
330
1F
100
AcDbEntity
  8
0
  6
HIDDEN
 62
     7
370
     0
100
AcDbLine
 10
149.670756972
 20
119.5696407603
 30
0.0
 11
123.3872279521
 21
119.5696407603
 31
0.0
  0
LINE
  5
11B
330
1F
100
AcDbEntity
  8
VERMASSUNG
100
AcDbLine
 10
146.5084313999
 20
135.1306783263
 30
0.0
 11
146.5084313999
 21
97.2086031943
 31
0.0
  0
LINE
  5
11C
330
1F
100
AcDbEntity
  8
VERMASSUNG
100
AcDbLine
 10
146.0827805407
 20
96.8413082489
 30
0.0
 11
146.0827805407
 21
135.4979732717
 31
0.0
  0
DIMENSION
  5
11D
330
1F
100
AcDbEntity
  8
VERMASSUNG
100
AcDbDimension
  2
_D
 10
146.5084313999
 20
139.6282385196
 30
0.0
 11
159.339594186
 21
139.6282385196
 31
0.0
 70
   160
  1
<>
 71
     2
 42
-1.0
  3
SLDDIMSTYLE0
100
AcDbAlignedDimension
 13
172.170756972
 23
131.9042561449
 33
0.0
 14
146.5084313999
 24
135.1306783263
 34
0.0
100
AcDbRotatedDimension
  0
DIMENSION
  5
128
330
1F
100
AcDbEntity
  8
VERMASSUNG
100
AcDbDimension
  2
_D_1
 10
188.170756972
 20
132.1696407603
 30
0.0
 11
188.170756972
 21
116.1696407603
 31
0.0
 70
   160
  1
WH%%c<>
 71
     2
 42
-1.0
  3
SLDDIMSTYLE1
100
AcDbAlignedDimension
 13
172.170756972
 23
100.1696407603
 33
0.0
 14
172.170756972
 24
132.1696407603
 34
0.0
 50
90.0
100
AcDbRotatedDimension
  0
DIMENSION
  5
135
330
1F
100
AcDbEntity
  8
VERMASSUNG
100
AcDbDimension
  2
_D_2
 10
104.170756972
 20
155.146232359
 30
0.0
 11
138.170756972
 21
155.146232359
 31
0.0
 70
   160
  1
<>
 71
     2
 42
-1.0
  3
SLDDIMSTYLE1
100
AcDbAlignedDimension
 13
172.170756972
 23
131.9042561449
 33
0.0
 14
104.170756972
 24
125.9596407603
 34
0.0
100
AcDbRotatedDimension
  0
DIMENSION
  5
13F
330
1F
100
AcDbEntity
  8
VERMASSUNG
100
AcDbDimension
  2
_D_3
 10
95.9209186956
 20
96.1696407603
 30
0.0
 11
95.9209186956
 21
116.1696407603
 31
0.0
 70
   160
  1
WH%%c<>
 71
     2
 42
-1.0
  3
SLDDIMSTYLE1
100
AcDbAlignedDimension
 13
132.570756972
 23
136.1696407603
 33
0.0
 14
132.570756972
 24
96.1696407603
 34
0.0
 50
90.0
100
AcDbRotatedDimension
  0
DIMENSION
  5
14B
330
1F
100
AcDbEntity
  8
VERMASSUNG
100
AcDbDimension
  2
_D_4
 10
180.5077393854
 20
107.1696407603
 30
0.0
 11
180.5077393854
 21
116.1696407603
 31
0.0
 70
   160
  1
%%c<>
 71
     2
 42
-1.0
  3
SLDDIMSTYLE1
100
AcDbAlignedDimension
 13
171.170756972
 23
125.1696407603
 33
0.0
 14
171.170756972
 24
107.1696407603
 34
0.0
 50
90.0
100
AcDbRotatedDimension
  0
DIMENSION
  5
156
330
1F
100
AcDbEntity
  8
VERMASSUNG
100
AcDbDimension
  2
_D_5
 10
132.170756972
 20
147.479924505
 30
0.0
 11
152.170756972
 21
147.479924505
 31
0.0
 70
   160
  1
<>
 71
     2
 42
-1.0
  3
SLDDIMSTYLE1
100
AcDbAlignedDimension
 13
172.170756972
 23
131.9042561449
 33
0.0
 14
132.170756972
 24
135.7696407603
 34
0.0
100
AcDbRotatedDimension
  0
LINE
  5
160
330
1F
100
AcDbEntity
  8
VERMASSUNG
  6
CENTERX2
370
     0
100
AcDbLine
 10
102.5651309664
 20
116.1696407603
 30
0.0
 11
174.5893511545
 21
116.1696407603
 31
0.0
  0
OLE2FRAME
  5
161
330
1F
100
AcDbEntity
  8
0
100
AcDbOle2Frame
 70
     2
  3
Paintbrush-Bild
 10
13.8511154363
 20
38.264191557
 30
0.0
 11
51.6290888628
 21
31.9806341108
 31
0.0
 71
     2
 72
     0
 73
     1
 90
    12928
310
80552BED0767C5B32B40DDAF6807D121434000000000000000006FFBDDFB85D0
310
4940DDAF6807D121434000000000000000006FFBDDFB85D04940416F4BD60AFB
310
3F4000000000000000002BED0767C5B32B40416F4BD60AFB3F40000000000000
310
0000000000000100000000010000010000000100000000000100000000320000
310
D0CF11E0A1B11AE1000000000000000000000000000000003E000300FEFF0900
310
0600000000000000000000000100000001000000000000000010000002000000
310
01000000FEFFFFFF0000000000000000FFFFFFFFFFFFFFFFFFFFFFFFFFFFFFFF
310
FFFFFFFFFFFFFFFFFFFFFFFFFFFFFFFFFFFFFFFFFFFFFFFFFFFFFFFFFFFFFFFF
310
FFFFFFFFFFFFFFFFFFFFFFFFFFFFFFFFFFFFFFFFFFFFFFFFFFFFFFFFFFFFFFFF
310
FFFFFFFFFFFFFFFFFFFFFFFFFFFFFFFFFFFFFFFFFFFFFFFFFFFFFFFFFFFFFFFF
310
FFFFFFFFFFFFFFFFFFFFFFFFFFFFFFFFFFFFFFFFFFFFFFFFFFFFFFFFFFFFFFFF
310
FFFFFFFFFFFFFFFFFFFFFFFFFFFFFFFFFFFFFFFFFFFFFFFFFFFFFFFFFFFFFFFF
310
FFFFFFFFFFFFFFFFFFFFFFFFFFFFFFFFFFFFFFFFFFFFFFFFFFFFFFFFFFFFFFFF
310
FFFFFFFFFFFFFFFFFFFFFFFFFFFFFFFFFFFFFFFFFFFFFFFFFFFFFFFFFFFFFFFF
310
FFFFFFFFFFFFFFFFFFFFFFFFFFFFFFFFFFFFFFFFFFFFFFFFFFFFFFFFFFFFFFFF
310
FFFFFFFFFFFFFFFFFFFFFFFFFFFFFFFFFFFFFFFFFFFFFFFFFFFFFFFFFFFFFFFF
310
FFFFFFFFFFFFFFFFFFFFFFFFFFFFFFFFFFFFFFFFFFFFFFFFFFFFFFFFFFFFFFFF
310
FFFFFFFFFFFFFFFFFFFFFFFFFFFFFFFFFFFFFFFFFFFFFFFFFFFFFFFFFFFFFFFF
310
FFFFFFFFFFFFFFFFFFFFFFFFFFFFFFFFFFFFFFFFFFFFFFFFFFFFFFFFFFFFFFFF
310
FFFFFFFFFFFFFFFFFFFFFFFFFFFFFFFFFFFFFFFFFFFFFFFFFFFFFFFFFFFFFFFF
310
FDFFFFFFFEFFFFFFFEFFFFFFFEFFFFFF05000000060000000700000008000000
310
090000000A0000000B0000000C0000000D0000000E0000000F00000010000000
310
11000000120000001300000014000000150000001600000017000000FEFFFFFF
310
FFFFFFFFFFFFFFFFFFFFFFFFFFFFFFFFFFFFFFFFFFFFFFFFFFFFFFFFFFFFFFFF
310
FFFFFFFFFFFFFFFFFFFFFFFFFFFFFFFFFFFFFFFFFFFFFFFFFFFFFFFFFFFFFFFF
310
FFFFFFFFFFFFFFFFFFFFFFFFFFFFFFFFFFFFFFFFFFFFFFFFFFFFFFFFFFFFFFFF
310
FFFFFFFFFFFFFFFFFFFFFFFFFFFFFFFFFFFFFFFFFFFFFFFFFFFFFFFFFFFFFFFF
310
FFFFFFFFFFFFFFFFFFFFFFFFFFFFFFFFFFFFFFFFFFFFFFFFFFFFFFFFFFFFFFFF
310
FFFFFFFFFFFFFFFFFFFFFFFFFFFFFFFFFFFFFFFFFFFFFFFFFFFFFFFFFFFFFFFF
310
FFFFFFFFFFFFFFFFFFFFFFFFFFFFFFFFFFFFFFFFFFFFFFFFFFFFFFFFFFFFFFFF
310
FFFFFFFFFFFFFFFFFFFFFFFFFFFFFFFFFFFFFFFFFFFFFFFFFFFFFFFFFFFFFFFF
310
FFFFFFFFFFFFFFFFFFFFFFFFFFFFFFFFFFFFFFFFFFFFFFFFFFFFFFFFFFFFFFFF
310
FFFFFFFFFFFFFFFFFFFFFFFFFFFFFFFFFFFFFFFFFFFFFFFFFFFFFFFFFFFFFFFF
310
FFFFFFFFFFFFFFFFFFFFFFFFFFFFFFFFFFFFFFFFFFFFFFFFFFFFFFFFFFFFFFFF
310
FFFFFFFFFFFFFFFFFFFFFFFFFFFFFFFFFFFFFFFFFFFFFFFFFFFFFFFFFFFFFFFF
310
FFFFFFFFFFFFFFFFFFFFFFFFFFFFFFFFFFFFFFFFFFFFFFFFFFFFFFFFFFFFFFFF
310
52006F006F007400200045006E00740072007900000000000000000000000000
310
0000000000000000000000000000000000000000000000000000000000000000
310
16000500FFFFFFFFFFFFFFFF020000000A00030000000000C000000000000046
310
00000000000000000000000040DE93099BF8D10103000000C000000000000000
310
01004F006C006500000000000000000000000000000000000000000000000000
310
0000000000000000000000000000000000000000000000000000000000000000
310
0A000200FFFFFFFFFFFFFFFFFFFFFFFF00000000000000000000000000000000
310
0000000000000000000000000000000000000000000000001400000000000000
310
010043006F006D0070004F0062006A0000000000000000000000000000000000
310
0000000000000000000000000000000000000000000000000000000000000000
310
120002010100000003000000FFFFFFFF00000000000000000000000000000000
310
0000000000000000000000000000000000000000010000004D00000000000000
310
01004F006C006500310030004E00610074006900760065000000000000000000
310
0000000000000000000000000000000000000000000000000000000000000000
310
1A000200FFFFFFFFFFFFFFFFFFFFFFFF00000000000000000000000000000000
310
0000000000000000000000000000000000000000040000002426000000000000
310
FEFFFFFF02000000FEFFFFFFFFFFFFFFFFFFFFFFFFFFFFFFFFFFFFFFFFFFFFFF
310
FFFFFFFFFFFFFFFFFFFFFFFFFFFFFFFFFFFFFFFFFFFFFFFFFFFFFFFFFFFFFFFF
310
FFFFFFFFFFFFFFFFFFFFFFFFFFFFFFFFFFFFFFFFFFFFFFFFFFFFFFFFFFFFFFFF
310
FFFFFFFFFFFFFFFFFFFFFFFFFFFFFFFFFFFFFFFFFFFFFFFFFFFFFFFFFFFFFFFF
310
FFFFFFFFFFFFFFFFFFFFFFFFFFFFFFFFFFFFFFFFFFFFFFFFFFFFFFFFFFFFFFFF
310
FFFFFFFFFFFFFFFFFFFFFFFFFFFFFFFFFFFFFFFFFFFFFFFFFFFFFFFFFFFFFFFF
310
FFFFFFFFFFFFFFFFFFFFFFFFFFFFFFFFFFFFFFFFFFFFFFFFFFFFFFFFFFFFFFFF
310
FFFFFFFFFFFFFFFFFFFFFFFFFFFFFFFFFFFFFFFFFFFFFFFFFFFFFFFFFFFFFFFF
310
FFFFFFFFFFFFFFFFFFFFFFFFFFFFFFFFFFFFFFFFFFFFFFFFFFFFFFFFFFFFFFFF
310
FFFFFFFFFFFFFFFFFFFFFFFFFFFFFFFFFFFFFFFFFFFFFFFFFFFFFFFFFFFFFFFF
310
FFFFFFFFFFFFFFFFFFFFFFFFFFFFFFFFFFFFFFFFFFFFFFFFFFFFFFFFFFFFFFFF
310
FFFFFFFFFFFFFFFFFFFFFFFFFFFFFFFFFFFFFFFFFFFFFFFFFFFFFFFFFFFFFFFF
310
FFFFFFFFFFFFFFFFFFFFFFFFFFFFFFFFFFFFFFFFFFFFFFFFFFFFFFFFFFFFFFFF
310
FFFFFFFFFFFFFFFFFFFFFFFFFFFFFFFFFFFFFFFFFFFFFFFFFFFFFFFFFFFFFFFF
310
FFFFFFFFFFFFFFFFFFFFFFFFFFFFFFFFFFFFFFFFFFFFFFFFFFFFFFFFFFFFFFFF
310
FFFFFFFFFFFFFFFFFFFFFFFFFFFFFFFFFFFFFFFFFFFFFFFFFFFFFFFFFFFFFFFF
310
0100000200000000000000000000000000000000000000000000000000000000
310
0000000000000000000000000000000000000000000000000000000000000000
310
0100FEFF030A0000FFFFFFFF0A00030000000000C00000000000004607000000
310
5042727573680007000000504272757368000700000050427275736800F439B2
310
7100000000000000000000000000000000000000000000000000000000000000
310
0000000000000000000000000000000000000000000000000000000000000000
310
0000000000000000000000000000000000000000000000000000000000000000
310
0000000000000000000000000000000000000000000000000000000000000000
310
0000000000000000000000000000000000000000000000000000000000000000
310
0000000000000000000000000000000000000000000000000000000000000000
310
0000000000000000000000000000000000000000000000000000000000000000
310
0000000000000000000000000000000000000000000000000000000000000000
310
0000000000000000000000000000000000000000000000000000000000000000
310
0000000000000000000000000000000000000000000000000000000000000000
310
0000000000000000000000000000000000000000000000000000000000000000
310
0000000000000000000000000000000000000000000000000000000000000000
310
20260000424D0E260000000000003E00000028000000B40200006E0000000100
310
01000000000000000000130B0000130B00000200000002000000000000FFFFFF
310
FFFFFFFFFFFFFFFFFFFFFFFFFFFFFFFFFFFFFFFFFFFFFFFFFFFFFFFFFFFFFFFF
310
FFFFFFFFFFFFFFFFFFFFFFFFFFFFFFFFFFFFFFFFFFFFFFFFFFFFFFFFFFFFFFFF
310
FFFFFFFFFFFFFFFFFFFFFFFFFFFFFFFFFFFFFFFFFFFFFFFFF000FFFFFFFFFFFF
310
FFFFFFFFFFFFFFFFFFFFFFFFFFFFFFFFFFFFFFFFFFFFFFFFFFFFFFFFFFFFFFFF
310
FFFFFFFFFFFFFFFFFFFFFFFFFFFFFFFFFFFFFFFFFFFFFFFFFFFFFFFFFFFFFFFF
310
FFFFFFFFFFFFFFFFFFFFFFFFFFFFFFFFF000FFFFFFFFFFFFFFFFFFFFFFFFFFFF
310
FFFFFFFFFFFFFFFFFFFFFFFFFFFFFFFFFFFFFFFFFFFFFFFFFFFFFFFFFFFFFFFF
310
FFFFFFFFFFFFFFFFFFFFFFFFFFFFFFFFFFFFFFFFFFFFFFFFFFFFFFFFFFFFFFFF
310
FFFFFFFFFFFFFFFFF000FFFFFFFFFFFFFFFFFFFFFFFFFFFFFFFFFFFFFFFFFFFF
310
FFFFFFFFFFFFFFFFFFFFFFFFFFFFFFFFFFFFFFFFFFFFFFFFFFFFFFFFFFFFFFFF
310
FFFFFFFFFFFFFFFFFFFFFFFFFFFFFFFFFFFFFFFFFFFFFFFFFFFFFFFFFFFFFFFF
310
F000FFFFFFFFFFFFFFFFFFFFFFFFFFFFFFFFFFFFFFFFFFFFFFFFFFFFFFFFFFFF
310
FFFFFFFFFFFFFFFFFFFFFFFFFFFFFFFFFFFFFFFFFFFFFFFFFFFFFFFFFFFFFFFF
310
FFFFFFFFFFFFFFFFFFFFFFFFFFFFFFFFFFFFFFFFFFFFFFFFF000FFFFFFFFFFFF
310
FFFFFFFFFFFFFFFFFFFFFFFFFFFFFFFFFFFFFFFFFFFFFFFFFFFFFFFFFFFFFFFF
310
FFFFFFFFFFFFFFFFFFFFFFFFFFFFFFFFFFFFFFFFFFFFFFFFFFFFFFFFFFFFFFFF
310
FFFFFFFFFFFFFFFFFFFFFFFFFFFFFFFFF000FFFFFFFFFFFFFFFFFFFFFFFFFFFF
310
FFFFFFFFFFFFFFFFFFFFFFFFFFFFFFFFFFFFFFFFFFFFFFFFFFFFFFFFFFFFFFFF
310
FFFFFFFFFFFFFFFFFFFFFFFFFFFFFFFFFFFFFFFFFFFFFFFFFFFFFFFFFFFFFFFF
310
FFFFFFFFFFFFFFFFF000FFFFFFFFFFFFFFFFFFFFFFFFFFFFFFFFFFFFFFFFFFFF
310
FFFFFFFFFFFFFFFFFFFFFFFFFFFFFFFFFFFFFFFFFFFFFFFFFFFFFFFFFFFFFFFF
310
FFFFFFFFFFFFFFFFFFFFFFFFFFFFFFFFFFFFFFFFFFFFFFFFFFFFFFFFFFFFFFFF
310
F000FFFFFFFFFFFFFFFFFFFFFFFFFFFFFFFFFFFFFFFFFFFFFFFFFFFFFFFFFFFF
310
FFFFFFFFFFFFFFFFFFFFFFFFFFFFFFFFFFFFFFFFFFFFFFFFFFFFFFFFFFFFFFFF
310
FFFFFFFFFFFFFFFFFFFFFFFFFFFFFFFFFFFFFFFFFFFFFFFFF000FFFFFFFFFFFF
310
FFFFFFFFFFFFFFFFFFFFFFFFFFFFFFFFFFFFFFFFFFFFFFFFFFFFFFFFFFFFFFFF
310
FFFFFFFFFFFFFFFFFFFFFFFFFFFFFFFFFFFFFFFFFFFFFFFFFFFFFFFFFFFFFFFF
310
FFFFFFFFFFFFFFFFFFFFFFFFFFFFFFFFF000FFFFFFFFFFFFFFFFFFFFFFFFFFFF
310
FFFFFFFFFFFFFFFFFFFFFFFFFFFFFFFFFFFFFFFFFFFFFFFFFFFFFFFFFFFFFFFF
310
FFFFFFFFFFFFFFFFFFFFFFFFFFFFFFFFFFFFFFFFFFFFFFFFFFFFFFFFFFFFFFFF
310
FFFFFFFFFFFFFFFFF000FFFFFFFFFFFFFFFFFFFFFFFFFFFFFFFFFFFFFFFFFFFF
310
FFFFFFFFFFFFFFFFFFFFFFFFFFFFFFFFFFFFFFFFFFFFFFFFFFFFFFFFFFFFFFFF
310
FFFFFFFFFFFFFFFFFFFFFFFFFFFFFFFFFFFFFFFFFFFFFFFFFFFFFFFFFFFFFFFF
310
F000FFFFFFFFFFFFFFFFFFFFFFFFFFFFFFFFFFFFFFFFFFFFFFFFFFFFFFFFFFFF
310
FFFFFFFFFFFFFFFFFFFFFFFFFFFFFFFFFFFFFFFFFFFFFFFFFFFFFFFFFFFFFFFF
310
FFFFFFFFFFFFFFFFFFFFFFFFFFFFFFFFFFFFFFFFFFFFFFFFF000FFFFFFFFFFFF
310
FFFFFFFFFFFFFFFFFFFFFFFFFFFFFFFFFFFFFFFFFFFFFFFFFFFFFFFFFFFFFFFF
310
FFFFFFFFFFFFFFFFFFFFFFFFFFFFFFFFFFFFFFFFFFFFFFFFFFFFFFFFFFFFFFFF
310
FFFFFFFFFFFFFFFFFFFFFFFFFFFFFFFFF000FFFFFFFFFFFFFFFFFFFFFFFFFFFF
310
FFFFFFFFFFFFFFFFFFFFFFFFFFFFFFFFFFFFFFFFFFFFFFFFFFFFFFFFFFFFFFFF
310
FFFFFFFFFFFFFFFFFFFFFFFFFFFFFFFFFFFFFFFFFFFFFFFFFFFFFFFFFFFFFFFF
310
FFFFFFFFFFFFFFFFF000FFFFFFFFFFFFFFFFFFFFFFFFFFFFFFFFFFFFFFFFFFFF
310
FFFFFFFFFFFFFFFFFFFFFFFFFFFFFFFFFFFFFFFFFFFFFFFFFFFFFFFFFFFFFFFF
310
FFFFFFFFFFFFFFFFFFFFFFFFFFFFFFFFFFFFFFFFFFFFFFFFFFFFFFFFFFFFFFFF
310
F000FFFFFFFFFFFFFFFFFFFFFFFFFFFFFFFFFFFFFFFFFFFFFFFFFFFFFFFFFFFF
310
FFFFFFFFFFFFFFFFFFFFFFFFFFFFFFFFFFFFFFFFFFFFFFFFFFFFFFFFFFFFFFFF
310
FFFFFFFFFFFFFFFFFFFFFFFFFFFFFFFFFFFFFFFFFFFFFFFFF000FFFFFFFFFFFF
310
FFFFFFFFFFFFFFFFFFFFFFFFFFFFFFFFFFFFFFFFFFFFFFFFFFFFFFFFFFFFFFFF
310
FFFFFFFFFFFFFFFFFFFFFFFFFFFFFFFFFFFFFFFFFFFFFFFFFFFFFFFFFFFFFFFF
310
FFFFFFFFFFFFFFFFFFFFFFFFFFFFFFFFF000FFFFFFFFFFFFFFFFFFFFFFFFFFFF
310
FFFFFFFFFFFFFFFFFFFFFFFFFFFFFFFFFFFFFFFFFFFFFFFFFFFFFFFFFFFFFFFF
310
FFFFFFFFFFFFFFFFFFFFFFFFFFFFFFFFFFFFFFFFFFFFFFFFFFFFFFFFFFFFFFFF
310
FFFFFFFFFFFFFFFFF000FFFFF80003FFFFFFFFFFFFFFFFFFFFFFFFFFFFFFFFFF
310
FFFFF00007FFFFFFFFFF00007FFFFFF800000000000000007FFFFFFFFFFFFFFF
310
FFFFFFFC001FFFFFFFFFFFFFFC001FFFFFFFFFFFFFFFFFFFFFFFFFFE0007FFFF
310
F000FFFF8000007FFFFFFFF8000FFFFFC0007FFFFF80007FFFFF0000007FFFFF
310
FFF8000007FFFFF800000000000000007FFFFFF0001FFFFFFFFFFFC00001FFFF
310
FFFFFFFFC00001FFFFFFFF000000000003FFFFE000007FFFF000FFFE0000000F
310
FFFFFFF0000FFFFF80007FFFFF80007FFFFC0000001FFFFFFFC0000001FFFFF8
310
00000000000000007FFFFFF0001FFFFFFFFFFE0000003FFFFFFFFFFE0000003F
310
FFFFFF000000000003FFFF0000000FFFF000FFF800000003FFFFFFF00007FFFF
310
80007FFFFF80007FFFF000000007FFFFFF000000003FFFF80000000000000000
310
7FFFFFF0001FFFFFFFFFF80000000FFFFFFFFFF80000000FFFFFFF0000000000
310
03FFFC00000003FFF000FFE000000000FFFFFFF00007FFFF80003FFFFF80007F
310
FFC000000001FFFFFC000000001FFFF800000000000000007FFFFFF0001FFFFF
310
FFFFE000000003FFFFFFFFE000000003FFFFFF000000000003FFF000000000FF
310
F000FF80000000007FFFFFF00007FFFF80003FFFFF80007FFF8000000000FFFF
310
F80000000007FFF800000000000000007FFFFFF0001FFFFFFFFFC000000001FF
310
FFFFFFC000000001FFFFFF000000000003FFC0000000007FF000FF0000000000
310
3FFFFFE00007FFFF00003FFFFF80007FFE00000000003FFFF00000000003FFF8
310
00000000000000007FFFFFF0001FFFFFFFFF8000000000FFFFFFFF8000000000
310
FFFFFF000000000003FF80000000003FF000FE00000000001FFFFFE00003FFFF
310
00003FFFFF80007FFC00000000001FFFE00000000001FFF8000001FFFE000000
310
7FFFFFF0001FFFFFFFFE00000000003FFFFFFE00000000003FFFFF0000000000
310
03FF00000000001FF000FC00000000000FFFFFE00003FFFF00001FFFFF80007F
310
F800000000001FFFC00000000000FFF8000001FFFE0000007FFFFFF0001FFFFF
310
FFFC00000000001FFFFFFC00000000001FFFFF000000000003FE00000000000F
310
F000F8000000000007FFFFE00003FFFF00001FFFFF80007FF800000000000FFF
310
800000000000FFF8000001FFFE0000007FFFFFF0001FFFFFFFF800000000000F
310
FFFFF800000000000FFFFF000000000003FC000000000007F000F80000000000
310
03FFFFC00003FFFE00001FFFFF80007FF0000000000007FF0000000000007FF8
310
000001FFFE0000007FFFFFF0001FFFFFFFF0000000000007FFFFF00000000000
310
07FFFF000000000003F8000000000003F000F0000000000003FFFFC00001FFFE
310
00001FFFFF80007FE0000000000007FE0000000000003FF8000001FFFE000000
310
7FFFFFF0001FFFFFFFF0000000000007FFFFF0000000000007FFFF0000000000
310
03F800001F800003F000E00001FFF00001FFFFC00001FFFE00000FFFFF80007F
310
E00001FFE00003FE00001FFF00003FF8000001FFFE0000007FFFFFF0001FFFFF
310
FFE000003E000003FFFFE000003E000003FFFF000000000003F00001FFF80001
310
F000E00007FFFC0001FFFFC00001FFFE00000FFFFF80007FC0000FFFFC0003FC
310
0000FFFFC0001FF8000001FFFE0000007FFFFFF0001FFFFFFFC00003FFE00001
310
FFFFC00003FFE00001FFFF0001FFFFFFFFF00007FFFE0001F000E0000FFFFF00
310
00FFFF800001FFFC00000FFFFF80007FC0001FFFFE0001FC0001FFFFE0001FF8
310
000001FFFE0000007FFFFFF0001FFFFFFF80000FFFF80000FFFF80000FFFF800
310
00FFFF0003FFFFFFFFE0000FFFFF8000F000C0003FFFFF8000FFFF800000FFFC
310
000007FFFF80007F80003FFFFF0001FC0003FFFFF0001FF8000001FFFE000000
310
7FFFFFF0001FFFFFFF80003FFFFE0000FFFF80003FFFFE0000FFFF0003FFFFFF
310
FFE0003FFFFF8000F000C0003FFFFF8000FFFF800000FFFC000007FFFF80007F
310
80007FFFFF8001F80007FFFFF8000FF8000001FFFE0000007FFFFFF0001FFFFF
310
FF00007FFFFF00007FFF00007FFFFF00007FFF0003FFFFFFFFE0003FFFFFC000
310
F000C0007FFFFFC000FFFF000000FFFC000007FFFF80007F8000FFFFFF8000F8
310
000FFFFFF8000FF8000001FFFE0000007FFFFFF0001FFFFFFF0000FFFFFF8000
310
7FFF0000FFFFFF80007FFF0003FFFFFFFFC0007FFFFFC00070008000FFFFFFC0
310
00FFFF000000FFF8000007FFFF80007F8000FFFFFF8000F8000FFFFFF8000FF8
310
000001FFFE0000007FFFFFF0001FFFFFFE0001FFFFFFC0003FFE0001FFFFFFC0
310
003FFF0003FFFFFFFFC0007FFFFFE00070008000FFFFFFC0007FFF0000007FF8
310
000003FFFF80007F0001FFFFFF8000F8000FFFFFF8000FF8000001FFFE000000
310
7FFFFFF0001FFFFFFE0001FFFFFFC0003FFE0001FFFFFFC0003FFF0003FFFFFF
310
FFC000FFFFFFE00070008000FFFFFFC0007FFF0000007FF8000003FFFF80007F
310
0001FFFFFF8000F8001FFFFFF8000FF8000001FFFE0000007FFFFFF0001FFFFF
310
FE0003FFFFFFE0003FFE0003FFFFFFE0003FFF0003FFFFFFFFC000FFFFFFE000
310
70008000FFFFFFC0007FFE0000007FF8000003FFFF80007F0001FFFFFF8000F0
310
001FFFFFF8000FF8000001FFFE0000007FFFFFF0001FFFFFFC0003FFFFFFE000
310
1FFC0003FFFFFFE0001FFF0003FFFFFFFFC000FFFFFFC00070008000FFFFFF80
310
007FFE0000007FF0000003FFFF80007F0001FFFFFF0000F0001FFFFFF8000FF8
310
000001FFFE0000007FFFFFF0001FFFFFFC0007FFFFFFF0001FFC0007FFFFFFF0
310
001FFF0003FFFFFFFFC000FFFFFFC00070008001FFFFFF0000FFFE0000003FF0
310
000001FFFF80007F0001FFFFFF0000F8001FFFFFF0000FF8000001FFFE000000
310
7FFFFFF0001FFFFFFC0007FFFFFFF0001FFC0007FFFFFFF0001FFF0003FFFFFF
310
FFC001FFFFFF80007000FFFFFFFFFE0000FFFE0008003FF0008001FFFF80007F
310
FFFFFFFFFC0000FFFFFFFFFFE0000FF8000001FFFE0000007FFFFFF0001FFFFF
310
F8000FFFFFFFF8000FF8000FFFFFFFF8000FFF0003FFFFFFFFFFFFFFFFFF0000
310
7000FFFFFFFFFC0000FFFC0008003FF0008001FFFF80007FFFFFFFFFF80001FF
310
FFFFFFFF80000FF8000001FFFE0000007FFFFFF0001FFFFFF8000FFFFFFFF800
310
0FF8000FFFFFFFF8000FFF0003FFFFFFFFFFFFFFFFFE0000F000FFFFFFFFE000
310
00FFFC000C003FE000C001FFFF80007FFFFFFFFFC00001FFFFFFFFFE00001FF8
310
000001FFFE0000007FFFFFF0001FFFFFF8000FFFFFFFF8000FF8000FFFFFFFF8
310
000FFF0003FFFFFFFFFFFFFFFFF00000F000FFFFFFFE000001FFFC000C001FE0
310
00C000FFFF80007FFFFFFFFE000001FFFFFFFFE000001FF80FFFFFFFFFFFFFC0
310
7FFFFFF0001FFFFFF8000FFFFFFFF8000FF8000FFFFFFFF8000FFF0003FFFFFF
310
FFFFFFFFFF800000F000FFFFFFC0000001FFFC001C001FE001C000FFFF80007F
310
FFFFFF80000003FFFFFFF80000001FF80FFFFFFFFFFFFFC07FFFFFF0001FFFFF
310
F8001FFFFFFFFC000FF8001FFFFFFFFC000FFF0003FFFFFFFFFFFFFFF0000001
310
F000FFFFF800000001FFF8001C001FE001C000FFFF80007FFFFFF800000003FF
310
FFFF800000003FF80FFFFFFFFFFFFFC07FFFFFF0001FFFFFF8001FFFFFFFFC00
310
0FF8001FFFFFFFFC000FFF0003FFFFFFFFFFFFFE00000001F000FFFFC0000000
310
03FFF8001E001FC001E000FFFF80007FFFFF8000000007FFFFFC000000003FF8
310
0FFFFFFFFFFFFFC07FFFFFF0001FFFFFF8001FFFFFFFFC000FF8001FFFFFFFFC
310
000FFF0003FFFFFFFFFFFFE000000003F000FFFE0000000007FFF8001E000FC0
310
01E0007FFF80007FFFFE0000000007FFFFE0000000007FF80FFFFFFFFFFFFFC0
310
7FFFFFF0001FFFFFF0001FFFFFFFFC0007F0001FFFFFFFFC0007FF0003FFFFFF
310
FFFFFF0000000003F000FFF80000000007FFF8001E000FC003E0007FFF80007F
310
FFF0000000000FFFFF8000000000FFF80FFFFFFFFFFFFFC07FFFFFF0001FFFFF
310
F0001FFFFFFFFC0007F0001FFFFFFFFC0007FF0003FFFFFFFFFFFC0000000007
310
F000FFE0000000000FFFF0003E000FC003E0007FFF80007FFFC0000000001FFF
310
FE0000000001FFF80FFFFFFFFFFFFFC07FFFFFF0001FFFFFF0001FFFFFFFFC00
310
07F0001FFFFFFFFC0007FF0003FFFFFFFFFFF0000000000FF000FFC000000000
310
1FFFF0003F000F8003F0003FFF80007FFF80000000003FFFF80000000003FFF8
310
0FFFFFFFFFFFFFC07FFFFFF0001FFFFFF0001FFFFFFFFC0007F0001FFFFFFFFC
310
0007FF0003FFFFFFFFFFE0000000001FF000FF00000000007FFFF0003F000780
310
03F0003FFF80007FFF00000000007FFFF00000000007FFF80FFFFFFFFFFFFFC0
310
7FFFFFF0001FFFFFF0001FFFFFFFFC0007F0001FFFFFFFFC0007FF0003FFFFFF
310
FFFF80000000007FF000FE0000000000FFFFE0003F00078007F0003FFF80007F
310
FE0000000001FFFFE0000000001FFFF80FFFFFFFFFFFFFC07FFFFFF0001FFFFF
310
F0001FFFFFFFFC0007F0001FFFFFFFFC0007FF0003FFFFFFFFFF0000000000FF
310
F000FC0000000003FFFFE0007F00078007F0003FFF80007FFC0000000007FFFF
310
C0000000007FFFF80FFFFFFFFFFFFFC07FFFFFF0001FFFFFF8001FFFFFFFFC00
310
0FF8001FFFFFFFFC000FFF0003FFFFFFFFFE0000000003FFF000FC000000000F
310
FFFFE0007F80070007F8001FFF80007FF8000000001FFFFF8000000001FFFFF8
310
0FFFFFFFFFFFFFC07FFFFFF0001FFFFFF8001FFFFFFFFC000FF8001FFFFFFFFC
310
000FFF0003FFFFFFFFFC000000000FFFF000F8000000007FFFFFE0007F800700
310
07F8001FFF80007FF000000000FFFFFF800000000FFFFFF80FFFFFFFFFFFFFC0
310
7FFFFFF0001FFFFFF8000FFFFFFFF8000FF8000FFFFFFFF8000FFF0003FFFFFF
310
FFFC000000007FFFF000F800000007FFFFFFC0007F8003000FF8001FFF80007F
310
F000000007FFFFFF000000007FFFFFF80FFFFFFFFFFFFFC07FFFFFF0001FFFFF
310
F8000FFFFFFFF8000FF8000FFFFFFFF8000FFF0003FFFFFFFFF80000000FFFFF
310
F000F0000000FFFFFFFFC000FF8003000FF8001FFF80007FE0000000FFFFFFFF
310
0000000FFFFFFFF8000001FFFE0000007FFFFFF0001FFFFFF8000FFFFFFFF800
310
0FF8000FFFFFFFF8000FFF0003FFFFFFFFF8000000FFFFFFF000F000000FFFFF
310
FFFFC000FFC002000FF8000FFF80007FE000001FFFFFFFFE000001FFFFFFFFF8
310
000001FFFE0000007FFFFFF0001FFFFFF8000FFFFFFFF8000FF8000FFFFFFFF8
310
000FFF0003FFFFFFFFF000001FFFFFFFF000E00000FFFFFFFFFFC000FFC00200
310
0FFC000FFF80007FE00001FFFFFFFFFE00001FFFFFFFFFF8000001FFFE000000
310
7FFFFFF0001FFFFFFC000FFFFFFFF8001FFC000FFFFFFFF8001FFF0003FFFFFF
310
FFF00001FFFFFFFFF000E00007FFFFFFFFFF8000FFC000001FFC000FFF80007F
310
C0000FFFFFFFFFFE0000FFFFFFFFFFF8000001FFFE0000007FFFFFF0001FFFFF
310
FC0007FFFFFFF0001FFC0007FFFFFFF0001FFF0003FFFFFFFFF00007FFFFFFFF
310
F000E0001FFFFFFFFFFF8000FFC000001FFC000FFF80007FC0003FFFFFFFFFFE
310
0001FFFFFFFFFFF8000001FFFE0000007FFFFFF0001FFFFFFC0007FFFFFFF000
310
1FFC0007FFFFFFF0001FFF0003FFFFFFFFF0001FFFFFFFFFF000E0003FFFFF00
310
03FF8001FFE000001FFC0007FF80007FC0007FFFFF0007FC0003FFFFF0003FF8
310
000001FFFE0000007FFFFFF0001FFFFFFC0003FFFFFFE0001FFC0003FFFFFFE0
310
001FFF0003FFFFFFFFF0003FFFFFFFFFF000E0003FFFFF0001FF8001FFE00000
310
1FFE0007FF80007FC0007FFFFE0003FC0007FFFFE0003FF8000001FFFE000000
310
7FFFFFF0001FFFFFFE0003FFFFFFE0003FFE0003FFFFFFE0003FFF0003FFFFFF
310
FFF0003FFFFF8001F000E0003FFFFF0001FF0001FFE000001FFE0007FF80007F
310
C0007FFFFE0003FC0007FFFFE0003FF8000001FFFE0000007FFFFFF0001FFFFF
310
FE0001FFFFFFC0003FFE0001FFFFFFC0003FFF0003FFFFFFFFF0003FFFFF0001
310
F000E0003FFFFF0003FF0001FFE000003FFE0007FF80007FC0007FFFFE0003FC
310
0007FFFFE0003FF8000001FFFE0000007FFFFFF0001FFFFFFF0001FFFFFFC000
310
7FFF0001FFFFFFC0007FFF0003FFFFFFFFF0003FFFFF0001F000E0003FFFFE00
310
03FF0003FFF000003FFE0003FF80007FC0007FFFFC0003FE0007FFFFE0003FF8
310
000001FFFE0000007FFFFFF0001FFFFFFF0000FFFFFF80007FFF0000FFFFFF80
310
007FFF0003FFFFFFFFF0003FFFFF0001F000E0003FFFFE0003FF0003FFF00000
310
3FFF0003FF80007FC0007FFFFC0007FE0007FFFFC0003FF8000001FFFE000000
310
7FFFFFF0001FFFFFFF80007FFFFF0000FFFF80007FFFFF0000FFFF0003FFFFFF
310
FFF0003FFFFF0003F000E0003FFFFC0003FE0003FFF000003FFF0003FF80007F
310
E0003FFFF80007FE0003FFFFC0007FF8000001FFFE0000007FFFFFF0001FFFFF
310
FF80003FFFFE0000FFFF80003FFFFE0000FFFF0003FFFFFFFFF0001FFFFE0003
310
F000F0001FFFF80003FE0003FFF000007FFF0001FF80007FE0003FFFF00007FE
310
0001FFFF80007FF8000001FFFE0000007FFFFFF0001FFFFFFFC0000FFFF80001
310
FFFFC0000FFFF80001FFFF0003FFFFFFFFF0001FFFFC0003F000F0000FFFF000
310
07FE0007FFF800007FFF0001FF80007FE0001FFFE00007FF0000FFFE00007FF8
310
000001FFFE0000007FFFFFF0001FFFFFFFC00003FFE00001FFFFC00003FFE000
310
01FFFF0003FFFFFFFFF8000FFFF80003F000F00003FFC00007FC0007FFF80000
310
7FFF8001FF80007FF00007FF80000FFF00007FF80000FFF8000001FFFE000000
310
7F80000000000001FFE000003E000003FFFFE000003E000003FFFF0003FFFFFF
310
FFF80003FFE00007F000F800000000000FFC0007FFF800007FFF8001FF80007F
310
F000000000000FFF000000000000FFF8000001FFFE0000007F80000000000001
310
FFF0000000000007FFFFF0000000000007FFFF0003FFFFFFFFFC00007E000007
310
F000F800000000000FFC0007FFF80000FFFF8000FF80007FF800000000001FFF
310
800000000001FFF8000001FFFE0000007F80000000000001FFF800000000000F
310
FFFFF800000000000FFFFF0003FFFFFFFFFC00000000000FF000FC0000000000
310
1FFC0007FFFC0000FFFF8000FF80007FF800000000003FFFC00000000001FFF8
310
000001FFFE0000007F80000000000001FFF800000000000FFFFFF80000000000
310
0FFFFF0003FFFFFFFFFE00000000001FF000FE00000000003FF8000FFFFC0000
310
FFFF8000FF80007FFC00000000003FFFC00000000003FFF8000001FFFE000000
310
7F80000000000001FFFC00000000001FFFFFFC00000000001FFFFF0003FFFFFF
310
FFFF00000000001FF000FF00000000003FF8000FFFFC0000FFFFC000FF80007F
310
FE00000000007FFFE00000000007FFF8000001FFFE0000007F80000000000001
310
FFFE00000000003FFFFFFE00000000003FFFFF0003FFFFFFFFFF80000000003F
310
F000FF80000000007FF8000FFFFC0001FFFFC0007F80007FFF0000000000FFFF
310
F0000000000FFFF800000000000000007F80000000000001FFFF8000000000FF
310
FFFFFF8000000000FFFFFF0003FFFFFFFFFFC0000000007FF000FFC000000000
310
FFF8000FFFFE0001FFFFC0007F80007FFF8000000001FFFFF8000000001FFFF8
310
00000000000000007F80000000000001FFFFC000000001FFFFFFFFC000000001
310
FFFFFF0003FFFFFFFFFFE000000000FFF000FFE000000003FFF0001FFFFE0001
310
FFFFC0007F80007FFFC000000007FFFFFE000000003FFFF80000000000000000
310
7F80000000000001FFFFE000000003FFFFFFFFE000000003FFFFFF0003FFFFFF
310
FFFFF000000003FFF000FFF80000000FFFF0001FFFFE0001FFFFE0007F80007F
310
FFF00000000FFFFFFF00000000FFFFF800000000000000007F80000000000001
310
FFFFF80000000FFFFFFFFFF80000000FFFFFFF0003FFFFFFFFFFFC0000000FFF
310
F000FFFE0000003FFFF0001FFFFE0003FFFFE0003F80007FFFFC0000003FFFFF
310
FFC0000003FFFFF800000000000000007F80000000000001FFFFFE0000003FFF
310
FFFFFFFE0000003FFFFFFF0003FFFFFFFFFFFF0000003FFFF000FFFF800000FF
310
FFF0001FFFFF0003FFFFE0003F80007FFFFF000001FFFFFFFFF800001FFFFFF8
310
00000000000000007F80000000000001FFFFFFC00001FFFFFFFFFFFFC00001FF
310
FFFFFF0003FFFFFFFFFFFFC00000FFFFF000FFFFF8000FFFFFFFFFFFFFFFFFFF
310
FFFFFFFFFFFFFFFFFFFFF0001FFFFFFFFFFF0000FFFFFFF80000000000000000
310
7FFFFFFFFFFFFFFFFFFFFFFC001FFFFFFFFFFFFFFC001FFFFFFFFFFFFFFFFFFF
310
FFFFFFFC001FFFFFF000FFFFFFFFFFFFFFFFFFFFFFFFFFFFFFFFFFFFFFFFFFFF
310
FFFFFFFFFFFFFFFFFFFFFFFFFFFFFFFFFFFFFFFFFFFFFFFFFFFFFFFFFFFFFFFF
310
FFFFFFFFFFFFFFFFFFFFFFFFFFFFFFFFFFFFFFFFFFFFFFFFFFFFFFFFFFFFFFFF
310
F000FFFFFFFFFFFFFFFFFFFFFFFFFFFFFFFFFFFFFFFFFFFFFFFFFFFFFFFFFFFF
310
FFFFFFFFFFFFFFFFFFFFFFFFFFFFFFFFFFFFFFFFFFFFFFFFFFFFFFFFFFFFFFFF
310
FFFFFFFFFFFFFFFFFFFFFFFFFFFFFFFFFFFFFFFFFFFFFFFFF000FFFFFFFFFFFF
310
FFFFFFFFFFFFFFFFFFFFFFFFFFFFFFFFFFFFFFFFFFFFFFFFFFFFFFFFFFFFFFFF
310
FFFFFFFFFFFFFFFFFFFFFFFFFFFFFFFFFFFFFFFFFFFFFFFFFFFFFFFFFFFFFFFF
310
FFFFFFFFFFFFFFFFFFFFFFFFFFFFFFFFF000FFFFFFFFFFFFFFFFFFFFFFFFFFFF
310
FFFFFFFFFFFFFFFFFFFFFFFFFFFFFFFFFFFFFFFFFFFFFFFFFFFFFFFFFFFFFFFF
310
FFFFFFFFFFFFFFFFFFFFFFFFFFFFFFFFFFFFFFFFFFFFFFFFFFFFFFFFFFFFFFFF
310
FFFFFFFFFFFFFFFFF000FFFFFFFFFFFFFFFFFFFFFFFFFFFFFFFFFFFFFFFFFFFF
310
FFFFFFFFFFFFFFFFFFFFFFFFFFFFFFFFFFFFFFFFFFFFFFFFFFFFFFFFFFFFFFFF
310
FFFFFFFFFFFFFFFFFFFFFFFFFFFFFFFFFFFFFFFFFFFFFFFFFFFFFFFFFFFFFFFF
310
F000FFFFFFFFFFFFFFFFFFFFFFFFFFFFFFFFFFFFFFFFFFFFFFFFFFFFFFFFFFFF
310
FFFFFFFFFFFFFFFFFFFFFFFFFFFFFFFFFFFFFFFFFFFFFFFFFFFFFFFFFFFFFFFF
310
FFFFFFFFFFFFFFFFFFFFFFFFFFFFFFFFFFFFFFFFFFFFFFFFF000FFFFFFFFFFFF
310
FFFFFFFFFFFFFFFFFFFFFFFFFFFFFFFFFFFFFFFFFFFFFFFFFFFFFFFFFFFFFFFF
310
FFFFFFFFFFFFFFFFFFFFFFFFFFFFFFFFFFFFFFFFFFFFFFFFFFFFFFFFFFFFFFFF
310
FFFFFFFFFFFFFFFFFFFFFFFFFFFFFFFFF000FFFFFFFFFFFFFFFFFFFFFFFFFFFF
310
FFFFFFFFFFFFFFFFFFFFFFFFFFFFFFFFFFFFFFFFFFFFFFFFFFFFFFFFFFFFFFFF
310
FFFFFFFFFFFFFFFFFFFFFFFFFFFFFFFFFFFFFFFFFFFFFFFFFFFFFFFFFFFFFFFF
310
FFFFFFFFFFFFFFFFF000FFFFFFFFFFFFFFFFFFFFFFFFFFFFFFFFFFFFFFFFFFFF
310
FFFFFFFFFFFFFFFFFFFFFFFFFFFFFFFFFFFFFFFFFFFFFFFFFFFFFFFFFFFFFFFF
310
FFFFFFFFFFFFFFFFFFFFFFFFFFFFFFFFFFFFFFFFFFFFFFFFFFFFFFFFFFFFFFFF
310
F000FFFFFFFFFFFFFFFFFFFFFFFFFFFFFFFFFFFFFFFFFFFFFFFFFFFFFFFFFFFF
310
FFFFFFFFFFFFFFFFFFFFFFFFFFFFFFFFFFFFFFFFFFFFFFFFFFFFFFFFFFFFFFFF
310
FFFFFFFFFFFFFFFFFFFFFFFFFFFFFFFFFFFFFFFFFFFFFFFFF000FFFFFFFFFFFF
310
FFFFFFFFFFFFFFFFFFFFFFFFFFFFFFFFFFFFFFFFFFFFFFFFFFFFFFFFFFFFFFFF
310
FFFFFFFFFFFFFFFFFFFFFFFFFFFFFFFFFFFFFFFFFFFFFFFFFFFFFFFFFFFFFFFF
310
FFFFFFFFFFFFFFFFFFFFFFFFFFFFFFFFF000FFFFFFFFFFFFFFFFFFFFFFFFFFFF
310
FFFFFFFFFFFFFFFFFFFFFFFFFFFFFFFFFFFFFFFFFFFFFFFFFFFFFFFFFFFFFFFF
310
FFFFFFFFFFFFFFFFFFFFFFFFFFFFFFFFFFFFFFFFFFFFFFFFFFFFFFFFFFFFFFFF
310
FFFFFFFFFFFFFFFFF000FFFFFFFFFFFFFFFFFFFFFFFFFFFFFFFFFFFFFFFFFFFF
310
FFFFFFFFFFFFFFFFFFFFFFFFFFFFFFFFFFFFFFFFFFFFFFFFFFFFFFFFFFFFFFFF
310
FFFFFFFFFFFFFFFFFFFFFFFFFFFFFFFFFFFFFFFFFFFFFFFFFFFFFFFFFFFFFFFF
310
F000FFFFFFFFFFFFFFFFFFFFFFFFFFFFFFFFFFFFFFFFFFFFFFFFFFFFFFFFFFFF
310
FFFFFFFFFFFFFFFFFFFFFFFFFFFFFFFFFFFFFFFFFFFFFFFFFFFFFFFFFFFFFFFF
310
FFFFFFFFFFFFFFFFFFFFFFFFFFFFFFFFFFFFFFFFFFFFFFFFF000FFFFFFFFFFFF
310
FFFFFFFFFFFFFFFFFFFFFFFFFFFFFFFFFFFFFFFFFFFFFFFFFFFFFFFFFFFFFFFF
310
FFFFFFFFFFFFFFFFFFFFFFFFFFFFFFFFFFFFFFFFFFFFFFFFFFFFFFFFFFFFFFFF
310
FFFFFFFFFFFFFFFFFFFFFFFFFFFFFFFFF000FFFFFFFFFFFFFFFFFFFFFFFFFFFF
310
FFFFFFFFFFFFFFFFFFFFFFFFFFFFFFFFFFFFFFFFFFFFFFFFFFFFFFFFFFFFFFFF
310
FFFFFFFFFFFFFFFFFFFFFFFFFFFFFFFFFFFFFFFFFFFFFFFFFFFFFFFFFFFFFFFF
310
FFFFFFFFFFFFFFFFF000FFFFFFFFFFFFFFFFFFFFFFFFFFFFFFFFFFFFFFFFFFFF
310
FFFFFFFFFFFFFFFFFFFFFFFFFFFFFFFFFFFFFFFFFFFFFFFFFFFFFFFFFFFFFFFF
310
FFFFFFFFFFFFFFFFFFFFFFFFFFFFFFFFFFFFFFFFFFFFFFFFFFFFFFFFFFFFFFFF
310
F000FFFFFFFFFFFFFFFFFFFFFFFFFFFFFFFFFFFFFFFFFFFFFFFFFFFFFFFFFFFF
310
FFFFFFFFFFFFFFFFFFFFFFFFFFFFFFFFFFFFFFFFFFFFFFFFFFFFFFFFFFFFFFFF
310
FFFFFFFFFFFFFFFFFFFFFFFFFFFFFFFFFFFFFFFFFFFFFFFFF000FFFFFFFFFFFF
310
FFFFFFFFFFFFFFFFFFFFFFFFFFFFFFFFFFFFFFFFFFFFFFFFFFFFFFFFFFFFFFFF
310
FFFFFFFFFFFFFFFFFFFFFFFFFFFFFFFFFFFFFFFFFFFFFFFFFFFFFFFFFFFFFFFF
310
FFFFFFFFFFFFFFFFFFFFFFFFFFFFFFFFF000FFFFFFFFFFFFFFFFFFFFFFFFFFFF
310
FFFFFFFFFFFFFFFFFFFFFFFFFFFFFFFFFFFFFFFFFFFFFFFFFFFFFFFFFFFFFFFF
310
FFFFFFFFFFFFFFFFFFFFFFFFFFFFFFFFFFFFFFFFFFFFFFFFFFFFFFFFFFFFFFFF
310
FFFFFFFFFFFFFFFFF000FFFFFFFFFFFFFFFFFFFFFFFFFFFFFFFFFFFFFFFFFFFF
310
FFFFFFFFFFFFFFFFFFFFFFFFFFFFFFFFFFFFFFFFFFFFFFFFFFFFFFFFFFFFFFFF
310
FFFFFFFFFFFFFFFFFFFFFFFFFFFFFFFFFFFFFFFFFFFFFFFFFFFFFFFFFFFFFFFF
310
F000FFFFFFFFFFFFFFFFFFFFFFFFFFFFFFFFFFFFFFFFFFFFFFFFFFFFFFFFFFFF
310
FFFFFFFFFFFFFFFFFFFFFFFFFFFFFFFFFFFFFFFFFFFFFFFFFFFFFFFFFFFFFFFF
310
FFFFFFFFFFFFFFFFFFFFFFFFFFFFFFFFFFFFFFFFFFFFFFFFF000FFFFFFFFFFFF
310
FFFFFFFFFFFFFFFFFFFFFFFFFFFFFFFFFFFFFFFFFFFFFFFFFFFFFFFFFFFFFFFF
310
FFFFFFFFFFFFFFFFFFFFFFFFFFFFFFFFFFFFFFFFFFFFFFFFFFFFFFFFFFFFFFFF
310
FFFFFFFFFFFFFFFFFFFFFFFFFFFFFFFFF0000000000000000000000000000000
310
0000000000000000000000000000000000000000000000000000000000000000
310
0000000000000000000000000000000000000000000000000000000000000000
310
0000000000000000000000000000000000000000000000000000000000000000
310
0000000000000000000000000000000000000000000000000000000000000000
310
0000000000000000000000000000000000000000000000000000000000000000
310
0000000000000000000000000000000000000000000000000000000000000000
310
0000000000000000000000000000000000000000000000000000000000000000
310
0000000000000000000000000000000000000000000000000000000000000000
310
0000000000000000000000000000000000000000000000000000000000000000
310
0000000000000000000000000000000000000000000000000000000000000000
310
0000000000000000000000000000000000000000000000000000000000000000
310
0000000000000000000000000000000000000000000000000000000000000000
310
0000000000000000000000000000000000000000000000000000000000000000
310
0000000000000000000000000000000000000000000000000000000000000000
310
0000000000000000000000000000000000000000000000000000000000000000
  1
OLE
  0
ENDSEC
  0
SECTION
  2
OBJECTS
  0
DICTIONARY
  5
C
330
0
100
AcDbDictionary
281
     1
  3
ACAD_GROUP
350
D
  3
ACAD_LAYOUT
350
1A
  3
ACAD_MLINESTYLE
350
17
  3
ACAD_PLOTSETTINGS
350
19
  3
ACAD_PLOTSTYLENAME
350
E
  3
ACAD_SCALELIST
350
47
  0
DICTIONARY
  5
D
102
{ACAD_REACTORS
330
C
102
}
330
C
100
AcDbDictionary
281
     1
  0
DICTIONARY
  5
1A
102
{ACAD_REACTORS
330
C
102
}
330
C
100
AcDbDictionary
281
     1
  3
Layout1
350
1E
  3
Layout2
350
26
  3
Model
350
22
  0
DICTIONARY
  5
17
102
{ACAD_REACTORS
330
C
102
}
330
C
100
AcDbDictionary
281
     1
  3
Standard
350
18
  0
DICTIONARY
  5
19
102
{ACAD_REACTORS
330
C
102
}
330
C
100
AcDbDictionary
281
     1
  0
ACDBDICTIONARYWDFLT
  5
E
102
{ACAD_REACTORS
330
C
102
}
330
C
100
AcDbDictionary
281
     1
  3
Normal
350
F
100
AcDbDictionaryWithDefault
340
F
  0
DICTIONARY
  5
47
102
{ACAD_REACTORS
330
C
102
}
330
C
100
AcDbDictionary
281
     1
  3
A0
350
48
  3
A1
350
49
  3
A2
350
4A
  3
A3
350
4B
  3
A4
350
4C
  3
A5
350
4D
  3
A6
350
4E
  3
A7
350
4F
  3
A8
350
50
  3
A9
350
51
  3
B0
350
52
  3
B1
350
53
  3
B2
350
54
  3
B3
350
55
  3
B4
350
56
  3
B5
350
57
  3
B6
350
58
  3
B7
350
59
  3
B8
350
5A
  3
B9
350
5B
  3
C0
350
5C
  3
C1
350
5D
  3
C2
350
5E
  3
C3
350
5F
  3
C4
350
60
  3
C5
350
61
  3
C6
350
62
  3
C7
350
63
  3
C8
350
64
  3
C9
350
65
  3
D0
350
66
  3
D1
350
67
  3
D2
350
68
  0
LAYOUT
  5
1E
102
{ACAD_REACTORS
330
1A
102
}
330
1A
100
AcDbPlotSettings
  1

  2
none_device
  4

  6

 40
0.0
 41
0.0
 42
0.0
 43
0.0
 44
0.0
 45
0.0
 46
0.0
 47
0.0
 48
0.0
 49
0.0
140
0.0
141
0.0
142
1.0
143
1.0
 70
   688
 72
     1
 73
     0
 74
     5
  7

 75
    16
147
1.0
148
0.0
149
0.0
100
AcDbLayout
  1
Layout1
 70
     1
 71
     1
 10
0.0
 20
0.0
 11
420.0
 21
297.0
 12
0.0
 22
0.0
 32
0.0
 14
1.0000000000E+20
 24
1.0000000000E+20
 34
1.0000000000E+20
 15
-1.0000000000E+20
 25
-1.0000000000E+20
 35
-1.0000000000E+20
146
0.0
 13
0.0
 23
0.0
 33
0.0
 16
1.0
 26
0.0
 36
0.0
 17
0.0
 27
1.0
 37
0.0
 76
     0
330
1B
  0
LAYOUT
  5
26
102
{ACAD_REACTORS
330
1A
102
}
330
1A
100
AcDbPlotSettings
  1

  2
none_device
  4

  6

 40
0.0
 41
0.0
 42
0.0
 43
0.0
 44
0.0
 45
0.0
 46
0.0
 47
0.0
 48
0.0
 49
0.0
140
0.0
141
0.0
142
1.0
143
1.0
 70
   688
 72
     1
 73
     0
 74
     5
  7

 75
    16
147
1.0
148
0.0
149
0.0
100
AcDbLayout
  1
Layout2
 70
     1
 71
     2
 10
0.0
 20
0.0
 11
0.0
 21
0.0
 12
0.0
 22
0.0
 32
0.0
 14
0.0
 24
0.0
 34
0.0
 15
0.0
 25
0.0
 35
0.0
146
0.0
 13
0.0
 23
0.0
 33
0.0
 16
1.0
 26
0.0
 36
0.0
 17
0.0
 27
1.0
 37
0.0
 76
     0
330
23
  0
LAYOUT
  5
22
102
{ACAD_REACTORS
330
1A
102
}
330
1A
100
AcDbPlotSettings
  1

  2
none_device
  4
Letter_(8.50_x_11.00_Inches)
  6

 40
6.35
 41
6.35
 42
6.35000508
 43
6.35000508
 44
215.9
 45
279.4
 46
0.0
 47
0.0
 48
0.0
 49
0.0
140
0.0
141
0.0
142
1.0
143
1.0
 70
  1712
 72
     1
 73
     0
 74
     0
  7

 75
     0
147
1.0
148
0.0
149
0.0
100
AcDbLayout
  1
Model
 70
     1
 71
     0
 10
0.0
 20
0.0
 11
297.0
 21
210.0
 12
0.0
 22
0.0
 32
0.0
 14
0.0
 24
0.0
 34
0.0
 15
297.0
 25
210.0
 35
0.0
146
0.0
 13
0.0
 23
0.0
 33
0.0
 16
1.0
 26
0.0
 36
0.0
 17
0.0
 27
1.0
 37
0.0
 76
     0
330
1F
331
29
  0
MLINESTYLE
  5
18
102
{ACAD_REACTORS
330
17
102
}
330
17
100
AcDbMlineStyle
  2
Standard
 70
     0
  3

 62
   256
 51
90.0
 52
90.0
 71
     2
 49
0.5
 62
   256
  6
BYLAYER
 49
-0.5
 62
   256
  6
BYLAYER
  0
ACDBPLACEHOLDER
  5
F
102
{ACAD_REACTORS
330
E
102
}
330
E
  0
SCALE
  5
48
102
{ACAD_REACTORS
330
47
102
}
330
47
100
AcDbScale
 70
     0
300
1:1
140
1.0
141
1.0
290
     1
  0
SCALE
  5
49
102
{ACAD_REACTORS
330
47
102
}
330
47
100
AcDbScale
 70
     0
300
1:2
140
1.0
141
2.0
290
     0
  0
SCALE
  5
4A
102
{ACAD_REACTORS
330
47
102
}
330
47
100
AcDbScale
 70
     0
300
1:4
140
1.0
141
4.0
290
     0
  0
SCALE
  5
4B
102
{ACAD_REACTORS
330
47
102
}
330
47
100
AcDbScale
 70
     0
300
1:5
140
1.0
141
5.0
290
     0
  0
SCALE
  5
4C
102
{ACAD_REACTORS
330
47
102
}
330
47
100
AcDbScale
 70
     0
300
1:8
140
1.0
141
8.0
290
     0
  0
SCALE
  5
4D
102
{ACAD_REACTORS
330
47
102
}
330
47
100
AcDbScale
 70
     0
300
1:10
140
1.0
141
10.0
290
     0
  0
SCALE
  5
4E
102
{ACAD_REACTORS
330
47
102
}
330
47
100
AcDbScale
 70
     0
300
1:16
140
1.0
141
16.0
290
     0
  0
SCALE
  5
4F
102
{ACAD_REACTORS
330
47
102
}
330
47
100
AcDbScale
 70
     0
300
1:20
140
1.0
141
20.0
290
     0
  0
SCALE
  5
50
102
{ACAD_REACTORS
330
47
102
}
330
47
100
AcDbScale
 70
     0
300
1:30
140
1.0
141
30.0
290
     0
  0
SCALE
  5
51
102
{ACAD_REACTORS
330
47
102
}
330
47
100
AcDbScale
 70
     0
300
1:40
140
1.0
141
40.0
290
     0
  0
SCALE
  5
52
102
{ACAD_REACTORS
330
47
102
}
330
47
100
AcDbScale
 70
     0
300
1:50
140
1.0
141
50.0
290
     0
  0
SCALE
  5
53
102
{ACAD_REACTORS
330
47
102
}
330
47
100
AcDbScale
 70
     0
300
1:100
140
1.0
141
100.0
290
     0
  0
SCALE
  5
54
102
{ACAD_REACTORS
330
47
102
}
330
47
100
AcDbScale
 70
     0
300
2:1
140
2.0
141
1.0
290
     0
  0
SCALE
  5
55
102
{ACAD_REACTORS
330
47
102
}
330
47
100
AcDbScale
 70
     0
300
4:1
140
4.0
141
1.0
290
     0
  0
SCALE
  5
56
102
{ACAD_REACTORS
330
47
102
}
330
47
100
AcDbScale
 70
     0
300
8:1
140
8.0
141
1.0
290
     0
  0
SCALE
  5
57
102
{ACAD_REACTORS
330
47
102
}
330
47
100
AcDbScale
 70
     0
300
10:1
140
10.0
141
1.0
290
     0
  0
SCALE
  5
58
102
{ACAD_REACTORS
330
47
102
}
330
47
100
AcDbScale
 70
     0
300
100:1
140
100.0
141
1.0
290
     0
  0
SCALE
  5
59
102
{ACAD_REACTORS
330
47
102
}
330
47
100
AcDbScale
 70
     0
300
1/128" = 1'-0"
140
0.0078125
141
12.0
290
     0
  0
SCALE
  5
5A
102
{ACAD_REACTORS
330
47
102
}
330
47
100
AcDbScale
 70
     0
300
1/64" = 1'-0"
140
0.015625
141
12.0
290
     0
  0
SCALE
  5
5B
102
{ACAD_REACTORS
330
47
102
}
330
47
100
AcDbScale
 70
     0
300
1/32" = 1'-0"
140
0.03125
141
12.0
290
     0
  0
SCALE
  5
5C
102
{ACAD_REACTORS
330
47
102
}
330
47
100
AcDbScale
 70
     0
300
1/16" = 1'-0"
140
0.0625
141
12.0
290
     0
  0
SCALE
  5
5D
102
{ACAD_REACTORS
330
47
102
}
330
47
100
AcDbScale
 70
     0
300
3/32" = 1'-0"
140
0.09375
141
12.0
290
     0
  0
SCALE
  5
5E
102
{ACAD_REACTORS
330
47
102
}
330
47
100
AcDbScale
 70
     0
300
1/8" = 1'-0"
140
0.125
141
12.0
290
     0
  0
SCALE
  5
5F
102
{ACAD_REACTORS
330
47
102
}
330
47
100
AcDbScale
 70
     0
300
3/16" = 1'-0"
140
0.1875
141
12.0
290
     0
  0
SCALE
  5
60
102
{ACAD_REACTORS
330
47
102
}
330
47
100
AcDbScale
 70
     0
300
1/4" = 1'-0"
140
0.25
141
12.0
290
     0
  0
SCALE
  5
61
102
{ACAD_REACTORS
330
47
102
}
330
47
100
AcDbScale
 70
     0
300
3/8" = 1'-0"
140
0.375
141
12.0
290
     0
  0
SCALE
  5
62
102
{ACAD_REACTORS
330
47
102
}
330
47
100
AcDbScale
 70
     0
300
1/2" = 1'-0"
140
0.5
141
12.0
290
     0
  0
SCALE
  5
63
102
{ACAD_REACTORS
330
47
102
}
330
47
100
AcDbScale
 70
     0
300
3/4" = 1'-0"
140
0.75
141
12.0
290
     0
  0
SCALE
  5
64
102
{ACAD_REACTORS
330
47
102
}
330
47
100
AcDbScale
 70
     0
300
1" = 1'-0"
140
1.0
141
12.0
290
     0
  0
SCALE
  5
65
102
{ACAD_REACTORS
330
47
102
}
330
47
100
AcDbScale
 70
     0
300
1-1/2" = 1'-0"
140
1.5
141
12.0
290
     0
  0
SCALE
  5
66
102
{ACAD_REACTORS
330
47
102
}
330
47
100
AcDbScale
 70
     0
300
3" = 1'-0"
140
3.0
141
12.0
290
     0
  0
SCALE
  5
67
102
{ACAD_REACTORS
330
47
102
}
330
47
100
AcDbScale
 70
     0
300
6" = 1'-0"
140
6.0
141
12.0
290
     0
  0
SCALE
  5
68
102
{ACAD_REACTORS
330
47
102
}
330
47
100
AcDbScale
 70
     0
300
1'-0" = 1'-0"
140
12.0
141
12.0
290
     0
  0
ENDSEC
  0
EOF
