  0
SECTION
  2
HEADER
  9
$ACADVER
  1
AC1015
  9
$ACADMAINTVER
 70
     6
  9
$DWGCODEPAGE
  3
ANSI_1252
  9
$INSBASE
 10
0.0
 20
0.0
 30
0.0
  9
$EXTMIN
 10
0.0
 20
0.0
 30
0.0
  9
$EXTMAX
 10
297.0
 20
210.0
 30
0.0
  9
$LIMMIN
 10
0.0
 20
0.0
  9
$LIMMAX
 10
297.0
 20
210.0
  9
$ORTHOMODE
 70
     0
  9
$REGENMODE
 70
     1
  9
$FILLMODE
 70
     1
  9
$QTEXTMODE
 70
     0
  9
$MIRRTEXT
 70
     1
  9
$LTSCALE
 40
1.0
  9
$ATTMODE
 70
     1
  9
$TEXTSIZE
 40
2.0
  9
$TRACEWID
 40
1.0
  9
$TEXTSTYLE
  7
Standard
  9
$CLAYER
  8
0
  9
$CELTYPE
  6
ByLayer
  9
$CECOLOR
 62
   256
  9
$CELTSCALE
 40
1.0
  9
$DISPSILH
 70
     0
  9
$DIMSCALE
 40
1.0
  9
$DIMASZ
 40
3.0
  9
$DIMEXO
 40
0.0
  9
$DIMDLI
 40
3.75
  9
$DIMRND
 40
0.0
  9
$DIMDLE
 40
0.0
  9
$DIMEXE
 40
1.0
  9
$DIMTP
 40
0.0
  9
$DIMTM
 40
0.0
  9
$DIMTXT
 40
2.0
  9
$DIMCEN
 40
2.5
  9
$DIMTSZ
 40
0.0
  9
$DIMTOL
 70
     0
  9
$DIMLIM
 70
     0
  9
$DIMTIH
 70
     1
  9
$DIMTOH
 70
     1
  9
$DIMSE1
 70
     0
  9
$DIMSE2
 70
     0
  9
$DIMTAD
 70
     1
  9
$DIMZIN
 70
     0
  9
$DIMBLK
  1

  9
$DIMASO
 70
     1
  9
$DIMSHO
 70
     1
  9
$DIMPOST
  1

  9
$DIMAPOST
  1

  9
$DIMALT
 70
     0
  9
$DIMALTD
 70
     3
  9
$DIMALTF
 40
0.0393700787
  9
$DIMLFAC
 40
2.0
  9
$DIMTOFL
 70
     1
  9
$DIMTVP
 40
0.0
  9
$DIMTIX
 70
     0
  9
$DIMSOXD
 70
     0
  9
$DIMSAH
 70
     0
  9
$DIMBLK1
  1

  9
$DIMBLK2
  1

  9
$DIMSTYLE
  2
ISO-25
  9
$DIMCLRD
 70
     0
  9
$DIMCLRE
 70
     0
  9
$DIMCLRT
 70
     0
  9
$DIMTFAC
 40
1.0
  9
$DIMGAP
 40
1.524
  9
$DIMJUST
 70
     0
  9
$DIMSD1
 70
     0
  9
$DIMSD2
 70
     0
  9
$DIMTOLJ
 70
     0
  9
$DIMTZIN
 70
     0
  9
$DIMALTZ
 70
     0
  9
$DIMALTTZ
 70
     0
  9
$DIMUPT
 70
     0
  9
$DIMDEC
 70
     2
  9
$DIMTDEC
 70
     3
  9
$DIMALTU
 70
     2
  9
$DIMALTTD
 70
     3
  9
$DIMTXSTY
  7
Standard
  9
$DIMAUNIT
 70
     0
  9
$DIMADEC
 70
     2
  9
$DIMALTRND
 40
0.0
  9
$DIMAZIN
 70
     0
  9
$DIMDSEP
 70
    44
  9
$DIMATFIT
 70
     3
  9
$DIMFRAC
 70
     0
  9
$DIMLDRBLK
  1

  9
$DIMLUNIT
 70
     2
  9
$DIMLWD
 70
    -2
  9
$DIMLWE
 70
    -2
  9
$DIMTMOVE
 70
     0
  9
$LUNITS
 70
     2
  9
$LUPREC
 70
     2
  9
$SKETCHINC
 40
1.0
  9
$FILLETRAD
 40
10.0
  9
$AUNITS
 70
     0
  9
$AUPREC
 70
     2
  9
$MENU
  1
.
  9
$ELEVATION
 40
0.0
  9
$PELEVATION
 40
0.0
  9
$THICKNESS
 40
0.0
  9
$LIMCHECK
 70
     0
  9
$CHAMFERA
 40
0.0
  9
$CHAMFERB
 40
0.0
  9
$CHAMFERC
 40
0.0
  9
$CHAMFERD
 40
0.0
  9
$SKPOLY
 70
     0
  9
$TDCREATE
 40
2457673.453706944
  9
$TDUCREATE
 40
2457673.370373611
  9
$TDUPDATE
 40
2457673.45370809
  9
$TDUUPDATE
 40
2457673.370374757
  9
$TDINDWG
 40
0.0000000116
  9
$TDUSRTIMER
 40
0.0000000116
  9
$USRTIMER
 70
     1
  9
$ANGBASE
 50
0.0
  9
$ANGDIR
 70
     0
  9
$PDMODE
 70
     0
  9
$PDSIZE
 40
-1.0
  9
$PLINEWID
 40
0.0
  9
$SPLFRAME
 70
     0
  9
$SPLINETYPE
 70
     6
  9
$SPLINESEGS
 70
     8
  9
$HANDSEED
  5
1F5
  9
$SURFTAB1
 70
     6
  9
$SURFTAB2
 70
     6
  9
$SURFTYPE
 70
     6
  9
$SURFU
 70
     6
  9
$SURFV
 70
     6
  9
$UCSBASE
  2

  9
$UCSNAME
  2

  9
$UCSORG
 10
0.0
 20
0.0
 30
0.0
  9
$UCSXDIR
 10
1.0
 20
0.0
 30
0.0
  9
$UCSYDIR
 10
0.0
 20
1.0
 30
0.0
  9
$UCSORTHOREF
  2

  9
$UCSORTHOVIEW
 70
     0
  9
$UCSORGTOP
 10
0.0
 20
0.0
 30
0.0
  9
$UCSORGBOTTOM
 10
0.0
 20
0.0
 30
0.0
  9
$UCSORGLEFT
 10
0.0
 20
0.0
 30
0.0
  9
$UCSORGRIGHT
 10
0.0
 20
0.0
 30
0.0
  9
$UCSORGFRONT
 10
0.0
 20
0.0
 30
0.0
  9
$UCSORGBACK
 10
0.0
 20
0.0
 30
0.0
  9
$PUCSBASE
  2

  9
$PUCSNAME
  2

  9
$PUCSORG
 10
0.0
 20
0.0
 30
0.0
  9
$PUCSXDIR
 10
1.0
 20
0.0
 30
0.0
  9
$PUCSYDIR
 10
0.0
 20
1.0
 30
0.0
  9
$PUCSORTHOREF
  2

  9
$PUCSORTHOVIEW
 70
     0
  9
$PUCSORGTOP
 10
0.0
 20
0.0
 30
0.0
  9
$PUCSORGBOTTOM
 10
0.0
 20
0.0
 30
0.0
  9
$PUCSORGLEFT
 10
0.0
 20
0.0
 30
0.0
  9
$PUCSORGRIGHT
 10
0.0
 20
0.0
 30
0.0
  9
$PUCSORGFRONT
 10
0.0
 20
0.0
 30
0.0
  9
$PUCSORGBACK
 10
0.0
 20
0.0
 30
0.0
  9
$USERI1
 70
     0
  9
$USERI2
 70
     0
  9
$USERI3
 70
     0
  9
$USERI4
 70
     0
  9
$USERI5
 70
     0
  9
$USERR1
 40
0.0
  9
$USERR2
 40
0.0
  9
$USERR3
 40
0.0
  9
$USERR4
 40
0.0
  9
$USERR5
 40
0.0
  9
$WORLDVIEW
 70
     1
  9
$SHADEDGE
 70
     3
  9
$SHADEDIF
 70
    70
  9
$TILEMODE
 70
     1
  9
$MAXACTVP
 70
    64
  9
$PINSBASE
 10
0.0
 20
0.0
 30
0.0
  9
$PLIMCHECK
 70
     0
  9
$PEXTMIN
 10
1.0000000000E+20
 20
1.0000000000E+20
 30
1.0000000000E+20
  9
$PEXTMAX
 10
-1.0000000000E+20
 20
-1.0000000000E+20
 30
-1.0000000000E+20
  9
$PLIMMIN
 10
0.0
 20
0.0
  9
$PLIMMAX
 10
420.0
 20
297.0
  9
$UNITMODE
 70
     0
  9
$VISRETAIN
 70
     1
  9
$PLINEGEN
 70
     0
  9
$PSLTSCALE
 70
     1
  9
$TREEDEPTH
 70
  3020
  9
$CMLSTYLE
  2
Standard
  9
$CMLJUST
 70
     0
  9
$CMLSCALE
 40
20.0
  9
$PROXYGRAPHICS
 70
     1
  9
$MEASUREMENT
 70
     1
  9
$CELWEIGHT
370
    -1
  9
$ENDCAPS
280
     0
  9
$JOINSTYLE
280
     0
  9
$LWDISPLAY
290
     1
  9
$INSUNITS
 70
     4
  9
$HYPERLINKBASE
  1

  9
$STYLESHEET
  1

  9
$XEDIT
290
     1
  9
$CEPSNTYPE
380
     0
  9
$PSTYLEMODE
290
     1
  9
$FINGERPRINTGUID
  2
{B4D500AA-E6F7-4E3B-B18F-1CBD12B31B86}
  9
$VERSIONGUID
  2
{FAEB1C32-E019-11D5-929B-00C0DF256EC4}
  9
$EXTNAMES
290
     1
  9
$PSVPSCALE
 40
0.0
  9
$OLESTARTUP
290
     0
  0
ENDSEC
  0
SECTION
  2
CLASSES
  0
CLASS
  1
ACDBDICTIONARYWDFLT
  2
AcDbDictionaryWithDefault
  3
ObjectDBX Classes
 90
        0
280
     0
281
     0
  0
CLASS
  1
VISUALSTYLE
  2
AcDbVisualStyle
  3
ObjectDBX Classes
 90
     4095
280
     0
281
     0
  0
CLASS
  1
MATERIAL
  2
AcDbMaterial
  3
ObjectDBX Classes
 90
     1153
280
     0
281
     0
  0
CLASS
  1
SCALE
  2
AcDbScale
  3
ObjectDBX Classes
 90
     1153
280
     0
281
     0
  0
CLASS
  1
TABLESTYLE
  2
AcDbTableStyle
  3
ObjectDBX Classes
 90
     4095
280
     0
281
     0
  0
CLASS
  1
MLEADERSTYLE
  2
AcDbMLeaderStyle
  3
ACDB_MLEADERSTYLE_CLASS
 90
     4095
280
     0
281
     0
  0
CLASS
  1
SUN
  2
AcDbSun
  3
SCENEOE
 90
     1153
280
     0
281
     0
  0
CLASS
  1
ACDBPLACEHOLDER
  2
AcDbPlaceHolder
  3
ObjectDBX Classes
 90
        0
280
     0
281
     0
  0
CLASS
  1
LAYOUT
  2
AcDbLayout
  3
ObjectDBX Classes
 90
        0
280
     0
281
     0
  0
ENDSEC
  0
SECTION
  2
TABLES
  0
TABLE
  2
VPORT
  5
8
330
0
100
AcDbSymbolTable
 70
     1
  0
VPORT
  5
29
330
8
100
AcDbSymbolTableRecord
100
AcDbViewportTableRecord
  2
*Active
 70
     0
 10
0.0
 20
0.0
 11
1.0
 21
1.0
 12
148.5
 22
105.0
 13
0.0
 23
0.0
 14
10.0
 24
10.0
 15
10.0
 25
10.0
 16
0.0
 26
0.0
 36
1.0
 17
0.0
 27
0.0
 37
0.0
 40
210.0
 41
1.4142857143
 42
50.0
 43
0.0
 44
0.0
 50
0.0
 51
0.0
 71
     0
 72
  2000
 73
     1
 74
     3
 75
     0
 76
     0
 77
     0
 78
     0
281
     0
 65
     1
110
0.0
120
0.0
130
0.0
111
1.0
121
0.0
131
0.0
112
0.0
122
1.0
132
0.0
 79
     0
146
0.0
  0
ENDTAB
  0
TABLE
  2
LTYPE
  5
5
330
0
100
AcDbSymbolTable
 70
     6
  0
LTYPE
  5
14
330
5
100
AcDbSymbolTableRecord
100
AcDbLinetypeTableRecord
  2
ByBlock
 70
     0
  3

 72
    65
 73
     0
 40
0.0
  0
LTYPE
  5
15
330
5
100
AcDbSymbolTableRecord
100
AcDbLinetypeTableRecord
  2
ByLayer
 70
     0
  3

 72
    65
 73
     0
 40
0.0
  0
LTYPE
  5
16
330
5
100
AcDbSymbolTableRecord
100
AcDbLinetypeTableRecord
  2
Continuous
 70
     0
  3
Solid line
 72
    65
 73
     0
 40
0.0
  0
LTYPE
  5
6E
330
5
100
AcDbSymbolTableRecord
100
AcDbLinetypeTableRecord
  2
HIDDEN
 70
     0
  3
Hidden __ __ __ __ __ __ __ __ __ __ __ __ __ __
 72
    65
 73
     2
 40
1.905
 49
1.27
 74
     0
 49
-0.635
 74
     0
  0
LTYPE
  5
6F
330
5
100
AcDbSymbolTableRecord
100
AcDbLinetypeTableRecord
  2
PHANTOM
 70
     0
  3
Phantom ______  __  __  ______  __  __  ______
 72
    65
 73
     6
 40
12.7
 49
6.35
 74
     0
 49
-1.27
 74
     0
 49
1.27
 74
     0
 49
-1.27
 74
     0
 49
1.27
 74
     0
 49
-1.27
 74
     0
  0
LTYPE
  5
70
330
5
100
AcDbSymbolTableRecord
100
AcDbLinetypeTableRecord
  2
CENTER
 70
     0
  3
Center ____ _ ____ _ ____ _ ____ _ ____ _ ____
 72
    65
 73
     4
 40
10.16
 49
6.35
 74
     0
 49
-1.27
 74
     0
 49
1.27
 74
     0
 49
-1.27
 74
     0
  0
LTYPE
  5
71
330
5
100
AcDbSymbolTableRecord
100
AcDbLinetypeTableRecord
  2
CENTERX2
 70
     0
  3
Center (2x) ________  __  ________  __  _____
 72
    65
 73
     4
 40
20.32
 49
12.7
 74
     0
 49
-2.54
 74
     0
 49
2.54
 74
     0
 49
-2.54
 74
     0
  0
LTYPE
  5
72
330
5
100
AcDbSymbolTableRecord
100
AcDbLinetypeTableRecord
  2
DOT2
 70
     0
  3
Dot (.5x) ........................................
 72
    65
 73
     2
 40
0.635
 49
0.0
 74
     0
 49
-0.635
 74
     0
  0
ENDTAB
  0
TABLE
  2
LAYER
  5
2
330
0
100
AcDbSymbolTable
 70
     5
  0
LAYER
  5
10
330
2
100
AcDbSymbolTableRecord
100
AcDbLayerTableRecord
  2
0
 70
     0
 62
     7
  6
Continuous
370
    -3
390
F
  0
LAYER
  5
73
330
2
100
AcDbSymbolTableRecord
100
AcDbLayerTableRecord
  2
FORMAT
 70
     0
 62
     7
  6
Continuous
370
    -3
390
F
  0
LAYER
  5
74
330
2
100
AcDbSymbolTableRecord
100
AcDbLayerTableRecord
  2
VERMASSUNG
 70
     0
 62
     7
  6
Continuous
370
    -3
390
F
  0
LAYER
  5
75
330
2
100
AcDbSymbolTableRecord
100
AcDbLayerTableRecord
  2
KOPF_DÜNN
 70
     0
 62
     7
  6
Continuous
370
    -3
390
F
  0
LAYER
  5
76
330
2
100
AcDbSymbolTableRecord
100
AcDbLayerTableRecord
  2
KOPF_DICK
 70
     0
 62
     7
  6
Continuous
370
    15
390
F
  0
ENDTAB
  0
TABLE
  2
STYLE
  5
3
330
0
100
AcDbSymbolTable
 70
     2
  0
STYLE
  5
11
330
3
100
AcDbSymbolTableRecord
100
AcDbTextStyleTableRecord
  2
Standard
 70
     0
 40
0.0
 41
1.0
 50
0.0
 71
     0
 42
2.0
  3
txt
  4

  0
STYLE
  5
77
330
3
100
AcDbSymbolTableRecord
100
AcDbTextStyleTableRecord
  2
SLDTEXTSTYLE0
 70
     0
 40
0.0
 41
0.7
 50
0.0
 71
     0
 42
2.0
  3
TXT
  4

  0
ENDTAB
  0
TABLE
  2
VIEW
  5
6
330
0
100
AcDbSymbolTable
 70
     0
  0
ENDTAB
  0
TABLE
  2
UCS
  5
7
330
0
100
AcDbSymbolTable
 70
     0
  0
ENDTAB
  0
TABLE
  2
APPID
  5
9
330
0
100
AcDbSymbolTable
 70
     1
  0
APPID
  5
12
330
9
100
AcDbSymbolTableRecord
100
AcDbRegAppTableRecord
  2
ACAD
 70
     0
  0
ENDTAB
  0
TABLE
  2
DIMSTYLE
  5
A
330
0
100
AcDbSymbolTable
 70
     3
100
AcDbDimStyleTable
  0
DIMSTYLE
105
27
330
A
100
AcDbSymbolTableRecord
100
AcDbDimStyleTableRecord
  2
ISO-25
 70
     0
 41
2.5
 42
0.625
 43
3.75
 44
1.25
 73
     0
 74
     0
 77
     1
 78
     8
140
2.5
141
2.5
143
0.0393700787
147
0.625
171
     3
172
     1
178
     0
271
     2
272
     2
274
     3
278
    44
283
     0
284
     8
340
11
  0
DIMSTYLE
105
12E
102
{ACAD_REACTORS
330
12D
102
}
330
A
100
AcDbSymbolTableRecord
100
AcDbDimStyleTableRecord
  2
SLDDIMSTYLE0
 70
     0
 41
3.0
 44
0.0
 45
0.000000001
 73
     0
 74
     0
 77
     1
 78
    12
 79
     3
140
2.0
147
0.5
173
     1
178
     0
271
     1
272
     1
276
     2
284
    12
340
77
  0
DIMSTYLE
105
13B
102
{ACAD_REACTORS
330
13A
330
146
330
152
330
15C
330
166
102
}
330
A
100
AcDbSymbolTableRecord
100
AcDbDimStyleTableRecord
  2
SLDDIMSTYLE1
 70
     0
 41
3.0
 44
0.0
 45
0.000000001
 73
     0
 74
     0
 77
     1
 78
    12
 79
     3
140
2.0
147
0.5
173
     1
178
     0
271
     2
272
     3
276
     2
284
    12
340
77
  0
ENDTAB
  0
TABLE
  2
BLOCK_RECORD
  5
1
330
0
100
AcDbSymbolTable
 70
     7
  0
BLOCK_RECORD
  5
1F
330
1
100
AcDbSymbolTableRecord
100
AcDbBlockTableRecord
  2
*Model_Space
340
22
  0
BLOCK_RECORD
  5
1B
330
1
100
AcDbSymbolTableRecord
100
AcDbBlockTableRecord
  2
*Paper_Space
340
1E
  0
BLOCK_RECORD
  5
23
330
1
100
AcDbSymbolTableRecord
100
AcDbBlockTableRecord
  2
*Paper_Space0
340
26
  0
BLOCK_RECORD
  5
12F
330
1
100
AcDbSymbolTableRecord
100
AcDbBlockTableRecord
  2
_D
340
0
  0
BLOCK_RECORD
  5
13C
330
1
100
AcDbSymbolTableRecord
100
AcDbBlockTableRecord
  2
_D_1
340
0
  0
BLOCK_RECORD
  5
147
330
1
100
AcDbSymbolTableRecord
100
AcDbBlockTableRecord
  2
_D_2
340
0
  0
BLOCK_RECORD
  5
153
330
1
100
AcDbSymbolTableRecord
100
AcDbBlockTableRecord
  2
_D_3
340
0
  0
BLOCK_RECORD
  5
15D
330
1
100
AcDbSymbolTableRecord
100
AcDbBlockTableRecord
  2
_D_4
340
0
  0
BLOCK_RECORD
  5
167
330
1
100
AcDbSymbolTableRecord
100
AcDbBlockTableRecord
  2
_D_5
340
0
  0
ENDTAB
  0
ENDSEC
  0
SECTION
  2
BLOCKS
  0
BLOCK
  5
20
330
1F
100
AcDbEntity
  8
0
100
AcDbBlockBegin
  2
*Model_Space
 70
     0
 10
0.0
 20
0.0
 30
0.0
  3
*Model_Space
  1

  0
ENDBLK
  5
21
330
1F
100
AcDbEntity
  8
0
100
AcDbBlockEnd
  0
BLOCK
  5
1C
330
1B
100
AcDbEntity
 67
     1
  8
0
100
AcDbBlockBegin
  2
*Paper_Space
 70
     0
 10
0.0
 20
0.0
 30
0.0
  3
*Paper_Space
  1

  0
ENDBLK
  5
1D
330
1B
100
AcDbEntity
 67
     1
  8
0
100
AcDbBlockEnd
  0
BLOCK
  5
24
330
23
100
AcDbEntity
  8
0
100
AcDbBlockBegin
  2
*Paper_Space0
 70
     0
 10
0.0
 20
0.0
 30
0.0
  3
*Paper_Space0
  1

  0
ENDBLK
  5
25
330
23
100
AcDbEntity
  8
0
100
AcDbBlockEnd
  0
BLOCK
  5
130
330
12F
100
AcDbEntity
  8
0
100
AcDbBlockBegin
  2
_D
 70
     0
 10
0.0
 20
0.0
 30
0.0
  3
_D
  1

  0
SOLID
  5
132
330
12F
100
AcDbEntity
  8
VERMASSUNG
100
AcDbTrace
 10
46.4983731178
 20
70.6607758621
 30
0.0
 11
46.9483731178
 21
73.6607758621
 31
0.0
 12
46.0483731178
 22
73.6607758621
 32
0.0
 13
46.0483731178
 23
73.6607758621
 33
0.0
  0
SOLID
  5
133
330
12F
100
AcDbEntity
  8
VERMASSUNG
100
AcDbTrace
 10
46.4983731178
 20
167.9607758621
 30
0.0
 11
46.0483731178
 21
164.9607758621
 31
0.0
 12
46.9483731178
 22
164.9607758621
 32
0.0
 13
46.9483731178
 23
164.9607758621
 33
0.0
  0
LINE
  5
134
330
12F
100
AcDbEntity
  8
VERMASSUNG
100
AcDbLine
 10
195.9990301724
 20
70.6607758621
 30
0.0
 11
45.4983731178
 21
70.6607758621
 31
0.0
  0
LINE
  5
135
330
12F
100
AcDbEntity
  8
VERMASSUNG
100
AcDbLine
 10
195.9990301724
 20
167.9607758621
 30
0.0
 11
45.4983731178
 21
167.9607758621
 31
0.0
  0
LINE
  5
136
330
12F
100
AcDbEntity
  8
VERMASSUNG
100
AcDbLine
 10
46.4983731178
 20
70.6607758621
 30
0.0
 11
46.4983731178
 21
167.9607758621
 31
0.0
  0
MTEXT
  5
137
330
12F
100
AcDbEntity
  8
VERMASSUNG
100
AcDbMText
 10
43.7202378616
 20
110.9071208672
 30
0.0
 40
2.0
 41
0.0
 71
     1
 72
     1
  1
SK 50
  7
SLDTEXTSTYLE0
 11
3.391901413832837E-15
 21
1.0
 31
0.0
 73
     1
 44
1.0
  0
MTEXT
  5
138
330
12F
100
AcDbEntity
  8
VERMASSUNG
100
AcDbMText
 10
43.9202378129
 20
119.3071205677
 30
0.0
 40
2.0
 41
0.0
 71
     1
 72
     1
  1
%%c
  7
SLDTEXTSTYLE0
 11
3.391901413832837E-15
 21
1.0
 31
0.0
 73
     1
 44
1.0
  0
MTEXT
  5
139
330
12F
100
AcDbEntity
  8
VERMASSUNG
100
AcDbMText
 10
43.9202375219
 20
122.9164390958
 30
0.0
 40
2.0
 41
0.0
 71
     1
 72
     1
  1
97.3
  7
SLDTEXTSTYLE0
 11
3.391901413832837E-15
 21
1.0
 31
0.0
 73
     1
 44
1.0
  0
ENDBLK
  5
131
330
12F
100
AcDbEntity
  8
0
100
AcDbBlockEnd
  0
BLOCK
  5
13D
330
13C
100
AcDbEntity
  8
0
100
AcDbBlockBegin
  2
_D_1
 70
     0
 10
0.0
 20
0.0
 30
0.0
  3
_D_1
  1

  0
SOLID
  5
13F
330
13C
100
AcDbEntity
  8
VERMASSUNG
100
AcDbTrace
 10
243.3990301724
 20
137.3107758621
 30
0.0
 11
242.9490301724
 21
134.3107758621
 31
0.0
 12
243.8490301724
 22
134.3107758621
 32
0.0
 13
243.8490301724
 23
134.3107758621
 33
0.0
  0
SOLID
  5
140
330
13C
100
AcDbEntity
  8
VERMASSUNG
100
AcDbTrace
 10
243.3990301724
 20
101.3107758621
 30
0.0
 11
243.8490301724
 21
104.3107758621
 31
0.0
 12
242.9490301724
 22
104.3107758621
 32
0.0
 13
242.9490301724
 23
104.3107758621
 33
0.0
  0
LINE
  5
141
330
13C
100
AcDbEntity
  8
VERMASSUNG
100
AcDbLine
 10
232.3990301724
 20
137.3107758621
 30
0.0
 11
244.3990301724
 21
137.3107758621
 31
0.0
  0
LINE
  5
142
330
13C
100
AcDbEntity
  8
VERMASSUNG
100
AcDbLine
 10
232.3990301724
 20
101.3107758621
 30
0.0
 11
244.3990301724
 21
101.3107758621
 31
0.0
  0
LINE
  5
143
330
13C
100
AcDbEntity
  8
VERMASSUNG
100
AcDbLine
 10
243.3990301724
 20
137.3107758621
 30
0.0
 11
243.3990301724
 21
101.3107758621
 31
0.0
  0
MTEXT
  5
144
330
13C
100
AcDbEntity
  8
VERMASSUNG
100
AcDbMText
 10
240.8208948675
 20
116.1057759048
 30
0.0
 40
2.0
 41
0.0
 71
     1
 72
     1
  1
%%c
  7
SLDTEXTSTYLE0
 11
-7.044195017643634E-15
 21
1.0
 31
0.0
 73
     1
 44
1.0
  0
MTEXT
  5
145
330
13C
100
AcDbEntity
  8
VERMASSUNG
100
AcDbMText
 10
240.6208949162
 20
119.7157759191
 30
0.0
 40
2.0
 41
0.0
 71
     1
 72
     1
  1
36
  7
SLDTEXTSTYLE0
 11
-7.044195017643634E-15
 21
1.0
 31
0.0
 73
     1
 44
1.0
  0
ENDBLK
  5
13E
330
13C
100
AcDbEntity
  8
0
100
AcDbBlockEnd
  0
BLOCK
  5
148
330
147
100
AcDbEntity
  8
0
100
AcDbBlockBegin
  2
_D_2
 70
     0
 10
0.0
 20
0.0
 30
0.0
  3
_D_2
  1

  0
SOLID
  5
14A
330
147
100
AcDbEntity
  8
VERMASSUNG
100
AcDbTrace
 10
249.0990301724
 20
159.3107758621
 30
0.0
 11
248.6490301724
 21
156.3107758621
 31
0.0
 12
249.5490301724
 22
156.3107758621
 32
0.0
 13
249.5490301724
 23
156.3107758621
 33
0.0
  0
SOLID
  5
14B
330
147
100
AcDbEntity
  8
VERMASSUNG
100
AcDbTrace
 10
249.0990301724
 20
79.3107758621
 30
0.0
 11
249.5490301724
 21
82.3107758621
 31
0.0
 12
248.6490301724
 22
82.3107758621
 32
0.0
 13
248.6490301724
 23
82.3107758621
 33
0.0
  0
LINE
  5
14C
330
147
100
AcDbEntity
  8
VERMASSUNG
100
AcDbLine
 10
232.5990301724
 20
159.3107758621
 30
0.0
 11
250.0990301724
 21
159.3107758621
 31
0.0
  0
LINE
  5
14D
330
147
100
AcDbEntity
  8
VERMASSUNG
100
AcDbLine
 10
232.5990301724
 20
79.3107758621
 30
0.0
 11
250.0990301724
 21
79.3107758621
 31
0.0
  0
LINE
  5
14E
330
147
100
AcDbEntity
  8
VERMASSUNG
100
AcDbLine
 10
249.0990301724
 20
159.3107758621
 30
0.0
 11
249.0990301724
 21
79.3107758621
 31
0.0
  0
MTEXT
  5
14F
330
147
100
AcDbEntity
  8
VERMASSUNG
100
AcDbMText
 10
246.3208949162
 20
113.6057759607
 30
0.0
 40
2.0
 41
0.0
 71
     1
 72
     1
  1
WH
  7
SLDTEXTSTYLE0
 11
-7.044195017643634E-15
 21
1.0
 31
0.0
 73
     1
 44
1.0
  0
MTEXT
  5
150
330
147
100
AcDbEntity
  8
VERMASSUNG
100
AcDbMText
 10
246.5208948675
 20
118.605775849
 30
0.0
 40
2.0
 41
0.0
 71
     1
 72
     1
  1
%%c
  7
SLDTEXTSTYLE0
 11
-7.044195017643634E-15
 21
1.0
 31
0.0
 73
     1
 44
1.0
  0
MTEXT
  5
151
330
147
100
AcDbEntity
  8
VERMASSUNG
100
AcDbMText
 10
246.3208949162
 20
122.2157758633
 30
0.0
 40
2.0
 41
0.0
 71
     1
 72
     1
  1
80
  7
SLDTEXTSTYLE0
 11
-7.044195017643634E-15
 21
1.0
 31
0.0
 73
     1
 44
1.0
  0
ENDBLK
  5
149
330
147
100
AcDbEntity
  8
0
100
AcDbBlockEnd
  0
BLOCK
  5
154
330
153
100
AcDbEntity
  8
0
100
AcDbBlockBegin
  2
_D_3
 70
     0
 10
0.0
 20
0.0
 30
0.0
  3
_D_3
  1

  0
SOLID
  5
156
330
153
100
AcDbEntity
  8
VERMASSUNG
100
AcDbTrace
 10
233.3990301724
 20
171.0790418202
 30
0.0
 11
230.3990301724
 21
171.5290418202
 31
0.0
 12
230.3990301724
 22
170.6290418202
 32
0.0
 13
230.3990301724
 23
170.6290418202
 33
0.0
  0
SOLID
  5
157
330
153
100
AcDbEntity
  8
VERMASSUNG
100
AcDbTrace
 10
196.5990301724
 20
171.0790418202
 30
0.0
 11
199.5990301724
 21
170.6290418202
 31
0.0
 12
199.5990301724
 22
171.5290418202
 32
0.0
 13
199.5990301724
 23
171.5290418202
 33
0.0
  0
LINE
  5
158
330
153
100
AcDbEntity
  8
VERMASSUNG
100
AcDbLine
 10
233.3990301724
 20
158.5107758621
 30
0.0
 11
233.3990301724
 21
172.0790418202
 31
0.0
  0
LINE
  5
159
330
153
100
AcDbEntity
  8
VERMASSUNG
100
AcDbLine
 10
196.5990301724
 20
165.3214268029
 30
0.0
 11
196.5990301724
 21
172.0790418202
 31
0.0
  0
LINE
  5
15A
330
153
100
AcDbEntity
  8
VERMASSUNG
100
AcDbLine
 10
233.3990301724
 20
171.0790418202
 30
0.0
 11
196.5990301724
 21
171.0790418202
 31
0.0
  0
MTEXT
  5
15B
330
153
100
AcDbEntity
  8
VERMASSUNG
100
AcDbMText
 10
212.5990302913
 20
173.6571774162
 30
0.0
 40
2.0
 41
0.0
 71
     1
 72
     1
  1
36.8
  7
SLDTEXTSTYLE0
 73
     1
 44
1.0
  0
ENDBLK
  5
155
330
153
100
AcDbEntity
  8
0
100
AcDbBlockEnd
  0
BLOCK
  5
15E
330
15D
100
AcDbEntity
  8
0
100
AcDbBlockBegin
  2
_D_4
 70
     0
 10
0.0
 20
0.0
 30
0.0
  3
_D_4
  1

  0
SOLID
  5
160
330
15D
100
AcDbEntity
  8
VERMASSUNG
100
AcDbTrace
 10
233.3990301724
 20
177.0790418202
 30
0.0
 11
230.3990301724
 21
177.5290418202
 31
0.0
 12
230.3990301724
 22
176.6290418202
 32
0.0
 13
230.3990301724
 23
176.6290418202
 33
0.0
  0
SOLID
  5
161
330
15D
100
AcDbEntity
  8
VERMASSUNG
100
AcDbTrace
 10
181.3990301724
 20
177.0790418202
 30
0.0
 11
184.3990301724
 21
176.6290418202
 31
0.0
 12
184.3990301724
 22
177.5290418202
 32
0.0
 13
184.3990301724
 23
177.5290418202
 33
0.0
  0
LINE
  5
162
330
15D
100
AcDbEntity
  8
VERMASSUNG
100
AcDbLine
 10
233.3990301724
 20
158.5107758621
 30
0.0
 11
233.3990301724
 21
178.0790418202
 31
0.0
  0
LINE
  5
163
330
15D
100
AcDbEntity
  8
VERMASSUNG
100
AcDbLine
 10
181.3990301724
 20
154.2357758621
 30
0.0
 11
181.3990301724
 21
178.0790418202
 31
0.0
  0
LINE
  5
164
330
15D
100
AcDbEntity
  8
VERMASSUNG
100
AcDbLine
 10
233.3990301724
 20
177.0790418202
 30
0.0
 11
181.3990301724
 21
177.0790418202
 31
0.0
  0
MTEXT
  5
165
330
15D
100
AcDbEntity
  8
VERMASSUNG
100
AcDbMText
 10
205.9990302223
 20
179.6571774162
 30
0.0
 40
2.0
 41
0.0
 71
     1
 72
     1
  1
52
  7
SLDTEXTSTYLE0
 73
     1
 44
1.0
  0
ENDBLK
  5
15F
330
15D
100
AcDbEntity
  8
0
100
AcDbBlockEnd
  0
BLOCK
  5
168
330
167
100
AcDbEntity
  8
0
100
AcDbBlockBegin
  2
_D_5
 70
     0
 10
0.0
 20
0.0
 30
0.0
  3
_D_5
  1

  0
SOLID
  5
16A
330
167
100
AcDbEntity
  8
VERMASSUNG
100
AcDbTrace
 10
233.3990301724
 20
183.0790418202
 30
0.0
 11
230.3990301724
 21
183.5290418202
 31
0.0
 12
230.3990301724
 22
182.6290418202
 32
0.0
 13
230.3990301724
 23
182.6290418202
 33
0.0
  0
SOLID
  5
16B
330
167
100
AcDbEntity
  8
VERMASSUNG
100
AcDbTrace
 10
54.5990301724
 20
183.0790418202
 30
0.0
 11
57.5990301724
 21
182.6290418202
 31
0.0
 12
57.5990301724
 22
183.5290418202
 32
0.0
 13
57.5990301724
 23
183.5290418202
 33
0.0
  0
LINE
  5
16C
330
167
100
AcDbEntity
  8
VERMASSUNG
100
AcDbLine
 10
233.3990301724
 20
158.5107758621
 30
0.0
 11
233.3990301724
 21
184.0790418202
 31
0.0
  0
LINE
  5
16D
330
167
100
AcDbEntity
  8
VERMASSUNG
100
AcDbLine
 10
54.5990301724
 20
136.1357758621
 30
0.0
 11
54.5990301724
 21
184.0790418202
 31
0.0
  0
LINE
  5
16E
330
167
100
AcDbEntity
  8
VERMASSUNG
100
AcDbLine
 10
233.3990301724
 20
183.0790418202
 30
0.0
 11
54.5990301724
 21
183.0790418202
 31
0.0
  0
MTEXT
  5
16F
330
167
100
AcDbEntity
  8
VERMASSUNG
100
AcDbMText
 10
141.0990302093
 20
185.6571774162
 30
0.0
 40
2.0
 41
0.0
 71
     1
 72
     1
  1
178.8
  7
SLDTEXTSTYLE0
 73
     1
 44
1.0
  0
ENDBLK
  5
169
330
167
100
AcDbEntity
  8
0
100
AcDbBlockEnd
  0
ENDSEC
  0
SECTION
  2
ENTITIES
  0
MTEXT
  5
78
330
1F
100
AcDbEntity
  8
KOPF_DÜNN
100
AcDbMText
 10
13.8892156294
 20
23.8442973028
 30
0.0
 40
3.0
 41
0.0
 71
     1
 72
     1
  1
A54.500.080.052
  7
SLDTEXTSTYLE0
 73
     1
 44
1.0
  0
MTEXT
  5
79
330
1F
100
AcDbEntity
  8
VERMASSUNG
100
AcDbMText
 10
13.9329988022
 20
28.8834360957
 30
0.0
 40
3.0
 41
0.0
 71
     1
 72
     1
  1
Aufnahme Master shank WH80
  7
SLDTEXTSTYLE0
 73
     1
 44
1.0
  0
MTEXT
  5
7A
330
1F
100
AcDbEntity
  8
VERMASSUNG
100
AcDbMText
 10
98.8601118557
 20
13.8365368761
 30
0.0
 40
2.0
 41
0.0
 71
     1
 72
     1
  1
Datum: 02.12.2011
  7
SLDTEXTSTYLE0
 73
     1
 44
1.0
  0
MTEXT
  5
7B
330
1F
100
AcDbEntity
  8
VERMASSUNG
100
AcDbMText
 10
13.933048693
 20
18.0482802738
 30
0.0
 40
2.0
 41
0.0
 71
     1
 72
     1
  1
DIN 2080
  7
SLDTEXTSTYLE0
 73
     1
 44
1.0
  0
MTEXT
  5
7C
330
1F
100
AcDbEntity
  8
VERMASSUNG
100
AcDbMText
 10
13.9808475933
 20
13.9090974274
 30
0.0
 40
2.0
 41
0.0
 71
     1
 72
     1
  1
Gewicht: 3652g
  7
SLDTEXTSTYLE0
 73
     1
 44
1.0
  0
LINE
  5
7D
330
1F
100
AcDbEntity
  8
0
  6
Continuous
 62
     7
370
    15
100
AcDbLine
 10
232.5990301724
 20
79.3107758621
 30
0.0
 11
233.3990301724
 21
80.1107758621
 31
0.0
  0
LINE
  5
7E
330
1F
100
AcDbEntity
  8
0
  6
Continuous
 62
     7
370
    15
100
AcDbLine
 10
233.3990301724
 20
158.5107758621
 30
0.0
 11
232.5990301724
 21
159.3107758621
 31
0.0
  0
LINE
  5
7F
330
1F
100
AcDbEntity
  8
0
  6
Continuous
 62
     7
370
    15
100
AcDbLine
 10
232.5990301724
 20
159.3107758621
 30
0.0
 11
224.8353031562
 21
159.3107758621
 31
0.0
  0
LINE
  5
80
330
1F
100
AcDbEntity
  8
0
  6
Continuous
 62
     7
370
    15
100
AcDbLine
 10
209.4278616593
 20
79.3107758621
 30
0.0
 11
232.5990301724
 21
79.3107758621
 31
0.0
  0
ARC
  5
81
330
1F
100
AcDbEntity
  8
0
  6
Continuous
 62
     7
370
    15
100
AcDbCircle
 10
183.5990301724
 20
83.3857758621
 30
0.0
 40
1.0
100
AcDbArc
 50
0.0
 51
90.0
  0
ARC
  5
82
330
1F
100
AcDbEntity
  8
0
  6
Continuous
 62
     7
370
    15
100
AcDbCircle
 10
183.5990301724
 20
155.2357758621
 30
0.0
 40
1.0
100
AcDbArc
 50
270.0
 51
0.0
  0
LINE
  5
83
330
1F
100
AcDbEntity
  8
0
  6
Continuous
 62
     7
370
    15
100
AcDbLine
 10
181.3990301724
 20
84.3857758621
 30
0.0
 11
183.5990301724
 21
84.3857758621
 31
0.0
  0
LINE
  5
84
330
1F
100
AcDbEntity
  8
0
  6
Continuous
 62
     7
370
    15
100
AcDbLine
 10
183.5990301724
 20
154.2357758621
 30
0.0
 11
181.3990301724
 21
154.2357758621
 31
0.0
  0
LINE
  5
85
330
1F
100
AcDbEntity
  8
0
  6
Continuous
 62
     7
370
    15
100
AcDbLine
 10
181.3990301724
 20
154.2357758621
 30
0.0
 11
81.6382629397
 21
139.6873306406
 31
0.0
  0
LINE
  5
86
330
1F
100
AcDbEntity
  8
0
  6
Continuous
 62
     7
370
    15
100
AcDbLine
 10
81.6382629397
 20
98.9342210835
 30
0.0
 11
181.3990301724
 21
84.3857758621
 31
0.0
  0
ARC
  5
87
330
1F
100
AcDbEntity
  8
0
  6
Continuous
 62
     7
370
    15
100
AcDbCircle
 10
81.9990301724
 20
101.4080535362
 30
0.0
 40
2.500000000000009
100
AcDbArc
 50
180.0
 51
261.7028550302
  0
ARC
  5
88
330
1F
100
AcDbEntity
  8
0
  6
Continuous
 62
     7
370
    15
100
AcDbCircle
 10
81.9990301724
 20
137.213498188
 30
0.0
 40
2.5
100
AcDbArc
 50
98.2971449698
 51
180.0
  0
LINE
  5
89
330
1F
100
AcDbEntity
  8
0
  6
Continuous
 62
     7
370
    15
100
AcDbLine
 10
65.4290540958
 20
99.6907758621
 30
0.0
 11
66.2997307533
 21
102.9401853846
 31
0.0
  0
LINE
  5
8A
330
1F
100
AcDbEntity
  8
0
  6
Continuous
 62
     7
370
    15
100
AcDbLine
 10
66.2997307533
 20
135.6813663395
 30
0.0
 11
65.4290540958
 21
138.9307758621
 31
0.0
  0
LINE
  5
8B
330
1F
100
AcDbEntity
  8
0
  6
Continuous
 62
     7
370
    15
100
AcDbLine
 10
62.3990301724
 20
99.6907758621
 30
0.0
 11
65.4290540958
 21
99.6907758621
 31
0.0
  0
LINE
  5
8C
330
1F
100
AcDbEntity
  8
0
  6
Continuous
 62
     7
370
    15
100
AcDbLine
 10
65.4290540958
 20
138.9307758621
 30
0.0
 11
62.3990301724
 21
138.9307758621
 31
0.0
  0
ARC
  5
8D
330
1F
100
AcDbEntity
  8
0
  6
Continuous
 62
     7
370
    15
100
AcDbCircle
 10
61.5990301724
 20
101.6857758621
 30
0.0
 40
0.7999999999999972
100
AcDbArc
 50
0.0
 51
90.0
  0
ARC
  5
8E
330
1F
100
AcDbEntity
  8
0
  6
Continuous
 62
     7
370
    15
100
AcDbCircle
 10
61.5990301724
 20
136.9357758621
 30
0.0
 40
0.8000000000000114
100
AcDbArc
 50
270.0
 51
0.0
  0
ARC
  5
8F
330
1F
100
AcDbEntity
  8
0
  6
Continuous
 62
     7
370
    15
100
AcDbCircle
 10
54.7990301724
 20
102.4857758621
 30
0.0
 40
0.1999999999999744
100
AcDbArc
 50
180.0
 51
270.0
  0
ARC
  5
90
330
1F
100
AcDbEntity
  8
0
  6
Continuous
 62
     7
370
    15
100
AcDbCircle
 10
54.7990301724
 20
136.1357758621
 30
0.0
 40
0.1999999999999886
100
AcDbArc
 50
90.0
 51
180.0
  0
LINE
  5
91
330
1F
100
AcDbEntity
  8
0
  6
Continuous
 62
     7
370
    15
100
AcDbLine
 10
54.7990301724
 20
102.2857758621
 30
0.0
 11
60.3990301724
 21
102.2857758621
 31
0.0
  0
LINE
  5
92
330
1F
100
AcDbEntity
  8
0
  6
Continuous
 62
     7
370
    15
100
AcDbLine
 10
60.3990301724
 20
136.3357758621
 30
0.0
 11
54.7990301724
 21
136.3357758621
 31
0.0
  0
ARC
  5
93
330
1F
100
AcDbEntity
  8
0
  6
Continuous
 62
     7
370
    15
100
AcDbCircle
 10
60.9281804346
 20
101.6857758621
 30
0.0
 40
0.8000000000000049
100
AcDbArc
 50
90.0
 51
131.4096221093
  0
ARC
  5
94
330
1F
100
AcDbEntity
  8
0
  6
Continuous
 62
     7
370
    15
100
AcDbCircle
 10
60.9281804346
 20
136.9357758621
 30
0.0
 40
0.8000000000000156
100
AcDbArc
 50
228.5903778907
 51
270.0
  0
LINE
  5
95
330
1F
100
AcDbEntity
  8
0
  6
Continuous
 62
     7
370
    15
100
AcDbLine
 10
60.9281804346
 20
102.4857758621
 30
0.0
 11
61.5990301724
 21
102.4857758621
 31
0.0
  0
LINE
  5
96
330
1F
100
AcDbEntity
  8
0
  6
Continuous
 62
     7
370
    15
100
AcDbLine
 10
61.5990301724
 20
136.1357758621
 30
0.0
 11
60.9281804346
 21
136.1357758621
 31
0.0
  0
ARC
  5
97
330
1F
100
AcDbEntity
  8
0
  6
Continuous
 62
     7
370
    15
100
AcDbCircle
 10
78.9990301724
 20
102.8107758621
 30
0.0
 40
0.5000000000000142
100
AcDbArc
 50
0.0
 51
90.0
  0
ARC
  5
98
330
1F
100
AcDbEntity
  8
0
  6
Continuous
 62
     7
370
    15
100
AcDbCircle
 10
78.9990301724
 20
135.8107758621
 30
0.0
 40
0.5000000000000142
100
AcDbArc
 50
270.0
 51
0.0
  0
ARC
  5
99
330
1F
100
AcDbEntity
  8
0
  6
Continuous
 62
     7
370
    15
100
AcDbCircle
 10
66.7826936664
 20
102.8107758621
 30
0.0
 40
0.5000000000000253
100
AcDbArc
 50
90.0
 51
165.0
  0
ARC
  5
9A
330
1F
100
AcDbEntity
  8
0
  6
Continuous
 62
     7
370
    15
100
AcDbCircle
 10
66.7826936664
 20
135.8107758621
 30
0.0
 40
0.500000000000029
100
AcDbArc
 50
195.0
 51
270.0
  0
LINE
  5
9B
330
1F
100
AcDbEntity
  8
0
  6
Continuous
 62
     7
370
    15
100
AcDbLine
 10
66.7826936664
 20
103.3107758621
 30
0.0
 11
78.9990301724
 21
103.3107758621
 31
0.0
  0
LINE
  5
9C
330
1F
100
AcDbEntity
  8
0
  6
Continuous
 62
     7
370
    15
100
AcDbLine
 10
78.9990301724
 20
135.3107758621
 30
0.0
 11
66.7826936664
 21
135.3107758621
 31
0.0
  0
SPLINE
  5
9D
330
1F
100
AcDbEntity
  8
0
  6
Continuous
 62
     7
370
    15
100
AcDbSpline
210
0.0
220
0.0
230
1.0
 70
    24
 71
     3
 72
    11
 73
     7
 74
     0
 42
0.000000001
 43
0.00000001
 40
0.0
 40
0.0
 40
0.0
 40
0.0
 40
0.2164567244934226
 40
0.4403141600939232
 40
0.7519028444798835
 40
1.0
 40
1.0
 40
1.0
 40
1.0
 10
213.1474736811023
 20
123.3711308156287
 30
0.0
 10
212.9820022192511
 20
123.1014557702818
 30
0.0
 10
212.6454017836903
 20
122.5528854203972
 30
0.0
 10
212.020763075009
 20
121.5348882974822
 30
0.0
 10
211.3507300785941
 20
120.4429104018946
 30
0.0
 10
210.921950504378
 20
119.7441122537007
 30
0.0
 10
210.7318813885933
 20
119.4343494895065
 30
0.0
  0
SPLINE
  5
9E
330
1F
100
AcDbEntity
  8
0
  6
Continuous
 62
     7
370
    15
100
AcDbSpline
210
0.0
220
0.0
230
1.0
 70
    24
 71
     3
 72
    15
 73
    11
 74
     0
 42
0.000000001
 43
0.00000001
 40
0.0
 40
0.0
 40
0.0
 40
0.0
 40
0.1077876272349496
 40
0.2161715306054495
 40
0.327317151740018
 40
0.4399627424889997
 40
0.5934928709186009
 40
0.7521540590170605
 40
0.8755093692874067
 40
1.0
 40
1.0
 40
1.0
 40
1.0
 10
210.7318813885933
 20
119.4343494895065
 30
0.0
 10
210.8064148891231
 20
119.2968865312421
 30
0.0
 10
210.9558942060373
 20
119.021200176028
 30
0.0
 10
211.1915615752291
 20
118.5865562440339
 30
0.0
 10
211.4379654803747
 20
118.1321108001934
 30
0.0
 10
211.7250414770063
 20
117.6026533687936
 30
0.0
 10
212.0525385311645
 20
116.998646934539
 30
0.0
 10
212.3807465000178
 20
116.3933293524599
 30
0.0
 10
212.6755944749822
 20
115.8495379755777
 30
0.0
 10
212.8472280081275
 20
115.5329923546711
 30
0.0
 10
212.9334378799049
 20
115.3739945359467
 30
0.0
  0
SPLINE
  5
9F
330
1F
100
AcDbEntity
  8
0
  6
Continuous
 62
     7
370
    15
100
AcDbSpline
210
0.0
220
0.0
230
1.0
 70
    24
 71
     3
 72
    19
 73
    15
 74
     0
 42
0.000000001
 43
0.00000001
 40
0.0
 40
0.0
 40
0.0
 40
0.0
 40
0.0917978028799926
 40
0.183941701998196
 40
0.2659102313605322
 40
0.3483781342270255
 40
0.4327714054474371
 40
0.5179949683979869
 40
0.6035774077181091
 40
0.6900156438414093
 40
0.7787378630333067
 40
0.8680583579057375
 40
0.9339654105124899
 40
1.0
 40
1.0
 40
1.0
 40
1.0
 10
212.9334378799049
 20
115.3739945359467
 30
0.0
 10
213.0664360357798
 20
115.3704349658888
 30
0.0
 10
213.3329337774113
 20
115.3633024054756
 30
0.0
 10
213.7316302115177
 20
115.3526316718875
 30
0.0
 10
214.1256272359517
 20
115.3420867135617
 30
0.0
 10
214.5163149548345
 20
115.3316303256743
 30
0.0
 10
214.9187484421712
 20
115.3208595733852
 30
0.0
 10
215.3295736172801
 20
115.3098642254967
 30
0.0
 10
215.7427409546383
 20
115.2988061918472
 30
0.0
 10
216.1562865518831
 20
115.2877380344291
 30
0.0
 10
216.5672389953766
 20
115.2767392803225
 30
0.0
 10
216.9366356977956
 20
115.2668527263866
 30
0.0
 10
217.2643632626133
 20
115.2580814075723
 30
0.0
 10
217.4551174013642
 20
115.252976053169
 30
0.0
 10
217.5505866637253
 20
115.2504209085092
 30
0.0
  0
SPLINE
  5
A0
330
1F
100
AcDbEntity
  8
0
  6
Continuous
 62
     7
370
    15
100
AcDbSpline
210
0.0
220
0.0
230
1.0
 70
    24
 71
     3
 72
    15
 73
    11
 74
     0
 42
0.000000001
 43
0.00000001
 40
0.0
 40
0.0
 40
0.0
 40
0.0
 40
0.1077876272349604
 40
0.2161715306054725
 40
0.3273171517400358
 40
0.439962742489011
 40
0.5934928709186086
 40
0.7521540590170657
 40
0.8755093692874155
 40
1.0
 40
1.0
 40
1.0
 40
1.0
 10
217.5505866637253
 20
115.2504209085092
 30
0.0
 10
217.6323663273969
 20
115.3837002925331
 30
0.0
 10
217.796378056032
 20
115.6509963559283
 30
0.0
 10
218.0549570581436
 20
116.0724122504885
 30
0.0
 10
218.3253164045708
 20
116.5130270138566
 30
0.0
 10
218.6403019920697
 20
117.0263708354561
 30
0.0
 10
218.9996383811043
 20
117.6119948211489
 30
0.0
 10
219.3597548001156
 20
118.1988900509399
 30
0.0
 10
219.6832679593722
 20
118.7261315759546
 30
0.0
 10
219.8715877419614
 20
119.033043386253
 30
0.0
 10
219.9661789562343
 20
119.1872022346314
 30
0.0
  0
SPLINE
  5
A1
330
1F
100
AcDbEntity
  8
0
  6
Continuous
 62
     7
370
    15
100
AcDbSpline
210
0.0
220
0.0
230
1.0
 70
    24
 71
     3
 72
    11
 73
     7
 74
     0
 42
0.000000001
 43
0.00000001
 40
0.0
 40
0.0
 40
0.0
 40
0.0
 40
0.2164567244934124
 40
0.4403141600939209
 40
0.751902844479878
 40
1.0
 40
1.0
 40
1.0
 40
1.0
 10
219.9661789562343
 20
119.1872022346314
 30
0.0
 10
219.8153692471228
 20
119.4653422468694
 30
0.0
 10
219.5085936061402
 20
120.0311319499322
 30
0.0
 10
218.939301591057
 20
121.0810835012948
 30
0.0
 10
218.3286374913145
 20
122.2073380453577
 30
0.0
 10
217.9378503299691
 20
122.9280711233497
 30
0.0
 10
217.7646224649228
 20
123.2475571881912
 30
0.0
  0
SPLINE
  5
A2
330
1F
100
AcDbEntity
  8
0
  6
Continuous
 62
     7
370
    15
100
AcDbSpline
210
0.0
220
0.0
230
1.0
 70
    24
 71
     3
 72
    13
 73
     9
 74
     0
 42
0.000000001
 43
0.00000001
 40
0.0
 40
0.0
 40
0.0
 40
0.0
 40
0.1320192456275709
 40
0.304433485525337
 40
0.4820104251411998
 40
0.6461031853563028
 40
0.8160001954206366
 40
1.0
 40
1.0
 40
1.0
 40
1.0
 10
217.7646224649228
 20
123.2475571881912
 30
0.0
 10
217.5728376296218
 20
123.2526901282144
 30
0.0
 10
217.1305860048376
 20
123.2645265753539
 30
0.0
 10
216.3895999616911
 20
123.2843583671196
 30
0.0
 10
215.5651798877534
 20
123.3064231919366
 30
0.0
 10
214.7410215911053
 20
123.3284810105316
 30
0.0
 10
213.9323507846922
 20
123.3501243210745
 30
0.0
 10
213.4159587924011
 20
123.363945065143
 30
0.0
 10
213.1474736811023
 20
123.3711308156287
 30
0.0
  0
CIRCLE
  5
A3
330
1F
100
AcDbEntity
  8
0
  6
Continuous
 62
     7
370
    15
100
AcDbCircle
 10
215.3490301724
 20
119.3107758621
 30
0.0
 40
4.700000000000008
  0
CIRCLE
  5
A4
330
1F
100
AcDbEntity
  8
0
  6
Continuous
 62
     7
370
    15
100
AcDbCircle
 10
215.3490301724
 20
119.3107758621
 30
0.0
 40
7.000000000000016
  0
ARC
  5
A5
330
1F
100
AcDbEntity
  8
0
  6
Continuous
 62
     7
370
    15
100
AcDbCircle
 10
215.3490301724
 20
119.3107758621
 30
0.0
 40
4.000000000000036
100
AcDbArc
 50
328.4668985542
 51
28.4668985542
  0
ARC
  5
A6
330
1F
100
AcDbEntity
  8
0
  6
Continuous
 62
     7
370
    15
100
AcDbCircle
 10
215.3490301724
 20
119.3107758621
 30
0.0
 40
4.000000000000008
100
AcDbArc
 50
28.4668985542
 51
88.4668985542
  0
ARC
  5
A7
330
1F
100
AcDbEntity
  8
0
  6
Continuous
 62
     7
370
    15
100
AcDbCircle
 10
215.3490301724
 20
119.3107758621
 30
0.0
 40
4.000000000000036
100
AcDbArc
 50
268.4668985542
 51
328.4668985542
  0
ARC
  5
A8
330
1F
100
AcDbEntity
  8
0
  6
Continuous
 62
     7
370
    15
100
AcDbCircle
 10
215.3490301724
 20
119.3107758621
 30
0.0
 40
4.000000000000008
100
AcDbArc
 50
88.4668985542
 51
148.4668985542
  0
ARC
  5
A9
330
1F
100
AcDbEntity
  8
0
  6
Continuous
 62
     7
370
    15
100
AcDbCircle
 10
215.3490301724
 20
119.3107758621
 30
0.0
 40
3.999999999999963
100
AcDbArc
 50
148.4668985542
 51
208.4668985542
  0
ARC
  5
AA
330
1F
100
AcDbEntity
  8
0
  6
Continuous
 62
     7
370
    15
100
AcDbCircle
 10
215.3490301724
 20
119.3107758621
 30
0.0
 40
4.000000000000033
100
AcDbArc
 50
208.4668985542
 51
268.4668985542
  0
ARC
  5
AB
330
1F
100
AcDbEntity
  8
0
  6
Continuous
 62
     7
370
    15
100
AcDbCircle
 10
198.4490301724
 20
119.3107758621
 30
0.0
 40
48.65000000000004
100
AcDbArc
 50
254.1956353434
 51
254.6846441354
  0
ARC
  5
AC
330
1F
100
AcDbEntity
  8
0
  6
Continuous
 62
     7
370
    15
100
AcDbCircle
 10
198.4490301724
 20
119.3107758621
 30
0.0
 40
48.65000000000006
100
AcDbArc
 50
105.3153558646
 51
105.8043646566
  0
LINE
  5
AD
330
1F
100
AcDbEntity
  8
0
  6
Continuous
 62
     7
370
    15
100
AcDbLine
 10
195.5990301724
 20
166.2330520217
 30
0.0
 11
185.5990301724
 21
166.2330520217
 31
0.0
  0
ARC
  5
AE
330
1F
100
AcDbEntity
  8
0
  6
Continuous
 62
     7
370
    15
100
AcDbCircle
 10
182.7490301724
 20
119.3107758621
 30
0.0
 40
48.65000000000009
100
AcDbArc
 50
74.1956353434
 51
74.6846441354
  0
ARC
  5
AF
330
1F
100
AcDbEntity
  8
0
  6
Continuous
 62
     7
370
    15
100
AcDbCircle
 10
182.7490301724
 20
119.3107758621
 30
0.0
 40
48.6499999999999
100
AcDbArc
 50
285.3153558646
 51
285.8043646566
  0
LINE
  5
B0
330
1F
100
AcDbEntity
  8
0
  6
Continuous
 62
     7
370
    15
100
AcDbLine
 10
195.5990301724
 20
72.3884997024
 30
0.0
 11
185.5990301724
 21
72.3884997024
 31
0.0
  0
SPLINE
  5
B1
330
1F
100
AcDbEntity
  8
0
  6
Continuous
 62
     7
370
    15
100
AcDbSpline
210
0.0
220
0.0
230
1.0
 70
     8
 71
     3
 72
    12
 73
     8
 74
     0
 42
0.000000001
 43
0.00000001
 40
0.0
 40
0.0
 40
0.0
 40
0.0
 40
0.2499999999999994
 40
0.2499999999999994
 40
0.4999999999999989
 40
0.4999999999999989
 40
1.0
 40
1.0
 40
1.0
 40
1.0
 10
196.5990301724138
 20
165.3214268029109
 30
0.0
 10
196.5990301724138
 20
165.4272818046732
 30
0.0
 10
196.5738908938327
 20
165.5286849202865
 30
0.0
 10
196.4993678434422
 20
165.7077664244542
 30
0.0
 10
196.449195007437
 20
165.7871692858163
 30
0.0
 10
196.2817657706287
 20
165.988408557305
 30
0.0
 10
196.1444016934182
 20
166.0805240744293
 30
0.0
 10
195.9990301724138
 20
166.1216720295212
 30
0.0
  0
LINE
  5
B2
330
1F
100
AcDbEntity
  8
0
  6
Continuous
 62
     7
370
    15
100
AcDbLine
 10
196.5990301724
 20
73.3001249212
 30
0.0
 11
196.5990301724
 21
165.3214268029
 31
0.0
  0
SPLINE
  5
B3
330
1F
100
AcDbEntity
  8
0
  6
Continuous
 62
     7
370
    15
100
AcDbSpline
210
0.0
220
0.0
230
1.0
 70
     8
 71
     3
 72
    14
 73
    10
 74
     0
 42
0.000000001
 43
0.00000001
 40
0.0
 40
0.0
 40
0.0
 40
0.0
 40
0.25
 40
0.25
 40
0.5
 40
0.5
 40
0.75
 40
0.75
 40
1.0
 40
1.0
 40
1.0
 40
1.0
 10
195.9990301724138
 20
72.49987969461665
 30
0.0
 10
196.0717792568782
 20
72.52047159624796
 30
0.0
 10
196.1411234711564
 20
72.55359219011162
 30
0.0
 10
196.2735745729702
 20
72.6427844869363
 30
0.0
 10
196.3367770628732
 20
72.69942655145911
 30
0.0
 10
196.4485720113137
 20
72.83347238400353
 30
0.0
 10
196.4988427551845
 20
72.91278788217146
 30
0.0
 10
196.5737072846174
 20
73.09216369079968
 30
0.0
 10
196.5990301724138
 20
73.194386703687
 30
0.0
 10
196.5990301724138
 20
73.30012492122702
 30
0.0
  0
LINE
  5
B4
330
1F
100
AcDbEntity
  8
0
  6
Continuous
 62
     7
370
    15
100
AcDbLine
 10
184.5990301724
 20
73.3001249212
 30
0.0
 11
184.5990301724
 21
165.3214268029
 31
0.0
  0
SPLINE
  5
B5
330
1F
100
AcDbEntity
  8
0
  6
Continuous
 62
     7
370
    15
100
AcDbSpline
210
0.0
220
0.0
230
1.0
 70
     8
 71
     3
 72
    14
 73
    10
 74
     0
 42
0.000000001
 43
0.00000001
 40
0.0
 40
0.0
 40
0.0
 40
0.0
 40
0.25
 40
0.25
 40
0.5
 40
0.5
 40
0.75
 40
0.75
 40
1.0
 40
1.0
 40
1.0
 40
1.0
 10
185.1990301724138
 20
166.1216720295212
 30
0.0
 10
185.1262760125269
 20
166.1010786912725
 30
0.0
 10
185.0569249469333
 20
166.0679542999482
 30
0.0
 10
184.9244580587497
 20
165.9787457770528
 30
0.0
 10
184.8612519533339
 20
165.9220955111594
 30
0.0
 10
184.7494502922793
 20
165.7880258200036
 30
0.0
 10
184.6991781827809
 20
165.7086958343469
 30
0.0
 10
184.6243210372918
 20
165.5292848696147
 30
0.0
 10
184.5990301724137
 20
165.4260714830326
 30
0.0
 10
184.5990301724137
 20
165.3214268029109
 30
0.0
  0
SPLINE
  5
B6
330
1F
100
AcDbEntity
  8
0
  6
Continuous
 62
     7
370
    15
100
AcDbSpline
210
0.0
220
0.0
230
1.0
 70
     8
 71
     3
 72
    14
 73
    10
 74
     0
 42
0.000000001
 43
0.00000001
 40
0.0
 40
0.0
 40
0.0
 40
0.0
 40
0.25
 40
0.25
 40
0.5
 40
0.5
 40
0.75
 40
0.75
 40
1.0
 40
1.0
 40
1.0
 40
1.0
 10
185.1990301724138
 20
72.49987969461665
 30
0.0
 10
185.1262760125269
 20
72.52047303286538
 30
0.0
 10
185.0569249469333
 20
72.55359742418963
 30
0.0
 10
184.9244580587497
 20
72.64280594708514
 30
0.0
 10
184.8612519533339
 20
72.69945621297855
 30
0.0
 10
184.7494502922793
 20
72.83352590413428
 30
0.0
 10
184.6991781827809
 20
72.91285588979095
 30
0.0
 10
184.6243210372918
 20
73.09226685452322
 30
0.0
 10
184.5990301724137
 20
73.19548024110526
 30
0.0
 10
184.5990301724137
 20
73.30012492122701
 30
0.0
  0
SPLINE
  5
B7
330
1F
100
AcDbEntity
  8
0
  6
Continuous
 62
     7
370
    15
100
AcDbSpline
210
0.0
220
0.0
230
1.0
 70
     8
 71
     3
 72
    20
 73
    16
 74
     0
 42
0.000000001
 43
0.00000001
 40
0.0
 40
0.0
 40
0.0
 40
0.0
 40
0.1249999999999997
 40
0.1249999999999997
 40
0.1874999999999995
 40
0.1874999999999995
 40
0.2499999999999993
 40
0.2499999999999993
 40
0.4999999999999983
 40
0.4999999999999983
 40
0.6249999999999986
 40
0.6249999999999986
 40
0.7499999999999987
 40
0.7499999999999987
 40
1.0
 40
1.0
 40
1.0
 40
1.0
 10
196.5990301724138
 20
160.0192209318576
 30
0.0
 10
196.5990301724138
 20
159.7443524190608
 30
0.0
 10
196.6319718572184
 20
159.4787626535246
 30
0.0
 10
196.7165696903896
 20
159.0902887175372
 30
0.0
 10
196.7510616671277
 20
158.9617593354881
 30
0.0
 10
196.8290189788402
 20
158.7134524772526
 30
0.0
 10
196.8725277702884
 20
158.5931490319103
 30
0.0
 10
197.1092241104588
 20
158.0079086609446
 30
0.0
 10
197.3611882372768
 20
157.5868795437856
 30
0.0
 10
197.7781161026856
 20
157.0365970767304
 30
0.0
 10
197.9245932186757
 20
156.8654358503971
 30
0.0
 10
198.2309603958992
 20
156.545046897484
 30
0.0
 10
198.3916515850286
 20
156.3952196067716
 30
0.0
 10
198.8870572871742
 20
155.9836246500465
 30
0.0
 10
199.2337232128641
 20
155.7582330304986
 30
0.0
 10
199.5990301724138
 20
155.5885583191046
 30
0.0
  0
SPLINE
  5
B8
330
1F
100
AcDbEntity
  8
0
  6
Continuous
 62
     7
370
    15
100
AcDbSpline
210
0.0
220
0.0
230
1.0
 70
     8
 71
     3
 72
    20
 73
    16
 74
     0
 42
0.000000001
 43
0.00000001
 40
0.0
 40
0.0
 40
0.0
 40
0.0
 40
0.2500000000000007
 40
0.2500000000000007
 40
0.3750000000000006
 40
0.3750000000000006
 40
0.5000000000000004
 40
0.5000000000000004
 40
0.6250000000000003
 40
0.6250000000000003
 40
0.7500000000000002
 40
0.7500000000000002
 40
0.8750000000000002
 40
0.8750000000000002
 40
1.0
 40
1.0
 40
1.0
 40
1.0
 10
199.5990301724138
 20
83.03299340503341
 30
0.0
 10
199.2333046402038
 20
82.86312427852225
 30
0.0
 10
198.8881188411561
 20
82.63832532261337
 30
0.0
 10
198.3966623212984
 20
82.23073294669086
 30
0.0
 10
198.2373632845793
 20
82.08278141895413
 30
0.0
 10
197.9285638365334
 20
81.76067369875159
 30
0.0
 10
197.7802655935102
 20
81.58760880699586
 30
0.0
 10
197.5013925033974
 20
81.21990150121597
 30
0.0
 10
197.3701447869128
 20
81.02466418026835
 30
0.0
 10
197.1275456411866
 20
80.60653079236725
 30
0.0
 10
197.0156969620262
 20
80.38213892498996
 30
0.0
 10
196.8254402493634
 20
79.9122300364154
 30
0.0
 10
196.7454400206642
 20
79.66339380599929
 30
0.0
 10
196.6319314924752
 20
79.14304325557961
 30
0.0
 10
196.5990301724138
 20
78.8768425692483
 30
0.0
 10
196.5990301724138
 20
78.60233079228033
 30
0.0
  0
LINE
  5
B9
330
1F
100
AcDbEntity
  8
0
  6
Continuous
 62
     7
370
    15
100
AcDbLine
 10
233.3990301724
 20
119.3107758621
 30
0.0
 11
233.3990301724
 21
80.1107758621
 31
0.0
  0
LINE
  5
BA
330
1F
100
AcDbEntity
  8
0
  6
Continuous
 62
     7
370
    15
100
AcDbLine
 10
233.3990301724
 20
158.5107758621
 30
0.0
 11
233.3990301724
 21
119.3107758621
 31
0.0
  0
LINE
  5
BB
330
1F
100
AcDbEntity
  8
0
  6
Continuous
 62
     7
370
    15
100
AcDbLine
 10
232.5990301724
 20
119.3107758621
 30
0.0
 11
232.5990301724
 21
79.3107758621
 31
0.0
  0
LINE
  5
BC
330
1F
100
AcDbEntity
  8
0
  6
Continuous
 62
     7
370
    15
100
AcDbLine
 10
232.5990301724
 20
159.3107758621
 30
0.0
 11
232.5990301724
 21
119.3107758621
 31
0.0
  0
SPLINE
  5
BD
330
1F
100
AcDbEntity
  8
0
  6
Continuous
 62
     7
370
    15
100
AcDbSpline
210
0.0
220
0.0
230
1.0
 70
     8
 71
     3
 72
    23
 73
    19
 74
     0
 42
0.000000001
 43
0.00000001
 40
0.0
 40
0.0
 40
0.0
 40
0.0
 40
0.08044747841636
 40
0.1637079408709685
 40
0.2172894895410046
 40
0.2988125418729987
 40
0.3818101180300457
 40
0.4371599942083442
 40
0.5213714571787351
 40
0.6071387811546524
 40
0.6637092174326886
 40
0.7499008533802038
 40
0.7790542161103463
 40
0.8082076687625921
 40
0.8379472757452591
 40
0.8926509738446415
 40
0.9760234465610945
 40
1.0
 40
1.0
 40
1.0
 40
1.0
 10
197.6523961866962
 20
81.41590205256955
 30
0.0
 10
198.1656039022823
 20
81.39574030770531
 30
0.0
 10
199.2099645213048
 20
81.35471182799328
 30
0.0
 10
200.554088337858
 20
81.23132083296147
 30
0.0
 10
201.8555101225165
 20
81.07436663023454
 30
0.0
 10
203.0971061046652
 20
80.8853993440041
 30
0.0
 10
204.2593487475615
 20
80.66875807976545
 30
0.0
 10
205.3459906373341
 20
80.43828690912284
 30
0.0
 10
206.3477724656472
 20
80.20112372121793
 30
0.0
 10
207.219287475944
 20
79.9725617723199
 30
0.0
 10
207.9719020516188
 20
79.76228488989501
 30
0.0
 10
208.4382924966637
 20
79.62456658952254
 30
0.0
 10
208.7567886363633
 20
79.52788166726305
 30
0.0
 10
208.9277668304373
 20
79.47527120152678
 30
0.0
 10
209.1189759419728
 20
79.41572984342746
 30
0.0
 10
209.3277535343021
 20
79.34975841202402
 30
0.0
 10
209.4620131152137
 20
79.30661206262518
 30
0.0
 10
209.4340968056438
 20
79.3155664951721
 30
0.0
 10
209.4278616592975
 20
79.31756648006404
 30
0.0
  0
SPLINE
  5
BE
330
1F
100
AcDbEntity
  8
0
  6
Continuous
 62
     7
370
    15
100
AcDbSpline
210
0.0
220
0.0
230
1.0
 70
     8
 71
     3
 72
    14
 73
    10
 74
     0
 42
0.000000001
 43
0.00000001
 40
0.0
 40
0.0
 40
0.0
 40
0.0
 40
0.0786192896034236
 40
0.2348992002535744
 40
0.3908988412992455
 40
0.5469305481328
 40
0.7081177753257568
 40
0.8692984140941611
 40
1.0
 40
1.0
 40
1.0
 40
1.0
 10
197.6394065698289
 20
157.2196971222268
 30
0.0
 10
197.9917607497926
 20
157.2268675217491
 30
0.0
 10
199.0445267503118
 20
157.2482912858378
 30
0.0
 10
200.7443247738559
 20
157.4028208068762
 30
0.0
 10
202.665087216591
 20
157.6585954512953
 30
0.0
 10
204.4405865239033
 20
157.9820301421702
 30
0.0
 10
206.0121141891745
 20
158.3341283121555
 30
0.0
 10
207.2802818375466
 20
158.6626954238797
 30
0.0
 10
207.8919883631337
 20
158.8384946183443
 30
0.0
 10
208.1659036832339
 20
158.9172155255291
 30
0.0
  0
SPLINE
  5
BF
330
1F
100
AcDbEntity
  8
0
  6
Continuous
 62
     7
370
    15
100
AcDbSpline
210
0.0
220
0.0
230
1.0
 70
     8
 71
     3
 72
    35
 73
    31
 74
     0
 42
0.000000001
 43
0.00000001
 40
0.0
 40
0.0
 40
0.0
 40
0.0
 40
0.0133312141458891
 40
0.0596163154293882
 40
0.0877964699340517
 40
0.1306680425410303
 40
0.174302097099172
 40
0.2036836571228409
 40
0.248323662144131
 40
0.2936710165510762
 40
0.3259927900560911
 40
0.3750950631081835
 40
0.4249768821107253
 40
0.4604796098731951
 40
0.5144583922879779
 40
0.5693706354516916
 40
0.6068255317158971
 40
0.6638275108015256
 40
0.6830831836337364
 40
0.7023388633724162
 40
0.7219380513762929
 40
0.7598953221498085
 40
0.7788780938582436
 40
0.8177281102027656
 40
0.8372710383552082
 40
0.8568140262799074
 40
0.8767338168863665
 40
0.9071406630377951
 40
0.9532414344484248
 40
1.0
 40
1.0
 40
1.0
 40
1.0
 10
224.8353031561724
 20
159.3081445868325
 30
0.0
 10
224.8392768403471
 20
159.3089062600647
 30
0.0
 10
224.8570468953907
 20
159.3123124128102
 30
0.0
 10
224.767961429353
 20
159.295207822358
 30
0.0
 10
224.5893207503634
 20
159.2614547139808
 30
0.0
 10
224.3253927789959
 20
159.2124706430923
 30
0.0
 10
223.9653022010356
 20
159.1480482053614
 30
0.0
 10
223.5245947862744
 20
159.0725442273049
 30
0.0
 10
223.0055535393805
 20
158.987924485468
 30
0.0
 10
222.3943038415456
 20
158.8958051265256
 30
0.0
 10
221.6992047619102
 20
158.799638302767
 30
0.0
 10
220.9184294166838
 20
158.7022245843716
 30
0.0
 10
220.0560018650862
 20
158.6106483327372
 30
0.0
 10
219.1176218720949
 20
158.5273821788298
 30
0.0
 10
218.1039600242399
 20
158.4565049707779
 30
0.0
 10
217.0413553579239
 20
158.4081104233258
 30
0.0
 10
215.9404955352115
 20
158.3814908516233
 30
0.0
 10
215.0952003522981
 20
158.3796829600954
 30
0.0
 10
214.3891482095241
 20
158.3907561092488
 30
0.0
 10
213.9612016925732
 20
158.4012885230302
 30
0.0
 10
213.3988842548341
 20
158.4201692659805
 30
0.0
 10
212.8446109637554
 20
158.4461166713396
 30
0.0
 10
212.1628557940258
 20
158.486668925124
 30
0.0
 10
211.6227419809597
 20
158.5257266974538
 30
0.0
 10
211.0932752641898
 20
158.5705176962249
 30
0.0
 10
210.7004216059513
 20
158.6069289881746
 30
0.0
 10
210.245682761632
 20
158.6526865834161
 30
0.0
 10
209.6392722065063
 20
158.7197930683591
 30
0.0
 10
208.9031833443743
 20
158.8113845115538
 30
0.0
 10
208.412821440517
 20
158.8817723172066
 30
0.0
 10
208.1659036832339
 20
158.9172155255291
 30
0.0
  0
SPLINE
  5
C0
330
1F
100
AcDbEntity
  8
0
  6
Continuous
 62
     7
370
    15
100
AcDbSpline
210
0.0
220
0.0
230
1.0
 70
    11
 71
     3
 72
    96
 73
    92
 74
     0
 42
0.000000001
 43
0.00000001
 40
0.0
 40
0.0
 40
0.0
 40
0.0
 40
0.0312499999999997
 40
0.0312499999999997
 40
0.0468749999999995
 40
0.0468749999999995
 40
0.0624999999999993
 40
0.0624999999999993
 40
0.093749999999999
 40
0.093749999999999
 40
0.109374999999999
 40
0.109374999999999
 40
0.124999999999999
 40
0.124999999999999
 40
0.1562499999999994
 40
0.1562499999999994
 40
0.1718749999999996
 40
0.1718749999999996
 40
0.1874999999999998
 40
0.1874999999999998
 40
0.2187500000000002
 40
0.2187500000000002
 40
0.2500000000000006
 40
0.2500000000000006
 40
0.2812500000000009
 40
0.2812500000000009
 40
0.296875000000001
 40
0.296875000000001
 40
0.3125000000000011
 40
0.3125000000000011
 40
0.343750000000001
 40
0.343750000000001
 40
0.3593750000000009
 40
0.3593750000000009
 40
0.3750000000000009
 40
0.3750000000000009
 40
0.3906250000000008
 40
0.3906250000000008
 40
0.4062500000000008
 40
0.4062500000000008
 40
0.4375000000000006
 40
0.4375000000000006
 40
0.4531250000000006
 40
0.4531250000000006
 40
0.4687500000000005
 40
0.4687500000000005
 40
0.5000000000000007
 40
0.5000000000000007
 40
0.5312500000000009
 40
0.5312500000000009
 40
0.546875000000001
 40
0.546875000000001
 40
0.5625000000000012
 40
0.5625000000000012
 40
0.5937500000000012
 40
0.5937500000000012
 40
0.6250000000000012
 40
0.6250000000000012
 40
0.6562500000000012
 40
0.6562500000000012
 40
0.6875000000000012
 40
0.6875000000000012
 40
0.7031250000000011
 40
0.7031250000000011
 40
0.7187500000000011
 40
0.7187500000000011
 40
0.7500000000000009
 40
0.7500000000000009
 40
0.7656250000000008
 40
0.7656250000000008
 40
0.7812500000000008
 40
0.7812500000000008
 40
0.8125000000000007
 40
0.8125000000000007
 40
0.8281250000000006
 40
0.8281250000000006
 40
0.8437500000000006
 40
0.8437500000000006
 40
0.8750000000000004
 40
0.8750000000000004
 40
0.8906250000000003
 40
0.8906250000000003
 40
0.9062500000000003
 40
0.9062500000000003
 40
0.9218750000000002
 40
0.9218750000000002
 40
0.9375000000000002
 40
0.9375000000000002
 40
0.9687500000000001
 40
0.9687500000000001
 40
1.0
 40
1.0
 40
1.0
 40
1.0
 10
208.950413612654
 20
125.6353795215685
 30
0.0
 10
209.409641137068
 20
126.0137854884761
 30
0.0
 10
209.8975417653739
 20
126.342476763158
 30
0.0
 10
210.6689780463776
 20
126.7677074801127
 30
0.0
 10
210.9327769959131
 20
126.8980509905969
 30
0.0
 10
211.4737114960142
 20
127.1360099407215
 30
0.0
 10
211.7522493961062
 20
127.2440589042874
 30
0.0
 10
212.5962448538498
 20
127.5293600334317
 30
0.0
 10
213.1693142968814
 20
127.6685777613103
 30
0.0
 10
214.0439835171179
 20
127.8040825375362
 30
0.0
 10
214.3380671762049
 20
127.8369466197237
 30
0.0
 10
214.9313908722773
 20
127.8776107444696
 30
0.0
 10
215.2309936568392
 20
127.8852621112708
 30
0.0
 10
216.120444590796
 20
127.8700726448295
 30
0.0
 10
216.7066803635215
 20
127.8100005484589
 30
0.0
 10
217.5760344238479
 20
127.6454791307179
 30
0.0
 10
217.8641426007701
 20
127.5781592534435
 30
0.0
 10
218.4368944608044
 20
127.4176481153745
 30
0.0
 10
218.7204708945752
 20
127.3246095207222
 30
0.0
 10
219.5492648356294
 20
127.0118638121163
 30
0.0
 10
220.0780428810277
 20
126.7574466204943
 30
0.0
 10
221.0872016781882
 20
126.1540399865527
 30
0.0
 10
221.571781172896
 20
125.8004894008788
 30
0.0
 10
222.4504564903529
 20
125.0192081521116
 30
0.0
 10
222.8485697277613
 20
124.5904255991399
 30
0.0
 10
223.3801423030797
 20
123.8858542531574
 30
0.0
 10
223.5470016912544
 20
123.6395359129079
 30
0.0
 10
223.8537851555655
 20
123.1296868812652
 30
0.0
 10
223.9922546289385
 20
122.8688472797061
 30
0.0
 10
224.3632424330543
 20
122.068646751448
 30
0.0
 10
224.551862465736
 20
121.5118087516052
 30
0.0
 10
224.739347645267
 20
120.6383329825009
 30
0.0
 10
224.7853671958621
 20
120.3412741096943
 30
0.0
 10
224.8420992783572
 20
119.751269328098
 30
0.0
 10
224.8533254538294
 20
119.4562140807371
 30
0.0
 10
224.8418166569169
 20
118.8659988189408
 30
0.0
 10
224.8190828631434
 20
118.5708388080208
 30
0.0
 10
224.7388937208332
 20
117.9804117482837
 30
0.0
 10
224.6811636562426
 20
117.6853499649487
 30
0.0
 10
224.460934929967
 20
116.8233173371055
 30
0.0
 10
224.251060105912
 20
116.2712056806133
 30
0.0
 10
223.844816644749
 20
115.4755633324565
 30
0.0
 10
223.6947709250111
 20
115.2175928707779
 30
0.0
 10
223.3713477465662
 20
114.7230000394783
 30
0.0
 10
223.1973533820741
 20
114.4851479401718
 30
0.0
 10
222.6398486651684
 20
113.7987607029345
 30
0.0
 10
222.2164839240534
 20
113.3740290238067
 30
0.0
 10
221.3070487335262
 20
112.6216313044227
 30
0.0
 10
220.8198479923543
 20
112.2909261770219
 30
0.0
 10
220.0417806653674
 20
111.8602710101916
 30
0.0
 10
219.7737422608328
 20
111.7275049440762
 30
0.0
 10
219.2316450156595
 20
111.4884763946553
 30
0.0
 10
218.9564944877856
 20
111.3815303636274
 30
0.0
 10
218.119070608724
 20
111.0972011157526
 30
0.0
 10
217.5449257664467
 20
110.956009031612
 30
0.0
 10
216.3641432709071
 20
110.7720317614836
 30
0.0
 10
215.7727755413428
 20
110.7317690764488
 30
0.0
 10
214.5929316721663
 20
110.7505317766254
 30
0.0
 10
214.0015176483028
 20
110.8098401602603
 30
0.0
 10
212.8290352458689
 20
111.0313135149603
 30
0.0
 10
212.2608829169561
 20
111.1906494842744
 30
0.0
 10
211.4351398571736
 20
111.5013391239391
 30
0.0
 10
211.1643347015927
 20
111.6169288588872
 30
0.0
 10
210.6318591684074
 20
111.8729619824611
 30
0.0
 10
210.3688754375526
 20
112.0142191964451
 30
0.0
 10
209.6048503516125
 20
112.4712073407497
 30
0.0
 10
209.1308037455272
 20
112.8176679297771
 30
0.0
 10
208.4732056383764
 20
113.4014394335403
 30
0.0
 10
208.2629806925305
 20
113.6067849197469
 30
0.0
 10
207.86141886777
 20
114.0402478140306
 30
0.0
 10
207.6691317247279
 20
114.2698040526786
 30
0.0
 10
207.1349369451966
 20
114.9789987590089
 30
0.0
 10
206.8318901344537
 20
115.4815359643706
 30
0.0
 10
206.4601509531033
 20
116.2821786067744
 30
0.0
 10
206.3501447194554
 20
116.5569218688686
 30
0.0
 10
206.1599437238597
 20
117.1233202506147
 30
0.0
 10
206.0810751140691
 20
117.4115478183595
 30
0.0
 10
205.8958521092584
 20
118.2793458177513
 30
0.0
 10
205.8386610470586
 20
118.8668475143367
 30
0.0
 10
205.8565000336166
 20
119.7621458244105
 30
0.0
 10
205.8801320898355
 20
120.0621268104105
 30
0.0
 10
205.9608193345507
 20
120.6502925237033
 30
0.0
 10
206.0178660491393
 20
120.9405492160427
 30
0.0
 10
206.1645536112819
 20
121.5136094451613
 30
0.0
 10
206.2541955672274
 20
121.7964126994273
 30
0.0
 10
206.4663133323293
 20
122.3545318039731
 30
0.0
 10
206.5880742803451
 20
122.6275329766052
 30
0.0
 10
206.9929426580069
 20
123.4177646005307
 30
0.0
 10
207.3170743485957
 20
123.9114899260344
 30
0.0
 10
208.0697643355098
 20
124.8358223092763
 30
0.0
 10
208.49118608824
 20
125.2569735546609
 30
0.0
 10
208.950413612654
 20
125.6353795215685
 30
0.0
  0
CIRCLE
  5
C1
330
1F
100
AcDbEntity
  8
0
  6
Continuous
 62
     7
370
    15
100
AcDbCircle
 10
215.3490301724
 20
119.3107758621
 30
0.0
 40
7.250000000000028
  0
LINE
  5
C2
330
1F
100
AcDbEntity
  8
0
  6
Continuous
 62
     7
370
    15
100
AcDbLine
 10
181.3990301724
 20
84.3857758621
 30
0.0
 11
181.3990301724
 21
154.2357758621
 31
0.0
  0
LINE
  5
C3
330
1F
100
AcDbEntity
  8
0
  6
Continuous
 62
     7
370
    15
100
AcDbLine
 10
79.4990301724
 20
101.4080535362
 30
0.0
 11
79.4990301724
 21
137.2134981818
 31
0.0
  0
LINE
  5
C4
330
1F
100
AcDbEntity
  8
0
  6
Continuous
 62
     7
370
    15
100
AcDbLine
 10
65.4290540958
 20
99.6907758621
 30
0.0
 11
65.4290540958
 21
138.9307758621
 31
0.0
  0
LINE
  5
C5
330
1F
100
AcDbEntity
  8
0
  6
Continuous
 62
     7
370
    15
100
AcDbLine
 10
62.3990301724
 20
99.6907758621
 30
0.0
 11
62.3990301724
 21
138.9307758621
 31
0.0
  0
LINE
  5
C6
330
1F
100
AcDbEntity
  8
0
  6
Continuous
 62
     7
370
    15
100
AcDbLine
 10
54.5990301724
 20
102.4857758621
 30
0.0
 11
54.5990301724
 21
136.1357758621
 31
0.0
  0
LINE
  5
C7
330
1F
100
AcDbEntity
  8
0
  6
Continuous
 62
     7
370
    15
100
AcDbLine
 10
60.3990301724
 20
102.2857758621
 30
0.0
 11
60.3990301724
 21
136.3357758621
 31
0.0
  0
LINE
  5
C8
330
1F
100
AcDbEntity
  8
0
  6
HIDDEN
 62
     7
370
     0
100
AcDbLine
 10
207.3490301724
 20
156.0607758621
 30
0.0
 11
223.3490301724
 21
156.0607758621
 31
0.0
  0
LINE
  5
C9
330
1F
100
AcDbEntity
  8
0
  6
HIDDEN
 62
     7
370
     0
100
AcDbLine
 10
208.3490301724
 20
157.0607758621
 30
0.0
 11
208.9756301724
 21
157.0607758621
 31
0.0
  0
LINE
  5
CA
330
1F
100
AcDbEntity
  8
0
  6
HIDDEN
 62
     7
370
     0
100
AcDbLine
 10
207.3490301724
 20
137.390902881
 30
0.0
 11
223.3490301724
 21
137.390902881
 31
0.0
  0
LINE
  5
CB
330
1F
100
AcDbEntity
  8
0
  6
HIDDEN
 62
     7
370
     0
100
AcDbLine
 10
210.2326936664
 20
128.0607758621
 30
0.0
 11
220.4653666784
 21
128.0607758621
 31
0.0
  0
SPLINE
  5
CC
330
1F
100
AcDbEntity
  8
0
  6
HIDDEN
 62
     7
370
     0
100
AcDbSpline
210
0.0
220
0.0
230
1.0
 70
     8
 71
     3
 72
    11
 73
     7
 74
     0
 42
0.000000001
 43
0.00000001
 40
0.0
 40
0.0
 40
0.0
 40
0.0
 40
0.2164567244934224
 40
0.440314160093923
 40
0.7519028444798833
 40
1.0
 40
1.0
 40
1.0
 40
1.0
 10
213.1474736811023
 20
156.979578015586
 30
0.0
 10
212.9820022192511
 20
156.8346996053799
 30
0.0
 10
212.6454017836903
 20
156.539989354844
 30
0.0
 10
212.020763075009
 20
156.2943513921619
 30
0.0
 10
211.3507300785941
 20
156.442456452642
 30
0.0
 10
210.921950504378
 20
156.8146100319945
 30
0.0
 10
210.7318813885933
 20
156.979578015586
 30
0.0
  0
SPLINE
  5
CD
330
1F
100
AcDbEntity
  8
0
  6
HIDDEN
 62
     7
370
     0
100
AcDbSpline
210
0.0
220
0.0
230
1.0
 70
     8
 71
     3
 72
    15
 73
    11
 74
     0
 42
0.000000001
 43
0.00000001
 40
0.0
 40
0.0
 40
0.0
 40
0.0
 40
0.1077876272349498
 40
0.2161715306054493
 40
0.327317151740018
 40
0.4399627424889995
 40
0.5934928709186007
 40
0.75215405901706
 40
0.8755093692874067
 40
1.0
 40
1.0
 40
1.0
 40
1.0
 10
210.7318813885933
 20
156.979578015586
 30
0.0
 10
210.8064148891231
 20
156.9047598507003
 30
0.0
 10
210.9558942060373
 20
156.7547096303243
 30
0.0
 10
211.1915615752291
 20
156.5722150230203
 30
0.0
 10
211.4379654803747
 20
156.4344818490558
 30
0.0
 10
211.7250414770063
 20
156.3498636787541
 30
0.0
 10
212.0525385311645
 20
156.3637102732096
 30
0.0
 10
212.3807465000178
 20
156.5076670518814
 30
0.0
 10
212.6755944749822
 20
156.7225279697281
 30
0.0
 10
212.8472280081275
 20
156.8936334031944
 30
0.0
 10
212.9334378799049
 20
156.9795780155859
 30
0.0
  0
SPLINE
  5
CE
330
1F
100
AcDbEntity
  8
0
  6
HIDDEN
 62
     7
370
     0
100
AcDbSpline
210
0.0
220
0.0
230
1.0
 70
     8
 71
     3
 72
    19
 73
    15
 74
     0
 42
0.000000001
 43
0.00000001
 40
0.0
 40
0.0
 40
0.0
 40
0.0
 40
0.0917978028799925
 40
0.183941701998196
 40
0.2659102313605322
 40
0.3483781342270255
 40
0.432771405447437
 40
0.5179949683979868
 40
0.6035774077181091
 40
0.6900156438414092
 40
0.7787378630333066
 40
0.8680583579057375
 40
0.9339654105124899
 40
1.0
 40
1.0
 40
1.0
 40
1.0
 10
212.9334378799049
 20
156.9795780155859
 30
0.0
 10
213.0664360357798
 20
156.9154988863832
 30
0.0
 10
213.3329337774113
 20
156.7870990367319
 30
0.0
 10
213.7316302115177
 20
156.6314826228638
 30
0.0
 10
214.1256272359517
 20
156.5082135675547
 30
0.0
 10
214.5163149548346
 20
156.4198785522964
 30
0.0
 10
214.9187484421712
 20
156.36691380151
 30
0.0
 10
215.3295736172801
 20
156.3546204687897
 30
0.0
 10
215.7427409546383
 20
156.3850662793577
 30
0.0
 10
216.1562865518832
 20
156.4574203173264
 30
0.0
 10
216.5672389953766
 20
156.5686836561377
 30
0.0
 10
216.9366356977957
 20
156.7014610217417
 30
0.0
 10
217.2643632626134
 20
156.8402187642645
 30
0.0
 10
217.4551174013642
 20
156.9330950065965
 30
0.0
 10
217.5505866637253
 20
156.9795780155859
 30
0.0
  0
SPLINE
  5
CF
330
1F
100
AcDbEntity
  8
0
  6
HIDDEN
 62
     7
370
     0
100
AcDbSpline
210
0.0
220
0.0
230
1.0
 70
     8
 71
     3
 72
    15
 73
    11
 74
     0
 42
0.000000001
 43
0.00000001
 40
0.0
 40
0.0
 40
0.0
 40
0.0
 40
0.1077876272349602
 40
0.2161715306054726
 40
0.3273171517400358
 40
0.439962742489011
 40
0.5934928709186085
 40
0.7521540590170656
 40
0.8755093692874153
 40
1.0
 40
1.0
 40
1.0
 40
1.0
 10
217.5505866637253
 20
156.9795780155859
 30
0.0
 10
217.6323663273969
 20
156.9047598507003
 30
0.0
 10
217.796378056032
 20
156.7547096303244
 30
0.0
 10
218.0549570581435
 20
156.57221502302
 30
0.0
 10
218.3253164045708
 20
156.4344818490559
 30
0.0
 10
218.6403019920697
 20
156.349863678754
 30
0.0
 10
218.9996383811043
 20
156.3637102732096
 30
0.0
 10
219.3597548001156
 20
156.5076670518813
 30
0.0
 10
219.6832679593722
 20
156.7225279697281
 30
0.0
 10
219.8715877419614
 20
156.8936334031944
 30
0.0
 10
219.9661789562343
 20
156.9795780155859
 30
0.0
  0
SPLINE
  5
D0
330
1F
100
AcDbEntity
  8
0
  6
HIDDEN
 62
     7
370
     0
100
AcDbSpline
210
0.0
220
0.0
230
1.0
 70
     8
 71
     3
 72
    11
 73
     7
 74
     0
 42
0.000000001
 43
0.00000001
 40
0.0
 40
0.0
 40
0.0
 40
0.0
 40
0.2164567244934126
 40
0.4403141600939209
 40
0.7519028444798781
 40
1.0
 40
1.0
 40
1.0
 40
1.0
 10
219.9661789562343
 20
156.9795780155859
 30
0.0
 10
219.8153692471228
 20
156.8346996053798
 30
0.0
 10
219.5085936061402
 20
156.5399893548438
 30
0.0
 10
218.939301591057
 20
156.2943513921618
 30
0.0
 10
218.3286374913145
 20
156.4424564526421
 30
0.0
 10
217.9378503299691
 20
156.8146100319945
 30
0.0
 10
217.7646224649228
 20
156.9795780155859
 30
0.0
  0
SPLINE
  5
D1
330
1F
100
AcDbEntity
  8
0
  6
HIDDEN
 62
     7
370
     0
100
AcDbSpline
210
0.0
220
0.0
230
1.0
 70
     8
 71
     3
 72
    13
 73
     9
 74
     0
 42
0.000000001
 43
0.00000001
 40
0.0
 40
0.0
 40
0.0
 40
0.0
 40
0.1320192456275709
 40
0.304433485525337
 40
0.4820104251411998
 40
0.6461031853563028
 40
0.8160001954206366
 40
1.0
 40
1.0
 40
1.0
 40
1.0
 10
217.7646224649228
 20
156.9795780155859
 30
0.0
 10
217.5728376296218
 20
156.8887808677066
 30
0.0
 10
217.1305860048377
 20
156.6794046356787
 30
0.0
 10
216.3895999616911
 20
156.4428302642503
 30
0.0
 10
215.5651798877534
 20
156.3327900132606
 30
0.0
 10
214.7410215911053
 20
156.3996357689541
 30
0.0
 10
213.9323507846922
 20
156.6151966960363
 30
0.0
 10
213.4159587924011
 20
156.8549330760317
 30
0.0
 10
213.1474736811023
 20
156.979578015586
 30
0.0
  0
LINE
  5
D2
330
1F
100
AcDbEntity
  8
0
  6
HIDDEN
 62
     7
370
     0
100
AcDbLine
 10
211.3490301724
 20
145.0607758621
 30
0.0
 11
219.3490301724
 21
145.0607758621
 31
0.0
  0
LINE
  5
D3
330
1F
100
AcDbEntity
  8
0
  6
HIDDEN
 62
     7
370
     0
100
AcDbLine
 10
218.75838281
 20
146.0607758621
 30
0.0
 11
217.5505866637
 21
146.0607758621
 31
0.0
  0
LINE
  5
D4
330
1F
100
AcDbEntity
  8
0
  6
HIDDEN
 62
     7
370
     0
100
AcDbLine
 10
217.5505866637
 20
146.0607758621
 30
0.0
 11
215.2420122718
 21
146.0607758621
 31
0.0
  0
LINE
  5
D5
330
1F
100
AcDbEntity
  8
0
  6
HIDDEN
 62
     7
370
     0
100
AcDbLine
 10
217.5505866637
 20
146.0607758621
 30
0.0
 11
217.5505866637
 21
156.9795780156
 31
0.0
  0
LINE
  5
D6
330
1F
100
AcDbEntity
  8
0
  6
HIDDEN
 62
     7
370
     0
100
AcDbLine
 10
215.2420122718
 20
146.0607758621
 30
0.0
 11
212.9334378799
 21
146.0607758621
 31
0.0
  0
LINE
  5
D7
330
1F
100
AcDbEntity
  8
0
  6
HIDDEN
 62
     7
370
     0
100
AcDbLine
 10
212.9334378799
 20
146.0607758621
 30
0.0
 11
211.8326596342
 21
146.0607758621
 31
0.0
  0
LINE
  5
D8
330
1F
100
AcDbEntity
  8
0
  6
HIDDEN
 62
     7
370
     0
100
AcDbLine
 10
212.9334378799
 20
146.0607758621
 30
0.0
 11
212.9334378799
 21
156.9795780156
 31
0.0
  0
LINE
  5
D9
330
1F
100
AcDbEntity
  8
0
  6
HIDDEN
 62
     7
370
     0
100
AcDbLine
 10
219.9661789562
 20
146.0607758621
 30
0.0
 11
218.75838281
 21
146.0607758621
 31
0.0
  0
LINE
  5
DA
330
1F
100
AcDbEntity
  8
0
  6
HIDDEN
 62
     7
370
     0
100
AcDbLine
 10
211.8326596342
 20
146.0607758621
 30
0.0
 11
210.7318813886
 21
146.0607758621
 31
0.0
  0
LINE
  5
DB
330
1F
100
AcDbEntity
  8
0
  6
HIDDEN
 62
     7
370
     0
100
AcDbLine
 10
217.7646224649
 20
146.0607758621
 30
0.0
 11
217.7646224649
 21
156.9795780156
 31
0.0
  0
LINE
  5
DC
330
1F
100
AcDbEntity
  8
0
  6
HIDDEN
 62
     7
370
     0
100
AcDbLine
 10
219.9661789562
 20
146.0607758621
 30
0.0
 11
219.9661789562
 21
156.9795780156
 31
0.0
  0
LINE
  5
DD
330
1F
100
AcDbEntity
  8
0
  6
HIDDEN
 62
     7
370
     0
100
AcDbLine
 10
213.1474736811
 20
146.0607758621
 30
0.0
 11
213.1474736811
 21
156.9795780156
 31
0.0
  0
LINE
  5
DE
330
1F
100
AcDbEntity
  8
0
  6
HIDDEN
 62
     7
370
     0
100
AcDbLine
 10
210.7318813886
 20
146.0607758621
 30
0.0
 11
210.7318813886
 21
156.9795780156
 31
0.0
  0
CIRCLE
  5
DF
330
1F
100
AcDbEntity
  8
0
  6
HIDDEN
 62
     7
370
     0
100
AcDbCircle
 10
215.3490301724
 20
119.3107758621
 30
0.0
 40
8.000000000000028
  0
SPLINE
  5
E0
330
1F
100
AcDbEntity
  8
0
  6
HIDDEN
 62
     7
370
     0
100
AcDbSpline
210
0.0
220
0.0
230
1.0
 70
     8
 71
     3
 72
     9
 73
     5
 74
     0
 42
0.000000001
 43
0.00000001
 40
0.0
 40
0.0
 40
0.0
 40
0.0
 40
0.9784308305133569
 40
1.0
 40
1.0
 40
1.0
 40
1.0
 10
196.5990301724138
 20
81.43099893558745
 30
0.0
 10
196.9443686573741
 20
81.43196867248109
 30
0.0
 10
197.2973200098771
 20
81.43295978688936
 30
0.0
 10
197.6448991923983
 20
81.41626220553186
 30
0.0
 10
197.6523961866962
 20
81.41590205256955
 30
0.0
  0
LINE
  5
E1
330
1F
100
AcDbEntity
  8
0
  6
HIDDEN
 62
     7
370
     0
100
AcDbLine
 10
196.5990301724
 20
81.4309989356
 30
0.0
 11
195.5990301724
 21
81.4309989356
 31
0.0
  0
ARC
  5
E2
330
1F
100
AcDbEntity
  8
0
  6
HIDDEN
 62
     7
370
     0
100
AcDbCircle
 10
182.7490301724
 20
119.3107758621
 30
0.0
 40
39.9999999999999
100
AcDbArc
 50
288.7385364365
 51
294.9135303939
  0
ARC
  5
E3
330
1F
100
AcDbEntity
  8
0
  6
HIDDEN
 62
     7
370
     0
100
AcDbCircle
 10
182.7490301724
 20
119.3107758621
 30
0.0
 40
40.00000000000018
100
AcDbArc
 50
65.0864696061
 51
71.2614635635
  0
LINE
  5
E4
330
1F
100
AcDbEntity
  8
0
  6
HIDDEN
 62
     7
370
     0
100
AcDbLine
 10
195.5990301724
 20
157.1905527886
 30
0.0
 11
196.5990301724
 21
157.1905527886
 31
0.0
  0
LINE
  5
E5
330
1F
100
AcDbEntity
  8
0
  6
HIDDEN
 62
     7
370
     0
100
AcDbLine
 10
196.5990301724
 20
157.1905527886
 30
0.0
 11
197.6394065698
 21
157.2196971222
 31
0.0
  0
LINE
  5
E6
330
1F
100
AcDbEntity
  8
0
  6
HIDDEN
 62
     7
370
     0
100
AcDbLine
 10
192.8990301724
 20
119.3107758621
 30
0.0
 11
192.8990301724
 21
101.8107758621
 31
0.0
  0
LINE
  5
E7
330
1F
100
AcDbEntity
  8
0
  6
HIDDEN
 62
     7
370
     0
100
AcDbLine
 10
192.8990301724
 20
136.8107758621
 30
0.0
 11
192.8990301724
 21
119.3107758621
 31
0.0
  0
LINE
  5
E8
330
1F
100
AcDbEntity
  8
0
  6
HIDDEN
 62
     7
370
     0
100
AcDbLine
 10
197.7650555762
 20
119.3107758621
 30
0.0
 11
197.7650555762
 21
101.3107758621
 31
0.0
  0
LINE
  5
E9
330
1F
100
AcDbEntity
  8
0
  6
HIDDEN
 62
     7
370
     0
100
AcDbLine
 10
197.7650555762
 20
137.3107758621
 30
0.0
 11
197.7650555762
 21
119.3107758621
 31
0.0
  0
SPLINE
  5
EA
330
1F
100
AcDbEntity
  8
0
  6
HIDDEN
 62
     7
370
     0
100
AcDbSpline
210
0.0
220
0.0
230
1.0
 70
     8
 71
     3
 72
    40
 73
    36
 74
     0
 42
0.000000001
 43
0.00000001
 40
0.0
 40
0.0
 40
0.0
 40
0.0
 40
0.0235249350752602
 40
0.071415851411506
 40
0.0958356759467867
 40
0.1193587967672934
 40
0.1671534068499739
 40
0.1914652514776156
 40
0.2160172494590767
 40
0.265886147971075
 40
0.2912554917537697
 40
0.3168461260625966
 40
0.3426231443539101
 40
0.3690114793479286
 40
0.3956232922967588
 40
0.4200005843522149
 40
0.4697051310080546
 40
0.495111996089964
 40
0.5178311707483124
 40
0.5640240239700558
 40
0.5875397103191254
 40
0.6107728321049706
 40
0.6579295759652362
 40
0.681890312763013
 40
0.7069166984918872
 40
0.7577800846526231
 40
0.7836799536429596
 40
0.8091396177252319
 40
0.8347910053587878
 40
0.861070729028365
 40
0.887578327404716
 40
0.911512989541701
 40
0.9602732886941918
 40
0.9851665879726306
 40
1.0
 40
1.0
 40
1.0
 40
1.0
 10
208.0990301724138
 20
137.310775862069
 30
0.0
 10
208.1036107437833
 20
137.3089313224417
 30
0.0
 10
208.1175162191125
 20
137.3033317589351
 30
0.0
 10
208.247645056597
 20
137.251054219396
 30
0.0
 10
208.4624602375601
 20
137.1672236576268
 30
0.0
 10
208.7361016964575
 20
137.0628683036447
 30
0.0
 10
209.0927487772495
 20
136.9321379750286
 30
0.0
 10
209.5293932402121
 20
136.7827381741354
 30
0.0
 10
210.025370309852
 20
136.6218734738744
 30
0.0
 10
210.6002599969209
 20
136.4522271078783
 30
0.0
 10
211.2442386968114
 20
136.2874443463494
 30
0.0
 10
211.764817689897
 20
136.1687814844064
 30
0.0
 10
212.3201729658929
 20
136.0590944297887
 30
0.0
 10
212.9079576007388
 20
135.9624116883815
 30
0.0
 10
213.5063424041836
 20
135.8852924232604
 30
0.0
 10
214.3048372269143
 20
135.8109331801021
 30
0.0
 10
215.1161927294924
 20
135.7788893046971
 30
0.0
 10
215.9128148699049
 20
135.7923222729365
 30
0.0
 10
216.6748486776499
 20
135.8321433932133
 30
0.0
 10
217.4068062305804
 20
135.9075734513722
 30
0.0
 10
218.110713697555
 20
136.0133586103815
 30
0.0
 10
218.7971484160488
 20
136.1373422176718
 30
0.0
 10
219.4446365690774
 20
136.2830873592628
 30
0.0
 10
220.0488255015351
 20
136.441567890186
 30
0.0
 10
220.6343092395095
 20
136.6092853770307
 30
0.0
 10
221.1605962436135
 20
136.7786959663081
 30
0.0
 10
221.6051805845655
 20
136.9331616139408
 30
0.0
 10
221.8959356116245
 20
137.0386945622301
 30
0.0
 10
222.1412909325348
 20
137.1309412119236
 30
0.0
 10
222.3394566150815
 20
137.2075699550687
 30
0.0
 10
222.4807386336747
 20
137.2633603848751
 30
0.0
 10
222.5972010766207
 20
137.3099657626813
 30
0.0
 10
222.6116879311872
 20
137.3159119168747
 30
0.0
 10
222.5439646521277
 20
137.2885684476929
 30
0.0
 10
222.4813023105358
 20
137.26372865334
 30
0.0
 10
222.4579050470604
 20
137.2544538130072
 30
0.0
  0
LINE
  5
EB
330
1F
100
AcDbEntity
  8
0
  6
HIDDEN
 62
     7
370
     0
100
AcDbLine
 10
184.5990301724
 20
154.4107758621
 30
0.0
 11
184.7706030477
 21
154.4107758621
 31
0.0
  0
ELLIPSE
  5
EC
330
1F
100
AcDbEntity
  8
0
  6
HIDDEN
 62
     7
370
     0
100
AcDbEllipse
 10
184.7706030477
 20
156.4107758621
 30
0.0
 11
0.0
 21
2.0
 31
0.0
210
0.0
220
0.0
230
1.0
 40
0.4142135624
 41
3.141592653589793
 42
4.712388980384695
  0
ELLIPSE
  5
ED
330
1F
100
AcDbEntity
  8
0
  6
HIDDEN
 62
     7
370
     0
100
AcDbEllipse
 10
184.7706030477
 20
82.2107758621
 30
0.0
 11
0.0
 21
2.0
 31
0.0
210
0.0
220
0.0
230
1.0
 40
0.4142135624
 41
4.712388980384695
 42
6.283185307179586
  0
LINE
  5
EE
330
1F
100
AcDbEntity
  8
0
  6
HIDDEN
 62
     7
370
     0
100
AcDbLine
 10
184.7706030477
 20
84.2107758621
 30
0.0
 11
184.5990301724
 21
84.2107758621
 31
0.0
  0
LINE
  5
EF
330
1F
100
AcDbEntity
  8
0
  6
HIDDEN
 62
     7
370
     0
100
AcDbLine
 10
196.5990301724
 20
154.4107758621
 30
0.0
 11
207.4490301724
 21
154.4107758621
 31
0.0
  0
SPLINE
  5
F0
330
1F
100
AcDbEntity
  8
0
  6
HIDDEN
 62
     7
370
     0
100
AcDbSpline
210
0.0
220
0.0
230
1.0
 70
     8
 71
     3
 72
    19
 73
    15
 74
     0
 42
0.000000001
 43
0.00000001
 40
0.0
 40
0.0
 40
0.0
 40
0.0
 40
0.0527297742172001
 40
0.1693631047478031
 40
0.2869340337257634
 40
0.3938249580422713
 40
0.5021888872521331
 40
0.589055740953088
 40
0.6780138359045226
 40
0.7411514705116999
 40
0.8059017003932264
 40
0.8691344949930989
 40
0.9347994555445573
 40
1.0
 40
1.0
 40
1.0
 40
1.0
 10
208.1035785526305
 20
154.5219121297047
 30
0.0
 10
208.1025959053601
 20
154.5213562472515
 30
0.0
 10
208.0994397342011
 20
154.5195708047848
 30
0.0
 10
208.1343807430604
 20
154.5393202371365
 30
0.0
 10
208.2051713418791
 20
154.5853598022598
 30
0.0
 10
208.3094169478659
 20
154.6680027305165
 30
0.0
 10
208.4297928209918
 20
154.7880778560992
 30
0.0
 10
208.55981635509
 20
154.9540509236523
 30
0.0
 10
208.6754397607178
 20
155.1431104880626
 30
0.0
 10
208.7765424324354
 20
155.3582117851062
 30
0.0
 10
208.8570607466829
 20
155.580512091961
 30
0.0
 10
208.9221667878805
 20
155.8357981011698
 30
0.0
 10
208.9669214457676
 20
156.1153016700098
 30
0.0
 10
208.9727341395697
 20
156.3125177584981
 30
0.0
 10
208.9756301724137
 20
156.410775862069
 30
0.0
  0
LINE
  5
F1
330
1F
100
AcDbEntity
  8
0
  6
HIDDEN
 62
     7
370
     0
100
AcDbLine
 10
207.4490301724
 20
84.2107758621
 30
0.0
 11
196.5990301724
 21
84.2107758621
 31
0.0
  0
LINE
  5
F2
330
1F
100
AcDbEntity
  8
0
  6
HIDDEN
 62
     7
370
     0
100
AcDbLine
 10
185.5990301724
 20
166.2330520217
 30
0.0
 11
185.5990301724
 21
156.4107758621
 31
0.0
  0
LINE
  5
F3
330
1F
100
AcDbEntity
  8
0
  6
HIDDEN
 62
     7
370
     0
100
AcDbLine
 10
195.5990301724
 20
166.2330520217
 30
0.0
 11
195.5990301724
 21
157.1905527886
 31
0.0
  0
LINE
  5
F4
330
1F
100
AcDbEntity
  8
0
  6
HIDDEN
 62
     7
370
     0
100
AcDbLine
 10
184.7706030477
 20
154.4107758621
 30
0.0
 11
196.5990301724
 21
154.4107758621
 31
0.0
  0
LINE
  5
F5
330
1F
100
AcDbEntity
  8
0
  6
HIDDEN
 62
     7
370
     0
100
AcDbLine
 10
196.5990301724
 20
84.2107758621
 30
0.0
 11
184.7706030477
 21
84.2107758621
 31
0.0
  0
LINE
  5
F6
330
1F
100
AcDbEntity
  8
0
  6
HIDDEN
 62
     7
370
     0
100
AcDbLine
 10
185.5990301724
 20
72.3884997024
 30
0.0
 11
185.5990301724
 21
82.2107758621
 31
0.0
  0
LINE
  5
F7
330
1F
100
AcDbEntity
  8
0
  6
HIDDEN
 62
     7
370
     0
100
AcDbLine
 10
195.5990301724
 20
81.4309989356
 30
0.0
 11
195.5990301724
 21
72.3884997024
 31
0.0
  0
LINE
  5
F8
330
1F
100
AcDbEntity
  8
0
  6
HIDDEN
 62
     7
370
     0
100
AcDbLine
 10
68.0424058454
 20
108.8107758621
 30
0.0
 11
68.0424058454
 21
129.8107758621
 31
0.0
  0
LINE
  5
F9
330
1F
100
AcDbEntity
  8
0
  6
HIDDEN
 62
     7
370
     0
100
AcDbLine
 10
157.302902958
 20
113.3107758621
 30
0.0
 11
157.302902958
 21
125.3107758621
 31
0.0
  0
LINE
  5
FA
330
1F
100
AcDbEntity
  8
0
  6
HIDDEN
 62
     7
370
     0
100
AcDbLine
 10
154.5990301724
 20
108.8107758621
 30
0.0
 11
154.5990301724
 21
129.8107758621
 31
0.0
  0
LINE
  5
FB
330
1F
100
AcDbEntity
  8
0
  6
HIDDEN
 62
     7
370
     0
100
AcDbLine
 10
208.9756301724
 20
157.0607758621
 30
0.0
 11
222.5990301724
 21
157.0607758621
 31
0.0
  0
SPLINE
  5
FC
330
1F
100
AcDbEntity
  8
0
  6
HIDDEN
 62
     7
370
     0
100
AcDbSpline
210
0.0
220
0.0
230
1.0
 70
     8
 71
     3
 72
    10
 73
     6
 74
     0
 42
0.000000001
 43
0.00000001
 40
0.0
 40
0.0
 40
0.0
 40
0.0
 40
0.5
 40
0.5
 40
1.0
 40
1.0
 40
1.0
 40
1.0
 10
208.9756301724137
 20
157.0607758620689
 30
0.0
 10
208.8664156819696
 20
157.3432271304589
 30
0.0
 10
208.7435863168348
 20
157.6441036457105
 30
0.0
 10
208.4731819597662
 20
158.2666133460823
 30
0.0
 10
208.3255555780939
 20
158.5884950662442
 30
0.0
 10
208.1659036832339
 20
158.9172155255291
 30
0.0
  0
LINE
  5
FD
330
1F
100
AcDbEntity
  8
0
  6
HIDDEN
 62
     7
370
     0
100
AcDbLine
 10
208.9756301724
 20
156.4107758621
 30
0.0
 11
208.9756301724
 21
157.0607758621
 31
0.0
  0
LINE
  5
FE
330
1F
100
AcDbEntity
  8
0
  6
HIDDEN
 62
     7
370
     0
100
AcDbLine
 10
223.3490301724
 20
156.0607758621
 30
0.0
 11
222.3490301724
 21
157.0607758621
 31
0.0
  0
LINE
  5
FF
330
1F
100
AcDbEntity
  8
0
  6
HIDDEN
 62
     7
370
     0
100
AcDbLine
 10
208.3490301724
 20
157.0607758621
 30
0.0
 11
207.3490301724
 21
156.0607758621
 31
0.0
  0
LINE
  5
100
330
1F
100
AcDbEntity
  8
0
  6
HIDDEN
 62
     7
370
     0
100
AcDbLine
 10
207.3490301724
 20
156.0607758621
 30
0.0
 11
207.3490301724
 21
137.390902881
 31
0.0
  0
LINE
  5
101
330
1F
100
AcDbEntity
  8
0
  6
HIDDEN
 62
     7
370
     0
100
AcDbLine
 10
223.3490301724
 20
137.390902881
 30
0.0
 11
223.3490301724
 21
156.0607758621
 31
0.0
  0
LINE
  5
102
330
1F
100
AcDbEntity
  8
0
  6
HIDDEN
 62
     7
370
     0
100
AcDbLine
 10
207.3490301724
 20
137.390902881
 30
0.0
 11
209.7497307533
 21
128.4313663395
 31
0.0
  0
LINE
  5
103
330
1F
100
AcDbEntity
  8
0
  6
HIDDEN
 62
     7
370
     0
100
AcDbLine
 10
220.9483295916
 20
128.4313663395
 30
0.0
 11
223.3490301724
 21
137.390902881
 31
0.0
  0
ARC
  5
104
330
1F
100
AcDbEntity
  8
0
  6
HIDDEN
 62
     7
370
     0
100
AcDbCircle
 10
210.2326936664
 20
128.5607758621
 30
0.0
 40
0.5000000000000353
100
AcDbArc
 50
195.0
 51
270.0
  0
ARC
  5
105
330
1F
100
AcDbEntity
  8
0
  6
HIDDEN
 62
     7
370
     0
100
AcDbCircle
 10
220.4653666784
 20
128.5607758621
 30
0.0
 40
0.5
100
AcDbArc
 50
270.0
 51
345.0
  0
LINE
  5
106
330
1F
100
AcDbEntity
  8
0
  6
HIDDEN
 62
     7
370
     0
100
AcDbLine
 10
210.6490301724
 20
157.0607758621
 30
0.0
 11
210.7968432675
 21
156.912962767
 31
0.0
  0
LINE
  5
107
330
1F
100
AcDbEntity
  8
0
  6
HIDDEN
 62
     7
370
     0
100
AcDbLine
 10
219.9046238042
 20
156.9163694938
 30
0.0
 11
220.0490301724
 21
157.0607758621
 31
0.0
  0
LINE
  5
108
330
1F
100
AcDbEntity
  8
0
  6
HIDDEN
 62
     7
370
     0
100
AcDbLine
 10
211.3490301724
 20
146.0607758621
 30
0.0
 11
211.3490301724
 21
145.0607758621
 31
0.0
  0
LINE
  5
109
330
1F
100
AcDbEntity
  8
0
  6
HIDDEN
 62
     7
370
     0
100
AcDbLine
 10
219.3490301724
 20
145.0607758621
 30
0.0
 11
219.3490301724
 21
146.0607758621
 31
0.0
  0
LINE
  5
10A
330
1F
100
AcDbEntity
  8
0
  6
HIDDEN
 62
     7
370
     0
100
AcDbLine
 10
211.3490301724
 20
145.0607758621
 30
0.0
 11
215.3490301724
 21
143.604894925
 31
0.0
  0
LINE
  5
10B
330
1F
100
AcDbEntity
  8
0
  6
HIDDEN
 62
     7
370
     0
100
AcDbLine
 10
215.3490301724
 20
143.604894925
 30
0.0
 11
219.3490301724
 21
145.0607758621
 31
0.0
  0
ARC
  5
10C
330
1F
100
AcDbEntity
  8
0
  6
HIDDEN
 62
     7
370
     0
100
AcDbCircle
 10
232.3990301724
 20
138.3107758621
 30
0.0
 40
1.0
100
AcDbArc
 50
270.0
 51
0.0
  0
ARC
  5
10D
330
1F
100
AcDbEntity
  8
0
  6
HIDDEN
 62
     7
370
     0
100
AcDbCircle
 10
232.3990301724
 20
100.3107758621
 30
0.0
 40
1.000000000000014
100
AcDbArc
 50
0.0
 51
90.0
  0
LINE
  5
10E
330
1F
100
AcDbEntity
  8
0
  6
HIDDEN
 62
     7
370
     0
100
AcDbLine
 10
195.7673776748
 20
137.8107758621
 30
0.0
 11
193.8990301724
 21
137.8107758621
 31
0.0
  0
LINE
  5
10F
330
1F
100
AcDbEntity
  8
0
  6
HIDDEN
 62
     7
370
     0
100
AcDbLine
 10
193.8990301724
 20
100.8107758621
 30
0.0
 11
195.7673776748
 21
100.8107758621
 31
0.0
  0
ARC
  5
110
330
1F
100
AcDbEntity
  8
0
  6
HIDDEN
 62
     7
370
     0
100
AcDbCircle
 10
195.7673776748
 20
136.8107758621
 30
0.0
 40
1.000000000000003
100
AcDbArc
 50
75.0
 51
90.0
  0
ARC
  5
111
330
1F
100
AcDbEntity
  8
0
  6
HIDDEN
 62
     7
370
     0
100
AcDbCircle
 10
195.7673776748
 20
101.8107758621
 30
0.0
 40
1.000000000000014
100
AcDbArc
 50
270.0
 51
285.0
  0
ARC
  5
112
330
1F
100
AcDbEntity
  8
0
  6
HIDDEN
 62
     7
370
     0
100
AcDbCircle
 10
193.8990301724
 20
136.8107758621
 30
0.0
 40
1.0
100
AcDbArc
 50
90.0
 51
180.0
  0
ARC
  5
113
330
1F
100
AcDbEntity
  8
0
  6
HIDDEN
 62
     7
370
     0
100
AcDbCircle
 10
193.8990301724
 20
101.8107758621
 30
0.0
 40
1.0
100
AcDbArc
 50
180.0
 51
270.0
  0
LINE
  5
114
330
1F
100
AcDbEntity
  8
0
  6
HIDDEN
 62
     7
370
     0
100
AcDbLine
 10
196.0261967199
 20
100.8448500358
 30
0.0
 11
197.7650555762
 21
101.3107758621
 31
0.0
  0
LINE
  5
115
330
1F
100
AcDbEntity
  8
0
  6
HIDDEN
 62
     7
370
     0
100
AcDbLine
 10
197.7650555762
 20
137.3107758621
 30
0.0
 11
196.0261967199
 21
137.7767016884
 31
0.0
  0
LINE
  5
116
330
1F
100
AcDbEntity
  8
0
  6
HIDDEN
 62
     7
370
     0
100
AcDbLine
 10
208.0990301724
 20
137.3107758621
 30
0.0
 11
197.7650555762
 21
137.3107758621
 31
0.0
  0
LINE
  5
117
330
1F
100
AcDbEntity
  8
0
  6
HIDDEN
 62
     7
370
     0
100
AcDbLine
 10
232.3990301724
 20
137.3107758621
 30
0.0
 11
222.5762379619
 21
137.3107758621
 31
0.0
  0
LINE
  5
118
330
1F
100
AcDbEntity
  8
0
  6
HIDDEN
 62
     7
370
     0
100
AcDbLine
 10
197.7650555762
 20
101.3107758621
 30
0.0
 11
232.3990301724
 21
101.3107758621
 31
0.0
  0
ARC
  5
119
330
1F
100
AcDbEntity
  8
0
  6
HIDDEN
 62
     7
370
     0
100
AcDbCircle
 10
55.5990301724
 20
105.3107758621
 30
0.0
 40
1.000000000000028
100
AcDbArc
 50
90.0
 51
180.0
  0
ARC
  5
11A
330
1F
100
AcDbEntity
  8
0
  6
HIDDEN
 62
     7
370
     0
100
AcDbCircle
 10
55.5990301724
 20
133.3107758621
 30
0.0
 40
1.000000000000028
100
AcDbArc
 50
180.0
 51
270.0
  0
LINE
  5
11B
330
1F
100
AcDbEntity
  8
0
  6
HIDDEN
 62
     7
370
     0
100
AcDbLine
 10
55.5990301724
 20
106.3107758621
 30
0.0
 11
66.3680900647
 21
106.3107758621
 31
0.0
  0
LINE
  5
11C
330
1F
100
AcDbEntity
  8
0
  6
HIDDEN
 62
     7
370
     0
100
AcDbLine
 10
66.3680900647
 20
132.3107758621
 30
0.0
 11
55.5990301724
 21
132.3107758621
 31
0.0
  0
ARC
  5
11D
330
1F
100
AcDbEntity
  8
0
  6
HIDDEN
 62
     7
370
     0
100
AcDbCircle
 10
66.3680900647
 20
106.7107758621
 30
0.0
 40
0.4000000000000069
100
AcDbArc
 50
270.0
 51
330.0
  0
ARC
  5
11E
330
1F
100
AcDbEntity
  8
0
  6
HIDDEN
 62
     7
370
     0
100
AcDbCircle
 10
66.3680900647
 20
131.9107758621
 30
0.0
 40
0.4000000000000057
100
AcDbArc
 50
30.0
 51
90.0
  0
ARC
  5
11F
330
1F
100
AcDbEntity
  8
0
  6
HIDDEN
 62
     7
370
     0
100
AcDbCircle
 10
207.4490301724
 20
156.4107758621
 30
0.0
 40
2.000000000000028
100
AcDbArc
 50
270.0
 51
289.1377291185
  0
ARC
  5
120
330
1F
100
AcDbEntity
  8
0
  6
HIDDEN
 62
     7
370
     0
100
AcDbCircle
 10
207.4490301724
 20
82.2107758621
 30
0.0
 40
2.0
100
AcDbArc
 50
0.0
 51
90.0
  0
LINE
  5
121
330
1F
100
AcDbEntity
  8
0
  6
HIDDEN
 62
     7
370
     0
100
AcDbLine
 10
209.4490301724
 20
79.3107758621
 30
0.0
 11
209.4490301724
 21
82.2107758621
 31
0.0
  0
LINE
  5
122
330
1F
100
AcDbEntity
  8
0
  6
HIDDEN
 62
     7
370
     0
100
AcDbLine
 10
66.7145002263
 20
106.5107758621
 30
0.0
 11
68.0424058454
 21
108.8107758621
 31
0.0
  0
LINE
  5
123
330
1F
100
AcDbEntity
  8
0
  6
HIDDEN
 62
     7
370
     0
100
AcDbLine
 10
68.0424058454
 20
129.8107758621
 30
0.0
 11
66.7145002263
 21
132.1107758621
 31
0.0
  0
LINE
  5
124
330
1F
100
AcDbEntity
  8
0
  6
HIDDEN
 62
     7
370
     0
100
AcDbLine
 10
154.5990301724
 20
108.8107758621
 30
0.0
 11
157.302902958
 21
113.3107758621
 31
0.0
  0
LINE
  5
125
330
1F
100
AcDbEntity
  8
0
  6
HIDDEN
 62
     7
370
     0
100
AcDbLine
 10
157.302902958
 20
125.3107758621
 30
0.0
 11
154.5990301724
 21
129.8107758621
 31
0.0
  0
LINE
  5
126
330
1F
100
AcDbEntity
  8
0
  6
HIDDEN
 62
     7
370
     0
100
AcDbLine
 10
68.0424058454
 20
108.8107758621
 30
0.0
 11
154.5990301724
 21
108.8107758621
 31
0.0
  0
LINE
  5
127
330
1F
100
AcDbEntity
  8
0
  6
HIDDEN
 62
     7
370
     0
100
AcDbLine
 10
154.5990301724
 20
129.8107758621
 30
0.0
 11
68.0424058454
 21
129.8107758621
 31
0.0
  0
LINE
  5
128
330
1F
100
AcDbEntity
  8
0
  6
HIDDEN
 62
     7
370
     0
100
AcDbLine
 10
222.5990301724
 20
157.0607758621
 30
0.0
 11
224.8490301724
 21
159.3107758621
 31
0.0
  0
LINE
  5
129
330
1F
100
AcDbEntity
  8
0
  6
HIDDEN
 62
     7
370
     0
100
AcDbLine
 10
208.0990301724
 20
154.5219120794
 30
0.0
 11
208.0990301724
 21
137.3107758621
 31
0.0
  0
LINE
  5
12A
330
1F
100
AcDbEntity
  8
0
  6
HIDDEN
 62
     7
370
     0
100
AcDbLine
 10
222.5990301724
 20
137.301614953
 30
0.0
 11
222.5990301724
 21
157.0607758621
 31
0.0
  0
LINE
  5
12B
330
1F
100
AcDbEntity
  8
0
  6
HIDDEN
 62
     7
370
     0
100
AcDbLine
 10
192.8990301724
 20
125.3107758621
 30
0.0
 11
157.302902958
 21
125.3107758621
 31
0.0
  0
LINE
  5
12C
330
1F
100
AcDbEntity
  8
0
  6
HIDDEN
 62
     7
370
     0
100
AcDbLine
 10
157.302902958
 20
113.3107758621
 30
0.0
 11
192.8990301724
 21
113.3107758621
 31
0.0
  0
DIMENSION
  5
12D
330
1F
100
AcDbEntity
  8
VERMASSUNG
100
AcDbDimension
  2
_D
 10
44.5990301724
 20
167.9607758621
 30
0.0
 11
44.5990301724
 21
119.3107758621
 31
0.0
 70
   160
  1
SK 50 %%c<>
 71
     2
 42
-1.0
  3
SLDDIMSTYLE0
100
AcDbAlignedDimension
 13
195.9990301724
 23
70.6607758621
 33
0.0
 14
195.9990301724
 24
167.9607758621
 34
0.0
 50
90.0
100
AcDbRotatedDimension
  0
DIMENSION
  5
13A
330
1F
100
AcDbEntity
  8
VERMASSUNG
100
AcDbDimension
  2
_D_1
 10
243.3990301724
 20
101.3107758621
 30
0.0
 11
243.3990301724
 21
119.3107758621
 31
0.0
 70
   160
  1
%%c<>
 71
     2
 42
-1.0
  3
SLDDIMSTYLE1
100
AcDbAlignedDimension
 13
232.3990301724
 23
137.3107758621
 33
0.0
 14
232.3990301724
 24
101.3107758621
 34
0.0
 50
90.0
100
AcDbRotatedDimension
  0
DIMENSION
  5
146
330
1F
100
AcDbEntity
  8
VERMASSUNG
100
AcDbDimension
  2
_D_2
 10
249.0990301724
 20
79.3107758621
 30
0.0
 11
249.0990301724
 21
119.3107758621
 31
0.0
 70
   160
  1
WH %%c<>
 71
     2
 42
-1.0
  3
SLDDIMSTYLE1
100
AcDbAlignedDimension
 13
232.5990301724
 23
159.3107758621
 33
0.0
 14
232.5990301724
 24
79.3107758621
 34
0.0
 50
90.0
100
AcDbRotatedDimension
  0
DIMENSION
  5
152
330
1F
100
AcDbEntity
  8
VERMASSUNG
100
AcDbDimension
  2
_D_3
 10
196.5990301724
 20
171.0790418202
 30
0.0
 11
214.9990301724
 21
171.0790418202
 31
0.0
 70
   160
  1
<>
 71
     2
 42
-1.0
  3
SLDDIMSTYLE1
100
AcDbAlignedDimension
 13
233.3990301724
 23
158.5107758621
 33
0.0
 14
196.5990301724
 24
165.3214268029
 34
0.0
100
AcDbRotatedDimension
  0
DIMENSION
  5
15C
330
1F
100
AcDbEntity
  8
VERMASSUNG
100
AcDbDimension
  2
_D_4
 10
181.3990301724
 20
177.0790418202
 30
0.0
 11
207.3990301724
 21
177.0790418202
 31
0.0
 70
   160
  1
<>
 71
     2
 42
-1.0
  3
SLDDIMSTYLE1
100
AcDbAlignedDimension
 13
233.3990301724
 23
158.5107758621
 33
0.0
 14
181.3990301724
 24
154.2357758621
 34
0.0
100
AcDbRotatedDimension
  0
DIMENSION
  5
166
330
1F
100
AcDbEntity
  8
VERMASSUNG
100
AcDbDimension
  2
_D_5
 10
54.5990301724
 20
183.0790418202
 30
0.0
 11
143.9990301724
 21
183.0790418202
 31
0.0
 70
   160
  1
<>
 71
     2
 42
-1.0
  3
SLDDIMSTYLE1
100
AcDbAlignedDimension
 13
233.3990301724
 23
158.5107758621
 33
0.0
 14
54.5990301724
 24
136.1357758621
 34
0.0
100
AcDbRotatedDimension
  0
LINE
  5
170
330
1F
100
AcDbEntity
  8
VERMASSUNG
  6
CENTERX2
370
     0
100
AcDbLine
 10
196.5990301724
 20
72.9856524284
 30
0.0
 11
196.5990301724
 21
94.3134172614
 31
0.0
  0
LINE
  5
171
330
1F
100
AcDbEntity
  8
VERMASSUNG
  6
CENTERX2
370
     0
100
AcDbLine
 10
196.5990301724
 20
163.0220539936
 30
0.0
 11
196.5990301724
 21
149.5373042372
 31
0.0
  0
LINE
  5
172
330
1F
100
AcDbEntity
  8
VERMASSUNG
  6
CENTERX2
370
     0
100
AcDbLine
 10
53.5179956897
 20
119.3107758621
 30
0.0
 11
236.5574353448
 21
119.3107758621
 31
0.0
  0
LINE
  5
173
330
1F
100
AcDbEntity
  8
0
  6
Continuous
 62
     7
370
    15
100
AcDbLine
 10
275.34315681
 20
28.9904458757
 30
0.0
 11
278.4829118839
 21
29.6301474588
 31
0.0
  0
SPLINE
  5
174
330
1F
100
AcDbEntity
  8
0
  6
Continuous
 62
     7
370
    15
100
AcDbSpline
210
0.0
220
0.0
230
1.0
 70
     8
 71
     3
 72
    10
 73
     6
 74
     0
 42
0.000000001
 43
0.00000001
 40
0.0
 40
0.0
 40
0.0
 40
0.0
 40
0.2435744064110075
 40
0.706569887463753
 40
1.0
 40
1.0
 40
1.0
 40
1.0
 10
274.2083488113961
 20
29.21527388361526
 30
0.0
 10
274.2947219923449
 20
29.17229772021262
 30
0.0
 10
274.5452765955239
 20
29.0476308334635
 30
0.0
 10
274.9055816317461
 20
28.94904873068284
 30
0.0
 10
275.1582189714248
 20
28.97858166949699
 30
0.0
 10
275.2562212120167
 20
28.99003798936931
 30
0.0
  0
LINE
  5
175
330
1F
100
AcDbEntity
  8
0
  6
Continuous
 62
     7
370
    15
100
AcDbLine
 10
273.5731321568
 20
46.4523974442
 30
0.0
 11
273.484729447
 21
46.5034478311
 31
0.0
  0
LINE
  5
176
330
1F
100
AcDbEntity
  8
0
  6
Continuous
 62
     7
370
    15
100
AcDbLine
 10
268.5341777016
 20
46.5034478311
 30
0.0
 11
268.4457749919
 21
46.4523974442
 31
0.0
  0
LINE
  5
177
330
1F
100
AcDbEntity
  8
0
  6
Continuous
 62
     7
370
    15
100
AcDbLine
 10
277.1105480568
 20
9.812508887
 30
0.0
 11
277.3933447994
 21
9.9758170472
 31
0.0
  0
LINE
  5
178
330
1F
100
AcDbEntity
  8
0
  6
Continuous
 62
     7
370
    15
100
AcDbLine
 10
291.2503851858
 20
33.9795158897
 30
0.0
 11
291.2503851858
 21
34.3060791345
 31
0.0
  0
LINE
  5
179
330
1F
100
AcDbEntity
  8
0
  6
Continuous
 62
     7
370
    15
100
AcDbLine
 10
287.1074368884
 20
43.4629752638
 30
0.0
 11
275.4401749989
 21
50.1983421864
 31
0.0
  0
LINE
  5
17A
330
1F
100
AcDbEntity
  8
0
  6
Continuous
 62
     7
370
    15
100
AcDbLine
 10
255.4418003461
 20
15.5563876912
 30
0.0
 11
267.1090622357
 21
8.8210207686
 31
0.0
  0
LINE
  5
17B
330
1F
100
AcDbEntity
  8
0
  6
Continuous
 62
     7
370
    15
100
AcDbLine
 10
280.7611994961
 20
48.6005136484
 30
0.0
 11
280.7160008326
 21
48.7549271205
 31
0.0
  0
LINE
  5
17C
330
1F
100
AcDbEntity
  8
0
  6
Continuous
 62
     7
370
    15
100
AcDbLine
 10
276.329707052
 20
54.6787708168
 30
0.0
 11
272.5113304336
 21
56.8830727187
 31
0.0
  0
SPLINE
  5
17D
330
1F
100
AcDbEntity
  8
0
  6
Continuous
 62
     7
370
    15
100
AcDbSpline
210
0.0
220
0.0
230
1.0
 70
     8
 71
     3
 72
    12
 73
     8
 74
     0
 42
0.000000001
 43
0.00000001
 40
0.0
 40
0.0
 40
0.0
 40
0.0
 40
0.0805812564530531
 40
0.3188537520785276
 40
0.5571577780271252
 40
0.7955043109809148
 40
1.0
 40
1.0
 40
1.0
 40
1.0
 10
246.3096216359728
 20
39.46223836639308
 30
0.0
 10
246.2160880382422
 20
39.26521975279849
 30
0.0
 10
245.8459828811058
 20
38.48563245248702
 30
0.0
 10
245.2913842625465
 20
37.10098165451348
 30
0.0
 10
244.6554551075888
 20
35.32301076400584
 30
0.0
 10
244.1421599631133
 20
33.62857701242172
 30
0.0
 10
243.8871539247408
 20
32.54008367982847
 30
0.0
 10
243.7693972318747
 20
32.03743920963842
 30
0.0
  0
SPLINE
  5
17E
330
1F
100
AcDbEntity
  8
0
  6
Continuous
 62
     7
370
    15
100
AcDbSpline
210
0.0
220
0.0
230
1.0
 70
     8
 71
     3
 72
    19
 73
    15
 74
     0
 42
0.000000001
 43
0.00000001
 40
0.0
 40
0.0
 40
0.0
 40
0.0
 40
0.0356570729712761
 40
0.1293665816285145
 40
0.2231597186085114
 40
0.3169945004185761
 40
0.4108399339108517
 40
0.504675455692922
 40
0.5984932080194061
 40
0.6922902243208826
 40
0.7860666407234015
 40
0.8798244727713607
 40
0.9735668258442369
 40
1.0
 40
1.0
 40
1.0
 40
1.0
 10
264.7004662155118
 20
57.58611709597497
 30
0.0
 10
264.5310495929176
 20
57.54521271293476
 30
0.0
 10
263.9163931584504
 20
57.39680848996899
 30
0.0
 10
262.8305566182611
 20
56.99556825838806
 30
0.0
 10
261.4535065591802
 20
56.38747854457644
 30
0.0
 10
260.06802584909
 20
55.63804311354099
 30
0.0
 10
258.6852855261038
 20
54.76378368463992
 30
0.0
 10
257.3136240788729
 20
53.76743112675014
 30
0.0
 10
255.9618067652808
 20
52.65650545748007
 30
0.0
 10
254.6387687511238
 20
51.43754536634126
 30
0.0
 10
253.3512326907399
 20
50.1202709314346
 30
0.0
 10
252.1133985392977
 20
48.70650477568769
 30
0.0
 10
251.1982491343279
 20
47.58337491049973
 30
0.0
 10
250.7189585840214
 20
46.91252349239552
 30
0.0
 10
250.6135363663734
 20
46.76496655816505
 30
0.0
  0
SPLINE
  5
17F
330
1F
100
AcDbEntity
  8
0
  6
Continuous
 62
     7
370
    15
100
AcDbSpline
210
0.0
220
0.0
230
1.0
 70
     8
 71
     3
 72
    26
 73
    22
 74
     0
 42
0.000000001
 43
0.00000001
 40
0.0
 40
0.0
 40
0.0
 40
0.0
 40
0.0289466913847218
 40
0.0871454265112012
 40
0.1445571589246284
 40
0.2006069615891651
 40
0.2556960934107554
 40
0.3103307173610001
 40
0.3648289234994634
 40
0.4193212203381863
 40
0.473876903801823
 40
0.528517456507158
 40
0.5832346853004341
 40
0.6380074772491734
 40
0.6928095867545868
 40
0.7476128542414721
 40
0.802378963970271
 40
0.8570785967307379
 40
0.9116836797316256
 40
0.9661707186666614
 40
0.9999999999999999
 40
0.9999999999999999
 40
0.9999999999999999
 40
0.9999999999999999
 10
272.5802892703734
 20
18.38590972581637
 30
0.0
 10
272.485245601861
 20
18.43496320779524
 30
0.0
 10
272.1991120013183
 20
18.58264110825348
 30
0.0
 10
271.8071203935291
 20
18.97144028171495
 30
0.0
 10
271.4077138972982
 20
19.54204559877452
 30
0.0
 10
271.1079341135459
 20
20.23523713927041
 30
0.0
 10
270.907976548555
 20
21.02682585052582
 30
0.0
 10
270.8116069626632
 20
21.90613428171799
 30
0.0
 10
270.820443092116
 20
22.85917919443666
 30
0.0
 10
270.9354606097922
 20
23.87071273886131
 30
0.0
 10
271.1557708306766
 20
24.92346803564787
 30
0.0
 10
271.4785319813968
 20
25.99916347084286
 30
0.0
 10
271.8988330733471
 20
27.07879417246474
 30
0.0
 10
272.409758733493
 20
28.14313920129888
 30
0.0
 10
273.0025308527649
 20
29.17320907036999
 30
0.0
 10
273.6666545691185
 20
30.15066842195409
 30
0.0
 10
274.3901022677756
 20
31.05798576634574
 30
0.0
 10
275.1596117565886
 20
31.87984670840317
 30
0.0
 10
275.9606166161931
 20
32.59961620371426
 30
0.0
 10
276.675972077755
 20
33.13705984461708
 30
0.0
 10
277.1181454749548
 20
33.40449249157897
 30
0.0
 10
277.2875185671141
 20
33.5069317035423
 30
0.0
  0
SPLINE
  5
180
330
1F
100
AcDbEntity
  8
0
  6
Continuous
 62
     7
370
    15
100
AcDbSpline
210
0.0
220
0.0
230
1.0
 70
     8
 71
     3
 72
    14
 73
    10
 74
     0
 42
0.000000001
 43
0.00000001
 40
0.0
 40
0.0
 40
0.0
 40
0.0
 40
0.0885682387477583
 40
0.2575490485848645
 40
0.4264818276926807
 40
0.5958359152074854
 40
0.7666992352218656
 40
0.9406908852291128
 40
0.9999999999999999
 40
0.9999999999999999
 40
0.9999999999999999
 40
0.9999999999999999
 10
277.2875185671141
 20
33.5069317035423
 30
0.0
 10
277.4293734102507
 20
33.58549430905455
 30
0.0
 10
277.8418754584286
 20
33.81394781101087
 30
0.0
 10
278.5145466126599
 20
34.09527634006683
 30
0.0
 10
279.2821319779611
 20
34.30271288301991
 30
0.0
 10
280.0057425482782
 20
34.37806620697481
 30
0.0
 10
280.669723414076
 20
34.31458179284534
 30
0.0
 10
281.1514618311803
 20
34.19099019934475
 30
0.0
 10
281.3865472615203
 20
34.04545915456712
 30
0.0
 10
281.4463100693373
 20
34.00846263016373
 30
0.0
  0
LINE
  5
181
330
1F
100
AcDbEntity
  8
0
  6
Continuous
 62
     7
370
    15
100
AcDbLine
 10
259.0205538315
 20
54.9543438215
 30
0.0
 11
228.2767322105
 21
66.0331984908
 31
0.0
  0
LINE
  5
182
330
1F
100
AcDbEntity
  8
0
  6
Continuous
 62
     7
370
    15
100
AcDbLine
 10
218.1436014517
 20
48.4801992728
 30
0.0
 11
247.617766817
 21
23.5924576978
 31
0.0
  0
SPLINE
  5
183
330
1F
100
AcDbEntity
  8
0
  6
Continuous
 62
     7
370
    15
100
AcDbSpline
210
0.0
220
0.0
230
1.0
 70
     8
 71
     3
 72
     9
 73
     5
 74
     0
 42
0.000000001
 43
0.00000001
 40
0.0
 40
0.0
 40
0.0
 40
0.0
 40
0.3861581731557993
 40
0.9999999999999999
 40
0.9999999999999999
 40
0.9999999999999999
 40
0.9999999999999999
 10
259.817548098801
 20
11.84244928475574
 30
0.0
 10
259.9867811835064
 20
11.88208182196033
 30
0.0
 10
260.4250292809699
 20
11.98471473240918
 30
0.0
 10
260.8745137130306
 20
12.15583031376585
 30
0.0
 10
261.1504260579447
 20
12.26086821482734
 30
0.0
  0
LINE
  5
184
330
1F
100
AcDbEntity
  8
0
  6
Continuous
 62
     7
370
    15
100
AcDbLine
 10
248.1883072623
 20
14.7497955639
 30
0.0
 11
252.0066838807
 21
12.545493662
 31
0.0
  0
LINE
  5
185
330
1F
100
AcDbEntity
  8
0
  6
Continuous
 62
     7
370
    15
100
AcDbLine
 10
243.7566802545
 20
20.8285124463
 30
0.0
 11
243.8020134817
 21
20.6736392602
 31
0.0
  0
SPLINE
  5
186
330
1F
100
AcDbEntity
  8
0
  6
Continuous
 62
     7
370
    15
100
AcDbSpline
210
0.0
220
0.0
230
1.0
 70
     8
 71
     3
 72
    25
 73
    21
 74
     0
 42
0.000000001
 43
0.00000001
 40
0.0
 40
0.0
 40
0.0
 40
0.0
 40
0.0481289363851507
 40
0.1007136396828323
 40
0.1545089112700166
 40
0.2097894863306481
 40
0.2663794147823039
 40
0.3238111045835991
 40
0.3815987440205662
 40
0.4393597783264451
 40
0.4969806780137104
 40
0.5544526958871298
 40
0.6118139101981764
 40
0.669122754614746
 40
0.7264461480931085
 40
0.7838363309985499
 40
0.8413611204894228
 40
0.899092152387724
 40
0.9570918779478236
 40
1.0
 40
1.0
 40
1.0
 40
1.0
 10
228.1489043390079
 20
66.07152726649502
 30
0.0
 10
227.9065953127626
 20
66.13957579525272
 30
0.0
 10
227.3995443410589
 20
66.28197277139628
 30
0.0
 10
226.5729006416572
 20
66.3212912079975
 30
0.0
 10
225.693458342143
 20
66.23240330710506
 30
0.0
 10
224.7831144282538
 20
65.9971898130127
 30
0.0
 10
223.8545420717947
 20
65.62016155376202
 30
0.0
 10
222.9224712448398
 20
65.1043149060852
 30
0.0
 10
222.0041900047577
 20
64.45931814014797
 30
0.0
 10
221.1156785721442
 20
63.69782963702675
 30
0.0
 10
220.270760916474
 20
62.83407870347146
 30
0.0
 10
219.481116582627
 20
61.88235146365795
 30
0.0
 10
218.7573548035759
 20
60.8573035090197
 30
0.0
 10
218.1093136804759
 20
59.77401553003196
 30
0.0
 10
217.5460904758382
 20
58.64803191527653
 30
0.0
 10
217.0762116422685
 20
57.49526881977665
 30
0.0
 10
216.7064995297013
 20
56.33129148746578
 30
0.0
 10
216.4461671103171
 20
55.17275257440706
 30
0.0
 10
216.3054499137843
 20
54.13179707123815
 30
0.0
 10
216.2900774513118
 20
53.49609519442137
 30
0.0
 10
216.2835407595517
 20
53.22578149370645
 30
0.0
  0
SPLINE
  5
187
330
1F
100
AcDbEntity
  8
0
  6
Continuous
 62
     7
370
    15
100
AcDbSpline
210
0.0
220
0.0
230
1.0
 70
     8
 71
     3
 72
    13
 73
     9
 74
     0
 42
0.000000001
 43
0.00000001
 40
0.0
 40
0.0
 40
0.0
 40
0.0
 40
0.1026186386501565
 40
0.2954232296279795
 40
0.4881307771162829
 40
0.6784449964570313
 40
0.8641836786570007
 40
1.0
 40
1.0
 40
1.0
 40
1.0
 10
216.2835407595517
 20
53.22578149370645
 30
0.0
 10
216.287051763663
 20
53.03313748406061
 30
0.0
 10
216.2971594028548
 20
52.47854509961009
 30
0.0
 10
216.4105052723238
 20
51.6059671956767
 30
0.0
 10
216.6658018059366
 20
50.64469853626406
 30
0.0
 10
217.0540830939694
 20
49.7852342608895
 30
0.0
 10
217.5079660084082
 20
49.08776863764052
 30
0.0
 10
217.8803621055578
 20
48.74014156380656
 30
0.0
 10
218.0376523589829
 20
48.5933130901484
 30
0.0
  0
LINE
  5
188
330
1F
100
AcDbEntity
  8
0
  6
Continuous
 62
     7
370
    15
100
AcDbLine
 10
214.4836466441
 20
53.0570576662
 30
0.0
 11
216.3881642457
 21
51.9576030574
 31
0.0
  0
LINE
  5
189
330
1F
100
AcDbEntity
  8
0
  6
Continuous
 62
     7
370
    15
100
AcDbLine
 10
224.3882416921
 20
65.8139648294
 30
0.0
 11
222.4829965052
 21
66.9138394643
 31
0.0
  0
LINE
  5
18A
330
1F
100
AcDbEntity
  8
0
  6
Continuous
 62
     7
370
    15
100
AcDbLine
 10
212.0288610995
 20
52.3842238343
 30
0.0
 11
213.1001363312
 21
51.7657898068
 31
0.0
  0
LINE
  5
18B
330
1F
100
AcDbEntity
  8
0
  6
Continuous
 62
     7
370
    15
100
AcDbLine
 10
222.9093390984
 20
68.7576684867
 30
0.0
 11
221.8380638667
 21
69.3761025142
 31
0.0
  0
LINE
  5
18C
330
1F
100
AcDbEntity
  8
0
  6
Continuous
 62
     7
370
    15
100
AcDbLine
 10
209.9905526088
 20
55.0590976457
 30
0.0
 11
210.2394593431
 21
54.9154068466
 31
0.0
  0
LINE
  5
18D
330
1F
100
AcDbEntity
  8
0
  6
Continuous
 62
     7
370
    15
100
AcDbLine
 10
218.7512675546
 20
69.6598887286
 30
0.0
 11
218.5023608204
 21
69.8035795278
 31
0.0
  0
LWPOLYLINE
  5
18E
330
1F
100
AcDbEntity
  8
0
  6
Continuous
 62
     7
370
    15
100
AcDbPolyline
 90
        3
 70
   128
 43
0.0
 10
274.2870337932
 20
29.2085033093
 10
273.7932267911
 20
29.5501558528
 10
273.4785103261
 20
29.8474841081
  0
LINE
  5
18F
330
1F
100
AcDbEntity
  8
0
  6
Continuous
 62
     7
370
    15
100
AcDbLine
 10
275.34315681
 20
28.9904458757
 30
0.0
 11
275.2708455716
 21
28.9783203923
 31
0.0
  0
LWPOLYLINE
  5
190
330
1F
100
AcDbEntity
  8
0
  6
Continuous
 62
     7
370
    15
100
AcDbPolyline
 90
        9
 70
   128
 43
0.0
 10
279.5140523301
 20
34.3056456178
 10
279.8125201537
 20
33.6694112342
 10
280.0673906395
 20
32.9061496526
 10
280.2057595666
 20
32.1624153284
 10
280.2215795488
 20
31.4707130206
 10
280.114159177
 20
30.861273439
 10
279.8881932369
 20
30.3607320179
 10
279.5535575245
 20
29.9909648191
 10
279.4015812495
 20
29.8887531392
  0
LWPOLYLINE
  5
191
330
1F
100
AcDbEntity
  8
0
  6
Continuous
 62
     7
370
    15
100
AcDbPolyline
 90
       17
 70
   128
 43
0.0
 10
273.549655338
 20
46.4649440903
 10
272.9501870865
 20
46.7564051976
 10
272.2534023528
 20
46.9635519135
 10
271.4942408331
 20
47.0759970368
 10
270.710770056
 20
47.0881020995
 10
269.9422765176
 20
46.9992601031
 10
269.227295693
 20
46.8139259563
 10
268.6016797063
 20
46.5413930872
 10
268.0967995553
 20
46.1953274318
 10
267.7379720389
 20
45.7930821671
 10
267.5431902673
 20
45.3548275503
 10
267.5222214117
 20
44.9025394978
 10
267.6761169382
 20
44.4588976213
 10
267.9971598825
 20
44.0461479769
 10
268.4692518106
 20
43.6849875553
 10
269.0687200622
 20
43.393526448
 10
269.2533907399
 20
43.3271808374
  0
LWPOLYLINE
  5
192
330
1F
100
AcDbEntity
  8
0
  6
Continuous
 62
     7
370
    15
100
AcDbPolyline
 90
        8
 70
   128
 43
0.0
 10
273.5928552994
 20
43.7117799413
 10
273.9221075934
 20
43.9546042138
 10
274.2809351098
 20
44.3568494785
 10
274.4757168814
 20
44.7951040953
 10
274.4966857369
 20
45.2473921478
 10
274.3427902104
 20
45.6910340243
 10
274.0217472662
 20
46.1037836687
 10
273.549655338
 20
46.4649440903
  0
LWPOLYLINE
  5
193
330
1F
100
AcDbEntity
  8
0
  6
Continuous
 62
     7
370
    15
100
AcDbPolyline
 90
       24
 70
   128
 43
0.0
 10
272.7150176157
 20
46.0082369453
 10
272.2156042185
 20
46.2392709351
 10
271.6267361457
 20
46.3839537412
 10
270.9920870486
 20
46.4315549015
 10
270.3587259472
 20
46.3785440558
 10
269.773626337
 20
46.2288527761
 10
269.2801823795
 20
45.9935829798
 10
268.9149905556
 20
45.6901835513
 10
268.7051354723
 20
45.3411562383
 10
268.6661811211
 20
44.9723867999
 10
268.8010165679
 20
44.6112251784
 10
269.0996416846
 20
44.284457079
 10
269.5399088124
 20
44.0163173968
 10
270.0891653524
 20
43.8266928254
 10
270.7066754598
 20
43.7296469517
 10
271.3466412349
 20
43.7323772243
 10
271.9615993437
 20
43.8346811513
 10
272.5059411565
 20
44.0289713184
 10
272.9392953314
 20
44.3008381128
 10
273.2295219716
 20
44.6301184181
 10
273.3550962949
 20
44.9923910204
 10
273.3067050282
 20
45.3607878179
 10
273.0879371304
 20
45.7079865057
 10
272.7150176157
 20
46.0082369453
  0
SPLINE
  5
194
330
1F
100
AcDbEntity
  8
0
  6
Continuous
 62
     7
370
    15
100
AcDbSpline
210
0.0
220
0.0
230
1.0
 70
     8
 71
     3
 72
    11
 73
     7
 74
     0
 42
0.000000001
 43
0.00000001
 40
0.0
 40
0.0
 40
0.0
 40
0.0
 40
0.216456724493423
 40
0.440314160093923
 40
0.7519028444798833
 40
1.0
 40
1.0
 40
1.0
 40
1.0
 10
271.6666380730973
 20
46.31988396983764
 30
0.0
 10
271.5127905500726
 20
46.23946623977871
 30
0.0
 10
271.1998354176242
 20
46.07588127677781
 30
0.0
 10
270.6190759498534
 20
45.89530931598011
 30
0.0
 10
269.9961110247235
 20
45.86965641953781
 30
0.0
 10
269.5974520978081
 20
45.96648437391858
 30
0.0
 10
269.4207348419149
 20
46.00940620317324
 30
0.0
  0
SPLINE
  5
195
330
1F
100
AcDbEntity
  8
0
  6
Continuous
 62
     7
370
    15
100
AcDbSpline
210
0.0
220
0.0
230
1.0
 70
     8
 71
     3
 72
    15
 73
    11
 74
     0
 42
0.000000001
 43
0.00000001
 40
0.0
 40
0.0
 40
0.0
 40
0.0
 40
0.1077876272349493
 40
0.2161715306054503
 40
0.3273171517400189
 40
0.4399627424889998
 40
0.5934928709186007
 40
0.7521540590170601
 40
0.8755093692874082
 40
1.0
 40
1.0
 40
1.0
 40
1.0
 10
269.4207348419149
 20
46.00940620317324
 30
0.0
 10
269.3984859187647
 20
45.93559125346418
 30
0.0
 10
269.353864992457
 20
45.78755301318091
 30
0.0
 10
269.2835161540297
 20
45.57623396984085
 30
0.0
 10
269.2099623626398
 20
45.3769568175751
 30
0.0
 10
269.1242675845606
 20
45.17575359428108
 30
0.0
 10
269.0265067556967
 20
44.99128499798751
 30
0.0
 10
268.9285337123748
 20
44.85952383236035
 30
0.0
 10
268.8405189285609
 20
44.77607719407553
 30
0.0
 10
268.7892847685949
 20
44.74629612350819
 30
0.0
 10
268.7635503431575
 20
44.73133737839613
 30
0.0
  0
SPLINE
  5
196
330
1F
100
AcDbEntity
  8
0
  6
Continuous
 62
     7
370
    15
100
AcDbSpline
210
0.0
220
0.0
230
1.0
 70
     8
 71
     3
 72
    14
 73
    10
 74
     0
 42
0.000000001
 43
0.00000001
 40
0.0
 40
0.0
 40
0.0
 40
0.0
 40
0.1758400821740705
 40
0.3523431169358701
 40
0.5093550767711561
 40
0.6673235941192738
 40
0.8289801837190927
 40
0.9922272097070958
 40
1.0
 40
1.0
 40
1.0
 40
1.0
 10
268.7635503431575
 20
44.73133737839613
 30
0.0
 10
268.809313690515
 20
44.67730628346641
 30
0.0
 10
268.9010129222827
 20
44.56904038547761
 30
0.0
 10
269.0382022272297
 20
44.42192182737162
 30
0.0
 10
269.1737678815339
 20
44.28913704398675
 30
0.0
 10
269.3082188726675
 20
44.17079147175873
 30
0.0
 10
269.4466199601603
 20
44.06639263599951
 30
0.0
 10
269.5430099440078
 20
44.00035875498664
 30
0.0
 10
269.5922636982913
 20
43.97474712922443
 30
0.0
 10
269.5945022640407
 20
43.97358308987251
 30
0.0
  0
SPLINE
  5
197
330
1F
100
AcDbEntity
  8
0
  6
Continuous
 62
     7
370
    15
100
AcDbSpline
210
0.0
220
0.0
230
1.0
 70
     8
 71
     3
 72
    11
 73
     7
 74
     0
 42
0.000000001
 43
0.00000001
 40
0.0
 40
0.0
 40
0.0
 40
0.0
 40
0.2164567244934123
 40
0.4403141600939209
 40
0.7519028444798779
 40
0.9999999999999999
 40
0.9999999999999999
 40
0.9999999999999999
 40
0.9999999999999999
 10
272.5981723067647
 20
44.07422408694782
 30
0.0
 10
272.6431903671603
 20
44.10262402761906
 30
0.0
 10
272.7347656670202
 20
44.16039491024074
 30
0.0
 10
272.9047044757928
 20
44.39059909516735
 30
0.0
 10
273.0869932255397
 20
44.80557462592651
 30
0.0
 10
273.2036467230825
 20
45.18437745380438
 30
0.0
 10
273.2553568055221
 20
45.35229291172493
 30
0.0
  0
SPLINE
  5
198
330
1F
100
AcDbEntity
  8
0
  6
Continuous
 62
     7
370
    15
100
AcDbSpline
210
0.0
220
0.0
230
1.0
 70
     8
 71
     3
 72
    13
 73
     9
 74
     0
 42
0.000000001
 43
0.00000001
 40
0.0
 40
0.0
 40
0.0
 40
0.0
 40
0.1320192456275734
 40
0.3044334855253379
 40
0.4820104251411991
 40
0.646103185356302
 40
0.8160001954206368
 40
1.0
 40
1.0
 40
1.0
 40
1.0
 10
273.2553568055221
 20
45.35229291172493
 30
0.0
 10
273.189365395086
 20
45.35541444058596
 30
0.0
 10
273.0371906496669
 20
45.36261261769124
 30
0.0
 10
272.7822241189505
 20
45.42131076604294
 30
0.0
 10
272.4985487001636
 20
45.549153872571
 30
0.0
 10
272.2149633565514
 20
45.74915944159341
 30
0.0
 10
271.9367071168964
 20
46.00663538390964
 30
0.0
 10
271.7590213480726
 20
46.21273014782857
 30
0.0
 10
271.6666380730973
 20
46.31988396983764
 30
0.0
  0
LINE
  5
199
330
1F
100
AcDbEntity
  8
0
  6
Continuous
 62
     7
370
    15
100
AcDbLine
 10
269.4207348419
 20
44.0877706523
 30
0.0
 11
269.4207348419
 21
46.0094062032
 31
0.0
  0
LINE
  5
19A
330
1F
100
AcDbEntity
  8
0
  6
Continuous
 62
     7
370
    15
100
AcDbLine
 10
271.6666380731
 20
43.7724675262
 30
0.0
 11
271.6666380731
 21
46.3198839698
 31
0.0
  0
LWPOLYLINE
  5
19B
330
1F
100
AcDbEntity
  8
0
  6
Continuous
 62
     7
370
    15
100
AcDbPolyline
 90
       67
 70
   128
 43
0.0
 10
277.3910922745
 20
41.9829163068
 10
276.0736827274
 20
41.1499237071
 10
274.7682038451
 20
40.1795383047
 10
273.4864782466
 20
39.0805480599
 10
272.2401134374
 20
37.8629055988
 10
271.0403966902
 20
36.5376380798
 10
269.8981928257
 20
35.116747331
 10
268.8238458188
 20
33.613101159
 10
267.8270851225
 20
32.0403168163
 10
266.916937556
 20
30.4126376816
 10
266.1016455566
 20
28.744804269
 10
265.3885925349
 20
27.0519207363
 10
264.7842360095
 20
25.3493180989
 10
264.2940491266
 20
23.65241539
 10
263.9224710946
 20
21.9765800231
 10
263.6728669817
 20
20.336988623
 10
263.5474972413
 20
18.7484895832
 10
263.5474972413
 20
17.225468597
 10
263.6728669817
 20
15.7817183784
 10
263.9224710946
 20
14.4303137528
 10
264.2940491266
 20
13.1834932498
 10
264.7842360095
 20
12.0525482691
 10
265.3885925349
 20
11.0477208234
 10
266.1016455566
 20
10.1781107857
 10
266.916937556
 20
9.4515934792
 10
267.8270851225
 20
8.874748357
 10
268.8238458188
 20
8.4527994181
 10
269.8981928257
 20
8.1895678972
 10
271.0403966902
 20
8.0874376598
 10
272.2401134374
 20
8.1473336132
 10
273.4864782466
 20
8.3687133303
 10
274.7682038451
 20
8.7495719621
 10
276.0736827274
 20
9.2864603939
 10
277.3910922745
 20
9.9745164809
 10
278.7085018217
 20
10.8075090806
 10
280.013980704
 20
11.7778944831
 10
281.2957063025
 20
12.8768847278
 10
282.5420711117
 20
14.094527189
 10
283.7417878589
 20
15.4197947079
 10
284.8839917234
 20
16.8406854567
 10
285.9583387303
 20
18.3443316287
 10
286.9550994266
 20
19.9171159714
 10
287.8652469931
 20
21.5447951061
 10
288.6805389925
 20
23.2126285187
 10
289.3935920142
 20
24.9055120514
 10
289.9979485396
 20
26.6081146888
 10
290.4881354225
 20
28.3050173978
 10
290.8597134545
 20
29.9808527646
 10
291.1093175674
 20
31.6204441648
 10
291.2346873078
 20
33.2089432045
 10
291.2346873078
 20
34.7319641907
 10
291.1093175674
 20
36.1757144094
 10
290.8597134545
 20
37.5271190349
 10
290.4881354225
 20
38.7739395379
 10
289.9979485396
 20
39.9048845186
 10
289.3935920142
 20
40.9097119643
 10
288.6805389925
 20
41.779322002
 10
287.8652469931
 20
42.5058393086
 10
286.9550994266
 20
43.0826844307
 10
285.9583387303
 20
43.5046333696
 10
284.8839917234
 20
43.7678648905
 10
283.7417878589
 20
43.8699951279
 10
282.5420711117
 20
43.8100991745
 10
281.2957063025
 20
43.5887194574
 10
280.013980704
 20
43.2078608256
 10
278.7085018217
 20
42.6709723938
 10
277.3910922745
 20
41.9829163068
  0
LWPOLYLINE
  5
19C
330
1F
100
AcDbEntity
  8
0
  6
Continuous
 62
     7
370
    15
100
AcDbPolyline
 90
       35
 70
   128
 43
0.0
 10
277.1082495621
 20
42.4728142539
 10
275.7839589171
 20
41.6365596372
 10
274.4713061859
 20
40.6641382558
 10
273.1818270079
 20
39.5640957838
 10
271.9268533725
 20
38.3460994341
 10
270.7174140331
 20
37.0208530022
 10
269.5641375861
 20
35.6000028016
 10
268.4771590664
 20
34.0960353149
 10
267.4660308804
 20
32.5221674624
 10
266.5396388588
 20
30.8922304513
 10
265.7061241681
 20
29.2205482269
 10
264.9728117653
 20
27.5218115925
 10
264.3461460262
 20
25.8109491068
 10
263.8316341119
 20
24.1029958908
 10
263.4337975716
 20
22.4129614987
 10
263.156132607
 20
20.7556980137
 10
263.0010793478
 20
19.1457695268
 10
262.9700004078
 20
17.5973241474
 10
263.0631689097
 20
16.1239696692
 10
263.2797660853
 20
14.7386539843
 10
263.617888471
 20
13.4535512968
 10
264.074564635
 20
12.2799551353
 10
264.6457812908
 20
11.228179105
 10
265.3265185659
 20
10.3074662516
 10
266.1107941165
 20
9.5259078327
 10
266.9917157011
 20
8.8903722118
 10
267.961541749
 20
8.4064444987
 10
269.011749394
 20
8.0783774677
 10
270.1331093736
 20
7.9090541835
 10
271.315767136
 20
7.8999626654
 10
272.5493294423
 20
8.0511828098
 10
273.8229557024
 20
8.3613856887
 10
275.1254532432
 20
8.8278452281
 10
276.4453756692
 20
9.4464621647
 10
277.1105480568
 20
9.812508887
  0
LWPOLYLINE
  5
19D
330
1F
100
AcDbEntity
  8
0
  6
Continuous
 62
     7
370
    15
100
AcDbPolyline
 90
       18
 70
   128
 43
0.0
 10
291.2503851858
 20
34.3060791345
 10
291.2154197763
 20
35.4335615608
 10
291.0603665172
 20
36.8644693653
 10
290.7827015526
 20
38.201147706
 10
290.3848650122
 20
39.4318498057
 10
289.8703530979
 20
40.5457602099
 10
289.2436873588
 20
41.5330898342
 10
288.5103749561
 20
42.3851619901
 10
287.6768602653
 20
43.094488637
 10
286.7504682438
 20
43.6548361867
 10
285.7393400577
 20
44.0612802849
 10
284.652361538
 20
44.3102490863
 10
283.4990850911
 20
44.3995546439
 10
282.2896457517
 20
44.3284121375
 10
281.0346721163
 20
44.0974467698
 10
279.7451929383
 20
43.7086882729
 10
278.4325402071
 20
43.1655530704
 10
277.1082495621
 20
42.4728142539
  0
ELLIPSE
  5
19E
330
1F
100
AcDbEntity
  8
0
  6
Continuous
 62
     7
370
    15
100
AcDbEllipse
 10
259.483613041
 20
36.3164841098
 30
0.0
 11
-14.14271023575006
 21
24.49456561252446
 31
0.0
210
0.0
220
0.0
230
1.0
 40
0.5773346305
 41
1.897804852585475
 42
2.005578828433745
  0
LINE
  5
19F
330
1F
100
AcDbEntity
  8
0
  6
Continuous
 62
     7
370
    15
100
AcDbLine
 10
250.6342505428
 20
20.716159045
 30
0.0
 11
250.9878039334
 21
20.5120570171
 31
0.0
  0
SPLINE
  5
1A0
330
1F
100
AcDbEntity
  8
0
  6
Continuous
 62
     7
370
    15
100
AcDbSpline
210
0.0
220
0.0
230
1.0
 70
     8
 71
     3
 72
    54
 73
    50
 74
     0
 42
0.000000001
 43
0.00000001
 40
0.0
 40
0.0
 40
0.0
 40
0.0
 40
0.0625000000000003
 40
0.0625000000000003
 40
0.0937500000000004
 40
0.0937500000000004
 40
0.1250000000000005
 40
0.1250000000000005
 40
0.1875000000000005
 40
0.1875000000000005
 40
0.2187500000000005
 40
0.2187500000000005
 40
0.2500000000000004
 40
0.2500000000000004
 40
0.3125000000000003
 40
0.3125000000000003
 40
0.3750000000000002
 40
0.3750000000000002
 40
0.4062500000000002
 40
0.4062500000000002
 40
0.4375000000000002
 40
0.4375000000000002
 40
0.5000000000000002
 40
0.5000000000000002
 40
0.5312500000000002
 40
0.5312500000000002
 40
0.5625000000000002
 40
0.5625000000000002
 40
0.6250000000000003
 40
0.6250000000000003
 40
0.6562500000000002
 40
0.6562500000000002
 40
0.6875000000000001
 40
0.6875000000000001
 40
0.71875
 40
0.71875
 40
0.7499999999999999
 40
0.7499999999999999
 40
0.8125000000000001
 40
0.8125000000000001
 40
0.8437500000000001
 40
0.8437500000000001
 40
0.8750000000000001
 40
0.8750000000000001
 40
0.9375000000000002
 40
0.9375000000000002
 40
0.9687500000000001
 40
0.9687500000000001
 40
1.0
 40
1.0
 40
1.0
 40
1.0
 10
250.9878039334416
 20
31.00460644979369
 30
0.0
 10
251.290049703695
 20
30.83012368059652
 30
0.0
 10
251.5765824754246
 20
30.61842063693675
 30
0.0
 10
251.9849311653188
 20
30.24821480974731
 30
0.0
 10
252.1174633825943
 20
30.11597974026737
 30
0.0
 10
252.3756194955376
 20
29.83369367170059
 30
0.0
 10
252.5010971420655
 20
29.68362187364251
 30
0.0
 10
252.8595949690683
 20
29.21726420958736
 30
0.0
 10
253.0778344735774
 20
28.88184454540892
 30
0.0
 10
253.3785319017892
 20
28.34397334808827
 30
0.0
 10
253.4747471387628
 20
28.15783343448018
 30
0.0
 10
253.6555906283234
 20
27.78036180050218
 30
0.0
 10
253.7404170112597
 20
27.58884385550483
 30
0.0
 10
253.9796388152997
 20
27.00652732088377
 30
0.0
 10
254.1189310625634
 20
26.60804595196307
 30
0.0
 10
254.3611458579099
 20
25.79158803067642
 30
0.0
 10
254.4603645767896
 20
25.38603097277902
 30
0.0
 10
254.5799884684475
 20
24.78544297869932
 30
0.0
 10
254.6149853685848
 20
24.58639861908562
 30
0.0
 10
254.6753624691713
 20
24.19085291196032
 30
0.0
 10
254.7008149467614
 20
23.99333986346236
 30
0.0
 10
254.7612405143099
 20
23.41765680116281
 30
0.0
 10
254.7811418824988
 20
23.0532485865736
 30
0.0
 10
254.7814560072788
 20
22.53583033279853
 30
0.0
 10
254.776565701618
 20
22.36791082299147
 30
0.0
 10
254.7564674583905
 20
22.04363995387243
 30
0.0
 10
254.741418125145
 20
21.88947493521085
 30
0.0
 10
254.6815569623979
 20
21.44981565543136
 30
0.0
 10
254.6222358937941
 20
21.18697724635232
 30
0.0
 10
254.5015830124396
 20
20.83733681926682
 30
0.0
 10
254.4561992323138
 20
20.72899318447784
 30
0.0
 10
254.3562606559863
 20
20.53126439952186
 30
0.0
 10
254.3015247373977
 20
20.44132907901809
 30
0.0
 10
254.1820745480605
 20
20.27864648419555
 30
0.0
 10
254.1173615974142
 20
20.20589993884273
 30
0.0
 10
253.9771377125341
 20
20.0774213382178
 30
0.0
 10
253.9012637019033
 20
20.02157160001074
 30
0.0
 10
253.6606584351566
 20
19.88241847390083
 30
0.0
 10
253.4821099670368
 20
19.82590988650277
 30
0.0
 10
253.1827457053496
 20
19.79260963212855
 30
0.0
 10
253.0774933644701
 20
19.79016545171371
 30
0.0
 10
252.8559100777427
 20
19.80288546941176
 30
0.0
 10
252.74112673916
 20
19.81793290708841
 30
0.0
 10
252.3841833352771
 20
19.88790764885807
 30
0.0
 10
252.1295094149299
 20
19.96739543939591
 30
0.0
 10
251.7186587180068
 20
20.13607366107493
 30
0.0
 10
251.5764635470454
 20
20.20086748763521
 30
0.0
 10
251.286868701835
 20
20.34514327853088
 30
0.0
 10
251.1389404694934
 20
20.42480775195187
 30
0.0
 10
250.9878039334416
 20
20.5120570170618
 30
0.0
  0
LINE
  5
1A1
330
1F
100
AcDbEntity
  8
0
  6
Continuous
 62
     7
370
    15
100
AcDbLine
 10
250.9878039334
 20
31.0046064498
 30
0.0
 11
250.6342505428
 21
31.2087084777
 31
0.0
  0
ELLIPSE
  5
1A2
330
1F
100
AcDbEntity
  8
0
  6
Continuous
 62
     7
370
    15
100
AcDbEllipse
 10
259.483613041
 20
36.3164841098
 30
0.0
 11
19.99999990717754
 21
11.5476309266586
 31
0.0
210
0.0
220
0.0
230
1.0
 40
0.0000703729
 41
1.921330725715737
 42
2.029104701844858
  0
SPLINE
  5
1A3
330
1F
100
AcDbEntity
  8
0
  6
Continuous
 62
     7
370
    15
100
AcDbSpline
210
0.0
220
0.0
230
1.0
 70
    11
 71
     3
 72
    96
 73
    92
 74
     0
 42
0.000000001
 43
0.00000001
 40
0.0
 40
0.0
 40
0.0
 40
0.0
 40
0.0312499999999997
 40
0.0312499999999997
 40
0.0468749999999995
 40
0.0468749999999995
 40
0.0624999999999993
 40
0.0624999999999993
 40
0.093749999999999
 40
0.093749999999999
 40
0.109374999999999
 40
0.109374999999999
 40
0.124999999999999
 40
0.124999999999999
 40
0.1562499999999994
 40
0.1562499999999994
 40
0.1718749999999996
 40
0.1718749999999996
 40
0.1874999999999998
 40
0.1874999999999998
 40
0.2187500000000002
 40
0.2187500000000002
 40
0.2500000000000006
 40
0.2500000000000006
 40
0.2812500000000009
 40
0.2812500000000009
 40
0.296875000000001
 40
0.296875000000001
 40
0.3125000000000011
 40
0.3125000000000011
 40
0.343750000000001
 40
0.343750000000001
 40
0.3593750000000009
 40
0.3593750000000009
 40
0.3750000000000009
 40
0.3750000000000009
 40
0.3906250000000008
 40
0.3906250000000008
 40
0.4062500000000008
 40
0.4062500000000008
 40
0.4375000000000006
 40
0.4375000000000006
 40
0.4531250000000006
 40
0.4531250000000006
 40
0.4687500000000005
 40
0.4687500000000005
 40
0.5000000000000007
 40
0.5000000000000007
 40
0.5312500000000009
 40
0.5312500000000009
 40
0.546875000000001
 40
0.546875000000001
 40
0.5625000000000012
 40
0.5625000000000012
 40
0.5937500000000012
 40
0.5937500000000012
 40
0.6250000000000012
 40
0.6250000000000012
 40
0.6562500000000012
 40
0.6562500000000012
 40
0.6875000000000012
 40
0.6875000000000012
 40
0.7031250000000011
 40
0.7031250000000011
 40
0.7187500000000011
 40
0.7187500000000011
 40
0.7500000000000009
 40
0.7500000000000009
 40
0.7656250000000008
 40
0.7656250000000008
 40
0.7812500000000008
 40
0.7812500000000008
 40
0.8125000000000007
 40
0.8125000000000007
 40
0.8281250000000006
 40
0.8281250000000006
 40
0.8437500000000006
 40
0.8437500000000006
 40
0.8750000000000004
 40
0.8750000000000004
 40
0.8906250000000003
 40
0.8906250000000003
 40
0.9062500000000003
 40
0.9062500000000003
 40
0.9218750000000002
 40
0.9218750000000002
 40
0.9375000000000002
 40
0.9375000000000002
 40
0.9687500000000001
 40
0.9687500000000001
 40
1.0
 40
1.0
 40
1.0
 40
1.0
 10
270.9832860625052
 20
48.38497893809139
 30
0.0
 10
271.2794342234363
 20
48.34374438850385
 30
0.0
 10
271.5681430594688
 20
48.28753362338717
 30
0.0
 10
271.9912287340081
 20
48.18457814984966
 30
0.0
 10
272.1305791371248
 20
48.14711897510499
 30
0.0
 10
272.405959557363
 20
48.06620684668334
 30
0.0
 10
272.5426386537681
 20
48.02251912561083
 30
0.0
 10
272.9419052910476
 20
47.88462420684688
 30
0.0
 10
273.193736835399
 20
47.78388371286362
 30
0.0
 10
273.5508872769374
 20
47.62106477198311
 30
0.0
 10
273.6664807594119
 20
47.56481909050479
 30
0.0
 10
273.8906293030571
 20
47.4483890837051
 30
0.0
 10
273.9992600500453
 20
47.38811383840236
 30
0.0
 10
274.3083581561505
 20
47.20483504043835
 30
0.0
 10
274.4943851079328
 20
47.07834020019677
 30
0.0
 10
274.7435810785196
 20
46.88173257766181
 30
0.0
 10
274.8216415304635
 20
46.81503837647514
 30
0.0
 10
274.9673906354549
 20
46.67908097549474
 30
0.0
 10
275.0347559345116
 20
46.61005156543393
 30
0.0
 10
275.2172065368033
 20
46.40281793756032
 30
0.0
 10
275.314207746902
 20
46.26324940918151
 30
0.0
 10
275.4576627999486
 20
45.97884542897534
 30
0.0
 10
275.5039885150033
 20
45.83250057315125
 30
0.0
 10
275.5384225182122
 20
45.54291164430369
 30
0.0
 10
275.5275792777076
 20
45.3987625181236
 30
0.0
 10
275.4664149757709
 20
45.18130598873133
 30
0.0
 10
275.4383219938518
 20
45.10828782682392
 30
0.0
 10
275.366527474009
 20
44.96292215013487
 30
0.0
 10
275.3232631002815
 20
44.89131475387553
 30
0.0
 10
275.1715134863751
 20
44.6792461613303
 30
0.0
 10
275.041328775608
 20
44.54148637534205
 30
0.0
 10
274.7987944767493
 20
44.33938535501851
 30
0.0
 10
274.7100386732092
 20
44.2729496011142
 30
0.0
 10
274.5214983023311
 20
44.14537922801286
 30
0.0
 10
274.421149571616
 20
44.08374903076403
 30
0.0
 10
274.2084079904579
 20
43.9647322250585
 30
0.0
 10
274.0960155579599
 20
43.9073453822546
 30
0.0
 10
273.8589169259394
 20
43.79696452161852
 30
0.0
 10
273.7341861719315
 20
43.74404807519775
 30
0.0
 10
273.3515490006748
 20
43.59620569921681
 30
0.0
 10
273.0821460968911
 20
43.51050262997284
 30
0.0
 10
272.6572152939001
 20
43.40191765608594
 30
0.0
 10
272.5129597895434
 20
43.36935436473748
 30
0.0
 10
272.2237474557386
 20
43.31237657174039
 30
0.0
 10
272.0781377420587
 20
43.28779220053889
 30
0.0
 10
271.6383555241399
 20
43.22579065787695
 30
0.0
 10
271.3385081592129
 20
43.20008987168512
 30
0.0
 10
270.7509614993144
 20
43.18304569698159
 30
0.0
 10
270.4617881062944
 20
43.19119308693331
 30
0.0
 10
270.0344401703189
 20
43.22943252685378
 30
0.0
 10
269.8927343907557
 20
43.24663724570793
 30
0.0
 10
269.616564717597
 20
43.28934319863626
 30
0.0
 10
269.4814731836634
 20
43.31487698222531
 30
0.0
 10
269.0848735622263
 20
43.40399520093836
 30
0.0
 10
268.8319637664747
 20
43.48000971552462
 30
0.0
 10
268.3494483239775
 20
43.66723233242277
 30
0.0
 10
268.1261332492941
 20
43.77606752922451
 30
0.0
 10
267.7156290652402
 20
44.02238571023829
 30
0.0
 10
267.5275013119836
 20
44.16055154349102
 30
0.0
 10
267.1912688386724
 20
44.46445852188555
 30
0.0
 10
267.0467304286063
 20
44.62673088712122
 30
0.0
 10
266.864631545587
 20
44.88427819974531
 30
0.0
 10
266.8097546073499
 20
44.9724945792297
 30
0.0
 10
266.712017456128
 20
45.1535657994104
 30
0.0
 10
266.6689806333632
 20
45.24691506949581
 30
0.0
 10
266.5604266816106
 20
45.529994224426
 30
0.0
 10
266.5153182126875
 20
45.72167519880637
 30
0.0
 10
266.4892165667438
 20
46.01184198652692
 30
0.0
 10
266.4874914172441
 20
46.10900814480836
 30
0.0
 10
266.4987701485376
 20
46.30394710823057
 30
0.0
 10
266.5119467636534
 20
46.40227315018061
 30
0.0
 10
266.5738185811268
 20
46.69108338609004
 30
0.0
 10
266.644349086535
 20
46.87685124953214
 30
0.0
 10
266.7959893594276
 20
47.14315916217142
 30
0.0
 10
266.8542326943911
 20
47.22986112784516
 30
0.0
 10
266.9872385557969
 20
47.39859500268042
 30
0.0
 10
267.0612581252326
 20
47.47955593658606
 30
0.0
 10
267.3025848289009
 20
47.70875131117582
 30
0.0
 10
267.4900779517557
 20
47.84486552771553
 30
0.0
 10
267.8129207390571
 20
48.02255919026888
 30
0.0
 10
267.9273352273738
 20
48.07710827130556
 30
0.0
 10
268.1638104584858
 20
48.17440749367229
 30
0.0
 10
268.2866007555698
 20
48.21758306543109
 30
0.0
 10
268.5410700275422
 20
48.29338507835936
 30
0.0
 10
268.6727492944227
 20
48.32601086741919
 30
0.0
 10
268.9450691512466
 20
48.38084335233948
 30
0.0
 10
269.0846386374795
 20
48.40277964694913
 30
0.0
 10
269.5071702951387
 20
48.45244012736965
 30
0.0
 10
269.7963264161987
 20
48.46466226975208
 30
0.0
 10
270.3892433612681
 20
48.45154212443325
 30
0.0
 10
270.6871379015739
 20
48.42621348767893
 30
0.0
 10
270.9832860625052
 20
48.38497893809139
 30
0.0
  0
SPLINE
  5
1A4
330
1F
100
AcDbEntity
  8
0
  6
Continuous
 62
     7
370
    15
100
AcDbSpline
210
0.0
220
0.0
230
1.0
 70
     8
 71
     3
 72
    10
 73
     6
 74
     0
 42
0.000000001
 43
0.00000001
 40
0.0
 40
0.0
 40
0.0
 40
0.0
 40
0.2757514325675287
 40
0.624593960520963
 40
1.0
 40
1.0
 40
1.0
 40
1.0
 10
280.6475491442543
 20
48.5350833095267
 30
0.0
 10
280.6686809100872
 20
48.54728201210673
 30
0.0
 10
280.7165456598422
 20
48.57491282398225
 30
0.0
 10
280.7577736795962
 20
48.59870703071234
 30
0.0
 10
280.7597478869311
 20
48.59984017939465
 30
0.0
 10
280.760771194936
 20
48.60042753417601
 30
0.0
  0
SPLINE
  5
1A5
330
1F
100
AcDbEntity
  8
0
  6
Continuous
 62
     7
370
    15
100
AcDbSpline
210
0.0
220
0.0
230
1.0
 70
     8
 71
     3
 72
     8
 73
     4
 74
     0
 42
0.000000001
 43
0.00000001
 40
0.0
 40
0.0
 40
0.0
 40
0.0
 40
1.0
 40
1.0
 40
1.0
 40
1.0
 10
280.7640656925811
 20
48.60232640663906
 30
0.0
 10
280.7598962181013
 20
48.59991345382157
 30
0.0
 10
280.744575699187
 20
48.59106260310637
 30
0.0
 10
280.7183465230725
 20
48.57591395634741
 30
0.0
  0
LWPOLYLINE
  5
1A6
330
1F
100
AcDbEntity
  8
0
  6
Continuous
 62
     7
370
    15
100
AcDbPolyline
 90
       17
 70
   128
 43
0.0
 10
248.2094106053
 20
30.1660209989
 10
248.588977618
 20
31.6065755033
 10
249.1794829447
 20
33.4734719124
 10
249.8803352034
 20
35.3404859151
 10
250.6864467233
 20
37.1940643653
 10
251.5919657286
 20
39.020751649
 10
252.5903188184
 20
40.8072873624
 10
253.6742586849
 20
42.5407025726
 10
254.8359167232
 20
44.208413962
 10
256.0668601519
 20
45.7983151749
 10
257.3581532285
 20
47.2988646997
 10
258.7004221167
 20
48.6991696524
 10
260.0839229333
 20
49.9890648507
 10
261.4986124816
 20
51.1591866059
 10
262.9342211579
 20
52.2010406961
 10
264.3803275007
 20
53.1070640282
 10
264.8333289415
 20
53.3616004438
  0
SPLINE
  5
1A7
330
1F
100
AcDbEntity
  8
0
  6
Continuous
 62
     7
370
    15
100
AcDbSpline
210
0.0
220
0.0
230
1.0
 70
     8
 71
     3
 72
    14
 73
    10
 74
     0
 42
0.000000001
 43
0.00000001
 40
0.0
 40
0.0
 40
0.0
 40
0.0
 40
0.25
 40
0.25
 40
0.5
 40
0.5
 40
0.75
 40
0.75
 40
1.0
 40
1.0
 40
1.0
 40
1.0
 10
247.6180444096475
 20
29.46751627994814
 30
0.0
 10
247.651045431763
 20
29.48657219140571
 30
0.0
 10
247.687272212098
 20
29.50749006753235
 30
0.0
 10
247.7656349871893
 20
29.55273672281224
 30
0.0
 10
247.8080064357506
 20
29.57720143289718
 30
0.0
 10
247.894924277414
 20
29.62738545244877
 30
0.0
 10
247.940739932661
 20
29.65383760270947
 30
0.0
 10
248.0306274662081
 20
29.70573353855977
 30
0.0
 10
248.0757217518511
 20
29.73176759572116
 30
0.0
 10
248.1131058571777
 20
29.75334898035349
 30
0.0
  0
LWPOLYLINE
  5
1A8
330
1F
100
AcDbEntity
  8
0
  6
Continuous
 62
     7
370
    15
100
AcDbPolyline
 90
       13
 70
   128
 43
0.0
 10
268.6557083412
 20
55.377177451
 10
269.9905188483
 20
55.6630978485
 10
271.3643580906
 20
55.8068799841
 10
272.684597905
 20
55.7853482096
 10
273.9414047035
 20
55.5986629009
 10
275.1254173684
 20
55.2482145526
 10
276.227816977
 20
54.7366134213
 10
277.2403924881
 20
54.0676700836
 10
278.1556019003
 20
53.2463670532
 10
278.9666284276
 20
52.2788216701
 10
279.667431273
 20
51.1722405361
 10
280.2527906223
 20
49.9348658378
 10
280.6348316767
 20
48.8575011636
  0
ELLIPSE
  5
1A9
330
1F
100
AcDbEntity
  8
0
  6
Continuous
 62
     7
370
    15
100
AcDbEllipse
 10
265.0344012733
 20
33.1120822709
 30
0.0
 11
-17.20107132423169
 21
29.79151542623312
 31
0.0
210
0.0
220
0.0
230
1.0
 40
0.5773346305
 41
1.294917495320743
 42
1.303452308812382
  0
ARC
  5
1AA
330
1F
100
AcDbEntity
  8
0
  6
Continuous
 62
     7
370
    15
100
AcDbCircle
 10
267.8628436498
 20
48.315760678
 30
0.0
 40
9.747167023489839
100
AcDbArc
 50
61.5164487183
 51
108.0832840909
  0
ELLIPSE
  5
1AB
330
1F
100
AcDbEntity
  8
0
  6
Continuous
 62
     7
370
    15
100
AcDbEllipse
 10
259.483613041
 20
36.3164841098
 30
0.0
 11
24.32500000218528
 21
14.04480618099315
 31
0.0
210
0.0
220
0.0
230
1.0
 40
0.0000703729
 41
5.765049897445667
 42
5.773584710948793
  0
ELLIPSE
  5
1AC
330
1F
100
AcDbEntity
  8
0
  6
Continuous
 62
     7
370
    15
100
AcDbEllipse
 10
259.483613041
 20
36.3164841098
 30
0.0
 11
24.32499995420591
 21
14.04480615329152
 31
0.0
210
0.0
220
0.0
230
1.0
 40
0.0000703729
 41
2.080315659160288
 42
2.088850472654186
  0
LINE
  5
1AD
330
1F
100
AcDbEntity
  8
0
  6
Continuous
 62
     7
370
    15
100
AcDbLine
 10
247.4372442795
 20
29.3631160465
 30
0.0
 11
243.9017103736
 21
31.404136326
 31
0.0
  0
LINE
  5
1AE
330
1F
100
AcDbEntity
  8
0
  6
Continuous
 62
     7
370
    15
100
AcDbLine
 10
279.4844426019
 20
47.8636361948
 30
0.0
 11
280.6475491443
 21
48.5350833095
 31
0.0
  0
LINE
  5
1AF
330
1F
100
AcDbEntity
  8
0
  6
Continuous
 62
     7
370
    15
100
AcDbLine
 10
248.1131058572
 20
29.7533489804
 30
0.0
 11
249.9877187205
 21
30.8355399513
 31
0.0
  0
SPLINE
  5
1B0
330
1F
100
AcDbEntity
  8
0
  6
Continuous
 62
     7
370
    15
100
AcDbSpline
210
0.0
220
0.0
230
1.0
 70
     8
 71
     3
 72
    20
 73
    16
 74
     0
 42
0.000000001
 43
0.00000001
 40
0.0
 40
0.0
 40
0.0
 40
0.0
 40
0.2500000000000007
 40
0.2500000000000007
 40
0.3750000000000006
 40
0.3750000000000006
 40
0.5000000000000004
 40
0.5000000000000004
 40
0.6250000000000003
 40
0.6250000000000003
 40
0.7500000000000002
 40
0.7500000000000002
 40
0.8750000000000002
 40
0.8750000000000002
 40
1.0
 40
1.0
 40
1.0
 40
1.0
 10
252.6148546816057
 20
32.35235230968591
 30
0.0
 10
252.4254933740311
 20
32.24301208777809
 30
0.0
 10
252.2239733313297
 20
32.12665414029898
 30
0.0
 10
251.9061115459175
 20
31.94312382928334
 30
0.0
 10
251.7974820670925
 20
31.88040279649126
 30
0.0
 10
251.5744226986086
 20
31.75161287514687
 30
0.0
 10
251.4608036726958
 20
31.6860121680352
 30
0.0
 10
251.2322029814368
 20
31.55402529475879
 30
0.0
 10
251.1167730894747
 20
31.48738032823156
 30
0.0
 10
250.8831688619355
 20
31.35250738172096
 30
0.0
 10
250.7642898766522
 20
31.28387258312831
 30
0.0
 10
250.5308860899816
 20
31.1491188215903
 30
0.0
 10
250.4146248449107
 20
31.08199732540141
 30
0.0
 10
250.1905218185103
 20
30.95261787072483
 30
0.0
 10
250.0847732900169
 20
30.89156836165084
 30
0.0
 10
249.9877187205121
 20
30.83553995127397
 30
0.0
  0
ARC
  5
1B1
330
1F
100
AcDbEntity
  8
0
  6
Continuous
 62
     7
370
    15
100
AcDbCircle
 10
283.9116638564
 20
22.2131744185
 30
0.0
 40
41.32369877705757
100
AcDbArc
 50
143.7766069931
 51
155.2144421592
  0
SPLINE
  5
1B2
330
1F
100
AcDbEntity
  8
0
  6
Continuous
 62
     7
370
    15
100
AcDbSpline
210
0.0
220
0.0
230
1.0
 70
     8
 71
     3
 72
    15
 73
    11
 74
     0
 42
0.000000001
 43
0.00000001
 40
0.0
 40
0.0
 40
0.0
 40
0.0
 40
0.1783609512483414
 40
0.2682756494835311
 40
0.3567687416651915
 40
0.54429707462754
 40
0.6957508197343972
 40
0.7719716198439591
 40
0.8472831767607819
 40
1.0
 40
1.0
 40
1.0
 40
1.0
 10
243.7996677912402
 20
31.67181818186944
 30
0.0
 10
243.7920881997489
 20
31.69356483255586
 30
0.0
 10
243.7806876111342
 20
31.7262743286432
 30
0.0
 10
243.7698038501699
 20
31.77054175969574
 30
0.0
 10
243.7606135642216
 20
31.81607573100109
 30
0.0
 10
243.7539158971143
 20
31.86942252033756
 30
0.0
 10
243.7523326037406
 20
31.92071241159322
 30
0.0
 10
243.7538283537016
 20
31.95755987727084
 30
0.0
 10
243.7569207975928
 20
31.99417047636691
 30
0.0
 10
243.762262258991
 20
32.02053687868106
 30
0.0
 10
243.765839581321
 20
32.03819517717405
 30
0.0
  0
LWPOLYLINE
  5
1B3
330
1F
100
AcDbEntity
  8
0
  6
Continuous
 62
     7
370
    15
100
AcDbPolyline
 90
        8
 70
   128
 43
0.0
 10
268.4461914925
 20
46.5547055255
 10
267.9400783521
 20
46.1883323011
 10
267.587876502
 20
45.7661302324
 10
267.4072468135
 20
45.3092702942
 10
267.4072468135
 20
44.8406613514
 10
267.587876502
 20
44.3838014132
 10
267.9400783521
 20
43.9615993446
 10
268.4457749919
 20
43.5954665999
  0
LWPOLYLINE
  5
1B4
330
1F
100
AcDbEntity
  8
0
  6
Continuous
 62
     7
370
    15
100
AcDbPolyline
 90
       15
 70
   128
 43
0.0
 10
273.5731321568
 20
43.5954665999
 10
274.0788287965
 20
43.9615993446
 10
274.4310306467
 20
44.3838014132
 10
274.6116603352
 20
44.8406613514
 10
274.6116603352
 20
45.3092702942
 10
274.4310306467
 20
45.7661302324
 10
274.0788287965
 20
46.1883323011
 10
273.5727156561
 20
46.5547055255
 10
272.9380698517
 20
46.8468784224
 10
272.2067151739
 20
47.0502002226
 10
271.4153248002
 20
47.1544755222
 10
270.6035823485
 20
47.1544755222
 10
269.8121919748
 20
47.0502002226
 10
269.080837297
 20
46.8468784224
 10
268.4461914925
 20
46.5547055255
  0
LINE
  5
1B5
330
1F
100
AcDbEntity
  8
0
  6
Continuous
 62
     7
370
    15
100
AcDbLine
 10
281.5371731808
 20
33.9772581832
 30
0.0
 11
281.4446349174
 21
34.0285262706
 31
0.0
  0
LINE
  5
1B6
330
1F
100
AcDbEntity
  8
0
  6
Continuous
 62
     7
370
    15
100
AcDbLine
 10
250.6342505428
 20
31.2087084777
 30
0.0
 11
247.4372442795
 21
29.3631160465
 31
0.0
  0
ARC
  5
1B7
330
1F
100
AcDbEntity
  8
0
  6
Continuous
 62
     7
370
    15
100
AcDbCircle
 10
262.2632377217
 20
28.5941117352
 30
0.0
 40
14.83050260470786
100
AcDbArc
 50
176.9921570066
 51
191.4514724325
  0
LINE
  5
1B8
330
1F
100
AcDbEntity
  8
0
  6
Continuous
 62
     7
370
    15
100
AcDbLine
 10
247.7279628038
 20
25.6496948882
 30
0.0
 11
247.7279628038
 21
24.2751321449
 31
0.0
  0
LINE
  5
1B9
330
1F
100
AcDbEntity
  8
0
  6
Continuous
 62
     7
370
    15
100
AcDbLine
 10
247.7279628038
 20
29.5309442782
 30
0.0
 11
247.7279628038
 21
25.6496948882
 31
0.0
  0
LINE
  5
1BA
330
1F
100
AcDbEntity
  8
0
  6
Continuous
 62
     7
370
    15
100
AcDbLine
 10
246.6584637972
 20
29.4637585212
 30
0.0
 11
246.6620738605
 21
29.8106124042
 31
0.0
  0
ARC
  5
1BB
330
1F
100
AcDbEntity
  8
0
  6
Continuous
 62
     7
370
    15
100
AcDbCircle
 10
258.2148620683
 20
29.1425171482
 30
0.0
 40
11.56086229563966
100
AcDbArc
 50
178.40771875
 51
204.8918965601
  0
LINE
  5
1BC
330
1F
100
AcDbEntity
  8
0
  6
Continuous
 62
     7
370
    15
100
AcDbLine
 10
228.1747507634
 20
66.0681927081
 30
0.0
 11
228.2767322105
 21
66.0331984908
 31
0.0
  0
LINE
  5
1BD
330
1F
100
AcDbEntity
  8
0
  6
Continuous
 62
     7
370
    15
100
AcDbLine
 10
218.1436014517
 20
48.4801992728
 30
0.0
 11
218.0496654042
 21
48.5624144912
 31
0.0
  0
ELLIPSE
  5
1BE
330
1F
100
AcDbEntity
  8
0
  6
Continuous
 62
     7
370
    15
100
AcDbEllipse
 10
259.483613041
 20
36.3164841098
 30
0.0
 11
-17.20107132423104
 21
29.79151542623287
 31
0.0
210
0.0
220
0.0
230
1.0
 40
0.5773346305
 41
1.838059080715311
 42
1.846593894206952
  0
LINE
  5
1BF
330
1F
100
AcDbEntity
  8
0
  6
Continuous
 62
     7
370
    15
100
AcDbLine
 10
247.4372442795
 20
18.8705666137
 30
0.0
 11
250.6342505428
 21
20.716159045
 31
0.0
  0
SPLINE
  5
1C0
330
1F
100
AcDbEntity
  8
0
  6
Continuous
 62
     7
370
    15
100
AcDbSpline
210
0.0
220
0.0
230
1.0
 70
     8
 71
     3
 72
    20
 73
    16
 74
     0
 42
0.000000001
 43
0.00000001
 40
0.0
 40
0.0
 40
0.0
 40
0.0
 40
0.1249999999999982
 40
0.1249999999999982
 40
0.1874999999999973
 40
0.1874999999999973
 40
0.2499999999999964
 40
0.2499999999999964
 40
0.4999999999999959
 40
0.4999999999999959
 40
0.6249999999999966
 40
0.6249999999999966
 40
0.7499999999999971
 40
0.7499999999999971
 40
1.0
 40
1.0
 40
1.0
 40
1.0
 10
249.9877187205121
 20
19.5264497066563
 30
0.0
 10
250.0848994151787
 20
19.5825509275393
 30
0.0
 10
250.1904462216454
 20
19.61658575758903
 30
0.0
 10
250.3577023496254
 20
19.64406869473031
 30
0.0
 10
250.4153391037638
 20
19.64917986651334
 30
0.0
 10
250.530690907278
 20
19.65212089112098
 30
0.0
 10
250.5886072790159
 20
19.65003148377027
 30
0.0
 10
250.8792057900913
 20
19.62453391640086
 30
0.0
 10
251.1171448333457
 20
19.55617092744671
 30
0.0
 10
251.4591053258052
 20
19.41316956322065
 30
0.0
 10
251.571407438716
 20
19.35840536859335
 30
0.0
 10
251.7929991936009
 20
19.23618658963451
 30
0.0
 10
251.9027840549908
 20
19.16836378891882
 30
0.0
 10
252.2234572132049
 20
18.94899835869264
 30
0.0
 10
252.4257100979382
 20
18.78271258866213
 30
0.0
 10
252.6148546816057
 20
18.59363962941093
 30
0.0
  0
LINE
  5
1C1
330
1F
100
AcDbEntity
  8
0
  6
Continuous
 62
     7
370
    15
100
AcDbLine
 10
249.9877187205
 20
19.5264497067
 30
0.0
 11
248.1131058572
 21
18.4442587357
 31
0.0
  0
SPLINE
  5
1C2
330
1F
100
AcDbEntity
  8
0
  6
Continuous
 62
     7
370
    15
100
AcDbSpline
210
0.0
220
0.0
230
1.0
 70
     8
 71
     3
 72
    12
 73
     8
 74
     0
 42
0.000000001
 43
0.00000001
 40
0.0
 40
0.0
 40
0.0
 40
0.0
 40
0.2499999999999994
 40
0.2499999999999994
 40
0.4999999999999989
 40
0.4999999999999989
 40
1.0
 40
1.0
 40
1.0
 40
1.0
 10
248.1131058571777
 20
18.44425873573583
 30
0.0
 10
248.0756804623933
 20
18.42265351520689
 30
0.0
 10
248.0309409698721
 20
18.41735153488037
 30
0.0
 10
247.9412782197382
 20
18.42643649845952
 30
0.0
 10
247.8954662925954
 20
18.44095467513017
 30
0.0
 10
247.7651222914821
 20
18.50241038096507
 30
0.0
 10
247.683989002833
 20
18.56772739140541
 30
0.0
 10
247.6180444096475
 20
18.64835052246194
 30
0.0
  0
LINE
  5
1C3
330
1F
100
AcDbEntity
  8
0
  6
Continuous
 62
     7
370
    15
100
AcDbLine
 10
243.9017103736
 20
20.9115868933
 30
0.0
 11
247.4372442795
 21
18.8705666137
 31
0.0
  0
LINE
  5
1C4
330
1F
100
AcDbEntity
  8
0
  6
Continuous
 62
     7
370
    15
100
AcDbLine
 10
243.9017103736
 20
20.9115868933
 30
0.0
 11
247.3744094132
 21
22.9163333766
 31
0.0
  0
LWPOLYLINE
  5
1C5
330
1F
100
AcDbEntity
  8
0
  6
Continuous
 62
     7
370
    15
100
AcDbPolyline
 90
       13
 70
   128
 43
0.0
 10
259.6806825915
 20
11.8470870278
 10
258.3458720844
 20
11.5611666303
 10
256.9720328421
 20
11.4173844947
 10
255.6517930277
 20
11.4389162692
 10
254.3949862292
 20
11.6256015779
 10
253.2109735643
 20
11.9760499262
 10
252.1085739557
 20
12.4876510575
 10
251.0959984446
 20
13.1565943952
 10
250.1807890324
 20
13.9778974256
 10
249.3697625051
 20
14.9454428088
 10
248.6689596597
 20
16.0520239428
 10
248.0836003105
 20
17.289398641
 10
247.701559256
 20
18.3667633152
  0
ARC
  5
1C6
330
1F
100
AcDbEntity
  8
0
  6
Continuous
 62
     7
370
    15
100
AcDbCircle
 10
253.409852017
 20
23.1139571656
 30
0.0
 40
9.860209375322505
100
AcDbArc
 50
194.9451548862
 51
238.0244592803
  0
ELLIPSE
  5
1C7
330
1F
100
AcDbEntity
  8
0
  6
Continuous
 62
     7
370
    15
100
AcDbEllipse
 10
265.0344012733
 20
33.1120822709
 30
0.0
 11
24.32500000803628
 21
14.04480618437196
 31
0.0
210
0.0
220
0.0
230
1.0
 40
0.0000703729
 41
2.623457243601024
 42
2.631992057101757
  0
ELLIPSE
  5
1C8
330
1F
100
AcDbEntity
  8
0
  6
Continuous
 62
     7
370
    15
100
AcDbEllipse
 10
247.0815161944
 20
23.9019578447
 30
0.0
 11
-7.507462979106096E-5
 21
1.066811201853405
 31
0.0
210
0.0
220
0.0
230
1.0
 40
0.7174342186
 41
3.53419364555748
 42
5.10498997235239
  0
SPLINE
  5
1C9
330
1F
100
AcDbEntity
  8
0
  6
Continuous
 62
     7
370
    15
100
AcDbSpline
210
0.0
220
0.0
230
1.0
 70
     8
 71
     3
 72
     9
 73
     5
 74
     0
 42
0.000000001
 43
0.00000001
 40
0.0
 40
0.0
 40
0.0
 40
0.0
 40
0.4635467256911063
 40
1.0
 40
1.0
 40
1.0
 40
1.0
 10
243.7594881991878
 20
20.82943507046654
 30
0.0
 10
243.7584857499153
 20
20.82885945204103
 30
0.0
 10
243.7563231863225
 20
20.82761768202388
 30
0.0
 10
243.7845340051234
 20
20.84391153409084
 30
0.0
 10
243.7996677912402
 20
20.85265242438327
 30
0.0
  0
ELLIPSE
  5
1CA
330
1F
100
AcDbEntity
  8
0
  6
Continuous
 62
     7
370
    15
100
AcDbEllipse
 10
247.0208560226
 20
23.866928089
 30
0.0
 11
0.3250094736511642
 21
1.213179526238665
 31
0.0
210
0.0
220
0.0
230
1.0
 40
0.5176380889
 41
3.619174351347704
 42
5.189970678142648
  0
LINE
  5
1CB
330
1F
100
AcDbEntity
  8
0
  6
Continuous
 62
     7
370
    15
100
AcDbLine
 10
280.6163039407
 20
48.5169794874
 30
0.0
 11
279.4845000689
 21
47.8636030198
 31
0.0
  0
ARC
  5
1CC
330
1F
100
AcDbEntity
  8
0
  6
Continuous
 62
     7
370
    15
100
AcDbCircle
 10
220.9720566534
 20
64.0872544424
 30
0.0
 40
3.205077553228909
100
AcDbArc
 50
61.8734442251
 51
102.4608226175
  0
ARC
  5
1CD
330
1F
100
AcDbEntity
  8
0
  6
Continuous
 62
     7
370
    15
100
AcDbCircle
 10
216.5915586895
 20
56.1384625507
 30
0.0
 40
3.733409869387968
100
AcDbArc
 50
181.6276537348
 51
235.6249446712
  0
LWPOLYLINE
  5
1CE
330
1F
100
AcDbEntity
  8
0
  6
Continuous
 62
     7
370
    15
100
AcDbPolyline
 90
       23
 70
   128
 43
0.0
 10
211.0680201914
 20
56.2572473583
 10
211.1299131356
 20
57.3606412766
 10
211.3144874874
 20
58.5158051768
 10
211.6184495129
 20
59.7021251315
 10
212.0363750027
 20
60.8984312332
 10
212.5608060665
 20
62.083375371
 10
213.1823842196
 20
63.2358121889
 10
213.890017385
 20
64.3351764243
 10
214.6710778321
 20
65.3618498966
 10
215.5116275189
 20
66.2975115933
 10
216.3966668161
 20
67.1254646093
 10
217.3104021767
 20
67.8309341033
 10
218.2365279713
 20
68.4013309555
 10
219.1585174634
 20
68.8264764207
 10
220.0599177285
 20
69.0987837678
 10
220.9246432576
 20
69.2133936659
 10
221.737263003
 20
69.1682608985
 10
222.4832757463
 20
68.9641908611
 10
223.1493688723
 20
68.6048251882
 10
223.7236559335
 20
68.0965767687
 10
224.1958887635
 20
67.4485153079
 10
224.5576403564
 20
66.6722054777
 10
224.7629552208
 20
65.9686422903
  0
LWPOLYLINE
  5
1CF
330
1F
100
AcDbEntity
  8
0
  6
Continuous
 62
     7
370
    15
100
AcDbPolyline
 90
       12
 70
   128
 43
0.0
 10
216.4185619143
 20
51.5480122321
 10
216.3966668161
 20
51.5413545443
 10
215.5116275189
 20
51.3474629383
 10
214.6710778321
 20
51.3126466238
 10
213.890017385
 20
51.437526899
 10
213.1823842196
 20
51.7198752724
 10
212.5608060665
 20
52.1546532305
 10
212.0363750027
 20
52.7341021505
 10
211.6184495129
 20
53.4478817524
 10
211.3144874874
 20
54.2832546226
 10
211.1299131356
 20
55.2253135123
 10
211.0680201914
 20
56.2572473583
  0
LWPOLYLINE
  5
1D0
330
1F
100
AcDbEntity
  8
0
  6
Continuous
 62
     7
370
    15
100
AcDbPolyline
 90
       19
 70
   128
 43
0.0
 10
209.9967449597
 20
56.8756813858
 10
210.0586379039
 20
57.9790753042
 10
210.2432122557
 20
59.1342392043
 10
210.5471742812
 20
60.3205591591
 10
210.965099771
 20
61.5168652607
 10
211.4895308349
 20
62.7018093986
 10
212.1111089879
 20
63.8542462164
 10
212.8187421533
 20
64.9536104519
 10
213.5998026004
 20
65.9802839242
 10
214.4403522872
 20
66.9159456209
 10
215.3253915845
 20
67.7438986368
 10
216.239126945
 20
68.4493681308
 10
217.1652527397
 20
69.0197649831
 10
218.0872422317
 20
69.4449104482
 10
218.9886424968
 20
69.7172177953
 10
219.8533680259
 20
69.8318276934
 10
220.6659877713
 20
69.7866949261
 10
221.4120005146
 20
69.5826248886
 10
221.8380638667
 20
69.3761025142
  0
LWPOLYLINE
  5
1D1
330
1F
100
AcDbEntity
  8
0
  6
Continuous
 62
     7
370
    15
100
AcDbPolyline
 90
        7
 70
   128
 43
0.0
 10
212.0288610995
 20
52.3842238343
 10
211.4895308349
 20
52.7730872581
 10
210.965099771
 20
53.352536178
 10
210.5471742812
 20
54.06631578
 10
210.2432122557
 20
54.9016886501
 10
210.0586379039
 20
55.8437475398
 10
209.9967449597
 20
56.8756813858
  0
ARC
  5
1D2
330
1F
100
AcDbEntity
  8
0
  6
Continuous
 62
     7
370
    15
100
AcDbCircle
 10
224.2058506508
 20
56.6819028476
 30
0.0
 40
14.13345586693936
100
AcDbArc
 50
135.1121153591
 51
164.8932611737
  0
LWPOLYLINE
  5
1D3
330
1F
100
AcDbEntity
  8
0
  6
Continuous
 62
     7
370
    15
100
AcDbPolyline
 90
       18
 70
   128
 43
0.0
 10
208.2272102397
 20
58.9565015608
 10
208.2884774898
 20
59.9810728903
 10
208.4710320155
 20
61.0555245635
 10
208.7711575331
 20
62.1579838426
 10
209.1827443526
 20
63.266007836
 10
209.6974137533
 20
64.3570403705
 10
210.3046885503
 20
65.40887117
 10
210.99220638
 20
66.4000879925
 10
211.745971362
 20
67.3105125221
 10
212.550639015
 20
68.1216111407
 10
213.389828626
 20
68.8168722195
 10
214.2464567146
 20
69.3821422479
 10
215.1030848032
 20
69.8059139583
 10
215.9422744142
 20
70.0795605805
 10
216.7469420672
 20
70.1975114587
 10
217.5007070492
 20
70.157365453
 10
218.1882248789
 20
69.9599398203
 10
218.5023608204
 20
69.8035795278
  0
ARC
  5
1D4
330
1F
100
AcDbEntity
  8
0
  6
Continuous
 62
     7
370
    15
100
AcDbCircle
 10
212.3971429091
 20
58.4733982417
 30
0.0
 40
4.177215033146704
100
AcDbArc
 50
176.0835208591
 51
234.821674637
  0
ARC
  5
1D5
330
1F
100
AcDbEntity
  8
0
  6
Continuous
 62
     7
370
    15
100
AcDbCircle
 10
221.1564100989
 20
58.4584932689
 30
0.0
 40
12.94218691261744
100
AcDbArc
 50
124.1394960211
 51
177.4330025712
  0
LWPOLYLINE
  5
1D6
330
1F
100
AcDbEntity
  8
0
  6
Continuous
 62
     7
370
     0
100
AcDbPolyline
 90
        9
 70
   128
 43
0.0
 10
275.6520825382
 20
32.3008736084
 10
275.7251099164
 20
32.167302928
 10
276.002118905
 20
31.5319513093
 10
276.168034832
 20
30.8961182402
 10
276.2124325897
 20
30.2997554509
 10
276.1325225035
 20
29.7803346088
 10
275.9333256182
 20
29.3704928355
 10
275.6273582065
 20
29.095981997
 10
275.34315681
 20
28.9904458757
  0
LWPOLYLINE
  5
1D7
330
1F
100
AcDbEntity
  8
0
  6
Continuous
 62
     7
370
     0
100
AcDbPolyline
 90
        3
 70
   128
 43
0.0
 10
274.1514418618
 20
29.3326112104
 10
273.6817831112
 20
29.660425379
 10
273.4810897511
 20
29.8462037074
  0
LWPOLYLINE
  5
1D8
330
1F
100
AcDbEntity
  8
0
  6
Continuous
 62
     7
370
     0
100
AcDbPolyline
 90
       10
 70
   128
 43
0.0
 10
275.4303425219
 20
32.1016011607
 10
275.6448386354
 20
31.6510419163
 10
275.8371558564
 20
31.0419923836
 10
275.9112963389
 20
30.460655946
 10
275.8622075314
 20
29.9466497211
 10
275.6932347552
 20
29.5350023837
 10
275.4158932256
 20
29.2537670195
 10
275.0490833096
 20
29.1221093538
 10
274.6178024968
 20
29.1490016391
 10
274.1514418618
 20
29.3326112104
  0
ARC
  5
1D9
330
1F
100
AcDbEntity
  8
0
  6
Continuous
 62
     7
370
     0
100
AcDbCircle
 10
259.1972803804
 20
21.8860564033
 30
0.0
 40
7.359914149826106
100
AcDbArc
 50
206.5734340738
 51
239.3187575441
  0
LWPOLYLINE
  5
1DA
330
1F
100
AcDbEntity
  8
0
  6
Continuous
 62
     7
370
     0
100
AcDbPolyline
 90
       22
 70
   128
 43
0.0
 10
275.4401749989
 20
50.1983421864
 10
275.1562546383
 20
50.3531929769
 10
274.1413566123
 20
50.7746097189
 10
273.0485496998
 20
51.0357626354
 10
271.8876196205
 20
51.1343131895
 10
270.6689621138
 20
51.0693788941
 10
269.4034898491
 20
50.841541214
 10
268.1025347061
 20
50.4528403592
 10
266.7777463019
 20
49.9067570157
 10
265.4409876725
 20
49.2081811765
 10
264.104229043
 20
48.3633683541
 10
262.7794406389
 20
47.379883564
 10
261.4784854959
 20
46.2665335827
 10
260.2130132312
 20
45.0332880859
 10
258.9943557245
 20
43.6911903736
 10
257.8334256451
 20
42.2522584807
 10
256.7406187327
 20
40.7293775599
 10
255.7257207067
 20
39.1361844989
 10
254.7978196385
 20
37.4869458076
 10
253.9652245712
 20
35.7964298654
 10
253.2353911142
 20
34.0797746755
 10
252.6148546816
 20
32.3523523097
  0
LWPOLYLINE
  5
1DB
330
1F
100
AcDbEntity
  8
0
  6
Continuous
 62
     7
370
     0
100
AcDbPolyline
 90
       47
 70
   128
 43
0.0
 10
277.3910922745
 20
33.7358541068
 10
276.4763908455
 20
33.1355578123
 10
275.5787285735
 20
32.4019431035
 10
274.7148272081
 20
31.5486758343
 10
273.9007795971
 20
30.5916507595
 10
273.1517499074
 20
29.5486954455
 10
272.4816911449
 20
28.4392381764
 10
271.9030852365
 20
27.2839460419
 10
271.4267105155
 20
26.1043399488
 10
271.0614409416
 20
24.9223937264
 10
270.8140807959
 20
23.7601247968
 10
270.6892379299
 20
22.6391840308
 10
270.6892379299
 20
21.5804524342
 10
270.8140807959
 20
20.6036521732
 10
271.0614409416
 20
19.7269791887
 10
271.4267105155
 20
18.9667642396
 10
271.9030852365
 20
18.337168692
 10
272.4816911449
 20
17.8499207197
 10
273.1517499074
 20
17.5140968306
 10
273.9007795971
 20
17.3359527882
 10
274.7148272081
 20
17.3188070791
 10
275.5787285735
 20
17.4629790953
 10
276.4763908455
 20
17.765783185
 10
277.3910922745
 20
18.2215786809
 10
278.3057937035
 20
18.8218749754
 10
279.2034559756
 20
19.5554896842
 10
280.067357341
 20
20.4087569534
 10
280.881404952
 20
21.3657820282
 10
281.6304346416
 20
22.4087373423
 10
282.3004934042
 20
23.5181946114
 10
282.8790993126
 20
24.6734867458
 10
283.3554740336
 20
25.853092839
 10
283.7207436075
 20
27.0350390613
 10
283.9681037532
 20
28.197307991
 10
284.0929466192
 20
29.3182487569
 10
284.0929466192
 20
30.3769803536
 10
283.9681037532
 20
31.3537806145
 10
283.7207436075
 20
32.230453599
 10
283.3554740336
 20
32.9906685481
 10
282.8790993126
 20
33.6202640957
 10
282.3004934042
 20
34.107512068
 10
281.6304346416
 20
34.4433359572
 10
280.881404952
 20
34.6214799995
 10
280.067357341
 20
34.6386257087
 10
279.2034559756
 20
34.4944536924
 10
278.3057937035
 20
34.1916496027
 10
277.3910922745
 20
33.7358541068
  0
LINE
  5
1DC
330
1F
100
AcDbEntity
  8
0
  6
Continuous
 62
     7
370
     0
100
AcDbLine
 10
248.1131058572
 20
29.7533489804
 30
0.0
 11
248.2094106053
 21
30.1660209989
 31
0.0
  0
LWPOLYLINE
  5
1DD
330
1F
100
AcDbEntity
  8
0
  6
Continuous
 62
     7
370
     0
100
AcDbPolyline
 90
       16
 70
   128
 43
0.0
 10
264.8333289415
 20
53.3616004438
 10
265.8264338436
 20
53.8706795403
 10
267.2620425198
 20
54.4863439464
 10
268.6767320681
 20
54.9495879766
 10
270.0602328847
 20
55.2570488204
 10
271.4025017729
 20
55.4064945386
 10
272.6937948495
 20
55.3968402655
 10
273.9247382782
 20
55.2281560839
 10
275.0863963165
 20
54.9016665168
 10
276.170336183
 20
54.4197416378
 10
277.1686892728
 20
53.7858798665
 10
278.0742082781
 20
53.0046825724
 10
278.880319798
 20
52.0818206722
 10
279.5811720568
 20
51.0239934635
 10
280.1716773834
 20
49.8388799924
 10
280.6475491443
 20
48.5350833095
  0
LWPOLYLINE
  5
1DE
330
1F
100
AcDbEntity
  8
0
  6
Continuous
 62
     7
370
     0
100
AcDbPolyline
 90
       20
 70
   128
 43
0.0
 10
247.6180444096
 20
29.4675162799
 10
248.0836003105
 20
31.3639875631
 10
248.6689596597
 20
33.2772037803
 10
249.3697625051
 20
35.1929146568
 10
250.1807890324
 20
37.0968513367
 10
251.0959984446
 20
38.9748326624
 10
252.1085739557
 20
40.8128708003
 10
253.2109735643
 20
42.5972754273
 10
254.3949862292
 20
44.3147557004
 10
255.6517930277
 20
45.9525192516
 10
256.9720328421
 20
47.4983674698
 10
258.3458720844
 20
48.9407863602
 10
259.7630779401
 20
50.2690323039
 10
261.2130945855
 20
51.4732120806
 10
262.6851218114
 20
52.5443565564
 10
264.1681954664
 20
53.4744874885
 10
265.6512691213
 20
54.2566769506
 10
267.1232963472
 20
54.8850989336
 10
268.5733129926
 20
55.3550727403
 10
268.6557083412
 20
55.377177451
  0
LWPOLYLINE
  5
1DF
330
1F
100
AcDbEntity
  8
0
  6
Continuous
 62
     7
370
     0
100
AcDbPolyline
 90
       20
 70
   128
 43
0.0
 10
243.7996677912
 20
31.6718181819
 10
244.2652236921
 20
33.568289465
 10
244.8505830413
 20
35.4815056822
 10
245.5513858867
 20
37.3972165587
 10
246.362412414
 20
39.3011532386
 10
247.2776218262
 20
41.1791345643
 10
248.2901973373
 20
43.0171727023
 10
249.3925969459
 20
44.8015773292
 10
250.5766096108
 20
46.5190576023
 10
251.8334164093
 20
48.1568211535
 10
253.1536562237
 20
49.7026693717
 10
254.527495466
 20
51.1450882621
 10
255.9447013217
 20
52.4733342058
 10
257.3947179671
 20
53.6775139826
 10
258.866745193
 20
54.7486584583
 10
260.349818848
 20
55.6787893904
 10
261.8328925029
 20
56.4609788525
 10
263.3049197288
 20
57.0894008355
 10
264.7549363742
 20
57.5593746422
 10
264.8373317228
 20
57.5814793529
  0
LWPOLYLINE
  5
1E0
330
1F
100
AcDbEntity
  8
0
  6
Continuous
 62
     7
370
     0
100
AcDbPolyline
 90
       28
 70
   128
 43
0.0
 10
249.9877187205
 20
30.8355399513
 10
250.4988412108
 20
32.6345977794
 10
251.1275356908
 20
34.4408978192
 10
251.8684773084
 20
36.2391412559
 10
252.7153905123
 20
38.0140975113
 10
253.6611022037
 20
39.7507332431
 10
254.6976024908
 20
41.4343396719
 10
255.8161125296
 20
43.0506571605
 10
257.0071588786
 20
44.5859959887
 10
258.2606537353
 20
46.0273523012
 10
259.5659803776
 20
47.362518246
 10
260.9120830837
 20
48.5801853713
 10
262.2875607708
 20
49.6700404051
 10
263.6807635591
 20
50.6228526049
 10
265.0798914423
 20
51.4305519395
 10
266.4730942306
 20
52.08629744
 10
267.8485719177
 20
52.5845351402
 10
269.1946746238
 20
52.9210451177
 10
270.5000012661
 20
53.0929772347
 10
271.7534961229
 20
53.0988752781
 10
272.9445424718
 20
52.9386892934
 10
274.0630525107
 20
52.6137760073
 10
275.0995527977
 20
52.1268873372
 10
276.0452644892
 20
51.4821470827
 10
276.892177693
 20
50.6850159988
 10
277.6331193106
 20
49.7422455446
 10
278.2618137906
 20
48.6618207007
 10
278.3247688549
 20
48.5331015989
  0
LWPOLYLINE
  5
1E1
330
1F
100
AcDbEntity
  8
0
  6
Continuous
 62
     7
370
     0
100
AcDbPolyline
 90
       25
 70
   128
 43
0.0
 10
272.5750783656
 20
18.3672703285
 10
272.6167600847
 20
18.3444244019
 10
273.296896444
 20
18.0780329652
 10
274.0498401534
 20
17.9693919583
 10
274.8609360201
 20
18.0206159549
 10
275.7143969858
 20
18.2307079382
 10
276.5936114034
 20
18.5955787067
 10
277.4814663645
 20
19.1081264658
 10
278.3606807821
 20
19.7583750566
 10
279.2141417478
 20
20.5336681297
 10
280.0252376145
 20
21.4189154875
 10
280.778181324
 20
22.396886797
 10
281.4583176832
 20
23.4485469592
 10
282.0524086117
 20
24.5534266052
 10
282.5488908052
 20
25.6900205095
 10
282.9381008027
 20
26.8362061646
 10
283.2124630742
 20
27.9696743705
 10
283.3666374702
 20
29.0683634579
 10
283.3976231615
 20
30.1108886934
 10
283.3048170468
 20
31.0769585092
 10
283.0900254916
 20
31.9477694553
 10
282.7574291692
 20
32.7063721869
 10
282.3135016887
 20
33.338001365
 10
281.7668835934
 20
33.830363046
 10
281.5371731808
 20
33.9772581832
  0
LINE
  5
1E2
330
1F
100
AcDbEntity
  8
0
  6
Continuous
 62
     7
370
     0
100
AcDbLine
 10
250.9878039334
 20
20.5120570171
 30
0.0
 11
251.2634967097
 21
20.6712110691
 31
0.0
  0
ARC
  5
1E3
330
1F
100
AcDbEntity
  8
0
  6
Continuous
 62
     7
370
     0
100
AcDbCircle
 10
253.1878602782
 20
23.4325030043
 30
0.0
 40
3.365695811411202
100
AcDbArc
 50
235.1270910555
 51
288.179185062
  0
ARC
  5
1E4
330
1F
100
AcDbEntity
  8
0
  6
Continuous
 62
     7
370
     0
100
AcDbCircle
 10
253.5398248929
 20
23.9721316615
 30
0.0
 40
2.602491392497602
100
AcDbArc
 50
232.9171724991
 51
297.7195330954
  0
ARC
  5
1E5
330
1F
100
AcDbEntity
  8
0
  6
Continuous
 62
     7
370
     0
100
AcDbCircle
 10
250.4353873895
 20
21.9658167892
 30
0.0
 40
1.536804807572117
100
AcDbArc
 50
302.60547834
 51
357.3945215143
  0
LWPOLYLINE
  5
1E6
330
1F
100
AcDbEntity
  8
0
  6
Continuous
 62
     7
370
     0
100
AcDbPolyline
 90
        3
 70
   128
 43
0.0
 10
247.4375285173
 20
28.8127925848
 10
247.4362812565
 20
29.0147340597
 10
247.4399556158
 20
29.3646812676
  0
LINE
  5
1E7
330
1F
100
AcDbEntity
  8
0
  6
Continuous
 62
     7
370
     0
100
AcDbLine
 10
247.7886229756
 20
24.3101619006
 30
0.0
 11
251.9706034909
 21
21.8959559369
 31
0.0
  0
LINE
  5
1E8
330
1F
100
AcDbEntity
  8
0
  6
Continuous
 62
     7
370
     0
100
AcDbLine
 10
247.7279628038
 20
24.2751321449
 30
0.0
 11
247.7886229756
 21
24.3101619006
 31
0.0
  0
LWPOLYLINE
  5
1E9
330
1F
100
AcDbEntity
  8
0
  6
Continuous
 62
     7
370
     0
100
AcDbPolyline
 90
       19
 70
   128
 43
0.0
 10
216.5313584298
 20
52.7945005971
 10
216.5929913598
 20
53.9159467571
 10
216.7768355931
 20
55.0893645286
 10
217.079745504
 20
56.2946764082
 10
217.49653822
 20
57.5112591755
 10
218.020082302
 20
58.718296762
 10
218.6414197658
 20
59.89513642
 10
219.3499193549
 20
61.0216420967
 10
220.1334584451
 20
62.0785389675
 10
220.9786304653
 20
63.0477432341
 10
221.8709742878
 20
63.9126715426
 10
222.7952216624
 20
64.65852473
 10
223.7355584604
 20
65.2725410413
 10
224.6758952584
 20
65.7442144874
 10
225.600142633
 20
66.0654746046
 10
226.4924864555
 20
66.2308245435
 10
227.3376584757
 20
66.2374351206
 10
228.1211975659
 20
66.0851932272
 10
228.1747507634
 20
66.0681927081
  0
ARC
  5
1EA
330
1F
100
AcDbEntity
  8
0
  6
Continuous
 62
     7
370
     0
100
AcDbCircle
 10
221.9760581592
 20
52.3594482802
 30
0.0
 40
5.46205324595276
100
AcDbArc
 50
175.4315543439
 51
224.0404479401
  0
LINE
  5
1EB
330
1F
100
AcDbEntity
  8
0
  6
Continuous
 62
     7
370
     0
100
AcDbLine
 10
251.2634967097
 20
20.6712110691
 30
0.0
 11
247.3744094132
 21
22.9163333766
 31
0.0
  0
LINE
  5
1EC
330
1F
100
AcDbEntity
  8
0
  6
Continuous
 62
     7
370
     0
100
AcDbLine
 10
247.701559256
 20
18.3667633152
 30
0.0
 11
247.6180444096
 21
18.6483505225
 31
0.0
  0
LWPOLYLINE
  5
1ED
330
1F
100
AcDbEntity
  8
0
  6
Continuous
 62
     7
370
     0
100
AcDbPolyline
 90
       14
 70
   128
 43
0.0
 10
261.0375172874
 20
12.3260490606
 10
260.0839229333
 20
12.0297540687
 10
258.7004221167
 20
11.7222932249
 10
257.3581532285
 20
11.5728475067
 10
256.0668601519
 20
11.5825017798
 10
254.8359167232
 20
11.7511859614
 10
253.6742586849
 20
12.0776755285
 10
252.5903188184
 20
12.5596004075
 10
251.5919657286
 20
13.1934621788
 10
250.6864467233
 20
13.9746594729
 10
249.8803352034
 20
14.8975213731
 10
249.1794829447
 20
15.9553485818
 10
248.588977618
 20
17.1404620529
 10
248.1131058572
 20
18.4442587357
  0
LINE
  5
1EE
330
1F
100
AcDbEntity
  8
0
  6
Continuous
 62
     7
370
     0
100
AcDbLine
 10
243.8831826376
 20
20.5710652171
 30
0.0
 11
243.7996677912
 21
20.8526524244
 31
0.0
  0
ARC
  5
1EF
330
1F
100
AcDbEntity
  8
0
  6
Continuous
 62
     7
370
     0
100
AcDbCircle
 10
257.5936744238
 20
21.7940340992
 30
0.0
 40
7.936781535176441
100
AcDbArc
 50
196.6010413108
 51
275.2970608911
  0
LWPOLYLINE
  5
1F0
330
1F
100
AcDbEntity
  8
0
  6
Continuous
 62
     7
370
     0
100
AcDbPolyline
 90
       15
 70
   128
 43
0.0
 10
212.8596551678
 20
56.0324184183
 10
212.8264673251
 20
56.719816118
 10
212.8896497133
 20
57.7298832785
 10
213.0777854875
 20
58.7903360403
 10
213.3866720056
 20
59.8774856411
 10
213.809409253
 20
60.9670469552
 10
214.3365539784
 20
62.0346809833
 10
214.9563306395
 20
63.0565385454
 10
215.6548944499
 20
64.0097930322
 10
216.4166406484
 20
64.8731503136
 10
217.2245530838
 20
65.6273244147
 10
218.0605843271
 20
66.2554683322
 10
218.9060588221
 20
66.743550369
 10
219.7420900655
 20
67.080667579
 10
220.2804906683
 20
67.2168324667
  0
LWPOLYLINE
  5
1F1
330
1F
100
AcDbEntity
  8
0
  6
Continuous
 62
     7
370
     0
100
AcDbPolyline
 90
       19
 70
   128
 43
0.0
 10
212.5246906298
 20
56.74275156
 10
212.5863699128
 20
57.7515022383
 10
212.7700931751
 20
58.8099665316
 10
213.0719446741
 20
59.8955851111
 10
213.4854909693
 20
60.9852199017
 10
214.0019180394
 20
62.0556472294
 10
214.610219138
 20
63.0840527943
 10
215.2974293833
 20
64.0485179171
 10
216.0489020819
 20
64.9284866983
 10
216.8486208981
 20
65.7052041311
 10
217.6795412136
 20
66.3621158318
 10
218.5239534045
 20
66.8852208681
 10
219.363860291
 20
67.2633701643
 10
220.1813607161
 20
67.4885041246
 10
220.9590310774
 20
67.5558244096
 10
221.6802966814
 20
67.4638962043
 10
222.3297850039
 20
67.2146787988
 10
222.893653329
 20
66.8134838293
 10
223.1782031406
 20
66.5125052163
  0
LWPOLYLINE
  5
1F2
330
1F
100
AcDbEntity
  8
0
  6
Continuous
 62
     7
370
     0
100
AcDbPolyline
 90
        8
 70
   128
 43
0.0
 10
215.1788532795
 20
52.6557234182
 10
214.610219138
 20
52.8093502877
 10
214.0019180394
 20
53.1354263537
 10
213.4854909693
 20
53.6095996779
 10
213.0719446741
 20
54.2217640792
 10
212.7700931751
 20
54.9588723361
 10
212.5863699128
 20
55.805214266
 10
212.5246906298
 20
56.74275156
  0
LINE
  5
1F3
330
1F
100
AcDbEntity
  8
0
  6
Continuous
 62
     7
370
     0
100
AcDbLine
 10
208.2296830292
 20
58.7587113733
 30
0.0
 11
208.2272102397
 21
58.9565015608
 31
0.0
  0
OLE2FRAME
  5
1F4
330
1F
100
AcDbEntity
  8
0
100
AcDbOle2Frame
 70
     2
  3
Paintbrush-Bild
 10
13.8511154363
 20
38.264191557
 30
0.0
 11
51.6290888628
 21
31.9806341108
 31
0.0
 71
     2
 72
     0
 73
     1
 90
    12928
310
80552BED0767C5B32B40DDAF6807D121434000000000000000006FFBDDFB85D0
310
4940DDAF6807D121434000000000000000006FFBDDFB85D04940416F4BD60AFB
310
3F4000000000000000002BED0767C5B32B40416F4BD60AFB3F40000000000000
310
0000000000000100000000010000010000000100000000000100000000320000
310
D0CF11E0A1B11AE1000000000000000000000000000000003E000300FEFF0900
310
0600000000000000000000000100000001000000000000000010000002000000
310
01000000FEFFFFFF0000000000000000FFFFFFFFFFFFFFFFFFFFFFFFFFFFFFFF
310
FFFFFFFFFFFFFFFFFFFFFFFFFFFFFFFFFFFFFFFFFFFFFFFFFFFFFFFFFFFFFFFF
310
FFFFFFFFFFFFFFFFFFFFFFFFFFFFFFFFFFFFFFFFFFFFFFFFFFFFFFFFFFFFFFFF
310
FFFFFFFFFFFFFFFFFFFFFFFFFFFFFFFFFFFFFFFFFFFFFFFFFFFFFFFFFFFFFFFF
310
FFFFFFFFFFFFFFFFFFFFFFFFFFFFFFFFFFFFFFFFFFFFFFFFFFFFFFFFFFFFFFFF
310
FFFFFFFFFFFFFFFFFFFFFFFFFFFFFFFFFFFFFFFFFFFFFFFFFFFFFFFFFFFFFFFF
310
FFFFFFFFFFFFFFFFFFFFFFFFFFFFFFFFFFFFFFFFFFFFFFFFFFFFFFFFFFFFFFFF
310
FFFFFFFFFFFFFFFFFFFFFFFFFFFFFFFFFFFFFFFFFFFFFFFFFFFFFFFFFFFFFFFF
310
FFFFFFFFFFFFFFFFFFFFFFFFFFFFFFFFFFFFFFFFFFFFFFFFFFFFFFFFFFFFFFFF
310
FFFFFFFFFFFFFFFFFFFFFFFFFFFFFFFFFFFFFFFFFFFFFFFFFFFFFFFFFFFFFFFF
310
FFFFFFFFFFFFFFFFFFFFFFFFFFFFFFFFFFFFFFFFFFFFFFFFFFFFFFFFFFFFFFFF
310
FFFFFFFFFFFFFFFFFFFFFFFFFFFFFFFFFFFFFFFFFFFFFFFFFFFFFFFFFFFFFFFF
310
FFFFFFFFFFFFFFFFFFFFFFFFFFFFFFFFFFFFFFFFFFFFFFFFFFFFFFFFFFFFFFFF
310
FFFFFFFFFFFFFFFFFFFFFFFFFFFFFFFFFFFFFFFFFFFFFFFFFFFFFFFFFFFFFFFF
310
FDFFFFFFFEFFFFFFFEFFFFFFFEFFFFFF05000000060000000700000008000000
310
090000000A0000000B0000000C0000000D0000000E0000000F00000010000000
310
11000000120000001300000014000000150000001600000017000000FEFFFFFF
310
FFFFFFFFFFFFFFFFFFFFFFFFFFFFFFFFFFFFFFFFFFFFFFFFFFFFFFFFFFFFFFFF
310
FFFFFFFFFFFFFFFFFFFFFFFFFFFFFFFFFFFFFFFFFFFFFFFFFFFFFFFFFFFFFFFF
310
FFFFFFFFFFFFFFFFFFFFFFFFFFFFFFFFFFFFFFFFFFFFFFFFFFFFFFFFFFFFFFFF
310
FFFFFFFFFFFFFFFFFFFFFFFFFFFFFFFFFFFFFFFFFFFFFFFFFFFFFFFFFFFFFFFF
310
FFFFFFFFFFFFFFFFFFFFFFFFFFFFFFFFFFFFFFFFFFFFFFFFFFFFFFFFFFFFFFFF
310
FFFFFFFFFFFFFFFFFFFFFFFFFFFFFFFFFFFFFFFFFFFFFFFFFFFFFFFFFFFFFFFF
310
FFFFFFFFFFFFFFFFFFFFFFFFFFFFFFFFFFFFFFFFFFFFFFFFFFFFFFFFFFFFFFFF
310
FFFFFFFFFFFFFFFFFFFFFFFFFFFFFFFFFFFFFFFFFFFFFFFFFFFFFFFFFFFFFFFF
310
FFFFFFFFFFFFFFFFFFFFFFFFFFFFFFFFFFFFFFFFFFFFFFFFFFFFFFFFFFFFFFFF
310
FFFFFFFFFFFFFFFFFFFFFFFFFFFFFFFFFFFFFFFFFFFFFFFFFFFFFFFFFFFFFFFF
310
FFFFFFFFFFFFFFFFFFFFFFFFFFFFFFFFFFFFFFFFFFFFFFFFFFFFFFFFFFFFFFFF
310
FFFFFFFFFFFFFFFFFFFFFFFFFFFFFFFFFFFFFFFFFFFFFFFFFFFFFFFFFFFFFFFF
310
FFFFFFFFFFFFFFFFFFFFFFFFFFFFFFFFFFFFFFFFFFFFFFFFFFFFFFFFFFFFFFFF
310
52006F006F007400200045006E00740072007900000000000000000000000000
310
0000000000000000000000000000000000000000000000000000000000000000
310
16000500FFFFFFFFFFFFFFFF020000000A00030000000000C000000000000046
310
000000000000000000000000904687EA9C23D20103000000C000000000000000
310
01004F006C006500000000000000000000000000000000000000000000000000
310
0000000000000000000000000000000000000000000000000000000000000000
310
0A000200FFFFFFFFFFFFFFFFFFFFFFFF00000000000000000000000000000000
310
0000000000000000000000000000000000000000000000001400000000000000
310
010043006F006D0070004F0062006A0000000000000000000000000000000000
310
0000000000000000000000000000000000000000000000000000000000000000
310
120002010100000003000000FFFFFFFF00000000000000000000000000000000
310
0000000000000000000000000000000000000000010000004D00000000000000
310
01004F006C006500310030004E00610074006900760065000000000000000000
310
0000000000000000000000000000000000000000000000000000000000000000
310
1A000200FFFFFFFFFFFFFFFFFFFFFFFF00000000000000000000000000000000
310
0000000000000000000000000000000000000000040000002426000000000000
310
FEFFFFFF02000000FEFFFFFFFFFFFFFFFFFFFFFFFFFFFFFFFFFFFFFFFFFFFFFF
310
FFFFFFFFFFFFFFFFFFFFFFFFFFFFFFFFFFFFFFFFFFFFFFFFFFFFFFFFFFFFFFFF
310
FFFFFFFFFFFFFFFFFFFFFFFFFFFFFFFFFFFFFFFFFFFFFFFFFFFFFFFFFFFFFFFF
310
FFFFFFFFFFFFFFFFFFFFFFFFFFFFFFFFFFFFFFFFFFFFFFFFFFFFFFFFFFFFFFFF
310
FFFFFFFFFFFFFFFFFFFFFFFFFFFFFFFFFFFFFFFFFFFFFFFFFFFFFFFFFFFFFFFF
310
FFFFFFFFFFFFFFFFFFFFFFFFFFFFFFFFFFFFFFFFFFFFFFFFFFFFFFFFFFFFFFFF
310
FFFFFFFFFFFFFFFFFFFFFFFFFFFFFFFFFFFFFFFFFFFFFFFFFFFFFFFFFFFFFFFF
310
FFFFFFFFFFFFFFFFFFFFFFFFFFFFFFFFFFFFFFFFFFFFFFFFFFFFFFFFFFFFFFFF
310
FFFFFFFFFFFFFFFFFFFFFFFFFFFFFFFFFFFFFFFFFFFFFFFFFFFFFFFFFFFFFFFF
310
FFFFFFFFFFFFFFFFFFFFFFFFFFFFFFFFFFFFFFFFFFFFFFFFFFFFFFFFFFFFFFFF
310
FFFFFFFFFFFFFFFFFFFFFFFFFFFFFFFFFFFFFFFFFFFFFFFFFFFFFFFFFFFFFFFF
310
FFFFFFFFFFFFFFFFFFFFFFFFFFFFFFFFFFFFFFFFFFFFFFFFFFFFFFFFFFFFFFFF
310
FFFFFFFFFFFFFFFFFFFFFFFFFFFFFFFFFFFFFFFFFFFFFFFFFFFFFFFFFFFFFFFF
310
FFFFFFFFFFFFFFFFFFFFFFFFFFFFFFFFFFFFFFFFFFFFFFFFFFFFFFFFFFFFFFFF
310
FFFFFFFFFFFFFFFFFFFFFFFFFFFFFFFFFFFFFFFFFFFFFFFFFFFFFFFFFFFFFFFF
310
FFFFFFFFFFFFFFFFFFFFFFFFFFFFFFFFFFFFFFFFFFFFFFFFFFFFFFFFFFFFFFFF
310
0100000200000000000000000000000000000000000000000000000000000000
310
0000000000000000000000000000000000000000000000000000000000000000
310
0100FEFF030A0000FFFFFFFF0A00030000000000C00000000000004607000000
310
5042727573680007000000504272757368000700000050427275736800F439B2
310
7100000000000000000000000000000000000000000000000000000000000000
310
0000000000000000000000000000000000000000000000000000000000000000
310
0000000000000000000000000000000000000000000000000000000000000000
310
0000000000000000000000000000000000000000000000000000000000000000
310
0000000000000000000000000000000000000000000000000000000000000000
310
0000000000000000000000000000000000000000000000000000000000000000
310
0000000000000000000000000000000000000000000000000000000000000000
310
0000000000000000000000000000000000000000000000000000000000000000
310
0000000000000000000000000000000000000000000000000000000000000000
310
0000000000000000000000000000000000000000000000000000000000000000
310
0000000000000000000000000000000000000000000000000000000000000000
310
0000000000000000000000000000000000000000000000000000000000000000
310
20260000424D0E260000000000003E00000028000000B40200006E0000000100
310
01000000000000000000130B0000130B00000200000002000000000000FFFFFF
310
FFFFFFFFFFFFFFFFFFFFFFFFFFFFFFFFFFFFFFFFFFFFFFFFFFFFFFFFFFFFFFFF
310
FFFFFFFFFFFFFFFFFFFFFFFFFFFFFFFFFFFFFFFFFFFFFFFFFFFFFFFFFFFFFFFF
310
FFFFFFFFFFFFFFFFFFFFFFFFFFFFFFFFFFFFFFFFFFFFFFFFF000FFFFFFFFFFFF
310
FFFFFFFFFFFFFFFFFFFFFFFFFFFFFFFFFFFFFFFFFFFFFFFFFFFFFFFFFFFFFFFF
310
FFFFFFFFFFFFFFFFFFFFFFFFFFFFFFFFFFFFFFFFFFFFFFFFFFFFFFFFFFFFFFFF
310
FFFFFFFFFFFFFFFFFFFFFFFFFFFFFFFFF000FFFFFFFFFFFFFFFFFFFFFFFFFFFF
310
FFFFFFFFFFFFFFFFFFFFFFFFFFFFFFFFFFFFFFFFFFFFFFFFFFFFFFFFFFFFFFFF
310
FFFFFFFFFFFFFFFFFFFFFFFFFFFFFFFFFFFFFFFFFFFFFFFFFFFFFFFFFFFFFFFF
310
FFFFFFFFFFFFFFFFF000FFFFFFFFFFFFFFFFFFFFFFFFFFFFFFFFFFFFFFFFFFFF
310
FFFFFFFFFFFFFFFFFFFFFFFFFFFFFFFFFFFFFFFFFFFFFFFFFFFFFFFFFFFFFFFF
310
FFFFFFFFFFFFFFFFFFFFFFFFFFFFFFFFFFFFFFFFFFFFFFFFFFFFFFFFFFFFFFFF
310
F000FFFFFFFFFFFFFFFFFFFFFFFFFFFFFFFFFFFFFFFFFFFFFFFFFFFFFFFFFFFF
310
FFFFFFFFFFFFFFFFFFFFFFFFFFFFFFFFFFFFFFFFFFFFFFFFFFFFFFFFFFFFFFFF
310
FFFFFFFFFFFFFFFFFFFFFFFFFFFFFFFFFFFFFFFFFFFFFFFFF000FFFFFFFFFFFF
310
FFFFFFFFFFFFFFFFFFFFFFFFFFFFFFFFFFFFFFFFFFFFFFFFFFFFFFFFFFFFFFFF
310
FFFFFFFFFFFFFFFFFFFFFFFFFFFFFFFFFFFFFFFFFFFFFFFFFFFFFFFFFFFFFFFF
310
FFFFFFFFFFFFFFFFFFFFFFFFFFFFFFFFF000FFFFFFFFFFFFFFFFFFFFFFFFFFFF
310
FFFFFFFFFFFFFFFFFFFFFFFFFFFFFFFFFFFFFFFFFFFFFFFFFFFFFFFFFFFFFFFF
310
FFFFFFFFFFFFFFFFFFFFFFFFFFFFFFFFFFFFFFFFFFFFFFFFFFFFFFFFFFFFFFFF
310
FFFFFFFFFFFFFFFFF000FFFFFFFFFFFFFFFFFFFFFFFFFFFFFFFFFFFFFFFFFFFF
310
FFFFFFFFFFFFFFFFFFFFFFFFFFFFFFFFFFFFFFFFFFFFFFFFFFFFFFFFFFFFFFFF
310
FFFFFFFFFFFFFFFFFFFFFFFFFFFFFFFFFFFFFFFFFFFFFFFFFFFFFFFFFFFFFFFF
310
F000FFFFFFFFFFFFFFFFFFFFFFFFFFFFFFFFFFFFFFFFFFFFFFFFFFFFFFFFFFFF
310
FFFFFFFFFFFFFFFFFFFFFFFFFFFFFFFFFFFFFFFFFFFFFFFFFFFFFFFFFFFFFFFF
310
FFFFFFFFFFFFFFFFFFFFFFFFFFFFFFFFFFFFFFFFFFFFFFFFF000FFFFFFFFFFFF
310
FFFFFFFFFFFFFFFFFFFFFFFFFFFFFFFFFFFFFFFFFFFFFFFFFFFFFFFFFFFFFFFF
310
FFFFFFFFFFFFFFFFFFFFFFFFFFFFFFFFFFFFFFFFFFFFFFFFFFFFFFFFFFFFFFFF
310
FFFFFFFFFFFFFFFFFFFFFFFFFFFFFFFFF000FFFFFFFFFFFFFFFFFFFFFFFFFFFF
310
FFFFFFFFFFFFFFFFFFFFFFFFFFFFFFFFFFFFFFFFFFFFFFFFFFFFFFFFFFFFFFFF
310
FFFFFFFFFFFFFFFFFFFFFFFFFFFFFFFFFFFFFFFFFFFFFFFFFFFFFFFFFFFFFFFF
310
FFFFFFFFFFFFFFFFF000FFFFFFFFFFFFFFFFFFFFFFFFFFFFFFFFFFFFFFFFFFFF
310
FFFFFFFFFFFFFFFFFFFFFFFFFFFFFFFFFFFFFFFFFFFFFFFFFFFFFFFFFFFFFFFF
310
FFFFFFFFFFFFFFFFFFFFFFFFFFFFFFFFFFFFFFFFFFFFFFFFFFFFFFFFFFFFFFFF
310
F000FFFFFFFFFFFFFFFFFFFFFFFFFFFFFFFFFFFFFFFFFFFFFFFFFFFFFFFFFFFF
310
FFFFFFFFFFFFFFFFFFFFFFFFFFFFFFFFFFFFFFFFFFFFFFFFFFFFFFFFFFFFFFFF
310
FFFFFFFFFFFFFFFFFFFFFFFFFFFFFFFFFFFFFFFFFFFFFFFFF000FFFFFFFFFFFF
310
FFFFFFFFFFFFFFFFFFFFFFFFFFFFFFFFFFFFFFFFFFFFFFFFFFFFFFFFFFFFFFFF
310
FFFFFFFFFFFFFFFFFFFFFFFFFFFFFFFFFFFFFFFFFFFFFFFFFFFFFFFFFFFFFFFF
310
FFFFFFFFFFFFFFFFFFFFFFFFFFFFFFFFF000FFFFFFFFFFFFFFFFFFFFFFFFFFFF
310
FFFFFFFFFFFFFFFFFFFFFFFFFFFFFFFFFFFFFFFFFFFFFFFFFFFFFFFFFFFFFFFF
310
FFFFFFFFFFFFFFFFFFFFFFFFFFFFFFFFFFFFFFFFFFFFFFFFFFFFFFFFFFFFFFFF
310
FFFFFFFFFFFFFFFFF000FFFFFFFFFFFFFFFFFFFFFFFFFFFFFFFFFFFFFFFFFFFF
310
FFFFFFFFFFFFFFFFFFFFFFFFFFFFFFFFFFFFFFFFFFFFFFFFFFFFFFFFFFFFFFFF
310
FFFFFFFFFFFFFFFFFFFFFFFFFFFFFFFFFFFFFFFFFFFFFFFFFFFFFFFFFFFFFFFF
310
F000FFFFFFFFFFFFFFFFFFFFFFFFFFFFFFFFFFFFFFFFFFFFFFFFFFFFFFFFFFFF
310
FFFFFFFFFFFFFFFFFFFFFFFFFFFFFFFFFFFFFFFFFFFFFFFFFFFFFFFFFFFFFFFF
310
FFFFFFFFFFFFFFFFFFFFFFFFFFFFFFFFFFFFFFFFFFFFFFFFF000FFFFFFFFFFFF
310
FFFFFFFFFFFFFFFFFFFFFFFFFFFFFFFFFFFFFFFFFFFFFFFFFFFFFFFFFFFFFFFF
310
FFFFFFFFFFFFFFFFFFFFFFFFFFFFFFFFFFFFFFFFFFFFFFFFFFFFFFFFFFFFFFFF
310
FFFFFFFFFFFFFFFFFFFFFFFFFFFFFFFFF000FFFFFFFFFFFFFFFFFFFFFFFFFFFF
310
FFFFFFFFFFFFFFFFFFFFFFFFFFFFFFFFFFFFFFFFFFFFFFFFFFFFFFFFFFFFFFFF
310
FFFFFFFFFFFFFFFFFFFFFFFFFFFFFFFFFFFFFFFFFFFFFFFFFFFFFFFFFFFFFFFF
310
FFFFFFFFFFFFFFFFF000FFFFF80003FFFFFFFFFFFFFFFFFFFFFFFFFFFFFFFFFF
310
FFFFF00007FFFFFFFFFF00007FFFFFF800000000000000007FFFFFFFFFFFFFFF
310
FFFFFFFC001FFFFFFFFFFFFFFC001FFFFFFFFFFFFFFFFFFFFFFFFFFE0007FFFF
310
F000FFFF8000007FFFFFFFF8000FFFFFC0007FFFFF80007FFFFF0000007FFFFF
310
FFF8000007FFFFF800000000000000007FFFFFF0001FFFFFFFFFFFC00001FFFF
310
FFFFFFFFC00001FFFFFFFF000000000003FFFFE000007FFFF000FFFE0000000F
310
FFFFFFF0000FFFFF80007FFFFF80007FFFFC0000001FFFFFFFC0000001FFFFF8
310
00000000000000007FFFFFF0001FFFFFFFFFFE0000003FFFFFFFFFFE0000003F
310
FFFFFF000000000003FFFF0000000FFFF000FFF800000003FFFFFFF00007FFFF
310
80007FFFFF80007FFFF000000007FFFFFF000000003FFFF80000000000000000
310
7FFFFFF0001FFFFFFFFFF80000000FFFFFFFFFF80000000FFFFFFF0000000000
310
03FFFC00000003FFF000FFE000000000FFFFFFF00007FFFF80003FFFFF80007F
310
FFC000000001FFFFFC000000001FFFF800000000000000007FFFFFF0001FFFFF
310
FFFFE000000003FFFFFFFFE000000003FFFFFF000000000003FFF000000000FF
310
F000FF80000000007FFFFFF00007FFFF80003FFFFF80007FFF8000000000FFFF
310
F80000000007FFF800000000000000007FFFFFF0001FFFFFFFFFC000000001FF
310
FFFFFFC000000001FFFFFF000000000003FFC0000000007FF000FF0000000000
310
3FFFFFE00007FFFF00003FFFFF80007FFE00000000003FFFF00000000003FFF8
310
00000000000000007FFFFFF0001FFFFFFFFF8000000000FFFFFFFF8000000000
310
FFFFFF000000000003FF80000000003FF000FE00000000001FFFFFE00003FFFF
310
00003FFFFF80007FFC00000000001FFFE00000000001FFF8000001FFFE000000
310
7FFFFFF0001FFFFFFFFE00000000003FFFFFFE00000000003FFFFF0000000000
310
03FF00000000001FF000FC00000000000FFFFFE00003FFFF00001FFFFF80007F
310
F800000000001FFFC00000000000FFF8000001FFFE0000007FFFFFF0001FFFFF
310
FFFC00000000001FFFFFFC00000000001FFFFF000000000003FE00000000000F
310
F000F8000000000007FFFFE00003FFFF00001FFFFF80007FF800000000000FFF
310
800000000000FFF8000001FFFE0000007FFFFFF0001FFFFFFFF800000000000F
310
FFFFF800000000000FFFFF000000000003FC000000000007F000F80000000000
310
03FFFFC00003FFFE00001FFFFF80007FF0000000000007FF0000000000007FF8
310
000001FFFE0000007FFFFFF0001FFFFFFFF0000000000007FFFFF00000000000
310
07FFFF000000000003F8000000000003F000F0000000000003FFFFC00001FFFE
310
00001FFFFF80007FE0000000000007FE0000000000003FF8000001FFFE000000
310
7FFFFFF0001FFFFFFFF0000000000007FFFFF0000000000007FFFF0000000000
310
03F800001F800003F000E00001FFF00001FFFFC00001FFFE00000FFFFF80007F
310
E00001FFE00003FE00001FFF00003FF8000001FFFE0000007FFFFFF0001FFFFF
310
FFE000003E000003FFFFE000003E000003FFFF000000000003F00001FFF80001
310
F000E00007FFFC0001FFFFC00001FFFE00000FFFFF80007FC0000FFFFC0003FC
310
0000FFFFC0001FF8000001FFFE0000007FFFFFF0001FFFFFFFC00003FFE00001
310
FFFFC00003FFE00001FFFF0001FFFFFFFFF00007FFFE0001F000E0000FFFFF00
310
00FFFF800001FFFC00000FFFFF80007FC0001FFFFE0001FC0001FFFFE0001FF8
310
000001FFFE0000007FFFFFF0001FFFFFFF80000FFFF80000FFFF80000FFFF800
310
00FFFF0003FFFFFFFFE0000FFFFF8000F000C0003FFFFF8000FFFF800000FFFC
310
000007FFFF80007F80003FFFFF0001FC0003FFFFF0001FF8000001FFFE000000
310
7FFFFFF0001FFFFFFF80003FFFFE0000FFFF80003FFFFE0000FFFF0003FFFFFF
310
FFE0003FFFFF8000F000C0003FFFFF8000FFFF800000FFFC000007FFFF80007F
310
80007FFFFF8001F80007FFFFF8000FF8000001FFFE0000007FFFFFF0001FFFFF
310
FF00007FFFFF00007FFF00007FFFFF00007FFF0003FFFFFFFFE0003FFFFFC000
310
F000C0007FFFFFC000FFFF000000FFFC000007FFFF80007F8000FFFFFF8000F8
310
000FFFFFF8000FF8000001FFFE0000007FFFFFF0001FFFFFFF0000FFFFFF8000
310
7FFF0000FFFFFF80007FFF0003FFFFFFFFC0007FFFFFC00070008000FFFFFFC0
310
00FFFF000000FFF8000007FFFF80007F8000FFFFFF8000F8000FFFFFF8000FF8
310
000001FFFE0000007FFFFFF0001FFFFFFE0001FFFFFFC0003FFE0001FFFFFFC0
310
003FFF0003FFFFFFFFC0007FFFFFE00070008000FFFFFFC0007FFF0000007FF8
310
000003FFFF80007F0001FFFFFF8000F8000FFFFFF8000FF8000001FFFE000000
310
7FFFFFF0001FFFFFFE0001FFFFFFC0003FFE0001FFFFFFC0003FFF0003FFFFFF
310
FFC000FFFFFFE00070008000FFFFFFC0007FFF0000007FF8000003FFFF80007F
310
0001FFFFFF8000F8001FFFFFF8000FF8000001FFFE0000007FFFFFF0001FFFFF
310
FE0003FFFFFFE0003FFE0003FFFFFFE0003FFF0003FFFFFFFFC000FFFFFFE000
310
70008000FFFFFFC0007FFE0000007FF8000003FFFF80007F0001FFFFFF8000F0
310
001FFFFFF8000FF8000001FFFE0000007FFFFFF0001FFFFFFC0003FFFFFFE000
310
1FFC0003FFFFFFE0001FFF0003FFFFFFFFC000FFFFFFC00070008000FFFFFF80
310
007FFE0000007FF0000003FFFF80007F0001FFFFFF0000F0001FFFFFF8000FF8
310
000001FFFE0000007FFFFFF0001FFFFFFC0007FFFFFFF0001FFC0007FFFFFFF0
310
001FFF0003FFFFFFFFC000FFFFFFC00070008001FFFFFF0000FFFE0000003FF0
310
000001FFFF80007F0001FFFFFF0000F8001FFFFFF0000FF8000001FFFE000000
310
7FFFFFF0001FFFFFFC0007FFFFFFF0001FFC0007FFFFFFF0001FFF0003FFFFFF
310
FFC001FFFFFF80007000FFFFFFFFFE0000FFFE0008003FF0008001FFFF80007F
310
FFFFFFFFFC0000FFFFFFFFFFE0000FF8000001FFFE0000007FFFFFF0001FFFFF
310
F8000FFFFFFFF8000FF8000FFFFFFFF8000FFF0003FFFFFFFFFFFFFFFFFF0000
310
7000FFFFFFFFFC0000FFFC0008003FF0008001FFFF80007FFFFFFFFFF80001FF
310
FFFFFFFF80000FF8000001FFFE0000007FFFFFF0001FFFFFF8000FFFFFFFF800
310
0FF8000FFFFFFFF8000FFF0003FFFFFFFFFFFFFFFFFE0000F000FFFFFFFFE000
310
00FFFC000C003FE000C001FFFF80007FFFFFFFFFC00001FFFFFFFFFE00001FF8
310
000001FFFE0000007FFFFFF0001FFFFFF8000FFFFFFFF8000FF8000FFFFFFFF8
310
000FFF0003FFFFFFFFFFFFFFFFF00000F000FFFFFFFE000001FFFC000C001FE0
310
00C000FFFF80007FFFFFFFFE000001FFFFFFFFE000001FF80FFFFFFFFFFFFFC0
310
7FFFFFF0001FFFFFF8000FFFFFFFF8000FF8000FFFFFFFF8000FFF0003FFFFFF
310
FFFFFFFFFF800000F000FFFFFFC0000001FFFC001C001FE001C000FFFF80007F
310
FFFFFF80000003FFFFFFF80000001FF80FFFFFFFFFFFFFC07FFFFFF0001FFFFF
310
F8001FFFFFFFFC000FF8001FFFFFFFFC000FFF0003FFFFFFFFFFFFFFF0000001
310
F000FFFFF800000001FFF8001C001FE001C000FFFF80007FFFFFF800000003FF
310
FFFF800000003FF80FFFFFFFFFFFFFC07FFFFFF0001FFFFFF8001FFFFFFFFC00
310
0FF8001FFFFFFFFC000FFF0003FFFFFFFFFFFFFE00000001F000FFFFC0000000
310
03FFF8001E001FC001E000FFFF80007FFFFF8000000007FFFFFC000000003FF8
310
0FFFFFFFFFFFFFC07FFFFFF0001FFFFFF8001FFFFFFFFC000FF8001FFFFFFFFC
310
000FFF0003FFFFFFFFFFFFE000000003F000FFFE0000000007FFF8001E000FC0
310
01E0007FFF80007FFFFE0000000007FFFFE0000000007FF80FFFFFFFFFFFFFC0
310
7FFFFFF0001FFFFFF0001FFFFFFFFC0007F0001FFFFFFFFC0007FF0003FFFFFF
310
FFFFFF0000000003F000FFF80000000007FFF8001E000FC003E0007FFF80007F
310
FFF0000000000FFFFF8000000000FFF80FFFFFFFFFFFFFC07FFFFFF0001FFFFF
310
F0001FFFFFFFFC0007F0001FFFFFFFFC0007FF0003FFFFFFFFFFFC0000000007
310
F000FFE0000000000FFFF0003E000FC003E0007FFF80007FFFC0000000001FFF
310
FE0000000001FFF80FFFFFFFFFFFFFC07FFFFFF0001FFFFFF0001FFFFFFFFC00
310
07F0001FFFFFFFFC0007FF0003FFFFFFFFFFF0000000000FF000FFC000000000
310
1FFFF0003F000F8003F0003FFF80007FFF80000000003FFFF80000000003FFF8
310
0FFFFFFFFFFFFFC07FFFFFF0001FFFFFF0001FFFFFFFFC0007F0001FFFFFFFFC
310
0007FF0003FFFFFFFFFFE0000000001FF000FF00000000007FFFF0003F000780
310
03F0003FFF80007FFF00000000007FFFF00000000007FFF80FFFFFFFFFFFFFC0
310
7FFFFFF0001FFFFFF0001FFFFFFFFC0007F0001FFFFFFFFC0007FF0003FFFFFF
310
FFFF80000000007FF000FE0000000000FFFFE0003F00078007F0003FFF80007F
310
FE0000000001FFFFE0000000001FFFF80FFFFFFFFFFFFFC07FFFFFF0001FFFFF
310
F0001FFFFFFFFC0007F0001FFFFFFFFC0007FF0003FFFFFFFFFF0000000000FF
310
F000FC0000000003FFFFE0007F00078007F0003FFF80007FFC0000000007FFFF
310
C0000000007FFFF80FFFFFFFFFFFFFC07FFFFFF0001FFFFFF8001FFFFFFFFC00
310
0FF8001FFFFFFFFC000FFF0003FFFFFFFFFE0000000003FFF000FC000000000F
310
FFFFE0007F80070007F8001FFF80007FF8000000001FFFFF8000000001FFFFF8
310
0FFFFFFFFFFFFFC07FFFFFF0001FFFFFF8001FFFFFFFFC000FF8001FFFFFFFFC
310
000FFF0003FFFFFFFFFC000000000FFFF000F8000000007FFFFFE0007F800700
310
07F8001FFF80007FF000000000FFFFFF800000000FFFFFF80FFFFFFFFFFFFFC0
310
7FFFFFF0001FFFFFF8000FFFFFFFF8000FF8000FFFFFFFF8000FFF0003FFFFFF
310
FFFC000000007FFFF000F800000007FFFFFFC0007F8003000FF8001FFF80007F
310
F000000007FFFFFF000000007FFFFFF80FFFFFFFFFFFFFC07FFFFFF0001FFFFF
310
F8000FFFFFFFF8000FF8000FFFFFFFF8000FFF0003FFFFFFFFF80000000FFFFF
310
F000F0000000FFFFFFFFC000FF8003000FF8001FFF80007FE0000000FFFFFFFF
310
0000000FFFFFFFF8000001FFFE0000007FFFFFF0001FFFFFF8000FFFFFFFF800
310
0FF8000FFFFFFFF8000FFF0003FFFFFFFFF8000000FFFFFFF000F000000FFFFF
310
FFFFC000FFC002000FF8000FFF80007FE000001FFFFFFFFE000001FFFFFFFFF8
310
000001FFFE0000007FFFFFF0001FFFFFF8000FFFFFFFF8000FF8000FFFFFFFF8
310
000FFF0003FFFFFFFFF000001FFFFFFFF000E00000FFFFFFFFFFC000FFC00200
310
0FFC000FFF80007FE00001FFFFFFFFFE00001FFFFFFFFFF8000001FFFE000000
310
7FFFFFF0001FFFFFFC000FFFFFFFF8001FFC000FFFFFFFF8001FFF0003FFFFFF
310
FFF00001FFFFFFFFF000E00007FFFFFFFFFF8000FFC000001FFC000FFF80007F
310
C0000FFFFFFFFFFE0000FFFFFFFFFFF8000001FFFE0000007FFFFFF0001FFFFF
310
FC0007FFFFFFF0001FFC0007FFFFFFF0001FFF0003FFFFFFFFF00007FFFFFFFF
310
F000E0001FFFFFFFFFFF8000FFC000001FFC000FFF80007FC0003FFFFFFFFFFE
310
0001FFFFFFFFFFF8000001FFFE0000007FFFFFF0001FFFFFFC0007FFFFFFF000
310
1FFC0007FFFFFFF0001FFF0003FFFFFFFFF0001FFFFFFFFFF000E0003FFFFF00
310
03FF8001FFE000001FFC0007FF80007FC0007FFFFF0007FC0003FFFFF0003FF8
310
000001FFFE0000007FFFFFF0001FFFFFFC0003FFFFFFE0001FFC0003FFFFFFE0
310
001FFF0003FFFFFFFFF0003FFFFFFFFFF000E0003FFFFF0001FF8001FFE00000
310
1FFE0007FF80007FC0007FFFFE0003FC0007FFFFE0003FF8000001FFFE000000
310
7FFFFFF0001FFFFFFE0003FFFFFFE0003FFE0003FFFFFFE0003FFF0003FFFFFF
310
FFF0003FFFFF8001F000E0003FFFFF0001FF0001FFE000001FFE0007FF80007F
310
C0007FFFFE0003FC0007FFFFE0003FF8000001FFFE0000007FFFFFF0001FFFFF
310
FE0001FFFFFFC0003FFE0001FFFFFFC0003FFF0003FFFFFFFFF0003FFFFF0001
310
F000E0003FFFFF0003FF0001FFE000003FFE0007FF80007FC0007FFFFE0003FC
310
0007FFFFE0003FF8000001FFFE0000007FFFFFF0001FFFFFFF0001FFFFFFC000
310
7FFF0001FFFFFFC0007FFF0003FFFFFFFFF0003FFFFF0001F000E0003FFFFE00
310
03FF0003FFF000003FFE0003FF80007FC0007FFFFC0003FE0007FFFFE0003FF8
310
000001FFFE0000007FFFFFF0001FFFFFFF0000FFFFFF80007FFF0000FFFFFF80
310
007FFF0003FFFFFFFFF0003FFFFF0001F000E0003FFFFE0003FF0003FFF00000
310
3FFF0003FF80007FC0007FFFFC0007FE0007FFFFC0003FF8000001FFFE000000
310
7FFFFFF0001FFFFFFF80007FFFFF0000FFFF80007FFFFF0000FFFF0003FFFFFF
310
FFF0003FFFFF0003F000E0003FFFFC0003FE0003FFF000003FFF0003FF80007F
310
E0003FFFF80007FE0003FFFFC0007FF8000001FFFE0000007FFFFFF0001FFFFF
310
FF80003FFFFE0000FFFF80003FFFFE0000FFFF0003FFFFFFFFF0001FFFFE0003
310
F000F0001FFFF80003FE0003FFF000007FFF0001FF80007FE0003FFFF00007FE
310
0001FFFF80007FF8000001FFFE0000007FFFFFF0001FFFFFFFC0000FFFF80001
310
FFFFC0000FFFF80001FFFF0003FFFFFFFFF0001FFFFC0003F000F0000FFFF000
310
07FE0007FFF800007FFF0001FF80007FE0001FFFE00007FF0000FFFE00007FF8
310
000001FFFE0000007FFFFFF0001FFFFFFFC00003FFE00001FFFFC00003FFE000
310
01FFFF0003FFFFFFFFF8000FFFF80003F000F00003FFC00007FC0007FFF80000
310
7FFF8001FF80007FF00007FF80000FFF00007FF80000FFF8000001FFFE000000
310
7F80000000000001FFE000003E000003FFFFE000003E000003FFFF0003FFFFFF
310
FFF80003FFE00007F000F800000000000FFC0007FFF800007FFF8001FF80007F
310
F000000000000FFF000000000000FFF8000001FFFE0000007F80000000000001
310
FFF0000000000007FFFFF0000000000007FFFF0003FFFFFFFFFC00007E000007
310
F000F800000000000FFC0007FFF80000FFFF8000FF80007FF800000000001FFF
310
800000000001FFF8000001FFFE0000007F80000000000001FFF800000000000F
310
FFFFF800000000000FFFFF0003FFFFFFFFFC00000000000FF000FC0000000000
310
1FFC0007FFFC0000FFFF8000FF80007FF800000000003FFFC00000000001FFF8
310
000001FFFE0000007F80000000000001FFF800000000000FFFFFF80000000000
310
0FFFFF0003FFFFFFFFFE00000000001FF000FE00000000003FF8000FFFFC0000
310
FFFF8000FF80007FFC00000000003FFFC00000000003FFF8000001FFFE000000
310
7F80000000000001FFFC00000000001FFFFFFC00000000001FFFFF0003FFFFFF
310
FFFF00000000001FF000FF00000000003FF8000FFFFC0000FFFFC000FF80007F
310
FE00000000007FFFE00000000007FFF8000001FFFE0000007F80000000000001
310
FFFE00000000003FFFFFFE00000000003FFFFF0003FFFFFFFFFF80000000003F
310
F000FF80000000007FF8000FFFFC0001FFFFC0007F80007FFF0000000000FFFF
310
F0000000000FFFF800000000000000007F80000000000001FFFF8000000000FF
310
FFFFFF8000000000FFFFFF0003FFFFFFFFFFC0000000007FF000FFC000000000
310
FFF8000FFFFE0001FFFFC0007F80007FFF8000000001FFFFF8000000001FFFF8
310
00000000000000007F80000000000001FFFFC000000001FFFFFFFFC000000001
310
FFFFFF0003FFFFFFFFFFE000000000FFF000FFE000000003FFF0001FFFFE0001
310
FFFFC0007F80007FFFC000000007FFFFFE000000003FFFF80000000000000000
310
7F80000000000001FFFFE000000003FFFFFFFFE000000003FFFFFF0003FFFFFF
310
FFFFF000000003FFF000FFF80000000FFFF0001FFFFE0001FFFFE0007F80007F
310
FFF00000000FFFFFFF00000000FFFFF800000000000000007F80000000000001
310
FFFFF80000000FFFFFFFFFF80000000FFFFFFF0003FFFFFFFFFFFC0000000FFF
310
F000FFFE0000003FFFF0001FFFFE0003FFFFE0003F80007FFFFC0000003FFFFF
310
FFC0000003FFFFF800000000000000007F80000000000001FFFFFE0000003FFF
310
FFFFFFFE0000003FFFFFFF0003FFFFFFFFFFFF0000003FFFF000FFFF800000FF
310
FFF0001FFFFF0003FFFFE0003F80007FFFFF000001FFFFFFFFF800001FFFFFF8
310
00000000000000007F80000000000001FFFFFFC00001FFFFFFFFFFFFC00001FF
310
FFFFFF0003FFFFFFFFFFFFC00000FFFFF000FFFFF8000FFFFFFFFFFFFFFFFFFF
310
FFFFFFFFFFFFFFFFFFFFF0001FFFFFFFFFFF0000FFFFFFF80000000000000000
310
7FFFFFFFFFFFFFFFFFFFFFFC001FFFFFFFFFFFFFFC001FFFFFFFFFFFFFFFFFFF
310
FFFFFFFC001FFFFFF000FFFFFFFFFFFFFFFFFFFFFFFFFFFFFFFFFFFFFFFFFFFF
310
FFFFFFFFFFFFFFFFFFFFFFFFFFFFFFFFFFFFFFFFFFFFFFFFFFFFFFFFFFFFFFFF
310
FFFFFFFFFFFFFFFFFFFFFFFFFFFFFFFFFFFFFFFFFFFFFFFFFFFFFFFFFFFFFFFF
310
F000FFFFFFFFFFFFFFFFFFFFFFFFFFFFFFFFFFFFFFFFFFFFFFFFFFFFFFFFFFFF
310
FFFFFFFFFFFFFFFFFFFFFFFFFFFFFFFFFFFFFFFFFFFFFFFFFFFFFFFFFFFFFFFF
310
FFFFFFFFFFFFFFFFFFFFFFFFFFFFFFFFFFFFFFFFFFFFFFFFF000FFFFFFFFFFFF
310
FFFFFFFFFFFFFFFFFFFFFFFFFFFFFFFFFFFFFFFFFFFFFFFFFFFFFFFFFFFFFFFF
310
FFFFFFFFFFFFFFFFFFFFFFFFFFFFFFFFFFFFFFFFFFFFFFFFFFFFFFFFFFFFFFFF
310
FFFFFFFFFFFFFFFFFFFFFFFFFFFFFFFFF000FFFFFFFFFFFFFFFFFFFFFFFFFFFF
310
FFFFFFFFFFFFFFFFFFFFFFFFFFFFFFFFFFFFFFFFFFFFFFFFFFFFFFFFFFFFFFFF
310
FFFFFFFFFFFFFFFFFFFFFFFFFFFFFFFFFFFFFFFFFFFFFFFFFFFFFFFFFFFFFFFF
310
FFFFFFFFFFFFFFFFF000FFFFFFFFFFFFFFFFFFFFFFFFFFFFFFFFFFFFFFFFFFFF
310
FFFFFFFFFFFFFFFFFFFFFFFFFFFFFFFFFFFFFFFFFFFFFFFFFFFFFFFFFFFFFFFF
310
FFFFFFFFFFFFFFFFFFFFFFFFFFFFFFFFFFFFFFFFFFFFFFFFFFFFFFFFFFFFFFFF
310
F000FFFFFFFFFFFFFFFFFFFFFFFFFFFFFFFFFFFFFFFFFFFFFFFFFFFFFFFFFFFF
310
FFFFFFFFFFFFFFFFFFFFFFFFFFFFFFFFFFFFFFFFFFFFFFFFFFFFFFFFFFFFFFFF
310
FFFFFFFFFFFFFFFFFFFFFFFFFFFFFFFFFFFFFFFFFFFFFFFFF000FFFFFFFFFFFF
310
FFFFFFFFFFFFFFFFFFFFFFFFFFFFFFFFFFFFFFFFFFFFFFFFFFFFFFFFFFFFFFFF
310
FFFFFFFFFFFFFFFFFFFFFFFFFFFFFFFFFFFFFFFFFFFFFFFFFFFFFFFFFFFFFFFF
310
FFFFFFFFFFFFFFFFFFFFFFFFFFFFFFFFF000FFFFFFFFFFFFFFFFFFFFFFFFFFFF
310
FFFFFFFFFFFFFFFFFFFFFFFFFFFFFFFFFFFFFFFFFFFFFFFFFFFFFFFFFFFFFFFF
310
FFFFFFFFFFFFFFFFFFFFFFFFFFFFFFFFFFFFFFFFFFFFFFFFFFFFFFFFFFFFFFFF
310
FFFFFFFFFFFFFFFFF000FFFFFFFFFFFFFFFFFFFFFFFFFFFFFFFFFFFFFFFFFFFF
310
FFFFFFFFFFFFFFFFFFFFFFFFFFFFFFFFFFFFFFFFFFFFFFFFFFFFFFFFFFFFFFFF
310
FFFFFFFFFFFFFFFFFFFFFFFFFFFFFFFFFFFFFFFFFFFFFFFFFFFFFFFFFFFFFFFF
310
F000FFFFFFFFFFFFFFFFFFFFFFFFFFFFFFFFFFFFFFFFFFFFFFFFFFFFFFFFFFFF
310
FFFFFFFFFFFFFFFFFFFFFFFFFFFFFFFFFFFFFFFFFFFFFFFFFFFFFFFFFFFFFFFF
310
FFFFFFFFFFFFFFFFFFFFFFFFFFFFFFFFFFFFFFFFFFFFFFFFF000FFFFFFFFFFFF
310
FFFFFFFFFFFFFFFFFFFFFFFFFFFFFFFFFFFFFFFFFFFFFFFFFFFFFFFFFFFFFFFF
310
FFFFFFFFFFFFFFFFFFFFFFFFFFFFFFFFFFFFFFFFFFFFFFFFFFFFFFFFFFFFFFFF
310
FFFFFFFFFFFFFFFFFFFFFFFFFFFFFFFFF000FFFFFFFFFFFFFFFFFFFFFFFFFFFF
310
FFFFFFFFFFFFFFFFFFFFFFFFFFFFFFFFFFFFFFFFFFFFFFFFFFFFFFFFFFFFFFFF
310
FFFFFFFFFFFFFFFFFFFFFFFFFFFFFFFFFFFFFFFFFFFFFFFFFFFFFFFFFFFFFFFF
310
FFFFFFFFFFFFFFFFF000FFFFFFFFFFFFFFFFFFFFFFFFFFFFFFFFFFFFFFFFFFFF
310
FFFFFFFFFFFFFFFFFFFFFFFFFFFFFFFFFFFFFFFFFFFFFFFFFFFFFFFFFFFFFFFF
310
FFFFFFFFFFFFFFFFFFFFFFFFFFFFFFFFFFFFFFFFFFFFFFFFFFFFFFFFFFFFFFFF
310
F000FFFFFFFFFFFFFFFFFFFFFFFFFFFFFFFFFFFFFFFFFFFFFFFFFFFFFFFFFFFF
310
FFFFFFFFFFFFFFFFFFFFFFFFFFFFFFFFFFFFFFFFFFFFFFFFFFFFFFFFFFFFFFFF
310
FFFFFFFFFFFFFFFFFFFFFFFFFFFFFFFFFFFFFFFFFFFFFFFFF000FFFFFFFFFFFF
310
FFFFFFFFFFFFFFFFFFFFFFFFFFFFFFFFFFFFFFFFFFFFFFFFFFFFFFFFFFFFFFFF
310
FFFFFFFFFFFFFFFFFFFFFFFFFFFFFFFFFFFFFFFFFFFFFFFFFFFFFFFFFFFFFFFF
310
FFFFFFFFFFFFFFFFFFFFFFFFFFFFFFFFF000FFFFFFFFFFFFFFFFFFFFFFFFFFFF
310
FFFFFFFFFFFFFFFFFFFFFFFFFFFFFFFFFFFFFFFFFFFFFFFFFFFFFFFFFFFFFFFF
310
FFFFFFFFFFFFFFFFFFFFFFFFFFFFFFFFFFFFFFFFFFFFFFFFFFFFFFFFFFFFFFFF
310
FFFFFFFFFFFFFFFFF000FFFFFFFFFFFFFFFFFFFFFFFFFFFFFFFFFFFFFFFFFFFF
310
FFFFFFFFFFFFFFFFFFFFFFFFFFFFFFFFFFFFFFFFFFFFFFFFFFFFFFFFFFFFFFFF
310
FFFFFFFFFFFFFFFFFFFFFFFFFFFFFFFFFFFFFFFFFFFFFFFFFFFFFFFFFFFFFFFF
310
F000FFFFFFFFFFFFFFFFFFFFFFFFFFFFFFFFFFFFFFFFFFFFFFFFFFFFFFFFFFFF
310
FFFFFFFFFFFFFFFFFFFFFFFFFFFFFFFFFFFFFFFFFFFFFFFFFFFFFFFFFFFFFFFF
310
FFFFFFFFFFFFFFFFFFFFFFFFFFFFFFFFFFFFFFFFFFFFFFFFF000FFFFFFFFFFFF
310
FFFFFFFFFFFFFFFFFFFFFFFFFFFFFFFFFFFFFFFFFFFFFFFFFFFFFFFFFFFFFFFF
310
FFFFFFFFFFFFFFFFFFFFFFFFFFFFFFFFFFFFFFFFFFFFFFFFFFFFFFFFFFFFFFFF
310
FFFFFFFFFFFFFFFFFFFFFFFFFFFFFFFFF000FFFFFFFFFFFFFFFFFFFFFFFFFFFF
310
FFFFFFFFFFFFFFFFFFFFFFFFFFFFFFFFFFFFFFFFFFFFFFFFFFFFFFFFFFFFFFFF
310
FFFFFFFFFFFFFFFFFFFFFFFFFFFFFFFFFFFFFFFFFFFFFFFFFFFFFFFFFFFFFFFF
310
FFFFFFFFFFFFFFFFF000FFFFFFFFFFFFFFFFFFFFFFFFFFFFFFFFFFFFFFFFFFFF
310
FFFFFFFFFFFFFFFFFFFFFFFFFFFFFFFFFFFFFFFFFFFFFFFFFFFFFFFFFFFFFFFF
310
FFFFFFFFFFFFFFFFFFFFFFFFFFFFFFFFFFFFFFFFFFFFFFFFFFFFFFFFFFFFFFFF
310
F000FFFFFFFFFFFFFFFFFFFFFFFFFFFFFFFFFFFFFFFFFFFFFFFFFFFFFFFFFFFF
310
FFFFFFFFFFFFFFFFFFFFFFFFFFFFFFFFFFFFFFFFFFFFFFFFFFFFFFFFFFFFFFFF
310
FFFFFFFFFFFFFFFFFFFFFFFFFFFFFFFFFFFFFFFFFFFFFFFFF000FFFFFFFFFFFF
310
FFFFFFFFFFFFFFFFFFFFFFFFFFFFFFFFFFFFFFFFFFFFFFFFFFFFFFFFFFFFFFFF
310
FFFFFFFFFFFFFFFFFFFFFFFFFFFFFFFFFFFFFFFFFFFFFFFFFFFFFFFFFFFFFFFF
310
FFFFFFFFFFFFFFFFFFFFFFFFFFFFFFFFF0000000000000000000000000000000
310
0000000000000000000000000000000000000000000000000000000000000000
310
0000000000000000000000000000000000000000000000000000000000000000
310
0000000000000000000000000000000000000000000000000000000000000000
310
0000000000000000000000000000000000000000000000000000000000000000
310
0000000000000000000000000000000000000000000000000000000000000000
310
0000000000000000000000000000000000000000000000000000000000000000
310
0000000000000000000000000000000000000000000000000000000000000000
310
0000000000000000000000000000000000000000000000000000000000000000
310
0000000000000000000000000000000000000000000000000000000000000000
310
0000000000000000000000000000000000000000000000000000000000000000
310
0000000000000000000000000000000000000000000000000000000000000000
310
0000000000000000000000000000000000000000000000000000000000000000
310
0000000000000000000000000000000000000000000000000000000000000000
310
0000000000000000000000000000000000000000000000000000000000000000
310
0000000000000000000000000000000000000000000000000000000000000000
  1
OLE
  0
ENDSEC
  0
SECTION
  2
OBJECTS
  0
DICTIONARY
  5
C
330
0
100
AcDbDictionary
281
     1
  3
ACAD_GROUP
350
D
  3
ACAD_LAYOUT
350
1A
  3
ACAD_MLINESTYLE
350
17
  3
ACAD_PLOTSETTINGS
350
19
  3
ACAD_PLOTSTYLENAME
350
E
  3
ACAD_SCALELIST
350
47
  0
DICTIONARY
  5
D
102
{ACAD_REACTORS
330
C
102
}
330
C
100
AcDbDictionary
281
     1
  0
DICTIONARY
  5
1A
102
{ACAD_REACTORS
330
C
102
}
330
C
100
AcDbDictionary
281
     1
  3
Layout1
350
1E
  3
Layout2
350
26
  3
Model
350
22
  0
DICTIONARY
  5
17
102
{ACAD_REACTORS
330
C
102
}
330
C
100
AcDbDictionary
281
     1
  3
Standard
350
18
  0
DICTIONARY
  5
19
102
{ACAD_REACTORS
330
C
102
}
330
C
100
AcDbDictionary
281
     1
  0
ACDBDICTIONARYWDFLT
  5
E
102
{ACAD_REACTORS
330
C
102
}
330
C
100
AcDbDictionary
281
     1
  3
Normal
350
F
100
AcDbDictionaryWithDefault
340
F
  0
DICTIONARY
  5
47
102
{ACAD_REACTORS
330
C
102
}
330
C
100
AcDbDictionary
281
     1
  3
A0
350
48
  3
A1
350
49
  3
A2
350
4A
  3
A3
350
4B
  3
A4
350
4C
  3
A5
350
4D
  3
A6
350
4E
  3
A7
350
4F
  3
A8
350
50
  3
A9
350
51
  3
B0
350
52
  3
B1
350
53
  3
B2
350
54
  3
B3
350
55
  3
B4
350
56
  3
B5
350
57
  3
B6
350
58
  3
B7
350
59
  3
B8
350
5A
  3
B9
350
5B
  3
C0
350
5C
  3
C1
350
5D
  3
C2
350
5E
  3
C3
350
5F
  3
C4
350
60
  3
C5
350
61
  3
C6
350
62
  3
C7
350
63
  3
C8
350
64
  3
C9
350
65
  3
D0
350
66
  3
D1
350
67
  3
D2
350
68
  0
LAYOUT
  5
1E
102
{ACAD_REACTORS
330
1A
102
}
330
1A
100
AcDbPlotSettings
  1

  2
none_device
  4

  6

 40
0.0
 41
0.0
 42
0.0
 43
0.0
 44
0.0
 45
0.0
 46
0.0
 47
0.0
 48
0.0
 49
0.0
140
0.0
141
0.0
142
1.0
143
1.0
 70
   688
 72
     1
 73
     0
 74
     5
  7

 75
    16
147
1.0
148
0.0
149
0.0
100
AcDbLayout
  1
Layout1
 70
     1
 71
     1
 10
0.0
 20
0.0
 11
420.0
 21
297.0
 12
0.0
 22
0.0
 32
0.0
 14
1.0000000000E+20
 24
1.0000000000E+20
 34
1.0000000000E+20
 15
-1.0000000000E+20
 25
-1.0000000000E+20
 35
-1.0000000000E+20
146
0.0
 13
0.0
 23
0.0
 33
0.0
 16
1.0
 26
0.0
 36
0.0
 17
0.0
 27
1.0
 37
0.0
 76
     0
330
1B
  0
LAYOUT
  5
26
102
{ACAD_REACTORS
330
1A
102
}
330
1A
100
AcDbPlotSettings
  1

  2
none_device
  4

  6

 40
0.0
 41
0.0
 42
0.0
 43
0.0
 44
0.0
 45
0.0
 46
0.0
 47
0.0
 48
0.0
 49
0.0
140
0.0
141
0.0
142
1.0
143
1.0
 70
   688
 72
     1
 73
     0
 74
     5
  7

 75
    16
147
1.0
148
0.0
149
0.0
100
AcDbLayout
  1
Layout2
 70
     1
 71
     2
 10
0.0
 20
0.0
 11
0.0
 21
0.0
 12
0.0
 22
0.0
 32
0.0
 14
0.0
 24
0.0
 34
0.0
 15
0.0
 25
0.0
 35
0.0
146
0.0
 13
0.0
 23
0.0
 33
0.0
 16
1.0
 26
0.0
 36
0.0
 17
0.0
 27
1.0
 37
0.0
 76
     0
330
23
  0
LAYOUT
  5
22
102
{ACAD_REACTORS
330
1A
102
}
330
1A
100
AcDbPlotSettings
  1

  2
none_device
  4
Letter_(8.50_x_11.00_Inches)
  6

 40
6.35
 41
6.35
 42
6.35000508
 43
6.35000508
 44
215.9
 45
279.4
 46
0.0
 47
0.0
 48
0.0
 49
0.0
140
0.0
141
0.0
142
1.0
143
1.0
 70
  1712
 72
     1
 73
     0
 74
     0
  7

 75
     0
147
1.0
148
0.0
149
0.0
100
AcDbLayout
  1
Model
 70
     1
 71
     0
 10
0.0
 20
0.0
 11
297.0
 21
210.0
 12
0.0
 22
0.0
 32
0.0
 14
0.0
 24
0.0
 34
0.0
 15
297.0
 25
210.0
 35
0.0
146
0.0
 13
0.0
 23
0.0
 33
0.0
 16
1.0
 26
0.0
 36
0.0
 17
0.0
 27
1.0
 37
0.0
 76
     0
330
1F
331
29
  0
MLINESTYLE
  5
18
102
{ACAD_REACTORS
330
17
102
}
330
17
100
AcDbMlineStyle
  2
Standard
 70
     0
  3

 62
   256
 51
90.0
 52
90.0
 71
     2
 49
0.5
 62
   256
  6
BYLAYER
 49
-0.5
 62
   256
  6
BYLAYER
  0
ACDBPLACEHOLDER
  5
F
102
{ACAD_REACTORS
330
E
102
}
330
E
  0
SCALE
  5
48
102
{ACAD_REACTORS
330
47
102
}
330
47
100
AcDbScale
 70
     0
300
1:1
140
1.0
141
1.0
290
     1
  0
SCALE
  5
49
102
{ACAD_REACTORS
330
47
102
}
330
47
100
AcDbScale
 70
     0
300
1:2
140
1.0
141
2.0
290
     0
  0
SCALE
  5
4A
102
{ACAD_REACTORS
330
47
102
}
330
47
100
AcDbScale
 70
     0
300
1:4
140
1.0
141
4.0
290
     0
  0
SCALE
  5
4B
102
{ACAD_REACTORS
330
47
102
}
330
47
100
AcDbScale
 70
     0
300
1:5
140
1.0
141
5.0
290
     0
  0
SCALE
  5
4C
102
{ACAD_REACTORS
330
47
102
}
330
47
100
AcDbScale
 70
     0
300
1:8
140
1.0
141
8.0
290
     0
  0
SCALE
  5
4D
102
{ACAD_REACTORS
330
47
102
}
330
47
100
AcDbScale
 70
     0
300
1:10
140
1.0
141
10.0
290
     0
  0
SCALE
  5
4E
102
{ACAD_REACTORS
330
47
102
}
330
47
100
AcDbScale
 70
     0
300
1:16
140
1.0
141
16.0
290
     0
  0
SCALE
  5
4F
102
{ACAD_REACTORS
330
47
102
}
330
47
100
AcDbScale
 70
     0
300
1:20
140
1.0
141
20.0
290
     0
  0
SCALE
  5
50
102
{ACAD_REACTORS
330
47
102
}
330
47
100
AcDbScale
 70
     0
300
1:30
140
1.0
141
30.0
290
     0
  0
SCALE
  5
51
102
{ACAD_REACTORS
330
47
102
}
330
47
100
AcDbScale
 70
     0
300
1:40
140
1.0
141
40.0
290
     0
  0
SCALE
  5
52
102
{ACAD_REACTORS
330
47
102
}
330
47
100
AcDbScale
 70
     0
300
1:50
140
1.0
141
50.0
290
     0
  0
SCALE
  5
53
102
{ACAD_REACTORS
330
47
102
}
330
47
100
AcDbScale
 70
     0
300
1:100
140
1.0
141
100.0
290
     0
  0
SCALE
  5
54
102
{ACAD_REACTORS
330
47
102
}
330
47
100
AcDbScale
 70
     0
300
2:1
140
2.0
141
1.0
290
     0
  0
SCALE
  5
55
102
{ACAD_REACTORS
330
47
102
}
330
47
100
AcDbScale
 70
     0
300
4:1
140
4.0
141
1.0
290
     0
  0
SCALE
  5
56
102
{ACAD_REACTORS
330
47
102
}
330
47
100
AcDbScale
 70
     0
300
8:1
140
8.0
141
1.0
290
     0
  0
SCALE
  5
57
102
{ACAD_REACTORS
330
47
102
}
330
47
100
AcDbScale
 70
     0
300
10:1
140
10.0
141
1.0
290
     0
  0
SCALE
  5
58
102
{ACAD_REACTORS
330
47
102
}
330
47
100
AcDbScale
 70
     0
300
100:1
140
100.0
141
1.0
290
     0
  0
SCALE
  5
59
102
{ACAD_REACTORS
330
47
102
}
330
47
100
AcDbScale
 70
     0
300
1/128" = 1'-0"
140
0.0078125
141
12.0
290
     0
  0
SCALE
  5
5A
102
{ACAD_REACTORS
330
47
102
}
330
47
100
AcDbScale
 70
     0
300
1/64" = 1'-0"
140
0.015625
141
12.0
290
     0
  0
SCALE
  5
5B
102
{ACAD_REACTORS
330
47
102
}
330
47
100
AcDbScale
 70
     0
300
1/32" = 1'-0"
140
0.03125
141
12.0
290
     0
  0
SCALE
  5
5C
102
{ACAD_REACTORS
330
47
102
}
330
47
100
AcDbScale
 70
     0
300
1/16" = 1'-0"
140
0.0625
141
12.0
290
     0
  0
SCALE
  5
5D
102
{ACAD_REACTORS
330
47
102
}
330
47
100
AcDbScale
 70
     0
300
3/32" = 1'-0"
140
0.09375
141
12.0
290
     0
  0
SCALE
  5
5E
102
{ACAD_REACTORS
330
47
102
}
330
47
100
AcDbScale
 70
     0
300
1/8" = 1'-0"
140
0.125
141
12.0
290
     0
  0
SCALE
  5
5F
102
{ACAD_REACTORS
330
47
102
}
330
47
100
AcDbScale
 70
     0
300
3/16" = 1'-0"
140
0.1875
141
12.0
290
     0
  0
SCALE
  5
60
102
{ACAD_REACTORS
330
47
102
}
330
47
100
AcDbScale
 70
     0
300
1/4" = 1'-0"
140
0.25
141
12.0
290
     0
  0
SCALE
  5
61
102
{ACAD_REACTORS
330
47
102
}
330
47
100
AcDbScale
 70
     0
300
3/8" = 1'-0"
140
0.375
141
12.0
290
     0
  0
SCALE
  5
62
102
{ACAD_REACTORS
330
47
102
}
330
47
100
AcDbScale
 70
     0
300
1/2" = 1'-0"
140
0.5
141
12.0
290
     0
  0
SCALE
  5
63
102
{ACAD_REACTORS
330
47
102
}
330
47
100
AcDbScale
 70
     0
300
3/4" = 1'-0"
140
0.75
141
12.0
290
     0
  0
SCALE
  5
64
102
{ACAD_REACTORS
330
47
102
}
330
47
100
AcDbScale
 70
     0
300
1" = 1'-0"
140
1.0
141
12.0
290
     0
  0
SCALE
  5
65
102
{ACAD_REACTORS
330
47
102
}
330
47
100
AcDbScale
 70
     0
300
1-1/2" = 1'-0"
140
1.5
141
12.0
290
     0
  0
SCALE
  5
66
102
{ACAD_REACTORS
330
47
102
}
330
47
100
AcDbScale
 70
     0
300
3" = 1'-0"
140
3.0
141
12.0
290
     0
  0
SCALE
  5
67
102
{ACAD_REACTORS
330
47
102
}
330
47
100
AcDbScale
 70
     0
300
6" = 1'-0"
140
6.0
141
12.0
290
     0
  0
SCALE
  5
68
102
{ACAD_REACTORS
330
47
102
}
330
47
100
AcDbScale
 70
     0
300
1'-0" = 1'-0"
140
12.0
141
12.0
290
     0
  0
ENDSEC
  0
EOF
