  0
SECTION
  2
HEADER
  9
$ACADVER
  1
AC1015
  9
$ACADMAINTVER
 70
     6
  9
$DWGCODEPAGE
  3
ANSI_1252
  9
$INSBASE
 10
0.0
 20
0.0
 30
0.0
  9
$EXTMIN
 10
0.0
 20
0.0
 30
0.0
  9
$EXTMAX
 10
297.0
 20
210.0
 30
0.0
  9
$LIMMIN
 10
0.0
 20
0.0
  9
$LIMMAX
 10
297.0
 20
210.0
  9
$ORTHOMODE
 70
     0
  9
$REGENMODE
 70
     1
  9
$FILLMODE
 70
     1
  9
$QTEXTMODE
 70
     0
  9
$MIRRTEXT
 70
     1
  9
$LTSCALE
 40
1.0
  9
$ATTMODE
 70
     1
  9
$TEXTSIZE
 40
2.0
  9
$TRACEWID
 40
1.0
  9
$TEXTSTYLE
  7
Standard
  9
$CLAYER
  8
0
  9
$CELTYPE
  6
ByLayer
  9
$CECOLOR
 62
   256
  9
$CELTSCALE
 40
1.0
  9
$DISPSILH
 70
     0
  9
$DIMSCALE
 40
1.0
  9
$DIMASZ
 40
3.0
  9
$DIMEXO
 40
0.0
  9
$DIMDLI
 40
3.75
  9
$DIMRND
 40
0.0
  9
$DIMDLE
 40
0.0
  9
$DIMEXE
 40
1.0
  9
$DIMTP
 40
0.0
  9
$DIMTM
 40
0.0
  9
$DIMTXT
 40
2.0
  9
$DIMCEN
 40
2.5
  9
$DIMTSZ
 40
0.0
  9
$DIMTOL
 70
     0
  9
$DIMLIM
 70
     0
  9
$DIMTIH
 70
     1
  9
$DIMTOH
 70
     1
  9
$DIMSE1
 70
     0
  9
$DIMSE2
 70
     0
  9
$DIMTAD
 70
     1
  9
$DIMZIN
 70
     0
  9
$DIMBLK
  1

  9
$DIMASO
 70
     1
  9
$DIMSHO
 70
     1
  9
$DIMPOST
  1

  9
$DIMAPOST
  1

  9
$DIMALT
 70
     0
  9
$DIMALTD
 70
     3
  9
$DIMALTF
 40
0.0393700787
  9
$DIMLFAC
 40
2.0
  9
$DIMTOFL
 70
     1
  9
$DIMTVP
 40
0.0
  9
$DIMTIX
 70
     0
  9
$DIMSOXD
 70
     0
  9
$DIMSAH
 70
     0
  9
$DIMBLK1
  1

  9
$DIMBLK2
  1

  9
$DIMSTYLE
  2
ISO-25
  9
$DIMCLRD
 70
     0
  9
$DIMCLRE
 70
     0
  9
$DIMCLRT
 70
     0
  9
$DIMTFAC
 40
1.0
  9
$DIMGAP
 40
1.524
  9
$DIMJUST
 70
     0
  9
$DIMSD1
 70
     0
  9
$DIMSD2
 70
     0
  9
$DIMTOLJ
 70
     0
  9
$DIMTZIN
 70
     0
  9
$DIMALTZ
 70
     0
  9
$DIMALTTZ
 70
     0
  9
$DIMUPT
 70
     0
  9
$DIMDEC
 70
     2
  9
$DIMTDEC
 70
     3
  9
$DIMALTU
 70
     2
  9
$DIMALTTD
 70
     3
  9
$DIMTXSTY
  7
Standard
  9
$DIMAUNIT
 70
     0
  9
$DIMADEC
 70
     2
  9
$DIMALTRND
 40
0.0
  9
$DIMAZIN
 70
     0
  9
$DIMDSEP
 70
    44
  9
$DIMATFIT
 70
     3
  9
$DIMFRAC
 70
     0
  9
$DIMLDRBLK
  1

  9
$DIMLUNIT
 70
     2
  9
$DIMLWD
 70
    -2
  9
$DIMLWE
 70
    -2
  9
$DIMTMOVE
 70
     0
  9
$LUNITS
 70
     2
  9
$LUPREC
 70
     2
  9
$SKETCHINC
 40
1.0
  9
$FILLETRAD
 40
10.0
  9
$AUNITS
 70
     0
  9
$AUPREC
 70
     2
  9
$MENU
  1
.
  9
$ELEVATION
 40
0.0
  9
$PELEVATION
 40
0.0
  9
$THICKNESS
 40
0.0
  9
$LIMCHECK
 70
     0
  9
$CHAMFERA
 40
0.0
  9
$CHAMFERB
 40
0.0
  9
$CHAMFERC
 40
0.0
  9
$CHAMFERD
 40
0.0
  9
$SKPOLY
 70
     0
  9
$TDCREATE
 40
2457673.457101632
  9
$TDUCREATE
 40
2457673.373768298
  9
$TDUPDATE
 40
2457673.457102731
  9
$TDUUPDATE
 40
2457673.373769398
  9
$TDINDWG
 40
0.0000000116
  9
$TDUSRTIMER
 40
0.0000000116
  9
$USRTIMER
 70
     1
  9
$ANGBASE
 50
0.0
  9
$ANGDIR
 70
     0
  9
$PDMODE
 70
     0
  9
$PDSIZE
 40
-1.0
  9
$PLINEWID
 40
0.0
  9
$SPLFRAME
 70
     0
  9
$SPLINETYPE
 70
     6
  9
$SPLINESEGS
 70
     8
  9
$HANDSEED
  5
1DC
  9
$SURFTAB1
 70
     6
  9
$SURFTAB2
 70
     6
  9
$SURFTYPE
 70
     6
  9
$SURFU
 70
     6
  9
$SURFV
 70
     6
  9
$UCSBASE
  2

  9
$UCSNAME
  2

  9
$UCSORG
 10
0.0
 20
0.0
 30
0.0
  9
$UCSXDIR
 10
1.0
 20
0.0
 30
0.0
  9
$UCSYDIR
 10
0.0
 20
1.0
 30
0.0
  9
$UCSORTHOREF
  2

  9
$UCSORTHOVIEW
 70
     0
  9
$UCSORGTOP
 10
0.0
 20
0.0
 30
0.0
  9
$UCSORGBOTTOM
 10
0.0
 20
0.0
 30
0.0
  9
$UCSORGLEFT
 10
0.0
 20
0.0
 30
0.0
  9
$UCSORGRIGHT
 10
0.0
 20
0.0
 30
0.0
  9
$UCSORGFRONT
 10
0.0
 20
0.0
 30
0.0
  9
$UCSORGBACK
 10
0.0
 20
0.0
 30
0.0
  9
$PUCSBASE
  2

  9
$PUCSNAME
  2

  9
$PUCSORG
 10
0.0
 20
0.0
 30
0.0
  9
$PUCSXDIR
 10
1.0
 20
0.0
 30
0.0
  9
$PUCSYDIR
 10
0.0
 20
1.0
 30
0.0
  9
$PUCSORTHOREF
  2

  9
$PUCSORTHOVIEW
 70
     0
  9
$PUCSORGTOP
 10
0.0
 20
0.0
 30
0.0
  9
$PUCSORGBOTTOM
 10
0.0
 20
0.0
 30
0.0
  9
$PUCSORGLEFT
 10
0.0
 20
0.0
 30
0.0
  9
$PUCSORGRIGHT
 10
0.0
 20
0.0
 30
0.0
  9
$PUCSORGFRONT
 10
0.0
 20
0.0
 30
0.0
  9
$PUCSORGBACK
 10
0.0
 20
0.0
 30
0.0
  9
$USERI1
 70
     0
  9
$USERI2
 70
     0
  9
$USERI3
 70
     0
  9
$USERI4
 70
     0
  9
$USERI5
 70
     0
  9
$USERR1
 40
0.0
  9
$USERR2
 40
0.0
  9
$USERR3
 40
0.0
  9
$USERR4
 40
0.0
  9
$USERR5
 40
0.0
  9
$WORLDVIEW
 70
     1
  9
$SHADEDGE
 70
     3
  9
$SHADEDIF
 70
    70
  9
$TILEMODE
 70
     1
  9
$MAXACTVP
 70
    64
  9
$PINSBASE
 10
0.0
 20
0.0
 30
0.0
  9
$PLIMCHECK
 70
     0
  9
$PEXTMIN
 10
1.0000000000E+20
 20
1.0000000000E+20
 30
1.0000000000E+20
  9
$PEXTMAX
 10
-1.0000000000E+20
 20
-1.0000000000E+20
 30
-1.0000000000E+20
  9
$PLIMMIN
 10
0.0
 20
0.0
  9
$PLIMMAX
 10
420.0
 20
297.0
  9
$UNITMODE
 70
     0
  9
$VISRETAIN
 70
     1
  9
$PLINEGEN
 70
     0
  9
$PSLTSCALE
 70
     1
  9
$TREEDEPTH
 70
  3020
  9
$CMLSTYLE
  2
Standard
  9
$CMLJUST
 70
     0
  9
$CMLSCALE
 40
20.0
  9
$PROXYGRAPHICS
 70
     1
  9
$MEASUREMENT
 70
     1
  9
$CELWEIGHT
370
    -1
  9
$ENDCAPS
280
     0
  9
$JOINSTYLE
280
     0
  9
$LWDISPLAY
290
     1
  9
$INSUNITS
 70
     4
  9
$HYPERLINKBASE
  1

  9
$STYLESHEET
  1

  9
$XEDIT
290
     1
  9
$CEPSNTYPE
380
     0
  9
$PSTYLEMODE
290
     1
  9
$FINGERPRINTGUID
  2
{A3D35767-1652-40D4-BF48-2A7446ACCCFC}
  9
$VERSIONGUID
  2
{FAEB1C32-E019-11D5-929B-00C0DF256EC4}
  9
$EXTNAMES
290
     1
  9
$PSVPSCALE
 40
0.0
  9
$OLESTARTUP
290
     0
  0
ENDSEC
  0
SECTION
  2
CLASSES
  0
CLASS
  1
ACDBDICTIONARYWDFLT
  2
AcDbDictionaryWithDefault
  3
ObjectDBX Classes
 90
        0
280
     0
281
     0
  0
CLASS
  1
VISUALSTYLE
  2
AcDbVisualStyle
  3
ObjectDBX Classes
 90
     4095
280
     0
281
     0
  0
CLASS
  1
MATERIAL
  2
AcDbMaterial
  3
ObjectDBX Classes
 90
     1153
280
     0
281
     0
  0
CLASS
  1
SCALE
  2
AcDbScale
  3
ObjectDBX Classes
 90
     1153
280
     0
281
     0
  0
CLASS
  1
TABLESTYLE
  2
AcDbTableStyle
  3
ObjectDBX Classes
 90
     4095
280
     0
281
     0
  0
CLASS
  1
MLEADERSTYLE
  2
AcDbMLeaderStyle
  3
ACDB_MLEADERSTYLE_CLASS
 90
     4095
280
     0
281
     0
  0
CLASS
  1
SUN
  2
AcDbSun
  3
SCENEOE
 90
     1153
280
     0
281
     0
  0
CLASS
  1
ACDBPLACEHOLDER
  2
AcDbPlaceHolder
  3
ObjectDBX Classes
 90
        0
280
     0
281
     0
  0
CLASS
  1
LAYOUT
  2
AcDbLayout
  3
ObjectDBX Classes
 90
        0
280
     0
281
     0
  0
ENDSEC
  0
SECTION
  2
TABLES
  0
TABLE
  2
VPORT
  5
8
330
0
100
AcDbSymbolTable
 70
     1
  0
VPORT
  5
29
330
8
100
AcDbSymbolTableRecord
100
AcDbViewportTableRecord
  2
*Active
 70
     0
 10
0.0
 20
0.0
 11
1.0
 21
1.0
 12
148.5
 22
105.0
 13
0.0
 23
0.0
 14
10.0
 24
10.0
 15
10.0
 25
10.0
 16
0.0
 26
0.0
 36
1.0
 17
0.0
 27
0.0
 37
0.0
 40
210.0
 41
1.4142857143
 42
50.0
 43
0.0
 44
0.0
 50
0.0
 51
0.0
 71
     0
 72
  2000
 73
     1
 74
     3
 75
     0
 76
     0
 77
     0
 78
     0
281
     0
 65
     1
110
0.0
120
0.0
130
0.0
111
1.0
121
0.0
131
0.0
112
0.0
122
1.0
132
0.0
 79
     0
146
0.0
  0
ENDTAB
  0
TABLE
  2
LTYPE
  5
5
330
0
100
AcDbSymbolTable
 70
     6
  0
LTYPE
  5
14
330
5
100
AcDbSymbolTableRecord
100
AcDbLinetypeTableRecord
  2
ByBlock
 70
     0
  3

 72
    65
 73
     0
 40
0.0
  0
LTYPE
  5
15
330
5
100
AcDbSymbolTableRecord
100
AcDbLinetypeTableRecord
  2
ByLayer
 70
     0
  3

 72
    65
 73
     0
 40
0.0
  0
LTYPE
  5
16
330
5
100
AcDbSymbolTableRecord
100
AcDbLinetypeTableRecord
  2
Continuous
 70
     0
  3
Solid line
 72
    65
 73
     0
 40
0.0
  0
LTYPE
  5
6E
330
5
100
AcDbSymbolTableRecord
100
AcDbLinetypeTableRecord
  2
HIDDEN
 70
     0
  3
Hidden __ __ __ __ __ __ __ __ __ __ __ __ __ __
 72
    65
 73
     2
 40
1.905
 49
1.27
 74
     0
 49
-0.635
 74
     0
  0
LTYPE
  5
6F
330
5
100
AcDbSymbolTableRecord
100
AcDbLinetypeTableRecord
  2
PHANTOM
 70
     0
  3
Phantom ______  __  __  ______  __  __  ______
 72
    65
 73
     6
 40
12.7
 49
6.35
 74
     0
 49
-1.27
 74
     0
 49
1.27
 74
     0
 49
-1.27
 74
     0
 49
1.27
 74
     0
 49
-1.27
 74
     0
  0
LTYPE
  5
70
330
5
100
AcDbSymbolTableRecord
100
AcDbLinetypeTableRecord
  2
CENTER
 70
     0
  3
Center ____ _ ____ _ ____ _ ____ _ ____ _ ____
 72
    65
 73
     4
 40
10.16
 49
6.35
 74
     0
 49
-1.27
 74
     0
 49
1.27
 74
     0
 49
-1.27
 74
     0
  0
LTYPE
  5
71
330
5
100
AcDbSymbolTableRecord
100
AcDbLinetypeTableRecord
  2
CENTERX2
 70
     0
  3
Center (2x) ________  __  ________  __  _____
 72
    65
 73
     4
 40
20.32
 49
12.7
 74
     0
 49
-2.54
 74
     0
 49
2.54
 74
     0
 49
-2.54
 74
     0
  0
LTYPE
  5
72
330
5
100
AcDbSymbolTableRecord
100
AcDbLinetypeTableRecord
  2
DOT2
 70
     0
  3
Dot (.5x) ........................................
 72
    65
 73
     2
 40
0.635
 49
0.0
 74
     0
 49
-0.635
 74
     0
  0
ENDTAB
  0
TABLE
  2
LAYER
  5
2
330
0
100
AcDbSymbolTable
 70
     5
  0
LAYER
  5
10
330
2
100
AcDbSymbolTableRecord
100
AcDbLayerTableRecord
  2
0
 70
     0
 62
     7
  6
Continuous
370
    -3
390
F
  0
LAYER
  5
73
330
2
100
AcDbSymbolTableRecord
100
AcDbLayerTableRecord
  2
FORMAT
 70
     0
 62
     7
  6
Continuous
370
    -3
390
F
  0
LAYER
  5
74
330
2
100
AcDbSymbolTableRecord
100
AcDbLayerTableRecord
  2
VERMASSUNG
 70
     0
 62
     7
  6
Continuous
370
    -3
390
F
  0
LAYER
  5
75
330
2
100
AcDbSymbolTableRecord
100
AcDbLayerTableRecord
  2
KOPF_DÜNN
 70
     0
 62
     7
  6
Continuous
370
    -3
390
F
  0
LAYER
  5
76
330
2
100
AcDbSymbolTableRecord
100
AcDbLayerTableRecord
  2
KOPF_DICK
 70
     0
 62
     7
  6
Continuous
370
    15
390
F
  0
ENDTAB
  0
TABLE
  2
STYLE
  5
3
330
0
100
AcDbSymbolTable
 70
     2
  0
STYLE
  5
11
330
3
100
AcDbSymbolTableRecord
100
AcDbTextStyleTableRecord
  2
Standard
 70
     0
 40
0.0
 41
1.0
 50
0.0
 71
     0
 42
2.0
  3
txt
  4

  0
STYLE
  5
77
330
3
100
AcDbSymbolTableRecord
100
AcDbTextStyleTableRecord
  2
SLDTEXTSTYLE0
 70
     0
 40
0.0
 41
0.7
 50
0.0
 71
     0
 42
2.0
  3
TXT
  4

  0
ENDTAB
  0
TABLE
  2
VIEW
  5
6
330
0
100
AcDbSymbolTable
 70
     0
  0
ENDTAB
  0
TABLE
  2
UCS
  5
7
330
0
100
AcDbSymbolTable
 70
     0
  0
ENDTAB
  0
TABLE
  2
APPID
  5
9
330
0
100
AcDbSymbolTable
 70
     1
  0
APPID
  5
12
330
9
100
AcDbSymbolTableRecord
100
AcDbRegAppTableRecord
  2
ACAD
 70
     0
  0
ENDTAB
  0
TABLE
  2
DIMSTYLE
  5
A
330
0
100
AcDbSymbolTable
 70
     3
100
AcDbDimStyleTable
  0
DIMSTYLE
105
27
330
A
100
AcDbSymbolTableRecord
100
AcDbDimStyleTableRecord
  2
ISO-25
 70
     0
 41
2.5
 42
0.625
 43
3.75
 44
1.25
 73
     0
 74
     0
 77
     1
 78
     8
140
2.5
141
2.5
143
0.0393700787
147
0.625
171
     3
172
     1
178
     0
271
     2
272
     2
274
     3
278
    44
283
     0
284
     8
340
11
  0
DIMSTYLE
105
131
102
{ACAD_REACTORS
330
130
102
}
330
A
100
AcDbSymbolTableRecord
100
AcDbDimStyleTableRecord
  2
SLDDIMSTYLE0
 70
     0
 41
3.0
 44
0.0
 45
0.000000001
 73
     0
 74
     0
 77
     1
 78
    12
 79
     3
140
2.0
147
0.5
173
     1
178
     0
271
     1
272
     1
276
     2
284
    12
340
77
  0
DIMSTYLE
105
13E
102
{ACAD_REACTORS
330
13D
330
149
330
155
330
15F
102
}
330
A
100
AcDbSymbolTableRecord
100
AcDbDimStyleTableRecord
  2
SLDDIMSTYLE1
 70
     0
 41
3.0
 44
0.0
 45
0.000000001
 73
     0
 74
     0
 77
     1
 78
    12
 79
     3
140
2.0
147
0.5
173
     1
178
     0
271
     2
272
     3
276
     2
284
    12
340
77
  0
ENDTAB
  0
TABLE
  2
BLOCK_RECORD
  5
1
330
0
100
AcDbSymbolTable
 70
     6
  0
BLOCK_RECORD
  5
1F
330
1
100
AcDbSymbolTableRecord
100
AcDbBlockTableRecord
  2
*Model_Space
340
22
  0
BLOCK_RECORD
  5
1B
330
1
100
AcDbSymbolTableRecord
100
AcDbBlockTableRecord
  2
*Paper_Space
340
1E
  0
BLOCK_RECORD
  5
23
330
1
100
AcDbSymbolTableRecord
100
AcDbBlockTableRecord
  2
*Paper_Space0
340
26
  0
BLOCK_RECORD
  5
132
330
1
100
AcDbSymbolTableRecord
100
AcDbBlockTableRecord
  2
_D
340
0
  0
BLOCK_RECORD
  5
13F
330
1
100
AcDbSymbolTableRecord
100
AcDbBlockTableRecord
  2
_D_1
340
0
  0
BLOCK_RECORD
  5
14A
330
1
100
AcDbSymbolTableRecord
100
AcDbBlockTableRecord
  2
_D_2
340
0
  0
BLOCK_RECORD
  5
156
330
1
100
AcDbSymbolTableRecord
100
AcDbBlockTableRecord
  2
_D_3
340
0
  0
BLOCK_RECORD
  5
160
330
1
100
AcDbSymbolTableRecord
100
AcDbBlockTableRecord
  2
_D_4
340
0
  0
ENDTAB
  0
ENDSEC
  0
SECTION
  2
BLOCKS
  0
BLOCK
  5
20
330
1F
100
AcDbEntity
  8
0
100
AcDbBlockBegin
  2
*Model_Space
 70
     0
 10
0.0
 20
0.0
 30
0.0
  3
*Model_Space
  1

  0
ENDBLK
  5
21
330
1F
100
AcDbEntity
  8
0
100
AcDbBlockEnd
  0
BLOCK
  5
1C
330
1B
100
AcDbEntity
 67
     1
  8
0
100
AcDbBlockBegin
  2
*Paper_Space
 70
     0
 10
0.0
 20
0.0
 30
0.0
  3
*Paper_Space
  1

  0
ENDBLK
  5
1D
330
1B
100
AcDbEntity
 67
     1
  8
0
100
AcDbBlockEnd
  0
BLOCK
  5
24
330
23
100
AcDbEntity
  8
0
100
AcDbBlockBegin
  2
*Paper_Space0
 70
     0
 10
0.0
 20
0.0
 30
0.0
  3
*Paper_Space0
  1

  0
ENDBLK
  5
25
330
23
100
AcDbEntity
  8
0
100
AcDbBlockEnd
  0
BLOCK
  5
133
330
132
100
AcDbEntity
  8
0
100
AcDbBlockBegin
  2
_D
 70
     0
 10
0.0
 20
0.0
 30
0.0
  3
_D
  1

  0
SOLID
  5
135
330
132
100
AcDbEntity
  8
VERMASSUNG
100
AcDbTrace
 10
61.8811645877
 20
80.4260755886
 30
0.0
 11
62.3311645877
 21
83.4260755886
 31
0.0
 12
61.4311645877
 22
83.4260755886
 32
0.0
 13
61.4311645877
 23
83.4260755886
 33
0.0
  0
SOLID
  5
136
330
132
100
AcDbEntity
  8
VERMASSUNG
100
AcDbTrace
 10
61.8811645877
 20
143.2260755886
 30
0.0
 11
61.4311645877
 21
140.2260755886
 31
0.0
 12
62.3311645877
 22
140.2260755886
 32
0.0
 13
62.3311645877
 23
140.2260755886
 33
0.0
  0
LINE
  5
137
330
132
100
AcDbEntity
  8
VERMASSUNG
100
AcDbLine
 10
174.3818216423
 20
80.4260755886
 30
0.0
 11
60.8811645877
 21
80.4260755886
 31
0.0
  0
LINE
  5
138
330
132
100
AcDbEntity
  8
VERMASSUNG
100
AcDbLine
 10
174.3818216423
 20
143.2260755886
 30
0.0
 11
60.8811645877
 21
143.2260755886
 31
0.0
  0
LINE
  5
139
330
132
100
AcDbEntity
  8
VERMASSUNG
100
AcDbLine
 10
61.8811645877
 20
80.4260755886
 30
0.0
 11
61.8811645877
 21
143.2260755886
 31
0.0
  0
MTEXT
  5
13A
330
132
100
AcDbEntity
  8
VERMASSUNG
100
AcDbMText
 10
59.1030293315
 20
103.3231517987
 30
0.0
 40
2.0
 41
0.0
 71
     1
 72
     1
  1
SK 40
  7
SLDTEXTSTYLE0
 11
3.391901413832837E-15
 21
1.0
 31
0.0
 73
     1
 44
1.0
  0
MTEXT
  5
13B
330
132
100
AcDbEntity
  8
VERMASSUNG
100
AcDbMText
 10
59.3030292828
 20
111.9231520908
 30
0.0
 40
2.0
 41
0.0
 71
     1
 72
     1
  1
%%c
  7
SLDTEXTSTYLE0
 11
3.391901413832837E-15
 21
1.0
 31
0.0
 73
     1
 44
1.0
  0
MTEXT
  5
13C
330
132
100
AcDbEntity
  8
VERMASSUNG
100
AcDbMText
 10
59.3030289917
 20
115.5310076175
 30
0.0
 40
2.0
 41
0.0
 71
     1
 72
     1
  1
62.8
  7
SLDTEXTSTYLE0
 11
3.391901413832837E-15
 21
1.0
 31
0.0
 73
     1
 44
1.0
  0
ENDBLK
  5
134
330
132
100
AcDbEntity
  8
0
100
AcDbBlockEnd
  0
BLOCK
  5
140
330
13F
100
AcDbEntity
  8
0
100
AcDbBlockBegin
  2
_D_1
 70
     0
 10
0.0
 20
0.0
 30
0.0
  3
_D_1
  1

  0
SOLID
  5
142
330
13F
100
AcDbEntity
  8
VERMASSUNG
100
AcDbTrace
 10
236.3818216423
 20
129.8260755886
 30
0.0
 11
235.9318216423
 21
126.8260755886
 31
0.0
 12
236.8318216423
 22
126.8260755886
 32
0.0
 13
236.8318216423
 23
126.8260755886
 33
0.0
  0
SOLID
  5
143
330
13F
100
AcDbEntity
  8
VERMASSUNG
100
AcDbTrace
 10
236.3818216423
 20
93.8260755886
 30
0.0
 11
236.8318216423
 21
96.8260755886
 31
0.0
 12
235.9318216423
 22
96.8260755886
 32
0.0
 13
235.9318216423
 23
96.8260755886
 33
0.0
  0
LINE
  5
144
330
13F
100
AcDbEntity
  8
VERMASSUNG
100
AcDbLine
 10
225.3818216423
 20
129.8260755886
 30
0.0
 11
237.3818216423
 21
129.8260755886
 31
0.0
  0
LINE
  5
145
330
13F
100
AcDbEntity
  8
VERMASSUNG
100
AcDbLine
 10
225.3818216423
 20
93.8260755886
 30
0.0
 11
237.3818216423
 21
93.8260755886
 31
0.0
  0
LINE
  5
146
330
13F
100
AcDbEntity
  8
VERMASSUNG
100
AcDbLine
 10
236.3818216423
 20
129.8260755886
 30
0.0
 11
236.3818216423
 21
93.8260755886
 31
0.0
  0
MTEXT
  5
147
330
13F
100
AcDbEntity
  8
VERMASSUNG
100
AcDbMText
 10
233.8036863374
 20
108.6210756314
 30
0.0
 40
2.0
 41
0.0
 71
     1
 72
     1
  1
%%c
  7
SLDTEXTSTYLE0
 11
-7.044195017643634E-15
 21
1.0
 31
0.0
 73
     1
 44
1.0
  0
MTEXT
  5
148
330
13F
100
AcDbEntity
  8
VERMASSUNG
100
AcDbMText
 10
233.6036863861
 20
112.2310756457
 30
0.0
 40
2.0
 41
0.0
 71
     1
 72
     1
  1
36
  7
SLDTEXTSTYLE0
 11
-7.044195017643634E-15
 21
1.0
 31
0.0
 73
     1
 44
1.0
  0
ENDBLK
  5
141
330
13F
100
AcDbEntity
  8
0
100
AcDbBlockEnd
  0
BLOCK
  5
14B
330
14A
100
AcDbEntity
  8
0
100
AcDbBlockBegin
  2
_D_2
 70
     0
 10
0.0
 20
0.0
 30
0.0
  3
_D_2
  1

  0
SOLID
  5
14D
330
14A
100
AcDbEntity
  8
VERMASSUNG
100
AcDbTrace
 10
242.2818216423
 20
143.3260755886
 30
0.0
 11
241.8318216423
 21
140.3260755886
 31
0.0
 12
242.7318216423
 22
140.3260755886
 32
0.0
 13
242.7318216423
 23
140.3260755886
 33
0.0
  0
SOLID
  5
14E
330
14A
100
AcDbEntity
  8
VERMASSUNG
100
AcDbTrace
 10
242.2818216423
 20
80.3260755886
 30
0.0
 11
242.7318216423
 21
83.3260755886
 31
0.0
 12
241.8318216423
 22
83.3260755886
 32
0.0
 13
241.8318216423
 23
83.3260755886
 33
0.0
  0
LINE
  5
14F
330
14A
100
AcDbEntity
  8
VERMASSUNG
100
AcDbLine
 10
225.7818216423
 20
143.3260755886
 30
0.0
 11
243.2818216423
 21
143.3260755886
 31
0.0
  0
LINE
  5
150
330
14A
100
AcDbEntity
  8
VERMASSUNG
100
AcDbLine
 10
225.7818216423
 20
80.3260755886
 30
0.0
 11
243.2818216423
 21
80.3260755886
 31
0.0
  0
LINE
  5
151
330
14A
100
AcDbEntity
  8
VERMASSUNG
100
AcDbLine
 10
242.2818216423
 20
143.3260755886
 30
0.0
 11
242.2818216423
 21
80.3260755886
 31
0.0
  0
MTEXT
  5
152
330
14A
100
AcDbEntity
  8
VERMASSUNG
100
AcDbMText
 10
239.5036863861
 20
106.1210756873
 30
0.0
 40
2.0
 41
0.0
 71
     1
 72
     1
  1
WH
  7
SLDTEXTSTYLE0
 11
-7.044195017643634E-15
 21
1.0
 31
0.0
 73
     1
 44
1.0
  0
MTEXT
  5
153
330
14A
100
AcDbEntity
  8
VERMASSUNG
100
AcDbMText
 10
239.7036863374
 20
111.1210755755
 30
0.0
 40
2.0
 41
0.0
 71
     1
 72
     1
  1
%%c
  7
SLDTEXTSTYLE0
 11
-7.044195017643634E-15
 21
1.0
 31
0.0
 73
     1
 44
1.0
  0
MTEXT
  5
154
330
14A
100
AcDbEntity
  8
VERMASSUNG
100
AcDbMText
 10
239.5036863861
 20
114.7310755898
 30
0.0
 40
2.0
 41
0.0
 71
     1
 72
     1
  1
63
  7
SLDTEXTSTYLE0
 11
-7.044195017643634E-15
 21
1.0
 31
0.0
 73
     1
 44
1.0
  0
ENDBLK
  5
14C
330
14A
100
AcDbEntity
  8
0
100
AcDbBlockEnd
  0
BLOCK
  5
157
330
156
100
AcDbEntity
  8
0
100
AcDbBlockBegin
  2
_D_3
 70
     0
 10
0.0
 20
0.0
 30
0.0
  3
_D_3
  1

  0
SOLID
  5
159
330
156
100
AcDbEntity
  8
VERMASSUNG
100
AcDbTrace
 10
226.3818216423
 20
151.121501016
 30
0.0
 11
223.3818216423
 21
151.571501016
 31
0.0
 12
223.3818216423
 22
150.671501016
 32
0.0
 13
223.3818216423
 23
150.671501016
 33
0.0
  0
SOLID
  5
15A
330
156
100
AcDbEntity
  8
VERMASSUNG
100
AcDbTrace
 10
164.9818216423
 20
151.121501016
 30
0.0
 11
167.9818216423
 21
150.671501016
 31
0.0
 12
167.9818216423
 22
151.571501016
 32
0.0
 13
167.9818216423
 23
151.571501016
 33
0.0
  0
LINE
  5
15B
330
156
100
AcDbEntity
  8
VERMASSUNG
100
AcDbLine
 10
226.3818216423
 20
142.7260755886
 30
0.0
 11
226.3818216423
 21
152.121501016
 31
0.0
  0
LINE
  5
15C
330
156
100
AcDbEntity
  8
VERMASSUNG
100
AcDbLine
 10
164.9818216423
 20
141.2664814961
 30
0.0
 11
164.9818216423
 21
152.121501016
 31
0.0
  0
LINE
  5
15D
330
156
100
AcDbEntity
  8
VERMASSUNG
100
AcDbLine
 10
226.3818216423
 20
151.121501016
 30
0.0
 11
164.9818216423
 21
151.121501016
 31
0.0
  0
MTEXT
  5
15E
330
156
100
AcDbEntity
  8
VERMASSUNG
100
AcDbMText
 10
193.3818215912
 20
153.699636612
 30
0.0
 40
2.0
 41
0.0
 71
     1
 72
     1
  1
61.4
  7
SLDTEXTSTYLE0
 73
     1
 44
1.0
  0
ENDBLK
  5
158
330
156
100
AcDbEntity
  8
0
100
AcDbBlockEnd
  0
BLOCK
  5
161
330
160
100
AcDbEntity
  8
0
100
AcDbBlockBegin
  2
_D_4
 70
     0
 10
0.0
 20
0.0
 30
0.0
  3
_D_4
  1

  0
ARC
  5
163
330
160
100
AcDbEntity
  8
VERMASSUNG
100
AcDbCircle
 10
148.9818217094
 20
159.0215012809
 30
0.0
 40
4.248529228887608
100
AcDbArc
 50
153.4349488229
 51
206.5650511771
  0
ARC
  5
164
330
160
100
AcDbEntity
  8
VERMASSUNG
100
AcDbCircle
 10
147.3818216334
 20
159.0215012809
 30
0.0
 40
4.248529228887633
100
AcDbArc
 50
333.4349488229
 51
26.5650511771
  0
SOLID
  5
165
330
160
100
AcDbEntity
  8
VERMASSUNG
100
AcDbTrace
 10
226.3818216423
 20
157.121501016
 30
0.0
 11
223.3818216423
 21
157.571501016
 31
0.0
 12
223.3818216423
 22
156.671501016
 32
0.0
 13
223.3818216423
 23
156.671501016
 33
0.0
  0
SOLID
  5
166
330
160
100
AcDbEntity
  8
VERMASSUNG
100
AcDbTrace
 10
69.9818216423
 20
157.121501016
 30
0.0
 11
72.9818216423
 21
156.671501016
 31
0.0
 12
72.9818216423
 22
157.571501016
 32
0.0
 13
72.9818216423
 23
157.571501016
 33
0.0
  0
LINE
  5
167
330
160
100
AcDbEntity
  8
VERMASSUNG
100
AcDbLine
 10
226.3818216423
 20
142.7260755886
 30
0.0
 11
226.3818216423
 21
158.121501016
 31
0.0
  0
LINE
  5
168
330
160
100
AcDbEntity
  8
VERMASSUNG
100
AcDbLine
 10
69.9818216423
 20
122.3760755886
 30
0.0
 11
69.9818216423
 21
158.121501016
 31
0.0
  0
LINE
  5
169
330
160
100
AcDbEntity
  8
VERMASSUNG
100
AcDbLine
 10
226.3818216423
 20
157.121501016
 30
0.0
 11
69.9818216423
 21
157.121501016
 31
0.0
  0
MTEXT
  5
16A
330
160
100
AcDbEntity
  8
VERMASSUNG
100
AcDbMText
 10
145.1818216453
 20
159.6996368448
 30
0.0
 40
2.0
 41
0.0
 71
     1
 72
     1
  1
156.4
  7
SLDTEXTSTYLE0
 73
     1
 44
1.0
  0
ENDBLK
  5
162
330
160
100
AcDbEntity
  8
0
100
AcDbBlockEnd
  0
ENDSEC
  0
SECTION
  2
ENTITIES
  0
MTEXT
  5
78
330
1F
100
AcDbEntity
  8
KOPF_DÜNN
100
AcDbMText
 10
13.8892156294
 20
23.8442973028
 30
0.0
 40
3.0
 41
0.0
 71
     1
 72
     1
  1
A54.400.063.063
  7
SLDTEXTSTYLE0
 73
     1
 44
1.0
  0
MTEXT
  5
79
330
1F
100
AcDbEntity
  8
VERMASSUNG
100
AcDbMText
 10
13.9329988022
 20
28.8834360957
 30
0.0
 40
3.0
 41
0.0
 71
     1
 72
     1
  1
Aufnahme Master shank WH63
  7
SLDTEXTSTYLE0
 73
     1
 44
1.0
  0
MTEXT
  5
7A
330
1F
100
AcDbEntity
  8
VERMASSUNG
100
AcDbMText
 10
98.8601118557
 20
13.8365368761
 30
0.0
 40
2.0
 41
0.0
 71
     1
 72
     1
  1
Datum: 01.12.2011
  7
SLDTEXTSTYLE0
 73
     1
 44
1.0
  0
MTEXT
  5
7B
330
1F
100
AcDbEntity
  8
VERMASSUNG
100
AcDbMText
 10
13.933048693
 20
18.0482802738
 30
0.0
 40
2.0
 41
0.0
 71
     1
 72
     1
  1
DIN 2080
  7
SLDTEXTSTYLE0
 73
     1
 44
1.0
  0
MTEXT
  5
7C
330
1F
100
AcDbEntity
  8
VERMASSUNG
100
AcDbMText
 10
13.9808475933
 20
13.9090974274
 30
0.0
 40
2.0
 41
0.0
 71
     1
 72
     1
  1
Gewicht: 1632g
  7
SLDTEXTSTYLE0
 73
     1
 44
1.0
  0
LINE
  5
7D
330
1F
100
AcDbEntity
  8
0
  6
Continuous
 62
     7
370
    15
100
AcDbLine
 10
215.8112350391
 20
142.8466621918
 30
0.0
 11
215.3318216423
 21
143.3260755886
 31
0.0
  0
LINE
  5
7E
330
1F
100
AcDbEntity
  8
0
  6
Continuous
 62
     7
370
    15
100
AcDbLine
 10
201.3318216423
 20
143.3260755886
 30
0.0
 11
200.8526414347
 21
142.846895381
 31
0.0
  0
LINE
  5
7F
330
1F
100
AcDbEntity
  8
0
  6
Continuous
 62
     7
370
    15
100
AcDbLine
 10
225.7818216423
 20
80.3260755886
 30
0.0
 11
226.3818216423
 21
80.9260755886
 31
0.0
  0
LINE
  5
80
330
1F
100
AcDbEntity
  8
0
  6
Continuous
 62
     7
370
    15
100
AcDbLine
 10
226.3818216423
 20
142.7260755886
 30
0.0
 11
225.7818216423
 21
143.3260755886
 31
0.0
  0
LINE
  5
81
330
1F
100
AcDbEntity
  8
0
  6
Continuous
 62
     7
370
    15
100
AcDbLine
 10
198.5851011268
 20
143.3260755886
 30
0.0
 11
183.0121678923
 21
143.3260755886
 31
0.0
  0
LINE
  5
82
330
1F
100
AcDbEntity
  8
0
  6
Continuous
 62
     7
370
    15
100
AcDbLine
 10
225.7818216423
 20
143.3260755886
 30
0.0
 11
218.0576816024
 21
143.3260755886
 31
0.0
  0
LINE
  5
83
330
1F
100
AcDbEntity
  8
0
  6
Continuous
 62
     7
370
    15
100
AcDbLine
 10
183.0121678923
 20
80.3260755886
 30
0.0
 11
225.7818216423
 21
80.3260755886
 31
0.0
  0
ARC
  5
84
330
1F
100
AcDbEntity
  8
0
  6
Continuous
 62
     7
370
    15
100
AcDbCircle
 10
164.1818216423
 20
88.8010755886
 30
0.0
 40
0.8000000000000114
100
AcDbArc
 50
0.0
 51
90.0
  0
ARC
  5
85
330
1F
100
AcDbEntity
  8
0
  6
Continuous
 62
     7
370
    15
100
AcDbCircle
 10
164.1818216423
 20
134.8510755886
 30
0.0
 40
0.8000000000000114
100
AcDbArc
 50
270.0
 51
0.0
  0
LINE
  5
86
330
1F
100
AcDbEntity
  8
0
  6
Continuous
 62
     7
370
    15
100
AcDbLine
 10
163.3818216423
 20
89.6010755886
 30
0.0
 11
164.1818216423
 21
89.6010755886
 31
0.0
  0
LINE
  5
87
330
1F
100
AcDbEntity
  8
0
  6
Continuous
 62
     7
370
    15
100
AcDbLine
 10
164.1818216423
 20
134.0510755886
 30
0.0
 11
163.3818216423
 21
134.0510755886
 31
0.0
  0
LINE
  5
88
330
1F
100
AcDbEntity
  8
0
  6
Continuous
 62
     7
370
    15
100
AcDbLine
 10
163.3818216423
 20
134.0510755886
 30
0.0
 11
98.394158855
 21
124.5737080988
 31
0.0
  0
LINE
  5
89
330
1F
100
AcDbEntity
  8
0
  6
Continuous
 62
     7
370
    15
100
AcDbLine
 10
98.394158855
 20
99.0784430784
 30
0.0
 11
163.3818216423
 21
89.6010755886
 31
0.0
  0
ARC
  5
8A
330
1F
100
AcDbEntity
  8
0
  6
Continuous
 62
     7
370
    15
100
AcDbCircle
 10
98.4663123016
 20
99.573209569
 30
0.0
 40
0.5000000000000211
100
AcDbArc
 50
194.3079804814
 51
261.7028550302
  0
ARC
  5
8B
330
1F
100
AcDbEntity
  8
0
  6
Continuous
 62
     7
370
    15
100
AcDbCircle
 10
98.4663123016
 20
124.0789416083
 30
0.0
 40
0.500000000000007
100
AcDbArc
 50
98.2971449698
 51
165.6920195186
  0
LINE
  5
8C
330
1F
100
AcDbEntity
  8
0
  6
Continuous
 62
     7
370
    15
100
AcDbLine
 10
88.3818216423
 20
99.1760755886
 30
0.0
 11
92.5134467924
 21
99.1760755886
 31
0.0
  0
LINE
  5
8D
330
1F
100
AcDbEntity
  8
0
  6
Continuous
 62
     7
370
    15
100
AcDbLine
 10
92.5134467924
 20
124.4760755886
 30
0.0
 11
88.3818216423
 21
124.4760755886
 31
0.0
  0
ARC
  5
8E
330
1F
100
AcDbEntity
  8
0
  6
Continuous
 62
     7
370
    15
100
AcDbCircle
 10
92.5134467924
 20
99.6760755886
 30
0.0
 40
0.5
100
AcDbArc
 50
270.0
 51
339.5126848853
  0
ARC
  5
8F
330
1F
100
AcDbEntity
  8
0
  6
Continuous
 62
     7
370
    15
100
AcDbCircle
 10
92.5134467924
 20
123.9760755886
 30
0.0
 40
0.5
100
AcDbArc
 50
20.4873151147
 51
90.0
  0
LINE
  5
90
330
1F
100
AcDbEntity
  8
0
  6
Continuous
 62
     7
370
    15
100
AcDbLine
 10
77.7818216423
 20
99.3710755886
 30
0.0
 11
80.8646797009
 21
99.3710755886
 31
0.0
  0
LINE
  5
91
330
1F
100
AcDbEntity
  8
0
  6
Continuous
 62
     7
370
    15
100
AcDbLine
 10
80.8646797009
 20
124.2810755886
 30
0.0
 11
77.7818216423
 21
124.2810755886
 31
0.0
  0
LINE
  5
92
330
1F
100
AcDbEntity
  8
0
  6
Continuous
 62
     7
370
    15
100
AcDbLine
 10
80.8646797009
 20
99.3710755886
 30
0.0
 11
81.2825222231
 21
100.9304851112
 31
0.0
  0
LINE
  5
93
330
1F
100
AcDbEntity
  8
0
  6
Continuous
 62
     7
370
    15
100
AcDbLine
 10
81.2825222231
 20
122.7216660661
 30
0.0
 11
80.8646797009
 21
124.2810755886
 31
0.0
  0
ARC
  5
94
330
1F
100
AcDbEntity
  8
0
  6
Continuous
 62
     7
370
    15
100
AcDbCircle
 10
97.497330983
 20
99.3260755886
 30
0.0
 40
0.5000000000000021
100
AcDbArc
 50
14.3079804814
 51
90.0
  0
ARC
  5
95
330
1F
100
AcDbEntity
  8
0
  6
Continuous
 62
     7
370
    15
100
AcDbCircle
 10
97.497330983
 20
124.3260755886
 30
0.0
 40
0.5000000000000021
100
AcDbArc
 50
270.0
 51
345.6920195186
  0
ARC
  5
96
330
1F
100
AcDbEntity
  8
0
  6
Continuous
 62
     7
370
    15
100
AcDbCircle
 10
93.4501964922
 20
99.3260755886
 30
0.0
 40
0.5000000000000033
100
AcDbArc
 50
90.0
 51
159.5126848853
  0
ARC
  5
97
330
1F
100
AcDbEntity
  8
0
  6
Continuous
 62
     7
370
    15
100
AcDbCircle
 10
93.4501964922
 20
124.3260755886
 30
0.0
 40
0.5000000000000033
100
AcDbArc
 50
200.4873151147
 51
270.0
  0
LINE
  5
98
330
1F
100
AcDbEntity
  8
0
  6
Continuous
 62
     7
370
    15
100
AcDbLine
 10
93.4501964922
 20
99.8260755886
 30
0.0
 11
97.497330983
 21
99.8260755886
 31
0.0
  0
LINE
  5
99
330
1F
100
AcDbEntity
  8
0
  6
Continuous
 62
     7
370
    15
100
AcDbLine
 10
97.497330983
 20
123.8260755886
 30
0.0
 11
93.4501964922
 21
123.8260755886
 31
0.0
  0
ARC
  5
9A
330
1F
100
AcDbEntity
  8
0
  6
Continuous
 62
     7
370
    15
100
AcDbCircle
 10
76.9818216423
 20
100.3510755886
 30
0.0
 40
0.7999999999999972
100
AcDbArc
 50
0.0
 51
90.0
  0
ARC
  5
9B
330
1F
100
AcDbEntity
  8
0
  6
Continuous
 62
     7
370
    15
100
AcDbCircle
 10
76.9818216423
 20
123.3010755886
 30
0.0
 40
0.7999999999999972
100
AcDbArc
 50
270.0
 51
0.0
  0
ARC
  5
9C
330
1F
100
AcDbEntity
  8
0
  6
Continuous
 62
     7
370
    15
100
AcDbCircle
 10
87.8818216423
 20
100.8010755886
 30
0.0
 40
0.4999999999999858
100
AcDbArc
 50
0.0
 51
90.0
  0
ARC
  5
9D
330
1F
100
AcDbEntity
  8
0
  6
Continuous
 62
     7
370
    15
100
AcDbCircle
 10
87.8818216423
 20
122.8510755886
 30
0.0
 40
0.5
100
AcDbArc
 50
270.0
 51
0.0
  0
ARC
  5
9E
330
1F
100
AcDbEntity
  8
0
  6
Continuous
 62
     7
370
    15
100
AcDbCircle
 10
81.7654851363
 20
100.8010755886
 30
0.0
 40
0.5
100
AcDbArc
 50
90.0
 51
165.0
  0
ARC
  5
9F
330
1F
100
AcDbEntity
  8
0
  6
Continuous
 62
     7
370
    15
100
AcDbCircle
 10
81.7654851363
 20
122.8510755886
 30
0.0
 40
0.5
100
AcDbArc
 50
195.0
 51
270.0
  0
LINE
  5
A0
330
1F
100
AcDbEntity
  8
0
  6
Continuous
 62
     7
370
    15
100
AcDbLine
 10
70.1818216423
 20
101.0760755886
 30
0.0
 11
75.7818216423
 21
101.0760755886
 31
0.0
  0
LINE
  5
A1
330
1F
100
AcDbEntity
  8
0
  6
Continuous
 62
     7
370
    15
100
AcDbLine
 10
75.7818216423
 20
122.5760755886
 30
0.0
 11
70.1818216423
 21
122.5760755886
 31
0.0
  0
ARC
  5
A2
330
1F
100
AcDbEntity
  8
0
  6
Continuous
 62
     7
370
    15
100
AcDbCircle
 10
70.1818216423
 20
101.2760755886
 30
0.0
 40
0.2000000000000028
100
AcDbArc
 50
180.0
 51
270.0
  0
ARC
  5
A3
330
1F
100
AcDbEntity
  8
0
  6
Continuous
 62
     7
370
    15
100
AcDbCircle
 10
70.1818216423
 20
122.3760755886
 30
0.0
 40
0.2000000000000171
100
AcDbArc
 50
90.0
 51
180.0
  0
ARC
  5
A4
330
1F
100
AcDbEntity
  8
0
  6
Continuous
 62
     7
370
    15
100
AcDbCircle
 10
76.1200153737
 20
100.3510755886
 30
0.0
 40
0.7999999999999972
100
AcDbArc
 50
90.0
 51
115.0078332347
  0
ARC
  5
A5
330
1F
100
AcDbEntity
  8
0
  6
Continuous
 62
     7
370
    15
100
AcDbCircle
 10
76.1200153737
 20
123.3010755886
 30
0.0
 40
0.8000000000000114
100
AcDbArc
 50
244.9921667653
 51
270.0
  0
LINE
  5
A6
330
1F
100
AcDbEntity
  8
0
  6
Continuous
 62
     7
370
    15
100
AcDbLine
 10
76.1200153737
 20
101.1510755886
 30
0.0
 11
76.9818216423
 21
101.1510755886
 31
0.0
  0
LINE
  5
A7
330
1F
100
AcDbEntity
  8
0
  6
Continuous
 62
     7
370
    15
100
AcDbLine
 10
76.9818216423
 20
122.5010755886
 30
0.0
 11
76.1200153737
 21
122.5010755886
 31
0.0
  0
LINE
  5
A8
330
1F
100
AcDbEntity
  8
0
  6
Continuous
 62
     7
370
    15
100
AcDbLine
 10
81.7654851363
 20
101.3010755886
 30
0.0
 11
87.8818216423
 21
101.3010755886
 31
0.0
  0
LINE
  5
A9
330
1F
100
AcDbEntity
  8
0
  6
Continuous
 62
     7
370
    15
100
AcDbLine
 10
87.8818216423
 20
122.3510755886
 30
0.0
 11
81.7654851363
 21
122.3510755886
 31
0.0
  0
SPLINE
  5
AA
330
1F
100
AcDbEntity
  8
0
  6
Continuous
 62
     7
370
    15
100
AcDbSpline
210
0.0
220
0.0
230
1.0
 70
    24
 71
     3
 72
    11
 73
     7
 74
     0
 42
0.000000001
 43
0.00000001
 40
0.0
 40
0.0
 40
0.0
 40
0.0
 40
0.2164567244933949
 40
0.4403141600939096
 40
0.7519028444798602
 40
1.0
 40
1.0
 40
1.0
 40
1.0
 10
212.2233268922071
 20
114.3139502283754
 30
0.0
 10
211.9424495425986
 20
114.4595982604492
 30
0.0
 10
211.3710915745258
 20
114.7558740682901
 30
0.0
 10
210.3108068402613
 20
115.3056812535213
 30
0.0
 10
209.1734681712378
 20
115.8954445049034
 30
0.0
 10
208.4456419405107
 20
116.2728564191956
 30
0.0
 10
208.1230116277862
 20
116.4401553138952
 30
0.0
  0
SPLINE
  5
AB
330
1F
100
AcDbEntity
  8
0
  6
Continuous
 62
     7
370
    15
100
AcDbSpline
210
0.0
220
0.0
230
1.0
 70
    24
 71
     3
 72
    18
 73
    14
 74
     0
 42
0.000000001
 43
0.00000001
 40
0.0
 40
0.0
 40
0.0
 40
0.0
 40
0.1621857237011115
 40
0.2719376986809078
 40
0.3834778365035221
 40
0.4398348003592727
 40
0.49722403254265
 40
0.6329034635580884
 40
0.692422391969495
 40
0.752175321567703
 40
0.8446326699634717
 40
0.9377058155124051
 40
1.0
 40
1.0
 40
1.0
 40
1.0
 10
208.1230116277862
 20
116.4401553138952
 30
0.0
 10
207.9238212902362
 20
116.3128111225224
 30
0.0
 10
207.5898377511384
 20
116.0992924135262
 30
0.0
 10
207.0934615861273
 20
115.7819546243165
 30
0.0
 10
206.7241603289987
 20
115.545856977511
 30
0.0
 10
206.4204068012008
 20
115.3516645892163
 30
0.0
 10
206.0825383796949
 20
115.1356622396232
 30
0.0
 10
205.7396207394738
 20
114.9164318786603
 30
0.0
 10
205.4002971811056
 20
114.699499246859
 30
0.0
 10
205.1222957684373
 20
114.5217704195866
 30
0.0
 10
204.8069599653014
 20
114.3201733775056
 30
0.0
 10
204.4966396683048
 20
114.1217827940384
 30
0.0
 10
204.3073868666312
 20
114.0007917595807
 30
0.0
 10
204.23150637786
 20
113.9522806741415
 30
0.0
  0
SPLINE
  5
AC
330
1F
100
AcDbEntity
  8
0
  6
Continuous
 62
     7
370
    15
100
AcDbSpline
210
0.0
220
0.0
230
1.0
 70
    24
 71
     3
 72
    21
 73
    17
 74
     0
 42
0.000000001
 43
0.00000001
 40
0.0
 40
0.0
 40
0.0
 40
0.0
 40
0.0458869135144076
 40
0.1378515852272346
 40
0.1839592839002008
 40
0.2454521066789362
 40
0.3071425929067085
 40
0.3905639392343538
 40
0.5179679533991413
 40
0.5607187726398252
 40
0.6467371220203265
 40
0.7343275108752136
 40
0.8233627868719363
 40
0.8680629544234382
 40
0.9669733239034483
 40
1.0
 40
1.0
 40
1.0
 40
1.0
 10
204.2315063778599
 20
113.9522806741415
 30
0.0
 10
204.2345019081931
 20
113.8860883710086
 30
0.0
 10
204.2435009576691
 20
113.6872361663629
 30
0.0
 10
204.2558002885334
 20
113.4154575674637
 30
0.0
 10
204.2694010382972
 20
113.1149214850102
 30
0.0
 10
204.2811257066525
 20
112.855841216878
 30
0.0
 10
204.2956766917002
 20
112.5343077633519
 30
0.0
 10
204.3151996230836
 20
112.1029090965188
 30
0.0
 10
204.3336921556006
 20
111.6942791773024
 30
0.0
 10
204.352300109682
 20
111.2830987850955
 30
0.0
 10
204.3679387025869
 20
110.9375324355651
 30
0.0
 10
204.3865970261364
 20
110.5252390280602
 30
0.0
 10
204.401959077485
 20
110.1857834236997
 30
0.0
 10
204.41778316169
 20
109.8361182686228
 30
0.0
 10
204.4295585717155
 20
109.5759167606251
 30
0.0
 10
204.4381626154262
 20
109.3857930075237
 30
0.0
 10
204.4403163923545
 20
109.338200948868
 30
0.0
  0
SPLINE
  5
AD
330
1F
100
AcDbEntity
  8
0
  6
Continuous
 62
     7
370
    15
100
AcDbSpline
210
0.0
220
0.0
230
1.0
 70
    24
 71
     3
 72
    11
 73
     7
 74
     0
 42
0.000000001
 43
0.00000001
 40
0.0
 40
0.0
 40
0.0
 40
0.0
 40
0.2164567244934042
 40
0.4403141600939149
 40
0.7519028444798496
 40
1.0
 40
1.0
 40
1.0
 40
1.0
 10
204.4403163923545
 20
109.338200948868
 30
0.0
 10
204.721193741963
 20
109.1925529167942
 30
0.0
 10
205.2925517100359
 20
108.8962771089533
 30
0.0
 10
206.3528364443004
 20
108.3464699237221
 30
0.0
 10
207.4901751133239
 20
107.75670667234
 30
0.0
 10
208.218001344051
 20
107.3792947580478
 30
0.0
 10
208.5406316567755
 20
107.2119958633482
 30
0.0
  0
SPLINE
  5
AE
330
1F
100
AcDbEntity
  8
0
  6
Continuous
 62
     7
370
    15
100
AcDbSpline
210
0.0
220
0.0
230
1.0
 70
    24
 71
     3
 72
    18
 73
    14
 74
     0
 42
0.000000001
 43
0.00000001
 40
0.0
 40
0.0
 40
0.0
 40
0.0
 40
0.2165386594557457
 40
0.3272843284064275
 40
0.4397251388025927
 40
0.4906042423424161
 40
0.5937528941117044
 40
0.6989995256476024
 40
0.7521304657896263
 40
0.8137323080972906
 40
0.8756486252096638
 40
0.9377003559516273
 40
1.0
 40
1.0
 40
1.0
 40
1.0
 10
208.5406316567755
 20
107.2119958633482
 30
0.0
 10
208.8078792755056
 20
107.3828496925152
 30
0.0
 10
209.2118069512109
 20
107.6410843231125
 30
0.0
 10
209.7899174221965
 20
108.0106755962498
 30
0.0
 10
210.1585060433041
 20
108.2463176483768
 30
0.0
 10
210.5193569386685
 20
108.4770129021802
 30
0.0
 10
210.8710980711537
 20
108.7018842018617
 30
0.0
 10
211.2208987274386
 20
108.9255149374896
 30
0.0
 10
211.5093624849239
 20
109.1099324367976
 30
0.0
 10
211.7374822834229
 20
109.2557714952242
 30
0.0
 10
211.9727333553136
 20
109.4061696414795
 30
0.0
 10
212.204825530063
 20
109.5545482761108
 30
0.0
 10
212.356265808109
 20
109.6513654208892
 30
0.0
 10
212.4321369067017
 20
109.6998705031019
 30
0.0
  0
SPLINE
  5
AF
330
1F
100
AcDbEntity
  8
0
  6
Continuous
 62
     7
370
    15
100
AcDbSpline
210
0.0
220
0.0
230
1.0
 70
    24
 71
     3
 72
    21
 73
    17
 74
     0
 42
0.000000001
 43
0.00000001
 40
0.0
 40
0.0
 40
0.0
 40
0.0
 40
0.0329516115338106
 40
0.1319324694169385
 40
0.1748926940879133
 40
0.2610820796690221
 40
0.3484805909466377
 40
0.4372993994655652
 40
0.4820147493092125
 40
0.5432946158058682
 40
0.604906871362471
 40
0.6884671708077592
 40
0.8160470549998221
 40
0.8619116596946367
 40
0.9538915558669332
 40
1.0
 40
1.0
 40
1.0
 40
1.0
 10
212.4321369067017
 20
109.6998705031019
 30
0.0
 10
212.4299879649468
 20
109.7473557188181
 30
0.0
 10
212.4213839793098
 20
109.9374781886645
 30
0.0
 10
212.40972454013
 20
110.1951170861947
 30
0.0
 10
212.3942109530012
 20
110.5379211801957
 30
0.0
 10
212.3791943794246
 20
110.8697427542252
 30
0.0
 10
212.3605731612064
 20
111.2812162443661
 30
0.0
 10
212.3446104618734
 20
111.6339443811443
 30
0.0
 10
212.3304575255939
 20
111.9466821418206
 30
0.0
 10
212.3182607614574
 20
112.2161943213616
 30
0.0
 10
212.3032969106961
 20
112.5468508781218
 30
0.0
 10
212.2837343698104
 20
112.9791247970439
 30
0.0
 10
212.2657410146702
 20
113.3767243822066
 30
0.0
 10
212.2476528300307
 20
113.7764194170225
 30
0.0
 10
212.2353519334894
 20
114.0482326127193
 30
0.0
 10
212.2263370204558
 20
114.2474353547635
 30
0.0
 10
212.2233268922071
 20
114.3139502283754
 30
0.0
  0
CIRCLE
  5
B0
330
1F
100
AcDbEntity
  8
0
  6
Continuous
 62
     7
370
    15
100
AcDbCircle
 10
208.3318216423
 20
111.8260755886
 30
0.0
 40
4.700000000000014
  0
CIRCLE
  5
B1
330
1F
100
AcDbEntity
  8
0
  6
Continuous
 62
     7
370
    15
100
AcDbCircle
 10
208.3318216423
 20
111.8260755886
 30
0.0
 40
6.999999999999984
  0
CIRCLE
  5
B2
330
1F
100
AcDbEntity
  8
0
  6
Continuous
 62
     7
370
    15
100
AcDbCircle
 10
208.3318216423
 20
111.8260755886
 30
0.0
 40
8.000000000000014
  0
ARC
  5
B3
330
1F
100
AcDbEntity
  8
0
  6
Continuous
 62
     7
370
    15
100
AcDbCircle
 10
208.3318216423
 20
111.8260755886
 30
0.0
 40
4.000000000000009
100
AcDbArc
 50
302.5911505347
 51
2.5911505346
  0
ARC
  5
B4
330
1F
100
AcDbEntity
  8
0
  6
Continuous
 62
     7
370
    15
100
AcDbCircle
 10
208.3318216423
 20
111.8260755886
 30
0.0
 40
4.000000000000009
100
AcDbArc
 50
242.5911505347
 51
302.5911505347
  0
ARC
  5
B5
330
1F
100
AcDbEntity
  8
0
  6
Continuous
 62
     7
370
    15
100
AcDbCircle
 10
208.3318216423
 20
111.8260755886
 30
0.0
 40
3.999999999999949
100
AcDbArc
 50
182.5911505346
 51
242.5911505347
  0
ARC
  5
B6
330
1F
100
AcDbEntity
  8
0
  6
Continuous
 62
     7
370
    15
100
AcDbCircle
 10
208.3318216423
 20
111.8260755886
 30
0.0
 40
3.999999999999988
100
AcDbArc
 50
62.5911505346
 51
122.5911505346
  0
ARC
  5
B7
330
1F
100
AcDbEntity
  8
0
  6
Continuous
 62
     7
370
    15
100
AcDbCircle
 10
208.3318216423
 20
111.8260755886
 30
0.0
 40
4.000000000000007
100
AcDbArc
 50
2.5911505346
 51
62.5911505346
  0
ARC
  5
B8
330
1F
100
AcDbEntity
  8
0
  6
Continuous
 62
     7
370
    15
100
AcDbCircle
 10
208.3318216423
 20
111.8260755886
 30
0.0
 40
3.999999999999967
100
AcDbArc
 50
122.5911505346
 51
182.5911505346
  0
LINE
  5
B9
330
1F
100
AcDbEntity
  8
0
  6
Continuous
 62
     7
370
    15
100
AcDbLine
 10
204.5053848625
 20
142.3260755886
 30
0.0
 11
212.1498174297
 21
142.3260755886
 31
0.0
  0
LINE
  5
BA
330
1F
100
AcDbEntity
  8
0
  6
Continuous
 62
     7
370
    15
100
AcDbLine
 10
201.3318216423
 20
143.3260755886
 30
0.0
 11
215.3318216423
 21
143.3260755886
 31
0.0
  0
LINE
  5
BB
330
1F
100
AcDbEntity
  8
0
  6
Continuous
 62
     7
370
    15
100
AcDbLine
 10
226.3818216423
 20
111.8260755886
 30
0.0
 11
226.3818216423
 21
80.9260755886
 31
0.0
  0
LINE
  5
BC
330
1F
100
AcDbEntity
  8
0
  6
Continuous
 62
     7
370
    15
100
AcDbLine
 10
226.3818216423
 20
142.7260755886
 30
0.0
 11
226.3818216423
 21
111.8260755886
 31
0.0
  0
LINE
  5
BD
330
1F
100
AcDbEntity
  8
0
  6
Continuous
 62
     7
370
    15
100
AcDbLine
 10
225.7818216423
 20
111.8260755886
 30
0.0
 11
225.7818216423
 21
80.3260755886
 31
0.0
  0
LINE
  5
BE
330
1F
100
AcDbEntity
  8
0
  6
Continuous
 62
     7
370
    15
100
AcDbLine
 10
225.7818216423
 20
143.3260755886
 30
0.0
 11
225.7818216423
 21
111.8260755886
 31
0.0
  0
SPLINE
  5
BF
330
1F
100
AcDbEntity
  8
0
  6
Continuous
 62
     7
370
    15
100
AcDbSpline
210
0.0
220
0.0
230
1.0
 70
     8
 71
     3
 72
    37
 73
    33
 74
     0
 42
0.000000001
 43
0.00000001
 40
0.0
 40
0.0
 40
0.0
 40
0.0
 40
0.0314113634162741
 40
0.0544611206513173
 40
0.0753664743217149
 40
0.117821758512269
 40
0.1394011314311492
 40
0.1616932699170311
 40
0.2068894037860009
 40
0.2298163161086597
 40
0.2550531562360539
 40
0.3062229706604753
 40
0.332188036791519
 40
0.3604980710199552
 40
0.4179791381782069
 40
0.4472041637867504
 40
0.4771873267066105
 40
0.5381502310340739
 40
0.5692009612062184
 40
0.599494703106683
 40
0.6300011319747791
 40
0.6611881102912529
 40
0.6926159611251695
 40
0.7224255207668924
 40
0.7832001900443303
 40
0.8142891672732209
 40
0.8416387959476557
 40
0.8975632310200553
 40
0.926284112221044
 40
0.9496312604187974
 40
0.997301923593469
 40
0.9999999999999999
 40
0.9999999999999999
 40
0.9999999999999999
 40
0.9999999999999999
 10
218.0576816023568
 20
143.3203806143346
 30
0.0
 10
218.0577009153494
 20
143.3203737713277
 30
0.0
 10
218.0577344002766
 20
143.3203619069008
 30
0.0
 10
217.9277859544034
 20
143.2898538803826
 30
0.0
 10
217.7247949517904
 20
143.2428413885789
 30
0.0
 10
217.4283523577206
 20
143.1756265514091
 30
0.0
 10
217.0436064853751
 20
143.0920561988068
 30
0.0
 10
216.5903186726996
 20
142.9967678532403
 30
0.0
 10
216.0482996422734
 20
142.8891659548217
 30
0.0
 10
215.4186324309051
 20
142.7742223781575
 30
0.0
 10
214.7003279764789
 20
142.6515229151414
 30
0.0
 10
213.8882147049875
 20
142.5288528562564
 30
0.0
 10
212.996173614863
 20
142.4154847174362
 30
0.0
 10
212.0141974338421
 20
142.3076130466416
 30
0.0
 10
210.9523832444681
 20
142.2211846913352
 30
0.0
 10
209.8472356974895
 20
142.1661440979197
 30
0.0
 10
208.6956476060664
 20
142.1336925070643
 30
0.0
 10
207.5150920518993
 20
142.1404886182941
 30
0.0
 10
206.3493824686787
 20
142.1869395129978
 30
0.0
 10
205.487635563082
 20
142.2404138006176
 30
0.0
 10
204.6446102676848
 20
142.3108367185185
 30
0.0
 10
203.817907692439
 20
142.3972285183415
 30
0.0
 10
203.030744442049
 20
142.4954377831891
 30
0.0
 10
202.043968840956
 20
142.6368578617256
 30
0.0
 10
201.1468923727534
 20
142.7892954023007
 30
0.0
 10
200.38701894826
 20
142.9341417003862
 30
0.0
 10
199.7389500802323
 20
143.0654035215023
 30
0.0
 10
199.2293099932484
 20
143.1768265139096
 30
0.0
 10
198.8846095527283
 20
143.2553471513041
 30
0.0
 10
198.6621744873857
 20
143.3069911276593
 30
0.0
 10
198.5646510886855
 20
143.3301305370155
 30
0.0
 10
198.5840613853564
 20
143.3255468031042
 30
0.0
 10
198.5851011267501
 20
143.3253012685837
 30
0.0
  0
SPLINE
  5
C0
330
1F
100
AcDbEntity
  8
0
  6
Continuous
 62
     7
370
    15
100
AcDbSpline
210
0.0
220
0.0
230
1.0
 70
     8
 71
     3
 72
    23
 73
    19
 74
     0
 42
0.000000001
 43
0.00000001
 40
0.0
 40
0.0
 40
0.0
 40
0.0
 40
0.0523562107720231
 40
0.1050868677851322
 40
0.1589898476447135
 40
0.2132930265422592
 40
0.265647052834208
 40
0.3720747969343037
 40
0.4262586232278444
 40
0.4797105971297813
 40
0.5883835958829193
 40
0.6437334282366934
 40
0.6977739232618368
 40
0.7522005973224396
 40
0.8078640792953494
 40
0.8639636397040629
 40
0.9167643259109817
 40
1.0
 40
1.0
 40
1.0
 40
1.0
 10
175.1550267230378
 20
142.2805908531929
 30
0.0
 10
175.3733709409476
 20
142.2831939560336
 30
0.0
 10
175.8116209521842
 20
142.2884187788391
 30
0.0
 10
176.4683821598076
 20
142.3141857669877
 30
0.0
 10
177.1223996375373
 20
142.352873248057
 30
0.0
 10
177.759179632952
 20
142.4043861015104
 30
0.0
 10
178.5775021691006
 20
142.487061356056
 30
0.0
 10
179.349430463089
 20
142.5880116251149
 30
0.0
 10
180.060676228714
 20
142.6992858872574
 30
0.0
 10
180.7322228879981
 20
142.8153191240543
 30
0.0
 10
181.3304197204748
 20
142.932895741141
 30
0.0
 10
181.8376670176793
 20
143.0416121499907
 30
0.0
 10
182.1704891422686
 20
143.1165703521521
 30
0.0
 10
182.4531276812155
 20
143.1828444662105
 30
0.0
 10
182.6857471096042
 20
143.2392126283407
 30
0.0
 10
182.8570272245403
 20
143.281751994076
 30
0.0
 10
183.0016114460372
 20
143.3183155024831
 30
0.0
 10
183.0081606648166
 20
143.3200235317672
 30
0.0
 10
183.0121678922864
 20
143.3210686124245
 30
0.0
  0
SPLINE
  5
C1
330
1F
100
AcDbEntity
  8
0
  6
Continuous
 62
     7
370
    15
100
AcDbSpline
210
0.0
220
0.0
230
1.0
 70
     8
 71
     3
 72
    23
 73
    19
 74
     0
 42
0.000000001
 43
0.00000001
 40
0.0
 40
0.0
 40
0.0
 40
0.0
 40
0.0523562107720231
 40
0.1050868677851321
 40
0.1589898476447134
 40
0.2132930265422591
 40
0.265647052834208
 40
0.3720747969343036
 40
0.4262586232278442
 40
0.4797105971297811
 40
0.5883835958829191
 40
0.6437334282366932
 40
0.6977739232618366
 40
0.7522005973224394
 40
0.8078640792953492
 40
0.8639636397040626
 40
0.9167643259109814
 40
1.0
 40
1.0
 40
1.0
 40
1.0
 10
175.1550267230378
 20
81.37156032405052
 30
0.0
 10
175.3733709409476
 20
81.36895722120981
 30
0.0
 10
175.8116209521842
 20
81.36373239840428
 30
0.0
 10
176.4683821598076
 20
81.3379654102557
 30
0.0
 10
177.1223996375373
 20
81.2992779291864
 30
0.0
 10
177.759179632952
 20
81.247765075733
 30
0.0
 10
178.5775021691006
 20
81.1650898211874
 30
0.0
 10
179.349430463089
 20
81.06413955212852
 30
0.0
 10
180.060676228714
 20
80.95286528998604
 30
0.0
 10
180.7322228879981
 20
80.83683205318914
 30
0.0
 10
181.3304197204748
 20
80.71925543610244
 30
0.0
 10
181.8376670176793
 20
80.61053902725277
 30
0.0
 10
182.1704891422686
 20
80.53558082509129
 30
0.0
 10
182.4531276812155
 20
80.46930671103293
 30
0.0
 10
182.6857471096042
 20
80.41293854890269
 30
0.0
 10
182.8570272245403
 20
80.37039918316738
 30
0.0
 10
183.0016114460372
 20
80.3338356747603
 30
0.0
 10
183.0081606648166
 20
80.33212764547618
 30
0.0
 10
183.0121678922864
 20
80.33108256481893
 30
0.0
  0
LINE
  5
C2
330
1F
100
AcDbEntity
  8
0
  6
Continuous
 62
     7
370
    15
100
AcDbLine
 10
175.155026723
 20
142.2805908532
 30
0.0
 11
175.155026723
 21
81.3715603241
 31
0.0
  0
SPLINE
  5
C3
330
1F
100
AcDbEntity
  8
0
  6
Continuous
 62
     7
370
    15
100
AcDbSpline
210
0.0
220
0.0
230
1.0
 70
    11
 71
     3
 72
    96
 73
    92
 74
     0
 42
0.000000001
 43
0.00000001
 40
0.0
 40
0.0
 40
0.0
 40
0.0
 40
0.0312500000000003
 40
0.0312500000000003
 40
0.0468750000000003
 40
0.0468750000000003
 40
0.0625000000000002
 40
0.0625000000000002
 40
0.0937500000000002
 40
0.0937500000000002
 40
0.1093750000000004
 40
0.1093750000000004
 40
0.1250000000000006
 40
0.1250000000000006
 40
0.1562500000000005
 40
0.1562500000000005
 40
0.1718750000000005
 40
0.1718750000000005
 40
0.1875000000000005
 40
0.1875000000000005
 40
0.2187500000000004
 40
0.2187500000000004
 40
0.2343750000000006
 40
0.2343750000000006
 40
0.2500000000000008
 40
0.2500000000000008
 40
0.2812500000000014
 40
0.2812500000000014
 40
0.2968750000000017
 40
0.2968750000000017
 40
0.312500000000002
 40
0.312500000000002
 40
0.3437500000000024
 40
0.3437500000000024
 40
0.3593750000000027
 40
0.3593750000000027
 40
0.3750000000000029
 40
0.3750000000000029
 40
0.3906250000000032
 40
0.3906250000000032
 40
0.4062500000000034
 40
0.4062500000000034
 40
0.4375000000000039
 40
0.4375000000000039
 40
0.4531250000000042
 40
0.4531250000000042
 40
0.4687500000000044
 40
0.4687500000000044
 40
0.5000000000000047
 40
0.5000000000000047
 40
0.531250000000005
 40
0.531250000000005
 40
0.546875000000005
 40
0.546875000000005
 40
0.562500000000005
 40
0.562500000000005
 40
0.5937500000000047
 40
0.5937500000000047
 40
0.6250000000000042
 40
0.6250000000000042
 40
0.6562500000000039
 40
0.6562500000000039
 40
0.6875000000000034
 40
0.6875000000000034
 40
0.7187500000000031
 40
0.7187500000000031
 40
0.7500000000000027
 40
0.7500000000000027
 40
0.7656250000000024
 40
0.7656250000000024
 40
0.7812500000000021
 40
0.7812500000000021
 40
0.8125000000000018
 40
0.8125000000000018
 40
0.8281250000000016
 40
0.8281250000000016
 40
0.8437500000000013
 40
0.8437500000000013
 40
0.8750000000000011
 40
0.8750000000000011
 40
0.8906250000000009
 40
0.8906250000000009
 40
0.9062500000000007
 40
0.9062500000000007
 40
0.9218750000000006
 40
0.9218750000000006
 40
0.9375000000000003
 40
0.9375000000000003
 40
0.9687500000000001
 40
0.9687500000000001
 40
1.0
 40
1.0
 40
1.0
 40
1.0
 10
201.8316300917506
 20
118.194016587596
 30
0.0
 10
202.3043978952343
 20
118.5666795927336
 30
0.0
 10
202.8047720722598
 20
118.8893112048951
 30
0.0
 10
203.5933016659661
 20
119.3057751099618
 30
0.0
 10
203.8625281043508
 20
119.4332458343411
 30
0.0
 10
204.4137558049397
 20
119.6656670658644
 30
0.0
 10
204.6970214864087
 20
119.7710061310133
 30
0.0
 10
205.556889569554
 20
120.0495555545589
 30
0.0
 10
206.1395980083935
 20
120.1849232151678
 30
0.0
 10
207.027338458922
 20
120.3160011694059
 30
0.0
 10
207.3255459133285
 20
120.3476163301236
 30
0.0
 10
207.9266277631774
 20
120.3863387588292
 30
0.0
 10
208.2307764075264
 20
120.393352351244
 30
0.0
 10
209.1349480082053
 20
120.3768553721459
 30
0.0
 10
209.730086040596
 20
120.3167541353669
 30
0.0
 10
210.6115581184756
 20
120.1540693852325
 30
0.0
 10
210.9034990243917
 20
120.08767827915
 30
0.0
 10
211.4835183498441
 20
119.9298176777241
 30
0.0
 10
211.7726059008273
 20
119.8378777554014
 30
0.0
 10
212.6178583960269
 20
119.5286706618161
 30
0.0
 10
213.1567961723004
 20
119.2774657402756
 30
0.0
 10
213.9281705347639
 20
118.8315395025603
 30
0.0
 10
214.1790831986527
 20
118.6713006797777
 30
0.0
 10
214.6679002467632
 20
118.326302939446
 30
0.0
 10
214.9064726650653
 20
118.14078232899
 30
0.0
 10
215.5861715867614
 20
117.5580384958237
 30
0.0
 10
215.9968247208205
 20
117.1317576151359
 30
0.0
 10
216.5457573554965
 20
116.4316195631019
 30
0.0
 10
216.717477591199
 20
116.1880467303737
 30
0.0
 10
217.0366093405881
 20
115.6787168323253
 30
0.0
 10
217.1833690978162
 20
115.4134411351679
 30
0.0
 10
217.5729912480147
 20
114.6057116835561
 30
0.0
 10
217.770437238468
 20
114.0444710800637
 30
0.0
 10
217.966610262076
 20
113.1657724828676
 30
0.0
 10
218.0153574916825
 20
112.8642192920725
 30
0.0
 10
218.0751779190481
 20
112.2621641842168
 30
0.0
 10
218.086614286641
 20
111.96183915465
 30
0.0
 10
218.0734217597894
 20
111.3625612684445
 30
0.0
 10
218.0487913876013
 20
111.06360846705
 30
0.0
 10
217.9631660572811
 20
110.4670849574299
 30
0.0
 10
217.9015340821192
 20
110.1676932527708
 30
0.0
 10
217.6665464047612
 20
109.2933103190626
 30
0.0
 10
217.4439173999116
 20
108.7370752789013
 30
0.0
 10
217.0172608792636
 20
107.9398609166503
 30
0.0
 10
216.8596079089091
 20
107.6811096854796
 30
0.0
 10
216.5211976823081
 20
107.18674167081
 30
0.0
 10
216.3396741655886
 20
106.9496278393451
 30
0.0
 10
215.7598387113377
 20
106.2668791999294
 30
0.0
 10
215.3220281429043
 20
105.846661084959
 30
0.0
 10
214.3855453777711
 20
105.1040371809288
 30
0.0
 10
213.8856114665744
 20
104.7786537563385
 30
0.0
 10
213.0897886823767
 20
104.3558528566821
 30
0.0
 10
212.8161443342127
 20
104.2257359631509
 30
0.0
 10
212.2631943531732
 20
103.991625833075
 30
0.0
 10
211.9827803713296
 20
103.8869746272683
 30
0.0
 10
211.1300244975854
 20
103.6090001894136
 30
0.0
 10
210.5462612087224
 20
103.4713502744015
 30
0.0
 10
209.3474663531028
 20
103.2926802770638
 30
0.0
 10
208.7458451181617
 20
103.2539457663305
 30
0.0
 10
207.5481352009552
 20
103.2741056867524
 30
0.0
 10
206.9504109543384
 20
103.3327491888497
 30
0.0
 10
205.7573256207551
 20
103.5520261615961
 30
0.0
 10
205.1790146555791
 20
103.7095467333764
 30
0.0
 10
204.0587328104652
 20
104.1181344047689
 30
0.0
 10
203.5159286834545
 20
104.3695251983371
 30
0.0
 10
202.4715023858694
 20
104.9731215712537
 30
0.0
 10
201.9851698176947
 20
105.3163593166859
 30
0.0
 10
201.3096816767114
 20
105.8947959297766
 30
0.0
 10
201.0935854887045
 20
106.0982808365239
 30
0.0
 10
200.6804366288706
 20
106.5278804485566
 30
0.0
 10
200.4825652164591
 20
106.7550410392991
 30
0.0
 10
199.925525543586
 20
107.4666082012007
 30
0.0
 10
199.6095722005454
 20
107.9709083331009
 30
0.0
 10
199.2217583031253
 20
108.7745186465962
 30
0.0
 10
199.1069490319377
 20
109.05030661062
 30
0.0
 10
198.908311586614
 20
109.6189314425529
 30
0.0
 10
198.8244051594973
 20
109.9132800847476
 30
0.0
 10
198.6290514732483
 20
110.7962176069006
 30
0.0
 10
198.5699587085009
 20
111.392380934419
 30
0.0
 10
198.5906718550712
 20
112.2982421575006
 30
0.0
 10
198.6164014410285
 20
112.6038582791458
 30
0.0
 10
198.7036210855475
 20
113.2021961165302
 30
0.0
 10
198.7649465832469
 20
113.4966594734047
 30
0.0
 10
198.9216916071538
 20
114.0765543830157
 30
0.0
 10
199.0171146395808
 20
114.3619849637163
 30
0.0
 10
199.2418797622854
 20
114.9238978591223
 30
0.0
 10
199.3708977049875
 20
115.1989955548598
 30
0.0
 10
199.7979381000513
 20
115.9924249919253
 30
0.0
 10
200.1379189853224
 20
116.4855236800258
 30
0.0
 10
200.9223651068517
 20
117.4049854711923
 30
0.0
 10
201.3588622882669
 20
117.8213535824583
 30
0.0
 10
201.8316300917506
 20
118.1940165875959
 30
0.0
  0
SPLINE
  5
C4
330
1F
100
AcDbEntity
  8
0
  6
Continuous
 62
     7
370
    15
100
AcDbSpline
210
0.0
220
0.0
230
1.0
 70
     8
 71
     3
 72
     8
 73
     4
 74
     0
 42
0.000000001
 43
0.00000001
 40
0.0000204044391276
 40
0.0000204044391276
 40
0.0000204044391276
 40
0.0000204044391276
 40
0.000222411168526
 40
0.000222411168526
 40
0.000222411168526
 40
0.000222411168526
 10
174.9818216422809
 20
142.1766521894048
 30
0.0
 10
175.039629834237
 20
142.2111817825214
 30
0.0
 10
175.0973695651652
 20
142.245831792493
 30
0.0
 10
175.1550267230378
 20
142.2805908531929
 30
0.0
  0
SPLINE
  5
C5
330
1F
100
AcDbEntity
  8
0
  6
Continuous
 62
     7
370
    15
100
AcDbSpline
210
0.0
220
0.0
230
1.0
 70
     8
 71
     3
 72
     8
 73
     4
 74
     0
 42
0.000000001
 43
0.00000001
 40
0.0000204044391276
 40
0.0000204044391276
 40
0.0000204044391276
 40
0.0000204044391276
 40
0.000222411168526
 40
0.000222411168526
 40
0.000222411168526
 40
0.000222411168526
 10
174.9818216422809
 20
81.47549898783865
 30
0.0
 10
175.039629834237
 20
81.44096939472207
 30
0.0
 10
175.0973695651652
 20
81.40631938475035
 30
0.0
 10
175.1550267230378
 20
81.37156032405052
 30
0.0
  0
LINE
  5
C6
330
1F
100
AcDbEntity
  8
0
  6
Continuous
 62
     7
370
    15
100
AcDbLine
 10
174.9818216423
 20
142.1766521894
 30
0.0
 11
174.9818216423
 21
81.4754989878
 31
0.0
  0
LINE
  5
C7
330
1F
100
AcDbEntity
  8
0
  6
Continuous
 62
     7
370
    15
100
AcDbLine
 10
164.9818216423
 20
82.3856696811
 30
0.0
 11
164.9818216423
 21
141.2664814961
 31
0.0
  0
SPLINE
  5
C8
330
1F
100
AcDbEntity
  8
0
  6
Continuous
 62
     7
370
    15
100
AcDbSpline
210
0.0
220
0.0
230
1.0
 70
     8
 71
     3
 72
    14
 73
    10
 74
     0
 42
0.000000001
 43
0.00000001
 40
0.0
 40
0.0
 40
0.0
 40
0.0
 40
0.25
 40
0.25
 40
0.5
 40
0.5
 40
0.75
 40
0.75
 40
1.0
 40
1.0
 40
1.0
 40
1.0
 10
165.5818216422809
 20
142.0677273292261
 30
0.0
 10
165.5089080737499
 20
142.0473541148471
 30
0.0
 10
165.4394136865467
 20
142.0142968546014
 30
0.0
 10
165.3066944877289
 20
141.9249242566032
 30
0.0
 10
165.2434595624712
 20
141.8680354848332
 30
0.0
 10
165.1322126737111
 20
141.7342282645074
 30
0.0
 10
165.0820707458489
 20
141.6549986151657
 30
0.0
 10
165.0070624518684
 20
141.4747331530833
 30
0.0
 10
164.9818216422809
 20
141.3722176895609
 30
0.0
 10
164.9818216422809
 20
141.2664814961496
 30
0.0
  0
SPLINE
  5
C9
330
1F
100
AcDbEntity
  8
0
  6
Continuous
 62
     7
370
    15
100
AcDbSpline
210
0.0
220
0.0
230
1.0
 70
     8
 71
     3
 72
    14
 73
    10
 74
     0
 42
0.000000001
 43
0.00000001
 40
0.0
 40
0.0
 40
0.0
 40
0.0
 40
0.25
 40
0.25
 40
0.5
 40
0.5
 40
0.75
 40
0.75
 40
1.0
 40
1.0
 40
1.0
 40
1.0
 10
165.5818216422809
 20
81.58442384801734
 30
0.0
 10
165.5089080737499
 20
81.60479706239634
 30
0.0
 10
165.4394136865467
 20
81.637854322642
 30
0.0
 10
165.3066944877289
 20
81.72722692064018
 30
0.0
 10
165.2434595624711
 20
81.78411569241018
 30
0.0
 10
165.1322126737111
 20
81.91792291273599
 30
0.0
 10
165.0820707458489
 20
81.99715256207776
 30
0.0
 10
165.0070624518684
 20
82.17741802416012
 30
0.0
 10
164.9818216422809
 20
82.27993348768251
 30
0.0
 10
164.9818216422809
 20
82.38566968109387
 30
0.0
  0
ARC
  5
CA
330
1F
100
AcDbEntity
  8
0
  6
Continuous
 62
     7
370
    15
100
AcDbCircle
 10
174.0318216423
 20
111.8260755886
 30
0.0
 40
31.40000000000008
100
AcDbArc
 50
254.3887887701
 51
255.1452547234
  0
ARC
  5
CB
330
1F
100
AcDbEntity
  8
0
  6
Continuous
 62
     7
370
    15
100
AcDbCircle
 10
174.0318216423
 20
111.8260755886
 30
0.0
 40
31.40000000000011
100
AcDbArc
 50
104.8547452766
 51
105.6112112299
  0
LINE
  5
CC
330
1F
100
AcDbEntity
  8
0
  6
Continuous
 62
     7
370
    15
100
AcDbLine
 10
174.9818216423
 20
142.1766521894
 30
0.0
 11
165.9818216423
 21
142.1766521894
 31
0.0
  0
LINE
  5
CD
330
1F
100
AcDbEntity
  8
0
  6
Continuous
 62
     7
370
    15
100
AcDbLine
 10
174.9818216423
 20
81.4754989878
 30
0.0
 11
165.9818216423
 21
81.4754989878
 31
0.0
  0
LINE
  5
CE
330
1F
100
AcDbEntity
  8
0
  6
Continuous
 62
     7
370
    15
100
AcDbLine
 10
163.3818216423
 20
89.6010755886
 30
0.0
 11
163.3818216423
 21
134.0510755886
 31
0.0
  0
LINE
  5
CF
330
1F
100
AcDbEntity
  8
0
  6
Continuous
 62
     7
370
    15
100
AcDbLine
 10
88.3818216423
 20
99.1760755886
 30
0.0
 11
88.3818216423
 21
124.4760755886
 31
0.0
  0
LINE
  5
D0
330
1F
100
AcDbEntity
  8
0
  6
Continuous
 62
     7
370
    15
100
AcDbLine
 10
80.8646797009
 20
99.3710755886
 30
0.0
 11
80.8646797009
 21
124.2810755886
 31
0.0
  0
LINE
  5
D1
330
1F
100
AcDbEntity
  8
0
  6
Continuous
 62
     7
370
    15
100
AcDbLine
 10
77.7818216423
 20
99.3710755886
 30
0.0
 11
77.7818216423
 21
124.2810755886
 31
0.0
  0
LINE
  5
D2
330
1F
100
AcDbEntity
  8
0
  6
Continuous
 62
     7
370
    15
100
AcDbLine
 10
75.7818216423
 20
101.0760755886
 30
0.0
 11
75.7818216423
 21
122.5760755886
 31
0.0
  0
LINE
  5
D3
330
1F
100
AcDbEntity
  8
0
  6
Continuous
 62
     7
370
    15
100
AcDbLine
 10
69.9818216423
 20
101.2760755886
 30
0.0
 11
69.9818216423
 21
122.3760505749
 31
0.0
  0
LINE
  5
D4
330
1F
100
AcDbEntity
  8
0
  6
HIDDEN
 62
     7
370
     0
100
AcDbLine
 10
200.3318216423
 20
142.3260755886
 30
0.0
 11
204.5053848625
 21
142.3260755886
 31
0.0
  0
LINE
  5
D5
330
1F
100
AcDbEntity
  8
0
  6
HIDDEN
 62
     7
370
     0
100
AcDbLine
 10
212.1498174297
 20
142.3260755886
 30
0.0
 11
216.3318216423
 21
142.3260755886
 31
0.0
  0
LINE
  5
D6
330
1F
100
AcDbEntity
  8
0
  6
HIDDEN
 62
     7
370
     0
100
AcDbLine
 10
200.3318216423
 20
132.1562026075
 30
0.0
 11
216.3318216423
 21
132.1562026075
 31
0.0
  0
LINE
  5
D7
330
1F
100
AcDbEntity
  8
0
  6
HIDDEN
 62
     7
370
     0
100
AcDbLine
 10
203.2154851363
 20
122.8260755886
 30
0.0
 11
213.4481581483
 21
122.8260755886
 31
0.0
  0
SPLINE
  5
D8
330
1F
100
AcDbEntity
  8
0
  6
HIDDEN
 62
     7
370
     0
100
AcDbSpline
210
0.0
220
0.0
230
1.0
 70
     8
 71
     3
 72
    11
 73
     7
 74
     0
 42
0.000000001
 43
0.00000001
 40
0.0
 40
0.0
 40
0.0
 40
0.0
 40
0.2164567244933949
 40
0.4403141600939096
 40
0.7519028444798601
 40
1.0
 40
1.0
 40
1.0
 40
1.0
 10
212.2233268922071
 20
143.2448777421387
 30
0.0
 10
211.9424495425986
 20
143.0999993319326
 30
0.0
 10
211.3710915745258
 20
142.8052890813966
 30
0.0
 10
210.3108068402613
 20
142.5596511187147
 30
0.0
 10
209.1734681712378
 20
142.7077561791948
 30
0.0
 10
208.4456419405106
 20
143.0799097585473
 30
0.0
 10
208.1230116277862
 20
143.2448777421388
 30
0.0
  0
SPLINE
  5
D9
330
1F
100
AcDbEntity
  8
0
  6
HIDDEN
 62
     7
370
     0
100
AcDbSpline
210
0.0
220
0.0
230
1.0
 70
     8
 71
     3
 72
    18
 73
    14
 74
     0
 42
0.000000001
 43
0.00000001
 40
0.0
 40
0.0
 40
0.0
 40
0.0
 40
0.1621857237011115
 40
0.2719376986809077
 40
0.3834778365035221
 40
0.4398348003592727
 40
0.4972240325426501
 40
0.6329034635580871
 40
0.6924223919694951
 40
0.7521753215677028
 40
0.844632669963472
 40
0.9377058155124048
 40
1.0
 40
1.0
 40
1.0
 40
1.0
 10
208.1230116277862
 20
143.2448777421388
 30
0.0
 10
207.9238212902362
 20
143.134049884632
 30
0.0
 10
207.5898377511384
 20
142.9482242038486
 30
0.0
 10
207.0934615861273
 20
142.7616987856857
 30
0.0
 10
206.7241603289987
 20
142.6715484737686
 30
0.0
 10
206.4204068012009
 20
142.6333916599472
 30
0.0
 10
206.0825383796949
 20
142.6180363284355
 30
0.0
 10
205.7396207394738
 20
142.6504886686632
 30
0.0
 10
205.4002971811056
 20
142.7279755886956
 30
0.0
 10
205.1222957684373
 20
142.8127851740201
 30
0.0
 10
204.8069599653014
 20
142.9385132402913
 30
0.0
 10
204.4966396683048
 20
143.0915885561609
 30
0.0
 10
204.3073868666312
 20
143.2010067580921
 30
0.0
 10
204.23150637786
 20
143.2448777421387
 30
0.0
  0
SPLINE
  5
DA
330
1F
100
AcDbEntity
  8
0
  6
HIDDEN
 62
     7
370
     0
100
AcDbSpline
210
0.0
220
0.0
230
1.0
 70
     8
 71
     3
 72
    21
 73
    17
 74
     0
 42
0.000000001
 43
0.00000001
 40
0.0
 40
0.0
 40
0.0
 40
0.0
 40
0.0458869135144075
 40
0.1378515852272344
 40
0.1839592839002007
 40
0.2454521066789362
 40
0.3071425929067084
 40
0.3905639392343538
 40
0.5179679533991413
 40
0.5607187726398253
 40
0.6467371220203267
 40
0.7343275108752139
 40
0.8233627868719366
 40
0.8680629544234383
 40
0.9669733239034488
 40
1.0
 40
1.0
 40
1.0
 40
1.0
 10
204.23150637786
 20
143.2448777421387
 30
0.0
 10
204.2345019081931
 20
143.2123883795281
 30
0.0
 10
204.2435009576691
 20
143.1147851677214
 30
0.0
 10
204.2558002885334
 20
142.9978643088616
 30
0.0
 10
204.2694010382972
 20
142.8859534884414
 30
0.0
 10
204.2811257066525
 20
142.8026428979722
 30
0.0
 10
204.2956766917002
 20
142.7193612884411
 30
0.0
 10
204.3151996230836
 20
142.6416573962383
 30
0.0
 10
204.3336921556006
 20
142.6187498017571
 30
0.0
 10
204.3523001096819
 20
142.6383490135356
 30
0.0
 10
204.367938702587
 20
142.6815023691741
 30
0.0
 10
204.3865970261364
 20
142.7739212240072
 30
0.0
 10
204.401959077485
 20
142.8812521107319
 30
0.0
 10
204.41778316169
 20
143.013499305386
 30
0.0
 10
204.4295585717155
 20
143.1275971443969
 30
0.0
 10
204.4381626154262
 20
143.2213974988782
 30
0.0
 10
204.4403163923545
 20
143.2448777421386
 30
0.0
  0
SPLINE
  5
DB
330
1F
100
AcDbEntity
  8
0
  6
HIDDEN
 62
     7
370
     0
100
AcDbSpline
210
0.0
220
0.0
230
1.0
 70
     8
 71
     3
 72
    11
 73
     7
 74
     0
 42
0.000000001
 43
0.00000001
 40
0.0
 40
0.0
 40
0.0
 40
0.0
 40
0.2164567244934052
 40
0.4403141600939156
 40
0.7519028444798488
 40
1.0
 40
1.0
 40
1.0
 40
1.0
 10
204.4403163923545
 20
143.2448777421386
 30
0.0
 10
204.721193741963
 20
143.0999993319325
 30
0.0
 10
205.2925517100359
 20
142.8052890813966
 30
0.0
 10
206.3528364443004
 20
142.5596511187146
 30
0.0
 10
207.4901751133239
 20
142.7077561791947
 30
0.0
 10
208.218001344051
 20
143.0799097585472
 30
0.0
 10
208.5406316567755
 20
143.2448777421387
 30
0.0
  0
SPLINE
  5
DC
330
1F
100
AcDbEntity
  8
0
  6
HIDDEN
 62
     7
370
     0
100
AcDbSpline
210
0.0
220
0.0
230
1.0
 70
     8
 71
     3
 72
    18
 73
    14
 74
     0
 42
0.000000001
 43
0.00000001
 40
0.0
 40
0.0
 40
0.0
 40
0.0
 40
0.2165386594557455
 40
0.3272843284064275
 40
0.4397251388025926
 40
0.490604242342416
 40
0.5937528941117042
 40
0.6989995256476023
 40
0.7521304657896262
 40
0.8137323080972902
 40
0.8756486252096637
 40
0.9377003559516274
 40
1.0
 40
1.0
 40
1.0
 40
1.0
 10
208.5406316567755
 20
143.2448777421387
 30
0.0
 10
208.8078792755056
 20
143.0991533752898
 30
0.0
 10
209.2118069512109
 20
142.878900319062
 30
0.0
 10
209.7899174221966
 20
142.7001197009392
 30
0.0
 10
210.1585060433041
 20
142.6381947398697
 30
0.0
 10
210.5193569386685
 20
142.6202975070644
 30
0.0
 10
210.8710980711537
 20
142.6417379640257
 30
0.0
 10
211.2208987274386
 20
142.7144708320226
 30
0.0
 10
211.5093624849239
 20
142.8037027003523
 30
0.0
 10
211.7374822834229
 20
142.8900507299729
 30
0.0
 10
211.9727333553136
 20
142.9955046176835
 30
0.0
 10
212.204825530063
 20
143.1133567923383
 30
0.0
 10
212.356265808109
 20
143.200979196026
 30
0.0
 10
212.4321369067017
 20
143.2448777421387
 30
0.0
  0
SPLINE
  5
DD
330
1F
100
AcDbEntity
  8
0
  6
HIDDEN
 62
     7
370
     0
100
AcDbSpline
210
0.0
220
0.0
230
1.0
 70
     8
 71
     3
 72
    21
 73
    17
 74
     0
 42
0.000000001
 43
0.00000001
 40
0.0
 40
0.0
 40
0.0
 40
0.0
 40
0.0329516115338108
 40
0.1319324694169387
 40
0.1748926940879134
 40
0.2610820796690221
 40
0.3484805909466377
 40
0.4372993994655653
 40
0.4820147493092124
 40
0.5432946158058682
 40
0.6049068713624709
 40
0.6884671708077591
 40
0.8160470549998219
 40
0.8619116596946367
 40
0.9538915558669327
 40
0.9999999999999999
 40
0.9999999999999999
 40
0.9999999999999999
 40
0.9999999999999999
 10
212.4321369067017
 20
143.2448777421387
 30
0.0
 10
212.4299879649469
 20
143.2214494669597
 30
0.0
 10
212.4213839793098
 20
143.1276467649164
 30
0.0
 10
212.40972454013
 20
143.0146659335801
 30
0.0
 10
212.3942109530012
 20
142.8847619496013
 30
0.0
 10
212.3791943794246
 20
142.7788483206972
 30
0.0
 10
212.3605731612064
 20
142.6845127751668
 30
0.0
 10
212.3446104618734
 20
142.6390254217183
 30
0.0
 10
212.3304575255939
 20
142.6237821732692
 30
0.0
 10
212.3182607614574
 20
142.6279071276138
 30
0.0
 10
212.3032969106961
 20
142.6574521946422
 30
0.0
 10
212.2837343698104
 20
142.7329902345589
 30
0.0
 10
212.2657410146702
 20
142.8487973592947
 30
0.0
 10
212.2476528300307
 20
142.9975845724131
 30
0.0
 10
212.2353519334894
 20
143.1144662144943
 30
0.0
 10
212.2263370204558
 20
143.2122329125613
 30
0.0
 10
212.2233268922071
 20
143.2448777421387
 30
0.0
  0
LINE
  5
DE
330
1F
100
AcDbEntity
  8
0
  6
HIDDEN
 62
     7
370
     0
100
AcDbLine
 10
208.5406316568
 20
133.3260755886
 30
0.0
 11
208.5406316568
 21
143.2448777421
 31
0.0
  0
LINE
  5
DF
330
1F
100
AcDbEntity
  8
0
  6
HIDDEN
 62
     7
370
     0
100
AcDbLine
 10
210.4863842817
 20
133.3260755886
 30
0.0
 11
208.5406316568
 21
133.3260755886
 31
0.0
  0
LINE
  5
E0
330
1F
100
AcDbEntity
  8
0
  6
HIDDEN
 62
     7
370
     0
100
AcDbLine
 10
208.5406316568
 20
133.3260755886
 30
0.0
 11
206.4904740246
 21
133.3260755886
 31
0.0
  0
LINE
  5
E1
330
1F
100
AcDbEntity
  8
0
  6
HIDDEN
 62
     7
370
     0
100
AcDbLine
 10
204.3318216423
 20
132.3260755886
 30
0.0
 11
212.3318216423
 21
132.3260755886
 31
0.0
  0
LINE
  5
E2
330
1F
100
AcDbEntity
  8
0
  6
HIDDEN
 62
     7
370
     0
100
AcDbLine
 10
206.4904740246
 20
133.3260755886
 30
0.0
 11
204.4403163924
 21
133.3260755886
 31
0.0
  0
LINE
  5
E3
330
1F
100
AcDbEntity
  8
0
  6
HIDDEN
 62
     7
370
     0
100
AcDbLine
 10
212.4321369067
 20
133.3260755886
 30
0.0
 11
210.4863842817
 21
133.3260755886
 31
0.0
  0
LINE
  5
E4
330
1F
100
AcDbEntity
  8
0
  6
HIDDEN
 62
     7
370
     0
100
AcDbLine
 10
204.4403163924
 20
133.3260755886
 30
0.0
 11
204.3359113851
 21
133.3260755886
 31
0.0
  0
LINE
  5
E5
330
1F
100
AcDbEntity
  8
0
  6
HIDDEN
 62
     7
370
     0
100
AcDbLine
 10
204.4403163924
 20
133.3260755886
 30
0.0
 11
204.4403163924
 21
143.2448777421
 31
0.0
  0
LINE
  5
E6
330
1F
100
AcDbEntity
  8
0
  6
HIDDEN
 62
     7
370
     0
100
AcDbLine
 10
212.2233268922
 20
133.3260755886
 30
0.0
 11
212.2233268922
 21
143.2448777421
 31
0.0
  0
LINE
  5
E7
330
1F
100
AcDbEntity
  8
0
  6
HIDDEN
 62
     7
370
     0
100
AcDbLine
 10
212.4321369067
 20
133.3260755886
 30
0.0
 11
212.4321369067
 21
143.2448777421
 31
0.0
  0
LINE
  5
E8
330
1F
100
AcDbEntity
  8
0
  6
HIDDEN
 62
     7
370
     0
100
AcDbLine
 10
204.3359113851
 20
133.3260755886
 30
0.0
 11
204.2315063779
 21
133.3260755886
 31
0.0
  0
LINE
  5
E9
330
1F
100
AcDbEntity
  8
0
  6
HIDDEN
 62
     7
370
     0
100
AcDbLine
 10
208.1230116278
 20
133.3260755886
 30
0.0
 11
208.1230116278
 21
143.2448777421
 31
0.0
  0
LINE
  5
EA
330
1F
100
AcDbEntity
  8
0
  6
HIDDEN
 62
     7
370
     0
100
AcDbLine
 10
204.2315063779
 20
133.3260755886
 30
0.0
 11
204.2315063779
 21
143.2448777421
 31
0.0
  0
LINE
  5
EB
330
1F
100
AcDbEntity
  8
0
  6
HIDDEN
 62
     7
370
     0
100
AcDbLine
 10
201.8316300918
 20
142.6757003028
 30
0.0
 11
202.2118122488
 21
142.6168790278
 31
0.0
  0
CIRCLE
  5
EC
330
1F
100
AcDbEntity
  8
0
  6
HIDDEN
 62
     7
370
     0
100
AcDbCircle
 10
208.3318216423
 20
111.8260755886
 30
0.0
 40
7.25
  0
LINE
  5
ED
330
1F
100
AcDbEntity
  8
0
  6
HIDDEN
 62
     7
370
     0
100
AcDbLine
 10
185.8818216423
 20
111.8260755886
 30
0.0
 11
185.8818216423
 21
94.3260755886
 31
0.0
  0
LINE
  5
EE
330
1F
100
AcDbEntity
  8
0
  6
HIDDEN
 62
     7
370
     0
100
AcDbLine
 10
185.8818216423
 20
129.3260755886
 30
0.0
 11
185.8818216423
 21
111.8260755886
 31
0.0
  0
LINE
  5
EF
330
1F
100
AcDbEntity
  8
0
  6
HIDDEN
 62
     7
370
     0
100
AcDbLine
 10
190.7478470461
 20
111.8260755886
 30
0.0
 11
190.7478470461
 21
93.8260755886
 31
0.0
  0
LINE
  5
F0
330
1F
100
AcDbEntity
  8
0
  6
HIDDEN
 62
     7
370
     0
100
AcDbLine
 10
190.7478470461
 20
129.8260755886
 30
0.0
 11
190.7478470461
 21
111.8260755886
 31
0.0
  0
SPLINE
  5
F1
330
1F
100
AcDbEntity
  8
0
  6
HIDDEN
 62
     7
370
     0
100
AcDbSpline
210
0.0
220
0.0
230
1.0
 70
     8
 71
     3
 72
    23
 73
    19
 74
     0
 42
0.000000001
 43
0.00000001
 40
0.0
 40
0.0
 40
0.0
 40
0.0
 40
0.0497359477789266
 40
0.1510124615330787
 40
0.2026638815750376
 40
0.2523947959594953
 40
0.3534147055595915
 40
0.40478442625557
 40
0.457127330268268
 40
0.5634538493094188
 40
0.6175552273955074
 40
0.671837158672483
 40
0.7265188718079896
 40
0.7825084014217646
 40
0.8389725494345852
 40
0.8905493605185476
 40
0.9956595043271329
 40
0.9999999999999999
 40
0.9999999999999999
 40
0.9999999999999999
 40
0.9999999999999999
 10
208.3318216422809
 20
128.301435979217
 30
0.0
 10
208.5225851500692
 20
128.3034356904899
 30
0.0
 10
209.1017973329728
 20
128.3095073817947
 30
0.0
 10
209.8718715278536
 20
128.3661194182281
 30
0.0
 10
210.6144492735971
 20
128.4557973438464
 30
0.0
 10
211.3341964404645
 20
128.5664330898379
 30
0.0
 10
212.0150381171909
 20
128.703004498566
 30
0.0
 10
212.6523120901486
 20
128.8564988599379
 30
0.0
 10
213.267221826028
 20
129.0204807503522
 30
0.0
 10
213.8256928051648
 20
129.1904467940952
 30
0.0
 10
214.3115177283615
 20
129.3520225020853
 30
0.0
 10
214.6387810610556
 20
129.4665990389152
 30
0.0
 10
214.9247628128164
 20
129.5710602097812
 30
0.0
 10
215.1652511677179
 20
129.6619913330003
 30
0.0
 10
215.3511366702021
 20
129.7342223839073
 30
0.0
 10
215.5207749453812
 20
129.8013589469362
 30
0.0
 10
215.5963772514122
 20
129.8319321124695
 30
0.0
 10
215.5804960036381
 20
129.8255423118459
 30
0.0
 10
215.5798661993028
 20
129.8252889108416
 30
0.0
  0
LINE
  5
F2
330
1F
100
AcDbEntity
  8
0
  6
HIDDEN
 62
     7
370
     0
100
AcDbLine
 10
208.9881954559
 20
128.3172219895
 30
0.0
 11
207.9246151321
 21
128.3081072501
 31
0.0
  0
SPLINE
  5
F3
330
1F
100
AcDbEntity
  8
0
  6
HIDDEN
 62
     7
370
     0
100
AcDbSpline
210
0.0
220
0.0
230
1.0
 70
     8
 71
     3
 72
    23
 73
    19
 74
     0
 42
0.000000001
 43
0.00000001
 40
0.0
 40
0.0
 40
0.0
 40
0.0
 40
0.0802191082626963
 40
0.132250569132958
 40
0.1808751114803395
 40
0.279665882625334
 40
0.3299163214491376
 40
0.3807452564531499
 40
0.4839481610560544
 40
0.5364147163657229
 40
0.5903477696064717
 40
0.6446519936221441
 40
0.7001532766477493
 40
0.7560852910727203
 40
0.8093222411325218
 40
0.9178817758516764
 40
0.9733988521214003
 40
0.9999999999999999
 40
0.9999999999999999
 40
0.9999999999999999
 40
0.9999999999999999
 10
201.0977738516614
 20
129.8196679428378
 30
0.0
 10
201.1018046512278
 20
129.8180202224099
 30
0.0
 10
201.1084498950888
 20
129.8153037628397
 30
0.0
 10
201.2319469973326
 20
129.7660116887663
 30
0.0
 10
201.4173996537663
 20
129.6931418289406
 30
0.0
 10
201.687632289185
 20
129.5895765999054
 30
0.0
 10
202.0380059012763
 20
129.4620053523505
 30
0.0
 10
202.4479093445634
 20
129.3185507259542
 30
0.0
 10
202.9385960278249
 20
129.1583278053921
 30
0.0
 10
203.5042119845674
 20
128.9923788613633
 30
0.0
 10
203.9714256803183
 20
128.8665089402567
 30
0.0
 10
204.4793908791164
 20
128.7432682858323
 30
0.0
 10
205.0234013519633
 20
128.6273107359759
 30
0.0
 10
205.5907190464735
 20
128.5247032883214
 30
0.0
 10
206.3700082426659
 20
128.409800581019
 30
0.0
 10
207.1858571585931
 20
128.3324391384693
 30
0.0
 10
207.9148406660938
 20
128.3037979830906
 30
0.0
 10
208.2297959185914
 20
128.3020139076318
 30
0.0
 10
208.3318216422809
 20
128.301435979217
 30
0.0
  0
LINE
  5
F4
330
1F
100
AcDbEntity
  8
0
  6
HIDDEN
 62
     7
370
     0
100
AcDbLine
 10
208.3318216423
 20
140.8260755886
 30
0.0
 11
215.5818216423
 21
140.8260755886
 31
0.0
  0
LINE
  5
F5
330
1F
100
AcDbEntity
  8
0
  6
HIDDEN
 62
     7
370
     0
100
AcDbLine
 10
201.0818216423
 20
140.8260755886
 30
0.0
 11
208.3318216423
 21
140.8260755886
 31
0.0
  0
LINE
  5
F6
330
1F
100
AcDbEntity
  8
0
  6
HIDDEN
 62
     7
370
     0
100
AcDbLine
 10
165.9818216423
 20
134.3260755886
 30
0.0
 11
164.9818216423
 21
134.3260755886
 31
0.0
  0
LINE
  5
F7
330
1F
100
AcDbEntity
  8
0
  6
HIDDEN
 62
     7
370
     0
100
AcDbLine
 10
165.9818216423
 20
89.3260755886
 30
0.0
 11
164.9818216423
 21
89.3260755886
 31
0.0
  0
LINE
  5
F8
330
1F
100
AcDbEntity
  8
0
  6
HIDDEN
 62
     7
370
     0
100
AcDbLine
 10
79.8478470461
 20
104.8260755886
 30
0.0
 11
79.8478470461
 21
118.8260755886
 31
0.0
  0
LINE
  5
F9
330
1F
100
AcDbEntity
  8
0
  6
HIDDEN
 62
     7
370
     0
100
AcDbLine
 10
183.0318216423
 20
89.3260755886
 30
0.0
 11
174.9818216423
 21
89.3260755886
 31
0.0
  0
LINE
  5
FA
330
1F
100
AcDbEntity
  8
0
  6
HIDDEN
 62
     7
370
     0
100
AcDbLine
 10
165.9818216423
 20
81.4754989878
 30
0.0
 11
165.9818216423
 21
89.3260755886
 31
0.0
  0
LINE
  5
FB
330
1F
100
AcDbEntity
  8
0
  6
HIDDEN
 62
     7
370
     0
100
AcDbLine
 10
174.9818216423
 20
89.3260755886
 30
0.0
 11
165.9818216423
 21
89.3260755886
 31
0.0
  0
LINE
  5
FC
330
1F
100
AcDbEntity
  8
0
  6
HIDDEN
 62
     7
370
     0
100
AcDbLine
 10
165.9818216423
 20
142.1766521894
 30
0.0
 11
165.9818216423
 21
134.3260755886
 31
0.0
  0
LINE
  5
FD
330
1F
100
AcDbEntity
  8
0
  6
HIDDEN
 62
     7
370
     0
100
AcDbLine
 10
174.9818216423
 20
134.3260755886
 30
0.0
 11
165.9818216423
 21
134.3260755886
 31
0.0
  0
LINE
  5
FE
330
1F
100
AcDbEntity
  8
0
  6
HIDDEN
 62
     7
370
     0
100
AcDbLine
 10
183.0318216423
 20
134.3260755886
 30
0.0
 11
174.9818216423
 21
134.3260755886
 31
0.0
  0
LINE
  5
FF
330
1F
100
AcDbEntity
  8
0
  6
HIDDEN
 62
     7
370
     0
100
AcDbLine
 10
140.5826822613
 20
105.8260755886
 30
0.0
 11
140.5826822613
 21
117.8260755886
 31
0.0
  0
LINE
  5
100
330
1F
100
AcDbEntity
  8
0
  6
HIDDEN
 62
     7
370
     0
100
AcDbLine
 10
139.9818216423
 20
104.8260755886
 30
0.0
 11
139.9818216423
 21
118.8260755886
 31
0.0
  0
LINE
  5
101
330
1F
100
AcDbEntity
  8
0
  6
HIDDEN
 62
     7
370
     0
100
AcDbLine
 10
216.3318216423
 20
142.3260755886
 30
0.0
 11
215.8112350391
 21
142.8466621918
 31
0.0
  0
LINE
  5
102
330
1F
100
AcDbEntity
  8
0
  6
HIDDEN
 62
     7
370
     0
100
AcDbLine
 10
200.8526414347
 20
142.846895381
 30
0.0
 11
200.3318216423
 21
142.3260755886
 31
0.0
  0
LINE
  5
103
330
1F
100
AcDbEntity
  8
0
  6
HIDDEN
 62
     7
370
     0
100
AcDbLine
 10
200.3318216423
 20
142.3260755886
 30
0.0
 11
200.3318216423
 21
132.1562026075
 31
0.0
  0
LINE
  5
104
330
1F
100
AcDbEntity
  8
0
  6
HIDDEN
 62
     7
370
     0
100
AcDbLine
 10
216.3318216423
 20
132.1562026075
 30
0.0
 11
216.3318216423
 21
142.3260755886
 31
0.0
  0
LINE
  5
105
330
1F
100
AcDbEntity
  8
0
  6
HIDDEN
 62
     7
370
     0
100
AcDbLine
 10
200.3318216423
 20
132.1562026075
 30
0.0
 11
202.7325222231
 21
123.1966660661
 31
0.0
  0
LINE
  5
106
330
1F
100
AcDbEntity
  8
0
  6
HIDDEN
 62
     7
370
     0
100
AcDbLine
 10
213.9311210614
 20
123.1966660661
 30
0.0
 11
216.3318216423
 21
132.1562026075
 31
0.0
  0
ARC
  5
107
330
1F
100
AcDbEntity
  8
0
  6
HIDDEN
 62
     7
370
     0
100
AcDbCircle
 10
203.2154851363
 20
123.3260755886
 30
0.0
 40
0.5000000000000152
100
AcDbArc
 50
195.0
 51
270.0
  0
ARC
  5
108
330
1F
100
AcDbEntity
  8
0
  6
HIDDEN
 62
     7
370
     0
100
AcDbCircle
 10
213.4481581483
 20
123.3260755886
 30
0.0
 40
0.5
100
AcDbArc
 50
270.0
 51
345.0
  0
LINE
  5
109
330
1F
100
AcDbEntity
  8
0
  6
HIDDEN
 62
     7
370
     0
100
AcDbLine
 10
203.6318216423
 20
143.3260755886
 30
0.0
 11
204.3318216423
 21
142.6260755886
 31
0.0
  0
LINE
  5
10A
330
1F
100
AcDbEntity
  8
0
  6
HIDDEN
 62
     7
370
     0
100
AcDbLine
 10
212.3318216423
 20
142.6260755886
 30
0.0
 11
213.0318216423
 21
143.3260755886
 31
0.0
  0
LINE
  5
10B
330
1F
100
AcDbEntity
  8
0
  6
HIDDEN
 62
     7
370
     0
100
AcDbLine
 10
204.3318216423
 20
133.3260755886
 30
0.0
 11
204.3318216423
 21
132.3260755886
 31
0.0
  0
LINE
  5
10C
330
1F
100
AcDbEntity
  8
0
  6
HIDDEN
 62
     7
370
     0
100
AcDbLine
 10
212.3318216423
 20
132.3260755886
 30
0.0
 11
212.3318216423
 21
133.3260755886
 31
0.0
  0
LINE
  5
10D
330
1F
100
AcDbEntity
  8
0
  6
HIDDEN
 62
     7
370
     0
100
AcDbLine
 10
204.3318216423
 20
132.3260755886
 30
0.0
 11
208.3318216423
 21
130.8701946516
 31
0.0
  0
LINE
  5
10E
330
1F
100
AcDbEntity
  8
0
  6
HIDDEN
 62
     7
370
     0
100
AcDbLine
 10
208.3318216423
 20
130.8701946516
 30
0.0
 11
212.3318216423
 21
132.3260755886
 31
0.0
  0
ARC
  5
10F
330
1F
100
AcDbEntity
  8
0
  6
HIDDEN
 62
     7
370
     0
100
AcDbCircle
 10
225.3818216423
 20
130.8260755886
 30
0.0
 40
1.000000000000028
100
AcDbArc
 50
270.0
 51
360.0
  0
ARC
  5
110
330
1F
100
AcDbEntity
  8
0
  6
HIDDEN
 62
     7
370
     0
100
AcDbCircle
 10
225.3818216423
 20
92.8260755886
 30
0.0
 40
1.0
100
AcDbArc
 50
0.0
 51
90.0
  0
LINE
  5
111
330
1F
100
AcDbEntity
  8
0
  6
HIDDEN
 62
     7
370
     0
100
AcDbLine
 10
188.7501691447
 20
130.3260755886
 30
0.0
 11
186.8818216423
 21
130.3260755886
 31
0.0
  0
LINE
  5
112
330
1F
100
AcDbEntity
  8
0
  6
HIDDEN
 62
     7
370
     0
100
AcDbLine
 10
186.8818216423
 20
93.3260755886
 30
0.0
 11
188.7501691447
 21
93.3260755886
 31
0.0
  0
ARC
  5
113
330
1F
100
AcDbEntity
  8
0
  6
HIDDEN
 62
     7
370
     0
100
AcDbCircle
 10
186.8818216423
 20
129.3260755886
 30
0.0
 40
1.000000000000028
100
AcDbArc
 50
90.0
 51
180.0
  0
ARC
  5
114
330
1F
100
AcDbEntity
  8
0
  6
HIDDEN
 62
     7
370
     0
100
AcDbCircle
 10
186.8818216423
 20
94.3260755886
 30
0.0
 40
1.0
100
AcDbArc
 50
180.0
 51
270.0
  0
ARC
  5
115
330
1F
100
AcDbEntity
  8
0
  6
HIDDEN
 62
     7
370
     0
100
AcDbCircle
 10
188.7501691447
 20
129.3260755886
 30
0.0
 40
1.00000000000003
100
AcDbArc
 50
75.0
 51
90.0
  0
ARC
  5
116
330
1F
100
AcDbEntity
  8
0
  6
HIDDEN
 62
     7
370
     0
100
AcDbCircle
 10
188.7501691447
 20
94.3260755886
 30
0.0
 40
1.000000000000017
100
AcDbArc
 50
270.0
 51
285.0
  0
LINE
  5
117
330
1F
100
AcDbEntity
  8
0
  6
HIDDEN
 62
     7
370
     0
100
AcDbLine
 10
189.0089881898
 20
93.3601497623
 30
0.0
 11
190.7478470461
 21
93.8260755886
 31
0.0
  0
LINE
  5
118
330
1F
100
AcDbEntity
  8
0
  6
HIDDEN
 62
     7
370
     0
100
AcDbLine
 10
190.7478470461
 20
129.8260755886
 30
0.0
 11
189.0089881898
 21
130.2920014149
 31
0.0
  0
LINE
  5
119
330
1F
100
AcDbEntity
  8
0
  6
HIDDEN
 62
     7
370
     0
100
AcDbLine
 10
201.0977738517
 20
129.8260755886
 30
0.0
 11
190.7478470461
 21
129.8260755886
 31
0.0
  0
LINE
  5
11A
330
1F
100
AcDbEntity
  8
0
  6
HIDDEN
 62
     7
370
     0
100
AcDbLine
 10
225.3818216423
 20
129.8260755886
 30
0.0
 11
215.5798661993
 21
129.8260755886
 31
0.0
  0
LINE
  5
11B
330
1F
100
AcDbEntity
  8
0
  6
HIDDEN
 62
     7
370
     0
100
AcDbLine
 10
190.7478470461
 20
93.8260755886
 30
0.0
 11
225.3818216423
 21
93.8260755886
 31
0.0
  0
ARC
  5
11C
330
1F
100
AcDbEntity
  8
0
  6
HIDDEN
 62
     7
370
     0
100
AcDbCircle
 10
70.9818216423
 20
102.3260755886
 30
0.0
 40
1.0
100
AcDbArc
 50
90.0
 51
180.0
  0
ARC
  5
11D
330
1F
100
AcDbEntity
  8
0
  6
HIDDEN
 62
     7
370
     0
100
AcDbCircle
 10
70.9818216423
 20
121.3260755886
 30
0.0
 40
1.0
100
AcDbArc
 50
180.0
 51
270.0
  0
LINE
  5
11E
330
1F
100
AcDbEntity
  8
0
  6
HIDDEN
 62
     7
370
     0
100
AcDbLine
 10
198.5818216423
 20
143.3260755886
 30
0.0
 11
201.0818216423
 21
140.8260755886
 31
0.0
  0
LINE
  5
11F
330
1F
100
AcDbEntity
  8
0
  6
HIDDEN
 62
     7
370
     0
100
AcDbLine
 10
215.5818216423
 20
140.8260755886
 30
0.0
 11
218.0818216423
 21
143.3260755886
 31
0.0
  0
LINE
  5
120
330
1F
100
AcDbEntity
  8
0
  6
HIDDEN
 62
     7
370
     0
100
AcDbLine
 10
70.9818216423
 20
103.3260755886
 30
0.0
 11
78.7508815346
 21
103.3260755886
 31
0.0
  0
LINE
  5
121
330
1F
100
AcDbEntity
  8
0
  6
HIDDEN
 62
     7
370
     0
100
AcDbLine
 10
78.7508815346
 20
120.3260755886
 30
0.0
 11
70.9818216423
 21
120.3260755886
 31
0.0
  0
ARC
  5
122
330
1F
100
AcDbEntity
  8
0
  6
HIDDEN
 62
     7
370
     0
100
AcDbCircle
 10
78.7508815346
 20
103.7260755886
 30
0.0
 40
0.4000000000000057
100
AcDbArc
 50
270.0
 51
330.0
  0
ARC
  5
123
330
1F
100
AcDbEntity
  8
0
  6
HIDDEN
 62
     7
370
     0
100
AcDbCircle
 10
78.7508815346
 20
119.9260755886
 30
0.0
 40
0.3999999999999927
100
AcDbArc
 50
30.0
 51
90.0
  0
LINE
  5
124
330
1F
100
AcDbEntity
  8
0
  6
HIDDEN
 62
     7
370
     0
100
AcDbLine
 10
79.0972916961
 20
103.5260755886
 30
0.0
 11
79.8478470461
 21
104.8260755886
 31
0.0
  0
LINE
  5
125
330
1F
100
AcDbEntity
  8
0
  6
HIDDEN
 62
     7
370
     0
100
AcDbLine
 10
79.8478470461
 20
118.8260755886
 30
0.0
 11
79.0972916961
 21
120.1260755886
 31
0.0
  0
LINE
  5
126
330
1F
100
AcDbEntity
  8
0
  6
HIDDEN
 62
     7
370
     0
100
AcDbLine
 10
183.0318216423
 20
80.3260755886
 30
0.0
 11
183.0318216423
 21
89.3260755886
 31
0.0
  0
LINE
  5
127
330
1F
100
AcDbEntity
  8
0
  6
HIDDEN
 62
     7
370
     0
100
AcDbLine
 10
183.0318216423
 20
134.3260755886
 30
0.0
 11
183.0318216423
 21
143.3260755886
 31
0.0
  0
LINE
  5
128
330
1F
100
AcDbEntity
  8
0
  6
HIDDEN
 62
     7
370
     0
100
AcDbLine
 10
201.0818216423
 20
140.8260755886
 30
0.0
 11
201.0818216423
 21
129.8196795325
 31
0.0
  0
LINE
  5
129
330
1F
100
AcDbEntity
  8
0
  6
HIDDEN
 62
     7
370
     0
100
AcDbLine
 10
215.5818216423
 20
129.825289752
 30
0.0
 11
215.5818216423
 21
140.8260755886
 31
0.0
  0
LINE
  5
12A
330
1F
100
AcDbEntity
  8
0
  6
HIDDEN
 62
     7
370
     0
100
AcDbLine
 10
139.9818216423
 20
104.8260755886
 30
0.0
 11
140.5826822613
 21
105.8260755886
 31
0.0
  0
LINE
  5
12B
330
1F
100
AcDbEntity
  8
0
  6
HIDDEN
 62
     7
370
     0
100
AcDbLine
 10
140.5826822613
 20
117.8260755886
 30
0.0
 11
139.9818216423
 21
118.8260755886
 31
0.0
  0
LINE
  5
12C
330
1F
100
AcDbEntity
  8
0
  6
HIDDEN
 62
     7
370
     0
100
AcDbLine
 10
79.8478470461
 20
104.8260755886
 30
0.0
 11
139.9818216423
 21
104.8260755886
 31
0.0
  0
LINE
  5
12D
330
1F
100
AcDbEntity
  8
0
  6
HIDDEN
 62
     7
370
     0
100
AcDbLine
 10
139.9818216423
 20
118.8260755886
 30
0.0
 11
79.8478470461
 21
118.8260755886
 31
0.0
  0
LINE
  5
12E
330
1F
100
AcDbEntity
  8
0
  6
HIDDEN
 62
     7
370
     0
100
AcDbLine
 10
185.8818216423
 20
117.8260755886
 30
0.0
 11
140.5826822613
 21
117.8260755886
 31
0.0
  0
LINE
  5
12F
330
1F
100
AcDbEntity
  8
0
  6
HIDDEN
 62
     7
370
     0
100
AcDbLine
 10
140.5826822613
 20
105.8260755886
 30
0.0
 11
185.8818216423
 21
105.8260755886
 31
0.0
  0
DIMENSION
  5
130
330
1F
100
AcDbEntity
  8
VERMASSUNG
100
AcDbDimension
  2
_D
 10
59.9818216423
 20
143.2260755886
 30
0.0
 11
59.9818216423
 21
111.8260755886
 31
0.0
 70
   160
  1
SK 40 %%c<>
 71
     2
 42
-1.0
  3
SLDDIMSTYLE0
100
AcDbAlignedDimension
 13
174.3818216423
 23
80.4260755886
 33
0.0
 14
174.3818216423
 24
143.2260755886
 34
0.0
 50
90.0
100
AcDbRotatedDimension
  0
DIMENSION
  5
13D
330
1F
100
AcDbEntity
  8
VERMASSUNG
100
AcDbDimension
  2
_D_1
 10
236.3818216423
 20
93.8260755886
 30
0.0
 11
236.3818216423
 21
111.8260755886
 31
0.0
 70
   160
  1
%%c<>
 71
     2
 42
-1.0
  3
SLDDIMSTYLE1
100
AcDbAlignedDimension
 13
225.3818216423
 23
129.8260755886
 33
0.0
 14
225.3818216423
 24
93.8260755886
 34
0.0
 50
90.0
100
AcDbRotatedDimension
  0
DIMENSION
  5
149
330
1F
100
AcDbEntity
  8
VERMASSUNG
100
AcDbDimension
  2
_D_2
 10
242.2818216423
 20
80.3260755886
 30
0.0
 11
242.2818216423
 21
111.8260755886
 31
0.0
 70
   160
  1
WH %%c<>
 71
     2
 42
-1.0
  3
SLDDIMSTYLE1
100
AcDbAlignedDimension
 13
225.7818216423
 23
143.3260755886
 33
0.0
 14
225.7818216423
 24
80.3260755886
 34
0.0
 50
90.0
100
AcDbRotatedDimension
  0
DIMENSION
  5
155
330
1F
100
AcDbEntity
  8
VERMASSUNG
100
AcDbDimension
  2
_D_3
 10
164.9818216423
 20
151.121501016
 30
0.0
 11
195.6818216423
 21
151.121501016
 31
0.0
 70
   160
  1
<>
 71
     2
 42
-1.0
  3
SLDDIMSTYLE1
100
AcDbAlignedDimension
 13
226.3818216423
 23
142.7260755886
 33
0.0
 14
164.9818216423
 24
141.2664814961
 34
0.0
100
AcDbRotatedDimension
  0
DIMENSION
  5
15F
330
1F
100
AcDbEntity
  8
VERMASSUNG
100
AcDbDimension
  2
_D_4
 10
69.9818216423
 20
157.121501016
 30
0.0
 11
148.1818216423
 21
157.121501016
 31
0.0
 70
   160
  1
(<>)
 71
     2
 42
-1.0
  3
SLDDIMSTYLE1
100
AcDbAlignedDimension
 13
226.3818216423
 23
142.7260755886
 33
0.0
 14
69.9818216423
 24
122.3760755886
 34
0.0
100
AcDbRotatedDimension
  0
LINE
  5
16B
330
1F
100
AcDbEntity
  8
VERMASSUNG
  6
CENTERX2
370
     0
100
AcDbLine
 10
67.6260026768
 20
111.8260755886
 30
0.0
 11
230.3533733664
 21
111.8260755886
 31
0.0
  0
LINE
  5
16C
330
1F
100
AcDbEntity
  8
0
  6
Continuous
 62
     7
370
    15
100
AcDbLine
 10
270.6937810144
 20
47.461371989
 30
0.0
 11
270.3401701755
 21
47.6655735366
 31
0.0
  0
LINE
  5
16D
330
1F
100
AcDbEntity
  8
0
  6
Continuous
 62
     7
370
    15
100
AcDbLine
 10
265.3896184301
 20
47.6655735366
 30
0.0
 11
265.0360075911
 21
47.461371989
 31
0.0
  0
LINE
  5
16E
330
1F
100
AcDbEntity
  8
0
  6
Continuous
 62
     7
370
    15
100
AcDbLine
 10
263.8648943028
 20
45.8288211224
 30
0.0
 11
263.8648943028
 21
45.5226183179
 31
0.0
  0
LINE
  5
16F
330
1F
100
AcDbEntity
  8
0
  6
Continuous
 62
     7
370
    15
100
AcDbLine
 10
271.8648943028
 20
45.5226183179
 30
0.0
 11
271.8648943028
 21
45.8288211224
 31
0.0
  0
LINE
  5
170
330
1F
100
AcDbEntity
  8
0
  6
Continuous
 62
     7
370
    15
100
AcDbLine
 10
272.9940926672
 20
33.1634911812
 30
0.0
 11
275.4991221564
 21
33.6738721799
 31
0.0
  0
LINE
  5
171
330
1F
100
AcDbEntity
  8
0
  6
Continuous
 62
     7
370
    15
100
AcDbLine
 10
274.0362110333
 20
16.955520664
 30
0.0
 11
274.2483085902
 21
17.0780017842
 31
0.0
  0
LINE
  5
172
330
1F
100
AcDbEntity
  8
0
  6
Continuous
 62
     7
370
    15
100
AcDbLine
 10
285.1713327723
 20
35.9992848003
 30
0.0
 11
285.1713327723
 21
36.2442072339
 31
0.0
  0
LINE
  5
173
330
1F
100
AcDbEntity
  8
0
  6
Continuous
 62
     7
370
    15
100
AcDbLine
 10
281.9087609881
 20
43.4552629358
 30
0.0
 11
264.0094859896
 21
53.7882944477
 31
0.0
  0
LINE
  5
174
330
1F
100
AcDbEntity
  8
0
  6
Continuous
 62
     7
370
    15
100
AcDbLine
 10
248.2607659506
 20
26.5077552827
 30
0.0
 11
266.1600409491
 21
16.1747237708
 31
0.0
  0
SPLINE
  5
175
330
1F
100
AcDbEntity
  8
0
  6
Continuous
 62
     7
370
    15
100
AcDbSpline
210
0.0
220
0.0
230
1.0
 70
     8
 71
     3
 72
    28
 73
    24
 74
     0
 42
0.000000001
 43
0.00000001
 40
0.0
 40
0.0
 40
0.0
 40
0.0
 40
0.0464152541107874
 40
0.098332370415934
 40
0.1491817968190565
 40
0.1990782246583525
 40
0.2483980815703704
 40
0.2974529871442381
 40
0.3464320359801679
 40
0.3954128822951263
 40
0.4444453145529504
 40
0.493546549289023
 40
0.5427137121234739
 40
0.5919341369655818
 40
0.6411907253244502
 40
0.6904645183813342
 40
0.7397348016409346
 40
0.7889758631906468
 40
0.8381675533566822
 40
0.8872902832669843
 40
0.9363266266475143
 40
0.9852648945269236
 40
1.0
 40
1.0
 40
1.0
 40
1.0
 10
269.2101278671965
 20
22.22539473824142
 30
0.0
 10
269.0754322614517
 20
22.32681568664465
 30
0.0
 10
268.7900748191358
 20
22.54167958122805
 30
0.0
 10
268.4312877446381
 20
22.99470130874264
 30
0.0
 10
268.1240501650919
 20
23.54940435402005
 30
0.0
 10
267.8939741079237
 20
24.1894004236355
 30
0.0
 10
267.7413793864065
 20
24.90281160959368
 30
0.0
 10
267.6684536324197
 20
25.6822805772838
 30
0.0
 10
267.6765428488062
 20
26.51834728209854
 30
0.0
 10
267.7664015961262
 20
27.40050968141611
 30
0.0
 10
267.9376478359021
 20
28.31709916918513
 30
0.0
 10
268.1887167499507
 20
29.25582796622829
 30
0.0
 10
268.5167922880057
 20
30.20389658881594
 30
0.0
 10
268.9178314529898
 20
31.14827291456327
 30
0.0
 10
269.3866319490054
 20
32.07594806203747
 30
0.0
 10
269.9169169568855
 20
32.97415419990805
 30
0.0
 10
270.5014084731714
 20
33.83052544559254
 30
0.0
 10
271.1319454127958
 20
34.63336034515209
 30
0.0
 10
271.7995780971263
 20
35.37167280174621
 30
0.0
 10
272.4947732437483
 20
36.03590441620889
 30
0.0
 10
273.2072689161028
 20
36.61616543979062
 30
0.0
 10
273.7599223879392
 20
36.99493994739859
 30
0.0
 10
274.0709761463099
 20
37.17831201878617
 30
0.0
 10
274.1429592955616
 20
37.22074744619403
 30
0.0
  0
SPLINE
  5
176
330
1F
100
AcDbEntity
  8
0
  6
Continuous
 62
     7
370
    15
100
AcDbSpline
210
0.0
220
0.0
230
1.0
 70
     8
 71
     3
 72
    15
 73
    11
 74
     0
 42
0.000000001
 43
0.00000001
 40
0.0
 40
0.0
 40
0.0
 40
0.0
 40
0.0758350364575424
 40
0.2204867766454468
 40
0.3650829578516283
 40
0.5098956805326808
 40
0.6555478897854251
 40
0.8030105759455369
 40
0.9533956314193316
 40
1.0
 40
1.0
 40
1.0
 40
1.0
 10
274.1429592955616
 20
37.22074744619403
 30
0.0
 10
274.2676408525099
 20
37.29015600261011
 30
0.0
 10
274.6301465739127
 20
37.49195809291919
 30
0.0
 10
275.2227394528617
 20
37.75131509109237
 30
0.0
 10
275.904937531672
 20
37.96263995149179
 30
0.0
 10
276.5549441662897
 20
38.06965945990503
 30
0.0
 10
277.1668811638326
 20
38.0773066683262
 30
0.0
 10
277.7310212173074
 20
37.97737993089016
 30
0.0
 10
278.1381970482807
 20
37.84498738498245
 30
0.0
 10
278.3380835878029
 20
37.71227125674442
 30
0.0
 10
278.3853733649415
 20
37.68087286372565
 30
0.0
  0
LINE
  5
177
330
1F
100
AcDbEntity
  8
0
  6
Continuous
 62
     7
370
    15
100
AcDbLine
 10
260.1078056791
 20
54.4558838817
 30
0.0
 11
260.0339567539
 21
54.4458136153
 31
0.0
  0
LINE
  5
178
330
1F
100
AcDbEntity
  8
0
  6
Continuous
 62
     7
370
    15
100
AcDbLine
 10
263.3574402608
 20
54.1069789716
 30
0.0
 11
260.5998489061
 21
55.6989025756
 31
0.0
  0
SPLINE
  5
179
330
1F
100
AcDbEntity
  8
0
  6
Continuous
 62
     7
370
    15
100
AcDbSpline
210
0.0
220
0.0
230
1.0
 70
     8
 71
     3
 72
    28
 73
    24
 74
     0
 42
0.000000001
 43
0.00000001
 40
0.0
 40
0.0
 40
0.0
 40
0.0
 40
0.0173540802581496
 40
0.0684781027582813
 40
0.1197853593270689
 40
0.1712215118886325
 40
0.2227337630963418
 40
0.2742810063709668
 40
0.32583276527689
 40
0.3773726186043453
 40
0.4288947426425122
 40
0.4803978196043578
 40
0.5318832086585215
 40
0.583353776521871
 40
0.6348131965842987
 40
0.6862655538591947
 40
0.7377151379663116
 40
0.7891663140642503
 40
0.8406220929409595
 40
0.8920869659743338
 40
0.9435654141575435
 40
0.9950618009870775
 40
1.0
 40
1.0
 40
1.0
 40
1.0
 10
257.2786482821691
 20
56.44013660505995
 30
0.0
 10
257.1780289832357
 20
56.43876162219842
 30
0.0
 10
256.7809915955245
 20
56.43333602681786
 30
0.0
 10
256.0549555430575
 20
56.31054660013717
 30
0.0
 10
255.1080249583306
 20
56.07223724232263
 30
0.0
 10
254.1405372258451
 20
55.71839288779491
 30
0.0
 10
253.1630758189251
 20
55.26153137514991
 30
0.0
 10
252.1826604489891
 20
54.70279692639868
 30
0.0
 10
251.2071654496353
 20
54.04748573296152
 30
0.0
 10
250.2440233379084
 20
53.30071732899471
 30
0.0
 10
249.3005208781119
 20
52.46846583519822
 30
0.0
 10
248.3837182002535
 20
51.55721278615076
 30
0.0
 10
247.5004683382669
 20
50.57400237323164
 30
0.0
 10
246.6573751541509
 20
49.52637711579006
 30
0.0
 10
245.860757103979
 20
48.42233688412822
 30
0.0
 10
245.1165928280187
 20
47.27028128258168
 30
0.0
 10
244.4305175824913
 20
46.07896099311066
 30
0.0
 10
243.8076399310545
 20
44.85738868945537
 30
0.0
 10
243.2530456198148
 20
43.61489689833009
 30
0.0
 10
242.7697082238286
 20
42.36055951195679
 30
0.0
 10
242.3661302024712
 20
41.1050010182669
 30
0.0
 10
242.1297247928941
 20
40.23067121372399
 30
0.0
 10
242.03298902296
 20
39.77945951581733
 30
0.0
 10
242.0245243469732
 20
39.73997711104799
 30
0.0
  0
LINE
  5
17A
330
1F
100
AcDbEntity
  8
0
  6
Continuous
 62
     7
370
    15
100
AcDbLine
 10
251.6764385773
 20
54.346088757
 30
0.0
 11
231.8370325048
 21
61.4954242987
 31
0.0
  0
LINE
  5
17B
330
1F
100
AcDbEntity
  8
0
  6
Continuous
 62
     7
370
    15
100
AcDbLine
 10
225.4977161437
 20
50.5142164392
 30
0.0
 11
244.5834035322
 21
34.3984197875
 31
0.0
  0
LINE
  5
17C
330
1F
100
AcDbEntity
  8
0
  6
Continuous
 62
     7
370
    15
100
AcDbLine
 10
245.7032808151
 20
29.6216650344
 30
0.0
 11
245.731490645
 21
29.5526775028
 31
0.0
  0
LINE
  5
17D
330
1F
100
AcDbEntity
  8
0
  6
Continuous
 62
     7
370
    15
100
AcDbLine
 10
244.9011248037
 20
28.5049682968
 30
0.0
 11
247.6587161584
 21
26.9130446928
 31
0.0
  0
SPLINE
  5
17E
330
1F
100
AcDbEntity
  8
0
  6
Continuous
 62
     7
370
    15
100
AcDbSpline
210
0.0
220
0.0
230
1.0
 70
     8
 71
     3
 72
    10
 73
     6
 74
     0
 42
0.000000001
 43
0.00000001
 40
0.0
 40
0.0
 40
0.0
 40
0.0
 40
0.1313270806986465
 40
0.7514205455360169
 40
1.0
 40
1.0
 40
1.0
 40
1.0
 10
242.0147151175964
 20
32.45353075376762
 30
0.0
 10
242.033739243842
 20
32.3870790704737
 30
0.0
 10
242.1425905123367
 20
32.00685924188332
 30
0.0
 10
242.3203641424048
 20
31.52762330457271
 30
0.0
 10
242.5205823397081
 20
31.15839386689052
 30
0.0
 10
242.5778767817858
 20
31.05273516595518
 30
0.0
  0
SPLINE
  5
17F
330
1F
100
AcDbEntity
  8
0
  6
Continuous
 62
     7
370
    15
100
AcDbSpline
210
0.0
220
0.0
230
1.0
 70
     8
 71
     3
 72
     9
 73
     5
 74
     0
 42
0.000000001
 43
0.00000001
 40
0.0
 40
0.0
 40
0.0
 40
0.0
 40
0.5907523698126117
 40
1.0
 40
1.0
 40
1.0
 40
1.0
 10
224.4395286403863
 20
53.29951219705394
 30
0.0
 10
224.4401015349961
 20
53.17165464072199
 30
0.0
 10
224.4410713061543
 20
52.95522291253019
 30
0.0
 10
224.4722001818686
 20
52.75722511599079
 30
0.0
 10
224.4849396004851
 20
52.67619498697471
 30
0.0
  0
LINE
  5
180
330
1F
100
AcDbEntity
  8
0
  6
Continuous
 62
     7
370
    15
100
AcDbLine
 10
224.2483500162
 20
51.6278532348
 30
0.0
 11
224.920864596
 21
51.2396188317
 31
0.0
  0
LINE
  5
181
330
1F
100
AcDbEntity
  8
0
  6
Continuous
 62
     7
370
    15
100
AcDbLine
 10
231.6787405334
 20
61.1944112264
 30
0.0
 11
230.247862412
 21
62.0204395834
 31
0.0
  0
LINE
  5
182
330
1F
100
AcDbEntity
  8
0
  6
Continuous
 62
     7
370
    15
100
AcDbLine
 10
222.2939221092
 20
52.3808529398
 30
0.0
 11
223.7546721896
 21
51.5375798679
 31
0.0
  0
LINE
  5
183
330
1F
100
AcDbEntity
  8
0
  6
Continuous
 62
     7
370
    15
100
AcDbLine
 10
230.0791581736
 20
62.4930979771
 30
0.0
 11
228.6184080931
 21
63.336371049
 31
0.0
  0
LINE
  5
184
330
1F
100
AcDbEntity
  8
0
  6
Continuous
 62
     7
370
    15
100
AcDbLine
 10
220.4859007309
 20
54.6514375546
 30
0.0
 11
221.0705834284
 21
54.3139074179
 31
0.0
  0
LINE
  5
185
330
1F
100
AcDbEntity
  8
0
  6
Continuous
 62
     7
370
    15
100
AcDbLine
 10
226.3326557589
 20
63.4290716944
 30
0.0
 11
225.7479730614
 21
63.7666018312
 31
0.0
  0
LINE
  5
186
330
1F
100
AcDbEntity
  8
0
  6
Continuous
 62
     7
370
    15
100
AcDbLine
 10
218.5950022071
 20
54.6287742003
 30
0.0
 11
219.6849571264
 21
53.9995566186
 31
0.0
  0
LINE
  5
187
330
1F
100
AcDbEntity
  8
0
  6
Continuous
 62
     7
370
    15
100
AcDbLine
 10
225.9119510339
 20
64.7861951995
 30
0.0
 11
224.8219961146
 21
65.4154127812
 31
0.0
  0
LINE
  5
188
330
1F
100
AcDbEntity
  8
0
  6
Continuous
 62
     7
370
    15
100
AcDbLine
 10
216.3342117984
 20
56.9182562679
 30
0.0
 11
217.4485813377
 21
56.2749444261
 31
0.0
  0
LINE
  5
189
330
1F
100
AcDbEntity
  8
0
  6
Continuous
 62
     7
370
    15
100
AcDbLine
 10
222.8231445256
 20
65.5849696967
 30
0.0
 11
221.7087749863
 21
66.2282815385
 31
0.0
  0
LWPOLYLINE
  5
18A
330
1F
100
AcDbEntity
  8
0
  6
Continuous
 62
     7
370
    15
100
AcDbPolyline
 90
       10
 70
   128
 43
0.0
 10
270.8182990398
 20
44.2714918378
 10
271.2637064912
 20
44.6112946896
 10
271.59337147
 20
44.9925589438
 10
271.7960676306
 20
45.4023011035
 10
271.8648923985
 20
45.8265678909
 10
271.7975020287
 20
46.2509114094
 10
271.5961914194
 20
46.6608811494
 10
271.267815962
 20
47.0425160832
 10
270.8235580889
 20
47.3828200907
 10
270.6937810144
 20
47.461371989
  0
LWPOLYLINE
  5
18B
330
1F
100
AcDbEntity
  8
0
  6
Continuous
 62
     7
370
    15
100
AcDbPolyline
 90
       20
 70
   128
 43
0.0
 10
265.0360075911
 20
47.461371989
 10
264.9114895658
 20
47.3861504069
 10
264.4660821144
 20
47.0463475551
 10
264.1364171356
 20
46.6650833009
 10
263.933720975
 20
46.2553411412
 10
263.8648962071
 20
45.8310743538
 10
263.9322865769
 20
45.4067308353
 10
264.1335971862
 20
44.9967610953
 10
264.4619726435
 20
44.6151261616
 10
264.9062305167
 20
44.2748221541
 10
265.4512421365
 20
43.9874377176
 10
266.078447786
 20
43.7627593845
 10
266.766488729
 20
43.6084383059
 10
267.4919345565
 20
43.5297297011
 10
268.2300810808
 20
43.5293138971
 10
268.9557916073
 20
43.6072050538
 10
269.6443529346
 20
43.7607506811
 10
270.2723169323
 20
43.984721967
 10
270.8182990398
 20
44.2714918378
 10
270.8182990398
 20
44.2714918378
  0
LWPOLYLINE
  5
18C
330
1F
100
AcDbEntity
  8
0
  6
Continuous
 62
     7
370
    15
100
AcDbPolyline
 90
       33
 70
   128
 43
0.0
 10
270.4491234477
 20
44.8744284043
 10
270.8599706279
 20
45.1916558679
 10
271.1557187046
 20
45.5490588377
 10
271.3250022451
 20
45.9329025179
 10
271.3613157778
 20
46.3284360112
 10
271.263263794
 20
46.7204591873
 10
271.0346143765
 20
47.0939068152
 10
270.6841543942
 20
47.4344275123
 10
270.2253518276
 20
47.7289352589
 10
269.6758382021
 20
47.9661122876
 10
269.0567310182
 20
48.1368440181
 10
268.3918222176
 20
48.2345693259
 10
267.7066638728
 20
48.2555326821
 10
267.0275862347
 20
48.1989284767
 10
266.3806858761
 20
48.0669319776
 10
265.7908228149
 20
47.8646157363
 10
265.2806651579
 20
47.5997546523
 10
264.8698179776
 20
47.2825271887
 10
264.5740699009
 20
46.9251242189
 10
264.4047863605
 20
46.5412805387
 10
264.3684728278
 20
46.1457470454
 10
264.4665248115
 20
45.7537238694
 10
264.695174229
 20
45.3802762414
 10
265.0456342114
 20
45.0397555444
 10
265.5044367779
 20
44.7452477977
 10
266.0539504034
 20
44.5080707691
 10
266.6730575874
 20
44.3373390385
 10
267.337966388
 20
44.2396137307
 10
268.0231247328
 20
44.2186503745
 10
268.7022023709
 20
44.2752545799
 10
269.3491027295
 20
44.407251079
 10
269.9389657907
 20
44.6095673204
 10
270.4491234477
 20
44.8744284043
  0
LWPOLYLINE
  5
18D
330
1F
100
AcDbEntity
  8
0
  6
Continuous
 62
     7
370
    15
100
AcDbPolyline
 90
       27
 70
   128
 43
0.0
 10
269.6000195858
 20
45.3221605736
 10
269.9288862792
 20
45.5884612893
 10
270.1378012613
 20
45.8924580369
 10
270.2146231526
 20
46.2164836302
 10
270.154887344
 20
46.5417068797
 10
269.9620654637
 20
46.8492269922
 10
269.6473636185
 20
47.1211720166
 10
269.2290711356
 20
47.3417374965
 10
268.7314976538
 20
47.4981049679
 10
268.1835603352
 20
47.5811869218
 10
267.6171033051
 20
47.5861549371
 10
267.0650469871
 20
47.5127202906
 10
266.5594748877
 20
47.3651507373
 10
266.1297690198
 20
47.152022483
 10
265.8009023264
 20
46.8857217673
 10
265.5919873443
 20
46.5817250198
 10
265.515165453
 20
46.2576994264
 10
265.5749012615
 20
45.9324761769
 10
265.7677231418
 20
45.6249560644
 10
266.0824249871
 20
45.35301104
 10
266.50071747
 20
45.1324455602
 10
266.9982909518
 20
44.9760780887
 10
267.5462282704
 20
44.8929961348
 10
268.1126853005
 20
44.8880281196
 10
268.6647416185
 20
44.961462766
 10
269.1703137179
 20
45.1090323194
 10
269.6000195858
 20
45.3221605736
  0
SPLINE
  5
18E
330
1F
100
AcDbEntity
  8
0
  6
Continuous
 62
     7
370
    15
100
AcDbSpline
210
0.0
220
0.0
230
1.0
 70
     8
 71
     3
 72
    11
 73
     7
 74
     0
 42
0.000000001
 43
0.00000001
 40
0.0
 40
0.0
 40
0.0
 40
0.0
 40
0.2164567244933962
 40
0.4403141600939094
 40
0.7519028444798602
 40
1.0
 40
1.0
 40
1.0
 40
1.0
 10
270.1203456926662
 20
45.91745699653244
 30
0.0
 10
270.0725349089442
 20
45.94536212456112
 30
0.0
 10
269.9752786785024
 20
46.0021264641261
 30
0.0
 10
269.79479761022
 20
46.23046277935111
 30
0.0
 10
269.6012004647073
 20
46.6434346969564
 30
0.0
 10
269.4773102950194
 20
47.02095533664419
 30
0.0
 10
269.422392345511
 20
47.18830242706262
 30
0.0
  0
SPLINE
  5
18F
330
1F
100
AcDbEntity
  8
0
  6
Continuous
 62
     7
370
    15
100
AcDbSpline
210
0.0
220
0.0
230
1.0
 70
     8
 71
     3
 72
    18
 73
    14
 74
     0
 42
0.000000001
 43
0.00000001
 40
0.0
 40
0.0
 40
0.0
 40
0.0
 40
0.1621857237011126
 40
0.2719376986809075
 40
0.3834778365035219
 40
0.4398348003592737
 40
0.4972240325426485
 40
0.632903463558088
 40
0.6924223919694945
 40
0.7521753215677026
 40
0.8446326699634713
 40
0.937705815512403
 40
1.0
 40
1.0
 40
1.0
 40
1.0
 10
269.422392345511
 20
47.18830242706262
 30
0.0
 10
269.3069449556646
 20
47.15771863682416
 30
0.0
 10
269.1133736794935
 20
47.10643862681712
 30
0.0
 10
268.8256823520057
 20
47.06682791420808
 30
0.0
 10
268.6116415168583
 20
47.05720933676375
 30
0.0
 10
268.4355910498917
 20
47.06399268965314
 30
0.0
 10
268.2397681608192
 20
47.08259667463989
 30
0.0
 10
268.0410188289853
 20
47.12109082928736
 30
0.0
 10
267.8443525669124
 20
47.17770668189994
 30
0.0
 10
267.6832275953855
 20
47.2327977637559
 30
0.0
 10
267.50046423525
 20
47.30734312419928
 30
0.0
 10
267.3206077786303
 20
47.39268432706905
 30
0.0
 10
267.2109200184555
 20
47.45128890590964
 30
0.0
 10
267.1669409556321
 20
47.4747862810995
 30
0.0
  0
SPLINE
  5
190
330
1F
100
AcDbEntity
  8
0
  6
Continuous
 62
     7
370
    15
100
AcDbSpline
210
0.0
220
0.0
230
1.0
 70
     8
 71
     3
 72
    21
 73
    17
 74
     0
 42
0.000000001
 43
0.00000001
 40
0.0
 40
0.0
 40
0.0
 40
0.0
 40
0.0458869135144082
 40
0.1378515852272352
 40
0.183959283900201
 40
0.2454521066789365
 40
0.3071425929067087
 40
0.390563939234354
 40
0.5179679533991413
 40
0.5607187726398253
 40
0.6467371220203265
 40
0.7343275108752136
 40
0.823362786871936
 40
0.8680629544234382
 40
0.9669733239034477
 40
1.0
 40
1.0
 40
1.0
 40
1.0
 10
267.1669409556321
 20
47.4747862810995
 30
0.0
 10
267.1445975223342
 20
47.44740045871733
 30
0.0
 10
267.0774742956091
 20
47.36512909333234
 30
0.0
 10
266.9857345206067
 20
47.25941288526025
 30
0.0
 10
266.8842875608533
 20
47.14960704466679
 30
0.0
 10
266.7968341498699
 20
47.06032195935911
 30
0.0
 10
266.6882994572867
 20
46.95772502735101
 30
0.0
 10
266.5426793945153
 20
46.83396681509302
 30
0.0
 10
266.4047449986506
 20
46.73743776361083
 30
0.0
 10
266.2659496820978
 20
46.65771886869064
 30
0.0
 10
266.1493026050921
 20
46.60161444545628
 30
0.0
 10
266.0101315865032
 20
46.55138820657658
 30
0.0
 10
265.8955472119664
 20
46.52278922818518
 30
0.0
 10
265.7775165694403
 20
46.50218474909799
 30
0.0
 10
265.6896846801905
 20
46.49325647962252
 30
0.0
 10
265.6255077714758
 20
46.49099164208368
 30
0.0
 10
265.6094429129084
 20
46.49042470460619
 30
0.0
  0
SPLINE
  5
191
330
1F
100
AcDbEntity
  8
0
  6
Continuous
 62
     7
370
    15
100
AcDbSpline
210
0.0
220
0.0
230
1.0
 70
     8
 71
     3
 72
    11
 73
     7
 74
     0
 42
0.000000001
 43
0.00000001
 40
0.0
 40
0.0
 40
0.0
 40
0.0
 40
0.2284838259481193
 40
0.4647795726967834
 40
0.7936812268138349
 40
1.0
 40
1.0
 40
1.0
 40
1.0
 10
265.6094429129084
 20
46.49042470460619
 30
0.0
 10
265.6572601241898
 20
46.34416018619041
 30
0.0
 10
265.7545294295103
 20
46.04663032783878
 30
0.0
 10
265.934896571023
 20
45.61878860715216
 30
0.0
 10
266.1160106505952
 20
45.3414680988107
 30
0.0
 10
266.228483718167
 20
45.27255066100963
 30
0.0
 10
266.2718402571444
 20
45.24598410918743
 30
0.0
  0
SPLINE
  5
192
330
1F
100
AcDbEntity
  8
0
  6
Continuous
 62
     7
370
    15
100
AcDbSpline
210
0.0
220
0.0
230
1.0
 70
     8
 71
     3
 72
    15
 73
    11
 74
     0
 42
0.000000001
 43
0.00000001
 40
0.0
 40
0.0
 40
0.0
 40
0.0
 40
0.036107605995675
 40
0.1501401911763435
 40
0.2647913022441981
 40
0.4202844113020808
 40
0.6576913255659212
 40
0.743038434504622
 40
0.9141991426590511
 40
0.9999999999999999
 40
0.9999999999999999
 40
0.9999999999999999
 40
0.9999999999999999
 10
269.2807757694292
 20
45.13643730703617
 30
0.0
 10
269.2912840571613
 20
45.14237840533472
 30
0.0
 10
269.334978904425
 20
45.16708227616044
 30
0.0
 10
269.4122509923588
 20
45.2182986272253
 30
0.0
 10
269.5238517307953
 20
45.30053904419105
 30
0.0
 10
269.6697727031066
 20
45.42374713058312
 30
0.0
 10
269.8039817961759
 20
45.5557978027227
 30
0.0
 10
269.9389004305109
 20
45.70182005568037
 30
0.0
 10
270.0306518140884
 20
45.80752575395726
 30
0.0
 10
270.0978933724365
 20
45.88993882583141
 30
0.0
 10
270.1203456926662
 20
45.91745699653244
 30
0.0
  0
LINE
  5
193
330
1F
100
AcDbEntity
  8
0
  6
Continuous
 62
     7
370
    15
100
AcDbLine
 10
269.4223923455
 20
45.227042156
 30
0.0
 11
269.4223923455
 21
47.1883024271
 31
0.0
  0
LINE
  5
194
330
1F
100
AcDbEntity
  8
0
  6
Continuous
 62
     7
370
    15
100
AcDbLine
 10
267.1669409556
 20
44.9416803966
 30
0.0
 11
267.1669409556
 21
47.4747862811
 31
0.0
  0
LWPOLYLINE
  5
195
330
1F
100
AcDbEntity
  8
0
  6
Continuous
 62
     7
370
    15
100
AcDbPolyline
 90
        9
 70
   128
 43
0.0
 10
273.4747304949
 20
33.4172822418
 10
273.3753755994
 20
33.3323027511
 10
273.0480636038
 20
33.1760168361
 10
272.6624309992
 20
33.1461603077
 10
272.2378150148
 20
33.2442302969
 10
271.795507669
 20
33.4653091649
 10
271.357688099
 20
33.7983110941
 10
270.9463104063
 20
34.2265379774
 10
270.8844737695
 20
34.3023594083
  0
LWPOLYLINE
  5
196
330
1F
100
AcDbEntity
  8
0
  6
Continuous
 62
     7
370
    15
100
AcDbPolyline
 90
       68
 70
   128
 43
0.0
 10
274.246533003
 20
42.3080876801
 10
273.2235184797
 20
41.6620809887
 10
272.2094942449
 20
40.9108854716
 10
271.2133715799
 20
40.061102662
 10
270.2439044465
 20
39.1202004818
 10
269.3096125568
 20
38.0964476132
 10
268.4187065016
 20
36.9988408332
 10
267.5790155951
 20
35.8370259497
 10
266.7979190714
 20
34.6212130337
 10
266.0822812347
 20
33.3620866926
 10
265.4383911361
 20
32.0707121742
 10
264.871907305
 20
30.7584381242
 10
264.3878080216
 20
29.4367968539
 10
263.9903475678
 20
28.1174029946
 10
263.6830188403
 20
26.8118514268
 10
263.4685226552
 20
25.5316153846
 10
263.3487440125
 20
24.2879456284
 10
263.3247355313
 20
23.0917715728
 10
263.396708199
 20
21.9536052384
 10
263.5640295172
 20
20.8834488719
 10
263.8252290601
 20
19.8907070458
 10
264.1780113968
 20
18.984104011
 10
264.6192762634
 20
18.1716070276
 10
265.1451458084
 20
17.4603563484
 10
265.7509986713
 20
16.8566024698
 10
266.4315105954
 20
16.3656512026
 10
267.1807012174
 20
15.9918170443
 10
267.9919866232
 20
15.7383852628
 10
268.8582372074
 20
15.6075830258
 10
269.7718403289
 20
15.600559828
 10
270.7247672104
 20
15.7173773895
 10
271.7086434964
 20
15.9570091135
 10
272.7148228466
 20
16.3173491077
 10
273.7344629208
 20
16.7952306912
 10
274.7586030852
 20
17.3864542236
 10
275.7782431594
 20
18.0858240111
 10
276.7844225096
 20
18.887193967
 10
277.7682987956
 20
19.7835216233
 10
278.7212256771
 20
20.7669300202
 10
279.6348287986
 20
21.8287769295
 10
280.5010793828
 20
22.9597308023
 10
281.3123647886
 20
24.1498527753
 10
282.0615554106
 20
25.3886840138
 10
282.7420673347
 20
26.6653376243
 10
283.3479201976
 20
27.9685943291
 10
283.8737897426
 20
29.2870010613
 10
284.3150546092
 20
30.6089716152
 10
284.6678369458
 20
31.922888466
 10
284.9290364888
 20
33.2172048652
 10
285.096357807
 20
34.4805463137
 10
285.1683304747
 20
35.7018105214
 10
285.1443219935
 20
36.8702649747
 10
285.0245433508
 20
37.9756412536
 10
284.8100471657
 20
39.0082252719
 10
284.5027184382
 20
39.9589426439
 10
284.1052579844
 20
40.8194384312
 10
283.621158701
 20
41.5821505659
 10
283.0546748698
 20
42.2403763063
 10
282.4107847713
 20
42.788331141
 10
281.6951469346
 20
43.2211996232
 10
280.9140504109
 20
43.5351776891
 10
280.0743595044
 20
43.7275060881
 10
279.1834534491
 20
43.7964946314
 10
278.2491615595
 20
43.7415370452
 10
277.2796944261
 20
43.5631162987
 10
276.2835717611
 20
43.2628003598
 10
275.2695475263
 20
42.8432284159
 10
274.246533003
 20
42.3080876801
  0
LWPOLYLINE
  5
197
330
1F
100
AcDbEntity
  8
0
  6
Continuous
 62
     7
370
    15
100
AcDbPolyline
 90
       36
 70
   128
 43
0.0
 10
274.0344009686
 20
42.6755111405
 10
273.0068145417
 20
42.0274374215
 10
271.9879951198
 20
41.2751714356
 10
270.986634911
 20
40.4251312511
 10
270.0112771677
 20
39.4845691111
 10
269.0702432981
 20
38.4615095601
 10
268.1715618714
 20
37.3646809816
 10
267.3229001207
 20
36.2034411301
 10
266.5314985289
 20
34.9876972947
 10
265.8041090552
 20
33.7278217731
 10
265.1469375303
 20
32.434563379
 10
264.5655907097
 20
31.1189557372
 10
264.0650284397
 20
29.792223148
 10
263.6495213409
 20
28.4656848262
 10
263.3226143736
 20
27.150658329
 10
263.0870965926
 20
25.8583629988
 10
262.9449773526
 20
24.5998242437
 10
262.897469165
 20
23.3857794727
 10
262.9449773526
 20
22.2265864876
 10
263.0870965926
 20
21.1321351143
 10
263.3226143736
 20
20.111762826
 10
263.6495213409
 20
19.1741750792
 10
264.0650284397
 20
18.3273710422
 10
264.5655907097
 20
17.5785753483
 10
265.1469375303
 20
16.9341764584
 10
265.8041090552
 20
16.3996721565
 10
266.5314985289
 20
15.979622645
 10
267.3229001207
 20
15.6776116382
 10
268.1715618714
 20
15.4962157875
 10
269.0702432981
 20
15.4369826983
 10
270.0112771677
 20
15.5004177265
 10
270.986634911
 20
15.6859796667
 10
271.9879951198
 20
15.99208537
 10
273.0068145417
 20
16.4161232503
 10
274.0344009686
 20
16.9544755661
 10
274.0362110333
 20
16.955520664
  0
LWPOLYLINE
  5
198
330
1F
100
AcDbEntity
  8
0
  6
Continuous
 62
     7
370
    15
100
AcDbPolyline
 90
       18
 70
   128
 43
0.0
 10
285.1713327723
 20
36.2442072339
 10
285.1238245846
 20
37.403400219
 10
284.9817053447
 20
38.4978515923
 10
284.7461875637
 20
39.5182238806
 10
284.4192805963
 20
40.4558116273
 10
284.0037734976
 20
41.3026156644
 10
283.5032112276
 20
42.0514113583
 10
282.921864407
 20
42.6958102482
 10
282.264692882
 20
43.23031455
 10
281.5373034084
 20
43.6503640615
 10
280.7459018165
 20
43.9523750684
 10
279.8972400659
 20
44.1337709191
 10
278.9985586392
 20
44.1930040083
 10
278.0575247696
 20
44.1295689801
 10
277.0821670263
 20
43.9440070399
 10
276.0808068175
 20
43.6379013366
 10
275.0619873956
 20
43.2138634563
 10
274.0344009686
 20
42.6755111405
  0
ARC
  5
199
330
1F
100
AcDbEntity
  8
0
  6
Continuous
 62
     7
370
    15
100
AcDbCircle
 10
251.712806727
 20
32.0011709546
 30
0.0
 40
6.488004413277857
100
AcDbArc
 50
192.052896503
 51
237.8549075902
  0
SPLINE
  5
19A
330
1F
100
AcDbEntity
  8
0
  6
Continuous
 62
     7
370
    15
100
AcDbSpline
210
0.0
220
0.0
230
1.0
 70
     8
 71
     3
 72
    50
 73
    46
 74
     0
 42
0.000000001
 43
0.00000001
 40
0.0
 40
0.0
 40
0.0
 40
0.0
 40
0.0625
 40
0.0625
 40
0.0937500000000001
 40
0.0937500000000001
 40
0.1250000000000002
 40
0.1250000000000002
 40
0.1875000000000003
 40
0.1875000000000003
 40
0.2500000000000003
 40
0.2500000000000003
 40
0.3125000000000004
 40
0.3125000000000004
 40
0.3437500000000002
 40
0.3437500000000002
 40
0.3750000000000001
 40
0.3750000000000001
 40
0.4062499999999999
 40
0.4062499999999999
 40
0.4374999999999998
 40
0.4374999999999998
 40
0.4999999999999998
 40
0.4999999999999998
 40
0.5312499999999997
 40
0.5312499999999997
 40
0.5624999999999996
 40
0.5624999999999996
 40
0.6249999999999994
 40
0.6249999999999994
 40
0.6562499999999997
 40
0.6562499999999997
 40
0.6874999999999998
 40
0.6874999999999998
 40
0.7500000000000002
 40
0.7500000000000002
 40
0.8125000000000007
 40
0.8125000000000007
 40
0.8437500000000008
 40
0.8437500000000008
 40
0.8750000000000008
 40
0.8750000000000008
 40
0.9375000000000004
 40
0.9375000000000004
 40
1.0
 40
1.0
 40
1.0
 40
1.0
 10
245.3678288394075
 20
37.21801246675899
 30
0.0
 10
245.5530037567254
 20
37.10526210776206
 30
0.0
 10
245.7297217594069
 20
36.97101584323779
 30
0.0
 10
245.9832268970238
 20
36.73916294094165
 30
0.0
 10
246.0657935289909
 20
36.6567644419524
 30
0.0
 10
246.2271733275323
 20
36.48163877737982
 30
0.0
 10
246.3061369239071
 20
36.38863399719204
 30
0.0
 10
246.5326305665372
 20
36.1002929772173
 30
0.0
 10
246.6716123948498
 20
35.89395059657367
 30
0.0
 10
246.9284293388775
 20
35.45451111410766
 30
0.0
 10
247.0464788013583
 20
35.22011735990416
 30
0.0
 10
247.254218843813
 20
34.74454510640333
 30
0.0
 10
247.3453517503259
 20
34.50117607176007
 30
0.0
 10
247.4644397387175
 20
34.1282971183309
 30
0.0
 10
247.5010885567856
 20
34.00282214500177
 30
0.0
 10
247.5671377044467
 20
33.75482657740039
 30
0.0
 10
247.5967660846759
 20
33.63161938094739
 30
0.0
 10
247.6495537838026
 20
33.38687819161386
 30
0.0
 10
247.6727127442222
 20
33.2653440079988
 30
0.0
 10
247.7126510123474
 20
33.02406856019657
 30
0.0
 10
247.7294884323147
 20
32.90379390133877
 30
0.0
 10
247.7698012558951
 20
32.54965740727162
 30
0.0
 10
247.7829675162183
 20
32.32561113343309
 30
0.0
 10
247.7831080714404
 20
32.00728488918109
 30
0.0
 10
247.7798558559965
 20
31.90415001118333
 30
0.0
 10
247.7665366759911
 20
31.70397885511968
 30
0.0
 10
247.7564400223785
 20
31.60723691203694
 30
0.0
 10
247.7164955683752
 20
31.33256580270501
 30
0.0
 10
247.6769945483454
 20
31.1678019731249
 30
0.0
 10
247.5975066041606
 20
30.94736770444565
 30
0.0
 10
247.5674140171551
 20
30.87804409566203
 30
0.0
 10
247.5010998761128
 20
30.75070009661651
 30
0.0
 10
247.4648941772623
 20
30.69253894393417
 30
0.0
 10
247.3469465084176
 20
30.53386864315975
 30
0.0
 10
247.2559877334854
 20
30.44902927505046
 30
0.0
 10
247.04586338712
 20
30.32098386075349
 30
0.0
 10
246.9297162004773
 20
30.27969285299666
 30
0.0
 10
246.7380551597961
 20
30.24967862725936
 30
0.0
 10
246.671208858495
 20
30.24501583049832
 30
0.0
 10
246.5311196661874
 20
30.24644447498924
 30
0.0
 10
246.4574823589066
 20
30.25262919804305
 30
0.0
 10
246.2307455743038
 20
30.28701182314908
 30
0.0
 10
246.0710152556434
 20
30.33067202176171
 30
0.0
 10
245.7327881268806
 20
30.45818176946916
 30
0.0
 10
245.5530105314932
 20
30.54288297859554
 30
0.0
 10
245.3678288394075
 20
30.64638061183118
 30
0.0
  0
LWPOLYLINE
  5
19B
330
1F
100
AcDbEntity
  8
0
  6
Continuous
 62
     7
370
    15
100
AcDbPolyline
 90
       24
 70
   128
 43
0.0
 10
264.0094859896
 20
53.7882944477
 10
263.7261887192
 20
53.9404743047
 10
262.93003998
 20
54.2601057615
 10
262.0742199313
 20
54.4558082992
 10
261.1662441798
 20
54.5258633048
 10
260.2140863515
 20
54.4696555721
 10
259.2261080688
 20
54.2876787039
 10
258.2109855205
 20
53.9815307775
 10
257.1776332702
 20
53.5539003109
 10
256.1351259701
 20
53.0085426524
 10
255.09261867
 20
52.3502470027
 10
254.0592664196
 20
51.5847943566
 10
253.0441438714
 20
50.7189067362
 10
252.0561655886
 20
49.7601881595
 10
251.1040077604
 20
48.7170578638
 10
250.1960320089
 20
47.5986763698
 10
249.3402119601
 20
46.4148650363
 10
248.544063221
 20
45.1760198112
 10
247.8145773793
 20
43.8930199372
 10
247.1581606053
 20
42.5771324121
 10
246.5805773941
 20
41.2399130455
 10
246.0868999432
 20
39.8931049781
 10
245.68146361
 20
38.5485355561
 10
245.3678288394
 20
37.2180124668
  0
SPLINE
  5
19C
330
1F
100
AcDbEntity
  8
0
  6
Continuous
 62
     7
370
    15
100
AcDbSpline
210
0.0
220
0.0
230
1.0
 70
    11
 71
     3
 72
    96
 73
    92
 74
     0
 42
0.000000001
 43
0.00000001
 40
0.0
 40
0.0
 40
0.0
 40
0.0
 40
0.0312500000000003
 40
0.0312500000000003
 40
0.0468750000000003
 40
0.0468750000000003
 40
0.0625000000000002
 40
0.0625000000000002
 40
0.0937500000000002
 40
0.0937500000000002
 40
0.1093750000000004
 40
0.1093750000000004
 40
0.1250000000000006
 40
0.1250000000000006
 40
0.1562500000000005
 40
0.1562500000000005
 40
0.1718750000000005
 40
0.1718750000000005
 40
0.1875000000000005
 40
0.1875000000000005
 40
0.2187500000000004
 40
0.2187500000000004
 40
0.2343750000000006
 40
0.2343750000000006
 40
0.2500000000000008
 40
0.2500000000000008
 40
0.2812500000000014
 40
0.2812500000000014
 40
0.2968750000000017
 40
0.2968750000000017
 40
0.312500000000002
 40
0.312500000000002
 40
0.3437500000000024
 40
0.3437500000000024
 40
0.3593750000000027
 40
0.3593750000000027
 40
0.3750000000000029
 40
0.3750000000000029
 40
0.3906250000000032
 40
0.3906250000000032
 40
0.4062500000000034
 40
0.4062500000000034
 40
0.4375000000000039
 40
0.4375000000000039
 40
0.4531250000000042
 40
0.4531250000000042
 40
0.4687500000000044
 40
0.4687500000000044
 40
0.5000000000000047
 40
0.5000000000000047
 40
0.531250000000005
 40
0.531250000000005
 40
0.546875000000005
 40
0.546875000000005
 40
0.562500000000005
 40
0.562500000000005
 40
0.5937500000000047
 40
0.5937500000000047
 40
0.6250000000000042
 40
0.6250000000000042
 40
0.6562500000000039
 40
0.6562500000000039
 40
0.6875000000000034
 40
0.6875000000000034
 40
0.7187500000000031
 40
0.7187500000000031
 40
0.7500000000000027
 40
0.7500000000000027
 40
0.7656250000000024
 40
0.7656250000000024
 40
0.7812500000000021
 40
0.7812500000000021
 40
0.8125000000000018
 40
0.8125000000000018
 40
0.8281250000000016
 40
0.8281250000000016
 40
0.8437500000000013
 40
0.8437500000000013
 40
0.8750000000000011
 40
0.8750000000000011
 40
0.8906250000000009
 40
0.8906250000000009
 40
0.9062500000000007
 40
0.9062500000000007
 40
0.9218750000000006
 40
0.9218750000000006
 40
0.9375000000000003
 40
0.9375000000000003
 40
0.9687500000000001
 40
0.9687500000000001
 40
1.0
 40
1.0
 40
1.0
 40
1.0
 10
267.8181366718769
 20
48.59797449571937
 30
0.0
 10
268.1170416007769
 20
48.5461368526254
 30
0.0
 10
268.4080180880219
 20
48.47986019867804
 30
0.0
 10
268.834047625156
 20
48.36317453552569
 30
0.0
 10
268.97430125209
 20
48.32136554586062
 30
0.0
 10
269.251362989073
 20
48.23229802719409
 30
0.0
 10
269.3887555148403
 20
48.18481816018959
 30
0.0
 10
269.7912468842417
 20
48.03615779654043
 30
0.0
 10
270.0451251239056
 20
47.92958376844226
 30
0.0
 10
270.4053318253097
 20
47.76025271903288
 30
0.0
 10
270.5219417291812
 20
47.70220977570435
 30
0.0
 10
270.7481467011802
 20
47.58297774730289
 30
0.0
 10
270.8581591650126
 20
47.52152043561723
 30
0.0
 10
271.1719995372162
 20
47.33551237759988
 30
0.0
 10
271.3611636103969
 20
47.2087554443354
 30
0.0
 10
271.6152933072366
 20
47.01397635200966
 30
0.0
 10
271.6950372037154
 20
46.94826240628877
 30
0.0
 10
271.8442928519635
 20
46.81499673758498
 30
0.0
 10
271.9139950645239
 20
46.74719178231602
 30
0.0
 10
272.1035157337765
 20
46.54430828959185
 30
0.0
 10
272.2052446601525
 20
46.40877303466485
 30
0.0
 10
272.3203079481194
 20
46.20277713074772
 30
0.0
 10
272.3523659920806
 20
46.13365594711455
 30
0.0
 10
272.4032137959786
 20
45.99400262605924
 30
0.0
 10
272.4219704425197
 20
45.92323340969072
 30
0.0
 10
272.4562492428046
 20
45.71269174712427
 30
0.0
 10
272.4507239999967
 20
45.5732763351316
 30
0.0
 10
272.3972648120138
 20
45.36277657199199
 30
0.0
 10
272.3718610827124
 20
45.29238137918158
 30
0.0
 10
272.3046158823693
 20
45.15063815096548
 30
0.0
 10
272.2627141699679
 20
45.07946872650845
 30
0.0
 10
272.1148909159215
 20
44.87001844497283
 30
0.0
 10
271.9862700970019
 20
44.73373325123229
 30
0.0
 10
271.7449608662933
 20
44.53296808139277
 30
0.0
 10
271.6555804615529
 20
44.46615114409425
 30
0.0
 10
271.4638715517683
 20
44.33681445661306
 30
0.0
 10
271.3617339858235
 20
44.2742905876766
 30
0.0
 10
271.1451929946491
 20
44.15339650396729
 30
0.0
 10
271.03078906649
 20
44.09502650663234
 30
0.0
 10
270.7896130312398
 20
43.9825454514365
 30
0.0
 10
270.6619718851547
 20
43.92813280366171
 30
0.0
 10
270.2697501441878
 20
43.77549120372426
 30
0.0
 10
269.9943801202629
 20
43.68670130780429
 30
0.0
 10
269.5616764199656
 20
43.57341095257376
 30
0.0
 10
269.4144553026591
 20
43.53913877431856
 30
0.0
 10
269.1200237318455
 20
43.47888720702257
 30
0.0
 10
268.972013077966
 20
43.45268987857518
 30
0.0
 10
268.525622190741
 20
43.38591426246458
 30
0.0
 10
268.2222632404973
 20
43.35708919668223
 30
0.0
 10
267.6286093844468
 20
43.33424816396114
 30
0.0
 10
267.3368156420639
 20
43.33972482915109
 30
0.0
 10
266.9059671067801
 20
43.37456209356652
 30
0.0
 10
266.7632159507885
 20
43.39072578014506
 30
0.0
 10
266.484948179903
 20
43.43164871519343
 30
0.0
 10
266.3488070772098
 20
43.45643679844399
 30
0.0
 10
265.9490335416974
 20
43.54382475693306
 30
0.0
 10
265.6939754574486
 20
43.61936632165944
 30
0.0
 10
265.2069680882624
 20
43.8072788044418
 30
0.0
 10
264.9805681431934
 20
43.91764657870661
 30
0.0
 10
264.5642413492371
 20
44.16854100197288
 30
0.0
 10
264.3736475242086
 20
44.3093221458205
 30
0.0
 10
264.0293542764467
 20
44.62230648535414
 30
0.0
 10
263.8805824061326
 20
44.79003152184652
 30
0.0
 10
263.6289605179479
 20
45.14536547760544
 30
0.0
 10
263.5259303458453
 20
45.33325868582273
 30
0.0
 10
263.3700734313037
 20
45.72709866576853
 30
0.0
 10
263.3194817715468
 20
45.92721737568581
 30
0.0
 10
263.2851688747981
 20
46.22995196452851
 30
0.0
 10
263.280710113549
 20
46.33129297332948
 30
0.0
 10
263.2865263327667
 20
46.53447735067782
 30
0.0
 10
263.2968816210733
 20
46.63676845895292
 30
0.0
 10
263.3515153387592
 20
46.9408086578699
 30
0.0
 10
263.4181059845679
 20
47.13568951882702
 30
0.0
 10
263.5651122172679
 20
47.41362890410647
 30
0.0
 10
263.6220267799333
 20
47.50386710751401
 30
0.0
 10
263.7528370749457
 20
47.67888645178675
 30
0.0
 10
263.8272396336105
 20
47.76400032293363
 30
0.0
 10
264.0703372301115
 20
48.00262771203338
 30
0.0
 10
264.2602203485671
 20
48.14213414810396
 30
0.0
 10
264.5878138585943
 20
48.32079619551306
 30
0.0
 10
264.7049622569757
 20
48.37543543824603
 30
0.0
 10
264.9473434291493
 20
48.47139901408829
 30
0.0
 10
265.0731337850192
 20
48.51312858302421
 30
0.0
 10
265.3335753311608
 20
48.58473036024574
 30
0.0
 10
265.4682274174018
 20
48.61460103525189
 30
0.0
 10
265.74636009801
 20
48.66281601118485
 30
0.0
 10
265.8892365521721
 20
48.68097781817218
 30
0.0
 10
266.3207377994382
 20
48.71810108842742
 30
0.0
 10
266.6152759072377
 20
48.72043650053986
 30
0.0
 10
267.21769832703
 20
48.68616572191154
 30
0.0
 10
267.5192317429768
 20
48.64981213881332
 30
0.0
 10
267.8181366718769
 20
48.59797449571936
 30
0.0
  0
LWPOLYLINE
  5
19D
330
1F
100
AcDbEntity
  8
0
  6
Continuous
 62
     7
370
    15
100
AcDbPolyline
 90
        3
 70
   128
 43
0.0
 10
269.18396745
 20
22.2348754293
 10
269.3242161106
 20
22.1433471387
 10
269.3933453155
 20
22.102194403
  0
SPLINE
  5
19E
330
1F
100
AcDbEntity
  8
0
  6
Continuous
 62
     7
370
    15
100
AcDbSpline
210
0.0
220
0.0
230
1.0
 70
     8
 71
     3
 72
    28
 73
    24
 74
     0
 42
0.000000001
 43
0.00000001
 40
0.0
 40
0.0
 40
0.0
 40
0.0
 40
0.0444936442451293
 40
0.0868480555849958
 40
0.1293438168199311
 40
0.1721525557623012
 40
0.2159851465738324
 40
0.2601893024658439
 40
0.3005673029813324
 40
0.3828550084770651
 40
0.4248884561800839
 40
0.4630534663781219
 40
0.5406590267063635
 40
0.5801753269564642
 40
0.6189848811917538
 40
0.6977830169234335
 40
0.7378359319987711
 40
0.7792006749184409
 40
0.8632521320851265
 40
0.906037277479974
 40
0.948465610417327
 40
0.9912122070306433
 40
1.0
 40
1.0
 40
1.0
 40
1.0
 10
275.7947696292142
 20
37.91294964314019
 30
0.0
 10
275.8648094355823
 20
37.83003655139866
 30
0.0
 10
276.0015215682884
 20
37.66819678928297
 30
0.0
 10
276.1747983763822
 20
37.41276390069959
 30
0.0
 10
276.3317752178181
 20
37.15690697426263
 30
0.0
 10
276.4695811139243
 20
36.89296660036334
 30
0.0
 10
276.5869334889111
 20
36.62238018745616
 30
0.0
 10
276.6777304714938
 20
36.35513884761362
 30
0.0
 10
276.7634892047564
 20
36.00849667605569
 30
0.0
 10
276.7999325613877
 20
35.66964626151774
 30
0.0
 10
276.7857450157277
 20
35.34800461875201
 30
0.0
 10
276.7410698003603
 20
35.04561818531074
 30
0.0
 10
276.6537033704502
 20
34.76495509923955
 30
0.0
 10
276.5258157360967
 20
34.50747601897496
 30
0.0
 10
276.3715959496274
 20
34.26582775966347
 30
0.0
 10
276.1809491998358
 20
34.05242698536615
 30
0.0
 10
275.9574352920941
 20
33.87082607166873
 30
0.0
 10
275.7077942646595
 20
33.70929668672261
 30
0.0
 10
275.4279687443378
 20
33.58848808416025
 30
0.0
 10
275.1296278871679
 20
33.51489739466984
 30
0.0
 10
274.8975312516459
 20
33.48745406123692
 30
0.0
 10
274.7242817739466
 20
33.48016344709069
 30
0.0
 10
274.6287172501981
 20
33.4913123755946
 30
0.0
 10
274.6124213115693
 20
33.49321352308692
 30
0.0
  0
SPLINE
  5
19F
330
1F
100
AcDbEntity
  8
0
  6
Continuous
 62
     7
370
    15
100
AcDbSpline
210
0.0
220
0.0
230
1.0
 70
     8
 71
     3
 72
     8
 73
     4
 74
     0
 42
0.000000001
 43
0.00000001
 40
0.0000204044391276
 40
0.0000204044391276
 40
0.0000204044391276
 40
0.0000204044391276
 40
0.000222411168526
 40
0.000222411168526
 40
0.000222411168526
 40
0.000222411168526
 10
245.3433394628339
 20
37.2753389074321
 30
0.0
 10
245.3515696903819
 20
37.25649257824183
 30
0.0
 10
245.3597331395139
 20
37.23738140583595
 30
0.0
 10
245.3678288394075
 20
37.21801246675899
 30
0.0
  0
LWPOLYLINE
  5
1A0
330
1F
100
AcDbEntity
  8
0
  6
Continuous
 62
     7
370
    15
100
AcDbPolyline
 90
       19
 70
   128
 43
0.0
 10
260.0339567539
 20
54.4458136153
 10
259.1529941123
 20
54.2776391899
 10
258.1417510511
 20
53.9724622178
 10
257.1123734825
 20
53.5463592646
 10
256.0738887265
 20
53.00306712
 10
255.0354039705
 20
52.3473502869
 10
254.0060264019
 20
51.5849591973
 10
252.9947833407
 20
50.7225797831
 10
252.0105430733
 20
49.7677748428
 10
251.0619370796
 20
48.7289177179
 10
250.1572843383
 20
47.6151188613
 10
249.3045183717
 20
46.4361459415
 10
248.5111176714
 20
45.2023381832
 10
247.784040114
 20
43.9245156955
 10
247.1296619428
 20
42.6138845831
 10
246.5537218502
 20
41.2819386719
 10
246.0612706512
 20
39.940358712
 10
245.6566269892
 20
38.6009099413
 10
245.3433394628
 20
37.2753389074
  0
ELLIPSE
  5
1A1
330
1F
100
AcDbEntity
  8
0
  6
Continuous
 62
     7
370
    15
100
AcDbEllipse
 10
255.7380130054
 20
40.3772733
 30
0.0
 11
-11.10202753506462
 21
19.22823400583198
 31
0.0
210
0.0
220
0.0
230
1.0
 40
0.5773346305
 41
1.298288658577346
 42
1.311491480142061
  0
ARC
  5
1A2
330
1F
100
AcDbEntity
  8
0
  6
Continuous
 62
     7
370
    15
100
AcDbCircle
 10
257.7616050873
 20
50.6247689008
 30
0.0
 40
5.813988349207883
100
AcDbArc
 50
60.7792993195
 51
93.7125351767
  0
LINE
  5
1A3
330
1F
100
AcDbEntity
  8
0
  6
Continuous
 62
     7
370
    15
100
AcDbLine
 10
245.3433394628
 20
37.2753389074
 30
0.0
 11
242.1613589475
 21
39.112257159
 31
0.0
  0
SPLINE
  5
1A4
330
1F
100
AcDbEntity
  8
0
  6
Continuous
 62
     7
370
    15
100
AcDbSpline
210
0.0
220
0.0
230
1.0
 70
     8
 71
     3
 72
     9
 73
     5
 74
     0
 42
0.000000001
 43
0.00000001
 40
0.0
 40
0.0
 40
0.0
 40
0.0
 40
0.5475467443702153
 40
1.0
 40
1.0
 40
1.0
 40
1.0
 10
242.0584483448932
 20
39.37943791744988
 30
0.0
 10
242.0375651501978
 20
39.44685258486344
 30
0.0
 10
241.9994255851102
 20
39.56997388565958
 30
0.0
 10
242.0196408786392
 20
39.68656466330989
 30
0.0
 10
242.0287873540099
 20
39.73931654023417
 30
0.0
  0
SPLINE
  5
1A5
330
1F
100
AcDbEntity
  8
0
  6
Continuous
 62
     7
370
    15
100
AcDbSpline
210
0.0
220
0.0
230
1.0
 70
     8
 71
     3
 72
     8
 73
     4
 74
     0
 42
0.000000001
 43
0.00000001
 40
0.0000204633087277
 40
0.0000204633087277
 40
0.0000204633087277
 40
0.0000204633087277
 40
0.0002224700381261
 40
0.0002224700381261
 40
0.0002224700381261
 40
0.0002224700381261
 10
245.3678288394075
 20
30.64638061183118
 30
0.0
 10
245.3597331395139
 20
30.66473634800746
 30
0.0
 10
245.3515696903819
 20
30.68333904256155
 30
0.0
 10
245.3433394628339
 20
30.70218537175181
 30
0.0
  0
LINE
  5
1A6
330
1F
100
AcDbEntity
  8
0
  6
Continuous
 62
     7
370
    15
100
AcDbLine
 10
244.9369569228
 20
34.1414222282
 30
0.0
 11
247.7665696735
 21
32.5079215572
 31
0.0
  0
LINE
  5
1A7
330
1F
100
AcDbEntity
  8
0
  6
Continuous
 62
     7
370
    15
100
AcDbLine
 10
244.5834035322
 20
35.6361378253
 30
0.0
 11
244.5834035322
 21
33.9373202002
 31
0.0
  0
LINE
  5
1A8
330
1F
100
AcDbEntity
  8
0
  6
Continuous
 62
     7
370
    15
100
AcDbLine
 10
244.5834035322
 20
37.7140405821
 30
0.0
 11
244.5834035322
 21
35.6361378253
 31
0.0
  0
ARC
  5
1A9
330
1F
100
AcDbEntity
  8
0
  6
Continuous
 62
     7
370
    15
100
AcDbCircle
 10
253.8052770343
 20
37.5027214337
 30
0.0
 40
9.408883316019585
100
AcDbArc
 50
178.0740677166
 51
191.4425483356
  0
ARC
  5
1AA
330
1F
100
AcDbEntity
  8
0
  6
Continuous
 62
     7
370
    15
100
AcDbCircle
 10
251.824353991
 20
37.8505786678
 30
0.0
 40
7.711157413113113
100
AcDbArc
 50
178.7797602403
 51
200.1119561001
  0
ARC
  5
1AB
330
1F
100
AcDbEntity
  8
0
  6
Continuous
 62
     7
370
    15
100
AcDbCircle
 10
230.9300050718
 20
58.464244613
 30
0.0
 40
3.163976777904822
100
AcDbArc
 50
73.341108605
 51
119.3999270881
  0
ARC
  5
1AC
330
1F
100
AcDbEntity
  8
0
  6
Continuous
 62
     7
370
    15
100
AcDbCircle
 10
227.7440037011
 20
52.8346448048
 30
0.0
 40
3.229581333625961
100
AcDbArc
 50
184.3710878798
 51
225.9301174649
  0
LWPOLYLINE
  5
1AD
330
1F
100
AcDbEntity
  8
0
  6
Continuous
 62
     7
370
    15
100
AcDbPolyline
 90
        3
 70
   128
 43
0.0
 10
245.3433394628
 20
30.7021853718
 10
245.6566269892
 20
29.7383284165
 10
245.7032808151
 20
29.6216650344
  0
LINE
  5
1AE
330
1F
100
AcDbEntity
  8
0
  6
Continuous
 62
     7
370
    15
100
AcDbLine
 10
242.1613589475
 20
32.5391036234
 30
0.0
 11
244.9369569228
 21
34.1414222282
 31
0.0
  0
LINE
  5
1AF
330
1F
100
AcDbEntity
  8
0
  6
Continuous
 62
     7
370
    15
100
AcDbLine
 10
242.1613589475
 20
32.5391036234
 30
0.0
 11
245.3433394628
 21
30.7021853718
 31
0.0
  0
ARC
  5
1B0
330
1F
100
AcDbEntity
  8
0
  6
Continuous
 62
     7
370
    15
100
AcDbCircle
 10
247.9345977419
 20
33.5562951312
 30
0.0
 40
5.892186423895542
100
AcDbArc
 50
206.0727004865
 51
239.0139232344
  0
ELLIPSE
  5
1B1
330
1F
100
AcDbEntity
  8
0
  6
Continuous
 62
     7
370
    15
100
AcDbEllipse
 10
255.7380130054
 20
40.3772733
 30
0.0
 11
15.70000004673963
 21
9.064890346484646
 31
0.0
210
0.0
220
0.0
230
1.0
 40
0.0000703729
 41
2.615418071123588
 42
2.628620892712763
  0
SPLINE
  5
1B2
330
1F
100
AcDbEntity
  8
0
  6
Continuous
 62
     7
370
    15
100
AcDbSpline
210
0.0
220
0.0
230
1.0
 70
     8
 71
     3
 72
    12
 73
     8
 74
     0
 42
0.000000001
 43
0.00000001
 40
0.0
 40
0.0
 40
0.0
 40
0.0
 40
0.0813948360464052
 40
0.2020170320285831
 40
0.4578388364238161
 40
0.727157759401401
 40
1.0
 40
1.0
 40
1.0
 40
1.0
 10
242.0116405742439
 20
32.45262392356447
 30
0.0
 10
242.0116071161705
 20
32.45260515549697
 30
0.0
 10
242.0115240752675
 20
32.45255857429502
 30
0.0
 10
242.0137217282288
 20
32.45383047358789
 30
0.0
 10
242.0204846489063
 20
32.4577393664115
 30
0.0
 10
242.0350493098535
 20
32.46615352042627
 30
0.0
 10
242.050614947983
 20
32.47514373671832
 30
0.0
 10
242.0584483448932
 20
32.47966805701528
 30
0.0
  0
ARC
  5
1B3
330
1F
100
AcDbEntity
  8
0
  6
Continuous
 62
     7
370
    15
100
AcDbCircle
 10
225.4661573694
 20
53.6306313037
 30
0.0
 40
2.343965601926779
100
AcDbArc
 50
196.6151535767
 51
238.6979280643
  0
ARC
  5
1B4
330
1F
100
AcDbEntity
  8
0
  6
Continuous
 62
     7
370
    15
100
AcDbCircle
 10
228.8974933883
 20
60.4680884908
 30
0.0
 40
2.332240191026618
100
AcDbArc
 50
29.9910105609
 51
103.6706902842
  0
ARC
  5
1B5
330
1F
100
AcDbEntity
  8
0
  6
Continuous
 62
     7
370
    15
100
AcDbCircle
 10
224.9211853388
 20
53.5774625067
 30
0.0
 40
2.336159426923463
100
AcDbArc
 50
196.8148357465
 51
269.9204839791
  0
LWPOLYLINE
  5
1B6
330
1F
100
AcDbEntity
  8
0
  6
Continuous
 62
     7
370
    15
100
AcDbPolyline
 90
       18
 70
   128
 43
0.0
 10
220.9837147101
 20
55.2767213408
 10
221.0313759677
 20
56.0562103945
 10
221.1733439236
 20
56.8741145091
 10
221.4065927773
 20
57.7130014784
 10
221.7261512344
 20
58.554991883
 10
222.1252084612
 20
59.3821401594
 10
222.5952592457
 20
60.1768170779
 10
223.1262852716
 20
60.9220854799
 10
223.706968641
 20
61.6020612631
 10
224.3249330961
 20
62.2022519244
 10
224.9670077974
 20
62.7098654418
 10
225.6195080374
 20
63.1140829145
 10
226.2685269063
 20
63.4062891488
 10
226.9002316937
 20
63.5802562761
 10
227.5011587088
 20
63.6322764892
 10
228.0585002355
 20
63.5612410676
 10
228.5603775069
 20
63.3686640079
 10
228.6184080931
 20
63.336371049
  0
ARC
  5
1B7
330
1F
100
AcDbEntity
  8
0
  6
Continuous
 62
     7
370
    15
100
AcDbCircle
 10
224.1071886059
 20
54.9455771483
 30
0.0
 40
3.14097845484305
100
AcDbArc
 50
173.9482268812
 51
234.7395927254
  0
LINE
  5
1B8
330
1F
100
AcDbEntity
  8
0
  6
Continuous
 62
     7
370
    15
100
AcDbLine
 10
225.4871654815
 20
63.889897787
 30
0.0
 11
225.7479730614
 21
63.7666018312
 31
0.0
  0
LWPOLYLINE
  5
1B9
330
1F
100
AcDbEntity
  8
0
  6
Continuous
 62
     7
370
    15
100
AcDbPolyline
 90
       20
 70
   128
 43
0.0
 10
218.3949466003
 20
56.8507851509
 10
218.4441301406
 20
57.6370593061
 10
218.5905820824
 20
58.4625555029
 10
218.8310309313
 20
59.3088335203
 10
219.1601054573
 20
60.1569889057
 10
219.5704546795
 20
60.9880752694
 10
220.0529120741
 20
61.7835275155
 10
220.5967003403
 20
62.525576555
 10
221.1896721467
 20
63.1976462388
 10
221.8185814831
 20
63.7847236406
 10
222.4693795541
 20
64.2736944214
 10
223.1275286063
 20
64.6536357819
 10
223.7783266773
 20
64.91606046
 10
224.4072360137
 20
65.0551063221
 10
225.0002078201
 20
65.0676673132
 10
225.5439960863
 20
64.9534628417
 10
226.0264534809
 20
64.7150440467
 10
226.436802703
 20
64.3577368102
 10
226.7658772291
 20
63.8895227853
 10
226.9119600115
 20
63.5823855475
  0
LWPOLYLINE
  5
1BA
330
1F
100
AcDbEntity
  8
0
  6
Continuous
 62
     7
370
    15
100
AcDbPolyline
 90
       10
 70
   128
 43
0.0
 10
221.2275161337
 20
53.7355730158
 10
221.1896721467
 20
53.7306454961
 10
220.5967003403
 20
53.7180845049
 10
220.0529120741
 20
53.8322889764
 10
219.5704546795
 20
54.0707077714
 10
219.1601054573
 20
54.4280150079
 10
218.8310309313
 20
54.8962290329
 10
218.5905820824
 20
55.4648907185
 10
218.4441301406
 20
56.1212971025
 10
218.3949466003
 20
56.8507851509
  0
LWPOLYLINE
  5
1BB
330
1F
100
AcDbEntity
  8
0
  6
Continuous
 62
     7
370
    15
100
AcDbPolyline
 90
       17
 70
   128
 43
0.0
 10
217.304991681
 20
57.4800027325
 10
217.3541752213
 20
58.2662768878
 10
217.500627163
 20
59.0917730846
 10
217.7410760119
 20
59.9380511019
 10
218.070150538
 20
60.7862064874
 10
218.4804997601
 20
61.6172928511
 10
218.9629571547
 20
62.4127450971
 10
219.5067454209
 20
63.1547941367
 10
220.0997172273
 20
63.8268638205
 10
220.7286265637
 20
64.4139412223
 10
221.3794246348
 20
64.902912003
 10
222.0375736869
 20
65.2828533636
 10
222.6883717579
 20
65.5452780417
 10
223.3172810943
 20
65.6843239037
 10
223.9102529008
 20
65.6968848949
 10
224.4540411669
 20
65.5826804234
 10
224.8219961146
 20
65.4154127812
  0
ARC
  5
1BC
330
1F
100
AcDbEntity
  8
0
  6
Continuous
 62
     7
370
    15
100
AcDbCircle
 10
220.3678653494
 20
57.148329432
 30
0.0
 40
3.080779493403066
100
AcDbArc
 50
173.8196216534
 51
234.8681979532
  0
LWPOLYLINE
  5
1BD
330
1F
100
AcDbEntity
  8
0
  6
Continuous
 62
     7
370
    15
100
AcDbPolyline
 90
       13
 70
   128
 43
0.0
 10
217.2006934308
 20
58.2362007461
 10
217.249911484
 20
58.968643895
 10
217.3962909218
 20
59.7389431058
 10
217.6360405937
 20
60.5271480333
 10
217.9629511091
 20
61.3128445842
 10
218.3685556574
 20
62.0756836304
 10
218.8423492939
 20
62.7959080412
 10
219.3720610121
 20
63.4548643829
 10
219.943971557
 20
64.0354860322
 10
220.5432687457
 20
64.5227351935
 10
221.1544310959
 20
64.9039923694
 10
221.7616298237
 20
65.1693831993
 10
221.9029609615
 20
65.2144010854
  0
LWPOLYLINE
  5
1BE
330
1F
100
AcDbEntity
  8
0
  6
Continuous
 62
     7
370
    15
100
AcDbPolyline
 90
        3
 70
   128
 43
0.0
 10
217.3093192209
 20
57.2571180107
 10
217.249911484
 20
57.5605835518
 10
217.2006934308
 20
58.2362007461
  0
LWPOLYLINE
  5
1BF
330
1F
100
AcDbEntity
  8
0
  6
Continuous
 62
     7
370
    15
100
AcDbPolyline
 90
       11
 70
   128
 43
0.0
 10
215.6614233107
 20
61.6847473641
 10
215.9830521218
 20
62.4558159407
 10
216.3886566701
 20
63.2186549869
 10
216.8624503065
 20
63.9388793978
 10
217.3921620248
 20
64.5978357395
 10
217.9640725697
 20
65.1784573888
 10
218.5633697584
 20
65.6657065501
 10
219.1745321086
 20
66.0469637259
 10
219.7817308364
 20
66.3123545558
 10
220.3692398138
 20
66.4550055567
 10
220.7773223762
 20
66.4793772888
  0
LWPOLYLINE
  5
1C0
330
1F
100
AcDbEntity
  8
0
  6
Continuous
 62
     7
370
    15
100
AcDbPolyline
 90
       15
 70
   128
 43
0.0
 10
215.2207944434
 20
59.4608129138
 10
215.2690968119
 20
60.1796292135
 10
215.4127529114
 20
60.9355972761
 10
215.6480421242
 20
61.709137926
 10
215.9688705836
 20
62.4802168666
 10
216.3669290007
 20
63.2288635584
 10
216.8319078719
 20
63.9356884453
 10
217.3517644884
 20
64.5823851341
 10
217.9130348371
 20
65.1522045202
 10
218.5011823107
 20
65.6303885808
 10
219.1009741985
 20
66.0045526
 10
219.6968762058
 20
66.265005926
 10
220.2734547836
 20
66.4050029548
 10
220.8157768496
 20
66.4209178366
 10
221.2871186082
 20
66.3204580412
  0
ARC
  5
1C1
330
1F
100
AcDbEntity
  8
0
  6
Continuous
 62
     7
370
     0
100
AcDbCircle
 10
272.3858439467
 20
34.4155712687
 30
0.0
 40
1.477245712846743
100
AcDbArc
 50
317.485463721
 51
1.4257019676
  0
ARC
  5
1C2
330
1F
100
AcDbEntity
  8
0
  6
Continuous
 62
     7
370
     0
100
AcDbCircle
 10
269.8424393378
 20
34.4339746572
 30
0.0
 40
4.020234894901651
100
AcDbArc
 50
0.2615424158
 51
32.7676233936
  0
LWPOLYLINE
  5
1C3
330
1F
100
AcDbEntity
  8
0
  6
Continuous
 62
     7
370
     0
100
AcDbPolyline
 90
       10
 70
   128
 43
0.0
 10
273.5610302364
 20
34.4840749493
 10
273.4934617198
 20
34.0443977564
 10
273.3321173797
 20
33.6897531227
 10
273.0856953312
 20
33.4392600322
 10
272.7674802506
 20
33.3064226323
 10
272.3946271955
 20
33.2984022215
 10
271.9872367704
 20
33.4156311823
 10
271.5672714987
 20
33.6517896711
 10
271.1573718169
 20
33.9941463226
 10
270.8809215882
 20
34.2962583015
  0
ARC
  5
1C4
330
1F
100
AcDbEntity
  8
0
  6
Continuous
 62
     7
370
     0
100
AcDbCircle
 10
269.883291119
 20
34.4645011606
 30
0.0
 40
3.677791205169767
100
AcDbArc
 50
0.3049386755
 51
32.2001660005
  0
LWPOLYLINE
  5
1C5
330
1F
100
AcDbEntity
  8
0
  6
Continuous
 62
     7
370
     0
100
AcDbPolyline
 90
       54
 70
   128
 43
0.0
 10
274.246533003
 20
37.4496698494
 10
273.4520312717
 20
36.9365671579
 10
272.6686826031
 20
36.3217740938
 10
271.9074834955
 20
35.6139210041
 10
271.1791195156
 20
34.8229445945
 10
270.4938152973
 20
33.95994844
 10
269.8611910095
 20
33.0370471149
 10
269.2901273105
 20
32.0671961308
 10
268.7886406829
 20
31.0640100695
 10
268.3637708996
 20
30.0415714644
 10
268.021482201
 20
29.0142331122
 10
267.7665795703
 20
27.9964165915
 10
267.6026412814
 20
27.002409815
 10
267.5319686688
 20
26.0461664592
 10
267.5555538209
 20
25.1411100845
 10
267.6730656539
 20
24.2999456986
 10
267.8828545593
 20
23.5344814056
 10
268.1819755607
 20
22.8554626463
 10
268.5662296549
 20
22.2724213555
 10
269.0302227567
 20
21.793542155
 10
269.5674414201
 20
21.4255474591
 10
270.1703442726
 20
21.1736031066
 10
270.8304678798
 20
21.0412458439
 10
271.5385455532
 20
21.0303336769
 10
272.2846374344
 20
21.1410197886
 10
273.0582700289
 20
21.3717503884
 10
273.8485832308
 20
21.7192865246
 10
274.6444827752
 20
22.1787495517
 10
275.4347959771
 20
22.7436896158
 10
276.2084285716
 20
23.4061761969
 10
276.9545204528
 20
24.1569094354
 10
277.6625981262
 20
24.9853506825
 10
278.3227217334
 20
25.8798704389
 10
278.9256245859
 20
26.8279116081
 10
279.4628432493
 20
27.8161657702
 10
279.9268363511
 20
28.830760003
 10
280.3110904453
 20
29.8574516276
 10
280.6102114467
 20
30.881828144
 10
280.820000352
 20
31.8895095514
 10
280.9375121851
 20
32.8663502118
 10
280.9610973372
 20
33.7986374235
 10
280.8904247246
 20
34.6732839176
 10
280.7264864357
 20
35.4780115747
 10
280.471583805
 20
36.2015237824
 10
280.1292951064
 20
36.8336640152
 10
279.7044253231
 20
37.3655584101
 10
279.2029386955
 20
37.7897403355
 10
278.6318749965
 20
38.1002552072
 10
277.9992507087
 20
38.2927440768
 10
277.3139464904
 20
38.3645048228
 10
276.5855825105
 20
38.3145300814
 10
275.8243834029
 20
38.1435213885
 10
275.0410347343
 20
37.8538793313
 10
274.246533003
 20
37.4496698494
  0
LWPOLYLINE
  5
1C6
330
1F
100
AcDbEntity
  8
0
  6
Continuous
 62
     7
370
     0
100
AcDbPolyline
 90
       27
 70
   128
 43
0.0
 10
269.3933453155
 20
22.102194403
 10
269.9032609425
 20
21.868058838
 10
270.5427858426
 20
21.7144755554
 10
271.2330962652
 20
21.6849254569
 10
271.963727808
 20
21.7798564919
 10
272.7236048416
 20
21.9978296026
 10
273.5012084048
 20
22.3355405388
 10
274.2847508201
 20
22.7878699471
 10
275.0623543832
 20
23.3479609746
 10
275.8222314168
 20
24.0073232123
 10
276.5528629596
 20
24.7559614008
 10
277.2431733823
 20
25.5825269483
 10
277.8826982823
 20
26.4744899637
 10
278.4617431142
 20
27.4183291967
 10
278.9715301486
 20
28.3997370069
 10
279.4043315337
 20
29.4038362521
 10
279.7535864415
 20
30.4154058113
 10
280.0140005239
 20
31.4191113212
 10
280.1816261686
 20
32.3997376293
 10
280.2539223418
 20
33.3424194404
 10
280.2297931073
 20
34.2328666592
 10
280.1096042395
 20
35.0575810134
 10
279.8951776793
 20
35.8040606742
 10
279.5897639147
 20
36.4609897708
 10
279.197992707
 20
37.0184099278
 10
278.7258029085
 20
37.4678712237
 10
278.3912877274
 20
37.6918390633
  0
LWPOLYLINE
  5
1C7
330
1F
100
AcDbEntity
  8
0
  6
Continuous
 62
     7
370
     0
100
AcDbPolyline
 90
       20
 70
   128
 43
0.0
 10
242.0584483449
 20
39.3794379174
 10
242.3810524405
 20
40.6942208661
 10
242.7927728942
 20
42.0211019091
 10
243.2900713233
 20
43.3486776467
 10
243.8686738762
 20
44.6655387087
 10
244.5236079622
 20
45.9603678085
 10
245.2492449868
 20
47.2220370051
 10
246.0393487249
 20
48.4397033384
 10
246.8871289153
 20
49.6029020149
 10
247.7852996173
 20
50.701636344
 10
248.7261418274
 20
51.7264636502
 10
249.7015698171
 20
52.6685764255
 10
250.7032006228
 20
53.519878022
 10
251.7224260904
 20
54.2730522357
 10
252.7504868549
 20
54.9216261828
 10
253.7785476194
 20
55.4600259289
 10
254.7977730871
 20
55.8836243919
 10
255.7994038928
 20
56.1887811077
 10
256.7748318824
 20
56.3728735173
 10
257.3851456743
 20
56.4265564559
  0
LINE
  5
1C8
330
1F
100
AcDbEntity
  8
0
  6
Continuous
 62
     7
370
     0
100
AcDbLine
 10
245.3433394628
 20
30.7021853718
 30
0.0
 11
247.7781256749
 21
32.1077575336
 31
0.0
  0
LINE
  5
1C9
330
1F
100
AcDbEntity
  8
0
  6
Continuous
 62
     7
370
     0
100
AcDbLine
 10
244.3990379247
 20
37.6903942457
 30
0.0
 11
244.3977880022
 21
37.851510704
 31
0.0
  0
ARC
  5
1CA
330
1F
100
AcDbEntity
  8
0
  6
Continuous
 62
     7
370
     0
100
AcDbCircle
 10
233.9193851103
 20
52.9866607446
 30
0.0
 40
9.404001755274908
100
AcDbArc
 50
118.8846642093
 51
182.4266039025
  0
LWPOLYLINE
  5
1CB
330
1F
100
AcDbEntity
  8
0
  6
Continuous
 62
     7
370
     0
100
AcDbPolyline
 90
        3
 70
   128
 43
0.0
 10
242.6420173545
 20
30.9666129699
 10
242.3810524405
 20
31.5373558688
 10
242.0584483449
 20
32.479668057
  0
LWPOLYLINE
  5
1CC
330
1F
100
AcDbEntity
  8
0
  6
Continuous
 62
     7
370
     0
100
AcDbPolyline
 90
       15
 70
   128
 43
0.0
 10
224.4368674441
 20
53.472213323
 10
224.4363436484
 20
53.5488937166
 10
224.4837304395
 20
54.306444087
 10
224.6248322702
 20
55.1017836584
 10
224.8564971587
 20
55.917145859
 10
225.1735500943
 20
56.7343168445
 10
225.5689086383
 20
57.5350423656
 10
226.0337411341
 20
58.3014355372
 10
226.557663992
 20
59.0163764023
 10
227.1289736409
 20
59.6638943634
 10
227.7349079674
 20
60.2295249392
 10
228.3619313999
 20
60.7006328773
 10
228.9960372711
 20
61.0666944049
 10
229.6230607037
 20
61.3195323124
 10
229.6350090138
 20
61.3232597629
  0
LWPOLYLINE
  5
1CD
330
1F
100
AcDbEntity
  8
0
  6
Continuous
 62
     7
370
     0
100
AcDbPolyline
 90
       17
 70
   128
 43
0.0
 10
223.005465527
 20
54.3749220736
 10
223.0528523181
 20
55.132472444
 10
223.1939541488
 20
55.9278120154
 10
223.4256190373
 20
56.743174216
 10
223.7426719729
 20
57.5603452015
 10
224.1380305169
 20
58.3610707226
 10
224.6028630127
 20
59.1274638942
 10
225.1267858705
 20
59.8424047593
 10
225.6980955194
 20
60.4899227204
 10
226.304029846
 20
61.0555532962
 10
226.9310532785
 20
61.5266612343
 10
227.5651591497
 20
61.8927227619
 10
228.1921825822
 20
62.1455606694
 10
228.7981169087
 20
62.2795269756
 10
229.3694265577
 20
62.2916290948
 10
229.8933494155
 20
62.1815966854
 10
230.247862412
 20
62.0204395834
  0
ARC
  5
1CE
330
1F
100
AcDbEntity
  8
0
  6
Continuous
 62
     7
370
     0
100
AcDbCircle
 10
227.2236682322
 20
54.2913109693
 30
0.0
 40
4.219031272566524
100
AcDbArc
 50
178.8644604132
 51
198.3883258735
  0
LWPOLYLINE
  5
1CF
330
1F
100
AcDbEntity
  8
0
  6
Continuous
 62
     7
370
     0
100
AcDbPolyline
 90
       19
 70
   128
 43
0.0
 10
222.7249651588
 20
54.4041851712
 10
222.7736353421
 20
55.1822525308
 10
222.9185586808
 20
55.9991325489
 10
223.1564978267
 20
56.8365774758
 10
223.4821376126
 20
57.6758801755
 10
223.8882037839
 20
58.4982920128
 10
224.3656254931
 20
59.2854416661
 10
224.9037379283
 20
60.019745513
 10
225.4905205469
 20
60.6848004188
 10
226.1128655947
 20
61.2657501561
 10
226.7568709119
 20
61.7496172675
 10
227.4081504838
 20
62.1255929615
 10
228.052155801
 20
62.3852785623
 10
228.6745008488
 20
62.5228731227
 10
229.2612834674
 20
62.5353030075
 10
229.7993959026
 20
62.4222905538
 10
230.2768176118
 20
62.1863602729
 10
230.6828837831
 20
61.8327824576
 10
230.7852475981
 20
61.7102137188
  0
LWPOLYLINE
  5
1D0
330
1F
100
AcDbEntity
  8
0
  6
Continuous
 62
     7
370
     0
100
AcDbPolyline
 90
        8
 70
   128
 43
0.0
 10
224.7857352023
 20
51.3176273702
 10
224.3656254931
 20
51.4171947778
 10
223.8882037839
 20
51.6531250587
 10
223.4821376126
 20
52.006702874
 10
223.1564978267
 20
52.4700298798
 10
222.9185586808
 20
53.0327561163
 10
222.7736353421
 20
53.6823112093
 10
222.7249651588
 20
54.4041851712
  0
LWPOLYLINE
  5
1D1
330
1F
100
AcDbEntity
  8
0
  6
Continuous
 62
     7
370
     0
100
AcDbPolyline
 90
       14
 70
   128
 43
0.0
 10
222.4444647906
 20
54.4334482689
 10
222.4921260482
 20
55.2129373226
 10
222.6340940041
 20
56.0308414372
 10
222.8673428578
 20
56.8697284065
 10
223.1869013149
 20
57.7117188111
 10
223.5859585417
 20
58.5388670875
 10
224.0560093262
 20
59.333544006
 10
224.5870353521
 20
60.078812408
 10
225.1677187215
 20
60.7587881912
 10
225.7856831766
 20
61.3589788525
 10
226.4277578779
 20
61.8665923699
 10
227.0802581179
 20
62.2708098426
 10
227.7292769868
 20
62.5630160769
 10
228.3462891338
 20
62.7342566616
  0
ARC
  5
1D2
330
1F
100
AcDbEntity
  8
0
  6
Continuous
 62
     7
370
     0
100
AcDbCircle
 10
226.878761651
 20
54.3447326818
 30
0.0
 40
4.435184224035379
100
AcDbArc
 50
178.8538542073
 51
198.9879615244
  0
LWPOLYLINE
  5
1D3
330
1F
100
AcDbEntity
  8
0
  6
Continuous
 62
     7
370
     0
100
AcDbPolyline
 90
       16
 70
   128
 43
0.0
 10
219.3957874601
 20
57.0608458487
 10
219.443975368
 20
57.7779587922
 10
219.5872910501
 20
58.5321354613
 10
219.8220227057
 20
59.3038430764
 10
220.142090908
 20
60.0730948157
 10
220.5392060588
 20
60.8199674632
 10
221.0030830842
 20
61.5251174097
 10
221.521707813
 20
62.1702816419
 10
222.0816481372
 20
62.7387507451
 10
222.6684018964
 20
63.2158016681
 10
223.2667724764
 20
63.5890790426
 10
223.8612623937
 20
63.8489151807
 10
224.4364746715
 20
63.9885804629
 10
224.9775116141
 20
64.0044576318
 10
225.4703606488
 20
63.8961354769
 10
225.4871654815
 20
63.889897787
  0
ARC
  5
1D4
330
1F
100
AcDbEntity
  8
0
  6
Continuous
 62
     7
370
     0
100
AcDbCircle
 10
222.0617378962
 20
56.8157194053
 30
0.0
 40
2.677196051966246
100
AcDbArc
 50
174.7465898984
 51
233.9412297082
  0
LWPOLYLINE
  5
1D5
330
1F
100
AcDbEntity
  8
0
  6
Continuous
 62
     7
370
     0
100
AcDbPolyline
 90
       18
 70
   128
 43
0.0
 10
219.0940107648
 20
57.0837812907
 10
219.1414374062
 20
57.8070349143
 10
219.2825495291
 20
58.5672372679
 10
219.5138724847
 20
59.3456696467
 10
219.8297103341
 20
60.123164462
 10
220.2222861013
 20
60.8805772111
 10
220.6819332679
 20
61.5992578785
 10
221.1973337954
 20
62.2615101608
 10
221.755796812
 20
62.851027209
 10
222.3435711051
 20
63.353293157
 10
222.9461837206
 20
63.7559405501
 10
223.5487963362
 20
64.0490548733
 10
224.1365706293
 20
64.225418679
 10
224.6950336459
 20
64.2806893051
 10
225.2104341734
 20
64.2135058053
 10
225.67008134
 20
64.0255224604
 10
226.0626571072
 20
63.7213680442
 10
226.2816503759
 20
63.4585164753
  0
LWPOLYLINE
  5
1D6
330
1F
100
AcDbEntity
  8
0
  6
Continuous
 62
     7
370
     0
100
AcDbPolyline
 90
        8
 70
   128
 43
0.0
 10
221.0195780454
 20
54.3433521987
 10
220.6819332679
 20
54.4016810005
 10
220.2222861013
 20
54.5896643454
 10
219.8297103341
 20
54.8938187616
 10
219.5138724847
 20
55.306654958
 10
219.2825495291
 20
55.8180075372
 10
219.1414374062
 20
56.4152853017
 10
219.0940107648
 20
57.0837812907
  0
ARC
  5
1D7
330
1F
100
AcDbEntity
  8
0
  6
Continuous
 62
     7
370
     0
100
AcDbCircle
 10
225.4773773095
 20
57.8474225636
 30
0.0
 40
8.13749876886473
100
AcDbArc
 50
122.5236664389
 51
177.6401911639
  0
ARC
  5
1D8
330
1F
100
AcDbEntity
  8
0
  6
Continuous
 62
     7
370
     0
100
AcDbCircle
 10
222.2754882007
 20
59.2258107345
 30
0.0
 40
7.056360515061169
100
AcDbArc
 50
159.6061801222
 51
178.7546482314
  0
ARC
  5
1D9
330
1F
100
AcDbEntity
  8
0
  6
Continuous
 62
     7
370
     0
100
AcDbCircle
 10
220.7493168869
 20
64.522305909
 30
0.0
 40
1.957271747279225
100
AcDbArc
 50
60.6461549847
 51
89.1801592717
  0
ARC
  5
1DA
330
1F
100
AcDbEntity
  8
0
  6
Continuous
 62
     7
370
     0
100
AcDbCircle
 10
217.943736694
 20
59.1288054265
 30
0.0
 40
2.734428271604548
100
AcDbArc
 50
174.7465898984
 51
233.9412297082
  0
OLE2FRAME
  5
1DB
330
1F
100
AcDbEntity
  8
0
100
AcDbOle2Frame
 70
     2
  3
Paintbrush-Bild
 10
13.8511154363
 20
38.264191557
 30
0.0
 11
51.6290888628
 21
31.9806341108
 31
0.0
 71
     2
 72
     0
 73
     1
 90
    12928
310
80552BED0767C5B32B40DDAF6807D121434000000000000000006FFBDDFB85D0
310
4940DDAF6807D121434000000000000000006FFBDDFB85D04940416F4BD60AFB
310
3F4000000000000000002BED0767C5B32B40416F4BD60AFB3F40000000000000
310
0000000000000100000000010000010000000100000000000100000000320000
310
D0CF11E0A1B11AE1000000000000000000000000000000003E000300FEFF0900
310
0600000000000000000000000100000001000000000000000010000002000000
310
01000000FEFFFFFF0000000000000000FFFFFFFFFFFFFFFFFFFFFFFFFFFFFFFF
310
FFFFFFFFFFFFFFFFFFFFFFFFFFFFFFFFFFFFFFFFFFFFFFFFFFFFFFFFFFFFFFFF
310
FFFFFFFFFFFFFFFFFFFFFFFFFFFFFFFFFFFFFFFFFFFFFFFFFFFFFFFFFFFFFFFF
310
FFFFFFFFFFFFFFFFFFFFFFFFFFFFFFFFFFFFFFFFFFFFFFFFFFFFFFFFFFFFFFFF
310
FFFFFFFFFFFFFFFFFFFFFFFFFFFFFFFFFFFFFFFFFFFFFFFFFFFFFFFFFFFFFFFF
310
FFFFFFFFFFFFFFFFFFFFFFFFFFFFFFFFFFFFFFFFFFFFFFFFFFFFFFFFFFFFFFFF
310
FFFFFFFFFFFFFFFFFFFFFFFFFFFFFFFFFFFFFFFFFFFFFFFFFFFFFFFFFFFFFFFF
310
FFFFFFFFFFFFFFFFFFFFFFFFFFFFFFFFFFFFFFFFFFFFFFFFFFFFFFFFFFFFFFFF
310
FFFFFFFFFFFFFFFFFFFFFFFFFFFFFFFFFFFFFFFFFFFFFFFFFFFFFFFFFFFFFFFF
310
FFFFFFFFFFFFFFFFFFFFFFFFFFFFFFFFFFFFFFFFFFFFFFFFFFFFFFFFFFFFFFFF
310
FFFFFFFFFFFFFFFFFFFFFFFFFFFFFFFFFFFFFFFFFFFFFFFFFFFFFFFFFFFFFFFF
310
FFFFFFFFFFFFFFFFFFFFFFFFFFFFFFFFFFFFFFFFFFFFFFFFFFFFFFFFFFFFFFFF
310
FFFFFFFFFFFFFFFFFFFFFFFFFFFFFFFFFFFFFFFFFFFFFFFFFFFFFFFFFFFFFFFF
310
FFFFFFFFFFFFFFFFFFFFFFFFFFFFFFFFFFFFFFFFFFFFFFFFFFFFFFFFFFFFFFFF
310
FDFFFFFFFEFFFFFFFEFFFFFFFEFFFFFF05000000060000000700000008000000
310
090000000A0000000B0000000C0000000D0000000E0000000F00000010000000
310
11000000120000001300000014000000150000001600000017000000FEFFFFFF
310
FFFFFFFFFFFFFFFFFFFFFFFFFFFFFFFFFFFFFFFFFFFFFFFFFFFFFFFFFFFFFFFF
310
FFFFFFFFFFFFFFFFFFFFFFFFFFFFFFFFFFFFFFFFFFFFFFFFFFFFFFFFFFFFFFFF
310
FFFFFFFFFFFFFFFFFFFFFFFFFFFFFFFFFFFFFFFFFFFFFFFFFFFFFFFFFFFFFFFF
310
FFFFFFFFFFFFFFFFFFFFFFFFFFFFFFFFFFFFFFFFFFFFFFFFFFFFFFFFFFFFFFFF
310
FFFFFFFFFFFFFFFFFFFFFFFFFFFFFFFFFFFFFFFFFFFFFFFFFFFFFFFFFFFFFFFF
310
FFFFFFFFFFFFFFFFFFFFFFFFFFFFFFFFFFFFFFFFFFFFFFFFFFFFFFFFFFFFFFFF
310
FFFFFFFFFFFFFFFFFFFFFFFFFFFFFFFFFFFFFFFFFFFFFFFFFFFFFFFFFFFFFFFF
310
FFFFFFFFFFFFFFFFFFFFFFFFFFFFFFFFFFFFFFFFFFFFFFFFFFFFFFFFFFFFFFFF
310
FFFFFFFFFFFFFFFFFFFFFFFFFFFFFFFFFFFFFFFFFFFFFFFFFFFFFFFFFFFFFFFF
310
FFFFFFFFFFFFFFFFFFFFFFFFFFFFFFFFFFFFFFFFFFFFFFFFFFFFFFFFFFFFFFFF
310
FFFFFFFFFFFFFFFFFFFFFFFFFFFFFFFFFFFFFFFFFFFFFFFFFFFFFFFFFFFFFFFF
310
FFFFFFFFFFFFFFFFFFFFFFFFFFFFFFFFFFFFFFFFFFFFFFFFFFFFFFFFFFFFFFFF
310
FFFFFFFFFFFFFFFFFFFFFFFFFFFFFFFFFFFFFFFFFFFFFFFFFFFFFFFFFFFFFFFF
310
52006F006F007400200045006E00740072007900000000000000000000000000
310
0000000000000000000000000000000000000000000000000000000000000000
310
16000500FFFFFFFFFFFFFFFF020000000A00030000000000C000000000000046
310
000000000000000000000000B0FF58999D23D20103000000C000000000000000
310
01004F006C006500000000000000000000000000000000000000000000000000
310
0000000000000000000000000000000000000000000000000000000000000000
310
0A000200FFFFFFFFFFFFFFFFFFFFFFFF00000000000000000000000000000000
310
0000000000000000000000000000000000000000000000001400000000000000
310
010043006F006D0070004F0062006A0000000000000000000000000000000000
310
0000000000000000000000000000000000000000000000000000000000000000
310
120002010100000003000000FFFFFFFF00000000000000000000000000000000
310
0000000000000000000000000000000000000000010000004D00000000000000
310
01004F006C006500310030004E00610074006900760065000000000000000000
310
0000000000000000000000000000000000000000000000000000000000000000
310
1A000200FFFFFFFFFFFFFFFFFFFFFFFF00000000000000000000000000000000
310
0000000000000000000000000000000000000000040000002426000000000000
310
FEFFFFFF02000000FEFFFFFFFFFFFFFFFFFFFFFFFFFFFFFFFFFFFFFFFFFFFFFF
310
FFFFFFFFFFFFFFFFFFFFFFFFFFFFFFFFFFFFFFFFFFFFFFFFFFFFFFFFFFFFFFFF
310
FFFFFFFFFFFFFFFFFFFFFFFFFFFFFFFFFFFFFFFFFFFFFFFFFFFFFFFFFFFFFFFF
310
FFFFFFFFFFFFFFFFFFFFFFFFFFFFFFFFFFFFFFFFFFFFFFFFFFFFFFFFFFFFFFFF
310
FFFFFFFFFFFFFFFFFFFFFFFFFFFFFFFFFFFFFFFFFFFFFFFFFFFFFFFFFFFFFFFF
310
FFFFFFFFFFFFFFFFFFFFFFFFFFFFFFFFFFFFFFFFFFFFFFFFFFFFFFFFFFFFFFFF
310
FFFFFFFFFFFFFFFFFFFFFFFFFFFFFFFFFFFFFFFFFFFFFFFFFFFFFFFFFFFFFFFF
310
FFFFFFFFFFFFFFFFFFFFFFFFFFFFFFFFFFFFFFFFFFFFFFFFFFFFFFFFFFFFFFFF
310
FFFFFFFFFFFFFFFFFFFFFFFFFFFFFFFFFFFFFFFFFFFFFFFFFFFFFFFFFFFFFFFF
310
FFFFFFFFFFFFFFFFFFFFFFFFFFFFFFFFFFFFFFFFFFFFFFFFFFFFFFFFFFFFFFFF
310
FFFFFFFFFFFFFFFFFFFFFFFFFFFFFFFFFFFFFFFFFFFFFFFFFFFFFFFFFFFFFFFF
310
FFFFFFFFFFFFFFFFFFFFFFFFFFFFFFFFFFFFFFFFFFFFFFFFFFFFFFFFFFFFFFFF
310
FFFFFFFFFFFFFFFFFFFFFFFFFFFFFFFFFFFFFFFFFFFFFFFFFFFFFFFFFFFFFFFF
310
FFFFFFFFFFFFFFFFFFFFFFFFFFFFFFFFFFFFFFFFFFFFFFFFFFFFFFFFFFFFFFFF
310
FFFFFFFFFFFFFFFFFFFFFFFFFFFFFFFFFFFFFFFFFFFFFFFFFFFFFFFFFFFFFFFF
310
FFFFFFFFFFFFFFFFFFFFFFFFFFFFFFFFFFFFFFFFFFFFFFFFFFFFFFFFFFFFFFFF
310
0100000200000000000000000000000000000000000000000000000000000000
310
0000000000000000000000000000000000000000000000000000000000000000
310
0100FEFF030A0000FFFFFFFF0A00030000000000C00000000000004607000000
310
5042727573680007000000504272757368000700000050427275736800F439B2
310
7100000000000000000000000000000000000000000000000000000000000000
310
0000000000000000000000000000000000000000000000000000000000000000
310
0000000000000000000000000000000000000000000000000000000000000000
310
0000000000000000000000000000000000000000000000000000000000000000
310
0000000000000000000000000000000000000000000000000000000000000000
310
0000000000000000000000000000000000000000000000000000000000000000
310
0000000000000000000000000000000000000000000000000000000000000000
310
0000000000000000000000000000000000000000000000000000000000000000
310
0000000000000000000000000000000000000000000000000000000000000000
310
0000000000000000000000000000000000000000000000000000000000000000
310
0000000000000000000000000000000000000000000000000000000000000000
310
0000000000000000000000000000000000000000000000000000000000000000
310
20260000424D0E260000000000003E00000028000000B40200006E0000000100
310
01000000000000000000130B0000130B00000200000002000000000000FFFFFF
310
FFFFFFFFFFFFFFFFFFFFFFFFFFFFFFFFFFFFFFFFFFFFFFFFFFFFFFFFFFFFFFFF
310
FFFFFFFFFFFFFFFFFFFFFFFFFFFFFFFFFFFFFFFFFFFFFFFFFFFFFFFFFFFFFFFF
310
FFFFFFFFFFFFFFFFFFFFFFFFFFFFFFFFFFFFFFFFFFFFFFFFF000FFFFFFFFFFFF
310
FFFFFFFFFFFFFFFFFFFFFFFFFFFFFFFFFFFFFFFFFFFFFFFFFFFFFFFFFFFFFFFF
310
FFFFFFFFFFFFFFFFFFFFFFFFFFFFFFFFFFFFFFFFFFFFFFFFFFFFFFFFFFFFFFFF
310
FFFFFFFFFFFFFFFFFFFFFFFFFFFFFFFFF000FFFFFFFFFFFFFFFFFFFFFFFFFFFF
310
FFFFFFFFFFFFFFFFFFFFFFFFFFFFFFFFFFFFFFFFFFFFFFFFFFFFFFFFFFFFFFFF
310
FFFFFFFFFFFFFFFFFFFFFFFFFFFFFFFFFFFFFFFFFFFFFFFFFFFFFFFFFFFFFFFF
310
FFFFFFFFFFFFFFFFF000FFFFFFFFFFFFFFFFFFFFFFFFFFFFFFFFFFFFFFFFFFFF
310
FFFFFFFFFFFFFFFFFFFFFFFFFFFFFFFFFFFFFFFFFFFFFFFFFFFFFFFFFFFFFFFF
310
FFFFFFFFFFFFFFFFFFFFFFFFFFFFFFFFFFFFFFFFFFFFFFFFFFFFFFFFFFFFFFFF
310
F000FFFFFFFFFFFFFFFFFFFFFFFFFFFFFFFFFFFFFFFFFFFFFFFFFFFFFFFFFFFF
310
FFFFFFFFFFFFFFFFFFFFFFFFFFFFFFFFFFFFFFFFFFFFFFFFFFFFFFFFFFFFFFFF
310
FFFFFFFFFFFFFFFFFFFFFFFFFFFFFFFFFFFFFFFFFFFFFFFFF000FFFFFFFFFFFF
310
FFFFFFFFFFFFFFFFFFFFFFFFFFFFFFFFFFFFFFFFFFFFFFFFFFFFFFFFFFFFFFFF
310
FFFFFFFFFFFFFFFFFFFFFFFFFFFFFFFFFFFFFFFFFFFFFFFFFFFFFFFFFFFFFFFF
310
FFFFFFFFFFFFFFFFFFFFFFFFFFFFFFFFF000FFFFFFFFFFFFFFFFFFFFFFFFFFFF
310
FFFFFFFFFFFFFFFFFFFFFFFFFFFFFFFFFFFFFFFFFFFFFFFFFFFFFFFFFFFFFFFF
310
FFFFFFFFFFFFFFFFFFFFFFFFFFFFFFFFFFFFFFFFFFFFFFFFFFFFFFFFFFFFFFFF
310
FFFFFFFFFFFFFFFFF000FFFFFFFFFFFFFFFFFFFFFFFFFFFFFFFFFFFFFFFFFFFF
310
FFFFFFFFFFFFFFFFFFFFFFFFFFFFFFFFFFFFFFFFFFFFFFFFFFFFFFFFFFFFFFFF
310
FFFFFFFFFFFFFFFFFFFFFFFFFFFFFFFFFFFFFFFFFFFFFFFFFFFFFFFFFFFFFFFF
310
F000FFFFFFFFFFFFFFFFFFFFFFFFFFFFFFFFFFFFFFFFFFFFFFFFFFFFFFFFFFFF
310
FFFFFFFFFFFFFFFFFFFFFFFFFFFFFFFFFFFFFFFFFFFFFFFFFFFFFFFFFFFFFFFF
310
FFFFFFFFFFFFFFFFFFFFFFFFFFFFFFFFFFFFFFFFFFFFFFFFF000FFFFFFFFFFFF
310
FFFFFFFFFFFFFFFFFFFFFFFFFFFFFFFFFFFFFFFFFFFFFFFFFFFFFFFFFFFFFFFF
310
FFFFFFFFFFFFFFFFFFFFFFFFFFFFFFFFFFFFFFFFFFFFFFFFFFFFFFFFFFFFFFFF
310
FFFFFFFFFFFFFFFFFFFFFFFFFFFFFFFFF000FFFFFFFFFFFFFFFFFFFFFFFFFFFF
310
FFFFFFFFFFFFFFFFFFFFFFFFFFFFFFFFFFFFFFFFFFFFFFFFFFFFFFFFFFFFFFFF
310
FFFFFFFFFFFFFFFFFFFFFFFFFFFFFFFFFFFFFFFFFFFFFFFFFFFFFFFFFFFFFFFF
310
FFFFFFFFFFFFFFFFF000FFFFFFFFFFFFFFFFFFFFFFFFFFFFFFFFFFFFFFFFFFFF
310
FFFFFFFFFFFFFFFFFFFFFFFFFFFFFFFFFFFFFFFFFFFFFFFFFFFFFFFFFFFFFFFF
310
FFFFFFFFFFFFFFFFFFFFFFFFFFFFFFFFFFFFFFFFFFFFFFFFFFFFFFFFFFFFFFFF
310
F000FFFFFFFFFFFFFFFFFFFFFFFFFFFFFFFFFFFFFFFFFFFFFFFFFFFFFFFFFFFF
310
FFFFFFFFFFFFFFFFFFFFFFFFFFFFFFFFFFFFFFFFFFFFFFFFFFFFFFFFFFFFFFFF
310
FFFFFFFFFFFFFFFFFFFFFFFFFFFFFFFFFFFFFFFFFFFFFFFFF000FFFFFFFFFFFF
310
FFFFFFFFFFFFFFFFFFFFFFFFFFFFFFFFFFFFFFFFFFFFFFFFFFFFFFFFFFFFFFFF
310
FFFFFFFFFFFFFFFFFFFFFFFFFFFFFFFFFFFFFFFFFFFFFFFFFFFFFFFFFFFFFFFF
310
FFFFFFFFFFFFFFFFFFFFFFFFFFFFFFFFF000FFFFFFFFFFFFFFFFFFFFFFFFFFFF
310
FFFFFFFFFFFFFFFFFFFFFFFFFFFFFFFFFFFFFFFFFFFFFFFFFFFFFFFFFFFFFFFF
310
FFFFFFFFFFFFFFFFFFFFFFFFFFFFFFFFFFFFFFFFFFFFFFFFFFFFFFFFFFFFFFFF
310
FFFFFFFFFFFFFFFFF000FFFFFFFFFFFFFFFFFFFFFFFFFFFFFFFFFFFFFFFFFFFF
310
FFFFFFFFFFFFFFFFFFFFFFFFFFFFFFFFFFFFFFFFFFFFFFFFFFFFFFFFFFFFFFFF
310
FFFFFFFFFFFFFFFFFFFFFFFFFFFFFFFFFFFFFFFFFFFFFFFFFFFFFFFFFFFFFFFF
310
F000FFFFFFFFFFFFFFFFFFFFFFFFFFFFFFFFFFFFFFFFFFFFFFFFFFFFFFFFFFFF
310
FFFFFFFFFFFFFFFFFFFFFFFFFFFFFFFFFFFFFFFFFFFFFFFFFFFFFFFFFFFFFFFF
310
FFFFFFFFFFFFFFFFFFFFFFFFFFFFFFFFFFFFFFFFFFFFFFFFF000FFFFFFFFFFFF
310
FFFFFFFFFFFFFFFFFFFFFFFFFFFFFFFFFFFFFFFFFFFFFFFFFFFFFFFFFFFFFFFF
310
FFFFFFFFFFFFFFFFFFFFFFFFFFFFFFFFFFFFFFFFFFFFFFFFFFFFFFFFFFFFFFFF
310
FFFFFFFFFFFFFFFFFFFFFFFFFFFFFFFFF000FFFFFFFFFFFFFFFFFFFFFFFFFFFF
310
FFFFFFFFFFFFFFFFFFFFFFFFFFFFFFFFFFFFFFFFFFFFFFFFFFFFFFFFFFFFFFFF
310
FFFFFFFFFFFFFFFFFFFFFFFFFFFFFFFFFFFFFFFFFFFFFFFFFFFFFFFFFFFFFFFF
310
FFFFFFFFFFFFFFFFF000FFFFF80003FFFFFFFFFFFFFFFFFFFFFFFFFFFFFFFFFF
310
FFFFF00007FFFFFFFFFF00007FFFFFF800000000000000007FFFFFFFFFFFFFFF
310
FFFFFFFC001FFFFFFFFFFFFFFC001FFFFFFFFFFFFFFFFFFFFFFFFFFE0007FFFF
310
F000FFFF8000007FFFFFFFF8000FFFFFC0007FFFFF80007FFFFF0000007FFFFF
310
FFF8000007FFFFF800000000000000007FFFFFF0001FFFFFFFFFFFC00001FFFF
310
FFFFFFFFC00001FFFFFFFF000000000003FFFFE000007FFFF000FFFE0000000F
310
FFFFFFF0000FFFFF80007FFFFF80007FFFFC0000001FFFFFFFC0000001FFFFF8
310
00000000000000007FFFFFF0001FFFFFFFFFFE0000003FFFFFFFFFFE0000003F
310
FFFFFF000000000003FFFF0000000FFFF000FFF800000003FFFFFFF00007FFFF
310
80007FFFFF80007FFFF000000007FFFFFF000000003FFFF80000000000000000
310
7FFFFFF0001FFFFFFFFFF80000000FFFFFFFFFF80000000FFFFFFF0000000000
310
03FFFC00000003FFF000FFE000000000FFFFFFF00007FFFF80003FFFFF80007F
310
FFC000000001FFFFFC000000001FFFF800000000000000007FFFFFF0001FFFFF
310
FFFFE000000003FFFFFFFFE000000003FFFFFF000000000003FFF000000000FF
310
F000FF80000000007FFFFFF00007FFFF80003FFFFF80007FFF8000000000FFFF
310
F80000000007FFF800000000000000007FFFFFF0001FFFFFFFFFC000000001FF
310
FFFFFFC000000001FFFFFF000000000003FFC0000000007FF000FF0000000000
310
3FFFFFE00007FFFF00003FFFFF80007FFE00000000003FFFF00000000003FFF8
310
00000000000000007FFFFFF0001FFFFFFFFF8000000000FFFFFFFF8000000000
310
FFFFFF000000000003FF80000000003FF000FE00000000001FFFFFE00003FFFF
310
00003FFFFF80007FFC00000000001FFFE00000000001FFF8000001FFFE000000
310
7FFFFFF0001FFFFFFFFE00000000003FFFFFFE00000000003FFFFF0000000000
310
03FF00000000001FF000FC00000000000FFFFFE00003FFFF00001FFFFF80007F
310
F800000000001FFFC00000000000FFF8000001FFFE0000007FFFFFF0001FFFFF
310
FFFC00000000001FFFFFFC00000000001FFFFF000000000003FE00000000000F
310
F000F8000000000007FFFFE00003FFFF00001FFFFF80007FF800000000000FFF
310
800000000000FFF8000001FFFE0000007FFFFFF0001FFFFFFFF800000000000F
310
FFFFF800000000000FFFFF000000000003FC000000000007F000F80000000000
310
03FFFFC00003FFFE00001FFFFF80007FF0000000000007FF0000000000007FF8
310
000001FFFE0000007FFFFFF0001FFFFFFFF0000000000007FFFFF00000000000
310
07FFFF000000000003F8000000000003F000F0000000000003FFFFC00001FFFE
310
00001FFFFF80007FE0000000000007FE0000000000003FF8000001FFFE000000
310
7FFFFFF0001FFFFFFFF0000000000007FFFFF0000000000007FFFF0000000000
310
03F800001F800003F000E00001FFF00001FFFFC00001FFFE00000FFFFF80007F
310
E00001FFE00003FE00001FFF00003FF8000001FFFE0000007FFFFFF0001FFFFF
310
FFE000003E000003FFFFE000003E000003FFFF000000000003F00001FFF80001
310
F000E00007FFFC0001FFFFC00001FFFE00000FFFFF80007FC0000FFFFC0003FC
310
0000FFFFC0001FF8000001FFFE0000007FFFFFF0001FFFFFFFC00003FFE00001
310
FFFFC00003FFE00001FFFF0001FFFFFFFFF00007FFFE0001F000E0000FFFFF00
310
00FFFF800001FFFC00000FFFFF80007FC0001FFFFE0001FC0001FFFFE0001FF8
310
000001FFFE0000007FFFFFF0001FFFFFFF80000FFFF80000FFFF80000FFFF800
310
00FFFF0003FFFFFFFFE0000FFFFF8000F000C0003FFFFF8000FFFF800000FFFC
310
000007FFFF80007F80003FFFFF0001FC0003FFFFF0001FF8000001FFFE000000
310
7FFFFFF0001FFFFFFF80003FFFFE0000FFFF80003FFFFE0000FFFF0003FFFFFF
310
FFE0003FFFFF8000F000C0003FFFFF8000FFFF800000FFFC000007FFFF80007F
310
80007FFFFF8001F80007FFFFF8000FF8000001FFFE0000007FFFFFF0001FFFFF
310
FF00007FFFFF00007FFF00007FFFFF00007FFF0003FFFFFFFFE0003FFFFFC000
310
F000C0007FFFFFC000FFFF000000FFFC000007FFFF80007F8000FFFFFF8000F8
310
000FFFFFF8000FF8000001FFFE0000007FFFFFF0001FFFFFFF0000FFFFFF8000
310
7FFF0000FFFFFF80007FFF0003FFFFFFFFC0007FFFFFC00070008000FFFFFFC0
310
00FFFF000000FFF8000007FFFF80007F8000FFFFFF8000F8000FFFFFF8000FF8
310
000001FFFE0000007FFFFFF0001FFFFFFE0001FFFFFFC0003FFE0001FFFFFFC0
310
003FFF0003FFFFFFFFC0007FFFFFE00070008000FFFFFFC0007FFF0000007FF8
310
000003FFFF80007F0001FFFFFF8000F8000FFFFFF8000FF8000001FFFE000000
310
7FFFFFF0001FFFFFFE0001FFFFFFC0003FFE0001FFFFFFC0003FFF0003FFFFFF
310
FFC000FFFFFFE00070008000FFFFFFC0007FFF0000007FF8000003FFFF80007F
310
0001FFFFFF8000F8001FFFFFF8000FF8000001FFFE0000007FFFFFF0001FFFFF
310
FE0003FFFFFFE0003FFE0003FFFFFFE0003FFF0003FFFFFFFFC000FFFFFFE000
310
70008000FFFFFFC0007FFE0000007FF8000003FFFF80007F0001FFFFFF8000F0
310
001FFFFFF8000FF8000001FFFE0000007FFFFFF0001FFFFFFC0003FFFFFFE000
310
1FFC0003FFFFFFE0001FFF0003FFFFFFFFC000FFFFFFC00070008000FFFFFF80
310
007FFE0000007FF0000003FFFF80007F0001FFFFFF0000F0001FFFFFF8000FF8
310
000001FFFE0000007FFFFFF0001FFFFFFC0007FFFFFFF0001FFC0007FFFFFFF0
310
001FFF0003FFFFFFFFC000FFFFFFC00070008001FFFFFF0000FFFE0000003FF0
310
000001FFFF80007F0001FFFFFF0000F8001FFFFFF0000FF8000001FFFE000000
310
7FFFFFF0001FFFFFFC0007FFFFFFF0001FFC0007FFFFFFF0001FFF0003FFFFFF
310
FFC001FFFFFF80007000FFFFFFFFFE0000FFFE0008003FF0008001FFFF80007F
310
FFFFFFFFFC0000FFFFFFFFFFE0000FF8000001FFFE0000007FFFFFF0001FFFFF
310
F8000FFFFFFFF8000FF8000FFFFFFFF8000FFF0003FFFFFFFFFFFFFFFFFF0000
310
7000FFFFFFFFFC0000FFFC0008003FF0008001FFFF80007FFFFFFFFFF80001FF
310
FFFFFFFF80000FF8000001FFFE0000007FFFFFF0001FFFFFF8000FFFFFFFF800
310
0FF8000FFFFFFFF8000FFF0003FFFFFFFFFFFFFFFFFE0000F000FFFFFFFFE000
310
00FFFC000C003FE000C001FFFF80007FFFFFFFFFC00001FFFFFFFFFE00001FF8
310
000001FFFE0000007FFFFFF0001FFFFFF8000FFFFFFFF8000FF8000FFFFFFFF8
310
000FFF0003FFFFFFFFFFFFFFFFF00000F000FFFFFFFE000001FFFC000C001FE0
310
00C000FFFF80007FFFFFFFFE000001FFFFFFFFE000001FF80FFFFFFFFFFFFFC0
310
7FFFFFF0001FFFFFF8000FFFFFFFF8000FF8000FFFFFFFF8000FFF0003FFFFFF
310
FFFFFFFFFF800000F000FFFFFFC0000001FFFC001C001FE001C000FFFF80007F
310
FFFFFF80000003FFFFFFF80000001FF80FFFFFFFFFFFFFC07FFFFFF0001FFFFF
310
F8001FFFFFFFFC000FF8001FFFFFFFFC000FFF0003FFFFFFFFFFFFFFF0000001
310
F000FFFFF800000001FFF8001C001FE001C000FFFF80007FFFFFF800000003FF
310
FFFF800000003FF80FFFFFFFFFFFFFC07FFFFFF0001FFFFFF8001FFFFFFFFC00
310
0FF8001FFFFFFFFC000FFF0003FFFFFFFFFFFFFE00000001F000FFFFC0000000
310
03FFF8001E001FC001E000FFFF80007FFFFF8000000007FFFFFC000000003FF8
310
0FFFFFFFFFFFFFC07FFFFFF0001FFFFFF8001FFFFFFFFC000FF8001FFFFFFFFC
310
000FFF0003FFFFFFFFFFFFE000000003F000FFFE0000000007FFF8001E000FC0
310
01E0007FFF80007FFFFE0000000007FFFFE0000000007FF80FFFFFFFFFFFFFC0
310
7FFFFFF0001FFFFFF0001FFFFFFFFC0007F0001FFFFFFFFC0007FF0003FFFFFF
310
FFFFFF0000000003F000FFF80000000007FFF8001E000FC003E0007FFF80007F
310
FFF0000000000FFFFF8000000000FFF80FFFFFFFFFFFFFC07FFFFFF0001FFFFF
310
F0001FFFFFFFFC0007F0001FFFFFFFFC0007FF0003FFFFFFFFFFFC0000000007
310
F000FFE0000000000FFFF0003E000FC003E0007FFF80007FFFC0000000001FFF
310
FE0000000001FFF80FFFFFFFFFFFFFC07FFFFFF0001FFFFFF0001FFFFFFFFC00
310
07F0001FFFFFFFFC0007FF0003FFFFFFFFFFF0000000000FF000FFC000000000
310
1FFFF0003F000F8003F0003FFF80007FFF80000000003FFFF80000000003FFF8
310
0FFFFFFFFFFFFFC07FFFFFF0001FFFFFF0001FFFFFFFFC0007F0001FFFFFFFFC
310
0007FF0003FFFFFFFFFFE0000000001FF000FF00000000007FFFF0003F000780
310
03F0003FFF80007FFF00000000007FFFF00000000007FFF80FFFFFFFFFFFFFC0
310
7FFFFFF0001FFFFFF0001FFFFFFFFC0007F0001FFFFFFFFC0007FF0003FFFFFF
310
FFFF80000000007FF000FE0000000000FFFFE0003F00078007F0003FFF80007F
310
FE0000000001FFFFE0000000001FFFF80FFFFFFFFFFFFFC07FFFFFF0001FFFFF
310
F0001FFFFFFFFC0007F0001FFFFFFFFC0007FF0003FFFFFFFFFF0000000000FF
310
F000FC0000000003FFFFE0007F00078007F0003FFF80007FFC0000000007FFFF
310
C0000000007FFFF80FFFFFFFFFFFFFC07FFFFFF0001FFFFFF8001FFFFFFFFC00
310
0FF8001FFFFFFFFC000FFF0003FFFFFFFFFE0000000003FFF000FC000000000F
310
FFFFE0007F80070007F8001FFF80007FF8000000001FFFFF8000000001FFFFF8
310
0FFFFFFFFFFFFFC07FFFFFF0001FFFFFF8001FFFFFFFFC000FF8001FFFFFFFFC
310
000FFF0003FFFFFFFFFC000000000FFFF000F8000000007FFFFFE0007F800700
310
07F8001FFF80007FF000000000FFFFFF800000000FFFFFF80FFFFFFFFFFFFFC0
310
7FFFFFF0001FFFFFF8000FFFFFFFF8000FF8000FFFFFFFF8000FFF0003FFFFFF
310
FFFC000000007FFFF000F800000007FFFFFFC0007F8003000FF8001FFF80007F
310
F000000007FFFFFF000000007FFFFFF80FFFFFFFFFFFFFC07FFFFFF0001FFFFF
310
F8000FFFFFFFF8000FF8000FFFFFFFF8000FFF0003FFFFFFFFF80000000FFFFF
310
F000F0000000FFFFFFFFC000FF8003000FF8001FFF80007FE0000000FFFFFFFF
310
0000000FFFFFFFF8000001FFFE0000007FFFFFF0001FFFFFF8000FFFFFFFF800
310
0FF8000FFFFFFFF8000FFF0003FFFFFFFFF8000000FFFFFFF000F000000FFFFF
310
FFFFC000FFC002000FF8000FFF80007FE000001FFFFFFFFE000001FFFFFFFFF8
310
000001FFFE0000007FFFFFF0001FFFFFF8000FFFFFFFF8000FF8000FFFFFFFF8
310
000FFF0003FFFFFFFFF000001FFFFFFFF000E00000FFFFFFFFFFC000FFC00200
310
0FFC000FFF80007FE00001FFFFFFFFFE00001FFFFFFFFFF8000001FFFE000000
310
7FFFFFF0001FFFFFFC000FFFFFFFF8001FFC000FFFFFFFF8001FFF0003FFFFFF
310
FFF00001FFFFFFFFF000E00007FFFFFFFFFF8000FFC000001FFC000FFF80007F
310
C0000FFFFFFFFFFE0000FFFFFFFFFFF8000001FFFE0000007FFFFFF0001FFFFF
310
FC0007FFFFFFF0001FFC0007FFFFFFF0001FFF0003FFFFFFFFF00007FFFFFFFF
310
F000E0001FFFFFFFFFFF8000FFC000001FFC000FFF80007FC0003FFFFFFFFFFE
310
0001FFFFFFFFFFF8000001FFFE0000007FFFFFF0001FFFFFFC0007FFFFFFF000
310
1FFC0007FFFFFFF0001FFF0003FFFFFFFFF0001FFFFFFFFFF000E0003FFFFF00
310
03FF8001FFE000001FFC0007FF80007FC0007FFFFF0007FC0003FFFFF0003FF8
310
000001FFFE0000007FFFFFF0001FFFFFFC0003FFFFFFE0001FFC0003FFFFFFE0
310
001FFF0003FFFFFFFFF0003FFFFFFFFFF000E0003FFFFF0001FF8001FFE00000
310
1FFE0007FF80007FC0007FFFFE0003FC0007FFFFE0003FF8000001FFFE000000
310
7FFFFFF0001FFFFFFE0003FFFFFFE0003FFE0003FFFFFFE0003FFF0003FFFFFF
310
FFF0003FFFFF8001F000E0003FFFFF0001FF0001FFE000001FFE0007FF80007F
310
C0007FFFFE0003FC0007FFFFE0003FF8000001FFFE0000007FFFFFF0001FFFFF
310
FE0001FFFFFFC0003FFE0001FFFFFFC0003FFF0003FFFFFFFFF0003FFFFF0001
310
F000E0003FFFFF0003FF0001FFE000003FFE0007FF80007FC0007FFFFE0003FC
310
0007FFFFE0003FF8000001FFFE0000007FFFFFF0001FFFFFFF0001FFFFFFC000
310
7FFF0001FFFFFFC0007FFF0003FFFFFFFFF0003FFFFF0001F000E0003FFFFE00
310
03FF0003FFF000003FFE0003FF80007FC0007FFFFC0003FE0007FFFFE0003FF8
310
000001FFFE0000007FFFFFF0001FFFFFFF0000FFFFFF80007FFF0000FFFFFF80
310
007FFF0003FFFFFFFFF0003FFFFF0001F000E0003FFFFE0003FF0003FFF00000
310
3FFF0003FF80007FC0007FFFFC0007FE0007FFFFC0003FF8000001FFFE000000
310
7FFFFFF0001FFFFFFF80007FFFFF0000FFFF80007FFFFF0000FFFF0003FFFFFF
310
FFF0003FFFFF0003F000E0003FFFFC0003FE0003FFF000003FFF0003FF80007F
310
E0003FFFF80007FE0003FFFFC0007FF8000001FFFE0000007FFFFFF0001FFFFF
310
FF80003FFFFE0000FFFF80003FFFFE0000FFFF0003FFFFFFFFF0001FFFFE0003
310
F000F0001FFFF80003FE0003FFF000007FFF0001FF80007FE0003FFFF00007FE
310
0001FFFF80007FF8000001FFFE0000007FFFFFF0001FFFFFFFC0000FFFF80001
310
FFFFC0000FFFF80001FFFF0003FFFFFFFFF0001FFFFC0003F000F0000FFFF000
310
07FE0007FFF800007FFF0001FF80007FE0001FFFE00007FF0000FFFE00007FF8
310
000001FFFE0000007FFFFFF0001FFFFFFFC00003FFE00001FFFFC00003FFE000
310
01FFFF0003FFFFFFFFF8000FFFF80003F000F00003FFC00007FC0007FFF80000
310
7FFF8001FF80007FF00007FF80000FFF00007FF80000FFF8000001FFFE000000
310
7F80000000000001FFE000003E000003FFFFE000003E000003FFFF0003FFFFFF
310
FFF80003FFE00007F000F800000000000FFC0007FFF800007FFF8001FF80007F
310
F000000000000FFF000000000000FFF8000001FFFE0000007F80000000000001
310
FFF0000000000007FFFFF0000000000007FFFF0003FFFFFFFFFC00007E000007
310
F000F800000000000FFC0007FFF80000FFFF8000FF80007FF800000000001FFF
310
800000000001FFF8000001FFFE0000007F80000000000001FFF800000000000F
310
FFFFF800000000000FFFFF0003FFFFFFFFFC00000000000FF000FC0000000000
310
1FFC0007FFFC0000FFFF8000FF80007FF800000000003FFFC00000000001FFF8
310
000001FFFE0000007F80000000000001FFF800000000000FFFFFF80000000000
310
0FFFFF0003FFFFFFFFFE00000000001FF000FE00000000003FF8000FFFFC0000
310
FFFF8000FF80007FFC00000000003FFFC00000000003FFF8000001FFFE000000
310
7F80000000000001FFFC00000000001FFFFFFC00000000001FFFFF0003FFFFFF
310
FFFF00000000001FF000FF00000000003FF8000FFFFC0000FFFFC000FF80007F
310
FE00000000007FFFE00000000007FFF8000001FFFE0000007F80000000000001
310
FFFE00000000003FFFFFFE00000000003FFFFF0003FFFFFFFFFF80000000003F
310
F000FF80000000007FF8000FFFFC0001FFFFC0007F80007FFF0000000000FFFF
310
F0000000000FFFF800000000000000007F80000000000001FFFF8000000000FF
310
FFFFFF8000000000FFFFFF0003FFFFFFFFFFC0000000007FF000FFC000000000
310
FFF8000FFFFE0001FFFFC0007F80007FFF8000000001FFFFF8000000001FFFF8
310
00000000000000007F80000000000001FFFFC000000001FFFFFFFFC000000001
310
FFFFFF0003FFFFFFFFFFE000000000FFF000FFE000000003FFF0001FFFFE0001
310
FFFFC0007F80007FFFC000000007FFFFFE000000003FFFF80000000000000000
310
7F80000000000001FFFFE000000003FFFFFFFFE000000003FFFFFF0003FFFFFF
310
FFFFF000000003FFF000FFF80000000FFFF0001FFFFE0001FFFFE0007F80007F
310
FFF00000000FFFFFFF00000000FFFFF800000000000000007F80000000000001
310
FFFFF80000000FFFFFFFFFF80000000FFFFFFF0003FFFFFFFFFFFC0000000FFF
310
F000FFFE0000003FFFF0001FFFFE0003FFFFE0003F80007FFFFC0000003FFFFF
310
FFC0000003FFFFF800000000000000007F80000000000001FFFFFE0000003FFF
310
FFFFFFFE0000003FFFFFFF0003FFFFFFFFFFFF0000003FFFF000FFFF800000FF
310
FFF0001FFFFF0003FFFFE0003F80007FFFFF000001FFFFFFFFF800001FFFFFF8
310
00000000000000007F80000000000001FFFFFFC00001FFFFFFFFFFFFC00001FF
310
FFFFFF0003FFFFFFFFFFFFC00000FFFFF000FFFFF8000FFFFFFFFFFFFFFFFFFF
310
FFFFFFFFFFFFFFFFFFFFF0001FFFFFFFFFFF0000FFFFFFF80000000000000000
310
7FFFFFFFFFFFFFFFFFFFFFFC001FFFFFFFFFFFFFFC001FFFFFFFFFFFFFFFFFFF
310
FFFFFFFC001FFFFFF000FFFFFFFFFFFFFFFFFFFFFFFFFFFFFFFFFFFFFFFFFFFF
310
FFFFFFFFFFFFFFFFFFFFFFFFFFFFFFFFFFFFFFFFFFFFFFFFFFFFFFFFFFFFFFFF
310
FFFFFFFFFFFFFFFFFFFFFFFFFFFFFFFFFFFFFFFFFFFFFFFFFFFFFFFFFFFFFFFF
310
F000FFFFFFFFFFFFFFFFFFFFFFFFFFFFFFFFFFFFFFFFFFFFFFFFFFFFFFFFFFFF
310
FFFFFFFFFFFFFFFFFFFFFFFFFFFFFFFFFFFFFFFFFFFFFFFFFFFFFFFFFFFFFFFF
310
FFFFFFFFFFFFFFFFFFFFFFFFFFFFFFFFFFFFFFFFFFFFFFFFF000FFFFFFFFFFFF
310
FFFFFFFFFFFFFFFFFFFFFFFFFFFFFFFFFFFFFFFFFFFFFFFFFFFFFFFFFFFFFFFF
310
FFFFFFFFFFFFFFFFFFFFFFFFFFFFFFFFFFFFFFFFFFFFFFFFFFFFFFFFFFFFFFFF
310
FFFFFFFFFFFFFFFFFFFFFFFFFFFFFFFFF000FFFFFFFFFFFFFFFFFFFFFFFFFFFF
310
FFFFFFFFFFFFFFFFFFFFFFFFFFFFFFFFFFFFFFFFFFFFFFFFFFFFFFFFFFFFFFFF
310
FFFFFFFFFFFFFFFFFFFFFFFFFFFFFFFFFFFFFFFFFFFFFFFFFFFFFFFFFFFFFFFF
310
FFFFFFFFFFFFFFFFF000FFFFFFFFFFFFFFFFFFFFFFFFFFFFFFFFFFFFFFFFFFFF
310
FFFFFFFFFFFFFFFFFFFFFFFFFFFFFFFFFFFFFFFFFFFFFFFFFFFFFFFFFFFFFFFF
310
FFFFFFFFFFFFFFFFFFFFFFFFFFFFFFFFFFFFFFFFFFFFFFFFFFFFFFFFFFFFFFFF
310
F000FFFFFFFFFFFFFFFFFFFFFFFFFFFFFFFFFFFFFFFFFFFFFFFFFFFFFFFFFFFF
310
FFFFFFFFFFFFFFFFFFFFFFFFFFFFFFFFFFFFFFFFFFFFFFFFFFFFFFFFFFFFFFFF
310
FFFFFFFFFFFFFFFFFFFFFFFFFFFFFFFFFFFFFFFFFFFFFFFFF000FFFFFFFFFFFF
310
FFFFFFFFFFFFFFFFFFFFFFFFFFFFFFFFFFFFFFFFFFFFFFFFFFFFFFFFFFFFFFFF
310
FFFFFFFFFFFFFFFFFFFFFFFFFFFFFFFFFFFFFFFFFFFFFFFFFFFFFFFFFFFFFFFF
310
FFFFFFFFFFFFFFFFFFFFFFFFFFFFFFFFF000FFFFFFFFFFFFFFFFFFFFFFFFFFFF
310
FFFFFFFFFFFFFFFFFFFFFFFFFFFFFFFFFFFFFFFFFFFFFFFFFFFFFFFFFFFFFFFF
310
FFFFFFFFFFFFFFFFFFFFFFFFFFFFFFFFFFFFFFFFFFFFFFFFFFFFFFFFFFFFFFFF
310
FFFFFFFFFFFFFFFFF000FFFFFFFFFFFFFFFFFFFFFFFFFFFFFFFFFFFFFFFFFFFF
310
FFFFFFFFFFFFFFFFFFFFFFFFFFFFFFFFFFFFFFFFFFFFFFFFFFFFFFFFFFFFFFFF
310
FFFFFFFFFFFFFFFFFFFFFFFFFFFFFFFFFFFFFFFFFFFFFFFFFFFFFFFFFFFFFFFF
310
F000FFFFFFFFFFFFFFFFFFFFFFFFFFFFFFFFFFFFFFFFFFFFFFFFFFFFFFFFFFFF
310
FFFFFFFFFFFFFFFFFFFFFFFFFFFFFFFFFFFFFFFFFFFFFFFFFFFFFFFFFFFFFFFF
310
FFFFFFFFFFFFFFFFFFFFFFFFFFFFFFFFFFFFFFFFFFFFFFFFF000FFFFFFFFFFFF
310
FFFFFFFFFFFFFFFFFFFFFFFFFFFFFFFFFFFFFFFFFFFFFFFFFFFFFFFFFFFFFFFF
310
FFFFFFFFFFFFFFFFFFFFFFFFFFFFFFFFFFFFFFFFFFFFFFFFFFFFFFFFFFFFFFFF
310
FFFFFFFFFFFFFFFFFFFFFFFFFFFFFFFFF000FFFFFFFFFFFFFFFFFFFFFFFFFFFF
310
FFFFFFFFFFFFFFFFFFFFFFFFFFFFFFFFFFFFFFFFFFFFFFFFFFFFFFFFFFFFFFFF
310
FFFFFFFFFFFFFFFFFFFFFFFFFFFFFFFFFFFFFFFFFFFFFFFFFFFFFFFFFFFFFFFF
310
FFFFFFFFFFFFFFFFF000FFFFFFFFFFFFFFFFFFFFFFFFFFFFFFFFFFFFFFFFFFFF
310
FFFFFFFFFFFFFFFFFFFFFFFFFFFFFFFFFFFFFFFFFFFFFFFFFFFFFFFFFFFFFFFF
310
FFFFFFFFFFFFFFFFFFFFFFFFFFFFFFFFFFFFFFFFFFFFFFFFFFFFFFFFFFFFFFFF
310
F000FFFFFFFFFFFFFFFFFFFFFFFFFFFFFFFFFFFFFFFFFFFFFFFFFFFFFFFFFFFF
310
FFFFFFFFFFFFFFFFFFFFFFFFFFFFFFFFFFFFFFFFFFFFFFFFFFFFFFFFFFFFFFFF
310
FFFFFFFFFFFFFFFFFFFFFFFFFFFFFFFFFFFFFFFFFFFFFFFFF000FFFFFFFFFFFF
310
FFFFFFFFFFFFFFFFFFFFFFFFFFFFFFFFFFFFFFFFFFFFFFFFFFFFFFFFFFFFFFFF
310
FFFFFFFFFFFFFFFFFFFFFFFFFFFFFFFFFFFFFFFFFFFFFFFFFFFFFFFFFFFFFFFF
310
FFFFFFFFFFFFFFFFFFFFFFFFFFFFFFFFF000FFFFFFFFFFFFFFFFFFFFFFFFFFFF
310
FFFFFFFFFFFFFFFFFFFFFFFFFFFFFFFFFFFFFFFFFFFFFFFFFFFFFFFFFFFFFFFF
310
FFFFFFFFFFFFFFFFFFFFFFFFFFFFFFFFFFFFFFFFFFFFFFFFFFFFFFFFFFFFFFFF
310
FFFFFFFFFFFFFFFFF000FFFFFFFFFFFFFFFFFFFFFFFFFFFFFFFFFFFFFFFFFFFF
310
FFFFFFFFFFFFFFFFFFFFFFFFFFFFFFFFFFFFFFFFFFFFFFFFFFFFFFFFFFFFFFFF
310
FFFFFFFFFFFFFFFFFFFFFFFFFFFFFFFFFFFFFFFFFFFFFFFFFFFFFFFFFFFFFFFF
310
F000FFFFFFFFFFFFFFFFFFFFFFFFFFFFFFFFFFFFFFFFFFFFFFFFFFFFFFFFFFFF
310
FFFFFFFFFFFFFFFFFFFFFFFFFFFFFFFFFFFFFFFFFFFFFFFFFFFFFFFFFFFFFFFF
310
FFFFFFFFFFFFFFFFFFFFFFFFFFFFFFFFFFFFFFFFFFFFFFFFF000FFFFFFFFFFFF
310
FFFFFFFFFFFFFFFFFFFFFFFFFFFFFFFFFFFFFFFFFFFFFFFFFFFFFFFFFFFFFFFF
310
FFFFFFFFFFFFFFFFFFFFFFFFFFFFFFFFFFFFFFFFFFFFFFFFFFFFFFFFFFFFFFFF
310
FFFFFFFFFFFFFFFFFFFFFFFFFFFFFFFFF000FFFFFFFFFFFFFFFFFFFFFFFFFFFF
310
FFFFFFFFFFFFFFFFFFFFFFFFFFFFFFFFFFFFFFFFFFFFFFFFFFFFFFFFFFFFFFFF
310
FFFFFFFFFFFFFFFFFFFFFFFFFFFFFFFFFFFFFFFFFFFFFFFFFFFFFFFFFFFFFFFF
310
FFFFFFFFFFFFFFFFF000FFFFFFFFFFFFFFFFFFFFFFFFFFFFFFFFFFFFFFFFFFFF
310
FFFFFFFFFFFFFFFFFFFFFFFFFFFFFFFFFFFFFFFFFFFFFFFFFFFFFFFFFFFFFFFF
310
FFFFFFFFFFFFFFFFFFFFFFFFFFFFFFFFFFFFFFFFFFFFFFFFFFFFFFFFFFFFFFFF
310
F000FFFFFFFFFFFFFFFFFFFFFFFFFFFFFFFFFFFFFFFFFFFFFFFFFFFFFFFFFFFF
310
FFFFFFFFFFFFFFFFFFFFFFFFFFFFFFFFFFFFFFFFFFFFFFFFFFFFFFFFFFFFFFFF
310
FFFFFFFFFFFFFFFFFFFFFFFFFFFFFFFFFFFFFFFFFFFFFFFFF000FFFFFFFFFFFF
310
FFFFFFFFFFFFFFFFFFFFFFFFFFFFFFFFFFFFFFFFFFFFFFFFFFFFFFFFFFFFFFFF
310
FFFFFFFFFFFFFFFFFFFFFFFFFFFFFFFFFFFFFFFFFFFFFFFFFFFFFFFFFFFFFFFF
310
FFFFFFFFFFFFFFFFFFFFFFFFFFFFFFFFF0000000000000000000000000000000
310
0000000000000000000000000000000000000000000000000000000000000000
310
0000000000000000000000000000000000000000000000000000000000000000
310
0000000000000000000000000000000000000000000000000000000000000000
310
0000000000000000000000000000000000000000000000000000000000000000
310
0000000000000000000000000000000000000000000000000000000000000000
310
0000000000000000000000000000000000000000000000000000000000000000
310
0000000000000000000000000000000000000000000000000000000000000000
310
0000000000000000000000000000000000000000000000000000000000000000
310
0000000000000000000000000000000000000000000000000000000000000000
310
0000000000000000000000000000000000000000000000000000000000000000
310
0000000000000000000000000000000000000000000000000000000000000000
310
0000000000000000000000000000000000000000000000000000000000000000
310
0000000000000000000000000000000000000000000000000000000000000000
310
0000000000000000000000000000000000000000000000000000000000000000
310
0000000000000000000000000000000000000000000000000000000000000000
  1
OLE
  0
ENDSEC
  0
SECTION
  2
OBJECTS
  0
DICTIONARY
  5
C
330
0
100
AcDbDictionary
281
     1
  3
ACAD_GROUP
350
D
  3
ACAD_LAYOUT
350
1A
  3
ACAD_MLINESTYLE
350
17
  3
ACAD_PLOTSETTINGS
350
19
  3
ACAD_PLOTSTYLENAME
350
E
  3
ACAD_SCALELIST
350
47
  0
DICTIONARY
  5
D
102
{ACAD_REACTORS
330
C
102
}
330
C
100
AcDbDictionary
281
     1
  0
DICTIONARY
  5
1A
102
{ACAD_REACTORS
330
C
102
}
330
C
100
AcDbDictionary
281
     1
  3
Layout1
350
1E
  3
Layout2
350
26
  3
Model
350
22
  0
DICTIONARY
  5
17
102
{ACAD_REACTORS
330
C
102
}
330
C
100
AcDbDictionary
281
     1
  3
Standard
350
18
  0
DICTIONARY
  5
19
102
{ACAD_REACTORS
330
C
102
}
330
C
100
AcDbDictionary
281
     1
  0
ACDBDICTIONARYWDFLT
  5
E
102
{ACAD_REACTORS
330
C
102
}
330
C
100
AcDbDictionary
281
     1
  3
Normal
350
F
100
AcDbDictionaryWithDefault
340
F
  0
DICTIONARY
  5
47
102
{ACAD_REACTORS
330
C
102
}
330
C
100
AcDbDictionary
281
     1
  3
A0
350
48
  3
A1
350
49
  3
A2
350
4A
  3
A3
350
4B
  3
A4
350
4C
  3
A5
350
4D
  3
A6
350
4E
  3
A7
350
4F
  3
A8
350
50
  3
A9
350
51
  3
B0
350
52
  3
B1
350
53
  3
B2
350
54
  3
B3
350
55
  3
B4
350
56
  3
B5
350
57
  3
B6
350
58
  3
B7
350
59
  3
B8
350
5A
  3
B9
350
5B
  3
C0
350
5C
  3
C1
350
5D
  3
C2
350
5E
  3
C3
350
5F
  3
C4
350
60
  3
C5
350
61
  3
C6
350
62
  3
C7
350
63
  3
C8
350
64
  3
C9
350
65
  3
D0
350
66
  3
D1
350
67
  3
D2
350
68
  0
LAYOUT
  5
1E
102
{ACAD_REACTORS
330
1A
102
}
330
1A
100
AcDbPlotSettings
  1

  2
none_device
  4

  6

 40
0.0
 41
0.0
 42
0.0
 43
0.0
 44
0.0
 45
0.0
 46
0.0
 47
0.0
 48
0.0
 49
0.0
140
0.0
141
0.0
142
1.0
143
1.0
 70
   688
 72
     1
 73
     0
 74
     5
  7

 75
    16
147
1.0
148
0.0
149
0.0
100
AcDbLayout
  1
Layout1
 70
     1
 71
     1
 10
0.0
 20
0.0
 11
420.0
 21
297.0
 12
0.0
 22
0.0
 32
0.0
 14
1.0000000000E+20
 24
1.0000000000E+20
 34
1.0000000000E+20
 15
-1.0000000000E+20
 25
-1.0000000000E+20
 35
-1.0000000000E+20
146
0.0
 13
0.0
 23
0.0
 33
0.0
 16
1.0
 26
0.0
 36
0.0
 17
0.0
 27
1.0
 37
0.0
 76
     0
330
1B
  0
LAYOUT
  5
26
102
{ACAD_REACTORS
330
1A
102
}
330
1A
100
AcDbPlotSettings
  1

  2
none_device
  4

  6

 40
0.0
 41
0.0
 42
0.0
 43
0.0
 44
0.0
 45
0.0
 46
0.0
 47
0.0
 48
0.0
 49
0.0
140
0.0
141
0.0
142
1.0
143
1.0
 70
   688
 72
     1
 73
     0
 74
     5
  7

 75
    16
147
1.0
148
0.0
149
0.0
100
AcDbLayout
  1
Layout2
 70
     1
 71
     2
 10
0.0
 20
0.0
 11
0.0
 21
0.0
 12
0.0
 22
0.0
 32
0.0
 14
0.0
 24
0.0
 34
0.0
 15
0.0
 25
0.0
 35
0.0
146
0.0
 13
0.0
 23
0.0
 33
0.0
 16
1.0
 26
0.0
 36
0.0
 17
0.0
 27
1.0
 37
0.0
 76
     0
330
23
  0
LAYOUT
  5
22
102
{ACAD_REACTORS
330
1A
102
}
330
1A
100
AcDbPlotSettings
  1

  2
none_device
  4
Letter_(8.50_x_11.00_Inches)
  6

 40
6.35
 41
6.35
 42
6.35000508
 43
6.35000508
 44
215.9
 45
279.4
 46
0.0
 47
0.0
 48
0.0
 49
0.0
140
0.0
141
0.0
142
1.0
143
1.0
 70
  1712
 72
     1
 73
     0
 74
     0
  7

 75
     0
147
1.0
148
0.0
149
0.0
100
AcDbLayout
  1
Model
 70
     1
 71
     0
 10
0.0
 20
0.0
 11
297.0
 21
210.0
 12
0.0
 22
0.0
 32
0.0
 14
0.0
 24
0.0
 34
0.0
 15
297.0
 25
210.0
 35
0.0
146
0.0
 13
0.0
 23
0.0
 33
0.0
 16
1.0
 26
0.0
 36
0.0
 17
0.0
 27
1.0
 37
0.0
 76
     0
330
1F
331
29
  0
MLINESTYLE
  5
18
102
{ACAD_REACTORS
330
17
102
}
330
17
100
AcDbMlineStyle
  2
Standard
 70
     0
  3

 62
   256
 51
90.0
 52
90.0
 71
     2
 49
0.5
 62
   256
  6
BYLAYER
 49
-0.5
 62
   256
  6
BYLAYER
  0
ACDBPLACEHOLDER
  5
F
102
{ACAD_REACTORS
330
E
102
}
330
E
  0
SCALE
  5
48
102
{ACAD_REACTORS
330
47
102
}
330
47
100
AcDbScale
 70
     0
300
1:1
140
1.0
141
1.0
290
     1
  0
SCALE
  5
49
102
{ACAD_REACTORS
330
47
102
}
330
47
100
AcDbScale
 70
     0
300
1:2
140
1.0
141
2.0
290
     0
  0
SCALE
  5
4A
102
{ACAD_REACTORS
330
47
102
}
330
47
100
AcDbScale
 70
     0
300
1:4
140
1.0
141
4.0
290
     0
  0
SCALE
  5
4B
102
{ACAD_REACTORS
330
47
102
}
330
47
100
AcDbScale
 70
     0
300
1:5
140
1.0
141
5.0
290
     0
  0
SCALE
  5
4C
102
{ACAD_REACTORS
330
47
102
}
330
47
100
AcDbScale
 70
     0
300
1:8
140
1.0
141
8.0
290
     0
  0
SCALE
  5
4D
102
{ACAD_REACTORS
330
47
102
}
330
47
100
AcDbScale
 70
     0
300
1:10
140
1.0
141
10.0
290
     0
  0
SCALE
  5
4E
102
{ACAD_REACTORS
330
47
102
}
330
47
100
AcDbScale
 70
     0
300
1:16
140
1.0
141
16.0
290
     0
  0
SCALE
  5
4F
102
{ACAD_REACTORS
330
47
102
}
330
47
100
AcDbScale
 70
     0
300
1:20
140
1.0
141
20.0
290
     0
  0
SCALE
  5
50
102
{ACAD_REACTORS
330
47
102
}
330
47
100
AcDbScale
 70
     0
300
1:30
140
1.0
141
30.0
290
     0
  0
SCALE
  5
51
102
{ACAD_REACTORS
330
47
102
}
330
47
100
AcDbScale
 70
     0
300
1:40
140
1.0
141
40.0
290
     0
  0
SCALE
  5
52
102
{ACAD_REACTORS
330
47
102
}
330
47
100
AcDbScale
 70
     0
300
1:50
140
1.0
141
50.0
290
     0
  0
SCALE
  5
53
102
{ACAD_REACTORS
330
47
102
}
330
47
100
AcDbScale
 70
     0
300
1:100
140
1.0
141
100.0
290
     0
  0
SCALE
  5
54
102
{ACAD_REACTORS
330
47
102
}
330
47
100
AcDbScale
 70
     0
300
2:1
140
2.0
141
1.0
290
     0
  0
SCALE
  5
55
102
{ACAD_REACTORS
330
47
102
}
330
47
100
AcDbScale
 70
     0
300
4:1
140
4.0
141
1.0
290
     0
  0
SCALE
  5
56
102
{ACAD_REACTORS
330
47
102
}
330
47
100
AcDbScale
 70
     0
300
8:1
140
8.0
141
1.0
290
     0
  0
SCALE
  5
57
102
{ACAD_REACTORS
330
47
102
}
330
47
100
AcDbScale
 70
     0
300
10:1
140
10.0
141
1.0
290
     0
  0
SCALE
  5
58
102
{ACAD_REACTORS
330
47
102
}
330
47
100
AcDbScale
 70
     0
300
100:1
140
100.0
141
1.0
290
     0
  0
SCALE
  5
59
102
{ACAD_REACTORS
330
47
102
}
330
47
100
AcDbScale
 70
     0
300
1/128" = 1'-0"
140
0.0078125
141
12.0
290
     0
  0
SCALE
  5
5A
102
{ACAD_REACTORS
330
47
102
}
330
47
100
AcDbScale
 70
     0
300
1/64" = 1'-0"
140
0.015625
141
12.0
290
     0
  0
SCALE
  5
5B
102
{ACAD_REACTORS
330
47
102
}
330
47
100
AcDbScale
 70
     0
300
1/32" = 1'-0"
140
0.03125
141
12.0
290
     0
  0
SCALE
  5
5C
102
{ACAD_REACTORS
330
47
102
}
330
47
100
AcDbScale
 70
     0
300
1/16" = 1'-0"
140
0.0625
141
12.0
290
     0
  0
SCALE
  5
5D
102
{ACAD_REACTORS
330
47
102
}
330
47
100
AcDbScale
 70
     0
300
3/32" = 1'-0"
140
0.09375
141
12.0
290
     0
  0
SCALE
  5
5E
102
{ACAD_REACTORS
330
47
102
}
330
47
100
AcDbScale
 70
     0
300
1/8" = 1'-0"
140
0.125
141
12.0
290
     0
  0
SCALE
  5
5F
102
{ACAD_REACTORS
330
47
102
}
330
47
100
AcDbScale
 70
     0
300
3/16" = 1'-0"
140
0.1875
141
12.0
290
     0
  0
SCALE
  5
60
102
{ACAD_REACTORS
330
47
102
}
330
47
100
AcDbScale
 70
     0
300
1/4" = 1'-0"
140
0.25
141
12.0
290
     0
  0
SCALE
  5
61
102
{ACAD_REACTORS
330
47
102
}
330
47
100
AcDbScale
 70
     0
300
3/8" = 1'-0"
140
0.375
141
12.0
290
     0
  0
SCALE
  5
62
102
{ACAD_REACTORS
330
47
102
}
330
47
100
AcDbScale
 70
     0
300
1/2" = 1'-0"
140
0.5
141
12.0
290
     0
  0
SCALE
  5
63
102
{ACAD_REACTORS
330
47
102
}
330
47
100
AcDbScale
 70
     0
300
3/4" = 1'-0"
140
0.75
141
12.0
290
     0
  0
SCALE
  5
64
102
{ACAD_REACTORS
330
47
102
}
330
47
100
AcDbScale
 70
     0
300
1" = 1'-0"
140
1.0
141
12.0
290
     0
  0
SCALE
  5
65
102
{ACAD_REACTORS
330
47
102
}
330
47
100
AcDbScale
 70
     0
300
1-1/2" = 1'-0"
140
1.5
141
12.0
290
     0
  0
SCALE
  5
66
102
{ACAD_REACTORS
330
47
102
}
330
47
100
AcDbScale
 70
     0
300
3" = 1'-0"
140
3.0
141
12.0
290
     0
  0
SCALE
  5
67
102
{ACAD_REACTORS
330
47
102
}
330
47
100
AcDbScale
 70
     0
300
6" = 1'-0"
140
6.0
141
12.0
290
     0
  0
SCALE
  5
68
102
{ACAD_REACTORS
330
47
102
}
330
47
100
AcDbScale
 70
     0
300
1'-0" = 1'-0"
140
12.0
141
12.0
290
     0
  0
ENDSEC
  0
EOF
