  0
SECTION
  2
HEADER
  9
$ACADVER
  1
AC1015
  9
$ACADMAINTVER
 70
     6
  9
$DWGCODEPAGE
  3
ANSI_1252
  9
$INSBASE
 10
0.0
 20
0.0
 30
0.0
  9
$EXTMIN
 10
0.0
 20
0.0
 30
0.0
  9
$EXTMAX
 10
297.0
 20
210.0
 30
0.0
  9
$LIMMIN
 10
0.0
 20
0.0
  9
$LIMMAX
 10
297.0
 20
210.0
  9
$ORTHOMODE
 70
     0
  9
$REGENMODE
 70
     1
  9
$FILLMODE
 70
     1
  9
$QTEXTMODE
 70
     0
  9
$MIRRTEXT
 70
     1
  9
$LTSCALE
 40
1.0
  9
$ATTMODE
 70
     1
  9
$TEXTSIZE
 40
2.0
  9
$TRACEWID
 40
1.0
  9
$TEXTSTYLE
  7
Standard
  9
$CLAYER
  8
0
  9
$CELTYPE
  6
ByLayer
  9
$CECOLOR
 62
   256
  9
$CELTSCALE
 40
1.0
  9
$DISPSILH
 70
     0
  9
$DIMSCALE
 40
1.0
  9
$DIMASZ
 40
3.0
  9
$DIMEXO
 40
0.0
  9
$DIMDLI
 40
3.75
  9
$DIMRND
 40
0.0
  9
$DIMDLE
 40
0.0
  9
$DIMEXE
 40
1.0
  9
$DIMTP
 40
0.0
  9
$DIMTM
 40
0.0
  9
$DIMTXT
 40
2.0
  9
$DIMCEN
 40
2.5
  9
$DIMTSZ
 40
0.0
  9
$DIMTOL
 70
     0
  9
$DIMLIM
 70
     0
  9
$DIMTIH
 70
     1
  9
$DIMTOH
 70
     1
  9
$DIMSE1
 70
     0
  9
$DIMSE2
 70
     0
  9
$DIMTAD
 70
     1
  9
$DIMZIN
 70
     0
  9
$DIMBLK
  1

  9
$DIMASO
 70
     1
  9
$DIMSHO
 70
     1
  9
$DIMPOST
  1

  9
$DIMAPOST
  1

  9
$DIMALT
 70
     0
  9
$DIMALTD
 70
     3
  9
$DIMALTF
 40
0.0393700787
  9
$DIMLFAC
 40
2.0
  9
$DIMTOFL
 70
     1
  9
$DIMTVP
 40
0.0
  9
$DIMTIX
 70
     0
  9
$DIMSOXD
 70
     0
  9
$DIMSAH
 70
     0
  9
$DIMBLK1
  1

  9
$DIMBLK2
  1

  9
$DIMSTYLE
  2
ISO-25
  9
$DIMCLRD
 70
     0
  9
$DIMCLRE
 70
     0
  9
$DIMCLRT
 70
     0
  9
$DIMTFAC
 40
1.0
  9
$DIMGAP
 40
1.524
  9
$DIMJUST
 70
     0
  9
$DIMSD1
 70
     0
  9
$DIMSD2
 70
     0
  9
$DIMTOLJ
 70
     0
  9
$DIMTZIN
 70
     0
  9
$DIMALTZ
 70
     0
  9
$DIMALTTZ
 70
     0
  9
$DIMUPT
 70
     0
  9
$DIMDEC
 70
     2
  9
$DIMTDEC
 70
     3
  9
$DIMALTU
 70
     2
  9
$DIMALTTD
 70
     3
  9
$DIMTXSTY
  7
Standard
  9
$DIMAUNIT
 70
     0
  9
$DIMADEC
 70
     2
  9
$DIMALTRND
 40
0.0
  9
$DIMAZIN
 70
     0
  9
$DIMDSEP
 70
    44
  9
$DIMATFIT
 70
     3
  9
$DIMFRAC
 70
     0
  9
$DIMLDRBLK
  1

  9
$DIMLUNIT
 70
     2
  9
$DIMLWD
 70
    -2
  9
$DIMLWE
 70
    -2
  9
$DIMTMOVE
 70
     0
  9
$LUNITS
 70
     2
  9
$LUPREC
 70
     2
  9
$SKETCHINC
 40
1.0
  9
$FILLETRAD
 40
10.0
  9
$AUNITS
 70
     0
  9
$AUPREC
 70
     2
  9
$MENU
  1
.
  9
$ELEVATION
 40
0.0
  9
$PELEVATION
 40
0.0
  9
$THICKNESS
 40
0.0
  9
$LIMCHECK
 70
     0
  9
$CHAMFERA
 40
0.0
  9
$CHAMFERB
 40
0.0
  9
$CHAMFERC
 40
0.0
  9
$CHAMFERD
 40
0.0
  9
$SKPOLY
 70
     0
  9
$TDCREATE
 40
2457675.389094294
  9
$TDUCREATE
 40
2457675.305760961
  9
$TDUPDATE
 40
2457675.389096285
  9
$TDUUPDATE
 40
2457675.305762951
  9
$TDINDWG
 40
0.0000000116
  9
$TDUSRTIMER
 40
0.0000000116
  9
$USRTIMER
 70
     1
  9
$ANGBASE
 50
0.0
  9
$ANGDIR
 70
     0
  9
$PDMODE
 70
     0
  9
$PDSIZE
 40
-1.0
  9
$PLINEWID
 40
0.0
  9
$SPLFRAME
 70
     0
  9
$SPLINETYPE
 70
     6
  9
$SPLINESEGS
 70
     8
  9
$HANDSEED
  5
2A3
  9
$SURFTAB1
 70
     6
  9
$SURFTAB2
 70
     6
  9
$SURFTYPE
 70
     6
  9
$SURFU
 70
     6
  9
$SURFV
 70
     6
  9
$UCSBASE
  2

  9
$UCSNAME
  2

  9
$UCSORG
 10
0.0
 20
0.0
 30
0.0
  9
$UCSXDIR
 10
1.0
 20
0.0
 30
0.0
  9
$UCSYDIR
 10
0.0
 20
1.0
 30
0.0
  9
$UCSORTHOREF
  2

  9
$UCSORTHOVIEW
 70
     0
  9
$UCSORGTOP
 10
0.0
 20
0.0
 30
0.0
  9
$UCSORGBOTTOM
 10
0.0
 20
0.0
 30
0.0
  9
$UCSORGLEFT
 10
0.0
 20
0.0
 30
0.0
  9
$UCSORGRIGHT
 10
0.0
 20
0.0
 30
0.0
  9
$UCSORGFRONT
 10
0.0
 20
0.0
 30
0.0
  9
$UCSORGBACK
 10
0.0
 20
0.0
 30
0.0
  9
$PUCSBASE
  2

  9
$PUCSNAME
  2

  9
$PUCSORG
 10
0.0
 20
0.0
 30
0.0
  9
$PUCSXDIR
 10
1.0
 20
0.0
 30
0.0
  9
$PUCSYDIR
 10
0.0
 20
1.0
 30
0.0
  9
$PUCSORTHOREF
  2

  9
$PUCSORTHOVIEW
 70
     0
  9
$PUCSORGTOP
 10
0.0
 20
0.0
 30
0.0
  9
$PUCSORGBOTTOM
 10
0.0
 20
0.0
 30
0.0
  9
$PUCSORGLEFT
 10
0.0
 20
0.0
 30
0.0
  9
$PUCSORGRIGHT
 10
0.0
 20
0.0
 30
0.0
  9
$PUCSORGFRONT
 10
0.0
 20
0.0
 30
0.0
  9
$PUCSORGBACK
 10
0.0
 20
0.0
 30
0.0
  9
$USERI1
 70
     0
  9
$USERI2
 70
     0
  9
$USERI3
 70
     0
  9
$USERI4
 70
     0
  9
$USERI5
 70
     0
  9
$USERR1
 40
0.0
  9
$USERR2
 40
0.0
  9
$USERR3
 40
0.0
  9
$USERR4
 40
0.0
  9
$USERR5
 40
0.0
  9
$WORLDVIEW
 70
     1
  9
$SHADEDGE
 70
     3
  9
$SHADEDIF
 70
    70
  9
$TILEMODE
 70
     1
  9
$MAXACTVP
 70
    64
  9
$PINSBASE
 10
0.0
 20
0.0
 30
0.0
  9
$PLIMCHECK
 70
     0
  9
$PEXTMIN
 10
1.0000000000E+20
 20
1.0000000000E+20
 30
1.0000000000E+20
  9
$PEXTMAX
 10
-1.0000000000E+20
 20
-1.0000000000E+20
 30
-1.0000000000E+20
  9
$PLIMMIN
 10
0.0
 20
0.0
  9
$PLIMMAX
 10
420.0
 20
297.0
  9
$UNITMODE
 70
     0
  9
$VISRETAIN
 70
     1
  9
$PLINEGEN
 70
     0
  9
$PSLTSCALE
 70
     1
  9
$TREEDEPTH
 70
  3020
  9
$CMLSTYLE
  2
Standard
  9
$CMLJUST
 70
     0
  9
$CMLSCALE
 40
20.0
  9
$PROXYGRAPHICS
 70
     1
  9
$MEASUREMENT
 70
     1
  9
$CELWEIGHT
370
    -1
  9
$ENDCAPS
280
     0
  9
$JOINSTYLE
280
     0
  9
$LWDISPLAY
290
     1
  9
$INSUNITS
 70
     4
  9
$HYPERLINKBASE
  1

  9
$STYLESHEET
  1

  9
$XEDIT
290
     1
  9
$CEPSNTYPE
380
     0
  9
$PSTYLEMODE
290
     1
  9
$FINGERPRINTGUID
  2
{01236161-A949-4FC8-B44D-BB4F3B282BE3}
  9
$VERSIONGUID
  2
{FAEB1C32-E019-11D5-929B-00C0DF256EC4}
  9
$EXTNAMES
290
     1
  9
$PSVPSCALE
 40
0.0
  9
$OLESTARTUP
290
     0
  0
ENDSEC
  0
SECTION
  2
CLASSES
  0
CLASS
  1
ACDBDICTIONARYWDFLT
  2
AcDbDictionaryWithDefault
  3
ObjectDBX Classes
 90
        0
280
     0
281
     0
  0
CLASS
  1
VISUALSTYLE
  2
AcDbVisualStyle
  3
ObjectDBX Classes
 90
     4095
280
     0
281
     0
  0
CLASS
  1
MATERIAL
  2
AcDbMaterial
  3
ObjectDBX Classes
 90
     1153
280
     0
281
     0
  0
CLASS
  1
SCALE
  2
AcDbScale
  3
ObjectDBX Classes
 90
     1153
280
     0
281
     0
  0
CLASS
  1
TABLESTYLE
  2
AcDbTableStyle
  3
ObjectDBX Classes
 90
     4095
280
     0
281
     0
  0
CLASS
  1
MLEADERSTYLE
  2
AcDbMLeaderStyle
  3
ACDB_MLEADERSTYLE_CLASS
 90
     4095
280
     0
281
     0
  0
CLASS
  1
SUN
  2
AcDbSun
  3
SCENEOE
 90
     1153
280
     0
281
     0
  0
CLASS
  1
ACDBPLACEHOLDER
  2
AcDbPlaceHolder
  3
ObjectDBX Classes
 90
        0
280
     0
281
     0
  0
CLASS
  1
LAYOUT
  2
AcDbLayout
  3
ObjectDBX Classes
 90
        0
280
     0
281
     0
  0
ENDSEC
  0
SECTION
  2
TABLES
  0
TABLE
  2
VPORT
  5
8
330
0
100
AcDbSymbolTable
 70
     1
  0
VPORT
  5
29
330
8
100
AcDbSymbolTableRecord
100
AcDbViewportTableRecord
  2
*Active
 70
     0
 10
0.0
 20
0.0
 11
1.0
 21
1.0
 12
148.5
 22
105.0
 13
0.0
 23
0.0
 14
10.0
 24
10.0
 15
10.0
 25
10.0
 16
0.0
 26
0.0
 36
1.0
 17
0.0
 27
0.0
 37
0.0
 40
210.0
 41
1.4142857143
 42
50.0
 43
0.0
 44
0.0
 50
0.0
 51
0.0
 71
     0
 72
  2000
 73
     1
 74
     3
 75
     0
 76
     0
 77
     0
 78
     0
281
     0
 65
     1
110
0.0
120
0.0
130
0.0
111
1.0
121
0.0
131
0.0
112
0.0
122
1.0
132
0.0
 79
     0
146
0.0
  0
ENDTAB
  0
TABLE
  2
LTYPE
  5
5
330
0
100
AcDbSymbolTable
 70
     6
  0
LTYPE
  5
14
330
5
100
AcDbSymbolTableRecord
100
AcDbLinetypeTableRecord
  2
ByBlock
 70
     0
  3

 72
    65
 73
     0
 40
0.0
  0
LTYPE
  5
15
330
5
100
AcDbSymbolTableRecord
100
AcDbLinetypeTableRecord
  2
ByLayer
 70
     0
  3

 72
    65
 73
     0
 40
0.0
  0
LTYPE
  5
16
330
5
100
AcDbSymbolTableRecord
100
AcDbLinetypeTableRecord
  2
Continuous
 70
     0
  3
Solid line
 72
    65
 73
     0
 40
0.0
  0
LTYPE
  5
6E
330
5
100
AcDbSymbolTableRecord
100
AcDbLinetypeTableRecord
  2
HIDDEN
 70
     0
  3
Hidden __ __ __ __ __ __ __ __ __ __ __ __ __ __
 72
    65
 73
     2
 40
1.905
 49
1.27
 74
     0
 49
-0.635
 74
     0
  0
LTYPE
  5
6F
330
5
100
AcDbSymbolTableRecord
100
AcDbLinetypeTableRecord
  2
PHANTOM
 70
     0
  3
Phantom ______  __  __  ______  __  __  ______
 72
    65
 73
     6
 40
12.7
 49
6.35
 74
     0
 49
-1.27
 74
     0
 49
1.27
 74
     0
 49
-1.27
 74
     0
 49
1.27
 74
     0
 49
-1.27
 74
     0
  0
LTYPE
  5
70
330
5
100
AcDbSymbolTableRecord
100
AcDbLinetypeTableRecord
  2
CENTER
 70
     0
  3
Center ____ _ ____ _ ____ _ ____ _ ____ _ ____
 72
    65
 73
     4
 40
10.16
 49
6.35
 74
     0
 49
-1.27
 74
     0
 49
1.27
 74
     0
 49
-1.27
 74
     0
  0
LTYPE
  5
71
330
5
100
AcDbSymbolTableRecord
100
AcDbLinetypeTableRecord
  2
CENTERX2
 70
     0
  3
Center (2x) ________  __  ________  __  _____
 72
    65
 73
     4
 40
20.32
 49
12.7
 74
     0
 49
-2.54
 74
     0
 49
2.54
 74
     0
 49
-2.54
 74
     0
  0
LTYPE
  5
72
330
5
100
AcDbSymbolTableRecord
100
AcDbLinetypeTableRecord
  2
DOT2
 70
     0
  3
Dot (.5x) ........................................
 72
    65
 73
     2
 40
0.635
 49
0.0
 74
     0
 49
-0.635
 74
     0
  0
ENDTAB
  0
TABLE
  2
LAYER
  5
2
330
0
100
AcDbSymbolTable
 70
     5
  0
LAYER
  5
10
330
2
100
AcDbSymbolTableRecord
100
AcDbLayerTableRecord
  2
0
 70
     0
 62
     7
  6
Continuous
370
    -3
390
F
  0
LAYER
  5
73
330
2
100
AcDbSymbolTableRecord
100
AcDbLayerTableRecord
  2
FORMAT
 70
     0
 62
     7
  6
Continuous
370
    -3
390
F
  0
LAYER
  5
74
330
2
100
AcDbSymbolTableRecord
100
AcDbLayerTableRecord
  2
VERMASSUNG
 70
     0
 62
     7
  6
Continuous
370
    -3
390
F
  0
LAYER
  5
75
330
2
100
AcDbSymbolTableRecord
100
AcDbLayerTableRecord
  2
KOPF_DÜNN
 70
     0
 62
     7
  6
Continuous
370
    -3
390
F
  0
LAYER
  5
76
330
2
100
AcDbSymbolTableRecord
100
AcDbLayerTableRecord
  2
KOPF_DICK
 70
     0
 62
     7
  6
Continuous
370
    15
390
F
  0
ENDTAB
  0
TABLE
  2
STYLE
  5
3
330
0
100
AcDbSymbolTable
 70
     2
  0
STYLE
  5
11
330
3
100
AcDbSymbolTableRecord
100
AcDbTextStyleTableRecord
  2
Standard
 70
     0
 40
0.0
 41
1.0
 50
0.0
 71
     0
 42
2.0
  3
txt
  4

  0
STYLE
  5
77
330
3
100
AcDbSymbolTableRecord
100
AcDbTextStyleTableRecord
  2
SLDTEXTSTYLE0
 70
     0
 40
0.0
 41
0.7
 50
0.0
 71
     0
 42
2.0
  3
TXT
  4

  0
ENDTAB
  0
TABLE
  2
VIEW
  5
6
330
0
100
AcDbSymbolTable
 70
     0
  0
ENDTAB
  0
TABLE
  2
UCS
  5
7
330
0
100
AcDbSymbolTable
 70
     0
  0
ENDTAB
  0
TABLE
  2
APPID
  5
9
330
0
100
AcDbSymbolTable
 70
     1
  0
APPID
  5
12
330
9
100
AcDbSymbolTableRecord
100
AcDbRegAppTableRecord
  2
ACAD
 70
     0
  0
ENDTAB
  0
TABLE
  2
DIMSTYLE
  5
A
330
0
100
AcDbSymbolTable
 70
     2
100
AcDbDimStyleTable
  0
DIMSTYLE
105
27
330
A
100
AcDbSymbolTableRecord
100
AcDbDimStyleTableRecord
  2
ISO-25
 70
     0
 41
2.5
 42
0.625
 43
3.75
 44
1.25
 73
     0
 74
     0
 77
     1
 78
     8
140
2.5
141
2.5
143
0.0393700787
147
0.625
171
     3
172
     1
178
     0
271
     2
272
     2
274
     3
278
    44
283
     0
284
     8
340
11
  0
DIMSTYLE
105
1AF
102
{ACAD_REACTORS
330
1AE
330
1BB
330
1C5
330
1CF
330
1D9
330
1E4
102
}
330
A
100
AcDbSymbolTableRecord
100
AcDbDimStyleTableRecord
  2
SLDDIMSTYLE0
 70
     0
 41
3.0
 44
0.0
 45
0.000000001
 73
     0
 74
     0
 77
     1
 78
    12
 79
     3
140
2.0
147
0.5
173
     1
178
     0
271
     2
272
     3
276
     2
284
    12
340
77
  0
ENDTAB
  0
TABLE
  2
BLOCK_RECORD
  5
1
330
0
100
AcDbSymbolTable
 70
     7
  0
BLOCK_RECORD
  5
1F
330
1
100
AcDbSymbolTableRecord
100
AcDbBlockTableRecord
  2
*Model_Space
340
22
  0
BLOCK_RECORD
  5
1B
330
1
100
AcDbSymbolTableRecord
100
AcDbBlockTableRecord
  2
*Paper_Space
340
1E
  0
BLOCK_RECORD
  5
23
330
1
100
AcDbSymbolTableRecord
100
AcDbBlockTableRecord
  2
*Paper_Space0
340
26
  0
BLOCK_RECORD
  5
1B0
330
1
100
AcDbSymbolTableRecord
100
AcDbBlockTableRecord
  2
_D
340
0
  0
BLOCK_RECORD
  5
1BC
330
1
100
AcDbSymbolTableRecord
100
AcDbBlockTableRecord
  2
_D_1
340
0
  0
BLOCK_RECORD
  5
1C6
330
1
100
AcDbSymbolTableRecord
100
AcDbBlockTableRecord
  2
_D_2
340
0
  0
BLOCK_RECORD
  5
1D0
330
1
100
AcDbSymbolTableRecord
100
AcDbBlockTableRecord
  2
_D_3
340
0
  0
BLOCK_RECORD
  5
1DA
330
1
100
AcDbSymbolTableRecord
100
AcDbBlockTableRecord
  2
_D_4
340
0
  0
BLOCK_RECORD
  5
1E5
330
1
100
AcDbSymbolTableRecord
100
AcDbBlockTableRecord
  2
_D_5
340
0
  0
ENDTAB
  0
ENDSEC
  0
SECTION
  2
BLOCKS
  0
BLOCK
  5
20
330
1F
100
AcDbEntity
  8
0
100
AcDbBlockBegin
  2
*Model_Space
 70
     0
 10
0.0
 20
0.0
 30
0.0
  3
*Model_Space
  1

  0
ENDBLK
  5
21
330
1F
100
AcDbEntity
  8
0
100
AcDbBlockEnd
  0
BLOCK
  5
1C
330
1B
100
AcDbEntity
 67
     1
  8
0
100
AcDbBlockBegin
  2
*Paper_Space
 70
     0
 10
0.0
 20
0.0
 30
0.0
  3
*Paper_Space
  1

  0
ENDBLK
  5
1D
330
1B
100
AcDbEntity
 67
     1
  8
0
100
AcDbBlockEnd
  0
BLOCK
  5
24
330
23
100
AcDbEntity
  8
0
100
AcDbBlockBegin
  2
*Paper_Space0
 70
     0
 10
0.0
 20
0.0
 30
0.0
  3
*Paper_Space0
  1

  0
ENDBLK
  5
25
330
23
100
AcDbEntity
  8
0
100
AcDbBlockEnd
  0
BLOCK
  5
1B1
330
1B0
100
AcDbEntity
  8
0
100
AcDbBlockBegin
  2
_D
 70
     0
 10
0.0
 20
0.0
 30
0.0
  3
_D
  1

  0
SOLID
  5
1B3
330
1B0
100
AcDbEntity
  8
VERMASSUNG
100
AcDbTrace
 10
86.863780359
 20
144.85735
 30
0.0
 11
86.413780359
 21
141.85735
 31
0.0
 12
87.313780359
 22
141.85735
 32
0.0
 13
87.313780359
 23
141.85735
 33
0.0
  0
SOLID
  5
1B4
330
1B0
100
AcDbEntity
  8
VERMASSUNG
100
AcDbTrace
 10
86.863780359
 20
81.85735
 30
0.0
 11
87.313780359
 21
84.85735
 31
0.0
 12
86.413780359
 22
84.85735
 32
0.0
 13
86.413780359
 23
84.85735
 33
0.0
  0
LINE
  5
1B5
330
1B0
100
AcDbEntity
  8
VERMASSUNG
100
AcDbLine
 10
126.5353286453
 20
144.85735
 30
0.0
 11
85.863780359
 21
144.85735
 31
0.0
  0
LINE
  5
1B6
330
1B0
100
AcDbEntity
  8
VERMASSUNG
100
AcDbLine
 10
126.5353286453
 20
81.85735
 30
0.0
 11
85.863780359
 21
81.85735
 31
0.0
  0
LINE
  5
1B7
330
1B0
100
AcDbEntity
  8
VERMASSUNG
100
AcDbLine
 10
86.863780359
 20
144.85735
 30
0.0
 11
86.863780359
 21
81.85735
 31
0.0
  0
MTEXT
  5
1B8
330
1B0
100
AcDbEntity
  8
VERMASSUNG
100
AcDbMText
 10
84.0856451028
 20
105.6523507021
 30
0.0
 40
2.0
 41
0.0
 71
     1
 72
     1
  1
HSK A
  7
SLDTEXTSTYLE0
 11
-7.044195017643634E-15
 21
1.0
 31
0.0
 73
     1
 44
1.0
  0
MTEXT
  5
1B9
330
1B0
100
AcDbEntity
  8
VERMASSUNG
100
AcDbMText
 10
84.2856450541
 20
114.6523503147
 30
0.0
 40
2.0
 41
0.0
 71
     1
 72
     1
  1
%%c
  7
SLDTEXTSTYLE0
 11
-7.044195017643634E-15
 21
1.0
 31
0.0
 73
     1
 44
1.0
  0
MTEXT
  5
1BA
330
1B0
100
AcDbEntity
  8
VERMASSUNG
100
AcDbMText
 10
84.0856451028
 20
118.262350329
 30
0.0
 40
2.0
 41
0.0
 71
     1
 72
     1
  1
63
  7
SLDTEXTSTYLE0
 11
-7.044195017643634E-15
 21
1.0
 31
0.0
 73
     1
 44
1.0
  0
ENDBLK
  5
1B2
330
1B0
100
AcDbEntity
  8
0
100
AcDbBlockEnd
  0
BLOCK
  5
1BD
330
1BC
100
AcDbEntity
  8
0
100
AcDbBlockBegin
  2
_D_1
 70
     0
 10
0.0
 20
0.0
 30
0.0
  3
_D_1
  1

  0
SOLID
  5
1BF
330
1BC
100
AcDbEntity
  8
VERMASSUNG
100
AcDbTrace
 10
206.2353286453
 20
152.3935327536
 30
0.0
 11
203.2353286453
 21
152.8435327536
 31
0.0
 12
203.2353286453
 22
151.9435327536
 32
0.0
 13
203.2353286453
 23
151.9435327536
 33
0.0
  0
SOLID
  5
1C0
330
1BC
100
AcDbEntity
  8
VERMASSUNG
100
AcDbTrace
 10
152.1853286453
 20
152.3935327536
 30
0.0
 11
155.1853286453
 21
151.9435327536
 31
0.0
 12
155.1853286453
 22
152.8435327536
 32
0.0
 13
155.1853286453
 23
152.8435327536
 33
0.0
  0
LINE
  5
1C1
330
1BC
100
AcDbEntity
  8
VERMASSUNG
100
AcDbLine
 10
206.2353286453
 20
144.25735
 30
0.0
 11
206.2353286453
 21
153.3935327536
 31
0.0
  0
LINE
  5
1C2
330
1BC
100
AcDbEntity
  8
VERMASSUNG
100
AcDbLine
 10
152.1853286453
 20
143.2037903238
 30
0.0
 11
152.1853286453
 21
153.3935327536
 31
0.0
  0
LINE
  5
1C3
330
1BC
100
AcDbEntity
  8
VERMASSUNG
100
AcDbLine
 10
206.2353286453
 20
152.3935327536
 30
0.0
 11
152.1853286453
 21
152.3935327536
 31
0.0
  0
MTEXT
  5
1C4
330
1BC
100
AcDbEntity
  8
VERMASSUNG
100
AcDbMText
 10
176.0103287261
 20
154.9716683495
 30
0.0
 40
2.0
 41
0.0
 71
     1
 72
     1
  1
54.05
  7
SLDTEXTSTYLE0
 73
     1
 44
1.0
  0
ENDBLK
  5
1BE
330
1BC
100
AcDbEntity
  8
0
100
AcDbBlockEnd
  0
BLOCK
  5
1C7
330
1C6
100
AcDbEntity
  8
0
100
AcDbBlockBegin
  2
_D_2
 70
     0
 10
0.0
 20
0.0
 30
0.0
  3
_D_2
  1

  0
SOLID
  5
1C9
330
1C6
100
AcDbEntity
  8
VERMASSUNG
100
AcDbTrace
 10
206.2353286453
 20
158.3935327536
 30
0.0
 11
203.2353286453
 21
158.8435327536
 31
0.0
 12
203.2353286453
 22
157.9435327536
 32
0.0
 13
203.2353286453
 23
157.9435327536
 33
0.0
  0
SOLID
  5
1CA
330
1C6
100
AcDbEntity
  8
VERMASSUNG
100
AcDbTrace
 10
126.2353286453
 20
158.3935327536
 30
0.0
 11
129.2353286453
 21
157.9435327536
 31
0.0
 12
129.2353286453
 22
158.8435327536
 32
0.0
 13
129.2353286453
 23
158.8435327536
 33
0.0
  0
LINE
  5
1CB
330
1C6
100
AcDbEntity
  8
VERMASSUNG
100
AcDbLine
 10
206.2353286453
 20
144.25735
 30
0.0
 11
206.2353286453
 21
159.3935327536
 31
0.0
  0
LINE
  5
1CC
330
1C6
100
AcDbEntity
  8
VERMASSUNG
100
AcDbLine
 10
126.2353286453
 20
144.55735
 30
0.0
 11
126.2353286453
 21
159.3935327536
 31
0.0
  0
LINE
  5
1CD
330
1C6
100
AcDbEntity
  8
VERMASSUNG
100
AcDbLine
 10
206.2353286453
 20
158.3935327536
 30
0.0
 11
126.2353286453
 21
158.3935327536
 31
0.0
  0
MTEXT
  5
1CE
330
1C6
100
AcDbEntity
  8
VERMASSUNG
100
AcDbMText
 10
164.8353286952
 20
160.9716683495
 30
0.0
 40
2.0
 41
0.0
 71
     1
 72
     1
  1
80
  7
SLDTEXTSTYLE0
 73
     1
 44
1.0
  0
ENDBLK
  5
1C8
330
1C6
100
AcDbEntity
  8
0
100
AcDbBlockEnd
  0
BLOCK
  5
1D1
330
1D0
100
AcDbEntity
  8
0
100
AcDbBlockBegin
  2
_D_3
 70
     0
 10
0.0
 20
0.0
 30
0.0
  3
_D_3
  1

  0
SOLID
  5
1D3
330
1D0
100
AcDbEntity
  8
VERMASSUNG
100
AcDbTrace
 10
206.2353286453
 20
164.3935327536
 30
0.0
 11
203.2353286453
 21
164.8435327536
 31
0.0
 12
203.2353286453
 22
163.9435327536
 32
0.0
 13
203.2353286453
 23
163.9435327536
 33
0.0
  0
SOLID
  5
1D4
330
1D0
100
AcDbEntity
  8
VERMASSUNG
100
AcDbTrace
 10
94.3353286453
 20
164.3935327536
 30
0.0
 11
97.3353286453
 21
163.9435327536
 31
0.0
 12
97.3353286453
 22
164.8435327536
 32
0.0
 13
97.3353286453
 23
164.8435327536
 33
0.0
  0
LINE
  5
1D5
330
1D0
100
AcDbEntity
  8
VERMASSUNG
100
AcDbLine
 10
206.2353286453
 20
144.25735
 30
0.0
 11
206.2353286453
 21
165.3935327536
 31
0.0
  0
LINE
  5
1D6
330
1D0
100
AcDbEntity
  8
VERMASSUNG
100
AcDbLine
 10
94.3353286453
 20
133.0480277465
 30
0.0
 11
94.3353286453
 21
165.3935327536
 31
0.0
  0
LINE
  5
1D7
330
1D0
100
AcDbEntity
  8
VERMASSUNG
100
AcDbLine
 10
206.2353286453
 20
164.3935327536
 30
0.0
 11
94.3353286453
 21
164.3935327536
 31
0.0
  0
MTEXT
  5
1D8
330
1D0
100
AcDbEntity
  8
VERMASSUNG
100
AcDbMText
 10
147.7853287012
 20
166.9716683495
 30
0.0
 40
2.0
 41
0.0
 71
     1
 72
     1
  1
111.9
  7
SLDTEXTSTYLE0
 73
     1
 44
1.0
  0
ENDBLK
  5
1D2
330
1D0
100
AcDbEntity
  8
0
100
AcDbBlockEnd
  0
BLOCK
  5
1DB
330
1DA
100
AcDbEntity
  8
0
100
AcDbBlockBegin
  2
_D_4
 70
     0
 10
0.0
 20
0.0
 30
0.0
  3
_D_4
  1

  0
SOLID
  5
1DD
330
1DA
100
AcDbEntity
  8
VERMASSUNG
100
AcDbTrace
 10
216.2353286453
 20
131.35735
 30
0.0
 11
215.7853286453
 21
128.35735
 31
0.0
 12
216.6853286453
 22
128.35735
 32
0.0
 13
216.6853286453
 23
128.35735
 33
0.0
  0
SOLID
  5
1DE
330
1DA
100
AcDbEntity
  8
VERMASSUNG
100
AcDbTrace
 10
216.2353286453
 20
95.35735
 30
0.0
 11
216.6853286453
 21
98.35735
 31
0.0
 12
215.7853286453
 22
98.35735
 32
0.0
 13
215.7853286453
 23
98.35735
 33
0.0
  0
LINE
  5
1DF
330
1DA
100
AcDbEntity
  8
VERMASSUNG
100
AcDbLine
 10
205.2353286453
 20
131.35735
 30
0.0
 11
217.2353286453
 21
131.35735
 31
0.0
  0
LINE
  5
1E0
330
1DA
100
AcDbEntity
  8
VERMASSUNG
100
AcDbLine
 10
205.2353286453
 20
95.35735
 30
0.0
 11
217.2353286453
 21
95.35735
 31
0.0
  0
LINE
  5
1E1
330
1DA
100
AcDbEntity
  8
VERMASSUNG
100
AcDbLine
 10
216.2353286453
 20
131.35735
 30
0.0
 11
216.2353286453
 21
95.35735
 31
0.0
  0
MTEXT
  5
1E2
330
1DA
100
AcDbEntity
  8
VERMASSUNG
100
AcDbMText
 10
213.6571933404
 20
110.1523500428
 30
0.0
 40
2.0
 41
0.0
 71
     1
 72
     1
  1
%%c
  7
SLDTEXTSTYLE0
 11
-7.044195017643634E-15
 21
1.0
 31
0.0
 73
     1
 44
1.0
  0
MTEXT
  5
1E3
330
1DA
100
AcDbEntity
  8
VERMASSUNG
100
AcDbMText
 10
213.4571933891
 20
113.7623500571
 30
0.0
 40
2.0
 41
0.0
 71
     1
 72
     1
  1
36
  7
SLDTEXTSTYLE0
 11
-7.044195017643634E-15
 21
1.0
 31
0.0
 73
     1
 44
1.0
  0
ENDBLK
  5
1DC
330
1DA
100
AcDbEntity
  8
0
100
AcDbBlockEnd
  0
BLOCK
  5
1E6
330
1E5
100
AcDbEntity
  8
0
100
AcDbBlockBegin
  2
_D_5
 70
     0
 10
0.0
 20
0.0
 30
0.0
  3
_D_5
  1

  0
SOLID
  5
1E8
330
1E5
100
AcDbEntity
  8
VERMASSUNG
100
AcDbTrace
 10
223.3186658748
 20
144.85735
 30
0.0
 11
222.8686658748
 21
141.85735
 31
0.0
 12
223.7686658748
 22
141.85735
 32
0.0
 13
223.7686658748
 23
141.85735
 33
0.0
  0
SOLID
  5
1E9
330
1E5
100
AcDbEntity
  8
VERMASSUNG
100
AcDbTrace
 10
223.3186658748
 20
81.85735
 30
0.0
 11
223.7686658748
 21
84.85735
 31
0.0
 12
222.8686658748
 22
84.85735
 32
0.0
 13
222.8686658748
 23
84.85735
 33
0.0
  0
LINE
  5
1EA
330
1E5
100
AcDbEntity
  8
VERMASSUNG
100
AcDbLine
 10
205.6353286453
 20
144.85735
 30
0.0
 11
224.3186658748
 21
144.85735
 31
0.0
  0
LINE
  5
1EB
330
1E5
100
AcDbEntity
  8
VERMASSUNG
100
AcDbLine
 10
205.6353286453
 20
81.85735
 30
0.0
 11
224.3186658748
 21
81.85735
 31
0.0
  0
LINE
  5
1EC
330
1E5
100
AcDbEntity
  8
VERMASSUNG
100
AcDbLine
 10
223.3186658748
 20
144.85735
 30
0.0
 11
223.3186658748
 21
81.85735
 31
0.0
  0
MTEXT
  5
1ED
330
1E5
100
AcDbEntity
  8
VERMASSUNG
100
AcDbMText
 10
220.5405306186
 20
107.6523500986
 30
0.0
 40
2.0
 41
0.0
 71
     1
 72
     1
  1
WH
  7
SLDTEXTSTYLE0
 11
-7.044195017643634E-15
 21
1.0
 31
0.0
 73
     1
 44
1.0
  0
MTEXT
  5
1EE
330
1E5
100
AcDbEntity
  8
VERMASSUNG
100
AcDbMText
 10
220.7405305699
 20
112.6523499869
 30
0.0
 40
2.0
 41
0.0
 71
     1
 72
     1
  1
%%c
  7
SLDTEXTSTYLE0
 11
-7.044195017643634E-15
 21
1.0
 31
0.0
 73
     1
 44
1.0
  0
MTEXT
  5
1EF
330
1E5
100
AcDbEntity
  8
VERMASSUNG
100
AcDbMText
 10
220.5405306186
 20
116.2623500012
 30
0.0
 40
2.0
 41
0.0
 71
     1
 72
     1
  1
63
  7
SLDTEXTSTYLE0
 11
-7.044195017643634E-15
 21
1.0
 31
0.0
 73
     1
 44
1.0
  0
ENDBLK
  5
1E7
330
1E5
100
AcDbEntity
  8
0
100
AcDbBlockEnd
  0
ENDSEC
  0
SECTION
  2
ENTITIES
  0
MTEXT
  5
78
330
1F
100
AcDbEntity
  8
KOPF_DÜNN
100
AcDbMText
 10
13.8892156294
 20
23.8442973028
 30
0.0
 40
3.0
 41
0.0
 71
     1
 72
     1
  1
A44.806.063.080
  7
SLDTEXTSTYLE0
 73
     1
 44
1.0
  0
MTEXT
  5
79
330
1F
100
AcDbEntity
  8
VERMASSUNG
100
AcDbMText
 10
13.9329988022
 20
28.8834360957
 30
0.0
 40
3.0
 41
0.0
 71
     1
 72
     1
  1
Aufnahme Master shank WH60
  7
SLDTEXTSTYLE0
 73
     1
 44
1.0
  0
MTEXT
  5
7A
330
1F
100
AcDbEntity
  8
VERMASSUNG
100
AcDbMText
 10
98.8601118557
 20
13.8365368761
 30
0.0
 40
2.0
 41
0.0
 71
     1
 72
     1
  1
Datum: 29.11.2011
  7
SLDTEXTSTYLE0
 73
     1
 44
1.0
  0
MTEXT
  5
7B
330
1F
100
AcDbEntity
  8
VERMASSUNG
100
AcDbMText
 10
13.933048693
 20
18.0482802738
 30
0.0
 40
2.0
 41
0.0
 71
     1
 72
     1
  1
DIN 69893
  7
SLDTEXTSTYLE0
 73
     1
 44
1.0
  0
MTEXT
  5
7C
330
1F
100
AcDbEntity
  8
VERMASSUNG
100
AcDbMText
 10
13.9808475933
 20
13.9090974274
 30
0.0
 40
2.0
 41
0.0
 71
     1
 72
     1
  1
Gewicht: 1509g
  7
SLDTEXTSTYLE0
 73
     1
 44
1.0
  0
LINE
  5
7D
330
1F
100
AcDbEntity
  8
0
  6
Continuous
 62
     7
370
    15
100
AcDbLine
 10
178.6896884747
 20
144.8573505066
 30
0.0
 11
169.2353301056
 21
144.8573505066
 31
0.0
  0
LINE
  5
7E
330
1F
100
AcDbEntity
  8
0
  6
Continuous
 62
     7
370
    15
100
AcDbLine
 10
205.6353316017
 20
144.8573505066
 30
0.0
 11
197.6603418895
 21
144.8573505066
 31
0.0
  0
LINE
  5
7F
330
1F
100
AcDbEntity
  8
0
  6
Continuous
 62
     7
370
    15
100
AcDbLine
 10
169.2353301056
 20
81.8573494934
 30
0.0
 11
205.6353316017
 21
81.8573494934
 31
0.0
  0
LINE
  5
80
330
1F
100
AcDbEntity
  8
0
  6
Continuous
 62
     7
370
    15
100
AcDbLine
 10
205.6353316017
 20
81.8573494934
 30
0.0
 11
206.2353268572
 21
82.4573503368
 31
0.0
  0
LINE
  5
81
330
1F
100
AcDbEntity
  8
0
  6
Continuous
 62
     7
370
    15
100
AcDbLine
 10
206.2353268572
 20
144.2573496632
 30
0.0
 11
205.6353316017
 21
144.8573505066
 31
0.0
  0
ARC
  5
82
330
1F
100
AcDbEntity
  8
0
  6
Continuous
 62
     7
370
    15
100
AcDbCircle
 10
126.5353286453
 20
82.15735
 30
0.0
 40
0.3000000000000114
100
AcDbArc
 50
180.0
 51
270.0
  0
ARC
  5
83
330
1F
100
AcDbEntity
  8
0
  6
Continuous
 62
     7
370
    15
100
AcDbCircle
 10
126.5353286453
 20
144.55735
 30
0.0
 40
0.2999999999999829
100
AcDbArc
 50
90.0
 51
180.0
  0
ARC
  5
84
330
1F
100
AcDbEntity
  8
0
  6
Continuous
 62
     7
370
    15
100
AcDbCircle
 10
169.2353286453
 20
143.85735
 30
0.0
 40
1.0
100
AcDbArc
 50
90.0
 51
180.0
  0
ARC
  5
85
330
1F
100
AcDbEntity
  8
0
  6
Continuous
 62
     7
370
    15
100
AcDbCircle
 10
169.2353286453
 20
82.85735
 30
0.0
 40
1.000000000000014
100
AcDbArc
 50
180.0
 51
270.0
  0
LINE
  5
86
330
1F
100
AcDbEntity
  8
0
  6
Continuous
 62
     7
370
    15
100
AcDbLine
 10
126.5353286596
 20
81.8573494934
 30
0.0
 11
131.1853286185
 21
81.8573494934
 31
0.0
  0
LINE
  5
87
330
1F
100
AcDbEntity
  8
0
  6
Continuous
 62
     7
370
    15
100
AcDbLine
 10
131.2133171902
 20
144.8573505066
 30
0.0
 11
126.5353286596
 21
144.8573505066
 31
0.0
  0
ARC
  5
88
330
1F
100
AcDbEntity
  8
0
  6
Continuous
 62
     7
370
    15
100
AcDbCircle
 10
167.2353286453
 20
140.35735
 30
0.0
 40
1.0
100
AcDbArc
 50
270.0
 51
0.0
  0
ARC
  5
89
330
1F
100
AcDbEntity
  8
0
  6
Continuous
 62
     7
370
    15
100
AcDbCircle
 10
167.2353286453
 20
86.35735
 30
0.0
 40
1.0
100
AcDbArc
 50
0.0
 51
90.0
  0
LINE
  5
8A
330
1F
100
AcDbEntity
  8
0
  6
Continuous
 62
     7
370
    15
100
AcDbLine
 10
167.2353297778
 20
139.3573505364
 30
0.0
 11
153.0101411351
 21
139.3573505364
 31
0.0
  0
LINE
  5
8B
330
1F
100
AcDbEntity
  8
0
  6
Continuous
 62
     7
370
    15
100
AcDbLine
 10
153.0101411351
 20
87.3573494636
 30
0.0
 11
167.2353297778
 21
87.3573494636
 31
0.0
  0
ARC
  5
8C
330
1F
100
AcDbEntity
  8
0
  6
Continuous
 62
     7
370
    15
100
AcDbCircle
 10
125.7353218926
 20
88.7869123856
 30
0.0
 40
0.6000067526677203
100
AcDbArc
 50
33.5571153394
 51
90.0
  0
ARC
  5
8D
330
1F
100
AcDbEntity
  8
0
  6
Continuous
 62
     7
370
    15
100
AcDbCircle
 10
125.7353218926
 20
137.9277876144
 30
0.0
 40
0.6000067526677242
100
AcDbArc
 50
270.0
 51
326.4428846606
  0
LINE
  5
8E
330
1F
100
AcDbEntity
  8
0
  6
Continuous
 62
     7
370
    15
100
AcDbLine
 10
113.0038202115
 20
137.0150798492
 30
0.0
 11
100.4353277691
 21
136.3853958927
 31
0.0
  0
LINE
  5
8F
330
1F
100
AcDbEntity
  8
0
  6
Continuous
 62
     7
370
    15
100
AcDbLine
 10
124.2353285503
 20
137.5777812235
 30
0.0
 11
121.4183271237
 21
137.4366486006
 31
0.0
  0
LINE
  5
90
330
1F
100
AcDbEntity
  8
0
  6
Continuous
 62
     7
370
    15
100
AcDbLine
 10
121.4183830031
 20
89.2780495368
 30
0.0
 11
124.2353285503
 21
89.1369187765
 31
0.0
  0
LINE
  5
91
330
1F
100
AcDbEntity
  8
0
  6
Continuous
 62
     7
370
    15
100
AcDbLine
 10
104.4353284248
 20
90.1289039783
 30
0.0
 11
113.0042225428
 21
89.6995996617
 31
0.0
  0
LINE
  5
92
330
1F
100
AcDbEntity
  8
0
  6
Continuous
 62
     7
370
    15
100
AcDbLine
 10
124.2353285503
 20
89.1369187765
 30
0.0
 11
125.0920414765
 21
89.36647489
 31
0.0
  0
LINE
  5
93
330
1F
100
AcDbEntity
  8
0
  6
Continuous
 62
     7
370
    15
100
AcDbLine
 10
125.0920414765
 20
137.34822511
 30
0.0
 11
124.2353285503
 21
137.5777812235
 31
0.0
  0
ARC
  5
94
330
1F
100
AcDbEntity
  8
0
  6
Continuous
 62
     7
370
    15
100
AcDbCircle
 10
125.2473328458
 20
88.7869191383
 30
0.0
 40
0.5999999999999943
100
AcDbArc
 50
90.0
 51
105.0
  0
ARC
  5
95
330
1F
100
AcDbEntity
  8
0
  6
Continuous
 62
     7
370
    15
100
AcDbCircle
 10
125.2473328458
 20
137.9277808617
 30
0.0
 40
0.5999999999999943
100
AcDbArc
 50
255.0
 51
270.0
  0
LINE
  5
96
330
1F
100
AcDbEntity
  8
0
  6
Continuous
 62
     7
370
    15
100
AcDbLine
 10
125.2473328801
 20
89.3869192831
 30
0.0
 11
125.7353218695
 21
89.3869192831
 31
0.0
  0
LINE
  5
97
330
1F
100
AcDbEntity
  8
0
  6
Continuous
 62
     7
370
    15
100
AcDbLine
 10
125.7353218695
 20
137.3277807169
 30
0.0
 11
125.2473328801
 21
137.3277807169
 31
0.0
  0
LINE
  5
98
330
1F
100
AcDbEntity
  8
0
  6
Continuous
 62
     7
370
    15
100
AcDbLine
 10
95.618665249
 20
92.487349876
 30
0.0
 11
103.0353289404
 21
92.487349876
 31
0.0
  0
ARC
  5
99
330
1F
100
AcDbEntity
  8
0
  6
Continuous
 62
     7
370
    15
100
AcDbCircle
 10
103.0353286453
 20
91.08735
 30
0.0
 40
1.399999999999997
100
AcDbArc
 50
42.2465410162
 51
90.0
  0
LINE
  5
9A
330
1F
100
AcDbEntity
  8
0
  6
Continuous
 62
     7
370
    15
100
AcDbLine
 10
94.3363607236
 20
93.6363169484
 30
0.0
 11
95.4764914074
 21
92.4961862646
 31
0.0
  0
LINE
  5
9B
330
1F
100
AcDbEntity
  8
0
  6
Continuous
 62
     7
370
    15
100
AcDbLine
 10
95.4764914074
 20
134.2185137354
 30
0.0
 11
94.3452306398
 21
133.0872511052
 31
0.0
  0
ARC
  5
9C
330
1F
100
AcDbEntity
  8
0
  6
Continuous
 62
     7
370
    15
100
AcDbCircle
 10
99.0353286453
 20
135.62735
 30
0.0
 40
1.400000000000006
100
AcDbArc
 50
270.0
 51
301.7485287426
  0
LINE
  5
9D
330
1F
100
AcDbEntity
  8
0
  6
Continuous
 62
     7
370
    15
100
AcDbLine
 10
99.0353282847
 20
134.227350124
 30
0.0
 11
95.6095941671
 21
134.227350124
 31
0.0
  0
SPLINE
  5
9E
330
1F
100
AcDbEntity
  8
0
  6
Continuous
 62
     7
370
    15
100
AcDbSpline
210
0.0
220
0.0
230
1.0
 70
     8
 71
     3
 72
    14
 73
    10
 74
     0
 42
0.000000001
 43
0.00000001
 40
0.0
 40
0.0
 40
0.0
 40
0.0
 40
0.2939511486510369
 40
0.5376668985437991
 40
0.700778301762081
 40
0.803021406450735
 40
0.87169606149448
 40
0.9514675655407159
 40
0.9999999999999999
 40
0.9999999999999999
 40
0.9999999999999999
 40
0.9999999999999999
 10
152.2453204103308
 20
86.99642471299165
 30
0.0
 10
152.2517631669221
 20
87.01052188980887
 30
0.0
 10
152.2635476316892
 20
87.03630707681128
 30
0.0
 10
152.3103986503453
 20
87.08827823268368
 30
0.0
 10
152.3738420356073
 20
87.14555603480751
 30
0.0
 10
152.4765688422553
 20
87.22101674588929
 30
0.0
 10
152.6465172245478
 20
87.30222372015949
 30
0.0
 10
152.8312931636621
 20
87.35740838403316
 30
0.0
 10
152.9607890347173
 20
87.35081923250095
 30
0.0
 10
153.009772331317
 20
87.34832681045526
 30
0.0
  0
SPLINE
  5
9F
330
1F
100
AcDbEntity
  8
0
  6
Continuous
 62
     7
370
    15
100
AcDbSpline
210
0.0
220
0.0
230
1.0
 70
     8
 71
     3
 72
    16
 73
    12
 74
     0
 42
0.000000001
 43
0.00000001
 40
0.0
 40
0.0
 40
0.0
 40
0.0
 40
0.0570751555263776
 40
0.1270025767037754
 40
0.1852887921310814
 40
0.2406148783559813
 40
0.3153171713002147
 40
0.4336435920742643
 40
0.6199166220413006
 40
0.9375417277034436
 40
0.9999999999999999
 40
0.9999999999999999
 40
0.9999999999999999
 40
0.9999999999999999
 10
153.0112363704043
 20
139.3628099493741
 30
0.0
 10
152.9558909427503
 20
139.3620544134212
 30
0.0
 10
152.8327373244026
 20
139.3603732088422
 30
0.0
 10
152.6669775179485
 20
139.4065063259944
 30
0.0
 10
152.5372638111265
 20
139.4628406544328
 30
0.0
 10
152.4496446976707
 20
139.5145835620704
 30
0.0
 10
152.3819622763164
 20
139.5631619214359
 30
0.0
 10
152.326769338872
 20
139.6109096080357
 30
0.0
 10
152.2792276265312
 20
139.6610111520295
 30
0.0
 10
152.2520118666616
 20
139.6942761093012
 30
0.0
 10
152.2442923072231
 20
139.712037382136
 30
0.0
 10
152.2430237688618
 20
139.7149560533523
 30
0.0
  0
SPLINE
  5
A0
330
1F
100
AcDbEntity
  8
0
  6
Continuous
 62
     7
370
    15
100
AcDbSpline
210
0.0
220
0.0
230
1.0
 70
     8
 71
     3
 72
    18
 73
    14
 74
     0
 42
0.000000001
 43
0.00000001
 40
0.0
 40
0.0
 40
0.0
 40
0.0
 40
0.0538562326088451
 40
0.1618932872309677
 40
0.2715966121344655
 40
0.3834268868948512
 40
0.4398759016608016
 40
0.5548578066515152
 40
0.6329781597860006
 40
0.752190344486677
 40
0.8137853730319515
 40
0.937707281917518
 40
1.0
 40
1.0
 40
1.0
 40
1.0
 10
192.0096054979163
 20
110.7673209652364
 30
0.0
 10
192.0151810859066
 20
110.844935504974
 30
0.0
 10
192.0319414537282
 20
111.0782469039777
 30
0.0
 10
192.0608465371842
 20
111.4807649968881
 30
0.0
 10
192.0970367996833
 20
111.9846087505526
 30
0.0
 10
192.1284968822184
 20
112.4226383318948
 30
0.0
 10
192.1609643728086
 20
112.8746335873794
 30
0.0
 10
192.189811127231
 20
113.2764052793765
 30
0.0
 10
192.2256175831688
 20
113.7746936323701
 30
0.0
 10
192.2547833965823
 20
114.1809166917117
 30
0.0
 10
192.2882331231254
 20
114.6465623420256
 30
0.0
 10
192.3147568029457
 20
115.0158874223786
 30
0.0
 10
192.3340475289083
 20
115.2844240626702
 30
0.0
 10
192.3405006833868
 20
115.3742552295386
 30
0.0
  0
SPLINE
  5
A1
330
1F
100
AcDbEntity
  8
0
  6
Continuous
 62
     7
370
    15
100
AcDbSpline
210
0.0
220
0.0
230
1.0
 70
     8
 71
     3
 72
    12
 73
     8
 74
     0
 42
0.000000001
 43
0.00000001
 40
0.0
 40
0.0
 40
0.0
 40
0.0
 40
0.2161879334291764
 40
0.4397661239322838
 40
0.5934211976517658
 40
0.7522118762341405
 40
1.0
 40
1.0
 40
1.0
 40
1.0
 10
192.3405006833869
 20
115.3742552295386
 30
0.0
 10
192.0786479769345
 20
115.5515958675322
 30
0.0
 10
191.5459912836068
 20
115.9123394286971
 30
0.0
 10
190.7628997743596
 20
116.4426978779103
 30
0.0
 10
190.0469480180787
 20
116.9275857577776
 30
0.0
 10
189.3116277153903
 20
117.4255879741166
 30
0.0
 10
188.8174170485873
 20
117.7602969634504
 30
0.0
 10
188.5162219711142
 20
117.9642842643022
 30
0.0
  0
SPLINE
  5
A2
330
1F
100
AcDbEntity
  8
0
  6
Continuous
 62
     7
370
    15
100
AcDbSpline
210
0.0
220
0.0
230
1.0
 70
     8
 71
     3
 72
    13
 73
     9
 74
     0
 42
0.000000001
 43
0.00000001
 40
0.0
 40
0.0
 40
0.0
 40
0.0
 40
0.1840189310859952
 40
0.3511657167667167
 40
0.5179852157751846
 40
0.6927579159407851
 40
0.8679670592759001
 40
1.0
 40
1.0
 40
1.0
 40
1.0
 10
188.5162219711142
 20
117.9642842643022
 30
0.0
 10
188.274642446332
 20
117.8470226334421
 30
0.0
 10
187.8136331008498
 20
117.6232507399352
 30
0.0
 10
187.0857683463506
 20
117.2699478560095
 30
0.0
 10
186.3483982372697
 20
116.9120304154128
 30
0.0
 10
185.6029671830349
 20
116.550201195559
 30
0.0
 10
184.9351761009283
 20
116.2260567120343
 30
0.0
 10
184.5336164010009
 20
116.0311412137364
 30
0.0
 10
184.3610517986613
 20
115.9473790347635
 30
0.0
  0
SPLINE
  5
A3
330
1F
100
AcDbEntity
  8
0
  6
Continuous
 62
     7
370
    15
100
AcDbSpline
210
0.0
220
0.0
230
1.0
 70
     8
 71
     3
 72
    18
 73
    14
 74
     0
 42
0.000000001
 43
0.00000001
 40
0.0
 40
0.0
 40
0.0
 40
0.0
 40
0.0538561854032353
 40
0.161893296431142
 40
0.2715966267522395
 40
0.3834269070352623
 40
0.4398759245888965
 40
0.5548578905770948
 40
0.6329781376022922
 40
0.752190382176624
 40
0.8137854137637135
 40
0.9377073287690513
 40
1.0
 40
1.0
 40
1.0
 40
1.0
 10
184.3610517986613
 20
115.9473790347635
 30
0.0
 10
184.3554778218192
 20
115.869764472606
 30
0.0
 10
184.3387222815142
 20
115.6364527884483
 30
0.0
 10
184.3098084964885
 20
115.2339352172477
 30
0.0
 10
184.2736212881603
 20
114.7300912002546
 30
0.0
 10
184.2421598385693
 20
114.2920617082602
 30
0.0
 10
184.2096941813413
 20
113.8400662346493
 30
0.0
 10
184.1808371888723
 20
113.4382953591041
 30
0.0
 10
184.1450488738545
 20
112.94000572373
 30
0.0
 10
184.1158724288156
 20
112.5337834927091
 30
0.0
 10
184.0824250807763
 20
112.068137598383
 30
0.0
 10
184.0558982604892
 20
111.69881278288
 30
0.0
 10
184.0366119967954
 20
111.4302759528775
 30
0.0
 10
184.030160338481
 20
111.3404447704613
 30
0.0
  0
SPLINE
  5
A4
330
1F
100
AcDbEntity
  8
0
  6
Continuous
 62
     7
370
    15
100
AcDbSpline
210
0.0
220
0.0
230
1.0
 70
     8
 71
     3
 72
    12
 73
     8
 74
     0
 42
0.000000001
 43
0.00000001
 40
0.0
 40
0.0
 40
0.0
 40
0.0
 40
0.2161868704750369
 40
0.4397658129002626
 40
0.5934209719263464
 40
0.7522117386665205
 40
0.9999999999999999
 40
0.9999999999999999
 40
0.9999999999999999
 40
0.9999999999999999
 10
184.030160338481
 20
111.3404447704613
 30
0.0
 10
184.2920101791359
 20
111.1631036571384
 30
0.0
 10
184.8246632851288
 20
110.8023576104904
 30
0.0
 10
185.6077571546573
 20
110.2720032295231
 30
0.0
 10
186.3237091706361
 20
109.7871141186572
 30
0.0
 10
187.059029626926
 20
109.2891120782806
 30
0.0
 10
187.5532402653101
 20
108.9544030563907
 30
0.0
 10
187.8544353254633
 20
108.7504157356977
 30
0.0
  0
SPLINE
  5
A5
330
1F
100
AcDbEntity
  8
0
  6
Continuous
 62
     7
370
    15
100
AcDbSpline
210
0.0
220
0.0
230
1.0
 70
     8
 71
     3
 72
    13
 73
     9
 74
     0
 42
0.000000001
 43
0.00000001
 40
0.0
 40
0.0
 40
0.0
 40
0.0
 40
0.1320329374800668
 40
0.3072427402830973
 40
0.4820154361545541
 40
0.6488349310642876
 40
0.8159817126382332
 40
1.0
 40
1.0
 40
1.0
 40
1.0
 10
187.8544353254633
 20
108.7504157356977
 30
0.0
 10
188.0269998591739
 20
108.8341780149787
 30
0.0
 10
188.4285602669388
 20
109.0290941677949
 30
0.0
 10
189.0963538488523
 20
109.3532369471013
 30
0.0
 10
189.8417854151308
 20
109.7150672199237
 30
0.0
 10
190.579155547098
 20
110.0729845988053
 30
0.0
 10
191.3070197459644
 20
110.4262867234449
 30
0.0
 10
191.7680273074183
 20
110.6500592149078
 30
0.0
 10
192.0096054979163
 20
110.7673209652364
 30
0.0
  0
CIRCLE
  5
A6
330
1F
100
AcDbEntity
  8
0
  6
Continuous
 62
     7
370
    15
100
AcDbCircle
 10
188.1853286453
 20
113.35735
 30
0.0
 40
4.699999999999999
  0
CIRCLE
  5
A7
330
1F
100
AcDbEntity
  8
0
  6
Continuous
 62
     7
370
    15
100
AcDbCircle
 10
188.1853286453
 20
113.35735
 30
0.0
 40
6.999999999999993
  0
ARC
  5
A8
330
1F
100
AcDbEntity
  8
0
  6
Continuous
 62
     7
370
    15
100
AcDbCircle
 10
188.1853286453
 20
113.35735
 30
0.0
 40
4.000000000000003
100
AcDbArc
 50
295.8917846432
 51
355.8917846432
  0
ARC
  5
A9
330
1F
100
AcDbEntity
  8
0
  6
Continuous
 62
     7
370
    15
100
AcDbCircle
 10
188.1853286453
 20
113.35735
 30
0.0
 40
4.000000000000003
100
AcDbArc
 50
355.8917846432
 51
55.8917846432
  0
ARC
  5
AA
330
1F
100
AcDbEntity
  8
0
  6
Continuous
 62
     7
370
    15
100
AcDbCircle
 10
188.1853286453
 20
113.35735
 30
0.0
 40
4.000000000000004
100
AcDbArc
 50
175.8917846432
 51
235.8917846432
  0
ARC
  5
AB
330
1F
100
AcDbEntity
  8
0
  6
Continuous
 62
     7
370
    15
100
AcDbCircle
 10
188.1853286453
 20
113.35735
 30
0.0
 40
3.999999999999991
100
AcDbArc
 50
235.8917846432
 51
295.8917846432
  0
ARC
  5
AC
330
1F
100
AcDbEntity
  8
0
  6
Continuous
 62
     7
370
    15
100
AcDbCircle
 10
188.1853286453
 20
113.35735
 30
0.0
 40
4.000000000000016
100
AcDbArc
 50
55.8917846432
 51
115.8917846432
  0
ARC
  5
AD
330
1F
100
AcDbEntity
  8
0
  6
Continuous
 62
     7
370
    15
100
AcDbCircle
 10
188.1853286453
 20
113.35735
 30
0.0
 40
4.000000000000016
100
AcDbArc
 50
115.8917846432
 51
175.8917846432
  0
SPLINE
  5
AE
330
1F
100
AcDbEntity
  8
0
  6
Continuous
 62
     7
370
    15
100
AcDbSpline
210
0.0
220
0.0
230
1.0
 70
     8
 71
     3
 72
    37
 73
    33
 74
     0
 42
0.000000001
 43
0.00000001
 40
0.0
 40
0.0
 40
0.0
 40
0.0
 40
0.0301697309154981
 40
0.05335729746099
 40
0.0743814031081237
 40
0.1170811139470032
 40
0.1387870832728339
 40
0.1611405519752624
 40
0.2064644282248728
 40
0.2294583760111629
 40
0.2546846345562842
 40
0.3058359386863151
 40
0.3317932050128169
 40
0.3600336369194904
 40
0.417373624441051
 40
0.446526806050162
 40
0.4764357470307138
 40
0.5372467627870262
 40
0.5682194353509978
 40
0.5984542904941743
 40
0.6289014390398248
 40
0.6600280578990055
 40
0.6913951705115032
 40
0.7211435820029505
 40
0.7817903457990383
 40
0.8128108040377426
 40
0.8401595727384155
 40
0.8960726054221244
 40
0.9247800185133956
 40
0.9482309655676328
 40
0.9961097299486371
 40
1.0
 40
1.0
 40
1.0
 40
1.0
 10
197.6603418894606
 20
144.8515688560962
 30
0.0
 10
197.6617565653631
 20
144.8518875248128
 30
0.0
 10
197.6642585194957
 20
144.8524511129187
 30
0.0
 10
197.5421325071762
 20
144.8243296925367
 30
0.0
 10
197.3471750255117
 20
144.7800368847493
 30
0.0
 10
197.0597945175323
 20
144.7161014010625
 30
0.0
 10
196.6856209719806
 20
144.6363614120039
 30
0.0
 10
196.2446425057251
 20
144.5454147740945
 30
0.0
 10
195.7167540066399
 20
144.4425984224131
 30
0.0
 10
195.1032050581968
 20
144.3327313253585
 30
0.0
 10
194.4039613155102
 20
144.2155673543974
 30
0.0
 10
193.6134229964331
 20
144.0984146899428
 30
0.0
 10
192.7451085313796
 20
143.9901119502077
 30
0.0
 10
191.790001576852
 20
143.8870952736432
 30
0.0
 10
190.7574514755478
 20
143.8044175012201
 30
0.0
 10
189.6824863950495
 20
143.7515074460577
 30
0.0
 10
188.5621773018267
 20
143.7200232807364
 30
0.0
 10
187.4133997345191
 20
143.725795537033
 30
0.0
 10
186.2785792680593
 20
143.7692996275296
 30
0.0
 10
185.4393051833458
 20
143.8196962405229
 30
0.0
 10
184.6179358651939
 20
143.8862861408844
 30
0.0
 10
183.8122948110971
 20
143.9681484976141
 30
0.0
 10
183.0450319038711
 20
144.0613468100066
 30
0.0
 10
182.0830145107923
 20
144.1957146645273
 30
0.0
 10
181.2080622379065
 20
144.3407835898886
 30
0.0
 10
180.4658064548653
 20
144.4789778609992
 30
0.0
 10
179.8315483946384
 20
144.6045274790113
 30
0.0
 10
179.3314279469568
 20
144.7114839761045
 30
0.0
 10
178.991185449953
 20
144.7873511192207
 30
0.0
 10
178.7692814022639
 20
144.8378074311158
 30
0.0
 10
178.6704988798977
 20
144.8607868257012
 30
0.0
 10
178.688347230772
 20
144.8566516942849
 30
0.0
 10
178.6896884747343
 20
144.8563409529686
 30
0.0
  0
SPLINE
  5
AF
330
1F
100
AcDbEntity
  8
0
  6
Continuous
 62
     7
370
    15
100
AcDbSpline
210
0.0
220
0.0
230
1.0
 70
    11
 71
     3
 72
    96
 73
    92
 74
     0
 42
0.000000001
 43
0.00000001
 40
0.0
 40
0.0
 40
0.0
 40
0.0
 40
0.0312500000000021
 40
0.0312500000000021
 40
0.0468750000000032
 40
0.0468750000000032
 40
0.0625000000000042
 40
0.0625000000000042
 40
0.0937500000000059
 40
0.0937500000000059
 40
0.1093750000000067
 40
0.1093750000000067
 40
0.1250000000000076
 40
0.1250000000000076
 40
0.1562500000000085
 40
0.1562500000000085
 40
0.1718750000000086
 40
0.1718750000000086
 40
0.1875000000000087
 40
0.1875000000000087
 40
0.2187500000000089
 40
0.2187500000000089
 40
0.2343750000000094
 40
0.2343750000000094
 40
0.2500000000000098
 40
0.2500000000000098
 40
0.28125000000001
 40
0.28125000000001
 40
0.2968750000000098
 40
0.2968750000000098
 40
0.3125000000000097
 40
0.3125000000000097
 40
0.343750000000009
 40
0.343750000000009
 40
0.3593750000000088
 40
0.3593750000000088
 40
0.3750000000000086
 40
0.3750000000000086
 40
0.3906250000000084
 40
0.3906250000000084
 40
0.4062500000000082
 40
0.4062500000000082
 40
0.4375000000000075
 40
0.4375000000000075
 40
0.4531250000000072
 40
0.4531250000000072
 40
0.4687500000000068
 40
0.4687500000000068
 40
0.5000000000000062
 40
0.5000000000000062
 40
0.5312500000000057
 40
0.5312500000000057
 40
0.5468750000000057
 40
0.5468750000000057
 40
0.5625000000000058
 40
0.5625000000000058
 40
0.5937500000000051
 40
0.5937500000000051
 40
0.6250000000000044
 40
0.6250000000000044
 40
0.6562500000000038
 40
0.6562500000000038
 40
0.6875000000000031
 40
0.6875000000000031
 40
0.7187500000000024
 40
0.7187500000000024
 40
0.7500000000000018
 40
0.7500000000000018
 40
0.7656250000000016
 40
0.7656250000000016
 40
0.7812500000000014
 40
0.7812500000000014
 40
0.8125000000000011
 40
0.8125000000000011
 40
0.828125000000001
 40
0.828125000000001
 40
0.843750000000001
 40
0.843750000000001
 40
0.8750000000000008
 40
0.8750000000000008
 40
0.8906250000000007
 40
0.8906250000000007
 40
0.9062500000000007
 40
0.9062500000000007
 40
0.9218750000000006
 40
0.9218750000000006
 40
0.9375000000000006
 40
0.9375000000000006
 40
0.9687500000000003
 40
0.9687500000000003
 40
1.0
 40
1.0
 40
1.0
 40
1.0
 10
181.8363271290457
 20
119.5681343662053
 30
0.0
 10
182.296419130123
 20
119.9334108884688
 30
0.0
 10
182.7836629415463
 20
120.2498350264728
 30
0.0
 10
183.5518761823961
 20
120.6585129720205
 30
0.0
 10
183.8142260433744
 20
120.7836453369784
 30
0.0
 10
184.351492183203
 20
121.0118901295561
 30
0.0
 10
184.6276686932432
 20
121.115391606429
 30
0.0
 10
185.4658398018044
 20
121.3891271685583
 30
0.0
 10
186.0340234106284
 20
121.5223745564879
 30
0.0
 10
186.8998908139
 20
121.6517915485897
 30
0.0
 10
187.1907929361771
 20
121.6831079416451
 30
0.0
 10
187.7772363536087
 20
121.7217408247747
 30
0.0
 10
188.0739541362706
 20
121.7289612300159
 30
0.0
 10
188.9558107930608
 20
121.7138745243067
 30
0.0
 10
189.5364085407443
 20
121.6557491867447
 30
0.0
 10
190.3965514080331
 20
121.4974909534165
 30
0.0
 10
190.6814631845968
 20
121.4328205314923
 30
0.0
 10
191.2475864674126
 20
121.2788926654242
 30
0.0
 10
191.5296382351237
 20
121.1892155814043
 30
0.0
 10
192.3540728836729
 20
120.8876040780674
 30
0.0
 10
192.8798453492961
 20
120.6423902902764
 30
0.0
 10
193.6324930350728
 20
120.2068258361523
 30
0.0
 10
193.8773348471932
 20
120.050271804
 30
0.0
 10
194.3543597178709
 20
119.7131245663439
 30
0.0
 10
194.5869693416271
 20
119.5319522151869
 30
0.0
 10
195.2495306659895
 20
118.9630226121926
 30
0.0
 10
195.6499356127296
 20
118.5467467125629
 30
0.0
 10
196.1852967982063
 20
117.8628857725318
 30
0.0
 10
196.3527958577189
 20
117.6249519731148
 30
0.0
 10
196.6641315739866
 20
117.1273643153006
 30
0.0
 10
196.8069844426866
 20
116.8687986884253
 30
0.0
 10
197.1866906101394
 20
116.0809986080159
 30
0.0
 10
197.3794194639273
 20
115.5334237669553
 30
0.0
 10
197.571396981724
 20
114.6757889909353
 30
0.0
 10
197.6192025994008
 20
114.3814476822404
 30
0.0
 10
197.6781684099002
 20
113.7946317027834
 30
0.0
 10
197.6897517252037
 20
113.5017999926208
 30
0.0
 10
197.6779116689924
 20
112.9172641794088
 30
0.0
 10
197.654487183678
 20
112.6255601117248
 30
0.0
 10
197.572282470112
 20
112.043289686098
 30
0.0
 10
197.5128980967319
 20
111.7510435294878
 30
0.0
 10
197.2861183866281
 20
110.8976529456641
 30
0.0
 10
197.0707273894853
 20
110.354288347282
 30
0.0
 10
196.6571031941269
 20
109.5749505659148
 30
0.0
 10
196.5041909337966
 20
109.3219614759844
 30
0.0
 10
196.1757436497538
 20
108.8384286134253
 30
0.0
 10
195.9994689663581
 20
108.6064302960289
 30
0.0
 10
195.4361121560544
 20
107.9382071040751
 30
0.0
 10
195.0103463690807
 20
107.526617749406
 30
0.0
 10
194.0989937469191
 20
106.7989029220278
 30
0.0
 10
193.6122091674453
 20
106.4798732575186
 30
0.0
 10
192.8369506641698
 20
106.0651022840698
 30
0.0
 10
192.570308498588
 20
105.9374074668277
 30
0.0
 10
192.03142733651
 20
105.7075834589795
 30
0.0
 10
191.7581076019105
 20
105.6048074671433
 30
0.0
 10
190.9268123217306
 20
105.3316845206426
 30
0.0
 10
190.3575923166185
 20
105.196242529977
 30
0.0
 10
189.188373441545
 20
105.0199340371725
 30
0.0
 10
188.601707631053
 20
104.9813401771149
 30
0.0
 10
187.4333492009039
 20
104.9997100124628
 30
0.0
 10
186.8500487054288
 20
105.0564636009722
 30
0.0
 10
185.6859953070519
 20
105.2698040263983
 30
0.0
 10
185.1220223520957
 20
105.4232867864184
 30
0.0
 10
184.0290372271842
 20
105.8219456809146
 30
0.0
 10
183.4990136864402
 20
106.0676248200464
 30
0.0
 10
182.4806100542496
 20
106.6568618103796
 30
0.0
 10
182.0063439697396
 20
106.9920343850323
 30
0.0
 10
181.3475666891254
 20
107.55700216996
 30
0.0
 10
181.1368074266289
 20
107.7557670998732
 30
0.0
 10
180.7338454076285
 20
108.1754332709432
 30
0.0
 10
180.5407247647523
 20
108.3975190573197
 30
0.0
 10
179.9980563942628
 20
109.0918033816924
 30
0.0
 10
179.6900937447964
 20
109.5839285222223
 30
0.0
 10
179.3118348716418
 20
110.3682457870515
 30
0.0
 10
179.1998019435085
 20
110.6374295838806
 30
0.0
 10
179.0058446170569
 20
111.1924719514195
 30
0.0
 10
178.9239463340855
 20
111.4794750570009
 30
0.0
 10
178.7329398495981
 20
112.3401963136128
 30
0.0
 10
178.6745447062429
 20
112.9216286968696
 30
0.0
 10
178.693143678704
 20
113.8055406149015
 30
0.0
 10
178.7176152628243
 20
114.103672007997
 30
0.0
 10
178.8012628247599
 20
114.6873405429792
 30
0.0
 10
178.8602961767703
 20
114.9746934574333
 30
0.0
 10
179.0115343732411
 20
115.54078342021
 30
0.0
 10
179.1037423657693
 20
115.8195196107084
 30
0.0
 10
179.3212051408866
 20
116.3684425275444
 30
0.0
 10
179.4461303774532
 20
116.6372388293735
 30
0.0
 10
179.8599719950109
 20
117.4127753796027
 30
0.0
 10
180.1898454786688
 20
117.8950924512583
 30
0.0
 10
180.9517905711826
 20
118.7949659562505
 30
0.0
 10
181.3762351279685
 20
119.2028578439419
 30
0.0
 10
181.8363271290457
 20
119.5681343662053
 30
0.0
  0
LINE
  5
B0
330
1F
100
AcDbEntity
  8
0
  6
Continuous
 62
     7
370
    15
100
AcDbLine
 10
205.6353316017
 20
113.35735
 30
0.0
 11
205.6353316017
 21
81.8573494934
 31
0.0
  0
LINE
  5
B1
330
1F
100
AcDbEntity
  8
0
  6
Continuous
 62
     7
370
    15
100
AcDbLine
 10
205.6353316017
 20
144.8573505066
 30
0.0
 11
205.6353316017
 21
113.35735
 31
0.0
  0
LINE
  5
B2
330
1F
100
AcDbEntity
  8
0
  6
Continuous
 62
     7
370
    15
100
AcDbLine
 10
206.2353268572
 20
113.35735
 30
0.0
 11
206.2353268572
 21
82.4573503368
 31
0.0
  0
LINE
  5
B3
330
1F
100
AcDbEntity
  8
0
  6
Continuous
 62
     7
370
    15
100
AcDbLine
 10
206.2353268572
 20
144.2573496632
 30
0.0
 11
206.2353268572
 21
113.35735
 31
0.0
  0
LINE
  5
B4
330
1F
100
AcDbEntity
  8
0
  6
Continuous
 62
     7
370
    15
100
AcDbLine
 10
152.1853283354
 20
83.7970727615
 30
0.0
 11
152.1853283354
 21
133.2073507391
 31
0.0
  0
SPLINE
  5
B5
330
1F
100
AcDbEntity
  8
0
  6
Continuous
 62
     7
370
    15
100
AcDbSpline
210
0.0
220
0.0
230
1.0
 70
     8
 71
     3
 72
    10
 73
     6
 74
     0
 42
0.000000001
 43
0.00000001
 40
0.0
 40
0.0
 40
0.0
 40
0.0
 40
0.5
 40
0.5
 40
1.0
 40
1.0
 40
1.0
 40
1.0
 10
152.1853286453085
 20
83.7970725994071
 30
0.0
 10
152.1853286453085
 20
83.63718533121344
 30
0.0
 10
152.1240189940727
 20
83.47605807569886
 30
0.0
 10
151.9049193565376
 20
83.241959077344
 30
0.0
 10
151.7468711502241
 20
83.17043230375279
 30
0.0
 10
151.5853286453086
 20
83.17043230375279
 30
0.0
  0
SPLINE
  5
B6
330
1F
100
AcDbEntity
  8
0
  6
Continuous
 62
     7
370
    15
100
AcDbSpline
210
0.0
220
0.0
230
1.0
 70
    24
 71
     3
 72
    12
 73
     8
 74
     0
 42
0.000000001
 43
0.00000001
 40
0.0
 40
0.0
 40
0.0
 40
0.0
 40
0.2500000000000033
 40
0.2500000000000033
 40
0.5000000000000067
 40
0.5000000000000067
 40
1.0
 40
1.0
 40
1.0
 40
1.0
 10
151.5853286453085
 20
133.2073499999999
 30
0.0
 10
151.6755677129956
 20
133.2073499999999
 30
0.0
 10
151.7664658271021
 20
133.2073499999999
 30
0.0
 10
151.9210628635906
 20
133.2073499999999
 30
0.0
 10
151.9860412796987
 20
133.2073499999999
 30
0.0
 10
152.1378763076349
 20
133.2073499999999
 30
0.0
 10
152.1853286453085
 20
133.2073499999999
 30
0.0
 10
152.1853286453085
 20
133.2073499999999
 30
0.0
  0
LINE
  5
B7
330
1F
100
AcDbEntity
  8
0
  6
Continuous
 62
     7
370
    15
100
AcDbLine
 10
126.2353286453
 20
82.1573508464
 30
0.0
 11
126.2353286453
 21
144.5573491536
 31
0.0
  0
LINE
  5
B8
330
1F
100
AcDbEntity
  8
0
  6
Continuous
 62
     7
370
    15
100
AcDbLine
 10
147.6272605666
 20
83.1704323672
 30
0.0
 11
147.6272605666
 21
133.2073507391
 31
0.0
  0
SPLINE
  5
B9
330
1F
100
AcDbEntity
  8
0
  6
Continuous
 62
     7
370
    15
100
AcDbSpline
210
0.0
220
0.0
230
1.0
 70
     8
 71
     3
 72
     8
 73
     4
 74
     0
 42
0.000000001
 43
0.00000001
 40
0.0
 40
0.0
 40
0.0
 40
0.0
 40
1.0
 40
1.0
 40
1.0
 40
1.0
 10
147.6272614767976
 20
83.17043230375279
 30
0.0
 10
147.1317818161318
 20
84.06595839168614
 30
0.0
 10
146.6376677680897
 20
84.96224280673837
 30
0.0
 10
146.1453286453086
 20
85.85951284094507
 30
0.0
  0
LINE
  5
BA
330
1F
100
AcDbEntity
  8
0
  6
Continuous
 62
     7
370
    15
100
AcDbLine
 10
146.14532891
 20
85.85951268
 30
0.0
 11
146.14532891
 21
133.2073507391
 31
0.0
  0
SPLINE
  5
BB
330
1F
100
AcDbEntity
  8
0
  6
Continuous
 62
     7
370
    15
100
AcDbSpline
210
0.0
220
0.0
230
1.0
 70
    24
 71
     3
 72
     8
 73
     4
 74
     0
 42
0.000000001
 43
0.00000001
 40
0.0
 40
0.0
 40
0.0
 40
0.0
 40
1.0
 40
1.0
 40
1.0
 40
1.0
 10
146.1453286453086
 20
133.2073499999999
 30
0.0
 10
146.6252806396735
 20
133.2073499999999
 30
0.0
 10
147.1205813686471
 20
133.2073499999999
 30
0.0
 10
147.6272614767976
 20
133.2073499999999
 30
0.0
  0
LINE
  5
BC
330
1F
100
AcDbEntity
  8
0
  6
Continuous
 62
     7
370
    15
100
AcDbLine
 10
168.2353280791
 20
113.35735
 30
0.0
 11
168.2353280791
 21
82.8573496573
 31
0.0
  0
LINE
  5
BD
330
1F
100
AcDbEntity
  8
0
  6
Continuous
 62
     7
370
    15
100
AcDbLine
 10
168.2353280791
 20
143.8573503427
 30
0.0
 11
168.2353280791
 21
113.35735
 31
0.0
  0
LINE
  5
BE
330
1F
100
AcDbEntity
  8
0
  6
Continuous
 62
     7
370
    15
100
AcDbLine
 10
151.5853293546
 20
83.1704323672
 30
0.0
 11
147.6272605666
 21
83.1704323672
 31
0.0
  0
LINE
  5
BF
330
1F
100
AcDbEntity
  8
0
  6
Continuous
 62
     7
370
    15
100
AcDbLine
 10
147.6272605666
 20
133.2073507391
 30
0.0
 11
151.5853293546
 21
133.2073507391
 31
0.0
  0
LINE
  5
C0
330
1F
100
AcDbEntity
  8
0
  6
Continuous
 62
     7
370
    15
100
AcDbLine
 10
142.3253286936
 20
85.85951268
 30
0.0
 11
142.3253286936
 21
133.2073507391
 31
0.0
  0
SPLINE
  5
C1
330
1F
100
AcDbEntity
  8
0
  6
Continuous
 62
     7
370
    15
100
AcDbSpline
210
0.0
220
0.0
230
1.0
 70
     8
 71
     3
 72
     8
 73
     4
 74
     0
 42
0.000000001
 43
0.00000001
 40
0.0
 40
0.0
 40
0.0
 40
0.0
 40
1.0
 40
1.0
 40
1.0
 40
1.0
 10
142.3253286453085
 20
85.85951284094507
 30
0.0
 10
141.8329895225274
 20
84.96224280673837
 30
0.0
 10
141.3388754744852
 20
84.06595839168614
 30
0.0
 10
140.8433958138195
 20
83.17043230375279
 30
0.0
  0
LINE
  5
C2
330
1F
100
AcDbEntity
  8
0
  6
Continuous
 62
     7
370
    15
100
AcDbLine
 10
140.8433961057
 20
83.1704323672
 30
0.0
 11
140.8433961057
 21
133.2073507391
 31
0.0
  0
SPLINE
  5
C3
330
1F
100
AcDbEntity
  8
0
  6
Continuous
 62
     7
370
    15
100
AcDbSpline
210
0.0
220
0.0
230
1.0
 70
    24
 71
     3
 72
     8
 73
     4
 74
     0
 42
0.000000001
 43
0.00000001
 40
0.0
 40
0.0
 40
0.0
 40
0.0
 40
1.0
 40
1.0
 40
1.0
 40
1.0
 10
140.8433958138195
 20
133.2073499999999
 30
0.0
 10
141.35007592197
 20
133.2073499999999
 30
0.0
 10
141.8453766509436
 20
133.2073499999999
 30
0.0
 10
142.3253286453085
 20
133.2073499999999
 30
0.0
  0
LINE
  5
C4
330
1F
100
AcDbEntity
  8
0
  6
Continuous
 62
     7
370
    15
100
AcDbLine
 10
131.1853286185
 20
133.2073507391
 30
0.0
 11
140.8433961057
 21
133.2073507391
 31
0.0
  0
LINE
  5
C5
330
1F
100
AcDbEntity
  8
0
  6
Continuous
 62
     7
370
    15
100
AcDbLine
 10
140.8433961057
 20
83.1704323672
 30
0.0
 11
139.1853289985
 21
83.1704323672
 31
0.0
  0
SPLINE
  5
C6
330
1F
100
AcDbEntity
  8
0
  6
Continuous
 62
     7
370
    15
100
AcDbSpline
210
0.0
220
0.0
230
1.0
 70
     8
 71
     3
 72
    28
 73
    24
 74
     0
 42
0.000000001
 43
0.00000001
 40
0.0
 40
0.0
 40
0.0
 40
0.0
 40
0.1249999999999999
 40
0.1249999999999999
 40
0.1874999999999998
 40
0.1874999999999998
 40
0.2499999999999997
 40
0.2499999999999997
 40
0.3749999999999993
 40
0.3749999999999993
 40
0.4374999999999993
 40
0.4374999999999993
 40
0.4999999999999992
 40
0.4999999999999992
 40
0.6249999999999992
 40
0.6249999999999992
 40
0.7499999999999992
 40
0.7499999999999992
 40
0.8124999999999993
 40
0.8124999999999993
 40
0.8749999999999996
 40
0.8749999999999996
 40
1.0
 40
1.0
 40
1.0
 40
1.0
 10
139.1853286453085
 20
83.17043230375279
 30
0.0
 10
138.6536208878156
 20
83.17043230375279
 30
0.0
 10
138.1313823225053
 20
83.15464758980256
 30
0.0
 10
137.3615118362303
 20
83.10965217572635
 30
0.0
 10
137.1071522640389
 20
83.09109718065064
 30
0.0
 10
136.6030306833404
 20
83.04724445820413
 30
0.0
 10
136.3533078659125
 20
83.02189985125194
 30
0.0
 10
135.6277179144661
 20
82.93849777350182
 30
0.0
 10
135.1693576528845
 20
82.87263221435073
 30
0.0
 10
134.5188597094906
 20
82.76366187385896
 30
0.0
 10
134.3071776586982
 20
82.7254222380923
 30
0.0
 10
133.9031061695602
 20
82.64766350067296
 30
0.0
 10
133.7105996557393
 20
82.60816253849761
 30
0.0
 10
133.1607646847181
 20
82.4892547961316
 30
0.0
 10
132.8308359064092
 20
82.40943711470698
 30
0.0
 10
132.2463646378406
 20
82.25609395291092
 30
0.0
 10
132.0000874998271
 20
82.18476019964166
 30
0.0
 10
131.700244707129
 20
82.09081669256705
 30
0.0
 10
131.6117878500569
 20
82.06162289920712
 30
0.0
 10
131.4584264967517
 20
82.00815632494371
 30
0.0
 10
131.3933382825255
 20
81.98379699066854
 30
0.0
 10
131.2377442665847
 20
81.9202068452238
 30
0.0
 10
131.1853286453085
 20
81.89010391013454
 30
0.0
 10
131.1853286453085
 20
81.87322701713762
 30
0.0
  0
LINE
  5
C7
330
1F
100
AcDbEntity
  8
0
  6
Continuous
 62
     7
370
    15
100
AcDbLine
 10
131.1853286185
 20
81.8732266806
 30
0.0
 11
131.1853286185
 21
81.8573494934
 31
0.0
  0
SPLINE
  5
C8
330
1F
100
AcDbEntity
  8
0
  6
Continuous
 62
     7
370
    15
100
AcDbSpline
210
0.0
220
0.0
230
1.0
 70
     8
 71
     3
 72
    17
 73
    13
 74
     0
 42
0.000000001
 43
0.00000001
 40
0.0
 40
0.0
 40
0.0
 40
0.0
 40
0.1034797280380778
 40
0.2100239090909901
 40
0.3134862262879433
 40
0.4198361712144981
 40
0.5254127947779869
 40
0.6339610881168427
 40
0.7409508662120068
 40
0.8511696072047016
 40
0.9558996557845765
 40
1.0
 40
1.0
 40
1.0
 40
1.0
 10
139.185328998466
 20
143.8245454363584
 30
0.0
 10
138.7500805067401
 20
143.829993427996
 30
0.0
 10
137.8666940561631
 20
143.8410507483247
 30
0.0
 10
136.5858661939404
 20
143.9274095086997
 30
0.0
 10
135.3684499984984
 20
144.0552806518327
 30
0.0
 10
134.2606433821726
 20
144.2142250591512
 30
0.0
 10
133.2724049028438
 20
144.3887196321358
 30
0.0
 10
132.447681803028
 20
144.5578860653227
 30
0.0
 10
131.7987281455294
 20
144.7057668737904
 30
0.0
 10
131.3816928420497
 20
144.8075576253129
 30
0.0
 10
131.1830960991718
 20
144.8579145249474
 30
0.0
 10
131.2064092161597
 20
144.8520049199719
 30
0.0
 10
131.2133171901601
 20
144.8502538286209
 30
0.0
  0
LINE
  5
C9
330
1F
100
AcDbEntity
  8
0
  6
Continuous
 62
     7
370
    15
100
AcDbLine
 10
140.8433961057
 20
143.8245454364
 30
0.0
 11
139.1853289985
 21
143.8245454364
 31
0.0
  0
LINE
  5
CA
330
1F
100
AcDbEntity
  8
0
  6
Continuous
 62
     7
370
    15
100
AcDbLine
 10
140.8433961057
 20
137.8160396151
 30
0.0
 11
140.8433961057
 21
143.8245454364
 31
0.0
  0
LINE
  5
CB
330
1F
100
AcDbEntity
  8
0
  6
Continuous
 62
     7
370
    15
100
AcDbLine
 10
138.4309493311
 20
137.8160396151
 30
0.0
 11
140.8433961057
 21
137.8160396151
 31
0.0
  0
SPLINE
  5
CC
330
1F
100
AcDbEntity
  8
0
  6
Continuous
 62
     7
370
    15
100
AcDbSpline
210
0.0
220
0.0
230
1.0
 70
     8
 71
     3
 72
    20
 73
    16
 74
     0
 42
0.000000001
 43
0.00000001
 40
0.0
 40
0.0
 40
0.0
 40
0.0
 40
0.2499999999999995
 40
0.2499999999999995
 40
0.3749999999999996
 40
0.3749999999999996
 40
0.4999999999999997
 40
0.4999999999999997
 40
0.6249999999999998
 40
0.6249999999999998
 40
0.7499999999999998
 40
0.7499999999999998
 40
0.8749999999999999
 40
0.8749999999999999
 40
1.0
 40
1.0
 40
1.0
 40
1.0
 10
131.1853286453085
 20
133.2073499999999
 30
0.0
 10
131.4337023795966
 20
133.8612124282973
 30
0.0
 10
131.7532724719418
 20
134.4649982102945
 30
0.0
 10
132.3755787051466
 20
135.2918369464631
 30
0.0
 10
132.6070029655773
 20
135.554265584416
 30
0.0
 10
133.128217305227
 20
136.050928238521
 30
0.0
 10
133.4148377878621
 20
136.2815151175425
 30
0.0
 10
134.0343225291697
 20
136.6980693421251
 30
0.0
 10
134.3686229086566
 20
136.8855671440927
 30
0.0
 10
135.0938833812814
 20
137.2169641217291
 30
0.0
 10
135.4757984386719
 20
137.3564681092244
 30
0.0
 10
136.2705866148436
 20
137.5819216166953
 30
0.0
 10
136.68474480905
 20
137.6685477282389
 30
0.0
 10
137.5502911496314
 20
137.786528517093
 30
0.0
 10
137.9881787646432
 20
137.8160396623674
 30
0.0
 10
138.4309489909978
 20
137.8160396623674
 30
0.0
  0
SPLINE
  5
CD
330
1F
100
AcDbEntity
  8
0
  6
Continuous
 62
     7
370
    15
100
AcDbSpline
210
0.0
220
0.0
230
1.0
 70
     8
 71
     3
 72
    10
 73
     6
 74
     0
 42
0.000000001
 43
0.00000001
 40
0.0
 40
0.0
 40
0.0
 40
0.0
 40
0.5
 40
0.5
 40
1.0
 40
1.0
 40
1.0
 40
1.0
 10
142.7196261769995
 20
139.7573499999999
 30
0.0
 10
142.5980859133309
 20
139.8320761672117
 30
0.0
 10
142.496751552982
 20
139.9410211831285
 30
0.0
 10
142.3611126100936
 20
140.1914516638901
 30
0.0
 10
142.3253286453085
 20
140.3338710259891
 30
0.0
 10
142.3253286453085
 20
140.4770038510357
 30
0.0
  0
SPLINE
  5
CE
330
1F
100
AcDbEntity
  8
0
  6
Continuous
 62
     7
370
    15
100
AcDbSpline
210
0.0
220
0.0
230
1.0
 70
    24
 71
     3
 72
    12
 73
     8
 74
     0
 42
0.000000001
 43
0.00000001
 40
0.0
 40
0.0
 40
0.0
 40
0.0
 40
0.2500000000000021
 40
0.2500000000000021
 40
0.5000000000000041
 40
0.5000000000000041
 40
1.0
 40
1.0
 40
1.0
 40
1.0
 10
143.1253286453085
 20
139.7573499999999
 30
0.0
 10
143.0754519629911
 20
139.7573499999999
 30
0.0
 10
143.0274487695875
 20
139.7573499999999
 30
0.0
 10
142.9444006668755
 20
139.7573499999999
 30
0.0
 10
142.9082710874077
 20
139.7573499999999
 30
0.0
 10
142.8123590564634
 20
139.7573499999999
 30
0.0
 10
142.7626003884946
 20
139.7573499999999
 30
0.0
 10
142.7196261769995
 20
139.7573499999999
 30
0.0
  0
SPLINE
  5
CF
330
1F
100
AcDbEntity
  8
0
  6
Continuous
 62
     7
370
    15
100
AcDbSpline
210
0.0
220
0.0
230
1.0
 70
    24
 71
     3
 72
    14
 73
    10
 74
     0
 42
0.000000001
 43
0.00000001
 40
0.0
 40
0.0
 40
0.0
 40
0.0
 40
0.1249999999999983
 40
0.1249999999999983
 40
0.2499999999999967
 40
0.2499999999999967
 40
0.4999999999999968
 40
0.4999999999999968
 40
1.0
 40
1.0
 40
1.0
 40
1.0
 10
143.1253286453085
 20
86.95734999999995
 30
0.0
 10
143.0568907974221
 20
86.95734999999995
 30
0.0
 10
142.991340758657
 20
86.95734999999995
 30
0.0
 10
142.8869141192491
 20
86.95734999999995
 30
0.0
 10
142.8443695094876
 20
86.95734999999995
 30
0.0
 10
142.7317600489474
 20
86.95734999999995
 30
0.0
 10
142.6762210019279
 20
86.95734999999995
 30
0.0
 10
142.5336093064641
 20
86.95734999999993
 30
0.0
 10
142.4702039514684
 20
86.95734999999995
 30
0.0
 10
142.4230034476408
 20
86.95734999999995
 30
0.0
  0
SPLINE
  5
D0
330
1F
100
AcDbEntity
  8
0
  6
Continuous
 62
     7
370
    15
100
AcDbSpline
210
0.0
220
0.0
230
1.0
 70
     8
 71
     3
 72
    10
 73
     6
 74
     0
 42
0.000000001
 43
0.00000001
 40
0.0
 40
0.0
 40
0.0
 40
0.0
 40
0.5
 40
0.5
 40
1.0
 40
1.0
 40
1.0
 40
1.0
 10
142.3253286453085
 20
133.4932166314613
 30
0.0
 10
142.3253286453085
 20
133.445445123468
 30
0.0
 10
142.3274898889057
 20
133.3977354014064
 30
0.0
 10
142.3361612627658
 20
133.3024402838581
 30
0.0
 10
142.3426904457218
 20
133.2547477198914
 30
0.0
 10
142.3514762684687
 20
133.2073499999999
 30
0.0
  0
SPLINE
  5
D1
330
1F
100
AcDbEntity
  8
0
  6
Continuous
 62
     7
370
    15
100
AcDbSpline
210
0.0
220
0.0
230
1.0
 70
    24
 71
     3
 72
    14
 73
    10
 74
     0
 42
0.000000001
 43
0.00000001
 40
0.0
 40
0.0
 40
0.0
 40
0.0
 40
0.4999999999999982
 40
0.4999999999999982
 40
0.7499999999999973
 40
0.7499999999999973
 40
0.8749999999999987
 40
0.8749999999999987
 40
1.0
 40
1.0
 40
1.0
 40
1.0
 10
146.0476538429762
 20
86.95734999999995
 30
0.0
 10
146.0004436837465
 20
86.95734999999995
 30
0.0
 10
145.9372092102028
 20
86.95734999999995
 30
0.0
 10
145.7933972794748
 20
86.95734999999993
 30
0.0
 10
145.7380722049984
 20
86.95734999999993
 30
0.0
 10
145.6261610317634
 20
86.95734999999995
 30
0.0
 10
145.5833739453224
 20
86.95734999999995
 30
0.0
 10
145.4790086122888
 20
86.95734999999993
 30
0.0
 10
145.4147848179871
 20
86.95734999999995
 30
0.0
 10
145.345328645364
 20
86.95734999999995
 30
0.0
  0
SPLINE
  5
D2
330
1F
100
AcDbEntity
  8
0
  6
Continuous
 62
     7
370
    15
100
AcDbSpline
210
0.0
220
0.0
230
1.0
 70
    24
 71
     3
 72
    12
 73
     8
 74
     0
 42
0.000000001
 43
0.00000001
 40
0.0
 40
0.0
 40
0.0
 40
0.0
 40
0.4999999999999983
 40
0.4999999999999983
 40
0.7499999999999991
 40
0.7499999999999991
 40
1.0
 40
1.0
 40
1.0
 40
1.0
 10
145.7510311136178
 20
139.7573499999999
 30
0.0
 10
145.7075929258149
 20
139.7573499999999
 30
0.0
 10
145.6583986775168
 20
139.7573499999999
 30
0.0
 10
145.5616799201357
 20
139.7573499999999
 30
0.0
 10
145.5254924386341
 20
139.7573499999999
 30
0.0
 10
145.4426145801094
 20
139.7573499999999
 30
0.0
 10
145.3946611328026
 20
139.7573499999999
 30
0.0
 10
145.3453286453085
 20
139.7573499999999
 30
0.0
  0
SPLINE
  5
D3
330
1F
100
AcDbEntity
  8
0
  6
Continuous
 62
     7
370
    15
100
AcDbSpline
210
0.0
220
0.0
230
1.0
 70
     8
 71
     3
 72
    10
 73
     6
 74
     0
 42
0.000000001
 43
0.00000001
 40
0.0
 40
0.0
 40
0.0
 40
0.0
 40
0.5
 40
0.5
 40
1.0
 40
1.0
 40
1.0
 40
1.0
 10
146.1453286453085
 20
140.4770038510357
 30
0.0
 10
146.1453286453085
 20
140.3332337932179
 30
0.0
 10
146.1092795865898
 20
140.190814430723
 30
0.0
 10
145.9737707258161
 20
139.940920137366
 30
0.0
 10
145.8738947327203
 20
139.8328898011179
 30
0.0
 10
145.7510311136186
 20
139.7573500000006
 30
0.0
  0
SPLINE
  5
D4
330
1F
100
AcDbEntity
  8
0
  6
Continuous
 62
     7
370
    15
100
AcDbSpline
210
0.0
220
0.0
230
1.0
 70
     8
 71
     3
 72
     9
 73
     5
 74
     0
 42
0.000000001
 43
0.00000001
 40
0.0
 40
0.0
 40
0.0
 40
0.0
 40
0.5
 40
1.0
 40
1.0
 40
1.0
 40
1.0
 10
146.1191810221484
 20
133.2073499999999
 30
0.0
 10
146.1279195920308
 20
133.2544928003353
 30
0.0
 10
146.1409388783672
 20
133.3492888820059
 30
0.0
 10
146.1453286453086
 20
133.4450731535662
 30
0.0
 10
146.1453286453085
 20
133.4932166314613
 30
0.0
  0
LINE
  5
D5
330
1F
100
AcDbEntity
  8
0
  6
Continuous
 62
     7
370
    15
100
AcDbLine
 10
145.3453284063
 20
139.7573498569
 30
0.0
 11
143.1253291972
 21
139.7573498569
 31
0.0
  0
LINE
  5
D6
330
1F
100
AcDbEntity
  8
0
  6
Continuous
 62
     7
370
    15
100
AcDbLine
 10
145.3453284063
 20
86.9573501431
 30
0.0
 11
143.1253291972
 21
86.9573501431
 31
0.0
  0
ARC
  5
D7
330
1F
100
AcDbEntity
  8
0
  6
Continuous
 62
     7
370
    15
100
AcDbCircle
 10
153.1743386735
 20
139.7685860184
 30
0.0
 40
0.9890741631884964
100
AcDbArc
 50
180.6509102161
 51
270.6366394094
  0
SPLINE
  5
D8
330
1F
100
AcDbEntity
  8
0
  6
Continuous
 62
     7
370
    15
100
AcDbSpline
210
0.0
220
0.0
230
1.0
 70
     8
 71
     3
 72
     9
 73
     5
 74
     0
 42
0.000000001
 43
0.00000001
 40
0.0
 40
0.0
 40
0.0
 40
0.0
 40
0.9836837432244614
 40
0.9999999999999999
 40
0.9999999999999999
 40
0.9999999999999999
 40
0.9999999999999999
 10
153.0101411350565
 20
87.39244542345995
 30
0.0
 10
152.9966368047556
 20
87.37121477627093
 30
0.0
 10
152.9829084795759
 20
87.3496319786134
 30
0.0
 10
152.9955331749906
 20
87.37083183878389
 30
0.0
 10
152.9957391627627
 20
87.37117774114603
 30
0.0
  0
SPLINE
  5
D9
330
1F
100
AcDbEntity
  8
0
  6
Continuous
 62
     7
370
    15
100
AcDbSpline
210
0.0
220
0.0
230
1.0
 70
     8
 71
     3
 72
    10
 73
     6
 74
     0
 42
0.000000001
 43
0.00000001
 40
0.0
 40
0.0
 40
0.0
 40
0.0
 40
0.1484100657264545
 40
0.572516516940103
 40
1.0
 40
1.0
 40
1.0
 40
1.0
 10
153.0101411350565
 20
139.3222545765399
 30
0.0
 10
153.0025769423555
 20
139.3328339870279
 30
0.0
 10
152.9733968106879
 20
139.3736458228978
 30
0.0
 10
153.1220482261439
 20
139.1994441328983
 30
0.0
 10
153.1641793836741
 20
138.9198995029362
 30
0.0
 10
153.1853284992771
 20
138.7795729123115
 30
0.0
  0
LINE
  5
DA
330
1F
100
AcDbEntity
  8
0
  6
Continuous
 62
     7
370
    15
100
AcDbLine
 10
104.4353284248
 20
90.1289039783
 30
0.0
 11
104.4353284248
 21
91.393612095
 31
0.0
  0
SPLINE
  5
DB
330
1F
100
AcDbEntity
  8
0
  6
Continuous
 62
     7
370
    15
100
AcDbSpline
210
0.0
220
0.0
230
1.0
 70
     8
 71
     3
 72
    14
 73
    10
 74
     0
 42
0.000000001
 43
0.00000001
 40
0.0
 40
0.0
 40
0.0
 40
0.0
 40
0.25
 40
0.25
 40
0.5
 40
0.5
 40
0.75
 40
0.75
 40
1.0
 40
1.0
 40
1.0
 40
1.0
 10
103.6570415273928
 20
92.52419867644001
 30
0.0
 10
103.7136682025949
 20
92.41650122260315
 30
0.0
 10
103.8081908628846
 20
92.31371164088382
 30
0.0
 10
103.9912358384469
 20
92.11535432866366
 30
0.0
 10
104.0828624154016
 20
92.01929481998542
 30
0.0
 10
104.2417157330948
 20
91.83176577727617
 30
0.0
 10
104.3096063407165
 20
91.74035680449262
 30
0.0
 10
104.4065233664241
 20
91.56198058358248
 30
0.0
 10
104.4353286453091
 20
91.47475867733628
 30
0.0
 10
104.4353286453091
 20
91.39361246880203
 30
0.0
  0
SPLINE
  5
DC
330
1F
100
AcDbEntity
  8
0
  6
Continuous
 62
     7
370
    15
100
AcDbSpline
210
0.0
220
0.0
230
1.0
 70
     8
 71
     3
 72
    14
 73
    10
 74
     0
 42
0.000000001
 43
0.00000001
 40
0.0
 40
0.0
 40
0.0
 40
0.0
 40
0.1249999999999979
 40
0.1249999999999979
 40
0.2499999999999958
 40
0.2499999999999958
 40
0.4999999999999948
 40
0.4999999999999948
 40
1.0
 40
1.0
 40
1.0
 40
1.0
 10
103.0353286453085
 20
92.97088053871931
 30
0.0
 10
103.0838730539657
 20
92.9766288519996
 30
0.0
 10
103.1367884087506
 20
92.97352796334336
 30
0.0
 10
103.2320837537336
 20
92.95133311918103
 30
0.0
 10
103.2723347510186
 20
92.93410089208517
 30
0.0
 10
103.3766047645316
 20
92.87777297563312
 30
0.0
 10
103.4269267396849
 20
92.83358662968733
 30
0.0
 10
103.5546096872103
 20
92.7025787308367
 30
0.0
 10
103.6106951342725
 20
92.61234421060641
 30
0.0
 10
103.6570415273943
 20
92.52419867644053
 30
0.0
  0
SPLINE
  5
DD
330
1F
100
AcDbEntity
  8
0
  6
Continuous
 62
     7
370
    15
100
AcDbSpline
210
0.0
220
0.0
230
1.0
 70
     8
 71
     3
 72
     8
 73
     4
 74
     0
 42
0.000000001
 43
0.00000001
 40
0.0
 40
0.0
 40
0.0
 40
0.0
 40
1.0
 40
1.0
 40
1.0
 40
1.0
 10
100.7668035523624
 20
92.66103525213653
 30
0.0
 10
101.5013805788453
 20
92.77966026320547
 30
0.0
 10
102.2648556482409
 20
92.87964613534176
 30
0.0
 10
103.0353286453085
 20
92.97088053871931
 30
0.0
  0
SPLINE
  5
DE
330
1F
100
AcDbEntity
  8
0
  6
Continuous
 62
     7
370
    15
100
AcDbSpline
210
0.0
220
0.0
230
1.0
 70
     8
 71
     3
 72
    14
 73
    10
 74
     0
 42
0.000000001
 43
0.00000001
 40
0.0
 40
0.0
 40
0.0
 40
0.0
 40
0.5000000000000019
 40
0.5000000000000019
 40
0.7500000000000018
 40
0.7500000000000018
 40
0.875000000000001
 40
0.875000000000001
 40
1.0
 40
1.0
 40
1.0
 40
1.0
 10
95.48532864530854
 20
92.48741223460488
 30
0.0
 10
96.37747477586211
 20
92.48669000840424
 30
0.0
 10
97.26745121165571
 20
92.4912762148617
 30
0.0
 10
98.59404637873136
 20
92.51900121925323
 30
0.0
 10
99.0348933072301
 20
92.5316077568774
 30
0.0
 10
99.69133354465251
 20
92.56262390488484
 30
0.0
 10
99.90934720124439
 20
92.57496707751163
 30
0.0
 10
100.3420560549272
 20
92.6079911326749
 30
0.0
 10
100.557332520092
 20
92.62720829781333
 30
0.0
 10
100.7668035523624
 20
92.66103525213653
 30
0.0
  0
SPLINE
  5
DF
330
1F
100
AcDbEntity
  8
0
  6
Continuous
 62
     7
370
    15
100
AcDbSpline
210
0.0
220
0.0
230
1.0
 70
     8
 71
     3
 72
     8
 73
     4
 74
     0
 42
0.000000001
 43
0.00000001
 40
0.0000005163856998
 40
0.0000005163856998
 40
0.0000005163856998
 40
0.0000005163856998
 40
0.000026289209185
 40
0.000026289209185
 40
0.000026289209185
 40
0.000026289209185
 10
95.47528371490093
 20
92.49739610770166
 30
0.0
 10
95.47861145310875
 20
92.49406186083255
 30
0.0
 10
95.48195990608436
 20
92.49073390355721
 30
0.0
 10
95.48532864530851
 20
92.48741223460488
 30
0.0
  0
SPLINE
  5
E0
330
1F
100
AcDbEntity
  8
0
  6
Continuous
 62
     7
370
    15
100
AcDbSpline
210
0.0
220
0.0
230
1.0
 70
     8
 71
     3
 72
     8
 73
     4
 74
     0
 42
0.000000001
 43
0.00000001
 40
0.0000005099763573
 40
0.0000005099763573
 40
0.0000005099763573
 40
0.0000005099763573
 40
0.0000262827998699
 40
0.0000262827998699
 40
0.0000262827998699
 40
0.0000262827998699
 10
95.48532864530851
 20
134.227287765395
 30
0.0
 10
95.48195990608077
 20
134.2239660964391
 30
0.0
 10
95.47861145310164
 20
134.2206381391603
 30
0.0
 10
95.4752837148903
 20
134.2173038922876
 30
0.0
  0
SPLINE
  5
E1
330
1F
100
AcDbEntity
  8
0
  6
Continuous
 62
     7
370
    15
100
AcDbSpline
210
0.0
220
0.0
230
1.0
 70
     8
 71
     3
 72
    10
 73
     6
 74
     0
 42
0.000000001
 43
0.00000001
 40
0.0
 40
0.0
 40
0.0
 40
0.0
 40
0.5
 40
0.5
 40
1.0
 40
1.0
 40
1.0
 40
1.0
 10
99.03532864530854
 20
134.1804373918277
 30
0.0
 10
98.44774309821796
 20
134.2015029120641
 30
0.0
 10
97.85699670475756
 20
134.2122613979363
 30
0.0
 10
96.67297753945871
 20
134.225626178472
 30
0.0
 10
96.07956355125324
 20
134.2277688211366
 30
0.0
 10
95.48532864530854
 20
134.227287765395
 30
0.0
  0
SPLINE
  5
E2
330
1F
100
AcDbEntity
  8
0
  6
Continuous
 62
     7
370
    15
100
AcDbSpline
210
0.0
220
0.0
230
1.0
 70
     8
 71
     3
 72
    18
 73
    14
 74
     0
 42
0.000000001
 43
0.00000001
 40
0.0
 40
0.0
 40
0.0
 40
0.0
 40
0.2499999999999996
 40
0.2499999999999996
 40
0.5
 40
0.5
 40
0.7500000000000003
 40
0.7500000000000003
 40
0.8750000000000002
 40
0.8750000000000002
 40
0.9375000000000001
 40
0.9375000000000001
 40
1.0
 40
1.0
 40
1.0
 40
1.0
 10
100.4353286453085
 20
135.2014576723629
 30
0.0
 10
100.4353286453085
 20
135.1182507635058
 30
0.0
 10
100.3994795453703
 20
135.0295141081922
 30
0.0
 10
100.2746078093364
 20
134.8473889176319
 30
0.0
 10
100.1842073916885
 20
134.7522588690053
 30
0.0
 10
99.96196473694633
 20
134.563077359881
 30
0.0
 10
99.83219995050055
 20
134.4681321917863
 30
0.0
 10
99.59156249318904
 20
134.3298534842064
 30
0.0
 10
99.50379519505158
 20
134.284143050904
 30
0.0
 10
99.34927110784476
 20
134.2263197456825
 30
0.0
 10
99.29266022179003
 20
134.2086049816446
 30
0.0
 10
99.16861619088343
 20
134.1840656784117
 30
0.0
 10
99.10090151586515
 20
134.1780865398734
 30
0.0
 10
99.03532864530854
 20
134.1804373918277
 30
0.0
  0
LINE
  5
E3
330
1F
100
AcDbEntity
  8
0
  6
Continuous
 62
     7
370
    15
100
AcDbLine
 10
100.4353277691
 20
135.2014576577
 30
0.0
 11
100.4353277691
 21
136.3853958927
 31
0.0
  0
LINE
  5
E4
330
1F
100
AcDbEntity
  8
0
  6
Continuous
 62
     7
370
    15
100
AcDbLine
 10
124.2353285503
 20
89.1369187765
 30
0.0
 11
124.2353285503
 21
137.5777812235
 31
0.0
  0
SPLINE
  5
E5
330
1F
100
AcDbEntity
  8
0
  6
Continuous
 62
     7
370
    15
100
AcDbSpline
210
0.0
220
0.0
230
1.0
 70
     8
 71
     3
 72
    24
 73
    20
 74
     0
 42
0.000000001
 43
0.00000001
 40
0.0
 40
0.0
 40
0.0
 40
0.0
 40
0.0010489815523775
 40
0.0637843212772741
 40
0.1272220630088516
 40
0.1903789073370505
 40
0.2526748662763491
 40
0.3146354150030102
 40
0.3770891884518245
 40
0.4393540587943444
 40
0.5008133488401828
 40
0.5621845177353679
 40
0.6248438462901906
 40
0.6874304788646655
 40
0.7496743245911356
 40
0.811984857412469
 40
0.8750960476811308
 40
0.9384412548145236
 40
1.0
 40
1.0
 40
1.0
 40
1.0
 10
113.0042346500354
 20
89.69984180555338
 30
0.0
 10
113.0037879842847
 20
89.6997831605869
 30
0.0
 10
112.9766280483611
 20
89.69621719760622
 30
0.0
 10
113.0722579714929
 20
89.70908180708143
 30
0.0
 10
113.3058111475134
 20
89.73831628942148
 30
0.0
 10
113.7013670997478
 20
89.78493550016289
 30
0.0
 10
114.2284071001178
 20
89.83511629958807
 30
0.0
 10
114.8719375419541
 20
89.87949497303111
 30
0.0
 10
115.6106113762238
 20
89.9064381695419
 30
0.0
 10
116.4081260463427
 20
89.90990991784403
 30
0.0
 10
117.2347050961073
 20
89.8822844715506
 30
0.0
 10
118.0602279175259
 20
89.82380332857198
 30
0.0
 10
118.8523543884416
 20
89.7383602651734
 30
0.0
 10
119.5849267672789
 20
89.63662509668089
 30
0.0
 10
120.2205669490997
 20
89.52878144563294
 30
0.0
 10
120.7424778796459
 20
89.42715005035812
 30
0.0
 10
121.1241067172848
 20
89.34466808606562
 30
0.0
 10
121.3749213932182
 20
89.28851597855872
 30
0.0
 10
121.4040427089254
 20
89.28166712764585
 30
0.0
 10
121.4183951102691
 20
89.27829168066972
 30
0.0
  0
SPLINE
  5
E6
330
1F
100
AcDbEntity
  8
0
  6
Continuous
 62
     7
370
    15
100
AcDbSpline
210
0.0
220
0.0
230
1.0
 70
     8
 71
     3
 72
    24
 73
    20
 74
     0
 42
0.000000001
 43
0.00000001
 40
0.0
 40
0.0
 40
0.0
 40
0.0
 40
0.061438429114026
 40
0.1250736777967296
 40
0.1884253375120635
 40
0.2508623992448768
 40
0.3129665476325514
 40
0.3753451442328022
 40
0.4377328732174486
 40
0.499092717251918
 40
0.560580729454827
 40
0.622946985474185
 40
0.6854686070210457
 40
0.7475477863222202
 40
0.8098225081553685
 40
0.873068419947611
 40
0.936404185690527
 40
0.9991757203144552
 40
1.0
 40
1.0
 40
1.0
 40
1.0
 10
121.4183406278985
 20
137.4363785170078
 30
0.0
 10
121.4037398194463
 20
137.4330103591348
 30
0.0
 10
121.3740161295953
 20
137.4261536100504
 30
0.0
 10
121.1212781296094
 20
137.3698157901543
 30
0.0
 10
120.7382828305882
 20
137.2869579772691
 30
0.0
 10
120.2159268737053
 20
137.185051229048
 30
0.0
 10
119.5811425290036
 20
137.077212659159
 30
0.0
 10
118.8509187923895
 20
136.97574640593
 30
0.0
 10
118.0604506974784
 20
136.8906843273628
 30
0.0
 10
117.2359669700206
 20
136.8324829704062
 30
0.0
 10
116.4089305895406
 20
136.8048985227216
 30
0.0
 10
115.6106061305501
 20
136.8083924512558
 30
0.0
 10
114.8707823795505
 20
136.8353461099294
 30
0.0
 10
114.2265275080909
 20
136.8797016105429
 30
0.0
 10
113.6991206509933
 20
136.9299067942656
 30
0.0
 10
113.3044554106802
 20
136.9765142543108
 30
0.0
 10
113.0719267250921
 20
137.0057174311492
 30
0.0
 10
112.9765474964258
 20
137.0184755698664
 30
0.0
 10
113.0034804407526
 20
137.0149357399476
 30
0.0
 10
113.0038295247155
 20
137.014889859414
 30
0.0
  0
SPLINE
  5
E7
330
1F
100
AcDbEntity
  8
0
  6
Continuous
 62
     7
370
    15
100
AcDbSpline
210
0.0
220
0.0
230
1.0
 70
     8
 71
     3
 72
     9
 73
     5
 74
     0
 42
0.000000001
 43
0.00000001
 40
0.0
 40
0.0
 40
0.0
 40
0.0
 40
0.7009339503679092
 40
0.9999999999999999
 40
0.9999999999999999
 40
0.9999999999999999
 40
0.9999999999999999
 10
94.35611221273713
 20
93.65607030019754
 30
0.0
 10
94.36525288368696
 20
93.63824101643665
 30
0.0
 10
94.37829358594577
 20
93.61280454877586
 30
0.0
 10
94.39345704921404
 20
93.66668390824941
 30
0.0
 10
94.39799192627244
 20
93.68279739544386
 30
0.0
  0
LINE
  5
E8
330
1F
100
AcDbEntity
  8
0
  6
Continuous
 62
     7
370
    15
100
AcDbLine
 10
94.3353288182
 20
93.6666724764
 30
0.0
 11
94.3353288182
 21
133.0480275236
 31
0.0
  0
SPLINE
  5
E9
330
1F
100
AcDbEntity
  8
0
  6
Continuous
 62
     7
370
    15
100
AcDbSpline
210
0.0
220
0.0
230
1.0
 70
     8
 71
     3
 72
    10
 73
     6
 74
     0
 42
0.000000001
 43
0.00000001
 40
0.0
 40
0.0
 40
0.0
 40
0.0
 40
0.5
 40
0.5
 40
1.0
 40
1.0
 40
1.0
 40
1.0
 10
94.39799202003194
 20
133.0319025447807
 30
0.0
 10
94.3890877309232
 20
133.0776440639939
 30
0.0
 10
94.37257235073021
 20
133.0948349034629
 30
0.0
 10
94.34546440466859
 20
133.0945116265271
 30
0.0
 10
94.33532864530854
 20
133.0766340842307
 30
0.0
 10
94.33532864530854
 20
133.0480277464781
 30
0.0
  0
SPLINE
  5
EA
330
1F
100
AcDbEntity
  8
0
  6
Continuous
 62
     7
370
    15
100
AcDbSpline
210
0.0
220
0.0
230
1.0
 70
     8
 71
     3
 72
    26
 73
    22
 74
     0
 42
0.000000001
 43
0.00000001
 40
0.0
 40
0.0
 40
0.0
 40
0.0
 40
0.249999999999996
 40
0.249999999999996
 40
0.3749999999999944
 40
0.3749999999999944
 40
0.4374999999999944
 40
0.4374999999999944
 40
0.4687499999999969
 40
0.4687499999999969
 40
0.4999999999999993
 40
0.4999999999999993
 40
0.5312500000000017
 40
0.5312500000000017
 40
0.5625000000000041
 40
0.5625000000000041
 40
0.625000000000004
 40
0.625000000000004
 40
0.7500000000000023
 40
0.7500000000000023
 40
1.0
 40
1.0
 40
1.0
 40
1.0
 10
95.15948229141306
 20
133.7474693335978
 30
0.0
 10
95.12088176854458
 20
133.6296946372423
 30
0.0
 10
95.07458476599031
 20
133.5053049510804
 30
0.0
 10
94.9806454175564
 20
133.3000856187269
 30
0.0
 10
94.94533395064295
 20
133.2285127522805
 30
0.0
 10
94.87915397489728
 20
133.1125595196801
 30
0.0
 10
94.85461560822907
 20
133.0719749848698
 30
0.0
 10
94.81124286267526
 20
133.0078333029981
 30
0.0
 10
94.79573446125006
 20
132.985966877713
 30
0.0
 10
94.76069181666301
 20
132.9403726093698
 30
0.0
 10
94.74114152594326
 20
132.9167023184024
 30
0.0
 10
94.69921424557268
 20
132.8720857590625
 30
0.0
 10
94.67656213534103
 20
132.8512057465446
 30
0.0
 10
94.63558842125441
 20
132.8203323327938
 30
0.0
 10
94.61798912135899
 20
132.8104934629613
 30
0.0
 10
94.57336213550282
 20
132.7915038472651
 30
0.0
 10
94.55280291284949
 20
132.7911795226117
 30
0.0
 10
94.50167747335281
 20
132.8004029634879
 30
0.0
 10
94.48076606036426
 20
132.8216498597049
 30
0.0
 10
94.42931615280331
 20
132.8956187385356
 30
0.0
 10
94.41165085349877
 20
132.9617368318504
 30
0.0
 10
94.39799202003194
 20
133.0319025447807
 30
0.0
  0
SPLINE
  5
EB
330
1F
100
AcDbEntity
  8
0
  6
Continuous
 62
     7
370
    15
100
AcDbSpline
210
0.0
220
0.0
230
1.0
 70
     8
 71
     3
 72
    10
 73
     6
 74
     0
 42
0.000000001
 43
0.00000001
 40
0.0
 40
0.0
 40
0.0
 40
0.0
 40
0.5
 40
0.5
 40
1.0
 40
1.0
 40
1.0
 40
1.0
 10
95.47528371489031
 20
134.2173038922876
 30
0.0
 10
95.40772445997207
 20
134.1496124994778
 30
0.0
 10
95.34408780463559
 20
134.0749053347242
 30
0.0
 10
95.23386705006374
 20
133.9159392022976
 30
0.0
 10
95.18705075684112
 20
133.8315839362896
 30
0.0
 10
95.15948229141306
 20
133.7474693335978
 30
0.0
  0
SPLINE
  5
EC
330
1F
100
AcDbEntity
  8
0
  6
Continuous
 62
     7
370
    15
100
AcDbSpline
210
0.0
220
0.0
230
1.0
 70
     8
 71
     3
 72
    10
 73
     6
 74
     0
 42
0.000000001
 43
0.00000001
 40
0.0
 40
0.0
 40
0.0
 40
0.0
 40
0.5
 40
0.5
 40
1.0
 40
1.0
 40
1.0
 40
1.0
 10
95.15948229141308
 20
92.96723066640199
 30
0.0
 10
95.18695970616706
 20
92.8833938699341
 30
0.0
 10
95.23366833645646
 20
92.79908338234495
 30
0.0
 10
95.34394679920244
 20
92.63996215185824
 30
0.0
 10
95.40783433781633
 20
92.56497740776861
 30
0.0
 10
95.47528371490094
 20
92.49739610770166
 30
0.0
  0
SPLINE
  5
ED
330
1F
100
AcDbEntity
  8
0
  6
Continuous
 62
     7
370
    15
100
AcDbSpline
210
0.0
220
0.0
230
1.0
 70
     8
 71
     3
 72
    24
 73
    20
 74
     0
 42
0.000000001
 43
0.00000001
 40
0.0
 40
0.0
 40
0.0
 40
0.0
 40
0.2500000000000114
 40
0.2500000000000114
 40
0.3750000000000163
 40
0.3750000000000163
 40
0.4375000000000177
 40
0.4375000000000177
 40
0.4687500000000166
 40
0.4687500000000166
 40
0.5000000000000155
 40
0.5000000000000155
 40
0.5625000000000157
 40
0.5625000000000157
 40
0.6250000000000157
 40
0.6250000000000157
 40
0.7500000000000099
 40
0.7500000000000099
 40
1.0
 40
1.0
 40
1.0
 40
1.0
 10
94.39799202003194
 20
93.6827974552192
 30
0.0
 10
94.41174513870216
 20
93.7534475132095
 30
0.0
 10
94.42951770610804
 20
93.82004562597442
 30
0.0
 10
94.4817687976634
 20
93.89414364620762
 30
0.0
 10
94.50280387324496
 20
93.91540145336917
 30
0.0
 10
94.5557042808734
 20
93.92354737951541
 30
0.0
 10
94.57680995375132
 20
93.92260757611965
 30
0.0
 10
94.62286212242928
 20
93.90159158454229
 30
0.0
 10
94.64123259441267
 20
93.89068277843468
 30
0.0
 10
94.68278422947837
 20
93.8580478674873
 30
0.0
 10
94.70535090223531
 20
93.83655588711594
 30
0.0
 10
94.76813191869532
 20
93.76808994352962
 30
0.0
 10
94.8012616796632
 20
93.72201548532452
 30
0.0
 10
94.8581793661482
 20
93.63700759698987
 30
0.0
 10
94.88236539165197
 20
93.59672729580848
 30
0.0
 10
94.94757334203175
 20
93.48179106934253
 30
0.0
 10
94.98228940222299
 20
93.41120808419554
 30
0.0
 10
95.07550467255385
 20
93.20700232511692
 30
0.0
 10
95.12117720791453
 20
93.08410394278957
 30
0.0
 10
95.15948229141308
 20
92.967230666402
 30
0.0
  0
SPLINE
  5
EE
330
1F
100
AcDbEntity
  8
0
  6
Continuous
 62
     7
370
    15
100
AcDbSpline
210
0.0
220
0.0
230
1.0
 70
     8
 71
     3
 72
     8
 73
     4
 74
     0
 42
0.000000001
 43
0.00000001
 40
0.0
 40
0.0
 40
0.0
 40
0.0
 40
1.0
 40
1.0
 40
1.0
 40
1.0
 10
140.8433958138195
 20
137.8160396623674
 30
0.0
 10
141.3504826555788
 20
136.6848893082037
 30
0.0
 10
141.8460504947187
 20
135.5485048974359
 30
0.0
 10
142.3253286453085
 20
134.4074936675833
 30
0.0
  0
LINE
  5
EF
330
1F
100
AcDbEntity
  8
0
  6
Continuous
 62
     7
370
    15
100
AcDbLine
 10
142.3253286936
 20
134.4074939869
 30
0.0
 11
142.3253286936
 21
133.4932164781
 31
0.0
  0
SPLINE
  5
F0
330
1F
100
AcDbEntity
  8
0
  6
Continuous
 62
     7
370
    15
100
AcDbSpline
210
0.0
220
0.0
230
1.0
 70
     8
 71
     3
 72
     8
 73
     4
 74
     0
 42
0.000000001
 43
0.00000001
 40
0.0
 40
0.0
 40
0.0
 40
0.0
 40
1.0
 40
1.0
 40
1.0
 40
1.0
 10
147.6272614767976
 20
143.8245454731642
 30
0.0
 10
147.1321214474333
 20
142.9378658249839
 30
0.0
 10
146.6380387421543
 20
142.050603189298
 30
0.0
 10
146.1453286453086
 20
141.1625841911716
 30
0.0
  0
LINE
  5
F1
330
1F
100
AcDbEntity
  8
0
  6
Continuous
 62
     7
370
    15
100
AcDbLine
 10
147.6272605666
 20
137.8160396151
 30
0.0
 11
147.6272605666
 21
143.8245454364
 31
0.0
  0
SPLINE
  5
F2
330
1F
100
AcDbEntity
  8
0
  6
Continuous
 62
     7
370
    15
100
AcDbSpline
210
0.0
220
0.0
230
1.0
 70
     8
 71
     3
 72
     8
 73
     4
 74
     0
 42
0.000000001
 43
0.00000001
 40
0.0
 40
0.0
 40
0.0
 40
0.0
 40
1.0
 40
1.0
 40
1.0
 40
1.0
 10
146.1453286453086
 20
134.4074936675833
 30
0.0
 10
146.6246067958984
 20
135.5485048974359
 30
0.0
 10
147.1201746350383
 20
136.6848893082037
 30
0.0
 10
147.6272614767976
 20
137.8160396623674
 30
0.0
  0
LINE
  5
F3
330
1F
100
AcDbEntity
  8
0
  6
Continuous
 62
     7
370
    15
100
AcDbLine
 10
146.14532891
 20
134.4074939869
 30
0.0
 11
146.14532891
 21
141.1625833742
 31
0.0
  0
SPLINE
  5
F4
330
1F
100
AcDbEntity
  8
0
  6
Continuous
 62
     7
370
    15
100
AcDbSpline
210
0.0
220
0.0
230
1.0
 70
     8
 71
     3
 72
     8
 73
     4
 74
     0
 42
0.000000001
 43
0.00000001
 40
0.0
 40
0.0
 40
0.0
 40
0.0
 40
1.0
 40
1.0
 40
1.0
 40
1.0
 10
142.3253286453085
 20
141.1625841911716
 30
0.0
 10
141.8326185484628
 20
142.0506031892979
 30
0.0
 10
141.3385358431838
 20
142.9378658249839
 30
0.0
 10
140.8433958138195
 20
143.8245454731642
 30
0.0
  0
LINE
  5
F5
330
1F
100
AcDbEntity
  8
0
  6
Continuous
 62
     7
370
    15
100
AcDbLine
 10
142.3253286936
 20
134.4074939869
 30
0.0
 11
142.3253286936
 21
141.1625833742
 31
0.0
  0
LINE
  5
F6
330
1F
100
AcDbEntity
  8
0
  6
Continuous
 62
     7
370
    15
100
AcDbLine
 10
151.5853293546
 20
143.8245454364
 30
0.0
 11
147.6272605666
 21
143.8245454364
 31
0.0
  0
LINE
  5
F7
330
1F
100
AcDbEntity
  8
0
  6
Continuous
 62
     7
370
    15
100
AcDbLine
 10
147.6272605666
 20
137.8160396151
 30
0.0
 11
151.5853293546
 21
137.8160396151
 31
0.0
  0
LINE
  5
F8
330
1F
100
AcDbEntity
  8
0
  6
Continuous
 62
     7
370
    15
100
AcDbLine
 10
146.14532891
 20
133.4932164781
 30
0.0
 11
146.14532891
 21
134.4074939869
 31
0.0
  0
SPLINE
  5
F9
330
1F
100
AcDbEntity
  8
0
  6
Continuous
 62
     7
370
    15
100
AcDbSpline
210
0.0
220
0.0
230
1.0
 70
     8
 71
     3
 72
    12
 73
     8
 74
     0
 42
0.000000001
 43
0.00000001
 40
0.0
 40
0.0
 40
0.0
 40
0.0
 40
0.249999999999998
 40
0.249999999999998
 40
0.499999999999996
 40
0.499999999999996
 40
1.0
 40
1.0
 40
1.0
 40
1.0
 10
151.5853286453086
 20
137.8160396623674
 30
0.0
 10
151.6765283671342
 20
137.8160396623674
 30
0.0
 10
151.7671233762702
 20
137.7878199637795
 30
0.0
 10
151.9205361027169
 20
137.6933769565314
 30
0.0
 10
151.9857449700405
 20
137.6270899798261
 30
0.0
 10
152.1385294993805
 20
137.4014651565378
 30
0.0
 10
152.1853286453085
 20
137.2190388935052
 30
0.0
 10
152.1853286453085
 20
137.0383022612583
 30
0.0
  0
LINE
  5
FA
330
1F
100
AcDbEntity
  8
0
  6
Continuous
 62
     7
370
    15
100
AcDbLine
 10
152.1853283354
 20
137.0383014463
 30
0.0
 11
152.1853283354
 21
133.2073507391
 31
0.0
  0
SPLINE
  5
FB
330
1F
100
AcDbEntity
  8
0
  6
Continuous
 62
     7
370
    15
100
AcDbSpline
210
0.0
220
0.0
230
1.0
 70
     8
 71
     3
 72
    10
 73
     6
 74
     0
 42
0.000000001
 43
0.00000001
 40
0.0
 40
0.0
 40
0.0
 40
0.0
 40
0.5
 40
0.5
 40
1.0
 40
1.0
 40
1.0
 40
1.0
 10
152.1853286453085
 20
143.2037903237639
 30
0.0
 10
152.1853286453085
 20
143.3641955901147
 30
0.0
 10
152.1230908142017
 20
143.5232574031033
 30
0.0
 10
151.9039558904591
 20
143.7541698687336
 30
0.0
 10
151.7463671954673
 20
143.8245454731642
 30
0.0
 10
151.5853286453086
 20
143.8245454731642
 30
0.0
  0
LINE
  5
FC
330
1F
100
AcDbEntity
  8
0
  6
Continuous
 62
     7
370
    15
100
AcDbLine
 10
152.1853283354
 20
137.0383014463
 30
0.0
 11
152.1853283354
 21
143.2037910007
 31
0.0
  0
LINE
  5
FD
330
1F
100
AcDbEntity
  8
0
  6
HIDDEN
 62
     7
370
     0
100
AcDbLine
 10
180.1853291996
 20
131.9496852838
 30
0.0
 11
196.1853280969
 21
131.9496852838
 31
0.0
  0
LINE
  5
FE
330
1F
100
AcDbEntity
  8
0
  6
HIDDEN
 62
     7
370
     0
100
AcDbLine
 10
180.1853291996
 20
142.1195582978
 30
0.0
 11
196.1853280969
 21
142.1195582978
 31
0.0
  0
LINE
  5
FF
330
1F
100
AcDbEntity
  8
0
  6
HIDDEN
 62
     7
370
     0
100
AcDbLine
 10
181.1853275009
 20
143.1195584618
 30
0.0
 11
195.1853260704
 21
143.1195584618
 31
0.0
  0
LINE
  5
100
330
1F
100
AcDbEntity
  8
0
  6
HIDDEN
 62
     7
370
     0
100
AcDbLine
 10
183.068990738
 20
122.6195578955
 30
0.0
 11
193.3016628333
 21
122.6195578955
 31
0.0
  0
SPLINE
  5
101
330
1F
100
AcDbEntity
  8
0
  6
HIDDEN
 62
     7
370
     0
100
AcDbSpline
210
0.0
220
0.0
230
1.0
 70
     8
 71
     3
 72
    18
 73
    14
 74
     0
 42
0.000000001
 43
0.00000001
 40
0.0
 40
0.0
 40
0.0
 40
0.0
 40
0.0538562291633409
 40
0.1618933242522111
 40
0.2715966322355211
 40
0.3834270690983804
 40
0.4398759564268078
 40
0.5548578886686233
 40
0.6329781487432017
 40
0.7521904984994567
 40
0.8137854569125457
 40
0.9377073177674656
 40
1.0
 40
1.0
 40
1.0
 40
1.0
 10
183.7182045288878
 20
143.038360171771
 30
0.0
 10
183.7387060937813
 20
143.000338206562
 30
0.0
 10
183.8003343686259
 20
142.8860431205914
 30
0.0
 10
183.9066579329471
 20
142.7176971196809
 30
0.0
 10
184.0397428462832
 20
142.5550114900306
 30
0.0
 10
184.1554516284046
 20
142.4652007484925
 30
0.0
 10
184.2748389626683
 20
142.4170461502283
 30
0.0
 10
184.3809651567843
 20
142.4157395856284
 30
0.0
 10
184.5125850797468
 20
142.4722940301286
 30
0.0
 10
184.6198891888465
 20
142.5648007939555
 30
0.0
 10
184.7428850814711
 20
142.7140298022199
 30
0.0
 10
184.8404392110043
 20
142.8634168198653
 30
0.0
 10
184.9113719228219
 20
142.994507560987
 30
0.0
 10
184.9351004072028
 20
143.038360171771
 30
0.0
  0
SPLINE
  5
102
330
1F
100
AcDbEntity
  8
0
  6
HIDDEN
 62
     7
370
     0
100
AcDbSpline
210
0.0
220
0.0
230
1.0
 70
     8
 71
     3
 72
    12
 73
     8
 74
     0
 42
0.000000001
 43
0.00000001
 40
0.0
 40
0.0
 40
0.0
 40
0.0
 40
0.2161873049802205
 40
0.4397661633346622
 40
0.593421239372837
 40
0.7522119803416472
 40
1.0
 40
1.0
 40
1.0
 40
1.0
 10
184.9351004072028
 20
143.038360171771
 30
0.0
 10
185.2409673891014
 20
142.8934364906892
 30
0.0
 10
185.8631590998155
 20
142.5986341145206
 30
0.0
 10
186.7778867141073
 20
142.4051653271559
 30
0.0
 10
187.6141890147599
 20
142.4233252864213
 30
0.0
 10
188.4731132580997
 20
142.6029487821108
 30
0.0
 10
189.0503982947214
 20
142.8734836388676
 30
0.0
 10
189.4022226639586
 20
143.038360171771
 30
0.0
  0
SPLINE
  5
103
330
1F
100
AcDbEntity
  8
0
  6
HIDDEN
 62
     7
370
     0
100
AcDbSpline
210
0.0
220
0.0
230
1.0
 70
     8
 71
     3
 72
     9
 73
     5
 74
     0
 42
0.000000001
 43
0.00000001
 40
0.0
 40
0.0
 40
0.0
 40
0.0
 40
0.7333339780579726
 40
0.9999999999999999
 40
0.9999999999999999
 40
0.9999999999999999
 40
0.9999999999999999
 10
189.4022226639586
 20
143.038360171771
 30
0.0
 10
189.589870877784
 20
142.9069831114808
 30
0.0
 10
189.8457545807624
 20
142.7278327322251
 30
0.0
 10
190.1219466882314
 20
142.6327144785074
 30
0.0
 10
190.195597738822
 20
142.6073496721744
 30
0.0
  0
SPLINE
  5
104
330
1F
100
AcDbEntity
  8
0
  6
HIDDEN
 62
     7
370
     0
100
AcDbSpline
210
0.0
220
0.0
230
1.0
 70
     8
 71
     3
 72
     9
 73
     5
 74
     0
 42
0.000000001
 43
0.00000001
 40
0.0
 40
0.0
 40
0.0
 40
0.0
 40
0.4729101329677384
 40
1.0
 40
1.0
 40
1.0
 40
1.0
 10
191.8604001708823
 20
142.6073496721744
 30
0.0
 10
191.9896285256932
 20
142.658906370313
 30
0.0
 10
192.2628904962073
 20
142.7679264452584
 30
0.0
 10
192.5179891348678
 20
142.9450173502214
 30
0.0
 10
192.6524490423994
 20
143.038360171771
 30
0.0
  0
SPLINE
  5
105
330
1F
100
AcDbEntity
  8
0
  6
HIDDEN
 62
     7
370
     0
100
AcDbSpline
210
0.0
220
0.0
230
1.0
 70
     8
 71
     3
 72
    18
 73
    14
 74
     0
 42
0.000000001
 43
0.00000001
 40
0.0
 40
0.0
 40
0.0
 40
0.0
 40
0.053856229623125
 40
0.1618933256343347
 40
0.2715964406452664
 40
0.38342687846285
 40
0.4398757662731957
 40
0.5548579029507271
 40
0.6329779615090282
 40
0.7521901137324313
 40
0.8137852665654396
 40
0.9377073172356575
 40
1.0
 40
1.0
 40
1.0
 40
1.0
 10
192.6524490423994
 20
143.038360171771
 30
0.0
 10
192.6319475135543
 20
143.0003382039399
 30
0.0
 10
192.5703193470721
 20
142.8860431100869
 30
0.0
 10
192.4639944010413
 20
142.7176973353967
 30
0.0
 10
192.3309158196491
 20
142.5550113097929
 30
0.0
 10
192.2152051826288
 20
142.4652007585406
 30
0.0
 10
192.0958191107256
 20
142.4170461205295
 30
0.0
 10
191.9896862620869
 20
142.4157395202287
 30
0.0
 10
191.8580731794657
 20
142.4722940108576
 30
0.0
 10
191.7507741351425
 20
142.5648011691616
 30
0.0
 10
191.6277701877199
 20
142.7140296370641
 30
0.0
 10
191.5302142202307
 20
142.8634166620782
 30
0.0
 10
191.4592815953355
 20
142.9945075547438
 30
0.0
 10
191.4355531640845
 20
143.038360171771
 30
0.0
  0
SPLINE
  5
106
330
1F
100
AcDbEntity
  8
0
  6
HIDDEN
 62
     7
370
     0
100
AcDbSpline
210
0.0
220
0.0
230
1.0
 70
     8
 71
     3
 72
    12
 73
     8
 74
     0
 42
0.000000001
 43
0.00000001
 40
0.0
 40
0.0
 40
0.0
 40
0.0
 40
0.2161867634316772
 40
0.4397657762602756
 40
0.5934209584611638
 40
0.7522118091409993
 40
0.9999999999999999
 40
0.9999999999999999
 40
0.9999999999999999
 40
0.9999999999999999
 10
191.4355531640845
 20
143.038360171771
 30
0.0
 10
191.1296874696661
 20
142.8934364345696
 30
0.0
 10
190.5074973669877
 20
142.5986334652422
 30
0.0
 10
189.5927705404699
 20
142.4051654028636
 30
0.0
 10
188.7564682914367
 20
142.4233252690824
 30
0.0
 10
187.8975440343989
 20
142.6029487894633
 30
0.0
 10
187.3202590003116
 20
142.8734836416518
 30
0.0
 10
186.9684346326189
 20
143.038360171771
 30
0.0
  0
SPLINE
  5
107
330
1F
100
AcDbEntity
  8
0
  6
HIDDEN
 62
     7
370
     0
100
AcDbSpline
210
0.0
220
0.0
230
1.0
 70
     8
 71
     3
 72
     9
 73
     5
 74
     0
 42
0.000000001
 43
0.00000001
 40
0.0
 40
0.0
 40
0.0
 40
0.0
 40
0.52709086244774
 40
1.0
 40
1.0
 40
1.0
 40
1.0
 10
186.9684346326189
 20
143.038360171771
 30
0.0
 10
186.8339733092378
 20
142.9450174047457
 30
0.0
 10
186.5788724661751
 20
142.7679269376642
 30
0.0
 10
186.3056102396725
 20
142.6589064547329
 30
0.0
 10
186.1763820358115
 20
142.6073496721744
 30
0.0
  0
SPLINE
  5
108
330
1F
100
AcDbEntity
  8
0
  6
HIDDEN
 62
     7
370
     0
100
AcDbSpline
210
0.0
220
0.0
230
1.0
 70
     8
 71
     3
 72
     9
 73
     5
 74
     0
 42
0.000000001
 43
0.00000001
 40
0.0
 40
0.0
 40
0.0
 40
0.0
 40
0.2666639218514963
 40
1.0
 40
1.0
 40
1.0
 40
1.0
 10
184.5115796037512
 20
142.6073496721744
 30
0.0
 10
184.4379299248878
 20
142.6327145547556
 30
0.0
 10
184.1617407863192
 20
142.7278338435035
 30
0.0
 10
183.9058548891623
 20
142.9069833645815
 30
0.0
 10
183.7182045288878
 20
143.038360171771
 30
0.0
  0
LINE
  5
109
330
1F
100
AcDbEntity
  8
0
  6
HIDDEN
 62
     7
370
     0
100
AcDbLine
 10
184.1853298553
 20
132.1195585214
 30
0.0
 11
192.1853274413
 21
132.1195585214
 31
0.0
  0
LINE
  5
10A
330
1F
100
AcDbEntity
  8
0
  6
HIDDEN
 62
     7
370
     0
100
AcDbLine
 10
189.402222664
 20
133.1195586853
 30
0.0
 11
187.1686615356
 21
133.1195586853
 31
0.0
  0
LINE
  5
10B
330
1F
100
AcDbEntity
  8
0
  6
HIDDEN
 62
     7
370
     0
100
AcDbLine
 10
187.1686615356
 20
133.1195586853
 30
0.0
 11
184.9351004072
 21
133.1195586853
 31
0.0
  0
LINE
  5
10C
330
1F
100
AcDbEntity
  8
0
  6
HIDDEN
 62
     7
370
     0
100
AcDbLine
 10
191.0273358532
 20
133.1195586853
 30
0.0
 11
189.402222664
 21
133.1195586853
 31
0.0
  0
LINE
  5
10D
330
1F
100
AcDbEntity
  8
0
  6
HIDDEN
 62
     7
370
     0
100
AcDbLine
 10
189.402222664
 20
133.1195586853
 30
0.0
 11
189.402222664
 21
143.0383601718
 31
0.0
  0
LINE
  5
10E
330
1F
100
AcDbEntity
  8
0
  6
HIDDEN
 62
     7
370
     0
100
AcDbLine
 10
184.9351004072
 20
133.1195586853
 30
0.0
 11
184.326652468
 21
133.1195586853
 31
0.0
  0
LINE
  5
10F
330
1F
100
AcDbEntity
  8
0
  6
HIDDEN
 62
     7
370
     0
100
AcDbLine
 10
184.9351004072
 20
133.1195586853
 30
0.0
 11
184.9351004072
 21
143.0383601718
 31
0.0
  0
LINE
  5
110
330
1F
100
AcDbEntity
  8
0
  6
HIDDEN
 62
     7
370
     0
100
AcDbLine
 10
192.6524490424
 20
133.1195586853
 30
0.0
 11
191.0273358532
 21
133.1195586853
 31
0.0
  0
LINE
  5
111
330
1F
100
AcDbEntity
  8
0
  6
HIDDEN
 62
     7
370
     0
100
AcDbLine
 10
191.4355531641
 20
133.1195586853
 30
0.0
 11
191.4355531641
 21
143.0383601718
 31
0.0
  0
LINE
  5
112
330
1F
100
AcDbEntity
  8
0
  6
HIDDEN
 62
     7
370
     0
100
AcDbLine
 10
192.6524490424
 20
133.1195586853
 30
0.0
 11
192.6524490424
 21
143.0383601718
 31
0.0
  0
LINE
  5
113
330
1F
100
AcDbEntity
  8
0
  6
HIDDEN
 62
     7
370
     0
100
AcDbLine
 10
184.326652468
 20
133.1195586853
 30
0.0
 11
183.7182045289
 21
133.1195586853
 31
0.0
  0
LINE
  5
114
330
1F
100
AcDbEntity
  8
0
  6
HIDDEN
 62
     7
370
     0
100
AcDbLine
 10
186.9684346326
 20
133.1195586853
 30
0.0
 11
186.9684346326
 21
143.0383601718
 31
0.0
  0
LINE
  5
115
330
1F
100
AcDbEntity
  8
0
  6
HIDDEN
 62
     7
370
     0
100
AcDbLine
 10
183.7182045289
 20
133.1195586853
 30
0.0
 11
183.7182045289
 21
143.0383601718
 31
0.0
  0
CIRCLE
  5
116
330
1F
100
AcDbEntity
  8
0
  6
HIDDEN
 62
     7
370
     0
100
AcDbCircle
 10
188.1853286453
 20
113.35735
 30
0.0
 40
8.000000000000007
  0
SPLINE
  5
117
330
1F
100
AcDbEntity
  8
0
  6
HIDDEN
 62
     7
370
     0
100
AcDbSpline
210
0.0
220
0.0
230
1.0
 70
     8
 71
     3
 72
    10
 73
     6
 74
     0
 42
0.000000001
 43
0.00000001
 40
0.0
 40
0.0
 40
0.0
 40
0.0
 40
0.47004060163241
 40
0.9520621260394826
 40
1.0
 40
1.0
 40
1.0
 40
1.0
 10
178.6896884747343
 20
144.8563409529685
 30
0.0
 10
178.6941495846883
 20
144.8553262009578
 30
0.0
 10
178.7031855143773
 20
144.8532708317972
 30
0.0
 10
178.7358478737425
 20
144.8455124843198
 30
0.0
 10
178.7892106146254
 20
144.8334248527537
 30
0.0
 10
178.7940375812846
 20
144.832331456995
 30
0.0
  0
SPLINE
  5
118
330
1F
100
AcDbEntity
  8
0
  6
HIDDEN
 62
     7
370
     0
100
AcDbSpline
210
0.0
220
0.0
230
1.0
 70
     8
 71
     3
 72
     9
 73
     5
 74
     0
 42
0.000000001
 43
0.00000001
 40
0.0
 40
0.0
 40
0.0
 40
0.0
 40
0.1465400425679538
 40
1.0
 40
1.0
 40
1.0
 40
1.0
 10
181.0731515594321
 20
144.368352138257
 30
0.0
 10
181.1072821357538
 20
144.3620913924638
 30
0.0
 10
181.3401916922384
 20
144.3193676039108
 30
0.0
 10
181.6078716124968
 20
144.2760051438748
 30
0.0
 10
181.8363257058459
 20
144.2389970205783
 30
0.0
  0
CIRCLE
  5
119
330
1F
100
AcDbEntity
  8
0
  6
HIDDEN
 62
     7
370
     0
100
AcDbCircle
 10
188.1853286453
 20
113.35735
 30
0.0
 40
7.25
  0
LINE
  5
11A
330
1F
100
AcDbEntity
  8
0
  6
HIDDEN
 62
     7
370
     0
100
AcDbLine
 10
140.8433961057
 20
137.8160396151
 30
0.0
 11
140.8433961057
 21
133.2073507391
 31
0.0
  0
SPLINE
  5
11B
330
1F
100
AcDbEntity
  8
0
  6
HIDDEN
 62
     7
370
     0
100
AcDbSpline
210
0.0
220
0.0
230
1.0
 70
     8
 71
     3
 72
     9
 73
     5
 74
     0
 42
0.000000001
 43
0.00000001
 40
0.0
 40
0.0
 40
0.0
 40
0.0
 40
0.4965619483771941
 40
1.0
 40
1.0
 40
1.0
 40
1.0
 10
152.9957391627627
 20
87.37117774114603
 30
0.0
 10
153.0324540282473
 20
87.41275650852546
 30
0.0
 10
153.1063921654819
 20
87.49648980205573
 30
0.0
 10
153.158896047308
 20
87.78824594402593
 30
0.0
 10
153.1853284992771
 20
87.93512708768839
 30
0.0
  0
LINE
  5
11C
330
1F
100
AcDbEntity
  8
0
  6
HIDDEN
 62
     7
370
     0
100
AcDbLine
 10
114.2304791444
 20
89.8327508502
 30
0.0
 11
113.9788208835
 21
89.8092293672
 31
0.0
  0
SPLINE
  5
11D
330
1F
100
AcDbEntity
  8
0
  6
HIDDEN
 62
     7
370
     0
100
AcDbSpline
210
0.0
220
0.0
230
1.0
 70
     8
 71
     3
 72
    10
 73
     6
 74
     0
 42
0.000000001
 43
0.00000001
 40
0.0
 40
0.0
 40
0.0
 40
0.0
 40
0.4475765645034734
 40
0.8951364709208242
 40
1.0
 40
1.0
 40
1.0
 40
1.0
 10
119.9903306857245
 20
133.1948784671783
 30
0.0
 10
120.2370362188798
 20
133.2243901455429
 30
0.0
 10
120.7304381032036
 20
133.2834124038944
 30
0.0
 10
121.0194526573843
 20
133.2973556075993
 30
0.0
 10
120.9590840339821
 20
133.2934622682504
 30
0.0
 10
120.947624587317
 20
133.2927232168674
 30
0.0
  0
SPLINE
  5
11E
330
1F
100
AcDbEntity
  8
0
  6
HIDDEN
 62
     7
370
     0
100
AcDbSpline
210
0.0
220
0.0
230
1.0
 70
     8
 71
     3
 72
    10
 73
     6
 74
     0
 42
0.000000001
 43
0.00000001
 40
0.0
 40
0.0
 40
0.0
 40
0.0
 40
0.3454688819333812
 40
0.7966952282103242
 40
1.0
 40
1.0
 40
1.0
 40
1.0
 10
120.9476040982204
 20
93.42197864577764
 30
0.0
 10
120.9380439586538
 20
93.42253350351025
 30
0.0
 10
120.9159970595782
 20
93.4238130760883
 30
0.0
 10
120.4990577707569
 20
93.45377249534786
 30
0.0
 10
120.1108976206695
 20
93.50416809065473
 30
0.0
 10
119.9903306857245
 20
93.5198215328216
 30
0.0
  0
SPLINE
  5
11F
330
1F
100
AcDbEntity
  8
0
  6
HIDDEN
 62
     7
370
     0
100
AcDbSpline
210
0.0
220
0.0
230
1.0
 70
     8
 71
     3
 72
    15
 73
    11
 74
     0
 42
0.000000001
 43
0.00000001
 40
0.0
 40
0.0
 40
0.0
 40
0.0
 40
0.1409172263352446
 40
0.281889861653346
 40
0.4212989542022905
 40
0.5593768841673977
 40
0.6988856533029646
 40
0.840367202775075
 40
0.9813164473602943
 40
1.0
 40
1.0
 40
1.0
 40
1.0
 10
119.9903306857245
 20
93.5198215328216
 30
0.0
 10
119.6742889661119
 20
93.56017485459628
 30
0.0
 10
119.0420812585435
 20
93.64089736516613
 30
0.0
 10
117.8079180862293
 20
93.71745531154887
 30
0.0
 10
116.5371959624136
 20
93.71277724353394
 30
0.0
 10
115.3486364958771
 20
93.6319807783107
 30
0.0
 10
114.3555138165867
 20
93.5075862314565
 30
0.0
 10
113.716105285273
 20
93.40117928469527
 30
0.0
 10
113.4350852969196
 20
93.34810222538572
 30
0.0
 10
113.5016458654083
 20
93.36035671734761
 30
0.0
 10
113.509436168571
 20
93.36179099307054
 30
0.0
  0
SPLINE
  5
120
330
1F
100
AcDbEntity
  8
0
  6
HIDDEN
 62
     7
370
     0
100
AcDbSpline
210
0.0
220
0.0
230
1.0
 70
     8
 71
     3
 72
    15
 73
    11
 74
     0
 42
0.000000001
 43
0.00000001
 40
0.0
 40
0.0
 40
0.0
 40
0.0
 40
0.1201202497733958
 40
0.2584739452442804
 40
0.3987302041697883
 40
0.5404022600041716
 40
0.680739511736143
 40
0.8190355942651634
 40
0.9577823154231621
 40
1.0
 40
1.0
 40
1.0
 40
1.0
 10
113.509436168571
 20
133.3529090069293
 30
0.0
 10
113.5301454173745
 20
133.348884502855
 30
0.0
 10
113.5747074396095
 20
133.3402246020665
 30
0.0
 10
114.137146909338
 20
133.2409316833553
 30
0.0
 10
115.0306091647852
 20
133.117015671644
 30
0.0
 10
116.1895879886374
 20
133.0173042961103
 30
0.0
 10
117.4626248574571
 20
132.9901672384123
 30
0.0
 10
118.6969102041842
 20
133.0455046005424
 30
0.0
 10
119.5248732818801
 20
133.1319843363337
 30
0.0
 10
119.9022835945264
 20
133.1829812554709
 30
0.0
 10
119.9903306857245
 20
133.1948784671783
 30
0.0
  0
LINE
  5
121
330
1F
100
AcDbEntity
  8
0
  6
HIDDEN
 62
     7
370
     0
100
AcDbLine
 10
107.239304141
 20
96.3573490761
 30
0.0
 11
107.239304141
 21
130.3573509239
 31
0.0
  0
LINE
  5
122
330
1F
100
AcDbEntity
  8
0
  6
HIDDEN
 62
     7
370
     0
100
AcDbLine
 10
165.7353304633
 20
113.35735
 30
0.0
 11
165.7353304633
 21
95.8573499255
 31
0.0
  0
LINE
  5
123
330
1F
100
AcDbEntity
  8
0
  6
HIDDEN
 62
     7
370
     0
100
AcDbLine
 10
165.7353304633
 20
130.8573500745
 30
0.0
 11
165.7353304633
 21
113.35735
 31
0.0
  0
LINE
  5
124
330
1F
100
AcDbEntity
  8
0
  6
HIDDEN
 62
     7
370
     0
100
AcDbLine
 10
170.6013530799
 20
113.35735
 30
0.0
 11
170.6013530799
 21
95.3573507749
 31
0.0
  0
LINE
  5
125
330
1F
100
AcDbEntity
  8
0
  6
HIDDEN
 62
     7
370
     0
100
AcDbLine
 10
170.6013530799
 20
131.3573492251
 30
0.0
 11
170.6013530799
 21
113.35735
 31
0.0
  0
SPLINE
  5
126
330
1F
100
AcDbEntity
  8
0
  6
HIDDEN
 62
     7
370
     0
100
AcDbSpline
210
0.0
220
0.0
230
1.0
 70
     8
 71
     3
 72
    23
 73
    19
 74
     0
 42
0.000000001
 43
0.00000001
 40
0.0
 40
0.0
 40
0.0
 40
0.0
 40
0.0497360019304391
 40
0.1510124132189048
 40
0.2026640752586981
 40
0.2523949326678214
 40
0.3534149654039613
 40
0.4047845536187237
 40
0.457127646652949
 40
0.5634538727628686
 40
0.6175554367049075
 40
0.6718373423910322
 40
0.7265188222515706
 40
0.7825083628331557
 40
0.8389725814735275
 40
0.8905493423261828
 40
0.9956594916413621
 40
1.0
 40
1.0
 40
1.0
 40
1.0
 10
188.1853267856436
 20
129.8327108405589
 30
0.0
 10
188.3760905496129
 20
129.8347107547841
 30
0.0
 10
188.9553026944092
 20
129.8407830537557
 30
0.0
 10
189.7253773960782
 20
129.8973940410806
 30
0.0
 10
190.4679565267112
 20
129.9870714462987
 30
0.0
 10
191.1877038424221
 20
130.0977091338237
 30
0.0
 10
191.868547860842
 20
130.2342784278137
 30
0.0
 10
192.5058200913251
 20
130.3877723315393
 30
0.0
 10
193.1207326486398
 20
130.5517558663638
 30
0.0
 10
193.679198102815
 20
130.7217217672643
 30
0.0
 10
194.1650275912837
 20
130.8832970220543
 30
0.0
 10
194.4922915655392
 20
130.9978731889712
 30
0.0
 10
194.7782664030205
 20
131.1023337606225
 30
0.0
 10
195.018753735921
 20
131.1932673069275
 30
0.0
 10
195.2046479734365
 20
131.2654956609277
 30
0.0
 10
195.3742695997563
 20
131.3326346901382
 30
0.0
 10
195.4499223020079
 20
131.3632031952117
 30
0.0
 10
195.4340021485818
 20
131.3568164686794
 30
0.0
 10
195.4333707996207
 20
131.3565631888866
 30
0.0
  0
LINE
  5
127
330
1F
100
AcDbEntity
  8
0
  6
HIDDEN
 62
     7
370
     0
100
AcDbLine
 10
188.8417005845
 20
129.8484967582
 30
0.0
 11
187.7781227537
 21
129.8393809728
 31
0.0
  0
SPLINE
  5
128
330
1F
100
AcDbEntity
  8
0
  6
HIDDEN
 62
     7
370
     0
100
AcDbSpline
210
0.0
220
0.0
230
1.0
 70
     8
 71
     3
 72
    25
 73
    21
 74
     0
 42
0.000000001
 43
0.00000001
 40
0.0
 40
0.0
 40
0.0
 40
0.0
 40
0.0019584096822202
 40
0.0485931427446877
 40
0.1435560966712447
 40
0.192004673955104
 40
0.2372808899323782
 40
0.3292688018993838
 40
0.3760589398815972
 40
0.4233878021942664
 40
0.5194841438277447
 40
0.5683378353345757
 40
0.6185569864156357
 40
0.6691217461091721
 40
0.7208011690227023
 40
0.772881715272664
 40
0.822452699956073
 40
0.9235367573253002
 40
0.9752308033270476
 40
0.9999999999999999
 40
0.9999999999999999
 40
0.9999999999999999
 40
0.9999999999999999
 10
180.9861809321242
 20
131.3369364969491
 30
0.0
 10
180.9849010812507
 20
131.3374459963351
 30
0.0
 10
180.9531447144631
 20
131.3500879765168
 30
0.0
 10
180.9248628814017
 20
131.361667098778
 30
0.0
 10
180.9525612015133
 20
131.3502987119296
 30
0.0
 10
181.0845117582257
 20
131.297668461131
 30
0.0
 10
181.2714542672974
 20
131.2241955416847
 30
0.0
 10
181.5410501592573
 20
131.1208877092866
 30
0.0
 10
181.8915287181094
 20
130.9932728565892
 30
0.0
 10
182.301406423319
 20
130.8498283223913
 30
0.0
 10
182.792105761655
 20
130.6896021823997
 30
0.0
 10
183.3577202651551
 20
130.5236530685451
 30
0.0
 10
183.8249339764626
 20
130.3977827272357
 30
0.0
 10
184.3328990277885
 20
130.2745432718152
 30
0.0
 10
184.876909065484
 20
130.1585847728249
 30
0.0
 10
185.4442272948589
 20
130.0559771571319
 30
0.0
 10
186.2235166046603
 20
129.9410755542891
 30
0.0
 10
187.0393650580074
 20
129.8637124011973
 30
0.0
 10
187.768347591786
 20
129.8350723512206
 30
0.0
 10
188.0833017852807
 20
129.8332886466693
 30
0.0
 10
188.1853267856436
 20
129.8327108405589
 30
0.0
  0
SPLINE
  5
129
330
1F
100
AcDbEntity
  8
0
  6
HIDDEN
 62
     7
370
     0
100
AcDbSpline
210
0.0
220
0.0
230
1.0
 70
     8
 71
     3
 72
     8
 73
     4
 74
     0
 42
0.000000001
 43
0.00000001
 40
0.0
 40
0.0
 40
0.0
 40
0.0
 40
0.0011559732291307
 40
0.0011559732291307
 40
0.0011559732291307
 40
0.0011559732291307
 10
94.33532864530852
 20
115.3571906186326
 30
0.0
 10
94.66866322037585
 20
115.3532233388331
 30
0.0
 10
95.00199441140259
 20
115.3490434562562
 30
0.0
 10
95.33532864530852
 20
115.3444783028481
 30
0.0
  0
SPLINE
  5
12A
330
1F
100
AcDbEntity
  8
0
  6
HIDDEN
 62
     7
370
     0
100
AcDbSpline
210
0.0
220
0.0
230
1.0
 70
     8
 71
     3
 72
     8
 73
     4
 74
     0
 42
0.000000001
 43
0.00000001
 40
0.0
 40
0.0
 40
0.0
 40
0.0
 40
0.0011564765856723
 40
0.0011564765856723
 40
0.0011564765856723
 40
0.0011564765856723
 10
95.33532864530852
 20
111.3606496977828
 30
0.0
 10
95.00202071473967
 20
111.3597745421998
 30
0.0
 10
94.66868548234748
 20
111.3587196909485
 30
0.0
 10
94.33532864530852
 20
111.3575486039113
 30
0.0
  0
LINE
  5
12B
330
1F
100
AcDbEntity
  8
0
  6
HIDDEN
 62
     7
370
     0
100
AcDbLine
 10
133.8951546073
 20
96.3573490761
 30
0.0
 11
133.8951546073
 21
130.3573509239
 31
0.0
  0
LINE
  5
12C
330
1F
100
AcDbEntity
  8
0
  6
HIDDEN
 62
     7
370
     0
100
AcDbLine
 10
136.1853285067
 20
97.6323501699
 30
0.0
 11
136.1853285067
 21
129.0823498301
 31
0.0
  0
SPLINE
  5
12D
330
1F
100
AcDbEntity
  8
0
  6
HIDDEN
 62
     7
370
     0
100
AcDbSpline
210
0.0
220
0.0
230
1.0
 70
     8
 71
     3
 72
    16
 73
    12
 74
     0
 42
0.000000001
 43
0.00000001
 40
0.0
 40
0.0
 40
0.0
 40
0.0
 40
0.124999999999998
 40
0.124999999999998
 40
0.249999999999996
 40
0.249999999999996
 40
0.4999999999999973
 40
0.4999999999999973
 40
0.7499999999999987
 40
0.7499999999999987
 40
1.0
 40
1.0
 40
1.0
 40
1.0
 10
103.0353286453085
 20
97.55585956396828
 30
0.0
 10
103.1304503999744
 20
97.55585956396828
 30
0.0
 10
103.2237804687024
 20
97.55204373057548
 30
0.0
 10
103.4070422294404
 20
97.53727317784568
 30
0.0
 10
103.4979199449974
 20
97.52611512987009
 30
0.0
 10
103.7547216425172
 20
97.48364385972837
 30
0.0
 10
103.9097890073892
 20
97.44259766252559
 30
0.0
 10
104.1635354689438
 20
97.34745154594368
 30
0.0
 10
104.2644059206117
 20
97.2926888118621
 30
0.0
 10
104.3996523353065
 20
97.18142768795823
 30
0.0
 10
104.4353286453085
 20
97.12425795062956
 30
0.0
 10
104.4353286453085
 20
97.06983637759582
 30
0.0
  0
SPLINE
  5
12E
330
1F
100
AcDbEntity
  8
0
  6
HIDDEN
 62
     7
370
     0
100
AcDbSpline
210
0.0
220
0.0
230
1.0
 70
     8
 71
     3
 72
     8
 73
     4
 74
     0
 42
0.000000001
 43
0.00000001
 40
0.0
 40
0.0
 40
0.0
 40
0.0
 40
1.0
 40
1.0
 40
1.0
 40
1.0
 10
95.63532864540117
 20
99.70066251005052
 30
0.0
 10
95.63532864540308
 20
98.8167653677336
 30
0.0
 10
95.62184801949256
 20
98.10218212267166
 30
0.0
 10
95.62049665130142
 20
97.55585956396828
 30
0.0
  0
SPLINE
  5
12F
330
1F
100
AcDbEntity
  8
0
  6
HIDDEN
 62
     7
370
     0
100
AcDbSpline
210
0.0
220
0.0
230
1.0
 70
     8
 71
     3
 72
    10
 73
     6
 74
     0
 42
0.000000001
 43
0.00000001
 40
0.0
 40
0.0
 40
0.0
 40
0.0
 40
0.5
 40
0.5
 40
1.0
 40
1.0
 40
1.0
 40
1.0
 10
95.33532864530852
 20
100.7255727694803
 30
0.0
 10
95.426719759976
 20
100.5509339829122
 30
0.0
 10
95.4993715930361
 20
100.3773321567428
 30
0.0
 10
95.6068704848895
 20
100.0337187398559
 30
0.0
 10
95.6353286453955
 20
99.86539291434907
 30
0.0
 10
95.63532864540113
 20
99.70066251011
 30
0.0
  0
LINE
  5
130
330
1F
100
AcDbEntity
  8
0
  6
HIDDEN
 62
     7
370
     0
100
AcDbLine
 10
95.3353289821
 20
103.7565234609
 30
0.0
 11
95.3353289821
 21
100.725572326
 31
0.0
  0
SPLINE
  5
131
330
1F
100
AcDbEntity
  8
0
  6
HIDDEN
 62
     7
370
     0
100
AcDbSpline
210
0.0
220
0.0
230
1.0
 70
     8
 71
     3
 72
    10
 73
     6
 74
     0
 42
0.000000001
 43
0.00000001
 40
0.0
 40
0.0
 40
0.0
 40
0.0
 40
0.5
 40
0.5
 40
1.0
 40
1.0
 40
1.0
 40
1.0
 10
95.63532864539509
 20
105.1243636243571
 30
0.0
 10
95.63532864539509
 20
104.8823796581427
 30
0.0
 10
95.60717861663665
 20
104.6480372304841
 30
0.0
 10
95.50358870362142
 20
104.1926622106757
 30
0.0
 10
95.42695999482781
 20
103.9710576487582
 30
0.0
 10
95.33532864530854
 20
103.7565232150188
 30
0.0
  0
LINE
  5
132
330
1F
100
AcDbEntity
  8
0
  6
HIDDEN
 62
     7
370
     0
100
AcDbLine
 10
95.6353284725
 20
116.9619837336
 30
0.0
 11
95.6353284725
 21
105.1243634455
 31
0.0
  0
SPLINE
  5
133
330
1F
100
AcDbEntity
  8
0
  6
HIDDEN
 62
     7
370
     0
100
AcDbSpline
210
0.0
220
0.0
230
1.0
 70
     8
 71
     3
 72
     8
 73
     4
 74
     0
 42
0.000000001
 43
0.00000001
 40
0.0
 40
0.0
 40
0.0
 40
0.0
 40
1.0
 40
1.0
 40
1.0
 40
1.0
 10
95.33532864530854
 20
122.9642893135055
 30
0.0
 10
95.51636011004736
 20
122.532181830031
 30
0.0
 10
95.6353286454007
 20
122.0780364263821
 30
0.0
 10
95.63532864539503
 20
121.5903363756119
 30
0.0
  0
LINE
  5
134
330
1F
100
AcDbEntity
  8
0
  6
HIDDEN
 62
     7
370
     0
100
AcDbLine
 10
95.3353289821
 20
125.997491882
 30
0.0
 11
95.3353289821
 21
122.9642897405
 31
0.0
  0
SPLINE
  5
135
330
1F
100
AcDbEntity
  8
0
  6
HIDDEN
 62
     7
370
     0
100
AcDbSpline
210
0.0
220
0.0
230
1.0
 70
     8
 71
     3
 72
    10
 73
     6
 74
     0
 42
0.000000001
 43
0.00000001
 40
0.0
 40
0.0
 40
0.0
 40
0.0
 40
0.5
 40
0.5
 40
1.0
 40
1.0
 40
1.0
 40
1.0
 10
95.6353286454141
 20
127.0140374899198
 30
0.0
 10
95.6353286454123
 20
126.8494011443265
 30
0.0
 10
95.60816997498728
 20
126.68224592154
 30
0.0
 10
95.50240498092764
 20
126.3436229158776
 30
0.0
 10
95.42599019340682
 20
126.1713511397208
 30
0.0
 10
95.33532864530856
 20
125.9974923134703
 30
0.0
  0
SPLINE
  5
136
330
1F
100
AcDbEntity
  8
0
  6
HIDDEN
 62
     7
370
     0
100
AcDbSpline
210
0.0
220
0.0
230
1.0
 70
     8
 71
     3
 72
    18
 73
    14
 74
     0
 42
0.000000001
 43
0.00000001
 40
0.0
 40
0.0
 40
0.0
 40
0.0
 40
0.2500000000000033
 40
0.2500000000000033
 40
0.3750000000000029
 40
0.3750000000000029
 40
0.5000000000000026
 40
0.5000000000000026
 40
0.6250000000000022
 40
0.6250000000000022
 40
0.7500000000000018
 40
0.7500000000000018
 40
1.0
 40
1.0
 40
1.0
 40
1.0
 10
100.4353286453085
 20
129.6448636224041
 30
0.0
 10
100.4353286453085
 20
129.5903891018519
 30
0.0
 10
100.4004179539164
 20
129.5340080424994
 30
0.0
 10
100.2984086525833
 20
129.4499312016459
 30
0.0
 10
100.2567722979052
 20
129.422597497655
 30
0.0
 10
100.1583665024165
 20
129.369643582056
 30
0.0
 10
100.1008232907122
 20
129.3437562283389
 30
0.0
 10
99.97352511713922
 20
129.2959786835056
 30
0.0
 10
99.90393781238176
 20
129.2740307653277
 30
0.0
 10
99.7525035672268
 20
129.234598200415
 30
0.0
 10
99.66981966413286
 20
129.2170419511891
 30
0.0
 10
99.4137082020948
 20
129.1746031857686
 30
0.0
 10
99.22579319820682
 20
129.1588404360316
 30
0.0
 10
99.03532864530854
 20
129.1588404360316
 30
0.0
  0
LINE
  5
137
330
1F
100
AcDbEntity
  8
0
  6
HIDDEN
 62
     7
370
     0
100
AcDbLine
 10
99.0353282847
 20
129.1588412158
 30
0.0
 11
95.6353284725
 21
129.1588412158
 31
0.0
  0
LINE
  5
138
330
1F
100
AcDbEntity
  8
0
  6
HIDDEN
 62
     7
370
     0
100
AcDbLine
 10
95.5663603105
 20
97.5558587842
 30
0.0
 11
103.0353289404
 21
97.5558587842
 31
0.0
  0
SPLINE
  5
139
330
1F
100
AcDbEntity
  8
0
  6
HIDDEN
 62
     7
370
     0
100
AcDbSpline
210
0.0
220
0.0
230
1.0
 70
     8
 71
     3
 72
    22
 73
    18
 74
     0
 42
0.000000001
 43
0.00000001
 40
0.0
 40
0.0
 40
0.0
 40
0.0
 40
0.1249999999999998
 40
0.1249999999999998
 40
0.2499999999999997
 40
0.2499999999999997
 40
0.4999999999999991
 40
0.4999999999999991
 40
0.562499999999999
 40
0.562499999999999
 40
0.624999999999999
 40
0.624999999999999
 40
0.7499999999999993
 40
0.7499999999999993
 40
0.8749999999999997
 40
0.8749999999999997
 40
1.0
 40
1.0
 40
1.0
 40
1.0
 10
95.56635965866644
 20
97.55585956396828
 30
0.0
 10
95.55327726593809
 20
97.81096527411597
 30
0.0
 10
95.54005770249826
 20
98.10412353321988
 30
0.0
 10
95.51761052470414
 20
98.76642399884469
 30
0.0
 10
95.50813205767966
 20
99.13669791945605
 30
0.0
 10
95.48893409674312
 20
100.3592547225698
 30
0.0
 10
95.49004786973998
 20
101.2963936487017
 30
0.0
 10
95.5089586626931
 20
102.6162648782167
 30
0.0
 10
95.51358819055208
 20
102.887766787193
 30
0.0
 10
95.52406941029805
 20
103.4461516219953
 30
0.0
 10
95.52986467158247
 20
103.7332744779349
 30
0.0
 10
95.5481738924874
 20
104.6058637323066
 30
0.0
 10
95.56220882676776
 20
105.2063194086625
 30
0.0
 10
95.59166599890457
 20
106.4437939011585
 30
0.0
 10
95.60722168988616
 20
107.080810057802
 30
0.0
 10
95.63101623988304
 20
108.3922986554865
 30
0.0
 10
95.63903529202841
 20
109.0684212671471
 30
0.0
 10
95.63532864530853
 20
109.7527163784319
 30
0.0
  0
LINE
  5
13A
330
1F
100
AcDbEntity
  8
0
  6
HIDDEN
 62
     7
370
     0
100
AcDbLine
 10
95.6353284725
 20
116.9619837336
 30
0.0
 11
95.6353284725
 21
129.1588412158
 31
0.0
  0
SPLINE
  5
13B
330
1F
100
AcDbEntity
  8
0
  6
HIDDEN
 62
     7
370
     0
100
AcDbSpline
210
0.0
220
0.0
230
1.0
 70
     8
 71
     3
 72
    10
 73
     6
 74
     0
 42
0.000000001
 43
0.00000001
 40
0.0
 40
0.0
 40
0.0
 40
0.0
 40
0.5
 40
0.5
 40
1.0
 40
1.0
 40
1.0
 40
1.0
 10
95.63532864530852
 20
109.7527163784168
 30
0.0
 10
95.63532864530833
 20
110.026631526491
 30
0.0
 10
95.6095694154405
 20
110.2975731052209
 30
0.0
 10
95.50636348270737
 20
110.8332641868235
 30
0.0
 10
95.42902531883222
 20
111.0990109903453
 30
0.0
 10
95.33532864530852
 20
111.3606496977828
 30
0.0
  0
SPLINE
  5
13C
330
1F
100
AcDbEntity
  8
0
  6
HIDDEN
 62
     7
370
     0
100
AcDbSpline
210
0.0
220
0.0
230
1.0
 70
     8
 71
     3
 72
    10
 73
     6
 74
     0
 42
0.000000001
 43
0.00000001
 40
0.0
 40
0.0
 40
0.0
 40
0.0
 40
0.5
 40
0.5
 40
1.0
 40
1.0
 40
1.0
 40
1.0
 10
95.33532864530854
 20
115.3444783028481
 30
0.0
 10
95.42855922565977
 20
115.6083721094465
 30
0.0
 10
95.5035888371886
 20
115.874552418545
 30
0.0
 10
95.60865593516827
 20
116.412874990364
 30
0.0
 10
95.63532864541288
 20
116.6856231049798
 30
0.0
 10
95.63532864541406
 20
116.9619836215671
 30
0.0
  0
LINE
  5
13D
330
1F
100
AcDbEntity
  8
0
  6
HIDDEN
 62
     7
370
     0
100
AcDbLine
 10
95.3353289821
 20
111.3606498137
 30
0.0
 11
95.3353289821
 21
115.3444782857
 31
0.0
  0
LINE
  5
13E
330
1F
100
AcDbEntity
  8
0
  6
HIDDEN
 62
     7
370
     0
100
AcDbLine
 10
95.4853277959
 20
95.367349454
 30
0.0
 11
95.4853277959
 21
92.4874113433
 31
0.0
  0
LINE
  5
13F
330
1F
100
AcDbEntity
  8
0
  6
HIDDEN
 62
     7
370
     0
100
AcDbLine
 10
104.4353284248
 20
95.367349454
 30
0.0
 11
104.4353284248
 21
91.393612095
 31
0.0
  0
LINE
  5
140
330
1F
100
AcDbEntity
  8
0
  6
HIDDEN
 62
     7
370
     0
100
AcDbLine
 10
95.4853277959
 20
131.347350546
 30
0.0
 11
95.4853277959
 21
134.2272886567
 31
0.0
  0
LINE
  5
141
330
1F
100
AcDbEntity
  8
0
  6
HIDDEN
 62
     7
370
     0
100
AcDbLine
 10
100.4353277691
 20
131.347350546
 30
0.0
 11
100.4353277691
 21
135.2014576577
 31
0.0
  0
LINE
  5
142
330
1F
100
AcDbEntity
  8
0
  6
HIDDEN
 62
     7
370
     0
100
AcDbLine
 10
148.0353288658
 20
103.8573503055
 30
0.0
 11
148.0353288658
 21
122.8573496945
 31
0.0
  0
LINE
  5
143
330
1F
100
AcDbEntity
  8
0
  6
HIDDEN
 62
     7
370
     0
100
AcDbLine
 10
145.0353283741
 20
103.8573503055
 30
0.0
 11
145.0353283741
 21
122.8573496945
 31
0.0
  0
LINE
  5
144
330
1F
100
AcDbEntity
  8
0
  6
HIDDEN
 62
     7
370
     0
100
AcDbLine
 10
136.6853285887
 20
104.8573495381
 30
0.0
 11
136.6853285887
 21
121.8573504619
 31
0.0
  0
LINE
  5
145
330
1F
100
AcDbEntity
  8
0
  6
HIDDEN
 62
     7
370
     0
100
AcDbLine
 10
152.1853283354
 20
86.9573501431
 30
0.0
 11
146.047653661
 21
86.9573501431
 31
0.0
  0
LINE
  5
146
330
1F
100
AcDbEntity
  8
0
  6
HIDDEN
 62
     7
370
     0
100
AcDbLine
 10
142.4230039426
 20
86.9573501431
 30
0.0
 11
139.1853289985
 21
86.9573501431
 31
0.0
  0
LINE
  5
147
330
1F
100
AcDbEntity
  8
0
  6
HIDDEN
 62
     7
370
     0
100
AcDbLine
 10
131.1853286185
 20
81.8732266806
 30
0.0
 11
131.1853286185
 21
86.9573501431
 31
0.0
  0
LINE
  5
148
330
1F
100
AcDbEntity
  8
0
  6
HIDDEN
 62
     7
370
     0
100
AcDbLine
 10
139.1853289985
 20
86.9573501431
 30
0.0
 11
131.1853286185
 21
86.9573501431
 31
0.0
  0
LINE
  5
149
330
1F
100
AcDbEntity
  8
0
  6
HIDDEN
 62
     7
370
     0
100
AcDbLine
 10
188.1853267856
 20
142.6073496722
 30
0.0
 11
195.4353303023
 21
142.6073496722
 31
0.0
  0
LINE
  5
14A
330
1F
100
AcDbEntity
  8
0
  6
HIDDEN
 62
     7
370
     0
100
AcDbLine
 10
180.9353269943
 20
142.6073496722
 30
0.0
 11
188.1853267856
 21
142.6073496722
 31
0.0
  0
LINE
  5
14B
330
1F
100
AcDbEntity
  8
0
  6
HIDDEN
 62
     7
370
     0
100
AcDbLine
 10
142.7196264573
 20
139.7573498569
 30
0.0
 11
139.1853289985
 21
139.7573498569
 31
0.0
  0
LINE
  5
14C
330
1F
100
AcDbEntity
  8
0
  6
HIDDEN
 62
     7
370
     0
100
AcDbLine
 10
152.1853283354
 20
139.7573498569
 30
0.0
 11
145.7510311462
 21
139.7573498569
 31
0.0
  0
LINE
  5
14D
330
1F
100
AcDbEntity
  8
0
  6
HIDDEN
 62
     7
370
     0
100
AcDbLine
 10
139.1853289985
 20
139.7573498569
 30
0.0
 11
131.1853286185
 21
139.7573498569
 31
0.0
  0
SPLINE
  5
14E
330
1F
100
AcDbEntity
  8
0
  6
HIDDEN
 62
     7
370
     0
100
AcDbSpline
210
0.0
220
0.0
230
1.0
 70
     8
 71
     3
 72
    11
 73
     7
 74
     0
 42
0.000000001
 43
0.00000001
 40
0.0
 40
0.0
 40
0.0
 40
0.0
 40
0.0008203708524183
 40
0.0008203708524183
 40
0.0008203708524183
 40
0.0016409967870154
 40
0.0016409967870154
 40
0.0016409967870154
 40
0.0016409967870154
 10
95.48532864530854
 20
97.5053172493572
 30
0.0
 10
95.29417034500987
 20
97.46413822073808
 30
0.0
 10
95.1027432749377
 20
97.42538424850808
 30
0.0
 10
94.91109765141707
 20
97.38901648922955
 30
0.0
 10
94.7193922463366
 20
97.35263738546351
 30
0.0
 10
94.52745329427763
 20
97.31864313469595
 30
0.0
 10
94.33532864720684
 20
97.28699500930473
 30
0.0
  0
ELLIPSE
  5
14F
330
1F
100
AcDbEntity
  8
0
  6
HIDDEN
 62
     7
370
     0
100
AcDbEllipse
 10
90.0928967826
 20
113.35735
 30
0.0
 11
20.19992452771987
 21
-1.421085471520200E-14
 31
0.0
210
0.0
220
0.0
230
1.0
 40
0.816496581
 41
1.300566354937426
 42
1.359198697443033
  0
LINE
  5
150
330
1F
100
AcDbEntity
  8
0
  6
HIDDEN
 62
     7
370
     0
100
AcDbLine
 10
95.4853277959
 20
95.367349454
 30
0.0
 11
95.4853277959
 21
97.5053177707
 31
0.0
  0
LINE
  5
151
330
1F
100
AcDbEntity
  8
0
  6
HIDDEN
 62
     7
370
     0
100
AcDbLine
 10
95.5663603105
 20
97.5558587842
 30
0.0
 11
95.4853277959
 21
97.5053177707
 31
0.0
  0
LINE
  5
152
330
1F
100
AcDbEntity
  8
0
  6
HIDDEN
 62
     7
370
     0
100
AcDbLine
 10
104.4353284248
 20
95.367349454
 30
0.0
 11
104.4353284248
 21
97.0698369227
 31
0.0
  0
LINE
  5
153
330
1F
100
AcDbEntity
  8
0
  6
HIDDEN
 62
     7
370
     0
100
AcDbLine
 10
100.4353277691
 20
131.347350546
 30
0.0
 11
100.4353277691
 21
129.6448630773
 31
0.0
  0
LINE
  5
154
330
1F
100
AcDbEntity
  8
0
  6
HIDDEN
 62
     7
370
     0
100
AcDbLine
 10
95.4853277959
 20
131.347350546
 30
0.0
 11
95.4853277959
 21
129.2519753359
 31
0.0
  0
SPLINE
  5
155
330
1F
100
AcDbEntity
  8
0
  6
HIDDEN
 62
     7
370
     0
100
AcDbSpline
210
0.0
220
0.0
230
1.0
 70
     8
 71
     3
 72
     8
 73
     4
 74
     0
 42
0.000000001
 43
0.00000001
 40
0.0
 40
0.0
 40
0.0
 40
0.0
 40
1.0
 40
1.0
 40
1.0
 40
1.0
 10
95.48532864530854
 20
129.2519744489987
 30
0.0
 10
95.53533414315612
 20
129.2209386754658
 30
0.0
 10
95.5853342127246
 20
129.1898940311249
 30
0.0
 10
95.63532864541408
 20
129.1588404360316
 30
0.0
  0
ARC
  5
156
330
1F
100
AcDbEntity
  8
0
  6
HIDDEN
 62
     7
370
     0
100
AcDbCircle
 10
153.1743386735
 20
86.9461139816
 30
0.0
 40
0.9890741631884964
100
AcDbArc
 50
89.3633605906
 51
179.3490897839
  0
LWPOLYLINE
  5
157
330
1F
100
AcDbEntity
  8
0
  6
HIDDEN
 62
     7
370
     0
100
AcDbPolyline
 90
       17
 70
   128
 43
0.0
 10
120.9839438394
 20
89.7574161671
 10
120.7553022847
 20
89.8184643619
 10
120.4181909867
 20
89.8961497031
 10
119.8994997263
 20
90.0051498346
 10
119.1577231817
 20
90.1352555983
 10
118.4275141292
 20
90.2358347111
 10
117.2560938009
 20
90.3484129839
 10
115.9345135399
 20
90.3744956039
 10
115.245970928
 20
90.3533322297
 10
114.595844441
 20
90.3093626283
 10
114.0151983433
 20
90.2523861758
 10
113.6792209305
 20
90.2116240494
 10
113.4853484415
 20
90.178735324
 10
113.6743473195
 20
90.2107839964
 10
114.0063349464
 20
90.2512015335
 10
114.5791858741
 20
90.3078781001
 10
114.5791858741
 20
90.3078781001
  0
SPLINE
  5
158
330
1F
100
AcDbEntity
  8
0
  6
HIDDEN
 62
     7
370
     0
100
AcDbSpline
210
0.0
220
0.0
230
1.0
 70
     8
 71
     3
 72
    27
 73
    23
 74
     0
 42
0.000000001
 43
0.00000001
 40
0.0
 40
0.0
 40
0.0
 40
0.0
 40
0.0008086718011466
 40
0.0456911835728115
 40
0.1022728488348068
 40
0.1705509380574596
 40
0.2091425953624142
 40
0.2506698346814941
 40
0.3211155934484256
 40
0.386209345301893
 40
0.4266885171745516
 40
0.4648197791220245
 40
0.5006240430020615
 40
0.5452158730052867
 40
0.6017101246216854
 40
0.6701160594743487
 40
0.7088534273389774
 40
0.7505821630159898
 40
0.8222467565880245
 40
0.8877861673821494
 40
0.9472599270276032
 40
1.0
 40
1.0
 40
1.0
 40
1.0
 10
113.4859975733357
 20
136.5357635103225
 30
0.0
 10
113.4857751104072
 20
136.5358115330025
 30
0.0
 10
113.473205617458
 20
136.5385248872781
 30
0.0
 10
113.5222903780646
 20
136.5266838510206
 30
0.0
 10
113.6673912050645
 20
136.5032475931547
 30
0.0
 10
113.9404443566135
 20
136.469338599079
 30
0.0
 10
114.2689700580449
 20
136.4357709830048
 30
0.0
 10
114.6616980549371
 20
136.3975879550682
 30
0.0
 10
115.211425856917
 20
136.3586198683898
 30
0.0
 10
115.837448487284
 20
136.3391582402117
 30
0.0
 10
116.3806403279499
 20
136.3369730840354
 30
0.0
 10
116.8257090771939
 20
136.345487805316
 30
0.0
 10
117.2921569317862
 20
136.3652713555025
 30
0.0
 10
117.8293978569869
 20
136.4094312371753
 30
0.0
 10
118.4776108286314
 20
136.4818510726846
 30
0.0
 10
119.0631499654299
 20
136.5627487307594
 30
0.0
 10
119.5441191289239
 20
136.6409180924028
 30
0.0
 10
119.9895341284814
 20
136.7256886493071
 30
0.0
 10
120.428034200292
 20
136.8194734232511
 30
0.0
 10
120.7670590311033
 20
136.8973756502028
 30
0.0
 10
120.9543999790882
 20
136.9475666389508
 30
0.0
 10
120.9748897488577
 20
136.9542340120231
 30
0.0
 10
120.984519862433
 20
136.9573676519155
 30
0.0
  0
SPLINE
  5
159
330
1F
100
AcDbEntity
  8
0
  6
HIDDEN
 62
     7
370
     0
100
AcDbSpline
210
0.0
220
0.0
230
1.0
 70
     8
 71
     3
 72
     8
 73
     4
 74
     0
 42
0.000000001
 43
0.00000001
 40
0.0
 40
0.0
 40
0.0
 40
0.0
 40
0.0001590976915385
 40
0.0001590976915385
 40
0.0001590976915385
 40
0.0001590976915385
 10
95.62049665130142
 20
97.55585956396828
 30
0.0
 10
95.57544518187191
 20
97.52788068031762
 30
0.0
 10
95.53038914453215
 20
97.49990915061532
 30
0.0
 10
95.48532864530856
 20
97.47194481193522
 30
0.0
  0
SPLINE
  5
15A
330
1F
100
AcDbEntity
  8
0
  6
HIDDEN
 62
     7
370
     0
100
AcDbSpline
210
0.0
220
0.0
230
1.0
 70
     8
 71
     3
 72
    11
 73
     7
 74
     0
 42
0.000000001
 43
0.00000001
 40
0.0
 40
0.0
 40
0.0
 40
0.0
 40
0.000821290931132
 40
0.000821290931132
 40
0.000821290931132
 40
0.0016428257242788
 40
0.0016428257242788
 40
0.0016428257242788
 40
0.0016428257242788
 10
95.48532864530854
 20
97.47194481193522
 30
0.0
 10
95.2941836238261
 20
97.42865862311359
 30
0.0
 10
95.10276528814951
 20
97.38772211350782
 30
0.0
 10
94.91111921348838
 20
97.34912034215336
 30
0.0
 10
94.71941613194679
 20
97.31050708834839
 30
0.0
 10
94.52747100866144
 20
97.27422687909515
 30
0.0
 10
94.33532864530852
 20
97.24025997277703
 30
0.0
  0
LINE
  5
15B
330
1F
100
AcDbEntity
  8
0
  6
HIDDEN
 62
     7
370
     0
100
AcDbLine
 10
142.3253286936
 20
133.4932164781
 30
0.0
 11
142.3253286936
 21
133.2073507391
 31
0.0
  0
LINE
  5
15C
330
1F
100
AcDbEntity
  8
0
  6
HIDDEN
 62
     7
370
     0
100
AcDbLine
 10
146.14532891
 20
133.4932164781
 30
0.0
 11
146.14532891
 21
133.2073507391
 31
0.0
  0
LINE
  5
15D
330
1F
100
AcDbEntity
  8
0
  6
HIDDEN
 62
     7
370
     0
100
AcDbLine
 10
147.6272605666
 20
137.8160396151
 30
0.0
 11
147.6272605666
 21
133.2073507391
 31
0.0
  0
SPLINE
  5
15E
330
1F
100
AcDbEntity
  8
0
  6
HIDDEN
 62
     7
370
     0
100
AcDbSpline
210
0.0
220
0.0
230
1.0
 70
     8
 71
     3
 72
    24
 73
    20
 74
     0
 42
0.000000001
 43
0.00000001
 40
0.0
 40
0.0
 40
0.0
 40
0.0
 40
0.2500000000000114
 40
0.2500000000000114
 40
0.3750000000000163
 40
0.3750000000000163
 40
0.4375000000000177
 40
0.4375000000000177
 40
0.4687500000000166
 40
0.4687500000000166
 40
0.5000000000000155
 40
0.5000000000000155
 40
0.5625000000000157
 40
0.5625000000000157
 40
0.6250000000000157
 40
0.6250000000000157
 40
0.7500000000000099
 40
0.7500000000000099
 40
1.0
 40
1.0
 40
1.0
 40
1.0
 10
94.39799202003194
 20
93.6827974552192
 30
0.0
 10
94.41174513870216
 20
93.7534475132095
 30
0.0
 10
94.42951770610804
 20
93.82004562597442
 30
0.0
 10
94.4817687976634
 20
93.89414364620762
 30
0.0
 10
94.50280387324496
 20
93.91540145336917
 30
0.0
 10
94.5557042808734
 20
93.92354737951541
 30
0.0
 10
94.57680995375132
 20
93.92260757611965
 30
0.0
 10
94.62286212242928
 20
93.90159158454229
 30
0.0
 10
94.64123259441267
 20
93.89068277843468
 30
0.0
 10
94.68278422947837
 20
93.8580478674873
 30
0.0
 10
94.70535090223531
 20
93.83655588711594
 30
0.0
 10
94.76813191869532
 20
93.76808994352962
 30
0.0
 10
94.8012616796632
 20
93.72201548532452
 30
0.0
 10
94.8581793661482
 20
93.63700759698987
 30
0.0
 10
94.88236539165197
 20
93.59672729580848
 30
0.0
 10
94.94757334203175
 20
93.48179106934253
 30
0.0
 10
94.98228940222299
 20
93.41120808419554
 30
0.0
 10
95.07550467255385
 20
93.20700232511692
 30
0.0
 10
95.12117720791453
 20
93.08410394278957
 30
0.0
 10
95.15948229141308
 20
92.967230666402
 30
0.0
  0
SPLINE
  5
15F
330
1F
100
AcDbEntity
  8
0
  6
HIDDEN
 62
     7
370
     0
100
AcDbSpline
210
0.0
220
0.0
230
1.0
 70
     8
 71
     3
 72
     8
 73
     4
 74
     0
 42
0.000000001
 43
0.00000001
 40
0.0
 40
0.0
 40
0.0
 40
0.0
 40
0.0011563724678166
 40
0.0011563724678166
 40
0.0011563724678166
 40
0.0011563724678166
 10
95.33532864530852
 20
125.9974923134703
 30
0.0
 10
95.0020075301114
 20
126.1265513390972
 30
0.0
 10
94.66867484930341
 20
126.2555116752709
 30
0.0
 10
94.33532864530852
 20
126.3844232050439
 30
0.0
  0
SPLINE
  5
160
330
1F
100
AcDbEntity
  8
0
  6
HIDDEN
 62
     7
370
     0
100
AcDbSpline
210
0.0
220
0.0
230
1.0
 70
     8
 71
     3
 72
     8
 73
     4
 74
     0
 42
0.000000001
 43
0.00000001
 40
0.0000000000000001
 40
0.0000000000000001
 40
0.0000000000000001
 40
0.0000000000000001
 40
0.0011557494192775
 40
0.0011557494192775
 40
0.0011557494192775
 40
0.0011557494192775
 10
94.3353286453085
 20
100.3301281375491
 30
0.0
 10
94.66866245532266
 20
100.461752413744
 30
0.0
 10
95.00199606698533
 20
100.5935693273174
 30
0.0
 10
95.33532864530854
 20
100.7255727694803
 30
0.0
  0
SPLINE
  5
161
330
1F
100
AcDbEntity
  8
0
  6
HIDDEN
 62
     7
370
     0
100
AcDbSpline
210
0.0
220
0.0
230
1.0
 70
     8
 71
     3
 72
     8
 73
     4
 74
     0
 42
0.000000001
 43
0.00000001
 40
0.0000000000000006
 40
0.0000000000000006
 40
0.0000000000000006
 40
0.0000000000000006
 40
0.0011560973009451
 40
0.0011560973009451
 40
0.0011560973009451
 40
0.0011560973009451
 10
94.33532864530851
 20
123.338164493287
 30
0.0
 10
94.66866838289525
 20
123.2134207610137
 30
0.0
 10
95.00199901610388
 20
123.0887395368368
 30
0.0
 10
95.33532864530854
 20
122.9642893135055
 30
0.0
  0
SPLINE
  5
162
330
1F
100
AcDbEntity
  8
0
  6
HIDDEN
 62
     7
370
     0
100
AcDbSpline
210
0.0
220
0.0
230
1.0
 70
     8
 71
     3
 72
     8
 73
     4
 74
     0
 42
0.000000001
 43
0.00000001
 40
0.0
 40
0.0
 40
0.0
 40
0.0
 40
0.0011564805411644
 40
0.0011564805411644
 40
0.0011564805411644
 40
0.0011564805411644
 10
95.33532864530854
 20
103.7565232150188
 30
0.0
 10
95.00202667990708
 20
103.6296722745846
 30
0.0
 10
94.66868986300042
 20
103.5031072057223
 30
0.0
 10
94.33532864530855
 20
103.3767072320616
 30
0.0
  0
LINE
  5
163
330
1F
100
AcDbEntity
  8
0
  6
HIDDEN
 62
     7
370
     0
100
AcDbLine
 10
197.7353319832
 20
100.6073502384
 30
0.0
 11
197.7353319832
 21
92.1073497765
 31
0.0
  0
CIRCLE
  5
164
330
1F
100
AcDbEntity
  8
0
  6
HIDDEN
 62
     7
370
     0
100
AcDbCircle
 10
133.2353286453
 20
113.35735
 30
0.0
 40
4.999999999999986
  0
LINE
  5
165
330
1F
100
AcDbEntity
  8
0
  6
HIDDEN
 62
     7
370
     0
100
AcDbLine
 10
180.1853291996
 20
131.9496852838
 30
0.0
 11
182.5860292025
 21
122.9901488431
 31
0.0
  0
LINE
  5
166
330
1F
100
AcDbEntity
  8
0
  6
HIDDEN
 62
     7
370
     0
100
AcDbLine
 10
193.7846243687
 20
122.9901488431
 30
0.0
 11
196.1853280969
 21
131.9496852838
 31
0.0
  0
LINE
  5
167
330
1F
100
AcDbEntity
  8
0
  6
HIDDEN
 62
     7
370
     0
100
AcDbLine
 10
180.1853291996
 20
142.1195582978
 30
0.0
 11
180.1853291996
 21
131.9496852838
 31
0.0
  0
LINE
  5
168
330
1F
100
AcDbEntity
  8
0
  6
HIDDEN
 62
     7
370
     0
100
AcDbLine
 10
196.1853280969
 20
131.9496852838
 30
0.0
 11
196.1853280969
 21
142.1195582978
 31
0.0
  0
LINE
  5
169
330
1F
100
AcDbEntity
  8
0
  6
HIDDEN
 62
     7
370
     0
100
AcDbLine
 10
196.1853280969
 20
142.1195582978
 30
0.0
 11
195.1853260704
 21
143.1195584618
 31
0.0
  0
LINE
  5
16A
330
1F
100
AcDbEntity
  8
0
  6
HIDDEN
 62
     7
370
     0
100
AcDbLine
 10
181.1853275009
 20
143.1195584618
 30
0.0
 11
180.1853291996
 21
142.1195582978
 31
0.0
  0
ARC
  5
16B
330
1F
100
AcDbEntity
  8
0
  6
HIDDEN
 62
     7
370
     0
100
AcDbCircle
 10
183.0689921393
 20
123.1195579581
 30
0.0
 40
0.5
100
AcDbArc
 50
195.0
 51
270.0
  0
ARC
  5
16C
330
1F
100
AcDbEntity
  8
0
  6
HIDDEN
 62
     7
370
     0
100
AcDbCircle
 10
193.3016651513
 20
123.1195579581
 30
0.0
 40
0.5000000000000079
100
AcDbArc
 50
270.0
 51
345.0
  0
LINE
  5
16D
330
1F
100
AcDbEntity
  8
0
  6
HIDDEN
 62
     7
370
     0
100
AcDbLine
 10
183.4853291818
 20
143.1195584618
 30
0.0
 11
184.0387545832
 21
142.5661330603
 31
0.0
  0
LINE
  5
16E
330
1F
100
AcDbEntity
  8
0
  6
HIDDEN
 62
     7
370
     0
100
AcDbLine
 10
192.3319027134
 20
142.5661330603
 30
0.0
 11
192.8853318401
 21
143.1195584618
 31
0.0
  0
LINE
  5
16F
330
1F
100
AcDbEntity
  8
0
  6
HIDDEN
 62
     7
370
     0
100
AcDbLine
 10
184.1853298553
 20
132.1195585214
 30
0.0
 11
188.1853267856
 21
130.6636778198
 31
0.0
  0
LINE
  5
170
330
1F
100
AcDbEntity
  8
0
  6
HIDDEN
 62
     7
370
     0
100
AcDbLine
 10
188.1853267856
 20
130.6636778198
 30
0.0
 11
192.1853274413
 21
132.1195585214
 31
0.0
  0
LINE
  5
171
330
1F
100
AcDbEntity
  8
0
  6
HIDDEN
 62
     7
370
     0
100
AcDbLine
 10
184.1853298553
 20
133.1195586853
 30
0.0
 11
184.1853298553
 21
132.1195585214
 31
0.0
  0
LINE
  5
172
330
1F
100
AcDbEntity
  8
0
  6
HIDDEN
 62
     7
370
     0
100
AcDbLine
 10
192.1853274413
 20
132.1195585214
 30
0.0
 11
192.1853274413
 21
133.1195586853
 31
0.0
  0
LINE
  5
173
330
1F
100
AcDbEntity
  8
0
  6
HIDDEN
 62
     7
370
     0
100
AcDbLine
 10
126.2353286453
 20
88.0334188722
 30
0.0
 11
126.3294894176
 21
88.7034067445
 31
0.0
  0
LINE
  5
174
330
1F
100
AcDbEntity
  8
0
  6
HIDDEN
 62
     7
370
     0
100
AcDbLine
 10
126.3294894176
 20
138.0112932555
 30
0.0
 11
126.2353286453
 21
138.6812811278
 31
0.0
  0
ARC
  5
175
330
1F
100
AcDbEntity
  8
0
  6
HIDDEN
 62
     7
370
     0
100
AcDbCircle
 10
125.7353218926
 20
88.7869123856
 30
0.0
 40
0.6000067526677101
100
AcDbArc
 50
352.0
 51
0.0
  0
ARC
  5
176
330
1F
100
AcDbEntity
  8
0
  6
HIDDEN
 62
     7
370
     0
100
AcDbCircle
 10
125.7353218926
 20
88.7869123856
 30
0.0
 40
0.6000067526677203
100
AcDbArc
 50
0.0
 51
33.5571153394
  0
ARC
  5
177
330
1F
100
AcDbEntity
  8
0
  6
HIDDEN
 62
     7
370
     0
100
AcDbCircle
 10
125.7353218926
 20
137.9277876144
 30
0.0
 40
0.6000067526677081
100
AcDbArc
 50
348.75
 51
8.0
  0
LWPOLYLINE
  5
178
330
1F
100
AcDbEntity
  8
0
  6
HIDDEN
 62
     7
370
     0
100
AcDbPolyline
 90
        3
 70
   128
 43
0.0
 10
126.3237996842
 20
137.8107329391
 10
126.2896558525
 20
137.6981751554
 10
126.2353286453
 20
137.5961226903
  0
LINE
  5
179
330
1F
100
AcDbEntity
  8
0
  6
HIDDEN
 62
     7
370
     0
100
AcDbLine
 10
126.3353286428
 20
88.7869128518
 30
0.0
 11
126.3353286428
 21
137.9277871482
 31
0.0
  0
ARC
  5
17A
330
1F
100
AcDbEntity
  8
0
  6
HIDDEN
 62
     7
370
     0
100
AcDbCircle
 10
119.9903306469
 20
101.35735
 30
0.0
 40
7.999999999999996
100
AcDbArc
 50
276.8737622725
 51
321.3178125465
  0
ARC
  5
17B
330
1F
100
AcDbEntity
  8
0
  6
HIDDEN
 62
     7
370
     0
100
AcDbCircle
 10
119.9903306469
 20
125.35735
 30
0.0
 40
8.000000000000012
100
AcDbArc
 50
38.6821874535
 51
83.1187603686
  0
LINE
  5
17C
330
1F
100
AcDbEntity
  8
0
  6
HIDDEN
 62
     7
370
     0
100
AcDbLine
 10
109.3177646705
 20
93.357350447
 30
0.0
 11
113.5094361686
 21
93.357350447
 31
0.0
  0
LINE
  5
17D
330
1F
100
AcDbEntity
  8
0
  6
HIDDEN
 62
     7
370
     0
100
AcDbLine
 10
113.5094361686
 20
133.357349553
 30
0.0
 11
109.3177646705
 21
133.357349553
 31
0.0
  0
ARC
  5
17E
330
1F
100
AcDbEntity
  8
0
  6
HIDDEN
 62
     7
370
     0
100
AcDbCircle
 10
109.3177642106
 20
93.95735
 30
0.0
 40
0.5999999999999801
100
AcDbArc
 50
210.0
 51
270.0
  0
ARC
  5
17F
330
1F
100
AcDbEntity
  8
0
  6
HIDDEN
 62
     7
370
     0
100
AcDbCircle
 10
109.3177642106
 20
132.75735
 30
0.0
 40
0.6000000000000227
100
AcDbArc
 50
90.0
 51
150.0
  0
LINE
  5
180
330
1F
100
AcDbEntity
  8
0
  6
HIDDEN
 62
     7
370
     0
100
AcDbLine
 10
108.7981481411
 20
133.0573500626
 30
0.0
 11
107.239304141
 21
130.3573509239
 31
0.0
  0
LINE
  5
181
330
1F
100
AcDbEntity
  8
0
  6
HIDDEN
 62
     7
370
     0
100
AcDbLine
 10
107.239304141
 20
96.3573490761
 30
0.0
 11
108.7981481411
 21
93.6573499374
 31
0.0
  0
ARC
  5
182
330
1F
100
AcDbEntity
  8
0
  6
HIDDEN
 62
     7
370
     0
100
AcDbCircle
 10
205.2353286453
 20
132.35735
 30
0.0
 40
1.0
100
AcDbArc
 50
270.0
 51
0.0
  0
ARC
  5
183
330
1F
100
AcDbEntity
  8
0
  6
HIDDEN
 62
     7
370
     0
100
AcDbCircle
 10
205.2353286453
 20
94.35735
 30
0.0
 40
1.0
100
AcDbArc
 50
0.0
 51
90.0
  0
ARC
  5
184
330
1F
100
AcDbEntity
  8
0
  6
HIDDEN
 62
     7
370
     0
100
AcDbCircle
 10
166.7353286453
 20
130.85735
 30
0.0
 40
1.0
100
AcDbArc
 50
90.0
 51
180.0
  0
ARC
  5
185
330
1F
100
AcDbEntity
  8
0
  6
HIDDEN
 62
     7
370
     0
100
AcDbCircle
 10
166.7353286453
 20
95.85735
 30
0.0
 40
1.0
100
AcDbArc
 50
180.0
 51
270.0
  0
LINE
  5
186
330
1F
100
AcDbEntity
  8
0
  6
HIDDEN
 62
     7
370
     0
100
AcDbLine
 10
168.6036773332
 20
131.8573502384
 30
0.0
 11
166.7353287645
 21
131.8573502384
 31
0.0
  0
LINE
  5
187
330
1F
100
AcDbEntity
  8
0
  6
HIDDEN
 62
     7
370
     0
100
AcDbLine
 10
166.7353287645
 20
94.8573497616
 30
0.0
 11
168.6036773332
 21
94.8573497616
 31
0.0
  0
ARC
  5
188
330
1F
100
AcDbEntity
  8
0
  6
HIDDEN
 62
     7
370
     0
100
AcDbCircle
 10
168.6036761477
 20
130.85735
 30
0.0
 40
0.9999999999999716
100
AcDbArc
 50
75.0
 51
90.0
  0
ARC
  5
189
330
1F
100
AcDbEntity
  8
0
  6
HIDDEN
 62
     7
370
     0
100
AcDbCircle
 10
168.6036761477
 20
95.85735
 30
0.0
 40
1.0
100
AcDbArc
 50
270.0
 51
285.0
  0
LINE
  5
18A
330
1F
100
AcDbEntity
  8
0
  6
HIDDEN
 62
     7
370
     0
100
AcDbLine
 10
168.862495602
 20
94.8914249919
 30
0.0
 11
170.6013530799
 21
95.3573507749
 31
0.0
  0
LINE
  5
18B
330
1F
100
AcDbEntity
  8
0
  6
HIDDEN
 62
     7
370
     0
100
AcDbLine
 10
170.6013530799
 20
131.3573492251
 30
0.0
 11
168.862495602
 21
131.8232750081
 31
0.0
  0
LINE
  5
18C
330
1F
100
AcDbEntity
  8
0
  6
HIDDEN
 62
     7
370
     0
100
AcDbLine
 10
180.9512824126
 20
131.3573492251
 30
0.0
 11
170.6013530799
 21
131.3573492251
 31
0.0
  0
LINE
  5
18D
330
1F
100
AcDbEntity
  8
0
  6
HIDDEN
 62
     7
370
     0
100
AcDbLine
 10
205.2353322812
 20
131.3573492251
 30
0.0
 11
195.4333707996
 21
131.3573492251
 31
0.0
  0
LINE
  5
18E
330
1F
100
AcDbEntity
  8
0
  6
HIDDEN
 62
     7
370
     0
100
AcDbLine
 10
170.6013530799
 20
95.3573507749
 30
0.0
 11
205.2353322812
 21
95.3573507749
 31
0.0
  0
ARC
  5
18F
330
1F
100
AcDbEntity
  8
0
  6
HIDDEN
 62
     7
370
     0
100
AcDbCircle
 10
134.6853286453
 20
97.63235
 30
0.0
 40
1.500000000000004
100
AcDbArc
 50
238.2116693829
 51
0.0
  0
ARC
  5
190
330
1F
100
AcDbEntity
  8
0
  6
HIDDEN
 62
     7
370
     0
100
AcDbCircle
 10
134.6853286453
 20
129.08235
 30
0.0
 40
1.500000000000016
100
AcDbArc
 50
0.0
 51
121.7883306171
  0
LINE
  5
191
330
1F
100
AcDbEntity
  8
0
  6
HIDDEN
 62
     7
370
     0
100
AcDbLine
 10
126.2353286453
 20
96.3573490761
 30
0.0
 11
133.8951546073
 21
96.3573490761
 31
0.0
  0
LINE
  5
192
330
1F
100
AcDbEntity
  8
0
  6
HIDDEN
 62
     7
370
     0
100
AcDbLine
 10
133.8951546073
 20
130.3573509239
 30
0.0
 11
126.2353286453
 21
130.3573509239
 31
0.0
  0
LINE
  5
193
330
1F
100
AcDbEntity
  8
0
  6
HIDDEN
 62
     7
370
     0
100
AcDbLine
 10
104.4353284248
 20
96.3573490761
 30
0.0
 11
107.239304141
 21
96.3573490761
 31
0.0
  0
LINE
  5
194
330
1F
100
AcDbEntity
  8
0
  6
HIDDEN
 62
     7
370
     0
100
AcDbLine
 10
107.239304141
 20
130.3573509239
 30
0.0
 11
100.4353277691
 21
130.3573509239
 31
0.0
  0
LINE
  5
195
330
1F
100
AcDbEntity
  8
0
  6
HIDDEN
 62
     7
370
     0
100
AcDbLine
 10
145.0353283741
 20
103.8573503055
 30
0.0
 11
148.0353288658
 21
103.8573503055
 31
0.0
  0
LINE
  5
196
330
1F
100
AcDbEntity
  8
0
  6
HIDDEN
 62
     7
370
     0
100
AcDbLine
 10
148.0353288658
 20
122.8573496945
 30
0.0
 11
145.0353283741
 21
122.8573496945
 31
0.0
  0
LINE
  5
197
330
1F
100
AcDbEntity
  8
0
  6
HIDDEN
 62
     7
370
     0
100
AcDbLine
 10
136.1853285067
 20
104.3573503874
 30
0.0
 11
136.6853285887
 21
104.8573495381
 31
0.0
  0
LINE
  5
198
330
1F
100
AcDbEntity
  8
0
  6
HIDDEN
 62
     7
370
     0
100
AcDbLine
 10
136.6853285887
 20
121.8573504619
 30
0.0
 11
136.1853285067
 21
122.3573496126
 31
0.0
  0
LINE
  5
199
330
1F
100
AcDbEntity
  8
0
  6
HIDDEN
 62
     7
370
     0
100
AcDbLine
 10
178.6853298851
 20
144.8573505066
 30
0.0
 11
180.9353269943
 21
142.6073496722
 31
0.0
  0
LINE
  5
19A
330
1F
100
AcDbEntity
  8
0
  6
HIDDEN
 62
     7
370
     0
100
AcDbLine
 10
195.4353303023
 20
142.6073496722
 30
0.0
 11
197.6853311368
 21
144.8573505066
 31
0.0
  0
LINE
  5
19B
330
1F
100
AcDbEntity
  8
0
  6
HIDDEN
 62
     7
370
     0
100
AcDbLine
 10
136.6853285887
 20
104.8573495381
 30
0.0
 11
145.0353283741
 21
104.8573495381
 31
0.0
  0
LINE
  5
19C
330
1F
100
AcDbEntity
  8
0
  6
HIDDEN
 62
     7
370
     0
100
AcDbLine
 10
145.0353283741
 20
121.8573504619
 30
0.0
 11
136.6853285887
 21
121.8573504619
 31
0.0
  0
LINE
  5
19D
330
1F
100
AcDbEntity
  8
0
  6
HIDDEN
 62
     7
370
     0
100
AcDbLine
 10
131.1853286185
 20
144.8573505066
 30
0.0
 11
131.1853286185
 21
139.7573498569
 31
0.0
  0
LINE
  5
19E
330
1F
100
AcDbEntity
  8
0
  6
HIDDEN
 62
     7
370
     0
100
AcDbLine
 10
180.9353269943
 20
142.6073496722
 30
0.0
 11
180.9353269943
 21
131.3509547643
 31
0.0
  0
LINE
  5
19F
330
1F
100
AcDbEntity
  8
0
  6
HIDDEN
 62
     7
370
     0
100
AcDbLine
 10
195.4353303023
 20
131.3565650515
 30
0.0
 11
195.4353303023
 21
142.6073496722
 31
0.0
  0
LINE
  5
1A0
330
1F
100
AcDbEntity
  8
0
  6
HIDDEN
 62
     7
370
     0
100
AcDbLine
 10
121.4197664828
 20
89.2779787563
 30
0.0
 11
120.985334304
 21
89.7570455007
 31
0.0
  0
LINE
  5
1A1
330
1F
100
AcDbEntity
  8
0
  6
HIDDEN
 62
     7
370
     0
100
AcDbLine
 10
113.4853307464
 20
90.1787334614
 30
0.0
 11
113.0028972708
 21
89.6996667169
 31
0.0
  0
LINE
  5
1A2
330
1F
100
AcDbEntity
  8
0
  6
HIDDEN
 62
     7
370
     0
100
AcDbLine
 10
113.0027752676
 20
137.0150276952
 30
0.0
 11
113.4853260898
 21
136.535906934
 31
0.0
  0
LINE
  5
1A3
330
1F
100
AcDbEntity
  8
0
  6
HIDDEN
 62
     7
370
     0
100
AcDbLine
 10
120.9853287161
 20
136.9576060705
 30
0.0
 11
121.4198707909
 21
137.436724969
 31
0.0
  0
LINE
  5
1A4
330
1F
100
AcDbEntity
  8
0
  6
HIDDEN
 62
     7
370
     0
100
AcDbLine
 10
148.0353288658
 20
109.1573501498
 30
0.0
 11
165.7353304633
 21
109.1573501498
 31
0.0
  0
LINE
  5
1A5
330
1F
100
AcDbEntity
  8
0
  6
HIDDEN
 62
     7
370
     0
100
AcDbLine
 10
165.7353304633
 20
117.5573498502
 30
0.0
 11
148.0353288658
 21
117.5573498502
 31
0.0
  0
LINE
  5
1A6
330
1F
100
AcDbEntity
  8
0
  6
HIDDEN
 62
     7
370
     0
100
AcDbLine
 10
120.9853287161
 20
89.7575279258
 30
0.0
 11
120.9853287161
 21
93.4219488435
 31
0.0
  0
LINE
  5
1A7
330
1F
100
AcDbEntity
  8
0
  6
HIDDEN
 62
     7
370
     0
100
AcDbLine
 10
113.4853288837
 20
93.3617276631
 30
0.0
 11
113.4853288837
 21
90.179055699
 31
0.0
  0
LINE
  5
1A8
330
1F
100
AcDbEntity
  8
0
  6
HIDDEN
 62
     7
370
     0
100
AcDbLine
 10
120.9853287161
 20
133.2927511565
 30
0.0
 11
120.9853287161
 21
136.9573136352
 31
0.0
  0
LINE
  5
1A9
330
1F
100
AcDbEntity
  8
0
  6
HIDDEN
 62
     7
370
     0
100
AcDbLine
 10
113.4853288837
 20
136.5357635103
 30
0.0
 11
113.4853288837
 21
133.3529723369
 31
0.0
  0
LINE
  5
1AA
330
1F
100
AcDbEntity
  8
0
  6
HIDDEN
 62
     7
370
     0
100
AcDbLine
 10
197.7353319832
 20
100.6073502384
 30
0.0
 11
195.1816678353
 21
96.3573490761
 31
0.0
  0
LINE
  5
1AB
330
1F
100
AcDbEntity
  8
0
  6
HIDDEN
 62
     7
370
     0
100
AcDbLine
 10
195.1816678353
 20
96.3573490761
 30
0.0
 11
197.7353319832
 21
92.1073497765
 31
0.0
  0
LINE
  5
1AC
330
1F
100
AcDbEntity
  8
0
  6
HIDDEN
 62
     7
370
     0
100
AcDbLine
 10
206.2353268572
 20
100.6073502384
 30
0.0
 11
197.7353319832
 21
100.6073502384
 31
0.0
  0
LINE
  5
1AD
330
1F
100
AcDbEntity
  8
0
  6
HIDDEN
 62
     7
370
     0
100
AcDbLine
 10
197.7353319832
 20
92.1073497765
 30
0.0
 11
206.2353268572
 21
92.1073497765
 31
0.0
  0
DIMENSION
  5
1AE
330
1F
100
AcDbEntity
  8
VERMASSUNG
100
AcDbDimension
  2
_D
 10
86.863780359
 20
81.85735
 30
0.0
 11
86.863780359
 21
113.35735
 31
0.0
 70
   160
  1
HSK A %%c<>
 71
     2
 42
-1.0
  3
SLDDIMSTYLE0
100
AcDbAlignedDimension
 13
126.5353286453
 23
144.85735
 33
0.0
 14
126.5353286453
 24
81.85735
 34
0.0
 50
90.0
100
AcDbRotatedDimension
  0
DIMENSION
  5
1BB
330
1F
100
AcDbEntity
  8
VERMASSUNG
100
AcDbDimension
  2
_D_1
 10
152.1853286453
 20
152.3935327536
 30
0.0
 11
179.2103286453
 21
152.3935327536
 31
0.0
 70
   160
  1
<>
 71
     2
 42
-1.0
  3
SLDDIMSTYLE0
100
AcDbAlignedDimension
 13
206.2353286453
 23
144.25735
 33
0.0
 14
152.1853286453
 24
143.2037903238
 34
0.0
100
AcDbRotatedDimension
  0
DIMENSION
  5
1C5
330
1F
100
AcDbEntity
  8
VERMASSUNG
100
AcDbDimension
  2
_D_2
 10
126.2353286453
 20
158.3935327536
 30
0.0
 11
166.2353286453
 21
158.3935327536
 31
0.0
 70
   160
  1
<>
 71
     2
 42
-1.0
  3
SLDDIMSTYLE0
100
AcDbAlignedDimension
 13
206.2353286453
 23
144.25735
 33
0.0
 14
126.2353286453
 24
144.55735
 34
0.0
100
AcDbRotatedDimension
  0
DIMENSION
  5
1CF
330
1F
100
AcDbEntity
  8
VERMASSUNG
100
AcDbDimension
  2
_D_3
 10
94.3353286453
 20
164.3935327536
 30
0.0
 11
150.2853286453
 21
164.3935327536
 31
0.0
 70
   160
  1
<>
 71
     2
 42
-1.0
  3
SLDDIMSTYLE0
100
AcDbAlignedDimension
 13
206.2353286453
 23
144.25735
 33
0.0
 14
94.3353286453
 24
133.0480277465
 34
0.0
100
AcDbRotatedDimension
  0
DIMENSION
  5
1D9
330
1F
100
AcDbEntity
  8
VERMASSUNG
100
AcDbDimension
  2
_D_4
 10
216.2353286453
 20
95.35735
 30
0.0
 11
216.2353286453
 21
113.35735
 31
0.0
 70
   160
  1
%%c<>
 71
     2
 42
-1.0
  3
SLDDIMSTYLE0
100
AcDbAlignedDimension
 13
205.2353286453
 23
131.35735
 33
0.0
 14
205.2353286453
 24
95.35735
 34
0.0
 50
90.0
100
AcDbRotatedDimension
  0
DIMENSION
  5
1E4
330
1F
100
AcDbEntity
  8
VERMASSUNG
100
AcDbDimension
  2
_D_5
 10
223.3186658748
 20
81.85735
 30
0.0
 11
223.3186658748
 21
113.35735
 31
0.0
 70
   160
  1
WH %%c<>
 71
     2
 42
-1.0
  3
SLDDIMSTYLE0
100
AcDbAlignedDimension
 13
205.6353286453
 23
144.85735
 33
0.0
 14
205.6353286453
 24
81.85735
 34
0.0
 50
90.0
100
AcDbRotatedDimension
  0
LINE
  5
1F0
330
1F
100
AcDbEntity
  8
VERMASSUNG
  6
CENTERX2
370
     0
100
AcDbLine
 10
91.0193184278
 20
113.35735
 30
0.0
 11
209.6817846799
 21
113.35735
 31
0.0
  0
LINE
  5
1F1
330
1F
100
AcDbEntity
  8
0
  6
Continuous
 62
     7
370
    15
100
AcDbLine
 10
268.3378337955
 20
34.593339303
 30
0.0
 11
271.285257413
 21
35.1938559402
 31
0.0
  0
SPLINE
  5
1F2
330
1F
100
AcDbEntity
  8
0
  6
Continuous
 62
     7
370
    15
100
AcDbSpline
210
0.0
220
0.0
230
1.0
 70
     8
 71
     3
 72
    12
 73
     8
 74
     0
 42
0.000000001
 43
0.00000001
 40
0.0
 40
0.0
 40
0.0
 40
0.0
 40
0.1292671219711077
 40
0.3612946677348623
 40
0.5947364646322386
 40
0.8295275986242955
 40
1.0
 40
1.0
 40
1.0
 40
1.0
 10
266.3846158094958
 20
35.48008376622394
 30
0.0
 10
266.4489803667515
 20
35.4095206289004
 30
0.0
 10
266.6288758496323
 20
35.21230044742735
 30
0.0
 10
266.9554643895131
 20
34.958371255616
 30
0.0
 10
267.3473280563032
 20
34.73168991035531
 30
0.0
 10
267.7105165472416
 20
34.59661392785868
 30
0.0
 10
267.9327460884278
 20
34.58459532607142
 30
0.0
 10
268.0262260100997
 20
34.57953975178692
 30
0.0
  0
LINE
  5
1F3
330
1F
100
AcDbEntity
  8
0
  6
Continuous
 62
     7
370
    15
100
AcDbLine
 10
266.4330744778
 20
48.6627981837
 30
0.0
 11
266.2983127285
 21
48.740619962
 31
0.0
  0
LINE
  5
1F4
330
1F
100
AcDbEntity
  8
0
  6
Continuous
 62
     7
370
    15
100
AcDbLine
 10
261.3477604009
 20
48.7406203623
 30
0.0
 11
261.2129989819
 21
48.6627974441
 31
0.0
  0
LINE
  5
1F5
330
1F
100
AcDbEntity
  8
0
  6
Continuous
 62
     7
370
    15
100
AcDbLine
 10
269.9943544865
 20
18.7400551138
 30
0.0
 11
270.2064503662
 21
18.86253755
 31
0.0
  0
LINE
  5
1F6
330
1F
100
AcDbEntity
  8
0
  6
Continuous
 62
     7
370
    15
100
AcDbLine
 10
281.1294744292
 20
37.7838205266
 30
0.0
 11
281.1294764048
 21
38.0287421639
 31
0.0
  0
LINE
  5
1F7
330
1F
100
AcDbEntity
  8
0
  6
Continuous
 62
     7
370
    15
100
AcDbLine
 10
277.8669046666
 20
45.2397977401
 30
0.0
 11
264.9975607201
 21
52.669111863
 31
0.0
  0
LINE
  5
1F8
330
1F
100
AcDbEntity
  8
0
  6
Continuous
 62
     7
370
    15
100
AcDbLine
 10
249.2488402308
 20
25.3885727426
 30
0.0
 11
262.1181841773
 21
17.9592586197
 31
0.0
  0
SPLINE
  5
1F9
330
1F
100
AcDbEntity
  8
0
  6
Continuous
 62
     7
370
    15
100
AcDbSpline
210
0.0
220
0.0
230
1.0
 70
     8
 71
     3
 72
    30
 73
    26
 74
     0
 42
0.000000001
 43
0.00000001
 40
0.0
 40
0.0
 40
0.0
 40
0.0
 40
0.0374099505300129
 40
0.0846163021858934
 40
0.1310322024266192
 40
0.1765601583645777
 40
0.2214449623660057
 40
0.2659666999743261
 40
0.3103281620767793
 40
0.354650586360064
 40
0.3989813094990374
 40
0.4433578067579163
 40
0.4877923293771539
 40
0.5322832297236323
 40
0.5768215882188249
 40
0.6213950325447007
 40
0.6659894924192341
 40
0.710590271994006
 40
0.755179339260895
 40
0.7997395172701762
 40
0.8442556451464072
 40
0.8887131857849088
 40
0.9330993117551758
 40
0.9774053955480002
 40
1.0
 40
1.0
 40
1.0
 40
1.0
 10
265.2495112877721
 20
23.95840930089731
 30
0.0
 10
265.1361947484468
 20
24.03428167811387
 30
0.0
 10
264.8798878996441
 20
24.20589484271746
 30
0.0
 10
264.5423553475433
 20
24.57444116285558
 30
0.0
 10
264.2310564098283
 20
25.04162637677281
 30
0.0
 10
263.9828811576635
 20
25.58410344100253
 30
0.0
 10
263.7979964596028
 20
26.19173445853369
 30
0.0
 10
263.6783275559004
 20
26.85935874652594
 30
0.0
 10
263.6251217171338
 20
27.58047806398706
 30
0.0
 10
263.6395436242005
 20
28.34788377611871
 30
0.0
 10
263.7221200648735
 20
29.15336762954536
 30
0.0
 10
263.8725746707231
 20
29.98800916016455
 30
0.0
 10
264.089816673608
 20
30.84245415938746
 30
0.0
 10
264.3718467434271
 20
31.70698150555283
 30
0.0
 10
264.715828355613
 20
32.57166099545676
 30
0.0
 10
265.118075763637
 20
33.42655692117342
 30
0.0
 10
265.5741572675914
 20
34.26183863738298
 30
0.0
 10
266.0788992378558
 20
35.06792089064961
 30
0.0
 10
266.6264914097516
 20
35.8355538991464
 30
0.0
 10
267.2105080082548
 20
36.5560275567762
 30
0.0
 10
267.8240293472305
 20
37.22111014258901
 30
0.0
 10
268.4597419231079
 20
37.82376843429152
 30
0.0
 10
269.1097868030593
 20
38.35604649038133
 30
0.0
 10
269.6597804101059
 20
38.74241080858966
 30
0.0
 10
269.9896825307571
 20
38.93891620121178
 30
0.0
 10
270.1011015328564
 20
39.00528265775306
 30
0.0
  0
SPLINE
  5
1FA
330
1F
100
AcDbEntity
  8
0
  6
Continuous
 62
     7
370
    15
100
AcDbSpline
210
0.0
220
0.0
230
1.0
 70
     8
 71
     3
 72
    15
 73
    11
 74
     0
 42
0.000000001
 43
0.00000001
 40
0.0
 40
0.0
 40
0.0
 40
0.0
 40
0.0718501698160428
 40
0.2088842103004069
 40
0.345860554467506
 40
0.482976540777611
 40
0.620678451630475
 40
0.7596668791098986
 40
0.9008341187901959
 40
1.0
 40
1.0
 40
1.0
 40
1.0
 10
270.1011015328564
 20
39.00528265775306
 30
0.0
 10
270.2150196920272
 20
39.06890218784426
 30
0.0
 10
270.5462047786901
 20
39.25385812235083
 30
0.0
 10
271.0884303404629
 20
39.49780582390092
 30
0.0
 10
271.715528684505
 20
39.70706943578863
 30
0.0
 10
272.3175532479414
 20
39.82954353690142
 30
0.0
 10
272.8891745886095
 20
39.8680256219959
 30
0.0
 10
273.4240920722935
 20
39.81930416602443
 30
0.0
 10
273.8748614941562
 20
39.71081997994635
 30
0.0
 10
274.1261235492751
 20
39.58263167426222
 30
0.0
 10
274.2297989104495
 20
39.52973881352425
 30
0.0
  0
SPLINE
  5
1FB
330
1F
100
AcDbEntity
  8
0
  6
Continuous
 62
     7
370
    15
100
AcDbSpline
210
0.0
220
0.0
230
1.0
 70
     8
 71
     3
 72
    16
 73
    12
 74
     0
 42
0.000000001
 43
0.00000001
 40
0.0
 40
0.0
 40
0.0
 40
0.0
 40
0.0053708394991026
 40
0.1283155062121217
 40
0.2518594934365206
 40
0.3761696574327434
 40
0.5012516913256934
 40
0.6269907058399664
 40
0.7532136016480475
 40
0.8797443344247137
 40
1.0
 40
1.0
 40
1.0
 40
1.0
 10
263.6425494186389
 20
53.22901447849706
 30
0.0
 10
263.6321091841608
 20
53.23255730558633
 30
0.0
 10
263.3826800265289
 20
53.31719950192426
 30
0.0
 10
262.8565729210233
 20
53.39910813844838
 30
0.0
 10
262.0669166476993
 20
53.46659410823916
 30
0.0
 10
261.2409532335585
 20
53.43147233202924
 30
0.0
 10
260.3893665541901
 20
53.30667118200771
 30
0.0
 10
259.5159440470126
 20
53.08947577613773
 30
0.0
 10
258.627074809371
 20
52.78012045133614
 30
0.0
 10
257.7437261036872
 20
52.39434565714237
 30
0.0
 10
257.1584285116432
 20
52.07145465127301
 30
0.0
 10
256.8732209314812
 20
51.91411424240769
 30
0.0
  0
SPLINE
  5
1FC
330
1F
100
AcDbEntity
  8
0
  6
Continuous
 62
     7
370
    15
100
AcDbSpline
210
0.0
220
0.0
230
1.0
 70
     8
 71
     3
 72
    35
 73
    31
 74
     0
 42
0.000000001
 43
0.00000001
 40
0.0
 40
0.0
 40
0.0
 40
0.0
 40
0.0194377320274979
 40
0.0562608959821801
 40
0.0930716492984773
 40
0.129863361666914
 40
0.166634281469216
 40
0.2033853053499319
 40
0.2401189973313922
 40
0.2768387430768913
 40
0.3135484878695242
 40
0.3502524283229259
 40
0.3869549039439906
 40
0.4236598413425541
 40
0.4603707105562531
 40
0.4970919986973921
 40
0.533828114792606
 40
0.5705834390504665
 40
0.6073619547537586
 40
0.6441670431236919
 40
0.6810007665716191
 40
0.7178629976902987
 40
0.7547498774150693
 40
0.7916517058958377
 40
0.8285418198705838
 40
0.8653861141583058
 40
0.902137147633144
 40
0.9387378168689559
 40
0.9751322995688377
 40
1.0
 40
1.0
 40
1.0
 40
1.0
 10
256.8732209314812
 20
51.91411424240769
 30
0.0
 10
256.7148014069735
 20
51.82030735869358
 30
0.0
 10
256.2562692913302
 20
51.54879114890192
 30
0.0
 10
255.5014261909552
 20
51.03762178244337
 30
0.0
 10
254.6166784092495
 20
50.35880666191989
 30
0.0
 10
253.748565388851
 20
49.60703968936646
 30
0.0
 10
252.9023952765066
 20
48.78871773350201
 30
0.0
 10
252.0833458797611
 20
47.90875911580624
 30
0.0
 10
251.2964173042494
 20
46.97290847134394
 30
0.0
 10
250.5464353184799
 20
45.98708235345494
 30
0.0
 10
249.8380100170445
 20
44.95751684696104
 30
0.0
 10
249.1755223347564
 20
43.89068268982659
 30
0.0
 10
248.563091828592
 20
42.79327087205925
 30
0.0
 10
248.0045620533431
 20
41.67215020559609
 30
0.0
 10
247.5034639826121
 20
40.53432026292372
 30
0.0
 10
247.0629923582889
 20
39.38686163188606
 30
0.0
 10
246.686001505365
 20
38.23688099804309
 30
0.0
 10
246.3749915415969
 20
37.09148008009802
 30
0.0
 10
246.1320946011945
 20
35.95772086322941
 30
0.0
 10
245.9590838906105
 20
34.84258114909135
 30
0.0
 10
245.857372028309
 20
33.75293293564624
 30
0.0
 10
245.8280000915534
 20
32.69552706541091
 30
0.0
 10
245.8716435905671
 20
31.67697697480203
 30
0.0
 10
245.9885929078806
 20
30.70388840997779
 30
0.0
 10
246.1785919580097
 20
29.78270109018294
 30
0.0
 10
246.4410946344011
 20
28.92013757619559
 30
0.0
 10
246.7738279019227
 20
28.12143155747897
 30
0.0
 10
247.177504087159
 20
27.39646084953858
 30
0.0
 10
247.5902048637396
 20
26.80463091472913
 30
0.0
 10
247.8946388573415
 20
26.49062641246063
 30
0.0
 10
248.0182154745469
 20
26.36316491015428
 30
0.0
  0
LINE
  5
1FD
330
1F
100
AcDbEntity
  8
0
  6
Continuous
 62
     7
370
    15
100
AcDbLine
 10
259.0649143474
 20
52.918614998
 30
0.0
 11
257.9481394243
 21
53.5633154383
 31
0.0
  0
LINE
  5
1FE
330
1F
100
AcDbEntity
  8
0
  6
Continuous
 62
     7
370
    15
100
AcDbLine
 10
244.9491965527
 20
31.0460449204
 30
0.0
 11
246.0648789506
 21
30.4019751815
 31
0.0
  0
LINE
  5
1FF
330
1F
100
AcDbEntity
  8
0
  6
Continuous
 62
     7
370
    15
100
AcDbLine
 10
234.1521099412
 20
34.1037296314
 30
0.0
 11
239.2107756996
 21
31.1834240496
 31
0.0
  0
LINE
  5
200
330
1F
100
AcDbEntity
  8
0
  6
Continuous
 62
     7
370
    15
100
AcDbLine
 10
252.0941310037
 20
60.118103282
 30
0.0
 11
249.9008304305
 21
61.3842687519
 31
0.0
  0
LINE
  5
201
330
1F
100
AcDbEntity
  8
0
  6
Continuous
 62
     7
370
    15
100
AcDbLine
 10
230.8465689559
 20
41.5215301655
 30
0.0
 11
230.845604376
 21
41.3760159125
 31
0.0
  0
LINE
  5
202
330
1F
100
AcDbEntity
  8
0
  6
Continuous
 62
     7
370
    15
100
AcDbLine
 10
230.8466494836
 20
41.3193877599
 30
0.0
 11
230.8516949892
 21
41.0458673762
 31
0.0
  0
LINE
  5
203
330
1F
100
AcDbEntity
  8
0
  6
Continuous
 62
     7
370
    15
100
AcDbLine
 10
230.845604376
 20
41.3760159125
 30
0.0
 11
230.8466494836
 21
41.3193877599
 31
0.0
  0
SPLINE
  5
204
330
1F
100
AcDbEntity
  8
0
  6
Continuous
 62
     7
370
    15
100
AcDbSpline
210
0.0
220
0.0
230
1.0
 70
     8
 71
     3
 72
     9
 73
     5
 74
     0
 42
0.000000001
 43
0.00000001
 40
0.0
 40
0.0
 40
0.0
 40
0.0
 40
0.3212413876497203
 40
1.0
 40
1.0
 40
1.0
 40
1.0
 10
245.6475299906108
 20
28.24735771628947
 30
0.0
 10
245.7600056303952
 20
28.23849062634684
 30
0.0
 10
246.1101337399992
 20
28.2108880499556
 30
0.0
 10
246.4792731951586
 20
28.24466597501117
 30
0.0
 10
246.7298297795064
 20
28.26759303254995
 30
0.0
  0
LINE
  5
205
330
1F
100
AcDbEntity
  8
0
  6
Continuous
 62
     7
370
    15
100
AcDbLine
 10
241.6092339811
 20
29.7988235557
 30
0.0
 11
243.0086226213
 21
28.9909736893
 31
0.0
  0
LINE
  5
206
330
1F
100
AcDbEntity
  8
0
  6
Continuous
 62
     7
370
    15
100
AcDbLine
 10
247.0495677084
 20
58.8187412711
 30
0.0
 11
236.5341541449
 21
64.0578106276
 31
0.0
  0
LINE
  5
207
330
1F
100
AcDbEntity
  8
0
  6
Continuous
 62
     7
370
    15
100
AcDbLine
 10
225.152456315
 20
44.3419952472
 30
0.0
 11
230.9110131542
 21
40.5289180506
 31
0.0
  0
SPLINE
  5
208
330
1F
100
AcDbEntity
  8
0
  6
Continuous
 62
     7
370
    15
100
AcDbSpline
210
0.0
220
0.0
230
1.0
 70
     8
 71
     3
 72
     9
 73
     5
 74
     0
 42
0.000000001
 43
0.00000001
 40
0.0
 40
0.0
 40
0.0
 40
0.0
 40
0.8434200675269334
 40
1.0
 40
1.0
 40
1.0
 40
1.0
 10
259.5549511452445
 20
55.70557034255005
 30
0.0
 10
259.5377748915802
 20
55.72260490621903
 30
0.0
 10
259.5174098868507
 20
55.74280191637425
 30
0.0
 10
259.4952881982981
 20
55.76046662659724
 30
0.0
 10
259.4918243857983
 20
55.76323256573112
 30
0.0
  0
SPLINE
  5
209
330
1F
100
AcDbEntity
  8
0
  6
Continuous
 62
     7
370
    15
100
AcDbSpline
210
0.0
220
0.0
230
1.0
 70
     8
 71
     3
 72
    11
 73
     7
 74
     0
 42
0.000000001
 43
0.00000001
 40
0.0
 40
0.0
 40
0.0
 40
0.0
 40
0.2253888574502345
 40
0.5132245361531949
 40
0.7999421495536457
 40
1.0
 40
1.0
 40
1.0
 40
1.0
 10
261.237753634095
 20
53.41654898991386
 30
0.0
 10
261.1454742089243
 20
53.61449330620568
 30
0.0
 10
260.935348181775
 20
54.06522490430815
 30
0.0
 10
260.5265908074824
 20
54.68218036365202
 30
0.0
 10
260.0867957199629
 20
55.22772088584502
 30
0.0
 10
259.7673694482162
 20
55.51266765011054
 30
0.0
 10
259.6360897555285
 20
55.6297767515022
 30
0.0
  0
SPLINE
  5
20A
330
1F
100
AcDbEntity
  8
0
  6
Continuous
 62
     7
370
    15
100
AcDbSpline
210
0.0
220
0.0
230
1.0
 70
     8
 71
     3
 72
    27
 73
    23
 74
     0
 42
0.000000001
 43
0.00000001
 40
0.0
 40
0.0
 40
0.0
 40
0.0
 40
0.040457626812213
 40
0.0909753720187736
 40
0.1418115449660935
 40
0.1931741593204938
 40
0.2451245078403771
 40
0.2975929681261838
 40
0.3504362392241766
 40
0.4035004301421022
 40
0.4566612724597915
 40
0.5098241304537009
 40
0.5629465188307347
 40
0.6160147887116897
 40
0.6690288510469203
 40
0.7219961518859915
 40
0.7749280380278848
 40
0.8278379104809916
 40
0.8807401135544476
 40
0.9336489147365796
 40
0.9865749188925993
 40
1.0
 40
1.0
 40
1.0
 40
1.0
 10
236.4519592291901
 20
64.08887242955736
 30
0.0
 10
236.2936625367761
 20
64.16036667541792
 30
0.0
 10
235.9377073902089
 20
64.32113279362243
 30
0.0
 10
235.3338520194847
 20
64.46354671462603
 30
0.0
 10
234.657260574813
 20
64.53464714279966
 30
0.0
 10
233.9483695620615
 20
64.51103110934194
 30
0.0
 10
233.2137676936308
 20
64.39562593244368
 30
0.0
 10
232.4589784343696
 20
64.18765572720606
 30
0.0
 10
231.6911504762326
 20
63.88876902404196
 30
0.0
 10
230.9177379809842
 20
63.50168096000429
 30
0.0
 10
230.1462769729854
 20
63.03040490306535
 30
0.0
 10
229.3839423212236
 20
62.4798373818346
 30
0.0
 10
228.6374798119633
 20
61.85548646013974
 30
0.0
 10
227.9131838533103
 20
61.16328294638286
 30
0.0
 10
227.2170515796793
 20
60.40954212849691
 30
0.0
 10
226.554854217761
 20
59.60098486400509
 30
0.0
 10
225.9319536450055
 20
58.74470693373294
 30
0.0
 10
225.3540078514855
 20
57.84809577378328
 30
0.0
 10
224.8241768799363
 20
56.91897358722537
 30
0.0
 10
224.3534020504596
 20
55.96486846645077
 30
0.0
 10
224.0292974390196
 20
55.2368585359082
 30
0.0
 10
223.8837004143469
 20
54.82855156065003
 30
0.0
 10
223.8542411845926
 20
54.74593717329228
 30
0.0
  0
LINE
  5
20B
330
1F
100
AcDbEntity
  8
0
  6
Continuous
 62
     7
370
    15
100
AcDbLine
 10
223.9682701418
 20
52.8981356653
 30
0.0
 11
226.5218304721
 21
51.4239966645
 31
0.0
  0
LINE
  5
20C
330
1F
100
AcDbEntity
  8
0
  6
Continuous
 62
     7
370
    15
100
AcDbLine
 10
223.6699777971
 20
54.0264453387
 30
0.0
 11
223.6699777971
 21
53.5610393693
 31
0.0
  0
LINE
  5
20D
330
1F
100
AcDbEntity
  8
0
  6
Continuous
 62
     7
370
    15
100
AcDbLine
 10
223.6699777971
 20
46.5550966738
 30
0.0
 11
223.6699777971
 21
46.0896907045
 31
0.0
  0
SPLINE
  5
20E
330
1F
100
AcDbEntity
  8
0
  6
Continuous
 62
     7
370
    15
100
AcDbSpline
210
0.0
220
0.0
230
1.0
 70
     8
 71
     3
 72
    11
 73
     7
 74
     0
 42
0.000000001
 43
0.00000001
 40
0.0
 40
0.0
 40
0.0
 40
0.0
 40
0.2420102551945139
 40
0.5845853843863225
 40
0.9229491701292472
 40
1.0
 40
1.0
 40
1.0
 40
1.0
 10
223.7862049758393
 20
45.80279945163222
 30
0.0
 10
223.8724797137102
 20
45.66090441876432
 30
0.0
 10
224.0808797699827
 20
45.31815133061555
 30
0.0
 10
224.4933578194046
 20
44.86702484534183
 30
0.0
 10
224.8594378644907
 20
44.52837965641367
 30
0.0
 10
225.090811046361
 20
44.39075521649492
 30
0.0
 10
225.1337259920631
 20
44.36522872583312
 30
0.0
  0
LINE
  5
20F
330
1F
100
AcDbEntity
  8
0
  6
Continuous
 62
     7
370
    15
100
AcDbLine
 10
268.3378337955
 20
34.593339303
 30
0.0
 11
268.0649224147
 21
34.5723752998
 31
0.0
  0
LWPOLYLINE
  5
210
330
1F
100
AcDbEntity
  8
0
  6
Continuous
 62
     7
370
    15
100
AcDbPolyline
 90
       36
 70
   128
 43
0.0
 10
262.6773001538
 20
45.4029568057
 10
263.2862287661
 20
45.3155368892
 10
263.9124107506
 20
45.2922893248
 10
264.5357197523
 20
45.3339615738
 10
265.1361228474
 20
45.4392139181
 10
265.6943214302
 20
45.6046640121
 10
266.192374536
 20
45.8249942864
 10
266.6142770122
 20
46.0931214852
 10
266.9464669682
 20
46.4004287843
 10
267.1782674734
 20
46.7370390255
 10
267.3022279403
 20
47.0921334479
 10
267.3143634338
 20
47.4542996911
 10
267.2142855774
 20
47.8118962951
 10
267.0052092207
 20
48.1534306363
 10
266.6938549749
 20
48.4679254109
 10
266.2902310703
 20
48.7452717179
 10
265.8073095167
 20
48.9765560995
 10
265.2606118786
 20
49.1543445284
 10
264.6677092762
 20
49.2729229595
 10
264.047658835
 20
49.328479907
 10
263.4203882764
 20
49.3192301893
 10
262.8060598461
 20
49.2454704812
 10
262.2244162968
 20
49.1095728038
 10
261.6941553741
 20
48.9159032273
 10
261.2323178945
 20
48.6706875941
 10
260.8537474
 20
48.3818075517
 10
260.5706135562
 20
48.0585467064
 10
260.3920149686
 20
47.7112959443
 10
260.3236908936
 20
47.3512166899
 10
260.3678397174
 20
46.9898806422
 10
260.5230425236
 20
46.6389017463
 10
260.7843080387
 20
46.3095622022
 10
261.1432413019
 20
46.0124460278
 10
261.58830626
 20
45.7571025147
 10
262.1051971857
 20
45.5517390504
 10
262.6773001538
 20
45.4029568057
  0
LWPOLYLINE
  5
211
330
1F
100
AcDbEntity
  8
0
  6
Continuous
 62
     7
370
    15
100
AcDbPolyline
 90
       29
 70
   128
 43
0.0
 10
263.0537572864
 20
46.0302588769
 10
263.5671553744
 20
45.9635783079
 10
264.0933866839
 20
45.9645189902
 10
264.6060614431
 20
46.0330349707
 10
265.0794692512
 20
46.165692082
 10
265.4898787164
 20
46.3558342665
 10
265.8167030778
 20
46.5939310505
 10
266.0435569259
 20
46.868041591
 10
266.1590643978
 20
47.1644211391
 10
266.1574331008
 20
47.4682081979
 10
266.0387469168
 20
47.7641683713
 10
265.8089565365
 20
48.0374614045
 10
265.4795818788
 20
48.2743848426
 10
265.0671423682
 20
48.4630563881
 10
264.5923174546
 20
48.5940165646
 10
264.0789180495
 20
48.660697894
 10
263.55268674
 20
48.6597572117
 10
263.0400132979
 20
48.5912404708
 10
262.5666028556
 20
48.4585848802
 10
262.1561960246
 20
48.268441175
 10
261.8293716631
 20
48.030344391
 10
261.602516498
 20
47.7562346109
 10
261.4870090261
 20
47.4598550627
 10
261.488639006
 20
47.1560687643
 10
261.6073265071
 20
46.8601078305
 10
261.8371182045
 20
46.586814037
 10
262.1664915451
 20
46.3498913592
 10
262.5789310557
 20
46.1612198138
 10
263.0537572864
 20
46.0302588769
  0
SPLINE
  5
212
330
1F
100
AcDbEntity
  8
0
  6
Continuous
 62
     7
370
    15
100
AcDbSpline
210
0.0
220
0.0
230
1.0
 70
     8
 71
     3
 72
    12
 73
     8
 74
     0
 42
0.000000001
 43
0.00000001
 40
0.0
 40
0.0
 40
0.0
 40
0.0
 40
0.1664004994532695
 40
0.437161546173611
 40
0.577059447076632
 40
0.8585174695571843
 40
0.9999999999999999
 40
0.9999999999999999
 40
0.9999999999999999
 40
0.9999999999999999
 10
265.2411319305943
 20
46.21259385220118
 30
0.0
 10
265.2854904327831
 20
46.23929820881074
 30
0.0
 10
265.4020275313288
 20
46.30945495631668
 30
0.0
 10
265.5529671248138
 20
46.42332405157997
 30
0.0
 10
265.7294438542826
 20
46.57221988180552
 30
0.0
 10
265.8693907083577
 20
46.70325969886805
 30
0.0
 10
265.9711536925162
 20
46.8076439263081
 30
0.0
 10
266.0051955558577
 20
46.8425626507824
 30
0.0
  0
SPLINE
  5
213
330
1F
100
AcDbEntity
  8
0
  6
Continuous
 62
     7
370
    15
100
AcDbSpline
210
0.0
220
0.0
230
1.0
 70
     8
 71
     3
 72
    12
 73
     8
 74
     0
 42
0.000000001
 43
0.00000001
 40
0.0
 40
0.0
 40
0.0
 40
0.0
 40
0.2161879334291764
 40
0.4397661239322838
 40
0.5934211976517658
 40
0.7522118762341405
 40
1.0
 40
1.0
 40
1.0
 40
1.0
 10
266.0051955558577
 20
46.8425626507824
 30
0.0
 10
265.975316027508
 20
46.87303489346414
 30
0.0
 10
265.9145355567444
 20
46.93502105448206
 30
0.0
 10
265.8251809264544
 20
47.12411069189368
 30
0.0
 10
265.7434875095047
 20
47.37661878163512
 30
0.0
 10
265.6595828954268
 20
47.70167739943574
 30
0.0
 10
265.6031905365522
 20
47.98131291675672
 30
0.0
 10
265.5688223975357
 20
48.15173586988431
 30
0.0
  0
SPLINE
  5
214
330
1F
100
AcDbEntity
  8
0
  6
Continuous
 62
     7
370
    15
100
AcDbSpline
210
0.0
220
0.0
230
1.0
 70
     8
 71
     3
 72
    11
 73
     7
 74
     0
 42
0.000000001
 43
0.00000001
 40
0.0
 40
0.0
 40
0.0
 40
0.0
 40
0.1845135368776274
 40
0.5180566351293451
 40
0.8676121813468578
 40
1.0
 40
1.0
 40
1.0
 40
1.0
 10
265.5688223975357
 20
48.15173586988431
 30
0.0
 10
265.442093306642
 20
48.12623460312543
 30
0.0
 10
265.0862774271549
 20
48.05463497595336
 30
0.0
 10
264.4230463302094
 20
48.08124233016077
 30
0.0
 10
263.8067732864798
 20
48.33232711372342
 30
0.0
 10
263.4771973406081
 20
48.53302830620724
 30
0.0
 10
263.3866642121642
 20
48.58816008103964
 30
0.0
  0
SPLINE
  5
215
330
1F
100
AcDbEntity
  8
0
  6
Continuous
 62
     7
370
    15
100
AcDbSpline
210
0.0
220
0.0
230
1.0
 70
     8
 71
     3
 72
    18
 73
    14
 74
     0
 42
0.000000001
 43
0.00000001
 40
0.0
 40
0.0
 40
0.0
 40
0.0
 40
0.0538561854032353
 40
0.161893296431142
 40
0.2715966267522395
 40
0.3834269070352623
 40
0.4398759245888965
 40
0.5548578905770948
 40
0.6329781376022922
 40
0.752190382176624
 40
0.8137854137637135
 40
0.9377073287690513
 40
1.0
 40
1.0
 40
1.0
 40
1.0
 10
263.3866642121642
 20
48.58816008103964
 30
0.0
 10
263.3572526221424
 20
48.55793320618985
 30
0.0
 10
263.2688405070574
 20
48.46707032064379
 30
0.0
 10
263.1163064882554
 20
48.32208637753514
 30
0.0
 10
262.9253766175167
 20
48.16021700931428
 30
0.0
 10
262.7593865032663
 20
48.04056846228856
 30
0.0
 10
262.5881036278476
 20
47.93528156072909
 30
0.0
 10
262.4358536850273
 20
47.85863561865651
 30
0.0
 10
262.2470286148251
 20
47.78732764963355
 30
0.0
 10
262.0930919366444
 20
47.74813970246566
 30
0.0
 10
261.9166358285839
 20
47.72085279198983
 30
0.0
 10
261.7766811405784
 20
47.71187733026657
 30
0.0
 10
261.674920309911
 20
47.7145252789221
 30
0.0
 10
261.6408791851147
 20
47.71541107309306
 30
0.0
  0
SPLINE
  5
216
330
1F
100
AcDbEntity
  8
0
  6
Continuous
 62
     7
370
    15
100
AcDbSpline
210
0.0
220
0.0
230
1.0
 70
     8
 71
     3
 72
    12
 73
     8
 74
     0
 42
0.000000001
 43
0.00000001
 40
0.0
 40
0.0
 40
0.0
 40
0.0
 40
0.2161868704750369
 40
0.4397658129002626
 40
0.5934209719263464
 40
0.7522117386665205
 40
0.9999999999999999
 40
0.9999999999999999
 40
0.9999999999999999
 40
0.9999999999999999
 10
261.6408791851147
 20
47.71541107309306
 30
0.0
 10
261.6707575321977
 20
47.56660324097102
 30
0.0
 10
261.731535855896
 20
47.26389939445492
 30
0.0
 10
261.8208927590136
 20
46.91683458780076
 30
0.0
 10
261.9025858325567
 20
46.67915460836487
 30
0.0
 10
261.986490563153
 20
46.50076601963789
 30
0.0
 10
262.0428829004696
 20
46.44203316242091
 30
0.0
 10
262.0772510263477
 20
46.40623861433046
 30
0.0
  0
LINE
  5
217
330
1F
100
AcDbEntity
  8
0
  6
Continuous
 62
     7
370
    15
100
AcDbLine
 10
262.0772510263
 20
46.4062386143
 30
0.0
 11
262.2506723017
 21
46.3041339526
 31
0.0
  0
LINE
  5
218
330
1F
100
AcDbEntity
  8
0
  6
Continuous
 62
     7
370
    15
100
AcDbLine
 10
265.5688223975
 20
46.4395734424
 30
0.0
 11
265.5688223975
 21
48.1517358699
 31
0.0
  0
LINE
  5
219
330
1F
100
AcDbEntity
  8
0
  6
Continuous
 62
     7
370
    15
100
AcDbLine
 10
263.3866642122
 20
45.9791061987
 30
0.0
 11
263.3866642122
 21
48.588160081
 31
0.0
  0
LWPOLYLINE
  5
21A
330
1F
100
AcDbEntity
  8
0
  6
Continuous
 62
     7
370
    15
100
AcDbPolyline
 90
       75
 70
   128
 43
0.0
 10
270.2046747789
 20
44.0926233376
 10
269.2781870322
 20
43.5123258023
 10
268.3583746219
 20
42.8453137681
 10
267.4518648929
 20
42.0963933566
 10
266.5651893721
 20
41.2709602471
 10
265.7047361058
 20
40.3749622761
 10
264.8767052905
 20
39.4148548113
 10
264.0870623517
 20
38.3975546537
 10
263.3414971139
 20
37.330392892
 10
262.6453813247
 20
36.2210576824
 10
262.0037304589
 20
35.07754254
 10
261.4211668406
 20
33.9080847454
 10
260.9018893496
 20
32.721112115
 10
260.4496385185
 20
31.5251757028
 10
260.0676728257
 20
30.3288927686
 10
259.7587443287
 20
29.1408825208
 10
259.5250795664
 20
27.9697049011
 10
259.36836112
 20
26.8237976576
 10
259.2897183934
 20
25.7114170776
 10
259.2897183934
 20
24.6405783867
 10
259.36836112
 20
23.6189967661
 10
259.5250795664
 20
22.6540327893
 10
259.7587443287
 20
21.7526387617
 10
260.0676728257
 20
20.9213097644
 10
260.4496385185
 20
20.166035032
 10
260.9018893496
 20
19.4922563149
 10
261.4211668406
 20
18.904828714
 10
262.0037304589
 20
18.4079845561
 10
262.6453813247
 20
18.0053037342
 10
263.3414971139
 20
17.6996867072
 10
264.0870623517
 20
17.4933362462
 10
264.8767052905
 20
17.3877384196
 10
265.7047361058
 20
17.3836549846
 10
266.5651893721
 20
17.4811152085
 10
267.4518648929
 20
17.6794158645
 10
268.3583746219
 20
17.9771293079
 10
269.2781870322
 20
18.3721100775
 10
270.2046747789
 20
18.8615125253
 10
271.1311625256
 20
19.4418100607
 10
272.0509749359
 20
20.1088220948
 10
272.9574846649
 20
20.8577425063
 10
273.8441601857
 20
21.6831756158
 10
274.704613452
 20
22.5791735869
 10
275.5326442673
 20
23.5392810516
 10
276.3222872061
 20
24.5565812093
 10
277.0678524439
 20
25.6237429709
 10
277.7639682331
 20
26.7330781806
 10
278.4056190989
 20
27.8765933229
 10
278.9881827171
 20
29.0460511175
 10
279.5074602082
 20
30.233023748
 10
279.9597110393
 20
31.4289601602
 10
280.3416767321
 20
32.6252430943
 10
280.6506052291
 20
33.8132533421
 10
280.8842699914
 20
34.9844309618
 10
281.0409884378
 20
36.1303382053
 10
281.1196311644
 20
37.2427187853
 10
281.1196311644
 20
38.3135574762
 10
281.0409884378
 20
39.3351390968
 10
280.8842699914
 20
40.3001030736
 10
280.6506052291
 20
41.2014971012
 10
280.3416767321
 20
42.0328260985
 10
279.9597110393
 20
42.7881008309
 10
279.5074602082
 20
43.461879548
 10
278.9881827171
 20
44.049307149
 10
278.4056190989
 20
44.5461513068
 10
277.7639682331
 20
44.9488321287
 10
277.0678524439
 20
45.2544491557
 10
276.3222872061
 20
45.4607996167
 10
275.5326442673
 20
45.5663974433
 10
274.704613452
 20
45.5704808783
 10
273.8441601857
 20
45.4730206544
 10
272.9574846649
 20
45.2747199984
 10
272.0509749359
 20
44.977006555
 10
271.1311625256
 20
44.5820257854
 10
270.2046747789
 20
44.0926233376
  0
LWPOLYLINE
  5
21B
330
1F
100
AcDbEntity
  8
0
  6
Continuous
 62
     7
370
    15
100
AcDbPolyline
 90
       39
 70
   128
 43
0.0
 10
269.992544422
 20
44.4600461739
 10
269.0480666387
 20
43.8684803141
 10
268.1103937605
 20
43.1885165637
 10
267.1862817954
 20
42.4250543313
 10
266.282389287
 20
41.5835930401
 10
265.4052284172
 20
40.6701970556
 10
264.5611192378
 20
39.6914464506
 10
263.7561437365
 20
38.6543937575
 10
262.9961010562
 20
37.5665099801
 10
262.2864686409
 20
36.4356347866
 10
261.6323581131
 20
35.2699145365
 10
261.0384833343
 20
34.0777496209
 10
260.5091222098
 20
32.8677283064
 10
260.0480903462
 20
31.6485704628
 10
259.6587074667
 20
30.4290583647
 10
259.3437809462
 20
29.2179804182
 10
259.1055781537
 20
28.024060821
 10
258.9458172317
 20
26.8559032892
 10
258.8656473404
 20
25.7219230923
 10
258.8656473404
 20
24.6302913497
 10
258.9458172317
 20
23.5888733391
 10
259.1055781537
 20
22.6051718415
 10
259.3437809462
 20
21.6862753346
 10
259.6587074667
 20
20.838803809
 10
260.0480903462
 20
20.0688636142
 10
260.5091222098
 20
19.3820018301
 10
261.0384833343
 20
18.7831678605
 10
261.6323581131
 20
18.2766761695
 10
262.2864686409
 20
17.8661758594
 10
262.9961010562
 20
17.5546248129
 10
263.7561437365
 20
17.3442676354
 10
264.5611192378
 20
17.2366198732
 10
265.4052284172
 20
17.2324569821
 10
266.282389287
 20
17.3318093809
 10
267.1862817954
 20
17.533960166
 10
268.1103937605
 20
17.8374548977
 10
269.0480666387
 20
18.2401052084
 10
269.992544422
 20
18.7390101858
 10
269.9943544865
 20
18.7400551138
  0
LWPOLYLINE
  5
21C
330
1F
100
AcDbEntity
  8
0
  6
Continuous
 62
     7
370
    15
100
AcDbPolyline
 90
       20
 70
   128
 43
0.0
 10
281.1294764048
 20
38.0287421639
 10
281.1194415036
 20
38.56876501
 10
281.0392716123
 20
39.6101830206
 10
280.8795106903
 20
40.5938845182
 10
280.6413078977
 20
41.5127810251
 10
280.3263813773
 20
42.3602525507
 10
279.9369984977
 20
43.1301927455
 10
279.4759666342
 20
43.8170545297
 10
278.9466055096
 20
44.4158884993
 10
278.3527307309
 20
44.9223801902
 10
277.6986202031
 20
45.3328805003
 10
276.9889877878
 20
45.6444315468
 10
276.2289451075
 20
45.8547887243
 10
275.4239696062
 20
45.9624364865
 10
274.5798604267
 20
45.9665993776
 10
273.702699557
 20
45.8672469788
 10
272.7988070486
 20
45.6650961937
 10
271.8746950835
 20
45.361601462
 10
270.9370222053
 20
44.9589511513
 10
269.992544422
 20
44.4600461739
  0
SPLINE
  5
21D
330
1F
100
AcDbEntity
  8
0
  6
Continuous
 62
     7
370
    15
100
AcDbSpline
210
0.0
220
0.0
230
1.0
 70
    11
 71
     3
 72
    96
 73
    92
 74
     0
 42
0.000000001
 43
0.00000001
 40
0.0
 40
0.0
 40
0.0
 40
0.0
 40
0.0312500000000021
 40
0.0312500000000021
 40
0.0468750000000032
 40
0.0468750000000032
 40
0.0625000000000042
 40
0.0625000000000042
 40
0.0937500000000059
 40
0.0937500000000059
 40
0.1093750000000067
 40
0.1093750000000067
 40
0.1250000000000076
 40
0.1250000000000076
 40
0.1562500000000085
 40
0.1562500000000085
 40
0.1718750000000086
 40
0.1718750000000086
 40
0.1875000000000087
 40
0.1875000000000087
 40
0.2187500000000089
 40
0.2187500000000089
 40
0.2343750000000094
 40
0.2343750000000094
 40
0.2500000000000098
 40
0.2500000000000098
 40
0.28125000000001
 40
0.28125000000001
 40
0.2968750000000098
 40
0.2968750000000098
 40
0.3125000000000097
 40
0.3125000000000097
 40
0.343750000000009
 40
0.343750000000009
 40
0.3593750000000088
 40
0.3593750000000088
 40
0.3750000000000086
 40
0.3750000000000086
 40
0.3906250000000084
 40
0.3906250000000084
 40
0.4062500000000082
 40
0.4062500000000082
 40
0.4375000000000075
 40
0.4375000000000075
 40
0.4531250000000072
 40
0.4531250000000072
 40
0.4687500000000068
 40
0.4687500000000068
 40
0.5000000000000062
 40
0.5000000000000062
 40
0.5312500000000057
 40
0.5312500000000057
 40
0.5468750000000057
 40
0.5468750000000057
 40
0.5625000000000058
 40
0.5625000000000058
 40
0.5937500000000051
 40
0.5937500000000051
 40
0.6250000000000044
 40
0.6250000000000044
 40
0.6562500000000038
 40
0.6562500000000038
 40
0.6875000000000031
 40
0.6875000000000031
 40
0.7187500000000024
 40
0.7187500000000024
 40
0.7500000000000018
 40
0.7500000000000018
 40
0.7656250000000016
 40
0.7656250000000016
 40
0.7812500000000014
 40
0.7812500000000014
 40
0.8125000000000011
 40
0.8125000000000011
 40
0.828125000000001
 40
0.828125000000001
 40
0.843750000000001
 40
0.843750000000001
 40
0.8750000000000008
 40
0.8750000000000008
 40
0.8906250000000007
 40
0.8906250000000007
 40
0.9062500000000007
 40
0.9062500000000007
 40
0.9218750000000006
 40
0.9218750000000006
 40
0.9375000000000006
 40
0.9375000000000006
 40
0.9687500000000003
 40
0.9687500000000003
 40
1.0
 40
1.0
 40
1.0
 40
1.0
 10
263.7741695688471
 20
50.33264980295961
 30
0.0
 10
264.0659814087632
 20
50.28330506574488
 30
0.0
 10
264.3501209371943
 20
50.21976798247773
 30
0.0
 10
264.7662148065045
 20
50.10741285287794
 30
0.0
 10
264.9032104612788
 20
50.06708511040898
 30
0.0
 10
265.1738594469674
 20
49.98103865972025
 30
0.0
 10
265.3080958865741
 20
49.93510056688778
 30
0.0
 10
265.70121426002
 20
49.79114277001909
 30
0.0
 10
265.9492075671895
 20
49.68771450166481
 30
0.0
 10
266.3010937397783
 20
49.52306223874524
 30
0.0
 10
266.4150151883861
 20
49.46657266627146
 30
0.0
 10
266.6360130338289
 20
49.35043005084925
 30
0.0
 10
266.7434714106929
 20
49.29052824215913
 30
0.0
 10
267.0499208657619
 20
49.10915722103142
 30
0.0
 10
267.2346427578518
 20
48.98537702879111
 30
0.0
 10
267.4827964499939
 20
48.79492337503333
 30
0.0
 10
267.5606635276756
 20
48.73062821703296
 30
0.0
 10
267.7063966148537
 20
48.60016249545799
 30
0.0
 10
267.7744113365371
 20
48.53377694919658
 30
0.0
 10
267.9592572322075
 20
48.33512540472537
 30
0.0
 10
268.0584497040155
 20
48.20229172385849
 30
0.0
 10
268.1705555556665
 20
48.00027349751074
 30
0.0
 10
268.2017699996221
 20
47.93246578465042
 30
0.0
 10
268.2512242110451
 20
47.79543333633861
 30
0.0
 10
268.2694100331755
 20
47.72604142981275
 30
0.0
 10
268.3025138457322
 20
47.51964279975406
 30
0.0
 10
268.2969026165262
 20
47.38293023109036
 30
0.0
 10
268.2444000248012
 20
47.17652166700844
 30
0.0
 10
268.2194975836924
 20
47.10749618923385
 30
0.0
 10
268.153647578254
 20
46.96852499630295
 30
0.0
 10
268.1127369402662
 20
46.89892193267907
 30
0.0
 10
267.96845395366
 20
46.69398225239167
 30
0.0
 10
267.8429969517213
 20
46.56064066105468
 30
0.0
 10
267.6076515711034
 20
46.36426906639306
 30
0.0
 10
267.5204880416417
 20
46.29893467145116
 30
0.0
 10
267.3338648246815
 20
46.17268820197716
 30
0.0
 10
267.2344285010802
 20
46.11165582075451
 30
0.0
 10
267.0235777903775
 20
45.99364755256991
 30
0.0
 10
266.9121630219923
 20
45.93667182435686
 30
0.0
 10
266.6772355835657
 20
45.82688352712884
 30
0.0
 10
266.5529154174515
 20
45.77379571921435
 30
0.0
 10
266.1710175476153
 20
45.62495202832581
 30
0.0
 10
265.9027569341858
 20
45.53837071363389
 30
0.0
 10
265.4809811824657
 20
45.42792135043486
 30
0.0
 10
265.3374733838345
 20
45.39452133416171
 30
0.0
 10
265.0503950499091
 20
45.33581232508644
 30
0.0
 10
264.9060487461913
 20
45.31029232904402
 30
0.0
 10
264.4706194606064
 20
45.2452657131392
 30
0.0
 10
264.1745697111479
 20
45.2172308111932
 30
0.0
 10
263.5950718569519
 20
45.19512137202855
 30
0.0
 10
263.3101734988034
 20
45.20055054936942
 30
0.0
 10
262.8894345424015
 20
45.2346362001326
 30
0.0
 10
262.7500153650878
 20
45.25043385435718
 30
0.0
 10
262.4782370458939
 20
45.29039762304895
 30
0.0
 10
262.3452671266249
 20
45.31459187365479
 30
0.0
 10
261.954796317949
 20
45.39984720108657
 30
0.0
 10
261.7056606801195
 20
45.47350010936113
 30
0.0
 10
261.2299449170702
 20
45.65662283544727
 30
0.0
 10
261.0088822405462
 20
45.76409448114313
 30
0.0
 10
260.6022998737106
 20
46.0083744125955
 30
0.0
 10
260.4161374294465
 20
46.14544509942788
 30
0.0
 10
260.0800096343787
 20
46.45003964454251
 30
0.0
 10
259.9348794341538
 20
46.61315267506561
 30
0.0
 10
259.6893980412126
 20
46.95882784229332
 30
0.0
 10
259.5888671139264
 20
47.14176188002219
 30
0.0
 10
259.4371337925682
 20
47.52467481503158
 30
0.0
 10
259.3879568105486
 20
47.71926240305963
 30
0.0
 10
259.3547901452788
 20
48.01369811359313
 30
0.0
 10
259.3505495083261
 20
48.11227236776939
 30
0.0
 10
259.3564553179273
 20
48.30993897103208
 30
0.0
 10
259.3666960426208
 20
48.40953422981764
 30
0.0
 10
259.4203003771843
 20
48.70503538738305
 30
0.0
 10
259.4854116503199
 20
48.89455522206185
 30
0.0
 10
259.6289749714753
 20
49.16506014618278
 30
0.0
 10
259.6845361939374
 20
49.25292181927809
 30
0.0
 10
259.8121990345063
 20
49.42341756954647
 30
0.0
 10
259.8847145399671
 20
49.50627832952675
 30
0.0
 10
260.1214944683821
 20
49.73870926020131
 30
0.0
 10
260.3064160579559
 20
49.87488563211415
 30
0.0
 10
260.6255018433371
 20
50.04973857751311
 30
0.0
 10
260.7395592197472
 20
50.10327485022485
 30
0.0
 10
260.9754910884099
 20
50.19747231984451
 30
0.0
 10
261.0979571273734
 20
50.23854699754656
 30
0.0
 10
261.3515709302434
 20
50.30925035283333
 30
0.0
 10
261.4827195038732
 20
50.33887764165792
 30
0.0
 10
261.7536777637655
 20
50.38698547840258
 30
0.0
 10
261.8928793486149
 20
50.40528312776014
 30
0.0
 10
262.3133880325336
 20
50.44331230412854
 30
0.0
 10
262.6005407571726
 20
50.44690362898875
 30
0.0
 10
263.1880823568717
 20
50.41613941899054
 30
0.0
 10
263.482357728931
 20
50.38199454017435
 30
0.0
 10
263.7741695688471
 20
50.33264980295962
 30
0.0
  0
ARC
  5
21E
330
1F
100
AcDbEntity
  8
0
  6
Continuous
 62
     7
370
    15
100
AcDbCircle
 10
251.9571410471
 20
30.0578695323
 30
0.0
 40
5.397890867896407
100
AcDbArc
 50
224.1425360408
 51
239.8852689806
  0
ARC
  5
21F
330
1F
100
AcDbEntity
  8
0
  6
Continuous
 62
     7
370
    15
100
AcDbCircle
 10
262.3269430566
 20
48.0323712909
 30
0.0
 40
5.350846833719777
100
AcDbArc
 50
60.0594020013
 51
74.8922934039
  0
LWPOLYLINE
  5
220
330
1F
100
AcDbEntity
  8
0
  6
Continuous
 62
     7
370
    15
100
AcDbPolyline
 90
       28
 70
   128
 43
0.0
 10
265.6968691331
 20
21.5259001331
 10
265.656366341
 20
21.9026709004
 10
265.5370413689
 20
22.2123665409
 10
265.3453268795
 20
22.4382912487
 10
265.091558729
 20
22.5682648606
 10
264.7894171916
 20
22.5952808987
 10
264.4551913659
 20
22.5178830693
 10
264.1068983708
 20
22.3402427218
 10
263.7633159447
 20
22.0719380254
 10
263.4429663102
 20
21.7274327673
 10
263.1631191387
 20
21.3252988727
 10
262.9388616846
 20
20.8872161031
 10
262.7822835082
 20
20.4368010203
 10
262.7018251744
 20
19.9983363133
 10
262.7018251744
 20
19.5954590433
 10
262.7822835082
 20
19.2498895513
 10
262.9388616846
 20
18.9802557828
 10
263.1631191387
 20
18.8010951584
 10
263.4429663102
 20
18.7220659306
 10
263.7633159447
 20
18.7474288678
 10
264.1068983708
 20
18.8758152364
 10
264.4551913659
 20
19.1003058015
 10
264.7894171916
 20
19.4087972769
 10
265.091558729
 20
19.7846581285
 10
265.3453268795
 20
20.2076262104
 10
265.5370413689
 20
20.6548997561
 10
265.656366341
 20
21.1023650769
 10
265.6968691331
 20
21.5259001331
  0
LWPOLYLINE
  5
221
330
1F
100
AcDbEntity
  8
0
  6
Continuous
 62
     7
370
    15
100
AcDbPolyline
 90
        3
 70
   128
 43
0.0
 10
265.2322080308
 20
23.9593396243
 10
265.3511233883
 20
23.8869403837
 10
265.3514888805
 20
23.8867289407
  0
LINE
  5
222
330
1F
100
AcDbEntity
  8
0
  6
Continuous
 62
     7
370
    15
100
AcDbLine
 10
274.3507577315
 20
39.475608764
 30
0.0
 11
274.2206125438
 21
39.5465149388
 31
0.0
  0
LINE
  5
223
330
1F
100
AcDbEntity
  8
0
  6
Continuous
 62
     7
370
    15
100
AcDbLine
 10
244.8944030155
 20
31.0782138398
 30
0.0
 11
244.9491965527
 21
31.0460449204
 31
0.0
  0
SPLINE
  5
224
330
1F
100
AcDbEntity
  8
0
  6
Continuous
 62
     7
370
    15
100
AcDbSpline
210
0.0
220
0.0
230
1.0
 70
     8
 71
     3
 72
    10
 73
     6
 74
     0
 42
0.000000001
 43
0.00000001
 40
0.0
 40
0.0
 40
0.0
 40
0.0
 40
0.5
 40
0.5
 40
1.0
 40
1.0
 40
1.0
 40
1.0
 10
240.6439783476729
 20
40.14990326658899
 30
0.0
 10
240.5874496618903
 20
40.11726995090637
 30
0.0
 10
240.5088063393156
 20
40.0968969754474
 30
0.0
 10
240.3485764249845
 20
40.09383557548605
 30
0.0
 10
240.2674094124438
 20
40.11149477536629
 30
0.0
 10
240.2102955121059
 20
40.14446592822061
 30
0.0
  0
SPLINE
  5
225
330
1F
100
AcDbEntity
  8
0
  6
Continuous
 62
     7
370
    15
100
AcDbSpline
210
0.0
220
0.0
230
1.0
 70
     8
 71
     3
 72
    12
 73
     8
 74
     0
 42
0.000000001
 43
0.00000001
 40
0.0
 40
0.0
 40
0.0
 40
0.0
 40
0.2500000000000033
 40
0.2500000000000033
 40
0.5000000000000067
 40
0.5000000000000067
 40
1.0
 40
1.0
 40
1.0
 40
1.0
 10
257.9010174184507
 20
56.66842780647571
 30
0.0
 10
257.9329217467954
 20
56.65000982975995
 30
0.0
 10
257.9650590832364
 20
56.62009528912788
 30
0.0
 10
258.0197173896626
 20
56.54969786918498
 30
0.0
 10
258.042690728993
 20
56.50931717250915
 30
0.0
 10
258.0963725179306
 20
56.38679334247377
 30
0.0
 10
258.1131494528067
 20
56.30199202086809
 30
0.0
 10
258.1131494528067
 20
56.22843942523448
 30
0.0
  0
LINE
  5
226
330
1F
100
AcDbEntity
  8
0
  6
Continuous
 62
     7
370
    15
100
AcDbLine
 10
240.2102957853
 20
40.1444656382
 30
0.0
 11
238.8109071451
 21
40.9523155047
 31
0.0
  0
LWPOLYLINE
  5
227
330
1F
100
AcDbEntity
  8
0
  6
Continuous
 62
     7
370
    15
100
AcDbPolyline
 90
       24
 70
   128
 43
0.0
 10
238.8109071451
 20
40.9523155047
 10
239.120965046
 20
42.1684171456
 10
239.5064467079
 20
43.3937673032
 10
239.9645447556
 20
44.6194471518
 10
240.4919262954
 20
45.8365363942
 10
241.0847526713
 20
47.0361752375
 10
241.7387084412
 20
48.2096335923
 10
242.4490349623
 20
49.3483711464
 10
243.2105613434
 20
50.4440978187
 10
244.0177446152
 20
51.488839535
 10
244.86471089
 20
52.4749924078
 10
245.7452948741
 20
53.3953790064
 10
246.6530876124
 20
54.2433002541
 10
247.5814817631
 20
55.0125836182
 10
248.5237202481
 20
55.6976317278
 10
249.4729450504
 20
56.2934573882
 10
250.4222473475
 20
56.795723929
 10
251.3647177224
 20
57.2007764721
 10
252.2934966278
 20
57.5056665004
 10
253.2018241042
 20
57.7081752375
 10
254.0830890233
 20
57.8068276254
 10
254.9308768324
 20
57.8009069593
 10
255.7390176279
 20
57.6904552636
 10
256.5016292903
 20
57.4762776597
  0
LINE
  5
228
330
1F
100
AcDbEntity
  8
0
  6
Continuous
 62
     7
370
    15
100
AcDbLine
 10
256.5016292903
 20
57.4762776597
 30
0.0
 11
257.9010179305
 21
56.6684277933
 31
0.0
  0
LINE
  5
229
330
1F
100
AcDbEntity
  8
0
  6
Continuous
 62
     7
370
    15
100
AcDbLine
 10
241.7613050789
 20
40.7949222272
 30
0.0
 11
240.6439782954
 21
40.1499032048
 31
0.0
  0
LINE
  5
22A
330
1F
100
AcDbEntity
  8
0
  6
Continuous
 62
     7
370
    15
100
AcDbLine
 10
258.1131496045
 20
56.2284393066
 30
0.0
 11
258.1131496045
 21
54.6643755062
 31
0.0
  0
LINE
  5
22B
330
1F
100
AcDbEntity
  8
0
  6
Continuous
 62
     7
370
    15
100
AcDbLine
 10
259.4675952163
 20
55.4462803146
 30
0.0
 11
258.1131496045
 21
54.6643755062
 31
0.0
  0
LINE
  5
22C
330
1F
100
AcDbEntity
  8
0
  6
Continuous
 62
     7
370
    15
100
AcDbLine
 10
241.7613050789
 20
39.4314578911
 30
0.0
 11
241.7613050789
 21
40.7949222272
 31
0.0
  0
LWPOLYLINE
  5
22D
330
1F
100
AcDbEntity
  8
0
  6
Continuous
 62
     7
370
    15
100
AcDbPolyline
 90
       21
 70
   128
 43
0.0
 10
237.8871246169
 20
42.5832972972
 10
238.2180873546
 20
43.7835766869
 10
238.6274274255
 20
44.9900118936
 10
239.1117289592
 20
46.1925347094
 10
239.6669504681
 20
47.381108924
 10
240.2884571159
 20
48.5458143539
 10
240.9710628645
 20
49.6769301082
 10
241.7090693285
 20
50.7650159551
 10
242.4963177995
 20
51.8009910247
 10
243.326237979
 20
52.7762083296
 10
244.1919029665
 20
53.6825290954
 10
245.0860878703
 20
54.5123885349
 10
246.0013298994
 20
55.2588617179
 10
246.929990308
 20
55.9157175816
 10
247.8643184386
 20
56.4774733929
 10
248.7965163013
 20
56.9394426755
 10
249.7188037688
 20
57.2977682837
 10
250.6234834026
 20
57.5494598252
 10
251.5030044958
 20
57.6924169448
 10
252.3500264176
 20
57.7254461192
 10
253.0021906172
 20
57.6721287577
  0
SPLINE
  5
22E
330
1F
100
AcDbEntity
  8
0
  6
Continuous
 62
     7
370
    15
100
AcDbSpline
210
0.0
220
0.0
230
1.0
 70
     8
 71
     3
 72
     8
 73
     4
 74
     0
 42
0.000000001
 43
0.00000001
 40
0.0
 40
0.0
 40
0.0
 40
0.0
 40
1.0
 40
1.0
 40
1.0
 40
1.0
 10
237.8871246567149
 20
42.58329749806727
 30
0.0
 10
237.3958236276624
 20
42.50065027786338
 30
0.0
 10
236.9042435367597
 20
42.41856649037294
 30
0.0
 10
236.4124487380078
 20
42.3369162032912
 30
0.0
  0
LWPOLYLINE
  5
22F
330
1F
100
AcDbEntity
  8
0
  6
Continuous
 62
     7
370
    15
100
AcDbPolyline
 90
       24
 70
   128
 43
0.0
 10
236.4124488636
 20
42.3369159985
 10
236.7225067645
 20
43.5530176395
 10
237.1079884264
 20
44.7783677971
 10
237.5660864742
 20
46.0040476457
 10
238.0934680139
 20
47.2211368881
 10
238.6862943898
 20
48.4207757313
 10
239.3402501597
 20
49.5942340861
 10
240.0505766809
 20
50.7329716403
 10
240.8121030619
 20
51.8286983125
 10
241.6192863337
 20
52.8734400288
 10
242.4662526085
 20
53.8595929017
 10
243.3468365926
 20
54.7799795003
 10
244.2546293309
 20
55.6279007479
 10
245.1830234816
 20
56.397184112
 10
246.1252619666
 20
57.0822322216
 10
247.0744867689
 20
57.6780578821
 10
248.023789066
 20
58.1803244229
 10
248.966259441
 20
58.5853769659
 10
249.8950383463
 20
58.8902669943
 10
250.8033658227
 20
59.0927757313
 10
251.6846307419
 20
59.1914281192
 10
252.5324185509
 20
59.1855074532
 10
253.3405593464
 20
59.0750557574
 10
254.1031710088
 20
58.8608781535
  0
LINE
  5
230
330
1F
100
AcDbEntity
  8
0
  6
Continuous
 62
     7
370
    15
100
AcDbLine
 10
254.1031710088
 20
58.8608781535
 30
0.0
 11
254.4410553786
 21
57.7692176589
 31
0.0
  0
LINE
  5
231
330
1F
100
AcDbEntity
  8
0
  6
Continuous
 62
     7
370
    15
100
AcDbLine
 10
250.6885285022
 20
60.8321093138
 30
0.0
 11
254.1031710088
 21
58.8608781535
 31
0.0
  0
LINE
  5
232
330
1F
100
AcDbEntity
  8
0
  6
Continuous
 62
     7
370
    15
100
AcDbLine
 10
236.4124488636
 20
42.3369159985
 30
0.0
 11
235.826233616
 21
42.6753308576
 31
0.0
  0
SPLINE
  5
233
330
1F
100
AcDbEntity
  8
0
  6
Continuous
 62
     7
370
    15
100
AcDbSpline
210
0.0
220
0.0
230
1.0
 70
     8
 71
     3
 72
    28
 73
    24
 74
     0
 42
0.000000001
 43
0.00000001
 40
0.0
 40
0.0
 40
0.0
 40
0.0
 40
0.1249999999999999
 40
0.1249999999999999
 40
0.1874999999999998
 40
0.1874999999999998
 40
0.2499999999999997
 40
0.2499999999999997
 40
0.3749999999999993
 40
0.3749999999999993
 40
0.4374999999999993
 40
0.4374999999999993
 40
0.4999999999999992
 40
0.4999999999999992
 40
0.6249999999999992
 40
0.6249999999999992
 40
0.7499999999999992
 40
0.7499999999999992
 40
0.8124999999999993
 40
0.8124999999999993
 40
0.8749999999999996
 40
0.8749999999999996
 40
1.0
 40
1.0
 40
1.0
 40
1.0
 10
235.8262334687493
 20
42.67533107487101
 30
0.0
 10
235.638246388283
 20
42.78385370645508
 30
0.0
 10
235.4480264336823
 20
42.865797427003
 30
0.0
 10
235.1599278317343
 20
42.95095515704146
 30
0.0
 10
235.0634379611347
 20
42.97300508744525
 30
0.0
 10
234.8696997882998
 20
43.00427891090422
 30
0.0
 10
234.7724487677685
 20
43.01340616222765
 30
0.0
 10
234.4864268928831
 20
43.02118900433604
 30
0.0
 10
234.3010850765265
 20
43.00088246069898
 30
0.0
 10
234.0325724897107
 20
42.93366180756585
 30
0.0
 10
233.9442118300449
 20
42.90487544996026
 30
0.0
 10
233.7738591197553
 20
42.8358635598651
 30
0.0
 10
233.6918320899738
 20
42.79572366995497
 30
0.0
 10
233.4553958362212
 20
42.65910390219175
 30
0.0
 10
233.3105285860989
 20
42.54658941250269
 30
0.0
 10
233.0496717926147
 20
42.27833244750322
 30
0.0
 10
232.9373793851124
 20
42.12617906112594
 30
0.0
 10
232.7981549036586
 20
41.87426267342764
 30
0.0
 10
232.7565591172928
 20
41.78622038775126
 30
0.0
 10
232.6834344022316
 20
41.60187933269943
 30
0.0
 10
232.6518099181786
 20
41.50509057001765
 30
0.0
 10
232.5743166147564
 20
41.20707549112084
 30
0.0
 10
232.5451418993666
 20
40.99760261398431
 30
0.0
 10
232.5391750166248
 20
40.77722182130045
 30
0.0
  0
ARC
  5
234
330
1F
100
AcDbEntity
  8
0
  6
Continuous
 62
     7
370
    15
100
AcDbCircle
 10
247.3837248545
 20
40.3689513521
 30
0.0
 40
14.8501632463264
100
AcDbArc
 50
178.4245883564
 51
181.5754116436
  0
SPLINE
  5
235
330
1F
100
AcDbEntity
  8
0
  6
Continuous
 62
     7
370
    15
100
AcDbSpline
210
0.0
220
0.0
230
1.0
 70
     8
 71
     3
 72
    30
 73
    26
 74
     0
 42
0.000000001
 43
0.00000001
 40
0.0
 40
0.0
 40
0.0
 40
0.0
 40
0.1250000000000001
 40
0.1250000000000001
 40
0.1875000000000002
 40
0.1875000000000002
 40
0.2500000000000003
 40
0.2500000000000003
 40
0.3750000000000004
 40
0.3750000000000004
 40
0.4375000000000004
 40
0.4375000000000004
 40
0.5000000000000004
 40
0.5000000000000004
 40
0.6250000000000007
 40
0.6250000000000007
 40
0.6875000000000006
 40
0.6875000000000006
 40
0.7500000000000004
 40
0.7500000000000004
 40
0.8125000000000004
 40
0.8125000000000004
 40
0.8750000000000003
 40
0.8750000000000003
 40
1.0
 40
1.0
 40
1.0
 40
1.0
 10
232.5391750166248
 20
39.96068100941471
 30
0.0
 10
232.5451426153163
 20
39.74716381663999
 30
0.0
 10
232.5742878353157
 20
39.52961391862086
 30
0.0
 10
232.6507224965746
 20
39.19731488908527
 30
0.0
 10
232.681688480152
 20
39.08554058778569
 30
0.0
 10
232.7546584209676
 20
38.8598387142507
 30
0.0
 10
232.7967946195262
 20
38.74575094167818
 30
0.0
 10
232.9366864088906
 20
38.407588214317
 30
0.0
 10
233.0485303334329
 20
38.18507799504422
 30
0.0
 10
233.2423169305775
 20
37.85446773909466
 30
0.0
 10
233.3116575681807
 20
37.74424109938851
 30
0.0
 10
233.4571499526274
 20
37.52751109893497
 30
0.0
 10
233.5330372433465
 20
37.42131416330425
 30
0.0
 10
233.7694251918179
 20
37.10867599005464
 30
0.0
 10
233.9385706940688
 20
36.90813344221947
 30
0.0
 10
234.2084366914029
 20
36.61802860279713
 30
0.0
 10
234.3006281974537
 20
36.52368518642469
 30
0.0
 10
234.4862267924884
 20
36.34238015836429
 30
0.0
 10
234.5800556727752
 20
36.25496082487013
 30
0.0
 10
234.7695057232406
 20
36.08635327454549
 30
0.0
 10
234.8651271384463
 20
36.00516508877615
 30
0.0
 10
235.0579888278727
 20
35.84900240922801
 30
0.0
 10
235.1557237367711
 20
35.77367542953129
 30
0.0
 10
235.4469796918914
 20
35.56038519608746
 30
0.0
 10
235.6382370828646
 20
35.43499177138703
 30
0.0
 10
235.8262334687493
 20
35.32646376789926
 30
0.0
  0
LINE
  5
236
330
1F
100
AcDbEntity
  8
0
  6
Continuous
 62
     7
370
    15
100
AcDbLine
 10
235.826233616
 20
35.3264638669
 30
0.0
 11
236.4124488636
 21
34.9880490079
 31
0.0
  0
ARC
  5
237
330
1F
100
AcDbEntity
  8
0
  6
Continuous
 62
     7
370
    15
100
AcDbCircle
 10
242.2155827855
 20
36.3622689146
 30
0.0
 40
5.963626720988259
100
AcDbArc
 50
193.3226002597
 51
253.2995777736
  0
LINE
  5
238
330
1F
100
AcDbEntity
  8
0
  6
Continuous
 62
     7
370
    15
100
AcDbLine
 10
255.7325885872
 20
57.9199296211
 30
0.0
 11
256.0669006823
 21
57.6126009007
 31
0.0
  0
LINE
  5
239
330
1F
100
AcDbEntity
  8
0
  6
Continuous
 62
     7
370
    15
100
AcDbLine
 10
254.8796598504
 20
58.4123149001
 30
0.0
 11
255.7325885872
 21
57.9199296211
 31
0.0
  0
SPLINE
  5
23A
330
1F
100
AcDbEntity
  8
0
  6
Continuous
 62
     7
370
    15
100
AcDbSpline
210
0.0
220
0.0
230
1.0
 70
     8
 71
     3
 72
    20
 73
    16
 74
     0
 42
0.000000001
 43
0.00000001
 40
0.0
 40
0.0
 40
0.0
 40
0.0
 40
0.2499999999999995
 40
0.2499999999999995
 40
0.3749999999999996
 40
0.3749999999999996
 40
0.4999999999999997
 40
0.4999999999999997
 40
0.6249999999999998
 40
0.6249999999999998
 40
0.7499999999999998
 40
0.7499999999999998
 40
0.8749999999999999
 40
0.8749999999999999
 40
1.0
 40
1.0
 40
1.0
 40
1.0
 10
250.6885282503479
 20
60.83210917677145
 30
0.0
 10
251.0075169047459
 20
60.69821878751166
 30
0.0
 10
251.3339725048439
 20
60.53832244044967
 30
0.0
 10
251.846322622227
 20
60.26040351298015
 30
0.0
 10
252.0209259889048
 20
60.16140450016985
 30
0.0
 10
252.3807998512537
 20
59.95046379527115
 30
0.0
 10
252.5636602676072
 20
59.83990797806111
 30
0.0
 10
252.9299553567845
 20
59.61449010905027
 30
0.0
 10
253.1144388730431
 20
59.49900950767081
 30
0.0
 10
253.4880236972786
 20
59.26417716337505
 30
0.0
 10
253.6723731685178
 20
59.14784723809978
 30
0.0
 10
254.0330830749943
 20
58.92215255130041
 30
0.0
 10
254.2101370642481
 20
58.81234257720372
 30
0.0
 10
254.5578664156005
 20
58.60094781366782
 30
0.0
 10
254.7231168320587
 20
58.5026849785248
 30
0.0
 10
254.8796597468402
 20
58.41231467740743
 30
0.0
  0
LWPOLYLINE
  5
23B
330
1F
100
AcDbEntity
  8
0
  6
Continuous
 62
     7
370
    15
100
AcDbPolyline
 90
       29
 70
   128
 43
0.0
 10
230.8902691874
 20
41.4624897514
 10
230.9296593686
 20
42.4285947474
 10
231.0497331059
 20
43.5807018711
 10
231.2488940872
 20
44.762805447
 10
231.5257086614
 20
45.9663888056
 10
231.8781807798
 20
47.1827796252
 10
232.3037717536
 20
48.4032141894
 10
232.7994147408
 20
49.6188987931
 10
233.3615391132
 20
50.8210755202
 10
233.9860941635
 20
52.0010807972
 10
234.6685807156
 20
53.150414592
 10
235.4040807591
 20
54.2607944042
 10
236.187295645
 20
55.3242214218
 10
237.0125816468
 20
56.3330314691
 10
237.8739930953
 20
57.2799586908
 10
238.7653228795
 20
58.1581779446
 10
239.6801495316
 20
58.9613639224
 10
240.6118813506
 20
59.6837272685
 10
241.5538053806
 20
60.3200656681
 10
242.4991349911
 20
60.8657928362
 10
243.4410590211
 20
61.316976773
 10
244.3727908401
 20
61.670368087
 10
245.2876174922
 20
61.9234184791
 10
246.1789472764
 20
62.0743066889
 10
247.0403587249
 20
62.1219439559
 10
247.8656447267
 20
62.0659888442
 10
248.6488596126
 20
61.9068424855
 10
249.3843596561
 20
61.6456529481
 10
249.9008304305
 20
61.3842687519
  0
LWPOLYLINE
  5
23C
330
1F
100
AcDbEntity
  8
0
  6
Continuous
 62
     7
370
    15
100
AcDbPolyline
 90
       11
 70
   128
 43
0.0
 10
234.1521099412
 20
34.1037296314
 10
233.9860941635
 20
34.2036970296
 10
233.3615391132
 20
34.6626063944
 10
232.7994147408
 20
35.2157681359
 10
232.3037717536
 20
35.8591955274
 10
231.8781807798
 20
36.5882532126
 10
231.5257086614
 20
37.3976883865
 10
231.2488940872
 20
38.2816684407
 10
231.0497331059
 20
39.2338256421
 10
230.9296593686
 20
40.2472985797
 10
230.8932892726
 20
40.9832142185
  0
LINE
  5
23D
330
1F
100
AcDbEntity
  8
0
  6
Continuous
 62
     7
370
    15
100
AcDbLine
 10
239.0217395108
 20
41.809038631
 30
0.0
 11
238.5581116648
 21
42.0766852894
 31
0.0
  0
LINE
  5
23E
330
1F
100
AcDbEntity
  8
0
  6
Continuous
 62
     7
370
    15
100
AcDbLine
 10
238.1322934932
 20
42.7248302769
 30
0.0
 11
237.8871246169
 21
42.5832972972
 31
0.0
  0
SPLINE
  5
23F
330
1F
100
AcDbEntity
  8
0
  6
Continuous
 62
     7
370
    15
100
AcDbSpline
210
0.0
220
0.0
230
1.0
 70
     8
 71
     3
 72
    14
 73
    10
 74
     0
 42
0.000000001
 43
0.00000001
 40
0.0
 40
0.0
 40
0.0
 40
0.0
 40
0.1249999999999983
 40
0.1249999999999983
 40
0.2499999999999967
 40
0.2499999999999967
 40
0.4999999999999968
 40
0.4999999999999968
 40
1.0
 40
1.0
 40
1.0
 40
1.0
 10
238.5581114190927
 20
42.07668535724528
 30
0.0
 10
238.5339149859275
 20
42.09065366078783
 30
0.0
 10
238.5107395474686
 20
42.11801883678537
 30
0.0
 10
238.4738191550377
 20
42.1758206059109
 30
0.0
 10
238.4587773640051
 20
42.20679108502727
 30
0.0
 10
238.4189639074182
 20
42.29981755795647
 30
0.0
 10
238.3993278890341
 20
42.36242861224125
 30
0.0
 10
238.3489070405646
 20
42.54675936315623
 30
0.0
 10
238.3264898623241
 20
42.66830359805692
 30
0.0
 10
238.3098019641582
 20
42.78743266335928
 30
0.0
  0
SPLINE
  5
240
330
1F
100
AcDbEntity
  8
0
  6
Continuous
 62
     7
370
    15
100
AcDbSpline
210
0.0
220
0.0
230
1.0
 70
     8
 71
     3
 72
    10
 73
     6
 74
     0
 42
0.000000001
 43
0.00000001
 40
0.0
 40
0.0
 40
0.0
 40
0.0
 40
0.5
 40
0.5
 40
1.0
 40
1.0
 40
1.0
 40
1.0
 10
238.3098019641582
 20
42.78743266335928
 30
0.0
 10
238.2764119459704
 20
42.78128289415905
 30
0.0
 10
238.2441725945423
 20
42.77273628631097
 30
0.0
 10
238.18418470028
 20
42.75150031254208
 30
0.0
 10
238.156922827031
 20
42.7390486665339
 30
0.0
 10
238.1322932610811
 20
42.72483032075704
 30
0.0
  0
ARC
  5
241
330
1F
100
AcDbEntity
  8
0
  6
Continuous
 62
     7
370
    15
100
AcDbCircle
 10
255.3220757872
 20
40.0118170506
 30
0.0
 40
24.5473530876325
100
AcDbArc
 50
124.5860301577
 51
171.7644110378
  0
LINE
  5
242
330
1F
100
AcDbEntity
  8
0
  6
Continuous
 62
     7
370
    15
100
AcDbLine
 10
239.5913093874
 20
34.6987670846
 30
0.0
 11
241.7613050789
 21
33.4460552366
 31
0.0
  0
SPLINE
  5
243
330
1F
100
AcDbEntity
  8
0
  6
Continuous
 62
     7
370
    15
100
AcDbSpline
210
0.0
220
0.0
230
1.0
 70
     8
 71
     3
 72
    14
 73
    10
 74
     0
 42
0.000000001
 43
0.00000001
 40
0.0
 40
0.0
 40
0.0
 40
0.0
 40
0.1249999999999993
 40
0.1249999999999993
 40
0.2499999999999987
 40
0.2499999999999987
 40
0.4999999999999973
 40
0.4999999999999973
 40
1.0
 40
1.0
 40
1.0
 40
1.0
 10
239.3429999462097
 20
35.40951416618336
 30
0.0
 10
239.3672285241624
 20
35.39552730584997
 30
0.0
 10
239.3903143655283
 20
35.36822853603324
 30
0.0
 10
239.4270567395915
 20
35.31078932772581
 30
0.0
 10
239.4422150392753
 20
35.27963885272342
 30
0.0
 10
239.481777966163
 20
35.18733931251766
 30
0.0
 10
239.5013878394058
 20
35.12510153176212
 30
0.0
 10
239.5522106883607
 20
34.93964576556555
 30
0.0
 10
239.5746423724848
 20
34.81774694526785
 30
0.0
 10
239.5913094011443
 20
34.69876686006926
 30
0.0
  0
LINE
  5
244
330
1F
100
AcDbEntity
  8
0
  6
Continuous
 62
     7
370
    15
100
AcDbLine
 10
238.5581116648
 20
35.8626205691
 30
0.0
 11
239.3429999123
 21
35.4095142285
 31
0.0
  0
SPLINE
  5
245
330
1F
100
AcDbEntity
  8
0
  6
Continuous
 62
     7
370
    15
100
AcDbSpline
210
0.0
220
0.0
230
1.0
 70
     8
 71
     3
 72
    14
 73
    10
 74
     0
 42
0.000000001
 43
0.00000001
 40
0.0
 40
0.0
 40
0.0
 40
0.0
 40
0.5
 40
0.5
 40
0.75
 40
0.75
 40
0.875
 40
0.875
 40
1.0
 40
1.0
 40
1.0
 40
1.0
 10
238.3098019641581
 20
35.43856535638729
 30
0.0
 10
238.3264260456119
 20
35.5380451006174
 30
0.0
 10
238.3488434472162
 20
35.6338802340134
 30
0.0
 10
238.3992745050649
 20
35.76009618358704
 30
0.0
 10
238.4188091989961
 20
35.79992973228129
 30
0.0
 10
238.4587523563316
 20
35.84719006375315
 30
0.0
 10
238.4737693234972
 20
35.8607926773584
 30
0.0
 10
238.5108306910189
 20
35.87601307893411
 30
0.0
 10
238.5338143533673
 20
35.87664706572798
 30
0.0
 10
238.5581114190927
 20
35.86262066824495
 30
0.0
  0
LINE
  5
246
330
1F
100
AcDbEntity
  8
0
  6
Continuous
 62
     7
370
    15
100
AcDbLine
 10
237.1651112356
 20
36.0993814647
 30
0.0
 11
238.3098021897
 21
35.4385654427
 31
0.0
  0
ARC
  5
247
330
1F
100
AcDbEntity
  8
0
  6
Continuous
 62
     7
370
    15
100
AcDbCircle
 10
240.4515750836
 20
41.2628087496
 30
0.0
 40
6.12060666520251
100
AcDbArc
 50
182.4763014998
 51
237.5237020156
  0
LINE
  5
248
330
1F
100
AcDbEntity
  8
0
  6
Continuous
 62
     7
370
    15
100
AcDbLine
 10
234.3366839765
 20
41.8149016865
 30
0.0
 11
234.3366839765
 21
40.9983608359
 31
0.0
  0
ARC
  5
249
330
1F
100
AcDbEntity
  8
0
  6
Continuous
 62
     7
370
    15
100
AcDbCircle
 10
236.9137401055
 20
41.900863012
 30
0.0
 40
2.578489410776551
100
AcDbArc
 50
153.7630577172
 51
181.9104728192
  0
LINE
  5
24A
330
1F
100
AcDbEntity
  8
0
  6
Continuous
 62
     7
370
    15
100
AcDbLine
 10
241.7613050789
 20
34.8095195728
 30
0.0
 11
241.7613050789
 21
39.4314578911
 31
0.0
  0
LINE
  5
24B
330
1F
100
AcDbEntity
  8
0
  6
Continuous
 62
     7
370
    15
100
AcDbLine
 10
241.7613050789
 20
33.4460552366
 30
0.0
 11
241.7613050789
 21
34.8095195728
 31
0.0
  0
LINE
  5
24C
330
1F
100
AcDbEntity
  8
0
  6
Continuous
 62
     7
370
    15
100
AcDbLine
 10
240.6439782954
 20
32.8010362141
 30
0.0
 11
241.7613050789
 21
33.4460552366
 31
0.0
  0
ARC
  5
24D
330
1F
100
AcDbEntity
  8
0
  6
Continuous
 62
     7
370
    15
100
AcDbCircle
 10
245.7676668942
 20
33.7702094109
 30
0.0
 40
5.512207376505232
100
AcDbArc
 50
212.2132198848
 51
267.8236028906
  0
SPLINE
  5
24E
330
1F
100
AcDbEntity
  8
0
  6
Continuous
 62
     7
370
    15
100
AcDbSpline
210
0.0
220
0.0
230
1.0
 70
     8
 71
     3
 72
    12
 73
     8
 74
     0
 42
0.000000001
 43
0.00000001
 40
0.0
 40
0.0
 40
0.0
 40
0.0
 40
0.2500000000000001
 40
0.2500000000000001
 40
0.5000000000000002
 40
0.5000000000000002
 40
1.0
 40
1.0
 40
1.0
 40
1.0
 10
240.2102955121059
 20
32.79559862124886
 30
0.0
 10
240.2385377121783
 20
32.77929474618484
 30
0.0
 10
240.2730838440837
 20
32.76633895277484
 30
0.0
 10
240.3478079037814
 20
32.74962721458229
 30
0.0
 10
240.3880982950831
 20
32.74574030579484
 30
0.0
 10
240.5092113125193
 20
32.74800370368413
 30
0.0
 10
240.5873288749373
 20
32.76833291511089
 30
0.0
 10
240.6439783476728
 20
32.80103595961722
 30
0.0
  0
ARC
  5
24F
330
1F
100
AcDbEntity
  8
0
  6
Continuous
 62
     7
370
    15
100
AcDbCircle
 10
244.9672070171
 20
35.2000413798
 30
0.0
 40
6.359963592161641
100
AcDbArc
 50
194.5389472003
 51
238.1305085297
  0
LINE
  5
250
330
1F
100
AcDbEntity
  8
0
  6
Continuous
 62
     7
370
    15
100
AcDbLine
 10
238.8109071451
 20
33.603448514
 30
0.0
 11
240.2102957853
 21
32.7955986476
 31
0.0
  0
SPLINE
  5
251
330
1F
100
AcDbEntity
  8
0
  6
Continuous
 62
     7
370
    15
100
AcDbSpline
210
0.0
220
0.0
230
1.0
 70
     8
 71
     3
 72
     8
 73
     4
 74
     0
 42
0.000000001
 43
0.00000001
 40
0.0
 40
0.0
 40
0.0
 40
0.0
 40
1.0
 40
1.0
 40
1.0
 40
1.0
 10
239.2376986087812
 20
34.45476044430483
 30
0.0
 10
239.0945339120907
 20
34.17113839729782
 30
0.0
 10
238.9523452152382
 20
33.88735525131381
 30
0.0
 10
238.810907444483
 20
33.60344815712673
 30
0.0
  0
LINE
  5
252
330
1F
100
AcDbEntity
  8
0
  6
Continuous
 62
     7
370
    15
100
AcDbLine
 10
239.4828675218
 20
34.5962934953
 30
0.0
 11
239.2376986455
 21
34.4547605156
 31
0.0
  0
SPLINE
  5
253
330
1F
100
AcDbEntity
  8
0
  6
Continuous
 62
     7
370
    15
100
AcDbSpline
210
0.0
220
0.0
230
1.0
 70
     8
 71
     3
 72
    10
 73
     6
 74
     0
 42
0.000000001
 43
0.00000001
 40
0.0
 40
0.0
 40
0.0
 40
0.0
 40
0.5
 40
0.5
 40
1.0
 40
1.0
 40
1.0
 40
1.0
 10
239.5913094011443
 20
34.69876686006936
 30
0.0
 10
239.5806565341744
 20
34.6794912128632
 30
0.0
 10
239.5658517710222
 20
34.66087983143812
 30
0.0
 10
239.5290659996913
 20
34.62624955720654
 30
0.0
 10
239.5074967790973
 20
34.61051161277143
 30
0.0
 10
239.4828672131474
 20
34.59629326699455
 30
0.0
  0
SPLINE
  5
254
330
1F
100
AcDbEntity
  8
0
  6
Continuous
 62
     7
370
    15
100
AcDbSpline
210
0.0
220
0.0
230
1.0
 70
     8
 71
     3
 72
    14
 73
    10
 74
     0
 42
0.000000001
 43
0.00000001
 40
0.0
 40
0.0
 40
0.0
 40
0.0
 40
0.5000000000000019
 40
0.5000000000000019
 40
0.7500000000000018
 40
0.7500000000000018
 40
0.875000000000001
 40
0.875000000000001
 40
1.0
 40
1.0
 40
1.0
 40
1.0
 10
223.6700001444655
 20
46.09382620720604
 30
0.0
 10
223.9851660883054
 20
45.86673821631017
 30
0.0
 10
224.3014417435714
 20
45.63689184126203
 30
0.0
 10
224.7802662321425
 20
45.2815832392729
 30
0.0
 10
224.9405862425665
 20
45.16144492507736
 30
0.0
 10
225.1836387785202
 20
44.97517609083355
 30
0.0
 10
225.2650822165368
 20
44.91208284960653
 30
0.0
 10
225.4297436655702
 20
44.7817376071944
 30
0.0
 10
225.5126496836364
 20
44.71521316521715
 30
0.0
 10
225.5986685117211
 20
44.64141969389359
 30
0.0
  0
SPLINE
  5
255
330
1F
100
AcDbEntity
  8
0
  6
Continuous
 62
     7
370
    15
100
AcDbSpline
210
0.0
220
0.0
230
1.0
 70
     8
 71
     3
 72
     8
 73
     4
 74
     0
 42
0.000000001
 43
0.00000001
 40
0.0
 40
0.0
 40
0.0
 40
0.0
 40
1.0
 40
1.0
 40
1.0
 40
1.0
 10
225.5986685117211
 20
44.64141969389359
 30
0.0
 10
225.9003209849586
 20
44.38263933581177
 30
0.0
 10
226.205600528482
 20
44.13506432040711
 30
0.0
 10
226.5102601016086
 20
43.8940914638406
 30
0.0
  0
SPLINE
  5
256
330
1F
100
AcDbEntity
  8
0
  6
Continuous
 62
     7
370
    15
100
AcDbSpline
210
0.0
220
0.0
230
1.0
 70
     8
 71
     3
 72
    14
 73
    10
 74
     0
 42
0.000000001
 43
0.00000001
 40
0.0
 40
0.0
 40
0.0
 40
0.0
 40
0.1250000000000027
 40
0.1250000000000027
 40
0.2500000000000053
 40
0.2500000000000053
 40
0.5000000000000048
 40
0.5000000000000048
 40
1.0
 40
1.0
 40
1.0
 40
1.0
 10
226.5102601016087
 20
43.89409146384054
 30
0.0
 10
226.5294554775342
 20
43.87890873210434
 30
0.0
 10
226.5470675509346
 20
43.86754091360756
 30
0.0
 10
226.5729124808539
 20
43.85627244439511
 30
0.0
 10
226.5810508451015
 20
43.85588897415806
 30
0.0
 10
226.5980009360696
 20
43.86166476685245
 30
0.0
 10
226.6001702085794
 20
43.87433019247049
 30
0.0
 10
226.5989946607648
 20
43.91876701951425
 30
0.0
 10
226.5869211401606
 20
43.95925029028768
 30
0.0
 10
226.5721429121205
 20
44.00325396017018
 30
0.0
  0
SPLINE
  5
257
330
1F
100
AcDbEntity
  8
0
  6
Continuous
 62
     7
370
    15
100
AcDbSpline
210
0.0
220
0.0
230
1.0
 70
     8
 71
     3
 72
    14
 73
    10
 74
     0
 42
0.000000001
 43
0.00000001
 40
0.0
 40
0.0
 40
0.0
 40
0.0
 40
0.25
 40
0.25
 40
0.5
 40
0.5
 40
0.75
 40
0.75
 40
1.0
 40
1.0
 40
1.0
 40
1.0
 10
226.5721429121199
 20
44.00325396017089
 30
0.0
 10
226.5540866651733
 20
44.05701826315766
 30
0.0
 10
226.5511638670721
 20
44.10156887225471
 30
0.0
 10
226.5457501385288
 20
44.19383022209943
 30
0.0
 10
226.5441828604876
 20
44.24112462501967
 30
0.0
 10
226.5340444606805
 20
44.34588567984746
 30
0.0
 10
226.5257294629363
 20
44.40314688688247
 30
0.0
 10
226.4969292882774
 20
44.53276824425689
 30
0.0
 10
226.4762758916069
 20
44.60556244386994
 30
0.0
 10
226.4475863744458
 20
44.6852491428297
 30
0.0
  0
ARC
  5
258
330
1F
100
AcDbEntity
  8
0
  6
Continuous
 62
     7
370
    15
100
AcDbCircle
 10
236.8025567028
 20
47.7718106095
 30
0.0
 40
10.80519673566472
100
AcDbArc
 50
163.4019784234
 51
196.5980215766
  0
SPLINE
  5
259
330
1F
100
AcDbEntity
  8
0
  6
Continuous
 62
     7
370
    15
100
AcDbSpline
210
0.0
220
0.0
230
1.0
 70
     8
 71
     3
 72
    14
 73
    10
 74
     0
 42
0.000000001
 43
0.00000001
 40
0.0
 40
0.0
 40
0.0
 40
0.0
 40
0.25
 40
0.25
 40
0.5
 40
0.5
 40
0.75
 40
0.75
 40
1.0
 40
1.0
 40
1.0
 40
1.0
 10
226.5721429121199
 20
52.31957715509387
 30
0.0
 10
226.5540866651733
 20
52.19873507614932
 30
0.0
 10
226.5511638670721
 20
52.07364080958321
 30
0.0
 10
226.5457501385288
 20
51.82568949893185
 30
0.0
 10
226.5441828604876
 20
51.70178087461809
 30
0.0
 10
226.5340444606805
 20
51.45562513537789
 30
0.0
 10
226.5257294629363
 20
51.33333719351647
 30
0.0
 10
226.4969292882774
 20
51.0913400163077
 30
0.0
 10
226.4762758916069
 20
50.9711830491281
 30
0.0
 10
226.4475863744458
 20
50.85837213872282
 30
0.0
  0
SPLINE
  5
25A
330
1F
100
AcDbEntity
  8
0
  6
Continuous
 62
     7
370
    15
100
AcDbSpline
210
0.0
220
0.0
230
1.0
 70
     8
 71
     3
 72
    14
 73
    10
 74
     0
 42
0.000000001
 43
0.00000001
 40
0.0
 40
0.0
 40
0.0
 40
0.0
 40
0.1249999999999979
 40
0.1249999999999979
 40
0.2499999999999958
 40
0.2499999999999958
 40
0.4999999999999948
 40
0.4999999999999948
 40
1.0
 40
1.0
 40
1.0
 40
1.0
 10
226.5102601016088
 20
52.86486271938789
 30
0.0
 10
226.5294554775343
 20
52.86257591141406
 30
0.0
 10
226.5470675509347
 20
52.85107767214124
 30
0.0
 10
226.5729124808539
 20
52.81438616961471
 30
0.0
 10
226.5810508451016
 20
52.79130475451266
 30
0.0
 10
226.5980009360696
 20
52.71997223543556
 30
0.0
 10
226.6001702085794
 20
52.66872812982749
 30
0.0
 10
226.5989946607648
 20
52.51869265006589
 30
0.0
 10
226.5869211401606
 20
52.41848097518282
 30
0.0
 10
226.5721429121205
 20
52.31957715509421
 30
0.0
  0
SPLINE
  5
25B
330
1F
100
AcDbEntity
  8
0
  6
Continuous
 62
     7
370
    15
100
AcDbSpline
210
0.0
220
0.0
230
1.0
 70
     8
 71
     3
 72
     8
 73
     4
 74
     0
 42
0.000000001
 43
0.00000001
 40
0.0
 40
0.0
 40
0.0
 40
0.0
 40
1.0
 40
1.0
 40
1.0
 40
1.0
 10
225.5986685117211
 20
52.91707553052397
 30
0.0
 10
225.9003209849586
 20
52.92442177766708
 30
0.0
 10
226.2056005284821
 20
52.90115781169715
 30
0.0
 10
226.5102601016088
 20
52.86486271938789
 30
0.0
  0
SPLINE
  5
25C
330
1F
100
AcDbEntity
  8
0
  6
Continuous
 62
     7
370
    15
100
AcDbSpline
210
0.0
220
0.0
230
1.0
 70
     8
 71
     3
 72
    14
 73
    10
 74
     0
 42
0.000000001
 43
0.00000001
 40
0.0
 40
0.0
 40
0.0
 40
0.0
 40
0.5000000000000019
 40
0.5000000000000019
 40
0.7500000000000018
 40
0.7500000000000018
 40
0.875000000000001
 40
0.875000000000001
 40
1.0
 40
1.0
 40
1.0
 40
1.0
 10
223.6700001444655
 20
53.54971487550896
 30
0.0
 10
223.9851660883054
 20
53.41233038178284
 30
0.0
 10
224.3014417435714
 20
53.28075687415169
 30
0.0
 10
224.7802662321425
 20
53.10586140763092
 30
0.0
 10
224.9405862425665
 20
53.05119025736641
 30
0.0
 10
225.1836387785202
 20
52.98215844164636
 30
0.0
 10
225.2650822165368
 20
52.96129615713756
 30
0.0
 10
225.4297436655702
 20
52.92848844370793
 30
0.0
 10
225.5126496836364
 20
52.91498068421527
 30
0.0
 10
225.5986685117211
 20
52.91707553052397
 30
0.0
  0
SPLINE
  5
25D
330
1F
100
AcDbEntity
  8
0
  6
Continuous
 62
     7
370
    15
100
AcDbSpline
210
0.0
220
0.0
230
1.0
 70
     8
 71
     3
 72
     8
 73
     4
 74
     0
 42
0.000000001
 43
0.00000001
 40
0.0000005163856998
 40
0.0000005163856998
 40
0.0000005163856998
 40
0.0000005163856998
 40
0.000026289209185
 40
0.000026289209185
 40
0.000026289209185
 40
0.000026289209185
 10
223.6699785574463
 20
53.56259398670016
 30
0.0
 10
223.669976256287
 20
53.55830115167362
 30
0.0
 10
223.6699835026114
 20
53.55400808399809
 30
0.0
 10
223.6700001444655
 20
53.54971487550896
 30
0.0
  0
LINE
  5
25E
330
1F
100
AcDbEntity
  8
0
  6
Continuous
 62
     7
370
    15
100
AcDbLine
 10
236.4631129975
 20
64.0922921183
 30
0.0
 11
236.5341541449
 21
64.0578106276
 31
0.0
  0
SPLINE
  5
25F
330
1F
100
AcDbEntity
  8
0
  6
Continuous
 62
     7
370
    15
100
AcDbSpline
210
0.0
220
0.0
230
1.0
 70
     8
 71
     3
 72
     8
 73
     4
 74
     0
 42
0.000000001
 43
0.00000001
 40
0.0000005163857002
 40
0.0000005163857002
 40
0.0000005163857002
 40
0.0000005163857002
 40
0.0000262892091854
 40
0.0000262892091854
 40
0.0000262892091854
 40
0.0000262892091854
 10
223.6699785574463
 20
46.08912293484039
 30
0.0
 10
223.669976256287
 20
46.09069632053809
 30
0.0
 10
223.6699835026114
 20
46.09226405047026
 30
0.0
 10
223.6700001444655
 20
46.09382620720604
 30
0.0
  0
SPLINE
  5
260
330
1F
100
AcDbEntity
  8
0
  6
Continuous
 62
     7
370
    15
100
AcDbSpline
210
0.0
220
0.0
230
1.0
 70
     8
 71
     3
 72
    18
 73
    14
 74
     0
 42
0.000000001
 43
0.00000001
 40
0.0
 40
0.0
 40
0.0
 40
0.0
 40
0.1242357583211237
 40
0.2491499744071252
 40
0.3740413790506288
 40
0.4982221595375224
 40
0.6213435471939679
 40
0.683274856199236
 40
0.7444049005104979
 40
0.8054472957480368
 40
0.8677709497995792
 40
0.9913291080744381
 40
1.0
 40
1.0
 40
1.0
 40
1.0
 10
229.3588471272428
 20
44.21615183851313
 30
0.0
 10
229.2258002463038
 20
44.46108658972256
 30
0.0
 10
228.9589799086743
 20
44.95229369321608
 30
0.0
 10
228.83428460087
 20
45.70431478408839
 30
0.0
 10
228.9701108087548
 20
46.3290016821889
 30
0.0
 10
229.3371879523662
 20
46.74586739386978
 30
0.0
 10
229.7798239804365
 20
46.83984923908575
 30
0.0
 10
230.1560570247814
 20
46.75790851796638
 30
0.0
 10
230.4382573876384
 20
46.61562481486662
 30
0.0
 10
230.7107243078166
 20
46.39896897048079
 30
0.0
 10
231.0365396912046
 20
46.02101232699954
 30
0.0
 10
231.2861016791755
 20
45.65153272278297
 30
0.0
 10
231.374708931338
 20
45.37065001841428
 30
0.0
 10
231.3805193331079
 20
45.35223119464107
 30
0.0
  0
SPLINE
  5
261
330
1F
100
AcDbEntity
  8
0
  6
Continuous
 62
     7
370
    15
100
AcDbSpline
210
0.0
220
0.0
230
1.0
 70
     8
 71
     3
 72
    15
 73
    11
 74
     0
 42
0.000000001
 43
0.00000001
 40
0.0
 40
0.0
 40
0.0
 40
0.0
 40
0.1293249397630218
 40
0.3047284672233674
 40
0.4787217359101311
 40
0.5663241694017737
 40
0.652482549176792
 40
0.738705251413933
 40
0.8261726016438207
 40
1.0
 40
1.0
 40
1.0
 40
1.0
 10
231.6803396657049
 20
43.71115785281495
 30
0.0
 10
231.6656011243769
 20
43.55697239987907
 30
0.0
 10
231.6308726867205
 20
43.19366508400183
 30
0.0
 10
231.3804274701644
 20
42.89067225491256
 30
0.0
 10
231.0345746828001
 20
42.84216140174752
 30
0.0
 10
230.7011276763743
 20
42.94603797817648
 30
0.0
 10
230.4296786408014
 20
43.09171752877072
 30
0.0
 10
230.1477313371818
 20
43.30036287445694
 30
0.0
 10
229.7677178918005
 20
43.64914733744576
 30
0.0
 10
229.5221873335881
 20
43.98963862154773
 30
0.0
 10
229.3588471272428
 20
44.21615183851313
 30
0.0
  0
ARC
  5
262
330
1F
100
AcDbEntity
  8
0
  6
Continuous
 62
     7
370
    15
100
AcDbCircle
 10
244.1572836909
 20
37.2802149747
 30
0.0
 40
6.595462813317497
100
AcDbArc
 50
198.070115125
 51
217.3989136384
  0
SPLINE
  5
263
330
1F
100
AcDbEntity
  8
0
  6
Continuous
 62
     7
370
    15
100
AcDbSpline
210
0.0
220
0.0
230
1.0
 70
     8
 71
     3
 72
     8
 73
     4
 74
     0
 42
0.000000001
 43
0.00000001
 40
0.0
 40
0.0
 40
0.0
 40
0.0
 40
1.0
 40
1.0
 40
1.0
 40
1.0
 10
236.4124487380078
 20
34.98804889631945
 30
0.0
 10
236.9042435367597
 20
35.06969918340119
 30
0.0
 10
237.3958236276624
 20
35.15178297089163
 30
0.0
 10
237.8871246567149
 20
35.23443019109552
 30
0.0
  0
LINE
  5
264
330
1F
100
AcDbEntity
  8
0
  6
Continuous
 62
     7
370
    15
100
AcDbLine
 10
237.8871246169
 20
35.2344303066
 30
0.0
 11
238.1322934932
 21
35.3759632863
 31
0.0
  0
SPLINE
  5
265
330
1F
100
AcDbEntity
  8
0
  6
Continuous
 62
     7
370
    15
100
AcDbSpline
210
0.0
220
0.0
230
1.0
 70
     8
 71
     3
 72
    10
 73
     6
 74
     0
 42
0.000000001
 43
0.00000001
 40
0.0
 40
0.0
 40
0.0
 40
0.0
 40
0.5
 40
0.5
 40
1.0
 40
1.0
 40
1.0
 40
1.0
 10
238.1322932610811
 20
35.3759630137853
 30
0.0
 10
238.157125564433
 20
35.39029839737314
 30
0.0
 10
238.1848005619265
 20
35.40289383750923
 30
0.0
 10
238.244925571381
 20
35.4240917356495
 30
0.0
 10
238.2766199715757
 20
35.43245390131616
 30
0.0
 10
238.3098019641574
 20
35.4385653563874
 30
0.0
  0
SPLINE
  5
266
330
1F
100
AcDbEntity
  8
0
  6
Continuous
 62
     7
370
    15
100
AcDbSpline
210
0.0
220
0.0
230
1.0
 70
     8
 71
     3
 72
    12
 73
     8
 74
     0
 42
0.000000001
 43
0.00000001
 40
0.0
 40
0.0
 40
0.0
 40
0.0
 40
0.0827780149070827
 40
0.3401455090838688
 40
0.5966712206280217
 40
0.856724531794968
 40
1.0
 40
1.0
 40
1.0
 40
1.0
 10
230.3784511740727
 20
46.53814413377765
 30
0.0
 10
230.3646633766469
 20
46.49072821141832
 30
0.0
 10
230.3080075438172
 20
46.29589008842518
 30
0.0
 10
230.3860903226241
 20
45.86157604120863
 30
0.0
 10
230.6095543970342
 20
45.31345528907586
 30
0.0
 10
230.9139248669723
 20
44.85425100734933
 30
0.0
 10
231.1424373355654
 20
44.63810462070902
 30
0.0
 10
231.2236123783663
 20
44.56132241142821
 30
0.0
  0
LINE
  5
267
330
1F
100
AcDbEntity
  8
0
  6
Continuous
 62
     7
370
    15
100
AcDbLine
 10
258.0360386525
 20
56.5142806543
 30
0.0
 11
258.1310468686
 21
56.5353291272
 31
0.0
  0
LINE
  5
268
330
1F
100
AcDbEntity
  8
0
  6
Continuous
 62
     7
370
    15
100
AcDbLine
 10
258.1310468686
 20
56.5353291272
 30
0.0
 11
259.5304355088
 21
55.7274792608
 31
0.0
  0
SPLINE
  5
269
330
1F
100
AcDbEntity
  8
0
  6
Continuous
 62
     7
370
    15
100
AcDbSpline
210
0.0
220
0.0
230
1.0
 70
     8
 71
     3
 72
    12
 73
     8
 74
     0
 42
0.000000001
 43
0.00000001
 40
0.0
 40
0.0
 40
0.0
 40
0.0
 40
0.249999999999998
 40
0.249999999999998
 40
0.499999999999996
 40
0.499999999999996
 40
1.0
 40
1.0
 40
1.0
 40
1.0
 10
259.5304352747729
 20
55.72747911346371
 30
0.0
 10
259.5626792456455
 20
55.70886506529009
 30
0.0
 10
259.5847322481791
 20
55.68461474249268
 30
0.0
 10
259.6055811923441
 20
55.63402688460514
 30
0.0
 10
259.6052000231168
 20
55.60718831617108
 30
0.0
 10
259.5794470902195
 20
55.52995419990226
 30
0.0
 10
259.5314956631108
 20
55.48316882907444
 30
0.0
 10
259.4675956139756
 20
55.44628011590696
 30
0.0
  0
SPLINE
  5
26A
330
1F
100
AcDbEntity
  8
0
  6
Continuous
 62
     7
370
    15
100
AcDbSpline
210
0.0
220
0.0
230
1.0
 70
     8
 71
     3
 72
    16
 73
    12
 74
     0
 42
0.000000001
 43
0.00000001
 40
0.0
 40
0.0
 40
0.0
 40
0.0
 40
0.0986638485340435
 40
0.1896687086078871
 40
0.3483010824038891
 40
0.49023539194182
 40
0.5857256082399538
 40
0.6974101002970738
 40
0.7977632573697
 40
0.8894712087569955
 40
1.0
 40
1.0
 40
1.0
 40
1.0
 10
229.6501164240397
 20
44.39907499677443
 30
0.0
 10
229.7297016137564
 20
44.28459296211132
 30
0.0
 10
229.88269402569
 20
44.06451580116554
 30
0.0
 10
230.2070215369624
 20
43.71195244954508
 30
0.0
 10
230.5949053185657
 20
43.3997177113708
 30
0.0
 10
230.9481308714829
 20
43.22256170624373
 30
0.0
 10
231.2210000615253
 20
43.18111543855273
 30
0.0
 10
231.4207386731095
 20
43.23170699788098
 30
0.0
 10
231.5674372662027
 20
43.37340431365683
 30
0.0
 10
231.6773289013309
 20
43.58205538175122
 30
0.0
 10
231.6932766557531
 20
43.79790965212104
 30
0.0
 10
231.7019926091274
 20
43.91588085398237
 30
0.0
  0
SPLINE
  5
26B
330
1F
100
AcDbEntity
  8
0
  6
Continuous
 62
     7
370
    15
100
AcDbSpline
210
0.0
220
0.0
230
1.0
 70
     8
 71
     3
 72
    16
 73
    12
 74
     0
 42
0.000000001
 43
0.00000001
 40
0.0
 40
0.0
 40
0.0
 40
0.0
 40
0.1460145305939677
 40
0.2335492376916815
 40
0.3282846220575775
 40
0.4359414424092971
 40
0.5278790444189856
 40
0.6640995040190557
 40
0.8013222617507234
 40
0.8930413283347902
 40
1.0
 40
1.0
 40
1.0
 40
1.0
 10
230.5897237767624
 20
46.48104400415867
 30
0.0
 10
230.4428628902333
 20
46.55451479751122
 30
0.0
 10
230.2079599120429
 20
46.67203082629471
 30
0.0
 10
229.8911099526702
 20
46.66206124754751
 30
0.0
 10
229.6379801588791
 20
46.57432577153418
 30
0.0
 10
229.4292565012691
 20
46.39253325676801
 30
0.0
 10
229.2662261728838
 20
46.10066835378443
 30
0.0
 10
229.1891985410115
 20
45.69078473999373
 30
0.0
 10
229.2645968709953
 20
45.22621525544931
 30
0.0
 10
229.4233405696044
 20
44.78427124232314
 30
0.0
 10
229.5707553159737
 20
44.53387594789751
 30
0.0
 10
229.6501164240397
 20
44.39907499677443
 30
0.0
  0
LINE
  5
26C
330
1F
100
AcDbEntity
  8
0
  6
Continuous
 62
     7
370
    15
100
AcDbLine
 10
255.7325885872
 20
57.9199296211
 30
0.0
 11
255.5916077082
 21
57.7078571128
 31
0.0
  0
LINE
  5
26D
330
1F
100
AcDbEntity
  8
0
  6
Continuous
 62
     7
370
    15
100
AcDbLine
 10
225.5097555647
 20
48.2688074274
 30
0.0
 11
226.0101387553
 21
47.9799423601
 31
0.0
  0
SPLINE
  5
26E
330
1F
100
AcDbEntity
  8
0
  6
Continuous
 62
     7
370
    15
100
AcDbSpline
210
0.0
220
0.0
230
1.0
 70
     8
 71
     3
 72
     9
 73
     5
 74
     0
 42
0.000000001
 43
0.00000001
 40
0.0
 40
0.0
 40
0.0
 40
0.0
 40
0.7009339503679092
 40
0.9999999999999999
 40
0.9999999999999999
 40
0.9999999999999999
 40
0.9999999999999999
 10
223.6839448675507
 20
54.02618602074422
 30
0.0
 10
223.6808729790318
 20
54.08019000509823
 30
0.0
 10
223.676490414145
 20
54.15723575858992
 30
0.0
 10
223.7009007382215
 20
54.24686849900419
 30
0.0
 10
223.7082010374133
 20
54.27367460859758
 30
0.0
  0
SPLINE
  5
26F
330
1F
100
AcDbEntity
  8
0
  6
Continuous
 62
     7
370
    15
100
AcDbSpline
210
0.0
220
0.0
230
1.0
 70
     8
 71
     3
 72
    10
 73
     6
 74
     0
 42
0.000000001
 43
0.00000001
 40
0.0
 40
0.0
 40
0.0
 40
0.0
 40
0.5
 40
0.5
 40
1.0
 40
1.0
 40
1.0
 40
1.0
 10
223.7244374946644
 20
54.07853616582181
 30
0.0
 10
223.7045114441677
 20
53.9945756918038
 30
0.0
 10
223.6912171800267
 20
53.90912982929004
 30
0.0
 10
223.6739486538861
 20
53.73671635835274
 30
0.0
 10
223.670025199264
 20
53.64960475208644
 30
0.0
 10
223.6699785574463
 20
53.56259398670016
 30
0.0
  0
SPLINE
  5
270
330
1F
100
AcDbEntity
  8
0
  6
Continuous
 62
     7
370
    15
100
AcDbSpline
210
0.0
220
0.0
230
1.0
 70
     8
 71
     3
 72
    24
 73
    20
 74
     0
 42
0.000000001
 43
0.00000001
 40
0.0
 40
0.0
 40
0.0
 40
0.0
 40
0.2500000000000114
 40
0.2500000000000114
 40
0.3750000000000163
 40
0.3750000000000163
 40
0.4375000000000177
 40
0.4375000000000177
 40
0.4687500000000166
 40
0.4687500000000166
 40
0.5000000000000155
 40
0.5000000000000155
 40
0.5625000000000157
 40
0.5625000000000157
 40
0.6250000000000157
 40
0.6250000000000157
 40
0.7500000000000099
 40
0.7500000000000099
 40
1.0
 40
1.0
 40
1.0
 40
1.0
 10
223.708201091696
 20
54.27367451653807
 30
0.0
 10
223.7380421209812
 20
54.38095357309431
 30
0.0
 10
223.7678716610222
 20
54.48683814646499
 30
0.0
 10
223.8125428178936
 20
54.63678618971528
 30
0.0
 10
223.8274956099854
 20
54.6857864524782
 30
0.0
 10
223.8490787482747
 20
54.74893673438095
 30
0.0
 10
223.8562084598043
 20
54.76857691860947
 30
0.0
 10
223.8650600851058
 20
54.78628684809746
 30
0.0
 10
223.8676981823756
 20
54.79000321458314
 30
0.0
 10
223.8708507204206
 20
54.78785486620094
 30
0.0
 10
223.8712306815574
 20
54.78169245713435
 30
0.0
 10
223.8692207562966
 20
54.7530473737816
 30
0.0
 10
223.8646441146982
 20
54.72474636879342
 30
0.0
 10
223.8547127285918
 20
54.66836735864413
 30
0.0
 10
223.8490225428568
 20
54.63889761068809
 30
0.0
 10
223.8314409422382
 20
54.55104319012175
 30
0.0
 10
223.8187600693099
 20
54.49181819707243
 30
0.0
 10
223.7795190056896
 20
54.31332488994264
 30
0.0
 10
223.7522155456531
 20
54.19558185576894
 30
0.0
 10
223.7244374946644
 20
54.07853616582183
 30
0.0
  0
ARC
  5
271
330
1F
100
AcDbEntity
  8
0
  6
Continuous
 62
     7
370
    15
100
AcDbCircle
 10
224.387115522
 20
53.4839273349
 30
0.0
 40
0.7201273031245149
100
AcDbArc
 50
174.7584203609
 51
234.4349513408
  0
ARC
  5
272
330
1F
100
AcDbEntity
  8
0
  6
Continuous
 62
     7
370
    15
100
AcDbCircle
 10
225.8824502895
 20
45.9840295986
 30
0.0
 40
2.215173511102457
100
AcDbArc
 50
122.6235856257
 51
177.1589283586
  0
LINE
  5
273
330
1F
100
AcDbEntity
  8
0
  6
Continuous
 62
     7
370
    15
100
AcDbLine
 10
224.6882114128
 20
47.8497163862
 30
0.0
 11
225.4322982182
 21
48.2792685557
 31
0.0
  0
SPLINE
  5
274
330
1F
100
AcDbEntity
  8
0
  6
Continuous
 62
     7
370
    15
100
AcDbSpline
210
0.0
220
0.0
230
1.0
 70
     8
 71
     3
 72
     8
 73
     4
 74
     0
 42
0.000000001
 43
0.00000001
 40
0.0
 40
0.0
 40
0.0
 40
0.0
 40
0.0001590976915385
 40
0.0001590976915385
 40
0.0001590976915385
 40
0.0001590976915385
 10
225.509755989624
 20
48.26880741046741
 30
0.0
 10
225.4839358606762
 20
48.27229195984732
 30
0.0
 10
225.4581167167417
 20
48.27577894250275
 30
0.0
 10
225.4322985377033
 20
48.27926830353993
 30
0.0
  0
SPLINE
  5
275
330
1F
100
AcDbEntity
  8
0
  6
Continuous
 62
     7
370
    15
100
AcDbSpline
210
0.0
220
0.0
230
1.0
 70
     8
 71
     3
 72
    10
 73
     6
 74
     0
 42
0.000000001
 43
0.00000001
 40
0.0
 40
0.0
 40
0.0
 40
0.0
 40
0.5
 40
0.5
 40
1.0
 40
1.0
 40
1.0
 40
1.0
 10
223.7244374946644
 20
45.89388055011784
 30
0.0
 10
223.7045114441677
 20
45.93240211163452
 30
0.0
 10
223.6912171800267
 20
45.96436543882833
 30
0.0
 10
223.673948653886
 20
46.02680886232676
 30
0.0
 10
223.670025199264
 20
46.05723223953981
 30
0.0
 10
223.6699785574463
 20
46.08912293484038
 30
0.0
  0
LINE
  5
276
330
1F
100
AcDbEntity
  8
0
  6
Continuous
 62
     7
370
    15
100
AcDbLine
 10
223.6803452633
 20
46.6909930128
 30
0.0
 11
223.6839448676
 21
46.5553567521
 31
0.0
  0
ARC
  5
277
330
1F
100
AcDbEntity
  8
0
  6
Continuous
 62
     7
370
    15
100
AcDbCircle
 10
225.0170702395
 20
46.4786883555
 30
0.0
 40
1.353479563765557
100
AcDbArc
 50
122.9135810547
 51
170.975405912
  0
LINE
  5
278
330
1F
100
AcDbEntity
  8
0
  6
Continuous
 62
     7
370
    15
100
AcDbLine
 10
224.6882114128
 20
47.8497163862
 30
0.0
 11
224.281625375
 21
47.6149223899
 31
0.0
  0
LINE
  5
279
330
1F
100
AcDbEntity
  8
0
  6
Continuous
 62
     7
370
    15
100
AcDbLine
 10
223.779682751
 20
45.7980069283
 30
0.0
 11
223.7244374523
 21
45.8938807278
 31
0.0
  0
LWPOLYLINE
  5
27A
330
1F
100
AcDbEntity
  8
0
  6
Continuous
 62
     7
370
     0
100
AcDbPolyline
 90
       11
 70
   128
 43
0.0
 10
268.6234155726
 20
37.9444534356
 10
268.7690092266
 20
37.6740998205
 10
268.987819859
 20
37.1603483909
 10
269.1346146982
 20
36.6452386712
 10
269.2033825499
 20
36.1498600622
 10
269.1913074778
 20
35.6944937736
 10
269.0988847074
 20
35.2977820533
 10
268.9298995525
 20
34.9759653928
 10
268.6912693646
 20
34.7422196748
 10
268.3927616758
 20
34.6061154807
 10
268.3378337955
 20
34.593339303
  0
LWPOLYLINE
  5
27B
330
1F
100
AcDbEntity
  8
0
  6
Continuous
 62
     7
370
     0
100
AcDbPolyline
 90
       15
 70
   128
 43
0.0
 10
268.399300035
 20
37.7507576858
 10
268.6195173184
 20
37.3022532487
 10
268.7895745838
 20
36.8140393869
 10
268.8856904718
 20
36.3362051554
 10
268.9036634685
 20
35.8896347762
 10
268.8427085889
 20
35.4938451468
 10
268.7054889868
 20
35.1661347427
 10
268.4980026858
 20
34.9208254965
 10
268.2293191607
 20
34.7686379344
 10
267.9111763089
 20
34.7162260673
 10
267.5574825904
 20
34.7658782925
 10
267.1836953618
 20
34.9154249387
 10
266.8061504783
 20
35.1583304098
 10
266.441348431
 20
35.483978481
 10
266.4159220276
 20
35.510346857
  0
LWPOLYLINE
  5
27C
330
1F
100
AcDbEntity
  8
0
  6
Continuous
 62
     7
370
     0
100
AcDbPolyline
 90
       27
 70
   128
 43
0.0
 10
257.1232004754
 20
51.8893602968
 10
256.1787226922
 20
51.297794437
 10
255.2410498139
 20
50.6178306866
 10
254.3169378489
 20
49.8543684542
 10
253.4130453404
 20
49.012907163
 10
252.5358844707
 20
48.0995111786
 10
251.6917752912
 20
47.1207605736
 10
250.8867997899
 20
46.0837078804
 10
250.1267571096
 20
44.995824103
 10
249.4171246944
 20
43.8649489096
 10
248.7630141666
 20
42.6992286594
 10
248.1691393878
 20
41.5070637439
 10
247.6397782632
 20
40.2970424293
 10
247.1787463997
 20
39.0778845858
 10
246.7893635201
 20
37.8583724876
 10
246.4744369997
 20
36.6472945411
 10
246.2362342072
 20
35.453374944
 10
246.0764732852
 20
34.2852174122
 10
245.9963033938
 20
33.1512372152
 10
245.9963033938
 20
32.0596054727
 10
246.0764732852
 20
31.018187462
 10
246.2362342072
 20
30.0344859645
 10
246.4744369997
 20
29.1155894576
 10
246.7893635201
 20
28.2681179319
 10
247.1787463997
 20
27.4981777372
 10
247.6397782632
 20
26.811315953
 10
248.0835635046
 20
26.2985314464
  0
LWPOLYLINE
  5
27D
330
1F
100
AcDbEntity
  8
0
  6
Continuous
 62
     7
370
     0
100
AcDbPolyline
 90
        9
 70
   128
 43
0.0
 10
263.7215576374
 20
53.1982799243
 10
263.359601161
 20
53.2841028472
 10
262.5546256596
 20
53.3917506095
 10
261.7105164802
 20
53.3959135006
 10
260.8333556104
 20
53.2965611017
 10
259.929463102
 20
53.0944103167
 10
259.0053511369
 20
52.790915585
 10
258.0676782587
 20
52.3882652743
 10
257.1232004754
 20
51.8893602968
  0
LWPOLYLINE
  5
27E
330
1F
100
AcDbEntity
  8
0
  6
Continuous
 62
     7
370
     0
100
AcDbPolyline
 90
       59
 70
   128
 43
0.0
 10
270.2046747789
 20
39.2342053949
 10
269.4783837394
 20
38.7694538634
 10
268.7606076804
 20
38.2192057319
 10
268.0597622245
 20
37.5899124056
 10
267.3840637846
 20
36.8889513623
 10
266.7414343217
 20
36.1245407514
 10
266.1394084083
 20
35.3056431567
 10
265.5850436659
 20
34.4418587602
 10
265.0848402579
 20
33.5433149867
 10
264.6446618648
 20
32.6205459785
 10
264.2696701583
 20
31.6843714974
 10
263.9642602646
 20
30.7457659415
 10
263.7320140071
 20
29.8157345837
 10
263.5756531504
 20
28.9051804003
 10
263.4970123995
 20
28.024779833
 10
263.4970123995
 20
27.1848538929
 10
263.5756531504
 20
26.3952500041
 10
263.7320140071
 20
25.6652262232
 10
263.9642602646
 20
25.0033406866
 10
264.2696701583
 20
24.4173538882
 10
264.6446618648
 20
23.9141356158
 10
265.0848402579
 20
23.4995857625
 10
265.5850436659
 20
23.1785645509
 10
266.1394084083
 20
22.954836062
 10
266.7414343217
 20
22.8310227917
 10
267.3840637846
 20
22.8085763654
 10
268.0597622245
 20
22.887760135
 10
268.7606076804
 20
23.0676457483
 10
269.4783837394
 20
23.3461242145
 10
270.2046747789
 20
23.719930468
 10
270.9309658184
 20
24.1846819995
 10
271.6487418773
 20
24.734930131
 10
272.3495873333
 20
25.3642234573
 10
273.0252857732
 20
26.0651845006
 10
273.6679152361
 20
26.8295951115
 10
274.2699411495
 20
27.6484927062
 10
274.8243058919
 20
28.5122771027
 10
275.3245092999
 20
29.4108208762
 10
275.764687693
 20
30.3335898845
 10
276.1396793995
 20
31.2697643655
 10
276.4450892932
 20
32.2083699214
 10
276.6773355507
 20
33.1384012792
 10
276.8336964074
 20
34.0489554626
 10
276.9123371583
 20
34.9293560299
 10
276.9123371583
 20
35.76928197
 10
276.8336964074
 20
36.5588858588
 10
276.6773355507
 20
37.2889096397
 10
276.4450892932
 20
37.9507951764
 10
276.1396793995
 20
38.5367819747
 10
275.764687693
 20
39.0400002472
 10
275.3245092999
 20
39.4545501004
 10
274.8243058919
 20
39.775571312
 10
274.2699411495
 20
39.9992998009
 10
273.6679152361
 20
40.1231130712
 10
273.0252857732
 20
40.1455594975
 10
272.3495873333
 20
40.0663757279
 10
271.6487418773
 20
39.8864901146
 10
270.9309658184
 20
39.6080116484
 10
270.2046747789
 20
39.2342053949
  0
LWPOLYLINE
  5
27F
330
1F
100
AcDbEntity
  8
0
  6
Continuous
 62
     7
370
     0
100
AcDbPolyline
 90
       30
 70
   128
 43
0.0
 10
265.3514888805
 20
23.8867289407
 10
265.8832586316
 20
23.6449934799
 10
266.4652917923
 20
23.5041062716
 10
267.0899041359
 20
23.4660499932
 10
267.7492402144
 20
23.5313042834
 10
268.4350087877
 20
23.6990473844
 10
269.1385857216
 20
23.9671706765
 10
269.851123306
 20
24.3323018617
 10
270.5636608904
 20
24.7898490603
 10
271.2672378242
 20
25.334058405
 10
271.9530063976
 20
25.9580868454
 10
272.612342476
 20
26.6540857877
 10
273.2369548197
 20
27.4133041277
 10
273.8189879804
 20
28.2261925194
 10
274.3511232237
 20
29.0825296975
 10
274.8266684204
 20
29.9715462341
 10
275.2396429984
 20
30.8820617948
 10
275.5848543344
 20
31.8026273374
 10
275.8579599858
 20
32.7216648417
 10
276.055526631
 20
33.6276178752
 10
276.1750689228
 20
34.5090928459
 10
276.2150840627
 20
35.3550051974
 10
276.1750689228
 20
36.1547170518
 10
276.055526631
 20
36.8981714302
 10
275.8579599858
 20
37.5760188706
 10
275.5848543344
 20
38.1797353015
 10
275.2396429984
 20
38.7017283195
 10
274.8266684204
 20
39.1354335815
 10
274.3511232237
 20
39.475397321
 10
274.3507577315
 20
39.475608764
  0
SPLINE
  5
280
330
1F
100
AcDbEntity
  8
0
  6
Continuous
 62
     7
370
     0
100
AcDbSpline
210
0.0
220
0.0
230
1.0
 70
     8
 71
     3
 72
    16
 73
    12
 74
     0
 42
0.000000001
 43
0.00000001
 40
0.0
 40
0.0
 40
0.0
 40
0.0
 40
0.2499999999999999
 40
0.2499999999999999
 40
0.4999999999999999
 40
0.4999999999999999
 40
0.6249999999999999
 40
0.6249999999999999
 40
0.7499999999999998
 40
0.7499999999999998
 40
1.0
 40
1.0
 40
1.0
 40
1.0
 10
242.4605551770411
 20
39.3413307714564
 30
0.0
 10
242.3925454413347
 20
38.935782460944
 30
0.0
 10
242.3214988780585
 20
38.5481979196482
 30
0.0
 10
242.2176764262528
 20
37.78608775820151
 30
0.0
 10
242.1854940301278
 20
37.41135939606691
 30
0.0
 10
242.1856070045025
 20
36.85050999326771
 30
0.0
 10
242.1934312145098
 20
36.66352639103736
 30
0.0
 10
242.222678128687
 20
36.29324321030507
 30
0.0
 10
242.2440002905661
 20
36.10984516805946
 30
0.0
 10
242.3217495085019
 20
35.56811305423931
 30
0.0
 10
242.3924870415159
 20
35.21788206379248
 30
0.0
 10
242.4605551770411
 20
34.89057530623435
 30
0.0
  0
LWPOLYLINE
  5
281
330
1F
100
AcDbEntity
  8
0
  6
Continuous
 62
     7
370
     0
100
AcDbPolyline
 90
       24
 70
   128
 43
0.0
 10
257.9481394243
 20
53.5633154383
 10
257.3932722123
 20
53.8330938047
 10
256.7106888542
 20
54.0461943082
 10
255.9818769887
 20
54.1561423583
 10
255.2132393147
 20
54.1619709959
 10
254.4115282185
 20
54.0636292069
 10
253.5837878214
 20
53.8619811666
 10
252.7372893601
 20
53.5587985941
 10
251.8794700249
 20
53.156743695
 10
251.0178659521
 20
52.6593502511
 10
250.1600466168
 20
52.0709880273
 10
249.3135481556
 20
51.3968242799
 10
248.4858077585
 20
50.6427836
 10
247.6840966622
 20
49.8154894601
 10
246.9154589883
 20
48.9222106541
 10
246.1866471228
 20
47.9707943352
 10
245.5040637646
 20
46.9695998615
 10
244.8737056201
 20
45.9274214234
 10
244.3011110486
 20
44.853416756
 10
243.791310013
 20
43.7570200701
 10
243.3487819331
 20
42.6478644894
 10
242.9774135385
 20
41.5356934601
 10
242.6804685759
 20
40.430278434
 10
242.4605548814
 20
39.3413306577
  0
ARC
  5
282
330
1F
100
AcDbEntity
  8
0
  6
Continuous
 62
     7
370
     0
100
AcDbCircle
 10
247.8124252396
 20
35.6241839747
 30
0.0
 40
5.401916157033033
100
AcDbArc
 50
187.8051883306
 51
237.3039159341
  0
LWPOLYLINE
  5
283
330
1F
100
AcDbEntity
  8
0
  6
Continuous
 62
     7
370
     0
100
AcDbPolyline
 90
       24
 70
   128
 43
0.0
 10
240.6439782954
 20
40.1499032048
 10
240.9550088665
 20
41.3498856028
 10
241.3406011639
 20
42.5583892156
 10
241.7979201535
 20
43.76652792
 10
242.323603307
 20
44.9654183041
 10
242.9137843096
 20
46.1462446843
 10
243.5641246701
 20
47.3003245025
 10
244.2698413797
 20
48.4191710614
 10
245.0257451078
 20
49.4945566393
 10
245.8262783971
 20
50.5185756054
 10
246.6655545184
 20
51.4836972678
 10
247.5374015926
 20
52.3828240449
 10
248.4354093473
 20
53.2093458343
 10
249.3529742275
 20
53.9571843055
 10
250.2833495271
 20
54.6208408517
 10
251.219693802
 20
55.1954359451
 10
252.155122021
 20
55.6767432286
 10
253.0827557998
 20
56.0612238383
 10
253.9957742534
 20
56.346051958
 10
254.8874636028
 20
56.5291312887
 10
255.751266885
 20
56.6091169017
 10
256.5808330968
 20
56.5854207946
 10
257.3700618112
 20
56.4582163549
 10
258.1131496045
 20
56.2284393066
  0
LWPOLYLINE
  5
284
330
1F
100
AcDbEntity
  8
0
  6
Continuous
 62
     7
370
     0
100
AcDbPolyline
 90
       24
 70
   128
 43
0.0
 10
240.2102957853
 20
40.1444656382
 10
240.5203536862
 20
41.3605672792
 10
240.9058353481
 20
42.5859174368
 10
241.3639333958
 20
43.8115972854
 10
241.8913149356
 20
45.0286865278
 10
242.4841413115
 20
46.228325371
 10
243.1380970814
 20
47.4017837258
 10
243.8484236026
 20
48.54052128
 10
244.6099499836
 20
49.6362479522
 10
245.4171332554
 20
50.6809896686
 10
246.2640995302
 20
51.6671425414
 10
247.1446835143
 20
52.58752914
 10
248.0524762526
 20
53.4354503876
 10
248.9808704033
 20
54.2047337517
 10
249.9231088883
 20
54.8897818614
 10
250.8723336906
 20
55.4856075218
 10
251.8216359877
 20
55.9878740626
 10
252.7641063626
 20
56.3929266056
 10
253.692885268
 20
56.697816634
 10
254.6012127444
 20
56.9003253711
 10
255.4824776636
 20
56.998977759
 10
256.3302654726
 20
56.9930570929
 10
257.1384062681
 20
56.8826053971
 10
257.9010179305
 20
56.6684277933
  0
ARC
  5
285
330
1F
100
AcDbEntity
  8
0
  6
Continuous
 62
     7
370
     0
100
AcDbCircle
 10
255.6173363394
 20
50.7650268812
 30
0.0
 40
6.061239735091962
100
AcDbArc
 50
26.0122380296
 51
50.5632294294
  0
LWPOLYLINE
  5
286
330
1F
100
AcDbEntity
  8
0
  6
Continuous
 62
     7
370
     0
100
AcDbPolyline
 90
       27
 70
   128
 43
0.0
 10
241.7613050789
 20
39.4314578911
 10
241.9896764604
 20
40.5622881279
 10
242.2980425605
 20
41.7102189922
 10
242.6836941269
 20
42.8651654794
 10
243.1432429482
 20
44.0169814312
 10
243.6726514879
 20
45.1555466062
 10
244.2672691049
 20
46.2708598328
 10
244.9218715655
 20
47.353121896
 10
245.6307081297
 20
48.3928243175
 10
246.3875512715
 20
49.3808335717
 10
247.1857519962
 20
50.3084694085
 10
248.0182981219
 20
51.1675818445
 10
248.8778747008
 20
51.950624067
 10
249.7569307793
 20
52.6507168292
 10
250.6477431944
 20
53.2617088537
 10
251.5424858855
 20
53.7782328147
 10
252.4332983005
 20
54.1957509123
 10
253.3123543791
 20
54.5105946947
 10
254.171930958
 20
54.7199984655
 10
255.0044770837
 20
54.8221233257
 10
255.8026778084
 20
54.8160704292
 10
256.5595209502
 20
54.7018936665
 10
257.2683575144
 20
54.4805965218
 10
257.922959975
 20
54.1541223721
 10
258.517577592
 20
53.7253400329
 10
259.0469861317
 20
53.1980169473
 10
259.2213054972
 20
52.9841333301
  0
ARC
  5
287
330
1F
100
AcDbEntity
  8
0
  6
Continuous
 62
     7
370
     0
100
AcDbCircle
 10
241.9961204862
 20
38.4956477932
 30
0.0
 40
0.9648206127249401
100
AcDbArc
 50
61.2251711322
 51
104.0859557285
  0
LWPOLYLINE
  5
288
330
1F
100
AcDbEntity
  8
0
  6
Continuous
 62
     7
370
     0
100
AcDbPolyline
 90
        3
 70
   128
 43
0.0
 10
230.8932892726
 20
40.9832142185
 10
230.889538203
 20
41.3147852076
 10
230.8902691874
 20
41.4624897514
  0
LWPOLYLINE
  5
289
330
1F
100
AcDbEntity
  8
0
  6
Continuous
 62
     7
370
     0
100
AcDbPolyline
 90
       18
 70
   128
 43
0.0
 10
238.5581116648
 20
42.0766852894
 10
238.8453134615
 20
43.2211485277
 10
239.2092850841
 20
44.3752582586
 10
239.6469392761
 20
45.529221911
 10
240.1545618465
 20
46.6732454514
 10
240.7278439385
 20
47.7976215953
 10
241.3619215424
 20
48.8928077502
 10
242.0514130324
 20
49.9495100436
 10
242.7904685578
 20
50.9587627866
 10
243.5728151527
 20
51.9119993832
 10
244.3918143593
 20
52.8011312223
 10
245.2405160635
 20
53.6186137383
 10
246.1117179287
 20
54.3575088585
 10
246.9980266402
 20
55.0115462143
 10
247.8919211259
 20
55.5751756078
 10
248.7858156116
 20
56.0436148193
 10
249.6721243231
 20
56.41288772
 10
249.7041746965
 20
56.4244256876
  0
LWPOLYLINE
  5
28A
330
1F
100
AcDbEntity
  8
0
  6
Continuous
 62
     7
370
     0
100
AcDbPolyline
 90
       20
 70
   128
 43
0.0
 10
238.1322934932
 20
42.7248302769
 10
238.4649032508
 20
43.9072112574
 10
238.8749400618
 20
45.0947914819
 10
239.3589307625
 20
46.2775145347
 10
239.9127778889
 20
47.4453674053
 10
240.5317919457
 20
48.5884603334
 10
241.2107315771
 20
49.6971150196
 10
241.943847031
 20
50.7619437086
 10
242.7249325132
 20
51.7739311248
 10
243.5473729442
 20
52.724507092
 10
244.4042048743
 20
53.6056235244
 10
245.2881736125
 20
54.4098208666
 10
246.1917939774
 20
55.1302874993
 10
247.1074149577
 20
55.7609252043
 10
248.0272836736
 20
56.2963929326
 10
248.9436112722
 20
56.7321570124
 10
249.8486389467
 20
57.0645277405
 10
250.7347036674
 20
57.2906904834
 10
251.5943031308
 20
57.4087310045
 10
252.0235707585
 20
57.4269718726
  0
ARC
  5
28B
330
1F
100
AcDbEntity
  8
0
  6
Continuous
 62
     7
370
     0
100
AcDbCircle
 10
242.1747060462
 20
34.2998646988
 30
0.0
 40
0.6562381049413638
100
AcDbArc
 50
64.1773438789
 51
129.0468578964
  0
LINE
  5
28C
330
1F
100
AcDbEntity
  8
0
  6
Continuous
 62
     7
370
     0
100
AcDbLine
 10
232.5391748882
 20
40.7772217775
 30
0.0
 11
234.3366839765
 21
41.8149016865
 31
0.0
  0
ARC
  5
28D
330
1F
100
AcDbEntity
  8
0
  6
Continuous
 62
     7
370
     0
100
AcDbCircle
 10
246.2335087568
 20
34.1546808455
 30
0.0
 40
5.751104638837345
100
AcDbArc
 50
193.6135071159
 51
274.0832704152
  0
LWPOLYLINE
  5
28E
330
1F
100
AcDbEntity
  8
0
  6
Continuous
 62
     7
370
     0
100
AcDbPolyline
 90
       10
 70
   128
 43
0.0
 10
246.0686115808
 20
30.2357113491
 10
245.6307081297
 20
30.315670815
 10
244.9218715655
 20
30.5369679597
 10
244.2672691049
 20
30.8634421094
 10
243.6726514879
 20
31.2922244486
 10
243.1432429482
 20
31.8195475342
 10
242.6836941269
 20
32.4407797108
 10
242.2980425605
 20
33.1504623771
 10
241.9896764604
 20
33.9423613207
 10
241.7613050789
 20
34.8095195728
  0
ARC
  5
28F
330
1F
100
AcDbEntity
  8
0
  6
Continuous
 62
     7
370
     0
100
AcDbCircle
 10
247.5134486278
 20
34.9337933684
 30
0.0
 40
7.609725231856737
100
AcDbArc
 50
196.3188136871
 51
212.6186541699
  0
LWPOLYLINE
  5
290
330
1F
100
AcDbEntity
  8
0
  6
Continuous
 62
     7
370
     0
100
AcDbPolyline
 90
       20
 70
   128
 43
0.0
 10
223.6699791142
 20
53.5625940554
 10
224.032399206
 20
54.6085372112
 10
224.4657827369
 20
55.649166818
 10
224.9657438004
 20
56.6739520169
 10
225.527223787
 20
57.6725230404
 10
226.1445401161
 20
58.634775771
 10
226.8114464929
 20
59.5509711662
 10
227.5211938242
 20
60.4118388662
 10
228.2666006821
 20
61.2086680622
 10
229.0401236038
 20
61.9333952283
 10
229.8339352117
 20
62.5786857215
 10
230.6400028679
 20
63.1380111274
 10
231.4501695933
 20
63.6057104227
 10
232.2562372495
 20
63.9770509229
 10
233.0500488574
 20
64.2482758036
 10
233.8235717791
 20
64.4166391929
 10
234.568978637
 20
64.480438436
 10
235.2787259683
 20
64.4390275621
 10
235.9456323451
 20
64.2928258798
 10
236.4631129975
 20
64.0922921183
  0
ARC
  5
291
330
1F
100
AcDbEntity
  8
0
  6
Continuous
 62
     7
370
     0
100
AcDbCircle
 10
227.5555766985
 20
47.8836185183
 30
0.0
 40
4.279962963890894
100
AcDbArc
 50
204.7890317019
 51
235.8416788202
  0
LINE
  5
292
330
1F
100
AcDbEntity
  8
0
  6
Continuous
 62
     7
370
     0
100
AcDbLine
 10
232.5391748882
 20
39.9606809268
 30
0.0
 11
234.3366839765
 21
40.9983608359
 31
0.0
  0
LINE
  5
293
330
1F
100
AcDbEntity
  8
0
  6
Continuous
 62
     7
370
     0
100
AcDbLine
 10
235.826233616
 20
35.3264638669
 30
0.0
 11
237.1651112356
 21
36.0993814647
 31
0.0
  0
LINE
  5
294
330
1F
100
AcDbEntity
  8
0
  6
Continuous
 62
     7
370
     0
100
AcDbLine
 10
239.5733535128
 20
34.7358262953
 30
0.0
 11
239.3429999123
 21
35.4095142285
 31
0.0
  0
LWPOLYLINE
  5
295
330
1F
100
AcDbEntity
  8
0
  6
Continuous
 62
     7
370
     0
100
AcDbPolyline
 90
        3
 70
   128
 43
0.0
 10
239.1796795572
 20
34.3675218594
 10
238.8453134615
 20
35.049753467
 10
238.5581116648
 20
35.8626205691
  0
ARC
  5
296
330
1F
100
AcDbEntity
  8
0
  6
Continuous
 62
     7
370
     0
100
AcDbCircle
 10
244.3000164968
 20
37.4665724544
 30
0.0
 40
6.512407676371506
100
AcDbArc
 50
198.7245847343
 51
214.1070729513
  0
LINE
  5
297
330
1F
100
AcDbEntity
  8
0
  6
Continuous
 62
     7
370
     0
100
AcDbLine
 10
254.8796598504
 20
58.4123149001
 30
0.0
 11
254.3386708054
 21
58.1000085721
 31
0.0
  0
ARC
  5
298
330
1F
100
AcDbEntity
  8
0
  6
Continuous
 62
     7
370
     0
100
AcDbCircle
 10
227.4324181872
 20
52.0665030869
 30
0.0
 40
1.102097410650173
100
AcDbArc
 50
159.4112025223
 51
213.191486534
  0
ARC
  5
299
330
1F
100
AcDbEntity
  8
0
  6
Continuous
 62
     7
370
     0
100
AcDbCircle
 10
226.1005935299
 20
51.8950053018
 30
0.0
 40
0.6345234148787671
100
AcDbArc
 50
41.9991509505
 51
61.7717641965
  0
LINE
  5
29A
330
1F
100
AcDbEntity
  8
0
  6
Continuous
 62
     7
370
     0
100
AcDbLine
 10
226.4007136004
 20
52.4540651441
 30
0.0
 11
226.5102605037
 21
52.8648630025
 31
0.0
  0
LINE
  5
29B
330
1F
100
AcDbEntity
  8
0
  6
Continuous
 62
     7
370
     0
100
AcDbLine
 10
226.4007136004
 20
52.4540651441
 30
0.0
 11
225.5986689514
 21
52.9170756645
 31
0.0
  0
LINE
  5
29C
330
1F
100
AcDbEntity
  8
0
  6
Continuous
 62
     7
370
     0
100
AcDbLine
 10
223.7244374523
 20
54.0785359799
 30
0.0
 11
223.7082010374
 21
54.2736746086
 31
0.0
  0
ARC
  5
29D
330
1F
100
AcDbEntity
  8
0
  6
Continuous
 62
     7
370
     0
100
AcDbCircle
 10
226.1907499493
 20
43.8014433355
 30
0.0
 40
0.4314949854783993
100
AcDbArc
 50
27.885175929
 51
60.8829215863
  0
ARC
  5
29E
330
1F
100
AcDbEntity
  8
0
  6
Continuous
 62
     7
370
     0
100
AcDbCircle
 10
227.6404486395
 20
44.5735040682
 30
0.0
 40
1.301169858631223
100
AcDbArc
 50
165.9701496118
 51
197.6767200265
  0
LINE
  5
29F
330
1F
100
AcDbEntity
  8
0
  6
Continuous
 62
     7
370
     0
100
AcDbLine
 10
226.0089421799
 20
47.0872747434
 30
0.0
 11
224.6882114128
 21
47.8497163862
 31
0.0
  0
LINE
  5
2A0
330
1F
100
AcDbEntity
  8
0
  6
Continuous
 62
     7
370
     0
100
AcDbLine
 10
226.4007136004
 20
44.1784091001
 30
0.0
 11
225.5986689514
 21
44.6414196205
 31
0.0
  0
LINE
  5
2A1
330
1F
100
AcDbEntity
  8
0
  6
Continuous
 62
     7
370
     0
100
AcDbLine
 10
226.4007136004
 20
44.1784091001
 30
0.0
 11
226.5102605037
 21
43.894091404
 31
0.0
  0
OLE2FRAME
  5
2A2
330
1F
100
AcDbEntity
  8
0
100
AcDbOle2Frame
 70
     2
  3
Paintbrush-Bild
 10
13.8511154363
 20
38.264191557
 30
0.0
 11
51.6290888628
 21
31.9806341108
 31
0.0
 71
     2
 72
     0
 73
     1
 90
    12928
310
80552BED0767C5B32B40DDAF6807D121434000000000000000006FFBDDFB85D0
310
4940DDAF6807D121434000000000000000006FFBDDFB85D04940416F4BD60AFB
310
3F4000000000000000002BED0767C5B32B40416F4BD60AFB3F40000000000000
310
0000000000000100000000010000010000000100000000000100000000320000
310
D0CF11E0A1B11AE1000000000000000000000000000000003E000300FEFF0900
310
0600000000000000000000000100000001000000000000000010000002000000
310
01000000FEFFFFFF0000000000000000FFFFFFFFFFFFFFFFFFFFFFFFFFFFFFFF
310
FFFFFFFFFFFFFFFFFFFFFFFFFFFFFFFFFFFFFFFFFFFFFFFFFFFFFFFFFFFFFFFF
310
FFFFFFFFFFFFFFFFFFFFFFFFFFFFFFFFFFFFFFFFFFFFFFFFFFFFFFFFFFFFFFFF
310
FFFFFFFFFFFFFFFFFFFFFFFFFFFFFFFFFFFFFFFFFFFFFFFFFFFFFFFFFFFFFFFF
310
FFFFFFFFFFFFFFFFFFFFFFFFFFFFFFFFFFFFFFFFFFFFFFFFFFFFFFFFFFFFFFFF
310
FFFFFFFFFFFFFFFFFFFFFFFFFFFFFFFFFFFFFFFFFFFFFFFFFFFFFFFFFFFFFFFF
310
FFFFFFFFFFFFFFFFFFFFFFFFFFFFFFFFFFFFFFFFFFFFFFFFFFFFFFFFFFFFFFFF
310
FFFFFFFFFFFFFFFFFFFFFFFFFFFFFFFFFFFFFFFFFFFFFFFFFFFFFFFFFFFFFFFF
310
FFFFFFFFFFFFFFFFFFFFFFFFFFFFFFFFFFFFFFFFFFFFFFFFFFFFFFFFFFFFFFFF
310
FFFFFFFFFFFFFFFFFFFFFFFFFFFFFFFFFFFFFFFFFFFFFFFFFFFFFFFFFFFFFFFF
310
FFFFFFFFFFFFFFFFFFFFFFFFFFFFFFFFFFFFFFFFFFFFFFFFFFFFFFFFFFFFFFFF
310
FFFFFFFFFFFFFFFFFFFFFFFFFFFFFFFFFFFFFFFFFFFFFFFFFFFFFFFFFFFFFFFF
310
FFFFFFFFFFFFFFFFFFFFFFFFFFFFFFFFFFFFFFFFFFFFFFFFFFFFFFFFFFFFFFFF
310
FFFFFFFFFFFFFFFFFFFFFFFFFFFFFFFFFFFFFFFFFFFFFFFFFFFFFFFFFFFFFFFF
310
FDFFFFFFFEFFFFFFFEFFFFFFFEFFFFFF05000000060000000700000008000000
310
090000000A0000000B0000000C0000000D0000000E0000000F00000010000000
310
11000000120000001300000014000000150000001600000017000000FEFFFFFF
310
FFFFFFFFFFFFFFFFFFFFFFFFFFFFFFFFFFFFFFFFFFFFFFFFFFFFFFFFFFFFFFFF
310
FFFFFFFFFFFFFFFFFFFFFFFFFFFFFFFFFFFFFFFFFFFFFFFFFFFFFFFFFFFFFFFF
310
FFFFFFFFFFFFFFFFFFFFFFFFFFFFFFFFFFFFFFFFFFFFFFFFFFFFFFFFFFFFFFFF
310
FFFFFFFFFFFFFFFFFFFFFFFFFFFFFFFFFFFFFFFFFFFFFFFFFFFFFFFFFFFFFFFF
310
FFFFFFFFFFFFFFFFFFFFFFFFFFFFFFFFFFFFFFFFFFFFFFFFFFFFFFFFFFFFFFFF
310
FFFFFFFFFFFFFFFFFFFFFFFFFFFFFFFFFFFFFFFFFFFFFFFFFFFFFFFFFFFFFFFF
310
FFFFFFFFFFFFFFFFFFFFFFFFFFFFFFFFFFFFFFFFFFFFFFFFFFFFFFFFFFFFFFFF
310
FFFFFFFFFFFFFFFFFFFFFFFFFFFFFFFFFFFFFFFFFFFFFFFFFFFFFFFFFFFFFFFF
310
FFFFFFFFFFFFFFFFFFFFFFFFFFFFFFFFFFFFFFFFFFFFFFFFFFFFFFFFFFFFFFFF
310
FFFFFFFFFFFFFFFFFFFFFFFFFFFFFFFFFFFFFFFFFFFFFFFFFFFFFFFFFFFFFFFF
310
FFFFFFFFFFFFFFFFFFFFFFFFFFFFFFFFFFFFFFFFFFFFFFFFFFFFFFFFFFFFFFFF
310
FFFFFFFFFFFFFFFFFFFFFFFFFFFFFFFFFFFFFFFFFFFFFFFFFFFFFFFFFFFFFFFF
310
FFFFFFFFFFFFFFFFFFFFFFFFFFFFFFFFFFFFFFFFFFFFFFFFFFFFFFFFFFFFFFFF
310
52006F006F007400200045006E00740072007900000000000000000000000000
310
0000000000000000000000000000000000000000000000000000000000000000
310
16000500FFFFFFFFFFFFFFFF020000000A00030000000000C000000000000046
310
000000000000000000000000D0FAF23F2225D20103000000C000000000000000
310
01004F006C006500000000000000000000000000000000000000000000000000
310
0000000000000000000000000000000000000000000000000000000000000000
310
0A000200FFFFFFFFFFFFFFFFFFFFFFFF00000000000000000000000000000000
310
0000000000000000000000000000000000000000000000001400000000000000
310
010043006F006D0070004F0062006A0000000000000000000000000000000000
310
0000000000000000000000000000000000000000000000000000000000000000
310
120002010100000003000000FFFFFFFF00000000000000000000000000000000
310
0000000000000000000000000000000000000000010000004D00000000000000
310
01004F006C006500310030004E00610074006900760065000000000000000000
310
0000000000000000000000000000000000000000000000000000000000000000
310
1A000200FFFFFFFFFFFFFFFFFFFFFFFF00000000000000000000000000000000
310
0000000000000000000000000000000000000000040000002426000000000000
310
FEFFFFFF02000000FEFFFFFFFFFFFFFFFFFFFFFFFFFFFFFFFFFFFFFFFFFFFFFF
310
FFFFFFFFFFFFFFFFFFFFFFFFFFFFFFFFFFFFFFFFFFFFFFFFFFFFFFFFFFFFFFFF
310
FFFFFFFFFFFFFFFFFFFFFFFFFFFFFFFFFFFFFFFFFFFFFFFFFFFFFFFFFFFFFFFF
310
FFFFFFFFFFFFFFFFFFFFFFFFFFFFFFFFFFFFFFFFFFFFFFFFFFFFFFFFFFFFFFFF
310
FFFFFFFFFFFFFFFFFFFFFFFFFFFFFFFFFFFFFFFFFFFFFFFFFFFFFFFFFFFFFFFF
310
FFFFFFFFFFFFFFFFFFFFFFFFFFFFFFFFFFFFFFFFFFFFFFFFFFFFFFFFFFFFFFFF
310
FFFFFFFFFFFFFFFFFFFFFFFFFFFFFFFFFFFFFFFFFFFFFFFFFFFFFFFFFFFFFFFF
310
FFFFFFFFFFFFFFFFFFFFFFFFFFFFFFFFFFFFFFFFFFFFFFFFFFFFFFFFFFFFFFFF
310
FFFFFFFFFFFFFFFFFFFFFFFFFFFFFFFFFFFFFFFFFFFFFFFFFFFFFFFFFFFFFFFF
310
FFFFFFFFFFFFFFFFFFFFFFFFFFFFFFFFFFFFFFFFFFFFFFFFFFFFFFFFFFFFFFFF
310
FFFFFFFFFFFFFFFFFFFFFFFFFFFFFFFFFFFFFFFFFFFFFFFFFFFFFFFFFFFFFFFF
310
FFFFFFFFFFFFFFFFFFFFFFFFFFFFFFFFFFFFFFFFFFFFFFFFFFFFFFFFFFFFFFFF
310
FFFFFFFFFFFFFFFFFFFFFFFFFFFFFFFFFFFFFFFFFFFFFFFFFFFFFFFFFFFFFFFF
310
FFFFFFFFFFFFFFFFFFFFFFFFFFFFFFFFFFFFFFFFFFFFFFFFFFFFFFFFFFFFFFFF
310
FFFFFFFFFFFFFFFFFFFFFFFFFFFFFFFFFFFFFFFFFFFFFFFFFFFFFFFFFFFFFFFF
310
FFFFFFFFFFFFFFFFFFFFFFFFFFFFFFFFFFFFFFFFFFFFFFFFFFFFFFFFFFFFFFFF
310
0100000200000000000000000000000000000000000000000000000000000000
310
0000000000000000000000000000000000000000000000000000000000000000
310
0100FEFF030A0000FFFFFFFF0A00030000000000C00000000000004607000000
310
5042727573680007000000504272757368000700000050427275736800F439B2
310
7100000000000000000000000000000000000000000000000000000000000000
310
0000000000000000000000000000000000000000000000000000000000000000
310
0000000000000000000000000000000000000000000000000000000000000000
310
0000000000000000000000000000000000000000000000000000000000000000
310
0000000000000000000000000000000000000000000000000000000000000000
310
0000000000000000000000000000000000000000000000000000000000000000
310
0000000000000000000000000000000000000000000000000000000000000000
310
0000000000000000000000000000000000000000000000000000000000000000
310
0000000000000000000000000000000000000000000000000000000000000000
310
0000000000000000000000000000000000000000000000000000000000000000
310
0000000000000000000000000000000000000000000000000000000000000000
310
0000000000000000000000000000000000000000000000000000000000000000
310
20260000424D0E260000000000003E00000028000000B40200006E0000000100
310
01000000000000000000130B0000130B00000200000002000000000000FFFFFF
310
FFFFFFFFFFFFFFFFFFFFFFFFFFFFFFFFFFFFFFFFFFFFFFFFFFFFFFFFFFFFFFFF
310
FFFFFFFFFFFFFFFFFFFFFFFFFFFFFFFFFFFFFFFFFFFFFFFFFFFFFFFFFFFFFFFF
310
FFFFFFFFFFFFFFFFFFFFFFFFFFFFFFFFFFFFFFFFFFFFFFFFF000FFFFFFFFFFFF
310
FFFFFFFFFFFFFFFFFFFFFFFFFFFFFFFFFFFFFFFFFFFFFFFFFFFFFFFFFFFFFFFF
310
FFFFFFFFFFFFFFFFFFFFFFFFFFFFFFFFFFFFFFFFFFFFFFFFFFFFFFFFFFFFFFFF
310
FFFFFFFFFFFFFFFFFFFFFFFFFFFFFFFFF000FFFFFFFFFFFFFFFFFFFFFFFFFFFF
310
FFFFFFFFFFFFFFFFFFFFFFFFFFFFFFFFFFFFFFFFFFFFFFFFFFFFFFFFFFFFFFFF
310
FFFFFFFFFFFFFFFFFFFFFFFFFFFFFFFFFFFFFFFFFFFFFFFFFFFFFFFFFFFFFFFF
310
FFFFFFFFFFFFFFFFF000FFFFFFFFFFFFFFFFFFFFFFFFFFFFFFFFFFFFFFFFFFFF
310
FFFFFFFFFFFFFFFFFFFFFFFFFFFFFFFFFFFFFFFFFFFFFFFFFFFFFFFFFFFFFFFF
310
FFFFFFFFFFFFFFFFFFFFFFFFFFFFFFFFFFFFFFFFFFFFFFFFFFFFFFFFFFFFFFFF
310
F000FFFFFFFFFFFFFFFFFFFFFFFFFFFFFFFFFFFFFFFFFFFFFFFFFFFFFFFFFFFF
310
FFFFFFFFFFFFFFFFFFFFFFFFFFFFFFFFFFFFFFFFFFFFFFFFFFFFFFFFFFFFFFFF
310
FFFFFFFFFFFFFFFFFFFFFFFFFFFFFFFFFFFFFFFFFFFFFFFFF000FFFFFFFFFFFF
310
FFFFFFFFFFFFFFFFFFFFFFFFFFFFFFFFFFFFFFFFFFFFFFFFFFFFFFFFFFFFFFFF
310
FFFFFFFFFFFFFFFFFFFFFFFFFFFFFFFFFFFFFFFFFFFFFFFFFFFFFFFFFFFFFFFF
310
FFFFFFFFFFFFFFFFFFFFFFFFFFFFFFFFF000FFFFFFFFFFFFFFFFFFFFFFFFFFFF
310
FFFFFFFFFFFFFFFFFFFFFFFFFFFFFFFFFFFFFFFFFFFFFFFFFFFFFFFFFFFFFFFF
310
FFFFFFFFFFFFFFFFFFFFFFFFFFFFFFFFFFFFFFFFFFFFFFFFFFFFFFFFFFFFFFFF
310
FFFFFFFFFFFFFFFFF000FFFFFFFFFFFFFFFFFFFFFFFFFFFFFFFFFFFFFFFFFFFF
310
FFFFFFFFFFFFFFFFFFFFFFFFFFFFFFFFFFFFFFFFFFFFFFFFFFFFFFFFFFFFFFFF
310
FFFFFFFFFFFFFFFFFFFFFFFFFFFFFFFFFFFFFFFFFFFFFFFFFFFFFFFFFFFFFFFF
310
F000FFFFFFFFFFFFFFFFFFFFFFFFFFFFFFFFFFFFFFFFFFFFFFFFFFFFFFFFFFFF
310
FFFFFFFFFFFFFFFFFFFFFFFFFFFFFFFFFFFFFFFFFFFFFFFFFFFFFFFFFFFFFFFF
310
FFFFFFFFFFFFFFFFFFFFFFFFFFFFFFFFFFFFFFFFFFFFFFFFF000FFFFFFFFFFFF
310
FFFFFFFFFFFFFFFFFFFFFFFFFFFFFFFFFFFFFFFFFFFFFFFFFFFFFFFFFFFFFFFF
310
FFFFFFFFFFFFFFFFFFFFFFFFFFFFFFFFFFFFFFFFFFFFFFFFFFFFFFFFFFFFFFFF
310
FFFFFFFFFFFFFFFFFFFFFFFFFFFFFFFFF000FFFFFFFFFFFFFFFFFFFFFFFFFFFF
310
FFFFFFFFFFFFFFFFFFFFFFFFFFFFFFFFFFFFFFFFFFFFFFFFFFFFFFFFFFFFFFFF
310
FFFFFFFFFFFFFFFFFFFFFFFFFFFFFFFFFFFFFFFFFFFFFFFFFFFFFFFFFFFFFFFF
310
FFFFFFFFFFFFFFFFF000FFFFFFFFFFFFFFFFFFFFFFFFFFFFFFFFFFFFFFFFFFFF
310
FFFFFFFFFFFFFFFFFFFFFFFFFFFFFFFFFFFFFFFFFFFFFFFFFFFFFFFFFFFFFFFF
310
FFFFFFFFFFFFFFFFFFFFFFFFFFFFFFFFFFFFFFFFFFFFFFFFFFFFFFFFFFFFFFFF
310
F000FFFFFFFFFFFFFFFFFFFFFFFFFFFFFFFFFFFFFFFFFFFFFFFFFFFFFFFFFFFF
310
FFFFFFFFFFFFFFFFFFFFFFFFFFFFFFFFFFFFFFFFFFFFFFFFFFFFFFFFFFFFFFFF
310
FFFFFFFFFFFFFFFFFFFFFFFFFFFFFFFFFFFFFFFFFFFFFFFFF000FFFFFFFFFFFF
310
FFFFFFFFFFFFFFFFFFFFFFFFFFFFFFFFFFFFFFFFFFFFFFFFFFFFFFFFFFFFFFFF
310
FFFFFFFFFFFFFFFFFFFFFFFFFFFFFFFFFFFFFFFFFFFFFFFFFFFFFFFFFFFFFFFF
310
FFFFFFFFFFFFFFFFFFFFFFFFFFFFFFFFF000FFFFFFFFFFFFFFFFFFFFFFFFFFFF
310
FFFFFFFFFFFFFFFFFFFFFFFFFFFFFFFFFFFFFFFFFFFFFFFFFFFFFFFFFFFFFFFF
310
FFFFFFFFFFFFFFFFFFFFFFFFFFFFFFFFFFFFFFFFFFFFFFFFFFFFFFFFFFFFFFFF
310
FFFFFFFFFFFFFFFFF000FFFFFFFFFFFFFFFFFFFFFFFFFFFFFFFFFFFFFFFFFFFF
310
FFFFFFFFFFFFFFFFFFFFFFFFFFFFFFFFFFFFFFFFFFFFFFFFFFFFFFFFFFFFFFFF
310
FFFFFFFFFFFFFFFFFFFFFFFFFFFFFFFFFFFFFFFFFFFFFFFFFFFFFFFFFFFFFFFF
310
F000FFFFFFFFFFFFFFFFFFFFFFFFFFFFFFFFFFFFFFFFFFFFFFFFFFFFFFFFFFFF
310
FFFFFFFFFFFFFFFFFFFFFFFFFFFFFFFFFFFFFFFFFFFFFFFFFFFFFFFFFFFFFFFF
310
FFFFFFFFFFFFFFFFFFFFFFFFFFFFFFFFFFFFFFFFFFFFFFFFF000FFFFFFFFFFFF
310
FFFFFFFFFFFFFFFFFFFFFFFFFFFFFFFFFFFFFFFFFFFFFFFFFFFFFFFFFFFFFFFF
310
FFFFFFFFFFFFFFFFFFFFFFFFFFFFFFFFFFFFFFFFFFFFFFFFFFFFFFFFFFFFFFFF
310
FFFFFFFFFFFFFFFFFFFFFFFFFFFFFFFFF000FFFFFFFFFFFFFFFFFFFFFFFFFFFF
310
FFFFFFFFFFFFFFFFFFFFFFFFFFFFFFFFFFFFFFFFFFFFFFFFFFFFFFFFFFFFFFFF
310
FFFFFFFFFFFFFFFFFFFFFFFFFFFFFFFFFFFFFFFFFFFFFFFFFFFFFFFFFFFFFFFF
310
FFFFFFFFFFFFFFFFF000FFFFF80003FFFFFFFFFFFFFFFFFFFFFFFFFFFFFFFFFF
310
FFFFF00007FFFFFFFFFF00007FFFFFF800000000000000007FFFFFFFFFFFFFFF
310
FFFFFFFC001FFFFFFFFFFFFFFC001FFFFFFFFFFFFFFFFFFFFFFFFFFE0007FFFF
310
F000FFFF8000007FFFFFFFF8000FFFFFC0007FFFFF80007FFFFF0000007FFFFF
310
FFF8000007FFFFF800000000000000007FFFFFF0001FFFFFFFFFFFC00001FFFF
310
FFFFFFFFC00001FFFFFFFF000000000003FFFFE000007FFFF000FFFE0000000F
310
FFFFFFF0000FFFFF80007FFFFF80007FFFFC0000001FFFFFFFC0000001FFFFF8
310
00000000000000007FFFFFF0001FFFFFFFFFFE0000003FFFFFFFFFFE0000003F
310
FFFFFF000000000003FFFF0000000FFFF000FFF800000003FFFFFFF00007FFFF
310
80007FFFFF80007FFFF000000007FFFFFF000000003FFFF80000000000000000
310
7FFFFFF0001FFFFFFFFFF80000000FFFFFFFFFF80000000FFFFFFF0000000000
310
03FFFC00000003FFF000FFE000000000FFFFFFF00007FFFF80003FFFFF80007F
310
FFC000000001FFFFFC000000001FFFF800000000000000007FFFFFF0001FFFFF
310
FFFFE000000003FFFFFFFFE000000003FFFFFF000000000003FFF000000000FF
310
F000FF80000000007FFFFFF00007FFFF80003FFFFF80007FFF8000000000FFFF
310
F80000000007FFF800000000000000007FFFFFF0001FFFFFFFFFC000000001FF
310
FFFFFFC000000001FFFFFF000000000003FFC0000000007FF000FF0000000000
310
3FFFFFE00007FFFF00003FFFFF80007FFE00000000003FFFF00000000003FFF8
310
00000000000000007FFFFFF0001FFFFFFFFF8000000000FFFFFFFF8000000000
310
FFFFFF000000000003FF80000000003FF000FE00000000001FFFFFE00003FFFF
310
00003FFFFF80007FFC00000000001FFFE00000000001FFF8000001FFFE000000
310
7FFFFFF0001FFFFFFFFE00000000003FFFFFFE00000000003FFFFF0000000000
310
03FF00000000001FF000FC00000000000FFFFFE00003FFFF00001FFFFF80007F
310
F800000000001FFFC00000000000FFF8000001FFFE0000007FFFFFF0001FFFFF
310
FFFC00000000001FFFFFFC00000000001FFFFF000000000003FE00000000000F
310
F000F8000000000007FFFFE00003FFFF00001FFFFF80007FF800000000000FFF
310
800000000000FFF8000001FFFE0000007FFFFFF0001FFFFFFFF800000000000F
310
FFFFF800000000000FFFFF000000000003FC000000000007F000F80000000000
310
03FFFFC00003FFFE00001FFFFF80007FF0000000000007FF0000000000007FF8
310
000001FFFE0000007FFFFFF0001FFFFFFFF0000000000007FFFFF00000000000
310
07FFFF000000000003F8000000000003F000F0000000000003FFFFC00001FFFE
310
00001FFFFF80007FE0000000000007FE0000000000003FF8000001FFFE000000
310
7FFFFFF0001FFFFFFFF0000000000007FFFFF0000000000007FFFF0000000000
310
03F800001F800003F000E00001FFF00001FFFFC00001FFFE00000FFFFF80007F
310
E00001FFE00003FE00001FFF00003FF8000001FFFE0000007FFFFFF0001FFFFF
310
FFE000003E000003FFFFE000003E000003FFFF000000000003F00001FFF80001
310
F000E00007FFFC0001FFFFC00001FFFE00000FFFFF80007FC0000FFFFC0003FC
310
0000FFFFC0001FF8000001FFFE0000007FFFFFF0001FFFFFFFC00003FFE00001
310
FFFFC00003FFE00001FFFF0001FFFFFFFFF00007FFFE0001F000E0000FFFFF00
310
00FFFF800001FFFC00000FFFFF80007FC0001FFFFE0001FC0001FFFFE0001FF8
310
000001FFFE0000007FFFFFF0001FFFFFFF80000FFFF80000FFFF80000FFFF800
310
00FFFF0003FFFFFFFFE0000FFFFF8000F000C0003FFFFF8000FFFF800000FFFC
310
000007FFFF80007F80003FFFFF0001FC0003FFFFF0001FF8000001FFFE000000
310
7FFFFFF0001FFFFFFF80003FFFFE0000FFFF80003FFFFE0000FFFF0003FFFFFF
310
FFE0003FFFFF8000F000C0003FFFFF8000FFFF800000FFFC000007FFFF80007F
310
80007FFFFF8001F80007FFFFF8000FF8000001FFFE0000007FFFFFF0001FFFFF
310
FF00007FFFFF00007FFF00007FFFFF00007FFF0003FFFFFFFFE0003FFFFFC000
310
F000C0007FFFFFC000FFFF000000FFFC000007FFFF80007F8000FFFFFF8000F8
310
000FFFFFF8000FF8000001FFFE0000007FFFFFF0001FFFFFFF0000FFFFFF8000
310
7FFF0000FFFFFF80007FFF0003FFFFFFFFC0007FFFFFC00070008000FFFFFFC0
310
00FFFF000000FFF8000007FFFF80007F8000FFFFFF8000F8000FFFFFF8000FF8
310
000001FFFE0000007FFFFFF0001FFFFFFE0001FFFFFFC0003FFE0001FFFFFFC0
310
003FFF0003FFFFFFFFC0007FFFFFE00070008000FFFFFFC0007FFF0000007FF8
310
000003FFFF80007F0001FFFFFF8000F8000FFFFFF8000FF8000001FFFE000000
310
7FFFFFF0001FFFFFFE0001FFFFFFC0003FFE0001FFFFFFC0003FFF0003FFFFFF
310
FFC000FFFFFFE00070008000FFFFFFC0007FFF0000007FF8000003FFFF80007F
310
0001FFFFFF8000F8001FFFFFF8000FF8000001FFFE0000007FFFFFF0001FFFFF
310
FE0003FFFFFFE0003FFE0003FFFFFFE0003FFF0003FFFFFFFFC000FFFFFFE000
310
70008000FFFFFFC0007FFE0000007FF8000003FFFF80007F0001FFFFFF8000F0
310
001FFFFFF8000FF8000001FFFE0000007FFFFFF0001FFFFFFC0003FFFFFFE000
310
1FFC0003FFFFFFE0001FFF0003FFFFFFFFC000FFFFFFC00070008000FFFFFF80
310
007FFE0000007FF0000003FFFF80007F0001FFFFFF0000F0001FFFFFF8000FF8
310
000001FFFE0000007FFFFFF0001FFFFFFC0007FFFFFFF0001FFC0007FFFFFFF0
310
001FFF0003FFFFFFFFC000FFFFFFC00070008001FFFFFF0000FFFE0000003FF0
310
000001FFFF80007F0001FFFFFF0000F8001FFFFFF0000FF8000001FFFE000000
310
7FFFFFF0001FFFFFFC0007FFFFFFF0001FFC0007FFFFFFF0001FFF0003FFFFFF
310
FFC001FFFFFF80007000FFFFFFFFFE0000FFFE0008003FF0008001FFFF80007F
310
FFFFFFFFFC0000FFFFFFFFFFE0000FF8000001FFFE0000007FFFFFF0001FFFFF
310
F8000FFFFFFFF8000FF8000FFFFFFFF8000FFF0003FFFFFFFFFFFFFFFFFF0000
310
7000FFFFFFFFFC0000FFFC0008003FF0008001FFFF80007FFFFFFFFFF80001FF
310
FFFFFFFF80000FF8000001FFFE0000007FFFFFF0001FFFFFF8000FFFFFFFF800
310
0FF8000FFFFFFFF8000FFF0003FFFFFFFFFFFFFFFFFE0000F000FFFFFFFFE000
310
00FFFC000C003FE000C001FFFF80007FFFFFFFFFC00001FFFFFFFFFE00001FF8
310
000001FFFE0000007FFFFFF0001FFFFFF8000FFFFFFFF8000FF8000FFFFFFFF8
310
000FFF0003FFFFFFFFFFFFFFFFF00000F000FFFFFFFE000001FFFC000C001FE0
310
00C000FFFF80007FFFFFFFFE000001FFFFFFFFE000001FF80FFFFFFFFFFFFFC0
310
7FFFFFF0001FFFFFF8000FFFFFFFF8000FF8000FFFFFFFF8000FFF0003FFFFFF
310
FFFFFFFFFF800000F000FFFFFFC0000001FFFC001C001FE001C000FFFF80007F
310
FFFFFF80000003FFFFFFF80000001FF80FFFFFFFFFFFFFC07FFFFFF0001FFFFF
310
F8001FFFFFFFFC000FF8001FFFFFFFFC000FFF0003FFFFFFFFFFFFFFF0000001
310
F000FFFFF800000001FFF8001C001FE001C000FFFF80007FFFFFF800000003FF
310
FFFF800000003FF80FFFFFFFFFFFFFC07FFFFFF0001FFFFFF8001FFFFFFFFC00
310
0FF8001FFFFFFFFC000FFF0003FFFFFFFFFFFFFE00000001F000FFFFC0000000
310
03FFF8001E001FC001E000FFFF80007FFFFF8000000007FFFFFC000000003FF8
310
0FFFFFFFFFFFFFC07FFFFFF0001FFFFFF8001FFFFFFFFC000FF8001FFFFFFFFC
310
000FFF0003FFFFFFFFFFFFE000000003F000FFFE0000000007FFF8001E000FC0
310
01E0007FFF80007FFFFE0000000007FFFFE0000000007FF80FFFFFFFFFFFFFC0
310
7FFFFFF0001FFFFFF0001FFFFFFFFC0007F0001FFFFFFFFC0007FF0003FFFFFF
310
FFFFFF0000000003F000FFF80000000007FFF8001E000FC003E0007FFF80007F
310
FFF0000000000FFFFF8000000000FFF80FFFFFFFFFFFFFC07FFFFFF0001FFFFF
310
F0001FFFFFFFFC0007F0001FFFFFFFFC0007FF0003FFFFFFFFFFFC0000000007
310
F000FFE0000000000FFFF0003E000FC003E0007FFF80007FFFC0000000001FFF
310
FE0000000001FFF80FFFFFFFFFFFFFC07FFFFFF0001FFFFFF0001FFFFFFFFC00
310
07F0001FFFFFFFFC0007FF0003FFFFFFFFFFF0000000000FF000FFC000000000
310
1FFFF0003F000F8003F0003FFF80007FFF80000000003FFFF80000000003FFF8
310
0FFFFFFFFFFFFFC07FFFFFF0001FFFFFF0001FFFFFFFFC0007F0001FFFFFFFFC
310
0007FF0003FFFFFFFFFFE0000000001FF000FF00000000007FFFF0003F000780
310
03F0003FFF80007FFF00000000007FFFF00000000007FFF80FFFFFFFFFFFFFC0
310
7FFFFFF0001FFFFFF0001FFFFFFFFC0007F0001FFFFFFFFC0007FF0003FFFFFF
310
FFFF80000000007FF000FE0000000000FFFFE0003F00078007F0003FFF80007F
310
FE0000000001FFFFE0000000001FFFF80FFFFFFFFFFFFFC07FFFFFF0001FFFFF
310
F0001FFFFFFFFC0007F0001FFFFFFFFC0007FF0003FFFFFFFFFF0000000000FF
310
F000FC0000000003FFFFE0007F00078007F0003FFF80007FFC0000000007FFFF
310
C0000000007FFFF80FFFFFFFFFFFFFC07FFFFFF0001FFFFFF8001FFFFFFFFC00
310
0FF8001FFFFFFFFC000FFF0003FFFFFFFFFE0000000003FFF000FC000000000F
310
FFFFE0007F80070007F8001FFF80007FF8000000001FFFFF8000000001FFFFF8
310
0FFFFFFFFFFFFFC07FFFFFF0001FFFFFF8001FFFFFFFFC000FF8001FFFFFFFFC
310
000FFF0003FFFFFFFFFC000000000FFFF000F8000000007FFFFFE0007F800700
310
07F8001FFF80007FF000000000FFFFFF800000000FFFFFF80FFFFFFFFFFFFFC0
310
7FFFFFF0001FFFFFF8000FFFFFFFF8000FF8000FFFFFFFF8000FFF0003FFFFFF
310
FFFC000000007FFFF000F800000007FFFFFFC0007F8003000FF8001FFF80007F
310
F000000007FFFFFF000000007FFFFFF80FFFFFFFFFFFFFC07FFFFFF0001FFFFF
310
F8000FFFFFFFF8000FF8000FFFFFFFF8000FFF0003FFFFFFFFF80000000FFFFF
310
F000F0000000FFFFFFFFC000FF8003000FF8001FFF80007FE0000000FFFFFFFF
310
0000000FFFFFFFF8000001FFFE0000007FFFFFF0001FFFFFF8000FFFFFFFF800
310
0FF8000FFFFFFFF8000FFF0003FFFFFFFFF8000000FFFFFFF000F000000FFFFF
310
FFFFC000FFC002000FF8000FFF80007FE000001FFFFFFFFE000001FFFFFFFFF8
310
000001FFFE0000007FFFFFF0001FFFFFF8000FFFFFFFF8000FF8000FFFFFFFF8
310
000FFF0003FFFFFFFFF000001FFFFFFFF000E00000FFFFFFFFFFC000FFC00200
310
0FFC000FFF80007FE00001FFFFFFFFFE00001FFFFFFFFFF8000001FFFE000000
310
7FFFFFF0001FFFFFFC000FFFFFFFF8001FFC000FFFFFFFF8001FFF0003FFFFFF
310
FFF00001FFFFFFFFF000E00007FFFFFFFFFF8000FFC000001FFC000FFF80007F
310
C0000FFFFFFFFFFE0000FFFFFFFFFFF8000001FFFE0000007FFFFFF0001FFFFF
310
FC0007FFFFFFF0001FFC0007FFFFFFF0001FFF0003FFFFFFFFF00007FFFFFFFF
310
F000E0001FFFFFFFFFFF8000FFC000001FFC000FFF80007FC0003FFFFFFFFFFE
310
0001FFFFFFFFFFF8000001FFFE0000007FFFFFF0001FFFFFFC0007FFFFFFF000
310
1FFC0007FFFFFFF0001FFF0003FFFFFFFFF0001FFFFFFFFFF000E0003FFFFF00
310
03FF8001FFE000001FFC0007FF80007FC0007FFFFF0007FC0003FFFFF0003FF8
310
000001FFFE0000007FFFFFF0001FFFFFFC0003FFFFFFE0001FFC0003FFFFFFE0
310
001FFF0003FFFFFFFFF0003FFFFFFFFFF000E0003FFFFF0001FF8001FFE00000
310
1FFE0007FF80007FC0007FFFFE0003FC0007FFFFE0003FF8000001FFFE000000
310
7FFFFFF0001FFFFFFE0003FFFFFFE0003FFE0003FFFFFFE0003FFF0003FFFFFF
310
FFF0003FFFFF8001F000E0003FFFFF0001FF0001FFE000001FFE0007FF80007F
310
C0007FFFFE0003FC0007FFFFE0003FF8000001FFFE0000007FFFFFF0001FFFFF
310
FE0001FFFFFFC0003FFE0001FFFFFFC0003FFF0003FFFFFFFFF0003FFFFF0001
310
F000E0003FFFFF0003FF0001FFE000003FFE0007FF80007FC0007FFFFE0003FC
310
0007FFFFE0003FF8000001FFFE0000007FFFFFF0001FFFFFFF0001FFFFFFC000
310
7FFF0001FFFFFFC0007FFF0003FFFFFFFFF0003FFFFF0001F000E0003FFFFE00
310
03FF0003FFF000003FFE0003FF80007FC0007FFFFC0003FE0007FFFFE0003FF8
310
000001FFFE0000007FFFFFF0001FFFFFFF0000FFFFFF80007FFF0000FFFFFF80
310
007FFF0003FFFFFFFFF0003FFFFF0001F000E0003FFFFE0003FF0003FFF00000
310
3FFF0003FF80007FC0007FFFFC0007FE0007FFFFC0003FF8000001FFFE000000
310
7FFFFFF0001FFFFFFF80007FFFFF0000FFFF80007FFFFF0000FFFF0003FFFFFF
310
FFF0003FFFFF0003F000E0003FFFFC0003FE0003FFF000003FFF0003FF80007F
310
E0003FFFF80007FE0003FFFFC0007FF8000001FFFE0000007FFFFFF0001FFFFF
310
FF80003FFFFE0000FFFF80003FFFFE0000FFFF0003FFFFFFFFF0001FFFFE0003
310
F000F0001FFFF80003FE0003FFF000007FFF0001FF80007FE0003FFFF00007FE
310
0001FFFF80007FF8000001FFFE0000007FFFFFF0001FFFFFFFC0000FFFF80001
310
FFFFC0000FFFF80001FFFF0003FFFFFFFFF0001FFFFC0003F000F0000FFFF000
310
07FE0007FFF800007FFF0001FF80007FE0001FFFE00007FF0000FFFE00007FF8
310
000001FFFE0000007FFFFFF0001FFFFFFFC00003FFE00001FFFFC00003FFE000
310
01FFFF0003FFFFFFFFF8000FFFF80003F000F00003FFC00007FC0007FFF80000
310
7FFF8001FF80007FF00007FF80000FFF00007FF80000FFF8000001FFFE000000
310
7F80000000000001FFE000003E000003FFFFE000003E000003FFFF0003FFFFFF
310
FFF80003FFE00007F000F800000000000FFC0007FFF800007FFF8001FF80007F
310
F000000000000FFF000000000000FFF8000001FFFE0000007F80000000000001
310
FFF0000000000007FFFFF0000000000007FFFF0003FFFFFFFFFC00007E000007
310
F000F800000000000FFC0007FFF80000FFFF8000FF80007FF800000000001FFF
310
800000000001FFF8000001FFFE0000007F80000000000001FFF800000000000F
310
FFFFF800000000000FFFFF0003FFFFFFFFFC00000000000FF000FC0000000000
310
1FFC0007FFFC0000FFFF8000FF80007FF800000000003FFFC00000000001FFF8
310
000001FFFE0000007F80000000000001FFF800000000000FFFFFF80000000000
310
0FFFFF0003FFFFFFFFFE00000000001FF000FE00000000003FF8000FFFFC0000
310
FFFF8000FF80007FFC00000000003FFFC00000000003FFF8000001FFFE000000
310
7F80000000000001FFFC00000000001FFFFFFC00000000001FFFFF0003FFFFFF
310
FFFF00000000001FF000FF00000000003FF8000FFFFC0000FFFFC000FF80007F
310
FE00000000007FFFE00000000007FFF8000001FFFE0000007F80000000000001
310
FFFE00000000003FFFFFFE00000000003FFFFF0003FFFFFFFFFF80000000003F
310
F000FF80000000007FF8000FFFFC0001FFFFC0007F80007FFF0000000000FFFF
310
F0000000000FFFF800000000000000007F80000000000001FFFF8000000000FF
310
FFFFFF8000000000FFFFFF0003FFFFFFFFFFC0000000007FF000FFC000000000
310
FFF8000FFFFE0001FFFFC0007F80007FFF8000000001FFFFF8000000001FFFF8
310
00000000000000007F80000000000001FFFFC000000001FFFFFFFFC000000001
310
FFFFFF0003FFFFFFFFFFE000000000FFF000FFE000000003FFF0001FFFFE0001
310
FFFFC0007F80007FFFC000000007FFFFFE000000003FFFF80000000000000000
310
7F80000000000001FFFFE000000003FFFFFFFFE000000003FFFFFF0003FFFFFF
310
FFFFF000000003FFF000FFF80000000FFFF0001FFFFE0001FFFFE0007F80007F
310
FFF00000000FFFFFFF00000000FFFFF800000000000000007F80000000000001
310
FFFFF80000000FFFFFFFFFF80000000FFFFFFF0003FFFFFFFFFFFC0000000FFF
310
F000FFFE0000003FFFF0001FFFFE0003FFFFE0003F80007FFFFC0000003FFFFF
310
FFC0000003FFFFF800000000000000007F80000000000001FFFFFE0000003FFF
310
FFFFFFFE0000003FFFFFFF0003FFFFFFFFFFFF0000003FFFF000FFFF800000FF
310
FFF0001FFFFF0003FFFFE0003F80007FFFFF000001FFFFFFFFF800001FFFFFF8
310
00000000000000007F80000000000001FFFFFFC00001FFFFFFFFFFFFC00001FF
310
FFFFFF0003FFFFFFFFFFFFC00000FFFFF000FFFFF8000FFFFFFFFFFFFFFFFFFF
310
FFFFFFFFFFFFFFFFFFFFF0001FFFFFFFFFFF0000FFFFFFF80000000000000000
310
7FFFFFFFFFFFFFFFFFFFFFFC001FFFFFFFFFFFFFFC001FFFFFFFFFFFFFFFFFFF
310
FFFFFFFC001FFFFFF000FFFFFFFFFFFFFFFFFFFFFFFFFFFFFFFFFFFFFFFFFFFF
310
FFFFFFFFFFFFFFFFFFFFFFFFFFFFFFFFFFFFFFFFFFFFFFFFFFFFFFFFFFFFFFFF
310
FFFFFFFFFFFFFFFFFFFFFFFFFFFFFFFFFFFFFFFFFFFFFFFFFFFFFFFFFFFFFFFF
310
F000FFFFFFFFFFFFFFFFFFFFFFFFFFFFFFFFFFFFFFFFFFFFFFFFFFFFFFFFFFFF
310
FFFFFFFFFFFFFFFFFFFFFFFFFFFFFFFFFFFFFFFFFFFFFFFFFFFFFFFFFFFFFFFF
310
FFFFFFFFFFFFFFFFFFFFFFFFFFFFFFFFFFFFFFFFFFFFFFFFF000FFFFFFFFFFFF
310
FFFFFFFFFFFFFFFFFFFFFFFFFFFFFFFFFFFFFFFFFFFFFFFFFFFFFFFFFFFFFFFF
310
FFFFFFFFFFFFFFFFFFFFFFFFFFFFFFFFFFFFFFFFFFFFFFFFFFFFFFFFFFFFFFFF
310
FFFFFFFFFFFFFFFFFFFFFFFFFFFFFFFFF000FFFFFFFFFFFFFFFFFFFFFFFFFFFF
310
FFFFFFFFFFFFFFFFFFFFFFFFFFFFFFFFFFFFFFFFFFFFFFFFFFFFFFFFFFFFFFFF
310
FFFFFFFFFFFFFFFFFFFFFFFFFFFFFFFFFFFFFFFFFFFFFFFFFFFFFFFFFFFFFFFF
310
FFFFFFFFFFFFFFFFF000FFFFFFFFFFFFFFFFFFFFFFFFFFFFFFFFFFFFFFFFFFFF
310
FFFFFFFFFFFFFFFFFFFFFFFFFFFFFFFFFFFFFFFFFFFFFFFFFFFFFFFFFFFFFFFF
310
FFFFFFFFFFFFFFFFFFFFFFFFFFFFFFFFFFFFFFFFFFFFFFFFFFFFFFFFFFFFFFFF
310
F000FFFFFFFFFFFFFFFFFFFFFFFFFFFFFFFFFFFFFFFFFFFFFFFFFFFFFFFFFFFF
310
FFFFFFFFFFFFFFFFFFFFFFFFFFFFFFFFFFFFFFFFFFFFFFFFFFFFFFFFFFFFFFFF
310
FFFFFFFFFFFFFFFFFFFFFFFFFFFFFFFFFFFFFFFFFFFFFFFFF000FFFFFFFFFFFF
310
FFFFFFFFFFFFFFFFFFFFFFFFFFFFFFFFFFFFFFFFFFFFFFFFFFFFFFFFFFFFFFFF
310
FFFFFFFFFFFFFFFFFFFFFFFFFFFFFFFFFFFFFFFFFFFFFFFFFFFFFFFFFFFFFFFF
310
FFFFFFFFFFFFFFFFFFFFFFFFFFFFFFFFF000FFFFFFFFFFFFFFFFFFFFFFFFFFFF
310
FFFFFFFFFFFFFFFFFFFFFFFFFFFFFFFFFFFFFFFFFFFFFFFFFFFFFFFFFFFFFFFF
310
FFFFFFFFFFFFFFFFFFFFFFFFFFFFFFFFFFFFFFFFFFFFFFFFFFFFFFFFFFFFFFFF
310
FFFFFFFFFFFFFFFFF000FFFFFFFFFFFFFFFFFFFFFFFFFFFFFFFFFFFFFFFFFFFF
310
FFFFFFFFFFFFFFFFFFFFFFFFFFFFFFFFFFFFFFFFFFFFFFFFFFFFFFFFFFFFFFFF
310
FFFFFFFFFFFFFFFFFFFFFFFFFFFFFFFFFFFFFFFFFFFFFFFFFFFFFFFFFFFFFFFF
310
F000FFFFFFFFFFFFFFFFFFFFFFFFFFFFFFFFFFFFFFFFFFFFFFFFFFFFFFFFFFFF
310
FFFFFFFFFFFFFFFFFFFFFFFFFFFFFFFFFFFFFFFFFFFFFFFFFFFFFFFFFFFFFFFF
310
FFFFFFFFFFFFFFFFFFFFFFFFFFFFFFFFFFFFFFFFFFFFFFFFF000FFFFFFFFFFFF
310
FFFFFFFFFFFFFFFFFFFFFFFFFFFFFFFFFFFFFFFFFFFFFFFFFFFFFFFFFFFFFFFF
310
FFFFFFFFFFFFFFFFFFFFFFFFFFFFFFFFFFFFFFFFFFFFFFFFFFFFFFFFFFFFFFFF
310
FFFFFFFFFFFFFFFFFFFFFFFFFFFFFFFFF000FFFFFFFFFFFFFFFFFFFFFFFFFFFF
310
FFFFFFFFFFFFFFFFFFFFFFFFFFFFFFFFFFFFFFFFFFFFFFFFFFFFFFFFFFFFFFFF
310
FFFFFFFFFFFFFFFFFFFFFFFFFFFFFFFFFFFFFFFFFFFFFFFFFFFFFFFFFFFFFFFF
310
FFFFFFFFFFFFFFFFF000FFFFFFFFFFFFFFFFFFFFFFFFFFFFFFFFFFFFFFFFFFFF
310
FFFFFFFFFFFFFFFFFFFFFFFFFFFFFFFFFFFFFFFFFFFFFFFFFFFFFFFFFFFFFFFF
310
FFFFFFFFFFFFFFFFFFFFFFFFFFFFFFFFFFFFFFFFFFFFFFFFFFFFFFFFFFFFFFFF
310
F000FFFFFFFFFFFFFFFFFFFFFFFFFFFFFFFFFFFFFFFFFFFFFFFFFFFFFFFFFFFF
310
FFFFFFFFFFFFFFFFFFFFFFFFFFFFFFFFFFFFFFFFFFFFFFFFFFFFFFFFFFFFFFFF
310
FFFFFFFFFFFFFFFFFFFFFFFFFFFFFFFFFFFFFFFFFFFFFFFFF000FFFFFFFFFFFF
310
FFFFFFFFFFFFFFFFFFFFFFFFFFFFFFFFFFFFFFFFFFFFFFFFFFFFFFFFFFFFFFFF
310
FFFFFFFFFFFFFFFFFFFFFFFFFFFFFFFFFFFFFFFFFFFFFFFFFFFFFFFFFFFFFFFF
310
FFFFFFFFFFFFFFFFFFFFFFFFFFFFFFFFF000FFFFFFFFFFFFFFFFFFFFFFFFFFFF
310
FFFFFFFFFFFFFFFFFFFFFFFFFFFFFFFFFFFFFFFFFFFFFFFFFFFFFFFFFFFFFFFF
310
FFFFFFFFFFFFFFFFFFFFFFFFFFFFFFFFFFFFFFFFFFFFFFFFFFFFFFFFFFFFFFFF
310
FFFFFFFFFFFFFFFFF000FFFFFFFFFFFFFFFFFFFFFFFFFFFFFFFFFFFFFFFFFFFF
310
FFFFFFFFFFFFFFFFFFFFFFFFFFFFFFFFFFFFFFFFFFFFFFFFFFFFFFFFFFFFFFFF
310
FFFFFFFFFFFFFFFFFFFFFFFFFFFFFFFFFFFFFFFFFFFFFFFFFFFFFFFFFFFFFFFF
310
F000FFFFFFFFFFFFFFFFFFFFFFFFFFFFFFFFFFFFFFFFFFFFFFFFFFFFFFFFFFFF
310
FFFFFFFFFFFFFFFFFFFFFFFFFFFFFFFFFFFFFFFFFFFFFFFFFFFFFFFFFFFFFFFF
310
FFFFFFFFFFFFFFFFFFFFFFFFFFFFFFFFFFFFFFFFFFFFFFFFF000FFFFFFFFFFFF
310
FFFFFFFFFFFFFFFFFFFFFFFFFFFFFFFFFFFFFFFFFFFFFFFFFFFFFFFFFFFFFFFF
310
FFFFFFFFFFFFFFFFFFFFFFFFFFFFFFFFFFFFFFFFFFFFFFFFFFFFFFFFFFFFFFFF
310
FFFFFFFFFFFFFFFFFFFFFFFFFFFFFFFFF000FFFFFFFFFFFFFFFFFFFFFFFFFFFF
310
FFFFFFFFFFFFFFFFFFFFFFFFFFFFFFFFFFFFFFFFFFFFFFFFFFFFFFFFFFFFFFFF
310
FFFFFFFFFFFFFFFFFFFFFFFFFFFFFFFFFFFFFFFFFFFFFFFFFFFFFFFFFFFFFFFF
310
FFFFFFFFFFFFFFFFF000FFFFFFFFFFFFFFFFFFFFFFFFFFFFFFFFFFFFFFFFFFFF
310
FFFFFFFFFFFFFFFFFFFFFFFFFFFFFFFFFFFFFFFFFFFFFFFFFFFFFFFFFFFFFFFF
310
FFFFFFFFFFFFFFFFFFFFFFFFFFFFFFFFFFFFFFFFFFFFFFFFFFFFFFFFFFFFFFFF
310
F000FFFFFFFFFFFFFFFFFFFFFFFFFFFFFFFFFFFFFFFFFFFFFFFFFFFFFFFFFFFF
310
FFFFFFFFFFFFFFFFFFFFFFFFFFFFFFFFFFFFFFFFFFFFFFFFFFFFFFFFFFFFFFFF
310
FFFFFFFFFFFFFFFFFFFFFFFFFFFFFFFFFFFFFFFFFFFFFFFFF000FFFFFFFFFFFF
310
FFFFFFFFFFFFFFFFFFFFFFFFFFFFFFFFFFFFFFFFFFFFFFFFFFFFFFFFFFFFFFFF
310
FFFFFFFFFFFFFFFFFFFFFFFFFFFFFFFFFFFFFFFFFFFFFFFFFFFFFFFFFFFFFFFF
310
FFFFFFFFFFFFFFFFFFFFFFFFFFFFFFFFF0000000000000000000000000000000
310
0000000000000000000000000000000000000000000000000000000000000000
310
0000000000000000000000000000000000000000000000000000000000000000
310
0000000000000000000000000000000000000000000000000000000000000000
310
0000000000000000000000000000000000000000000000000000000000000000
310
0000000000000000000000000000000000000000000000000000000000000000
310
0000000000000000000000000000000000000000000000000000000000000000
310
0000000000000000000000000000000000000000000000000000000000000000
310
0000000000000000000000000000000000000000000000000000000000000000
310
0000000000000000000000000000000000000000000000000000000000000000
310
0000000000000000000000000000000000000000000000000000000000000000
310
0000000000000000000000000000000000000000000000000000000000000000
310
0000000000000000000000000000000000000000000000000000000000000000
310
0000000000000000000000000000000000000000000000000000000000000000
310
0000000000000000000000000000000000000000000000000000000000000000
310
0000000000000000000000000000000000000000000000000000000000000000
  1
OLE
  0
ENDSEC
  0
SECTION
  2
OBJECTS
  0
DICTIONARY
  5
C
330
0
100
AcDbDictionary
281
     1
  3
ACAD_GROUP
350
D
  3
ACAD_LAYOUT
350
1A
  3
ACAD_MLINESTYLE
350
17
  3
ACAD_PLOTSETTINGS
350
19
  3
ACAD_PLOTSTYLENAME
350
E
  3
ACAD_SCALELIST
350
47
  0
DICTIONARY
  5
D
102
{ACAD_REACTORS
330
C
102
}
330
C
100
AcDbDictionary
281
     1
  0
DICTIONARY
  5
1A
102
{ACAD_REACTORS
330
C
102
}
330
C
100
AcDbDictionary
281
     1
  3
Layout1
350
1E
  3
Layout2
350
26
  3
Model
350
22
  0
DICTIONARY
  5
17
102
{ACAD_REACTORS
330
C
102
}
330
C
100
AcDbDictionary
281
     1
  3
Standard
350
18
  0
DICTIONARY
  5
19
102
{ACAD_REACTORS
330
C
102
}
330
C
100
AcDbDictionary
281
     1
  0
ACDBDICTIONARYWDFLT
  5
E
102
{ACAD_REACTORS
330
C
102
}
330
C
100
AcDbDictionary
281
     1
  3
Normal
350
F
100
AcDbDictionaryWithDefault
340
F
  0
DICTIONARY
  5
47
102
{ACAD_REACTORS
330
C
102
}
330
C
100
AcDbDictionary
281
     1
  3
A0
350
48
  3
A1
350
49
  3
A2
350
4A
  3
A3
350
4B
  3
A4
350
4C
  3
A5
350
4D
  3
A6
350
4E
  3
A7
350
4F
  3
A8
350
50
  3
A9
350
51
  3
B0
350
52
  3
B1
350
53
  3
B2
350
54
  3
B3
350
55
  3
B4
350
56
  3
B5
350
57
  3
B6
350
58
  3
B7
350
59
  3
B8
350
5A
  3
B9
350
5B
  3
C0
350
5C
  3
C1
350
5D
  3
C2
350
5E
  3
C3
350
5F
  3
C4
350
60
  3
C5
350
61
  3
C6
350
62
  3
C7
350
63
  3
C8
350
64
  3
C9
350
65
  3
D0
350
66
  3
D1
350
67
  3
D2
350
68
  0
LAYOUT
  5
1E
102
{ACAD_REACTORS
330
1A
102
}
330
1A
100
AcDbPlotSettings
  1

  2
none_device
  4

  6

 40
0.0
 41
0.0
 42
0.0
 43
0.0
 44
0.0
 45
0.0
 46
0.0
 47
0.0
 48
0.0
 49
0.0
140
0.0
141
0.0
142
1.0
143
1.0
 70
   688
 72
     1
 73
     0
 74
     5
  7

 75
    16
147
1.0
148
0.0
149
0.0
100
AcDbLayout
  1
Layout1
 70
     1
 71
     1
 10
0.0
 20
0.0
 11
420.0
 21
297.0
 12
0.0
 22
0.0
 32
0.0
 14
1.0000000000E+20
 24
1.0000000000E+20
 34
1.0000000000E+20
 15
-1.0000000000E+20
 25
-1.0000000000E+20
 35
-1.0000000000E+20
146
0.0
 13
0.0
 23
0.0
 33
0.0
 16
1.0
 26
0.0
 36
0.0
 17
0.0
 27
1.0
 37
0.0
 76
     0
330
1B
  0
LAYOUT
  5
26
102
{ACAD_REACTORS
330
1A
102
}
330
1A
100
AcDbPlotSettings
  1

  2
none_device
  4

  6

 40
0.0
 41
0.0
 42
0.0
 43
0.0
 44
0.0
 45
0.0
 46
0.0
 47
0.0
 48
0.0
 49
0.0
140
0.0
141
0.0
142
1.0
143
1.0
 70
   688
 72
     1
 73
     0
 74
     5
  7

 75
    16
147
1.0
148
0.0
149
0.0
100
AcDbLayout
  1
Layout2
 70
     1
 71
     2
 10
0.0
 20
0.0
 11
0.0
 21
0.0
 12
0.0
 22
0.0
 32
0.0
 14
0.0
 24
0.0
 34
0.0
 15
0.0
 25
0.0
 35
0.0
146
0.0
 13
0.0
 23
0.0
 33
0.0
 16
1.0
 26
0.0
 36
0.0
 17
0.0
 27
1.0
 37
0.0
 76
     0
330
23
  0
LAYOUT
  5
22
102
{ACAD_REACTORS
330
1A
102
}
330
1A
100
AcDbPlotSettings
  1

  2
none_device
  4
Letter_(8.50_x_11.00_Inches)
  6

 40
6.35
 41
6.35
 42
6.35000508
 43
6.35000508
 44
215.9
 45
279.4
 46
0.0
 47
0.0
 48
0.0
 49
0.0
140
0.0
141
0.0
142
1.0
143
1.0
 70
  1712
 72
     1
 73
     0
 74
     0
  7

 75
     0
147
1.0
148
0.0
149
0.0
100
AcDbLayout
  1
Model
 70
     1
 71
     0
 10
0.0
 20
0.0
 11
297.0
 21
210.0
 12
0.0
 22
0.0
 32
0.0
 14
0.0
 24
0.0
 34
0.0
 15
297.0
 25
210.0
 35
0.0
146
0.0
 13
0.0
 23
0.0
 33
0.0
 16
1.0
 26
0.0
 36
0.0
 17
0.0
 27
1.0
 37
0.0
 76
     0
330
1F
331
29
  0
MLINESTYLE
  5
18
102
{ACAD_REACTORS
330
17
102
}
330
17
100
AcDbMlineStyle
  2
Standard
 70
     0
  3

 62
   256
 51
90.0
 52
90.0
 71
     2
 49
0.5
 62
   256
  6
BYLAYER
 49
-0.5
 62
   256
  6
BYLAYER
  0
ACDBPLACEHOLDER
  5
F
102
{ACAD_REACTORS
330
E
102
}
330
E
  0
SCALE
  5
48
102
{ACAD_REACTORS
330
47
102
}
330
47
100
AcDbScale
 70
     0
300
1:1
140
1.0
141
1.0
290
     1
  0
SCALE
  5
49
102
{ACAD_REACTORS
330
47
102
}
330
47
100
AcDbScale
 70
     0
300
1:2
140
1.0
141
2.0
290
     0
  0
SCALE
  5
4A
102
{ACAD_REACTORS
330
47
102
}
330
47
100
AcDbScale
 70
     0
300
1:4
140
1.0
141
4.0
290
     0
  0
SCALE
  5
4B
102
{ACAD_REACTORS
330
47
102
}
330
47
100
AcDbScale
 70
     0
300
1:5
140
1.0
141
5.0
290
     0
  0
SCALE
  5
4C
102
{ACAD_REACTORS
330
47
102
}
330
47
100
AcDbScale
 70
     0
300
1:8
140
1.0
141
8.0
290
     0
  0
SCALE
  5
4D
102
{ACAD_REACTORS
330
47
102
}
330
47
100
AcDbScale
 70
     0
300
1:10
140
1.0
141
10.0
290
     0
  0
SCALE
  5
4E
102
{ACAD_REACTORS
330
47
102
}
330
47
100
AcDbScale
 70
     0
300
1:16
140
1.0
141
16.0
290
     0
  0
SCALE
  5
4F
102
{ACAD_REACTORS
330
47
102
}
330
47
100
AcDbScale
 70
     0
300
1:20
140
1.0
141
20.0
290
     0
  0
SCALE
  5
50
102
{ACAD_REACTORS
330
47
102
}
330
47
100
AcDbScale
 70
     0
300
1:30
140
1.0
141
30.0
290
     0
  0
SCALE
  5
51
102
{ACAD_REACTORS
330
47
102
}
330
47
100
AcDbScale
 70
     0
300
1:40
140
1.0
141
40.0
290
     0
  0
SCALE
  5
52
102
{ACAD_REACTORS
330
47
102
}
330
47
100
AcDbScale
 70
     0
300
1:50
140
1.0
141
50.0
290
     0
  0
SCALE
  5
53
102
{ACAD_REACTORS
330
47
102
}
330
47
100
AcDbScale
 70
     0
300
1:100
140
1.0
141
100.0
290
     0
  0
SCALE
  5
54
102
{ACAD_REACTORS
330
47
102
}
330
47
100
AcDbScale
 70
     0
300
2:1
140
2.0
141
1.0
290
     0
  0
SCALE
  5
55
102
{ACAD_REACTORS
330
47
102
}
330
47
100
AcDbScale
 70
     0
300
4:1
140
4.0
141
1.0
290
     0
  0
SCALE
  5
56
102
{ACAD_REACTORS
330
47
102
}
330
47
100
AcDbScale
 70
     0
300
8:1
140
8.0
141
1.0
290
     0
  0
SCALE
  5
57
102
{ACAD_REACTORS
330
47
102
}
330
47
100
AcDbScale
 70
     0
300
10:1
140
10.0
141
1.0
290
     0
  0
SCALE
  5
58
102
{ACAD_REACTORS
330
47
102
}
330
47
100
AcDbScale
 70
     0
300
100:1
140
100.0
141
1.0
290
     0
  0
SCALE
  5
59
102
{ACAD_REACTORS
330
47
102
}
330
47
100
AcDbScale
 70
     0
300
1/128" = 1'-0"
140
0.0078125
141
12.0
290
     0
  0
SCALE
  5
5A
102
{ACAD_REACTORS
330
47
102
}
330
47
100
AcDbScale
 70
     0
300
1/64" = 1'-0"
140
0.015625
141
12.0
290
     0
  0
SCALE
  5
5B
102
{ACAD_REACTORS
330
47
102
}
330
47
100
AcDbScale
 70
     0
300
1/32" = 1'-0"
140
0.03125
141
12.0
290
     0
  0
SCALE
  5
5C
102
{ACAD_REACTORS
330
47
102
}
330
47
100
AcDbScale
 70
     0
300
1/16" = 1'-0"
140
0.0625
141
12.0
290
     0
  0
SCALE
  5
5D
102
{ACAD_REACTORS
330
47
102
}
330
47
100
AcDbScale
 70
     0
300
3/32" = 1'-0"
140
0.09375
141
12.0
290
     0
  0
SCALE
  5
5E
102
{ACAD_REACTORS
330
47
102
}
330
47
100
AcDbScale
 70
     0
300
1/8" = 1'-0"
140
0.125
141
12.0
290
     0
  0
SCALE
  5
5F
102
{ACAD_REACTORS
330
47
102
}
330
47
100
AcDbScale
 70
     0
300
3/16" = 1'-0"
140
0.1875
141
12.0
290
     0
  0
SCALE
  5
60
102
{ACAD_REACTORS
330
47
102
}
330
47
100
AcDbScale
 70
     0
300
1/4" = 1'-0"
140
0.25
141
12.0
290
     0
  0
SCALE
  5
61
102
{ACAD_REACTORS
330
47
102
}
330
47
100
AcDbScale
 70
     0
300
3/8" = 1'-0"
140
0.375
141
12.0
290
     0
  0
SCALE
  5
62
102
{ACAD_REACTORS
330
47
102
}
330
47
100
AcDbScale
 70
     0
300
1/2" = 1'-0"
140
0.5
141
12.0
290
     0
  0
SCALE
  5
63
102
{ACAD_REACTORS
330
47
102
}
330
47
100
AcDbScale
 70
     0
300
3/4" = 1'-0"
140
0.75
141
12.0
290
     0
  0
SCALE
  5
64
102
{ACAD_REACTORS
330
47
102
}
330
47
100
AcDbScale
 70
     0
300
1" = 1'-0"
140
1.0
141
12.0
290
     0
  0
SCALE
  5
65
102
{ACAD_REACTORS
330
47
102
}
330
47
100
AcDbScale
 70
     0
300
1-1/2" = 1'-0"
140
1.5
141
12.0
290
     0
  0
SCALE
  5
66
102
{ACAD_REACTORS
330
47
102
}
330
47
100
AcDbScale
 70
     0
300
3" = 1'-0"
140
3.0
141
12.0
290
     0
  0
SCALE
  5
67
102
{ACAD_REACTORS
330
47
102
}
330
47
100
AcDbScale
 70
     0
300
6" = 1'-0"
140
6.0
141
12.0
290
     0
  0
SCALE
  5
68
102
{ACAD_REACTORS
330
47
102
}
330
47
100
AcDbScale
 70
     0
300
1'-0" = 1'-0"
140
12.0
141
12.0
290
     0
  0
ENDSEC
  0
EOF
