  0
SECTION
  2
HEADER
  9
$ACADVER
  1
AC1015
  9
$ACADMAINTVER
 70
     6
  9
$DWGCODEPAGE
  3
ANSI_1252
  9
$INSBASE
 10
0.0
 20
0.0
 30
0.0
  9
$EXTMIN
 10
0.0
 20
0.0
 30
0.0
  9
$EXTMAX
 10
297.0
 20
210.0
 30
0.0
  9
$LIMMIN
 10
0.0
 20
0.0
  9
$LIMMAX
 10
297.0
 20
210.0
  9
$ORTHOMODE
 70
     0
  9
$REGENMODE
 70
     1
  9
$FILLMODE
 70
     1
  9
$QTEXTMODE
 70
     0
  9
$MIRRTEXT
 70
     1
  9
$LTSCALE
 40
1.0
  9
$ATTMODE
 70
     1
  9
$TEXTSIZE
 40
2.0
  9
$TRACEWID
 40
1.0
  9
$TEXTSTYLE
  7
Standard
  9
$CLAYER
  8
0
  9
$CELTYPE
  6
ByLayer
  9
$CECOLOR
 62
   256
  9
$CELTSCALE
 40
1.0
  9
$DISPSILH
 70
     0
  9
$DIMSCALE
 40
1.0
  9
$DIMASZ
 40
3.0
  9
$DIMEXO
 40
0.0
  9
$DIMDLI
 40
3.75
  9
$DIMRND
 40
0.0
  9
$DIMDLE
 40
0.0
  9
$DIMEXE
 40
1.0
  9
$DIMTP
 40
0.0
  9
$DIMTM
 40
0.0
  9
$DIMTXT
 40
2.0
  9
$DIMCEN
 40
2.5
  9
$DIMTSZ
 40
0.0
  9
$DIMTOL
 70
     0
  9
$DIMLIM
 70
     0
  9
$DIMTIH
 70
     1
  9
$DIMTOH
 70
     1
  9
$DIMSE1
 70
     0
  9
$DIMSE2
 70
     0
  9
$DIMTAD
 70
     1
  9
$DIMZIN
 70
     0
  9
$DIMBLK
  1

  9
$DIMASO
 70
     1
  9
$DIMSHO
 70
     1
  9
$DIMPOST
  1

  9
$DIMAPOST
  1

  9
$DIMALT
 70
     0
  9
$DIMALTD
 70
     3
  9
$DIMALTF
 40
0.0393700787
  9
$DIMLFAC
 40
2.0
  9
$DIMTOFL
 70
     1
  9
$DIMTVP
 40
0.0
  9
$DIMTIX
 70
     0
  9
$DIMSOXD
 70
     0
  9
$DIMSAH
 70
     0
  9
$DIMBLK1
  1

  9
$DIMBLK2
  1

  9
$DIMSTYLE
  2
ISO-25
  9
$DIMCLRD
 70
     0
  9
$DIMCLRE
 70
     0
  9
$DIMCLRT
 70
     0
  9
$DIMTFAC
 40
1.0
  9
$DIMGAP
 40
1.524
  9
$DIMJUST
 70
     0
  9
$DIMSD1
 70
     0
  9
$DIMSD2
 70
     0
  9
$DIMTOLJ
 70
     0
  9
$DIMTZIN
 70
     0
  9
$DIMALTZ
 70
     0
  9
$DIMALTTZ
 70
     0
  9
$DIMUPT
 70
     0
  9
$DIMDEC
 70
     2
  9
$DIMTDEC
 70
     3
  9
$DIMALTU
 70
     2
  9
$DIMALTTD
 70
     3
  9
$DIMTXSTY
  7
Standard
  9
$DIMAUNIT
 70
     0
  9
$DIMADEC
 70
     2
  9
$DIMALTRND
 40
0.0
  9
$DIMAZIN
 70
     0
  9
$DIMDSEP
 70
    44
  9
$DIMATFIT
 70
     3
  9
$DIMFRAC
 70
     0
  9
$DIMLDRBLK
  1

  9
$DIMLUNIT
 70
     2
  9
$DIMLWD
 70
    -2
  9
$DIMLWE
 70
    -2
  9
$DIMTMOVE
 70
     0
  9
$LUNITS
 70
     2
  9
$LUPREC
 70
     2
  9
$SKETCHINC
 40
1.0
  9
$FILLETRAD
 40
10.0
  9
$AUNITS
 70
     0
  9
$AUPREC
 70
     2
  9
$MENU
  1
.
  9
$ELEVATION
 40
0.0
  9
$PELEVATION
 40
0.0
  9
$THICKNESS
 40
0.0
  9
$LIMCHECK
 70
     0
  9
$CHAMFERA
 40
0.0
  9
$CHAMFERB
 40
0.0
  9
$CHAMFERC
 40
0.0
  9
$CHAMFERD
 40
0.0
  9
$SKPOLY
 70
     0
  9
$TDCREATE
 40
2457675.392064363
  9
$TDUCREATE
 40
2457675.30873103
  9
$TDUPDATE
 40
2457675.392065949
  9
$TDUUPDATE
 40
2457675.308732616
  9
$TDINDWG
 40
0.0000000116
  9
$TDUSRTIMER
 40
0.0000000116
  9
$USRTIMER
 70
     1
  9
$ANGBASE
 50
0.0
  9
$ANGDIR
 70
     0
  9
$PDMODE
 70
     0
  9
$PDSIZE
 40
-1.0
  9
$PLINEWID
 40
0.0
  9
$SPLFRAME
 70
     0
  9
$SPLINETYPE
 70
     6
  9
$SPLINESEGS
 70
     8
  9
$HANDSEED
  5
294
  9
$SURFTAB1
 70
     6
  9
$SURFTAB2
 70
     6
  9
$SURFTYPE
 70
     6
  9
$SURFU
 70
     6
  9
$SURFV
 70
     6
  9
$UCSBASE
  2

  9
$UCSNAME
  2

  9
$UCSORG
 10
0.0
 20
0.0
 30
0.0
  9
$UCSXDIR
 10
1.0
 20
0.0
 30
0.0
  9
$UCSYDIR
 10
0.0
 20
1.0
 30
0.0
  9
$UCSORTHOREF
  2

  9
$UCSORTHOVIEW
 70
     0
  9
$UCSORGTOP
 10
0.0
 20
0.0
 30
0.0
  9
$UCSORGBOTTOM
 10
0.0
 20
0.0
 30
0.0
  9
$UCSORGLEFT
 10
0.0
 20
0.0
 30
0.0
  9
$UCSORGRIGHT
 10
0.0
 20
0.0
 30
0.0
  9
$UCSORGFRONT
 10
0.0
 20
0.0
 30
0.0
  9
$UCSORGBACK
 10
0.0
 20
0.0
 30
0.0
  9
$PUCSBASE
  2

  9
$PUCSNAME
  2

  9
$PUCSORG
 10
0.0
 20
0.0
 30
0.0
  9
$PUCSXDIR
 10
1.0
 20
0.0
 30
0.0
  9
$PUCSYDIR
 10
0.0
 20
1.0
 30
0.0
  9
$PUCSORTHOREF
  2

  9
$PUCSORTHOVIEW
 70
     0
  9
$PUCSORGTOP
 10
0.0
 20
0.0
 30
0.0
  9
$PUCSORGBOTTOM
 10
0.0
 20
0.0
 30
0.0
  9
$PUCSORGLEFT
 10
0.0
 20
0.0
 30
0.0
  9
$PUCSORGRIGHT
 10
0.0
 20
0.0
 30
0.0
  9
$PUCSORGFRONT
 10
0.0
 20
0.0
 30
0.0
  9
$PUCSORGBACK
 10
0.0
 20
0.0
 30
0.0
  9
$USERI1
 70
     0
  9
$USERI2
 70
     0
  9
$USERI3
 70
     0
  9
$USERI4
 70
     0
  9
$USERI5
 70
     0
  9
$USERR1
 40
0.0
  9
$USERR2
 40
0.0
  9
$USERR3
 40
0.0
  9
$USERR4
 40
0.0
  9
$USERR5
 40
0.0
  9
$WORLDVIEW
 70
     1
  9
$SHADEDGE
 70
     3
  9
$SHADEDIF
 70
    70
  9
$TILEMODE
 70
     1
  9
$MAXACTVP
 70
    64
  9
$PINSBASE
 10
0.0
 20
0.0
 30
0.0
  9
$PLIMCHECK
 70
     0
  9
$PEXTMIN
 10
1.0000000000E+20
 20
1.0000000000E+20
 30
1.0000000000E+20
  9
$PEXTMAX
 10
-1.0000000000E+20
 20
-1.0000000000E+20
 30
-1.0000000000E+20
  9
$PLIMMIN
 10
0.0
 20
0.0
  9
$PLIMMAX
 10
420.0
 20
297.0
  9
$UNITMODE
 70
     0
  9
$VISRETAIN
 70
     1
  9
$PLINEGEN
 70
     0
  9
$PSLTSCALE
 70
     1
  9
$TREEDEPTH
 70
  3020
  9
$CMLSTYLE
  2
Standard
  9
$CMLJUST
 70
     0
  9
$CMLSCALE
 40
20.0
  9
$PROXYGRAPHICS
 70
     1
  9
$MEASUREMENT
 70
     1
  9
$CELWEIGHT
370
    -1
  9
$ENDCAPS
280
     0
  9
$JOINSTYLE
280
     0
  9
$LWDISPLAY
290
     1
  9
$INSUNITS
 70
     4
  9
$HYPERLINKBASE
  1

  9
$STYLESHEET
  1

  9
$XEDIT
290
     1
  9
$CEPSNTYPE
380
     0
  9
$PSTYLEMODE
290
     1
  9
$FINGERPRINTGUID
  2
{1E0664A7-811D-467A-B769-20BDADD8F165}
  9
$VERSIONGUID
  2
{FAEB1C32-E019-11D5-929B-00C0DF256EC4}
  9
$EXTNAMES
290
     1
  9
$PSVPSCALE
 40
0.0
  9
$OLESTARTUP
290
     0
  0
ENDSEC
  0
SECTION
  2
CLASSES
  0
CLASS
  1
ACDBDICTIONARYWDFLT
  2
AcDbDictionaryWithDefault
  3
ObjectDBX Classes
 90
        0
280
     0
281
     0
  0
CLASS
  1
VISUALSTYLE
  2
AcDbVisualStyle
  3
ObjectDBX Classes
 90
     4095
280
     0
281
     0
  0
CLASS
  1
MATERIAL
  2
AcDbMaterial
  3
ObjectDBX Classes
 90
     1153
280
     0
281
     0
  0
CLASS
  1
SCALE
  2
AcDbScale
  3
ObjectDBX Classes
 90
     1153
280
     0
281
     0
  0
CLASS
  1
TABLESTYLE
  2
AcDbTableStyle
  3
ObjectDBX Classes
 90
     4095
280
     0
281
     0
  0
CLASS
  1
MLEADERSTYLE
  2
AcDbMLeaderStyle
  3
ACDB_MLEADERSTYLE_CLASS
 90
     4095
280
     0
281
     0
  0
CLASS
  1
SUN
  2
AcDbSun
  3
SCENEOE
 90
     1153
280
     0
281
     0
  0
CLASS
  1
ACDBPLACEHOLDER
  2
AcDbPlaceHolder
  3
ObjectDBX Classes
 90
        0
280
     0
281
     0
  0
CLASS
  1
LAYOUT
  2
AcDbLayout
  3
ObjectDBX Classes
 90
        0
280
     0
281
     0
  0
ENDSEC
  0
SECTION
  2
TABLES
  0
TABLE
  2
VPORT
  5
8
330
0
100
AcDbSymbolTable
 70
     1
  0
VPORT
  5
29
330
8
100
AcDbSymbolTableRecord
100
AcDbViewportTableRecord
  2
*Active
 70
     0
 10
0.0
 20
0.0
 11
1.0
 21
1.0
 12
148.5
 22
105.0
 13
0.0
 23
0.0
 14
10.0
 24
10.0
 15
10.0
 25
10.0
 16
0.0
 26
0.0
 36
1.0
 17
0.0
 27
0.0
 37
0.0
 40
210.0
 41
1.4142857143
 42
50.0
 43
0.0
 44
0.0
 50
0.0
 51
0.0
 71
     0
 72
  2000
 73
     1
 74
     3
 75
     0
 76
     0
 77
     0
 78
     0
281
     0
 65
     1
110
0.0
120
0.0
130
0.0
111
1.0
121
0.0
131
0.0
112
0.0
122
1.0
132
0.0
 79
     0
146
0.0
  0
ENDTAB
  0
TABLE
  2
LTYPE
  5
5
330
0
100
AcDbSymbolTable
 70
     6
  0
LTYPE
  5
14
330
5
100
AcDbSymbolTableRecord
100
AcDbLinetypeTableRecord
  2
ByBlock
 70
     0
  3

 72
    65
 73
     0
 40
0.0
  0
LTYPE
  5
15
330
5
100
AcDbSymbolTableRecord
100
AcDbLinetypeTableRecord
  2
ByLayer
 70
     0
  3

 72
    65
 73
     0
 40
0.0
  0
LTYPE
  5
16
330
5
100
AcDbSymbolTableRecord
100
AcDbLinetypeTableRecord
  2
Continuous
 70
     0
  3
Solid line
 72
    65
 73
     0
 40
0.0
  0
LTYPE
  5
6E
330
5
100
AcDbSymbolTableRecord
100
AcDbLinetypeTableRecord
  2
HIDDEN
 70
     0
  3
Hidden __ __ __ __ __ __ __ __ __ __ __ __ __ __
 72
    65
 73
     2
 40
1.905
 49
1.27
 74
     0
 49
-0.635
 74
     0
  0
LTYPE
  5
6F
330
5
100
AcDbSymbolTableRecord
100
AcDbLinetypeTableRecord
  2
PHANTOM
 70
     0
  3
Phantom ______  __  __  ______  __  __  ______
 72
    65
 73
     6
 40
12.7
 49
6.35
 74
     0
 49
-1.27
 74
     0
 49
1.27
 74
     0
 49
-1.27
 74
     0
 49
1.27
 74
     0
 49
-1.27
 74
     0
  0
LTYPE
  5
70
330
5
100
AcDbSymbolTableRecord
100
AcDbLinetypeTableRecord
  2
CENTER
 70
     0
  3
Center ____ _ ____ _ ____ _ ____ _ ____ _ ____
 72
    65
 73
     4
 40
10.16
 49
6.35
 74
     0
 49
-1.27
 74
     0
 49
1.27
 74
     0
 49
-1.27
 74
     0
  0
LTYPE
  5
71
330
5
100
AcDbSymbolTableRecord
100
AcDbLinetypeTableRecord
  2
CENTERX2
 70
     0
  3
Center (2x) ________  __  ________  __  _____
 72
    65
 73
     4
 40
20.32
 49
12.7
 74
     0
 49
-2.54
 74
     0
 49
2.54
 74
     0
 49
-2.54
 74
     0
  0
LTYPE
  5
72
330
5
100
AcDbSymbolTableRecord
100
AcDbLinetypeTableRecord
  2
DOT2
 70
     0
  3
Dot (.5x) ........................................
 72
    65
 73
     2
 40
0.635
 49
0.0
 74
     0
 49
-0.635
 74
     0
  0
ENDTAB
  0
TABLE
  2
LAYER
  5
2
330
0
100
AcDbSymbolTable
 70
     5
  0
LAYER
  5
10
330
2
100
AcDbSymbolTableRecord
100
AcDbLayerTableRecord
  2
0
 70
     0
 62
     7
  6
Continuous
370
    -3
390
F
  0
LAYER
  5
73
330
2
100
AcDbSymbolTableRecord
100
AcDbLayerTableRecord
  2
FORMAT
 70
     0
 62
     7
  6
Continuous
370
    -3
390
F
  0
LAYER
  5
74
330
2
100
AcDbSymbolTableRecord
100
AcDbLayerTableRecord
  2
VERMASSUNG
 70
     0
 62
     7
  6
Continuous
370
    -3
390
F
  0
LAYER
  5
75
330
2
100
AcDbSymbolTableRecord
100
AcDbLayerTableRecord
  2
KOPF_DÜNN
 70
     0
 62
     7
  6
Continuous
370
    -3
390
F
  0
LAYER
  5
76
330
2
100
AcDbSymbolTableRecord
100
AcDbLayerTableRecord
  2
KOPF_DICK
 70
     0
 62
     7
  6
Continuous
370
    15
390
F
  0
ENDTAB
  0
TABLE
  2
STYLE
  5
3
330
0
100
AcDbSymbolTable
 70
     2
  0
STYLE
  5
11
330
3
100
AcDbSymbolTableRecord
100
AcDbTextStyleTableRecord
  2
Standard
 70
     0
 40
0.0
 41
1.0
 50
0.0
 71
     0
 42
2.0
  3
txt
  4

  0
STYLE
  5
77
330
3
100
AcDbSymbolTableRecord
100
AcDbTextStyleTableRecord
  2
SLDTEXTSTYLE0
 70
     0
 40
0.0
 41
0.7
 50
0.0
 71
     0
 42
2.0
  3
TXT
  4

  0
ENDTAB
  0
TABLE
  2
VIEW
  5
6
330
0
100
AcDbSymbolTable
 70
     0
  0
ENDTAB
  0
TABLE
  2
UCS
  5
7
330
0
100
AcDbSymbolTable
 70
     0
  0
ENDTAB
  0
TABLE
  2
APPID
  5
9
330
0
100
AcDbSymbolTable
 70
     1
  0
APPID
  5
12
330
9
100
AcDbSymbolTableRecord
100
AcDbRegAppTableRecord
  2
ACAD
 70
     0
  0
ENDTAB
  0
TABLE
  2
DIMSTYLE
  5
A
330
0
100
AcDbSymbolTable
 70
     2
100
AcDbDimStyleTable
  0
DIMSTYLE
105
27
330
A
100
AcDbSymbolTableRecord
100
AcDbDimStyleTableRecord
  2
ISO-25
 70
     0
 41
2.5
 42
0.625
 43
3.75
 44
1.25
 73
     0
 74
     0
 77
     1
 78
     8
140
2.5
141
2.5
143
0.0393700787
147
0.625
171
     3
172
     1
178
     0
271
     2
272
     2
274
     3
278
    44
283
     0
284
     8
340
11
  0
DIMSTYLE
105
1A4
102
{ACAD_REACTORS
330
1A3
330
1B0
330
1BB
330
1C7
330
1D3
330
1DD
102
}
330
A
100
AcDbSymbolTableRecord
100
AcDbDimStyleTableRecord
  2
SLDDIMSTYLE0
 70
     0
 41
3.0
 44
0.0
 45
0.000000001
 73
     0
 74
     0
 77
     1
 78
    12
 79
     3
140
2.0
147
0.5
173
     1
178
     0
271
     2
272
     3
276
     2
284
    12
340
77
  0
ENDTAB
  0
TABLE
  2
BLOCK_RECORD
  5
1
330
0
100
AcDbSymbolTable
 70
     7
  0
BLOCK_RECORD
  5
1F
330
1
100
AcDbSymbolTableRecord
100
AcDbBlockTableRecord
  2
*Model_Space
340
22
  0
BLOCK_RECORD
  5
1B
330
1
100
AcDbSymbolTableRecord
100
AcDbBlockTableRecord
  2
*Paper_Space
340
1E
  0
BLOCK_RECORD
  5
23
330
1
100
AcDbSymbolTableRecord
100
AcDbBlockTableRecord
  2
*Paper_Space0
340
26
  0
BLOCK_RECORD
  5
1A5
330
1
100
AcDbSymbolTableRecord
100
AcDbBlockTableRecord
  2
_D
340
0
  0
BLOCK_RECORD
  5
1B1
330
1
100
AcDbSymbolTableRecord
100
AcDbBlockTableRecord
  2
_D_1
340
0
  0
BLOCK_RECORD
  5
1BC
330
1
100
AcDbSymbolTableRecord
100
AcDbBlockTableRecord
  2
_D_2
340
0
  0
BLOCK_RECORD
  5
1C8
330
1
100
AcDbSymbolTableRecord
100
AcDbBlockTableRecord
  2
_D_3
340
0
  0
BLOCK_RECORD
  5
1D4
330
1
100
AcDbSymbolTableRecord
100
AcDbBlockTableRecord
  2
_D_4
340
0
  0
BLOCK_RECORD
  5
1DE
330
1
100
AcDbSymbolTableRecord
100
AcDbBlockTableRecord
  2
_D_5
340
0
  0
ENDTAB
  0
ENDSEC
  0
SECTION
  2
BLOCKS
  0
BLOCK
  5
20
330
1F
100
AcDbEntity
  8
0
100
AcDbBlockBegin
  2
*Model_Space
 70
     0
 10
0.0
 20
0.0
 30
0.0
  3
*Model_Space
  1

  0
ENDBLK
  5
21
330
1F
100
AcDbEntity
  8
0
100
AcDbBlockEnd
  0
BLOCK
  5
1C
330
1B
100
AcDbEntity
 67
     1
  8
0
100
AcDbBlockBegin
  2
*Paper_Space
 70
     0
 10
0.0
 20
0.0
 30
0.0
  3
*Paper_Space
  1

  0
ENDBLK
  5
1D
330
1B
100
AcDbEntity
 67
     1
  8
0
100
AcDbBlockEnd
  0
BLOCK
  5
24
330
23
100
AcDbEntity
  8
0
100
AcDbBlockBegin
  2
*Paper_Space0
 70
     0
 10
0.0
 20
0.0
 30
0.0
  3
*Paper_Space0
  1

  0
ENDBLK
  5
25
330
23
100
AcDbEntity
  8
0
100
AcDbBlockEnd
  0
BLOCK
  5
1A6
330
1A5
100
AcDbEntity
  8
0
100
AcDbBlockBegin
  2
_D
 70
     0
 10
0.0
 20
0.0
 30
0.0
  3
_D
  1

  0
SOLID
  5
1A8
330
1A5
100
AcDbEntity
  8
VERMASSUNG
100
AcDbTrace
 10
90.2124324423
 20
146.910739677
 30
0.0
 11
89.7624324423
 21
143.910739677
 31
0.0
 12
90.6624324423
 22
143.910739677
 32
0.0
 13
90.6624324423
 23
143.910739677
 33
0.0
  0
SOLID
  5
1A9
330
1A5
100
AcDbEntity
  8
VERMASSUNG
100
AcDbTrace
 10
90.2124324423
 20
83.910739677
 30
0.0
 11
90.6624324423
 21
86.910739677
 31
0.0
 12
89.7624324423
 22
86.910739677
 32
0.0
 13
89.7624324423
 23
86.910739677
 33
0.0
  0
LINE
  5
1AA
330
1A5
100
AcDbEntity
  8
VERMASSUNG
100
AcDbLine
 10
132.5577362847
 20
146.910739677
 30
0.0
 11
89.2124324423
 21
146.910739677
 31
0.0
  0
LINE
  5
1AB
330
1A5
100
AcDbEntity
  8
VERMASSUNG
100
AcDbLine
 10
132.5577362847
 20
83.910739677
 30
0.0
 11
89.2124324423
 21
83.910739677
 31
0.0
  0
LINE
  5
1AC
330
1A5
100
AcDbEntity
  8
VERMASSUNG
100
AcDbLine
 10
90.2124324423
 20
146.910739677
 30
0.0
 11
90.2124324423
 21
83.910739677
 31
0.0
  0
MTEXT
  5
1AD
330
1A5
100
AcDbEntity
  8
VERMASSUNG
100
AcDbMText
 10
87.4342971861
 20
107.7057403792
 30
0.0
 40
2.0
 41
0.0
 71
     1
 72
     1
  1
HSK A
  7
SLDTEXTSTYLE0
 11
-7.044195017643634E-15
 21
1.0
 31
0.0
 73
     1
 44
1.0
  0
MTEXT
  5
1AE
330
1A5
100
AcDbEntity
  8
VERMASSUNG
100
AcDbMText
 10
87.6342971374
 20
116.7057399917
 30
0.0
 40
2.0
 41
0.0
 71
     1
 72
     1
  1
%%c
  7
SLDTEXTSTYLE0
 11
-7.044195017643634E-15
 21
1.0
 31
0.0
 73
     1
 44
1.0
  0
MTEXT
  5
1AF
330
1A5
100
AcDbEntity
  8
VERMASSUNG
100
AcDbMText
 10
87.4342971861
 20
120.315740006
 30
0.0
 40
2.0
 41
0.0
 71
     1
 72
     1
  1
63
  7
SLDTEXTSTYLE0
 11
-7.044195017643634E-15
 21
1.0
 31
0.0
 73
     1
 44
1.0
  0
ENDBLK
  5
1A7
330
1A5
100
AcDbEntity
  8
0
100
AcDbBlockEnd
  0
BLOCK
  5
1B2
330
1B1
100
AcDbEntity
  8
0
100
AcDbBlockBegin
  2
_D_1
 70
     0
 10
0.0
 20
0.0
 30
0.0
  3
_D_1
  1

  0
SOLID
  5
1B4
330
1B1
100
AcDbEntity
  8
VERMASSUNG
100
AcDbTrace
 10
205.1065950699
 20
129.410739677
 30
0.0
 11
204.6565950699
 21
126.410739677
 31
0.0
 12
205.5565950699
 22
126.410739677
 32
0.0
 13
205.5565950699
 23
126.410739677
 33
0.0
  0
SOLID
  5
1B5
330
1B1
100
AcDbEntity
  8
VERMASSUNG
100
AcDbTrace
 10
205.1065950699
 20
101.410739677
 30
0.0
 11
205.5565950699
 21
104.410739677
 31
0.0
 12
204.6565950699
 22
104.410739677
 32
0.0
 13
204.6565950699
 23
104.410739677
 33
0.0
  0
LINE
  5
1B6
330
1B1
100
AcDbEntity
  8
VERMASSUNG
100
AcDbLine
 10
196.2577362847
 20
129.410739677
 30
0.0
 11
206.1065950699
 21
129.410739677
 31
0.0
  0
LINE
  5
1B7
330
1B1
100
AcDbEntity
  8
VERMASSUNG
100
AcDbLine
 10
196.2577362847
 20
101.410739677
 30
0.0
 11
206.1065950699
 21
101.410739677
 31
0.0
  0
LINE
  5
1B8
330
1B1
100
AcDbEntity
  8
VERMASSUNG
100
AcDbLine
 10
205.1065950699
 20
129.410739677
 30
0.0
 11
205.1065950699
 21
101.410739677
 31
0.0
  0
MTEXT
  5
1B9
330
1B1
100
AcDbEntity
  8
VERMASSUNG
100
AcDbMText
 10
202.5284597649
 20
112.2057397198
 30
0.0
 40
2.0
 41
0.0
 71
     1
 72
     1
  1
%%c
  7
SLDTEXTSTYLE0
 11
-7.044195017643634E-15
 21
1.0
 31
0.0
 73
     1
 44
1.0
  0
MTEXT
  5
1BA
330
1B1
100
AcDbEntity
  8
VERMASSUNG
100
AcDbMText
 10
202.3284598136
 20
115.8157397341
 30
0.0
 40
2.0
 41
0.0
 71
     1
 72
     1
  1
28
  7
SLDTEXTSTYLE0
 11
-7.044195017643634E-15
 21
1.0
 31
0.0
 73
     1
 44
1.0
  0
ENDBLK
  5
1B3
330
1B1
100
AcDbEntity
  8
0
100
AcDbBlockEnd
  0
BLOCK
  5
1BD
330
1BC
100
AcDbEntity
  8
0
100
AcDbBlockBegin
  2
_D_2
 70
     0
 10
0.0
 20
0.0
 30
0.0
  3
_D_2
  1

  0
SOLID
  5
1BF
330
1BC
100
AcDbEntity
  8
VERMASSUNG
100
AcDbTrace
 10
211.1065950699
 20
140.410739677
 30
0.0
 11
210.6565950699
 21
137.410739677
 31
0.0
 12
211.5565950699
 22
137.410739677
 32
0.0
 13
211.5565950699
 23
137.410739677
 33
0.0
  0
SOLID
  5
1C0
330
1BC
100
AcDbEntity
  8
VERMASSUNG
100
AcDbTrace
 10
211.1065950699
 20
90.410739677
 30
0.0
 11
211.5565950699
 21
93.410739677
 31
0.0
 12
210.6565950699
 22
93.410739677
 32
0.0
 13
210.6565950699
 23
93.410739677
 33
0.0
  0
LINE
  5
1C1
330
1BC
100
AcDbEntity
  8
VERMASSUNG
100
AcDbLine
 10
196.7577362847
 20
140.410739677
 30
0.0
 11
212.1065950699
 21
140.410739677
 31
0.0
  0
LINE
  5
1C2
330
1BC
100
AcDbEntity
  8
VERMASSUNG
100
AcDbLine
 10
196.7577362847
 20
90.410739677
 30
0.0
 11
212.1065950699
 21
90.410739677
 31
0.0
  0
LINE
  5
1C3
330
1BC
100
AcDbEntity
  8
VERMASSUNG
100
AcDbLine
 10
211.1065950699
 20
140.410739677
 30
0.0
 11
211.1065950699
 21
90.410739677
 31
0.0
  0
MTEXT
  5
1C4
330
1BC
100
AcDbEntity
  8
VERMASSUNG
100
AcDbMText
 10
208.3284598136
 20
110.3057396877
 30
0.0
 40
2.0
 41
0.0
 71
     1
 72
     1
  1
WH
  7
SLDTEXTSTYLE0
 11
-7.044195017643634E-15
 21
1.0
 31
0.0
 73
     1
 44
1.0
  0
MTEXT
  5
1C5
330
1BC
100
AcDbEntity
  8
VERMASSUNG
100
AcDbMText
 10
208.5284597649
 20
114.1057397518
 30
0.0
 40
2.0
 41
0.0
 71
     1
 72
     1
  1
%%c
  7
SLDTEXTSTYLE0
 11
-7.044195017643634E-15
 21
1.0
 31
0.0
 73
     1
 44
1.0
  0
MTEXT
  5
1C6
330
1BC
100
AcDbEntity
  8
VERMASSUNG
100
AcDbMText
 10
208.3284598136
 20
117.7157397661
 30
0.0
 40
2.0
 41
0.0
 71
     1
 72
     1
  1
50
  7
SLDTEXTSTYLE0
 11
-7.044195017643634E-15
 21
1.0
 31
0.0
 73
     1
 44
1.0
  0
ENDBLK
  5
1BE
330
1BC
100
AcDbEntity
  8
0
100
AcDbBlockEnd
  0
BLOCK
  5
1C9
330
1C8
100
AcDbEntity
  8
0
100
AcDbBlockBegin
  2
_D_3
 70
     0
 10
0.0
 20
0.0
 30
0.0
  3
_D_3
  1

  0
ARC
  5
1CB
330
1C8
100
AcDbEntity
  8
VERMASSUNG
100
AcDbCircle
 10
178.4327365217
 20
151.6200244838
 30
0.0
 40
4.248529228887633
100
AcDbArc
 50
153.4349488229
 51
206.5650511771
  0
ARC
  5
1CC
330
1C8
100
AcDbEntity
  8
VERMASSUNG
100
AcDbCircle
 10
177.0327361059
 20
151.6200244838
 30
0.0
 40
4.248529228887608
100
AcDbArc
 50
333.4349488229
 51
26.5650511771
  0
SOLID
  5
1CD
330
1C8
100
AcDbEntity
  8
VERMASSUNG
100
AcDbTrace
 10
197.2577362847
 20
149.7200242189
 30
0.0
 11
194.2577362847
 21
150.1700242189
 31
0.0
 12
194.2577362847
 22
149.2700242189
 32
0.0
 13
194.2577362847
 23
149.2700242189
 33
0.0
  0
SOLID
  5
1CE
330
1C8
100
AcDbEntity
  8
VERMASSUNG
100
AcDbTrace
 10
158.2077362847
 20
149.7200242189
 30
0.0
 11
161.2077362847
 21
149.2700242189
 31
0.0
 12
161.2077362847
 22
150.1700242189
 32
0.0
 13
161.2077362847
 23
150.1700242189
 33
0.0
  0
LINE
  5
1CF
330
1C8
100
AcDbEntity
  8
VERMASSUNG
100
AcDbLine
 10
197.2577362847
 20
139.910739677
 30
0.0
 11
197.2577362847
 21
150.7200242189
 31
0.0
  0
LINE
  5
1D0
330
1C8
100
AcDbEntity
  8
VERMASSUNG
100
AcDbLine
 10
158.2077362847
 20
145.2571800008
 30
0.0
 11
158.2077362847
 21
150.7200242189
 31
0.0
  0
LINE
  5
1D1
330
1C8
100
AcDbEntity
  8
VERMASSUNG
100
AcDbLine
 10
197.2577362847
 20
149.7200242189
 30
0.0
 11
158.2077362847
 21
149.7200242189
 31
0.0
  0
MTEXT
  5
1D2
330
1C8
100
AcDbEntity
  8
VERMASSUNG
100
AcDbMText
 10
174.6327364576
 20
152.2981600477
 30
0.0
 40
2.0
 41
0.0
 71
     1
 72
     1
  1
39.05
  7
SLDTEXTSTYLE0
 73
     1
 44
1.0
  0
ENDBLK
  5
1CA
330
1C8
100
AcDbEntity
  8
0
100
AcDbBlockEnd
  0
BLOCK
  5
1D5
330
1D4
100
AcDbEntity
  8
0
100
AcDbBlockBegin
  2
_D_4
 70
     0
 10
0.0
 20
0.0
 30
0.0
  3
_D_4
  1

  0
SOLID
  5
1D7
330
1D4
100
AcDbEntity
  8
VERMASSUNG
100
AcDbTrace
 10
197.2577362847
 20
155.7200242189
 30
0.0
 11
194.2577362847
 21
156.1700242189
 31
0.0
 12
194.2577362847
 22
155.2700242189
 32
0.0
 13
194.2577362847
 23
155.2700242189
 33
0.0
  0
SOLID
  5
1D8
330
1D4
100
AcDbEntity
  8
VERMASSUNG
100
AcDbTrace
 10
132.2577362847
 20
155.7200242189
 30
0.0
 11
135.2577362847
 21
155.2700242189
 31
0.0
 12
135.2577362847
 22
156.1700242189
 32
0.0
 13
135.2577362847
 23
156.1700242189
 33
0.0
  0
LINE
  5
1D9
330
1D4
100
AcDbEntity
  8
VERMASSUNG
100
AcDbLine
 10
197.2577362847
 20
139.910739677
 30
0.0
 11
197.2577362847
 21
156.7200242189
 31
0.0
  0
LINE
  5
1DA
330
1D4
100
AcDbEntity
  8
VERMASSUNG
100
AcDbLine
 10
132.2577362847
 20
146.610739677
 30
0.0
 11
132.2577362847
 21
156.7200242189
 31
0.0
  0
LINE
  5
1DB
330
1D4
100
AcDbEntity
  8
VERMASSUNG
100
AcDbLine
 10
197.2577362847
 20
155.7200242189
 30
0.0
 11
132.2577362847
 21
155.7200242189
 31
0.0
  0
MTEXT
  5
1DC
330
1D4
100
AcDbEntity
  8
VERMASSUNG
100
AcDbMText
 10
163.3577363346
 20
158.2981598149
 30
0.0
 40
2.0
 41
0.0
 71
     1
 72
     1
  1
65
  7
SLDTEXTSTYLE0
 73
     1
 44
1.0
  0
ENDBLK
  5
1D6
330
1D4
100
AcDbEntity
  8
0
100
AcDbBlockEnd
  0
BLOCK
  5
1DF
330
1DE
100
AcDbEntity
  8
0
100
AcDbBlockBegin
  2
_D_5
 70
     0
 10
0.0
 20
0.0
 30
0.0
  3
_D_5
  1

  0
ARC
  5
1E1
330
1DE
100
AcDbEntity
  8
VERMASSUNG
100
AcDbCircle
 10
150.2077364967
 20
163.6200244838
 30
0.0
 40
4.248529228887608
100
AcDbArc
 50
153.4349488229
 51
206.5650511771
  0
ARC
  5
1E2
330
1DE
100
AcDbEntity
  8
VERMASSUNG
100
AcDbCircle
 10
147.4077361309
 20
163.6200244838
 30
0.0
 40
4.248529228887633
100
AcDbArc
 50
333.4349488229
 51
26.5650511771
  0
SOLID
  5
1E3
330
1DE
100
AcDbEntity
  8
VERMASSUNG
100
AcDbTrace
 10
197.2577362847
 20
161.7200242189
 30
0.0
 11
194.2577362847
 21
162.1700242189
 31
0.0
 12
194.2577362847
 22
161.2700242189
 32
0.0
 13
194.2577362847
 23
161.2700242189
 33
0.0
  0
SOLID
  5
1E4
330
1DE
100
AcDbEntity
  8
VERMASSUNG
100
AcDbTrace
 10
100.3577362847
 20
161.7200242189
 30
0.0
 11
103.3577362847
 21
161.2700242189
 31
0.0
 12
103.3577362847
 22
162.1700242189
 32
0.0
 13
103.3577362847
 23
162.1700242189
 33
0.0
  0
LINE
  5
1E5
330
1DE
100
AcDbEntity
  8
VERMASSUNG
100
AcDbLine
 10
197.2577362847
 20
139.910739677
 30
0.0
 11
197.2577362847
 21
162.7200242189
 31
0.0
  0
LINE
  5
1E6
330
1DE
100
AcDbEntity
  8
VERMASSUNG
100
AcDbLine
 10
100.3577362847
 20
135.1014174235
 30
0.0
 11
100.3577362847
 21
162.7200242189
 31
0.0
  0
LINE
  5
1E7
330
1DE
100
AcDbEntity
  8
VERMASSUNG
100
AcDbLine
 10
197.2577362847
 20
161.7200242189
 30
0.0
 11
100.3577362847
 21
161.7200242189
 31
0.0
  0
MTEXT
  5
1E8
330
1DE
100
AcDbEntity
  8
VERMASSUNG
100
AcDbMText
 10
146.4077364326
 20
164.2981600477
 30
0.0
 40
2.0
 41
0.0
 71
     1
 72
     1
  1
96.9
  7
SLDTEXTSTYLE0
 73
     1
 44
1.0
  0
ENDBLK
  5
1E0
330
1DE
100
AcDbEntity
  8
0
100
AcDbBlockEnd
  0
ENDSEC
  0
SECTION
  2
ENTITIES
  0
MTEXT
  5
78
330
1F
100
AcDbEntity
  8
KOPF_DÜNN
100
AcDbMText
 10
13.8892156294
 20
23.8442973028
 30
0.0
 40
3.0
 41
0.0
 71
     1
 72
     1
  1
A44.806.050.065
  7
SLDTEXTSTYLE0
 73
     1
 44
1.0
  0
MTEXT
  5
79
330
1F
100
AcDbEntity
  8
VERMASSUNG
100
AcDbMText
 10
13.9329988022
 20
28.8834360957
 30
0.0
 40
3.0
 41
0.0
 71
     1
 72
     1
  1
Aufnahme Master shank WH50
  7
SLDTEXTSTYLE0
 73
     1
 44
1.0
  0
MTEXT
  5
7A
330
1F
100
AcDbEntity
  8
VERMASSUNG
100
AcDbMText
 10
98.8601118557
 20
13.8365368761
 30
0.0
 40
2.0
 41
0.0
 71
     1
 72
     1
  1
Datum: 25.11.2011
  7
SLDTEXTSTYLE0
 73
     1
 44
1.0
  0
MTEXT
  5
7B
330
1F
100
AcDbEntity
  8
VERMASSUNG
100
AcDbMText
 10
13.933048693
 20
18.0482802738
 30
0.0
 40
2.0
 41
0.0
 71
     1
 72
     1
  1
DIN 69893
  7
SLDTEXTSTYLE0
 73
     1
 44
1.0
  0
MTEXT
  5
7C
330
1F
100
AcDbEntity
  8
VERMASSUNG
100
AcDbMText
 10
13.9808475933
 20
13.9090974274
 30
0.0
 40
2.0
 41
0.0
 71
     1
 72
     1
  1
Gewicht: 1101g
  7
SLDTEXTSTYLE0
 73
     1
 44
1.0
  0
LINE
  5
7D
330
1F
100
AcDbEntity
  8
0
  6
Continuous
 62
     7
370
    15
100
AcDbLine
 10
188.8332318165
 20
140.0852441452
 30
0.0
 11
188.5077362847
 21
140.410739677
 31
0.0
  0
LINE
  5
7E
330
1F
100
AcDbEntity
  8
0
  6
Continuous
 62
     7
370
    15
100
AcDbLine
 10
177.9077362847
 20
140.410739677
 30
0.0
 11
177.5806815212
 21
140.0836849135
 31
0.0
  0
LINE
  5
7F
330
1F
100
AcDbEntity
  8
0
  6
Continuous
 62
     7
370
    15
100
AcDbLine
 10
132.5577362847
 20
83.910739677
 30
0.0
 11
137.2077362847
 21
83.910739677
 31
0.0
  0
LINE
  5
80
330
1F
100
AcDbEntity
  8
0
  6
Continuous
 62
     7
370
    15
100
AcDbLine
 10
137.2170443715
 20
146.910739677
 30
0.0
 11
132.5577362847
 21
146.910739677
 31
0.0
  0
ARC
  5
81
330
1F
100
AcDbEntity
  8
0
  6
Continuous
 62
     7
370
    15
100
AcDbCircle
 10
132.5577362847
 20
84.210739677
 30
0.0
 40
0.3000000000000114
100
AcDbArc
 50
180.0
 51
270.0
  0
ARC
  5
82
330
1F
100
AcDbEntity
  8
0
  6
Continuous
 62
     7
370
    15
100
AcDbCircle
 10
132.5577362847
 20
146.610739677
 30
0.0
 40
0.3000000000000114
100
AcDbArc
 50
90.0
 51
180.0
  0
ARC
  5
83
330
1F
100
AcDbEntity
  8
0
  6
Continuous
 62
     7
370
    15
100
AcDbCircle
 10
161.2077362847
 20
87.410739677
 30
0.0
 40
3.000000000000005
100
AcDbArc
 50
90.0
 51
147.7858795752
  0
ARC
  5
84
330
1F
100
AcDbEntity
  8
0
  6
Continuous
 62
     7
370
    15
100
AcDbCircle
 10
161.2077362847
 20
143.410739677
 30
0.0
 40
3.000000000000028
100
AcDbArc
 50
212.129183246
 51
270.0
  0
LINE
  5
85
330
1F
100
AcDbEntity
  8
0
  6
Continuous
 62
     7
370
    15
100
AcDbLine
 10
196.7577362847
 20
90.410739677
 30
0.0
 11
197.2577362847
 21
90.910739677
 31
0.0
  0
LINE
  5
86
330
1F
100
AcDbEntity
  8
0
  6
Continuous
 62
     7
370
    15
100
AcDbLine
 10
197.2577362847
 20
139.910739677
 30
0.0
 11
196.7577362847
 21
140.410739677
 31
0.0
  0
LINE
  5
87
330
1F
100
AcDbEntity
  8
0
  6
Continuous
 62
     7
370
    15
100
AcDbLine
 10
175.9717015735
 20
140.410739677
 30
0.0
 11
161.2077362847
 21
140.410739677
 31
0.0
  0
LINE
  5
88
330
1F
100
AcDbEntity
  8
0
  6
Continuous
 62
     7
370
    15
100
AcDbLine
 10
196.7577362847
 20
140.410739677
 30
0.0
 11
190.4568488464
 21
140.410739677
 31
0.0
  0
LINE
  5
89
330
1F
100
AcDbEntity
  8
0
  6
Continuous
 62
     7
370
    15
100
AcDbLine
 10
161.2077362847
 20
90.410739677
 30
0.0
 11
196.7577362847
 21
90.410739677
 31
0.0
  0
ARC
  5
8A
330
1F
100
AcDbEntity
  8
0
  6
Continuous
 62
     7
370
    15
100
AcDbCircle
 10
131.757729532
 20
90.8403020626
 30
0.0
 40
0.6000067526677124
100
AcDbArc
 50
33.5571153394
 51
90.0
  0
ARC
  5
8B
330
1F
100
AcDbEntity
  8
0
  6
Continuous
 62
     7
370
    15
100
AcDbCircle
 10
131.757729532
 20
139.9811772914
 30
0.0
 40
0.600006752667736
100
AcDbArc
 50
270.0
 51
326.4428846606
  0
LINE
  5
8C
330
1F
100
AcDbEntity
  8
0
  6
Continuous
 62
     7
370
    15
100
AcDbLine
 10
119.0262274859
 20
139.0684696971
 30
0.0
 11
106.4577362847
 21
138.4387857692
 31
0.0
  0
LINE
  5
8D
330
1F
100
AcDbEntity
  8
0
  6
Continuous
 62
     7
370
    15
100
AcDbLine
 10
130.2577362847
 20
139.6311705387
 30
0.0
 11
127.4407346273
 21
139.4900381912
 31
0.0
  0
LINE
  5
8E
330
1F
100
AcDbEntity
  8
0
  6
Continuous
 62
     7
370
    15
100
AcDbLine
 10
127.4407907174
 20
91.3314383527
 30
0.0
 11
130.2577362847
 21
91.1903088153
 31
0.0
  0
LINE
  5
8F
330
1F
100
AcDbEntity
  8
0
  6
Continuous
 62
     7
370
    15
100
AcDbLine
 10
110.4577362847
 20
92.1822927832
 30
0.0
 11
119.0266300045
 21
91.7529894907
 31
0.0
  0
LINE
  5
90
330
1F
100
AcDbEntity
  8
0
  6
Continuous
 62
     7
370
    15
100
AcDbLine
 10
130.2577362847
 20
91.1903088153
 30
0.0
 11
131.1144490581
 21
91.4198643111
 31
0.0
  0
LINE
  5
91
330
1F
100
AcDbEntity
  8
0
  6
Continuous
 62
     7
370
    15
100
AcDbLine
 10
131.1144490581
 20
139.401615043
 30
0.0
 11
130.2577362847
 21
139.6311705387
 31
0.0
  0
ARC
  5
92
330
1F
100
AcDbEntity
  8
0
  6
Continuous
 62
     7
370
    15
100
AcDbCircle
 10
131.2697404851
 20
90.8403088153
 30
0.0
 40
0.6000000000000071
100
AcDbArc
 50
90.0
 51
105.0
  0
ARC
  5
93
330
1F
100
AcDbEntity
  8
0
  6
Continuous
 62
     7
370
    15
100
AcDbCircle
 10
131.2697404851
 20
139.9811705387
 30
0.0
 40
0.5999999999999943
100
AcDbArc
 50
255.0
 51
270.0
  0
LINE
  5
94
330
1F
100
AcDbEntity
  8
0
  6
Continuous
 62
     7
370
    15
100
AcDbLine
 10
131.2697404851
 20
91.4403088153
 30
0.0
 11
131.757729532
 21
91.4403088153
 31
0.0
  0
LINE
  5
95
330
1F
100
AcDbEntity
  8
0
  6
Continuous
 62
     7
370
    15
100
AcDbLine
 10
131.757729532
 20
139.3811705387
 30
0.0
 11
131.2697404851
 21
139.3811705387
 31
0.0
  0
LINE
  5
96
330
1F
100
AcDbEntity
  8
0
  6
Continuous
 62
     7
370
    15
100
AcDbLine
 10
101.6410729247
 20
94.540739677
 30
0.0
 11
109.0577362847
 21
94.540739677
 31
0.0
  0
ARC
  5
97
330
1F
100
AcDbEntity
  8
0
  6
Continuous
 62
     7
370
    15
100
AcDbCircle
 10
109.0577362847
 20
93.140739677
 30
0.0
 40
1.400000000000006
100
AcDbArc
 50
42.2465410162
 51
90.0
  0
LINE
  5
98
330
1F
100
AcDbEntity
  8
0
  6
Continuous
 62
     7
370
    15
100
AcDbLine
 10
100.3587687788
 20
95.6897071829
 30
0.0
 11
101.4988997429
 21
94.5495762188
 31
0.0
  0
LINE
  5
99
330
1F
100
AcDbEntity
  8
0
  6
Continuous
 62
     7
370
    15
100
AcDbLine
 10
101.4988997429
 20
136.2719031352
 30
0.0
 11
100.3676370581
 21
135.1406404504
 31
0.0
  0
ARC
  5
9A
330
1F
100
AcDbEntity
  8
0
  6
Continuous
 62
     7
370
    15
100
AcDbCircle
 10
105.0577362847
 20
137.680739677
 30
0.0
 40
1.400000000000015
100
AcDbArc
 50
270.0
 51
301.7485287426
  0
LINE
  5
9B
330
1F
100
AcDbEntity
  8
0
  6
Continuous
 62
     7
370
    15
100
AcDbLine
 10
105.0577362847
 20
136.280739677
 30
0.0
 11
101.6320020186
 21
136.280739677
 31
0.0
  0
SPLINE
  5
9C
330
1F
100
AcDbEntity
  8
0
  6
Continuous
 62
     7
370
    15
100
AcDbSpline
210
0.0
220
0.0
230
1.0
 70
    24
 71
     3
 72
    11
 73
     7
 74
     0
 42
0.000000001
 43
0.00000001
 40
0.0
 40
0.0
 40
0.0
 40
0.0
 40
0.2164553779443456
 40
0.4403112895790611
 40
0.7519005688038924
 40
0.9999999999999999
 40
0.9999999999999999
 40
0.9999999999999999
 40
0.9999999999999999
 10
182.777656261298
 20
111.9734396939679
 30
0.0
 10
182.9962996484383
 20
112.0656549972497
 30
0.0
 10
183.4410617636788
 20
112.2532384127903
 30
0.0
 10
184.2664214609738
 20
112.6013431316117
 30
0.0
 10
185.1517677885175
 20
112.9747478852228
 30
0.0
 10
185.7183362734712
 20
113.2137045047358
 30
0.0
 10
185.9694853787389
 20
113.3196294595865
 30
0.0
  0
SPLINE
  5
9D
330
1F
100
AcDbEntity
  8
0
  6
Continuous
 62
     7
370
    15
100
AcDbSpline
210
0.0
220
0.0
230
1.0
 70
    24
 71
     3
 72
    11
 73
     7
 74
     0
 42
0.000000001
 43
0.00000001
 40
0.0
 40
0.0
 40
0.0
 40
0.0
 40
0.2164553779443396
 40
0.4403112895790676
 40
0.7519005688038918
 40
1.0
 40
1.0
 40
1.0
 40
1.0
 10
185.9694853787389
 20
113.3196294595865
 30
0.0
 10
185.9989462770494
 20
113.5550878388604
 30
0.0
 10
186.0588753314829
 20
114.0340548370699
 30
0.0
 10
186.1700876504537
 20
114.9228896615978
 30
0.0
 10
186.2893828117043
 20
115.8763244492035
 30
0.0
 10
186.3657245512806
 20
116.4864654599135
 30
0.0
 10
186.3995654021192
 20
116.7569294426384
 30
0.0
  0
SPLINE
  5
9E
330
1F
100
AcDbEntity
  8
0
  6
Continuous
 62
     7
370
    15
100
AcDbSpline
210
0.0
220
0.0
230
1.0
 70
    24
 71
     3
 72
    13
 73
     9
 74
     0
 42
0.000000001
 43
0.00000001
 40
0.0
 40
0.0
 40
0.0
 40
0.0
 40
0.1844095697099131
 40
0.3495005370884484
 40
0.5197705331556385
 40
0.6927076360809591
 40
0.8718061725834126
 40
0.9999999999999999
 40
0.9999999999999999
 40
0.9999999999999999
 40
0.9999999999999999
 10
186.3995654021192
 20
116.7569294426384
 30
0.0
 10
186.2386033619649
 20
116.878804875678
 30
0.0
 10
185.9335415391255
 20
117.1097881666875
 30
0.0
 10
185.448615894922
 20
117.4769587295275
 30
0.0
 10
184.9585883480686
 20
117.8479922938194
 30
0.0
 10
184.4577501033699
 20
118.2272113811083
 30
0.0
 10
184.0160921564822
 20
118.5616209939633
 30
0.0
 10
183.7491691587192
 20
118.7637267569707
 30
0.0
 10
183.6378163080583
 20
118.8480396600719
 30
0.0
  0
SPLINE
  5
9F
330
1F
100
AcDbEntity
  8
0
  6
Continuous
 62
     7
370
    15
100
AcDbSpline
210
0.0
220
0.0
230
1.0
 70
    24
 71
     3
 72
    11
 73
     7
 74
     0
 42
0.000000001
 43
0.00000001
 40
0.0
 40
0.0
 40
0.0
 40
0.0
 40
0.2164553779443318
 40
0.4403112895790575
 40
0.7519005688038726
 40
1.0
 40
1.0
 40
1.0
 40
1.0
 10
183.6378163080583
 20
118.8480396600719
 30
0.0
 10
183.419172920918
 20
118.75582435679
 30
0.0
 10
182.9744108056775
 20
118.5682409412493
 30
0.0
 10
182.1490511083825
 20
118.2201362224282
 30
0.0
 10
181.2637047808388
 20
117.8467314688169
 30
0.0
 10
180.6971362958851
 20
117.6077748493039
 30
0.0
 10
180.4459871906174
 20
117.5018498944533
 30
0.0
  0
SPLINE
  5
A0
330
1F
100
AcDbEntity
  8
0
  6
Continuous
 62
     7
370
    15
100
AcDbSpline
210
0.0
220
0.0
230
1.0
 70
    24
 71
     3
 72
    11
 73
     7
 74
     0
 42
0.000000001
 43
0.00000001
 40
0.0
 40
0.0
 40
0.0
 40
0.0
 40
0.2164553779443458
 40
0.4403112895790558
 40
0.7519005688038726
 40
1.0
 40
1.0
 40
1.0
 40
1.0
 10
180.4459871906174
 20
117.5018498944533
 30
0.0
 10
180.4165262923069
 20
117.2663915151794
 30
0.0
 10
180.3565972378735
 20
116.7874245169698
 30
0.0
 10
180.2453849189025
 20
115.8985896924419
 30
0.0
 10
180.1260897576519
 20
114.9451549048363
 30
0.0
 10
180.0497480180757
 20
114.3350138941262
 30
0.0
 10
180.0159071672372
 20
114.0645499114013
 30
0.0
  0
SPLINE
  5
A1
330
1F
100
AcDbEntity
  8
0
  6
Continuous
 62
     7
370
    15
100
AcDbSpline
210
0.0
220
0.0
230
1.0
 70
    24
 71
     3
 72
    12
 73
     8
 74
     0
 42
0.000000001
 43
0.00000001
 40
0.0
 40
0.0
 40
0.0
 40
0.0
 40
0.1283789717131134
 40
0.3048489961049042
 40
0.4808701485597111
 40
0.815324096249343
 40
0.9999999999999999
 40
0.9999999999999999
 40
0.9999999999999999
 40
0.9999999999999999
 10
180.0159071672372
 20
114.0645499114013
 30
0.0
 10
180.1272375231357
 20
113.9802540406321
 30
0.0
 10
180.3916028376321
 20
113.7800848755666
 30
0.0
 10
180.8334982055457
 20
113.4454954949209
 30
0.0
 10
181.4902518816311
 20
112.9482221092421
 30
0.0
 10
182.1652020573921
 20
112.4371709019374
 30
0.0
 10
182.6169506507257
 20
112.0951209665314
 30
0.0
 10
182.7776562612979
 20
111.9734396939679
 30
0.0
  0
CIRCLE
  5
A2
330
1F
100
AcDbEntity
  8
0
  6
Continuous
 62
     7
370
    15
100
AcDbCircle
 10
183.2077362847
 20
115.410739677
 30
0.0
 40
3.600000000000001
  0
CIRCLE
  5
A3
330
1F
100
AcDbEntity
  8
0
  6
Continuous
 62
     7
370
    15
100
AcDbCircle
 10
183.2077362847
 20
115.410739677
 30
0.0
 40
5.299999999999996
  0
CIRCLE
  5
A4
330
1F
100
AcDbEntity
  8
0
  6
Continuous
 62
     7
370
    15
100
AcDbCircle
 10
183.2077362847
 20
115.410739677
 30
0.0
 40
6.000000000000004
  0
ARC
  5
A5
330
1F
100
AcDbEntity
  8
0
  6
Continuous
 62
     7
370
    15
100
AcDbCircle
 10
183.2077362847
 20
115.410739677
 30
0.0
 40
3.00000000000004
100
AcDbArc
 50
52.8681311625
 51
112.8681311625
  0
ARC
  5
A6
330
1F
100
AcDbEntity
  8
0
  6
Continuous
 62
     7
370
    15
100
AcDbCircle
 10
183.2077362847
 20
115.410739677
 30
0.0
 40
3.000000000000041
100
AcDbArc
 50
112.8681311625
 51
172.8681311625
  0
ARC
  5
A7
330
1F
100
AcDbEntity
  8
0
  6
Continuous
 62
     7
370
    15
100
AcDbCircle
 10
183.2077362847
 20
115.410739677
 30
0.0
 40
3.000000000000002
100
AcDbArc
 50
232.8681311625
 51
292.8681311625
  0
ARC
  5
A8
330
1F
100
AcDbEntity
  8
0
  6
Continuous
 62
     7
370
    15
100
AcDbCircle
 10
183.2077362847
 20
115.410739677
 30
0.0
 40
3.000000000000041
100
AcDbArc
 50
172.8681311625
 51
232.8681311625
  0
ARC
  5
A9
330
1F
100
AcDbEntity
  8
0
  6
Continuous
 62
     7
370
    15
100
AcDbCircle
 10
183.2077362847
 20
115.410739677
 30
0.0
 40
2.999999999999981
100
AcDbArc
 50
292.8681311625
 51
352.8681311625
  0
ARC
  5
AA
330
1F
100
AcDbEntity
  8
0
  6
Continuous
 62
     7
370
    15
100
AcDbCircle
 10
183.2077362847
 20
115.410739677
 30
0.0
 40
2.999999999999996
100
AcDbArc
 50
352.8681311625
 51
52.8681311625
  0
LINE
  5
AB
330
1F
100
AcDbEntity
  8
0
  6
Continuous
 62
     7
370
    15
100
AcDbLine
 10
180.3025542039
 20
139.710739677
 30
0.0
 11
186.0821263357
 21
139.710739677
 31
0.0
  0
LINE
  5
AC
330
1F
100
AcDbEntity
  8
0
  6
Continuous
 62
     7
370
    15
100
AcDbLine
 10
180.0083832103
 20
140.410739677
 30
0.0
 11
188.5077362847
 21
140.410739677
 31
0.0
  0
LINE
  5
AD
330
1F
100
AcDbEntity
  8
0
  6
Continuous
 62
     7
370
    15
100
AcDbLine
 10
177.9077362847
 20
140.410739677
 30
0.0
 11
180.0083832103
 21
140.410739677
 31
0.0
  0
LINE
  5
AE
330
1F
100
AcDbEntity
  8
0
  6
Continuous
 62
     7
370
    15
100
AcDbLine
 10
137.2077362847
 20
135.260739677
 30
0.0
 11
146.8658034532
 21
135.260739677
 31
0.0
  0
LINE
  5
AF
330
1F
100
AcDbEntity
  8
0
  6
Continuous
 62
     7
370
    15
100
AcDbLine
 10
146.8658034532
 20
85.2238219808
 30
0.0
 11
146.8658034532
 21
135.260739677
 31
0.0
  0
LINE
  5
B0
330
1F
100
AcDbEntity
  8
0
  6
Continuous
 62
     7
370
    15
100
AcDbLine
 10
146.8658034532
 20
85.2238219808
 30
0.0
 11
145.2077362847
 21
85.2238219808
 31
0.0
  0
SPLINE
  5
B1
330
1F
100
AcDbEntity
  8
0
  6
Continuous
 62
     7
370
    15
100
AcDbSpline
210
0.0
220
0.0
230
1.0
 70
     8
 71
     3
 72
    28
 73
    24
 74
     0
 42
0.000000001
 43
0.00000001
 40
0.0
 40
0.0
 40
0.0
 40
0.0
 40
0.1250000000000001
 40
0.1250000000000001
 40
0.1875000000000001
 40
0.1875000000000001
 40
0.2500000000000001
 40
0.2500000000000001
 40
0.3749999999999999
 40
0.3749999999999999
 40
0.4375
 40
0.4375
 40
0.4999999999999999
 40
0.4999999999999999
 40
0.6249999999999999
 40
0.6249999999999999
 40
0.7499999999999997
 40
0.7499999999999997
 40
0.8124999999999998
 40
0.8124999999999998
 40
0.8749999999999998
 40
0.8749999999999998
 40
1.0
 40
1.0
 40
1.0
 40
1.0
 10
145.2077362846781
 20
85.22382198077278
 30
0.0
 10
144.6760285271852
 20
85.2238219807728
 30
0.0
 10
144.1537899618749
 20
85.20803726682257
 30
0.0
 10
143.3839194755999
 20
85.16304185274637
 30
0.0
 10
143.1295599034086
 20
85.14448685767064
 30
0.0
 10
142.62543832271
 20
85.10063413522413
 30
0.0
 10
142.3757155052821
 20
85.07528952827194
 30
0.0
 10
141.6501255538357
 20
84.99188745052183
 30
0.0
 10
141.1917652922542
 20
84.92602189137075
 30
0.0
 10
140.5412673488603
 20
84.81705155087896
 30
0.0
 10
140.3295852980678
 20
84.7788119151123
 30
0.0
 10
139.9255138089298
 20
84.70105317769294
 30
0.0
 10
139.733007295109
 20
84.6615522155176
 30
0.0
 10
139.1831723240877
 20
84.5426444731516
 30
0.0
 10
138.8532435457789
 20
84.462826791727
 30
0.0
 10
138.2687722772102
 20
84.30948362993094
 30
0.0
 10
138.0224951391968
 20
84.23814987666167
 30
0.0
 10
137.7226523464987
 20
84.14420636958705
 30
0.0
 10
137.6341954894265
 20
84.11501257622713
 30
0.0
 10
137.4808341361214
 20
84.06154600196372
 30
0.0
 10
137.4157459218951
 20
84.03718666768853
 30
0.0
 10
137.2601519059543
 20
83.97359652224378
 30
0.0
 10
137.2077362846781
 20
83.94349358715453
 30
0.0
 10
137.2077362846781
 20
83.92661669415763
 30
0.0
  0
LINE
  5
B2
330
1F
100
AcDbEntity
  8
0
  6
Continuous
 62
     7
370
    15
100
AcDbLine
 10
137.2077362847
 20
83.9266166942
 30
0.0
 11
137.2077362847
 21
83.910739677
 31
0.0
  0
SPLINE
  5
B3
330
1F
100
AcDbEntity
  8
0
  6
Continuous
 62
     7
370
    15
100
AcDbSpline
210
0.0
220
0.0
230
1.0
 70
     8
 71
     3
 72
    22
 73
    18
 74
     0
 42
0.000000001
 43
0.00000001
 40
0.0
 40
0.0
 40
0.0
 40
0.0
 40
0.0515773377536172
 40
0.1565264849943629
 40
0.2100197540385886
 40
0.2615951369298746
 40
0.3664424119934943
 40
0.4198226601719804
 40
0.4724528789006786
 40
0.5794488992297344
 40
0.6339397336480286
 40
0.6872670452602943
 40
0.7409741315029978
 40
0.7958968813361827
 40
0.8512481408256359
 40
0.9034470736265863
 40
1.0
 40
1.0
 40
1.0
 40
1.0
 10
145.2077362846781
 20
145.8779351501842
 30
0.0
 10
144.9909260886757
 20
145.8793317712527
 30
0.0
 10
144.3329522697609
 20
145.8835702255089
 30
0.0
 10
143.45785729243
 20
145.9231025498632
 30
0.0
 10
142.6130317975731
 20
145.9860757967051
 30
0.0
 10
141.7933065139689
 20
146.0640898299603
 30
0.0
 10
141.0175165359405
 20
146.1609729578354
 30
0.0
 10
140.300028074634
 20
146.2692323697514
 30
0.0
 10
139.620763327462
 20
146.3829507420559
 30
0.0
 10
139.0124483495531
 20
146.4994509269967
 30
0.0
 10
138.4923564088299
 20
146.6085511784137
 30
0.0
 10
138.1484662311137
 20
146.6845550761437
 30
0.0
 10
137.8535125033862
 20
146.7525885320653
 30
0.0
 10
137.607738216045
 20
146.8113015828239
 30
0.0
 10
137.4218359070716
 20
146.8569169627577
 30
0.0
 10
137.2502393013479
 20
146.8998764143182
 30
0.0
 10
137.2301100261716
 20
146.9050374361202
 30
0.0
 10
137.2170443714979
 20
146.9083873892625
 30
0.0
  0
LINE
  5
B4
330
1F
100
AcDbEntity
  8
0
  6
Continuous
 62
     7
370
    15
100
AcDbLine
 10
146.8658034532
 20
145.8779351502
 30
0.0
 11
145.2077362847
 21
145.8779351502
 31
0.0
  0
LINE
  5
B5
330
1F
100
AcDbEntity
  8
0
  6
Continuous
 62
     7
370
    15
100
AcDbLine
 10
146.8658034532
 20
139.8694293394
 30
0.0
 11
146.8658034532
 21
145.8779351502
 31
0.0
  0
LINE
  5
B6
330
1F
100
AcDbEntity
  8
0
  6
Continuous
 62
     7
370
    15
100
AcDbLine
 10
144.4533566304
 20
139.8694293394
 30
0.0
 11
146.8658034532
 21
139.8694293394
 31
0.0
  0
SPLINE
  5
B7
330
1F
100
AcDbEntity
  8
0
  6
Continuous
 62
     7
370
    15
100
AcDbSpline
210
0.0
220
0.0
230
1.0
 70
     8
 71
     3
 72
    20
 73
    16
 74
     0
 42
0.000000001
 43
0.00000001
 40
0.0
 40
0.0
 40
0.0
 40
0.0
 40
0.2499999999999997
 40
0.2499999999999997
 40
0.3749999999999997
 40
0.3749999999999997
 40
0.4999999999999998
 40
0.4999999999999998
 40
0.6249999999999998
 40
0.6249999999999998
 40
0.7499999999999999
 40
0.7499999999999999
 40
0.8749999999999999
 40
0.8749999999999999
 40
1.0
 40
1.0
 40
1.0
 40
1.0
 10
137.2077362846781
 20
135.26073967702
 30
0.0
 10
137.4561100189662
 20
135.9146021053174
 30
0.0
 10
137.7756801113115
 20
136.5183878873145
 30
0.0
 10
138.3979863445162
 20
137.3452266234831
 30
0.0
 10
138.6294106049469
 20
137.607655261436
 30
0.0
 10
139.1506249445966
 20
138.104317915541
 30
0.0
 10
139.4372454272317
 20
138.3349047945625
 30
0.0
 10
140.0567301685393
 20
138.7514590191452
 30
0.0
 10
140.3910305480263
 20
138.9389568211127
 30
0.0
 10
141.1162910206511
 20
139.2703537987491
 30
0.0
 10
141.4982060780415
 20
139.4098577862443
 30
0.0
 10
142.2929942542132
 20
139.6353112937153
 30
0.0
 10
142.7071524484196
 20
139.7219374052589
 30
0.0
 10
143.572698789001
 20
139.8399181941131
 30
0.0
 10
144.0105864040128
 20
139.8694293393874
 30
0.0
 10
144.4533566303674
 20
139.8694293393874
 30
0.0
  0
LINE
  5
B8
330
1F
100
AcDbEntity
  8
0
  6
Continuous
 62
     7
370
    15
100
AcDbLine
 10
158.2077362847
 20
85.8504622764
 30
0.0
 11
158.2077362847
 21
135.260739677
 31
0.0
  0
SPLINE
  5
B9
330
1F
100
AcDbEntity
  8
0
  6
Continuous
 62
     7
370
    15
100
AcDbSpline
210
0.0
220
0.0
230
1.0
 70
     8
 71
     3
 72
    10
 73
     6
 74
     0
 42
0.000000001
 43
0.00000001
 40
0.0
 40
0.0
 40
0.0
 40
0.0
 40
0.5
 40
0.5
 40
1.0
 40
1.0
 40
1.0
 40
1.0
 10
158.2077362846782
 20
85.85046227642712
 30
0.0
 10
158.2077362846782
 20
85.69057500823345
 30
0.0
 10
158.1464266334423
 20
85.52944775271884
 30
0.0
 10
157.9273269959073
 20
85.29534875436403
 30
0.0
 10
157.7692787895938
 20
85.22382198077278
 30
0.0
 10
157.6077362846782
 20
85.22382198077278
 30
0.0
  0
SPLINE
  5
BA
330
1F
100
AcDbEntity
  8
0
  6
Continuous
 62
     7
370
    15
100
AcDbSpline
210
0.0
220
0.0
230
1.0
 70
    24
 71
     3
 72
    12
 73
     8
 74
     0
 42
0.000000001
 43
0.00000001
 40
0.0
 40
0.0
 40
0.0
 40
0.0
 40
0.2500000000000033
 40
0.2500000000000033
 40
0.5000000000000067
 40
0.5000000000000067
 40
1.0
 40
1.0
 40
1.0
 40
1.0
 10
157.6077362846781
 20
135.26073967702
 30
0.0
 10
157.6979753523652
 20
135.26073967702
 30
0.0
 10
157.7888734664717
 20
135.26073967702
 30
0.0
 10
157.9434705029602
 20
135.26073967702
 30
0.0
 10
158.0084489190683
 20
135.26073967702
 30
0.0
 10
158.1602839470046
 20
135.26073967702
 30
0.0
 10
158.2077362846782
 20
135.26073967702
 30
0.0
 10
158.2077362846782
 20
135.26073967702
 30
0.0
  0
LINE
  5
BB
330
1F
100
AcDbEntity
  8
0
  6
Continuous
 62
     7
370
    15
100
AcDbLine
 10
148.3477362847
 20
87.912902518
 30
0.0
 11
148.3477362847
 21
135.260739677
 31
0.0
  0
SPLINE
  5
BC
330
1F
100
AcDbEntity
  8
0
  6
Continuous
 62
     7
370
    15
100
AcDbSpline
210
0.0
220
0.0
230
1.0
 70
     8
 71
     3
 72
     8
 73
     4
 74
     0
 42
0.000000001
 43
0.00000001
 40
0.0
 40
0.0
 40
0.0
 40
0.0
 40
1.0
 40
1.0
 40
1.0
 40
1.0
 10
148.3477362846781
 20
87.9129025179651
 30
0.0
 10
147.855397161897
 20
87.0156324837584
 30
0.0
 10
147.3612831138549
 20
86.11934806870613
 30
0.0
 10
146.8658034531891
 20
85.22382198077278
 30
0.0
  0
SPLINE
  5
BD
330
1F
100
AcDbEntity
  8
0
  6
Continuous
 62
     7
370
    15
100
AcDbSpline
210
0.0
220
0.0
230
1.0
 70
    24
 71
     3
 72
     8
 73
     4
 74
     0
 42
0.000000001
 43
0.00000001
 40
0.0
 40
0.0
 40
0.0
 40
0.0
 40
1.0
 40
1.0
 40
1.0
 40
1.0
 10
146.8658034531891
 20
135.26073967702
 30
0.0
 10
147.3724835613396
 20
135.26073967702
 30
0.0
 10
147.8677842903133
 20
135.26073967702
 30
0.0
 10
148.3477362846781
 20
135.26073967702
 30
0.0
  0
LINE
  5
BE
330
1F
100
AcDbEntity
  8
0
  6
Continuous
 62
     7
370
    15
100
AcDbLine
 10
132.2577362847
 20
84.210739677
 30
0.0
 11
132.2577362847
 21
146.6107396725
 31
0.0
  0
LINE
  5
BF
330
1F
100
AcDbEntity
  8
0
  6
Continuous
 62
     7
370
    15
100
AcDbLine
 10
157.6077362847
 20
85.2238219808
 30
0.0
 11
153.6496691162
 21
85.2238219808
 31
0.0
  0
LINE
  5
C0
330
1F
100
AcDbEntity
  8
0
  6
Continuous
 62
     7
370
    15
100
AcDbLine
 10
153.6496691162
 20
85.2238219808
 30
0.0
 11
153.6496691162
 21
135.260739677
 31
0.0
  0
LINE
  5
C1
330
1F
100
AcDbEntity
  8
0
  6
Continuous
 62
     7
370
    15
100
AcDbLine
 10
153.6496691162
 20
135.260739677
 30
0.0
 11
157.6077362847
 21
135.260739677
 31
0.0
  0
SPLINE
  5
C2
330
1F
100
AcDbEntity
  8
0
  6
Continuous
 62
     7
370
    15
100
AcDbSpline
210
0.0
220
0.0
230
1.0
 70
     8
 71
     3
 72
     8
 73
     4
 74
     0
 42
0.000000001
 43
0.00000001
 40
0.0
 40
0.0
 40
0.0
 40
0.0
 40
1.0
 40
1.0
 40
1.0
 40
1.0
 10
153.6496691161672
 20
85.22382198077278
 30
0.0
 10
153.1541894555015
 20
86.11934806870613
 30
0.0
 10
152.6600754074593
 20
87.0156324837584
 30
0.0
 10
152.1677362846782
 20
87.91290251796508
 30
0.0
  0
LINE
  5
C3
330
1F
100
AcDbEntity
  8
0
  6
Continuous
 62
     7
370
    15
100
AcDbLine
 10
152.1677362847
 20
87.912902518
 30
0.0
 11
152.1677362847
 21
135.260739677
 31
0.0
  0
SPLINE
  5
C4
330
1F
100
AcDbEntity
  8
0
  6
Continuous
 62
     7
370
    15
100
AcDbSpline
210
0.0
220
0.0
230
1.0
 70
    24
 71
     3
 72
     8
 73
     4
 74
     0
 42
0.000000001
 43
0.00000001
 40
0.0
 40
0.0
 40
0.0
 40
0.0
 40
1.0
 40
1.0
 40
1.0
 40
1.0
 10
152.1677362846782
 20
135.26073967702
 30
0.0
 10
152.6476882790431
 20
135.26073967702
 30
0.0
 10
153.1429890080167
 20
135.26073967702
 30
0.0
 10
153.6496691161672
 20
135.26073967702
 30
0.0
  0
SPLINE
  5
C5
330
1F
100
AcDbEntity
  8
0
  6
Continuous
 62
     7
370
    15
100
AcDbSpline
210
0.0
220
0.0
230
1.0
 70
    24
 71
     3
 72
    14
 73
    10
 74
     0
 42
0.000000001
 43
0.00000001
 40
0.0
 40
0.0
 40
0.0
 40
0.0
 40
0.5000000000000022
 40
0.5000000000000022
 40
0.7500000000000008
 40
0.7500000000000008
 40
0.8750000000000004
 40
0.8750000000000004
 40
1.0
 40
1.0
 40
1.0
 40
1.0
 10
152.0700614823459
 20
89.01073967701994
 30
0.0
 10
152.0228513231161
 20
89.01073967701994
 30
0.0
 10
151.9596168495724
 20
89.01073967701996
 30
0.0
 10
151.8158049188445
 20
89.01073967701996
 30
0.0
 10
151.7604798443681
 20
89.01073967701996
 30
0.0
 10
151.648568671133
 20
89.01073967701996
 30
0.0
 10
151.605781584692
 20
89.01073967701994
 30
0.0
 10
151.5014162516584
 20
89.01073967701994
 30
0.0
 10
151.4371924573567
 20
89.01073967701994
 30
0.0
 10
151.3677362847337
 20
89.01073967701994
 30
0.0
  0
SPLINE
  5
C6
330
1F
100
AcDbEntity
  8
0
  6
Continuous
 62
     7
370
    15
100
AcDbSpline
210
0.0
220
0.0
230
1.0
 70
    24
 71
     3
 72
    12
 73
     8
 74
     0
 42
0.000000001
 43
0.00000001
 40
0.0
 40
0.0
 40
0.0
 40
0.0
 40
0.4999999999999983
 40
0.4999999999999983
 40
0.7499999999999991
 40
0.7499999999999991
 40
1.0
 40
1.0
 40
1.0
 40
1.0
 10
151.7734387529874
 20
141.81073967702
 30
0.0
 10
151.7300005651844
 20
141.81073967702
 30
0.0
 10
151.6808063168864
 20
141.81073967702
 30
0.0
 10
151.5840875595054
 20
141.81073967702
 30
0.0
 10
151.5479000780037
 20
141.81073967702
 30
0.0
 10
151.465022219479
 20
141.81073967702
 30
0.0
 10
151.4170687721723
 20
141.81073967702
 30
0.0
 10
151.3677362846781
 20
141.81073967702
 30
0.0
  0
SPLINE
  5
C7
330
1F
100
AcDbEntity
  8
0
  6
Continuous
 62
     7
370
    15
100
AcDbSpline
210
0.0
220
0.0
230
1.0
 70
     8
 71
     3
 72
    10
 73
     6
 74
     0
 42
0.000000001
 43
0.00000001
 40
0.0
 40
0.0
 40
0.0
 40
0.0
 40
0.5
 40
0.5
 40
1.0
 40
1.0
 40
1.0
 40
1.0
 10
152.1677362846781
 20
142.5303935280558
 30
0.0
 10
152.1677362846781
 20
142.3866234702379
 30
0.0
 10
152.1316872259594
 20
142.244204107743
 30
0.0
 10
151.9961783651858
 20
141.994309814386
 30
0.0
 10
151.8963023720899
 20
141.8862794781379
 30
0.0
 10
151.7734387529883
 20
141.8107396770206
 30
0.0
  0
SPLINE
  5
C8
330
1F
100
AcDbEntity
  8
0
  6
Continuous
 62
     7
370
    15
100
AcDbSpline
210
0.0
220
0.0
230
1.0
 70
     8
 71
     3
 72
     9
 73
     5
 74
     0
 42
0.000000001
 43
0.00000001
 40
0.0
 40
0.0
 40
0.0
 40
0.0
 40
0.5
 40
1.0
 40
1.0
 40
1.0
 40
1.0
 10
152.141588661518
 20
135.26073967702
 30
0.0
 10
152.1503272314004
 20
135.3078824773553
 30
0.0
 10
152.1633465177368
 20
135.4026785590258
 30
0.0
 10
152.1677362846782
 20
135.4984628305862
 30
0.0
 10
152.1677362846781
 20
135.5466063084813
 30
0.0
  0
SPLINE
  5
C9
330
1F
100
AcDbEntity
  8
0
  6
Continuous
 62
     7
370
    15
100
AcDbSpline
210
0.0
220
0.0
230
1.0
 70
     8
 71
     3
 72
    10
 73
     6
 74
     0
 42
0.000000001
 43
0.00000001
 40
0.0
 40
0.0
 40
0.0
 40
0.0
 40
0.5
 40
0.5
 40
1.0
 40
1.0
 40
1.0
 40
1.0
 10
148.7420338163691
 20
141.81073967702
 30
0.0
 10
148.6204935527006
 20
141.8854658442317
 30
0.0
 10
148.5191591923517
 20
141.9944108601485
 30
0.0
 10
148.3835202494633
 20
142.2448413409101
 30
0.0
 10
148.3477362846781
 20
142.387260703009
 30
0.0
 10
148.3477362846781
 20
142.5303935280558
 30
0.0
  0
SPLINE
  5
CA
330
1F
100
AcDbEntity
  8
0
  6
Continuous
 62
     7
370
    15
100
AcDbSpline
210
0.0
220
0.0
230
1.0
 70
    24
 71
     3
 72
    12
 73
     8
 74
     0
 42
0.000000001
 43
0.00000001
 40
0.0
 40
0.0
 40
0.0
 40
0.0
 40
0.2500000000000046
 40
0.2500000000000046
 40
0.5000000000000091
 40
0.5000000000000091
 40
1.0
 40
1.0
 40
1.0
 40
1.0
 10
149.1477362846781
 20
141.81073967702
 30
0.0
 10
149.0978596023607
 20
141.81073967702
 30
0.0
 10
149.0498564089571
 20
141.81073967702
 30
0.0
 10
148.9668083062451
 20
141.81073967702
 30
0.0
 10
148.9306787267773
 20
141.81073967702
 30
0.0
 10
148.8347666958331
 20
141.81073967702
 30
0.0
 10
148.7850080278643
 20
141.81073967702
 30
0.0
 10
148.7420338163691
 20
141.81073967702
 30
0.0
  0
SPLINE
  5
CB
330
1F
100
AcDbEntity
  8
0
  6
Continuous
 62
     7
370
    15
100
AcDbSpline
210
0.0
220
0.0
230
1.0
 70
    24
 71
     3
 72
    14
 73
    10
 74
     0
 42
0.000000001
 43
0.00000001
 40
0.0
 40
0.0
 40
0.0
 40
0.0
 40
0.1249999999999991
 40
0.1249999999999991
 40
0.2499999999999982
 40
0.2499999999999982
 40
0.4999999999999998
 40
0.4999999999999998
 40
1.0
 40
1.0
 40
1.0
 40
1.0
 10
149.1477362846781
 20
89.01073967701994
 30
0.0
 10
149.0792984367917
 20
89.01073967701994
 30
0.0
 10
149.0137483980266
 20
89.01073967701996
 30
0.0
 10
148.9093217586187
 20
89.01073967701996
 30
0.0
 10
148.8667771488573
 20
89.01073967701996
 30
0.0
 10
148.754167688317
 20
89.01073967701994
 30
0.0
 10
148.6986286412975
 20
89.01073967701994
 30
0.0
 10
148.5560169458337
 20
89.01073967701994
 30
0.0
 10
148.492611590838
 20
89.01073967701994
 30
0.0
 10
148.4454110870104
 20
89.01073967701994
 30
0.0
  0
SPLINE
  5
CC
330
1F
100
AcDbEntity
  8
0
  6
Continuous
 62
     7
370
    15
100
AcDbSpline
210
0.0
220
0.0
230
1.0
 70
     8
 71
     3
 72
    10
 73
     6
 74
     0
 42
0.000000001
 43
0.00000001
 40
0.0
 40
0.0
 40
0.0
 40
0.0
 40
0.5
 40
0.5
 40
1.0
 40
1.0
 40
1.0
 40
1.0
 10
148.3477362846781
 20
135.5466063084813
 30
0.0
 10
148.3477362846781
 20
135.498834800488
 30
0.0
 10
148.3498975282753
 20
135.4511250784263
 30
0.0
 10
148.3585689021355
 20
135.3558299608781
 30
0.0
 10
148.3650980850915
 20
135.3081373969114
 30
0.0
 10
148.3738839078383
 20
135.26073967702
 30
0.0
  0
SPLINE
  5
CD
330
1F
100
AcDbEntity
  8
0
  6
Continuous
 62
     7
370
    15
100
AcDbSpline
210
0.0
220
0.0
230
1.0
 70
    24
 71
     3
 72
    10
 73
     6
 74
     0
 42
0.000000001
 43
0.00000001
 40
0.0
 40
0.0
 40
0.0
 40
0.0
 40
0.3343220724745767
 40
0.6701182487677485
 40
1.0
 40
1.0
 40
1.0
 40
1.0
 10
158.6697846665727
 20
89.01073967701994
 30
0.0
 10
158.6484571036774
 20
89.01073967701994
 30
0.0
 10
158.6057079396987
 20
89.01073967701994
 30
0.0
 10
158.3266069920745
 20
89.01073967701996
 30
0.0
 10
158.2484263115698
 20
89.01073967701994
 30
0.0
 10
158.2096832817485
 20
89.01073967701994
 30
0.0
  0
SPLINE
  5
CE
330
1F
100
AcDbEntity
  8
0
  6
Continuous
 62
     7
370
    15
100
AcDbSpline
210
0.0
220
0.0
230
1.0
 70
    24
 71
     3
 72
    10
 73
     6
 74
     0
 42
0.000000001
 43
0.00000001
 40
0.0
 40
0.0
 40
0.0
 40
0.0
 40
0.3744571994411034
 40
0.7489227192406384
 40
1.0
 40
1.0
 40
1.0
 40
1.0
 10
158.2365088276878
 20
141.81073967702
 30
0.0
 10
158.296446583734
 20
141.81073967702
 30
0.0
 10
158.4163234276305
 20
141.81073967702
 30
0.0
 10
158.6417878434014
 20
141.81073967702
 30
0.0
 10
158.6538589161124
 20
141.81073967702
 30
0.0
 10
158.6587039436778
 20
141.81073967702
 30
0.0
  0
LINE
  5
CF
330
1F
100
AcDbEntity
  8
0
  6
Continuous
 62
     7
370
    15
100
AcDbLine
 10
151.3677362847
 20
141.810739677
 30
0.0
 11
149.1477362847
 21
141.810739677
 31
0.0
  0
LINE
  5
D0
330
1F
100
AcDbEntity
  8
0
  6
Continuous
 62
     7
370
    15
100
AcDbLine
 10
151.3677362847
 20
89.010739677
 30
0.0
 11
149.1477362847
 21
89.010739677
 31
0.0
  0
LINE
  5
D1
330
1F
100
AcDbEntity
  8
0
  6
Continuous
 62
     7
370
    15
100
AcDbLine
 10
197.2577362847
 20
115.410739677
 30
0.0
 11
197.2577362847
 21
90.910739677
 31
0.0
  0
LINE
  5
D2
330
1F
100
AcDbEntity
  8
0
  6
Continuous
 62
     7
370
    15
100
AcDbLine
 10
197.2577362847
 20
139.910739677
 30
0.0
 11
197.2577362847
 21
115.410739677
 31
0.0
  0
LINE
  5
D3
330
1F
100
AcDbEntity
  8
0
  6
Continuous
 62
     7
370
    15
100
AcDbLine
 10
196.7577362847
 20
115.410739677
 30
0.0
 11
196.7577362847
 21
90.410739677
 31
0.0
  0
LINE
  5
D4
330
1F
100
AcDbEntity
  8
0
  6
Continuous
 62
     7
370
    15
100
AcDbLine
 10
196.7577362847
 20
140.410739677
 30
0.0
 11
196.7577362847
 21
115.410739677
 31
0.0
  0
SPLINE
  5
D5
330
1F
100
AcDbEntity
  8
0
  6
Continuous
 62
     7
370
    15
100
AcDbSpline
210
0.0
220
0.0
230
1.0
 70
    11
 71
     3
 72
    95
 73
    91
 74
     0
 42
0.000000001
 43
0.00000001
 40
0.0
 40
0.0
 40
0.0
 40
0.0
 40
0.0312500000000005
 40
0.0312500000000005
 40
0.0468750000000008
 40
0.0468750000000008
 40
0.062500000000001
 40
0.062500000000001
 40
0.0937500000000011
 40
0.0937500000000011
 40
0.1093750000000013
 40
0.1093750000000013
 40
0.1250000000000016
 40
0.1250000000000016
 40
0.1562500000000026
 40
0.1562500000000026
 40
0.1718750000000031
 40
0.1718750000000031
 40
0.1875000000000036
 40
0.1875000000000036
 40
0.2187500000000047
 40
0.2187500000000047
 40
0.234375000000005
 40
0.234375000000005
 40
0.2500000000000053
 40
0.2500000000000053
 40
0.2812500000000055
 40
0.2812500000000055
 40
0.2968750000000055
 40
0.2968750000000055
 40
0.3125000000000055
 40
0.3125000000000055
 40
0.3437500000000053
 40
0.3437500000000053
 40
0.3593750000000052
 40
0.3593750000000052
 40
0.3750000000000051
 40
0.3906250000000051
 40
0.3906250000000051
 40
0.4062500000000049
 40
0.4062500000000049
 40
0.4375000000000047
 40
0.4375000000000047
 40
0.4531250000000046
 40
0.4531250000000046
 40
0.4687500000000044
 40
0.4687500000000044
 40
0.5000000000000046
 40
0.5000000000000046
 40
0.5312500000000047
 40
0.5312500000000047
 40
0.5468750000000046
 40
0.5468750000000046
 40
0.5625000000000044
 40
0.5625000000000044
 40
0.5937500000000042
 40
0.5937500000000042
 40
0.6250000000000039
 40
0.6250000000000039
 40
0.6562500000000037
 40
0.6562500000000037
 40
0.6875000000000034
 40
0.6875000000000034
 40
0.7187500000000031
 40
0.7187500000000031
 40
0.7500000000000029
 40
0.7500000000000029
 40
0.7656250000000029
 40
0.7656250000000029
 40
0.781250000000003
 40
0.781250000000003
 40
0.8125000000000028
 40
0.8125000000000028
 40
0.8281250000000027
 40
0.8281250000000027
 40
0.8437500000000024
 40
0.8437500000000024
 40
0.875000000000002
 40
0.875000000000002
 40
0.8906250000000019
 40
0.8906250000000019
 40
0.9062500000000017
 40
0.9062500000000017
 40
0.9218750000000014
 40
0.9218750000000014
 40
0.9375000000000013
 40
0.9375000000000013
 40
0.9687500000000007
 40
0.9687500000000007
 40
1.0
 40
1.0
 40
1.0
 40
1.0
 10
178.3580060909784
 20
120.1676792457195
 30
0.0
 10
178.7091478540584
 20
120.4480636999819
 30
0.0
 10
179.0811965277753
 20
120.6910399348428
 30
0.0
 10
179.6680425277269
 20
121.0049070898664
 30
0.0
 10
179.8684949172936
 20
121.1010200608014
 30
0.0
 10
180.2790825393557
 20
121.2763426269734
 30
0.0
 10
180.4902054730871
 20
121.3558570958704
 30
0.0
 10
181.1307303543712
 20
121.5660563620975
 30
0.0
 10
181.5650370447512
 20
121.6683750192607
 30
0.0
 10
182.2270367053255
 20
121.7677030566912
 30
0.0
 10
182.4494710394653
 20
121.7917256913727
 30
0.0
 10
182.8979386688466
 20
121.8213141289441
 30
0.0
 10
183.1247946170145
 20
121.8267999480616
 30
0.0
 10
183.7987817280188
 20
121.815028090499
 30
0.0
 10
184.2425922174467
 20
121.7702519790424
 30
0.0
 10
184.9001787380818
 20
121.6484135155436
 30
0.0
 10
185.1180115892199
 20
121.5986322927689
 30
0.0
 10
185.5508766328967
 20
121.480138575683
 30
0.0
 10
185.7663770749615
 20
121.4111529411251
 30
0.0
 10
186.3960382004666
 20
121.1792651110857
 30
0.0
 10
186.7976085105488
 20
120.9907573329959
 30
0.0
 10
187.3724180055293
 20
120.6558847387638
 30
0.0
 10
187.5594004258908
 20
120.5355176100945
 30
0.0
 10
187.9236711203156
 20
120.2762820155959
 30
0.0
 10
188.1010076174731
 20
120.1371760535934
 30
0.0
 10
188.6059784256537
 20
119.7005080908081
 30
0.0
 10
188.9110962659383
 20
119.3810259039661
 30
0.0
 10
189.3189024254491
 20
118.8561990443173
 30
0.0
 10
189.4464649454573
 20
118.6736008771675
 30
0.0
 10
189.6834960187454
 20
118.291742851616
 30
0.0
 10
189.7917960704454
 20
118.0940726442149
 30
0.0
 10
190.0800463738399
 20
117.4911070434939
 30
0.0
 10
190.2263407447665
 20
117.0719418083517
 30
0.0
 10
190.3718886513618
 20
116.415287526239
 30
0.0
 10
190.4080439272772
 20
116.1900372109256
 30
0.0
 10
190.4524828863871
 20
115.7418233625916
 30
0.0
 10
190.4698210847346
 20
115.2943245853062
 30
0.0
 10
190.4340258992125
 20
114.8482284179014
 30
0.0
 10
190.3713407631494
 20
114.402841412587
 30
0.0
 10
190.3261160322798
 20
114.1793771476877
 30
0.0
 10
190.1536133454113
 20
113.5270602701956
 30
0.0
 10
189.989784020063
 20
113.1112987269687
 30
0.0
 10
189.6748413026208
 20
112.51450881418
 30
0.0
 10
189.5584318059289
 20
112.3208050708205
 30
0.0
 10
189.3082730008495
 20
111.9504121537596
 30
0.0
 10
189.1739689776222
 20
111.77263100384
 30
0.0
 10
188.7445808620377
 20
111.2604141955176
 30
0.0
 10
188.4198261046556
 20
110.9446809684835
 30
0.0
 10
187.7243064076771
 20
110.3862979926353
 30
0.0
 10
187.3526409226252
 20
110.1414191672911
 30
0.0
 10
186.7604787900218
 20
109.8230044294961
 30
0.0
 10
186.5567570211581
 20
109.7249581233538
 30
0.0
 10
186.1449947778768
 20
109.5485020904891
 30
0.0
 10
185.9361290939129
 20
109.4695947086335
 30
0.0
 10
185.3008128178915
 20
109.2599163746841
 30
0.0
 10
184.8657139774104
 20
109.1559579824392
 30
0.0
 10
183.9718479944677
 20
109.0207297179629
 30
0.0
 10
183.5234836052321
 20
108.9912203818882
 30
0.0
 10
182.6303382777643
 20
109.0056203734265
 30
0.0
 10
182.1841361163398
 20
109.0494311615087
 30
0.0
 10
181.2947192077534
 20
109.213648110048
 30
0.0
 10
180.8638104481213
 20
109.331714294484
 30
0.0
 10
180.0287552715132
 20
109.6383275381016
 30
0.0
 10
179.6234748778845
 20
109.8274751846506
 30
0.0
 10
178.8463821038063
 20
110.2801501838587
 30
0.0
 10
178.4845703602223
 20
110.5375948392419
 30
0.0
 10
177.9821606863382
 20
110.9714686236801
 30
0.0
 10
177.8214567381599
 20
111.1241010361248
 30
0.0
 10
177.514266963247
 20
111.4463366954295
 30
0.0
 10
177.366987547254
 20
111.61698426928
 30
0.0
 10
176.9542419223467
 20
112.1490232645681
 30
0.0
 10
176.7200710500747
 20
112.5260942437506
 30
0.0
 10
176.4325908886234
 20
113.1269596067209
 30
0.0
 10
176.3474737513624
 20
113.3331675455254
 30
0.0
 10
176.200184719188
 20
113.7583250383116
 30
0.0
 10
176.1381663019063
 20
113.9777150021628
 30
0.0
 10
175.9935550940297
 20
114.635538559845
 30
0.0
 10
175.9493927387409
 20
115.0800597637553
 30
0.0
 10
175.963830006516
 20
115.7560857199842
 30
0.0
 10
175.9825141764183
 20
115.9839180885457
 30
0.0
 10
176.0461716692475
 20
116.4298937774307
 30
0.0
 10
176.0910610511081
 20
116.6495460915357
 30
0.0
 10
176.2060695988474
 20
117.0824228244877
 30
0.0
 10
176.2761908769328
 20
117.2956466759194
 30
0.0
 10
176.4416176464558
 20
117.7157021049491
 30
0.0
 10
176.5366283459726
 20
117.9213722679627
 30
0.0
 10
176.851519608843
 20
118.5150695064984
 30
0.0
 10
177.1026601711547
 20
118.8845783996289
 30
0.0
 10
177.6832013798081
 20
119.5743536971398
 30
0.0
 10
178.0068643278984
 20
119.8872947914571
 30
0.0
 10
178.3580060909784
 20
120.1676792457195
 30
0.0
  0
SPLINE
  5
D6
330
1F
100
AcDbEntity
  8
0
  6
Continuous
 62
     7
370
    15
100
AcDbSpline
210
0.0
220
0.0
230
1.0
 70
     8
 71
     3
 72
    38
 73
    34
 74
     0
 42
0.000000001
 43
0.00000001
 40
0.0
 40
0.0
 40
0.0
 40
0.0
 40
0.0136110936822076
 40
0.0523584414239397
 40
0.0878510050263804
 40
0.1384689714950754
 40
0.1760544080319046
 40
0.2295467404589131
 40
0.2717734604566073
 40
0.288786819385992
 40
0.3319235969634774
 40
0.3743111833297483
 40
0.4028044322643063
 40
0.4463286243706511
 40
0.49121021647303
 40
0.5063089814755862
 40
0.5214077469131299
 40
0.5521822567050878
 40
0.5676299175595281
 40
0.6129197712169938
 40
0.643611969394314
 40
0.6747635514612773
 40
0.6904189890000824
 40
0.735094499466027
 40
0.7651882516884141
 40
0.7959815298169562
 40
0.8114591917333017
 40
0.8526521364320419
 40
0.8804387352105316
 40
0.9232953040946634
 40
0.9588309803176661
 40
0.9827863581484121
 40
1.0
 40
1.0
 40
1.0
 40
1.0
 10
190.4568488464371
 20
140.4105402602528
 30
0.0
 10
190.4556143603707
 20
140.4102630125888
 30
0.0
 10
190.450865604106
 20
140.4091965108132
 30
0.0
 10
190.3670927030057
 20
140.3903634219454
 30
0.0
 10
190.131911294087
 20
140.3385784009838
 30
0.0
 10
189.764202709103
 20
140.2605324351036
 30
0.0
 10
189.209773392762
 20
140.1506222202415
 30
0.0
 10
188.5727031379911
 20
140.0349237856142
 30
0.0
 10
187.9522697074849
 20
139.9364455114952
 30
0.0
 10
187.351194095938
 20
139.8507537918585
 30
0.0
 10
186.7129087728021
 20
139.7701395704388
 30
0.0
 10
185.9589212469575
 20
139.6945848154119
 30
0.0
 10
185.1752880643535
 20
139.6342363806438
 30
0.0
 10
184.3520219598543
 20
139.5906593745966
 30
0.0
 10
183.6096328700179
 20
139.5742883917739
 30
0.0
 10
183.0705491596487
 20
139.5738458525542
 30
0.0
 10
182.633064954115
 20
139.5781324813563
 30
0.0
 10
182.1944655835093
 20
139.5895297641433
 30
0.0
 10
181.5463476442559
 20
139.6167529182061
 30
0.0
 10
180.9081315571426
 20
139.6570539311271
 30
0.0
 10
180.1859731582985
 20
139.7207023032231
 30
0.0
 10
179.6819347136421
 20
139.7749877440499
 30
0.0
 10
179.1076393679144
 20
139.8447988815909
 30
0.0
 10
178.567481187054
 20
139.9201725363901
 30
0.0
 10
177.9889405262779
 20
140.0120201443797
 30
0.0
 10
177.6048014106626
 20
140.0785669262127
 30
0.0
 10
177.1994186713969
 20
140.1526685739646
 30
0.0
 10
176.8503809883562
 20
140.220613612306
 30
0.0
 10
176.4698063712893
 20
140.2987680433141
 30
0.0
 10
176.1918728168883
 20
140.3586201606679
 30
0.0
 10
176.0322472927751
 20
140.3940206925028
 30
0.0
 10
175.9605992032191
 20
140.410093776919
 30
0.0
 10
175.9684281320013
 20
140.4083373564022
 30
0.0
 10
175.9717015734672
 20
140.4076029596653
 30
0.0
  0
LINE
  5
D7
330
1F
100
AcDbEntity
  8
0
  6
Continuous
 62
     7
370
    15
100
AcDbLine
 10
110.4577362847
 20
92.1822927832
 30
0.0
 11
110.4577362847
 21
93.4470021458
 31
0.0
  0
SPLINE
  5
D8
330
1F
100
AcDbEntity
  8
0
  6
Continuous
 62
     7
370
    15
100
AcDbSpline
210
0.0
220
0.0
230
1.0
 70
     8
 71
     3
 72
    14
 73
    10
 74
     0
 42
0.000000001
 43
0.00000001
 40
0.0
 40
0.0
 40
0.0
 40
0.0
 40
0.25
 40
0.25
 40
0.5
 40
0.5
 40
0.75
 40
0.75
 40
1.0
 40
1.0
 40
1.0
 40
1.0
 10
109.6794491667624
 20
94.57758835346
 30
0.0
 10
109.7360758419645
 20
94.46989089962314
 30
0.0
 10
109.8305985022542
 20
94.36710131790382
 30
0.0
 10
110.0136434778165
 20
94.16874400568368
 30
0.0
 10
110.1052700547712
 20
94.07268449700543
 30
0.0
 10
110.2641233724644
 20
93.88515545429618
 30
0.0
 10
110.3320139800861
 20
93.79374648151261
 30
0.0
 10
110.4289310057937
 20
93.61537026060248
 30
0.0
 10
110.4577362846787
 20
93.5281483543563
 30
0.0
 10
110.4577362846787
 20
93.44700214582205
 30
0.0
  0
SPLINE
  5
D9
330
1F
100
AcDbEntity
  8
0
  6
Continuous
 62
     7
370
    15
100
AcDbSpline
210
0.0
220
0.0
230
1.0
 70
     8
 71
     3
 72
    14
 73
    10
 74
     0
 42
0.000000001
 43
0.00000001
 40
0.0
 40
0.0
 40
0.0
 40
0.0
 40
0.1250000000000025
 40
0.1250000000000025
 40
0.250000000000005
 40
0.250000000000005
 40
0.5000000000000009
 40
0.5000000000000009
 40
1.0
 40
1.0
 40
1.0
 40
1.0
 10
109.0577362846782
 20
95.0242702157393
 30
0.0
 10
109.1062806933353
 20
95.03001852901961
 30
0.0
 10
109.1591960481202
 20
95.02691764036337
 30
0.0
 10
109.2544913931033
 20
95.00472279620104
 30
0.0
 10
109.2947423903882
 20
94.98749056910519
 30
0.0
 10
109.3990124039012
 20
94.93116265265313
 30
0.0
 10
109.4493343790545
 20
94.88697630670734
 30
0.0
 10
109.5770173265799
 20
94.7559684078567
 30
0.0
 10
109.6331027736422
 20
94.66573388762642
 30
0.0
 10
109.6794491667639
 20
94.57758835346053
 30
0.0
  0
SPLINE
  5
DA
330
1F
100
AcDbEntity
  8
0
  6
Continuous
 62
     7
370
    15
100
AcDbSpline
210
0.0
220
0.0
230
1.0
 70
     8
 71
     3
 72
     8
 73
     4
 74
     0
 42
0.000000001
 43
0.00000001
 40
0.0
 40
0.0
 40
0.0
 40
0.0
 40
1.0
 40
1.0
 40
1.0
 40
1.0
 10
106.789211191732
 20
94.71442492915652
 30
0.0
 10
107.5237882182149
 20
94.83304994022548
 30
0.0
 10
108.2872632876106
 20
94.93303581236177
 30
0.0
 10
109.0577362846782
 20
95.0242702157393
 30
0.0
  0
SPLINE
  5
DB
330
1F
100
AcDbEntity
  8
0
  6
Continuous
 62
     7
370
    15
100
AcDbSpline
210
0.0
220
0.0
230
1.0
 70
     8
 71
     3
 72
    14
 73
    10
 74
     0
 42
0.000000001
 43
0.00000001
 40
0.0
 40
0.0
 40
0.0
 40
0.0
 40
0.4999999999999999
 40
0.4999999999999999
 40
0.7499999999999998
 40
0.7499999999999998
 40
0.8749999999999999
 40
0.8749999999999999
 40
1.0
 40
1.0
 40
1.0
 40
1.0
 10
101.5077362846782
 20
94.54080191162488
 30
0.0
 10
102.3998824152317
 20
94.54007968542423
 30
0.0
 10
103.2898588510253
 20
94.54466589188169
 30
0.0
 10
104.616454018101
 20
94.57239089627323
 30
0.0
 10
105.0573009465997
 20
94.5849974338974
 30
0.0
 10
105.7137411840221
 20
94.61601358190484
 30
0.0
 10
105.931754840614
 20
94.62835675453162
 30
0.0
 10
106.3644636942968
 20
94.6613808096949
 30
0.0
 10
106.5797401594616
 20
94.68059797483335
 30
0.0
 10
106.789211191732
 20
94.71442492915652
 30
0.0
  0
SPLINE
  5
DC
330
1F
100
AcDbEntity
  8
0
  6
Continuous
 62
     7
370
    15
100
AcDbSpline
210
0.0
220
0.0
230
1.0
 70
     8
 71
     3
 72
     8
 73
     4
 74
     0
 42
0.000000001
 43
0.00000001
 40
0.0000005163856998
 40
0.0000005163856998
 40
0.0000005163856998
 40
0.0000005163856998
 40
0.000026289209185
 40
0.000026289209185
 40
0.000026289209185
 40
0.000026289209185
 10
101.4976913542705
 20
94.55078578472165
 30
0.0
 10
101.5010190924784
 20
94.54745153785254
 30
0.0
 10
101.504367545454
 20
94.54412358057724
 30
0.0
 10
101.5077362846781
 20
94.54080191162487
 30
0.0
  0
SPLINE
  5
DD
330
1F
100
AcDbEntity
  8
0
  6
Continuous
 62
     7
370
    15
100
AcDbSpline
210
0.0
220
0.0
230
1.0
 70
     8
 71
     3
 72
     8
 73
     4
 74
     0
 42
0.000000001
 43
0.00000001
 40
0.0000005099763573
 40
0.0000005099763573
 40
0.0000005099763573
 40
0.0000005099763573
 40
0.0000262827998699
 40
0.0000262827998699
 40
0.0000262827998699
 40
0.0000262827998699
 10
101.5077362846781
 20
136.280677442415
 30
0.0
 10
101.5043675454504
 20
136.2773557734591
 30
0.0
 10
101.5010190924713
 20
136.2740278161803
 30
0.0
 10
101.4976913542599
 20
136.2706935693076
 30
0.0
  0
SPLINE
  5
DE
330
1F
100
AcDbEntity
  8
0
  6
Continuous
 62
     7
370
    15
100
AcDbSpline
210
0.0
220
0.0
230
1.0
 70
     8
 71
     3
 72
    10
 73
     6
 74
     0
 42
0.000000001
 43
0.00000001
 40
0.0
 40
0.0
 40
0.0
 40
0.0
 40
0.5
 40
0.5
 40
1.0
 40
1.0
 40
1.0
 40
1.0
 10
105.0577362846782
 20
136.2338270688477
 30
0.0
 10
104.4701507375876
 20
136.2548925890841
 30
0.0
 10
103.8794043441272
 20
136.2656510749563
 30
0.0
 10
102.6953851788283
 20
136.279015855492
 30
0.0
 10
102.1019711906229
 20
136.2811584981566
 30
0.0
 10
101.5077362846782
 20
136.280677442415
 30
0.0
  0
SPLINE
  5
DF
330
1F
100
AcDbEntity
  8
0
  6
Continuous
 62
     7
370
    15
100
AcDbSpline
210
0.0
220
0.0
230
1.0
 70
     8
 71
     3
 72
    18
 73
    14
 74
     0
 42
0.000000001
 43
0.00000001
 40
0.0
 40
0.0
 40
0.0
 40
0.0
 40
0.2499999999999996
 40
0.2499999999999996
 40
0.5
 40
0.5
 40
0.7500000000000003
 40
0.7500000000000003
 40
0.8750000000000002
 40
0.8750000000000002
 40
0.9375000000000001
 40
0.9375000000000001
 40
1.0
 40
1.0
 40
1.0
 40
1.0
 10
106.4577362846782
 20
137.2548473493829
 30
0.0
 10
106.4577362846782
 20
137.1716404405257
 30
0.0
 10
106.4218871847399
 20
137.0829037852122
 30
0.0
 10
106.297015448706
 20
136.9007785946519
 30
0.0
 10
106.2066150310581
 20
136.8056485460253
 30
0.0
 10
105.9843723763159
 20
136.616467036901
 30
0.0
 10
105.8546075898702
 20
136.5215218688063
 30
0.0
 10
105.6139701325587
 20
136.3832431612263
 30
0.0
 10
105.5262028344212
 20
136.337532727924
 30
0.0
 10
105.3716787472144
 20
136.2797094227025
 30
0.0
 10
105.3150678611597
 20
136.2619946586646
 30
0.0
 10
105.191023830253
 20
136.2374553554317
 30
0.0
 10
105.1233091552348
 20
136.2314762168934
 30
0.0
 10
105.0577362846782
 20
136.2338270688477
 30
0.0
  0
LINE
  5
E0
330
1F
100
AcDbEntity
  8
0
  6
Continuous
 62
     7
370
    15
100
AcDbLine
 10
106.4577362847
 20
137.2548473494
 30
0.0
 11
106.4577362847
 21
138.4387857692
 31
0.0
  0
LINE
  5
E1
330
1F
100
AcDbEntity
  8
0
  6
Continuous
 62
     7
370
    15
100
AcDbLine
 10
130.2577362847
 20
91.1903088153
 30
0.0
 11
130.2577362847
 21
139.6311705387
 31
0.0
  0
SPLINE
  5
E2
330
1F
100
AcDbEntity
  8
0
  6
Continuous
 62
     7
370
    15
100
AcDbSpline
210
0.0
220
0.0
230
1.0
 70
     8
 71
     3
 72
    24
 73
    20
 74
     0
 42
0.000000001
 43
0.00000001
 40
0.0
 40
0.0
 40
0.0
 40
0.0
 40
0.0010489762969675
 40
0.0637843125639742
 40
0.1272220590447992
 40
0.1903788924487996
 40
0.2526748653693623
 40
0.3146354154423325
 40
0.3770891997149642
 40
0.4393540298503623
 40
0.5008133242537848
 40
0.5621845104596915
 40
0.6248438451115951
 40
0.6874304766627318
 40
0.7496743174679439
 40
0.8119848426973817
 40
0.8750960525412996
 40
0.9384412526960664
 40
1.0
 40
1.0
 40
1.0
 40
1.0
 10
119.0266421166539
 20
91.75323124843982
 30
0.0
 10
119.0261956565496
 20
91.75317296262091
 30
0.0
 10
118.9990480928556
 20
91.74962882067844
 30
0.0
 10
119.0946598704683
 20
91.76246256536119
 30
0.0
 10
119.3282201283641
 20
91.79170925056134
 30
0.0
 10
119.7237744356822
 20
91.83832357362408
 30
0.0
 10
120.2508147395183
 20
91.8885067152835
 30
0.0
 10
120.8943451515079
 20
91.93288317773313
 30
0.0
 10
121.6330190067467
 20
91.95982795867127
 30
0.0
 10
122.4305335121807
 20
91.96329980937824
 30
0.0
 10
123.2571123946277
 20
91.93567256534753
 30
0.0
 10
124.0826354122397
 20
91.87719367637487
 30
0.0
 10
124.874761960244
 20
91.79174864701339
 30
0.0
 10
125.607334234243
 20
91.69001440717717
 30
0.0
 10
126.2429744709723
 20
91.58217128520492
 30
0.0
 10
126.7648855779761
 20
91.48054112846624
 30
0.0
 10
127.1465143550933
 20
91.39805597178818
 30
0.0
 10
127.3973288253296
 20
91.34190676543825
 30
0.0
 10
127.426450381313
 20
91.33505730682452
 30
0.0
 10
127.4408029021288
 20
91.33168156009633
 30
0.0
  0
SPLINE
  5
E3
330
1F
100
AcDbEntity
  8
0
  6
Continuous
 62
     7
370
    15
100
AcDbSpline
210
0.0
220
0.0
230
1.0
 70
     8
 71
     3
 72
    24
 73
    20
 74
     0
 42
0.000000001
 43
0.00000001
 40
0.0
 40
0.0
 40
0.0
 40
0.0
 40
0.0614384276247849
 40
0.1250736755369546
 40
0.1884253490727482
 40
0.2508623904037504
 40
0.3129665632512366
 40
0.3753451453465248
 40
0.4377328972326114
 40
0.4990927322917333
 40
0.5605807588448609
 40
0.6229469893028933
 40
0.6854686282029175
 40
0.7475477813740337
 40
0.8098225060806368
 40
0.8730684085990423
 40
0.9364041844528856
 40
0.9991757196257862
 40
1.0
 40
1.0
 40
1.0
 40
1.0
 10
127.4407481313259
 20
139.4897686514773
 30
0.0
 10
127.4261474070223
 20
139.4864005946247
 30
0.0
 10
127.3964238882939
 20
139.479544051151
 30
0.0
 10
127.1436860726464
 20
139.4232054306252
 30
0.0
 10
126.7606901561977
 20
139.3403483484951
 30
0.0
 10
126.2383345717592
 20
139.2384413185438
 30
0.0
 10
125.6035500937589
 20
139.1306021794998
 30
0.0
 10
124.8733264895857
 20
139.0291352275247
 30
0.0
 10
124.082857904352
 20
138.9440755138341
 30
0.0
 10
123.2583743895234
 20
138.8858712199477
 30
0.0
 10
122.4313379306404
 20
138.8582877811211
 30
0.0
 10
121.6330136629876
 20
138.861780758614
 30
0.0
 10
120.8931896986984
 20
138.888736678467
 30
0.0
 10
120.2489354657234
 20
138.9330906204664
 30
0.0
 10
119.7215282105102
 20
138.9832960702243
 30
0.0
 10
119.3268636083591
 20
139.0299059254223
 30
0.0
 10
119.0943343291734
 20
139.05910151797
 30
0.0
 10
118.9989542966212
 20
139.0718795869112
 30
0.0
 10
119.0258879335227
 20
139.0683253284033
 30
0.0
 10
119.0262370267471
 20
139.06827926082
 30
0.0
  0
SPLINE
  5
E4
330
1F
100
AcDbEntity
  8
0
  6
Continuous
 62
     7
370
    15
100
AcDbSpline
210
0.0
220
0.0
230
1.0
 70
     8
 71
     3
 72
     9
 73
     5
 74
     0
 42
0.000000001
 43
0.00000001
 40
0.0
 40
0.0
 40
0.0
 40
0.0
 40
0.7009329310330055
 40
1.0
 40
1.0
 40
1.0
 40
1.0
 10
100.3785209689136
 20
95.70945937291734
 30
0.0
 10
100.3876602455889
 20
95.6916300873758
 30
0.0
 10
100.4006989776425
 20
95.66619358018353
 30
0.0
 10
100.4158642314078
 20
95.7200734403753
 30
0.0
 10
100.4203996594016
 20
95.73618713223922
 30
0.0
  0
LINE
  5
E5
330
1F
100
AcDbEntity
  8
0
  6
Continuous
 62
     7
370
    15
100
AcDbLine
 10
100.3577362847
 20
95.7200619305
 30
0.0
 11
100.3577362847
 21
135.1014174235
 31
0.0
  0
SPLINE
  5
E6
330
1F
100
AcDbEntity
  8
0
  6
Continuous
 62
     7
370
    15
100
AcDbSpline
210
0.0
220
0.0
230
1.0
 70
     8
 71
     3
 72
    10
 73
     6
 74
     0
 42
0.000000001
 43
0.00000001
 40
0.0
 40
0.0
 40
0.0
 40
0.0
 40
0.5
 40
0.5
 40
1.0
 40
1.0
 40
1.0
 40
1.0
 10
100.4203996594016
 20
135.0852922218007
 30
0.0
 10
100.4114953702928
 20
135.1310337410139
 30
0.0
 10
100.3949799900998
 20
135.1482245804829
 30
0.0
 10
100.3678720440382
 20
135.1479013035471
 30
0.0
 10
100.3577362846782
 20
135.1300237612507
 30
0.0
 10
100.3577362846782
 20
135.1014174234981
 30
0.0
  0
SPLINE
  5
E7
330
1F
100
AcDbEntity
  8
0
  6
Continuous
 62
     7
370
    15
100
AcDbSpline
210
0.0
220
0.0
230
1.0
 70
     8
 71
     3
 72
    26
 73
    22
 74
     0
 42
0.000000001
 43
0.00000001
 40
0.0
 40
0.0
 40
0.0
 40
0.0
 40
0.250000000000008
 40
0.250000000000008
 40
0.3750000000000121
 40
0.3750000000000121
 40
0.4375000000000128
 40
0.4375000000000128
 40
0.4687500000000128
 40
0.4687500000000128
 40
0.5000000000000127
 40
0.5000000000000127
 40
0.5312500000000125
 40
0.5312500000000125
 40
0.5625000000000124
 40
0.5625000000000124
 40
0.62500000000001
 40
0.62500000000001
 40
0.7500000000000072
 40
0.7500000000000072
 40
1.0
 40
1.0
 40
1.0
 40
1.0
 10
101.1818899307827
 20
135.8008590106178
 30
0.0
 10
101.1432894079142
 20
135.6830843142623
 30
0.0
 10
101.0969924053599
 20
135.5586946281004
 30
0.0
 10
101.003053056926
 20
135.3534752957469
 30
0.0
 10
100.9677415900126
 20
135.2819024293005
 30
0.0
 10
100.9015616142669
 20
135.1659491967
 30
0.0
 10
100.8770232475987
 20
135.1253646618898
 30
0.0
 10
100.8336505020448
 20
135.061222980018
 30
0.0
 10
100.8181421006197
 20
135.039356554733
 30
0.0
 10
100.7830994560326
 20
134.9937622863898
 30
0.0
 10
100.7635491653128
 20
134.9700919954224
 30
0.0
 10
100.7216218849423
 20
134.9254754360825
 30
0.0
 10
100.6989697747106
 20
134.9045954235645
 30
0.0
 10
100.657996060624
 20
134.8737220098137
 30
0.0
 10
100.6403967607286
 20
134.8638831399813
 30
0.0
 10
100.5957697748724
 20
134.8448935242851
 30
0.0
 10
100.5752105522191
 20
134.8445691996317
 30
0.0
 10
100.5240851127224
 20
134.8537926405079
 30
0.0
 10
100.5031736997339
 20
134.8750395367249
 30
0.0
 10
100.4517237921729
 20
134.9490084155557
 30
0.0
 10
100.4340584928684
 20
135.0151265088704
 30
0.0
 10
100.4203996594016
 20
135.0852922218007
 30
0.0
  0
SPLINE
  5
E8
330
1F
100
AcDbEntity
  8
0
  6
Continuous
 62
     7
370
    15
100
AcDbSpline
210
0.0
220
0.0
230
1.0
 70
     8
 71
     3
 72
    10
 73
     6
 74
     0
 42
0.000000001
 43
0.00000001
 40
0.0
 40
0.0
 40
0.0
 40
0.0
 40
0.5
 40
0.5
 40
1.0
 40
1.0
 40
1.0
 40
1.0
 10
101.4976913542599
 20
136.2706935693076
 30
0.0
 10
101.4301320993417
 20
136.2030021764978
 30
0.0
 10
101.3664954440052
 20
136.1282950117442
 30
0.0
 10
101.2562746894334
 20
135.9693288793176
 30
0.0
 10
101.2094583962107
 20
135.8849736133096
 30
0.0
 10
101.1818899307827
 20
135.8008590106178
 30
0.0
  0
SPLINE
  5
E9
330
1F
100
AcDbEntity
  8
0
  6
Continuous
 62
     7
370
    15
100
AcDbSpline
210
0.0
220
0.0
230
1.0
 70
     8
 71
     3
 72
    10
 73
     6
 74
     0
 42
0.000000001
 43
0.00000001
 40
0.0
 40
0.0
 40
0.0
 40
0.0
 40
0.5
 40
0.5
 40
1.0
 40
1.0
 40
1.0
 40
1.0
 10
101.1818899307827
 20
95.02062034342198
 30
0.0
 10
101.2093673455367
 20
94.93678354695409
 30
0.0
 10
101.2560759758261
 20
94.85247305936497
 30
0.0
 10
101.3663544385721
 20
94.69335182887825
 30
0.0
 10
101.4302419771859
 20
94.6183670847886
 30
0.0
 10
101.4976913542706
 20
94.55078578472167
 30
0.0
  0
SPLINE
  5
EA
330
1F
100
AcDbEntity
  8
0
  6
Continuous
 62
     7
370
    15
100
AcDbSpline
210
0.0
220
0.0
230
1.0
 70
     8
 71
     3
 72
    24
 73
    20
 74
     0
 42
0.000000001
 43
0.00000001
 40
0.0
 40
0.0
 40
0.0
 40
0.0
 40
0.2500000000000034
 40
0.2500000000000034
 40
0.3750000000000043
 40
0.3750000000000043
 40
0.4375000000000036
 40
0.4375000000000036
 40
0.4687500000000054
 40
0.4687500000000054
 40
0.5000000000000073
 40
0.5000000000000073
 40
0.5625000000000063
 40
0.5625000000000063
 40
0.6250000000000052
 40
0.6250000000000052
 40
0.7500000000000029
 40
0.7500000000000029
 40
1.0
 40
1.0
 40
1.0
 40
1.0
 10
100.4203996594016
 20
95.73618713223922
 30
0.0
 10
100.4341527780718
 20
95.80683719022949
 30
0.0
 10
100.4519253454777
 20
95.87343530299441
 30
0.0
 10
100.504176437033
 20
95.94753332322763
 30
0.0
 10
100.5252115126146
 20
95.96879113038918
 30
0.0
 10
100.578111920243
 20
95.97693705653543
 30
0.0
 10
100.5992175931209
 20
95.97599725313964
 30
0.0
 10
100.6452697617989
 20
95.9549812615623
 30
0.0
 10
100.6636402337823
 20
95.94407245545466
 30
0.0
 10
100.705191868848
 20
95.9114375445073
 30
0.0
 10
100.7277585416049
 20
95.88994556413594
 30
0.0
 10
100.7905395580649
 20
95.82147962054962
 30
0.0
 10
100.8236693190328
 20
95.77540516234454
 30
0.0
 10
100.8805870055178
 20
95.69039727400987
 30
0.0
 10
100.9047730310216
 20
95.65011697282849
 30
0.0
 10
100.9699809814014
 20
95.53518074636256
 30
0.0
 10
101.0046970415926
 20
95.46459776121553
 30
0.0
 10
101.0979123119235
 20
95.26039200213692
 30
0.0
 10
101.1435848472841
 20
95.13749361980958
 30
0.0
 10
101.1818899307827
 20
95.02062034342201
 30
0.0
  0
LINE
  5
EB
330
1F
100
AcDbEntity
  8
0
  6
Continuous
 62
     7
370
    15
100
AcDbLine
 10
157.6077362847
 20
145.8779351502
 30
0.0
 11
153.6496691162
 21
145.8779351502
 31
0.0
  0
LINE
  5
EC
330
1F
100
AcDbEntity
  8
0
  6
Continuous
 62
     7
370
    15
100
AcDbLine
 10
153.6496691162
 20
139.8694293394
 30
0.0
 11
157.6077362847
 21
139.8694293394
 31
0.0
  0
LINE
  5
ED
330
1F
100
AcDbEntity
  8
0
  6
Continuous
 62
     7
370
    15
100
AcDbLine
 10
153.6496691162
 20
139.8694293394
 30
0.0
 11
153.6496691162
 21
145.8779351502
 31
0.0
  0
SPLINE
  5
EE
330
1F
100
AcDbEntity
  8
0
  6
Continuous
 62
     7
370
    15
100
AcDbSpline
210
0.0
220
0.0
230
1.0
 70
     8
 71
     3
 72
    10
 73
     6
 74
     0
 42
0.000000001
 43
0.00000001
 40
0.0
 40
0.0
 40
0.0
 40
0.0
 40
0.5
 40
0.5
 40
1.0
 40
1.0
 40
1.0
 40
1.0
 10
158.2077362846782
 20
145.2571800007838
 30
0.0
 10
158.2077362846782
 20
145.4175852671347
 30
0.0
 10
158.1454984535713
 20
145.5766470801233
 30
0.0
 10
157.9263635298287
 20
145.8075595457536
 30
0.0
 10
157.7687748348369
 20
145.8779351501842
 30
0.0
 10
157.6077362846782
 20
145.8779351501842
 30
0.0
  0
SPLINE
  5
EF
330
1F
100
AcDbEntity
  8
0
  6
Continuous
 62
     7
370
    15
100
AcDbSpline
210
0.0
220
0.0
230
1.0
 70
     8
 71
     3
 72
    12
 73
     8
 74
     0
 42
0.000000001
 43
0.00000001
 40
0.0
 40
0.0
 40
0.0
 40
0.0
 40
0.249999999999998
 40
0.249999999999998
 40
0.499999999999996
 40
0.499999999999996
 40
1.0
 40
1.0
 40
1.0
 40
1.0
 10
157.6077362846782
 20
139.8694293393874
 30
0.0
 10
157.6989360065038
 20
139.8694293393874
 30
0.0
 10
157.7895310156398
 20
139.8412096407995
 30
0.0
 10
157.9429437420865
 20
139.7467666335514
 30
0.0
 10
158.0081526094102
 20
139.6804796568461
 30
0.0
 10
158.1609371387501
 20
139.4548548335578
 30
0.0
 10
158.2077362846782
 20
139.2724285705252
 30
0.0
 10
158.2077362846782
 20
139.0916919382783
 30
0.0
  0
LINE
  5
F0
330
1F
100
AcDbEntity
  8
0
  6
Continuous
 62
     7
370
    15
100
AcDbLine
 10
158.2077362847
 20
139.0916919383
 30
0.0
 11
158.2077362847
 21
145.2571800008
 31
0.0
  0
SPLINE
  5
F1
330
1F
100
AcDbEntity
  8
0
  6
Continuous
 62
     7
370
    15
100
AcDbSpline
210
0.0
220
0.0
230
1.0
 70
     8
 71
     3
 72
     8
 73
     4
 74
     0
 42
0.000000001
 43
0.00000001
 40
0.0
 40
0.0
 40
0.0
 40
0.0
 40
1.0
 40
1.0
 40
1.0
 40
1.0
 10
152.1677362846782
 20
136.4608833446033
 30
0.0
 10
152.647014435268
 20
137.6018945744559
 30
0.0
 10
153.1425822744079
 20
138.7382789852237
 30
0.0
 10
153.6496691161672
 20
139.8694293393874
 30
0.0
  0
LINE
  5
F2
330
1F
100
AcDbEntity
  8
0
  6
Continuous
 62
     7
370
    15
100
AcDbLine
 10
152.1677362847
 20
135.5466063085
 30
0.0
 11
152.1677362847
 21
136.4608833446
 31
0.0
  0
LINE
  5
F3
330
1F
100
AcDbEntity
  8
0
  6
Continuous
 62
     7
370
    15
100
AcDbLine
 10
158.2077362847
 20
139.0916919383
 30
0.0
 11
158.2077362847
 21
135.260739677
 31
0.0
  0
SPLINE
  5
F4
330
1F
100
AcDbEntity
  8
0
  6
Continuous
 62
     7
370
    15
100
AcDbSpline
210
0.0
220
0.0
230
1.0
 70
     8
 71
     3
 72
     8
 73
     4
 74
     0
 42
0.000000001
 43
0.00000001
 40
0.0
 40
0.0
 40
0.0
 40
0.0
 40
1.0
 40
1.0
 40
1.0
 40
1.0
 10
153.6496691161672
 20
145.8779351501842
 30
0.0
 10
153.1545290868029
 20
144.991255502004
 30
0.0
 10
152.6604463815239
 20
144.103992866318
 30
0.0
 10
152.1677362846782
 20
143.2159738681916
 30
0.0
  0
LINE
  5
F5
330
1F
100
AcDbEntity
  8
0
  6
Continuous
 62
     7
370
    15
100
AcDbLine
 10
152.1677362847
 20
136.4608833446
 30
0.0
 11
152.1677362847
 21
143.2159738682
 31
0.0
  0
SPLINE
  5
F6
330
1F
100
AcDbEntity
  8
0
  6
Continuous
 62
     7
370
    15
100
AcDbSpline
210
0.0
220
0.0
230
1.0
 70
     8
 71
     3
 72
     8
 73
     4
 74
     0
 42
0.000000001
 43
0.00000001
 40
0.0
 40
0.0
 40
0.0
 40
0.0
 40
1.0
 40
1.0
 40
1.0
 40
1.0
 10
148.3477362846781
 20
143.2159738681916
 30
0.0
 10
147.8550261878324
 20
144.103992866318
 30
0.0
 10
147.3609434825534
 20
144.9912555020039
 30
0.0
 10
146.8658034531891
 20
145.8779351501842
 30
0.0
  0
SPLINE
  5
F7
330
1F
100
AcDbEntity
  8
0
  6
Continuous
 62
     7
370
    15
100
AcDbSpline
210
0.0
220
0.0
230
1.0
 70
     8
 71
     3
 72
     8
 73
     4
 74
     0
 42
0.000000001
 43
0.00000001
 40
0.0
 40
0.0
 40
0.0
 40
0.0
 40
1.0
 40
1.0
 40
1.0
 40
1.0
 10
146.8658034531891
 20
139.8694293393874
 30
0.0
 10
147.3728902949484
 20
138.7382789852237
 30
0.0
 10
147.8684581340883
 20
137.6018945744559
 30
0.0
 10
148.3477362846781
 20
136.4608833446033
 30
0.0
  0
LINE
  5
F8
330
1F
100
AcDbEntity
  8
0
  6
Continuous
 62
     7
370
    15
100
AcDbLine
 10
148.3477362847
 20
136.4608833446
 30
0.0
 11
148.3477362847
 21
143.2159738682
 31
0.0
  0
LINE
  5
F9
330
1F
100
AcDbEntity
  8
0
  6
Continuous
 62
     7
370
    15
100
AcDbLine
 10
148.3477362847
 20
136.4608833446
 30
0.0
 11
148.3477362847
 21
135.5466063085
 31
0.0
  0
LINE
  5
FA
330
1F
100
AcDbEntity
  8
0
  6
HIDDEN
 62
     7
370
     0
100
AcDbLine
 10
179.5858271439
 20
132.3078539941
 30
0.0
 11
189.2077362847
 21
132.3078539941
 31
0.0
  0
LINE
  5
FB
330
1F
100
AcDbEntity
  8
0
  6
HIDDEN
 62
     7
370
     0
100
AcDbLine
 10
177.2077362847
 20
132.3078539941
 30
0.0
 11
179.5858271439
 21
132.3078539941
 31
0.0
  0
LINE
  5
FC
330
1F
100
AcDbEntity
  8
0
  6
HIDDEN
 62
     7
370
     0
100
AcDbLine
 10
179.5858271439
 20
139.710739677
 30
0.0
 11
180.3025542039
 21
139.710739677
 31
0.0
  0
LINE
  5
FD
330
1F
100
AcDbEntity
  8
0
  6
HIDDEN
 62
     7
370
     0
100
AcDbLine
 10
186.0821263357
 20
139.710739677
 30
0.0
 11
189.2077362847
 21
139.710739677
 31
0.0
  0
LINE
  5
FE
330
1F
100
AcDbEntity
  8
0
  6
HIDDEN
 62
     7
370
     0
100
AcDbLine
 10
177.2077362847
 20
139.710739677
 30
0.0
 11
179.5858271439
 21
139.710739677
 31
0.0
  0
LINE
  5
FF
330
1F
100
AcDbEntity
  8
0
  6
HIDDEN
 62
     7
370
     0
100
AcDbLine
 10
181.0830025033
 20
123.910739677
 30
0.0
 11
186.7275381883
 21
123.910739677
 31
0.0
  0
LINE
  5
100
330
1F
100
AcDbEntity
  8
0
  6
HIDDEN
 62
     7
370
     0
100
AcDbLine
 10
179.6879343811
 20
123.910739677
 30
0.0
 11
181.0830025033
 21
123.910739677
 31
0.0
  0
SPLINE
  5
101
330
1F
100
AcDbEntity
  8
0
  6
HIDDEN
 62
     7
370
     0
100
AcDbSpline
210
0.0
220
0.0
230
1.0
 70
     8
 71
     3
 72
    11
 73
     7
 74
     0
 42
0.000000001
 43
0.00000001
 40
0.0
 40
0.0
 40
0.0
 40
0.0
 40
0.2164553779443458
 40
0.4403112895790612
 40
0.7519005688038926
 40
1.0
 40
1.0
 40
1.0
 40
1.0
 10
182.777656261298
 20
140.2748412921577
 30
0.0
 10
182.9962996484383
 20
140.1661831218927
 30
0.0
 10
183.4410617636788
 20
139.9451517965126
 30
0.0
 10
184.2664214609738
 20
139.7609218720952
 30
0.0
 10
185.1517677885175
 20
139.8719977761945
 30
0.0
 10
185.7183362734712
 20
140.1511142379681
 30
0.0
 10
185.9694853787389
 20
140.2748412921577
 30
0.0
  0
SPLINE
  5
102
330
1F
100
AcDbEntity
  8
0
  6
HIDDEN
 62
     7
370
     0
100
AcDbSpline
210
0.0
220
0.0
230
1.0
 70
     8
 71
     3
 72
    11
 73
     7
 74
     0
 42
0.000000001
 43
0.00000001
 40
0.0
 40
0.0
 40
0.0
 40
0.0
 40
0.2164553779443397
 40
0.4403112895790677
 40
0.7519005688038919
 40
1.0
 40
1.0
 40
1.0
 40
1.0
 10
185.9694853787389
 20
140.2748412921577
 30
0.0
 10
185.9989462770494
 20
140.1661831218927
 30
0.0
 10
186.0588753314829
 20
139.9451517965126
 30
0.0
 10
186.1700876504537
 20
139.7609218720953
 30
0.0
 10
186.2893828117043
 20
139.8719977761945
 30
0.0
 10
186.3657245512806
 20
140.1511142379682
 30
0.0
 10
186.3995654021192
 20
140.2748412921577
 30
0.0
  0
SPLINE
  5
103
330
1F
100
AcDbEntity
  8
0
  6
HIDDEN
 62
     7
370
     0
100
AcDbSpline
210
0.0
220
0.0
230
1.0
 70
     8
 71
     3
 72
    13
 73
     9
 74
     0
 42
0.000000001
 43
0.00000001
 40
0.0
 40
0.0
 40
0.0
 40
0.0
 40
0.1844095697099132
 40
0.3495005370884487
 40
0.5197705331556388
 40
0.6927076360809596
 40
0.8718061725834132
 40
1.0
 40
1.0
 40
1.0
 40
1.0
 10
186.3995654021192
 20
140.2748412921577
 30
0.0
 10
186.2386033619649
 20
140.1811539788526
 30
0.0
 10
185.9335415391255
 20
140.0035939619293
 30
0.0
 10
185.448615894922
 20
139.8403211276001
 30
0.0
 10
184.9585883480685
 20
139.7893923625535
 30
0.0
 10
184.4577501033699
 20
139.8726845018113
 30
0.0
 10
184.0160921564822
 20
140.0499733138885
 30
0.0
 10
183.7491691587192
 20
140.2086470307293
 30
0.0
 10
183.6378163080583
 20
140.2748412921577
 30
0.0
  0
SPLINE
  5
104
330
1F
100
AcDbEntity
  8
0
  6
HIDDEN
 62
     7
370
     0
100
AcDbSpline
210
0.0
220
0.0
230
1.0
 70
     8
 71
     3
 72
    11
 73
     7
 74
     0
 42
0.000000001
 43
0.00000001
 40
0.0
 40
0.0
 40
0.0
 40
0.0
 40
0.2164553779443315
 40
0.4403112895790574
 40
0.7519005688038725
 40
1.0
 40
1.0
 40
1.0
 40
1.0
 10
183.6378163080583
 20
140.2748412921577
 30
0.0
 10
183.419172920918
 20
140.1661831218927
 30
0.0
 10
182.9744108056775
 20
139.9451517965127
 30
0.0
 10
182.1490511083824
 20
139.7609218720953
 30
0.0
 10
181.2637047808388
 20
139.8719977761946
 30
0.0
 10
180.6971362958851
 20
140.1511142379682
 30
0.0
 10
180.4459871906174
 20
140.2748412921577
 30
0.0
  0
SPLINE
  5
105
330
1F
100
AcDbEntity
  8
0
  6
HIDDEN
 62
     7
370
     0
100
AcDbSpline
210
0.0
220
0.0
230
1.0
 70
     8
 71
     3
 72
    11
 73
     7
 74
     0
 42
0.000000001
 43
0.00000001
 40
0.0
 40
0.0
 40
0.0
 40
0.0
 40
0.2164553779443457
 40
0.4403112895790557
 40
0.7519005688038723
 40
0.9999999999999999
 40
0.9999999999999999
 40
0.9999999999999999
 40
0.9999999999999999
 10
180.4459871906174
 20
140.2748412921577
 30
0.0
 10
180.4165262923069
 20
140.1661831218927
 30
0.0
 10
180.3565972378735
 20
139.9451517965127
 30
0.0
 10
180.2453849189025
 20
139.7609218720953
 30
0.0
 10
180.1260897576519
 20
139.8719977761945
 30
0.0
 10
180.0497480180757
 20
140.1511142379682
 30
0.0
 10
180.0159071672372
 20
140.2748412921577
 30
0.0
  0
SPLINE
  5
106
330
1F
100
AcDbEntity
  8
0
  6
HIDDEN
 62
     7
370
     0
100
AcDbSpline
210
0.0
220
0.0
230
1.0
 70
     8
 71
     3
 72
    12
 73
     8
 74
     0
 42
0.000000001
 43
0.00000001
 40
0.0
 40
0.0
 40
0.0
 40
0.0
 40
0.1283789717131135
 40
0.3048489961049043
 40
0.4808701485597112
 40
0.8153240962493431
 40
1.0
 40
1.0
 40
1.0
 40
1.0
 10
180.0159071672372
 20
140.2748412921577
 30
0.0
 10
180.1272375231357
 20
140.2085606968
 30
0.0
 10
180.3916028376321
 20
140.0511706454046
 30
0.0
 10
180.8334982055457
 20
139.8752185859552
 30
0.0
 10
181.4902518816311
 20
139.761719850713
 30
0.0
 10
182.1652020573921
 20
139.9182798862532
 30
0.0
 10
182.6169506507257
 20
140.1812809605003
 30
0.0
 10
182.7776562612979
 20
140.2748412921577
 30
0.0
  0
LINE
  5
107
330
1F
100
AcDbEntity
  8
0
  6
HIDDEN
 62
     7
370
     0
100
AcDbLine
 10
181.3967817143
 20
132.410739677
 30
0.0
 11
186.2077362847
 21
132.410739677
 31
0.0
  0
LINE
  5
108
330
1F
100
AcDbEntity
  8
0
  6
HIDDEN
 62
     7
370
     0
100
AcDbLine
 10
180.2077362847
 20
132.410739677
 30
0.0
 11
181.3967817143
 21
132.410739677
 31
0.0
  0
LINE
  5
109
330
1F
100
AcDbEntity
  8
0
  6
HIDDEN
 62
     7
370
     0
100
AcDbLine
 10
184.37357082
 20
133.410739677
 30
0.0
 11
182.7776562613
 21
133.410739677
 31
0.0
  0
LINE
  5
10A
330
1F
100
AcDbEntity
  8
0
  6
HIDDEN
 62
     7
370
     0
100
AcDbLine
 10
182.7776562613
 20
133.410739677
 30
0.0
 11
181.3967817143
 21
133.410739677
 31
0.0
  0
LINE
  5
10B
330
1F
100
AcDbEntity
  8
0
  6
HIDDEN
 62
     7
370
     0
100
AcDbLine
 10
182.7776562613
 20
133.410739677
 30
0.0
 11
182.7776562613
 21
140.2748412922
 31
0.0
  0
LINE
  5
10C
330
1F
100
AcDbEntity
  8
0
  6
HIDDEN
 62
     7
370
     0
100
AcDbLine
 10
185.9694853787
 20
133.410739677
 30
0.0
 11
184.37357082
 21
133.410739677
 31
0.0
  0
LINE
  5
10D
330
1F
100
AcDbEntity
  8
0
  6
HIDDEN
 62
     7
370
     0
100
AcDbLine
 10
181.3967817143
 20
133.410739677
 30
0.0
 11
180.0159071672
 21
133.410739677
 31
0.0
  0
LINE
  5
10E
330
1F
100
AcDbEntity
  8
0
  6
HIDDEN
 62
     7
370
     0
100
AcDbLine
 10
186.1845253904
 20
133.410739677
 30
0.0
 11
185.9694853787
 21
133.410739677
 31
0.0
  0
LINE
  5
10F
330
1F
100
AcDbEntity
  8
0
  6
HIDDEN
 62
     7
370
     0
100
AcDbLine
 10
185.9694853787
 20
133.410739677
 30
0.0
 11
185.9694853787
 21
140.2748412922
 31
0.0
  0
LINE
  5
110
330
1F
100
AcDbEntity
  8
0
  6
HIDDEN
 62
     7
370
     0
100
AcDbLine
 10
180.4459871906
 20
133.410739677
 30
0.0
 11
180.4459871906
 21
140.2748412922
 31
0.0
  0
LINE
  5
111
330
1F
100
AcDbEntity
  8
0
  6
HIDDEN
 62
     7
370
     0
100
AcDbLine
 10
180.0159071672
 20
133.410739677
 30
0.0
 11
180.0159071672
 21
140.2748412922
 31
0.0
  0
LINE
  5
112
330
1F
100
AcDbEntity
  8
0
  6
HIDDEN
 62
     7
370
     0
100
AcDbLine
 10
186.3995654021
 20
133.410739677
 30
0.0
 11
186.1845253904
 21
133.410739677
 31
0.0
  0
LINE
  5
113
330
1F
100
AcDbEntity
  8
0
  6
HIDDEN
 62
     7
370
     0
100
AcDbLine
 10
183.6378163081
 20
133.410739677
 30
0.0
 11
183.6378163081
 21
140.2748412922
 31
0.0
  0
LINE
  5
114
330
1F
100
AcDbEntity
  8
0
  6
HIDDEN
 62
     7
370
     0
100
AcDbLine
 10
186.3995654021
 20
133.410739677
 30
0.0
 11
186.3995654021
 21
140.2748412922
 31
0.0
  0
LINE
  5
115
330
1F
100
AcDbEntity
  8
0
  6
HIDDEN
 62
     7
370
     0
100
AcDbLine
 10
146.8658034532
 20
139.8694293394
 30
0.0
 11
146.8658034532
 21
135.260739677
 31
0.0
  0
CIRCLE
  5
116
330
1F
100
AcDbEntity
  8
0
  6
HIDDEN
 62
     7
370
     0
100
AcDbCircle
 10
183.2077362847
 20
115.410739677
 30
0.0
 40
5.5
  0
SPLINE
  5
117
330
1F
100
AcDbEntity
  8
0
  6
HIDDEN
 62
     7
370
     0
100
AcDbSpline
210
0.0
220
0.0
230
1.0
 70
     8
 71
     3
 72
    10
 73
     6
 74
     0
 42
0.000000001
 43
0.00000001
 40
0.0
 40
0.0
 40
0.0
 40
0.0
 40
0.2194822808477286
 40
0.6186543227651796
 40
1.0
 40
1.0
 40
1.0
 40
1.0
 10
175.9717015734672
 20
140.4076029596653
 30
0.0
 10
175.9696938024522
 20
140.4080620667966
 30
0.0
 10
175.9640345017893
 20
140.409356151268
 30
0.0
 10
176.0575755865732
 20
140.3880742849951
 30
0.0
 10
176.2234677440426
 20
140.3522896178916
 30
0.0
 10
176.3045194044799
 20
140.3348059301081
 30
0.0
  0
SPLINE
  5
118
330
1F
100
AcDbEntity
  8
0
  6
HIDDEN
 62
     7
370
     0
100
AcDbSpline
210
0.0
220
0.0
230
1.0
 70
     8
 71
     3
 72
     9
 73
     5
 74
     0
 42
0.000000001
 43
0.00000001
 40
0.0
 40
0.0
 40
0.0
 40
0.0
 40
0.1797284604123421
 40
1.0
 40
1.0
 40
1.0
 40
1.0
 10
178.0493072562253
 20
140.0035507770325
 30
0.0
 10
178.0667276033886
 20
140.0005765499183
 30
0.0
 10
178.1636535277717
 20
139.9840281017349
 30
0.0
 10
178.2704246920778
 20
139.9675304695511
 30
0.0
 10
178.3580060394067
 20
139.9539979314001
 30
0.0
  0
LINE
  5
119
330
1F
100
AcDbEntity
  8
0
  6
HIDDEN
 62
     7
370
     0
100
AcDbLine
 10
120.2528864892
 20
91.8861400542
 30
0.0
 11
120.0040216704
 21
91.8628770877
 31
0.0
  0
SPLINE
  5
11A
330
1F
100
AcDbEntity
  8
0
  6
HIDDEN
 62
     7
370
     0
100
AcDbSpline
210
0.0
220
0.0
230
1.0
 70
     8
 71
     3
 72
    11
 73
     7
 74
     0
 42
0.000000001
 43
0.00000001
 40
0.0
 40
0.0
 40
0.0
 40
0.0
 40
0.2468412763869293
 40
0.4995707343914565
 40
0.7516700890852313
 40
1.0
 40
1.0
 40
1.0
 40
1.0
 10
119.0262370267471
 20
139.06827926082
 30
0.0
 10
119.0407796990473
 20
139.0662516560284
 30
0.0
 10
119.0702119463091
 20
139.0621480797156
 30
0.0
 10
119.3243752559556
 20
139.0302909111563
 30
0.0
 10
119.7016161255832
 20
138.9845460594849
 30
0.0
 10
120.069992810567
 20
138.9516478902119
 30
0.0
 10
120.2527937689679
 20
138.9353227070017
 30
0.0
  0
SPLINE
  5
11B
330
1F
100
AcDbEntity
  8
0
  6
HIDDEN
 62
     7
370
     0
100
AcDbSpline
210
0.0
220
0.0
230
1.0
 70
     8
 71
     3
 72
    22
 73
    18
 74
     0
 42
0.000000001
 43
0.00000001
 40
0.0
 40
0.0
 40
0.0
 40
0.0
 40
0.069470503305567
 40
0.1409377255045835
 40
0.210413548914841
 40
0.2819466223559928
 40
0.3506518733998512
 40
0.4213897814436843
 40
0.4894670043894698
 40
0.5594810940348491
 40
0.6282706827033763
 40
0.6989997382187424
 40
0.7687375408512298
 40
0.8405098102584774
 40
0.9099666189318139
 40
0.9814998892127897
 40
1.0
 40
1.0
 40
1.0
 40
1.0
 10
126.0127382862798
 20
95.57321120120349
 30
0.0
 10
125.8645644318204
 20
95.5929375410128
 30
0.0
 10
125.5639579149093
 20
95.63295719443359
 30
0.0
 10
125.0290630522285
 20
95.68833085796344
 30
0.0
 10
124.4434244995598
 20
95.73278724309125
 30
0.0
 10
123.8291918399864
 20
95.76047221854341
 30
0.0
 10
123.1952751946181
 20
95.76872547201329
 30
0.0
 10
122.5731264940464
 20
95.75674541713282
 30
0.0
 10
121.9671290241857
 20
95.72599466337184
 30
0.0
 10
121.4026401030592
 20
95.68052869262164
 30
0.0
 10
120.8832638654775
 20
95.62444754082206
 30
0.0
 10
120.4303983677961
 20
95.56445737850365
 30
0.0
 10
120.0516832241304
 20
95.50647746414472
 30
0.0
 10
119.7635981030553
 20
95.45755865599824
 30
0.0
 10
119.5811402065027
 20
95.42452329347248
 30
0.0
 10
119.5004822551686
 20
95.40938349721684
 30
0.0
 10
119.5147721338675
 20
95.41205545058983
 30
0.0
 10
119.5177084263396
 20
95.41260448510162
 30
0.0
  0
SPLINE
  5
11C
330
1F
100
AcDbEntity
  8
0
  6
HIDDEN
 62
     7
370
     0
100
AcDbSpline
210
0.0
220
0.0
230
1.0
 70
     8
 71
     3
 72
    22
 73
    18
 74
     0
 42
0.000000001
 43
0.00000001
 40
0.0
 40
0.0
 40
0.0
 40
0.0
 40
0.0499040281125877
 40
0.1203075863893537
 40
0.1885125365560124
 40
0.2586444168297182
 40
0.327783940729315
 40
0.3988873214655091
 40
0.4686969488930329
 40
0.5405663748364745
 40
0.6097087891223003
 40
0.6809159691092491
 40
0.7490773369981701
 40
0.8192056085539683
 40
0.887607837908824
 40
0.9579332867310414
 40
1.0
 40
1.0
 40
1.0
 40
1.0
 10
119.5177084263396
 20
135.4088748689383
 30
0.0
 10
119.518959360365
 20
135.4086358385426
 30
0.0
 10
119.5219750859294
 20
135.4080595890679
 30
0.0
 10
119.6468684129829
 20
135.3848615542444
 30
0.0
 10
119.8713502408604
 20
135.3451815179267
 30
0.0
 10
120.1903784030379
 20
135.2929700965275
 30
0.0
 10
120.5979136340346
 20
135.2336402848553
 30
0.0
 10
121.0797001878676
 20
135.1741655083393
 30
0.0
 10
121.6301198696628
 20
135.1205591519773
 30
0.0
 10
122.2230147556111
 20
135.080085233503
 30
0.0
 10
122.8499673259282
 20
135.0568859851367
 30
0.0
 10
123.4781782997563
 20
135.0539078819218
 30
0.0
 10
124.1024383922333
 20
135.071042207621
 30
0.0
 10
124.6950566820616
 20
135.1057280633111
 30
0.0
 10
125.2518827655897
 20
135.1546844269749
 30
0.0
 10
125.6896896102226
 20
135.2045845915981
 30
0.0
 10
125.9247563169955
 20
135.2363709805898
 30
0.0
 10
126.0127382862798
 20
135.2482681528364
 30
0.0
  0
SPLINE
  5
11D
330
1F
100
AcDbEntity
  8
0
  6
HIDDEN
 62
     7
370
     0
100
AcDbSpline
210
0.0
220
0.0
230
1.0
 70
     8
 71
     3
 72
    12
 73
     8
 74
     0
 42
0.000000001
 43
0.00000001
 40
0.0
 40
0.0
 40
0.0
 40
0.0
 40
0.2208179050092453
 40
0.4480882143123761
 40
0.6689404966582171
 40
0.8961334119079901
 40
1.0
 40
1.0
 40
1.0
 40
1.0
 10
126.0127382862798
 20
135.2482681528364
 30
0.0
 10
126.1447815042613
 20
135.2653252408446
 30
0.0
 10
126.4127263059065
 20
135.2999378330919
 30
0.0
 10
126.7078822463806
 20
135.3269097679081
 30
0.0
 10
126.9089751122882
 20
135.3424195353611
 30
0.0
 10
127.0063072974068
 20
135.3485288066231
 30
0.0
 10
126.9976483361647
 20
135.347983531036
 30
0.0
 10
126.9949316742004
 20
135.3478124563071
 30
0.0
  0
SPLINE
  5
11E
330
1F
100
AcDbEntity
  8
0
  6
HIDDEN
 62
     7
370
     0
100
AcDbSpline
210
0.0
220
0.0
230
1.0
 70
     8
 71
     3
 72
    12
 73
     8
 74
     0
 42
0.000000001
 43
0.00000001
 40
0.0
 40
0.0
 40
0.0
 40
0.0
 40
0.1181069597121596
 40
0.3464974817516418
 40
0.5687583608183489
 40
0.7975172875909043
 40
1.0
 40
1.0
 40
1.0
 40
1.0
 10
126.9949317605062
 20
95.47366689223229
 30
0.0
 10
126.9970546719256
 20
95.4735328527627
 30
0.0
 10
127.0032827846682
 20
95.47313961311977
 30
0.0
 10
126.8986174698896
 20
95.47976290393454
 30
0.0
 10
126.6886436010076
 20
95.49616729918372
 30
0.0
 10
126.3931851947333
 20
95.52376900674602
 30
0.0
 10
126.1342957453832
 20
95.55741381292879
 30
0.0
 10
126.0127382862798
 20
95.57321120120349
 30
0.0
  0
LINE
  5
11F
330
1F
100
AcDbEntity
  8
0
  6
HIDDEN
 62
     7
370
     0
100
AcDbLine
 10
113.2617108809
 20
98.410739677
 30
0.0
 11
113.2617108809
 21
132.410739677
 31
0.0
  0
SPLINE
  5
120
330
1F
100
AcDbEntity
  8
0
  6
HIDDEN
 62
     7
370
     0
100
AcDbSpline
210
0.0
220
0.0
230
1.0
 70
     8
 71
     3
 72
     8
 73
     4
 74
     0
 42
0.000000001
 43
0.00000001
 40
0.0
 40
0.0
 40
0.0
 40
0.0
 40
0.0011559732291308
 40
0.0011559732291308
 40
0.0011559732291308
 40
0.0011559732291308
 10
100.3577362846782
 20
117.4105802956466
 30
0.0
 10
100.6910708597455
 20
117.4066130158474
 30
0.0
 10
101.0244020507722
 20
117.4024331332767
 30
0.0
 10
101.3577362846781
 20
117.397867979869
 30
0.0
  0
SPLINE
  5
121
330
1F
100
AcDbEntity
  8
0
  6
HIDDEN
 62
     7
370
     0
100
AcDbSpline
210
0.0
220
0.0
230
1.0
 70
     8
 71
     3
 72
    11
 73
     7
 74
     0
 42
0.000000001
 43
0.00000001
 40
0.0
 40
0.0
 40
0.0
 40
0.0
 40
0.0005782382535738
 40
0.0005782382535738
 40
0.0005782382535738
 40
0.0011564766069467
 40
0.0011564766069467
 40
0.0011564766069467
 40
0.0011564766069467
 10
101.3577362846782
 20
113.4140393748017
 30
0.0
 10
101.1910823307095
 20
113.41360179704
 30
0.0
 10
101.0244216585076
 20
113.4131217323676
 30
0.0
 10
100.8577547698422
 20
113.4126021929983
 30
0.0
 10
100.6910878514461
 20
113.4120826535363
 30
0.0
 10
100.5244147216129
 20
113.4115238245143
 30
0.0
 10
100.3577362846781
 20
113.4109382809312
 30
0.0
  0
LINE
  5
122
330
1F
100
AcDbEntity
  8
0
  6
HIDDEN
 62
     7
370
     0
100
AcDbLine
 10
139.9175622532
 20
98.410739677
 30
0.0
 11
139.9175622532
 21
132.410739677
 31
0.0
  0
LINE
  5
123
330
1F
100
AcDbEntity
  8
0
  6
HIDDEN
 62
     7
370
     0
100
AcDbLine
 10
142.2077362847
 20
99.685739677
 30
0.0
 11
142.2077362847
 21
131.1357396601
 31
0.0
  0
SPLINE
  5
124
330
1F
100
AcDbEntity
  8
0
  6
HIDDEN
 62
     7
370
     0
100
AcDbSpline
210
0.0
220
0.0
230
1.0
 70
     8
 71
     3
 72
    16
 73
    12
 74
     0
 42
0.000000001
 43
0.00000001
 40
0.0
 40
0.0
 40
0.0
 40
0.0
 40
0.124999999999998
 40
0.124999999999998
 40
0.249999999999996
 40
0.249999999999996
 40
0.4999999999999973
 40
0.4999999999999973
 40
0.7499999999999987
 40
0.7499999999999987
 40
1.0
 40
1.0
 40
1.0
 40
1.0
 10
109.0577362846782
 20
99.60924924098829
 30
0.0
 10
109.152858039344
 20
99.60924924098829
 30
0.0
 10
109.2461881080721
 20
99.6054334075955
 30
0.0
 10
109.4294498688101
 20
99.59066285486567
 30
0.0
 10
109.5203275843671
 20
99.5795048068901
 30
0.0
 10
109.7771292818868
 20
99.53703353674838
 30
0.0
 10
109.9321966467588
 20
99.49598733954558
 30
0.0
 10
110.1859431083134
 20
99.40084122296369
 30
0.0
 10
110.2868135599813
 20
99.3460784888821
 30
0.0
 10
110.4220599746761
 20
99.23481736497824
 30
0.0
 10
110.4577362846782
 20
99.17764762764955
 30
0.0
 10
110.4577362846782
 20
99.12322605461583
 30
0.0
  0
SPLINE
  5
125
330
1F
100
AcDbEntity
  8
0
  6
HIDDEN
 62
     7
370
     0
100
AcDbSpline
210
0.0
220
0.0
230
1.0
 70
     8
 71
     3
 72
     8
 73
     4
 74
     0
 42
0.000000001
 43
0.00000001
 40
0.0
 40
0.0
 40
0.0
 40
0.0
 40
1.0
 40
1.0
 40
1.0
 40
1.0
 10
101.6577362846792
 20
101.7540521870705
 30
0.0
 10
101.6577362846811
 20
100.8701550447536
 30
0.0
 10
101.6442556587716
 20
100.1555717996917
 30
0.0
 10
101.6429042905805
 20
99.60924924098829
 30
0.0
  0
SPLINE
  5
126
330
1F
100
AcDbEntity
  8
0
  6
HIDDEN
 62
     7
370
     0
100
AcDbSpline
210
0.0
220
0.0
230
1.0
 70
     8
 71
     3
 72
    10
 73
     6
 74
     0
 42
0.000000001
 43
0.00000001
 40
0.0
 40
0.0
 40
0.0
 40
0.0
 40
0.5
 40
0.5
 40
1.0
 40
1.0
 40
1.0
 40
1.0
 10
101.3577362846781
 20
102.7789624463658
 30
0.0
 10
101.4491273993173
 20
102.6043236598194
 30
0.0
 10
101.5217792323577
 20
102.430721833673
 30
0.0
 10
101.6292781241779
 20
102.0871084168317
 30
0.0
 10
101.6577362846737
 20
101.9187825913472
 30
0.0
 10
101.6577362846793
 20
101.75405218713
 30
0.0
  0
LINE
  5
127
330
1F
100
AcDbEntity
  8
0
  6
HIDDEN
 62
     7
370
     0
100
AcDbLine
 10
101.3577362847
 20
105.8099128923
 30
0.0
 11
101.3577362847
 21
102.7789624464
 31
0.0
  0
SPLINE
  5
128
330
1F
100
AcDbEntity
  8
0
  6
HIDDEN
 62
     7
370
     0
100
AcDbSpline
210
0.0
220
0.0
230
1.0
 70
     8
 71
     3
 72
    10
 73
     6
 74
     0
 42
0.000000001
 43
0.00000001
 40
0.0
 40
0.0
 40
0.0
 40
0.0
 40
0.5
 40
0.5
 40
1.0
 40
1.0
 40
1.0
 40
1.0
 10
101.6577362846416
 20
107.1777533013771
 30
0.0
 10
101.6577362846416
 20
106.9357693352051
 30
0.0
 10
101.6295862558954
 20
106.7014269075859
 30
0.0
 10
101.5259963429247
 20
106.2460518878511
 30
0.0
 10
101.449367634163
 20
106.024447325969
 30
0.0
 10
101.3577362846781
 20
105.8099128922596
 30
0.0
  0
LINE
  5
129
330
1F
100
AcDbEntity
  8
0
  6
HIDDEN
 62
     7
370
     0
100
AcDbLine
 10
101.6577362846
 20
119.0153732986
 30
0.0
 11
101.6577362846
 21
107.1777533013
 31
0.0
  0
SPLINE
  5
12A
330
1F
100
AcDbEntity
  8
0
  6
HIDDEN
 62
     7
370
     0
100
AcDbSpline
210
0.0
220
0.0
230
1.0
 70
     8
 71
     3
 72
     8
 73
     4
 74
     0
 42
0.000000001
 43
0.00000001
 40
0.0
 40
0.0
 40
0.0
 40
0.0
 40
1.0
 40
1.0
 40
1.0
 40
1.0
 10
101.3577362846782
 20
125.0176789902991
 30
0.0
 10
101.5387677493451
 20
124.5855715068877
 30
0.0
 10
101.6577362846473
 20
124.1314261033114
 30
0.0
 10
101.6577362846416
 20
123.6437260526319
 30
0.0
  0
LINE
  5
12B
330
1F
100
AcDbEntity
  8
0
  6
HIDDEN
 62
     7
370
     0
100
AcDbLine
 10
101.3577362847
 20
128.0508819905
 30
0.0
 11
101.3577362847
 21
125.0176789903
 31
0.0
  0
SPLINE
  5
12C
330
1F
100
AcDbEntity
  8
0
  6
HIDDEN
 62
     7
370
     0
100
AcDbSpline
210
0.0
220
0.0
230
1.0
 70
     8
 71
     3
 72
    10
 73
     6
 74
     0
 42
0.000000001
 43
0.00000001
 40
0.0
 40
0.0
 40
0.0
 40
0.0
 40
0.5
 40
0.5
 40
1.0
 40
1.0
 40
1.0
 40
1.0
 10
101.6577362847833
 20
129.0674271669398
 30
0.0
 10
101.6577362847815
 20
128.9027908213466
 30
0.0
 10
101.6305776143566
 20
128.7356355985602
 30
0.0
 10
101.5248126202971
 20
128.397012592898
 30
0.0
 10
101.4483978327763
 20
128.2247408167413
 30
0.0
 10
101.3577362846782
 20
128.0508819904909
 30
0.0
  0
SPLINE
  5
12D
330
1F
100
AcDbEntity
  8
0
  6
HIDDEN
 62
     7
370
     0
100
AcDbSpline
210
0.0
220
0.0
230
1.0
 70
     8
 71
     3
 72
    18
 73
    14
 74
     0
 42
0.000000001
 43
0.00000001
 40
0.0
 40
0.0
 40
0.0
 40
0.0
 40
0.2500000000000033
 40
0.2500000000000033
 40
0.3750000000000029
 40
0.3750000000000029
 40
0.5000000000000026
 40
0.5000000000000026
 40
0.6250000000000022
 40
0.6250000000000022
 40
0.7500000000000018
 40
0.7500000000000018
 40
1.0
 40
1.0
 40
1.0
 40
1.0
 10
106.4577362846782
 20
131.6982532994241
 30
0.0
 10
106.4577362846781
 20
131.6437787788719
 30
0.0
 10
106.422825593286
 20
131.5873977195194
 30
0.0
 10
106.3208162919529
 20
131.5033208786659
 30
0.0
 10
106.2791799372748
 20
131.475987174675
 30
0.0
 10
106.1807741417861
 20
131.423033259076
 30
0.0
 10
106.1232309300818
 20
131.3971459053588
 30
0.0
 10
105.9959327565088
 20
131.3493683605256
 30
0.0
 10
105.9263454517514
 20
131.3274204423477
 30
0.0
 10
105.7749112065964
 20
131.287987877435
 30
0.0
 10
105.6922273035025
 20
131.2704316282091
 30
0.0
 10
105.4361158414644
 20
131.2279928627886
 30
0.0
 10
105.2482008375764
 20
131.2122301130516
 30
0.0
 10
105.0577362846782
 20
131.2122301130516
 30
0.0
  0
LINE
  5
12E
330
1F
100
AcDbEntity
  8
0
  6
HIDDEN
 62
     7
370
     0
100
AcDbLine
 10
105.0577362847
 20
131.2122301131
 30
0.0
 11
101.6577362848
 21
131.2122301131
 31
0.0
  0
LINE
  5
12F
330
1F
100
AcDbEntity
  8
0
  6
HIDDEN
 62
     7
370
     0
100
AcDbLine
 10
101.588767298
 20
99.609249241
 30
0.0
 11
109.0577362847
 21
99.609249241
 31
0.0
  0
SPLINE
  5
130
330
1F
100
AcDbEntity
  8
0
  6
HIDDEN
 62
     7
370
     0
100
AcDbSpline
210
0.0
220
0.0
230
1.0
 70
     8
 71
     3
 72
    22
 73
    18
 74
     0
 42
0.000000001
 43
0.00000001
 40
0.0
 40
0.0
 40
0.0
 40
0.0
 40
0.1249999999999999
 40
0.1249999999999999
 40
0.2499999999999997
 40
0.2499999999999997
 40
0.4999999999999999
 40
0.4999999999999999
 40
0.5624999999999998
 40
0.5624999999999998
 40
0.6249999999999998
 40
0.6249999999999998
 40
0.7499999999999998
 40
0.7499999999999998
 40
0.8749999999999999
 40
0.8749999999999999
 40
1.0
 40
1.0
 40
1.0
 40
1.0
 10
101.588767298036
 20
99.60924924098829
 30
0.0
 10
101.5756849053077
 20
99.86435495113597
 30
0.0
 10
101.5624653418678
 20
100.1575132102399
 30
0.0
 10
101.5400181640737
 20
100.8198136758647
 30
0.0
 10
101.5305396970493
 20
101.1900875964761
 30
0.0
 10
101.5113417361128
 20
102.4126443995899
 30
0.0
 10
101.5124555091096
 20
103.3497833257217
 30
0.0
 10
101.5313663020627
 20
104.6696545552367
 30
0.0
 10
101.5359958299217
 20
104.941156464213
 30
0.0
 10
101.5464770496676
 20
105.4995412990153
 30
0.0
 10
101.5522723109521
 20
105.7866641549549
 30
0.0
 10
101.570581531857
 20
106.6592534093266
 30
0.0
 10
101.5846164661374
 20
107.2597090856825
 30
0.0
 10
101.6140736382742
 20
108.4971835781785
 30
0.0
 10
101.6296293292558
 20
109.134199734822
 30
0.0
 10
101.6534238792527
 20
110.4456883325065
 30
0.0
 10
101.661442931398
 20
111.1218109441671
 30
0.0
 10
101.6577362846781
 20
111.8061060554518
 30
0.0
  0
LINE
  5
131
330
1F
100
AcDbEntity
  8
0
  6
HIDDEN
 62
     7
370
     0
100
AcDbLine
 10
101.6577362848
 20
119.0153732986
 30
0.0
 11
101.6577362848
 21
131.2122301131
 31
0.0
  0
SPLINE
  5
132
330
1F
100
AcDbEntity
  8
0
  6
HIDDEN
 62
     7
370
     0
100
AcDbSpline
210
0.0
220
0.0
230
1.0
 70
     8
 71
     3
 72
    10
 73
     6
 74
     0
 42
0.000000001
 43
0.00000001
 40
0.0
 40
0.0
 40
0.0
 40
0.0
 40
0.5
 40
0.5
 40
1.0
 40
1.0
 40
1.0
 40
1.0
 10
101.6577362846781
 20
111.8061060554368
 30
0.0
 10
101.657736284678
 20
112.0800212035109
 30
0.0
 10
101.6319770548091
 20
112.3509627822405
 30
0.0
 10
101.5287711220757
 20
112.8866538638426
 30
0.0
 10
101.4514329582014
 20
113.1524006673644
 30
0.0
 10
101.3577362846781
 20
113.4140393748017
 30
0.0
  0
SPLINE
  5
133
330
1F
100
AcDbEntity
  8
0
  6
HIDDEN
 62
     7
370
     0
100
AcDbSpline
210
0.0
220
0.0
230
1.0
 70
     8
 71
     3
 72
    10
 73
     6
 74
     0
 42
0.000000001
 43
0.00000001
 40
0.0
 40
0.0
 40
0.0
 40
0.0
 40
0.5
 40
0.5
 40
1.0
 40
1.0
 40
1.0
 40
1.0
 10
101.3577362846782
 20
117.397867979869
 30
0.0
 10
101.4509668650293
 20
117.6617617864672
 30
0.0
 10
101.525996476558
 20
117.9279420955656
 30
0.0
 10
101.6310635745375
 20
118.4662646673843
 30
0.0
 10
101.6577362847821
 20
118.7390127819999
 30
0.0
 10
101.6577362847833
 20
119.0153732985871
 30
0.0
  0
LINE
  5
134
330
1F
100
AcDbEntity
  8
0
  6
HIDDEN
 62
     7
370
     0
100
AcDbLine
 10
101.3577362847
 20
113.4140393748
 30
0.0
 11
101.3577362847
 21
117.3978679799
 31
0.0
  0
LINE
  5
135
330
1F
100
AcDbEntity
  8
0
  6
HIDDEN
 62
     7
370
     0
100
AcDbLine
 10
168.7577362847
 20
115.410739677
 30
0.0
 11
168.7577362847
 21
101.910739677
 31
0.0
  0
LINE
  5
136
330
1F
100
AcDbEntity
  8
0
  6
HIDDEN
 62
     7
370
     0
100
AcDbLine
 10
168.7577362847
 20
128.910739677
 30
0.0
 11
168.7577362847
 21
115.410739677
 31
0.0
  0
LINE
  5
137
330
1F
100
AcDbEntity
  8
0
  6
HIDDEN
 62
     7
370
     0
100
AcDbLine
 10
173.6237616885
 20
115.410739677
 30
0.0
 11
173.6237616885
 21
101.410739677
 31
0.0
  0
LINE
  5
138
330
1F
100
AcDbEntity
  8
0
  6
HIDDEN
 62
     7
370
     0
100
AcDbLine
 10
173.6237616885
 20
129.410739677
 30
0.0
 11
173.6237616885
 21
115.410739677
 31
0.0
  0
SPLINE
  5
139
330
1F
100
AcDbEntity
  8
0
  6
HIDDEN
 62
     7
370
     0
100
AcDbSpline
210
0.0
220
0.0
230
1.0
 70
     8
 71
     3
 72
    40
 73
    36
 74
     0
 42
0.000000001
 43
0.00000001
 40
0.0
 40
0.0
 40
0.0
 40
0.0
 40
0.0235971908157352
 40
0.071633305749214
 40
0.0961263581966596
 40
0.1197218030547324
 40
0.1676652533357199
 40
0.1920544246749257
 40
0.216639420970251
 40
0.2665790070411806
 40
0.2919866454409884
 40
0.3175493133496823
 40
0.3432979284215777
 40
0.3696552701852673
 40
0.3962344887664661
 40
0.4206319932338748
 40
0.4703701945425426
 40
0.4957891371776006
 40
0.5186221629533042
 40
0.5650466913918084
 40
0.5886809610289611
 40
0.6120152493446583
 40
0.6593820109932292
 40
0.6834526915079526
 40
0.7084921881376579
 40
0.759385252598645
 40
0.7853019151859502
 40
0.810732891388618
 40
0.8363547926796958
 40
0.8626012657742085
 40
0.8890737066720489
 40
0.9130433920852647
 40
0.9618703480492565
 40
0.9867946149761162
 40
0.9999999999999999
 40
0.9999999999999999
 40
0.9999999999999999
 40
0.9999999999999999
 10
177.7077362846782
 20
129.4107396770199
 30
0.0
 10
177.7112256754247
 20
129.4093691560058
 30
0.0
 10
177.7218183174125
 20
129.4052087052297
 30
0.0
 10
177.8209449440926
 20
129.3663681126584
 30
0.0
 10
177.9846221344704
 20
129.3040937944083
 30
0.0
 10
178.1931641832828
 20
129.2265805351416
 30
0.0
 10
178.4650506267831
 20
129.1294978346799
 30
0.0
 10
178.7978571715153
 20
129.0186739254371
 30
0.0
 10
179.1755715758906
 20
128.8995229762511
 30
0.0
 10
179.6131564849246
 20
128.7740671854104
 30
0.0
 10
180.1028936204962
 20
128.6524895188798
 30
0.0
 10
180.4982506817781
 20
128.565144437941
 30
0.0
 10
180.9194668729173
 20
128.4845875050213
 30
0.0
 10
181.365060892976
 20
128.4136929459335
 30
0.0
 10
181.8187599434465
 20
128.3572110065531
 30
0.0
 10
182.4244300853511
 20
128.3028502508166
 30
0.0
 10
183.0398362101483
 20
128.2796845715888
 30
0.0
 10
183.6445120536014
 20
128.2899857973338
 30
0.0
 10
184.2241313954625
 20
128.319807379769
 30
0.0
 10
184.7814747894823
 20
128.3760799444187
 30
0.0
 10
185.3172467870537
 20
128.4548550758231
 30
0.0
 10
185.8394562853105
 20
128.5470906687104
 30
0.0
 10
186.3317590876062
 20
128.6554141806814
 30
0.0
 10
186.7902763346654
 20
128.7729671062517
 30
0.0
 10
187.2334386711993
 20
128.8970213863477
 30
0.0
 10
187.630948033094
 20
129.0220204400844
 30
0.0
 10
187.965984752042
 20
129.1357064146351
 30
0.0
 10
188.1845949562153
 20
129.2131872051368
 30
0.0
 10
188.3685916839142
 20
129.2807254860749
 30
0.0
 10
188.5167745910026
 20
129.3366585125243
 30
0.0
 10
188.6219957614406
 20
129.3772094865847
 30
0.0
 10
188.7080142461787
 20
129.410797382255
 30
0.0
 10
188.7162966359089
 20
129.4141326504404
 30
0.0
 10
188.6643611910125
 20
129.3936783631879
 30
0.0
 10
188.6180260477108
 20
129.3757770243149
 30
0.0
 10
188.6019788672061
 20
129.3695772805415
 30
0.0
  0
LINE
  5
13A
330
1F
100
AcDbEntity
  8
0
  6
HIDDEN
 62
     7
370
     0
100
AcDbLine
 10
101.5077362847
 20
97.420739677
 30
0.0
 11
101.5077362847
 21
94.5408019116
 31
0.0
  0
LINE
  5
13B
330
1F
100
AcDbEntity
  8
0
  6
HIDDEN
 62
     7
370
     0
100
AcDbLine
 10
110.4577362847
 20
97.420739677
 30
0.0
 11
110.4577362847
 21
93.4470021458
 31
0.0
  0
LINE
  5
13C
330
1F
100
AcDbEntity
  8
0
  6
HIDDEN
 62
     7
370
     0
100
AcDbLine
 10
101.5077362847
 20
133.400739677
 30
0.0
 11
101.5077362847
 21
136.2806774424
 31
0.0
  0
LINE
  5
13D
330
1F
100
AcDbEntity
  8
0
  6
HIDDEN
 62
     7
370
     0
100
AcDbLine
 10
106.4577362847
 20
133.400739677
 30
0.0
 11
106.4577362847
 21
137.2548473494
 31
0.0
  0
LINE
  5
13E
330
1F
100
AcDbEntity
  8
0
  6
HIDDEN
 62
     7
370
     0
100
AcDbLine
 10
151.0577362847
 20
105.910739677
 30
0.0
 11
151.0577362847
 21
124.910739677
 31
0.0
  0
LINE
  5
13F
330
1F
100
AcDbEntity
  8
0
  6
HIDDEN
 62
     7
370
     0
100
AcDbLine
 10
154.0577362847
 20
105.910739677
 30
0.0
 11
154.0577362847
 21
124.910739677
 31
0.0
  0
LINE
  5
140
330
1F
100
AcDbEntity
  8
0
  6
HIDDEN
 62
     7
370
     0
100
AcDbLine
 10
142.7077362847
 20
106.910739677
 30
0.0
 11
142.7077362847
 21
123.910739677
 31
0.0
  0
LINE
  5
141
330
1F
100
AcDbEntity
  8
0
  6
HIDDEN
 62
     7
370
     0
100
AcDbLine
 10
158.2096832817
 20
89.010739677
 30
0.0
 11
152.0700614823
 21
89.010739677
 31
0.0
  0
LINE
  5
142
330
1F
100
AcDbEntity
  8
0
  6
HIDDEN
 62
     7
370
     0
100
AcDbLine
 10
148.445411087
 20
89.010739677
 30
0.0
 11
145.2077362847
 21
89.010739677
 31
0.0
  0
LINE
  5
143
330
1F
100
AcDbEntity
  8
0
  6
HIDDEN
 62
     7
370
     0
100
AcDbLine
 10
137.2077362847
 20
83.9266166942
 30
0.0
 11
137.2077362847
 21
89.010739677
 31
0.0
  0
LINE
  5
144
330
1F
100
AcDbEntity
  8
0
  6
HIDDEN
 62
     7
370
     0
100
AcDbLine
 10
145.2077362847
 20
89.010739677
 30
0.0
 11
137.2077362847
 21
89.010739677
 31
0.0
  0
LINE
  5
145
330
1F
100
AcDbEntity
  8
0
  6
HIDDEN
 62
     7
370
     0
100
AcDbLine
 10
158.2365088277
 20
141.810739677
 30
0.0
 11
151.773438753
 21
141.810739677
 31
0.0
  0
LINE
  5
146
330
1F
100
AcDbEntity
  8
0
  6
HIDDEN
 62
     7
370
     0
100
AcDbLine
 10
148.7420338164
 20
141.810739677
 30
0.0
 11
145.2077362847
 21
141.810739677
 31
0.0
  0
LINE
  5
147
330
1F
100
AcDbEntity
  8
0
  6
HIDDEN
 62
     7
370
     0
100
AcDbLine
 10
145.2077362847
 20
141.810739677
 30
0.0
 11
137.2077362847
 21
141.810739677
 31
0.0
  0
SPLINE
  5
148
330
1F
100
AcDbEntity
  8
0
  6
HIDDEN
 62
     7
370
     0
100
AcDbSpline
210
0.0
220
0.0
230
1.0
 70
     8
 71
     3
 72
    11
 73
     7
 74
     0
 42
0.000000001
 43
0.00000001
 40
0.0
 40
0.0
 40
0.0
 40
0.0
 40
0.0008203708524183
 40
0.0008203708524183
 40
0.0008203708524183
 40
0.0016409967870154
 40
0.0016409967870154
 40
0.0016409967870154
 40
0.0016409967870154
 10
101.5077362846782
 20
99.55870692637724
 30
0.0
 10
101.3165779843795
 20
99.51752789775809
 30
0.0
 10
101.1251509143073
 20
99.47877392552809
 30
0.0
 10
100.9335052907867
 20
99.44240616624955
 30
0.0
 10
100.7417998857062
 20
99.40602706248352
 30
0.0
 10
100.5498609336473
 20
99.37203281171597
 30
0.0
 10
100.3577362865765
 20
99.34038468632475
 30
0.0
  0
ELLIPSE
  5
149
330
1F
100
AcDbEntity
  8
0
  6
HIDDEN
 62
     7
370
     0
100
AcDbEllipse
 10
96.1153044219
 20
115.410739677
 30
0.0
 11
20.19992452772428
 21
-1.421085471520200E-14
 31
0.0
210
0.0
220
0.0
230
1.0
 40
0.816496581
 41
1.300566354937166
 42
1.359198697442763
  0
LINE
  5
14A
330
1F
100
AcDbEntity
  8
0
  6
HIDDEN
 62
     7
370
     0
100
AcDbLine
 10
177.7077362847
 20
138.660739677
 30
0.0
 11
188.7077362847
 21
138.660739677
 31
0.0
  0
LINE
  5
14B
330
1F
100
AcDbEntity
  8
0
  6
HIDDEN
 62
     7
370
     0
100
AcDbLine
 10
101.5077362847
 20
97.420739677
 30
0.0
 11
101.5077362847
 21
99.5587069264
 31
0.0
  0
LINE
  5
14C
330
1F
100
AcDbEntity
  8
0
  6
HIDDEN
 62
     7
370
     0
100
AcDbLine
 10
101.588767298
 20
99.609249241
 30
0.0
 11
101.5077362847
 21
99.5587069264
 31
0.0
  0
LINE
  5
14D
330
1F
100
AcDbEntity
  8
0
  6
HIDDEN
 62
     7
370
     0
100
AcDbLine
 10
110.4577362847
 20
97.420739677
 30
0.0
 11
110.4577362847
 21
99.1232260546
 31
0.0
  0
LINE
  5
14E
330
1F
100
AcDbEntity
  8
0
  6
HIDDEN
 62
     7
370
     0
100
AcDbLine
 10
106.4577362847
 20
133.400739677
 30
0.0
 11
106.4577362847
 21
131.6982532994
 31
0.0
  0
LINE
  5
14F
330
1F
100
AcDbEntity
  8
0
  6
HIDDEN
 62
     7
370
     0
100
AcDbLine
 10
101.5077362847
 20
133.400739677
 30
0.0
 11
101.5077362847
 21
131.305364126
 31
0.0
  0
SPLINE
  5
150
330
1F
100
AcDbEntity
  8
0
  6
HIDDEN
 62
     7
370
     0
100
AcDbSpline
210
0.0
220
0.0
230
1.0
 70
     8
 71
     3
 72
     8
 73
     4
 74
     0
 42
0.000000001
 43
0.00000001
 40
0.0
 40
0.0
 40
0.0
 40
0.0
 40
1.0
 40
1.0
 40
1.0
 40
1.0
 10
101.5077362846782
 20
131.3053641260185
 30
0.0
 10
101.5577417825256
 20
131.2743283524857
 30
0.0
 10
101.607741852094
 20
131.2432837081448
 30
0.0
 10
101.6577362847833
 20
131.2122301130516
 30
0.0
  0
LWPOLYLINE
  5
151
330
1F
100
AcDbEntity
  8
0
  6
HIDDEN
 62
     7
370
     0
100
AcDbPolyline
 90
       25
 70
   128
 43
0.0
 10
127.0068264998
 20
91.810703432
 10
126.9565443391
 20
91.8254887269
 10
126.7777100477
 20
91.8718548017
 10
126.4405985127
 20
91.9495384513
 10
126.204954275
 20
92.0001243667
 10
125.9219073905
 20
92.0585396758
 10
125.1801309819
 20
92.1886447099
 10
124.4499216671
 20
92.2892235209
 10
124.0064985566
 20
92.3398726042
 10
123.6135376153
 20
92.3773989216
 10
123.278501516
 20
92.4018024731
 10
122.6380693124
 20
92.4262461396
 10
121.9569215322
 20
92.4278856496
 10
121.2683786243
 20
92.4067210032
 10
120.935171103
 20
92.3875871214
 10
120.6182522707
 20
92.3627522005
 10
120.0376062598
 20
92.3057765487
 10
119.7016289647
 20
92.2650134401
 10
119.5469286035
 20
92.2404628746
 10
119.5077560955
 20
92.2321248524
 10
119.5444051836
 20
92.2400191509
 10
119.6967553664
 20
92.2641743021
 10
120.0287429813
 20
92.3045903062
 10
120.6015935102
 20
92.361267163
 10
120.6015935102
 20
92.361267163
  0
SPLINE
  5
152
330
1F
100
AcDbEntity
  8
0
  6
HIDDEN
 62
     7
370
     0
100
AcDbSpline
210
0.0
220
0.0
230
1.0
 70
     8
 71
     3
 72
    27
 73
    23
 74
     0
 42
0.000000001
 43
0.00000001
 40
0.0
 40
0.0
 40
0.0
 40
0.0
 40
0.0008229686773857
 40
0.0457056271071019
 40
0.1022874780511744
 40
0.1705657918892757
 40
0.2091575904392203
 40
0.250684965504595
 40
0.3211309735889974
 40
0.3862249212133673
 40
0.4267042036126623
 40
0.4648355814083174
 40
0.5006400154515064
 40
0.5452319258427518
 40
0.601726367066363
 40
0.6701325659453796
 40
0.7088700229518595
 40
0.7505989051884869
 40
0.8222637253767995
 40
0.8878033648178464
 40
0.9472773147425998
 40
1.0
 40
1.0
 40
1.0
 40
1.0
 10
119.5084164243602
 20
138.5891513092087
 30
0.0
 10
119.5081900602461
 20
138.5892001067027
 30
0.0
 10
119.4956183621065
 20
138.591910197773
 30
0.0
 10
119.5446907806677
 20
138.5800790818651
 30
0.0
 10
119.6898008608206
 20
138.5566335842738
 30
0.0
 10
119.9628512957044
 20
138.5227298381362
 30
0.0
 10
120.2913780561237
 20
138.4891609759113
 30
0.0
 10
120.6841057462976
 20
138.4509776548423
 30
0.0
 10
121.2338337539511
 20
138.4120089747375
 30
0.0
 10
121.8598563904616
 20
138.3925478723641
 30
0.0
 10
122.4030479022749
 20
138.3903621942075
 30
0.0
 10
122.848116798821
 20
138.3988770754476
 30
0.0
 10
123.3145645954476
 20
138.4186604723734
 30
0.0
 10
123.8518052442185
 20
138.4628228577988
 30
0.0
 10
124.5000186769435
 20
138.5352384783038
 30
0.0
 10
125.0855572993257
 20
138.6161405695289
 30
0.0
 10
125.5665269319715
 20
138.6943065626768
 30
0.0
 10
126.0119417509922
 20
138.7790786816677
 30
0.0
 10
126.4504419663734
 20
138.8728618515116
 30
0.0
 10
126.7894654188531
 20
138.9507651537208
 30
0.0
 10
126.9767936140681
 20
139.000953308377
 30
0.0
 10
126.997282719078
 20
139.0076193517774
 30
0.0
 10
127.0069108209627
 20
139.0107518138832
 30
0.0
  0
SPLINE
  5
153
330
1F
100
AcDbEntity
  8
0
  6
HIDDEN
 62
     7
370
     0
100
AcDbSpline
210
0.0
220
0.0
230
1.0
 70
     8
 71
     3
 72
     8
 73
     4
 74
     0
 42
0.000000001
 43
0.00000001
 40
0.0
 40
0.0
 40
0.0
 40
0.0
 40
0.000159097691435
 40
0.000159097691435
 40
0.000159097691435
 40
0.000159097691435
 10
101.6429042905805
 20
99.60924924098829
 30
0.0
 10
101.5978528211812
 20
99.5812703573544
 30
0.0
 10
101.5527967838716
 20
99.55329882766885
 30
0.0
 10
101.5077362846782
 20
99.5253344890055
 30
0.0
  0
SPLINE
  5
154
330
1F
100
AcDbEntity
  8
0
  6
HIDDEN
 62
     7
370
     0
100
AcDbSpline
210
0.0
220
0.0
230
1.0
 70
     8
 71
     3
 72
    11
 73
     7
 74
     0
 42
0.000000001
 43
0.00000001
 40
0.0
 40
0.0
 40
0.0
 40
0.0
 40
0.0008212909311356
 40
0.0008212909311356
 40
0.0008212909311356
 40
0.0016428257242859
 40
0.0016428257242859
 40
0.0016428257242859
 40
0.0016428257242859
 10
101.5077362846782
 20
99.5253344890055
 30
0.0
 10
101.3165912631958
 20
99.4820483001757
 30
0.0
 10
101.1251729275192
 20
99.44111179056166
 30
0.0
 10
100.9335268528581
 20
99.40251001919884
 30
0.0
 10
100.7418237713165
 20
99.36389676538549
 30
0.0
 10
100.5498786480311
 20
99.32761655612377
 30
0.0
 10
100.3577362846781
 20
99.29364964979703
 30
0.0
  0
LINE
  5
155
330
1F
100
AcDbEntity
  8
0
  6
HIDDEN
 62
     7
370
     0
100
AcDbLine
 10
148.3477362847
 20
135.5466063085
 30
0.0
 11
148.3477362847
 21
135.260739677
 31
0.0
  0
LINE
  5
156
330
1F
100
AcDbEntity
  8
0
  6
HIDDEN
 62
     7
370
     0
100
AcDbLine
 10
152.1677362847
 20
135.5466063085
 30
0.0
 11
152.1677362847
 21
135.260739677
 31
0.0
  0
LINE
  5
157
330
1F
100
AcDbEntity
  8
0
  6
HIDDEN
 62
     7
370
     0
100
AcDbLine
 10
153.6496691162
 20
139.8694293394
 30
0.0
 11
153.6496691162
 21
135.260739677
 31
0.0
  0
SPLINE
  5
158
330
1F
100
AcDbEntity
  8
0
  6
HIDDEN
 62
     7
370
     0
100
AcDbSpline
210
0.0
220
0.0
230
1.0
 70
     8
 71
     3
 72
    24
 73
    20
 74
     0
 42
0.000000001
 43
0.00000001
 40
0.0
 40
0.0
 40
0.0
 40
0.0
 40
0.2500000000000034
 40
0.2500000000000034
 40
0.3750000000000043
 40
0.3750000000000043
 40
0.4375000000000036
 40
0.4375000000000036
 40
0.4687500000000054
 40
0.4687500000000054
 40
0.5000000000000073
 40
0.5000000000000073
 40
0.5625000000000063
 40
0.5625000000000063
 40
0.6250000000000052
 40
0.6250000000000052
 40
0.7500000000000029
 40
0.7500000000000029
 40
1.0
 40
1.0
 40
1.0
 40
1.0
 10
100.4203996594016
 20
95.73618713223922
 30
0.0
 10
100.4341527780718
 20
95.80683719022949
 30
0.0
 10
100.4519253454777
 20
95.87343530299441
 30
0.0
 10
100.504176437033
 20
95.94753332322763
 30
0.0
 10
100.5252115126146
 20
95.96879113038918
 30
0.0
 10
100.578111920243
 20
95.97693705653543
 30
0.0
 10
100.5992175931209
 20
95.97599725313964
 30
0.0
 10
100.6452697617989
 20
95.9549812615623
 30
0.0
 10
100.6636402337823
 20
95.94407245545466
 30
0.0
 10
100.705191868848
 20
95.9114375445073
 30
0.0
 10
100.7277585416049
 20
95.88994556413594
 30
0.0
 10
100.7905395580649
 20
95.82147962054962
 30
0.0
 10
100.8236693190328
 20
95.77540516234454
 30
0.0
 10
100.8805870055178
 20
95.69039727400987
 30
0.0
 10
100.9047730310216
 20
95.65011697282849
 30
0.0
 10
100.9699809814014
 20
95.53518074636256
 30
0.0
 10
101.0046970415926
 20
95.46459776121553
 30
0.0
 10
101.0979123119235
 20
95.26039200213692
 30
0.0
 10
101.1435848472841
 20
95.13749361980958
 30
0.0
 10
101.1818899307827
 20
95.02062034342201
 30
0.0
  0
SPLINE
  5
159
330
1F
100
AcDbEntity
  8
0
  6
HIDDEN
 62
     7
370
     0
100
AcDbSpline
210
0.0
220
0.0
230
1.0
 70
     8
 71
     3
 72
     8
 73
     4
 74
     0
 42
0.000000001
 43
0.00000001
 40
0.0000000000000004
 40
0.0000000000000004
 40
0.0000000000000004
 40
0.0000000000000004
 40
0.001156372467817
 40
0.001156372467817
 40
0.001156372467817
 40
0.001156372467817
 10
101.3577362846785
 20
128.0508819904957
 30
0.0
 10
101.0244151694812
 20
128.1799410161224
 30
0.0
 10
100.6910824886731
 20
128.308901352291
 30
0.0
 10
100.3577362846781
 20
128.4378128820639
 30
0.0
  0
SPLINE
  5
15A
330
1F
100
AcDbEntity
  8
0
  6
HIDDEN
 62
     7
370
     0
100
AcDbSpline
210
0.0
220
0.0
230
1.0
 70
     8
 71
     3
 72
    11
 73
     7
 74
     0
 42
0.000000001
 43
0.00000001
 40
0.0
 40
0.0
 40
0.0
 40
0.0
 40
0.000577874610501
 40
0.000577874610501
 40
0.000577874610501
 40
0.001155749485703
 40
0.001155749485703
 40
0.001155749485703
 40
0.001155749485703
 10
100.3577362846782
 20
102.3835178145692
 30
0.0
 10
100.5244031610913
 20
102.4493299413522
 30
0.0
 10
100.6910698806526
 20
102.5151884215798
 30
0.0
 10
100.8577365287012
 20
102.5810959946022
 30
0.0
 10
101.0244032532198
 20
102.6470035978642
 30
0.0
 10
101.1910699476405
 20
102.7129607063462
 30
0.0
 10
101.3577362846781
 20
102.7789624463658
 30
0.0
  0
SPLINE
  5
15B
330
1F
100
AcDbEntity
  8
0
  6
HIDDEN
 62
     7
370
     0
100
AcDbSpline
210
0.0
220
0.0
230
1.0
 70
     8
 71
     3
 72
    11
 73
     7
 74
     0
 42
0.000000001
 43
0.00000001
 40
0.0000000000000006
 40
0.0000000000000006
 40
0.0000000000000006
 40
0.0000000000000006
 40
0.000578048606266
 40
0.000578048606266
 40
0.000578048606266
 40
0.001156097351391
 40
0.001156097351391
 40
0.001156097351391
 40
0.001156097351391
 10
100.3577362846782
 20
125.3915541703072
 30
0.0
 10
100.5244061407234
 20
125.329182308902
 30
0.0
 10
100.6910738448078
 20
125.2668284487106
 30
0.0
 10
100.8577401492614
 20
125.204508888627
 30
0.0
 10
101.0244064899552
 20
125.1421893149927
 30
0.0
 10
101.1910714465838
 20
125.0799041107721
 30
0.0
 10
101.3577362846782
 20
125.0176789902991
 30
0.0
  0
SPLINE
  5
15C
330
1F
100
AcDbEntity
  8
0
  6
HIDDEN
 62
     7
370
     0
100
AcDbSpline
210
0.0
220
0.0
230
1.0
 70
     8
 71
     3
 72
    11
 73
     7
 74
     0
 42
0.000000001
 43
0.00000001
 40
0.0
 40
0.0
 40
0.0
 40
0.0
 40
0.0005782401583357
 40
0.0005782401583357
 40
0.0005782401583357
 40
0.001156480596064
 40
0.001156480596064
 40
0.001156480596064
 40
0.001156480596064
 10
101.3577362846782
 20
105.8099128922597
 30
0.0
 10
101.1910853343294
 20
105.7464874343206
 30
0.0
 10
101.0244257417469
 20
105.6831319107907
 30
0.0
 10
100.8577586893183
 20
105.6198343265694
 30
0.0
 10
100.6910915527545
 20
105.5565367103948
 30
0.0
 10
100.5244169453083
 20
105.4932969155859
 30
0.0
 10
100.3577362846781
 20
105.4300969090816
 30
0.0
  0
CIRCLE
  5
15D
330
1F
100
AcDbEntity
  8
0
  6
HIDDEN
 62
     7
370
     0
100
AcDbCircle
 10
139.2577362847
 20
115.410739677
 30
0.0
 40
5.0
  0
LINE
  5
15E
330
1F
100
AcDbEntity
  8
0
  6
HIDDEN
 62
     7
370
     0
100
AcDbLine
 10
177.2077362847
 20
139.710739677
 30
0.0
 11
177.2077362847
 21
132.3078539941
 31
0.0
  0
LINE
  5
15F
330
1F
100
AcDbEntity
  8
0
  6
HIDDEN
 62
     7
370
     0
100
AcDbLine
 10
189.2077362847
 20
132.3078539941
 30
0.0
 11
189.2077362847
 21
139.710739677
 31
0.0
  0
LINE
  5
160
330
1F
100
AcDbEntity
  8
0
  6
HIDDEN
 62
     7
370
     0
100
AcDbLine
 10
189.2077362847
 20
139.710739677
 30
0.0
 11
188.8332318165
 21
140.0852441452
 31
0.0
  0
LINE
  5
161
330
1F
100
AcDbEntity
  8
0
  6
HIDDEN
 62
     7
370
     0
100
AcDbLine
 10
177.5806815212
 20
140.0836849135
 30
0.0
 11
177.2077362847
 21
139.710739677
 31
0.0
  0
LINE
  5
162
330
1F
100
AcDbEntity
  8
0
  6
HIDDEN
 62
     7
370
     0
100
AcDbLine
 10
177.2077362847
 20
132.3078539941
 30
0.0
 11
179.3981566332
 21
124.1330939635
 31
0.0
  0
LINE
  5
163
330
1F
100
AcDbEntity
  8
0
  6
HIDDEN
 62
     7
370
     0
100
AcDbLine
 10
187.0173159362
 20
124.1330939635
 30
0.0
 11
189.2077362847
 21
132.3078539941
 31
0.0
  0
ARC
  5
164
330
1F
100
AcDbEntity
  8
0
  6
HIDDEN
 62
     7
370
     0
100
AcDbCircle
 10
179.6879343811
 20
124.210739677
 30
0.0
 40
0.2999999999999972
100
AcDbArc
 50
195.0
 51
270.0
  0
ARC
  5
165
330
1F
100
AcDbEntity
  8
0
  6
HIDDEN
 62
     7
370
     0
100
AcDbCircle
 10
186.7275381883
 20
124.210739677
 30
0.0
 40
0.2999999999999972
100
AcDbArc
 50
270.0
 51
345.0
  0
LINE
  5
166
330
1F
100
AcDbEntity
  8
0
  6
HIDDEN
 62
     7
370
     0
100
AcDbLine
 10
179.6077362847
 20
140.410739677
 30
0.0
 11
180.1590986072
 21
139.8593773545
 31
0.0
  0
LINE
  5
167
330
1F
100
AcDbEntity
  8
0
  6
HIDDEN
 62
     7
370
     0
100
AcDbLine
 10
186.2563739621
 20
139.8593773545
 30
0.0
 11
186.8077362847
 21
140.410739677
 31
0.0
  0
LINE
  5
168
330
1F
100
AcDbEntity
  8
0
  6
HIDDEN
 62
     7
370
     0
100
AcDbLine
 10
180.2077362847
 20
133.410739677
 30
0.0
 11
180.2077362847
 21
132.410739677
 31
0.0
  0
LINE
  5
169
330
1F
100
AcDbEntity
  8
0
  6
HIDDEN
 62
     7
370
     0
100
AcDbLine
 10
186.2077362847
 20
132.410739677
 30
0.0
 11
186.2077362847
 21
133.410739677
 31
0.0
  0
LINE
  5
16A
330
1F
100
AcDbEntity
  8
0
  6
HIDDEN
 62
     7
370
     0
100
AcDbLine
 10
180.2077362847
 20
132.410739677
 30
0.0
 11
183.2077362847
 21
131.3188289742
 31
0.0
  0
LINE
  5
16B
330
1F
100
AcDbEntity
  8
0
  6
HIDDEN
 62
     7
370
     0
100
AcDbLine
 10
183.2077362847
 20
131.3188289742
 30
0.0
 11
186.2077362847
 21
132.410739677
 31
0.0
  0
LINE
  5
16C
330
1F
100
AcDbEntity
  8
0
  6
HIDDEN
 62
     7
370
     0
100
AcDbLine
 10
132.2577362847
 20
90.086808531
 30
0.0
 11
132.3518970602
 21
90.7567972623
 31
0.0
  0
LINE
  5
16D
330
1F
100
AcDbEntity
  8
0
  6
HIDDEN
 62
     7
370
     0
100
AcDbLine
 10
132.3518970602
 20
140.0646820918
 30
0.0
 11
132.2577362847
 21
140.734670823
 31
0.0
  0
ARC
  5
16E
330
1F
100
AcDbEntity
  8
0
  6
HIDDEN
 62
     7
370
     0
100
AcDbCircle
 10
131.757729532
 20
90.8403020626
 30
0.0
 40
0.6000067526677383
100
AcDbArc
 50
352.0
 51
0.0
  0
ARC
  5
16F
330
1F
100
AcDbEntity
  8
0
  6
HIDDEN
 62
     7
370
     0
100
AcDbCircle
 10
131.757729532
 20
90.8403020626
 30
0.0
 40
0.6000067526677242
100
AcDbArc
 50
0.0
 51
33.5571153394
  0
ARC
  5
170
330
1F
100
AcDbEntity
  8
0
  6
HIDDEN
 62
     7
370
     0
100
AcDbCircle
 10
131.757729532
 20
139.9811772914
 30
0.0
 40
0.6000067526677363
100
AcDbArc
 50
348.75
 51
8.0
  0
LWPOLYLINE
  5
171
330
1F
100
AcDbEntity
  8
0
  6
HIDDEN
 62
     7
370
     0
100
AcDbPolyline
 90
        3
 70
   128
 43
0.0
 10
132.3462073232
 20
139.8641217808
 10
132.3120634902
 20
139.7515646479
 10
132.2577362847
 20
139.6495127764
  0
LINE
  5
172
330
1F
100
AcDbEntity
  8
0
  6
HIDDEN
 62
     7
370
     0
100
AcDbLine
 10
132.3577362847
 20
90.8403020626
 30
0.0
 11
132.3577362847
 21
139.9811772914
 31
0.0
  0
LINE
  5
173
330
1F
100
AcDbEntity
  8
0
  6
HIDDEN
 62
     7
370
     0
100
AcDbLine
 10
115.34017185
 20
95.410739677
 30
0.0
 11
119.5177084263
 21
95.410739677
 31
0.0
  0
LINE
  5
174
330
1F
100
AcDbEntity
  8
0
  6
HIDDEN
 62
     7
370
     0
100
AcDbLine
 10
119.5177084263
 20
135.410739677
 30
0.0
 11
115.34017185
 21
135.410739677
 31
0.0
  0
ARC
  5
175
330
1F
100
AcDbEntity
  8
0
  6
HIDDEN
 62
     7
370
     0
100
AcDbCircle
 10
126.0127382863
 20
103.410739677
 30
0.0
 40
8.000000000000012
100
AcDbArc
 50
277.0576588233
 51
321.3178125465
  0
ARC
  5
176
330
1F
100
AcDbEntity
  8
0
  6
HIDDEN
 62
     7
370
     0
100
AcDbCircle
 10
126.0127382863
 20
127.410739677
 30
0.0
 40
8.000000000000007
100
AcDbArc
 50
38.6821874535
 51
82.9501739568
  0
ARC
  5
177
330
1F
100
AcDbEntity
  8
0
  6
HIDDEN
 62
     7
370
     0
100
AcDbCircle
 10
115.34017185
 20
96.010739677
 30
0.0
 40
0.6000000000000085
100
AcDbArc
 50
210.0
 51
270.0
  0
ARC
  5
178
330
1F
100
AcDbEntity
  8
0
  6
HIDDEN
 62
     7
370
     0
100
AcDbCircle
 10
115.34017185
 20
134.810739677
 30
0.0
 40
0.5999999999999768
100
AcDbArc
 50
90.0
 51
150.0
  0
LINE
  5
179
330
1F
100
AcDbEntity
  8
0
  6
HIDDEN
 62
     7
370
     0
100
AcDbLine
 10
114.8205566077
 20
135.110739677
 30
0.0
 11
113.2617108809
 21
132.410739677
 31
0.0
  0
LINE
  5
17A
330
1F
100
AcDbEntity
  8
0
  6
HIDDEN
 62
     7
370
     0
100
AcDbLine
 10
113.2617108809
 20
98.410739677
 30
0.0
 11
114.8205566077
 21
95.710739677
 31
0.0
  0
ARC
  5
17B
330
1F
100
AcDbEntity
  8
0
  6
HIDDEN
 62
     7
370
     0
100
AcDbCircle
 10
140.7077362847
 20
99.685739677
 30
0.0
 40
1.500000000000016
100
AcDbArc
 50
238.2116693829
 51
0.0
  0
ARC
  5
17C
330
1F
100
AcDbEntity
  8
0
  6
HIDDEN
 62
     7
370
     0
100
AcDbCircle
 10
140.7077362847
 20
131.135739677
 30
0.0
 40
1.500000000000016
100
AcDbArc
 50
0.0
 51
121.7883306171
  0
LINE
  5
17D
330
1F
100
AcDbEntity
  8
0
  6
HIDDEN
 62
     7
370
     0
100
AcDbLine
 10
110.4577362847
 20
98.410739677
 30
0.0
 11
113.2617108809
 21
98.410739677
 31
0.0
  0
LINE
  5
17E
330
1F
100
AcDbEntity
  8
0
  6
HIDDEN
 62
     7
370
     0
100
AcDbLine
 10
113.2617108809
 20
132.410739677
 30
0.0
 11
106.4577362847
 21
132.410739677
 31
0.0
  0
LINE
  5
17F
330
1F
100
AcDbEntity
  8
0
  6
HIDDEN
 62
     7
370
     0
100
AcDbLine
 10
132.2577362847
 20
98.410739677
 30
0.0
 11
139.9175622532
 21
98.410739677
 31
0.0
  0
LINE
  5
180
330
1F
100
AcDbEntity
  8
0
  6
HIDDEN
 62
     7
370
     0
100
AcDbLine
 10
139.9175622532
 20
132.410739677
 30
0.0
 11
132.2577362847
 21
132.410739677
 31
0.0
  0
ARC
  5
181
330
1F
100
AcDbEntity
  8
0
  6
HIDDEN
 62
     7
370
     0
100
AcDbCircle
 10
196.2577362847
 20
130.410739677
 30
0.0
 40
1.0
100
AcDbArc
 50
270.0
 51
0.0
  0
ARC
  5
182
330
1F
100
AcDbEntity
  8
0
  6
HIDDEN
 62
     7
370
     0
100
AcDbCircle
 10
196.2577362847
 20
100.410739677
 30
0.0
 40
1.0
100
AcDbArc
 50
0.0
 51
90.0
  0
LINE
  5
183
330
1F
100
AcDbEntity
  8
0
  6
HIDDEN
 62
     7
370
     0
100
AcDbLine
 10
171.6260837871
 20
129.910739677
 30
0.0
 11
169.7577362847
 21
129.910739677
 31
0.0
  0
LINE
  5
184
330
1F
100
AcDbEntity
  8
0
  6
HIDDEN
 62
     7
370
     0
100
AcDbLine
 10
169.7577362847
 20
100.910739677
 30
0.0
 11
171.6260837871
 21
100.910739677
 31
0.0
  0
ARC
  5
185
330
1F
100
AcDbEntity
  8
0
  6
HIDDEN
 62
     7
370
     0
100
AcDbCircle
 10
169.7577362847
 20
128.910739677
 30
0.0
 40
1.0
100
AcDbArc
 50
90.0
 51
180.0
  0
ARC
  5
186
330
1F
100
AcDbEntity
  8
0
  6
HIDDEN
 62
     7
370
     0
100
AcDbCircle
 10
169.7577362847
 20
101.910739677
 30
0.0
 40
1.0
100
AcDbArc
 50
180.0
 51
270.0
  0
ARC
  5
187
330
1F
100
AcDbEntity
  8
0
  6
HIDDEN
 62
     7
370
     0
100
AcDbCircle
 10
171.6260837871
 20
128.910739677
 30
0.0
 40
0.9999999999999716
100
AcDbArc
 50
75.0
 51
90.0
  0
ARC
  5
188
330
1F
100
AcDbEntity
  8
0
  6
HIDDEN
 62
     7
370
     0
100
AcDbCircle
 10
171.6260837871
 20
101.910739677
 30
0.0
 40
1.0
100
AcDbArc
 50
270.0
 51
285.0
  0
LINE
  5
189
330
1F
100
AcDbEntity
  8
0
  6
HIDDEN
 62
     7
370
     0
100
AcDbLine
 10
171.8849028322
 20
100.9448138507
 30
0.0
 11
173.6237616885
 21
101.410739677
 31
0.0
  0
LINE
  5
18A
330
1F
100
AcDbEntity
  8
0
  6
HIDDEN
 62
     7
370
     0
100
AcDbLine
 10
173.6237616885
 20
129.410739677
 30
0.0
 11
171.8849028322
 21
129.8766655033
 31
0.0
  0
LINE
  5
18B
330
1F
100
AcDbEntity
  8
0
  6
HIDDEN
 62
     7
370
     0
100
AcDbLine
 10
177.7077362847
 20
129.410739677
 30
0.0
 11
173.6237616885
 21
129.410739677
 31
0.0
  0
LINE
  5
18C
330
1F
100
AcDbEntity
  8
0
  6
HIDDEN
 62
     7
370
     0
100
AcDbLine
 10
196.2577362847
 20
129.410739677
 30
0.0
 11
188.6900037548
 21
129.410739677
 31
0.0
  0
LINE
  5
18D
330
1F
100
AcDbEntity
  8
0
  6
HIDDEN
 62
     7
370
     0
100
AcDbLine
 10
173.6237616885
 20
101.410739677
 30
0.0
 11
196.2577362847
 21
101.410739677
 31
0.0
  0
LINE
  5
18E
330
1F
100
AcDbEntity
  8
0
  6
HIDDEN
 62
     7
370
     0
100
AcDbLine
 10
151.0577362847
 20
105.910739677
 30
0.0
 11
154.0577362847
 21
105.910739677
 31
0.0
  0
LINE
  5
18F
330
1F
100
AcDbEntity
  8
0
  6
HIDDEN
 62
     7
370
     0
100
AcDbLine
 10
154.0577362847
 20
124.910739677
 30
0.0
 11
151.0577362847
 21
124.910739677
 31
0.0
  0
LINE
  5
190
330
1F
100
AcDbEntity
  8
0
  6
HIDDEN
 62
     7
370
     0
100
AcDbLine
 10
142.2077362847
 20
106.410739677
 30
0.0
 11
142.7077362847
 21
106.910739677
 31
0.0
  0
LINE
  5
191
330
1F
100
AcDbEntity
  8
0
  6
HIDDEN
 62
     7
370
     0
100
AcDbLine
 10
142.7077362847
 20
123.910739677
 30
0.0
 11
142.2077362847
 21
124.410739677
 31
0.0
  0
LINE
  5
192
330
1F
100
AcDbEntity
  8
0
  6
HIDDEN
 62
     7
370
     0
100
AcDbLine
 10
142.7077362847
 20
106.910739677
 30
0.0
 11
151.0577362847
 21
106.910739677
 31
0.0
  0
LINE
  5
193
330
1F
100
AcDbEntity
  8
0
  6
HIDDEN
 62
     7
370
     0
100
AcDbLine
 10
151.0577362847
 20
123.910739677
 30
0.0
 11
142.7077362847
 21
123.910739677
 31
0.0
  0
LINE
  5
194
330
1F
100
AcDbEntity
  8
0
  6
HIDDEN
 62
     7
370
     0
100
AcDbLine
 10
137.2077362847
 20
146.910739677
 30
0.0
 11
137.2077362847
 21
141.810739677
 31
0.0
  0
LINE
  5
195
330
1F
100
AcDbEntity
  8
0
  6
HIDDEN
 62
     7
370
     0
100
AcDbLine
 10
175.9577362847
 20
140.410739677
 30
0.0
 11
177.7077362847
 21
138.660739677
 31
0.0
  0
LINE
  5
196
330
1F
100
AcDbEntity
  8
0
  6
HIDDEN
 62
     7
370
     0
100
AcDbLine
 10
188.7077362847
 20
138.660739677
 30
0.0
 11
190.4577362847
 21
140.410739677
 31
0.0
  0
LINE
  5
197
330
1F
100
AcDbEntity
  8
0
  6
HIDDEN
 62
     7
370
     0
100
AcDbLine
 10
177.7077362847
 20
138.660739677
 30
0.0
 11
177.7077362847
 21
129.410739677
 31
0.0
  0
LINE
  5
198
330
1F
100
AcDbEntity
  8
0
  6
HIDDEN
 62
     7
370
     0
100
AcDbLine
 10
188.7077362847
 20
129.4037865041
 30
0.0
 11
188.7077362847
 21
138.660739677
 31
0.0
  0
LINE
  5
199
330
1F
100
AcDbEntity
  8
0
  6
HIDDEN
 62
     7
370
     0
100
AcDbLine
 10
127.4421741152
 20
91.3313683435
 30
0.0
 11
127.0077419657
 21
91.8104343626
 31
0.0
  0
LINE
  5
19A
330
1F
100
AcDbEntity
  8
0
  6
HIDDEN
 62
     7
370
     0
100
AcDbLine
 10
119.5077386406
 20
92.2321223217
 30
0.0
 11
119.0253048972
 21
91.7530563463
 31
0.0
  0
LINE
  5
19B
330
1F
100
AcDbEntity
  8
0
  6
HIDDEN
 62
     7
370
     0
100
AcDbLine
 10
119.025182969
 20
139.0684177173
 30
0.0
 11
119.50773372
 21
138.5892974594
 31
0.0
  0
LINE
  5
19C
330
1F
100
AcDbEntity
  8
0
  6
HIDDEN
 62
     7
370
     0
100
AcDbLine
 10
127.0077361667
 20
139.0109952371
 30
0.0
 11
127.442278557
 21
139.4901154877
 31
0.0
  0
LINE
  5
19D
330
1F
100
AcDbEntity
  8
0
  6
HIDDEN
 62
     7
370
     0
100
AcDbLine
 10
154.0577362847
 20
111.210739677
 30
0.0
 11
168.7577362847
 21
111.210739677
 31
0.0
  0
LINE
  5
19E
330
1F
100
AcDbEntity
  8
0
  6
HIDDEN
 62
     7
370
     0
100
AcDbLine
 10
168.7577362847
 20
119.610739677
 30
0.0
 11
154.0577362847
 21
119.610739677
 31
0.0
  0
LINE
  5
19F
330
1F
100
AcDbEntity
  8
0
  6
HIDDEN
 62
     7
370
     0
100
AcDbLine
 10
127.0077362847
 20
91.8106893287
 30
0.0
 11
127.0077362847
 21
95.473666851
 31
0.0
  0
LINE
  5
1A0
330
1F
100
AcDbEntity
  8
0
  6
HIDDEN
 62
     7
370
     0
100
AcDbLine
 10
119.5077362847
 20
95.4126019226
 30
0.0
 11
119.5077362847
 21
92.2323037468
 31
0.0
  0
LINE
  5
1A1
330
1F
100
AcDbEntity
  8
0
  6
HIDDEN
 62
     7
370
     0
100
AcDbLine
 10
127.0077362847
 20
135.3478125031
 30
0.0
 11
127.0077362847
 21
139.010703931
 31
0.0
  0
LINE
  5
1A2
330
1F
100
AcDbEntity
  8
0
  6
HIDDEN
 62
     7
370
     0
100
AcDbLine
 10
119.5077362847
 20
138.5891536802
 30
0.0
 11
119.5077362847
 21
135.4088774314
 31
0.0
  0
DIMENSION
  5
1A3
330
1F
100
AcDbEntity
  8
VERMASSUNG
100
AcDbDimension
  2
_D
 10
90.2124324423
 20
83.910739677
 30
0.0
 11
90.2124324423
 21
115.410739677
 31
0.0
 70
   160
  1
HSK A %%c<>
 71
     2
 42
-1.0
  3
SLDDIMSTYLE0
100
AcDbAlignedDimension
 13
132.5577362847
 23
146.910739677
 33
0.0
 14
132.5577362847
 24
83.910739677
 34
0.0
 50
90.0
100
AcDbRotatedDimension
  0
DIMENSION
  5
1B0
330
1F
100
AcDbEntity
  8
VERMASSUNG
100
AcDbDimension
  2
_D_1
 10
205.1065950699
 20
101.410739677
 30
0.0
 11
205.1065950699
 21
115.410739677
 31
0.0
 70
   160
  1
%%c<>
 71
     2
 42
-1.0
  3
SLDDIMSTYLE0
100
AcDbAlignedDimension
 13
196.2577362847
 23
129.410739677
 33
0.0
 14
196.2577362847
 24
101.410739677
 34
0.0
 50
90.0
100
AcDbRotatedDimension
  0
DIMENSION
  5
1BB
330
1F
100
AcDbEntity
  8
VERMASSUNG
100
AcDbDimension
  2
_D_2
 10
211.1065950699
 20
90.410739677
 30
0.0
 11
211.1065950699
 21
115.410739677
 31
0.0
 70
   160
  1
WH%%c<>
 71
     2
 42
-1.0
  3
SLDDIMSTYLE0
100
AcDbAlignedDimension
 13
196.7577362847
 23
140.410739677
 33
0.0
 14
196.7577362847
 24
90.410739677
 34
0.0
 50
90.0
100
AcDbRotatedDimension
  0
DIMENSION
  5
1C7
330
1F
100
AcDbEntity
  8
VERMASSUNG
100
AcDbDimension
  2
_D_3
 10
158.2077362847
 20
149.7200242189
 30
0.0
 11
177.7327362847
 21
149.7200242189
 31
0.0
 70
   160
  1
(<>)
 71
     2
 42
-1.0
  3
SLDDIMSTYLE0
100
AcDbAlignedDimension
 13
197.2577362847
 23
139.910739677
 33
0.0
 14
158.2077362847
 24
145.2571800008
 34
0.0
100
AcDbRotatedDimension
  0
DIMENSION
  5
1D3
330
1F
100
AcDbEntity
  8
VERMASSUNG
100
AcDbDimension
  2
_D_4
 10
132.2577362847
 20
155.7200242189
 30
0.0
 11
164.7577362847
 21
155.7200242189
 31
0.0
 70
   160
  1
<>
 71
     2
 42
-1.0
  3
SLDDIMSTYLE0
100
AcDbAlignedDimension
 13
197.2577362847
 23
139.910739677
 33
0.0
 14
132.2577362847
 24
146.610739677
 34
0.0
100
AcDbRotatedDimension
  0
DIMENSION
  5
1DD
330
1F
100
AcDbEntity
  8
VERMASSUNG
100
AcDbDimension
  2
_D_5
 10
100.3577362847
 20
161.7200242189
 30
0.0
 11
148.8077362847
 21
161.7200242189
 31
0.0
 70
   160
  1
(<>)
 71
     2
 42
-1.0
  3
SLDDIMSTYLE0
100
AcDbAlignedDimension
 13
197.2577362847
 23
139.910739677
 33
0.0
 14
100.3577362847
 24
135.1014174235
 34
0.0
100
AcDbRotatedDimension
  0
LINE
  5
1E9
330
1F
100
AcDbEntity
  8
VERMASSUNG
  6
CENTERX2
370
     0
100
AcDbLine
 10
97.9195615695
 20
115.410739677
 30
0.0
 11
199.279468404
 21
115.410739677
 31
0.0
  0
LINE
  5
1EA
330
1F
100
AcDbEntity
  8
0
  6
Continuous
 62
     7
370
    15
100
AcDbLine
 10
264.2548889536
 20
50.4136697131
 30
0.0
 11
264.0073613663
 21
50.5566107964
 31
0.0
  0
LINE
  5
1EB
330
1F
100
AcDbEntity
  8
0
  6
Continuous
 62
     7
370
    15
100
AcDbLine
 10
260.2590864734
 20
50.5566107964
 30
0.0
 11
260.0115588861
 21
50.4136697131
 31
0.0
  0
LINE
  5
1EC
330
1F
100
AcDbEntity
  8
0
  6
Continuous
 62
     7
370
    15
100
AcDbLine
 10
259.1332239198
 20
49.1892565631
 30
0.0
 11
259.1332239198
 21
48.9647078399
 31
0.0
  0
LINE
  5
1ED
330
1F
100
AcDbEntity
  8
0
  6
Continuous
 62
     7
370
    15
100
AcDbLine
 10
265.1332239198
 20
48.9647078399
 30
0.0
 11
265.1332239198
 21
49.1892565631
 31
0.0
  0
LINE
  5
1EE
330
1F
100
AcDbEntity
  8
0
  6
Continuous
 62
     7
370
    15
100
AcDbLine
 10
265.9716286382
 20
39.3245921452
 30
0.0
 11
268.5369350731
 21
39.8472541202
 31
0.0
  0
LINE
  5
1EF
330
1F
100
AcDbEntity
  8
0
  6
Continuous
 62
     7
370
    15
100
AcDbLine
 10
266.9253089216
 20
26.2967725141
 30
0.0
 11
267.1020568857
 21
26.3988401143
 31
0.0
  0
LINE
  5
1F0
330
1F
100
AcDbEntity
  8
0
  6
Continuous
 62
     7
370
    15
100
AcDbLine
 10
275.7627071272
 20
41.4011518909
 30
0.0
 11
275.7627071272
 21
41.6052539188
 31
0.0
  0
LINE
  5
1F1
330
1F
100
AcDbEntity
  8
0
  6
Continuous
 62
     7
370
    15
100
AcDbLine
 10
273.1733644414
 20
47.3283139997
 30
0.0
 11
260.6045414058
 21
54.5841410935
 31
0.0
  0
LINE
  5
1F2
330
1F
100
AcDbEntity
  8
0
  6
Continuous
 62
     7
370
    15
100
AcDbLine
 10
248.1055572478
 20
32.932919534
 30
0.0
 11
260.6743802834
 21
25.6770924402
 31
0.0
  0
SPLINE
  5
1F3
330
1F
100
AcDbEntity
  8
0
  6
Continuous
 62
     7
370
    15
100
AcDbSpline
210
0.0
220
0.0
230
1.0
 70
     8
 71
     3
 72
    29
 73
    25
 74
     0
 42
0.000000001
 43
0.00000001
 40
0.0
 40
0.0
 40
0.0
 40
0.0
 40
0.0216450883056544
 40
0.0730505875112522
 40
0.1240712363634061
 40
0.1736586981471645
 40
0.2220063478998303
 40
0.2696323837975255
 40
0.3169370061365015
 40
0.3641538136198212
 40
0.41137582422164
 40
0.4586638648970955
 40
0.5060383273776793
 40
0.5534954151603675
 40
0.6010195324375409
 40
0.6485897273857083
 40
0.6961828002295051
 40
0.7437739796359534
 40
0.7913312872511761
 40
0.8388300885877077
 40
0.8862463348426732
 40
0.9335583170813608
 40
0.9807506080143732
 40
1.0
 40
1.0
 40
1.0
 40
1.0
 10
263.3312754481725
 20
30.50885704691244
 30
0.0
 10
263.2762028353827
 20
30.5345949710631
 30
0.0
 10
263.0903368013304
 20
30.62145857974773
 30
0.0
 10
262.8226517163802
 20
30.85242374051522
 30
0.0
 10
262.5297743568918
 20
31.20066008094991
 30
0.0
 10
262.2939132663795
 20
31.62727780694419
 30
0.0
 10
262.1155487719549
 20
32.11720518256637
 30
0.0
 10
261.9969456547295
 20
32.66527975049997
 30
0.0
 10
261.9391580798849
 20
33.26524452256388
 30
0.0
 10
261.9435601065261
 20
33.91034582636106
 30
0.0
 10
262.0109339164999
 20
34.5925024765214
 30
0.0
 10
262.1412219974313
 20
35.30269891844063
 30
0.0
 10
262.3334070628633
 20
36.03137112526553
 30
0.0
 10
262.5854613061036
 20
36.76850439028367
 30
0.0
 10
262.89435767059
 20
37.50386638159547
 30
0.0
 10
263.2561261205657
 20
38.22722492582933
 30
0.0
 10
263.6659234793741
 20
38.92852903176855
 30
0.0
 10
264.1180861273951
 20
39.59802773080759
 30
0.0
 10
264.6062271189538
 20
40.22649726921878
 30
0.0
 10
265.1233068649035
 20
40.80526223837072
 30
0.0
 10
265.6618103455797
 20
41.32685533980764
 30
0.0
 10
266.2135939660615
 20
41.78331534805326
 30
0.0
 10
266.6613417352742
 20
42.09653056358678
 30
0.0
 10
266.9216571346991
 20
42.25102575873826
 30
0.0
 10
266.9970753502425
 20
42.2957858918464
 30
0.0
  0
SPLINE
  5
1F4
330
1F
100
AcDbEntity
  8
0
  6
Continuous
 62
     7
370
    15
100
AcDbSpline
210
0.0
220
0.0
230
1.0
 70
     8
 71
     3
 72
    15
 73
    11
 74
     0
 42
0.000000001
 43
0.00000001
 40
0.0
 40
0.0
 40
0.0
 40
0.0
 40
0.0752681467982302
 40
0.2188872450961255
 40
0.3624179582202027
 40
0.5061987939423229
 40
0.651003906621162
 40
0.798077950479651
 40
0.9489490989256985
 40
0.9999999999999999
 40
0.9999999999999999
 40
0.9999999999999999
 40
0.9999999999999999
 10
266.9970753502425
 20
42.29578589184639
 30
0.0
 10
267.0932694887528
 20
42.34934845007721
 30
0.0
 10
267.3730115957207
 20
42.5051136882313
 30
0.0
 10
267.8292136486399
 20
42.70512779158706
 30
0.0
 10
268.3526411099118
 20
42.86807218255628
 30
0.0
 10
268.849245366264
 20
42.95101372661341
 30
0.0
 10
269.3146917709062
 20
42.95824864955554
 30
0.0
 10
269.7425273474482
 20
42.88428699357594
 30
0.0
 10
270.0537008327971
 20
42.78380242818553
 30
0.0
 10
270.2079242554018
 20
42.68133397520518
 30
0.0
 10
270.2469157608339
 20
42.65542740943505
 30
0.0
  0
LINE
  5
1F5
330
1F
100
AcDbEntity
  8
0
  6
Continuous
 62
     7
370
    15
100
AcDbLine
 10
236.3513846668
 20
35.9657838322
 30
0.0
 11
241.410050327
 21
33.045478307
 31
0.0
  0
LINE
  5
1F6
330
1F
100
AcDbEntity
  8
0
  6
Continuous
 62
     7
370
    15
100
AcDbLine
 10
254.2934052105
 20
61.9801575669
 30
0.0
 11
252.1001047058
 21
63.2463229972
 31
0.0
  0
SPLINE
  5
1F7
330
1F
100
AcDbEntity
  8
0
  6
Continuous
 62
     7
370
    15
100
AcDbSpline
210
0.0
220
0.0
230
1.0
 70
     8
 71
     3
 72
    10
 73
     6
 74
     0
 42
0.000000001
 43
0.00000001
 40
0.0
 40
0.0
 40
0.0
 40
0.0
 40
0.0784501380701805
 40
0.5715986164061521
 40
0.9999999999999999
 40
0.9999999999999999
 40
0.9999999999999999
 40
0.9999999999999999
 10
233.1860895693036
 20
45.32824029751275
 30
0.0
 10
233.1775640913401
 20
45.27153479838682
 30
0.0
 10
233.1154462732199
 20
44.85837064545687
 30
0.0
 10
233.0632311650506
 20
44.15649846756408
 30
0.0
 10
233.0507029144337
 20
43.52952953145996
 30
0.0
 10
233.0448788997818
 20
43.23807014245315
 30
0.0
  0
SPLINE
  5
1F8
330
1F
100
AcDbEntity
  8
0
  6
Continuous
 62
     7
370
    15
100
AcDbSpline
210
0.0
220
0.0
230
1.0
 70
     8
 71
     3
 72
    10
 73
     6
 74
     0
 42
0.000000001
 43
0.00000001
 40
0.0
 40
0.0
 40
0.0
 40
0.0
 40
0.1974113818886048
 40
0.6371351100287029
 40
1.0
 40
1.0
 40
1.0
 40
1.0
 10
245.0349782695803
 20
62.93432674720574
 30
0.0
 10
244.9063343531356
 20
62.87391703586221
 30
0.0
 10
244.491142710818
 20
62.67894779084983
 30
0.0
 10
243.8358596199169
 20
62.30058454503029
 30
0.0
 10
243.3135841181265
 20
61.94825554647909
 30
0.0
 10
243.0774538787795
 20
61.78896120762612
 30
0.0
  0
SPLINE
  5
1F9
330
1F
100
AcDbEntity
  8
0
  6
Continuous
 62
     7
370
    15
100
AcDbSpline
210
0.0
220
0.0
230
1.0
 70
     8
 71
     3
 72
    10
 73
     6
 74
     0
 42
0.000000001
 43
0.00000001
 40
0.0
 40
0.0
 40
0.0
 40
0.0
 40
0.3430703576339021
 40
0.9949082121937256
 40
1.0
 40
1.0
 40
1.0
 40
1.0
 10
233.0448788997818
 20
43.23807014245315
 30
0.0
 10
233.0473132719346
 20
43.06480743495743
 30
0.0
 10
233.054372980803
 20
42.56234347466864
 30
0.0
 10
233.0779082175603
 20
42.06518459458412
 30
0.0
 10
233.1233434114761
 20
41.76020159968381
 30
0.0
 10
233.1236955745564
 20
41.75783771077637
 30
0.0
  0
SPLINE
  5
1FA
330
1F
100
AcDbEntity
  8
0
  6
Continuous
 62
     7
370
    15
100
AcDbSpline
210
0.0
220
0.0
230
1.0
 70
     8
 71
     3
 72
    13
 73
     9
 74
     0
 42
0.000000001
 43
0.00000001
 40
0.0
 40
0.0
 40
0.0
 40
0.0
 40
0.0822924079188156
 40
0.2804464014154553
 40
0.4793537546183541
 40
0.6789138421248557
 40
0.87896629669252
 40
0.9999999999999999
 40
0.9999999999999999
 40
0.9999999999999999
 40
0.9999999999999999
 10
247.5902634319933
 20
30.12672595034543
 30
0.0
 10
247.6941568693328
 20
30.11473234836016
 30
0.0
 10
248.0482179713153
 20
30.07385904544142
 30
0.0
 10
248.68430684525
 20
30.09485436152439
 30
0.0
 10
249.4927009845431
 20
30.1864510264699
 30
0.0
 10
250.3250227372886
 20
30.37254500786699
 30
0.0
 10
251.0602379630519
 20
30.59480410313681
 30
0.0
 10
251.5198631652374
 20
30.78875434555609
 30
0.0
 10
251.6931192804251
 20
30.8618640562105
 30
0.0
  0
LINE
  5
1FB
330
1F
100
AcDbEntity
  8
0
  6
Continuous
 62
     7
370
    15
100
AcDbLine
 10
243.8085090335
 20
31.6608775678
 30
0.0
 11
245.2078971011
 21
30.8530280319
 31
0.0
  0
LINE
  5
1FC
330
1F
100
AcDbEntity
  8
0
  6
Continuous
 62
     7
370
    15
100
AcDbLine
 10
244.8776067022
 20
62.858665736
 30
0.0
 11
238.7334284591
 21
65.9198647978
 31
0.0
  0
LINE
  5
1FD
330
1F
100
AcDbEntity
  8
0
  6
Continuous
 62
     7
370
    15
100
AcDbLine
 10
227.3517306459
 20
46.2040496594
 30
0.0
 11
233.0760664482
 21
42.4136322438
 31
0.0
  0
SPLINE
  5
1FE
330
1F
100
AcDbEntity
  8
0
  6
Continuous
 62
     7
370
    15
100
AcDbSpline
210
0.0
220
0.0
230
1.0
 70
     8
 71
     3
 72
    10
 73
     6
 74
     0
 42
0.000000001
 43
0.00000001
 40
0.0
 40
0.0
 40
0.0
 40
0.0
 40
0.034882886158117
 40
0.9678713558917628
 40
1.0
 40
1.0
 40
1.0
 40
1.0
 10
262.3186608226597
 20
57.02355160256796
 30
0.0
 10
262.3128315458576
 20
57.03083644478938
 30
0.0
 10
262.1510906274978
 20
57.23296393178526
 30
0.0
 10
261.9559001809841
 20
57.40670343894901
 30
0.0
 10
261.762787507193
 20
57.56535560732462
 30
0.0
 10
261.7563588072144
 20
57.57063712081312
 30
0.0
  0
SPLINE
  5
1FF
330
1F
100
AcDbEntity
  8
0
  6
Continuous
 62
     7
370
    15
100
AcDbSpline
210
0.0
220
0.0
230
1.0
 70
     8
 71
     3
 72
    12
 73
     8
 74
     0
 42
0.000000001
 43
0.00000001
 40
0.0
 40
0.0
 40
0.0
 40
0.0
 40
0.1180824719796091
 40
0.3413755019043369
 40
0.5643664183538488
 40
0.786718009345671
 40
1.0
 40
1.0
 40
1.0
 40
1.0
 10
263.9466144033777
 20
53.84423244769479
 30
0.0
 10
263.9060967497923
 20
53.99221439628142
 30
0.0
 10
263.7889605305314
 20
54.42002905094301
 30
0.0
 10
263.5451614300622
 20
55.08439073194585
 30
0.0
 10
263.1940958992161
 20
55.81075638972414
 30
0.0
 10
262.7901613547496
 20
56.46598922926235
 30
0.0
 10
262.4736310165821
 20
56.84029507742248
 30
0.0
 10
262.3186608226597
 20
57.02355160256796
 30
0.0
  0
SPLINE
  5
200
330
1F
100
AcDbEntity
  8
0
  6
Continuous
 62
     7
370
    15
100
AcDbSpline
210
0.0
220
0.0
230
1.0
 70
     8
 71
     3
 72
    28
 73
    24
 74
     0
 42
0.000000001
 43
0.00000001
 40
0.0
 40
0.0
 40
0.0
 40
0.0
 40
0.0355905578291278
 40
0.0841795777483356
 40
0.133018599291228
 40
0.1823179672413433
 40
0.2321636021720941
 40
0.2825194642482193
 40
0.3332693612875765
 40
0.384272213763531
 40
0.4354038822030977
 40
0.4865701458300565
 40
0.5377103284916616
 40
0.5888038976077444
 40
0.6398454817795193
 40
0.6908386600634787
 40
0.7417919633636929
 40
0.7927165133714154
 40
0.8436247272989453
 40
0.8945296624957043
 40
0.9454429798963566
 40
0.9963755256255431
 40
1.0
 40
1.0
 40
1.0
 40
1.0
 10
238.7054246732576
 20
65.92349899461665
 30
0.0
 10
238.5672453942388
 20
65.98993350350649
 30
0.0
 10
238.2404206949122
 20
66.1470658792651
 30
0.0
 10
237.6775801559194
 20
66.2969564866701
 30
0.0
 10
237.0313957545476
 20
66.38690817497232
 30
0.0
 10
236.3536684808418
 20
66.38814105437487
 30
0.0
 10
235.650487324583
 20
66.30375361708172
 30
0.0
 10
234.9265100584117
 20
66.13263754899505
 30
0.0
 10
234.1880138363052
 20
65.87594455365608
 30
0.0
 10
233.4416617557273
 20
65.53569414178106
 30
0.0
 10
232.69428642931
 20
65.11513052702695
 30
0.0
 10
231.9525155977817
 20
64.6183690720311
 30
0.0
 10
231.222599783069
 20
64.05015313893202
 30
0.0
 10
230.5104003106462
 20
63.4156545712444
 30
0.0
 10
229.8214518673284
 20
62.72037657140582
 30
0.0
 10
229.1610522615019
 20
61.97018044069462
 30
0.0
 10
228.5343351284732
 20
61.17126169931021
 30
0.0
 10
227.9459991533977
 20
60.33013781145016
 30
0.0
 10
227.4012354042195
 20
59.45356393282293
 30
0.0
 10
226.902144743684
 20
58.54868539637227
 30
0.0
 10
226.4609831806044
 20
57.62230172248475
 30
0.0
 10
226.1777079825205
 20
56.97425846735424
 30
0.0
 10
226.0597238991505
 20
56.63703174762936
 30
0.0
 10
226.05188567254
 20
56.61462822189238
 30
0.0
  0
LINE
  5
201
330
1F
100
AcDbEntity
  8
0
  6
Continuous
 62
     7
370
    15
100
AcDbLine
 10
226.1675449241
 20
54.7601897523
 30
0.0
 11
228.7211048227
 21
53.2860510008
 31
0.0
  0
LINE
  5
202
330
1F
100
AcDbEntity
  8
0
  6
Continuous
 62
     7
370
    15
100
AcDbLine
 10
225.8692526467
 20
55.8884994696
 30
0.0
 11
225.8692526467
 21
55.4230933858
 31
0.0
  0
LINE
  5
203
330
1F
100
AcDbEntity
  8
0
  6
Continuous
 62
     7
370
    15
100
AcDbLine
 10
225.8692526467
 20
48.4171510409
 30
0.0
 11
225.8692526467
 21
47.9517449571
 31
0.0
  0
SPLINE
  5
204
330
1F
100
AcDbEntity
  8
0
  6
Continuous
 62
     7
370
    15
100
AcDbSpline
210
0.0
220
0.0
230
1.0
 70
     8
 71
     3
 72
    11
 73
     7
 74
     0
 42
0.000000001
 43
0.00000001
 40
0.0
 40
0.0
 40
0.0
 40
0.0
 40
0.2154775212403068
 40
0.5339865742089136
 40
0.8486996767328769
 40
1.0
 40
1.0
 40
1.0
 40
1.0
 10
225.9854234568337
 20
47.66459488172189
 30
0.0
 10
226.0649734795815
 20
47.53292181719599
 30
0.0
 10
226.2621107210016
 20
47.20661562879613
 30
0.0
 10
226.6515476182489
 20
46.76890042090653
 30
0.0
 10
227.0445106100352
 20
46.40415162962137
 30
0.0
 10
227.3125224992683
 20
46.24014134338644
 30
0.0
 10
227.3995377722973
 20
46.18689221374097
 30
0.0
  0
LWPOLYLINE
  5
205
330
1F
100
AcDbEntity
  8
0
  6
Continuous
 62
     7
370
    15
100
AcDbPolyline
 90
       21
 70
   128
 43
0.0
 10
259.1614666432
 20
48.9521756054
 10
259.2928920139
 20
48.6317882994
 10
259.5269743801
 20
48.3315493489
 10
259.8552533952
 20
48.0623101718
 10
260.2658642002
 20
47.8338017736
 10
260.7439662509
 20
47.6542830431
 10
261.2722796934
 20
47.5302422549
 10
261.8317099034
 20
47.4661625663
 10
262.4020376156
 20
47.4643599842
 10
262.9626497004
 20
47.5248996587
 10
263.4932841764
 20
47.6455935282
 10
263.9747625312
 20
47.8220794017
 10
264.3896828825
 20
48.04797862
 10
264.7230489277
 20
48.3151265967
 10
264.9628119494
 20
48.6138679079
 10
265.1003062873
 20
48.9334052642
 10
265.1305625378
 20
49.2621897532
 10
265.0524871611
 20
49.5883382466
 10
264.8689020049
 20
49.9000628882
 10
264.5864423149
 20
50.1860971372
 10
264.2548889536
 20
50.4136697131
  0
ARC
  5
206
330
1F
100
AcDbEntity
  8
0
  6
Continuous
 62
     7
370
    15
100
AcDbCircle
 10
260.5396105593
 20
49.1285440698
 30
0.0
 40
1.38938349233315
100
AcDbArc
 50
112.3375144092
 51
187.2928073157
  0
LWPOLYLINE
  5
207
330
1F
100
AcDbEntity
  8
0
  6
Continuous
 62
     7
370
    15
100
AcDbPolyline
 90
       32
 70
   128
 43
0.0
 10
259.5081716588
 20
49.2656243347
 10
259.6349312957
 20
48.9648613317
 10
259.8639713261
 20
48.6849853427
 10
260.1859148244
 20
48.4374545236
 10
260.5875813859
 20
48.2324028153
 10
261.0525267342
 20
48.0782250586
 10
261.5617159524
 20
47.9812333092
 10
262.0943027739
 20
47.9453984206
 10
262.6284830316
 20
47.9721874773
 10
263.1423873232
 20
48.0605037324
 10
263.6149763464
 20
48.2067315078
 10
264.0269022512
 20
48.4048842212
 10
264.3613007426
 20
48.6468494774
 10
264.6044815071
 20
48.9227211903
 10
264.7464886956
 20
49.2212051395
 10
264.7815085172
 20
49.5300813572
 10
264.7081072562
 20
49.8367044146
 10
264.5292899688
 20
50.1285211277
 10
264.2523774559
 20
50.3935844861
 10
263.8887065482
 20
50.6210427647
 10
263.4531659755
 20
50.8015837949
 10
262.9635868199
 20
50.9278162056
 10
262.4400125096
 20
50.9945720271
 10
261.9038782384
 20
50.9991182683
 10
261.3771334064
 20
50.9412688056
 10
260.8813430088
 20
50.8233920026
 10
260.4368047628
 20
50.6503137496
 10
260.0617181164
 20
50.4291198906
 10
259.771439161
 20
50.1688661282
 10
259.5778519511
 20
49.880207282
 10
259.4888819699
 20
49.574961079
 10
259.5081716588
 20
49.2656243347
  0
LWPOLYLINE
  5
208
330
1F
100
AcDbEntity
  8
0
  6
Continuous
 62
     7
370
    15
100
AcDbPolyline
 90
       27
 70
   128
 43
0.0
 10
260.3501695538
 20
49.3327972727
 10
260.4609512768
 20
49.0905946786
 10
260.6689194073
 20
48.870734989
 10
260.9619875936
 20
48.6859956499
 10
261.3231237779
 20
48.5471130402
 10
261.7313400378
 20
48.4621585123
 10
262.1629123282
 20
48.4360693147
 10
262.5927592362
 20
48.4703616566
 10
262.9958996219
 20
48.5630425918
 10
263.3489044315
 20
48.7087258412
 10
263.6312583087
 20
48.8989448239
 10
263.8265518722
 20
49.122644704
 10
263.9234353702
 20
49.3668248577
 10
263.9162782858
 20
49.6172944219
 10
263.8054965629
 20
49.859497016
 10
263.5975284323
 20
50.0793567056
 10
263.3044602461
 20
50.2640960447
 10
262.9433240618
 20
50.4029786544
 10
262.5351078019
 20
50.4879331823
 10
262.1035355115
 20
50.5140223799
 10
261.6736886035
 20
50.479730038
 10
261.2705482178
 20
50.3870491028
 10
260.9175434081
 20
50.2413658534
 10
260.635189531
 20
50.0511468707
 10
260.4398959675
 20
49.8274469905
 10
260.3430124695
 20
49.5832668369
 10
260.3501695538
 20
49.3327972727
  0
LINE
  5
209
330
1F
100
AcDbEntity
  8
0
  6
Continuous
 62
     7
370
    15
100
AcDbLine
 10
260.7658986059
 20
48.8057828663
 30
0.0
 11
260.9819229661
 21
48.6763010218
 31
0.0
  0
SPLINE
  5
20A
330
1F
100
AcDbEntity
  8
0
  6
Continuous
 62
     7
370
    15
100
AcDbSpline
210
0.0
220
0.0
230
1.0
 70
     8
 71
     3
 72
     9
 73
     5
 74
     0
 42
0.000000001
 43
0.00000001
 40
0.0
 40
0.0
 40
0.0
 40
0.0
 40
0.3706077004719188
 40
1.0
 40
1.0
 40
1.0
 40
1.0
 10
263.2024823426877
 20
48.64332070574124
 30
0.0
 10
263.2722751341292
 20
48.67912191095287
 30
0.0
 10
263.4605949972962
 20
48.77572326372034
 30
0.0
 10
263.6306343949951
 20
48.93967430258779
 30
0.0
 10
263.7376558825233
 20
49.0428638239506
 30
0.0
  0
SPLINE
  5
20B
330
1F
100
AcDbEntity
  8
0
  6
Continuous
 62
     7
370
    15
100
AcDbSpline
210
0.0
220
0.0
230
1.0
 70
     8
 71
     3
 72
    13
 73
     9
 74
     0
 42
0.000000001
 43
0.00000001
 40
0.0
 40
0.0
 40
0.0
 40
0.0
 40
0.1844095697099149
 40
0.3495005370884481
 40
0.5197705331556397
 40
0.6927076360809589
 40
0.8718061725834134
 40
0.9999999999999999
 40
0.9999999999999999
 40
0.9999999999999999
 40
0.9999999999999999
 10
263.7376558825233
 20
49.0428638239506
 30
0.0
 10
263.7238366800511
 20
49.06234176837656
 30
0.0
 10
263.6976459639525
 20
49.09925716300037
 30
0.0
 10
263.6560132556768
 20
49.20651226052025
 30
0.0
 10
263.6139425296819
 20
49.36146387191903
 30
0.0
 10
263.5709436642186
 20
49.57509107360158
 30
0.0
 10
263.5330256520859
 20
49.80586981165157
 30
0.0
 10
263.5101092989692
 20
49.96638131568135
 30
0.0
 10
263.500549233828
 20
50.03334225081019
 30
0.0
  0
SPLINE
  5
20C
330
1F
100
AcDbEntity
  8
0
  6
Continuous
 62
     7
370
    15
100
AcDbSpline
210
0.0
220
0.0
230
1.0
 70
     8
 71
     3
 72
    11
 73
     7
 74
     0
 42
0.000000001
 43
0.00000001
 40
0.0
 40
0.0
 40
0.0
 40
0.0
 40
0.2164553779443327
 40
0.4403112895790576
 40
0.7519005688038743
 40
1.0
 40
1.0
 40
1.0
 40
1.0
 10
263.500549233828
 20
50.03334225081019
 30
0.0
 10
263.3906440898339
 20
50.01478456383316
 30
0.0
 10
263.1670761833996
 20
49.97703470904987
 30
0.0
 10
262.7521938603412
 20
49.99922779197963
 30
0.0
 10
262.307158147686
 20
50.14906510987112
 30
0.0
 10
262.0223620157938
 20
50.32988634714359
 30
0.0
 10
261.896117271146
 20
50.41004098539193
 30
0.0
  0
SPLINE
  5
20D
330
1F
100
AcDbEntity
  8
0
  6
Continuous
 62
     7
370
    15
100
AcDbSpline
210
0.0
220
0.0
230
1.0
 70
     8
 71
     3
 72
    11
 73
     7
 74
     0
 42
0.000000001
 43
0.00000001
 40
0.0
 40
0.0
 40
0.0
 40
0.0
 40
0.2164553779443471
 40
0.4403112895790568
 40
0.7519005688038739
 40
0.9999999999999999
 40
0.9999999999999999
 40
0.9999999999999999
 40
0.9999999999999999
 10
261.896117271146
 20
50.41004098539193
 30
0.0
 10
261.8024541623225
 20
50.32363456649043
 30
0.0
 10
261.6119256357333
 20
50.14786752343635
 30
0.0
 10
261.2583555773961
 20
49.91393756703948
 30
0.0
 10
260.8790882667871
 20
49.78903698215931
 30
0.0
 10
260.6363799628396
 20
49.79404245955328
 30
0.0
 10
260.5287919571593
 20
49.79626129311413
 30
0.0
  0
SPLINE
  5
20E
330
1F
100
AcDbEntity
  8
0
  6
Continuous
 62
     7
370
    15
100
AcDbSpline
210
0.0
220
0.0
230
1.0
 70
     8
 71
     3
 72
    11
 73
     7
 74
     0
 42
0.000000001
 43
0.00000001
 40
0.0
 40
0.0
 40
0.0
 40
0.0
 40
0.1285561766307355
 40
0.4801535797842224
 40
0.8150691831753876
 40
1.0
 40
1.0
 40
1.0
 40
1.0
 10
260.5287919571593
 20
49.79626129311413
 30
0.0
 10
260.5383409406576
 20
49.72937676995632
 30
0.0
 10
260.5740061162269
 20
49.47956502175364
 30
0.0
 10
260.6408863083281
 20
49.10298957595254
 30
0.0
 10
260.7133034487269
 20
48.87984742766951
 30
0.0
 10
260.752097840368
 20
48.82521712025763
 30
0.0
 10
260.7658986058545
 20
48.80578286625457
 30
0.0
  0
LINE
  5
20F
330
1F
100
AcDbEntity
  8
0
  6
Continuous
 62
     7
370
    15
100
AcDbLine
 10
263.5005492338
 20
48.8385578732
 30
0.0
 11
263.5005492338
 21
50.0333422508
 31
0.0
  0
LINE
  5
210
330
1F
100
AcDbEntity
  8
0
  6
Continuous
 62
     7
370
    15
100
AcDbLine
 10
261.8961172711
 20
48.4449826557
 30
0.0
 11
261.8961172711
 21
50.4100409854
 31
0.0
  0
LWPOLYLINE
  5
211
330
1F
100
AcDbEntity
  8
0
  6
Continuous
 62
     7
370
    15
100
AcDbPolyline
 90
        8
 70
   128
 43
0.0
 10
266.3866364921
 20
39.6020164115
 10
266.2634466162
 20
39.4651894028
 10
266.030093933
 20
39.3391798553
 10
265.7494896182
 20
39.3125118677
 10
265.4379413746
 20
39.3867352865
 10
265.1135552536
 20
39.5575365164
 10
264.7951833976
 20
39.8149892107
 10
264.5289313302
 20
40.1087314869
  0
LWPOLYLINE
  5
212
330
1F
100
AcDbEntity
  8
0
  6
Continuous
 62
     7
370
    15
100
AcDbPolyline
 90
       69
 70
   128
 43
0.0
 10
267.1006490577
 20
46.4032771515
 10
266.30141517
 20
45.8992198145
 10
265.5090000641
 20
45.3141240477
 10
264.7301643462
 20
44.652981682
 10
263.971552768
 20
43.9214333509
 10
263.2396375361
 20
43.1257203668
 10
262.5406630932
 20
42.2726314724
 10
261.8805928426
 20
41.3694449212
 10
261.2650582712
 20
40.4238663826
 10
260.6993109028
 20
39.4439631991
 10
260.1881774945
 20
38.4380955593
 10
259.7360188563
 20
37.4148451712
 10
259.3466926462
 20
36.3829420463
 10
259.0235204583
 20
35.3511900182
 10
258.7692594837
 20
34.3283916315
 10
258.5860789874
 20
33.3232730413
 10
258.4755418008
 20
32.3444095652
 10
258.4385909881
 20
31.400152521
 10
258.4755418008
 20
30.4985579771
 10
258.5860789874
 20
29.64731802
 10
258.7692594837
 20
28.8536951291
 10
259.0235204583
 20
28.124460215
 10
259.3466926462
 20
27.4658348529
 10
259.7360188563
 20
26.883438202
 10
260.1881774945
 20
26.3822390654
 10
260.6993109028
 20
25.9665134973
 10
261.2650582712
 20
25.6398083217
 10
261.8805928426
 20
25.404910872
 10
262.5406630932
 20
25.2638252103
 10
263.2396375361
 20
25.2177550298
 10
263.971552768
 20
25.2670933851
 10
264.7301643462
 20
25.4114193386
 10
265.5090000641
 20
25.6495015522
 10
266.30141517
 20
25.9793087925
 10
267.1006490577
 20
26.3980272603
 10
267.8998829453
 20
26.9020845974
 10
268.6922980513
 20
27.4871803641
 10
269.4711337692
 20
28.1483227298
 10
270.2297453473
 20
28.879871061
 10
270.9616605792
 20
29.6755840451
 10
271.6606350222
 20
30.5286729395
 10
272.3207052727
 20
31.4318594907
 10
272.9362398441
 20
32.3774380293
 10
273.5019872125
 20
33.3573412128
 10
274.0131206209
 20
34.3632088526
 10
274.4652792591
 20
35.3864592407
 10
274.8546054691
 20
36.4183623656
 10
275.177777657
 20
37.4501143937
 10
275.4320386316
 20
38.4729127804
 10
275.6152191279
 20
39.4780313705
 10
275.7257563146
 20
40.4568948467
 10
275.7627071272
 20
41.4011518909
 10
275.7257563146
 20
42.3027464348
 10
275.6152191279
 20
43.1539863918
 10
275.4320386316
 20
43.9476092827
 10
275.177777657
 20
44.6768441969
 10
274.8546054691
 20
45.335469559
 10
274.4652792591
 20
45.9178662098
 10
274.0131206209
 20
46.4190653464
 10
273.5019872125
 20
46.8347909145
 10
272.9362398441
 20
47.1614960901
 10
272.3207052727
 20
47.3963935399
 10
271.6606350222
 20
47.5374792016
 10
270.9616605792
 20
47.583549382
 10
270.2297453473
 20
47.5342110268
 10
269.4711337692
 20
47.3898850733
 10
268.6922980513
 20
47.1518028596
 10
267.8998829453
 20
46.8219956194
 10
267.1006490577
 20
46.4032771515
  0
LWPOLYLINE
  5
213
330
1F
100
AcDbEntity
  8
0
  6
Continuous
 62
     7
370
    15
100
AcDbPolyline
 90
       36
 70
   128
 43
0.0
 10
266.9238723624
 20
46.7094633685
 10
266.1083275791
 20
46.195119147
 10
265.2997407363
 20
45.5980826503
 10
264.5050104119
 20
44.9234475833
 10
263.7309169648
 20
44.1769696944
 10
262.9840646873
 20
43.3650176698
 10
262.2708254598
 20
42.4945187979
 10
261.5972843879
 20
41.5728998682
 10
260.9691878864
 20
40.6080238083
 10
260.3918946533
 20
39.6081226007
 10
259.870329951
 20
38.5817270499
 10
259.4089435854
 20
37.5375940008
 10
259.0116719425
 20
36.4846316284
 10
258.6819044039
 20
35.4318234365
 10
258.4224544298
 20
34.3881516133
 10
258.235535556
 20
33.3625203989
 10
258.1227425084
 20
32.3636801171
 10
258.0850375975
 20
31.400152521
 10
258.1227425084
 20
30.4801580884
 10
258.235535556
 20
29.6115458874
 10
258.4224544298
 20
28.8017266109
 10
258.6819044039
 20
28.0576093516
 10
259.0116719425
 20
27.3855426556
 10
259.4089435854
 20
26.7912603588
 10
259.870329951
 20
26.2798326684
 10
260.3918946533
 20
25.855622905
 10
260.9691878864
 20
25.5222502769
 10
261.5972843879
 20
25.2825590016
 10
262.2708254598
 20
25.1385940407
 10
262.9840646873
 20
25.0915836525
 10
263.7309169648
 20
25.1419289129
 10
264.5050104119
 20
25.2892002941
 10
265.2997407363
 20
25.5321413284
 10
266.1083275791
 20
25.8686793287
 10
266.9238723624
 20
26.2959430713
 10
266.9253089216
 20
26.2967725141
  0
LWPOLYLINE
  5
214
330
1F
100
AcDbEntity
  8
0
  6
Continuous
 62
     7
370
    15
100
AcDbPolyline
 90
       18
 70
   128
 43
0.0
 10
275.7627071272
 20
41.6052539188
 10
275.7250022163
 20
42.5252483514
 10
275.6122091688
 20
43.3938605525
 10
275.425290295
 20
44.2036798289
 10
275.1658403209
 20
44.9477970882
 10
274.8360727822
 20
45.6198637843
 10
274.4388011393
 20
46.214146081
 10
273.9774147738
 20
46.7255737714
 10
273.4558500714
 20
47.1497835348
 10
272.8785568384
 20
47.483156163
 10
272.2504603369
 20
47.7228474382
 10
271.5769192649
 20
47.8668123991
 10
270.8636800374
 20
47.9138227874
 10
270.11682776
 20
47.8634775269
 10
269.3427343129
 20
47.7162061458
 10
268.5480039885
 20
47.4732651114
 10
267.7394171457
 20
47.1367271112
 10
266.9238723624
 20
46.7094633685
  0
SPLINE
  5
215
330
1F
100
AcDbEntity
  8
0
  6
Continuous
 62
     7
370
    15
100
AcDbSpline
210
0.0
220
0.0
230
1.0
 70
    11
 71
     3
 72
    95
 73
    91
 74
     0
 42
0.000000001
 43
0.00000001
 40
0.0
 40
0.0
 40
0.0
 40
0.0
 40
0.0312500000000005
 40
0.0312500000000005
 40
0.0468750000000008
 40
0.0468750000000008
 40
0.062500000000001
 40
0.062500000000001
 40
0.0937500000000011
 40
0.0937500000000011
 40
0.1093750000000013
 40
0.1093750000000013
 40
0.1250000000000016
 40
0.1250000000000016
 40
0.1562500000000026
 40
0.1562500000000026
 40
0.1718750000000031
 40
0.1718750000000031
 40
0.1875000000000036
 40
0.1875000000000036
 40
0.2187500000000047
 40
0.2187500000000047
 40
0.234375000000005
 40
0.234375000000005
 40
0.2500000000000053
 40
0.2500000000000053
 40
0.2812500000000055
 40
0.2812500000000055
 40
0.2968750000000055
 40
0.2968750000000055
 40
0.3125000000000055
 40
0.3125000000000055
 40
0.3437500000000053
 40
0.3437500000000053
 40
0.3593750000000052
 40
0.3593750000000052
 40
0.3750000000000051
 40
0.3906250000000051
 40
0.3906250000000051
 40
0.4062500000000049
 40
0.4062500000000049
 40
0.4375000000000047
 40
0.4375000000000047
 40
0.4531250000000046
 40
0.4531250000000046
 40
0.4687500000000044
 40
0.4687500000000044
 40
0.5000000000000046
 40
0.5000000000000046
 40
0.5312500000000047
 40
0.5312500000000047
 40
0.5468750000000046
 40
0.5468750000000046
 40
0.5625000000000044
 40
0.5625000000000044
 40
0.5937500000000042
 40
0.5937500000000042
 40
0.6250000000000039
 40
0.6250000000000039
 40
0.6562500000000037
 40
0.6562500000000037
 40
0.6875000000000034
 40
0.6875000000000034
 40
0.7187500000000031
 40
0.7187500000000031
 40
0.7500000000000029
 40
0.7500000000000029
 40
0.7656250000000029
 40
0.7656250000000029
 40
0.781250000000003
 40
0.781250000000003
 40
0.8125000000000028
 40
0.8125000000000028
 40
0.8281250000000027
 40
0.8281250000000027
 40
0.8437500000000024
 40
0.8437500000000024
 40
0.875000000000002
 40
0.875000000000002
 40
0.8906250000000019
 40
0.8906250000000019
 40
0.9062500000000017
 40
0.9062500000000017
 40
0.9218750000000014
 40
0.9218750000000014
 40
0.9375000000000013
 40
0.9375000000000013
 40
0.9687500000000007
 40
0.9687500000000007
 40
1.0
 40
1.0
 40
1.0
 40
1.0
 10
262.1004174797572
 20
51.24931254976619
 30
0.0
 10
262.3236957151472
 20
51.21268390787576
 30
0.0
 10
262.5411398568741
 20
51.16512352754084
 30
0.0
 10
262.8595900467676
 20
51.08056628521873
 30
0.0
 10
262.9644417355055
 20
51.05015151064346
 30
0.0
 10
263.1715922691388
 20
50.98512990371881
 30
0.0
 10
263.2743481082713
 20
50.95035230318495
 30
0.0
 10
263.5751245150835
 20
50.84124853732996
 30
0.0
 10
263.7648502261857
 20
50.76264713306643
 30
0.0
 10
264.0340202151679
 20
50.63720191865877
 30
0.0
 10
264.12115591213
 20
50.59411391462374
 30
0.0
 10
264.2901742554947
 20
50.50542297331516
 30
0.0
 10
264.3723194750949
 20
50.45964459327042
 30
0.0
 10
264.6064479232518
 20
50.32095515527023
 30
0.0
 10
264.7475278805469
 20
50.22611909063019
 30
0.0
 10
264.9369434226512
 20
50.07994249989922
 30
0.0
 10
264.9963586456537
 20
50.030552931795
 30
0.0
 10
265.1075056940753
 20
49.93025229681174
 30
0.0
 10
265.1593065010414
 20
49.87921599536874
 30
0.0
 10
265.2999405983408
 20
49.72645981608706
 30
0.0
 10
265.3752695789351
 20
49.62418519379693
 30
0.0
 10
265.4601000837231
 20
49.46850859826837
 30
0.0
 10
265.4836521459663
 20
49.41623347127221
 30
0.0
 10
265.5207876616765
 20
49.31055692749388
 30
0.0
 10
265.5343041970048
 20
49.25710835287708
 30
0.0
 10
265.5584528995814
 20
49.09814749475152
 30
0.0
 10
265.5533743361524
 20
48.99282136044881
 30
0.0
 10
265.512001270849
 20
48.8338295769133
 30
0.0
 10
265.4925432311986
 20
48.78066562307723
 30
0.0
 10
265.4413391711766
 20
48.67365211631172
 30
0.0
 10
265.4097420496107
 20
48.62027115685486
 30
0.0
 10
265.2984733891693
 20
48.46293702705621
 30
0.0
 10
265.2019989699317
 20
48.36060298628904
 30
0.0
 10
265.0212955779137
 20
48.2100073557517
 30
0.0
 10
264.9544403855902
 20
48.1599550594369
 30
0.0
 10
264.8116844044686
 20
48.06346840768533
 30
0.0
 10
264.6595996732855
 20
47.97019076219377
 30
0.0
 10
264.4892253515606
 20
47.8831572135509
 30
0.0
 10
264.3095947233106
 20
47.79933295385329
 30
0.0
 10
264.2145988178414
 20
47.75884598976958
 30
0.0
 10
263.9229810642341
 20
47.64545506840625
 30
0.0
 10
263.7180647474923
 20
47.57954310493935
 30
0.0
 10
263.3957185847598
 20
47.49557509262078
 30
0.0
 10
263.2860769972717
 20
47.47022036799523
 30
0.0
 10
263.0666788318705
 20
47.42569744894097
 30
0.0
 10
262.9563400607505
 20
47.40637228633554
 30
0.0
 10
262.6234324473039
 20
47.35722974701741
 30
0.0
 10
262.3969857487793
 20
47.33620198670137
 30
0.0
 10
261.9536642073274
 20
47.32011944627801
 30
0.0
 10
261.7356828759359
 20
47.32468467931645
 30
0.0
 10
261.4137453360108
 20
47.35134199192886
 30
0.0
 10
261.3070542099196
 20
47.36361636745332
 30
0.0
 10
261.0990876439793
 20
47.39454168464749
 30
0.0
 10
260.9973445008374
 20
47.41321469763361
 30
0.0
 10
260.6985937914491
 20
47.4788830757923
 30
0.0
 10
260.5080082790951
 20
47.53546540177372
 30
0.0
 10
260.14416851868
 20
47.67587348123612
 30
0.0
 10
259.9752146428211
 20
47.75812876944157
 30
0.0
 10
259.6645312498352
 20
47.94492074628683
 30
0.0
 10
259.5222644154446
 20
48.04971720891098
 30
0.0
 10
259.2658675107118
 20
48.28216324876588
 30
0.0
 10
259.1552609575293
 20
48.40656775155164
 30
0.0
 10
258.9684285203889
 20
48.67012647751971
 30
0.0
 10
258.8920140548406
 20
48.80970047774429
 30
0.0
 10
258.7773150505665
 20
49.10124163373269
 30
0.0
 10
258.7404157126668
 20
49.24936942594493
 30
0.0
 10
258.7161846165758
 20
49.4735061604019
 30
0.0
 10
258.7133308977499
 20
49.54854503507867
 30
0.0
 10
258.7186504211911
 20
49.69902384513627
 30
0.0
 10
258.7269123126335
 20
49.77490094371612
 30
0.0
 10
258.769088888207
 20
49.99948905233003
 30
0.0
 10
258.8196117055214
 20
50.14358810882768
 30
0.0
 10
258.9304101060802
 20
50.34939768303869
 30
0.0
 10
258.9732221695356
 20
50.41626953501829
 30
0.0
 10
259.0714635059238
 20
50.54609217806684
 30
0.0
 10
259.1271027497963
 20
50.60908839729734
 30
0.0
 10
259.3085507161644
 20
50.78592142456284
 30
0.0
 10
259.4500989445486
 20
50.88976169769688
 30
0.0
 10
259.6942145584752
 20
51.02346842394405
 30
0.0
 10
259.7813713164864
 20
51.06443876980209
 30
0.0
 10
259.9615538558402
 20
51.13666915031247
 30
0.0
 10
260.0550834694022
 20
51.16826220024803
 30
0.0
 10
260.2487901680468
 20
51.22283480752812
 30
0.0
 10
260.3489677992956
 20
51.24581341293473
 30
0.0
 10
260.5559670157259
 20
51.28336198130924
 30
0.0
 10
260.6622737541601
 20
51.29778368868631
 30
0.0
 10
260.9835082994862
 20
51.32827232882761
 30
0.0
 10
261.2029410188277
 20
51.33210913931893
 30
0.0
 10
261.6520657267087
 20
51.31087684637759
 30
0.0
 10
261.8771392443673
 20
51.28594119165661
 30
0.0
 10
262.1004174797572
 20
51.24931254976619
 30
0.0
  0
LINE
  5
216
330
1F
100
AcDbEntity
  8
0
  6
Continuous
 62
     7
370
    15
100
AcDbLine
 10
263.2473801029
 20
30.5424121972
 30
0.0
 11
263.3388693213
 21
30.4922881052
 31
0.0
  0
SPLINE
  5
217
330
1F
100
AcDbEntity
  8
0
  6
Continuous
 62
     7
370
    15
100
AcDbSpline
210
0.0
220
0.0
230
1.0
 70
     8
 71
     3
 72
    30
 73
    26
 74
     0
 42
0.000000001
 43
0.00000001
 40
0.0
 40
0.0
 40
0.0
 40
0.0
 40
0.0056429176837865
 40
0.081743280478189
 40
0.1204964474608125
 40
0.1585233679407609
 40
0.1968357785685011
 40
0.2360821109660531
 40
0.2756663328578854
 40
0.3115081862682206
 40
0.3845190985086196
 40
0.4217883369718003
 40
0.4561686279472176
 40
0.526046850106196
 40
0.5616085084768595
 40
0.5970760116753391
 40
0.6690904840103713
 40
0.7056996199087625
 40
0.7433807606127075
 40
0.8199902180539893
 40
0.8590192542302626
 40
0.8968842667723715
 40
0.9350393112626946
 40
0.9741487448562508
 40
1.0
 40
1.0
 40
1.0
 40
1.0
 10
268.2485500019075
 20
42.82385636875989
 30
0.0
 10
268.2561264170269
 20
42.81507153559487
 30
0.0
 10
268.3658783327605
 20
42.68781448142497
 30
0.0
 10
268.5088024915304
 20
42.48827816016146
 30
0.0
 10
268.6681350319274
 20
42.23007353946965
 30
0.0
 10
268.7726818642118
 20
42.03173062860743
 30
0.0
 10
268.861652727656
 20
41.83022728433201
 30
0.0
 10
268.9337967393867
 20
41.62468518748165
 30
0.0
 10
268.985380665564
 20
41.42358382910714
 30
0.0
 10
269.0274720674505
 20
41.16551004600039
 30
0.0
 10
269.0327809824136
 20
40.91657333012987
 30
0.0
 10
269.0015048537589
 20
40.68212077082625
 30
0.0
 10
268.948341914028
 20
40.46181856736064
 30
0.0
 10
268.8641019370594
 20
40.25920981325689
 30
0.0
 10
268.7504833446814
 20
40.07543246548476
 30
0.0
 10
268.6168971895943
 20
39.90380892109216
 30
0.0
 10
268.4564669976675
 20
39.75538149266126
 30
0.0
 10
268.2728083272108
 20
39.63374033471933
 30
0.0
 10
268.0705357020512
 20
39.52966992721004
 30
0.0
 10
267.8476089000562
 20
39.45907413186897
 30
0.0
 10
267.6146128576937
 20
39.42779150436381
 30
0.0
 10
267.4366290496474
 20
39.42435133998393
 30
0.0
 10
267.2572612814371
 20
39.44239854388606
 30
0.0
 10
267.0965400939123
 20
39.47480578037183
 30
0.0
 10
266.9973499873024
 20
39.51109249378192
 30
0.0
 10
266.9578770567724
 20
39.52553287464804
 30
0.0
  0
SPLINE
  5
218
330
1F
100
AcDbEntity
  8
0
  6
Continuous
 62
     7
370
    15
100
AcDbSpline
210
0.0
220
0.0
230
1.0
 70
     8
 71
     3
 72
    10
 73
     6
 74
     0
 42
0.000000001
 43
0.00000001
 40
0.0
 40
0.0
 40
0.0
 40
0.0
 40
0.5
 40
0.5
 40
1.0
 40
1.0
 40
1.0
 40
1.0
 10
242.8432528531521
 20
42.01195748669966
 30
0.0
 10
242.7867241673696
 20
41.97932417101703
 30
0.0
 10
242.7080808447949
 20
41.95895119555806
 30
0.0
 10
242.5478509304637
 20
41.95588979559671
 30
0.0
 10
242.4666839179231
 20
41.97354899547695
 30
0.0
 10
242.4095700175852
 20
42.00652014833127
 30
0.0
  0
SPLINE
  5
219
330
1F
100
AcDbEntity
  8
0
  6
Continuous
 62
     7
370
    15
100
AcDbSpline
210
0.0
220
0.0
230
1.0
 70
     8
 71
     3
 72
    12
 73
     8
 74
     0
 42
0.000000001
 43
0.00000001
 40
0.0
 40
0.0
 40
0.0
 40
0.0
 40
0.2500000000000033
 40
0.2500000000000033
 40
0.5000000000000067
 40
0.5000000000000067
 40
1.0
 40
1.0
 40
1.0
 40
1.0
 10
260.10029192393
 20
58.53048202658638
 30
0.0
 10
260.1321962522748
 20
58.51206404987061
 30
0.0
 10
260.1643335887156
 20
58.48214950923855
 30
0.0
 10
260.2189918951418
 20
58.41175208929565
 30
0.0
 10
260.2419652344722
 20
58.37137139261981
 30
0.0
 10
260.2956470234099
 20
58.24884756258444
 30
0.0
 10
260.312423958286
 20
58.16404624097876
 30
0.0
 10
260.312423958286
 20
58.09049364534515
 30
0.0
  0
LINE
  5
21A
330
1F
100
AcDbEntity
  8
0
  6
Continuous
 62
     7
370
    15
100
AcDbLine
 10
242.4095700176
 20
42.0065201483
 30
0.0
 11
241.01018195
 21
42.8143696842
 31
0.0
  0
LWPOLYLINE
  5
21B
330
1F
100
AcDbEntity
  8
0
  6
Continuous
 62
     7
370
    15
100
AcDbPolyline
 90
       25
 70
   128
 43
0.0
 10
241.01018195
 20
42.8143696842
 10
241.3057976202
 20
43.9795540477
 10
241.6707819553
 20
45.153572999
 10
242.1026951074
 20
46.3285784543
 10
242.5986498228
 20
47.496715735
 10
243.1553307425
 20
48.6501760751
 10
243.7690165649
 20
49.7812488208
 10
244.435604922
 20
50.8823729752
 10
245.1506398028
 20
51.9461877417
 10
245.909341341
 20
52.9655817294
 10
246.706637767
 20
53.9337404917
 10
247.5371993126
 20
54.8441920792
 10
248.3954738383
 20
55.6908503035
 10
249.2757239492
 20
56.4680554224
 10
250.1720653478
 20
57.1706119738
 10
251.0785061696
 20
57.7938235062
 10
251.9889870374
 20
58.3335239744
 10
252.8974215673
 20
58.7861055876
 10
253.7977370544
 20
59.1485429274
 10
254.6839150682
 20
59.4184131723
 10
255.5500316845
 20
59.5939122929
 10
256.3902970854
 20
59.6738671127
 10
257.1990942633
 20
59.6577431493
 10
257.9710165695
 20
59.5456481884
 10
258.7009038563
 20
59.3383315625
  0
LINE
  5
21C
330
1F
100
AcDbEntity
  8
0
  6
Continuous
 62
     7
370
    15
100
AcDbLine
 10
258.7009038563
 20
59.3383315625
 30
0.0
 11
260.1002919239
 21
58.5304820266
 31
0.0
  0
LINE
  5
21D
330
1F
100
AcDbEntity
  8
0
  6
Continuous
 62
     7
370
    15
100
AcDbLine
 10
260.3124239583
 20
58.0904936453
 30
0.0
 11
260.3124239583
 21
56.5264292105
 31
0.0
  0
LINE
  5
21E
330
1F
100
AcDbEntity
  8
0
  6
Continuous
 62
     7
370
    15
100
AcDbLine
 10
261.6668701195
 20
57.308334336
 30
0.0
 11
260.3124239583
 21
56.5264292105
 31
0.0
  0
LINE
  5
21F
330
1F
100
AcDbEntity
  8
0
  6
Continuous
 62
     7
370
    15
100
AcDbLine
 10
262.9665182186
 20
53.2206009032
 30
0.0
 11
263.8466993286
 21
53.7287186425
 31
0.0
  0
LINE
  5
220
330
1F
100
AcDbEntity
  8
0
  6
Continuous
 62
     7
370
    15
100
AcDbLine
 10
243.9202225254
 20
42.6336788448
 30
0.0
 11
242.8432528532
 21
42.0119574867
 31
0.0
  0
SPLINE
  5
221
330
1F
100
AcDbEntity
  8
0
  6
Continuous
 62
     7
370
    15
100
AcDbSpline
210
0.0
220
0.0
230
1.0
 70
     8
 71
     3
 72
    17
 73
    13
 74
     0
 42
0.000000001
 43
0.00000001
 40
0.0
 40
0.0
 40
0.0
 40
0.0
 40
0.25
 40
0.25
 40
0.375
 40
0.375
 40
0.5
 40
0.625
 40
0.625
 40
0.75
 40
0.75
 40
1.0
 40
1.0
 40
1.0
 40
1.0
 10
243.9612680107627
 20
35.30771182004091
 30
0.0
 10
243.967451903179
 20
35.91810529158186
 30
0.0
 10
244.0125515732325
 20
36.50386664553998
 30
0.0
 10
244.0719796049723
 20
37.38783285700482
 30
0.0
 10
244.0905347765215
 20
37.68321203493502
 30
0.0
 10
244.1166165629697
 20
38.28033489378338
 30
0.0
 10
244.1314286537497
 20
38.88396141526221
 30
0.0
 10
244.1166137394731
 20
39.50468547435972
 30
0.0
 10
244.0905304137285
 20
40.13191245498474
 30
0.0
 10
244.0719751026438
 20
40.44870783315767
 30
0.0
 10
244.0125480907623
 20
41.40126445987401
 30
0.0
 10
243.9674516052287
 20
42.03907563905017
 30
0.0
 10
243.9612680107627
 20
42.65657912701266
 30
0.0
  0
SPLINE
  5
222
330
1F
100
AcDbEntity
  8
0
  6
Continuous
 62
     7
370
    15
100
AcDbSpline
210
0.0
220
0.0
230
1.0
 70
     8
 71
     3
 72
     8
 73
     4
 74
     0
 42
0.000000001
 43
0.00000001
 40
0.0
 40
0.0
 40
0.0
 40
0.0
 40
0.0001141637707875
 40
0.0001141637707875
 40
0.0001141637707875
 40
0.0001141637707875
 10
243.9612680107627
 20
42.65657912701266
 30
0.0
 10
243.9473627472825
 20
42.64908145947469
 30
0.0
 10
243.9336768547981
 20
42.64144586381299
 30
0.0
 10
243.9202225253831
 20
42.6336788447674
 30
0.0
  0
SPLINE
  5
223
330
1F
100
AcDbEntity
  8
0
  6
Continuous
 62
     7
370
    15
100
AcDbSpline
210
0.0
220
0.0
230
1.0
 70
     8
 71
     3
 72
     8
 73
     4
 74
     0
 42
0.000000001
 43
0.00000001
 40
0.0
 40
0.0
 40
0.0
 40
0.0
 40
0.0001141637707875
 40
0.0001141637707875
 40
0.0001141637707875
 40
0.0001141637707875
 10
243.9202225253831
 20
35.28481153779565
 30
0.0
 10
243.9336768547981
 20
35.29257855684124
 30
0.0
 10
243.9473627472825
 20
35.30021415250294
 30
0.0
 10
243.9612680107627
 20
35.30771182004091
 30
0.0
  0
LWPOLYLINE
  5
224
330
1F
100
AcDbEntity
  8
0
  6
Continuous
 62
     7
370
    15
100
AcDbPolyline
 90
       22
 70
   128
 43
0.0
 10
240.0863991622
 20
44.4453517182
 10
240.4013197336
 20
45.5932438268
 10
240.7880776537
 20
46.7471691103
 10
241.2437194235
 20
47.898315552
 10
241.7647655084
 20
49.0378923558
 10
242.3472369099
 20
50.1571970779
 10
242.9866855516
 20
51.2476820833
 10
243.6782282473
 20
52.3010198205
 10
244.4165839914
 20
53.3091664153
 10
245.1961142876
 20
54.2644230982
 10
246.0108662081
 20
55.1594949966
 10
246.8546178529
 20
55.9875468425
 10
247.720925864
 20
56.7422551701
 10
248.6031746304
 20
57.417856606
 10
249.4946268087
 20
58.009191881
 10
250.388474773
 20
58.5117452291
 10
251.2778926019
 20
58.9216788728
 10
252.156088205
 20
59.2358623303
 10
253.0163551909
 20
59.4518963214
 10
253.8521240814
 20
59.5681310902
 10
254.6570124792
 20
59.5836790033
 10
255.20146521
 20
59.5341832244
  0
SPLINE
  5
225
330
1F
100
AcDbEntity
  8
0
  6
Continuous
 62
     7
370
    15
100
AcDbSpline
210
0.0
220
0.0
230
1.0
 70
     8
 71
     3
 72
     8
 73
     4
 74
     0
 42
0.000000001
 43
0.00000001
 40
0.0
 40
0.0
 40
0.0
 40
0.0
 40
1.0
 40
1.0
 40
1.0
 40
1.0
 10
240.0863991621942
 20
44.44535171817793
 30
0.0
 10
239.5950981331417
 20
44.36270449797404
 30
0.0
 10
239.103518042239
 20
44.2806207104836
 30
0.0
 10
238.6117232434871
 20
44.19897042340186
 30
0.0
  0
LWPOLYLINE
  5
226
330
1F
100
AcDbEntity
  8
0
  6
Continuous
 62
     7
370
    15
100
AcDbPolyline
 90
       25
 70
   128
 43
0.0
 10
238.6117232435
 20
44.1989704234
 10
238.9073389137
 20
45.3641547869
 10
239.2723232488
 20
46.5381737382
 10
239.704236401
 20
47.7131791935
 10
240.2001911163
 20
48.8813164742
 10
240.756872036
 20
50.0347768142
 10
241.3705578584
 20
51.16584956
 10
242.0371462156
 20
52.2669737144
 10
242.7521810964
 20
53.3307884809
 10
243.5108826345
 20
54.3501824686
 10
244.3081790606
 20
55.3183412309
 10
245.1387406061
 20
56.2287928184
 10
245.9970151318
 20
57.0754510427
 10
246.8772652427
 20
57.8526561616
 10
247.7736066413
 20
58.5552127129
 10
248.6800474631
 20
59.1784242454
 10
249.590528331
 20
59.7181247136
 10
250.4989628608
 20
60.1707063268
 10
251.3992783479
 20
60.5331436666
 10
252.2854563617
 20
60.8030139114
 10
253.151572978
 20
60.9785130321
 10
253.9918383789
 20
61.0584678518
 10
254.8006355568
 20
61.0423438885
 10
255.572557863
 20
60.9302489276
 10
256.3024451498
 20
60.7229323017
  0
LINE
  5
227
330
1F
100
AcDbEntity
  8
0
  6
Continuous
 62
     7
370
    15
100
AcDbLine
 10
256.3024451498
 20
60.7229323017
 30
0.0
 11
256.6368339939
 21
59.6425662607
 31
0.0
  0
LINE
  5
228
330
1F
100
AcDbEntity
  8
0
  6
Continuous
 62
     7
370
    15
100
AcDbLine
 10
252.8878027558
 20
62.6941633969
 30
0.0
 11
256.3024451498
 21
60.7229323017
 31
0.0
  0
LINE
  5
229
330
1F
100
AcDbEntity
  8
0
  6
Continuous
 62
     7
370
    15
100
AcDbLine
 10
238.6117232435
 20
44.1989704234
 30
0.0
 11
238.0255079742
 21
44.537385295
 31
0.0
  0
SPLINE
  5
22A
330
1F
100
AcDbEntity
  8
0
  6
Continuous
 62
     7
370
    15
100
AcDbSpline
210
0.0
220
0.0
230
1.0
 70
     8
 71
     3
 72
    28
 73
    24
 74
     0
 42
0.000000001
 43
0.00000001
 40
0.0
 40
0.0
 40
0.0
 40
0.0
 40
0.1250000000000001
 40
0.1250000000000001
 40
0.1875000000000001
 40
0.1875000000000001
 40
0.2500000000000001
 40
0.2500000000000001
 40
0.3749999999999999
 40
0.3749999999999999
 40
0.4375
 40
0.4375
 40
0.4999999999999999
 40
0.4999999999999999
 40
0.6249999999999999
 40
0.6249999999999999
 40
0.7499999999999997
 40
0.7499999999999997
 40
0.8124999999999998
 40
0.8124999999999998
 40
0.8749999999999998
 40
0.8749999999999998
 40
1.0
 40
1.0
 40
1.0
 40
1.0
 10
238.0255079742286
 20
44.53738529498167
 30
0.0
 10
237.8375208937622
 20
44.64590792656575
 30
0.0
 10
237.6473009391616
 20
44.72785164711365
 30
0.0
 10
237.3592023372136
 20
44.81300937715211
 30
0.0
 10
237.262712466614
 20
44.83505930755592
 30
0.0
 10
237.0689742937791
 20
44.86633313101488
 30
0.0
 10
236.9717232732477
 20
44.87546038233831
 30
0.0
 10
236.6857013983624
 20
44.88324322444672
 30
0.0
 10
236.5003595820058
 20
44.86293668080965
 30
0.0
 10
236.23184699519
 20
44.79571602767651
 30
0.0
 10
236.1434863355242
 20
44.76692967007092
 30
0.0
 10
235.9731336252345
 20
44.69791777997576
 30
0.0
 10
235.8911065954531
 20
44.65777789006564
 30
0.0
 10
235.6546703417005
 20
44.52115812230242
 30
0.0
 10
235.5098030915781
 20
44.40864363261335
 30
0.0
 10
235.248946298094
 20
44.14038666761388
 30
0.0
 10
235.1366538905917
 20
43.9882332812366
 30
0.0
 10
234.9974294091379
 20
43.73631689353829
 30
0.0
 10
234.9558336227721
 20
43.64827460786192
 30
0.0
 10
234.8827089077108
 20
43.4639335528101
 30
0.0
 10
234.8510844236579
 20
43.36714479012832
 30
0.0
 10
234.7735911202357
 20
43.0691297112315
 30
0.0
 10
234.7444164048459
 20
42.85965683409498
 30
0.0
 10
234.7384495221041
 20
42.63927604141112
 30
0.0
  0
ARC
  5
22B
330
1F
100
AcDbEntity
  8
0
  6
Continuous
 62
     7
370
    15
100
AcDbCircle
 10
249.5818159844
 20
42.2310056355
 30
0.0
 40
14.84898018918689
100
AcDbArc
 50
178.4244628824
 51
181.5755371176
  0
SPLINE
  5
22C
330
1F
100
AcDbEntity
  8
0
  6
Continuous
 62
     7
370
    15
100
AcDbSpline
210
0.0
220
0.0
230
1.0
 70
     8
 71
     3
 72
    30
 73
    26
 74
     0
 42
0.000000001
 43
0.00000001
 40
0.0
 40
0.0
 40
0.0
 40
0.0
 40
0.125
 40
0.125
 40
0.1874999999999999
 40
0.1874999999999999
 40
0.2499999999999999
 40
0.2499999999999999
 40
0.3749999999999999
 40
0.3749999999999999
 40
0.4374999999999999
 40
0.4374999999999999
 40
0.4999999999999998
 40
0.4999999999999998
 40
0.6249999999999997
 40
0.6249999999999997
 40
0.6874999999999997
 40
0.6874999999999997
 40
0.7499999999999997
 40
0.7499999999999997
 40
0.8124999999999996
 40
0.8124999999999996
 40
0.8749999999999996
 40
0.8749999999999996
 40
1.0
 40
1.0
 40
1.0
 40
1.0
 10
234.7384495221041
 20
41.82273522952536
 30
0.0
 10
234.7444171207956
 20
41.60921803675065
 30
0.0
 10
234.7735623407951
 20
41.39166813873152
 30
0.0
 10
234.8499970020539
 20
41.05936910919593
 30
0.0
 10
234.8809629856313
 20
40.94759480789636
 30
0.0
 10
234.9539329264469
 20
40.72189293436136
 30
0.0
 10
234.9960691250055
 20
40.60780516178885
 30
0.0
 10
235.1359609143699
 20
40.26964243442766
 30
0.0
 10
235.2478048389122
 20
40.04713221515489
 30
0.0
 10
235.4415914360567
 20
39.71652195920532
 30
0.0
 10
235.51093207366
 20
39.60629531949917
 30
0.0
 10
235.6564244581067
 20
39.38956531904562
 30
0.0
 10
235.7323117488258
 20
39.28336838341491
 30
0.0
 10
235.9686996972972
 20
38.9707302101653
 30
0.0
 10
236.1378451995481
 20
38.77018766233014
 30
0.0
 10
236.4077111968821
 20
38.4800828229078
 30
0.0
 10
236.499902702933
 20
38.38573940653535
 30
0.0
 10
236.6855012979677
 20
38.20443437847496
 30
0.0
 10
236.7793301782545
 20
38.1170150449808
 30
0.0
 10
236.9687802287199
 20
37.94840749465615
 30
0.0
 10
237.0644016439255
 20
37.86721930888681
 30
0.0
 10
237.2572633333519
 20
37.71105662933866
 30
0.0
 10
237.3549982422503
 20
37.63572964964196
 30
0.0
 10
237.6462541973707
 20
37.42243941619812
 30
0.0
 10
237.8375115883439
 20
37.29704599149769
 30
0.0
 10
238.0255079742286
 20
37.18851798800993
 30
0.0
  0
LINE
  5
22D
330
1F
100
AcDbEntity
  8
0
  6
Continuous
 62
     7
370
    15
100
AcDbLine
 10
238.0255079742
 20
37.188517988
 30
0.0
 11
238.6117232435
 21
36.8501031164
 31
0.0
  0
ARC
  5
22E
330
1F
100
AcDbEntity
  8
0
  6
Continuous
 62
     7
370
    15
100
AcDbCircle
 10
244.4264569311
 20
38.2352578683
 30
0.0
 40
5.977439380251569
100
AcDbArc
 50
193.398972344
 51
253.2231990126
  0
LINE
  5
22F
330
1F
100
AcDbEntity
  8
0
  6
Continuous
 62
     7
370
    15
100
AcDbLine
 10
257.9318630062
 20
59.7819836086
 30
0.0
 11
258.2661754099
 21
59.4746554985
 31
0.0
  0
LINE
  5
230
330
1F
100
AcDbEntity
  8
0
  6
Continuous
 62
     7
370
    15
100
AcDbLine
 10
257.0789342523
 20
60.2743688975
 30
0.0
 11
257.9318630062
 21
59.7819836086
 31
0.0
  0
SPLINE
  5
231
330
1F
100
AcDbEntity
  8
0
  6
Continuous
 62
     7
370
    15
100
AcDbSpline
210
0.0
220
0.0
230
1.0
 70
     8
 71
     3
 72
    20
 73
    16
 74
     0
 42
0.000000001
 43
0.00000001
 40
0.0
 40
0.0
 40
0.0
 40
0.0
 40
0.2499999999999997
 40
0.2499999999999997
 40
0.3749999999999997
 40
0.3749999999999997
 40
0.4999999999999998
 40
0.4999999999999998
 40
0.6249999999999998
 40
0.6249999999999998
 40
0.7499999999999999
 40
0.7499999999999999
 40
0.8749999999999999
 40
0.8749999999999999
 40
1.0
 40
1.0
 40
1.0
 40
1.0
 10
252.8878027558272
 20
62.69416339688211
 30
0.0
 10
253.2067914102252
 20
62.56027300762232
 30
0.0
 10
253.5332470103232
 20
62.40037666056032
 30
0.0
 10
254.0455971277063
 20
62.12245773309081
 30
0.0
 10
254.2202004943842
 20
62.02345872028052
 30
0.0
 10
254.580074356733
 20
61.81251801538182
 30
0.0
 10
254.7629347730865
 20
61.70196219817178
 30
0.0
 10
255.1292298622637
 20
61.47654432916094
 30
0.0
 10
255.3137133785224
 20
61.36106372778148
 30
0.0
 10
255.6872982027579
 20
61.12623138348571
 30
0.0
 10
255.8716476739971
 20
61.00990145821045
 30
0.0
 10
256.2323575804736
 20
60.78420677141107
 30
0.0
 10
256.4094115697274
 20
60.67439679731438
 30
0.0
 10
256.7571409210798
 20
60.46300203377847
 30
0.0
 10
256.922391337538
 20
60.36473919863546
 30
0.0
 10
257.0789342523195
 20
60.27436889751809
 30
0.0
  0
LWPOLYLINE
  5
232
330
1F
100
AcDbEntity
  8
0
  6
Continuous
 62
     7
370
    15
100
AcDbPolyline
 90
       10
 70
   128
 43
0.0
 10
245.1110485559
 20
62.9369485554
 10
245.8106953348
 20
63.2506422078
 10
246.7039451527
 20
63.5747658478
 10
247.5807029553
 20
63.8059300113
 10
248.4351340642
 20
63.9425963389
 10
249.2615523812
 20
63.9838553387
 10
250.054458229
 20
63.9294324388
 10
250.8085749497
 20
63.7796898147
 10
251.5188840212
 20
63.5356239789
 10
252.1001047058
 20
63.2463229972
  0
LWPOLYLINE
  5
233
330
1F
100
AcDbEntity
  8
0
  6
Continuous
 62
     7
370
    15
100
AcDbPolyline
 90
       10
 70
   128
 43
0.0
 10
236.3513846668
 20
35.9657838322
 10
235.959533876
 20
36.2157155869
 10
235.3787098903
 20
36.6871380056
 10
234.8567614615
 20
37.2445336749
 10
234.3971620703
 20
37.8841932186
 10
234.0029702748
 20
38.6018598078
 10
233.6768093564
 20
39.39275749
 10
233.4208498622
 20
40.2516229715
 10
233.2367951603
 20
41.1727406442
 10
233.16745013
 20
41.6966493574
  0
LINE
  5
234
330
1F
100
AcDbEntity
  8
0
  6
Continuous
 62
     7
370
    15
100
AcDbLine
 10
241.221013717
 20
43.6710929498
 30
0.0
 11
240.7573859246
 21
43.9387395774
 31
0.0
  0
LINE
  5
235
330
1F
100
AcDbEntity
  8
0
  6
Continuous
 62
     7
370
    15
100
AcDbLine
 10
240.3315677666
 20
44.5868845409
 30
0.0
 11
240.0863991622
 21
44.4453517182
 31
0.0
  0
SPLINE
  5
236
330
1F
100
AcDbEntity
  8
0
  6
Continuous
 62
     7
370
    15
100
AcDbSpline
210
0.0
220
0.0
230
1.0
 70
     8
 71
     3
 72
    14
 73
    10
 74
     0
 42
0.000000001
 43
0.00000001
 40
0.0
 40
0.0
 40
0.0
 40
0.0
 40
0.1249999999999991
 40
0.1249999999999991
 40
0.2499999999999982
 40
0.2499999999999982
 40
0.4999999999999998
 40
0.4999999999999998
 40
1.0
 40
1.0
 40
1.0
 40
1.0
 10
240.757385924572
 20
43.93873957735595
 30
0.0
 10
240.7331894914068
 20
43.9527078808985
 30
0.0
 10
240.7100140529479
 20
43.98007305689605
 30
0.0
 10
240.673093660517
 20
44.03787482602157
 30
0.0
 10
240.6580518694844
 20
44.06884530513793
 30
0.0
 10
240.6182384128975
 20
44.16187177806714
 30
0.0
 10
240.5986023945134
 20
44.2244828323519
 30
0.0
 10
240.5481815460439
 20
44.40881358326689
 30
0.0
 10
240.5257643678034
 20
44.53035781816757
 30
0.0
 10
240.5090764696374
 20
44.64948688346994
 30
0.0
  0
SPLINE
  5
237
330
1F
100
AcDbEntity
  8
0
  6
Continuous
 62
     7
370
    15
100
AcDbSpline
210
0.0
220
0.0
230
1.0
 70
     8
 71
     3
 72
    10
 73
     6
 74
     0
 42
0.000000001
 43
0.00000001
 40
0.0
 40
0.0
 40
0.0
 40
0.0
 40
0.5
 40
0.5
 40
1.0
 40
1.0
 40
1.0
 40
1.0
 10
240.5090764696374
 20
44.64948688346995
 30
0.0
 10
240.4756864514497
 20
44.64333711426971
 30
0.0
 10
240.4434471000216
 20
44.63479050642164
 30
0.0
 10
240.3834592057593
 20
44.61355453265274
 30
0.0
 10
240.3561973325103
 20
44.60110288664456
 30
0.0
 10
240.3315677665604
 20
44.58688454086771
 30
0.0
  0
ARC
  5
238
330
1F
100
AcDbEntity
  8
0
  6
Continuous
 62
     7
370
    15
100
AcDbCircle
 10
257.7376090832
 20
41.7783763724
 30
0.0
 40
24.77530513150725
100
AcDbArc
 50
126.5347340332
 51
171.5973898081
  0
SPLINE
  5
239
330
1F
100
AcDbEntity
  8
0
  6
Continuous
 62
     7
370
    15
100
AcDbSpline
210
0.0
220
0.0
230
1.0
 70
     8
 71
     3
 72
    14
 73
    10
 74
     0
 42
0.000000001
 43
0.00000001
 40
0.0
 40
0.0
 40
0.0
 40
0.0
 40
0.1249999999999993
 40
0.1249999999999993
 40
0.2499999999999987
 40
0.2499999999999987
 40
0.4999999999999973
 40
0.4999999999999973
 40
1.0
 40
1.0
 40
1.0
 40
1.0
 10
241.5422744516891
 20
37.27156838629403
 30
0.0
 10
241.5665030296417
 20
37.25758152596062
 30
0.0
 10
241.5895888710076
 20
37.23028275614389
 30
0.0
 10
241.6263312450708
 20
37.17284354783647
 30
0.0
 10
241.6414895447545
 20
37.14169307283408
 30
0.0
 10
241.6810524716422
 20
37.04939353262832
 30
0.0
 10
241.7006623448851
 20
36.98715575187278
 30
0.0
 10
241.75148519384
 20
36.80169998567622
 30
0.0
 10
241.7739168779641
 20
36.67980116537851
 30
0.0
 10
241.7905839066236
 20
36.56082108017993
 30
0.0
  0
LINE
  5
23A
330
1F
100
AcDbEntity
  8
0
  6
Continuous
 62
     7
370
    15
100
AcDbLine
 10
240.7573859246
 20
37.7246748884
 30
0.0
 11
241.5422744517
 21
37.2715683863
 31
0.0
  0
SPLINE
  5
23B
330
1F
100
AcDbEntity
  8
0
  6
Continuous
 62
     7
370
    15
100
AcDbSpline
210
0.0
220
0.0
230
1.0
 70
     8
 71
     3
 72
    14
 73
    10
 74
     0
 42
0.000000001
 43
0.00000001
 40
0.0
 40
0.0
 40
0.0
 40
0.0
 40
0.4999999999999972
 40
0.4999999999999972
 40
0.7499999999999973
 40
0.7499999999999973
 40
0.8749999999999987
 40
0.8749999999999987
 40
1.0
 40
1.0
 40
1.0
 40
1.0
 10
240.5090764696374
 20
37.30061957649794
 30
0.0
 10
240.5257005510912
 20
37.40009932072806
 30
0.0
 10
240.5481179526955
 20
37.49593445412407
 30
0.0
 10
240.5985490105442
 20
37.62215040369771
 30
0.0
 10
240.6180837044754
 20
37.66198395239195
 30
0.0
 10
240.6580268618108
 20
37.70924428386381
 30
0.0
 10
240.6730438289765
 20
37.72284689746907
 30
0.0
 10
240.7101051964981
 20
37.73806729904477
 30
0.0
 10
240.7330888588466
 20
37.73870128583865
 30
0.0
 10
240.757385924572
 20
37.72467488835561
 30
0.0
  0
LINE
  5
23C
330
1F
100
AcDbEntity
  8
0
  6
Continuous
 62
     7
370
    15
100
AcDbLine
 10
239.3643855656
 20
37.9614355695
 30
0.0
 11
240.5090764696
 21
37.3006195765
 31
0.0
  0
ARC
  5
23D
330
1F
100
AcDbEntity
  8
0
  6
Continuous
 62
     7
370
    15
100
AcDbCircle
 10
242.6508503555
 20
43.1248632251
 30
0.0
 40
6.120607483709632
100
AcDbArc
 50
182.476303705
 51
237.5236964406
  0
LINE
  5
23E
330
1F
100
AcDbEntity
  8
0
  6
Continuous
 62
     7
370
    15
100
AcDbLine
 10
236.5359584409
 20
43.6769558526
 30
0.0
 11
236.5359584409
 21
42.8604150407
 31
0.0
  0
ARC
  5
23F
330
1F
100
AcDbEntity
  8
0
  6
Continuous
 62
     7
370
    15
100
AcDbCircle
 10
239.1132554106
 20
43.7628882126
 30
0.0
 40
2.578729152201368
100
AcDbArc
 50
153.7742255401
 51
181.9096512077
  0
LINE
  5
240
330
1F
100
AcDbEntity
  8
0
  6
Continuous
 62
     7
370
    15
100
AcDbLine
 10
241.7905839066
 20
36.5608210802
 30
0.0
 11
243.9612680108
 21
35.30771182
 31
0.0
  0
ARC
  5
241
330
1F
100
AcDbEntity
  8
0
  6
Continuous
 62
     7
370
    15
100
AcDbCircle
 10
247.944688456
 20
35.5921970228
 30
0.0
 40
5.467977518465887
100
AcDbArc
 50
215.3400048113
 51
265.4101185383
  0
SPLINE
  5
242
330
1F
100
AcDbEntity
  8
0
  6
Continuous
 62
     7
370
    15
100
AcDbSpline
210
0.0
220
0.0
230
1.0
 70
     8
 71
     3
 72
    12
 73
     8
 74
     0
 42
0.000000001
 43
0.00000001
 40
0.0
 40
0.0
 40
0.0
 40
0.0
 40
0.2500000000000001
 40
0.2500000000000001
 40
0.5000000000000002
 40
0.5000000000000002
 40
1.0
 40
1.0
 40
1.0
 40
1.0
 10
242.4095700175852
 20
34.65765284135952
 30
0.0
 10
242.4378122176576
 20
34.6413489662955
 30
0.0
 10
242.472358349563
 20
34.6283931728855
 30
0.0
 10
242.5470824092606
 20
34.61168143469295
 30
0.0
 10
242.5873728005623
 20
34.6077945259055
 30
0.0
 10
242.7084858179986
 20
34.61005792379481
 30
0.0
 10
242.7866033804166
 20
34.63038713522155
 30
0.0
 10
242.8432528531521
 20
34.6630901797279
 30
0.0
  0
ARC
  5
243
330
1F
100
AcDbEntity
  8
0
  6
Continuous
 62
     7
370
    15
100
AcDbCircle
 10
247.1813931707
 20
37.0730630698
 30
0.0
 40
6.377154483898454
100
AcDbArc
 50
194.6007005451
 51
238.0687621633
  0
LINE
  5
244
330
1F
100
AcDbEntity
  8
0
  6
Continuous
 62
     7
370
    15
100
AcDbLine
 10
241.01018195
 20
35.4655023772
 30
0.0
 11
242.4095700176
 21
34.6576528414
 31
0.0
  0
LINE
  5
245
330
1F
100
AcDbEntity
  8
0
  6
Continuous
 62
     7
370
    15
100
AcDbLine
 10
242.8432528532
 20
34.6630901797
 30
0.0
 11
243.9202225254
 21
35.2848115378
 31
0.0
  0
SPLINE
  5
246
330
1F
100
AcDbEntity
  8
0
  6
Continuous
 62
     7
370
    15
100
AcDbSpline
210
0.0
220
0.0
230
1.0
 70
     8
 71
     3
 72
     8
 73
     4
 74
     0
 42
0.000000001
 43
0.00000001
 40
0.0
 40
0.0
 40
0.0
 40
0.0
 40
1.0
 40
1.0
 40
1.0
 40
1.0
 10
241.4369731142605
 20
36.3168146644155
 30
0.0
 10
241.29380841757
 20
36.03319261740849
 30
0.0
 10
241.1516197207174
 20
35.74940947142447
 30
0.0
 10
241.0101819499622
 20
35.4655023772374
 30
0.0
  0
LINE
  5
247
330
1F
100
AcDbEntity
  8
0
  6
Continuous
 62
     7
370
    15
100
AcDbLine
 10
241.6821417186
 20
36.4583474871
 30
0.0
 11
241.4369731143
 21
36.3168146644
 31
0.0
  0
SPLINE
  5
248
330
1F
100
AcDbEntity
  8
0
  6
Continuous
 62
     7
370
    15
100
AcDbSpline
210
0.0
220
0.0
230
1.0
 70
     8
 71
     3
 72
    10
 73
     6
 74
     0
 42
0.000000001
 43
0.00000001
 40
0.0
 40
0.0
 40
0.0
 40
0.0
 40
0.5
 40
0.5
 40
1.0
 40
1.0
 40
1.0
 40
1.0
 10
241.7905839066237
 20
36.56082108018002
 30
0.0
 10
241.7799310396537
 20
36.54154543297387
 30
0.0
 10
241.7651262765015
 20
36.52293405154879
 30
0.0
 10
241.7283405051706
 20
36.48830377731721
 30
0.0
 10
241.7067712845765
 20
36.47256583288209
 30
0.0
 10
241.6821417186266
 20
36.45834748710522
 30
0.0
  0
SPLINE
  5
249
330
1F
100
AcDbEntity
  8
0
  6
Continuous
 62
     7
370
    15
100
AcDbSpline
210
0.0
220
0.0
230
1.0
 70
     8
 71
     3
 72
    14
 73
    10
 74
     0
 42
0.000000001
 43
0.00000001
 40
0.0
 40
0.0
 40
0.0
 40
0.0
 40
0.4999999999999999
 40
0.4999999999999999
 40
0.7499999999999998
 40
0.7499999999999998
 40
0.8749999999999999
 40
0.8749999999999999
 40
1.0
 40
1.0
 40
1.0
 40
1.0
 10
225.8692746499448
 20
47.95588042731669
 30
0.0
 10
226.1844405937847
 20
47.72879243642084
 30
0.0
 10
226.5007162490507
 20
47.4989460613727
 30
0.0
 10
226.9795407376217
 20
47.14363745938358
 30
0.0
 10
227.1398607480458
 20
47.02349914518804
 30
0.0
 10
227.3829132839995
 20
46.83723031094422
 30
0.0
 10
227.464356722016
 20
46.77413706971721
 30
0.0
 10
227.6290181710494
 20
46.64379182730507
 30
0.0
 10
227.7119241891157
 20
46.57726738532782
 30
0.0
 10
227.7979430172004
 20
46.50347391400427
 30
0.0
  0
SPLINE
  5
24A
330
1F
100
AcDbEntity
  8
0
  6
Continuous
 62
     7
370
    15
100
AcDbSpline
210
0.0
220
0.0
230
1.0
 70
     8
 71
     3
 72
     8
 73
     4
 74
     0
 42
0.000000001
 43
0.00000001
 40
0.0
 40
0.0
 40
0.0
 40
0.0
 40
1.0
 40
1.0
 40
1.0
 40
1.0
 10
227.7979430172004
 20
46.50347391400426
 30
0.0
 10
228.0995954904379
 20
46.24469355592244
 30
0.0
 10
228.4048750339613
 20
45.99711854051777
 30
0.0
 10
228.7095346070879
 20
45.75614568395125
 30
0.0
  0
SPLINE
  5
24B
330
1F
100
AcDbEntity
  8
0
  6
Continuous
 62
     7
370
    15
100
AcDbSpline
210
0.0
220
0.0
230
1.0
 70
     8
 71
     3
 72
    14
 73
    10
 74
     0
 42
0.000000001
 43
0.00000001
 40
0.0
 40
0.0
 40
0.0
 40
0.0
 40
0.1250000000000012
 40
0.1250000000000012
 40
0.2500000000000024
 40
0.2500000000000024
 40
0.5000000000000016
 40
0.5000000000000016
 40
1.0
 40
1.0
 40
1.0
 40
1.0
 10
228.709534607088
 20
45.7561456839512
 30
0.0
 10
228.7287299830135
 20
45.74096295221501
 30
0.0
 10
228.7463420564139
 20
45.72959513371821
 30
0.0
 10
228.7721869863332
 20
45.71832666450577
 30
0.0
 10
228.7803253505809
 20
45.71794319426872
 30
0.0
 10
228.7972754415489
 20
45.72371898696311
 30
0.0
 10
228.7994447140586
 20
45.73638441258114
 30
0.0
 10
228.798269166244
 20
45.78082123962491
 30
0.0
 10
228.7861956456399
 20
45.82130451039836
 30
0.0
 10
228.7714174175998
 20
45.86530818028086
 30
0.0
  0
SPLINE
  5
24C
330
1F
100
AcDbEntity
  8
0
  6
Continuous
 62
     7
370
    15
100
AcDbSpline
210
0.0
220
0.0
230
1.0
 70
     8
 71
     3
 72
    14
 73
    10
 74
     0
 42
0.000000001
 43
0.00000001
 40
0.0
 40
0.0
 40
0.0
 40
0.0
 40
0.25
 40
0.25
 40
0.5
 40
0.5
 40
0.75
 40
0.75
 40
1.0
 40
1.0
 40
1.0
 40
1.0
 10
228.7714174175991
 20
45.86530818028155
 30
0.0
 10
228.7533611706526
 20
45.91907248326832
 30
0.0
 10
228.7504383725514
 20
45.96362309236537
 30
0.0
 10
228.7450246440081
 20
46.05588444221009
 30
0.0
 10
228.7434573659669
 20
46.10317884513034
 30
0.0
 10
228.7333189661598
 20
46.20793989995812
 30
0.0
 10
228.7250039684156
 20
46.26520110699313
 30
0.0
 10
228.6962037937568
 20
46.39482246436755
 30
0.0
 10
228.6755503970862
 20
46.4676166639806
 30
0.0
 10
228.6468608799251
 20
46.54730336294036
 30
0.0
  0
ARC
  5
24D
330
1F
100
AcDbEntity
  8
0
  6
Continuous
 62
     7
370
    15
100
AcDbCircle
 10
239.0018281573
 20
49.6338648609
 30
0.0
 40
10.80519362138012
100
AcDbArc
 50
163.4019732888
 51
196.5980267112
  0
SPLINE
  5
24E
330
1F
100
AcDbEntity
  8
0
  6
Continuous
 62
     7
370
    15
100
AcDbSpline
210
0.0
220
0.0
230
1.0
 70
     8
 71
     3
 72
    14
 73
    10
 74
     0
 42
0.000000001
 43
0.00000001
 40
0.0
 40
0.0
 40
0.0
 40
0.0
 40
0.25
 40
0.25
 40
0.5
 40
0.5
 40
0.75
 40
0.75
 40
1.0
 40
1.0
 40
1.0
 40
1.0
 10
228.7714174175991
 20
54.18163137520454
 30
0.0
 10
228.7533611706526
 20
54.06078929625998
 30
0.0
 10
228.7504383725514
 20
53.93569502969387
 30
0.0
 10
228.7450246440081
 20
53.68774371904252
 30
0.0
 10
228.7434573659669
 20
53.56383509472876
 30
0.0
 10
228.7333189661598
 20
53.31767935548856
 30
0.0
 10
228.7250039684156
 20
53.19539141362714
 30
0.0
 10
228.6962037937568
 20
52.95339423641835
 30
0.0
 10
228.6755503970862
 20
52.83323726923876
 30
0.0
 10
228.6468608799251
 20
52.72042635883349
 30
0.0
  0
SPLINE
  5
24F
330
1F
100
AcDbEntity
  8
0
  6
Continuous
 62
     7
370
    15
100
AcDbSpline
210
0.0
220
0.0
230
1.0
 70
     8
 71
     3
 72
    14
 73
    10
 74
     0
 42
0.000000001
 43
0.00000001
 40
0.0
 40
0.0
 40
0.0
 40
0.0
 40
0.1250000000000025
 40
0.1250000000000025
 40
0.250000000000005
 40
0.250000000000005
 40
0.5000000000000009
 40
0.5000000000000009
 40
1.0
 40
1.0
 40
1.0
 40
1.0
 10
228.7095346070881
 20
54.72691693949855
 30
0.0
 10
228.7287299830136
 20
54.72463013152473
 30
0.0
 10
228.746342056414
 20
54.71313189225191
 30
0.0
 10
228.7721869863332
 20
54.67644038972539
 30
0.0
 10
228.7803253505809
 20
54.65335897462332
 30
0.0
 10
228.7972754415489
 20
54.58202645554623
 30
0.0
 10
228.7994447140587
 20
54.53078234993815
 30
0.0
 10
228.798269166244
 20
54.38074687017657
 30
0.0
 10
228.7861956456399
 20
54.28053519529349
 30
0.0
 10
228.7714174175998
 20
54.18163137520487
 30
0.0
  0
SPLINE
  5
250
330
1F
100
AcDbEntity
  8
0
  6
Continuous
 62
     7
370
    15
100
AcDbSpline
210
0.0
220
0.0
230
1.0
 70
     8
 71
     3
 72
     8
 73
     4
 74
     0
 42
0.000000001
 43
0.00000001
 40
0.0
 40
0.0
 40
0.0
 40
0.0
 40
1.0
 40
1.0
 40
1.0
 40
1.0
 10
227.7979430172004
 20
54.77912975063463
 30
0.0
 10
228.0995954904379
 20
54.78647599777774
 30
0.0
 10
228.4048750339614
 20
54.7632120318078
 30
0.0
 10
228.7095346070881
 20
54.72691693949856
 30
0.0
  0
SPLINE
  5
251
330
1F
100
AcDbEntity
  8
0
  6
Continuous
 62
     7
370
    15
100
AcDbSpline
210
0.0
220
0.0
230
1.0
 70
     8
 71
     3
 72
    14
 73
    10
 74
     0
 42
0.000000001
 43
0.00000001
 40
0.0
 40
0.0
 40
0.0
 40
0.0
 40
0.4999999999999999
 40
0.4999999999999999
 40
0.7499999999999998
 40
0.7499999999999998
 40
0.8749999999999999
 40
0.8749999999999999
 40
1.0
 40
1.0
 40
1.0
 40
1.0
 10
225.8692746499448
 20
55.41176909561963
 30
0.0
 10
226.1844405937847
 20
55.2743846018935
 30
0.0
 10
226.5007162490507
 20
55.14281109426235
 30
0.0
 10
226.9795407376217
 20
54.96791562774158
 30
0.0
 10
227.1398607480458
 20
54.91324447747706
 30
0.0
 10
227.3829132839995
 20
54.84421266175701
 30
0.0
 10
227.464356722016
 20
54.82335037724822
 30
0.0
 10
227.6290181710494
 20
54.79054266381859
 30
0.0
 10
227.7119241891157
 20
54.77703490432594
 30
0.0
 10
227.7979430172004
 20
54.77912975063463
 30
0.0
  0
SPLINE
  5
252
330
1F
100
AcDbEntity
  8
0
  6
Continuous
 62
     7
370
    15
100
AcDbSpline
210
0.0
220
0.0
230
1.0
 70
     8
 71
     3
 72
     8
 73
     4
 74
     0
 42
0.000000001
 43
0.00000001
 40
0.0000005163856998
 40
0.0000005163856998
 40
0.0000005163856998
 40
0.0000005163856998
 40
0.000026289209185
 40
0.000026289209185
 40
0.000026289209185
 40
0.000026289209185
 10
225.8692530629256
 20
55.42464820681082
 30
0.0
 10
225.8692507617663
 20
55.42035537178429
 30
0.0
 10
225.8692580080906
 20
55.41606230410876
 30
0.0
 10
225.8692746499448
 20
55.41176909561963
 30
0.0
  0
SPLINE
  5
253
330
1F
100
AcDbEntity
  8
0
  6
Continuous
 62
     7
370
    15
100
AcDbSpline
210
0.0
220
0.0
230
1.0
 70
     8
 71
     3
 72
     8
 73
     4
 74
     0
 42
0.000000001
 43
0.00000001
 40
0.0000005163857002
 40
0.0000005163857002
 40
0.0000005163857002
 40
0.0000005163857002
 40
0.0000262892091854
 40
0.0000262892091854
 40
0.0000262892091854
 40
0.0000262892091854
 10
225.8692530629256
 20
47.95117715495105
 30
0.0
 10
225.8692507617663
 20
47.95275054064876
 30
0.0
 10
225.8692580080906
 20
47.95431827058093
 30
0.0
 10
225.8692746499448
 20
47.9558804273167
 30
0.0
  0
SPLINE
  5
254
330
1F
100
AcDbEntity
  8
0
  6
Continuous
 62
     7
370
    15
100
AcDbSpline
210
0.0
220
0.0
230
1.0
 70
     8
 71
     3
 72
    18
 73
    14
 74
     0
 42
0.000000001
 43
0.00000001
 40
0.0
 40
0.0
 40
0.0
 40
0.0
 40
0.1244594350189511
 40
0.2495985560753229
 40
0.3747148292097015
 40
0.499119204229976
 40
0.622462285933377
 40
0.6845050635406152
 40
0.7457451781651555
 40
0.8068974988088571
 40
0.8693333740272086
 40
0.9931139969828287
 40
1.0
 40
1.0
 40
1.0
 40
1.0
 10
231.5581213613794
 20
46.07820603969478
 30
0.0
 10
231.4250745500628
 20
46.32314080626518
 30
0.0
 10
231.1582543448287
 20
46.81434795387361
 30
0.0
 10
231.0335598208529
 20
47.56636909981729
 30
0.0
 10
231.1693852257424
 20
48.19105604478563
 30
0.0
 10
231.5364628526306
 20
48.60792179331843
 30
0.0
 10
231.9790972321532
 20
48.70190291758965
 30
0.0
 10
232.3553334931369
 20
48.61996346796364
 30
0.0
 10
232.637524007127
 20
48.4776761159647
 30
0.0
 10
232.9100261102697
 20
48.26103318353571
 30
0.0
 10
233.235666832831
 20
47.88301240748957
 30
0.0
 10
233.4837437993191
 20
47.51724759307777
 30
0.0
 10
233.5714845833339
 20
47.24030667055292
 30
0.0
 10
233.5761084365861
 20
47.2257121555887
 30
0.0
  0
SPLINE
  5
255
330
1F
100
AcDbEntity
  8
0
  6
Continuous
 62
     7
370
    15
100
AcDbSpline
210
0.0
220
0.0
230
1.0
 70
     8
 71
     3
 72
    12
 73
     8
 74
     0
 42
0.000000001
 43
0.00000001
 40
0.0
 40
0.0
 40
0.0
 40
0.0
 40
0.156287456381326
 40
0.3239079026728919
 40
0.4916533326638166
 40
0.6618202644127443
 40
1.0
 40
1.0
 40
1.0
 40
1.0
 10
233.1252851491277
 20
44.74851602894634
 30
0.0
 10
233.0501015127381
 20
44.76802704440518
 30
0.0
 10
232.8942823923675
 20
44.8084638922663
 30
0.0
 10
232.6285483916381
 20
44.95479125725514
 30
0.0
 10
232.3471135564581
 20
45.16214695606467
 30
0.0
 10
231.9669327693578
 20
45.51135149918463
 30
0.0
 10
231.7214378667805
 20
45.85175271471386
 30
0.0
 10
231.5581213613794
 20
46.07820603969478
 30
0.0
  0
ARC
  5
256
330
1F
100
AcDbEntity
  8
0
  6
Continuous
 62
     7
370
    15
100
AcDbCircle
 10
246.3695252841
 20
39.1490872116
 30
0.0
 40
6.609905605977906
100
AcDbArc
 50
198.0914363868
 51
217.3775948369
  0
SPLINE
  5
257
330
1F
100
AcDbEntity
  8
0
  6
Continuous
 62
     7
370
    15
100
AcDbSpline
210
0.0
220
0.0
230
1.0
 70
     8
 71
     3
 72
     8
 73
     4
 74
     0
 42
0.000000001
 43
0.00000001
 40
0.0
 40
0.0
 40
0.0
 40
0.0
 40
1.0
 40
1.0
 40
1.0
 40
1.0
 10
238.6117232434871
 20
36.85010311643011
 30
0.0
 10
239.103518042239
 20
36.93175340351186
 30
0.0
 10
239.5950981331417
 20
37.0138371910023
 30
0.0
 10
240.0863991621942
 20
37.09648441120618
 30
0.0
  0
LINE
  5
258
330
1F
100
AcDbEntity
  8
0
  6
Continuous
 62
     7
370
    15
100
AcDbLine
 10
240.0863991622
 20
37.0964844112
 30
0.0
 11
240.3315677666
 21
37.2380172339
 31
0.0
  0
SPLINE
  5
259
330
1F
100
AcDbEntity
  8
0
  6
Continuous
 62
     7
370
    15
100
AcDbSpline
210
0.0
220
0.0
230
1.0
 70
     8
 71
     3
 72
    10
 73
     6
 74
     0
 42
0.000000001
 43
0.00000001
 40
0.0
 40
0.0
 40
0.0
 40
0.0
 40
0.5
 40
0.5
 40
1.0
 40
1.0
 40
1.0
 40
1.0
 10
240.3315677665604
 20
37.23801723389596
 30
0.0
 10
240.3564000699124
 20
37.2523526174838
 30
0.0
 10
240.3840750674057
 20
37.2649480576199
 30
0.0
 10
240.4442000768603
 20
37.28614595576016
 30
0.0
 10
240.475894477055
 20
37.29450812142682
 30
0.0
 10
240.5090764696367
 20
37.30061957649806
 30
0.0
  0
SPLINE
  5
25A
330
1F
100
AcDbEntity
  8
0
  6
Continuous
 62
     7
370
    15
100
AcDbSpline
210
0.0
220
0.0
230
1.0
 70
     8
 71
     3
 72
    16
 73
    12
 74
     0
 42
0.000000001
 43
0.00000001
 40
0.0
 40
0.0
 40
0.0
 40
0.0
 40
0.0781001668060983
 40
0.205435377992721
 40
0.3364920525751351
 40
0.4634560040811408
 40
0.5940069483210874
 40
0.7227106148157794
 40
0.8550700133879412
 40
0.9850210818910774
 40
1.0
 40
1.0
 40
1.0
 40
1.0
 10
232.5628855436078
 20
48.39940289850337
 30
0.0
 10
232.5545888397108
 20
48.35190450624622
 30
0.0
 10
232.5327651155005
 20
48.22696431000286
 30
0.0
 10
232.5464131437811
 20
47.99873106352063
 30
0.0
 10
232.5979017163058
 20
47.72937073342129
 30
0.0
 10
232.6928690710793
 20
47.4521842930886
 30
0.0
 10
232.8237461806053
 20
47.17949249586349
 30
0.0
 10
232.9887187216073
 20
46.91124824785261
 30
0.0
 10
233.1808298573801
 20
46.66166211999689
 30
0.0
 10
233.3283084237916
 20
46.4919011081492
 30
0.0
 10
233.41069491051
 20
46.41721184539102
 30
0.0
 10
233.4192097835648
 20
46.40949250188852
 30
0.0
  0
LINE
  5
25B
330
1F
100
AcDbEntity
  8
0
  6
Continuous
 62
     7
370
    15
100
AcDbLine
 10
260.2353133973
 20
58.3763343481
 30
0.0
 11
260.3303217126
 21
58.3973828695
 31
0.0
  0
LINE
  5
25C
330
1F
100
AcDbEntity
  8
0
  6
Continuous
 62
     7
370
    15
100
AcDbLine
 10
260.3303217126
 20
58.3973828695
 30
0.0
 11
261.7297097803
 21
57.5895333336
 31
0.0
  0
SPLINE
  5
25D
330
1F
100
AcDbEntity
  8
0
  6
Continuous
 62
     7
370
    15
100
AcDbSpline
210
0.0
220
0.0
230
1.0
 70
     8
 71
     3
 72
    12
 73
     8
 74
     0
 42
0.000000001
 43
0.00000001
 40
0.0
 40
0.0
 40
0.0
 40
0.0
 40
0.249999999999998
 40
0.249999999999998
 40
0.499999999999996
 40
0.499999999999996
 40
1.0
 40
1.0
 40
1.0
 40
1.0
 10
261.7297097802522
 20
57.58953333357437
 30
0.0
 10
261.7619537511248
 20
57.57091928540076
 30
0.0
 10
261.7840067536584
 20
57.54666896260335
 30
0.0
 10
261.8048556978234
 20
57.4960811047158
 30
0.0
 10
261.8044745285961
 20
57.46924253628175
 30
0.0
 10
261.7787215956988
 20
57.39200842001292
 30
0.0
 10
261.7307701685901
 20
57.34522304918509
 30
0.0
 10
261.6668701194548
 20
57.30833433601762
 30
0.0
  0
SPLINE
  5
25E
330
1F
100
AcDbEntity
  8
0
  6
Continuous
 62
     7
370
    15
100
AcDbSpline
210
0.0
220
0.0
230
1.0
 70
     8
 71
     3
 72
    11
 73
     7
 74
     0
 42
0.000000001
 43
0.00000001
 40
0.0
 40
0.0
 40
0.0
 40
0.0
 40
0.2049051768414984
 40
0.393904193297882
 40
0.7233519303321677
 40
1.0
 40
1.0
 40
1.0
 40
1.0
 10
231.8493907112286
 20
46.26112912488317
 30
0.0
 10
231.9290109904661
 20
46.14654160613198
 30
0.0
 10
232.0820708708784
 20
45.92626164624296
 30
0.0
 10
232.405810577548
 20
45.57547490543904
 30
0.0
 10
232.7886903320073
 20
45.25918844902696
 30
0.0
 10
233.0410894008149
 20
45.15205766234102
 30
0.0
 10
233.1562951395767
 20
45.10315858564237
 30
0.0
  0
SPLINE
  5
25F
330
1F
100
AcDbEntity
  8
0
  6
Continuous
 62
     7
370
    15
100
AcDbSpline
210
0.0
220
0.0
230
1.0
 70
     8
 71
     3
 72
    16
 73
    12
 74
     0
 42
0.000000001
 43
0.00000001
 40
0.0
 40
0.0
 40
0.0
 40
0.0
 40
0.1460145430676681
 40
0.2335492809463516
 40
0.3282846594090686
 40
0.4359414638269612
 40
0.5278790608188775
 40
0.664099532270754
 40
0.8013223014818099
 40
0.8930413578181003
 40
1.0
 40
1.0
 40
1.0
 40
1.0
 10
232.7889981831752
 20
48.34309804234073
 30
0.0
 10
232.6421375772473
 20
48.41656894227808
 30
0.0
 10
232.4072350244385
 20
48.53408515326875
 30
0.0
 10
232.0903839347984
 20
48.5241152197277
 30
0.0
 10
231.8372547757107
 20
48.4363798774433
 30
0.0
 10
231.6285315001606
 20
48.25458766252574
 30
0.0
 10
231.4655005837517
 20
47.96272228788495
 30
0.0
 10
231.3884727772731
 20
47.55283891409573
 30
0.0
 10
231.4638721173164
 20
47.08826975188695
 30
0.0
 10
231.6226146544115
 20
46.64632508538514
 30
0.0
 10
231.7700295362421
 20
46.39592996962196
 30
0.0
 10
231.8493907112286
 20
46.26112912488318
 30
0.0
  0
SPLINE
  5
260
330
1F
100
AcDbEntity
  8
0
  6
Continuous
 62
     7
370
    15
100
AcDbSpline
210
0.0
220
0.0
230
1.0
 70
     8
 71
     3
 72
    10
 73
     6
 74
     0
 42
0.000000001
 43
0.00000001
 40
0.0
 40
0.0
 40
0.0
 40
0.0
 40
0.3338235116007836
 40
0.703740274820178
 40
1.0
 40
1.0
 40
1.0
 40
1.0
 10
263.8466993286161
 20
53.72871864248845
 30
0.0
 10
263.8674621221837
 20
53.74314728706712
 30
0.0
 10
263.9112325983293
 20
53.7735646122351
 30
0.0
 10
263.9432147392038
 20
53.82888613713099
 30
0.0
 10
263.9366693915409
 20
53.86623982586678
 30
0.0
 10
263.9337585669567
 20
53.88285163032406
 30
0.0
  0
SPLINE
  5
261
330
1F
100
AcDbEntity
  8
0
  6
Continuous
 62
     7
370
    15
100
AcDbSpline
210
0.0
220
0.0
230
1.0
 70
     8
 71
     3
 72
     9
 73
     5
 74
     0
 42
0.000000001
 43
0.00000001
 40
0.0
 40
0.0
 40
0.0
 40
0.0
 40
0.9526988060912808
 40
1.0
 40
1.0
 40
1.0
 40
1.0
 10
257.931863006154
 20
59.78198360864495
 30
0.0
 10
257.8804301042738
 20
59.7033220164335
 30
0.0
 10
257.8264435751092
 20
59.62075490108863
 30
0.0
 10
257.7699865073577
 20
59.53874460254372
 30
0.0
 10
257.7673160206485
 20
59.53486541750974
 30
0.0
  0
LINE
  5
262
330
1F
100
AcDbEntity
  8
0
  6
Continuous
 62
     7
370
    15
100
AcDbLine
 10
227.7090304951
 20
50.1308616306
 30
0.0
 11
228.2094133305
 21
49.8419967684
 31
0.0
  0
SPLINE
  5
263
330
1F
100
AcDbEntity
  8
0
  6
Continuous
 62
     7
370
    15
100
AcDbSpline
210
0.0
220
0.0
230
1.0
 70
     8
 71
     3
 72
     9
 73
     5
 74
     0
 42
0.000000001
 43
0.00000001
 40
0.0
 40
0.0
 40
0.0
 40
0.0
 40
0.7009329310329868
 40
1.0
 40
1.0
 40
1.0
 40
1.0
 10
225.8832195542285
 20
55.88824006130029
 30
0.0
 10
225.8801471721296
 20
55.94224423612533
 30
0.0
 10
225.8757638966935
 20
56.01929037340045
 30
0.0
 10
225.9001750308369
 20
56.10892266878368
 30
0.0
 10
225.9074755971753
 20
56.13572873664872
 30
0.0
  0
SPLINE
  5
264
330
1F
100
AcDbEntity
  8
0
  6
Continuous
 62
     7
370
    15
100
AcDbSpline
210
0.0
220
0.0
230
1.0
 70
     8
 71
     3
 72
    10
 73
     6
 74
     0
 42
0.000000001
 43
0.00000001
 40
0.0
 40
0.0
 40
0.0
 40
0.0
 40
0.5
 40
0.5
 40
1.0
 40
1.0
 40
1.0
 40
1.0
 10
225.9237120001437
 20
55.94059038593248
 30
0.0
 10
225.903785949647
 20
55.85662991191446
 30
0.0
 10
225.890491685506
 20
55.7711840494007
 30
0.0
 10
225.8732231593654
 20
55.59877057846341
 30
0.0
 10
225.8692997047433
 20
55.5116589721971
 30
0.0
 10
225.8692530629256
 20
55.42464820681082
 30
0.0
  0
SPLINE
  5
265
330
1F
100
AcDbEntity
  8
0
  6
Continuous
 62
     7
370
    15
100
AcDbSpline
210
0.0
220
0.0
230
1.0
 70
     8
 71
     3
 72
    24
 73
    20
 74
     0
 42
0.000000001
 43
0.00000001
 40
0.0
 40
0.0
 40
0.0
 40
0.0
 40
0.2500000000000034
 40
0.2500000000000034
 40
0.3750000000000043
 40
0.3750000000000043
 40
0.4375000000000036
 40
0.4375000000000036
 40
0.4687500000000054
 40
0.4687500000000054
 40
0.5000000000000073
 40
0.5000000000000073
 40
0.5625000000000063
 40
0.5625000000000063
 40
0.6250000000000052
 40
0.6250000000000052
 40
0.7500000000000029
 40
0.7500000000000029
 40
1.0
 40
1.0
 40
1.0
 40
1.0
 10
225.9074755971753
 20
56.13572873664872
 30
0.0
 10
225.9373166264605
 20
56.24300779320497
 30
0.0
 10
225.9671461665015
 20
56.34889236657565
 30
0.0
 10
226.0118173233728
 20
56.49884040982595
 30
0.0
 10
226.0267701154646
 20
56.54784067258888
 30
0.0
 10
226.048353253754
 20
56.61099095449163
 30
0.0
 10
226.0554829652836
 20
56.63063113872013
 30
0.0
 10
226.064334590585
 20
56.64834106820813
 30
0.0
 10
226.0669726878549
 20
56.6520574346938
 30
0.0
 10
226.0701252258999
 20
56.64990908631159
 30
0.0
 10
226.0705051870367
 20
56.64374667724502
 30
0.0
 10
226.0684952617759
 20
56.61510159389226
 30
0.0
 10
226.0639186201775
 20
56.58680058890408
 30
0.0
 10
226.0539872340711
 20
56.53042157875479
 30
0.0
 10
226.0482970483361
 20
56.50095183079874
 30
0.0
 10
226.0307154477175
 20
56.41309741023241
 30
0.0
 10
226.0180345747892
 20
56.35387241718309
 30
0.0
 10
225.9787935111689
 20
56.17537911005331
 30
0.0
 10
225.9514900511323
 20
56.05763607587959
 30
0.0
 10
225.9237120001437
 20
55.9405903859325
 30
0.0
  0
ARC
  5
266
330
1F
100
AcDbEntity
  8
0
  6
Continuous
 62
     7
370
    15
100
AcDbCircle
 10
226.5863900372
 20
55.3459809521
 30
0.0
 40
0.7201267655271577
100
AcDbArc
 50
174.7583590299
 51
234.4349468916
  0
ARC
  5
267
330
1F
100
AcDbEntity
  8
0
  6
Continuous
 62
     7
370
    15
100
AcDbCircle
 10
228.0817239822
 20
47.8460845747
 30
0.0
 40
2.215172042338707
100
AcDbArc
 50
122.6235698331
 51
177.1589486026
  0
LINE
  5
268
330
1F
100
AcDbEntity
  8
0
  6
Continuous
 62
     7
370
    15
100
AcDbLine
 10
226.8874864116
 20
49.7117704545
 30
0.0
 11
227.6315730432
 21
50.1413225237
 31
0.0
  0
SPLINE
  5
269
330
1F
100
AcDbEntity
  8
0
  6
Continuous
 62
     7
370
    15
100
AcDbSpline
210
0.0
220
0.0
230
1.0
 70
     8
 71
     3
 72
     8
 73
     4
 74
     0
 42
0.000000001
 43
0.00000001
 40
0.0
 40
0.0
 40
0.0
 40
0.0
 40
0.000159097691435
 40
0.000159097691435
 40
0.000159097691435
 40
0.000159097691435
 10
227.7090304950712
 20
50.13086163059655
 30
0.0
 10
227.6832103661401
 20
50.13434617997372
 30
0.0
 10
227.6573912222222
 20
50.13783316262641
 30
0.0
 10
227.6315730432004
 20
50.14132252366085
 30
0.0
  0
SPLINE
  5
26A
330
1F
100
AcDbEntity
  8
0
  6
Continuous
 62
     7
370
    15
100
AcDbSpline
210
0.0
220
0.0
230
1.0
 70
     8
 71
     3
 72
    10
 73
     6
 74
     0
 42
0.000000001
 43
0.00000001
 40
0.0
 40
0.0
 40
0.0
 40
0.0
 40
0.5
 40
0.5
 40
1.0
 40
1.0
 40
1.0
 40
1.0
 10
225.9237120001437
 20
47.7559347702285
 30
0.0
 10
225.903785949647
 20
47.79445633174518
 30
0.0
 10
225.890491685506
 20
47.82641965893899
 30
0.0
 10
225.8732231593654
 20
47.88886308243742
 30
0.0
 10
225.8692997047433
 20
47.91928645965048
 30
0.0
 10
225.8692530629256
 20
47.95117715495104
 30
0.0
  0
LINE
  5
26B
330
1F
100
AcDbEntity
  8
0
  6
Continuous
 62
     7
370
    15
100
AcDbLine
 10
225.8796196288
 20
48.5530473314
 30
0.0
 11
225.8832195542
 21
48.4174104492
 31
0.0
  0
ARC
  5
26C
330
1F
100
AcDbEntity
  8
0
  6
Continuous
 62
     7
370
    15
100
AcDbCircle
 10
227.2163452275
 20
48.3407421896
 30
0.0
 40
1.35348025455752
100
AcDbArc
 50
122.9135798094
 51
170.9753897871
  0
LINE
  5
26D
330
1F
100
AcDbEntity
  8
0
  6
Continuous
 62
     7
370
    15
100
AcDbLine
 10
226.8874864116
 20
49.7117704545
 30
0.0
 11
226.4809000124
 21
49.4769768198
 31
0.0
  0
LINE
  5
26E
330
1F
100
AcDbEntity
  8
0
  6
Continuous
 62
     7
370
    15
100
AcDbLine
 10
225.9790019582
 20
47.6599843971
 30
0.0
 11
225.9237120001
 21
47.7559347702
 31
0.0
  0
ARC
  5
26F
330
1F
100
AcDbEntity
  8
0
  6
Continuous
 62
     7
370
     0
100
AcDbCircle
 10
264.5807597703
 20
40.4281351246
 30
0.0
 40
1.985865771559895
100
AcDbArc
 50
335.4177388921
 51
39.3666933282
  0
LWPOLYLINE
  5
270
330
1F
100
AcDbEntity
  8
0
  6
Continuous
 62
     7
370
     0
100
AcDbPolyline
 90
       14
 70
   128
 43
0.0
 10
265.9803672047
 20
41.5753205578
 10
266.081427326
 20
41.3964622845
 10
266.2537425722
 20
40.9967188666
 10
266.3559784857
 20
40.597379725
 10
266.381711208
 20
40.2235368065
 10
266.3293238575
 20
39.8986800368
 10
266.2021081241
 20
39.6432213612
 10
266.0080574403
 20
39.473212188
 10
265.7593647241
 20
39.3993348188
 10
265.4716562535
 20
39.4262312403
 10
265.1630098099
 20
39.5522114515
 10
264.8528187844
 20
39.7693596524
 10
264.56057362
 20
40.0640316229
 10
264.5265707145
 20
40.1050331211
  0
LWPOLYLINE
  5
271
330
1F
100
AcDbEntity
  8
0
  6
Continuous
 62
     7
370
     0
100
AcDbPolyline
 90
       10
 70
   128
 43
0.0
 10
245.516214562
 20
38.6559796148
 10
245.5539194728
 20
37.7359851822
 10
245.6667125204
 20
36.8673729812
 10
245.8536313942
 20
36.0575537047
 10
246.1130813683
 20
35.3134364455
 10
246.442848907
 20
34.6413697494
 10
246.8401205498
 20
34.0470874526
 10
247.3015069154
 20
33.5356597622
 10
247.8230716177
 20
33.1114499989
 10
248.1055572478
 20
32.932919534
  0
LWPOLYLINE
  5
272
330
1F
100
AcDbEntity
  8
0
  6
Continuous
 62
     7
370
     0
100
AcDbPolyline
 90
       27
 70
   128
 43
0.0
 10
260.6045414058
 20
54.5841410935
 10
260.3097338028
 20
54.7389832568
 10
259.6816373013
 20
54.9786745321
 10
259.0080962294
 20
55.1226394929
 10
258.2948570018
 20
55.1696498812
 10
257.5480047244
 20
55.1193046207
 10
256.7739112773
 20
54.9720332396
 10
255.9791809529
 20
54.7290922053
 10
255.1705941101
 20
54.392554205
 10
254.3550493268
 20
53.9652904623
 10
253.5395045435
 20
53.4509462409
 10
252.7309177007
 20
52.8539097442
 10
251.9361873763
 20
52.1792746771
 10
251.1620939292
 20
51.4327967882
 10
250.4152416517
 20
50.6208447636
 10
249.7020024242
 20
49.7503458917
 10
249.0284613523
 20
48.828726962
 10
248.4003648508
 20
47.8638509021
 10
247.8230716177
 20
46.8639496945
 10
247.3015069154
 20
45.8375541437
 10
246.8401205498
 20
44.7934210946
 10
246.442848907
 20
43.7404587222
 10
246.1130813683
 20
42.6876505303
 10
245.8536313942
 20
41.6439787072
 10
245.6667125204
 20
40.6183474927
 10
245.5539194728
 20
39.6195072109
 10
245.516214562
 20
38.6559796148
  0
LWPOLYLINE
  5
273
330
1F
100
AcDbEntity
  8
0
  6
Continuous
 62
     7
370
     0
100
AcDbPolyline
 90
       54
 70
   128
 43
0.0
 10
267.1006490577
 20
42.5247082951
 10
266.4734108487
 20
42.1196272228
 10
265.8549776893
 20
41.6342642775
 10
265.2540310254
 20
41.0754328908
 10
264.6790068308
 20
40.4509778307
 10
264.1379771848
 20
39.7696650771
 10
263.6385369576
 20
39.0410587678
 10
263.1876971952
 20
38.2753869383
 10
262.7917866997
 20
37.4833979425
 10
262.4563631866
 20
36.6762095701
 10
262.1861352667
 20
35.8651529762
 10
261.9848963476
 20
35.0616136177
 10
261.8554713828
 20
34.2768714258
 10
261.7996772149
 20
33.5219424607
 10
261.8182970718
 20
32.8074242702
 10
261.9110695716
 20
32.1433471234
 10
262.0766923916
 20
31.5390332079
 10
262.3128405506
 20
31.0029657663
 10
262.616199046
 20
30.5426700104
 10
262.9825093896
 20
30.1646074837
 10
263.406629387
 20
29.8740853553
 10
263.8826053232
 20
29.6751819191
 10
264.4037555394
 20
29.5706893434
 10
264.9627642289
 20
29.5620744747
 10
265.5517841351
 20
29.649458247
 10
266.1625467097
 20
29.8316139838
 10
266.7864781849
 20
30.1059846176
 10
267.4148199305
 20
30.4687185863
 10
268.0387514057
 20
30.9147239001
 10
268.6495139802
 20
31.437739622
 10
269.2385338865
 20
32.0304237577
 10
269.797542576
 20
32.6844563212
 10
270.3186927922
 20
33.3906561289
 10
270.7946687284
 20
34.1391096835
 10
271.2187887258
 20
34.9193103378
 10
271.5850990693
 20
35.7203057848
 10
271.8884575647
 20
36.5308518042
 10
272.1246057237
 20
37.3395701066
 10
272.2902285438
 20
38.1351080598
 10
272.3830010435
 20
38.9062980548
 10
272.4016209005
 20
39.6423142746
 10
272.3458267326
 20
40.3328246647
 10
272.2164017677
 20
40.9681359729
 10
272.0151628487
 20
41.5393298211
 10
271.7449349288
 20
42.0383878997
 10
271.4095114156
 20
42.4583045272
 10
271.0136009201
 20
42.7931849946
 10
270.5627611578
 20
43.0383283143
 10
270.0633209306
 20
43.1902932115
 10
269.5222912845
 20
43.2469464319
 10
268.9472670899
 20
43.2074926887
 10
268.346320426
 20
43.0724858259
 10
267.7278872666
 20
42.843821044
 10
267.1006490577
 20
42.5247082951
  0
LWPOLYLINE
  5
274
330
1F
100
AcDbEntity
  8
0
  6
Continuous
 62
     7
370
     0
100
AcDbPolyline
 90
       27
 70
   128
 43
0.0
 10
263.3388693213
 20
30.4922881052
 10
263.643981146
 20
30.3603067578
 10
264.1413894016
 20
30.2408530935
 10
264.6782975081
 20
30.2178696836
 10
265.2465664859
 20
30.291704933
 10
265.8375819565
 20
30.4612395746
 10
266.4423847278
 20
30.7239036362
 10
267.0518066064
 20
31.0757153981
 10
267.6566093777
 20
31.5113417529
 10
268.2476248483
 20
32.0241790489
 10
268.815893826
 20
32.6064531955
 10
269.3528019325
 20
33.2493375102
 10
269.8502101881
 20
33.9430865222
 10
270.3005783907
 20
34.6771837034
 10
270.6970794175
 20
35.4405008891
 10
271.033702717
 20
36.2214669687
 10
271.3053454231
 20
37.0082432926
 10
271.5078897093
 20
37.7889031336
 10
271.6382652108
 20
38.5516124843
 10
271.6944955677
 20
39.2848094485
 10
271.6757283853
 20
39.9773795075
 10
271.5822481548
 20
40.6188240053
 10
271.4154719413
 20
41.199419297
 10
271.1779279022
 20
41.7103641499
 10
270.8732169629
 20
42.1439131609
 10
270.5059582307
 20
42.4934941688
 10
270.2526500426
 20
42.6637143326
  0
LWPOLYLINE
  5
275
330
1F
100
AcDbEntity
  8
0
  6
Continuous
 62
     7
370
     0
100
AcDbPolyline
 90
       25
 70
   128
 43
0.0
 10
242.8432528532
 20
42.0119574867
 10
243.1398173153
 20
43.1617086715
 10
243.504960797
 20
44.3196257146
 10
243.9362172975
 20
45.4778886096
 10
244.4306743209
 20
46.6286750146
 10
244.9849925461
 20
47.76421308
 10
245.5954283783
 20
48.8768339365
 10
246.2578592321
 20
49.9590234858
 10
246.967811373
 20
51.0034731484
 10
247.7204901308
 20
52.0031292212
 10
248.5108122808
 20
52.9512405153
 10
249.3334403731
 20
53.8414039499
 10
250.1828187793
 20
54.6676077958
 10
251.0532112124
 20
55.4242722759
 10
251.9387394669
 20
56.1062872475
 10
252.8334231174
 20
56.7090467148
 10
253.7312199074
 20
57.2284799345
 10
254.6260665558
 20
57.6610789084
 10
255.5119197054
 20
58.0039220741
 10
256.3827967365
 20
58.2546940365
 10
257.2328161708
 20
58.4117012041
 10
258.0562373924
 20
58.4738832272
 10
258.8474994162
 20
58.4408201588
 10
259.6012584449
 20
58.3127352906
 10
260.3124239583
 20
58.0904936453
  0
LWPOLYLINE
  5
276
330
1F
100
AcDbEntity
  8
0
  6
Continuous
 62
     7
370
     0
100
AcDbPolyline
 90
       25
 70
   128
 43
0.0
 10
242.4095700176
 20
42.0065201483
 10
242.7051856878
 20
43.1717045118
 10
243.0701700229
 20
44.3457234631
 10
243.5020831751
 20
45.5207289184
 10
243.9980378904
 20
46.6888661991
 10
244.5547188101
 20
47.8423265392
 10
245.1684046325
 20
48.9733992849
 10
245.8349929897
 20
50.0745234394
 10
246.5500278705
 20
51.1383382058
 10
247.3087294086
 20
52.1577321935
 10
248.1060258347
 20
53.1258909558
 10
248.9365873802
 20
54.0363425433
 10
249.7948619059
 20
54.8830007677
 10
250.6751120168
 20
55.6602058866
 10
251.5714534154
 20
56.3627624379
 10
252.4778942372
 20
56.9859739704
 10
253.3883751051
 20
57.5256744385
 10
254.2968096349
 20
57.9782560517
 10
255.197125122
 20
58.3406933916
 10
256.0833031358
 20
58.6105636364
 10
256.9494197521
 20
58.7860627571
 10
257.789685153
 20
58.8660175768
 10
258.5984823309
 20
58.8498936134
 10
259.3704046371
 20
58.7377986525
 10
260.1002919239
 20
58.5304820266
  0
ARC
  5
277
330
1F
100
AcDbEntity
  8
0
  6
Continuous
 62
     7
370
     0
100
AcDbCircle
 10
257.3202474705
 20
52.207913363
 30
0.0
 40
6.701300064527802
100
AcDbArc
 50
13.1170908933
 51
49.5620782406
  0
LWPOLYLINE
  5
278
330
1F
100
AcDbEntity
  8
0
  6
Continuous
 62
     7
370
     0
100
AcDbPolyline
 90
       30
 70
   128
 43
0.0
 10
243.9202225254
 20
42.6336788448
 10
244.2323801902
 20
43.7411473518
 10
244.6131720365
 20
44.8533850213
 10
245.0597140089
 20
45.961967946
 10
245.568624071
 20
47.0584998992
 10
246.136047821
 20
48.1346759264
 10
246.7576876836
 20
49.1823452453
 10
247.4288354596
 20
50.193572979
 10
248.144407985
 20
51.1607002532
 10
248.8989856299
 20
52.0764022032
 10
249.686853346
 20
52.9337434515
 10
250.5020439513
 20
53.726230635
 10
251.3383833249
 20
54.4478615846
 10
252.1895371685
 20
55.0931707849
 10
253.0490589812
 20
55.657270769
 10
253.9104388848
 20
56.1358891355
 10
254.7671529279
 20
56.5254009067
 10
255.6127124978
 20
56.8228559839
 10
256.440713464
 20
57.0260014906
 10
257.2448846817
 20
57.1332988358
 10
258.019135489
 20
57.1439353669
 10
258.7576018363
 20
57.0578305246
 10
259.4546906995
 20
56.8756364529
 10
260.1051224412
 20
56.5987330601
 10
260.703970797
 20
56.2292175674
 10
261.246700187
 20
55.7698886251
 10
261.729200067
 20
55.2242251158
 10
262.1478160616
 20
54.5963598061
 10
262.4993776411
 20
53.8910480458
 10
262.696517452
 20
53.376469028
  0
ARC
  5
279
330
1F
100
AcDbEntity
  8
0
  6
Continuous
 62
     7
370
     0
100
AcDbCircle
 10
248.9294069622
 20
36.8037177514
 30
0.0
 40
5.234405869569147
100
AcDbArc
 50
196.8685761722
 51
284.020407742
  0
LWPOLYLINE
  5
27A
330
1F
100
AcDbEntity
  8
0
  6
Continuous
 62
     7
370
     0
100
AcDbPolyline
 90
       22
 70
   128
 43
0.0
 10
233.0888128826
 20
43.1768395341
 10
233.1258701044
 20
44.2464838038
 10
233.2367951603
 20
45.3517951249
 10
233.4208498622
 20
46.4854178332
 10
233.6768093564
 20
47.6398078563
 10
234.0029702748
 20
48.8072829192
 10
234.3971620703
 20
49.980073668
 10
234.8567614615
 20
51.1503753737
 10
235.3787098903
 20
52.3103998715
 10
235.959533876
 20
53.4524273899
 10
236.5953681308
 20
54.5688579241
 10
237.2819812827
 20
55.652261813
 10
238.0148040344
 20
56.6954291826
 10
238.7889595713
 20
57.6914179262
 10
239.5992960163
 20
58.6335999029
 10
240.4404207138
 20
59.5157050472
 10
241.3067361178
 20
60.3318630949
 10
242.1924770422
 20
61.0766426487
 10
243.0917490273
 20
61.7450873237
 10
243.9985675665
 20
62.3327487309
 10
244.9068979319
 20
62.8357160805
 10
245.1110485559
 20
62.9369485554
  0
LWPOLYLINE
  5
27B
330
1F
100
AcDbEntity
  8
0
  6
Continuous
 62
     7
370
     0
100
AcDbPolyline
 90
        3
 70
   128
 43
0.0
 10
233.16745013
 20
41.6966493574
 10
233.1258701044
 20
42.149980622
 10
233.0888128826
 20
43.1768395341
  0
LWPOLYLINE
  5
27C
330
1F
100
AcDbEntity
  8
0
  6
Continuous
 62
     7
370
     0
100
AcDbPolyline
 90
       18
 70
   128
 43
0.0
 10
240.7573859246
 20
43.9387395774
 10
241.0333901165
 20
45.0435218267
 10
241.3810537347
 20
46.1576116074
 10
241.7976262922
 20
47.2721949702
 10
242.2798121397
 20
48.3784540614
 10
242.8237965382
 20
49.467636883
 10
243.4252758395
 20
50.5311265338
 10
244.079491533
 20
51.5605093796
 10
244.7812678923
 20
52.5476416174
 10
245.5250529224
 20
53.4847137029
 10
246.304962283
 20
54.3643121354
 10
247.1148258418
 20
55.1794781078
 10
247.9482364883
 20
55.9237625606
 10
248.7986008233
 20
56.5912772023
 10
249.6591913207
 20
57.1767410943
 10
250.5231995518
 20
57.6755224292
 10
251.3837900492
 20
58.0836751759
 10
251.9034490785
 20
58.2864803368
  0
LWPOLYLINE
  5
27D
330
1F
100
AcDbEntity
  8
0
  6
Continuous
 62
     7
370
     0
100
AcDbPolyline
 90
       21
 70
   128
 43
0.0
 10
240.3315677666
 20
44.5868845409
 10
240.6480839182
 20
45.7176768172
 10
241.0355689581
 20
46.8536258513
 10
241.4910208584
 20
47.9859309146
 10
242.0109110201
 20
49.1058195099
 10
242.5912116109
 20
50.2046153364
 10
243.2274267706
 20
51.2738055087
 10
243.9146274427
 20
52.3051065103
 10
244.6474895621
 20
53.2905283698
 10
245.420335303
 20
54.222436563
 10
246.2271770679
 20
55.0936111611
 10
247.0617638762
 20
55.8973027669
 10
247.9176297933
 20
56.6272848055
 10
248.7881440256
 20
57.2779017646
 10
249.666562292
 20
57.84411301
 10
250.5460790752
 20
58.3215318385
 10
251.4198803471
 20
58.7064594629
 10
252.2811963607
 20
58.9959136689
 10
253.1233540975
 20
59.1876519193
 10
253.9398289678
 20
59.2801887281
 10
254.2228452344
 20
59.289026108
  0
LINE
  5
27E
330
1F
100
AcDbEntity
  8
0
  6
Continuous
 62
     7
370
     0
100
AcDbLine
 10
234.7384495221
 20
42.6392760414
 30
0.0
 11
236.5359584409
 21
43.6769558526
 31
0.0
  0
LWPOLYLINE
  5
27F
330
1F
100
AcDbEntity
  8
0
  6
Continuous
 62
     7
370
     0
100
AcDbPolyline
 90
       15
 70
   128
 43
0.0
 10
251.585433962
 20
30.9240294673
 10
251.2143158044
 20
30.7852596173
 10
250.3285406645
 20
30.5169164823
 10
249.4633630085
 20
30.3447872616
 10
248.6247913979
 20
30.2700673735
 10
247.8186496181
 20
30.293275739
 10
247.0505362331
 20
30.4142511788
 10
246.3257857038
 20
30.632153532
 10
245.6494313411
 20
30.9454694913
 10
245.0261703499
 20
31.3520231126
 10
244.4603312076
 20
31.8489909268
 10
243.9558436035
 20
32.4329215483
 10
243.516211147
 20
33.0997596447
 10
243.1444870362
 20
33.8448741005
 10
242.8432528532
 20
34.6630901797
  0
ARC
  5
280
330
1F
100
AcDbEntity
  8
0
  6
Continuous
 62
     7
370
     0
100
AcDbCircle
 10
249.6068698883
 20
36.7556118316
 30
0.0
 40
7.496836489768341
100
AcDbArc
 50
196.2510080407
 51
215.2451269988
  0
LWPOLYLINE
  5
281
330
1F
100
AcDbEntity
  8
0
  6
Continuous
 62
     7
370
     0
100
AcDbPolyline
 90
       21
 70
   128
 43
0.0
 10
225.8692530629
 20
55.4246482068
 10
226.2151278906
 20
56.4270434211
 10
226.6263337759
 20
57.4249628128
 10
227.0990488914
 20
58.4091315245
 10
227.6288797305
 20
59.3704025005
 10
228.2109019423
 20
60.299841501
 10
228.8397060988
 20
61.1888101387
 10
229.5094479717
 20
62.0290461659
 10
230.2139028494
 20
62.8127402651
 10
230.946523391
 20
63.5326086307
 10
231.7005004785
 20
64.1819606658
 10
232.4688265018
 20
64.754761166
 10
233.2443604892
 20
65.2456864119
 10
234.0198944765
 20
65.6501736484
 10
234.7882204998
 20
65.9644634925
 10
235.5421975873
 20
66.1856348729
 10
236.2748181289
 20
66.31163218
 10
236.9792730066
 20
66.34128437
 10
237.6490148795
 20
66.2743158497
 10
238.277819036
 20
66.1113490378
 10
238.7334284591
 20
65.9198647978
  0
ARC
  5
282
330
1F
100
AcDbEntity
  8
0
  6
Continuous
 62
     7
370
     0
100
AcDbCircle
 10
229.7633891956
 20
49.752918811
 30
0.0
 40
4.290753921537431
100
AcDbArc
 50
204.8290699933
 51
235.8016614461
  0
LINE
  5
283
330
1F
100
AcDbEntity
  8
0
  6
Continuous
 62
     7
370
     0
100
AcDbLine
 10
234.7384495221
 20
41.8227352295
 30
0.0
 11
236.5359584409
 21
42.8604150407
 31
0.0
  0
LINE
  5
284
330
1F
100
AcDbEntity
  8
0
  6
Continuous
 62
     7
370
     0
100
AcDbLine
 10
238.0255079742
 20
37.188517988
 30
0.0
 11
239.3643855656
 21
37.9614355695
 31
0.0
  0
LINE
  5
285
330
1F
100
AcDbEntity
  8
0
  6
Continuous
 62
     7
370
     0
100
AcDbLine
 10
241.7440451681
 20
36.6712066007
 30
0.0
 11
241.5422744517
 21
37.2715683863
 31
0.0
  0
ARC
  5
286
330
1F
100
AcDbEntity
  8
0
  6
Continuous
 62
     7
370
     0
100
AcDbCircle
 10
247.3346610316
 20
39.5824341466
 30
0.0
 40
6.834604399344767
100
AcDbArc
 50
195.7723966306
 51
209.4377424756
  0
ARC
  5
287
330
1F
100
AcDbEntity
  8
0
  6
Continuous
 62
     7
370
     0
100
AcDbCircle
 10
246.5137944138
 20
39.3358048924
 30
0.0
 40
6.528448466391232
100
AcDbArc
 50
198.7433888939
 51
214.0747551818
  0
LINE
  5
288
330
1F
100
AcDbEntity
  8
0
  6
Continuous
 62
     7
370
     0
100
AcDbLine
 10
257.0789342523
 20
60.2743688975
 30
0.0
 11
256.5379452744
 21
59.9620626082
 31
0.0
  0
ARC
  5
289
330
1F
100
AcDbEntity
  8
0
  6
Continuous
 62
     7
370
     0
100
AcDbCircle
 10
229.631690792
 20
53.9285575954
 30
0.0
 40
1.102095792745897
100
AcDbArc
 50
159.4111972489
 51
213.1915491986
  0
ARC
  5
28A
330
1F
100
AcDbEntity
  8
0
  6
Continuous
 62
     7
370
     0
100
AcDbCircle
 10
228.2998799831
 20
53.7570727727
 30
0.0
 40
0.634505759734386
100
AcDbArc
 50
41.9989524423
 51
61.7721687694
  0
LINE
  5
28B
330
1F
100
AcDbEntity
  8
0
  6
Continuous
 62
     7
370
     0
100
AcDbLine
 10
228.5999877555
 20
54.3161191787
 30
0.0
 11
228.7095346071
 21
54.7269169395
 31
0.0
  0
LINE
  5
28C
330
1F
100
AcDbEntity
  8
0
  6
Continuous
 62
     7
370
     0
100
AcDbLine
 10
228.5999877555
 20
54.3161191787
 30
0.0
 11
227.7979430172
 21
54.7791297506
 31
0.0
  0
LINE
  5
28D
330
1F
100
AcDbEntity
  8
0
  6
Continuous
 62
     7
370
     0
100
AcDbLine
 10
225.9237120001
 20
55.9405903859
 30
0.0
 11
225.9074755972
 21
56.1357287366
 31
0.0
  0
ARC
  5
28E
330
1F
100
AcDbEntity
  8
0
  6
Continuous
 62
     7
370
     0
100
AcDbCircle
 10
228.390027774
 20
45.6634998664
 30
0.0
 40
0.4314912001450759
100
AcDbArc
 50
27.8850837497
 51
60.8831993912
  0
ARC
  5
28F
330
1F
100
AcDbEntity
  8
0
  6
Continuous
 62
     7
370
     0
100
AcDbCircle
 10
229.8397264508
 20
46.435558062
 30
0.0
 40
1.301173266867204
100
AcDbArc
 50
165.9701785416
 51
197.6766607319
  0
LINE
  5
290
330
1F
100
AcDbEntity
  8
0
  6
Continuous
 62
     7
370
     0
100
AcDbLine
 10
228.2082165897
 20
48.9493291517
 30
0.0
 11
226.8874864116
 21
49.7117704545
 31
0.0
  0
LINE
  5
291
330
1F
100
AcDbEntity
  8
0
  6
Continuous
 62
     7
370
     0
100
AcDbLine
 10
228.5999877555
 20
46.0404633421
 30
0.0
 11
227.7979430172
 21
46.503473914
 31
0.0
  0
LINE
  5
292
330
1F
100
AcDbEntity
  8
0
  6
Continuous
 62
     7
370
     0
100
AcDbLine
 10
228.5999877555
 20
46.0404633421
 30
0.0
 11
228.7095346071
 21
45.756145684
 31
0.0
  0
OLE2FRAME
  5
293
330
1F
100
AcDbEntity
  8
0
100
AcDbOle2Frame
 70
     2
  3
Paintbrush-Bild
 10
13.8511154363
 20
38.264191557
 30
0.0
 11
51.6290888628
 21
31.9806341108
 31
0.0
 71
     2
 72
     0
 73
     1
 90
    12928
310
80552BED0767C5B32B40DDAF6807D121434000000000000000006FFBDDFB85D0
310
4940DDAF6807D121434000000000000000006FFBDDFB85D04940416F4BD60AFB
310
3F4000000000000000002BED0767C5B32B40416F4BD60AFB3F40000000000000
310
0000000000000100000000010000010000000100000000000100000000320000
310
D0CF11E0A1B11AE1000000000000000000000000000000003E000300FEFF0900
310
0600000000000000000000000100000001000000000000000010000002000000
310
01000000FEFFFFFF0000000000000000FFFFFFFFFFFFFFFFFFFFFFFFFFFFFFFF
310
FFFFFFFFFFFFFFFFFFFFFFFFFFFFFFFFFFFFFFFFFFFFFFFFFFFFFFFFFFFFFFFF
310
FFFFFFFFFFFFFFFFFFFFFFFFFFFFFFFFFFFFFFFFFFFFFFFFFFFFFFFFFFFFFFFF
310
FFFFFFFFFFFFFFFFFFFFFFFFFFFFFFFFFFFFFFFFFFFFFFFFFFFFFFFFFFFFFFFF
310
FFFFFFFFFFFFFFFFFFFFFFFFFFFFFFFFFFFFFFFFFFFFFFFFFFFFFFFFFFFFFFFF
310
FFFFFFFFFFFFFFFFFFFFFFFFFFFFFFFFFFFFFFFFFFFFFFFFFFFFFFFFFFFFFFFF
310
FFFFFFFFFFFFFFFFFFFFFFFFFFFFFFFFFFFFFFFFFFFFFFFFFFFFFFFFFFFFFFFF
310
FFFFFFFFFFFFFFFFFFFFFFFFFFFFFFFFFFFFFFFFFFFFFFFFFFFFFFFFFFFFFFFF
310
FFFFFFFFFFFFFFFFFFFFFFFFFFFFFFFFFFFFFFFFFFFFFFFFFFFFFFFFFFFFFFFF
310
FFFFFFFFFFFFFFFFFFFFFFFFFFFFFFFFFFFFFFFFFFFFFFFFFFFFFFFFFFFFFFFF
310
FFFFFFFFFFFFFFFFFFFFFFFFFFFFFFFFFFFFFFFFFFFFFFFFFFFFFFFFFFFFFFFF
310
FFFFFFFFFFFFFFFFFFFFFFFFFFFFFFFFFFFFFFFFFFFFFFFFFFFFFFFFFFFFFFFF
310
FFFFFFFFFFFFFFFFFFFFFFFFFFFFFFFFFFFFFFFFFFFFFFFFFFFFFFFFFFFFFFFF
310
FFFFFFFFFFFFFFFFFFFFFFFFFFFFFFFFFFFFFFFFFFFFFFFFFFFFFFFFFFFFFFFF
310
FDFFFFFFFEFFFFFFFEFFFFFFFEFFFFFF05000000060000000700000008000000
310
090000000A0000000B0000000C0000000D0000000E0000000F00000010000000
310
11000000120000001300000014000000150000001600000017000000FEFFFFFF
310
FFFFFFFFFFFFFFFFFFFFFFFFFFFFFFFFFFFFFFFFFFFFFFFFFFFFFFFFFFFFFFFF
310
FFFFFFFFFFFFFFFFFFFFFFFFFFFFFFFFFFFFFFFFFFFFFFFFFFFFFFFFFFFFFFFF
310
FFFFFFFFFFFFFFFFFFFFFFFFFFFFFFFFFFFFFFFFFFFFFFFFFFFFFFFFFFFFFFFF
310
FFFFFFFFFFFFFFFFFFFFFFFFFFFFFFFFFFFFFFFFFFFFFFFFFFFFFFFFFFFFFFFF
310
FFFFFFFFFFFFFFFFFFFFFFFFFFFFFFFFFFFFFFFFFFFFFFFFFFFFFFFFFFFFFFFF
310
FFFFFFFFFFFFFFFFFFFFFFFFFFFFFFFFFFFFFFFFFFFFFFFFFFFFFFFFFFFFFFFF
310
FFFFFFFFFFFFFFFFFFFFFFFFFFFFFFFFFFFFFFFFFFFFFFFFFFFFFFFFFFFFFFFF
310
FFFFFFFFFFFFFFFFFFFFFFFFFFFFFFFFFFFFFFFFFFFFFFFFFFFFFFFFFFFFFFFF
310
FFFFFFFFFFFFFFFFFFFFFFFFFFFFFFFFFFFFFFFFFFFFFFFFFFFFFFFFFFFFFFFF
310
FFFFFFFFFFFFFFFFFFFFFFFFFFFFFFFFFFFFFFFFFFFFFFFFFFFFFFFFFFFFFFFF
310
FFFFFFFFFFFFFFFFFFFFFFFFFFFFFFFFFFFFFFFFFFFFFFFFFFFFFFFFFFFFFFFF
310
FFFFFFFFFFFFFFFFFFFFFFFFFFFFFFFFFFFFFFFFFFFFFFFFFFFFFFFFFFFFFFFF
310
FFFFFFFFFFFFFFFFFFFFFFFFFFFFFFFFFFFFFFFFFFFFFFFFFFFFFFFFFFFFFFFF
310
52006F006F007400200045006E00740072007900000000000000000000000000
310
0000000000000000000000000000000000000000000000000000000000000000
310
16000500FFFFFFFFFFFFFFFF020000000A00030000000000C000000000000046
310
00000000000000000000000000D4E1D82225D20103000000C000000000000000
310
01004F006C006500000000000000000000000000000000000000000000000000
310
0000000000000000000000000000000000000000000000000000000000000000
310
0A000200FFFFFFFFFFFFFFFFFFFFFFFF00000000000000000000000000000000
310
0000000000000000000000000000000000000000000000001400000000000000
310
010043006F006D0070004F0062006A0000000000000000000000000000000000
310
0000000000000000000000000000000000000000000000000000000000000000
310
120002010100000003000000FFFFFFFF00000000000000000000000000000000
310
0000000000000000000000000000000000000000010000004D00000000000000
310
01004F006C006500310030004E00610074006900760065000000000000000000
310
0000000000000000000000000000000000000000000000000000000000000000
310
1A000200FFFFFFFFFFFFFFFFFFFFFFFF00000000000000000000000000000000
310
0000000000000000000000000000000000000000040000002426000000000000
310
FEFFFFFF02000000FEFFFFFFFFFFFFFFFFFFFFFFFFFFFFFFFFFFFFFFFFFFFFFF
310
FFFFFFFFFFFFFFFFFFFFFFFFFFFFFFFFFFFFFFFFFFFFFFFFFFFFFFFFFFFFFFFF
310
FFFFFFFFFFFFFFFFFFFFFFFFFFFFFFFFFFFFFFFFFFFFFFFFFFFFFFFFFFFFFFFF
310
FFFFFFFFFFFFFFFFFFFFFFFFFFFFFFFFFFFFFFFFFFFFFFFFFFFFFFFFFFFFFFFF
310
FFFFFFFFFFFFFFFFFFFFFFFFFFFFFFFFFFFFFFFFFFFFFFFFFFFFFFFFFFFFFFFF
310
FFFFFFFFFFFFFFFFFFFFFFFFFFFFFFFFFFFFFFFFFFFFFFFFFFFFFFFFFFFFFFFF
310
FFFFFFFFFFFFFFFFFFFFFFFFFFFFFFFFFFFFFFFFFFFFFFFFFFFFFFFFFFFFFFFF
310
FFFFFFFFFFFFFFFFFFFFFFFFFFFFFFFFFFFFFFFFFFFFFFFFFFFFFFFFFFFFFFFF
310
FFFFFFFFFFFFFFFFFFFFFFFFFFFFFFFFFFFFFFFFFFFFFFFFFFFFFFFFFFFFFFFF
310
FFFFFFFFFFFFFFFFFFFFFFFFFFFFFFFFFFFFFFFFFFFFFFFFFFFFFFFFFFFFFFFF
310
FFFFFFFFFFFFFFFFFFFFFFFFFFFFFFFFFFFFFFFFFFFFFFFFFFFFFFFFFFFFFFFF
310
FFFFFFFFFFFFFFFFFFFFFFFFFFFFFFFFFFFFFFFFFFFFFFFFFFFFFFFFFFFFFFFF
310
FFFFFFFFFFFFFFFFFFFFFFFFFFFFFFFFFFFFFFFFFFFFFFFFFFFFFFFFFFFFFFFF
310
FFFFFFFFFFFFFFFFFFFFFFFFFFFFFFFFFFFFFFFFFFFFFFFFFFFFFFFFFFFFFFFF
310
FFFFFFFFFFFFFFFFFFFFFFFFFFFFFFFFFFFFFFFFFFFFFFFFFFFFFFFFFFFFFFFF
310
FFFFFFFFFFFFFFFFFFFFFFFFFFFFFFFFFFFFFFFFFFFFFFFFFFFFFFFFFFFFFFFF
310
0100000200000000000000000000000000000000000000000000000000000000
310
0000000000000000000000000000000000000000000000000000000000000000
310
0100FEFF030A0000FFFFFFFF0A00030000000000C00000000000004607000000
310
5042727573680007000000504272757368000700000050427275736800F439B2
310
7100000000000000000000000000000000000000000000000000000000000000
310
0000000000000000000000000000000000000000000000000000000000000000
310
0000000000000000000000000000000000000000000000000000000000000000
310
0000000000000000000000000000000000000000000000000000000000000000
310
0000000000000000000000000000000000000000000000000000000000000000
310
0000000000000000000000000000000000000000000000000000000000000000
310
0000000000000000000000000000000000000000000000000000000000000000
310
0000000000000000000000000000000000000000000000000000000000000000
310
0000000000000000000000000000000000000000000000000000000000000000
310
0000000000000000000000000000000000000000000000000000000000000000
310
0000000000000000000000000000000000000000000000000000000000000000
310
0000000000000000000000000000000000000000000000000000000000000000
310
20260000424D0E260000000000003E00000028000000B40200006E0000000100
310
01000000000000000000130B0000130B00000200000002000000000000FFFFFF
310
FFFFFFFFFFFFFFFFFFFFFFFFFFFFFFFFFFFFFFFFFFFFFFFFFFFFFFFFFFFFFFFF
310
FFFFFFFFFFFFFFFFFFFFFFFFFFFFFFFFFFFFFFFFFFFFFFFFFFFFFFFFFFFFFFFF
310
FFFFFFFFFFFFFFFFFFFFFFFFFFFFFFFFFFFFFFFFFFFFFFFFF000FFFFFFFFFFFF
310
FFFFFFFFFFFFFFFFFFFFFFFFFFFFFFFFFFFFFFFFFFFFFFFFFFFFFFFFFFFFFFFF
310
FFFFFFFFFFFFFFFFFFFFFFFFFFFFFFFFFFFFFFFFFFFFFFFFFFFFFFFFFFFFFFFF
310
FFFFFFFFFFFFFFFFFFFFFFFFFFFFFFFFF000FFFFFFFFFFFFFFFFFFFFFFFFFFFF
310
FFFFFFFFFFFFFFFFFFFFFFFFFFFFFFFFFFFFFFFFFFFFFFFFFFFFFFFFFFFFFFFF
310
FFFFFFFFFFFFFFFFFFFFFFFFFFFFFFFFFFFFFFFFFFFFFFFFFFFFFFFFFFFFFFFF
310
FFFFFFFFFFFFFFFFF000FFFFFFFFFFFFFFFFFFFFFFFFFFFFFFFFFFFFFFFFFFFF
310
FFFFFFFFFFFFFFFFFFFFFFFFFFFFFFFFFFFFFFFFFFFFFFFFFFFFFFFFFFFFFFFF
310
FFFFFFFFFFFFFFFFFFFFFFFFFFFFFFFFFFFFFFFFFFFFFFFFFFFFFFFFFFFFFFFF
310
F000FFFFFFFFFFFFFFFFFFFFFFFFFFFFFFFFFFFFFFFFFFFFFFFFFFFFFFFFFFFF
310
FFFFFFFFFFFFFFFFFFFFFFFFFFFFFFFFFFFFFFFFFFFFFFFFFFFFFFFFFFFFFFFF
310
FFFFFFFFFFFFFFFFFFFFFFFFFFFFFFFFFFFFFFFFFFFFFFFFF000FFFFFFFFFFFF
310
FFFFFFFFFFFFFFFFFFFFFFFFFFFFFFFFFFFFFFFFFFFFFFFFFFFFFFFFFFFFFFFF
310
FFFFFFFFFFFFFFFFFFFFFFFFFFFFFFFFFFFFFFFFFFFFFFFFFFFFFFFFFFFFFFFF
310
FFFFFFFFFFFFFFFFFFFFFFFFFFFFFFFFF000FFFFFFFFFFFFFFFFFFFFFFFFFFFF
310
FFFFFFFFFFFFFFFFFFFFFFFFFFFFFFFFFFFFFFFFFFFFFFFFFFFFFFFFFFFFFFFF
310
FFFFFFFFFFFFFFFFFFFFFFFFFFFFFFFFFFFFFFFFFFFFFFFFFFFFFFFFFFFFFFFF
310
FFFFFFFFFFFFFFFFF000FFFFFFFFFFFFFFFFFFFFFFFFFFFFFFFFFFFFFFFFFFFF
310
FFFFFFFFFFFFFFFFFFFFFFFFFFFFFFFFFFFFFFFFFFFFFFFFFFFFFFFFFFFFFFFF
310
FFFFFFFFFFFFFFFFFFFFFFFFFFFFFFFFFFFFFFFFFFFFFFFFFFFFFFFFFFFFFFFF
310
F000FFFFFFFFFFFFFFFFFFFFFFFFFFFFFFFFFFFFFFFFFFFFFFFFFFFFFFFFFFFF
310
FFFFFFFFFFFFFFFFFFFFFFFFFFFFFFFFFFFFFFFFFFFFFFFFFFFFFFFFFFFFFFFF
310
FFFFFFFFFFFFFFFFFFFFFFFFFFFFFFFFFFFFFFFFFFFFFFFFF000FFFFFFFFFFFF
310
FFFFFFFFFFFFFFFFFFFFFFFFFFFFFFFFFFFFFFFFFFFFFFFFFFFFFFFFFFFFFFFF
310
FFFFFFFFFFFFFFFFFFFFFFFFFFFFFFFFFFFFFFFFFFFFFFFFFFFFFFFFFFFFFFFF
310
FFFFFFFFFFFFFFFFFFFFFFFFFFFFFFFFF000FFFFFFFFFFFFFFFFFFFFFFFFFFFF
310
FFFFFFFFFFFFFFFFFFFFFFFFFFFFFFFFFFFFFFFFFFFFFFFFFFFFFFFFFFFFFFFF
310
FFFFFFFFFFFFFFFFFFFFFFFFFFFFFFFFFFFFFFFFFFFFFFFFFFFFFFFFFFFFFFFF
310
FFFFFFFFFFFFFFFFF000FFFFFFFFFFFFFFFFFFFFFFFFFFFFFFFFFFFFFFFFFFFF
310
FFFFFFFFFFFFFFFFFFFFFFFFFFFFFFFFFFFFFFFFFFFFFFFFFFFFFFFFFFFFFFFF
310
FFFFFFFFFFFFFFFFFFFFFFFFFFFFFFFFFFFFFFFFFFFFFFFFFFFFFFFFFFFFFFFF
310
F000FFFFFFFFFFFFFFFFFFFFFFFFFFFFFFFFFFFFFFFFFFFFFFFFFFFFFFFFFFFF
310
FFFFFFFFFFFFFFFFFFFFFFFFFFFFFFFFFFFFFFFFFFFFFFFFFFFFFFFFFFFFFFFF
310
FFFFFFFFFFFFFFFFFFFFFFFFFFFFFFFFFFFFFFFFFFFFFFFFF000FFFFFFFFFFFF
310
FFFFFFFFFFFFFFFFFFFFFFFFFFFFFFFFFFFFFFFFFFFFFFFFFFFFFFFFFFFFFFFF
310
FFFFFFFFFFFFFFFFFFFFFFFFFFFFFFFFFFFFFFFFFFFFFFFFFFFFFFFFFFFFFFFF
310
FFFFFFFFFFFFFFFFFFFFFFFFFFFFFFFFF000FFFFFFFFFFFFFFFFFFFFFFFFFFFF
310
FFFFFFFFFFFFFFFFFFFFFFFFFFFFFFFFFFFFFFFFFFFFFFFFFFFFFFFFFFFFFFFF
310
FFFFFFFFFFFFFFFFFFFFFFFFFFFFFFFFFFFFFFFFFFFFFFFFFFFFFFFFFFFFFFFF
310
FFFFFFFFFFFFFFFFF000FFFFFFFFFFFFFFFFFFFFFFFFFFFFFFFFFFFFFFFFFFFF
310
FFFFFFFFFFFFFFFFFFFFFFFFFFFFFFFFFFFFFFFFFFFFFFFFFFFFFFFFFFFFFFFF
310
FFFFFFFFFFFFFFFFFFFFFFFFFFFFFFFFFFFFFFFFFFFFFFFFFFFFFFFFFFFFFFFF
310
F000FFFFFFFFFFFFFFFFFFFFFFFFFFFFFFFFFFFFFFFFFFFFFFFFFFFFFFFFFFFF
310
FFFFFFFFFFFFFFFFFFFFFFFFFFFFFFFFFFFFFFFFFFFFFFFFFFFFFFFFFFFFFFFF
310
FFFFFFFFFFFFFFFFFFFFFFFFFFFFFFFFFFFFFFFFFFFFFFFFF000FFFFFFFFFFFF
310
FFFFFFFFFFFFFFFFFFFFFFFFFFFFFFFFFFFFFFFFFFFFFFFFFFFFFFFFFFFFFFFF
310
FFFFFFFFFFFFFFFFFFFFFFFFFFFFFFFFFFFFFFFFFFFFFFFFFFFFFFFFFFFFFFFF
310
FFFFFFFFFFFFFFFFFFFFFFFFFFFFFFFFF000FFFFFFFFFFFFFFFFFFFFFFFFFFFF
310
FFFFFFFFFFFFFFFFFFFFFFFFFFFFFFFFFFFFFFFFFFFFFFFFFFFFFFFFFFFFFFFF
310
FFFFFFFFFFFFFFFFFFFFFFFFFFFFFFFFFFFFFFFFFFFFFFFFFFFFFFFFFFFFFFFF
310
FFFFFFFFFFFFFFFFF000FFFFF80003FFFFFFFFFFFFFFFFFFFFFFFFFFFFFFFFFF
310
FFFFF00007FFFFFFFFFF00007FFFFFF800000000000000007FFFFFFFFFFFFFFF
310
FFFFFFFC001FFFFFFFFFFFFFFC001FFFFFFFFFFFFFFFFFFFFFFFFFFE0007FFFF
310
F000FFFF8000007FFFFFFFF8000FFFFFC0007FFFFF80007FFFFF0000007FFFFF
310
FFF8000007FFFFF800000000000000007FFFFFF0001FFFFFFFFFFFC00001FFFF
310
FFFFFFFFC00001FFFFFFFF000000000003FFFFE000007FFFF000FFFE0000000F
310
FFFFFFF0000FFFFF80007FFFFF80007FFFFC0000001FFFFFFFC0000001FFFFF8
310
00000000000000007FFFFFF0001FFFFFFFFFFE0000003FFFFFFFFFFE0000003F
310
FFFFFF000000000003FFFF0000000FFFF000FFF800000003FFFFFFF00007FFFF
310
80007FFFFF80007FFFF000000007FFFFFF000000003FFFF80000000000000000
310
7FFFFFF0001FFFFFFFFFF80000000FFFFFFFFFF80000000FFFFFFF0000000000
310
03FFFC00000003FFF000FFE000000000FFFFFFF00007FFFF80003FFFFF80007F
310
FFC000000001FFFFFC000000001FFFF800000000000000007FFFFFF0001FFFFF
310
FFFFE000000003FFFFFFFFE000000003FFFFFF000000000003FFF000000000FF
310
F000FF80000000007FFFFFF00007FFFF80003FFFFF80007FFF8000000000FFFF
310
F80000000007FFF800000000000000007FFFFFF0001FFFFFFFFFC000000001FF
310
FFFFFFC000000001FFFFFF000000000003FFC0000000007FF000FF0000000000
310
3FFFFFE00007FFFF00003FFFFF80007FFE00000000003FFFF00000000003FFF8
310
00000000000000007FFFFFF0001FFFFFFFFF8000000000FFFFFFFF8000000000
310
FFFFFF000000000003FF80000000003FF000FE00000000001FFFFFE00003FFFF
310
00003FFFFF80007FFC00000000001FFFE00000000001FFF8000001FFFE000000
310
7FFFFFF0001FFFFFFFFE00000000003FFFFFFE00000000003FFFFF0000000000
310
03FF00000000001FF000FC00000000000FFFFFE00003FFFF00001FFFFF80007F
310
F800000000001FFFC00000000000FFF8000001FFFE0000007FFFFFF0001FFFFF
310
FFFC00000000001FFFFFFC00000000001FFFFF000000000003FE00000000000F
310
F000F8000000000007FFFFE00003FFFF00001FFFFF80007FF800000000000FFF
310
800000000000FFF8000001FFFE0000007FFFFFF0001FFFFFFFF800000000000F
310
FFFFF800000000000FFFFF000000000003FC000000000007F000F80000000000
310
03FFFFC00003FFFE00001FFFFF80007FF0000000000007FF0000000000007FF8
310
000001FFFE0000007FFFFFF0001FFFFFFFF0000000000007FFFFF00000000000
310
07FFFF000000000003F8000000000003F000F0000000000003FFFFC00001FFFE
310
00001FFFFF80007FE0000000000007FE0000000000003FF8000001FFFE000000
310
7FFFFFF0001FFFFFFFF0000000000007FFFFF0000000000007FFFF0000000000
310
03F800001F800003F000E00001FFF00001FFFFC00001FFFE00000FFFFF80007F
310
E00001FFE00003FE00001FFF00003FF8000001FFFE0000007FFFFFF0001FFFFF
310
FFE000003E000003FFFFE000003E000003FFFF000000000003F00001FFF80001
310
F000E00007FFFC0001FFFFC00001FFFE00000FFFFF80007FC0000FFFFC0003FC
310
0000FFFFC0001FF8000001FFFE0000007FFFFFF0001FFFFFFFC00003FFE00001
310
FFFFC00003FFE00001FFFF0001FFFFFFFFF00007FFFE0001F000E0000FFFFF00
310
00FFFF800001FFFC00000FFFFF80007FC0001FFFFE0001FC0001FFFFE0001FF8
310
000001FFFE0000007FFFFFF0001FFFFFFF80000FFFF80000FFFF80000FFFF800
310
00FFFF0003FFFFFFFFE0000FFFFF8000F000C0003FFFFF8000FFFF800000FFFC
310
000007FFFF80007F80003FFFFF0001FC0003FFFFF0001FF8000001FFFE000000
310
7FFFFFF0001FFFFFFF80003FFFFE0000FFFF80003FFFFE0000FFFF0003FFFFFF
310
FFE0003FFFFF8000F000C0003FFFFF8000FFFF800000FFFC000007FFFF80007F
310
80007FFFFF8001F80007FFFFF8000FF8000001FFFE0000007FFFFFF0001FFFFF
310
FF00007FFFFF00007FFF00007FFFFF00007FFF0003FFFFFFFFE0003FFFFFC000
310
F000C0007FFFFFC000FFFF000000FFFC000007FFFF80007F8000FFFFFF8000F8
310
000FFFFFF8000FF8000001FFFE0000007FFFFFF0001FFFFFFF0000FFFFFF8000
310
7FFF0000FFFFFF80007FFF0003FFFFFFFFC0007FFFFFC00070008000FFFFFFC0
310
00FFFF000000FFF8000007FFFF80007F8000FFFFFF8000F8000FFFFFF8000FF8
310
000001FFFE0000007FFFFFF0001FFFFFFE0001FFFFFFC0003FFE0001FFFFFFC0
310
003FFF0003FFFFFFFFC0007FFFFFE00070008000FFFFFFC0007FFF0000007FF8
310
000003FFFF80007F0001FFFFFF8000F8000FFFFFF8000FF8000001FFFE000000
310
7FFFFFF0001FFFFFFE0001FFFFFFC0003FFE0001FFFFFFC0003FFF0003FFFFFF
310
FFC000FFFFFFE00070008000FFFFFFC0007FFF0000007FF8000003FFFF80007F
310
0001FFFFFF8000F8001FFFFFF8000FF8000001FFFE0000007FFFFFF0001FFFFF
310
FE0003FFFFFFE0003FFE0003FFFFFFE0003FFF0003FFFFFFFFC000FFFFFFE000
310
70008000FFFFFFC0007FFE0000007FF8000003FFFF80007F0001FFFFFF8000F0
310
001FFFFFF8000FF8000001FFFE0000007FFFFFF0001FFFFFFC0003FFFFFFE000
310
1FFC0003FFFFFFE0001FFF0003FFFFFFFFC000FFFFFFC00070008000FFFFFF80
310
007FFE0000007FF0000003FFFF80007F0001FFFFFF0000F0001FFFFFF8000FF8
310
000001FFFE0000007FFFFFF0001FFFFFFC0007FFFFFFF0001FFC0007FFFFFFF0
310
001FFF0003FFFFFFFFC000FFFFFFC00070008001FFFFFF0000FFFE0000003FF0
310
000001FFFF80007F0001FFFFFF0000F8001FFFFFF0000FF8000001FFFE000000
310
7FFFFFF0001FFFFFFC0007FFFFFFF0001FFC0007FFFFFFF0001FFF0003FFFFFF
310
FFC001FFFFFF80007000FFFFFFFFFE0000FFFE0008003FF0008001FFFF80007F
310
FFFFFFFFFC0000FFFFFFFFFFE0000FF8000001FFFE0000007FFFFFF0001FFFFF
310
F8000FFFFFFFF8000FF8000FFFFFFFF8000FFF0003FFFFFFFFFFFFFFFFFF0000
310
7000FFFFFFFFFC0000FFFC0008003FF0008001FFFF80007FFFFFFFFFF80001FF
310
FFFFFFFF80000FF8000001FFFE0000007FFFFFF0001FFFFFF8000FFFFFFFF800
310
0FF8000FFFFFFFF8000FFF0003FFFFFFFFFFFFFFFFFE0000F000FFFFFFFFE000
310
00FFFC000C003FE000C001FFFF80007FFFFFFFFFC00001FFFFFFFFFE00001FF8
310
000001FFFE0000007FFFFFF0001FFFFFF8000FFFFFFFF8000FF8000FFFFFFFF8
310
000FFF0003FFFFFFFFFFFFFFFFF00000F000FFFFFFFE000001FFFC000C001FE0
310
00C000FFFF80007FFFFFFFFE000001FFFFFFFFE000001FF80FFFFFFFFFFFFFC0
310
7FFFFFF0001FFFFFF8000FFFFFFFF8000FF8000FFFFFFFF8000FFF0003FFFFFF
310
FFFFFFFFFF800000F000FFFFFFC0000001FFFC001C001FE001C000FFFF80007F
310
FFFFFF80000003FFFFFFF80000001FF80FFFFFFFFFFFFFC07FFFFFF0001FFFFF
310
F8001FFFFFFFFC000FF8001FFFFFFFFC000FFF0003FFFFFFFFFFFFFFF0000001
310
F000FFFFF800000001FFF8001C001FE001C000FFFF80007FFFFFF800000003FF
310
FFFF800000003FF80FFFFFFFFFFFFFC07FFFFFF0001FFFFFF8001FFFFFFFFC00
310
0FF8001FFFFFFFFC000FFF0003FFFFFFFFFFFFFE00000001F000FFFFC0000000
310
03FFF8001E001FC001E000FFFF80007FFFFF8000000007FFFFFC000000003FF8
310
0FFFFFFFFFFFFFC07FFFFFF0001FFFFFF8001FFFFFFFFC000FF8001FFFFFFFFC
310
000FFF0003FFFFFFFFFFFFE000000003F000FFFE0000000007FFF8001E000FC0
310
01E0007FFF80007FFFFE0000000007FFFFE0000000007FF80FFFFFFFFFFFFFC0
310
7FFFFFF0001FFFFFF0001FFFFFFFFC0007F0001FFFFFFFFC0007FF0003FFFFFF
310
FFFFFF0000000003F000FFF80000000007FFF8001E000FC003E0007FFF80007F
310
FFF0000000000FFFFF8000000000FFF80FFFFFFFFFFFFFC07FFFFFF0001FFFFF
310
F0001FFFFFFFFC0007F0001FFFFFFFFC0007FF0003FFFFFFFFFFFC0000000007
310
F000FFE0000000000FFFF0003E000FC003E0007FFF80007FFFC0000000001FFF
310
FE0000000001FFF80FFFFFFFFFFFFFC07FFFFFF0001FFFFFF0001FFFFFFFFC00
310
07F0001FFFFFFFFC0007FF0003FFFFFFFFFFF0000000000FF000FFC000000000
310
1FFFF0003F000F8003F0003FFF80007FFF80000000003FFFF80000000003FFF8
310
0FFFFFFFFFFFFFC07FFFFFF0001FFFFFF0001FFFFFFFFC0007F0001FFFFFFFFC
310
0007FF0003FFFFFFFFFFE0000000001FF000FF00000000007FFFF0003F000780
310
03F0003FFF80007FFF00000000007FFFF00000000007FFF80FFFFFFFFFFFFFC0
310
7FFFFFF0001FFFFFF0001FFFFFFFFC0007F0001FFFFFFFFC0007FF0003FFFFFF
310
FFFF80000000007FF000FE0000000000FFFFE0003F00078007F0003FFF80007F
310
FE0000000001FFFFE0000000001FFFF80FFFFFFFFFFFFFC07FFFFFF0001FFFFF
310
F0001FFFFFFFFC0007F0001FFFFFFFFC0007FF0003FFFFFFFFFF0000000000FF
310
F000FC0000000003FFFFE0007F00078007F0003FFF80007FFC0000000007FFFF
310
C0000000007FFFF80FFFFFFFFFFFFFC07FFFFFF0001FFFFFF8001FFFFFFFFC00
310
0FF8001FFFFFFFFC000FFF0003FFFFFFFFFE0000000003FFF000FC000000000F
310
FFFFE0007F80070007F8001FFF80007FF8000000001FFFFF8000000001FFFFF8
310
0FFFFFFFFFFFFFC07FFFFFF0001FFFFFF8001FFFFFFFFC000FF8001FFFFFFFFC
310
000FFF0003FFFFFFFFFC000000000FFFF000F8000000007FFFFFE0007F800700
310
07F8001FFF80007FF000000000FFFFFF800000000FFFFFF80FFFFFFFFFFFFFC0
310
7FFFFFF0001FFFFFF8000FFFFFFFF8000FF8000FFFFFFFF8000FFF0003FFFFFF
310
FFFC000000007FFFF000F800000007FFFFFFC0007F8003000FF8001FFF80007F
310
F000000007FFFFFF000000007FFFFFF80FFFFFFFFFFFFFC07FFFFFF0001FFFFF
310
F8000FFFFFFFF8000FF8000FFFFFFFF8000FFF0003FFFFFFFFF80000000FFFFF
310
F000F0000000FFFFFFFFC000FF8003000FF8001FFF80007FE0000000FFFFFFFF
310
0000000FFFFFFFF8000001FFFE0000007FFFFFF0001FFFFFF8000FFFFFFFF800
310
0FF8000FFFFFFFF8000FFF0003FFFFFFFFF8000000FFFFFFF000F000000FFFFF
310
FFFFC000FFC002000FF8000FFF80007FE000001FFFFFFFFE000001FFFFFFFFF8
310
000001FFFE0000007FFFFFF0001FFFFFF8000FFFFFFFF8000FF8000FFFFFFFF8
310
000FFF0003FFFFFFFFF000001FFFFFFFF000E00000FFFFFFFFFFC000FFC00200
310
0FFC000FFF80007FE00001FFFFFFFFFE00001FFFFFFFFFF8000001FFFE000000
310
7FFFFFF0001FFFFFFC000FFFFFFFF8001FFC000FFFFFFFF8001FFF0003FFFFFF
310
FFF00001FFFFFFFFF000E00007FFFFFFFFFF8000FFC000001FFC000FFF80007F
310
C0000FFFFFFFFFFE0000FFFFFFFFFFF8000001FFFE0000007FFFFFF0001FFFFF
310
FC0007FFFFFFF0001FFC0007FFFFFFF0001FFF0003FFFFFFFFF00007FFFFFFFF
310
F000E0001FFFFFFFFFFF8000FFC000001FFC000FFF80007FC0003FFFFFFFFFFE
310
0001FFFFFFFFFFF8000001FFFE0000007FFFFFF0001FFFFFFC0007FFFFFFF000
310
1FFC0007FFFFFFF0001FFF0003FFFFFFFFF0001FFFFFFFFFF000E0003FFFFF00
310
03FF8001FFE000001FFC0007FF80007FC0007FFFFF0007FC0003FFFFF0003FF8
310
000001FFFE0000007FFFFFF0001FFFFFFC0003FFFFFFE0001FFC0003FFFFFFE0
310
001FFF0003FFFFFFFFF0003FFFFFFFFFF000E0003FFFFF0001FF8001FFE00000
310
1FFE0007FF80007FC0007FFFFE0003FC0007FFFFE0003FF8000001FFFE000000
310
7FFFFFF0001FFFFFFE0003FFFFFFE0003FFE0003FFFFFFE0003FFF0003FFFFFF
310
FFF0003FFFFF8001F000E0003FFFFF0001FF0001FFE000001FFE0007FF80007F
310
C0007FFFFE0003FC0007FFFFE0003FF8000001FFFE0000007FFFFFF0001FFFFF
310
FE0001FFFFFFC0003FFE0001FFFFFFC0003FFF0003FFFFFFFFF0003FFFFF0001
310
F000E0003FFFFF0003FF0001FFE000003FFE0007FF80007FC0007FFFFE0003FC
310
0007FFFFE0003FF8000001FFFE0000007FFFFFF0001FFFFFFF0001FFFFFFC000
310
7FFF0001FFFFFFC0007FFF0003FFFFFFFFF0003FFFFF0001F000E0003FFFFE00
310
03FF0003FFF000003FFE0003FF80007FC0007FFFFC0003FE0007FFFFE0003FF8
310
000001FFFE0000007FFFFFF0001FFFFFFF0000FFFFFF80007FFF0000FFFFFF80
310
007FFF0003FFFFFFFFF0003FFFFF0001F000E0003FFFFE0003FF0003FFF00000
310
3FFF0003FF80007FC0007FFFFC0007FE0007FFFFC0003FF8000001FFFE000000
310
7FFFFFF0001FFFFFFF80007FFFFF0000FFFF80007FFFFF0000FFFF0003FFFFFF
310
FFF0003FFFFF0003F000E0003FFFFC0003FE0003FFF000003FFF0003FF80007F
310
E0003FFFF80007FE0003FFFFC0007FF8000001FFFE0000007FFFFFF0001FFFFF
310
FF80003FFFFE0000FFFF80003FFFFE0000FFFF0003FFFFFFFFF0001FFFFE0003
310
F000F0001FFFF80003FE0003FFF000007FFF0001FF80007FE0003FFFF00007FE
310
0001FFFF80007FF8000001FFFE0000007FFFFFF0001FFFFFFFC0000FFFF80001
310
FFFFC0000FFFF80001FFFF0003FFFFFFFFF0001FFFFC0003F000F0000FFFF000
310
07FE0007FFF800007FFF0001FF80007FE0001FFFE00007FF0000FFFE00007FF8
310
000001FFFE0000007FFFFFF0001FFFFFFFC00003FFE00001FFFFC00003FFE000
310
01FFFF0003FFFFFFFFF8000FFFF80003F000F00003FFC00007FC0007FFF80000
310
7FFF8001FF80007FF00007FF80000FFF00007FF80000FFF8000001FFFE000000
310
7F80000000000001FFE000003E000003FFFFE000003E000003FFFF0003FFFFFF
310
FFF80003FFE00007F000F800000000000FFC0007FFF800007FFF8001FF80007F
310
F000000000000FFF000000000000FFF8000001FFFE0000007F80000000000001
310
FFF0000000000007FFFFF0000000000007FFFF0003FFFFFFFFFC00007E000007
310
F000F800000000000FFC0007FFF80000FFFF8000FF80007FF800000000001FFF
310
800000000001FFF8000001FFFE0000007F80000000000001FFF800000000000F
310
FFFFF800000000000FFFFF0003FFFFFFFFFC00000000000FF000FC0000000000
310
1FFC0007FFFC0000FFFF8000FF80007FF800000000003FFFC00000000001FFF8
310
000001FFFE0000007F80000000000001FFF800000000000FFFFFF80000000000
310
0FFFFF0003FFFFFFFFFE00000000001FF000FE00000000003FF8000FFFFC0000
310
FFFF8000FF80007FFC00000000003FFFC00000000003FFF8000001FFFE000000
310
7F80000000000001FFFC00000000001FFFFFFC00000000001FFFFF0003FFFFFF
310
FFFF00000000001FF000FF00000000003FF8000FFFFC0000FFFFC000FF80007F
310
FE00000000007FFFE00000000007FFF8000001FFFE0000007F80000000000001
310
FFFE00000000003FFFFFFE00000000003FFFFF0003FFFFFFFFFF80000000003F
310
F000FF80000000007FF8000FFFFC0001FFFFC0007F80007FFF0000000000FFFF
310
F0000000000FFFF800000000000000007F80000000000001FFFF8000000000FF
310
FFFFFF8000000000FFFFFF0003FFFFFFFFFFC0000000007FF000FFC000000000
310
FFF8000FFFFE0001FFFFC0007F80007FFF8000000001FFFFF8000000001FFFF8
310
00000000000000007F80000000000001FFFFC000000001FFFFFFFFC000000001
310
FFFFFF0003FFFFFFFFFFE000000000FFF000FFE000000003FFF0001FFFFE0001
310
FFFFC0007F80007FFFC000000007FFFFFE000000003FFFF80000000000000000
310
7F80000000000001FFFFE000000003FFFFFFFFE000000003FFFFFF0003FFFFFF
310
FFFFF000000003FFF000FFF80000000FFFF0001FFFFE0001FFFFE0007F80007F
310
FFF00000000FFFFFFF00000000FFFFF800000000000000007F80000000000001
310
FFFFF80000000FFFFFFFFFF80000000FFFFFFF0003FFFFFFFFFFFC0000000FFF
310
F000FFFE0000003FFFF0001FFFFE0003FFFFE0003F80007FFFFC0000003FFFFF
310
FFC0000003FFFFF800000000000000007F80000000000001FFFFFE0000003FFF
310
FFFFFFFE0000003FFFFFFF0003FFFFFFFFFFFF0000003FFFF000FFFF800000FF
310
FFF0001FFFFF0003FFFFE0003F80007FFFFF000001FFFFFFFFF800001FFFFFF8
310
00000000000000007F80000000000001FFFFFFC00001FFFFFFFFFFFFC00001FF
310
FFFFFF0003FFFFFFFFFFFFC00000FFFFF000FFFFF8000FFFFFFFFFFFFFFFFFFF
310
FFFFFFFFFFFFFFFFFFFFF0001FFFFFFFFFFF0000FFFFFFF80000000000000000
310
7FFFFFFFFFFFFFFFFFFFFFFC001FFFFFFFFFFFFFFC001FFFFFFFFFFFFFFFFFFF
310
FFFFFFFC001FFFFFF000FFFFFFFFFFFFFFFFFFFFFFFFFFFFFFFFFFFFFFFFFFFF
310
FFFFFFFFFFFFFFFFFFFFFFFFFFFFFFFFFFFFFFFFFFFFFFFFFFFFFFFFFFFFFFFF
310
FFFFFFFFFFFFFFFFFFFFFFFFFFFFFFFFFFFFFFFFFFFFFFFFFFFFFFFFFFFFFFFF
310
F000FFFFFFFFFFFFFFFFFFFFFFFFFFFFFFFFFFFFFFFFFFFFFFFFFFFFFFFFFFFF
310
FFFFFFFFFFFFFFFFFFFFFFFFFFFFFFFFFFFFFFFFFFFFFFFFFFFFFFFFFFFFFFFF
310
FFFFFFFFFFFFFFFFFFFFFFFFFFFFFFFFFFFFFFFFFFFFFFFFF000FFFFFFFFFFFF
310
FFFFFFFFFFFFFFFFFFFFFFFFFFFFFFFFFFFFFFFFFFFFFFFFFFFFFFFFFFFFFFFF
310
FFFFFFFFFFFFFFFFFFFFFFFFFFFFFFFFFFFFFFFFFFFFFFFFFFFFFFFFFFFFFFFF
310
FFFFFFFFFFFFFFFFFFFFFFFFFFFFFFFFF000FFFFFFFFFFFFFFFFFFFFFFFFFFFF
310
FFFFFFFFFFFFFFFFFFFFFFFFFFFFFFFFFFFFFFFFFFFFFFFFFFFFFFFFFFFFFFFF
310
FFFFFFFFFFFFFFFFFFFFFFFFFFFFFFFFFFFFFFFFFFFFFFFFFFFFFFFFFFFFFFFF
310
FFFFFFFFFFFFFFFFF000FFFFFFFFFFFFFFFFFFFFFFFFFFFFFFFFFFFFFFFFFFFF
310
FFFFFFFFFFFFFFFFFFFFFFFFFFFFFFFFFFFFFFFFFFFFFFFFFFFFFFFFFFFFFFFF
310
FFFFFFFFFFFFFFFFFFFFFFFFFFFFFFFFFFFFFFFFFFFFFFFFFFFFFFFFFFFFFFFF
310
F000FFFFFFFFFFFFFFFFFFFFFFFFFFFFFFFFFFFFFFFFFFFFFFFFFFFFFFFFFFFF
310
FFFFFFFFFFFFFFFFFFFFFFFFFFFFFFFFFFFFFFFFFFFFFFFFFFFFFFFFFFFFFFFF
310
FFFFFFFFFFFFFFFFFFFFFFFFFFFFFFFFFFFFFFFFFFFFFFFFF000FFFFFFFFFFFF
310
FFFFFFFFFFFFFFFFFFFFFFFFFFFFFFFFFFFFFFFFFFFFFFFFFFFFFFFFFFFFFFFF
310
FFFFFFFFFFFFFFFFFFFFFFFFFFFFFFFFFFFFFFFFFFFFFFFFFFFFFFFFFFFFFFFF
310
FFFFFFFFFFFFFFFFFFFFFFFFFFFFFFFFF000FFFFFFFFFFFFFFFFFFFFFFFFFFFF
310
FFFFFFFFFFFFFFFFFFFFFFFFFFFFFFFFFFFFFFFFFFFFFFFFFFFFFFFFFFFFFFFF
310
FFFFFFFFFFFFFFFFFFFFFFFFFFFFFFFFFFFFFFFFFFFFFFFFFFFFFFFFFFFFFFFF
310
FFFFFFFFFFFFFFFFF000FFFFFFFFFFFFFFFFFFFFFFFFFFFFFFFFFFFFFFFFFFFF
310
FFFFFFFFFFFFFFFFFFFFFFFFFFFFFFFFFFFFFFFFFFFFFFFFFFFFFFFFFFFFFFFF
310
FFFFFFFFFFFFFFFFFFFFFFFFFFFFFFFFFFFFFFFFFFFFFFFFFFFFFFFFFFFFFFFF
310
F000FFFFFFFFFFFFFFFFFFFFFFFFFFFFFFFFFFFFFFFFFFFFFFFFFFFFFFFFFFFF
310
FFFFFFFFFFFFFFFFFFFFFFFFFFFFFFFFFFFFFFFFFFFFFFFFFFFFFFFFFFFFFFFF
310
FFFFFFFFFFFFFFFFFFFFFFFFFFFFFFFFFFFFFFFFFFFFFFFFF000FFFFFFFFFFFF
310
FFFFFFFFFFFFFFFFFFFFFFFFFFFFFFFFFFFFFFFFFFFFFFFFFFFFFFFFFFFFFFFF
310
FFFFFFFFFFFFFFFFFFFFFFFFFFFFFFFFFFFFFFFFFFFFFFFFFFFFFFFFFFFFFFFF
310
FFFFFFFFFFFFFFFFFFFFFFFFFFFFFFFFF000FFFFFFFFFFFFFFFFFFFFFFFFFFFF
310
FFFFFFFFFFFFFFFFFFFFFFFFFFFFFFFFFFFFFFFFFFFFFFFFFFFFFFFFFFFFFFFF
310
FFFFFFFFFFFFFFFFFFFFFFFFFFFFFFFFFFFFFFFFFFFFFFFFFFFFFFFFFFFFFFFF
310
FFFFFFFFFFFFFFFFF000FFFFFFFFFFFFFFFFFFFFFFFFFFFFFFFFFFFFFFFFFFFF
310
FFFFFFFFFFFFFFFFFFFFFFFFFFFFFFFFFFFFFFFFFFFFFFFFFFFFFFFFFFFFFFFF
310
FFFFFFFFFFFFFFFFFFFFFFFFFFFFFFFFFFFFFFFFFFFFFFFFFFFFFFFFFFFFFFFF
310
F000FFFFFFFFFFFFFFFFFFFFFFFFFFFFFFFFFFFFFFFFFFFFFFFFFFFFFFFFFFFF
310
FFFFFFFFFFFFFFFFFFFFFFFFFFFFFFFFFFFFFFFFFFFFFFFFFFFFFFFFFFFFFFFF
310
FFFFFFFFFFFFFFFFFFFFFFFFFFFFFFFFFFFFFFFFFFFFFFFFF000FFFFFFFFFFFF
310
FFFFFFFFFFFFFFFFFFFFFFFFFFFFFFFFFFFFFFFFFFFFFFFFFFFFFFFFFFFFFFFF
310
FFFFFFFFFFFFFFFFFFFFFFFFFFFFFFFFFFFFFFFFFFFFFFFFFFFFFFFFFFFFFFFF
310
FFFFFFFFFFFFFFFFFFFFFFFFFFFFFFFFF000FFFFFFFFFFFFFFFFFFFFFFFFFFFF
310
FFFFFFFFFFFFFFFFFFFFFFFFFFFFFFFFFFFFFFFFFFFFFFFFFFFFFFFFFFFFFFFF
310
FFFFFFFFFFFFFFFFFFFFFFFFFFFFFFFFFFFFFFFFFFFFFFFFFFFFFFFFFFFFFFFF
310
FFFFFFFFFFFFFFFFF000FFFFFFFFFFFFFFFFFFFFFFFFFFFFFFFFFFFFFFFFFFFF
310
FFFFFFFFFFFFFFFFFFFFFFFFFFFFFFFFFFFFFFFFFFFFFFFFFFFFFFFFFFFFFFFF
310
FFFFFFFFFFFFFFFFFFFFFFFFFFFFFFFFFFFFFFFFFFFFFFFFFFFFFFFFFFFFFFFF
310
F000FFFFFFFFFFFFFFFFFFFFFFFFFFFFFFFFFFFFFFFFFFFFFFFFFFFFFFFFFFFF
310
FFFFFFFFFFFFFFFFFFFFFFFFFFFFFFFFFFFFFFFFFFFFFFFFFFFFFFFFFFFFFFFF
310
FFFFFFFFFFFFFFFFFFFFFFFFFFFFFFFFFFFFFFFFFFFFFFFFF000FFFFFFFFFFFF
310
FFFFFFFFFFFFFFFFFFFFFFFFFFFFFFFFFFFFFFFFFFFFFFFFFFFFFFFFFFFFFFFF
310
FFFFFFFFFFFFFFFFFFFFFFFFFFFFFFFFFFFFFFFFFFFFFFFFFFFFFFFFFFFFFFFF
310
FFFFFFFFFFFFFFFFFFFFFFFFFFFFFFFFF000FFFFFFFFFFFFFFFFFFFFFFFFFFFF
310
FFFFFFFFFFFFFFFFFFFFFFFFFFFFFFFFFFFFFFFFFFFFFFFFFFFFFFFFFFFFFFFF
310
FFFFFFFFFFFFFFFFFFFFFFFFFFFFFFFFFFFFFFFFFFFFFFFFFFFFFFFFFFFFFFFF
310
FFFFFFFFFFFFFFFFF000FFFFFFFFFFFFFFFFFFFFFFFFFFFFFFFFFFFFFFFFFFFF
310
FFFFFFFFFFFFFFFFFFFFFFFFFFFFFFFFFFFFFFFFFFFFFFFFFFFFFFFFFFFFFFFF
310
FFFFFFFFFFFFFFFFFFFFFFFFFFFFFFFFFFFFFFFFFFFFFFFFFFFFFFFFFFFFFFFF
310
F000FFFFFFFFFFFFFFFFFFFFFFFFFFFFFFFFFFFFFFFFFFFFFFFFFFFFFFFFFFFF
310
FFFFFFFFFFFFFFFFFFFFFFFFFFFFFFFFFFFFFFFFFFFFFFFFFFFFFFFFFFFFFFFF
310
FFFFFFFFFFFFFFFFFFFFFFFFFFFFFFFFFFFFFFFFFFFFFFFFF000FFFFFFFFFFFF
310
FFFFFFFFFFFFFFFFFFFFFFFFFFFFFFFFFFFFFFFFFFFFFFFFFFFFFFFFFFFFFFFF
310
FFFFFFFFFFFFFFFFFFFFFFFFFFFFFFFFFFFFFFFFFFFFFFFFFFFFFFFFFFFFFFFF
310
FFFFFFFFFFFFFFFFFFFFFFFFFFFFFFFFF0000000000000000000000000000000
310
0000000000000000000000000000000000000000000000000000000000000000
310
0000000000000000000000000000000000000000000000000000000000000000
310
0000000000000000000000000000000000000000000000000000000000000000
310
0000000000000000000000000000000000000000000000000000000000000000
310
0000000000000000000000000000000000000000000000000000000000000000
310
0000000000000000000000000000000000000000000000000000000000000000
310
0000000000000000000000000000000000000000000000000000000000000000
310
0000000000000000000000000000000000000000000000000000000000000000
310
0000000000000000000000000000000000000000000000000000000000000000
310
0000000000000000000000000000000000000000000000000000000000000000
310
0000000000000000000000000000000000000000000000000000000000000000
310
0000000000000000000000000000000000000000000000000000000000000000
310
0000000000000000000000000000000000000000000000000000000000000000
310
0000000000000000000000000000000000000000000000000000000000000000
310
0000000000000000000000000000000000000000000000000000000000000000
  1
OLE
  0
ENDSEC
  0
SECTION
  2
OBJECTS
  0
DICTIONARY
  5
C
330
0
100
AcDbDictionary
281
     1
  3
ACAD_GROUP
350
D
  3
ACAD_LAYOUT
350
1A
  3
ACAD_MLINESTYLE
350
17
  3
ACAD_PLOTSETTINGS
350
19
  3
ACAD_PLOTSTYLENAME
350
E
  3
ACAD_SCALELIST
350
47
  0
DICTIONARY
  5
D
102
{ACAD_REACTORS
330
C
102
}
330
C
100
AcDbDictionary
281
     1
  0
DICTIONARY
  5
1A
102
{ACAD_REACTORS
330
C
102
}
330
C
100
AcDbDictionary
281
     1
  3
Layout1
350
1E
  3
Layout2
350
26
  3
Model
350
22
  0
DICTIONARY
  5
17
102
{ACAD_REACTORS
330
C
102
}
330
C
100
AcDbDictionary
281
     1
  3
Standard
350
18
  0
DICTIONARY
  5
19
102
{ACAD_REACTORS
330
C
102
}
330
C
100
AcDbDictionary
281
     1
  0
ACDBDICTIONARYWDFLT
  5
E
102
{ACAD_REACTORS
330
C
102
}
330
C
100
AcDbDictionary
281
     1
  3
Normal
350
F
100
AcDbDictionaryWithDefault
340
F
  0
DICTIONARY
  5
47
102
{ACAD_REACTORS
330
C
102
}
330
C
100
AcDbDictionary
281
     1
  3
A0
350
48
  3
A1
350
49
  3
A2
350
4A
  3
A3
350
4B
  3
A4
350
4C
  3
A5
350
4D
  3
A6
350
4E
  3
A7
350
4F
  3
A8
350
50
  3
A9
350
51
  3
B0
350
52
  3
B1
350
53
  3
B2
350
54
  3
B3
350
55
  3
B4
350
56
  3
B5
350
57
  3
B6
350
58
  3
B7
350
59
  3
B8
350
5A
  3
B9
350
5B
  3
C0
350
5C
  3
C1
350
5D
  3
C2
350
5E
  3
C3
350
5F
  3
C4
350
60
  3
C5
350
61
  3
C6
350
62
  3
C7
350
63
  3
C8
350
64
  3
C9
350
65
  3
D0
350
66
  3
D1
350
67
  3
D2
350
68
  0
LAYOUT
  5
1E
102
{ACAD_REACTORS
330
1A
102
}
330
1A
100
AcDbPlotSettings
  1

  2
none_device
  4

  6

 40
0.0
 41
0.0
 42
0.0
 43
0.0
 44
0.0
 45
0.0
 46
0.0
 47
0.0
 48
0.0
 49
0.0
140
0.0
141
0.0
142
1.0
143
1.0
 70
   688
 72
     1
 73
     0
 74
     5
  7

 75
    16
147
1.0
148
0.0
149
0.0
100
AcDbLayout
  1
Layout1
 70
     1
 71
     1
 10
0.0
 20
0.0
 11
420.0
 21
297.0
 12
0.0
 22
0.0
 32
0.0
 14
1.0000000000E+20
 24
1.0000000000E+20
 34
1.0000000000E+20
 15
-1.0000000000E+20
 25
-1.0000000000E+20
 35
-1.0000000000E+20
146
0.0
 13
0.0
 23
0.0
 33
0.0
 16
1.0
 26
0.0
 36
0.0
 17
0.0
 27
1.0
 37
0.0
 76
     0
330
1B
  0
LAYOUT
  5
26
102
{ACAD_REACTORS
330
1A
102
}
330
1A
100
AcDbPlotSettings
  1

  2
none_device
  4

  6

 40
0.0
 41
0.0
 42
0.0
 43
0.0
 44
0.0
 45
0.0
 46
0.0
 47
0.0
 48
0.0
 49
0.0
140
0.0
141
0.0
142
1.0
143
1.0
 70
   688
 72
     1
 73
     0
 74
     5
  7

 75
    16
147
1.0
148
0.0
149
0.0
100
AcDbLayout
  1
Layout2
 70
     1
 71
     2
 10
0.0
 20
0.0
 11
0.0
 21
0.0
 12
0.0
 22
0.0
 32
0.0
 14
0.0
 24
0.0
 34
0.0
 15
0.0
 25
0.0
 35
0.0
146
0.0
 13
0.0
 23
0.0
 33
0.0
 16
1.0
 26
0.0
 36
0.0
 17
0.0
 27
1.0
 37
0.0
 76
     0
330
23
  0
LAYOUT
  5
22
102
{ACAD_REACTORS
330
1A
102
}
330
1A
100
AcDbPlotSettings
  1

  2
none_device
  4
Letter_(8.50_x_11.00_Inches)
  6

 40
6.35
 41
6.35
 42
6.35000508
 43
6.35000508
 44
215.9
 45
279.4
 46
0.0
 47
0.0
 48
0.0
 49
0.0
140
0.0
141
0.0
142
1.0
143
1.0
 70
  1712
 72
     1
 73
     0
 74
     0
  7

 75
     0
147
1.0
148
0.0
149
0.0
100
AcDbLayout
  1
Model
 70
     1
 71
     0
 10
0.0
 20
0.0
 11
297.0
 21
210.0
 12
0.0
 22
0.0
 32
0.0
 14
0.0
 24
0.0
 34
0.0
 15
297.0
 25
210.0
 35
0.0
146
0.0
 13
0.0
 23
0.0
 33
0.0
 16
1.0
 26
0.0
 36
0.0
 17
0.0
 27
1.0
 37
0.0
 76
     0
330
1F
331
29
  0
MLINESTYLE
  5
18
102
{ACAD_REACTORS
330
17
102
}
330
17
100
AcDbMlineStyle
  2
Standard
 70
     0
  3

 62
   256
 51
90.0
 52
90.0
 71
     2
 49
0.5
 62
   256
  6
BYLAYER
 49
-0.5
 62
   256
  6
BYLAYER
  0
ACDBPLACEHOLDER
  5
F
102
{ACAD_REACTORS
330
E
102
}
330
E
  0
SCALE
  5
48
102
{ACAD_REACTORS
330
47
102
}
330
47
100
AcDbScale
 70
     0
300
1:1
140
1.0
141
1.0
290
     1
  0
SCALE
  5
49
102
{ACAD_REACTORS
330
47
102
}
330
47
100
AcDbScale
 70
     0
300
1:2
140
1.0
141
2.0
290
     0
  0
SCALE
  5
4A
102
{ACAD_REACTORS
330
47
102
}
330
47
100
AcDbScale
 70
     0
300
1:4
140
1.0
141
4.0
290
     0
  0
SCALE
  5
4B
102
{ACAD_REACTORS
330
47
102
}
330
47
100
AcDbScale
 70
     0
300
1:5
140
1.0
141
5.0
290
     0
  0
SCALE
  5
4C
102
{ACAD_REACTORS
330
47
102
}
330
47
100
AcDbScale
 70
     0
300
1:8
140
1.0
141
8.0
290
     0
  0
SCALE
  5
4D
102
{ACAD_REACTORS
330
47
102
}
330
47
100
AcDbScale
 70
     0
300
1:10
140
1.0
141
10.0
290
     0
  0
SCALE
  5
4E
102
{ACAD_REACTORS
330
47
102
}
330
47
100
AcDbScale
 70
     0
300
1:16
140
1.0
141
16.0
290
     0
  0
SCALE
  5
4F
102
{ACAD_REACTORS
330
47
102
}
330
47
100
AcDbScale
 70
     0
300
1:20
140
1.0
141
20.0
290
     0
  0
SCALE
  5
50
102
{ACAD_REACTORS
330
47
102
}
330
47
100
AcDbScale
 70
     0
300
1:30
140
1.0
141
30.0
290
     0
  0
SCALE
  5
51
102
{ACAD_REACTORS
330
47
102
}
330
47
100
AcDbScale
 70
     0
300
1:40
140
1.0
141
40.0
290
     0
  0
SCALE
  5
52
102
{ACAD_REACTORS
330
47
102
}
330
47
100
AcDbScale
 70
     0
300
1:50
140
1.0
141
50.0
290
     0
  0
SCALE
  5
53
102
{ACAD_REACTORS
330
47
102
}
330
47
100
AcDbScale
 70
     0
300
1:100
140
1.0
141
100.0
290
     0
  0
SCALE
  5
54
102
{ACAD_REACTORS
330
47
102
}
330
47
100
AcDbScale
 70
     0
300
2:1
140
2.0
141
1.0
290
     0
  0
SCALE
  5
55
102
{ACAD_REACTORS
330
47
102
}
330
47
100
AcDbScale
 70
     0
300
4:1
140
4.0
141
1.0
290
     0
  0
SCALE
  5
56
102
{ACAD_REACTORS
330
47
102
}
330
47
100
AcDbScale
 70
     0
300
8:1
140
8.0
141
1.0
290
     0
  0
SCALE
  5
57
102
{ACAD_REACTORS
330
47
102
}
330
47
100
AcDbScale
 70
     0
300
10:1
140
10.0
141
1.0
290
     0
  0
SCALE
  5
58
102
{ACAD_REACTORS
330
47
102
}
330
47
100
AcDbScale
 70
     0
300
100:1
140
100.0
141
1.0
290
     0
  0
SCALE
  5
59
102
{ACAD_REACTORS
330
47
102
}
330
47
100
AcDbScale
 70
     0
300
1/128" = 1'-0"
140
0.0078125
141
12.0
290
     0
  0
SCALE
  5
5A
102
{ACAD_REACTORS
330
47
102
}
330
47
100
AcDbScale
 70
     0
300
1/64" = 1'-0"
140
0.015625
141
12.0
290
     0
  0
SCALE
  5
5B
102
{ACAD_REACTORS
330
47
102
}
330
47
100
AcDbScale
 70
     0
300
1/32" = 1'-0"
140
0.03125
141
12.0
290
     0
  0
SCALE
  5
5C
102
{ACAD_REACTORS
330
47
102
}
330
47
100
AcDbScale
 70
     0
300
1/16" = 1'-0"
140
0.0625
141
12.0
290
     0
  0
SCALE
  5
5D
102
{ACAD_REACTORS
330
47
102
}
330
47
100
AcDbScale
 70
     0
300
3/32" = 1'-0"
140
0.09375
141
12.0
290
     0
  0
SCALE
  5
5E
102
{ACAD_REACTORS
330
47
102
}
330
47
100
AcDbScale
 70
     0
300
1/8" = 1'-0"
140
0.125
141
12.0
290
     0
  0
SCALE
  5
5F
102
{ACAD_REACTORS
330
47
102
}
330
47
100
AcDbScale
 70
     0
300
3/16" = 1'-0"
140
0.1875
141
12.0
290
     0
  0
SCALE
  5
60
102
{ACAD_REACTORS
330
47
102
}
330
47
100
AcDbScale
 70
     0
300
1/4" = 1'-0"
140
0.25
141
12.0
290
     0
  0
SCALE
  5
61
102
{ACAD_REACTORS
330
47
102
}
330
47
100
AcDbScale
 70
     0
300
3/8" = 1'-0"
140
0.375
141
12.0
290
     0
  0
SCALE
  5
62
102
{ACAD_REACTORS
330
47
102
}
330
47
100
AcDbScale
 70
     0
300
1/2" = 1'-0"
140
0.5
141
12.0
290
     0
  0
SCALE
  5
63
102
{ACAD_REACTORS
330
47
102
}
330
47
100
AcDbScale
 70
     0
300
3/4" = 1'-0"
140
0.75
141
12.0
290
     0
  0
SCALE
  5
64
102
{ACAD_REACTORS
330
47
102
}
330
47
100
AcDbScale
 70
     0
300
1" = 1'-0"
140
1.0
141
12.0
290
     0
  0
SCALE
  5
65
102
{ACAD_REACTORS
330
47
102
}
330
47
100
AcDbScale
 70
     0
300
1-1/2" = 1'-0"
140
1.5
141
12.0
290
     0
  0
SCALE
  5
66
102
{ACAD_REACTORS
330
47
102
}
330
47
100
AcDbScale
 70
     0
300
3" = 1'-0"
140
3.0
141
12.0
290
     0
  0
SCALE
  5
67
102
{ACAD_REACTORS
330
47
102
}
330
47
100
AcDbScale
 70
     0
300
6" = 1'-0"
140
6.0
141
12.0
290
     0
  0
SCALE
  5
68
102
{ACAD_REACTORS
330
47
102
}
330
47
100
AcDbScale
 70
     0
300
1'-0" = 1'-0"
140
12.0
141
12.0
290
     0
  0
ENDSEC
  0
EOF
