  0
SECTION
  2
HEADER
  9
$ACADVER
  1
AC1015
  9
$ACADMAINTVER
 70
     6
  9
$DWGCODEPAGE
  3
ANSI_1252
  9
$INSBASE
 10
0.0
 20
0.0
 30
0.0
  9
$EXTMIN
 10
0.0
 20
0.0
 30
0.0
  9
$EXTMAX
 10
297.0
 20
210.0
 30
0.0
  9
$LIMMIN
 10
0.0
 20
0.0
  9
$LIMMAX
 10
297.0
 20
210.0
  9
$ORTHOMODE
 70
     0
  9
$REGENMODE
 70
     1
  9
$FILLMODE
 70
     1
  9
$QTEXTMODE
 70
     0
  9
$MIRRTEXT
 70
     1
  9
$LTSCALE
 40
1.0
  9
$ATTMODE
 70
     1
  9
$TEXTSIZE
 40
2.0
  9
$TRACEWID
 40
1.0
  9
$TEXTSTYLE
  7
Standard
  9
$CLAYER
  8
0
  9
$CELTYPE
  6
ByLayer
  9
$CECOLOR
 62
   256
  9
$CELTSCALE
 40
1.0
  9
$DISPSILH
 70
     0
  9
$DIMSCALE
 40
1.0
  9
$DIMASZ
 40
3.0
  9
$DIMEXO
 40
0.0
  9
$DIMDLI
 40
3.75
  9
$DIMRND
 40
0.0
  9
$DIMDLE
 40
0.0
  9
$DIMEXE
 40
1.0
  9
$DIMTP
 40
0.0
  9
$DIMTM
 40
0.0
  9
$DIMTXT
 40
2.0
  9
$DIMCEN
 40
2.5
  9
$DIMTSZ
 40
0.0
  9
$DIMTOL
 70
     0
  9
$DIMLIM
 70
     0
  9
$DIMTIH
 70
     1
  9
$DIMTOH
 70
     1
  9
$DIMSE1
 70
     0
  9
$DIMSE2
 70
     0
  9
$DIMTAD
 70
     1
  9
$DIMZIN
 70
     0
  9
$DIMBLK
  1

  9
$DIMASO
 70
     1
  9
$DIMSHO
 70
     1
  9
$DIMPOST
  1

  9
$DIMAPOST
  1

  9
$DIMALT
 70
     0
  9
$DIMALTD
 70
     3
  9
$DIMALTF
 40
0.0393700787
  9
$DIMLFAC
 40
2.0
  9
$DIMTOFL
 70
     1
  9
$DIMTVP
 40
0.0
  9
$DIMTIX
 70
     0
  9
$DIMSOXD
 70
     0
  9
$DIMSAH
 70
     0
  9
$DIMBLK1
  1

  9
$DIMBLK2
  1

  9
$DIMSTYLE
  2
ISO-25
  9
$DIMCLRD
 70
     0
  9
$DIMCLRE
 70
     0
  9
$DIMCLRT
 70
     0
  9
$DIMTFAC
 40
1.0
  9
$DIMGAP
 40
1.524
  9
$DIMJUST
 70
     0
  9
$DIMSD1
 70
     0
  9
$DIMSD2
 70
     0
  9
$DIMTOLJ
 70
     0
  9
$DIMTZIN
 70
     0
  9
$DIMALTZ
 70
     0
  9
$DIMALTTZ
 70
     0
  9
$DIMUPT
 70
     0
  9
$DIMDEC
 70
     2
  9
$DIMTDEC
 70
     3
  9
$DIMALTU
 70
     2
  9
$DIMALTTD
 70
     3
  9
$DIMTXSTY
  7
Standard
  9
$DIMAUNIT
 70
     0
  9
$DIMADEC
 70
     2
  9
$DIMALTRND
 40
0.0
  9
$DIMAZIN
 70
     0
  9
$DIMDSEP
 70
    44
  9
$DIMATFIT
 70
     3
  9
$DIMFRAC
 70
     0
  9
$DIMLDRBLK
  1

  9
$DIMLUNIT
 70
     2
  9
$DIMLWD
 70
    -2
  9
$DIMLWE
 70
    -2
  9
$DIMTMOVE
 70
     0
  9
$LUNITS
 70
     2
  9
$LUPREC
 70
     2
  9
$SKETCHINC
 40
1.0
  9
$FILLETRAD
 40
10.0
  9
$AUNITS
 70
     0
  9
$AUPREC
 70
     2
  9
$MENU
  1
.
  9
$ELEVATION
 40
0.0
  9
$PELEVATION
 40
0.0
  9
$THICKNESS
 40
0.0
  9
$LIMCHECK
 70
     0
  9
$CHAMFERA
 40
0.0
  9
$CHAMFERB
 40
0.0
  9
$CHAMFERC
 40
0.0
  9
$CHAMFERD
 40
0.0
  9
$SKPOLY
 70
     0
  9
$TDCREATE
 40
2457675.398755498
  9
$TDUCREATE
 40
2457675.315422164
  9
$TDUPDATE
 40
2457675.398756979
  9
$TDUUPDATE
 40
2457675.315423646
  9
$TDINDWG
 40
0.0000000116
  9
$TDUSRTIMER
 40
0.0000000116
  9
$USRTIMER
 70
     1
  9
$ANGBASE
 50
0.0
  9
$ANGDIR
 70
     0
  9
$PDMODE
 70
     0
  9
$PDSIZE
 40
-1.0
  9
$PLINEWID
 40
0.0
  9
$SPLFRAME
 70
     0
  9
$SPLINETYPE
 70
     6
  9
$SPLINESEGS
 70
     8
  9
$HANDSEED
  5
253
  9
$SURFTAB1
 70
     6
  9
$SURFTAB2
 70
     6
  9
$SURFTYPE
 70
     6
  9
$SURFU
 70
     6
  9
$SURFV
 70
     6
  9
$UCSBASE
  2

  9
$UCSNAME
  2

  9
$UCSORG
 10
0.0
 20
0.0
 30
0.0
  9
$UCSXDIR
 10
1.0
 20
0.0
 30
0.0
  9
$UCSYDIR
 10
0.0
 20
1.0
 30
0.0
  9
$UCSORTHOREF
  2

  9
$UCSORTHOVIEW
 70
     0
  9
$UCSORGTOP
 10
0.0
 20
0.0
 30
0.0
  9
$UCSORGBOTTOM
 10
0.0
 20
0.0
 30
0.0
  9
$UCSORGLEFT
 10
0.0
 20
0.0
 30
0.0
  9
$UCSORGRIGHT
 10
0.0
 20
0.0
 30
0.0
  9
$UCSORGFRONT
 10
0.0
 20
0.0
 30
0.0
  9
$UCSORGBACK
 10
0.0
 20
0.0
 30
0.0
  9
$PUCSBASE
  2

  9
$PUCSNAME
  2

  9
$PUCSORG
 10
0.0
 20
0.0
 30
0.0
  9
$PUCSXDIR
 10
1.0
 20
0.0
 30
0.0
  9
$PUCSYDIR
 10
0.0
 20
1.0
 30
0.0
  9
$PUCSORTHOREF
  2

  9
$PUCSORTHOVIEW
 70
     0
  9
$PUCSORGTOP
 10
0.0
 20
0.0
 30
0.0
  9
$PUCSORGBOTTOM
 10
0.0
 20
0.0
 30
0.0
  9
$PUCSORGLEFT
 10
0.0
 20
0.0
 30
0.0
  9
$PUCSORGRIGHT
 10
0.0
 20
0.0
 30
0.0
  9
$PUCSORGFRONT
 10
0.0
 20
0.0
 30
0.0
  9
$PUCSORGBACK
 10
0.0
 20
0.0
 30
0.0
  9
$USERI1
 70
     0
  9
$USERI2
 70
     0
  9
$USERI3
 70
     0
  9
$USERI4
 70
     0
  9
$USERI5
 70
     0
  9
$USERR1
 40
0.0
  9
$USERR2
 40
0.0
  9
$USERR3
 40
0.0
  9
$USERR4
 40
0.0
  9
$USERR5
 40
0.0
  9
$WORLDVIEW
 70
     1
  9
$SHADEDGE
 70
     3
  9
$SHADEDIF
 70
    70
  9
$TILEMODE
 70
     1
  9
$MAXACTVP
 70
    64
  9
$PINSBASE
 10
0.0
 20
0.0
 30
0.0
  9
$PLIMCHECK
 70
     0
  9
$PEXTMIN
 10
1.0000000000E+20
 20
1.0000000000E+20
 30
1.0000000000E+20
  9
$PEXTMAX
 10
-1.0000000000E+20
 20
-1.0000000000E+20
 30
-1.0000000000E+20
  9
$PLIMMIN
 10
0.0
 20
0.0
  9
$PLIMMAX
 10
420.0
 20
297.0
  9
$UNITMODE
 70
     0
  9
$VISRETAIN
 70
     1
  9
$PLINEGEN
 70
     0
  9
$PSLTSCALE
 70
     1
  9
$TREEDEPTH
 70
  3020
  9
$CMLSTYLE
  2
Standard
  9
$CMLJUST
 70
     0
  9
$CMLSCALE
 40
20.0
  9
$PROXYGRAPHICS
 70
     1
  9
$MEASUREMENT
 70
     1
  9
$CELWEIGHT
370
    -1
  9
$ENDCAPS
280
     0
  9
$JOINSTYLE
280
     0
  9
$LWDISPLAY
290
     1
  9
$INSUNITS
 70
     4
  9
$HYPERLINKBASE
  1

  9
$STYLESHEET
  1

  9
$XEDIT
290
     1
  9
$CEPSNTYPE
380
     0
  9
$PSTYLEMODE
290
     1
  9
$FINGERPRINTGUID
  2
{AA01D6DC-BC86-480D-997C-21839F7FD61B}
  9
$VERSIONGUID
  2
{FAEB1C32-E019-11D5-929B-00C0DF256EC4}
  9
$EXTNAMES
290
     1
  9
$PSVPSCALE
 40
0.0
  9
$OLESTARTUP
290
     0
  0
ENDSEC
  0
SECTION
  2
CLASSES
  0
CLASS
  1
ACDBDICTIONARYWDFLT
  2
AcDbDictionaryWithDefault
  3
ObjectDBX Classes
 90
        0
280
     0
281
     0
  0
CLASS
  1
VISUALSTYLE
  2
AcDbVisualStyle
  3
ObjectDBX Classes
 90
     4095
280
     0
281
     0
  0
CLASS
  1
MATERIAL
  2
AcDbMaterial
  3
ObjectDBX Classes
 90
     1153
280
     0
281
     0
  0
CLASS
  1
SCALE
  2
AcDbScale
  3
ObjectDBX Classes
 90
     1153
280
     0
281
     0
  0
CLASS
  1
TABLESTYLE
  2
AcDbTableStyle
  3
ObjectDBX Classes
 90
     4095
280
     0
281
     0
  0
CLASS
  1
MLEADERSTYLE
  2
AcDbMLeaderStyle
  3
ACDB_MLEADERSTYLE_CLASS
 90
     4095
280
     0
281
     0
  0
CLASS
  1
SUN
  2
AcDbSun
  3
SCENEOE
 90
     1153
280
     0
281
     0
  0
CLASS
  1
ACDBPLACEHOLDER
  2
AcDbPlaceHolder
  3
ObjectDBX Classes
 90
        0
280
     0
281
     0
  0
CLASS
  1
LAYOUT
  2
AcDbLayout
  3
ObjectDBX Classes
 90
        0
280
     0
281
     0
  0
ENDSEC
  0
SECTION
  2
TABLES
  0
TABLE
  2
VPORT
  5
8
330
0
100
AcDbSymbolTable
 70
     1
  0
VPORT
  5
29
330
8
100
AcDbSymbolTableRecord
100
AcDbViewportTableRecord
  2
*Active
 70
     0
 10
0.0
 20
0.0
 11
1.0
 21
1.0
 12
148.5
 22
105.0
 13
0.0
 23
0.0
 14
10.0
 24
10.0
 15
10.0
 25
10.0
 16
0.0
 26
0.0
 36
1.0
 17
0.0
 27
0.0
 37
0.0
 40
210.0
 41
1.4142857143
 42
50.0
 43
0.0
 44
0.0
 50
0.0
 51
0.0
 71
     0
 72
  2000
 73
     1
 74
     3
 75
     0
 76
     0
 77
     0
 78
     0
281
     0
 65
     1
110
0.0
120
0.0
130
0.0
111
1.0
121
0.0
131
0.0
112
0.0
122
1.0
132
0.0
 79
     0
146
0.0
  0
ENDTAB
  0
TABLE
  2
LTYPE
  5
5
330
0
100
AcDbSymbolTable
 70
     6
  0
LTYPE
  5
14
330
5
100
AcDbSymbolTableRecord
100
AcDbLinetypeTableRecord
  2
ByBlock
 70
     0
  3

 72
    65
 73
     0
 40
0.0
  0
LTYPE
  5
15
330
5
100
AcDbSymbolTableRecord
100
AcDbLinetypeTableRecord
  2
ByLayer
 70
     0
  3

 72
    65
 73
     0
 40
0.0
  0
LTYPE
  5
16
330
5
100
AcDbSymbolTableRecord
100
AcDbLinetypeTableRecord
  2
Continuous
 70
     0
  3
Solid line
 72
    65
 73
     0
 40
0.0
  0
LTYPE
  5
6E
330
5
100
AcDbSymbolTableRecord
100
AcDbLinetypeTableRecord
  2
HIDDEN
 70
     0
  3
Hidden __ __ __ __ __ __ __ __ __ __ __ __ __ __
 72
    65
 73
     2
 40
1.905
 49
1.27
 74
     0
 49
-0.635
 74
     0
  0
LTYPE
  5
6F
330
5
100
AcDbSymbolTableRecord
100
AcDbLinetypeTableRecord
  2
PHANTOM
 70
     0
  3
Phantom ______  __  __  ______  __  __  ______
 72
    65
 73
     6
 40
12.7
 49
6.35
 74
     0
 49
-1.27
 74
     0
 49
1.27
 74
     0
 49
-1.27
 74
     0
 49
1.27
 74
     0
 49
-1.27
 74
     0
  0
LTYPE
  5
70
330
5
100
AcDbSymbolTableRecord
100
AcDbLinetypeTableRecord
  2
CENTER
 70
     0
  3
Center ____ _ ____ _ ____ _ ____ _ ____ _ ____
 72
    65
 73
     4
 40
10.16
 49
6.35
 74
     0
 49
-1.27
 74
     0
 49
1.27
 74
     0
 49
-1.27
 74
     0
  0
LTYPE
  5
71
330
5
100
AcDbSymbolTableRecord
100
AcDbLinetypeTableRecord
  2
CENTERX2
 70
     0
  3
Center (2x) ________  __  ________  __  _____
 72
    65
 73
     4
 40
20.32
 49
12.7
 74
     0
 49
-2.54
 74
     0
 49
2.54
 74
     0
 49
-2.54
 74
     0
  0
LTYPE
  5
72
330
5
100
AcDbSymbolTableRecord
100
AcDbLinetypeTableRecord
  2
DOT2
 70
     0
  3
Dot (.5x) ........................................
 72
    65
 73
     2
 40
0.635
 49
0.0
 74
     0
 49
-0.635
 74
     0
  0
ENDTAB
  0
TABLE
  2
LAYER
  5
2
330
0
100
AcDbSymbolTable
 70
     5
  0
LAYER
  5
10
330
2
100
AcDbSymbolTableRecord
100
AcDbLayerTableRecord
  2
0
 70
     0
 62
     7
  6
Continuous
370
    -3
390
F
  0
LAYER
  5
73
330
2
100
AcDbSymbolTableRecord
100
AcDbLayerTableRecord
  2
FORMAT
 70
     0
 62
     7
  6
Continuous
370
    -3
390
F
  0
LAYER
  5
74
330
2
100
AcDbSymbolTableRecord
100
AcDbLayerTableRecord
  2
VERMASSUNG
 70
     0
 62
     7
  6
Continuous
370
    -3
390
F
  0
LAYER
  5
75
330
2
100
AcDbSymbolTableRecord
100
AcDbLayerTableRecord
  2
KOPF_DÜNN
 70
     0
 62
     7
  6
Continuous
370
    -3
390
F
  0
LAYER
  5
76
330
2
100
AcDbSymbolTableRecord
100
AcDbLayerTableRecord
  2
KOPF_DICK
 70
     0
 62
     7
  6
Continuous
370
    15
390
F
  0
ENDTAB
  0
TABLE
  2
STYLE
  5
3
330
0
100
AcDbSymbolTable
 70
     2
  0
STYLE
  5
11
330
3
100
AcDbSymbolTableRecord
100
AcDbTextStyleTableRecord
  2
Standard
 70
     0
 40
0.0
 41
1.0
 50
0.0
 71
     0
 42
2.0
  3
txt
  4

  0
STYLE
  5
77
330
3
100
AcDbSymbolTableRecord
100
AcDbTextStyleTableRecord
  2
SLDTEXTSTYLE0
 70
     0
 40
0.0
 41
0.7
 50
0.0
 71
     0
 42
2.0
  3
TXT
  4

  0
ENDTAB
  0
TABLE
  2
VIEW
  5
6
330
0
100
AcDbSymbolTable
 70
     0
  0
ENDTAB
  0
TABLE
  2
UCS
  5
7
330
0
100
AcDbSymbolTable
 70
     0
  0
ENDTAB
  0
TABLE
  2
APPID
  5
9
330
0
100
AcDbSymbolTable
 70
     1
  0
APPID
  5
12
330
9
100
AcDbSymbolTableRecord
100
AcDbRegAppTableRecord
  2
ACAD
 70
     0
  0
ENDTAB
  0
TABLE
  2
DIMSTYLE
  5
A
330
0
100
AcDbSymbolTable
 70
     2
100
AcDbDimStyleTable
  0
DIMSTYLE
105
27
330
A
100
AcDbSymbolTableRecord
100
AcDbDimStyleTableRecord
  2
ISO-25
 70
     0
 41
2.5
 42
0.625
 43
3.75
 44
1.25
 73
     0
 74
     0
 77
     1
 78
     8
140
2.5
141
2.5
143
0.0393700787
147
0.625
171
     3
172
     1
178
     0
271
     2
272
     2
274
     3
278
    44
283
     0
284
     8
340
11
  0
DIMSTYLE
105
169
102
{ACAD_REACTORS
330
168
330
175
330
180
330
18C
330
196
330
1A0
102
}
330
A
100
AcDbSymbolTableRecord
100
AcDbDimStyleTableRecord
  2
SLDDIMSTYLE0
 70
     0
 41
3.0
 44
0.0
 45
0.000000001
 73
     0
 74
     0
 77
     1
 78
    12
 79
     3
140
2.0
147
0.5
173
     1
178
     0
271
     2
272
     3
276
     2
284
    12
340
77
  0
ENDTAB
  0
TABLE
  2
BLOCK_RECORD
  5
1
330
0
100
AcDbSymbolTable
 70
     7
  0
BLOCK_RECORD
  5
1F
330
1
100
AcDbSymbolTableRecord
100
AcDbBlockTableRecord
  2
*Model_Space
340
22
  0
BLOCK_RECORD
  5
1B
330
1
100
AcDbSymbolTableRecord
100
AcDbBlockTableRecord
  2
*Paper_Space
340
1E
  0
BLOCK_RECORD
  5
23
330
1
100
AcDbSymbolTableRecord
100
AcDbBlockTableRecord
  2
*Paper_Space0
340
26
  0
BLOCK_RECORD
  5
16A
330
1
100
AcDbSymbolTableRecord
100
AcDbBlockTableRecord
  2
_D
340
0
  0
BLOCK_RECORD
  5
176
330
1
100
AcDbSymbolTableRecord
100
AcDbBlockTableRecord
  2
_D_1
340
0
  0
BLOCK_RECORD
  5
181
330
1
100
AcDbSymbolTableRecord
100
AcDbBlockTableRecord
  2
_D_2
340
0
  0
BLOCK_RECORD
  5
18D
330
1
100
AcDbSymbolTableRecord
100
AcDbBlockTableRecord
  2
_D_3
340
0
  0
BLOCK_RECORD
  5
197
330
1
100
AcDbSymbolTableRecord
100
AcDbBlockTableRecord
  2
_D_4
340
0
  0
BLOCK_RECORD
  5
1A1
330
1
100
AcDbSymbolTableRecord
100
AcDbBlockTableRecord
  2
_D_5
340
0
  0
ENDTAB
  0
ENDSEC
  0
SECTION
  2
BLOCKS
  0
BLOCK
  5
20
330
1F
100
AcDbEntity
  8
0
100
AcDbBlockBegin
  2
*Model_Space
 70
     0
 10
0.0
 20
0.0
 30
0.0
  3
*Model_Space
  1

  0
ENDBLK
  5
21
330
1F
100
AcDbEntity
  8
0
100
AcDbBlockEnd
  0
BLOCK
  5
1C
330
1B
100
AcDbEntity
 67
     1
  8
0
100
AcDbBlockBegin
  2
*Paper_Space
 70
     0
 10
0.0
 20
0.0
 30
0.0
  3
*Paper_Space
  1

  0
ENDBLK
  5
1D
330
1B
100
AcDbEntity
 67
     1
  8
0
100
AcDbBlockEnd
  0
BLOCK
  5
24
330
23
100
AcDbEntity
  8
0
100
AcDbBlockBegin
  2
*Paper_Space0
 70
     0
 10
0.0
 20
0.0
 30
0.0
  3
*Paper_Space0
  1

  0
ENDBLK
  5
25
330
23
100
AcDbEntity
  8
0
100
AcDbBlockEnd
  0
BLOCK
  5
16B
330
16A
100
AcDbEntity
  8
0
100
AcDbBlockBegin
  2
_D
 70
     0
 10
0.0
 20
0.0
 30
0.0
  3
_D
  1

  0
SOLID
  5
16D
330
16A
100
AcDbEntity
  8
VERMASSUNG
100
AcDbTrace
 10
109.1122030214
 20
143.6391901619
 30
0.0
 11
108.6622030214
 21
140.6391901619
 31
0.0
 12
109.5622030214
 22
140.6391901619
 32
0.0
 13
109.5622030214
 23
140.6391901619
 33
0.0
  0
SOLID
  5
16E
330
16A
100
AcDbEntity
  8
VERMASSUNG
100
AcDbTrace
 10
109.1122030214
 20
80.6391901619
 30
0.0
 11
109.5622030214
 21
83.6391901619
 31
0.0
 12
108.6622030214
 22
83.6391901619
 32
0.0
 13
108.6622030214
 23
83.6391901619
 33
0.0
  0
LINE
  5
16F
330
16A
100
AcDbEntity
  8
VERMASSUNG
100
AcDbLine
 10
151.4575068638
 20
143.6391901619
 30
0.0
 11
108.1122030214
 21
143.6391901619
 31
0.0
  0
LINE
  5
170
330
16A
100
AcDbEntity
  8
VERMASSUNG
100
AcDbLine
 10
151.4575068638
 20
80.6391901619
 30
0.0
 11
108.1122030214
 21
80.6391901619
 31
0.0
  0
LINE
  5
171
330
16A
100
AcDbEntity
  8
VERMASSUNG
100
AcDbLine
 10
109.1122030214
 20
143.6391901619
 30
0.0
 11
109.1122030214
 21
80.6391901619
 31
0.0
  0
MTEXT
  5
172
330
16A
100
AcDbEntity
  8
VERMASSUNG
100
AcDbMText
 10
106.3340677652
 20
104.4341908641
 30
0.0
 40
2.0
 41
0.0
 71
     1
 72
     1
  1
HSK A
  7
SLDTEXTSTYLE0
 11
-7.044195017643634E-15
 21
1.0
 31
0.0
 73
     1
 44
1.0
  0
MTEXT
  5
173
330
16A
100
AcDbEntity
  8
VERMASSUNG
100
AcDbMText
 10
106.5340677165
 20
113.4341904766
 30
0.0
 40
2.0
 41
0.0
 71
     1
 72
     1
  1
%%c
  7
SLDTEXTSTYLE0
 11
-7.044195017643634E-15
 21
1.0
 31
0.0
 73
     1
 44
1.0
  0
MTEXT
  5
174
330
16A
100
AcDbEntity
  8
VERMASSUNG
100
AcDbMText
 10
106.3340677652
 20
117.044190491
 30
0.0
 40
2.0
 41
0.0
 71
     1
 72
     1
  1
63
  7
SLDTEXTSTYLE0
 11
-7.044195017643634E-15
 21
1.0
 31
0.0
 73
     1
 44
1.0
  0
ENDBLK
  5
16C
330
16A
100
AcDbEntity
  8
0
100
AcDbBlockEnd
  0
BLOCK
  5
177
330
176
100
AcDbEntity
  8
0
100
AcDbBlockBegin
  2
_D_1
 70
     0
 10
0.0
 20
0.0
 30
0.0
  3
_D_1
  1

  0
SOLID
  5
179
330
176
100
AcDbEntity
  8
VERMASSUNG
100
AcDbTrace
 10
201.9771894469
 20
119.1391901619
 30
0.0
 11
201.5271894469
 21
116.1391901619
 31
0.0
 12
202.4271894469
 22
116.1391901619
 32
0.0
 13
202.4271894469
 23
116.1391901619
 33
0.0
  0
SOLID
  5
17A
330
176
100
AcDbEntity
  8
VERMASSUNG
100
AcDbTrace
 10
201.9771894469
 20
105.1391901619
 30
0.0
 11
202.4271894469
 21
108.1391901619
 31
0.0
 12
201.5271894469
 22
108.1391901619
 32
0.0
 13
201.5271894469
 23
108.1391901619
 33
0.0
  0
LINE
  5
17B
330
176
100
AcDbEntity
  8
VERMASSUNG
100
AcDbLine
 10
192.1575068638
 20
119.1391901619
 30
0.0
 11
202.9771894469
 21
119.1391901619
 31
0.0
  0
LINE
  5
17C
330
176
100
AcDbEntity
  8
VERMASSUNG
100
AcDbLine
 10
192.1575068638
 20
105.1391901619
 30
0.0
 11
202.9771894469
 21
105.1391901619
 31
0.0
  0
LINE
  5
17D
330
176
100
AcDbEntity
  8
VERMASSUNG
100
AcDbLine
 10
201.9771894469
 20
119.1391901619
 30
0.0
 11
201.9771894469
 21
105.1391901619
 31
0.0
  0
MTEXT
  5
17E
330
176
100
AcDbEntity
  8
VERMASSUNG
100
AcDbMText
 10
199.399054142
 20
109.0341900348
 30
0.0
 40
2.0
 41
0.0
 71
     1
 72
     1
  1
%%c
  7
SLDTEXTSTYLE0
 11
-7.044195017643634E-15
 21
1.0
 31
0.0
 73
     1
 44
1.0
  0
MTEXT
  5
17F
330
176
100
AcDbEntity
  8
VERMASSUNG
100
AcDbMText
 10
199.1990541907
 20
112.6441900491
 30
0.0
 40
2.0
 41
0.0
 71
     1
 72
     1
  1
14
  7
SLDTEXTSTYLE0
 11
-7.044195017643634E-15
 21
1.0
 31
0.0
 73
     1
 44
1.0
  0
ENDBLK
  5
178
330
176
100
AcDbEntity
  8
0
100
AcDbBlockEnd
  0
BLOCK
  5
182
330
181
100
AcDbEntity
  8
0
100
AcDbBlockBegin
  2
_D_2
 70
     0
 10
0.0
 20
0.0
 30
0.0
  3
_D_2
  1

  0
SOLID
  5
184
330
181
100
AcDbEntity
  8
VERMASSUNG
100
AcDbTrace
 10
208.2771894469
 20
124.6391901619
 30
0.0
 11
207.8271894469
 21
121.6391901619
 31
0.0
 12
208.7271894469
 22
121.6391901619
 32
0.0
 13
208.7271894469
 23
121.6391901619
 33
0.0
  0
SOLID
  5
185
330
181
100
AcDbEntity
  8
VERMASSUNG
100
AcDbTrace
 10
208.2771894469
 20
99.6391901619
 30
0.0
 11
208.7271894469
 21
102.6391901619
 31
0.0
 12
207.8271894469
 22
102.6391901619
 32
0.0
 13
207.8271894469
 23
102.6391901619
 33
0.0
  0
LINE
  5
186
330
181
100
AcDbEntity
  8
VERMASSUNG
100
AcDbLine
 10
192.9575068638
 20
124.6391901619
 30
0.0
 11
209.2771894469
 21
124.6391901619
 31
0.0
  0
LINE
  5
187
330
181
100
AcDbEntity
  8
VERMASSUNG
100
AcDbLine
 10
192.9575068638
 20
99.6391901619
 30
0.0
 11
209.2771894469
 21
99.6391901619
 31
0.0
  0
LINE
  5
188
330
181
100
AcDbEntity
  8
VERMASSUNG
100
AcDbLine
 10
208.2771894469
 20
124.6391901619
 30
0.0
 11
208.2771894469
 21
99.6391901619
 31
0.0
  0
MTEXT
  5
189
330
181
100
AcDbEntity
  8
VERMASSUNG
100
AcDbMText
 10
205.4990541907
 20
107.0341901727
 30
0.0
 40
2.0
 41
0.0
 71
     1
 72
     1
  1
WH
  7
SLDTEXTSTYLE0
 11
-7.044195017643634E-15
 21
1.0
 31
0.0
 73
     1
 44
1.0
  0
MTEXT
  5
18A
330
181
100
AcDbEntity
  8
VERMASSUNG
100
AcDbMText
 10
205.699054142
 20
110.8341902367
 30
0.0
 40
2.0
 41
0.0
 71
     1
 72
     1
  1
%%c
  7
SLDTEXTSTYLE0
 11
-7.044195017643634E-15
 21
1.0
 31
0.0
 73
     1
 44
1.0
  0
MTEXT
  5
18B
330
181
100
AcDbEntity
  8
VERMASSUNG
100
AcDbMText
 10
205.4990541907
 20
114.444190251
 30
0.0
 40
2.0
 41
0.0
 71
     1
 72
     1
  1
25
  7
SLDTEXTSTYLE0
 11
-7.044195017643634E-15
 21
1.0
 31
0.0
 73
     1
 44
1.0
  0
ENDBLK
  5
183
330
181
100
AcDbEntity
  8
0
100
AcDbBlockEnd
  0
BLOCK
  5
18E
330
18D
100
AcDbEntity
  8
0
100
AcDbBlockBegin
  2
_D_3
 70
     0
 10
0.0
 20
0.0
 30
0.0
  3
_D_3
  1

  0
SOLID
  5
190
330
18D
100
AcDbEntity
  8
VERMASSUNG
100
AcDbTrace
 10
193.1575068638
 20
146.4087567975
 30
0.0
 11
190.1575068638
 21
146.8587567975
 31
0.0
 12
190.1575068638
 22
145.9587567975
 32
0.0
 13
190.1575068638
 23
145.9587567975
 33
0.0
  0
SOLID
  5
191
330
18D
100
AcDbEntity
  8
VERMASSUNG
100
AcDbTrace
 10
177.1075068638
 20
146.4087567975
 30
0.0
 11
180.1075068638
 21
145.9587567975
 31
0.0
 12
180.1075068638
 22
146.8587567975
 32
0.0
 13
180.1075068638
 23
146.8587567975
 33
0.0
  0
LINE
  5
192
330
18D
100
AcDbEntity
  8
VERMASSUNG
100
AcDbLine
 10
193.1575068638
 20
124.4391901619
 30
0.0
 11
193.1575068638
 21
147.4087567975
 31
0.0
  0
LINE
  5
193
330
18D
100
AcDbEntity
  8
VERMASSUNG
100
AcDbLine
 10
177.1075068638
 20
141.9856304857
 30
0.0
 11
177.1075068638
 21
147.4087567975
 31
0.0
  0
LINE
  5
194
330
18D
100
AcDbEntity
  8
VERMASSUNG
100
AcDbLine
 10
193.1575068638
 20
146.4087567975
 30
0.0
 11
177.1075068638
 21
146.4087567975
 31
0.0
  0
MTEXT
  5
195
330
18D
100
AcDbEntity
  8
VERMASSUNG
100
AcDbMText
 10
182.2325069007
 20
148.9868923934
 30
0.0
 40
2.0
 41
0.0
 71
     1
 72
     1
  1
16.05
  7
SLDTEXTSTYLE0
 73
     1
 44
1.0
  0
ENDBLK
  5
18F
330
18D
100
AcDbEntity
  8
0
100
AcDbBlockEnd
  0
BLOCK
  5
198
330
197
100
AcDbEntity
  8
0
100
AcDbBlockBegin
  2
_D_4
 70
     0
 10
0.0
 20
0.0
 30
0.0
  3
_D_4
  1

  0
SOLID
  5
19A
330
197
100
AcDbEntity
  8
VERMASSUNG
100
AcDbTrace
 10
193.1575068638
 20
152.4087567975
 30
0.0
 11
190.1575068638
 21
152.8587567975
 31
0.0
 12
190.1575068638
 22
151.9587567975
 32
0.0
 13
190.1575068638
 23
151.9587567975
 33
0.0
  0
SOLID
  5
19B
330
197
100
AcDbEntity
  8
VERMASSUNG
100
AcDbTrace
 10
151.1575068638
 20
152.4087567975
 30
0.0
 11
154.1575068638
 21
151.9587567975
 31
0.0
 12
154.1575068638
 22
152.8587567975
 32
0.0
 13
154.1575068638
 23
152.8587567975
 33
0.0
  0
LINE
  5
19C
330
197
100
AcDbEntity
  8
VERMASSUNG
100
AcDbLine
 10
193.1575068638
 20
124.4391901619
 30
0.0
 11
193.1575068638
 21
153.4087567975
 31
0.0
  0
LINE
  5
19D
330
197
100
AcDbEntity
  8
VERMASSUNG
100
AcDbLine
 10
151.1575068638
 20
143.3391901619
 30
0.0
 11
151.1575068638
 21
153.4087567975
 31
0.0
  0
LINE
  5
19E
330
197
100
AcDbEntity
  8
VERMASSUNG
100
AcDbLine
 10
193.1575068638
 20
152.4087567975
 30
0.0
 11
151.1575068638
 21
152.4087567975
 31
0.0
  0
MTEXT
  5
19F
330
197
100
AcDbEntity
  8
VERMASSUNG
100
AcDbMText
 10
170.6575068507
 20
154.9868923934
 30
0.0
 40
2.0
 41
0.0
 71
     1
 72
     1
  1
42
  7
SLDTEXTSTYLE0
 73
     1
 44
1.0
  0
ENDBLK
  5
199
330
197
100
AcDbEntity
  8
0
100
AcDbBlockEnd
  0
BLOCK
  5
1A2
330
1A1
100
AcDbEntity
  8
0
100
AcDbBlockBegin
  2
_D_5
 70
     0
 10
0.0
 20
0.0
 30
0.0
  3
_D_5
  1

  0
SOLID
  5
1A4
330
1A1
100
AcDbEntity
  8
VERMASSUNG
100
AcDbTrace
 10
193.1575068638
 20
158.4087567975
 30
0.0
 11
190.1575068638
 21
158.8587567975
 31
0.0
 12
190.1575068638
 22
157.9587567975
 32
0.0
 13
190.1575068638
 23
157.9587567975
 33
0.0
  0
SOLID
  5
1A5
330
1A1
100
AcDbEntity
  8
VERMASSUNG
100
AcDbTrace
 10
119.2575068638
 20
158.4087567975
 30
0.0
 11
122.2575068638
 21
157.9587567975
 31
0.0
 12
122.2575068638
 22
158.8587567975
 32
0.0
 13
122.2575068638
 23
158.8587567975
 33
0.0
  0
LINE
  5
1A6
330
1A1
100
AcDbEntity
  8
VERMASSUNG
100
AcDbLine
 10
193.1575068638
 20
124.4391901619
 30
0.0
 11
193.1575068638
 21
159.4087567975
 31
0.0
  0
LINE
  5
1A7
330
1A1
100
AcDbEntity
  8
VERMASSUNG
100
AcDbLine
 10
119.2575068638
 20
131.8298679084
 30
0.0
 11
119.2575068638
 21
159.4087567975
 31
0.0
  0
LINE
  5
1A8
330
1A1
100
AcDbEntity
  8
VERMASSUNG
100
AcDbLine
 10
193.1575068638
 20
158.4087567975
 30
0.0
 11
119.2575068638
 21
158.4087567975
 31
0.0
  0
MTEXT
  5
1A9
330
1A1
100
AcDbEntity
  8
VERMASSUNG
100
AcDbMText
 10
153.8075069826
 20
160.9868923934
 30
0.0
 40
2.0
 41
0.0
 71
     1
 72
     1
  1
73.9
  7
SLDTEXTSTYLE0
 73
     1
 44
1.0
  0
ENDBLK
  5
1A3
330
1A1
100
AcDbEntity
  8
0
100
AcDbBlockEnd
  0
ENDSEC
  0
SECTION
  2
ENTITIES
  0
MTEXT
  5
78
330
1F
100
AcDbEntity
  8
KOPF_DÜNN
100
AcDbMText
 10
13.8892156294
 20
23.8442973028
 30
0.0
 40
3.0
 41
0.0
 71
     1
 72
     1
  1
A44.806.025.042
  7
SLDTEXTSTYLE0
 73
     1
 44
1.0
  0
MTEXT
  5
79
330
1F
100
AcDbEntity
  8
VERMASSUNG
100
AcDbMText
 10
13.9329988022
 20
28.8834360957
 30
0.0
 40
3.0
 41
0.0
 71
     1
 72
     1
  1
Aufnahme Master shank WH25
  7
SLDTEXTSTYLE0
 73
     1
 44
1.0
  0
MTEXT
  5
7A
330
1F
100
AcDbEntity
  8
VERMASSUNG
100
AcDbMText
 10
98.8601118557
 20
13.8365368761
 30
0.0
 40
2.0
 41
0.0
 71
     1
 72
     1
  1
Datum: 25.11.2011
  7
SLDTEXTSTYLE0
 73
     1
 44
1.0
  0
MTEXT
  5
7B
330
1F
100
AcDbEntity
  8
VERMASSUNG
100
AcDbMText
 10
13.933048693
 20
18.0482802738
 30
0.0
 40
2.0
 41
0.0
 71
     1
 72
     1
  1
DIN 69893
  7
SLDTEXTSTYLE0
 73
     1
 44
1.0
  0
MTEXT
  5
7C
330
1F
100
AcDbEntity
  8
VERMASSUNG
100
AcDbMText
 10
13.9808475933
 20
13.9090974274
 30
0.0
 40
2.0
 41
0.0
 71
     1
 72
     1
  1
Gewicht: 679g
  7
SLDTEXTSTYLE0
 73
     1
 44
1.0
  0
ARC
  5
7D
330
1F
100
AcDbEntity
  8
0
  6
Continuous
 62
     7
370
    15
100
AcDbCircle
 10
151.4575068638
 20
80.9391901619
 30
0.0
 40
0.3000000000000114
100
AcDbArc
 50
180.0
 51
270.0
  0
ARC
  5
7E
330
1F
100
AcDbEntity
  8
0
  6
Continuous
 62
     7
370
    15
100
AcDbCircle
 10
151.4575068638
 20
143.3391901619
 30
0.0
 40
0.3000000000000114
100
AcDbArc
 50
90.0
 51
180.0
  0
LINE
  5
7F
330
1F
100
AcDbEntity
  8
0
  6
Continuous
 62
     7
370
    15
100
AcDbLine
 10
151.4575068638
 20
80.6391901619
 30
0.0
 11
156.1075068638
 21
80.6391901619
 31
0.0
  0
LINE
  5
80
330
1F
100
AcDbEntity
  8
0
  6
Continuous
 62
     7
370
    15
100
AcDbLine
 10
156.1117110611
 20
143.6391901619
 30
0.0
 11
151.4575068638
 21
143.6391901619
 31
0.0
  0
ARC
  5
81
330
1F
100
AcDbEntity
  8
0
  6
Continuous
 62
     7
370
    15
100
AcDbCircle
 10
150.6575001111
 20
87.5687525475
 30
0.0
 40
0.6000067526677242
100
AcDbArc
 50
33.5571153394
 51
90.0
  0
ARC
  5
82
330
1F
100
AcDbEntity
  8
0
  6
Continuous
 62
     7
370
    15
100
AcDbCircle
 10
150.6575001111
 20
136.7096277763
 30
0.0
 40
0.6000067526677242
100
AcDbArc
 50
270.0
 51
326.4428846606
  0
LINE
  5
83
330
1F
100
AcDbEntity
  8
0
  6
Continuous
 62
     7
370
    15
100
AcDbLine
 10
137.9259980649
 20
135.796920182
 30
0.0
 11
125.3575068638
 21
135.1672362541
 31
0.0
  0
LINE
  5
84
330
1F
100
AcDbEntity
  8
0
  6
Continuous
 62
     7
370
    15
100
AcDbLine
 10
149.1575068638
 20
136.3596210237
 30
0.0
 11
146.3405052064
 21
136.2184886761
 31
0.0
  0
LINE
  5
85
330
1F
100
AcDbEntity
  8
0
  6
Continuous
 62
     7
370
    15
100
AcDbLine
 10
146.3405612965
 20
88.0598888377
 30
0.0
 11
149.1575068638
 21
87.9187593002
 31
0.0
  0
LINE
  5
86
330
1F
100
AcDbEntity
  8
0
  6
Continuous
 62
     7
370
    15
100
AcDbLine
 10
129.3575068638
 20
88.9107432681
 30
0.0
 11
137.9264005836
 21
88.4814399756
 31
0.0
  0
LINE
  5
87
330
1F
100
AcDbEntity
  8
0
  6
Continuous
 62
     7
370
    15
100
AcDbLine
 10
149.1575068638
 20
87.9187593002
 30
0.0
 11
150.0142196372
 21
88.148314796
 31
0.0
  0
LINE
  5
88
330
1F
100
AcDbEntity
  8
0
  6
Continuous
 62
     7
370
    15
100
AcDbLine
 10
150.0142196372
 20
136.1300655279
 30
0.0
 11
149.1575068638
 21
136.3596210237
 31
0.0
  0
ARC
  5
89
330
1F
100
AcDbEntity
  8
0
  6
Continuous
 62
     7
370
    15
100
AcDbCircle
 10
150.1695110642
 20
87.5687593002
 30
0.0
 40
0.6000000000000085
100
AcDbArc
 50
90.0
 51
105.0
  0
ARC
  5
8A
330
1F
100
AcDbEntity
  8
0
  6
Continuous
 62
     7
370
    15
100
AcDbCircle
 10
150.1695110642
 20
136.7096210237
 30
0.0
 40
0.5999999999999943
100
AcDbArc
 50
255.0
 51
270.0
  0
LINE
  5
8B
330
1F
100
AcDbEntity
  8
0
  6
Continuous
 62
     7
370
    15
100
AcDbLine
 10
150.1695110642
 20
88.1687593002
 30
0.0
 11
150.6575001111
 21
88.1687593002
 31
0.0
  0
LINE
  5
8C
330
1F
100
AcDbEntity
  8
0
  6
Continuous
 62
     7
370
    15
100
AcDbLine
 10
150.6575001111
 20
136.1096210237
 30
0.0
 11
150.1695110642
 21
136.1096210237
 31
0.0
  0
ARC
  5
8D
330
1F
100
AcDbEntity
  8
0
  6
Continuous
 62
     7
370
    15
100
AcDbCircle
 10
180.1075068638
 20
96.6391901619
 30
0.0
 40
3.0
100
AcDbArc
 50
90.0
 51
180.0
  0
ARC
  5
8E
330
1F
100
AcDbEntity
  8
0
  6
Continuous
 62
     7
370
    15
100
AcDbCircle
 10
180.1075068638
 20
127.6391901619
 30
0.0
 40
3.000000000000014
100
AcDbArc
 50
180.0
 51
270.0
  0
LINE
  5
8F
330
1F
100
AcDbEntity
  8
0
  6
Continuous
 62
     7
370
    15
100
AcDbLine
 10
192.9575068638
 20
124.6391901619
 30
0.0
 11
180.1075068638
 21
124.6391901619
 31
0.0
  0
LINE
  5
90
330
1F
100
AcDbEntity
  8
0
  6
Continuous
 62
     7
370
    15
100
AcDbLine
 10
180.1075068638
 20
99.6391901619
 30
0.0
 11
192.9575068638
 21
99.6391901619
 31
0.0
  0
LINE
  5
91
330
1F
100
AcDbEntity
  8
0
  6
Continuous
 62
     7
370
    15
100
AcDbLine
 10
192.9575068638
 20
99.6391901619
 30
0.0
 11
193.1575068638
 21
99.8391901619
 31
0.0
  0
LINE
  5
92
330
1F
100
AcDbEntity
  8
0
  6
Continuous
 62
     7
370
    15
100
AcDbLine
 10
193.1575068638
 20
124.4391901619
 30
0.0
 11
192.9575068638
 21
124.6391901619
 31
0.0
  0
LINE
  5
93
330
1F
100
AcDbEntity
  8
0
  6
Continuous
 62
     7
370
    15
100
AcDbLine
 10
120.5408435038
 20
91.2691901619
 30
0.0
 11
127.9575068638
 21
91.2691901619
 31
0.0
  0
ARC
  5
94
330
1F
100
AcDbEntity
  8
0
  6
Continuous
 62
     7
370
    15
100
AcDbCircle
 10
127.9575068638
 20
89.8691901619
 30
0.0
 40
1.400000000000008
100
AcDbArc
 50
42.2465410162
 51
90.0
  0
LINE
  5
95
330
1F
100
AcDbEntity
  8
0
  6
Continuous
 62
     7
370
    15
100
AcDbLine
 10
119.2686672989
 20
92.4080297268
 30
0.0
 11
120.398670322
 21
91.2780267038
 31
0.0
  0
LINE
  5
96
330
1F
100
AcDbEntity
  8
0
  6
Continuous
 62
     7
370
    15
100
AcDbLine
 10
120.398670322
 20
133.0003536201
 30
0.0
 11
119.2674076372
 21
131.8690909353
 31
0.0
  0
ARC
  5
97
330
1F
100
AcDbEntity
  8
0
  6
Continuous
 62
     7
370
    15
100
AcDbCircle
 10
123.9575068638
 20
134.4091901619
 30
0.0
 40
1.400000000000024
100
AcDbArc
 50
270.0
 51
302.5610026528
  0
LINE
  5
98
330
1F
100
AcDbEntity
  8
0
  6
Continuous
 62
     7
370
    15
100
AcDbLine
 10
123.9575068638
 20
133.0091901619
 30
0.0
 11
120.5483952652
 21
133.0091901619
 31
0.0
  0
SPLINE
  5
99
330
1F
100
AcDbEntity
  8
0
  6
Continuous
 62
     7
370
    15
100
AcDbSpline
210
0.0
220
0.0
230
1.0
 70
    24
 71
     3
 72
    15
 73
    11
 74
     0
 42
0.000000001
 43
0.00000001
 40
0.0
 40
0.0
 40
0.0
 40
0.0
 40
0.1077856237351272
 40
0.2161674856104928
 40
0.3273108670875728
 40
0.4399541010494357
 40
0.593485069403625
 40
0.7521472285997093
 40
0.8755058975744023
 40
1.0
 40
1.0
 40
1.0
 40
1.0
 10
183.6518571491424
 20
109.8751855968143
 30
0.0
 10
183.7259475826738
 20
109.9001496743955
 30
0.0
 10
183.8745382960664
 20
109.9502159234397
 30
0.0
 10
184.1088044050214
 20
110.0291496945065
 30
0.0
 10
184.353742904669
 20
110.1116794276499
 30
0.0
 10
184.6391144847944
 20
110.207832708528
 30
0.0
 10
184.9646705097505
 20
110.3175257616884
 30
0.0
 10
185.2909380094206
 20
110.4274585395894
 30
0.0
 10
185.5840448531484
 20
110.5262181450829
 30
0.0
 10
185.7546660573276
 20
110.5837073616405
 30
0.0
 10
185.8403674741367
 20
110.6125836512782
 30
0.0
  0
SPLINE
  5
9A
330
1F
100
AcDbEntity
  8
0
  6
Continuous
 62
     7
370
    15
100
AcDbSpline
210
0.0
220
0.0
230
1.0
 70
    24
 71
     3
 72
    15
 73
    11
 74
     0
 42
0.000000001
 43
0.00000001
 40
0.0
 40
0.0
 40
0.0
 40
0.0
 40
0.107785623735126
 40
0.2161674856104985
 40
0.3273108670875682
 40
0.4399541010494341
 40
0.593485069403625
 40
0.7521472285997236
 40
0.875505897574403
 40
1.0
 40
1.0
 40
1.0
 40
1.0
 10
185.8403674741367
 20
110.6125836512782
 30
0.0
 10
185.855793165535
 20
110.6892298876844
 30
0.0
 10
185.8867298786867
 20
110.842946344771
 30
0.0
 10
185.9355042822039
 20
111.0852936319051
 30
0.0
 10
185.986500686558
 20
111.3386814615365
 30
0.0
 10
186.045915292723
 20
111.6338971398822
 30
0.0
 10
186.1136963345455
 20
111.9706834544295
 30
0.0
 10
186.1816255060097
 20
112.3082057865235
 30
0.0
 10
186.2426506006485
 20
112.6114235619617
 30
0.0
 10
186.2781740807555
 20
112.7879304674839
 30
0.0
 10
186.2960171887667
 20
112.8765882163997
 30
0.0
  0
SPLINE
  5
9B
330
1F
100
AcDbEntity
  8
0
  6
Continuous
 62
     7
370
    15
100
AcDbSpline
210
0.0
220
0.0
230
1.0
 70
    24
 71
     3
 72
    11
 73
     7
 74
     0
 42
0.000000001
 43
0.00000001
 40
0.0
 40
0.0
 40
0.0
 40
0.0
 40
0.1845133558519298
 40
0.5180565039163946
 40
0.8676122830485047
 40
1.0
 40
1.0
 40
1.0
 40
1.0
 10
186.2960171887667
 20
112.8765882163997
 30
0.0
 10
186.1953811935782
 20
112.9652459910311
 30
0.0
 10
185.9128264072606
 20
113.2141696343006
 30
0.0
 10
185.386151859894
 20
113.6781566325616
 30
0.0
 10
184.8967670789891
 20
114.1092922866803
 30
0.0
 10
184.6350492831628
 20
114.3398590666473
 30
0.0
 10
184.5631565784026
 20
114.4031947270572
 30
0.0
  0
SPLINE
  5
9C
330
1F
100
AcDbEntity
  8
0
  6
Continuous
 62
     7
370
    15
100
AcDbSpline
210
0.0
220
0.0
230
1.0
 70
    24
 71
     3
 72
    11
 73
     7
 74
     0
 42
0.000000001
 43
0.00000001
 40
0.0
 40
0.0
 40
0.0
 40
0.0
 40
0.2164526859271201
 40
0.4403055508633914
 40
0.7518960204222022
 40
1.0
 40
1.0
 40
1.0
 40
1.0
 10
184.5631565784026
 20
114.4031947270572
 30
0.0
 10
184.4132434012667
 20
114.352682886242
 30
0.0
 10
184.1082917497877
 20
114.2499322837258
 30
0.0
 10
183.5423796722883
 20
114.0592535100505
 30
0.0
 10
182.935330093284
 20
113.8547138405736
 30
0.0
 10
182.5468524462077
 20
113.7238199362199
 30
0.0
 10
182.3746462534085
 20
113.6657966725933
 30
0.0
  0
SPLINE
  5
9D
330
1F
100
AcDbEntity
  8
0
  6
Continuous
 62
     7
370
    15
100
AcDbSpline
210
0.0
220
0.0
230
1.0
 70
    24
 71
     3
 72
    11
 73
     7
 74
     0
 42
0.000000001
 43
0.00000001
 40
0.0
 40
0.0
 40
0.0
 40
0.0
 40
0.2164526859271232
 40
0.440305550863397
 40
0.7518960204221764
 40
0.9999999999999999
 40
0.9999999999999999
 40
0.9999999999999999
 40
0.9999999999999999
 10
182.3746462534085
 20
113.6657966725933
 30
0.0
 10
182.3434342021783
 20
113.5107121324239
 30
0.0
 10
182.2799430084721
 20
113.195240954059
 30
0.0
 10
182.1621196316877
 20
112.6098073317984
 30
0.0
 10
182.0357313920342
 20
111.9818171402856
 30
0.0
 10
181.9548500148668
 20
111.5799386769383
 30
0.0
 10
181.9189965387783
 20
111.4017921074718
 30
0.0
  0
SPLINE
  5
9E
330
1F
100
AcDbEntity
  8
0
  6
Continuous
 62
     7
370
    15
100
AcDbSpline
210
0.0
220
0.0
230
1.0
 70
    24
 71
     3
 72
    11
 73
     7
 74
     0
 42
0.000000001
 43
0.00000001
 40
0.0
 40
0.0
 40
0.0
 40
0.0
 40
0.1323877169515041
 40
0.48194349608361
 40
0.8154866441480817
 40
0.9999999999999999
 40
0.9999999999999999
 40
0.9999999999999999
 40
0.9999999999999999
 10
181.9189965387783
 20
111.4017921074718
 30
0.0
 10
181.9908892435385
 20
111.3384564470619
 30
0.0
 10
182.2526070393648
 20
111.1078896670949
 30
0.0
 10
182.7419918202697
 20
110.6767540129761
 30
0.0
 10
183.2686663676363
 20
110.2127670147151
 30
0.0
 10
183.5512211539539
 20
109.9638433714457
 30
0.0
 10
183.6518571491424
 20
109.8751855968143
 30
0.0
  0
CIRCLE
  5
9F
330
1F
100
AcDbEntity
  8
0
  6
Continuous
 62
     7
370
    15
100
AcDbCircle
 10
184.1075068638
 20
112.1391901619
 30
0.0
 40
2.350000000000002
  0
CIRCLE
  5
A0
330
1F
100
AcDbEntity
  8
0
  6
Continuous
 62
     7
370
    15
100
AcDbCircle
 10
184.1075068638
 20
112.1391901619
 30
0.0
 40
3.300000000000009
  0
ARC
  5
A1
330
1F
100
AcDbEntity
  8
0
  6
Continuous
 62
     7
370
    15
100
AcDbCircle
 10
184.1075068638
 20
112.1391901619
 30
0.0
 40
2.000000000000042
100
AcDbArc
 50
228.620761833
 51
288.620761833
  0
ARC
  5
A2
330
1F
100
AcDbEntity
  8
0
  6
Continuous
 62
     7
370
    15
100
AcDbCircle
 10
184.1075068638
 20
112.1391901619
 30
0.0
 40
2.000000000000006
100
AcDbArc
 50
348.620761833
 51
48.620761833
  0
ARC
  5
A3
330
1F
100
AcDbEntity
  8
0
  6
Continuous
 62
     7
370
    15
100
AcDbCircle
 10
184.1075068638
 20
112.1391901619
 30
0.0
 40
2.000000000000042
100
AcDbArc
 50
288.620761833
 51
348.620761833
  0
ARC
  5
A4
330
1F
100
AcDbEntity
  8
0
  6
Continuous
 62
     7
370
    15
100
AcDbCircle
 10
184.1075068638
 20
112.1391901619
 30
0.0
 40
2.000000000000008
100
AcDbArc
 50
168.620761833
 51
228.620761833
  0
ARC
  5
A5
330
1F
100
AcDbEntity
  8
0
  6
Continuous
 62
     7
370
    15
100
AcDbCircle
 10
184.1075068638
 20
112.1391901619
 30
0.0
 40
2.000000000000006
100
AcDbArc
 50
48.620761833
 51
108.620761833
  0
ARC
  5
A6
330
1F
100
AcDbEntity
  8
0
  6
Continuous
 62
     7
370
    15
100
AcDbCircle
 10
184.1075068638
 20
112.1391901619
 30
0.0
 40
1.999999999999992
100
AcDbArc
 50
108.620761833
 51
168.620761833
  0
LINE
  5
A7
330
1F
100
AcDbEntity
  8
0
  6
Continuous
 62
     7
370
    15
100
AcDbLine
 10
177.1075068638
 20
82.5789127613
 30
0.0
 11
177.1075068638
 21
131.9891901619
 31
0.0
  0
SPLINE
  5
A8
330
1F
100
AcDbEntity
  8
0
  6
Continuous
 62
     7
370
    15
100
AcDbSpline
210
0.0
220
0.0
230
1.0
 70
     8
 71
     3
 72
    10
 73
     6
 74
     0
 42
0.000000001
 43
0.00000001
 40
0.0
 40
0.0
 40
0.0
 40
0.0
 40
0.5
 40
0.5
 40
1.0
 40
1.0
 40
1.0
 40
1.0
 10
177.1075068637725
 20
82.57891276134279
 30
0.0
 10
177.1075068637725
 20
82.41902549314912
 30
0.0
 10
177.0461972125367
 20
82.25789823763452
 30
0.0
 10
176.8270975750016
 20
82.0237992392797
 30
0.0
 10
176.6690493686881
 20
81.95227246568847
 30
0.0
 10
176.5075068637725
 20
81.95227246568847
 30
0.0
  0
SPLINE
  5
A9
330
1F
100
AcDbEntity
  8
0
  6
Continuous
 62
     7
370
    15
100
AcDbSpline
210
0.0
220
0.0
230
1.0
 70
    24
 71
     3
 72
    12
 73
     8
 74
     0
 42
0.000000001
 43
0.00000001
 40
0.0
 40
0.0
 40
0.0
 40
0.0
 40
0.2500000000000033
 40
0.2500000000000033
 40
0.5000000000000067
 40
0.5000000000000067
 40
1.0
 40
1.0
 40
1.0
 40
1.0
 10
176.5075068637725
 20
131.9891901619356
 30
0.0
 10
176.5977459314596
 20
131.9891901619356
 30
0.0
 10
176.6886440455661
 20
131.9891901619356
 30
0.0
 10
176.8432410820546
 20
131.9891901619356
 30
0.0
 10
176.9082194981627
 20
131.9891901619356
 30
0.0
 10
177.0600545260989
 20
131.9891901619356
 30
0.0
 10
177.1075068637725
 20
131.9891901619356
 30
0.0
 10
177.1075068637725
 20
131.9891901619356
 30
0.0
  0
LINE
  5
AA
330
1F
100
AcDbEntity
  8
0
  6
Continuous
 62
     7
370
    15
100
AcDbLine
 10
151.1575068638
 20
80.9391901619
 30
0.0
 11
151.1575068638
 21
143.3391901587
 31
0.0
  0
LINE
  5
AB
330
1F
100
AcDbEntity
  8
0
  6
Continuous
 62
     7
370
    15
100
AcDbLine
 10
172.5494396953
 20
81.9522724657
 30
0.0
 11
172.5494396953
 21
131.9891901619
 31
0.0
  0
SPLINE
  5
AC
330
1F
100
AcDbEntity
  8
0
  6
Continuous
 62
     7
370
    15
100
AcDbSpline
210
0.0
220
0.0
230
1.0
 70
     8
 71
     3
 72
     8
 73
     4
 74
     0
 42
0.000000001
 43
0.00000001
 40
0.0
 40
0.0
 40
0.0
 40
0.0
 40
1.0
 40
1.0
 40
1.0
 40
1.0
 10
172.5494396952616
 20
81.95227246568847
 30
0.0
 10
172.0539600345958
 20
82.84779855362181
 30
0.0
 10
171.5598459865537
 20
83.74408296867406
 30
0.0
 10
171.0675068637725
 20
84.64135300288075
 30
0.0
  0
LINE
  5
AD
330
1F
100
AcDbEntity
  8
0
  6
Continuous
 62
     7
370
    15
100
AcDbLine
 10
171.0675068638
 20
84.6413530029
 30
0.0
 11
171.0675068638
 21
131.9891901619
 31
0.0
  0
SPLINE
  5
AE
330
1F
100
AcDbEntity
  8
0
  6
Continuous
 62
     7
370
    15
100
AcDbSpline
210
0.0
220
0.0
230
1.0
 70
    24
 71
     3
 72
     8
 73
     4
 74
     0
 42
0.000000001
 43
0.00000001
 40
0.0
 40
0.0
 40
0.0
 40
0.0
 40
1.0
 40
1.0
 40
1.0
 40
1.0
 10
171.0675068637725
 20
131.9891901619356
 30
0.0
 10
171.5474588581374
 20
131.9891901619356
 30
0.0
 10
172.042759587111
 20
131.9891901619356
 30
0.0
 10
172.5494396952616
 20
131.9891901619356
 30
0.0
  0
LINE
  5
AF
330
1F
100
AcDbEntity
  8
0
  6
Continuous
 62
     7
370
    15
100
AcDbLine
 10
156.1075068638
 20
131.9891901619
 30
0.0
 11
165.7655740323
 21
131.9891901619
 31
0.0
  0
LINE
  5
B0
330
1F
100
AcDbEntity
  8
0
  6
Continuous
 62
     7
370
    15
100
AcDbLine
 10
165.7655740323
 20
81.9522724657
 30
0.0
 11
165.7655740323
 21
131.9891901619
 31
0.0
  0
LINE
  5
B1
330
1F
100
AcDbEntity
  8
0
  6
Continuous
 62
     7
370
    15
100
AcDbLine
 10
165.7655740323
 20
81.9522724657
 30
0.0
 11
164.1075068638
 21
81.9522724657
 31
0.0
  0
SPLINE
  5
B2
330
1F
100
AcDbEntity
  8
0
  6
Continuous
 62
     7
370
    15
100
AcDbSpline
210
0.0
220
0.0
230
1.0
 70
     8
 71
     3
 72
    28
 73
    24
 74
     0
 42
0.000000001
 43
0.00000001
 40
0.0
 40
0.0
 40
0.0
 40
0.0
 40
0.1250000000000001
 40
0.1250000000000001
 40
0.1875000000000001
 40
0.1875000000000001
 40
0.2500000000000001
 40
0.2500000000000001
 40
0.3749999999999999
 40
0.3749999999999999
 40
0.4375
 40
0.4375
 40
0.4999999999999999
 40
0.4999999999999999
 40
0.6249999999999999
 40
0.6249999999999999
 40
0.7499999999999997
 40
0.7499999999999997
 40
0.8124999999999998
 40
0.8124999999999998
 40
0.8749999999999998
 40
0.8749999999999998
 40
1.0
 40
1.0
 40
1.0
 40
1.0
 10
164.1075068637725
 20
81.95227246568847
 30
0.0
 10
163.5757991062796
 20
81.95227246568848
 30
0.0
 10
163.0535605409692
 20
81.93648775173826
 30
0.0
 10
162.2836900546943
 20
81.89149233766204
 30
0.0
 10
162.0293304825029
 20
81.87293734258633
 30
0.0
 10
161.5252089018044
 20
81.82908462013981
 30
0.0
 10
161.2754860843765
 20
81.80374001318762
 30
0.0
 10
160.5498961329301
 20
81.72033793543751
 30
0.0
 10
160.0915358713485
 20
81.65447237628642
 30
0.0
 10
159.4410379279546
 20
81.54550203579464
 30
0.0
 10
159.2293558771622
 20
81.50726240002798
 30
0.0
 10
158.8252843880242
 20
81.42950366260862
 30
0.0
 10
158.6327778742033
 20
81.39000270043329
 30
0.0
 10
158.082942903182
 20
81.27109495806728
 30
0.0
 10
157.7530141248733
 20
81.19127727664268
 30
0.0
 10
157.1685428563046
 20
81.0379341148466
 30
0.0
 10
156.9222657182911
 20
80.96660036157735
 30
0.0
 10
156.622422925593
 20
80.87265685450274
 30
0.0
 10
156.5339660685209
 20
80.8434630611428
 30
0.0
 10
156.3806047152157
 20
80.7899964868794
 30
0.0
 10
156.3155165009895
 20
80.76563715260421
 30
0.0
 10
156.1599224850487
 20
80.70204700715946
 30
0.0
 10
156.1075068637725
 20
80.6719440720702
 30
0.0
 10
156.1075068637725
 20
80.65506717907331
 30
0.0
  0
LINE
  5
B3
330
1F
100
AcDbEntity
  8
0
  6
Continuous
 62
     7
370
    15
100
AcDbLine
 10
156.1075068638
 20
80.6550671791
 30
0.0
 11
156.1075068638
 21
80.6391901619
 31
0.0
  0
SPLINE
  5
B4
330
1F
100
AcDbEntity
  8
0
  6
Continuous
 62
     7
370
    15
100
AcDbSpline
210
0.0
220
0.0
230
1.0
 70
     8
 71
     3
 72
    22
 73
    18
 74
     0
 42
0.000000001
 43
0.00000001
 40
0.0
 40
0.0
 40
0.0
 40
0.0
 40
0.1034278614790506
 40
0.1565252440923471
 40
0.2100169463638945
 40
0.31379014536639
 40
0.3664363657589828
 40
0.4198150504750763
 40
0.525711875765202
 40
0.579439474929512
 40
0.6339287133572805
 40
0.687254463057621
 40
0.7409599762651212
 40
0.7958811174573427
 40
0.8512307557551465
 40
0.9563076756279935
 40
1.0
 40
1.0
 40
1.0
 40
1.0
 10
164.1075068637725
 20
142.6063856350999
 30
0.0
 10
163.6721331281922
 20
142.6115919634186
 30
0.0
 10
163.0132489623728
 20
142.6194710957844
 30
0.0
 10
162.1492095258695
 20
142.6671846168018
 30
0.0
 10
161.3029163404641
 20
142.7301090910273
 30
0.0
 10
160.4940948586694
 20
142.8158349706032
 30
0.0
 10
159.7398202218508
 20
142.916216374693
 30
0.0
 10
159.018593796391
 20
143.0250067323421
 30
0.0
 10
158.3611451201645
 20
143.1411525051984
 30
0.0
 10
157.7834029009343
 20
143.2549272081447
 30
0.0
 10
157.3920866796677
 20
143.3370091829678
 30
0.0
 10
157.0482509957553
 20
143.4130024902491
 30
0.0
 10
156.7532662176129
 20
143.4810438943813
 30
0.0
 10
156.5075632033082
 20
143.5397352402019
 30
0.0
 10
156.2608208608851
 20
143.6003008637609
 30
0.0
 10
156.1215061331017
 20
143.6356383824424
 30
0.0
 10
156.1139347230653
 20
143.6375592630346
 30
0.0
 10
156.1117110611455
 20
143.638123410136
 30
0.0
  0
LINE
  5
B5
330
1F
100
AcDbEntity
  8
0
  6
Continuous
 62
     7
370
    15
100
AcDbLine
 10
165.7655740323
 20
142.6063856351
 30
0.0
 11
164.1075068638
 21
142.6063856351
 31
0.0
  0
LINE
  5
B6
330
1F
100
AcDbEntity
  8
0
  6
Continuous
 62
     7
370
    15
100
AcDbLine
 10
165.7655740323
 20
136.5978798243
 30
0.0
 11
165.7655740323
 21
142.6063856351
 31
0.0
  0
LINE
  5
B7
330
1F
100
AcDbEntity
  8
0
  6
Continuous
 62
     7
370
    15
100
AcDbLine
 10
163.3531272095
 20
136.5978798243
 30
0.0
 11
165.7655740323
 21
136.5978798243
 31
0.0
  0
SPLINE
  5
B8
330
1F
100
AcDbEntity
  8
0
  6
Continuous
 62
     7
370
    15
100
AcDbSpline
210
0.0
220
0.0
230
1.0
 70
     8
 71
     3
 72
    20
 73
    16
 74
     0
 42
0.000000001
 43
0.00000001
 40
0.0
 40
0.0
 40
0.0
 40
0.0
 40
0.2499999999999997
 40
0.2499999999999997
 40
0.3749999999999997
 40
0.3749999999999997
 40
0.4999999999999998
 40
0.4999999999999998
 40
0.6249999999999998
 40
0.6249999999999998
 40
0.7499999999999999
 40
0.7499999999999999
 40
0.8749999999999999
 40
0.8749999999999999
 40
1.0
 40
1.0
 40
1.0
 40
1.0
 10
156.1075068637725
 20
131.9891901619356
 30
0.0
 10
156.3558805980606
 20
132.6430525902331
 30
0.0
 10
156.6754506904058
 20
133.2468383722302
 30
0.0
 10
157.2977569236105
 20
134.0736771083988
 30
0.0
 10
157.5291811840413
 20
134.3361057463517
 30
0.0
 10
158.050395523691
 20
134.8327684004567
 30
0.0
 10
158.3370160063261
 20
135.0633552794782
 30
0.0
 10
158.9565007476337
 20
135.4799095040608
 30
0.0
 10
159.2908011271206
 20
135.6674073060284
 30
0.0
 10
160.0160615997454
 20
135.9988042836648
 30
0.0
 10
160.3979766571359
 20
136.13830827116
 30
0.0
 10
161.1927648333076
 20
136.363761778631
 30
0.0
 10
161.606923027514
 20
136.4503878901746
 30
0.0
 10
162.4724693680954
 20
136.5683686790287
 30
0.0
 10
162.9103569831072
 20
136.5978798243031
 30
0.0
 10
163.3531272094618
 20
136.5978798243031
 30
0.0
  0
LINE
  5
B9
330
1F
100
AcDbEntity
  8
0
  6
Continuous
 62
     7
370
    15
100
AcDbLine
 10
176.5075068638
 20
81.9522724657
 30
0.0
 11
172.5494396953
 21
81.9522724657
 31
0.0
  0
LINE
  5
BA
330
1F
100
AcDbEntity
  8
0
  6
Continuous
 62
     7
370
    15
100
AcDbLine
 10
172.5494396953
 20
131.9891901619
 30
0.0
 11
176.5075068638
 21
131.9891901619
 31
0.0
  0
LINE
  5
BB
330
1F
100
AcDbEntity
  8
0
  6
Continuous
 62
     7
370
    15
100
AcDbLine
 10
167.2475068638
 20
84.6413530029
 30
0.0
 11
167.2475068638
 21
131.9891901619
 31
0.0
  0
SPLINE
  5
BC
330
1F
100
AcDbEntity
  8
0
  6
Continuous
 62
     7
370
    15
100
AcDbSpline
210
0.0
220
0.0
230
1.0
 70
     8
 71
     3
 72
     8
 73
     4
 74
     0
 42
0.000000001
 43
0.00000001
 40
0.0
 40
0.0
 40
0.0
 40
0.0
 40
1.0
 40
1.0
 40
1.0
 40
1.0
 10
167.2475068637725
 20
84.64135300288076
 30
0.0
 10
166.7551677409913
 20
83.74408296867406
 30
0.0
 10
166.2610536929492
 20
82.84779855362181
 30
0.0
 10
165.7655740322835
 20
81.95227246568847
 30
0.0
  0
SPLINE
  5
BD
330
1F
100
AcDbEntity
  8
0
  6
Continuous
 62
     7
370
    15
100
AcDbSpline
210
0.0
220
0.0
230
1.0
 70
    24
 71
     3
 72
     8
 73
     4
 74
     0
 42
0.000000001
 43
0.00000001
 40
0.0
 40
0.0
 40
0.0
 40
0.0
 40
1.0
 40
1.0
 40
1.0
 40
1.0
 10
165.7655740322835
 20
131.9891901619356
 30
0.0
 10
166.272254140434
 20
131.9891901619356
 30
0.0
 10
166.7675548694076
 20
131.9891901619356
 30
0.0
 10
167.2475068637725
 20
131.9891901619356
 30
0.0
  0
SPLINE
  5
BE
330
1F
100
AcDbEntity
  8
0
  6
Continuous
 62
     7
370
    15
100
AcDbSpline
210
0.0
220
0.0
230
1.0
 70
    24
 71
     3
 72
    14
 73
    10
 74
     0
 42
0.000000001
 43
0.00000001
 40
0.0
 40
0.0
 40
0.0
 40
0.0
 40
0.5000000000000022
 40
0.5000000000000022
 40
0.7500000000000008
 40
0.7500000000000008
 40
0.8750000000000004
 40
0.8750000000000004
 40
1.0
 40
1.0
 40
1.0
 40
1.0
 10
170.9698320614402
 20
85.73919016193562
 30
0.0
 10
170.9226219022104
 20
85.73919016193562
 30
0.0
 10
170.8593874286668
 20
85.73919016193564
 30
0.0
 10
170.7155754979389
 20
85.73919016193564
 30
0.0
 10
170.6602504234624
 20
85.73919016193564
 30
0.0
 10
170.5483392502274
 20
85.73919016193564
 30
0.0
 10
170.5055521637864
 20
85.73919016193562
 30
0.0
 10
170.4011868307528
 20
85.73919016193562
 30
0.0
 10
170.336963036451
 20
85.73919016193562
 30
0.0
 10
170.267506863828
 20
85.73919016193562
 30
0.0
  0
SPLINE
  5
BF
330
1F
100
AcDbEntity
  8
0
  6
Continuous
 62
     7
370
    15
100
AcDbSpline
210
0.0
220
0.0
230
1.0
 70
    24
 71
     3
 72
    12
 73
     8
 74
     0
 42
0.000000001
 43
0.00000001
 40
0.0
 40
0.0
 40
0.0
 40
0.0
 40
0.4999999999999983
 40
0.4999999999999983
 40
0.7499999999999991
 40
0.7499999999999991
 40
1.0
 40
1.0
 40
1.0
 40
1.0
 10
170.6732093320818
 20
138.5391901619356
 30
0.0
 10
170.6297711442788
 20
138.5391901619356
 30
0.0
 10
170.5805768959808
 20
138.5391901619356
 30
0.0
 10
170.4838581385997
 20
138.5391901619356
 30
0.0
 10
170.4476706570981
 20
138.5391901619356
 30
0.0
 10
170.3647927985733
 20
138.5391901619356
 30
0.0
 10
170.3168393512666
 20
138.5391901619356
 30
0.0
 10
170.2675068637725
 20
138.5391901619356
 30
0.0
  0
SPLINE
  5
C0
330
1F
100
AcDbEntity
  8
0
  6
Continuous
 62
     7
370
    15
100
AcDbSpline
210
0.0
220
0.0
230
1.0
 70
     8
 71
     3
 72
    10
 73
     6
 74
     0
 42
0.000000001
 43
0.00000001
 40
0.0
 40
0.0
 40
0.0
 40
0.0
 40
0.5
 40
0.5
 40
1.0
 40
1.0
 40
1.0
 40
1.0
 10
171.0675068637725
 20
139.2588440129714
 30
0.0
 10
171.0675068637725
 20
139.1150739551536
 30
0.0
 10
171.0314578050537
 20
138.9726545926587
 30
0.0
 10
170.8959489442801
 20
138.7227602993017
 30
0.0
 10
170.7960729511843
 20
138.6147299630536
 30
0.0
 10
170.6732093320826
 20
138.5391901619363
 30
0.0
  0
SPLINE
  5
C1
330
1F
100
AcDbEntity
  8
0
  6
Continuous
 62
     7
370
    15
100
AcDbSpline
210
0.0
220
0.0
230
1.0
 70
     8
 71
     3
 72
     9
 73
     5
 74
     0
 42
0.000000001
 43
0.00000001
 40
0.0
 40
0.0
 40
0.0
 40
0.0
 40
0.5
 40
1.0
 40
1.0
 40
1.0
 40
1.0
 10
171.0413592406124
 20
131.9891901619356
 30
0.0
 10
171.0500978104947
 20
132.036332962271
 30
0.0
 10
171.0631170968311
 20
132.1311290439415
 30
0.0
 10
171.0675068637725
 20
132.2269133155019
 30
0.0
 10
171.0675068637725
 20
132.275056793397
 30
0.0
  0
SPLINE
  5
C2
330
1F
100
AcDbEntity
  8
0
  6
Continuous
 62
     7
370
    15
100
AcDbSpline
210
0.0
220
0.0
230
1.0
 70
     8
 71
     3
 72
    10
 73
     6
 74
     0
 42
0.000000001
 43
0.00000001
 40
0.0
 40
0.0
 40
0.0
 40
0.0
 40
0.5
 40
0.5
 40
1.0
 40
1.0
 40
1.0
 40
1.0
 10
167.6418043954635
 20
138.5391901619356
 30
0.0
 10
167.5202641317949
 20
138.6139163291474
 30
0.0
 10
167.418929771446
 20
138.7228613450642
 30
0.0
 10
167.2832908285576
 20
138.9732918258258
 30
0.0
 10
167.2475068637725
 20
139.1157111879247
 30
0.0
 10
167.2475068637725
 20
139.2588440129714
 30
0.0
  0
SPLINE
  5
C3
330
1F
100
AcDbEntity
  8
0
  6
Continuous
 62
     7
370
    15
100
AcDbSpline
210
0.0
220
0.0
230
1.0
 70
    24
 71
     3
 72
    12
 73
     8
 74
     0
 42
0.000000001
 43
0.00000001
 40
0.0
 40
0.0
 40
0.0
 40
0.0
 40
0.2500000000000046
 40
0.2500000000000046
 40
0.5000000000000091
 40
0.5000000000000091
 40
1.0
 40
1.0
 40
1.0
 40
1.0
 10
168.0475068637725
 20
138.5391901619356
 30
0.0
 10
167.9976301814551
 20
138.5391901619356
 30
0.0
 10
167.9496269880515
 20
138.5391901619356
 30
0.0
 10
167.8665788853395
 20
138.5391901619356
 30
0.0
 10
167.8304493058717
 20
138.5391901619356
 30
0.0
 10
167.7345372749274
 20
138.5391901619356
 30
0.0
 10
167.6847786069586
 20
138.5391901619356
 30
0.0
 10
167.6418043954635
 20
138.5391901619356
 30
0.0
  0
SPLINE
  5
C4
330
1F
100
AcDbEntity
  8
0
  6
Continuous
 62
     7
370
    15
100
AcDbSpline
210
0.0
220
0.0
230
1.0
 70
    24
 71
     3
 72
    14
 73
    10
 74
     0
 42
0.000000001
 43
0.00000001
 40
0.0
 40
0.0
 40
0.0
 40
0.0
 40
0.1249999999999991
 40
0.1249999999999991
 40
0.2499999999999982
 40
0.2499999999999982
 40
0.4999999999999998
 40
0.4999999999999998
 40
1.0
 40
1.0
 40
1.0
 40
1.0
 10
168.0475068637725
 20
85.73919016193562
 30
0.0
 10
167.979069015886
 20
85.73919016193562
 30
0.0
 10
167.913518977121
 20
85.73919016193564
 30
0.0
 10
167.8090923377131
 20
85.73919016193564
 30
0.0
 10
167.7665477279516
 20
85.73919016193564
 30
0.0
 10
167.6539382674114
 20
85.73919016193562
 30
0.0
 10
167.5983992203919
 20
85.73919016193562
 30
0.0
 10
167.4557875249281
 20
85.73919016193562
 30
0.0
 10
167.3923821699323
 20
85.73919016193562
 30
0.0
 10
167.3451816661048
 20
85.73919016193562
 30
0.0
  0
SPLINE
  5
C5
330
1F
100
AcDbEntity
  8
0
  6
Continuous
 62
     7
370
    15
100
AcDbSpline
210
0.0
220
0.0
230
1.0
 70
     8
 71
     3
 72
    10
 73
     6
 74
     0
 42
0.000000001
 43
0.00000001
 40
0.0
 40
0.0
 40
0.0
 40
0.0
 40
0.5
 40
0.5
 40
1.0
 40
1.0
 40
1.0
 40
1.0
 10
167.2475068637725
 20
132.275056793397
 30
0.0
 10
167.2475068637725
 20
132.2272852854037
 30
0.0
 10
167.2496681073697
 20
132.179575563342
 30
0.0
 10
167.2583394812299
 20
132.0842804457938
 30
0.0
 10
167.2648686641858
 20
132.0365878818271
 30
0.0
 10
167.2736544869327
 20
131.9891901619356
 30
0.0
  0
LINE
  5
C6
330
1F
100
AcDbEntity
  8
0
  6
Continuous
 62
     7
370
    15
100
AcDbLine
 10
170.2675068638
 20
138.5391901619
 30
0.0
 11
168.0475068638
 21
138.5391901619
 31
0.0
  0
LINE
  5
C7
330
1F
100
AcDbEntity
  8
0
  6
Continuous
 62
     7
370
    15
100
AcDbLine
 10
170.2675068638
 20
85.7391901619
 30
0.0
 11
168.0475068638
 21
85.7391901619
 31
0.0
  0
LINE
  5
C8
330
1F
100
AcDbEntity
  8
0
  6
Continuous
 62
     7
370
    15
100
AcDbLine
 10
129.3575068638
 20
88.9107432681
 30
0.0
 11
129.3575068638
 21
90.1754526307
 31
0.0
  0
SPLINE
  5
C9
330
1F
100
AcDbEntity
  8
0
  6
Continuous
 62
     7
370
    15
100
AcDbSpline
210
0.0
220
0.0
230
1.0
 70
     8
 71
     3
 72
    14
 73
    10
 74
     0
 42
0.000000001
 43
0.00000001
 40
0.0
 40
0.0
 40
0.0
 40
0.0
 40
0.25
 40
0.25
 40
0.5
 40
0.5
 40
0.75
 40
0.75
 40
1.0
 40
1.0
 40
1.0
 40
1.0
 10
128.5792197458568
 20
91.30603883837568
 30
0.0
 10
128.6358464210589
 20
91.19834138453882
 30
0.0
 10
128.7303690813486
 20
91.0955518028195
 30
0.0
 10
128.9134140569109
 20
90.89719449059935
 30
0.0
 10
129.0050406338655
 20
90.80113498192111
 30
0.0
 10
129.1638939515587
 20
90.61360593921187
 30
0.0
 10
129.2317845591805
 20
90.5221969664283
 30
0.0
 10
129.3287015848881
 20
90.34382074551816
 30
0.0
 10
129.3575068637731
 20
90.25659883927197
 30
0.0
 10
129.3575068637731
 20
90.17545263073772
 30
0.0
  0
SPLINE
  5
CA
330
1F
100
AcDbEntity
  8
0
  6
Continuous
 62
     7
370
    15
100
AcDbSpline
210
0.0
220
0.0
230
1.0
 70
     8
 71
     3
 72
    14
 73
    10
 74
     0
 42
0.000000001
 43
0.00000001
 40
0.0
 40
0.0
 40
0.0
 40
0.0
 40
0.1250000000000025
 40
0.1250000000000025
 40
0.250000000000005
 40
0.250000000000005
 40
0.5000000000000009
 40
0.5000000000000009
 40
1.0
 40
1.0
 40
1.0
 40
1.0
 10
127.9575068637725
 20
91.75272070065499
 30
0.0
 10
128.0060512724297
 20
91.7584690139353
 30
0.0
 10
128.0589666272146
 20
91.75536812527903
 30
0.0
 10
128.1542619721976
 20
91.73317328111672
 30
0.0
 10
128.1945129694826
 20
91.71594105402086
 30
0.0
 10
128.2987829829955
 20
91.6596131375688
 30
0.0
 10
128.3491049581489
 20
91.61542679162302
 30
0.0
 10
128.4767879056743
 20
91.48441889277238
 30
0.0
 10
128.5328733527365
 20
91.3941843725421
 30
0.0
 10
128.5792197458583
 20
91.30603883837621
 30
0.0
  0
SPLINE
  5
CB
330
1F
100
AcDbEntity
  8
0
  6
Continuous
 62
     7
370
    15
100
AcDbSpline
210
0.0
220
0.0
230
1.0
 70
     8
 71
     3
 72
     8
 73
     4
 74
     0
 42
0.000000001
 43
0.00000001
 40
0.0
 40
0.0
 40
0.0
 40
0.0
 40
1.0
 40
1.0
 40
1.0
 40
1.0
 10
125.6889817708263
 20
91.4428754140722
 30
0.0
 10
126.4235587973093
 20
91.56150042514116
 30
0.0
 10
127.1870338667049
 20
91.66148629727743
 30
0.0
 10
127.9575068637725
 20
91.75272070065499
 30
0.0
  0
SPLINE
  5
CC
330
1F
100
AcDbEntity
  8
0
  6
Continuous
 62
     7
370
    15
100
AcDbSpline
210
0.0
220
0.0
230
1.0
 70
     8
 71
     3
 72
    14
 73
    10
 74
     0
 42
0.000000001
 43
0.00000001
 40
0.0
 40
0.0
 40
0.0
 40
0.0
 40
0.4999999999999999
 40
0.4999999999999999
 40
0.7499999999999998
 40
0.7499999999999998
 40
0.8749999999999999
 40
0.8749999999999999
 40
1.0
 40
1.0
 40
1.0
 40
1.0
 10
120.4075068637725
 20
91.26925239654057
 30
0.0
 10
121.2996529943261
 20
91.26853017033991
 30
0.0
 10
122.1896294301197
 20
91.27311637679738
 30
0.0
 10
123.5162245971953
 20
91.3008413811889
 30
0.0
 10
123.9570715256941
 20
91.31344791881307
 30
0.0
 10
124.6135117631165
 20
91.34446406682052
 30
0.0
 10
124.8315254197084
 20
91.3568072394473
 30
0.0
 10
125.2642342733911
 20
91.38983129461057
 30
0.0
 10
125.4795107385559
 20
91.40904845974903
 30
0.0
 10
125.6889817708263
 20
91.4428754140722
 30
0.0
  0
SPLINE
  5
CD
330
1F
100
AcDbEntity
  8
0
  6
Continuous
 62
     7
370
    15
100
AcDbSpline
210
0.0
220
0.0
230
1.0
 70
     8
 71
     3
 72
     8
 73
     4
 74
     0
 42
0.000000001
 43
0.00000001
 40
0.0000005163856998
 40
0.0000005163856998
 40
0.0000005163856998
 40
0.0000005163856998
 40
0.000026289209185
 40
0.000026289209185
 40
0.000026289209185
 40
0.000026289209185
 10
120.3974619333649
 20
91.27923626963734
 30
0.0
 10
120.4007896715727
 20
91.27590202276822
 30
0.0
 10
120.4041381245483
 20
91.27257406549292
 30
0.0
 10
120.4075068637725
 20
91.26925239654055
 30
0.0
  0
SPLINE
  5
CE
330
1F
100
AcDbEntity
  8
0
  6
Continuous
 62
     7
370
    15
100
AcDbSpline
210
0.0
220
0.0
230
1.0
 70
     8
 71
     3
 72
     8
 73
     4
 74
     0
 42
0.000000001
 43
0.00000001
 40
0.0000005099763573
 40
0.0000005099763573
 40
0.0000005099763573
 40
0.0000005099763573
 40
0.0000262827998699
 40
0.0000262827998699
 40
0.0000262827998699
 40
0.0000262827998699
 10
120.4075068637725
 20
133.0091279273307
 30
0.0
 10
120.4041381245448
 20
133.0058062583748
 30
0.0
 10
120.4007896715656
 20
133.0024783010959
 30
0.0
 10
120.3974619333543
 20
132.9991440542233
 30
0.0
  0
SPLINE
  5
CF
330
1F
100
AcDbEntity
  8
0
  6
Continuous
 62
     7
370
    15
100
AcDbSpline
210
0.0
220
0.0
230
1.0
 70
     8
 71
     3
 72
    10
 73
     6
 74
     0
 42
0.000000001
 43
0.00000001
 40
0.0
 40
0.0
 40
0.0
 40
0.0
 40
0.5
 40
0.5
 40
1.0
 40
1.0
 40
1.0
 40
1.0
 10
123.9575068637725
 20
132.9622775537634
 30
0.0
 10
123.3699213166819
 20
132.9833430739998
 30
0.0
 10
122.7791749232215
 20
132.994101559872
 30
0.0
 10
121.5951557579227
 20
133.0074663404077
 30
0.0
 10
121.0017417697172
 20
133.0096089830723
 30
0.0
 10
120.4075068637725
 20
133.0091279273307
 30
0.0
  0
SPLINE
  5
D0
330
1F
100
AcDbEntity
  8
0
  6
Continuous
 62
     7
370
    15
100
AcDbSpline
210
0.0
220
0.0
230
1.0
 70
     8
 71
     3
 72
    18
 73
    14
 74
     0
 42
0.000000001
 43
0.00000001
 40
0.0
 40
0.0
 40
0.0
 40
0.0
 40
0.2499999999999992
 40
0.2499999999999992
 40
0.4999999999999991
 40
0.4999999999999991
 40
0.749999999999999
 40
0.749999999999999
 40
0.8749999999999996
 40
0.8749999999999996
 40
0.9374999999999998
 40
0.9374999999999998
 40
1.0
 40
1.0
 40
1.0
 40
1.0
 10
125.3575068637725
 20
133.9832978342986
 30
0.0
 10
125.3575068637725
 20
133.9000909254414
 30
0.0
 10
125.3216577638343
 20
133.8113542701279
 30
0.0
 10
125.1967860278003
 20
133.6292290795676
 30
0.0
 10
125.1063856101525
 20
133.534099030941
 30
0.0
 10
124.8841429554103
 20
133.3449175218167
 30
0.0
 10
124.7543781689645
 20
133.249972353722
 30
0.0
 10
124.513740711653
 20
133.111693646142
 30
0.0
 10
124.4259734135156
 20
133.0659832128396
 30
0.0
 10
124.2714493263088
 20
133.0081599076182
 30
0.0
 10
124.214838440254
 20
132.9904451435803
 30
0.0
 10
124.0907944093474
 20
132.9659058403474
 30
0.0
 10
124.0230797343291
 20
132.9599267018091
 30
0.0
 10
123.9575068637725
 20
132.9622775537634
 30
0.0
  0
LINE
  5
D1
330
1F
100
AcDbEntity
  8
0
  6
Continuous
 62
     7
370
    15
100
AcDbLine
 10
125.3575068638
 20
133.9832978343
 30
0.0
 11
125.3575068638
 21
135.1672362541
 31
0.0
  0
LINE
  5
D2
330
1F
100
AcDbEntity
  8
0
  6
Continuous
 62
     7
370
    15
100
AcDbLine
 10
149.1575068638
 20
87.9187593002
 30
0.0
 11
149.1575068638
 21
136.3596210237
 31
0.0
  0
SPLINE
  5
D3
330
1F
100
AcDbEntity
  8
0
  6
Continuous
 62
     7
370
    15
100
AcDbSpline
210
0.0
220
0.0
230
1.0
 70
     8
 71
     3
 72
    24
 73
    20
 74
     0
 42
0.000000001
 43
0.00000001
 40
0.0
 40
0.0
 40
0.0
 40
0.0
 40
0.0010489762969675
 40
0.0637843125639742
 40
0.1272220590447992
 40
0.1903788924487996
 40
0.2526748653693623
 40
0.3146354154423325
 40
0.3770891997149642
 40
0.4393540298503623
 40
0.5008133242537848
 40
0.5621845104596915
 40
0.6248438451115951
 40
0.6874304766627318
 40
0.7496743174679439
 40
0.8119848426973817
 40
0.8750960525412996
 40
0.9384412526960664
 40
1.0
 40
1.0
 40
1.0
 40
1.0
 10
137.9264126957482
 20
88.4816817333555
 30
0.0
 10
137.925966235644
 20
88.48162344753659
 30
0.0
 10
137.89881867195
 20
88.47807930559412
 30
0.0
 10
137.9944304495627
 20
88.49091305027687
 30
0.0
 10
138.2279907074584
 20
88.52015973547701
 30
0.0
 10
138.6235450147766
 20
88.56677405853976
 30
0.0
 10
139.1505853186126
 20
88.61695720019917
 30
0.0
 10
139.7941157306023
 20
88.6613336626488
 30
0.0
 10
140.5327895858411
 20
88.68827844358695
 30
0.0
 10
141.330304091275
 20
88.69175029429393
 30
0.0
 10
142.156882973722
 20
88.66412305026321
 30
0.0
 10
142.982405991334
 20
88.60564416129054
 30
0.0
 10
143.7745325393384
 20
88.52019913192908
 30
0.0
 10
144.5071048133374
 20
88.41846489209284
 30
0.0
 10
145.1427450500667
 20
88.3106217701206
 30
0.0
 10
145.6646561570705
 20
88.20899161338191
 30
0.0
 10
146.0462849341877
 20
88.12650645670386
 30
0.0
 10
146.297099404424
 20
88.07035725035394
 30
0.0
 10
146.3262209604074
 20
88.06350779174021
 30
0.0
 10
146.3405734812232
 20
88.06013204501201
 30
0.0
  0
SPLINE
  5
D4
330
1F
100
AcDbEntity
  8
0
  6
Continuous
 62
     7
370
    15
100
AcDbSpline
210
0.0
220
0.0
230
1.0
 70
     8
 71
     3
 72
    24
 73
    20
 74
     0
 42
0.000000001
 43
0.00000001
 40
0.0
 40
0.0
 40
0.0
 40
0.0
 40
0.0614384276247849
 40
0.1250736755369546
 40
0.1884253490727482
 40
0.2508623904037504
 40
0.3129665632512366
 40
0.3753451453465248
 40
0.4377328972326114
 40
0.4990927322917333
 40
0.5605807588448609
 40
0.6229469893028933
 40
0.6854686282029175
 40
0.7475477813740337
 40
0.8098225060806368
 40
0.8730684085990423
 40
0.9364041844528856
 40
0.9991757196257862
 40
1.0
 40
1.0
 40
1.0
 40
1.0
 10
146.3405187104202
 20
136.218219136393
 30
0.0
 10
146.3259179861167
 20
136.2148510795404
 30
0.0
 10
146.2961944673882
 20
136.2079945360666
 30
0.0
 10
146.0434566517408
 20
136.1516559155409
 30
0.0
 10
145.6604607352921
 20
136.0687988334108
 30
0.0
 10
145.1381051508535
 20
135.9668918034595
 30
0.0
 10
144.5033206728532
 20
135.8590526644155
 30
0.0
 10
143.77309706868
 20
135.7575857124404
 30
0.0
 10
142.9826284834464
 20
135.6725259987498
 30
0.0
 10
142.1581449686178
 20
135.6143217048634
 30
0.0
 10
141.3311085097348
 20
135.5867382660367
 30
0.0
 10
140.532784242082
 20
135.5902312435296
 30
0.0
 10
139.7929602777928
 20
135.6171871633827
 30
0.0
 10
139.1487060448178
 20
135.6615411053821
 30
0.0
 10
138.6212987896045
 20
135.71174655514
 30
0.0
 10
138.2266341874535
 20
135.758356410338
 30
0.0
 10
137.9941049082678
 20
135.7875520028856
 30
0.0
 10
137.8987248757156
 20
135.8003300718269
 30
0.0
 10
137.9256585126171
 20
135.7967758133191
 30
0.0
 10
137.9260076058414
 20
135.7967297457357
 30
0.0
  0
SPLINE
  5
D5
330
1F
100
AcDbEntity
  8
0
  6
Continuous
 62
     7
370
    15
100
AcDbSpline
210
0.0
220
0.0
230
1.0
 70
     8
 71
     3
 72
    10
 73
     6
 74
     0
 42
0.000000001
 43
0.00000001
 40
0.0
 40
0.0
 40
0.0
 40
0.0
 40
0.0840381716606349
 40
0.7011125076932977
 40
1.0
 40
1.0
 40
1.0
 40
1.0
 10
119.2710538263082
 20
92.4104162542523
 30
0.0
 10
119.2717283836431
 20
92.40821062741638
 30
0.0
 10
119.2773560713393
 20
92.38980955405418
 30
0.0
 10
119.3036775514662
 20
92.40404411677734
 30
0.0
 10
119.3161125683108
 20
92.44972989232834
 30
0.0
 10
119.3201702384959
 20
92.46463761715489
 30
0.0
  0
LINE
  5
D6
330
1F
100
AcDbEntity
  8
0
  6
Continuous
 62
     7
370
    15
100
AcDbLine
 10
119.2575068638
 20
92.4485124155
 30
0.0
 11
119.2575068638
 21
131.8298679084
 31
0.0
  0
SPLINE
  5
D7
330
1F
100
AcDbEntity
  8
0
  6
Continuous
 62
     7
370
    15
100
AcDbSpline
210
0.0
220
0.0
230
1.0
 70
     8
 71
     3
 72
    10
 73
     6
 74
     0
 42
0.000000001
 43
0.00000001
 40
0.0
 40
0.0
 40
0.0
 40
0.0
 40
0.5
 40
0.5
 40
1.0
 40
1.0
 40
1.0
 40
1.0
 10
119.3201702384959
 20
131.8137427067164
 30
0.0
 10
119.3112659493872
 20
131.8594842259295
 30
0.0
 10
119.2947505691942
 20
131.8766750653986
 30
0.0
 10
119.2676426231326
 20
131.8763517884628
 30
0.0
 10
119.2575068637725
 20
131.8584742461664
 30
0.0
 10
119.2575068637725
 20
131.8298679084138
 30
0.0
  0
SPLINE
  5
D8
330
1F
100
AcDbEntity
  8
0
  6
Continuous
 62
     7
370
    15
100
AcDbSpline
210
0.0
220
0.0
230
1.0
 70
     8
 71
     3
 72
    26
 73
    22
 74
     0
 42
0.000000001
 43
0.00000001
 40
0.0
 40
0.0
 40
0.0
 40
0.0
 40
0.249999999999988
 40
0.249999999999988
 40
0.3749999999999821
 40
0.3749999999999821
 40
0.4374999999999798
 40
0.4374999999999798
 40
0.4687499999999812
 40
0.4687499999999812
 40
0.4999999999999825
 40
0.4999999999999825
 40
0.5312499999999837
 40
0.5312499999999837
 40
0.562499999999985
 40
0.562499999999985
 40
0.6249999999999877
 40
0.6249999999999877
 40
0.7499999999999908
 40
0.7499999999999908
 40
1.0
 40
1.0
 40
1.0
 40
1.0
 10
120.081660509877
 20
132.5293094955335
 30
0.0
 10
120.0430599870085
 20
132.411534799178
 30
0.0
 10
119.9967629844543
 20
132.2871451130161
 30
0.0
 10
119.9028236360204
 20
132.0819257806626
 30
0.0
 10
119.8675121691069
 20
132.0103529142162
 30
0.0
 10
119.8013321933612
 20
131.8943996816157
 30
0.0
 10
119.776793826693
 20
131.8538151468055
 30
0.0
 10
119.7334210811392
 20
131.7896734649337
 30
0.0
 10
119.717912679714
 20
131.7678070396487
 30
0.0
 10
119.682870035127
 20
131.7222127713055
 30
0.0
 10
119.6633197444072
 20
131.6985424803381
 30
0.0
 10
119.6213924640366
 20
131.6539259209982
 30
0.0
 10
119.598740353805
 20
131.6330459084802
 30
0.0
 10
119.5577666397184
 20
131.6021724947294
 30
0.0
 10
119.5401673398229
 20
131.592333624897
 30
0.0
 10
119.4955403539668
 20
131.5733440092008
 30
0.0
 10
119.4749811313135
 20
131.5730196845474
 30
0.0
 10
119.4238556918168
 20
131.5822431254236
 30
0.0
 10
119.4029442788283
 20
131.6034900216406
 30
0.0
 10
119.3514943712673
 20
131.6774589004713
 30
0.0
 10
119.3338290719628
 20
131.7435769937861
 30
0.0
 10
119.3201702384959
 20
131.8137427067164
 30
0.0
  0
SPLINE
  5
D9
330
1F
100
AcDbEntity
  8
0
  6
Continuous
 62
     7
370
    15
100
AcDbSpline
210
0.0
220
0.0
230
1.0
 70
     8
 71
     3
 72
    10
 73
     6
 74
     0
 42
0.000000001
 43
0.00000001
 40
0.0
 40
0.0
 40
0.0
 40
0.0
 40
0.5
 40
0.5
 40
1.0
 40
1.0
 40
1.0
 40
1.0
 10
120.3974619333543
 20
132.9991440542233
 30
0.0
 10
120.3299026784361
 20
132.9314526614135
 30
0.0
 10
120.2662660230996
 20
132.8567454966599
 30
0.0
 10
120.1560452685277
 20
132.6977793642332
 30
0.0
 10
120.1092289753051
 20
132.6134240982252
 30
0.0
 10
120.081660509877
 20
132.5293094955335
 30
0.0
  0
SPLINE
  5
DA
330
1F
100
AcDbEntity
  8
0
  6
Continuous
 62
     7
370
    15
100
AcDbSpline
210
0.0
220
0.0
230
1.0
 70
     8
 71
     3
 72
    10
 73
     6
 74
     0
 42
0.000000001
 43
0.00000001
 40
0.0
 40
0.0
 40
0.0
 40
0.0
 40
0.5
 40
0.5
 40
1.0
 40
1.0
 40
1.0
 40
1.0
 10
120.0816605098771
 20
91.74907082833766
 30
0.0
 10
120.109137924631
 20
91.66523403186977
 30
0.0
 10
120.1558465549205
 20
91.58092354428064
 30
0.0
 10
120.2661250176664
 20
91.42180231379393
 30
0.0
 10
120.3300125562803
 20
91.34681756970429
 30
0.0
 10
120.3974619333649
 20
91.27923626963735
 30
0.0
  0
SPLINE
  5
DB
330
1F
100
AcDbEntity
  8
0
  6
Continuous
 62
     7
370
    15
100
AcDbSpline
210
0.0
220
0.0
230
1.0
 70
     8
 71
     3
 72
    24
 73
    20
 74
     0
 42
0.000000001
 43
0.00000001
 40
0.0
 40
0.0
 40
0.0
 40
0.0
 40
0.2500000000000167
 40
0.2500000000000167
 40
0.3750000000000246
 40
0.3750000000000246
 40
0.4375000000000287
 40
0.4375000000000287
 40
0.4687500000000294
 40
0.4687500000000294
 40
0.5000000000000301
 40
0.5000000000000301
 40
0.5625000000000266
 40
0.5625000000000266
 40
0.6250000000000233
 40
0.6250000000000233
 40
0.7500000000000155
 40
0.7500000000000155
 40
1.0
 40
1.0
 40
1.0
 40
1.0
 10
119.3201702384959
 20
92.46463761715488
 30
0.0
 10
119.3339233571662
 20
92.53528767514517
 30
0.0
 10
119.351695924572
 20
92.60188578791009
 30
0.0
 10
119.4039470161274
 20
92.67598380814329
 30
0.0
 10
119.4249820917089
 20
92.69724161530486
 30
0.0
 10
119.4778824993374
 20
92.70538754145107
 30
0.0
 10
119.4989881722153
 20
92.70444773805532
 30
0.0
 10
119.5450403408933
 20
92.68343174647796
 30
0.0
 10
119.5634108128767
 20
92.67252294037034
 30
0.0
 10
119.6049624479424
 20
92.63988802942296
 30
0.0
 10
119.6275291206993
 20
92.61839604905161
 30
0.0
 10
119.6903101371593
 20
92.54993010546531
 30
0.0
 10
119.7234398981272
 20
92.50385564726021
 30
0.0
 10
119.7803575846122
 20
92.41884775892557
 30
0.0
 10
119.8045436101159
 20
92.37856745774417
 30
0.0
 10
119.8697515604957
 20
92.26363123127823
 30
0.0
 10
119.904467620687
 20
92.19304824613121
 30
0.0
 10
119.9976828910178
 20
91.98884248705261
 30
0.0
 10
120.0433554263785
 20
91.86594410472526
 30
0.0
 10
120.0816605098771
 20
91.7490708283377
 30
0.0
  0
LINE
  5
DC
330
1F
100
AcDbEntity
  8
0
  6
Continuous
 62
     7
370
    15
100
AcDbLine
 10
171.0675068638
 20
132.2750567934
 30
0.0
 11
171.0675068638
 21
133.1893338295
 31
0.0
  0
SPLINE
  5
DD
330
1F
100
AcDbEntity
  8
0
  6
Continuous
 62
     7
370
    15
100
AcDbSpline
210
0.0
220
0.0
230
1.0
 70
     8
 71
     3
 72
     8
 73
     4
 74
     0
 42
0.000000001
 43
0.00000001
 40
0.0
 40
0.0
 40
0.0
 40
0.0
 40
1.0
 40
1.0
 40
1.0
 40
1.0
 10
171.0675068637725
 20
133.189333829519
 30
0.0
 10
171.5467850143623
 20
134.3303450593716
 30
0.0
 10
172.0423528535023
 20
135.4667294701394
 30
0.0
 10
172.5494396952616
 20
136.5978798243031
 30
0.0
  0
LINE
  5
DE
330
1F
100
AcDbEntity
  8
0
  6
Continuous
 62
     7
370
    15
100
AcDbLine
 10
172.5494396953
 20
136.5978798243
 30
0.0
 11
176.5075068638
 21
136.5978798243
 31
0.0
  0
SPLINE
  5
DF
330
1F
100
AcDbEntity
  8
0
  6
Continuous
 62
     7
370
    15
100
AcDbSpline
210
0.0
220
0.0
230
1.0
 70
     8
 71
     3
 72
    12
 73
     8
 74
     0
 42
0.000000001
 43
0.00000001
 40
0.0
 40
0.0
 40
0.0
 40
0.0
 40
0.249999999999998
 40
0.249999999999998
 40
0.499999999999996
 40
0.499999999999996
 40
1.0
 40
1.0
 40
1.0
 40
1.0
 10
176.5075068637725
 20
136.5978798243031
 30
0.0
 10
176.5987065855982
 20
136.5978798243031
 30
0.0
 10
176.6893015947342
 20
136.5696601257152
 30
0.0
 10
176.8427143211809
 20
136.4752171184671
 30
0.0
 10
176.9079231885045
 20
136.4089301417618
 30
0.0
 10
177.0607077178445
 20
136.1833053184735
 30
0.0
 10
177.1075068637725
 20
136.0008790554409
 30
0.0
 10
177.1075068637725
 20
135.820142423194
 30
0.0
  0
LINE
  5
E0
330
1F
100
AcDbEntity
  8
0
  6
Continuous
 62
     7
370
    15
100
AcDbLine
 10
177.1075068638
 20
135.8201424232
 30
0.0
 11
177.1075068638
 21
131.9891901619
 31
0.0
  0
LINE
  5
E1
330
1F
100
AcDbEntity
  8
0
  6
Continuous
 62
     7
370
    15
100
AcDbLine
 10
176.5075068638
 20
142.6063856351
 30
0.0
 11
172.5494396953
 21
142.6063856351
 31
0.0
  0
LINE
  5
E2
330
1F
100
AcDbEntity
  8
0
  6
Continuous
 62
     7
370
    15
100
AcDbLine
 10
172.5494396953
 20
136.5978798243
 30
0.0
 11
172.5494396953
 21
142.6063856351
 31
0.0
  0
SPLINE
  5
E3
330
1F
100
AcDbEntity
  8
0
  6
Continuous
 62
     7
370
    15
100
AcDbSpline
210
0.0
220
0.0
230
1.0
 70
     8
 71
     3
 72
     8
 73
     4
 74
     0
 42
0.000000001
 43
0.00000001
 40
0.0
 40
0.0
 40
0.0
 40
0.0
 40
1.0
 40
1.0
 40
1.0
 40
1.0
 10
167.2475068637725
 20
139.9444243531073
 30
0.0
 10
166.7547967669267
 20
140.8324433512336
 30
0.0
 10
166.2607140616478
 20
141.7197059869196
 30
0.0
 10
165.7655740322835
 20
142.6063856350999
 30
0.0
  0
LINE
  5
E4
330
1F
100
AcDbEntity
  8
0
  6
Continuous
 62
     7
370
    15
100
AcDbLine
 10
167.2475068638
 20
133.1893338295
 30
0.0
 11
167.2475068638
 21
139.9444243531
 31
0.0
  0
SPLINE
  5
E5
330
1F
100
AcDbEntity
  8
0
  6
Continuous
 62
     7
370
    15
100
AcDbSpline
210
0.0
220
0.0
230
1.0
 70
     8
 71
     3
 72
     8
 73
     4
 74
     0
 42
0.000000001
 43
0.00000001
 40
0.0
 40
0.0
 40
0.0
 40
0.0
 40
1.0
 40
1.0
 40
1.0
 40
1.0
 10
165.7655740322835
 20
136.5978798243031
 30
0.0
 10
166.2726608740427
 20
135.4667294701394
 30
0.0
 10
166.7682287131827
 20
134.3303450593716
 30
0.0
 10
167.2475068637725
 20
133.189333829519
 30
0.0
  0
SPLINE
  5
E6
330
1F
100
AcDbEntity
  8
0
  6
Continuous
 62
     7
370
    15
100
AcDbSpline
210
0.0
220
0.0
230
1.0
 70
     8
 71
     3
 72
    10
 73
     6
 74
     0
 42
0.000000001
 43
0.00000001
 40
0.0
 40
0.0
 40
0.0
 40
0.0
 40
0.5
 40
0.5
 40
1.0
 40
1.0
 40
1.0
 40
1.0
 10
177.1075068637725
 20
141.9856304856995
 30
0.0
 10
177.1075068637725
 20
142.1460357520504
 30
0.0
 10
177.0452690326657
 20
142.3050975650389
 30
0.0
 10
176.8261341089231
 20
142.5360100306693
 30
0.0
 10
176.6685454139312
 20
142.6063856350999
 30
0.0
 10
176.5075068637725
 20
142.6063856350999
 30
0.0
  0
LINE
  5
E7
330
1F
100
AcDbEntity
  8
0
  6
Continuous
 62
     7
370
    15
100
AcDbLine
 10
177.1075068638
 20
135.8201424232
 30
0.0
 11
177.1075068638
 21
141.9856304857
 31
0.0
  0
LINE
  5
E8
330
1F
100
AcDbEntity
  8
0
  6
Continuous
 62
     7
370
    15
100
AcDbLine
 10
167.2475068638
 20
133.1893338295
 30
0.0
 11
167.2475068638
 21
132.2750567934
 31
0.0
  0
SPLINE
  5
E9
330
1F
100
AcDbEntity
  8
0
  6
Continuous
 62
     7
370
    15
100
AcDbSpline
210
0.0
220
0.0
230
1.0
 70
     8
 71
     3
 72
     8
 73
     4
 74
     0
 42
0.000000001
 43
0.00000001
 40
0.0
 40
0.0
 40
0.0
 40
0.0
 40
1.0
 40
1.0
 40
1.0
 40
1.0
 10
172.5494396952616
 20
142.6063856350999
 30
0.0
 10
172.0542996658972
 20
141.7197059869196
 30
0.0
 10
171.5602169606183
 20
140.8324433512336
 30
0.0
 10
171.0675068637725
 20
139.9444243531073
 30
0.0
  0
LINE
  5
EA
330
1F
100
AcDbEntity
  8
0
  6
Continuous
 62
     7
370
    15
100
AcDbLine
 10
171.0675068638
 20
133.1893338295
 30
0.0
 11
171.0675068638
 21
139.9444243531
 31
0.0
  0
SPLINE
  5
EB
330
1F
100
AcDbEntity
  8
0
  6
Continuous
 62
     7
370
    15
100
AcDbSpline
210
0.0
220
0.0
230
1.0
 70
     8
 71
     3
 72
    22
 73
    18
 74
     0
 42
0.000000001
 43
0.00000001
 40
0.0
 40
0.0
 40
0.0
 40
0.0
 40
0.2499999999999998
 40
0.2499999999999998
 40
0.3749999999999996
 40
0.3749999999999996
 40
0.4999999999999994
 40
0.4999999999999994
 40
0.5624999999999994
 40
0.5624999999999994
 40
0.6249999999999993
 40
0.6249999999999993
 40
0.7499999999999996
 40
0.7499999999999996
 40
0.8749999999999998
 40
0.8749999999999998
 40
1.0
 40
1.0
 40
1.0
 40
1.0
 10
180.1075068637725
 20
114.6804052898201
 30
0.0
 10
179.7835644215056
 20
114.3128299306341
 30
0.0
 10
179.490628499476
 20
113.9342607844237
 30
0.0
 10
179.1301152394788
 20
113.3115613467625
 30
0.0
 10
179.0229620609663
 20
113.0933911549669
 30
0.0
 10
178.8647817529876
 20
112.6342839866284
 30
0.0
 10
178.8148648178778
 20
112.3886059623807
 30
0.0
 10
178.8144895579897
 20
112.017448455676
 30
0.0
 10
178.8265829124251
 20
111.892195246648
 30
0.0
 10
178.8710963508159
 20
111.6505338001838
 30
0.0
 10
178.9033830457374
 20
111.5323491863399
 30
0.0
 10
179.0227218420817
 20
111.1851133256843
 30
0.0
 10
179.128278315364
 20
110.9704352346557
 30
0.0
 10
179.3677030230912
 20
110.5560085563927
 30
0.0
 10
179.5027038687558
 20
110.3561553617751
 30
0.0
 10
179.7915206358724
 20
109.9690756263359
 30
0.0
 10
179.9455894528128
 20
109.7817016555939
 30
0.0
 10
180.1075068637725
 20
109.5979750340512
 30
0.0
  0
SPLINE
  5
EC
330
1F
100
AcDbEntity
  8
0
  6
Continuous
 62
     7
370
    15
100
AcDbSpline
210
0.0
220
0.0
230
1.0
 70
     8
 71
     3
 72
    60
 73
    56
 74
     0
 42
0.000000001
 43
0.00000001
 40
0.0
 40
0.0
 40
0.0
 40
0.0
 40
0.0624999999999997
 40
0.0624999999999997
 40
0.0937499999999995
 40
0.0937499999999995
 40
0.1249999999999993
 40
0.1249999999999993
 40
0.187499999999999
 40
0.187499999999999
 40
0.2499999999999987
 40
0.2499999999999987
 40
0.2812499999999985
 40
0.2812499999999985
 40
0.3124999999999984
 40
0.3124999999999984
 40
0.3437499999999982
 40
0.3437499999999982
 40
0.3749999999999981
 40
0.3749999999999981
 40
0.4062499999999979
 40
0.4062499999999979
 40
0.4374999999999978
 40
0.4374999999999978
 40
0.4687499999999976
 40
0.4687499999999976
 40
0.4999999999999974
 40
0.4999999999999974
 40
0.5312499999999973
 40
0.5312499999999973
 40
0.5624999999999971
 40
0.5624999999999971
 40
0.593749999999997
 40
0.593749999999997
 40
0.6249999999999969
 40
0.6249999999999969
 40
0.6874999999999971
 40
0.6874999999999971
 40
0.7499999999999973
 40
0.7499999999999973
 40
0.7812499999999979
 40
0.7812499999999979
 40
0.8124999999999983
 40
0.8124999999999983
 40
0.8437499999999989
 40
0.8437499999999989
 40
0.8749999999999993
 40
0.8749999999999993
 40
0.9062499999999996
 40
0.9062499999999996
 40
0.9374999999999998
 40
0.9374999999999998
 40
0.9687499999999999
 40
0.9687499999999999
 40
1.0
 40
1.0
 40
1.0
 40
1.0
 10
180.1075068637725
 20
114.6804052898201
 30
0.0
 10
180.4301265009824
 20
115.0464796708059
 30
0.0
 10
180.8180254422925
 20
115.362198169317
 30
0.0
 10
181.4423442460954
 20
115.7376943685527
 30
0.0
 10
181.6585182991749
 20
115.8477380068636
 30
0.0
 10
182.1066019056704
 20
116.03901284426
 30
0.0
 10
182.3403169489584
 20
116.1206701939831
 30
0.0
 10
183.0511391702985
 20
116.3174504111947
 30
0.0
 10
183.5356992446379
 20
116.3860525514464
 30
0.0
 10
184.5263903055474
 20
116.3991291620936
 30
0.0
 10
185.0151889919738
 20
116.3427509810032
 30
0.0
 10
185.7281546659643
 20
116.1659649703138
 30
0.0
 10
185.9647184376443
 20
116.0906413285446
 30
0.0
 10
186.4198645425329
 20
115.9111747071462
 30
0.0
 10
186.6391830123997
 20
115.8071391943486
 30
0.0
 10
187.06129299375
 20
115.5697801739647
 30
0.0
 10
187.2640972021197
 20
115.436482804871
 30
0.0
 10
187.6518329861814
 20
115.1374269411173
 30
0.0
 10
187.8332604484588
 20
114.9741178658727
 30
0.0
 10
188.1651645107883
 20
114.6237115048148
 30
0.0
 10
188.3165929764833
 20
114.4359326304868
 30
0.0
 10
188.5874898236146
 20
114.0321533555522
 30
0.0
 10
188.707685056187
 20
113.8137262528952
 30
0.0
 10
188.9016863602602
 20
113.3633116177171
 30
0.0
 10
188.9769205611099
 20
113.1299775606452
 30
0.0
 10
189.0800201748431
 20
112.6454666616614
 30
0.0
 10
189.1066175343603
 20
112.3973940746343
 30
0.0
 10
189.1083516778132
 20
111.9062039519931
 30
0.0
 10
189.0836307657193
 20
111.6586577633069
 30
0.0
 10
188.9837581527856
 20
111.1726177324283
 30
0.0
 10
188.9099607254974
 20
110.9383845295401
 30
0.0
 10
188.7184583391481
 20
110.4859474487758
 30
0.0
 10
188.5997652719309
 20
110.2670455208977
 30
0.0
 10
188.3296327801122
 20
109.8595869857215
 30
0.0
 10
188.1774661439335
 20
109.668845900438
 30
0.0
 10
187.6727548811297
 20
109.1325329723546
 30
0.0
 10
187.2853476802825
 20
108.8354080082577
 30
0.0
 10
186.4281537364687
 20
108.3517699987657
 30
0.0
 10
185.9729832272916
 20
108.173496336001
 30
0.0
 10
185.2552833399617
 20
107.9949783467758
 30
0.0
 10
185.0101879277702
 20
107.9508521247778
 30
0.0
 10
184.5218862185348
 20
107.8948832699078
 30
0.0
 10
184.2769217428063
 20
107.8825482636153
 30
0.0
 10
183.7853678533217
 20
107.8890280318115
 30
0.0
 10
183.5370404130363
 20
107.9081242335879
 30
0.0
 10
183.0475424648873
 20
107.9778930158329
 30
0.0
 10
182.8075829368731
 20
108.0281245310845
 30
0.0
 10
182.3369911461841
 20
108.1588659260816
 30
0.0
 10
182.1063561953348
 20
108.239365245553
 30
0.0
 10
181.6547526852057
 20
108.4323578331341
 30
0.0
 10
181.4349096180948
 20
108.5446993231065
 30
0.0
 10
181.0191005733833
 20
108.7957200253557
 30
0.0
 10
180.8213698380781
 20
108.9350830508995
 30
0.0
 10
180.4472221980764
 20
109.2435463947811
 30
0.0
 10
180.2693390307853
 20
109.4143451382545
 30
0.0
 10
180.1075068637727
 20
109.597975034051
 30
0.0
  0
LINE
  5
ED
330
1F
100
AcDbEntity
  8
0
  6
Continuous
 62
     7
370
    15
100
AcDbLine
 10
192.9575068638
 20
112.1391901619
 30
0.0
 11
192.9575068638
 21
99.6391901619
 31
0.0
  0
LINE
  5
EE
330
1F
100
AcDbEntity
  8
0
  6
Continuous
 62
     7
370
    15
100
AcDbLine
 10
192.9575068638
 20
124.6391901619
 30
0.0
 11
192.9575068638
 21
112.1391901619
 31
0.0
  0
LINE
  5
EF
330
1F
100
AcDbEntity
  8
0
  6
Continuous
 62
     7
370
    15
100
AcDbLine
 10
193.1575068638
 20
112.1391901619
 30
0.0
 11
193.1575068638
 21
99.8391901619
 31
0.0
  0
LINE
  5
F0
330
1F
100
AcDbEntity
  8
0
  6
Continuous
 62
     7
370
    15
100
AcDbLine
 10
193.1575068638
 20
124.4391901619
 30
0.0
 11
193.1575068638
 21
112.1391901619
 31
0.0
  0
CIRCLE
  5
F1
330
1F
100
AcDbEntity
  8
0
  6
HIDDEN
 62
     7
370
     0
100
AcDbCircle
 10
184.1075068638
 20
112.1391901619
 30
0.0
 40
4.000000000000006
  0
LINE
  5
F2
330
1F
100
AcDbEntity
  8
0
  6
HIDDEN
 62
     7
370
     0
100
AcDbLine
 10
165.7655740323
 20
136.5978798243
 30
0.0
 11
165.7655740323
 21
131.9891901619
 31
0.0
  0
LINE
  5
F3
330
1F
100
AcDbEntity
  8
0
  6
HIDDEN
 62
     7
370
     0
100
AcDbLine
 10
125.1254833418
 20
133.5603887577
 30
0.0
 11
124.686405327
 21
133.2310833616
 31
0.0
  0
LINE
  5
F4
330
1F
100
AcDbEntity
  8
0
  6
HIDDEN
 62
     7
370
     0
100
AcDbLine
 10
139.1526570683
 20
88.6145905391
 30
0.0
 11
138.9037922495
 21
88.5913275726
 31
0.0
  0
SPLINE
  5
F5
330
1F
100
AcDbEntity
  8
0
  6
HIDDEN
 62
     7
370
     0
100
AcDbSpline
210
0.0
220
0.0
230
1.0
 70
     8
 71
     3
 72
    12
 73
     8
 74
     0
 42
0.000000001
 43
0.00000001
 40
0.0
 40
0.0
 40
0.0
 40
0.0
 40
0.2208233445562769
 40
0.4480992523525928
 40
0.6689569750923041
 40
0.8961554869287656
 40
1.0
 40
1.0
 40
1.0
 40
1.0
 10
144.9125088653741
 20
131.9767186377521
 30
0.0
 10
145.0445520685842
 20
131.9937757248327
 30
0.0
 10
145.3124968402548
 20
132.0283883151978
 30
0.0
 10
145.6076530083934
 20
132.0553602643099
 30
0.0
 10
145.8087450196317
 20
132.0708699780951
 30
0.0
 10
145.9060755269279
 20
132.0769791441154
 30
0.0
 10
145.8974182975846
 20
132.0764339773959
 30
0.0
 10
145.8947026210772
 20
132.0762629646626
 30
0.0
  0
SPLINE
  5
F6
330
1F
100
AcDbEntity
  8
0
  6
HIDDEN
 62
     7
370
     0
100
AcDbSpline
210
0.0
220
0.0
230
1.0
 70
     8
 71
     3
 72
    12
 73
     8
 74
     0
 42
0.000000001
 43
0.00000001
 40
0.0
 40
0.0
 40
0.0
 40
0.0
 40
0.1181210164762457
 40
0.3465078981290357
 40
0.5687652345113129
 40
0.79752051502506
 40
1.0
 40
1.0
 40
1.0
 40
1.0
 10
145.894702577574
 20
92.20211736198128
 30
0.0
 10
145.896826004419
 20
92.20198328993855
 30
0.0
 10
145.9030550752047
 20
92.20158998971891
 30
0.0
 10
145.7983884478706
 20
92.20821336361342
 30
0.0
 10
145.588414071082
 20
92.22461779099689
 30
0.0
 10
145.2929557977486
 20
92.25221949014826
 30
0.0
 10
145.0340663321206
 20
92.2858642973609
 30
0.0
 10
144.9125088653741
 20
92.30166168611917
 30
0.0
  0
SPLINE
  5
F7
330
1F
100
AcDbEntity
  8
0
  6
HIDDEN
 62
     7
370
     0
100
AcDbSpline
210
0.0
220
0.0
230
1.0
 70
     8
 71
     3
 72
    31
 73
    27
 74
     0
 42
0.000000001
 43
0.00000001
 40
0.0
 40
0.0
 40
0.0
 40
0.0
 40
0.0520243376032014
 40
0.0872627097259927
 40
0.1409418049348309
 40
0.1929689830073769
 40
0.2282249958590375
 40
0.2819574517021572
 40
0.3393138206000838
 40
0.3624622167698536
 40
0.4213876902954727
 40
0.4782143851240584
 40
0.5011421408768503
 40
0.5594634988212586
 40
0.6168837389526642
 40
0.6400489016019606
 40
0.6989660214646998
 40
0.7511899737235753
 40
0.7865713105333321
 40
0.8224695325519059
 40
0.8405067940686086
 40
0.8984921841206446
 40
0.9218960013747722
 40
0.9635382312771991
 40
0.9815178926054927
 40
1.0
 40
1.0
 40
1.0
 40
1.0
 10
144.9125088653741
 20
92.30166168611917
 30
0.0
 10
144.8030092963209
 20
92.31640338263307
 30
0.0
 10
144.6193408528646
 20
92.34113027860188
 30
0.0
 10
144.2843986676065
 20
92.37995008882051
 30
0.0
 10
143.9252829969687
 20
92.41601295620546
 30
0.0
 10
143.5399403971666
 20
92.44647076394266
 30
0.0
 10
143.1387980511121
 20
92.47067166721165
 30
0.0
 10
142.7089147037466
 20
92.48824976168295
 30
0.0
 10
142.3061015976314
 20
92.49451904499918
 30
0.0
 10
141.8877410515935
 20
92.49327763802995
 30
0.0
 10
141.4722634339996
 20
92.48419170547565
 30
0.0
 10
141.0685411602996
 20
92.46476826191727
 30
0.0
 10
140.6798466330166
 20
92.43944563009272
 30
0.0
 10
140.3042133423332
 20
92.40839560027742
 30
0.0
 10
139.9568657135974
 20
92.37174008281089
 30
0.0
 10
139.6329793128853
 20
92.33305527140836
 30
0.0
 10
139.3464705630473
 20
92.29469159455435
 30
0.0
 10
139.0777987113504
 20
92.25436200377379
 30
0.0
 10
138.8833084529181
 20
92.2231180585219
 30
0.0
 10
138.7624158973067
 20
92.20276951311791
 30
0.0
 10
138.6306073774701
 20
92.1799685475288
 30
0.0
 10
138.538630164014
 20
92.16342130723943
 30
0.0
 10
138.4593034627807
 20
92.14886260140086
 30
0.0
 10
138.4269032736828
 20
92.14282216681677
 30
0.0
 10
138.4076700869406
 20
92.13922162045026
 30
0.0
 10
138.4126828054339
 20
92.14015944225548
 30
0.0
 10
138.4152237025098
 20
92.14063481478755
 30
0.0
  0
SPLINE
  5
F8
330
1F
100
AcDbEntity
  8
0
  6
HIDDEN
 62
     7
370
     0
100
AcDbSpline
210
0.0
220
0.0
230
1.0
 70
     8
 71
     3
 72
    30
 73
    26
 74
     0
 42
0.000000001
 43
0.00000001
 40
0.0
 40
0.0
 40
0.0
 40
0.0
 40
0.0156161600804331
 40
0.0849748372628075
 40
0.1203204532886738
 40
0.1543185190912393
 40
0.2234436946574005
 40
0.2586467089786598
 40
0.2931107206687004
 40
0.3631864361325597
 40
0.3988795186727321
 40
0.4336750628309716
 40
0.4687145712104801
 40
0.5045294144990536
 40
0.5406151111978524
 40
0.5750767863722911
 40
0.6452033649630269
 40
0.6809575734718852
 40
0.7149323277721678
 40
0.7840330582955262
 40
0.8192378401372478
 40
0.85333470632184
 40
0.9226550151093983
 40
0.9579547149334477
 40
1.0
 40
1.0
 40
1.0
 40
1.0
 10
138.4106242449581
 20
132.1386058940435
 30
0.0
 10
138.410026505873
 20
132.1387181469252
 30
0.0
 10
138.4067739276963
 20
132.1393289674025
 30
0.0
 10
138.4570948301447
 20
132.1298698329454
 30
0.0
 10
138.557399859186
 20
132.1115649968492
 30
0.0
 10
138.6920168472557
 20
132.0875816914754
 30
0.0
 10
138.8740754922857
 20
132.056482897329
 30
0.0
 10
139.100998065951
 20
132.0205637532867
 30
0.0
 10
139.3575844713284
 20
131.9822447321476
 30
0.0
 10
139.6556211298011
 20
131.9419995968394
 30
0.0
 10
139.9881703838008
 20
131.903338573437
 30
0.0
 10
140.2533680892051
 20
131.8759359147058
 30
0.0
 10
140.532425914464
 20
131.8508910780936
 30
0.0
 10
140.8268769303582
 20
131.828723380798
 30
0.0
 10
141.1297418636744
 20
131.8105612935281
 30
0.0
 10
141.5401278505432
 20
131.7923031885337
 30
0.0
 10
141.960968689498
 20
131.7834559545292
 30
0.0
 10
142.380872606727
 20
131.7849213489704
 30
0.0
 10
142.7954871275807
 20
131.7929647421377
 30
0.0
 10
143.2017082470565
 20
131.810471527737
 30
0.0
 10
143.5912387467785
 20
131.8360368407649
 30
0.0
 10
143.9680594480168
 20
131.866221076479
 30
0.0
 10
144.3211966077208
 20
131.9021186513265
 30
0.0
 10
144.6629480955424
 20
131.9429369291851
 30
0.0
 10
144.824621856552
 20
131.9648218427516
 30
0.0
 10
144.9125088653741
 20
131.9767186377521
 30
0.0
  0
LINE
  5
F9
330
1F
100
AcDbEntity
  8
0
  6
HIDDEN
 62
     7
370
     0
100
AcDbLine
 10
132.16148146
 20
95.1391901619
 30
0.0
 11
132.16148146
 21
129.1391901619
 31
0.0
  0
SPLINE
  5
FA
330
1F
100
AcDbEntity
  8
0
  6
HIDDEN
 62
     7
370
     0
100
AcDbSpline
210
0.0
220
0.0
230
1.0
 70
     8
 71
     3
 72
     8
 73
     4
 74
     0
 42
0.000000001
 43
0.00000001
 40
0.0
 40
0.0
 40
0.0
 40
0.0
 40
0.0011559732291308
 40
0.0011559732291308
 40
0.0011559732291308
 40
0.0011559732291308
 10
119.2575068637725
 20
114.1390307805623
 30
0.0
 10
119.5908414388398
 20
114.1350635007631
 30
0.0
 10
119.9241726298666
 20
114.1308836181924
 30
0.0
 10
120.2575068637725
 20
114.1263184647846
 30
0.0
  0
SPLINE
  5
FB
330
1F
100
AcDbEntity
  8
0
  6
HIDDEN
 62
     7
370
     0
100
AcDbSpline
210
0.0
220
0.0
230
1.0
 70
     8
 71
     3
 72
    11
 73
     7
 74
     0
 42
0.000000001
 43
0.00000001
 40
0.0
 40
0.0
 40
0.0
 40
0.0
 40
0.0005782382535738
 40
0.0005782382535738
 40
0.0005782382535738
 40
0.0011564766069467
 40
0.0011564766069467
 40
0.0011564766069467
 40
0.0011564766069467
 10
120.2575068637725
 20
110.1424898597174
 30
0.0
 10
120.0908529098039
 20
110.1420522819557
 30
0.0
 10
119.924192237602
 20
110.1415722172833
 30
0.0
 10
119.7575253489366
 20
110.141052677914
 30
0.0
 10
119.5908584305405
 20
110.140533138452
 30
0.0
 10
119.4241853007072
 20
110.13997430943
 30
0.0
 10
119.2575068637725
 20
110.1393887658469
 30
0.0
  0
LINE
  5
FC
330
1F
100
AcDbEntity
  8
0
  6
HIDDEN
 62
     7
370
     0
100
AcDbLine
 10
158.8173328323
 20
95.1391901619
 30
0.0
 11
158.8173328323
 21
129.1391901619
 31
0.0
  0
LINE
  5
FD
330
1F
100
AcDbEntity
  8
0
  6
HIDDEN
 62
     7
370
     0
100
AcDbLine
 10
161.1075068638
 20
96.4141901619
 30
0.0
 11
161.1075068638
 21
127.8641901518
 31
0.0
  0
SPLINE
  5
FE
330
1F
100
AcDbEntity
  8
0
  6
HIDDEN
 62
     7
370
     0
100
AcDbSpline
210
0.0
220
0.0
230
1.0
 70
     8
 71
     3
 72
    16
 73
    12
 74
     0
 42
0.000000001
 43
0.00000001
 40
0.0
 40
0.0
 40
0.0
 40
0.0
 40
0.124999999999998
 40
0.124999999999998
 40
0.249999999999996
 40
0.249999999999996
 40
0.4999999999999973
 40
0.4999999999999973
 40
0.7499999999999987
 40
0.7499999999999987
 40
1.0
 40
1.0
 40
1.0
 40
1.0
 10
127.9575068637725
 20
96.33769972590397
 30
0.0
 10
128.0526286184383
 20
96.33769972590397
 30
0.0
 10
128.1459586871664
 20
96.33388389251117
 30
0.0
 10
128.3292204479044
 20
96.31911333978135
 30
0.0
 10
128.4200981634615
 20
96.30795529180577
 30
0.0
 10
128.6768998609812
 20
96.26548402166405
 30
0.0
 10
128.8319672258532
 20
96.22443782446126
 30
0.0
 10
129.0857136874078
 20
96.12929170787937
 30
0.0
 10
129.1865841390756
 20
96.07452897379778
 30
0.0
 10
129.3218305537705
 20
95.96326784989392
 30
0.0
 10
129.3575068637725
 20
95.90609811256523
 30
0.0
 10
129.3575068637725
 20
95.8516765395315
 30
0.0
  0
SPLINE
  5
FF
330
1F
100
AcDbEntity
  8
0
  6
HIDDEN
 62
     7
370
     0
100
AcDbSpline
210
0.0
220
0.0
230
1.0
 70
     8
 71
     3
 72
     8
 73
     4
 74
     0
 42
0.000000001
 43
0.00000001
 40
0.0
 40
0.0
 40
0.0
 40
0.0
 40
1.0
 40
1.0
 40
1.0
 40
1.0
 10
120.5575068637736
 20
98.48250267198621
 30
0.0
 10
120.5575068637755
 20
97.59860552966927
 30
0.0
 10
120.544026237866
 20
96.88402228460733
 30
0.0
 10
120.5426748696749
 20
96.33769972590397
 30
0.0
  0
SPLINE
  5
100
330
1F
100
AcDbEntity
  8
0
  6
HIDDEN
 62
     7
370
     0
100
AcDbSpline
210
0.0
220
0.0
230
1.0
 70
     8
 71
     3
 72
    10
 73
     6
 74
     0
 42
0.000000001
 43
0.00000001
 40
0.0
 40
0.0
 40
0.0
 40
0.0
 40
0.5
 40
0.5
 40
1.0
 40
1.0
 40
1.0
 40
1.0
 10
120.2575068637725
 20
99.50741293128151
 30
0.0
 10
120.3488979784117
 20
99.33277414473507
 30
0.0
 10
120.421549811452
 20
99.15917231858865
 30
0.0
 10
120.5290487032723
 20
98.81555890174742
 30
0.0
 10
120.557506863768
 20
98.64723307626289
 30
0.0
 10
120.5575068637736
 20
98.48250267204571
 30
0.0
  0
LINE
  5
101
330
1F
100
AcDbEntity
  8
0
  6
HIDDEN
 62
     7
370
     0
100
AcDbLine
 10
120.2575068638
 20
102.5383633772
 30
0.0
 11
120.2575068638
 21
99.5074129313
 31
0.0
  0
SPLINE
  5
102
330
1F
100
AcDbEntity
  8
0
  6
HIDDEN
 62
     7
370
     0
100
AcDbSpline
210
0.0
220
0.0
230
1.0
 70
     8
 71
     3
 72
    10
 73
     6
 74
     0
 42
0.000000001
 43
0.00000001
 40
0.0
 40
0.0
 40
0.0
 40
0.0
 40
0.5
 40
0.5
 40
1.0
 40
1.0
 40
1.0
 40
1.0
 10
120.557506863736
 20
103.9062037862928
 30
0.0
 10
120.557506863736
 20
103.6642198201208
 30
0.0
 10
120.5293568349898
 20
103.4298773925016
 30
0.0
 10
120.4257669220191
 20
102.9745023727668
 30
0.0
 10
120.3491382132574
 20
102.7528978108846
 30
0.0
 10
120.2575068637725
 20
102.5383633771753
 30
0.0
  0
LINE
  5
103
330
1F
100
AcDbEntity
  8
0
  6
HIDDEN
 62
     7
370
     0
100
AcDbLine
 10
120.5575068637
 20
115.7438237835
 30
0.0
 11
120.5575068637
 21
103.9062037862
 31
0.0
  0
SPLINE
  5
104
330
1F
100
AcDbEntity
  8
0
  6
HIDDEN
 62
     7
370
     0
100
AcDbSpline
210
0.0
220
0.0
230
1.0
 70
     8
 71
     3
 72
     8
 73
     4
 74
     0
 42
0.000000001
 43
0.00000001
 40
0.0
 40
0.0
 40
0.0
 40
0.0
 40
1.0
 40
1.0
 40
1.0
 40
1.0
 10
120.2575068637725
 20
121.7461294752148
 30
0.0
 10
120.4385383284395
 20
121.3140219918034
 30
0.0
 10
120.5575068637417
 20
120.859876588227
 30
0.0
 10
120.557506863736
 20
120.3721765375476
 30
0.0
  0
LINE
  5
105
330
1F
100
AcDbEntity
  8
0
  6
HIDDEN
 62
     7
370
     0
100
AcDbLine
 10
120.2575068638
 20
124.7793324754
 30
0.0
 11
120.2575068638
 21
121.7461294752
 31
0.0
  0
SPLINE
  5
106
330
1F
100
AcDbEntity
  8
0
  6
HIDDEN
 62
     7
370
     0
100
AcDbSpline
210
0.0
220
0.0
230
1.0
 70
     8
 71
     3
 72
    10
 73
     6
 74
     0
 42
0.000000001
 43
0.00000001
 40
0.0
 40
0.0
 40
0.0
 40
0.0
 40
0.5
 40
0.5
 40
1.0
 40
1.0
 40
1.0
 40
1.0
 10
120.5575068638776
 20
125.7958776518555
 30
0.0
 10
120.5575068638759
 20
125.6312413062622
 30
0.0
 10
120.530348193451
 20
125.4640860834759
 30
0.0
 10
120.4245831993915
 20
125.1254630778137
 30
0.0
 10
120.3481684118707
 20
124.953191301657
 30
0.0
 10
120.2575068637726
 20
124.7793324754066
 30
0.0
  0
SPLINE
  5
107
330
1F
100
AcDbEntity
  8
0
  6
HIDDEN
 62
     7
370
     0
100
AcDbSpline
210
0.0
220
0.0
230
1.0
 70
     8
 71
     3
 72
    18
 73
    14
 74
     0
 42
0.000000001
 43
0.00000001
 40
0.0
 40
0.0
 40
0.0
 40
0.0
 40
0.2500000000000003
 40
0.2500000000000003
 40
0.3750000000000002
 40
0.3750000000000002
 40
0.5
 40
0.5
 40
0.6249999999999998
 40
0.6249999999999998
 40
0.7499999999999997
 40
0.7499999999999997
 40
1.0
 40
1.0
 40
1.0
 40
1.0
 10
125.3575068637725
 20
128.4267037843398
 30
0.0
 10
125.3575068637725
 20
128.3722292637875
 30
0.0
 10
125.3225961723804
 20
128.3158482044351
 30
0.0
 10
125.2205868710473
 20
128.2317713635816
 30
0.0
 10
125.1789505163692
 20
128.2044376595907
 30
0.0
 10
125.0805447208805
 20
128.1514837439917
 30
0.0
 10
125.0230015091762
 20
128.1255963902745
 30
0.0
 10
124.8957033356032
 20
128.0778188454412
 30
0.0
 10
124.8261160308458
 20
128.0558709272634
 30
0.0
 10
124.6746817856908
 20
128.0164383623507
 30
0.0
 10
124.5919978825968
 20
127.9988821131248
 30
0.0
 10
124.3358864205588
 20
127.9564433477043
 30
0.0
 10
124.1479714166708
 20
127.9406805979673
 30
0.0
 10
123.9575068637725
 20
127.9406805979673
 30
0.0
  0
LINE
  5
108
330
1F
100
AcDbEntity
  8
0
  6
HIDDEN
 62
     7
370
     0
100
AcDbLine
 10
123.9575068638
 20
127.940680598
 30
0.0
 11
120.5575068639
 21
127.940680598
 31
0.0
  0
LINE
  5
109
330
1F
100
AcDbEntity
  8
0
  6
HIDDEN
 62
     7
370
     0
100
AcDbLine
 10
120.4885378771
 20
96.3376997259
 30
0.0
 11
127.9575068638
 21
96.3376997259
 31
0.0
  0
SPLINE
  5
10A
330
1F
100
AcDbEntity
  8
0
  6
HIDDEN
 62
     7
370
     0
100
AcDbSpline
210
0.0
220
0.0
230
1.0
 70
     8
 71
     3
 72
    22
 73
    18
 74
     0
 42
0.000000001
 43
0.00000001
 40
0.0
 40
0.0
 40
0.0
 40
0.0
 40
0.1249999999999998
 40
0.1249999999999998
 40
0.2499999999999996
 40
0.2499999999999996
 40
0.4999999999999997
 40
0.4999999999999997
 40
0.5624999999999997
 40
0.5624999999999997
 40
0.6249999999999997
 40
0.6249999999999997
 40
0.7499999999999997
 40
0.7499999999999997
 40
0.8749999999999999
 40
0.8749999999999999
 40
1.0
 40
1.0
 40
1.0
 40
1.0
 10
120.4885378771304
 20
96.33769972590397
 30
0.0
 10
120.475455484402
 20
96.59280543605165
 30
0.0
 10
120.4622359209622
 20
96.88596369515555
 30
0.0
 10
120.4397887431681
 20
97.54826416078036
 30
0.0
 10
120.4303102761436
 20
97.91853808139173
 30
0.0
 10
120.4111123152071
 20
99.14109488450552
 30
0.0
 10
120.412226088204
 20
100.0782338106374
 30
0.0
 10
120.4311368811571
 20
101.3981050401524
 30
0.0
 10
120.4357664090161
 20
101.6696069491287
 30
0.0
 10
120.446247628762
 20
102.227991783931
 30
0.0
 10
120.4520428900464
 20
102.5151146398706
 30
0.0
 10
120.4703521109514
 20
103.3877038942423
 30
0.0
 10
120.4843870452317
 20
103.9881595705981
 30
0.0
 10
120.5138442173686
 20
105.2256340630942
 30
0.0
 10
120.5293999083501
 20
105.8626502197377
 30
0.0
 10
120.553194458347
 20
107.1741388174222
 30
0.0
 10
120.5612135104924
 20
107.8502614290827
 30
0.0
 10
120.5575068637725
 20
108.5345565403675
 30
0.0
  0
LINE
  5
10B
330
1F
100
AcDbEntity
  8
0
  6
HIDDEN
 62
     7
370
     0
100
AcDbLine
 10
120.5575068639
 20
115.7438237835
 30
0.0
 11
120.5575068639
 21
127.940680598
 31
0.0
  0
SPLINE
  5
10C
330
1F
100
AcDbEntity
  8
0
  6
HIDDEN
 62
     7
370
     0
100
AcDbSpline
210
0.0
220
0.0
230
1.0
 70
     8
 71
     3
 72
    10
 73
     6
 74
     0
 42
0.000000001
 43
0.00000001
 40
0.0
 40
0.0
 40
0.0
 40
0.0
 40
0.5
 40
0.5
 40
1.0
 40
1.0
 40
1.0
 40
1.0
 10
120.5575068637725
 20
108.5345565403525
 30
0.0
 10
120.5575068637723
 20
108.8084716884266
 30
0.0
 10
120.5317476339035
 20
109.0794132671561
 30
0.0
 10
120.4285417011701
 20
109.6151043487583
 30
0.0
 10
120.3512035372957
 20
109.88085115228
 30
0.0
 10
120.2575068637725
 20
110.1424898597174
 30
0.0
  0
SPLINE
  5
10D
330
1F
100
AcDbEntity
  8
0
  6
HIDDEN
 62
     7
370
     0
100
AcDbSpline
210
0.0
220
0.0
230
1.0
 70
     8
 71
     3
 72
    10
 73
     6
 74
     0
 42
0.000000001
 43
0.00000001
 40
0.0
 40
0.0
 40
0.0
 40
0.0
 40
0.5
 40
0.5
 40
1.0
 40
1.0
 40
1.0
 40
1.0
 10
120.2575068637725
 20
114.1263184647846
 30
0.0
 10
120.3507374441236
 20
114.3902122713829
 30
0.0
 10
120.4257670556523
 20
114.6563925804813
 30
0.0
 10
120.5308341536319
 20
115.1947151522999
 30
0.0
 10
120.5575068638765
 20
115.4674632669156
 30
0.0
 10
120.5575068638776
 20
115.7438237835027
 30
0.0
  0
LINE
  5
10E
330
1F
100
AcDbEntity
  8
0
  6
HIDDEN
 62
     7
370
     0
100
AcDbLine
 10
120.2575068638
 20
110.1424898597
 30
0.0
 11
120.2575068638
 21
114.1263184648
 31
0.0
  0
CIRCLE
  5
10F
330
1F
100
AcDbEntity
  8
0
  6
HIDDEN
 62
     7
370
     0
100
AcDbCircle
 10
184.1075068638
 20
112.1391901619
 30
0.0
 40
3.5
  0
LINE
  5
110
330
1F
100
AcDbEntity
  8
0
  6
HIDDEN
 62
     7
370
     0
100
AcDbLine
 10
120.4075068638
 20
94.1491901619
 30
0.0
 11
120.4075068638
 21
91.2692523965
 31
0.0
  0
LINE
  5
111
330
1F
100
AcDbEntity
  8
0
  6
HIDDEN
 62
     7
370
     0
100
AcDbLine
 10
129.3575068638
 20
94.1491901619
 30
0.0
 11
129.3575068638
 21
90.1754526307
 31
0.0
  0
LINE
  5
112
330
1F
100
AcDbEntity
  8
0
  6
HIDDEN
 62
     7
370
     0
100
AcDbLine
 10
120.4075068638
 20
130.1291901619
 30
0.0
 11
120.4075068638
 21
133.0091279273
 31
0.0
  0
LINE
  5
113
330
1F
100
AcDbEntity
  8
0
  6
HIDDEN
 62
     7
370
     0
100
AcDbLine
 10
125.3575068638
 20
130.1291901619
 30
0.0
 11
125.3575068638
 21
133.9832978343
 31
0.0
  0
LINE
  5
114
330
1F
100
AcDbEntity
  8
0
  6
HIDDEN
 62
     7
370
     0
100
AcDbLine
 10
169.9575068638
 20
102.6391901619
 30
0.0
 11
169.9575068638
 21
121.6391901619
 31
0.0
  0
LINE
  5
115
330
1F
100
AcDbEntity
  8
0
  6
HIDDEN
 62
     7
370
     0
100
AcDbLine
 10
172.9575068638
 20
102.6391901619
 30
0.0
 11
172.9575068638
 21
121.6391901619
 31
0.0
  0
LINE
  5
116
330
1F
100
AcDbEntity
  8
0
  6
HIDDEN
 62
     7
370
     0
100
AcDbLine
 10
177.1075068638
 20
85.7391901619
 30
0.0
 11
170.9698320614
 21
85.7391901619
 31
0.0
  0
LINE
  5
117
330
1F
100
AcDbEntity
  8
0
  6
HIDDEN
 62
     7
370
     0
100
AcDbLine
 10
161.6075068638
 20
103.6391901619
 30
0.0
 11
161.6075068638
 21
120.6391901619
 31
0.0
  0
LINE
  5
118
330
1F
100
AcDbEntity
  8
0
  6
HIDDEN
 62
     7
370
     0
100
AcDbLine
 10
167.3451816661
 20
85.7391901619
 30
0.0
 11
164.1075068638
 21
85.7391901619
 31
0.0
  0
LINE
  5
119
330
1F
100
AcDbEntity
  8
0
  6
HIDDEN
 62
     7
370
     0
100
AcDbLine
 10
156.1075068638
 20
80.6550671791
 30
0.0
 11
156.1075068638
 21
85.7391901619
 31
0.0
  0
LINE
  5
11A
330
1F
100
AcDbEntity
  8
0
  6
HIDDEN
 62
     7
370
     0
100
AcDbLine
 10
164.1075068638
 20
85.7391901619
 30
0.0
 11
156.1075068638
 21
85.7391901619
 31
0.0
  0
LINE
  5
11B
330
1F
100
AcDbEntity
  8
0
  6
HIDDEN
 62
     7
370
     0
100
AcDbLine
 10
164.1075068638
 20
138.5391901619
 30
0.0
 11
156.1075068638
 21
138.5391901619
 31
0.0
  0
LINE
  5
11C
330
1F
100
AcDbEntity
  8
0
  6
HIDDEN
 62
     7
370
     0
100
AcDbLine
 10
177.1075068638
 20
138.5391901619
 30
0.0
 11
170.6732093321
 21
138.5391901619
 31
0.0
  0
LINE
  5
11D
330
1F
100
AcDbEntity
  8
0
  6
HIDDEN
 62
     7
370
     0
100
AcDbLine
 10
167.6418043955
 20
138.5391901619
 30
0.0
 11
164.1075068638
 21
138.5391901619
 31
0.0
  0
LINE
  5
11E
330
1F
100
AcDbEntity
  8
0
  6
HIDDEN
 62
     7
370
     0
100
AcDbLine
 10
174.6575068638
 20
112.1391901619
 30
0.0
 11
174.6575068638
 21
105.4391901619
 31
0.0
  0
LINE
  5
11F
330
1F
100
AcDbEntity
  8
0
  6
HIDDEN
 62
     7
370
     0
100
AcDbLine
 10
174.6575068638
 20
118.8391901619
 30
0.0
 11
174.6575068638
 21
112.1391901619
 31
0.0
  0
LINE
  5
120
330
1F
100
AcDbEntity
  8
0
  6
HIDDEN
 62
     7
370
     0
100
AcDbLine
 10
178.0235322676
 20
112.1391901619
 30
0.0
 11
178.0235322676
 21
105.1391901619
 31
0.0
  0
LINE
  5
121
330
1F
100
AcDbEntity
  8
0
  6
HIDDEN
 62
     7
370
     0
100
AcDbLine
 10
178.0235322676
 20
119.1391901619
 30
0.0
 11
178.0235322676
 21
112.1391901619
 31
0.0
  0
SPLINE
  5
122
330
1F
100
AcDbEntity
  8
0
  6
HIDDEN
 62
     7
370
     0
100
AcDbSpline
210
0.0
220
0.0
230
1.0
 70
     8
 71
     3
 72
    11
 73
     7
 74
     0
 42
0.000000001
 43
0.00000001
 40
0.0
 40
0.0
 40
0.0
 40
0.0
 40
0.0008203708524183
 40
0.0008203708524183
 40
0.0008203708524183
 40
0.0016409967870154
 40
0.0016409967870154
 40
0.0016409967870154
 40
0.0016409967870154
 10
120.4075068637725
 20
96.28715741129291
 30
0.0
 10
120.2163485634739
 20
96.24597838267377
 30
0.0
 10
120.0249214934017
 20
96.20722441044377
 30
0.0
 10
119.833275869881
 20
96.17085665116524
 30
0.0
 10
119.6415704648006
 20
96.13447754739919
 30
0.0
 10
119.4496315127416
 20
96.10048329663165
 30
0.0
 10
119.2575068656708
 20
96.06883517124044
 30
0.0
  0
ELLIPSE
  5
123
330
1F
100
AcDbEntity
  8
0
  6
HIDDEN
 62
     7
370
     0
100
AcDbEllipse
 10
115.015075001
 20
112.1391901619
 30
0.0
 11
20.19992452772426
 21
-1.421085471520200E-14
 31
0.0
210
0.0
220
0.0
230
1.0
 40
0.816496581
 41
1.300566354937166
 42
1.359198697442763
  0
LINE
  5
124
330
1F
100
AcDbEntity
  8
0
  6
HIDDEN
 62
     7
370
     0
100
AcDbLine
 10
129.3575068638
 20
94.1491901619
 30
0.0
 11
129.3575068638
 21
95.8516765395
 31
0.0
  0
LINE
  5
125
330
1F
100
AcDbEntity
  8
0
  6
HIDDEN
 62
     7
370
     0
100
AcDbLine
 10
120.4075068638
 20
94.1491901619
 30
0.0
 11
120.4075068638
 21
96.2871574113
 31
0.0
  0
LINE
  5
126
330
1F
100
AcDbEntity
  8
0
  6
HIDDEN
 62
     7
370
     0
100
AcDbLine
 10
120.4885378771
 20
96.3376997259
 30
0.0
 11
120.4075068638
 21
96.2871574113
 31
0.0
  0
LINE
  5
127
330
1F
100
AcDbEntity
  8
0
  6
HIDDEN
 62
     7
370
     0
100
AcDbLine
 10
125.3575068638
 20
130.1291901619
 30
0.0
 11
125.3575068638
 21
128.4267037843
 31
0.0
  0
LINE
  5
128
330
1F
100
AcDbEntity
  8
0
  6
HIDDEN
 62
     7
370
     0
100
AcDbLine
 10
120.4075068638
 20
130.1291901619
 30
0.0
 11
120.4075068638
 21
128.0338146109
 31
0.0
  0
SPLINE
  5
129
330
1F
100
AcDbEntity
  8
0
  6
HIDDEN
 62
     7
370
     0
100
AcDbSpline
210
0.0
220
0.0
230
1.0
 70
     8
 71
     3
 72
     8
 73
     4
 74
     0
 42
0.000000001
 43
0.00000001
 40
0.0
 40
0.0
 40
0.0
 40
0.0
 40
1.0
 40
1.0
 40
1.0
 40
1.0
 10
120.4075068637725
 20
128.0338146109342
 30
0.0
 10
120.45751236162
 20
128.0027788374014
 30
0.0
 10
120.5075124311883
 20
127.9717341930605
 30
0.0
 10
120.5575068638777
 20
127.9406805979673
 30
0.0
  0
SPLINE
  5
12A
330
1F
100
AcDbEntity
  8
0
  6
HIDDEN
 62
     7
370
     0
100
AcDbSpline
210
0.0
220
0.0
230
1.0
 70
     8
 71
     3
 72
    27
 73
    23
 74
     0
 42
0.000000001
 43
0.00000001
 40
0.0
 40
0.0
 40
0.0
 40
0.0
 40
0.052456791925274
 40
0.1118239064733872
 40
0.1772225896816359
 40
0.2122554525057523
 40
0.2488237922445868
 40
0.329423716101171
 40
0.3980696196450603
 40
0.4372184485793182
 40
0.4710416989753519
 40
0.4995485320723235
 40
0.5540425296157557
 40
0.6137827389136379
 40
0.6788288060568154
 40
0.7134075527805742
 40
0.7493346556391954
 40
0.8293332013398897
 40
0.8976509829639878
 40
0.9542741740764086
 40
0.999200079764346
 40
1.0
 40
1.0
 40
1.0
 40
1.0
 10
145.9065737998054
 20
88.53916076207317
 30
0.0
 10
145.8969412196701
 20
88.54226914633182
 30
0.0
 10
145.8764071248347
 20
88.54889539353198
 30
0.0
 10
145.6900220102053
 20
88.59867129924852
 30
0.0
 10
145.4151327135946
 20
88.66237979742668
 30
0.0
 10
145.1069907380165
 20
88.72826774585586
 30
0.0
 10
144.713871821266
 20
88.81075059157051
 30
0.0
 10
144.1375083043308
 20
88.91310599368958
 30
0.0
 10
143.4642949075588
 20
89.00564851338977
 30
0.0
 10
142.9284393274474
 20
89.06723144271945
 30
0.0
 10
142.5347062558666
 20
89.10544492514937
 30
0.0
 10
142.0765296316453
 20
89.13926876629957
 30
0.0
 10
141.5141198845923
 20
89.1588471057736
 30
0.0
 10
140.8287744218731
 20
89.1597757368727
 30
0.0
 10
140.2621020485375
 20
89.14158821560812
 30
0.0
 10
139.8260127150064
 20
89.11673569741141
 30
0.0
 10
139.382564181316
 20
89.08075242260419
 30
0.0
 10
138.9324684586499
 20
89.03527069546732
 30
0.0
 10
138.5906556608274
 20
88.99341824486814
 30
0.0
 10
138.4448882246492
 20
88.96979590672039
 30
0.0
 10
138.3954695605465
 20
88.95797507154133
 30
0.0
 10
138.4079528590973
 20
88.9606670845065
 30
0.0
 10
138.4081712399121
 20
88.96071417814782
 30
0.0
  0
SPLINE
  5
12B
330
1F
100
AcDbEntity
  8
0
  6
HIDDEN
 62
     7
370
     0
100
AcDbSpline
210
0.0
220
0.0
230
1.0
 70
     8
 71
     3
 72
    27
 73
    23
 74
     0
 42
0.000000001
 43
0.00000001
 40
0.0
 40
0.0
 40
0.0
 40
0.0
 40
0.000842887593687
 40
0.0457257500139985
 40
0.1023078581212127
 40
0.1705864822825963
 40
0.2091784562313304
 40
0.2507060200376187
 40
0.3211523482974213
 40
0.3862465917722062
 40
0.4267260581488591
 40
0.4648576092507025
 40
0.5006622060241768
 40
0.5452543190845746
 40
0.6017490170740525
 40
0.670155526857586
 40
0.7088931599248695
 40
0.7506222318182557
 40
0.8222873777214399
 40
0.8878273150385602
 40
0.9473015352709752
 40
1.0
 40
1.0
 40
1.0
 40
1.0
 10
138.4082031661998
 20
135.3175983142994
 30
0.0
 10
138.4079712338055
 20
135.3176483136198
 30
0.0
 10
138.3953891495996
 20
135.3203607232494
 30
0.0
 10
138.4444556967387
 20
135.3085308794346
 30
0.0
 10
138.5895735189162
 20
135.2850835872898
 30
0.0
 10
138.8626215566586
 20
135.2511803967948
 30
0.0
 10
139.1911487040766
 20
135.217611444866
 30
0.0
 10
139.5838762911741
 20
135.1794281476894
 30
0.0
 10
140.1336043433975
 20
135.1404594572541
 30
0.0
 10
140.7596269679708
 20
135.1209983576458
 30
0.0
 10
141.302818481691
 20
135.1188126790515
 30
0.0
 10
141.7478873778183
 20
135.1273275603756
 30
0.0
 10
142.2143351746473
 20
135.1471109573037
 30
0.0
 10
142.7515758228765
 20
135.1912733426075
 30
0.0
 10
143.3997892582848
 20
135.2636889637927
 30
0.0
 10
143.9853278700764
 20
135.3445910523099
 30
0.0
 10
144.4662975280736
 20
135.4227570519444
 30
0.0
 10
144.9117122384117
 20
135.5075291431257
 30
0.0
 10
145.3502131449773
 20
135.6013124898294
 30
0.0
 10
145.6892340828805
 20
135.6792151486103
 30
0.0
 10
145.8765445319168
 20
135.7293984520897
 30
0.0
 10
145.8970326937239
 20
135.7360639438488
 30
0.0
 10
145.9066579841653
 20
135.7391953762692
 30
0.0
  0
SPLINE
  5
12C
330
1F
100
AcDbEntity
  8
0
  6
HIDDEN
 62
     7
370
     0
100
AcDbSpline
210
0.0
220
0.0
230
1.0
 70
     8
 71
     3
 72
     8
 73
     4
 74
     0
 42
0.000000001
 43
0.00000001
 40
0.0
 40
0.0
 40
0.0
 40
0.0
 40
0.000159097691435
 40
0.000159097691435
 40
0.000159097691435
 40
0.000159097691435
 10
120.5426748696749
 20
96.33769972590397
 30
0.0
 10
120.4976234002755
 20
96.30972084227008
 30
0.0
 10
120.452567362966
 20
96.28174931258452
 30
0.0
 10
120.4075068637725
 20
96.25378497392117
 30
0.0
  0
SPLINE
  5
12D
330
1F
100
AcDbEntity
  8
0
  6
HIDDEN
 62
     7
370
     0
100
AcDbSpline
210
0.0
220
0.0
230
1.0
 70
     8
 71
     3
 72
    11
 73
     7
 74
     0
 42
0.000000001
 43
0.00000001
 40
0.0
 40
0.0
 40
0.0
 40
0.0
 40
0.0008212909311356
 40
0.0008212909311356
 40
0.0008212909311356
 40
0.0016428257242859
 40
0.0016428257242859
 40
0.0016428257242859
 40
0.0016428257242859
 10
120.4075068637725
 20
96.25378497392117
 30
0.0
 10
120.2163618422902
 20
96.21049878509139
 30
0.0
 10
120.0249435066136
 20
96.16956227547735
 30
0.0
 10
119.8332974319525
 20
96.13096050411451
 30
0.0
 10
119.6415943504109
 20
96.09234725030116
 30
0.0
 10
119.4496492271255
 20
96.05606704103944
 30
0.0
 10
119.2575068637725
 20
96.02210013471272
 30
0.0
  0
LINE
  5
12E
330
1F
100
AcDbEntity
  8
0
  6
HIDDEN
 62
     7
370
     0
100
AcDbLine
 10
167.2475068638
 20
132.2750567934
 30
0.0
 11
167.2475068638
 21
131.9891901619
 31
0.0
  0
LINE
  5
12F
330
1F
100
AcDbEntity
  8
0
  6
HIDDEN
 62
     7
370
     0
100
AcDbLine
 10
171.0675068638
 20
132.2750567934
 30
0.0
 11
171.0675068638
 21
131.9891901619
 31
0.0
  0
LINE
  5
130
330
1F
100
AcDbEntity
  8
0
  6
HIDDEN
 62
     7
370
     0
100
AcDbLine
 10
172.5494396953
 20
136.5978798243
 30
0.0
 11
172.5494396953
 21
131.9891901619
 31
0.0
  0
SPLINE
  5
131
330
1F
100
AcDbEntity
  8
0
  6
HIDDEN
 62
     7
370
     0
100
AcDbSpline
210
0.0
220
0.0
230
1.0
 70
     8
 71
     3
 72
     8
 73
     4
 74
     0
 42
0.000000001
 43
0.00000001
 40
0.0000000000000004
 40
0.0000000000000004
 40
0.0000000000000004
 40
0.0000000000000004
 40
0.001156372467817
 40
0.001156372467817
 40
0.001156372467817
 40
0.001156372467817
 10
120.2575068637728
 20
124.7793324754113
 30
0.0
 10
119.9241857485756
 20
124.9083915010381
 30
0.0
 10
119.5908530677675
 20
125.0373518372067
 30
0.0
 10
119.2575068637725
 20
125.1662633669796
 30
0.0
  0
SPLINE
  5
132
330
1F
100
AcDbEntity
  8
0
  6
HIDDEN
 62
     7
370
     0
100
AcDbSpline
210
0.0
220
0.0
230
1.0
 70
     8
 71
     3
 72
    11
 73
     7
 74
     0
 42
0.000000001
 43
0.00000001
 40
0.0
 40
0.0
 40
0.0
 40
0.0
 40
0.000577874610501
 40
0.000577874610501
 40
0.000577874610501
 40
0.001155749485703
 40
0.001155749485703
 40
0.001155749485703
 40
0.001155749485703
 10
119.2575068637725
 20
99.1119682994849
 30
0.0
 10
119.4241737401856
 20
99.17778042626792
 30
0.0
 10
119.5908404597469
 20
99.24363890649549
 30
0.0
 10
119.7575071077955
 20
99.30954647951783
 30
0.0
 10
119.9241738323142
 20
99.37545408277991
 30
0.0
 10
120.0908405267349
 20
99.4414111912619
 30
0.0
 10
120.2575068637725
 20
99.50741293128151
 30
0.0
  0
SPLINE
  5
133
330
1F
100
AcDbEntity
  8
0
  6
HIDDEN
 62
     7
370
     0
100
AcDbSpline
210
0.0
220
0.0
230
1.0
 70
     8
 71
     3
 72
    11
 73
     7
 74
     0
 42
0.000000001
 43
0.00000001
 40
0.0000000000000006
 40
0.0000000000000006
 40
0.0000000000000006
 40
0.0000000000000006
 40
0.000578048606266
 40
0.000578048606266
 40
0.000578048606266
 40
0.001156097351391
 40
0.001156097351391
 40
0.001156097351391
 40
0.001156097351391
 10
119.2575068637725
 20
122.1200046552229
 30
0.0
 10
119.4241767198177
 20
122.0576327938177
 30
0.0
 10
119.5908444239022
 20
121.9952789336263
 30
0.0
 10
119.7575107283558
 20
121.9329593735427
 30
0.0
 10
119.9241770690495
 20
121.8706397999084
 30
0.0
 10
120.0908420256782
 20
121.8083545956878
 30
0.0
 10
120.2575068637725
 20
121.7461294752148
 30
0.0
  0
SPLINE
  5
134
330
1F
100
AcDbEntity
  8
0
  6
HIDDEN
 62
     7
370
     0
100
AcDbSpline
210
0.0
220
0.0
230
1.0
 70
     8
 71
     3
 72
    11
 73
     7
 74
     0
 42
0.000000001
 43
0.00000001
 40
0.0
 40
0.0
 40
0.0
 40
0.0
 40
0.0005782401583357
 40
0.0005782401583357
 40
0.0005782401583357
 40
0.001156480596064
 40
0.001156480596064
 40
0.001156480596064
 40
0.001156480596064
 10
120.2575068637725
 20
102.5383633771753
 30
0.0
 10
120.0908559134238
 20
102.4749379192363
 30
0.0
 10
119.9241963208412
 20
102.4115823957064
 30
0.0
 10
119.7575292684127
 20
102.3482848114851
 30
0.0
 10
119.5908621318489
 20
102.2849871953105
 30
0.0
 10
119.4241875244027
 20
102.2217474005016
 30
0.0
 10
119.2575068637725
 20
102.1585473939973
 30
0.0
  0
CIRCLE
  5
135
330
1F
100
AcDbEntity
  8
0
  6
HIDDEN
 62
     7
370
     0
100
AcDbCircle
 10
158.1575068638
 20
112.1391901619
 30
0.0
 40
5.0
  0
LINE
  5
136
330
1F
100
AcDbEntity
  8
0
  6
HIDDEN
 62
     7
370
     0
100
AcDbLine
 10
151.1575068638
 20
86.8152590159
 30
0.0
 11
151.2516676393
 21
87.4852477472
 31
0.0
  0
LINE
  5
137
330
1F
100
AcDbEntity
  8
0
  6
HIDDEN
 62
     7
370
     0
100
AcDbLine
 10
151.2516676393
 20
136.7931325767
 30
0.0
 11
151.1575068638
 21
137.4631213079
 31
0.0
  0
ARC
  5
138
330
1F
100
AcDbEntity
  8
0
  6
HIDDEN
 62
     7
370
     0
100
AcDbCircle
 10
150.6575001111
 20
87.5687525475
 30
0.0
 40
0.6000067526677383
100
AcDbArc
 50
352.0
 51
0.0
  0
ARC
  5
139
330
1F
100
AcDbEntity
  8
0
  6
HIDDEN
 62
     7
370
     0
100
AcDbCircle
 10
150.6575001111
 20
87.5687525475
 30
0.0
 40
0.6000067526677242
100
AcDbArc
 50
0.0
 51
33.5571153394
  0
ARC
  5
13A
330
1F
100
AcDbEntity
  8
0
  6
HIDDEN
 62
     7
370
     0
100
AcDbCircle
 10
150.6575001111
 20
136.7096277763
 30
0.0
 40
0.6000067526677363
100
AcDbArc
 50
348.75
 51
8.0
  0
LWPOLYLINE
  5
13B
330
1F
100
AcDbEntity
  8
0
  6
HIDDEN
 62
     7
370
     0
100
AcDbPolyline
 90
        3
 70
   128
 43
0.0
 10
151.2459779023
 20
136.5925722657
 10
151.2118340693
 20
136.4800151328
 10
151.1575068638
 20
136.3779632613
  0
LINE
  5
13C
330
1F
100
AcDbEntity
  8
0
  6
HIDDEN
 62
     7
370
     0
100
AcDbLine
 10
151.2575068638
 20
87.5687525475
 30
0.0
 11
151.2575068638
 21
136.7096277763
 31
0.0
  0
ARC
  5
13D
330
1F
100
AcDbEntity
  8
0
  6
HIDDEN
 62
     7
370
     0
100
AcDbCircle
 10
144.9125088654
 20
100.1391901619
 30
0.0
 40
7.999999999999999
100
AcDbArc
 50
277.0542283328
 51
321.3178125465
  0
ARC
  5
13E
330
1F
100
AcDbEntity
  8
0
  6
HIDDEN
 62
     7
370
     0
100
AcDbCircle
 10
144.9125088654
 20
124.1391901619
 30
0.0
 40
8.000000000000018
100
AcDbArc
 50
38.6821874535
 51
82.9469195222
  0
LINE
  5
13F
330
1F
100
AcDbEntity
  8
0
  6
HIDDEN
 62
     7
370
     0
100
AcDbLine
 10
134.2399424291
 20
92.1391901619
 30
0.0
 11
138.4152237025
 21
92.1391901619
 31
0.0
  0
LINE
  5
140
330
1F
100
AcDbEntity
  8
0
  6
HIDDEN
 62
     7
370
     0
100
AcDbLine
 10
138.410624245
 20
132.1391901619
 30
0.0
 11
134.2399424291
 21
132.1391901619
 31
0.0
  0
ARC
  5
141
330
1F
100
AcDbEntity
  8
0
  6
HIDDEN
 62
     7
370
     0
100
AcDbCircle
 10
134.2399424291
 20
92.7391901619
 30
0.0
 40
0.6000000000000013
100
AcDbArc
 50
210.0
 51
270.0
  0
ARC
  5
142
330
1F
100
AcDbEntity
  8
0
  6
HIDDEN
 62
     7
370
     0
100
AcDbCircle
 10
134.2399424291
 20
131.5391901619
 30
0.0
 40
0.6000000000000013
100
AcDbArc
 50
90.0
 51
150.0
  0
LINE
  5
143
330
1F
100
AcDbEntity
  8
0
  6
HIDDEN
 62
     7
370
     0
100
AcDbLine
 10
133.7203271868
 20
131.8391901619
 30
0.0
 11
132.16148146
 21
129.1391901619
 31
0.0
  0
LINE
  5
144
330
1F
100
AcDbEntity
  8
0
  6
HIDDEN
 62
     7
370
     0
100
AcDbLine
 10
132.16148146
 20
95.1391901619
 30
0.0
 11
133.7203271868
 21
92.4391901619
 31
0.0
  0
ARC
  5
145
330
1F
100
AcDbEntity
  8
0
  6
HIDDEN
 62
     7
370
     0
100
AcDbCircle
 10
159.6075068638
 20
96.4141901619
 30
0.0
 40
1.500000000000004
100
AcDbArc
 50
238.2116693829
 51
0.0
  0
ARC
  5
146
330
1F
100
AcDbEntity
  8
0
  6
HIDDEN
 62
     7
370
     0
100
AcDbCircle
 10
159.6075068638
 20
127.8641901619
 30
0.0
 40
1.50000000000004
100
AcDbArc
 50
0.0
 51
121.7883306171
  0
LINE
  5
147
330
1F
100
AcDbEntity
  8
0
  6
HIDDEN
 62
     7
370
     0
100
AcDbLine
 10
129.3575068638
 20
95.1391901619
 30
0.0
 11
132.16148146
 21
95.1391901619
 31
0.0
  0
LINE
  5
148
330
1F
100
AcDbEntity
  8
0
  6
HIDDEN
 62
     7
370
     0
100
AcDbLine
 10
132.16148146
 20
129.1391901619
 30
0.0
 11
125.3575068638
 21
129.1391901619
 31
0.0
  0
LINE
  5
149
330
1F
100
AcDbEntity
  8
0
  6
HIDDEN
 62
     7
370
     0
100
AcDbLine
 10
151.1575068638
 20
95.1391901619
 30
0.0
 11
158.8173328323
 21
95.1391901619
 31
0.0
  0
LINE
  5
14A
330
1F
100
AcDbEntity
  8
0
  6
HIDDEN
 62
     7
370
     0
100
AcDbLine
 10
158.8173328323
 20
129.1391901619
 30
0.0
 11
151.1575068638
 21
129.1391901619
 31
0.0
  0
LINE
  5
14B
330
1F
100
AcDbEntity
  8
0
  6
HIDDEN
 62
     7
370
     0
100
AcDbLine
 10
169.9575068638
 20
102.6391901619
 30
0.0
 11
172.9575068638
 21
102.6391901619
 31
0.0
  0
LINE
  5
14C
330
1F
100
AcDbEntity
  8
0
  6
HIDDEN
 62
     7
370
     0
100
AcDbLine
 10
172.9575068638
 20
121.6391901619
 30
0.0
 11
169.9575068638
 21
121.6391901619
 31
0.0
  0
LINE
  5
14D
330
1F
100
AcDbEntity
  8
0
  6
HIDDEN
 62
     7
370
     0
100
AcDbLine
 10
161.1075068638
 20
103.1391901619
 30
0.0
 11
161.6075068638
 21
103.6391901619
 31
0.0
  0
LINE
  5
14E
330
1F
100
AcDbEntity
  8
0
  6
HIDDEN
 62
     7
370
     0
100
AcDbLine
 10
161.6075068638
 20
120.6391901619
 30
0.0
 11
161.1075068638
 21
121.1391901619
 31
0.0
  0
LINE
  5
14F
330
1F
100
AcDbEntity
  8
0
  6
HIDDEN
 62
     7
370
     0
100
AcDbLine
 10
161.6075068638
 20
103.6391901619
 30
0.0
 11
169.9575068638
 21
103.6391901619
 31
0.0
  0
LINE
  5
150
330
1F
100
AcDbEntity
  8
0
  6
HIDDEN
 62
     7
370
     0
100
AcDbLine
 10
169.9575068638
 20
120.6391901619
 30
0.0
 11
161.6075068638
 21
120.6391901619
 31
0.0
  0
LINE
  5
151
330
1F
100
AcDbEntity
  8
0
  6
HIDDEN
 62
     7
370
     0
100
AcDbLine
 10
156.1075068638
 20
143.6391901619
 30
0.0
 11
156.1075068638
 21
138.5391901619
 31
0.0
  0
ARC
  5
152
330
1F
100
AcDbEntity
  8
0
  6
HIDDEN
 62
     7
370
     0
100
AcDbCircle
 10
192.1575068638
 20
120.1391901619
 30
0.0
 40
1.0
100
AcDbArc
 50
270.0
 51
0.0
  0
ARC
  5
153
330
1F
100
AcDbEntity
  8
0
  6
HIDDEN
 62
     7
370
     0
100
AcDbCircle
 10
192.1575068638
 20
104.1391901619
 30
0.0
 40
1.0
100
AcDbArc
 50
0.0
 51
90.0
  0
ARC
  5
154
330
1F
100
AcDbEntity
  8
0
  6
HIDDEN
 62
     7
370
     0
100
AcDbCircle
 10
176.0521848657
 20
118.8391901619
 30
0.0
 40
0.7999999999999972
100
AcDbArc
 50
75.0
 51
90.0
  0
ARC
  5
155
330
1F
100
AcDbEntity
  8
0
  6
HIDDEN
 62
     7
370
     0
100
AcDbCircle
 10
176.0521848657
 20
105.4391901619
 30
0.0
 40
0.7999999999999908
100
AcDbArc
 50
270.0
 51
285.0
  0
LINE
  5
156
330
1F
100
AcDbEntity
  8
0
  6
HIDDEN
 62
     7
370
     0
100
AcDbLine
 10
176.0521848657
 20
119.6391901619
 30
0.0
 11
175.4575068638
 21
119.6391901619
 31
0.0
  0
LINE
  5
157
330
1F
100
AcDbEntity
  8
0
  6
HIDDEN
 62
     7
370
     0
100
AcDbLine
 10
175.4575068638
 20
104.6391901619
 30
0.0
 11
176.0521848657
 21
104.6391901619
 31
0.0
  0
ARC
  5
158
330
1F
100
AcDbEntity
  8
0
  6
HIDDEN
 62
     7
370
     0
100
AcDbCircle
 10
175.4575068638
 20
118.8391901619
 30
0.0
 40
0.8000000000000398
100
AcDbArc
 50
90.0
 51
180.0
  0
ARC
  5
159
330
1F
100
AcDbEntity
  8
0
  6
HIDDEN
 62
     7
370
     0
100
AcDbCircle
 10
175.4575068638
 20
105.4391901619
 30
0.0
 40
0.8000000000000398
100
AcDbArc
 50
180.0
 51
270.0
  0
LINE
  5
15A
330
1F
100
AcDbEntity
  8
0
  6
HIDDEN
 62
     7
370
     0
100
AcDbLine
 10
176.2592401018
 20
104.6664495009
 30
0.0
 11
178.0235322676
 21
105.1391901619
 31
0.0
  0
LINE
  5
15B
330
1F
100
AcDbEntity
  8
0
  6
HIDDEN
 62
     7
370
     0
100
AcDbLine
 10
178.0235322676
 20
119.1391901619
 30
0.0
 11
176.2592401018
 21
119.611930823
 31
0.0
  0
LINE
  5
15C
330
1F
100
AcDbEntity
  8
0
  6
HIDDEN
 62
     7
370
     0
100
AcDbLine
 10
192.1575068638
 20
119.1391901619
 30
0.0
 11
178.0235322676
 21
119.1391901619
 31
0.0
  0
LINE
  5
15D
330
1F
100
AcDbEntity
  8
0
  6
HIDDEN
 62
     7
370
     0
100
AcDbLine
 10
178.0235322676
 20
105.1391901619
 30
0.0
 11
192.1575068638
 21
105.1391901619
 31
0.0
  0
LINE
  5
15E
330
1F
100
AcDbEntity
  8
0
  6
HIDDEN
 62
     7
370
     0
100
AcDbLine
 10
146.3419446942
 20
88.0598188284
 30
0.0
 11
145.9075125447
 21
88.5388848475
 31
0.0
  0
LINE
  5
15F
330
1F
100
AcDbEntity
  8
0
  6
HIDDEN
 62
     7
370
     0
100
AcDbLine
 10
138.4075092197
 20
88.9605728066
 30
0.0
 11
137.9250754763
 21
88.4815068312
 31
0.0
  0
LINE
  5
160
330
1F
100
AcDbEntity
  8
0
  6
HIDDEN
 62
     7
370
     0
100
AcDbLine
 10
137.9249535481
 20
135.7968682023
 30
0.0
 11
138.4075042991
 21
135.3177479444
 31
0.0
  0
LINE
  5
161
330
1F
100
AcDbEntity
  8
0
  6
HIDDEN
 62
     7
370
     0
100
AcDbLine
 10
145.9075067458
 20
135.739445722
 30
0.0
 11
146.3420491361
 21
136.2185659726
 31
0.0
  0
LINE
  5
162
330
1F
100
AcDbEntity
  8
0
  6
HIDDEN
 62
     7
370
     0
100
AcDbLine
 10
172.9575068638
 20
107.9391901619
 30
0.0
 11
174.6575068638
 21
107.9391901619
 31
0.0
  0
LINE
  5
163
330
1F
100
AcDbEntity
  8
0
  6
HIDDEN
 62
     7
370
     0
100
AcDbLine
 10
174.6575068638
 20
116.3391901619
 30
0.0
 11
172.9575068638
 21
116.3391901619
 31
0.0
  0
LINE
  5
164
330
1F
100
AcDbEntity
  8
0
  6
HIDDEN
 62
     7
370
     0
100
AcDbLine
 10
145.9075068638
 20
132.076262988
 30
0.0
 11
145.9075068638
 21
135.7391544159
 31
0.0
  0
LINE
  5
165
330
1F
100
AcDbEntity
  8
0
  6
HIDDEN
 62
     7
370
     0
100
AcDbLine
 10
138.4075068638
 20
135.3176041651
 30
0.0
 11
138.4075068638
 21
132.1386059007
 31
0.0
  0
LINE
  5
166
330
1F
100
AcDbEntity
  8
0
  6
HIDDEN
 62
     7
370
     0
100
AcDbLine
 10
145.9075068638
 20
88.5391398136
 30
0.0
 11
145.9075068638
 21
92.2021173359
 31
0.0
  0
LINE
  5
167
330
1F
100
AcDbEntity
  8
0
  6
HIDDEN
 62
     7
370
     0
100
AcDbLine
 10
138.4075068638
 20
92.1406339982
 30
0.0
 11
138.4075068638
 21
88.9607542317
 31
0.0
  0
DIMENSION
  5
168
330
1F
100
AcDbEntity
  8
VERMASSUNG
100
AcDbDimension
  2
_D
 10
109.1122030214
 20
80.6391901619
 30
0.0
 11
109.1122030214
 21
112.1391901619
 31
0.0
 70
   160
  1
HSK A %%c<>
 71
     2
 42
-1.0
  3
SLDDIMSTYLE0
100
AcDbAlignedDimension
 13
151.4575068638
 23
143.6391901619
 33
0.0
 14
151.4575068638
 24
80.6391901619
 34
0.0
 50
90.0
100
AcDbRotatedDimension
  0
DIMENSION
  5
175
330
1F
100
AcDbEntity
  8
VERMASSUNG
100
AcDbDimension
  2
_D_1
 10
201.9771894469
 20
105.1391901619
 30
0.0
 11
201.9771894469
 21
112.1391901619
 31
0.0
 70
   160
  1
%%c<>
 71
     2
 42
-1.0
  3
SLDDIMSTYLE0
100
AcDbAlignedDimension
 13
192.1575068638
 23
119.1391901619
 33
0.0
 14
192.1575068638
 24
105.1391901619
 34
0.0
 50
90.0
100
AcDbRotatedDimension
  0
DIMENSION
  5
180
330
1F
100
AcDbEntity
  8
VERMASSUNG
100
AcDbDimension
  2
_D_2
 10
208.2771894469
 20
99.6391901619
 30
0.0
 11
208.2771894469
 21
112.1391901619
 31
0.0
 70
   160
  1
WH%%c<>
 71
     2
 42
-1.0
  3
SLDDIMSTYLE0
100
AcDbAlignedDimension
 13
192.9575068638
 23
124.6391901619
 33
0.0
 14
192.9575068638
 24
99.6391901619
 34
0.0
 50
90.0
100
AcDbRotatedDimension
  0
DIMENSION
  5
18C
330
1F
100
AcDbEntity
  8
VERMASSUNG
100
AcDbDimension
  2
_D_3
 10
177.1075068638
 20
146.4087567975
 30
0.0
 11
185.1325068638
 21
146.4087567975
 31
0.0
 70
   160
  1
<>
 71
     2
 42
-1.0
  3
SLDDIMSTYLE0
100
AcDbAlignedDimension
 13
193.1575068638
 23
124.4391901619
 33
0.0
 14
177.1075068638
 24
141.9856304857
 34
0.0
100
AcDbRotatedDimension
  0
DIMENSION
  5
196
330
1F
100
AcDbEntity
  8
VERMASSUNG
100
AcDbDimension
  2
_D_4
 10
151.1575068638
 20
152.4087567975
 30
0.0
 11
172.1575068638
 21
152.4087567975
 31
0.0
 70
   160
  1
<>
 71
     2
 42
-1.0
  3
SLDDIMSTYLE0
100
AcDbAlignedDimension
 13
193.1575068638
 23
124.4391901619
 33
0.0
 14
151.1575068638
 24
143.3391901619
 34
0.0
100
AcDbRotatedDimension
  0
DIMENSION
  5
1A0
330
1F
100
AcDbEntity
  8
VERMASSUNG
100
AcDbDimension
  2
_D_5
 10
119.2575068638
 20
158.4087567975
 30
0.0
 11
156.2075068638
 21
158.4087567975
 31
0.0
 70
   160
  1
<>
 71
     2
 42
-1.0
  3
SLDDIMSTYLE0
100
AcDbAlignedDimension
 13
193.1575068638
 23
124.4391901619
 33
0.0
 14
119.2575068638
 24
131.8298679084
 34
0.0
100
AcDbRotatedDimension
  0
LINE
  5
1AA
330
1F
100
AcDbEntity
  8
VERMASSUNG
  6
CENTERX2
370
     0
100
AcDbLine
 10
115.7739239886
 20
112.1391901619
 30
0.0
 11
195.7260709646
 21
112.1391901619
 31
0.0
  0
LINE
  5
1AB
330
1F
100
AcDbEntity
  8
0
  6
Continuous
 62
     7
370
    15
100
AcDbLine
 10
252.5589167227
 20
45.4885640607
 30
0.0
 11
252.4069000941
 21
45.5763499185
 31
0.0
  0
LINE
  5
1AC
330
1F
100
AcDbEntity
  8
0
  6
Continuous
 62
     7
370
    15
100
AcDbLine
 10
250.073068557
 20
45.5763499185
 30
0.0
 11
249.9210519284
 21
45.4885640607
 31
0.0
  0
LINE
  5
1AD
330
1F
100
AcDbEntity
  8
0
  6
Continuous
 62
     7
370
    15
100
AcDbLine
 10
231.8221061032
 20
33.1662345867
 30
0.0
 11
236.8807717634
 21
30.2459290615
 31
0.0
  0
LINE
  5
1AE
330
1F
100
AcDbEntity
  8
0
  6
Continuous
 62
     7
370
    15
100
AcDbLine
 10
249.7540027095
 20
59.1864527461
 30
0.0
 11
247.5708261422
 21
60.4467737517
 31
0.0
  0
LINE
  5
1AF
330
1F
100
AcDbEntity
  8
0
  6
Continuous
 62
     7
370
    15
100
AcDbLine
 10
254.3696501119
 20
33.2333046562
 30
0.0
 11
254.4403492976
 21
33.2741316962
 31
0.0
  0
LINE
  5
1B0
330
1F
100
AcDbEntity
  8
0
  6
Continuous
 62
     7
370
    15
100
AcDbLine
 10
258.7883492147
 20
40.8059045473
 30
0.0
 11
258.7883492147
 21
40.8875453585
 31
0.0
  0
LINE
  5
1B1
330
1F
100
AcDbEntity
  8
0
  6
Continuous
 62
     7
370
    15
100
AcDbLine
 10
257.4936778718
 20
43.7490753989
 30
0.0
 11
252.9505168027
 21
46.3717864582
 31
0.0
  0
LINE
  5
1B2
330
1F
100
AcDbEntity
  8
0
  6
Continuous
 62
     7
370
    15
100
AcDbLine
 10
246.7010247237
 20
35.5461756784
 30
0.0
 11
251.2441857928
 21
32.9234646192
 31
0.0
  0
SPLINE
  5
1B3
330
1F
100
AcDbEntity
  8
0
  6
Continuous
 62
     7
370
    15
100
AcDbSpline
210
0.0
220
0.0
230
1.0
 70
     8
 71
     3
 72
    10
 73
     6
 74
     0
 42
0.000000001
 43
0.00000001
 40
0.0
 40
0.0
 40
0.0
 40
0.0
 40
0.1928762709510331
 40
0.6849555902905574
 40
1.0
 40
1.0
 40
1.0
 40
1.0
 10
228.6452615824296
 20
42.41544910316785
 30
0.0
 10
228.6277860493194
 20
42.28430517644482
 30
0.0
 10
228.5657257241271
 20
41.81857776840926
 30
0.0
 10
228.5254997514916
 20
41.15893790330966
 30
0.0
 10
228.5183795591274
 20
40.6407752140246
 30
0.0
 10
228.5156003361661
 20
40.43852089699242
 30
0.0
  0
SPLINE
  5
1B4
330
1F
100
AcDbEntity
  8
0
  6
Continuous
 62
     7
370
    15
100
AcDbSpline
210
0.0
220
0.0
230
1.0
 70
     8
 71
     3
 72
    10
 73
     6
 74
     0
 42
0.000000001
 43
0.00000001
 40
0.0
 40
0.0
 40
0.0
 40
0.0
 40
0.1068604487569824
 40
0.5990694535020638
 40
1.0
 40
1.0
 40
1.0
 40
1.0
 10
235.9340591856599
 20
56.8135651937551
 30
0.0
 10
235.8781305649326
 20
56.76044256452861
 30
0.0
 10
235.5645895996456
 20
56.46263224434473
 30
0.0
 10
235.057224036277
 20
55.92087126483711
 30
0.0
 10
234.6206552940684
 20
55.40983679204297
 30
0.0
 10
234.4246794869798
 20
55.1804333016573
 30
0.0
  0
SPLINE
  5
1B5
330
1F
100
AcDbEntity
  8
0
  6
Continuous
 62
     7
370
    15
100
AcDbSpline
210
0.0
220
0.0
230
1.0
 70
     8
 71
     3
 72
    15
 73
    11
 74
     0
 42
0.000000001
 43
0.00000001
 40
0.0
 40
0.0
 40
0.0
 40
0.0
 40
0.0731587950569779
 40
0.2097742051819594
 40
0.3464328176106916
 40
0.4831057712011718
 40
0.6197710050181066
 40
0.7564195754197276
 40
0.8930472860919099
 40
1.0
 40
1.0
 40
1.0
 40
1.0
 10
241.8040160090014
 20
60.67673938003157
 30
0.0
 10
241.6612443634025
 20
60.62864704203011
 30
0.0
 10
241.2518635301792
 20
60.49074794224668
 30
0.0
 10
240.5657170842156
 20
60.18268112819981
 30
0.0
 10
239.751517654388
 20
59.76069707063576
 30
0.0
 10
238.9367711446103
 20
59.26610024859308
 30
0.0
 10
238.1262606179076
 20
58.7067944969349
 30
0.0
 10
237.3248681062073
 20
58.08247191699019
 30
0.0
 10
236.5911735812609
 20
57.45375212230271
 30
0.0
 10
236.1345542608493
 20
57.00889545471679
 30
0.0
 10
235.9340591856599
 20
56.8135651937551
 30
0.0
  0
SPLINE
  5
1B6
330
1F
100
AcDbEntity
  8
0
  6
Continuous
 62
     7
370
    15
100
AcDbSpline
210
0.0
220
0.0
230
1.0
 70
     8
 71
     3
 72
    11
 73
     7
 74
     0
 42
0.000000001
 43
0.00000001
 40
0.0
 40
0.0
 40
0.0
 40
0.0
 40
0.1952692711213227
 40
0.5662509004869095
 40
0.937327122974947
 40
1.0
 40
1.0
 40
1.0
 40
1.0
 10
228.5156003361661
 20
40.43852089699242
 30
0.0
 10
228.5171560753279
 20
40.27430028920992
 30
0.0
 10
228.521667479996
 20
39.79808574453859
 30
0.0
 10
228.5790591596193
 20
39.04041267098075
 30
0.0
 10
228.6541265546705
 20
38.40633565960862
 30
0.0
 10
228.7255416878741
 20
38.08888897851381
 30
0.0
 10
228.7358605377946
 20
38.043020763851
 30
0.0
  0
SPLINE
  5
1B7
330
1F
100
AcDbEntity
  8
0
  6
Continuous
 62
     7
370
    15
100
AcDbSpline
210
0.0
220
0.0
230
1.0
 70
     8
 71
     3
 72
    24
 73
    20
 74
     0
 42
0.000000001
 43
0.00000001
 40
0.0
 40
0.0
 40
0.0
 40
0.0
 40
0.0087861992030132
 40
0.083114711024524
 40
0.1448298728132737
 40
0.2106999929649626
 40
0.2737957630407301
 40
0.3360097328598405
 40
0.3981371182607489
 40
0.4604605815039861
 40
0.5230811020304532
 40
0.5859670849270606
 40
0.6490356869937486
 40
0.7121862611608841
 40
0.7753024368417878
 40
0.838250714416949
 40
0.9009244756196433
 40
0.9632285257479761
 40
1.0
 40
1.0
 40
1.0
 40
1.0
 10
252.3271766447417
 20
35.47810722460095
 30
0.0
 10
252.3177807307613
 20
35.48230272178402
 30
0.0
 10
252.2288983076283
 20
35.52199081989311
 30
0.0
 10
252.106935646095
 20
35.64883907278637
 30
0.0
 10
251.9495612196907
 20
35.87813008143352
 30
0.0
 10
251.8365377897227
 20
36.17021635378693
 30
0.0
 10
251.7671977019821
 20
36.52787563730457
 30
0.0
 10
251.7495830876792
 20
36.93140233312139
 30
0.0
 10
251.7851508150651
 20
37.37294968231566
 30
0.0
 10
251.874927406488
 20
37.84287358739125
 30
0.0
 10
252.0182882637609
 20
38.32983836607911
 30
0.0
 10
252.2128972949903
 20
38.82172952757482
 30
0.0
 10
252.4546518714156
 20
39.3060321440524
 30
0.0
 10
252.7378286651252
 20
39.77040543798603
 30
0.0
 10
253.0551923475832
 20
40.2029239646942
 30
0.0
 10
253.3982989151767
 20
40.59307994361435
 30
0.0
 10
253.7573285923259
 20
40.93014365617836
 30
0.0
 10
254.0736373240503
 20
41.17338199162182
 30
0.0
 10
254.265033060804
 20
41.28956835561675
 30
0.0
 10
254.3360688029815
 20
41.33269044776611
 30
0.0
  0
SPLINE
  5
1B8
330
1F
100
AcDbEntity
  8
0
  6
Continuous
 62
     7
370
    15
100
AcDbSpline
210
0.0
220
0.0
230
1.0
 70
     8
 71
     3
 72
    13
 73
     9
 74
     0
 42
0.000000001
 43
0.00000001
 40
0.0
 40
0.0
 40
0.0
 40
0.0
 40
0.0989143021824971
 40
0.2876712627106839
 40
0.4761945348754549
 40
0.6662469183113435
 40
0.8623777747501374
 40
1.0
 40
1.0
 40
1.0
 40
1.0
 10
254.3360688029815
 20
41.33269044776611
 30
0.0
 10
254.3977162023967
 20
41.3666475769101
 30
0.0
 10
254.5770045847769
 20
41.46540468284262
 30
0.0
 10
254.8627168389389
 20
41.57842025617765
 30
0.0
 10
255.1756787893324
 20
41.6496837534023
 30
0.0
 10
255.4519265695118
 20
41.65538720288218
 30
0.0
 10
255.66703538723
 20
41.6175208311405
 30
0.0
 10
255.7764079542604
 20
41.55555938863924
 30
0.0
 10
255.8215074511095
 20
41.53000974710913
 30
0.0
  0
SPLINE
  5
1B9
330
1F
100
AcDbEntity
  8
0
  6
Continuous
 62
     7
370
    15
100
AcDbSpline
210
0.0
220
0.0
230
1.0
 70
     8
 71
     3
 72
    22
 73
    18
 74
     0
 42
0.000000001
 43
0.00000001
 40
0.0
 40
0.0
 40
0.0
 40
0.0
 40
0.0167629453254069
 40
0.0890739650897392
 40
0.1616482326503275
 40
0.2344740017403572
 40
0.3075091097542289
 40
0.3806987854341991
 40
0.4539895313924487
 40
0.5273368249029717
 40
0.6007075665589187
 40
0.674074884638937
 40
0.7474264748253865
 40
0.8207566306661471
 40
0.8940634948173422
 40
0.9673477171471517
 40
1.0
 40
1.0
 40
1.0
 40
1.0
 10
242.7706187288535
 20
27.35633903195713
 30
0.0
 10
242.8240806037716
 20
27.34685726984852
 30
0.0
 10
243.1081632090442
 20
27.2964736331632
 30
0.0
 10
243.6519546892739
 20
27.28077041460651
 30
0.0
 10
244.3990272224603
 20
27.31274039887703
 30
0.0
 10
245.1709644749529
 20
27.42784507829387
 30
0.0
 10
245.960507800504
 20
27.61757161693615
 30
0.0
 10
246.7641133099356
 20
27.88314989977722
 30
0.0
 10
247.5770723493264
 20
28.22252699522094
 30
0.0
 10
248.3949522820493
 20
28.63391281948646
 30
0.0
 10
249.213258278258
 20
29.11491169102135
 30
0.0
 10
250.0276383707087
 20
29.66272597506156
 30
0.0
 10
250.8336483451463
 20
30.27452494643046
 30
0.0
 10
251.6276015610778
 20
30.94602817477958
 30
0.0
 10
252.4034721694565
 20
31.67701814381304
 30
0.0
 10
253.023822483612
 20
32.3078576381215
 30
0.0
 10
253.3746823087738
 20
32.7108462251131
 30
0.0
 10
253.4828260901184
 20
32.83505739581607
 30
0.0
  0
SPLINE
  5
1BA
330
1F
100
AcDbEntity
  8
0
  6
Continuous
 62
     7
370
    15
100
AcDbSpline
210
0.0
220
0.0
230
1.0
 70
     8
 71
     3
 72
    11
 73
     7
 74
     0
 42
0.000000001
 43
0.00000001
 40
0.0
 40
0.0
 40
0.0
 40
0.0
 40
0.1231141013825284
 40
0.5128305520100924
 40
0.9026716149727129
 40
1.0
 40
1.0
 40
1.0
 40
1.0
 10
258.6830061828628
 20
41.83206140211312
 30
0.0
 10
258.7216210506836
 20
41.94247421800989
 30
0.0
 10
258.8824708945107
 20
42.4023976929772
 30
0.0
 10
259.1094163177073
 20
43.2101407437582
 30
0.0
 10
259.3043251219079
 20
43.99022606090554
 30
0.0
 10
259.3896252826625
 20
44.4182917722209
 30
0.0
 10
259.4066668416582
 20
44.50381220980125
 30
0.0
  0
LINE
  5
1BB
330
1F
100
AcDbEntity
  8
0
  6
Continuous
 62
     7
370
    15
100
AcDbLine
 10
239.2792304699
 20
28.8613283223
 30
0.0
 11
240.6786185375
 21
28.0534787864
 31
0.0
  0
LINE
  5
1BC
330
1F
100
AcDbEntity
  8
0
  6
Continuous
 62
     7
370
    15
100
AcDbLine
 10
240.3475407877
 20
60.0595087705
 30
0.0
 11
234.2041498955
 21
63.1203155524
 31
0.0
  0
LINE
  5
1BD
330
1F
100
AcDbEntity
  8
0
  6
Continuous
 62
     7
370
    15
100
AcDbLine
 10
222.8224520823
 20
43.404500414
 30
0.0
 11
228.5464327351
 21
39.6143181636
 31
0.0
  0
SPLINE
  5
1BE
330
1F
100
AcDbEntity
  8
0
  6
Continuous
 62
     7
370
    15
100
AcDbSpline
210
0.0
220
0.0
230
1.0
 70
     8
 71
     3
 72
    10
 73
     6
 74
     0
 42
0.000000001
 43
0.00000001
 40
0.0
 40
0.0
 40
0.0
 40
0.0
 40
0.0276582149066085
 40
0.743130015734504
 40
0.9999999999999999
 40
0.9999999999999999
 40
0.9999999999999999
 40
0.9999999999999999
 10
257.9120725696117
 20
54.08377161191164
 30
0.0
 10
257.9065328697103
 20
54.09108681099475
 30
0.0
 10
257.7576903905854
 20
54.28763398615021
 30
0.0
 10
257.5260483400273
 20
54.51395957497532
 30
0.0
 10
257.288645658086
 20
54.71456018494551
 30
0.0
 10
257.2259294155983
 20
54.7675541797698
 30
0.0
  0
SPLINE
  5
1BF
330
1F
100
AcDbEntity
  8
0
  6
Continuous
 62
     7
370
    15
100
AcDbSpline
210
0.0
220
0.0
230
1.0
 70
     8
 71
     3
 72
    12
 73
     8
 74
     0
 42
0.000000001
 43
0.00000001
 40
0.0
 40
0.0
 40
0.0
 40
0.0
 40
0.118094906205989
 40
0.3413964454997552
 40
0.5644178103461235
 40
0.7868539178876047
 40
1.0
 40
1.0
 40
1.0
 40
1.0
 10
259.4173358397619
 20
51.04468320223405
 30
0.0
 10
259.3791552036126
 20
51.18456549135398
 30
0.0
 10
259.2687801342125
 20
51.58894632223092
 30
0.0
 10
259.0415399915479
 20
52.21927215034282
 30
0.0
 10
258.7166410840953
 20
52.91229158281348
 30
0.0
 10
258.3446546530782
 20
53.54152091218616
 30
0.0
 10
258.054201686371
 20
53.90560978792559
 30
0.0
 10
257.9120725696117
 20
54.08377161191164
 30
0.0
  0
SPLINE
  5
1C0
330
1F
100
AcDbEntity
  8
0
  6
Continuous
 62
     7
370
    15
100
AcDbSpline
210
0.0
220
0.0
230
1.0
 70
     8
 71
     3
 72
    29
 73
    25
 74
     0
 42
0.000000001
 43
0.00000001
 40
0.0
 40
0.0
 40
0.0
 40
0.0
 40
0.0256238170622127
 40
0.0712510982928094
 40
0.1170298042155672
 40
0.1631641487001562
 40
0.2097678165911456
 40
0.2568519321130837
 40
0.3043454684986112
 40
0.352135145733673
 40
0.4001046341469965
 40
0.448158937407318
 40
0.4962247287581106
 40
0.5442618074161804
 40
0.5922555458363872
 40
0.6402025354781519
 40
0.6881061227006158
 40
0.7359734953311151
 40
0.7838139182114676
 40
0.8316377320364771
 40
0.8794558246133817
 40
0.9272789232118037
 40
0.9751150712517939
 40
1.0
 40
1.0
 40
1.0
 40
1.0
 10
234.2352792546105
 20
63.09309784383804
 30
0.0
 10
234.1371861947817
 20
63.14479638035643
 30
0.0
 10
233.8644228422051
 20
63.2885523827554
 30
0.0
 10
233.3750544807791
 20
63.44234848537206
 30
0.0
 10
232.7770276286756
 20
63.55957704735665
 30
0.0
 10
232.1486818997453
 20
63.59690085920469
 30
0.0
 10
231.4957308520366
 20
63.55819459378159
 30
0.0
 10
230.8215547334756
 20
63.44187306247876
 30
0.0
 10
230.1311826798908
 20
63.24852082515952
 30
0.0
 10
229.4300459890226
 20
62.97923032263422
 30
0.0
 10
228.7239019810436
 20
62.6361726417466
 30
0.0
 10
228.0184735148848
 20
62.22232886748071
 30
0.0
 10
227.319256973536
 20
61.74132380790478
 30
0.0
 10
226.6314370380119
 20
61.1972282905372
 30
0.0
 10
225.9598846489343
 20
60.59442002822972
 30
0.0
 10
225.3092401727259
 20
59.93755121186374
 30
0.0
 10
224.6839656643596
 20
59.23155885604473
 30
0.0
 10
224.088374613811
 20
58.48164748212751
 30
0.0
 10
223.5265158702321
 20
57.6932796403152
 30
0.0
 10
223.0025427619103
 20
56.87211579099665
 30
0.0
 10
222.5192400796133
 20
56.02411501394459
 30
0.0
 10
222.0834235118359
 20
55.15503095815691
 30
0.0
 10
221.7493615250044
 20
54.41349675010589
 30
0.0
 10
221.5817440964034
 20
53.96180159625109
 30
0.0
 10
221.5243859280165
 20
53.80723290425654
 30
0.0
  0
LINE
  5
1C1
330
1F
100
AcDbEntity
  8
0
  6
Continuous
 62
     7
370
    15
100
AcDbLine
 10
221.6382663605
 20
51.9606405069
 30
0.0
 11
224.1918262591
 21
50.4865017553
 31
0.0
  0
LINE
  5
1C2
330
1F
100
AcDbEntity
  8
0
  6
Continuous
 62
     7
370
    15
100
AcDbLine
 10
221.3399740831
 20
53.0848159576
 30
0.0
 11
221.3399740831
 21
52.6235441404
 31
0.0
  0
LINE
  5
1C3
330
1F
100
AcDbEntity
  8
0
  6
Continuous
 62
     7
370
    15
100
AcDbLine
 10
221.3399740831
 20
45.6134675288
 30
0.0
 11
221.3399740831
 21
45.1521957116
 31
0.0
  0
SPLINE
  5
1C4
330
1F
100
AcDbEntity
  8
0
  6
Continuous
 62
     7
370
    15
100
AcDbSpline
210
0.0
220
0.0
230
1.0
 70
     8
 71
     3
 72
    11
 73
     7
 74
     0
 42
0.000000001
 43
0.00000001
 40
0.0
 40
0.0
 40
0.0
 40
0.0
 40
0.1997245182279712
 40
0.5195411125513064
 40
0.8357454779504008
 40
1.0
 40
1.0
 40
1.0
 40
1.0
 10
221.4558416814921
 20
44.86461248594843
 30
0.0
 10
221.5247326926834
 20
44.74922417334253
 30
0.0
 10
221.7039380947877
 20
44.44906587110411
 30
0.0
 10
222.0591505841954
 20
44.03654502148911
 30
0.0
 10
222.4292505780543
 20
43.67728111192829
 30
0.0
 10
222.6839911396891
 20
43.50925926849838
 30
0.0
 10
222.7710793178684
 20
43.45181762612806
 30
0.0
  0
LWPOLYLINE
  5
1C5
330
1F
100
AcDbEntity
  8
0
  6
Continuous
 62
     7
370
    15
100
AcDbPolyline
 90
       27
 70
   128
 43
0.0
 10
249.5932778741
 20
44.8427686896
 10
249.6660651187
 20
44.617017585
 10
249.8303228267
 20
44.4078822456
 10
250.076504937
 20
44.2275168572
 10
250.3903042404
 20
44.0864036006
 10
250.7534838618
 20
43.9927434653
 10
251.1449371219
 20
43.951979638
 10
251.5419141799
 20
43.9664811641
 10
251.9213441723
 20
44.0354052675
 10
252.261176007
 20
44.1547463301
 10
252.5416598931
 20
44.3175686829
 10
252.7464951266
 20
44.5144096828
 10
252.8637774282
 20
44.7338296462
 10
252.886690777
 20
44.9630766824
 10
252.8139035324
 20
45.188827787
 10
252.6496458244
 20
45.3979631264
 10
252.403463714
 20
45.5783285147
 10
252.0896644107
 20
45.7194417713
 10
251.7264847892
 20
45.8131019066
 10
251.3350315292
 20
45.853865734
 10
250.9380544712
 20
45.8393642079
 10
250.5586244788
 20
45.7704401044
 10
250.2187926441
 20
45.6510990419
 10
249.938308758
 20
45.488276689
 10
249.7334735245
 20
45.2914356892
 10
249.6161912229
 20
45.0720157258
 10
249.5932778741
 20
44.8427686896
  0
LWPOLYLINE
  5
1C6
330
1F
100
AcDbEntity
  8
0
  6
Continuous
 62
     7
370
    15
100
AcDbPolyline
 90
       23
 70
   128
 43
0.0
 10
250.0673297313
 20
44.8600857491
 10
250.1357361057
 20
44.6710995314
 10
250.2936021037
 20
44.5008942469
 10
250.5281383609
 20
44.3632589156
 10
250.8203441447
 20
44.2693439335
 10
251.1465466802
 20
44.2267577339
 10
251.4803189781
 20
44.2389503974
 10
251.7946207917
 20
44.3049341469
 10
252.0639892574
 20
44.4193633714
 10
252.2666017441
 20
44.5729676958
 10
252.386043793
 20
44.7533030112
 10
252.4126389198
 20
44.9457596228
 10
252.3442325454
 20
45.1347458406
 10
252.1863665474
 20
45.304951125
 10
251.9518302902
 20
45.4425864563
 10
251.6596245064
 20
45.5365014384
 10
251.3334219709
 20
45.5790876381
 10
250.999649673
 20
45.5668949746
 10
250.6853478594
 20
45.5009112251
 10
250.4159793937
 20
45.3864820005
 10
250.213366907
 20
45.2328776761
 10
250.0939248581
 20
45.0525423607
 10
250.0673297313
 20
44.8600857491
  0
SPLINE
  5
1C7
330
1F
100
AcDbEntity
  8
0
  6
Continuous
 62
     7
370
    15
100
AcDbSpline
210
0.0
220
0.0
230
1.0
 70
     8
 71
     3
 72
     9
 73
     5
 74
     0
 42
0.000000001
 43
0.00000001
 40
0.0
 40
0.0
 40
0.0
 40
0.0
 40
0.4995069811454949
 40
1.0
 40
1.0
 40
1.0
 40
1.0
 10
250.278441333699
 20
44.51725845485426
 30
0.0
 10
250.31341660239
 20
44.49184190589315
 30
0.0
 10
250.3834361817175
 20
44.44095863514723
 30
0.0
 10
250.4568920595401
 20
44.39666145859895
 30
0.0
 10
250.493656213584
 20
44.37449103098157
 30
0.0
  0
SPLINE
  5
1C8
330
1F
100
AcDbEntity
  8
0
  6
Continuous
 62
     7
370
    15
100
AcDbSpline
210
0.0
220
0.0
230
1.0
 70
     8
 71
     3
 72
    10
 73
     6
 74
     0
 42
0.000000001
 43
0.00000001
 40
0.0
 40
0.0
 40
0.0
 40
0.0
 40
0.2519525092625515
 40
0.6242628218157791
 40
1.0
 40
1.0
 40
1.0
 40
1.0
 10
251.9614036439322
 20
44.36344962256361
 30
0.0
 10
251.9889573410896
 20
44.37877996402473
 30
0.0
 10
252.0572271463371
 20
44.41676395651573
 30
0.0
 10
252.1617267381461
 20
44.49495620807331
 30
0.0
 10
252.2367604366953
 20
44.5583368786414
 30
0.0
 10
252.2744491536694
 20
44.59017238989644
 30
0.0
  0
SPLINE
  5
1C9
330
1F
100
AcDbEntity
  8
0
  6
Continuous
 62
     7
370
    15
100
AcDbSpline
210
0.0
220
0.0
230
1.0
 70
     8
 71
     3
 72
    11
 73
     7
 74
     0
 42
0.000000001
 43
0.00000001
 40
0.0
 40
0.0
 40
0.0
 40
0.0
 40
0.1845133558519293
 40
0.5180565039163941
 40
0.8676122830485046
 40
0.9999999999999999
 40
0.9999999999999999
 40
0.9999999999999999
 40
0.9999999999999999
 10
252.2744491536694
 20
44.59017238989644
 30
0.0
 10
252.2702142131781
 20
44.60338429436262
 30
0.0
 10
252.2583238085239
 20
44.64047924072151
 30
0.0
 10
252.2361604129896
 20
44.78965711673996
 30
0.0
 10
252.2155662367153
 20
45.04145354599716
 30
0.0
 10
252.2045526894379
 20
45.20932319863491
 30
0.0
 10
252.2015273173944
 20
45.25543623935181
 30
0.0
  0
SPLINE
  5
1CA
330
1F
100
AcDbEntity
  8
0
  6
Continuous
 62
     7
370
    15
100
AcDbSpline
210
0.0
220
0.0
230
1.0
 70
     8
 71
     3
 72
    11
 73
     7
 74
     0
 42
0.000000001
 43
0.00000001
 40
0.0
 40
0.0
 40
0.0
 40
0.0
 40
0.2164526859271199
 40
0.4403055508633916
 40
0.7518960204222026
 40
1.0
 40
1.0
 40
1.0
 40
1.0
 10
252.2015273173944
 20
45.25543623935181
 30
0.0
 10
252.130666372738
 20
45.24614999031902
 30
0.0
 10
251.9865218584855
 20
45.22726000991373
 30
0.0
 10
251.7190265977608
 20
45.2537013471167
 30
0.0
 10
251.4320864671912
 20
45.36608553249211
 30
0.0
 10
251.2484608942055
 20
45.49462958588367
 30
0.0
 10
251.1670624892717
 20
45.5516111965584
 30
0.0
  0
SPLINE
  5
1CB
330
1F
100
AcDbEntity
  8
0
  6
Continuous
 62
     7
370
    15
100
AcDbSpline
210
0.0
220
0.0
230
1.0
 70
     8
 71
     3
 72
    11
 73
     7
 74
     0
 42
0.000000001
 43
0.00000001
 40
0.0
 40
0.0
 40
0.0
 40
0.0
 40
0.2164526859271245
 40
0.4403055508633966
 40
0.751896020422175
 40
1.0
 40
1.0
 40
1.0
 40
1.0
 10
251.1670624892717
 20
45.5516111965584
 30
0.0
 10
251.1011966977264
 20
45.49675430700062
 30
0.0
 10
250.9672132661734
 20
45.38516505657421
 30
0.0
 10
250.7185743697026
 20
45.23958031611559
 30
0.0
 10
250.4518613175733
 20
45.16743343708323
 30
0.0
 10
250.2811799391171
 20
45.17788796995946
 30
0.0
 10
250.205519497424
 20
45.18252230430962
 30
0.0
  0
SPLINE
  5
1CC
330
1F
100
AcDbEntity
  8
0
  6
Continuous
 62
     7
370
    15
100
AcDbSpline
210
0.0
220
0.0
230
1.0
 70
     8
 71
     3
 72
    11
 73
     7
 74
     0
 42
0.000000001
 43
0.00000001
 40
0.0
 40
0.0
 40
0.0
 40
0.0
 40
0.1323877169515041
 40
0.4819434960836088
 40
0.8154866441480817
 40
0.9999999999999999
 40
0.9999999999999999
 40
0.9999999999999999
 40
0.9999999999999999
 10
250.205519497424
 20
45.18252230430962
 30
0.0
 10
250.2085448694675
 20
45.13640926359271
 30
0.0
 10
250.219558416745
 20
44.96853961095498
 30
0.0
 10
250.2401525930193
 20
44.71674318169777
 30
0.0
 10
250.2623159885536
 20
44.56756530567931
 30
0.0
 10
250.2742063932078
 20
44.53047035932043
 30
0.0
 10
250.278441333699
 20
44.51725845485426
 30
0.0
  0
LINE
  5
1CD
330
1F
100
AcDbEntity
  8
0
  6
Continuous
 62
     7
370
    15
100
AcDbLine
 10
252.2015273174
 20
44.5297937919
 30
0.0
 11
252.2015273174
 21
45.2554362394
 31
0.0
  0
LINE
  5
1CE
330
1F
100
AcDbEntity
  8
0
  6
Continuous
 62
     7
370
    15
100
AcDbLine
 10
251.1670624893
 20
44.2259171746
 30
0.0
 11
251.1670624893
 21
45.5516111966
 31
0.0
  0
SPLINE
  5
1CF
330
1F
100
AcDbEntity
  8
0
  6
Continuous
 62
     7
370
    15
100
AcDbSpline
210
0.0
220
0.0
230
1.0
 70
     8
 71
     3
 72
    10
 73
     6
 74
     0
 42
0.000000001
 43
0.00000001
 40
0.0
 40
0.0
 40
0.0
 40
0.0
 40
0.5
 40
0.5
 40
1.0
 40
1.0
 40
1.0
 40
1.0
 10
238.3139742895364
 20
39.21240824123891
 30
0.0
 10
238.2574456037538
 20
39.17977492555629
 30
0.0
 10
238.1788022811791
 20
39.15940195009733
 30
0.0
 10
238.018572366848
 20
39.15634055013597
 30
0.0
 10
237.9374053543073
 20
39.17399975001621
 30
0.0
 10
237.8802914539695
 20
39.20697090287053
 30
0.0
  0
SPLINE
  5
1D0
330
1F
100
AcDbEntity
  8
0
  6
Continuous
 62
     7
370
    15
100
AcDbSpline
210
0.0
220
0.0
230
1.0
 70
     8
 71
     3
 72
    12
 73
     8
 74
     0
 42
0.000000001
 43
0.00000001
 40
0.0
 40
0.0
 40
0.0
 40
0.0
 40
0.2500000000000033
 40
0.2500000000000033
 40
0.5000000000000067
 40
0.5000000000000067
 40
1.0
 40
1.0
 40
1.0
 40
1.0
 10
255.5710133603142
 20
55.73093278112563
 30
0.0
 10
255.602917688659
 20
55.71251480440987
 30
0.0
 10
255.6350550250999
 20
55.68260026377781
 30
0.0
 10
255.6897133315261
 20
55.61220284383491
 30
0.0
 10
255.7126866708564
 20
55.57182214715907
 30
0.0
 10
255.7663684597942
 20
55.4492983171237
 30
0.0
 10
255.7831453946702
 20
55.36449699551802
 30
0.0
 10
255.7831453946702
 20
55.2909443998844
 30
0.0
  0
LINE
  5
1D1
330
1F
100
AcDbEntity
  8
0
  6
Continuous
 62
     7
370
    15
100
AcDbLine
 10
237.880291454
 20
39.2069709029
 30
0.0
 11
236.4809033863
 21
40.0148204387
 31
0.0
  0
LWPOLYLINE
  5
1D2
330
1F
100
AcDbEntity
  8
0
  6
Continuous
 62
     7
370
    15
100
AcDbPolyline
 90
       26
 70
   128
 43
0.0
 10
236.4809033863
 20
40.0148204387
 10
236.7633478662
 20
41.1331756976
 10
237.1098064492
 20
42.2599617817
 10
237.5181446099
 20
43.3882365818
 10
237.9858465842
 20
44.5110488164
 10
238.5100308683
 20
45.6214808592
 10
239.0874679721
 20
46.7126913576
 10
239.7146003157
 20
47.7779573829
 10
240.3875641476
 20
48.8107158498
 10
241.1022133494
 20
49.8046039513
 10
241.85414498
 20
50.7534983604
 10
242.6387264016
 20
51.651552955
 10
243.451123822
 20
52.4932348366
 10
244.2863320747
 20
53.2733584179
 10
245.1392054563
 20
53.987117371
 10
246.004489429
 20
54.6301142396
 10
246.8768529931
 20
55.1983875311
 10
247.7509215321
 20
55.6884361239
 10
248.6213099251
 20
56.097240837
 10
249.4826557242
 20
56.4222830318
 10
250.3296521932
 20
56.661560129
 10
251.1570810016
 20
56.8135979466
 10
251.9598443749
 20
56.8774597823
 10
252.7329965021
 20
56.8527521844
 10
253.4717740065
 20
56.739627376
 10
254.1716252927
 20
56.538782317
  0
LINE
  5
1D3
330
1F
100
AcDbEntity
  8
0
  6
Continuous
 62
     7
370
    15
100
AcDbLine
 10
254.1716252927
 20
56.538782317
 30
0.0
 11
255.5710133603
 21
55.7309327811
 31
0.0
  0
LINE
  5
1D4
330
1F
100
AcDbEntity
  8
0
  6
Continuous
 62
     7
370
    15
100
AcDbLine
 10
258.0989201031
 20
50.2257439377
 30
0.0
 11
259.317420765
 21
50.929169397
 31
0.0
  0
LINE
  5
1D5
330
1F
100
AcDbEntity
  8
0
  6
Continuous
 62
     7
370
    15
100
AcDbLine
 10
258.0989201031
 20
43.6934174426
 30
0.0
 11
258.0989201031
 21
50.2257439377
 31
0.0
  0
LINE
  5
1D6
330
1F
100
AcDbEntity
  8
0
  6
Continuous
 62
     7
370
    15
100
AcDbLine
 10
259.317420765
 20
44.3968429019
 30
0.0
 11
258.0989201031
 21
43.6934174426
 31
0.0
  0
LINE
  5
1D7
330
1F
100
AcDbEntity
  8
0
  6
Continuous
 62
     7
370
    15
100
AcDbLine
 10
238.3139742895
 20
31.8635409343
 30
0.0
 11
239.4313010797
 21
32.5085599606
 31
0.0
  0
LINE
  5
1D8
330
1F
100
AcDbEntity
  8
0
  6
Continuous
 62
     7
370
    15
100
AcDbLine
 10
239.4313010797
 20
32.5085599606
 30
0.0
 11
239.4313010797
 21
39.8574272676
 31
0.0
  0
LINE
  5
1D9
330
1F
100
AcDbEntity
  8
0
  6
Continuous
 62
     7
370
    15
100
AcDbLine
 10
239.4313010797
 20
39.8574272676
 30
0.0
 11
238.3139742895
 21
39.2124082412
 31
0.0
  0
LINE
  5
1DA
330
1F
100
AcDbEntity
  8
0
  6
Continuous
 62
     7
370
    15
100
AcDbLine
 10
255.7831453947
 20
55.2909443999
 30
0.0
 11
255.7831453947
 21
53.726879965
 31
0.0
  0
LINE
  5
1DB
330
1F
100
AcDbEntity
  8
0
  6
Continuous
 62
     7
370
    15
100
AcDbLine
 10
257.1375915558
 20
54.5087850906
 30
0.0
 11
255.7831453947
 21
53.726879965
 31
0.0
  0
LWPOLYLINE
  5
1DC
330
1F
100
AcDbEntity
  8
0
  6
Continuous
 62
     7
370
    15
100
AcDbPolyline
 90
       24
 70
   128
 43
0.0
 10
235.5571205986
 20
41.6458024727
 10
235.844168507
 20
42.7015245897
 10
236.1922056704
 20
43.7629494922
 10
236.598982302
 20
44.8232159018
 10
237.0618689102
 20
45.8754700288
 10
237.5778732967
 20
46.9129098768
 10
238.1436598985
 20
47.9288292119
 10
238.7555713493
 20
48.9166609135
 10
239.4096521224
 20
49.8700194255
 10
240.1016740992
 20
50.7827420339
 10
240.8271639012
 20
51.6489287038
 10
241.5814318066
 20
52.4629802187
 10
242.3596020657
 20
53.2196343748
 10
243.1566444189
 20
53.9139999975
 10
243.9674066136
 20
54.5415885581
 10
244.7866477088
 20
55.0983431897
 10
245.6090719542
 20
55.5806649107
 10
246.4293630231
 20
55.98543589
 10
247.2422183778
 20
56.3100396012
 10
248.0423835471
 20
56.5523777362
 10
248.8246860914
 20
56.7108837693
 10
249.5840690392
 20
56.7845330835
 10
250.3156235762
 20
56.7728495938
 10
250.6721866463
 20
56.7346339789
  0
SPLINE
  5
1DD
330
1F
100
AcDbEntity
  8
0
  6
Continuous
 62
     7
370
    15
100
AcDbSpline
210
0.0
220
0.0
230
1.0
 70
     8
 71
     3
 72
     8
 73
     4
 74
     0
 42
0.000000001
 43
0.00000001
 40
0.0
 40
0.0
 40
0.0
 40
0.0
 40
1.0
 40
1.0
 40
1.0
 40
1.0
 10
235.5571205985785
 20
41.64580247271719
 30
0.0
 10
235.0658195695259
 20
41.5631552525133
 30
0.0
 10
234.5742394786232
 20
41.48107146502286
 30
0.0
 10
234.0824446798713
 20
41.39942117794112
 30
0.0
  0
LWPOLYLINE
  5
1DE
330
1F
100
AcDbEntity
  8
0
  6
Continuous
 62
     7
370
    15
100
AcDbPolyline
 90
       26
 70
   128
 43
0.0
 10
234.0824446799
 20
41.3994211779
 10
234.3648891597
 20
42.5177764368
 10
234.7113477427
 20
43.6445625209
 10
235.1196859034
 20
44.7728373209
 10
235.5873878777
 20
45.8956495556
 10
236.1115721619
 20
47.0060815984
 10
236.6890092657
 20
48.0972920968
 10
237.3161416092
 20
49.1625581221
 10
237.9891054411
 20
50.195316589
 10
238.7037546429
 20
51.1892046905
 10
239.4556862735
 20
52.1380990996
 10
240.2402676951
 20
53.0361536942
 10
241.0526651155
 20
53.8778355758
 10
241.8878733682
 20
54.6579591571
 10
242.7407467499
 20
55.3717181102
 10
243.6060307225
 20
56.0147149788
 10
244.4783942866
 20
56.5829882703
 10
245.3524628257
 20
57.0730368631
 10
246.2228512186
 20
57.4818415762
 10
247.0841970177
 20
57.806883771
 10
247.9311934867
 20
58.0461608682
 10
248.7586222951
 20
58.1981986858
 10
249.5613856684
 20
58.2620605215
 10
250.3345377956
 20
58.2373529236
 10
251.0733153
 20
58.1242281152
 10
251.7731665862
 20
57.9233830562
  0
LINE
  5
1DF
330
1F
100
AcDbEntity
  8
0
  6
Continuous
 62
     7
370
    15
100
AcDbLine
 10
251.7731665862
 20
57.9233830562
 30
0.0
 11
252.1084101858
 21
56.8402554134
 31
0.0
  0
LINE
  5
1E0
330
1F
100
AcDbEntity
  8
0
  6
Continuous
 62
     7
370
    15
100
AcDbLine
 10
248.3585241922
 20
59.8946141514
 30
0.0
 11
251.7731665862
 21
57.9233830562
 31
0.0
  0
LINE
  5
1E1
330
1F
100
AcDbEntity
  8
0
  6
Continuous
 62
     7
370
    15
100
AcDbLine
 10
234.0824446799
 20
41.3994211779
 30
0.0
 11
233.4962294106
 21
41.7378360495
 31
0.0
  0
SPLINE
  5
1E2
330
1F
100
AcDbEntity
  8
0
  6
Continuous
 62
     7
370
    15
100
AcDbSpline
210
0.0
220
0.0
230
1.0
 70
     8
 71
     3
 72
    28
 73
    24
 74
     0
 42
0.000000001
 43
0.00000001
 40
0.0
 40
0.0
 40
0.0
 40
0.0
 40
0.1250000000000001
 40
0.1250000000000001
 40
0.1875000000000001
 40
0.1875000000000001
 40
0.2500000000000001
 40
0.2500000000000001
 40
0.3749999999999999
 40
0.3749999999999999
 40
0.4375
 40
0.4375
 40
0.4999999999999999
 40
0.4999999999999999
 40
0.6249999999999999
 40
0.6249999999999999
 40
0.7499999999999997
 40
0.7499999999999997
 40
0.8124999999999998
 40
0.8124999999999998
 40
0.8749999999999998
 40
0.8749999999999998
 40
1.0
 40
1.0
 40
1.0
 40
1.0
 10
233.4962294106129
 20
41.73783604952093
 30
0.0
 10
233.3082423301465
 20
41.84635868110501
 30
0.0
 10
233.1180223755458
 20
41.92830240165291
 30
0.0
 10
232.8299237735978
 20
42.01346013169137
 30
0.0
 10
232.7334339029983
 20
42.03551006209518
 30
0.0
 10
232.5396957301633
 20
42.06678388555414
 30
0.0
 10
232.442444709632
 20
42.07591113687757
 30
0.0
 10
232.1564228347466
 20
42.08369397898598
 30
0.0
 10
231.9710810183901
 20
42.0633874353489
 30
0.0
 10
231.7025684315742
 20
41.99616678221577
 30
0.0
 10
231.6142077719085
 20
41.96738042461018
 30
0.0
 10
231.4438550616188
 20
41.89836853451502
 30
0.0
 10
231.3618280318373
 20
41.85822864460489
 30
0.0
 10
231.1253917780847
 20
41.72160887684168
 30
0.0
 10
230.9805245279624
 20
41.60909438715261
 30
0.0
 10
230.7196677344783
 20
41.34083742215314
 30
0.0
 10
230.607375326976
 20
41.18868403577586
 30
0.0
 10
230.4681508455221
 20
40.93676764807756
 30
0.0
 10
230.4265550591564
 20
40.84872536240118
 30
0.0
 10
230.3534303440951
 20
40.66438430734935
 30
0.0
 10
230.3218058600422
 20
40.56759554466758
 30
0.0
 10
230.24431255662
 20
40.26958046577076
 30
0.0
 10
230.2151378412301
 20
40.06010758863424
 30
0.0
 10
230.2091709584884
 20
39.83972679595038
 30
0.0
  0
ARC
  5
1E3
330
1F
100
AcDbEntity
  8
0
  6
Continuous
 62
     7
370
    15
100
AcDbCircle
 10
245.0525374208
 20
39.43145639
 30
0.0
 40
14.84898018923299
100
AcDbArc
 50
178.4244628824
 51
181.5755371176
  0
SPLINE
  5
1E4
330
1F
100
AcDbEntity
  8
0
  6
Continuous
 62
     7
370
    15
100
AcDbSpline
210
0.0
220
0.0
230
1.0
 70
     8
 71
     3
 72
    30
 73
    26
 74
     0
 42
0.000000001
 43
0.00000001
 40
0.0
 40
0.0
 40
0.0
 40
0.0
 40
0.125
 40
0.125
 40
0.1874999999999999
 40
0.1874999999999999
 40
0.2499999999999999
 40
0.2499999999999999
 40
0.3749999999999999
 40
0.3749999999999999
 40
0.4374999999999999
 40
0.4374999999999999
 40
0.4999999999999998
 40
0.4999999999999998
 40
0.6249999999999997
 40
0.6249999999999997
 40
0.6874999999999997
 40
0.6874999999999997
 40
0.7499999999999997
 40
0.7499999999999997
 40
0.8124999999999996
 40
0.8124999999999996
 40
0.8749999999999996
 40
0.8749999999999996
 40
1.0
 40
1.0
 40
1.0
 40
1.0
 10
230.2091709584884
 20
39.02318598406463
 30
0.0
 10
230.2151385571799
 20
38.80966879128991
 30
0.0
 10
230.2442837771793
 20
38.59211889327078
 30
0.0
 10
230.3207184384382
 20
38.25981986373519
 30
0.0
 10
230.3516844220155
 20
38.14804556243562
 30
0.0
 10
230.4246543628311
 20
37.92234368890062
 30
0.0
 10
230.4667905613898
 20
37.80825591632811
 30
0.0
 10
230.6066823507542
 20
37.47009318896692
 30
0.0
 10
230.7185262752964
 20
37.24758296969414
 30
0.0
 10
230.912312872441
 20
36.91697271374458
 30
0.0
 10
230.9816535100443
 20
36.80674607403843
 30
0.0
 10
231.127145894491
 20
36.59001607358489
 30
0.0
 10
231.20303318521
 20
36.48381913795416
 30
0.0
 10
231.4394211336814
 20
36.17118096470456
 30
0.0
 10
231.6085666359323
 20
35.9706384168694
 30
0.0
 10
231.8784326332664
 20
35.68053357744706
 30
0.0
 10
231.9706241393172
 20
35.5861901610746
 30
0.0
 10
232.1562227343519
 20
35.4048851330142
 30
0.0
 10
232.2500516146388
 20
35.31746579952005
 30
0.0
 10
232.4395016651042
 20
35.14885824919541
 30
0.0
 10
232.5351230803098
 20
35.06767006342606
 30
0.0
 10
232.7279847697362
 20
34.91150738387793
 30
0.0
 10
232.8257196786346
 20
34.83618040418121
 30
0.0
 10
233.116975633755
 20
34.62289017073738
 30
0.0
 10
233.3082330247281
 20
34.49749674603696
 30
0.0
 10
233.4962294106129
 20
34.38896874254918
 30
0.0
  0
LINE
  5
1E5
330
1F
100
AcDbEntity
  8
0
  6
Continuous
 62
     7
370
    15
100
AcDbLine
 10
233.4962294106
 20
34.3889687425
 30
0.0
 11
234.0824446799
 21
34.050553871
 31
0.0
  0
ARC
  5
1E6
330
1F
100
AcDbEntity
  8
0
  6
Continuous
 62
     7
370
    15
100
AcDbCircle
 10
239.9036742061
 20
35.4418323648
 30
0.0
 40
5.985179115444049
100
AcDbArc
 50
193.4415888918
 51
253.1805824648
  0
LINE
  5
1E7
330
1F
100
AcDbEntity
  8
0
  6
Continuous
 62
     7
370
    15
100
AcDbLine
 10
253.4025844425
 20
56.9824343632
 30
0.0
 11
253.7368968463
 21
56.675106253
 31
0.0
  0
LINE
  5
1E8
330
1F
100
AcDbEntity
  8
0
  6
Continuous
 62
     7
370
    15
100
AcDbLine
 10
252.5496556887
 20
57.4748196521
 30
0.0
 11
253.4025844425
 21
56.9824343632
 31
0.0
  0
SPLINE
  5
1E9
330
1F
100
AcDbEntity
  8
0
  6
Continuous
 62
     7
370
    15
100
AcDbSpline
210
0.0
220
0.0
230
1.0
 70
     8
 71
     3
 72
    20
 73
    16
 74
     0
 42
0.000000001
 43
0.00000001
 40
0.0
 40
0.0
 40
0.0
 40
0.0
 40
0.2499999999999997
 40
0.2499999999999997
 40
0.3749999999999997
 40
0.3749999999999997
 40
0.4999999999999998
 40
0.4999999999999998
 40
0.6249999999999998
 40
0.6249999999999998
 40
0.7499999999999999
 40
0.7499999999999999
 40
0.8749999999999999
 40
0.8749999999999999
 40
1.0
 40
1.0
 40
1.0
 40
1.0
 10
248.3585241922115
 20
59.89461415142137
 30
0.0
 10
248.6775128466094
 20
59.76072376216158
 30
0.0
 10
249.0039684467074
 20
59.60082741509959
 30
0.0
 10
249.5163185640905
 20
59.32290848763007
 30
0.0
 10
249.6909219307684
 20
59.22390947481977
 30
0.0
 10
250.0507957931172
 20
59.01296876992107
 30
0.0
 10
250.2336562094708
 20
58.90241295271104
 30
0.0
 10
250.599951298648
 20
58.67699508370021
 30
0.0
 10
250.7844348149066
 20
58.56151448232074
 30
0.0
 10
251.1580196391421
 20
58.32668213802497
 30
0.0
 10
251.3423691103814
 20
58.2103522127497
 30
0.0
 10
251.7030790168579
 20
57.98465752595033
 30
0.0
 10
251.8801330061116
 20
57.87484755185364
 30
0.0
 10
252.227862357464
 20
57.66345278831773
 30
0.0
 10
252.3931127739223
 20
57.56518995317472
 30
0.0
 10
252.5496556887037
 20
57.47481965205735
 30
0.0
  0
ARC
  5
1EA
330
1F
100
AcDbEntity
  8
0
  6
Continuous
 62
     7
370
    15
100
AcDbCircle
 10
244.4741805612
 20
54.3863212248
 30
0.0
 40
6.805754821143704
100
AcDbArc
 50
62.9348092132
 51
112.4502524579
  0
ARC
  5
1EB
330
1F
100
AcDbEntity
  8
0
  6
Continuous
 62
     7
370
    15
100
AcDbCircle
 10
235.5398783137
 20
38.8900259176
 30
0.0
 40
6.825219220613563
100
AcDbArc
 50
187.6324277535
 51
236.9950811643
  0
LINE
  5
1EC
330
1F
100
AcDbEntity
  8
0
  6
Continuous
 62
     7
370
    15
100
AcDbLine
 10
236.6917351534
 20
40.8715437043
 30
0.0
 11
236.228107361
 21
41.1391903319
 31
0.0
  0
LINE
  5
1ED
330
1F
100
AcDbEntity
  8
0
  6
Continuous
 62
     7
370
    15
100
AcDbLine
 10
235.8022892029
 20
41.7873352954
 30
0.0
 11
235.5571205986
 21
41.6458024727
 31
0.0
  0
SPLINE
  5
1EE
330
1F
100
AcDbEntity
  8
0
  6
Continuous
 62
     7
370
    15
100
AcDbSpline
210
0.0
220
0.0
230
1.0
 70
     8
 71
     3
 72
    14
 73
    10
 74
     0
 42
0.000000001
 43
0.00000001
 40
0.0
 40
0.0
 40
0.0
 40
0.0
 40
0.1249999999999991
 40
0.1249999999999991
 40
0.2499999999999982
 40
0.2499999999999982
 40
0.4999999999999998
 40
0.4999999999999998
 40
1.0
 40
1.0
 40
1.0
 40
1.0
 10
236.2281073609562
 20
41.13919033189521
 30
0.0
 10
236.203910927791
 20
41.15315863543776
 30
0.0
 10
236.1807354893322
 20
41.18052381143531
 30
0.0
 10
236.1438150969012
 20
41.23832558056083
 30
0.0
 10
236.1287733058686
 20
41.26929605967719
 30
0.0
 10
236.0889598492817
 20
41.3623225326064
 30
0.0
 10
236.0693238308976
 20
41.42493358689116
 30
0.0
 10
236.0189029824282
 20
41.60926433780615
 30
0.0
 10
235.9964858041876
 20
41.73080857270683
 30
0.0
 10
235.9797979060217
 20
41.84993763800919
 30
0.0
  0
SPLINE
  5
1EF
330
1F
100
AcDbEntity
  8
0
  6
Continuous
 62
     7
370
    15
100
AcDbSpline
210
0.0
220
0.0
230
1.0
 70
     8
 71
     3
 72
    10
 73
     6
 74
     0
 42
0.000000001
 43
0.00000001
 40
0.0
 40
0.0
 40
0.0
 40
0.0
 40
0.5
 40
0.5
 40
1.0
 40
1.0
 40
1.0
 40
1.0
 10
235.9797979060217
 20
41.8499376380092
 30
0.0
 10
235.9464078878339
 20
41.84378786880897
 30
0.0
 10
235.9141685364058
 20
41.8352412609609
 30
0.0
 10
235.8541806421435
 20
41.814005287192
 30
0.0
 10
235.8269187688945
 20
41.80155364118382
 30
0.0
 10
235.8022892029447
 20
41.78733529540696
 30
0.0
  0
LWPOLYLINE
  5
1F0
330
1F
100
AcDbEntity
  8
0
  6
Continuous
 62
     7
370
    15
100
AcDbPolyline
 90
       52
 70
   128
 43
0.0
 10
254.4396425104
 20
43.3171755966
 10
253.9052373769
 20
42.9706079561
 10
253.3789332805
 20
42.5531696807
 10
252.8687084548
 20
42.0711887089
 10
252.382297388
 20
41.5319713811
 10
251.9270735762
 20
40.9436916822
 10
251.5099377482
 20
40.3152673329
 10
251.1372132581
 20
39.6562246058
 10
250.8145502291
 20
38.9765539167
 10
250.5468399039
 20
38.2865583804
 10
250.338140498
 20
37.5966976261
 10
250.1916156819
 20
36.9174292395
 10
250.1094866223
 20
36.2590502369
 10
250.092998312
 20
35.6315409729
 10
250.142400697
 20
35.0444138483
 10
250.2569448876
 20
34.5065691118
 10
250.4348945105
 20
34.0261599415
 10
250.6735520309
 20
33.6104688505
 10
250.969299644
 20
33.2657972921
 10
251.3176541175
 20
32.9973701358
 10
251.7133347526
 20
32.8092564637
 10
252.1503434344
 20
32.7043078873
 10
252.6220555565
 20
32.68411532
 10
253.1213204441
 20
32.7489848605
 10
253.6405697504
 20
32.8979331528
 10
254.1719321852
 20
33.1287022926
 10
254.7073528356
 20
33.4377940549
 10
255.2387152705
 20
33.8205229237
 10
255.7579645768
 20
34.2710871195
 10
256.2572294644
 20
34.7826565483
 10
256.7289415865
 20
35.3474763391
 10
257.1659502682
 20
35.9569843996
 10
257.5616309033
 20
36.6019412088
 10
257.9099853768
 20
37.2725698791
 10
258.2057329899
 20
37.9587043633
 10
258.4443905103
 20
38.6499435621
 10
258.6223401332
 20
39.3358089939
 10
258.7368843238
 20
40.0059036378
 10
258.7862867089
 20
40.650069542
 10
258.7697983986
 20
41.2585418082
 10
258.6876693389
 20
41.8220966169
 10
258.5411445228
 20
42.3321910518
 10
258.332445117
 20
42.7810926011
 10
258.0647347917
 20
43.161996375
 10
257.7420717627
 20
43.4691282606
 10
257.3693472726
 20
43.6978324514
 10
256.9522114446
 20
43.8446420252
 10
256.4969876328
 20
43.9073314984
 10
256.010576566
 20
43.8849505625
 10
255.5003517403
 20
43.7778384897
 10
254.9740476439
 20
43.5876189898
 10
254.4396425104
 20
43.3171755966
  0
LWPOLYLINE
  5
1F1
330
1F
100
AcDbEntity
  8
0
  6
Continuous
 62
     7
370
    15
100
AcDbPolyline
 90
       27
 70
   128
 43
0.0
 10
254.3689318323
 20
43.4396500833
 10
253.8258371844
 20
43.0874471967
 10
253.2909752978
 20
42.663221307
 10
252.7724541335
 20
42.1734032463
 10
252.2781339437
 20
41.625418157
 10
251.8155081187
 20
41.0275729346
 10
251.3915895943
 20
40.3889303032
 10
251.0128045433
 20
39.7191714342
 10
250.684894961
 20
39.0284491891
 10
250.4128316224
 20
38.3272342133
 10
250.2007387303
 20
37.6261562109
 10
250.0518313968
 20
36.9358428099
 10
249.9683669053
 20
36.2667584576
 10
249.9516104924
 20
35.629045791
 10
250.0018161683
 20
35.0323718839
 10
250.118222866
 20
34.4857817046
 10
250.2990659787
 20
33.9975610029
 10
250.5416041092
 20
33.5751107072
 10
250.8421606266
 20
33.2248347333
 10
251.1961794005
 20
32.9520429078
 10
251.5982938671
 20
32.7608704768
 10
252.042408381
 20
32.6542154194
 10
252.5217906189
 20
32.6336945177
 10
253.0291736348
 20
32.6996188475
 10
253.5568660192
 20
32.8509890633
 10
254.0968684937
 20
33.0855105468
 10
254.3696501119
 20
33.2333046562
  0
LWPOLYLINE
  5
1F2
330
1F
100
AcDbEntity
  8
0
  6
Continuous
 62
     7
370
    15
100
AcDbPolyline
 90
       14
 70
   128
 43
0.0
 10
258.7883492147
 20
40.8875453585
 10
258.7694967593
 20
41.3475425748
 10
258.6860322678
 20
41.9202608764
 10
258.5371249343
 20
42.4386495297
 10
258.3250320422
 20
42.8948502912
 10
258.0529687036
 20
43.2819476224
 10
257.7250591213
 20
43.5940735224
 10
257.3462740703
 20
43.8264964806
 10
256.9223555459
 20
43.9756932019
 10
256.4597297209
 20
44.0394020161
 10
255.9654095311
 20
44.0166571626
 10
255.4468883668
 20
43.90780343
 10
254.9120264802
 20
43.7144909301
 10
254.3689318323
 20
43.4396500833
  0
SPLINE
  5
1F3
330
1F
100
AcDbEntity
  8
0
  6
Continuous
 62
     7
370
    15
100
AcDbSpline
210
0.0
220
0.0
230
1.0
 70
     8
 71
     3
 72
    60
 73
    56
 74
     0
 42
0.000000001
 43
0.00000001
 40
0.0
 40
0.0
 40
0.0
 40
0.0
 40
0.0624999999999997
 40
0.0624999999999997
 40
0.0937499999999995
 40
0.0937499999999995
 40
0.1249999999999993
 40
0.1249999999999993
 40
0.187499999999999
 40
0.187499999999999
 40
0.2499999999999987
 40
0.2499999999999987
 40
0.2812499999999985
 40
0.2812499999999985
 40
0.3124999999999984
 40
0.3124999999999984
 40
0.3437499999999982
 40
0.3437499999999982
 40
0.3749999999999981
 40
0.3749999999999981
 40
0.4062499999999979
 40
0.4062499999999979
 40
0.4374999999999978
 40
0.4374999999999978
 40
0.4687499999999976
 40
0.4687499999999976
 40
0.4999999999999974
 40
0.4999999999999974
 40
0.5312499999999973
 40
0.5312499999999973
 40
0.5624999999999971
 40
0.5624999999999971
 40
0.593749999999997
 40
0.593749999999997
 40
0.6249999999999969
 40
0.6249999999999969
 40
0.6874999999999971
 40
0.6874999999999971
 40
0.7499999999999973
 40
0.7499999999999973
 40
0.7812499999999979
 40
0.7812499999999979
 40
0.8124999999999983
 40
0.8124999999999983
 40
0.8437499999999989
 40
0.8437499999999989
 40
0.8749999999999993
 40
0.8749999999999993
 40
0.9062499999999996
 40
0.9062499999999996
 40
0.9374999999999998
 40
0.9374999999999998
 40
0.9687499999999999
 40
0.9687499999999999
 40
1.0
 40
1.0
 40
1.0
 40
1.0
 10
250.724225987864
 20
46.47445479445182
 30
0.0
 10
250.9677160930784
 20
46.4522916909674
 30
0.0
 10
251.2164824246077
 20
46.40375475964611
 30
0.0
 10
251.5699704088981
 20
46.30862512174235
 30
0.0
 10
251.6853057797607
 20
46.27311527620364
 30
0.0
 10
251.9113531254031
 20
46.19575053598012
 30
0.0
 10
252.0228541042517
 20
46.15355003701788
 30
0.0
 10
252.3437400237123
 20
46.02114102525592
 30
0.0
 10
252.5393124002291
 20
45.92588548154593
 30
0.0
 10
252.8941978638759
 20
45.72442046382427
 30
0.0
 10
253.0470815996995
 20
45.62169897555886
 30
0.0
 10
253.2366497376268
 20
45.46506127808743
 30
0.0
 10
253.2936567322565
 20
45.41184610305
 30
0.0
 10
253.3911241483614
 20
45.30612074383224
 30
0.0
 10
253.4318828287108
 20
45.25347313209508
 30
0.0
 10
253.4972021573759
 20
45.14757112180408
 30
0.0
 10
253.5217765360713
 20
45.0943229708677
 30
0.0
 10
253.5531296225737
 20
44.98591750550906
 30
0.0
 10
253.5595354397412
 20
44.9316924416961
 30
0.0
 10
253.5529938892921
 20
44.82358503008899
 30
0.0
 10
253.5401420790704
 20
44.76945140871567
 30
0.0
 10
253.4931610461703
 20
44.65977208547855
 30
0.0
 10
253.4584308354376
 20
44.60367058407834
 30
0.0
 10
253.3677750328322
 20
44.49361024100789
 30
0.0
 10
253.3118782926125
 20
44.43922578639461
 30
0.0
 10
253.1770290395016
 20
44.33116004072637
 30
0.0
 10
253.098725721883
 20
44.2782206083816
 30
0.0
 10
252.9256769008948
 20
44.17781605084735
 30
0.0
 10
252.8294159442671
 20
44.12943439185177
 30
0.0
 10
252.6222645424557
 20
44.03911125345906
 30
0.0
 10
252.5133592687503
 20
43.99792367791228
 30
0.0
 10
252.2856922868155
 20
43.92343999045511
 30
0.0
 10
252.1663344316522
 20
43.89010747673708
 30
0.0
 10
251.9267698266225
 20
43.83406366029774
 30
0.0
 10
251.805533639039
 20
43.81096820688467
 30
0.0
 10
251.4374760066612
 20
43.75703550386698
 30
0.0
 10
251.1954573387751
 20
43.74264017891354
 30
0.0
 10
250.721401655468
 20
43.76047709364994
 30
0.0
 10
250.4974453207264
 20
43.79243232029208
 30
0.0
 10
250.1805844517601
 20
43.87728034670951
 30
0.0
 10
250.0783291623594
 20
43.91187650641139
 30
0.0
 10
249.8859004590198
 20
43.99192911554831
 30
0.0
 10
249.7949313547535
 20
44.03757318124537
 30
0.0
 10
249.6234317544829
 20
44.14018017581741
 30
0.0
 10
249.5423862728781
 20
44.19759714880548
 30
0.0
 10
249.3939896031419
 20
44.32189578584465
 30
0.0
 10
249.3269106209391
 20
44.38837426496327
 30
0.0
 10
249.2067553612478
 20
44.52936640661702
 30
0.0
 10
249.1536743997253
 20
44.60387961200034
 30
0.0
 10
249.062241631214
 20
44.76061034558941
 30
0.0
 10
249.0242340841226
 20
44.84253143142152
 30
0.0
 10
248.9659726069148
 20
45.00823686574469
 30
0.0
 10
248.9453365052274
 20
45.09261740374306
 30
0.0
 10
248.9221135996254
 20
45.26362451696578
 30
0.0
 10
248.9196088775643
 20
45.35104456837893
 30
0.0
 10
248.9273155384831
 20
45.43712047230602
 30
0.0
  0
ARC
  5
1F4
330
1F
100
AcDbEntity
  8
0
  6
Continuous
 62
     7
370
    15
100
AcDbCircle
 10
253.5033394068
 20
38.8553950508
 30
0.0
 40
25.08375480985724
100
AcDbArc
 50
139.5659238294
 51
171.5757969098
  0
LINE
  5
1F5
330
1F
100
AcDbEntity
  8
0
  6
Continuous
 62
     7
370
    15
100
AcDbLine
 10
237.261305343
 20
33.7612718347
 30
0.0
 11
239.4313010797
 21
32.5085599606
 31
0.0
  0
SPLINE
  5
1F6
330
1F
100
AcDbEntity
  8
0
  6
Continuous
 62
     7
370
    15
100
AcDbSpline
210
0.0
220
0.0
230
1.0
 70
     8
 71
     3
 72
    14
 73
    10
 74
     0
 42
0.000000001
 43
0.00000001
 40
0.0
 40
0.0
 40
0.0
 40
0.0
 40
0.1249999999999993
 40
0.1249999999999993
 40
0.2499999999999987
 40
0.2499999999999987
 40
0.4999999999999973
 40
0.4999999999999973
 40
1.0
 40
1.0
 40
1.0
 40
1.0
 10
237.0129958880733
 20
34.47201914083328
 30
0.0
 10
237.037224466026
 20
34.45803228049989
 30
0.0
 10
237.0603103073919
 20
34.43073351068315
 30
0.0
 10
237.0970526814551
 20
34.37329430237573
 30
0.0
 10
237.1122109811388
 20
34.34214382737334
 30
0.0
 10
237.1517739080265
 20
34.24984428716758
 30
0.0
 10
237.1713837812693
 20
34.18760650641205
 30
0.0
 10
237.2222066302243
 20
34.00215074021548
 30
0.0
 10
237.2446383143483
 20
33.88025191991777
 30
0.0
 10
237.2613053430078
 20
33.76127183471918
 30
0.0
  0
LINE
  5
1F7
330
1F
100
AcDbEntity
  8
0
  6
Continuous
 62
     7
370
    15
100
AcDbLine
 10
236.228107361
 20
34.9251256429
 30
0.0
 11
237.0129958881
 21
34.4720191408
 31
0.0
  0
SPLINE
  5
1F8
330
1F
100
AcDbEntity
  8
0
  6
Continuous
 62
     7
370
    15
100
AcDbSpline
210
0.0
220
0.0
230
1.0
 70
     8
 71
     3
 72
    14
 73
    10
 74
     0
 42
0.000000001
 43
0.00000001
 40
0.0
 40
0.0
 40
0.0
 40
0.0
 40
0.4999999999999972
 40
0.4999999999999972
 40
0.7499999999999973
 40
0.7499999999999973
 40
0.8749999999999987
 40
0.8749999999999987
 40
1.0
 40
1.0
 40
1.0
 40
1.0
 10
235.9797979060217
 20
34.50107033103721
 30
0.0
 10
235.9964219874755
 20
34.60055007526732
 30
0.0
 10
236.0188393890797
 20
34.69638520866332
 30
0.0
 10
236.0692704469285
 20
34.82260115823696
 30
0.0
 10
236.0888051408597
 20
34.86243470693121
 30
0.0
 10
236.1287482981951
 20
34.90969503840306
 30
0.0
 10
236.1437652653607
 20
34.92329765200833
 30
0.0
 10
236.1808266328824
 20
34.93851805358403
 30
0.0
 10
236.2038102952308
 20
34.93915204037791
 30
0.0
 10
236.2281073609562
 20
34.92512564289487
 30
0.0
  0
LINE
  5
1F9
330
1F
100
AcDbEntity
  8
0
  6
Continuous
 62
     7
370
    15
100
AcDbLine
 10
234.835107002
 20
35.1618863241
 30
0.0
 11
235.979797906
 21
34.501070331
 31
0.0
  0
ARC
  5
1FA
330
1F
100
AcDbEntity
  8
0
  6
Continuous
 62
     7
370
    15
100
AcDbCircle
 10
238.1037183543
 20
40.3150062926
 30
0.0
 40
6.102332798378986
100
AcDbArc
 50
182.3868561234
 51
237.6131440222
  0
LINE
  5
1FB
330
1F
100
AcDbEntity
  8
0
  6
Continuous
 62
     7
370
    15
100
AcDbLine
 10
232.0066798773
 20
40.8774066071
 30
0.0
 11
232.0066798773
 21
40.0608657952
 31
0.0
  0
ARC
  5
1FC
330
1F
100
AcDbEntity
  8
0
  6
Continuous
 62
     7
370
    15
100
AcDbCircle
 10
234.6284222516
 20
40.9544964384
 30
0.0
 40
2.622875505890381
100
AcDbArc
 50
154.2852603916
 51
181.6842424054
  0
SPLINE
  5
1FD
330
1F
100
AcDbEntity
  8
0
  6
Continuous
 62
     7
370
    15
100
AcDbSpline
210
0.0
220
0.0
230
1.0
 70
     8
 71
     3
 72
    22
 73
    18
 74
     0
 42
0.000000001
 43
0.00000001
 40
0.0
 40
0.0
 40
0.0
 40
0.0
 40
0.2499999999999998
 40
0.2499999999999998
 40
0.3749999999999996
 40
0.3749999999999996
 40
0.4999999999999994
 40
0.4999999999999994
 40
0.5624999999999994
 40
0.5624999999999994
 40
0.6249999999999993
 40
0.6249999999999993
 40
0.7499999999999996
 40
0.7499999999999996
 40
0.8749999999999998
 40
0.8749999999999998
 40
1.0
 40
1.0
 40
1.0
 40
1.0
 10
250.724225987864
 20
46.47445479445182
 30
0.0
 10
250.4797375245047
 20
46.49670877109455
 30
0.0
 10
250.2423246308279
 20
46.52675760338853
 30
0.0
 10
249.8947064478965
 20
46.54535151781281
 30
0.0
 10
249.7796872672847
 20
46.54698672893755
 30
0.0
 10
249.5614431870621
 20
46.52347116488085
 30
0.0
 10
249.4569345869389
 20
46.49661325637342
 30
0.0
 10
249.3255779175936
 20
46.42103244168818
 30
0.0
 10
249.2855698673233
 20
46.38986238798913
 30
0.0
 10
249.2158675206202
 20
46.3202086202293
 30
0.0
 10
249.1854980201403
 20
46.28143936754693
 30
0.0
 10
249.1049242403468
 20
46.15760238573533
 30
0.0
 10
249.0663439224055
 20
46.0682999606376
 30
0.0
 10
249.0044713823621
 20
45.88689122275196
 30
0.0
 10
248.9815426145019
 20
45.79425843611255
 30
0.0
 10
248.9468014088817
 20
45.61252784049752
 30
0.0
 10
248.9350262588308
 20
45.52324171610552
 30
0.0
 10
248.9273155384831
 20
45.43712047230608
 30
0.0
  0
SPLINE
  5
1FE
330
1F
100
AcDbEntity
  8
0
  6
Continuous
 62
     7
370
    15
100
AcDbSpline
210
0.0
220
0.0
230
1.0
 70
     8
 71
     3
 72
    12
 73
     8
 74
     0
 42
0.000000001
 43
0.00000001
 40
0.0
 40
0.0
 40
0.0
 40
0.0
 40
0.2499999999999999
 40
0.2499999999999999
 40
0.4999999999999998
 40
0.4999999999999998
 40
1.0
 40
1.0
 40
1.0
 40
1.0
 10
259.324758818443
 20
44.64600150357165
 30
0.0
 10
259.3528638201073
 20
44.62977683146273
 30
0.0
 10
259.3755197870347
 20
44.60975722865449
 30
0.0
 10
259.4046419289154
 20
44.56679560129148
 30
0.0
 10
259.4114973271208
 20
44.5435877259712
 30
0.0
 10
259.4083393321205
 20
44.4747008613615
 30
0.0
 10
259.3737072142321
 20
44.4293363774401
 30
0.0
 10
259.3174207650001
 20
44.39684290194158
 30
0.0
  0
ARC
  5
1FF
330
1F
100
AcDbEntity
  8
0
  6
Continuous
 62
     7
370
    15
100
AcDbCircle
 10
243.3961346491
 20
32.7608787622
 30
0.0
 40
5.432026029965691
100
AcDbArc
 50
217.3950627517
 51
262.6019516066
  0
SPLINE
  5
200
330
1F
100
AcDbEntity
  8
0
  6
Continuous
 62
     7
370
    15
100
AcDbSpline
210
0.0
220
0.0
230
1.0
 70
     8
 71
     3
 72
    12
 73
     8
 74
     0
 42
0.000000001
 43
0.00000001
 40
0.0
 40
0.0
 40
0.0
 40
0.0
 40
0.2500000000000001
 40
0.2500000000000001
 40
0.5000000000000002
 40
0.5000000000000002
 40
1.0
 40
1.0
 40
1.0
 40
1.0
 10
237.8802914539695
 20
31.85810359589878
 30
0.0
 10
237.9085336540418
 20
31.84179972083476
 30
0.0
 10
237.9430797859472
 20
31.82884392742476
 30
0.0
 10
238.0178038456449
 20
31.81213218923221
 30
0.0
 10
238.0580942369466
 20
31.80824528044476
 30
0.0
 10
238.1792072543829
 20
31.81050867833406
 30
0.0
 10
238.2573248168008
 20
31.83083788976081
 30
0.0
 10
238.3139742895364
 20
31.86354093426715
 30
0.0
  0
LINE
  5
201
330
1F
100
AcDbEntity
  8
0
  6
Continuous
 62
     7
370
    15
100
AcDbLine
 10
258.0989201031
 20
45.353663131
 30
0.0
 11
259.3247588184
 21
44.6460015036
 31
0.0
  0
ARC
  5
202
330
1F
100
AcDbEntity
  8
0
  6
Continuous
 62
     7
370
    15
100
AcDbCircle
 10
242.6802000802
 20
34.2941708783
 30
0.0
 40
6.409553223799853
100
AcDbArc
 50
194.716105919
 51
237.9533567894
  0
LINE
  5
203
330
1F
100
AcDbEntity
  8
0
  6
Continuous
 62
     7
370
    15
100
AcDbLine
 10
236.4809033863
 20
32.6659531318
 30
0.0
 11
237.880291454
 21
31.8581035959
 31
0.0
  0
SPLINE
  5
204
330
1F
100
AcDbEntity
  8
0
  6
Continuous
 62
     7
370
    15
100
AcDbSpline
210
0.0
220
0.0
230
1.0
 70
     8
 71
     3
 72
     8
 73
     4
 74
     0
 42
0.000000001
 43
0.00000001
 40
0.0
 40
0.0
 40
0.0
 40
0.0
 40
1.0
 40
1.0
 40
1.0
 40
1.0
 10
236.9076945506448
 20
33.51726541895475
 30
0.0
 10
236.7645298539543
 20
33.23364337194775
 30
0.0
 10
236.6223411571017
 20
32.94986022596373
 30
0.0
 10
236.4809033863465
 20
32.66595313177665
 30
0.0
  0
LINE
  5
205
330
1F
100
AcDbEntity
  8
0
  6
Continuous
 62
     7
370
    15
100
AcDbLine
 10
237.152863155
 20
33.6587982416
 30
0.0
 11
236.9076945506
 21
33.517265419
 31
0.0
  0
SPLINE
  5
206
330
1F
100
AcDbEntity
  8
0
  6
Continuous
 62
     7
370
    15
100
AcDbSpline
210
0.0
220
0.0
230
1.0
 70
     8
 71
     3
 72
    10
 73
     6
 74
     0
 42
0.000000001
 43
0.00000001
 40
0.0
 40
0.0
 40
0.0
 40
0.0
 40
0.5
 40
0.5
 40
1.0
 40
1.0
 40
1.0
 40
1.0
 10
237.2613053430079
 20
33.76127183471927
 30
0.0
 10
237.2506524760379
 20
33.74199618751312
 30
0.0
 10
237.2358477128858
 20
33.72338480608805
 30
0.0
 10
237.1990619415548
 20
33.68875453185646
 30
0.0
 10
237.1774927209608
 20
33.67301658742135
 30
0.0
 10
237.1528631550109
 20
33.65879824164448
 30
0.0
  0
SPLINE
  5
207
330
1F
100
AcDbEntity
  8
0
  6
Continuous
 62
     7
370
    15
100
AcDbSpline
210
0.0
220
0.0
230
1.0
 70
     8
 71
     3
 72
    14
 73
    10
 74
     0
 42
0.000000001
 43
0.00000001
 40
0.0
 40
0.0
 40
0.0
 40
0.0
 40
0.4999999999999999
 40
0.4999999999999999
 40
0.7499999999999998
 40
0.7499999999999998
 40
0.8749999999999999
 40
0.8749999999999999
 40
1.0
 40
1.0
 40
1.0
 40
1.0
 10
221.3399960863291
 20
45.15633118185595
 30
0.0
 10
221.655162030169
 20
44.92924319096009
 30
0.0
 10
221.9714376854349
 20
44.69939681591196
 30
0.0
 10
222.450262174006
 20
44.34408821392284
 30
0.0
 10
222.61058218443
 20
44.22394989972729
 30
0.0
 10
222.8536347203837
 20
44.03768106548348
 30
0.0
 10
222.9350781584003
 20
43.97458782425647
 30
0.0
 10
223.0997396074337
 20
43.84424258184433
 30
0.0
 10
223.1826456254999
 20
43.77771813986708
 30
0.0
 10
223.2686644535846
 20
43.70392466854351
 30
0.0
  0
SPLINE
  5
208
330
1F
100
AcDbEntity
  8
0
  6
Continuous
 62
     7
370
    15
100
AcDbSpline
210
0.0
220
0.0
230
1.0
 70
     8
 71
     3
 72
     8
 73
     4
 74
     0
 42
0.000000001
 43
0.00000001
 40
0.0
 40
0.0
 40
0.0
 40
0.0
 40
1.0
 40
1.0
 40
1.0
 40
1.0
 10
223.2686644535846
 20
43.70392466854351
 30
0.0
 10
223.5703169268221
 20
43.44514431046169
 30
0.0
 10
223.8755964703455
 20
43.19756929505703
 30
0.0
 10
224.1802560434722
 20
42.95659643849051
 30
0.0
  0
SPLINE
  5
209
330
1F
100
AcDbEntity
  8
0
  6
Continuous
 62
     7
370
    15
100
AcDbSpline
210
0.0
220
0.0
230
1.0
 70
     8
 71
     3
 72
    14
 73
    10
 74
     0
 42
0.000000001
 43
0.00000001
 40
0.0
 40
0.0
 40
0.0
 40
0.0
 40
0.1250000000000012
 40
0.1250000000000012
 40
0.2500000000000024
 40
0.2500000000000024
 40
0.5000000000000016
 40
0.5000000000000016
 40
1.0
 40
1.0
 40
1.0
 40
1.0
 10
224.1802560434722
 20
42.95659643849046
 30
0.0
 10
224.1994514193978
 20
42.94141370675426
 30
0.0
 10
224.2170634927982
 20
42.93004588825747
 30
0.0
 10
224.2429084227174
 20
42.91877741904503
 30
0.0
 10
224.2510467869651
 20
42.91839394880798
 30
0.0
 10
224.2679968779331
 20
42.92416974150237
 30
0.0
 10
224.2701661504429
 20
42.9368351671204
 30
0.0
 10
224.2689906026283
 20
42.98127199416417
 30
0.0
 10
224.2569170820241
 20
43.02175526493762
 30
0.0
 10
224.2421388539841
 20
43.06575893482011
 30
0.0
  0
SPLINE
  5
20A
330
1F
100
AcDbEntity
  8
0
  6
Continuous
 62
     7
370
    15
100
AcDbSpline
210
0.0
220
0.0
230
1.0
 70
     8
 71
     3
 72
    14
 73
    10
 74
     0
 42
0.000000001
 43
0.00000001
 40
0.0
 40
0.0
 40
0.0
 40
0.0
 40
0.25
 40
0.25
 40
0.5
 40
0.5
 40
0.75
 40
0.75
 40
1.0
 40
1.0
 40
1.0
 40
1.0
 10
224.2421388539834
 20
43.06575893482081
 30
0.0
 10
224.2240826070368
 20
43.11952323780758
 30
0.0
 10
224.2211598089356
 20
43.16407384690463
 30
0.0
 10
224.2157460803923
 20
43.25633519674935
 30
0.0
 10
224.2141788023512
 20
43.30362959966961
 30
0.0
 10
224.2040404025441
 20
43.40839065449738
 30
0.0
 10
224.1957254047998
 20
43.46565186153239
 30
0.0
 10
224.166925230141
 20
43.59527321890681
 30
0.0
 10
224.1462718334705
 20
43.66806741851986
 30
0.0
 10
224.1175823163094
 20
43.74775411747962
 30
0.0
  0
ARC
  5
20B
330
1F
100
AcDbEntity
  8
0
  6
Continuous
 62
     7
370
    15
100
AcDbCircle
 10
234.4725495937
 20
46.8343156154
 30
0.0
 40
10.80519362138099
100
AcDbArc
 50
163.4019732888
 51
196.5980267112
  0
SPLINE
  5
20C
330
1F
100
AcDbEntity
  8
0
  6
Continuous
 62
     7
370
    15
100
AcDbSpline
210
0.0
220
0.0
230
1.0
 70
     8
 71
     3
 72
    14
 73
    10
 74
     0
 42
0.000000001
 43
0.00000001
 40
0.0
 40
0.0
 40
0.0
 40
0.0
 40
0.25
 40
0.25
 40
0.5
 40
0.5
 40
0.75
 40
0.75
 40
1.0
 40
1.0
 40
1.0
 40
1.0
 10
224.2421388539834
 20
51.38208212974379
 30
0.0
 10
224.2240826070368
 20
51.26124005079924
 30
0.0
 10
224.2211598089356
 20
51.13614578423313
 30
0.0
 10
224.2157460803923
 20
50.88819447358177
 30
0.0
 10
224.2141788023512
 20
50.76428584926801
 30
0.0
 10
224.2040404025441
 20
50.51813011002781
 30
0.0
 10
224.1957254047998
 20
50.3958421681664
 30
0.0
 10
224.166925230141
 20
50.15384499095762
 30
0.0
 10
224.1462718334705
 20
50.03368802377802
 30
0.0
 10
224.1175823163094
 20
49.92087711337275
 30
0.0
  0
SPLINE
  5
20D
330
1F
100
AcDbEntity
  8
0
  6
Continuous
 62
     7
370
    15
100
AcDbSpline
210
0.0
220
0.0
230
1.0
 70
     8
 71
     3
 72
    14
 73
    10
 74
     0
 42
0.000000001
 43
0.00000001
 40
0.0
 40
0.0
 40
0.0
 40
0.0
 40
0.1250000000000025
 40
0.1250000000000025
 40
0.250000000000005
 40
0.250000000000005
 40
0.5000000000000009
 40
0.5000000000000009
 40
1.0
 40
1.0
 40
1.0
 40
1.0
 10
224.1802560434723
 20
51.92736769403781
 30
0.0
 10
224.1994514193979
 20
51.92508088606399
 30
0.0
 10
224.2170634927982
 20
51.91358264679117
 30
0.0
 10
224.2429084227175
 20
51.87689114426465
 30
0.0
 10
224.2510467869651
 20
51.85380972916258
 30
0.0
 10
224.2679968779331
 20
51.78247721008548
 30
0.0
 10
224.2701661504429
 20
51.7312331044774
 30
0.0
 10
224.2689906026283
 20
51.58119762471582
 30
0.0
 10
224.2569170820241
 20
51.48098594983275
 30
0.0
 10
224.2421388539841
 20
51.38208212974413
 30
0.0
  0
SPLINE
  5
20E
330
1F
100
AcDbEntity
  8
0
  6
Continuous
 62
     7
370
    15
100
AcDbSpline
210
0.0
220
0.0
230
1.0
 70
     8
 71
     3
 72
     8
 73
     4
 74
     0
 42
0.000000001
 43
0.00000001
 40
0.0
 40
0.0
 40
0.0
 40
0.0
 40
1.0
 40
1.0
 40
1.0
 40
1.0
 10
223.2686644535846
 20
51.9795805051739
 30
0.0
 10
223.5703169268222
 20
51.986926752317
 30
0.0
 10
223.8755964703456
 20
51.96366278634707
 30
0.0
 10
224.1802560434723
 20
51.92736769403781
 30
0.0
  0
SPLINE
  5
20F
330
1F
100
AcDbEntity
  8
0
  6
Continuous
 62
     7
370
    15
100
AcDbSpline
210
0.0
220
0.0
230
1.0
 70
     8
 71
     3
 72
    14
 73
    10
 74
     0
 42
0.000000001
 43
0.00000001
 40
0.0
 40
0.0
 40
0.0
 40
0.0
 40
0.4999999999999999
 40
0.4999999999999999
 40
0.7499999999999998
 40
0.7499999999999998
 40
0.8749999999999999
 40
0.8749999999999999
 40
1.0
 40
1.0
 40
1.0
 40
1.0
 10
221.3399960863291
 20
52.61221985015889
 30
0.0
 10
221.655162030169
 20
52.47483535643276
 30
0.0
 10
221.9714376854349
 20
52.34326184880161
 30
0.0
 10
222.450262174006
 20
52.16836638228084
 30
0.0
 10
222.61058218443
 20
52.11369523201633
 30
0.0
 10
222.8536347203837
 20
52.04466341629627
 30
0.0
 10
222.9350781584003
 20
52.02380113178748
 30
0.0
 10
223.0997396074337
 20
51.99099341835785
 30
0.0
 10
223.1826456254999
 20
51.97748565886521
 30
0.0
 10
223.2686644535846
 20
51.97958050517389
 30
0.0
  0
SPLINE
  5
210
330
1F
100
AcDbEntity
  8
0
  6
Continuous
 62
     7
370
    15
100
AcDbSpline
210
0.0
220
0.0
230
1.0
 70
     8
 71
     3
 72
     8
 73
     4
 74
     0
 42
0.000000001
 43
0.00000001
 40
0.0000005163856998
 40
0.0000005163856998
 40
0.0000005163856998
 40
0.0000005163856998
 40
0.000026289209185
 40
0.000026289209185
 40
0.000026289209185
 40
0.000026289209185
 10
221.3399744993098
 20
52.62509896135008
 30
0.0
 10
221.3399721981505
 20
52.62080612632354
 30
0.0
 10
221.3399794444749
 20
52.61651305864802
 30
0.0
 10
221.3399960863291
 20
52.61221985015889
 30
0.0
  0
LINE
  5
211
330
1F
100
AcDbEntity
  8
0
  6
Continuous
 62
     7
370
    15
100
AcDbLine
 10
234.2041498955
 20
63.1203155524
 30
0.0
 11
234.2367878578
 21
63.1038585184
 31
0.0
  0
LINE
  5
212
330
1F
100
AcDbEntity
  8
0
  6
Continuous
 62
     7
370
    15
100
AcDbLine
 10
222.8224520823
 20
43.404500414
 30
0.0
 11
222.7704289065
 21
43.4395668637
 31
0.0
  0
SPLINE
  5
213
330
1F
100
AcDbEntity
  8
0
  6
Continuous
 62
     7
370
    15
100
AcDbSpline
210
0.0
220
0.0
230
1.0
 70
     8
 71
     3
 72
     8
 73
     4
 74
     0
 42
0.000000001
 43
0.00000001
 40
0.0000005163857002
 40
0.0000005163857002
 40
0.0000005163857002
 40
0.0000005163857002
 40
0.0000262892091854
 40
0.0000262892091854
 40
0.0000262892091854
 40
0.0000262892091854
 10
221.3399744993098
 20
45.15162790949031
 30
0.0
 10
221.3399721981505
 20
45.15320129518802
 30
0.0
 10
221.3399794444749
 20
45.15476902512019
 30
0.0
 10
221.3399960863291
 20
45.15633118185596
 30
0.0
  0
SPLINE
  5
214
330
1F
100
AcDbEntity
  8
0
  6
Continuous
 62
     7
370
    15
100
AcDbSpline
210
0.0
220
0.0
230
1.0
 70
     8
 71
     3
 72
    18
 73
    14
 74
     0
 42
0.000000001
 43
0.00000001
 40
0.0
 40
0.0
 40
0.0
 40
0.0
 40
0.1248838678074593
 40
0.250449739524344
 40
0.3759926854030275
 40
0.5008213054456616
 40
0.6245850129385223
 40
0.6868393694357227
 40
0.7482883257010329
 40
0.809649188589608
 40
0.8722979832432585
 40
0.9965007240958169
 40
1.0
 40
1.0
 40
1.0
 40
1.0
 10
227.0288427977637
 20
43.27865679423405
 30
0.0
 10
226.8957959819801
 20
43.52359155916324
 30
0.0
 10
226.6289757677878
 20
44.01479870348032
 30
0.0
 10
226.504281311276
 20
44.76681987421098
 30
0.0
 10
226.6401064600458
 20
45.39150672507824
 30
0.0
 10
227.0071850359652
 20
45.80837282229524
 30
0.0
 10
227.4498164863602
 20
45.90235287037369
 30
0.0
 10
227.826058715397
 20
45.82041561347411
 30
0.0
 10
228.108231214739
 20
45.67812164270111
 30
0.0
 10
228.3808011424903
 20
45.46150362975758
 30
0.0
 10
228.7060983357988
 20
45.08335663739551
 30
0.0
 10
228.9514010589169
 20
44.72461420629304
 30
0.0
 10
229.037514013493
 20
44.45511687179812
 30
0.0
 10
229.0398736707219
 20
44.44773213698507
 30
0.0
  0
SPLINE
  5
215
330
1F
100
AcDbEntity
  8
0
  6
Continuous
 62
     7
370
    15
100
AcDbSpline
210
0.0
220
0.0
230
1.0
 70
     8
 71
     3
 72
    12
 73
     8
 74
     0
 42
0.000000001
 43
0.00000001
 40
0.0
 40
0.0
 40
0.0
 40
0.0
 40
0.1531413117507218
 40
0.321386802876655
 40
0.4897577437573559
 40
0.6605592160055064
 40
1.0
 40
1.0
 40
1.0
 40
1.0
 10
228.5905385300875
 20
41.95066788077796
 30
0.0
 10
228.5171251625174
 20
41.9697642535867
 30
0.0
 10
228.3630577379799
 20
42.00984045597378
 30
0.0
 10
228.099252622062
 20
42.15529203462
 30
0.0
 10
227.8178395570792
 20
42.36258444101484
 30
0.0
 10
227.4376516742221
 20
42.71180961360272
 30
0.0
 10
227.1921582918451
 20
43.05220640945896
 30
0.0
 10
227.0288427977637
 20
43.27865679423405
 30
0.0
  0
ARC
  5
216
330
1F
100
AcDbEntity
  8
0
  6
Continuous
 62
     7
370
    15
100
AcDbCircle
 10
241.8524723938
 20
36.355965986
 30
0.0
 40
6.623523393474141
100
AcDbArc
 50
198.1114510494
 51
217.3575801743
  0
SPLINE
  5
217
330
1F
100
AcDbEntity
  8
0
  6
Continuous
 62
     7
370
    15
100
AcDbSpline
210
0.0
220
0.0
230
1.0
 70
     8
 71
     3
 72
     8
 73
     4
 74
     0
 42
0.000000001
 43
0.00000001
 40
0.0
 40
0.0
 40
0.0
 40
0.0
 40
1.0
 40
1.0
 40
1.0
 40
1.0
 10
234.0824446798713
 20
34.05055387096937
 30
0.0
 10
234.5742394786232
 20
34.13220415805111
 30
0.0
 10
235.0658195695259
 20
34.21428794554156
 30
0.0
 10
235.5571205985785
 20
34.29693516574545
 30
0.0
  0
LINE
  5
218
330
1F
100
AcDbEntity
  8
0
  6
Continuous
 62
     7
370
    15
100
AcDbLine
 10
235.5571205986
 20
34.2969351657
 30
0.0
 11
235.8022892029
 21
34.4384679884
 31
0.0
  0
SPLINE
  5
219
330
1F
100
AcDbEntity
  8
0
  6
Continuous
 62
     7
370
    15
100
AcDbSpline
210
0.0
220
0.0
230
1.0
 70
     8
 71
     3
 72
    10
 73
     6
 74
     0
 42
0.000000001
 43
0.00000001
 40
0.0
 40
0.0
 40
0.0
 40
0.0
 40
0.5
 40
0.5
 40
1.0
 40
1.0
 40
1.0
 40
1.0
 10
235.8022892029447
 20
34.43846798843521
 30
0.0
 10
235.8271215062966
 20
34.45280337202306
 30
0.0
 10
235.85479650379
 20
34.46539881215915
 30
0.0
 10
235.9149215132445
 20
34.48659671029942
 30
0.0
 10
235.9466159134393
 20
34.49495887596608
 30
0.0
 10
235.9797979060209
 20
34.50107033103732
 30
0.0
  0
SPLINE
  5
21A
330
1F
100
AcDbEntity
  8
0
  6
Continuous
 62
     7
370
    15
100
AcDbSpline
210
0.0
220
0.0
230
1.0
 70
     8
 71
     3
 72
    20
 73
    16
 74
     0
 42
0.000000001
 43
0.00000001
 40
0.0
 40
0.0
 40
0.0
 40
0.0
 40
0.06016839084508
 40
0.0931452922431546
 40
0.197878638932113
 40
0.2401439575298748
 40
0.3477074013332203
 40
0.4521269884717777
 40
0.4942544970893474
 40
0.6014013580115422
 40
0.7072533376601335
 40
0.7499595664681906
 40
0.8585918135374648
 40
0.9544734662023305
 40
1.0
 40
1.0
 40
1.0
 40
1.0
 10
228.0345055878984
 20
45.63206573307185
 30
0.0
 10
228.0279953622372
 20
45.59495296978596
 30
0.0
 10
228.0179170326813
 20
45.53749956055127
 30
0.0
 10
228.0096152013724
 20
45.40881535537243
 30
0.0
 10
228.0123113583852
 20
45.28715205616732
 30
0.0
 10
228.033354882757
 20
45.11005488161659
 30
0.0
 10
228.0711816949709
 20
44.928780466722
 30
0.0
 10
228.1317803624
 20
44.74511861405102
 30
0.0
 10
228.2066556144187
 20
44.56244796073159
 30
0.0
 10
228.2962746051386
 20
44.37988449904342
 30
0.0
 10
228.4040337364834
 20
44.20196976025814
 30
0.0
 10
228.5228320712782
 20
44.02866139821199
 30
0.0
 10
228.6468931563251
 20
43.86837310799759
 30
0.0
 10
228.7816885693891
 20
43.71584104736189
 30
0.0
 10
228.861648981972
 20
43.63690681687923
 30
0.0
 10
228.887392331894
 20
43.61149384750483
 30
0.0
  0
LINE
  5
21B
330
1F
100
AcDbEntity
  8
0
  6
Continuous
 62
     7
370
    15
100
AcDbLine
 10
255.7060348337
 20
55.5767851026
 30
0.0
 11
255.801043149
 21
55.597833624
 31
0.0
  0
LINE
  5
21C
330
1F
100
AcDbEntity
  8
0
  6
Continuous
 62
     7
370
    15
100
AcDbLine
 10
255.801043149
 20
55.597833624
 30
0.0
 11
257.2004312166
 21
54.7899840881
 31
0.0
  0
SPLINE
  5
21D
330
1F
100
AcDbEntity
  8
0
  6
Continuous
 62
     7
370
    15
100
AcDbSpline
210
0.0
220
0.0
230
1.0
 70
     8
 71
     3
 72
    12
 73
     8
 74
     0
 42
0.000000001
 43
0.00000001
 40
0.0
 40
0.0
 40
0.0
 40
0.0
 40
0.249999999999998
 40
0.249999999999998
 40
0.499999999999996
 40
0.499999999999996
 40
1.0
 40
1.0
 40
1.0
 40
1.0
 10
257.2004312166364
 20
54.78998408811363
 30
0.0
 10
257.2326751875091
 20
54.77137003994001
 30
0.0
 10
257.2547281900427
 20
54.7471197171426
 30
0.0
 10
257.2755771342077
 20
54.69653185925505
 30
0.0
 10
257.2751959649804
 20
54.66969329082099
 30
0.0
 10
257.2494430320831
 20
54.59245917455219
 30
0.0
 10
257.2014916049744
 20
54.54567380372436
 30
0.0
 10
257.1375915558391
 20
54.50878509055688
 30
0.0
  0
SPLINE
  5
21E
330
1F
100
AcDbEntity
  8
0
  6
Continuous
 62
     7
370
    15
100
AcDbSpline
210
0.0
220
0.0
230
1.0
 70
     8
 71
     3
 72
    11
 73
     7
 74
     0
 42
0.000000001
 43
0.00000001
 40
0.0
 40
0.0
 40
0.0
 40
0.0
 40
0.2042918412093874
 40
0.3927251333975338
 40
0.7211867458294244
 40
1.0
 40
1.0
 40
1.0
 40
1.0
 10
227.3201121476128
 20
43.46157987942243
 30
0.0
 10
227.3997317777618
 20
43.34699456398665
 30
0.0
 10
227.5527904103837
 20
43.12671883969184
 30
0.0
 10
227.8765410404239
 20
42.77589501976971
 30
0.0
 10
228.260798597651
 20
42.45864489239926
 30
0.0
 10
228.5144154536929
 20
42.35109360362914
 30
0.0
 10
228.6308565330697
 20
42.30171444031878
 30
0.0
  0
SPLINE
  5
21F
330
1F
100
AcDbEntity
  8
0
  6
Continuous
 62
     7
370
    15
100
AcDbSpline
210
0.0
220
0.0
230
1.0
 70
     8
 71
     3
 72
    16
 73
    12
 74
     0
 42
0.000000001
 43
0.00000001
 40
0.0
 40
0.0
 40
0.0
 40
0.0
 40
0.1460145430676681
 40
0.2335492809463516
 40
0.3282846594090686
 40
0.4359414638269612
 40
0.5278790608188775
 40
0.664099532270754
 40
0.8013223014818099
 40
0.8930413578181003
 40
1.0
 40
1.0
 40
1.0
 40
1.0
 10
228.2597196195594
 20
45.54354879688
 30
0.0
 10
228.1128590136315
 20
45.61701969681734
 30
0.0
 10
227.8779564608228
 20
45.73453590780801
 30
0.0
 10
227.5611053711827
 20
45.72456597426696
 30
0.0
 10
227.307976212095
 20
45.63683063198255
 30
0.0
 10
227.0992529365449
 20
45.455038417065
 30
0.0
 10
226.936222020136
 20
45.16317304242421
 30
0.0
 10
226.8591942136574
 20
44.75328966863499
 30
0.0
 10
226.9345935537007
 20
44.28872050642622
 30
0.0
 10
227.0933360907958
 20
43.8467758399244
 30
0.0
 10
227.2407509726264
 20
43.59638072416122
 30
0.0
 10
227.3201121476128
 20
43.46157987942244
 30
0.0
  0
SPLINE
  5
220
330
1F
100
AcDbEntity
  8
0
  6
Continuous
 62
     7
370
    15
100
AcDbSpline
210
0.0
220
0.0
230
1.0
 70
     8
 71
     3
 72
    13
 73
     9
 74
     0
 42
0.000000001
 43
0.00000001
 40
0.0
 40
0.0
 40
0.0
 40
0.0
 40
0.1648353260908709
 40
0.3335413522328223
 40
0.5157486366727204
 40
0.7034480219308892
 40
0.8819189490305853
 40
1.0
 40
1.0
 40
1.0
 40
1.0
 10
259.3174207650003
 20
50.92916939702771
 30
0.0
 10
259.3282882752002
 20
50.93601194547314
 30
0.0
 10
259.3502784889088
 20
50.94985772061936
 30
0.0
 10
259.3766706244629
 20
50.97471350784824
 30
0.0
 10
259.3972259267561
 20
51.0027192792876
 30
0.0
 10
259.4088672136426
 20
51.03291358181839
 30
0.0
 10
259.4123081565274
 20
51.06030230236286
 30
0.0
 10
259.4078886692962
 20
51.07680947077424
 30
0.0
 10
259.4061289181039
 20
51.08338229422068
 30
0.0
  0
LINE
  5
221
330
1F
100
AcDbEntity
  8
0
  6
Continuous
 62
     7
370
    15
100
AcDbLine
 10
253.4025844425
 20
56.9824343632
 30
0.0
 11
253.2581885121
 21
56.7652244684
 31
0.0
  0
LINE
  5
222
330
1F
100
AcDbEntity
  8
0
  6
Continuous
 62
     7
370
    15
100
AcDbLine
 10
223.1797519315
 20
47.3313123851
 30
0.0
 11
223.6801347669
 21
47.0424475229
 31
0.0
  0
SPLINE
  5
223
330
1F
100
AcDbEntity
  8
0
  6
Continuous
 62
     7
370
    15
100
AcDbSpline
210
0.0
220
0.0
230
1.0
 70
     8
 71
     3
 72
    10
 73
     6
 74
     0
 42
0.000000001
 43
0.00000001
 40
0.0
 40
0.0
 40
0.0
 40
0.0
 40
0.0840381716605778
 40
0.701112507693279
 40
1.0
 40
1.0
 40
1.0
 40
1.0
 10
221.3416616128
 20
53.0848913296416
 30
0.0
 10
221.3411202979867
 20
53.09133730310544
 30
0.0
 10
221.3366042241752
 20
53.14511468224703
 30
0.0
 10
221.3509429506338
 20
53.22791468448807
 30
0.0
 10
221.3714917538493
 20
53.30954326887657
 30
0.0
 10
221.3781970335596
 20
53.33617949118799
 30
0.0
  0
SPLINE
  5
224
330
1F
100
AcDbEntity
  8
0
  6
Continuous
 62
     7
370
    15
100
AcDbSpline
210
0.0
220
0.0
230
1.0
 70
     8
 71
     3
 72
    10
 73
     6
 74
     0
 42
0.000000001
 43
0.00000001
 40
0.0
 40
0.0
 40
0.0
 40
0.0
 40
0.5
 40
0.5
 40
1.0
 40
1.0
 40
1.0
 40
1.0
 10
221.3944334365279
 20
53.14104114047174
 30
0.0
 10
221.3745073860312
 20
53.05708066645372
 30
0.0
 10
221.3612131218903
 20
52.97163480393996
 30
0.0
 10
221.3439445957496
 20
52.79922133300268
 30
0.0
 10
221.3400211411275
 20
52.71210972673637
 30
0.0
 10
221.3399744993098
 20
52.62509896135008
 30
0.0
  0
SPLINE
  5
225
330
1F
100
AcDbEntity
  8
0
  6
Continuous
 62
     7
370
    15
100
AcDbSpline
210
0.0
220
0.0
230
1.0
 70
     8
 71
     3
 72
    24
 73
    20
 74
     0
 42
0.000000001
 43
0.00000001
 40
0.0
 40
0.0
 40
0.0
 40
0.0
 40
0.2500000000000167
 40
0.2500000000000167
 40
0.3750000000000246
 40
0.3750000000000246
 40
0.4375000000000287
 40
0.4375000000000287
 40
0.4687500000000294
 40
0.4687500000000294
 40
0.5000000000000301
 40
0.5000000000000301
 40
0.5625000000000266
 40
0.5625000000000266
 40
0.6250000000000233
 40
0.6250000000000233
 40
0.7500000000000155
 40
0.7500000000000155
 40
1.0
 40
1.0
 40
1.0
 40
1.0
 10
221.3781970335596
 20
53.33617949118798
 30
0.0
 10
221.4080380628448
 20
53.44345854774422
 30
0.0
 10
221.4378676028858
 20
53.54934312111491
 30
0.0
 10
221.4825387597571
 20
53.6992911643652
 30
0.0
 10
221.4974915518489
 20
53.74829142712813
 30
0.0
 10
221.5190746901382
 20
53.81144170903087
 30
0.0
 10
221.5262044016679
 20
53.83108189325939
 30
0.0
 10
221.5350560269693
 20
53.84879182274738
 30
0.0
 10
221.5376941242392
 20
53.85250818923306
 30
0.0
 10
221.5408466622842
 20
53.85035984085085
 30
0.0
 10
221.5412266234209
 20
53.84419743178427
 30
0.0
 10
221.5392166981601
 20
53.81555234843151
 30
0.0
 10
221.5346400565617
 20
53.78725134344334
 30
0.0
 10
221.5247086704553
 20
53.73087233329404
 30
0.0
 10
221.5190184847204
 20
53.701402585338
 30
0.0
 10
221.5014368841018
 20
53.61354816477167
 30
0.0
 10
221.4887560111735
 20
53.55432317172234
 30
0.0
 10
221.4495149475531
 20
53.37582986459256
 30
0.0
 10
221.4222114875166
 20
53.25808683041885
 30
0.0
 10
221.3944334365279
 20
53.14104114047175
 30
0.0
  0
ARC
  5
226
330
1F
100
AcDbEntity
  8
0
  6
Continuous
 62
     7
370
    15
100
AcDbCircle
 10
222.0571114736
 20
52.5464317066
 30
0.0
 40
0.7201267655272097
100
AcDbArc
 50
174.7583590299
 51
234.4349468916
  0
ARC
  5
227
330
1F
100
AcDbEntity
  8
0
  6
Continuous
 62
     7
370
    15
100
AcDbCircle
 10
223.5524454186
 20
45.0465353293
 30
0.0
 40
2.215172042338799
100
AcDbArc
 50
122.6235698332
 51
177.1589486026
  0
LINE
  5
228
330
1F
100
AcDbEntity
  8
0
  6
Continuous
 62
     7
370
    15
100
AcDbLine
 10
222.358207848
 20
46.912221209
 30
0.0
 11
223.1022944796
 21
47.3417732782
 31
0.0
  0
SPLINE
  5
229
330
1F
100
AcDbEntity
  8
0
  6
Continuous
 62
     7
370
    15
100
AcDbSpline
210
0.0
220
0.0
230
1.0
 70
     8
 71
     3
 72
     8
 73
     4
 74
     0
 42
0.000000001
 43
0.00000001
 40
0.0
 40
0.0
 40
0.0
 40
0.0
 40
0.000159097691435
 40
0.000159097691435
 40
0.000159097691435
 40
0.000159097691435
 10
223.1797519314555
 20
47.3313123851358
 30
0.0
 10
223.1539318025243
 20
47.33479693451298
 30
0.0
 10
223.1281126586064
 20
47.33828391716567
 30
0.0
 10
223.1022944795846
 20
47.34177327820012
 30
0.0
  0
SPLINE
  5
22A
330
1F
100
AcDbEntity
  8
0
  6
Continuous
 62
     7
370
    15
100
AcDbSpline
210
0.0
220
0.0
230
1.0
 70
     8
 71
     3
 72
    10
 73
     6
 74
     0
 42
0.000000001
 43
0.00000001
 40
0.0
 40
0.0
 40
0.0
 40
0.0
 40
0.5
 40
0.5
 40
1.0
 40
1.0
 40
1.0
 40
1.0
 10
221.3944334365279
 20
44.95638552476776
 30
0.0
 10
221.3745073860312
 20
44.99490708628444
 30
0.0
 10
221.3612131218903
 20
45.02687041347826
 30
0.0
 10
221.3439445957496
 20
45.08931383697669
 30
0.0
 10
221.3400211411275
 20
45.11973721418973
 30
0.0
 10
221.3399744993098
 20
45.1516279094903
 30
0.0
  0
LINE
  5
22B
330
1F
100
AcDbEntity
  8
0
  6
Continuous
 62
     7
370
    15
100
AcDbLine
 10
221.3503410652
 20
45.753498086
 30
0.0
 11
221.3416616128
 21
45.6133921568
 31
0.0
  0
ARC
  5
22C
330
1F
100
AcDbEntity
  8
0
  6
Continuous
 62
     7
370
    15
100
AcDbCircle
 10
222.6870666639
 20
45.5411929441
 30
0.0
 40
1.353480254557583
100
AcDbArc
 50
122.9135798094
 51
170.9753897871
  0
LINE
  5
22D
330
1F
100
AcDbEntity
  8
0
  6
Continuous
 62
     7
370
    15
100
AcDbLine
 10
222.358207848
 20
46.912221209
 30
0.0
 11
221.9516214488
 21
46.6774275744
 31
0.0
  0
LINE
  5
22E
330
1F
100
AcDbEntity
  8
0
  6
Continuous
 62
     7
370
    15
100
AcDbLine
 10
221.4497460316
 20
44.8603958672
 30
0.0
 11
221.3944334365
 21
44.9563855248
 31
0.0
  0
LWPOLYLINE
  5
22F
330
1F
100
AcDbEntity
  8
0
  6
Continuous
 62
     7
370
     0
100
AcDbPolyline
 90
       26
 70
   128
 43
0.0
 10
238.3139742895
 20
39.2124082412
 10
238.5973445944
 20
40.3159606613
 10
238.9440022389
 20
41.4273266241
 10
239.3517895179
 20
42.539588642
 10
239.8181682365
 20
43.6458236502
 10
240.3402355084
 20
44.7391460976
 10
240.9147418245
 20
45.8127508051
 10
241.5381112787
 20
46.859955323
 10
242.2064638255
 20
47.8742415245
 10
242.9156394308
 20
48.8492961766
 10
243.6612239647
 20
49.7790502358
 10
244.4385766773
 20
50.6577166234
 10
245.2428590833
 20
51.4798262465
 10
246.0690650787
 20
52.2402620389
 10
246.9120521004
 20
52.9342908117
 10
247.7665731347
 20
53.5575927137
 10
248.6273093769
 20
54.1062881199
 10
249.4889033368
 20
54.5769617795
 10
250.3459921853
 20
54.9666840731
 10
251.1932411349
 20
55.2730292479
 10
252.0253766444
 20
55.4940905161
 10
252.8372192434
 20
55.6284919237
 10
253.6237157711
 20
55.6753969145
 10
254.3799708282
 20
55.6345135372
 10
255.1012772479
 20
55.5060962626
 10
255.7831453947
 20
55.2909443999
  0
LWPOLYLINE
  5
230
330
1F
100
AcDbEntity
  8
0
  6
Continuous
 62
     7
370
     0
100
AcDbPolyline
 90
       26
 70
   128
 43
0.0
 10
237.880291454
 20
39.2069709029
 10
238.1627359338
 20
40.3253261617
 10
238.5091945168
 20
41.4521122458
 10
238.9175326775
 20
42.5803870459
 10
239.3852346518
 20
43.7031992805
 10
239.909418936
 20
44.8136313233
 10
240.4868560398
 20
45.9048418217
 10
241.1139883833
 20
46.9701078471
 10
241.7869522152
 20
48.0028663139
 10
242.501601417
 20
48.9967544155
 10
243.2535330476
 20
49.9456488245
 10
244.0381144692
 20
50.8437034191
 10
244.8505118896
 20
51.6853853008
 10
245.6857201423
 20
52.465508882
 10
246.538593524
 20
53.1792678351
 10
247.4038774966
 20
53.8222647037
 10
248.2762410607
 20
54.3905379953
 10
249.1503095998
 20
54.880586588
 10
250.0206979927
 20
55.2893913011
 10
250.8820437918
 20
55.6144334959
 10
251.7290402608
 20
55.8537105932
 10
252.5564690692
 20
56.0057484108
 10
253.3592324425
 20
56.0696102464
 10
254.1323845697
 20
56.0449026485
 10
254.8711620741
 20
55.9317778401
 10
255.5710133603
 20
55.7309327811
  0
ARC
  5
231
330
1F
100
AcDbEntity
  8
0
  6
Continuous
 62
     7
370
     0
100
AcDbCircle
 10
237.5016390783
 20
48.9077980638
 30
0.0
 40
22.27727647345388
100
AcDbArc
 50
341.8744566466
 51
348.3173173033
  0
LWPOLYLINE
  5
232
330
1F
100
AcDbEntity
  8
0
  6
Continuous
 62
     7
370
     0
100
AcDbPolyline
 90
       23
 70
   128
 43
0.0
 10
253.3684593227
 20
32.7878192679
 10
252.7077154945
 20
32.0819109864
 10
251.8986014233
 20
31.2947200793
 10
251.0702821576
 20
30.5705143477
 10
250.2278344738
 20
29.9137324551
 10
249.3764217417
 20
29.3283998241
 10
248.5212622779
 20
28.8181039637
 10
247.6675973626
 20
28.385972482
 10
246.8206591162
 20
28.0346539169
 10
245.985638431
 20
27.7663015032
 10
245.1676531566
 20
27.5825599753
 10
244.3717167324
 20
27.4845554867
 10
243.6027074601
 20
27.4728887079
 10
242.8653386047
 20
27.5476311446
 10
242.1641295069
 20
27.7083246999
 10
241.5033778838
 20
27.9539844813
 10
240.8871334881
 20
28.2831048378
 10
240.3191732876
 20
28.6936685876
 10
239.8029783155
 20
29.1831593818
 10
239.3417123358
 20
29.7485771266
 10
238.9382024519
 20
30.3864563714
 10
238.5949217797
 20
31.0928875484
 10
238.3139742895
 20
31.8635409343
  0
ARC
  5
233
330
1F
100
AcDbEntity
  8
0
  6
Continuous
 62
     7
370
     0
100
AcDbCircle
 10
252.7909689069
 20
49.4083641175
 30
0.0
 40
6.701300064527508
100
AcDbArc
 50
13.1170908933
 51
49.5620782406
  0
LWPOLYLINE
  5
234
330
1F
100
AcDbEntity
  8
0
  6
Continuous
 62
     7
370
     0
100
AcDbPolyline
 90
       29
 70
   128
 43
0.0
 10
243.2850330372
 20
38.4077057188
 10
243.3182933962
 20
39.1230595815
 10
243.4176707375
 20
39.8681316105
 10
243.5819587548
 20
40.6338776406
 10
243.8091632141
 20
41.4110025523
 10
244.096526161
 20
42.1900731019
 10
244.4405593987
 20
42.9616324283
 10
244.8370868297
 20
43.7163148465
 10
245.2812951482
 20
44.4449595342
 10
245.7677922668
 20
45.1387217319
 10
246.2906727695
 20
45.7891801064
 10
246.8435895955
 20
46.3884389742
 10
247.4198310834
 20
46.9292241444
 10
248.0124024422
 20
47.4049712175
 10
248.6141106583
 20
47.8099052686
 10
249.217651809
 20
48.1391109468
 10
249.8156997223
 20
48.3885921411
 10
250.4009949068
 20
48.5553204878
 10
250.9664326717
 20
48.6372721307
 10
251.5051493685
 20
48.6334522878
 10
252.0106057063
 20
48.5439073268
 10
252.4766661299
 20
48.3697242022
 10
252.8976732971
 20
48.1130172612
 10
253.2685167511
 20
47.7769025784
 10
253.5846949549
 20
47.3654601307
 10
253.8423699332
 20
46.883684272
 10
254.038413861
 20
46.3374231086
 10
254.1704470305
 20
45.7333075111
 10
254.1813306702
 20
45.6612527366
  0
LWPOLYLINE
  5
235
330
1F
100
AcDbEntity
  8
0
  6
Continuous
 62
     7
370
     0
100
AcDbPolyline
 90
       14
 70
   128
 43
0.0
 10
247.9318385912
 20
34.8356419568
 10
247.4198310834
 20
34.6601235014
 10
246.8435895955
 20
34.5355944112
 10
246.2906727695
 20
34.4964691001
 10
245.7677922668
 20
34.5432224963
 10
245.2812951482
 20
34.675287077
 10
244.8370868297
 20
34.8910597571
 10
244.4405593987
 20
35.1879213484
 10
244.096526161
 20
35.5622683535
 10
243.8091632141
 20
36.0095567067
 10
243.5819587548
 20
36.5243569334
 10
243.4176707375
 20
37.1004200563
 10
243.3182933962
 20
37.7307534492
 10
243.2850330372
 20
38.4077057188
  0
LWPOLYLINE
  5
236
330
1F
100
AcDbEntity
  8
0
  6
Continuous
 62
     7
370
     0
100
AcDbPolyline
 90
       24
 70
   128
 43
0.0
 10
228.559534319
 20
40.3772902886
 10
228.5930237281
 20
41.3932159674
 10
228.6932905463
 20
42.4416977984
 10
228.8597317571
 20
43.5164300885
 10
229.0913463635
 20
44.6109492713
 10
229.3867414079
 20
45.7186727795
 10
229.7441403498
 20
46.8329386337
 10
230.16139375
 20
47.947045508
 10
230.6359921974
 20
49.0542930324
 10
231.1650814011
 20
50.1480220901
 10
231.7454793563
 20
51.2216548659
 10
232.3736954815
 20
52.2687344058
 10
233.0459516109
 20
53.2829634505
 10
233.7582047171
 20
54.2582423069
 10
234.5061712262
 20
55.1887055334
 10
235.2853527795
 20
56.0687572146
 10
236.0910632874
 20
56.8931046161
 10
236.9184571123
 20
57.6567900158
 10
237.7625582102
 20
58.3552205196
 10
238.6182900578
 20
58.9841956844
 10
239.4805061832
 20
59.5399327796
 10
240.344021117
 20
60.0190895369
 10
241.2036415789
 20
60.4187842511
 10
241.8751912737
 20
60.6762777723
  0
ARC
  5
237
330
1F
100
AcDbEntity
  8
0
  6
Continuous
 62
     7
370
     0
100
AcDbCircle
 10
241.1510238511
 20
40.304735244
 30
0.0
 40
12.59169856975598
100
AcDbArc
 50
179.6698522588
 51
190.6229483052
  0
LWPOLYLINE
  5
238
330
1F
100
AcDbEntity
  8
0
  6
Continuous
 62
     7
370
     0
100
AcDbPolyline
 90
       19
 70
   128
 43
0.0
 10
236.228107361
 20
41.1391903319
 10
236.484116011
 20
42.1723213137
 10
236.8029795966
 20
43.2140943824
 10
237.1824902976
 20
44.2572962734
 10
237.620020372
 20
45.2947038291
 10
238.1125403498
 20
46.3191340118
 10
238.6566400095
 20
47.3234936396
 10
239.2485519905
 20
48.3008284996
 10
239.8841778784
 20
49.2443714992
 10
240.5591165828
 20
50.1475895213
 10
241.2686948099
 20
51.0042286604
 10
242.0079994212
 20
51.8083575242
 10
242.7719114518
 20
52.5544083029
 10
243.5551415544
 20
53.2372153211
 10
244.3522666229
 20
53.8520508046
 10
245.157767342
 20
54.3946576163
 10
245.9660664032
 20
54.8612787321
 10
246.7715671223
 20
55.2486832548
 10
247.3741705149
 20
55.4869310914
  0
LWPOLYLINE
  5
239
330
1F
100
AcDbEntity
  8
0
  6
Continuous
 62
     7
370
     0
100
AcDbPolyline
 90
       23
 70
   128
 43
0.0
 10
235.8022892029
 20
41.7873352954
 10
236.0908363684
 20
42.8273579238
 10
236.4396409862
 20
43.8723409424
 10
236.8464155581
 20
44.91543124
 10
237.3084924127
 20
45.9497881181
 10
237.8228412002
 20
46.9686281532
 10
238.3860887659
 20
47.9652696824
 10
238.9945412717
 20
48.9331766236
 10
239.6442084206
 20
49.8660013386
 10
240.3308296254
 20
50.7576262628
 10
241.0499019504
 20
51.6022040238
 10
241.796709642
 20
52.3941957898
 10
242.5663550549
 20
53.1284075936
 10
243.3537907716
 20
53.8000243951
 10
244.153852704
 20
54.404641659
 10
244.9612939598
 20
54.9382942404
 10
245.7708192523
 20
55.3974823881
 10
246.5771196277
 20
55.7791946968
 10
247.3749072811
 20
56.0809278561
 10
248.1589502354
 20
56.3007030675
 10
248.9241066524
 20
56.4370790216
 10
249.665358554
 20
56.48916135
 10
249.6935666708
 20
56.4894768626
  0
LWPOLYLINE
  5
23A
330
1F
100
AcDbEntity
  8
0
  6
Continuous
 62
     7
370
     0
100
AcDbPolyline
 90
       19
 70
   128
 43
0.0
 10
248.9273155385
 20
45.4371204723
 10
248.4058460947
 20
44.9720752805
 10
247.9056125074
 20
44.4470117693
 10
247.4340960807
 20
43.86978259
 10
246.998348636
 20
43.2490205641
 10
246.6048870474
 20
42.5940095734
 10
246.2595957776
 20
41.9145457149
 10
245.9676388721
 20
41.2207907928
 10
245.7333827282
 20
40.5231203435
 10
245.560330792
 20
39.8319684624
 10
245.4510711629
 20
39.1576717556
 10
245.4072378865
 20
38.5103147496
 10
245.4294865169
 20
37.8995790711
 10
245.5174843118
 20
37.3345986518
 10
245.6699152095
 20
36.8238231252
 10
245.8844995112
 20
36.374891457
 10
246.1580279753
 20
35.9945176993
 10
246.4864098133
 20
35.6883905783
 10
246.7010247237
 20
35.5461756784
  0
ARC
  5
23B
330
1F
100
AcDbEntity
  8
0
  6
Continuous
 62
     7
370
     0
100
AcDbCircle
 10
251.7242353332
 20
43.9698445246
 30
0.0
 40
2.696866940485627
100
AcDbArc
 50
62.9539832649
 51
111.7652173655
  0
LWPOLYLINE
  5
23C
330
1F
100
AcDbEntity
  8
0
  6
Continuous
 62
     7
370
     0
100
AcDbPolyline
 90
       42
 70
   128
 43
0.0
 10
254.4396425104
 20
41.561612851
 10
254.0078851344
 20
41.2740865741
 10
253.5862477853
 20
40.9167435711
 10
253.1846132852
 20
40.4979596593
 10
252.8123956065
 20
40.0275507785
 10
252.478319216
 20
39.5165429142
 10
252.1902145812
 20
38.9769136577
 10
251.9548346305
 20
38.4213114613
 10
251.7776964705
 20
37.8627591697
 10
251.6629520695
 20
37.3143487751
 10
251.6132909391
 20
36.7889345524
 10
251.629877094
 20
36.2988317656
 10
251.7123217687
 20
35.8555280086
 10
251.8586925301
 20
35.4694139459
 10
252.0655585716
 20
35.1495397637
 10
252.3280711283
 20
34.9034030419
 10
252.6400771286
 20
34.7367730164
 10
252.9942634162
 20
34.653555354
 10
253.3823281647
 20
34.6557006061
 10
253.7951754654
 20
34.7431584897
 10
254.2231285273
 20
34.9138790663
 10
254.6561564935
 20
35.1638607902
 10
255.0841095555
 20
35.4872443016
 10
255.4969568561
 20
35.8764497652
 10
255.8850216046
 20
36.3223545348
 10
256.2392078922
 20
36.8145069804
 10
256.5512138925
 20
37.341371466
 10
256.8137264493
 20
37.8905987344
 10
257.0205924907
 20
38.4493153641
 10
257.1669632521
 20
39.0044255108
 10
257.2494079269
 20
39.5429178631
 10
257.2659940817
 20
40.0521706167
 10
257.2163329513
 20
40.5202473186
 10
257.1015885503
 20
40.9361766478
 10
256.9244503903
 20
41.2902095733
 10
256.6890704396
 20
41.5740478632
 10
256.4009658048
 20
41.7810385888
 10
256.0668894144
 20
41.9063300629
 10
255.6946717356
 20
41.9469855593
 10
255.2930372356
 20
41.9020521479
 10
254.8713998865
 20
41.7725830297
 10
254.4396425104
 20
41.561612851
  0
LWPOLYLINE
  5
23D
330
1F
100
AcDbEntity
  8
0
  6
Continuous
 62
     7
370
     0
100
AcDbPolyline
 90
       21
 70
   128
 43
0.0
 10
252.3203591038
 20
35.4777111843
 10
252.56599021
 20
35.3667381968
 10
252.908179418
 20
35.3061170966
 10
253.282498932
 20
35.3326045659
 10
253.6787382916
 20
35.4454780955
 10
254.0860891198
 20
35.6416587898
 10
254.4934399481
 20
35.9157953509
 10
254.8896793077
 20
36.2604100479
 10
255.2639988217
 20
36.6661026903
 10
255.6061880296
 20
37.1218070404
 10
255.9069129019
 20
37.6150926714
 10
256.157970448
 20
38.1325040372
 10
256.3525124724
 20
38.6599275046
 10
256.4852323759
 20
39.1829763363
 10
256.5525099054
 20
39.6873831235
 10
256.5525099054
 20
40.1593889641
 10
256.4852323759
 20
40.5861187691
 10
256.3525124724
 20
40.9559324619
 10
256.157970448
 20
41.2587424889
 10
255.9069129019
 20
41.486288982
 10
255.8216717516
 20
41.5388301674
  0
LINE
  5
23E
330
1F
100
AcDbEntity
  8
0
  6
Continuous
 62
     7
370
     0
100
AcDbLine
 10
230.2091709585
 20
39.839726796
 30
0.0
 11
232.0066798773
 21
40.8774066071
 31
0.0
  0
ARC
  5
23F
330
1F
100
AcDbEntity
  8
0
  6
Continuous
 62
     7
370
     0
100
AcDbCircle
 10
244.8952149417
 20
33.8733473952
 30
0.0
 40
7.298654609582083
100
AcDbArc
 50
196.0282740928
 51
217.1863811773
  0
LWPOLYLINE
  5
240
330
1F
100
AcDbEntity
  8
0
  6
Continuous
 62
     7
370
     0
100
AcDbPolyline
 90
       22
 70
   128
 43
0.0
 10
221.3399744993
 20
52.6250989614
 10
221.6707365571
 20
53.587422313
 10
222.0618408339
 20
54.5459637534
 10
222.5099371108
 20
55.4925123681
 10
223.0111869723
 20
56.4189599737
 10
223.5612966868
 20
57.3173705731
 10
224.1555539866
 20
58.1800483357
 10
224.7888684335
 20
58.9996035199
 10
225.455815024
 20
59.7690157748
 10
226.1506806598
 20
60.4816942758
 10
226.8675130867
 20
61.1315341829
 10
227.6001718818
 20
61.7129689345
 10
228.3423810528
 20
62.2210179312
 10
229.0877827983
 20
62.6513291995
 10
229.8299919693
 20
63.0002166712
 10
230.5626507644
 20
63.2646917587
 10
231.2794831913
 20
63.4424889549
 10
231.9743488271
 20
63.5320852401
 10
232.6412954176
 20
63.5327131279
 10
233.2746098645
 20
63.4443672398
 10
233.8688671643
 20
63.2678043512
 10
234.2041498955
 20
63.1203155524
  0
ARC
  5
241
330
1F
100
AcDbEntity
  8
0
  6
Continuous
 62
     7
370
     0
100
AcDbCircle
 10
225.2523782794
 20
46.9668895906
 30
0.0
 40
4.313012672078274
100
AcDbArc
 50
204.8901713315
 51
234.8684218607
  0
LINE
  5
242
330
1F
100
AcDbEntity
  8
0
  6
Continuous
 62
     7
370
     0
100
AcDbLine
 10
230.2091709585
 20
39.0231859841
 30
0.0
 11
232.0066798773
 21
40.0608657952
 31
0.0
  0
LINE
  5
243
330
1F
100
AcDbEntity
  8
0
  6
Continuous
 62
     7
370
     0
100
AcDbLine
 10
233.4962294106
 20
34.3889687425
 30
0.0
 11
234.835107002
 21
35.1618863241
 31
0.0
  0
LINE
  5
244
330
1F
100
AcDbEntity
  8
0
  6
Continuous
 62
     7
370
     0
100
AcDbLine
 10
237.2342159614
 20
33.8215060819
 30
0.0
 11
237.0129958881
 21
34.4720191408
 31
0.0
  0
ARC
  5
245
330
1F
100
AcDbEntity
  8
0
  6
Continuous
 62
     7
370
     0
100
AcDbCircle
 10
242.836288942
 20
36.7956908423
 30
0.0
 40
6.867829203832715
100
AcDbArc
 50
195.8051238746
 51
209.3718713215
  0
ARC
  5
246
330
1F
100
AcDbEntity
  8
0
  6
Continuous
 62
     7
370
     0
100
AcDbCircle
 10
242.0099936177
 20
36.5488988583
 30
0.0
 40
6.556638815572652
100
AcDbArc
 50
198.7764725905
 51
214.0375669963
  0
LINE
  5
247
330
1F
100
AcDbEntity
  8
0
  6
Continuous
 62
     7
370
     0
100
AcDbLine
 10
252.5496556887
 20
57.4748196521
 30
0.0
 11
252.0086667108
 21
57.1625133628
 31
0.0
  0
ARC
  5
248
330
1F
100
AcDbEntity
  8
0
  6
Continuous
 62
     7
370
     0
100
AcDbCircle
 10
225.1024122284
 20
51.12900835
 30
0.0
 40
1.102095792745736
100
AcDbArc
 50
159.4111972489
 51
213.1915491986
  0
ARC
  5
249
330
1F
100
AcDbEntity
  8
0
  6
Continuous
 62
     7
370
     0
100
AcDbCircle
 10
223.7706014195
 20
50.9575235272
 30
0.0
 40
0.6345057597343378
100
AcDbArc
 50
41.9989524423
 51
61.7721687694
  0
LINE
  5
24A
330
1F
100
AcDbEntity
  8
0
  6
Continuous
 62
     7
370
     0
100
AcDbLine
 10
224.0707091918
 20
51.5165699332
 30
0.0
 11
224.1802560435
 21
51.927367694
 31
0.0
  0
LINE
  5
24B
330
1F
100
AcDbEntity
  8
0
  6
Continuous
 62
     7
370
     0
100
AcDbLine
 10
224.0707091918
 20
51.5165699332
 30
0.0
 11
223.2686644536
 21
51.9795805052
 31
0.0
  0
LINE
  5
24C
330
1F
100
AcDbEntity
  8
0
  6
Continuous
 62
     7
370
     0
100
AcDbLine
 10
221.3944334365
 20
53.1410411405
 30
0.0
 11
221.3781970336
 21
53.3361794912
 31
0.0
  0
ARC
  5
24D
330
1F
100
AcDbEntity
  8
0
  6
Continuous
 62
     7
370
     0
100
AcDbCircle
 10
223.8607492104
 20
42.8639506209
 30
0.0
 40
0.4314912001451107
100
AcDbArc
 50
27.8850837497
 51
60.8831993912
  0
ARC
  5
24E
330
1F
100
AcDbEntity
  8
0
  6
Continuous
 62
     7
370
     0
100
AcDbCircle
 10
225.3104478872
 20
43.6360088166
 30
0.0
 40
1.301173266865933
100
AcDbArc
 50
165.9701785416
 51
197.6766607319
  0
LINE
  5
24F
330
1F
100
AcDbEntity
  8
0
  6
Continuous
 62
     7
370
     0
100
AcDbLine
 10
223.6789380261
 20
46.1497799062
 30
0.0
 11
222.358207848
 21
46.912221209
 31
0.0
  0
LINE
  5
250
330
1F
100
AcDbEntity
  8
0
  6
Continuous
 62
     7
370
     0
100
AcDbLine
 10
224.0707091918
 20
43.2409140966
 30
0.0
 11
223.2686644536
 21
43.7039246685
 31
0.0
  0
LINE
  5
251
330
1F
100
AcDbEntity
  8
0
  6
Continuous
 62
     7
370
     0
100
AcDbLine
 10
224.0707091918
 20
43.2409140966
 30
0.0
 11
224.1802560435
 21
42.9565964385
 31
0.0
  0
OLE2FRAME
  5
252
330
1F
100
AcDbEntity
  8
0
100
AcDbOle2Frame
 70
     2
  3
Paintbrush-Bild
 10
13.8511154363
 20
38.264191557
 30
0.0
 11
51.6290888628
 21
31.9806341108
 31
0.0
 71
     2
 72
     0
 73
     1
 90
    12928
310
80552BED0767C5B32B40DDAF6807D121434000000000000000006FFBDDFB85D0
310
4940DDAF6807D121434000000000000000006FFBDDFB85D04940416F4BD60AFB
310
3F4000000000000000002BED0767C5B32B40416F4BD60AFB3F40000000000000
310
0000000000000100000000010000010000000100000000000100000000320000
310
D0CF11E0A1B11AE1000000000000000000000000000000003E000300FEFF0900
310
0600000000000000000000000100000001000000000000000010000002000000
310
01000000FEFFFFFF0000000000000000FFFFFFFFFFFFFFFFFFFFFFFFFFFFFFFF
310
FFFFFFFFFFFFFFFFFFFFFFFFFFFFFFFFFFFFFFFFFFFFFFFFFFFFFFFFFFFFFFFF
310
FFFFFFFFFFFFFFFFFFFFFFFFFFFFFFFFFFFFFFFFFFFFFFFFFFFFFFFFFFFFFFFF
310
FFFFFFFFFFFFFFFFFFFFFFFFFFFFFFFFFFFFFFFFFFFFFFFFFFFFFFFFFFFFFFFF
310
FFFFFFFFFFFFFFFFFFFFFFFFFFFFFFFFFFFFFFFFFFFFFFFFFFFFFFFFFFFFFFFF
310
FFFFFFFFFFFFFFFFFFFFFFFFFFFFFFFFFFFFFFFFFFFFFFFFFFFFFFFFFFFFFFFF
310
FFFFFFFFFFFFFFFFFFFFFFFFFFFFFFFFFFFFFFFFFFFFFFFFFFFFFFFFFFFFFFFF
310
FFFFFFFFFFFFFFFFFFFFFFFFFFFFFFFFFFFFFFFFFFFFFFFFFFFFFFFFFFFFFFFF
310
FFFFFFFFFFFFFFFFFFFFFFFFFFFFFFFFFFFFFFFFFFFFFFFFFFFFFFFFFFFFFFFF
310
FFFFFFFFFFFFFFFFFFFFFFFFFFFFFFFFFFFFFFFFFFFFFFFFFFFFFFFFFFFFFFFF
310
FFFFFFFFFFFFFFFFFFFFFFFFFFFFFFFFFFFFFFFFFFFFFFFFFFFFFFFFFFFFFFFF
310
FFFFFFFFFFFFFFFFFFFFFFFFFFFFFFFFFFFFFFFFFFFFFFFFFFFFFFFFFFFFFFFF
310
FFFFFFFFFFFFFFFFFFFFFFFFFFFFFFFFFFFFFFFFFFFFFFFFFFFFFFFFFFFFFFFF
310
FFFFFFFFFFFFFFFFFFFFFFFFFFFFFFFFFFFFFFFFFFFFFFFFFFFFFFFFFFFFFFFF
310
FDFFFFFFFEFFFFFFFEFFFFFFFEFFFFFF05000000060000000700000008000000
310
090000000A0000000B0000000C0000000D0000000E0000000F00000010000000
310
11000000120000001300000014000000150000001600000017000000FEFFFFFF
310
FFFFFFFFFFFFFFFFFFFFFFFFFFFFFFFFFFFFFFFFFFFFFFFFFFFFFFFFFFFFFFFF
310
FFFFFFFFFFFFFFFFFFFFFFFFFFFFFFFFFFFFFFFFFFFFFFFFFFFFFFFFFFFFFFFF
310
FFFFFFFFFFFFFFFFFFFFFFFFFFFFFFFFFFFFFFFFFFFFFFFFFFFFFFFFFFFFFFFF
310
FFFFFFFFFFFFFFFFFFFFFFFFFFFFFFFFFFFFFFFFFFFFFFFFFFFFFFFFFFFFFFFF
310
FFFFFFFFFFFFFFFFFFFFFFFFFFFFFFFFFFFFFFFFFFFFFFFFFFFFFFFFFFFFFFFF
310
FFFFFFFFFFFFFFFFFFFFFFFFFFFFFFFFFFFFFFFFFFFFFFFFFFFFFFFFFFFFFFFF
310
FFFFFFFFFFFFFFFFFFFFFFFFFFFFFFFFFFFFFFFFFFFFFFFFFFFFFFFFFFFFFFFF
310
FFFFFFFFFFFFFFFFFFFFFFFFFFFFFFFFFFFFFFFFFFFFFFFFFFFFFFFFFFFFFFFF
310
FFFFFFFFFFFFFFFFFFFFFFFFFFFFFFFFFFFFFFFFFFFFFFFFFFFFFFFFFFFFFFFF
310
FFFFFFFFFFFFFFFFFFFFFFFFFFFFFFFFFFFFFFFFFFFFFFFFFFFFFFFFFFFFFFFF
310
FFFFFFFFFFFFFFFFFFFFFFFFFFFFFFFFFFFFFFFFFFFFFFFFFFFFFFFFFFFFFFFF
310
FFFFFFFFFFFFFFFFFFFFFFFFFFFFFFFFFFFFFFFFFFFFFFFFFFFFFFFFFFFFFFFF
310
FFFFFFFFFFFFFFFFFFFFFFFFFFFFFFFFFFFFFFFFFFFFFFFFFFFFFFFFFFFFFFFF
310
52006F006F007400200045006E00740072007900000000000000000000000000
310
0000000000000000000000000000000000000000000000000000000000000000
310
16000500FFFFFFFFFFFFFFFF020000000A00030000000000C000000000000046
310
00000000000000000000000090A675312425D20103000000C000000000000000
310
01004F006C006500000000000000000000000000000000000000000000000000
310
0000000000000000000000000000000000000000000000000000000000000000
310
0A000200FFFFFFFFFFFFFFFFFFFFFFFF00000000000000000000000000000000
310
0000000000000000000000000000000000000000000000001400000000000000
310
010043006F006D0070004F0062006A0000000000000000000000000000000000
310
0000000000000000000000000000000000000000000000000000000000000000
310
120002010100000003000000FFFFFFFF00000000000000000000000000000000
310
0000000000000000000000000000000000000000010000004D00000000000000
310
01004F006C006500310030004E00610074006900760065000000000000000000
310
0000000000000000000000000000000000000000000000000000000000000000
310
1A000200FFFFFFFFFFFFFFFFFFFFFFFF00000000000000000000000000000000
310
0000000000000000000000000000000000000000040000002426000000000000
310
FEFFFFFF02000000FEFFFFFFFFFFFFFFFFFFFFFFFFFFFFFFFFFFFFFFFFFFFFFF
310
FFFFFFFFFFFFFFFFFFFFFFFFFFFFFFFFFFFFFFFFFFFFFFFFFFFFFFFFFFFFFFFF
310
FFFFFFFFFFFFFFFFFFFFFFFFFFFFFFFFFFFFFFFFFFFFFFFFFFFFFFFFFFFFFFFF
310
FFFFFFFFFFFFFFFFFFFFFFFFFFFFFFFFFFFFFFFFFFFFFFFFFFFFFFFFFFFFFFFF
310
FFFFFFFFFFFFFFFFFFFFFFFFFFFFFFFFFFFFFFFFFFFFFFFFFFFFFFFFFFFFFFFF
310
FFFFFFFFFFFFFFFFFFFFFFFFFFFFFFFFFFFFFFFFFFFFFFFFFFFFFFFFFFFFFFFF
310
FFFFFFFFFFFFFFFFFFFFFFFFFFFFFFFFFFFFFFFFFFFFFFFFFFFFFFFFFFFFFFFF
310
FFFFFFFFFFFFFFFFFFFFFFFFFFFFFFFFFFFFFFFFFFFFFFFFFFFFFFFFFFFFFFFF
310
FFFFFFFFFFFFFFFFFFFFFFFFFFFFFFFFFFFFFFFFFFFFFFFFFFFFFFFFFFFFFFFF
310
FFFFFFFFFFFFFFFFFFFFFFFFFFFFFFFFFFFFFFFFFFFFFFFFFFFFFFFFFFFFFFFF
310
FFFFFFFFFFFFFFFFFFFFFFFFFFFFFFFFFFFFFFFFFFFFFFFFFFFFFFFFFFFFFFFF
310
FFFFFFFFFFFFFFFFFFFFFFFFFFFFFFFFFFFFFFFFFFFFFFFFFFFFFFFFFFFFFFFF
310
FFFFFFFFFFFFFFFFFFFFFFFFFFFFFFFFFFFFFFFFFFFFFFFFFFFFFFFFFFFFFFFF
310
FFFFFFFFFFFFFFFFFFFFFFFFFFFFFFFFFFFFFFFFFFFFFFFFFFFFFFFFFFFFFFFF
310
FFFFFFFFFFFFFFFFFFFFFFFFFFFFFFFFFFFFFFFFFFFFFFFFFFFFFFFFFFFFFFFF
310
FFFFFFFFFFFFFFFFFFFFFFFFFFFFFFFFFFFFFFFFFFFFFFFFFFFFFFFFFFFFFFFF
310
0100000200000000000000000000000000000000000000000000000000000000
310
0000000000000000000000000000000000000000000000000000000000000000
310
0100FEFF030A0000FFFFFFFF0A00030000000000C00000000000004607000000
310
5042727573680007000000504272757368000700000050427275736800F439B2
310
7100000000000000000000000000000000000000000000000000000000000000
310
0000000000000000000000000000000000000000000000000000000000000000
310
0000000000000000000000000000000000000000000000000000000000000000
310
0000000000000000000000000000000000000000000000000000000000000000
310
0000000000000000000000000000000000000000000000000000000000000000
310
0000000000000000000000000000000000000000000000000000000000000000
310
0000000000000000000000000000000000000000000000000000000000000000
310
0000000000000000000000000000000000000000000000000000000000000000
310
0000000000000000000000000000000000000000000000000000000000000000
310
0000000000000000000000000000000000000000000000000000000000000000
310
0000000000000000000000000000000000000000000000000000000000000000
310
0000000000000000000000000000000000000000000000000000000000000000
310
20260000424D0E260000000000003E00000028000000B40200006E0000000100
310
01000000000000000000130B0000130B00000200000002000000000000FFFFFF
310
FFFFFFFFFFFFFFFFFFFFFFFFFFFFFFFFFFFFFFFFFFFFFFFFFFFFFFFFFFFFFFFF
310
FFFFFFFFFFFFFFFFFFFFFFFFFFFFFFFFFFFFFFFFFFFFFFFFFFFFFFFFFFFFFFFF
310
FFFFFFFFFFFFFFFFFFFFFFFFFFFFFFFFFFFFFFFFFFFFFFFFF000FFFFFFFFFFFF
310
FFFFFFFFFFFFFFFFFFFFFFFFFFFFFFFFFFFFFFFFFFFFFFFFFFFFFFFFFFFFFFFF
310
FFFFFFFFFFFFFFFFFFFFFFFFFFFFFFFFFFFFFFFFFFFFFFFFFFFFFFFFFFFFFFFF
310
FFFFFFFFFFFFFFFFFFFFFFFFFFFFFFFFF000FFFFFFFFFFFFFFFFFFFFFFFFFFFF
310
FFFFFFFFFFFFFFFFFFFFFFFFFFFFFFFFFFFFFFFFFFFFFFFFFFFFFFFFFFFFFFFF
310
FFFFFFFFFFFFFFFFFFFFFFFFFFFFFFFFFFFFFFFFFFFFFFFFFFFFFFFFFFFFFFFF
310
FFFFFFFFFFFFFFFFF000FFFFFFFFFFFFFFFFFFFFFFFFFFFFFFFFFFFFFFFFFFFF
310
FFFFFFFFFFFFFFFFFFFFFFFFFFFFFFFFFFFFFFFFFFFFFFFFFFFFFFFFFFFFFFFF
310
FFFFFFFFFFFFFFFFFFFFFFFFFFFFFFFFFFFFFFFFFFFFFFFFFFFFFFFFFFFFFFFF
310
F000FFFFFFFFFFFFFFFFFFFFFFFFFFFFFFFFFFFFFFFFFFFFFFFFFFFFFFFFFFFF
310
FFFFFFFFFFFFFFFFFFFFFFFFFFFFFFFFFFFFFFFFFFFFFFFFFFFFFFFFFFFFFFFF
310
FFFFFFFFFFFFFFFFFFFFFFFFFFFFFFFFFFFFFFFFFFFFFFFFF000FFFFFFFFFFFF
310
FFFFFFFFFFFFFFFFFFFFFFFFFFFFFFFFFFFFFFFFFFFFFFFFFFFFFFFFFFFFFFFF
310
FFFFFFFFFFFFFFFFFFFFFFFFFFFFFFFFFFFFFFFFFFFFFFFFFFFFFFFFFFFFFFFF
310
FFFFFFFFFFFFFFFFFFFFFFFFFFFFFFFFF000FFFFFFFFFFFFFFFFFFFFFFFFFFFF
310
FFFFFFFFFFFFFFFFFFFFFFFFFFFFFFFFFFFFFFFFFFFFFFFFFFFFFFFFFFFFFFFF
310
FFFFFFFFFFFFFFFFFFFFFFFFFFFFFFFFFFFFFFFFFFFFFFFFFFFFFFFFFFFFFFFF
310
FFFFFFFFFFFFFFFFF000FFFFFFFFFFFFFFFFFFFFFFFFFFFFFFFFFFFFFFFFFFFF
310
FFFFFFFFFFFFFFFFFFFFFFFFFFFFFFFFFFFFFFFFFFFFFFFFFFFFFFFFFFFFFFFF
310
FFFFFFFFFFFFFFFFFFFFFFFFFFFFFFFFFFFFFFFFFFFFFFFFFFFFFFFFFFFFFFFF
310
F000FFFFFFFFFFFFFFFFFFFFFFFFFFFFFFFFFFFFFFFFFFFFFFFFFFFFFFFFFFFF
310
FFFFFFFFFFFFFFFFFFFFFFFFFFFFFFFFFFFFFFFFFFFFFFFFFFFFFFFFFFFFFFFF
310
FFFFFFFFFFFFFFFFFFFFFFFFFFFFFFFFFFFFFFFFFFFFFFFFF000FFFFFFFFFFFF
310
FFFFFFFFFFFFFFFFFFFFFFFFFFFFFFFFFFFFFFFFFFFFFFFFFFFFFFFFFFFFFFFF
310
FFFFFFFFFFFFFFFFFFFFFFFFFFFFFFFFFFFFFFFFFFFFFFFFFFFFFFFFFFFFFFFF
310
FFFFFFFFFFFFFFFFFFFFFFFFFFFFFFFFF000FFFFFFFFFFFFFFFFFFFFFFFFFFFF
310
FFFFFFFFFFFFFFFFFFFFFFFFFFFFFFFFFFFFFFFFFFFFFFFFFFFFFFFFFFFFFFFF
310
FFFFFFFFFFFFFFFFFFFFFFFFFFFFFFFFFFFFFFFFFFFFFFFFFFFFFFFFFFFFFFFF
310
FFFFFFFFFFFFFFFFF000FFFFFFFFFFFFFFFFFFFFFFFFFFFFFFFFFFFFFFFFFFFF
310
FFFFFFFFFFFFFFFFFFFFFFFFFFFFFFFFFFFFFFFFFFFFFFFFFFFFFFFFFFFFFFFF
310
FFFFFFFFFFFFFFFFFFFFFFFFFFFFFFFFFFFFFFFFFFFFFFFFFFFFFFFFFFFFFFFF
310
F000FFFFFFFFFFFFFFFFFFFFFFFFFFFFFFFFFFFFFFFFFFFFFFFFFFFFFFFFFFFF
310
FFFFFFFFFFFFFFFFFFFFFFFFFFFFFFFFFFFFFFFFFFFFFFFFFFFFFFFFFFFFFFFF
310
FFFFFFFFFFFFFFFFFFFFFFFFFFFFFFFFFFFFFFFFFFFFFFFFF000FFFFFFFFFFFF
310
FFFFFFFFFFFFFFFFFFFFFFFFFFFFFFFFFFFFFFFFFFFFFFFFFFFFFFFFFFFFFFFF
310
FFFFFFFFFFFFFFFFFFFFFFFFFFFFFFFFFFFFFFFFFFFFFFFFFFFFFFFFFFFFFFFF
310
FFFFFFFFFFFFFFFFFFFFFFFFFFFFFFFFF000FFFFFFFFFFFFFFFFFFFFFFFFFFFF
310
FFFFFFFFFFFFFFFFFFFFFFFFFFFFFFFFFFFFFFFFFFFFFFFFFFFFFFFFFFFFFFFF
310
FFFFFFFFFFFFFFFFFFFFFFFFFFFFFFFFFFFFFFFFFFFFFFFFFFFFFFFFFFFFFFFF
310
FFFFFFFFFFFFFFFFF000FFFFFFFFFFFFFFFFFFFFFFFFFFFFFFFFFFFFFFFFFFFF
310
FFFFFFFFFFFFFFFFFFFFFFFFFFFFFFFFFFFFFFFFFFFFFFFFFFFFFFFFFFFFFFFF
310
FFFFFFFFFFFFFFFFFFFFFFFFFFFFFFFFFFFFFFFFFFFFFFFFFFFFFFFFFFFFFFFF
310
F000FFFFFFFFFFFFFFFFFFFFFFFFFFFFFFFFFFFFFFFFFFFFFFFFFFFFFFFFFFFF
310
FFFFFFFFFFFFFFFFFFFFFFFFFFFFFFFFFFFFFFFFFFFFFFFFFFFFFFFFFFFFFFFF
310
FFFFFFFFFFFFFFFFFFFFFFFFFFFFFFFFFFFFFFFFFFFFFFFFF000FFFFFFFFFFFF
310
FFFFFFFFFFFFFFFFFFFFFFFFFFFFFFFFFFFFFFFFFFFFFFFFFFFFFFFFFFFFFFFF
310
FFFFFFFFFFFFFFFFFFFFFFFFFFFFFFFFFFFFFFFFFFFFFFFFFFFFFFFFFFFFFFFF
310
FFFFFFFFFFFFFFFFFFFFFFFFFFFFFFFFF000FFFFFFFFFFFFFFFFFFFFFFFFFFFF
310
FFFFFFFFFFFFFFFFFFFFFFFFFFFFFFFFFFFFFFFFFFFFFFFFFFFFFFFFFFFFFFFF
310
FFFFFFFFFFFFFFFFFFFFFFFFFFFFFFFFFFFFFFFFFFFFFFFFFFFFFFFFFFFFFFFF
310
FFFFFFFFFFFFFFFFF000FFFFF80003FFFFFFFFFFFFFFFFFFFFFFFFFFFFFFFFFF
310
FFFFF00007FFFFFFFFFF00007FFFFFF800000000000000007FFFFFFFFFFFFFFF
310
FFFFFFFC001FFFFFFFFFFFFFFC001FFFFFFFFFFFFFFFFFFFFFFFFFFE0007FFFF
310
F000FFFF8000007FFFFFFFF8000FFFFFC0007FFFFF80007FFFFF0000007FFFFF
310
FFF8000007FFFFF800000000000000007FFFFFF0001FFFFFFFFFFFC00001FFFF
310
FFFFFFFFC00001FFFFFFFF000000000003FFFFE000007FFFF000FFFE0000000F
310
FFFFFFF0000FFFFF80007FFFFF80007FFFFC0000001FFFFFFFC0000001FFFFF8
310
00000000000000007FFFFFF0001FFFFFFFFFFE0000003FFFFFFFFFFE0000003F
310
FFFFFF000000000003FFFF0000000FFFF000FFF800000003FFFFFFF00007FFFF
310
80007FFFFF80007FFFF000000007FFFFFF000000003FFFF80000000000000000
310
7FFFFFF0001FFFFFFFFFF80000000FFFFFFFFFF80000000FFFFFFF0000000000
310
03FFFC00000003FFF000FFE000000000FFFFFFF00007FFFF80003FFFFF80007F
310
FFC000000001FFFFFC000000001FFFF800000000000000007FFFFFF0001FFFFF
310
FFFFE000000003FFFFFFFFE000000003FFFFFF000000000003FFF000000000FF
310
F000FF80000000007FFFFFF00007FFFF80003FFFFF80007FFF8000000000FFFF
310
F80000000007FFF800000000000000007FFFFFF0001FFFFFFFFFC000000001FF
310
FFFFFFC000000001FFFFFF000000000003FFC0000000007FF000FF0000000000
310
3FFFFFE00007FFFF00003FFFFF80007FFE00000000003FFFF00000000003FFF8
310
00000000000000007FFFFFF0001FFFFFFFFF8000000000FFFFFFFF8000000000
310
FFFFFF000000000003FF80000000003FF000FE00000000001FFFFFE00003FFFF
310
00003FFFFF80007FFC00000000001FFFE00000000001FFF8000001FFFE000000
310
7FFFFFF0001FFFFFFFFE00000000003FFFFFFE00000000003FFFFF0000000000
310
03FF00000000001FF000FC00000000000FFFFFE00003FFFF00001FFFFF80007F
310
F800000000001FFFC00000000000FFF8000001FFFE0000007FFFFFF0001FFFFF
310
FFFC00000000001FFFFFFC00000000001FFFFF000000000003FE00000000000F
310
F000F8000000000007FFFFE00003FFFF00001FFFFF80007FF800000000000FFF
310
800000000000FFF8000001FFFE0000007FFFFFF0001FFFFFFFF800000000000F
310
FFFFF800000000000FFFFF000000000003FC000000000007F000F80000000000
310
03FFFFC00003FFFE00001FFFFF80007FF0000000000007FF0000000000007FF8
310
000001FFFE0000007FFFFFF0001FFFFFFFF0000000000007FFFFF00000000000
310
07FFFF000000000003F8000000000003F000F0000000000003FFFFC00001FFFE
310
00001FFFFF80007FE0000000000007FE0000000000003FF8000001FFFE000000
310
7FFFFFF0001FFFFFFFF0000000000007FFFFF0000000000007FFFF0000000000
310
03F800001F800003F000E00001FFF00001FFFFC00001FFFE00000FFFFF80007F
310
E00001FFE00003FE00001FFF00003FF8000001FFFE0000007FFFFFF0001FFFFF
310
FFE000003E000003FFFFE000003E000003FFFF000000000003F00001FFF80001
310
F000E00007FFFC0001FFFFC00001FFFE00000FFFFF80007FC0000FFFFC0003FC
310
0000FFFFC0001FF8000001FFFE0000007FFFFFF0001FFFFFFFC00003FFE00001
310
FFFFC00003FFE00001FFFF0001FFFFFFFFF00007FFFE0001F000E0000FFFFF00
310
00FFFF800001FFFC00000FFFFF80007FC0001FFFFE0001FC0001FFFFE0001FF8
310
000001FFFE0000007FFFFFF0001FFFFFFF80000FFFF80000FFFF80000FFFF800
310
00FFFF0003FFFFFFFFE0000FFFFF8000F000C0003FFFFF8000FFFF800000FFFC
310
000007FFFF80007F80003FFFFF0001FC0003FFFFF0001FF8000001FFFE000000
310
7FFFFFF0001FFFFFFF80003FFFFE0000FFFF80003FFFFE0000FFFF0003FFFFFF
310
FFE0003FFFFF8000F000C0003FFFFF8000FFFF800000FFFC000007FFFF80007F
310
80007FFFFF8001F80007FFFFF8000FF8000001FFFE0000007FFFFFF0001FFFFF
310
FF00007FFFFF00007FFF00007FFFFF00007FFF0003FFFFFFFFE0003FFFFFC000
310
F000C0007FFFFFC000FFFF000000FFFC000007FFFF80007F8000FFFFFF8000F8
310
000FFFFFF8000FF8000001FFFE0000007FFFFFF0001FFFFFFF0000FFFFFF8000
310
7FFF0000FFFFFF80007FFF0003FFFFFFFFC0007FFFFFC00070008000FFFFFFC0
310
00FFFF000000FFF8000007FFFF80007F8000FFFFFF8000F8000FFFFFF8000FF8
310
000001FFFE0000007FFFFFF0001FFFFFFE0001FFFFFFC0003FFE0001FFFFFFC0
310
003FFF0003FFFFFFFFC0007FFFFFE00070008000FFFFFFC0007FFF0000007FF8
310
000003FFFF80007F0001FFFFFF8000F8000FFFFFF8000FF8000001FFFE000000
310
7FFFFFF0001FFFFFFE0001FFFFFFC0003FFE0001FFFFFFC0003FFF0003FFFFFF
310
FFC000FFFFFFE00070008000FFFFFFC0007FFF0000007FF8000003FFFF80007F
310
0001FFFFFF8000F8001FFFFFF8000FF8000001FFFE0000007FFFFFF0001FFFFF
310
FE0003FFFFFFE0003FFE0003FFFFFFE0003FFF0003FFFFFFFFC000FFFFFFE000
310
70008000FFFFFFC0007FFE0000007FF8000003FFFF80007F0001FFFFFF8000F0
310
001FFFFFF8000FF8000001FFFE0000007FFFFFF0001FFFFFFC0003FFFFFFE000
310
1FFC0003FFFFFFE0001FFF0003FFFFFFFFC000FFFFFFC00070008000FFFFFF80
310
007FFE0000007FF0000003FFFF80007F0001FFFFFF0000F0001FFFFFF8000FF8
310
000001FFFE0000007FFFFFF0001FFFFFFC0007FFFFFFF0001FFC0007FFFFFFF0
310
001FFF0003FFFFFFFFC000FFFFFFC00070008001FFFFFF0000FFFE0000003FF0
310
000001FFFF80007F0001FFFFFF0000F8001FFFFFF0000FF8000001FFFE000000
310
7FFFFFF0001FFFFFFC0007FFFFFFF0001FFC0007FFFFFFF0001FFF0003FFFFFF
310
FFC001FFFFFF80007000FFFFFFFFFE0000FFFE0008003FF0008001FFFF80007F
310
FFFFFFFFFC0000FFFFFFFFFFE0000FF8000001FFFE0000007FFFFFF0001FFFFF
310
F8000FFFFFFFF8000FF8000FFFFFFFF8000FFF0003FFFFFFFFFFFFFFFFFF0000
310
7000FFFFFFFFFC0000FFFC0008003FF0008001FFFF80007FFFFFFFFFF80001FF
310
FFFFFFFF80000FF8000001FFFE0000007FFFFFF0001FFFFFF8000FFFFFFFF800
310
0FF8000FFFFFFFF8000FFF0003FFFFFFFFFFFFFFFFFE0000F000FFFFFFFFE000
310
00FFFC000C003FE000C001FFFF80007FFFFFFFFFC00001FFFFFFFFFE00001FF8
310
000001FFFE0000007FFFFFF0001FFFFFF8000FFFFFFFF8000FF8000FFFFFFFF8
310
000FFF0003FFFFFFFFFFFFFFFFF00000F000FFFFFFFE000001FFFC000C001FE0
310
00C000FFFF80007FFFFFFFFE000001FFFFFFFFE000001FF80FFFFFFFFFFFFFC0
310
7FFFFFF0001FFFFFF8000FFFFFFFF8000FF8000FFFFFFFF8000FFF0003FFFFFF
310
FFFFFFFFFF800000F000FFFFFFC0000001FFFC001C001FE001C000FFFF80007F
310
FFFFFF80000003FFFFFFF80000001FF80FFFFFFFFFFFFFC07FFFFFF0001FFFFF
310
F8001FFFFFFFFC000FF8001FFFFFFFFC000FFF0003FFFFFFFFFFFFFFF0000001
310
F000FFFFF800000001FFF8001C001FE001C000FFFF80007FFFFFF800000003FF
310
FFFF800000003FF80FFFFFFFFFFFFFC07FFFFFF0001FFFFFF8001FFFFFFFFC00
310
0FF8001FFFFFFFFC000FFF0003FFFFFFFFFFFFFE00000001F000FFFFC0000000
310
03FFF8001E001FC001E000FFFF80007FFFFF8000000007FFFFFC000000003FF8
310
0FFFFFFFFFFFFFC07FFFFFF0001FFFFFF8001FFFFFFFFC000FF8001FFFFFFFFC
310
000FFF0003FFFFFFFFFFFFE000000003F000FFFE0000000007FFF8001E000FC0
310
01E0007FFF80007FFFFE0000000007FFFFE0000000007FF80FFFFFFFFFFFFFC0
310
7FFFFFF0001FFFFFF0001FFFFFFFFC0007F0001FFFFFFFFC0007FF0003FFFFFF
310
FFFFFF0000000003F000FFF80000000007FFF8001E000FC003E0007FFF80007F
310
FFF0000000000FFFFF8000000000FFF80FFFFFFFFFFFFFC07FFFFFF0001FFFFF
310
F0001FFFFFFFFC0007F0001FFFFFFFFC0007FF0003FFFFFFFFFFFC0000000007
310
F000FFE0000000000FFFF0003E000FC003E0007FFF80007FFFC0000000001FFF
310
FE0000000001FFF80FFFFFFFFFFFFFC07FFFFFF0001FFFFFF0001FFFFFFFFC00
310
07F0001FFFFFFFFC0007FF0003FFFFFFFFFFF0000000000FF000FFC000000000
310
1FFFF0003F000F8003F0003FFF80007FFF80000000003FFFF80000000003FFF8
310
0FFFFFFFFFFFFFC07FFFFFF0001FFFFFF0001FFFFFFFFC0007F0001FFFFFFFFC
310
0007FF0003FFFFFFFFFFE0000000001FF000FF00000000007FFFF0003F000780
310
03F0003FFF80007FFF00000000007FFFF00000000007FFF80FFFFFFFFFFFFFC0
310
7FFFFFF0001FFFFFF0001FFFFFFFFC0007F0001FFFFFFFFC0007FF0003FFFFFF
310
FFFF80000000007FF000FE0000000000FFFFE0003F00078007F0003FFF80007F
310
FE0000000001FFFFE0000000001FFFF80FFFFFFFFFFFFFC07FFFFFF0001FFFFF
310
F0001FFFFFFFFC0007F0001FFFFFFFFC0007FF0003FFFFFFFFFF0000000000FF
310
F000FC0000000003FFFFE0007F00078007F0003FFF80007FFC0000000007FFFF
310
C0000000007FFFF80FFFFFFFFFFFFFC07FFFFFF0001FFFFFF8001FFFFFFFFC00
310
0FF8001FFFFFFFFC000FFF0003FFFFFFFFFE0000000003FFF000FC000000000F
310
FFFFE0007F80070007F8001FFF80007FF8000000001FFFFF8000000001FFFFF8
310
0FFFFFFFFFFFFFC07FFFFFF0001FFFFFF8001FFFFFFFFC000FF8001FFFFFFFFC
310
000FFF0003FFFFFFFFFC000000000FFFF000F8000000007FFFFFE0007F800700
310
07F8001FFF80007FF000000000FFFFFF800000000FFFFFF80FFFFFFFFFFFFFC0
310
7FFFFFF0001FFFFFF8000FFFFFFFF8000FF8000FFFFFFFF8000FFF0003FFFFFF
310
FFFC000000007FFFF000F800000007FFFFFFC0007F8003000FF8001FFF80007F
310
F000000007FFFFFF000000007FFFFFF80FFFFFFFFFFFFFC07FFFFFF0001FFFFF
310
F8000FFFFFFFF8000FF8000FFFFFFFF8000FFF0003FFFFFFFFF80000000FFFFF
310
F000F0000000FFFFFFFFC000FF8003000FF8001FFF80007FE0000000FFFFFFFF
310
0000000FFFFFFFF8000001FFFE0000007FFFFFF0001FFFFFF8000FFFFFFFF800
310
0FF8000FFFFFFFF8000FFF0003FFFFFFFFF8000000FFFFFFF000F000000FFFFF
310
FFFFC000FFC002000FF8000FFF80007FE000001FFFFFFFFE000001FFFFFFFFF8
310
000001FFFE0000007FFFFFF0001FFFFFF8000FFFFFFFF8000FF8000FFFFFFFF8
310
000FFF0003FFFFFFFFF000001FFFFFFFF000E00000FFFFFFFFFFC000FFC00200
310
0FFC000FFF80007FE00001FFFFFFFFFE00001FFFFFFFFFF8000001FFFE000000
310
7FFFFFF0001FFFFFFC000FFFFFFFF8001FFC000FFFFFFFF8001FFF0003FFFFFF
310
FFF00001FFFFFFFFF000E00007FFFFFFFFFF8000FFC000001FFC000FFF80007F
310
C0000FFFFFFFFFFE0000FFFFFFFFFFF8000001FFFE0000007FFFFFF0001FFFFF
310
FC0007FFFFFFF0001FFC0007FFFFFFF0001FFF0003FFFFFFFFF00007FFFFFFFF
310
F000E0001FFFFFFFFFFF8000FFC000001FFC000FFF80007FC0003FFFFFFFFFFE
310
0001FFFFFFFFFFF8000001FFFE0000007FFFFFF0001FFFFFFC0007FFFFFFF000
310
1FFC0007FFFFFFF0001FFF0003FFFFFFFFF0001FFFFFFFFFF000E0003FFFFF00
310
03FF8001FFE000001FFC0007FF80007FC0007FFFFF0007FC0003FFFFF0003FF8
310
000001FFFE0000007FFFFFF0001FFFFFFC0003FFFFFFE0001FFC0003FFFFFFE0
310
001FFF0003FFFFFFFFF0003FFFFFFFFFF000E0003FFFFF0001FF8001FFE00000
310
1FFE0007FF80007FC0007FFFFE0003FC0007FFFFE0003FF8000001FFFE000000
310
7FFFFFF0001FFFFFFE0003FFFFFFE0003FFE0003FFFFFFE0003FFF0003FFFFFF
310
FFF0003FFFFF8001F000E0003FFFFF0001FF0001FFE000001FFE0007FF80007F
310
C0007FFFFE0003FC0007FFFFE0003FF8000001FFFE0000007FFFFFF0001FFFFF
310
FE0001FFFFFFC0003FFE0001FFFFFFC0003FFF0003FFFFFFFFF0003FFFFF0001
310
F000E0003FFFFF0003FF0001FFE000003FFE0007FF80007FC0007FFFFE0003FC
310
0007FFFFE0003FF8000001FFFE0000007FFFFFF0001FFFFFFF0001FFFFFFC000
310
7FFF0001FFFFFFC0007FFF0003FFFFFFFFF0003FFFFF0001F000E0003FFFFE00
310
03FF0003FFF000003FFE0003FF80007FC0007FFFFC0003FE0007FFFFE0003FF8
310
000001FFFE0000007FFFFFF0001FFFFFFF0000FFFFFF80007FFF0000FFFFFF80
310
007FFF0003FFFFFFFFF0003FFFFF0001F000E0003FFFFE0003FF0003FFF00000
310
3FFF0003FF80007FC0007FFFFC0007FE0007FFFFC0003FF8000001FFFE000000
310
7FFFFFF0001FFFFFFF80007FFFFF0000FFFF80007FFFFF0000FFFF0003FFFFFF
310
FFF0003FFFFF0003F000E0003FFFFC0003FE0003FFF000003FFF0003FF80007F
310
E0003FFFF80007FE0003FFFFC0007FF8000001FFFE0000007FFFFFF0001FFFFF
310
FF80003FFFFE0000FFFF80003FFFFE0000FFFF0003FFFFFFFFF0001FFFFE0003
310
F000F0001FFFF80003FE0003FFF000007FFF0001FF80007FE0003FFFF00007FE
310
0001FFFF80007FF8000001FFFE0000007FFFFFF0001FFFFFFFC0000FFFF80001
310
FFFFC0000FFFF80001FFFF0003FFFFFFFFF0001FFFFC0003F000F0000FFFF000
310
07FE0007FFF800007FFF0001FF80007FE0001FFFE00007FF0000FFFE00007FF8
310
000001FFFE0000007FFFFFF0001FFFFFFFC00003FFE00001FFFFC00003FFE000
310
01FFFF0003FFFFFFFFF8000FFFF80003F000F00003FFC00007FC0007FFF80000
310
7FFF8001FF80007FF00007FF80000FFF00007FF80000FFF8000001FFFE000000
310
7F80000000000001FFE000003E000003FFFFE000003E000003FFFF0003FFFFFF
310
FFF80003FFE00007F000F800000000000FFC0007FFF800007FFF8001FF80007F
310
F000000000000FFF000000000000FFF8000001FFFE0000007F80000000000001
310
FFF0000000000007FFFFF0000000000007FFFF0003FFFFFFFFFC00007E000007
310
F000F800000000000FFC0007FFF80000FFFF8000FF80007FF800000000001FFF
310
800000000001FFF8000001FFFE0000007F80000000000001FFF800000000000F
310
FFFFF800000000000FFFFF0003FFFFFFFFFC00000000000FF000FC0000000000
310
1FFC0007FFFC0000FFFF8000FF80007FF800000000003FFFC00000000001FFF8
310
000001FFFE0000007F80000000000001FFF800000000000FFFFFF80000000000
310
0FFFFF0003FFFFFFFFFE00000000001FF000FE00000000003FF8000FFFFC0000
310
FFFF8000FF80007FFC00000000003FFFC00000000003FFF8000001FFFE000000
310
7F80000000000001FFFC00000000001FFFFFFC00000000001FFFFF0003FFFFFF
310
FFFF00000000001FF000FF00000000003FF8000FFFFC0000FFFFC000FF80007F
310
FE00000000007FFFE00000000007FFF8000001FFFE0000007F80000000000001
310
FFFE00000000003FFFFFFE00000000003FFFFF0003FFFFFFFFFF80000000003F
310
F000FF80000000007FF8000FFFFC0001FFFFC0007F80007FFF0000000000FFFF
310
F0000000000FFFF800000000000000007F80000000000001FFFF8000000000FF
310
FFFFFF8000000000FFFFFF0003FFFFFFFFFFC0000000007FF000FFC000000000
310
FFF8000FFFFE0001FFFFC0007F80007FFF8000000001FFFFF8000000001FFFF8
310
00000000000000007F80000000000001FFFFC000000001FFFFFFFFC000000001
310
FFFFFF0003FFFFFFFFFFE000000000FFF000FFE000000003FFF0001FFFFE0001
310
FFFFC0007F80007FFFC000000007FFFFFE000000003FFFF80000000000000000
310
7F80000000000001FFFFE000000003FFFFFFFFE000000003FFFFFF0003FFFFFF
310
FFFFF000000003FFF000FFF80000000FFFF0001FFFFE0001FFFFE0007F80007F
310
FFF00000000FFFFFFF00000000FFFFF800000000000000007F80000000000001
310
FFFFF80000000FFFFFFFFFF80000000FFFFFFF0003FFFFFFFFFFFC0000000FFF
310
F000FFFE0000003FFFF0001FFFFE0003FFFFE0003F80007FFFFC0000003FFFFF
310
FFC0000003FFFFF800000000000000007F80000000000001FFFFFE0000003FFF
310
FFFFFFFE0000003FFFFFFF0003FFFFFFFFFFFF0000003FFFF000FFFF800000FF
310
FFF0001FFFFF0003FFFFE0003F80007FFFFF000001FFFFFFFFF800001FFFFFF8
310
00000000000000007F80000000000001FFFFFFC00001FFFFFFFFFFFFC00001FF
310
FFFFFF0003FFFFFFFFFFFFC00000FFFFF000FFFFF8000FFFFFFFFFFFFFFFFFFF
310
FFFFFFFFFFFFFFFFFFFFF0001FFFFFFFFFFF0000FFFFFFF80000000000000000
310
7FFFFFFFFFFFFFFFFFFFFFFC001FFFFFFFFFFFFFFC001FFFFFFFFFFFFFFFFFFF
310
FFFFFFFC001FFFFFF000FFFFFFFFFFFFFFFFFFFFFFFFFFFFFFFFFFFFFFFFFFFF
310
FFFFFFFFFFFFFFFFFFFFFFFFFFFFFFFFFFFFFFFFFFFFFFFFFFFFFFFFFFFFFFFF
310
FFFFFFFFFFFFFFFFFFFFFFFFFFFFFFFFFFFFFFFFFFFFFFFFFFFFFFFFFFFFFFFF
310
F000FFFFFFFFFFFFFFFFFFFFFFFFFFFFFFFFFFFFFFFFFFFFFFFFFFFFFFFFFFFF
310
FFFFFFFFFFFFFFFFFFFFFFFFFFFFFFFFFFFFFFFFFFFFFFFFFFFFFFFFFFFFFFFF
310
FFFFFFFFFFFFFFFFFFFFFFFFFFFFFFFFFFFFFFFFFFFFFFFFF000FFFFFFFFFFFF
310
FFFFFFFFFFFFFFFFFFFFFFFFFFFFFFFFFFFFFFFFFFFFFFFFFFFFFFFFFFFFFFFF
310
FFFFFFFFFFFFFFFFFFFFFFFFFFFFFFFFFFFFFFFFFFFFFFFFFFFFFFFFFFFFFFFF
310
FFFFFFFFFFFFFFFFFFFFFFFFFFFFFFFFF000FFFFFFFFFFFFFFFFFFFFFFFFFFFF
310
FFFFFFFFFFFFFFFFFFFFFFFFFFFFFFFFFFFFFFFFFFFFFFFFFFFFFFFFFFFFFFFF
310
FFFFFFFFFFFFFFFFFFFFFFFFFFFFFFFFFFFFFFFFFFFFFFFFFFFFFFFFFFFFFFFF
310
FFFFFFFFFFFFFFFFF000FFFFFFFFFFFFFFFFFFFFFFFFFFFFFFFFFFFFFFFFFFFF
310
FFFFFFFFFFFFFFFFFFFFFFFFFFFFFFFFFFFFFFFFFFFFFFFFFFFFFFFFFFFFFFFF
310
FFFFFFFFFFFFFFFFFFFFFFFFFFFFFFFFFFFFFFFFFFFFFFFFFFFFFFFFFFFFFFFF
310
F000FFFFFFFFFFFFFFFFFFFFFFFFFFFFFFFFFFFFFFFFFFFFFFFFFFFFFFFFFFFF
310
FFFFFFFFFFFFFFFFFFFFFFFFFFFFFFFFFFFFFFFFFFFFFFFFFFFFFFFFFFFFFFFF
310
FFFFFFFFFFFFFFFFFFFFFFFFFFFFFFFFFFFFFFFFFFFFFFFFF000FFFFFFFFFFFF
310
FFFFFFFFFFFFFFFFFFFFFFFFFFFFFFFFFFFFFFFFFFFFFFFFFFFFFFFFFFFFFFFF
310
FFFFFFFFFFFFFFFFFFFFFFFFFFFFFFFFFFFFFFFFFFFFFFFFFFFFFFFFFFFFFFFF
310
FFFFFFFFFFFFFFFFFFFFFFFFFFFFFFFFF000FFFFFFFFFFFFFFFFFFFFFFFFFFFF
310
FFFFFFFFFFFFFFFFFFFFFFFFFFFFFFFFFFFFFFFFFFFFFFFFFFFFFFFFFFFFFFFF
310
FFFFFFFFFFFFFFFFFFFFFFFFFFFFFFFFFFFFFFFFFFFFFFFFFFFFFFFFFFFFFFFF
310
FFFFFFFFFFFFFFFFF000FFFFFFFFFFFFFFFFFFFFFFFFFFFFFFFFFFFFFFFFFFFF
310
FFFFFFFFFFFFFFFFFFFFFFFFFFFFFFFFFFFFFFFFFFFFFFFFFFFFFFFFFFFFFFFF
310
FFFFFFFFFFFFFFFFFFFFFFFFFFFFFFFFFFFFFFFFFFFFFFFFFFFFFFFFFFFFFFFF
310
F000FFFFFFFFFFFFFFFFFFFFFFFFFFFFFFFFFFFFFFFFFFFFFFFFFFFFFFFFFFFF
310
FFFFFFFFFFFFFFFFFFFFFFFFFFFFFFFFFFFFFFFFFFFFFFFFFFFFFFFFFFFFFFFF
310
FFFFFFFFFFFFFFFFFFFFFFFFFFFFFFFFFFFFFFFFFFFFFFFFF000FFFFFFFFFFFF
310
FFFFFFFFFFFFFFFFFFFFFFFFFFFFFFFFFFFFFFFFFFFFFFFFFFFFFFFFFFFFFFFF
310
FFFFFFFFFFFFFFFFFFFFFFFFFFFFFFFFFFFFFFFFFFFFFFFFFFFFFFFFFFFFFFFF
310
FFFFFFFFFFFFFFFFFFFFFFFFFFFFFFFFF000FFFFFFFFFFFFFFFFFFFFFFFFFFFF
310
FFFFFFFFFFFFFFFFFFFFFFFFFFFFFFFFFFFFFFFFFFFFFFFFFFFFFFFFFFFFFFFF
310
FFFFFFFFFFFFFFFFFFFFFFFFFFFFFFFFFFFFFFFFFFFFFFFFFFFFFFFFFFFFFFFF
310
FFFFFFFFFFFFFFFFF000FFFFFFFFFFFFFFFFFFFFFFFFFFFFFFFFFFFFFFFFFFFF
310
FFFFFFFFFFFFFFFFFFFFFFFFFFFFFFFFFFFFFFFFFFFFFFFFFFFFFFFFFFFFFFFF
310
FFFFFFFFFFFFFFFFFFFFFFFFFFFFFFFFFFFFFFFFFFFFFFFFFFFFFFFFFFFFFFFF
310
F000FFFFFFFFFFFFFFFFFFFFFFFFFFFFFFFFFFFFFFFFFFFFFFFFFFFFFFFFFFFF
310
FFFFFFFFFFFFFFFFFFFFFFFFFFFFFFFFFFFFFFFFFFFFFFFFFFFFFFFFFFFFFFFF
310
FFFFFFFFFFFFFFFFFFFFFFFFFFFFFFFFFFFFFFFFFFFFFFFFF000FFFFFFFFFFFF
310
FFFFFFFFFFFFFFFFFFFFFFFFFFFFFFFFFFFFFFFFFFFFFFFFFFFFFFFFFFFFFFFF
310
FFFFFFFFFFFFFFFFFFFFFFFFFFFFFFFFFFFFFFFFFFFFFFFFFFFFFFFFFFFFFFFF
310
FFFFFFFFFFFFFFFFFFFFFFFFFFFFFFFFF000FFFFFFFFFFFFFFFFFFFFFFFFFFFF
310
FFFFFFFFFFFFFFFFFFFFFFFFFFFFFFFFFFFFFFFFFFFFFFFFFFFFFFFFFFFFFFFF
310
FFFFFFFFFFFFFFFFFFFFFFFFFFFFFFFFFFFFFFFFFFFFFFFFFFFFFFFFFFFFFFFF
310
FFFFFFFFFFFFFFFFF000FFFFFFFFFFFFFFFFFFFFFFFFFFFFFFFFFFFFFFFFFFFF
310
FFFFFFFFFFFFFFFFFFFFFFFFFFFFFFFFFFFFFFFFFFFFFFFFFFFFFFFFFFFFFFFF
310
FFFFFFFFFFFFFFFFFFFFFFFFFFFFFFFFFFFFFFFFFFFFFFFFFFFFFFFFFFFFFFFF
310
F000FFFFFFFFFFFFFFFFFFFFFFFFFFFFFFFFFFFFFFFFFFFFFFFFFFFFFFFFFFFF
310
FFFFFFFFFFFFFFFFFFFFFFFFFFFFFFFFFFFFFFFFFFFFFFFFFFFFFFFFFFFFFFFF
310
FFFFFFFFFFFFFFFFFFFFFFFFFFFFFFFFFFFFFFFFFFFFFFFFF000FFFFFFFFFFFF
310
FFFFFFFFFFFFFFFFFFFFFFFFFFFFFFFFFFFFFFFFFFFFFFFFFFFFFFFFFFFFFFFF
310
FFFFFFFFFFFFFFFFFFFFFFFFFFFFFFFFFFFFFFFFFFFFFFFFFFFFFFFFFFFFFFFF
310
FFFFFFFFFFFFFFFFFFFFFFFFFFFFFFFFF000FFFFFFFFFFFFFFFFFFFFFFFFFFFF
310
FFFFFFFFFFFFFFFFFFFFFFFFFFFFFFFFFFFFFFFFFFFFFFFFFFFFFFFFFFFFFFFF
310
FFFFFFFFFFFFFFFFFFFFFFFFFFFFFFFFFFFFFFFFFFFFFFFFFFFFFFFFFFFFFFFF
310
FFFFFFFFFFFFFFFFF000FFFFFFFFFFFFFFFFFFFFFFFFFFFFFFFFFFFFFFFFFFFF
310
FFFFFFFFFFFFFFFFFFFFFFFFFFFFFFFFFFFFFFFFFFFFFFFFFFFFFFFFFFFFFFFF
310
FFFFFFFFFFFFFFFFFFFFFFFFFFFFFFFFFFFFFFFFFFFFFFFFFFFFFFFFFFFFFFFF
310
F000FFFFFFFFFFFFFFFFFFFFFFFFFFFFFFFFFFFFFFFFFFFFFFFFFFFFFFFFFFFF
310
FFFFFFFFFFFFFFFFFFFFFFFFFFFFFFFFFFFFFFFFFFFFFFFFFFFFFFFFFFFFFFFF
310
FFFFFFFFFFFFFFFFFFFFFFFFFFFFFFFFFFFFFFFFFFFFFFFFF000FFFFFFFFFFFF
310
FFFFFFFFFFFFFFFFFFFFFFFFFFFFFFFFFFFFFFFFFFFFFFFFFFFFFFFFFFFFFFFF
310
FFFFFFFFFFFFFFFFFFFFFFFFFFFFFFFFFFFFFFFFFFFFFFFFFFFFFFFFFFFFFFFF
310
FFFFFFFFFFFFFFFFFFFFFFFFFFFFFFFFF0000000000000000000000000000000
310
0000000000000000000000000000000000000000000000000000000000000000
310
0000000000000000000000000000000000000000000000000000000000000000
310
0000000000000000000000000000000000000000000000000000000000000000
310
0000000000000000000000000000000000000000000000000000000000000000
310
0000000000000000000000000000000000000000000000000000000000000000
310
0000000000000000000000000000000000000000000000000000000000000000
310
0000000000000000000000000000000000000000000000000000000000000000
310
0000000000000000000000000000000000000000000000000000000000000000
310
0000000000000000000000000000000000000000000000000000000000000000
310
0000000000000000000000000000000000000000000000000000000000000000
310
0000000000000000000000000000000000000000000000000000000000000000
310
0000000000000000000000000000000000000000000000000000000000000000
310
0000000000000000000000000000000000000000000000000000000000000000
310
0000000000000000000000000000000000000000000000000000000000000000
310
0000000000000000000000000000000000000000000000000000000000000000
  1
OLE
  0
ENDSEC
  0
SECTION
  2
OBJECTS
  0
DICTIONARY
  5
C
330
0
100
AcDbDictionary
281
     1
  3
ACAD_GROUP
350
D
  3
ACAD_LAYOUT
350
1A
  3
ACAD_MLINESTYLE
350
17
  3
ACAD_PLOTSETTINGS
350
19
  3
ACAD_PLOTSTYLENAME
350
E
  3
ACAD_SCALELIST
350
47
  0
DICTIONARY
  5
D
102
{ACAD_REACTORS
330
C
102
}
330
C
100
AcDbDictionary
281
     1
  0
DICTIONARY
  5
1A
102
{ACAD_REACTORS
330
C
102
}
330
C
100
AcDbDictionary
281
     1
  3
Layout1
350
1E
  3
Layout2
350
26
  3
Model
350
22
  0
DICTIONARY
  5
17
102
{ACAD_REACTORS
330
C
102
}
330
C
100
AcDbDictionary
281
     1
  3
Standard
350
18
  0
DICTIONARY
  5
19
102
{ACAD_REACTORS
330
C
102
}
330
C
100
AcDbDictionary
281
     1
  0
ACDBDICTIONARYWDFLT
  5
E
102
{ACAD_REACTORS
330
C
102
}
330
C
100
AcDbDictionary
281
     1
  3
Normal
350
F
100
AcDbDictionaryWithDefault
340
F
  0
DICTIONARY
  5
47
102
{ACAD_REACTORS
330
C
102
}
330
C
100
AcDbDictionary
281
     1
  3
A0
350
48
  3
A1
350
49
  3
A2
350
4A
  3
A3
350
4B
  3
A4
350
4C
  3
A5
350
4D
  3
A6
350
4E
  3
A7
350
4F
  3
A8
350
50
  3
A9
350
51
  3
B0
350
52
  3
B1
350
53
  3
B2
350
54
  3
B3
350
55
  3
B4
350
56
  3
B5
350
57
  3
B6
350
58
  3
B7
350
59
  3
B8
350
5A
  3
B9
350
5B
  3
C0
350
5C
  3
C1
350
5D
  3
C2
350
5E
  3
C3
350
5F
  3
C4
350
60
  3
C5
350
61
  3
C6
350
62
  3
C7
350
63
  3
C8
350
64
  3
C9
350
65
  3
D0
350
66
  3
D1
350
67
  3
D2
350
68
  0
LAYOUT
  5
1E
102
{ACAD_REACTORS
330
1A
102
}
330
1A
100
AcDbPlotSettings
  1

  2
none_device
  4

  6

 40
0.0
 41
0.0
 42
0.0
 43
0.0
 44
0.0
 45
0.0
 46
0.0
 47
0.0
 48
0.0
 49
0.0
140
0.0
141
0.0
142
1.0
143
1.0
 70
   688
 72
     1
 73
     0
 74
     5
  7

 75
    16
147
1.0
148
0.0
149
0.0
100
AcDbLayout
  1
Layout1
 70
     1
 71
     1
 10
0.0
 20
0.0
 11
420.0
 21
297.0
 12
0.0
 22
0.0
 32
0.0
 14
1.0000000000E+20
 24
1.0000000000E+20
 34
1.0000000000E+20
 15
-1.0000000000E+20
 25
-1.0000000000E+20
 35
-1.0000000000E+20
146
0.0
 13
0.0
 23
0.0
 33
0.0
 16
1.0
 26
0.0
 36
0.0
 17
0.0
 27
1.0
 37
0.0
 76
     0
330
1B
  0
LAYOUT
  5
26
102
{ACAD_REACTORS
330
1A
102
}
330
1A
100
AcDbPlotSettings
  1

  2
none_device
  4

  6

 40
0.0
 41
0.0
 42
0.0
 43
0.0
 44
0.0
 45
0.0
 46
0.0
 47
0.0
 48
0.0
 49
0.0
140
0.0
141
0.0
142
1.0
143
1.0
 70
   688
 72
     1
 73
     0
 74
     5
  7

 75
    16
147
1.0
148
0.0
149
0.0
100
AcDbLayout
  1
Layout2
 70
     1
 71
     2
 10
0.0
 20
0.0
 11
0.0
 21
0.0
 12
0.0
 22
0.0
 32
0.0
 14
0.0
 24
0.0
 34
0.0
 15
0.0
 25
0.0
 35
0.0
146
0.0
 13
0.0
 23
0.0
 33
0.0
 16
1.0
 26
0.0
 36
0.0
 17
0.0
 27
1.0
 37
0.0
 76
     0
330
23
  0
LAYOUT
  5
22
102
{ACAD_REACTORS
330
1A
102
}
330
1A
100
AcDbPlotSettings
  1

  2
none_device
  4
Letter_(8.50_x_11.00_Inches)
  6

 40
6.35
 41
6.35
 42
6.35000508
 43
6.35000508
 44
215.9
 45
279.4
 46
0.0
 47
0.0
 48
0.0
 49
0.0
140
0.0
141
0.0
142
1.0
143
1.0
 70
  1712
 72
     1
 73
     0
 74
     0
  7

 75
     0
147
1.0
148
0.0
149
0.0
100
AcDbLayout
  1
Model
 70
     1
 71
     0
 10
0.0
 20
0.0
 11
297.0
 21
210.0
 12
0.0
 22
0.0
 32
0.0
 14
0.0
 24
0.0
 34
0.0
 15
297.0
 25
210.0
 35
0.0
146
0.0
 13
0.0
 23
0.0
 33
0.0
 16
1.0
 26
0.0
 36
0.0
 17
0.0
 27
1.0
 37
0.0
 76
     0
330
1F
331
29
  0
MLINESTYLE
  5
18
102
{ACAD_REACTORS
330
17
102
}
330
17
100
AcDbMlineStyle
  2
Standard
 70
     0
  3

 62
   256
 51
90.0
 52
90.0
 71
     2
 49
0.5
 62
   256
  6
BYLAYER
 49
-0.5
 62
   256
  6
BYLAYER
  0
ACDBPLACEHOLDER
  5
F
102
{ACAD_REACTORS
330
E
102
}
330
E
  0
SCALE
  5
48
102
{ACAD_REACTORS
330
47
102
}
330
47
100
AcDbScale
 70
     0
300
1:1
140
1.0
141
1.0
290
     1
  0
SCALE
  5
49
102
{ACAD_REACTORS
330
47
102
}
330
47
100
AcDbScale
 70
     0
300
1:2
140
1.0
141
2.0
290
     0
  0
SCALE
  5
4A
102
{ACAD_REACTORS
330
47
102
}
330
47
100
AcDbScale
 70
     0
300
1:4
140
1.0
141
4.0
290
     0
  0
SCALE
  5
4B
102
{ACAD_REACTORS
330
47
102
}
330
47
100
AcDbScale
 70
     0
300
1:5
140
1.0
141
5.0
290
     0
  0
SCALE
  5
4C
102
{ACAD_REACTORS
330
47
102
}
330
47
100
AcDbScale
 70
     0
300
1:8
140
1.0
141
8.0
290
     0
  0
SCALE
  5
4D
102
{ACAD_REACTORS
330
47
102
}
330
47
100
AcDbScale
 70
     0
300
1:10
140
1.0
141
10.0
290
     0
  0
SCALE
  5
4E
102
{ACAD_REACTORS
330
47
102
}
330
47
100
AcDbScale
 70
     0
300
1:16
140
1.0
141
16.0
290
     0
  0
SCALE
  5
4F
102
{ACAD_REACTORS
330
47
102
}
330
47
100
AcDbScale
 70
     0
300
1:20
140
1.0
141
20.0
290
     0
  0
SCALE
  5
50
102
{ACAD_REACTORS
330
47
102
}
330
47
100
AcDbScale
 70
     0
300
1:30
140
1.0
141
30.0
290
     0
  0
SCALE
  5
51
102
{ACAD_REACTORS
330
47
102
}
330
47
100
AcDbScale
 70
     0
300
1:40
140
1.0
141
40.0
290
     0
  0
SCALE
  5
52
102
{ACAD_REACTORS
330
47
102
}
330
47
100
AcDbScale
 70
     0
300
1:50
140
1.0
141
50.0
290
     0
  0
SCALE
  5
53
102
{ACAD_REACTORS
330
47
102
}
330
47
100
AcDbScale
 70
     0
300
1:100
140
1.0
141
100.0
290
     0
  0
SCALE
  5
54
102
{ACAD_REACTORS
330
47
102
}
330
47
100
AcDbScale
 70
     0
300
2:1
140
2.0
141
1.0
290
     0
  0
SCALE
  5
55
102
{ACAD_REACTORS
330
47
102
}
330
47
100
AcDbScale
 70
     0
300
4:1
140
4.0
141
1.0
290
     0
  0
SCALE
  5
56
102
{ACAD_REACTORS
330
47
102
}
330
47
100
AcDbScale
 70
     0
300
8:1
140
8.0
141
1.0
290
     0
  0
SCALE
  5
57
102
{ACAD_REACTORS
330
47
102
}
330
47
100
AcDbScale
 70
     0
300
10:1
140
10.0
141
1.0
290
     0
  0
SCALE
  5
58
102
{ACAD_REACTORS
330
47
102
}
330
47
100
AcDbScale
 70
     0
300
100:1
140
100.0
141
1.0
290
     0
  0
SCALE
  5
59
102
{ACAD_REACTORS
330
47
102
}
330
47
100
AcDbScale
 70
     0
300
1/128" = 1'-0"
140
0.0078125
141
12.0
290
     0
  0
SCALE
  5
5A
102
{ACAD_REACTORS
330
47
102
}
330
47
100
AcDbScale
 70
     0
300
1/64" = 1'-0"
140
0.015625
141
12.0
290
     0
  0
SCALE
  5
5B
102
{ACAD_REACTORS
330
47
102
}
330
47
100
AcDbScale
 70
     0
300
1/32" = 1'-0"
140
0.03125
141
12.0
290
     0
  0
SCALE
  5
5C
102
{ACAD_REACTORS
330
47
102
}
330
47
100
AcDbScale
 70
     0
300
1/16" = 1'-0"
140
0.0625
141
12.0
290
     0
  0
SCALE
  5
5D
102
{ACAD_REACTORS
330
47
102
}
330
47
100
AcDbScale
 70
     0
300
3/32" = 1'-0"
140
0.09375
141
12.0
290
     0
  0
SCALE
  5
5E
102
{ACAD_REACTORS
330
47
102
}
330
47
100
AcDbScale
 70
     0
300
1/8" = 1'-0"
140
0.125
141
12.0
290
     0
  0
SCALE
  5
5F
102
{ACAD_REACTORS
330
47
102
}
330
47
100
AcDbScale
 70
     0
300
3/16" = 1'-0"
140
0.1875
141
12.0
290
     0
  0
SCALE
  5
60
102
{ACAD_REACTORS
330
47
102
}
330
47
100
AcDbScale
 70
     0
300
1/4" = 1'-0"
140
0.25
141
12.0
290
     0
  0
SCALE
  5
61
102
{ACAD_REACTORS
330
47
102
}
330
47
100
AcDbScale
 70
     0
300
3/8" = 1'-0"
140
0.375
141
12.0
290
     0
  0
SCALE
  5
62
102
{ACAD_REACTORS
330
47
102
}
330
47
100
AcDbScale
 70
     0
300
1/2" = 1'-0"
140
0.5
141
12.0
290
     0
  0
SCALE
  5
63
102
{ACAD_REACTORS
330
47
102
}
330
47
100
AcDbScale
 70
     0
300
3/4" = 1'-0"
140
0.75
141
12.0
290
     0
  0
SCALE
  5
64
102
{ACAD_REACTORS
330
47
102
}
330
47
100
AcDbScale
 70
     0
300
1" = 1'-0"
140
1.0
141
12.0
290
     0
  0
SCALE
  5
65
102
{ACAD_REACTORS
330
47
102
}
330
47
100
AcDbScale
 70
     0
300
1-1/2" = 1'-0"
140
1.5
141
12.0
290
     0
  0
SCALE
  5
66
102
{ACAD_REACTORS
330
47
102
}
330
47
100
AcDbScale
 70
     0
300
3" = 1'-0"
140
3.0
141
12.0
290
     0
  0
SCALE
  5
67
102
{ACAD_REACTORS
330
47
102
}
330
47
100
AcDbScale
 70
     0
300
6" = 1'-0"
140
6.0
141
12.0
290
     0
  0
SCALE
  5
68
102
{ACAD_REACTORS
330
47
102
}
330
47
100
AcDbScale
 70
     0
300
1'-0" = 1'-0"
140
12.0
141
12.0
290
     0
  0
ENDSEC
  0
EOF
