  0
SECTION
  2
HEADER
  9
$ACADVER
  1
AC1015
  9
$ACADMAINTVER
 70
     6
  9
$DWGCODEPAGE
  3
ANSI_1252
  9
$INSBASE
 10
0.0
 20
0.0
 30
0.0
  9
$EXTMIN
 10
0.0
 20
0.0
 30
0.0
  9
$EXTMAX
 10
297.0
 20
210.0
 30
0.0
  9
$LIMMIN
 10
0.0
 20
0.0
  9
$LIMMAX
 10
297.0
 20
210.0
  9
$ORTHOMODE
 70
     0
  9
$REGENMODE
 70
     1
  9
$FILLMODE
 70
     1
  9
$QTEXTMODE
 70
     0
  9
$MIRRTEXT
 70
     1
  9
$LTSCALE
 40
1.0
  9
$ATTMODE
 70
     1
  9
$TEXTSIZE
 40
2.0
  9
$TRACEWID
 40
1.0
  9
$TEXTSTYLE
  7
Standard
  9
$CLAYER
  8
0
  9
$CELTYPE
  6
ByLayer
  9
$CECOLOR
 62
   256
  9
$CELTSCALE
 40
1.0
  9
$DISPSILH
 70
     0
  9
$DIMSCALE
 40
1.0
  9
$DIMASZ
 40
3.0
  9
$DIMEXO
 40
0.0
  9
$DIMDLI
 40
3.75
  9
$DIMRND
 40
0.0
  9
$DIMDLE
 40
0.0
  9
$DIMEXE
 40
1.0
  9
$DIMTP
 40
0.0
  9
$DIMTM
 40
0.0
  9
$DIMTXT
 40
2.0
  9
$DIMCEN
 40
2.5
  9
$DIMTSZ
 40
0.0
  9
$DIMTOL
 70
     0
  9
$DIMLIM
 70
     0
  9
$DIMTIH
 70
     1
  9
$DIMTOH
 70
     1
  9
$DIMSE1
 70
     0
  9
$DIMSE2
 70
     0
  9
$DIMTAD
 70
     1
  9
$DIMZIN
 70
     0
  9
$DIMBLK
  1

  9
$DIMASO
 70
     1
  9
$DIMSHO
 70
     1
  9
$DIMPOST
  1

  9
$DIMAPOST
  1

  9
$DIMALT
 70
     0
  9
$DIMALTD
 70
     3
  9
$DIMALTF
 40
0.0393700787
  9
$DIMLFAC
 40
2.0
  9
$DIMTOFL
 70
     1
  9
$DIMTVP
 40
0.0
  9
$DIMTIX
 70
     0
  9
$DIMSOXD
 70
     0
  9
$DIMSAH
 70
     0
  9
$DIMBLK1
  1

  9
$DIMBLK2
  1

  9
$DIMSTYLE
  2
ISO-25
  9
$DIMCLRD
 70
     0
  9
$DIMCLRE
 70
     0
  9
$DIMCLRT
 70
     0
  9
$DIMTFAC
 40
1.0
  9
$DIMGAP
 40
1.524
  9
$DIMJUST
 70
     0
  9
$DIMSD1
 70
     0
  9
$DIMSD2
 70
     0
  9
$DIMTOLJ
 70
     0
  9
$DIMTZIN
 70
     0
  9
$DIMALTZ
 70
     0
  9
$DIMALTTZ
 70
     0
  9
$DIMUPT
 70
     0
  9
$DIMDEC
 70
     2
  9
$DIMTDEC
 70
     3
  9
$DIMALTU
 70
     2
  9
$DIMALTTD
 70
     3
  9
$DIMTXSTY
  7
Standard
  9
$DIMAUNIT
 70
     0
  9
$DIMADEC
 70
     2
  9
$DIMALTRND
 40
0.0
  9
$DIMAZIN
 70
     0
  9
$DIMDSEP
 70
    44
  9
$DIMATFIT
 70
     3
  9
$DIMFRAC
 70
     0
  9
$DIMLDRBLK
  1

  9
$DIMLUNIT
 70
     2
  9
$DIMLWD
 70
    -2
  9
$DIMLWE
 70
    -2
  9
$DIMTMOVE
 70
     0
  9
$LUNITS
 70
     2
  9
$LUPREC
 70
     2
  9
$SKETCHINC
 40
1.0
  9
$FILLETRAD
 40
10.0
  9
$AUNITS
 70
     0
  9
$AUPREC
 70
     2
  9
$MENU
  1
.
  9
$ELEVATION
 40
0.0
  9
$PELEVATION
 40
0.0
  9
$THICKNESS
 40
0.0
  9
$LIMCHECK
 70
     0
  9
$CHAMFERA
 40
0.0
  9
$CHAMFERB
 40
0.0
  9
$CHAMFERC
 40
0.0
  9
$CHAMFERD
 40
0.0
  9
$SKPOLY
 70
     0
  9
$TDCREATE
 40
2457675.401064491
  9
$TDUCREATE
 40
2457675.317731157
  9
$TDUPDATE
 40
2457675.401066076
  9
$TDUUPDATE
 40
2457675.317732743
  9
$TDINDWG
 40
0.0000000116
  9
$TDUSRTIMER
 40
0.0000000116
  9
$USRTIMER
 70
     1
  9
$ANGBASE
 50
0.0
  9
$ANGDIR
 70
     0
  9
$PDMODE
 70
     0
  9
$PDSIZE
 40
-1.0
  9
$PLINEWID
 40
0.0
  9
$SPLFRAME
 70
     0
  9
$SPLINETYPE
 70
     6
  9
$SPLINESEGS
 70
     8
  9
$HANDSEED
  5
256
  9
$SURFTAB1
 70
     6
  9
$SURFTAB2
 70
     6
  9
$SURFTYPE
 70
     6
  9
$SURFU
 70
     6
  9
$SURFV
 70
     6
  9
$UCSBASE
  2

  9
$UCSNAME
  2

  9
$UCSORG
 10
0.0
 20
0.0
 30
0.0
  9
$UCSXDIR
 10
1.0
 20
0.0
 30
0.0
  9
$UCSYDIR
 10
0.0
 20
1.0
 30
0.0
  9
$UCSORTHOREF
  2

  9
$UCSORTHOVIEW
 70
     0
  9
$UCSORGTOP
 10
0.0
 20
0.0
 30
0.0
  9
$UCSORGBOTTOM
 10
0.0
 20
0.0
 30
0.0
  9
$UCSORGLEFT
 10
0.0
 20
0.0
 30
0.0
  9
$UCSORGRIGHT
 10
0.0
 20
0.0
 30
0.0
  9
$UCSORGFRONT
 10
0.0
 20
0.0
 30
0.0
  9
$UCSORGBACK
 10
0.0
 20
0.0
 30
0.0
  9
$PUCSBASE
  2

  9
$PUCSNAME
  2

  9
$PUCSORG
 10
0.0
 20
0.0
 30
0.0
  9
$PUCSXDIR
 10
1.0
 20
0.0
 30
0.0
  9
$PUCSYDIR
 10
0.0
 20
1.0
 30
0.0
  9
$PUCSORTHOREF
  2

  9
$PUCSORTHOVIEW
 70
     0
  9
$PUCSORGTOP
 10
0.0
 20
0.0
 30
0.0
  9
$PUCSORGBOTTOM
 10
0.0
 20
0.0
 30
0.0
  9
$PUCSORGLEFT
 10
0.0
 20
0.0
 30
0.0
  9
$PUCSORGRIGHT
 10
0.0
 20
0.0
 30
0.0
  9
$PUCSORGFRONT
 10
0.0
 20
0.0
 30
0.0
  9
$PUCSORGBACK
 10
0.0
 20
0.0
 30
0.0
  9
$USERI1
 70
     0
  9
$USERI2
 70
     0
  9
$USERI3
 70
     0
  9
$USERI4
 70
     0
  9
$USERI5
 70
     0
  9
$USERR1
 40
0.0
  9
$USERR2
 40
0.0
  9
$USERR3
 40
0.0
  9
$USERR4
 40
0.0
  9
$USERR5
 40
0.0
  9
$WORLDVIEW
 70
     1
  9
$SHADEDGE
 70
     3
  9
$SHADEDIF
 70
    70
  9
$TILEMODE
 70
     1
  9
$MAXACTVP
 70
    64
  9
$PINSBASE
 10
0.0
 20
0.0
 30
0.0
  9
$PLIMCHECK
 70
     0
  9
$PEXTMIN
 10
1.0000000000E+20
 20
1.0000000000E+20
 30
1.0000000000E+20
  9
$PEXTMAX
 10
-1.0000000000E+20
 20
-1.0000000000E+20
 30
-1.0000000000E+20
  9
$PLIMMIN
 10
0.0
 20
0.0
  9
$PLIMMAX
 10
420.0
 20
297.0
  9
$UNITMODE
 70
     0
  9
$VISRETAIN
 70
     1
  9
$PLINEGEN
 70
     0
  9
$PSLTSCALE
 70
     1
  9
$TREEDEPTH
 70
  3020
  9
$CMLSTYLE
  2
Standard
  9
$CMLJUST
 70
     0
  9
$CMLSCALE
 40
20.0
  9
$PROXYGRAPHICS
 70
     1
  9
$MEASUREMENT
 70
     1
  9
$CELWEIGHT
370
    -1
  9
$ENDCAPS
280
     0
  9
$JOINSTYLE
280
     0
  9
$LWDISPLAY
290
     1
  9
$INSUNITS
 70
     4
  9
$HYPERLINKBASE
  1

  9
$STYLESHEET
  1

  9
$XEDIT
290
     1
  9
$CEPSNTYPE
380
     0
  9
$PSTYLEMODE
290
     1
  9
$FINGERPRINTGUID
  2
{FED4A107-C1DD-454E-B874-F57F022A2BAE}
  9
$VERSIONGUID
  2
{FAEB1C32-E019-11D5-929B-00C0DF256EC4}
  9
$EXTNAMES
290
     1
  9
$PSVPSCALE
 40
0.0
  9
$OLESTARTUP
290
     0
  0
ENDSEC
  0
SECTION
  2
CLASSES
  0
CLASS
  1
ACDBDICTIONARYWDFLT
  2
AcDbDictionaryWithDefault
  3
ObjectDBX Classes
 90
        0
280
     0
281
     0
  0
CLASS
  1
VISUALSTYLE
  2
AcDbVisualStyle
  3
ObjectDBX Classes
 90
     4095
280
     0
281
     0
  0
CLASS
  1
MATERIAL
  2
AcDbMaterial
  3
ObjectDBX Classes
 90
     1153
280
     0
281
     0
  0
CLASS
  1
SCALE
  2
AcDbScale
  3
ObjectDBX Classes
 90
     1153
280
     0
281
     0
  0
CLASS
  1
TABLESTYLE
  2
AcDbTableStyle
  3
ObjectDBX Classes
 90
     4095
280
     0
281
     0
  0
CLASS
  1
MLEADERSTYLE
  2
AcDbMLeaderStyle
  3
ACDB_MLEADERSTYLE_CLASS
 90
     4095
280
     0
281
     0
  0
CLASS
  1
SUN
  2
AcDbSun
  3
SCENEOE
 90
     1153
280
     0
281
     0
  0
CLASS
  1
ACDBPLACEHOLDER
  2
AcDbPlaceHolder
  3
ObjectDBX Classes
 90
        0
280
     0
281
     0
  0
CLASS
  1
LAYOUT
  2
AcDbLayout
  3
ObjectDBX Classes
 90
        0
280
     0
281
     0
  0
ENDSEC
  0
SECTION
  2
TABLES
  0
TABLE
  2
VPORT
  5
8
330
0
100
AcDbSymbolTable
 70
     1
  0
VPORT
  5
29
330
8
100
AcDbSymbolTableRecord
100
AcDbViewportTableRecord
  2
*Active
 70
     0
 10
0.0
 20
0.0
 11
1.0
 21
1.0
 12
148.5
 22
105.0
 13
0.0
 23
0.0
 14
10.0
 24
10.0
 15
10.0
 25
10.0
 16
0.0
 26
0.0
 36
1.0
 17
0.0
 27
0.0
 37
0.0
 40
210.0
 41
1.4142857143
 42
50.0
 43
0.0
 44
0.0
 50
0.0
 51
0.0
 71
     0
 72
  2000
 73
     1
 74
     3
 75
     0
 76
     0
 77
     0
 78
     0
281
     0
 65
     1
110
0.0
120
0.0
130
0.0
111
1.0
121
0.0
131
0.0
112
0.0
122
1.0
132
0.0
 79
     0
146
0.0
  0
ENDTAB
  0
TABLE
  2
LTYPE
  5
5
330
0
100
AcDbSymbolTable
 70
     6
  0
LTYPE
  5
14
330
5
100
AcDbSymbolTableRecord
100
AcDbLinetypeTableRecord
  2
ByBlock
 70
     0
  3

 72
    65
 73
     0
 40
0.0
  0
LTYPE
  5
15
330
5
100
AcDbSymbolTableRecord
100
AcDbLinetypeTableRecord
  2
ByLayer
 70
     0
  3

 72
    65
 73
     0
 40
0.0
  0
LTYPE
  5
16
330
5
100
AcDbSymbolTableRecord
100
AcDbLinetypeTableRecord
  2
Continuous
 70
     0
  3
Solid line
 72
    65
 73
     0
 40
0.0
  0
LTYPE
  5
6E
330
5
100
AcDbSymbolTableRecord
100
AcDbLinetypeTableRecord
  2
HIDDEN
 70
     0
  3
Hidden __ __ __ __ __ __ __ __ __ __ __ __ __ __
 72
    65
 73
     2
 40
1.905
 49
1.27
 74
     0
 49
-0.635
 74
     0
  0
LTYPE
  5
6F
330
5
100
AcDbSymbolTableRecord
100
AcDbLinetypeTableRecord
  2
PHANTOM
 70
     0
  3
Phantom ______  __  __  ______  __  __  ______
 72
    65
 73
     6
 40
12.7
 49
6.35
 74
     0
 49
-1.27
 74
     0
 49
1.27
 74
     0
 49
-1.27
 74
     0
 49
1.27
 74
     0
 49
-1.27
 74
     0
  0
LTYPE
  5
70
330
5
100
AcDbSymbolTableRecord
100
AcDbLinetypeTableRecord
  2
CENTER
 70
     0
  3
Center ____ _ ____ _ ____ _ ____ _ ____ _ ____
 72
    65
 73
     4
 40
10.16
 49
6.35
 74
     0
 49
-1.27
 74
     0
 49
1.27
 74
     0
 49
-1.27
 74
     0
  0
LTYPE
  5
71
330
5
100
AcDbSymbolTableRecord
100
AcDbLinetypeTableRecord
  2
CENTERX2
 70
     0
  3
Center (2x) ________  __  ________  __  _____
 72
    65
 73
     4
 40
20.32
 49
12.7
 74
     0
 49
-2.54
 74
     0
 49
2.54
 74
     0
 49
-2.54
 74
     0
  0
LTYPE
  5
72
330
5
100
AcDbSymbolTableRecord
100
AcDbLinetypeTableRecord
  2
DOT2
 70
     0
  3
Dot (.5x) ........................................
 72
    65
 73
     2
 40
0.635
 49
0.0
 74
     0
 49
-0.635
 74
     0
  0
ENDTAB
  0
TABLE
  2
LAYER
  5
2
330
0
100
AcDbSymbolTable
 70
     5
  0
LAYER
  5
10
330
2
100
AcDbSymbolTableRecord
100
AcDbLayerTableRecord
  2
0
 70
     0
 62
     7
  6
Continuous
370
    -3
390
F
  0
LAYER
  5
73
330
2
100
AcDbSymbolTableRecord
100
AcDbLayerTableRecord
  2
FORMAT
 70
     0
 62
     7
  6
Continuous
370
    -3
390
F
  0
LAYER
  5
74
330
2
100
AcDbSymbolTableRecord
100
AcDbLayerTableRecord
  2
VERMASSUNG
 70
     0
 62
     7
  6
Continuous
370
    -3
390
F
  0
LAYER
  5
75
330
2
100
AcDbSymbolTableRecord
100
AcDbLayerTableRecord
  2
KOPF_DÜNN
 70
     0
 62
     7
  6
Continuous
370
    -3
390
F
  0
LAYER
  5
76
330
2
100
AcDbSymbolTableRecord
100
AcDbLayerTableRecord
  2
KOPF_DICK
 70
     0
 62
     7
  6
Continuous
370
    15
390
F
  0
ENDTAB
  0
TABLE
  2
STYLE
  5
3
330
0
100
AcDbSymbolTable
 70
     2
  0
STYLE
  5
11
330
3
100
AcDbSymbolTableRecord
100
AcDbTextStyleTableRecord
  2
Standard
 70
     0
 40
0.0
 41
1.0
 50
0.0
 71
     0
 42
2.0
  3
txt
  4

  0
STYLE
  5
77
330
3
100
AcDbSymbolTableRecord
100
AcDbTextStyleTableRecord
  2
SLDTEXTSTYLE0
 70
     0
 40
0.0
 41
0.7
 50
0.0
 71
     0
 42
2.0
  3
TXT
  4

  0
ENDTAB
  0
TABLE
  2
VIEW
  5
6
330
0
100
AcDbSymbolTable
 70
     0
  0
ENDTAB
  0
TABLE
  2
UCS
  5
7
330
0
100
AcDbSymbolTable
 70
     0
  0
ENDTAB
  0
TABLE
  2
APPID
  5
9
330
0
100
AcDbSymbolTable
 70
     1
  0
APPID
  5
12
330
9
100
AcDbSymbolTableRecord
100
AcDbRegAppTableRecord
  2
ACAD
 70
     0
  0
ENDTAB
  0
TABLE
  2
DIMSTYLE
  5
A
330
0
100
AcDbSymbolTable
 70
     2
100
AcDbDimStyleTable
  0
DIMSTYLE
105
27
330
A
100
AcDbSymbolTableRecord
100
AcDbDimStyleTableRecord
  2
ISO-25
 70
     0
 41
2.5
 42
0.625
 43
3.75
 44
1.25
 73
     0
 74
     0
 77
     1
 78
     8
140
2.5
141
2.5
143
0.0393700787
147
0.625
171
     3
172
     1
178
     0
271
     2
272
     2
274
     3
278
    44
283
     0
284
     8
340
11
  0
DIMSTYLE
105
164
102
{ACAD_REACTORS
330
163
330
170
330
17C
330
187
330
193
330
19D
102
}
330
A
100
AcDbSymbolTableRecord
100
AcDbDimStyleTableRecord
  2
SLDDIMSTYLE0
 70
     0
 41
3.0
 44
0.0
 45
0.000000001
 73
     0
 74
     0
 77
     1
 78
    12
 79
     3
140
2.0
147
0.5
173
     1
178
     0
271
     2
272
     3
276
     2
284
    12
340
77
  0
ENDTAB
  0
TABLE
  2
BLOCK_RECORD
  5
1
330
0
100
AcDbSymbolTable
 70
     7
  0
BLOCK_RECORD
  5
1F
330
1
100
AcDbSymbolTableRecord
100
AcDbBlockTableRecord
  2
*Model_Space
340
22
  0
BLOCK_RECORD
  5
1B
330
1
100
AcDbSymbolTableRecord
100
AcDbBlockTableRecord
  2
*Paper_Space
340
1E
  0
BLOCK_RECORD
  5
23
330
1
100
AcDbSymbolTableRecord
100
AcDbBlockTableRecord
  2
*Paper_Space0
340
26
  0
BLOCK_RECORD
  5
165
330
1
100
AcDbSymbolTableRecord
100
AcDbBlockTableRecord
  2
_D
340
0
  0
BLOCK_RECORD
  5
171
330
1
100
AcDbSymbolTableRecord
100
AcDbBlockTableRecord
  2
_D_1
340
0
  0
BLOCK_RECORD
  5
17D
330
1
100
AcDbSymbolTableRecord
100
AcDbBlockTableRecord
  2
_D_2
340
0
  0
BLOCK_RECORD
  5
188
330
1
100
AcDbSymbolTableRecord
100
AcDbBlockTableRecord
  2
_D_3
340
0
  0
BLOCK_RECORD
  5
194
330
1
100
AcDbSymbolTableRecord
100
AcDbBlockTableRecord
  2
_D_4
340
0
  0
BLOCK_RECORD
  5
19E
330
1
100
AcDbSymbolTableRecord
100
AcDbBlockTableRecord
  2
_D_5
340
0
  0
ENDTAB
  0
ENDSEC
  0
SECTION
  2
BLOCKS
  0
BLOCK
  5
20
330
1F
100
AcDbEntity
  8
0
100
AcDbBlockBegin
  2
*Model_Space
 70
     0
 10
0.0
 20
0.0
 30
0.0
  3
*Model_Space
  1

  0
ENDBLK
  5
21
330
1F
100
AcDbEntity
  8
0
100
AcDbBlockEnd
  0
BLOCK
  5
1C
330
1B
100
AcDbEntity
 67
     1
  8
0
100
AcDbBlockBegin
  2
*Paper_Space
 70
     0
 10
0.0
 20
0.0
 30
0.0
  3
*Paper_Space
  1

  0
ENDBLK
  5
1D
330
1B
100
AcDbEntity
 67
     1
  8
0
100
AcDbBlockEnd
  0
BLOCK
  5
24
330
23
100
AcDbEntity
  8
0
100
AcDbBlockBegin
  2
*Paper_Space0
 70
     0
 10
0.0
 20
0.0
 30
0.0
  3
*Paper_Space0
  1

  0
ENDBLK
  5
25
330
23
100
AcDbEntity
  8
0
100
AcDbBlockEnd
  0
BLOCK
  5
166
330
165
100
AcDbEntity
  8
0
100
AcDbBlockBegin
  2
_D
 70
     0
 10
0.0
 20
0.0
 30
0.0
  3
_D
  1

  0
SOLID
  5
168
330
165
100
AcDbEntity
  8
VERMASSUNG
100
AcDbTrace
 10
104.3684859369
 20
143.3439859953
 30
0.0
 11
103.9184859369
 21
140.3439859953
 31
0.0
 12
104.8184859369
 22
140.3439859953
 32
0.0
 13
104.8184859369
 23
140.3439859953
 33
0.0
  0
SOLID
  5
169
330
165
100
AcDbEntity
  8
VERMASSUNG
100
AcDbTrace
 10
104.3684859369
 20
80.3439859953
 30
0.0
 11
104.8184859369
 21
83.3439859953
 31
0.0
 12
103.9184859369
 22
83.3439859953
 32
0.0
 13
103.9184859369
 23
83.3439859953
 33
0.0
  0
LINE
  5
16A
330
165
100
AcDbEntity
  8
VERMASSUNG
100
AcDbLine
 10
146.7137897793
 20
143.3439859953
 30
0.0
 11
103.3684859369
 21
143.3439859953
 31
0.0
  0
LINE
  5
16B
330
165
100
AcDbEntity
  8
VERMASSUNG
100
AcDbLine
 10
146.7137897793
 20
80.3439859953
 30
0.0
 11
103.3684859369
 21
80.3439859953
 31
0.0
  0
LINE
  5
16C
330
165
100
AcDbEntity
  8
VERMASSUNG
100
AcDbLine
 10
104.3684859369
 20
143.3439859953
 30
0.0
 11
104.3684859369
 21
80.3439859953
 31
0.0
  0
MTEXT
  5
16D
330
165
100
AcDbEntity
  8
VERMASSUNG
100
AcDbMText
 10
101.5903506807
 20
104.1389866975
 30
0.0
 40
2.0
 41
0.0
 71
     1
 72
     1
  1
HSK A
  7
SLDTEXTSTYLE0
 11
-7.044195017643634E-15
 21
1.0
 31
0.0
 73
     1
 44
1.0
  0
MTEXT
  5
16E
330
165
100
AcDbEntity
  8
VERMASSUNG
100
AcDbMText
 10
101.790350632
 20
113.13898631
 30
0.0
 40
2.0
 41
0.0
 71
     1
 72
     1
  1
%%c
  7
SLDTEXTSTYLE0
 11
-7.044195017643634E-15
 21
1.0
 31
0.0
 73
     1
 44
1.0
  0
MTEXT
  5
16F
330
165
100
AcDbEntity
  8
VERMASSUNG
100
AcDbMText
 10
101.5903506807
 20
116.7489863243
 30
0.0
 40
2.0
 41
0.0
 71
     1
 72
     1
  1
63
  7
SLDTEXTSTYLE0
 11
-7.044195017643634E-15
 21
1.0
 31
0.0
 73
     1
 44
1.0
  0
ENDBLK
  5
167
330
165
100
AcDbEntity
  8
0
100
AcDbBlockEnd
  0
BLOCK
  5
172
330
171
100
AcDbEntity
  8
0
100
AcDbBlockBegin
  2
_D_1
 70
     0
 10
0.0
 20
0.0
 30
0.0
  3
_D_1
  1

  0
SOLID
  5
174
330
171
100
AcDbEntity
  8
VERMASSUNG
100
AcDbTrace
 10
199.8162519914
 20
121.8439859953
 30
0.0
 11
199.3662519914
 21
118.8439859953
 31
0.0
 12
200.2662519914
 22
118.8439859953
 32
0.0
 13
200.2662519914
 23
118.8439859953
 33
0.0
  0
SOLID
  5
175
330
171
100
AcDbEntity
  8
VERMASSUNG
100
AcDbTrace
 10
199.8162519914
 20
101.8439859953
 30
0.0
 11
200.2662519914
 21
104.8439859953
 31
0.0
 12
199.3662519914
 22
104.8439859953
 32
0.0
 13
199.3662519914
 23
104.8439859953
 33
0.0
  0
LINE
  5
176
330
171
100
AcDbEntity
  8
VERMASSUNG
100
AcDbLine
 10
188.2137897793
 20
121.8439859953
 30
0.0
 11
200.8162519914
 21
121.8439859953
 31
0.0
  0
LINE
  5
177
330
171
100
AcDbEntity
  8
VERMASSUNG
100
AcDbLine
 10
188.2137897793
 20
101.8439859953
 30
0.0
 11
200.8162519914
 21
101.8439859953
 31
0.0
  0
LINE
  5
178
330
171
100
AcDbEntity
  8
VERMASSUNG
100
AcDbLine
 10
199.8162519914
 20
121.8439859953
 30
0.0
 11
199.8162519914
 21
101.8439859953
 31
0.0
  0
MTEXT
  5
179
330
171
100
AcDbEntity
  8
VERMASSUNG
100
AcDbMText
 10
197.0381167351
 20
106.738986006
 30
0.0
 40
2.0
 41
0.0
 71
     1
 72
     1
  1
WH
  7
SLDTEXTSTYLE0
 11
-7.044195017643634E-15
 21
1.0
 31
0.0
 73
     1
 44
1.0
  0
MTEXT
  5
17A
330
171
100
AcDbEntity
  8
VERMASSUNG
100
AcDbMText
 10
197.2381166864
 20
110.5389860701
 30
0.0
 40
2.0
 41
0.0
 71
     1
 72
     1
  1
%%c
  7
SLDTEXTSTYLE0
 11
-7.044195017643634E-15
 21
1.0
 31
0.0
 73
     1
 44
1.0
  0
MTEXT
  5
17B
330
171
100
AcDbEntity
  8
VERMASSUNG
100
AcDbMText
 10
197.0381167351
 20
114.1489860844
 30
0.0
 40
2.0
 41
0.0
 71
     1
 72
     1
  1
20
  7
SLDTEXTSTYLE0
 11
-7.044195017643634E-15
 21
1.0
 31
0.0
 73
     1
 44
1.0
  0
ENDBLK
  5
173
330
171
100
AcDbEntity
  8
0
100
AcDbBlockEnd
  0
BLOCK
  5
17E
330
17D
100
AcDbEntity
  8
0
100
AcDbBlockBegin
  2
_D_2
 70
     0
 10
0.0
 20
0.0
 30
0.0
  3
_D_2
  1

  0
SOLID
  5
180
330
17D
100
AcDbEntity
  8
VERMASSUNG
100
AcDbTrace
 10
193.5162519914
 20
117.3439859953
 30
0.0
 11
193.0662519914
 21
114.3439859953
 31
0.0
 12
193.9662519914
 22
114.3439859953
 32
0.0
 13
193.9662519914
 23
114.3439859953
 33
0.0
  0
SOLID
  5
181
330
17D
100
AcDbEntity
  8
VERMASSUNG
100
AcDbTrace
 10
193.5162519914
 20
106.3439859953
 30
0.0
 11
193.9662519914
 21
109.3439859953
 31
0.0
 12
193.0662519914
 22
109.3439859953
 32
0.0
 13
193.0662519914
 23
109.3439859953
 33
0.0
  0
LINE
  5
182
330
17D
100
AcDbEntity
  8
VERMASSUNG
100
AcDbLine
 10
187.4137897793
 20
117.3439859953
 30
0.0
 11
194.5162519914
 21
117.3439859953
 31
0.0
  0
LINE
  5
183
330
17D
100
AcDbEntity
  8
VERMASSUNG
100
AcDbLine
 10
187.4137897793
 20
106.3439859953
 30
0.0
 11
194.5162519914
 21
106.3439859953
 31
0.0
  0
LINE
  5
184
330
17D
100
AcDbEntity
  8
VERMASSUNG
100
AcDbLine
 10
193.5162519914
 20
117.3439859953
 30
0.0
 11
193.5162519914
 21
106.3439859953
 31
0.0
  0
MTEXT
  5
185
330
17D
100
AcDbEntity
  8
VERMASSUNG
100
AcDbMText
 10
190.9381166864
 20
109.0389858242
 30
0.0
 40
2.0
 41
0.0
 71
     1
 72
     1
  1
%%c
  7
SLDTEXTSTYLE0
 11
-7.044195017643634E-15
 21
1.0
 31
0.0
 73
     1
 44
1.0
  0
MTEXT
  5
186
330
17D
100
AcDbEntity
  8
VERMASSUNG
100
AcDbMText
 10
190.7381167351
 20
112.6489858386
 30
0.0
 40
2.0
 41
0.0
 71
     1
 72
     1
  1
11
  7
SLDTEXTSTYLE0
 11
-7.044195017643634E-15
 21
1.0
 31
0.0
 73
     1
 44
1.0
  0
ENDBLK
  5
17F
330
17D
100
AcDbEntity
  8
0
100
AcDbBlockEnd
  0
BLOCK
  5
189
330
188
100
AcDbEntity
  8
0
100
AcDbBlockBegin
  2
_D_3
 70
     0
 10
0.0
 20
0.0
 30
0.0
  3
_D_3
  1

  0
ARC
  5
18B
330
188
100
AcDbEntity
  8
VERMASSUNG
100
AcDbCircle
 10
181.2887899093
 20
148.3336385138
 30
0.0
 40
4.248529228887633
100
AcDbArc
 50
153.4349488229
 51
206.5650511771
  0
ARC
  5
18C
330
188
100
AcDbEntity
  8
VERMASSUNG
100
AcDbCircle
 10
179.4887897074
 20
148.3336385138
 30
0.0
 40
4.248529228887608
100
AcDbArc
 50
333.4349488229
 51
26.5650511771
  0
SOLID
  5
18D
330
188
100
AcDbEntity
  8
VERMASSUNG
100
AcDbTrace
 10
188.4137897793
 20
146.433638249
 30
0.0
 11
185.4137897793
 21
146.883638249
 31
0.0
 12
185.4137897793
 22
145.983638249
 32
0.0
 13
185.4137897793
 23
145.983638249
 33
0.0
  0
SOLID
  5
18E
330
188
100
AcDbEntity
  8
VERMASSUNG
100
AcDbTrace
 10
172.3637897793
 20
146.433638249
 30
0.0
 11
175.3637897793
 21
145.983638249
 31
0.0
 12
175.3637897793
 22
146.883638249
 32
0.0
 13
175.3637897793
 23
146.883638249
 33
0.0
  0
LINE
  5
18F
330
188
100
AcDbEntity
  8
VERMASSUNG
100
AcDbLine
 10
188.4137897793
 20
121.6439859953
 30
0.0
 11
188.4137897793
 21
147.433638249
 31
0.0
  0
LINE
  5
190
330
188
100
AcDbEntity
  8
VERMASSUNG
100
AcDbLine
 10
172.3637897793
 20
141.6904263191
 30
0.0
 11
172.3637897793
 21
147.433638249
 31
0.0
  0
LINE
  5
191
330
188
100
AcDbEntity
  8
VERMASSUNG
100
AcDbLine
 10
188.4137897793
 20
146.433638249
 30
0.0
 11
172.3637897793
 21
146.433638249
 31
0.0
  0
MTEXT
  5
192
330
188
100
AcDbEntity
  8
VERMASSUNG
100
AcDbMText
 10
177.4887898453
 20
149.0117740777
 30
0.0
 40
2.0
 41
0.0
 71
     1
 72
     1
  1
16.05
  7
SLDTEXTSTYLE0
 73
     1
 44
1.0
  0
ENDBLK
  5
18A
330
188
100
AcDbEntity
  8
0
100
AcDbBlockEnd
  0
BLOCK
  5
195
330
194
100
AcDbEntity
  8
0
100
AcDbBlockBegin
  2
_D_4
 70
     0
 10
0.0
 20
0.0
 30
0.0
  3
_D_4
  1

  0
SOLID
  5
197
330
194
100
AcDbEntity
  8
VERMASSUNG
100
AcDbTrace
 10
188.4137897793
 20
152.433638249
 30
0.0
 11
185.4137897793
 21
152.883638249
 31
0.0
 12
185.4137897793
 22
151.983638249
 32
0.0
 13
185.4137897793
 23
151.983638249
 33
0.0
  0
SOLID
  5
198
330
194
100
AcDbEntity
  8
VERMASSUNG
100
AcDbTrace
 10
146.4137897793
 20
152.433638249
 30
0.0
 11
149.4137897793
 21
151.983638249
 31
0.0
 12
149.4137897793
 22
152.883638249
 32
0.0
 13
149.4137897793
 23
152.883638249
 33
0.0
  0
LINE
  5
199
330
194
100
AcDbEntity
  8
VERMASSUNG
100
AcDbLine
 10
188.4137897793
 20
121.6439859953
 30
0.0
 11
188.4137897793
 21
153.433638249
 31
0.0
  0
LINE
  5
19A
330
194
100
AcDbEntity
  8
VERMASSUNG
100
AcDbLine
 10
146.4137897793
 20
143.0439859953
 30
0.0
 11
146.4137897793
 21
153.433638249
 31
0.0
  0
LINE
  5
19B
330
194
100
AcDbEntity
  8
VERMASSUNG
100
AcDbLine
 10
188.4137897793
 20
152.433638249
 30
0.0
 11
146.4137897793
 21
152.433638249
 31
0.0
  0
MTEXT
  5
19C
330
194
100
AcDbEntity
  8
VERMASSUNG
100
AcDbMText
 10
165.9137897662
 20
155.0117738449
 30
0.0
 40
2.0
 41
0.0
 71
     1
 72
     1
  1
42
  7
SLDTEXTSTYLE0
 73
     1
 44
1.0
  0
ENDBLK
  5
196
330
194
100
AcDbEntity
  8
0
100
AcDbBlockEnd
  0
BLOCK
  5
19F
330
19E
100
AcDbEntity
  8
0
100
AcDbBlockBegin
  2
_D_5
 70
     0
 10
0.0
 20
0.0
 30
0.0
  3
_D_5
  1

  0
ARC
  5
1A1
330
19E
100
AcDbEntity
  8
VERMASSUNG
100
AcDbCircle
 10
152.8637899913
 20
160.3336385138
 30
0.0
 40
4.248529228887633
100
AcDbArc
 50
153.4349488229
 51
206.5650511771
  0
ARC
  5
1A2
330
19E
100
AcDbEntity
  8
VERMASSUNG
100
AcDbCircle
 10
150.0637896255
 20
160.3336385138
 30
0.0
 40
4.248529228887608
100
AcDbArc
 50
333.4349488229
 51
26.5650511771
  0
SOLID
  5
1A3
330
19E
100
AcDbEntity
  8
VERMASSUNG
100
AcDbTrace
 10
188.4137897793
 20
158.433638249
 30
0.0
 11
185.4137897793
 21
158.883638249
 31
0.0
 12
185.4137897793
 22
157.983638249
 32
0.0
 13
185.4137897793
 23
157.983638249
 33
0.0
  0
SOLID
  5
1A4
330
19E
100
AcDbEntity
  8
VERMASSUNG
100
AcDbTrace
 10
114.5137897793
 20
158.433638249
 30
0.0
 11
117.5137897793
 21
157.983638249
 31
0.0
 12
117.5137897793
 22
158.883638249
 32
0.0
 13
117.5137897793
 23
158.883638249
 33
0.0
  0
LINE
  5
1A5
330
19E
100
AcDbEntity
  8
VERMASSUNG
100
AcDbLine
 10
188.4137897793
 20
121.6439859953
 30
0.0
 11
188.4137897793
 21
159.433638249
 31
0.0
  0
LINE
  5
1A6
330
19E
100
AcDbEntity
  8
VERMASSUNG
100
AcDbLine
 10
114.5137897793
 20
131.5346637418
 30
0.0
 11
114.5137897793
 21
159.433638249
 31
0.0
  0
LINE
  5
1A7
330
19E
100
AcDbEntity
  8
VERMASSUNG
100
AcDbLine
 10
188.4137897793
 20
158.433638249
 30
0.0
 11
114.5137897793
 21
158.433638249
 31
0.0
  0
MTEXT
  5
1A8
330
19E
100
AcDbEntity
  8
VERMASSUNG
100
AcDbMText
 10
149.0637899272
 20
161.0117740777
 30
0.0
 40
2.0
 41
0.0
 71
     1
 72
     1
  1
73.9
  7
SLDTEXTSTYLE0
 73
     1
 44
1.0
  0
ENDBLK
  5
1A0
330
19E
100
AcDbEntity
  8
0
100
AcDbBlockEnd
  0
ENDSEC
  0
SECTION
  2
ENTITIES
  0
MTEXT
  5
78
330
1F
100
AcDbEntity
  8
KOPF_DÜNN
100
AcDbMText
 10
13.8892156294
 20
23.8442973028
 30
0.0
 40
3.0
 41
0.0
 71
     1
 72
     1
  1
A44.806.020.042
  7
SLDTEXTSTYLE0
 73
     1
 44
1.0
  0
MTEXT
  5
79
330
1F
100
AcDbEntity
  8
VERMASSUNG
100
AcDbMText
 10
13.9329988022
 20
28.8834360957
 30
0.0
 40
3.0
 41
0.0
 71
     1
 72
     1
  1
Aufnahme Master shank WH20
  7
SLDTEXTSTYLE0
 73
     1
 44
1.0
  0
MTEXT
  5
7A
330
1F
100
AcDbEntity
  8
VERMASSUNG
100
AcDbMText
 10
98.8601118557
 20
13.8365368761
 30
0.0
 40
2.0
 41
0.0
 71
     1
 72
     1
  1
Datum: 25.11.2011
  7
SLDTEXTSTYLE0
 73
     1
 44
1.0
  0
MTEXT
  5
7B
330
1F
100
AcDbEntity
  8
VERMASSUNG
100
AcDbMText
 10
13.933048693
 20
18.0482802738
 30
0.0
 40
2.0
 41
0.0
 71
     1
 72
     1
  1
DIN 69893
  7
SLDTEXTSTYLE0
 73
     1
 44
1.0
  0
MTEXT
  5
7C
330
1F
100
AcDbEntity
  8
VERMASSUNG
100
AcDbMText
 10
13.9808475933
 20
13.9090974274
 30
0.0
 40
2.0
 41
0.0
 71
     1
 72
     1
  1
Gewicht: 667g
  7
SLDTEXTSTYLE0
 73
     1
 44
1.0
  0
ARC
  5
7D
330
1F
100
AcDbEntity
  8
0
  6
Continuous
 62
     7
370
    15
100
AcDbCircle
 10
146.7137897793
 20
80.6439859953
 30
0.0
 40
0.3000000000000114
100
AcDbArc
 50
180.0
 51
270.0
  0
ARC
  5
7E
330
1F
100
AcDbEntity
  8
0
  6
Continuous
 62
     7
370
    15
100
AcDbCircle
 10
146.7137897793
 20
143.0439859953
 30
0.0
 40
0.3000000000000114
100
AcDbArc
 50
90.0
 51
180.0
  0
LINE
  5
7F
330
1F
100
AcDbEntity
  8
0
  6
Continuous
 62
     7
370
    15
100
AcDbLine
 10
146.7137897793
 20
80.3439859953
 30
0.0
 11
151.3637897793
 21
80.3439859953
 31
0.0
  0
LINE
  5
80
330
1F
100
AcDbEntity
  8
0
  6
Continuous
 62
     7
370
    15
100
AcDbLine
 10
151.3917781384
 20
143.3439859953
 30
0.0
 11
146.7137897793
 21
143.3439859953
 31
0.0
  0
ARC
  5
81
330
1F
100
AcDbEntity
  8
0
  6
Continuous
 62
     7
370
    15
100
AcDbCircle
 10
145.9137830266
 20
87.2735483809
 30
0.0
 40
0.6000067526677361
100
AcDbArc
 50
33.5571153394
 51
90.0
  0
ARC
  5
82
330
1F
100
AcDbEntity
  8
0
  6
Continuous
 62
     7
370
    15
100
AcDbCircle
 10
145.9137830266
 20
136.4144236097
 30
0.0
 40
0.6000067526677282
100
AcDbArc
 50
270.0
 51
326.4428846606
  0
LINE
  5
83
330
1F
100
AcDbEntity
  8
0
  6
Continuous
 62
     7
370
    15
100
AcDbLine
 10
144.4137897793
 20
87.6235551336
 30
0.0
 11
145.2705025527
 21
87.8531106294
 31
0.0
  0
LINE
  5
84
330
1F
100
AcDbEntity
  8
0
  6
Continuous
 62
     7
370
    15
100
AcDbLine
 10
145.2705025527
 20
135.8348613613
 30
0.0
 11
144.4137897793
 21
136.064416857
 31
0.0
  0
LINE
  5
85
330
1F
100
AcDbEntity
  8
0
  6
Continuous
 62
     7
370
    15
100
AcDbLine
 10
133.1822809804
 20
135.5017160154
 30
0.0
 11
120.6137897793
 21
134.8720320875
 31
0.0
  0
LINE
  5
86
330
1F
100
AcDbEntity
  8
0
  6
Continuous
 62
     7
370
    15
100
AcDbLine
 10
144.4137897793
 20
136.064416857
 30
0.0
 11
141.5967881219
 21
135.9232845095
 31
0.0
  0
LINE
  5
87
330
1F
100
AcDbEntity
  8
0
  6
Continuous
 62
     7
370
    15
100
AcDbLine
 10
141.596844212
 20
87.764684671
 30
0.0
 11
144.4137897793
 21
87.6235551336
 31
0.0
  0
LINE
  5
88
330
1F
100
AcDbEntity
  8
0
  6
Continuous
 62
     7
370
    15
100
AcDbLine
 10
124.6137897793
 20
88.6155391015
 30
0.0
 11
133.1826834991
 21
88.1862358089
 31
0.0
  0
ARC
  5
89
330
1F
100
AcDbEntity
  8
0
  6
Continuous
 62
     7
370
    15
100
AcDbCircle
 10
145.4257939797
 20
87.2735551336
 30
0.0
 40
0.6000000000000085
100
AcDbArc
 50
90.0
 51
105.0
  0
ARC
  5
8A
330
1F
100
AcDbEntity
  8
0
  6
Continuous
 62
     7
370
    15
100
AcDbCircle
 10
145.4257939797
 20
136.414416857
 30
0.0
 40
0.5999999999999943
100
AcDbArc
 50
255.0
 51
270.0
  0
LINE
  5
8B
330
1F
100
AcDbEntity
  8
0
  6
Continuous
 62
     7
370
    15
100
AcDbLine
 10
145.4257939797
 20
87.8735551336
 30
0.0
 11
145.9137830266
 21
87.8735551336
 31
0.0
  0
LINE
  5
8C
330
1F
100
AcDbEntity
  8
0
  6
Continuous
 62
     7
370
    15
100
AcDbLine
 10
145.9137830266
 20
135.814416857
 30
0.0
 11
145.4257939797
 21
135.814416857
 31
0.0
  0
ARC
  5
8D
330
1F
100
AcDbEntity
  8
0
  6
Continuous
 62
     7
370
    15
100
AcDbCircle
 10
175.3637897793
 20
98.8439859953
 30
0.0
 40
3.0
100
AcDbArc
 50
90.0
 51
180.0
  0
ARC
  5
8E
330
1F
100
AcDbEntity
  8
0
  6
Continuous
 62
     7
370
    15
100
AcDbCircle
 10
175.3637897793
 20
124.8439859953
 30
0.0
 40
3.0
100
AcDbArc
 50
180.0
 51
270.0
  0
LINE
  5
8F
330
1F
100
AcDbEntity
  8
0
  6
Continuous
 62
     7
370
    15
100
AcDbLine
 10
115.8082089057
 20
90.9739859953
 30
0.0
 11
123.2137897793
 21
90.9739859953
 31
0.0
  0
ARC
  5
90
330
1F
100
AcDbEntity
  8
0
  6
Continuous
 62
     7
370
    15
100
AcDbCircle
 10
123.2137897793
 20
89.5739859953
 30
0.0
 40
1.399999999999997
100
AcDbArc
 50
42.2465410162
 51
90.0
  0
LINE
  5
91
330
1F
100
AcDbEntity
  8
0
  6
Continuous
 62
     7
370
    15
100
AcDbLine
 10
114.5249502144
 20
92.1128255602
 30
0.0
 11
115.6549532375
 21
90.9828225371
 31
0.0
  0
LINE
  5
92
330
1F
100
AcDbEntity
  8
0
  6
Continuous
 62
     7
370
    15
100
AcDbLine
 10
115.6549532375
 20
132.7051494535
 30
0.0
 11
114.5236905527
 21
131.5738867687
 31
0.0
  0
LINE
  5
93
330
1F
100
AcDbEntity
  8
0
  6
Continuous
 62
     7
370
    15
100
AcDbLine
 10
188.2137897793
 20
101.8439859953
 30
0.0
 11
188.4137897793
 21
102.0439859953
 31
0.0
  0
LINE
  5
94
330
1F
100
AcDbEntity
  8
0
  6
Continuous
 62
     7
370
    15
100
AcDbLine
 10
188.4137897793
 20
121.6439859953
 30
0.0
 11
188.2137897793
 21
121.8439859953
 31
0.0
  0
LINE
  5
95
330
1F
100
AcDbEntity
  8
0
  6
Continuous
 62
     7
370
    15
100
AcDbLine
 10
175.3637897793
 20
101.8439859953
 30
0.0
 11
188.2137897793
 21
101.8439859953
 31
0.0
  0
LINE
  5
96
330
1F
100
AcDbEntity
  8
0
  6
Continuous
 62
     7
370
    15
100
AcDbLine
 10
188.2137897793
 20
121.8439859953
 30
0.0
 11
175.3637897793
 21
121.8439859953
 31
0.0
  0
ARC
  5
97
330
1F
100
AcDbEntity
  8
0
  6
Continuous
 62
     7
370
    15
100
AcDbCircle
 10
119.2137897793
 20
134.1139859953
 30
0.0
 40
1.40000000000001
100
AcDbArc
 50
270.0
 51
303.0982988698
  0
LINE
  5
98
330
1F
100
AcDbEntity
  8
0
  6
Continuous
 62
     7
370
    15
100
AcDbLine
 10
119.2137897793
 20
132.7139859953
 30
0.0
 11
115.8046781807
 21
132.7139859953
 31
0.0
  0
SPLINE
  5
99
330
1F
100
AcDbEntity
  8
0
  6
Continuous
 62
     7
370
    15
100
AcDbSpline
210
0.0
220
0.0
230
1.0
 70
    24
 71
     3
 72
    10
 73
     6
 74
     0
 42
0.000000001
 43
0.00000001
 40
0.0
 40
0.0
 40
0.0
 40
0.0
 40
0.4391119879276967
 40
0.7513633230734728
 40
1.0
 40
1.0
 40
1.0
 40
1.0
 10
182.3110873477984
 20
110.401572813504
 30
0.0
 10
182.4936854801915
 20
110.4982840547865
 30
0.0
 10
182.8061286457481
 20
110.6637663955704
 30
0.0
 10
183.260322962618
 20
110.9043257900848
 30
0.0
 10
183.4863910467656
 20
111.0240604486255
 30
0.0
 10
183.5866050217335
 20
111.07713775991
 30
0.0
  0
SPLINE
  5
9A
330
1F
100
AcDbEntity
  8
0
  6
Continuous
 62
     7
370
    15
100
AcDbSpline
210
0.0
220
0.0
230
1.0
 70
    24
 71
     3
 72
    11
 73
     7
 74
     0
 42
0.000000001
 43
0.00000001
 40
0.0
 40
0.0
 40
0.0
 40
0.0
 40
0.18550709127912
 40
0.5226425778602846
 40
0.8775754485095749
 40
1.0
 40
1.0
 40
1.0
 40
1.0
 10
183.6393074532072
 20
112.5195509417169
 30
0.0
 10
183.5679156526007
 20
112.5643219540629
 30
0.0
 10
183.3667783567173
 20
112.6904585731247
 30
0.0
 10
182.9904014782985
 20
112.9264909147565
 30
0.0
 10
182.6461234588853
 20
113.1423935159892
 30
0.0
 10
182.4633634136122
 20
113.2570054486449
 30
0.0
 10
182.4164922107457
 20
113.2863991771177
 30
0.0
  0
SPLINE
  5
9B
330
1F
100
AcDbEntity
  8
0
  6
Continuous
 62
     7
370
    15
100
AcDbSpline
210
0.0
220
0.0
230
1.0
 70
    24
 71
     3
 72
    10
 73
     6
 74
     0
 42
0.000000001
 43
0.00000001
 40
0.0
 40
0.0
 40
0.0
 40
0.0
 40
0.43911198792768
 40
0.7513633230734834
 40
1.0
 40
1.0
 40
1.0
 40
1.0
 10
181.1409745368107
 20
112.6108342307117
 30
0.0
 10
181.1334298623962
 20
112.4043439887344
 30
0.0
 10
181.1205201906146
 20
112.0510190997316
 30
0.0
 10
181.1017535789481
 20
111.5373955858105
 30
0.0
 10
181.092412792884
 20
111.2817475526835
 30
0.0
 10
181.088272105337
 20
111.1684210489048
 30
0.0
  0
SPLINE
  5
9C
330
1F
100
AcDbEntity
  8
0
  6
Continuous
 62
     7
370
    15
100
AcDbSpline
210
0.0
220
0.0
230
1.0
 70
    24
 71
     3
 72
    11
 73
     7
 74
     0
 42
0.000000001
 43
0.00000001
 40
0.0
 40
0.0
 40
0.0
 40
0.0
 40
0.1224245514903792
 40
0.4773574221397146
 40
0.8144929087208594
 40
0.9999999999999999
 40
0.9999999999999999
 40
0.9999999999999999
 40
0.9999999999999999
 10
181.088272105337
 20
111.1684210489048
 30
0.0
 10
181.1351433082034
 20
111.1390273204321
 30
0.0
 10
181.3179033534765
 20
111.0244153877763
 30
0.0
 10
181.6621813728898
 20
110.8085127865437
 30
0.0
 10
182.0385582513086
 20
110.572480444912
 30
0.0
 10
182.2396955471919
 20
110.4463438258501
 30
0.0
 10
182.3110873477984
 20
110.401572813504
 30
0.0
  0
CIRCLE
  5
9D
330
1F
100
AcDbEntity
  8
0
  6
Continuous
 62
     7
370
    15
100
AcDbCircle
 10
182.3637897793
 20
111.8439859953
 30
0.0
 40
1.550000000000015
  0
SPLINE
  5
9E
330
1F
100
AcDbEntity
  8
0
  6
Continuous
 62
     7
370
    15
100
AcDbSpline
210
0.0
220
0.0
230
1.0
 70
    24
 71
     3
 72
    10
 73
     6
 74
     0
 42
0.000000001
 43
0.00000001
 40
0.0
 40
0.0
 40
0.0
 40
0.0
 40
0.4391119879276806
 40
0.7513633230734644
 40
1.0
 40
1.0
 40
1.0
 40
1.0
 10
182.4164922107457
 20
113.2863991771177
 30
0.0
 10
182.2338940783526
 20
113.1896879358352
 30
0.0
 10
181.9214509127961
 20
113.0242055950512
 30
0.0
 10
181.4672565959261
 20
112.7836462005369
 30
0.0
 10
181.2411885117785
 20
112.6639115419962
 30
0.0
 10
181.1409745368106
 20
112.6108342307117
 30
0.0
  0
SPLINE
  5
9F
330
1F
100
AcDbEntity
  8
0
  6
Continuous
 62
     7
370
    15
100
AcDbSpline
210
0.0
220
0.0
230
1.0
 70
    24
 71
     3
 72
    10
 73
     6
 74
     0
 42
0.000000001
 43
0.00000001
 40
0.0
 40
0.0
 40
0.0
 40
0.0
 40
0.4391119879276791
 40
0.7513633230734503
 40
1.0
 40
1.0
 40
1.0
 40
1.0
 10
183.5866050217335
 20
111.07713775991
 30
0.0
 10
183.5941496961479
 20
111.2836280018873
 30
0.0
 10
183.6070593679295
 20
111.6369528908901
 30
0.0
 10
183.6258259795962
 20
112.1505764048111
 30
0.0
 10
183.6351667656602
 20
112.4062244379382
 30
0.0
 10
183.6393074532072
 20
112.5195509417169
 30
0.0
  0
CIRCLE
  5
A0
330
1F
100
AcDbEntity
  8
0
  6
Continuous
 62
     7
370
    15
100
AcDbCircle
 10
182.3637897793
 20
111.8439859953
 30
0.0
 40
2.199999999999998
  0
CIRCLE
  5
A1
330
1F
100
AcDbEntity
  8
0
  6
Continuous
 62
     7
370
    15
100
AcDbCircle
 10
182.3637897793
 20
111.8439859953
 30
0.0
 40
2.500000000000012
  0
ARC
  5
A2
330
1F
100
AcDbEntity
  8
0
  6
Continuous
 62
     7
370
    15
100
AcDbCircle
 10
182.3637897793
 20
111.8439859953
 30
0.0
 40
1.25000000000002
100
AcDbArc
 50
57.9074759779
 51
117.9074759779
  0
ARC
  5
A3
330
1F
100
AcDbEntity
  8
0
  6
Continuous
 62
     7
370
    15
100
AcDbCircle
 10
182.3637897793
 20
111.8439859953
 30
0.0
 40
1.250000000000006
100
AcDbArc
 50
297.9074759779
 51
357.9074759779
  0
ARC
  5
A4
330
1F
100
AcDbEntity
  8
0
  6
Continuous
 62
     7
370
    15
100
AcDbCircle
 10
182.3637897793
 20
111.8439859953
 30
0.0
 40
1.250000000000003
100
AcDbArc
 50
237.9074759779
 51
297.9074759779
  0
ARC
  5
A5
330
1F
100
AcDbEntity
  8
0
  6
Continuous
 62
     7
370
    15
100
AcDbCircle
 10
182.3637897793
 20
111.8439859953
 30
0.0
 40
1.250000000000006
100
AcDbArc
 50
357.9074759779
 51
57.9074759779
  0
ARC
  5
A6
330
1F
100
AcDbEntity
  8
0
  6
Continuous
 62
     7
370
    15
100
AcDbCircle
 10
182.3637897793
 20
111.8439859953
 30
0.0
 40
1.25000000000002
100
AcDbArc
 50
117.9074759779
 51
177.9074759779
  0
ARC
  5
A7
330
1F
100
AcDbEntity
  8
0
  6
Continuous
 62
     7
370
    15
100
AcDbCircle
 10
182.3637897793
 20
111.8439859953
 30
0.0
 40
1.250000000000003
100
AcDbArc
 50
177.9074759779
 51
237.9074759779
  0
LINE
  5
A8
330
1F
100
AcDbEntity
  8
0
  6
Continuous
 62
     7
370
    15
100
AcDbLine
 10
167.8057226108
 20
81.6570682991
 30
0.0
 11
167.8057226108
 21
131.6939859953
 31
0.0
  0
SPLINE
  5
A9
330
1F
100
AcDbEntity
  8
0
  6
Continuous
 62
     7
370
    15
100
AcDbSpline
210
0.0
220
0.0
230
1.0
 70
     8
 71
     3
 72
     8
 73
     4
 74
     0
 42
0.000000001
 43
0.00000001
 40
0.0
 40
0.0
 40
0.0
 40
0.0
 40
1.0
 40
1.0
 40
1.0
 40
1.0
 10
167.8057226107612
 20
81.65706829906365
 30
0.0
 10
167.3102429500954
 20
82.552594386997
 30
0.0
 10
166.8161289020533
 20
83.44887880204925
 30
0.0
 10
166.3237897792721
 20
84.34614883625594
 30
0.0
  0
LINE
  5
AA
330
1F
100
AcDbEntity
  8
0
  6
Continuous
 62
     7
370
    15
100
AcDbLine
 10
166.3237897793
 20
84.3461488363
 30
0.0
 11
166.3237897793
 21
131.6939859953
 31
0.0
  0
SPLINE
  5
AB
330
1F
100
AcDbEntity
  8
0
  6
Continuous
 62
     7
370
    15
100
AcDbSpline
210
0.0
220
0.0
230
1.0
 70
    24
 71
     3
 72
     8
 73
     4
 74
     0
 42
0.000000001
 43
0.00000001
 40
0.0
 40
0.0
 40
0.0
 40
0.0
 40
1.0
 40
1.0
 40
1.0
 40
1.0
 10
166.3237897792721
 20
131.6939859953108
 30
0.0
 10
166.803741773637
 20
131.6939859953108
 30
0.0
 10
167.2990425026106
 20
131.6939859953108
 30
0.0
 10
167.8057226107612
 20
131.6939859953108
 30
0.0
  0
LINE
  5
AC
330
1F
100
AcDbEntity
  8
0
  6
Continuous
 62
     7
370
    15
100
AcDbLine
 10
146.4137897793
 20
80.6439859953
 30
0.0
 11
146.4137897793
 21
143.043985992
 31
0.0
  0
LINE
  5
AD
330
1F
100
AcDbEntity
  8
0
  6
Continuous
 62
     7
370
    15
100
AcDbLine
 10
171.7637897793
 20
81.6570682991
 30
0.0
 11
167.8057226108
 21
81.6570682991
 31
0.0
  0
LINE
  5
AE
330
1F
100
AcDbEntity
  8
0
  6
Continuous
 62
     7
370
    15
100
AcDbLine
 10
167.8057226108
 20
131.6939859953
 30
0.0
 11
171.7637897793
 21
131.6939859953
 31
0.0
  0
LINE
  5
AF
330
1F
100
AcDbEntity
  8
0
  6
Continuous
 62
     7
370
    15
100
AcDbLine
 10
172.3637897793
 20
82.2837085947
 30
0.0
 11
172.3637897793
 21
131.6939859953
 31
0.0
  0
SPLINE
  5
B0
330
1F
100
AcDbEntity
  8
0
  6
Continuous
 62
     7
370
    15
100
AcDbSpline
210
0.0
220
0.0
230
1.0
 70
     8
 71
     3
 72
    10
 73
     6
 74
     0
 42
0.000000001
 43
0.00000001
 40
0.0
 40
0.0
 40
0.0
 40
0.0
 40
0.5
 40
0.5
 40
1.0
 40
1.0
 40
1.0
 40
1.0
 10
172.3637897792721
 20
82.28370859471798
 30
0.0
 10
172.3637897792721
 20
82.12382132652431
 30
0.0
 10
172.3024801280363
 20
81.96269407100971
 30
0.0
 10
172.0833804905012
 20
81.72859507265488
 30
0.0
 10
171.9253322841877
 20
81.65706829906365
 30
0.0
 10
171.7637897792721
 20
81.65706829906365
 30
0.0
  0
SPLINE
  5
B1
330
1F
100
AcDbEntity
  8
0
  6
Continuous
 62
     7
370
    15
100
AcDbSpline
210
0.0
220
0.0
230
1.0
 70
    24
 71
     3
 72
    12
 73
     8
 74
     0
 42
0.000000001
 43
0.00000001
 40
0.0
 40
0.0
 40
0.0
 40
0.0
 40
0.2500000000000033
 40
0.2500000000000033
 40
0.5000000000000067
 40
0.5000000000000067
 40
1.0
 40
1.0
 40
1.0
 40
1.0
 10
171.7637897792721
 20
131.6939859953108
 30
0.0
 10
171.8540288469592
 20
131.6939859953108
 30
0.0
 10
171.9449269610656
 20
131.6939859953108
 30
0.0
 10
172.0995239975542
 20
131.6939859953108
 30
0.0
 10
172.1645024136623
 20
131.6939859953108
 30
0.0
 10
172.3163374415985
 20
131.6939859953108
 30
0.0
 10
172.3637897792721
 20
131.6939859953108
 30
0.0
 10
172.3637897792721
 20
131.6939859953108
 30
0.0
  0
LINE
  5
B2
330
1F
100
AcDbEntity
  8
0
  6
Continuous
 62
     7
370
    15
100
AcDbLine
 10
151.3637897793
 20
131.6939859953
 30
0.0
 11
161.0218569478
 21
131.6939859953
 31
0.0
  0
LINE
  5
B3
330
1F
100
AcDbEntity
  8
0
  6
Continuous
 62
     7
370
    15
100
AcDbLine
 10
161.0218569478
 20
81.6570682991
 30
0.0
 11
161.0218569478
 21
131.6939859953
 31
0.0
  0
LINE
  5
B4
330
1F
100
AcDbEntity
  8
0
  6
Continuous
 62
     7
370
    15
100
AcDbLine
 10
161.0218569478
 20
81.6570682991
 30
0.0
 11
159.3637897793
 21
81.6570682991
 31
0.0
  0
SPLINE
  5
B5
330
1F
100
AcDbEntity
  8
0
  6
Continuous
 62
     7
370
    15
100
AcDbSpline
210
0.0
220
0.0
230
1.0
 70
     8
 71
     3
 72
    28
 73
    24
 74
     0
 42
0.000000001
 43
0.00000001
 40
0.0
 40
0.0
 40
0.0
 40
0.0
 40
0.1250000000000001
 40
0.1250000000000001
 40
0.1875000000000001
 40
0.1875000000000001
 40
0.2500000000000001
 40
0.2500000000000001
 40
0.3749999999999999
 40
0.3749999999999999
 40
0.4375
 40
0.4375
 40
0.4999999999999999
 40
0.4999999999999999
 40
0.6249999999999999
 40
0.6249999999999999
 40
0.7499999999999997
 40
0.7499999999999997
 40
0.8124999999999998
 40
0.8124999999999998
 40
0.8749999999999998
 40
0.8749999999999998
 40
1.0
 40
1.0
 40
1.0
 40
1.0
 10
159.3637897792721
 20
81.65706829906365
 30
0.0
 10
158.8320820217792
 20
81.65706829906367
 30
0.0
 10
158.3098434564689
 20
81.64128358511344
 30
0.0
 10
157.5399729701938
 20
81.59628817103723
 30
0.0
 10
157.2856133980025
 20
81.57773317596151
 30
0.0
 10
156.781491817304
 20
81.533880453515
 30
0.0
 10
156.531768999876
 20
81.5085358465628
 30
0.0
 10
155.8061790484296
 20
81.42513376881269
 30
0.0
 10
155.3478187868481
 20
81.35926820966161
 30
0.0
 10
154.6973208434542
 20
81.25029786916981
 30
0.0
 10
154.4856387926618
 20
81.21205823340316
 30
0.0
 10
154.0815673035238
 20
81.1342994959838
 30
0.0
 10
153.8890607897029
 20
81.09479853380847
 30
0.0
 10
153.3392258186816
 20
80.97589079144247
 30
0.0
 10
153.0092970403728
 20
80.89607311001785
 30
0.0
 10
152.4248257718041
 20
80.7427299482218
 30
0.0
 10
152.1785486337907
 20
80.67139619495254
 30
0.0
 10
151.8787058410927
 20
80.57745268787791
 30
0.0
 10
151.7902489840205
 20
80.54825889451799
 30
0.0
 10
151.6368876307153
 20
80.49479232025459
 30
0.0
 10
151.5717994164891
 20
80.47043298597939
 30
0.0
 10
151.4162054005483
 20
80.40684284053465
 30
0.0
 10
151.3637897792721
 20
80.37673990544539
 30
0.0
 10
151.3637897792721
 20
80.35986301244849
 30
0.0
  0
LINE
  5
B6
330
1F
100
AcDbEntity
  8
0
  6
Continuous
 62
     7
370
    15
100
AcDbLine
 10
151.3637897793
 20
80.3598630124
 30
0.0
 11
151.3637897793
 21
80.3439859953
 31
0.0
  0
SPLINE
  5
B7
330
1F
100
AcDbEntity
  8
0
  6
Continuous
 62
     7
370
    15
100
AcDbSpline
210
0.0
220
0.0
230
1.0
 70
     8
 71
     3
 72
    17
 73
    13
 74
     0
 42
0.000000001
 43
0.00000001
 40
0.0
 40
0.0
 40
0.0
 40
0.0
 40
0.1034796923964056
 40
0.210023918880785
 40
0.3134862136955583
 40
0.4198361274354882
 40
0.5254127712915682
 40
0.633961069541979
 40
0.7409508756305031
 40
0.8511696089308174
 40
0.9558996534551937
 40
1.0
 40
1.0
 40
1.0
 40
1.0
 10
159.3637897792721
 20
142.311181468475
 30
0.0
 10
158.9285414301621
 20
142.3166296650084
 30
0.0
 10
158.0451549235971
 20
142.3276874055202
 30
0.0
 10
156.7643273383684
 20
142.4140457984218
 30
0.0
 10
155.5469108024944
 20
142.5419159749595
 30
0.0
 10
154.4391049502478
 20
142.7008612735527
 30
0.0
 10
153.4508661462996
 20
142.8753549612683
 30
0.0
 10
152.6261425887681
 20
143.0445208119082
 30
0.0
 10
151.9771890881088
 20
143.1924045944365
 30
0.0
 10
151.5601542726471
 20
143.2941951786673
 30
0.0
 10
151.3615575596825
 20
143.3445467012704
 30
0.0
 10
151.3848702811158
 20
143.3386410170481
 30
0.0
 10
151.3917781383534
 20
143.3368910873535
 30
0.0
  0
LINE
  5
B8
330
1F
100
AcDbEntity
  8
0
  6
Continuous
 62
     7
370
    15
100
AcDbLine
 10
161.0218569478
 20
142.3111814685
 30
0.0
 11
159.3637897793
 21
142.3111814685
 31
0.0
  0
LINE
  5
B9
330
1F
100
AcDbEntity
  8
0
  6
Continuous
 62
     7
370
    15
100
AcDbLine
 10
161.0218569478
 20
136.3026756577
 30
0.0
 11
161.0218569478
 21
142.3111814685
 31
0.0
  0
LINE
  5
BA
330
1F
100
AcDbEntity
  8
0
  6
Continuous
 62
     7
370
    15
100
AcDbLine
 10
158.609410125
 20
136.3026756577
 30
0.0
 11
161.0218569478
 21
136.3026756577
 31
0.0
  0
SPLINE
  5
BB
330
1F
100
AcDbEntity
  8
0
  6
Continuous
 62
     7
370
    15
100
AcDbSpline
210
0.0
220
0.0
230
1.0
 70
     8
 71
     3
 72
    20
 73
    16
 74
     0
 42
0.000000001
 43
0.00000001
 40
0.0
 40
0.0
 40
0.0
 40
0.0
 40
0.2499999999999997
 40
0.2499999999999997
 40
0.3749999999999997
 40
0.3749999999999997
 40
0.4999999999999998
 40
0.4999999999999998
 40
0.6249999999999998
 40
0.6249999999999998
 40
0.7499999999999999
 40
0.7499999999999999
 40
0.8749999999999999
 40
0.8749999999999999
 40
1.0
 40
1.0
 40
1.0
 40
1.0
 10
151.3637897792721
 20
131.6939859953108
 30
0.0
 10
151.6121635135601
 20
132.3478484236082
 30
0.0
 10
151.9317336059054
 20
132.9516342056054
 30
0.0
 10
152.5540398391101
 20
133.778472941774
 30
0.0
 10
152.7854640995409
 20
134.0409015797269
 30
0.0
 10
153.3066784391906
 20
134.5375642338318
 30
0.0
 10
153.5932989218257
 20
134.7681511128534
 30
0.0
 10
154.2127836631333
 20
135.184705337436
 30
0.0
 10
154.5470840426202
 20
135.3722031394036
 30
0.0
 10
155.272344515245
 20
135.7036001170399
 30
0.0
 10
155.6542595726355
 20
135.8431041045352
 30
0.0
 10
156.4490477488072
 20
136.0685576120061
 30
0.0
 10
156.8632059430136
 20
136.1551837235498
 30
0.0
 10
157.728752283595
 20
136.2731645124039
 30
0.0
 10
158.1666398986068
 20
136.3026756576783
 30
0.0
 10
158.6094101249614
 20
136.3026756576783
 30
0.0
  0
LINE
  5
BC
330
1F
100
AcDbEntity
  8
0
  6
Continuous
 62
     7
370
    15
100
AcDbLine
 10
162.5037897793
 20
84.3461488363
 30
0.0
 11
162.5037897793
 21
131.6939859953
 31
0.0
  0
SPLINE
  5
BD
330
1F
100
AcDbEntity
  8
0
  6
Continuous
 62
     7
370
    15
100
AcDbSpline
210
0.0
220
0.0
230
1.0
 70
     8
 71
     3
 72
     8
 73
     4
 74
     0
 42
0.000000001
 43
0.00000001
 40
0.0
 40
0.0
 40
0.0
 40
0.0
 40
1.0
 40
1.0
 40
1.0
 40
1.0
 10
162.5037897792721
 20
84.34614883625595
 30
0.0
 10
162.0114506564909
 20
83.44887880204925
 30
0.0
 10
161.5173366084488
 20
82.552594386997
 30
0.0
 10
161.0218569477831
 20
81.65706829906365
 30
0.0
  0
SPLINE
  5
BE
330
1F
100
AcDbEntity
  8
0
  6
Continuous
 62
     7
370
    15
100
AcDbSpline
210
0.0
220
0.0
230
1.0
 70
    24
 71
     3
 72
     8
 73
     4
 74
     0
 42
0.000000001
 43
0.00000001
 40
0.0
 40
0.0
 40
0.0
 40
0.0
 40
1.0
 40
1.0
 40
1.0
 40
1.0
 10
161.021856947783
 20
131.6939859953108
 30
0.0
 10
161.5285370559336
 20
131.6939859953108
 30
0.0
 10
162.0238377849072
 20
131.6939859953108
 30
0.0
 10
162.5037897792721
 20
131.6939859953108
 30
0.0
  0
SPLINE
  5
BF
330
1F
100
AcDbEntity
  8
0
  6
Continuous
 62
     7
370
    15
100
AcDbSpline
210
0.0
220
0.0
230
1.0
 70
    24
 71
     3
 72
    14
 73
    10
 74
     0
 42
0.000000001
 43
0.00000001
 40
0.0
 40
0.0
 40
0.0
 40
0.0
 40
0.5000000000000022
 40
0.5000000000000022
 40
0.7500000000000008
 40
0.7500000000000008
 40
0.8750000000000004
 40
0.8750000000000004
 40
1.0
 40
1.0
 40
1.0
 40
1.0
 10
166.2261149769398
 20
85.44398599531081
 30
0.0
 10
166.17890481771
 20
85.44398599531081
 30
0.0
 10
166.1156703441663
 20
85.44398599531083
 30
0.0
 10
165.9718584134384
 20
85.44398599531083
 30
0.0
 10
165.916533338962
 20
85.44398599531083
 30
0.0
 10
165.804622165727
 20
85.44398599531083
 30
0.0
 10
165.761835079286
 20
85.44398599531081
 30
0.0
 10
165.6574697462524
 20
85.44398599531081
 30
0.0
 10
165.5932459519506
 20
85.44398599531081
 30
0.0
 10
165.5237897793276
 20
85.44398599531081
 30
0.0
  0
SPLINE
  5
C0
330
1F
100
AcDbEntity
  8
0
  6
Continuous
 62
     7
370
    15
100
AcDbSpline
210
0.0
220
0.0
230
1.0
 70
    24
 71
     3
 72
    12
 73
     8
 74
     0
 42
0.000000001
 43
0.00000001
 40
0.0
 40
0.0
 40
0.0
 40
0.0
 40
0.4999999999999983
 40
0.4999999999999983
 40
0.7499999999999991
 40
0.7499999999999991
 40
1.0
 40
1.0
 40
1.0
 40
1.0
 10
165.9294922475814
 20
138.2439859953108
 30
0.0
 10
165.8860540597784
 20
138.2439859953108
 30
0.0
 10
165.8368598114804
 20
138.2439859953108
 30
0.0
 10
165.7401410540994
 20
138.2439859953108
 30
0.0
 10
165.7039535725977
 20
138.2439859953108
 30
0.0
 10
165.6210757140729
 20
138.2439859953108
 30
0.0
 10
165.5731222667662
 20
138.2439859953108
 30
0.0
 10
165.5237897792721
 20
138.2439859953108
 30
0.0
  0
SPLINE
  5
C1
330
1F
100
AcDbEntity
  8
0
  6
Continuous
 62
     7
370
    15
100
AcDbSpline
210
0.0
220
0.0
230
1.0
 70
     8
 71
     3
 72
    10
 73
     6
 74
     0
 42
0.000000001
 43
0.00000001
 40
0.0
 40
0.0
 40
0.0
 40
0.0
 40
0.5
 40
0.5
 40
1.0
 40
1.0
 40
1.0
 40
1.0
 10
166.3237897792721
 20
138.9636398463466
 30
0.0
 10
166.3237897792721
 20
138.8198697885288
 30
0.0
 10
166.2877407205533
 20
138.6774504260339
 30
0.0
 10
166.1522318597797
 20
138.4275561326769
 30
0.0
 10
166.0523558666839
 20
138.3195257964288
 30
0.0
 10
165.9294922475822
 20
138.2439859953114
 30
0.0
  0
SPLINE
  5
C2
330
1F
100
AcDbEntity
  8
0
  6
Continuous
 62
     7
370
    15
100
AcDbSpline
210
0.0
220
0.0
230
1.0
 70
     8
 71
     3
 72
     9
 73
     5
 74
     0
 42
0.000000001
 43
0.00000001
 40
0.0
 40
0.0
 40
0.0
 40
0.0
 40
0.5
 40
1.0
 40
1.0
 40
1.0
 40
1.0
 10
166.297642156112
 20
131.6939859953108
 30
0.0
 10
166.3063807259943
 20
131.7411287956462
 30
0.0
 10
166.3194000123307
 20
131.8359248773167
 30
0.0
 10
166.3237897792721
 20
131.9317091488771
 30
0.0
 10
166.3237897792721
 20
131.9798526267722
 30
0.0
  0
SPLINE
  5
C3
330
1F
100
AcDbEntity
  8
0
  6
Continuous
 62
     7
370
    15
100
AcDbSpline
210
0.0
220
0.0
230
1.0
 70
     8
 71
     3
 72
    10
 73
     6
 74
     0
 42
0.000000001
 43
0.00000001
 40
0.0
 40
0.0
 40
0.0
 40
0.0
 40
0.5
 40
0.5
 40
1.0
 40
1.0
 40
1.0
 40
1.0
 10
162.8980873109631
 20
138.2439859953108
 30
0.0
 10
162.7765470472945
 20
138.3187121625226
 30
0.0
 10
162.6752126869456
 20
138.4276571784393
 30
0.0
 10
162.5395737440572
 20
138.6780876592009
 30
0.0
 10
162.5037897792721
 20
138.8205070212999
 30
0.0
 10
162.5037897792721
 20
138.9636398463466
 30
0.0
  0
SPLINE
  5
C4
330
1F
100
AcDbEntity
  8
0
  6
Continuous
 62
     7
370
    15
100
AcDbSpline
210
0.0
220
0.0
230
1.0
 70
    24
 71
     3
 72
    12
 73
     8
 74
     0
 42
0.000000001
 43
0.00000001
 40
0.0
 40
0.0
 40
0.0
 40
0.0
 40
0.2500000000000046
 40
0.2500000000000046
 40
0.5000000000000091
 40
0.5000000000000091
 40
1.0
 40
1.0
 40
1.0
 40
1.0
 10
163.3037897792721
 20
138.2439859953108
 30
0.0
 10
163.2539130969546
 20
138.2439859953108
 30
0.0
 10
163.2059099035511
 20
138.2439859953108
 30
0.0
 10
163.1228618008391
 20
138.2439859953108
 30
0.0
 10
163.0867322213712
 20
138.2439859953108
 30
0.0
 10
162.990820190427
 20
138.2439859953108
 30
0.0
 10
162.9410615224582
 20
138.2439859953108
 30
0.0
 10
162.8980873109631
 20
138.2439859953108
 30
0.0
  0
SPLINE
  5
C5
330
1F
100
AcDbEntity
  8
0
  6
Continuous
 62
     7
370
    15
100
AcDbSpline
210
0.0
220
0.0
230
1.0
 70
    24
 71
     3
 72
    14
 73
    10
 74
     0
 42
0.000000001
 43
0.00000001
 40
0.0
 40
0.0
 40
0.0
 40
0.0
 40
0.1249999999999991
 40
0.1249999999999991
 40
0.2499999999999982
 40
0.2499999999999982
 40
0.4999999999999998
 40
0.4999999999999998
 40
1.0
 40
1.0
 40
1.0
 40
1.0
 10
163.3037897792721
 20
85.44398599531081
 30
0.0
 10
163.2353519313856
 20
85.44398599531081
 30
0.0
 10
163.1698018926206
 20
85.44398599531083
 30
0.0
 10
163.0653752532127
 20
85.44398599531083
 30
0.0
 10
163.0228306434512
 20
85.44398599531083
 30
0.0
 10
162.910221182911
 20
85.44398599531081
 30
0.0
 10
162.8546821358915
 20
85.44398599531081
 30
0.0
 10
162.7120704404277
 20
85.44398599531081
 30
0.0
 10
162.6486650854319
 20
85.44398599531081
 30
0.0
 10
162.6014645816044
 20
85.44398599531081
 30
0.0
  0
SPLINE
  5
C6
330
1F
100
AcDbEntity
  8
0
  6
Continuous
 62
     7
370
    15
100
AcDbSpline
210
0.0
220
0.0
230
1.0
 70
     8
 71
     3
 72
    10
 73
     6
 74
     0
 42
0.000000001
 43
0.00000001
 40
0.0
 40
0.0
 40
0.0
 40
0.0
 40
0.5
 40
0.5
 40
1.0
 40
1.0
 40
1.0
 40
1.0
 10
162.5037897792721
 20
131.9798526267722
 30
0.0
 10
162.5037897792721
 20
131.9320811187789
 30
0.0
 10
162.5059510228693
 20
131.8843713967172
 30
0.0
 10
162.5146223967294
 20
131.7890762791689
 30
0.0
 10
162.5211515796854
 20
131.7413837152023
 30
0.0
 10
162.5299374024322
 20
131.6939859953108
 30
0.0
  0
LINE
  5
C7
330
1F
100
AcDbEntity
  8
0
  6
Continuous
 62
     7
370
    15
100
AcDbLine
 10
165.5237897793
 20
138.2439859953
 30
0.0
 11
163.3037897793
 21
138.2439859953
 31
0.0
  0
LINE
  5
C8
330
1F
100
AcDbEntity
  8
0
  6
Continuous
 62
     7
370
    15
100
AcDbLine
 10
165.5237897793
 20
85.4439859953
 30
0.0
 11
163.3037897793
 21
85.4439859953
 31
0.0
  0
LINE
  5
C9
330
1F
100
AcDbEntity
  8
0
  6
Continuous
 62
     7
370
    15
100
AcDbLine
 10
144.4137897793
 20
87.6235551336
 30
0.0
 11
144.4137897793
 21
136.064416857
 31
0.0
  0
LINE
  5
CA
330
1F
100
AcDbEntity
  8
0
  6
Continuous
 62
     7
370
    15
100
AcDbLine
 10
124.6137897793
 20
88.6155391015
 30
0.0
 11
124.6137897793
 21
89.8802484641
 31
0.0
  0
SPLINE
  5
CB
330
1F
100
AcDbEntity
  8
0
  6
Continuous
 62
     7
370
    15
100
AcDbSpline
210
0.0
220
0.0
230
1.0
 70
     8
 71
     3
 72
    14
 73
    10
 74
     0
 42
0.000000001
 43
0.00000001
 40
0.0
 40
0.0
 40
0.0
 40
0.0
 40
0.25
 40
0.25
 40
0.5
 40
0.5
 40
0.75
 40
0.75
 40
1.0
 40
1.0
 40
1.0
 40
1.0
 10
123.8355026613564
 20
91.01083467175086
 30
0.0
 10
123.8921293365585
 20
90.90313721791401
 30
0.0
 10
123.9866519968482
 20
90.80034763619469
 30
0.0
 10
124.1696969724104
 20
90.60199032397453
 30
0.0
 10
124.2613235493651
 20
90.50593081529628
 30
0.0
 10
124.4201768670583
 20
90.31840177258704
 30
0.0
 10
124.4880674746801
 20
90.22699279980348
 30
0.0
 10
124.5849845003876
 20
90.04861657889333
 30
0.0
 10
124.6137897792727
 20
89.96139467264716
 30
0.0
 10
124.6137897792727
 20
89.88024846411291
 30
0.0
  0
SPLINE
  5
CC
330
1F
100
AcDbEntity
  8
0
  6
Continuous
 62
     7
370
    15
100
AcDbSpline
210
0.0
220
0.0
230
1.0
 70
     8
 71
     3
 72
    14
 73
    10
 74
     0
 42
0.000000001
 43
0.00000001
 40
0.0
 40
0.0
 40
0.0
 40
0.0
 40
0.1250000000000025
 40
0.1250000000000025
 40
0.250000000000005
 40
0.250000000000005
 40
0.5000000000000009
 40
0.5000000000000009
 40
1.0
 40
1.0
 40
1.0
 40
1.0
 10
123.2137897792721
 20
91.45751653403018
 30
0.0
 10
123.2623341879293
 20
91.46326484731047
 30
0.0
 10
123.3152495427142
 20
91.46016395865422
 30
0.0
 10
123.4105448876972
 20
91.43796911449189
 30
0.0
 10
123.4507958849822
 20
91.42073688739605
 30
0.0
 10
123.5550658984951
 20
91.36440897094398
 30
0.0
 10
123.6053878736485
 20
91.3202226249982
 30
0.0
 10
123.7330708211738
 20
91.18921472614757
 30
0.0
 10
123.7891562682361
 20
91.09898020591729
 30
0.0
 10
123.8355026613579
 20
91.01083467175138
 30
0.0
  0
SPLINE
  5
CD
330
1F
100
AcDbEntity
  8
0
  6
Continuous
 62
     7
370
    15
100
AcDbSpline
210
0.0
220
0.0
230
1.0
 70
     8
 71
     3
 72
     8
 73
     4
 74
     0
 42
0.000000001
 43
0.00000001
 40
0.0
 40
0.0
 40
0.0
 40
0.0
 40
1.0
 40
1.0
 40
1.0
 40
1.0
 10
120.9452646863259
 20
91.14767124744738
 30
0.0
 10
121.6798417128089
 20
91.26629625851635
 30
0.0
 10
122.4433167822045
 20
91.36628213065262
 30
0.0
 10
123.2137897792721
 20
91.45751653403018
 30
0.0
  0
SPLINE
  5
CE
330
1F
100
AcDbEntity
  8
0
  6
Continuous
 62
     7
370
    15
100
AcDbSpline
210
0.0
220
0.0
230
1.0
 70
     8
 71
     3
 72
    14
 73
    10
 74
     0
 42
0.000000001
 43
0.00000001
 40
0.0
 40
0.0
 40
0.0
 40
0.0
 40
0.4999999999999999
 40
0.4999999999999999
 40
0.7499999999999998
 40
0.7499999999999998
 40
0.8749999999999999
 40
0.8749999999999999
 40
1.0
 40
1.0
 40
1.0
 40
1.0
 10
115.6637897792721
 20
90.97404822991574
 30
0.0
 10
116.5559359098257
 20
90.97332600371509
 30
0.0
 10
117.4459123456193
 20
90.97791221017255
 30
0.0
 10
118.7725075126949
 20
91.00563721456409
 30
0.0
 10
119.2133544411936
 20
91.01824375218825
 30
0.0
 10
119.8697946786161
 20
91.04925990019571
 30
0.0
 10
120.087808335208
 20
91.06160307282249
 30
0.0
 10
120.5205171888907
 20
91.09462712798576
 30
0.0
 10
120.7357936540555
 20
91.1138442931242
 30
0.0
 10
120.9452646863259
 20
91.14767124744738
 30
0.0
  0
SPLINE
  5
CF
330
1F
100
AcDbEntity
  8
0
  6
Continuous
 62
     7
370
    15
100
AcDbSpline
210
0.0
220
0.0
230
1.0
 70
     8
 71
     3
 72
     8
 73
     4
 74
     0
 42
0.000000001
 43
0.00000001
 40
0.0000005163856998
 40
0.0000005163856998
 40
0.0000005163856998
 40
0.0000005163856998
 40
0.000026289209185
 40
0.000026289209185
 40
0.000026289209185
 40
0.000026289209185
 10
115.6537448488645
 20
90.98403210301252
 30
0.0
 10
115.6570725870723
 20
90.98069785614341
 30
0.0
 10
115.6604210400479
 20
90.97736989886809
 30
0.0
 10
115.6637897792721
 20
90.97404822991572
 30
0.0
  0
SPLINE
  5
D0
330
1F
100
AcDbEntity
  8
0
  6
Continuous
 62
     7
370
    15
100
AcDbSpline
210
0.0
220
0.0
230
1.0
 70
     8
 71
     3
 72
     8
 73
     4
 74
     0
 42
0.000000001
 43
0.00000001
 40
0.0000005099763573
 40
0.0000005099763573
 40
0.0000005099763573
 40
0.0000005099763573
 40
0.0000262827998699
 40
0.0000262827998699
 40
0.0000262827998699
 40
0.0000262827998699
 10
115.6637897792721
 20
132.7139237607059
 30
0.0
 10
115.6604210400443
 20
132.71060209175
 30
0.0
 10
115.6570725870652
 20
132.7072741344711
 30
0.0
 10
115.6537448488539
 20
132.7039398875985
 30
0.0
  0
SPLINE
  5
D1
330
1F
100
AcDbEntity
  8
0
  6
Continuous
 62
     7
370
    15
100
AcDbSpline
210
0.0
220
0.0
230
1.0
 70
     8
 71
     3
 72
    10
 73
     6
 74
     0
 42
0.000000001
 43
0.00000001
 40
0.0
 40
0.0
 40
0.0
 40
0.0
 40
0.5
 40
0.5
 40
1.0
 40
1.0
 40
1.0
 40
1.0
 10
119.2137897792721
 20
132.6670733871386
 30
0.0
 10
118.6262042321815
 20
132.688138907375
 30
0.0
 10
118.0354578387211
 20
132.6988973932472
 30
0.0
 10
116.8514386734223
 20
132.7122621737828
 30
0.0
 10
116.2580246852168
 20
132.7144048164475
 30
0.0
 10
115.6637897792721
 20
132.7139237607059
 30
0.0
  0
SPLINE
  5
D2
330
1F
100
AcDbEntity
  8
0
  6
Continuous
 62
     7
370
    15
100
AcDbSpline
210
0.0
220
0.0
230
1.0
 70
     8
 71
     3
 72
    18
 73
    14
 74
     0
 42
0.000000001
 43
0.00000001
 40
0.0
 40
0.0
 40
0.0
 40
0.0
 40
0.2499999999999996
 40
0.2499999999999996
 40
0.5
 40
0.5
 40
0.7500000000000003
 40
0.7500000000000003
 40
0.8750000000000002
 40
0.8750000000000002
 40
0.9375000000000001
 40
0.9375000000000001
 40
1.0
 40
1.0
 40
1.0
 40
1.0
 10
120.6137897792721
 20
133.6880936676738
 30
0.0
 10
120.6137897792721
 20
133.6048867588166
 30
0.0
 10
120.5779406793339
 20
133.516150103503
 30
0.0
 10
120.4530689433
 20
133.3340249129428
 30
0.0
 10
120.3626685256521
 20
133.2388948643162
 30
0.0
 10
120.1404258709099
 20
133.0497133551918
 30
0.0
 10
120.0106610844641
 20
132.9547681870971
 30
0.0
 10
119.7700236271526
 20
132.8164894795172
 30
0.0
 10
119.6822563290151
 20
132.7707790462148
 30
0.0
 10
119.5277322418083
 20
132.7129557409934
 30
0.0
 10
119.4711213557536
 20
132.6952409769555
 30
0.0
 10
119.347077324847
 20
132.6707016737226
 30
0.0
 10
119.2793626498287
 20
132.6647225351843
 30
0.0
 10
119.2137897792721
 20
132.6670733871386
 30
0.0
  0
LINE
  5
D3
330
1F
100
AcDbEntity
  8
0
  6
Continuous
 62
     7
370
    15
100
AcDbLine
 10
120.6137897793
 20
133.6880936677
 30
0.0
 11
120.6137897793
 21
134.8720320875
 31
0.0
  0
SPLINE
  5
D4
330
1F
100
AcDbEntity
  8
0
  6
Continuous
 62
     7
370
    15
100
AcDbSpline
210
0.0
220
0.0
230
1.0
 70
     8
 71
     3
 72
    24
 73
    20
 74
     0
 42
0.000000001
 43
0.00000001
 40
0.0
 40
0.0
 40
0.0
 40
0.0
 40
0.0010489762969675
 40
0.0637843125639742
 40
0.1272220590447992
 40
0.1903788924487996
 40
0.2526748653693623
 40
0.3146354154423325
 40
0.3770891997149642
 40
0.4393540298503623
 40
0.5008133242537848
 40
0.5621845104596915
 40
0.6248438451115951
 40
0.6874304766627318
 40
0.7496743174679439
 40
0.8119848426973817
 40
0.8750960525412996
 40
0.9384412526960664
 40
1.0
 40
1.0
 40
1.0
 40
1.0
 10
133.1826956112478
 20
88.18647756673067
 30
0.0
 10
133.1822491511436
 20
88.18641928091176
 30
0.0
 10
133.1551015874496
 20
88.18287513896931
 30
0.0
 10
133.2507133650623
 20
88.19570888365205
 30
0.0
 10
133.484273622958
 20
88.2249555688522
 30
0.0
 10
133.8798279302762
 20
88.27156989191494
 30
0.0
 10
134.4068682341122
 20
88.32175303357435
 30
0.0
 10
135.0503986461019
 20
88.36612949602399
 30
0.0
 10
135.7890725013407
 20
88.39307427696214
 30
0.0
 10
136.5865870067746
 20
88.3965461276691
 30
0.0
 10
137.4131658892216
 20
88.36891888363839
 30
0.0
 10
138.2386889068336
 20
88.31043999466573
 30
0.0
 10
139.0308154548379
 20
88.22499496530425
 30
0.0
 10
139.763387728837
 20
88.12326072546803
 30
0.0
 10
140.3990279655662
 20
88.01541760349578
 30
0.0
 10
140.9209390725701
 20
87.9137874467571
 30
0.0
 10
141.3025678496873
 20
87.83130229007904
 30
0.0
 10
141.5533823199235
 20
87.77515308372911
 30
0.0
 10
141.582503875907
 20
87.76830362511538
 30
0.0
 10
141.5968563967228
 20
87.76492787838718
 30
0.0
  0
SPLINE
  5
D5
330
1F
100
AcDbEntity
  8
0
  6
Continuous
 62
     7
370
    15
100
AcDbSpline
210
0.0
220
0.0
230
1.0
 70
     8
 71
     3
 72
    24
 73
    20
 74
     0
 42
0.000000001
 43
0.00000001
 40
0.0
 40
0.0
 40
0.0
 40
0.0
 40
0.0614384276247849
 40
0.1250736755369546
 40
0.1884253490727482
 40
0.2508623904037504
 40
0.3129665632512366
 40
0.3753451453465248
 40
0.4377328972326114
 40
0.4990927322917333
 40
0.5605807588448609
 40
0.6229469893028933
 40
0.6854686282029175
 40
0.7475477813740337
 40
0.8098225060806368
 40
0.8730684085990423
 40
0.9364041844528856
 40
0.9991757196257862
 40
1.0
 40
1.0
 40
1.0
 40
1.0
 10
141.5968016259199
 20
135.9230149697682
 30
0.0
 10
141.5822009016162
 20
135.9196469129156
 30
0.0
 10
141.5524773828878
 20
135.9127903694418
 30
0.0
 10
141.2997395672404
 20
135.856451748916
 30
0.0
 10
140.9167436507917
 20
135.773594666786
 30
0.0
 10
140.3943880663531
 20
135.6716876368347
 30
0.0
 10
139.7596035883528
 20
135.5638484977907
 30
0.0
 10
139.0293799841796
 20
135.4623815458156
 30
0.0
 10
138.238911398946
 20
135.3773218321249
 30
0.0
 10
137.4144278841174
 20
135.3191175382386
 30
0.0
 10
136.5873914252344
 20
135.2915340994119
 30
0.0
 10
135.7890671575815
 20
135.2950270769048
 30
0.0
 10
135.0492431932923
 20
135.3219829967578
 30
0.0
 10
134.4049889603173
 20
135.3663369387572
 30
0.0
 10
133.8775817051041
 20
135.4165423885152
 30
0.0
 10
133.4829171029531
 20
135.4631522437132
 30
0.0
 10
133.2503878237674
 20
135.4923478362608
 30
0.0
 10
133.1550077912152
 20
135.505125905202
 30
0.0
 10
133.1819414281167
 20
135.5015716466942
 30
0.0
 10
133.182290521341
 20
135.5015255791109
 30
0.0
  0
SPLINE
  5
D6
330
1F
100
AcDbEntity
  8
0
  6
Continuous
 62
     7
370
    15
100
AcDbSpline
210
0.0
220
0.0
230
1.0
 70
     8
 71
     3
 72
    10
 73
     6
 74
     0
 42
0.000000001
 43
0.00000001
 40
0.0
 40
0.0
 40
0.0
 40
0.0
 40
0.0840381716606349
 40
0.7011125076932977
 40
1.0
 40
1.0
 40
1.0
 40
1.0
 10
114.5273367418078
 20
92.11521208762748
 30
0.0
 10
114.5280112991427
 20
92.11300646079157
 30
0.0
 10
114.5336389868389
 20
92.09460538742937
 30
0.0
 10
114.5599604669657
 20
92.10883995015253
 30
0.0
 10
114.5723954838104
 20
92.15452572570351
 30
0.0
 10
114.5764531539955
 20
92.16943345053008
 30
0.0
  0
LINE
  5
D7
330
1F
100
AcDbEntity
  8
0
  6
Continuous
 62
     7
370
    15
100
AcDbLine
 10
114.5137897793
 20
92.1533082488
 30
0.0
 11
114.5137897793
 21
131.5346637418
 31
0.0
  0
SPLINE
  5
D8
330
1F
100
AcDbEntity
  8
0
  6
Continuous
 62
     7
370
    15
100
AcDbSpline
210
0.0
220
0.0
230
1.0
 70
     8
 71
     3
 72
    10
 73
     6
 74
     0
 42
0.000000001
 43
0.00000001
 40
0.0
 40
0.0
 40
0.0
 40
0.0
 40
0.398155263880937
 40
0.8068145697130235
 40
0.9999999999999999
 40
0.9999999999999999
 40
0.9999999999999999
 40
0.9999999999999999
 10
114.5764531539955
 20
131.5185385400916
 30
0.0
 10
114.570789649271
 20
131.5373803246424
 30
0.0
 10
114.5593132265237
 20
131.5755609734348
 30
0.0
 10
114.5357989985495
 20
131.5891442573024
 30
0.0
 10
114.5307830427318
 20
131.5734439631822
 30
0.0
 10
114.5291729770042
 20
131.568404344335
 30
0.0
  0
SPLINE
  5
D9
330
1F
100
AcDbEntity
  8
0
  6
Continuous
 62
     7
370
    15
100
AcDbSpline
210
0.0
220
0.0
230
1.0
 70
     8
 71
     3
 72
    26
 73
    22
 74
     0
 42
0.000000001
 43
0.00000001
 40
0.0
 40
0.0
 40
0.0
 40
0.0
 40
0.250000000000008
 40
0.250000000000008
 40
0.3750000000000121
 40
0.3750000000000121
 40
0.4375000000000128
 40
0.4375000000000128
 40
0.4687500000000128
 40
0.4687500000000128
 40
0.5000000000000127
 40
0.5000000000000127
 40
0.5312500000000125
 40
0.5312500000000125
 40
0.5625000000000124
 40
0.5625000000000124
 40
0.62500000000001
 40
0.62500000000001
 40
0.7500000000000072
 40
0.7500000000000072
 40
1.0
 40
1.0
 40
1.0
 40
1.0
 10
115.3379434253766
 20
132.2341053289086
 30
0.0
 10
115.2993429025081
 20
132.1163306325532
 30
0.0
 10
115.2530458999539
 20
131.9919409463913
 30
0.0
 10
115.15910655152
 20
131.7867216140378
 30
0.0
 10
115.1237950846065
 20
131.7151487475913
 30
0.0
 10
115.0576151088609
 20
131.5991955149909
 30
0.0
 10
115.0330767421926
 20
131.5586109801806
 30
0.0
 10
114.9897039966388
 20
131.4944692983089
 30
0.0
 10
114.9741955952136
 20
131.4726028730238
 30
0.0
 10
114.9391529506266
 20
131.4270086046807
 30
0.0
 10
114.9196026599068
 20
131.4033383137132
 30
0.0
 10
114.8776753795362
 20
131.3587217543733
 30
0.0
 10
114.8550232693046
 20
131.3378417418554
 30
0.0
 10
114.814049555218
 20
131.3069683281046
 30
0.0
 10
114.7964502553225
 20
131.2971294582722
 30
0.0
 10
114.7518232694664
 20
131.278139842576
 30
0.0
 10
114.7312640468131
 20
131.2778155179226
 30
0.0
 10
114.6801386073164
 20
131.2870389587988
 30
0.0
 10
114.6592271943278
 20
131.3082858550158
 30
0.0
 10
114.6077772867669
 20
131.3822547338465
 30
0.0
 10
114.5901119874623
 20
131.4483728271613
 30
0.0
 10
114.5764531539955
 20
131.5185385400916
 30
0.0
  0
SPLINE
  5
DA
330
1F
100
AcDbEntity
  8
0
  6
Continuous
 62
     7
370
    15
100
AcDbSpline
210
0.0
220
0.0
230
1.0
 70
     8
 71
     3
 72
    10
 73
     6
 74
     0
 42
0.000000001
 43
0.00000001
 40
0.0
 40
0.0
 40
0.0
 40
0.0
 40
0.5
 40
0.5
 40
1.0
 40
1.0
 40
1.0
 40
1.0
 10
115.6537448488539
 20
132.7039398875984
 30
0.0
 10
115.5861855939356
 20
132.6362484947887
 30
0.0
 10
115.5225489385992
 20
132.5615413300351
 30
0.0
 10
115.4123281840273
 20
132.4025751976084
 30
0.0
 10
115.3655118908047
 20
132.3182199316004
 30
0.0
 10
115.3379434253766
 20
132.2341053289086
 30
0.0
  0
SPLINE
  5
DB
330
1F
100
AcDbEntity
  8
0
  6
Continuous
 62
     7
370
    15
100
AcDbSpline
210
0.0
220
0.0
230
1.0
 70
     8
 71
     3
 72
    10
 73
     6
 74
     0
 42
0.000000001
 43
0.00000001
 40
0.0
 40
0.0
 40
0.0
 40
0.0
 40
0.5
 40
0.5
 40
1.0
 40
1.0
 40
1.0
 40
1.0
 10
115.3379434253767
 20
91.45386666171285
 30
0.0
 10
115.3654208401306
 20
91.37002986524494
 30
0.0
 10
115.41212947042
 20
91.28571937765582
 30
0.0
 10
115.522407933166
 20
91.12659814716912
 30
0.0
 10
115.5862954717799
 20
91.05161340307946
 30
0.0
 10
115.6537448488645
 20
90.98403210301254
 30
0.0
  0
SPLINE
  5
DC
330
1F
100
AcDbEntity
  8
0
  6
Continuous
 62
     7
370
    15
100
AcDbSpline
210
0.0
220
0.0
230
1.0
 70
     8
 71
     3
 72
    24
 73
    20
 74
     0
 42
0.000000001
 43
0.00000001
 40
0.0
 40
0.0
 40
0.0
 40
0.0
 40
0.2500000000000034
 40
0.2500000000000034
 40
0.3750000000000043
 40
0.3750000000000043
 40
0.4375000000000036
 40
0.4375000000000036
 40
0.4687500000000054
 40
0.4687500000000054
 40
0.5000000000000073
 40
0.5000000000000073
 40
0.5625000000000063
 40
0.5625000000000063
 40
0.6250000000000052
 40
0.6250000000000052
 40
0.7500000000000029
 40
0.7500000000000029
 40
1.0
 40
1.0
 40
1.0
 40
1.0
 10
114.5764531539955
 20
92.16943345053008
 30
0.0
 10
114.5902062726657
 20
92.24008350852036
 30
0.0
 10
114.6079788400716
 20
92.30668162128528
 30
0.0
 10
114.660229931627
 20
92.38077964151849
 30
0.0
 10
114.6812650072085
 20
92.40203744868005
 30
0.0
 10
114.734165414837
 20
92.41018337482629
 30
0.0
 10
114.7552710877149
 20
92.40924357143051
 30
0.0
 10
114.8013232563929
 20
92.38822757985315
 30
0.0
 10
114.8196937283762
 20
92.37731877374553
 30
0.0
 10
114.861245363442
 20
92.34468386279815
 30
0.0
 10
114.8838120361988
 20
92.3231918824268
 30
0.0
 10
114.9465930526589
 20
92.2547259388405
 30
0.0
 10
114.9797228136268
 20
92.2086514806354
 30
0.0
 10
115.0366405001118
 20
92.12364359230072
 30
0.0
 10
115.0608265256155
 20
92.08336329111935
 30
0.0
 10
115.1260344759953
 20
91.96842706465341
 30
0.0
 10
115.1607505361865
 20
91.8978440795064
 30
0.0
 10
115.2539658065174
 20
91.6936383204278
 30
0.0
 10
115.2996383418781
 20
91.57073993810043
 30
0.0
 10
115.3379434253767
 20
91.45386666171288
 30
0.0
  0
SPLINE
  5
DD
330
1F
100
AcDbEntity
  8
0
  6
Continuous
 62
     7
370
    15
100
AcDbSpline
210
0.0
220
0.0
230
1.0
 70
     8
 71
     3
 72
    10
 73
     6
 74
     0
 42
0.000000001
 43
0.00000001
 40
0.0
 40
0.0
 40
0.0
 40
0.0
 40
0.5
 40
0.5
 40
1.0
 40
1.0
 40
1.0
 40
1.0
 10
172.3637897792721
 20
141.6904263190747
 30
0.0
 10
172.3637897792721
 20
141.8508315854255
 30
0.0
 10
172.3015519481652
 20
142.0098933984141
 30
0.0
 10
172.0824170244227
 20
142.2408058640444
 30
0.0
 10
171.9248283294308
 20
142.3111814684751
 30
0.0
 10
171.7637897792721
 20
142.311181468475
 30
0.0
  0
SPLINE
  5
DE
330
1F
100
AcDbEntity
  8
0
  6
Continuous
 62
     7
370
    15
100
AcDbSpline
210
0.0
220
0.0
230
1.0
 70
     8
 71
     3
 72
    12
 73
     8
 74
     0
 42
0.000000001
 43
0.00000001
 40
0.0
 40
0.0
 40
0.0
 40
0.0
 40
0.249999999999998
 40
0.249999999999998
 40
0.499999999999996
 40
0.499999999999996
 40
1.0
 40
1.0
 40
1.0
 40
1.0
 10
171.7637897792721
 20
136.3026756576783
 30
0.0
 10
171.8549895010977
 20
136.3026756576783
 30
0.0
 10
171.9455845102338
 20
136.2744559590904
 30
0.0
 10
172.0989972366804
 20
136.1800129518423
 30
0.0
 10
172.1642061040041
 20
136.113725975137
 30
0.0
 10
172.316990633344
 20
135.8881011518486
 30
0.0
 10
172.3637897792721
 20
135.7056748888161
 30
0.0
 10
172.3637897792721
 20
135.5249382565692
 30
0.0
  0
LINE
  5
DF
330
1F
100
AcDbEntity
  8
0
  6
Continuous
 62
     7
370
    15
100
AcDbLine
 10
172.3637897793
 20
135.5249382566
 30
0.0
 11
172.3637897793
 21
141.6904263191
 31
0.0
  0
LINE
  5
E0
330
1F
100
AcDbEntity
  8
0
  6
Continuous
 62
     7
370
    15
100
AcDbLine
 10
171.7637897793
 20
142.3111814685
 30
0.0
 11
167.8057226108
 21
142.3111814685
 31
0.0
  0
LINE
  5
E1
330
1F
100
AcDbEntity
  8
0
  6
Continuous
 62
     7
370
    15
100
AcDbLine
 10
167.8057226108
 20
136.3026756577
 30
0.0
 11
171.7637897793
 21
136.3026756577
 31
0.0
  0
LINE
  5
E2
330
1F
100
AcDbEntity
  8
0
  6
Continuous
 62
     7
370
    15
100
AcDbLine
 10
167.8057226108
 20
136.3026756577
 30
0.0
 11
167.8057226108
 21
142.3111814685
 31
0.0
  0
SPLINE
  5
E3
330
1F
100
AcDbEntity
  8
0
  6
Continuous
 62
     7
370
    15
100
AcDbSpline
210
0.0
220
0.0
230
1.0
 70
     8
 71
     3
 72
     8
 73
     4
 74
     0
 42
0.000000001
 43
0.00000001
 40
0.0
 40
0.0
 40
0.0
 40
0.0
 40
1.0
 40
1.0
 40
1.0
 40
1.0
 10
162.5037897792721
 20
139.6492201864824
 30
0.0
 10
162.0110796824263
 20
140.5372391846088
 30
0.0
 10
161.5169969771474
 20
141.4245018202948
 30
0.0
 10
161.0218569477831
 20
142.311181468475
 30
0.0
  0
LINE
  5
E4
330
1F
100
AcDbEntity
  8
0
  6
Continuous
 62
     7
370
    15
100
AcDbLine
 10
162.5037897793
 20
132.8941296629
 30
0.0
 11
162.5037897793
 21
139.6492201865
 31
0.0
  0
SPLINE
  5
E5
330
1F
100
AcDbEntity
  8
0
  6
Continuous
 62
     7
370
    15
100
AcDbSpline
210
0.0
220
0.0
230
1.0
 70
     8
 71
     3
 72
     8
 73
     4
 74
     0
 42
0.000000001
 43
0.00000001
 40
0.0
 40
0.0
 40
0.0
 40
0.0
 40
1.0
 40
1.0
 40
1.0
 40
1.0
 10
161.021856947783
 20
136.3026756576783
 30
0.0
 10
161.5289437895423
 20
135.1715253035146
 30
0.0
 10
162.0245116286823
 20
134.0351408927468
 30
0.0
 10
162.5037897792721
 20
132.8941296628942
 30
0.0
  0
SPLINE
  5
E6
330
1F
100
AcDbEntity
  8
0
  6
Continuous
 62
     7
370
    15
100
AcDbSpline
210
0.0
220
0.0
230
1.0
 70
     8
 71
     3
 72
     8
 73
     4
 74
     0
 42
0.000000001
 43
0.00000001
 40
0.0
 40
0.0
 40
0.0
 40
0.0
 40
1.0
 40
1.0
 40
1.0
 40
1.0
 10
166.3237897792721
 20
132.8941296628942
 30
0.0
 10
166.8030679298619
 20
134.0351408927467
 30
0.0
 10
167.2986357690019
 20
135.1715253035146
 30
0.0
 10
167.8057226107612
 20
136.3026756576783
 30
0.0
  0
LINE
  5
E7
330
1F
100
AcDbEntity
  8
0
  6
Continuous
 62
     7
370
    15
100
AcDbLine
 10
166.3237897793
 20
131.9798526268
 30
0.0
 11
166.3237897793
 21
132.8941296629
 31
0.0
  0
LINE
  5
E8
330
1F
100
AcDbEntity
  8
0
  6
Continuous
 62
     7
370
    15
100
AcDbLine
 10
172.3637897793
 20
135.5249382566
 30
0.0
 11
172.3637897793
 21
131.6939859953
 31
0.0
  0
SPLINE
  5
E9
330
1F
100
AcDbEntity
  8
0
  6
Continuous
 62
     7
370
    15
100
AcDbSpline
210
0.0
220
0.0
230
1.0
 70
     8
 71
     3
 72
     8
 73
     4
 74
     0
 42
0.000000001
 43
0.00000001
 40
0.0
 40
0.0
 40
0.0
 40
0.0
 40
1.0
 40
1.0
 40
1.0
 40
1.0
 10
167.8057226107612
 20
142.3111814684751
 30
0.0
 10
167.3105825813968
 20
141.4245018202948
 30
0.0
 10
166.8164998761179
 20
140.5372391846088
 30
0.0
 10
166.3237897792721
 20
139.6492201864824
 30
0.0
  0
LINE
  5
EA
330
1F
100
AcDbEntity
  8
0
  6
Continuous
 62
     7
370
    15
100
AcDbLine
 10
166.3237897793
 20
132.8941296629
 30
0.0
 11
166.3237897793
 21
139.6492201865
 31
0.0
  0
LINE
  5
EB
330
1F
100
AcDbEntity
  8
0
  6
Continuous
 62
     7
370
    15
100
AcDbLine
 10
162.5037897793
 20
132.8941296629
 30
0.0
 11
162.5037897793
 21
131.9798526268
 31
0.0
  0
LINE
  5
EC
330
1F
100
AcDbEntity
  8
0
  6
Continuous
 62
     7
370
    15
100
AcDbLine
 10
188.4137897793
 20
102.0439859953
 30
0.0
 11
188.4137897793
 21
121.6439859953
 31
0.0
  0
LINE
  5
ED
330
1F
100
AcDbEntity
  8
0
  6
Continuous
 62
     7
370
    15
100
AcDbLine
 10
188.2137897793
 20
101.8439859953
 30
0.0
 11
188.2137897793
 21
121.8439859953
 31
0.0
  0
SPLINE
  5
EE
330
1F
100
AcDbEntity
  8
0
  6
Continuous
 62
     7
370
    15
100
AcDbSpline
210
0.0
220
0.0
230
1.0
 70
    11
 71
     3
 72
    62
 73
    58
 74
     0
 42
0.000000001
 43
0.00000001
 40
0.0
 40
0.0
 40
0.0
 40
0.0
 40
0.0312500000000003
 40
0.0312500000000003
 40
0.0625000000000007
 40
0.0625000000000007
 40
0.093750000000001
 40
0.093750000000001
 40
0.1250000000000013
 40
0.1250000000000013
 40
0.1562500000000017
 40
0.1562500000000017
 40
0.187500000000002
 40
0.187500000000002
 40
0.2187500000000023
 40
0.2187500000000023
 40
0.2500000000000026
 40
0.2500000000000026
 40
0.3125000000000024
 40
0.3125000000000024
 40
0.3437500000000023
 40
0.3437500000000023
 40
0.3750000000000022
 40
0.3750000000000022
 40
0.4062500000000021
 40
0.4062500000000021
 40
0.437500000000002
 40
0.437500000000002
 40
0.4687500000000019
 40
0.4687500000000019
 40
0.5000000000000018
 40
0.5000000000000018
 40
0.5312500000000017
 40
0.5312500000000017
 40
0.5625000000000016
 40
0.5625000000000016
 40
0.5937500000000014
 40
0.5937500000000014
 40
0.6250000000000013
 40
0.6250000000000013
 40
0.6562500000000012
 40
0.6562500000000012
 40
0.6875000000000011
 40
0.6875000000000011
 40
0.718750000000001
 40
0.718750000000001
 40
0.7500000000000009
 40
0.7500000000000009
 40
0.7812500000000008
 40
0.7812500000000008
 40
0.8125000000000007
 40
0.8125000000000007
 40
0.8750000000000004
 40
0.8750000000000004
 40
0.9375000000000002
 40
0.9375000000000002
 40
1.0
 40
1.0
 40
1.0
 40
1.0
 10
180.2102130201436
 20
113.9647787161644
 30
0.0
 10
180.0521685276585
 20
113.8422024704146
 30
0.0
 10
179.9077554325735
 20
113.7066043361132
 30
0.0
 10
179.6473845273058
 20
113.4076676165987
 30
0.0
 10
179.5307772547304
 20
113.2424758405173
 30
0.0
 10
179.3395642221092
 20
112.8962327879829
 30
0.0
 10
179.263408708569
 20
112.7140038340633
 30
0.0
 10
179.1540376834957
 20
112.3292223347902
 30
0.0
 10
179.1222717237365
 20
112.1287957507799
 30
0.0
 10
179.1083240424742
 20
111.7311831977095
 30
0.0
 10
179.1260402614214
 20
111.5283712628406
 30
0.0
 10
179.2090629455286
 20
111.1365793847286
 30
0.0
 10
179.273366008678
 20
110.9480316079303
 30
0.0
 10
179.4454544360057
 20
110.5848292884141
 30
0.0
 10
179.5507962496796
 20
110.4155640609129
 30
0.0
 10
179.7942146032275
 20
110.1016523725906
 30
0.0
 10
179.9336495979832
 20
109.9560386239051
 30
0.0
 10
180.3838502468583
 20
109.5678621198754
 30
0.0
 10
180.7355611342647
 20
109.3654736128292
 30
0.0
 10
181.2943089360052
 20
109.1592600621142
 30
0.0
 10
181.4882576113886
 20
109.1057002865874
 30
0.0
 10
181.8825342927738
 20
109.0314188405183
 30
0.0
 10
182.0806667636823
 20
109.0108500447655
 30
0.0
 10
182.4788645787046
 20
109.0017527451554
 30
0.0
 10
182.6806606578267
 20
109.0135125040222
 30
0.0
 10
183.0775979212468
 20
109.0698003537733
 30
0.0
 10
183.2713752168846
 20
109.1137993211049
 30
0.0
 10
183.6496964664895
 20
109.2333609776865
 30
0.0
 10
183.8359309640011
 20
109.3098337859882
 30
0.0
 10
184.1896629275198
 20
109.4929803107826
 30
0.0
 10
184.3562216660674
 20
109.598726530818
 30
0.0
 10
184.6682988580649
 20
109.8397556802169
 30
0.0
 10
184.8154073334627
 20
109.976910516123
 30
0.0
 10
185.0768785791749
 20
110.2759007429257
 30
0.0
 10
185.1909235510672
 20
110.4365231788304
 30
0.0
 10
185.3834421098709
 20
110.7818747404582
 30
0.0
 10
185.46253031988
 20
110.9697230657612
 30
0.0
 10
185.5723117116026
 20
111.3529348187254
 30
0.0
 10
185.604302889581
 20
111.5491210636215
 30
0.0
 10
185.6196888676992
 20
111.9512562885184
 30
0.0
 10
185.6022840419017
 20
112.1534548180724
 30
0.0
 10
185.5205346371267
 20
112.5444138522537
 30
0.0
 10
185.4550208668338
 20
112.7375318849423
 30
0.0
 10
185.2847064696125
 20
113.0983853752958
 30
0.0
 10
185.1793178447485
 20
113.2688249966906
 30
0.0
 10
184.9341888547794
 20
113.5855672460664
 30
0.0
 10
184.7970152590395
 20
113.7289728612161
 30
0.0
 10
184.4960585015376
 20
113.9890620570487
 30
0.0
 10
184.331496179761
 20
114.105737298125
 30
0.0
 10
183.9882828909446
 20
114.3056947725537
 30
0.0
 10
183.8083079320809
 20
114.3902679294996
 30
0.0
 10
183.243393084413
 20
114.5988513790059
 30
0.0
 10
182.8496099020938
 20
114.672735169369
 30
0.0
 10
182.0415646572189
 20
114.6907064120529
 30
0.0
 10
181.6466678806503
 20
114.6348995692974
 30
0.0
 10
180.87878719321
 20
114.3911499713507
 30
0.0
 10
180.5263020051139
 20
114.209931207664
 30
0.0
 10
180.2102130201436
 20
113.9647787161644
 30
0.0
  0
LINE
  5
EF
330
1F
100
AcDbEntity
  8
0
  6
HIDDEN
 62
     7
370
     0
100
AcDbLine
 10
161.0218569478
 20
136.3026756577
 30
0.0
 11
161.0218569478
 21
131.6939859953
 31
0.0
  0
SPLINE
  5
F0
330
1F
100
AcDbEntity
  8
0
  6
HIDDEN
 62
     7
370
     0
100
AcDbSpline
210
0.0
220
0.0
230
1.0
 70
     8
 71
     3
 72
    12
 73
     8
 74
     0
 42
0.000000001
 43
0.00000001
 40
0.0
 40
0.0
 40
0.0
 40
0.0
 40
0.2392542793963751
 40
0.4933213988951138
 40
0.7490969280230744
 40
0.8804124112069797
 40
1.0
 40
1.0
 40
1.0
 40
1.0
 10
119.9426882425052
 20
132.9358791949635
 30
0.0
 10
119.9079303132953
 20
132.9069698609324
 30
0.0
 10
119.8362625031991
 20
132.8473613425757
 30
0.0
 10
119.6634538168989
 20
132.763885741355
 30
0.0
 10
119.4988654147494
 20
132.6997983240279
 30
0.0
 10
119.3369210692441
 20
132.6677686617607
 30
0.0
 10
119.2535343008806
 20
132.667297809032
 30
0.0
 10
119.2137897792721
 20
132.6670733871386
 30
0.0
  0
LINE
  5
F1
330
1F
100
AcDbEntity
  8
0
  6
HIDDEN
 62
     7
370
     0
100
AcDbLine
 10
134.4089399838
 20
88.3193863725
 30
0.0
 11
134.160075165
 21
88.296123406
 31
0.0
  0
SPLINE
  5
F2
330
1F
100
AcDbEntity
  8
0
  6
HIDDEN
 62
     7
370
     0
100
AcDbSpline
210
0.0
220
0.0
230
1.0
 70
     8
 71
     3
 72
    15
 73
    11
 74
     0
 42
0.000000001
 43
0.00000001
 40
0.0
 40
0.0
 40
0.0
 40
0.0
 40
0.1409172169897704
 40
0.2818898291171903
 40
0.4212989265166054
 40
0.5593768372264384
 40
0.6988856205980564
 40
0.8403671979046404
 40
0.981316445467026
 40
1.0
 40
1.0
 40
1.0
 40
1.0
 10
140.1687917808737
 20
92.00645751949435
 30
0.0
 10
139.8527500946011
 20
92.04681133681596
 30
0.0
 10
139.2205424847691
 20
92.1275348347108
 30
0.0
 10
137.9863793630919
 20
92.20408993231308
 30
0.0
 10
136.7156573622334
 20
92.19941388117402
 30
0.0
 10
135.5270979572059
 20
92.1186178694418
 30
0.0
 10
134.5339752844249
 20
91.99422107293006
 30
0.0
 10
133.8945662781283
 20
91.88781753426797
 30
0.0
 10
133.6135461715447
 20
91.83473687359078
 30
0.0
 10
133.6801069092379
 20
91.84699291360504
 30
0.0
 10
133.6878972327562
 20
91.84842737061489
 30
0.0
  0
SPLINE
  5
F3
330
1F
100
AcDbEntity
  8
0
  6
HIDDEN
 62
     7
370
     0
100
AcDbSpline
210
0.0
220
0.0
230
1.0
 70
     8
 71
     3
 72
    15
 73
    11
 74
     0
 42
0.000000001
 43
0.00000001
 40
0.0
 40
0.0
 40
0.0
 40
0.0
 40
0.1201202395113821
 40
0.2584739316900685
 40
0.3987301965958632
 40
0.5404022890432693
 40
0.6807395403003639
 40
0.8190356063860867
 40
0.9577823106998834
 40
1.0
 40
1.0
 40
1.0
 40
1.0
 10
133.6878972327562
 20
131.8395446200067
 30
0.0
 10
133.7086063692266
 20
131.8355200261531
 30
0.0
 10
133.7531681512144
 20
131.8268599318923
 30
0.0
 10
134.3156077570871
 20
131.7275688052836
 30
0.0
 10
135.2090699694085
 20
131.6036512153023
 30
0.0
 10
136.3680491236007
 20
131.5039407784809
 30
0.0
 10
137.641086003726
 20
131.4768022894053
 30
0.0
 10
138.8753712783696
 20
131.5321411235692
 30
0.0
 10
139.7033340751356
 20
131.6186197225534
 30
0.0
 10
140.0807446197996
 20
131.6696171408433
 30
0.0
 10
140.1687917808737
 20
131.6815144711273
 30
0.0
  0
SPLINE
  5
F4
330
1F
100
AcDbEntity
  8
0
  6
HIDDEN
 62
     7
370
     0
100
AcDbSpline
210
0.0
220
0.0
230
1.0
 70
     8
 71
     3
 72
    10
 73
     6
 74
     0
 42
0.000000001
 43
0.00000001
 40
0.0
 40
0.0
 40
0.0
 40
0.0
 40
0.447730172267928
 40
0.895443579995629
 40
1.0
 40
1.0
 40
1.0
 40
1.0
 10
140.1687917808737
 20
131.6815144711273
 30
0.0
 10
140.4154890708851
 20
131.7110265171565
 30
0.0
 10
140.9088744137223
 20
131.7700495041837
 30
0.0
 10
141.1978828645928
 20
131.7839876488991
 30
0.0
 10
141.137587569713
 20
131.7801012567997
 30
0.0
 10
141.1261723884751
 20
131.779365480148
 30
0.0
  0
SPLINE
  5
F5
330
1F
100
AcDbEntity
  8
0
  6
HIDDEN
 62
     7
370
     0
100
AcDbSpline
210
0.0
220
0.0
230
1.0
 70
     8
 71
     3
 72
    10
 73
     6
 74
     0
 42
0.000000001
 43
0.00000001
 40
0.0
 40
0.0
 40
0.0
 40
0.0
 40
0.3457593118339834
 40
0.7967853988890287
 40
1.0
 40
1.0
 40
1.0
 40
1.0
 10
141.1261768750046
 20
91.90860620549037
 30
0.0
 10
141.1166175790562
 20
91.90916158392152
 30
0.0
 10
141.0945886497557
 20
91.91044142631372
 30
0.0
 10
140.6775251031914
 20
91.94040752335998
 30
0.0
 10
140.2893602122071
 20
91.99080384776862
 30
0.0
 10
140.1687917808737
 20
92.00645751949435
 30
0.0
  0
LINE
  5
F6
330
1F
100
AcDbEntity
  8
0
  6
HIDDEN
 62
     7
370
     0
100
AcDbLine
 10
127.4177643755
 20
94.8439859953
 30
0.0
 11
127.4177643755
 21
128.8439859953
 31
0.0
  0
SPLINE
  5
F7
330
1F
100
AcDbEntity
  8
0
  6
HIDDEN
 62
     7
370
     0
100
AcDbSpline
210
0.0
220
0.0
230
1.0
 70
     8
 71
     3
 72
     8
 73
     4
 74
     0
 42
0.000000001
 43
0.00000001
 40
0.0
 40
0.0
 40
0.0
 40
0.0
 40
0.0011559732291308
 40
0.0011559732291308
 40
0.0011559732291308
 40
0.0011559732291308
 10
114.5137897792721
 20
113.8438266139375
 30
0.0
 10
114.8471243543394
 20
113.8398593341383
 30
0.0
 10
115.1804555453662
 20
113.8356794515676
 30
0.0
 10
115.5137897792721
 20
113.8311142981598
 30
0.0
  0
SPLINE
  5
F8
330
1F
100
AcDbEntity
  8
0
  6
HIDDEN
 62
     7
370
     0
100
AcDbSpline
210
0.0
220
0.0
230
1.0
 70
     8
 71
     3
 72
    11
 73
     7
 74
     0
 42
0.000000001
 43
0.00000001
 40
0.0
 40
0.0
 40
0.0
 40
0.0
 40
0.0005782382535738
 40
0.0005782382535738
 40
0.0005782382535738
 40
0.0011564766069467
 40
0.0011564766069467
 40
0.0011564766069467
 40
0.0011564766069467
 10
115.5137897792721
 20
109.8472856930926
 30
0.0
 10
115.3471358253035
 20
109.8468481153309
 30
0.0
 10
115.1804751531015
 20
109.8463680506585
 30
0.0
 10
115.0138082644361
 20
109.8458485112892
 30
0.0
 10
114.8471413460401
 20
109.8453289718271
 30
0.0
 10
114.6804682162068
 20
109.8447701428052
 30
0.0
 10
114.5137897792721
 20
109.8441845992221
 30
0.0
  0
LINE
  5
F9
330
1F
100
AcDbEntity
  8
0
  6
HIDDEN
 62
     7
370
     0
100
AcDbLine
 10
154.0736157478
 20
94.8439859953
 30
0.0
 11
154.0736157478
 21
128.8439859953
 31
0.0
  0
LINE
  5
FA
330
1F
100
AcDbEntity
  8
0
  6
HIDDEN
 62
     7
370
     0
100
AcDbLine
 10
156.3637897793
 20
96.1189859953
 30
0.0
 11
156.3637897793
 21
127.5689859851
 31
0.0
  0
SPLINE
  5
FB
330
1F
100
AcDbEntity
  8
0
  6
HIDDEN
 62
     7
370
     0
100
AcDbSpline
210
0.0
220
0.0
230
1.0
 70
     8
 71
     3
 72
    16
 73
    12
 74
     0
 42
0.000000001
 43
0.00000001
 40
0.0
 40
0.0
 40
0.0
 40
0.0
 40
0.124999999999998
 40
0.124999999999998
 40
0.249999999999996
 40
0.249999999999996
 40
0.4999999999999973
 40
0.4999999999999973
 40
0.7499999999999987
 40
0.7499999999999987
 40
1.0
 40
1.0
 40
1.0
 40
1.0
 10
123.2137897792721
 20
96.04249555927916
 30
0.0
 10
123.3089115339379
 20
96.04249555927916
 30
0.0
 10
123.402241602666
 20
96.03867972588635
 30
0.0
 10
123.585503363404
 20
96.02390917315654
 30
0.0
 10
123.676381078961
 20
96.01275112518096
 30
0.0
 10
123.9331827764807
 20
95.97027985503924
 30
0.0
 10
124.0882501413527
 20
95.92923365783643
 30
0.0
 10
124.3419966029074
 20
95.83408754125455
 30
0.0
 10
124.4428670545752
 20
95.77932480717297
 30
0.0
 10
124.5781134692701
 20
95.66806368326911
 30
0.0
 10
124.6137897792721
 20
95.61089394594042
 30
0.0
 10
124.6137897792721
 20
95.55647237290668
 30
0.0
  0
SPLINE
  5
FC
330
1F
100
AcDbEntity
  8
0
  6
HIDDEN
 62
     7
370
     0
100
AcDbSpline
210
0.0
220
0.0
230
1.0
 70
     8
 71
     3
 72
     8
 73
     4
 74
     0
 42
0.000000001
 43
0.00000001
 40
0.0
 40
0.0
 40
0.0
 40
0.0
 40
1.0
 40
1.0
 40
1.0
 40
1.0
 10
115.8137897792732
 20
98.1872985053614
 30
0.0
 10
115.8137897792751
 20
97.30340136304446
 30
0.0
 10
115.8003091533656
 20
96.58881811798251
 30
0.0
 10
115.7989577851745
 20
96.04249555927916
 30
0.0
  0
SPLINE
  5
FD
330
1F
100
AcDbEntity
  8
0
  6
HIDDEN
 62
     7
370
     0
100
AcDbSpline
210
0.0
220
0.0
230
1.0
 70
     8
 71
     3
 72
    10
 73
     6
 74
     0
 42
0.000000001
 43
0.00000001
 40
0.0
 40
0.0
 40
0.0
 40
0.0
 40
0.5
 40
0.5
 40
1.0
 40
1.0
 40
1.0
 40
1.0
 10
115.5137897792721
 20
99.2122087646567
 30
0.0
 10
115.6051808939113
 20
99.03756997811026
 30
0.0
 10
115.6778327269516
 20
98.86396815196383
 30
0.0
 10
115.7853316187719
 20
98.52035473512261
 30
0.0
 10
115.8137897792676
 20
98.35202890963807
 30
0.0
 10
115.8137897792732
 20
98.1872985054209
 30
0.0
  0
LINE
  5
FE
330
1F
100
AcDbEntity
  8
0
  6
HIDDEN
 62
     7
370
     0
100
AcDbLine
 10
115.5137897793
 20
102.2431592106
 30
0.0
 11
115.5137897793
 21
99.2122087647
 31
0.0
  0
SPLINE
  5
FF
330
1F
100
AcDbEntity
  8
0
  6
HIDDEN
 62
     7
370
     0
100
AcDbSpline
210
0.0
220
0.0
230
1.0
 70
     8
 71
     3
 72
    10
 73
     6
 74
     0
 42
0.000000001
 43
0.00000001
 40
0.0
 40
0.0
 40
0.0
 40
0.0
 40
0.5
 40
0.5
 40
1.0
 40
1.0
 40
1.0
 40
1.0
 10
115.8137897792355
 20
103.610999619668
 30
0.0
 10
115.8137897792355
 20
103.369015653496
 30
0.0
 10
115.7856397504894
 20
103.1346732258768
 30
0.0
 10
115.6820498375187
 20
102.679298206142
 30
0.0
 10
115.605421128757
 20
102.4576936442598
 30
0.0
 10
115.5137897792721
 20
102.2431592105505
 30
0.0
  0
LINE
  5
100
330
1F
100
AcDbEntity
  8
0
  6
HIDDEN
 62
     7
370
     0
100
AcDbLine
 10
115.8137897792
 20
115.4486196169
 30
0.0
 11
115.8137897792
 21
103.6109996196
 31
0.0
  0
SPLINE
  5
101
330
1F
100
AcDbEntity
  8
0
  6
HIDDEN
 62
     7
370
     0
100
AcDbSpline
210
0.0
220
0.0
230
1.0
 70
     8
 71
     3
 72
     8
 73
     4
 74
     0
 42
0.000000001
 43
0.00000001
 40
0.0
 40
0.0
 40
0.0
 40
0.0
 40
1.0
 40
1.0
 40
1.0
 40
1.0
 10
115.5137897792721
 20
121.45092530859
 30
0.0
 10
115.6948212439391
 20
121.0188178251786
 30
0.0
 10
115.8137897792413
 20
120.5646724216022
 30
0.0
 10
115.8137897792356
 20
120.0769723709227
 30
0.0
  0
LINE
  5
102
330
1F
100
AcDbEntity
  8
0
  6
HIDDEN
 62
     7
370
     0
100
AcDbLine
 10
115.5137897793
 20
124.4841283088
 30
0.0
 11
115.5137897793
 21
121.4509253086
 31
0.0
  0
SPLINE
  5
103
330
1F
100
AcDbEntity
  8
0
  6
HIDDEN
 62
     7
370
     0
100
AcDbSpline
210
0.0
220
0.0
230
1.0
 70
     8
 71
     3
 72
    10
 73
     6
 74
     0
 42
0.000000001
 43
0.00000001
 40
0.0
 40
0.0
 40
0.0
 40
0.0
 40
0.5
 40
0.5
 40
1.0
 40
1.0
 40
1.0
 40
1.0
 10
115.8137897793772
 20
125.5006734852306
 30
0.0
 10
115.8137897793755
 20
125.3360371396374
 30
0.0
 10
115.7866311089506
 20
125.168881916851
 30
0.0
 10
115.6808661148911
 20
124.8302589111888
 30
0.0
 10
115.6044513273703
 20
124.6579871350322
 30
0.0
 10
115.5137897792722
 20
124.4841283087817
 30
0.0
  0
SPLINE
  5
104
330
1F
100
AcDbEntity
  8
0
  6
HIDDEN
 62
     7
370
     0
100
AcDbSpline
210
0.0
220
0.0
230
1.0
 70
     8
 71
     3
 72
    18
 73
    14
 74
     0
 42
0.000000001
 43
0.00000001
 40
0.0
 40
0.0
 40
0.0
 40
0.0
 40
0.2500000000000033
 40
0.2500000000000033
 40
0.3750000000000029
 40
0.3750000000000029
 40
0.5000000000000026
 40
0.5000000000000026
 40
0.6250000000000022
 40
0.6250000000000022
 40
0.7500000000000018
 40
0.7500000000000018
 40
1.0
 40
1.0
 40
1.0
 40
1.0
 10
120.6137897792721
 20
128.131499617715
 30
0.0
 10
120.6137897792721
 20
128.0770250971627
 30
0.0
 10
120.5788790878799
 20
128.0206440378103
 30
0.0
 10
120.4768697865469
 20
127.9365671969568
 30
0.0
 10
120.4352334318688
 20
127.9092334929659
 30
0.0
 10
120.33682763638
 20
127.8562795773669
 30
0.0
 10
120.2792844246758
 20
127.8303922236497
 30
0.0
 10
120.1519862511028
 20
127.7826146788164
 30
0.0
 10
120.0823989463453
 20
127.7606667606385
 30
0.0
 10
119.9309647011904
 20
127.7212341957258
 30
0.0
 10
119.8482807980964
 20
127.7036779465
 30
0.0
 10
119.5921693360584
 20
127.6612391810795
 30
0.0
 10
119.4042543321704
 20
127.6454764313425
 30
0.0
 10
119.2137897792721
 20
127.6454764313425
 30
0.0
  0
LINE
  5
105
330
1F
100
AcDbEntity
  8
0
  6
HIDDEN
 62
     7
370
     0
100
AcDbLine
 10
119.2137897793
 20
127.6454764313
 30
0.0
 11
115.8137897794
 21
127.6454764313
 31
0.0
  0
LINE
  5
106
330
1F
100
AcDbEntity
  8
0
  6
HIDDEN
 62
     7
370
     0
100
AcDbLine
 10
115.7448207926
 20
96.0424955593
 30
0.0
 11
123.2137897793
 21
96.0424955593
 31
0.0
  0
SPLINE
  5
107
330
1F
100
AcDbEntity
  8
0
  6
HIDDEN
 62
     7
370
     0
100
AcDbSpline
210
0.0
220
0.0
230
1.0
 70
     8
 71
     3
 72
    22
 73
    18
 74
     0
 42
0.000000001
 43
0.00000001
 40
0.0
 40
0.0
 40
0.0
 40
0.0
 40
0.1249999999999999
 40
0.1249999999999999
 40
0.2499999999999997
 40
0.2499999999999997
 40
0.4999999999999999
 40
0.4999999999999999
 40
0.5624999999999998
 40
0.5624999999999998
 40
0.6249999999999998
 40
0.6249999999999998
 40
0.7499999999999998
 40
0.7499999999999998
 40
0.8749999999999999
 40
0.8749999999999999
 40
1.0
 40
1.0
 40
1.0
 40
1.0
 10
115.74482079263
 20
96.04249555927916
 30
0.0
 10
115.7317383999016
 20
96.29760126942682
 30
0.0
 10
115.7185188364618
 20
96.59075952853073
 30
0.0
 10
115.6960716586677
 20
97.25305999415552
 30
0.0
 10
115.6865931916432
 20
97.62333391476692
 30
0.0
 10
115.6673952307067
 20
98.84589071788072
 30
0.0
 10
115.6685090037036
 20
99.78302964401257
 30
0.0
 10
115.6874197966567
 20
101.1029008735276
 30
0.0
 10
115.6920493245156
 20
101.3744027825039
 30
0.0
 10
115.7025305442616
 20
101.9327876173062
 30
0.0
 10
115.708325805546
 20
102.2199104732458
 30
0.0
 10
115.7266350264509
 20
103.0924997276175
 30
0.0
 10
115.7406699607313
 20
103.6929554039733
 30
0.0
 10
115.7701271328682
 20
104.9304298964694
 30
0.0
 10
115.7856828238497
 20
105.5674460531128
 30
0.0
 10
115.8094773738466
 20
106.8789346507974
 30
0.0
 10
115.817496425992
 20
107.5550572624579
 30
0.0
 10
115.8137897792721
 20
108.2393523737427
 30
0.0
  0
LINE
  5
108
330
1F
100
AcDbEntity
  8
0
  6
HIDDEN
 62
     7
370
     0
100
AcDbLine
 10
115.8137897794
 20
115.4486196169
 30
0.0
 11
115.8137897794
 21
127.6454764313
 31
0.0
  0
SPLINE
  5
109
330
1F
100
AcDbEntity
  8
0
  6
HIDDEN
 62
     7
370
     0
100
AcDbSpline
210
0.0
220
0.0
230
1.0
 70
     8
 71
     3
 72
    10
 73
     6
 74
     0
 42
0.000000001
 43
0.00000001
 40
0.0
 40
0.0
 40
0.0
 40
0.0
 40
0.5
 40
0.5
 40
1.0
 40
1.0
 40
1.0
 40
1.0
 10
115.8137897792721
 20
108.2393523737276
 30
0.0
 10
115.8137897792719
 20
108.5132675218017
 30
0.0
 10
115.7880305494031
 20
108.7842091005313
 30
0.0
 10
115.6848246166697
 20
109.3199001821335
 30
0.0
 10
115.6074864527953
 20
109.5856469856552
 30
0.0
 10
115.5137897792721
 20
109.8472856930926
 30
0.0
  0
SPLINE
  5
10A
330
1F
100
AcDbEntity
  8
0
  6
HIDDEN
 62
     7
370
     0
100
AcDbSpline
210
0.0
220
0.0
230
1.0
 70
     8
 71
     3
 72
    10
 73
     6
 74
     0
 42
0.000000001
 43
0.00000001
 40
0.0
 40
0.0
 40
0.0
 40
0.0
 40
0.5
 40
0.5
 40
1.0
 40
1.0
 40
1.0
 40
1.0
 10
115.5137897792721
 20
113.8311142981598
 30
0.0
 10
115.6070203596232
 20
114.0950081047581
 30
0.0
 10
115.6820499711519
 20
114.3611884138565
 30
0.0
 10
115.7871170691315
 20
114.8995109856751
 30
0.0
 10
115.813789779376
 20
115.1722591002908
 30
0.0
 10
115.8137897793772
 20
115.4486196168779
 30
0.0
  0
LINE
  5
10B
330
1F
100
AcDbEntity
  8
0
  6
HIDDEN
 62
     7
370
     0
100
AcDbLine
 10
115.5137897793
 20
109.8472856931
 30
0.0
 11
115.5137897793
 21
113.8311142982
 31
0.0
  0
LINE
  5
10C
330
1F
100
AcDbEntity
  8
0
  6
HIDDEN
 62
     7
370
     0
100
AcDbLine
 10
115.6637897793
 20
93.8539859953
 30
0.0
 11
115.6637897793
 21
90.9740482299
 31
0.0
  0
LINE
  5
10D
330
1F
100
AcDbEntity
  8
0
  6
HIDDEN
 62
     7
370
     0
100
AcDbLine
 10
124.6137897793
 20
93.8539859953
 30
0.0
 11
124.6137897793
 21
89.8802484641
 31
0.0
  0
LINE
  5
10E
330
1F
100
AcDbEntity
  8
0
  6
HIDDEN
 62
     7
370
     0
100
AcDbLine
 10
115.6637897793
 20
129.8339859953
 30
0.0
 11
115.6637897793
 21
132.7139237607
 31
0.0
  0
CIRCLE
  5
10F
330
1F
100
AcDbEntity
  8
0
  6
HIDDEN
 62
     7
370
     0
100
AcDbCircle
 10
182.3637897793
 20
111.8439859953
 30
0.0
 40
2.25
  0
LINE
  5
110
330
1F
100
AcDbEntity
  8
0
  6
HIDDEN
 62
     7
370
     0
100
AcDbLine
 10
120.6137897793
 20
129.8339859953
 30
0.0
 11
120.6137897793
 21
133.6880936677
 31
0.0
  0
LINE
  5
111
330
1F
100
AcDbEntity
  8
0
  6
HIDDEN
 62
     7
370
     0
100
AcDbLine
 10
165.2137897793
 20
102.3439859953
 30
0.0
 11
165.2137897793
 21
121.3439859953
 31
0.0
  0
LINE
  5
112
330
1F
100
AcDbEntity
  8
0
  6
HIDDEN
 62
     7
370
     0
100
AcDbLine
 10
168.2137897793
 20
102.3439859953
 30
0.0
 11
168.2137897793
 21
121.3439859953
 31
0.0
  0
LINE
  5
113
330
1F
100
AcDbEntity
  8
0
  6
HIDDEN
 62
     7
370
     0
100
AcDbLine
 10
156.8637897793
 20
103.3439859953
 30
0.0
 11
156.8637897793
 21
120.3439859953
 31
0.0
  0
LINE
  5
114
330
1F
100
AcDbEntity
  8
0
  6
HIDDEN
 62
     7
370
     0
100
AcDbLine
 10
172.3637897793
 20
85.4439859953
 30
0.0
 11
166.2261149769
 21
85.4439859953
 31
0.0
  0
LINE
  5
115
330
1F
100
AcDbEntity
  8
0
  6
HIDDEN
 62
     7
370
     0
100
AcDbLine
 10
151.3637897793
 20
80.3598630124
 30
0.0
 11
151.3637897793
 21
85.4439859953
 31
0.0
  0
LINE
  5
116
330
1F
100
AcDbEntity
  8
0
  6
HIDDEN
 62
     7
370
     0
100
AcDbLine
 10
159.3637897793
 20
85.4439859953
 30
0.0
 11
151.3637897793
 21
85.4439859953
 31
0.0
  0
LINE
  5
117
330
1F
100
AcDbEntity
  8
0
  6
HIDDEN
 62
     7
370
     0
100
AcDbLine
 10
162.6014645816
 20
85.4439859953
 30
0.0
 11
159.3637897793
 21
85.4439859953
 31
0.0
  0
LINE
  5
118
330
1F
100
AcDbEntity
  8
0
  6
HIDDEN
 62
     7
370
     0
100
AcDbLine
 10
162.898087311
 20
138.2439859953
 30
0.0
 11
159.3637897793
 21
138.2439859953
 31
0.0
  0
LINE
  5
119
330
1F
100
AcDbEntity
  8
0
  6
HIDDEN
 62
     7
370
     0
100
AcDbLine
 10
172.3637897793
 20
138.2439859953
 30
0.0
 11
165.9294922476
 21
138.2439859953
 31
0.0
  0
LINE
  5
11A
330
1F
100
AcDbEntity
  8
0
  6
HIDDEN
 62
     7
370
     0
100
AcDbLine
 10
159.3637897793
 20
138.2439859953
 30
0.0
 11
151.3637897793
 21
138.2439859953
 31
0.0
  0
SPLINE
  5
11B
330
1F
100
AcDbEntity
  8
0
  6
HIDDEN
 62
     7
370
     0
100
AcDbSpline
210
0.0
220
0.0
230
1.0
 70
     8
 71
     3
 72
    11
 73
     7
 74
     0
 42
0.000000001
 43
0.00000001
 40
0.0
 40
0.0
 40
0.0
 40
0.0
 40
0.0008203708524183
 40
0.0008203708524183
 40
0.0008203708524183
 40
0.0016409967870154
 40
0.0016409967870154
 40
0.0016409967870154
 40
0.0016409967870154
 10
115.6637897792721
 20
95.9919532446681
 30
0.0
 10
115.4726314789734
 20
95.95077421604894
 30
0.0
 10
115.2812044089012
 20
95.91202024381896
 30
0.0
 10
115.0895587853806
 20
95.87565248454041
 30
0.0
 10
114.8978533803001
 20
95.83927338077437
 30
0.0
 10
114.7059144282412
 20
95.80527913000684
 30
0.0
 10
114.5137897811704
 20
95.77363100461561
 30
0.0
  0
ELLIPSE
  5
11C
330
1F
100
AcDbEntity
  8
0
  6
HIDDEN
 62
     7
370
     0
100
AcDbEllipse
 10
110.2713579165
 20
111.8439859953
 30
0.0
 11
20.19992452772426
 21
-1.421085471520200E-14
 31
0.0
210
0.0
220
0.0
230
1.0
 40
0.816496581
 41
1.300566354937166
 42
1.359198697442763
  0
LINE
  5
11D
330
1F
100
AcDbEntity
  8
0
  6
HIDDEN
 62
     7
370
     0
100
AcDbLine
 10
115.6637897793
 20
93.8539859953
 30
0.0
 11
115.6637897793
 21
95.9919532447
 31
0.0
  0
LINE
  5
11E
330
1F
100
AcDbEntity
  8
0
  6
HIDDEN
 62
     7
370
     0
100
AcDbLine
 10
115.7448207926
 20
96.0424955593
 30
0.0
 11
115.6637897793
 21
95.9919532447
 31
0.0
  0
LINE
  5
11F
330
1F
100
AcDbEntity
  8
0
  6
HIDDEN
 62
     7
370
     0
100
AcDbLine
 10
124.6137897793
 20
93.8539859953
 30
0.0
 11
124.6137897793
 21
95.5564723729
 31
0.0
  0
LINE
  5
120
330
1F
100
AcDbEntity
  8
0
  6
HIDDEN
 62
     7
370
     0
100
AcDbLine
 10
120.6137897793
 20
129.8339859953
 30
0.0
 11
120.6137897793
 21
128.1314996177
 31
0.0
  0
LINE
  5
121
330
1F
100
AcDbEntity
  8
0
  6
HIDDEN
 62
     7
370
     0
100
AcDbLine
 10
115.6637897793
 20
129.8339859953
 30
0.0
 11
115.6637897793
 21
127.7386104443
 31
0.0
  0
SPLINE
  5
122
330
1F
100
AcDbEntity
  8
0
  6
HIDDEN
 62
     7
370
     0
100
AcDbSpline
210
0.0
220
0.0
230
1.0
 70
     8
 71
     3
 72
     8
 73
     4
 74
     0
 42
0.000000001
 43
0.00000001
 40
0.0
 40
0.0
 40
0.0
 40
0.0
 40
1.0
 40
1.0
 40
1.0
 40
1.0
 10
115.6637897792721
 20
127.7386104443093
 30
0.0
 10
115.7137952771196
 20
127.7075746707765
 30
0.0
 10
115.7637953466879
 20
127.6765300264357
 30
0.0
 10
115.8137897793773
 20
127.6454764313425
 30
0.0
  0
LINE
  5
123
330
1F
100
AcDbEntity
  8
0
  6
HIDDEN
 62
     7
370
     0
100
AcDbLine
 10
174.9137897793
 20
106.6439859953
 30
0.0
 11
174.9137897793
 21
117.0439859953
 31
0.0
  0
LINE
  5
124
330
1F
100
AcDbEntity
  8
0
  6
HIDDEN
 62
     7
370
     0
100
AcDbLine
 10
178.2798151831
 20
106.3439859953
 30
0.0
 11
178.2798151831
 21
117.3439859953
 31
0.0
  0
SPLINE
  5
125
330
1F
100
AcDbEntity
  8
0
  6
HIDDEN
 62
     7
370
     0
100
AcDbSpline
210
0.0
220
0.0
230
1.0
 70
     8
 71
     3
 72
    27
 73
    23
 74
     0
 42
0.000000001
 43
0.00000001
 40
0.0
 40
0.0
 40
0.0
 40
0.0
 40
0.052456791925274
 40
0.1118239064733873
 40
0.177222589681636
 40
0.2122554525057524
 40
0.2488237922445869
 40
0.3294237161011712
 40
0.3980696196450604
 40
0.4372184485793184
 40
0.471041698975352
 40
0.4995485320723237
 40
0.554042529615756
 40
0.6137827389136381
 40
0.6788288060568156
 40
0.7134075527805744
 40
0.7493346556391957
 40
0.82933320133989
 40
0.8976509829639882
 40
0.9542741740764089
 40
0.9992000797643463
 40
1.0
 40
1.0
 40
1.0
 40
1.0
 10
141.162856715305
 20
88.24395659544834
 30
0.0
 10
141.1532241351696
 20
88.24706497970699
 30
0.0
 10
141.1326900403343
 20
88.25369122690715
 30
0.0
 10
140.9463049257049
 20
88.30346713262368
 30
0.0
 10
140.6714156290942
 20
88.36717563080187
 30
0.0
 10
140.363273653516
 20
88.43306357923105
 30
0.0
 10
139.9701547367656
 20
88.5155464249457
 30
0.0
 10
139.3937912198304
 20
88.61790182706477
 30
0.0
 10
138.7205778230584
 20
88.71044434676494
 30
0.0
 10
138.184722242947
 20
88.77202727609462
 30
0.0
 10
137.7909891713662
 20
88.81024075852454
 30
0.0
 10
137.3328125471449
 20
88.84406459967472
 30
0.0
 10
136.7704028000919
 20
88.86364293914876
 30
0.0
 10
136.0850573373727
 20
88.86457157024788
 30
0.0
 10
135.5183849640371
 20
88.84638404898331
 30
0.0
 10
135.082295630506
 20
88.82153153078659
 30
0.0
 10
134.6388470968156
 20
88.78554825597938
 30
0.0
 10
134.1887513741495
 20
88.74006652884249
 30
0.0
 10
133.846938576327
 20
88.69821407824335
 30
0.0
 10
133.7011711401488
 20
88.67459174009551
 30
0.0
 10
133.6517524760461
 20
88.66277090491663
 30
0.0
 10
133.6642357745969
 20
88.66546291788167
 30
0.0
 10
133.6644541554116
 20
88.66551001152301
 30
0.0
  0
SPLINE
  5
126
330
1F
100
AcDbEntity
  8
0
  6
HIDDEN
 62
     7
370
     0
100
AcDbSpline
210
0.0
220
0.0
230
1.0
 70
     8
 71
     3
 72
    27
 73
    23
 74
     0
 42
0.000000001
 43
0.00000001
 40
0.0
 40
0.0
 40
0.0
 40
0.0
 40
0.0008428875936873
 40
0.0457257500139988
 40
0.102307858121213
 40
0.1705864822825967
 40
0.2091784562313308
 40
0.250706020037619
 40
0.3211523482974217
 40
0.3862465917722065
 40
0.4267260581488595
 40
0.4648576092507029
 40
0.5006622060241771
 40
0.545254319084575
 40
0.6017490170740529
 40
0.6701555268575864
 40
0.7088931599248699
 40
0.750622231818256
 40
0.8222873777214402
 40
0.8878273150385606
 40
0.9473015352709756
 40
1.0
 40
1.0
 40
1.0
 40
1.0
 10
133.6644860816994
 20
135.0223941476746
 30
0.0
 10
133.6642541493051
 20
135.022444146995
 30
0.0
 10
133.6516720650991
 20
135.0251565566246
 30
0.0
 10
133.7007386122383
 20
135.0133267128097
 30
0.0
 10
133.8458564344158
 20
134.989879420665
 30
0.0
 10
134.1189044721582
 20
134.95597623017
 30
0.0
 10
134.4474316195762
 20
134.9224072782412
 30
0.0
 10
134.8401592066737
 20
134.8842239810646
 30
0.0
 10
135.389887258897
 20
134.8452552906293
 30
0.0
 10
136.0159098834704
 20
134.825794191021
 30
0.0
 10
136.5591013971906
 20
134.8236085124267
 30
0.0
 10
137.0041702933179
 20
134.8321233937508
 30
0.0
 10
137.4706180901469
 20
134.8519067906789
 30
0.0
 10
138.0078587383761
 20
134.8960691759827
 30
0.0
 10
138.6560721737843
 20
134.9684847971679
 30
0.0
 10
139.241610785576
 20
135.0493868856851
 30
0.0
 10
139.7225804435732
 20
135.1275528853195
 30
0.0
 10
140.1679951539113
 20
135.2123249765009
 30
0.0
 10
140.6064960604769
 20
135.3061083232046
 30
0.0
 10
140.9455169983801
 20
135.3840109819854
 30
0.0
 10
141.1328274474164
 20
135.4341942854649
 30
0.0
 10
141.1533156092235
 20
135.440859777224
 30
0.0
 10
141.1629408996649
 20
135.4439912096444
 30
0.0
  0
SPLINE
  5
127
330
1F
100
AcDbEntity
  8
0
  6
HIDDEN
 62
     7
370
     0
100
AcDbSpline
210
0.0
220
0.0
230
1.0
 70
     8
 71
     3
 72
     8
 73
     4
 74
     0
 42
0.000000001
 43
0.00000001
 40
0.0
 40
0.0
 40
0.0
 40
0.0
 40
0.000159097691435
 40
0.000159097691435
 40
0.000159097691435
 40
0.000159097691435
 10
115.7989577851745
 20
96.04249555927916
 30
0.0
 10
115.7539063157751
 20
96.01451667564525
 30
0.0
 10
115.7088502784655
 20
95.98654514595971
 30
0.0
 10
115.6637897792721
 20
95.95858080729636
 30
0.0
  0
SPLINE
  5
128
330
1F
100
AcDbEntity
  8
0
  6
HIDDEN
 62
     7
370
     0
100
AcDbSpline
210
0.0
220
0.0
230
1.0
 70
     8
 71
     3
 72
    11
 73
     7
 74
     0
 42
0.000000001
 43
0.00000001
 40
0.0
 40
0.0
 40
0.0
 40
0.0
 40
0.0008212909311356
 40
0.0008212909311356
 40
0.0008212909311356
 40
0.0016428257242859
 40
0.0016428257242859
 40
0.0016428257242859
 40
0.0016428257242859
 10
115.6637897792721
 20
95.95858080729636
 30
0.0
 10
115.4726447577898
 20
95.91529461846656
 30
0.0
 10
115.2812264221132
 20
95.87435810885253
 30
0.0
 10
115.0895803474521
 20
95.8357563374897
 30
0.0
 10
114.8978772659105
 20
95.79714308367635
 30
0.0
 10
114.7059321426251
 20
95.76086287441463
 30
0.0
 10
114.5137897792721
 20
95.72689596808789
 30
0.0
  0
LINE
  5
129
330
1F
100
AcDbEntity
  8
0
  6
HIDDEN
 62
     7
370
     0
100
AcDbLine
 10
162.5037897793
 20
131.9798526268
 30
0.0
 11
162.5037897793
 21
131.6939859953
 31
0.0
  0
LINE
  5
12A
330
1F
100
AcDbEntity
  8
0
  6
HIDDEN
 62
     7
370
     0
100
AcDbLine
 10
166.3237897793
 20
131.9798526268
 30
0.0
 11
166.3237897793
 21
131.6939859953
 31
0.0
  0
LINE
  5
12B
330
1F
100
AcDbEntity
  8
0
  6
HIDDEN
 62
     7
370
     0
100
AcDbLine
 10
167.8057226108
 20
136.3026756577
 30
0.0
 11
167.8057226108
 21
131.6939859953
 31
0.0
  0
SPLINE
  5
12C
330
1F
100
AcDbEntity
  8
0
  6
HIDDEN
 62
     7
370
     0
100
AcDbSpline
210
0.0
220
0.0
230
1.0
 70
     8
 71
     3
 72
     8
 73
     4
 74
     0
 42
0.000000001
 43
0.00000001
 40
0.0000000000000004
 40
0.0000000000000004
 40
0.0000000000000004
 40
0.0000000000000004
 40
0.001156372467817
 40
0.001156372467817
 40
0.001156372467817
 40
0.001156372467817
 10
115.5137897792724
 20
124.4841283087865
 30
0.0
 10
115.1804686640751
 20
124.6131873344133
 30
0.0
 10
114.8471359832671
 20
124.7421476705819
 30
0.0
 10
114.5137897792721
 20
124.8710592003548
 30
0.0
  0
SPLINE
  5
12D
330
1F
100
AcDbEntity
  8
0
  6
HIDDEN
 62
     7
370
     0
100
AcDbSpline
210
0.0
220
0.0
230
1.0
 70
     8
 71
     3
 72
    11
 73
     7
 74
     0
 42
0.000000001
 43
0.00000001
 40
0.0
 40
0.0
 40
0.0
 40
0.0
 40
0.000577874610501
 40
0.000577874610501
 40
0.000577874610501
 40
0.001155749485703
 40
0.001155749485703
 40
0.001155749485703
 40
0.001155749485703
 10
114.5137897792721
 20
98.81676413286009
 30
0.0
 10
114.6804566556852
 20
98.8825762596431
 30
0.0
 10
114.8471233752465
 20
98.94843473987066
 30
0.0
 10
115.0137900232951
 20
99.01434231289302
 30
0.0
 10
115.1804567478138
 20
99.0802499161551
 30
0.0
 10
115.3471234422344
 20
99.14620702463708
 30
0.0
 10
115.5137897792721
 20
99.2122087646567
 30
0.0
  0
SPLINE
  5
12E
330
1F
100
AcDbEntity
  8
0
  6
HIDDEN
 62
     7
370
     0
100
AcDbSpline
210
0.0
220
0.0
230
1.0
 70
     8
 71
     3
 72
    11
 73
     7
 74
     0
 42
0.000000001
 43
0.00000001
 40
0.0000000000000006
 40
0.0000000000000006
 40
0.0000000000000006
 40
0.0000000000000006
 40
0.000578048606266
 40
0.000578048606266
 40
0.000578048606266
 40
0.001156097351391
 40
0.001156097351391
 40
0.001156097351391
 40
0.001156097351391
 10
114.5137897792721
 20
121.8248004885981
 30
0.0
 10
114.6804596353173
 20
121.7624286271929
 30
0.0
 10
114.8471273394017
 20
121.7000747670015
 30
0.0
 10
115.0137936438554
 20
121.6377552069179
 30
0.0
 10
115.1804599845491
 20
121.5754356332835
 30
0.0
 10
115.3471249411778
 20
121.513150429063
 30
0.0
 10
115.5137897792721
 20
121.45092530859
 30
0.0
  0
SPLINE
  5
12F
330
1F
100
AcDbEntity
  8
0
  6
HIDDEN
 62
     7
370
     0
100
AcDbSpline
210
0.0
220
0.0
230
1.0
 70
     8
 71
     3
 72
    11
 73
     7
 74
     0
 42
0.000000001
 43
0.00000001
 40
0.0
 40
0.0
 40
0.0
 40
0.0
 40
0.0005782401583357
 40
0.0005782401583357
 40
0.0005782401583357
 40
0.001156480596064
 40
0.001156480596064
 40
0.001156480596064
 40
0.001156480596064
 10
115.5137897792721
 20
102.2431592105505
 30
0.0
 10
115.3471388289234
 20
102.1797337526114
 30
0.0
 10
115.1804792363408
 20
102.1163782290816
 30
0.0
 10
115.0138121839123
 20
102.0530806448603
 30
0.0
 10
114.8471450473484
 20
101.9897830286857
 30
0.0
 10
114.6804704399023
 20
101.9265432338768
 30
0.0
 10
114.5137897792721
 20
101.8633432273725
 30
0.0
  0
CIRCLE
  5
130
330
1F
100
AcDbEntity
  8
0
  6
HIDDEN
 62
     7
370
     0
100
AcDbCircle
 10
153.4137897793
 20
111.8439859953
 30
0.0
 40
5.000000000000014
  0
LINE
  5
131
330
1F
100
AcDbEntity
  8
0
  6
HIDDEN
 62
     7
370
     0
100
AcDbLine
 10
146.4137897793
 20
86.5200548493
 30
0.0
 11
146.5079505548
 21
87.1900435806
 31
0.0
  0
LINE
  5
132
330
1F
100
AcDbEntity
  8
0
  6
HIDDEN
 62
     7
370
     0
100
AcDbLine
 10
146.5079505548
 20
136.4979284101
 30
0.0
 11
146.4137897793
 21
137.1679171413
 31
0.0
  0
ARC
  5
133
330
1F
100
AcDbEntity
  8
0
  6
HIDDEN
 62
     7
370
     0
100
AcDbCircle
 10
145.9137830266
 20
87.2735483809
 30
0.0
 40
0.6000067526677101
100
AcDbArc
 50
352.0
 51
0.0
  0
ARC
  5
134
330
1F
100
AcDbEntity
  8
0
  6
HIDDEN
 62
     7
370
     0
100
AcDbCircle
 10
145.9137830266
 20
87.2735483809
 30
0.0
 40
0.6000067526677361
100
AcDbArc
 50
0.0
 51
33.5571153394
  0
ARC
  5
135
330
1F
100
AcDbEntity
  8
0
  6
HIDDEN
 62
     7
370
     0
100
AcDbCircle
 10
145.9137830266
 20
136.4144236097
 30
0.0
 40
0.6000067526677308
100
AcDbArc
 50
348.75
 51
8.0
  0
LWPOLYLINE
  5
136
330
1F
100
AcDbEntity
  8
0
  6
HIDDEN
 62
     7
370
     0
100
AcDbPolyline
 90
        3
 70
   128
 43
0.0
 10
146.5022608178
 20
136.2973680991
 10
146.4681169848
 20
136.1848109661
 10
146.4137897793
 20
136.0827590947
  0
LINE
  5
137
330
1F
100
AcDbEntity
  8
0
  6
HIDDEN
 62
     7
370
     0
100
AcDbLine
 10
146.5137897793
 20
87.2735483809
 30
0.0
 11
146.5137897793
 21
136.4144236097
 31
0.0
  0
LINE
  5
138
330
1F
100
AcDbEntity
  8
0
  6
HIDDEN
 62
     7
370
     0
100
AcDbLine
 10
129.4962253446
 20
91.8439859953
 30
0.0
 11
133.6878972328
 21
91.8439859953
 31
0.0
  0
LINE
  5
139
330
1F
100
AcDbEntity
  8
0
  6
HIDDEN
 62
     7
370
     0
100
AcDbLine
 10
133.6878972328
 20
131.8439859953
 30
0.0
 11
129.4962253446
 21
131.8439859953
 31
0.0
  0
ARC
  5
13A
330
1F
100
AcDbEntity
  8
0
  6
HIDDEN
 62
     7
370
     0
100
AcDbCircle
 10
140.1687917809
 20
99.8439859953
 30
0.0
 40
8.000000000000016
100
AcDbArc
 50
276.8838637475
 51
321.3178125465
  0
ARC
  5
13B
330
1F
100
AcDbEntity
  8
0
  6
HIDDEN
 62
     7
370
     0
100
AcDbCircle
 10
140.1687917809
 20
123.8439859953
 30
0.0
 40
8.000000000000025
100
AcDbArc
 50
38.6821874535
 51
83.1249915795
  0
ARC
  5
13C
330
1F
100
AcDbEntity
  8
0
  6
HIDDEN
 62
     7
370
     0
100
AcDbCircle
 10
129.4962253446
 20
92.4439859953
 30
0.0
 40
0.6000000000000085
100
AcDbArc
 50
210.0
 51
270.0
  0
ARC
  5
13D
330
1F
100
AcDbEntity
  8
0
  6
HIDDEN
 62
     7
370
     0
100
AcDbCircle
 10
129.4962253446
 20
131.2439859953
 30
0.0
 40
0.5999999999999943
100
AcDbArc
 50
90.0
 51
150.0
  0
LINE
  5
13E
330
1F
100
AcDbEntity
  8
0
  6
HIDDEN
 62
     7
370
     0
100
AcDbLine
 10
128.9766101023
 20
131.5439859953
 30
0.0
 11
127.4177643755
 21
128.8439859953
 31
0.0
  0
LINE
  5
13F
330
1F
100
AcDbEntity
  8
0
  6
HIDDEN
 62
     7
370
     0
100
AcDbLine
 10
127.4177643755
 20
94.8439859953
 30
0.0
 11
128.9766101023
 21
92.1439859953
 31
0.0
  0
ARC
  5
140
330
1F
100
AcDbEntity
  8
0
  6
HIDDEN
 62
     7
370
     0
100
AcDbCircle
 10
154.8637897793
 20
96.1189859953
 30
0.0
 40
1.500000000000004
100
AcDbArc
 50
238.2116693829
 51
0.0
  0
ARC
  5
141
330
1F
100
AcDbEntity
  8
0
  6
HIDDEN
 62
     7
370
     0
100
AcDbCircle
 10
154.8637897793
 20
127.5689859953
 30
0.0
 40
1.500000000000028
100
AcDbArc
 50
0.0
 51
121.7883306171
  0
LINE
  5
142
330
1F
100
AcDbEntity
  8
0
  6
HIDDEN
 62
     7
370
     0
100
AcDbLine
 10
146.4137897793
 20
94.8439859953
 30
0.0
 11
154.0736157478
 21
94.8439859953
 31
0.0
  0
LINE
  5
143
330
1F
100
AcDbEntity
  8
0
  6
HIDDEN
 62
     7
370
     0
100
AcDbLine
 10
154.0736157478
 20
128.8439859953
 30
0.0
 11
146.4137897793
 21
128.8439859953
 31
0.0
  0
LINE
  5
144
330
1F
100
AcDbEntity
  8
0
  6
HIDDEN
 62
     7
370
     0
100
AcDbLine
 10
124.6137897793
 20
94.8439859953
 30
0.0
 11
127.4177643755
 21
94.8439859953
 31
0.0
  0
LINE
  5
145
330
1F
100
AcDbEntity
  8
0
  6
HIDDEN
 62
     7
370
     0
100
AcDbLine
 10
127.4177643755
 20
128.8439859953
 30
0.0
 11
120.6137897793
 21
128.8439859953
 31
0.0
  0
LINE
  5
146
330
1F
100
AcDbEntity
  8
0
  6
HIDDEN
 62
     7
370
     0
100
AcDbLine
 10
165.2137897793
 20
102.3439859953
 30
0.0
 11
168.2137897793
 21
102.3439859953
 31
0.0
  0
LINE
  5
147
330
1F
100
AcDbEntity
  8
0
  6
HIDDEN
 62
     7
370
     0
100
AcDbLine
 10
168.2137897793
 20
121.3439859953
 30
0.0
 11
165.2137897793
 21
121.3439859953
 31
0.0
  0
LINE
  5
148
330
1F
100
AcDbEntity
  8
0
  6
HIDDEN
 62
     7
370
     0
100
AcDbLine
 10
156.3637897793
 20
102.8439859953
 30
0.0
 11
156.8637897793
 21
103.3439859953
 31
0.0
  0
LINE
  5
149
330
1F
100
AcDbEntity
  8
0
  6
HIDDEN
 62
     7
370
     0
100
AcDbLine
 10
156.8637897793
 20
120.3439859953
 30
0.0
 11
156.3637897793
 21
120.8439859953
 31
0.0
  0
LINE
  5
14A
330
1F
100
AcDbEntity
  8
0
  6
HIDDEN
 62
     7
370
     0
100
AcDbLine
 10
156.8637897793
 20
103.3439859953
 30
0.0
 11
165.2137897793
 21
103.3439859953
 31
0.0
  0
LINE
  5
14B
330
1F
100
AcDbEntity
  8
0
  6
HIDDEN
 62
     7
370
     0
100
AcDbLine
 10
165.2137897793
 20
120.3439859953
 30
0.0
 11
156.8637897793
 21
120.3439859953
 31
0.0
  0
LINE
  5
14C
330
1F
100
AcDbEntity
  8
0
  6
HIDDEN
 62
     7
370
     0
100
AcDbLine
 10
151.3637897793
 20
143.3439859953
 30
0.0
 11
151.3637897793
 21
138.2439859953
 31
0.0
  0
ARC
  5
14D
330
1F
100
AcDbEntity
  8
0
  6
HIDDEN
 62
     7
370
     0
100
AcDbCircle
 10
187.4137897793
 20
105.3439859953
 30
0.0
 40
1.0
100
AcDbArc
 50
0.0
 51
90.0
  0
ARC
  5
14E
330
1F
100
AcDbEntity
  8
0
  6
HIDDEN
 62
     7
370
     0
100
AcDbCircle
 10
187.4137897793
 20
118.3439859953
 30
0.0
 40
1.0
100
AcDbArc
 50
270.0
 51
0.0
  0
ARC
  5
14F
330
1F
100
AcDbEntity
  8
0
  6
HIDDEN
 62
     7
370
     0
100
AcDbCircle
 10
176.3084677812
 20
106.6439859953
 30
0.0
 40
0.8000000000000119
100
AcDbArc
 50
270.0
 51
285.0
  0
ARC
  5
150
330
1F
100
AcDbEntity
  8
0
  6
HIDDEN
 62
     7
370
     0
100
AcDbCircle
 10
176.3084677812
 20
117.0439859953
 30
0.0
 40
0.8000000000000119
100
AcDbArc
 50
75.0
 51
90.0
  0
ARC
  5
151
330
1F
100
AcDbEntity
  8
0
  6
HIDDEN
 62
     7
370
     0
100
AcDbCircle
 10
175.7137897793
 20
106.6439859953
 30
0.0
 40
0.8000000000000114
100
AcDbArc
 50
180.0
 51
270.0
  0
ARC
  5
152
330
1F
100
AcDbEntity
  8
0
  6
HIDDEN
 62
     7
370
     0
100
AcDbCircle
 10
175.7137897793
 20
117.0439859953
 30
0.0
 40
0.8000000000000114
100
AcDbArc
 50
90.0
 51
180.0
  0
LINE
  5
153
330
1F
100
AcDbEntity
  8
0
  6
HIDDEN
 62
     7
370
     0
100
AcDbLine
 10
175.7137897793
 20
105.8439859953
 30
0.0
 11
176.3084677812
 21
105.8439859953
 31
0.0
  0
LINE
  5
154
330
1F
100
AcDbEntity
  8
0
  6
HIDDEN
 62
     7
370
     0
100
AcDbLine
 10
176.3084677812
 20
117.8439859953
 30
0.0
 11
175.7137897793
 21
117.8439859953
 31
0.0
  0
LINE
  5
155
330
1F
100
AcDbEntity
  8
0
  6
HIDDEN
 62
     7
370
     0
100
AcDbLine
 10
176.5155230173
 20
105.8712453343
 30
0.0
 11
178.2798151831
 21
106.3439859953
 31
0.0
  0
LINE
  5
156
330
1F
100
AcDbEntity
  8
0
  6
HIDDEN
 62
     7
370
     0
100
AcDbLine
 10
178.2798151831
 20
117.3439859953
 30
0.0
 11
176.5155230173
 21
117.8167266563
 31
0.0
  0
LINE
  5
157
330
1F
100
AcDbEntity
  8
0
  6
HIDDEN
 62
     7
370
     0
100
AcDbLine
 10
178.2798151831
 20
106.3439859953
 30
0.0
 11
187.4137897793
 21
106.3439859953
 31
0.0
  0
LINE
  5
158
330
1F
100
AcDbEntity
  8
0
  6
HIDDEN
 62
     7
370
     0
100
AcDbLine
 10
187.4137897793
 20
117.3439859953
 30
0.0
 11
178.2798151831
 21
117.3439859953
 31
0.0
  0
LINE
  5
159
330
1F
100
AcDbEntity
  8
0
  6
HIDDEN
 62
     7
370
     0
100
AcDbLine
 10
141.5982276097
 20
87.7646146618
 30
0.0
 11
141.1637954602
 21
88.2436806809
 31
0.0
  0
LINE
  5
15A
330
1F
100
AcDbEntity
  8
0
  6
HIDDEN
 62
     7
370
     0
100
AcDbLine
 10
133.6637921352
 20
88.66536864
 30
0.0
 11
133.1813583918
 21
88.1863026646
 31
0.0
  0
LINE
  5
15B
330
1F
100
AcDbEntity
  8
0
  6
HIDDEN
 62
     7
370
     0
100
AcDbLine
 10
133.1812364636
 20
135.5016640356
 30
0.0
 11
133.6637872146
 21
135.0225437777
 31
0.0
  0
LINE
  5
15C
330
1F
100
AcDbEntity
  8
0
  6
HIDDEN
 62
     7
370
     0
100
AcDbLine
 10
141.1637896613
 20
135.4442415554
 30
0.0
 11
141.5983320516
 21
135.923361806
 31
0.0
  0
LINE
  5
15D
330
1F
100
AcDbEntity
  8
0
  6
HIDDEN
 62
     7
370
     0
100
AcDbLine
 10
168.2137897793
 20
107.6439859953
 30
0.0
 11
174.9137897793
 21
107.6439859953
 31
0.0
  0
LINE
  5
15E
330
1F
100
AcDbEntity
  8
0
  6
HIDDEN
 62
     7
370
     0
100
AcDbLine
 10
174.9137897793
 20
116.0439859953
 30
0.0
 11
168.2137897793
 21
116.0439859953
 31
0.0
  0
LINE
  5
15F
330
1F
100
AcDbEntity
  8
0
  6
HIDDEN
 62
     7
370
     0
100
AcDbLine
 10
141.1637897793
 20
131.7793863336
 30
0.0
 11
141.1637897793
 21
135.4439502493
 31
0.0
  0
LINE
  5
160
330
1F
100
AcDbEntity
  8
0
  6
HIDDEN
 62
     7
370
     0
100
AcDbLine
 10
133.6637897793
 20
135.0223999985
 30
0.0
 11
133.6637897793
 21
131.8396082273
 31
0.0
  0
LINE
  5
161
330
1F
100
AcDbEntity
  8
0
  6
HIDDEN
 62
     7
370
     0
100
AcDbLine
 10
141.1637897793
 20
88.243935647
 30
0.0
 11
141.1637897793
 21
91.9085856571
 31
0.0
  0
LINE
  5
162
330
1F
100
AcDbEntity
  8
0
  6
HIDDEN
 62
     7
370
     0
100
AcDbLine
 10
133.6637897793
 20
91.8483637634
 30
0.0
 11
133.6637897793
 21
88.6655500651
 31
0.0
  0
DIMENSION
  5
163
330
1F
100
AcDbEntity
  8
VERMASSUNG
100
AcDbDimension
  2
_D
 10
104.3684859369
 20
80.3439859953
 30
0.0
 11
104.3684859369
 21
111.8439859953
 31
0.0
 70
   160
  1
HSK A %%c<>
 71
     2
 42
-1.0
  3
SLDDIMSTYLE0
100
AcDbAlignedDimension
 13
146.7137897793
 23
143.3439859953
 33
0.0
 14
146.7137897793
 24
80.3439859953
 34
0.0
 50
90.0
100
AcDbRotatedDimension
  0
DIMENSION
  5
170
330
1F
100
AcDbEntity
  8
VERMASSUNG
100
AcDbDimension
  2
_D_1
 10
199.8162519914
 20
101.8439859953
 30
0.0
 11
199.8162519914
 21
111.8439859953
 31
0.0
 70
   160
  1
WH%%c<>
 71
     2
 42
-1.0
  3
SLDDIMSTYLE0
100
AcDbAlignedDimension
 13
188.2137897793
 23
121.8439859953
 33
0.0
 14
188.2137897793
 24
101.8439859953
 34
0.0
 50
90.0
100
AcDbRotatedDimension
  0
DIMENSION
  5
17C
330
1F
100
AcDbEntity
  8
VERMASSUNG
100
AcDbDimension
  2
_D_2
 10
193.5162519914
 20
106.3439859953
 30
0.0
 11
193.5162519914
 21
111.8439859953
 31
0.0
 70
   160
  1
%%c<>
 71
     2
 42
-1.0
  3
SLDDIMSTYLE0
100
AcDbAlignedDimension
 13
187.4137897793
 23
117.3439859953
 33
0.0
 14
187.4137897793
 24
106.3439859953
 34
0.0
 50
90.0
100
AcDbRotatedDimension
  0
DIMENSION
  5
187
330
1F
100
AcDbEntity
  8
VERMASSUNG
100
AcDbDimension
  2
_D_3
 10
172.3637897793
 20
146.433638249
 30
0.0
 11
180.3887897793
 21
146.433638249
 31
0.0
 70
   160
  1
(<>)
 71
     2
 42
-1.0
  3
SLDDIMSTYLE0
100
AcDbAlignedDimension
 13
188.4137897793
 23
121.6439859953
 33
0.0
 14
172.3637897793
 24
141.6904263191
 34
0.0
100
AcDbRotatedDimension
  0
DIMENSION
  5
193
330
1F
100
AcDbEntity
  8
VERMASSUNG
100
AcDbDimension
  2
_D_4
 10
146.4137897793
 20
152.433638249
 30
0.0
 11
167.4137897793
 21
152.433638249
 31
0.0
 70
   160
  1
<>
 71
     2
 42
-1.0
  3
SLDDIMSTYLE0
100
AcDbAlignedDimension
 13
188.4137897793
 23
121.6439859953
 33
0.0
 14
146.4137897793
 24
143.0439859953
 34
0.0
100
AcDbRotatedDimension
  0
DIMENSION
  5
19D
330
1F
100
AcDbEntity
  8
VERMASSUNG
100
AcDbDimension
  2
_D_5
 10
114.5137897793
 20
158.433638249
 30
0.0
 11
151.4637897793
 21
158.433638249
 31
0.0
 70
   160
  1
(<>)
 71
     2
 42
-1.0
  3
SLDDIMSTYLE0
100
AcDbAlignedDimension
 13
188.4137897793
 23
121.6439859953
 33
0.0
 14
114.5137897793
 24
131.5346637418
 34
0.0
100
AcDbRotatedDimension
  0
LINE
  5
1A9
330
1F
100
AcDbEntity
  8
VERMASSUNG
  6
CENTERX2
370
     0
100
AcDbLine
 10
189.4734232848
 20
111.8439859953
 30
0.0
 11
113.1218479321
 21
111.8439859953
 31
0.0
  0
LINE
  5
1AA
330
1F
100
AcDbEntity
  8
0
  6
Continuous
 62
     7
370
    15
100
AcDbLine
 10
245.2680929252
 20
47.0490925947
 30
0.0
 11
245.1620096736
 21
47.110353059
 31
0.0
  0
LINE
  5
1AB
330
1F
100
AcDbEntity
  8
0
  6
Continuous
 62
     7
370
    15
100
AcDbLine
 10
243.6061219821
 20
47.110353059
 30
0.0
 11
243.5000387305
 21
47.0490925947
 31
0.0
  0
LINE
  5
1AC
330
1F
100
AcDbEntity
  8
0
  6
Continuous
 62
     7
370
    15
100
AcDbLine
 10
243.1340658278
 20
46.5389204489
 30
0.0
 11
243.1340658278
 21
46.4733995954
 31
0.0
  0
LINE
  5
1AD
330
1F
100
AcDbEntity
  8
0
  6
Continuous
 62
     7
370
    15
100
AcDbLine
 10
245.6340658278
 20
46.4733995954
 30
0.0
 11
245.6340658278
 21
46.5389204489
 31
0.0
  0
LINE
  5
1AE
330
1F
100
AcDbEntity
  8
0
  6
Continuous
 62
     7
370
    15
100
AcDbLine
 10
223.9055274337
 20
36.3328660545
 30
0.0
 11
228.9641930939
 21
33.4125605293
 31
0.0
  0
LINE
  5
1AF
330
1F
100
AcDbEntity
  8
0
  6
Continuous
 62
     7
370
    15
100
AcDbLine
 10
241.8374240401
 20
62.3530842138
 30
0.0
 11
239.6542474727
 21
63.6134052195
 31
0.0
  0
SPLINE
  5
1B0
330
1F
100
AcDbEntity
  8
0
  6
Continuous
 62
     7
370
    15
100
AcDbSpline
210
0.0
220
0.0
230
1.0
 70
     8
 71
     3
 72
    10
 73
     6
 74
     0
 42
0.000000001
 43
0.00000001
 40
0.0
 40
0.0
 40
0.0
 40
0.0
 40
0.1928762709510331
 40
0.6849555902905574
 40
1.0
 40
1.0
 40
1.0
 40
1.0
 10
220.728682912947
 20
45.58208057096088
 30
0.0
 10
220.7112073798369
 20
45.45093664423786
 30
0.0
 10
220.6491470546446
 20
44.98520923620229
 30
0.0
 10
220.6089210820091
 20
44.3255693711027
 30
0.0
 10
220.6018008896449
 20
43.80740668181763
 30
0.0
 10
220.5990216666836
 20
43.60515236478545
 30
0.0
  0
SPLINE
  5
1B1
330
1F
100
AcDbEntity
  8
0
  6
Continuous
 62
     7
370
    15
100
AcDbSpline
210
0.0
220
0.0
230
1.0
 70
     8
 71
     3
 72
    10
 73
     6
 74
     0
 42
0.000000001
 43
0.00000001
 40
0.0
 40
0.0
 40
0.0
 40
0.0
 40
0.1068604487569824
 40
0.5990694535020638
 40
1.0
 40
1.0
 40
1.0
 40
1.0
 10
228.0174805161774
 20
59.98019666154813
 30
0.0
 10
227.96155189545
 20
59.92707403232164
 30
0.0
 10
227.6480109301631
 20
59.62926371213776
 30
0.0
 10
227.1406453667945
 20
59.08750273263013
 30
0.0
 10
226.7040766245859
 20
58.57646825983601
 30
0.0
 10
226.5081008174973
 20
58.34706476945033
 30
0.0
  0
SPLINE
  5
1B2
330
1F
100
AcDbEntity
  8
0
  6
Continuous
 62
     7
370
    15
100
AcDbSpline
210
0.0
220
0.0
230
1.0
 70
     8
 71
     3
 72
    15
 73
    11
 74
     0
 42
0.000000001
 43
0.00000001
 40
0.0
 40
0.0
 40
0.0
 40
0.0
 40
0.0731587950569779
 40
0.2097742051819594
 40
0.3464328176106916
 40
0.4831057712011718
 40
0.6197710050181066
 40
0.7564195754197276
 40
0.8930472860919099
 40
1.0
 40
1.0
 40
1.0
 40
1.0
 10
233.8874373395189
 20
63.8433708478246
 30
0.0
 10
233.74466569392
 20
63.79527850982314
 30
0.0
 10
233.3352848606967
 20
63.65737941003971
 30
0.0
 10
232.6491384147331
 20
63.34931259599284
 30
0.0
 10
231.8349389849055
 20
62.92732853842878
 30
0.0
 10
231.0201924751278
 20
62.43273171638611
 30
0.0
 10
230.209681948425
 20
61.87342596472793
 30
0.0
 10
229.4082894367248
 20
61.24910338478323
 30
0.0
 10
228.6745949117783
 20
60.62038359009574
 30
0.0
 10
228.2179755913668
 20
60.17552692250982
 30
0.0
 10
228.0174805161774
 20
59.98019666154813
 30
0.0
  0
SPLINE
  5
1B3
330
1F
100
AcDbEntity
  8
0
  6
Continuous
 62
     7
370
    15
100
AcDbSpline
210
0.0
220
0.0
230
1.0
 70
     8
 71
     3
 72
    11
 73
     7
 74
     0
 42
0.000000001
 43
0.00000001
 40
0.0
 40
0.0
 40
0.0
 40
0.0
 40
0.1952692711213227
 40
0.5662509004869095
 40
0.937327122974947
 40
1.0
 40
1.0
 40
1.0
 40
1.0
 10
220.5990216666836
 20
43.60515236478545
 30
0.0
 10
220.6005774058453
 20
43.44093175700295
 30
0.0
 10
220.6050888105135
 20
42.96471721233161
 30
0.0
 10
220.6624804901367
 20
42.20704413877377
 30
0.0
 10
220.7375478851879
 20
41.57296712740165
 30
0.0
 10
220.8089630183916
 20
41.25552044630683
 30
0.0
 10
220.8192818683121
 20
41.20965223164403
 30
0.0
  0
LINE
  5
1B4
330
1F
100
AcDbEntity
  8
0
  6
Continuous
 62
     7
370
    15
100
AcDbLine
 10
246.4529277865
 20
37.4205291945
 30
0.0
 11
246.5236269722
 21
37.4613562346
 31
0.0
  0
LINE
  5
1B5
330
1F
100
AcDbEntity
  8
0
  6
Continuous
 62
     7
370
    15
100
AcDbLine
 10
249.9878870687
 20
43.4622809452
 30
0.0
 11
249.9878870687
 21
43.5439217564
 31
0.0
  0
LINE
  5
1B6
330
1F
100
AcDbEntity
  8
0
  6
Continuous
 62
     7
370
    15
100
AcDbLine
 10
239.4093952621
 20
39.7953682242
 30
0.0
 11
243.9525563312
 21
37.1726571649
 31
0.0
  0
LINE
  5
1B7
330
1F
100
AcDbEntity
  8
0
  6
Continuous
 62
     7
370
    15
100
AcDbLine
 10
248.9521499944
 20
45.8331457887
 30
0.0
 11
244.4089889253
 21
48.455856848
 31
0.0
  0
SPLINE
  5
1B8
330
1F
100
AcDbEntity
  8
0
  6
Continuous
 62
     7
370
    15
100
AcDbSpline
210
0.0
220
0.0
230
1.0
 70
     8
 71
     3
 72
    13
 73
     9
 74
     0
 42
0.000000001
 43
0.00000001
 40
0.0
 40
0.0
 40
0.0
 40
0.0
 40
0.0089568030194352
 40
0.2700212141426246
 40
0.4787266073812955
 40
0.6788323601179637
 40
0.8919549701613285
 40
1.0
 40
1.0
 40
1.0
 40
1.0
 10
244.7929851888028
 20
39.28676954914365
 30
0.0
 10
244.7907115005708
 20
39.28767479953526
 30
0.0
 10
244.7221665012369
 20
39.31496543094871
 30
0.0
 10
244.6313979012354
 20
39.41171707143219
 30
0.0
 10
244.506335997387
 20
39.5993633637201
 30
0.0
 10
244.4198352724798
 20
39.84475801407786
 30
0.0
 10
244.3767193538754
 20
40.09940710062035
 30
0.0
 10
244.3727490680113
 20
40.2790766960009
 30
0.0
 10
244.3714134114837
 20
40.33951991749458
 30
0.0
  0
SPLINE
  5
1B9
330
1F
100
AcDbEntity
  8
0
  6
Continuous
 62
     7
370
    15
100
AcDbSpline
210
0.0
220
0.0
230
1.0
 70
     8
 71
     3
 72
    22
 73
    18
 74
     0
 42
0.000000001
 43
0.00000001
 40
0.0
 40
0.0
 40
0.0
 40
0.0
 40
0.0359284972314552
 40
0.1051341486899417
 40
0.1748148715798403
 40
0.2449513837626559
 40
0.315423632980758
 40
0.3860618295219905
 40
0.4566716394117821
 40
0.5270141370796089
 40
0.5969055839961676
 40
0.666189603063128
 40
0.7348056125873265
 40
0.8029566607730638
 40
0.8712360015810463
 40
0.9411760746004353
 40
1.0
 40
1.0
 40
1.0
 40
1.0
 10
244.3714134114837
 20
40.33951991749458
 30
0.0
 10
244.3727864623685
 20
40.40304597197611
 30
0.0
 10
244.37680429075
 20
40.58893623102368
 30
0.0
 10
244.4230180740254
 20
40.92692665753101
 30
0.0
 10
244.528699520535
 20
41.35082313302643
 30
0.0
 10
244.6869046433636
 20
41.78626932166753
 30
0.0
 10
244.8929673047995
 20
42.21823703505805
 30
0.0
 10
245.1411106753079
 20
42.63276628168141
 30
0.0
 10
245.4232011067125
 20
43.01616679909253
 30
0.0
 10
245.7294215772094
 20
43.35609668358075
 30
0.0
 10
246.048457997426
 20
43.64206443794389
 30
0.0
 10
246.3679551104002
 20
43.86618744526694
 30
0.0
 10
246.67481012436
 20
44.02369302910775
 30
0.0
 10
246.9563209481776
 20
44.11443600358261
 30
0.0
 10
247.2002420001408
 20
44.14112657055347
 30
0.0
 10
247.3904578039102
 20
44.12072742683003
 30
0.0
 10
247.4834966803482
 20
44.07376805870674
 30
0.0
 10
247.5260001129384
 20
44.05231536695118
 30
0.0
  0
SPLINE
  5
1BA
330
1F
100
AcDbEntity
  8
0
  6
Continuous
 62
     7
370
    15
100
AcDbSpline
210
0.0
220
0.0
230
1.0
 70
     8
 71
     3
 72
    24
 73
    20
 74
     0
 42
0.000000001
 43
0.00000001
 40
0.0
 40
0.0
 40
0.0
 40
0.0
 40
0.0145090713337135
 40
0.0770974604030307
 40
0.1399137020949139
 40
0.2029476294953861
 40
0.2661627490026145
 40
0.3295116536681056
 40
0.3929480391341843
 40
0.4564333690103148
 40
0.5199389942944416
 40
0.5834416563220284
 40
0.6469307051614022
 40
0.7104012016256084
 40
0.7738515381012905
 40
0.8372822770781304
 40
0.9006953412852846
 40
0.9640934750776287
 40
1.0
 40
1.0
 40
1.0
 40
1.0
 10
234.854040059371
 20
30.52297049975016
 30
0.0
 10
234.9075019342924
 20
30.51348873763547
 30
0.0
 10
235.1915845395825
 20
30.46310510091783
 30
0.0
 10
235.7353760193381
 20
30.4474018832374
 30
0.0
 10
236.4824485546159
 20
30.47937186364226
 30
0.0
 10
237.2543857993436
 20
30.59447655741147
 30
0.0
 10
238.0439291539734
 20
30.78420304230581
 30
0.0
 10
238.8475345545536
 20
31.04978152634324
 30
0.0
 10
239.6604940009971
 20
31.38915786940744
 30
0.0
 10
240.4783724128766
 20
31.80054650473714
 30
0.0
 10
241.2966840874535
 20
32.28153488061126
 30
0.0
 10
242.1110429891682
 20
32.82938833273113
 30
0.0
 10
242.9171320233677
 20
33.44104117330715
 30
0.0
 10
243.7107903120431
 20
34.11308953299422
 30
0.0
 10
244.487761087391
 20
34.8420459989195
 30
0.0
 10
245.244561369773
 20
35.62340170739264
 30
0.0
 10
245.9752761629915
 20
36.45519475441592
 30
0.0
 10
246.5812457641428
 20
37.19913614923734
 30
0.0
 10
246.9290590175514
 20
37.67936159106642
 30
0.0
 10
247.0548211460707
 20
37.85300124723734
 30
0.0
  0
SPLINE
  5
1BB
330
1F
100
AcDbEntity
  8
0
  6
Continuous
 62
     7
370
    15
100
AcDbSpline
210
0.0
220
0.0
230
1.0
 70
     8
 71
     3
 72
    13
 73
     9
 74
     0
 42
0.000000001
 43
0.00000001
 40
0.0
 40
0.0
 40
0.0
 40
0.0
 40
0.0757881693016634
 40
0.293203074865539
 40
0.510662718825054
 40
0.7281798393138827
 40
0.945766511181041
 40
0.9999999999999999
 40
0.9999999999999999
 40
0.9999999999999999
 40
0.9999999999999999
 10
249.945350275356
 20
42.87561440453258
 30
0.0
 10
249.9997925812955
 20
42.99591717795933
 30
0.0
 10
250.2104145246848
 20
43.46133471487298
 30
0.0
 10
250.5262268733973
 20
44.2818214189205
 30
0.0
 10
250.8903562247498
 20
45.33035336793751
 30
0.0
 10
251.1952081046914
 20
46.37682819691463
 30
0.0
 10
251.3875962804872
 20
47.15671281591894
 30
0.0
 10
251.4729688491703
 20
47.58464031013882
 30
0.0
 10
251.4900023622012
 20
47.67002029414927
 30
0.0
  0
LINE
  5
1BC
330
1F
100
AcDbEntity
  8
0
  6
Continuous
 62
     7
370
    15
100
AcDbLine
 10
231.3626518004
 20
32.0279597901
 30
0.0
 11
232.762039868
 21
31.2201102542
 31
0.0
  0
LINE
  5
1BD
330
1F
100
AcDbEntity
  8
0
  6
Continuous
 62
     7
370
    15
100
AcDbLine
 10
232.4309621182
 20
63.2261402383
 30
0.0
 11
226.287571226
 21
66.2869470202
 31
0.0
  0
LINE
  5
1BE
330
1F
100
AcDbEntity
  8
0
  6
Continuous
 62
     7
370
    15
100
AcDbLine
 10
214.9058734128
 20
46.5711318817
 30
0.0
 11
220.6298540656
 21
42.7809496313
 31
0.0
  0
SPLINE
  5
1BF
330
1F
100
AcDbEntity
  8
0
  6
Continuous
 62
     7
370
    15
100
AcDbSpline
210
0.0
220
0.0
230
1.0
 70
     8
 71
     3
 72
    10
 73
     6
 74
     0
 42
0.000000001
 43
0.00000001
 40
0.0
 40
0.0
 40
0.0
 40
0.0
 40
0.0276582149066085
 40
0.743130015734504
 40
0.9999999999999999
 40
0.9999999999999999
 40
0.9999999999999999
 40
0.9999999999999999
 10
249.9954939001292
 20
57.25040307970467
 30
0.0
 10
249.9899542002278
 20
57.25771827878778
 30
0.0
 10
249.8411117211029
 20
57.45426545394324
 30
0.0
 10
249.6094696705448
 20
57.68059104276835
 30
0.0
 10
249.3720669886034
 20
57.88119165273854
 30
0.0
 10
249.3093507461157
 20
57.93418564756283
 30
0.0
  0
SPLINE
  5
1C0
330
1F
100
AcDbEntity
  8
0
  6
Continuous
 62
     7
370
    15
100
AcDbSpline
210
0.0
220
0.0
230
1.0
 70
     8
 71
     3
 72
    12
 73
     8
 74
     0
 42
0.000000001
 43
0.00000001
 40
0.0
 40
0.0
 40
0.0
 40
0.0
 40
0.118094906205989
 40
0.3413964454997552
 40
0.5644178103461235
 40
0.7868539178876047
 40
1.0
 40
1.0
 40
1.0
 40
1.0
 10
251.5007571702794
 20
54.21131467002708
 30
0.0
 10
251.4625765341301
 20
54.35119695914701
 30
0.0
 10
251.3522014647299
 20
54.75557779002395
 30
0.0
 10
251.1249613220654
 20
55.38590361813586
 30
0.0
 10
250.8000624146128
 20
56.07892305060651
 30
0.0
 10
250.4280759835956
 20
56.70815237997918
 30
0.0
 10
250.1376230168884
 20
57.07224125571862
 30
0.0
 10
249.9954939001292
 20
57.25040307970467
 30
0.0
  0
SPLINE
  5
1C1
330
1F
100
AcDbEntity
  8
0
  6
Continuous
 62
     7
370
    15
100
AcDbSpline
210
0.0
220
0.0
230
1.0
 70
     8
 71
     3
 72
    29
 73
    25
 74
     0
 42
0.000000001
 43
0.00000001
 40
0.0
 40
0.0
 40
0.0
 40
0.0
 40
0.0256238170622127
 40
0.0712510982928094
 40
0.1170298042155672
 40
0.1631641487001562
 40
0.2097678165911456
 40
0.2568519321130836
 40
0.3043454684986112
 40
0.3521351457336732
 40
0.4001046341469969
 40
0.4481589374073185
 40
0.4962247287581112
 40
0.5442618074161818
 40
0.5922555458363875
 40
0.6402025354781541
 40
0.688106122700619
 40
0.735973495331117
 40
0.7838139182114703
 40
0.8316377320364782
 40
0.879455824613384
 40
0.9272789232118058
 40
0.9751150712517958
 40
1.0
 40
1.0
 40
1.0
 40
1.0
 10
226.318700585128
 20
66.25972931163108
 30
0.0
 10
226.2206075252992
 20
66.31142784814946
 30
0.0
 10
225.9478441727226
 20
66.45518385054841
 30
0.0
 10
225.4584758112966
 20
66.60897995316509
 30
0.0
 10
224.860448959193
 20
66.72620851514968
 30
0.0
 10
224.2321032302627
 20
66.76353232699772
 30
0.0
 10
223.579152182554
 20
66.72482606157462
 30
0.0
 10
222.9049760639931
 20
66.60850453027179
 30
0.0
 10
222.2146040104083
 20
66.41515229295256
 30
0.0
 10
221.5134673195401
 20
66.14586179042723
 30
0.0
 10
220.8073233115611
 20
65.80280410953964
 30
0.0
 10
220.1018948454023
 20
65.38896033527372
 30
0.0
 10
219.4026783040534
 20
64.90795527569783
 30
0.0
 10
218.7148583685293
 20
64.36385975833022
 30
0.0
 10
218.0433059794518
 20
63.76105149602274
 30
0.0
 10
217.3926615032433
 20
63.10418267965673
 30
0.0
 10
216.7673869948771
 20
62.39819032383772
 30
0.0
 10
216.1717959443284
 20
61.6482789499205
 30
0.0
 10
215.6099372007496
 20
60.85991110810821
 30
0.0
 10
215.0859640924277
 20
60.03874725878964
 30
0.0
 10
214.6026614101308
 20
59.1907464817376
 30
0.0
 10
214.1668448423534
 20
58.3216624259499
 30
0.0
 10
213.8327828555219
 20
57.58012821789889
 30
0.0
 10
213.6651654269208
 20
57.12843306404411
 30
0.0
 10
213.6078072585339
 20
56.97386437204957
 30
0.0
  0
LINE
  5
1C2
330
1F
100
AcDbEntity
  8
0
  6
Continuous
 62
     7
370
    15
100
AcDbLine
 10
213.721687691
 20
55.1272719747
 30
0.0
 11
216.2752475896
 21
53.6531332231
 31
0.0
  0
LINE
  5
1C3
330
1F
100
AcDbEntity
  8
0
  6
Continuous
 62
     7
370
    15
100
AcDbLine
 10
213.4233954136
 20
56.2514474254
 30
0.0
 11
213.4233954136
 21
55.7901756082
 31
0.0
  0
LINE
  5
1C4
330
1F
100
AcDbEntity
  8
0
  6
Continuous
 62
     7
370
    15
100
AcDbLine
 10
213.4233954136
 20
48.7800989966
 30
0.0
 11
213.4233954136
 21
48.3188271794
 31
0.0
  0
SPLINE
  5
1C5
330
1F
100
AcDbEntity
  8
0
  6
Continuous
 62
     7
370
    15
100
AcDbSpline
210
0.0
220
0.0
230
1.0
 70
     8
 71
     3
 72
    11
 73
     7
 74
     0
 42
0.000000001
 43
0.00000001
 40
0.0
 40
0.0
 40
0.0
 40
0.0
 40
0.1997245182279732
 40
0.5195411125513095
 40
0.8357454779503988
 40
1.0
 40
1.0
 40
1.0
 40
1.0
 10
213.5392630120096
 20
48.03124395374146
 30
0.0
 10
213.6081540232009
 20
47.91585564113555
 30
0.0
 10
213.7873594253051
 20
47.61569733889713
 30
0.0
 10
214.1425719147129
 20
47.20317648928214
 30
0.0
 10
214.5126719085718
 20
46.8439125797213
 30
0.0
 10
214.7674124702065
 20
46.67589073629141
 30
0.0
 10
214.8545006483859
 20
46.61844909392108
 30
0.0
  0
ARC
  5
1C6
330
1F
100
AcDbEntity
  8
0
  6
Continuous
 62
     7
370
    15
100
AcDbCircle
 10
244.3222639561
 20
47.2304337744
 30
0.0
 40
1.436961767932214
100
AcDbArc
 50
216.3992216187
 51
284.0986576782
  0
LWPOLYLINE
  5
1C7
330
1F
100
AcDbEntity
  8
0
  6
Continuous
 62
     7
370
    15
100
AcDbPolyline
 90
       10
 70
   128
 43
0.0
 10
244.7303648641
 20
45.8455556142
 10
244.7457841094
 20
45.8481842101
 10
245.0551878215
 20
45.9301363364
 10
245.3148174855
 20
46.0572391953
 10
245.5054175569
 20
46.2200661493
 10
245.6128521005
 20
46.406541068
 10
245.6291531875
 20
46.6028339598
 10
245.553111841
 20
46.7943866788
 10
245.3903676997
 20
46.9669926363
 10
245.2680929252
 20
47.0490925947
  0
ARC
  5
1C8
330
1F
100
AcDbEntity
  8
0
  6
Continuous
 62
     7
370
    15
100
AcDbCircle
 10
243.711492263
 20
46.5248168035
 30
0.0
 40
0.5653120392668993
100
AcDbArc
 50
111.9654522987
 51
195.0812344547
  0
LWPOLYLINE
  5
1C9
330
1F
100
AcDbEntity
  8
0
  6
Continuous
 62
     7
370
    15
100
AcDbPolyline
 90
       22
 70
   128
 43
0.0
 10
243.3118605661
 20
46.5195533023
 10
243.4319214145
 20
46.3434103407
 10
243.6365844724
 20
46.1955222953
 10
243.907664529
 20
46.0890296681
 10
244.2210749317
 20
46.0333947962
 10
244.5489677907
 20
46.0335610821
 10
244.8622083867
 20
46.0895137507
 10
245.1329639181
 20
46.1962811618
 10
245.3371765676
 20
46.3443765624
 10
245.4567011453
 20
46.5206410262
 10
245.4809173678
 20
46.7094126821
 10
245.4076735176
 20
46.8939183401
 10
245.243477632
 20
47.0577638627
 10
245.0029192363
 20
47.1863908562
 10
244.7073729993
 20
47.2683702479
 10
244.3830995014
 20
47.296417809
 10
244.0589118658
 20
47.2680413905
 10
243.7636155867
 20
47.1857623619
 10
243.5234490343
 20
47.0568915758
 10
243.3597520608
 20
46.8928797673
 10
243.2870698605
 20
46.7083001051
 10
243.3118605661
 20
46.5195533023
  0
LWPOLYLINE
  5
1CA
330
1F
100
AcDbEntity
  8
0
  6
Continuous
 62
     7
370
    15
100
AcDbPolyline
 90
       19
 70
   128
 43
0.0
 10
243.6286484843
 20
46.561463018
 10
243.7334153654
 20
46.4183374085
 10
243.9166602949
 20
46.3045289243
 10
244.1562812297
 20
46.2337645481
 10
244.4233763489
 20
46.2145795081
 10
244.6857300391
 20
46.2492878032
 10
244.9116985732
 20
46.3337031008
 10
245.0740268113
 20
46.4576436702
 10
245.153135572
 20
46.6061604496
 10
245.1394831713
 20
46.7613401234
 10
245.0347162903
 20
46.9044657328
 10
244.8514713608
 20
47.0182742171
 10
244.6118504259
 20
47.0890385933
 10
244.3447553068
 20
47.1082236333
 10
244.0824016166
 20
47.0735153382
 10
243.8564330824
 20
46.9891000406
 10
243.6941048444
 20
46.8651594712
 10
243.6149960837
 20
46.7166426918
 10
243.6286484843
 20
46.561463018
  0
SPLINE
  5
1CB
330
1F
100
AcDbEntity
  8
0
  6
Continuous
 62
     7
370
    15
100
AcDbSpline
210
0.0
220
0.0
230
1.0
 70
     8
 71
     3
 72
     9
 73
     5
 74
     0
 42
0.000000001
 43
0.00000001
 40
0.0
 40
0.0
 40
0.0
 40
0.0
 40
0.4707503993536081
 40
0.9999999999999999
 40
0.9999999999999999
 40
0.9999999999999999
 40
0.9999999999999999
 10
244.826136874393
 20
46.2910424701409
 30
0.0
 10
244.8670284313306
 20
46.31520997589323
 30
0.0
 10
244.9538930563925
 20
46.36654823452349
 30
0.0
 10
245.0323528756071
 20
46.45081846122204
 30
0.0
 10
245.0738777035932
 20
46.49541844504864
 30
0.0
  0
SPLINE
  5
1CC
330
1F
100
AcDbEntity
  8
0
  6
Continuous
 62
     7
370
    15
100
AcDbSpline
210
0.0
220
0.0
230
1.0
 70
     8
 71
     3
 72
    11
 73
     7
 74
     0
 42
0.000000001
 43
0.00000001
 40
0.0
 40
0.0
 40
0.0
 40
0.0
 40
0.1855070912791192
 40
0.5226425778602841
 40
0.877575448509574
 40
1.0
 40
1.0
 40
1.0
 40
1.0
 10
245.0738777035932
 20
46.49541844504864
 30
0.0
 10
245.0644658336434
 20
46.50315723709138
 30
0.0
 10
245.0379490900563
 20
46.5249602969898
 30
0.0
 10
244.988329803224
 20
46.61697582347087
 30
0.0
 10
244.9429422388575
 20
46.77268176969962
 30
0.0
 10
244.9188482425791
 20
46.87521643934438
 30
0.0
 10
244.9126690222482
 20
46.90151279582967
 30
0.0
  0
SPLINE
  5
1CD
330
1F
100
AcDbEntity
  8
0
  6
Continuous
 62
     7
370
    15
100
AcDbSpline
210
0.0
220
0.0
230
1.0
 70
     8
 71
     3
 72
    10
 73
     6
 74
     0
 42
0.000000001
 43
0.00000001
 40
0.0
 40
0.0
 40
0.0
 40
0.0
 40
0.4391119879276806
 40
0.7513633230734644
 40
1.0
 40
1.0
 40
1.0
 40
1.0
 10
244.9126690222482
 20
46.90151279582967
 30
0.0
 10
244.8139182461607
 20
46.88408988429876
 30
0.0
 10
244.644946062943
 20
46.85427758797031
 30
0.0
 10
244.3993135326558
 20
46.92446380264708
 30
0.0
 10
244.2770538005019
 20
46.99340385219173
 30
0.0
 10
244.222857146499
 20
47.0239643641959
 30
0.0
  0
SPLINE
  5
1CE
330
1F
100
AcDbEntity
  8
0
  6
Continuous
 62
     7
370
    15
100
AcDbSpline
210
0.0
220
0.0
230
1.0
 70
     8
 71
     3
 72
    10
 73
     6
 74
     0
 42
0.000000001
 43
0.00000001
 40
0.0
 40
0.0
 40
0.0
 40
0.0
 40
0.439111987927681
 40
0.7513633230734834
 40
1.0
 40
1.0
 40
1.0
 40
1.0
 10
244.222857146499
 20
47.0239643641959
 30
0.0
 10
244.1471843761033
 20
46.94840657022213
 30
0.0
 10
244.0177009053856
 20
46.81911983534577
 30
0.0
 10
243.8294725713657
 20
46.74470143182955
 30
0.0
 10
243.7357848758714
 20
46.74166680494262
 30
0.0
 10
243.6942539520947
 20
46.74032158178108
 30
0.0
  0
SPLINE
  5
1CF
330
1F
100
AcDbEntity
  8
0
  6
Continuous
 62
     7
370
    15
100
AcDbSpline
210
0.0
220
0.0
230
1.0
 70
     8
 71
     3
 72
    11
 73
     7
 74
     0
 42
0.000000001
 43
0.00000001
 40
0.0
 40
0.0
 40
0.0
 40
0.0
 40
0.1224245514903792
 40
0.4773574221397146
 40
0.8144929087208594
 40
0.9999999999999999
 40
0.9999999999999999
 40
0.9999999999999999
 40
0.9999999999999999
 10
243.6942539520947
 20
46.74032158178108
 30
0.0
 10
243.7004331724256
 20
46.71402522529581
 30
0.0
 10
243.724527168704
 20
46.61149055565102
 30
0.0
 10
243.7699147330706
 20
46.4557846094223
 30
0.0
 10
243.8195340199029
 20
46.36376908294125
 30
0.0
 10
243.8460507634899
 20
46.3419660230428
 30
0.0
 10
243.8554626334397
 20
46.33422723100006
 30
0.0
  0
LINE
  5
1D0
330
1F
100
AcDbEntity
  8
0
  6
Continuous
 62
     7
370
    15
100
AcDbLine
 10
244.9126690222
 20
46.3481998434
 30
0.0
 11
244.9126690222
 21
46.9015127958
 31
0.0
  0
LINE
  5
1D1
330
1F
100
AcDbEntity
  8
0
  6
Continuous
 62
     7
370
    15
100
AcDbLine
 10
244.2228571465
 20
46.2237897786
 30
0.0
 11
244.2228571465
 21
47.0239643642
 31
0.0
  0
SPLINE
  5
1D2
330
1F
100
AcDbEntity
  8
0
  6
Continuous
 62
     7
370
    15
100
AcDbSpline
210
0.0
220
0.0
230
1.0
 70
     8
 71
     3
 72
    10
 73
     6
 74
     0
 42
0.000000001
 43
0.00000001
 40
0.0
 40
0.0
 40
0.0
 40
0.0
 40
0.5
 40
0.5
 40
1.0
 40
1.0
 40
1.0
 40
1.0
 10
230.3973956200539
 20
42.37903970903194
 30
0.0
 10
230.3408669342713
 20
42.34640639334932
 30
0.0
 10
230.2622236116966
 20
42.32603341789035
 30
0.0
 10
230.1019936973655
 20
42.322972017929
 30
0.0
 10
230.0208266848248
 20
42.34063121780924
 30
0.0
 10
229.9637127844869
 20
42.37360237066356
 30
0.0
  0
SPLINE
  5
1D3
330
1F
100
AcDbEntity
  8
0
  6
Continuous
 62
     7
370
    15
100
AcDbSpline
210
0.0
220
0.0
230
1.0
 70
     8
 71
     3
 72
    12
 73
     8
 74
     0
 42
0.000000001
 43
0.00000001
 40
0.0
 40
0.0
 40
0.0
 40
0.0
 40
0.2500000000000033
 40
0.2500000000000033
 40
0.5000000000000067
 40
0.5000000000000067
 40
1.0
 40
1.0
 40
1.0
 40
1.0
 10
247.6544346908317
 20
58.89756424891866
 30
0.0
 10
247.6863390191765
 20
58.8791462722029
 30
0.0
 10
247.7184763556173
 20
58.84923173157084
 30
0.0
 10
247.7731346620435
 20
58.77883431162793
 30
0.0
 10
247.7961080013739
 20
58.7384536149521
 30
0.0
 10
247.8497897903116
 20
58.61592978491672
 30
0.0
 10
247.8665667251877
 20
58.53112846331104
 30
0.0
 10
247.8665667251877
 20
58.45757586767743
 30
0.0
  0
LINE
  5
1D4
330
1F
100
AcDbEntity
  8
0
  6
Continuous
 62
     7
370
    15
100
AcDbLine
 10
229.9637127845
 20
42.3736023707
 30
0.0
 11
228.5643247169
 21
43.1814519065
 31
0.0
  0
LWPOLYLINE
  5
1D5
330
1F
100
AcDbEntity
  8
0
  6
Continuous
 62
     7
370
    15
100
AcDbPolyline
 90
       26
 70
   128
 43
0.0
 10
228.5643247169
 20
43.1814519065
 10
228.8467691967
 20
44.2998071654
 10
229.1932277797
 20
45.4265932495
 10
229.6015659404
 20
46.5548680495
 10
230.0692679147
 20
47.6776802842
 10
230.5934521989
 20
48.788112327
 10
231.1708893026
 20
49.8793228254
 10
231.7980216462
 20
50.9445888507
 10
232.4709854781
 20
51.9773473176
 10
233.1856346799
 20
52.9712354191
 10
233.9375663105
 20
53.9201298282
 10
234.7221477321
 20
54.8181844228
 10
235.5345451525
 20
55.6598663044
 10
236.3697534052
 20
56.4399898857
 10
237.2226267869
 20
57.1537488388
 10
238.0879107595
 20
57.7967457074
 10
238.9602743236
 20
58.3650189989
 10
239.8343428627
 20
58.8550675917
 10
240.7047312556
 20
59.2638723048
 10
241.5660770547
 20
59.5889144996
 10
242.4130735237
 20
59.8281915968
 10
243.2405023321
 20
59.9802294144
 10
244.0432657054
 20
60.0440912501
 10
244.8164178326
 20
60.0193836522
 10
245.555195337
 20
59.9062588438
 10
246.2550466232
 20
59.7054137848
  0
LINE
  5
1D6
330
1F
100
AcDbEntity
  8
0
  6
Continuous
 62
     7
370
    15
100
AcDbLine
 10
246.2550466232
 20
59.7054137848
 30
0.0
 11
247.6544346908
 21
58.8975642489
 31
0.0
  0
LINE
  5
1D7
330
1F
100
AcDbEntity
  8
0
  6
Continuous
 62
     7
370
    15
100
AcDbLine
 10
250.1823414336
 20
53.3923754055
 30
0.0
 11
251.4008420955
 21
54.0958008648
 31
0.0
  0
LINE
  5
1D8
330
1F
100
AcDbEntity
  8
0
  6
Continuous
 62
     7
370
    15
100
AcDbLine
 10
250.1823414336
 20
46.8600489104
 30
0.0
 11
250.1823414336
 21
53.3923754055
 31
0.0
  0
LINE
  5
1D9
330
1F
100
AcDbEntity
  8
0
  6
Continuous
 62
     7
370
    15
100
AcDbLine
 10
251.4008420955
 20
47.5634743697
 30
0.0
 11
250.1823414336
 21
46.8600489104
 31
0.0
  0
LINE
  5
1DA
330
1F
100
AcDbEntity
  8
0
  6
Continuous
 62
     7
370
    15
100
AcDbLine
 10
230.3973956201
 20
35.0301724021
 30
0.0
 11
231.5147224102
 21
35.6751914284
 31
0.0
  0
LINE
  5
1DB
330
1F
100
AcDbEntity
  8
0
  6
Continuous
 62
     7
370
    15
100
AcDbLine
 10
231.5147224102
 20
35.6751914284
 30
0.0
 11
231.5147224102
 21
43.0240587354
 31
0.0
  0
LINE
  5
1DC
330
1F
100
AcDbEntity
  8
0
  6
Continuous
 62
     7
370
    15
100
AcDbLine
 10
231.5147224102
 20
43.0240587354
 30
0.0
 11
230.3973956201
 21
42.379039709
 31
0.0
  0
LINE
  5
1DD
330
1F
100
AcDbEntity
  8
0
  6
Continuous
 62
     7
370
    15
100
AcDbLine
 10
247.8665667252
 20
58.4575758677
 30
0.0
 11
247.8665667252
 21
56.8935114328
 31
0.0
  0
LINE
  5
1DE
330
1F
100
AcDbEntity
  8
0
  6
Continuous
 62
     7
370
    15
100
AcDbLine
 10
249.2210128864
 20
57.6754165583
 30
0.0
 11
247.8665667252
 21
56.8935114328
 31
0.0
  0
LWPOLYLINE
  5
1DF
330
1F
100
AcDbEntity
  8
0
  6
Continuous
 62
     7
370
    15
100
AcDbPolyline
 90
       24
 70
   128
 43
0.0
 10
227.6405419291
 20
44.8124339405
 10
227.9275898375
 20
45.8681560575
 10
228.275627001
 20
46.92958096
 10
228.6824036325
 20
47.9898473696
 10
229.1452902408
 20
49.0421014966
 10
229.6612946273
 20
50.0795413446
 10
230.227081229
 20
51.0954606797
 10
230.8389926798
 20
52.0832923813
 10
231.4930734529
 20
53.0366508933
 10
232.1850954298
 20
53.9493735017
 10
232.9105852317
 20
54.8155601716
 10
233.6648531371
 20
55.6296116864
 10
234.4430233962
 20
56.3862658426
 10
235.2400657495
 20
57.0806314653
 10
236.0508279441
 20
57.7082200259
 10
236.8700690393
 20
58.2649746575
 10
237.6924932847
 20
58.7472963785
 10
238.5127843536
 20
59.1520673578
 10
239.3256397084
 20
59.476671069
 10
240.1258048776
 20
59.719009204
 10
240.9081074219
 20
59.8775152371
 10
241.6674903697
 20
59.9511645513
 10
242.3990449068
 20
59.9394810616
 10
242.7556079769
 20
59.9012654467
  0
SPLINE
  5
1E0
330
1F
100
AcDbEntity
  8
0
  6
Continuous
 62
     7
370
    15
100
AcDbSpline
210
0.0
220
0.0
230
1.0
 70
     8
 71
     3
 72
     8
 73
     4
 74
     0
 42
0.000000001
 43
0.00000001
 40
0.0
 40
0.0
 40
0.0
 40
0.0
 40
1.0
 40
1.0
 40
1.0
 40
1.0
 10
227.6405419290959
 20
44.81243394051022
 30
0.0
 10
227.1492409000434
 20
44.72978672030634
 30
0.0
 10
226.6576608091407
 20
44.64770293281589
 30
0.0
 10
226.1658660103888
 20
44.56605264573415
 30
0.0
  0
LWPOLYLINE
  5
1E1
330
1F
100
AcDbEntity
  8
0
  6
Continuous
 62
     7
370
    15
100
AcDbPolyline
 90
       26
 70
   128
 43
0.0
 10
226.1658660104
 20
44.5660526457
 10
226.4483104903
 20
45.6844079046
 10
226.7947690732
 20
46.8111939887
 10
227.203107234
 20
47.9394687887
 10
227.6708092082
 20
49.0622810234
 10
228.1949934924
 20
50.1727130662
 10
228.7724305962
 20
51.2639235646
 10
229.3995629397
 20
52.3291895899
 10
230.0725267716
 20
53.3619480568
 10
230.7871759734
 20
54.3558361583
 10
231.539107604
 20
55.3047305674
 10
232.3236890257
 20
56.202785162
 10
233.136086446
 20
57.0444670436
 10
233.9712946987
 20
57.8245906249
 10
234.8241680804
 20
58.538349578
 10
235.689452053
 20
59.1813464466
 10
236.5618156172
 20
59.7496197381
 10
237.4358841562
 20
60.2396683309
 10
238.3062725491
 20
60.648473044
 10
239.1676183483
 20
60.9735152388
 10
240.0146148172
 20
61.212792336
 10
240.8420436256
 20
61.3648301536
 10
241.6448069989
 20
61.4286919893
 10
242.4179591262
 20
61.4039843914
 10
243.1567366305
 20
61.290859583
 10
243.8565879167
 20
61.090014524
  0
LINE
  5
1E2
330
1F
100
AcDbEntity
  8
0
  6
Continuous
 62
     7
370
    15
100
AcDbLine
 10
243.8565879167
 20
61.090014524
 30
0.0
 11
244.1918315163
 21
60.0068868812
 31
0.0
  0
LINE
  5
1E3
330
1F
100
AcDbEntity
  8
0
  6
Continuous
 62
     7
370
    15
100
AcDbLine
 10
240.4419455227
 20
63.0612456192
 30
0.0
 11
243.8565879167
 21
61.090014524
 31
0.0
  0
LINE
  5
1E4
330
1F
100
AcDbEntity
  8
0
  6
Continuous
 62
     7
370
    15
100
AcDbLine
 10
226.1658660104
 20
44.5660526457
 30
0.0
 11
225.5796507411
 21
44.9044675173
 31
0.0
  0
SPLINE
  5
1E5
330
1F
100
AcDbEntity
  8
0
  6
Continuous
 62
     7
370
    15
100
AcDbSpline
210
0.0
220
0.0
230
1.0
 70
     8
 71
     3
 72
    28
 73
    24
 74
     0
 42
0.000000001
 43
0.00000001
 40
0.0
 40
0.0
 40
0.0
 40
0.0
 40
0.1250000000000001
 40
0.1250000000000001
 40
0.1875000000000001
 40
0.1875000000000001
 40
0.2500000000000001
 40
0.2500000000000001
 40
0.3749999999999999
 40
0.3749999999999999
 40
0.4375
 40
0.4375
 40
0.4999999999999999
 40
0.4999999999999999
 40
0.6249999999999999
 40
0.6249999999999999
 40
0.7499999999999997
 40
0.7499999999999997
 40
0.8124999999999998
 40
0.8124999999999998
 40
0.8749999999999998
 40
0.8749999999999998
 40
1.0
 40
1.0
 40
1.0
 40
1.0
 10
225.5796507411303
 20
44.90446751731396
 30
0.0
 10
225.391663660664
 20
45.01299014889803
 30
0.0
 10
225.2014437060633
 20
45.09493386944595
 30
0.0
 10
224.9133451041153
 20
45.18009159948441
 30
0.0
 10
224.8168552335157
 20
45.20214152988821
 30
0.0
 10
224.6231170606808
 20
45.23341535334717
 30
0.0
 10
224.5258660401495
 20
45.2425426046706
 30
0.0
 10
224.2398441652641
 20
45.250325446779
 30
0.0
 10
224.0545023489075
 20
45.23001890314193
 30
0.0
 10
223.7859897620917
 20
45.1627982500088
 30
0.0
 10
223.6976291024259
 20
45.13401189240321
 30
0.0
 10
223.5272763921363
 20
45.06500000230805
 30
0.0
 10
223.4452493623548
 20
45.02486011239792
 30
0.0
 10
223.2088131086022
 20
44.8882403446347
 30
0.0
 10
223.0639458584799
 20
44.77572585494564
 30
0.0
 10
222.8030890649957
 20
44.50746888994617
 30
0.0
 10
222.6907966574934
 20
44.3553155035689
 30
0.0
 10
222.5515721760396
 20
44.10339911587059
 30
0.0
 10
222.5099763896738
 20
44.01535683019421
 30
0.0
 10
222.4368516746126
 20
43.83101577514238
 30
0.0
 10
222.4052271905596
 20
43.7342270124606
 30
0.0
 10
222.3277338871374
 20
43.43621193356379
 30
0.0
 10
222.2985591717476
 20
43.22673905642726
 30
0.0
 10
222.2925922890058
 20
43.0063582637434
 30
0.0
  0
ARC
  5
1E6
330
1F
100
AcDbEntity
  8
0
  6
Continuous
 62
     7
370
    15
100
AcDbCircle
 10
237.1359587514
 20
42.5980878578
 30
0.0
 40
14.84898018923276
100
AcDbArc
 50
178.4244628824
 51
181.5755371176
  0
SPLINE
  5
1E7
330
1F
100
AcDbEntity
  8
0
  6
Continuous
 62
     7
370
    15
100
AcDbSpline
210
0.0
220
0.0
230
1.0
 70
     8
 71
     3
 72
    30
 73
    26
 74
     0
 42
0.000000001
 43
0.00000001
 40
0.0
 40
0.0
 40
0.0
 40
0.0
 40
0.125
 40
0.125
 40
0.1874999999999999
 40
0.1874999999999999
 40
0.2499999999999999
 40
0.2499999999999999
 40
0.3749999999999999
 40
0.3749999999999999
 40
0.4374999999999999
 40
0.4374999999999999
 40
0.4999999999999998
 40
0.4999999999999998
 40
0.6249999999999997
 40
0.6249999999999997
 40
0.6874999999999997
 40
0.6874999999999997
 40
0.7499999999999997
 40
0.7499999999999997
 40
0.8124999999999996
 40
0.8124999999999996
 40
0.8749999999999996
 40
0.8749999999999996
 40
1.0
 40
1.0
 40
1.0
 40
1.0
 10
222.2925922890058
 20
42.18981745185765
 30
0.0
 10
222.2985598876973
 20
41.97630025908294
 30
0.0
 10
222.3277051076967
 20
41.75875036106381
 30
0.0
 10
222.4041397689556
 20
41.42645133152822
 30
0.0
 10
222.435105752533
 20
41.31467703022864
 30
0.0
 10
222.5080756933486
 20
41.08897515669365
 30
0.0
 10
222.5502118919073
 20
40.97488738412114
 30
0.0
 10
222.6901036812716
 20
40.63672465675995
 30
0.0
 10
222.8019476058139
 20
40.41421443748717
 30
0.0
 10
222.9957342029585
 20
40.08360418153761
 30
0.0
 10
223.0650748405617
 20
39.97337754183146
 30
0.0
 10
223.2105672250084
 20
39.75664754137792
 30
0.0
 10
223.2864545157275
 20
39.6504506057472
 30
0.0
 10
223.5228424641989
 20
39.33781243249759
 30
0.0
 10
223.6919879664498
 20
39.13726988466243
 30
0.0
 10
223.9618539637839
 20
38.84716504524008
 30
0.0
 10
224.0540454698347
 20
38.75282162886763
 30
0.0
 10
224.2396440648694
 20
38.57151660080724
 30
0.0
 10
224.3334729451562
 20
38.48409726731308
 30
0.0
 10
224.5229229956216
 20
38.31548971698844
 30
0.0
 10
224.6185444108273
 20
38.2343015312191
 30
0.0
 10
224.8114061002537
 20
38.07813885167096
 30
0.0
 10
224.9091410091521
 20
38.00281187197424
 30
0.0
 10
225.2003969642725
 20
37.78952163853041
 30
0.0
 10
225.3916543552456
 20
37.66412821382999
 30
0.0
 10
225.5796507411303
 20
37.55560021034221
 30
0.0
  0
LINE
  5
1E8
330
1F
100
AcDbEntity
  8
0
  6
Continuous
 62
     7
370
    15
100
AcDbLine
 10
225.5796507411
 20
37.5556002103
 30
0.0
 11
226.1658660104
 21
37.2171853388
 31
0.0
  0
ARC
  5
1E9
330
1F
100
AcDbEntity
  8
0
  6
Continuous
 62
     7
370
    15
100
AcDbCircle
 10
231.9870955366
 20
38.6084638326
 30
0.0
 40
5.985179115444013
100
AcDbArc
 50
193.4415888918
 51
253.1805824648
  0
LINE
  5
1EA
330
1F
100
AcDbEntity
  8
0
  6
Continuous
 62
     7
370
    15
100
AcDbLine
 10
245.4860057731
 20
60.149065831
 30
0.0
 11
245.8203181768
 21
59.8417377208
 31
0.0
  0
LINE
  5
1EB
330
1F
100
AcDbEntity
  8
0
  6
Continuous
 62
     7
370
    15
100
AcDbLine
 10
244.6330770192
 20
60.6414511199
 30
0.0
 11
245.4860057731
 21
60.149065831
 31
0.0
  0
SPLINE
  5
1EC
330
1F
100
AcDbEntity
  8
0
  6
Continuous
 62
     7
370
    15
100
AcDbSpline
210
0.0
220
0.0
230
1.0
 70
     8
 71
     3
 72
    20
 73
    16
 74
     0
 42
0.000000001
 43
0.00000001
 40
0.0
 40
0.0
 40
0.0
 40
0.0
 40
0.2499999999999997
 40
0.2499999999999997
 40
0.3749999999999997
 40
0.3749999999999997
 40
0.4999999999999998
 40
0.4999999999999998
 40
0.6249999999999998
 40
0.6249999999999998
 40
0.7499999999999999
 40
0.7499999999999999
 40
0.8749999999999999
 40
0.8749999999999999
 40
1.0
 40
1.0
 40
1.0
 40
1.0
 10
240.441945522729
 20
63.0612456192144
 30
0.0
 10
240.7609341771269
 20
62.9273552299546
 30
0.0
 10
241.0873897772249
 20
62.76745888289262
 30
0.0
 10
241.599739894608
 20
62.4895399554231
 30
0.0
 10
241.7743432612858
 20
62.3905409426128
 30
0.0
 10
242.1342171236347
 20
62.1796002377141
 30
0.0
 10
242.3170775399882
 20
62.06904442050406
 30
0.0
 10
242.6833726291655
 20
61.84362655149324
 30
0.0
 10
242.8678561454241
 20
61.72814595011377
 30
0.0
 10
243.2414409696596
 20
61.493313605818
 30
0.0
 10
243.4257904408989
 20
61.37698368054274
 30
0.0
 10
243.7865003473753
 20
61.15128899374336
 30
0.0
 10
243.9635543366291
 20
61.04147901964667
 30
0.0
 10
244.3112836879815
 20
60.83008425611077
 30
0.0
 10
244.4765341044398
 20
60.73182142096775
 30
0.0
 10
244.6330770192212
 20
60.64145111985038
 30
0.0
  0
ARC
  5
1ED
330
1F
100
AcDbEntity
  8
0
  6
Continuous
 62
     7
370
    15
100
AcDbCircle
 10
236.5576018917
 20
57.5529526926
 30
0.0
 40
6.805754821143589
100
AcDbArc
 50
62.9348092132
 51
112.4502524579
  0
ARC
  5
1EE
330
1F
100
AcDbEntity
  8
0
  6
Continuous
 62
     7
370
    15
100
AcDbCircle
 10
227.6232996443
 20
42.0566573854
 30
0.0
 40
6.82521922061354
100
AcDbArc
 50
187.6324277535
 51
236.9950811643
  0
LINE
  5
1EF
330
1F
100
AcDbEntity
  8
0
  6
Continuous
 62
     7
370
    15
100
AcDbLine
 10
228.7751564839
 20
44.0381751721
 30
0.0
 11
228.3115286915
 21
44.3058217997
 31
0.0
  0
LINE
  5
1F0
330
1F
100
AcDbEntity
  8
0
  6
Continuous
 62
     7
370
    15
100
AcDbLine
 10
227.8857105335
 20
44.9539667632
 30
0.0
 11
227.6405419291
 21
44.8124339405
 31
0.0
  0
SPLINE
  5
1F1
330
1F
100
AcDbEntity
  8
0
  6
Continuous
 62
     7
370
    15
100
AcDbSpline
210
0.0
220
0.0
230
1.0
 70
     8
 71
     3
 72
    14
 73
    10
 74
     0
 42
0.000000001
 43
0.00000001
 40
0.0
 40
0.0
 40
0.0
 40
0.0
 40
0.1249999999999991
 40
0.1249999999999991
 40
0.2499999999999982
 40
0.2499999999999982
 40
0.4999999999999998
 40
0.4999999999999998
 40
1.0
 40
1.0
 40
1.0
 40
1.0
 10
228.3115286914737
 20
44.30582179968824
 30
0.0
 10
228.2873322583085
 20
44.31979010323078
 30
0.0
 10
228.2641568198496
 20
44.34715527922833
 30
0.0
 10
228.2272364274187
 20
44.40495704835386
 30
0.0
 10
228.2121946363861
 20
44.43592752747022
 30
0.0
 10
228.1723811797992
 20
44.52895400039942
 30
0.0
 10
228.1527451614151
 20
44.5915650546842
 30
0.0
 10
228.1023243129456
 20
44.77589580559918
 30
0.0
 10
228.0799071347051
 20
44.89744004049987
 30
0.0
 10
228.0632192365392
 20
45.01656910580223
 30
0.0
  0
SPLINE
  5
1F2
330
1F
100
AcDbEntity
  8
0
  6
Continuous
 62
     7
370
    15
100
AcDbSpline
210
0.0
220
0.0
230
1.0
 70
     8
 71
     3
 72
    10
 73
     6
 74
     0
 42
0.000000001
 43
0.00000001
 40
0.0
 40
0.0
 40
0.0
 40
0.0
 40
0.5
 40
0.5
 40
1.0
 40
1.0
 40
1.0
 40
1.0
 10
228.0632192365392
 20
45.01656910580223
 30
0.0
 10
228.0298292183514
 20
45.010419336602
 30
0.0
 10
227.9975898669233
 20
45.00187272875393
 30
0.0
 10
227.937601972661
 20
44.98063675498503
 30
0.0
 10
227.910340099412
 20
44.96818510897685
 30
0.0
 10
227.8857105334621
 20
44.95396676319999
 30
0.0
  0
ARC
  5
1F3
330
1F
100
AcDbEntity
  8
0
  6
Continuous
 62
     7
370
    15
100
AcDbCircle
 10
245.5867607373
 20
42.0220265186
 30
0.0
 40
25.08375480985721
100
AcDbArc
 50
139.5659238294
 51
171.5757969098
  0
LWPOLYLINE
  5
1F4
330
1F
100
AcDbEntity
  8
0
  6
Continuous
 62
     7
370
    15
100
AcDbPolyline
 90
       46
 70
   128
 43
0.0
 10
243.0582406131
 20
39.4618811973
 10
243.0919600346
 20
40.0381855375
 10
243.1924619888
 20
40.6422043847
 10
243.3577903196
 20
41.2621811989
 10
243.5847270991
 20
41.8860488368
 10
243.8688552609
 20
42.5016644244
 10
244.2046445736
 20
43.0970457046
 10
244.5855592802
 20
43.6606042578
 10
245.0041853091
 20
44.1813710581
 10
245.452374581
 20
44.6492099719
 10
245.9214036015
 20
45.0550150469
 10
246.4021432541
 20
45.390887749
 10
246.8852364884
 20
45.6502906981
 10
247.3612804441
 20
45.8281749108
 10
247.8210094671
 20
45.9210780733
 10
248.2554754548
 20
45.9271919312
 10
248.6562220211
 20
45.8463974852
 10
249.0154490898
 20
45.6802673072
 10
249.3261647147
 20
45.4320349323
 10
249.5823211696
 20
45.1065319213
 10
249.7789326604
 20
44.7100938199
 10
249.9121723682
 20
44.250436845
 10
249.9794469335
 20
43.7365076966
 10
249.9794469335
 20
43.1783094211
 10
249.9121723682
 20
42.5867067129
 10
249.7789326604
 20
41.9732144459
 10
249.5823211696
 20
41.3497735491
 10
249.3261647147
 20
40.7285185905
 10
249.0154490898
 20
40.1215415912
 10
248.6562220211
 20
39.540656668
 10
248.2554754548
 20
38.9971700853
 10
247.8210094671
 20
38.501660191
 10
247.3612804441
 20
38.0637715218
 10
246.8852364884
 20
37.6920270825
 10
246.4021432541
 20
37.3936624556
 10
245.9214036015
 20
37.1744849694
 10
245.452374581
 20
37.0387606642
 10
245.0041853091
 20
36.9891312593
 10
244.5855592802
 20
37.0265627346
 10
244.2046445736
 20
37.1503265289
 10
243.8688552609
 20
37.3580137209
 10
243.5847270991
 20
37.6455819156
 10
243.3577903196
 20
38.0074339251
 10
243.1924619888
 20
38.4365267117
 10
243.0919600346
 20
38.9245084724
 10
243.0582406131
 20
39.4618811973
  0
LWPOLYLINE
  5
1F5
330
1F
100
AcDbEntity
  8
0
  6
Continuous
 62
     7
370
    15
100
AcDbPolyline
 90
       25
 70
   128
 43
0.0
 10
242.9168192569
 20
39.4618811973
 10
242.9497494105
 20
40.0368195013
 10
243.0479264448
 20
40.6390681387
 10
243.2095215074
 20
41.2574083566
 10
243.4315243882
 20
41.8803216469
 10
243.7097995933
 20
42.4962043136
 10
244.0391633824
 20
43.0935836278
 10
244.4134803311
 20
43.6613315432
 10
244.825777623
 20
44.1888719904
 10
245.2683749396
 20
44.666377889
 10
245.7330275303
 20
45.0849542075
 10
246.2110797965
 20
45.4368036612
 10
246.6936265291
 20
45.7153719604
 10
247.1716787953
 20
45.9154699048
 10
247.6363313861
 20
46.0333700483
 10
248.0789287026
 20
46.0668761342
 10
248.4912259945
 20
46.0153640077
 10
248.8655429433
 20
45.8797932422
 10
249.1949067323
 20
45.6626892644
 10
249.4731819375
 20
45.3680963108
 10
249.6951848182
 20
45.0015020906
 10
249.8567798808
 20
44.5697355607
 10
249.9549569152
 20
44.0808397144
 10
249.9878870687
 20
43.5439217564
 10
249.9878870687
 20
43.5439217564
  0
LWPOLYLINE
  5
1F6
330
1F
100
AcDbEntity
  8
0
  6
Continuous
 62
     7
370
    15
100
AcDbPolyline
 90
       13
 70
   128
 43
0.0
 10
246.4529277865
 20
37.4205291945
 10
246.2110797965
 20
37.2904309933
 10
245.7330275303
 20
37.0903330489
 10
245.2683749396
 20
36.9724329054
 10
244.825777623
 20
36.9389268194
 10
244.4134803311
 20
36.990438946
 10
244.0391633824
 20
37.1260097115
 10
243.7097995933
 20
37.3431136893
 10
243.4315243882
 20
37.6377066429
 10
243.2095215074
 20
38.004300863
 10
243.0479264448
 20
38.436067393
 10
242.9497494105
 20
38.9249632393
 10
242.9168192569
 20
39.4618811973
  0
SPLINE
  5
1F7
330
1F
100
AcDbEntity
  8
0
  6
Continuous
 62
     7
370
    15
100
AcDbSpline
210
0.0
220
0.0
230
1.0
 70
    11
 71
     3
 72
    62
 73
    58
 74
     0
 42
0.000000001
 43
0.00000001
 40
0.0
 40
0.0
 40
0.0
 40
0.0
 40
0.0312500000000003
 40
0.0312500000000003
 40
0.0625000000000007
 40
0.0625000000000007
 40
0.093750000000001
 40
0.093750000000001
 40
0.1250000000000013
 40
0.1250000000000013
 40
0.1562500000000017
 40
0.1562500000000017
 40
0.187500000000002
 40
0.187500000000002
 40
0.2187500000000023
 40
0.2187500000000023
 40
0.2500000000000026
 40
0.2500000000000026
 40
0.3125000000000024
 40
0.3125000000000024
 40
0.3437500000000023
 40
0.3437500000000023
 40
0.3750000000000022
 40
0.3750000000000022
 40
0.4062500000000021
 40
0.4062500000000021
 40
0.437500000000002
 40
0.437500000000002
 40
0.4687500000000019
 40
0.4687500000000019
 40
0.5000000000000018
 40
0.5000000000000018
 40
0.5312500000000017
 40
0.5312500000000017
 40
0.5625000000000016
 40
0.5625000000000016
 40
0.5937500000000014
 40
0.5937500000000014
 40
0.6250000000000013
 40
0.6250000000000013
 40
0.6562500000000012
 40
0.6562500000000012
 40
0.6875000000000011
 40
0.6875000000000011
 40
0.718750000000001
 40
0.718750000000001
 40
0.7500000000000009
 40
0.7500000000000009
 40
0.7812500000000008
 40
0.7812500000000008
 40
0.8125000000000007
 40
0.8125000000000007
 40
0.8750000000000004
 40
0.8750000000000004
 40
0.9375000000000002
 40
0.9375000000000002
 40
1.0
 40
1.0
 40
1.0
 40
1.0
 10
244.3724749199545
 20
47.55913855326882
 30
0.0
 10
244.2732605064807
 20
47.57723809012628
 30
0.0
 10
244.174261586927
 20
47.59007961403343
 30
0.0
 10
243.9765164798006
 20
47.60343048031406
 30
0.0
 10
243.876885470682
 20
47.60376650366469
 30
0.0
 10
243.6868660494802
 20
47.58957799542183
 30
0.0
 10
243.5955133449332
 20
47.57524978468985
 30
0.0
 10
243.4208040444803
 20
47.529707648961
 30
0.0
 10
243.3387115833601
 20
47.49848397602992
 30
0.0
 10
243.1932030670785
 20
47.42157337331964
 30
0.0
 10
243.12776184913
 20
47.37476782794655
 30
0.0
 10
243.0185954536789
 20
47.26966451532007
 30
0.0
 10
242.9746683139051
 20
47.21176221979896
 30
0.0
 10
242.9070993493323
 20
47.08643620539106
 30
0.0
 10
242.8844990096354
 20
47.02085125108117
 30
0.0
 10
242.8595758521116
 20
46.88652046323008
 30
0.0
 10
242.8573913327101
 20
46.81720681314582
 30
0.0
 10
242.8793201794189
 20
46.61345023151868
 30
0.0
 10
242.9321136132867
 20
46.47909711552256
 30
0.0
 10
243.056753293037
 20
46.30014808751447
 30
0.0
 10
243.106388264583
 20
46.24339533805464
 30
0.0
 10
243.2195236650027
 20
46.13900046264393
 30
0.0
 10
243.2823019044002
 20
46.09186075400421
 30
0.0
 10
243.4198697109057
 20
46.00763185149376
 30
0.0
 10
243.4953731015077
 20
45.97028296899318
 30
0.0
 10
243.6556123769714
 20
45.90746447789259
 30
0.0
 10
243.7396789809468
 20
45.88210030082127
 30
0.0
 10
243.9157071705475
 20
45.84281333195941
 30
0.0
 10
244.0085882292514
 20
45.82882871367352
 30
0.0
 10
244.1984034391311
 20
45.81284634000642
 30
0.0
 10
244.2946777805135
 20
45.81076047561661
 30
0.0
 10
244.4902304028728
 20
45.81765656177781
 30
0.0
 10
244.5907326604056
 20
45.82683471483683
 30
0.0
 10
244.7888857143101
 20
45.85577499985929
 30
0.0
 10
244.8859953076222
 20
45.87529643833248
 30
0.0
 10
245.0761611123996
 20
45.92403433211351
 30
0.0
 10
245.1705374295324
 20
45.95382739438689
 30
0.0
 10
245.3448368273756
 20
46.02034050336264
 30
0.0
 10
245.4255097288898
 20
46.05707495537957
 30
0.0
 10
245.5731257658603
 20
46.13755129226175
 30
0.0
 10
245.6384602063837
 20
46.18060921713235
 30
0.0
 10
245.7477823192644
 20
46.26901983917305
 30
0.0
 10
245.7928972388886
 20
46.3153940169522
 30
0.0
 10
245.860262981306
 20
46.40789202602481
 30
0.0
 10
245.883261981691
 20
46.45463514285536
 30
0.0
 10
245.9085810923657
 20
46.54857916852554
 30
0.0
 10
245.9107844439582
 20
46.59488334258326
 30
0.0
 10
245.8963355789648
 20
46.68754891243091
 30
0.0
 10
245.8794049392176
 20
46.73404288454117
 30
0.0
 10
245.8287563603186
 20
46.82506344849977
 30
0.0
 10
245.7950267297819
 20
46.87001426934008
 30
0.0
 10
245.6690445557869
 20
47.00480742011918
 30
0.0
 10
245.5559430411122
 20
47.0910501710267
 30
0.0
 10
245.276609698818
 20
47.25747046834662
 30
0.0
 10
245.1172619060532
 20
47.33371145121998
 30
0.0
 10
244.7595965886278
 20
47.46824863312312
 30
0.0
 10
244.570903746902
 20
47.52293947955389
 30
0.0
 10
244.3724749199545
 20
47.55913855326882
 30
0.0
  0
LINE
  5
1F8
330
1F
100
AcDbEntity
  8
0
  6
Continuous
 62
     7
370
    15
100
AcDbLine
 10
229.3447266735
 20
36.9279033025
 30
0.0
 11
231.5147224102
 21
35.6751914284
 31
0.0
  0
SPLINE
  5
1F9
330
1F
100
AcDbEntity
  8
0
  6
Continuous
 62
     7
370
    15
100
AcDbSpline
210
0.0
220
0.0
230
1.0
 70
     8
 71
     3
 72
    14
 73
    10
 74
     0
 42
0.000000001
 43
0.00000001
 40
0.0
 40
0.0
 40
0.0
 40
0.0
 40
0.1249999999999993
 40
0.1249999999999993
 40
0.2499999999999987
 40
0.2499999999999987
 40
0.4999999999999973
 40
0.4999999999999973
 40
1.0
 40
1.0
 40
1.0
 40
1.0
 10
229.0964172185907
 20
37.63865060862631
 30
0.0
 10
229.1206457965434
 20
37.62466374829292
 30
0.0
 10
229.1437316379094
 20
37.59736497847619
 30
0.0
 10
229.1804740119725
 20
37.53992577016876
 30
0.0
 10
229.1956323116563
 20
37.50877529516637
 30
0.0
 10
229.235195238544
 20
37.41647575496062
 30
0.0
 10
229.2548051117868
 20
37.35423797420508
 30
0.0
 10
229.3056279607417
 20
37.16878220800851
 30
0.0
 10
229.3280596448658
 20
37.0468833877108
 30
0.0
 10
229.3447266735253
 20
36.92790330251221
 30
0.0
  0
LINE
  5
1FA
330
1F
100
AcDbEntity
  8
0
  6
Continuous
 62
     7
370
    15
100
AcDbLine
 10
228.3115286915
 20
38.0917571107
 30
0.0
 11
229.0964172186
 21
37.6386506086
 31
0.0
  0
SPLINE
  5
1FB
330
1F
100
AcDbEntity
  8
0
  6
Continuous
 62
     7
370
    15
100
AcDbSpline
210
0.0
220
0.0
230
1.0
 70
     8
 71
     3
 72
    14
 73
    10
 74
     0
 42
0.000000001
 43
0.00000001
 40
0.0
 40
0.0
 40
0.0
 40
0.0
 40
0.4999999999999972
 40
0.4999999999999972
 40
0.7499999999999973
 40
0.7499999999999973
 40
0.8749999999999987
 40
0.8749999999999987
 40
1.0
 40
1.0
 40
1.0
 40
1.0
 10
228.0632192365391
 20
37.66770179883024
 30
0.0
 10
228.0798433179929
 20
37.76718154306035
 30
0.0
 10
228.1022607195972
 20
37.86301667645635
 30
0.0
 10
228.1526917774459
 20
37.98923262602999
 30
0.0
 10
228.1722264713771
 20
38.02906617472424
 30
0.0
 10
228.2121696287126
 20
38.07632650619609
 30
0.0
 10
228.2271865958782
 20
38.08992911980135
 30
0.0
 10
228.2642479633999
 20
38.10514952137707
 30
0.0
 10
228.2872316257483
 20
38.10578350817094
 30
0.0
 10
228.3115286914737
 20
38.0917571106879
 30
0.0
  0
LINE
  5
1FC
330
1F
100
AcDbEntity
  8
0
  6
Continuous
 62
     7
370
    15
100
AcDbLine
 10
226.9185283325
 20
38.3285177918
 30
0.0
 11
228.0632192365
 21
37.6677017988
 31
0.0
  0
ARC
  5
1FD
330
1F
100
AcDbEntity
  8
0
  6
Continuous
 62
     7
370
    15
100
AcDbCircle
 10
230.1871396848
 20
43.4816377604
 30
0.0
 40
6.102332798378974
100
AcDbArc
 50
182.3868561234
 51
237.6131440222
  0
LINE
  5
1FE
330
1F
100
AcDbEntity
  8
0
  6
Continuous
 62
     7
370
    15
100
AcDbLine
 10
224.0901012078
 20
44.0440380749
 30
0.0
 11
224.0901012078
 21
43.227497263
 31
0.0
  0
ARC
  5
1FF
330
1F
100
AcDbEntity
  8
0
  6
Continuous
 62
     7
370
    15
100
AcDbCircle
 10
226.7122558113
 20
44.1210833829
 30
0.0
 40
2.623286248972911
100
AcDbArc
 50
154.3037094398
 51
181.6830057549
  0
LINE
  5
200
330
1F
100
AcDbEntity
  8
0
  6
Continuous
 62
     7
370
    15
100
AcDbLine
 10
247.5199290727
 20
44.0614494679
 30
0.0
 11
247.5443987077
 21
44.0478174708
 31
0.0
  0
SPLINE
  5
201
330
1F
100
AcDbEntity
  8
0
  6
Continuous
 62
     7
370
    15
100
AcDbSpline
210
0.0
220
0.0
230
1.0
 70
     8
 71
     3
 72
    12
 73
     8
 74
     0
 42
0.000000001
 43
0.00000001
 40
0.0
 40
0.0
 40
0.0
 40
0.0
 40
0.2499999999999999
 40
0.2499999999999999
 40
0.4999999999999998
 40
0.4999999999999998
 40
1.0
 40
1.0
 40
1.0
 40
1.0
 10
251.4081801489605
 20
47.81263297136468
 30
0.0
 10
251.4362851506248
 20
47.79640829925576
 30
0.0
 10
251.4589411175522
 20
47.77638869644751
 30
0.0
 10
251.4880632594328
 20
47.73342706908451
 30
0.0
 10
251.4949186576383
 20
47.71021919376423
 30
0.0
 10
251.491760662638
 20
47.64133232915452
 30
0.0
 10
251.4571285447496
 20
47.59596784523313
 30
0.0
 10
251.4008420955176
 20
47.56347436973461
 30
0.0
  0
ARC
  5
202
330
1F
100
AcDbEntity
  8
0
  6
Continuous
 62
     7
370
    15
100
AcDbCircle
 10
235.4795559796
 20
35.92751023
 30
0.0
 40
5.432026029965625
100
AcDbArc
 50
217.3950627517
 51
262.6019516066
  0
SPLINE
  5
203
330
1F
100
AcDbEntity
  8
0
  6
Continuous
 62
     7
370
    15
100
AcDbSpline
210
0.0
220
0.0
230
1.0
 70
     8
 71
     3
 72
    12
 73
     8
 74
     0
 42
0.000000001
 43
0.00000001
 40
0.0
 40
0.0
 40
0.0
 40
0.0
 40
0.2500000000000001
 40
0.2500000000000001
 40
0.5000000000000002
 40
0.5000000000000002
 40
1.0
 40
1.0
 40
1.0
 40
1.0
 10
229.9637127844869
 20
35.02473506369181
 30
0.0
 10
229.9919549845593
 20
35.00843118862779
 30
0.0
 10
230.0265011164647
 20
34.99547539521779
 30
0.0
 10
230.1012251761624
 20
34.97876365702524
 30
0.0
 10
230.1415155674641
 20
34.97487674823779
 30
0.0
 10
230.2626285849004
 20
34.97714014612709
 30
0.0
 10
230.3407461473183
 20
34.99746935755384
 30
0.0
 10
230.3973956200539
 20
35.03017240206017
 30
0.0
  0
LINE
  5
204
330
1F
100
AcDbEntity
  8
0
  6
Continuous
 62
     7
370
    15
100
AcDbLine
 10
250.1823414336
 20
48.5202945988
 30
0.0
 11
251.408180149
 21
47.8126329714
 31
0.0
  0
ARC
  5
205
330
1F
100
AcDbEntity
  8
0
  6
Continuous
 62
     7
370
    15
100
AcDbCircle
 10
234.7636214107
 20
37.4608023461
 30
0.0
 40
6.40955322379983
100
AcDbArc
 50
194.716105919
 51
237.9533567894
  0
LINE
  5
206
330
1F
100
AcDbEntity
  8
0
  6
Continuous
 62
     7
370
    15
100
AcDbLine
 10
228.5643247169
 20
35.8325845996
 30
0.0
 11
229.9637127845
 21
35.0247350637
 31
0.0
  0
SPLINE
  5
207
330
1F
100
AcDbEntity
  8
0
  6
Continuous
 62
     7
370
    15
100
AcDbSpline
210
0.0
220
0.0
230
1.0
 70
     8
 71
     3
 72
     8
 73
     4
 74
     0
 42
0.000000001
 43
0.00000001
 40
0.0
 40
0.0
 40
0.0
 40
0.0
 40
1.0
 40
1.0
 40
1.0
 40
1.0
 10
228.9911158811622
 20
36.68389688674778
 30
0.0
 10
228.8479511844717
 20
36.40027483974078
 30
0.0
 10
228.7057624876192
 20
36.11649169375676
 30
0.0
 10
228.564324716864
 20
35.83258459956969
 30
0.0
  0
LINE
  5
208
330
1F
100
AcDbEntity
  8
0
  6
Continuous
 62
     7
370
    15
100
AcDbLine
 10
229.2362844855
 20
36.8254297094
 30
0.0
 11
228.9911158812
 21
36.6838968867
 31
0.0
  0
SPLINE
  5
209
330
1F
100
AcDbEntity
  8
0
  6
Continuous
 62
     7
370
    15
100
AcDbSpline
210
0.0
220
0.0
230
1.0
 70
     8
 71
     3
 72
    10
 73
     6
 74
     0
 42
0.000000001
 43
0.00000001
 40
0.0
 40
0.0
 40
0.0
 40
0.0
 40
0.5
 40
0.5
 40
1.0
 40
1.0
 40
1.0
 40
1.0
 10
229.3447266735253
 20
36.92790330251231
 30
0.0
 10
229.3340738065554
 20
36.90862765530616
 30
0.0
 10
229.3192690434032
 20
36.89001627388108
 30
0.0
 10
229.2824832720723
 20
36.85538599964949
 30
0.0
 10
229.2609140514783
 20
36.83964805521438
 30
0.0
 10
229.2362844855284
 20
36.82542970943751
 30
0.0
  0
SPLINE
  5
20A
330
1F
100
AcDbEntity
  8
0
  6
Continuous
 62
     7
370
    15
100
AcDbSpline
210
0.0
220
0.0
230
1.0
 70
     8
 71
     3
 72
    14
 73
    10
 74
     0
 42
0.000000001
 43
0.00000001
 40
0.0
 40
0.0
 40
0.0
 40
0.0
 40
0.4999999999999999
 40
0.4999999999999999
 40
0.7499999999999998
 40
0.7499999999999998
 40
0.8749999999999999
 40
0.8749999999999999
 40
1.0
 40
1.0
 40
1.0
 40
1.0
 10
213.4234174168466
 20
48.32296264964899
 30
0.0
 10
213.7385833606864
 20
48.09587465875313
 30
0.0
 10
214.0548590159524
 20
47.86602828370498
 30
0.0
 10
214.5336835045235
 20
47.51071968171587
 30
0.0
 10
214.6940035149475
 20
47.39058136752032
 30
0.0
 10
214.9370560509012
 20
47.20431253327651
 30
0.0
 10
215.0184994889178
 20
47.1412192920495
 30
0.0
 10
215.1831609379512
 20
47.01087404963736
 30
0.0
 10
215.2660669560174
 20
46.94434960766011
 30
0.0
 10
215.3520857841021
 20
46.87055613633655
 30
0.0
  0
SPLINE
  5
20B
330
1F
100
AcDbEntity
  8
0
  6
Continuous
 62
     7
370
    15
100
AcDbSpline
210
0.0
220
0.0
230
1.0
 70
     8
 71
     3
 72
     8
 73
     4
 74
     0
 42
0.000000001
 43
0.00000001
 40
0.0
 40
0.0
 40
0.0
 40
0.0
 40
1.0
 40
1.0
 40
1.0
 40
1.0
 10
215.3520857841021
 20
46.87055613633655
 30
0.0
 10
215.6537382573396
 20
46.61177577825472
 30
0.0
 10
215.959017800863
 20
46.36420076285006
 30
0.0
 10
216.2636773739897
 20
46.12322790628355
 30
0.0
  0
SPLINE
  5
20C
330
1F
100
AcDbEntity
  8
0
  6
Continuous
 62
     7
370
    15
100
AcDbSpline
210
0.0
220
0.0
230
1.0
 70
     8
 71
     3
 72
    14
 73
    10
 74
     0
 42
0.000000001
 43
0.00000001
 40
0.0
 40
0.0
 40
0.0
 40
0.0
 40
0.1250000000000012
 40
0.1250000000000012
 40
0.2500000000000024
 40
0.2500000000000024
 40
0.5000000000000016
 40
0.5000000000000016
 40
1.0
 40
1.0
 40
1.0
 40
1.0
 10
216.2636773739897
 20
46.1232279062835
 30
0.0
 10
216.2828727499152
 20
46.10804517454729
 30
0.0
 10
216.3004848233157
 20
46.09667735605051
 30
0.0
 10
216.3263297532349
 20
46.08540888683805
 30
0.0
 10
216.3344681174825
 20
46.08502541660101
 30
0.0
 10
216.3514182084506
 20
46.09080120929539
 30
0.0
 10
216.3535874809604
 20
46.10346663491343
 30
0.0
 10
216.3524119331458
 20
46.14790346195721
 30
0.0
 10
216.3403384125416
 20
46.18838673273064
 30
0.0
 10
216.3255601845015
 20
46.23239040261314
 30
0.0
  0
SPLINE
  5
20D
330
1F
100
AcDbEntity
  8
0
  6
Continuous
 62
     7
370
    15
100
AcDbSpline
210
0.0
220
0.0
230
1.0
 70
     8
 71
     3
 72
    14
 73
    10
 74
     0
 42
0.000000001
 43
0.00000001
 40
0.0
 40
0.0
 40
0.0
 40
0.0
 40
0.25
 40
0.25
 40
0.5
 40
0.5
 40
0.75
 40
0.75
 40
1.0
 40
1.0
 40
1.0
 40
1.0
 10
216.3255601845009
 20
46.23239040261385
 30
0.0
 10
216.3075039375543
 20
46.28615470560061
 30
0.0
 10
216.3045811394531
 20
46.33070531469766
 30
0.0
 10
216.2991674109098
 20
46.42296666454237
 30
0.0
 10
216.2976001328686
 20
46.47026106746263
 30
0.0
 10
216.2874617330615
 20
46.57502212229041
 30
0.0
 10
216.2791467353173
 20
46.63228332932542
 30
0.0
 10
216.2503465606584
 20
46.76190468669984
 30
0.0
 10
216.2296931639879
 20
46.83469888631289
 30
0.0
 10
216.2010036468268
 20
46.91438558527265
 30
0.0
  0
ARC
  5
20E
330
1F
100
AcDbEntity
  8
0
  6
Continuous
 62
     7
370
    15
100
AcDbCircle
 10
226.5559709242
 20
50.0009470832
 30
0.0
 40
10.80519362138102
100
AcDbArc
 50
163.4019732888
 51
196.5980267112
  0
SPLINE
  5
20F
330
1F
100
AcDbEntity
  8
0
  6
Continuous
 62
     7
370
    15
100
AcDbSpline
210
0.0
220
0.0
230
1.0
 70
     8
 71
     3
 72
    14
 73
    10
 74
     0
 42
0.000000001
 43
0.00000001
 40
0.0
 40
0.0
 40
0.0
 40
0.0
 40
0.25
 40
0.25
 40
0.5
 40
0.5
 40
0.75
 40
0.75
 40
1.0
 40
1.0
 40
1.0
 40
1.0
 10
216.3255601845009
 20
54.54871359753682
 30
0.0
 10
216.3075039375543
 20
54.42787151859227
 30
0.0
 10
216.3045811394531
 20
54.30277725202616
 30
0.0
 10
216.2991674109098
 20
54.0548259413748
 30
0.0
 10
216.2976001328686
 20
53.93091731706104
 30
0.0
 10
216.2874617330615
 20
53.68476157782084
 30
0.0
 10
216.2791467353173
 20
53.56247363595943
 30
0.0
 10
216.2503465606584
 20
53.32047645875065
 30
0.0
 10
216.2296931639879
 20
53.20031949157105
 30
0.0
 10
216.2010036468268
 20
53.08750858116578
 30
0.0
  0
SPLINE
  5
210
330
1F
100
AcDbEntity
  8
0
  6
Continuous
 62
     7
370
    15
100
AcDbSpline
210
0.0
220
0.0
230
1.0
 70
     8
 71
     3
 72
    14
 73
    10
 74
     0
 42
0.000000001
 43
0.00000001
 40
0.0
 40
0.0
 40
0.0
 40
0.0
 40
0.1250000000000025
 40
0.1250000000000025
 40
0.250000000000005
 40
0.250000000000005
 40
0.5000000000000009
 40
0.5000000000000009
 40
1.0
 40
1.0
 40
1.0
 40
1.0
 10
216.2636773739898
 20
55.09399916183084
 30
0.0
 10
216.2828727499153
 20
55.09171235385701
 30
0.0
 10
216.3004848233157
 20
55.0802141145842
 30
0.0
 10
216.326329753235
 20
55.04352261205768
 30
0.0
 10
216.3344681174826
 20
55.02044119695561
 30
0.0
 10
216.3514182084506
 20
54.94910867787851
 30
0.0
 10
216.3535874809604
 20
54.89786457227044
 30
0.0
 10
216.3524119331458
 20
54.74782909250885
 30
0.0
 10
216.3403384125416
 20
54.64761741762577
 30
0.0
 10
216.3255601845015
 20
54.54871359753716
 30
0.0
  0
SPLINE
  5
211
330
1F
100
AcDbEntity
  8
0
  6
Continuous
 62
     7
370
    15
100
AcDbSpline
210
0.0
220
0.0
230
1.0
 70
     8
 71
     3
 72
     8
 73
     4
 74
     0
 42
0.000000001
 43
0.00000001
 40
0.0
 40
0.0
 40
0.0
 40
0.0
 40
1.0
 40
1.0
 40
1.0
 40
1.0
 10
215.3520857841021
 20
55.14621197296693
 30
0.0
 10
215.6537382573396
 20
55.15355822011004
 30
0.0
 10
215.9590178008631
 20
55.1302942541401
 30
0.0
 10
216.2636773739898
 20
55.09399916183084
 30
0.0
  0
SPLINE
  5
212
330
1F
100
AcDbEntity
  8
0
  6
Continuous
 62
     7
370
    15
100
AcDbSpline
210
0.0
220
0.0
230
1.0
 70
     8
 71
     3
 72
    14
 73
    10
 74
     0
 42
0.000000001
 43
0.00000001
 40
0.0
 40
0.0
 40
0.0
 40
0.0
 40
0.4999999999999999
 40
0.4999999999999999
 40
0.7499999999999998
 40
0.7499999999999998
 40
0.8749999999999999
 40
0.8749999999999999
 40
1.0
 40
1.0
 40
1.0
 40
1.0
 10
213.4234174168466
 20
55.77885131795192
 30
0.0
 10
213.7385833606864
 20
55.64146682422579
 30
0.0
 10
214.0548590159524
 20
55.50989331659463
 30
0.0
 10
214.5336835045235
 20
55.33499785007387
 30
0.0
 10
214.6940035149475
 20
55.28032669980935
 30
0.0
 10
214.9370560509012
 20
55.21129488408931
 30
0.0
 10
215.0184994889178
 20
55.19043259958051
 30
0.0
 10
215.1831609379512
 20
55.15762488615088
 30
0.0
 10
215.2660669560174
 20
55.14411712665823
 30
0.0
 10
215.3520857841021
 20
55.14621197296692
 30
0.0
  0
SPLINE
  5
213
330
1F
100
AcDbEntity
  8
0
  6
Continuous
 62
     7
370
    15
100
AcDbSpline
210
0.0
220
0.0
230
1.0
 70
     8
 71
     3
 72
     8
 73
     4
 74
     0
 42
0.000000001
 43
0.00000001
 40
0.0000005163856998
 40
0.0000005163856998
 40
0.0000005163856998
 40
0.0000005163856998
 40
0.000026289209185
 40
0.000026289209185
 40
0.000026289209185
 40
0.000026289209185
 10
213.4233958298273
 20
55.79173042914311
 30
0.0
 10
213.423393528668
 20
55.78743759411657
 30
0.0
 10
213.4234007749924
 20
55.78314452644105
 30
0.0
 10
213.4234174168465
 20
55.77885131795191
 30
0.0
  0
LINE
  5
214
330
1F
100
AcDbEntity
  8
0
  6
Continuous
 62
     7
370
    15
100
AcDbLine
 10
226.287571226
 20
66.2869470202
 30
0.0
 11
226.3202091883
 21
66.2704899862
 31
0.0
  0
LINE
  5
215
330
1F
100
AcDbEntity
  8
0
  6
Continuous
 62
     7
370
    15
100
AcDbLine
 10
214.9058734128
 20
46.5711318817
 30
0.0
 11
214.853850237
 21
46.6061983315
 31
0.0
  0
SPLINE
  5
216
330
1F
100
AcDbEntity
  8
0
  6
Continuous
 62
     7
370
    15
100
AcDbSpline
210
0.0
220
0.0
230
1.0
 70
     8
 71
     3
 72
     8
 73
     4
 74
     0
 42
0.000000001
 43
0.00000001
 40
0.0000005163857002
 40
0.0000005163857002
 40
0.0000005163857002
 40
0.0000005163857002
 40
0.0000262892091854
 40
0.0000262892091854
 40
0.0000262892091854
 40
0.0000262892091854
 10
213.4233958298273
 20
48.31825937728334
 30
0.0
 10
213.423393528668
 20
48.31983276298104
 30
0.0
 10
213.4234007749924
 20
48.32140049291322
 30
0.0
 10
213.4234174168465
 20
48.32296264964899
 30
0.0
  0
SPLINE
  5
217
330
1F
100
AcDbEntity
  8
0
  6
Continuous
 62
     7
370
    15
100
AcDbSpline
210
0.0
220
0.0
230
1.0
 70
     8
 71
     3
 72
    18
 73
    14
 74
     0
 42
0.000000001
 43
0.00000001
 40
0.0
 40
0.0
 40
0.0
 40
0.0
 40
0.1248838678074593
 40
0.250449739524344
 40
0.3759926854030275
 40
0.5008213054456616
 40
0.6245850129385223
 40
0.6868393694357227
 40
0.7482883257010329
 40
0.809649188589608
 40
0.8722979832432585
 40
0.9965007240958169
 40
1.0
 40
1.0
 40
1.0
 40
1.0
 10
219.1122641282812
 20
46.44528826202708
 30
0.0
 10
218.9792173124976
 20
46.69022302695628
 30
0.0
 10
218.7123970983052
 20
47.18143017127336
 30
0.0
 10
218.5877026417934
 20
47.93345134200401
 30
0.0
 10
218.7235277905633
 20
48.55813819287127
 30
0.0
 10
219.0906063664827
 20
48.97500429008827
 30
0.0
 10
219.5332378168777
 20
49.06898433816672
 30
0.0
 10
219.9094800459144
 20
48.98704708126714
 30
0.0
 10
220.1916525452565
 20
48.84475311049415
 30
0.0
 10
220.4642224730078
 20
48.62813509755061
 30
0.0
 10
220.7895196663163
 20
48.24998810518854
 30
0.0
 10
221.0348223894344
 20
47.89124567408607
 30
0.0
 10
221.1209353440105
 20
47.62174833959114
 30
0.0
 10
221.1232950012394
 20
47.61436360477811
 30
0.0
  0
SPLINE
  5
218
330
1F
100
AcDbEntity
  8
0
  6
Continuous
 62
     7
370
    15
100
AcDbSpline
210
0.0
220
0.0
230
1.0
 70
     8
 71
     3
 72
    12
 73
     8
 74
     0
 42
0.000000001
 43
0.00000001
 40
0.0
 40
0.0
 40
0.0
 40
0.0
 40
0.1531413117507218
 40
0.321386802876655
 40
0.4897577437573559
 40
0.6605592160055064
 40
1.0
 40
1.0
 40
1.0
 40
1.0
 10
220.6739598606049
 20
45.11729934857098
 30
0.0
 10
220.6005464930349
 20
45.13639572137973
 30
0.0
 10
220.4464790684973
 20
45.17647192376681
 30
0.0
 10
220.1826739525794
 20
45.32192350241303
 30
0.0
 10
219.9012608875967
 20
45.52921590880787
 30
0.0
 10
219.5210730047395
 20
45.87844108139576
 30
0.0
 10
219.2755796223626
 20
46.21883787725199
 30
0.0
 10
219.1122641282812
 20
46.44528826202708
 30
0.0
  0
ARC
  5
219
330
1F
100
AcDbEntity
  8
0
  6
Continuous
 62
     7
370
    15
100
AcDbCircle
 10
233.9358937243
 20
39.5225974538
 30
0.0
 40
6.623523393474175
100
AcDbArc
 50
198.1114510494
 51
217.3575801743
  0
SPLINE
  5
21A
330
1F
100
AcDbEntity
  8
0
  6
Continuous
 62
     7
370
    15
100
AcDbSpline
210
0.0
220
0.0
230
1.0
 70
     8
 71
     3
 72
     8
 73
     4
 74
     0
 42
0.000000001
 43
0.00000001
 40
0.0
 40
0.0
 40
0.0
 40
0.0
 40
1.0
 40
1.0
 40
1.0
 40
1.0
 10
226.1658660103888
 20
37.2171853387624
 30
0.0
 10
226.6576608091407
 20
37.29883562584414
 30
0.0
 10
227.1492409000434
 20
37.38091941333459
 30
0.0
 10
227.6405419290959
 20
37.46356663353848
 30
0.0
  0
LINE
  5
21B
330
1F
100
AcDbEntity
  8
0
  6
Continuous
 62
     7
370
    15
100
AcDbLine
 10
227.6405419291
 20
37.4635666335
 30
0.0
 11
227.8857105335
 21
37.6050994562
 31
0.0
  0
SPLINE
  5
21C
330
1F
100
AcDbEntity
  8
0
  6
Continuous
 62
     7
370
    15
100
AcDbSpline
210
0.0
220
0.0
230
1.0
 70
     8
 71
     3
 72
    10
 73
     6
 74
     0
 42
0.000000001
 43
0.00000001
 40
0.0
 40
0.0
 40
0.0
 40
0.0
 40
0.5
 40
0.5
 40
1.0
 40
1.0
 40
1.0
 40
1.0
 10
227.8857105334621
 20
37.60509945622825
 30
0.0
 10
227.910542836814
 20
37.61943483981609
 30
0.0
 10
227.9382178343075
 20
37.63203027995218
 30
0.0
 10
227.998342843762
 20
37.65322817809245
 30
0.0
 10
228.0300372439567
 20
37.66159034375911
 30
0.0
 10
228.0632192365384
 20
37.66770179883035
 30
0.0
  0
SPLINE
  5
21D
330
1F
100
AcDbEntity
  8
0
  6
Continuous
 62
     7
370
    15
100
AcDbSpline
210
0.0
220
0.0
230
1.0
 70
     8
 71
     3
 72
    12
 73
     8
 74
     0
 42
0.000000001
 43
0.00000001
 40
0.0
 40
0.0
 40
0.0
 40
0.0
 40
0.0834282655467821
 40
0.3411803627467535
 40
0.5980894299311698
 40
0.8585313857351435
 40
1.0
 40
1.0
 40
1.0
 40
1.0
 10
220.1320932667267
 20
48.76820392997835
 30
0.0
 10
220.1182086025672
 20
48.7204918200863
 30
0.0
 10
220.0614271901341
 20
48.52537287743905
 30
0.0
 10
220.1394742069506
 20
48.09071588178682
 30
0.0
 10
220.3630041825904
 20
47.54262679118884
 30
0.0
 10
220.6663318829592
 20
47.08467307649477
 30
0.0
 10
220.8936583684444
 20
46.86954197190411
 30
0.0
 10
220.9736750818187
 20
46.79381791407081
 30
0.0
  0
LINE
  5
21E
330
1F
100
AcDbEntity
  8
0
  6
Continuous
 62
     7
370
    15
100
AcDbLine
 10
247.7894561642
 20
58.7434165704
 30
0.0
 11
247.8844644795
 21
58.7644650918
 31
0.0
  0
LINE
  5
21F
330
1F
100
AcDbEntity
  8
0
  6
Continuous
 62
     7
370
    15
100
AcDbLine
 10
247.8844644795
 20
58.7644650918
 30
0.0
 11
249.2838525472
 21
57.9566155559
 31
0.0
  0
SPLINE
  5
220
330
1F
100
AcDbEntity
  8
0
  6
Continuous
 62
     7
370
    15
100
AcDbSpline
210
0.0
220
0.0
230
1.0
 70
     8
 71
     3
 72
    12
 73
     8
 74
     0
 42
0.000000001
 43
0.00000001
 40
0.0
 40
0.0
 40
0.0
 40
0.0
 40
0.249999999999998
 40
0.249999999999998
 40
0.499999999999996
 40
0.499999999999996
 40
1.0
 40
1.0
 40
1.0
 40
1.0
 10
249.2838525471539
 20
57.95661555590666
 30
0.0
 10
249.3160965180265
 20
57.93800150773304
 30
0.0
 10
249.3381495205601
 20
57.91375118493563
 30
0.0
 10
249.3589984647251
 20
57.86316332704808
 30
0.0
 10
249.3586172954978
 20
57.83632475861403
 30
0.0
 10
249.3328643626006
 20
57.75909064234522
 30
0.0
 10
249.2849129354919
 20
57.71230527151738
 30
0.0
 10
249.2210128863566
 20
57.67541655834992
 30
0.0
  0
SPLINE
  5
221
330
1F
100
AcDbEntity
  8
0
  6
Continuous
 62
     7
370
    15
100
AcDbSpline
210
0.0
220
0.0
230
1.0
 70
     8
 71
     3
 72
    11
 73
     7
 74
     0
 42
0.000000001
 43
0.00000001
 40
0.0
 40
0.0
 40
0.0
 40
0.0
 40
0.2042918412093874
 40
0.3927251333975338
 40
0.7211867458294244
 40
1.0
 40
1.0
 40
1.0
 40
1.0
 10
219.4035334781303
 20
46.62821134721546
 30
0.0
 10
219.4831531082793
 20
46.51362603177968
 30
0.0
 10
219.6362117409012
 20
46.29335030748486
 30
0.0
 10
219.9599623709414
 20
45.94252648756274
 30
0.0
 10
220.3442199281685
 20
45.62527636019229
 30
0.0
 10
220.5978367842104
 20
45.51772507142217
 30
0.0
 10
220.7142778635871
 20
45.46834590811181
 30
0.0
  0
SPLINE
  5
222
330
1F
100
AcDbEntity
  8
0
  6
Continuous
 62
     7
370
    15
100
AcDbSpline
210
0.0
220
0.0
230
1.0
 70
     8
 71
     3
 72
    16
 73
    12
 74
     0
 42
0.000000001
 43
0.00000001
 40
0.0
 40
0.0
 40
0.0
 40
0.0
 40
0.1460145430676681
 40
0.2335492809463516
 40
0.3282846594090686
 40
0.4359414638269612
 40
0.5278790608188775
 40
0.664099532270754
 40
0.8013223014818099
 40
0.8930413578181003
 40
1.0
 40
1.0
 40
1.0
 40
1.0
 10
220.3431409500769
 20
48.71018026467303
 30
0.0
 10
220.196280344149
 20
48.78365116461036
 30
0.0
 10
219.9613777913402
 20
48.90116737560104
 30
0.0
 10
219.6445267017001
 20
48.89119744205999
 30
0.0
 10
219.3913975426125
 20
48.80346209977558
 30
0.0
 10
219.1826742670623
 20
48.62166988485803
 30
0.0
 10
219.0196433506535
 20
48.32980451021724
 30
0.0
 10
218.9426155441749
 20
47.91992113642802
 30
0.0
 10
219.0180148842182
 20
47.45535197421925
 30
0.0
 10
219.1767574213132
 20
47.01340730771744
 30
0.0
 10
219.3241723031439
 20
46.76301219195425
 30
0.0
 10
219.4035334781303
 20
46.62821134721547
 30
0.0
  0
SPLINE
  5
223
330
1F
100
AcDbEntity
  8
0
  6
Continuous
 62
     7
370
    15
100
AcDbSpline
210
0.0
220
0.0
230
1.0
 70
     8
 71
     3
 72
    13
 73
     9
 74
     0
 42
0.000000001
 43
0.00000001
 40
0.0
 40
0.0
 40
0.0
 40
0.0
 40
0.1648353260908709
 40
0.3335413522328223
 40
0.5157486366727204
 40
0.7034480219308892
 40
0.8819189490305853
 40
1.0
 40
1.0
 40
1.0
 40
1.0
 10
251.4008420955178
 20
54.09580086482074
 30
0.0
 10
251.4117096057176
 20
54.10264341326617
 30
0.0
 10
251.4336998194263
 20
54.11648918841239
 30
0.0
 10
251.4600919549804
 20
54.14134497564126
 30
0.0
 10
251.4806472572736
 20
54.16935074708063
 30
0.0
 10
251.4922885441602
 20
54.19954504961142
 30
0.0
 10
251.4957294870449
 20
54.2269337701559
 30
0.0
 10
251.4913099998137
 20
54.24344093856726
 30
0.0
 10
251.4895502486213
 20
54.25001376201372
 30
0.0
  0
LINE
  5
224
330
1F
100
AcDbEntity
  8
0
  6
Continuous
 62
     7
370
    15
100
AcDbLine
 10
245.4860057731
 20
60.149065831
 30
0.0
 11
245.3416098426
 21
59.9318559362
 31
0.0
  0
LINE
  5
225
330
1F
100
AcDbEntity
  8
0
  6
Continuous
 62
     7
370
    15
100
AcDbLine
 10
215.263173262
 20
50.4979438529
 30
0.0
 11
215.7635560974
 21
50.2090789907
 31
0.0
  0
SPLINE
  5
226
330
1F
100
AcDbEntity
  8
0
  6
Continuous
 62
     7
370
    15
100
AcDbSpline
210
0.0
220
0.0
230
1.0
 70
     8
 71
     3
 72
    10
 73
     6
 74
     0
 42
0.000000001
 43
0.00000001
 40
0.0
 40
0.0
 40
0.0
 40
0.0
 40
0.0840381716605778
 40
0.701112507693279
 40
1.0
 40
1.0
 40
1.0
 40
1.0
 10
213.4250829433175
 20
56.25152279743463
 30
0.0
 10
213.4245416285042
 20
56.25796877089847
 30
0.0
 10
213.4200255546926
 20
56.31174615004006
 30
0.0
 10
213.4343642811513
 20
56.3945461522811
 30
0.0
 10
213.4549130843668
 20
56.4761747366696
 30
0.0
 10
213.4616183640771
 20
56.50281095898102
 30
0.0
  0
SPLINE
  5
227
330
1F
100
AcDbEntity
  8
0
  6
Continuous
 62
     7
370
    15
100
AcDbSpline
210
0.0
220
0.0
230
1.0
 70
     8
 71
     3
 72
    10
 73
     6
 74
     0
 42
0.000000001
 43
0.00000001
 40
0.0
 40
0.0
 40
0.0
 40
0.0
 40
0.5
 40
0.5
 40
1.0
 40
1.0
 40
1.0
 40
1.0
 10
213.4778547670454
 20
56.30767260826477
 30
0.0
 10
213.4579287165487
 20
56.22371213424675
 30
0.0
 10
213.4446344524077
 20
56.13826627173299
 30
0.0
 10
213.4273659262671
 20
55.96585280079569
 30
0.0
 10
213.423442471645
 20
55.8787411945294
 30
0.0
 10
213.4233958298273
 20
55.79173042914311
 30
0.0
  0
SPLINE
  5
228
330
1F
100
AcDbEntity
  8
0
  6
Continuous
 62
     7
370
    15
100
AcDbSpline
210
0.0
220
0.0
230
1.0
 70
     8
 71
     3
 72
    24
 73
    20
 74
     0
 42
0.000000001
 43
0.00000001
 40
0.0
 40
0.0
 40
0.0
 40
0.0
 40
0.2500000000000034
 40
0.2500000000000034
 40
0.3750000000000043
 40
0.3750000000000043
 40
0.4375000000000036
 40
0.4375000000000036
 40
0.4687500000000054
 40
0.4687500000000054
 40
0.5000000000000073
 40
0.5000000000000073
 40
0.5625000000000063
 40
0.5625000000000063
 40
0.6250000000000052
 40
0.6250000000000052
 40
0.7500000000000029
 40
0.7500000000000029
 40
1.0
 40
1.0
 40
1.0
 40
1.0
 10
213.4616183640771
 20
56.50281095898102
 30
0.0
 10
213.4914593933622
 20
56.61009001553727
 30
0.0
 10
213.5212889334033
 20
56.71597458890794
 30
0.0
 10
213.5659600902746
 20
56.86592263215823
 30
0.0
 10
213.5809128823664
 20
56.91492289492115
 30
0.0
 10
213.6024960206557
 20
56.97807317682391
 30
0.0
 10
213.6096257321854
 20
56.99771336105242
 30
0.0
 10
213.6184773574868
 20
57.0154232905404
 30
0.0
 10
213.6211154547566
 20
57.01913965702609
 30
0.0
 10
213.6242679928017
 20
57.01699130864387
 30
0.0
 10
213.6246479539384
 20
57.01082889957731
 30
0.0
 10
213.6226380286776
 20
56.98218381622455
 30
0.0
 10
213.6180613870792
 20
56.95388281123637
 30
0.0
 10
213.6081300009728
 20
56.89750380108708
 30
0.0
 10
213.6024398152379
 20
56.86803405313103
 30
0.0
 10
213.5848582146192
 20
56.7801796325647
 30
0.0
 10
213.5721773416909
 20
56.72095463951538
 30
0.0
 10
213.5329362780706
 20
56.54246133238559
 30
0.0
 10
213.5056328180341
 20
56.42471829821189
 30
0.0
 10
213.4778547670454
 20
56.30767260826478
 30
0.0
  0
ARC
  5
229
330
1F
100
AcDbEntity
  8
0
  6
Continuous
 62
     7
370
    15
100
AcDbCircle
 10
214.1405328041
 20
55.7130631744
 30
0.0
 40
0.7201267655271024
100
AcDbArc
 50
174.7583590299
 51
234.4349468916
  0
ARC
  5
22A
330
1F
100
AcDbEntity
  8
0
  6
Continuous
 62
     7
370
    15
100
AcDbCircle
 10
215.6358667491
 20
48.213166797
 30
0.0
 40
2.215172042338781
100
AcDbArc
 50
122.6235698332
 51
177.1589486026
  0
LINE
  5
22B
330
1F
100
AcDbEntity
  8
0
  6
Continuous
 62
     7
370
    15
100
AcDbLine
 10
214.4416291785
 20
50.0788526768
 30
0.0
 11
215.1857158101
 21
50.508404746
 31
0.0
  0
SPLINE
  5
22C
330
1F
100
AcDbEntity
  8
0
  6
Continuous
 62
     7
370
    15
100
AcDbSpline
210
0.0
220
0.0
230
1.0
 70
     8
 71
     3
 72
     8
 73
     4
 74
     0
 42
0.000000001
 43
0.00000001
 40
0.0
 40
0.0
 40
0.0
 40
0.0
 40
0.000159097691435
 40
0.000159097691435
 40
0.000159097691435
 40
0.000159097691435
 10
215.2631732619729
 20
50.49794385292883
 30
0.0
 10
215.2373531330418
 20
50.50142840230601
 30
0.0
 10
215.2115339891239
 20
50.5049153849587
 30
0.0
 10
215.1857158101021
 20
50.50840474599314
 30
0.0
  0
SPLINE
  5
22D
330
1F
100
AcDbEntity
  8
0
  6
Continuous
 62
     7
370
    15
100
AcDbSpline
210
0.0
220
0.0
230
1.0
 70
     8
 71
     3
 72
    10
 73
     6
 74
     0
 42
0.000000001
 43
0.00000001
 40
0.0
 40
0.0
 40
0.0
 40
0.0
 40
0.5
 40
0.5
 40
1.0
 40
1.0
 40
1.0
 40
1.0
 10
213.4778547670454
 20
48.12301699256079
 30
0.0
 10
213.4579287165487
 20
48.16153855407747
 30
0.0
 10
213.4446344524077
 20
48.19350188127128
 30
0.0
 10
213.427365926267
 20
48.25594530476971
 30
0.0
 10
213.423442471645
 20
48.28636868198276
 30
0.0
 10
213.4233958298273
 20
48.31825937728333
 30
0.0
  0
LINE
  5
22E
330
1F
100
AcDbEntity
  8
0
  6
Continuous
 62
     7
370
    15
100
AcDbLine
 10
213.4337623957
 20
48.9201295538
 30
0.0
 11
213.4250829433
 21
48.7800236246
 31
0.0
  0
ARC
  5
22F
330
1F
100
AcDbEntity
  8
0
  6
Continuous
 62
     7
370
    15
100
AcDbCircle
 10
214.7704879944
 20
48.7078244119
 30
0.0
 40
1.353480254557658
100
AcDbArc
 50
122.9135798094
 51
170.9753897871
  0
LINE
  5
230
330
1F
100
AcDbEntity
  8
0
  6
Continuous
 62
     7
370
    15
100
AcDbLine
 10
214.4416291785
 20
50.0788526768
 30
0.0
 11
214.0350427793
 21
49.8440590422
 31
0.0
  0
LINE
  5
231
330
1F
100
AcDbEntity
  8
0
  6
Continuous
 62
     7
370
    15
100
AcDbLine
 10
213.5331673622
 20
48.027027335
 30
0.0
 11
213.477854767
 21
48.1230169926
 31
0.0
  0
LWPOLYLINE
  5
232
330
1F
100
AcDbEntity
  8
0
  6
Continuous
 62
     7
370
     0
100
AcDbPolyline
 90
       26
 70
   128
 43
0.0
 10
230.3973956201
 20
42.379039709
 10
230.6807659249
 20
43.4825921291
 10
231.0274235694
 20
44.5939580919
 10
231.4352108484
 20
45.7062201098
 10
231.901589567
 20
46.812455118
 10
232.4236568389
 20
47.9057775654
 10
232.998163155
 20
48.9793822729
 10
233.6215326092
 20
50.0265867908
 10
234.289885156
 20
51.0408729923
 10
234.9990607613
 20
52.0159276444
 10
235.7446452952
 20
52.9456817036
 10
236.5219980078
 20
53.8243480912
 10
237.3262804138
 20
54.6464577143
 10
238.1524864092
 20
55.4068935067
 10
238.9954734309
 20
56.1009222795
 10
239.8499944652
 20
56.7242241815
 10
240.7107307074
 20
57.2729195877
 10
241.5723246673
 20
57.7435932473
 10
242.4294135158
 20
58.1333155409
 10
243.2766624654
 20
58.4396607157
 10
244.1087979749
 20
58.6607219839
 10
244.920640574
 20
58.7951233915
 10
245.7071371016
 20
58.8420283823
 10
246.4633921587
 20
58.801145005
 10
247.1846985784
 20
58.6727277304
 10
247.8665667252
 20
58.4575758677
  0
LWPOLYLINE
  5
233
330
1F
100
AcDbEntity
  8
0
  6
Continuous
 62
     7
370
     0
100
AcDbPolyline
 90
       26
 70
   128
 43
0.0
 10
229.9637127845
 20
42.3736023707
 10
230.2461572644
 20
43.4919576295
 10
230.5926158473
 20
44.6187437136
 10
231.0009540081
 20
45.7470185137
 10
231.4686559823
 20
46.8698307483
 10
231.9928402665
 20
47.9802627911
 10
232.5702773703
 20
49.0714732895
 10
233.1974097138
 20
50.1367393148
 10
233.8703735457
 20
51.1694977817
 10
234.5850227475
 20
52.1633858833
 10
235.3369543781
 20
53.1122802923
 10
236.1215357998
 20
54.0103348869
 10
236.9339332201
 20
54.8520167686
 10
237.7691414728
 20
55.6321403498
 10
238.6220148545
 20
56.3458993029
 10
239.4872988271
 20
56.9888961715
 10
240.3596623913
 20
57.5571694631
 10
241.2337309303
 20
58.0472180558
 10
242.1041193232
 20
58.4560227689
 10
242.9654651224
 20
58.7810649637
 10
243.8124615913
 20
59.020342061
 10
244.6398903997
 20
59.1723798786
 10
245.442653773
 20
59.2362417142
 10
246.2158059003
 20
59.2115341163
 10
246.9545834046
 20
59.0984093079
 10
247.6544346908
 20
58.8975642489
  0
ARC
  5
234
330
1F
100
AcDbEntity
  8
0
  6
Continuous
 62
     7
370
     0
100
AcDbCircle
 10
228.3156819554
 20
52.4203898176
 30
0.0
 40
23.59055417669738
100
AcDbArc
 50
336.6335055231
 51
348.1187530242
  0
LWPOLYLINE
  5
235
330
1F
100
AcDbEntity
  8
0
  6
Continuous
 62
     7
370
     0
100
AcDbPolyline
 90
       25
 70
   128
 43
0.0
 10
246.8602353362
 20
37.674665634
 10
246.3320612161
 20
36.9922245269
 10
245.576086634
 20
36.0938938363
 10
244.791136825
 20
35.2485424542
 10
243.9820227538
 20
34.4613515471
 10
243.1537034881
 20
33.7371458155
 10
242.3112558043
 20
33.0803639229
 10
241.4598430722
 20
32.4950312919
 10
240.6046836084
 20
31.9847354315
 10
239.7510186931
 20
31.5526039498
 10
238.9040804467
 20
31.2012853847
 10
238.0690597615
 20
30.932932971
 10
237.2510744871
 20
30.7491914431
 10
236.4551380629
 20
30.6511869545
 10
235.6861287906
 20
30.6395201757
 10
234.9487599353
 20
30.7142626124
 10
234.2475508374
 20
30.8749561677
 10
233.5867992143
 20
31.1206159491
 10
232.9705548186
 20
31.4497363056
 10
232.4025946181
 20
31.8603000554
 10
231.8863996461
 20
32.3497908495
 10
231.4251336664
 20
32.9152085943
 10
231.0216237825
 20
33.5530878392
 10
230.6783431102
 20
34.2595190162
 10
230.3973956201
 20
35.0301724021
  0
ARC
  5
236
330
1F
100
AcDbEntity
  8
0
  6
Continuous
 62
     7
370
     0
100
AcDbCircle
 10
244.8743902374
 20
52.5749955853
 30
0.0
 40
6.701300064527477
100
AcDbArc
 50
13.1170908933
 51
49.5620782406
  0
LWPOLYLINE
  5
237
330
1F
100
AcDbEntity
  8
0
  6
Continuous
 62
     7
370
     0
100
AcDbPolyline
 90
       27
 70
   128
 43
0.0
 10
236.2523378442
 20
42.0845922565
 10
236.2858492739
 20
42.743688265
 10
236.3858948909
 20
43.4318646427
 10
236.5510158047
 20
44.1390862284
 10
236.7788041807
 20
44.8550401387
 10
237.0659383514
 20
45.5692861536
 10
237.4082312541
 20
46.2714089578
 10
237.8006914873
 20
46.9511700198
 10
238.2375960972
 20
47.5986568925
 10
238.7125740308
 20
48.2044277594
 10
239.2186990402
 20
48.7596491171
 10
239.748590683
 20
49.256224588
 10
240.294521946
 20
49.6869129836
 10
240.8485319219
 20
50.0454338972
 10
241.4025418978
 20
50.3265592866
 10
241.9484731608
 20
50.5261897105
 10
242.4783648037
 20
50.6414141079
 10
242.984489813
 20
50.6705522475
 10
243.4594677466
 20
50.6131792297
 10
243.8963723565
 20
50.4701316823
 10
244.2888325898
 20
50.2434955607
 10
244.6311254924
 20
49.9365757297
 10
244.9182596631
 20
49.5538477718
 10
245.1460480391
 20
49.1008927223
 10
245.311168953
 20
48.5843156858
 10
245.4112145699
 20
48.0116495187
 10
245.4251534699
 20
47.8692375429
  0
LWPOLYLINE
  5
238
330
1F
100
AcDbEntity
  8
0
  6
Continuous
 62
     7
370
     0
100
AcDbPolyline
 90
       14
 70
   128
 43
0.0
 10
240.4255598067
 20
39.2087489191
 10
240.294521946
 20
39.1492779533
 10
239.748590683
 20
38.9496475294
 10
239.2186990402
 20
38.834423132
 10
238.7125740308
 20
38.8052849924
 10
238.2375960972
 20
38.8626580101
 10
237.8006914873
 20
39.0057055575
 10
237.4082312541
 20
39.2323416792
 10
237.0659383514
 20
39.5392615101
 10
236.7788041807
 20
39.9219894681
 10
236.5510158047
 20
40.3749445176
 10
236.3858948909
 20
40.8915215541
 10
236.2858492739
 20
41.4641877212
 10
236.2523378442
 20
42.0845922565
  0
LWPOLYLINE
  5
239
330
1F
100
AcDbEntity
  8
0
  6
Continuous
 62
     7
370
     0
100
AcDbPolyline
 90
       24
 70
   128
 43
0.0
 10
220.6429556495
 20
43.5439217564
 10
220.6764450586
 20
44.5598474352
 10
220.7767118768
 20
45.6083292662
 10
220.9431530876
 20
46.6830615563
 10
221.174767694
 20
47.7775807391
 10
221.4701627384
 20
48.8853042473
 10
221.8275616804
 20
49.9995701015
 10
222.2448150806
 20
51.1136769758
 10
222.7194135279
 20
52.2209245002
 10
223.2485027316
 20
53.3146535579
 10
223.8289006868
 20
54.3882863337
 10
224.457116812
 20
55.4353658736
 10
225.1293729414
 20
56.4495949183
 10
225.8416260477
 20
57.4248737747
 10
226.5895925567
 20
58.3553370012
 10
227.36877411
 20
59.2353886824
 10
228.174484618
 20
60.0597360839
 10
229.0018784428
 20
60.8234214835
 10
229.8459795407
 20
61.5218519874
 10
230.7017113883
 20
62.1508271522
 10
231.5639275137
 20
62.7065642474
 10
232.4274424475
 20
63.1857210047
 10
233.2870629094
 20
63.5854157189
 10
233.9586126042
 20
63.84290924
  0
ARC
  5
23A
330
1F
100
AcDbEntity
  8
0
  6
Continuous
 62
     7
370
     0
100
AcDbCircle
 10
233.2344451816
 20
43.4713667118
 30
0.0
 40
12.5916985697559
100
AcDbArc
 50
179.6698522588
 51
190.6229483052
  0
LWPOLYLINE
  5
23B
330
1F
100
AcDbEntity
  8
0
  6
Continuous
 62
     7
370
     0
100
AcDbPolyline
 90
       19
 70
   128
 43
0.0
 10
228.3115286915
 20
44.3058217997
 10
228.5675373415
 20
45.3389527815
 10
228.8864009271
 20
46.3807258502
 10
229.2659116282
 20
47.4239277412
 10
229.7034417025
 20
48.4613352969
 10
230.1959616803
 20
49.4857654796
 10
230.74006134
 20
50.4901251074
 10
231.331973321
 20
51.4674599674
 10
231.967599209
 20
52.411002967
 10
232.6425379133
 20
53.3142209891
 10
233.3521161404
 20
54.1708601282
 10
234.0914207517
 20
54.974988992
 10
234.8553327823
 20
55.7210397707
 10
235.6385628849
 20
56.4038467889
 10
236.4356879534
 20
57.0186822724
 10
237.2411886725
 20
57.5612890841
 10
238.0494877338
 20
58.0279101999
 10
238.8549884529
 20
58.4153147226
 10
239.4575918454
 20
58.6535625592
  0
LWPOLYLINE
  5
23C
330
1F
100
AcDbEntity
  8
0
  6
Continuous
 62
     7
370
     0
100
AcDbPolyline
 90
       23
 70
   128
 43
0.0
 10
227.8857105335
 20
44.9539667632
 10
228.1742576989
 20
45.9939893916
 10
228.5230623167
 20
47.0389724102
 10
228.9298368886
 20
48.0820627078
 10
229.3919137432
 20
49.1164195859
 10
229.9062625307
 20
50.1352596209
 10
230.4695100964
 20
51.1319011502
 10
231.0779626022
 20
52.0998080913
 10
231.7276297511
 20
53.0326328064
 10
232.4142509559
 20
53.9242577306
 10
233.133323281
 20
54.7688354916
 10
233.8801309725
 20
55.5608272576
 10
234.6497763854
 20
56.2950390613
 10
235.4372121021
 20
56.9666558629
 10
236.2372740345
 20
57.5712731268
 10
237.0447152903
 20
58.1049257082
 10
237.8542405829
 20
58.5641138559
 10
238.6605409582
 20
58.9458261646
 10
239.4583286116
 20
59.2475593239
 10
240.2423715659
 20
59.4673345353
 10
241.0075279829
 20
59.6037104894
 10
241.7487798845
 20
59.6557928178
 10
241.7769880013
 20
59.6561083304
  0
ARC
  5
23D
330
1F
100
AcDbEntity
  8
0
  6
Continuous
 62
     7
370
     0
100
AcDbCircle
 10
240.8712457705
 20
41.8356848037
 30
0.0
 40
2.509959890790652
100
AcDbArc
 50
174.3087434829
 51
234.3790761237
  0
LWPOLYLINE
  5
23E
330
1F
100
AcDbEntity
  8
0
  6
Continuous
 62
     7
370
     0
100
AcDbPolyline
 90
       19
 70
   128
 43
0.0
 10
244.4089889253
 20
48.455856848
 10
244.3223818741
 20
48.5025043014
 10
243.9480649254
 20
48.638075067
 10
243.5357676335
 20
48.6895871935
 10
243.0931703169
 20
48.6560811075
 10
242.6285177262
 20
48.538180964
 10
242.15046546
 20
48.3380830196
 10
241.6679187274
 20
48.0595147204
 10
241.1898664612
 20
47.7076652667
 10
240.7252138705
 20
47.2890889482
 10
240.2826165539
 20
46.8115830496
 10
239.870319262
 20
46.2840426024
 10
239.4960023132
 20
45.716294687
 10
239.1666385242
 20
45.1189153728
 10
238.888363319
 20
44.5030327062
 10
238.6663604383
 20
43.8801194159
 10
238.5047653757
 20
43.2617791979
 10
238.4065883413
 20
42.6595305606
 10
238.3736581878
 20
42.0845922565
  0
LWPOLYLINE
  5
23F
330
1F
100
AcDbEntity
  8
0
  6
Continuous
 62
     7
370
     0
100
AcDbPolyline
 90
       38
 70
   128
 43
0.0
 10
244.2249668021
 20
40.1354178895
 10
244.2580228359
 20
40.6029879495
 10
244.3562399755
 20
41.0952725545
 10
244.5167926926
 20
41.5981095727
 10
244.7350621778
 20
42.0970332985
 10
245.0047692155
 20
42.5776906048
 10
245.3181548251
 20
43.026253856
 10
245.6662034734
 20
43.4298187041
 10
246.0389024344
 20
43.7767753231
 10
246.4255298375
 20
44.0571424029
 10
246.8149631164
 20
44.262854293
 10
247.1959989845
 20
44.3879930368
 10
247.5576757338
 20
44.4289586206
 10
247.8895885826
 20
44.384572539
 10
248.1821890026
 20
44.2561116989
 10
248.4270594125
 20
44.0472716847
 10
248.6171553364
 20
43.7640604435
 10
248.7470080607
 20
43.4146254468
 10
248.8128819589
 20
43.0090193035
 10
248.8128819589
 20
42.5589105638
 10
248.7470080607
 20
42.0772480365
 10
248.6171553364
 20
41.5778882757
 10
248.4270594125
 20
41.0751969524
 10
248.1821890026
 20
40.5836355809
 10
247.8895885826
 20
40.1173454867
 10
247.5576757338
 20
39.689740987
 10
247.1959989845
 20
39.3131234846
 10
246.8149631164
 20
38.9983275793
 10
246.4255298375
 20
38.7544093763
 10
246.0389024344
 20
38.5883859581
 10
245.6662034734
 20
38.5050335161
 10
245.3181548251
 20
38.5067499485
 10
245.0047692155
 20
38.5934858765
 10
244.7350621778
 20
38.7627460654
 10
244.5167926926
 20
39.0096612077
 10
244.3562399755
 20
39.3271280045
 10
244.2580228359
 20
39.7060135138
 10
244.2249668021
 20
40.1354178895
  0
LWPOLYLINE
  5
240
330
1F
100
AcDbEntity
  8
0
  6
Continuous
 62
     7
370
     0
100
AcDbPolyline
 90
       19
 70
   128
 43
0.0
 10
247.5443987077
 20
44.0478174708
 10
247.6065455463
 20
44.0085407685
 10
247.8227947813
 20
43.8027005287
 10
247.9827434012
 20
43.5241037502
 10
248.0809445477
 20
43.1822377124
 10
248.1140540986
 20
42.788744253
 10
248.0809445477
 20
42.3570233198
 10
247.9827434012
 20
41.9017766516
 10
247.8227947813
 20
41.4385071274
 10
247.6065455463
 20
40.9829908354
 10
247.3413598047
 20
40.5507398366
 10
247.0362681389
 20
40.1564739202
 10
246.7016600794
 20
39.8136193393
 10
246.3489303027
 20
39.5338515952
 10
245.990090598
 20
39.3266978431
 10
245.6373608212
 20
39.1992124555
 10
245.3027527618
 20
39.1557367944
 10
244.9976610959
 20
39.1977513712
 10
244.7909567671
 20
39.2866760438
  0
LINE
  5
241
330
1F
100
AcDbEntity
  8
0
  6
Continuous
 62
     7
370
     0
100
AcDbLine
 10
222.292592289
 20
43.0063582637
 30
0.0
 11
224.0901012078
 21
44.0440380749
 31
0.0
  0
ARC
  5
242
330
1F
100
AcDbEntity
  8
0
  6
Continuous
 62
     7
370
     0
100
AcDbCircle
 10
236.9786362723
 20
37.039978863
 30
0.0
 40
7.298654609582147
100
AcDbArc
 50
196.0282740928
 51
217.1863811773
  0
LWPOLYLINE
  5
243
330
1F
100
AcDbEntity
  8
0
  6
Continuous
 62
     7
370
     0
100
AcDbPolyline
 90
       22
 70
   128
 43
0.0
 10
213.4233958298
 20
55.7917304291
 10
213.7541578876
 20
56.7540537808
 10
214.1452621644
 20
57.7125952212
 10
214.5933584413
 20
58.6591438359
 10
215.0946083028
 20
59.5855914415
 10
215.6447180173
 20
60.4840020409
 10
216.2389753171
 20
61.3466798035
 10
216.872289764
 20
62.1662349877
 10
217.5392363545
 20
62.9356472425
 10
218.2341019903
 20
63.6483257436
 10
218.9509344172
 20
64.2981656507
 10
219.6835932123
 20
64.8796004023
 10
220.4258023833
 20
65.387649399
 10
221.1712041288
 20
65.8179606673
 10
221.9134132998
 20
66.166848139
 10
222.6460720949
 20
66.4313232265
 10
223.3629045218
 20
66.6091204227
 10
224.0577701576
 20
66.6987167079
 10
224.7247167481
 20
66.6993445957
 10
225.358031195
 20
66.6109987076
 10
225.9522884948
 20
66.434435819
 10
226.287571226
 20
66.2869470202
  0
ARC
  5
244
330
1F
100
AcDbEntity
  8
0
  6
Continuous
 62
     7
370
     0
100
AcDbCircle
 10
217.3357996099
 20
50.1335210584
 30
0.0
 40
4.313012672078281
100
AcDbArc
 50
204.8901713315
 51
234.8684218607
  0
LINE
  5
245
330
1F
100
AcDbEntity
  8
0
  6
Continuous
 62
     7
370
     0
100
AcDbLine
 10
222.292592289
 20
42.1898174519
 30
0.0
 11
224.0901012078
 21
43.227497263
 31
0.0
  0
LINE
  5
246
330
1F
100
AcDbEntity
  8
0
  6
Continuous
 62
     7
370
     0
100
AcDbLine
 10
225.5796507411
 20
37.5556002103
 30
0.0
 11
226.9185283325
 21
38.3285177918
 31
0.0
  0
LINE
  5
247
330
1F
100
AcDbEntity
  8
0
  6
Continuous
 62
     7
370
     0
100
AcDbLine
 10
229.3176372919
 20
36.9881375497
 30
0.0
 11
229.0964172186
 21
37.6386506086
 31
0.0
  0
ARC
  5
248
330
1F
100
AcDbEntity
  8
0
  6
Continuous
 62
     7
370
     0
100
AcDbCircle
 10
234.9197102725
 20
39.9623223101
 30
0.0
 40
6.86782920383256
100
AcDbArc
 50
195.8051238746
 51
209.3718713215
  0
ARC
  5
249
330
1F
100
AcDbEntity
  8
0
  6
Continuous
 62
     7
370
     0
100
AcDbCircle
 10
234.0934149482
 20
39.7155303261
 30
0.0
 40
6.556638815572956
100
AcDbArc
 50
198.7764725905
 51
214.0375669963
  0
LINE
  5
24A
330
1F
100
AcDbEntity
  8
0
  6
Continuous
 62
     7
370
     0
100
AcDbLine
 10
244.6330770192
 20
60.6414511199
 30
0.0
 11
244.0920880413
 21
60.3291448305
 31
0.0
  0
ARC
  5
24B
330
1F
100
AcDbEntity
  8
0
  6
Continuous
 62
     7
370
     0
100
AcDbCircle
 10
217.1858335589
 20
54.2956398178
 30
0.0
 40
1.102095792745763
100
AcDbArc
 50
159.4111972489
 51
213.1915491986
  0
ARC
  5
24C
330
1F
100
AcDbEntity
  8
0
  6
Continuous
 62
     7
370
     0
100
AcDbCircle
 10
215.85402275
 20
54.124154995
 30
0.0
 40
0.6345057597339986
100
AcDbArc
 50
41.9989524423
 51
61.7721687694
  0
LINE
  5
24D
330
1F
100
AcDbEntity
  8
0
  6
Continuous
 62
     7
370
     0
100
AcDbLine
 10
216.1541305224
 20
54.683201401
 30
0.0
 11
216.263677374
 21
55.0939991618
 31
0.0
  0
LINE
  5
24E
330
1F
100
AcDbEntity
  8
0
  6
Continuous
 62
     7
370
     0
100
AcDbLine
 10
216.1541305224
 20
54.683201401
 30
0.0
 11
215.3520857841
 21
55.146211973
 31
0.0
  0
LINE
  5
24F
330
1F
100
AcDbEntity
  8
0
  6
Continuous
 62
     7
370
     0
100
AcDbLine
 10
213.477854767
 20
56.3076726083
 30
0.0
 11
213.4616183641
 21
56.502810959
 31
0.0
  0
ARC
  5
250
330
1F
100
AcDbEntity
  8
0
  6
Continuous
 62
     7
370
     0
100
AcDbCircle
 10
215.9441705409
 20
46.0305820887
 30
0.0
 40
0.4314912001450859
100
AcDbArc
 50
27.8850837497
 51
60.8831993912
  0
ARC
  5
251
330
1F
100
AcDbEntity
  8
0
  6
Continuous
 62
     7
370
     0
100
AcDbCircle
 10
217.3938692177
 20
46.8026402844
 30
0.0
 40
1.301173266866423
100
AcDbArc
 50
165.9701785416
 51
197.6766607319
  0
LINE
  5
252
330
1F
100
AcDbEntity
  8
0
  6
Continuous
 62
     7
370
     0
100
AcDbLine
 10
215.7623593566
 20
49.316411374
 30
0.0
 11
214.4416291785
 21
50.0788526768
 31
0.0
  0
LINE
  5
253
330
1F
100
AcDbEntity
  8
0
  6
Continuous
 62
     7
370
     0
100
AcDbLine
 10
216.1541305224
 20
46.4075455644
 30
0.0
 11
215.3520857841
 21
46.8705561363
 31
0.0
  0
LINE
  5
254
330
1F
100
AcDbEntity
  8
0
  6
Continuous
 62
     7
370
     0
100
AcDbLine
 10
216.1541305224
 20
46.4075455644
 30
0.0
 11
216.263677374
 21
46.1232279063
 31
0.0
  0
OLE2FRAME
  5
255
330
1F
100
AcDbEntity
  8
0
100
AcDbOle2Frame
 70
     2
  3
Paintbrush-Bild
 10
13.8511154363
 20
38.264191557
 30
0.0
 11
51.6290888628
 21
31.9806341108
 31
0.0
 71
     2
 72
     0
 73
     1
 90
    12928
310
80552BED0767C5B32B40DDAF6807D121434000000000000000006FFBDDFB85D0
310
4940DDAF6807D121434000000000000000006FFBDDFB85D04940416F4BD60AFB
310
3F4000000000000000002BED0767C5B32B40416F4BD60AFB3F40000000000000
310
0000000000000100000000010000010000000100000000000100000000320000
310
D0CF11E0A1B11AE1000000000000000000000000000000003E000300FEFF0900
310
0600000000000000000000000100000001000000000000000010000002000000
310
01000000FEFFFFFF0000000000000000FFFFFFFFFFFFFFFFFFFFFFFFFFFFFFFF
310
FFFFFFFFFFFFFFFFFFFFFFFFFFFFFFFFFFFFFFFFFFFFFFFFFFFFFFFFFFFFFFFF
310
FFFFFFFFFFFFFFFFFFFFFFFFFFFFFFFFFFFFFFFFFFFFFFFFFFFFFFFFFFFFFFFF
310
FFFFFFFFFFFFFFFFFFFFFFFFFFFFFFFFFFFFFFFFFFFFFFFFFFFFFFFFFFFFFFFF
310
FFFFFFFFFFFFFFFFFFFFFFFFFFFFFFFFFFFFFFFFFFFFFFFFFFFFFFFFFFFFFFFF
310
FFFFFFFFFFFFFFFFFFFFFFFFFFFFFFFFFFFFFFFFFFFFFFFFFFFFFFFFFFFFFFFF
310
FFFFFFFFFFFFFFFFFFFFFFFFFFFFFFFFFFFFFFFFFFFFFFFFFFFFFFFFFFFFFFFF
310
FFFFFFFFFFFFFFFFFFFFFFFFFFFFFFFFFFFFFFFFFFFFFFFFFFFFFFFFFFFFFFFF
310
FFFFFFFFFFFFFFFFFFFFFFFFFFFFFFFFFFFFFFFFFFFFFFFFFFFFFFFFFFFFFFFF
310
FFFFFFFFFFFFFFFFFFFFFFFFFFFFFFFFFFFFFFFFFFFFFFFFFFFFFFFFFFFFFFFF
310
FFFFFFFFFFFFFFFFFFFFFFFFFFFFFFFFFFFFFFFFFFFFFFFFFFFFFFFFFFFFFFFF
310
FFFFFFFFFFFFFFFFFFFFFFFFFFFFFFFFFFFFFFFFFFFFFFFFFFFFFFFFFFFFFFFF
310
FFFFFFFFFFFFFFFFFFFFFFFFFFFFFFFFFFFFFFFFFFFFFFFFFFFFFFFFFFFFFFFF
310
FFFFFFFFFFFFFFFFFFFFFFFFFFFFFFFFFFFFFFFFFFFFFFFFFFFFFFFFFFFFFFFF
310
FDFFFFFFFEFFFFFFFEFFFFFFFEFFFFFF05000000060000000700000008000000
310
090000000A0000000B0000000C0000000D0000000E0000000F00000010000000
310
11000000120000001300000014000000150000001600000017000000FEFFFFFF
310
FFFFFFFFFFFFFFFFFFFFFFFFFFFFFFFFFFFFFFFFFFFFFFFFFFFFFFFFFFFFFFFF
310
FFFFFFFFFFFFFFFFFFFFFFFFFFFFFFFFFFFFFFFFFFFFFFFFFFFFFFFFFFFFFFFF
310
FFFFFFFFFFFFFFFFFFFFFFFFFFFFFFFFFFFFFFFFFFFFFFFFFFFFFFFFFFFFFFFF
310
FFFFFFFFFFFFFFFFFFFFFFFFFFFFFFFFFFFFFFFFFFFFFFFFFFFFFFFFFFFFFFFF
310
FFFFFFFFFFFFFFFFFFFFFFFFFFFFFFFFFFFFFFFFFFFFFFFFFFFFFFFFFFFFFFFF
310
FFFFFFFFFFFFFFFFFFFFFFFFFFFFFFFFFFFFFFFFFFFFFFFFFFFFFFFFFFFFFFFF
310
FFFFFFFFFFFFFFFFFFFFFFFFFFFFFFFFFFFFFFFFFFFFFFFFFFFFFFFFFFFFFFFF
310
FFFFFFFFFFFFFFFFFFFFFFFFFFFFFFFFFFFFFFFFFFFFFFFFFFFFFFFFFFFFFFFF
310
FFFFFFFFFFFFFFFFFFFFFFFFFFFFFFFFFFFFFFFFFFFFFFFFFFFFFFFFFFFFFFFF
310
FFFFFFFFFFFFFFFFFFFFFFFFFFFFFFFFFFFFFFFFFFFFFFFFFFFFFFFFFFFFFFFF
310
FFFFFFFFFFFFFFFFFFFFFFFFFFFFFFFFFFFFFFFFFFFFFFFFFFFFFFFFFFFFFFFF
310
FFFFFFFFFFFFFFFFFFFFFFFFFFFFFFFFFFFFFFFFFFFFFFFFFFFFFFFFFFFFFFFF
310
FFFFFFFFFFFFFFFFFFFFFFFFFFFFFFFFFFFFFFFFFFFFFFFFFFFFFFFFFFFFFFFF
310
52006F006F007400200045006E00740072007900000000000000000000000000
310
0000000000000000000000000000000000000000000000000000000000000000
310
16000500FFFFFFFFFFFFFFFF020000000A00030000000000C000000000000046
310
000000000000000000000000B0D95FA82425D20103000000C000000000000000
310
01004F006C006500000000000000000000000000000000000000000000000000
310
0000000000000000000000000000000000000000000000000000000000000000
310
0A000200FFFFFFFFFFFFFFFFFFFFFFFF00000000000000000000000000000000
310
0000000000000000000000000000000000000000000000001400000000000000
310
010043006F006D0070004F0062006A0000000000000000000000000000000000
310
0000000000000000000000000000000000000000000000000000000000000000
310
120002010100000003000000FFFFFFFF00000000000000000000000000000000
310
0000000000000000000000000000000000000000010000004D00000000000000
310
01004F006C006500310030004E00610074006900760065000000000000000000
310
0000000000000000000000000000000000000000000000000000000000000000
310
1A000200FFFFFFFFFFFFFFFFFFFFFFFF00000000000000000000000000000000
310
0000000000000000000000000000000000000000040000002426000000000000
310
FEFFFFFF02000000FEFFFFFFFFFFFFFFFFFFFFFFFFFFFFFFFFFFFFFFFFFFFFFF
310
FFFFFFFFFFFFFFFFFFFFFFFFFFFFFFFFFFFFFFFFFFFFFFFFFFFFFFFFFFFFFFFF
310
FFFFFFFFFFFFFFFFFFFFFFFFFFFFFFFFFFFFFFFFFFFFFFFFFFFFFFFFFFFFFFFF
310
FFFFFFFFFFFFFFFFFFFFFFFFFFFFFFFFFFFFFFFFFFFFFFFFFFFFFFFFFFFFFFFF
310
FFFFFFFFFFFFFFFFFFFFFFFFFFFFFFFFFFFFFFFFFFFFFFFFFFFFFFFFFFFFFFFF
310
FFFFFFFFFFFFFFFFFFFFFFFFFFFFFFFFFFFFFFFFFFFFFFFFFFFFFFFFFFFFFFFF
310
FFFFFFFFFFFFFFFFFFFFFFFFFFFFFFFFFFFFFFFFFFFFFFFFFFFFFFFFFFFFFFFF
310
FFFFFFFFFFFFFFFFFFFFFFFFFFFFFFFFFFFFFFFFFFFFFFFFFFFFFFFFFFFFFFFF
310
FFFFFFFFFFFFFFFFFFFFFFFFFFFFFFFFFFFFFFFFFFFFFFFFFFFFFFFFFFFFFFFF
310
FFFFFFFFFFFFFFFFFFFFFFFFFFFFFFFFFFFFFFFFFFFFFFFFFFFFFFFFFFFFFFFF
310
FFFFFFFFFFFFFFFFFFFFFFFFFFFFFFFFFFFFFFFFFFFFFFFFFFFFFFFFFFFFFFFF
310
FFFFFFFFFFFFFFFFFFFFFFFFFFFFFFFFFFFFFFFFFFFFFFFFFFFFFFFFFFFFFFFF
310
FFFFFFFFFFFFFFFFFFFFFFFFFFFFFFFFFFFFFFFFFFFFFFFFFFFFFFFFFFFFFFFF
310
FFFFFFFFFFFFFFFFFFFFFFFFFFFFFFFFFFFFFFFFFFFFFFFFFFFFFFFFFFFFFFFF
310
FFFFFFFFFFFFFFFFFFFFFFFFFFFFFFFFFFFFFFFFFFFFFFFFFFFFFFFFFFFFFFFF
310
FFFFFFFFFFFFFFFFFFFFFFFFFFFFFFFFFFFFFFFFFFFFFFFFFFFFFFFFFFFFFFFF
310
0100000200000000000000000000000000000000000000000000000000000000
310
0000000000000000000000000000000000000000000000000000000000000000
310
0100FEFF030A0000FFFFFFFF0A00030000000000C00000000000004607000000
310
5042727573680007000000504272757368000700000050427275736800F439B2
310
7100000000000000000000000000000000000000000000000000000000000000
310
0000000000000000000000000000000000000000000000000000000000000000
310
0000000000000000000000000000000000000000000000000000000000000000
310
0000000000000000000000000000000000000000000000000000000000000000
310
0000000000000000000000000000000000000000000000000000000000000000
310
0000000000000000000000000000000000000000000000000000000000000000
310
0000000000000000000000000000000000000000000000000000000000000000
310
0000000000000000000000000000000000000000000000000000000000000000
310
0000000000000000000000000000000000000000000000000000000000000000
310
0000000000000000000000000000000000000000000000000000000000000000
310
0000000000000000000000000000000000000000000000000000000000000000
310
0000000000000000000000000000000000000000000000000000000000000000
310
20260000424D0E260000000000003E00000028000000B40200006E0000000100
310
01000000000000000000130B0000130B00000200000002000000000000FFFFFF
310
FFFFFFFFFFFFFFFFFFFFFFFFFFFFFFFFFFFFFFFFFFFFFFFFFFFFFFFFFFFFFFFF
310
FFFFFFFFFFFFFFFFFFFFFFFFFFFFFFFFFFFFFFFFFFFFFFFFFFFFFFFFFFFFFFFF
310
FFFFFFFFFFFFFFFFFFFFFFFFFFFFFFFFFFFFFFFFFFFFFFFFF000FFFFFFFFFFFF
310
FFFFFFFFFFFFFFFFFFFFFFFFFFFFFFFFFFFFFFFFFFFFFFFFFFFFFFFFFFFFFFFF
310
FFFFFFFFFFFFFFFFFFFFFFFFFFFFFFFFFFFFFFFFFFFFFFFFFFFFFFFFFFFFFFFF
310
FFFFFFFFFFFFFFFFFFFFFFFFFFFFFFFFF000FFFFFFFFFFFFFFFFFFFFFFFFFFFF
310
FFFFFFFFFFFFFFFFFFFFFFFFFFFFFFFFFFFFFFFFFFFFFFFFFFFFFFFFFFFFFFFF
310
FFFFFFFFFFFFFFFFFFFFFFFFFFFFFFFFFFFFFFFFFFFFFFFFFFFFFFFFFFFFFFFF
310
FFFFFFFFFFFFFFFFF000FFFFFFFFFFFFFFFFFFFFFFFFFFFFFFFFFFFFFFFFFFFF
310
FFFFFFFFFFFFFFFFFFFFFFFFFFFFFFFFFFFFFFFFFFFFFFFFFFFFFFFFFFFFFFFF
310
FFFFFFFFFFFFFFFFFFFFFFFFFFFFFFFFFFFFFFFFFFFFFFFFFFFFFFFFFFFFFFFF
310
F000FFFFFFFFFFFFFFFFFFFFFFFFFFFFFFFFFFFFFFFFFFFFFFFFFFFFFFFFFFFF
310
FFFFFFFFFFFFFFFFFFFFFFFFFFFFFFFFFFFFFFFFFFFFFFFFFFFFFFFFFFFFFFFF
310
FFFFFFFFFFFFFFFFFFFFFFFFFFFFFFFFFFFFFFFFFFFFFFFFF000FFFFFFFFFFFF
310
FFFFFFFFFFFFFFFFFFFFFFFFFFFFFFFFFFFFFFFFFFFFFFFFFFFFFFFFFFFFFFFF
310
FFFFFFFFFFFFFFFFFFFFFFFFFFFFFFFFFFFFFFFFFFFFFFFFFFFFFFFFFFFFFFFF
310
FFFFFFFFFFFFFFFFFFFFFFFFFFFFFFFFF000FFFFFFFFFFFFFFFFFFFFFFFFFFFF
310
FFFFFFFFFFFFFFFFFFFFFFFFFFFFFFFFFFFFFFFFFFFFFFFFFFFFFFFFFFFFFFFF
310
FFFFFFFFFFFFFFFFFFFFFFFFFFFFFFFFFFFFFFFFFFFFFFFFFFFFFFFFFFFFFFFF
310
FFFFFFFFFFFFFFFFF000FFFFFFFFFFFFFFFFFFFFFFFFFFFFFFFFFFFFFFFFFFFF
310
FFFFFFFFFFFFFFFFFFFFFFFFFFFFFFFFFFFFFFFFFFFFFFFFFFFFFFFFFFFFFFFF
310
FFFFFFFFFFFFFFFFFFFFFFFFFFFFFFFFFFFFFFFFFFFFFFFFFFFFFFFFFFFFFFFF
310
F000FFFFFFFFFFFFFFFFFFFFFFFFFFFFFFFFFFFFFFFFFFFFFFFFFFFFFFFFFFFF
310
FFFFFFFFFFFFFFFFFFFFFFFFFFFFFFFFFFFFFFFFFFFFFFFFFFFFFFFFFFFFFFFF
310
FFFFFFFFFFFFFFFFFFFFFFFFFFFFFFFFFFFFFFFFFFFFFFFFF000FFFFFFFFFFFF
310
FFFFFFFFFFFFFFFFFFFFFFFFFFFFFFFFFFFFFFFFFFFFFFFFFFFFFFFFFFFFFFFF
310
FFFFFFFFFFFFFFFFFFFFFFFFFFFFFFFFFFFFFFFFFFFFFFFFFFFFFFFFFFFFFFFF
310
FFFFFFFFFFFFFFFFFFFFFFFFFFFFFFFFF000FFFFFFFFFFFFFFFFFFFFFFFFFFFF
310
FFFFFFFFFFFFFFFFFFFFFFFFFFFFFFFFFFFFFFFFFFFFFFFFFFFFFFFFFFFFFFFF
310
FFFFFFFFFFFFFFFFFFFFFFFFFFFFFFFFFFFFFFFFFFFFFFFFFFFFFFFFFFFFFFFF
310
FFFFFFFFFFFFFFFFF000FFFFFFFFFFFFFFFFFFFFFFFFFFFFFFFFFFFFFFFFFFFF
310
FFFFFFFFFFFFFFFFFFFFFFFFFFFFFFFFFFFFFFFFFFFFFFFFFFFFFFFFFFFFFFFF
310
FFFFFFFFFFFFFFFFFFFFFFFFFFFFFFFFFFFFFFFFFFFFFFFFFFFFFFFFFFFFFFFF
310
F000FFFFFFFFFFFFFFFFFFFFFFFFFFFFFFFFFFFFFFFFFFFFFFFFFFFFFFFFFFFF
310
FFFFFFFFFFFFFFFFFFFFFFFFFFFFFFFFFFFFFFFFFFFFFFFFFFFFFFFFFFFFFFFF
310
FFFFFFFFFFFFFFFFFFFFFFFFFFFFFFFFFFFFFFFFFFFFFFFFF000FFFFFFFFFFFF
310
FFFFFFFFFFFFFFFFFFFFFFFFFFFFFFFFFFFFFFFFFFFFFFFFFFFFFFFFFFFFFFFF
310
FFFFFFFFFFFFFFFFFFFFFFFFFFFFFFFFFFFFFFFFFFFFFFFFFFFFFFFFFFFFFFFF
310
FFFFFFFFFFFFFFFFFFFFFFFFFFFFFFFFF000FFFFFFFFFFFFFFFFFFFFFFFFFFFF
310
FFFFFFFFFFFFFFFFFFFFFFFFFFFFFFFFFFFFFFFFFFFFFFFFFFFFFFFFFFFFFFFF
310
FFFFFFFFFFFFFFFFFFFFFFFFFFFFFFFFFFFFFFFFFFFFFFFFFFFFFFFFFFFFFFFF
310
FFFFFFFFFFFFFFFFF000FFFFFFFFFFFFFFFFFFFFFFFFFFFFFFFFFFFFFFFFFFFF
310
FFFFFFFFFFFFFFFFFFFFFFFFFFFFFFFFFFFFFFFFFFFFFFFFFFFFFFFFFFFFFFFF
310
FFFFFFFFFFFFFFFFFFFFFFFFFFFFFFFFFFFFFFFFFFFFFFFFFFFFFFFFFFFFFFFF
310
F000FFFFFFFFFFFFFFFFFFFFFFFFFFFFFFFFFFFFFFFFFFFFFFFFFFFFFFFFFFFF
310
FFFFFFFFFFFFFFFFFFFFFFFFFFFFFFFFFFFFFFFFFFFFFFFFFFFFFFFFFFFFFFFF
310
FFFFFFFFFFFFFFFFFFFFFFFFFFFFFFFFFFFFFFFFFFFFFFFFF000FFFFFFFFFFFF
310
FFFFFFFFFFFFFFFFFFFFFFFFFFFFFFFFFFFFFFFFFFFFFFFFFFFFFFFFFFFFFFFF
310
FFFFFFFFFFFFFFFFFFFFFFFFFFFFFFFFFFFFFFFFFFFFFFFFFFFFFFFFFFFFFFFF
310
FFFFFFFFFFFFFFFFFFFFFFFFFFFFFFFFF000FFFFFFFFFFFFFFFFFFFFFFFFFFFF
310
FFFFFFFFFFFFFFFFFFFFFFFFFFFFFFFFFFFFFFFFFFFFFFFFFFFFFFFFFFFFFFFF
310
FFFFFFFFFFFFFFFFFFFFFFFFFFFFFFFFFFFFFFFFFFFFFFFFFFFFFFFFFFFFFFFF
310
FFFFFFFFFFFFFFFFF000FFFFF80003FFFFFFFFFFFFFFFFFFFFFFFFFFFFFFFFFF
310
FFFFF00007FFFFFFFFFF00007FFFFFF800000000000000007FFFFFFFFFFFFFFF
310
FFFFFFFC001FFFFFFFFFFFFFFC001FFFFFFFFFFFFFFFFFFFFFFFFFFE0007FFFF
310
F000FFFF8000007FFFFFFFF8000FFFFFC0007FFFFF80007FFFFF0000007FFFFF
310
FFF8000007FFFFF800000000000000007FFFFFF0001FFFFFFFFFFFC00001FFFF
310
FFFFFFFFC00001FFFFFFFF000000000003FFFFE000007FFFF000FFFE0000000F
310
FFFFFFF0000FFFFF80007FFFFF80007FFFFC0000001FFFFFFFC0000001FFFFF8
310
00000000000000007FFFFFF0001FFFFFFFFFFE0000003FFFFFFFFFFE0000003F
310
FFFFFF000000000003FFFF0000000FFFF000FFF800000003FFFFFFF00007FFFF
310
80007FFFFF80007FFFF000000007FFFFFF000000003FFFF80000000000000000
310
7FFFFFF0001FFFFFFFFFF80000000FFFFFFFFFF80000000FFFFFFF0000000000
310
03FFFC00000003FFF000FFE000000000FFFFFFF00007FFFF80003FFFFF80007F
310
FFC000000001FFFFFC000000001FFFF800000000000000007FFFFFF0001FFFFF
310
FFFFE000000003FFFFFFFFE000000003FFFFFF000000000003FFF000000000FF
310
F000FF80000000007FFFFFF00007FFFF80003FFFFF80007FFF8000000000FFFF
310
F80000000007FFF800000000000000007FFFFFF0001FFFFFFFFFC000000001FF
310
FFFFFFC000000001FFFFFF000000000003FFC0000000007FF000FF0000000000
310
3FFFFFE00007FFFF00003FFFFF80007FFE00000000003FFFF00000000003FFF8
310
00000000000000007FFFFFF0001FFFFFFFFF8000000000FFFFFFFF8000000000
310
FFFFFF000000000003FF80000000003FF000FE00000000001FFFFFE00003FFFF
310
00003FFFFF80007FFC00000000001FFFE00000000001FFF8000001FFFE000000
310
7FFFFFF0001FFFFFFFFE00000000003FFFFFFE00000000003FFFFF0000000000
310
03FF00000000001FF000FC00000000000FFFFFE00003FFFF00001FFFFF80007F
310
F800000000001FFFC00000000000FFF8000001FFFE0000007FFFFFF0001FFFFF
310
FFFC00000000001FFFFFFC00000000001FFFFF000000000003FE00000000000F
310
F000F8000000000007FFFFE00003FFFF00001FFFFF80007FF800000000000FFF
310
800000000000FFF8000001FFFE0000007FFFFFF0001FFFFFFFF800000000000F
310
FFFFF800000000000FFFFF000000000003FC000000000007F000F80000000000
310
03FFFFC00003FFFE00001FFFFF80007FF0000000000007FF0000000000007FF8
310
000001FFFE0000007FFFFFF0001FFFFFFFF0000000000007FFFFF00000000000
310
07FFFF000000000003F8000000000003F000F0000000000003FFFFC00001FFFE
310
00001FFFFF80007FE0000000000007FE0000000000003FF8000001FFFE000000
310
7FFFFFF0001FFFFFFFF0000000000007FFFFF0000000000007FFFF0000000000
310
03F800001F800003F000E00001FFF00001FFFFC00001FFFE00000FFFFF80007F
310
E00001FFE00003FE00001FFF00003FF8000001FFFE0000007FFFFFF0001FFFFF
310
FFE000003E000003FFFFE000003E000003FFFF000000000003F00001FFF80001
310
F000E00007FFFC0001FFFFC00001FFFE00000FFFFF80007FC0000FFFFC0003FC
310
0000FFFFC0001FF8000001FFFE0000007FFFFFF0001FFFFFFFC00003FFE00001
310
FFFFC00003FFE00001FFFF0001FFFFFFFFF00007FFFE0001F000E0000FFFFF00
310
00FFFF800001FFFC00000FFFFF80007FC0001FFFFE0001FC0001FFFFE0001FF8
310
000001FFFE0000007FFFFFF0001FFFFFFF80000FFFF80000FFFF80000FFFF800
310
00FFFF0003FFFFFFFFE0000FFFFF8000F000C0003FFFFF8000FFFF800000FFFC
310
000007FFFF80007F80003FFFFF0001FC0003FFFFF0001FF8000001FFFE000000
310
7FFFFFF0001FFFFFFF80003FFFFE0000FFFF80003FFFFE0000FFFF0003FFFFFF
310
FFE0003FFFFF8000F000C0003FFFFF8000FFFF800000FFFC000007FFFF80007F
310
80007FFFFF8001F80007FFFFF8000FF8000001FFFE0000007FFFFFF0001FFFFF
310
FF00007FFFFF00007FFF00007FFFFF00007FFF0003FFFFFFFFE0003FFFFFC000
310
F000C0007FFFFFC000FFFF000000FFFC000007FFFF80007F8000FFFFFF8000F8
310
000FFFFFF8000FF8000001FFFE0000007FFFFFF0001FFFFFFF0000FFFFFF8000
310
7FFF0000FFFFFF80007FFF0003FFFFFFFFC0007FFFFFC00070008000FFFFFFC0
310
00FFFF000000FFF8000007FFFF80007F8000FFFFFF8000F8000FFFFFF8000FF8
310
000001FFFE0000007FFFFFF0001FFFFFFE0001FFFFFFC0003FFE0001FFFFFFC0
310
003FFF0003FFFFFFFFC0007FFFFFE00070008000FFFFFFC0007FFF0000007FF8
310
000003FFFF80007F0001FFFFFF8000F8000FFFFFF8000FF8000001FFFE000000
310
7FFFFFF0001FFFFFFE0001FFFFFFC0003FFE0001FFFFFFC0003FFF0003FFFFFF
310
FFC000FFFFFFE00070008000FFFFFFC0007FFF0000007FF8000003FFFF80007F
310
0001FFFFFF8000F8001FFFFFF8000FF8000001FFFE0000007FFFFFF0001FFFFF
310
FE0003FFFFFFE0003FFE0003FFFFFFE0003FFF0003FFFFFFFFC000FFFFFFE000
310
70008000FFFFFFC0007FFE0000007FF8000003FFFF80007F0001FFFFFF8000F0
310
001FFFFFF8000FF8000001FFFE0000007FFFFFF0001FFFFFFC0003FFFFFFE000
310
1FFC0003FFFFFFE0001FFF0003FFFFFFFFC000FFFFFFC00070008000FFFFFF80
310
007FFE0000007FF0000003FFFF80007F0001FFFFFF0000F0001FFFFFF8000FF8
310
000001FFFE0000007FFFFFF0001FFFFFFC0007FFFFFFF0001FFC0007FFFFFFF0
310
001FFF0003FFFFFFFFC000FFFFFFC00070008001FFFFFF0000FFFE0000003FF0
310
000001FFFF80007F0001FFFFFF0000F8001FFFFFF0000FF8000001FFFE000000
310
7FFFFFF0001FFFFFFC0007FFFFFFF0001FFC0007FFFFFFF0001FFF0003FFFFFF
310
FFC001FFFFFF80007000FFFFFFFFFE0000FFFE0008003FF0008001FFFF80007F
310
FFFFFFFFFC0000FFFFFFFFFFE0000FF8000001FFFE0000007FFFFFF0001FFFFF
310
F8000FFFFFFFF8000FF8000FFFFFFFF8000FFF0003FFFFFFFFFFFFFFFFFF0000
310
7000FFFFFFFFFC0000FFFC0008003FF0008001FFFF80007FFFFFFFFFF80001FF
310
FFFFFFFF80000FF8000001FFFE0000007FFFFFF0001FFFFFF8000FFFFFFFF800
310
0FF8000FFFFFFFF8000FFF0003FFFFFFFFFFFFFFFFFE0000F000FFFFFFFFE000
310
00FFFC000C003FE000C001FFFF80007FFFFFFFFFC00001FFFFFFFFFE00001FF8
310
000001FFFE0000007FFFFFF0001FFFFFF8000FFFFFFFF8000FF8000FFFFFFFF8
310
000FFF0003FFFFFFFFFFFFFFFFF00000F000FFFFFFFE000001FFFC000C001FE0
310
00C000FFFF80007FFFFFFFFE000001FFFFFFFFE000001FF80FFFFFFFFFFFFFC0
310
7FFFFFF0001FFFFFF8000FFFFFFFF8000FF8000FFFFFFFF8000FFF0003FFFFFF
310
FFFFFFFFFF800000F000FFFFFFC0000001FFFC001C001FE001C000FFFF80007F
310
FFFFFF80000003FFFFFFF80000001FF80FFFFFFFFFFFFFC07FFFFFF0001FFFFF
310
F8001FFFFFFFFC000FF8001FFFFFFFFC000FFF0003FFFFFFFFFFFFFFF0000001
310
F000FFFFF800000001FFF8001C001FE001C000FFFF80007FFFFFF800000003FF
310
FFFF800000003FF80FFFFFFFFFFFFFC07FFFFFF0001FFFFFF8001FFFFFFFFC00
310
0FF8001FFFFFFFFC000FFF0003FFFFFFFFFFFFFE00000001F000FFFFC0000000
310
03FFF8001E001FC001E000FFFF80007FFFFF8000000007FFFFFC000000003FF8
310
0FFFFFFFFFFFFFC07FFFFFF0001FFFFFF8001FFFFFFFFC000FF8001FFFFFFFFC
310
000FFF0003FFFFFFFFFFFFE000000003F000FFFE0000000007FFF8001E000FC0
310
01E0007FFF80007FFFFE0000000007FFFFE0000000007FF80FFFFFFFFFFFFFC0
310
7FFFFFF0001FFFFFF0001FFFFFFFFC0007F0001FFFFFFFFC0007FF0003FFFFFF
310
FFFFFF0000000003F000FFF80000000007FFF8001E000FC003E0007FFF80007F
310
FFF0000000000FFFFF8000000000FFF80FFFFFFFFFFFFFC07FFFFFF0001FFFFF
310
F0001FFFFFFFFC0007F0001FFFFFFFFC0007FF0003FFFFFFFFFFFC0000000007
310
F000FFE0000000000FFFF0003E000FC003E0007FFF80007FFFC0000000001FFF
310
FE0000000001FFF80FFFFFFFFFFFFFC07FFFFFF0001FFFFFF0001FFFFFFFFC00
310
07F0001FFFFFFFFC0007FF0003FFFFFFFFFFF0000000000FF000FFC000000000
310
1FFFF0003F000F8003F0003FFF80007FFF80000000003FFFF80000000003FFF8
310
0FFFFFFFFFFFFFC07FFFFFF0001FFFFFF0001FFFFFFFFC0007F0001FFFFFFFFC
310
0007FF0003FFFFFFFFFFE0000000001FF000FF00000000007FFFF0003F000780
310
03F0003FFF80007FFF00000000007FFFF00000000007FFF80FFFFFFFFFFFFFC0
310
7FFFFFF0001FFFFFF0001FFFFFFFFC0007F0001FFFFFFFFC0007FF0003FFFFFF
310
FFFF80000000007FF000FE0000000000FFFFE0003F00078007F0003FFF80007F
310
FE0000000001FFFFE0000000001FFFF80FFFFFFFFFFFFFC07FFFFFF0001FFFFF
310
F0001FFFFFFFFC0007F0001FFFFFFFFC0007FF0003FFFFFFFFFF0000000000FF
310
F000FC0000000003FFFFE0007F00078007F0003FFF80007FFC0000000007FFFF
310
C0000000007FFFF80FFFFFFFFFFFFFC07FFFFFF0001FFFFFF8001FFFFFFFFC00
310
0FF8001FFFFFFFFC000FFF0003FFFFFFFFFE0000000003FFF000FC000000000F
310
FFFFE0007F80070007F8001FFF80007FF8000000001FFFFF8000000001FFFFF8
310
0FFFFFFFFFFFFFC07FFFFFF0001FFFFFF8001FFFFFFFFC000FF8001FFFFFFFFC
310
000FFF0003FFFFFFFFFC000000000FFFF000F8000000007FFFFFE0007F800700
310
07F8001FFF80007FF000000000FFFFFF800000000FFFFFF80FFFFFFFFFFFFFC0
310
7FFFFFF0001FFFFFF8000FFFFFFFF8000FF8000FFFFFFFF8000FFF0003FFFFFF
310
FFFC000000007FFFF000F800000007FFFFFFC0007F8003000FF8001FFF80007F
310
F000000007FFFFFF000000007FFFFFF80FFFFFFFFFFFFFC07FFFFFF0001FFFFF
310
F8000FFFFFFFF8000FF8000FFFFFFFF8000FFF0003FFFFFFFFF80000000FFFFF
310
F000F0000000FFFFFFFFC000FF8003000FF8001FFF80007FE0000000FFFFFFFF
310
0000000FFFFFFFF8000001FFFE0000007FFFFFF0001FFFFFF8000FFFFFFFF800
310
0FF8000FFFFFFFF8000FFF0003FFFFFFFFF8000000FFFFFFF000F000000FFFFF
310
FFFFC000FFC002000FF8000FFF80007FE000001FFFFFFFFE000001FFFFFFFFF8
310
000001FFFE0000007FFFFFF0001FFFFFF8000FFFFFFFF8000FF8000FFFFFFFF8
310
000FFF0003FFFFFFFFF000001FFFFFFFF000E00000FFFFFFFFFFC000FFC00200
310
0FFC000FFF80007FE00001FFFFFFFFFE00001FFFFFFFFFF8000001FFFE000000
310
7FFFFFF0001FFFFFFC000FFFFFFFF8001FFC000FFFFFFFF8001FFF0003FFFFFF
310
FFF00001FFFFFFFFF000E00007FFFFFFFFFF8000FFC000001FFC000FFF80007F
310
C0000FFFFFFFFFFE0000FFFFFFFFFFF8000001FFFE0000007FFFFFF0001FFFFF
310
FC0007FFFFFFF0001FFC0007FFFFFFF0001FFF0003FFFFFFFFF00007FFFFFFFF
310
F000E0001FFFFFFFFFFF8000FFC000001FFC000FFF80007FC0003FFFFFFFFFFE
310
0001FFFFFFFFFFF8000001FFFE0000007FFFFFF0001FFFFFFC0007FFFFFFF000
310
1FFC0007FFFFFFF0001FFF0003FFFFFFFFF0001FFFFFFFFFF000E0003FFFFF00
310
03FF8001FFE000001FFC0007FF80007FC0007FFFFF0007FC0003FFFFF0003FF8
310
000001FFFE0000007FFFFFF0001FFFFFFC0003FFFFFFE0001FFC0003FFFFFFE0
310
001FFF0003FFFFFFFFF0003FFFFFFFFFF000E0003FFFFF0001FF8001FFE00000
310
1FFE0007FF80007FC0007FFFFE0003FC0007FFFFE0003FF8000001FFFE000000
310
7FFFFFF0001FFFFFFE0003FFFFFFE0003FFE0003FFFFFFE0003FFF0003FFFFFF
310
FFF0003FFFFF8001F000E0003FFFFF0001FF0001FFE000001FFE0007FF80007F
310
C0007FFFFE0003FC0007FFFFE0003FF8000001FFFE0000007FFFFFF0001FFFFF
310
FE0001FFFFFFC0003FFE0001FFFFFFC0003FFF0003FFFFFFFFF0003FFFFF0001
310
F000E0003FFFFF0003FF0001FFE000003FFE0007FF80007FC0007FFFFE0003FC
310
0007FFFFE0003FF8000001FFFE0000007FFFFFF0001FFFFFFF0001FFFFFFC000
310
7FFF0001FFFFFFC0007FFF0003FFFFFFFFF0003FFFFF0001F000E0003FFFFE00
310
03FF0003FFF000003FFE0003FF80007FC0007FFFFC0003FE0007FFFFE0003FF8
310
000001FFFE0000007FFFFFF0001FFFFFFF0000FFFFFF80007FFF0000FFFFFF80
310
007FFF0003FFFFFFFFF0003FFFFF0001F000E0003FFFFE0003FF0003FFF00000
310
3FFF0003FF80007FC0007FFFFC0007FE0007FFFFC0003FF8000001FFFE000000
310
7FFFFFF0001FFFFFFF80007FFFFF0000FFFF80007FFFFF0000FFFF0003FFFFFF
310
FFF0003FFFFF0003F000E0003FFFFC0003FE0003FFF000003FFF0003FF80007F
310
E0003FFFF80007FE0003FFFFC0007FF8000001FFFE0000007FFFFFF0001FFFFF
310
FF80003FFFFE0000FFFF80003FFFFE0000FFFF0003FFFFFFFFF0001FFFFE0003
310
F000F0001FFFF80003FE0003FFF000007FFF0001FF80007FE0003FFFF00007FE
310
0001FFFF80007FF8000001FFFE0000007FFFFFF0001FFFFFFFC0000FFFF80001
310
FFFFC0000FFFF80001FFFF0003FFFFFFFFF0001FFFFC0003F000F0000FFFF000
310
07FE0007FFF800007FFF0001FF80007FE0001FFFE00007FF0000FFFE00007FF8
310
000001FFFE0000007FFFFFF0001FFFFFFFC00003FFE00001FFFFC00003FFE000
310
01FFFF0003FFFFFFFFF8000FFFF80003F000F00003FFC00007FC0007FFF80000
310
7FFF8001FF80007FF00007FF80000FFF00007FF80000FFF8000001FFFE000000
310
7F80000000000001FFE000003E000003FFFFE000003E000003FFFF0003FFFFFF
310
FFF80003FFE00007F000F800000000000FFC0007FFF800007FFF8001FF80007F
310
F000000000000FFF000000000000FFF8000001FFFE0000007F80000000000001
310
FFF0000000000007FFFFF0000000000007FFFF0003FFFFFFFFFC00007E000007
310
F000F800000000000FFC0007FFF80000FFFF8000FF80007FF800000000001FFF
310
800000000001FFF8000001FFFE0000007F80000000000001FFF800000000000F
310
FFFFF800000000000FFFFF0003FFFFFFFFFC00000000000FF000FC0000000000
310
1FFC0007FFFC0000FFFF8000FF80007FF800000000003FFFC00000000001FFF8
310
000001FFFE0000007F80000000000001FFF800000000000FFFFFF80000000000
310
0FFFFF0003FFFFFFFFFE00000000001FF000FE00000000003FF8000FFFFC0000
310
FFFF8000FF80007FFC00000000003FFFC00000000003FFF8000001FFFE000000
310
7F80000000000001FFFC00000000001FFFFFFC00000000001FFFFF0003FFFFFF
310
FFFF00000000001FF000FF00000000003FF8000FFFFC0000FFFFC000FF80007F
310
FE00000000007FFFE00000000007FFF8000001FFFE0000007F80000000000001
310
FFFE00000000003FFFFFFE00000000003FFFFF0003FFFFFFFFFF80000000003F
310
F000FF80000000007FF8000FFFFC0001FFFFC0007F80007FFF0000000000FFFF
310
F0000000000FFFF800000000000000007F80000000000001FFFF8000000000FF
310
FFFFFF8000000000FFFFFF0003FFFFFFFFFFC0000000007FF000FFC000000000
310
FFF8000FFFFE0001FFFFC0007F80007FFF8000000001FFFFF8000000001FFFF8
310
00000000000000007F80000000000001FFFFC000000001FFFFFFFFC000000001
310
FFFFFF0003FFFFFFFFFFE000000000FFF000FFE000000003FFF0001FFFFE0001
310
FFFFC0007F80007FFFC000000007FFFFFE000000003FFFF80000000000000000
310
7F80000000000001FFFFE000000003FFFFFFFFE000000003FFFFFF0003FFFFFF
310
FFFFF000000003FFF000FFF80000000FFFF0001FFFFE0001FFFFE0007F80007F
310
FFF00000000FFFFFFF00000000FFFFF800000000000000007F80000000000001
310
FFFFF80000000FFFFFFFFFF80000000FFFFFFF0003FFFFFFFFFFFC0000000FFF
310
F000FFFE0000003FFFF0001FFFFE0003FFFFE0003F80007FFFFC0000003FFFFF
310
FFC0000003FFFFF800000000000000007F80000000000001FFFFFE0000003FFF
310
FFFFFFFE0000003FFFFFFF0003FFFFFFFFFFFF0000003FFFF000FFFF800000FF
310
FFF0001FFFFF0003FFFFE0003F80007FFFFF000001FFFFFFFFF800001FFFFFF8
310
00000000000000007F80000000000001FFFFFFC00001FFFFFFFFFFFFC00001FF
310
FFFFFF0003FFFFFFFFFFFFC00000FFFFF000FFFFF8000FFFFFFFFFFFFFFFFFFF
310
FFFFFFFFFFFFFFFFFFFFF0001FFFFFFFFFFF0000FFFFFFF80000000000000000
310
7FFFFFFFFFFFFFFFFFFFFFFC001FFFFFFFFFFFFFFC001FFFFFFFFFFFFFFFFFFF
310
FFFFFFFC001FFFFFF000FFFFFFFFFFFFFFFFFFFFFFFFFFFFFFFFFFFFFFFFFFFF
310
FFFFFFFFFFFFFFFFFFFFFFFFFFFFFFFFFFFFFFFFFFFFFFFFFFFFFFFFFFFFFFFF
310
FFFFFFFFFFFFFFFFFFFFFFFFFFFFFFFFFFFFFFFFFFFFFFFFFFFFFFFFFFFFFFFF
310
F000FFFFFFFFFFFFFFFFFFFFFFFFFFFFFFFFFFFFFFFFFFFFFFFFFFFFFFFFFFFF
310
FFFFFFFFFFFFFFFFFFFFFFFFFFFFFFFFFFFFFFFFFFFFFFFFFFFFFFFFFFFFFFFF
310
FFFFFFFFFFFFFFFFFFFFFFFFFFFFFFFFFFFFFFFFFFFFFFFFF000FFFFFFFFFFFF
310
FFFFFFFFFFFFFFFFFFFFFFFFFFFFFFFFFFFFFFFFFFFFFFFFFFFFFFFFFFFFFFFF
310
FFFFFFFFFFFFFFFFFFFFFFFFFFFFFFFFFFFFFFFFFFFFFFFFFFFFFFFFFFFFFFFF
310
FFFFFFFFFFFFFFFFFFFFFFFFFFFFFFFFF000FFFFFFFFFFFFFFFFFFFFFFFFFFFF
310
FFFFFFFFFFFFFFFFFFFFFFFFFFFFFFFFFFFFFFFFFFFFFFFFFFFFFFFFFFFFFFFF
310
FFFFFFFFFFFFFFFFFFFFFFFFFFFFFFFFFFFFFFFFFFFFFFFFFFFFFFFFFFFFFFFF
310
FFFFFFFFFFFFFFFFF000FFFFFFFFFFFFFFFFFFFFFFFFFFFFFFFFFFFFFFFFFFFF
310
FFFFFFFFFFFFFFFFFFFFFFFFFFFFFFFFFFFFFFFFFFFFFFFFFFFFFFFFFFFFFFFF
310
FFFFFFFFFFFFFFFFFFFFFFFFFFFFFFFFFFFFFFFFFFFFFFFFFFFFFFFFFFFFFFFF
310
F000FFFFFFFFFFFFFFFFFFFFFFFFFFFFFFFFFFFFFFFFFFFFFFFFFFFFFFFFFFFF
310
FFFFFFFFFFFFFFFFFFFFFFFFFFFFFFFFFFFFFFFFFFFFFFFFFFFFFFFFFFFFFFFF
310
FFFFFFFFFFFFFFFFFFFFFFFFFFFFFFFFFFFFFFFFFFFFFFFFF000FFFFFFFFFFFF
310
FFFFFFFFFFFFFFFFFFFFFFFFFFFFFFFFFFFFFFFFFFFFFFFFFFFFFFFFFFFFFFFF
310
FFFFFFFFFFFFFFFFFFFFFFFFFFFFFFFFFFFFFFFFFFFFFFFFFFFFFFFFFFFFFFFF
310
FFFFFFFFFFFFFFFFFFFFFFFFFFFFFFFFF000FFFFFFFFFFFFFFFFFFFFFFFFFFFF
310
FFFFFFFFFFFFFFFFFFFFFFFFFFFFFFFFFFFFFFFFFFFFFFFFFFFFFFFFFFFFFFFF
310
FFFFFFFFFFFFFFFFFFFFFFFFFFFFFFFFFFFFFFFFFFFFFFFFFFFFFFFFFFFFFFFF
310
FFFFFFFFFFFFFFFFF000FFFFFFFFFFFFFFFFFFFFFFFFFFFFFFFFFFFFFFFFFFFF
310
FFFFFFFFFFFFFFFFFFFFFFFFFFFFFFFFFFFFFFFFFFFFFFFFFFFFFFFFFFFFFFFF
310
FFFFFFFFFFFFFFFFFFFFFFFFFFFFFFFFFFFFFFFFFFFFFFFFFFFFFFFFFFFFFFFF
310
F000FFFFFFFFFFFFFFFFFFFFFFFFFFFFFFFFFFFFFFFFFFFFFFFFFFFFFFFFFFFF
310
FFFFFFFFFFFFFFFFFFFFFFFFFFFFFFFFFFFFFFFFFFFFFFFFFFFFFFFFFFFFFFFF
310
FFFFFFFFFFFFFFFFFFFFFFFFFFFFFFFFFFFFFFFFFFFFFFFFF000FFFFFFFFFFFF
310
FFFFFFFFFFFFFFFFFFFFFFFFFFFFFFFFFFFFFFFFFFFFFFFFFFFFFFFFFFFFFFFF
310
FFFFFFFFFFFFFFFFFFFFFFFFFFFFFFFFFFFFFFFFFFFFFFFFFFFFFFFFFFFFFFFF
310
FFFFFFFFFFFFFFFFFFFFFFFFFFFFFFFFF000FFFFFFFFFFFFFFFFFFFFFFFFFFFF
310
FFFFFFFFFFFFFFFFFFFFFFFFFFFFFFFFFFFFFFFFFFFFFFFFFFFFFFFFFFFFFFFF
310
FFFFFFFFFFFFFFFFFFFFFFFFFFFFFFFFFFFFFFFFFFFFFFFFFFFFFFFFFFFFFFFF
310
FFFFFFFFFFFFFFFFF000FFFFFFFFFFFFFFFFFFFFFFFFFFFFFFFFFFFFFFFFFFFF
310
FFFFFFFFFFFFFFFFFFFFFFFFFFFFFFFFFFFFFFFFFFFFFFFFFFFFFFFFFFFFFFFF
310
FFFFFFFFFFFFFFFFFFFFFFFFFFFFFFFFFFFFFFFFFFFFFFFFFFFFFFFFFFFFFFFF
310
F000FFFFFFFFFFFFFFFFFFFFFFFFFFFFFFFFFFFFFFFFFFFFFFFFFFFFFFFFFFFF
310
FFFFFFFFFFFFFFFFFFFFFFFFFFFFFFFFFFFFFFFFFFFFFFFFFFFFFFFFFFFFFFFF
310
FFFFFFFFFFFFFFFFFFFFFFFFFFFFFFFFFFFFFFFFFFFFFFFFF000FFFFFFFFFFFF
310
FFFFFFFFFFFFFFFFFFFFFFFFFFFFFFFFFFFFFFFFFFFFFFFFFFFFFFFFFFFFFFFF
310
FFFFFFFFFFFFFFFFFFFFFFFFFFFFFFFFFFFFFFFFFFFFFFFFFFFFFFFFFFFFFFFF
310
FFFFFFFFFFFFFFFFFFFFFFFFFFFFFFFFF000FFFFFFFFFFFFFFFFFFFFFFFFFFFF
310
FFFFFFFFFFFFFFFFFFFFFFFFFFFFFFFFFFFFFFFFFFFFFFFFFFFFFFFFFFFFFFFF
310
FFFFFFFFFFFFFFFFFFFFFFFFFFFFFFFFFFFFFFFFFFFFFFFFFFFFFFFFFFFFFFFF
310
FFFFFFFFFFFFFFFFF000FFFFFFFFFFFFFFFFFFFFFFFFFFFFFFFFFFFFFFFFFFFF
310
FFFFFFFFFFFFFFFFFFFFFFFFFFFFFFFFFFFFFFFFFFFFFFFFFFFFFFFFFFFFFFFF
310
FFFFFFFFFFFFFFFFFFFFFFFFFFFFFFFFFFFFFFFFFFFFFFFFFFFFFFFFFFFFFFFF
310
F000FFFFFFFFFFFFFFFFFFFFFFFFFFFFFFFFFFFFFFFFFFFFFFFFFFFFFFFFFFFF
310
FFFFFFFFFFFFFFFFFFFFFFFFFFFFFFFFFFFFFFFFFFFFFFFFFFFFFFFFFFFFFFFF
310
FFFFFFFFFFFFFFFFFFFFFFFFFFFFFFFFFFFFFFFFFFFFFFFFF000FFFFFFFFFFFF
310
FFFFFFFFFFFFFFFFFFFFFFFFFFFFFFFFFFFFFFFFFFFFFFFFFFFFFFFFFFFFFFFF
310
FFFFFFFFFFFFFFFFFFFFFFFFFFFFFFFFFFFFFFFFFFFFFFFFFFFFFFFFFFFFFFFF
310
FFFFFFFFFFFFFFFFFFFFFFFFFFFFFFFFF000FFFFFFFFFFFFFFFFFFFFFFFFFFFF
310
FFFFFFFFFFFFFFFFFFFFFFFFFFFFFFFFFFFFFFFFFFFFFFFFFFFFFFFFFFFFFFFF
310
FFFFFFFFFFFFFFFFFFFFFFFFFFFFFFFFFFFFFFFFFFFFFFFFFFFFFFFFFFFFFFFF
310
FFFFFFFFFFFFFFFFF000FFFFFFFFFFFFFFFFFFFFFFFFFFFFFFFFFFFFFFFFFFFF
310
FFFFFFFFFFFFFFFFFFFFFFFFFFFFFFFFFFFFFFFFFFFFFFFFFFFFFFFFFFFFFFFF
310
FFFFFFFFFFFFFFFFFFFFFFFFFFFFFFFFFFFFFFFFFFFFFFFFFFFFFFFFFFFFFFFF
310
F000FFFFFFFFFFFFFFFFFFFFFFFFFFFFFFFFFFFFFFFFFFFFFFFFFFFFFFFFFFFF
310
FFFFFFFFFFFFFFFFFFFFFFFFFFFFFFFFFFFFFFFFFFFFFFFFFFFFFFFFFFFFFFFF
310
FFFFFFFFFFFFFFFFFFFFFFFFFFFFFFFFFFFFFFFFFFFFFFFFF000FFFFFFFFFFFF
310
FFFFFFFFFFFFFFFFFFFFFFFFFFFFFFFFFFFFFFFFFFFFFFFFFFFFFFFFFFFFFFFF
310
FFFFFFFFFFFFFFFFFFFFFFFFFFFFFFFFFFFFFFFFFFFFFFFFFFFFFFFFFFFFFFFF
310
FFFFFFFFFFFFFFFFFFFFFFFFFFFFFFFFF0000000000000000000000000000000
310
0000000000000000000000000000000000000000000000000000000000000000
310
0000000000000000000000000000000000000000000000000000000000000000
310
0000000000000000000000000000000000000000000000000000000000000000
310
0000000000000000000000000000000000000000000000000000000000000000
310
0000000000000000000000000000000000000000000000000000000000000000
310
0000000000000000000000000000000000000000000000000000000000000000
310
0000000000000000000000000000000000000000000000000000000000000000
310
0000000000000000000000000000000000000000000000000000000000000000
310
0000000000000000000000000000000000000000000000000000000000000000
310
0000000000000000000000000000000000000000000000000000000000000000
310
0000000000000000000000000000000000000000000000000000000000000000
310
0000000000000000000000000000000000000000000000000000000000000000
310
0000000000000000000000000000000000000000000000000000000000000000
310
0000000000000000000000000000000000000000000000000000000000000000
310
0000000000000000000000000000000000000000000000000000000000000000
  1
OLE
  0
ENDSEC
  0
SECTION
  2
OBJECTS
  0
DICTIONARY
  5
C
330
0
100
AcDbDictionary
281
     1
  3
ACAD_GROUP
350
D
  3
ACAD_LAYOUT
350
1A
  3
ACAD_MLINESTYLE
350
17
  3
ACAD_PLOTSETTINGS
350
19
  3
ACAD_PLOTSTYLENAME
350
E
  3
ACAD_SCALELIST
350
47
  0
DICTIONARY
  5
D
102
{ACAD_REACTORS
330
C
102
}
330
C
100
AcDbDictionary
281
     1
  0
DICTIONARY
  5
1A
102
{ACAD_REACTORS
330
C
102
}
330
C
100
AcDbDictionary
281
     1
  3
Layout1
350
1E
  3
Layout2
350
26
  3
Model
350
22
  0
DICTIONARY
  5
17
102
{ACAD_REACTORS
330
C
102
}
330
C
100
AcDbDictionary
281
     1
  3
Standard
350
18
  0
DICTIONARY
  5
19
102
{ACAD_REACTORS
330
C
102
}
330
C
100
AcDbDictionary
281
     1
  0
ACDBDICTIONARYWDFLT
  5
E
102
{ACAD_REACTORS
330
C
102
}
330
C
100
AcDbDictionary
281
     1
  3
Normal
350
F
100
AcDbDictionaryWithDefault
340
F
  0
DICTIONARY
  5
47
102
{ACAD_REACTORS
330
C
102
}
330
C
100
AcDbDictionary
281
     1
  3
A0
350
48
  3
A1
350
49
  3
A2
350
4A
  3
A3
350
4B
  3
A4
350
4C
  3
A5
350
4D
  3
A6
350
4E
  3
A7
350
4F
  3
A8
350
50
  3
A9
350
51
  3
B0
350
52
  3
B1
350
53
  3
B2
350
54
  3
B3
350
55
  3
B4
350
56
  3
B5
350
57
  3
B6
350
58
  3
B7
350
59
  3
B8
350
5A
  3
B9
350
5B
  3
C0
350
5C
  3
C1
350
5D
  3
C2
350
5E
  3
C3
350
5F
  3
C4
350
60
  3
C5
350
61
  3
C6
350
62
  3
C7
350
63
  3
C8
350
64
  3
C9
350
65
  3
D0
350
66
  3
D1
350
67
  3
D2
350
68
  0
LAYOUT
  5
1E
102
{ACAD_REACTORS
330
1A
102
}
330
1A
100
AcDbPlotSettings
  1

  2
none_device
  4

  6

 40
0.0
 41
0.0
 42
0.0
 43
0.0
 44
0.0
 45
0.0
 46
0.0
 47
0.0
 48
0.0
 49
0.0
140
0.0
141
0.0
142
1.0
143
1.0
 70
   688
 72
     1
 73
     0
 74
     5
  7

 75
    16
147
1.0
148
0.0
149
0.0
100
AcDbLayout
  1
Layout1
 70
     1
 71
     1
 10
0.0
 20
0.0
 11
420.0
 21
297.0
 12
0.0
 22
0.0
 32
0.0
 14
1.0000000000E+20
 24
1.0000000000E+20
 34
1.0000000000E+20
 15
-1.0000000000E+20
 25
-1.0000000000E+20
 35
-1.0000000000E+20
146
0.0
 13
0.0
 23
0.0
 33
0.0
 16
1.0
 26
0.0
 36
0.0
 17
0.0
 27
1.0
 37
0.0
 76
     0
330
1B
  0
LAYOUT
  5
26
102
{ACAD_REACTORS
330
1A
102
}
330
1A
100
AcDbPlotSettings
  1

  2
none_device
  4

  6

 40
0.0
 41
0.0
 42
0.0
 43
0.0
 44
0.0
 45
0.0
 46
0.0
 47
0.0
 48
0.0
 49
0.0
140
0.0
141
0.0
142
1.0
143
1.0
 70
   688
 72
     1
 73
     0
 74
     5
  7

 75
    16
147
1.0
148
0.0
149
0.0
100
AcDbLayout
  1
Layout2
 70
     1
 71
     2
 10
0.0
 20
0.0
 11
0.0
 21
0.0
 12
0.0
 22
0.0
 32
0.0
 14
0.0
 24
0.0
 34
0.0
 15
0.0
 25
0.0
 35
0.0
146
0.0
 13
0.0
 23
0.0
 33
0.0
 16
1.0
 26
0.0
 36
0.0
 17
0.0
 27
1.0
 37
0.0
 76
     0
330
23
  0
LAYOUT
  5
22
102
{ACAD_REACTORS
330
1A
102
}
330
1A
100
AcDbPlotSettings
  1

  2
none_device
  4
Letter_(8.50_x_11.00_Inches)
  6

 40
6.35
 41
6.35
 42
6.35000508
 43
6.35000508
 44
215.9
 45
279.4
 46
0.0
 47
0.0
 48
0.0
 49
0.0
140
0.0
141
0.0
142
1.0
143
1.0
 70
  1712
 72
     1
 73
     0
 74
     0
  7

 75
     0
147
1.0
148
0.0
149
0.0
100
AcDbLayout
  1
Model
 70
     1
 71
     0
 10
0.0
 20
0.0
 11
297.0
 21
210.0
 12
0.0
 22
0.0
 32
0.0
 14
0.0
 24
0.0
 34
0.0
 15
297.0
 25
210.0
 35
0.0
146
0.0
 13
0.0
 23
0.0
 33
0.0
 16
1.0
 26
0.0
 36
0.0
 17
0.0
 27
1.0
 37
0.0
 76
     0
330
1F
331
29
  0
MLINESTYLE
  5
18
102
{ACAD_REACTORS
330
17
102
}
330
17
100
AcDbMlineStyle
  2
Standard
 70
     0
  3

 62
   256
 51
90.0
 52
90.0
 71
     2
 49
0.5
 62
   256
  6
BYLAYER
 49
-0.5
 62
   256
  6
BYLAYER
  0
ACDBPLACEHOLDER
  5
F
102
{ACAD_REACTORS
330
E
102
}
330
E
  0
SCALE
  5
48
102
{ACAD_REACTORS
330
47
102
}
330
47
100
AcDbScale
 70
     0
300
1:1
140
1.0
141
1.0
290
     1
  0
SCALE
  5
49
102
{ACAD_REACTORS
330
47
102
}
330
47
100
AcDbScale
 70
     0
300
1:2
140
1.0
141
2.0
290
     0
  0
SCALE
  5
4A
102
{ACAD_REACTORS
330
47
102
}
330
47
100
AcDbScale
 70
     0
300
1:4
140
1.0
141
4.0
290
     0
  0
SCALE
  5
4B
102
{ACAD_REACTORS
330
47
102
}
330
47
100
AcDbScale
 70
     0
300
1:5
140
1.0
141
5.0
290
     0
  0
SCALE
  5
4C
102
{ACAD_REACTORS
330
47
102
}
330
47
100
AcDbScale
 70
     0
300
1:8
140
1.0
141
8.0
290
     0
  0
SCALE
  5
4D
102
{ACAD_REACTORS
330
47
102
}
330
47
100
AcDbScale
 70
     0
300
1:10
140
1.0
141
10.0
290
     0
  0
SCALE
  5
4E
102
{ACAD_REACTORS
330
47
102
}
330
47
100
AcDbScale
 70
     0
300
1:16
140
1.0
141
16.0
290
     0
  0
SCALE
  5
4F
102
{ACAD_REACTORS
330
47
102
}
330
47
100
AcDbScale
 70
     0
300
1:20
140
1.0
141
20.0
290
     0
  0
SCALE
  5
50
102
{ACAD_REACTORS
330
47
102
}
330
47
100
AcDbScale
 70
     0
300
1:30
140
1.0
141
30.0
290
     0
  0
SCALE
  5
51
102
{ACAD_REACTORS
330
47
102
}
330
47
100
AcDbScale
 70
     0
300
1:40
140
1.0
141
40.0
290
     0
  0
SCALE
  5
52
102
{ACAD_REACTORS
330
47
102
}
330
47
100
AcDbScale
 70
     0
300
1:50
140
1.0
141
50.0
290
     0
  0
SCALE
  5
53
102
{ACAD_REACTORS
330
47
102
}
330
47
100
AcDbScale
 70
     0
300
1:100
140
1.0
141
100.0
290
     0
  0
SCALE
  5
54
102
{ACAD_REACTORS
330
47
102
}
330
47
100
AcDbScale
 70
     0
300
2:1
140
2.0
141
1.0
290
     0
  0
SCALE
  5
55
102
{ACAD_REACTORS
330
47
102
}
330
47
100
AcDbScale
 70
     0
300
4:1
140
4.0
141
1.0
290
     0
  0
SCALE
  5
56
102
{ACAD_REACTORS
330
47
102
}
330
47
100
AcDbScale
 70
     0
300
8:1
140
8.0
141
1.0
290
     0
  0
SCALE
  5
57
102
{ACAD_REACTORS
330
47
102
}
330
47
100
AcDbScale
 70
     0
300
10:1
140
10.0
141
1.0
290
     0
  0
SCALE
  5
58
102
{ACAD_REACTORS
330
47
102
}
330
47
100
AcDbScale
 70
     0
300
100:1
140
100.0
141
1.0
290
     0
  0
SCALE
  5
59
102
{ACAD_REACTORS
330
47
102
}
330
47
100
AcDbScale
 70
     0
300
1/128" = 1'-0"
140
0.0078125
141
12.0
290
     0
  0
SCALE
  5
5A
102
{ACAD_REACTORS
330
47
102
}
330
47
100
AcDbScale
 70
     0
300
1/64" = 1'-0"
140
0.015625
141
12.0
290
     0
  0
SCALE
  5
5B
102
{ACAD_REACTORS
330
47
102
}
330
47
100
AcDbScale
 70
     0
300
1/32" = 1'-0"
140
0.03125
141
12.0
290
     0
  0
SCALE
  5
5C
102
{ACAD_REACTORS
330
47
102
}
330
47
100
AcDbScale
 70
     0
300
1/16" = 1'-0"
140
0.0625
141
12.0
290
     0
  0
SCALE
  5
5D
102
{ACAD_REACTORS
330
47
102
}
330
47
100
AcDbScale
 70
     0
300
3/32" = 1'-0"
140
0.09375
141
12.0
290
     0
  0
SCALE
  5
5E
102
{ACAD_REACTORS
330
47
102
}
330
47
100
AcDbScale
 70
     0
300
1/8" = 1'-0"
140
0.125
141
12.0
290
     0
  0
SCALE
  5
5F
102
{ACAD_REACTORS
330
47
102
}
330
47
100
AcDbScale
 70
     0
300
3/16" = 1'-0"
140
0.1875
141
12.0
290
     0
  0
SCALE
  5
60
102
{ACAD_REACTORS
330
47
102
}
330
47
100
AcDbScale
 70
     0
300
1/4" = 1'-0"
140
0.25
141
12.0
290
     0
  0
SCALE
  5
61
102
{ACAD_REACTORS
330
47
102
}
330
47
100
AcDbScale
 70
     0
300
3/8" = 1'-0"
140
0.375
141
12.0
290
     0
  0
SCALE
  5
62
102
{ACAD_REACTORS
330
47
102
}
330
47
100
AcDbScale
 70
     0
300
1/2" = 1'-0"
140
0.5
141
12.0
290
     0
  0
SCALE
  5
63
102
{ACAD_REACTORS
330
47
102
}
330
47
100
AcDbScale
 70
     0
300
3/4" = 1'-0"
140
0.75
141
12.0
290
     0
  0
SCALE
  5
64
102
{ACAD_REACTORS
330
47
102
}
330
47
100
AcDbScale
 70
     0
300
1" = 1'-0"
140
1.0
141
12.0
290
     0
  0
SCALE
  5
65
102
{ACAD_REACTORS
330
47
102
}
330
47
100
AcDbScale
 70
     0
300
1-1/2" = 1'-0"
140
1.5
141
12.0
290
     0
  0
SCALE
  5
66
102
{ACAD_REACTORS
330
47
102
}
330
47
100
AcDbScale
 70
     0
300
3" = 1'-0"
140
3.0
141
12.0
290
     0
  0
SCALE
  5
67
102
{ACAD_REACTORS
330
47
102
}
330
47
100
AcDbScale
 70
     0
300
6" = 1'-0"
140
6.0
141
12.0
290
     0
  0
SCALE
  5
68
102
{ACAD_REACTORS
330
47
102
}
330
47
100
AcDbScale
 70
     0
300
1'-0" = 1'-0"
140
12.0
141
12.0
290
     0
  0
ENDSEC
  0
EOF
