  0
SECTION
  2
HEADER
  9
$ACADVER
  1
AC1015
  9
$ACADMAINTVER
 70
     6
  9
$DWGCODEPAGE
  3
ANSI_1252
  9
$INSBASE
 10
0.0
 20
0.0
 30
0.0
  9
$EXTMIN
 10
0.0
 20
0.0
 30
0.0
  9
$EXTMAX
 10
297.0
 20
210.0
 30
0.0
  9
$LIMMIN
 10
0.0
 20
0.0
  9
$LIMMAX
 10
297.0
 20
210.0
  9
$ORTHOMODE
 70
     0
  9
$REGENMODE
 70
     1
  9
$FILLMODE
 70
     1
  9
$QTEXTMODE
 70
     0
  9
$MIRRTEXT
 70
     1
  9
$LTSCALE
 40
1.0
  9
$ATTMODE
 70
     1
  9
$TEXTSIZE
 40
2.0
  9
$TRACEWID
 40
1.0
  9
$TEXTSTYLE
  7
Standard
  9
$CLAYER
  8
0
  9
$CELTYPE
  6
ByLayer
  9
$CECOLOR
 62
   256
  9
$CELTSCALE
 40
1.0
  9
$DISPSILH
 70
     0
  9
$DIMSCALE
 40
1.0
  9
$DIMASZ
 40
3.0
  9
$DIMEXO
 40
0.0
  9
$DIMDLI
 40
3.75
  9
$DIMRND
 40
0.0
  9
$DIMDLE
 40
0.0
  9
$DIMEXE
 40
1.0
  9
$DIMTP
 40
0.0
  9
$DIMTM
 40
0.0
  9
$DIMTXT
 40
2.0
  9
$DIMCEN
 40
2.5
  9
$DIMTSZ
 40
0.0
  9
$DIMTOL
 70
     0
  9
$DIMLIM
 70
     0
  9
$DIMTIH
 70
     1
  9
$DIMTOH
 70
     1
  9
$DIMSE1
 70
     0
  9
$DIMSE2
 70
     0
  9
$DIMTAD
 70
     1
  9
$DIMZIN
 70
     0
  9
$DIMBLK
  1

  9
$DIMASO
 70
     1
  9
$DIMSHO
 70
     1
  9
$DIMPOST
  1

  9
$DIMAPOST
  1

  9
$DIMALT
 70
     0
  9
$DIMALTD
 70
     3
  9
$DIMALTF
 40
0.0393700787
  9
$DIMLFAC
 40
2.0
  9
$DIMTOFL
 70
     1
  9
$DIMTVP
 40
0.0
  9
$DIMTIX
 70
     0
  9
$DIMSOXD
 70
     0
  9
$DIMSAH
 70
     0
  9
$DIMBLK1
  1

  9
$DIMBLK2
  1

  9
$DIMSTYLE
  2
ISO-25
  9
$DIMCLRD
 70
     0
  9
$DIMCLRE
 70
     0
  9
$DIMCLRT
 70
     0
  9
$DIMTFAC
 40
1.0
  9
$DIMGAP
 40
1.524
  9
$DIMJUST
 70
     0
  9
$DIMSD1
 70
     0
  9
$DIMSD2
 70
     0
  9
$DIMTOLJ
 70
     0
  9
$DIMTZIN
 70
     0
  9
$DIMALTZ
 70
     0
  9
$DIMALTTZ
 70
     0
  9
$DIMUPT
 70
     0
  9
$DIMDEC
 70
     2
  9
$DIMTDEC
 70
     3
  9
$DIMALTU
 70
     2
  9
$DIMALTTD
 70
     3
  9
$DIMTXSTY
  7
Standard
  9
$DIMAUNIT
 70
     0
  9
$DIMADEC
 70
     2
  9
$DIMALTRND
 40
0.0
  9
$DIMAZIN
 70
     0
  9
$DIMDSEP
 70
    44
  9
$DIMATFIT
 70
     3
  9
$DIMFRAC
 70
     0
  9
$DIMLDRBLK
  1

  9
$DIMLUNIT
 70
     2
  9
$DIMLWD
 70
    -2
  9
$DIMLWE
 70
    -2
  9
$DIMTMOVE
 70
     0
  9
$LUNITS
 70
     2
  9
$LUPREC
 70
     2
  9
$SKETCHINC
 40
1.0
  9
$FILLETRAD
 40
10.0
  9
$AUNITS
 70
     0
  9
$AUPREC
 70
     2
  9
$MENU
  1
.
  9
$ELEVATION
 40
0.0
  9
$PELEVATION
 40
0.0
  9
$THICKNESS
 40
0.0
  9
$LIMCHECK
 70
     0
  9
$CHAMFERA
 40
0.0
  9
$CHAMFERB
 40
0.0
  9
$CHAMFERC
 40
0.0
  9
$CHAMFERD
 40
0.0
  9
$SKPOLY
 70
     0
  9
$TDCREATE
 40
2457676.373401423
  9
$TDUCREATE
 40
2457676.29006809
  9
$TDUPDATE
 40
2457676.373402928
  9
$TDUUPDATE
 40
2457676.290069595
  9
$TDINDWG
 40
0.0000000116
  9
$TDUSRTIMER
 40
0.0000000116
  9
$USRTIMER
 70
     1
  9
$ANGBASE
 50
0.0
  9
$ANGDIR
 70
     0
  9
$PDMODE
 70
     0
  9
$PDSIZE
 40
-1.0
  9
$PLINEWID
 40
0.0
  9
$SPLFRAME
 70
     0
  9
$SPLINETYPE
 70
     6
  9
$SPLINESEGS
 70
     8
  9
$HANDSEED
  5
27B
  9
$SURFTAB1
 70
     6
  9
$SURFTAB2
 70
     6
  9
$SURFTYPE
 70
     6
  9
$SURFU
 70
     6
  9
$SURFV
 70
     6
  9
$UCSBASE
  2

  9
$UCSNAME
  2

  9
$UCSORG
 10
0.0
 20
0.0
 30
0.0
  9
$UCSXDIR
 10
1.0
 20
0.0
 30
0.0
  9
$UCSYDIR
 10
0.0
 20
1.0
 30
0.0
  9
$UCSORTHOREF
  2

  9
$UCSORTHOVIEW
 70
     0
  9
$UCSORGTOP
 10
0.0
 20
0.0
 30
0.0
  9
$UCSORGBOTTOM
 10
0.0
 20
0.0
 30
0.0
  9
$UCSORGLEFT
 10
0.0
 20
0.0
 30
0.0
  9
$UCSORGRIGHT
 10
0.0
 20
0.0
 30
0.0
  9
$UCSORGFRONT
 10
0.0
 20
0.0
 30
0.0
  9
$UCSORGBACK
 10
0.0
 20
0.0
 30
0.0
  9
$PUCSBASE
  2

  9
$PUCSNAME
  2

  9
$PUCSORG
 10
0.0
 20
0.0
 30
0.0
  9
$PUCSXDIR
 10
1.0
 20
0.0
 30
0.0
  9
$PUCSYDIR
 10
0.0
 20
1.0
 30
0.0
  9
$PUCSORTHOREF
  2

  9
$PUCSORTHOVIEW
 70
     0
  9
$PUCSORGTOP
 10
0.0
 20
0.0
 30
0.0
  9
$PUCSORGBOTTOM
 10
0.0
 20
0.0
 30
0.0
  9
$PUCSORGLEFT
 10
0.0
 20
0.0
 30
0.0
  9
$PUCSORGRIGHT
 10
0.0
 20
0.0
 30
0.0
  9
$PUCSORGFRONT
 10
0.0
 20
0.0
 30
0.0
  9
$PUCSORGBACK
 10
0.0
 20
0.0
 30
0.0
  9
$USERI1
 70
     0
  9
$USERI2
 70
     0
  9
$USERI3
 70
     0
  9
$USERI4
 70
     0
  9
$USERI5
 70
     0
  9
$USERR1
 40
0.0
  9
$USERR2
 40
0.0
  9
$USERR3
 40
0.0
  9
$USERR4
 40
0.0
  9
$USERR5
 40
0.0
  9
$WORLDVIEW
 70
     1
  9
$SHADEDGE
 70
     3
  9
$SHADEDIF
 70
    70
  9
$TILEMODE
 70
     1
  9
$MAXACTVP
 70
    64
  9
$PINSBASE
 10
0.0
 20
0.0
 30
0.0
  9
$PLIMCHECK
 70
     0
  9
$PEXTMIN
 10
1.0000000000E+20
 20
1.0000000000E+20
 30
1.0000000000E+20
  9
$PEXTMAX
 10
-1.0000000000E+20
 20
-1.0000000000E+20
 30
-1.0000000000E+20
  9
$PLIMMIN
 10
0.0
 20
0.0
  9
$PLIMMAX
 10
420.0
 20
297.0
  9
$UNITMODE
 70
     0
  9
$VISRETAIN
 70
     1
  9
$PLINEGEN
 70
     0
  9
$PSLTSCALE
 70
     1
  9
$TREEDEPTH
 70
  3020
  9
$CMLSTYLE
  2
Standard
  9
$CMLJUST
 70
     0
  9
$CMLSCALE
 40
20.0
  9
$PROXYGRAPHICS
 70
     1
  9
$MEASUREMENT
 70
     1
  9
$CELWEIGHT
370
    -1
  9
$ENDCAPS
280
     0
  9
$JOINSTYLE
280
     0
  9
$LWDISPLAY
290
     1
  9
$INSUNITS
 70
     4
  9
$HYPERLINKBASE
  1

  9
$STYLESHEET
  1

  9
$XEDIT
290
     1
  9
$CEPSNTYPE
380
     0
  9
$PSTYLEMODE
290
     1
  9
$FINGERPRINTGUID
  2
{58FE5D95-070A-4AA5-BC67-1631AE926889}
  9
$VERSIONGUID
  2
{FAEB1C32-E019-11D5-929B-00C0DF256EC4}
  9
$EXTNAMES
290
     1
  9
$PSVPSCALE
 40
0.0
  9
$OLESTARTUP
290
     0
  0
ENDSEC
  0
SECTION
  2
CLASSES
  0
CLASS
  1
ACDBDICTIONARYWDFLT
  2
AcDbDictionaryWithDefault
  3
ObjectDBX Classes
 90
        0
280
     0
281
     0
  0
CLASS
  1
VISUALSTYLE
  2
AcDbVisualStyle
  3
ObjectDBX Classes
 90
     4095
280
     0
281
     0
  0
CLASS
  1
MATERIAL
  2
AcDbMaterial
  3
ObjectDBX Classes
 90
     1153
280
     0
281
     0
  0
CLASS
  1
SCALE
  2
AcDbScale
  3
ObjectDBX Classes
 90
     1153
280
     0
281
     0
  0
CLASS
  1
TABLESTYLE
  2
AcDbTableStyle
  3
ObjectDBX Classes
 90
     4095
280
     0
281
     0
  0
CLASS
  1
MLEADERSTYLE
  2
AcDbMLeaderStyle
  3
ACDB_MLEADERSTYLE_CLASS
 90
     4095
280
     0
281
     0
  0
CLASS
  1
SUN
  2
AcDbSun
  3
SCENEOE
 90
     1153
280
     0
281
     0
  0
CLASS
  1
ACDBPLACEHOLDER
  2
AcDbPlaceHolder
  3
ObjectDBX Classes
 90
        0
280
     0
281
     0
  0
CLASS
  1
LAYOUT
  2
AcDbLayout
  3
ObjectDBX Classes
 90
        0
280
     0
281
     0
  0
ENDSEC
  0
SECTION
  2
TABLES
  0
TABLE
  2
VPORT
  5
8
330
0
100
AcDbSymbolTable
 70
     1
  0
VPORT
  5
29
330
8
100
AcDbSymbolTableRecord
100
AcDbViewportTableRecord
  2
*Active
 70
     0
 10
0.0
 20
0.0
 11
1.0
 21
1.0
 12
148.5
 22
105.0
 13
0.0
 23
0.0
 14
10.0
 24
10.0
 15
10.0
 25
10.0
 16
0.0
 26
0.0
 36
1.0
 17
0.0
 27
0.0
 37
0.0
 40
210.0
 41
1.4142857143
 42
50.0
 43
0.0
 44
0.0
 50
0.0
 51
0.0
 71
     0
 72
  2000
 73
     1
 74
     3
 75
     0
 76
     0
 77
     0
 78
     0
281
     0
 65
     1
110
0.0
120
0.0
130
0.0
111
1.0
121
0.0
131
0.0
112
0.0
122
1.0
132
0.0
 79
     0
146
0.0
  0
ENDTAB
  0
TABLE
  2
LTYPE
  5
5
330
0
100
AcDbSymbolTable
 70
     6
  0
LTYPE
  5
14
330
5
100
AcDbSymbolTableRecord
100
AcDbLinetypeTableRecord
  2
ByBlock
 70
     0
  3

 72
    65
 73
     0
 40
0.0
  0
LTYPE
  5
15
330
5
100
AcDbSymbolTableRecord
100
AcDbLinetypeTableRecord
  2
ByLayer
 70
     0
  3

 72
    65
 73
     0
 40
0.0
  0
LTYPE
  5
16
330
5
100
AcDbSymbolTableRecord
100
AcDbLinetypeTableRecord
  2
Continuous
 70
     0
  3
Solid line
 72
    65
 73
     0
 40
0.0
  0
LTYPE
  5
6E
330
5
100
AcDbSymbolTableRecord
100
AcDbLinetypeTableRecord
  2
HIDDEN
 70
     0
  3
Hidden __ __ __ __ __ __ __ __ __ __ __ __ __ __
 72
    65
 73
     2
 40
1.905
 49
1.27
 74
     0
 49
-0.635
 74
     0
  0
LTYPE
  5
6F
330
5
100
AcDbSymbolTableRecord
100
AcDbLinetypeTableRecord
  2
PHANTOM
 70
     0
  3
Phantom ______  __  __  ______  __  __  ______
 72
    65
 73
     6
 40
12.7
 49
6.35
 74
     0
 49
-1.27
 74
     0
 49
1.27
 74
     0
 49
-1.27
 74
     0
 49
1.27
 74
     0
 49
-1.27
 74
     0
  0
LTYPE
  5
70
330
5
100
AcDbSymbolTableRecord
100
AcDbLinetypeTableRecord
  2
CENTER
 70
     0
  3
Center ____ _ ____ _ ____ _ ____ _ ____ _ ____
 72
    65
 73
     4
 40
10.16
 49
6.35
 74
     0
 49
-1.27
 74
     0
 49
1.27
 74
     0
 49
-1.27
 74
     0
  0
LTYPE
  5
71
330
5
100
AcDbSymbolTableRecord
100
AcDbLinetypeTableRecord
  2
CENTERX2
 70
     0
  3
Center (2x) ________  __  ________  __  _____
 72
    65
 73
     4
 40
20.32
 49
12.7
 74
     0
 49
-2.54
 74
     0
 49
2.54
 74
     0
 49
-2.54
 74
     0
  0
LTYPE
  5
72
330
5
100
AcDbSymbolTableRecord
100
AcDbLinetypeTableRecord
  2
DOT2
 70
     0
  3
Dot (.5x) ........................................
 72
    65
 73
     2
 40
0.635
 49
0.0
 74
     0
 49
-0.635
 74
     0
  0
ENDTAB
  0
TABLE
  2
LAYER
  5
2
330
0
100
AcDbSymbolTable
 70
     5
  0
LAYER
  5
10
330
2
100
AcDbSymbolTableRecord
100
AcDbLayerTableRecord
  2
0
 70
     0
 62
     7
  6
Continuous
370
    -3
390
F
  0
LAYER
  5
73
330
2
100
AcDbSymbolTableRecord
100
AcDbLayerTableRecord
  2
FORMAT
 70
     0
 62
     7
  6
Continuous
370
    -3
390
F
  0
LAYER
  5
74
330
2
100
AcDbSymbolTableRecord
100
AcDbLayerTableRecord
  2
VERMASSUNG
 70
     0
 62
     7
  6
Continuous
370
    -3
390
F
  0
LAYER
  5
75
330
2
100
AcDbSymbolTableRecord
100
AcDbLayerTableRecord
  2
KOPF_DÜNN
 70
     0
 62
     7
  6
Continuous
370
    -3
390
F
  0
LAYER
  5
76
330
2
100
AcDbSymbolTableRecord
100
AcDbLayerTableRecord
  2
KOPF_DICK
 70
     0
 62
     7
  6
Continuous
370
    15
390
F
  0
ENDTAB
  0
TABLE
  2
STYLE
  5
3
330
0
100
AcDbSymbolTable
 70
     2
  0
STYLE
  5
11
330
3
100
AcDbSymbolTableRecord
100
AcDbTextStyleTableRecord
  2
Standard
 70
     0
 40
0.0
 41
1.0
 50
0.0
 71
     0
 42
2.0
  3
txt
  4

  0
STYLE
  5
77
330
3
100
AcDbSymbolTableRecord
100
AcDbTextStyleTableRecord
  2
SLDTEXTSTYLE0
 70
     0
 40
0.0
 41
0.7
 50
0.0
 71
     0
 42
2.0
  3
TXT
  4

  0
ENDTAB
  0
TABLE
  2
VIEW
  5
6
330
0
100
AcDbSymbolTable
 70
     0
  0
ENDTAB
  0
TABLE
  2
UCS
  5
7
330
0
100
AcDbSymbolTable
 70
     0
  0
ENDTAB
  0
TABLE
  2
APPID
  5
9
330
0
100
AcDbSymbolTable
 70
     1
  0
APPID
  5
12
330
9
100
AcDbSymbolTableRecord
100
AcDbRegAppTableRecord
  2
ACAD
 70
     0
  0
ENDTAB
  0
TABLE
  2
DIMSTYLE
  5
A
330
0
100
AcDbSymbolTable
 70
     2
100
AcDbDimStyleTable
  0
DIMSTYLE
105
27
330
A
100
AcDbSymbolTableRecord
100
AcDbDimStyleTableRecord
  2
ISO-25
 70
     0
 41
2.5
 42
0.625
 43
3.75
 44
1.25
 73
     0
 74
     0
 77
     1
 78
     8
140
2.5
141
2.5
143
0.0393700787
147
0.625
171
     3
172
     1
178
     0
271
     2
272
     2
274
     3
278
    44
283
     0
284
     8
340
11
  0
DIMSTYLE
105
1BF
102
{ACAD_REACTORS
330
1BE
330
1CB
330
1D5
330
1DF
330
1E9
330
1F4
102
}
330
A
100
AcDbSymbolTableRecord
100
AcDbDimStyleTableRecord
  2
SLDDIMSTYLE0
 70
     0
 41
3.0
 44
0.0
 45
0.000000001
 73
     0
 74
     0
 77
     1
 78
    12
 79
     3
140
2.0
147
0.5
173
     1
178
     0
271
     2
272
     3
276
     2
284
    12
340
77
  0
ENDTAB
  0
TABLE
  2
BLOCK_RECORD
  5
1
330
0
100
AcDbSymbolTable
 70
     7
  0
BLOCK_RECORD
  5
1F
330
1
100
AcDbSymbolTableRecord
100
AcDbBlockTableRecord
  2
*Model_Space
340
22
  0
BLOCK_RECORD
  5
1B
330
1
100
AcDbSymbolTableRecord
100
AcDbBlockTableRecord
  2
*Paper_Space
340
1E
  0
BLOCK_RECORD
  5
23
330
1
100
AcDbSymbolTableRecord
100
AcDbBlockTableRecord
  2
*Paper_Space0
340
26
  0
BLOCK_RECORD
  5
1C0
330
1
100
AcDbSymbolTableRecord
100
AcDbBlockTableRecord
  2
_D
340
0
  0
BLOCK_RECORD
  5
1CC
330
1
100
AcDbSymbolTableRecord
100
AcDbBlockTableRecord
  2
_D_1
340
0
  0
BLOCK_RECORD
  5
1D6
330
1
100
AcDbSymbolTableRecord
100
AcDbBlockTableRecord
  2
_D_2
340
0
  0
BLOCK_RECORD
  5
1E0
330
1
100
AcDbSymbolTableRecord
100
AcDbBlockTableRecord
  2
_D_3
340
0
  0
BLOCK_RECORD
  5
1EA
330
1
100
AcDbSymbolTableRecord
100
AcDbBlockTableRecord
  2
_D_4
340
0
  0
BLOCK_RECORD
  5
1F5
330
1
100
AcDbSymbolTableRecord
100
AcDbBlockTableRecord
  2
_D_5
340
0
  0
ENDTAB
  0
ENDSEC
  0
SECTION
  2
BLOCKS
  0
BLOCK
  5
20
330
1F
100
AcDbEntity
  8
0
100
AcDbBlockBegin
  2
*Model_Space
 70
     0
 10
0.0
 20
0.0
 30
0.0
  3
*Model_Space
  1

  0
ENDBLK
  5
21
330
1F
100
AcDbEntity
  8
0
100
AcDbBlockEnd
  0
BLOCK
  5
1C
330
1B
100
AcDbEntity
 67
     1
  8
0
100
AcDbBlockBegin
  2
*Paper_Space
 70
     0
 10
0.0
 20
0.0
 30
0.0
  3
*Paper_Space
  1

  0
ENDBLK
  5
1D
330
1B
100
AcDbEntity
 67
     1
  8
0
100
AcDbBlockEnd
  0
BLOCK
  5
24
330
23
100
AcDbEntity
  8
0
100
AcDbBlockBegin
  2
*Paper_Space0
 70
     0
 10
0.0
 20
0.0
 30
0.0
  3
*Paper_Space0
  1

  0
ENDBLK
  5
25
330
23
100
AcDbEntity
  8
0
100
AcDbBlockEnd
  0
BLOCK
  5
1C1
330
1C0
100
AcDbEntity
  8
0
100
AcDbBlockBegin
  2
_D
 70
     0
 10
0.0
 20
0.0
 30
0.0
  3
_D
  1

  0
SOLID
  5
1C3
330
1C0
100
AcDbEntity
  8
VERMASSUNG
100
AcDbTrace
 10
35.0628936207
 20
75.0223965797
 30
0.0
 11
35.5128936207
 21
78.0223965797
 31
0.0
 12
34.6128936207
 22
78.0223965797
 32
0.0
 13
34.6128936207
 23
78.0223965797
 33
0.0
  0
SOLID
  5
1C4
330
1C0
100
AcDbEntity
  8
VERMASSUNG
100
AcDbTrace
 10
35.0628936207
 20
175.0223965797
 30
0.0
 11
34.6128936207
 21
172.0223965797
 31
0.0
 12
35.5128936207
 22
172.0223965797
 32
0.0
 13
35.5128936207
 23
172.0223965797
 33
0.0
  0
LINE
  5
1C5
330
1C0
100
AcDbEntity
  8
VERMASSUNG
100
AcDbLine
 10
181.9635506753
 20
75.0223965797
 30
0.0
 11
34.0628936207
 21
75.0223965797
 31
0.0
  0
LINE
  5
1C6
330
1C0
100
AcDbEntity
  8
VERMASSUNG
100
AcDbLine
 10
181.9635506753
 20
175.0223965797
 30
0.0
 11
34.0628936207
 21
175.0223965797
 31
0.0
  0
LINE
  5
1C7
330
1C0
100
AcDbEntity
  8
VERMASSUNG
100
AcDbLine
 10
35.0628936207
 20
75.0223965797
 30
0.0
 11
35.0628936207
 21
175.0223965797
 31
0.0
  0
MTEXT
  5
1C8
330
1C0
100
AcDbEntity
  8
VERMASSUNG
100
AcDbMText
 10
32.2847583645
 20
113.8182585776
 30
0.0
 40
2.0
 41
0.0
 71
     1
 72
     1
  1
MAS-BT 50
  7
SLDTEXTSTYLE0
 11
3.391901413832837E-15
 21
1.0
 31
0.0
 73
     1
 44
1.0
  0
MTEXT
  5
1C9
330
1C0
100
AcDbEntity
  8
VERMASSUNG
100
AcDbMText
 10
32.4847583158
 20
128.8182582423
 30
0.0
 40
2.0
 41
0.0
 71
     1
 72
     1
  1
%%c
  7
SLDTEXTSTYLE0
 11
3.391901413832837E-15
 21
1.0
 31
0.0
 73
     1
 44
1.0
  0
MTEXT
  5
1CA
330
1C0
100
AcDbEntity
  8
VERMASSUNG
100
AcDbMText
 10
32.4847580247
 20
132.4278486909
 30
0.0
 40
2.0
 41
0.0
 71
     1
 72
     1
  1
100
  7
SLDTEXTSTYLE0
 11
3.391901413832837E-15
 21
1.0
 31
0.0
 73
     1
 44
1.0
  0
ENDBLK
  5
1C2
330
1C0
100
AcDbEntity
  8
0
100
AcDbBlockEnd
  0
BLOCK
  5
1CD
330
1CC
100
AcDbEntity
  8
0
100
AcDbBlockBegin
  2
_D_1
 70
     0
 10
0.0
 20
0.0
 30
0.0
  3
_D_1
  1

  0
SOLID
  5
1CF
330
1CC
100
AcDbEntity
  8
VERMASSUNG
100
AcDbTrace
 10
43.1635506753
 20
195.0493896026
 30
0.0
 11
46.1635506753
 21
194.5993896026
 31
0.0
 12
46.1635506753
 22
195.4993896026
 32
0.0
 13
46.1635506753
 23
195.4993896026
 33
0.0
  0
SOLID
  5
1D0
330
1CC
100
AcDbEntity
  8
VERMASSUNG
100
AcDbTrace
 10
248.9635506753
 20
195.0493896026
 30
0.0
 11
245.9635506753
 21
195.4993896026
 31
0.0
 12
245.9635506753
 22
194.5993896026
 32
0.0
 13
245.9635506753
 23
194.5993896026
 33
0.0
  0
LINE
  5
1D1
330
1CC
100
AcDbEntity
  8
VERMASSUNG
100
AcDbLine
 10
43.1635506753
 20
143.3720744404
 30
0.0
 11
43.1635506753
 21
196.0493896026
 31
0.0
  0
LINE
  5
1D2
330
1CC
100
AcDbEntity
  8
VERMASSUNG
100
AcDbLine
 10
248.9635506753
 20
164.2223965797
 30
0.0
 11
248.9635506753
 21
196.0493896026
 31
0.0
  0
LINE
  5
1D3
330
1CC
100
AcDbEntity
  8
VERMASSUNG
100
AcDbLine
 10
43.1635506753
 20
195.0493896026
 30
0.0
 11
248.9635506753
 21
195.0493896026
 31
0.0
  0
MTEXT
  5
1D4
330
1CC
100
AcDbEntity
  8
VERMASSUNG
100
AcDbMText
 10
142.9635508191
 20
197.6275251986
 30
0.0
 40
2.0
 41
0.0
 71
     1
 72
     1
  1
205.8
  7
SLDTEXTSTYLE0
 73
     1
 44
1.0
  0
ENDBLK
  5
1CE
330
1CC
100
AcDbEntity
  8
0
100
AcDbBlockEnd
  0
BLOCK
  5
1D7
330
1D6
100
AcDbEntity
  8
0
100
AcDbBlockBegin
  2
_D_2
 70
     0
 10
0.0
 20
0.0
 30
0.0
  3
_D_2
  1

  0
SOLID
  5
1D9
330
1D6
100
AcDbEntity
  8
VERMASSUNG
100
AcDbTrace
 10
144.9635506753
 20
189.0493896026
 30
0.0
 11
147.9635506753
 21
188.5993896026
 31
0.0
 12
147.9635506753
 22
189.4993896026
 32
0.0
 13
147.9635506753
 23
189.4993896026
 33
0.0
  0
SOLID
  5
1DA
330
1D6
100
AcDbEntity
  8
VERMASSUNG
100
AcDbTrace
 10
248.9635506753
 20
189.0493896026
 30
0.0
 11
245.9635506753
 21
189.4993896026
 31
0.0
 12
245.9635506753
 22
188.5993896026
 32
0.0
 13
245.9635506753
 23
188.5993896026
 33
0.0
  0
LINE
  5
1DB
330
1D6
100
AcDbEntity
  8
VERMASSUNG
100
AcDbLine
 10
144.9635506753
 20
159.9473965797
 30
0.0
 11
144.9635506753
 21
190.0493896026
 31
0.0
  0
LINE
  5
1DC
330
1D6
100
AcDbEntity
  8
VERMASSUNG
100
AcDbLine
 10
248.9635506753
 20
164.2223965797
 30
0.0
 11
248.9635506753
 21
190.0493896026
 31
0.0
  0
LINE
  5
1DD
330
1D6
100
AcDbEntity
  8
VERMASSUNG
100
AcDbLine
 10
144.9635506753
 20
189.0493896026
 30
0.0
 11
248.9635506753
 21
189.0493896026
 31
0.0
  0
MTEXT
  5
1DE
330
1D6
100
AcDbEntity
  8
VERMASSUNG
100
AcDbMText
 10
194.9635505803
 20
191.6275251986
 30
0.0
 40
2.0
 41
0.0
 71
     1
 72
     1
  1
104
  7
SLDTEXTSTYLE0
 73
     1
 44
1.0
  0
ENDBLK
  5
1D8
330
1D6
100
AcDbEntity
  8
0
100
AcDbBlockEnd
  0
BLOCK
  5
1E1
330
1E0
100
AcDbEntity
  8
0
100
AcDbBlockBegin
  2
_D_3
 70
     0
 10
0.0
 20
0.0
 30
0.0
  3
_D_3
  1

  0
SOLID
  5
1E3
330
1E0
100
AcDbEntity
  8
VERMASSUNG
100
AcDbTrace
 10
182.9635506753
 20
183.0493896026
 30
0.0
 11
185.9635506753
 21
182.5993896026
 31
0.0
 12
185.9635506753
 22
183.4993896026
 32
0.0
 13
185.9635506753
 23
183.4993896026
 33
0.0
  0
SOLID
  5
1E4
330
1E0
100
AcDbEntity
  8
VERMASSUNG
100
AcDbTrace
 10
248.9635506753
 20
183.0493896026
 30
0.0
 11
245.9635506753
 21
183.4993896026
 31
0.0
 12
245.9635506753
 22
182.5993896026
 32
0.0
 13
245.9635506753
 23
182.5993896026
 33
0.0
  0
LINE
  5
1E5
330
1E0
100
AcDbEntity
  8
VERMASSUNG
100
AcDbLine
 10
182.9635506753
 20
174.0223965797
 30
0.0
 11
182.9635506753
 21
184.0493896026
 31
0.0
  0
LINE
  5
1E6
330
1E0
100
AcDbEntity
  8
VERMASSUNG
100
AcDbLine
 10
248.9635506753
 20
164.2223965797
 30
0.0
 11
248.9635506753
 21
184.0493896026
 31
0.0
  0
LINE
  5
1E7
330
1E0
100
AcDbEntity
  8
VERMASSUNG
100
AcDbLine
 10
182.9635506753
 20
183.0493896026
 30
0.0
 11
248.9635506753
 21
183.0493896026
 31
0.0
  0
MTEXT
  5
1E8
330
1E0
100
AcDbEntity
  8
VERMASSUNG
100
AcDbMText
 10
214.5635507252
 20
185.6275251986
 30
0.0
 40
2.0
 41
0.0
 71
     1
 72
     1
  1
66
  7
SLDTEXTSTYLE0
 73
     1
 44
1.0
  0
ENDBLK
  5
1E2
330
1E0
100
AcDbEntity
  8
0
100
AcDbBlockEnd
  0
BLOCK
  5
1EB
330
1EA
100
AcDbEntity
  8
0
100
AcDbBlockBegin
  2
_D_4
 70
     0
 10
0.0
 20
0.0
 30
0.0
  3
_D_4
  1

  0
SOLID
  5
1ED
330
1EA
100
AcDbEntity
  8
VERMASSUNG
100
AcDbTrace
 10
257.9354127618
 20
143.0223965797
 30
0.0
 11
257.4854127618
 21
140.0223965797
 31
0.0
 12
258.3854127618
 22
140.0223965797
 32
0.0
 13
258.3854127618
 23
140.0223965797
 33
0.0
  0
SOLID
  5
1EE
330
1EA
100
AcDbEntity
  8
VERMASSUNG
100
AcDbTrace
 10
257.9354127618
 20
107.0223965797
 30
0.0
 11
258.3854127618
 21
110.0223965797
 31
0.0
 12
257.4854127618
 22
110.0223965797
 32
0.0
 13
257.4854127618
 23
110.0223965797
 33
0.0
  0
LINE
  5
1EF
330
1EA
100
AcDbEntity
  8
VERMASSUNG
100
AcDbLine
 10
247.9635506753
 20
143.0223965797
 30
0.0
 11
258.9354127618
 21
143.0223965797
 31
0.0
  0
LINE
  5
1F0
330
1EA
100
AcDbEntity
  8
VERMASSUNG
100
AcDbLine
 10
247.9635506753
 20
107.0223965797
 30
0.0
 11
258.9354127618
 21
107.0223965797
 31
0.0
  0
LINE
  5
1F1
330
1EA
100
AcDbEntity
  8
VERMASSUNG
100
AcDbLine
 10
257.9354127618
 20
143.0223965797
 30
0.0
 11
257.9354127618
 21
107.0223965797
 31
0.0
  0
MTEXT
  5
1F2
330
1EA
100
AcDbEntity
  8
VERMASSUNG
100
AcDbMText
 10
255.3572774569
 20
121.8173966224
 30
0.0
 40
2.0
 41
0.0
 71
     1
 72
     1
  1
%%c
  7
SLDTEXTSTYLE0
 11
-7.044195017643634E-15
 21
1.0
 31
0.0
 73
     1
 44
1.0
  0
MTEXT
  5
1F3
330
1EA
100
AcDbEntity
  8
VERMASSUNG
100
AcDbMText
 10
255.1572775056
 20
125.4273966367
 30
0.0
 40
2.0
 41
0.0
 71
     1
 72
     1
  1
36
  7
SLDTEXTSTYLE0
 11
-7.044195017643634E-15
 21
1.0
 31
0.0
 73
     1
 44
1.0
  0
ENDBLK
  5
1EC
330
1EA
100
AcDbEntity
  8
0
100
AcDbBlockEnd
  0
BLOCK
  5
1F6
330
1F5
100
AcDbEntity
  8
0
100
AcDbBlockBegin
  2
_D_5
 70
     0
 10
0.0
 20
0.0
 30
0.0
  3
_D_5
  1

  0
SOLID
  5
1F8
330
1F5
100
AcDbEntity
  8
VERMASSUNG
100
AcDbTrace
 10
263.6354127618
 20
165.0223965797
 30
0.0
 11
263.1854127618
 21
162.0223965797
 31
0.0
 12
264.0854127618
 22
162.0223965797
 32
0.0
 13
264.0854127618
 23
162.0223965797
 33
0.0
  0
SOLID
  5
1F9
330
1F5
100
AcDbEntity
  8
VERMASSUNG
100
AcDbTrace
 10
263.6354127618
 20
85.0223965797
 30
0.0
 11
264.0854127618
 21
88.0223965797
 31
0.0
 12
263.1854127618
 22
88.0223965797
 32
0.0
 13
263.1854127618
 23
88.0223965797
 33
0.0
  0
LINE
  5
1FA
330
1F5
100
AcDbEntity
  8
VERMASSUNG
100
AcDbLine
 10
248.1635506753
 20
165.0223965797
 30
0.0
 11
264.6354127618
 21
165.0223965797
 31
0.0
  0
LINE
  5
1FB
330
1F5
100
AcDbEntity
  8
VERMASSUNG
100
AcDbLine
 10
248.1635506753
 20
85.0223965797
 30
0.0
 11
264.6354127618
 21
85.0223965797
 31
0.0
  0
LINE
  5
1FC
330
1F5
100
AcDbEntity
  8
VERMASSUNG
100
AcDbLine
 10
263.6354127618
 20
165.0223965797
 30
0.0
 11
263.6354127618
 21
85.0223965797
 31
0.0
  0
MTEXT
  5
1FD
330
1F5
100
AcDbEntity
  8
VERMASSUNG
100
AcDbMText
 10
260.8572775056
 20
119.9173965904
 30
0.0
 40
2.0
 41
0.0
 71
     1
 72
     1
  1
WH
  7
SLDTEXTSTYLE0
 11
-7.044195017643634E-15
 21
1.0
 31
0.0
 73
     1
 44
1.0
  0
MTEXT
  5
1FE
330
1F5
100
AcDbEntity
  8
VERMASSUNG
100
AcDbMText
 10
261.0572774569
 20
123.7173966545
 30
0.0
 40
2.0
 41
0.0
 71
     1
 72
     1
  1
%%c
  7
SLDTEXTSTYLE0
 11
-7.044195017643634E-15
 21
1.0
 31
0.0
 73
     1
 44
1.0
  0
MTEXT
  5
1FF
330
1F5
100
AcDbEntity
  8
VERMASSUNG
100
AcDbMText
 10
260.8572775056
 20
127.3273966688
 30
0.0
 40
2.0
 41
0.0
 71
     1
 72
     1
  1
80
  7
SLDTEXTSTYLE0
 11
-7.044195017643634E-15
 21
1.0
 31
0.0
 73
     1
 44
1.0
  0
ENDBLK
  5
1F7
330
1F5
100
AcDbEntity
  8
0
100
AcDbBlockEnd
  0
ENDSEC
  0
SECTION
  2
ENTITIES
  0
MTEXT
  5
78
330
1F
100
AcDbEntity
  8
KOPF_DÜNN
100
AcDbMText
 10
13.8892156294
 20
23.8442973028
 30
0.0
 40
3.0
 41
0.0
 71
     1
 72
     1
  1
A34.550.080.104
  7
SLDTEXTSTYLE0
 73
     1
 44
1.0
  0
MTEXT
  5
79
330
1F
100
AcDbEntity
  8
VERMASSUNG
100
AcDbMText
 10
13.9329988022
 20
28.8834360957
 30
0.0
 40
3.0
 41
0.0
 71
     1
 72
     1
  1
Aufnahme_Master shank
  7
SLDTEXTSTYLE0
 73
     1
 44
1.0
  0
MTEXT
  5
7A
330
1F
100
AcDbEntity
  8
VERMASSUNG
100
AcDbMText
 10
98.8601118557
 20
13.8365368761
 30
0.0
 40
2.0
 41
0.0
 71
     1
 72
     1
  1
Datum: 18.11.2011
  7
SLDTEXTSTYLE0
 73
     1
 44
1.0
  0
MTEXT
  5
7B
330
1F
100
AcDbEntity
  8
VERMASSUNG
100
AcDbMText
 10
13.933048693
 20
18.0482802738
 30
0.0
 40
2.0
 41
0.0
 71
     1
 72
     1
  1
MAS-BT A/D
  7
SLDTEXTSTYLE0
 73
     1
 44
1.0
  0
MTEXT
  5
7C
330
1F
100
AcDbEntity
  8
VERMASSUNG
100
AcDbMText
 10
13.9808475933
 20
13.9090974274
 30
0.0
 40
2.0
 41
0.0
 71
     1
 72
     1
  1
Gewicht: 5881g
  7
SLDTEXTSTYLE0
 73
     1
 44
1.0
  0
LINE
  5
7D
330
1F
100
AcDbEntity
  8
0
  6
Continuous
 62
     7
370
    15
100
AcDbLine
 10
178.9632634486
 20
75.0223965797
 30
0.0
 11
181.9635506753
 21
75.0223965797
 31
0.0
  0
LINE
  5
7E
330
1F
100
AcDbEntity
  8
0
  6
Continuous
 62
     7
370
    15
100
AcDbLine
 10
181.9635506753
 20
175.0223965797
 30
0.0
 11
178.9631164943
 21
175.0223965797
 31
0.0
  0
ARC
  5
7F
330
1F
100
AcDbEntity
  8
0
  6
Continuous
 62
     7
370
    15
100
AcDbCircle
 10
181.9635506753
 20
76.0223965797
 30
0.0
 40
1.0
100
AcDbArc
 50
270.0
 51
0.0
  0
ARC
  5
80
330
1F
100
AcDbEntity
  8
0
  6
Continuous
 62
     7
370
    15
100
AcDbCircle
 10
181.9635506753
 20
174.0223965797
 30
0.0
 40
1.0
100
AcDbArc
 50
0.0
 51
90.0
  0
ARC
  5
81
330
1F
100
AcDbEntity
  8
0
  6
Continuous
 62
     7
370
    15
100
AcDbCircle
 10
185.9635506753
 20
82.0223965797
 30
0.0
 40
3.0
100
AcDbArc
 50
90.0
 51
180.0
  0
ARC
  5
82
330
1F
100
AcDbEntity
  8
0
  6
Continuous
 62
     7
370
    15
100
AcDbCircle
 10
185.9635506753
 20
168.0223965797
 30
0.0
 40
3.0
100
AcDbArc
 50
180.0
 51
270.0
  0
LINE
  5
83
330
1F
100
AcDbEntity
  8
0
  6
Continuous
 62
     7
370
    15
100
AcDbLine
 10
220.9439440919
 20
165.0223965797
 30
0.0
 11
185.9635506753
 21
165.0223965797
 31
0.0
  0
LINE
  5
84
330
1F
100
AcDbEntity
  8
0
  6
Continuous
 62
     7
370
    15
100
AcDbLine
 10
248.1635506753
 20
165.0223965797
 30
0.0
 11
240.9110903005
 21
165.0223965797
 31
0.0
  0
LINE
  5
85
330
1F
100
AcDbEntity
  8
0
  6
Continuous
 62
     7
370
    15
100
AcDbLine
 10
185.9635506753
 20
85.0223965797
 30
0.0
 11
248.1635506753
 21
85.0223965797
 31
0.0
  0
LINE
  5
86
330
1F
100
AcDbEntity
  8
0
  6
Continuous
 62
     7
370
    15
100
AcDbLine
 10
248.1635506753
 20
85.0223965797
 30
0.0
 11
248.9635506753
 21
85.8223965797
 31
0.0
  0
LINE
  5
87
330
1F
100
AcDbEntity
  8
0
  6
Continuous
 62
     7
370
    15
100
AcDbLine
 10
248.9635506753
 20
164.2223965797
 30
0.0
 11
248.1635506753
 21
165.0223965797
 31
0.0
  0
ARC
  5
88
330
1F
100
AcDbEntity
  8
0
  6
Continuous
 62
     7
370
    15
100
AcDbCircle
 10
146.9635506753
 20
89.0973965797
 30
0.0
 40
1.000000000000001
100
AcDbArc
 50
38.7236281536
 51
90.0
  0
ARC
  5
89
330
1F
100
AcDbEntity
  8
0
  6
Continuous
 62
     7
370
    15
100
AcDbCircle
 10
146.9635506753
 20
160.9473965797
 30
0.0
 40
1.0
100
AcDbArc
 50
270.0
 51
321.2804100885
  0
LINE
  5
8A
330
1F
100
AcDbEntity
  8
0
  6
Continuous
 62
     7
370
    15
100
AcDbLine
 10
144.9635506753
 20
90.0973965797
 30
0.0
 11
146.9635506753
 21
90.0973965797
 31
0.0
  0
LINE
  5
8B
330
1F
100
AcDbEntity
  8
0
  6
Continuous
 62
     7
370
    15
100
AcDbLine
 10
146.9635506753
 20
159.9473965797
 30
0.0
 11
144.9635506753
 21
159.9473965797
 31
0.0
  0
LINE
  5
8C
330
1F
100
AcDbEntity
  8
0
  6
Continuous
 62
     7
370
    15
100
AcDbLine
 10
144.9635506753
 20
159.9473965797
 30
0.0
 11
44.8749368891
 21
145.3511404025
 31
0.0
  0
LINE
  5
8D
330
1F
100
AcDbEntity
  8
0
  6
Continuous
 62
     7
370
    15
100
AcDbLine
 10
44.8749368891
 20
104.6936527568
 30
0.0
 11
144.9635506753
 21
90.0973965797
 31
0.0
  0
ARC
  5
8E
330
1F
100
AcDbEntity
  8
0
  6
Continuous
 62
     7
370
    15
100
AcDbCircle
 10
45.1635506753
 20
106.6727187189
 30
0.0
 40
2.00000000000002
100
AcDbArc
 50
180.0
 51
261.7028550302
  0
ARC
  5
8F
330
1F
100
AcDbEntity
  8
0
  6
Continuous
 62
     7
370
    15
100
AcDbCircle
 10
45.1635506753
 20
143.3720744404
 30
0.0
 40
2.00000000000002
100
AcDbArc
 50
98.2971449698
 51
180.0
  0
LINE
  5
90
330
1F
100
AcDbEntity
  8
0
  6
Continuous
 62
     7
370
    15
100
AcDbLine
 10
238.3617634713
 20
164.5741837836
 30
0.0
 11
237.9135506753
 21
165.0223965797
 31
0.0
  0
LINE
  5
91
330
1F
100
AcDbEntity
  8
0
  6
Continuous
 62
     7
370
    15
100
AcDbLine
 10
223.9135506753
 20
165.0223965797
 30
0.0
 11
223.4678208902
 21
164.5766667946
 31
0.0
  0
SPLINE
  5
92
330
1F
100
AcDbEntity
  8
0
  6
Continuous
 62
     7
370
    15
100
AcDbSpline
210
0.0
220
0.0
230
1.0
 70
     8
 71
     3
 72
    12
 73
     8
 74
     0
 42
0.000000001
 43
0.00000001
 40
0.0
 40
0.0
 40
0.0
 40
0.0
 40
0.4999999999999992
 40
0.4999999999999992
 40
0.7499999999999996
 40
0.7499999999999996
 40
1.0
 40
1.0
 40
1.0
 40
1.0
 10
175.0478303401202
 20
173.2284435313544
 30
0.0
 10
174.5089336450227
 20
172.1707437138533
 30
0.0
 10
173.946602834303
 20
171.0683752788947
 30
0.0
 10
173.0779365917126
 20
169.3684106725319
 30
0.0
 10
172.78360786937
 20
168.7928922570933
 30
0.0
 10
172.1900768704022
 20
167.6334635886347
 30
0.0
 10
171.8908506122838
 20
167.0495039195534
 30
0.0
 10
171.5893637640305
 20
166.4617939589646
 30
0.0
  0
SPLINE
  5
93
330
1F
100
AcDbEntity
  8
0
  6
Continuous
 62
     7
370
    15
100
AcDbSpline
210
0.0
220
0.0
230
1.0
 70
     8
 71
     3
 72
     9
 73
     5
 74
     0
 42
0.000000001
 43
0.00000001
 40
0.0
 40
0.0
 40
0.0
 40
0.0
 40
0.5047943291262357
 40
1.0
 40
1.0
 40
1.0
 40
1.0
 10
175.6885270806889
 20
174.1825018297408
 30
0.0
 10
175.5801446464624
 20
174.0216602688616
 30
0.0
 10
175.365438521665
 20
173.7030323612192
 30
0.0
 10
175.1530110928458
 20
173.3856581346159
 30
0.0
 10
175.0478158254455
 20
173.2284926178127
 30
0.0
  0
LINE
  5
94
330
1F
100
AcDbEntity
  8
0
  6
Continuous
 62
     7
370
    15
100
AcDbLine
 10
175.6885506753
 20
75.8622352943
 30
0.0
 11
175.6885506753
 21
174.182557865
 31
0.0
  0
SPLINE
  5
95
330
1F
100
AcDbEntity
  8
0
  6
Continuous
 62
     7
370
    15
100
AcDbSpline
210
0.0
220
0.0
230
1.0
 70
     8
 71
     3
 72
     9
 73
     5
 74
     0
 42
0.000000001
 43
0.00000001
 40
0.0
 40
0.0
 40
0.0
 40
0.0
 40
0.4952056703152484
 40
1.0
 40
1.0
 40
1.0
 40
1.0
 10
175.0478158254455
 20
76.81630054149397
 30
0.0
 10
175.1530110927259
 20
76.65913502487054
 30
0.0
 10
175.3654385215426
 20
76.34176079827209
 30
0.0
 10
175.5801446463417
 20
76.02313289062533
 30
0.0
 10
175.6885270806889
 20
75.86229132956593
 30
0.0
  0
SPLINE
  5
96
330
1F
100
AcDbEntity
  8
0
  6
Continuous
 62
     7
370
    15
100
AcDbSpline
210
0.0
220
0.0
230
1.0
 70
     8
 71
     3
 72
    12
 73
     8
 74
     0
 42
0.000000001
 43
0.00000001
 40
0.0
 40
0.0
 40
0.0
 40
0.0
 40
0.2499999999999993
 40
0.2499999999999993
 40
0.4999999999999986
 40
0.4999999999999986
 40
1.0
 40
1.0
 40
1.0
 40
1.0
 10
175.0478303078813
 20
76.81634969122815
 30
0.0
 10
174.7784927865124
 20
77.3449820799128
 30
0.0
 10
174.5027226691184
 20
77.88590673385949
 30
0.0
 10
173.9404623825127
 20
78.98796348822253
 30
0.0
 10
173.6533770091079
 20
79.55026032745936
 30
0.0
 10
172.7829505683886
 20
81.25365556277936
 30
0.0
 10
172.1909405722193
 20
82.41030233386144
 30
0.0
 10
171.5893637640304
 20
83.58299920034207
 30
0.0
  0
SPLINE
  5
97
330
1F
100
AcDbEntity
  8
0
  6
Continuous
 62
     7
370
    15
100
AcDbSpline
210
0.0
220
0.0
230
1.0
 70
     8
 71
     3
 72
    12
 73
     8
 74
     0
 42
0.000000001
 43
0.00000001
 40
0.0
 40
0.0
 40
0.0
 40
0.0
 40
0.0005125153354919
 40
0.2509311781591491
 40
0.5009716914396624
 40
0.7506335204375856
 40
1.0
 40
1.0
 40
1.0
 40
1.0
 10
178.9631164943467
 20
175.0222715374697
 30
0.0
 10
178.9632609510335
 20
175.0223132107871
 30
0.0
 10
179.0339879793236
 20
175.0427167653746
 30
0.0
 10
178.7907244190473
 20
174.9711051339879
 30
0.0
 10
178.1851998048421
 20
174.802751925516
 30
0.0
 10
177.160036120426
 20
174.5254183350604
 30
0.0
 10
176.1788522532012
 20
174.2967995857369
 30
0.0
 10
175.6885506759638
 20
174.1825578649712
 30
0.0
  0
SPLINE
  5
98
330
1F
100
AcDbEntity
  8
0
  6
Continuous
 62
     7
370
    15
100
AcDbSpline
210
0.0
220
0.0
230
1.0
 70
     8
 71
     3
 72
    13
 73
     9
 74
     0
 42
0.000000001
 43
0.00000001
 40
0.0
 40
0.0
 40
0.0
 40
0.0
 40
0.2492492380460214
 40
0.4988437701385547
 40
0.6658825660855477
 40
0.832025671123022
 40
0.9994886337290263
 40
1.0
 40
1.0
 40
1.0
 40
1.0
 10
175.6885506759638
 20
75.86223529433556
 30
0.0
 10
176.1797353993874
 20
75.74774777064351
 30
0.0
 10
177.1627853023197
 20
75.51861411952352
 30
0.0
 10
178.0618287271386
 20
75.27540436837512
 30
0.0
 10
178.6201536278193
 20
75.12146716099022
 30
0.0
 10
178.8858248525274
 20
75.04521360214159
 30
0.0
 10
178.9947190985466
 20
75.01329941781484
 30
0.0
 10
178.9633589187258
 20
75.02245233176063
 30
0.0
 10
178.9632634485529
 20
75.0224801960867
 30
0.0
  0
LINE
  5
99
330
1F
100
AcDbEntity
  8
0
  6
Continuous
 62
     7
370
    15
100
AcDbLine
 10
147.9635506753
 20
78.0205083197
 30
0.0
 11
147.9635506753
 21
172.0242848396
 31
0.0
  0
SPLINE
  5
9A
330
1F
100
AcDbEntity
  8
0
  6
Continuous
 62
     7
370
    15
100
AcDbSpline
210
0.0
220
0.0
230
1.0
 70
     8
 71
     3
 72
    12
 73
     8
 74
     0
 42
0.000000001
 43
0.00000001
 40
0.0
 40
0.0
 40
0.0
 40
0.0
 40
0.2500000000000001
 40
0.2500000000000001
 40
0.5000000000000002
 40
0.5000000000000002
 40
1.0
 40
1.0
 40
1.0
 40
1.0
 10
148.3496870953265
 20
172.9568303135246
 30
0.0
 10
148.2980569732167
 20
172.90062604281
 30
0.0
 10
148.2495247402263
 20
172.8393366322896
 30
0.0
 10
148.1596996032684
 20
172.7048745582449
 30
0.0
 10
148.117989330056
 20
172.630755488002
 30
0.0
 10
148.0118579498939
 20
172.3944478428336
 30
0.0
 10
147.9635506752768
 20
172.2126243001837
 30
0.0
 10
147.9635506752768
 20
172.0242848395946
 30
0.0
  0
SPLINE
  5
9B
330
1F
100
AcDbEntity
  8
0
  6
Continuous
 62
     7
370
    15
100
AcDbSpline
210
0.0
220
0.0
230
1.0
 70
     8
 71
     3
 72
     8
 73
     4
 74
     0
 42
0.000000001
 43
0.00000001
 40
0.0
 40
0.0
 40
0.0
 40
0.0
 40
1.0
 40
1.0
 40
1.0
 40
1.0
 10
148.9635506752768
 20
173.1274880751178
 30
0.0
 10
148.736656431577
 20
173.1274880751178
 30
0.0
 10
148.5188067856506
 20
173.0634759081489
 30
0.0
 10
148.3496870953265
 20
172.9568303135246
 30
0.0
  0
SPLINE
  5
9C
330
1F
100
AcDbEntity
  8
0
  6
Continuous
 62
     7
370
    15
100
AcDbSpline
210
0.0
220
0.0
230
1.0
 70
     8
 71
     3
 72
    10
 73
     6
 74
     0
 42
0.000000001
 43
0.00000001
 40
0.0
 40
0.0
 40
0.0
 40
0.0
 40
0.5
 40
0.5
 40
1.0
 40
1.0
 40
1.0
 40
1.0
 10
148.3496870953265
 20
77.0879628457821
 30
0.0
 10
148.4342977360572
 20
77.0346080171694
 30
0.0
 10
148.5295323581638
 20
76.99203855521921
 30
0.0
 10
148.7395697173437
 20
76.93275622053827
 30
0.0
 10
148.8500016221278
 20
76.91730508418898
 30
0.0
 10
148.9635506752768
 20
76.91730508418898
 30
0.0
  0
SPLINE
  5
9D
330
1F
100
AcDbEntity
  8
0
  6
Continuous
 62
     7
370
    15
100
AcDbSpline
210
0.0
220
0.0
230
1.0
 70
     8
 71
     3
 72
    12
 73
     8
 74
     0
 42
0.000000001
 43
0.00000001
 40
0.0
 40
0.0
 40
0.0
 40
0.0
 40
0.2500000000000039
 40
0.2500000000000039
 40
0.5000000000000079
 40
0.5000000000000079
 40
1.0
 40
1.0
 40
1.0
 40
1.0
 10
148.3496870953265
 20
77.0879628457821
 30
0.0
 10
148.2980569732167
 20
77.14416711649675
 30
0.0
 10
148.2495247402263
 20
77.20545652701716
 30
0.0
 10
148.1596996032684
 20
77.33991860106185
 30
0.0
 10
148.117989330056
 20
77.41403767130467
 30
0.0
 10
148.0118579498939
 20
77.65034531647314
 30
0.0
 10
147.9635506752768
 20
77.83216885912303
 30
0.0
 10
147.9635506752768
 20
78.02050831971214
 30
0.0
  0
LINE
  5
9E
330
1F
100
AcDbEntity
  8
0
  6
Continuous
 62
     7
370
    15
100
AcDbLine
 10
182.9635506753
 20
76.0223965797
 30
0.0
 11
182.9635506753
 21
174.0223879112
 31
0.0
  0
LINE
  5
9F
330
1F
100
AcDbEntity
  8
0
  6
Continuous
 62
     7
370
    15
100
AcDbLine
 10
160.6385506753
 20
173.1274880751
 30
0.0
 11
148.9635506753
 21
173.1274880751
 31
0.0
  0
LINE
  5
A0
330
1F
100
AcDbEntity
  8
0
  6
Continuous
 62
     7
370
    15
100
AcDbLine
 10
160.6385506753
 20
76.9173050842
 30
0.0
 11
160.6385506753
 21
173.1274880751
 31
0.0
  0
LINE
  5
A1
330
1F
100
AcDbEntity
  8
0
  6
Continuous
 62
     7
370
    15
100
AcDbLine
 10
148.9635506753
 20
76.9173050842
 30
0.0
 11
160.6385506753
 21
76.9173050842
 31
0.0
  0
SPLINE
  5
A2
330
1F
100
AcDbEntity
  8
0
  6
Continuous
 62
     7
370
    15
100
AcDbSpline
210
0.0
220
0.0
230
1.0
 70
     8
 71
     3
 72
     8
 73
     4
 74
     0
 42
0.000000001
 43
0.00000001
 40
0.0
 40
0.0
 40
0.0
 40
0.0
 40
0.0012417047560385
 40
0.0012417047560385
 40
0.0012417047560385
 40
0.0012417047560385
 10
161.1961197118045
 20
172.3429667335743
 30
0.0
 10
161.0107311605101
 20
172.6046398191229
 30
0.0
 10
160.8248649149022
 20
172.8661439280005
 30
0.0
 10
160.6385506752768
 20
173.1274880751178
 30
0.0
  0
SPLINE
  5
A3
330
1F
100
AcDbEntity
  8
0
  6
Continuous
 62
     7
370
    15
100
AcDbSpline
210
0.0
220
0.0
230
1.0
 70
     8
 71
     3
 72
     8
 73
     4
 74
     0
 42
0.000000001
 43
0.00000001
 40
0.0
 40
0.0
 40
0.0
 40
0.0
 40
1.0
 40
1.0
 40
1.0
 40
1.0
 10
164.7377375865231
 20
165.9526726598364
 30
0.0
 10
163.5627501106202
 20
168.0857494147722
 30
0.0
 10
162.3815035765238
 20
170.2154679806484
 30
0.0
 10
161.1961197118045
 20
172.3429667335743
 30
0.0
  0
SPLINE
  5
A4
330
1F
100
AcDbEntity
  8
0
  6
Continuous
 62
     7
370
    15
100
AcDbSpline
210
0.0
220
0.0
230
1.0
 70
     8
 71
     3
 72
     8
 73
     4
 74
     0
 42
0.000000001
 43
0.00000001
 40
0.0
 40
0.0
 40
0.0
 40
0.0
 40
1.0
 40
1.0
 40
1.0
 40
1.0
 10
164.7377375865231
 20
84.09212049947037
 30
0.0
 10
163.5627007886962
 20
81.95895420532503
 30
0.0
 10
162.3814535812572
 20
79.82923544834335
 30
0.0
 10
161.1961197118045
 20
77.70182642573239
 30
0.0
  0
SPLINE
  5
A5
330
1F
100
AcDbEntity
  8
0
  6
Continuous
 62
     7
370
    15
100
AcDbSpline
210
0.0
220
0.0
230
1.0
 70
     8
 71
     3
 72
     8
 73
     4
 74
     0
 42
0.000000001
 43
0.00000001
 40
0.0
 40
0.0
 40
0.0
 40
0.0
 40
0.0012417047560385
 40
0.0012417047560385
 40
0.0012417047560385
 40
0.0012417047560385
 10
160.6385506752768
 20
76.917305084189
 30
0.0
 10
160.8248649149022
 20
77.17864923130624
 30
0.0
 10
161.0107311605101
 20
77.44015334018384
 30
0.0
 10
161.1961197118045
 20
77.70182642573239
 30
0.0
  0
SPLINE
  5
A6
330
1F
100
AcDbEntity
  8
0
  6
Continuous
 62
     7
370
    15
100
AcDbSpline
210
0.0
220
0.0
230
1.0
 70
     8
 71
     3
 72
    12
 73
     8
 74
     0
 42
0.000000001
 43
0.00000001
 40
0.0
 40
0.0
 40
0.0
 40
0.0
 40
0.2500000000000049
 40
0.2500000000000049
 40
0.5000000000000098
 40
0.5000000000000098
 40
1.0
 40
1.0
 40
1.0
 40
1.0
 10
171.5893637640305
 20
166.4617939589646
 30
0.0
 10
171.5531433426435
 20
166.3911868908648
 30
0.0
 10
171.5102176679957
 20
166.3274522995391
 30
0.0
 10
171.4126910847367
 20
166.2116781232907
 30
0.0
 10
171.3572595651199
 20
166.1591302792792
 30
0.0
 10
171.1787716622158
 20
166.0249816760649
 30
0.0
 10
171.041934833568
 20
165.964459574001
 30
0.0
 10
170.8965434410036
 20
165.9439129900726
 30
0.0
  0
SPLINE
  5
A7
330
1F
100
AcDbEntity
  8
0
  6
Continuous
 62
     7
370
    15
100
AcDbSpline
210
0.0
220
0.0
230
1.0
 70
     8
 71
     3
 72
    12
 73
     8
 74
     0
 42
0.000000001
 43
0.00000001
 40
0.0
 40
0.0
 40
0.0
 40
0.0
 40
0.249999999999999
 40
0.249999999999999
 40
0.499999999999998
 40
0.499999999999998
 40
1.0
 40
1.0
 40
1.0
 40
1.0
 10
171.5893637640305
 20
83.58299920034207
 30
0.0
 10
171.5531433426435
 20
83.65360626844198
 30
0.0
 10
171.5102176679956
 20
83.7173408597677
 30
0.0
 10
171.4126910847366
 20
83.83311503601612
 30
0.0
 10
171.3572595651199
 20
83.88566288002755
 30
0.0
 10
171.1787716622157
 20
84.01981148324195
 30
0.0
 10
171.041934833568
 20
84.08033358530572
 30
0.0
 10
170.8965434410036
 20
84.10088016923415
 30
0.0
  0
SPLINE
  5
A8
330
1F
100
AcDbEntity
  8
0
  6
Continuous
 62
     7
370
    15
100
AcDbSpline
210
0.0
220
0.0
230
1.0
 70
     8
 71
     3
 72
    10
 73
     6
 74
     0
 42
0.000000001
 43
0.00000001
 40
0.0
 40
0.0
 40
0.0
 40
0.0
 40
0.5
 40
0.5
 40
1.0
 40
1.0
 40
1.0
 40
1.0
 10
165.1135506752767
 20
84.44286536550419
 30
0.0
 10
165.0345506070255
 20
84.40710113089631
 30
0.0
 10
164.9607933567489
 20
84.35761152733686
 30
0.0
 10
164.8327382336157
 20
84.23732303583392
 30
0.0
 10
164.779888199204
 20
84.16864088284457
 30
0.0
 10
164.7377375865231
 20
84.09212049947037
 30
0.0
  0
SPLINE
  5
A9
330
1F
100
AcDbEntity
  8
0
  6
Continuous
 62
     7
370
    15
100
AcDbSpline
210
0.0
220
0.0
230
1.0
 70
     8
 71
     3
 72
    10
 73
     6
 74
     0
 42
0.000000001
 43
0.00000001
 40
0.0
 40
0.0
 40
0.0
 40
0.0
 40
0.5
 40
0.5
 40
1.0
 40
1.0
 40
1.0
 40
1.0
 10
165.1135506752768
 20
165.6019277938025
 30
0.0
 10
165.034264227594
 20
165.637821675655
 30
0.0
 10
164.9607520084734
 20
165.687323385506
 30
0.0
 10
164.8337995556028
 20
165.8063710821746
 30
0.0
 10
164.7797337068661
 20
165.8764327424429
 30
0.0
 10
164.7377375865231
 20
165.9526726598363
 30
0.0
  0
SPLINE
  5
AA
330
1F
100
AcDbEntity
  8
0
  6
Continuous
 62
     7
370
    15
100
AcDbSpline
210
0.0
220
0.0
230
1.0
 70
     8
 71
     3
 72
     8
 73
     4
 74
     0
 42
0.000000001
 43
0.00000001
 40
0.0
 40
0.0
 40
0.0
 40
0.0
 40
1.0
 40
1.0
 40
1.0
 40
1.0
 10
165.4305579095506
 20
165.534468775316
 30
0.0
 10
165.320856124249
 20
165.5336103581167
 30
0.0
 10
165.2135091032645
 20
165.5566754699915
 30
0.0
 10
165.1135506752767
 20
165.6019277938023
 30
0.0
  0
SPLINE
  5
AB
330
1F
100
AcDbEntity
  8
0
  6
Continuous
 62
     7
370
    15
100
AcDbSpline
210
0.0
220
0.0
230
1.0
 70
     8
 71
     3
 72
     8
 73
     4
 74
     0
 42
0.000000001
 43
0.00000001
 40
0.0
 40
0.0
 40
0.0
 40
0.0
 40
1.0
 40
1.0
 40
1.0
 40
1.0
 10
165.4305579095506
 20
84.51032438399072
 30
0.0
 10
165.320856124249
 20
84.51118280119005
 30
0.0
 10
165.2135091032644
 20
84.48811768931526
 30
0.0
 10
165.1135506752767
 20
84.44286536550435
 30
0.0
  0
SPLINE
  5
AC
330
1F
100
AcDbEntity
  8
0
  6
Continuous
 62
     7
370
    15
100
AcDbSpline
210
0.0
220
0.0
230
1.0
 70
    11
 71
     3
 72
    66
 73
    62
 74
     0
 42
0.000000001
 43
0.00000001
 40
0.0
 40
0.0
 40
0.0
 40
0.0
 40
0.0312499999999999
 40
0.0312499999999999
 40
0.0624999999999999
 40
0.0624999999999999
 40
0.0937499999999998
 40
0.0937499999999998
 40
0.1249999999999997
 40
0.1249999999999997
 40
0.1562499999999997
 40
0.1562499999999997
 40
0.1874999999999996
 40
0.1874999999999996
 40
0.2187499999999995
 40
0.2187499999999995
 40
0.2499999999999994
 40
0.2499999999999994
 40
0.2812499999999994
 40
0.2812499999999994
 40
0.3124999999999993
 40
0.3124999999999993
 40
0.3437499999999992
 40
0.3437499999999992
 40
0.3749999999999992
 40
0.3749999999999992
 40
0.4062499999999991
 40
0.4062499999999991
 40
0.437499999999999
 40
0.437499999999999
 40
0.4687499999999989
 40
0.4687499999999989
 40
0.4999999999999989
 40
0.4999999999999989
 40
0.5312499999999988
 40
0.5312499999999988
 40
0.5624999999999988
 40
0.5624999999999988
 40
0.6249999999999987
 40
0.6249999999999987
 40
0.6562499999999988
 40
0.6562499999999988
 40
0.6874999999999989
 40
0.6874999999999989
 40
0.7187499999999991
 40
0.7187499999999991
 40
0.7499999999999992
 40
0.7499999999999992
 40
0.7812499999999993
 40
0.7812499999999993
 40
0.8124999999999996
 40
0.8124999999999996
 40
0.8437499999999997
 40
0.8437499999999997
 40
0.8749999999999998
 40
0.8749999999999998
 40
0.90625
 40
0.90625
 40
0.9375000000000001
 40
0.9375000000000001
 40
1.0
 40
1.0
 40
1.0
 40
1.0
 10
168.1635506752768
 20
108.16247926881
 30
0.0
 10
168.3287509659407
 20
108.16247926881
 30
0.0
 10
168.4911835072372
 20
108.1773852981678
 30
0.0
 10
168.8107416628272
 20
108.2358204769103
 30
0.0
 10
168.9695250008043
 20
108.280061529286
 30
0.0
 10
169.2722630172836
 20
108.3956530747085
 30
0.0
 10
169.4158421824179
 20
108.4664290449272
 30
0.0
 10
169.687571912286
 20
108.6338675768398
 30
0.0
 10
169.8162004758237
 20
108.7314068491605
 30
0.0
 10
170.0467662374909
 20
108.9448252093619
 30
0.0
 10
170.1502402387403
 20
109.061439861388
 30
0.0
 10
170.333000776666
 20
109.3151652254078
 30
0.0
 10
170.4106450328946
 20
109.4504580844765
 30
0.0
 10
170.5353376835847
 20
109.7308044398681
 30
0.0
 10
170.5833416641632
 20
109.8779253157041
 30
0.0
 10
170.6475734064815
 20
110.1799154200814
 30
0.0
 10
170.6634628505236
 20
110.3320391876507
 30
0.0
 10
170.6636377808788
 20
110.6385218304769
 30
0.0
 10
170.6474071295439
 20
110.7945077515426
 30
0.0
 10
170.5836259068343
 20
111.0970872205119
 30
0.0
 10
170.536433795438
 20
111.2444657319041
 30
0.0
 10
170.4112671777801
 20
111.5312544372818
 30
0.0
 10
170.3330076904051
 20
111.6702115388197
 30
0.0
 10
170.1520875070497
 20
111.9278051990877
 30
0.0
 10
170.0488022781259
 20
112.0480977427887
 30
0.0
 10
169.8155505360771
 20
112.2708185604354
 30
0.0
 10
169.6891366678115
 20
112.3697964644273
 30
0.0
 10
169.4184643971169
 20
112.5430133190364
 30
0.0
 10
169.2723826249527
 20
112.6179943565131
 30
0.0
 10
168.9694981794798
 20
112.7383225266089
 30
0.0
 10
168.81366781984
 20
112.7837062140981
 30
0.0
 10
168.4933223305746
 20
112.8451324745191
 30
0.0
 10
168.327612244603
 20
112.8608860960389
 30
0.0
 10
168.0012808559065
 20
112.8609983412943
 30
0.0
 10
167.8390937700795
 20
112.8458661113883
 30
0.0
 10
167.516718188871
 20
112.7846139982079
 30
0.0
 10
167.3587027148334
 20
112.7386072548326
 30
0.0
 10
166.9072918397579
 20
112.5597265255907
 30
0.0
 10
166.6282123827057
 20
112.3815744182917
 30
0.0
 10
166.2821386782073
 20
112.0520780020047
 30
0.0
 10
166.1764966622927
 20
111.9297051621647
 30
0.0
 10
165.9947131863219
 20
111.6713024580501
 30
0.0
 10
165.9178253629379
 20
111.5350708925018
 30
0.0
 10
165.7921708055676
 20
111.2486354306157
 30
0.0
 10
165.743862729653
 20
111.0983283460402
 30
0.0
 10
165.6800448442126
 20
110.7967604159557
 30
0.0
 10
165.6637166671698
 20
110.6438943534911
 30
0.0
 10
165.6633871771101
 20
110.3338792367477
 30
0.0
 10
165.6794836889447
 20
110.1810102363951
 30
0.0
 10
165.7427124262059
 20
109.8819774706202
 30
0.0
 10
165.7905490196165
 20
109.7339118741973
 30
0.0
 10
165.9158923375299
 20
109.4513548360518
 30
0.0
 10
165.9925890120551
 20
109.3177385039281
 30
0.0
 10
166.1736403787069
 20
109.0654486339959
 30
0.0
 10
166.2791159890678
 20
108.9461053249281
 30
0.0
 10
166.509642557744
 20
108.7324215454432
 30
0.0
 10
166.6353619953743
 20
108.6367615707835
 30
0.0
 10
166.9081288445711
 20
108.4680405017796
 30
0.0
 10
167.0538482209772
 20
108.3961732931264
 30
0.0
 10
167.5049173260852
 20
108.223522215858
 30
0.0
 10
167.833150093949
 20
108.16247926881
 30
0.0
 10
168.1635506752768
 20
108.16247926881
 30
0.0
  0
SPLINE
  5
AD
330
1F
100
AcDbEntity
  8
0
  6
Continuous
 62
     7
370
    15
100
AcDbSpline
210
0.0
220
0.0
230
1.0
 70
     8
 71
     3
 72
    10
 73
     6
 74
     0
 42
0.000000001
 43
0.00000001
 40
0.0
 40
0.0
 40
0.0
 40
0.0
 40
0.5
 40
0.5
 40
1.0
 40
1.0
 40
1.0
 40
1.0
 10
170.8965434410029
 20
165.9439129900754
 30
0.0
 10
170.0489790742346
 20
165.8241359380144
 30
0.0
 10
169.1682656385127
 20
165.7254457583506
 30
0.0
 10
167.3407093872972
 20
165.5841733521134
 30
0.0
 10
166.3872769841959
 20
165.5419551084358
 30
0.0
 10
165.4305579095506
 20
165.534468775316
 30
0.0
  0
SPLINE
  5
AE
330
1F
100
AcDbEntity
  8
0
  6
Continuous
 62
     7
370
    15
100
AcDbSpline
210
0.0
220
0.0
230
1.0
 70
     8
 71
     3
 72
    10
 73
     6
 74
     0
 42
0.000000001
 43
0.00000001
 40
0.0
 40
0.0
 40
0.0
 40
0.0
 40
0.5
 40
0.5
 40
1.0
 40
1.0
 40
1.0
 40
1.0
 10
170.8965434410029
 20
84.10088016923133
 30
0.0
 10
170.0489790742346
 20
84.22065722129237
 30
0.0
 10
169.1682656385127
 20
84.31934740095618
 30
0.0
 10
167.3407093872972
 20
84.46061980719332
 30
0.0
 10
166.3872769841959
 20
84.50283805087092
 30
0.0
 10
165.4305579095506
 20
84.51032438399072
 30
0.0
  0
SPLINE
  5
AF
330
1F
100
AcDbEntity
  8
0
  6
Continuous
 62
     7
370
    15
100
AcDbSpline
210
0.0
220
0.0
230
1.0
 70
     8
 71
     3
 72
    27
 73
    23
 74
     0
 42
0.000000001
 43
0.00000001
 40
0.0
 40
0.0
 40
0.0
 40
0.0
 40
0.0009769549132783
 40
0.0487009553736137
 40
0.0925069639341917
 40
0.1374834808473862
 40
0.183341737906573
 40
0.2302954063131126
 40
0.2810083734357364
 40
0.3329336692030508
 40
0.3888501407766713
 40
0.4462188863390817
 40
0.505257978322425
 40
0.5659625212210607
 40
0.6257652072992874
 40
0.6873529232129596
 40
0.7461353759490217
 40
0.8068694141134211
 40
0.861499364616871
 40
0.9181561066191605
 40
0.9663238041641236
 40
1.0
 40
1.0
 40
1.0
 40
1.0
 10
240.9110903005305
 20
165.0219070321121
 30
0.0
 10
240.9119083563029
 20
165.0220697980445
 30
0.0
 10
240.9526882296806
 20
165.0301836386166
 30
0.0
 10
240.809888774953
 20
165.0015828157852
 30
0.0
 10
240.4773284967451
 20
164.9363455718139
 30
0.0
 10
239.9218105327348
 20
164.8318343129371
 30
0.0
 10
239.173576211938
 20
164.7003920903351
 30
0.0
 10
238.2210398826014
 20
164.5484031720524
 30
0.0
 10
237.0721046172661
 20
164.3885792480097
 30
0.0
 10
235.7153786333433
 20
164.2337339571168
 30
0.0
 10
234.1867308904462
 20
164.1040055382136
 30
0.0
 10
232.5089055019778
 20
164.0177251621767
 30
0.0
 10
230.7416877099004
 20
163.9906115551503
 30
0.0
 10
228.9542598545358
 20
164.0305844479164
 30
0.0
 10
227.197199295086
 20
164.1350944282586
 30
0.0
 10
225.5639138473958
 20
164.2899133700117
 30
0.0
 10
224.0801517248288
 20
164.4773723230115
 30
0.0
 10
222.8552311830143
 20
164.6654645852064
 30
0.0
 10
221.8884596677542
 20
164.8342570836906
 30
0.0
 10
221.2687295568641
 20
164.9518539079774
 30
0.0
 10
220.9446559088122
 20
165.0161516171602
 30
0.0
 10
220.94415159939
 20
165.0162788478362
 30
0.0
 10
220.9439440918758
 20
165.0163311992699
 30
0.0
  0
SPLINE
  5
B0
330
1F
100
AcDbEntity
  8
0
  6
Continuous
 62
     7
370
    15
100
AcDbSpline
210
0.0
220
0.0
230
1.0
 70
    11
 71
     3
 72
    95
 73
    91
 74
     0
 42
0.000000001
 43
0.00000001
 40
0.0
 40
0.0
 40
0.0
 40
0.0
 40
0.0312500000000001
 40
0.0312500000000001
 40
0.0468749999999998
 40
0.0468749999999998
 40
0.0624999999999994
 40
0.0624999999999994
 40
0.0937499999999982
 40
0.0937499999999982
 40
0.1093749999999979
 40
0.1093749999999979
 40
0.1249999999999976
 40
0.1249999999999976
 40
0.156249999999997
 40
0.156249999999997
 40
0.1718749999999971
 40
0.1718749999999971
 40
0.1874999999999971
 40
0.1874999999999971
 40
0.2187499999999966
 40
0.2187499999999966
 40
0.2343749999999966
 40
0.2343749999999966
 40
0.2499999999999966
 40
0.2499999999999966
 40
0.2812499999999967
 40
0.2812499999999967
 40
0.3124999999999967
 40
0.3124999999999967
 40
0.3437499999999968
 40
0.3437499999999968
 40
0.3593749999999967
 40
0.3593749999999967
 40
0.3749999999999967
 40
0.3906249999999967
 40
0.3906249999999967
 40
0.4062499999999967
 40
0.4062499999999967
 40
0.4374999999999966
 40
0.4374999999999966
 40
0.4531249999999963
 40
0.4531249999999963
 40
0.4687499999999962
 40
0.4687499999999962
 40
0.4999999999999962
 40
0.4999999999999962
 40
0.5312499999999962
 40
0.5312499999999962
 40
0.5468749999999963
 40
0.5468749999999963
 40
0.5624999999999963
 40
0.5624999999999963
 40
0.593749999999997
 40
0.593749999999997
 40
0.6249999999999978
 40
0.6249999999999978
 40
0.6562499999999984
 40
0.6562499999999984
 40
0.6874999999999992
 40
0.6874999999999992
 40
0.7031249999999996
 40
0.7031249999999996
 40
0.7187499999999999
 40
0.7187499999999999
 40
0.7500000000000007
 40
0.7500000000000007
 40
0.7656250000000008
 40
0.7656250000000008
 40
0.7812500000000009
 40
0.7812500000000009
 40
0.8125000000000007
 40
0.8125000000000007
 40
0.8281250000000007
 40
0.8281250000000007
 40
0.8437500000000007
 40
0.8437500000000007
 40
0.8750000000000007
 40
0.8750000000000007
 40
0.8906250000000007
 40
0.8906250000000007
 40
0.9062500000000007
 40
0.9062500000000007
 40
0.9218750000000008
 40
0.9218750000000008
 40
0.9375000000000008
 40
0.9375000000000008
 40
0.9687500000000003
 40
0.9687500000000003
 40
1.0
 40
1.0
 40
1.0
 40
1.0
 10
224.2067843947685
 20
131.6707922096876
 30
0.0
 10
224.6913451779683
 20
132.065182174848
 30
0.0
 10
225.2056232696476
 20
132.4073823691512
 30
0.0
 10
226.0180396326716
 20
132.8496312394853
 30
0.0
 10
226.2957364752499
 20
132.9851011078623
 30
0.0
 10
226.8649390591909
 20
133.2322432972688
 30
0.0
 10
227.1579009520207
 20
133.344363036919
 30
0.0
 10
228.0457847589205
 20
133.6402696364926
 30
0.0
 10
228.6483083759631
 20
133.7842304078339
 30
0.0
 10
229.5674349582549
 20
133.9235811777976
 30
0.0
 10
229.8763839423942
 20
133.9571788967169
 30
0.0
 10
230.4995294675932
 20
133.9982119042777
 30
0.0
 10
230.8143530769823
 20
134.0055025687309
 30
0.0
 10
231.7489671575471
 20
133.9875348313489
 30
0.0
 10
232.3647006560349
 20
133.9233984301437
 30
0.0
 10
233.2774143214929
 20
133.7496042384948
 30
0.0
 10
233.5798270709839
 20
133.6786609850012
 30
0.0
 10
234.1808859046927
 20
133.509825453824
 30
0.0
 10
234.4789779201887
 20
133.4119156143736
 30
0.0
 10
235.3497384373328
 20
133.0831622311564
 30
0.0
 10
235.9050877038784
 20
132.8160793427148
 30
0.0
 10
236.6997539392957
 20
132.341540107287
 30
0.0
 10
236.9582083276547
 20
132.1709596845509
 30
0.0
 10
237.4615643751517
 20
131.8035052986196
 30
0.0
 10
237.7046205821518
 20
131.6077988273462
 30
0.0
 10
238.3975693710754
 20
130.9929086672705
 30
0.0
 10
238.8159768976828
 20
130.5431643710927
 30
0.0
 10
239.5605157232597
 20
129.558256505752
 30
0.0
 10
239.8880321301905
 20
129.016994006884
 30
0.0
 10
240.4079624399301
 20
127.8960109645055
 30
0.0
 10
240.6056749184338
 20
127.3112901936985
 30
0.0
 10
240.8012846505652
 20
126.3946688898794
 30
0.0
 10
240.8492275104664
 20
126.0820483865876
 30
0.0
 10
240.9075497049654
 20
125.4615890756976
 30
0.0
 10
240.929481966963
 20
124.8413729200519
 30
0.0
 10
240.879505961568
 20
124.2216374191107
 30
0.0
 10
240.7928621395561
 20
123.6021468228725
 30
0.0
 10
240.7308220754377
 20
123.2922222153665
 30
0.0
 10
240.4950391258704
 20
122.3874018644608
 30
0.0
 10
240.2713393618646
 20
121.8087193474143
 30
0.0
 10
239.8398784411747
 20
120.9758204690153
 30
0.0
 10
239.6806033108406
 20
120.7057504097688
 30
0.0
 10
239.3377254801222
 20
120.1883719818417
 30
0.0
 10
239.1534391328633
 20
119.9397151743068
 30
0.0
 10
238.5634907938624
 20
119.2225405938001
 30
0.0
 10
238.1162127078626
 20
118.7793402182404
 30
0.0
 10
237.1565577757431
 20
117.9948743952492
 30
0.0
 10
236.6429652428391
 20
117.6504410850676
 30
0.0
 10
235.823483299421
 20
117.2023759694583
 30
0.0
 10
235.541303972426
 20
117.0643380361787
 30
0.0
 10
234.9707635982358
 20
116.8159645057876
 30
0.0
 10
234.6812585514451
 20
116.7049217168896
 30
0.0
 10
233.800380650074
 20
116.4099650646379
 30
0.0
 10
233.1967482094815
 20
116.2638924088625
 30
0.0
 10
231.9559332730249
 20
116.0745649201615
 30
0.0
 10
231.3342805582645
 20
116.0338674449519
 30
0.0
 10
230.0948693923526
 20
116.0561945383253
 30
0.0
 10
229.4742801309339
 20
116.1193942418423
 30
0.0
 10
228.2423442116486
 20
116.3534518654994
 30
0.0
 10
227.6455505290654
 20
116.5212240879007
 30
0.0
 10
226.7783890412984
 20
116.8476674806458
 30
0.0
 10
226.4940365858418
 20
116.969028454509
 30
0.0
 10
225.9349893894117
 20
117.2376669764747
 30
0.0
 10
225.6590257832383
 20
117.3857201364813
 30
0.0
 10
224.8558792411865
 20
117.8654385422998
 30
0.0
 10
224.3576860366854
 20
118.2289212091528
 30
0.0
 10
223.6667335967273
 20
118.8410901771425
 30
0.0
 10
223.4458718118792
 20
119.0563825740544
 30
0.0
 10
223.0240417905393
 20
119.5107621284742
 30
0.0
 10
222.8219378372972
 20
119.7514898879264
 30
0.0
 10
222.2597717854966
 20
120.4963704672569
 30
0.0
 10
221.9411736957334
 20
121.0240264420891
 30
0.0
 10
221.5508519290084
 20
121.8644273391157
 30
0.0
 10
221.4354486881809
 20
122.1527727527683
 30
0.0
 10
221.2361533731691
 20
122.7471265019418
 30
0.0
 10
221.1533132292656
 20
123.050771420498
 30
0.0
 10
220.9598319894672
 20
123.96324157887
 30
0.0
 10
220.9012121190933
 20
124.5805172730463
 30
0.0
 10
220.922919260135
 20
125.5204200100876
 30
0.0
 10
220.9489077217158
 20
125.8358226425943
 30
0.0
 10
221.0362602890036
 20
126.4536843864215
 30
0.0
 10
221.0976043435671
 20
126.7584082228317
 30
0.0
 10
221.2546829682983
 20
127.359682731517
 30
0.0
 10
221.3504191206988
 20
127.6562329940754
 30
0.0
 10
221.5764560732642
 20
128.2411435995355
 30
0.0
 10
221.7060747388865
 20
128.5272605931274
 30
0.0
 10
222.136379231404
 20
129.354798248834
 30
0.0
 10
222.4801448198829
 20
129.8712009184843
 30
0.0
 10
223.2768893272479
 20
130.8369927442504
 30
0.0
 10
223.7222236115687
 20
131.2764022445272
 30
0.0
 10
224.2067843947685
 20
131.6707922096876
 30
0.0
  0
LINE
  5
B1
330
1F
100
AcDbEntity
  8
0
  6
Continuous
 62
     7
370
    15
100
AcDbLine
 10
248.1635506753
 20
125.0223965797
 30
0.0
 11
248.1635506753
 21
85.0223965797
 31
0.0
  0
LINE
  5
B2
330
1F
100
AcDbEntity
  8
0
  6
Continuous
 62
     7
370
    15
100
AcDbLine
 10
248.1635506753
 20
165.0223965797
 30
0.0
 11
248.1635506753
 21
125.0223965797
 31
0.0
  0
LINE
  5
B3
330
1F
100
AcDbEntity
  8
0
  6
Continuous
 62
     7
370
    15
100
AcDbLine
 10
248.9635506753
 20
125.0223965797
 30
0.0
 11
248.9635506753
 21
85.8223965797
 31
0.0
  0
LINE
  5
B4
330
1F
100
AcDbEntity
  8
0
  6
Continuous
 62
     7
370
    15
100
AcDbLine
 10
248.9635506753
 20
164.2223965797
 30
0.0
 11
248.9635506753
 21
125.0223965797
 31
0.0
  0
CIRCLE
  5
B5
330
1F
100
AcDbEntity
  8
0
  6
Continuous
 62
     7
370
    15
100
AcDbCircle
 10
230.9135506753
 20
125.0223965797
 30
0.0
 40
7.25
  0
LINE
  5
B6
330
1F
100
AcDbEntity
  8
0
  6
Continuous
 62
     7
370
    15
100
AcDbLine
 10
144.9635506753
 20
90.0973965797
 30
0.0
 11
144.9635506753
 21
159.9473965797
 31
0.0
  0
LINE
  5
B7
330
1F
100
AcDbEntity
  8
0
  6
Continuous
 62
     7
370
    15
100
AcDbLine
 10
43.1635506753
 20
106.6727187189
 30
0.0
 11
43.1635506753
 21
143.3720744354
 31
0.0
  0
SPLINE
  5
B8
330
1F
100
AcDbEntity
  8
0
  6
Continuous
 62
     7
370
    15
100
AcDbSpline
210
0.0
220
0.0
230
1.0
 70
    24
 71
     3
 72
    11
 73
     7
 74
     0
 42
0.000000001
 43
0.00000001
 40
0.0
 40
0.0
 40
0.0
 40
0.0
 40
0.2164567244934223
 40
0.4403141600939235
 40
0.7519028444798747
 40
1.0
 40
1.0
 40
1.0
 40
1.0
 10
231.5325721210254
 20
120.4452636579396
 30
0.0
 10
231.7829038317416
 20
120.6387564727415
 30
0.0
 10
232.2921261587764
 20
121.0323576714711
 30
0.0
 10
233.2371040708248
 20
121.7627742679331
 30
0.0
 10
234.2507562399197
 20
122.5462723348265
 30
0.0
 10
234.8994307795222
 20
123.04766251907
 30
0.0
 10
235.1869747848532
 20
123.2699184163023
 30
0.0
  0
SPLINE
  5
B9
330
1F
100
AcDbEntity
  8
0
  6
Continuous
 62
     7
370
    15
100
AcDbSpline
210
0.0
220
0.0
230
1.0
 70
    24
 71
     3
 72
    11
 73
     7
 74
     0
 42
0.000000001
 43
0.00000001
 40
0.0
 40
0.0
 40
0.0
 40
0.0
 40
0.1845133558519084
 40
0.5180565039163871
 40
0.8676122830485017
 40
1.0
 40
1.0
 40
1.0
 40
1.0
 10
235.1869747848532
 20
123.2699184163023
 30
0.0
 10
235.1510250732242
 20
123.535735715127
 30
0.0
 10
235.0500893884476
 20
124.2820685747392
 30
0.0
 10
234.8619479777652
 20
125.6732130184195
 30
0.0
 10
234.6871274106686
 20
126.965861243365
 30
0.0
 10
234.5936352235985
 20
127.6571558185377
 30
0.0
 10
234.5679533391045
 20
127.8470513380161
 30
0.0
  0
SPLINE
  5
BA
330
1F
100
AcDbEntity
  8
0
  6
Continuous
 62
     7
370
    15
100
AcDbSpline
210
0.0
220
0.0
230
1.0
 70
    24
 71
     3
 72
    11
 73
     7
 74
     0
 42
0.000000001
 43
0.00000001
 40
0.0
 40
0.0
 40
0.0
 40
0.0
 40
0.2164567244934236
 40
0.4403141600939136
 40
0.751902844479881
 40
1.0
 40
1.0
 40
1.0
 40
1.0
 10
234.5679533391046
 20
127.8470513380161
 30
0.0
 10
234.2752177906783
 20
127.9670985514682
 30
0.0
 10
233.6797379901009
 20
128.2112974234898
 30
0.0
 10
232.5746897061949
 20
128.6644640031078
 30
0.0
 10
231.3893343919018
 20
129.1505634986986
 30
0.0
 10
230.6307804853375
 20
129.4616370366607
 30
0.0
 10
230.2945292295279
 20
129.5995295013672
 30
0.0
  0
SPLINE
  5
BB
330
1F
100
AcDbEntity
  8
0
  6
Continuous
 62
     7
370
    15
100
AcDbSpline
210
0.0
220
0.0
230
1.0
 70
    24
 71
     3
 72
    11
 73
     7
 74
     0
 42
0.000000001
 43
0.00000001
 40
0.0
 40
0.0
 40
0.0
 40
0.0
 40
0.1323877169514954
 40
0.4819434960836141
 40
0.8154866441480888
 40
1.0
 40
1.0
 40
1.0
 40
1.0
 10
226.6401265657
 20
126.7748747430045
 30
0.0
 10
226.665808450194
 20
126.5849792235261
 30
0.0
 10
226.7593006372641
 20
125.8936846483534
 30
0.0
 10
226.9341212043606
 20
124.6010364234079
 30
0.0
 10
227.122262615043
 20
123.2098919797275
 30
0.0
 10
227.2231982998197
 20
122.4635591201153
 30
0.0
 10
227.2591480114488
 20
122.1977418212907
 30
0.0
  0
CIRCLE
  5
BC
330
1F
100
AcDbEntity
  8
0
  6
Continuous
 62
     7
370
    15
100
AcDbCircle
 10
230.9135506753
 20
125.0223965797
 30
0.0
 40
4.700000000000021
  0
SPLINE
  5
BD
330
1F
100
AcDbEntity
  8
0
  6
Continuous
 62
     7
370
    15
100
AcDbSpline
210
0.0
220
0.0
230
1.0
 70
    24
 71
     3
 72
    11
 73
     7
 74
     0
 42
0.000000001
 43
0.00000001
 40
0.0
 40
0.0
 40
0.0
 40
0.0
 40
0.2164567244934088
 40
0.4403141600939171
 40
0.751902844479876
 40
1.0
 40
1.0
 40
1.0
 40
1.0
 10
230.2945292295279
 20
129.5995295013672
 30
0.0
 10
230.0441975188117
 20
129.4060366865653
 30
0.0
 10
229.5349751917769
 20
129.0124354878357
 30
0.0
 10
228.5899972797286
 20
128.2820188913737
 30
0.0
 10
227.5763451106336
 20
127.4985208244804
 30
0.0
 10
226.9276705710311
 20
126.9971306402368
 30
0.0
 10
226.6401265657
 20
126.7748747430045
 30
0.0
  0
SPLINE
  5
BE
330
1F
100
AcDbEntity
  8
0
  6
Continuous
 62
     7
370
    15
100
AcDbSpline
210
0.0
220
0.0
230
1.0
 70
    24
 71
     3
 72
    11
 73
     7
 74
     0
 42
0.000000001
 43
0.00000001
 40
0.0
 40
0.0
 40
0.0
 40
0.0
 40
0.2164567244934163
 40
0.4403141600939103
 40
0.7519028444798774
 40
1.0
 40
1.0
 40
1.0
 40
1.0
 10
227.2591480114488
 20
122.1977418212907
 30
0.0
 10
227.5518835598751
 20
122.0776946078386
 30
0.0
 10
228.1473633604524
 20
121.8334957358171
 30
0.0
 10
229.2524116443583
 20
121.380329156199
 30
0.0
 10
230.4377669586515
 20
120.8942296606083
 30
0.0
 10
231.1963208652159
 20
120.5831561226461
 30
0.0
 10
231.5325721210254
 20
120.4452636579396
 30
0.0
  0
CIRCLE
  5
BF
330
1F
100
AcDbEntity
  8
0
  6
Continuous
 62
     7
370
    15
100
AcDbCircle
 10
230.9135506753
 20
125.0223965797
 30
0.0
 40
7.000000000000001
  0
ARC
  5
C0
330
1F
100
AcDbEntity
  8
0
  6
Continuous
 62
     7
370
    15
100
AcDbCircle
 10
230.9135506753
 20
125.0223965797
 30
0.0
 40
3.999999999999969
100
AcDbArc
 50
187.7020750007
 51
247.7020750007
  0
ARC
  5
C1
330
1F
100
AcDbEntity
  8
0
  6
Continuous
 62
     7
370
    15
100
AcDbCircle
 10
230.9135506753
 20
125.0223965797
 30
0.0
 40
4.000000000000021
100
AcDbArc
 50
7.7020750007
 51
67.7020750007
  0
ARC
  5
C2
330
1F
100
AcDbEntity
  8
0
  6
Continuous
 62
     7
370
    15
100
AcDbCircle
 10
230.9135506753
 20
125.0223965797
 30
0.0
 40
4.000000000000016
100
AcDbArc
 50
67.7020750007
 51
127.7020750007
  0
ARC
  5
C3
330
1F
100
AcDbEntity
  8
0
  6
Continuous
 62
     7
370
    15
100
AcDbCircle
 10
230.9135506753
 20
125.0223965797
 30
0.0
 40
4.000000000000044
100
AcDbArc
 50
247.7020750007
 51
307.7020750007
  0
ARC
  5
C4
330
1F
100
AcDbEntity
  8
0
  6
Continuous
 62
     7
370
    15
100
AcDbCircle
 10
230.9135506753
 20
125.0223965797
 30
0.0
 40
4.000000000000008
100
AcDbArc
 50
127.7020750007
 51
187.7020750007
  0
ARC
  5
C5
330
1F
100
AcDbEntity
  8
0
  6
Continuous
 62
     7
370
    15
100
AcDbCircle
 10
230.9135506753
 20
125.0223965797
 30
0.0
 40
4.000000000000044
100
AcDbArc
 50
307.7020750007
 51
7.7020750007
  0
LINE
  5
C6
330
1F
100
AcDbEntity
  8
0
  6
Continuous
 62
     7
370
    15
100
AcDbLine
 10
229.8038917825
 20
164.0223965797
 30
0.0
 11
232.1410968473
 21
164.0223965797
 31
0.0
  0
LINE
  5
C7
330
1F
100
AcDbEntity
  8
0
  6
Continuous
 62
     7
370
    15
100
AcDbLine
 10
223.9135506753
 20
165.0223965797
 30
0.0
 11
237.9135506753
 21
165.0223965797
 31
0.0
  0
LWPOLYLINE
  5
C8
330
1F
100
AcDbEntity
  8
0
  6
Continuous
 62
     7
370
    15
100
AcDbPolyline
 90
       20
 70
   128
 43
0.0
 10
168.7373568389
 20
112.7204048435
 10
167.9343815108
 20
112.7744463252
 10
167.1562402176
 20
112.5805577089
 10
166.4872566425
 20
112.1597498348
 10
165.9999255363
 20
111.5576237654
 10
165.7470567859
 20
110.8394292035
 10
165.7560526443
 20
110.0829936736
 10
166.0259382705
 20
109.3702887027
 10
166.5274673692
 20
108.7785469333
 10
167.2062914806
 20
108.3718927677
 10
167.9888494791
 20
108.1943934949
 10
168.790339063
 20
108.2652839151
 10
169.5239063995
 20
108.5768819514
 10
170.1100580852
 20
109.0954211215
 10
170.4852754898
 20
109.7647096605
 10
170.6088979855
 20
110.51221977
 10
170.4675291566
 20
111.2569471309
 10
170.0764885094
 20
111.918188978
 10
169.4781513656
 20
112.4242894969
 10
168.7373568389
 20
112.7204048435
  0
LINE
  5
C9
330
1F
100
AcDbEntity
  8
0
  6
Continuous
 62
     7
370
    15
100
AcDbLine
 10
166.5022241961
 20
110.0261924394
 30
0.0
 11
167.7571464925
 21
108.9043828272
 31
0.0
  0
LINE
  5
CA
330
1F
100
AcDbEntity
  8
0
  6
Continuous
 62
     7
370
    15
100
AcDbLine
 10
169.4184729716
 20
109.3647308761
 30
0.0
 11
167.7571464925
 21
108.9043828272
 31
0.0
  0
LINE
  5
CB
330
1F
100
AcDbEntity
  8
0
  6
Continuous
 62
     7
370
    15
100
AcDbLine
 10
169.8248771544
 20
110.9468885372
 30
0.0
 11
169.4184729716
 21
109.3647308761
 31
0.0
  0
LINE
  5
CC
330
1F
100
AcDbEntity
  8
0
  6
Continuous
 62
     7
370
    15
100
AcDbLine
 10
169.8248771544
 20
110.9468885372
 30
0.0
 11
168.5699548581
 21
112.0686981495
 31
0.0
  0
LINE
  5
CD
330
1F
100
AcDbEntity
  8
0
  6
Continuous
 62
     7
370
    15
100
AcDbLine
 10
166.9086283789
 20
111.6083501005
 30
0.0
 11
168.5699548581
 21
112.0686981495
 31
0.0
  0
LINE
  5
CE
330
1F
100
AcDbEntity
  8
0
  6
Continuous
 62
     7
370
    15
100
AcDbLine
 10
166.9086283789
 20
111.6083501005
 30
0.0
 11
166.5022241961
 21
110.0261924394
 31
0.0
  0
LINE
  5
CF
330
1F
100
AcDbEntity
  8
0
  6
Continuous
 62
     7
370
    15
100
AcDbLine
 10
169.4184729716
 20
110.0487711627
 30
0.0
 11
169.4184729716
 21
109.3647308761
 31
0.0
  0
LINE
  5
D0
330
1F
100
AcDbEntity
  8
0
  6
Continuous
 62
     7
370
    15
100
AcDbLine
 10
169.681981513
 20
111.0746268877
 30
0.0
 11
169.4184729716
 21
110.0487711627
 31
0.0
  0
LINE
  5
D1
330
1F
100
AcDbEntity
  8
0
  6
Continuous
 62
     7
370
    15
100
AcDbLine
 10
166.6451198375
 20
110.5824943756
 30
0.0
 11
167.7571464925
 21
109.5884231138
 31
0.0
  0
LINE
  5
D2
330
1F
100
AcDbEntity
  8
0
  6
Continuous
 62
     7
370
    15
100
AcDbLine
 10
167.7571464925
 20
109.5884231138
 30
0.0
 11
167.7571464925
 21
108.9043828272
 31
0.0
  0
LINE
  5
D3
330
1F
100
AcDbEntity
  8
0
  6
Continuous
 62
     7
370
    15
100
AcDbLine
 10
169.4184729716
 20
110.0487711627
 30
0.0
 11
167.7571464925
 21
109.5884231138
 31
0.0
  0
SPLINE
  5
D4
330
1F
100
AcDbEntity
  8
0
  6
HIDDEN
 62
     7
370
     0
100
AcDbSpline
210
0.0
220
0.0
230
1.0
 70
     8
 71
     3
 72
     9
 73
     5
 74
     0
 42
0.000000001
 43
0.00000001
 40
0.0
 40
0.0
 40
0.0
 40
0.0
 40
0.3267154957258129
 40
1.0
 40
1.0
 40
1.0
 40
1.0
 10
177.5875181328877
 20
75.39863614347792
 30
0.0
 10
177.4307252596205
 20
75.44071837117262
 30
0.0
 10
176.9508188109876
 20
75.56952226399447
 30
0.0
 10
176.1966072773836
 20
75.7445489103816
 30
0.0
 10
175.6888083388631
 20
75.86239163922912
 30
0.0
  0
LWPOLYLINE
  5
D5
330
1F
100
AcDbEntity
  8
0
  6
HIDDEN
 62
     7
370
     0
100
AcDbPolyline
 90
       22
 70
   128
 43
0.0
 10
148.2329377871
 20
110.9932417771
 10
148.4294127631
 20
110.1220021211
 10
148.7355463085
 20
109.3281759319
 10
149.1241371144
 20
108.6822981501
 10
149.5606571823
 20
108.241757851
 10
150.0063197887
 20
108.0456989733
 10
150.421525855
 20
108.1115422089
 10
150.7693825004
 20
108.4334370972
 10
151.0189811352
 20
108.9827818649
 10
151.1481438254
 20
109.7107648185
 10
151.1453938993
 20
110.5527014779
 10
151.0109756997
 20
111.4337820762
 10
150.7568328736
 20
112.2757187356
 10
150.4055471264
 20
113.0037016892
 10
149.9883317383
 20
113.5530464569
 10
149.5422581275
 20
113.8749413452
 10
149.1069618919
 20
113.9407845808
 10
148.7211210122
 20
113.7447257032
 10
148.4190191438
 20
113.304185404
 10
148.2274993636
 20
112.6583076222
 10
148.1635790444
 20
111.864481433
 10
148.2329377871
 20
110.9932417771
  0
LWPOLYLINE
  5
D6
330
1F
100
AcDbEntity
  8
0
  6
HIDDEN
 62
     7
370
     0
100
AcDbPolyline
 90
       19
 70
   128
 43
0.0
 10
148.9458083758
 20
111.0492600953
 10
149.1141632983
 20
110.3415980201
 10
149.382999252
 20
109.7192904351
 10
149.7198906533
 20
109.2573968194
 10
150.0842034273
 20
109.0116283599
 10
150.4319960767
 20
109.0116283599
 10
150.721319675
 20
109.2573968194
 10
150.9172775265
 20
109.7192904351
 10
150.9962342221
 20
110.3415980201
 10
150.9486664192
 20
111.0492600953
 10
150.7803114967
 20
111.7569221705
 10
150.5114755429
 20
112.3792297555
 10
150.1745841416
 20
112.8411233712
 10
149.8102713676
 20
113.0868918307
 10
149.4624787183
 20
113.0868918307
 10
149.1731551199
 20
112.8411233712
 10
148.9771972684
 20
112.3792297555
 10
148.8982405728
 20
111.7569221705
 10
148.9458083758
 20
111.0492600953
  0
SPLINE
  5
D7
330
1F
100
AcDbEntity
  8
0
  6
HIDDEN
 62
     7
370
     0
100
AcDbSpline
210
0.0
220
0.0
230
1.0
 70
    11
 71
     3
 72
    66
 73
    62
 74
     0
 42
0.000000001
 43
0.00000001
 40
0.0
 40
0.0
 40
0.0
 40
0.0
 40
0.0312500000000001
 40
0.0312500000000001
 40
0.0625000000000002
 40
0.0625000000000002
 40
0.0937500000000003
 40
0.0937500000000003
 40
0.1250000000000004
 40
0.1250000000000004
 40
0.1875000000000006
 40
0.1875000000000006
 40
0.2187500000000006
 40
0.2187500000000006
 40
0.2500000000000007
 40
0.2500000000000007
 40
0.2812500000000008
 40
0.2812500000000008
 40
0.3125000000000008
 40
0.3125000000000008
 40
0.3437500000000008
 40
0.3437500000000008
 40
0.3750000000000008
 40
0.3750000000000008
 40
0.4062500000000008
 40
0.4062500000000008
 40
0.4375000000000008
 40
0.4375000000000008
 40
0.4687500000000008
 40
0.4687500000000008
 40
0.5000000000000008
 40
0.5000000000000008
 40
0.5312500000000008
 40
0.5312500000000008
 40
0.5625000000000008
 40
0.5625000000000008
 40
0.5937500000000008
 40
0.5937500000000008
 40
0.6250000000000008
 40
0.6250000000000008
 40
0.6562500000000008
 40
0.6562500000000008
 40
0.6875000000000008
 40
0.6875000000000008
 40
0.7187500000000008
 40
0.7187500000000008
 40
0.7500000000000007
 40
0.7500000000000007
 40
0.8125000000000008
 40
0.8125000000000008
 40
0.8437500000000007
 40
0.8437500000000007
 40
0.8750000000000006
 40
0.8750000000000006
 40
0.9062500000000004
 40
0.9062500000000004
 40
0.9375000000000003
 40
0.9375000000000003
 40
0.9687500000000002
 40
0.9687500000000002
 40
1.0
 40
1.0
 40
1.0
 40
1.0
 10
168.1635506752768
 20
120.8076653872155
 30
0.0
 10
167.9963452888305
 20
120.8076653872155
 30
0.0
 10
167.8323678997118
 20
120.8206340702364
 30
0.0
 10
167.5104517693342
 20
120.8714778708352
 30
0.0
 10
167.3508459843788
 20
120.9100509091045
 30
0.0
 10
167.0492783158502
 20
121.0104656235083
 30
0.0
 10
166.9065529492512
 20
121.0720972725502
 30
0.0
 10
166.6364043484119
 20
121.2194263923176
 30
0.0
 10
166.5102285050843
 20
121.3047937455507
 30
0.0
 10
166.168483084345
 20
121.5897099967455
 30
0.0
 10
165.9828811162239
 20
121.8248758048273
 30
0.0
 10
165.7944759395154
 20
122.2229262462984
 30
0.0
 10
165.7453377102414
 20
122.3659639673598
 30
0.0
 10
165.6801646792204
 20
122.6609439007909
 30
0.0
 10
165.663745342212
 20
122.8122571693534
 30
0.0
 10
165.6633594163209
 20
123.1228090283651
 30
0.0
 10
165.6799695175539
 20
123.2826863895384
 30
0.0
 10
165.7445898603554
 20
123.5947822549525
 30
0.0
 10
165.7925730247666
 20
123.7492944461197
 30
0.0
 10
165.9196385904564
 20
124.0525854203645
 30
0.0
 10
165.9968326696399
 20
124.1970716279908
 30
0.0
 10
166.1773079149317
 20
124.4719797336811
 30
0.0
 10
166.2818031998992
 20
124.603431435555
 30
0.0
 10
166.5103071918173
 20
124.8421812598159
 30
0.0
 10
166.6345965449502
 20
124.950426920164
 30
0.0
 10
166.9042110240744
 20
125.1434718391437
 30
0.0
 10
167.0493323035422
 20
125.2275779604241
 30
0.0
 10
167.3490744263033
 20
125.3631898849945
 30
0.0
 10
167.50514366816
 20
125.4158458450774
 30
0.0
 10
167.8309644568068
 20
125.4878387112798
 30
0.0
 10
167.9958028956641
 20
125.5058986271138
 30
0.0
 10
168.3249904156672
 20
125.5063539922223
 30
0.0
 10
168.4920335564315
 20
125.4883690109832
 30
0.0
 10
168.8161340641438
 20
125.4174976345044
 30
0.0
 10
168.9726505724892
 20
125.3652955969868
 30
0.0
 10
169.2752211992455
 20
125.2290489351092
 30
0.0
 10
169.420382250977
 20
125.1449818161682
 30
0.0
 10
169.6891134889768
 20
124.9531347197922
 30
0.0
 10
169.814973638892
 20
124.8439575058297
 30
0.0
 10
170.0451661393615
 20
124.6036942060228
 30
0.0
 10
170.1476378184708
 20
124.4748352736438
 30
0.0
 10
170.3282035345045
 20
124.2006354475063
 30
0.0
 10
170.4069372692694
 20
124.0534328674872
 30
0.0
 10
170.5331203275065
 20
123.7530558225081
 30
0.0
 10
170.5811647790286
 20
123.5997173723053
 30
0.0
 10
170.6465435987437
 20
123.2870504678826
 30
0.0
 10
170.663422015452
 20
123.1270582350847
 30
0.0
 10
170.6638057383068
 20
122.6621781554164
 30
0.0
 10
170.5968415353728
 20
122.3596832344501
 30
0.0
 10
170.4082906879088
 20
121.9597056162198
 30
0.0
 10
170.3297749669882
 20
121.8327534461054
 30
0.0
 10
170.1487500418438
 20
121.6013602931815
 30
0.0
 10
170.0462215209676
 20
121.4960823444201
 30
0.0
 10
169.8167071676014
 20
121.3045775480677
 30
0.0
 10
169.6903265444176
 20
121.2192778766378
 30
0.0
 10
169.422248575031
 20
121.0729712312487
 30
0.0
 10
169.2793519215284
 20
121.0109775670691
 30
0.0
 10
168.9748162652603
 20
120.9095688629162
 30
0.0
 10
168.8183816174298
 20
120.8718628434466
 30
0.0
 10
168.4970914310752
 20
120.8208964886535
 30
0.0
 10
168.3307560617231
 20
120.8076653872155
 30
0.0
 10
168.1635506752768
 20
120.8076653872155
 30
0.0
  0
SPLINE
  5
D8
330
1F
100
AcDbEntity
  8
0
  6
HIDDEN
 62
     7
370
     0
100
AcDbSpline
210
0.0
220
0.0
230
1.0
 70
    11
 71
     3
 72
    66
 73
    62
 74
     0
 42
0.000000001
 43
0.00000001
 40
0.0
 40
0.0
 40
0.0
 40
0.0
 40
0.0312499999999997
 40
0.0312499999999997
 40
0.0624999999999994
 40
0.0624999999999994
 40
0.0937499999999991
 40
0.0937499999999991
 40
0.1249999999999988
 40
0.1249999999999988
 40
0.1562499999999985
 40
0.1562499999999985
 40
0.1874999999999982
 40
0.1874999999999982
 40
0.2187499999999979
 40
0.2187499999999979
 40
0.2343749999999976
 40
0.2343749999999976
 40
0.2499999999999973
 40
0.2499999999999973
 40
0.2812499999999973
 40
0.2812499999999973
 40
0.3124999999999972
 40
0.3124999999999972
 40
0.3749999999999972
 40
0.3749999999999972
 40
0.4374999999999972
 40
0.4374999999999972
 40
0.4687499999999973
 40
0.4687499999999973
 40
0.4999999999999974
 40
0.4999999999999974
 40
0.5312499999999976
 40
0.5312499999999976
 40
0.5624999999999978
 40
0.5624999999999978
 40
0.5937499999999979
 40
0.5937499999999979
 40
0.624999999999998
 40
0.624999999999998
 40
0.6874999999999983
 40
0.6874999999999983
 40
0.7499999999999986
 40
0.7499999999999986
 40
0.7812499999999988
 40
0.7812499999999988
 40
0.8124999999999989
 40
0.8124999999999989
 40
0.843749999999999
 40
0.843749999999999
 40
0.859374999999999
 40
0.859374999999999
 40
0.874999999999999
 40
0.874999999999999
 40
0.9062499999999992
 40
0.9062499999999992
 40
0.9374999999999994
 40
0.9374999999999994
 40
0.9687499999999998
 40
0.9687499999999998
 40
1.0
 40
1.0
 40
1.0
 40
1.0
 10
165.7445756150571
 20
114.3664357542427
 30
0.0
 10
165.7049853274172
 20
114.5200492739336
 30
0.0
 10
165.6797243367356
 20
114.6722927015336
 30
0.0
 10
165.6585794307208
 20
114.9743976182821
 30
0.0
 10
165.6632271428144
 20
115.124877762124
 30
0.0
 10
165.7019208106
 20
115.4073220354226
 30
0.0
 10
165.7362177696947
 20
115.5427687303958
 30
0.0
 10
165.8305285556441
 20
115.7919121289728
 30
0.0
 10
165.8896750959373
 20
115.9044035459956
 30
0.0
 10
166.0280112806296
 20
116.1055704812308
 30
0.0
 10
166.1066477965803
 20
116.1928246374226
 30
0.0
 10
166.2712013485952
 20
116.3350342563719
 30
0.0
 10
166.359136044857
 20
116.391497184249
 30
0.0
 10
166.5267145912078
 20
116.4664060997955
 30
0.0
 10
166.6073114680152
 20
116.4852160189066
 30
0.0
 10
166.7021538334768
 20
116.4806481424333
 30
0.0
 10
166.7290781388987
 20
116.4737738869544
 30
0.0
 10
166.7716068139499
 20
116.4496837191282
 30
0.0
 10
166.7870931030221
 20
116.4322760671785
 30
0.0
 10
166.8145174297103
 20
116.3683836908919
 30
0.0
 10
166.808154826178
 20
116.309213920159
 30
0.0
 10
166.7655046906426
 20
116.1757941121037
 30
0.0
 10
166.7300090833457
 20
116.1012387013417
 30
0.0
 10
166.6014717361757
 20
115.8588819700699
 30
0.0
 10
166.4902983167368
 20
115.6776899939107
 30
0.0
 10
166.2615725011145
 20
115.2739915508737
 30
0.0
 10
166.1405073175076
 20
115.0479668855606
 30
0.0
 10
165.9723933429553
 20
114.6694351486294
 30
0.0
 10
165.9180531263296
 20
114.5353566444361
 30
0.0
 10
165.8194280520886
 20
114.2531766980857
 30
0.0
 10
165.7754252105265
 20
114.1064780253154
 30
0.0
 10
165.7046387829745
 20
113.7960612439228
 30
0.0
 10
165.6794486365188
 20
113.6375568141852
 30
0.0
 10
165.658534662154
 20
113.3261932395857
 30
0.0
 10
165.6634965039069
 20
113.1784748609565
 30
0.0
 10
165.7016706222647
 20
112.9149728619845
 30
0.0
 10
165.7345069479641
 20
112.8004339429461
 30
0.0
 10
165.8152394102762
 20
112.6094682464775
 30
0.0
 10
165.8633411172181
 20
112.5312845585111
 30
0.0
 10
166.0197835139355
 20
112.3374893805716
 30
0.0
 10
166.1365729736798
 20
112.2637142265438
 30
0.0
 10
166.371629945763
 20
112.1806652697631
 30
0.0
 10
166.4874275327225
 20
112.1735218768475
 30
0.0
 10
166.6381282364314
 20
112.2052958942773
 30
0.0
 10
166.6844480241867
 20
112.2231933462759
 30
0.0
 10
166.7605312350469
 20
112.2767928666674
 30
0.0
 10
166.7899173905494
 20
112.3123120372318
 30
0.0
 10
166.8133784237772
 20
112.4064214120347
 30
0.0
 10
166.8063387799711
 20
112.465541885849
 30
0.0
 10
166.7573410830914
 20
112.5754491152665
 30
0.0
 10
166.7344880385137
 20
112.6160923405736
 30
0.0
 10
166.6791455208419
 20
112.7023998244277
 30
0.0
 10
166.6465563854148
 20
112.7484413276844
 30
0.0
 10
166.5377579105545
 20
112.8962201358841
 30
0.0
 10
166.4531371889023
 20
113.0046887382023
 30
0.0
 10
166.2829489600977
 20
113.2387356008476
 30
0.0
 10
166.1963188851519
 20
113.3657465655886
 30
0.0
 10
166.0372028838112
 20
113.6314325270615
 30
0.0
 10
165.9628889895224
 20
113.7730094396365
 30
0.0
 10
165.836560167777
 20
114.0637402654541
 30
0.0
 10
165.784165902697
 20
114.2128222345517
 30
0.0
 10
165.7445756150571
 20
114.3664357542427
 30
0.0
  0
LINE
  5
D9
330
1F
100
AcDbEntity
  8
0
  6
HIDDEN
 62
     7
370
     0
100
AcDbLine
 10
224.2067843948
 20
164.4660128776
 30
0.0
 11
225.1183929786
 21
164.3535769581
 31
0.0
  0
SPLINE
  5
DA
330
1F
100
AcDbEntity
  8
0
  6
HIDDEN
 62
     7
370
     0
100
AcDbSpline
210
0.0
220
0.0
230
1.0
 70
     8
 71
     3
 72
    11
 73
     7
 74
     0
 42
0.000000001
 43
0.00000001
 40
0.0
 40
0.0
 40
0.0
 40
0.0
 40
0.1304888561681746
 40
0.4865304885065546
 40
0.8527287918817746
 40
1.0
 40
1.0
 40
1.0
 40
1.0
 10
220.9439440918758
 20
165.0163311992699
 30
0.0
 10
220.9351808159728
 20
165.0180732686037
 30
0.0
 10
220.9025067545148
 20
165.0245686113396
 30
0.0
 10
221.1002618719444
 20
164.9854456577207
 30
0.0
 10
221.3864271645278
 20
164.9285877221597
 30
0.0
 10
221.6823720247635
 20
164.8746796318363
 30
0.0
 10
221.7672537093187
 20
164.8592179356468
 30
0.0
  0
LINE
  5
DB
330
1F
100
AcDbEntity
  8
0
  6
HIDDEN
 62
     7
370
     0
100
AcDbLine
 10
208.4635506753
 20
125.0223965797
 30
0.0
 11
208.4635506753
 21
107.5223965797
 31
0.0
  0
LINE
  5
DC
330
1F
100
AcDbEntity
  8
0
  6
HIDDEN
 62
     7
370
     0
100
AcDbLine
 10
208.4635506753
 20
142.5223965797
 30
0.0
 11
208.4635506753
 21
125.0223965797
 31
0.0
  0
LINE
  5
DD
330
1F
100
AcDbEntity
  8
0
  6
HIDDEN
 62
     7
370
     0
100
AcDbLine
 10
213.3295760791
 20
125.0223965797
 30
0.0
 11
213.3295760791
 21
107.0223965797
 31
0.0
  0
LINE
  5
DE
330
1F
100
AcDbEntity
  8
0
  6
HIDDEN
 62
     7
370
     0
100
AcDbLine
 10
213.3295760791
 20
143.0223965797
 30
0.0
 11
213.3295760791
 21
125.0223965797
 31
0.0
  0
SPLINE
  5
DF
330
1F
100
AcDbEntity
  8
0
  6
HIDDEN
 62
     7
370
     0
100
AcDbSpline
210
0.0
220
0.0
230
1.0
 70
     8
 71
     3
 72
    12
 73
     8
 74
     0
 42
0.000000001
 43
0.00000001
 40
0.0
 40
0.0
 40
0.0
 40
0.0
 40
0.2027257242080012
 40
0.4050315676345442
 40
0.6179744718344597
 40
0.8392949198523175
 40
1.0
 40
1.0
 40
1.0
 40
1.0
 10
230.9135506752768
 20
141.4977569702487
 30
0.0
 10
231.6907507521811
 20
141.5309324506937
 30
0.0
 10
233.2435411873568
 20
141.5972146993042
 30
0.0
 10
235.339966827015
 20
142.0541684927176
 30
0.0
 10
236.9984183309562
 20
142.5673414273158
 30
0.0
 10
238.0319034885518
 20
142.9687590138385
 30
0.0
 10
238.073540213857
 20
142.9861819414343
 30
0.0
 10
238.0910553608404
 20
142.9935111714707
 30
0.0
  0
LINE
  5
E0
330
1F
100
AcDbEntity
  8
0
  6
HIDDEN
 62
     7
370
     0
100
AcDbLine
 10
231.6016887019
 20
141.5452867205
 30
0.0
 11
230.2345090286
 21
141.5347132701
 31
0.0
  0
SPLINE
  5
E1
330
1F
100
AcDbEntity
  8
0
  6
HIDDEN
 62
     7
370
     0
100
AcDbSpline
210
0.0
220
0.0
230
1.0
 70
     8
 71
     3
 72
    13
 73
     9
 74
     0
 42
0.000000001
 43
0.00000001
 40
0.0
 40
0.0
 40
0.0
 40
0.0
 40
0.1320756692348158
 40
0.3298526390166922
 40
0.5364920649421284
 40
0.7560869945912256
 40
0.9732864194815954
 40
1.0
 40
1.0
 40
1.0
 40
1.0
 10
223.7501360867002
 20
142.987763856145
 30
0.0
 10
223.7469648575811
 20
142.9888583122574
 30
0.0
 10
223.7390448652016
 20
142.9915916638206
 30
0.0
 10
224.5582770986333
 20
142.6699873814544
 30
0.0
 10
226.0292888556181
 20
142.1784834759832
 30
0.0
 10
228.11538520881
 20
141.6806263099479
 30
0.0
 10
229.8802118805047
 20
141.5038021061142
 30
0.0
 10
230.8115496874494
 20
141.498353686285
 30
0.0
 10
230.9135506752768
 20
141.4977569702487
 30
0.0
  0
LINE
  5
E2
330
1F
100
AcDbEntity
  8
0
  6
HIDDEN
 62
     7
370
     0
100
AcDbLine
 10
147.9635506753
 20
160.3223965797
 30
0.0
 11
148.1351235505
 21
160.3223965797
 31
0.0
  0
ELLIPSE
  5
E3
330
1F
100
AcDbEntity
  8
0
  6
HIDDEN
 62
     7
370
     0
100
AcDbEllipse
 10
148.1351235505
 20
162.3223965797
 30
0.0
 11
0.0
 21
2.0
 31
0.0
210
0.0
220
0.0
230
1.0
 40
0.4142135624
 41
3.141592653589793
 42
4.712388980384695
  0
ELLIPSE
  5
E4
330
1F
100
AcDbEntity
  8
0
  6
HIDDEN
 62
     7
370
     0
100
AcDbEllipse
 10
148.1351235505
 20
87.7223965797
 30
0.0
 11
0.0
 21
2.0
 31
0.0
210
0.0
220
0.0
230
1.0
 40
0.4142135624
 41
4.712388980384695
 42
6.283185307179586
  0
LINE
  5
E5
330
1F
100
AcDbEntity
  8
0
  6
HIDDEN
 62
     7
370
     0
100
AcDbLine
 10
148.1351235505
 20
89.7223965797
 30
0.0
 11
147.9635506753
 21
89.7223965797
 31
0.0
  0
LINE
  5
E6
330
1F
100
AcDbEntity
  8
0
  6
HIDDEN
 62
     7
370
     0
100
AcDbLine
 10
148.9635506753
 20
77.7018264257
 30
0.0
 11
148.3496870953
 21
77.0879628458
 31
0.0
  0
LINE
  5
E7
330
1F
100
AcDbEntity
  8
0
  6
HIDDEN
 62
     7
370
     0
100
AcDbLine
 10
148.3496870953
 20
172.9568303135
 30
0.0
 11
148.9635506753
 21
172.3429667336
 31
0.0
  0
LINE
  5
E8
330
1F
100
AcDbEntity
  8
0
  6
HIDDEN
 62
     7
370
     0
100
AcDbLine
 10
175.9635506753
 20
89.7223965797
 30
0.0
 11
165.1135506753
 21
89.7223965797
 31
0.0
  0
LINE
  5
E9
330
1F
100
AcDbEntity
  8
0
  6
HIDDEN
 62
     7
370
     0
100
AcDbLine
 10
165.1135506753
 20
89.7223965797
 30
0.0
 11
148.1351235505
 21
89.7223965797
 31
0.0
  0
LINE
  5
EA
330
1F
100
AcDbEntity
  8
0
  6
HIDDEN
 62
     7
370
     0
100
AcDbLine
 10
148.1351235505
 20
160.3223965797
 30
0.0
 11
165.1135506753
 21
160.3223965797
 31
0.0
  0
SPLINE
  5
EB
330
1F
100
AcDbEntity
  8
0
  6
HIDDEN
 62
     7
370
     0
100
AcDbSpline
210
0.0
220
0.0
230
1.0
 70
     8
 71
     3
 72
    13
 73
     9
 74
     0
 42
0.000000001
 43
0.00000001
 40
0.0
 40
0.0
 40
0.0
 40
0.0
 40
0.0005825290635634
 40
0.1623661983695077
 40
0.328738549447489
 40
0.499871825213266
 40
0.7262528256364211
 40
1.0
 40
1.0
 40
1.0
 40
1.0
 10
177.963116517883
 20
76.02252938631257
 30
0.0
 10
177.963261303918
 20
76.02248504411926
 30
0.0
 10
178.0036169866416
 20
76.01012570652726
 30
0.0
 10
177.8894623797445
 20
76.04575479252682
 30
0.0
 10
177.665345272057
 20
76.1136027554377
 30
0.0
 10
177.1860363810676
 20
76.25269592959097
 30
0.0
 10
176.3925287234175
 20
76.48294251035776
 30
0.0
 10
175.5235108509382
 20
76.6984280811222
 30
0.0
 10
175.0478504121635
 20
76.81637497771136
 30
0.0
  0
LINE
  5
EC
330
1F
100
AcDbEntity
  8
0
  6
HIDDEN
 62
     7
370
     0
100
AcDbLine
 10
165.1135506753
 20
160.3223965797
 30
0.0
 11
175.9635506753
 21
160.3223965797
 31
0.0
  0
LINE
  5
ED
330
1F
100
AcDbEntity
  8
0
  6
HIDDEN
 62
     7
370
     0
100
AcDbLine
 10
148.9635506753
 20
172.3429667336
 30
0.0
 11
161.1961197118
 21
172.3429667336
 31
0.0
  0
LINE
  5
EE
330
1F
100
AcDbEntity
  8
0
  6
HIDDEN
 62
     7
370
     0
100
AcDbLine
 10
148.9635506753
 20
172.3429667336
 30
0.0
 11
148.9635506753
 21
162.3223965797
 31
0.0
  0
LINE
  5
EF
330
1F
100
AcDbEntity
  8
0
  6
HIDDEN
 62
     7
370
     0
100
AcDbLine
 10
161.1961197118
 20
77.7018264257
 30
0.0
 11
148.9635506753
 21
77.7018264257
 31
0.0
  0
LINE
  5
F0
330
1F
100
AcDbEntity
  8
0
  6
HIDDEN
 62
     7
370
     0
100
AcDbLine
 10
148.9635506753
 20
77.7018264257
 30
0.0
 11
148.9635506753
 21
87.7223965797
 31
0.0
  0
SPLINE
  5
F1
330
1F
100
AcDbEntity
  8
0
  6
HIDDEN
 62
     7
370
     0
100
AcDbSpline
210
0.0
220
0.0
230
1.0
 70
     8
 71
     3
 72
    14
 73
    10
 74
     0
 42
0.000000001
 43
0.00000001
 40
0.0
 40
0.0
 40
0.0
 40
0.0
 40
0.1878282877378226
 40
0.3545816312771876
 40
0.500302431933891
 40
0.6713282049362227
 40
0.837642206038437
 40
0.9994166164999645
 40
1.0
 40
1.0
 40
1.0
 40
1.0
 10
175.0478504121635
 20
173.2284181815953
 30
0.0
 10
175.3808533345105
 20
173.309966119047
 30
0.0
 10
176.0094951692841
 20
173.4639120503928
 30
0.0
 10
176.7089317412119
 20
173.65489076851
 30
0.0
 10
177.2568088407013
 20
173.8122630555795
 30
0.0
 10
177.6629244348459
 20
173.9305884916008
 30
0.0
 10
177.8960523275279
 20
174.0009655062198
 30
0.0
 10
177.9900417141108
 20
174.0305998574932
 30
0.0
 10
177.9633588209716
 20
174.0223373318924
 30
0.0
 10
177.9632629440863
 20
174.0223076430121
 30
0.0
  0
LINE
  5
F2
330
1F
100
AcDbEntity
  8
0
  6
HIDDEN
 62
     7
370
     0
100
AcDbLine
 10
175.5471846209
 20
173.3527321806
 30
0.0
 11
175.0478461238
 21
173.228462836
 31
0.0
  0
LINE
  5
F3
330
1F
100
AcDbEntity
  8
0
  6
HIDDEN
 62
     7
370
     0
100
AcDbLine
 10
53.1635506753
 20
112.5223965797
 30
0.0
 11
53.1635506753
 21
137.5223965797
 31
0.0
  0
LINE
  5
F4
330
1F
100
AcDbEntity
  8
0
  6
HIDDEN
 62
     7
370
     0
100
AcDbLine
 10
56.4481550242
 20
114.5223965797
 30
0.0
 11
56.4481550242
 21
135.5223965797
 31
0.0
  0
LINE
  5
F5
330
1F
100
AcDbEntity
  8
0
  6
HIDDEN
 62
     7
370
     0
100
AcDbLine
 10
106.1635506753
 20
114.5223965797
 30
0.0
 11
106.1635506753
 21
135.5223965797
 31
0.0
  0
LINE
  5
F6
330
1F
100
AcDbEntity
  8
0
  6
HIDDEN
 62
     7
370
     0
100
AcDbLine
 10
108.8674234609
 20
119.0223965797
 30
0.0
 11
108.8674234609
 21
131.0223965797
 31
0.0
  0
LINE
  5
F7
330
1F
100
AcDbEntity
  8
0
  6
HIDDEN
 62
     7
370
     0
100
AcDbLine
 10
230.9135506753
 20
162.2723965797
 30
0.0
 11
238.1635506753
 21
162.2723965797
 31
0.0
  0
LINE
  5
F8
330
1F
100
AcDbEntity
  8
0
  6
HIDDEN
 62
     7
370
     0
100
AcDbLine
 10
223.6635506753
 20
162.2723965797
 30
0.0
 11
230.9135506753
 21
162.2723965797
 31
0.0
  0
SPLINE
  5
F9
330
1F
100
AcDbEntity
  8
0
  6
HIDDEN
 62
     7
370
     0
100
AcDbSpline
210
0.0
220
0.0
230
1.0
 70
     8
 71
     3
 72
     9
 73
     5
 74
     0
 42
0.000000001
 43
0.00000001
 40
0.0
 40
0.0
 40
0.0
 40
0.0
 40
0.4951995007203773
 40
1.0
 40
1.0
 40
1.0
 40
1.0
 10
175.0478348897139
 20
173.2284087440661
 30
0.0
 10
175.1530311114385
 20
173.3855645043188
 30
0.0
 10
175.3654631142406
 20
173.7029229831221
 30
0.0
 10
175.5801814977548
 20
174.021549531225
 30
0.0
 10
175.6885714449573
 20
174.1823923717912
 30
0.0
  0
SPLINE
  5
FA
330
1F
100
AcDbEntity
  8
0
  6
HIDDEN
 62
     7
370
     0
100
AcDbSpline
210
0.0
220
0.0
230
1.0
 70
     8
 71
     3
 72
     9
 73
     5
 74
     0
 42
0.000000001
 43
0.00000001
 40
0.0
 40
0.0
 40
0.0
 40
0.0
 40
0.5048004990382029
 40
1.0
 40
1.0
 40
1.0
 40
1.0
 10
175.6885714449574
 20
75.86240078751554
 30
0.0
 10
175.5801814978096
 20
76.023243627998
 30
0.0
 10
175.3654631143011
 20
76.34187017608765
 30
0.0
 10
175.1530311114928
 20
76.65922865490448
 30
0.0
 10
175.0478348897139
 20
76.81638441524058
 30
0.0
  0
SPLINE
  5
FB
330
1F
100
AcDbEntity
  8
0
  6
HIDDEN
 62
     7
370
     0
100
AcDbSpline
210
0.0
220
0.0
230
1.0
 70
    11
 71
     3
 72
    66
 73
    62
 74
     0
 42
0.000000001
 43
0.00000001
 40
0.0
 40
0.0
 40
0.0
 40
0.0
 40
0.0312500000000001
 40
0.0312500000000001
 40
0.0625000000000002
 40
0.0625000000000002
 40
0.0937500000000002
 40
0.0937500000000002
 40
0.1250000000000003
 40
0.1250000000000003
 40
0.1875000000000005
 40
0.1875000000000005
 40
0.2187500000000006
 40
0.2187500000000006
 40
0.2500000000000007
 40
0.2500000000000007
 40
0.2812500000000007
 40
0.2812500000000007
 40
0.3125000000000007
 40
0.3125000000000007
 40
0.3437500000000007
 40
0.3437500000000007
 40
0.3750000000000008
 40
0.3750000000000008
 40
0.4062500000000007
 40
0.4062500000000007
 40
0.4375000000000007
 40
0.4375000000000007
 40
0.4687500000000006
 40
0.4687500000000006
 40
0.5000000000000004
 40
0.5000000000000004
 40
0.5312500000000004
 40
0.5312500000000004
 40
0.5625000000000003
 40
0.5625000000000003
 40
0.5937500000000003
 40
0.5937500000000003
 40
0.6250000000000002
 40
0.6250000000000002
 40
0.6562500000000001
 40
0.6562500000000001
 40
0.6874999999999999
 40
0.6874999999999999
 40
0.7187499999999998
 40
0.7187499999999998
 40
0.7499999999999997
 40
0.7499999999999997
 40
0.8124999999999994
 40
0.8124999999999994
 40
0.8437499999999996
 40
0.8437499999999996
 40
0.8749999999999997
 40
0.8749999999999997
 40
0.9062499999999998
 40
0.9062499999999998
 40
0.9374999999999998
 40
0.9374999999999998
 40
0.9687499999999999
 40
0.9687499999999999
 40
1.0
 40
1.0
 40
1.0
 40
1.0
 10
168.1635506752768
 20
124.5386646681617
 30
0.0
 10
168.3307560617231
 20
124.5386646681617
 30
0.0
 10
168.4947334508417
 20
124.5568959138119
 30
0.0
 10
168.8166495812193
 20
124.6275280672331
 30
0.0
 10
168.9762553661748
 20
124.6808716859643
 30
0.0
 10
169.2778230347033
 20
124.8171701062737
 30
0.0
 10
169.4205484013023
 20
124.8998460182314
 30
0.0
 10
169.6906970021417
 20
125.0928733936567
 30
0.0
 10
169.8168728454692
 20
125.2027269843392
 30
0.0
 10
170.1586182662086
 20
125.5596973429492
 30
0.0
 10
170.3442202343297
 20
125.8422331849132
 30
0.0
 10
170.5326254110381
 20
126.2904744342729
 30
0.0
 10
170.5817636403122
 20
126.4471612541705
 30
0.0
 10
170.6469366713332
 20
126.7604129473376
 30
0.0
 10
170.6633560083416
 20
126.9164434059483
 30
0.0
 10
170.6637419342327
 20
127.2271052602552
 30
0.0
 10
170.6471318329996
 20
127.3822116116526
 30
0.0
 10
170.5825114901982
 20
127.6761877678853
 30
0.0
 10
170.534528325787
 20
127.8173569292253
 30
0.0
 10
170.4074627600971
 20
128.086783270713
 30
0.0
 10
170.3302686809136
 20
128.2112607927852
 30
0.0
 10
170.1497934356218
 20
128.4422457419891
 30
0.0
 10
170.0452981506543
 20
128.5495293901144
 30
0.0
 10
169.8167941587363
 20
128.7400947270951
 30
0.0
 10
169.6925048056034
 20
128.8242118805651
 30
0.0
 10
169.4228903264792
 20
128.9715850837041
 30
0.0
 10
169.2777690470113
 20
129.0342914770029
 30
0.0
 10
168.9780269242502
 20
129.1342060910277
 30
0.0
 10
168.8219576823936
 20
129.1722907577303
 30
0.0
 10
168.4961368937468
 20
129.2241197958612
 30
0.0
 10
168.3312984548895
 20
129.236963637078
 30
0.0
 10
168.0021109348864
 20
129.2372887917262
 30
0.0
 10
167.8350677941221
 20
129.2244973304647
 30
0.0
 10
167.5109672864098
 20
129.1734840222151
 30
0.0
 10
167.3544507780643
 20
129.1357442492761
 30
0.0
 10
167.051880151308
 20
129.0353881656587
 30
0.0
 10
166.9067190995765
 20
128.9727159107463
 30
0.0
 10
166.6379878615768
 20
128.8263004870036
 30
0.0
 10
166.5121277116615
 20
128.7414992652918
 30
0.0
 10
166.2819352111921
 20
128.5497522423435
 30
0.0
 10
166.1794635320827
 20
128.4445963949264
 30
0.0
 10
165.998897816049
 20
128.2143027271227
 30
0.0
 10
165.9201640812842
 20
128.0874966894327
 30
0.0
 10
165.7939810230471
 20
127.820737125484
 30
0.0
 10
165.745936571525
 20
127.6807483186535
 30
0.0
 10
165.6805577518098
 20
127.3864077820261
 30
0.0
 10
165.6636793351016
 20
127.2312632847921
 30
0.0
 10
165.6632956122468
 20
126.7664925725514
 30
0.0
 10
165.7302598151808
 20
126.4443547936323
 30
0.0
 10
165.9188106626448
 20
125.9941232257471
 30
0.0
 10
165.9973263835653
 20
125.8468153618688
 30
0.0
 10
166.1783513087098
 20
125.5713795174566
 30
0.0
 10
166.280879829586
 20
125.4423802000793
 30
0.0
 10
166.5103941829522
 20
125.2024674998584
 30
0.0
 10
166.6367748061359
 20
125.0926724031447
 30
0.0
 10
166.9048527755226
 20
124.9009974365479
 30
0.0
 10
167.0477494290252
 20
124.8178647917218
 30
0.0
 10
167.3522850852933
 20
124.680217581806
 30
0.0
 10
167.5087197331237
 20
124.6280604682951
 30
0.0
 10
167.8300099194783
 20
124.5572628373489
 30
0.0
 10
167.9963452888305
 20
124.5386646681617
 30
0.0
 10
168.1635506752768
 20
124.5386646681617
 30
0.0
  0
SPLINE
  5
FC
330
1F
100
AcDbEntity
  8
0
  6
HIDDEN
 62
     7
370
     0
100
AcDbSpline
210
0.0
220
0.0
230
1.0
 70
    11
 71
     3
 72
    66
 73
    62
 74
     0
 42
0.000000001
 43
0.00000001
 40
0.0
 40
0.0
 40
0.0
 40
0.0
 40
0.0312499999999998
 40
0.0312499999999998
 40
0.0624999999999996
 40
0.0624999999999996
 40
0.0937499999999994
 40
0.0937499999999994
 40
0.1249999999999991
 40
0.1249999999999991
 40
0.1562499999999989
 40
0.1562499999999989
 40
0.1874999999999987
 40
0.1874999999999987
 40
0.2187499999999985
 40
0.2187499999999985
 40
0.2499999999999983
 40
0.2499999999999983
 40
0.2812499999999981
 40
0.2812499999999981
 40
0.3124999999999978
 40
0.3124999999999978
 40
0.3437499999999976
 40
0.3437499999999976
 40
0.3749999999999974
 40
0.3749999999999974
 40
0.4062499999999972
 40
0.4062499999999972
 40
0.437499999999997
 40
0.437499999999997
 40
0.4687499999999968
 40
0.4687499999999968
 40
0.4999999999999966
 40
0.4999999999999966
 40
0.5312499999999963
 40
0.5312499999999963
 40
0.5624999999999961
 40
0.5624999999999961
 40
0.6249999999999959
 40
0.6249999999999959
 40
0.6562499999999962
 40
0.6562499999999962
 40
0.6874999999999966
 40
0.6874999999999966
 40
0.7187499999999969
 40
0.7187499999999969
 40
0.7499999999999972
 40
0.7499999999999972
 40
0.7812499999999977
 40
0.7812499999999977
 40
0.812499999999998
 40
0.812499999999998
 40
0.8437499999999983
 40
0.8437499999999983
 40
0.8749999999999987
 40
0.8749999999999987
 40
0.906249999999999
 40
0.906249999999999
 40
0.9374999999999993
 40
0.9374999999999993
 40
1.0
 40
1.0
 40
1.0
 40
1.0
 10
168.1635506752768
 20
137.1838507865672
 30
0.0
 10
167.9983503846129
 20
137.1838507865671
 30
0.0
 10
167.8359178433164
 20
137.1994163778491
 30
0.0
 10
167.5163596877264
 20
137.2603626496787
 30
0.0
 10
167.3575763497493
 20
137.3064846936639
 30
0.0
 10
167.0548383332699
 20
137.426747881252
 30
0.0
 10
166.9112591681356
 20
137.5002915306727
 30
0.0
 10
166.6395294382676
 20
137.673808453605
 30
0.0
 10
166.5109008747299
 20
137.7746811103916
 30
0.0
 10
166.2803351130627
 20
137.9946658992898
 30
0.0
 10
166.1768611118133
 20
138.1145450628786
 30
0.0
 10
165.9941005738875
 20
138.3743864294761
 30
0.0
 10
165.9164563176589
 20
138.5124758600483
 30
0.0
 10
165.7917636669688
 20
138.7974582922965
 30
0.0
 10
165.7437596863904
 20
138.946453401639
 30
0.0
 10
165.6795279440721
 20
139.2509784890337
 30
0.0
 10
165.6636385000299
 20
139.4037478364702
 30
0.0
 10
165.6634635696748
 20
139.7102375180842
 30
0.0
 10
165.6796942210097
 20
139.8655642883793
 30
0.0
 10
165.7434754437193
 20
140.1656264942777
 30
0.0
 10
165.7906675551155
 20
140.311161206777
 30
0.0
 10
165.9158341727735
 20
140.5932944870989
 30
0.0
 10
165.9940936601485
 20
140.7294343284536
 30
0.0
 10
166.1750138435038
 20
140.9809708782231
 30
0.0
 10
166.2782990724277
 20
141.0979977220664
 30
0.0
 10
166.5115508144764
 20
141.3140730156879
 30
0.0
 10
166.637964682742
 20
141.4097769395732
 30
0.0
 10
166.9086369534366
 20
141.5769299363449
 30
0.0
 10
167.0547187256009
 20
141.6490911219679
 30
0.0
 10
167.3576031710737
 20
141.7647451639244
 30
0.0
 10
167.5134335307135
 20
141.8082779711071
 30
0.0
 10
167.8337790199789
 20
141.8671738740405
 30
0.0
 10
167.9994891059505
 20
141.8822599770604
 30
0.0
 10
168.325820494647
 20
141.8823675087272
 30
0.0
 10
168.488007580474
 20
141.8678768515375
 30
0.0
 10
168.8103831616826
 20
141.8091487872603
 30
0.0
 10
168.9683986357201
 20
141.765017980131
 30
0.0
 10
169.4198095107957
 20
141.593088381533
 30
0.0
 10
169.6988889678478
 20
141.421514688862
 30
0.0
 10
170.0449626723462
 20
141.1018638704957
 30
0.0
 10
170.1506046882609
 20
140.9828227411072
 30
0.0
 10
170.3323881642316
 20
140.7305029802489
 30
0.0
 10
170.4092759876156
 20
140.5970386688775
 30
0.0
 10
170.534930544986
 20
140.3152732563252
 30
0.0
 10
170.5832386209006
 20
140.1668525246942
 30
0.0
 10
170.647056506341
 20
139.8678029269176
 30
0.0
 10
170.6633846833838
 20
139.7155998570503
 30
0.0
 10
170.6637141734435
 20
139.4055979982106
 30
0.0
 10
170.6476176616088
 20
139.2520753311126
 30
0.0
 10
170.5843889243476
 20
138.9505466135334
 30
0.0
 10
170.5365523309371
 20
138.8006117882317
 30
0.0
 10
170.4112090130237
 20
138.5133926921408
 30
0.0
 10
170.3345123384985
 20
138.3770137778245
 30
0.0
 10
170.1534609718467
 20
138.1186582198103
 30
0.0
 10
170.0479853614858
 20
137.995983043436
 30
0.0
 10
169.8174587928096
 20
137.7757293593839
 30
0.0
 10
169.6917393551793
 20
137.6768037879502
 30
0.0
 10
169.4189725059824
 20
137.5019651070285
 30
0.0
 10
169.2732531295764
 20
137.4272882620481
 30
0.0
 10
168.8221840244684
 20
137.2476620465553
 30
0.0
 10
168.4939512566046
 20
137.1838507865671
 30
0.0
 10
168.1635506752768
 20
137.1838507865671
 30
0.0
  0
SPLINE
  5
FD
330
1F
100
AcDbEntity
  8
0
  6
HIDDEN
 62
     7
370
     0
100
AcDbSpline
210
0.0
220
0.0
230
1.0
 70
    11
 71
     3
 72
    60
 73
    56
 74
     0
 42
0.000000001
 43
0.00000001
 40
0.0
 40
0.0
 40
0.0
 40
0.0
 40
0.0312499999999997
 40
0.0312499999999997
 40
0.0624999999999993
 40
0.0624999999999993
 40
0.093749999999999
 40
0.093749999999999
 40
0.1249999999999986
 40
0.1249999999999986
 40
0.1562499999999983
 40
0.1562499999999983
 40
0.1874999999999979
 40
0.1874999999999979
 40
0.2187499999999976
 40
0.2187499999999976
 40
0.2499999999999973
 40
0.2499999999999973
 40
0.3124999999999971
 40
0.3124999999999971
 40
0.3749999999999969
 40
0.3749999999999969
 40
0.4062499999999964
 40
0.4062499999999964
 40
0.4374999999999959
 40
0.4374999999999959
 40
0.4531249999999957
 40
0.4531249999999957
 40
0.4687499999999954
 40
0.4687499999999954
 40
0.4999999999999954
 40
0.4999999999999954
 40
0.5624999999999956
 40
0.5624999999999956
 40
0.6249999999999962
 40
0.6249999999999962
 40
0.6874999999999969
 40
0.6874999999999969
 40
0.7187499999999972
 40
0.7187499999999972
 40
0.7499999999999974
 40
0.7499999999999974
 40
0.7812499999999978
 40
0.7812499999999978
 40
0.8124999999999981
 40
0.8124999999999981
 40
0.8437499999999984
 40
0.8437499999999984
 40
0.8749999999999988
 40
0.8749999999999988
 40
0.9062499999999991
 40
0.9062499999999991
 40
0.9374999999999994
 40
0.9374999999999994
 40
1.0
 40
1.0
 40
1.0
 40
1.0
 10
165.744575615057
 20
134.4918717799304
 30
0.0
 10
165.7841656979039
 20
134.3603912485765
 30
0.0
 10
165.836477318824
 20
134.2412073978968
 30
0.0
 10
165.9621974244266
 20
134.0260139105689
 30
0.0
 10
166.0366204548708
 20
133.9294260049606
 30
0.0
 10
166.1953307630639
 20
133.7688650932056
 30
0.0
 10
166.2802093628694
 20
133.7035858565036
 30
0.0
 10
166.4519825824112
 20
133.6060836819464
 30
0.0
 10
166.5359928187072
 20
133.5756085851491
 30
0.0
 10
166.6813887419858
 20
133.5558596167917
 30
0.0
 10
166.7396549904951
 20
133.5676361662879
 30
0.0
 10
166.8062597153052
 20
133.6320565090712
 30
0.0
 10
166.813420599703
 20
133.682769647151
 30
0.0
 10
166.7902752803207
 20
133.805793159526
 30
0.0
 10
166.7613671943511
 20
133.8762643858114
 30
0.0
 10
166.6859464365059
 20
134.0298860484758
 30
0.0
 10
166.6390009637296
 20
134.1135213166598
 30
0.0
 10
166.4873590721081
 20
134.3769015556699
 30
0.0
 10
166.3714319348449
 20
134.5704504810934
 30
0.0
 10
166.1378063638626
 20
135.0073199529894
 30
0.0
 10
166.0191235971607
 20
135.2503250871767
 30
0.0
 10
165.8626522882051
 20
135.6613996257065
 30
0.0
 10
165.8146656396529
 20
135.8050711911898
 30
0.0
 10
165.7340566298627
 20
136.1055341191487
 30
0.0
 10
165.7013571009675
 20
136.264033373423
 30
0.0
 10
165.6729364916237
 20
136.4992438952524
 30
0.0
 10
165.6667904196501
 20
136.5784915030488
 30
0.0
 10
165.6623122178852
 20
136.7301690735083
 30
0.0
 10
165.6638284282974
 20
136.8033771458167
 30
0.0
 10
165.6795913679738
 20
137.0151328770437
 30
0.0
 10
165.7050654226592
 20
137.1410310229051
 30
0.0
 10
165.811430166408
 20
137.4627613889243
 30
0.0
 10
165.9173081956786
 20
137.6007751052844
 30
0.0
 10
166.1404784166237
 20
137.7865869564145
 30
0.0
 10
166.2613648487508
 20
137.8355109911708
 30
0.0
 10
166.4904473224326
 20
137.8715623169618
 30
0.0
 10
166.600610140683
 20
137.85968413376
 30
0.0
 10
166.7285933080341
 20
137.7950765722106
 30
0.0
 10
166.7649346534466
 20
137.7650693584472
 30
0.0
 10
166.8080246566067
 20
137.6845412348972
 30
0.0
 10
166.8145094652086
 20
137.6329608176455
 30
0.0
 10
166.7784687125077
 20
137.5034136080198
 30
0.0
 10
166.7342494973825
 20
137.4235547835264
 30
0.0
 10
166.6085995225703
 20
137.2414253082214
 30
0.0
 10
166.5274753910889
 20
137.1373728682013
 30
0.0
 10
166.3605300209945
 20
136.914408972522
 30
0.0
 10
166.2726418562646
 20
136.7926055904767
 30
0.0
 10
166.1070023590156
 20
136.5350443674171
 30
0.0
 10
166.0290562708781
 20
136.3995655071032
 30
0.0
 10
165.8898005372066
 20
136.1128111857551
 30
0.0
 10
165.8307748183076
 20
135.966359147864
 30
0.0
 10
165.7369898646043
 20
135.6661144179621
 30
0.0
 10
165.7021768064949
 20
135.5104125618369
 30
0.0
 10
165.6438592018182
 20
135.0546495745752
 30
0.0
 10
165.6653954493634
 20
134.7548328426384
 30
0.0
 10
165.744575615057
 20
134.4918717799304
 30
0.0
  0
LWPOLYLINE
  5
FE
330
1F
100
AcDbEntity
  8
0
  6
HIDDEN
 62
     7
370
     0
100
AcDbPolyline
 90
       19
 70
   128
 43
0.0
 10
148.9458083758
 20
137.8090474388
 10
149.1141632983
 20
137.3008510183
 10
149.382999252
 20
136.9970582634
 10
149.7198906533
 20
136.9343110637
 10
150.0842034273
 20
137.1201776577
 10
150.4319960767
 20
137.532239791
 10
150.721319675
 20
138.1207966889
 10
150.9172775265
 20
138.8148597033
 10
150.9962342221
 20
139.5307145916
 10
150.9486664192
 20
140.1820186891
 10
150.7803114967
 20
140.6902151096
 10
150.5114755429
 20
140.9940078646
 10
150.1745841416
 20
141.0567550642
 10
149.8102713676
 20
140.8708884703
 10
149.4624787183
 20
140.458826337
 10
149.1731551199
 20
139.8702694391
 10
148.9771972684
 20
139.1762064246
 10
148.8982405728
 20
138.4603515364
 10
148.9458083758
 20
137.8090474388
  0
LWPOLYLINE
  5
FF
330
1F
100
AcDbEntity
  8
0
  6
HIDDEN
 62
     7
370
     0
100
AcDbPolyline
 90
       22
 70
   128
 43
0.0
 10
148.2329377871
 20
137.3565719178
 10
148.4294127631
 20
136.7181143458
 10
148.7355463085
 20
136.2869928947
 10
149.1241371144
 20
136.1015145973
 10
149.5606571823
 20
136.1781600142
 10
150.0063197887
 20
136.5101188639
 10
150.421525855
 20
137.0678951457
 10
150.7693825004
 20
137.8019279892
 10
151.0189811352
 20
138.6469953551
 10
151.1481438254
 20
139.5280092994
 10
151.1453938993
 20
140.3666878668
 10
151.0109756997
 20
141.0885107862
 10
150.7568328736
 20
141.6293409235
 10
150.4055471264
 20
141.9411231477
 10
149.9883317383
 20
141.9961542397
 10
149.5422581275
 20
141.7895444458
 10
149.1069618919
 20
141.3396519526
 10
148.7211210122
 20
140.6864516826
 10
148.4190191438
 20
139.8879833463
 10
148.2274993636
 20
139.0151943593
 10
148.1635790444
 20
138.1456358534
 10
148.2329377871
 20
137.3565719178
  0
CIRCLE
  5
100
330
1F
100
AcDbEntity
  8
0
  6
HIDDEN
 62
     7
370
     0
100
AcDbCircle
 10
230.9135506753
 20
125.0223965797
 30
0.0
 40
8.00000000000004
  0
LINE
  5
101
330
1F
100
AcDbEntity
  8
0
  6
HIDDEN
 62
     7
370
     0
100
AcDbLine
 10
222.9857239019
 20
164.0223965797
 30
0.0
 11
229.8038917825
 21
164.0223965797
 31
0.0
  0
LINE
  5
102
330
1F
100
AcDbEntity
  8
0
  6
HIDDEN
 62
     7
370
     0
100
AcDbLine
 10
232.1410968473
 20
164.0223965797
 30
0.0
 11
238.9135506753
 21
164.0223965797
 31
0.0
  0
LINE
  5
103
330
1F
100
AcDbEntity
  8
0
  6
HIDDEN
 62
     7
370
     0
100
AcDbLine
 10
222.9135506753
 20
164.0223965797
 30
0.0
 11
222.9857239019
 21
164.0223965797
 31
0.0
  0
LINE
  5
104
330
1F
100
AcDbEntity
  8
0
  6
HIDDEN
 62
     7
370
     0
100
AcDbLine
 10
222.9135506753
 20
145.3525235986
 30
0.0
 11
238.9135506753
 21
145.3525235986
 31
0.0
  0
LINE
  5
105
330
1F
100
AcDbEntity
  8
0
  6
HIDDEN
 62
     7
370
     0
100
AcDbLine
 10
225.7972141693
 20
136.0223965797
 30
0.0
 11
236.0298871813
 21
136.0223965797
 31
0.0
  0
SPLINE
  5
106
330
1F
100
AcDbEntity
  8
0
  6
HIDDEN
 62
     7
370
     0
100
AcDbSpline
210
0.0
220
0.0
230
1.0
 70
     8
 71
     3
 72
    11
 73
     7
 74
     0
 42
0.000000001
 43
0.00000001
 40
0.0
 40
0.0
 40
0.0
 40
0.0
 40
0.2164567244934166
 40
0.4403141600939106
 40
0.7519028444798752
 40
1.0
 40
1.0
 40
1.0
 40
1.0
 10
227.2591480114488
 20
164.9411987331704
 30
0.0
 10
227.5518835598751
 20
164.7963203229642
 30
0.0
 10
228.1473633604523
 20
164.5016100724283
 30
0.0
 10
229.2524116443584
 20
164.2559721097463
 30
0.0
 10
230.4377669586515
 20
164.4040771702264
 30
0.0
 10
231.1963208652158
 20
164.7762307495789
 30
0.0
 10
231.5325721210255
 20
164.9411987331704
 30
0.0
  0
SPLINE
  5
107
330
1F
100
AcDbEntity
  8
0
  6
HIDDEN
 62
     7
370
     0
100
AcDbSpline
210
0.0
220
0.0
230
1.0
 70
     8
 71
     3
 72
    11
 73
     7
 74
     0
 42
0.000000001
 43
0.00000001
 40
0.0
 40
0.0
 40
0.0
 40
0.0
 40
0.2164567244934222
 40
0.4403141600939236
 40
0.7519028444798748
 40
1.0
 40
1.0
 40
1.0
 40
1.0
 10
231.5325721210255
 20
164.9411987331704
 30
0.0
 10
231.7829038317417
 20
164.7963203229642
 30
0.0
 10
232.2921261587765
 20
164.5016100724283
 30
0.0
 10
233.2371040708247
 20
164.2559721097463
 30
0.0
 10
234.2507562399198
 20
164.4040771702265
 30
0.0
 10
234.8994307795222
 20
164.7762307495789
 30
0.0
 10
235.1869747848532
 20
164.9411987331704
 30
0.0
  0
SPLINE
  5
108
330
1F
100
AcDbEntity
  8
0
  6
HIDDEN
 62
     7
370
     0
100
AcDbSpline
210
0.0
220
0.0
230
1.0
 70
     8
 71
     3
 72
    11
 73
     7
 74
     0
 42
0.000000001
 43
0.00000001
 40
0.0
 40
0.0
 40
0.0
 40
0.0
 40
0.1845133558519081
 40
0.518056503916387
 40
0.8676122830485017
 40
1.0
 40
1.0
 40
1.0
 40
1.0
 10
235.1869747848532
 20
164.9411987331704
 30
0.0
 10
235.1510250732242
 20
164.8166570692958
 30
0.0
 10
235.0500893884476
 20
164.4669825501756
 30
0.0
 10
234.8619479777651
 20
164.2072617686049
 30
0.0
 10
234.6871274106686
 20
164.5203696537901
 30
0.0
 10
234.5936352235984
 20
164.8505105183055
 30
0.0
 10
234.5679533391045
 20
164.9411987331704
 30
0.0
  0
SPLINE
  5
109
330
1F
100
AcDbEntity
  8
0
  6
HIDDEN
 62
     7
370
     0
100
AcDbSpline
210
0.0
220
0.0
230
1.0
 70
     8
 71
     3
 72
    11
 73
     7
 74
     0
 42
0.000000001
 43
0.00000001
 40
0.0
 40
0.0
 40
0.0
 40
0.0
 40
0.2164567244934233
 40
0.4403141600939134
 40
0.7519028444798808
 40
1.0
 40
1.0
 40
1.0
 40
1.0
 10
234.5679533391045
 20
164.9411987331704
 30
0.0
 10
234.2752177906782
 20
164.7963203229643
 30
0.0
 10
233.6797379901009
 20
164.5016100724283
 30
0.0
 10
232.574689706195
 20
164.2559721097464
 30
0.0
 10
231.3893343919018
 20
164.4040771702265
 30
0.0
 10
230.6307804853375
 20
164.776230749579
 30
0.0
 10
230.2945292295279
 20
164.9411987331704
 30
0.0
  0
SPLINE
  5
10A
330
1F
100
AcDbEntity
  8
0
  6
HIDDEN
 62
     7
370
     0
100
AcDbSpline
210
0.0
220
0.0
230
1.0
 70
     8
 71
     3
 72
    11
 73
     7
 74
     0
 42
0.000000001
 43
0.00000001
 40
0.0
 40
0.0
 40
0.0
 40
0.0
 40
0.2164567244934088
 40
0.4403141600939172
 40
0.7519028444798761
 40
1.0
 40
1.0
 40
1.0
 40
1.0
 10
230.2945292295279
 20
164.9411987331704
 30
0.0
 10
230.0441975188117
 20
164.7963203229643
 30
0.0
 10
229.5349751917769
 20
164.5016100724283
 30
0.0
 10
228.5899972797285
 20
164.2559721097464
 30
0.0
 10
227.5763451106336
 20
164.4040771702265
 30
0.0
 10
226.9276705710311
 20
164.776230749579
 30
0.0
 10
226.6401265657
 20
164.9411987331704
 30
0.0
  0
SPLINE
  5
10B
330
1F
100
AcDbEntity
  8
0
  6
HIDDEN
 62
     7
370
     0
100
AcDbSpline
210
0.0
220
0.0
230
1.0
 70
     8
 71
     3
 72
    11
 73
     7
 74
     0
 42
0.000000001
 43
0.00000001
 40
0.0
 40
0.0
 40
0.0
 40
0.0
 40
0.1323877169514954
 40
0.4819434960836141
 40
0.8154866441480886
 40
1.0
 40
1.0
 40
1.0
 40
1.0
 10
226.6401265657
 20
164.9411987331704
 30
0.0
 10
226.665808450194
 20
164.8505105183055
 30
0.0
 10
226.7593006372641
 20
164.5203696537901
 30
0.0
 10
226.9341212043606
 20
164.2072617686049
 30
0.0
 10
227.122262615043
 20
164.4669825501756
 30
0.0
 10
227.2231982998197
 20
164.8166570692958
 30
0.0
 10
227.2591480114488
 20
164.9411987331704
 30
0.0
  0
LINE
  5
10C
330
1F
100
AcDbEntity
  8
0
  6
HIDDEN
 62
     7
370
     0
100
AcDbLine
 10
231.532572121
 20
154.0223965797
 30
0.0
 11
231.532572121
 21
164.9411987332
 31
0.0
  0
LINE
  5
10D
330
1F
100
AcDbEntity
  8
0
  6
HIDDEN
 62
     7
370
     0
100
AcDbLine
 10
233.3597734529
 20
154.0223965797
 30
0.0
 11
231.532572121
 21
154.0223965797
 31
0.0
  0
LINE
  5
10E
330
1F
100
AcDbEntity
  8
0
  6
HIDDEN
 62
     7
370
     0
100
AcDbLine
 10
231.532572121
 20
154.0223965797
 30
0.0
 11
229.3958600662
 21
154.0223965797
 31
0.0
  0
LINE
  5
10F
330
1F
100
AcDbEntity
  8
0
  6
HIDDEN
 62
     7
370
     0
100
AcDbLine
 10
226.9135506753
 20
153.0223965797
 30
0.0
 11
234.9135506753
 21
153.0223965797
 31
0.0
  0
LINE
  5
110
330
1F
100
AcDbEntity
  8
0
  6
HIDDEN
 62
     7
370
     0
100
AcDbLine
 10
229.3958600662
 20
154.0223965797
 30
0.0
 11
227.2591480114
 21
154.0223965797
 31
0.0
  0
LINE
  5
111
330
1F
100
AcDbEntity
  8
0
  6
HIDDEN
 62
     7
370
     0
100
AcDbLine
 10
235.1869747849
 20
154.0223965797
 30
0.0
 11
233.3597734529
 21
154.0223965797
 31
0.0
  0
LINE
  5
112
330
1F
100
AcDbEntity
  8
0
  6
HIDDEN
 62
     7
370
     0
100
AcDbLine
 10
227.2591480114
 20
154.0223965797
 30
0.0
 11
226.9496372886
 21
154.0223965797
 31
0.0
  0
LINE
  5
113
330
1F
100
AcDbEntity
  8
0
  6
HIDDEN
 62
     7
370
     0
100
AcDbLine
 10
227.2591480114
 20
154.0223965797
 30
0.0
 11
227.2591480114
 21
164.9411987332
 31
0.0
  0
LINE
  5
114
330
1F
100
AcDbEntity
  8
0
  6
HIDDEN
 62
     7
370
     0
100
AcDbLine
 10
234.5679533391
 20
154.0223965797
 30
0.0
 11
234.5679533391
 21
164.9411987332
 31
0.0
  0
LINE
  5
115
330
1F
100
AcDbEntity
  8
0
  6
HIDDEN
 62
     7
370
     0
100
AcDbLine
 10
235.1869747849
 20
154.0223965797
 30
0.0
 11
235.1869747849
 21
164.9411987332
 31
0.0
  0
LINE
  5
116
330
1F
100
AcDbEntity
  8
0
  6
HIDDEN
 62
     7
370
     0
100
AcDbLine
 10
226.9496372886
 20
154.0223965797
 30
0.0
 11
226.6401265657
 21
154.0223965797
 31
0.0
  0
LINE
  5
117
330
1F
100
AcDbEntity
  8
0
  6
HIDDEN
 62
     7
370
     0
100
AcDbLine
 10
230.2945292295
 20
154.0223965797
 30
0.0
 11
230.2945292295
 21
164.9411987332
 31
0.0
  0
LINE
  5
118
330
1F
100
AcDbEntity
  8
0
  6
HIDDEN
 62
     7
370
     0
100
AcDbLine
 10
226.6401265657
 20
154.0223965797
 30
0.0
 11
226.6401265657
 21
164.9411987332
 31
0.0
  0
LWPOLYLINE
  5
119
330
1F
100
AcDbEntity
  8
0
  6
HIDDEN
 62
     7
370
     0
100
AcDbPolyline
 90
       22
 70
   128
 43
0.0
 10
168.8674633683
 20
113.3364125194
 10
167.9766110859
 20
113.4096344565
 10
167.1023692064
 20
113.2328557403
 10
166.3224179574
 20
112.8217839356
 10
165.70605943
 20
112.2129445762
 10
165.3080597842
 20
111.460435711
 10
165.1637830353
 20
110.631121055
 10
165.2860488054
 20
109.7986888548
 10
165.6639932444
 20
109.0371043645
 10
166.2640343302
 20
108.4140377081
 10
167.0328557792
 20
107.9848510924
 10
167.9021444317
 20
107.7876796316
 10
168.7946601761
 20
107.8400428753
 10
169.6310990717
 20
108.1372881196
 10
170.3371398521
 20
108.6530038199
 10
170.8500476955
 20
109.3413663732
 10
171.1242484892
 20
110.1412117457
 10
171.1353782892
 20
110.9814701661
 10
170.8824481642
 20
111.7874809863
 10
170.3879320655
 20
112.4876266078
 10
169.6957699188
 20
113.0196960196
 10
168.8674633683
 20
113.3364125194
  0
LWPOLYLINE
  5
11A
330
1F
100
AcDbEntity
  8
0
  6
HIDDEN
 62
     7
370
     0
100
AcDbPolyline
 90
       22
 70
   128
 43
0.0
 10
168.8674633683
 20
114.5949985163
 10
167.9766110859
 20
114.6682204534
 10
167.1023692064
 20
114.4914417372
 10
166.3224179574
 20
114.0803699325
 10
165.70605943
 20
113.4715305731
 10
165.3080597842
 20
112.7190217079
 10
165.1637830353
 20
111.8897070519
 10
165.2860488054
 20
111.0572748517
 10
165.6639932444
 20
110.2956903614
 10
166.2640343302
 20
109.672623705
 10
167.0328557792
 20
109.2434370893
 10
167.9021444317
 20
109.0462656285
 10
168.7946601761
 20
109.0986288722
 10
169.6310990717
 20
109.3958741165
 10
170.3371398521
 20
109.9115898168
 10
170.8500476955
 20
110.5999523701
 10
171.1242484892
 20
111.3997977426
 10
171.1353782892
 20
112.2400561631
 10
170.8824481642
 20
113.0460669832
 10
170.3879320655
 20
113.7462126047
 10
169.6957699188
 20
114.2782820165
 10
168.8674633683
 20
114.5949985163
  0
LINE
  5
11B
330
1F
100
AcDbEntity
  8
0
  6
HIDDEN
 62
     7
370
     0
100
AcDbLine
 10
168.5699548581
 20
112.7527384361
 30
0.0
 11
168.5699548581
 21
112.0686981495
 31
0.0
  0
LINE
  5
11C
330
1F
100
AcDbEntity
  8
0
  6
HIDDEN
 62
     7
370
     0
100
AcDbLine
 10
166.9086283789
 20
112.2923903872
 30
0.0
 11
166.9086283789
 21
111.6083501005
 31
0.0
  0
LINE
  5
11D
330
1F
100
AcDbEntity
  8
0
  6
HIDDEN
 62
     7
370
     0
100
AcDbLine
 10
169.8248771544
 20
111.6309288239
 30
0.0
 11
169.681981513
 21
111.0746268877
 31
0.0
  0
LINE
  5
11E
330
1F
100
AcDbEntity
  8
0
  6
HIDDEN
 62
     7
370
     0
100
AcDbLine
 10
169.8248771544
 20
111.6309288239
 30
0.0
 11
169.8248771544
 21
110.9468885372
 31
0.0
  0
LINE
  5
11F
330
1F
100
AcDbEntity
  8
0
  6
HIDDEN
 62
     7
370
     0
100
AcDbLine
 10
166.5022241961
 20
110.710232726
 30
0.0
 11
166.6451198375
 21
110.5824943756
 31
0.0
  0
LINE
  5
120
330
1F
100
AcDbEntity
  8
0
  6
HIDDEN
 62
     7
370
     0
100
AcDbLine
 10
166.5022241961
 20
110.710232726
 30
0.0
 11
166.5022241961
 21
110.0261924394
 31
0.0
  0
LINE
  5
121
330
1F
100
AcDbEntity
  8
0
  6
HIDDEN
 62
     7
370
     0
100
AcDbLine
 10
166.9086283789
 20
112.2923903872
 30
0.0
 11
166.5022241961
 21
110.710232726
 31
0.0
  0
LINE
  5
122
330
1F
100
AcDbEntity
  8
0
  6
HIDDEN
 62
     7
370
     0
100
AcDbLine
 10
169.8248771544
 20
111.6309288239
 30
0.0
 11
168.5699548581
 21
112.7527384361
 31
0.0
  0
LINE
  5
123
330
1F
100
AcDbEntity
  8
0
  6
HIDDEN
 62
     7
370
     0
100
AcDbLine
 10
166.9086283789
 20
112.2923903872
 30
0.0
 11
168.5699548581
 21
112.7527384361
 31
0.0
  0
LWPOLYLINE
  5
124
330
1F
100
AcDbEntity
  8
0
  6
HIDDEN
 62
     7
370
     0
100
AcDbPolyline
 90
       18
 70
   128
 43
0.0
 10
168.632825804
 20
114.0235595081
 10
167.8988229896
 20
114.0594901062
 10
167.2005731161
 20
113.8438326378
 10
166.632378698
 20
113.4057128389
 10
166.27097754
 20
112.8043012162
 10
166.165178871
 20
112.1208217419
 10
166.3292713875
 20
111.4475821061
 10
166.7410934859
 20
110.8755070523
 10
167.3450263099
 20
110.4818584865
 10
168.059505385
 20
110.3198008288
 10
168.7880363531
 20
110.4112208637
 10
169.43222707
 20
110.7437718092
 10
169.9050760098
 20
111.2725408171
 10
170.1427223031
 20
111.9261147031
 10
170.1130705011
 20
112.6162246921
 10
169.8201252439
 20
113.2496676062
 10
169.3034504118
 20
113.7408934698
 10
168.632825804
 20
114.0235595081
  0
LWPOLYLINE
  5
125
330
1F
100
AcDbEntity
  8
0
  6
HIDDEN
 62
     7
370
     0
100
AcDbPolyline
 90
       20
 70
   128
 43
0.0
 10
148.4515537134
 20
111.4071299216
 10
148.5697611187
 20
110.6139775266
 10
148.8064975942
 20
109.861924298
 10
149.1361090697
 20
109.2324668725
 10
149.5228770272
 20
108.7938167291
 10
149.9248891573
 20
108.5935084173
 10
150.2985812078
 20
108.6532484507
 10
150.6034578465
 20
108.9665630697
 10
150.8064809591
 20
109.4994997739
 10
150.885649841
 20
110.1943066019
 10
150.8323853155
 20
110.9756904528
 10
150.6524594204
 20
111.7589762621
 10
150.3653699183
 20
112.4592828584
 10
150.0022274113
 20
113.0007211555
 10
149.6023840249
 20
113.3246179127
 10
149.2091689941
 20
113.3958738906
 10
148.865193269
 20
113.2067673983
 10
148.6077319566
 20
112.7777910585
 10
148.4646849851
 20
112.155431114
 10
148.4515537134
 20
111.4071299216
  0
LWPOLYLINE
  5
126
330
1F
100
AcDbEntity
  8
0
  6
HIDDEN
 62
     7
370
     0
100
AcDbPolyline
 90
       22
 70
   128
 43
0.0
 10
148.4539918895
 20
111.5557234483
 10
148.5785535925
 20
110.674876528
 10
148.8241569269
 20
109.8271822941
 10
149.1689789586
 20
109.0879620992
 10
149.582380737
 20
108.5228989017
 10
150.0276296998
 20
108.1822010464
 10
150.4651635227
 20
108.0961410329
 10
150.8561054055
 20
108.272365671
 10
151.1657184462
 20
108.6952166283
 10
151.3664921676
 20
109.3271217417
 10
151.4405869433
 20
110.1119334686
 10
151.3814191274
 20
110.9799178431
 10
151.19424604
 20
111.8539506444
 10
150.8956988312
 20
112.6563702225
 10
150.5123047308
 20
113.3158780765
 10
150.0781299871
 20
113.7738740394
 10
149.6317529314
 20
113.98966316
 10
149.2128361239
 20
113.944071628
 10
148.8586021615
 20
113.641150451
 10
148.6005262861
 20
113.107815505
 10
148.4615396719
 20
112.3914559404
 10
148.4539918895
 20
111.5557234483
  0
LWPOLYLINE
  5
127
330
1F
100
AcDbEntity
  8
0
  6
HIDDEN
 62
     7
370
     0
100
AcDbPolyline
 90
       22
 70
   128
 43
0.0
 10
151.6408435047
 20
112.1850164467
 10
151.7654052076
 20
111.3041695265
 10
152.011008542
 20
110.4564752926
 10
152.3558305738
 20
109.7172550977
 10
152.7692323521
 20
109.1521919002
 10
153.2144813149
 20
108.8114940449
 10
153.6520151378
 20
108.7254340313
 10
154.0429570206
 20
108.9016586695
 10
154.3525700614
 20
109.3245096268
 10
154.5533437827
 20
109.9564147401
 10
154.6274385584
 20
110.741226467
 10
154.5682707425
 20
111.6092108415
 10
154.3810976551
 20
112.4832436428
 10
154.0825504464
 20
113.285663221
 10
153.699156346
 20
113.945171075
 10
153.2649816023
 20
114.4031670379
 10
152.8186045465
 20
114.6189561585
 10
152.399687739
 20
114.5733646264
 10
152.0454537766
 20
114.2704434494
 10
151.7873779012
 20
113.7371085034
 10
151.6483912871
 20
113.0207489389
 10
151.6408435047
 20
112.1850164467
  0
LINE
  5
128
330
1F
100
AcDbEntity
  8
0
  6
HIDDEN
 62
     7
370
     0
100
AcDbLine
 10
150.1920021076
 20
109.3907348632
 30
0.0
 11
150.521960128
 21
110.7001011944
 31
0.0
  0
LINE
  5
129
330
1F
100
AcDbEntity
  8
0
  6
HIDDEN
 62
     7
370
     0
100
AcDbLine
 10
149.9935086956
 20
112.3026081082
 30
0.0
 11
150.521960128
 21
110.7001011944
 31
0.0
  0
LINE
  5
12A
330
1F
100
AcDbEntity
  8
0
  6
HIDDEN
 62
     7
370
     0
100
AcDbLine
 10
149.1350992429
 20
112.5957486909
 30
0.0
 11
149.9935086956
 21
112.3026081082
 31
0.0
  0
LINE
  5
12B
330
1F
100
AcDbEntity
  8
0
  6
HIDDEN
 62
     7
370
     0
100
AcDbLine
 10
149.1350992429
 20
112.5957486909
 30
0.0
 11
148.8051412226
 21
111.2863823598
 31
0.0
  0
LINE
  5
12C
330
1F
100
AcDbEntity
  8
0
  6
HIDDEN
 62
     7
370
     0
100
AcDbLine
 10
149.333592655
 20
109.6838754459
 30
0.0
 11
148.8051412226
 21
111.2863823598
 31
0.0
  0
LINE
  5
12D
330
1F
100
AcDbEntity
  8
0
  6
HIDDEN
 62
     7
370
     0
100
AcDbLine
 10
149.333592655
 20
109.6838754459
 30
0.0
 11
150.1920021076
 21
109.3907348632
 31
0.0
  0
LINE
  5
12E
330
1F
100
AcDbEntity
  8
0
  6
HIDDEN
 62
     7
370
     0
100
AcDbLine
 10
152.2540109355
 20
111.0421213377
 30
0.0
 11
150.521960128
 21
110.7001011944
 31
0.0
  0
LWPOLYLINE
  5
12F
330
1F
100
AcDbEntity
  8
0
  6
HIDDEN
 62
     7
370
     0
100
AcDbPolyline
 90
       18
 70
   128
 43
0.0
 10
153.002471837
 20
112.186781724
 10
153.117208486
 20
111.4626643149
 10
153.3503171583
 20
110.7906280798
 10
153.6703152359
 20
110.2614352361
 10
154.0339852053
 20
109.9465562097
 10
154.392211422
 20
109.888517158
 10
154.6966134504
 20
110.0951565764
 10
154.9060801098
 20
110.5385666666
 10
154.9923217672
 20
111.1588624387
 10
154.9436910089
 20
111.8722695117
 10
154.7667556882
 20
112.5824383071
 10
154.4854119006
 20
113.193456594
 10
154.1376566837
 20
113.6228029669
 10
153.7704563064
 20
113.8124918191
 10
153.4334032145
 20
113.7369046201
 10
153.1720182956
 20
113.4062498398
 10
153.0216030315
 20
112.8651842386
 10
153.002471837
 20
112.186781724
  0
LINE
  5
130
330
1F
100
AcDbEntity
  8
0
  6
HIDDEN
 62
     7
370
     0
100
AcDbLine
 10
151.7255595032
 20
112.6446282515
 30
0.0
 11
149.9935086956
 21
112.3026081082
 31
0.0
  0
LINE
  5
131
330
1F
100
AcDbEntity
  8
0
  6
HIDDEN
 62
     7
370
     0
100
AcDbLine
 10
150.8671500505
 20
112.9377688342
 30
0.0
 11
150.5371920302
 21
111.6284025031
 31
0.0
  0
LINE
  5
132
330
1F
100
AcDbEntity
  8
0
  6
HIDDEN
 62
     7
370
     0
100
AcDbLine
 10
151.0656434625
 20
110.0258955892
 30
0.0
 11
151.9240529152
 21
109.7327550066
 31
0.0
  0
LINE
  5
133
330
1F
100
AcDbEntity
  8
0
  6
HIDDEN
 62
     7
370
     0
100
AcDbLine
 10
151.0656434625
 20
110.0258955892
 30
0.0
 11
150.5371920302
 21
111.6284025031
 31
0.0
  0
LINE
  5
134
330
1F
100
AcDbEntity
  8
0
  6
HIDDEN
 62
     7
370
     0
100
AcDbLine
 10
150.8671500505
 20
112.9377688342
 30
0.0
 11
151.7255595032
 21
112.6446282515
 31
0.0
  0
LINE
  5
135
330
1F
100
AcDbEntity
  8
0
  6
HIDDEN
 62
     7
370
     0
100
AcDbLine
 10
151.9240529152
 20
109.7327550066
 30
0.0
 11
152.2540109355
 21
111.0421213377
 31
0.0
  0
LINE
  5
136
330
1F
100
AcDbEntity
  8
0
  6
HIDDEN
 62
     7
370
     0
100
AcDbLine
 10
151.7255595032
 20
112.6446282515
 30
0.0
 11
152.2540109355
 21
111.0421213377
 31
0.0
  0
LINE
  5
137
330
1F
100
AcDbEntity
  8
0
  6
HIDDEN
 62
     7
370
     0
100
AcDbLine
 10
151.0656434625
 20
110.0258955892
 30
0.0
 11
149.333592655
 21
109.6838754459
 31
0.0
  0
LINE
  5
138
330
1F
100
AcDbEntity
  8
0
  6
HIDDEN
 62
     7
370
     0
100
AcDbLine
 10
151.9240529152
 20
109.7327550066
 30
0.0
 11
150.1920021076
 21
109.3907348632
 31
0.0
  0
LINE
  5
139
330
1F
100
AcDbEntity
  8
0
  6
HIDDEN
 62
     7
370
     0
100
AcDbLine
 10
150.5371920302
 20
111.6284025031
 30
0.0
 11
148.8051412226
 21
111.2863823598
 31
0.0
  0
LINE
  5
13A
330
1F
100
AcDbEntity
  8
0
  6
HIDDEN
 62
     7
370
     0
100
AcDbLine
 10
150.8671500505
 20
112.9377688342
 30
0.0
 11
149.1350992429
 21
112.5957486909
 31
0.0
  0
LWPOLYLINE
  5
13B
330
1F
100
AcDbEntity
  8
0
  6
HIDDEN
 62
     7
370
     0
100
AcDbPolyline
 90
       22
 70
   128
 43
0.0
 10
151.6408435047
 20
137.8597767126
 10
151.7654052076
 20
138.7406236328
 10
152.011008542
 20
139.5883178667
 10
152.3558305738
 20
140.3275380616
 10
152.7692323521
 20
140.8926012591
 10
153.2144813149
 20
141.2332991144
 10
153.6520151378
 20
141.319359128
 10
154.0429570206
 20
141.1431344898
 10
154.3525700614
 20
140.7202835325
 10
154.5533437827
 20
140.0883784192
 10
154.6274385584
 20
139.3035666923
 10
154.5682707425
 20
138.4355823178
 10
154.3810976551
 20
137.5615495165
 10
154.0825504464
 20
136.7591299384
 10
153.699156346
 20
136.0996220843
 10
153.2649816023
 20
135.6416261214
 10
152.8186045465
 20
135.4258370008
 10
152.399687739
 20
135.4714285329
 10
152.0454537766
 20
135.7743497099
 10
151.7873779012
 20
136.3076846559
 10
151.6483912871
 20
137.0240442205
 10
151.6408435047
 20
137.8597767126
  0
LWPOLYLINE
  5
13C
330
1F
100
AcDbEntity
  8
0
  6
HIDDEN
 62
     7
370
     0
100
AcDbPolyline
 90
       18
 70
   128
 43
0.0
 10
153.002471837
 20
137.8580114353
 10
153.117208486
 20
138.5821288444
 10
153.3503171583
 20
139.2541650795
 10
153.6703152359
 20
139.7833579232
 10
154.0339852053
 20
140.0982369496
 10
154.392211422
 20
140.1562760013
 10
154.6966134504
 20
139.9496365829
 10
154.9060801098
 20
139.5062264927
 10
154.9923217672
 20
138.8859307206
 10
154.9436910089
 20
138.1725236476
 10
154.7667556882
 20
137.4623548522
 10
154.4854119006
 20
136.8513365653
 10
154.1376566837
 20
136.4219901924
 10
153.7704563064
 20
136.2323013402
 10
153.4334032145
 20
136.3078885392
 10
153.1720182956
 20
136.6385433195
 10
153.0216030315
 20
137.1796089207
 10
153.002471837
 20
137.8580114353
  0
LWPOLYLINE
  5
13D
330
1F
100
AcDbEntity
  8
0
  6
HIDDEN
 62
     7
370
     0
100
AcDbPolyline
 90
       22
 70
   128
 43
0.0
 10
148.4539918895
 20
138.4890697111
 10
148.5785535925
 20
139.3699166313
 10
148.8241569269
 20
140.2176108652
 10
149.1689789586
 20
140.9568310601
 10
149.582380737
 20
141.5218942576
 10
150.0276296998
 20
141.8625921129
 10
150.4651635227
 20
141.9486521264
 10
150.8561054055
 20
141.7724274883
 10
151.1657184462
 20
141.349576531
 10
151.3664921676
 20
140.7176714176
 10
151.4405869433
 20
139.9328596907
 10
151.3814191274
 20
139.0648753162
 10
151.19424604
 20
138.1908425149
 10
150.8956988312
 20
137.3884229368
 10
150.5123047308
 20
136.7289150828
 10
150.0781299871
 20
136.2709191199
 10
149.6317529314
 20
136.0551299993
 10
149.2128361239
 20
136.1007215313
 10
148.8586021615
 20
136.4036427083
 10
148.6005262861
 20
136.9369776543
 10
148.4615396719
 20
137.6533372189
 10
148.4539918895
 20
138.4890697111
  0
LWPOLYLINE
  5
13E
330
1F
100
AcDbEntity
  8
0
  6
HIDDEN
 62
     7
370
     0
100
AcDbPolyline
 90
       20
 70
   128
 43
0.0
 10
148.4515537134
 20
138.6376632377
 10
148.5697611187
 20
139.4308156327
 10
148.8064975942
 20
140.1828688613
 10
149.1361090697
 20
140.8123262868
 10
149.5228770272
 20
141.2509764302
 10
149.9248891573
 20
141.451284742
 10
150.2985812078
 20
141.3915447086
 10
150.6034578465
 20
141.0782300896
 10
150.8064809591
 20
140.5452933854
 10
150.885649841
 20
139.8504865574
 10
150.8323853155
 20
139.0691027065
 10
150.6524594204
 20
138.2858168972
 10
150.3653699183
 20
137.5855103009
 10
150.0022274113
 20
137.0440720038
 10
149.6023840249
 20
136.7201752466
 10
149.2091689941
 20
136.6489192688
 10
148.865193269
 20
136.838025761
 10
148.6077319566
 20
137.2670021008
 10
148.4646849851
 20
137.8893620453
 10
148.4515537134
 20
138.6376632377
  0
LINE
  5
13F
330
1F
100
AcDbEntity
  8
0
  6
HIDDEN
 62
     7
370
     0
100
AcDbLine
 10
151.0656434625
 20
140.0188975701
 30
0.0
 11
150.5371920302
 21
138.4163906562
 31
0.0
  0
LINE
  5
140
330
1F
100
AcDbEntity
  8
0
  6
HIDDEN
 62
     7
370
     0
100
AcDbLine
 10
149.333592655
 20
140.3609177134
 30
0.0
 11
148.8051412226
 21
138.7584107995
 31
0.0
  0
LINE
  5
141
330
1F
100
AcDbEntity
  8
0
  6
HIDDEN
 62
     7
370
     0
100
AcDbLine
 10
149.1350992429
 20
137.4490444684
 30
0.0
 11
148.8051412226
 21
138.7584107995
 31
0.0
  0
LINE
  5
142
330
1F
100
AcDbEntity
  8
0
  6
HIDDEN
 62
     7
370
     0
100
AcDbLine
 10
150.8671500505
 20
137.1070243251
 30
0.0
 11
150.5371920302
 21
138.4163906562
 31
0.0
  0
LINE
  5
143
330
1F
100
AcDbEntity
  8
0
  6
HIDDEN
 62
     7
370
     0
100
AcDbLine
 10
150.5371920302
 20
138.4163906562
 30
0.0
 11
148.8051412226
 21
138.7584107995
 31
0.0
  0
LINE
  5
144
330
1F
100
AcDbEntity
  8
0
  6
HIDDEN
 62
     7
370
     0
100
AcDbLine
 10
149.333592655
 20
140.3609177134
 30
0.0
 11
150.1920021076
 21
140.6540582961
 31
0.0
  0
LINE
  5
145
330
1F
100
AcDbEntity
  8
0
  6
HIDDEN
 62
     7
370
     0
100
AcDbLine
 10
151.0656434625
 20
140.0188975701
 30
0.0
 11
151.9240529152
 21
140.3120381528
 31
0.0
  0
LINE
  5
146
330
1F
100
AcDbEntity
  8
0
  6
HIDDEN
 62
     7
370
     0
100
AcDbLine
 10
151.0656434625
 20
140.0188975701
 30
0.0
 11
149.333592655
 21
140.3609177134
 31
0.0
  0
LINE
  5
147
330
1F
100
AcDbEntity
  8
0
  6
HIDDEN
 62
     7
370
     0
100
AcDbLine
 10
151.7255595032
 20
137.4001649078
 30
0.0
 11
149.9935086956
 21
137.7421850511
 31
0.0
  0
LINE
  5
148
330
1F
100
AcDbEntity
  8
0
  6
HIDDEN
 62
     7
370
     0
100
AcDbLine
 10
150.8671500505
 20
137.1070243251
 30
0.0
 11
149.1350992429
 21
137.4490444684
 31
0.0
  0
LINE
  5
149
330
1F
100
AcDbEntity
  8
0
  6
HIDDEN
 62
     7
370
     0
100
AcDbLine
 10
149.1350992429
 20
137.4490444684
 30
0.0
 11
149.9935086956
 21
137.7421850511
 31
0.0
  0
LINE
  5
14A
330
1F
100
AcDbEntity
  8
0
  6
HIDDEN
 62
     7
370
     0
100
AcDbLine
 10
150.8671500505
 20
137.1070243251
 30
0.0
 11
151.7255595032
 21
137.4001649078
 31
0.0
  0
LINE
  5
14B
330
1F
100
AcDbEntity
  8
0
  6
HIDDEN
 62
     7
370
     0
100
AcDbLine
 10
152.2540109355
 20
139.0026718216
 30
0.0
 11
150.521960128
 21
139.3446919649
 31
0.0
  0
LINE
  5
14C
330
1F
100
AcDbEntity
  8
0
  6
HIDDEN
 62
     7
370
     0
100
AcDbLine
 10
151.9240529152
 20
140.3120381528
 30
0.0
 11
150.1920021076
 21
140.6540582961
 31
0.0
  0
LINE
  5
14D
330
1F
100
AcDbEntity
  8
0
  6
HIDDEN
 62
     7
370
     0
100
AcDbLine
 10
150.1920021076
 20
140.6540582961
 30
0.0
 11
150.521960128
 21
139.3446919649
 31
0.0
  0
LINE
  5
14E
330
1F
100
AcDbEntity
  8
0
  6
HIDDEN
 62
     7
370
     0
100
AcDbLine
 10
151.9240529152
 20
140.3120381528
 30
0.0
 11
152.2540109355
 21
139.0026718216
 31
0.0
  0
LINE
  5
14F
330
1F
100
AcDbEntity
  8
0
  6
HIDDEN
 62
     7
370
     0
100
AcDbLine
 10
149.9935086956
 20
137.7421850511
 30
0.0
 11
150.521960128
 21
139.3446919649
 31
0.0
  0
LINE
  5
150
330
1F
100
AcDbEntity
  8
0
  6
HIDDEN
 62
     7
370
     0
100
AcDbLine
 10
151.7255595032
 20
137.4001649078
 30
0.0
 11
152.2540109355
 21
139.0026718216
 31
0.0
  0
LWPOLYLINE
  5
151
330
1F
100
AcDbEntity
  8
0
  6
HIDDEN
 62
     7
370
     0
100
AcDbPolyline
 90
       22
 70
   128
 43
0.0
 10
167.4596379823
 20
135.449794643
 10
166.6313314317
 20
135.7665111428
 10
165.939169285
 20
136.2985805546
 10
165.4446531864
 20
136.9987261761
 10
165.1917230613
 20
137.8047369963
 10
165.2028528614
 20
138.6449954167
 10
165.477053655
 20
139.4448407892
 10
165.9899614984
 20
140.1332033425
 10
166.6960022788
 20
140.6489190428
 10
167.5324411745
 20
140.9461642871
 10
168.4249569189
 20
140.9985275308
 10
169.2942455713
 20
140.80135607
 10
170.0630670203
 20
140.3721694543
 10
170.6631081062
 20
139.7491027979
 10
171.0410525451
 20
138.9875183076
 10
171.1633183153
 20
138.1550861074
 10
171.0190415663
 20
137.3257714514
 10
170.6210419206
 20
136.5732625862
 10
170.0046833932
 20
135.9644232268
 10
169.2247321441
 20
135.5533514221
 10
168.3504902646
 20
135.3765727059
 10
167.4596379823
 20
135.449794643
  0
LWPOLYLINE
  5
152
330
1F
100
AcDbEntity
  8
0
  6
HIDDEN
 62
     7
370
     0
100
AcDbPolyline
 90
       18
 70
   128
 43
0.0
 10
167.6942755466
 20
136.0212336512
 10
167.0236509387
 20
136.3038996895
 10
166.5069761067
 20
136.7951255531
 10
166.2140308495
 20
137.4285684672
 10
166.1843790475
 20
138.1186784563
 10
166.4220253407
 20
138.7722523422
 10
166.8948742806
 20
139.3010213501
 10
167.5390649975
 20
139.6335722956
 10
168.2675959656
 20
139.7249923305
 10
168.9820750407
 20
139.5629346728
 10
169.5860078646
 20
139.169286107
 10
169.9978299631
 20
138.5972110532
 10
170.1619224796
 20
137.9239714174
 10
170.0561238106
 20
137.2404919431
 10
169.6947226525
 20
136.6390803204
 10
169.1265282344
 20
136.2009605216
 10
168.428278361
 20
135.9853030531
 10
167.6942755466
 20
136.0212336512
  0
LWPOLYLINE
  5
153
330
1F
100
AcDbEntity
  8
0
  6
HIDDEN
 62
     7
370
     0
100
AcDbPolyline
 90
       22
 70
   128
 43
0.0
 10
167.4596379823
 20
136.7083806399
 10
166.6313314317
 20
137.0250971397
 10
165.939169285
 20
137.5571665515
 10
165.4446531864
 20
138.257312173
 10
165.1917230613
 20
139.0633229932
 10
165.2028528614
 20
139.9035814136
 10
165.477053655
 20
140.7034267861
 10
165.9899614984
 20
141.3917893394
 10
166.6960022788
 20
141.9075050397
 10
167.5324411745
 20
142.204750284
 10
168.4249569189
 20
142.2571135277
 10
169.2942455713
 20
142.0599420669
 10
170.0630670203
 20
141.6307554512
 10
170.6631081062
 20
141.0076887949
 10
171.0410525451
 20
140.2461043045
 10
171.1633183153
 20
139.4136721043
 10
171.0190415663
 20
138.5843574483
 10
170.6210419206
 20
137.8318485831
 10
170.0046833932
 20
137.2230092237
 10
169.2247321441
 20
136.811937419
 10
168.3504902646
 20
136.6351587028
 10
167.4596379823
 20
136.7083806399
  0
LINE
  5
154
330
1F
100
AcDbEntity
  8
0
  6
HIDDEN
 62
     7
370
     0
100
AcDbLine
 10
166.9086283789
 20
139.9960219966
 30
0.0
 11
168.5699548581
 21
140.4563700455
 31
0.0
  0
LINE
  5
155
330
1F
100
AcDbEntity
  8
0
  6
HIDDEN
 62
     7
370
     0
100
AcDbLine
 10
168.5699548581
 20
140.4563700455
 30
0.0
 11
168.5699548581
 21
141.1404103322
 31
0.0
  0
LINE
  5
156
330
1F
100
AcDbEntity
  8
0
  6
HIDDEN
 62
     7
370
     0
100
AcDbLine
 10
169.8248771544
 20
139.3345604333
 30
0.0
 11
168.5699548581
 21
140.4563700455
 31
0.0
  0
LINE
  5
157
330
1F
100
AcDbEntity
  8
0
  6
HIDDEN
 62
     7
370
     0
100
AcDbLine
 10
166.9086283789
 20
139.9960219966
 30
0.0
 11
166.9086283789
 21
140.6800622832
 31
0.0
  0
LINE
  5
158
330
1F
100
AcDbEntity
  8
0
  6
HIDDEN
 62
     7
370
     0
100
AcDbLine
 10
166.5022241961
 20
138.4138643354
 30
0.0
 11
166.9086283789
 21
139.9960219966
 31
0.0
  0
LINE
  5
159
330
1F
100
AcDbEntity
  8
0
  6
HIDDEN
 62
     7
370
     0
100
AcDbLine
 10
169.4184729716
 20
137.7524027721
 30
0.0
 11
169.4184729716
 21
138.4364430588
 31
0.0
  0
LINE
  5
15A
330
1F
100
AcDbEntity
  8
0
  6
HIDDEN
 62
     7
370
     0
100
AcDbLine
 10
169.4184729716
 20
138.4364430588
 30
0.0
 11
169.8248771544
 21
140.0186007199
 31
0.0
  0
LINE
  5
15B
330
1F
100
AcDbEntity
  8
0
  6
HIDDEN
 62
     7
370
     0
100
AcDbLine
 10
169.8248771544
 20
139.3345604333
 30
0.0
 11
169.8248771544
 21
140.0186007199
 31
0.0
  0
LINE
  5
15C
330
1F
100
AcDbEntity
  8
0
  6
HIDDEN
 62
     7
370
     0
100
AcDbLine
 10
169.4184729716
 20
137.7524027721
 30
0.0
 11
169.8248771544
 21
139.3345604333
 31
0.0
  0
LINE
  5
15D
330
1F
100
AcDbEntity
  8
0
  6
HIDDEN
 62
     7
370
     0
100
AcDbLine
 10
167.7571464925
 20
137.2920547232
 30
0.0
 11
167.7571464925
 21
137.9760950098
 31
0.0
  0
LINE
  5
15E
330
1F
100
AcDbEntity
  8
0
  6
HIDDEN
 62
     7
370
     0
100
AcDbLine
 10
166.5022241961
 20
139.0979046221
 30
0.0
 11
167.7571464925
 21
137.9760950098
 31
0.0
  0
LINE
  5
15F
330
1F
100
AcDbEntity
  8
0
  6
HIDDEN
 62
     7
370
     0
100
AcDbLine
 10
166.5022241961
 20
138.4138643354
 30
0.0
 11
166.5022241961
 21
139.0979046221
 31
0.0
  0
LINE
  5
160
330
1F
100
AcDbEntity
  8
0
  6
HIDDEN
 62
     7
370
     0
100
AcDbLine
 10
166.5022241961
 20
138.4138643354
 30
0.0
 11
167.7571464925
 21
137.2920547232
 31
0.0
  0
LINE
  5
161
330
1F
100
AcDbEntity
  8
0
  6
HIDDEN
 62
     7
370
     0
100
AcDbLine
 10
169.4184729716
 20
138.4364430588
 30
0.0
 11
167.7571464925
 21
137.9760950098
 31
0.0
  0
LINE
  5
162
330
1F
100
AcDbEntity
  8
0
  6
HIDDEN
 62
     7
370
     0
100
AcDbLine
 10
169.4184729716
 20
137.7524027721
 30
0.0
 11
167.7571464925
 21
137.2920547232
 31
0.0
  0
LWPOLYLINE
  5
163
330
1F
100
AcDbEntity
  8
0
  6
HIDDEN
 62
     7
370
     0
100
AcDbPolyline
 90
       20
 70
   128
 43
0.0
 10
167.5897445117
 20
137.3243883158
 10
166.8489499849
 20
137.6205036624
 10
166.2506128411
 20
138.1266041813
 10
165.8595721939
 20
138.7878460284
 10
165.7182033651
 20
139.5325733893
 10
165.8418258608
 20
140.2800834988
 10
166.2170432654
 20
140.9493720378
 10
166.803194951
 20
141.4679112079
 10
167.5367622875
 20
141.7795092442
 10
168.3382518714
 20
141.8503996644
 10
169.12080987
 20
141.6729003916
 10
169.7996339814
 20
141.266246226
 10
170.3011630801
 20
140.6745044566
 10
170.5710487063
 20
139.9617994857
 10
170.5800445646
 20
139.2053639558
 10
170.3271758143
 20
138.4871693939
 10
169.8398447081
 20
137.8850433245
 10
169.170861133
 20
137.4642354504
 10
168.3927198398
 20
137.2703468341
 10
167.5897445117
 20
137.3243883158
  0
LINE
  5
164
330
1F
100
AcDbEntity
  8
0
  6
HIDDEN
 62
     7
370
     0
100
AcDbLine
 10
166.5022241961
 20
139.0979046221
 30
0.0
 11
166.9086283789
 21
140.6800622832
 31
0.0
  0
LINE
  5
165
330
1F
100
AcDbEntity
  8
0
  6
HIDDEN
 62
     7
370
     0
100
AcDbLine
 10
169.8248771544
 20
140.0186007199
 30
0.0
 11
168.5699548581
 21
141.1404103322
 31
0.0
  0
LINE
  5
166
330
1F
100
AcDbEntity
  8
0
  6
HIDDEN
 62
     7
370
     0
100
AcDbLine
 10
166.9086283789
 20
140.6800622832
 30
0.0
 11
168.5699548581
 21
141.1404103322
 31
0.0
  0
LINE
  5
167
330
1F
100
AcDbEntity
  8
0
  6
HIDDEN
 62
     7
370
     0
100
AcDbLine
 10
147.9635506753
 20
107.5996209769
 30
0.0
 11
150.2447245539
 21
108.050073939
 31
0.0
  0
LINE
  5
168
330
1F
100
AcDbEntity
  8
0
  6
HIDDEN
 62
     7
370
     0
100
AcDbLine
 10
149.0823767967
 20
113.9364096151
 30
0.0
 11
147.9635506753
 21
113.7154801431
 31
0.0
  0
LINE
  5
169
330
1F
100
AcDbEntity
  8
0
  6
HIDDEN
 62
     7
370
     0
100
AcDbLine
 10
170.6635506753
 20
110.4871753133
 30
0.0
 11
170.6635506753
 21
122.9746249618
 31
0.0
  0
LINE
  5
16A
330
1F
100
AcDbEntity
  8
0
  6
HIDDEN
 62
     7
370
     0
100
AcDbLine
 10
165.6635506753
 20
113.3293868199
 30
0.0
 11
165.6635506753
 21
110.4866042588
 31
0.0
  0
LINE
  5
16B
330
1F
100
AcDbEntity
  8
0
  6
HIDDEN
 62
     7
370
     0
100
AcDbLine
 10
165.6635506753
 20
122.9736947833
 30
0.0
 11
165.6635506753
 21
114.9812510763
 31
0.0
  0
LINE
  5
16C
330
1F
100
AcDbEntity
  8
0
  6
HIDDEN
 62
     7
370
     0
100
AcDbLine
 10
150.3540591125
 20
108.9890426087
 30
0.0
 11
166.5624943616
 21
112.1896481122
 31
0.0
  0
LINE
  5
16D
330
1F
100
AcDbEntity
  8
0
  6
HIDDEN
 62
     7
370
     0
100
AcDbLine
 10
166.574090117
 20
116.4730392893
 30
0.0
 11
149.5404156824
 21
113.1094775819
 31
0.0
  0
ARC
  5
16E
330
1F
100
AcDbEntity
  8
0
  6
HIDDEN
 62
     7
370
     0
100
AcDbCircle
 10
247.9635506753
 20
144.0223965797
 30
0.0
 40
1.0
100
AcDbArc
 50
270.0
 51
0.0
  0
ARC
  5
16F
330
1F
100
AcDbEntity
  8
0
  6
HIDDEN
 62
     7
370
     0
100
AcDbCircle
 10
247.9635506753
 20
106.0223965797
 30
0.0
 40
1.0
100
AcDbArc
 50
0.0
 51
90.0
  0
ARC
  5
170
330
1F
100
AcDbEntity
  8
0
  6
HIDDEN
 62
     7
370
     0
100
AcDbCircle
 10
209.4635506753
 20
142.5223965797
 30
0.0
 40
1.0
100
AcDbArc
 50
90.0
 51
180.0
  0
ARC
  5
171
330
1F
100
AcDbEntity
  8
0
  6
HIDDEN
 62
     7
370
     0
100
AcDbCircle
 10
209.4635506753
 20
107.5223965797
 30
0.0
 40
1.0
100
AcDbArc
 50
180.0
 51
270.0
  0
ARC
  5
172
330
1F
100
AcDbEntity
  8
0
  6
HIDDEN
 62
     7
370
     0
100
AcDbCircle
 10
211.3318981777
 20
142.5223965797
 30
0.0
 40
1.000000000000023
100
AcDbArc
 50
75.0
 51
90.0
  0
ARC
  5
173
330
1F
100
AcDbEntity
  8
0
  6
HIDDEN
 62
     7
370
     0
100
AcDbCircle
 10
211.3318981777
 20
107.5223965797
 30
0.0
 40
1.000000000000009
100
AcDbArc
 50
270.0
 51
285.0
  0
LINE
  5
174
330
1F
100
AcDbEntity
  8
0
  6
HIDDEN
 62
     7
370
     0
100
AcDbLine
 10
211.3318981777
 20
143.5223965797
 30
0.0
 11
209.4635506753
 21
143.5223965797
 31
0.0
  0
LINE
  5
175
330
1F
100
AcDbEntity
  8
0
  6
HIDDEN
 62
     7
370
     0
100
AcDbLine
 10
209.4635506753
 20
106.5223965797
 30
0.0
 11
211.3318981777
 21
106.5223965797
 31
0.0
  0
LINE
  5
176
330
1F
100
AcDbEntity
  8
0
  6
HIDDEN
 62
     7
370
     0
100
AcDbLine
 10
211.5907172228
 20
106.5564707534
 30
0.0
 11
213.3295760791
 21
107.0223965797
 31
0.0
  0
LINE
  5
177
330
1F
100
AcDbEntity
  8
0
  6
HIDDEN
 62
     7
370
     0
100
AcDbLine
 10
213.3295760791
 20
143.0223965797
 30
0.0
 11
211.5907172228
 21
143.4883224059
 31
0.0
  0
LINE
  5
178
330
1F
100
AcDbEntity
  8
0
  6
HIDDEN
 62
     7
370
     0
100
AcDbLine
 10
223.7501360867
 20
143.0223965797
 30
0.0
 11
213.3295760791
 21
143.0223965797
 31
0.0
  0
LINE
  5
179
330
1F
100
AcDbEntity
  8
0
  6
HIDDEN
 62
     7
370
     0
100
AcDbLine
 10
247.9635506753
 20
143.0223965797
 30
0.0
 11
238.0910553608
 21
143.0223965797
 31
0.0
  0
LINE
  5
17A
330
1F
100
AcDbEntity
  8
0
  6
HIDDEN
 62
     7
370
     0
100
AcDbLine
 10
213.3295760791
 20
107.0223965797
 30
0.0
 11
247.9635506753
 21
107.0223965797
 31
0.0
  0
ARC
  5
17B
330
1F
100
AcDbEntity
  8
0
  6
HIDDEN
 62
     7
370
     0
100
AcDbCircle
 10
44.3635506753
 20
111.3223965797
 30
0.0
 40
1.20000000000001
100
AcDbArc
 50
90.0
 51
180.0
  0
ARC
  5
17C
330
1F
100
AcDbEntity
  8
0
  6
HIDDEN
 62
     7
370
     0
100
AcDbCircle
 10
44.3635506753
 20
138.7223965797
 30
0.0
 40
1.200000000000017
100
AcDbArc
 50
180.0
 51
270.0
  0
ARC
  5
17D
330
1F
100
AcDbEntity
  8
0
  6
HIDDEN
 62
     7
370
     0
100
AcDbCircle
 10
175.9635506753
 20
87.7223965797
 30
0.0
 40
2.0
100
AcDbArc
 50
0.0
 51
90.0
  0
LINE
  5
17E
330
1F
100
AcDbEntity
  8
0
  6
HIDDEN
 62
     7
370
     0
100
AcDbLine
 10
177.9635506753
 20
75.9221811926
 30
0.0
 11
177.9635506753
 21
87.7223965797
 31
0.0
  0
ARC
  5
17F
330
1F
100
AcDbEntity
  8
0
  6
HIDDEN
 62
     7
370
     0
100
AcDbCircle
 10
175.9635506753
 20
162.3223965797
 30
0.0
 40
2.0
100
AcDbArc
 50
270.0
 51
0.0
  0
LINE
  5
180
330
1F
100
AcDbEntity
  8
0
  6
HIDDEN
 62
     7
370
     0
100
AcDbLine
 10
177.9635506753
 20
162.3223965797
 30
0.0
 11
177.9635506753
 21
174.1224999302
 31
0.0
  0
LINE
  5
181
330
1F
100
AcDbEntity
  8
0
  6
HIDDEN
 62
     7
370
     0
100
AcDbLine
 10
54.055923106
 20
112.2973965797
 30
0.0
 11
54.9326105676
 21
112.2973965797
 31
0.0
  0
LINE
  5
182
330
1F
100
AcDbEntity
  8
0
  6
HIDDEN
 62
     7
370
     0
100
AcDbLine
 10
54.9326105676
 20
137.7473965797
 30
0.0
 11
54.055923106
 21
137.7473965797
 31
0.0
  0
ARC
  5
183
330
1F
100
AcDbEntity
  8
0
  6
HIDDEN
 62
     7
370
     0
100
AcDbCircle
 10
54.9326105676
 20
112.6973965797
 30
0.0
 40
0.3999999999999936
100
AcDbArc
 50
270.0
 51
330.0
  0
ARC
  5
184
330
1F
100
AcDbEntity
  8
0
  6
HIDDEN
 62
     7
370
     0
100
AcDbCircle
 10
54.9326105676
 20
137.3473965797
 30
0.0
 40
0.3999999999999865
100
AcDbArc
 50
30.0
 51
90.0
  0
ARC
  5
185
330
1F
100
AcDbEntity
  8
0
  6
HIDDEN
 62
     7
370
     0
100
AcDbCircle
 10
54.055923106
 20
112.6973965797
 30
0.0
 40
0.3999999999999986
100
AcDbArc
 50
255.0
 51
270.0
  0
ARC
  5
186
330
1F
100
AcDbEntity
  8
0
  6
HIDDEN
 62
     7
370
     0
100
AcDbCircle
 10
54.055923106
 20
137.3473965797
 30
0.0
 40
0.3999999999999986
100
AcDbArc
 50
90.0
 51
105.0
  0
LINE
  5
187
330
1F
100
AcDbEntity
  8
0
  6
HIDDEN
 62
     7
370
     0
100
AcDbLine
 10
53.952395488
 20
137.7337669102
 30
0.0
 11
53.1635506753
 21
137.5223965797
 31
0.0
  0
LINE
  5
188
330
1F
100
AcDbEntity
  8
0
  6
HIDDEN
 62
     7
370
     0
100
AcDbLine
 10
53.1635506753
 20
112.5223965797
 30
0.0
 11
53.952395488
 21
112.3110262491
 31
0.0
  0
LINE
  5
189
330
1F
100
AcDbEntity
  8
0
  6
HIDDEN
 62
     7
370
     0
100
AcDbLine
 10
55.2790207291
 20
112.4973965797
 30
0.0
 11
56.4481550242
 21
114.5223965797
 31
0.0
  0
LINE
  5
18A
330
1F
100
AcDbEntity
  8
0
  6
HIDDEN
 62
     7
370
     0
100
AcDbLine
 10
56.4481550242
 20
135.5223965797
 30
0.0
 11
55.2790207291
 21
137.5473965797
 31
0.0
  0
LINE
  5
18B
330
1F
100
AcDbEntity
  8
0
  6
HIDDEN
 62
     7
370
     0
100
AcDbLine
 10
44.3635506753
 20
112.5223965797
 30
0.0
 11
53.1635506753
 21
112.5223965797
 31
0.0
  0
LINE
  5
18C
330
1F
100
AcDbEntity
  8
0
  6
HIDDEN
 62
     7
370
     0
100
AcDbLine
 10
53.1635506753
 20
137.5223965797
 30
0.0
 11
44.3635506753
 21
137.5223965797
 31
0.0
  0
LINE
  5
18D
330
1F
100
AcDbEntity
  8
0
  6
HIDDEN
 62
     7
370
     0
100
AcDbLine
 10
56.4481550242
 20
114.5223965797
 30
0.0
 11
106.1635506753
 21
114.5223965797
 31
0.0
  0
LINE
  5
18E
330
1F
100
AcDbEntity
  8
0
  6
HIDDEN
 62
     7
370
     0
100
AcDbLine
 10
106.1635506753
 20
135.5223965797
 30
0.0
 11
56.4481550242
 21
135.5223965797
 31
0.0
  0
LINE
  5
18F
330
1F
100
AcDbEntity
  8
0
  6
HIDDEN
 62
     7
370
     0
100
AcDbLine
 10
106.1635506753
 20
114.5223965797
 30
0.0
 11
108.8674234609
 21
119.0223965797
 31
0.0
  0
LINE
  5
190
330
1F
100
AcDbEntity
  8
0
  6
HIDDEN
 62
     7
370
     0
100
AcDbLine
 10
108.8674234609
 20
131.0223965797
 30
0.0
 11
106.1635506753
 21
135.5223965797
 31
0.0
  0
LINE
  5
191
330
1F
100
AcDbEntity
  8
0
  6
HIDDEN
 62
     7
370
     0
100
AcDbLine
 10
220.9135506753
 20
165.0223965797
 30
0.0
 11
223.6635506753
 21
162.2723965797
 31
0.0
  0
LINE
  5
192
330
1F
100
AcDbEntity
  8
0
  6
HIDDEN
 62
     7
370
     0
100
AcDbLine
 10
238.1635506753
 20
162.2723965797
 30
0.0
 11
240.9135506753
 21
165.0223965797
 31
0.0
  0
LINE
  5
193
330
1F
100
AcDbEntity
  8
0
  6
HIDDEN
 62
     7
370
     0
100
AcDbLine
 10
177.9635549957
 20
174.0223971033
 30
0.0
 11
178.963554845
 21
175.0223968822
 31
0.0
  0
LINE
  5
194
330
1F
100
AcDbEntity
  8
0
  6
HIDDEN
 62
     7
370
     0
100
AcDbLine
 10
178.9635548457
 20
75.0223962764
 30
0.0
 11
177.9635549964
 21
76.0223960552
 31
0.0
  0
LINE
  5
195
330
1F
100
AcDbEntity
  8
0
  6
HIDDEN
 62
     7
370
     0
100
AcDbLine
 10
223.6635506753
 20
162.2723965797
 30
0.0
 11
223.6635506753
 21
142.9878304115
 31
0.0
  0
LINE
  5
196
330
1F
100
AcDbEntity
  8
0
  6
HIDDEN
 62
     7
370
     0
100
AcDbLine
 10
238.1635506753
 20
142.9937003911
 30
0.0
 11
238.1635506753
 21
162.2723965797
 31
0.0
  0
LINE
  5
197
330
1F
100
AcDbEntity
  8
0
  6
HIDDEN
 62
     7
370
     0
100
AcDbLine
 10
208.4635506753
 20
131.0223965797
 30
0.0
 11
108.8674234609
 21
131.0223965797
 31
0.0
  0
LINE
  5
198
330
1F
100
AcDbEntity
  8
0
  6
HIDDEN
 62
     7
370
     0
100
AcDbLine
 10
108.8674234609
 20
119.0223965797
 30
0.0
 11
208.4635506753
 21
119.0223965797
 31
0.0
  0
LINE
  5
199
330
1F
100
AcDbEntity
  8
0
  6
HIDDEN
 62
     7
370
     0
100
AcDbLine
 10
170.6635506753
 20
127.071098376
 30
0.0
 11
170.6635506753
 21
139.5581889005
 31
0.0
  0
LINE
  5
19A
330
1F
100
AcDbEntity
  8
0
  6
HIDDEN
 62
     7
370
     0
100
AcDbLine
 10
165.6635506753
 20
135.0676274543
 30
0.0
 11
165.6635506753
 21
127.0701681975
 31
0.0
  0
LINE
  5
19B
330
1F
100
AcDbEntity
  8
0
  6
HIDDEN
 62
     7
370
     0
100
AcDbLine
 10
165.6635506753
 20
139.557617846
 30
0.0
 11
165.6635506753
 21
136.715493081
 31
0.0
  0
LINE
  5
19C
330
1F
100
AcDbEntity
  8
0
  6
HIDDEN
 62
     7
370
     0
100
AcDbLine
 10
149.5404156824
 20
136.9353155774
 30
0.0
 11
166.5735350319
 21
133.5718634802
 31
0.0
  0
LINE
  5
19D
330
1F
100
AcDbEntity
  8
0
  6
HIDDEN
 62
     7
370
     0
100
AcDbLine
 10
166.5614151093
 20
137.8553581622
 30
0.0
 11
150.3540591125
 21
141.0557505506
 31
0.0
  0
LINE
  5
19E
330
1F
100
AcDbEntity
  8
0
  6
HIDDEN
 62
     7
370
     0
100
AcDbLine
 10
147.9635506753
 20
136.3293130162
 30
0.0
 11
149.0823767967
 21
136.1083835442
 31
0.0
  0
LINE
  5
19F
330
1F
100
AcDbEntity
  8
0
  6
HIDDEN
 62
     7
370
     0
100
AcDbLine
 10
150.2447245539
 20
141.9947192203
 30
0.0
 11
147.9635506753
 21
142.4451721825
 31
0.0
  0
LINE
  5
1A0
330
1F
100
AcDbEntity
  8
0
  6
HIDDEN
 62
     7
370
     0
100
AcDbLine
 10
238.9135506753
 20
164.0223965797
 30
0.0
 11
238.3617634713
 21
164.5741837836
 31
0.0
  0
LINE
  5
1A1
330
1F
100
AcDbEntity
  8
0
  6
HIDDEN
 62
     7
370
     0
100
AcDbLine
 10
223.4678208902
 20
164.5766667946
 30
0.0
 11
222.9135506753
 21
164.0223965797
 31
0.0
  0
LINE
  5
1A2
330
1F
100
AcDbEntity
  8
0
  6
HIDDEN
 62
     7
370
     0
100
AcDbLine
 10
222.9135506753
 20
164.0223965797
 30
0.0
 11
222.9135506753
 21
145.3525235986
 31
0.0
  0
LINE
  5
1A3
330
1F
100
AcDbEntity
  8
0
  6
HIDDEN
 62
     7
370
     0
100
AcDbLine
 10
238.9135506753
 20
145.3525235986
 30
0.0
 11
238.9135506753
 21
164.0223965797
 31
0.0
  0
LINE
  5
1A4
330
1F
100
AcDbEntity
  8
0
  6
HIDDEN
 62
     7
370
     0
100
AcDbLine
 10
222.9135506753
 20
145.3525235986
 30
0.0
 11
225.3142512561
 21
136.3929870571
 31
0.0
  0
LINE
  5
1A5
330
1F
100
AcDbEntity
  8
0
  6
HIDDEN
 62
     7
370
     0
100
AcDbLine
 10
236.5128500944
 20
136.3929870571
 30
0.0
 11
238.9135506753
 21
145.3525235986
 31
0.0
  0
ARC
  5
1A6
330
1F
100
AcDbEntity
  8
0
  6
HIDDEN
 62
     7
370
     0
100
AcDbCircle
 10
225.7972141693
 20
136.5223965797
 30
0.0
 40
0.5
100
AcDbArc
 50
195.0
 51
270.0
  0
ARC
  5
1A7
330
1F
100
AcDbEntity
  8
0
  6
HIDDEN
 62
     7
370
     0
100
AcDbCircle
 10
236.0298871813
 20
136.5223965797
 30
0.0
 40
0.5000000000000079
100
AcDbArc
 50
270.0
 51
345.0
  0
LINE
  5
1A8
330
1F
100
AcDbEntity
  8
0
  6
HIDDEN
 62
     7
370
     0
100
AcDbLine
 10
226.2135506753
 20
165.0223965797
 30
0.0
 11
226.9135506753
 21
164.3223965797
 31
0.0
  0
LINE
  5
1A9
330
1F
100
AcDbEntity
  8
0
  6
HIDDEN
 62
     7
370
     0
100
AcDbLine
 10
234.9135506753
 20
164.3223965797
 30
0.0
 11
235.6135506753
 21
165.0223965797
 31
0.0
  0
LINE
  5
1AA
330
1F
100
AcDbEntity
  8
0
  6
HIDDEN
 62
     7
370
     0
100
AcDbLine
 10
226.9135506753
 20
154.0223965797
 30
0.0
 11
226.9135506753
 21
153.0223965797
 31
0.0
  0
LINE
  5
1AB
330
1F
100
AcDbEntity
  8
0
  6
HIDDEN
 62
     7
370
     0
100
AcDbLine
 10
234.9135506753
 20
153.0223965797
 30
0.0
 11
234.9135506753
 21
154.0223965797
 31
0.0
  0
LINE
  5
1AC
330
1F
100
AcDbEntity
  8
0
  6
HIDDEN
 62
     7
370
     0
100
AcDbLine
 10
226.9135506753
 20
153.0223965797
 30
0.0
 11
230.9135506753
 21
151.5665156426
 31
0.0
  0
LINE
  5
1AD
330
1F
100
AcDbEntity
  8
0
  6
HIDDEN
 62
     7
370
     0
100
AcDbLine
 10
230.9135506753
 20
151.5665156426
 30
0.0
 11
234.9135506753
 21
153.0223965797
 31
0.0
  0
LINE
  5
1AE
330
1F
100
AcDbEntity
  8
0
  6
HIDDEN
 62
     7
370
     0
100
AcDbLine
 10
171.1635506753
 20
110.5960350647
 30
0.0
 11
171.1635506753
 21
111.8546210616
 31
0.0
  0
LINE
  5
1AF
330
1F
100
AcDbEntity
  8
0
  6
HIDDEN
 62
     7
370
     0
100
AcDbLine
 10
165.1635506753
 20
111.8546210616
 30
0.0
 11
165.1635506753
 21
110.5960350647
 31
0.0
  0
LINE
  5
1B0
330
1F
100
AcDbEntity
  8
0
  6
HIDDEN
 62
     7
370
     0
100
AcDbLine
 10
148.4408006753
 20
111.9365834634
 30
0.0
 11
148.4408006753
 21
111.7175943106
 31
0.0
  0
LINE
  5
1B1
330
1F
100
AcDbEntity
  8
0
  6
HIDDEN
 62
     7
370
     0
100
AcDbLine
 10
148.8079116109
 20
109.8584792702
 30
0.0
 11
148.8911514449
 21
109.6559271063
 31
0.0
  0
LINE
  5
1B2
330
1F
100
AcDbEntity
  8
0
  6
HIDDEN
 62
     7
370
     0
100
AcDbLine
 10
150.5219745539
 20
108.1048212272
 30
0.0
 11
153.708826169
 21
108.7341142257
 31
0.0
  0
LINE
  5
1B3
330
1F
100
AcDbEntity
  8
0
  6
HIDDEN
 62
     7
370
     0
100
AcDbLine
 10
152.5464784118
 20
114.6204499017
 30
0.0
 11
149.3596267967
 21
113.9911569033
 31
0.0
  0
LINE
  5
1B4
330
1F
100
AcDbEntity
  8
0
  6
HIDDEN
 62
     7
370
     0
100
AcDbLine
 10
154.3556855343
 20
109.3309797913
 30
0.0
 11
154.8123665235
 21
110.2840906205
 31
0.0
  0
LINE
  5
1B5
330
1F
100
AcDbEntity
  8
0
  6
HIDDEN
 62
     7
370
     0
100
AcDbLine
 10
154.1563493113
 20
113.6062784048
 30
0.0
 11
153.371659716
 21
114.3142614678
 31
0.0
  0
LINE
  5
1B6
330
1F
100
AcDbEntity
  8
0
  6
HIDDEN
 62
     7
370
     0
100
AcDbLine
 10
153.371659716
 20
135.7305316915
 30
0.0
 11
154.1563493113
 21
136.4385147545
 31
0.0
  0
LINE
  5
1B7
330
1F
100
AcDbEntity
  8
0
  6
HIDDEN
 62
     7
370
     0
100
AcDbLine
 10
154.8123665235
 20
139.7607025388
 30
0.0
 11
154.3556855343
 21
140.713813368
 31
0.0
  0
LINE
  5
1B8
330
1F
100
AcDbEntity
  8
0
  6
HIDDEN
 62
     7
370
     0
100
AcDbLine
 10
149.3596267967
 20
136.053636256
 30
0.0
 11
152.5464784118
 21
135.4243432576
 31
0.0
  0
LINE
  5
1B9
330
1F
100
AcDbEntity
  8
0
  6
HIDDEN
 62
     7
370
     0
100
AcDbLine
 10
153.708826169
 20
141.3106789336
 30
0.0
 11
150.5219745539
 21
141.9399719321
 31
0.0
  0
LINE
  5
1BA
330
1F
100
AcDbEntity
  8
0
  6
HIDDEN
 62
     7
370
     0
100
AcDbLine
 10
148.8911514449
 20
140.388866053
 30
0.0
 11
148.8079116109
 21
140.1863138891
 31
0.0
  0
LINE
  5
1BB
330
1F
100
AcDbEntity
  8
0
  6
HIDDEN
 62
     7
370
     0
100
AcDbLine
 10
148.4408006753
 20
138.3271988487
 30
0.0
 11
148.4408006753
 21
138.1082096959
 31
0.0
  0
LINE
  5
1BC
330
1F
100
AcDbEntity
  8
0
  6
HIDDEN
 62
     7
370
     0
100
AcDbLine
 10
165.1635506753
 20
139.4487580946
 30
0.0
 11
165.1635506753
 21
138.1901720977
 31
0.0
  0
LINE
  5
1BD
330
1F
100
AcDbEntity
  8
0
  6
HIDDEN
 62
     7
370
     0
100
AcDbLine
 10
171.1635506753
 20
138.1901720977
 30
0.0
 11
171.1635506753
 21
139.4487580946
 31
0.0
  0
DIMENSION
  5
1BE
330
1F
100
AcDbEntity
  8
VERMASSUNG
100
AcDbDimension
  2
_D
 10
33.1635506753
 20
175.0223965797
 30
0.0
 11
33.1635506753
 21
125.0223965797
 31
0.0
 70
   160
  1
MAS-BT 50 %%c<>
 71
     2
 42
-1.0
  3
SLDDIMSTYLE0
100
AcDbAlignedDimension
 13
181.9635506753
 23
75.0223965797
 33
0.0
 14
181.9635506753
 24
175.0223965797
 34
0.0
 50
90.0
100
AcDbRotatedDimension
  0
DIMENSION
  5
1CB
330
1F
100
AcDbEntity
  8
VERMASSUNG
100
AcDbDimension
  2
_D_1
 10
248.9635506753
 20
195.0493896026
 30
0.0
 11
146.0635506753
 21
195.0493896026
 31
0.0
 70
   160
  1
<>
 71
     2
 42
-1.0
  3
SLDDIMSTYLE0
100
AcDbAlignedDimension
 13
43.1635506753
 23
143.3720744404
 33
0.0
 14
248.9635506753
 24
164.2223965797
 34
0.0
100
AcDbRotatedDimension
  0
DIMENSION
  5
1D5
330
1F
100
AcDbEntity
  8
VERMASSUNG
100
AcDbDimension
  2
_D_2
 10
248.9635506753
 20
189.0493896026
 30
0.0
 11
196.9635506753
 21
189.0493896026
 31
0.0
 70
   160
  1
<>
 71
     2
 42
-1.0
  3
SLDDIMSTYLE0
100
AcDbAlignedDimension
 13
144.9635506753
 23
159.9473965797
 33
0.0
 14
248.9635506753
 24
164.2223965797
 34
0.0
100
AcDbRotatedDimension
  0
DIMENSION
  5
1DF
330
1F
100
AcDbEntity
  8
VERMASSUNG
100
AcDbDimension
  2
_D_3
 10
248.9635506753
 20
183.0493896026
 30
0.0
 11
215.9635506753
 21
183.0493896026
 31
0.0
 70
   160
  1
<>
 71
     2
 42
-1.0
  3
SLDDIMSTYLE0
100
AcDbAlignedDimension
 13
182.9635506753
 23
174.0223965797
 33
0.0
 14
248.9635506753
 24
164.2223965797
 34
0.0
100
AcDbRotatedDimension
  0
DIMENSION
  5
1E9
330
1F
100
AcDbEntity
  8
VERMASSUNG
100
AcDbDimension
  2
_D_4
 10
257.9354127618
 20
107.0223965797
 30
0.0
 11
257.9354127618
 21
125.0223965797
 31
0.0
 70
   160
  1
%%c<>
 71
     2
 42
-1.0
  3
SLDDIMSTYLE0
100
AcDbAlignedDimension
 13
247.9635506753
 23
143.0223965797
 33
0.0
 14
247.9635506753
 24
107.0223965797
 34
0.0
 50
90.0
100
AcDbRotatedDimension
  0
DIMENSION
  5
1F4
330
1F
100
AcDbEntity
  8
VERMASSUNG
100
AcDbDimension
  2
_D_5
 10
263.6354127618
 20
85.0223965797
 30
0.0
 11
263.6354127618
 21
125.0223965797
 31
0.0
 70
   160
  1
WH%%c<>
 71
     2
 42
-1.0
  3
SLDDIMSTYLE0
100
AcDbAlignedDimension
 13
248.1635506753
 23
165.0223965797
 33
0.0
 14
248.1635506753
 24
85.0223965797
 34
0.0
 50
90.0
100
AcDbRotatedDimension
  0
LINE
  5
200
330
1F
100
AcDbEntity
  8
VERMASSUNG
  6
CENTERX2
370
     0
100
AcDbLine
 10
41.1635506753
 20
125.0223965797
 30
0.0
 11
251.7684946457
 21
125.0223965797
 31
0.0
  0
LINE
  5
201
330
1F
100
AcDbEntity
  8
0
  6
Continuous
 62
     7
370
    15
100
AcDbLine
 10
273.4390533304
 20
10.0440192542
 30
0.0
 11
273.7218500729
 21
10.2073274144
 31
0.0
  0
LINE
  5
202
330
1F
100
AcDbEntity
  8
0
  6
Continuous
 62
     7
370
    15
100
AcDbLine
 10
287.5788904593
 20
34.2110262569
 30
0.0
 11
287.5788904593
 21
34.5375895016
 31
0.0
  0
LINE
  5
203
330
1F
100
AcDbEntity
  8
0
  6
Continuous
 62
     7
370
    15
100
AcDbLine
 10
283.435942162
 20
43.694485631
 30
0.0
 11
261.4449212671
 21
56.3896317699
 31
0.0
  0
LINE
  5
204
330
1F
100
AcDbEntity
  8
0
  6
Continuous
 62
     7
370
    15
100
AcDbLine
 10
241.4465466143
 20
21.7476772746
 30
0.0
 11
263.4375675092
 21
9.0525311358
 31
0.0
  0
SPLINE
  5
205
330
1F
100
AcDbEntity
  8
0
  6
Continuous
 62
     7
370
    15
100
AcDbSpline
210
0.0
220
0.0
230
1.0
 70
     8
 71
     3
 72
    26
 73
    22
 74
     0
 42
0.000000001
 43
0.00000001
 40
0.0
 40
0.0
 40
0.0
 40
0.0
 40
0.0227906035274513
 40
0.0824836551276107
 40
0.141099371561985
 40
0.1983504107529444
 40
0.2547370649611092
 40
0.3107486137343221
 40
0.3666695712537384
 40
0.4226008798460947
 40
0.478607402646046
 40
0.5347012845151423
 40
0.5908693217836728
 40
0.647087595240149
 40
0.7033280496098399
 40
0.7595584071585839
 40
0.8157411676284109
 40
0.8718461319285787
 40
0.927844988639275
 40
0.9837162388110211
 40
0.9999999999999999
 40
0.9999999999999999
 40
0.9999999999999999
 40
0.9999999999999999
 10
268.7310901823752
 20
18.72533863153991
 30
0.0
 10
268.659910064481
 20
18.76712861246342
 30
0.0
 10
268.402295285247
 20
18.91837473326636
 30
0.0
 10
268.0424784021577
 20
19.31778569708826
 30
0.0
 10
267.6599950207014
 20
19.91838585660794
 30
0.0
 10
267.3810681471115
 20
20.64102660791178
 30
0.0
 10
267.2038368082228
 20
21.45986967288798
 30
0.0
 10
267.1322421301819
 20
22.36466476038128
 30
0.0
 10
267.1676714918684
 20
23.34053601361772
 30
0.0
 10
267.3107369600654
 20
24.37145159555754
 30
0.0
 10
267.5600025932449
 20
25.43940168846254
 30
0.0
 10
267.9120236541173
 20
26.52553689445294
 30
0.0
 10
268.3612237045542
 20
27.61034541966709
 30
0.0
 10
268.9000023817823
 20
28.67423139933128
 30
0.0
 10
269.518883305769
 20
29.6979464931895
 30
0.0
 10
270.2066839186701
 20
30.66301937580346
 30
0.0
 10
270.9507070124115
 20
31.55200318722082
 30
0.0
 10
271.737066557871
 20
32.34951921252507
 30
0.0
 10
272.5505968876395
 20
33.0401564086088
 30
0.0
 10
273.1820167699213
 20
33.48199508496413
 30
0.0
 10
273.5361124252021
 20
33.69122385011057
 30
0.0
 10
273.6160238406383
 20
33.7384420707339
 30
0.0
  0
SPLINE
  5
206
330
1F
100
AcDbEntity
  8
0
  6
Continuous
 62
     7
370
    15
100
AcDbSpline
210
0.0
220
0.0
230
1.0
 70
     8
 71
     3
 72
    14
 73
    10
 74
     0
 42
0.000000001
 43
0.00000001
 40
0.0
 40
0.0
 40
0.0
 40
0.0
 40
0.0908697656867933
 40
0.2642443959586217
 40
0.4375710129416024
 40
0.6113413302539541
 40
0.786695585125872
 40
0.9653234914264218
 40
0.9999999999999999
 40
0.9999999999999999
 40
0.9999999999999999
 40
0.9999999999999999
 10
273.6160238406383
 20
33.7384420707339
 30
0.0
 10
273.7588517231753
 20
33.81751992819098
 30
0.0
 10
274.1741875310955
 20
34.04747408862614
 30
0.0
 10
274.8513980535974
 20
34.32997144096822
 30
0.0
 10
275.6236764916896
 20
34.53683816123051
 30
0.0
 10
276.3515256957594
 20
34.61045619801146
 30
0.0
 10
277.017302397118
 20
34.54093572447871
 30
0.0
 10
277.4732820928261
 20
34.42661758255357
 30
0.0
 10
277.6841345288659
 20
34.29588853322925
 30
0.0
 10
277.7184124237253
 20
34.27463615079552
 30
0.0
  0
SPLINE
  5
207
330
1F
100
AcDbEntity
  8
0
  6
Continuous
 62
     7
370
    15
100
AcDbSpline
210
0.0
220
0.0
230
1.0
 70
     8
 71
     3
 72
    13
 73
     9
 74
     0
 42
0.000000001
 43
0.00000001
 40
0.0
 40
0.0
 40
0.0
 40
0.0
 40
0.0491460203123266
 40
0.2619186245355558
 40
0.4755697827595545
 40
0.6899930808300303
 40
0.9050010229009632
 40
1.0
 40
1.0
 40
1.0
 40
1.0
 10
241.3948808277747
 20
17.06872263562285
 30
0.0
 10
241.4891228115219
 20
17.05685393850716
 30
0.0
 10
241.9913757019843
 20
16.9936009466308
 30
0.0
 10
242.9529838654509
 20
17.02270012472518
 30
0.0
 10
244.2729125929168
 20
17.15974945914609
 30
0.0
 10
245.6350211343866
 20
17.46158773421073
 30
0.0
 10
246.7626051900221
 20
17.79647415818907
 30
0.0
 10
247.4385175658458
 20
18.08163022008628
 30
0.0
 10
247.6456451502357
 20
18.16901386386543
 30
0.0
  0
SPLINE
  5
208
330
1F
100
AcDbEntity
  8
0
  6
Continuous
 62
     7
370
    15
100
AcDbSpline
210
0.0
220
0.0
230
1.0
 70
     8
 71
     3
 72
    13
 73
     9
 74
     0
 42
0.000000001
 43
0.00000001
 40
0.0
 40
0.0
 40
0.0
 40
0.0
 40
0.0516672723447531
 40
0.2666247101154323
 40
0.4814231328576309
 40
0.6958908066452211
 40
0.9098153246148549
 40
1.0
 40
1.0
 40
1.0
 40
1.0
 10
267.6482868807319
 20
52.80850502752676
 30
0.0
 10
267.634469832023
 20
52.93134076706057
 30
0.0
 10
267.5631680883959
 20
53.56522449961921
 30
0.0
 10
267.3216717892548
 20
54.6294742309553
 30
0.0
 10
266.9226738796545
 20
55.98817751330389
 30
0.0
 10
266.3985838410864
 20
57.23123187649782
 30
0.0
 10
265.9096576321147
 20
58.16938559847676
 30
0.0
 10
265.5586987823512
 20
58.64691295920846
 30
0.0
 10
265.4546206728068
 20
58.788525416037
 30
0.0
  0
LINE
  5
209
330
1F
100
AcDbEntity
  8
0
  6
Continuous
 62
     7
370
    15
100
AcDbLine
 10
235.3139886944
 20
19.5145813
 30
0.0
 11
237.5325362204
 21
18.2338410746
 31
0.0
  0
LINE
  5
20A
330
1F
100
AcDbEntity
  8
0
  6
Continuous
 62
     7
370
    15
100
AcDbLine
 10
262.5305045363
 20
61.5362841936
 30
0.0
 11
260.3119570103
 21
62.817024419
 31
0.0
  0
LINE
  5
20B
330
1F
100
AcDbEntity
  8
0
  6
Continuous
 62
     7
370
    15
100
AcDbLine
 10
254.9909784819
 20
65.8887599398
 30
0.0
 11
250.8632426467
 21
68.2716511161
 31
0.0
  0
SPLINE
  5
20C
330
1F
100
AcDbEntity
  8
0
  6
Continuous
 62
     7
370
    15
100
AcDbSpline
210
0.0
220
0.0
230
1.0
 70
     8
 71
     3
 72
    31
 73
    27
 74
     0
 42
0.000000001
 43
0.00000001
 40
0.0
 40
0.0
 40
0.0
 40
0.0
 40
0.018342481450696
 40
0.0620149509310538
 40
0.105864957153825
 40
0.1498655462930296
 40
0.1939766288579195
 40
0.2381579821269867
 40
0.2823764970167145
 40
0.3266079441111511
 40
0.370833879296485
 40
0.415047333874742
 40
0.4592453778710863
 40
0.503427682981613
 40
0.5475955173449968
 40
0.5917510864138393
 40
0.6358971226055855
 40
0.6800366424902103
 40
0.724172811530625
 40
0.768308874283194
 40
0.8124474407720712
 40
0.856591413997809
 40
0.9007441210778869
 40
0.9449088566948951
 40
0.9890887974791109
 40
1.0
 40
1.0
 40
1.0
 40
1.0
 10
246.9560271019452
 20
69.43550706199697
 30
0.0
 10
246.7831629982855
 20
69.45346879415628
 30
0.0
 10
246.1987186887731
 20
69.51419645205196
 30
0.0
 10
245.1499841630848
 20
69.46454657435324
 30
0.0
 10
243.8198218070751
 20
69.29061091630818
 30
0.0
 10
242.4514251341037
 20
68.96345482797004
 30
0.0
 10
241.0576551142077
 20
68.49611090034556
 30
0.0
 10
239.6467318115309
 20
67.88862689914887
 30
0.0
 10
238.2282442904485
 20
67.1459457069085
 30
0.0
 10
236.8113519166096
 20
66.27294685443577
 30
0.0
 10
235.4051169578775
 20
65.27560333409029
 30
0.0
 10
234.0183605111169
 20
64.16053383611107
 30
0.0
 10
232.6596633073503
 20
62.93500254836742
 30
0.0
 10
231.337399139763
 20
61.60688990750752
 30
0.0
 10
230.0597099664228
 20
60.18466075905717
 30
0.0
 10
228.8344701605191
 20
58.6773213056703
 30
0.0
 10
227.6692455805528
 20
57.09437315100224
 30
0.0
 10
226.5712528982836
 20
55.44576192579708
 30
0.0
 10
225.5473078861764
 20
53.74181800013933
 30
0.0
 10
224.6038206416245
 20
51.99321212926293
 30
0.0
 10
223.7466329720847
 20
50.2108565788314
 30
0.0
 10
222.9814251327211
 20
48.40594688659059
 30
0.0
 10
222.3120160328345
 20
46.58944958515924
 30
0.0
 10
221.7465607604984
 20
44.77364895276607
 30
0.0
 10
221.3929123237729
 20
43.42001794307962
 30
0.0
 10
221.2355866604118
 20
42.67753295869841
 30
0.0
 10
221.2044271659508
 20
42.53047839516476
 30
0.0
  0
LINE
  5
20D
330
1F
100
AcDbEntity
  8
0
  6
Continuous
 62
     7
370
    15
100
AcDbLine
 10
236.4404552921
 20
65.9879263104
 30
0.0
 11
206.0938946346
 21
76.9236238752
 31
0.0
  0
LINE
  5
20E
330
1F
100
AcDbEntity
  8
0
  6
Continuous
 62
     7
370
    15
100
AcDbLine
 10
195.9845399592
 20
59.4118105043
 30
0.0
 11
225.4482772858
 21
34.5328742789
 31
0.0
  0
LINE
  5
20F
330
1F
100
AcDbEntity
  8
0
  6
Continuous
 62
     7
370
    15
100
AcDbLine
 10
225.8652743308
 20
24.9692079971
 30
0.0
 11
229.993010166
 21
22.5863168207
 31
0.0
  0
SPLINE
  5
210
330
1F
100
AcDbEntity
  8
0
  6
Continuous
 62
     7
370
    15
100
AcDbSpline
210
0.0
220
0.0
230
1.0
 70
     8
 71
     3
 72
    11
 73
     7
 74
     0
 42
0.000000001
 43
0.00000001
 40
0.0
 40
0.0
 40
0.0
 40
0.0
 40
0.1050885860694574
 40
0.4236183153902486
 40
0.7416590627631888
 40
1.0
 40
1.0
 40
1.0
 40
1.0
 10
221.2097156010046
 20
31.44362035655692
 30
0.0
 10
221.2521223563916
 20
31.29326674308451
 30
0.0
 10
221.4230664993294
 20
30.68718242094962
 30
0.0
 10
221.8041792733974
 20
29.69716572802216
 30
0.0
 10
222.3441263121723
 20
28.57947602132253
 30
0.0
 10
222.7745598625852
 20
27.94949036852745
 30
0.0
 10
222.9674851580986
 20
27.66712351278841
 30
0.0
  0
SPLINE
  5
211
330
1F
100
AcDbEntity
  8
0
  6
Continuous
 62
     7
370
    15
100
AcDbSpline
210
0.0
220
0.0
230
1.0
 70
     8
 71
     3
 72
    26
 73
    22
 74
     0
 42
0.000000001
 43
0.00000001
 40
0.0
 40
0.0
 40
0.0
 40
0.0
 40
0.0211003487122628
 40
0.0734660947596716
 40
0.1265293848983989
 40
0.1807963946600735
 40
0.2363312363639711
 40
0.2928241536681345
 40
0.3498299648572936
 40
0.4069680242110202
 40
0.464024702657787
 40
0.5209555255077407
 40
0.5777730718169946
 40
0.6345160112361959
 40
0.6912339037794962
 40
0.7479784728614466
 40
0.8047900183011125
 40
0.8617257557541511
 40
0.9188408427311997
 40
0.9761800833651304
 40
0.9999999999999999
 40
0.9999999999999999
 40
0.9999999999999999
 40
0.9999999999999999
 10
206.1343251482143
 20
76.88878539369946
 30
0.0
 10
206.0351561268685
 20
76.93088561203493
 30
0.0
 10
205.6898745953276
 20
77.0774679586972
 30
0.0
 10
205.0350059103731
 20
77.17816237313849
 30
0.0
 10
204.1889643606101
 20
77.19296571540208
 30
0.0
 10
203.3018278095945
 20
77.05449107233783
 30
0.0
 10
202.3876040089971
 20
76.77362608762468
 30
0.0
 10
201.4581489833839
 20
76.34897602136478
 30
0.0
 10
200.5301871470081
 20
75.7878642185746
 30
0.0
 10
199.6203502577352
 20
75.1007319561553
 30
0.0
 10
198.7437912810665
 20
74.30075599146657
 30
0.0
 10
197.9136654704182
 20
73.40197944716184
 30
0.0
 10
197.141677164968
 20
72.41890545887583
 30
0.0
 10
196.4386512940812
 20
71.36666493642339
 30
0.0
 10
195.8146248390101
 20
70.26099422767024
 30
0.0
 10
195.2787846598943
 20
69.1181692980088
 30
0.0
 10
194.8395140271558
 20
67.95481134048907
 30
0.0
 10
194.5035899369638
 20
66.78722852626733
 30
0.0
 10
194.2790757452967
 20
65.6325736319281
 30
0.0
 10
194.1872251487395
 20
64.72498457182182
 30
0.0
 10
194.1799584660682
 20
64.21166965153087
 30
0.0
 10
194.177825721209
 20
64.06101359471317
 30
0.0
  0
SPLINE
  5
212
330
1F
100
AcDbEntity
  8
0
  6
Continuous
 62
     7
370
    15
100
AcDbSpline
210
0.0
220
0.0
230
1.0
 70
     8
 71
     3
 72
    13
 73
     9
 74
     0
 42
0.000000001
 43
0.00000001
 40
0.0
 40
0.0
 40
0.0
 40
0.0
 40
0.1011487783717619
 40
0.2919018006118885
 40
0.4826418266735833
 40
0.6715266520409041
 40
0.8566629140943125
 40
0.9999999999999999
 40
0.9999999999999999
 40
0.9999999999999999
 40
0.9999999999999999
 10
194.177825721209
 20
64.06101359471317
 30
0.0
 10
194.1812831545749
 20
63.87036796302656
 30
0.0
 10
194.1912608432951
 20
63.32019025387445
 30
0.0
 10
194.3031206503613
 20
62.45687432682838
 30
0.0
 10
194.5548120416245
 20
61.50876411196571
 30
0.0
 10
194.9366789235634
 20
60.66406232906375
 30
0.0
 10
195.390819215748
 20
59.97197626483271
 30
0.0
 10
195.7661939967853
 20
59.62715260962538
 30
0.0
 10
195.9299976282541
 20
59.47668068185448
 30
0.0
  0
LINE
  5
213
330
1F
100
AcDbEntity
  8
0
  6
Continuous
 62
     7
370
    15
100
AcDbLine
 10
269.9016374303
 20
46.4797726084
 30
0.0
 11
269.8132347206
 21
46.5308229953
 31
0.0
  0
LINE
  5
214
330
1F
100
AcDbEntity
  8
0
  6
Continuous
 62
     7
370
    15
100
AcDbLine
 10
264.8626829752
 20
46.5308229953
 30
0.0
 11
264.7742802654
 21
46.4797726084
 31
0.0
  0
LINE
  5
215
330
1F
100
AcDbEntity
  8
0
  6
Continuous
 62
     7
370
    15
100
AcDbLine
 10
272.4671572123
 20
29.6811858057
 30
0.0
 11
274.7599766584
 21
30.1483305973
 31
0.0
  0
LWPOLYLINE
  5
216
330
1F
100
AcDbEntity
  8
0
  6
Continuous
 62
     7
370
    15
100
AcDbPolyline
 90
       67
 70
   128
 43
0.0
 10
273.7195975481
 20
42.214426674
 10
272.4021880009
 20
41.3814340743
 10
271.0967091187
 20
40.4110486718
 10
269.8149835202
 20
39.3120584271
 10
268.568618711
 20
38.0944159659
 10
267.3689019637
 20
36.769148447
 10
266.2266980992
 20
35.3482576982
 10
265.1523510923
 20
33.8446115262
 10
264.155590396
 20
32.2718271835
 10
263.2454428295
 20
30.6441480488
 10
262.4301508301
 20
28.9763146362
 10
261.7170978084
 20
27.2834311035
 10
261.112741283
 20
25.5808284661
 10
260.6225544001
 20
23.8839257571
 10
260.2509763681
 20
22.2080903903
 10
260.0013722552
 20
20.5684989902
 10
259.8760025148
 20
18.9799999504
 10
259.8760025148
 20
17.4569789642
 10
260.0013722552
 20
16.0132287456
 10
260.2509763681
 20
14.66182412
 10
260.6225544001
 20
13.415003617
 10
261.112741283
 20
12.2840586363
 10
261.7170978084
 20
11.2792311906
 10
262.4301508301
 20
10.4096211529
 10
263.2454428295
 20
9.6831038464
 10
264.155590396
 20
9.1062587242
 10
265.1523510923
 20
8.6843097853
 10
266.2266980992
 20
8.4210782644
 10
267.3689019637
 20
8.318948027
 10
268.568618711
 20
8.3788439804
 10
269.8149835202
 20
8.6002236975
 10
271.0967091187
 20
8.9810823293
 10
272.4021880009
 20
9.5179707611
 10
273.7195975481
 20
10.2060268481
 10
275.0370070952
 20
11.0390194478
 10
276.3424859775
 20
12.0094048503
 10
277.624211576
 20
13.108395095
 10
278.8705763852
 20
14.3260375562
 10
280.0702931324
 20
15.6513050751
 10
281.212496997
 20
17.0721958239
 10
282.2868440038
 20
18.5758419959
 10
283.2836047001
 20
20.1486263386
 10
284.1937522666
 20
21.7763054733
 10
285.009044266
 20
23.4441388859
 10
285.7220972877
 20
25.1370224186
 10
286.3264538131
 20
26.839625056
 10
286.816640696
 20
28.536527765
 10
287.188218728
 20
30.2123631318
 10
287.4378228409
 20
31.8519545319
 10
287.5631925813
 20
33.4404535717
 10
287.5631925813
 20
34.9634745579
 10
287.4378228409
 20
36.4072247766
 10
287.188218728
 20
37.7586294021
 10
286.816640696
 20
39.0054499051
 10
286.3264538131
 20
40.1363948858
 10
285.7220972877
 20
41.1412223315
 10
285.009044266
 20
42.0108323692
 10
284.1937522666
 20
42.7373496758
 10
283.2836047001
 20
43.3141947979
 10
282.2868440038
 20
43.7361437368
 10
281.212496997
 20
43.9993752577
 10
280.0702931324
 20
44.1015054951
 10
278.8705763852
 20
44.0416095417
 10
277.624211576
 20
43.8202298246
 10
276.3424859775
 20
43.4393711928
 10
275.0370070952
 20
42.902482761
 10
273.7195975481
 20
42.214426674
  0
LWPOLYLINE
  5
217
330
1F
100
AcDbEntity
  8
0
  6
Continuous
 62
     7
370
    15
100
AcDbPolyline
 90
       35
 70
   128
 43
0.0
 10
273.4367548356
 20
42.7043246211
 10
272.1124641906
 20
41.8680700044
 10
270.7998114594
 20
40.895648623
 10
269.5103322814
 20
39.795606151
 10
268.255358646
 20
38.5776098013
 10
267.0459193066
 20
37.2523633694
 10
265.8926428596
 20
35.8315131688
 10
264.80566434
 20
34.3275456821
 10
263.7945361539
 20
32.7536778296
 10
262.8681441323
 20
31.1237408185
 10
262.0346294416
 20
29.4520585941
 10
261.3013170388
 20
27.7533219597
 10
260.6746512998
 20
26.0424594739
 10
260.1601393855
 20
24.3345062579
 10
259.7623028451
 20
22.6444718659
 10
259.4846378805
 20
20.9872083809
 10
259.3295846214
 20
19.377279894
 10
259.2985056813
 20
17.8288345146
 10
259.3916741832
 20
16.3554800364
 10
259.6082713589
 20
14.9701643515
 10
259.9463937445
 20
13.685061664
 10
260.4030699085
 20
12.5114655025
 10
260.9742865643
 20
11.4596894722
 10
261.6550238394
 20
10.5389766188
 10
262.4392993901
 20
9.7574181999
 10
263.3202209746
 20
9.121882579
 10
264.2900470225
 20
8.6379548659
 10
265.3402546675
 20
8.3098878349
 10
266.4616146471
 20
8.1405645507
 10
267.6442724095
 20
8.1314730326
 10
268.8778347158
 20
8.282693177
 10
270.1514609759
 20
8.5928960559
 10
271.4539585167
 20
9.0593555952
 10
272.7738809428
 20
9.6779725319
 10
273.4390533304
 20
10.0440192542
  0
LWPOLYLINE
  5
218
330
1F
100
AcDbEntity
  8
0
  6
Continuous
 62
     7
370
    15
100
AcDbPolyline
 90
       18
 70
   128
 43
0.0
 10
287.5788904593
 20
34.5375895016
 10
287.5439250498
 20
35.6650719279
 10
287.3888717907
 20
37.0959797324
 10
287.1112068261
 20
38.4326580732
 10
286.7133702857
 20
39.6633601729
 10
286.1988583714
 20
40.7772705771
 10
285.5721926324
 20
41.7646002014
 10
284.8388802296
 20
42.6166723573
 10
284.0053655389
 20
43.3259990042
 10
283.0789735173
 20
43.8863465539
 10
282.0678453312
 20
44.2927906521
 10
280.9808668116
 20
44.5417594535
 10
279.8275903646
 20
44.6310650111
 10
278.6181510252
 20
44.5599225047
 10
277.3631773898
 20
44.328957137
 10
276.0736982118
 20
43.9401986401
 10
274.7610454806
 20
43.3970634376
 10
273.4367548356
 20
42.7043246211
  0
SPLINE
  5
219
330
1F
100
AcDbEntity
  8
0
  6
Continuous
 62
     7
370
    15
100
AcDbSpline
210
0.0
220
0.0
230
1.0
 70
    11
 71
     3
 72
    95
 73
    91
 74
     0
 42
0.000000001
 43
0.00000001
 40
0.0
 40
0.0
 40
0.0
 40
0.0
 40
0.0312500000000001
 40
0.0312500000000001
 40
0.0468749999999998
 40
0.0468749999999998
 40
0.0624999999999994
 40
0.0624999999999994
 40
0.0937499999999982
 40
0.0937499999999982
 40
0.1093749999999979
 40
0.1093749999999979
 40
0.1249999999999976
 40
0.1249999999999976
 40
0.156249999999997
 40
0.156249999999997
 40
0.1718749999999971
 40
0.1718749999999971
 40
0.1874999999999971
 40
0.1874999999999971
 40
0.2187499999999966
 40
0.2187499999999966
 40
0.2343749999999966
 40
0.2343749999999966
 40
0.2499999999999966
 40
0.2499999999999966
 40
0.2812499999999967
 40
0.2812499999999967
 40
0.3124999999999967
 40
0.3124999999999967
 40
0.3437499999999968
 40
0.3437499999999968
 40
0.3593749999999967
 40
0.3593749999999967
 40
0.3749999999999967
 40
0.3906249999999967
 40
0.3906249999999967
 40
0.4062499999999967
 40
0.4062499999999967
 40
0.4374999999999966
 40
0.4374999999999966
 40
0.4531249999999963
 40
0.4531249999999963
 40
0.4687499999999962
 40
0.4687499999999962
 40
0.4999999999999962
 40
0.4999999999999962
 40
0.5312499999999962
 40
0.5312499999999962
 40
0.5468749999999963
 40
0.5468749999999963
 40
0.5624999999999963
 40
0.5624999999999963
 40
0.593749999999997
 40
0.593749999999997
 40
0.6249999999999978
 40
0.6249999999999978
 40
0.6562499999999984
 40
0.6562499999999984
 40
0.6874999999999992
 40
0.6874999999999992
 40
0.7031249999999996
 40
0.7031249999999996
 40
0.7187499999999999
 40
0.7187499999999999
 40
0.7500000000000007
 40
0.7500000000000007
 40
0.7656250000000008
 40
0.7656250000000008
 40
0.7812500000000009
 40
0.7812500000000009
 40
0.8125000000000007
 40
0.8125000000000007
 40
0.8281250000000007
 40
0.8281250000000007
 40
0.8437500000000007
 40
0.8437500000000007
 40
0.8750000000000007
 40
0.8750000000000007
 40
0.8906250000000007
 40
0.8906250000000007
 40
0.9062500000000007
 40
0.9062500000000007
 40
0.9218750000000008
 40
0.9218750000000008
 40
0.9375000000000008
 40
0.9375000000000008
 40
0.9687500000000003
 40
0.9687500000000003
 40
1.0
 40
1.0
 40
1.0
 40
1.0
 10
267.3173217064777
 20
48.72374523308484
 30
0.0
 10
267.628077723725
 20
48.67820093357205
 30
0.0
 10
267.9308885257036
 20
48.61710206778113
 30
0.0
 10
268.3744796730169
 20
48.50622682212261
 30
0.0
 10
268.5205561645554
 20
48.46602798323114
 30
0.0
 10
268.8091776270655
 20
48.37946697402725
 30
0.0
 10
268.9523956116959
 20
48.33285880114664
 30
0.0
 10
269.3709287236563
 20
48.18601976232002
 30
0.0
 10
269.6348508101945
 20
48.07917973709831
 30
0.0
 10
270.0090790669506
 20
47.90711123804609
 30
0.0
 10
270.1301876152534
 20
47.84776477838875
 30
0.0
 10
270.3650101874699
 20
47.7251061435211
 30
0.0
 10
270.4788947811454
 20
47.66165022381465
 30
0.0
 10
270.8029782037526
 20
47.46891577405294
 30
0.0
 10
270.9979972277383
 20
47.33622532259545
 30
0.0
 10
271.2592447130788
 20
47.13044063173778
 30
0.0
 10
271.3410815382077
 20
47.060706275193
 30
0.0
 10
271.4938955523111
 20
46.91869215038946
 30
0.0
 10
271.5646706393884
 20
46.84652093582986
 30
0.0
 10
271.756299099314
 20
46.63009616791855
 30
0.0
 10
271.8582166546867
 20
46.48456165757376
 30
0.0
 10
271.9713986409535
 20
46.26238057909465
 30
0.0
 10
272.0024667794443
 20
46.18766552969169
 30
0.0
 10
272.0505152726781
 20
46.036458320609
 30
0.0
 10
272.067255932288
 20
45.96048911251508
 30
0.0
 10
272.0948538251822
 20
45.73411976250772
 30
0.0
 10
272.0837746040503
 20
45.58395969433395
 30
0.0
 10
271.9987913150482
 20
45.2819285304335
 30
0.0
 10
271.9232206595178
 20
45.12866563072626
 30
0.0
 10
271.7107164279679
 20
44.83318917989368
 30
0.0
 10
271.5738883340364
 20
44.68922359755331
 30
0.0
 10
271.3189722482092
 20
44.47792598408417
 30
0.0
 10
271.2253945699742
 20
44.40822999718414
 30
0.0
 10
271.0266490864958
 20
44.27443614866884
 30
0.0
 10
270.8151237873592
 20
44.1451692260951
 30
0.0
 10
270.5783450135747
 20
44.02479375517804
 30
0.0
 10
270.3286887957878
 20
43.90901422963705
 30
0.0
 10
270.1971794249541
 20
43.85340923524769
 30
0.0
 10
269.79391526075
 20
43.69806901493131
 30
0.0
 10
269.510230284732
 20
43.60802394022777
 30
0.0
 10
269.0632115908342
 20
43.49390591954241
 30
0.0
 10
268.9114151433231
 20
43.45965123651238
 30
0.0
 10
268.6072686262999
 20
43.39971444845736
 30
0.0
 10
268.4542001059884
 20
43.37384496295711
 30
0.0
 10
267.9920623658743
 20
43.30857313036034
 30
0.0
 10
267.6772306865397
 20
43.2814691568841
 30
0.0
 10
267.0605908799662
 20
43.26335141733557
 30
0.0
 10
266.7572329339266
 20
43.27180651690507
 30
0.0
 10
266.309087373471
 20
43.31186986103931
 30
0.0
 10
266.160518136315
 20
43.329914890174
 30
0.0
 10
265.8709883487463
 20
43.37474907268721
 30
0.0
 10
265.7293733033438
 20
43.401572138453
 30
0.0
 10
265.3136530101337
 20
43.49524357336691
 30
0.0
 10
265.0485922313678
 20
43.5752043656945
 30
0.0
 10
264.5429605279221
 20
43.77227196065979
 30
0.0
 10
264.3087843724981
 20
43.88697484940676
 30
0.0
 10
263.878480172015
 20
44.14659757121228
 30
0.0
 10
263.6814132039376
 20
44.29214770679835
 30
0.0
 10
263.3286099491188
 20
44.61287480567515
 30
0.0
 10
263.1769279572342
 20
44.784159422927
 30
0.0
 10
262.9857552413841
 20
45.0559883509069
 30
0.0
 10
262.9281290504289
 20
45.14909292435811
 30
0.0
 10
262.8254540789143
 20
45.34017718441441
 30
0.0
 10
262.7802309069798
 20
45.43863463384178
 30
0.0
 10
262.6658817928012
 20
45.73773581038723
 30
0.0
 10
262.6182544254671
 20
45.94022179738514
 30
0.0
 10
262.5904002618299
 20
46.2466072180786
 30
0.0
 10
262.5884311858416
 20
46.34918156511038
 30
0.0
 10
262.5999391836242
 20
46.55491113278757
 30
0.0
 10
262.6135947612674
 20
46.6587135894054
 30
0.0
 10
262.6781941019862
 20
46.96397510818546
 30
0.0
 10
262.7521072260827
 20
47.16011902109096
 30
0.0
 10
262.911234228636
 20
47.4409128153832
 30
0.0
 10
262.9723785202149
 20
47.53226290765706
 30
0.0
 10
263.1120527690953
 20
47.70988622281163
 30
0.0
 10
263.1901190458329
 20
47.79537921388589
 30
0.0
 10
263.4443200157936
 20
48.03664938895556
 30
0.0
 10
263.6418346764736
 20
48.17944202335585
 30
0.0
 10
263.9818151092979
 20
48.36507547771398
 30
0.0
 10
264.1025150881308
 20
48.42202082058845
 30
0.0
 10
264.3518459989205
 20
48.52321803714477
 30
0.0
 10
264.4812705429616
 20
48.56793804721064
 30
0.0
 10
264.7493888645479
 20
48.64608404867406
 30
0.0
 10
264.8880830566404
 20
48.67950920488866
 30
0.0
 10
265.1747963153736
 20
48.73523902166203
 30
0.0
 10
265.3217810672793
 20
48.75728121867778
 30
0.0
 10
265.7664954236151
 20
48.80628002413698
 30
0.0
 10
266.0706108277574
 20
48.81680205038697
 30
0.0
 10
266.6937615243797
 20
48.79827394368608
 30
0.0
 10
267.0065656892305
 20
48.76928953259763
 30
0.0
 10
267.3173217064777
 20
48.72374523308484
 30
0.0
  0
LINE
  5
21A
330
1F
100
AcDbEntity
  8
0
  6
Continuous
 62
     7
370
    15
100
AcDbLine
 10
241.3635213293
 20
21.7964092475
 30
0.0
 11
241.4465466143
 21
21.7476772746
 31
0.0
  0
LWPOLYLINE
  5
21B
330
1F
100
AcDbEntity
  8
0
  6
Continuous
 62
     7
370
    15
100
AcDbPolyline
 90
       22
 70
   128
 43
0.0
 10
270.2344201671
 20
43.8440210369
 10
270.4073340701
 20
43.9889745088
 10
270.7595359202
 20
44.4111765774
 10
270.9401656087
 20
44.8680365156
 10
270.9401656087
 20
45.3366454584
 10
270.7595359202
 20
45.7935053966
 10
270.4073340701
 20
46.2157074653
 10
269.9012209297
 20
46.5820806897
 10
269.2665751252
 20
46.8742535866
 10
268.5352204475
 20
47.0775753869
 10
267.7438300737
 20
47.1818506865
 10
266.932087622
 20
47.1818506865
 10
266.1406972483
 20
47.0775753869
 10
265.4093425705
 20
46.8742535866
 10
264.7746967661
 20
46.5820806897
 10
264.2685836257
 20
46.2157074653
 10
263.9163817755
 20
45.7935053966
 10
263.735752087
 20
45.3366454584
 10
263.735752087
 20
44.8680365156
 10
263.9163817755
 20
44.4111765774
 10
264.2685836257
 20
43.9889745088
 10
264.3821071169
 20
43.8909215269
  0
LINE
  5
21C
330
1F
100
AcDbEntity
  8
0
  6
Continuous
 62
     7
370
    15
100
AcDbLine
 10
268.7036395279
 20
18.7209114554
 30
0.0
 11
268.8664098606
 21
18.6198890276
 31
0.0
  0
LINE
  5
21D
330
1F
100
AcDbEntity
  8
0
  6
Continuous
 62
     7
370
    15
100
AcDbLine
 10
277.8656784543
 20
34.2087685504
 30
0.0
 11
277.7061996183
 21
34.2945283039
 31
0.0
  0
SPLINE
  5
21E
330
1F
100
AcDbEntity
  8
0
  6
Continuous
 62
     7
370
    15
100
AcDbSpline
210
0.0
220
0.0
230
1.0
 70
     8
 71
     3
 72
    14
 73
    10
 74
     0
 42
0.000000001
 43
0.00000001
 40
0.0
 40
0.0
 40
0.0
 40
0.0
 40
0.0898743874441358
 40
0.2701037749547822
 40
0.4414219694784175
 40
0.6030535192029414
 40
0.7672163467369622
 40
0.9423047717840982
 40
0.9999999999999999
 40
0.9999999999999999
 40
0.9999999999999999
 40
0.9999999999999999
 10
275.2507170469727
 20
34.41687149683113
 30
0.0
 10
275.3884790702903
 20
34.25721087019153
 30
0.0
 10
275.8025018369724
 20
33.77737518848733
 30
0.0
 10
276.2037583254074
 20
32.87845513512375
 30
0.0
 10
276.3213430103109
 20
31.85923093371767
 30
0.0
 10
276.0438548169425
 20
30.98156508780626
 30
0.0
 10
275.4507935441995
 20
30.34852188167926
 30
0.0
 10
274.8127076250817
 20
30.00062734778858
 30
0.0
 10
274.3977900171517
 20
30.04306690967187
 30
0.0
 10
274.2949530449471
 20
30.05358551857725
 30
0.0
  0
ARC
  5
21F
330
1F
100
AcDbEntity
  8
0
  6
Continuous
 62
     7
370
    15
100
AcDbCircle
 10
258.1757569859
 20
53.9887314878
 30
0.0
 40
8.70389172276163
100
AcDbArc
 50
34.3325496066
 51
84.2964748064
  0
ARC
  5
220
330
1F
100
AcDbEntity
  8
0
  6
Continuous
 62
     7
370
    15
100
AcDbCircle
 10
241.8825929988
 20
25.7660150574
 30
0.0
 40
8.69020579119799
100
AcDbArc
 50
215.038918254
 51
265.86285515
  0
LWPOLYLINE
  5
221
330
1F
100
AcDbEntity
  8
0
  6
Continuous
 62
     7
370
    15
100
AcDbPolyline
 90
        9
 70
   128
 43
0.0
 10
235.3139886944
 20
19.5145813
 10
235.1476654312
 20
19.6131873108
 10
234.1567710434
 20
20.3196425025
 10
233.2623499376
 20
21.1733639354
 10
232.4707206893
 20
22.1683205541
 10
231.7874757079
 20
23.2974835573
 10
231.2174417297
 20
24.5528760519
 10
230.7646457198
 20
25.9256294054
 10
230.4322864241
 20
27.4060458979
  0
SPLINE
  5
222
330
1F
100
AcDbEntity
  8
0
  6
Continuous
 62
     7
370
    15
100
AcDbSpline
210
0.0
220
0.0
230
1.0
 70
     8
 71
     3
 72
    32
 73
    28
 74
     0
 42
0.000000001
 43
0.00000001
 40
0.0
 40
0.0
 40
0.0
 40
0.0
 40
0.0193254758652704
 40
0.0385826927409049
 40
0.0577846348017481
 40
0.0769443985967347
 40
0.0960751672961712
 40
0.1151901840600305
 40
0.1343027247899319
 40
0.1534260705421022
 40
0.1725734798867981
 40
0.1917581615009326
 40
0.2109932472750491
 40
0.230291766203487
 40
0.2496666193081581
 40
0.3745846283004807
 40
0.4997410234225904
 40
0.4999962720874485
 40
0.624862702147581
 40
0.7503411293900218
 40
0.78614513231055
 40
0.8217618639989446
 40
0.8572756267685467
 40
0.8927714566740896
 40
0.9283345184906214
 40
0.9640494961172915
 40
1.0
 40
1.0
 40
1.0
 40
1.0
 10
230.432231148057
 20
34.85787066437288
 30
0.0
 10
230.4541743653449
 20
34.79777962065709
 30
0.0
 10
230.4979832948775
 20
34.6778097791727
 30
0.0
 10
230.5604225461
 20
34.49706222506109
 30
0.0
 10
230.6203311736272
 20
34.31621882864206
 30
0.0
 10
230.6775177592611
 20
34.13521171309937
 30
0.0
 10
230.7320758304695
 20
33.95408231077655
 30
0.0
 10
230.7840235770604
 20
33.77284379344481
 30
0.0
 10
230.8334000565234
 20
33.59151783923495
 30
0.0
 10
230.8802394379709
 20
33.41012476250007
 30
0.0
 10
230.9245780443164
 20
33.22868640709871
 30
0.0
 10
230.9664518875394
 20
33.04722451812754
 30
0.0
 10
231.0058994787274
 20
32.86576446567772
 30
0.0
 10
231.042952998087
 20
32.68432201998888
 30
0.0
 10
231.1406450977207
 20
32.17397106825032
 30
0.0
 10
231.2581412965536
 20
31.34736953956353
 30
0.0
 10
231.2929927326745
 20
30.6320500442709
 30
0.0
 10
231.293388556848
 20
29.95533807936195
 30
0.0
 10
231.2583372058056
 20
29.31364695526286
 30
0.0
 10
231.1334031256341
 20
28.69234601648873
 30
0.0
 10
231.0126769447585
 20
28.31972191451685
 30
0.0
 10
230.9383695322364
 20
28.13092521338585
 30
0.0
 10
230.8554560610041
 20
27.95673393042436
 30
0.0
 10
230.7637572599942
 20
27.79691776035889
 30
0.0
 10
230.6628551923716
 20
27.65171388774327
 30
0.0
 10
230.5533022955718
 20
27.51966692761512
 30
0.0
 10
230.4727739976718
 20
27.44396744267288
 30
0.0
 10
230.432377521916
 20
27.4059933082637
 30
0.0
  0
LWPOLYLINE
  5
223
330
1F
100
AcDbEntity
  8
0
  6
Continuous
 62
     7
370
    15
100
AcDbPolyline
 90
       27
 70
   128
 43
0.0
 10
230.4322311478
 20
34.8578706645
 10
230.7645704878
 20
36.7220365269
 10
231.2173500462
 20
38.6175958404
 10
231.7873711147
 20
40.5311572285
 10
232.4706067199
 20
42.449202137
 10
233.2622300725
 20
44.3581803372
 10
234.1566486666
 20
46.2446056534
 10
235.1475437889
 20
48.0951512371
 10
236.2279151571
 20
49.8967437156
 10
237.390130375
 20
51.6366555509
 10
238.6259788518
 20
53.3025949541
 10
239.9267298069
 20
54.8827927223
 10
241.2831939494
 20
56.3660853835
 10
242.6857883967
 20
57.7419940618
 10
244.124604374
 20
59.0007985066
 10
245.5894772154
 20
60.1336057625
 10
247.0700581739
 20
61.1324129945
 10
248.5558875308
 20
61.9901640244
 10
250.0364684893
 20
62.7007991807
 10
251.5013413307
 20
63.259298107
 10
252.940157308
 20
63.6617152294
 10
254.3427517553
 20
63.9052076301
 10
255.6992158978
 20
63.9880551316
 10
256.9999668529
 20
63.9096724491
 10
258.2358153297
 20
63.6706133253
 10
259.3980305476
 20
63.2725666182
 10
260.3119570103
 20
62.817024419
  0
SPLINE
  5
224
330
1F
100
AcDbEntity
  8
0
  6
Continuous
 62
     7
370
    15
100
AcDbSpline
210
0.0
220
0.0
230
1.0
 70
     8
 71
     3
 72
     8
 73
     4
 74
     0
 42
0.000000001
 43
0.00000001
 40
0.0
 40
0.0
 40
0.0
 40
0.0
 40
1.0
 40
1.0
 40
1.0
 40
1.0
 10
229.4702378690009
 20
40.29320838229928
 30
0.0
 10
228.300611449063
 20
40.09765220905654
 30
0.0
 10
227.1300082062031
 20
39.90406724233662
 30
0.0
 10
225.9587767245503
 20
39.71178779309036
 30
0.0
  0
SPLINE
  5
225
330
1F
100
AcDbEntity
  8
0
  6
Continuous
 62
     7
370
    15
100
AcDbSpline
210
0.0
220
0.0
230
1.0
 70
     8
 71
     3
 72
     8
 73
     4
 74
     0
 42
0.000000001
 43
0.00000001
 40
0.0
 40
0.0
 40
0.0
 40
0.0
 40
0.0012417047560385
 40
0.0012417047560385
 40
0.0012417047560385
 40
0.0012417047560385
 10
225.4842761209006
 20
39.98576321397022
 30
0.0
 10
225.642547261361
 20
39.89437788921228
 30
0.0
 10
225.8007165670402
 20
39.80305134180867
 30
0.0
 10
225.9587767245503
 20
39.71178779309036
 30
0.0
  0
LWPOLYLINE
  5
226
330
1F
100
AcDbEntity
  8
0
  6
Continuous
 62
     7
370
    15
100
AcDbPolyline
 90
       28
 70
   128
 43
0.0
 10
225.4842761209
 20
39.985763214
 10
225.9631117117
 20
41.9344293502
 10
226.564993428
 20
43.9002405439
 10
227.2854406758
 20
45.8685626873
 10
228.1190902223
 20
47.8247429802
 10
229.0597361221
 20
49.7542190101
 10
230.1003759153
 20
51.6426271595
 10
231.233262757
 20
53.4759095327
 10
232.4499630862
 20
55.2404186075
 10
233.7414194086
 20
56.9230188314
 10
235.098017723
 20
58.5111844068
 10
236.5096590911
 20
59.9930925369
 10
237.965834817
 20
61.3577114382
 10
239.4557046772
 20
62.5948824647
 10
240.9681776186
 20
63.6953957317
 10
242.4919943239
 20
64.6510586774
 10
244.0158110292
 20
65.4547570506
 10
245.5282839707
 20
66.1005078715
 10
247.0181538308
 20
66.5835039707
 10
248.4743295567
 20
66.9001497758
 10
249.8859709248
 20
67.048088077
 10
251.2425692392
 20
67.0262175759
 10
252.5340255616
 20
66.8347010833
 10
253.7507258908
 20
66.4749643072
 10
254.8836127325
 20
65.9496852397
 10
255.9242525258
 20
65.2627742211
 10
256.8648984255
 20
64.4193448299
 10
257.3651287683
 20
63.8568847782
  0
LINE
  5
227
330
1F
100
AcDbEntity
  8
0
  6
Continuous
 62
     7
370
    15
100
AcDbLine
 10
221.3565402857
 20
42.3686543904
 30
0.0
 11
225.4842761209
 21
39.985763214
 31
0.0
  0
ARC
  5
228
330
1F
100
AcDbEntity
  8
0
  6
Continuous
 62
     7
370
    15
100
AcDbCircle
 10
246.4742183964
 20
60.5541720024
 30
0.0
 40
8.878232805079945
100
AcDbArc
 50
60.3725835944
 51
85.9811821539
  0
SPLINE
  5
229
330
1F
100
AcDbEntity
  8
0
  6
Continuous
 62
     7
370
    15
100
AcDbSpline
210
0.0
220
0.0
230
1.0
 70
     8
 71
     3
 72
    10
 73
     6
 74
     0
 42
0.000000001
 43
0.00000001
 40
0.0
 40
0.0
 40
0.0
 40
0.0
 40
0.3927540837763254
 40
0.7854916950163862
 40
0.9999999999999999
 40
0.9999999999999999
 40
0.9999999999999999
 40
0.9999999999999999
 10
239.1916026577652
 20
55.18827087074569
 30
0.0
 10
239.299721158878
 20
55.1415708192217
 30
0.0
 10
239.5159536264954
 20
55.048172674825
 30
0.0
 10
239.8608990763793
 20
55.03370587875438
 30
0.0
 10
240.0678844618763
 20
55.09392186337238
 30
0.0
 10
240.1410016010997
 20
55.11519302954777
 30
0.0
  0
LWPOLYLINE
  5
22A
330
1F
100
AcDbEntity
  8
0
  6
Continuous
 62
     7
370
    15
100
AcDbPolyline
 90
       14
 70
   128
 43
0.0
 10
241.2187630309
 20
56.2978996229
 10
241.1504686477
 20
56.5497827652
 10
240.9422697362
 20
56.7864775131
 10
240.6288248402
 20
56.9411575754
 10
240.2456846892
 20
56.9964875655
 10
239.8359199642
 20
56.9445522427
 10
239.4464689915
 20
56.7883431901
 10
239.122745879
 20
56.5435131215
 10
238.9016341402
 20
56.2373401362
 10
238.8071150743
 20
55.9048744678
 10
238.8490750598
 20
55.5850914594
 10
239.0222694747
 20
55.3167422395
 10
239.1916026578
 20
55.1882708707
 10
239.1916026578
 20
55.1882708707
  0
SPLINE
  5
22B
330
1F
100
AcDbEntity
  8
0
  6
Continuous
 62
     7
370
    15
100
AcDbSpline
210
0.0
220
0.0
230
1.0
 70
     8
 71
     3
 72
    10
 73
     6
 74
     0
 42
0.000000001
 43
0.00000001
 40
0.0
 40
0.0
 40
0.0
 40
0.0
 40
0.1982376724753472
 40
0.6709252460000957
 40
1.0
 40
1.0
 40
1.0
 40
1.0
 10
231.3121716779619
 20
38.90509788078814
 30
0.0
 10
231.2278486956255
 20
39.0155111811052
 30
0.0
 10
230.9424618821049
 20
39.3891993391223
 30
0.0
 10
230.451199895285
 20
39.83854813894077
 30
0.0
 10
230.0341981439844
 20
40.12003050513474
 30
0.0
 10
229.8630442446107
 20
40.23556192539561
 30
0.0
  0
SPLINE
  5
22C
330
1F
100
AcDbEntity
  8
0
  6
Continuous
 62
     7
370
    15
100
AcDbSpline
210
0.0
220
0.0
230
1.0
 70
     8
 71
     3
 72
    10
 73
     6
 74
     0
 42
0.000000001
 43
0.00000001
 40
0.0
 40
0.0
 40
0.0
 40
0.0
 40
0.5
 40
0.5
 40
1.0
 40
1.0
 40
1.0
 40
1.0
 10
229.7271148973786
 20
40.28809190720492
 30
0.0
 10
229.6865395889836
 20
40.29691642853189
 30
0.0
 10
229.64296524593
 20
40.30186950444057
 30
0.0
 10
229.5551625189431
 20
40.3034546897067
 30
0.0
 10
229.5121944020213
 20
40.30022332219815
 30
0.0
 10
229.4702378690009
 20
40.29320838229928
 30
0.0
  0
SPLINE
  5
22D
330
1F
100
AcDbEntity
  8
0
  6
Continuous
 62
     7
370
    15
100
AcDbSpline
210
0.0
220
0.0
230
1.0
 70
     8
 71
     3
 72
     8
 73
     4
 74
     0
 42
0.000000001
 43
0.00000001
 40
0.0
 40
0.0
 40
0.0
 40
0.0
 40
1.0
 40
1.0
 40
1.0
 40
1.0
 10
229.8630442446107
 20
40.23556192539561
 30
0.0
 10
229.8245623027745
 20
40.25923273519147
 30
0.0
 10
229.7784546510276
 20
40.27692628040092
 30
0.0
 10
229.7271148973786
 20
40.28809190720497
 30
0.0
  0
SPLINE
  5
22E
330
1F
100
AcDbEntity
  8
0
  6
Continuous
 62
     7
370
    15
100
AcDbSpline
210
0.0
220
0.0
230
1.0
 70
     8
 71
     3
 72
    10
 73
     6
 74
     0
 42
0.000000001
 43
0.00000001
 40
0.0
 40
0.0
 40
0.0
 40
0.0
 40
0.5
 40
0.5
 40
1.0
 40
1.0
 40
1.0
 40
1.0
 10
221.1998433659133
 20
42.45910227353335
 30
0.0
 10
221.2108939642634
 20
42.45272643898921
 30
0.0
 10
221.2295139102028
 20
42.44198019748382
 30
0.0
 10
221.2828138602634
 20
42.41121472464386
 30
0.0
 10
221.3163946329847
 20
42.3918299823729
 30
0.0
 10
221.3565402857241
 20
42.36865439035276
 30
0.0
  0
SPLINE
  5
22F
330
1F
100
AcDbEntity
  8
0
  6
Continuous
 62
     7
370
    15
100
AcDbSpline
210
0.0
220
0.0
230
1.0
 70
     8
 71
     3
 72
     9
 73
     5
 74
     0
 42
0.000000001
 43
0.00000001
 40
0.0
 40
0.0
 40
0.0
 40
0.0
 40
0.5377956222890862
 40
0.9999999999999999
 40
0.9999999999999999
 40
0.9999999999999999
 40
0.9999999999999999
 10
229.8630442446107
 20
29.74620586245251
 30
0.0
 10
230.1031104180581
 20
29.61943981491103
 30
0.0
 10
230.5494996475308
 20
29.38372564713496
 30
0.0
 10
230.9411058049741
 20
29.26808100812064
 30
0.0
 10
231.1221078852829
 20
29.21462954970943
 30
0.0
  0
SPLINE
  5
230
330
1F
100
AcDbEntity
  8
0
  6
Continuous
 62
     7
370
    15
100
AcDbSpline
210
0.0
220
0.0
230
1.0
 70
     8
 71
     3
 72
     8
 73
     4
 74
     0
 42
0.000000001
 43
0.00000001
 40
0.0
 40
0.0
 40
0.0
 40
0.0
 40
1.0
 40
1.0
 40
1.0
 40
1.0
 10
229.7271148973791
 20
29.79554247447292
 30
0.0
 10
229.7784432793762
 20
29.78437932083263
 30
0.0
 10
229.8245638434805
 20
29.76766531653092
 30
0.0
 10
229.8630442446107
 20
29.74620586245253
 30
0.0
  0
SPLINE
  5
231
330
1F
100
AcDbEntity
  8
0
  6
Continuous
 62
     7
370
    15
100
AcDbSpline
210
0.0
220
0.0
230
1.0
 70
     8
 71
     3
 72
    12
 73
     8
 74
     0
 42
0.000000001
 43
0.00000001
 40
0.0
 40
0.0
 40
0.0
 40
0.0
 40
0.1882348860552934
 40
0.3552030333413834
 40
0.5009466077120189
 40
0.7563025321915505
 40
1.0
 40
1.0
 40
1.0
 40
1.0
 10
230.5430314137109
 20
28.12996746517118
 30
0.0
 10
230.6320749470379
 20
28.22424911318877
 30
0.0
 10
230.8001018935834
 20
28.40216048799332
 30
0.0
 10
230.9800112456027
 20
28.74947758918222
 30
0.0
 10
231.1415352400627
 20
29.21013119797105
 30
0.0
 10
231.2672923036794
 20
29.83168210951423
 30
0.0
 10
231.2845950998692
 20
30.41500941517155
 30
0.0
 10
231.2930443914332
 20
30.69985947227762
 30
0.0
  0
SPLINE
  5
232
330
1F
100
AcDbEntity
  8
0
  6
Continuous
 62
     7
370
    15
100
AcDbSpline
210
0.0
220
0.0
230
1.0
 70
     8
 71
     3
 72
     9
 73
     5
 74
     0
 42
0.000000001
 43
0.00000001
 40
0.0
 40
0.0
 40
0.0
 40
0.0
 40
0.5048004990382029
 40
1.0
 40
1.0
 40
1.0
 40
1.0
 10
230.43229700168
 20
27.40594294491007
 30
0.0
 10
230.450841899965
 20
27.52765682063527
 30
0.0
 10
230.4875789838629
 20
27.76876964829115
 30
0.0
 10
230.5246760952188
 20
28.010275881538
 30
0.0
 10
230.5430465662493
 20
28.129869647721
 30
0.0
  0
LINE
  5
233
330
1F
100
AcDbEntity
  8
0
  6
Continuous
 62
     7
370
    15
100
AcDbLine
 10
221.633910466
 20
42.2084799406
 30
0.0
 11
221.1998433659
 21
42.4591022735
 31
0.0
  0
LINE
  5
234
330
1F
100
AcDbEntity
  8
0
  6
Continuous
 62
     7
370
    15
100
AcDbLine
 10
225.9587767246
 20
39.7117877931
 30
0.0
 11
221.633910466
 21
42.2084799406
 31
0.0
  0
SPLINE
  5
235
330
1F
100
AcDbEntity
  8
0
  6
Continuous
 62
     7
370
    15
100
AcDbSpline
210
0.0
220
0.0
230
1.0
 70
     8
 71
     3
 72
    11
 73
     7
 74
     0
 42
0.000000001
 43
0.00000001
 40
0.0
 40
0.0
 40
0.0
 40
0.0
 40
0.0763291486410529
 40
0.4828240100964536
 40
0.8892344489868813
 40
1.0
 40
1.0
 40
1.0
 40
1.0
 10
225.5302704102094
 20
36.89574859486346
 30
0.0
 10
225.5298350308794
 20
36.97398773388303
 30
0.0
 10
225.5270810162235
 20
37.46889348771989
 30
0.0
 10
225.4823853590096
 20
38.40187953021722
 30
0.0
 10
225.4443102444479
 20
39.36736333849689
 30
0.0
 10
225.4563282635839
 20
39.88870210093206
 30
0.0
 10
225.4589022085034
 20
40.0003592087889
 30
0.0
  0
LINE
  5
236
330
1F
100
AcDbEntity
  8
0
  6
Continuous
 62
     7
370
    15
100
AcDbLine
 10
225.5302704102
 20
35.1199479658
 30
0.0
 11
225.5302704102
 21
36.8957485949
 31
0.0
  0
LINE
  5
237
330
1F
100
AcDbEntity
  8
0
  6
Continuous
 62
     7
370
    15
100
AcDbLine
 10
224.6021927599
 20
40.3085743421
 30
0.0
 11
224.6032337872
 21
40.4943260741
 31
0.0
  0
ARC
  5
238
330
1F
100
AcDbEntity
  8
0
  6
Continuous
 62
     7
370
    15
100
AcDbCircle
 10
236.5380459612
 20
40.0429846776
 30
0.0
 40
11.9388077089852
100
AcDbArc
 50
178.7252979842
 51
202.7773427363
  0
LINE
  5
239
330
1F
100
AcDbEntity
  8
0
  6
Continuous
 62
     7
370
    15
100
AcDbLine
 10
195.9845399592
 20
59.4118105043
 30
0.0
 11
195.9317149105
 21
59.4573231205
 31
0.0
  0
LWPOLYLINE
  5
23A
330
1F
100
AcDbEntity
  8
0
  6
Continuous
 62
     7
370
    15
100
AcDbPolyline
 90
       10
 70
   128
 43
0.0
 10
232.939838408
 20
21.5464564615
 10
232.4499630862
 20
21.6403756772
 10
231.233262757
 20
22.0001124533
 10
230.1003759153
 20
22.5253915208
 10
229.0597361221
 20
23.2123025394
 10
228.1190902223
 20
24.0557319306
 10
227.2854406758
 20
25.0494009447
 10
226.564993428
 20
26.1859124014
 10
225.9631117117
 20
27.4568057572
 10
225.4842761209
 20
28.8526200881
  0
SPLINE
  5
23B
330
1F
100
AcDbEntity
  8
0
  6
Continuous
 62
     7
370
    15
100
AcDbSpline
210
0.0
220
0.0
230
1.0
 70
     8
 71
     3
 72
     8
 73
     4
 74
     0
 42
0.000000001
 43
0.00000001
 40
0.0
 40
0.0
 40
0.0
 40
0.0
 40
0.0012417047560385
 40
0.0012417047560385
 40
0.0012417047560385
 40
0.0012417047560385
 10
225.9587767245503
 20
29.21923836035847
 30
0.0
 10
225.8007165670402
 20
29.09683515535432
 30
0.0
 10
225.642547261361
 20
28.97463292538356
 30
0.0
 10
225.4842761209006
 20
28.85262008807279
 30
0.0
  0
SPLINE
  5
23C
330
1F
100
AcDbEntity
  8
0
  6
Continuous
 62
     7
370
    15
100
AcDbSpline
210
0.0
220
0.0
230
1.0
 70
     8
 71
     3
 72
     8
 73
     4
 74
     0
 42
0.000000001
 43
0.00000001
 40
0.0
 40
0.0
 40
0.0
 40
0.0
 40
1.0
 40
1.0
 40
1.0
 40
1.0
 10
225.9587767245503
 20
29.21923836035847
 30
0.0
 10
227.130009309226
 20
29.41151799068647
 30
0.0
 10
228.3006286838184
 20
29.60510565789672
 30
0.0
 10
229.4702378690009
 20
29.8006589495674
 30
0.0
  0
SPLINE
  5
23D
330
1F
100
AcDbEntity
  8
0
  6
Continuous
 62
     7
370
    15
100
AcDbSpline
210
0.0
220
0.0
230
1.0
 70
     8
 71
     3
 72
    10
 73
     6
 74
     0
 42
0.000000001
 43
0.00000001
 40
0.0
 40
0.0
 40
0.0
 40
0.0
 40
0.5
 40
0.5
 40
1.0
 40
1.0
 40
1.0
 40
1.0
 10
229.4702378690009
 20
29.8006589495674
 30
0.0
 10
229.5120037300154
 20
29.80764200998134
 30
0.0
 10
229.5559010158294
 20
29.81093210098972
 30
0.0
 10
229.6435283986194
 20
29.80926912656068
 30
0.0
 10
229.68603369568
 20
29.80447702000993
 30
0.0
 10
229.7271148973791
 20
29.79554247447292
 30
0.0
  0
LINE
  5
23E
330
1F
100
AcDbEntity
  8
0
  6
Continuous
 62
     7
370
    15
100
AcDbLine
 10
221.633910466
 20
31.7159305078
 30
0.0
 11
225.9587767246
 21
29.2192383604
 31
0.0
  0
LINE
  5
23F
330
1F
100
AcDbEntity
  8
0
  6
Continuous
 62
     7
370
    15
100
AcDbLine
 10
221.633910466
 20
31.7159305078
 30
0.0
 11
225.1767170196
 21
33.7611491975
 31
0.0
  0
LINE
  5
240
330
1F
100
AcDbEntity
  8
0
  6
Continuous
 62
     7
370
    15
100
AcDbLine
 10
221.1998433659
 20
31.4653081748
 30
0.0
 11
221.633910466
 21
31.7159305078
 31
0.0
  0
LINE
  5
241
330
1F
100
AcDbEntity
  8
0
  6
Continuous
 62
     7
370
    15
100
AcDbLine
 10
225.4842761209
 20
28.8526200881
 30
0.0
 11
221.3565402857
 21
31.2355112645
 31
0.0
  0
SPLINE
  5
242
330
1F
100
AcDbEntity
  8
0
  6
Continuous
 62
     7
370
    15
100
AcDbSpline
210
0.0
220
0.0
230
1.0
 70
     8
 71
     3
 72
     8
 73
     4
 74
     0
 42
0.000000001
 43
0.00000001
 40
0.0
 40
0.0
 40
0.0
 40
0.0
 40
1.0
 40
1.0
 40
1.0
 40
1.0
 10
221.3565402857241
 20
31.23551126445532
 30
0.0
 10
221.276321056558
 20
31.28182083972593
 30
0.0
 10
221.2219312942706
 20
31.36548368073801
 30
0.0
 10
221.1998433659125
 20
31.46530817484538
 30
0.0
  0
ARC
  5
243
330
1F
100
AcDbEntity
  8
0
  6
Continuous
 62
     7
370
    15
100
AcDbCircle
 10
230.3856486376
 20
32.6608904758
 30
0.0
 40
8.921645768972535
100
AcDbArc
 50
214.8451889641
 51
239.5573983443
  0
ELLIPSE
  5
244
330
1F
100
AcDbEntity
  8
0
  6
Continuous
 62
     7
370
    15
100
AcDbEllipse
 10
224.8838238008
 20
34.7467736656
 30
0.0
 11
-7.507462981948264E-5
 21
1.066811201853398
 31
0.0
210
0.0
220
0.0
230
1.0
 40
0.7174342186
 41
3.534193645557477
 42
5.10498997235235
  0
ELLIPSE
  5
245
330
1F
100
AcDbEntity
  8
0
  6
Continuous
 62
     7
370
    15
100
AcDbEllipse
 10
224.823163629
 20
34.7117439099
 30
0.0
 11
0.3250094736511926
 21
1.213179526238669
 31
0.0
210
0.0
220
0.0
230
1.0
 40
0.5176380889
 41
3.619174351347818
 42
5.189970678142604
  0
LWPOLYLINE
  5
246
330
1F
100
AcDbEntity
  8
0
  6
Continuous
 62
     7
370
    15
100
AcDbPolyline
 90
        8
 70
   128
 43
0.0
 10
264.5537248549
 20
46.3266865783
 10
264.1515959844
 20
45.938330875
 10
263.9092446529
 20
45.5080551478
 10
263.8388233683
 20
45.0574352185
 10
263.9438633477
 20
44.609067052
 10
264.219097448
 20
44.1854337003
 10
264.6507242821
 20
43.8077779086
 10
265.0123172381
 20
43.5923841857
  0
LWPOLYLINE
  5
247
330
1F
100
AcDbEntity
  8
0
  6
Continuous
 62
     7
370
    15
100
AcDbPolyline
 90
       17
 70
   128
 43
0.0
 10
269.9256229278
 20
43.7418519695
 10
270.1221928408
 20
43.8779953957
 10
270.5243217114
 20
44.2663510991
 10
270.7666730428
 20
44.6966268262
 10
270.8370943275
 20
45.1472467555
 10
270.7320543481
 20
45.5956149221
 10
270.4568202478
 20
46.0192482738
 10
270.0251934137
 20
46.3969040654
 10
269.4588174175
 20
46.7096450587
 10
268.7860927167
 20
46.9417891144
 10
268.0407525369
 20
47.08169556
 10
267.2601713469
 20
47.1223489023
 10
266.4834907469
 20
47.0617106129
 10
265.7496567456
 20
46.9028213489
 10
265.0954668438
 20
46.6536484813
 10
264.5537248549
 20
46.3266865783
 10
264.5537248549
 20
46.3266865783
  0
LWPOLYLINE
  5
248
330
1F
100
AcDbEntity
  8
0
  6
Continuous
 62
     7
370
    15
100
AcDbPolyline
 90
       23
 70
   128
 43
0.0
 10
265.4685445954
 20
45.9244015983
 10
265.1430804271
 20
45.5870594442
 10
264.995432255
 20
45.2104482834
 10
265.0375616559
 20
44.8250789123
 10
265.2660555563
 20
44.4621716656
 10
265.6624027393
 20
44.1511271301
 10
266.1944935133
 20
43.9171442842
 10
266.8192210483
 20
43.7791790266
 10
267.4859736347
 20
43.7484084818
 10
268.1407349434
 20
43.8273254964
 10
268.7304601071
 20
44.0095366833
 10
269.2073731003
 20
44.2802803757
 10
269.5328372686
 20
44.6176225299
 10
269.6804854407
 20
44.9942336907
 10
269.6383560398
 20
45.3796030617
 10
269.4098621394
 20
45.7425103084
 10
269.0135149564
 20
46.0535548439
 10
268.4814241824
 20
46.2875376898
 10
267.8566966475
 20
46.4255029475
 10
267.189944061
 20
46.4562734923
 10
266.5351827524
 20
46.3773564776
 10
265.9454575887
 20
46.1951452908
 10
265.4685445954
 20
45.9244015983
  0
SPLINE
  5
249
330
1F
100
AcDbEntity
  8
0
  6
Continuous
 62
     7
370
    15
100
AcDbSpline
210
0.0
220
0.0
230
1.0
 70
     8
 71
     3
 72
    11
 73
     7
 74
     0
 42
0.000000001
 43
0.00000001
 40
0.0
 40
0.0
 40
0.0
 40
0.0
 40
0.2546305161155009
 40
0.5179669150961733
 40
0.8845066366346507
 40
1.0
 40
1.0
 40
1.0
 40
1.0
 10
265.0472661283999
 20
45.23854353947819
 30
0.0
 10
265.1083503355761
 20
45.09492779350326
 30
0.0
 10
265.2326072346895
 20
44.80278604224463
 30
0.0
 10
265.4625564912346
 20
44.38829979229221
 30
0.0
 10
265.6645700794562
 20
44.14606382919975
 30
0.0
 10
265.7812761312528
 20
44.09108021404334
 30
0.0
 10
265.8092384742313
 20
44.07790634103904
 30
0.0
  0
SPLINE
  5
24A
330
1F
100
AcDbEntity
  8
0
  6
Continuous
 62
     7
370
    15
100
AcDbSpline
210
0.0
220
0.0
230
1.0
 70
     8
 71
     3
 72
    10
 73
     6
 74
     0
 42
0.000000001
 43
0.00000001
 40
0.0
 40
0.0
 40
0.0
 40
0.0
 40
0.2150749346330543
 40
0.7843846047796714
 40
1.0
 40
1.0
 40
1.0
 40
1.0
 10
268.7656462303177
 20
44.03701875876182
 30
0.0
 10
268.8287006082399
 20
44.06611154185838
 30
0.0
 10
269.058661776846
 20
44.1722137764589
 30
0.0
 10
269.3595760528551
 20
44.52719954418976
 30
0.0
 10
269.5706660827998
 20
44.81953409032381
 30
0.0
 10
269.6286515673279
 20
44.89983707908335
 30
0.0
  0
SPLINE
  5
24B
330
1F
100
AcDbEntity
  8
0
  6
Continuous
 62
     7
370
    15
100
AcDbSpline
210
0.0
220
0.0
230
1.0
 70
     8
 71
     3
 72
    11
 73
     7
 74
     0
 42
0.000000001
 43
0.00000001
 40
0.0
 40
0.0
 40
0.0
 40
0.0
 40
0.2164567244934201
 40
0.4403141600939161
 40
0.7519028444798798
 40
1.0
 40
1.0
 40
1.0
 40
1.0
 10
269.6286515673279
 20
44.89983707908335
 30
0.0
 10
269.5675970209819
 20
44.92493731054067
 30
0.0
 10
269.4434004576403
 20
44.97599595682738
 30
0.0
 10
269.2129254708236
 20
45.19374405972416
 30
0.0
 10
268.9657012052293
 20
45.59535828922216
 30
0.0
 10
268.807493003686
 20
45.96561071272239
 30
0.0
 10
268.7373625805375
 20
46.12973595325064
 30
0.0
  0
SPLINE
  5
24C
330
1F
100
AcDbEntity
  8
0
  6
Continuous
 62
     7
370
    15
100
AcDbSpline
210
0.0
220
0.0
230
1.0
 70
     8
 71
     3
 72
    11
 73
     7
 74
     0
 42
0.000000001
 43
0.00000001
 40
0.0
 40
0.0
 40
0.0
 40
0.0
 40
0.2164567244934127
 40
0.4403141600939195
 40
0.7519028444798771
 40
1.0
 40
1.0
 40
1.0
 40
1.0
 10
268.7373625805375
 20
46.12973595325064
 30
0.0
 10
268.5804469147122
 20
46.0821873198263
 30
0.0
 10
268.2612505960707
 20
45.98546435296605
 30
0.0
 10
267.6689091870056
 20
45.9289700418589
 30
0.0
 10
267.0335206276665
 20
46.03641187402501
 30
0.0
 10
266.626911345149
 20
46.21841220255525
 30
0.0
 10
266.4466698610736
 20
46.29908918344805
 30
0.0
  0
SPLINE
  5
24D
330
1F
100
AcDbEntity
  8
0
  6
Continuous
 62
     7
370
    15
100
AcDbSpline
210
0.0
220
0.0
230
1.0
 70
     8
 71
     3
 72
    11
 73
     7
 74
     0
 42
0.000000001
 43
0.00000001
 40
0.0
 40
0.0
 40
0.0
 40
0.0
 40
0.1323877169514952
 40
0.4819434960836144
 40
0.8154866441480898
 40
1.0
 40
1.0
 40
1.0
 40
1.0
 10
266.4466698610736
 20
46.29908918344805
 30
0.0
 10
266.3886115736431
 20
46.21806408381874
 30
0.0
 10
266.1772565124247
 20
45.9231007693582
 30
0.0
 10
265.7820447538933
 20
45.49575472955225
 30
0.0
 10
265.3567189526829
 20
45.27945559287879
 30
0.0
 10
265.1285365932404
 20
45.24928812261506
 30
0.0
 10
265.0472661283999
 20
45.23854353947819
 30
0.0
  0
LINE
  5
24E
330
1F
100
AcDbEntity
  8
0
  6
Continuous
 62
     7
370
    15
100
AcDbLine
 10
268.7373625805
 20
44.0124790899
 30
0.0
 11
268.7373625805
 21
46.1297359533
 31
0.0
  0
LINE
  5
24F
330
1F
100
AcDbEntity
  8
0
  6
Continuous
 62
     7
370
    15
100
AcDbLine
 10
266.4466698611
 20
43.847074827
 30
0.0
 11
266.4466698611
 21
46.2990891834
 31
0.0
  0
LWPOLYLINE
  5
250
330
1F
100
AcDbEntity
  8
0
  6
Continuous
 62
     7
370
    15
100
AcDbPolyline
 90
        8
 70
   128
 43
0.0
 10
273.0501119422
 20
30.0515708461
 10
272.7892429773
 20
29.8093936133
 10
272.4041324306
 20
29.6703327533
 10
271.9532939131
 20
29.6911645135
 10
271.4650552669
 20
29.8705799578
 10
270.9700943219
 20
30.197305754
 10
270.4995112945
 20
30.6508125187
 10
270.3607729995
 20
30.8160035904
  0
LWPOLYLINE
  5
251
330
1F
100
AcDbEntity
  8
0
  6
Continuous
 62
     7
370
    15
100
AcDbPolyline
 90
       12
 70
   128
 43
0.0
 10
241.0059438134
 20
56.7107117768
 10
240.6816986493
 20
56.9181068124
 10
240.2556931676
 20
56.9918092377
 10
239.7927828413
 20
56.9205985265
 10
239.3634415711
 20
56.7153158641
 10
239.0330326736
 20
56.4072136749
 10
238.8518579082
 20
56.0431977243
 10
238.8474994906
 20
55.6786861409
 10
239.0206209503
 20
55.3691725091
 10
239.3448661145
 20
55.1617774734
 10
239.7708715961
 20
55.0880750481
 10
240.1475035818
 20
55.135116206
  0
LWPOLYLINE
  5
252
330
1F
100
AcDbEntity
  8
0
  6
Continuous
 62
     7
370
    15
100
AcDbPolyline
 90
        3
 70
   128
 43
0.0
 10
241.1982422314
 20
56.2777559244
 10
241.1790652732
 20
56.4011981449
 10
241.0059438134
 20
56.7107117768
  0
LINE
  5
253
330
1F
100
AcDbEntity
  8
0
  6
Continuous
 62
     7
370
    15
100
AcDbLine
 10
239.2631571587
 20
56.21665735
 30
0.0
 11
239.3102195995
 21
55.5648625739
 31
0.0
  0
LINE
  5
254
330
1F
100
AcDbEntity
  8
0
  6
Continuous
 62
     7
370
    15
100
AcDbLine
 10
240.0603448227
 20
55.3881473669
 30
0.0
 11
239.3102195995
 21
55.5648625739
 31
0.0
  0
LINE
  5
255
330
1F
100
AcDbEntity
  8
0
  6
Continuous
 62
     7
370
    15
100
AcDbLine
 10
240.763407605
 20
55.8632269359
 30
0.0
 11
240.0603448227
 21
55.3881473669
 31
0.0
  0
LINE
  5
256
330
1F
100
AcDbEntity
  8
0
  6
Continuous
 62
     7
370
    15
100
AcDbLine
 10
240.763407605
 20
55.8632269359
 30
0.0
 11
240.7163451642
 21
56.5150217119
 31
0.0
  0
LINE
  5
257
330
1F
100
AcDbEntity
  8
0
  6
Continuous
 62
     7
370
    15
100
AcDbLine
 10
239.9662199411
 20
56.691736919
 30
0.0
 11
240.7163451642
 21
56.5150217119
 31
0.0
  0
LINE
  5
258
330
1F
100
AcDbEntity
  8
0
  6
Continuous
 62
     7
370
    15
100
AcDbLine
 10
239.9662199411
 20
56.691736919
 30
0.0
 11
239.2631571587
 21
56.21665735
 31
0.0
  0
LINE
  5
259
330
1F
100
AcDbEntity
  8
0
  6
Continuous
 62
     7
370
    15
100
AcDbLine
 10
239.5050019214
 20
55.5889739842
 30
0.0
 11
239.2631571587
 21
56.21665735
 31
0.0
  0
LINE
  5
25A
330
1F
100
AcDbEntity
  8
0
  6
Continuous
 62
     7
370
    15
100
AcDbLine
 10
239.5050019214
 20
55.5889739842
 30
0.0
 11
239.5101435731
 21
55.5177642958
 31
0.0
  0
LINE
  5
25B
330
1F
100
AcDbEntity
  8
0
  6
Continuous
 62
     7
370
    15
100
AcDbLine
 10
240.2080647037
 20
56.0640535532
 30
0.0
 11
239.5050019214
 21
55.5889739842
 31
0.0
  0
LINE
  5
25C
330
1F
100
AcDbEntity
  8
0
  6
Continuous
 62
     7
370
    15
100
AcDbLine
 10
240.2080647037
 20
56.0640535532
 30
0.0
 11
240.7582659533
 21
55.9344366243
 31
0.0
  0
LINE
  5
25D
330
1F
100
AcDbEntity
  8
0
  6
Continuous
 62
     7
370
    15
100
AcDbLine
 10
240.2080647037
 20
56.0640535532
 30
0.0
 11
239.9662199411
 21
56.691736919
 31
0.0
  0
LWPOLYLINE
  5
25E
330
1F
100
AcDbEntity
  8
0
  6
Continuous
 62
     7
370
     0
100
AcDbPolyline
 90
       10
 70
   128
 43
0.0
 10
237.303598317
 20
30.904573404
 10
237.3657391151
 20
29.4112045654
 10
237.5516154141
 20
28.0027057443
 10
237.8595937263
 20
26.6914548789
 10
238.2869675271
 20
25.488975289
 10
238.8299810404
 20
24.4058344085
 10
239.4838622438
 20
23.4515509184
 10
240.2428648057
 20
22.6345110963
 10
241.1003185844
 20
21.9618951175
 10
241.3635213293
 20
21.7964092475
  0
LWPOLYLINE
  5
25F
330
1F
100
AcDbEntity
  8
0
  6
Continuous
 62
     7
370
     0
100
AcDbPolyline
 90
       27
 70
   128
 43
0.0
 10
261.4449212671
 20
56.3896317699
 10
261.3278259581
 20
56.455664719
 10
260.3370765684
 20
56.900973002
 10
259.26818974
 20
57.189570229
 10
258.1305588889
 20
57.3189201972
 10
256.9341815557
 20
57.2878861745
 10
255.6895715475
 20
57.0967408889
 10
254.4076665418
 20
56.7471641321
 10
253.0997319659
 20
56.2422279971
 10
251.777261996
 20
55.586369881
 10
250.4518785455
 20
54.7853534884
 10
249.135229132
 20
53.8462181802
 10
247.8388845178
 20
52.7772171112
 10
246.5742370261
 20
51.5877447013
 10
245.3524004244
 20
50.2882540767
 10
244.1841122567
 20
48.8901652078
 10
243.0796394815
 20
47.4057645499
 10
242.0486882452
 20
45.8480970693
 10
241.1003185844
 20
44.2308516038
 10
240.2428648057
 20
42.5682405648
 10
239.4838622438
 20
40.8748750378
 10
238.8299810404
 20
39.1656363799
 10
238.2869675271
 20
37.455545442
 10
237.8595937263
 20
35.7596305647
 10
237.5516154141
 20
34.0927955089
 10
237.3657391151
 20
32.4696884811
 10
237.303598317
 20
30.904573404
  0
LWPOLYLINE
  5
260
330
1F
100
AcDbEntity
  8
0
  6
Continuous
 62
     7
370
     0
100
AcDbPolyline
 90
       47
 70
   128
 43
0.0
 10
273.7195975481
 20
33.967364474
 10
272.8048961191
 20
33.3670681795
 10
271.907233847
 20
32.6334534707
 10
271.0433324816
 20
31.7801862015
 10
270.2292848706
 20
30.8231611267
 10
269.480255181
 20
29.7802058127
 10
268.8101964184
 20
28.6707485436
 10
268.23159051
 20
27.5154564091
 10
267.755215789
 20
26.3358503159
 10
267.3899462151
 20
25.1539040936
 10
267.1425860694
 20
23.991635164
 10
267.0177432034
 20
22.870694398
 10
267.0177432034
 20
21.8119628013
 10
267.1425860694
 20
20.8351625404
 10
267.3899462151
 20
19.9584895559
 10
267.755215789
 20
19.1982746068
 10
268.23159051
 20
18.5686790592
 10
268.8101964184
 20
18.0814310869
 10
269.480255181
 20
17.7456071977
 10
270.2292848706
 20
17.5674631554
 10
271.0433324816
 20
17.5503174463
 10
271.907233847
 20
17.6944894625
 10
272.8048961191
 20
17.9972935522
 10
273.7195975481
 20
18.4530890481
 10
274.6342989771
 20
19.0533853426
 10
275.5319612491
 20
19.7870000514
 10
276.3958626146
 20
20.6402673206
 10
277.2099102255
 20
21.5972923954
 10
277.9589399152
 20
22.6402477094
 10
278.6289986777
 20
23.7497049786
 10
279.2076045861
 20
24.904997113
 10
279.6839793071
 20
26.0846032062
 10
280.049248881
 20
27.2665494285
 10
280.2966090267
 20
28.4288183582
 10
280.4214518928
 20
29.5497591241
 10
280.4214518928
 20
30.6084907208
 10
280.2966090267
 20
31.5852909817
 10
280.049248881
 20
32.4619639662
 10
279.6839793071
 20
33.2221789153
 10
279.2076045861
 20
33.8517744629
 10
278.6289986777
 20
34.3390224352
 10
277.9589399152
 20
34.6748463244
 10
277.2099102255
 20
34.8529903667
 10
276.3958626146
 20
34.8701360758
 10
275.5319612491
 20
34.7259640596
 10
274.6342989771
 20
34.4231599699
 10
273.7195975481
 20
33.967364474
  0
LWPOLYLINE
  5
261
330
1F
100
AcDbEntity
  8
0
  6
Continuous
 62
     7
370
     0
100
AcDbPolyline
 90
       25
 70
   128
 43
0.0
 10
268.8664098606
 20
18.6198890276
 10
268.9452653582
 20
18.5759347691
 10
269.6254017175
 20
18.3095433323
 10
270.3783454269
 20
18.2009023255
 10
271.1894412936
 20
18.2521263221
 10
272.0429022593
 20
18.4622183054
 10
272.9221166769
 20
18.8270890739
 10
273.809971638
 20
19.339636833
 10
274.6891860557
 20
19.9898854238
 10
275.5426470213
 20
20.7651784969
 10
276.3537428881
 20
21.6504258547
 10
277.1066865975
 20
22.6283971642
 10
277.7868229567
 20
23.6800573263
 10
278.3809138852
 20
24.7849369723
 10
278.8773960787
 20
25.9215308766
 10
279.2666060762
 20
27.0677165318
 10
279.5409683477
 20
28.2011847377
 10
279.6951427438
 20
29.2998738251
 10
279.726128435
 20
30.3423990606
 10
279.6333223204
 20
31.3084688764
 10
279.4185307652
 20
32.1792798224
 10
279.0859344427
 20
32.9378825541
 10
278.6420069622
 20
33.5695117322
 10
278.095388867
 20
34.0618734132
 10
277.8656784543
 20
34.2087685504
  0
LWPOLYLINE
  5
262
330
1F
100
AcDbEntity
  8
0
  6
Continuous
 62
     7
370
     0
100
AcDbPolyline
 90
       37
 70
   128
 43
0.0
 10
233.0609576298
 20
29.6799612363
 10
233.1233679567
 20
31.4125536625
 10
233.3101492695
 20
33.2047201502
 10
233.6199558046
 20
35.0435480988
 10
234.0505553988
 20
36.9157887108
 10
234.5988455722
 20
38.8079524496
 10
235.2608758815
 20
40.7064062322
 10
236.0318763831
 20
42.5974716556
 10
236.9062920008
 20
44.46752355
 10
237.8778225499
 20
46.3030881488
 10
238.9394681308
 20
48.0909401668
 10
240.0835795625
 20
49.8181980894
 10
241.301913496
 20
51.4724169837
 10
242.5856918075
 20
53.0416781645
 10
243.9256648446
 20
54.5146750692
 10
245.3121780712
 20
55.8807947212
 10
246.7352416274
 20
57.1301941973
 10
248.1846023079
 20
58.2538715454
 10
249.6498174357
 20
59.2437306447
 10
251.1203301022
 20
60.0926395375
 10
252.5855452299
 20
60.7944818159
 10
254.0349059104
 20
61.3442006902
 10
255.4579694667
 20
61.7378354232
 10
256.8444826932
 20
61.9725498678
 10
258.1844557304
 20
62.0466529009
 10
259.4682340418
 20
61.9596106086
 10
260.6865679754
 20
61.7120501324
 10
261.8306794071
 20
61.3057551514
 10
262.8923249879
 20
60.7436530301
 10
263.8638555371
 20
60.0297937273
 10
264.7382711548
 20
59.1693206156
 10
265.5092716564
 20
58.1684334234
 10
266.1713019656
 20
57.0343435659
 10
266.719592139
 20
55.7752221865
 10
267.1501917332
 20
54.4001412837
 10
267.4599982683
 20
52.9190083468
 10
267.4603219037
 20
52.9170148991
  0
LWPOLYLINE
  5
263
330
1F
100
AcDbEntity
  8
0
  6
Continuous
 62
     7
370
     0
100
AcDbPolyline
 90
       18
 70
   128
 43
0.0
 10
247.461947251
 20
18.2750604039
 10
246.7352416274
 20
18.0177205221
 10
245.3121780712
 20
17.624085789
 10
243.9256648446
 20
17.3893713444
 10
242.5856918075
 20
17.3152683113
 10
241.301913496
 20
17.4023106037
 10
240.0835795625
 20
17.6498710798
 10
238.9394681308
 20
18.0561660609
 10
237.8778225499
 20
18.6182681821
 10
236.9062920008
 20
19.3321274849
 10
236.0318763831
 20
20.1926005967
 10
235.2608758815
 20
21.1934877889
 10
234.5988455722
 20
22.3275776464
 10
234.0505553988
 20
23.5866990257
 10
233.6199558046
 20
24.9617799286
 10
233.3101492695
 20
26.4429128655
 10
233.1233679567
 20
28.0194262397
 10
233.0609576298
 20
29.6799612363
  0
LWPOLYLINE
  5
264
330
1F
100
AcDbEntity
  8
0
  6
Continuous
 62
     7
370
     0
100
AcDbPolyline
 90
       27
 70
   128
 43
0.0
 10
232.3538508487
 20
29.6799612363
 10
232.4158489238
 20
31.4239113166
 10
232.6014082774
 20
33.227210294
 10
232.9092273439
 20
35.0772093219
 10
233.3371469936
 20
36.9609319864
 10
233.8821656778
 20
38.8651653264
 10
234.5404604819
 20
40.7765525132
 10
235.3074139408
 20
42.681686539
 10
236.1776464272
 20
44.5672042575
 10
237.1450538853
 20
46.4198801167
 10
238.2028506469
 20
48.2267189264
 10
239.3436170279
 20
49.9750470108
 10
240.5593513715
 20
51.6526011044
 10
241.8415261751
 20
53.2476143705
 10
243.1811479034
 20
54.7488989373
 10
244.5688200727
 20
56.145924372
 10
245.9948091597
 20
57.428891545
 10
247.4491128755
 20
58.5888013635
 10
248.9215303245
 20
59.6175178933
 10
250.4017335562
 20
60.5078254273
 10
251.8793400084
 20
61.2534790977
 10
253.3439853336
 20
61.8492486799
 10
254.7853960971
 20
62.2909552781
 10
256.1934618382
 20
62.5755006381
 10
257.5583059872
 20
62.7008888785
 10
258.8703551432
 20
62.666240491
 10
259.0407582019
 20
62.649534223
  0
ARC
  5
265
330
1F
100
AcDbEntity
  8
0
  6
Continuous
 62
     7
370
     0
100
AcDbCircle
 10
247.7470163707
 20
29.0740184258
 30
0.0
 40
15.40508719478007
100
AcDbArc
 50
177.7457495802
 51
212.5890690703
  0
LWPOLYLINE
  5
266
330
1F
100
AcDbEntity
  8
0
  6
Continuous
 62
     7
370
     0
100
AcDbPolyline
 90
       32
 70
   128
 43
0.0
 10
235.1822779734
 20
30.904573404
 10
235.2452655503
 20
32.5373539236
 10
235.4337063463
 20
34.229328618
 10
235.7460388814
 20
35.9664772519
 10
236.17967507
 20
37.7344052647
 10
236.731021666
 20
39.5184630482
 10
237.3955100379
 20
41.3038673375
 10
238.1676340257
 20
43.0758237106
 10
239.040995567
 20
44.8196491789
 10
240.008357713
 20
46.5208938552
 10
241.0617045962
 20
48.1654606905
 10
242.1923078526
 20
49.739722286
 10
243.3907989476
 20
51.2306338144
 10
244.6472468066
 20
52.6258411132
 10
245.9512401068
 20
53.9137830552
 10
247.2919735491
 20
55.083787348
 10
248.658337394
 20
56.1261589675
 10
250.0390095203
 20
57.0322604941
 10
251.4225492439
 20
57.7945836854
 10
252.797492119
 20
58.4068116911
 10
254.1524449359
 20
58.8638713973
 10
255.4761801288
 20
59.1619754633
 10
256.7577288111
 20
59.2986537048
 10
257.9864716667
 20
59.2727735631
 10
259.1522269453
 20
59.0845494889
 10
260.2453348316
 20
58.7355411664
 10
261.2567374894
 20
58.2286405884
 10
262.1780541178
 20
57.5680480927
 10
263.0016503969
 20
56.7592375567
 10
263.7207017486
 20
55.8089110394
 10
264.329249887
 20
54.7249432455
 10
264.3295151231
 20
54.7243911824
  0
LWPOLYLINE
  5
267
330
1F
100
AcDbEntity
  8
0
  6
Continuous
 62
     7
370
     0
100
AcDbPolyline
 90
       14
 70
   128
 43
0.0
 10
244.3311404704
 20
20.0824366872
 10
243.3907989476
 20
20.0558695793
 10
242.1923078526
 20
20.1630327433
 10
241.0617045962
 20
20.4319276044
 10
240.008357713
 20
20.8603260153
 10
239.040995567
 20
21.4446781316
 10
238.1676340257
 20
22.1801418279
 10
237.3955100379
 20
23.0606228201
 10
236.731021666
 20
24.0788251657
 10
236.17967507
 20
25.2263117192
 10
235.7460388814
 20
26.4935740456
 10
235.4337063463
 20
27.8701112103
 10
235.2452655503
 20
29.3445167928
 10
235.1822779734
 20
30.904573404
  0
LWPOLYLINE
  5
268
330
1F
100
AcDbEntity
  8
0
  6
Continuous
 62
     7
370
     0
100
AcDbPolyline
 90
       21
 70
   128
 43
0.0
 10
229.470237869
 20
40.2932083823
 10
229.9398833808
 20
42.0526363128
 10
230.5240518696
 20
43.8230921158
 10
231.2179651883
 20
45.5900945265
 10
232.0159475428
 20
47.3391905271
 10
232.9114719169
 20
49.056073563
 10
233.8972134592
 20
50.7267005627
 10
234.9651093963
 20
52.3374068011
 10
236.106424981
 20
53.8750176688
 10
237.3118249376
 20
55.3269564328
 10
238.5714498186
 20
56.6813471066
 10
239.8749966494
 20
57.9271115879
 10
241.2118032001
 20
59.0540602721
 10
242.5709351964
 20
60.0529753958
 10
243.9412757551
 20
60.9156864336
 10
245.3116163137
 20
61.6351369276
 10
246.67074831
 20
62.2054422049
 10
248.0075548607
 20
62.6219375111
 10
249.3111016915
 20
62.8812161649
 10
250.5707265726
 20
62.9811574225
 10
250.7272444361
 20
62.9823909979
  0
LWPOLYLINE
  5
269
330
1F
100
AcDbEntity
  8
0
  6
Continuous
 62
     7
370
     0
100
AcDbPolyline
 90
       22
 70
   128
 43
0.0
 10
221.3565402857
 20
42.3686543904
 10
221.8353758765
 20
44.3173205266
 10
222.4372575928
 20
46.2831317203
 10
223.1577048406
 20
48.2514538637
 10
223.9913543871
 20
50.2076341566
 10
224.9320002869
 20
52.1371101865
 10
225.9726400802
 20
54.0255183359
 10
227.1055269218
 20
55.858800709
 10
228.322227251
 20
57.6233097838
 10
229.6136835735
 20
59.3059100077
 10
230.9702818879
 20
60.8940755831
 10
232.381923256
 20
62.3759837132
 10
233.8380989818
 20
63.7406026146
 10
235.327968842
 20
64.977773641
 10
236.8404417834
 20
66.0782869081
 10
238.3642584887
 20
67.0339498538
 10
239.8880751941
 20
67.837648227
 10
241.4005481355
 20
68.4833990478
 10
242.8904179957
 20
68.9663951471
 10
244.3465937215
 20
69.2830409522
 10
245.7582350896
 20
69.4309792534
 10
247.0964413814
 20
69.4105739974
  0
LWPOLYLINE
  5
26A
330
1F
100
AcDbEntity
  8
0
  6
Continuous
 62
     7
370
     0
100
AcDbPolyline
 90
       19
 70
   128
 43
0.0
 10
229.8630442446
 20
40.2355619254
 10
230.350288462
 20
42.0399148846
 10
230.9586857152
 20
43.8549468475
 10
231.6829086327
 20
45.6647646625
 10
232.5166156265
 20
47.4535208351
 10
233.4525064222
 20
49.2055522953
 10
234.4823859826
 20
50.9055175492
 10
235.5972362672
 20
52.5385310158
 10
236.7872951973
 20
54.0902933707
 10
238.0421421373
 20
55.5472167572
 10
239.3507891414
 20
56.8965437669
 10
240.7017771689
 20
58.1264591483
 10
242.083276424
 20
59.2261932666
 10
243.4831899422
 20
60.1861164066
 10
244.8892595165
 20
60.9978230941
 10
246.2891730347
 20
61.6542056983
 10
247.6706722898
 20
62.1495166684
 10
249.0216603173
 20
62.4794188618
 10
249.7947511785
 20
62.5946970636
  0
LINE
  5
26B
330
1F
100
AcDbEntity
  8
0
  6
Continuous
 62
     7
370
     0
100
AcDbLine
 10
229.7271148974
 20
29.7955424745
 30
0.0
 11
230.8866042777
 21
30.464901446
 31
0.0
  0
LINE
  5
26C
330
1F
100
AcDbEntity
  8
0
  6
Continuous
 62
     7
370
     0
100
AcDbLine
 10
231.2719363479
 20
30.2613581741
 30
0.0
 11
230.8866042777
 21
30.464901446
 31
0.0
  0
ARC
  5
26D
330
1F
100
AcDbEntity
  8
0
  6
Continuous
 62
     7
370
     0
100
AcDbCircle
 10
230.1614578168
 20
31.6408219993
 30
0.0
 40
1.381530505409297
100
AcDbArc
 50
301.6605905892
 51
324.2377952694
  0
LINE
  5
26E
330
1F
100
AcDbEntity
  8
0
  6
Continuous
 62
     7
370
     0
100
AcDbLine
 10
225.590930582
 20
35.1549777215
 30
0.0
 11
231.1659336492
 21
31.936596956
 31
0.0
  0
LINE
  5
26F
330
1F
100
AcDbEntity
  8
0
  6
Continuous
 62
     7
370
     0
100
AcDbLine
 10
225.5302704102
 20
35.1199479658
 30
0.0
 11
225.590930582
 21
35.1549777215
 31
0.0
  0
LINE
  5
270
330
1F
100
AcDbEntity
  8
0
  6
Continuous
 62
     7
370
     0
100
AcDbLine
 10
225.3092995411
 20
39.9003702862
 30
0.0
 11
225.3103405683
 21
40.0861220181
 31
0.0
  0
LWPOLYLINE
  5
271
330
1F
100
AcDbEntity
  8
0
  6
Continuous
 62
     7
370
     0
100
AcDbPolyline
 90
        3
 70
   128
 43
0.0
 10
225.4440797532
 20
37.8771663074
 10
225.3726523774
 20
38.4943997865
 10
225.3092995411
 20
39.9003702862
  0
LWPOLYLINE
  5
272
330
1F
100
AcDbEntity
  8
0
  6
Continuous
 62
     7
370
     0
100
AcDbPolyline
 90
       18
 70
   128
 43
0.0
 10
194.3760798574
 20
63.7159888774
 10
194.4402085938
 20
64.8592412884
 10
194.6314504243
 20
66.056133796
 10
194.9463926337
 20
67.2853078251
 10
195.379415071
 20
68.5248287362
 10
195.9227904405
 20
69.752577249
 10
196.5668221958
 20
70.9466441625
 10
197.300017575
 20
72.0857213241
 10
198.1092926892
 20
73.149481875
 10
198.9802060048
 20
74.1189429829
 10
199.897216053
 20
74.9768045913
 10
200.8439587679
 20
75.7077581397
 10
201.8035395033
 20
76.2987597445
 10
202.7588345181
 20
76.7392629682
 10
203.6927965503
 20
77.0214070202
 10
204.5887590252
 20
77.1401570333
 10
205.4307334712
 20
77.0933939107
 10
206.0938946346
 20
76.9236238752
  0
ARC
  5
273
330
1F
100
AcDbEntity
  8
0
  6
Continuous
 62
     7
370
     0
100
AcDbCircle
 10
199.762399839
 20
63.2700818347
 30
0.0
 40
5.404745695694947
100
AcDbArc
 50
175.2675545005
 51
224.8656241104
  0
LWPOLYLINE
  5
274
330
1F
100
AcDbEntity
  8
0
  6
Continuous
 62
     7
370
     0
100
AcDbPolyline
 90
        3
 70
   128
 43
0.0
 10
230.5359698639
 20
28.126212215
 10
230.350288462
 20
28.5044131022
 10
229.8630442446
 20
29.7462058625
  0
LWPOLYLINE
  5
275
330
1F
100
AcDbEntity
  8
0
  6
Continuous
 62
     7
370
     0
100
AcDbPolyline
 90
        3
 70
   128
 43
0.0
 10
230.4502829102
 20
27.6085720676
 10
229.9398833808
 20
28.5834721851
 10
229.470237869
 20
29.8006589496
  0
LINE
  5
276
330
1F
100
AcDbEntity
  8
0
  6
Continuous
 62
     7
370
     0
100
AcDbLine
 10
230.8866042777
 20
30.464901446
 30
0.0
 11
225.1767170196
 21
33.7611491975
 31
0.0
  0
ARC
  5
277
330
1F
100
AcDbEntity
  8
0
  6
Continuous
 62
     7
370
     0
100
AcDbCircle
 10
233.0250460352
 20
34.4272221014
 30
0.0
 40
12.09715026325523
100
AcDbArc
 50
195.2980304775
 51
214.568481162
  0
LWPOLYLINE
  5
278
330
1F
100
AcDbEntity
  8
0
  6
Continuous
 62
     7
370
     0
100
AcDbPolyline
 90
        8
 70
   128
 43
0.0
 10
272.6993796777
 20
33.1220305912
 10
272.8129929131
 20
32.9253509442
 10
273.1011417852
 20
32.2924809665
 10
273.2797670254
 20
31.6547443932
 10
273.3376449528
 20
31.0522125585
 10
273.2711388845
 20
30.5227447538
 10
273.0844276413
 20
30.0996093883
 10
273.0501119422
 20
30.0515708461
  0
LWPOLYLINE
  5
279
330
1F
100
AcDbEntity
  8
0
  6
Continuous
 62
     7
370
     0
100
AcDbPolyline
 90
       12
 70
   128
 43
0.0
 10
272.4675931059
 20
32.9434764805
 10
272.7705658994
 20
32.3375283908
 10
272.9678050243
 20
31.7023887791
 10
273.0359400264
 20
31.0996595988
 10
272.9699176445
 20
30.5740425158
 10
272.7746344565
 20
30.1645201446
 10
272.4645737232
 20
29.9014648861
 10
272.0627312306
 20
29.8043863454
 10
271.5989097982
 20
29.8804843938
 10
271.1075089398
 20
30.1241151871
 10
270.624973609
 20
30.5172097439
 10
270.3568816103
 20
30.8104427834
  0
OLE2FRAME
  5
27A
330
1F
100
AcDbEntity
  8
0
100
AcDbOle2Frame
 70
     2
  3
Paintbrush-Bild
 10
13.8511154363
 20
38.264191557
 30
0.0
 11
51.6290888628
 21
31.9806341108
 31
0.0
 71
     2
 72
     0
 73
     1
 90
    12928
310
80552BED0767C5B32B40DDAF6807D121434000000000000000006FFBDDFB85D0
310
4940DDAF6807D121434000000000000000006FFBDDFB85D04940416F4BD60AFB
310
3F4000000000000000002BED0767C5B32B40416F4BD60AFB3F40000000000000
310
0000000000000100000000010000010000000100000000000100000000320000
310
D0CF11E0A1B11AE1000000000000000000000000000000003E000300FEFF0900
310
0600000000000000000000000100000001000000000000000010000002000000
310
01000000FEFFFFFF0000000000000000FFFFFFFFFFFFFFFFFFFFFFFFFFFFFFFF
310
FFFFFFFFFFFFFFFFFFFFFFFFFFFFFFFFFFFFFFFFFFFFFFFFFFFFFFFFFFFFFFFF
310
FFFFFFFFFFFFFFFFFFFFFFFFFFFFFFFFFFFFFFFFFFFFFFFFFFFFFFFFFFFFFFFF
310
FFFFFFFFFFFFFFFFFFFFFFFFFFFFFFFFFFFFFFFFFFFFFFFFFFFFFFFFFFFFFFFF
310
FFFFFFFFFFFFFFFFFFFFFFFFFFFFFFFFFFFFFFFFFFFFFFFFFFFFFFFFFFFFFFFF
310
FFFFFFFFFFFFFFFFFFFFFFFFFFFFFFFFFFFFFFFFFFFFFFFFFFFFFFFFFFFFFFFF
310
FFFFFFFFFFFFFFFFFFFFFFFFFFFFFFFFFFFFFFFFFFFFFFFFFFFFFFFFFFFFFFFF
310
FFFFFFFFFFFFFFFFFFFFFFFFFFFFFFFFFFFFFFFFFFFFFFFFFFFFFFFFFFFFFFFF
310
FFFFFFFFFFFFFFFFFFFFFFFFFFFFFFFFFFFFFFFFFFFFFFFFFFFFFFFFFFFFFFFF
310
FFFFFFFFFFFFFFFFFFFFFFFFFFFFFFFFFFFFFFFFFFFFFFFFFFFFFFFFFFFFFFFF
310
FFFFFFFFFFFFFFFFFFFFFFFFFFFFFFFFFFFFFFFFFFFFFFFFFFFFFFFFFFFFFFFF
310
FFFFFFFFFFFFFFFFFFFFFFFFFFFFFFFFFFFFFFFFFFFFFFFFFFFFFFFFFFFFFFFF
310
FFFFFFFFFFFFFFFFFFFFFFFFFFFFFFFFFFFFFFFFFFFFFFFFFFFFFFFFFFFFFFFF
310
FFFFFFFFFFFFFFFFFFFFFFFFFFFFFFFFFFFFFFFFFFFFFFFFFFFFFFFFFFFFFFFF
310
FDFFFFFFFEFFFFFFFEFFFFFFFEFFFFFF05000000060000000700000008000000
310
090000000A0000000B0000000C0000000D0000000E0000000F00000010000000
310
11000000120000001300000014000000150000001600000017000000FEFFFFFF
310
FFFFFFFFFFFFFFFFFFFFFFFFFFFFFFFFFFFFFFFFFFFFFFFFFFFFFFFFFFFFFFFF
310
FFFFFFFFFFFFFFFFFFFFFFFFFFFFFFFFFFFFFFFFFFFFFFFFFFFFFFFFFFFFFFFF
310
FFFFFFFFFFFFFFFFFFFFFFFFFFFFFFFFFFFFFFFFFFFFFFFFFFFFFFFFFFFFFFFF
310
FFFFFFFFFFFFFFFFFFFFFFFFFFFFFFFFFFFFFFFFFFFFFFFFFFFFFFFFFFFFFFFF
310
FFFFFFFFFFFFFFFFFFFFFFFFFFFFFFFFFFFFFFFFFFFFFFFFFFFFFFFFFFFFFFFF
310
FFFFFFFFFFFFFFFFFFFFFFFFFFFFFFFFFFFFFFFFFFFFFFFFFFFFFFFFFFFFFFFF
310
FFFFFFFFFFFFFFFFFFFFFFFFFFFFFFFFFFFFFFFFFFFFFFFFFFFFFFFFFFFFFFFF
310
FFFFFFFFFFFFFFFFFFFFFFFFFFFFFFFFFFFFFFFFFFFFFFFFFFFFFFFFFFFFFFFF
310
FFFFFFFFFFFFFFFFFFFFFFFFFFFFFFFFFFFFFFFFFFFFFFFFFFFFFFFFFFFFFFFF
310
FFFFFFFFFFFFFFFFFFFFFFFFFFFFFFFFFFFFFFFFFFFFFFFFFFFFFFFFFFFFFFFF
310
FFFFFFFFFFFFFFFFFFFFFFFFFFFFFFFFFFFFFFFFFFFFFFFFFFFFFFFFFFFFFFFF
310
FFFFFFFFFFFFFFFFFFFFFFFFFFFFFFFFFFFFFFFFFFFFFFFFFFFFFFFFFFFFFFFF
310
FFFFFFFFFFFFFFFFFFFFFFFFFFFFFFFFFFFFFFFFFFFFFFFFFFFFFFFFFFFFFFFF
310
52006F006F007400200045006E00740072007900000000000000000000000000
310
0000000000000000000000000000000000000000000000000000000000000000
310
16000500FFFFFFFFFFFFFFFF020000000A00030000000000C000000000000046
310
000000000000000000000000B0E42D42E825D20103000000C000000000000000
310
01004F006C006500000000000000000000000000000000000000000000000000
310
0000000000000000000000000000000000000000000000000000000000000000
310
0A000200FFFFFFFFFFFFFFFFFFFFFFFF00000000000000000000000000000000
310
0000000000000000000000000000000000000000000000001400000000000000
310
010043006F006D0070004F0062006A0000000000000000000000000000000000
310
0000000000000000000000000000000000000000000000000000000000000000
310
120002010100000003000000FFFFFFFF00000000000000000000000000000000
310
0000000000000000000000000000000000000000010000004D00000000000000
310
01004F006C006500310030004E00610074006900760065000000000000000000
310
0000000000000000000000000000000000000000000000000000000000000000
310
1A000200FFFFFFFFFFFFFFFFFFFFFFFF00000000000000000000000000000000
310
0000000000000000000000000000000000000000040000002426000000000000
310
FEFFFFFF02000000FEFFFFFFFFFFFFFFFFFFFFFFFFFFFFFFFFFFFFFFFFFFFFFF
310
FFFFFFFFFFFFFFFFFFFFFFFFFFFFFFFFFFFFFFFFFFFFFFFFFFFFFFFFFFFFFFFF
310
FFFFFFFFFFFFFFFFFFFFFFFFFFFFFFFFFFFFFFFFFFFFFFFFFFFFFFFFFFFFFFFF
310
FFFFFFFFFFFFFFFFFFFFFFFFFFFFFFFFFFFFFFFFFFFFFFFFFFFFFFFFFFFFFFFF
310
FFFFFFFFFFFFFFFFFFFFFFFFFFFFFFFFFFFFFFFFFFFFFFFFFFFFFFFFFFFFFFFF
310
FFFFFFFFFFFFFFFFFFFFFFFFFFFFFFFFFFFFFFFFFFFFFFFFFFFFFFFFFFFFFFFF
310
FFFFFFFFFFFFFFFFFFFFFFFFFFFFFFFFFFFFFFFFFFFFFFFFFFFFFFFFFFFFFFFF
310
FFFFFFFFFFFFFFFFFFFFFFFFFFFFFFFFFFFFFFFFFFFFFFFFFFFFFFFFFFFFFFFF
310
FFFFFFFFFFFFFFFFFFFFFFFFFFFFFFFFFFFFFFFFFFFFFFFFFFFFFFFFFFFFFFFF
310
FFFFFFFFFFFFFFFFFFFFFFFFFFFFFFFFFFFFFFFFFFFFFFFFFFFFFFFFFFFFFFFF
310
FFFFFFFFFFFFFFFFFFFFFFFFFFFFFFFFFFFFFFFFFFFFFFFFFFFFFFFFFFFFFFFF
310
FFFFFFFFFFFFFFFFFFFFFFFFFFFFFFFFFFFFFFFFFFFFFFFFFFFFFFFFFFFFFFFF
310
FFFFFFFFFFFFFFFFFFFFFFFFFFFFFFFFFFFFFFFFFFFFFFFFFFFFFFFFFFFFFFFF
310
FFFFFFFFFFFFFFFFFFFFFFFFFFFFFFFFFFFFFFFFFFFFFFFFFFFFFFFFFFFFFFFF
310
FFFFFFFFFFFFFFFFFFFFFFFFFFFFFFFFFFFFFFFFFFFFFFFFFFFFFFFFFFFFFFFF
310
FFFFFFFFFFFFFFFFFFFFFFFFFFFFFFFFFFFFFFFFFFFFFFFFFFFFFFFFFFFFFFFF
310
0100000200000000000000000000000000000000000000000000000000000000
310
0000000000000000000000000000000000000000000000000000000000000000
310
0100FEFF030A0000FFFFFFFF0A00030000000000C00000000000004607000000
310
5042727573680007000000504272757368000700000050427275736800F439B2
310
7100000000000000000000000000000000000000000000000000000000000000
310
0000000000000000000000000000000000000000000000000000000000000000
310
0000000000000000000000000000000000000000000000000000000000000000
310
0000000000000000000000000000000000000000000000000000000000000000
310
0000000000000000000000000000000000000000000000000000000000000000
310
0000000000000000000000000000000000000000000000000000000000000000
310
0000000000000000000000000000000000000000000000000000000000000000
310
0000000000000000000000000000000000000000000000000000000000000000
310
0000000000000000000000000000000000000000000000000000000000000000
310
0000000000000000000000000000000000000000000000000000000000000000
310
0000000000000000000000000000000000000000000000000000000000000000
310
0000000000000000000000000000000000000000000000000000000000000000
310
20260000424D0E260000000000003E00000028000000B40200006E0000000100
310
01000000000000000000130B0000130B00000200000002000000000000FFFFFF
310
FFFFFFFFFFFFFFFFFFFFFFFFFFFFFFFFFFFFFFFFFFFFFFFFFFFFFFFFFFFFFFFF
310
FFFFFFFFFFFFFFFFFFFFFFFFFFFFFFFFFFFFFFFFFFFFFFFFFFFFFFFFFFFFFFFF
310
FFFFFFFFFFFFFFFFFFFFFFFFFFFFFFFFFFFFFFFFFFFFFFFFF000FFFFFFFFFFFF
310
FFFFFFFFFFFFFFFFFFFFFFFFFFFFFFFFFFFFFFFFFFFFFFFFFFFFFFFFFFFFFFFF
310
FFFFFFFFFFFFFFFFFFFFFFFFFFFFFFFFFFFFFFFFFFFFFFFFFFFFFFFFFFFFFFFF
310
FFFFFFFFFFFFFFFFFFFFFFFFFFFFFFFFF000FFFFFFFFFFFFFFFFFFFFFFFFFFFF
310
FFFFFFFFFFFFFFFFFFFFFFFFFFFFFFFFFFFFFFFFFFFFFFFFFFFFFFFFFFFFFFFF
310
FFFFFFFFFFFFFFFFFFFFFFFFFFFFFFFFFFFFFFFFFFFFFFFFFFFFFFFFFFFFFFFF
310
FFFFFFFFFFFFFFFFF000FFFFFFFFFFFFFFFFFFFFFFFFFFFFFFFFFFFFFFFFFFFF
310
FFFFFFFFFFFFFFFFFFFFFFFFFFFFFFFFFFFFFFFFFFFFFFFFFFFFFFFFFFFFFFFF
310
FFFFFFFFFFFFFFFFFFFFFFFFFFFFFFFFFFFFFFFFFFFFFFFFFFFFFFFFFFFFFFFF
310
F000FFFFFFFFFFFFFFFFFFFFFFFFFFFFFFFFFFFFFFFFFFFFFFFFFFFFFFFFFFFF
310
FFFFFFFFFFFFFFFFFFFFFFFFFFFFFFFFFFFFFFFFFFFFFFFFFFFFFFFFFFFFFFFF
310
FFFFFFFFFFFFFFFFFFFFFFFFFFFFFFFFFFFFFFFFFFFFFFFFF000FFFFFFFFFFFF
310
FFFFFFFFFFFFFFFFFFFFFFFFFFFFFFFFFFFFFFFFFFFFFFFFFFFFFFFFFFFFFFFF
310
FFFFFFFFFFFFFFFFFFFFFFFFFFFFFFFFFFFFFFFFFFFFFFFFFFFFFFFFFFFFFFFF
310
FFFFFFFFFFFFFFFFFFFFFFFFFFFFFFFFF000FFFFFFFFFFFFFFFFFFFFFFFFFFFF
310
FFFFFFFFFFFFFFFFFFFFFFFFFFFFFFFFFFFFFFFFFFFFFFFFFFFFFFFFFFFFFFFF
310
FFFFFFFFFFFFFFFFFFFFFFFFFFFFFFFFFFFFFFFFFFFFFFFFFFFFFFFFFFFFFFFF
310
FFFFFFFFFFFFFFFFF000FFFFFFFFFFFFFFFFFFFFFFFFFFFFFFFFFFFFFFFFFFFF
310
FFFFFFFFFFFFFFFFFFFFFFFFFFFFFFFFFFFFFFFFFFFFFFFFFFFFFFFFFFFFFFFF
310
FFFFFFFFFFFFFFFFFFFFFFFFFFFFFFFFFFFFFFFFFFFFFFFFFFFFFFFFFFFFFFFF
310
F000FFFFFFFFFFFFFFFFFFFFFFFFFFFFFFFFFFFFFFFFFFFFFFFFFFFFFFFFFFFF
310
FFFFFFFFFFFFFFFFFFFFFFFFFFFFFFFFFFFFFFFFFFFFFFFFFFFFFFFFFFFFFFFF
310
FFFFFFFFFFFFFFFFFFFFFFFFFFFFFFFFFFFFFFFFFFFFFFFFF000FFFFFFFFFFFF
310
FFFFFFFFFFFFFFFFFFFFFFFFFFFFFFFFFFFFFFFFFFFFFFFFFFFFFFFFFFFFFFFF
310
FFFFFFFFFFFFFFFFFFFFFFFFFFFFFFFFFFFFFFFFFFFFFFFFFFFFFFFFFFFFFFFF
310
FFFFFFFFFFFFFFFFFFFFFFFFFFFFFFFFF000FFFFFFFFFFFFFFFFFFFFFFFFFFFF
310
FFFFFFFFFFFFFFFFFFFFFFFFFFFFFFFFFFFFFFFFFFFFFFFFFFFFFFFFFFFFFFFF
310
FFFFFFFFFFFFFFFFFFFFFFFFFFFFFFFFFFFFFFFFFFFFFFFFFFFFFFFFFFFFFFFF
310
FFFFFFFFFFFFFFFFF000FFFFFFFFFFFFFFFFFFFFFFFFFFFFFFFFFFFFFFFFFFFF
310
FFFFFFFFFFFFFFFFFFFFFFFFFFFFFFFFFFFFFFFFFFFFFFFFFFFFFFFFFFFFFFFF
310
FFFFFFFFFFFFFFFFFFFFFFFFFFFFFFFFFFFFFFFFFFFFFFFFFFFFFFFFFFFFFFFF
310
F000FFFFFFFFFFFFFFFFFFFFFFFFFFFFFFFFFFFFFFFFFFFFFFFFFFFFFFFFFFFF
310
FFFFFFFFFFFFFFFFFFFFFFFFFFFFFFFFFFFFFFFFFFFFFFFFFFFFFFFFFFFFFFFF
310
FFFFFFFFFFFFFFFFFFFFFFFFFFFFFFFFFFFFFFFFFFFFFFFFF000FFFFFFFFFFFF
310
FFFFFFFFFFFFFFFFFFFFFFFFFFFFFFFFFFFFFFFFFFFFFFFFFFFFFFFFFFFFFFFF
310
FFFFFFFFFFFFFFFFFFFFFFFFFFFFFFFFFFFFFFFFFFFFFFFFFFFFFFFFFFFFFFFF
310
FFFFFFFFFFFFFFFFFFFFFFFFFFFFFFFFF000FFFFFFFFFFFFFFFFFFFFFFFFFFFF
310
FFFFFFFFFFFFFFFFFFFFFFFFFFFFFFFFFFFFFFFFFFFFFFFFFFFFFFFFFFFFFFFF
310
FFFFFFFFFFFFFFFFFFFFFFFFFFFFFFFFFFFFFFFFFFFFFFFFFFFFFFFFFFFFFFFF
310
FFFFFFFFFFFFFFFFF000FFFFFFFFFFFFFFFFFFFFFFFFFFFFFFFFFFFFFFFFFFFF
310
FFFFFFFFFFFFFFFFFFFFFFFFFFFFFFFFFFFFFFFFFFFFFFFFFFFFFFFFFFFFFFFF
310
FFFFFFFFFFFFFFFFFFFFFFFFFFFFFFFFFFFFFFFFFFFFFFFFFFFFFFFFFFFFFFFF
310
F000FFFFFFFFFFFFFFFFFFFFFFFFFFFFFFFFFFFFFFFFFFFFFFFFFFFFFFFFFFFF
310
FFFFFFFFFFFFFFFFFFFFFFFFFFFFFFFFFFFFFFFFFFFFFFFFFFFFFFFFFFFFFFFF
310
FFFFFFFFFFFFFFFFFFFFFFFFFFFFFFFFFFFFFFFFFFFFFFFFF000FFFFFFFFFFFF
310
FFFFFFFFFFFFFFFFFFFFFFFFFFFFFFFFFFFFFFFFFFFFFFFFFFFFFFFFFFFFFFFF
310
FFFFFFFFFFFFFFFFFFFFFFFFFFFFFFFFFFFFFFFFFFFFFFFFFFFFFFFFFFFFFFFF
310
FFFFFFFFFFFFFFFFFFFFFFFFFFFFFFFFF000FFFFFFFFFFFFFFFFFFFFFFFFFFFF
310
FFFFFFFFFFFFFFFFFFFFFFFFFFFFFFFFFFFFFFFFFFFFFFFFFFFFFFFFFFFFFFFF
310
FFFFFFFFFFFFFFFFFFFFFFFFFFFFFFFFFFFFFFFFFFFFFFFFFFFFFFFFFFFFFFFF
310
FFFFFFFFFFFFFFFFF000FFFFF80003FFFFFFFFFFFFFFFFFFFFFFFFFFFFFFFFFF
310
FFFFF00007FFFFFFFFFF00007FFFFFF800000000000000007FFFFFFFFFFFFFFF
310
FFFFFFFC001FFFFFFFFFFFFFFC001FFFFFFFFFFFFFFFFFFFFFFFFFFE0007FFFF
310
F000FFFF8000007FFFFFFFF8000FFFFFC0007FFFFF80007FFFFF0000007FFFFF
310
FFF8000007FFFFF800000000000000007FFFFFF0001FFFFFFFFFFFC00001FFFF
310
FFFFFFFFC00001FFFFFFFF000000000003FFFFE000007FFFF000FFFE0000000F
310
FFFFFFF0000FFFFF80007FFFFF80007FFFFC0000001FFFFFFFC0000001FFFFF8
310
00000000000000007FFFFFF0001FFFFFFFFFFE0000003FFFFFFFFFFE0000003F
310
FFFFFF000000000003FFFF0000000FFFF000FFF800000003FFFFFFF00007FFFF
310
80007FFFFF80007FFFF000000007FFFFFF000000003FFFF80000000000000000
310
7FFFFFF0001FFFFFFFFFF80000000FFFFFFFFFF80000000FFFFFFF0000000000
310
03FFFC00000003FFF000FFE000000000FFFFFFF00007FFFF80003FFFFF80007F
310
FFC000000001FFFFFC000000001FFFF800000000000000007FFFFFF0001FFFFF
310
FFFFE000000003FFFFFFFFE000000003FFFFFF000000000003FFF000000000FF
310
F000FF80000000007FFFFFF00007FFFF80003FFFFF80007FFF8000000000FFFF
310
F80000000007FFF800000000000000007FFFFFF0001FFFFFFFFFC000000001FF
310
FFFFFFC000000001FFFFFF000000000003FFC0000000007FF000FF0000000000
310
3FFFFFE00007FFFF00003FFFFF80007FFE00000000003FFFF00000000003FFF8
310
00000000000000007FFFFFF0001FFFFFFFFF8000000000FFFFFFFF8000000000
310
FFFFFF000000000003FF80000000003FF000FE00000000001FFFFFE00003FFFF
310
00003FFFFF80007FFC00000000001FFFE00000000001FFF8000001FFFE000000
310
7FFFFFF0001FFFFFFFFE00000000003FFFFFFE00000000003FFFFF0000000000
310
03FF00000000001FF000FC00000000000FFFFFE00003FFFF00001FFFFF80007F
310
F800000000001FFFC00000000000FFF8000001FFFE0000007FFFFFF0001FFFFF
310
FFFC00000000001FFFFFFC00000000001FFFFF000000000003FE00000000000F
310
F000F8000000000007FFFFE00003FFFF00001FFFFF80007FF800000000000FFF
310
800000000000FFF8000001FFFE0000007FFFFFF0001FFFFFFFF800000000000F
310
FFFFF800000000000FFFFF000000000003FC000000000007F000F80000000000
310
03FFFFC00003FFFE00001FFFFF80007FF0000000000007FF0000000000007FF8
310
000001FFFE0000007FFFFFF0001FFFFFFFF0000000000007FFFFF00000000000
310
07FFFF000000000003F8000000000003F000F0000000000003FFFFC00001FFFE
310
00001FFFFF80007FE0000000000007FE0000000000003FF8000001FFFE000000
310
7FFFFFF0001FFFFFFFF0000000000007FFFFF0000000000007FFFF0000000000
310
03F800001F800003F000E00001FFF00001FFFFC00001FFFE00000FFFFF80007F
310
E00001FFE00003FE00001FFF00003FF8000001FFFE0000007FFFFFF0001FFFFF
310
FFE000003E000003FFFFE000003E000003FFFF000000000003F00001FFF80001
310
F000E00007FFFC0001FFFFC00001FFFE00000FFFFF80007FC0000FFFFC0003FC
310
0000FFFFC0001FF8000001FFFE0000007FFFFFF0001FFFFFFFC00003FFE00001
310
FFFFC00003FFE00001FFFF0001FFFFFFFFF00007FFFE0001F000E0000FFFFF00
310
00FFFF800001FFFC00000FFFFF80007FC0001FFFFE0001FC0001FFFFE0001FF8
310
000001FFFE0000007FFFFFF0001FFFFFFF80000FFFF80000FFFF80000FFFF800
310
00FFFF0003FFFFFFFFE0000FFFFF8000F000C0003FFFFF8000FFFF800000FFFC
310
000007FFFF80007F80003FFFFF0001FC0003FFFFF0001FF8000001FFFE000000
310
7FFFFFF0001FFFFFFF80003FFFFE0000FFFF80003FFFFE0000FFFF0003FFFFFF
310
FFE0003FFFFF8000F000C0003FFFFF8000FFFF800000FFFC000007FFFF80007F
310
80007FFFFF8001F80007FFFFF8000FF8000001FFFE0000007FFFFFF0001FFFFF
310
FF00007FFFFF00007FFF00007FFFFF00007FFF0003FFFFFFFFE0003FFFFFC000
310
F000C0007FFFFFC000FFFF000000FFFC000007FFFF80007F8000FFFFFF8000F8
310
000FFFFFF8000FF8000001FFFE0000007FFFFFF0001FFFFFFF0000FFFFFF8000
310
7FFF0000FFFFFF80007FFF0003FFFFFFFFC0007FFFFFC00070008000FFFFFFC0
310
00FFFF000000FFF8000007FFFF80007F8000FFFFFF8000F8000FFFFFF8000FF8
310
000001FFFE0000007FFFFFF0001FFFFFFE0001FFFFFFC0003FFE0001FFFFFFC0
310
003FFF0003FFFFFFFFC0007FFFFFE00070008000FFFFFFC0007FFF0000007FF8
310
000003FFFF80007F0001FFFFFF8000F8000FFFFFF8000FF8000001FFFE000000
310
7FFFFFF0001FFFFFFE0001FFFFFFC0003FFE0001FFFFFFC0003FFF0003FFFFFF
310
FFC000FFFFFFE00070008000FFFFFFC0007FFF0000007FF8000003FFFF80007F
310
0001FFFFFF8000F8001FFFFFF8000FF8000001FFFE0000007FFFFFF0001FFFFF
310
FE0003FFFFFFE0003FFE0003FFFFFFE0003FFF0003FFFFFFFFC000FFFFFFE000
310
70008000FFFFFFC0007FFE0000007FF8000003FFFF80007F0001FFFFFF8000F0
310
001FFFFFF8000FF8000001FFFE0000007FFFFFF0001FFFFFFC0003FFFFFFE000
310
1FFC0003FFFFFFE0001FFF0003FFFFFFFFC000FFFFFFC00070008000FFFFFF80
310
007FFE0000007FF0000003FFFF80007F0001FFFFFF0000F0001FFFFFF8000FF8
310
000001FFFE0000007FFFFFF0001FFFFFFC0007FFFFFFF0001FFC0007FFFFFFF0
310
001FFF0003FFFFFFFFC000FFFFFFC00070008001FFFFFF0000FFFE0000003FF0
310
000001FFFF80007F0001FFFFFF0000F8001FFFFFF0000FF8000001FFFE000000
310
7FFFFFF0001FFFFFFC0007FFFFFFF0001FFC0007FFFFFFF0001FFF0003FFFFFF
310
FFC001FFFFFF80007000FFFFFFFFFE0000FFFE0008003FF0008001FFFF80007F
310
FFFFFFFFFC0000FFFFFFFFFFE0000FF8000001FFFE0000007FFFFFF0001FFFFF
310
F8000FFFFFFFF8000FF8000FFFFFFFF8000FFF0003FFFFFFFFFFFFFFFFFF0000
310
7000FFFFFFFFFC0000FFFC0008003FF0008001FFFF80007FFFFFFFFFF80001FF
310
FFFFFFFF80000FF8000001FFFE0000007FFFFFF0001FFFFFF8000FFFFFFFF800
310
0FF8000FFFFFFFF8000FFF0003FFFFFFFFFFFFFFFFFE0000F000FFFFFFFFE000
310
00FFFC000C003FE000C001FFFF80007FFFFFFFFFC00001FFFFFFFFFE00001FF8
310
000001FFFE0000007FFFFFF0001FFFFFF8000FFFFFFFF8000FF8000FFFFFFFF8
310
000FFF0003FFFFFFFFFFFFFFFFF00000F000FFFFFFFE000001FFFC000C001FE0
310
00C000FFFF80007FFFFFFFFE000001FFFFFFFFE000001FF80FFFFFFFFFFFFFC0
310
7FFFFFF0001FFFFFF8000FFFFFFFF8000FF8000FFFFFFFF8000FFF0003FFFFFF
310
FFFFFFFFFF800000F000FFFFFFC0000001FFFC001C001FE001C000FFFF80007F
310
FFFFFF80000003FFFFFFF80000001FF80FFFFFFFFFFFFFC07FFFFFF0001FFFFF
310
F8001FFFFFFFFC000FF8001FFFFFFFFC000FFF0003FFFFFFFFFFFFFFF0000001
310
F000FFFFF800000001FFF8001C001FE001C000FFFF80007FFFFFF800000003FF
310
FFFF800000003FF80FFFFFFFFFFFFFC07FFFFFF0001FFFFFF8001FFFFFFFFC00
310
0FF8001FFFFFFFFC000FFF0003FFFFFFFFFFFFFE00000001F000FFFFC0000000
310
03FFF8001E001FC001E000FFFF80007FFFFF8000000007FFFFFC000000003FF8
310
0FFFFFFFFFFFFFC07FFFFFF0001FFFFFF8001FFFFFFFFC000FF8001FFFFFFFFC
310
000FFF0003FFFFFFFFFFFFE000000003F000FFFE0000000007FFF8001E000FC0
310
01E0007FFF80007FFFFE0000000007FFFFE0000000007FF80FFFFFFFFFFFFFC0
310
7FFFFFF0001FFFFFF0001FFFFFFFFC0007F0001FFFFFFFFC0007FF0003FFFFFF
310
FFFFFF0000000003F000FFF80000000007FFF8001E000FC003E0007FFF80007F
310
FFF0000000000FFFFF8000000000FFF80FFFFFFFFFFFFFC07FFFFFF0001FFFFF
310
F0001FFFFFFFFC0007F0001FFFFFFFFC0007FF0003FFFFFFFFFFFC0000000007
310
F000FFE0000000000FFFF0003E000FC003E0007FFF80007FFFC0000000001FFF
310
FE0000000001FFF80FFFFFFFFFFFFFC07FFFFFF0001FFFFFF0001FFFFFFFFC00
310
07F0001FFFFFFFFC0007FF0003FFFFFFFFFFF0000000000FF000FFC000000000
310
1FFFF0003F000F8003F0003FFF80007FFF80000000003FFFF80000000003FFF8
310
0FFFFFFFFFFFFFC07FFFFFF0001FFFFFF0001FFFFFFFFC0007F0001FFFFFFFFC
310
0007FF0003FFFFFFFFFFE0000000001FF000FF00000000007FFFF0003F000780
310
03F0003FFF80007FFF00000000007FFFF00000000007FFF80FFFFFFFFFFFFFC0
310
7FFFFFF0001FFFFFF0001FFFFFFFFC0007F0001FFFFFFFFC0007FF0003FFFFFF
310
FFFF80000000007FF000FE0000000000FFFFE0003F00078007F0003FFF80007F
310
FE0000000001FFFFE0000000001FFFF80FFFFFFFFFFFFFC07FFFFFF0001FFFFF
310
F0001FFFFFFFFC0007F0001FFFFFFFFC0007FF0003FFFFFFFFFF0000000000FF
310
F000FC0000000003FFFFE0007F00078007F0003FFF80007FFC0000000007FFFF
310
C0000000007FFFF80FFFFFFFFFFFFFC07FFFFFF0001FFFFFF8001FFFFFFFFC00
310
0FF8001FFFFFFFFC000FFF0003FFFFFFFFFE0000000003FFF000FC000000000F
310
FFFFE0007F80070007F8001FFF80007FF8000000001FFFFF8000000001FFFFF8
310
0FFFFFFFFFFFFFC07FFFFFF0001FFFFFF8001FFFFFFFFC000FF8001FFFFFFFFC
310
000FFF0003FFFFFFFFFC000000000FFFF000F8000000007FFFFFE0007F800700
310
07F8001FFF80007FF000000000FFFFFF800000000FFFFFF80FFFFFFFFFFFFFC0
310
7FFFFFF0001FFFFFF8000FFFFFFFF8000FF8000FFFFFFFF8000FFF0003FFFFFF
310
FFFC000000007FFFF000F800000007FFFFFFC0007F8003000FF8001FFF80007F
310
F000000007FFFFFF000000007FFFFFF80FFFFFFFFFFFFFC07FFFFFF0001FFFFF
310
F8000FFFFFFFF8000FF8000FFFFFFFF8000FFF0003FFFFFFFFF80000000FFFFF
310
F000F0000000FFFFFFFFC000FF8003000FF8001FFF80007FE0000000FFFFFFFF
310
0000000FFFFFFFF8000001FFFE0000007FFFFFF0001FFFFFF8000FFFFFFFF800
310
0FF8000FFFFFFFF8000FFF0003FFFFFFFFF8000000FFFFFFF000F000000FFFFF
310
FFFFC000FFC002000FF8000FFF80007FE000001FFFFFFFFE000001FFFFFFFFF8
310
000001FFFE0000007FFFFFF0001FFFFFF8000FFFFFFFF8000FF8000FFFFFFFF8
310
000FFF0003FFFFFFFFF000001FFFFFFFF000E00000FFFFFFFFFFC000FFC00200
310
0FFC000FFF80007FE00001FFFFFFFFFE00001FFFFFFFFFF8000001FFFE000000
310
7FFFFFF0001FFFFFFC000FFFFFFFF8001FFC000FFFFFFFF8001FFF0003FFFFFF
310
FFF00001FFFFFFFFF000E00007FFFFFFFFFF8000FFC000001FFC000FFF80007F
310
C0000FFFFFFFFFFE0000FFFFFFFFFFF8000001FFFE0000007FFFFFF0001FFFFF
310
FC0007FFFFFFF0001FFC0007FFFFFFF0001FFF0003FFFFFFFFF00007FFFFFFFF
310
F000E0001FFFFFFFFFFF8000FFC000001FFC000FFF80007FC0003FFFFFFFFFFE
310
0001FFFFFFFFFFF8000001FFFE0000007FFFFFF0001FFFFFFC0007FFFFFFF000
310
1FFC0007FFFFFFF0001FFF0003FFFFFFFFF0001FFFFFFFFFF000E0003FFFFF00
310
03FF8001FFE000001FFC0007FF80007FC0007FFFFF0007FC0003FFFFF0003FF8
310
000001FFFE0000007FFFFFF0001FFFFFFC0003FFFFFFE0001FFC0003FFFFFFE0
310
001FFF0003FFFFFFFFF0003FFFFFFFFFF000E0003FFFFF0001FF8001FFE00000
310
1FFE0007FF80007FC0007FFFFE0003FC0007FFFFE0003FF8000001FFFE000000
310
7FFFFFF0001FFFFFFE0003FFFFFFE0003FFE0003FFFFFFE0003FFF0003FFFFFF
310
FFF0003FFFFF8001F000E0003FFFFF0001FF0001FFE000001FFE0007FF80007F
310
C0007FFFFE0003FC0007FFFFE0003FF8000001FFFE0000007FFFFFF0001FFFFF
310
FE0001FFFFFFC0003FFE0001FFFFFFC0003FFF0003FFFFFFFFF0003FFFFF0001
310
F000E0003FFFFF0003FF0001FFE000003FFE0007FF80007FC0007FFFFE0003FC
310
0007FFFFE0003FF8000001FFFE0000007FFFFFF0001FFFFFFF0001FFFFFFC000
310
7FFF0001FFFFFFC0007FFF0003FFFFFFFFF0003FFFFF0001F000E0003FFFFE00
310
03FF0003FFF000003FFE0003FF80007FC0007FFFFC0003FE0007FFFFE0003FF8
310
000001FFFE0000007FFFFFF0001FFFFFFF0000FFFFFF80007FFF0000FFFFFF80
310
007FFF0003FFFFFFFFF0003FFFFF0001F000E0003FFFFE0003FF0003FFF00000
310
3FFF0003FF80007FC0007FFFFC0007FE0007FFFFC0003FF8000001FFFE000000
310
7FFFFFF0001FFFFFFF80007FFFFF0000FFFF80007FFFFF0000FFFF0003FFFFFF
310
FFF0003FFFFF0003F000E0003FFFFC0003FE0003FFF000003FFF0003FF80007F
310
E0003FFFF80007FE0003FFFFC0007FF8000001FFFE0000007FFFFFF0001FFFFF
310
FF80003FFFFE0000FFFF80003FFFFE0000FFFF0003FFFFFFFFF0001FFFFE0003
310
F000F0001FFFF80003FE0003FFF000007FFF0001FF80007FE0003FFFF00007FE
310
0001FFFF80007FF8000001FFFE0000007FFFFFF0001FFFFFFFC0000FFFF80001
310
FFFFC0000FFFF80001FFFF0003FFFFFFFFF0001FFFFC0003F000F0000FFFF000
310
07FE0007FFF800007FFF0001FF80007FE0001FFFE00007FF0000FFFE00007FF8
310
000001FFFE0000007FFFFFF0001FFFFFFFC00003FFE00001FFFFC00003FFE000
310
01FFFF0003FFFFFFFFF8000FFFF80003F000F00003FFC00007FC0007FFF80000
310
7FFF8001FF80007FF00007FF80000FFF00007FF80000FFF8000001FFFE000000
310
7F80000000000001FFE000003E000003FFFFE000003E000003FFFF0003FFFFFF
310
FFF80003FFE00007F000F800000000000FFC0007FFF800007FFF8001FF80007F
310
F000000000000FFF000000000000FFF8000001FFFE0000007F80000000000001
310
FFF0000000000007FFFFF0000000000007FFFF0003FFFFFFFFFC00007E000007
310
F000F800000000000FFC0007FFF80000FFFF8000FF80007FF800000000001FFF
310
800000000001FFF8000001FFFE0000007F80000000000001FFF800000000000F
310
FFFFF800000000000FFFFF0003FFFFFFFFFC00000000000FF000FC0000000000
310
1FFC0007FFFC0000FFFF8000FF80007FF800000000003FFFC00000000001FFF8
310
000001FFFE0000007F80000000000001FFF800000000000FFFFFF80000000000
310
0FFFFF0003FFFFFFFFFE00000000001FF000FE00000000003FF8000FFFFC0000
310
FFFF8000FF80007FFC00000000003FFFC00000000003FFF8000001FFFE000000
310
7F80000000000001FFFC00000000001FFFFFFC00000000001FFFFF0003FFFFFF
310
FFFF00000000001FF000FF00000000003FF8000FFFFC0000FFFFC000FF80007F
310
FE00000000007FFFE00000000007FFF8000001FFFE0000007F80000000000001
310
FFFE00000000003FFFFFFE00000000003FFFFF0003FFFFFFFFFF80000000003F
310
F000FF80000000007FF8000FFFFC0001FFFFC0007F80007FFF0000000000FFFF
310
F0000000000FFFF800000000000000007F80000000000001FFFF8000000000FF
310
FFFFFF8000000000FFFFFF0003FFFFFFFFFFC0000000007FF000FFC000000000
310
FFF8000FFFFE0001FFFFC0007F80007FFF8000000001FFFFF8000000001FFFF8
310
00000000000000007F80000000000001FFFFC000000001FFFFFFFFC000000001
310
FFFFFF0003FFFFFFFFFFE000000000FFF000FFE000000003FFF0001FFFFE0001
310
FFFFC0007F80007FFFC000000007FFFFFE000000003FFFF80000000000000000
310
7F80000000000001FFFFE000000003FFFFFFFFE000000003FFFFFF0003FFFFFF
310
FFFFF000000003FFF000FFF80000000FFFF0001FFFFE0001FFFFE0007F80007F
310
FFF00000000FFFFFFF00000000FFFFF800000000000000007F80000000000001
310
FFFFF80000000FFFFFFFFFF80000000FFFFFFF0003FFFFFFFFFFFC0000000FFF
310
F000FFFE0000003FFFF0001FFFFE0003FFFFE0003F80007FFFFC0000003FFFFF
310
FFC0000003FFFFF800000000000000007F80000000000001FFFFFE0000003FFF
310
FFFFFFFE0000003FFFFFFF0003FFFFFFFFFFFF0000003FFFF000FFFF800000FF
310
FFF0001FFFFF0003FFFFE0003F80007FFFFF000001FFFFFFFFF800001FFFFFF8
310
00000000000000007F80000000000001FFFFFFC00001FFFFFFFFFFFFC00001FF
310
FFFFFF0003FFFFFFFFFFFFC00000FFFFF000FFFFF8000FFFFFFFFFFFFFFFFFFF
310
FFFFFFFFFFFFFFFFFFFFF0001FFFFFFFFFFF0000FFFFFFF80000000000000000
310
7FFFFFFFFFFFFFFFFFFFFFFC001FFFFFFFFFFFFFFC001FFFFFFFFFFFFFFFFFFF
310
FFFFFFFC001FFFFFF000FFFFFFFFFFFFFFFFFFFFFFFFFFFFFFFFFFFFFFFFFFFF
310
FFFFFFFFFFFFFFFFFFFFFFFFFFFFFFFFFFFFFFFFFFFFFFFFFFFFFFFFFFFFFFFF
310
FFFFFFFFFFFFFFFFFFFFFFFFFFFFFFFFFFFFFFFFFFFFFFFFFFFFFFFFFFFFFFFF
310
F000FFFFFFFFFFFFFFFFFFFFFFFFFFFFFFFFFFFFFFFFFFFFFFFFFFFFFFFFFFFF
310
FFFFFFFFFFFFFFFFFFFFFFFFFFFFFFFFFFFFFFFFFFFFFFFFFFFFFFFFFFFFFFFF
310
FFFFFFFFFFFFFFFFFFFFFFFFFFFFFFFFFFFFFFFFFFFFFFFFF000FFFFFFFFFFFF
310
FFFFFFFFFFFFFFFFFFFFFFFFFFFFFFFFFFFFFFFFFFFFFFFFFFFFFFFFFFFFFFFF
310
FFFFFFFFFFFFFFFFFFFFFFFFFFFFFFFFFFFFFFFFFFFFFFFFFFFFFFFFFFFFFFFF
310
FFFFFFFFFFFFFFFFFFFFFFFFFFFFFFFFF000FFFFFFFFFFFFFFFFFFFFFFFFFFFF
310
FFFFFFFFFFFFFFFFFFFFFFFFFFFFFFFFFFFFFFFFFFFFFFFFFFFFFFFFFFFFFFFF
310
FFFFFFFFFFFFFFFFFFFFFFFFFFFFFFFFFFFFFFFFFFFFFFFFFFFFFFFFFFFFFFFF
310
FFFFFFFFFFFFFFFFF000FFFFFFFFFFFFFFFFFFFFFFFFFFFFFFFFFFFFFFFFFFFF
310
FFFFFFFFFFFFFFFFFFFFFFFFFFFFFFFFFFFFFFFFFFFFFFFFFFFFFFFFFFFFFFFF
310
FFFFFFFFFFFFFFFFFFFFFFFFFFFFFFFFFFFFFFFFFFFFFFFFFFFFFFFFFFFFFFFF
310
F000FFFFFFFFFFFFFFFFFFFFFFFFFFFFFFFFFFFFFFFFFFFFFFFFFFFFFFFFFFFF
310
FFFFFFFFFFFFFFFFFFFFFFFFFFFFFFFFFFFFFFFFFFFFFFFFFFFFFFFFFFFFFFFF
310
FFFFFFFFFFFFFFFFFFFFFFFFFFFFFFFFFFFFFFFFFFFFFFFFF000FFFFFFFFFFFF
310
FFFFFFFFFFFFFFFFFFFFFFFFFFFFFFFFFFFFFFFFFFFFFFFFFFFFFFFFFFFFFFFF
310
FFFFFFFFFFFFFFFFFFFFFFFFFFFFFFFFFFFFFFFFFFFFFFFFFFFFFFFFFFFFFFFF
310
FFFFFFFFFFFFFFFFFFFFFFFFFFFFFFFFF000FFFFFFFFFFFFFFFFFFFFFFFFFFFF
310
FFFFFFFFFFFFFFFFFFFFFFFFFFFFFFFFFFFFFFFFFFFFFFFFFFFFFFFFFFFFFFFF
310
FFFFFFFFFFFFFFFFFFFFFFFFFFFFFFFFFFFFFFFFFFFFFFFFFFFFFFFFFFFFFFFF
310
FFFFFFFFFFFFFFFFF000FFFFFFFFFFFFFFFFFFFFFFFFFFFFFFFFFFFFFFFFFFFF
310
FFFFFFFFFFFFFFFFFFFFFFFFFFFFFFFFFFFFFFFFFFFFFFFFFFFFFFFFFFFFFFFF
310
FFFFFFFFFFFFFFFFFFFFFFFFFFFFFFFFFFFFFFFFFFFFFFFFFFFFFFFFFFFFFFFF
310
F000FFFFFFFFFFFFFFFFFFFFFFFFFFFFFFFFFFFFFFFFFFFFFFFFFFFFFFFFFFFF
310
FFFFFFFFFFFFFFFFFFFFFFFFFFFFFFFFFFFFFFFFFFFFFFFFFFFFFFFFFFFFFFFF
310
FFFFFFFFFFFFFFFFFFFFFFFFFFFFFFFFFFFFFFFFFFFFFFFFF000FFFFFFFFFFFF
310
FFFFFFFFFFFFFFFFFFFFFFFFFFFFFFFFFFFFFFFFFFFFFFFFFFFFFFFFFFFFFFFF
310
FFFFFFFFFFFFFFFFFFFFFFFFFFFFFFFFFFFFFFFFFFFFFFFFFFFFFFFFFFFFFFFF
310
FFFFFFFFFFFFFFFFFFFFFFFFFFFFFFFFF000FFFFFFFFFFFFFFFFFFFFFFFFFFFF
310
FFFFFFFFFFFFFFFFFFFFFFFFFFFFFFFFFFFFFFFFFFFFFFFFFFFFFFFFFFFFFFFF
310
FFFFFFFFFFFFFFFFFFFFFFFFFFFFFFFFFFFFFFFFFFFFFFFFFFFFFFFFFFFFFFFF
310
FFFFFFFFFFFFFFFFF000FFFFFFFFFFFFFFFFFFFFFFFFFFFFFFFFFFFFFFFFFFFF
310
FFFFFFFFFFFFFFFFFFFFFFFFFFFFFFFFFFFFFFFFFFFFFFFFFFFFFFFFFFFFFFFF
310
FFFFFFFFFFFFFFFFFFFFFFFFFFFFFFFFFFFFFFFFFFFFFFFFFFFFFFFFFFFFFFFF
310
F000FFFFFFFFFFFFFFFFFFFFFFFFFFFFFFFFFFFFFFFFFFFFFFFFFFFFFFFFFFFF
310
FFFFFFFFFFFFFFFFFFFFFFFFFFFFFFFFFFFFFFFFFFFFFFFFFFFFFFFFFFFFFFFF
310
FFFFFFFFFFFFFFFFFFFFFFFFFFFFFFFFFFFFFFFFFFFFFFFFF000FFFFFFFFFFFF
310
FFFFFFFFFFFFFFFFFFFFFFFFFFFFFFFFFFFFFFFFFFFFFFFFFFFFFFFFFFFFFFFF
310
FFFFFFFFFFFFFFFFFFFFFFFFFFFFFFFFFFFFFFFFFFFFFFFFFFFFFFFFFFFFFFFF
310
FFFFFFFFFFFFFFFFFFFFFFFFFFFFFFFFF000FFFFFFFFFFFFFFFFFFFFFFFFFFFF
310
FFFFFFFFFFFFFFFFFFFFFFFFFFFFFFFFFFFFFFFFFFFFFFFFFFFFFFFFFFFFFFFF
310
FFFFFFFFFFFFFFFFFFFFFFFFFFFFFFFFFFFFFFFFFFFFFFFFFFFFFFFFFFFFFFFF
310
FFFFFFFFFFFFFFFFF000FFFFFFFFFFFFFFFFFFFFFFFFFFFFFFFFFFFFFFFFFFFF
310
FFFFFFFFFFFFFFFFFFFFFFFFFFFFFFFFFFFFFFFFFFFFFFFFFFFFFFFFFFFFFFFF
310
FFFFFFFFFFFFFFFFFFFFFFFFFFFFFFFFFFFFFFFFFFFFFFFFFFFFFFFFFFFFFFFF
310
F000FFFFFFFFFFFFFFFFFFFFFFFFFFFFFFFFFFFFFFFFFFFFFFFFFFFFFFFFFFFF
310
FFFFFFFFFFFFFFFFFFFFFFFFFFFFFFFFFFFFFFFFFFFFFFFFFFFFFFFFFFFFFFFF
310
FFFFFFFFFFFFFFFFFFFFFFFFFFFFFFFFFFFFFFFFFFFFFFFFF000FFFFFFFFFFFF
310
FFFFFFFFFFFFFFFFFFFFFFFFFFFFFFFFFFFFFFFFFFFFFFFFFFFFFFFFFFFFFFFF
310
FFFFFFFFFFFFFFFFFFFFFFFFFFFFFFFFFFFFFFFFFFFFFFFFFFFFFFFFFFFFFFFF
310
FFFFFFFFFFFFFFFFFFFFFFFFFFFFFFFFF000FFFFFFFFFFFFFFFFFFFFFFFFFFFF
310
FFFFFFFFFFFFFFFFFFFFFFFFFFFFFFFFFFFFFFFFFFFFFFFFFFFFFFFFFFFFFFFF
310
FFFFFFFFFFFFFFFFFFFFFFFFFFFFFFFFFFFFFFFFFFFFFFFFFFFFFFFFFFFFFFFF
310
FFFFFFFFFFFFFFFFF000FFFFFFFFFFFFFFFFFFFFFFFFFFFFFFFFFFFFFFFFFFFF
310
FFFFFFFFFFFFFFFFFFFFFFFFFFFFFFFFFFFFFFFFFFFFFFFFFFFFFFFFFFFFFFFF
310
FFFFFFFFFFFFFFFFFFFFFFFFFFFFFFFFFFFFFFFFFFFFFFFFFFFFFFFFFFFFFFFF
310
F000FFFFFFFFFFFFFFFFFFFFFFFFFFFFFFFFFFFFFFFFFFFFFFFFFFFFFFFFFFFF
310
FFFFFFFFFFFFFFFFFFFFFFFFFFFFFFFFFFFFFFFFFFFFFFFFFFFFFFFFFFFFFFFF
310
FFFFFFFFFFFFFFFFFFFFFFFFFFFFFFFFFFFFFFFFFFFFFFFFF000FFFFFFFFFFFF
310
FFFFFFFFFFFFFFFFFFFFFFFFFFFFFFFFFFFFFFFFFFFFFFFFFFFFFFFFFFFFFFFF
310
FFFFFFFFFFFFFFFFFFFFFFFFFFFFFFFFFFFFFFFFFFFFFFFFFFFFFFFFFFFFFFFF
310
FFFFFFFFFFFFFFFFFFFFFFFFFFFFFFFFF0000000000000000000000000000000
310
0000000000000000000000000000000000000000000000000000000000000000
310
0000000000000000000000000000000000000000000000000000000000000000
310
0000000000000000000000000000000000000000000000000000000000000000
310
0000000000000000000000000000000000000000000000000000000000000000
310
0000000000000000000000000000000000000000000000000000000000000000
310
0000000000000000000000000000000000000000000000000000000000000000
310
0000000000000000000000000000000000000000000000000000000000000000
310
0000000000000000000000000000000000000000000000000000000000000000
310
0000000000000000000000000000000000000000000000000000000000000000
310
0000000000000000000000000000000000000000000000000000000000000000
310
0000000000000000000000000000000000000000000000000000000000000000
310
0000000000000000000000000000000000000000000000000000000000000000
310
0000000000000000000000000000000000000000000000000000000000000000
310
0000000000000000000000000000000000000000000000000000000000000000
310
0000000000000000000000000000000000000000000000000000000000000000
  1
OLE
  0
ENDSEC
  0
SECTION
  2
OBJECTS
  0
DICTIONARY
  5
C
330
0
100
AcDbDictionary
281
     1
  3
ACAD_GROUP
350
D
  3
ACAD_LAYOUT
350
1A
  3
ACAD_MLINESTYLE
350
17
  3
ACAD_PLOTSETTINGS
350
19
  3
ACAD_PLOTSTYLENAME
350
E
  3
ACAD_SCALELIST
350
47
  0
DICTIONARY
  5
D
102
{ACAD_REACTORS
330
C
102
}
330
C
100
AcDbDictionary
281
     1
  0
DICTIONARY
  5
1A
102
{ACAD_REACTORS
330
C
102
}
330
C
100
AcDbDictionary
281
     1
  3
Layout1
350
1E
  3
Layout2
350
26
  3
Model
350
22
  0
DICTIONARY
  5
17
102
{ACAD_REACTORS
330
C
102
}
330
C
100
AcDbDictionary
281
     1
  3
Standard
350
18
  0
DICTIONARY
  5
19
102
{ACAD_REACTORS
330
C
102
}
330
C
100
AcDbDictionary
281
     1
  0
ACDBDICTIONARYWDFLT
  5
E
102
{ACAD_REACTORS
330
C
102
}
330
C
100
AcDbDictionary
281
     1
  3
Normal
350
F
100
AcDbDictionaryWithDefault
340
F
  0
DICTIONARY
  5
47
102
{ACAD_REACTORS
330
C
102
}
330
C
100
AcDbDictionary
281
     1
  3
A0
350
48
  3
A1
350
49
  3
A2
350
4A
  3
A3
350
4B
  3
A4
350
4C
  3
A5
350
4D
  3
A6
350
4E
  3
A7
350
4F
  3
A8
350
50
  3
A9
350
51
  3
B0
350
52
  3
B1
350
53
  3
B2
350
54
  3
B3
350
55
  3
B4
350
56
  3
B5
350
57
  3
B6
350
58
  3
B7
350
59
  3
B8
350
5A
  3
B9
350
5B
  3
C0
350
5C
  3
C1
350
5D
  3
C2
350
5E
  3
C3
350
5F
  3
C4
350
60
  3
C5
350
61
  3
C6
350
62
  3
C7
350
63
  3
C8
350
64
  3
C9
350
65
  3
D0
350
66
  3
D1
350
67
  3
D2
350
68
  0
LAYOUT
  5
1E
102
{ACAD_REACTORS
330
1A
102
}
330
1A
100
AcDbPlotSettings
  1

  2
none_device
  4

  6

 40
0.0
 41
0.0
 42
0.0
 43
0.0
 44
0.0
 45
0.0
 46
0.0
 47
0.0
 48
0.0
 49
0.0
140
0.0
141
0.0
142
1.0
143
1.0
 70
   688
 72
     1
 73
     0
 74
     5
  7

 75
    16
147
1.0
148
0.0
149
0.0
100
AcDbLayout
  1
Layout1
 70
     1
 71
     1
 10
0.0
 20
0.0
 11
420.0
 21
297.0
 12
0.0
 22
0.0
 32
0.0
 14
1.0000000000E+20
 24
1.0000000000E+20
 34
1.0000000000E+20
 15
-1.0000000000E+20
 25
-1.0000000000E+20
 35
-1.0000000000E+20
146
0.0
 13
0.0
 23
0.0
 33
0.0
 16
1.0
 26
0.0
 36
0.0
 17
0.0
 27
1.0
 37
0.0
 76
     0
330
1B
  0
LAYOUT
  5
26
102
{ACAD_REACTORS
330
1A
102
}
330
1A
100
AcDbPlotSettings
  1

  2
none_device
  4

  6

 40
0.0
 41
0.0
 42
0.0
 43
0.0
 44
0.0
 45
0.0
 46
0.0
 47
0.0
 48
0.0
 49
0.0
140
0.0
141
0.0
142
1.0
143
1.0
 70
   688
 72
     1
 73
     0
 74
     5
  7

 75
    16
147
1.0
148
0.0
149
0.0
100
AcDbLayout
  1
Layout2
 70
     1
 71
     2
 10
0.0
 20
0.0
 11
0.0
 21
0.0
 12
0.0
 22
0.0
 32
0.0
 14
0.0
 24
0.0
 34
0.0
 15
0.0
 25
0.0
 35
0.0
146
0.0
 13
0.0
 23
0.0
 33
0.0
 16
1.0
 26
0.0
 36
0.0
 17
0.0
 27
1.0
 37
0.0
 76
     0
330
23
  0
LAYOUT
  5
22
102
{ACAD_REACTORS
330
1A
102
}
330
1A
100
AcDbPlotSettings
  1

  2
none_device
  4
Letter_(8.50_x_11.00_Inches)
  6

 40
6.35
 41
6.35
 42
6.35000508
 43
6.35000508
 44
215.9
 45
279.4
 46
0.0
 47
0.0
 48
0.0
 49
0.0
140
0.0
141
0.0
142
1.0
143
1.0
 70
  1712
 72
     1
 73
     0
 74
     0
  7

 75
     0
147
1.0
148
0.0
149
0.0
100
AcDbLayout
  1
Model
 70
     1
 71
     0
 10
0.0
 20
0.0
 11
297.0
 21
210.0
 12
0.0
 22
0.0
 32
0.0
 14
0.0
 24
0.0
 34
0.0
 15
297.0
 25
210.0
 35
0.0
146
0.0
 13
0.0
 23
0.0
 33
0.0
 16
1.0
 26
0.0
 36
0.0
 17
0.0
 27
1.0
 37
0.0
 76
     0
330
1F
331
29
  0
MLINESTYLE
  5
18
102
{ACAD_REACTORS
330
17
102
}
330
17
100
AcDbMlineStyle
  2
Standard
 70
     0
  3

 62
   256
 51
90.0
 52
90.0
 71
     2
 49
0.5
 62
   256
  6
BYLAYER
 49
-0.5
 62
   256
  6
BYLAYER
  0
ACDBPLACEHOLDER
  5
F
102
{ACAD_REACTORS
330
E
102
}
330
E
  0
SCALE
  5
48
102
{ACAD_REACTORS
330
47
102
}
330
47
100
AcDbScale
 70
     0
300
1:1
140
1.0
141
1.0
290
     1
  0
SCALE
  5
49
102
{ACAD_REACTORS
330
47
102
}
330
47
100
AcDbScale
 70
     0
300
1:2
140
1.0
141
2.0
290
     0
  0
SCALE
  5
4A
102
{ACAD_REACTORS
330
47
102
}
330
47
100
AcDbScale
 70
     0
300
1:4
140
1.0
141
4.0
290
     0
  0
SCALE
  5
4B
102
{ACAD_REACTORS
330
47
102
}
330
47
100
AcDbScale
 70
     0
300
1:5
140
1.0
141
5.0
290
     0
  0
SCALE
  5
4C
102
{ACAD_REACTORS
330
47
102
}
330
47
100
AcDbScale
 70
     0
300
1:8
140
1.0
141
8.0
290
     0
  0
SCALE
  5
4D
102
{ACAD_REACTORS
330
47
102
}
330
47
100
AcDbScale
 70
     0
300
1:10
140
1.0
141
10.0
290
     0
  0
SCALE
  5
4E
102
{ACAD_REACTORS
330
47
102
}
330
47
100
AcDbScale
 70
     0
300
1:16
140
1.0
141
16.0
290
     0
  0
SCALE
  5
4F
102
{ACAD_REACTORS
330
47
102
}
330
47
100
AcDbScale
 70
     0
300
1:20
140
1.0
141
20.0
290
     0
  0
SCALE
  5
50
102
{ACAD_REACTORS
330
47
102
}
330
47
100
AcDbScale
 70
     0
300
1:30
140
1.0
141
30.0
290
     0
  0
SCALE
  5
51
102
{ACAD_REACTORS
330
47
102
}
330
47
100
AcDbScale
 70
     0
300
1:40
140
1.0
141
40.0
290
     0
  0
SCALE
  5
52
102
{ACAD_REACTORS
330
47
102
}
330
47
100
AcDbScale
 70
     0
300
1:50
140
1.0
141
50.0
290
     0
  0
SCALE
  5
53
102
{ACAD_REACTORS
330
47
102
}
330
47
100
AcDbScale
 70
     0
300
1:100
140
1.0
141
100.0
290
     0
  0
SCALE
  5
54
102
{ACAD_REACTORS
330
47
102
}
330
47
100
AcDbScale
 70
     0
300
2:1
140
2.0
141
1.0
290
     0
  0
SCALE
  5
55
102
{ACAD_REACTORS
330
47
102
}
330
47
100
AcDbScale
 70
     0
300
4:1
140
4.0
141
1.0
290
     0
  0
SCALE
  5
56
102
{ACAD_REACTORS
330
47
102
}
330
47
100
AcDbScale
 70
     0
300
8:1
140
8.0
141
1.0
290
     0
  0
SCALE
  5
57
102
{ACAD_REACTORS
330
47
102
}
330
47
100
AcDbScale
 70
     0
300
10:1
140
10.0
141
1.0
290
     0
  0
SCALE
  5
58
102
{ACAD_REACTORS
330
47
102
}
330
47
100
AcDbScale
 70
     0
300
100:1
140
100.0
141
1.0
290
     0
  0
SCALE
  5
59
102
{ACAD_REACTORS
330
47
102
}
330
47
100
AcDbScale
 70
     0
300
1/128" = 1'-0"
140
0.0078125
141
12.0
290
     0
  0
SCALE
  5
5A
102
{ACAD_REACTORS
330
47
102
}
330
47
100
AcDbScale
 70
     0
300
1/64" = 1'-0"
140
0.015625
141
12.0
290
     0
  0
SCALE
  5
5B
102
{ACAD_REACTORS
330
47
102
}
330
47
100
AcDbScale
 70
     0
300
1/32" = 1'-0"
140
0.03125
141
12.0
290
     0
  0
SCALE
  5
5C
102
{ACAD_REACTORS
330
47
102
}
330
47
100
AcDbScale
 70
     0
300
1/16" = 1'-0"
140
0.0625
141
12.0
290
     0
  0
SCALE
  5
5D
102
{ACAD_REACTORS
330
47
102
}
330
47
100
AcDbScale
 70
     0
300
3/32" = 1'-0"
140
0.09375
141
12.0
290
     0
  0
SCALE
  5
5E
102
{ACAD_REACTORS
330
47
102
}
330
47
100
AcDbScale
 70
     0
300
1/8" = 1'-0"
140
0.125
141
12.0
290
     0
  0
SCALE
  5
5F
102
{ACAD_REACTORS
330
47
102
}
330
47
100
AcDbScale
 70
     0
300
3/16" = 1'-0"
140
0.1875
141
12.0
290
     0
  0
SCALE
  5
60
102
{ACAD_REACTORS
330
47
102
}
330
47
100
AcDbScale
 70
     0
300
1/4" = 1'-0"
140
0.25
141
12.0
290
     0
  0
SCALE
  5
61
102
{ACAD_REACTORS
330
47
102
}
330
47
100
AcDbScale
 70
     0
300
3/8" = 1'-0"
140
0.375
141
12.0
290
     0
  0
SCALE
  5
62
102
{ACAD_REACTORS
330
47
102
}
330
47
100
AcDbScale
 70
     0
300
1/2" = 1'-0"
140
0.5
141
12.0
290
     0
  0
SCALE
  5
63
102
{ACAD_REACTORS
330
47
102
}
330
47
100
AcDbScale
 70
     0
300
3/4" = 1'-0"
140
0.75
141
12.0
290
     0
  0
SCALE
  5
64
102
{ACAD_REACTORS
330
47
102
}
330
47
100
AcDbScale
 70
     0
300
1" = 1'-0"
140
1.0
141
12.0
290
     0
  0
SCALE
  5
65
102
{ACAD_REACTORS
330
47
102
}
330
47
100
AcDbScale
 70
     0
300
1-1/2" = 1'-0"
140
1.5
141
12.0
290
     0
  0
SCALE
  5
66
102
{ACAD_REACTORS
330
47
102
}
330
47
100
AcDbScale
 70
     0
300
3" = 1'-0"
140
3.0
141
12.0
290
     0
  0
SCALE
  5
67
102
{ACAD_REACTORS
330
47
102
}
330
47
100
AcDbScale
 70
     0
300
6" = 1'-0"
140
6.0
141
12.0
290
     0
  0
SCALE
  5
68
102
{ACAD_REACTORS
330
47
102
}
330
47
100
AcDbScale
 70
     0
300
1'-0" = 1'-0"
140
12.0
141
12.0
290
     0
  0
ENDSEC
  0
EOF
