  0
SECTION
  2
HEADER
  9
$ACADVER
  1
AC1015
  9
$ACADMAINTVER
 70
     6
  9
$DWGCODEPAGE
  3
ANSI_1252
  9
$INSBASE
 10
0.0
 20
0.0
 30
0.0
  9
$EXTMIN
 10
0.0
 20
0.0
 30
0.0
  9
$EXTMAX
 10
297.0
 20
210.0
 30
0.0
  9
$LIMMIN
 10
0.0
 20
0.0
  9
$LIMMAX
 10
297.0
 20
210.0
  9
$ORTHOMODE
 70
     0
  9
$REGENMODE
 70
     1
  9
$FILLMODE
 70
     1
  9
$QTEXTMODE
 70
     0
  9
$MIRRTEXT
 70
     1
  9
$LTSCALE
 40
1.0
  9
$ATTMODE
 70
     1
  9
$TEXTSIZE
 40
2.0
  9
$TRACEWID
 40
1.0
  9
$TEXTSTYLE
  7
Standard
  9
$CLAYER
  8
0
  9
$CELTYPE
  6
ByLayer
  9
$CECOLOR
 62
   256
  9
$CELTSCALE
 40
1.0
  9
$DISPSILH
 70
     0
  9
$DIMSCALE
 40
1.0
  9
$DIMASZ
 40
3.0
  9
$DIMEXO
 40
0.0
  9
$DIMDLI
 40
3.75
  9
$DIMRND
 40
0.0
  9
$DIMDLE
 40
0.0
  9
$DIMEXE
 40
1.0
  9
$DIMTP
 40
0.0
  9
$DIMTM
 40
0.0
  9
$DIMTXT
 40
2.0
  9
$DIMCEN
 40
2.5
  9
$DIMTSZ
 40
0.0
  9
$DIMTOL
 70
     0
  9
$DIMLIM
 70
     0
  9
$DIMTIH
 70
     1
  9
$DIMTOH
 70
     1
  9
$DIMSE1
 70
     0
  9
$DIMSE2
 70
     0
  9
$DIMTAD
 70
     1
  9
$DIMZIN
 70
     0
  9
$DIMBLK
  1

  9
$DIMASO
 70
     1
  9
$DIMSHO
 70
     1
  9
$DIMPOST
  1

  9
$DIMAPOST
  1

  9
$DIMALT
 70
     0
  9
$DIMALTD
 70
     3
  9
$DIMALTF
 40
0.0393700787
  9
$DIMLFAC
 40
2.0
  9
$DIMTOFL
 70
     1
  9
$DIMTVP
 40
0.0
  9
$DIMTIX
 70
     0
  9
$DIMSOXD
 70
     0
  9
$DIMSAH
 70
     0
  9
$DIMBLK1
  1

  9
$DIMBLK2
  1

  9
$DIMSTYLE
  2
ISO-25
  9
$DIMCLRD
 70
     0
  9
$DIMCLRE
 70
     0
  9
$DIMCLRT
 70
     0
  9
$DIMTFAC
 40
1.0
  9
$DIMGAP
 40
1.524
  9
$DIMJUST
 70
     0
  9
$DIMSD1
 70
     0
  9
$DIMSD2
 70
     0
  9
$DIMTOLJ
 70
     0
  9
$DIMTZIN
 70
     0
  9
$DIMALTZ
 70
     0
  9
$DIMALTTZ
 70
     0
  9
$DIMUPT
 70
     0
  9
$DIMDEC
 70
     2
  9
$DIMTDEC
 70
     3
  9
$DIMALTU
 70
     2
  9
$DIMALTTD
 70
     3
  9
$DIMTXSTY
  7
Standard
  9
$DIMAUNIT
 70
     0
  9
$DIMADEC
 70
     2
  9
$DIMALTRND
 40
0.0
  9
$DIMAZIN
 70
     0
  9
$DIMDSEP
 70
    44
  9
$DIMATFIT
 70
     3
  9
$DIMFRAC
 70
     0
  9
$DIMLDRBLK
  1

  9
$DIMLUNIT
 70
     2
  9
$DIMLWD
 70
    -2
  9
$DIMLWE
 70
    -2
  9
$DIMTMOVE
 70
     0
  9
$LUNITS
 70
     2
  9
$LUPREC
 70
     2
  9
$SKETCHINC
 40
1.0
  9
$FILLETRAD
 40
10.0
  9
$AUNITS
 70
     0
  9
$AUPREC
 70
     2
  9
$MENU
  1
.
  9
$ELEVATION
 40
0.0
  9
$PELEVATION
 40
0.0
  9
$THICKNESS
 40
0.0
  9
$LIMCHECK
 70
     0
  9
$CHAMFERA
 40
0.0
  9
$CHAMFERB
 40
0.0
  9
$CHAMFERC
 40
0.0
  9
$CHAMFERD
 40
0.0
  9
$SKPOLY
 70
     0
  9
$TDCREATE
 40
2457676.385352951
  9
$TDUCREATE
 40
2457676.302019618
  9
$TDUPDATE
 40
2457676.385354398
  9
$TDUUPDATE
 40
2457676.302021065
  9
$TDINDWG
 40
0.0000000116
  9
$TDUSRTIMER
 40
0.0000000116
  9
$USRTIMER
 70
     1
  9
$ANGBASE
 50
0.0
  9
$ANGDIR
 70
     0
  9
$PDMODE
 70
     0
  9
$PDSIZE
 40
-1.0
  9
$PLINEWID
 40
0.0
  9
$SPLFRAME
 70
     0
  9
$SPLINETYPE
 70
     6
  9
$SPLINESEGS
 70
     8
  9
$HANDSEED
  5
276
  9
$SURFTAB1
 70
     6
  9
$SURFTAB2
 70
     6
  9
$SURFTYPE
 70
     6
  9
$SURFU
 70
     6
  9
$SURFV
 70
     6
  9
$UCSBASE
  2

  9
$UCSNAME
  2

  9
$UCSORG
 10
0.0
 20
0.0
 30
0.0
  9
$UCSXDIR
 10
1.0
 20
0.0
 30
0.0
  9
$UCSYDIR
 10
0.0
 20
1.0
 30
0.0
  9
$UCSORTHOREF
  2

  9
$UCSORTHOVIEW
 70
     0
  9
$UCSORGTOP
 10
0.0
 20
0.0
 30
0.0
  9
$UCSORGBOTTOM
 10
0.0
 20
0.0
 30
0.0
  9
$UCSORGLEFT
 10
0.0
 20
0.0
 30
0.0
  9
$UCSORGRIGHT
 10
0.0
 20
0.0
 30
0.0
  9
$UCSORGFRONT
 10
0.0
 20
0.0
 30
0.0
  9
$UCSORGBACK
 10
0.0
 20
0.0
 30
0.0
  9
$PUCSBASE
  2

  9
$PUCSNAME
  2

  9
$PUCSORG
 10
0.0
 20
0.0
 30
0.0
  9
$PUCSXDIR
 10
1.0
 20
0.0
 30
0.0
  9
$PUCSYDIR
 10
0.0
 20
1.0
 30
0.0
  9
$PUCSORTHOREF
  2

  9
$PUCSORTHOVIEW
 70
     0
  9
$PUCSORGTOP
 10
0.0
 20
0.0
 30
0.0
  9
$PUCSORGBOTTOM
 10
0.0
 20
0.0
 30
0.0
  9
$PUCSORGLEFT
 10
0.0
 20
0.0
 30
0.0
  9
$PUCSORGRIGHT
 10
0.0
 20
0.0
 30
0.0
  9
$PUCSORGFRONT
 10
0.0
 20
0.0
 30
0.0
  9
$PUCSORGBACK
 10
0.0
 20
0.0
 30
0.0
  9
$USERI1
 70
     0
  9
$USERI2
 70
     0
  9
$USERI3
 70
     0
  9
$USERI4
 70
     0
  9
$USERI5
 70
     0
  9
$USERR1
 40
0.0
  9
$USERR2
 40
0.0
  9
$USERR3
 40
0.0
  9
$USERR4
 40
0.0
  9
$USERR5
 40
0.0
  9
$WORLDVIEW
 70
     1
  9
$SHADEDGE
 70
     3
  9
$SHADEDIF
 70
    70
  9
$TILEMODE
 70
     1
  9
$MAXACTVP
 70
    64
  9
$PINSBASE
 10
0.0
 20
0.0
 30
0.0
  9
$PLIMCHECK
 70
     0
  9
$PEXTMIN
 10
1.0000000000E+20
 20
1.0000000000E+20
 30
1.0000000000E+20
  9
$PEXTMAX
 10
-1.0000000000E+20
 20
-1.0000000000E+20
 30
-1.0000000000E+20
  9
$PLIMMIN
 10
0.0
 20
0.0
  9
$PLIMMAX
 10
420.0
 20
297.0
  9
$UNITMODE
 70
     0
  9
$VISRETAIN
 70
     1
  9
$PLINEGEN
 70
     0
  9
$PSLTSCALE
 70
     1
  9
$TREEDEPTH
 70
  3020
  9
$CMLSTYLE
  2
Standard
  9
$CMLJUST
 70
     0
  9
$CMLSCALE
 40
20.0
  9
$PROXYGRAPHICS
 70
     1
  9
$MEASUREMENT
 70
     1
  9
$CELWEIGHT
370
    -1
  9
$ENDCAPS
280
     0
  9
$JOINSTYLE
280
     0
  9
$LWDISPLAY
290
     1
  9
$INSUNITS
 70
     4
  9
$HYPERLINKBASE
  1

  9
$STYLESHEET
  1

  9
$XEDIT
290
     1
  9
$CEPSNTYPE
380
     0
  9
$PSTYLEMODE
290
     1
  9
$FINGERPRINTGUID
  2
{472C0AAC-ED11-49AB-A60D-E28E06899CDA}
  9
$VERSIONGUID
  2
{FAEB1C32-E019-11D5-929B-00C0DF256EC4}
  9
$EXTNAMES
290
     1
  9
$PSVPSCALE
 40
0.0
  9
$OLESTARTUP
290
     0
  0
ENDSEC
  0
SECTION
  2
CLASSES
  0
CLASS
  1
ACDBDICTIONARYWDFLT
  2
AcDbDictionaryWithDefault
  3
ObjectDBX Classes
 90
        0
280
     0
281
     0
  0
CLASS
  1
VISUALSTYLE
  2
AcDbVisualStyle
  3
ObjectDBX Classes
 90
     4095
280
     0
281
     0
  0
CLASS
  1
MATERIAL
  2
AcDbMaterial
  3
ObjectDBX Classes
 90
     1153
280
     0
281
     0
  0
CLASS
  1
SCALE
  2
AcDbScale
  3
ObjectDBX Classes
 90
     1153
280
     0
281
     0
  0
CLASS
  1
TABLESTYLE
  2
AcDbTableStyle
  3
ObjectDBX Classes
 90
     4095
280
     0
281
     0
  0
CLASS
  1
MLEADERSTYLE
  2
AcDbMLeaderStyle
  3
ACDB_MLEADERSTYLE_CLASS
 90
     4095
280
     0
281
     0
  0
CLASS
  1
SUN
  2
AcDbSun
  3
SCENEOE
 90
     1153
280
     0
281
     0
  0
CLASS
  1
ACDBPLACEHOLDER
  2
AcDbPlaceHolder
  3
ObjectDBX Classes
 90
        0
280
     0
281
     0
  0
CLASS
  1
LAYOUT
  2
AcDbLayout
  3
ObjectDBX Classes
 90
        0
280
     0
281
     0
  0
ENDSEC
  0
SECTION
  2
TABLES
  0
TABLE
  2
VPORT
  5
8
330
0
100
AcDbSymbolTable
 70
     1
  0
VPORT
  5
29
330
8
100
AcDbSymbolTableRecord
100
AcDbViewportTableRecord
  2
*Active
 70
     0
 10
0.0
 20
0.0
 11
1.0
 21
1.0
 12
148.5
 22
105.0
 13
0.0
 23
0.0
 14
10.0
 24
10.0
 15
10.0
 25
10.0
 16
0.0
 26
0.0
 36
1.0
 17
0.0
 27
0.0
 37
0.0
 40
210.0
 41
1.4142857143
 42
50.0
 43
0.0
 44
0.0
 50
0.0
 51
0.0
 71
     0
 72
  2000
 73
     1
 74
     3
 75
     0
 76
     0
 77
     0
 78
     0
281
     0
 65
     1
110
0.0
120
0.0
130
0.0
111
1.0
121
0.0
131
0.0
112
0.0
122
1.0
132
0.0
 79
     0
146
0.0
  0
ENDTAB
  0
TABLE
  2
LTYPE
  5
5
330
0
100
AcDbSymbolTable
 70
     6
  0
LTYPE
  5
14
330
5
100
AcDbSymbolTableRecord
100
AcDbLinetypeTableRecord
  2
ByBlock
 70
     0
  3

 72
    65
 73
     0
 40
0.0
  0
LTYPE
  5
15
330
5
100
AcDbSymbolTableRecord
100
AcDbLinetypeTableRecord
  2
ByLayer
 70
     0
  3

 72
    65
 73
     0
 40
0.0
  0
LTYPE
  5
16
330
5
100
AcDbSymbolTableRecord
100
AcDbLinetypeTableRecord
  2
Continuous
 70
     0
  3
Solid line
 72
    65
 73
     0
 40
0.0
  0
LTYPE
  5
6E
330
5
100
AcDbSymbolTableRecord
100
AcDbLinetypeTableRecord
  2
HIDDEN
 70
     0
  3
Hidden __ __ __ __ __ __ __ __ __ __ __ __ __ __
 72
    65
 73
     2
 40
1.905
 49
1.27
 74
     0
 49
-0.635
 74
     0
  0
LTYPE
  5
6F
330
5
100
AcDbSymbolTableRecord
100
AcDbLinetypeTableRecord
  2
PHANTOM
 70
     0
  3
Phantom ______  __  __  ______  __  __  ______
 72
    65
 73
     6
 40
12.7
 49
6.35
 74
     0
 49
-1.27
 74
     0
 49
1.27
 74
     0
 49
-1.27
 74
     0
 49
1.27
 74
     0
 49
-1.27
 74
     0
  0
LTYPE
  5
70
330
5
100
AcDbSymbolTableRecord
100
AcDbLinetypeTableRecord
  2
CENTER
 70
     0
  3
Center ____ _ ____ _ ____ _ ____ _ ____ _ ____
 72
    65
 73
     4
 40
10.16
 49
6.35
 74
     0
 49
-1.27
 74
     0
 49
1.27
 74
     0
 49
-1.27
 74
     0
  0
LTYPE
  5
71
330
5
100
AcDbSymbolTableRecord
100
AcDbLinetypeTableRecord
  2
CENTERX2
 70
     0
  3
Center (2x) ________  __  ________  __  _____
 72
    65
 73
     4
 40
20.32
 49
12.7
 74
     0
 49
-2.54
 74
     0
 49
2.54
 74
     0
 49
-2.54
 74
     0
  0
LTYPE
  5
72
330
5
100
AcDbSymbolTableRecord
100
AcDbLinetypeTableRecord
  2
DOT2
 70
     0
  3
Dot (.5x) ........................................
 72
    65
 73
     2
 40
0.635
 49
0.0
 74
     0
 49
-0.635
 74
     0
  0
ENDTAB
  0
TABLE
  2
LAYER
  5
2
330
0
100
AcDbSymbolTable
 70
     5
  0
LAYER
  5
10
330
2
100
AcDbSymbolTableRecord
100
AcDbLayerTableRecord
  2
0
 70
     0
 62
     7
  6
Continuous
370
    -3
390
F
  0
LAYER
  5
73
330
2
100
AcDbSymbolTableRecord
100
AcDbLayerTableRecord
  2
FORMAT
 70
     0
 62
     7
  6
Continuous
370
    -3
390
F
  0
LAYER
  5
74
330
2
100
AcDbSymbolTableRecord
100
AcDbLayerTableRecord
  2
VERMASSUNG
 70
     0
 62
     7
  6
Continuous
370
    -3
390
F
  0
LAYER
  5
75
330
2
100
AcDbSymbolTableRecord
100
AcDbLayerTableRecord
  2
KOPF_DÜNN
 70
     0
 62
     7
  6
Continuous
370
    -3
390
F
  0
LAYER
  5
76
330
2
100
AcDbSymbolTableRecord
100
AcDbLayerTableRecord
  2
KOPF_DICK
 70
     0
 62
     7
  6
Continuous
370
    15
390
F
  0
ENDTAB
  0
TABLE
  2
STYLE
  5
3
330
0
100
AcDbSymbolTable
 70
     2
  0
STYLE
  5
11
330
3
100
AcDbSymbolTableRecord
100
AcDbTextStyleTableRecord
  2
Standard
 70
     0
 40
0.0
 41
1.0
 50
0.0
 71
     0
 42
2.0
  3
txt
  4

  0
STYLE
  5
77
330
3
100
AcDbSymbolTableRecord
100
AcDbTextStyleTableRecord
  2
SLDTEXTSTYLE0
 70
     0
 40
0.0
 41
0.7
 50
0.0
 71
     0
 42
2.0
  3
TXT
  4

  0
ENDTAB
  0
TABLE
  2
VIEW
  5
6
330
0
100
AcDbSymbolTable
 70
     0
  0
ENDTAB
  0
TABLE
  2
UCS
  5
7
330
0
100
AcDbSymbolTable
 70
     0
  0
ENDTAB
  0
TABLE
  2
APPID
  5
9
330
0
100
AcDbSymbolTable
 70
     1
  0
APPID
  5
12
330
9
100
AcDbSymbolTableRecord
100
AcDbRegAppTableRecord
  2
ACAD
 70
     0
  0
ENDTAB
  0
TABLE
  2
DIMSTYLE
  5
A
330
0
100
AcDbSymbolTable
 70
     2
100
AcDbDimStyleTable
  0
DIMSTYLE
105
27
330
A
100
AcDbSymbolTableRecord
100
AcDbDimStyleTableRecord
  2
ISO-25
 70
     0
 41
2.5
 42
0.625
 43
3.75
 44
1.25
 73
     0
 74
     0
 77
     1
 78
     8
140
2.5
141
2.5
143
0.0393700787
147
0.625
171
     3
172
     1
178
     0
271
     2
272
     2
274
     3
278
    44
283
     0
284
     8
340
11
  0
DIMSTYLE
105
1BC
102
{ACAD_REACTORS
330
1BB
330
1C8
330
1D2
330
1DC
330
1E6
330
1F2
102
}
330
A
100
AcDbSymbolTableRecord
100
AcDbDimStyleTableRecord
  2
SLDDIMSTYLE0
 70
     0
 41
3.0
 44
0.0
 45
0.000000001
 73
     0
 74
     0
 77
     1
 78
    12
 79
     3
140
2.0
147
0.5
173
     1
178
     0
271
     2
272
     3
276
     2
284
    12
340
77
  0
ENDTAB
  0
TABLE
  2
BLOCK_RECORD
  5
1
330
0
100
AcDbSymbolTable
 70
     7
  0
BLOCK_RECORD
  5
1F
330
1
100
AcDbSymbolTableRecord
100
AcDbBlockTableRecord
  2
*Model_Space
340
22
  0
BLOCK_RECORD
  5
1B
330
1
100
AcDbSymbolTableRecord
100
AcDbBlockTableRecord
  2
*Paper_Space
340
1E
  0
BLOCK_RECORD
  5
23
330
1
100
AcDbSymbolTableRecord
100
AcDbBlockTableRecord
  2
*Paper_Space0
340
26
  0
BLOCK_RECORD
  5
1BD
330
1
100
AcDbSymbolTableRecord
100
AcDbBlockTableRecord
  2
_D
340
0
  0
BLOCK_RECORD
  5
1C9
330
1
100
AcDbSymbolTableRecord
100
AcDbBlockTableRecord
  2
_D_1
340
0
  0
BLOCK_RECORD
  5
1D3
330
1
100
AcDbSymbolTableRecord
100
AcDbBlockTableRecord
  2
_D_2
340
0
  0
BLOCK_RECORD
  5
1DD
330
1
100
AcDbSymbolTableRecord
100
AcDbBlockTableRecord
  2
_D_3
340
0
  0
BLOCK_RECORD
  5
1E7
330
1
100
AcDbSymbolTableRecord
100
AcDbBlockTableRecord
  2
_D_4
340
0
  0
BLOCK_RECORD
  5
1F3
330
1
100
AcDbSymbolTableRecord
100
AcDbBlockTableRecord
  2
_D_5
340
0
  0
ENDTAB
  0
ENDSEC
  0
SECTION
  2
BLOCKS
  0
BLOCK
  5
20
330
1F
100
AcDbEntity
  8
0
100
AcDbBlockBegin
  2
*Model_Space
 70
     0
 10
0.0
 20
0.0
 30
0.0
  3
*Model_Space
  1

  0
ENDBLK
  5
21
330
1F
100
AcDbEntity
  8
0
100
AcDbBlockEnd
  0
BLOCK
  5
1C
330
1B
100
AcDbEntity
 67
     1
  8
0
100
AcDbBlockBegin
  2
*Paper_Space
 70
     0
 10
0.0
 20
0.0
 30
0.0
  3
*Paper_Space
  1

  0
ENDBLK
  5
1D
330
1B
100
AcDbEntity
 67
     1
  8
0
100
AcDbBlockEnd
  0
BLOCK
  5
24
330
23
100
AcDbEntity
  8
0
100
AcDbBlockBegin
  2
*Paper_Space0
 70
     0
 10
0.0
 20
0.0
 30
0.0
  3
*Paper_Space0
  1

  0
ENDBLK
  5
25
330
23
100
AcDbEntity
  8
0
100
AcDbBlockEnd
  0
BLOCK
  5
1BE
330
1BD
100
AcDbEntity
  8
0
100
AcDbBlockBegin
  2
_D
 70
     0
 10
0.0
 20
0.0
 30
0.0
  3
_D
  1

  0
SOLID
  5
1C0
330
1BD
100
AcDbEntity
  8
VERMASSUNG
100
AcDbTrace
 10
55.4204439562
 20
65.3868534483
 30
0.0
 11
55.8704439562
 21
68.3868534483
 31
0.0
 12
54.9704439562
 22
68.3868534483
 32
0.0
 13
54.9704439562
 23
68.3868534483
 33
0.0
  0
SOLID
  5
1C1
330
1BD
100
AcDbEntity
  8
VERMASSUNG
100
AcDbTrace
 10
55.4204439562
 20
165.3868534483
 30
0.0
 11
54.9704439562
 21
162.3868534483
 31
0.0
 12
55.8704439562
 22
162.3868534483
 32
0.0
 13
55.8704439562
 23
162.3868534483
 33
0.0
  0
LINE
  5
1C2
330
1BD
100
AcDbEntity
  8
VERMASSUNG
100
AcDbLine
 10
199.6298491379
 20
65.3868534483
 30
0.0
 11
54.4204439562
 21
65.3868534483
 31
0.0
  0
LINE
  5
1C3
330
1BD
100
AcDbEntity
  8
VERMASSUNG
100
AcDbLine
 10
199.6298491379
 20
165.3868534483
 30
0.0
 11
54.4204439562
 21
165.3868534483
 31
0.0
  0
LINE
  5
1C4
330
1BD
100
AcDbEntity
  8
VERMASSUNG
100
AcDbLine
 10
55.4204439562
 20
65.3868534483
 30
0.0
 11
55.4204439562
 21
165.3868534483
 31
0.0
  0
MTEXT
  5
1C5
330
1BD
100
AcDbEntity
  8
VERMASSUNG
100
AcDbMText
 10
52.6423087
 20
104.1827154462
 30
0.0
 40
2.0
 41
0.0
 71
     1
 72
     1
  1
MAS-BT 50
  7
SLDTEXTSTYLE0
 11
3.391901413832837E-15
 21
1.0
 31
0.0
 73
     1
 44
1.0
  0
MTEXT
  5
1C6
330
1BD
100
AcDbEntity
  8
VERMASSUNG
100
AcDbMText
 10
52.8423086513
 20
119.1827151109
 30
0.0
 40
2.0
 41
0.0
 71
     1
 72
     1
  1
%%c
  7
SLDTEXTSTYLE0
 11
3.391901413832837E-15
 21
1.0
 31
0.0
 73
     1
 44
1.0
  0
MTEXT
  5
1C7
330
1BD
100
AcDbEntity
  8
VERMASSUNG
100
AcDbMText
 10
52.8423083602
 20
122.7923055595
 30
0.0
 40
2.0
 41
0.0
 71
     1
 72
     1
  1
100
  7
SLDTEXTSTYLE0
 11
3.391901413832837E-15
 21
1.0
 31
0.0
 73
     1
 44
1.0
  0
ENDBLK
  5
1BF
330
1BD
100
AcDbEntity
  8
0
100
AcDbBlockEnd
  0
BLOCK
  5
1CA
330
1C9
100
AcDbEntity
  8
0
100
AcDbBlockBegin
  2
_D_1
 70
     0
 10
0.0
 20
0.0
 30
0.0
  3
_D_1
  1

  0
SOLID
  5
1CC
330
1C9
100
AcDbEntity
  8
VERMASSUNG
100
AcDbTrace
 10
60.8298491379
 20
183.1187677144
 30
0.0
 11
63.8298491379
 21
182.6687677144
 31
0.0
 12
63.8298491379
 22
183.5687677144
 32
0.0
 13
63.8298491379
 23
183.5687677144
 33
0.0
  0
SOLID
  5
1CD
330
1C9
100
AcDbEntity
  8
VERMASSUNG
100
AcDbTrace
 10
227.6298491379
 20
183.1187677144
 30
0.0
 11
224.6298491379
 21
183.5687677144
 31
0.0
 12
224.6298491379
 22
182.6687677144
 32
0.0
 13
224.6298491379
 23
182.6687677144
 33
0.0
  0
LINE
  5
1CE
330
1C9
100
AcDbEntity
  8
VERMASSUNG
100
AcDbLine
 10
60.8298491379
 20
133.736531309
 30
0.0
 11
60.8298491379
 21
184.1187677144
 31
0.0
  0
LINE
  5
1CF
330
1C9
100
AcDbEntity
  8
VERMASSUNG
100
AcDbLine
 10
227.6298491379
 20
134.9868534483
 30
0.0
 11
227.6298491379
 21
184.1187677144
 31
0.0
  0
LINE
  5
1D0
330
1C9
100
AcDbEntity
  8
VERMASSUNG
100
AcDbLine
 10
60.8298491379
 20
183.1187677144
 30
0.0
 11
227.6298491379
 21
183.1187677144
 31
0.0
  0
MTEXT
  5
1D1
330
1C9
100
AcDbEntity
  8
VERMASSUNG
100
AcDbMText
 10
141.3298491748
 20
185.6969033104
 30
0.0
 40
2.0
 41
0.0
 71
     1
 72
     1
  1
166.8
  7
SLDTEXTSTYLE0
 73
     1
 44
1.0
  0
ENDBLK
  5
1CB
330
1C9
100
AcDbEntity
  8
0
100
AcDbBlockEnd
  0
BLOCK
  5
1D4
330
1D3
100
AcDbEntity
  8
0
100
AcDbBlockBegin
  2
_D_2
 70
     0
 10
0.0
 20
0.0
 30
0.0
  3
_D_2
  1

  0
SOLID
  5
1D6
330
1D3
100
AcDbEntity
  8
VERMASSUNG
100
AcDbTrace
 10
162.6298491379
 20
177.1520014458
 30
0.0
 11
165.6298491379
 21
176.7020014458
 31
0.0
 12
165.6298491379
 22
177.6020014458
 32
0.0
 13
165.6298491379
 23
177.6020014458
 33
0.0
  0
SOLID
  5
1D7
330
1D3
100
AcDbEntity
  8
VERMASSUNG
100
AcDbTrace
 10
227.6298491379
 20
177.1520014458
 30
0.0
 11
224.6298491379
 21
177.6020014458
 31
0.0
 12
224.6298491379
 22
176.7020014458
 32
0.0
 13
224.6298491379
 23
176.7020014458
 33
0.0
  0
LINE
  5
1D8
330
1D3
100
AcDbEntity
  8
VERMASSUNG
100
AcDbLine
 10
162.6298491379
 20
150.3118534483
 30
0.0
 11
162.6298491379
 21
178.1520014458
 31
0.0
  0
LINE
  5
1D9
330
1D3
100
AcDbEntity
  8
VERMASSUNG
100
AcDbLine
 10
227.6298491379
 20
134.9868534483
 30
0.0
 11
227.6298491379
 21
178.1520014458
 31
0.0
  0
LINE
  5
1DA
330
1D3
100
AcDbEntity
  8
VERMASSUNG
100
AcDbLine
 10
162.6298491379
 20
177.1520014458
 30
0.0
 11
227.6298491379
 21
177.1520014458
 31
0.0
  0
MTEXT
  5
1DB
330
1D3
100
AcDbEntity
  8
VERMASSUNG
100
AcDbMText
 10
193.7298491878
 20
179.7301370418
 30
0.0
 40
2.0
 41
0.0
 71
     1
 72
     1
  1
65
  7
SLDTEXTSTYLE0
 73
     1
 44
1.0
  0
ENDBLK
  5
1D5
330
1D3
100
AcDbEntity
  8
0
100
AcDbBlockEnd
  0
BLOCK
  5
1DE
330
1DD
100
AcDbEntity
  8
0
100
AcDbBlockBegin
  2
_D_3
 70
     0
 10
0.0
 20
0.0
 30
0.0
  3
_D_3
  1

  0
SOLID
  5
1E0
330
1DD
100
AcDbEntity
  8
VERMASSUNG
100
AcDbTrace
 10
200.6298491379
 20
170.8941734081
 30
0.0
 11
203.6298491379
 21
170.4441734081
 31
0.0
 12
203.6298491379
 22
171.3441734081
 32
0.0
 13
203.6298491379
 23
171.3441734081
 33
0.0
  0
SOLID
  5
1E1
330
1DD
100
AcDbEntity
  8
VERMASSUNG
100
AcDbTrace
 10
227.6298491379
 20
170.8941734081
 30
0.0
 11
224.6298491379
 21
171.3441734081
 31
0.0
 12
224.6298491379
 22
170.4441734081
 32
0.0
 13
224.6298491379
 23
170.4441734081
 33
0.0
  0
LINE
  5
1E2
330
1DD
100
AcDbEntity
  8
VERMASSUNG
100
AcDbLine
 10
200.6298491379
 20
164.3868534483
 30
0.0
 11
200.6298491379
 21
171.8941734081
 31
0.0
  0
LINE
  5
1E3
330
1DD
100
AcDbEntity
  8
VERMASSUNG
100
AcDbLine
 10
227.6298491379
 20
134.9868534483
 30
0.0
 11
227.6298491379
 21
171.8941734081
 31
0.0
  0
LINE
  5
1E4
330
1DD
100
AcDbEntity
  8
VERMASSUNG
100
AcDbLine
 10
200.6298491379
 20
170.8941734081
 30
0.0
 11
227.6298491379
 21
170.8941734081
 31
0.0
  0
MTEXT
  5
1E5
330
1DD
100
AcDbEntity
  8
VERMASSUNG
100
AcDbMText
 10
212.7298491878
 20
173.472309004
 30
0.0
 40
2.0
 41
0.0
 71
     1
 72
     1
  1
27
  7
SLDTEXTSTYLE0
 73
     1
 44
1.0
  0
ENDBLK
  5
1DF
330
1DD
100
AcDbEntity
  8
0
100
AcDbBlockEnd
  0
BLOCK
  5
1E8
330
1E7
100
AcDbEntity
  8
0
100
AcDbBlockBegin
  2
_D_4
 70
     0
 10
0.0
 20
0.0
 30
0.0
  3
_D_4
  1

  0
SOLID
  5
1EA
330
1E7
100
AcDbEntity
  8
VERMASSUNG
100
AcDbTrace
 10
242.7574392809
 20
135.3868534483
 30
0.0
 11
242.3074392809
 21
132.3868534483
 31
0.0
 12
243.2074392809
 22
132.3868534483
 32
0.0
 13
243.2074392809
 23
132.3868534483
 33
0.0
  0
SOLID
  5
1EB
330
1E7
100
AcDbEntity
  8
VERMASSUNG
100
AcDbTrace
 10
242.7574392809
 20
95.3868534483
 30
0.0
 11
243.2074392809
 21
98.3868534483
 31
0.0
 12
242.3074392809
 22
98.3868534483
 32
0.0
 13
242.3074392809
 23
98.3868534483
 33
0.0
  0
LINE
  5
1EC
330
1E7
100
AcDbEntity
  8
VERMASSUNG
100
AcDbLine
 10
227.2298491379
 20
135.3868534483
 30
0.0
 11
243.7574392809
 21
135.3868534483
 31
0.0
  0
LINE
  5
1ED
330
1E7
100
AcDbEntity
  8
VERMASSUNG
100
AcDbLine
 10
227.2298491379
 20
95.3868534483
 30
0.0
 11
243.7574392809
 21
95.3868534483
 31
0.0
  0
LINE
  5
1EE
330
1E7
100
AcDbEntity
  8
VERMASSUNG
100
AcDbLine
 10
242.7574392809
 20
135.3868534483
 30
0.0
 11
242.7574392809
 21
95.3868534483
 31
0.0
  0
MTEXT
  5
1EF
330
1E7
100
AcDbEntity
  8
VERMASSUNG
100
AcDbMText
 10
239.9793040247
 20
110.1818536289
 30
0.0
 40
2.0
 41
0.0
 71
     1
 72
     1
  1
WH
  7
SLDTEXTSTYLE0
 11
-7.044195017643634E-15
 21
1.0
 31
0.0
 73
     1
 44
1.0
  0
MTEXT
  5
1F0
330
1E7
100
AcDbEntity
  8
VERMASSUNG
100
AcDbMText
 10
240.179303976
 20
113.981853693
 30
0.0
 40
2.0
 41
0.0
 71
     1
 72
     1
  1
%%c
  7
SLDTEXTSTYLE0
 11
-7.044195017643634E-15
 21
1.0
 31
0.0
 73
     1
 44
1.0
  0
MTEXT
  5
1F1
330
1E7
100
AcDbEntity
  8
VERMASSUNG
100
AcDbMText
 10
239.9793040247
 20
117.5918537073
 30
0.0
 40
2.0
 41
0.0
 71
     1
 72
     1
  1
40
  7
SLDTEXTSTYLE0
 11
-7.044195017643634E-15
 21
1.0
 31
0.0
 73
     1
 44
1.0
  0
ENDBLK
  5
1E9
330
1E7
100
AcDbEntity
  8
0
100
AcDbBlockEnd
  0
BLOCK
  5
1F4
330
1F3
100
AcDbEntity
  8
0
100
AcDbBlockBegin
  2
_D_5
 70
     0
 10
0.0
 20
0.0
 30
0.0
  3
_D_5
  1

  0
SOLID
  5
1F6
330
1F3
100
AcDbEntity
  8
VERMASSUNG
100
AcDbTrace
 10
235.2311545772
 20
104.3868534483
 30
0.0
 11
235.6811545772
 21
107.3868534483
 31
0.0
 12
234.7811545772
 22
107.3868534483
 32
0.0
 13
234.7811545772
 23
107.3868534483
 33
0.0
  0
SOLID
  5
1F7
330
1F3
100
AcDbEntity
  8
VERMASSUNG
100
AcDbTrace
 10
235.2311545772
 20
126.3868534483
 30
0.0
 11
234.7811545772
 21
123.3868534483
 31
0.0
 12
235.6811545772
 22
123.3868534483
 32
0.0
 13
235.6811545772
 23
123.3868534483
 33
0.0
  0
LINE
  5
1F8
330
1F3
100
AcDbEntity
  8
VERMASSUNG
100
AcDbLine
 10
226.6298491379
 20
104.3868534483
 30
0.0
 11
236.2311545772
 21
104.3868534483
 31
0.0
  0
LINE
  5
1F9
330
1F3
100
AcDbEntity
  8
VERMASSUNG
100
AcDbLine
 10
226.6298491379
 20
126.3868534483
 30
0.0
 11
236.2311545772
 21
126.3868534483
 31
0.0
  0
LINE
  5
1FA
330
1F3
100
AcDbEntity
  8
VERMASSUNG
100
AcDbLine
 10
235.2311545772
 20
104.3868534483
 30
0.0
 11
235.2311545772
 21
126.3868534483
 31
0.0
  0
MTEXT
  5
1FB
330
1F3
100
AcDbEntity
  8
VERMASSUNG
100
AcDbMText
 10
232.6530192722
 20
112.181853491
 30
0.0
 40
2.0
 41
0.0
 71
     1
 72
     1
  1
%%c
  7
SLDTEXTSTYLE0
 11
6.123233995736766E-17
 21
1.0
 31
0.0
 73
     1
 44
1.0
  0
MTEXT
  5
1FC
330
1F3
100
AcDbEntity
  8
VERMASSUNG
100
AcDbMText
 10
232.4530193209
 20
115.7918535053
 30
0.0
 40
2.0
 41
0.0
 71
     1
 72
     1
  1
22
  7
SLDTEXTSTYLE0
 11
6.123233995736766E-17
 21
1.0
 31
0.0
 73
     1
 44
1.0
  0
ENDBLK
  5
1F5
330
1F3
100
AcDbEntity
  8
0
100
AcDbBlockEnd
  0
ENDSEC
  0
SECTION
  2
ENTITIES
  0
MTEXT
  5
78
330
1F
100
AcDbEntity
  8
KOPF_DÜNN
100
AcDbMText
 10
13.8892156294
 20
23.8442973028
 30
0.0
 40
3.0
 41
0.0
 71
     1
 72
     1
  1
A34.550.040.065
  7
SLDTEXTSTYLE0
 73
     1
 44
1.0
  0
MTEXT
  5
79
330
1F
100
AcDbEntity
  8
VERMASSUNG
100
AcDbMText
 10
13.9329988022
 20
28.8834360957
 30
0.0
 40
3.0
 41
0.0
 71
     1
 72
     1
  1
Aufnahme_Master shank
  7
SLDTEXTSTYLE0
 73
     1
 44
1.0
  0
MTEXT
  5
7A
330
1F
100
AcDbEntity
  8
VERMASSUNG
100
AcDbMText
 10
98.8601118557
 20
13.8365368761
 30
0.0
 40
2.0
 41
0.0
 71
     1
 72
     1
  1
Datum: 18.11.2011
  7
SLDTEXTSTYLE0
 73
     1
 44
1.0
  0
MTEXT
  5
7B
330
1F
100
AcDbEntity
  8
VERMASSUNG
100
AcDbMText
 10
13.933048693
 20
18.0482802738
 30
0.0
 40
2.0
 41
0.0
 71
     1
 72
     1
  1
MAS-BT A/D
  7
SLDTEXTSTYLE0
 73
     1
 44
1.0
  0
MTEXT
  5
7C
330
1F
100
AcDbEntity
  8
VERMASSUNG
100
AcDbMText
 10
13.9808475933
 20
13.9090974274
 30
0.0
 40
2.0
 41
0.0
 71
     1
 72
     1
  1
Gewicht: 3838g
  7
SLDTEXTSTYLE0
 73
     1
 44
1.0
  0
LINE
  5
7D
330
1F
100
AcDbEntity
  8
0
  6
Continuous
 62
     7
370
    15
100
AcDbLine
 10
196.6295619112
 20
65.3868534483
 30
0.0
 11
199.6298491379
 21
65.3868534483
 31
0.0
  0
LINE
  5
7E
330
1F
100
AcDbEntity
  8
0
  6
Continuous
 62
     7
370
    15
100
AcDbLine
 10
199.6298491379
 20
165.3868534483
 30
0.0
 11
196.629414957
 21
165.3868534483
 31
0.0
  0
ARC
  5
7F
330
1F
100
AcDbEntity
  8
0
  6
Continuous
 62
     7
370
    15
100
AcDbCircle
 10
199.6298491379
 20
66.3868534483
 30
0.0
 40
1.0
100
AcDbArc
 50
270.0
 51
0.0
  0
ARC
  5
80
330
1F
100
AcDbEntity
  8
0
  6
Continuous
 62
     7
370
    15
100
AcDbCircle
 10
199.6298491379
 20
164.3868534483
 30
0.0
 40
1.0
100
AcDbArc
 50
0.0
 51
90.0
  0
ARC
  5
81
330
1F
100
AcDbEntity
  8
0
  6
Continuous
 62
     7
370
    15
100
AcDbCircle
 10
164.6298491379
 20
79.4618534483
 30
0.0
 40
1.000000000000008
100
AcDbArc
 50
38.7224075187
 51
90.0
  0
ARC
  5
82
330
1F
100
AcDbEntity
  8
0
  6
Continuous
 62
     7
370
    15
100
AcDbCircle
 10
164.6298491379
 20
151.3118534483
 30
0.0
 40
1.000000000000001
100
AcDbArc
 50
270.0
 51
321.2903429194
  0
LINE
  5
83
330
1F
100
AcDbEntity
  8
0
  6
Continuous
 62
     7
370
    15
100
AcDbLine
 10
162.6298491379
 20
150.3118534483
 30
0.0
 11
62.5412353518
 21
135.7155972711
 31
0.0
  0
LINE
  5
84
330
1F
100
AcDbEntity
  8
0
  6
Continuous
 62
     7
370
    15
100
AcDbLine
 10
62.5412353518
 20
95.0581096254
 30
0.0
 11
162.6298491379
 21
80.4618534483
 31
0.0
  0
LINE
  5
85
330
1F
100
AcDbEntity
  8
0
  6
Continuous
 62
     7
370
    15
100
AcDbLine
 10
162.6298491379
 20
80.4618534483
 30
0.0
 11
164.6298491379
 21
80.4618534483
 31
0.0
  0
LINE
  5
86
330
1F
100
AcDbEntity
  8
0
  6
Continuous
 62
     7
370
    15
100
AcDbLine
 10
164.6298491379
 20
150.3118534483
 30
0.0
 11
162.6298491379
 21
150.3118534483
 31
0.0
  0
ARC
  5
87
330
1F
100
AcDbEntity
  8
0
  6
Continuous
 62
     7
370
    15
100
AcDbCircle
 10
203.6298491379
 20
92.3868534483
 30
0.0
 40
3.0
100
AcDbArc
 50
90.0
 51
180.0
  0
ARC
  5
88
330
1F
100
AcDbEntity
  8
0
  6
Continuous
 62
     7
370
    15
100
AcDbCircle
 10
203.6298491379
 20
138.3868534483
 30
0.0
 40
3.0
100
AcDbArc
 50
180.0
 51
270.0
  0
ARC
  5
89
330
1F
100
AcDbEntity
  8
0
  6
Continuous
 62
     7
370
    15
100
AcDbCircle
 10
62.8298491379
 20
97.0371755875
 30
0.0
 40
2.000000000000021
100
AcDbArc
 50
180.0
 51
261.7028550302
  0
ARC
  5
8A
330
1F
100
AcDbEntity
  8
0
  6
Continuous
 62
     7
370
    15
100
AcDbCircle
 10
62.8298491379
 20
133.736531309
 30
0.0
 40
2.000000000000021
100
AcDbArc
 50
98.2971449698
 51
180.0
  0
LINE
  5
8B
330
1F
100
AcDbEntity
  8
0
  6
Continuous
 62
     7
370
    15
100
AcDbLine
 10
227.2298491379
 20
95.3868534483
 30
0.0
 11
227.6298491379
 21
95.7868534483
 31
0.0
  0
LINE
  5
8C
330
1F
100
AcDbEntity
  8
0
  6
Continuous
 62
     7
370
    15
100
AcDbLine
 10
227.6298491379
 20
134.9868534483
 30
0.0
 11
227.2298491379
 21
135.3868534483
 31
0.0
  0
LINE
  5
8D
330
1F
100
AcDbEntity
  8
0
  6
Continuous
 62
     7
370
    15
100
AcDbLine
 10
209.3508423998
 20
135.3868534483
 30
0.0
 11
203.6298491379
 21
135.3868534483
 31
0.0
  0
LINE
  5
8E
330
1F
100
AcDbEntity
  8
0
  6
Continuous
 62
     7
370
    15
100
AcDbLine
 10
227.2298491379
 20
135.3868534483
 30
0.0
 11
221.8179956938
 21
135.3868534483
 31
0.0
  0
LINE
  5
8F
330
1F
100
AcDbEntity
  8
0
  6
Continuous
 62
     7
370
    15
100
AcDbLine
 10
203.6298491379
 20
95.3868534483
 30
0.0
 11
227.2298491379
 21
95.3868534483
 31
0.0
  0
SPLINE
  5
90
330
1F
100
AcDbEntity
  8
0
  6
Continuous
 62
     7
370
    15
100
AcDbSpline
210
0.0
220
0.0
230
1.0
 70
    24
 71
     3
 72
    11
 73
     7
 74
     0
 42
0.000000001
 43
0.00000001
 40
0.0
 40
0.0
 40
0.0
 40
0.0
 40
0.2164543009645056
 40
0.4403089937225611
 40
0.7518987489759421
 40
1.0
 40
1.0
 40
1.0
 40
1.0
 10
217.836055958887
 20
117.1876488598663
 30
0.0
 10
217.6519510866814
 20
117.2598166427523
 30
0.0
 10
217.2774469504318
 20
117.4066195647554
 30
0.0
 10
216.5824656959674
 20
117.6790472071159
 30
0.0
 10
215.8369700177788
 20
117.9712761394711
 30
0.0
 10
215.3598963862354
 20
118.1582855643136
 30
0.0
 10
215.1484179749532
 20
118.2411835772106
 30
0.0
  0
SPLINE
  5
91
330
1F
100
AcDbEntity
  8
0
  6
Continuous
 62
     7
370
    15
100
AcDbSpline
210
0.0
220
0.0
230
1.0
 70
    24
 71
     3
 72
    13
 73
     9
 74
     0
 42
0.000000001
 43
0.00000001
 40
0.0
 40
0.0
 40
0.0
 40
0.0
 40
0.1844095697098982
 40
0.3495005370884403
 40
0.5197705331556401
 40
0.6927076360809564
 40
0.8718061725834042
 40
1.0
 40
1.0
 40
1.0
 40
1.0
 10
212.8922111539973
 20
116.4403881656202
 30
0.0
 10
212.9173561030182
 20
116.2740302579395
 30
0.0
 10
212.9650118358619
 20
115.9587419669101
 30
0.0
 10
213.0407652904703
 20
115.4575603499704
 30
0.0
 10
213.1173157471663
 20
114.9511058012934
 30
0.0
 10
213.1955550147516
 20
114.4334781519749
 30
0.0
 10
213.2645493350808
 20
113.9770146784479
 30
0.0
 10
213.3062471488315
 20
113.7011437254135
 30
0.0
 10
213.323642316975
 20
113.5860580366853
 30
0.0
  0
SPLINE
  5
92
330
1F
100
AcDbEntity
  8
0
  6
Continuous
 62
     7
370
    15
100
AcDbSpline
210
0.0
220
0.0
230
1.0
 70
    24
 71
     3
 72
    11
 73
     7
 74
     0
 42
0.000000001
 43
0.00000001
 40
0.0
 40
0.0
 40
0.0
 40
0.0
 40
0.2164543009644872
 40
0.4403089937225293
 40
0.7518987489759574
 40
1.0
 40
1.0
 40
1.0
 40
1.0
 10
213.3236423169751
 20
113.5860580366853
 30
0.0
 10
213.5077471891806
 20
113.5138902537993
 30
0.0
 10
213.8822513254303
 20
113.3670873317961
 30
0.0
 10
214.5772325798945
 20
113.0946596894357
 30
0.0
 10
215.3227282580832
 20
112.8024307570807
 30
0.0
 10
215.7998018896266
 20
112.615421332238
 30
0.0
 10
216.0112803009089
 20
112.532523319341
 30
0.0
  0
SPLINE
  5
93
330
1F
100
AcDbEntity
  8
0
  6
Continuous
 62
     7
370
    15
100
AcDbSpline
210
0.0
220
0.0
230
1.0
 70
    24
 71
     3
 72
    11
 73
     7
 74
     0
 42
0.000000001
 43
0.00000001
 40
0.0
 40
0.0
 40
0.0
 40
0.0
 40
0.2164543009645123
 40
0.4403089937225503
 40
0.7518987489759634
 40
1.0
 40
1.0
 40
1.0
 40
1.0
 10
216.0112803009089
 20
112.532523319341
 30
0.0
 10
216.1658318703257
 20
112.6558789241884
 30
0.0
 10
216.480218998255
 20
112.9068075590015
 30
0.0
 10
217.0636388844645
 20
113.3724651593412
 30
0.0
 10
217.6894644026991
 20
113.8719688888866
 30
0.0
 10
218.0899561311316
 20
114.1916220608576
 30
0.0
 10
218.2674871218648
 20
114.3333187309315
 30
0.0
  0
SPLINE
  5
94
330
1F
100
AcDbEntity
  8
0
  6
Continuous
 62
     7
370
    15
100
AcDbSpline
210
0.0
220
0.0
230
1.0
 70
    24
 71
     3
 72
    11
 73
     7
 74
     0
 42
0.000000001
 43
0.00000001
 40
0.0
 40
0.0
 40
0.0
 40
0.0
 40
0.1285561766307153
 40
0.4801535797842224
 40
0.8150691831753866
 40
1.0
 40
1.0
 40
1.0
 40
1.0
 10
218.2674871218648
 20
114.3333187309315
 30
0.0
 10
218.2501121175002
 20
114.4482710169601
 30
0.0
 10
218.1852169816688
 20
114.8776144611074
 30
0.0
 10
218.0635240674582
 20
115.6827295786877
 30
0.0
 10
217.9317563111606
 20
116.5544994207784
 30
0.0
 10
217.8611673605984
 20
117.0215128997518
 30
0.0
 10
217.836055958887
 20
117.1876488598663
 30
0.0
  0
CIRCLE
  5
95
330
1F
100
AcDbEntity
  8
0
  6
Continuous
 62
     7
370
    15
100
AcDbCircle
 10
215.5798491379
 20
115.3868534483
 30
0.0
 40
3.000000000000033
  0
SPLINE
  5
96
330
1F
100
AcDbEntity
  8
0
  6
Continuous
 62
     7
370
    15
100
AcDbSpline
210
0.0
220
0.0
230
1.0
 70
    24
 71
     3
 72
    11
 73
     7
 74
     0
 42
0.000000001
 43
0.00000001
 40
0.0
 40
0.0
 40
0.0
 40
0.0
 40
0.2164543009644886
 40
0.440308993722536
 40
0.7518987489759348
 40
0.9999999999999999
 40
0.9999999999999999
 40
0.9999999999999999
 40
0.9999999999999999
 10
215.1484179749532
 20
118.2411835772106
 30
0.0
 10
214.9938664055363
 20
118.1178279723631
 30
0.0
 10
214.679479277607
 20
117.8668993375501
 30
0.0
 10
214.0960593913975
 20
117.4012417372105
 30
0.0
 10
213.4702338731629
 20
116.9017380076651
 30
0.0
 10
213.0697421447304
 20
116.5820848356941
 30
0.0
 10
212.8922111539973
 20
116.4403881656202
 30
0.0
  0
CIRCLE
  5
97
330
1F
100
AcDbEntity
  8
0
  6
Continuous
 62
     7
370
    15
100
AcDbCircle
 10
215.5798491379
 20
115.3868534483
 30
0.0
 40
4.300000000000026
  0
ARC
  5
98
330
1F
100
AcDbEntity
  8
0
  6
Continuous
 62
     7
370
    15
100
AcDbCircle
 10
215.5798491379
 20
115.3868534483
 30
0.0
 40
2.499999999999981
100
AcDbArc
 50
8.5951785477
 51
68.5951785477
  0
ARC
  5
99
330
1F
100
AcDbEntity
  8
0
  6
Continuous
 62
     7
370
    15
100
AcDbCircle
 10
215.5798491379
 20
115.3868534483
 30
0.0
 40
2.499999999999988
100
AcDbArc
 50
308.5951785477
 51
8.5951785477
  0
ARC
  5
9A
330
1F
100
AcDbEntity
  8
0
  6
Continuous
 62
     7
370
    15
100
AcDbCircle
 10
215.5798491379
 20
115.3868534483
 30
0.0
 40
2.500000000000027
100
AcDbArc
 50
188.5951785477
 51
248.5951785477
  0
ARC
  5
9B
330
1F
100
AcDbEntity
  8
0
  6
Continuous
 62
     7
370
    15
100
AcDbCircle
 10
215.5798491379
 20
115.3868534483
 30
0.0
 40
2.500000000000027
100
AcDbArc
 50
248.5951785477
 51
308.5951785477
  0
ARC
  5
9C
330
1F
100
AcDbEntity
  8
0
  6
Continuous
 62
     7
370
    15
100
AcDbCircle
 10
215.5798491379
 20
115.3868534483
 30
0.0
 40
2.50000000000005
100
AcDbArc
 50
68.5951785477
 51
128.5951785477
  0
ARC
  5
9D
330
1F
100
AcDbEntity
  8
0
  6
Continuous
 62
     7
370
    15
100
AcDbCircle
 10
215.5798491379
 20
115.3868534483
 30
0.0
 40
2.50000000000005
100
AcDbArc
 50
128.5951785477
 51
188.5951785477
  0
SPLINE
  5
9E
330
1F
100
AcDbEntity
  8
0
  6
Continuous
 62
     7
370
    15
100
AcDbSpline
210
0.0
220
0.0
230
1.0
 70
     8
 71
     3
 72
    12
 73
     8
 74
     0
 42
0.000000001
 43
0.00000001
 40
0.0
 40
0.0
 40
0.0
 40
0.0
 40
0.0005125153354919
 40
0.2509311781591491
 40
0.5009716914396624
 40
0.7506335204375856
 40
1.0
 40
1.0
 40
1.0
 40
1.0
 10
196.6294149570009
 20
165.3867284060922
 30
0.0
 10
196.6295594136878
 20
165.3867700794096
 30
0.0
 10
196.7002864419779
 20
165.4071736339971
 30
0.0
 10
196.4570228817016
 20
165.3355620026104
 30
0.0
 10
195.8514982674964
 20
165.1672087941385
 30
0.0
 10
194.8263345830803
 20
164.8898752036829
 30
0.0
 10
193.8451507158555
 20
164.6612564543594
 30
0.0
 10
193.3548491386181
 20
164.5470147335937
 30
0.0
  0
SPLINE
  5
9F
330
1F
100
AcDbEntity
  8
0
  6
Continuous
 62
     7
370
    15
100
AcDbSpline
210
0.0
220
0.0
230
1.0
 70
     8
 71
     3
 72
    13
 73
     9
 74
     0
 42
0.000000001
 43
0.00000001
 40
0.0
 40
0.0
 40
0.0
 40
0.0
 40
0.2492492380460214
 40
0.4988437701385547
 40
0.6658825660855477
 40
0.832025671123022
 40
0.9994886337290263
 40
1.0
 40
1.0
 40
1.0
 40
1.0
 10
193.3548491386181
 20
66.22669216295807
 30
0.0
 10
193.8460338620417
 20
66.11220463926603
 30
0.0
 10
194.829083764974
 20
65.88307098814603
 30
0.0
 10
195.7281271897929
 20
65.63986123699763
 30
0.0
 10
196.2864520904735
 20
65.48592402961273
 30
0.0
 10
196.5521233151817
 20
65.4096704707641
 30
0.0
 10
196.6610175612009
 20
65.37775628643735
 30
0.0
 10
196.62965738138
 20
65.38690920038314
 30
0.0
 10
196.6295619112072
 20
65.38693706470922
 30
0.0
  0
LINE
  5
A0
330
1F
100
AcDbEntity
  8
0
  6
Continuous
 62
     7
370
    15
100
AcDbLine
 10
193.3548491379
 20
66.226692163
 30
0.0
 11
193.3548491379
 21
164.5470147336
 31
0.0
  0
SPLINE
  5
A1
330
1F
100
AcDbEntity
  8
0
  6
Continuous
 62
     7
370
    15
100
AcDbSpline
210
0.0
220
0.0
230
1.0
 70
     8
 71
     3
 72
    12
 73
     8
 74
     0
 42
0.000000001
 43
0.00000001
 40
0.0
 40
0.0
 40
0.0
 40
0.0
 40
0.4999999999999992
 40
0.4999999999999992
 40
0.7499999999999996
 40
0.7499999999999996
 40
1.0
 40
1.0
 40
1.0
 40
1.0
 10
192.7141288027745
 20
163.5929003999769
 30
0.0
 10
192.1752321076769
 20
162.5352005824758
 30
0.0
 10
191.6129012969573
 20
161.4328321475172
 30
0.0
 10
190.7442350543668
 20
159.7328675411544
 30
0.0
 10
190.4499063320243
 20
159.1573491257158
 30
0.0
 10
189.8563753330565
 20
157.9979204572572
 30
0.0
 10
189.5571490749381
 20
157.413960788176
 30
0.0
 10
189.2556622266847
 20
156.8262508275872
 30
0.0
  0
SPLINE
  5
A2
330
1F
100
AcDbEntity
  8
0
  6
Continuous
 62
     7
370
    15
100
AcDbSpline
210
0.0
220
0.0
230
1.0
 70
     8
 71
     3
 72
     9
 73
     5
 74
     0
 42
0.000000001
 43
0.00000001
 40
0.0
 40
0.0
 40
0.0
 40
0.0
 40
0.5047943291262357
 40
1.0
 40
1.0
 40
1.0
 40
1.0
 10
193.3548255433432
 20
164.5469586983633
 30
0.0
 10
193.2464431091167
 20
164.3861171374841
 30
0.0
 10
193.0317369843193
 20
164.0674892298417
 30
0.0
 10
192.8193095555001
 20
163.7501150032384
 30
0.0
 10
192.7141142880997
 20
163.5929494864352
 30
0.0
  0
SPLINE
  5
A3
330
1F
100
AcDbEntity
  8
0
  6
Continuous
 62
     7
370
    15
100
AcDbSpline
210
0.0
220
0.0
230
1.0
 70
     8
 71
     3
 72
     9
 73
     5
 74
     0
 42
0.000000001
 43
0.00000001
 40
0.0
 40
0.0
 40
0.0
 40
0.0
 40
0.4952056703152484
 40
1.0
 40
1.0
 40
1.0
 40
1.0
 10
192.7141142880997
 20
67.18075741011648
 30
0.0
 10
192.8193095553802
 20
67.02359189349305
 30
0.0
 10
193.0317369841968
 20
66.7062176668946
 30
0.0
 10
193.246443108996
 20
66.38758975924785
 30
0.0
 10
193.3548255433432
 20
66.22674819818845
 30
0.0
  0
SPLINE
  5
A4
330
1F
100
AcDbEntity
  8
0
  6
Continuous
 62
     7
370
    15
100
AcDbSpline
210
0.0
220
0.0
230
1.0
 70
     8
 71
     3
 72
    12
 73
     8
 74
     0
 42
0.000000001
 43
0.00000001
 40
0.0
 40
0.0
 40
0.0
 40
0.0
 40
0.2499999999999993
 40
0.2499999999999993
 40
0.4999999999999986
 40
0.4999999999999986
 40
1.0
 40
1.0
 40
1.0
 40
1.0
 10
192.7141287705356
 20
67.18080655985067
 30
0.0
 10
192.4447912491667
 20
67.70943894853531
 30
0.0
 10
192.1690211317726
 20
68.250363602482
 30
0.0
 10
191.6067608451669
 20
69.35242035684504
 30
0.0
 10
191.3196754717622
 20
69.91471719608187
 30
0.0
 10
190.4492490310429
 20
71.61811243140185
 30
0.0
 10
189.8572390348736
 20
72.77475920248396
 30
0.0
 10
189.2556622266847
 20
73.9474560689646
 30
0.0
  0
LINE
  5
A5
330
1F
100
AcDbEntity
  8
0
  6
Continuous
 62
     7
370
    15
100
AcDbLine
 10
200.6298491379
 20
66.3868534483
 30
0.0
 11
200.6298491379
 21
164.3868534483
 31
0.0
  0
LINE
  5
A6
330
1F
100
AcDbEntity
  8
0
  6
Continuous
 62
     7
370
    15
100
AcDbLine
 10
178.3048491379
 20
163.4919449437
 30
0.0
 11
166.6298491379
 21
163.4919449437
 31
0.0
  0
LINE
  5
A7
330
1F
100
AcDbEntity
  8
0
  6
Continuous
 62
     7
370
    15
100
AcDbLine
 10
178.3048491379
 20
67.2817619528
 30
0.0
 11
178.3048491379
 21
163.4919449437
 31
0.0
  0
LINE
  5
A8
330
1F
100
AcDbEntity
  8
0
  6
Continuous
 62
     7
370
    15
100
AcDbLine
 10
166.6298491379
 20
67.2817619528
 30
0.0
 11
178.3048491379
 21
67.2817619528
 31
0.0
  0
SPLINE
  5
A9
330
1F
100
AcDbEntity
  8
0
  6
Continuous
 62
     7
370
    15
100
AcDbSpline
210
0.0
220
0.0
230
1.0
 70
     8
 71
     3
 72
     8
 73
     4
 74
     0
 42
0.000000001
 43
0.00000001
 40
0.0
 40
0.0
 40
0.0
 40
0.0
 40
0.0012417047560385
 40
0.0012417047560385
 40
0.0012417047560385
 40
0.0012417047560385
 10
178.8624181744588
 20
162.7074236021969
 30
0.0
 10
178.6770296231643
 20
162.9690966877454
 30
0.0
 10
178.4911633775564
 20
163.230600796623
 30
0.0
 10
178.304849137931
 20
163.4919449437403
 30
0.0
  0
SPLINE
  5
AA
330
1F
100
AcDbEntity
  8
0
  6
Continuous
 62
     7
370
    15
100
AcDbSpline
210
0.0
220
0.0
230
1.0
 70
     8
 71
     3
 72
     8
 73
     4
 74
     0
 42
0.000000001
 43
0.00000001
 40
0.0
 40
0.0
 40
0.0
 40
0.0
 40
1.0
 40
1.0
 40
1.0
 40
1.0
 10
182.4040360491774
 20
156.3171295284589
 30
0.0
 10
181.2290485732745
 20
158.4502062833947
 30
0.0
 10
180.0478020391781
 20
160.579924849271
 30
0.0
 10
178.8624181744588
 20
162.7074236021969
 30
0.0
  0
SPLINE
  5
AB
330
1F
100
AcDbEntity
  8
0
  6
Continuous
 62
     7
370
    15
100
AcDbSpline
210
0.0
220
0.0
230
1.0
 70
     8
 71
     3
 72
     8
 73
     4
 74
     0
 42
0.000000001
 43
0.00000001
 40
0.0
 40
0.0
 40
0.0
 40
0.0
 40
1.0
 40
1.0
 40
1.0
 40
1.0
 10
182.4040360491774
 20
74.45657736809287
 30
0.0
 10
181.2289992513504
 20
72.32341107394754
 30
0.0
 10
180.0477520439114
 20
70.19369231696587
 30
0.0
 10
178.8624181744588
 20
68.0662832943549
 30
0.0
  0
SPLINE
  5
AC
330
1F
100
AcDbEntity
  8
0
  6
Continuous
 62
     7
370
    15
100
AcDbSpline
210
0.0
220
0.0
230
1.0
 70
     8
 71
     3
 72
     8
 73
     4
 74
     0
 42
0.000000001
 43
0.00000001
 40
0.0
 40
0.0
 40
0.0
 40
0.0
 40
0.0012417047560385
 40
0.0012417047560385
 40
0.0012417047560385
 40
0.0012417047560385
 10
178.304849137931
 20
67.28176195281151
 30
0.0
 10
178.4911633775564
 20
67.54310609992875
 30
0.0
 10
178.6770296231643
 20
67.80461020880635
 30
0.0
 10
178.8624181744588
 20
68.0662832943549
 30
0.0
  0
LINE
  5
AD
330
1F
100
AcDbEntity
  8
0
  6
Continuous
 62
     7
370
    15
100
AcDbLine
 10
165.6298491379
 20
68.3849651883
 30
0.0
 11
165.6298491379
 21
162.3887417082
 31
0.0
  0
SPLINE
  5
AE
330
1F
100
AcDbEntity
  8
0
  6
Continuous
 62
     7
370
    15
100
AcDbSpline
210
0.0
220
0.0
230
1.0
 70
     8
 71
     3
 72
    12
 73
     8
 74
     0
 42
0.000000001
 43
0.00000001
 40
0.0
 40
0.0
 40
0.0
 40
0.0
 40
0.2500000000000001
 40
0.2500000000000001
 40
0.5000000000000002
 40
0.5000000000000002
 40
1.0
 40
1.0
 40
1.0
 40
1.0
 10
166.0159855579808
 20
163.3212871821471
 30
0.0
 10
165.964355435871
 20
163.2650829114325
 30
0.0
 10
165.9158232028805
 20
163.2037935009121
 30
0.0
 10
165.8259980659227
 20
163.0693314268674
 30
0.0
 10
165.7842877927103
 20
162.9952123566245
 30
0.0
 10
165.6781564125481
 20
162.7589047114561
 30
0.0
 10
165.629849137931
 20
162.5770811688062
 30
0.0
 10
165.629849137931
 20
162.3887417082171
 30
0.0
  0
SPLINE
  5
AF
330
1F
100
AcDbEntity
  8
0
  6
Continuous
 62
     7
370
    15
100
AcDbSpline
210
0.0
220
0.0
230
1.0
 70
     8
 71
     3
 72
     8
 73
     4
 74
     0
 42
0.000000001
 43
0.00000001
 40
0.0
 40
0.0
 40
0.0
 40
0.0
 40
1.0
 40
1.0
 40
1.0
 40
1.0
 10
166.629849137931
 20
163.4919449437403
 30
0.0
 10
166.4029548942312
 20
163.4919449437403
 30
0.0
 10
166.1851052483049
 20
163.4279327767714
 30
0.0
 10
166.0159855579808
 20
163.3212871821471
 30
0.0
  0
SPLINE
  5
B0
330
1F
100
AcDbEntity
  8
0
  6
Continuous
 62
     7
370
    15
100
AcDbSpline
210
0.0
220
0.0
230
1.0
 70
     8
 71
     3
 72
    10
 73
     6
 74
     0
 42
0.000000001
 43
0.00000001
 40
0.0
 40
0.0
 40
0.0
 40
0.0
 40
0.5
 40
0.5
 40
1.0
 40
1.0
 40
1.0
 40
1.0
 10
166.0159855579808
 20
67.45241971440461
 30
0.0
 10
166.1005961987115
 20
67.39906488579192
 30
0.0
 10
166.1958308208181
 20
67.35649542384172
 30
0.0
 10
166.405868179998
 20
67.29721308916078
 30
0.0
 10
166.5163000847821
 20
67.2817619528115
 30
0.0
 10
166.629849137931
 20
67.2817619528115
 30
0.0
  0
SPLINE
  5
B1
330
1F
100
AcDbEntity
  8
0
  6
Continuous
 62
     7
370
    15
100
AcDbSpline
210
0.0
220
0.0
230
1.0
 70
     8
 71
     3
 72
    12
 73
     8
 74
     0
 42
0.000000001
 43
0.00000001
 40
0.0
 40
0.0
 40
0.0
 40
0.0
 40
0.2500000000000039
 40
0.2500000000000039
 40
0.5000000000000079
 40
0.5000000000000079
 40
1.0
 40
1.0
 40
1.0
 40
1.0
 10
166.0159855579808
 20
67.45241971440461
 30
0.0
 10
165.964355435871
 20
67.50862398511926
 30
0.0
 10
165.9158232028805
 20
67.56991339563967
 30
0.0
 10
165.8259980659227
 20
67.70437546968436
 30
0.0
 10
165.7842877927103
 20
67.77849453992718
 30
0.0
 10
165.6781564125481
 20
68.01480218509565
 30
0.0
 10
165.629849137931
 20
68.19662572774554
 30
0.0
 10
165.629849137931
 20
68.38496518833465
 30
0.0
  0
SPLINE
  5
B2
330
1F
100
AcDbEntity
  8
0
  6
Continuous
 62
     7
370
    15
100
AcDbSpline
210
0.0
220
0.0
230
1.0
 70
     8
 71
     3
 72
    10
 73
     6
 74
     0
 42
0.000000001
 43
0.00000001
 40
0.0
 40
0.0
 40
0.0
 40
0.0
 40
0.5
 40
0.5
 40
1.0
 40
1.0
 40
1.0
 40
1.0
 10
182.779849137931
 20
74.8073222341267
 30
0.0
 10
182.7008490696797
 20
74.77155799951882
 30
0.0
 10
182.6270918194032
 20
74.72206839595935
 30
0.0
 10
182.4990366962699
 20
74.60177990445641
 30
0.0
 10
182.4461866618583
 20
74.53309775146708
 30
0.0
 10
182.4040360491774
 20
74.45657736809287
 30
0.0
  0
SPLINE
  5
B3
330
1F
100
AcDbEntity
  8
0
  6
Continuous
 62
     7
370
    15
100
AcDbSpline
210
0.0
220
0.0
230
1.0
 70
     8
 71
     3
 72
    10
 73
     6
 74
     0
 42
0.000000001
 43
0.00000001
 40
0.0
 40
0.0
 40
0.0
 40
0.0
 40
0.5
 40
0.5
 40
1.0
 40
1.0
 40
1.0
 40
1.0
 10
182.7798491379311
 20
155.966384662425
 30
0.0
 10
182.7005626902483
 20
156.0022785442775
 30
0.0
 10
182.6270504711277
 20
156.0517802541285
 30
0.0
 10
182.5000980182571
 20
156.1708279507971
 30
0.0
 10
182.4460321695204
 20
156.2408896110654
 30
0.0
 10
182.4040360491774
 20
156.3171295284588
 30
0.0
  0
SPLINE
  5
B4
330
1F
100
AcDbEntity
  8
0
  6
Continuous
 62
     7
370
    15
100
AcDbSpline
210
0.0
220
0.0
230
1.0
 70
     8
 71
     3
 72
     8
 73
     4
 74
     0
 42
0.000000001
 43
0.00000001
 40
0.0
 40
0.0
 40
0.0
 40
0.0
 40
1.0
 40
1.0
 40
1.0
 40
1.0
 10
183.0968563722049
 20
155.8989256439385
 30
0.0
 10
182.9871545869032
 20
155.8980672267392
 30
0.0
 10
182.8798075659188
 20
155.921132338614
 30
0.0
 10
182.779849137931
 20
155.9663846624248
 30
0.0
  0
SPLINE
  5
B5
330
1F
100
AcDbEntity
  8
0
  6
Continuous
 62
     7
370
    15
100
AcDbSpline
210
0.0
220
0.0
230
1.0
 70
     8
 71
     3
 72
     8
 73
     4
 74
     0
 42
0.000000001
 43
0.00000001
 40
0.0
 40
0.0
 40
0.0
 40
0.0
 40
1.0
 40
1.0
 40
1.0
 40
1.0
 10
183.0968563722049
 20
74.87478125261323
 30
0.0
 10
182.9871545869032
 20
74.87563966981256
 30
0.0
 10
182.8798075659187
 20
74.85257455793779
 30
0.0
 10
182.7798491379309
 20
74.80732223412687
 30
0.0
  0
SPLINE
  5
B6
330
1F
100
AcDbEntity
  8
0
  6
Continuous
 62
     7
370
    15
100
AcDbSpline
210
0.0
220
0.0
230
1.0
 70
     8
 71
     3
 72
    12
 73
     8
 74
     0
 42
0.000000001
 43
0.00000001
 40
0.0
 40
0.0
 40
0.0
 40
0.0
 40
0.2500000000000024
 40
0.2500000000000024
 40
0.5000000000000049
 40
0.5000000000000049
 40
1.0
 40
1.0
 40
1.0
 40
1.0
 10
189.2556622266847
 20
156.8262508275872
 30
0.0
 10
189.2194418052978
 20
156.7556437594874
 30
0.0
 10
189.17651613065
 20
156.6919091681617
 30
0.0
 10
189.0789895473909
 20
156.5761349919132
 30
0.0
 10
189.0235580277742
 20
156.5235871479017
 30
0.0
 10
188.8450701248701
 20
156.3894385446874
 30
0.0
 10
188.7082332962223
 20
156.3289164426235
 30
0.0
 10
188.5628419036578
 20
156.3083698586951
 30
0.0
  0
SPLINE
  5
B7
330
1F
100
AcDbEntity
  8
0
  6
Continuous
 62
     7
370
    15
100
AcDbSpline
210
0.0
220
0.0
230
1.0
 70
     8
 71
     3
 72
    12
 73
     8
 74
     0
 42
0.000000001
 43
0.00000001
 40
0.0
 40
0.0
 40
0.0
 40
0.0
 40
0.2500000000000029
 40
0.2500000000000029
 40
0.5000000000000059
 40
0.5000000000000059
 40
1.0
 40
1.0
 40
1.0
 40
1.0
 10
189.2556622266847
 20
73.94745606896458
 30
0.0
 10
189.2194418052977
 20
74.01806313706449
 30
0.0
 10
189.1765161306498
 20
74.08179772839021
 30
0.0
 10
189.0789895473908
 20
74.19757190463864
 30
0.0
 10
189.0235580277742
 20
74.25011974865006
 30
0.0
 10
188.8450701248699
 20
74.38426835186446
 30
0.0
 10
188.7082332962222
 20
74.44479045392823
 30
0.0
 10
188.5628419036578
 20
74.46533703785666
 30
0.0
  0
SPLINE
  5
B8
330
1F
100
AcDbEntity
  8
0
  6
Continuous
 62
     7
370
    15
100
AcDbSpline
210
0.0
220
0.0
230
1.0
 70
    11
 71
     3
 72
    66
 73
    62
 74
     0
 42
0.000000001
 43
0.00000001
 40
0.0
 40
0.0
 40
0.0
 40
0.0
 40
0.0312499999999999
 40
0.0312499999999999
 40
0.0624999999999999
 40
0.0624999999999999
 40
0.0937499999999998
 40
0.0937499999999998
 40
0.1249999999999997
 40
0.1249999999999997
 40
0.1562499999999997
 40
0.1562499999999997
 40
0.1874999999999996
 40
0.1874999999999996
 40
0.2187499999999995
 40
0.2187499999999995
 40
0.2499999999999994
 40
0.2499999999999994
 40
0.2812499999999994
 40
0.2812499999999994
 40
0.3124999999999993
 40
0.3124999999999993
 40
0.3437499999999992
 40
0.3437499999999992
 40
0.3749999999999992
 40
0.3749999999999992
 40
0.4062499999999991
 40
0.4062499999999991
 40
0.437499999999999
 40
0.437499999999999
 40
0.4687499999999989
 40
0.4687499999999989
 40
0.4999999999999989
 40
0.4999999999999989
 40
0.5312499999999988
 40
0.5312499999999988
 40
0.5624999999999988
 40
0.5624999999999988
 40
0.6249999999999987
 40
0.6249999999999987
 40
0.6562499999999988
 40
0.6562499999999988
 40
0.6874999999999989
 40
0.6874999999999989
 40
0.7187499999999991
 40
0.7187499999999991
 40
0.7499999999999992
 40
0.7499999999999992
 40
0.7812499999999993
 40
0.7812499999999993
 40
0.8124999999999996
 40
0.8124999999999996
 40
0.8437499999999997
 40
0.8437499999999997
 40
0.8749999999999998
 40
0.8749999999999998
 40
0.90625
 40
0.90625
 40
0.9375000000000001
 40
0.9375000000000001
 40
1.0
 40
1.0
 40
1.0
 40
1.0
 10
185.829849137931
 20
98.52693613743254
 30
0.0
 10
185.9950494285949
 20
98.52693613743254
 30
0.0
 10
186.1574819698915
 20
98.54184216679036
 30
0.0
 10
186.4770401254815
 20
98.60027734553282
 30
0.0
 10
186.6358234634585
 20
98.64451839790853
 30
0.0
 10
186.9385614799379
 20
98.76010994333102
 30
0.0
 10
187.0821406450722
 20
98.83088591354972
 30
0.0
 10
187.3538703749402
 20
98.99832444546232
 30
0.0
 10
187.482498938478
 20
99.095863717783
 30
0.0
 10
187.7130647001452
 20
99.30928207798442
 30
0.0
 10
187.8165387013945
 20
99.42589673001055
 30
0.0
 10
187.9992992393203
 20
99.67962209403028
 30
0.0
 10
188.0769434955489
 20
99.81491495309902
 30
0.0
 10
188.201636146239
 20
100.0952613084906
 30
0.0
 10
188.2496401268174
 20
100.2423821843267
 30
0.0
 10
188.3138718691357
 20
100.544372288704
 30
0.0
 10
188.3297613131779
 20
100.6964960562732
 30
0.0
 10
188.3299362435331
 20
101.0029786990994
 30
0.0
 10
188.3137055921982
 20
101.1589646201651
 30
0.0
 10
188.2499243694886
 20
101.4615440891344
 30
0.0
 10
188.2027322580923
 20
101.6089226005266
 30
0.0
 10
188.0775656404344
 20
101.8957113059043
 30
0.0
 10
187.9993061530593
 20
102.0346684074422
 30
0.0
 10
187.818385969704
 20
102.2922620677102
 30
0.0
 10
187.7151007407801
 20
102.4125546114112
 30
0.0
 10
187.4818489987314
 20
102.6352754290579
 30
0.0
 10
187.3554351304658
 20
102.7342533330498
 30
0.0
 10
187.0847628597712
 20
102.9074701876589
 30
0.0
 10
186.9386810876069
 20
102.9824512251356
 30
0.0
 10
186.6357966421341
 20
103.1027793952314
 30
0.0
 10
186.4799662824944
 20
103.1481630827206
 30
0.0
 10
186.1596207932289
 20
103.2095893431416
 30
0.0
 10
185.9939107072573
 20
103.2253429646614
 30
0.0
 10
185.6675793185608
 20
103.2254552099168
 30
0.0
 10
185.5053922327338
 20
103.2103229800108
 30
0.0
 10
185.1830166515253
 20
103.1490708668304
 30
0.0
 10
185.0250011774877
 20
103.1030641234551
 30
0.0
 10
184.5735903024122
 20
102.9241833942132
 30
0.0
 10
184.29451084536
 20
102.7460312869143
 30
0.0
 10
183.9484371408616
 20
102.4165348706272
 30
0.0
 10
183.8427951249469
 20
102.2941620307872
 30
0.0
 10
183.6610116489762
 20
102.0357593266726
 30
0.0
 10
183.5841238255922
 20
101.8995277611243
 30
0.0
 10
183.4584692682218
 20
101.6130922992382
 30
0.0
 10
183.4101611923072
 20
101.4627852146627
 30
0.0
 10
183.3463433068669
 20
101.1612172845782
 30
0.0
 10
183.330015129824
 20
101.0083512221137
 30
0.0
 10
183.3296856397643
 20
100.6983361053702
 30
0.0
 10
183.345782151599
 20
100.5454671050176
 30
0.0
 10
183.4090108888602
 20
100.2464343392427
 30
0.0
 10
183.4568474822707
 20
100.0983687428198
 30
0.0
 10
183.5821908001842
 20
99.81581170467432
 30
0.0
 10
183.6588874747094
 20
99.68219537255061
 30
0.0
 10
183.8399388413611
 20
99.42990550261845
 30
0.0
 10
183.945414451722
 20
99.31056219355057
 30
0.0
 10
184.1759410203983
 20
99.09687841406576
 30
0.0
 10
184.3016604580286
 20
99.00121843940597
 30
0.0
 10
184.5744273072254
 20
98.83249737040215
 30
0.0
 10
184.7201466836314
 20
98.76063016174894
 30
0.0
 10
185.1712157887395
 20
98.58797908448047
 30
0.0
 10
185.4994485566033
 20
98.52693613743256
 30
0.0
 10
185.829849137931
 20
98.52693613743253
 30
0.0
  0
SPLINE
  5
B9
330
1F
100
AcDbEntity
  8
0
  6
Continuous
 62
     7
370
    15
100
AcDbSpline
210
0.0
220
0.0
230
1.0
 70
     8
 71
     3
 72
    10
 73
     6
 74
     0
 42
0.000000001
 43
0.00000001
 40
0.0
 40
0.0
 40
0.0
 40
0.0
 40
0.5
 40
0.5
 40
1.0
 40
1.0
 40
1.0
 40
1.0
 10
188.5628419036572
 20
156.3083698586979
 30
0.0
 10
187.7152775368889
 20
156.1885928066369
 30
0.0
 10
186.834564101167
 20
156.0899026269731
 30
0.0
 10
185.0070078499514
 20
155.9486302207359
 30
0.0
 10
184.0535754468501
 20
155.9064119770583
 30
0.0
 10
183.0968563722049
 20
155.8989256439385
 30
0.0
  0
SPLINE
  5
BA
330
1F
100
AcDbEntity
  8
0
  6
Continuous
 62
     7
370
    15
100
AcDbSpline
210
0.0
220
0.0
230
1.0
 70
     8
 71
     3
 72
    10
 73
     6
 74
     0
 42
0.000000001
 43
0.00000001
 40
0.0
 40
0.0
 40
0.0
 40
0.0
 40
0.5
 40
0.5
 40
1.0
 40
1.0
 40
1.0
 40
1.0
 10
188.5628419036572
 20
74.46533703785384
 30
0.0
 10
187.7152775368889
 20
74.58511408991488
 30
0.0
 10
186.834564101167
 20
74.68380426957869
 30
0.0
 10
185.0070078499514
 20
74.82507667581584
 30
0.0
 10
184.0535754468501
 20
74.86729491949343
 30
0.0
 10
183.0968563722049
 20
74.87478125261323
 30
0.0
  0
SPLINE
  5
BB
330
1F
100
AcDbEntity
  8
0
  6
Continuous
 62
     7
370
    15
100
AcDbSpline
210
0.0
220
0.0
230
1.0
 70
    24
 71
     3
 72
    20
 73
    16
 74
     0
 42
0.000000001
 43
0.00000001
 40
0.0
 40
0.0
 40
0.0
 40
0.0
 40
0.5
 40
0.5
 40
0.75
 40
0.75
 40
0.875
 40
0.875
 40
0.9375
 40
0.9375
 40
0.96875
 40
0.984375
 40
0.9921875
 40
0.9921875
 40
1.0
 40
1.0
 40
1.0
 40
1.0
 10
165.629849137931
 20
150.6868534482759
 30
0.0
 10
165.629849137931
 20
150.6868534482759
 30
0.0
 10
165.5690851386574
 20
150.6868534482759
 30
0.0
 10
165.4860818967202
 20
150.6868534482759
 30
0.0
 10
165.4594406390852
 20
150.6868534482759
 30
0.0
 10
165.4309876282609
 20
150.6868534482759
 30
0.0
 10
165.4234030042221
 20
150.6868534482759
 30
0.0
 10
165.4157075090348
 20
150.6868534482759
 30
0.0
 10
165.4137515787472
 20
150.6868534482759
 30
0.0
 10
165.41178884856
 20
150.6868534482759
 30
0.0
 10
165.4110497269594
 20
150.6868534482759
 30
0.0
 10
165.4106178369769
 20
150.6868534482759
 30
0.0
 10
165.4105252672452
 20
150.6868534482759
 30
0.0
 10
165.4104841367359
 20
150.6868534482759
 30
0.0
 10
165.4104738675688
 20
150.6868534482759
 30
0.0
 10
165.410473887766
 20
150.6868534482759
 30
0.0
  0
LINE
  5
BC
330
1F
100
AcDbEntity
  8
0
  6
Continuous
 62
     7
370
    15
100
AcDbLine
 10
162.6298491379
 20
80.4618534483
 30
0.0
 11
162.6298491379
 21
150.3118534483
 31
0.0
  0
LINE
  5
BD
330
1F
100
AcDbEntity
  8
0
  6
Continuous
 62
     7
370
    15
100
AcDbLine
 10
60.8298491379
 20
97.0371755875
 30
0.0
 11
60.8298491379
 21
133.7365312864
 31
0.0
  0
LINE
  5
BE
330
1F
100
AcDbEntity
  8
0
  6
Continuous
 62
     7
370
    15
100
AcDbLine
 10
227.6298491379
 20
115.3868534483
 30
0.0
 11
227.6298491379
 21
95.7868534483
 31
0.0
  0
LINE
  5
BF
330
1F
100
AcDbEntity
  8
0
  6
Continuous
 62
     7
370
    15
100
AcDbLine
 10
227.6298491379
 20
134.9868534483
 30
0.0
 11
227.6298491379
 21
115.3868534483
 31
0.0
  0
LINE
  5
C0
330
1F
100
AcDbEntity
  8
0
  6
Continuous
 62
     7
370
    15
100
AcDbLine
 10
227.2298491379
 20
115.3868534483
 30
0.0
 11
227.2298491379
 21
95.3868534483
 31
0.0
  0
LINE
  5
C1
330
1F
100
AcDbEntity
  8
0
  6
Continuous
 62
     7
370
    15
100
AcDbLine
 10
227.2298491379
 20
135.3868534483
 30
0.0
 11
227.2298491379
 21
115.3868534483
 31
0.0
  0
SPLINE
  5
C2
330
1F
100
AcDbEntity
  8
0
  6
Continuous
 62
     7
370
    15
100
AcDbSpline
210
0.0
220
0.0
230
1.0
 70
     8
 71
     3
 72
    27
 73
    23
 74
     0
 42
0.000000001
 43
0.00000001
 40
0.0
 40
0.0
 40
0.0
 40
0.0
 40
0.0094755149790922
 40
0.0552335167809367
 40
0.0970789766715534
 40
0.140001533153421
 40
0.1846774098274236
 40
0.2303702970998517
 40
0.2810116210876503
 40
0.3328204291960579
 40
0.3896727860213702
 40
0.4479914059491988
 40
0.5082002424342792
 40
0.5701177672070006
 40
0.6309363065051158
 40
0.6935646321281032
 40
0.7534187651691389
 40
0.8153072813720541
 40
0.8701820454296487
 40
0.927235359465476
 40
0.9739917504996862
 40
1.0
 40
1.0
 40
1.0
 40
1.0
 10
221.8179956937625
 20
135.3840382061435
 30
0.0
 10
221.8216525517753
 20
135.3849066460604
 30
0.0
 10
221.8429686627055
 20
135.3899688501553
 30
0.0
 10
221.74095522495
 20
135.3656504207787
 30
0.0
 10
221.5167536074137
 20
135.3135391678428
 30
0.0
 10
221.1679852995171
 20
135.2357958725514
 30
0.0
 10
220.7045782736387
 20
135.1391395322094
 30
0.0
 10
220.1141446935342
 20
135.0269898174529
 30
0.0
 10
219.401944778101
 20
134.908660640818
 30
0.0
 10
218.5529812895061
 20
134.7926943081301
 30
0.0
 10
217.5932418763285
 20
134.6952567737498
 30
0.0
 10
216.5341418221824
 20
134.6308445583869
 30
0.0
 10
215.4187202377714
 20
134.612246711362
 30
0.0
 10
214.2918940142623
 20
134.6455333481067
 30
0.0
 10
213.1869205418696
 20
134.728134104988
 30
0.0
 10
212.1618453720135
 20
134.8484188396639
 30
0.0
 10
211.2315627590619
 20
134.9926111381965
 30
0.0
 10
210.4696178413221
 20
135.1351585207425
 30
0.0
 10
209.8754995744249
 20
135.2606878599576
 30
0.0
 10
209.5119008250158
 20
135.3436743790899
 30
0.0
 10
209.3377237322159
 20
135.3849717606101
 30
0.0
 10
209.3473880756496
 20
135.3826813296499
 30
0.0
 10
209.3508423998025
 20
135.3818626614143
 30
0.0
  0
SPLINE
  5
C3
330
1F
100
AcDbEntity
  8
0
  6
Continuous
 62
     7
370
    15
100
AcDbSpline
210
0.0
220
0.0
230
1.0
 70
    11
 71
     3
 72
    88
 73
    84
 74
     0
 42
0.000000001
 43
0.00000001
 40
0.0
 40
0.0
 40
0.0
 40
0.0
 40
0.0312500000000004
 40
0.0312500000000004
 40
0.0625000000000008
 40
0.0625000000000008
 40
0.0937500000000011
 40
0.0937500000000011
 40
0.1093750000000013
 40
0.1093750000000013
 40
0.1250000000000015
 40
0.1250000000000015
 40
0.1562500000000019
 40
0.1562500000000019
 40
0.1718750000000024
 40
0.1718750000000024
 40
0.1875000000000029
 40
0.1875000000000029
 40
0.2187500000000038
 40
0.2187500000000038
 40
0.2343750000000043
 40
0.2343750000000043
 40
0.2500000000000048
 40
0.2500000000000048
 40
0.2812500000000052
 40
0.2812500000000052
 40
0.2968750000000052
 40
0.2968750000000052
 40
0.3125000000000052
 40
0.3125000000000052
 40
0.343750000000005
 40
0.343750000000005
 40
0.3593750000000049
 40
0.3593750000000049
 40
0.3750000000000048
 40
0.3750000000000048
 40
0.3906250000000047
 40
0.3906250000000047
 40
0.4062500000000046
 40
0.4062500000000046
 40
0.4375000000000044
 40
0.4375000000000044
 40
0.4531250000000042
 40
0.4531250000000042
 40
0.4687500000000039
 40
0.4687500000000039
 40
0.5000000000000038
 40
0.5000000000000038
 40
0.5312500000000036
 40
0.5312500000000036
 40
0.5625000000000034
 40
0.5625000000000034
 40
0.5937500000000032
 40
0.5937500000000032
 40
0.6250000000000031
 40
0.6250000000000031
 40
0.6562500000000029
 40
0.6562500000000029
 40
0.6875000000000028
 40
0.6875000000000028
 40
0.7187500000000026
 40
0.7187500000000026
 40
0.7500000000000023
 40
0.7500000000000023
 40
0.7812500000000022
 40
0.7812500000000022
 40
0.812500000000002
 40
0.812500000000002
 40
0.8281250000000019
 40
0.8281250000000019
 40
0.8437500000000018
 40
0.8437500000000018
 40
0.8750000000000014
 40
0.8750000000000014
 40
0.8906250000000013
 40
0.8906250000000013
 40
0.9062500000000012
 40
0.9062500000000012
 40
0.9375000000000008
 40
0.9375000000000008
 40
0.9687500000000004
 40
0.9687500000000004
 40
1.0
 40
1.0
 40
1.0
 40
1.0
 10
211.4226030247384
 20
119.4718568106047
 30
0.0
 10
211.726077932566
 20
119.7098495150393
 30
0.0
 10
212.0471433459422
 20
119.9157920361582
 30
0.0
 10
212.721535690991
 20
120.2700482922686
 30
0.0
 10
213.0769128081068
 20
120.4189278119106
 30
0.0
 10
213.8120034568816
 20
120.6554633983313
 30
0.0
 10
214.1855296340658
 20
120.741513707655
 30
0.0
 10
214.7544632692516
 20
120.8245262386117
 30
0.0
 10
214.9455575816132
 20
120.8444675571243
 30
0.0
 10
215.3306952898557
 20
120.8686674366533
 30
0.0
 10
215.525573453594
 20
120.8728665683359
 30
0.0
 10
216.1049592215776
 20
120.8614476727616
 30
0.0
 10
216.4862405473807
 20
120.8224168706024
 30
0.0
 10
217.0508520849841
 20
120.7174784046581
 30
0.0
 10
217.2378306189125
 20
120.6747195252974
 30
0.0
 10
217.6092752783293
 20
120.5731649450667
 30
0.0
 10
217.7944254307296
 20
120.5140570060605
 30
0.0
 10
218.3358335348203
 20
120.3153436603098
 30
0.0
 10
218.6809637965046
 20
120.1540469288458
 30
0.0
 10
219.1748394518759
 20
119.8679084898074
 30
0.0
 10
219.3354689069368
 20
119.765114201303
 30
0.0
 10
219.6483626253064
 20
119.5438488665728
 30
0.0
 10
219.8011113031923
 20
119.4248480674994
 30
0.0
 10
220.2363052391394
 20
119.0510354729407
 30
0.0
 10
220.4991346239865
 20
118.7776723309509
 30
0.0
 10
220.8503042961778
 20
118.3288162052272
 30
0.0
 10
220.9601285095192
 20
118.1726815603792
 30
0.0
 10
221.1641613014258
 20
117.8462316895427
 30
0.0
 10
221.2580377227716
 20
117.6760744198969
 30
0.0
 10
221.5070558982422
 20
117.1581111693964
 30
0.0
 10
221.6330133614051
 20
116.7983184025423
 30
0.0
 10
221.7577141495964
 20
116.2351985171492
 30
0.0
 10
221.7885906763911
 20
116.0419777673753
 30
0.0
 10
221.8261771486258
 20
115.656034151394
 30
0.0
 10
221.8331027889372
 20
115.4635562994634
 30
0.0
 10
221.823803767987
 20
115.0795646214817
 30
0.0
 10
221.8075780678686
 20
114.888050837934
 30
0.0
 10
221.7518011214011
 20
114.5059935222221
 30
0.0
 10
221.7118371928804
 20
114.3142701059657
 30
0.0
 10
221.5598331179057
 20
113.7543753708177
 30
0.0
 10
221.4162299997841
 20
113.398371024535
 30
0.0
 10
221.1414985250882
 20
112.8883476845617
 30
0.0
 10
221.040046965188
 20
112.7228487403502
 30
0.0
 10
220.8223839811758
 20
112.4067038032859
 30
0.0
 10
220.7056798006665
 20
112.2551017059378
 30
0.0
 10
220.3330353805611
 20
111.8186596001002
 30
0.0
 10
220.0518564928046
 20
111.5501648390012
 30
0.0
 10
219.4507121481482
 20
111.0758576735701
 30
0.0
 10
219.1299210130278
 20
110.8681336611726
 30
0.0
 10
218.4492712909948
 20
110.5084424196002
 30
0.0
 10
218.0917720704274
 20
110.3584300562911
 30
0.0
 10
217.3627909147551
 20
110.1223664629889
 30
0.0
 10
216.9885947613867
 20
110.0348475840229
 30
0.0
 10
216.220313014625
 20
109.9216629079953
 30
0.0
 10
215.8347244028761
 20
109.8974399612127
 30
0.0
 10
215.0673114800625
 20
109.9114725260127
 30
0.0
 10
214.6843965981282
 20
109.9495624279913
 30
0.0
 10
213.9202205495963
 20
110.0909850555035
 30
0.0
 10
213.549685055498
 20
110.1923621361943
 30
0.0
 10
212.8322045822578
 20
110.454911830794
 30
0.0
 10
212.4847476234445
 20
110.6162415898418
 30
0.0
 10
211.8158500026253
 20
111.0036523107306
 30
0.0
 10
211.5044529776881
 20
111.2238598863398
 30
0.0
 10
210.9279150523464
 20
111.7184963202229
 30
0.0
 10
210.6616252216025
 20
111.9942207670605
 30
0.0
 10
210.1862610274216
 20
112.6027378635001
 30
0.0
 10
209.9841885827847
 20
112.9261100817048
 30
0.0
 10
209.7364097580351
 20
113.4412891058276
 30
0.0
 10
209.663108816872
 20
113.6180725350227
 30
0.0
 10
209.5364105308099
 20
113.982527787762
 30
0.0
 10
209.482941714196
 20
114.1712415518186
 30
0.0
 10
209.3587286201047
 20
114.7373275689357
 30
0.0
 10
209.3216383193741
 20
115.119417203697
 30
0.0
 10
209.3362030259659
 20
115.6997849162057
 30
0.0
 10
209.3531463611218
 20
115.8955764624326
 30
0.0
 10
209.4099705953546
 20
116.2788609590318
 30
0.0
 10
209.4497445470235
 20
116.4674475707666
 30
0.0
 10
209.6018451162458
 20
117.0244159866419
 30
0.0
 10
209.7492350672416
 20
117.3879552303257
 30
0.0
 10
210.1158983504685
 20
118.0647542418557
 30
0.0
 10
210.3345971775521
 20
118.3800889629181
 30
0.0
 10
210.8387973959267
 20
118.9678627713736
 30
0.0
 10
211.1191281169107
 20
119.2338641061701
 30
0.0
 10
211.4226030247384
 20
119.4718568106047
 30
0.0
  0
CIRCLE
  5
C4
330
1F
100
AcDbEntity
  8
0
  6
Continuous
 62
     7
370
    15
100
AcDbCircle
 10
215.5798491379
 20
115.3868534483
 30
0.0
 40
4.5
  0
LWPOLYLINE
  5
C5
330
1F
100
AcDbEntity
  8
0
  6
Continuous
 62
     7
370
    15
100
AcDbPolyline
 90
       21
 70
   128
 43
0.0
 10
184.763940345
 20
98.7827536029
 10
185.4962495595
 20
98.5744610076
 10
186.2612138251
 20
98.5890116517
 10
186.9839531096
 20
98.8249812168
 10
187.5937206562
 20
99.2592713578
 10
188.030828169
 20
99.8493707298
 10
188.2524885191
 20
100.5375162948
 10
188.2370040471
 20
101.2563475703
 10
187.9858904809
 20
101.9355003427
 10
187.5237285661
 20
102.5084944067
 10
186.8957579309
 20
102.9192411109
 10
186.1634487164
 20
103.1275337063
 10
185.3984844508
 20
103.1129830622
 10
184.6757451663
 20
102.877013497
 10
184.0659776197
 20
102.4427233561
 10
183.6288701069
 20
101.8526239841
 10
183.4072097567
 20
101.1644784191
 10
183.4226942288
 20
100.4456471436
 10
183.6738077949
 20
99.7664943712
 10
184.1359697098
 20
99.1935003072
 10
184.763940345
 20
98.7827536029
  0
LINE
  5
C6
330
1F
100
AcDbEntity
  8
0
  6
Continuous
 62
     7
370
    15
100
AcDbLine
 10
187.5573374386
 20
100.9690557055
 30
0.0
 11
186.5847901257
 21
102.3158525049
 31
0.0
  0
LINE
  5
C7
330
1F
100
AcDbEntity
  8
0
  6
Continuous
 62
     7
370
    15
100
AcDbLine
 10
184.857301825
 20
102.1977941563
 30
0.0
 11
186.5847901257
 21
102.3158525049
 31
0.0
  0
LINE
  5
C8
330
1F
100
AcDbEntity
  8
0
  6
Continuous
 62
     7
370
    15
100
AcDbLine
 10
184.1023608372
 20
100.7329390083
 30
0.0
 11
184.857301825
 21
102.1977941563
 31
0.0
  0
LINE
  5
C9
330
1F
100
AcDbEntity
  8
0
  6
Continuous
 62
     7
370
    15
100
AcDbLine
 10
184.1023608372
 20
100.7329390083
 30
0.0
 11
185.0749081502
 21
99.386142209
 31
0.0
  0
LINE
  5
CA
330
1F
100
AcDbEntity
  8
0
  6
Continuous
 62
     7
370
    15
100
AcDbLine
 10
186.8023964509
 20
99.5042005576
 30
0.0
 11
185.0749081502
 21
99.386142209
 31
0.0
  0
LINE
  5
CB
330
1F
100
AcDbEntity
  8
0
  6
Continuous
 62
     7
370
    15
100
AcDbLine
 10
186.8023964509
 20
99.5042005576
 30
0.0
 11
187.5573374386
 21
100.9690557055
 31
0.0
  0
LINE
  5
CC
330
1F
100
AcDbEntity
  8
0
  6
Continuous
 62
     7
370
    15
100
AcDbLine
 10
186.8023964509
 20
100.1882408442
 30
0.0
 11
186.8023964509
 21
99.5042005576
 31
0.0
  0
LINE
  5
CD
330
1F
100
AcDbEntity
  8
0
  6
Continuous
 62
     7
370
    15
100
AcDbLine
 10
186.8023964509
 20
100.1882408442
 30
0.0
 11
187.3516216046
 21
101.2539338016
 31
0.0
  0
LINE
  5
CE
330
1F
100
AcDbEntity
  8
0
  6
Continuous
 62
     7
370
    15
100
AcDbLine
 10
184.3080766712
 20
101.132101199
 30
0.0
 11
185.0749081502
 21
100.0701824956
 31
0.0
  0
LINE
  5
CF
330
1F
100
AcDbEntity
  8
0
  6
Continuous
 62
     7
370
    15
100
AcDbLine
 10
185.0749081502
 20
100.0701824956
 30
0.0
 11
185.0749081502
 21
99.386142209
 31
0.0
  0
LINE
  5
D0
330
1F
100
AcDbEntity
  8
0
  6
Continuous
 62
     7
370
    15
100
AcDbLine
 10
186.8023964509
 20
100.1882408442
 30
0.0
 11
185.0749081502
 21
100.0701824956
 31
0.0
  0
CIRCLE
  5
D1
330
1F
100
AcDbEntity
  8
0
  6
HIDDEN
 62
     7
370
     0
100
AcDbCircle
 10
215.5798491379
 20
115.3868534483
 30
0.0
 40
5.000000000000028
  0
LINE
  5
D2
330
1F
100
AcDbEntity
  8
0
  6
HIDDEN
 62
     7
370
     0
100
AcDbLine
 10
211.633682121
 20
132.9368534483
 30
0.0
 11
220.5798491379
 21
132.9368534483
 31
0.0
  0
LINE
  5
D3
330
1F
100
AcDbEntity
  8
0
  6
HIDDEN
 62
     7
370
     0
100
AcDbLine
 10
210.5798491379
 20
132.9368534483
 30
0.0
 11
211.633682121
 21
132.9368534483
 31
0.0
  0
LINE
  5
D4
330
1F
100
AcDbEntity
  8
0
  6
HIDDEN
 62
     7
370
     0
100
AcDbLine
 10
211.633682121
 20
126.414352523
 30
0.0
 11
220.5798491379
 21
126.414352523
 31
0.0
  0
LINE
  5
D5
330
1F
100
AcDbEntity
  8
0
  6
HIDDEN
 62
     7
370
     0
100
AcDbLine
 10
210.5798491379
 20
126.414352523
 30
0.0
 11
211.633682121
 21
126.414352523
 31
0.0
  0
LINE
  5
D6
330
1F
100
AcDbEntity
  8
0
  6
HIDDEN
 62
     7
370
     0
100
AcDbLine
 10
213.3543672847
 20
119.1368534483
 30
0.0
 11
218.3996510415
 21
119.1368534483
 31
0.0
  0
LINE
  5
D7
330
1F
100
AcDbEntity
  8
0
  6
HIDDEN
 62
     7
370
     0
100
AcDbLine
 10
212.7600472343
 20
119.1368534483
 30
0.0
 11
213.3543672847
 21
119.1368534483
 31
0.0
  0
SPLINE
  5
D8
330
1F
100
AcDbEntity
  8
0
  6
HIDDEN
 62
     7
370
     0
100
AcDbSpline
210
0.0
220
0.0
230
1.0
 70
     8
 71
     3
 72
    11
 73
     7
 74
     0
 42
0.000000001
 43
0.00000001
 40
0.0
 40
0.0
 40
0.0
 40
0.0
 40
0.2164543009645043
 40
0.4403089937225597
 40
0.7518987489759411
 40
1.0
 40
1.0
 40
1.0
 40
1.0
 10
214.4931330229175
 20
133.523604794224
 30
0.0
 10
214.6890071867842
 20
133.4330567438278
 30
0.0
 10
215.0874522886097
 20
133.2488648808073
 30
0.0
 10
215.8268616833228
 20
133.0953389757091
 30
0.0
 10
216.6200147426748
 20
133.1879003022197
 30
0.0
 10
217.1275863107813
 20
133.4204982050139
 30
0.0
 10
217.352583924856
 20
133.523604794224
 30
0.0
  0
SPLINE
  5
D9
330
1F
100
AcDbEntity
  8
0
  6
HIDDEN
 62
     7
370
     0
100
AcDbSpline
210
0.0
220
0.0
230
1.0
 70
     8
 71
     3
 72
    11
 73
     7
 74
     0
 42
0.000000001
 43
0.00000001
 40
0.0
 40
0.0
 40
0.0
 40
0.0
 40
0.2164543009644886
 40
0.440308993722536
 40
0.7518987489759358
 40
1.0
 40
1.0
 40
1.0
 40
1.0
 10
217.352583924856
 20
133.523604794224
 30
0.0
 10
217.4270246541038
 20
133.4330567438278
 30
0.0
 10
217.5784511789685
 20
133.2488648808074
 30
0.0
 10
217.8594590131239
 20
133.0953389757092
 30
0.0
 10
218.1608917849493
 20
133.1879003022197
 30
0.0
 10
218.3537911287395
 20
133.4204982050139
 30
0.0
 10
218.4393000398694
 20
133.523604794224
 30
0.0
  0
SPLINE
  5
DA
330
1F
100
AcDbEntity
  8
0
  6
HIDDEN
 62
     7
370
     0
100
AcDbSpline
210
0.0
220
0.0
230
1.0
 70
     8
 71
     3
 72
    13
 73
     9
 74
     0
 42
0.000000001
 43
0.00000001
 40
0.0
 40
0.0
 40
0.0
 40
0.0
 40
0.1844095697098984
 40
0.3495005370884404
 40
0.5197705331556404
 40
0.692707636080956
 40
0.871806172583405
 40
0.9999999999999999
 40
0.9999999999999999
 40
0.9999999999999999
 40
0.9999999999999999
 10
218.4393000398694
 20
133.523604794224
 30
0.0
 10
218.3359803688069
 20
133.4455320331364
 30
0.0
 10
218.1401647146357
 20
133.297565352367
 30
0.0
 10
217.8288965547582
 20
133.1615046570928
 30
0.0
 10
217.5143535426046
 20
133.1190640195538
 30
0.0
 10
217.1928712685961
 20
133.1884741356021
 30
0.0
 10
216.9093761429695
 20
133.336214812333
 30
0.0
 10
216.7380413593058
 20
133.4684429097003
 30
0.0
 10
216.6665652529446
 20
133.523604794224
 30
0.0
  0
SPLINE
  5
DB
330
1F
100
AcDbEntity
  8
0
  6
HIDDEN
 62
     7
370
     0
100
AcDbSpline
210
0.0
220
0.0
230
1.0
 70
     8
 71
     3
 72
    11
 73
     7
 74
     0
 42
0.000000001
 43
0.00000001
 40
0.0
 40
0.0
 40
0.0
 40
0.0
 40
0.2164543009644888
 40
0.44030899372253
 40
0.7518987489759573
 40
1.0
 40
1.0
 40
1.0
 40
1.0
 10
216.6665652529446
 20
133.523604794224
 30
0.0
 10
216.4706910890779
 20
133.433056743828
 30
0.0
 10
216.0722459872523
 20
133.2488648808076
 30
0.0
 10
215.3328365925393
 20
133.0953389757091
 30
0.0
 10
214.5396835331873
 20
133.1879003022197
 30
0.0
 10
214.0321119650808
 20
133.420498205014
 30
0.0
 10
213.8071143510061
 20
133.523604794224
 30
0.0
  0
SPLINE
  5
DC
330
1F
100
AcDbEntity
  8
0
  6
HIDDEN
 62
     7
370
     0
100
AcDbSpline
210
0.0
220
0.0
230
1.0
 70
     8
 71
     3
 72
    11
 73
     7
 74
     0
 42
0.000000001
 43
0.00000001
 40
0.0
 40
0.0
 40
0.0
 40
0.0
 40
0.2164543009645121
 40
0.4403089937225494
 40
0.7518987489759624
 40
1.0
 40
1.0
 40
1.0
 40
1.0
 10
213.8071143510061
 20
133.523604794224
 30
0.0
 10
213.7326736217583
 20
133.4330567438279
 30
0.0
 10
213.5812470968935
 20
133.2488648808076
 30
0.0
 10
213.3002392627382
 20
133.0953389757091
 30
0.0
 10
212.9988064909128
 20
133.1879003022197
 30
0.0
 10
212.8059071471227
 20
133.4204982050139
 30
0.0
 10
212.7203982359927
 20
133.523604794224
 30
0.0
  0
SPLINE
  5
DD
330
1F
100
AcDbEntity
  8
0
  6
HIDDEN
 62
     7
370
     0
100
AcDbSpline
210
0.0
220
0.0
230
1.0
 70
     8
 71
     3
 72
    11
 73
     7
 74
     0
 42
0.000000001
 43
0.00000001
 40
0.0
 40
0.0
 40
0.0
 40
0.0
 40
0.1285561766307151
 40
0.4801535797842222
 40
0.8150691831753859
 40
0.9999999999999999
 40
0.9999999999999999
 40
0.9999999999999999
 40
0.9999999999999999
 10
212.7203982359927
 20
133.523604794224
 30
0.0
 10
212.7917914901274
 20
133.4685043886137
 30
0.0
 10
213.0584432173618
 20
133.2627059766295
 30
0.0
 10
213.5584749277606
 20
133.064321929991
 30
0.0
 10
214.0999037938894
 20
133.2263262610111
 30
0.0
 10
214.3899511965168
 20
133.4456000587102
 30
0.0
 10
214.4931330229175
 20
133.523604794224
 30
0.0
  0
LINE
  5
DE
330
1F
100
AcDbEntity
  8
0
  6
HIDDEN
 62
     7
370
     0
100
AcDbLine
 10
213.6067656295
 20
125.6368534483
 30
0.0
 11
218.0798491379
 21
125.6368534483
 31
0.0
  0
LINE
  5
DF
330
1F
100
AcDbEntity
  8
0
  6
HIDDEN
 62
     7
370
     0
100
AcDbLine
 10
213.6067656295
 20
125.6368534483
 30
0.0
 11
213.0798491379
 21
125.6368534483
 31
0.0
  0
LINE
  5
E0
330
1F
100
AcDbEntity
  8
0
  6
HIDDEN
 62
     7
370
     0
100
AcDbLine
 10
215.9228584739
 20
126.6368534483
 30
0.0
 11
214.4931330229
 21
126.6368534483
 31
0.0
  0
LINE
  5
E1
330
1F
100
AcDbEntity
  8
0
  6
HIDDEN
 62
     7
370
     0
100
AcDbLine
 10
217.3525839249
 20
126.6368534483
 30
0.0
 11
215.9228584739
 21
126.6368534483
 31
0.0
  0
LINE
  5
E2
330
1F
100
AcDbEntity
  8
0
  6
HIDDEN
 62
     7
370
     0
100
AcDbLine
 10
214.4931330229
 20
126.6368534483
 30
0.0
 11
213.6067656295
 21
126.6368534483
 31
0.0
  0
LINE
  5
E3
330
1F
100
AcDbEntity
  8
0
  6
HIDDEN
 62
     7
370
     0
100
AcDbLine
 10
214.4931330229
 20
126.6368534483
 30
0.0
 11
214.4931330229
 21
133.5236047942
 31
0.0
  0
LINE
  5
E4
330
1F
100
AcDbEntity
  8
0
  6
HIDDEN
 62
     7
370
     0
100
AcDbLine
 10
217.8959419824
 20
126.6368534483
 30
0.0
 11
217.3525839249
 21
126.6368534483
 31
0.0
  0
LINE
  5
E5
330
1F
100
AcDbEntity
  8
0
  6
HIDDEN
 62
     7
370
     0
100
AcDbLine
 10
217.3525839249
 20
126.6368534483
 30
0.0
 11
217.3525839249
 21
133.5236047942
 31
0.0
  0
LINE
  5
E6
330
1F
100
AcDbEntity
  8
0
  6
HIDDEN
 62
     7
370
     0
100
AcDbLine
 10
213.6067656295
 20
126.6368534483
 30
0.0
 11
212.720398236
 21
126.6368534483
 31
0.0
  0
LINE
  5
E7
330
1F
100
AcDbEntity
  8
0
  6
HIDDEN
 62
     7
370
     0
100
AcDbLine
 10
218.4393000399
 20
126.6368534483
 30
0.0
 11
217.8959419824
 21
126.6368534483
 31
0.0
  0
LINE
  5
E8
330
1F
100
AcDbEntity
  8
0
  6
HIDDEN
 62
     7
370
     0
100
AcDbLine
 10
213.807114351
 20
126.6368534483
 30
0.0
 11
213.807114351
 21
133.5236047942
 31
0.0
  0
LINE
  5
E9
330
1F
100
AcDbEntity
  8
0
  6
HIDDEN
 62
     7
370
     0
100
AcDbLine
 10
212.720398236
 20
126.6368534483
 30
0.0
 11
212.720398236
 21
133.5236047942
 31
0.0
  0
LINE
  5
EA
330
1F
100
AcDbEntity
  8
0
  6
HIDDEN
 62
     7
370
     0
100
AcDbLine
 10
216.6665652529
 20
126.6368534483
 30
0.0
 11
216.6665652529
 21
133.5236047942
 31
0.0
  0
LINE
  5
EB
330
1F
100
AcDbEntity
  8
0
  6
HIDDEN
 62
     7
370
     0
100
AcDbLine
 10
218.4393000399
 20
126.6368534483
 30
0.0
 11
218.4393000399
 21
133.5236047942
 31
0.0
  0
SPLINE
  5
EC
330
1F
100
AcDbEntity
  8
0
  6
HIDDEN
 62
     7
370
     0
100
AcDbSpline
210
0.0
220
0.0
230
1.0
 70
     8
 71
     3
 72
     9
 73
     5
 74
     0
 42
0.000000001
 43
0.00000001
 40
0.0
 40
0.0
 40
0.0
 40
0.0
 40
0.3267154957258129
 40
1.0
 40
1.0
 40
1.0
 40
1.0
 10
195.2538165955419
 20
65.76309301210043
 30
0.0
 10
195.0970237222748
 20
65.80517523979513
 30
0.0
 10
194.6171172736418
 20
65.93397913261698
 30
0.0
 10
193.8629057400378
 20
66.10900577900411
 30
0.0
 10
193.3551068015174
 20
66.22684850785163
 30
0.0
  0
LWPOLYLINE
  5
ED
330
1F
100
AcDbEntity
  8
0
  6
HIDDEN
 62
     7
370
     0
100
AcDbPolyline
 90
       24
 70
   128
 43
0.0
 10
165.8992362498
 20
101.3576986457
 10
166.0739493767
 20
100.5602312338
 10
166.3418068436
 20
99.8219083316
 10
166.6829428875
 20
99.1974879713
 10
167.0720570085
 20
98.7332805544
 10
167.4802903925
 20
98.4637142214
 10
167.8773662368
 20
98.408781474
 10
168.2338352427
 20
98.5725564229
 10
168.5232597346
 20
98.9428926293
 10
168.724174422
 20
99.4923239509
 10
168.8216783818
 20
100.1801015801
 10
168.8085401912
 20
100.9552161965
 10
168.6857342497
 20
101.7601810949
 10
168.4623685123
 20
102.5352957113
 10
168.1550089937
 20
103.2230733405
 10
167.7864511436
 20
103.7725046621
 10
167.3840292115
 20
104.1428408684
 10
166.9775889912
 20
104.3066158173
 10
166.5972742945
 20
104.25168307
 10
166.2712913226
 20
103.982116737
 10
166.0238167413
 20
103.5179093201
 10
165.8732046082
 20
102.8934889598
 10
165.8306251361
 20
102.1551660576
 10
165.8992362498
 20
101.3576986457
  0
LWPOLYLINE
  5
EE
330
1F
100
AcDbEntity
  8
0
  6
HIDDEN
 62
     7
370
     0
100
AcDbPolyline
 90
       20
 70
   128
 43
0.0
 10
166.6121068384
 20
101.4137169639
 10
166.76886098
 20
100.7418924978
 10
167.0171487514
 20
100.142870637
 10
167.3300643199
 20
99.6815646949
 10
167.6736984283
 20
99.4079643283
 10
168.0108129889
 20
99.3517183822
 10
168.3048764082
 20
99.5189219777
 10
168.5240223519
 20
99.8914560107
 10
168.6445029565
 20
100.4289506383
 10
168.6532622792
 20
101.0731599775
 10
168.5493511113
 20
101.7542739504
 10
168.3440298403
 20
102.3984832896
 10
168.0595482117
 20
102.9359779172
 10
167.7267342243
 20
103.3085119502
 10
167.3816534376
 20
103.4757155457
 10
167.0617007095
 20
103.4194695996
 10
166.8015478825
 20
103.145869233
 10
166.6293865522
 20
102.6845632909
 10
166.5638730701
 20
102.0855414301
 10
166.6121068384
 20
101.4137169639
  0
SPLINE
  5
EF
330
1F
100
AcDbEntity
  8
0
  6
HIDDEN
 62
     7
370
     0
100
AcDbSpline
210
0.0
220
0.0
230
1.0
 70
    11
 71
     3
 72
    66
 73
    62
 74
     0
 42
0.000000001
 43
0.00000001
 40
0.0
 40
0.0
 40
0.0
 40
0.0
 40
0.0312500000000007
 40
0.0312500000000007
 40
0.0625000000000015
 40
0.0625000000000015
 40
0.0937500000000022
 40
0.0937500000000022
 40
0.125000000000003
 40
0.125000000000003
 40
0.1562500000000037
 40
0.1562500000000037
 40
0.1875000000000045
 40
0.1875000000000045
 40
0.2187500000000052
 40
0.2187500000000052
 40
0.2343750000000055
 40
0.2343750000000055
 40
0.2500000000000057
 40
0.2500000000000057
 40
0.2812500000000054
 40
0.2812500000000054
 40
0.3125000000000052
 40
0.3125000000000052
 40
0.3750000000000047
 40
0.3750000000000047
 40
0.4375000000000041
 40
0.4375000000000041
 40
0.4687500000000038
 40
0.4687500000000038
 40
0.5000000000000036
 40
0.5000000000000036
 40
0.5312500000000033
 40
0.5312500000000033
 40
0.562500000000003
 40
0.562500000000003
 40
0.5937500000000028
 40
0.5937500000000028
 40
0.6250000000000026
 40
0.6250000000000026
 40
0.6875000000000021
 40
0.6875000000000021
 40
0.7500000000000018
 40
0.7500000000000018
 40
0.7812500000000017
 40
0.7812500000000017
 40
0.8125000000000014
 40
0.8125000000000014
 40
0.8437500000000013
 40
0.8437500000000013
 40
0.8593750000000012
 40
0.8593750000000012
 40
0.875000000000001
 40
0.875000000000001
 40
0.9062500000000008
 40
0.9062500000000008
 40
0.9375000000000004
 40
0.9375000000000004
 40
0.9687500000000002
 40
0.9687500000000002
 40
1.0
 40
1.0
 40
1.0
 40
1.0
 10
183.4108740777114
 20
104.7308926228652
 30
0.0
 10
183.3712837900714
 20
104.8845061425562
 30
0.0
 10
183.3460227993899
 20
105.0367495701562
 30
0.0
 10
183.324877893375
 20
105.3388544869046
 30
0.0
 10
183.3295256054686
 20
105.4893346307465
 30
0.0
 10
183.3682192732543
 20
105.7717789040451
 30
0.0
 10
183.402516232349
 20
105.9072255990184
 30
0.0
 10
183.4968270182983
 20
106.1563689975953
 30
0.0
 10
183.5559735585916
 20
106.2688604146181
 30
0.0
 10
183.6943097432838
 20
106.4700273498533
 30
0.0
 10
183.7729462592346
 20
106.5572815060451
 30
0.0
 10
183.9374998112495
 20
106.6994911249944
 30
0.0
 10
184.0254345075112
 20
106.7559540528715
 30
0.0
 10
184.1930130538621
 20
106.830862968418
 30
0.0
 10
184.2736099306695
 20
106.8496728875291
 30
0.0
 10
184.368452296131
 20
106.8451050110558
 30
0.0
 10
184.395376601553
 20
106.8382307555769
 30
0.0
 10
184.4379052766042
 20
106.8141405877507
 30
0.0
 10
184.4533915656764
 20
106.796732935801
 30
0.0
 10
184.4808158923645
 20
106.7328405595144
 30
0.0
 10
184.4744532888323
 20
106.6736707887815
 30
0.0
 10
184.4318031532968
 20
106.5402509807262
 30
0.0
 10
184.3963075459999
 20
106.4656955699642
 30
0.0
 10
184.2677701988299
 20
106.2233388386924
 30
0.0
 10
184.1565967793911
 20
106.0421468625332
 30
0.0
 10
183.9278709637688
 20
105.6384484194962
 30
0.0
 10
183.8068057801619
 20
105.4124237541831
 30
0.0
 10
183.6386918056096
 20
105.0338920172519
 30
0.0
 10
183.5843515889838
 20
104.8998135130586
 30
0.0
 10
183.4857265147429
 20
104.6176335667082
 30
0.0
 10
183.4417236731807
 20
104.4709348939379
 30
0.0
 10
183.3709372456287
 20
104.1605181125452
 30
0.0
 10
183.3457470991731
 20
104.0020136828077
 30
0.0
 10
183.3248331248082
 20
103.6906501082082
 30
0.0
 10
183.3297949665611
 20
103.542931729579
 30
0.0
 10
183.367969084919
 20
103.279429730607
 30
0.0
 10
183.4008054106183
 20
103.1648908115686
 30
0.0
 10
183.4815378729305
 20
102.9739251151
 30
0.0
 10
183.5296395798723
 20
102.8957414271336
 30
0.0
 10
183.6860819765897
 20
102.7019462491941
 30
0.0
 10
183.802871436334
 20
102.6281710951663
 30
0.0
 10
184.0379284084173
 20
102.5451221383856
 30
0.0
 10
184.1537259953767
 20
102.53797874547
 30
0.0
 10
184.3044266990856
 20
102.5697527628998
 30
0.0
 10
184.350746486841
 20
102.5876502148984
 30
0.0
 10
184.4268296977012
 20
102.6412497352899
 30
0.0
 10
184.4562158532036
 20
102.6767689058543
 30
0.0
 10
184.4796768864315
 20
102.7708782806572
 30
0.0
 10
184.4726372426254
 20
102.8299987544715
 30
0.0
 10
184.4236395457457
 20
102.939905983889
 30
0.0
 10
184.4007865011679
 20
102.9805492091962
 30
0.0
 10
184.3454439834961
 20
103.0668566930502
 30
0.0
 10
184.312854848069
 20
103.1128981963069
 30
0.0
 10
184.2040563732087
 20
103.2606770045066
 30
0.0
 10
184.1194356515566
 20
103.3691456068248
 30
0.0
 10
183.949247422752
 20
103.6031924694701
 30
0.0
 10
183.8626173478062
 20
103.7302034342111
 30
0.0
 10
183.7035013464655
 20
103.995889395684
 30
0.0
 10
183.6291874521766
 20
104.137466308259
 30
0.0
 10
183.5028586304313
 20
104.4281971340766
 30
0.0
 10
183.4504643653513
 20
104.5772791031742
 30
0.0
 10
183.4108740777114
 20
104.7308926228652
 30
0.0
  0
SPLINE
  5
F0
330
1F
100
AcDbEntity
  8
0
  6
HIDDEN
 62
     7
370
     0
100
AcDbSpline
210
0.0
220
0.0
230
1.0
 70
    11
 71
     3
 72
    66
 73
    62
 74
     0
 42
0.000000001
 43
0.00000001
 40
0.0
 40
0.0
 40
0.0
 40
0.0
 40
0.03125
 40
0.03125
 40
0.0625000000000001
 40
0.0625000000000001
 40
0.0937500000000001
 40
0.0937500000000001
 40
0.1250000000000002
 40
0.1250000000000002
 40
0.1562500000000002
 40
0.1562500000000002
 40
0.1875000000000002
 40
0.1875000000000002
 40
0.2187500000000003
 40
0.2187500000000003
 40
0.2500000000000003
 40
0.2500000000000003
 40
0.2812500000000004
 40
0.2812500000000004
 40
0.3125000000000004
 40
0.3125000000000004
 40
0.3437500000000004
 40
0.3437500000000004
 40
0.3750000000000005
 40
0.3750000000000005
 40
0.4062500000000006
 40
0.4062500000000006
 40
0.4375000000000006
 40
0.4375000000000006
 40
0.4687500000000006
 40
0.4687500000000006
 40
0.5000000000000007
 40
0.5000000000000007
 40
0.5312500000000007
 40
0.5312500000000007
 40
0.5625000000000008
 40
0.5625000000000008
 40
0.6250000000000003
 40
0.6250000000000003
 40
0.6562500000000002
 40
0.6562500000000002
 40
0.6875
 40
0.6875
 40
0.7187499999999999
 40
0.7187499999999999
 40
0.7499999999999997
 40
0.7499999999999997
 40
0.7812499999999994
 40
0.7812499999999994
 40
0.8124999999999993
 40
0.8124999999999993
 40
0.8437499999999991
 40
0.8437499999999991
 40
0.8749999999999989
 40
0.8749999999999989
 40
0.9374999999999992
 40
0.9374999999999992
 40
0.9687499999999997
 40
0.9687499999999997
 40
1.0
 40
1.0
 40
1.0
 40
1.0
 10
185.829849137931
 20
112.2494899254337
 30
0.0
 10
185.6567984722607
 20
112.2494899254337
 30
0.0
 10
185.4891038182534
 20
112.2594494301703
 30
0.0
 10
185.162642268133
 20
112.2987321297256
 30
0.0
 10
185.0036844216723
 20
112.3285160364399
 30
0.0
 10
184.7077307244583
 20
112.4067683241294
 30
0.0
 10
184.5673596641128
 20
112.4559443952676
 30
0.0
 10
184.3060473833053
 20
112.5745008320982
 30
0.0
 10
184.1854078762862
 20
112.6434840311445
 30
0.0
 10
183.9619598304429
 20
112.8044032276441
 30
0.0
 10
183.8591565831769
 20
112.8968665399537
 30
0.0
 10
183.6794428984595
 20
113.1016976803904
 30
0.0
 10
183.6013504696444
 20
113.2147232048918
 30
0.0
 10
183.4706999775775
 20
113.4664659446783
 30
0.0
 10
183.4186491967992
 20
113.6057053515641
 30
0.0
 10
183.3489867483483
 20
113.8982809139655
 30
0.0
 10
183.3304142132785
 20
114.0557246460373
 30
0.0
 10
183.3293100755778
 20
114.3770959634245
 30
0.0
 10
183.3461551153796
 20
114.5402331791794
 30
0.0
 10
183.4142407191857
 20
114.8711469426775
 30
0.0
 10
183.46470412428
 20
115.0343286263343
 30
0.0
 10
183.5937526873331
 20
115.3506775127784
 30
0.0
 10
183.67319570097
 20
115.5053092943008
 30
0.0
 10
183.8532535274687
 20
115.7949853306343
 30
0.0
 10
183.9549082568157
 20
115.9322578006313
 30
0.0
 10
184.1789221343266
 20
116.1881699650124
 30
0.0
 10
184.2994059312679
 20
116.3049026760539
 30
0.0
 10
184.5589223598606
 20
116.5159588058489
 30
0.0
 10
184.6994771139472
 20
116.6110835693613
 30
0.0
 10
184.9957706163065
 20
116.7697759170564
 30
0.0
 10
185.1511844127765
 20
116.8336771125571
 30
0.0
 10
185.4816417904729
 20
116.9234209280264
 30
0.0
 10
185.6512735959328
 20
116.9473239021331
 30
0.0
 10
185.9947229102964
 20
116.948557548699
 30
0.0
 10
186.1666236199766
 20
116.9253876279984
 30
0.0
 10
186.4951530946906
 20
116.8383609400901
 30
0.0
 10
186.6542194920859
 20
116.7740621026992
 30
0.0
 10
187.0977982059436
 20
116.5391356550981
 30
0.0
 10
187.361538124186
 20
116.3223679456667
 30
0.0
 10
187.6965319510115
 20
115.9426483554422
 30
0.0
 10
187.7996952984959
 20
115.8045939223041
 30
0.0
 10
187.9808450107676
 20
115.5155780192764
 30
0.0
 10
188.0593470681557
 20
115.3644684261285
 30
0.0
 10
188.1903347720026
 20
115.0479375103772
 30
0.0
 10
188.2418107961618
 20
114.8836899707389
 30
0.0
 10
188.3108375637577
 20
114.5581018428889
 30
0.0
 10
188.3293106066606
 20
114.3931778359915
 30
0.0
 10
188.3303642852467
 20
114.0691675538089
 30
0.0
 10
188.3132695154722
 20
113.9145411571051
 30
0.0
 10
188.2454223135595
 20
113.6190834004678
 30
0.0
 10
188.1944015889953
 20
113.4793891140953
 30
0.0
 10
188.0652105739536
 20
113.2256608769958
 30
0.0
 10
187.985691537718
 20
113.1088188357069
 30
0.0
 10
187.8049522392992
 20
112.9010172472914
 30
0.0
 10
187.7037466925997
 20
112.8093541717619
 30
0.0
 10
187.3672906040746
 20
112.5652239732172
 30
0.0
 10
187.1084675616154
 20
112.4487898887241
 30
0.0
 10
186.6604714524413
 20
112.3293830105173
 30
0.0
 10
186.504532759082
 20
112.2999015582679
 30
0.0
 10
186.1753988967824
 20
112.2597676576521
 30
0.0
 10
186.0028998036014
 20
112.2494899254337
 30
0.0
 10
185.829849137931
 20
112.2494899254337
 30
0.0
  0
LINE
  5
F1
330
1F
100
AcDbEntity
  8
0
  6
HIDDEN
 62
     7
370
     0
100
AcDbLine
 10
211.4226030247
 20
134.9652282556
 30
0.0
 11
211.8030869984
 21
134.9093494654
 31
0.0
  0
LINE
  5
F2
330
1F
100
AcDbEntity
  8
0
  6
HIDDEN
 62
     7
370
     0
100
AcDbLine
 10
165.6298491379
 20
150.6868534483
 30
0.0
 11
165.8014220132
 21
150.6868534483
 31
0.0
  0
ELLIPSE
  5
F3
330
1F
100
AcDbEntity
  8
0
  6
HIDDEN
 62
     7
370
     0
100
AcDbEllipse
 10
165.8014220132
 20
152.6868534483
 30
0.0
 11
0.0
 21
2.0
 31
0.0
210
0.0
220
0.0
230
1.0
 40
0.4142135624
 41
3.141592653589793
 42
4.712388980384695
  0
ELLIPSE
  5
F4
330
1F
100
AcDbEntity
  8
0
  6
HIDDEN
 62
     7
370
     0
100
AcDbEllipse
 10
165.8014220132
 20
78.0868534483
 30
0.0
 11
0.0
 21
2.0
 31
0.0
210
0.0
220
0.0
230
1.0
 40
0.4142135624
 41
4.712388980384695
 42
6.283185307179586
  0
LINE
  5
F5
330
1F
100
AcDbEntity
  8
0
  6
HIDDEN
 62
     7
370
     0
100
AcDbLine
 10
165.8014220132
 20
80.0868534483
 30
0.0
 11
165.6298491379
 21
80.0868534483
 31
0.0
  0
LINE
  5
F6
330
1F
100
AcDbEntity
  8
0
  6
HIDDEN
 62
     7
370
     0
100
AcDbLine
 10
166.6298491379
 20
68.0662832944
 30
0.0
 11
166.015985558
 21
67.4524197144
 31
0.0
  0
LINE
  5
F7
330
1F
100
AcDbEntity
  8
0
  6
HIDDEN
 62
     7
370
     0
100
AcDbLine
 10
166.015985558
 20
163.3212871821
 30
0.0
 11
166.6298491379
 21
162.7074236022
 31
0.0
  0
LINE
  5
F8
330
1F
100
AcDbEntity
  8
0
  6
HIDDEN
 62
     7
370
     0
100
AcDbLine
 10
182.7798491379
 20
80.0868534483
 30
0.0
 11
165.8014220132
 21
80.0868534483
 31
0.0
  0
LINE
  5
F9
330
1F
100
AcDbEntity
  8
0
  6
HIDDEN
 62
     7
370
     0
100
AcDbLine
 10
193.6298491379
 20
80.0868534483
 30
0.0
 11
182.7798491379
 21
80.0868534483
 31
0.0
  0
SPLINE
  5
FA
330
1F
100
AcDbEntity
  8
0
  6
HIDDEN
 62
     7
370
     0
100
AcDbSpline
210
0.0
220
0.0
230
1.0
 70
     8
 71
     3
 72
    14
 73
    10
 74
     0
 42
0.000000001
 43
0.00000001
 40
0.0
 40
0.0
 40
0.0
 40
0.0
 40
0.1878282877378226
 40
0.3545816312771876
 40
0.500302431933891
 40
0.6713282049362227
 40
0.837642206038437
 40
0.9994166164999645
 40
1.0
 40
1.0
 40
1.0
 40
1.0
 10
192.7141488748178
 20
163.5928750502179
 30
0.0
 10
193.0471517971648
 20
163.6744229876695
 30
0.0
 10
193.6757936319384
 20
163.8283689190154
 30
0.0
 10
194.3752302038662
 20
164.0193476371325
 30
0.0
 10
194.9231073033556
 20
164.176719924202
 30
0.0
 10
195.3292228975002
 20
164.2950453602234
 30
0.0
 10
195.5623507901822
 20
164.3654223748423
 30
0.0
 10
195.6563401767651
 20
164.3950567261157
 30
0.0
 10
195.6296572836259
 20
164.3867942005149
 30
0.0
 10
195.6295614067406
 20
164.3867645116346
 30
0.0
  0
LINE
  5
FB
330
1F
100
AcDbEntity
  8
0
  6
HIDDEN
 62
     7
370
     0
100
AcDbLine
 10
193.2134830835
 20
163.7171890493
 30
0.0
 11
192.7141445864
 21
163.5929197046
 31
0.0
  0
LINE
  5
FC
330
1F
100
AcDbEntity
  8
0
  6
HIDDEN
 62
     7
370
     0
100
AcDbLine
 10
178.8624181745
 20
68.0662832944
 30
0.0
 11
166.6298491379
 21
68.0662832944
 31
0.0
  0
LINE
  5
FD
330
1F
100
AcDbEntity
  8
0
  6
HIDDEN
 62
     7
370
     0
100
AcDbLine
 10
166.6298491379
 20
68.0662832944
 30
0.0
 11
166.6298491379
 21
78.0868534483
 31
0.0
  0
SPLINE
  5
FE
330
1F
100
AcDbEntity
  8
0
  6
HIDDEN
 62
     7
370
     0
100
AcDbSpline
210
0.0
220
0.0
230
1.0
 70
     8
 71
     3
 72
    13
 73
     9
 74
     0
 42
0.000000001
 43
0.00000001
 40
0.0
 40
0.0
 40
0.0
 40
0.0
 40
0.0005825290635634
 40
0.1623661983695077
 40
0.328738549447489
 40
0.499871825213266
 40
0.7262528256364211
 40
1.0
 40
1.0
 40
1.0
 40
1.0
 10
195.6294149805373
 20
66.38698625493508
 30
0.0
 10
195.6295597665722
 20
66.38694191274178
 30
0.0
 10
195.6699154492958
 20
66.37458257514977
 30
0.0
 10
195.5557608423988
 20
66.41021166114933
 30
0.0
 10
195.3316437347113
 20
66.47805962406021
 30
0.0
 10
194.8523348437218
 20
66.61715279821348
 30
0.0
 10
194.0588271860718
 20
66.84739937898027
 30
0.0
 10
193.1898093135925
 20
67.06288494974471
 30
0.0
 10
192.7141488748178
 20
67.18083184633387
 30
0.0
  0
LINE
  5
FF
330
1F
100
AcDbEntity
  8
0
  6
HIDDEN
 62
     7
370
     0
100
AcDbLine
 10
165.8014220132
 20
150.6868534483
 30
0.0
 11
182.7798491379
 21
150.6868534483
 31
0.0
  0
LINE
  5
100
330
1F
100
AcDbEntity
  8
0
  6
HIDDEN
 62
     7
370
     0
100
AcDbLine
 10
182.7798491379
 20
150.6868534483
 30
0.0
 11
193.6298491379
 21
150.6868534483
 31
0.0
  0
LINE
  5
101
330
1F
100
AcDbEntity
  8
0
  6
HIDDEN
 62
     7
370
     0
100
AcDbLine
 10
166.6298491379
 20
162.7074236022
 30
0.0
 11
178.8624181745
 21
162.7074236022
 31
0.0
  0
LINE
  5
102
330
1F
100
AcDbEntity
  8
0
  6
HIDDEN
 62
     7
370
     0
100
AcDbLine
 10
166.6298491379
 20
162.7074236022
 30
0.0
 11
166.6298491379
 21
152.6868534483
 31
0.0
  0
LINE
  5
103
330
1F
100
AcDbEntity
  8
0
  6
HIDDEN
 62
     7
370
     0
100
AcDbLine
 10
70.8298491379
 20
102.8868534483
 30
0.0
 11
70.8298491379
 21
127.8868534483
 31
0.0
  0
LINE
  5
104
330
1F
100
AcDbEntity
  8
0
  6
HIDDEN
 62
     7
370
     0
100
AcDbLine
 10
74.1144534869
 20
104.8868534483
 30
0.0
 11
74.1144534869
 21
125.8868534483
 31
0.0
  0
LINE
  5
105
330
1F
100
AcDbEntity
  8
0
  6
HIDDEN
 62
     7
370
     0
100
AcDbLine
 10
199.1298491379
 20
115.3868534483
 30
0.0
 11
199.1298491379
 21
104.8868534483
 31
0.0
  0
LINE
  5
106
330
1F
100
AcDbEntity
  8
0
  6
HIDDEN
 62
     7
370
     0
100
AcDbLine
 10
199.1298491379
 20
125.8868534483
 30
0.0
 11
199.1298491379
 21
115.3868534483
 31
0.0
  0
LINE
  5
107
330
1F
100
AcDbEntity
  8
0
  6
HIDDEN
 62
     7
370
     0
100
AcDbLine
 10
202.9958745417
 20
115.3868534483
 30
0.0
 11
202.9958745417
 21
104.3868534483
 31
0.0
  0
LINE
  5
108
330
1F
100
AcDbEntity
  8
0
  6
HIDDEN
 62
     7
370
     0
100
AcDbLine
 10
202.9958745417
 20
126.3868534483
 30
0.0
 11
202.9958745417
 21
115.3868534483
 31
0.0
  0
SPLINE
  5
109
330
1F
100
AcDbEntity
  8
0
  6
HIDDEN
 62
     7
370
     0
100
AcDbSpline
210
0.0
220
0.0
230
1.0
 70
     8
 71
     3
 72
    23
 73
    19
 74
     0
 42
0.000000001
 43
0.00000001
 40
0.0
 40
0.0
 40
0.0
 40
0.0
 40
0.0496379100584469
 40
0.150719178164537
 40
0.2022728257491685
 40
0.2519055354140376
 40
0.3527220019295735
 40
0.4039851185790542
 40
0.4563101469956966
 40
0.56259568566216
 40
0.6166735122522571
 40
0.6710090739617406
 40
0.7257454565572926
 40
0.781794521876474
 40
0.838320685966419
 40
0.8898723053993939
 40
0.994937942050208
 40
0.9999999999999999
 40
0.9999999999999999
 40
0.9999999999999999
 40
0.9999999999999999
 10
215.579849137931
 20
125.4242833982182
 30
0.0
 10
215.6980648458014
 20
125.425543898973
 30
0.0
 10
216.0570117538273
 20
125.4293712486262
 30
0.0
 10
216.5342291681742
 20
125.4650565307088
 30
0.0
 10
216.9943752142714
 20
125.5215669806443
 30
0.0
 10
217.440346215171
 20
125.5912676711266
 30
0.0
 10
217.862196762239
 20
125.6772790128763
 30
0.0
 10
218.2573011307367
 20
125.7739764978098
 30
0.0
 10
218.6389193851483
 20
125.8773713471951
 30
0.0
 10
218.9857629758432
 20
125.9846022762135
 30
0.0
 10
219.2877705494985
 20
126.0866208219012
 30
0.0
 10
219.4914190256613
 20
126.1590348672209
 30
0.0
 10
219.6695502657671
 20
126.225117642932
 30
0.0
 10
219.8194431424143
 20
126.2826778167829
 30
0.0
 10
219.9353285190856
 20
126.328410083986
 30
0.0
 10
220.0412426320218
 20
126.3709797828812
 30
0.0
 10
220.0886092661473
 20
126.3904336890628
 30
0.0
 10
220.0789000718223
 20
126.3864656562813
 30
0.0
 10
220.0784537853138
 20
126.3862832642685
 30
0.0
  0
SPLINE
  5
10A
330
1F
100
AcDbEntity
  8
0
  6
HIDDEN
 62
     7
370
     0
100
AcDbSpline
210
0.0
220
0.0
230
1.0
 70
     8
 71
     3
 72
    23
 73
    19
 74
     0
 42
0.000000001
 43
0.00000001
 40
0.0
 40
0.0
 40
0.0
 40
0.0
 40
0.0776728694925419
 40
0.1296683099425242
 40
0.1781666082216664
 40
0.2767003291562135
 40
0.3268191917232778
 40
0.3775380533532962
 40
0.4805116525365543
 40
0.5328573792006063
 40
0.5867946648237725
 40
0.6411020412243089
 40
0.6966026960975992
 40
0.7525328618150768
 40
0.8058480527596305
 40
0.914576078933747
 40
0.9701868906433403
 40
1.0
 40
1.0
 40
1.0
 40
1.0
 10
211.0905325728738
 20
126.3824938492055
 30
0.0
 10
211.0922927494811
 20
126.3817599236128
 30
0.0
 10
211.0952312159926
 20
126.3805346966856
 30
0.0
 10
211.1693294839582
 20
126.3504777368017
 30
0.0
 10
211.2822988296538
 20
126.3053478499697
 30
0.0
 10
211.447757221844
 20
126.2408357274136
 30
0.0
 10
211.6627762148668
 20
126.1611102742873
 30
0.0
 10
211.9146559537417
 20
126.0712750999031
 30
0.0
 10
212.2165579200214
 20
125.9706815974192
 30
0.0
 10
212.565083648615
 20
125.8661461211167
 30
0.0
 10
212.8534300972968
 20
125.7866198564497
 30
0.0
 10
213.1673740912832
 20
125.7085182074907
 30
0.0
 10
213.5038066477144
 20
125.6348358541304
 30
0.0
 10
213.8550516858026
 20
125.5693856122102
 30
0.0
 10
214.3381958142245
 20
125.495725146805
 30
0.0
 10
214.8447841498719
 20
125.4456066328362
 30
0.0
 10
215.3054073776718
 20
125.4260470545483
 30
0.0
 10
215.5088479833489
 20
125.4247396758474
 30
0.0
 10
215.579849137931
 20
125.4242833982182
 30
0.0
  0
LINE
  5
10B
330
1F
100
AcDbEntity
  8
0
  6
HIDDEN
 62
     7
370
     0
100
AcDbLine
 10
123.8298491379
 20
104.8868534483
 30
0.0
 11
123.8298491379
 21
125.8868534483
 31
0.0
  0
LINE
  5
10C
330
1F
100
AcDbEntity
  8
0
  6
HIDDEN
 62
     7
370
     0
100
AcDbLine
 10
128.095959533
 20
111.9868534483
 30
0.0
 11
128.095959533
 21
118.7868534483
 31
0.0
  0
SPLINE
  5
10D
330
1F
100
AcDbEntity
  8
0
  6
HIDDEN
 62
     7
370
     0
100
AcDbSpline
210
0.0
220
0.0
230
1.0
 70
     8
 71
     3
 72
     9
 73
     5
 74
     0
 42
0.000000001
 43
0.00000001
 40
0.0
 40
0.0
 40
0.0
 40
0.0
 40
0.4951995007203773
 40
1.0
 40
1.0
 40
1.0
 40
1.0
 10
192.7141333523682
 20
163.5928656126886
 30
0.0
 10
192.8193295740928
 20
163.7500213729413
 30
0.0
 10
193.0317615768949
 20
164.0673798517446
 30
0.0
 10
193.2464799604091
 20
164.3860063998475
 30
0.0
 10
193.3548699076116
 20
164.5468492404137
 30
0.0
  0
SPLINE
  5
10E
330
1F
100
AcDbEntity
  8
0
  6
HIDDEN
 62
     7
370
     0
100
AcDbSpline
210
0.0
220
0.0
230
1.0
 70
     8
 71
     3
 72
     9
 73
     5
 74
     0
 42
0.000000001
 43
0.00000001
 40
0.0
 40
0.0
 40
0.0
 40
0.0
 40
0.5048004990382029
 40
1.0
 40
1.0
 40
1.0
 40
1.0
 10
193.3548699076116
 20
66.22685765613805
 30
0.0
 10
193.2464799604639
 20
66.38770049662051
 30
0.0
 10
193.0317615769554
 20
66.70632704471016
 30
0.0
 10
192.8193295741471
 20
67.02368552352699
 30
0.0
 10
192.7141333523682
 20
67.18084128386309
 30
0.0
  0
LINE
  5
10F
330
1F
100
AcDbEntity
  8
0
  6
HIDDEN
 62
     7
370
     0
100
AcDbLine
 10
215.5798491379
 20
133.6368534483
 30
0.0
 11
220.0798491379
 21
133.6368534483
 31
0.0
  0
LINE
  5
110
330
1F
100
AcDbEntity
  8
0
  6
HIDDEN
 62
     7
370
     0
100
AcDbLine
 10
211.0798491379
 20
133.6368534483
 30
0.0
 11
215.5798491379
 21
133.6368534483
 31
0.0
  0
SPLINE
  5
111
330
1F
100
AcDbEntity
  8
0
  6
HIDDEN
 62
     7
370
     0
100
AcDbSpline
210
0.0
220
0.0
230
1.0
 70
    11
 71
     3
 72
    66
 73
    62
 74
     0
 42
0.000000001
 43
0.00000001
 40
0.0
 40
0.0
 40
0.0
 40
0.0
 40
0.03125
 40
0.03125
 40
0.0625
 40
0.0625
 40
0.09375
 40
0.09375
 40
0.125
 40
0.125
 40
0.15625
 40
0.15625
 40
0.1875000000000001
 40
0.1875000000000001
 40
0.2187500000000001
 40
0.2187500000000001
 40
0.2500000000000001
 40
0.2500000000000001
 40
0.2812500000000001
 40
0.2812500000000001
 40
0.3125000000000001
 40
0.3125000000000001
 40
0.3437500000000002
 40
0.3437500000000002
 40
0.3750000000000002
 40
0.3750000000000002
 40
0.4062500000000003
 40
0.4062500000000003
 40
0.4375000000000003
 40
0.4375000000000003
 40
0.4687500000000004
 40
0.4687500000000004
 40
0.5000000000000004
 40
0.5000000000000004
 40
0.5312500000000004
 40
0.5312500000000004
 40
0.5625000000000004
 40
0.5625000000000004
 40
0.625
 40
0.625
 40
0.65625
 40
0.65625
 40
0.6875
 40
0.6875
 40
0.71875
 40
0.71875
 40
0.75
 40
0.75
 40
0.78125
 40
0.78125
 40
0.8125
 40
0.8125
 40
0.84375
 40
0.84375
 40
0.875
 40
0.875
 40
0.9375
 40
0.9375
 40
0.96875
 40
0.96875
 40
1.0
 40
1.0
 40
1.0
 40
1.0
 10
185.829849137931
 20
113.8257538671885
 30
0.0
 10
186.0028998036014
 20
113.8257538671885
 30
0.0
 10
186.1705944576087
 20
113.8491154022475
 30
0.0
 10
186.4970560077291
 20
113.936110408225
 30
0.0
 10
186.6560138541898
 20
114.0004273352935
 30
0.0
 10
186.9519675514038
 20
114.1575069356772
 30
0.0
 10
187.0923386117493
 20
114.2516482676494
 30
0.0
 10
187.3536508925568
 20
114.4626837655447
 30
0.0
 10
187.4742903995759
 20
114.5790027010205
 30
0.0
 10
187.6977384454192
 20
114.8325699154655
 30
0.0
 10
187.8005416926852
 20
114.9704387901741
 30
0.0
 10
187.9802553774026
 20
115.2572127463704
 30
0.0
 10
188.0583478062177
 20
115.4072897818965
 30
0.0
 10
188.1889982982846
 20
115.7220820536259
 30
0.0
 10
188.2410490790629
 20
115.8870914590337
 30
0.0
 10
188.3107115275138
 20
116.2143515998972
 30
0.0
 10
188.3292840625836
 20
116.3811774049243
 30
0.0
 10
188.3303882002843
 20
116.7031040700059
 30
0.0
 10
188.3135431604825
 20
116.8577261285527
 30
0.0
 10
188.2454575566764
 20
117.1547168541885
 30
0.0
 10
188.1949941515821
 20
117.2928869029103
 30
0.0
 10
188.065945588529
 20
117.5468668360028
 30
0.0
 10
187.9865025748921
 20
117.663742238714
 30
0.0
 10
187.8064447483934
 20
117.8711843022487
 30
0.0
 10
187.7047900190465
 20
117.9634646807863
 30
0.0
 10
187.4807761415355
 20
118.126268237736
 30
0.0
 10
187.3602923445942
 20
118.1956229165875
 30
0.0
 10
187.1007759160015
 20
118.3144723394837
 30
0.0
 10
186.960221161915
 20
118.3643053725931
 30
0.0
 10
186.6639276595556
 20
118.4435253569554
 30
0.0
 10
186.5085138630856
 20
118.4731743529959
 30
0.0
 10
186.1780564853892
 20
118.5137578219386
 30
0.0
 10
186.0084246799293
 20
118.5239440403271
 30
0.0
 10
185.6649753655658
 20
118.5244792264421
 30
0.0
 10
185.4930746558855
 20
118.5146080236584
 30
0.0
 10
185.1645451811715
 20
118.4753287349474
 30
0.0
 10
185.0054787837762
 20
118.4455614922366
 30
0.0
 10
184.5619000699185
 20
118.3285855171716
 30
0.0
 10
184.2981601516761
 20
118.2111746361548
 30
0.0
 10
183.9631663248506
 20
117.9702957568469
 30
0.0
 10
183.8600029773662
 20
117.8777816788539
 30
0.0
 10
183.6788532650945
 20
117.6713605074822
 30
0.0
 10
183.6003512077064
 20
117.5575092210187
 30
0.0
 10
183.4693635038596
 20
117.3042067287323
 30
0.0
 10
183.4178874797004
 20
117.1654538766634
 30
0.0
 10
183.3488607121045
 20
116.8742367570916
 30
0.0
 10
183.3303876692015
 20
116.7186439456783
 30
0.0
 10
183.3293339906155
 20
116.3951636319174
 30
0.0
 10
183.3464287603899
 20
116.2318972661582
 30
0.0
 10
183.4142759623026
 20
115.902636253854
 30
0.0
 10
183.4652966868668
 20
115.7376565173645
 30
0.0
 10
183.5944877019085
 20
115.4214995040811
 30
0.0
 10
183.6740067381442
 20
115.2668687005645
 30
0.0
 10
183.8547460365629
 20
114.9765474113987
 30
0.0
 10
183.9559515832624
 20
114.8401076819493
 30
0.0
 10
184.2924076717875
 20
114.4561931444134
 30
0.0
 10
184.5512307142467
 20
114.2416183793956
 30
0.0
 10
184.9992268234208
 20
114.0022844256698
 30
0.0
 10
185.1551655167801
 20
113.9386572160182
 30
0.0
 10
185.4842993790797
 20
113.8498615744077
 30
0.0
 10
185.6567984722607
 20
113.8257538671885
 30
0.0
 10
185.829849137931
 20
113.8257538671885
 30
0.0
  0
SPLINE
  5
112
330
1F
100
AcDbEntity
  8
0
  6
HIDDEN
 62
     7
370
     0
100
AcDbSpline
210
0.0
220
0.0
230
1.0
 70
    11
 71
     3
 72
    66
 73
    62
 74
     0
 42
0.000000001
 43
0.00000001
 40
0.0
 40
0.0
 40
0.0
 40
0.0
 40
0.0312499999999998
 40
0.0312499999999998
 40
0.0624999999999996
 40
0.0624999999999996
 40
0.0937499999999994
 40
0.0937499999999994
 40
0.1249999999999991
 40
0.1249999999999991
 40
0.1562499999999989
 40
0.1562499999999989
 40
0.1874999999999987
 40
0.1874999999999987
 40
0.2187499999999985
 40
0.2187499999999985
 40
0.2499999999999983
 40
0.2499999999999983
 40
0.2812499999999981
 40
0.2812499999999981
 40
0.3124999999999978
 40
0.3124999999999978
 40
0.3437499999999976
 40
0.3437499999999976
 40
0.3749999999999974
 40
0.3749999999999974
 40
0.4062499999999972
 40
0.4062499999999972
 40
0.437499999999997
 40
0.437499999999997
 40
0.4687499999999968
 40
0.4687499999999968
 40
0.4999999999999966
 40
0.4999999999999966
 40
0.5312499999999963
 40
0.5312499999999963
 40
0.5624999999999961
 40
0.5624999999999961
 40
0.6249999999999959
 40
0.6249999999999959
 40
0.6562499999999962
 40
0.6562499999999962
 40
0.6874999999999966
 40
0.6874999999999966
 40
0.7187499999999969
 40
0.7187499999999969
 40
0.7499999999999972
 40
0.7499999999999972
 40
0.7812499999999977
 40
0.7812499999999977
 40
0.812499999999998
 40
0.812499999999998
 40
0.8437499999999983
 40
0.8437499999999983
 40
0.8749999999999987
 40
0.8749999999999987
 40
0.906249999999999
 40
0.906249999999999
 40
0.9374999999999993
 40
0.9374999999999993
 40
1.0
 40
1.0
 40
1.0
 40
1.0
 10
185.8298491379311
 20
127.5483076551897
 30
0.0
 10
185.6646488472672
 20
127.5483076551896
 30
0.0
 10
185.5022163059706
 20
127.5638732464716
 30
0.0
 10
185.1826581503807
 20
127.6248195183012
 30
0.0
 10
185.0238748124036
 20
127.6709415622865
 30
0.0
 10
184.7211367959242
 20
127.7912047498745
 30
0.0
 10
184.5775576307899
 20
127.8647483992952
 30
0.0
 10
184.3058279009219
 20
128.0382653222275
 30
0.0
 10
184.1771993373841
 20
128.1391379790141
 30
0.0
 10
183.9466335757169
 20
128.3591227679123
 30
0.0
 10
183.8431595744676
 20
128.4790019315011
 30
0.0
 10
183.6603990365418
 20
128.7388432980986
 30
0.0
 10
183.5827547803132
 20
128.8769327286709
 30
0.0
 10
183.4580621296231
 20
129.161915160919
 30
0.0
 10
183.4100581490447
 20
129.3109102702615
 30
0.0
 10
183.3458264067264
 20
129.6154353576562
 30
0.0
 10
183.3299369626842
 20
129.7682047050927
 30
0.0
 10
183.329762032329
 20
130.0746943867067
 30
0.0
 10
183.345992683664
 20
130.2300211570018
 30
0.0
 10
183.4097739063735
 20
130.5300833629003
 30
0.0
 10
183.4569660177698
 20
130.6756180753995
 30
0.0
 10
183.5821326354277
 20
130.9577513557214
 30
0.0
 10
183.6603921228027
 20
131.0938911970761
 30
0.0
 10
183.8413123061581
 20
131.3454277468456
 30
0.0
 10
183.944597535082
 20
131.4624545906889
 30
0.0
 10
184.1778492771307
 20
131.6785298843104
 30
0.0
 10
184.3042631453963
 20
131.7742338081958
 30
0.0
 10
184.5749354160909
 20
131.9413868049674
 30
0.0
 10
184.7210171882552
 20
132.0135479905904
 30
0.0
 10
185.023901633728
 20
132.1292020325469
 30
0.0
 10
185.1797319933678
 20
132.1727348397296
 30
0.0
 10
185.5000774826332
 20
132.231630742663
 30
0.0
 10
185.6657875686048
 20
132.2467168456829
 30
0.0
 10
185.9921189573013
 20
132.2468243773497
 30
0.0
 10
186.1543060431283
 20
132.23233372016
 30
0.0
 10
186.4766816243368
 20
132.1736056558828
 30
0.0
 10
186.6346970983744
 20
132.1294748487535
 30
0.0
 10
187.0861079734499
 20
131.9575452501555
 30
0.0
 10
187.3651874305021
 20
131.7859715574845
 30
0.0
 10
187.7112611350005
 20
131.4663207391182
 30
0.0
 10
187.8169031509152
 20
131.3472796097298
 30
0.0
 10
187.998686626886
 20
131.0949598488714
 30
0.0
 10
188.0755744502699
 20
130.9614955375
 30
0.0
 10
188.2012290076403
 20
130.6797301249477
 30
0.0
 10
188.2495370835549
 20
130.5313093933167
 30
0.0
 10
188.3133549689953
 20
130.2322597955401
 30
0.0
 10
188.3296831460381
 20
130.0800567256728
 30
0.0
 10
188.3300126360978
 20
129.7700548668331
 30
0.0
 10
188.3139161242631
 20
129.6165321997351
 30
0.0
 10
188.2506873870019
 20
129.315003482156
 30
0.0
 10
188.2028507935914
 20
129.1650686568542
 30
0.0
 10
188.0775074756779
 20
128.8778495607633
 30
0.0
 10
188.0008108011527
 20
128.7414706464471
 30
0.0
 10
187.819759434501
 20
128.4831150884328
 30
0.0
 10
187.7142838241401
 20
128.3604399120586
 30
0.0
 10
187.4837572554638
 20
128.1401862280065
 30
0.0
 10
187.3580378178335
 20
128.0412606565727
 30
0.0
 10
187.0852709686367
 20
127.866421975651
 30
0.0
 10
186.9395515922307
 20
127.7917451306706
 30
0.0
 10
186.4884824871226
 20
127.6121189151778
 30
0.0
 10
186.1602497192589
 20
127.5483076551896
 30
0.0
 10
185.8298491379311
 20
127.5483076551896
 30
0.0
  0
SPLINE
  5
113
330
1F
100
AcDbEntity
  8
0
  6
HIDDEN
 62
     7
370
     0
100
AcDbSpline
210
0.0
220
0.0
230
1.0
 70
    11
 71
     3
 72
    60
 73
    56
 74
     0
 42
0.000000001
 43
0.00000001
 40
0.0
 40
0.0
 40
0.0
 40
0.0
 40
0.0312500000000005
 40
0.0312500000000005
 40
0.0625000000000011
 40
0.0625000000000011
 40
0.0937500000000016
 40
0.0937500000000016
 40
0.1250000000000021
 40
0.1250000000000021
 40
0.1562500000000027
 40
0.1562500000000027
 40
0.1875000000000032
 40
0.1875000000000032
 40
0.2187500000000037
 40
0.2187500000000037
 40
0.2500000000000043
 40
0.2500000000000043
 40
0.3125000000000048
 40
0.3125000000000048
 40
0.3750000000000054
 40
0.3750000000000054
 40
0.4062500000000054
 40
0.4062500000000054
 40
0.4375000000000054
 40
0.4375000000000054
 40
0.4531250000000053
 40
0.4531250000000053
 40
0.4687500000000052
 40
0.4687500000000052
 40
0.5000000000000042
 40
0.5000000000000042
 40
0.5625000000000032
 40
0.5625000000000032
 40
0.6250000000000027
 40
0.6250000000000027
 40
0.6875000000000022
 40
0.6875000000000022
 40
0.718750000000002
 40
0.718750000000002
 40
0.7500000000000017
 40
0.7500000000000017
 40
0.7812500000000014
 40
0.7812500000000014
 40
0.8125000000000012
 40
0.8125000000000012
 40
0.843750000000001
 40
0.843750000000001
 40
0.8750000000000008
 40
0.8750000000000008
 40
0.9062500000000006
 40
0.9062500000000006
 40
0.9375000000000002
 40
0.9375000000000002
 40
1.0
 40
1.0
 40
1.0
 40
1.0
 10
183.4108740777114
 20
124.856328648553
 30
0.0
 10
183.4504641605582
 20
124.724848117199
 30
0.0
 10
183.5027757814783
 20
124.6056642665193
 30
0.0
 10
183.6284958870808
 20
124.3904707791914
 30
0.0
 10
183.7029189175251
 20
124.2938828735831
 30
0.0
 10
183.8616292257181
 20
124.1333219618281
 30
0.0
 10
183.9465078255236
 20
124.0680427251261
 30
0.0
 10
184.1182810450654
 20
123.9705405505689
 30
0.0
 10
184.2022912813615
 20
123.9400654537717
 30
0.0
 10
184.3476872046401
 20
123.9203164854142
 30
0.0
 10
184.4059534531493
 20
123.9320930349104
 30
0.0
 10
184.4725581779594
 20
123.9965133776938
 30
0.0
 10
184.4797190623572
 20
124.0472265157736
 30
0.0
 10
184.456573742975
 20
124.1702500281486
 30
0.0
 10
184.4276656570053
 20
124.2407212544339
 30
0.0
 10
184.3522448991602
 20
124.3943429170983
 30
0.0
 10
184.3052994263838
 20
124.4779781852823
 30
0.0
 10
184.1536575347624
 20
124.7413584242924
 30
0.0
 10
184.0377303974992
 20
124.934907349716
 30
0.0
 10
183.8041048265168
 20
125.3717768216119
 30
0.0
 10
183.685422059815
 20
125.6147819557993
 30
0.0
 10
183.5289507508593
 20
126.025856494329
 30
0.0
 10
183.4809641023072
 20
126.1695280598123
 30
0.0
 10
183.4003550925169
 20
126.4699909877713
 30
0.0
 10
183.3676555636218
 20
126.6284902420456
 30
0.0
 10
183.3392349542779
 20
126.8637007638749
 30
0.0
 10
183.3330888823043
 20
126.9429483716714
 30
0.0
 10
183.3286106805395
 20
127.0946259421308
 30
0.0
 10
183.3301268909516
 20
127.1678340144392
 30
0.0
 10
183.3458898306281
 20
127.3795897456662
 30
0.0
 10
183.3713638853135
 20
127.5054878915276
 30
0.0
 10
183.4777286290623
 20
127.8272182575468
 30
0.0
 10
183.5836066583329
 20
127.9652319739069
 30
0.0
 10
183.8067768792779
 20
128.151043825037
 30
0.0
 10
183.9276633114051
 20
128.1999678597933
 30
0.0
 10
184.1567457850868
 20
128.2360191855843
 30
0.0
 10
184.2669086033373
 20
128.2241410023826
 30
0.0
 10
184.3948917706884
 20
128.1595334408331
 30
0.0
 10
184.4312331161009
 20
128.1295262270697
 30
0.0
 10
184.474323119261
 20
128.0489981035198
 30
0.0
 10
184.4808079278629
 20
127.997417686268
 30
0.0
 10
184.444767175162
 20
127.8678704766423
 30
0.0
 10
184.4005479600368
 20
127.7880116521489
 30
0.0
 10
184.2748979852246
 20
127.6058821768439
 30
0.0
 10
184.1937738537432
 20
127.5018297368238
 30
0.0
 10
184.0268284836488
 20
127.2788658411445
 30
0.0
 10
183.9389403189189
 20
127.1570624590992
 30
0.0
 10
183.7733008216698
 20
126.8995012360396
 30
0.0
 10
183.6953547335324
 20
126.7640223757257
 30
0.0
 10
183.5560989998608
 20
126.4772680543776
 30
0.0
 10
183.4970732809618
 20
126.3308160164866
 30
0.0
 10
183.4032883272586
 20
126.0305712865846
 30
0.0
 10
183.3684752691491
 20
125.8748694304594
 30
0.0
 10
183.3101576644725
 20
125.4191064431977
 30
0.0
 10
183.3316939120177
 20
125.1192897112609
 30
0.0
 10
183.4108740777113
 20
124.856328648553
 30
0.0
  0
LWPOLYLINE
  5
114
330
1F
100
AcDbEntity
  8
0
  6
HIDDEN
 62
     7
370
     0
100
AcDbPolyline
 90
       20
 70
   128
 43
0.0
 10
166.6121068384
 20
128.1735043075
 10
166.76886098
 20
127.6874009775
 10
167.0171487514
 20
127.3825486137
 10
167.3300643199
 20
127.2919827
 10
167.6736984283
 20
127.4255174584
 10
168.0108129889
 20
127.7686823258
 10
168.3048764082
 20
128.284290064
 10
168.5240223519
 20
128.9164665743
 10
168.6445029565
 20
129.5967057223
 10
168.6532622792
 20
130.2512930416
 10
168.5493511113
 20
130.809293839
 10
168.3440298403
 20
131.2102400698
 10
168.0595482117
 20
131.4106829888
 10
167.7267342243
 20
131.3889014953
 10
167.3816534376
 20
131.1472559521
 10
167.0617007095
 20
130.7119324035
 10
166.8015478825
 20
130.1301049106
 10
166.6293865522
 20
129.4648235103
 10
166.5638730701
 20
128.7881817651
 10
166.6121068384
 20
128.1735043075
  0
LWPOLYLINE
  5
115
330
1F
100
AcDbEntity
  8
0
  6
HIDDEN
 62
     7
370
     0
100
AcDbPolyline
 90
       24
 70
   128
 43
0.0
 10
165.8992362498
 20
127.7210287864
 10
166.0739493767
 20
127.1305601823
 10
166.3418068436
 20
126.7095928063
 10
166.6829428875
 20
126.4893478827
 10
167.0720570085
 20
126.4861599701
 10
167.4802903925
 20
126.7002655013
 10
167.8773662368
 20
127.1157852485
 10
168.2338352427
 20
127.701902013
 10
168.5232597346
 20
128.4151461957
 10
168.724174422
 20
129.2026197383
 10
168.8216783818
 20
130.0059193307
 10
168.8085401912
 20
130.765467917
 10
168.6857342497
 20
131.4249332533
 10
168.4623685123
 20
131.9354058123
 10
168.1550089937
 20
132.2590261796
 10
167.7864511436
 20
132.3717929132
 10
167.3840292115
 20
132.2653426201
 10
166.9775889912
 20
131.9475702317
 10
166.5972742945
 20
131.4420434723
 10
166.2712913226
 20
130.7862549491
 10
166.0238167413
 20
130.0288414967
 10
165.8732046082
 20
129.2259770059
 10
165.8306251361
 20
128.4372062633
 10
165.8992362498
 20
127.7210287864
  0
LWPOLYLINE
  5
116
330
1F
100
AcDbEntity
  8
0
  6
HIDDEN
 62
     7
370
     0
100
AcDbPolyline
 90
       24
 70
   128
 43
0.0
 10
170.4094172967
 20
125.7793003686
 10
170.032505572
 20
125.852043379
 10
169.7120667529
 20
126.1383772212
 10
169.4718663208
 20
126.6170658238
 10
169.329718843
 20
127.2526070432
 10
169.2961667475
 20
127.9978656945
 10
169.3736984398
 20
128.7975693528
 10
169.5565637489
 20
129.5924076562
 10
169.8312003915
 20
130.323431084
 10
170.1772398241
 20
130.9364229726
 10
170.569017885
 20
131.3859205179
 10
170.9774781878
 20
131.6385865434
 10
171.3723271003
 20
131.6756819657
 10
171.724280485
 20
131.4944555871
 10
172.0072355695
 20
131.1083481391
 10
172.2002068696
 20
130.5459954448
 10
172.2888825867
 20
129.8491046308
 10
172.2666860485
 20
129.0693609008
 10
172.1352634708
 20
128.2645942802
 10
171.9043618649
 20
127.4944906276
 10
171.5911061467
 20
126.816165008
 10
171.2187290596
 20
126.2799257295
 10
170.8148481088
 20
125.9255432062
 10
170.4094172967
 20
125.7793003686
  0
LWPOLYLINE
  5
117
330
1F
100
AcDbEntity
  8
0
  6
HIDDEN
 62
     7
370
     0
100
AcDbPolyline
 90
       19
 70
   128
 43
0.0
 10
171.4036205193
 20
126.5925128288
 10
171.0884899605
 20
126.6801661259
 10
170.8422890713
 20
126.9946706675
 10
170.6947133123
 20
127.4980925645
 10
170.6635624982
 20
128.1297117062
 10
170.7525938768
 20
128.8133455025
 10
170.9510689499
 20
129.4665376282
 10
171.2350486945
 20
130.0105034729
 10
171.5702809624
 20
130.3796327275
 10
171.9163317944
 20
130.5294029563
 10
172.2314623532
 20
130.4417496592
 10
172.4776632424
 20
130.1272451176
 10
172.6252390014
 20
129.6238232206
 10
172.6563898155
 20
128.9922040789
 10
172.5673584369
 20
128.3085702826
 10
172.3688833638
 20
127.6553781569
 10
172.0849036192
 20
127.1114123122
 10
171.7496713513
 20
126.7422830576
 10
171.4036205193
 20
126.5925128288
  0
LWPOLYLINE
  5
118
330
1F
100
AcDbEntity
  8
0
  6
HIDDEN
 62
     7
370
     0
100
AcDbPolyline
 90
       24
 70
   128
 43
0.0
 10
167.2225656816
 20
126.408593367
 10
166.8456539568
 20
126.4813363775
 10
166.5252151378
 20
126.7676702196
 10
166.2850147057
 20
127.2463588223
 10
166.1428672278
 20
127.8819000417
 10
166.1093151323
 20
128.6271586929
 10
166.1868468246
 20
129.4268623513
 10
166.3697121338
 20
130.2217006547
 10
166.6443487764
 20
130.9527240824
 10
166.990388209
 20
131.565715971
 10
167.3821662699
 20
132.0152135164
 10
167.7906265727
 20
132.2678795418
 10
168.1854754852
 20
132.3049749641
 10
168.5374288699
 20
132.1237485856
 10
168.8203839544
 20
131.7376411376
 10
169.0133552544
 20
131.1752884432
 10
169.1020309715
 20
130.4783976292
 10
169.0798344334
 20
129.6986538993
 10
168.9484118557
 20
128.8938872786
 10
168.7175102498
 20
128.1237836261
 10
168.4042545316
 20
127.4454580065
 10
168.0318774445
 20
126.9092187279
 10
167.6279964937
 20
126.5548362046
 10
167.2225656816
 20
126.408593367
  0
LWPOLYLINE
  5
119
330
1F
100
AcDbEntity
  8
0
  6
HIDDEN
 62
     7
370
     0
100
AcDbPolyline
 90
       21
 70
   128
 43
0.0
 10
167.0163902821
 20
127.0090920492
 10
166.6665083294
 20
127.09258273
 10
166.3815587968
 20
127.403506489
 10
166.18943453
 20
127.9114279424
 10
166.1089419907
 20
128.5666281995
 10
166.1479603495
 20
129.3049716939
 10
166.3026702177
 20
130.0541842202
 10
166.5579275153
 20
130.7409276362
 10
166.8887458797
 20
131.2979787114
 10
167.2627425043
 20
131.6708094056
 10
167.6433079938
 20
131.8229244526
 10
167.9931899464
 20
131.7394337718
 10
168.278139479
 20
131.4285100127
 10
168.4702637459
 20
130.9205885593
 10
168.5507562852
 20
130.2653883023
 10
168.5117379264
 20
129.5270448078
 10
168.3570280582
 20
128.7778322815
 10
168.1017707606
 20
128.0910888656
 10
167.7709523962
 20
127.5340377903
 10
167.3969557716
 20
127.1612070961
 10
167.0163902821
 20
127.0090920492
  0
LINE
  5
11A
330
1F
100
AcDbEntity
  8
0
  6
HIDDEN
 62
     7
370
     0
100
AcDbLine
 10
168.4479682953
 20
129.8582431638
 30
0.0
 11
169.28391044
 21
130.7787115387
 31
0.0
  0
LINE
  5
11B
330
1F
100
AcDbEntity
  8
0
  6
HIDDEN
 62
     7
370
     0
100
AcDbLine
 10
166.7159174878
 20
130.2002633071
 30
0.0
 11
167.5518596325
 21
131.120731682
 31
0.0
  0
LINE
  5
11C
330
1F
100
AcDbEntity
  8
0
  6
HIDDEN
 62
     7
370
     0
100
AcDbLine
 10
166.4939069932
 20
128.4955398759
 30
0.0
 11
166.7159174878
 21
130.2002633071
 31
0.0
  0
LINE
  5
11D
330
1F
100
AcDbEntity
  8
0
  6
HIDDEN
 62
     7
370
     0
100
AcDbLine
 10
168.4479682953
 20
129.8582431638
 30
0.0
 11
166.7159174878
 21
130.2002633071
 31
0.0
  0
LINE
  5
11E
330
1F
100
AcDbEntity
  8
0
  6
HIDDEN
 62
     7
370
     0
100
AcDbLine
 10
168.2259578008
 20
128.1535197326
 30
0.0
 11
168.4479682953
 21
129.8582431638
 31
0.0
  0
LINE
  5
11F
330
1F
100
AcDbEntity
  8
0
  6
HIDDEN
 62
     7
370
     0
100
AcDbLine
 10
168.2259578008
 20
128.1535197326
 30
0.0
 11
166.4939069932
 21
128.4955398759
 31
0.0
  0
LINE
  5
120
330
1F
100
AcDbEntity
  8
0
  6
HIDDEN
 62
     7
370
     0
100
AcDbLine
 10
166.4939069932
 20
128.4955398759
 30
0.0
 11
167.1078386434
 21
127.7112848197
 31
0.0
  0
LINE
  5
121
330
1F
100
AcDbEntity
  8
0
  6
HIDDEN
 62
     7
370
     0
100
AcDbLine
 10
168.2259578008
 20
128.1535197326
 30
0.0
 11
168.839889451
 21
127.3692646764
 31
0.0
  0
LINE
  5
122
330
1F
100
AcDbEntity
  8
0
  6
HIDDEN
 62
     7
370
     0
100
AcDbLine
 10
169.8978420902
 20
129.9944564825
 30
0.0
 11
168.1657912826
 21
130.3364766258
 31
0.0
  0
LINE
  5
123
330
1F
100
AcDbEntity
  8
0
  6
HIDDEN
 62
     7
370
     0
100
AcDbLine
 10
168.1657912826
 20
130.3364766258
 30
0.0
 11
167.5518596325
 21
131.120731682
 31
0.0
  0
LINE
  5
124
330
1F
100
AcDbEntity
  8
0
  6
HIDDEN
 62
     7
370
     0
100
AcDbLine
 10
169.28391044
 20
130.7787115387
 30
0.0
 11
167.5518596325
 21
131.120731682
 31
0.0
  0
LINE
  5
125
330
1F
100
AcDbEntity
  8
0
  6
HIDDEN
 62
     7
370
     0
100
AcDbLine
 10
169.8978420902
 20
129.9944564825
 30
0.0
 11
169.28391044
 21
130.7787115387
 31
0.0
  0
LINE
  5
126
330
1F
100
AcDbEntity
  8
0
  6
HIDDEN
 62
     7
370
     0
100
AcDbLine
 10
169.6758315956
 20
128.2897330513
 30
0.0
 11
167.9437807881
 21
128.6317531946
 31
0.0
  0
LINE
  5
127
330
1F
100
AcDbEntity
  8
0
  6
HIDDEN
 62
     7
370
     0
100
AcDbLine
 10
168.839889451
 20
127.3692646764
 30
0.0
 11
167.1078386434
 21
127.7112848197
 31
0.0
  0
LINE
  5
128
330
1F
100
AcDbEntity
  8
0
  6
HIDDEN
 62
     7
370
     0
100
AcDbLine
 10
167.9437807881
 20
128.6317531946
 30
0.0
 11
167.1078386434
 21
127.7112848197
 31
0.0
  0
LINE
  5
129
330
1F
100
AcDbEntity
  8
0
  6
HIDDEN
 62
     7
370
     0
100
AcDbLine
 10
169.6758315956
 20
128.2897330513
 30
0.0
 11
168.839889451
 21
127.3692646764
 31
0.0
  0
LINE
  5
12A
330
1F
100
AcDbEntity
  8
0
  6
HIDDEN
 62
     7
370
     0
100
AcDbLine
 10
167.9437807881
 20
128.6317531946
 30
0.0
 11
168.1657912826
 21
130.3364766258
 31
0.0
  0
LINE
  5
12B
330
1F
100
AcDbEntity
  8
0
  6
HIDDEN
 62
     7
370
     0
100
AcDbLine
 10
169.6758315956
 20
128.2897330513
 30
0.0
 11
169.8978420902
 21
129.9944564825
 31
0.0
  0
LWPOLYLINE
  5
12C
330
1F
100
AcDbEntity
  8
0
  6
HIDDEN
 62
     7
370
     0
100
AcDbPolyline
 90
       24
 70
   128
 43
0.0
 10
187.1374452855
 20
131.0918325083
 10
187.8174169638
 20
130.6662364518
 10
188.3499798291
 20
130.0840321281
 10
188.6956361298
 20
129.3883989684
 10
188.8287501194
 20
128.6309289019
 10
188.7394493423
 20
127.8678000182
 10
188.4343568286
 20
127.1556100956
 10
187.9360998943
 20
126.5471790025
 10
187.2816319768
 20
126.0876312898
 10
186.5194919677
 20
125.8110495089
 10
185.7062043047
 20
125.7379464654
 10
184.9020868135
 20
125.8737438776
 10
184.1667772095
 20
126.2083702725
 10
183.5548100425
 20
126.7170079413
 10
183.1115721176
 20
127.361933555
 10
182.869936364
 20
128.0953159311
 10
182.8478238001
 20
128.8627634538
 10
183.0468744137
 20
129.6073580513
 10
183.4523255313
 20
130.2738765484
 10
184.0341066984
 20
130.8128863173
 10
184.7490698672
 20
131.1844114694
 10
185.5441894903
 20
131.3608976837
 10
186.3604951827
 20
131.3292557851
 10
187.1374452855
 20
131.0918325083
  0
LWPOLYLINE
  5
12D
330
1F
100
AcDbEntity
  8
0
  6
HIDDEN
 62
     7
370
     0
100
AcDbPolyline
 90
       19
 70
   128
 43
0.0
 10
186.7015799029
 20
129.904077851
 10
187.2646524835
 20
129.5219009195
 10
187.6546666051
 20
128.9818040381
 10
187.8245808088
 20
128.3489308617
 10
187.7539009339
 20
127.6996152354
 10
187.4511520163
 20
127.1121742069
 10
186.9528500438
 20
126.6574618337
 10
186.3190975883
 20
126.3903231389
 10
185.6263345491
 20
126.3429789917
 10
184.9581183729
 20
126.521139795
 10
184.3950457924
 20
126.9033167264
 10
184.0050316707
 20
127.4434136078
 10
183.8351174671
 20
128.0762867843
 10
183.905797342
 20
128.7256024105
 10
184.2085462595
 20
129.3130434391
 10
184.7068482321
 20
129.7677558123
 10
185.3406006876
 20
130.0348945071
 10
186.0333637268
 20
130.0822386543
 10
186.7015799029
 20
129.904077851
  0
LWPOLYLINE
  5
12E
330
1F
100
AcDbEntity
  8
0
  6
HIDDEN
 62
     7
370
     0
100
AcDbPolyline
 90
       24
 70
   128
 43
0.0
 10
187.1374452855
 20
132.3504185052
 10
187.8174169638
 20
131.9248224487
 10
188.3499798291
 20
131.342618125
 10
188.6956361298
 20
130.6469849653
 10
188.8287501194
 20
129.8895148988
 10
188.7394493423
 20
129.1263860151
 10
188.4343568286
 20
128.4141960925
 10
187.9360998943
 20
127.8057649994
 10
187.2816319768
 20
127.3462172867
 10
186.5194919677
 20
127.0696355058
 10
185.7062043047
 20
126.9965324623
 10
184.9020868135
 20
127.1323298745
 10
184.1667772095
 20
127.4669562694
 10
183.5548100425
 20
127.9755939382
 10
183.1115721176
 20
128.6205195519
 10
182.869936364
 20
129.353901928
 10
182.8478238001
 20
130.1213494508
 10
183.0468744137
 20
130.8659440482
 10
183.4523255313
 20
131.5324625453
 10
184.0341066984
 20
132.0714723142
 10
184.7490698672
 20
132.4429974663
 10
185.5441894903
 20
132.6194836806
 10
186.3604951827
 20
132.587841782
 10
187.1374452855
 20
132.3504185052
  0
LINE
  5
12F
330
1F
100
AcDbEntity
  8
0
  6
HIDDEN
 62
     7
370
     0
100
AcDbLine
 10
184.857301825
 20
130.5854660523
 30
0.0
 11
186.5847901257
 21
130.7035244009
 31
0.0
  0
LINE
  5
130
330
1F
100
AcDbEntity
  8
0
  6
HIDDEN
 62
     7
370
     0
100
AcDbLine
 10
187.5573374386
 20
129.3567276016
 30
0.0
 11
186.5847901257
 21
130.7035244009
 31
0.0
  0
LINE
  5
131
330
1F
100
AcDbEntity
  8
0
  6
HIDDEN
 62
     7
370
     0
100
AcDbLine
 10
186.5847901257
 20
130.7035244009
 30
0.0
 11
186.5847901257
 21
131.3875646876
 31
0.0
  0
LINE
  5
132
330
1F
100
AcDbEntity
  8
0
  6
HIDDEN
 62
     7
370
     0
100
AcDbLine
 10
184.857301825
 20
130.5854660523
 30
0.0
 11
184.1023608372
 21
129.1206109044
 31
0.0
  0
LINE
  5
133
330
1F
100
AcDbEntity
  8
0
  6
HIDDEN
 62
     7
370
     0
100
AcDbLine
 10
184.857301825
 20
130.5854660523
 30
0.0
 11
184.857301825
 21
131.269506339
 31
0.0
  0
LINE
  5
134
330
1F
100
AcDbEntity
  8
0
  6
HIDDEN
 62
     7
370
     0
100
AcDbLine
 10
186.8023964509
 20
127.8918724536
 30
0.0
 11
186.8023964509
 21
128.5759127402
 31
0.0
  0
LINE
  5
135
330
1F
100
AcDbEntity
  8
0
  6
HIDDEN
 62
     7
370
     0
100
AcDbLine
 10
187.5573374386
 20
130.0407678882
 30
0.0
 11
186.8023964509
 21
128.5759127402
 31
0.0
  0
LINE
  5
136
330
1F
100
AcDbEntity
  8
0
  6
HIDDEN
 62
     7
370
     0
100
AcDbLine
 10
187.5573374386
 20
129.3567276016
 30
0.0
 11
187.5573374386
 21
130.0407678882
 31
0.0
  0
LINE
  5
137
330
1F
100
AcDbEntity
  8
0
  6
HIDDEN
 62
     7
370
     0
100
AcDbLine
 10
187.5573374386
 20
129.3567276016
 30
0.0
 11
186.8023964509
 21
127.8918724536
 31
0.0
  0
LINE
  5
138
330
1F
100
AcDbEntity
  8
0
  6
HIDDEN
 62
     7
370
     0
100
AcDbLine
 10
185.0749081502
 20
127.773814105
 30
0.0
 11
185.0749081502
 21
128.4578543916
 31
0.0
  0
LINE
  5
139
330
1F
100
AcDbEntity
  8
0
  6
HIDDEN
 62
     7
370
     0
100
AcDbLine
 10
184.1023608372
 20
129.804651191
 30
0.0
 11
185.0749081502
 21
128.4578543916
 31
0.0
  0
LINE
  5
13A
330
1F
100
AcDbEntity
  8
0
  6
HIDDEN
 62
     7
370
     0
100
AcDbLine
 10
184.1023608372
 20
129.1206109044
 30
0.0
 11
184.1023608372
 21
129.804651191
 31
0.0
  0
LINE
  5
13B
330
1F
100
AcDbEntity
  8
0
  6
HIDDEN
 62
     7
370
     0
100
AcDbLine
 10
184.1023608372
 20
129.1206109044
 30
0.0
 11
185.0749081502
 21
127.773814105
 31
0.0
  0
LINE
  5
13C
330
1F
100
AcDbEntity
  8
0
  6
HIDDEN
 62
     7
370
     0
100
AcDbLine
 10
186.8023964509
 20
128.5759127402
 30
0.0
 11
185.0749081502
 21
128.4578543916
 31
0.0
  0
LINE
  5
13D
330
1F
100
AcDbEntity
  8
0
  6
HIDDEN
 62
     7
370
     0
100
AcDbLine
 10
186.8023964509
 20
127.8918724536
 30
0.0
 11
185.0749081502
 21
127.773814105
 31
0.0
  0
LWPOLYLINE
  5
13E
330
1F
100
AcDbEntity
  8
0
  6
HIDDEN
 62
     7
370
     0
100
AcDbPolyline
 90
       21
 70
   128
 43
0.0
 10
186.8957579309
 20
131.9909532936
 10
187.5237285661
 20
131.5802065893
 10
187.9858904809
 20
131.0072125254
 10
188.2370040471
 20
130.328059753
 10
188.2524885191
 20
129.6092284775
 10
188.030828169
 20
128.9210829125
 10
187.5937206562
 20
128.3309835405
 10
186.9839531096
 20
127.8966933995
 10
186.2612138251
 20
127.6607238344
 10
185.4962495595
 20
127.6461731903
 10
184.763940345
 20
127.8544657856
 10
184.1359697098
 20
128.2652124899
 10
183.6738077949
 20
128.8382065539
 10
183.4226942288
 20
129.5173593262
 10
183.4072097567
 20
130.2361906018
 10
183.6288701069
 20
130.9243361668
 10
184.0659776197
 20
131.5144355387
 10
184.6757451663
 20
131.9487256797
 10
185.3984844508
 20
132.1846952448
 10
186.1634487164
 20
132.1992458889
 10
186.8957579309
 20
131.9909532936
  0
LINE
  5
13F
330
1F
100
AcDbEntity
  8
0
  6
HIDDEN
 62
     7
370
     0
100
AcDbLine
 10
184.857301825
 20
131.269506339
 30
0.0
 11
184.1023608372
 21
129.804651191
 31
0.0
  0
LINE
  5
140
330
1F
100
AcDbEntity
  8
0
  6
HIDDEN
 62
     7
370
     0
100
AcDbLine
 10
187.5573374386
 20
130.0407678882
 30
0.0
 11
186.5847901257
 21
131.3875646876
 31
0.0
  0
LINE
  5
141
330
1F
100
AcDbEntity
  8
0
  6
HIDDEN
 62
     7
370
     0
100
AcDbLine
 10
184.857301825
 20
131.269506339
 30
0.0
 11
186.5847901257
 21
131.3875646876
 31
0.0
  0
LWPOLYLINE
  5
142
330
1F
100
AcDbEntity
  8
0
  6
HIDDEN
 62
     7
370
     0
100
AcDbPolyline
 90
       21
 70
   128
 43
0.0
 10
167.0163902821
 20
103.7646148474
 10
166.6665083294
 20
103.6811241666
 10
166.3815587968
 20
103.3702004075
 10
166.18943453
 20
102.8622789541
 10
166.1089419907
 20
102.2070786971
 10
166.1479603495
 20
101.4687352026
 10
166.3026702177
 20
100.7195226764
 10
166.5579275153
 20
100.0327792604
 10
166.8887458797
 20
99.4757281851
 10
167.2627425043
 20
99.102897491
 10
167.6433079938
 20
98.950782444
 10
167.9931899464
 20
99.0342731248
 10
168.278139479
 20
99.3451968838
 10
168.4702637459
 20
99.8531183373
 10
168.5507562852
 20
100.5083185943
 10
168.5117379264
 20
101.2466620887
 10
168.3570280582
 20
101.995874615
 10
168.1017707606
 20
102.682618031
 10
167.7709523962
 20
103.2396691063
 10
167.3969557716
 20
103.6124998004
 10
167.0163902821
 20
103.7646148474
  0
LWPOLYLINE
  5
143
330
1F
100
AcDbEntity
  8
0
  6
HIDDEN
 62
     7
370
     0
100
AcDbPolyline
 90
       24
 70
   128
 43
0.0
 10
167.2225656816
 20
104.3651135295
 10
166.8456539568
 20
104.2923705191
 10
166.5252151378
 20
104.0060366769
 10
166.2850147057
 20
103.5273480743
 10
166.1428672278
 20
102.8918068549
 10
166.1093151323
 20
102.1465482036
 10
166.1868468246
 20
101.3468445453
 10
166.3697121338
 20
100.5520062419
 10
166.6443487764
 20
99.8209828141
 10
166.990388209
 20
99.2079909255
 10
167.3821662699
 20
98.7584933802
 10
167.7906265727
 20
98.5058273547
 10
168.1854754852
 20
98.4687319324
 10
168.5374288699
 20
98.649958311
 10
168.8203839544
 20
99.036065759
 10
169.0133552544
 20
99.5984184533
 10
169.1020309715
 20
100.2953092673
 10
169.0798344334
 20
101.0750529973
 10
168.9484118557
 20
101.8798196179
 10
168.7175102498
 20
102.6499232705
 10
168.4042545316
 20
103.3282488901
 10
168.0318774445
 20
103.8644881686
 10
167.6279964937
 20
104.2188706919
 10
167.2225656816
 20
104.3651135295
  0
LWPOLYLINE
  5
144
330
1F
100
AcDbEntity
  8
0
  6
HIDDEN
 62
     7
370
     0
100
AcDbPolyline
 90
       24
 70
   128
 43
0.0
 10
170.4094172967
 20
104.994406528
 10
170.032505572
 20
104.9216635175
 10
169.7120667529
 20
104.6353296754
 10
169.4718663208
 20
104.1566410727
 10
169.329718843
 20
103.5210998533
 10
169.2961667475
 20
102.7758412021
 10
169.3736984398
 20
101.9761375437
 10
169.5565637489
 20
101.1812992403
 10
169.8312003915
 20
100.4502758126
 10
170.1772398241
 20
99.837283924
 10
170.569017885
 20
99.3877863786
 10
170.9774781878
 20
99.1351203532
 10
171.3723271003
 20
99.0980249309
 10
171.724280485
 20
99.2792513094
 10
172.0072355695
 20
99.6653587574
 10
172.2002068696
 20
100.2277114518
 10
172.2888825867
 20
100.9246022658
 10
172.2666860485
 20
101.7043459958
 10
172.1352634708
 20
102.5091126164
 10
171.9043618649
 20
103.2792162689
 10
171.5911061467
 20
103.9575418885
 10
171.2187290596
 20
104.4937811671
 10
170.8148481088
 20
104.8481636904
 10
170.4094172967
 20
104.994406528
  0
LINE
  5
145
330
1F
100
AcDbEntity
  8
0
  6
HIDDEN
 62
     7
370
     0
100
AcDbLine
 10
166.7159174878
 20
100.5734435894
 30
0.0
 11
167.5518596325
 21
99.6529752145
 31
0.0
  0
LINE
  5
146
330
1F
100
AcDbEntity
  8
0
  6
HIDDEN
 62
     7
370
     0
100
AcDbLine
 10
168.1657912826
 20
100.4372302708
 30
0.0
 11
167.5518596325
 21
99.6529752145
 31
0.0
  0
LINE
  5
147
330
1F
100
AcDbEntity
  8
0
  6
HIDDEN
 62
     7
370
     0
100
AcDbLine
 10
167.9437807881
 20
102.1419537019
 30
0.0
 11
168.1657912826
 21
100.4372302708
 31
0.0
  0
LINE
  5
148
330
1F
100
AcDbEntity
  8
0
  6
HIDDEN
 62
     7
370
     0
100
AcDbLine
 10
167.9437807881
 20
102.1419537019
 30
0.0
 11
167.1078386434
 21
103.0624220769
 31
0.0
  0
LINE
  5
149
330
1F
100
AcDbEntity
  8
0
  6
HIDDEN
 62
     7
370
     0
100
AcDbLine
 10
166.4939069932
 20
102.2781670206
 30
0.0
 11
167.1078386434
 21
103.0624220769
 31
0.0
  0
LINE
  5
14A
330
1F
100
AcDbEntity
  8
0
  6
HIDDEN
 62
     7
370
     0
100
AcDbLine
 10
166.4939069932
 20
102.2781670206
 30
0.0
 11
166.7159174878
 21
100.5734435894
 31
0.0
  0
LINE
  5
14B
330
1F
100
AcDbEntity
  8
0
  6
HIDDEN
 62
     7
370
     0
100
AcDbLine
 10
169.6758315956
 20
102.4839738453
 30
0.0
 11
167.9437807881
 21
102.1419537019
 31
0.0
  0
LINE
  5
14C
330
1F
100
AcDbEntity
  8
0
  6
HIDDEN
 62
     7
370
     0
100
AcDbLine
 10
169.8978420902
 20
100.7792504141
 30
0.0
 11
168.1657912826
 21
100.4372302708
 31
0.0
  0
LWPOLYLINE
  5
14D
330
1F
100
AcDbEntity
  8
0
  6
HIDDEN
 62
     7
370
     0
100
AcDbPolyline
 90
       19
 70
   128
 43
0.0
 10
171.4036205193
 20
104.1811940678
 10
171.0884899605
 20
104.0935407707
 10
170.8422890713
 20
103.779036229
 10
170.6947133123
 20
103.2756143321
 10
170.6635624982
 20
102.6439951904
 10
170.7525938768
 20
101.960361394
 10
170.9510689499
 20
101.3071692683
 10
171.2350486945
 20
100.7632034237
 10
171.5702809624
 20
100.394074169
 10
171.9163317944
 20
100.2443039402
 10
172.2314623532
 20
100.3319572373
 10
172.4776632424
 20
100.646461779
 10
172.6252390014
 20
101.1498836759
 10
172.6563898155
 20
101.7815028176
 10
172.5673584369
 20
102.465136614
 10
172.3688833638
 20
103.1183287397
 10
172.0849036192
 20
103.6622945843
 10
171.7496713513
 20
104.031423839
 10
171.4036205193
 20
104.1811940678
  0
LINE
  5
14E
330
1F
100
AcDbEntity
  8
0
  6
HIDDEN
 62
     7
370
     0
100
AcDbLine
 10
168.4479682954
 20
100.9154637328
 30
0.0
 11
169.28391044
 21
99.9949953578
 31
0.0
  0
LINE
  5
14F
330
1F
100
AcDbEntity
  8
0
  6
HIDDEN
 62
     7
370
     0
100
AcDbLine
 10
168.2259578008
 20
102.6201871639
 30
0.0
 11
168.4479682954
 21
100.9154637328
 31
0.0
  0
LINE
  5
150
330
1F
100
AcDbEntity
  8
0
  6
HIDDEN
 62
     7
370
     0
100
AcDbLine
 10
168.2259578008
 20
102.6201871639
 30
0.0
 11
168.839889451
 21
103.4044422202
 31
0.0
  0
LINE
  5
151
330
1F
100
AcDbEntity
  8
0
  6
HIDDEN
 62
     7
370
     0
100
AcDbLine
 10
169.8978420902
 20
100.7792504141
 30
0.0
 11
169.28391044
 21
99.9949953578
 31
0.0
  0
LINE
  5
152
330
1F
100
AcDbEntity
  8
0
  6
HIDDEN
 62
     7
370
     0
100
AcDbLine
 10
169.6758315956
 20
102.4839738453
 30
0.0
 11
169.8978420902
 21
100.7792504141
 31
0.0
  0
LINE
  5
153
330
1F
100
AcDbEntity
  8
0
  6
HIDDEN
 62
     7
370
     0
100
AcDbLine
 10
169.6758315956
 20
102.4839738453
 30
0.0
 11
168.839889451
 21
103.4044422202
 31
0.0
  0
LINE
  5
154
330
1F
100
AcDbEntity
  8
0
  6
HIDDEN
 62
     7
370
     0
100
AcDbLine
 10
168.2259578008
 20
102.6201871639
 30
0.0
 11
166.4939069932
 21
102.2781670206
 31
0.0
  0
LINE
  5
155
330
1F
100
AcDbEntity
  8
0
  6
HIDDEN
 62
     7
370
     0
100
AcDbLine
 10
168.839889451
 20
103.4044422202
 30
0.0
 11
167.1078386434
 21
103.0624220769
 31
0.0
  0
LINE
  5
156
330
1F
100
AcDbEntity
  8
0
  6
HIDDEN
 62
     7
370
     0
100
AcDbLine
 10
168.4479682954
 20
100.9154637328
 30
0.0
 11
166.7159174878
 21
100.5734435894
 31
0.0
  0
LINE
  5
157
330
1F
100
AcDbEntity
  8
0
  6
HIDDEN
 62
     7
370
     0
100
AcDbLine
 10
169.28391044
 20
99.9949953578
 30
0.0
 11
167.5518596325
 21
99.6529752145
 31
0.0
  0
LWPOLYLINE
  5
158
330
1F
100
AcDbEntity
  8
0
  6
HIDDEN
 62
     7
370
     0
100
AcDbPolyline
 90
       24
 70
   128
 43
0.0
 10
184.5222529904
 20
98.4232883913
 10
185.2992030932
 20
98.1858651146
 10
186.1155087856
 20
98.1542232159
 10
186.9106284087
 20
98.3307094302
 10
187.6255915775
 20
98.7022345823
 10
188.2073727446
 20
99.2412443513
 10
188.6128238622
 20
99.9077628484
 10
188.8118744758
 20
100.6523574458
 10
188.7897619119
 20
101.4198049685
 10
188.5481261583
 20
102.1531873447
 10
188.1048882333
 20
102.7981129584
 10
187.4929210663
 20
103.3067506272
 10
186.7576114624
 20
103.6413770221
 10
185.9534939711
 20
103.7771744342
 10
185.1402063082
 20
103.7040713907
 10
184.3780662991
 20
103.4274896099
 10
183.7235983816
 20
102.9679418972
 10
183.2253414473
 20
102.3595108041
 10
182.9202489336
 20
101.6473208815
 10
182.8309481565
 20
100.8841919978
 10
182.9640621461
 20
100.1267219313
 10
183.3097184468
 20
99.4310887716
 10
183.842281312
 20
98.8488844478
 10
184.5222529904
 20
98.4232883913
  0
LWPOLYLINE
  5
159
330
1F
100
AcDbEntity
  8
0
  6
HIDDEN
 62
     7
370
     0
100
AcDbPolyline
 90
       24
 70
   128
 43
0.0
 10
184.5222529904
 20
99.6818743882
 10
185.2992030932
 20
99.4444511115
 10
186.1155087856
 20
99.4128092128
 10
186.9106284087
 20
99.5892954271
 10
187.6255915775
 20
99.9608205792
 10
188.2073727446
 20
100.4998303482
 10
188.6128238622
 20
101.1663488453
 10
188.8118744758
 20
101.9109434427
 10
188.7897619119
 20
102.6783909654
 10
188.5481261583
 20
103.4117733416
 10
188.1048882333
 20
104.0566989553
 10
187.4929210663
 20
104.5653366241
 10
186.7576114624
 20
104.899963019
 10
185.9534939711
 20
105.0357604311
 10
185.1402063082
 20
104.9626573876
 10
184.3780662991
 20
104.6860756068
 10
183.7235983816
 20
104.2265278941
 10
183.2253414473
 20
103.618096801
 10
182.9202489336
 20
102.9059068784
 10
182.8309481565
 20
102.1427779947
 10
182.9640621461
 20
101.3853079282
 10
183.3097184468
 20
100.6896747685
 10
183.842281312
 20
100.1074704447
 10
184.5222529904
 20
99.6818743882
  0
LINE
  5
15A
330
1F
100
AcDbEntity
  8
0
  6
HIDDEN
 62
     7
370
     0
100
AcDbLine
 10
186.5847901257
 20
102.9998927916
 30
0.0
 11
186.5847901257
 21
102.3158525049
 31
0.0
  0
LINE
  5
15B
330
1F
100
AcDbEntity
  8
0
  6
HIDDEN
 62
     7
370
     0
100
AcDbLine
 10
184.857301825
 20
102.881834443
 30
0.0
 11
184.857301825
 21
102.1977941563
 31
0.0
  0
LINE
  5
15C
330
1F
100
AcDbEntity
  8
0
  6
HIDDEN
 62
     7
370
     0
100
AcDbLine
 10
187.3516216046
 20
101.2539338016
 30
0.0
 11
187.5573374386
 21
101.6530959922
 31
0.0
  0
LINE
  5
15D
330
1F
100
AcDbEntity
  8
0
  6
HIDDEN
 62
     7
370
     0
100
AcDbLine
 10
187.5573374386
 20
101.6530959922
 30
0.0
 11
187.5573374386
 21
100.9690557055
 31
0.0
  0
LINE
  5
15E
330
1F
100
AcDbEntity
  8
0
  6
HIDDEN
 62
     7
370
     0
100
AcDbLine
 10
184.1023608372
 20
101.416979295
 30
0.0
 11
184.3080766712
 21
101.132101199
 31
0.0
  0
LINE
  5
15F
330
1F
100
AcDbEntity
  8
0
  6
HIDDEN
 62
     7
370
     0
100
AcDbLine
 10
184.1023608372
 20
101.416979295
 30
0.0
 11
184.1023608372
 21
100.7329390083
 31
0.0
  0
LINE
  5
160
330
1F
100
AcDbEntity
  8
0
  6
HIDDEN
 62
     7
370
     0
100
AcDbLine
 10
184.1023608372
 20
101.416979295
 30
0.0
 11
184.857301825
 21
102.881834443
 31
0.0
  0
LINE
  5
161
330
1F
100
AcDbEntity
  8
0
  6
HIDDEN
 62
     7
370
     0
100
AcDbLine
 10
187.5573374386
 20
101.6530959922
 30
0.0
 11
186.5847901257
 21
102.9998927916
 31
0.0
  0
LINE
  5
162
330
1F
100
AcDbEntity
  8
0
  6
HIDDEN
 62
     7
370
     0
100
AcDbLine
 10
184.857301825
 20
102.881834443
 30
0.0
 11
186.5847901257
 21
102.9998927916
 31
0.0
  0
LWPOLYLINE
  5
163
330
1F
100
AcDbEntity
  8
0
  6
HIDDEN
 62
     7
370
     0
100
AcDbPolyline
 90
       19
 70
   128
 43
0.0
 10
184.9581183729
 20
100.8696290456
 10
185.6263345491
 20
100.6914682423
 10
186.3190975883
 20
100.7388123895
 10
186.9528500438
 20
101.0059510842
 10
187.4511520163
 20
101.4606634574
 10
187.7539009339
 20
102.048104486
 10
187.8245808088
 20
102.6974201122
 10
187.6546666051
 20
103.3302932887
 10
187.2646524835
 20
103.8703901701
 10
186.7015799029
 20
104.2525671016
 10
186.0333637267
 20
104.4307279048
 10
185.3406006876
 20
104.3833837576
 10
184.7068482321
 20
104.1162450629
 10
184.2085462595
 20
103.6615326897
 10
183.905797342
 20
103.0740916611
 10
183.8351174671
 20
102.4247760349
 10
184.0050316707
 20
101.7919028584
 10
184.3950457924
 20
101.251805977
 10
184.9581183729
 20
100.8696290456
  0
LINE
  5
164
330
1F
100
AcDbEntity
  8
0
  6
HIDDEN
 62
     7
370
     0
100
AcDbLine
 10
220.5798491379
 20
132.9368534483
 30
0.0
 11
219.8798491379
 21
133.6368534483
 31
0.0
  0
LINE
  5
165
330
1F
100
AcDbEntity
  8
0
  6
HIDDEN
 62
     7
370
     0
100
AcDbLine
 10
211.2798491379
 20
133.6368534483
 30
0.0
 11
210.5798491379
 21
132.9368534483
 31
0.0
  0
LINE
  5
166
330
1F
100
AcDbEntity
  8
0
  6
HIDDEN
 62
     7
370
     0
100
AcDbLine
 10
210.5798491379
 20
132.9368534483
 30
0.0
 11
210.5798491379
 21
126.414352523
 31
0.0
  0
LINE
  5
167
330
1F
100
AcDbEntity
  8
0
  6
HIDDEN
 62
     7
370
     0
100
AcDbLine
 10
220.5798491379
 20
126.414352523
 30
0.0
 11
220.5798491379
 21
132.9368534483
 31
0.0
  0
LINE
  5
168
330
1F
100
AcDbEntity
  8
0
  6
HIDDEN
 62
     7
370
     0
100
AcDbLine
 10
210.5798491379
 20
126.414352523
 30
0.0
 11
212.4702694864
 21
119.3592077347
 31
0.0
  0
LINE
  5
169
330
1F
100
AcDbEntity
  8
0
  6
HIDDEN
 62
     7
370
     0
100
AcDbLine
 10
218.6894287894
 20
119.3592077347
 30
0.0
 11
220.5798491379
 21
126.414352523
 31
0.0
  0
ARC
  5
16A
330
1F
100
AcDbEntity
  8
0
  6
HIDDEN
 62
     7
370
     0
100
AcDbCircle
 10
212.7600472343
 20
119.4368534483
 30
0.0
 40
0.2999999999999972
100
AcDbArc
 50
195.0
 51
270.0
  0
ARC
  5
16B
330
1F
100
AcDbEntity
  8
0
  6
HIDDEN
 62
     7
370
     0
100
AcDbCircle
 10
218.3996510415
 20
119.4368534483
 30
0.0
 40
0.2999999999999972
100
AcDbArc
 50
270.0
 51
345.0
  0
LINE
  5
16C
330
1F
100
AcDbEntity
  8
0
  6
HIDDEN
 62
     7
370
     0
100
AcDbLine
 10
212.5798491379
 20
133.6368534483
 30
0.0
 11
212.8726129408
 21
133.3440896454
 31
0.0
  0
LINE
  5
16D
330
1F
100
AcDbEntity
  8
0
  6
HIDDEN
 62
     7
370
     0
100
AcDbLine
 10
218.2870853351
 20
133.3440896454
 30
0.0
 11
218.5798491379
 21
133.6368534483
 31
0.0
  0
LINE
  5
16E
330
1F
100
AcDbEntity
  8
0
  6
HIDDEN
 62
     7
370
     0
100
AcDbLine
 10
213.0798491379
 20
126.6368534483
 30
0.0
 11
213.0798491379
 21
125.6368534483
 31
0.0
  0
LINE
  5
16F
330
1F
100
AcDbEntity
  8
0
  6
HIDDEN
 62
     7
370
     0
100
AcDbLine
 10
218.0798491379
 20
125.6368534483
 30
0.0
 11
218.0798491379
 21
126.6368534483
 31
0.0
  0
LINE
  5
170
330
1F
100
AcDbEntity
  8
0
  6
HIDDEN
 62
     7
370
     0
100
AcDbLine
 10
213.0798491379
 20
125.6368534483
 30
0.0
 11
215.5798491379
 21
124.7269278626
 31
0.0
  0
LINE
  5
171
330
1F
100
AcDbEntity
  8
0
  6
HIDDEN
 62
     7
370
     0
100
AcDbLine
 10
215.5798491379
 20
124.7269278626
 30
0.0
 11
218.0798491379
 21
125.6368534483
 31
0.0
  0
LINE
  5
172
330
1F
100
AcDbEntity
  8
0
  6
HIDDEN
 62
     7
370
     0
100
AcDbLine
 10
165.6298491379
 20
97.9640778455
 30
0.0
 11
167.9110230165
 21
98.4145308077
 31
0.0
  0
LINE
  5
173
330
1F
100
AcDbEntity
  8
0
  6
HIDDEN
 62
     7
370
     0
100
AcDbLine
 10
166.7486752593
 20
104.3008664837
 30
0.0
 11
165.6298491379
 21
104.0799370117
 31
0.0
  0
LINE
  5
174
330
1F
100
AcDbEntity
  8
0
  6
HIDDEN
 62
     7
370
     0
100
AcDbLine
 10
188.3298491379
 20
100.8511585391
 30
0.0
 11
188.3298491379
 21
114.2249590859
 31
0.0
  0
LINE
  5
175
330
1F
100
AcDbEntity
  8
0
  6
HIDDEN
 62
     7
370
     0
100
AcDbLine
 10
183.3298491379
 20
103.6879794985
 30
0.0
 11
183.3298491379
 21
100.8510300108
 31
0.0
  0
LINE
  5
176
330
1F
100
AcDbEntity
  8
0
  6
HIDDEN
 62
     7
370
     0
100
AcDbLine
 10
183.3298491379
 20
114.2254991665
 30
0.0
 11
183.3298491379
 21
105.346110606
 31
0.0
  0
LINE
  5
177
330
1F
100
AcDbEntity
  8
0
  6
HIDDEN
 62
     7
370
     0
100
AcDbLine
 10
168.0203575751
 20
99.3534994773
 30
0.0
 11
184.2462788891
 21
102.557557874
 31
0.0
  0
LINE
  5
178
330
1F
100
AcDbEntity
  8
0
  6
HIDDEN
 62
     7
370
     0
100
AcDbLine
 10
184.2447184785
 20
106.8383511632
 30
0.0
 11
167.2067141451
 21
103.4739344506
 31
0.0
  0
ARC
  5
179
330
1F
100
AcDbEntity
  8
0
  6
HIDDEN
 62
     7
370
     0
100
AcDbCircle
 10
62.0298491379
 20
101.6868534483
 30
0.0
 40
1.200000000000003
100
AcDbArc
 50
90.0
 51
180.0
  0
ARC
  5
17A
330
1F
100
AcDbEntity
  8
0
  6
HIDDEN
 62
     7
370
     0
100
AcDbCircle
 10
62.0298491379
 20
129.0868534483
 30
0.0
 40
1.200000000000003
100
AcDbArc
 50
180.0
 51
270.0
  0
ARC
  5
17B
330
1F
100
AcDbEntity
  8
0
  6
HIDDEN
 62
     7
370
     0
100
AcDbCircle
 10
193.6298491379
 20
78.0868534483
 30
0.0
 40
2.0
100
AcDbArc
 50
0.0
 51
90.0
  0
LINE
  5
17C
330
1F
100
AcDbEntity
  8
0
  6
HIDDEN
 62
     7
370
     0
100
AcDbLine
 10
195.6298491379
 20
152.6868534483
 30
0.0
 11
195.6298491379
 21
164.4869567988
 31
0.0
  0
LINE
  5
17D
330
1F
100
AcDbEntity
  8
0
  6
HIDDEN
 62
     7
370
     0
100
AcDbLine
 10
195.6298491379
 20
66.2866380612
 30
0.0
 11
195.6298491379
 21
78.0868534483
 31
0.0
  0
ARC
  5
17E
330
1F
100
AcDbEntity
  8
0
  6
HIDDEN
 62
     7
370
     0
100
AcDbCircle
 10
193.6298491379
 20
152.6868534483
 30
0.0
 40
2.0
100
AcDbArc
 50
270.0
 51
0.0
  0
LINE
  5
17F
330
1F
100
AcDbEntity
  8
0
  6
HIDDEN
 62
     7
370
     0
100
AcDbLine
 10
71.7222215687
 20
102.6618534483
 30
0.0
 11
72.5989090303
 21
102.6618534483
 31
0.0
  0
LINE
  5
180
330
1F
100
AcDbEntity
  8
0
  6
HIDDEN
 62
     7
370
     0
100
AcDbLine
 10
72.5989090303
 20
128.1118534483
 30
0.0
 11
71.7222215687
 21
128.1118534483
 31
0.0
  0
ARC
  5
181
330
1F
100
AcDbEntity
  8
0
  6
HIDDEN
 62
     7
370
     0
100
AcDbCircle
 10
72.5989090303
 20
103.0618534483
 30
0.0
 40
0.3999999999999998
100
AcDbArc
 50
270.0
 51
330.0
  0
ARC
  5
182
330
1F
100
AcDbEntity
  8
0
  6
HIDDEN
 62
     7
370
     0
100
AcDbCircle
 10
72.5989090303
 20
127.7118534483
 30
0.0
 40
0.3999999999999998
100
AcDbArc
 50
30.0
 51
90.0
  0
ARC
  5
183
330
1F
100
AcDbEntity
  8
0
  6
HIDDEN
 62
     7
370
     0
100
AcDbCircle
 10
71.7222215687
 20
103.0618534483
 30
0.0
 40
0.3999999999999986
100
AcDbArc
 50
255.0
 51
270.0
  0
ARC
  5
184
330
1F
100
AcDbEntity
  8
0
  6
HIDDEN
 62
     7
370
     0
100
AcDbCircle
 10
71.7222215687
 20
127.7118534483
 30
0.0
 40
0.4000000000000123
100
AcDbArc
 50
90.0
 51
105.0
  0
LINE
  5
185
330
1F
100
AcDbEntity
  8
0
  6
HIDDEN
 62
     7
370
     0
100
AcDbLine
 10
71.6186939506
 20
128.0982237788
 30
0.0
 11
70.8298491379
 21
127.8868534483
 31
0.0
  0
LINE
  5
186
330
1F
100
AcDbEntity
  8
0
  6
HIDDEN
 62
     7
370
     0
100
AcDbLine
 10
70.8298491379
 20
102.8868534483
 30
0.0
 11
71.6186939506
 21
102.6754831178
 31
0.0
  0
LINE
  5
187
330
1F
100
AcDbEntity
  8
0
  6
HIDDEN
 62
     7
370
     0
100
AcDbLine
 10
72.9453191918
 20
102.8618534483
 30
0.0
 11
74.1144534869
 21
104.8868534483
 31
0.0
  0
LINE
  5
188
330
1F
100
AcDbEntity
  8
0
  6
HIDDEN
 62
     7
370
     0
100
AcDbLine
 10
74.1144534869
 20
125.8868534483
 30
0.0
 11
72.9453191918
 21
127.9118534483
 31
0.0
  0
LINE
  5
189
330
1F
100
AcDbEntity
  8
0
  6
HIDDEN
 62
     7
370
     0
100
AcDbLine
 10
62.0298491379
 20
102.8868534483
 30
0.0
 11
70.8298491379
 21
102.8868534483
 31
0.0
  0
LINE
  5
18A
330
1F
100
AcDbEntity
  8
0
  6
HIDDEN
 62
     7
370
     0
100
AcDbLine
 10
70.8298491379
 20
127.8868534483
 30
0.0
 11
62.0298491379
 21
127.8868534483
 31
0.0
  0
ARC
  5
18B
330
1F
100
AcDbEntity
  8
0
  6
HIDDEN
 62
     7
370
     0
100
AcDbCircle
 10
226.6298491379
 20
127.3868534483
 30
0.0
 40
1.0
100
AcDbArc
 50
270.0
 51
0.0
  0
ARC
  5
18C
330
1F
100
AcDbEntity
  8
0
  6
HIDDEN
 62
     7
370
     0
100
AcDbCircle
 10
226.6298491379
 20
103.3868534483
 30
0.0
 40
1.0
100
AcDbArc
 50
0.0
 51
90.0
  0
ARC
  5
18D
330
1F
100
AcDbEntity
  8
0
  6
HIDDEN
 62
     7
370
     0
100
AcDbCircle
 10
200.1298491379
 20
125.8868534483
 30
0.0
 40
1.0
100
AcDbArc
 50
90.0
 51
180.0
  0
ARC
  5
18E
330
1F
100
AcDbEntity
  8
0
  6
HIDDEN
 62
     7
370
     0
100
AcDbCircle
 10
200.1298491379
 20
104.8868534483
 30
0.0
 40
1.0
100
AcDbArc
 50
180.0
 51
270.0
  0
LINE
  5
18F
330
1F
100
AcDbEntity
  8
0
  6
HIDDEN
 62
     7
370
     0
100
AcDbLine
 10
200.9981966403
 20
126.8868534483
 30
0.0
 11
200.1298491379
 21
126.8868534483
 31
0.0
  0
LINE
  5
190
330
1F
100
AcDbEntity
  8
0
  6
HIDDEN
 62
     7
370
     0
100
AcDbLine
 10
200.1298491379
 20
103.8868534483
 30
0.0
 11
200.9981966403
 21
103.8868534483
 31
0.0
  0
ARC
  5
191
330
1F
100
AcDbEntity
  8
0
  6
HIDDEN
 62
     7
370
     0
100
AcDbCircle
 10
200.9981966403
 20
125.8868534483
 30
0.0
 40
0.9999999999999756
100
AcDbArc
 50
75.0
 51
90.0
  0
ARC
  5
192
330
1F
100
AcDbEntity
  8
0
  6
HIDDEN
 62
     7
370
     0
100
AcDbCircle
 10
200.9981966403
 20
104.8868534483
 30
0.0
 40
1.000000000000003
100
AcDbArc
 50
270.0
 51
285.0
  0
LINE
  5
193
330
1F
100
AcDbEntity
  8
0
  6
HIDDEN
 62
     7
370
     0
100
AcDbLine
 10
201.2570156854
 20
103.920927622
 30
0.0
 11
202.9958745417
 21
104.3868534483
 31
0.0
  0
LINE
  5
194
330
1F
100
AcDbEntity
  8
0
  6
HIDDEN
 62
     7
370
     0
100
AcDbLine
 10
202.9958745417
 20
126.3868534483
 30
0.0
 11
201.2570156854
 21
126.8527792746
 31
0.0
  0
LINE
  5
195
330
1F
100
AcDbEntity
  8
0
  6
HIDDEN
 62
     7
370
     0
100
AcDbLine
 10
211.0905325729
 20
126.3868534483
 30
0.0
 11
202.9958745417
 21
126.3868534483
 31
0.0
  0
LINE
  5
196
330
1F
100
AcDbEntity
  8
0
  6
HIDDEN
 62
     7
370
     0
100
AcDbLine
 10
226.6298491379
 20
126.3868534483
 30
0.0
 11
220.0784537853
 21
126.3868534483
 31
0.0
  0
LINE
  5
197
330
1F
100
AcDbEntity
  8
0
  6
HIDDEN
 62
     7
370
     0
100
AcDbLine
 10
202.9958745417
 20
104.3868534483
 30
0.0
 11
226.6298491379
 21
104.3868534483
 31
0.0
  0
LINE
  5
198
330
1F
100
AcDbEntity
  8
0
  6
HIDDEN
 62
     7
370
     0
100
AcDbLine
 10
123.8298491379
 20
104.8868534483
 30
0.0
 11
128.095959533
 21
111.9868534483
 31
0.0
  0
LINE
  5
199
330
1F
100
AcDbEntity
  8
0
  6
HIDDEN
 62
     7
370
     0
100
AcDbLine
 10
128.095959533
 20
118.7868534483
 30
0.0
 11
123.8298491379
 21
125.8868534483
 31
0.0
  0
LINE
  5
19A
330
1F
100
AcDbEntity
  8
0
  6
HIDDEN
 62
     7
370
     0
100
AcDbLine
 10
74.1144534869
 20
104.8868534483
 30
0.0
 11
123.8298491379
 21
104.8868534483
 31
0.0
  0
LINE
  5
19B
330
1F
100
AcDbEntity
  8
0
  6
HIDDEN
 62
     7
370
     0
100
AcDbLine
 10
123.8298491379
 20
125.8868534483
 30
0.0
 11
74.1144534869
 21
125.8868534483
 31
0.0
  0
LINE
  5
19C
330
1F
100
AcDbEntity
  8
0
  6
HIDDEN
 62
     7
370
     0
100
AcDbLine
 10
195.6298534583
 20
164.386853972
 30
0.0
 11
196.6298533077
 21
165.3868537508
 31
0.0
  0
LINE
  5
19D
330
1F
100
AcDbEntity
  8
0
  6
HIDDEN
 62
     7
370
     0
100
AcDbLine
 10
196.6298533083
 20
65.386853145
 30
0.0
 11
195.629853459
 21
66.3868529239
 31
0.0
  0
LINE
  5
19E
330
1F
100
AcDbEntity
  8
0
  6
HIDDEN
 62
     7
370
     0
100
AcDbLine
 10
209.3298491379
 20
135.3868534483
 30
0.0
 11
211.0798491379
 21
133.6368534483
 31
0.0
  0
LINE
  5
19F
330
1F
100
AcDbEntity
  8
0
  6
HIDDEN
 62
     7
370
     0
100
AcDbLine
 10
220.0798491379
 20
133.6368534483
 30
0.0
 11
221.8298491379
 21
135.3868534483
 31
0.0
  0
LINE
  5
1A0
330
1F
100
AcDbEntity
  8
0
  6
HIDDEN
 62
     7
370
     0
100
AcDbLine
 10
211.0798491379
 20
133.6368534483
 30
0.0
 11
211.0798491379
 21
126.3825004058
 31
0.0
  0
LINE
  5
1A1
330
1F
100
AcDbEntity
  8
0
  6
HIDDEN
 62
     7
370
     0
100
AcDbLine
 10
220.0798491379
 20
126.386283832
 30
0.0
 11
220.0798491379
 21
133.6368534483
 31
0.0
  0
LINE
  5
1A2
330
1F
100
AcDbEntity
  8
0
  6
HIDDEN
 62
     7
370
     0
100
AcDbLine
 10
128.095959533
 20
111.9868534483
 30
0.0
 11
199.1298491379
 21
111.9868534483
 31
0.0
  0
LINE
  5
1A3
330
1F
100
AcDbEntity
  8
0
  6
HIDDEN
 62
     7
370
     0
100
AcDbLine
 10
199.1298491379
 20
118.7868534483
 30
0.0
 11
128.095959533
 21
118.7868534483
 31
0.0
  0
LINE
  5
1A4
330
1F
100
AcDbEntity
  8
0
  6
HIDDEN
 62
     7
370
     0
100
AcDbLine
 10
188.3298491379
 20
116.54820773
 30
0.0
 11
188.3298491379
 21
129.9226768857
 31
0.0
  0
LINE
  5
1A5
330
1F
100
AcDbEntity
  8
0
  6
HIDDEN
 62
     7
370
     0
100
AcDbLine
 10
183.3298491379
 20
125.4289339263
 30
0.0
 11
183.3298491379
 21
116.5487478107
 31
0.0
  0
LINE
  5
1A6
330
1F
100
AcDbEntity
  8
0
  6
HIDDEN
 62
     7
370
     0
100
AcDbLine
 10
183.3298491379
 20
129.9225483575
 30
0.0
 11
183.3298491379
 21
127.0855317075
 31
0.0
  0
LINE
  5
1A7
330
1F
100
AcDbEntity
  8
0
  6
HIDDEN
 62
     7
370
     0
100
AcDbLine
 10
167.2067141451
 20
127.299772446
 30
0.0
 11
184.2446528625
 21
123.9353686903
 31
0.0
  0
LINE
  5
1A8
330
1F
100
AcDbEntity
  8
0
  6
HIDDEN
 62
     7
370
     0
100
AcDbLine
 10
184.2462322286
 20
128.2161582364
 30
0.0
 11
168.0203575751
 21
131.4202074192
 31
0.0
  0
LINE
  5
1A9
330
1F
100
AcDbEntity
  8
0
  6
HIDDEN
 62
     7
370
     0
100
AcDbLine
 10
165.6298491379
 20
126.6937698848
 30
0.0
 11
166.7486752593
 21
126.4728404128
 31
0.0
  0
LINE
  5
1AA
330
1F
100
AcDbEntity
  8
0
  6
HIDDEN
 62
     7
370
     0
100
AcDbLine
 10
167.9110230165
 20
132.3591760889
 30
0.0
 11
165.6298491379
 21
132.8096290511
 31
0.0
  0
LINE
  5
1AB
330
1F
100
AcDbEntity
  8
0
  6
HIDDEN
 62
     7
370
     0
100
AcDbLine
 10
171.0379581787
 20
126.0949885601
 30
0.0
 11
171.8226477739
 21
126.8029716231
 31
0.0
  0
LINE
  5
1AC
330
1F
100
AcDbEntity
  8
0
  6
HIDDEN
 62
     7
370
     0
100
AcDbLine
 10
172.4786649861
 20
130.1251594075
 30
0.0
 11
172.021983997
 21
131.0782702366
 31
0.0
  0
LINE
  5
1AD
330
1F
100
AcDbEntity
  8
0
  6
HIDDEN
 62
     7
370
     0
100
AcDbLine
 10
167.0259252593
 20
126.4180931246
 30
0.0
 11
170.2127768745
 21
125.7888001262
 31
0.0
  0
LINE
  5
1AE
330
1F
100
AcDbEntity
  8
0
  6
HIDDEN
 62
     7
370
     0
100
AcDbLine
 10
171.3751246317
 20
131.6751358022
 30
0.0
 11
168.1882730165
 21
132.3044288007
 31
0.0
  0
LINE
  5
1AF
330
1F
100
AcDbEntity
  8
0
  6
HIDDEN
 62
     7
370
     0
100
AcDbLine
 10
166.5574499075
 20
130.7533229216
 30
0.0
 11
166.4742100736
 21
130.5507707577
 31
0.0
  0
LINE
  5
1B0
330
1F
100
AcDbEntity
  8
0
  6
HIDDEN
 62
     7
370
     0
100
AcDbLine
 10
166.1070991379
 20
128.6916557173
 30
0.0
 11
166.1070991379
 21
128.4726665645
 31
0.0
  0
LINE
  5
1B1
330
1F
100
AcDbEntity
  8
0
  6
HIDDEN
 62
     7
370
     0
100
AcDbLine
 10
182.8298491379
 20
129.8132149632
 30
0.0
 11
182.8298491379
 21
128.5546289663
 31
0.0
  0
LINE
  5
1B2
330
1F
100
AcDbEntity
  8
0
  6
HIDDEN
 62
     7
370
     0
100
AcDbLine
 10
188.8298491379
 20
128.5546289663
 30
0.0
 11
188.8298491379
 21
129.8132149632
 31
0.0
  0
LINE
  5
1B3
330
1F
100
AcDbEntity
  8
0
  6
HIDDEN
 62
     7
370
     0
100
AcDbLine
 10
166.1070991379
 20
102.3010403321
 30
0.0
 11
166.1070991379
 21
102.0820511793
 31
0.0
  0
LINE
  5
1B4
330
1F
100
AcDbEntity
  8
0
  6
HIDDEN
 62
     7
370
     0
100
AcDbLine
 10
166.4742100736
 20
100.2229361388
 30
0.0
 11
166.5574499075
 21
100.0203839749
 31
0.0
  0
LINE
  5
1B5
330
1F
100
AcDbEntity
  8
0
  6
HIDDEN
 62
     7
370
     0
100
AcDbLine
 10
168.1882730165
 20
98.4692780959
 30
0.0
 11
171.3751246317
 21
99.0985710943
 31
0.0
  0
LINE
  5
1B6
330
1F
100
AcDbEntity
  8
0
  6
HIDDEN
 62
     7
370
     0
100
AcDbLine
 10
170.2127768745
 20
104.9849067704
 30
0.0
 11
167.0259252593
 21
104.3556137719
 31
0.0
  0
LINE
  5
1B7
330
1F
100
AcDbEntity
  8
0
  6
HIDDEN
 62
     7
370
     0
100
AcDbLine
 10
172.021983997
 20
99.69543666
 30
0.0
 11
172.4786649861
 21
100.6485474891
 31
0.0
  0
LINE
  5
1B8
330
1F
100
AcDbEntity
  8
0
  6
HIDDEN
 62
     7
370
     0
100
AcDbLine
 10
171.8226477739
 20
103.9707352734
 30
0.0
 11
171.0379581787
 21
104.6787183365
 31
0.0
  0
LINE
  5
1B9
330
1F
100
AcDbEntity
  8
0
  6
HIDDEN
 62
     7
370
     0
100
AcDbLine
 10
188.8298491379
 20
100.9604919333
 30
0.0
 11
188.8298491379
 21
102.2190779302
 31
0.0
  0
LINE
  5
1BA
330
1F
100
AcDbEntity
  8
0
  6
HIDDEN
 62
     7
370
     0
100
AcDbLine
 10
182.8298491379
 20
102.2190779302
 30
0.0
 11
182.8298491379
 21
100.9604919333
 31
0.0
  0
DIMENSION
  5
1BB
330
1F
100
AcDbEntity
  8
VERMASSUNG
100
AcDbDimension
  2
_D
 10
53.5211010108
 20
165.3868534483
 30
0.0
 11
53.5211010108
 21
115.3868534483
 31
0.0
 70
   160
  1
MAS-BT 50 %%c<>
 71
     2
 42
-1.0
  3
SLDDIMSTYLE0
100
AcDbAlignedDimension
 13
199.6298491379
 23
65.3868534483
 33
0.0
 14
199.6298491379
 24
165.3868534483
 34
0.0
 50
90.0
100
AcDbRotatedDimension
  0
DIMENSION
  5
1C8
330
1F
100
AcDbEntity
  8
VERMASSUNG
100
AcDbDimension
  2
_D_1
 10
227.6298491379
 20
183.1187677144
 30
0.0
 11
144.2298491379
 21
183.1187677144
 31
0.0
 70
   160
  1
<>
 71
     2
 42
-1.0
  3
SLDDIMSTYLE0
100
AcDbAlignedDimension
 13
60.8298491379
 23
133.736531309
 33
0.0
 14
227.6298491379
 24
134.9868534483
 34
0.0
100
AcDbRotatedDimension
  0
DIMENSION
  5
1D2
330
1F
100
AcDbEntity
  8
VERMASSUNG
100
AcDbDimension
  2
_D_2
 10
227.6298491379
 20
177.1520014458
 30
0.0
 11
195.1298491379
 21
177.1520014458
 31
0.0
 70
   160
  1
<>
 71
     2
 42
-1.0
  3
SLDDIMSTYLE0
100
AcDbAlignedDimension
 13
162.6298491379
 23
150.3118534483
 33
0.0
 14
227.6298491379
 24
134.9868534483
 34
0.0
100
AcDbRotatedDimension
  0
DIMENSION
  5
1DC
330
1F
100
AcDbEntity
  8
VERMASSUNG
100
AcDbDimension
  2
_D_3
 10
227.6298491379
 20
170.8941734081
 30
0.0
 11
214.1298491379
 21
170.8941734081
 31
0.0
 70
   160
  1
<>
 71
     2
 42
-1.0
  3
SLDDIMSTYLE0
100
AcDbAlignedDimension
 13
200.6298491379
 23
164.3868534483
 33
0.0
 14
227.6298491379
 24
134.9868534483
 34
0.0
100
AcDbRotatedDimension
  0
DIMENSION
  5
1E6
330
1F
100
AcDbEntity
  8
VERMASSUNG
100
AcDbDimension
  2
_D_4
 10
242.7574392809
 20
95.3868534483
 30
0.0
 11
242.7574392809
 21
115.3868534483
 31
0.0
 70
   160
  1
WH%%c<>
 71
     2
 42
-1.0
  3
SLDDIMSTYLE0
100
AcDbAlignedDimension
 13
227.2298491379
 23
135.3868534483
 33
0.0
 14
227.2298491379
 24
95.3868534483
 34
0.0
 50
90.0
100
AcDbRotatedDimension
  0
DIMENSION
  5
1F2
330
1F
100
AcDbEntity
  8
VERMASSUNG
100
AcDbDimension
  2
_D_5
 10
235.2311545772
 20
126.3868534483
 30
0.0
 11
235.2311545772
 21
115.3868534483
 31
0.0
 70
   160
  1
%%c<>
 71
     2
 42
-1.0
  3
SLDDIMSTYLE0
100
AcDbAlignedDimension
 13
226.6298491379
 23
104.3868534483
 33
0.0
 14
226.6298491379
 24
126.3868534483
 34
0.0
 50
90.0
100
AcDbRotatedDimension
  0
LINE
  5
1FD
330
1F
100
AcDbEntity
  8
VERMASSUNG
  6
CENTERX2
370
     0
100
AcDbLine
 10
58.8298491379
 20
115.3868534483
 30
0.0
 11
229.4197195528
 21
115.3868534483
 31
0.0
  0
LINE
  5
1FE
330
1F
100
AcDbEntity
  8
0
  6
Continuous
 62
     7
370
    15
100
AcDbLine
 10
274.4088798671
 20
42.7669214509
 30
0.0
 11
274.3381576993
 21
42.8077617604
 31
0.0
  0
LINE
  5
1FF
330
1F
100
AcDbEntity
  8
0
  6
Continuous
 62
     7
370
    15
100
AcDbLine
 10
271.2971044843
 20
42.8077617604
 30
0.0
 11
271.2263823165
 21
42.7669214509
 31
0.0
  0
LINE
  5
200
330
1F
100
AcDbEntity
  8
0
  6
Continuous
 62
     7
370
    15
100
AcDbLine
 10
274.8380039153
 20
33.8829225959
 30
0.0
 11
277.3940276009
 21
34.4036932802
 31
0.0
  0
SPLINE
  5
201
330
1F
100
AcDbEntity
  8
0
  6
Continuous
 62
     7
370
    15
100
AcDbSpline
210
0.0
220
0.0
230
1.0
 70
     8
 71
     3
 72
    20
 73
    16
 74
     0
 42
0.000000001
 43
0.00000001
 40
0.0
 40
0.0
 40
0.0
 40
0.0
 40
0.0169663371353345
 40
0.0996977179844481
 40
0.1827687132521956
 40
0.2661465421966135
 40
0.3497630976425877
 40
0.4335416005870264
 40
0.5174141465769186
 40
0.6013290755783344
 40
0.6852465334634189
 40
0.7691454552194902
 40
0.8530172740585095
 40
0.9368593392050647
 40
1.0
 40
1.0
 40
1.0
 40
1.0
 10
258.3814502210407
 20
14.93161436016465
 30
0.0
 10
258.4635733136839
 20
14.91980161231406
 30
0.0
 10
258.9461456488344
 20
14.85038745447693
 30
0.0
 10
259.8800629323412
 20
14.86198725951039
 30
0.0
 10
261.1773270278121
 20
14.97366949887657
 30
0.0
 10
262.5168780134596
 20
15.23920603239199
 30
0.0
 10
263.8845028028681
 20
15.64158172448173
 30
0.0
 10
265.2728779763012
 20
16.18253698719244
 30
0.0
 10
266.6725900215535
 20
16.85739742572018
 30
0.0
 10
268.0748249375296
 20
17.66186799060132
 30
0.0
 10
269.470604165977
 20
18.59077836298631
 30
0.0
 10
270.8518162382377
 20
19.63703557011996
 30
0.0
 10
272.2082078459749
 20
20.79773870894212
 30
0.0
 10
273.4292023169946
 20
21.94827725272458
 30
0.0
 10
274.176106011268
 20
22.75184391047078
 30
0.0
 10
274.4969599926084
 20
23.09703909880243
 30
0.0
  0
SPLINE
  5
202
330
1F
100
AcDbEntity
  8
0
  6
Continuous
 62
     7
370
    15
100
AcDbSpline
210
0.0
220
0.0
230
1.0
 70
     8
 71
     3
 72
    20
 73
    16
 74
     0
 42
0.000000001
 43
0.00000001
 40
0.0
 40
0.0
 40
0.0
 40
0.0
 40
0.0713707945601299
 40
0.1553985544791655
 40
0.2394620235487717
 40
0.3235649471514652
 40
0.4077087058891563
 40
0.4918906827603965
 40
0.5761018469019101
 40
0.6603187563734771
 40
0.7444993421519114
 40
0.828587363715093
 40
0.9125084060164299
 40
0.9961778835368966
 40
1.0
 40
1.0
 40
1.0
 40
1.0
 10
283.5153939767127
 20
38.71159058558322
 30
0.0
 10
283.6692407731668
 20
39.21946108377312
 30
0.0
 10
284.0042177049437
 20
40.32526832282286
 30
0.0
 10
284.3958286695542
 20
42.01328038259707
 30
0.0
 10
284.7122274802771
 20
43.76540392075789
 30
0.0
 10
284.9175600240017
 20
45.48112985534058
 30
0.0
 10
285.0136979828962
 20
47.15030400599848
 30
0.0
 10
284.9987078949196
 20
48.76272674791245
 30
0.0
 10
284.8723548758751
 20
50.30839285433805
 30
0.0
 10
284.6350876477892
 20
51.77790579579359
 30
0.0
 10
284.2868595926657
 20
53.16054234100861
 30
0.0
 10
283.8333060897838
 20
54.45175380725384
 30
0.0
 10
283.2628599558797
 20
55.6255075340471
 30
0.0
 10
282.8322802475111
 20
56.38525530217348
 30
0.0
 10
282.5657848753884
 20
56.71752335296273
 30
0.0
 10
282.5541428843952
 20
56.73203865813963
 30
0.0
  0
LINE
  5
203
330
1F
100
AcDbEntity
  8
0
  6
Continuous
 62
     7
370
    15
100
AcDbLine
 10
252.4609228279
 20
17.3642767729
 30
0.0
 11
254.6794703539
 21
16.0835365475
 31
0.0
  0
LINE
  5
204
330
1F
100
AcDbEntity
  8
0
  6
Continuous
 62
     7
370
    15
100
AcDbLine
 10
279.6774386698
 20
59.3859796665
 30
0.0
 11
277.4588911438
 21
60.666719892
 31
0.0
  0
LINE
  5
205
330
1F
100
AcDbEntity
  8
0
  6
Continuous
 62
     7
370
    15
100
AcDbLine
 10
272.1379126154
 20
63.7384554127
 30
0.0
 11
268.0101767802
 21
66.1213465891
 31
0.0
  0
LINE
  5
206
330
1F
100
AcDbEntity
  8
0
  6
Continuous
 62
     7
370
    15
100
AcDbLine
 10
276.9376773396
 20
23.9367975708
 30
0.0
 11
277.0790757109
 21
24.0184516509
 31
0.0
  0
LINE
  5
207
330
1F
100
AcDbEntity
  8
0
  6
Continuous
 62
     7
370
    15
100
AcDbLine
 10
284.0075959041
 20
36.0203010722
 30
0.0
 11
284.0075959041
 21
36.1835826946
 31
0.0
  0
LINE
  5
208
330
1F
100
AcDbEntity
  8
0
  6
Continuous
 62
     7
370
    15
100
AcDbLine
 10
281.9361217554
 20
40.7620307592
 30
0.0
 11
273.5922617374
 21
45.578838619
 31
0.0
  0
LINE
  5
209
330
1F
100
AcDbEntity
  8
0
  6
Continuous
 62
     7
370
    15
100
AcDbLine
 10
263.593074411
 20
28.2578613714
 30
0.0
 11
271.936934429
 21
23.4410535116
 31
0.0
  0
SPLINE
  5
20A
330
1F
100
AcDbEntity
  8
0
  6
Continuous
 62
     7
370
    15
100
AcDbSpline
210
0.0
220
0.0
230
1.0
 70
     8
 71
     3
 72
    31
 73
    27
 74
     0
 42
0.000000001
 43
0.00000001
 40
0.0
 40
0.0
 40
0.0
 40
0.0
 40
0.0207008106775834
 40
0.0635891777828268
 40
0.1066515747065329
 40
0.1498647531997835
 40
0.1931910749483531
 40
0.236591338826235
 40
0.2800324052110471
 40
0.3234898646865876
 40
0.3669443352251585
 40
0.4103876652781597
 40
0.4538163562540742
 40
0.4972296363177345
 40
0.5406284330468546
 40
0.584014687873427
 40
0.6273909219141334
 40
0.6707599741134547
 40
0.7141248518614428
 40
0.7574886515995638
 40
0.8008541944386711
 40
0.8442239317092581
 40
0.8876010558946794
 40
0.9309887450456492
 40
0.9743900993227714
 40
0.9999999999999999
 40
0.9999999999999999
 40
0.9999999999999999
 40
0.9999999999999999
 10
264.3254384335653
 20
67.2652346512666
 30
0.0
 10
264.1302488704385
 20
67.2885757457682
 30
0.0
 10
263.5306615390854
 20
67.36027540193268
 30
0.0
 10
262.4730863255947
 20
67.32761796704015
 30
0.0
 10
261.1637189246178
 20
67.17504215361019
 30
0.0
 10
259.8160064475163
 20
66.87349602078052
 30
0.0
 10
258.4420481478372
 20
66.43440122052742
 30
0.0
 10
257.0498279916289
 20
65.85789429262448
 30
0.0
 10
255.6485862039826
 20
65.14850542003092
 30
0.0
 10
254.2471925530982
 20
64.31080508064694
 30
0.0
 10
252.8544302312623
 20
63.35040714478579
 30
0.0
 10
251.4788597935694
 20
62.27356560254273
 30
0.0
 10
250.1288098921666
 20
61.0871580729666
 30
0.0
 10
248.8124117374744
 20
59.79865532140433
 30
0.0
 10
247.5375827162914
 20
58.41609455239954
 30
0.0
 10
246.3119942561138
 20
56.94803989454227
 30
0.0
 10
245.1430339878686
 20
55.40354033261634
 30
0.0
 10
244.0377681942855
 20
53.79208272137078
 30
0.0
 10
243.0028910624704
 20
52.1235369835784
 30
0.0
 10
242.0447241563494
 20
50.40811202707458
 30
0.0
 10
241.1690425106968
 20
48.65626891923188
 30
0.0
 10
240.3815475494985
 20
46.87876787207365
 30
0.0
 10
239.6859140158187
 20
45.08614994550866
 30
0.0
 10
239.0909343548362
 20
43.29033495578436
 30
0.0
 10
238.6531004575102
 20
41.74341737917897
 30
0.0
 10
238.4488663552454
 20
40.80618471845538
 30
0.0
 10
238.3730756008625
 20
40.45838006878681
 30
0.0
  0
SPLINE
  5
20B
330
1F
100
AcDbEntity
  8
0
  6
Continuous
 62
     7
370
    15
100
AcDbSpline
210
0.0
220
0.0
230
1.0
 70
     8
 71
     3
 72
    22
 73
    18
 74
     0
 42
0.000000001
 43
0.00000001
 40
0.0
 40
0.0
 40
0.0
 40
0.0
 40
0.0556628554089488
 40
0.1239075446871898
 40
0.1965053721547618
 40
0.2660081042149191
 40
0.3342200293447655
 40
0.4021844634161963
 40
0.4702017623880406
 40
0.5384217891117954
 40
0.6068346440646892
 40
0.6753726832239858
 40
0.7439497578890417
 40
0.8124556144730665
 40
0.8807848566749664
 40
0.9488486284323921
 40
1.0
 40
1.0
 40
1.0
 40
1.0
 10
274.0392952536679
 20
27.44010194351733
 30
0.0
 10
273.9366748176255
 20
27.49636901053728
 30
0.0
 10
273.7082379871516
 20
27.62162155229012
 30
0.0
 10
273.4213208922876
 20
27.96222777078184
 30
0.0
 10
273.1749197806657
 20
28.44202857855356
 30
0.0
 10
273.0196399265594
 20
29.04867787870612
 30
0.0
 10
272.9647460895944
 20
29.73898427361675
 30
0.0
 10
273.012591110027
 20
30.49808929686177
 30
0.0
 10
273.1634751109115
 20
31.30652895791555
 30
0.0
 10
273.4150666362358
 20
32.14197819261447
 30
0.0
 10
273.7616800978573
 20
32.98062617138901
 30
0.0
 10
274.1942372483322
 20
33.79809747718733
 30
0.0
 10
274.700457619517
 20
34.57021081610246
 30
0.0
 10
275.2653710938671
 20
35.27510961088538
 30
0.0
 10
275.8712538454087
 20
35.88983034737485
 30
0.0
 10
276.4489440740041
 20
36.36517582613084
 30
0.0
 10
276.8166185053828
 20
36.59263038140784
 30
0.0
 10
276.9743757410059
 20
36.69022379233883
 30
0.0
  0
SPLINE
  5
20C
330
1F
100
AcDbEntity
  8
0
  6
Continuous
 62
     7
370
    15
100
AcDbSpline
210
0.0
220
0.0
230
1.0
 70
     8
 71
     3
 72
    13
 73
     9
 74
     0
 42
0.000000001
 43
0.00000001
 40
0.0
 40
0.0
 40
0.0
 40
0.0
 40
0.106845750617716
 40
0.3108874334328042
 40
0.514868233128754
 40
0.72062206178288
 40
0.9325248400302869
 40
1.0
 40
1.0
 40
1.0
 40
1.0
 10
276.9743757410059
 20
36.69022379233883
 30
0.0
 10
277.0823272917627
 20
36.7493831600604
 30
0.0
 10
277.3964322548133
 20
36.92151826031599
 30
0.0
 10
277.9008660559366
 20
37.11106388403084
 30
0.0
 10
278.458365384297
 20
37.21657540347586
 30
0.0
 10
278.9527195352048
 20
37.18891382051473
 30
0.0
 10
279.2944809257516
 20
37.10430260568737
 30
0.0
 10
279.4518864358549
 20
36.98825297683931
 30
0.0
 10
279.4899029021591
 20
36.96022475341938
 30
0.0
  0
LINE
  5
20D
330
1F
100
AcDbEntity
  8
0
  6
Continuous
 62
     7
370
    15
100
AcDbLine
 10
253.5904481069
 20
63.8365195558
 30
0.0
 11
223.2408287681
 21
74.7733193482
 31
0.0
  0
LINE
  5
20E
330
1F
100
AcDbEntity
  8
0
  6
Continuous
 62
     7
370
    15
100
AcDbLine
 10
213.1314740927
 20
57.2615059772
 30
0.0
 11
242.5952114193
 21
32.3825697519
 31
0.0
  0
LINE
  5
20F
330
1F
100
AcDbEntity
  8
0
  6
Continuous
 62
     7
370
    15
100
AcDbLine
 10
243.0122084643
 20
22.81890347
 30
0.0
 11
247.1399442995
 21
20.4360122937
 31
0.0
  0
SPLINE
  5
210
330
1F
100
AcDbEntity
  8
0
  6
Continuous
 62
     7
370
    15
100
AcDbSpline
210
0.0
220
0.0
230
1.0
 70
     8
 71
     3
 72
    11
 73
     7
 74
     0
 42
0.000000001
 43
0.00000001
 40
0.0
 40
0.0
 40
0.0
 40
0.0
 40
0.1029993773408065
 40
0.4174359212795641
 40
0.7313972783588414
 40
1.0
 40
1.0
 40
1.0
 40
1.0
 10
238.3565854672389
 20
29.29324428012417
 30
0.0
 10
238.3981806111096
 20
29.14568613371111
 30
0.0
 10
238.5667574282779
 20
28.54766241375762
 30
0.0
 10
238.9418009938351
 20
27.56900014760523
 30
0.0
 10
239.4821127258357
 20
26.44590541509006
 30
0.0
 10
239.9156494281831
 20
25.8060427642513
 30
0.0
 10
240.115540122504
 20
25.51102139961564
 30
0.0
  0
SPLINE
  5
211
330
1F
100
AcDbEntity
  8
0
  6
Continuous
 62
     7
370
    15
100
AcDbSpline
210
0.0
220
0.0
230
1.0
 70
     8
 71
     3
 72
    25
 73
    21
 74
     0
 42
0.000000001
 43
0.00000001
 40
0.0
 40
0.0
 40
0.0
 40
0.0
 40
0.0438039404148055
 40
0.0964050175538126
 40
0.1500478736448504
 40
0.2049697020879979
 40
0.2609946613138658
 40
0.3177109939759203
 40
0.3747138095048914
 40
0.4316951416719387
 40
0.4885623396875045
 40
0.5453066949784612
 40
0.6019564127478886
 40
0.6585557974315347
 40
0.7151558206479578
 40
0.7717994468694176
 40
0.8285351789608267
 40
0.8854183782141486
 40
0.9424996820197019
 40
1.0
 40
1.0
 40
1.0
 40
1.0
 10
223.148134020084
 20
74.7948484481076
 30
0.0
 10
222.9349510741478
 20
74.85971990568993
 30
0.0
 10
222.4657716932398
 20
75.00249094290126
 30
0.0
 10
221.6820930158258
 20
75.05227565440723
 30
0.0
 10
220.8213481895344
 20
74.97905759817314
 30
0.0
 10
219.9272768711024
 20
74.76026421391879
 30
0.0
 10
219.0130688249832
 20
74.40150035873882
 30
0.0
 10
218.0929643094458
 20
73.90554881196962
 30
0.0
 10
217.1835095608991
 20
73.28155405416493
 30
0.0
 10
216.3000554470277
 20
72.54123617052599
 30
0.0
 10
215.4561842278493
 20
71.69793946021171
 30
0.0
 10
214.6636962628972
 20
70.76537885091838
 30
0.0
 10
213.9334269174207
 20
69.75786000414358
 30
0.0
 10
213.2754510356048
 20
68.69028501830653
 30
0.0
 10
212.6990293288505
 20
67.5781035033022
 30
0.0
 10
212.2128336174827
 20
66.43728432100015
 30
0.0
 10
211.8236206435126
 20
65.28350278065511
 30
0.0
 10
211.5408233720269
 20
64.13388928576458
 30
0.0
 10
211.3592046256634
 20
62.99798084627906
 30
0.0
 10
211.3362694023461
 20
62.27401548485315
 30
0.0
 10
211.3247598547142
 20
61.9107090676468
 30
0.0
  0
SPLINE
  5
212
330
1F
100
AcDbEntity
  8
0
  6
Continuous
 62
     7
370
    15
100
AcDbSpline
210
0.0
220
0.0
230
1.0
 70
     8
 71
     3
 72
    14
 73
    10
 74
     0
 42
0.000000001
 43
0.00000001
 40
0.0
 40
0.0
 40
0.0
 40
0.0
 40
0.0961640073803366
 40
0.2775004074910115
 40
0.4588312392024068
 40
0.6384530080024331
 40
0.8146068446526875
 40
0.986132682628383
 40
1.0
 40
1.0
 40
1.0
 40
1.0
 10
211.3247598547142
 20
61.9107090676468
 30
0.0
 10
211.3281461044879
 20
61.72227236733097
 30
0.0
 10
211.3379178030441
 20
61.17850071566625
 30
0.0
 10
211.446852613636
 20
60.32416687646891
 30
0.0
 10
211.6939746215067
 20
59.3869498402451
 30
0.0
 10
212.0621675739328
 20
58.541903872809
 30
0.0
 10
212.5551918632155
 20
57.82714727288388
 30
0.0
 10
212.946977166616
 20
57.37968586248464
 30
0.0
 10
213.1938465852192
 20
57.21498177930946
 30
0.0
 10
213.2123122970234
 20
57.20266199442035
 30
0.0
  0
LWPOLYLINE
  5
213
330
1F
100
AcDbEntity
  8
0
  6
Continuous
 62
     7
370
    15
100
AcDbPolyline
 90
       18
 70
   128
 43
0.0
 10
274.5480453869
 20
41.193648728
 10
274.8374411285
 20
41.5049227568
 10
274.9632038732
 20
41.8506555388
 10
274.9151450714
 20
42.2028378601
 10
274.6971581613
 20
42.5329380036
 10
274.3269031461
 20
42.8142132189
 10
273.834375885
 20
43.0238762607
 10
273.2594780075
 20
43.1449414764
 10
272.6487843208
 20
43.1676008822
 10
272.0517695952
 20
43.0900187477
 10
271.5168004133
 20
42.9184803162
 10
271.0872167967
 20
42.6668826112
 10
270.7978210551
 20
42.3556085824
 10
270.6720583104
 20
42.0098758004
 10
270.7201171122
 20
41.6576934791
 10
270.9381040223
 20
41.3275933355
 10
271.3083590375
 20
41.0463181203
 10
271.5946638047
 20
40.9094533379
  0
LWPOLYLINE
  5
214
330
1F
100
AcDbEntity
  8
0
  6
Continuous
 62
     7
370
    15
100
AcDbPolyline
 90
       19
 70
   128
 43
0.0
 10
274.0248968791
 20
41.4163468731
 10
274.2565664099
 20
41.6857073864
 10
274.3146791049
 20
41.9845652379
 10
274.1922257155
 20
42.2768737601
 10
273.9039759276
 20
42.5273762312
 10
273.4846969197
 20
42.7058583561
 10
272.9849599282
 20
42.7907925566
 10
272.4650406095
 20
42.7719345144
 10
271.9876489066
 20
42.6515587878
 10
271.6103653045
 20
42.4441844661
 10
271.3786957737
 20
42.1748239528
 10
271.3205830787
 20
41.8759661013
 10
271.4430364681
 20
41.5836575791
 10
271.731286256
 20
41.333155108
 10
272.1505652639
 20
41.154672983
 10
272.6503022554
 20
41.0697387826
 10
273.1702215741
 20
41.0885968248
 10
273.647613277
 20
41.2089725513
 10
274.0248968791
 20
41.4163468731
  0
SPLINE
  5
215
330
1F
100
AcDbEntity
  8
0
  6
Continuous
 62
     7
370
    15
100
AcDbSpline
210
0.0
220
0.0
230
1.0
 70
     8
 71
     3
 72
    11
 73
     7
 74
     0
 42
0.000000001
 43
0.00000001
 40
0.0
 40
0.0
 40
0.0
 40
0.0
 40
0.2164543009645096
 40
0.4403089937225595
 40
0.7518987489759439
 40
1.0
 40
1.0
 40
1.0
 40
1.0
 10
274.2519979867524
 20
41.79107920341448
 30
0.0
 10
274.2124222492904
 20
41.80641688273569
 30
0.0
 10
274.1319177129513
 20
41.83761662382593
 30
0.0
 10
273.9825224506845
 20
41.97238665793307
 30
0.0
 10
273.822268455852
 20
42.22197840575364
 30
0.0
 10
273.7197152720831
 20
42.45248194448827
 30
0.0
 10
273.6742552362702
 20
42.55466013867778
 30
0.0
  0
SPLINE
  5
216
330
1F
100
AcDbEntity
  8
0
  6
Continuous
 62
     7
370
    15
100
AcDbSpline
210
0.0
220
0.0
230
1.0
 70
     8
 71
     3
 72
    11
 73
     7
 74
     0
 42
0.000000001
 43
0.00000001
 40
0.0
 40
0.0
 40
0.0
 40
0.0
 40
0.2164543009644883
 40
0.4403089937225367
 40
0.7518987489759348
 40
1.0
 40
1.0
 40
1.0
 40
1.0
 10
273.6742552362702
 20
42.55466013867778
 30
0.0
 10
273.5760002125389
 20
42.52405920901786
 30
0.0
 10
273.3761309078655
 20
42.46181112946714
 30
0.0
 10
273.0052260055009
 20
42.42316656723268
 30
0.0
 10
272.6073620344146
 20
42.48673915082821
 30
0.0
 10
272.3527523631584
 20
42.59820130433426
 30
0.0
 10
272.239888341309
 20
42.64761053088342
 30
0.0
  0
SPLINE
  5
217
330
1F
100
AcDbEntity
  8
0
  6
Continuous
 62
     7
370
    15
100
AcDbSpline
210
0.0
220
0.0
230
1.0
 70
     8
 71
     3
 72
    13
 73
     9
 74
     0
 42
0.000000001
 43
0.00000001
 40
0.0
 40
0.0
 40
0.0
 40
0.0
 40
0.1844095697098965
 40
0.3495005370884411
 40
0.5197705331556411
 40
0.6927076360809579
 40
0.8718061725834045
 40
1.0
 40
1.0
 40
1.0
 40
1.0
 10
272.239888341309
 20
42.64761053088342
 30
0.0
 10
272.1899620209791
 20
42.57664961160899
 30
0.0
 10
272.0953396225993
 20
42.44216158347837
 30
0.0
 10
271.9449280533533
 20
42.26885841008417
 30
0.0
 10
271.7929340040034
 20
42.13253864986271
 30
0.0
 10
271.6375867518544
 20
42.03925909998653
 30
0.0
 10
271.500595718991
 20
41.99233024471854
 30
0.0
 10
271.4178030116114
 20
41.98149863439153
 30
0.0
 10
271.3832641968299
 20
41.97697998782579
 30
0.0
  0
SPLINE
  5
218
330
1F
100
AcDbEntity
  8
0
  6
Continuous
 62
     7
370
    15
100
AcDbSpline
210
0.0
220
0.0
230
1.0
 70
     8
 71
     3
 72
    11
 73
     7
 74
     0
 42
0.000000001
 43
0.00000001
 40
0.0
 40
0.0
 40
0.0
 40
0.0
 40
0.2595847980881266
 40
0.5280445836490888
 40
0.9017214445078604
 40
1.0
 40
1.0
 40
1.0
 40
1.0
 10
271.3832641968299
 20
41.97697998782579
 30
0.0
 10
271.4228622426132
 20
41.8875494105887
 30
0.0
 10
271.5034121582976
 20
41.7056306993604
 30
0.0
 10
271.6524120095244
 20
41.44827832041674
 30
0.0
 10
271.7802168708149
 20
41.30039700216002
 30
0.0
 10
271.8529583490443
 20
41.26742114207944
 30
0.0
 10
271.8681058124636
 20
41.26055434961864
 30
0.0
  0
SPLINE
  5
219
330
1F
100
AcDbEntity
  8
0
  6
Continuous
 62
     7
370
    15
100
AcDbSpline
210
0.0
220
0.0
230
1.0
 70
     8
 71
     3
 72
    10
 73
     6
 74
     0
 42
0.000000001
 43
0.00000001
 40
0.0
 40
0.0
 40
0.0
 40
0.0
 40
0.1717258546022546
 40
0.7053487178010484
 40
0.9999999999999999
 40
0.9999999999999999
 40
0.9999999999999999
 40
0.9999999999999999
 10
273.7121315690778
 20
41.23924606425889
 30
0.0
 10
273.7432760255767
 20
41.25226938842683
 30
0.0
 10
273.8711991185146
 20
41.30576153743748
 30
0.0
 10
274.0623996174457
 20
41.5245147235298
 30
0.0
 10
274.2022481091149
 20
41.72113371651352
 30
0.0
 10
274.2519979867524
 20
41.79107920341448
 30
0.0
  0
LINE
  5
21A
330
1F
100
AcDbEntity
  8
0
  6
Continuous
 62
     7
370
    15
100
AcDbLine
 10
273.6742552363
 20
41.2194289497
 30
0.0
 11
273.6742552363
 21
42.5546601387
 31
0.0
  0
LINE
  5
21B
330
1F
100
AcDbEntity
  8
0
  6
Continuous
 62
     7
370
    15
100
AcDbLine
 10
272.2398883413
 20
41.1311415479
 30
0.0
 11
272.2398883413
 21
42.6476105309
 31
0.0
  0
ARC
  5
21C
330
1F
100
AcDbEntity
  8
0
  6
Continuous
 62
     7
370
    15
100
AcDbCircle
 10
274.6661474481
 20
34.5085055905
 30
0.0
 40
0.6394958846426821
100
AcDbArc
 50
238.3639661944
 51
337.0894496182
  0
LWPOLYLINE
  5
21D
330
1F
100
AcDbEntity
  8
0
  6
Continuous
 62
     7
370
    15
100
AcDbPolyline
 90
        7
 70
   128
 43
0.0
 10
278.13029877
 20
37.139221336
 10
278.206552243
 20
36.9681236276
 10
278.4078952602
 20
36.346917297
 10
278.4837908364
 20
35.7541273295
 10
278.428610144
 20
35.2337182453
 10
278.2464456825
 20
34.8242864054
 10
277.9663391952
 20
34.5649435296
  0
ARC
  5
21E
330
1F
100
AcDbEntity
  8
0
  6
Continuous
 62
     7
370
    15
100
AcDbCircle
 10
275.3231557361
 20
51.8430364045
 30
0.0
 40
8.700016033582202
100
AcDbArc
 50
34.9500308657
 51
84.9613057265
  0
ARC
  5
21F
330
1F
100
AcDbEntity
  8
0
  6
Continuous
 62
     7
370
    15
100
AcDbCircle
 10
259.0244076426
 20
23.6112713415
 30
0.0
 40
8.68385463756894
100
AcDbArc
 50
214.7572456476
 51
264.8712342661
  0
LWPOLYLINE
  5
220
330
1F
100
AcDbEntity
  8
0
  6
Continuous
 62
     7
370
    15
100
AcDbPolyline
 90
        9
 70
   128
 43
0.0
 10
252.4609228279
 20
17.3642767729
 10
252.2945995647
 20
17.4628827837
 10
251.3037051769
 20
18.1693379754
 10
250.4092840712
 20
19.0230594083
 10
249.6176548228
 20
20.018016027
 10
248.9344098414
 20
21.1471790302
 10
248.3643758632
 20
22.4025715248
 10
247.9115798533
 20
23.7753248783
 10
247.5792205576
 20
25.2557413709
  0
SPLINE
  5
221
330
1F
100
AcDbEntity
  8
0
  6
Continuous
 62
     7
370
    15
100
AcDbSpline
210
0.0
220
0.0
230
1.0
 70
     8
 71
     3
 72
    32
 73
    28
 74
     0
 42
0.000000001
 43
0.00000001
 40
0.0
 40
0.0
 40
0.0
 40
0.0
 40
0.0193254758652704
 40
0.0385826927409049
 40
0.0577846348017481
 40
0.0769443985967347
 40
0.0960751672961712
 40
0.1151901840600305
 40
0.1343027247899319
 40
0.1534260705421022
 40
0.1725734798867981
 40
0.1917581615009326
 40
0.2109932472750491
 40
0.230291766203487
 40
0.2496666193081581
 40
0.3745846283004807
 40
0.4997410234225904
 40
0.4999962720874485
 40
0.624862702147581
 40
0.7503411293900218
 40
0.78614513231055
 40
0.8217618639989446
 40
0.8572756267685467
 40
0.8927714566740896
 40
0.9283345184906214
 40
0.9640494961172915
 40
1.0
 40
1.0
 40
1.0
 40
1.0
 10
247.5791652815623
 20
32.70756613730651
 30
0.0
 10
247.6011084988502
 20
32.64747509359071
 30
0.0
 10
247.6449174283827
 20
32.52750525210634
 30
0.0
 10
247.7073566796052
 20
32.3467576979947
 30
0.0
 10
247.7672653071324
 20
32.1659143015757
 30
0.0
 10
247.8244518927664
 20
31.984907186033
 30
0.0
 10
247.8790099639747
 20
31.80377778371018
 30
0.0
 10
247.9309577105657
 20
31.62253926637845
 30
0.0
 10
247.9803341900286
 20
31.44121331216858
 30
0.0
 10
248.0271735714762
 20
31.2598202354337
 30
0.0
 10
248.0715121778216
 20
31.07838188003235
 30
0.0
 10
248.1133860210446
 20
30.89691999106116
 30
0.0
 10
248.1528336122326
 20
30.71545993861135
 30
0.0
 10
248.1898871315922
 20
30.5340174929225
 30
0.0
 10
248.287579231226
 20
30.02366654118395
 30
0.0
 10
248.4050754300588
 20
29.19706501249716
 30
0.0
 10
248.4399268661797
 20
28.48174551720453
 30
0.0
 10
248.4403226903532
 20
27.80503355229559
 30
0.0
 10
248.4052713393109
 20
27.16334242819649
 30
0.0
 10
248.2803372591393
 20
26.54204148942236
 30
0.0
 10
248.1596110782638
 20
26.16941738745049
 30
0.0
 10
248.0853036657415
 20
25.98062068631949
 30
0.0
 10
248.0023901945093
 20
25.806429403358
 30
0.0
 10
247.9106913934994
 20
25.64661323329253
 30
0.0
 10
247.8097893258769
 20
25.50140936067691
 30
0.0
 10
247.7002364290771
 20
25.36936240054875
 30
0.0
 10
247.619708131177
 20
25.2936629156065
 30
0.0
 10
247.5793116554212
 20
25.25568878119733
 30
0.0
  0
LWPOLYLINE
  5
222
330
1F
100
AcDbEntity
  8
0
  6
Continuous
 62
     7
370
    15
100
AcDbPolyline
 90
       27
 70
   128
 43
0.0
 10
247.5791652813
 20
32.7075661374
 10
247.9115046213
 20
34.5717319998
 10
248.3642841797
 20
36.4672913134
 10
248.9343052482
 20
38.3808527015
 10
249.6175408534
 20
40.2988976099
 10
250.409164206
 20
42.2078758101
 10
251.3035828001
 20
44.0943011264
 10
252.2944779224
 20
45.94484671
 10
253.3748492906
 20
47.7464391885
 10
254.5370645085
 20
49.4863510238
 10
255.7729129853
 20
51.152290427
 10
257.0736639404
 20
52.7324881952
 10
258.4301280829
 20
54.2157808564
 10
259.8327225302
 20
55.5916895347
 10
261.2715385075
 20
56.8504939795
 10
262.7364113489
 20
57.9833012355
 10
264.2169923074
 20
58.9821084674
 10
265.7028216643
 20
59.8398594974
 10
267.1834026228
 20
60.5504946537
 10
268.6482754643
 20
61.10899358
 10
270.0870914415
 20
61.5114107024
 10
271.4896858888
 20
61.7549031031
 10
272.8461500313
 20
61.8377506046
 10
274.1469009864
 20
61.7593679221
 10
275.3827494632
 20
61.5203087982
 10
276.5449646811
 20
61.1222620911
 10
277.4588911438
 20
60.666719892
  0
SPLINE
  5
223
330
1F
100
AcDbEntity
  8
0
  6
Continuous
 62
     7
370
    15
100
AcDbSpline
210
0.0
220
0.0
230
1.0
 70
     8
 71
     3
 72
     8
 73
     4
 74
     0
 42
0.000000001
 43
0.00000001
 40
0.0
 40
0.0
 40
0.0
 40
0.0
 40
1.0
 40
1.0
 40
1.0
 40
1.0
 10
246.6171720025062
 20
38.14290385523291
 30
0.0
 10
245.4475455825682
 20
37.94734768199017
 30
0.0
 10
244.2769423397083
 20
37.75376271527026
 30
0.0
 10
243.1057108580555
 20
37.56148326602398
 30
0.0
  0
SPLINE
  5
224
330
1F
100
AcDbEntity
  8
0
  6
Continuous
 62
     7
370
    15
100
AcDbSpline
210
0.0
220
0.0
230
1.0
 70
     8
 71
     3
 72
     8
 73
     4
 74
     0
 42
0.000000001
 43
0.00000001
 40
0.0
 40
0.0
 40
0.0
 40
0.0
 40
0.0012417047560385
 40
0.0012417047560385
 40
0.0012417047560385
 40
0.0012417047560385
 10
242.6312102544058
 20
37.83545868690385
 30
0.0
 10
242.7894813948662
 20
37.74407336214591
 30
0.0
 10
242.9476507005455
 20
37.6527468147423
 30
0.0
 10
243.1057108580555
 20
37.56148326602398
 30
0.0
  0
LWPOLYLINE
  5
225
330
1F
100
AcDbEntity
  8
0
  6
Continuous
 62
     7
370
    15
100
AcDbPolyline
 90
       29
 70
   128
 43
0.0
 10
242.6312102544
 20
37.8354586869
 10
243.0926573439
 20
39.7209186479
 10
243.6694659135
 20
41.6228766841
 10
244.3576144234
 20
43.5280722431
 10
245.1523050656
 20
45.4232222004
 10
246.0479972147
 20
47.2951134699
 10
247.0384460576
 20
49.1306951264
 10
248.1167461325
 20
50.9171693972
 10
249.2753794738
 20
52.6420808888
 10
250.5062680286
 20
54.2934034269
 10
251.8008299765
 20
55.859623903
 10
253.1500395629
 20
57.3298225448
 10
254.544490027
 20
58.6937490496
 10
255.9744591861
 20
59.9418940492
 10
257.4299772194
 20
61.0655554105
 10
258.900896178
 20
62.0568989069
 10
260.3769607368
 20
62.909012839
 10
261.8478796954
 20
63.6159562231
 10
263.3033977287
 20
64.1728002125
 10
264.7333668879
 20
64.5756624613
 10
266.127817352
 20
64.8217341927
 10
267.4770269384
 20
64.9092997813
 10
268.7715888862
 20
64.8377487153
 10
270.002477441
 20
64.6075798525
 10
271.1611107824
 20
64.2203979424
 10
272.2394108572
 20
63.6789024379
 10
273.2298597001
 20
62.9868686744
 10
274.1255518493
 20
62.1491215478
 10
274.5120629018
 20
61.7065802511
  0
LINE
  5
226
330
1F
100
AcDbEntity
  8
0
  6
Continuous
 62
     7
370
    15
100
AcDbLine
 10
238.5034744192
 20
40.2183498633
 30
0.0
 11
242.6312102544
 21
37.8354586869
 31
0.0
  0
ARC
  5
227
330
1F
100
AcDbEntity
  8
0
  6
Continuous
 62
     7
370
    15
100
AcDbCircle
 10
263.6207517074
 20
58.390440761
 30
0.0
 40
8.890104464645745
100
AcDbArc
 50
60.4131167179
 51
84.5649193581
  0
SPLINE
  5
228
330
1F
100
AcDbEntity
  8
0
  6
Continuous
 62
     7
370
    15
100
AcDbSpline
210
0.0
220
0.0
230
1.0
 70
     8
 71
     3
 72
    13
 73
     9
 74
     0
 42
0.000000001
 43
0.00000001
 40
0.0
 40
0.0
 40
0.0
 40
0.0
 40
0.1935905955774715
 40
0.3928012754902001
 40
0.5863901717816518
 40
0.7855816257713052
 40
0.9793802664132658
 40
1.0
 40
1.0
 40
1.0
 40
1.0
 10
256.3385367912704
 20
53.03796634367932
 30
0.0
 10
256.3896430166589
 20
53.01203801340099
 30
0.0
 10
256.4933391205847
 20
52.95942863341391
 30
0.0
 10
256.6727940573388
 20
52.91441830170724
 30
0.0
 10
256.8660230026186
 20
52.89469492739426
 30
0.0
 10
257.0656860614179
 20
52.9065567511098
 30
0.0
 10
257.2095576507261
 20
52.92729030628956
 30
0.0
 10
257.2821506248455
 20
52.95080510526717
 30
0.0
 10
257.2891315927406
 20
52.95306642681673
 30
0.0
  0
LWPOLYLINE
  5
229
330
1F
100
AcDbEntity
  8
0
  6
Continuous
 62
     7
370
    15
100
AcDbPolyline
 90
       25
 70
   128
 43
0.0
 10
258.3726123338
 20
54.1350565829
 10
258.3546536978
 20
54.256060631
 10
258.2974027812
 20
54.3994782381
 10
258.2097956096
 20
54.524905824
 10
258.0892038697
 20
54.6361729861
 10
257.9459580643
 20
54.7239121103
 10
257.7757589737
 20
54.7908530483
 10
257.5930756793
 20
54.8312646159
 10
257.3926188227
 20
54.8461830384
 10
257.1910261922
 20
54.8340766455
 10
256.9828540977
 20
54.7942477156
 10
256.7854186685
 20
54.7296178085
 10
256.593403125
 20
54.638038663
 10
256.4231500548
 20
54.5270430694
 10
256.2696800125
 20
54.3932085945
 10
256.146100219
 20
54.247977245
 10
256.0485682737
 20
54.0870356092
 10
255.985196868
 20
53.9240466946
 10
255.9540492078
 20
53.7545699407
 10
255.9576371441
 20
53.5928397747
 10
255.9960091933
 20
53.4347869323
 10
256.0658932997
 20
53.2938792226
 10
256.1692036082
 20
53.1664377124
 10
256.3385367913
 20
53.0379663437
 10
256.3385367913
 20
53.0379663437
  0
SPLINE
  5
22A
330
1F
100
AcDbEntity
  8
0
  6
Continuous
 62
     7
370
    15
100
AcDbSpline
210
0.0
220
0.0
230
1.0
 70
     8
 71
     3
 72
    10
 73
     6
 74
     0
 42
0.000000001
 43
0.00000001
 40
0.0
 40
0.0
 40
0.0
 40
0.0
 40
0.1990716023323183
 40
0.6712675235717837
 40
1.0
 40
1.0
 40
1.0
 40
1.0
 10
248.4604547540088
 20
36.75308669223664
 30
0.0
 10
248.3756934275816
 20
36.86408734036748
 30
0.0
 10
248.0898790521569
 20
37.23838045557162
 30
0.0
 10
247.5981402374991
 20
37.68825375188359
 30
0.0
 10
247.1811340842303
 20
37.96972892882147
 30
0.0
 10
247.0099783781159
 20
38.08525739832924
 30
0.0
  0
LWPOLYLINE
  5
22B
330
1F
100
AcDbEntity
  8
0
  6
Continuous
 62
     7
370
    15
100
AcDbPolyline
 90
       48
 70
   128
 43
0.0
 10
277.0779494484
 20
40.0220012807
 10
276.1543179706
 20
39.4174013464
 10
275.2471687183
 20
38.6807928489
 10
274.3726897915
 20
37.8253205844
 10
273.5464862874
 20
36.8662504756
 10
272.783301827
 20
35.8206971515
 10
272.0967554552
 20
34.7073185357
 10
271.4990986083
 20
33.5459828961
 10
271.0009964867
 20
32.3574142948
 10
270.6113377347
 20
31.1628227665
 10
270.3370758219
 20
29.9835258253
 10
270.1831049587
 20
28.8405680532
 10
270.1521727587
 20
27.7543455586
 10
270.2448312079
 20
26.7442420077
 10
270.4594268139
 20
25.8282827223
 10
270.7921301131
 20
25.0228130175
 10
271.2370040073
 20
24.3422065193
 10
271.7861097113
 20
23.7986086668
 10
272.4296484207
 20
23.4017199766
 10
273.1561361721
 20
23.1586229366
 10
273.9526087744
 20
23.0736556194
 10
274.804853155
 20
23.1483342688
 10
275.6976609928
 20
23.3813262424
 10
276.6151001107
 20
23.7684737931
 10
277.5407987861
 20
24.3028682634
 10
278.4582379041
 20
24.9749733716
 10
279.3510457419
 20
25.772795386
 10
280.2032901225
 20
26.6820971539
 10
280.9997627247
 20
27.6866521636
 10
281.7262504761
 20
28.7685341073
 10
282.3697891856
 20
29.908436776
 10
282.9188948895
 20
31.0860185795
 10
283.3637687837
 20
32.2802655428
 10
283.696472083
 20
33.4698663004
 10
283.911067689
 20
34.6335923987
 10
284.0037261382
 20
35.7506771178
 10
283.9727939382
 20
36.8011860545
 10
283.818823075
 20
37.7663728519
 10
283.5445611622
 20
38.6290137288
 10
283.1549024102
 20
39.3737148383
 10
282.6568002886
 20
39.9871869713
 10
282.0591434416
 20
40.4584827033
 10
281.3725970698
 20
40.7791917506
 10
280.6094126095
 20
40.9435910528
 10
279.7832091054
 20
40.9487469003
 10
278.9087301786
 20
40.794567287
 10
278.0015809263
 20
40.4838035518
 10
277.0779494484
 20
40.0220012807
  0
LWPOLYLINE
  5
22C
330
1F
100
AcDbEntity
  8
0
  6
Continuous
 62
     7
370
    15
100
AcDbPolyline
 90
       26
 70
   128
 43
0.0
 10
276.9365280922
 20
40.2669502543
 10
276.0135685358
 20
39.6642808452
 10
275.1064010733
 20
38.9322108801
 10
274.2305475915
 20
38.0832662788
 10
273.4009941863
 20
37.1319727191
 10
272.6319347464
 20
36.0946070973
 10
271.9365280922
 20
34.988919027
 10
271.3266728242
 20
33.8338271375
 10
270.8128037352
 20
32.6490953714
 10
270.4037132678
 20
31.4549948176
 10
270.1064010733
 20
30.2719568676
 10
269.9259542457
 20
29.1202236289
 10
269.8654602803
 20
28.0195015763
 10
269.9259542457
 20
26.9886243695
 10
270.1064010733
 20
26.0452306032
 10
270.4037132678
 20
25.2054620064
 10
270.8128037352
 20
24.4836872525
 10
271.3266728242
 20
23.8922561078
 10
271.9365280922
 20
23.441288123
 10
272.6319347464
 20
23.1384994855
 10
273.4009941863
 20
22.9890709927
 10
274.2305475915
 20
22.9955594076
 10
275.1064010733
 20
23.1578537117
 10
276.0135685358
 20
23.4731770043
 10
276.9365280922
 20
23.9361340166
 10
276.9376773396
 20
23.9367975708
  0
LWPOLYLINE
  5
22D
330
1F
100
AcDbEntity
  8
0
  6
Continuous
 62
     7
370
    15
100
AcDbPolyline
 90
       13
 70
   128
 43
0.0
 10
284.0075959041
 20
36.1835826946
 10
283.9471019387
 20
37.2144599014
 10
283.7666551111
 20
38.1578536676
 10
283.4693429166
 20
38.9976222645
 10
283.0602524492
 20
39.7193970183
 10
282.5463833602
 20
40.3108281631
 10
281.9365280922
 20
40.7617961479
 10
281.241121438
 20
41.0645847854
 10
280.4720619981
 20
41.2140132782
 10
279.6425085929
 20
41.2075248633
 10
278.7666551111
 20
41.0452305592
 10
277.8594876486
 20
40.7299072666
 10
276.9365280922
 20
40.2669502543
  0
SPLINE
  5
22E
330
1F
100
AcDbEntity
  8
0
  6
Continuous
 62
     7
370
    15
100
AcDbSpline
210
0.0
220
0.0
230
1.0
 70
    11
 71
     3
 72
    88
 73
    84
 74
     0
 42
0.000000001
 43
0.00000001
 40
0.0
 40
0.0
 40
0.0
 40
0.0
 40
0.0312500000000004
 40
0.0312500000000004
 40
0.0625000000000008
 40
0.0625000000000008
 40
0.0937500000000011
 40
0.0937500000000011
 40
0.1093750000000013
 40
0.1093750000000013
 40
0.1250000000000015
 40
0.1250000000000015
 40
0.1562500000000019
 40
0.1562500000000019
 40
0.1718750000000024
 40
0.1718750000000024
 40
0.1875000000000029
 40
0.1875000000000029
 40
0.2187500000000038
 40
0.2187500000000038
 40
0.2343750000000043
 40
0.2343750000000043
 40
0.2500000000000048
 40
0.2500000000000048
 40
0.2812500000000052
 40
0.2812500000000052
 40
0.2968750000000052
 40
0.2968750000000052
 40
0.3125000000000052
 40
0.3125000000000052
 40
0.343750000000005
 40
0.343750000000005
 40
0.3593750000000049
 40
0.3593750000000049
 40
0.3750000000000048
 40
0.3750000000000048
 40
0.3906250000000047
 40
0.3906250000000047
 40
0.4062500000000046
 40
0.4062500000000046
 40
0.4375000000000044
 40
0.4375000000000044
 40
0.4531250000000042
 40
0.4531250000000042
 40
0.4687500000000039
 40
0.4687500000000039
 40
0.5000000000000038
 40
0.5000000000000038
 40
0.5312500000000036
 40
0.5312500000000036
 40
0.5625000000000034
 40
0.5625000000000034
 40
0.5937500000000032
 40
0.5937500000000032
 40
0.6250000000000031
 40
0.6250000000000031
 40
0.6562500000000029
 40
0.6562500000000029
 40
0.6875000000000028
 40
0.6875000000000028
 40
0.7187500000000026
 40
0.7187500000000026
 40
0.7500000000000023
 40
0.7500000000000023
 40
0.7812500000000022
 40
0.7812500000000022
 40
0.812500000000002
 40
0.812500000000002
 40
0.8281250000000019
 40
0.8281250000000019
 40
0.8437500000000018
 40
0.8437500000000018
 40
0.8750000000000014
 40
0.8750000000000014
 40
0.8906250000000013
 40
0.8906250000000013
 40
0.9062500000000012
 40
0.9062500000000012
 40
0.9375000000000008
 40
0.9375000000000008
 40
0.9687500000000004
 40
0.9687500000000004
 40
1.0
 40
1.0
 40
1.0
 40
1.0
 10
272.7920894222775
 20
44.1548616242678
 30
0.0
 10
272.9835271324893
 20
44.12122313942533
 30
0.0
 10
273.1698525745996
 20
44.07837619651886
 30
0.0
 10
273.5335347752684
 20
43.97802012834602
 30
0.0
 10
273.7118164189233
 20
43.92012943396673
 30
0.0
 10
274.055338168766
 20
43.792636786473
 30
0.0
 10
274.2178229938079
 20
43.72416094376494
 30
0.0
 10
274.4483207713318
 20
43.61546078490095
 30
0.0
 10
274.5229331341634
 20
43.57821629851326
 30
0.0
 10
274.6676558262173
 20
43.50173899482665
 30
0.0
 10
274.7380402790034
 20
43.46233069439005
 30
0.0
 10
274.9388468924884
 20
43.34307506130377
 30
0.0
 10
275.0598507255551
 20
43.26186143469727
 30
0.0
 10
275.2223696986046
 20
43.13713631721578
 30
0.0
 10
275.2733590464671
 20
43.0950684641783
 30
0.0
 10
275.3687795990509
 20
43.00977782131609
 30
0.0
 10
275.4133422509543
 20
42.96638439633323
 30
0.0
 10
275.5345031447039
 20
42.83654424402254
 30
0.0
 10
275.5994981126181
 20
42.74984052649867
 30
0.0
 10
275.672944309805
 20
42.61809800445368
 30
0.0
 10
275.6933921290365
 20
42.57389821448149
 30
0.0
 10
275.7257876547468
 20
42.48460572241018
 30
0.0
 10
275.7377193317263
 20
42.43934503983444
 30
0.0
 10
275.7594209130933
 20
42.30467620913898
 30
0.0
 10
275.7556966675398
 20
42.21551632801832
 30
0.0
 10
275.7211592906784
 20
42.08090140266916
 30
0.0
 10
275.7047860805994
 20
42.03588451304176
 30
0.0
 10
275.6615051072773
 20
41.94524115548433
 30
0.0
 10
275.6345357547234
 20
41.89968824149702
 30
0.0
 10
275.5394493115633
 20
41.76565157796828
 30
0.0
 10
275.4567760471028
 20
41.6784448545322
 30
0.0
 10
275.3017714887862
 20
41.54998495509686
 30
0.0
 10
275.2443741383088
 20
41.5072330285541
 30
0.0
 10
275.1212112889997
 20
41.42443170482647
 30
0.0
 10
275.0556086754497
 20
41.38440853833546
 30
0.0
 10
274.9165594153536
 20
41.30702925401815
 30
0.0
 10
274.8431124165433
 20
41.26967328898913
 30
0.0
 10
274.6883146286319
 20
41.1976955137989
 30
0.0
 10
274.6064007823284
 20
41.1628780144408
 30
0.0
 10
274.3547065442501
 20
41.06520599348831
 30
0.0
 10
274.1780686312443
 20
41.00841210788939
 30
0.0
 10
273.9006159057336
 20
40.93597971033711
 30
0.0
 10
273.8062346498843
 20
40.91407446722494
 30
0.0
 10
273.6175050494622
 20
40.87557739311826
 30
0.0
 10
273.5226444552083
 20
40.85884646550269
 30
0.0
 10
273.2365891706778
 20
40.81622725063351
 30
0.0
 10
273.0422501884051
 20
40.79787373964976
 30
0.0
 10
272.662020660595
 20
40.7834727352943
 30
0.0
 10
272.4751623382102
 20
40.78710092522851
 30
0.0
 10
272.1073462631545
 20
40.81711633338269
 30
0.0
 10
271.9279138219095
 20
40.84360519215293
 30
0.0
 10
271.5867189788353
 20
40.91854623359202
 30
0.0
 10
271.4234780636656
 20
40.96710005390393
 30
0.0
 10
271.1118326211944
 20
41.08782649434225
 30
0.0
 10
270.9669423551712
 20
41.15872980468047
 30
0.0
 10
270.7005821751891
 20
41.31985741973459
 30
0.0
 10
270.5786681343646
 20
41.41025178572143
 30
0.0
 10
270.3584915508595
 20
41.61116906926018
 30
0.0
 10
270.2633296811926
 20
41.71887343905354
 30
0.0
 10
270.102487361919
 20
41.9469499778366
 30
0.0
 10
270.0366814593603
 20
42.06748532303499
 30
0.0
 10
269.9371608114823
 20
42.3202628089208
 30
0.0
 10
269.904920472486
 20
42.44867671817376
 30
0.0
 10
269.8759639224862
 20
42.70762348056063
 30
0.0
 10
269.8792995629951
 20
42.83876041178515
 30
0.0
 10
269.9263762230559
 20
43.09881223086117
 30
0.0
 10
269.9692621692791
 20
43.22376844415724
 30
0.0
 10
270.0638024164128
 20
43.40188225821896
 30
0.0
 10
270.1003890009235
 20
43.45969281122537
 30
0.0
 10
270.1844487826294
 20
43.57177922271312
 30
0.0
 10
270.2322650923584
 20
43.62628963424267
 30
0.0
 10
270.3884907625055
 20
43.77906360756322
 30
0.0
 10
270.5104664468046
 20
43.86826608533939
 30
0.0
 10
270.7208068207514
 20
43.98233213242274
 30
0.0
 10
270.7960199593617
 20
44.01718644950306
 30
0.0
 10
270.951621893377
 20
44.07833450015497
 30
0.0
 10
271.0323595448462
 20
44.10488386623158
 30
0.0
 10
271.283053288692
 20
44.17309240506623
 30
0.0
 10
271.463694037824
 20
44.20342404804098
 30
0.0
 10
271.8326136700916
 20
44.23417774885441
 30
0.0
 10
272.0214230417292
 20
44.23518224040652
 30
0.0
 10
272.4074941613547
 20
44.21225538918846
 30
0.0
 10
272.6006517120657
 20
44.18850010911024
 30
0.0
 10
272.7920894222775
 20
44.15486162426778
 30
0.0
  0
SPLINE
  5
22F
330
1F
100
AcDbEntity
  8
0
  6
Continuous
 62
     7
370
    15
100
AcDbSpline
210
0.0
220
0.0
230
1.0
 70
     8
 71
     3
 72
    10
 73
     6
 74
     0
 42
0.000000001
 43
0.00000001
 40
0.0
 40
0.0
 40
0.0
 40
0.0
 40
0.5
 40
0.5
 40
1.0
 40
1.0
 40
1.0
 40
1.0
 10
246.8740490308838
 20
38.13778738013855
 30
0.0
 10
246.8334737224888
 20
38.14661190146551
 30
0.0
 10
246.7898993794352
 20
38.15156497737419
 30
0.0
 10
246.7020966524483
 20
38.15315016264032
 30
0.0
 10
246.6591285355265
 20
38.14991879513178
 30
0.0
 10
246.6171720025062
 20
38.14290385523291
 30
0.0
  0
SPLINE
  5
230
330
1F
100
AcDbEntity
  8
0
  6
Continuous
 62
     7
370
    15
100
AcDbSpline
210
0.0
220
0.0
230
1.0
 70
     8
 71
     3
 72
     8
 73
     4
 74
     0
 42
0.000000001
 43
0.00000001
 40
0.0
 40
0.0
 40
0.0
 40
0.0
 40
1.0
 40
1.0
 40
1.0
 40
1.0
 10
247.0099783781159
 20
38.08525739832924
 30
0.0
 10
246.9714964362797
 20
38.1089282081251
 30
0.0
 10
246.9253887845328
 20
38.12662175333455
 30
0.0
 10
246.8740490308838
 20
38.1377873801386
 30
0.0
  0
SPLINE
  5
231
330
1F
100
AcDbEntity
  8
0
  6
Continuous
 62
     7
370
    15
100
AcDbSpline
210
0.0
220
0.0
230
1.0
 70
     8
 71
     3
 72
    10
 73
     6
 74
     0
 42
0.000000001
 43
0.00000001
 40
0.0
 40
0.0
 40
0.0
 40
0.0
 40
0.5
 40
0.5
 40
1.0
 40
1.0
 40
1.0
 40
1.0
 10
238.3467774994185
 20
40.30879774646698
 30
0.0
 10
238.3578280977686
 20
40.30242191192283
 30
0.0
 10
238.376448043708
 20
40.29167567041745
 30
0.0
 10
238.4297479937686
 20
40.26091019757749
 30
0.0
 10
238.4633287664899
 20
40.24152545530654
 30
0.0
 10
238.5034744192294
 20
40.21834986328638
 30
0.0
  0
LINE
  5
232
330
1F
100
AcDbEntity
  8
0
  6
Continuous
 62
     7
370
    15
100
AcDbLine
 10
238.3467774994
 20
40.3087977465
 30
0.0
 11
238.3708261074
 21
40.4588170012
 31
0.0
  0
SPLINE
  5
233
330
1F
100
AcDbEntity
  8
0
  6
Continuous
 62
     7
370
    15
100
AcDbSpline
210
0.0
220
0.0
230
1.0
 70
     8
 71
     3
 72
    11
 73
     7
 74
     0
 42
0.000000001
 43
0.00000001
 40
0.0
 40
0.0
 40
0.0
 40
0.0
 40
0.2687946102658134
 40
0.5395171108866468
 40
0.8162531976072742
 40
0.9999999999999999
 40
0.9999999999999999
 40
0.9999999999999999
 40
0.9999999999999999
 10
247.0099783781159
 20
27.59590133538614
 30
0.0
 10
247.1299223773188
 20
27.531215682634
 30
0.0
 10
247.3706706566616
 20
27.40138042866765
 30
0.0
 10
247.7188019482783
 20
27.24501650648981
 30
0.0
 10
248.0202563821403
 20
27.12767535274821
 30
0.0
 10
248.1974409656732
 20
27.07906645512499
 30
0.0
 10
248.2681430513036
 20
27.05967001343897
 30
0.0
  0
SPLINE
  5
234
330
1F
100
AcDbEntity
  8
0
  6
Continuous
 62
     7
370
    15
100
AcDbSpline
210
0.0
220
0.0
230
1.0
 70
     8
 71
     3
 72
     8
 73
     4
 74
     0
 42
0.000000001
 43
0.00000001
 40
0.0
 40
0.0
 40
0.0
 40
0.0
 40
1.0
 40
1.0
 40
1.0
 40
1.0
 10
246.8740490308843
 20
27.64523794740655
 30
0.0
 10
246.9253774128815
 20
27.63407479376626
 30
0.0
 10
246.9714979769857
 20
27.61736078946455
 30
0.0
 10
247.009978378116
 20
27.59590133538616
 30
0.0
  0
SPLINE
  5
235
330
1F
100
AcDbEntity
  8
0
  6
Continuous
 62
     7
370
    15
100
AcDbSpline
210
0.0
220
0.0
230
1.0
 70
     8
 71
     3
 72
    12
 73
     8
 74
     0
 42
0.000000001
 43
0.00000001
 40
0.0
 40
0.0
 40
0.0
 40
0.0
 40
0.1882382095929777
 40
0.3552093049241471
 40
0.5009554525917512
 40
0.7563158857203208
 40
1.0
 40
1.0
 40
1.0
 40
1.0
 10
247.6899655472161
 20
25.97966293810481
 30
0.0
 10
247.7790090776833
 20
26.07394458977682
 30
0.0
 10
247.9470360188322
 20
26.25185597147732
 30
0.0
 10
248.1269454063259
 20
26.59917302733534
 30
0.0
 10
248.2884692580028
 20
27.05982681857977
 30
0.0
 10
248.414223787649
 20
27.68135954836742
 30
0.0
 10
248.431526411628
 20
28.26466565429105
 30
0.0
 10
248.4399753058619
 20
28.54949479933259
 30
0.0
  0
SPLINE
  5
236
330
1F
100
AcDbEntity
  8
0
  6
Continuous
 62
     7
370
    15
100
AcDbSpline
210
0.0
220
0.0
230
1.0
 70
     8
 71
     3
 72
     9
 73
     5
 74
     0
 42
0.000000001
 43
0.00000001
 40
0.0
 40
0.0
 40
0.0
 40
0.0
 40
0.5048004990382029
 40
1.0
 40
1.0
 40
1.0
 40
1.0
 10
247.5792311351853
 20
25.2556384178437
 30
0.0
 10
247.5977760334702
 20
25.3773522935689
 30
0.0
 10
247.6345131173682
 20
25.61846512122478
 30
0.0
 10
247.671610228724
 20
25.85997135447163
 30
0.0
 10
247.6899806997545
 20
25.97956512065463
 30
0.0
  0
LINE
  5
237
330
1F
100
AcDbEntity
  8
0
  6
Continuous
 62
     7
370
    15
100
AcDbLine
 10
273.9746195431
 20
27.4607346091
 30
0.0
 11
274.046336052
 21
27.4214385634
 31
0.0
  0
LWPOLYLINE
  5
238
330
1F
100
AcDbEntity
  8
0
  6
Continuous
 62
     7
370
    15
100
AcDbPolyline
 90
       17
 70
   128
 43
0.0
 10
274.6210545944
 20
41.1535693709
 10
274.925767973
 20
41.476347572
 10
275.0618983497
 20
41.8376033934
 10
275.0162115402
 20
42.2063661614
 10
274.7924088183
 20
42.5527609095
 10
274.4086213495
 20
42.8487247954
 10
273.8959413119
 20
43.0702805852
 10
273.2959029933
 20
43.1994791465
 10
272.6571179296
 20
43.2258535802
 10
272.0313366877
 20
43.1472671865
 10
271.4692563421
 20
42.9700865677
 10
271.0164132997
 20
42.7086658438
 10
270.7094942105
 20
42.3841837671
 10
270.5733638339
 20
42.0229279457
 10
270.6190506434
 20
41.6541651778
 10
270.8428533653
 20
41.3077704297
 10
271.0929196046
 20
41.0961158309
  0
LINE
  5
239
330
1F
100
AcDbEntity
  8
0
  6
Continuous
 62
     7
370
    15
100
AcDbLine
 10
238.7808445995
 20
40.0581754135
 30
0.0
 11
238.3467774994
 21
40.3087977465
 31
0.0
  0
LINE
  5
23A
330
1F
100
AcDbEntity
  8
0
  6
Continuous
 62
     7
370
    15
100
AcDbLine
 10
243.1057108581
 20
37.561483266
 30
0.0
 11
238.7808445995
 21
40.0581754135
 31
0.0
  0
SPLINE
  5
23B
330
1F
100
AcDbEntity
  8
0
  6
Continuous
 62
     7
370
    15
100
AcDbSpline
210
0.0
220
0.0
230
1.0
 70
     8
 71
     3
 72
    11
 73
     7
 74
     0
 42
0.000000001
 43
0.00000001
 40
0.0
 40
0.0
 40
0.0
 40
0.0
 40
0.0763291486410529
 40
0.4828240100964536
 40
0.8892344489868813
 40
1.0
 40
1.0
 40
1.0
 40
1.0
 10
242.6772045437146
 20
34.74544406779709
 30
0.0
 10
242.6767691643846
 20
34.82368320681666
 30
0.0
 10
242.6740151497287
 20
35.31858896065351
 30
0.0
 10
242.6293194925148
 20
36.25157500315085
 30
0.0
 10
242.5912443779531
 20
37.21705881143052
 30
0.0
 10
242.6032623970891
 20
37.73839757386569
 30
0.0
 10
242.6058363420086
 20
37.85005468172253
 30
0.0
  0
LINE
  5
23C
330
1F
100
AcDbEntity
  8
0
  6
Continuous
 62
     7
370
    15
100
AcDbLine
 10
242.6772045437
 20
32.9696434388
 30
0.0
 11
242.6772045437
 21
34.7454440678
 31
0.0
  0
LINE
  5
23D
330
1F
100
AcDbEntity
  8
0
  6
Continuous
 62
     7
370
    15
100
AcDbLine
 10
241.7491268934
 20
38.158269815
 30
0.0
 11
241.7501679207
 21
38.344021547
 31
0.0
  0
ARC
  5
23E
330
1F
100
AcDbEntity
  8
0
  6
Continuous
 62
     7
370
    15
100
AcDbCircle
 10
253.7062066126
 20
37.8967106376
 30
0.0
 40
11.95994015934557
100
AcDbArc
 50
178.7468639795
 51
202.7557767409
  0
LINE
  5
23F
330
1F
100
AcDbEntity
  8
0
  6
Continuous
 62
     7
370
    15
100
AcDbLine
 10
223.166155435
 20
74.7992814179
 30
0.0
 11
223.2408287681
 21
74.7733193482
 31
0.0
  0
LWPOLYLINE
  5
240
330
1F
100
AcDbEntity
  8
0
  6
Continuous
 62
     7
370
    15
100
AcDbPolyline
 90
       10
 70
   128
 43
0.0
 10
250.0867725415
 20
19.3961519345
 10
249.2753794738
 20
19.5668878538
 10
248.1167461325
 20
19.9540697639
 10
247.0384460576
 20
20.4955652684
 10
246.0479972147
 20
21.187599032
 10
245.1523050656
 20
22.0253461585
 10
244.3576144234
 20
23.0029658305
 10
243.6694659135
 20
24.1136420319
 10
243.0926573439
 20
25.3496310691
 10
242.6312102544
 20
26.702315561
  0
SPLINE
  5
241
330
1F
100
AcDbEntity
  8
0
  6
Continuous
 62
     7
370
    15
100
AcDbSpline
210
0.0
220
0.0
230
1.0
 70
     8
 71
     3
 72
     8
 73
     4
 74
     0
 42
0.000000001
 43
0.00000001
 40
0.0
 40
0.0
 40
0.0
 40
0.0
 40
0.0012417047560385
 40
0.0012417047560385
 40
0.0012417047560385
 40
0.0012417047560385
 10
243.1057108580555
 20
27.0689338332921
 30
0.0
 10
242.9476507005455
 20
26.94653062828795
 30
0.0
 10
242.7894813948662
 20
26.82432839831718
 30
0.0
 10
242.6312102544058
 20
26.70231556100642
 30
0.0
  0
SPLINE
  5
242
330
1F
100
AcDbEntity
  8
0
  6
Continuous
 62
     7
370
    15
100
AcDbSpline
210
0.0
220
0.0
230
1.0
 70
     8
 71
     3
 72
     8
 73
     4
 74
     0
 42
0.000000001
 43
0.00000001
 40
0.0
 40
0.0
 40
0.0
 40
0.0
 40
1.0
 40
1.0
 40
1.0
 40
1.0
 10
243.1057108580555
 20
27.0689338332921
 30
0.0
 10
244.2769434427312
 20
27.2612134636201
 30
0.0
 10
245.4475628173236
 20
27.45480113083035
 30
0.0
 10
246.6171720025062
 20
27.65035442250102
 30
0.0
  0
SPLINE
  5
243
330
1F
100
AcDbEntity
  8
0
  6
Continuous
 62
     7
370
    15
100
AcDbSpline
210
0.0
220
0.0
230
1.0
 70
     8
 71
     3
 72
    10
 73
     6
 74
     0
 42
0.000000001
 43
0.00000001
 40
0.0
 40
0.0
 40
0.0
 40
0.0
 40
0.5
 40
0.5
 40
1.0
 40
1.0
 40
1.0
 40
1.0
 10
246.6171720025062
 20
27.65035442250103
 30
0.0
 10
246.6589378635205
 20
27.65733748291497
 30
0.0
 10
246.7028351493346
 20
27.66062757392334
 30
0.0
 10
246.7904625321246
 20
27.65896459949431
 30
0.0
 10
246.8329678291852
 20
27.65417249294356
 30
0.0
 10
246.8740490308843
 20
27.64523794740655
 30
0.0
  0
LINE
  5
244
330
1F
100
AcDbEntity
  8
0
  6
Continuous
 62
     7
370
    15
100
AcDbLine
 10
238.7808445995
 20
29.5656259808
 30
0.0
 11
243.1057108581
 21
27.0689338333
 31
0.0
  0
LINE
  5
245
330
1F
100
AcDbEntity
  8
0
  6
Continuous
 62
     7
370
    15
100
AcDbLine
 10
238.7808445995
 20
29.5656259808
 30
0.0
 11
242.3236511531
 21
31.6108446704
 31
0.0
  0
LINE
  5
246
330
1F
100
AcDbEntity
  8
0
  6
Continuous
 62
     7
370
    15
100
AcDbLine
 10
238.3467774994
 20
29.3150036478
 30
0.0
 11
238.7808445995
 21
29.5656259808
 31
0.0
  0
LINE
  5
247
330
1F
100
AcDbEntity
  8
0
  6
Continuous
 62
     7
370
    15
100
AcDbLine
 10
242.6312102544
 20
26.702315561
 30
0.0
 11
238.5034744192
 21
29.0852067374
 31
0.0
  0
SPLINE
  5
248
330
1F
100
AcDbEntity
  8
0
  6
Continuous
 62
     7
370
    15
100
AcDbSpline
210
0.0
220
0.0
230
1.0
 70
     8
 71
     3
 72
     8
 73
     4
 74
     0
 42
0.000000001
 43
0.00000001
 40
0.0
 40
0.0
 40
0.0
 40
0.0
 40
1.0
 40
1.0
 40
1.0
 40
1.0
 10
238.5034744192294
 20
29.08520673738895
 30
0.0
 10
238.4232551900632
 20
29.13151631265956
 30
0.0
 10
238.3688654277759
 20
29.21517915367164
 30
0.0
 10
238.3467774994177
 20
29.31500364777901
 30
0.0
  0
ARC
  5
249
330
1F
100
AcDbEntity
  8
0
  6
Continuous
 62
     7
370
    15
100
AcDbCircle
 10
247.521693407
 20
30.4987891412
 30
0.0
 40
8.905958587942047
100
AcDbArc
 50
214.8338129215
 51
239.5793426072
  0
ELLIPSE
  5
24A
330
1F
100
AcDbEntity
  8
0
  6
Continuous
 62
     7
370
    15
100
AcDbEllipse
 10
242.0307579343
 20
32.5964691385
 30
0.0
 11
-7.507462981948265E-5
 21
1.066811201853405
 31
0.0
210
0.0
220
0.0
230
1.0
 40
0.7174342186
 41
3.534193645557461
 42
5.104989972352341
  0
ELLIPSE
  5
24B
330
1F
100
AcDbEntity
  8
0
  6
Continuous
 62
     7
370
    15
100
AcDbEllipse
 10
241.9700977625
 20
32.5614393829
 30
0.0
 11
0.3250094736511642
 21
1.213179526238669
 31
0.0
210
0.0
220
0.0
230
1.0
 40
0.5176380889
 41
3.619174351347739
 42
5.189970678142617
  0
ARC
  5
24C
330
1F
100
AcDbEntity
  8
0
  6
Continuous
 62
     7
370
    15
100
AcDbCircle
 10
256.9429373192
 20
54.0338690237
 30
0.0
 40
1.106378705943614
100
AcDbArc
 50
216.3743609876
 51
288.5240995
  0
LWPOLYLINE
  5
24D
330
1F
100
AcDbEntity
  8
0
  6
Continuous
 62
     7
370
    15
100
AcDbPolyline
 90
       11
 70
   128
 43
0.0
 10
258.3451763649
 20
54.1274513973
 10
258.268306775
 20
54.4015536688
 10
258.0216872155
 20
54.669689183
 10
257.6439165511
 20
54.8190689173
 10
257.1925069411
 20
54.8269511613
 10
256.7361814064
 20
54.6921359147
 10
256.3444113733
 20
54.4351475768
 10
256.0768402777
 20
54.0951102924
 10
255.9742033934
 20
53.7237916556
 10
256.0521262558
 20
53.3777215629
 10
256.0521262558
 20
53.3777215629
  0
LINE
  5
24E
330
1F
100
AcDbEntity
  8
0
  6
Continuous
 62
     7
370
    15
100
AcDbLine
 10
257.8127157907
 20
53.5786929658
 30
0.0
 11
257.9450329656
 21
54.2522074842
 31
0.0
  0
LINE
  5
24F
330
1F
100
AcDbEntity
  8
0
  6
Continuous
 62
     7
370
    15
100
AcDbLine
 10
257.2925336902
 20
54.5631521343
 30
0.0
 11
257.9450329656
 21
54.2522074842
 31
0.0
  0
LINE
  5
250
330
1F
100
AcDbEntity
  8
0
  6
Continuous
 62
     7
370
    15
100
AcDbLine
 10
256.50771724
 20
54.200582266
 30
0.0
 11
257.2925336902
 21
54.5631521343
 31
0.0
  0
LINE
  5
251
330
1F
100
AcDbEntity
  8
0
  6
Continuous
 62
     7
370
    15
100
AcDbLine
 10
256.50771724
 20
54.200582266
 30
0.0
 11
256.3754000652
 21
53.5270677475
 31
0.0
  0
LINE
  5
252
330
1F
100
AcDbEntity
  8
0
  6
Continuous
 62
     7
370
    15
100
AcDbLine
 10
257.0278993405
 20
53.2161230974
 30
0.0
 11
256.3754000652
 21
53.5270677475
 31
0.0
  0
LINE
  5
253
330
1F
100
AcDbEntity
  8
0
  6
Continuous
 62
     7
370
    15
100
AcDbLine
 10
257.0278993405
 20
53.2161230974
 30
0.0
 11
257.8127157907
 21
53.5786929658
 31
0.0
  0
LINE
  5
254
330
1F
100
AcDbEntity
  8
0
  6
Continuous
 62
     7
370
    15
100
AcDbLine
 10
256.7495620027
 20
53.5728989002
 30
0.0
 11
256.50771724
 21
54.200582266
 31
0.0
  0
LINE
  5
255
330
1F
100
AcDbEntity
  8
0
  6
Continuous
 62
     7
370
    15
100
AcDbLine
 10
256.7495620027
 20
53.5728989002
 30
0.0
 11
256.7092982984
 21
53.3679505297
 31
0.0
  0
LINE
  5
256
330
1F
100
AcDbEntity
  8
0
  6
Continuous
 62
     7
370
    15
100
AcDbLine
 10
257.5343784529
 20
53.9354687685
 30
0.0
 11
257.852979495
 21
53.7836413362
 31
0.0
  0
LINE
  5
257
330
1F
100
AcDbEntity
  8
0
  6
Continuous
 62
     7
370
    15
100
AcDbLine
 10
257.5343784529
 20
53.9354687685
 30
0.0
 11
257.2925336902
 21
54.5631521343
 31
0.0
  0
LINE
  5
258
330
1F
100
AcDbEntity
  8
0
  6
Continuous
 62
     7
370
    15
100
AcDbLine
 10
256.7495620027
 20
53.5728989002
 30
0.0
 11
257.5343784529
 21
53.9354687685
 31
0.0
  0
ARC
  5
259
330
1F
100
AcDbEntity
  8
0
  6
Continuous
 62
     7
370
     0
100
AcDbCircle
 10
273.821125183
 20
34.6983362615
 30
0.0
 40
1.499696206469572
100
AcDbArc
 50
342.9874722699
 51
19.3610539399
  0
LWPOLYLINE
  5
25A
330
1F
100
AcDbEntity
  8
0
  6
Continuous
 62
     7
370
     0
100
AcDbPolyline
 90
        7
 70
   128
 43
0.0
 10
275.100054587
 20
35.0167002368
 10
275.1061879518
 20
34.987972861
 10
275.1347224686
 20
34.5497051244
 10
275.0293809973
 20
34.2053021019
 10
274.8043904875
 20
34.0012773303
 10
274.4901371542
 20
33.9651854854
 10
274.3616503174
 20
33.9954217354
  0
LWPOLYLINE
  5
25B
330
1F
100
AcDbEntity
  8
0
  6
Continuous
 62
     7
370
     0
100
AcDbPolyline
 90
       44
 70
   128
 43
0.0
 10
250.2078917634
 20
27.5296567092
 10
250.268649877
 20
29.2387277879
 10
250.4504980435
 20
31.0059607858
 10
250.7521607287
 20
32.8189598331
 10
251.1715219854
 20
34.6650080443
 10
251.7056402959
 20
36.5311567175
 10
252.3507692039
 20
38.4043161606
 10
253.1023835937
 20
40.2713475059
 10
253.9552114303
 20
42.11915487
 10
254.9032707392
 20
43.934777212
 10
255.9399115657
 20
45.7054792456
 10
257.057862619
 20
47.4188407682
 10
258.2492822758
 20
49.0628437799
 10
259.5058135832
 20
50.6259567808
 10
260.818642877
 20
52.0972156562
 10
262.1785616029
 20
53.4663005822
 10
263.5760309082
 20
54.7236084118
 10
265.0012485497
 20
55.8603200338
 10
266.4442176497
 20
56.8684622331
 10
267.8948168167
 20
57.7409636164
 10
269.3428711399
 20
58.4717042134
 10
270.7782235586
 20
59.0555584039
 10
272.1908061069
 20
59.4884308702
 10
273.5707105331
 20
59.767285323
 10
274.9082577991
 20
59.8901657986
 10
276.194065972
 20
59.8562103788
 10
277.4191160311
 20
59.6656572365
 10
278.5748151307
 20
59.3198429651
 10
279.6530568717
 20
58.8211932031
 10
280.6462781632
 20
58.1732056205
 10
281.5475122715
 20
57.3804253845
 10
282.3504376867
 20
56.4484132788
 10
283.0494224639
 20
55.3837066988
 10
283.6395637273
 20
54.1937737961
 10
284.1167220599
 20
52.886961095
 10
284.4775505387
 20
51.4724349477
 10
284.7195182113
 20
49.9601172388
 10
284.8409278483
 20
48.3606157905
 10
284.8409278483
 20
46.6851499561
 10
284.7195182113
 20
44.9454719246
 10
284.4775505387
 20
43.1537842875
 10
284.1167220599
 20
41.3226544462
 10
283.6395637273
 20
39.464926461
 10
283.4890746335
 20
38.9534266914
  0
LWPOLYLINE
  5
25C
330
1F
100
AcDbEntity
  8
0
  6
Continuous
 62
     7
370
     0
100
AcDbPolyline
 90
       25
 70
   128
 43
0.0
 10
274.2797492705
 20
23.0006787458
 10
273.5707105331
 20
22.2661644864
 10
272.1908061069
 20
20.9518152009
 10
270.7782235586
 20
19.7537545724
 10
269.3428711399
 20
18.6803861352
 10
267.8948168167
 20
17.7392387978
 10
266.4442176497
 20
16.9369140325
 10
265.0012485497
 20
16.2790395711
 10
263.5760309082
 20
15.7702299302
 10
262.1785616029
 20
15.4140540439
 10
260.818642877
 20
15.2130102301
 10
259.5058135832
 20
15.1685086668
 10
258.2492822758
 20
15.2808615004
 10
257.057862619
 20
15.5492806564
 10
255.9399115657
 20
15.9718833675
 10
254.9032707392
 20
16.5457053792
 10
253.9552114303
 20
17.2667217424
 10
253.1023835937
 20
18.1298750453
 10
252.3507692039
 20
19.1291108878
 10
251.7056402959
 20
20.2574203482
 10
251.1715219854
 20
21.5068891466
 10
250.7521607287
 20
22.8687531568
 10
250.4504980435
 20
24.3334598816
 10
250.268649877
 20
25.8907354555
 10
250.2078917634
 20
27.5296567092
  0
LWPOLYLINE
  5
25D
330
1F
100
AcDbEntity
  8
0
  6
Continuous
 62
     7
370
     0
100
AcDbPolyline
 90
       27
 70
   128
 43
0.0
 10
249.5007849822
 20
27.5296567092
 10
249.5627830573
 20
29.2736067895
 10
249.7483424109
 20
31.0769057669
 10
250.0561614774
 20
32.9269047948
 10
250.4840811271
 20
34.8106274593
 10
251.0290998113
 20
36.7148607993
 10
251.6873946154
 20
38.6262479861
 10
252.4543480743
 20
40.531382012
 10
253.3245805607
 20
42.4168997305
 10
254.2919880188
 20
44.2695755896
 10
255.3497847804
 20
46.0764143994
 10
256.4905511614
 20
47.8247424837
 10
257.7062855051
 20
49.5022965773
 10
258.9884603086
 20
51.0973098435
 10
260.3280820369
 20
52.5985944102
 10
261.7157542062
 20
53.9956198449
 10
263.1417432932
 20
55.2785870179
 10
264.596047009
 20
56.4384968364
 10
266.068464458
 20
57.4672133663
 10
267.5486676897
 20
58.3575209002
 10
269.0262741419
 20
59.1031745707
 10
270.4909194671
 20
59.6989441528
 10
271.9323302306
 20
60.140650751
 10
273.3403959717
 20
60.425196111
 10
274.7052401207
 20
60.5505843514
 10
276.0172892767
 20
60.5159359639
 10
276.0872650544
 20
60.5094321914
  0
ARC
  5
25E
330
1F
100
AcDbEntity
  8
0
  6
Continuous
 62
     7
370
     0
100
AcDbCircle
 10
264.9177066735
 20
26.926402789
 30
0.0
 40
15.42871963998555
100
AcDbArc
 50
177.7591973184
 51
212.3942003931
  0
LWPOLYLINE
  5
25F
330
1F
100
AcDbEntity
  8
0
  6
Continuous
 62
     7
370
     0
100
AcDbPolyline
 90
       25
 70
   128
 43
0.0
 10
259.4002799188
 20
32.8363094361
 10
259.4619142724
 20
34.0258381943
 10
259.6458830192
 20
35.2684964191
 10
259.9493973806
 20
36.5454466783
 10
260.3678563882
 20
37.8373317079
 10
260.89491663
 20
39.1245678475
 10
261.5225884101
 20
40.3876419094
 10
262.241356864
 20
41.6074069784
 10
263.0403261946
 20
42.7653726594
 10
263.9073848414
 20
43.8439853729
 10
264.829389079
 20
44.8268944499
 10
265.7923622631
 20
45.6991999905
 10
266.7817067018
 20
46.447678732
 10
267.7824249418
 20
47.0609844996
 10
268.7793471149
 20
47.529820203
 10
269.7573608969
 20
47.8470787709
 10
270.7016405959
 20
48.0079508867
 10
271.5978718942
 20
48.0099978932
 10
272.432468839
 20
47.8531887599
 10
273.1927797912
 20
47.5399005534
 10
273.8672792118
 20
47.0748824034
 10
274.4457423772
 20
46.4651835113
 10
274.9194003754
 20
45.7200462906
 10
275.2810730341
 20
44.8507662621
 10
275.3712864747
 20
44.5518294986
  0
LWPOLYLINE
  5
260
330
1F
100
AcDbEntity
  8
0
  6
Continuous
 62
     7
370
     0
100
AcDbPolyline
 90
       12
 70
   128
 43
0.0
 10
265.3720991483
 20
27.230852251
 10
264.829389079
 20
27.1140404338
 10
263.9073848414
 20
27.032426077
 10
263.0403261946
 20
27.1099541857
 10
262.241356864
 20
27.3454495129
 10
261.5225884101
 20
27.7353421894
 10
260.89491663
 20
28.2737218396
 10
260.3678563882
 20
28.9524271769
 10
259.9493973806
 20
29.7611697202
 10
259.6458830192
 20
30.687689757
 10
259.4619142724
 20
31.7179421878
 10
259.4002799188
 20
32.8363094361
  0
LWPOLYLINE
  5
261
330
1F
100
AcDbEntity
  8
0
  6
Continuous
 62
     7
370
     0
100
AcDbPolyline
 90
       21
 70
   128
 43
0.0
 10
246.6171720025
 20
38.1429038552
 10
247.0868175143
 20
39.9023317857
 10
247.6709860031
 20
41.6727875887
 10
248.3648993218
 20
43.4397899995
 10
249.1628816763
 20
45.188886
 10
250.0584060504
 20
46.905769036
 10
251.0441475927
 20
48.5763960357
 10
252.1120435298
 20
50.187102274
 10
253.2533591145
 20
51.7247131417
 10
254.4587590711
 20
53.1766519058
 10
255.7183839521
 20
54.5310425795
 10
257.0219307829
 20
55.7768070609
 10
258.3587373337
 20
56.903755745
 10
259.7178693299
 20
57.9026708687
 10
261.0882098886
 20
58.7653819066
 10
262.4585504472
 20
59.4848324005
 10
263.8176824435
 20
60.0551376779
 10
265.1544889942
 20
60.4716329841
 10
266.458035825
 20
60.7309116378
 10
267.7176607061
 20
60.8308528954
 10
267.8741785696
 20
60.8320864709
  0
LWPOLYLINE
  5
262
330
1F
100
AcDbEntity
  8
0
  6
Continuous
 62
     7
370
     0
100
AcDbPolyline
 90
       23
 70
   128
 43
0.0
 10
238.5034744192
 20
40.2183498633
 10
238.9649215087
 20
42.1038098243
 10
239.5417300784
 20
44.0057678605
 10
240.2298785882
 20
45.9109634195
 10
241.0245692304
 20
47.8061133768
 10
241.9202613795
 20
49.6780046463
 10
242.9107102225
 20
51.5135863028
 10
243.9890102973
 20
53.3000605736
 10
245.1476436386
 20
55.0249720652
 10
246.3785321934
 20
56.6762946033
 10
247.6730941413
 20
58.2425150793
 10
249.0223037277
 20
59.7127137212
 10
250.4167541918
 20
61.076640226
 10
251.8467233509
 20
62.3247852256
 10
253.3022413843
 20
63.4484465869
 10
254.7731603429
 20
64.4397900833
 10
256.2492249016
 20
65.2919040153
 10
257.7201438602
 20
65.9988473995
 10
259.1756618936
 20
66.5556913889
 10
260.6056310527
 20
66.9585536377
 10
262.0000815168
 20
67.204625369
 10
263.3492911032
 20
67.2921909577
 10
264.4628032979
 20
67.240576721
  0
LWPOLYLINE
  5
263
330
1F
100
AcDbEntity
  8
0
  6
Continuous
 62
     7
370
     0
100
AcDbPolyline
 90
       20
 70
   128
 43
0.0
 10
247.0099783781
 20
38.0852573983
 10
247.4777063248
 20
39.8248909308
 10
248.0582527348
 20
41.5749817908
 10
248.7468904905
 20
43.321279808
 10
249.5380123372
 20
45.0495656952
 10
250.4251765399
 20
46.7457668293
 10
251.4011593359
 20
48.3960718388
 10
252.4580137542
 20
49.9870430626
 10
253.5871343241
 20
51.5057259668
 10
254.7793271455
 20
52.9397546275
 10
256.0248847502
 20
54.2774524207
 10
257.3136651458
 20
55.5079270995
 10
258.635174397
 20
56.6211594848
 10
259.9786520726
 20
57.6080850463
 10
261.3331588629
 20
58.4606677113
 10
262.6876656531
 20
59.1719652982
 10
264.0311433287
 20
59.7361860438
 10
265.3526525799
 20
60.1487357628
 10
266.6414329755
 20
60.406255256
 10
266.941685312
 20
60.4443925365
  0
LWPOLYLINE
  5
264
330
1F
100
AcDbEntity
  8
0
  6
Continuous
 62
     7
370
     0
100
AcDbPolyline
 90
        8
 70
   128
 43
0.0
 10
261.5216002623
 20
32.8363094361
 10
261.5820942277
 20
31.8054322293
 10
261.7625410553
 20
30.862038463
 10
262.0598532498
 20
30.0222698662
 10
262.4689437172
 20
29.3004951123
 10
262.9828128062
 20
28.7090639675
 10
263.5926680742
 20
28.2580959828
 10
263.593074411
 20
28.2578613714
  0
LWPOLYLINE
  5
265
330
1F
100
AcDbEntity
  8
0
  6
Continuous
 62
     7
370
     0
100
AcDbPolyline
 90
       19
 70
   128
 43
0.0
 10
273.5922617374
 20
45.578838619
 10
272.89726142
 20
45.8813926452
 10
272.1282019801
 20
46.030821138
 10
271.2986485749
 20
46.024332723
 10
270.4227950931
 20
45.862038419
 10
269.5156276306
 20
45.5467151263
 10
268.5926680742
 20
45.0837581141
 10
267.6697085178
 20
44.481088705
 10
266.7625410553
 20
43.7490187398
 10
265.8866875735
 20
42.9000741386
 10
265.0571341683
 20
41.9487805788
 10
264.2880747284
 20
40.9114149571
 10
263.5926680742
 20
39.8057268868
 10
262.9828128062
 20
38.6506349973
 10
262.4689437172
 20
37.4659032312
 10
262.0598532498
 20
36.2718026773
 10
261.7625410553
 20
35.0887647274
 10
261.5820942277
 20
33.9370314886
 10
261.5216002623
 20
32.8363094361
  0
LWPOLYLINE
  5
266
330
1F
100
AcDbEntity
  8
0
  6
Continuous
 62
     7
370
     0
100
AcDbPolyline
 90
       38
 70
   128
 43
0.0
 10
277.0779494484
 20
36.9191461956
 10
276.360939692
 20
36.4347540963
 10
275.6645570008
 20
35.8233547208
 10
275.0088350369
 20
35.1025369161
 10
274.4126377275
 20
34.2930372979
 10
273.8931165835
 20
33.4181436964
 10
273.4652172824
 20
32.5030252077
 10
273.1412497081
 20
31.5740081245
 10
272.9305338178
 20
30.6578185768
 10
272.839131524
 20
29.7808136698
 10
272.8696723042
 20
28.9682232379
 10
273.021277556
 20
28.2434240284
 10
273.2895858721
 20
27.6272671949
 10
273.6668785108
 20
27.1374784476
 10
274.1423014499
 20
26.7881481171
 10
274.702177637
 20
26.5893258009
 10
275.3304004536
 20
26.5467312551
 10
276.0088970729
 20
26.6615898472
 10
276.7181483828
 20
26.9305973047
 10
277.4377505141
 20
27.3460147727
 10
278.1470018239
 20
27.8958914471
 10
278.8254984433
 20
28.5644083771
 10
279.4537212599
 20
29.3323335478
 10
280.013597447
 20
30.1775751502
 10
280.4890203861
 20
31.0758171223
 10
280.8663130248
 20
32.001218678
 10
281.1346213409
 20
32.9271576994
 10
281.2862265926
 20
33.8269966067
 10
281.3167673729
 20
34.6748486729
 10
281.2253650791
 20
35.4463227378
 10
281.0146491888
 20
36.119224897
 10
280.6906816145
 20
36.6741969807
 10
280.2627823134
 20
37.0952734524
 10
279.7432611694
 20
37.3703407087
 10
279.14706386
 20
37.4914855654
 10
278.4913418961
 20
37.4552229056
 10
277.7949592049
 20
37.26259594
 10
277.0779494484
 20
36.9191461956
  0
LINE
  5
267
330
1F
100
AcDbEntity
  8
0
  6
Continuous
 62
     7
370
     0
100
AcDbLine
 10
246.8740490309
 20
27.6452379474
 30
0.0
 11
248.0335384112
 21
28.314596919
 31
0.0
  0
LINE
  5
268
330
1F
100
AcDbEntity
  8
0
  6
Continuous
 62
     7
370
     0
100
AcDbLine
 10
248.420103707
 20
28.1104631381
 30
0.0
 11
248.0335384112
 21
28.314596919
 31
0.0
  0
LWPOLYLINE
  5
269
330
1F
100
AcDbEntity
  8
0
  6
Continuous
 62
     7
370
     0
100
AcDbPolyline
 90
       19
 70
   128
 43
0.0
 10
274.046336052
 20
27.4214385634
 10
274.4384479001
 20
27.2710789065
 10
275.0369843199
 20
27.2036531108
 10
275.6897555413
 20
27.2975855027
 10
276.3757809603
 20
27.5498570177
 10
277.0730111554
 20
27.9523594418
 10
277.7590365743
 20
28.4921560159
 10
278.4118077958
 20
29.1518972339
 10
279.0103442156
 20
29.9103784704
 10
279.5354083808
 20
30.7432215142
 10
279.9701242969
 20
31.6236581046
 10
280.3005198369
 20
32.5233902853
 10
280.5159758161
 20
33.4134999237
 10
280.6095673023
 20
34.2653781635
 10
280.5782861878
 20
35.0516449372
 10
280.4231378736
 20
35.7470289838
 10
280.1491089542
 20
36.3291800878
 10
279.7650069443
 20
36.7793874338
 10
279.5022956747
 20
36.9707014937
  0
ARC
  5
26A
330
1F
100
AcDbEntity
  8
0
  6
Continuous
 62
     7
370
     0
100
AcDbCircle
 10
247.3083919503
 20
29.4905174722
 30
0.0
 40
1.381530505398834
100
AcDbArc
 50
301.6605905891
 51
324.2377952695
  0
LINE
  5
26B
330
1F
100
AcDbEntity
  8
0
  6
Continuous
 62
     7
370
     0
100
AcDbLine
 10
242.7378647155
 20
33.0046731944
 30
0.0
 11
248.3128677827
 21
29.7862924289
 31
0.0
  0
LINE
  5
26C
330
1F
100
AcDbEntity
  8
0
  6
Continuous
 62
     7
370
     0
100
AcDbLine
 10
242.6772045437
 20
32.9696434388
 30
0.0
 11
242.7378647155
 21
33.0046731944
 31
0.0
  0
LINE
  5
26D
330
1F
100
AcDbEntity
  8
0
  6
Continuous
 62
     7
370
     0
100
AcDbLine
 10
242.4562336746
 20
37.7500657591
 30
0.0
 11
242.4572747018
 21
37.9358174911
 31
0.0
  0
LWPOLYLINE
  5
26E
330
1F
100
AcDbEntity
  8
0
  6
Continuous
 62
     7
370
     0
100
AcDbPolyline
 90
        3
 70
   128
 43
0.0
 10
242.6339180579
 20
35.4424011524
 10
242.5175929258
 20
36.365765316
 10
242.4562336746
 20
37.7500657591
  0
LWPOLYLINE
  5
26F
330
1F
100
AcDbEntity
  8
0
  6
Continuous
 62
     7
370
     0
100
AcDbPolyline
 90
       19
 70
   128
 43
0.0
 10
211.5230139909
 20
61.5656843504
 10
211.5845023072
 20
62.6844991817
 10
211.7679151737
 20
63.8551636798
 10
212.0701143457
 20
65.0576474507
 10
212.4859291113
 20
66.2713756636
 10
213.0082447647
 20
67.4755810922
 10
213.6281243403
 20
68.6496594478
 10
214.3349615266
 20
69.7735219243
 10
215.1166621435
 20
70.8279389231
 10
215.9598510766
 20
71.7948690769
 10
216.8501011295
 20
72.6577679428
 10
217.7721798769
 20
73.4018710819
 10
218.710310296
 20
74.0144466833
 10
219.6484407151
 20
74.4850134084
 10
220.5705194626
 20
74.8055197303
 10
221.4607695155
 20
74.9704816969
 10
222.3039584485
 20
74.9770767631
 10
223.0856590654
 20
74.8251920856
 10
223.166155435
 20
74.7992814179
  0
ARC
  5
270
330
1F
100
AcDbEntity
  8
0
  6
Continuous
 62
     7
370
     0
100
AcDbCircle
 10
216.8976727757
 20
61.1215523229
 30
0.0
 40
5.392977870397567
100
AcDbArc
 50
175.2761269287
 51
225.7050394481
  0
LWPOLYLINE
  5
271
330
1F
100
AcDbEntity
  8
0
  6
Continuous
 62
     7
370
     0
100
AcDbPolyline
 90
        3
 70
   128
 43
0.0
 10
247.7087705738
 20
25.9262748897
 10
247.4777063248
 20
26.3962949953
 10
247.0099783781
 20
27.5959013354
  0
LWPOLYLINE
  5
272
330
1F
100
AcDbEntity
  8
0
  6
Continuous
 62
     7
370
     0
100
AcDbPolyline
 90
        3
 70
   128
 43
0.0
 10
247.5811295864
 20
25.4852420298
 10
247.0868175143
 20
26.433167658
 10
246.6171720025
 20
27.6503544225
  0
LINE
  5
273
330
1F
100
AcDbEntity
  8
0
  6
Continuous
 62
     7
370
     0
100
AcDbLine
 10
248.0335384112
 20
28.314596919
 30
0.0
 11
242.3236511531
 21
31.6108446704
 31
0.0
  0
ARC
  5
274
330
1F
100
AcDbEntity
  8
0
  6
Continuous
 62
     7
370
     0
100
AcDbCircle
 10
250.1957360376
 20
32.2880238021
 30
0.0
 40
12.12299545915989
100
AcDbArc
 50
195.3190382257
 51
214.5559948624
  0
OLE2FRAME
  5
275
330
1F
100
AcDbEntity
  8
0
100
AcDbOle2Frame
 70
     2
  3
Paintbrush-Bild
 10
13.8511154363
 20
38.264191557
 30
0.0
 11
51.6290888628
 21
31.9806341108
 31
0.0
 71
     2
 72
     0
 73
     1
 90
    12928
310
80552BED0767C5B32B40DDAF6807D121434000000000000000006FFBDDFB85D0
310
4940DDAF6807D121434000000000000000006FFBDDFB85D04940416F4BD60AFB
310
3F4000000000000000002BED0767C5B32B40416F4BD60AFB3F40000000000000
310
0000000000000100000000010000010000000100000000000100000000320000
310
D0CF11E0A1B11AE1000000000000000000000000000000003E000300FEFF0900
310
0600000000000000000000000100000001000000000000000010000002000000
310
01000000FEFFFFFF0000000000000000FFFFFFFFFFFFFFFFFFFFFFFFFFFFFFFF
310
FFFFFFFFFFFFFFFFFFFFFFFFFFFFFFFFFFFFFFFFFFFFFFFFFFFFFFFFFFFFFFFF
310
FFFFFFFFFFFFFFFFFFFFFFFFFFFFFFFFFFFFFFFFFFFFFFFFFFFFFFFFFFFFFFFF
310
FFFFFFFFFFFFFFFFFFFFFFFFFFFFFFFFFFFFFFFFFFFFFFFFFFFFFFFFFFFFFFFF
310
FFFFFFFFFFFFFFFFFFFFFFFFFFFFFFFFFFFFFFFFFFFFFFFFFFFFFFFFFFFFFFFF
310
FFFFFFFFFFFFFFFFFFFFFFFFFFFFFFFFFFFFFFFFFFFFFFFFFFFFFFFFFFFFFFFF
310
FFFFFFFFFFFFFFFFFFFFFFFFFFFFFFFFFFFFFFFFFFFFFFFFFFFFFFFFFFFFFFFF
310
FFFFFFFFFFFFFFFFFFFFFFFFFFFFFFFFFFFFFFFFFFFFFFFFFFFFFFFFFFFFFFFF
310
FFFFFFFFFFFFFFFFFFFFFFFFFFFFFFFFFFFFFFFFFFFFFFFFFFFFFFFFFFFFFFFF
310
FFFFFFFFFFFFFFFFFFFFFFFFFFFFFFFFFFFFFFFFFFFFFFFFFFFFFFFFFFFFFFFF
310
FFFFFFFFFFFFFFFFFFFFFFFFFFFFFFFFFFFFFFFFFFFFFFFFFFFFFFFFFFFFFFFF
310
FFFFFFFFFFFFFFFFFFFFFFFFFFFFFFFFFFFFFFFFFFFFFFFFFFFFFFFFFFFFFFFF
310
FFFFFFFFFFFFFFFFFFFFFFFFFFFFFFFFFFFFFFFFFFFFFFFFFFFFFFFFFFFFFFFF
310
FFFFFFFFFFFFFFFFFFFFFFFFFFFFFFFFFFFFFFFFFFFFFFFFFFFFFFFFFFFFFFFF
310
FDFFFFFFFEFFFFFFFEFFFFFFFEFFFFFF05000000060000000700000008000000
310
090000000A0000000B0000000C0000000D0000000E0000000F00000010000000
310
11000000120000001300000014000000150000001600000017000000FEFFFFFF
310
FFFFFFFFFFFFFFFFFFFFFFFFFFFFFFFFFFFFFFFFFFFFFFFFFFFFFFFFFFFFFFFF
310
FFFFFFFFFFFFFFFFFFFFFFFFFFFFFFFFFFFFFFFFFFFFFFFFFFFFFFFFFFFFFFFF
310
FFFFFFFFFFFFFFFFFFFFFFFFFFFFFFFFFFFFFFFFFFFFFFFFFFFFFFFFFFFFFFFF
310
FFFFFFFFFFFFFFFFFFFFFFFFFFFFFFFFFFFFFFFFFFFFFFFFFFFFFFFFFFFFFFFF
310
FFFFFFFFFFFFFFFFFFFFFFFFFFFFFFFFFFFFFFFFFFFFFFFFFFFFFFFFFFFFFFFF
310
FFFFFFFFFFFFFFFFFFFFFFFFFFFFFFFFFFFFFFFFFFFFFFFFFFFFFFFFFFFFFFFF
310
FFFFFFFFFFFFFFFFFFFFFFFFFFFFFFFFFFFFFFFFFFFFFFFFFFFFFFFFFFFFFFFF
310
FFFFFFFFFFFFFFFFFFFFFFFFFFFFFFFFFFFFFFFFFFFFFFFFFFFFFFFFFFFFFFFF
310
FFFFFFFFFFFFFFFFFFFFFFFFFFFFFFFFFFFFFFFFFFFFFFFFFFFFFFFFFFFFFFFF
310
FFFFFFFFFFFFFFFFFFFFFFFFFFFFFFFFFFFFFFFFFFFFFFFFFFFFFFFFFFFFFFFF
310
FFFFFFFFFFFFFFFFFFFFFFFFFFFFFFFFFFFFFFFFFFFFFFFFFFFFFFFFFFFFFFFF
310
FFFFFFFFFFFFFFFFFFFFFFFFFFFFFFFFFFFFFFFFFFFFFFFFFFFFFFFFFFFFFFFF
310
FFFFFFFFFFFFFFFFFFFFFFFFFFFFFFFFFFFFFFFFFFFFFFFFFFFFFFFFFFFFFFFF
310
52006F006F007400200045006E00740072007900000000000000000000000000
310
0000000000000000000000000000000000000000000000000000000000000000
310
16000500FFFFFFFFFFFFFFFF020000000A00030000000000C000000000000046
310
000000000000000000000000A037A9A9EA25D20103000000C000000000000000
310
01004F006C006500000000000000000000000000000000000000000000000000
310
0000000000000000000000000000000000000000000000000000000000000000
310
0A000200FFFFFFFFFFFFFFFFFFFFFFFF00000000000000000000000000000000
310
0000000000000000000000000000000000000000000000001400000000000000
310
010043006F006D0070004F0062006A0000000000000000000000000000000000
310
0000000000000000000000000000000000000000000000000000000000000000
310
120002010100000003000000FFFFFFFF00000000000000000000000000000000
310
0000000000000000000000000000000000000000010000004D00000000000000
310
01004F006C006500310030004E00610074006900760065000000000000000000
310
0000000000000000000000000000000000000000000000000000000000000000
310
1A000200FFFFFFFFFFFFFFFFFFFFFFFF00000000000000000000000000000000
310
0000000000000000000000000000000000000000040000002426000000000000
310
FEFFFFFF02000000FEFFFFFFFFFFFFFFFFFFFFFFFFFFFFFFFFFFFFFFFFFFFFFF
310
FFFFFFFFFFFFFFFFFFFFFFFFFFFFFFFFFFFFFFFFFFFFFFFFFFFFFFFFFFFFFFFF
310
FFFFFFFFFFFFFFFFFFFFFFFFFFFFFFFFFFFFFFFFFFFFFFFFFFFFFFFFFFFFFFFF
310
FFFFFFFFFFFFFFFFFFFFFFFFFFFFFFFFFFFFFFFFFFFFFFFFFFFFFFFFFFFFFFFF
310
FFFFFFFFFFFFFFFFFFFFFFFFFFFFFFFFFFFFFFFFFFFFFFFFFFFFFFFFFFFFFFFF
310
FFFFFFFFFFFFFFFFFFFFFFFFFFFFFFFFFFFFFFFFFFFFFFFFFFFFFFFFFFFFFFFF
310
FFFFFFFFFFFFFFFFFFFFFFFFFFFFFFFFFFFFFFFFFFFFFFFFFFFFFFFFFFFFFFFF
310
FFFFFFFFFFFFFFFFFFFFFFFFFFFFFFFFFFFFFFFFFFFFFFFFFFFFFFFFFFFFFFFF
310
FFFFFFFFFFFFFFFFFFFFFFFFFFFFFFFFFFFFFFFFFFFFFFFFFFFFFFFFFFFFFFFF
310
FFFFFFFFFFFFFFFFFFFFFFFFFFFFFFFFFFFFFFFFFFFFFFFFFFFFFFFFFFFFFFFF
310
FFFFFFFFFFFFFFFFFFFFFFFFFFFFFFFFFFFFFFFFFFFFFFFFFFFFFFFFFFFFFFFF
310
FFFFFFFFFFFFFFFFFFFFFFFFFFFFFFFFFFFFFFFFFFFFFFFFFFFFFFFFFFFFFFFF
310
FFFFFFFFFFFFFFFFFFFFFFFFFFFFFFFFFFFFFFFFFFFFFFFFFFFFFFFFFFFFFFFF
310
FFFFFFFFFFFFFFFFFFFFFFFFFFFFFFFFFFFFFFFFFFFFFFFFFFFFFFFFFFFFFFFF
310
FFFFFFFFFFFFFFFFFFFFFFFFFFFFFFFFFFFFFFFFFFFFFFFFFFFFFFFFFFFFFFFF
310
FFFFFFFFFFFFFFFFFFFFFFFFFFFFFFFFFFFFFFFFFFFFFFFFFFFFFFFFFFFFFFFF
310
0100000200000000000000000000000000000000000000000000000000000000
310
0000000000000000000000000000000000000000000000000000000000000000
310
0100FEFF030A0000FFFFFFFF0A00030000000000C00000000000004607000000
310
5042727573680007000000504272757368000700000050427275736800F439B2
310
7100000000000000000000000000000000000000000000000000000000000000
310
0000000000000000000000000000000000000000000000000000000000000000
310
0000000000000000000000000000000000000000000000000000000000000000
310
0000000000000000000000000000000000000000000000000000000000000000
310
0000000000000000000000000000000000000000000000000000000000000000
310
0000000000000000000000000000000000000000000000000000000000000000
310
0000000000000000000000000000000000000000000000000000000000000000
310
0000000000000000000000000000000000000000000000000000000000000000
310
0000000000000000000000000000000000000000000000000000000000000000
310
0000000000000000000000000000000000000000000000000000000000000000
310
0000000000000000000000000000000000000000000000000000000000000000
310
0000000000000000000000000000000000000000000000000000000000000000
310
20260000424D0E260000000000003E00000028000000B40200006E0000000100
310
01000000000000000000130B0000130B00000200000002000000000000FFFFFF
310
FFFFFFFFFFFFFFFFFFFFFFFFFFFFFFFFFFFFFFFFFFFFFFFFFFFFFFFFFFFFFFFF
310
FFFFFFFFFFFFFFFFFFFFFFFFFFFFFFFFFFFFFFFFFFFFFFFFFFFFFFFFFFFFFFFF
310
FFFFFFFFFFFFFFFFFFFFFFFFFFFFFFFFFFFFFFFFFFFFFFFFF000FFFFFFFFFFFF
310
FFFFFFFFFFFFFFFFFFFFFFFFFFFFFFFFFFFFFFFFFFFFFFFFFFFFFFFFFFFFFFFF
310
FFFFFFFFFFFFFFFFFFFFFFFFFFFFFFFFFFFFFFFFFFFFFFFFFFFFFFFFFFFFFFFF
310
FFFFFFFFFFFFFFFFFFFFFFFFFFFFFFFFF000FFFFFFFFFFFFFFFFFFFFFFFFFFFF
310
FFFFFFFFFFFFFFFFFFFFFFFFFFFFFFFFFFFFFFFFFFFFFFFFFFFFFFFFFFFFFFFF
310
FFFFFFFFFFFFFFFFFFFFFFFFFFFFFFFFFFFFFFFFFFFFFFFFFFFFFFFFFFFFFFFF
310
FFFFFFFFFFFFFFFFF000FFFFFFFFFFFFFFFFFFFFFFFFFFFFFFFFFFFFFFFFFFFF
310
FFFFFFFFFFFFFFFFFFFFFFFFFFFFFFFFFFFFFFFFFFFFFFFFFFFFFFFFFFFFFFFF
310
FFFFFFFFFFFFFFFFFFFFFFFFFFFFFFFFFFFFFFFFFFFFFFFFFFFFFFFFFFFFFFFF
310
F000FFFFFFFFFFFFFFFFFFFFFFFFFFFFFFFFFFFFFFFFFFFFFFFFFFFFFFFFFFFF
310
FFFFFFFFFFFFFFFFFFFFFFFFFFFFFFFFFFFFFFFFFFFFFFFFFFFFFFFFFFFFFFFF
310
FFFFFFFFFFFFFFFFFFFFFFFFFFFFFFFFFFFFFFFFFFFFFFFFF000FFFFFFFFFFFF
310
FFFFFFFFFFFFFFFFFFFFFFFFFFFFFFFFFFFFFFFFFFFFFFFFFFFFFFFFFFFFFFFF
310
FFFFFFFFFFFFFFFFFFFFFFFFFFFFFFFFFFFFFFFFFFFFFFFFFFFFFFFFFFFFFFFF
310
FFFFFFFFFFFFFFFFFFFFFFFFFFFFFFFFF000FFFFFFFFFFFFFFFFFFFFFFFFFFFF
310
FFFFFFFFFFFFFFFFFFFFFFFFFFFFFFFFFFFFFFFFFFFFFFFFFFFFFFFFFFFFFFFF
310
FFFFFFFFFFFFFFFFFFFFFFFFFFFFFFFFFFFFFFFFFFFFFFFFFFFFFFFFFFFFFFFF
310
FFFFFFFFFFFFFFFFF000FFFFFFFFFFFFFFFFFFFFFFFFFFFFFFFFFFFFFFFFFFFF
310
FFFFFFFFFFFFFFFFFFFFFFFFFFFFFFFFFFFFFFFFFFFFFFFFFFFFFFFFFFFFFFFF
310
FFFFFFFFFFFFFFFFFFFFFFFFFFFFFFFFFFFFFFFFFFFFFFFFFFFFFFFFFFFFFFFF
310
F000FFFFFFFFFFFFFFFFFFFFFFFFFFFFFFFFFFFFFFFFFFFFFFFFFFFFFFFFFFFF
310
FFFFFFFFFFFFFFFFFFFFFFFFFFFFFFFFFFFFFFFFFFFFFFFFFFFFFFFFFFFFFFFF
310
FFFFFFFFFFFFFFFFFFFFFFFFFFFFFFFFFFFFFFFFFFFFFFFFF000FFFFFFFFFFFF
310
FFFFFFFFFFFFFFFFFFFFFFFFFFFFFFFFFFFFFFFFFFFFFFFFFFFFFFFFFFFFFFFF
310
FFFFFFFFFFFFFFFFFFFFFFFFFFFFFFFFFFFFFFFFFFFFFFFFFFFFFFFFFFFFFFFF
310
FFFFFFFFFFFFFFFFFFFFFFFFFFFFFFFFF000FFFFFFFFFFFFFFFFFFFFFFFFFFFF
310
FFFFFFFFFFFFFFFFFFFFFFFFFFFFFFFFFFFFFFFFFFFFFFFFFFFFFFFFFFFFFFFF
310
FFFFFFFFFFFFFFFFFFFFFFFFFFFFFFFFFFFFFFFFFFFFFFFFFFFFFFFFFFFFFFFF
310
FFFFFFFFFFFFFFFFF000FFFFFFFFFFFFFFFFFFFFFFFFFFFFFFFFFFFFFFFFFFFF
310
FFFFFFFFFFFFFFFFFFFFFFFFFFFFFFFFFFFFFFFFFFFFFFFFFFFFFFFFFFFFFFFF
310
FFFFFFFFFFFFFFFFFFFFFFFFFFFFFFFFFFFFFFFFFFFFFFFFFFFFFFFFFFFFFFFF
310
F000FFFFFFFFFFFFFFFFFFFFFFFFFFFFFFFFFFFFFFFFFFFFFFFFFFFFFFFFFFFF
310
FFFFFFFFFFFFFFFFFFFFFFFFFFFFFFFFFFFFFFFFFFFFFFFFFFFFFFFFFFFFFFFF
310
FFFFFFFFFFFFFFFFFFFFFFFFFFFFFFFFFFFFFFFFFFFFFFFFF000FFFFFFFFFFFF
310
FFFFFFFFFFFFFFFFFFFFFFFFFFFFFFFFFFFFFFFFFFFFFFFFFFFFFFFFFFFFFFFF
310
FFFFFFFFFFFFFFFFFFFFFFFFFFFFFFFFFFFFFFFFFFFFFFFFFFFFFFFFFFFFFFFF
310
FFFFFFFFFFFFFFFFFFFFFFFFFFFFFFFFF000FFFFFFFFFFFFFFFFFFFFFFFFFFFF
310
FFFFFFFFFFFFFFFFFFFFFFFFFFFFFFFFFFFFFFFFFFFFFFFFFFFFFFFFFFFFFFFF
310
FFFFFFFFFFFFFFFFFFFFFFFFFFFFFFFFFFFFFFFFFFFFFFFFFFFFFFFFFFFFFFFF
310
FFFFFFFFFFFFFFFFF000FFFFFFFFFFFFFFFFFFFFFFFFFFFFFFFFFFFFFFFFFFFF
310
FFFFFFFFFFFFFFFFFFFFFFFFFFFFFFFFFFFFFFFFFFFFFFFFFFFFFFFFFFFFFFFF
310
FFFFFFFFFFFFFFFFFFFFFFFFFFFFFFFFFFFFFFFFFFFFFFFFFFFFFFFFFFFFFFFF
310
F000FFFFFFFFFFFFFFFFFFFFFFFFFFFFFFFFFFFFFFFFFFFFFFFFFFFFFFFFFFFF
310
FFFFFFFFFFFFFFFFFFFFFFFFFFFFFFFFFFFFFFFFFFFFFFFFFFFFFFFFFFFFFFFF
310
FFFFFFFFFFFFFFFFFFFFFFFFFFFFFFFFFFFFFFFFFFFFFFFFF000FFFFFFFFFFFF
310
FFFFFFFFFFFFFFFFFFFFFFFFFFFFFFFFFFFFFFFFFFFFFFFFFFFFFFFFFFFFFFFF
310
FFFFFFFFFFFFFFFFFFFFFFFFFFFFFFFFFFFFFFFFFFFFFFFFFFFFFFFFFFFFFFFF
310
FFFFFFFFFFFFFFFFFFFFFFFFFFFFFFFFF000FFFFFFFFFFFFFFFFFFFFFFFFFFFF
310
FFFFFFFFFFFFFFFFFFFFFFFFFFFFFFFFFFFFFFFFFFFFFFFFFFFFFFFFFFFFFFFF
310
FFFFFFFFFFFFFFFFFFFFFFFFFFFFFFFFFFFFFFFFFFFFFFFFFFFFFFFFFFFFFFFF
310
FFFFFFFFFFFFFFFFF000FFFFF80003FFFFFFFFFFFFFFFFFFFFFFFFFFFFFFFFFF
310
FFFFF00007FFFFFFFFFF00007FFFFFF800000000000000007FFFFFFFFFFFFFFF
310
FFFFFFFC001FFFFFFFFFFFFFFC001FFFFFFFFFFFFFFFFFFFFFFFFFFE0007FFFF
310
F000FFFF8000007FFFFFFFF8000FFFFFC0007FFFFF80007FFFFF0000007FFFFF
310
FFF8000007FFFFF800000000000000007FFFFFF0001FFFFFFFFFFFC00001FFFF
310
FFFFFFFFC00001FFFFFFFF000000000003FFFFE000007FFFF000FFFE0000000F
310
FFFFFFF0000FFFFF80007FFFFF80007FFFFC0000001FFFFFFFC0000001FFFFF8
310
00000000000000007FFFFFF0001FFFFFFFFFFE0000003FFFFFFFFFFE0000003F
310
FFFFFF000000000003FFFF0000000FFFF000FFF800000003FFFFFFF00007FFFF
310
80007FFFFF80007FFFF000000007FFFFFF000000003FFFF80000000000000000
310
7FFFFFF0001FFFFFFFFFF80000000FFFFFFFFFF80000000FFFFFFF0000000000
310
03FFFC00000003FFF000FFE000000000FFFFFFF00007FFFF80003FFFFF80007F
310
FFC000000001FFFFFC000000001FFFF800000000000000007FFFFFF0001FFFFF
310
FFFFE000000003FFFFFFFFE000000003FFFFFF000000000003FFF000000000FF
310
F000FF80000000007FFFFFF00007FFFF80003FFFFF80007FFF8000000000FFFF
310
F80000000007FFF800000000000000007FFFFFF0001FFFFFFFFFC000000001FF
310
FFFFFFC000000001FFFFFF000000000003FFC0000000007FF000FF0000000000
310
3FFFFFE00007FFFF00003FFFFF80007FFE00000000003FFFF00000000003FFF8
310
00000000000000007FFFFFF0001FFFFFFFFF8000000000FFFFFFFF8000000000
310
FFFFFF000000000003FF80000000003FF000FE00000000001FFFFFE00003FFFF
310
00003FFFFF80007FFC00000000001FFFE00000000001FFF8000001FFFE000000
310
7FFFFFF0001FFFFFFFFE00000000003FFFFFFE00000000003FFFFF0000000000
310
03FF00000000001FF000FC00000000000FFFFFE00003FFFF00001FFFFF80007F
310
F800000000001FFFC00000000000FFF8000001FFFE0000007FFFFFF0001FFFFF
310
FFFC00000000001FFFFFFC00000000001FFFFF000000000003FE00000000000F
310
F000F8000000000007FFFFE00003FFFF00001FFFFF80007FF800000000000FFF
310
800000000000FFF8000001FFFE0000007FFFFFF0001FFFFFFFF800000000000F
310
FFFFF800000000000FFFFF000000000003FC000000000007F000F80000000000
310
03FFFFC00003FFFE00001FFFFF80007FF0000000000007FF0000000000007FF8
310
000001FFFE0000007FFFFFF0001FFFFFFFF0000000000007FFFFF00000000000
310
07FFFF000000000003F8000000000003F000F0000000000003FFFFC00001FFFE
310
00001FFFFF80007FE0000000000007FE0000000000003FF8000001FFFE000000
310
7FFFFFF0001FFFFFFFF0000000000007FFFFF0000000000007FFFF0000000000
310
03F800001F800003F000E00001FFF00001FFFFC00001FFFE00000FFFFF80007F
310
E00001FFE00003FE00001FFF00003FF8000001FFFE0000007FFFFFF0001FFFFF
310
FFE000003E000003FFFFE000003E000003FFFF000000000003F00001FFF80001
310
F000E00007FFFC0001FFFFC00001FFFE00000FFFFF80007FC0000FFFFC0003FC
310
0000FFFFC0001FF8000001FFFE0000007FFFFFF0001FFFFFFFC00003FFE00001
310
FFFFC00003FFE00001FFFF0001FFFFFFFFF00007FFFE0001F000E0000FFFFF00
310
00FFFF800001FFFC00000FFFFF80007FC0001FFFFE0001FC0001FFFFE0001FF8
310
000001FFFE0000007FFFFFF0001FFFFFFF80000FFFF80000FFFF80000FFFF800
310
00FFFF0003FFFFFFFFE0000FFFFF8000F000C0003FFFFF8000FFFF800000FFFC
310
000007FFFF80007F80003FFFFF0001FC0003FFFFF0001FF8000001FFFE000000
310
7FFFFFF0001FFFFFFF80003FFFFE0000FFFF80003FFFFE0000FFFF0003FFFFFF
310
FFE0003FFFFF8000F000C0003FFFFF8000FFFF800000FFFC000007FFFF80007F
310
80007FFFFF8001F80007FFFFF8000FF8000001FFFE0000007FFFFFF0001FFFFF
310
FF00007FFFFF00007FFF00007FFFFF00007FFF0003FFFFFFFFE0003FFFFFC000
310
F000C0007FFFFFC000FFFF000000FFFC000007FFFF80007F8000FFFFFF8000F8
310
000FFFFFF8000FF8000001FFFE0000007FFFFFF0001FFFFFFF0000FFFFFF8000
310
7FFF0000FFFFFF80007FFF0003FFFFFFFFC0007FFFFFC00070008000FFFFFFC0
310
00FFFF000000FFF8000007FFFF80007F8000FFFFFF8000F8000FFFFFF8000FF8
310
000001FFFE0000007FFFFFF0001FFFFFFE0001FFFFFFC0003FFE0001FFFFFFC0
310
003FFF0003FFFFFFFFC0007FFFFFE00070008000FFFFFFC0007FFF0000007FF8
310
000003FFFF80007F0001FFFFFF8000F8000FFFFFF8000FF8000001FFFE000000
310
7FFFFFF0001FFFFFFE0001FFFFFFC0003FFE0001FFFFFFC0003FFF0003FFFFFF
310
FFC000FFFFFFE00070008000FFFFFFC0007FFF0000007FF8000003FFFF80007F
310
0001FFFFFF8000F8001FFFFFF8000FF8000001FFFE0000007FFFFFF0001FFFFF
310
FE0003FFFFFFE0003FFE0003FFFFFFE0003FFF0003FFFFFFFFC000FFFFFFE000
310
70008000FFFFFFC0007FFE0000007FF8000003FFFF80007F0001FFFFFF8000F0
310
001FFFFFF8000FF8000001FFFE0000007FFFFFF0001FFFFFFC0003FFFFFFE000
310
1FFC0003FFFFFFE0001FFF0003FFFFFFFFC000FFFFFFC00070008000FFFFFF80
310
007FFE0000007FF0000003FFFF80007F0001FFFFFF0000F0001FFFFFF8000FF8
310
000001FFFE0000007FFFFFF0001FFFFFFC0007FFFFFFF0001FFC0007FFFFFFF0
310
001FFF0003FFFFFFFFC000FFFFFFC00070008001FFFFFF0000FFFE0000003FF0
310
000001FFFF80007F0001FFFFFF0000F8001FFFFFF0000FF8000001FFFE000000
310
7FFFFFF0001FFFFFFC0007FFFFFFF0001FFC0007FFFFFFF0001FFF0003FFFFFF
310
FFC001FFFFFF80007000FFFFFFFFFE0000FFFE0008003FF0008001FFFF80007F
310
FFFFFFFFFC0000FFFFFFFFFFE0000FF8000001FFFE0000007FFFFFF0001FFFFF
310
F8000FFFFFFFF8000FF8000FFFFFFFF8000FFF0003FFFFFFFFFFFFFFFFFF0000
310
7000FFFFFFFFFC0000FFFC0008003FF0008001FFFF80007FFFFFFFFFF80001FF
310
FFFFFFFF80000FF8000001FFFE0000007FFFFFF0001FFFFFF8000FFFFFFFF800
310
0FF8000FFFFFFFF8000FFF0003FFFFFFFFFFFFFFFFFE0000F000FFFFFFFFE000
310
00FFFC000C003FE000C001FFFF80007FFFFFFFFFC00001FFFFFFFFFE00001FF8
310
000001FFFE0000007FFFFFF0001FFFFFF8000FFFFFFFF8000FF8000FFFFFFFF8
310
000FFF0003FFFFFFFFFFFFFFFFF00000F000FFFFFFFE000001FFFC000C001FE0
310
00C000FFFF80007FFFFFFFFE000001FFFFFFFFE000001FF80FFFFFFFFFFFFFC0
310
7FFFFFF0001FFFFFF8000FFFFFFFF8000FF8000FFFFFFFF8000FFF0003FFFFFF
310
FFFFFFFFFF800000F000FFFFFFC0000001FFFC001C001FE001C000FFFF80007F
310
FFFFFF80000003FFFFFFF80000001FF80FFFFFFFFFFFFFC07FFFFFF0001FFFFF
310
F8001FFFFFFFFC000FF8001FFFFFFFFC000FFF0003FFFFFFFFFFFFFFF0000001
310
F000FFFFF800000001FFF8001C001FE001C000FFFF80007FFFFFF800000003FF
310
FFFF800000003FF80FFFFFFFFFFFFFC07FFFFFF0001FFFFFF8001FFFFFFFFC00
310
0FF8001FFFFFFFFC000FFF0003FFFFFFFFFFFFFE00000001F000FFFFC0000000
310
03FFF8001E001FC001E000FFFF80007FFFFF8000000007FFFFFC000000003FF8
310
0FFFFFFFFFFFFFC07FFFFFF0001FFFFFF8001FFFFFFFFC000FF8001FFFFFFFFC
310
000FFF0003FFFFFFFFFFFFE000000003F000FFFE0000000007FFF8001E000FC0
310
01E0007FFF80007FFFFE0000000007FFFFE0000000007FF80FFFFFFFFFFFFFC0
310
7FFFFFF0001FFFFFF0001FFFFFFFFC0007F0001FFFFFFFFC0007FF0003FFFFFF
310
FFFFFF0000000003F000FFF80000000007FFF8001E000FC003E0007FFF80007F
310
FFF0000000000FFFFF8000000000FFF80FFFFFFFFFFFFFC07FFFFFF0001FFFFF
310
F0001FFFFFFFFC0007F0001FFFFFFFFC0007FF0003FFFFFFFFFFFC0000000007
310
F000FFE0000000000FFFF0003E000FC003E0007FFF80007FFFC0000000001FFF
310
FE0000000001FFF80FFFFFFFFFFFFFC07FFFFFF0001FFFFFF0001FFFFFFFFC00
310
07F0001FFFFFFFFC0007FF0003FFFFFFFFFFF0000000000FF000FFC000000000
310
1FFFF0003F000F8003F0003FFF80007FFF80000000003FFFF80000000003FFF8
310
0FFFFFFFFFFFFFC07FFFFFF0001FFFFFF0001FFFFFFFFC0007F0001FFFFFFFFC
310
0007FF0003FFFFFFFFFFE0000000001FF000FF00000000007FFFF0003F000780
310
03F0003FFF80007FFF00000000007FFFF00000000007FFF80FFFFFFFFFFFFFC0
310
7FFFFFF0001FFFFFF0001FFFFFFFFC0007F0001FFFFFFFFC0007FF0003FFFFFF
310
FFFF80000000007FF000FE0000000000FFFFE0003F00078007F0003FFF80007F
310
FE0000000001FFFFE0000000001FFFF80FFFFFFFFFFFFFC07FFFFFF0001FFFFF
310
F0001FFFFFFFFC0007F0001FFFFFFFFC0007FF0003FFFFFFFFFF0000000000FF
310
F000FC0000000003FFFFE0007F00078007F0003FFF80007FFC0000000007FFFF
310
C0000000007FFFF80FFFFFFFFFFFFFC07FFFFFF0001FFFFFF8001FFFFFFFFC00
310
0FF8001FFFFFFFFC000FFF0003FFFFFFFFFE0000000003FFF000FC000000000F
310
FFFFE0007F80070007F8001FFF80007FF8000000001FFFFF8000000001FFFFF8
310
0FFFFFFFFFFFFFC07FFFFFF0001FFFFFF8001FFFFFFFFC000FF8001FFFFFFFFC
310
000FFF0003FFFFFFFFFC000000000FFFF000F8000000007FFFFFE0007F800700
310
07F8001FFF80007FF000000000FFFFFF800000000FFFFFF80FFFFFFFFFFFFFC0
310
7FFFFFF0001FFFFFF8000FFFFFFFF8000FF8000FFFFFFFF8000FFF0003FFFFFF
310
FFFC000000007FFFF000F800000007FFFFFFC0007F8003000FF8001FFF80007F
310
F000000007FFFFFF000000007FFFFFF80FFFFFFFFFFFFFC07FFFFFF0001FFFFF
310
F8000FFFFFFFF8000FF8000FFFFFFFF8000FFF0003FFFFFFFFF80000000FFFFF
310
F000F0000000FFFFFFFFC000FF8003000FF8001FFF80007FE0000000FFFFFFFF
310
0000000FFFFFFFF8000001FFFE0000007FFFFFF0001FFFFFF8000FFFFFFFF800
310
0FF8000FFFFFFFF8000FFF0003FFFFFFFFF8000000FFFFFFF000F000000FFFFF
310
FFFFC000FFC002000FF8000FFF80007FE000001FFFFFFFFE000001FFFFFFFFF8
310
000001FFFE0000007FFFFFF0001FFFFFF8000FFFFFFFF8000FF8000FFFFFFFF8
310
000FFF0003FFFFFFFFF000001FFFFFFFF000E00000FFFFFFFFFFC000FFC00200
310
0FFC000FFF80007FE00001FFFFFFFFFE00001FFFFFFFFFF8000001FFFE000000
310
7FFFFFF0001FFFFFFC000FFFFFFFF8001FFC000FFFFFFFF8001FFF0003FFFFFF
310
FFF00001FFFFFFFFF000E00007FFFFFFFFFF8000FFC000001FFC000FFF80007F
310
C0000FFFFFFFFFFE0000FFFFFFFFFFF8000001FFFE0000007FFFFFF0001FFFFF
310
FC0007FFFFFFF0001FFC0007FFFFFFF0001FFF0003FFFFFFFFF00007FFFFFFFF
310
F000E0001FFFFFFFFFFF8000FFC000001FFC000FFF80007FC0003FFFFFFFFFFE
310
0001FFFFFFFFFFF8000001FFFE0000007FFFFFF0001FFFFFFC0007FFFFFFF000
310
1FFC0007FFFFFFF0001FFF0003FFFFFFFFF0001FFFFFFFFFF000E0003FFFFF00
310
03FF8001FFE000001FFC0007FF80007FC0007FFFFF0007FC0003FFFFF0003FF8
310
000001FFFE0000007FFFFFF0001FFFFFFC0003FFFFFFE0001FFC0003FFFFFFE0
310
001FFF0003FFFFFFFFF0003FFFFFFFFFF000E0003FFFFF0001FF8001FFE00000
310
1FFE0007FF80007FC0007FFFFE0003FC0007FFFFE0003FF8000001FFFE000000
310
7FFFFFF0001FFFFFFE0003FFFFFFE0003FFE0003FFFFFFE0003FFF0003FFFFFF
310
FFF0003FFFFF8001F000E0003FFFFF0001FF0001FFE000001FFE0007FF80007F
310
C0007FFFFE0003FC0007FFFFE0003FF8000001FFFE0000007FFFFFF0001FFFFF
310
FE0001FFFFFFC0003FFE0001FFFFFFC0003FFF0003FFFFFFFFF0003FFFFF0001
310
F000E0003FFFFF0003FF0001FFE000003FFE0007FF80007FC0007FFFFE0003FC
310
0007FFFFE0003FF8000001FFFE0000007FFFFFF0001FFFFFFF0001FFFFFFC000
310
7FFF0001FFFFFFC0007FFF0003FFFFFFFFF0003FFFFF0001F000E0003FFFFE00
310
03FF0003FFF000003FFE0003FF80007FC0007FFFFC0003FE0007FFFFE0003FF8
310
000001FFFE0000007FFFFFF0001FFFFFFF0000FFFFFF80007FFF0000FFFFFF80
310
007FFF0003FFFFFFFFF0003FFFFF0001F000E0003FFFFE0003FF0003FFF00000
310
3FFF0003FF80007FC0007FFFFC0007FE0007FFFFC0003FF8000001FFFE000000
310
7FFFFFF0001FFFFFFF80007FFFFF0000FFFF80007FFFFF0000FFFF0003FFFFFF
310
FFF0003FFFFF0003F000E0003FFFFC0003FE0003FFF000003FFF0003FF80007F
310
E0003FFFF80007FE0003FFFFC0007FF8000001FFFE0000007FFFFFF0001FFFFF
310
FF80003FFFFE0000FFFF80003FFFFE0000FFFF0003FFFFFFFFF0001FFFFE0003
310
F000F0001FFFF80003FE0003FFF000007FFF0001FF80007FE0003FFFF00007FE
310
0001FFFF80007FF8000001FFFE0000007FFFFFF0001FFFFFFFC0000FFFF80001
310
FFFFC0000FFFF80001FFFF0003FFFFFFFFF0001FFFFC0003F000F0000FFFF000
310
07FE0007FFF800007FFF0001FF80007FE0001FFFE00007FF0000FFFE00007FF8
310
000001FFFE0000007FFFFFF0001FFFFFFFC00003FFE00001FFFFC00003FFE000
310
01FFFF0003FFFFFFFFF8000FFFF80003F000F00003FFC00007FC0007FFF80000
310
7FFF8001FF80007FF00007FF80000FFF00007FF80000FFF8000001FFFE000000
310
7F80000000000001FFE000003E000003FFFFE000003E000003FFFF0003FFFFFF
310
FFF80003FFE00007F000F800000000000FFC0007FFF800007FFF8001FF80007F
310
F000000000000FFF000000000000FFF8000001FFFE0000007F80000000000001
310
FFF0000000000007FFFFF0000000000007FFFF0003FFFFFFFFFC00007E000007
310
F000F800000000000FFC0007FFF80000FFFF8000FF80007FF800000000001FFF
310
800000000001FFF8000001FFFE0000007F80000000000001FFF800000000000F
310
FFFFF800000000000FFFFF0003FFFFFFFFFC00000000000FF000FC0000000000
310
1FFC0007FFFC0000FFFF8000FF80007FF800000000003FFFC00000000001FFF8
310
000001FFFE0000007F80000000000001FFF800000000000FFFFFF80000000000
310
0FFFFF0003FFFFFFFFFE00000000001FF000FE00000000003FF8000FFFFC0000
310
FFFF8000FF80007FFC00000000003FFFC00000000003FFF8000001FFFE000000
310
7F80000000000001FFFC00000000001FFFFFFC00000000001FFFFF0003FFFFFF
310
FFFF00000000001FF000FF00000000003FF8000FFFFC0000FFFFC000FF80007F
310
FE00000000007FFFE00000000007FFF8000001FFFE0000007F80000000000001
310
FFFE00000000003FFFFFFE00000000003FFFFF0003FFFFFFFFFF80000000003F
310
F000FF80000000007FF8000FFFFC0001FFFFC0007F80007FFF0000000000FFFF
310
F0000000000FFFF800000000000000007F80000000000001FFFF8000000000FF
310
FFFFFF8000000000FFFFFF0003FFFFFFFFFFC0000000007FF000FFC000000000
310
FFF8000FFFFE0001FFFFC0007F80007FFF8000000001FFFFF8000000001FFFF8
310
00000000000000007F80000000000001FFFFC000000001FFFFFFFFC000000001
310
FFFFFF0003FFFFFFFFFFE000000000FFF000FFE000000003FFF0001FFFFE0001
310
FFFFC0007F80007FFFC000000007FFFFFE000000003FFFF80000000000000000
310
7F80000000000001FFFFE000000003FFFFFFFFE000000003FFFFFF0003FFFFFF
310
FFFFF000000003FFF000FFF80000000FFFF0001FFFFE0001FFFFE0007F80007F
310
FFF00000000FFFFFFF00000000FFFFF800000000000000007F80000000000001
310
FFFFF80000000FFFFFFFFFF80000000FFFFFFF0003FFFFFFFFFFFC0000000FFF
310
F000FFFE0000003FFFF0001FFFFE0003FFFFE0003F80007FFFFC0000003FFFFF
310
FFC0000003FFFFF800000000000000007F80000000000001FFFFFE0000003FFF
310
FFFFFFFE0000003FFFFFFF0003FFFFFFFFFFFF0000003FFFF000FFFF800000FF
310
FFF0001FFFFF0003FFFFE0003F80007FFFFF000001FFFFFFFFF800001FFFFFF8
310
00000000000000007F80000000000001FFFFFFC00001FFFFFFFFFFFFC00001FF
310
FFFFFF0003FFFFFFFFFFFFC00000FFFFF000FFFFF8000FFFFFFFFFFFFFFFFFFF
310
FFFFFFFFFFFFFFFFFFFFF0001FFFFFFFFFFF0000FFFFFFF80000000000000000
310
7FFFFFFFFFFFFFFFFFFFFFFC001FFFFFFFFFFFFFFC001FFFFFFFFFFFFFFFFFFF
310
FFFFFFFC001FFFFFF000FFFFFFFFFFFFFFFFFFFFFFFFFFFFFFFFFFFFFFFFFFFF
310
FFFFFFFFFFFFFFFFFFFFFFFFFFFFFFFFFFFFFFFFFFFFFFFFFFFFFFFFFFFFFFFF
310
FFFFFFFFFFFFFFFFFFFFFFFFFFFFFFFFFFFFFFFFFFFFFFFFFFFFFFFFFFFFFFFF
310
F000FFFFFFFFFFFFFFFFFFFFFFFFFFFFFFFFFFFFFFFFFFFFFFFFFFFFFFFFFFFF
310
FFFFFFFFFFFFFFFFFFFFFFFFFFFFFFFFFFFFFFFFFFFFFFFFFFFFFFFFFFFFFFFF
310
FFFFFFFFFFFFFFFFFFFFFFFFFFFFFFFFFFFFFFFFFFFFFFFFF000FFFFFFFFFFFF
310
FFFFFFFFFFFFFFFFFFFFFFFFFFFFFFFFFFFFFFFFFFFFFFFFFFFFFFFFFFFFFFFF
310
FFFFFFFFFFFFFFFFFFFFFFFFFFFFFFFFFFFFFFFFFFFFFFFFFFFFFFFFFFFFFFFF
310
FFFFFFFFFFFFFFFFFFFFFFFFFFFFFFFFF000FFFFFFFFFFFFFFFFFFFFFFFFFFFF
310
FFFFFFFFFFFFFFFFFFFFFFFFFFFFFFFFFFFFFFFFFFFFFFFFFFFFFFFFFFFFFFFF
310
FFFFFFFFFFFFFFFFFFFFFFFFFFFFFFFFFFFFFFFFFFFFFFFFFFFFFFFFFFFFFFFF
310
FFFFFFFFFFFFFFFFF000FFFFFFFFFFFFFFFFFFFFFFFFFFFFFFFFFFFFFFFFFFFF
310
FFFFFFFFFFFFFFFFFFFFFFFFFFFFFFFFFFFFFFFFFFFFFFFFFFFFFFFFFFFFFFFF
310
FFFFFFFFFFFFFFFFFFFFFFFFFFFFFFFFFFFFFFFFFFFFFFFFFFFFFFFFFFFFFFFF
310
F000FFFFFFFFFFFFFFFFFFFFFFFFFFFFFFFFFFFFFFFFFFFFFFFFFFFFFFFFFFFF
310
FFFFFFFFFFFFFFFFFFFFFFFFFFFFFFFFFFFFFFFFFFFFFFFFFFFFFFFFFFFFFFFF
310
FFFFFFFFFFFFFFFFFFFFFFFFFFFFFFFFFFFFFFFFFFFFFFFFF000FFFFFFFFFFFF
310
FFFFFFFFFFFFFFFFFFFFFFFFFFFFFFFFFFFFFFFFFFFFFFFFFFFFFFFFFFFFFFFF
310
FFFFFFFFFFFFFFFFFFFFFFFFFFFFFFFFFFFFFFFFFFFFFFFFFFFFFFFFFFFFFFFF
310
FFFFFFFFFFFFFFFFFFFFFFFFFFFFFFFFF000FFFFFFFFFFFFFFFFFFFFFFFFFFFF
310
FFFFFFFFFFFFFFFFFFFFFFFFFFFFFFFFFFFFFFFFFFFFFFFFFFFFFFFFFFFFFFFF
310
FFFFFFFFFFFFFFFFFFFFFFFFFFFFFFFFFFFFFFFFFFFFFFFFFFFFFFFFFFFFFFFF
310
FFFFFFFFFFFFFFFFF000FFFFFFFFFFFFFFFFFFFFFFFFFFFFFFFFFFFFFFFFFFFF
310
FFFFFFFFFFFFFFFFFFFFFFFFFFFFFFFFFFFFFFFFFFFFFFFFFFFFFFFFFFFFFFFF
310
FFFFFFFFFFFFFFFFFFFFFFFFFFFFFFFFFFFFFFFFFFFFFFFFFFFFFFFFFFFFFFFF
310
F000FFFFFFFFFFFFFFFFFFFFFFFFFFFFFFFFFFFFFFFFFFFFFFFFFFFFFFFFFFFF
310
FFFFFFFFFFFFFFFFFFFFFFFFFFFFFFFFFFFFFFFFFFFFFFFFFFFFFFFFFFFFFFFF
310
FFFFFFFFFFFFFFFFFFFFFFFFFFFFFFFFFFFFFFFFFFFFFFFFF000FFFFFFFFFFFF
310
FFFFFFFFFFFFFFFFFFFFFFFFFFFFFFFFFFFFFFFFFFFFFFFFFFFFFFFFFFFFFFFF
310
FFFFFFFFFFFFFFFFFFFFFFFFFFFFFFFFFFFFFFFFFFFFFFFFFFFFFFFFFFFFFFFF
310
FFFFFFFFFFFFFFFFFFFFFFFFFFFFFFFFF000FFFFFFFFFFFFFFFFFFFFFFFFFFFF
310
FFFFFFFFFFFFFFFFFFFFFFFFFFFFFFFFFFFFFFFFFFFFFFFFFFFFFFFFFFFFFFFF
310
FFFFFFFFFFFFFFFFFFFFFFFFFFFFFFFFFFFFFFFFFFFFFFFFFFFFFFFFFFFFFFFF
310
FFFFFFFFFFFFFFFFF000FFFFFFFFFFFFFFFFFFFFFFFFFFFFFFFFFFFFFFFFFFFF
310
FFFFFFFFFFFFFFFFFFFFFFFFFFFFFFFFFFFFFFFFFFFFFFFFFFFFFFFFFFFFFFFF
310
FFFFFFFFFFFFFFFFFFFFFFFFFFFFFFFFFFFFFFFFFFFFFFFFFFFFFFFFFFFFFFFF
310
F000FFFFFFFFFFFFFFFFFFFFFFFFFFFFFFFFFFFFFFFFFFFFFFFFFFFFFFFFFFFF
310
FFFFFFFFFFFFFFFFFFFFFFFFFFFFFFFFFFFFFFFFFFFFFFFFFFFFFFFFFFFFFFFF
310
FFFFFFFFFFFFFFFFFFFFFFFFFFFFFFFFFFFFFFFFFFFFFFFFF000FFFFFFFFFFFF
310
FFFFFFFFFFFFFFFFFFFFFFFFFFFFFFFFFFFFFFFFFFFFFFFFFFFFFFFFFFFFFFFF
310
FFFFFFFFFFFFFFFFFFFFFFFFFFFFFFFFFFFFFFFFFFFFFFFFFFFFFFFFFFFFFFFF
310
FFFFFFFFFFFFFFFFFFFFFFFFFFFFFFFFF000FFFFFFFFFFFFFFFFFFFFFFFFFFFF
310
FFFFFFFFFFFFFFFFFFFFFFFFFFFFFFFFFFFFFFFFFFFFFFFFFFFFFFFFFFFFFFFF
310
FFFFFFFFFFFFFFFFFFFFFFFFFFFFFFFFFFFFFFFFFFFFFFFFFFFFFFFFFFFFFFFF
310
FFFFFFFFFFFFFFFFF000FFFFFFFFFFFFFFFFFFFFFFFFFFFFFFFFFFFFFFFFFFFF
310
FFFFFFFFFFFFFFFFFFFFFFFFFFFFFFFFFFFFFFFFFFFFFFFFFFFFFFFFFFFFFFFF
310
FFFFFFFFFFFFFFFFFFFFFFFFFFFFFFFFFFFFFFFFFFFFFFFFFFFFFFFFFFFFFFFF
310
F000FFFFFFFFFFFFFFFFFFFFFFFFFFFFFFFFFFFFFFFFFFFFFFFFFFFFFFFFFFFF
310
FFFFFFFFFFFFFFFFFFFFFFFFFFFFFFFFFFFFFFFFFFFFFFFFFFFFFFFFFFFFFFFF
310
FFFFFFFFFFFFFFFFFFFFFFFFFFFFFFFFFFFFFFFFFFFFFFFFF000FFFFFFFFFFFF
310
FFFFFFFFFFFFFFFFFFFFFFFFFFFFFFFFFFFFFFFFFFFFFFFFFFFFFFFFFFFFFFFF
310
FFFFFFFFFFFFFFFFFFFFFFFFFFFFFFFFFFFFFFFFFFFFFFFFFFFFFFFFFFFFFFFF
310
FFFFFFFFFFFFFFFFFFFFFFFFFFFFFFFFF000FFFFFFFFFFFFFFFFFFFFFFFFFFFF
310
FFFFFFFFFFFFFFFFFFFFFFFFFFFFFFFFFFFFFFFFFFFFFFFFFFFFFFFFFFFFFFFF
310
FFFFFFFFFFFFFFFFFFFFFFFFFFFFFFFFFFFFFFFFFFFFFFFFFFFFFFFFFFFFFFFF
310
FFFFFFFFFFFFFFFFF000FFFFFFFFFFFFFFFFFFFFFFFFFFFFFFFFFFFFFFFFFFFF
310
FFFFFFFFFFFFFFFFFFFFFFFFFFFFFFFFFFFFFFFFFFFFFFFFFFFFFFFFFFFFFFFF
310
FFFFFFFFFFFFFFFFFFFFFFFFFFFFFFFFFFFFFFFFFFFFFFFFFFFFFFFFFFFFFFFF
310
F000FFFFFFFFFFFFFFFFFFFFFFFFFFFFFFFFFFFFFFFFFFFFFFFFFFFFFFFFFFFF
310
FFFFFFFFFFFFFFFFFFFFFFFFFFFFFFFFFFFFFFFFFFFFFFFFFFFFFFFFFFFFFFFF
310
FFFFFFFFFFFFFFFFFFFFFFFFFFFFFFFFFFFFFFFFFFFFFFFFF000FFFFFFFFFFFF
310
FFFFFFFFFFFFFFFFFFFFFFFFFFFFFFFFFFFFFFFFFFFFFFFFFFFFFFFFFFFFFFFF
310
FFFFFFFFFFFFFFFFFFFFFFFFFFFFFFFFFFFFFFFFFFFFFFFFFFFFFFFFFFFFFFFF
310
FFFFFFFFFFFFFFFFFFFFFFFFFFFFFFFFF0000000000000000000000000000000
310
0000000000000000000000000000000000000000000000000000000000000000
310
0000000000000000000000000000000000000000000000000000000000000000
310
0000000000000000000000000000000000000000000000000000000000000000
310
0000000000000000000000000000000000000000000000000000000000000000
310
0000000000000000000000000000000000000000000000000000000000000000
310
0000000000000000000000000000000000000000000000000000000000000000
310
0000000000000000000000000000000000000000000000000000000000000000
310
0000000000000000000000000000000000000000000000000000000000000000
310
0000000000000000000000000000000000000000000000000000000000000000
310
0000000000000000000000000000000000000000000000000000000000000000
310
0000000000000000000000000000000000000000000000000000000000000000
310
0000000000000000000000000000000000000000000000000000000000000000
310
0000000000000000000000000000000000000000000000000000000000000000
310
0000000000000000000000000000000000000000000000000000000000000000
310
0000000000000000000000000000000000000000000000000000000000000000
  1
OLE
  0
ENDSEC
  0
SECTION
  2
OBJECTS
  0
DICTIONARY
  5
C
330
0
100
AcDbDictionary
281
     1
  3
ACAD_GROUP
350
D
  3
ACAD_LAYOUT
350
1A
  3
ACAD_MLINESTYLE
350
17
  3
ACAD_PLOTSETTINGS
350
19
  3
ACAD_PLOTSTYLENAME
350
E
  3
ACAD_SCALELIST
350
47
  0
DICTIONARY
  5
D
102
{ACAD_REACTORS
330
C
102
}
330
C
100
AcDbDictionary
281
     1
  0
DICTIONARY
  5
1A
102
{ACAD_REACTORS
330
C
102
}
330
C
100
AcDbDictionary
281
     1
  3
Layout1
350
1E
  3
Layout2
350
26
  3
Model
350
22
  0
DICTIONARY
  5
17
102
{ACAD_REACTORS
330
C
102
}
330
C
100
AcDbDictionary
281
     1
  3
Standard
350
18
  0
DICTIONARY
  5
19
102
{ACAD_REACTORS
330
C
102
}
330
C
100
AcDbDictionary
281
     1
  0
ACDBDICTIONARYWDFLT
  5
E
102
{ACAD_REACTORS
330
C
102
}
330
C
100
AcDbDictionary
281
     1
  3
Normal
350
F
100
AcDbDictionaryWithDefault
340
F
  0
DICTIONARY
  5
47
102
{ACAD_REACTORS
330
C
102
}
330
C
100
AcDbDictionary
281
     1
  3
A0
350
48
  3
A1
350
49
  3
A2
350
4A
  3
A3
350
4B
  3
A4
350
4C
  3
A5
350
4D
  3
A6
350
4E
  3
A7
350
4F
  3
A8
350
50
  3
A9
350
51
  3
B0
350
52
  3
B1
350
53
  3
B2
350
54
  3
B3
350
55
  3
B4
350
56
  3
B5
350
57
  3
B6
350
58
  3
B7
350
59
  3
B8
350
5A
  3
B9
350
5B
  3
C0
350
5C
  3
C1
350
5D
  3
C2
350
5E
  3
C3
350
5F
  3
C4
350
60
  3
C5
350
61
  3
C6
350
62
  3
C7
350
63
  3
C8
350
64
  3
C9
350
65
  3
D0
350
66
  3
D1
350
67
  3
D2
350
68
  0
LAYOUT
  5
1E
102
{ACAD_REACTORS
330
1A
102
}
330
1A
100
AcDbPlotSettings
  1

  2
none_device
  4

  6

 40
0.0
 41
0.0
 42
0.0
 43
0.0
 44
0.0
 45
0.0
 46
0.0
 47
0.0
 48
0.0
 49
0.0
140
0.0
141
0.0
142
1.0
143
1.0
 70
   688
 72
     1
 73
     0
 74
     5
  7

 75
    16
147
1.0
148
0.0
149
0.0
100
AcDbLayout
  1
Layout1
 70
     1
 71
     1
 10
0.0
 20
0.0
 11
420.0
 21
297.0
 12
0.0
 22
0.0
 32
0.0
 14
1.0000000000E+20
 24
1.0000000000E+20
 34
1.0000000000E+20
 15
-1.0000000000E+20
 25
-1.0000000000E+20
 35
-1.0000000000E+20
146
0.0
 13
0.0
 23
0.0
 33
0.0
 16
1.0
 26
0.0
 36
0.0
 17
0.0
 27
1.0
 37
0.0
 76
     0
330
1B
  0
LAYOUT
  5
26
102
{ACAD_REACTORS
330
1A
102
}
330
1A
100
AcDbPlotSettings
  1

  2
none_device
  4

  6

 40
0.0
 41
0.0
 42
0.0
 43
0.0
 44
0.0
 45
0.0
 46
0.0
 47
0.0
 48
0.0
 49
0.0
140
0.0
141
0.0
142
1.0
143
1.0
 70
   688
 72
     1
 73
     0
 74
     5
  7

 75
    16
147
1.0
148
0.0
149
0.0
100
AcDbLayout
  1
Layout2
 70
     1
 71
     2
 10
0.0
 20
0.0
 11
0.0
 21
0.0
 12
0.0
 22
0.0
 32
0.0
 14
0.0
 24
0.0
 34
0.0
 15
0.0
 25
0.0
 35
0.0
146
0.0
 13
0.0
 23
0.0
 33
0.0
 16
1.0
 26
0.0
 36
0.0
 17
0.0
 27
1.0
 37
0.0
 76
     0
330
23
  0
LAYOUT
  5
22
102
{ACAD_REACTORS
330
1A
102
}
330
1A
100
AcDbPlotSettings
  1

  2
none_device
  4
Letter_(8.50_x_11.00_Inches)
  6

 40
6.35
 41
6.35
 42
6.35000508
 43
6.35000508
 44
215.9
 45
279.4
 46
0.0
 47
0.0
 48
0.0
 49
0.0
140
0.0
141
0.0
142
1.0
143
1.0
 70
  1712
 72
     1
 73
     0
 74
     0
  7

 75
     0
147
1.0
148
0.0
149
0.0
100
AcDbLayout
  1
Model
 70
     1
 71
     0
 10
0.0
 20
0.0
 11
297.0
 21
210.0
 12
0.0
 22
0.0
 32
0.0
 14
0.0
 24
0.0
 34
0.0
 15
297.0
 25
210.0
 35
0.0
146
0.0
 13
0.0
 23
0.0
 33
0.0
 16
1.0
 26
0.0
 36
0.0
 17
0.0
 27
1.0
 37
0.0
 76
     0
330
1F
331
29
  0
MLINESTYLE
  5
18
102
{ACAD_REACTORS
330
17
102
}
330
17
100
AcDbMlineStyle
  2
Standard
 70
     0
  3

 62
   256
 51
90.0
 52
90.0
 71
     2
 49
0.5
 62
   256
  6
BYLAYER
 49
-0.5
 62
   256
  6
BYLAYER
  0
ACDBPLACEHOLDER
  5
F
102
{ACAD_REACTORS
330
E
102
}
330
E
  0
SCALE
  5
48
102
{ACAD_REACTORS
330
47
102
}
330
47
100
AcDbScale
 70
     0
300
1:1
140
1.0
141
1.0
290
     1
  0
SCALE
  5
49
102
{ACAD_REACTORS
330
47
102
}
330
47
100
AcDbScale
 70
     0
300
1:2
140
1.0
141
2.0
290
     0
  0
SCALE
  5
4A
102
{ACAD_REACTORS
330
47
102
}
330
47
100
AcDbScale
 70
     0
300
1:4
140
1.0
141
4.0
290
     0
  0
SCALE
  5
4B
102
{ACAD_REACTORS
330
47
102
}
330
47
100
AcDbScale
 70
     0
300
1:5
140
1.0
141
5.0
290
     0
  0
SCALE
  5
4C
102
{ACAD_REACTORS
330
47
102
}
330
47
100
AcDbScale
 70
     0
300
1:8
140
1.0
141
8.0
290
     0
  0
SCALE
  5
4D
102
{ACAD_REACTORS
330
47
102
}
330
47
100
AcDbScale
 70
     0
300
1:10
140
1.0
141
10.0
290
     0
  0
SCALE
  5
4E
102
{ACAD_REACTORS
330
47
102
}
330
47
100
AcDbScale
 70
     0
300
1:16
140
1.0
141
16.0
290
     0
  0
SCALE
  5
4F
102
{ACAD_REACTORS
330
47
102
}
330
47
100
AcDbScale
 70
     0
300
1:20
140
1.0
141
20.0
290
     0
  0
SCALE
  5
50
102
{ACAD_REACTORS
330
47
102
}
330
47
100
AcDbScale
 70
     0
300
1:30
140
1.0
141
30.0
290
     0
  0
SCALE
  5
51
102
{ACAD_REACTORS
330
47
102
}
330
47
100
AcDbScale
 70
     0
300
1:40
140
1.0
141
40.0
290
     0
  0
SCALE
  5
52
102
{ACAD_REACTORS
330
47
102
}
330
47
100
AcDbScale
 70
     0
300
1:50
140
1.0
141
50.0
290
     0
  0
SCALE
  5
53
102
{ACAD_REACTORS
330
47
102
}
330
47
100
AcDbScale
 70
     0
300
1:100
140
1.0
141
100.0
290
     0
  0
SCALE
  5
54
102
{ACAD_REACTORS
330
47
102
}
330
47
100
AcDbScale
 70
     0
300
2:1
140
2.0
141
1.0
290
     0
  0
SCALE
  5
55
102
{ACAD_REACTORS
330
47
102
}
330
47
100
AcDbScale
 70
     0
300
4:1
140
4.0
141
1.0
290
     0
  0
SCALE
  5
56
102
{ACAD_REACTORS
330
47
102
}
330
47
100
AcDbScale
 70
     0
300
8:1
140
8.0
141
1.0
290
     0
  0
SCALE
  5
57
102
{ACAD_REACTORS
330
47
102
}
330
47
100
AcDbScale
 70
     0
300
10:1
140
10.0
141
1.0
290
     0
  0
SCALE
  5
58
102
{ACAD_REACTORS
330
47
102
}
330
47
100
AcDbScale
 70
     0
300
100:1
140
100.0
141
1.0
290
     0
  0
SCALE
  5
59
102
{ACAD_REACTORS
330
47
102
}
330
47
100
AcDbScale
 70
     0
300
1/128" = 1'-0"
140
0.0078125
141
12.0
290
     0
  0
SCALE
  5
5A
102
{ACAD_REACTORS
330
47
102
}
330
47
100
AcDbScale
 70
     0
300
1/64" = 1'-0"
140
0.015625
141
12.0
290
     0
  0
SCALE
  5
5B
102
{ACAD_REACTORS
330
47
102
}
330
47
100
AcDbScale
 70
     0
300
1/32" = 1'-0"
140
0.03125
141
12.0
290
     0
  0
SCALE
  5
5C
102
{ACAD_REACTORS
330
47
102
}
330
47
100
AcDbScale
 70
     0
300
1/16" = 1'-0"
140
0.0625
141
12.0
290
     0
  0
SCALE
  5
5D
102
{ACAD_REACTORS
330
47
102
}
330
47
100
AcDbScale
 70
     0
300
3/32" = 1'-0"
140
0.09375
141
12.0
290
     0
  0
SCALE
  5
5E
102
{ACAD_REACTORS
330
47
102
}
330
47
100
AcDbScale
 70
     0
300
1/8" = 1'-0"
140
0.125
141
12.0
290
     0
  0
SCALE
  5
5F
102
{ACAD_REACTORS
330
47
102
}
330
47
100
AcDbScale
 70
     0
300
3/16" = 1'-0"
140
0.1875
141
12.0
290
     0
  0
SCALE
  5
60
102
{ACAD_REACTORS
330
47
102
}
330
47
100
AcDbScale
 70
     0
300
1/4" = 1'-0"
140
0.25
141
12.0
290
     0
  0
SCALE
  5
61
102
{ACAD_REACTORS
330
47
102
}
330
47
100
AcDbScale
 70
     0
300
3/8" = 1'-0"
140
0.375
141
12.0
290
     0
  0
SCALE
  5
62
102
{ACAD_REACTORS
330
47
102
}
330
47
100
AcDbScale
 70
     0
300
1/2" = 1'-0"
140
0.5
141
12.0
290
     0
  0
SCALE
  5
63
102
{ACAD_REACTORS
330
47
102
}
330
47
100
AcDbScale
 70
     0
300
3/4" = 1'-0"
140
0.75
141
12.0
290
     0
  0
SCALE
  5
64
102
{ACAD_REACTORS
330
47
102
}
330
47
100
AcDbScale
 70
     0
300
1" = 1'-0"
140
1.0
141
12.0
290
     0
  0
SCALE
  5
65
102
{ACAD_REACTORS
330
47
102
}
330
47
100
AcDbScale
 70
     0
300
1-1/2" = 1'-0"
140
1.5
141
12.0
290
     0
  0
SCALE
  5
66
102
{ACAD_REACTORS
330
47
102
}
330
47
100
AcDbScale
 70
     0
300
3" = 1'-0"
140
3.0
141
12.0
290
     0
  0
SCALE
  5
67
102
{ACAD_REACTORS
330
47
102
}
330
47
100
AcDbScale
 70
     0
300
6" = 1'-0"
140
6.0
141
12.0
290
     0
  0
SCALE
  5
68
102
{ACAD_REACTORS
330
47
102
}
330
47
100
AcDbScale
 70
     0
300
1'-0" = 1'-0"
140
12.0
141
12.0
290
     0
  0
ENDSEC
  0
EOF
