  0
SECTION
  2
HEADER
  9
$ACADVER
  1
AC1015
  9
$ACADMAINTVER
 70
     6
  9
$DWGCODEPAGE
  3
ANSI_1252
  9
$INSBASE
 10
0.0
 20
0.0
 30
0.0
  9
$EXTMIN
 10
0.0
 20
0.0
 30
0.0
  9
$EXTMAX
 10
297.0
 20
210.0
 30
0.0
  9
$LIMMIN
 10
0.0
 20
0.0
  9
$LIMMAX
 10
297.0
 20
210.0
  9
$ORTHOMODE
 70
     0
  9
$REGENMODE
 70
     1
  9
$FILLMODE
 70
     1
  9
$QTEXTMODE
 70
     0
  9
$MIRRTEXT
 70
     1
  9
$LTSCALE
 40
1.0
  9
$ATTMODE
 70
     1
  9
$TEXTSIZE
 40
2.0
  9
$TRACEWID
 40
1.0
  9
$TEXTSTYLE
  7
Standard
  9
$CLAYER
  8
0
  9
$CELTYPE
  6
ByLayer
  9
$CECOLOR
 62
   256
  9
$CELTSCALE
 40
1.0
  9
$DISPSILH
 70
     0
  9
$DIMSCALE
 40
1.0
  9
$DIMASZ
 40
3.0
  9
$DIMEXO
 40
0.0
  9
$DIMDLI
 40
3.75
  9
$DIMRND
 40
0.0
  9
$DIMDLE
 40
0.0
  9
$DIMEXE
 40
1.0
  9
$DIMTP
 40
0.0
  9
$DIMTM
 40
0.0
  9
$DIMTXT
 40
2.0
  9
$DIMCEN
 40
2.5
  9
$DIMTSZ
 40
0.0
  9
$DIMTOL
 70
     0
  9
$DIMLIM
 70
     0
  9
$DIMTIH
 70
     1
  9
$DIMTOH
 70
     1
  9
$DIMSE1
 70
     0
  9
$DIMSE2
 70
     0
  9
$DIMTAD
 70
     1
  9
$DIMZIN
 70
     0
  9
$DIMBLK
  1

  9
$DIMASO
 70
     1
  9
$DIMSHO
 70
     1
  9
$DIMPOST
  1

  9
$DIMAPOST
  1

  9
$DIMALT
 70
     0
  9
$DIMALTD
 70
     3
  9
$DIMALTF
 40
0.0393700787
  9
$DIMLFAC
 40
2.0
  9
$DIMTOFL
 70
     1
  9
$DIMTVP
 40
0.0
  9
$DIMTIX
 70
     0
  9
$DIMSOXD
 70
     0
  9
$DIMSAH
 70
     0
  9
$DIMBLK1
  1

  9
$DIMBLK2
  1

  9
$DIMSTYLE
  2
ISO-25
  9
$DIMCLRD
 70
     0
  9
$DIMCLRE
 70
     0
  9
$DIMCLRT
 70
     0
  9
$DIMTFAC
 40
1.0
  9
$DIMGAP
 40
1.524
  9
$DIMJUST
 70
     0
  9
$DIMSD1
 70
     0
  9
$DIMSD2
 70
     0
  9
$DIMTOLJ
 70
     0
  9
$DIMTZIN
 70
     0
  9
$DIMALTZ
 70
     0
  9
$DIMALTTZ
 70
     0
  9
$DIMUPT
 70
     0
  9
$DIMDEC
 70
     2
  9
$DIMTDEC
 70
     3
  9
$DIMALTU
 70
     2
  9
$DIMALTTD
 70
     3
  9
$DIMTXSTY
  7
Standard
  9
$DIMAUNIT
 70
     0
  9
$DIMADEC
 70
     2
  9
$DIMALTRND
 40
0.0
  9
$DIMAZIN
 70
     0
  9
$DIMDSEP
 70
    44
  9
$DIMATFIT
 70
     3
  9
$DIMFRAC
 70
     0
  9
$DIMLDRBLK
  1

  9
$DIMLUNIT
 70
     2
  9
$DIMLWD
 70
    -2
  9
$DIMLWE
 70
    -2
  9
$DIMTMOVE
 70
     0
  9
$LUNITS
 70
     2
  9
$LUPREC
 70
     2
  9
$SKETCHINC
 40
1.0
  9
$FILLETRAD
 40
10.0
  9
$AUNITS
 70
     0
  9
$AUPREC
 70
     2
  9
$MENU
  1
.
  9
$ELEVATION
 40
0.0
  9
$PELEVATION
 40
0.0
  9
$THICKNESS
 40
0.0
  9
$LIMCHECK
 70
     0
  9
$CHAMFERA
 40
0.0
  9
$CHAMFERB
 40
0.0
  9
$CHAMFERC
 40
0.0
  9
$CHAMFERD
 40
0.0
  9
$SKPOLY
 70
     0
  9
$TDCREATE
 40
2457676.386238553
  9
$TDUCREATE
 40
2457676.30290522
  9
$TDUPDATE
 40
2457676.386239977
  9
$TDUUPDATE
 40
2457676.302906644
  9
$TDINDWG
 40
0.0000000116
  9
$TDUSRTIMER
 40
0.0000000116
  9
$USRTIMER
 70
     1
  9
$ANGBASE
 50
0.0
  9
$ANGDIR
 70
     0
  9
$PDMODE
 70
     0
  9
$PDSIZE
 40
-1.0
  9
$PLINEWID
 40
0.0
  9
$SPLFRAME
 70
     0
  9
$SPLINETYPE
 70
     6
  9
$SPLINESEGS
 70
     8
  9
$HANDSEED
  5
26F
  9
$SURFTAB1
 70
     6
  9
$SURFTAB2
 70
     6
  9
$SURFTYPE
 70
     6
  9
$SURFU
 70
     6
  9
$SURFV
 70
     6
  9
$UCSBASE
  2

  9
$UCSNAME
  2

  9
$UCSORG
 10
0.0
 20
0.0
 30
0.0
  9
$UCSXDIR
 10
1.0
 20
0.0
 30
0.0
  9
$UCSYDIR
 10
0.0
 20
1.0
 30
0.0
  9
$UCSORTHOREF
  2

  9
$UCSORTHOVIEW
 70
     0
  9
$UCSORGTOP
 10
0.0
 20
0.0
 30
0.0
  9
$UCSORGBOTTOM
 10
0.0
 20
0.0
 30
0.0
  9
$UCSORGLEFT
 10
0.0
 20
0.0
 30
0.0
  9
$UCSORGRIGHT
 10
0.0
 20
0.0
 30
0.0
  9
$UCSORGFRONT
 10
0.0
 20
0.0
 30
0.0
  9
$UCSORGBACK
 10
0.0
 20
0.0
 30
0.0
  9
$PUCSBASE
  2

  9
$PUCSNAME
  2

  9
$PUCSORG
 10
0.0
 20
0.0
 30
0.0
  9
$PUCSXDIR
 10
1.0
 20
0.0
 30
0.0
  9
$PUCSYDIR
 10
0.0
 20
1.0
 30
0.0
  9
$PUCSORTHOREF
  2

  9
$PUCSORTHOVIEW
 70
     0
  9
$PUCSORGTOP
 10
0.0
 20
0.0
 30
0.0
  9
$PUCSORGBOTTOM
 10
0.0
 20
0.0
 30
0.0
  9
$PUCSORGLEFT
 10
0.0
 20
0.0
 30
0.0
  9
$PUCSORGRIGHT
 10
0.0
 20
0.0
 30
0.0
  9
$PUCSORGFRONT
 10
0.0
 20
0.0
 30
0.0
  9
$PUCSORGBACK
 10
0.0
 20
0.0
 30
0.0
  9
$USERI1
 70
     0
  9
$USERI2
 70
     0
  9
$USERI3
 70
     0
  9
$USERI4
 70
     0
  9
$USERI5
 70
     0
  9
$USERR1
 40
0.0
  9
$USERR2
 40
0.0
  9
$USERR3
 40
0.0
  9
$USERR4
 40
0.0
  9
$USERR5
 40
0.0
  9
$WORLDVIEW
 70
     1
  9
$SHADEDGE
 70
     3
  9
$SHADEDIF
 70
    70
  9
$TILEMODE
 70
     1
  9
$MAXACTVP
 70
    64
  9
$PINSBASE
 10
0.0
 20
0.0
 30
0.0
  9
$PLIMCHECK
 70
     0
  9
$PEXTMIN
 10
1.0000000000E+20
 20
1.0000000000E+20
 30
1.0000000000E+20
  9
$PEXTMAX
 10
-1.0000000000E+20
 20
-1.0000000000E+20
 30
-1.0000000000E+20
  9
$PLIMMIN
 10
0.0
 20
0.0
  9
$PLIMMAX
 10
420.0
 20
297.0
  9
$UNITMODE
 70
     0
  9
$VISRETAIN
 70
     1
  9
$PLINEGEN
 70
     0
  9
$PSLTSCALE
 70
     1
  9
$TREEDEPTH
 70
  3020
  9
$CMLSTYLE
  2
Standard
  9
$CMLJUST
 70
     0
  9
$CMLSCALE
 40
20.0
  9
$PROXYGRAPHICS
 70
     1
  9
$MEASUREMENT
 70
     1
  9
$CELWEIGHT
370
    -1
  9
$ENDCAPS
280
     0
  9
$JOINSTYLE
280
     0
  9
$LWDISPLAY
290
     1
  9
$INSUNITS
 70
     4
  9
$HYPERLINKBASE
  1

  9
$STYLESHEET
  1

  9
$XEDIT
290
     1
  9
$CEPSNTYPE
380
     0
  9
$PSTYLEMODE
290
     1
  9
$FINGERPRINTGUID
  2
{61991137-66D8-4B16-B98D-6455A2542FD1}
  9
$VERSIONGUID
  2
{FAEB1C32-E019-11D5-929B-00C0DF256EC4}
  9
$EXTNAMES
290
     1
  9
$PSVPSCALE
 40
0.0
  9
$OLESTARTUP
290
     0
  0
ENDSEC
  0
SECTION
  2
CLASSES
  0
CLASS
  1
ACDBDICTIONARYWDFLT
  2
AcDbDictionaryWithDefault
  3
ObjectDBX Classes
 90
        0
280
     0
281
     0
  0
CLASS
  1
VISUALSTYLE
  2
AcDbVisualStyle
  3
ObjectDBX Classes
 90
     4095
280
     0
281
     0
  0
CLASS
  1
MATERIAL
  2
AcDbMaterial
  3
ObjectDBX Classes
 90
     1153
280
     0
281
     0
  0
CLASS
  1
SCALE
  2
AcDbScale
  3
ObjectDBX Classes
 90
     1153
280
     0
281
     0
  0
CLASS
  1
TABLESTYLE
  2
AcDbTableStyle
  3
ObjectDBX Classes
 90
     4095
280
     0
281
     0
  0
CLASS
  1
MLEADERSTYLE
  2
AcDbMLeaderStyle
  3
ACDB_MLEADERSTYLE_CLASS
 90
     4095
280
     0
281
     0
  0
CLASS
  1
SUN
  2
AcDbSun
  3
SCENEOE
 90
     1153
280
     0
281
     0
  0
CLASS
  1
ACDBPLACEHOLDER
  2
AcDbPlaceHolder
  3
ObjectDBX Classes
 90
        0
280
     0
281
     0
  0
CLASS
  1
LAYOUT
  2
AcDbLayout
  3
ObjectDBX Classes
 90
        0
280
     0
281
     0
  0
ENDSEC
  0
SECTION
  2
TABLES
  0
TABLE
  2
VPORT
  5
8
330
0
100
AcDbSymbolTable
 70
     1
  0
VPORT
  5
29
330
8
100
AcDbSymbolTableRecord
100
AcDbViewportTableRecord
  2
*Active
 70
     0
 10
0.0
 20
0.0
 11
1.0
 21
1.0
 12
148.5
 22
105.0
 13
0.0
 23
0.0
 14
10.0
 24
10.0
 15
10.0
 25
10.0
 16
0.0
 26
0.0
 36
1.0
 17
0.0
 27
0.0
 37
0.0
 40
210.0
 41
1.4142857143
 42
50.0
 43
0.0
 44
0.0
 50
0.0
 51
0.0
 71
     0
 72
  2000
 73
     1
 74
     3
 75
     0
 76
     0
 77
     0
 78
     0
281
     0
 65
     1
110
0.0
120
0.0
130
0.0
111
1.0
121
0.0
131
0.0
112
0.0
122
1.0
132
0.0
 79
     0
146
0.0
  0
ENDTAB
  0
TABLE
  2
LTYPE
  5
5
330
0
100
AcDbSymbolTable
 70
     6
  0
LTYPE
  5
14
330
5
100
AcDbSymbolTableRecord
100
AcDbLinetypeTableRecord
  2
ByBlock
 70
     0
  3

 72
    65
 73
     0
 40
0.0
  0
LTYPE
  5
15
330
5
100
AcDbSymbolTableRecord
100
AcDbLinetypeTableRecord
  2
ByLayer
 70
     0
  3

 72
    65
 73
     0
 40
0.0
  0
LTYPE
  5
16
330
5
100
AcDbSymbolTableRecord
100
AcDbLinetypeTableRecord
  2
Continuous
 70
     0
  3
Solid line
 72
    65
 73
     0
 40
0.0
  0
LTYPE
  5
6E
330
5
100
AcDbSymbolTableRecord
100
AcDbLinetypeTableRecord
  2
HIDDEN
 70
     0
  3
Hidden __ __ __ __ __ __ __ __ __ __ __ __ __ __
 72
    65
 73
     2
 40
1.905
 49
1.27
 74
     0
 49
-0.635
 74
     0
  0
LTYPE
  5
6F
330
5
100
AcDbSymbolTableRecord
100
AcDbLinetypeTableRecord
  2
PHANTOM
 70
     0
  3
Phantom ______  __  __  ______  __  __  ______
 72
    65
 73
     6
 40
12.7
 49
6.35
 74
     0
 49
-1.27
 74
     0
 49
1.27
 74
     0
 49
-1.27
 74
     0
 49
1.27
 74
     0
 49
-1.27
 74
     0
  0
LTYPE
  5
70
330
5
100
AcDbSymbolTableRecord
100
AcDbLinetypeTableRecord
  2
CENTER
 70
     0
  3
Center ____ _ ____ _ ____ _ ____ _ ____ _ ____
 72
    65
 73
     4
 40
10.16
 49
6.35
 74
     0
 49
-1.27
 74
     0
 49
1.27
 74
     0
 49
-1.27
 74
     0
  0
LTYPE
  5
71
330
5
100
AcDbSymbolTableRecord
100
AcDbLinetypeTableRecord
  2
CENTERX2
 70
     0
  3
Center (2x) ________  __  ________  __  _____
 72
    65
 73
     4
 40
20.32
 49
12.7
 74
     0
 49
-2.54
 74
     0
 49
2.54
 74
     0
 49
-2.54
 74
     0
  0
LTYPE
  5
72
330
5
100
AcDbSymbolTableRecord
100
AcDbLinetypeTableRecord
  2
DOT2
 70
     0
  3
Dot (.5x) ........................................
 72
    65
 73
     2
 40
0.635
 49
0.0
 74
     0
 49
-0.635
 74
     0
  0
ENDTAB
  0
TABLE
  2
LAYER
  5
2
330
0
100
AcDbSymbolTable
 70
     5
  0
LAYER
  5
10
330
2
100
AcDbSymbolTableRecord
100
AcDbLayerTableRecord
  2
0
 70
     0
 62
     7
  6
Continuous
370
    -3
390
F
  0
LAYER
  5
73
330
2
100
AcDbSymbolTableRecord
100
AcDbLayerTableRecord
  2
FORMAT
 70
     0
 62
     7
  6
Continuous
370
    -3
390
F
  0
LAYER
  5
74
330
2
100
AcDbSymbolTableRecord
100
AcDbLayerTableRecord
  2
VERMASSUNG
 70
     0
 62
     7
  6
Continuous
370
    -3
390
F
  0
LAYER
  5
75
330
2
100
AcDbSymbolTableRecord
100
AcDbLayerTableRecord
  2
KOPF_DÜNN
 70
     0
 62
     7
  6
Continuous
370
    -3
390
F
  0
LAYER
  5
76
330
2
100
AcDbSymbolTableRecord
100
AcDbLayerTableRecord
  2
KOPF_DICK
 70
     0
 62
     7
  6
Continuous
370
    15
390
F
  0
ENDTAB
  0
TABLE
  2
STYLE
  5
3
330
0
100
AcDbSymbolTable
 70
     2
  0
STYLE
  5
11
330
3
100
AcDbSymbolTableRecord
100
AcDbTextStyleTableRecord
  2
Standard
 70
     0
 40
0.0
 41
1.0
 50
0.0
 71
     0
 42
2.0
  3
txt
  4

  0
STYLE
  5
77
330
3
100
AcDbSymbolTableRecord
100
AcDbTextStyleTableRecord
  2
SLDTEXTSTYLE0
 70
     0
 40
0.0
 41
0.7
 50
0.0
 71
     0
 42
2.0
  3
TXT
  4

  0
ENDTAB
  0
TABLE
  2
VIEW
  5
6
330
0
100
AcDbSymbolTable
 70
     0
  0
ENDTAB
  0
TABLE
  2
UCS
  5
7
330
0
100
AcDbSymbolTable
 70
     0
  0
ENDTAB
  0
TABLE
  2
APPID
  5
9
330
0
100
AcDbSymbolTable
 70
     1
  0
APPID
  5
12
330
9
100
AcDbSymbolTableRecord
100
AcDbRegAppTableRecord
  2
ACAD
 70
     0
  0
ENDTAB
  0
TABLE
  2
DIMSTYLE
  5
A
330
0
100
AcDbSymbolTable
 70
     2
100
AcDbDimStyleTable
  0
DIMSTYLE
105
27
330
A
100
AcDbSymbolTableRecord
100
AcDbDimStyleTableRecord
  2
ISO-25
 70
     0
 41
2.5
 42
0.625
 43
3.75
 44
1.25
 73
     0
 74
     0
 77
     1
 78
     8
140
2.5
141
2.5
143
0.0393700787
147
0.625
171
     3
172
     1
178
     0
271
     2
272
     2
274
     3
278
    44
283
     0
284
     8
340
11
  0
DIMSTYLE
105
1B1
102
{ACAD_REACTORS
330
1B0
330
1BD
330
1C7
330
1D1
330
1DB
330
1E7
102
}
330
A
100
AcDbSymbolTableRecord
100
AcDbDimStyleTableRecord
  2
SLDDIMSTYLE0
 70
     0
 41
3.0
 44
0.0
 45
0.000000001
 73
     0
 74
     0
 77
     1
 78
    12
 79
     3
140
2.0
147
0.5
173
     1
178
     0
271
     2
272
     3
276
     2
284
    12
340
77
  0
ENDTAB
  0
TABLE
  2
BLOCK_RECORD
  5
1
330
0
100
AcDbSymbolTable
 70
     7
  0
BLOCK_RECORD
  5
1F
330
1
100
AcDbSymbolTableRecord
100
AcDbBlockTableRecord
  2
*Model_Space
340
22
  0
BLOCK_RECORD
  5
1B
330
1
100
AcDbSymbolTableRecord
100
AcDbBlockTableRecord
  2
*Paper_Space
340
1E
  0
BLOCK_RECORD
  5
23
330
1
100
AcDbSymbolTableRecord
100
AcDbBlockTableRecord
  2
*Paper_Space0
340
26
  0
BLOCK_RECORD
  5
1B2
330
1
100
AcDbSymbolTableRecord
100
AcDbBlockTableRecord
  2
_D
340
0
  0
BLOCK_RECORD
  5
1BE
330
1
100
AcDbSymbolTableRecord
100
AcDbBlockTableRecord
  2
_D_1
340
0
  0
BLOCK_RECORD
  5
1C8
330
1
100
AcDbSymbolTableRecord
100
AcDbBlockTableRecord
  2
_D_2
340
0
  0
BLOCK_RECORD
  5
1D2
330
1
100
AcDbSymbolTableRecord
100
AcDbBlockTableRecord
  2
_D_3
340
0
  0
BLOCK_RECORD
  5
1DC
330
1
100
AcDbSymbolTableRecord
100
AcDbBlockTableRecord
  2
_D_4
340
0
  0
BLOCK_RECORD
  5
1E8
330
1
100
AcDbSymbolTableRecord
100
AcDbBlockTableRecord
  2
_D_5
340
0
  0
ENDTAB
  0
ENDSEC
  0
SECTION
  2
BLOCKS
  0
BLOCK
  5
20
330
1F
100
AcDbEntity
  8
0
100
AcDbBlockBegin
  2
*Model_Space
 70
     0
 10
0.0
 20
0.0
 30
0.0
  3
*Model_Space
  1

  0
ENDBLK
  5
21
330
1F
100
AcDbEntity
  8
0
100
AcDbBlockEnd
  0
BLOCK
  5
1C
330
1B
100
AcDbEntity
 67
     1
  8
0
100
AcDbBlockBegin
  2
*Paper_Space
 70
     0
 10
0.0
 20
0.0
 30
0.0
  3
*Paper_Space
  1

  0
ENDBLK
  5
1D
330
1B
100
AcDbEntity
 67
     1
  8
0
100
AcDbBlockEnd
  0
BLOCK
  5
24
330
23
100
AcDbEntity
  8
0
100
AcDbBlockBegin
  2
*Paper_Space0
 70
     0
 10
0.0
 20
0.0
 30
0.0
  3
*Paper_Space0
  1

  0
ENDBLK
  5
25
330
23
100
AcDbEntity
  8
0
100
AcDbBlockEnd
  0
BLOCK
  5
1B3
330
1B2
100
AcDbEntity
  8
0
100
AcDbBlockBegin
  2
_D
 70
     0
 10
0.0
 20
0.0
 30
0.0
  3
_D
  1

  0
SOLID
  5
1B5
330
1B2
100
AcDbEntity
  8
VERMASSUNG
100
AcDbTrace
 10
27.9210851803
 20
65.3297331946
 30
0.0
 11
28.3710851803
 21
68.3297331946
 31
0.0
 12
27.4710851803
 22
68.3297331946
 32
0.0
 13
27.4710851803
 23
68.3297331946
 33
0.0
  0
SOLID
  5
1B6
330
1B2
100
AcDbEntity
  8
VERMASSUNG
100
AcDbTrace
 10
27.9210851803
 20
165.3297331946
 30
0.0
 11
27.4710851803
 21
162.3297331946
 31
0.0
 12
28.3710851803
 22
162.3297331946
 32
0.0
 13
28.3710851803
 23
162.3297331946
 33
0.0
  0
LINE
  5
1B7
330
1B2
100
AcDbEntity
  8
VERMASSUNG
100
AcDbLine
 10
174.8217422348
 20
65.3297331946
 30
0.0
 11
26.9210851803
 21
65.3297331946
 31
0.0
  0
LINE
  5
1B8
330
1B2
100
AcDbEntity
  8
VERMASSUNG
100
AcDbLine
 10
174.8217422348
 20
165.3297331946
 30
0.0
 11
26.9210851803
 21
165.3297331946
 31
0.0
  0
LINE
  5
1B9
330
1B2
100
AcDbEntity
  8
VERMASSUNG
100
AcDbLine
 10
27.9210851803
 20
65.3297331946
 30
0.0
 11
27.9210851803
 21
165.3297331946
 31
0.0
  0
MTEXT
  5
1BA
330
1B2
100
AcDbEntity
  8
VERMASSUNG
100
AcDbMText
 10
25.142949924
 20
104.1255951925
 30
0.0
 40
2.0
 41
0.0
 71
     1
 72
     1
  1
MAS-BT 50
  7
SLDTEXTSTYLE0
 11
3.391901413832837E-15
 21
1.0
 31
0.0
 73
     1
 44
1.0
  0
MTEXT
  5
1BB
330
1B2
100
AcDbEntity
  8
VERMASSUNG
100
AcDbMText
 10
25.3429498753
 20
119.1255948572
 30
0.0
 40
2.0
 41
0.0
 71
     1
 72
     1
  1
%%c
  7
SLDTEXTSTYLE0
 11
3.391901413832837E-15
 21
1.0
 31
0.0
 73
     1
 44
1.0
  0
MTEXT
  5
1BC
330
1B2
100
AcDbEntity
  8
VERMASSUNG
100
AcDbMText
 10
25.3429495843
 20
122.7351853058
 30
0.0
 40
2.0
 41
0.0
 71
     1
 72
     1
  1
100
  7
SLDTEXTSTYLE0
 11
3.391901413832837E-15
 21
1.0
 31
0.0
 73
     1
 44
1.0
  0
ENDBLK
  5
1B4
330
1B2
100
AcDbEntity
  8
0
100
AcDbBlockEnd
  0
BLOCK
  5
1BF
330
1BE
100
AcDbEntity
  8
0
100
AcDbBlockBegin
  2
_D_1
 70
     0
 10
0.0
 20
0.0
 30
0.0
  3
_D_1
  1

  0
SOLID
  5
1C1
330
1BE
100
AcDbEntity
  8
VERMASSUNG
100
AcDbTrace
 10
36.0217422348
 20
190.4159382721
 30
0.0
 11
39.0217422348
 21
189.9659382721
 31
0.0
 12
39.0217422348
 22
190.8659382721
 32
0.0
 13
39.0217422348
 23
190.8659382721
 33
0.0
  0
SOLID
  5
1C2
330
1BE
100
AcDbEntity
  8
VERMASSUNG
100
AcDbTrace
 10
255.8217422348
 20
190.4159382721
 30
0.0
 11
252.8217422348
 21
190.8659382721
 31
0.0
 12
252.8217422348
 22
189.9659382721
 32
0.0
 13
252.8217422348
 23
189.9659382721
 33
0.0
  0
LINE
  5
1C3
330
1BE
100
AcDbEntity
  8
VERMASSUNG
100
AcDbLine
 10
36.0217422348
 20
133.6794110553
 30
0.0
 11
36.0217422348
 21
191.4159382721
 31
0.0
  0
LINE
  5
1C4
330
1BE
100
AcDbEntity
  8
VERMASSUNG
100
AcDbLine
 10
255.8217422348
 20
131.0297331946
 30
0.0
 11
255.8217422348
 21
191.4159382721
 31
0.0
  0
LINE
  5
1C5
330
1BE
100
AcDbEntity
  8
VERMASSUNG
100
AcDbLine
 10
36.0217422348
 20
190.4159382721
 30
0.0
 11
255.8217422348
 21
190.4159382721
 31
0.0
  0
MTEXT
  5
1C6
330
1BE
100
AcDbEntity
  8
VERMASSUNG
100
AcDbMText
 10
143.0217422717
 20
192.9940738681
 30
0.0
 40
2.0
 41
0.0
 71
     1
 72
     1
  1
219.8
  7
SLDTEXTSTYLE0
 73
     1
 44
1.0
  0
ENDBLK
  5
1C0
330
1BE
100
AcDbEntity
  8
0
100
AcDbBlockEnd
  0
BLOCK
  5
1C9
330
1C8
100
AcDbEntity
  8
0
100
AcDbBlockBegin
  2
_D_2
 70
     0
 10
0.0
 20
0.0
 30
0.0
  3
_D_2
  1

  0
SOLID
  5
1CB
330
1C8
100
AcDbEntity
  8
VERMASSUNG
100
AcDbTrace
 10
137.8217422348
 20
181.4297331946
 30
0.0
 11
140.8217422348
 21
180.9797331946
 31
0.0
 12
140.8217422348
 22
181.8797331946
 32
0.0
 13
140.8217422348
 23
181.8797331946
 33
0.0
  0
SOLID
  5
1CC
330
1C8
100
AcDbEntity
  8
VERMASSUNG
100
AcDbTrace
 10
255.8217422348
 20
181.4297331946
 30
0.0
 11
252.8217422348
 21
181.8797331946
 31
0.0
 12
252.8217422348
 22
180.9797331946
 32
0.0
 13
252.8217422348
 23
180.9797331946
 33
0.0
  0
LINE
  5
1CD
330
1C8
100
AcDbEntity
  8
VERMASSUNG
100
AcDbLine
 10
137.8217422348
 20
150.2547331946
 30
0.0
 11
137.8217422348
 21
182.4297331946
 31
0.0
  0
LINE
  5
1CE
330
1C8
100
AcDbEntity
  8
VERMASSUNG
100
AcDbLine
 10
255.8217422348
 20
131.0297331946
 30
0.0
 11
255.8217422348
 21
182.4297331946
 31
0.0
  0
LINE
  5
1CF
330
1C8
100
AcDbEntity
  8
VERMASSUNG
100
AcDbLine
 10
137.8217422348
 20
181.4297331946
 30
0.0
 11
255.8217422348
 21
181.4297331946
 31
0.0
  0
MTEXT
  5
1D0
330
1C8
100
AcDbEntity
  8
VERMASSUNG
100
AcDbMText
 10
195.1217422123
 20
184.0078687905
 30
0.0
 40
2.0
 41
0.0
 71
     1
 72
     1
  1
118
  7
SLDTEXTSTYLE0
 73
     1
 44
1.0
  0
ENDBLK
  5
1CA
330
1C8
100
AcDbEntity
  8
0
100
AcDbBlockEnd
  0
BLOCK
  5
1D3
330
1D2
100
AcDbEntity
  8
0
100
AcDbBlockBegin
  2
_D_3
 70
     0
 10
0.0
 20
0.0
 30
0.0
  3
_D_3
  1

  0
SOLID
  5
1D5
330
1D2
100
AcDbEntity
  8
VERMASSUNG
100
AcDbTrace
 10
175.8217422348
 20
173.1595783778
 30
0.0
 11
178.8217422348
 21
172.7095783778
 31
0.0
 12
178.8217422348
 22
173.6095783778
 32
0.0
 13
178.8217422348
 23
173.6095783778
 33
0.0
  0
SOLID
  5
1D6
330
1D2
100
AcDbEntity
  8
VERMASSUNG
100
AcDbTrace
 10
255.8217422348
 20
173.1595783778
 30
0.0
 11
252.8217422348
 21
173.6095783778
 31
0.0
 12
252.8217422348
 22
172.7095783778
 32
0.0
 13
252.8217422348
 23
172.7095783778
 33
0.0
  0
LINE
  5
1D7
330
1D2
100
AcDbEntity
  8
VERMASSUNG
100
AcDbLine
 10
175.8217422348
 20
164.3297331946
 30
0.0
 11
175.8217422348
 21
174.1595783778
 31
0.0
  0
LINE
  5
1D8
330
1D2
100
AcDbEntity
  8
VERMASSUNG
100
AcDbLine
 10
255.8217422348
 20
131.0297331946
 30
0.0
 11
255.8217422348
 21
174.1595783778
 31
0.0
  0
LINE
  5
1D9
330
1D2
100
AcDbEntity
  8
VERMASSUNG
100
AcDbLine
 10
175.8217422348
 20
173.1595783778
 30
0.0
 11
255.8217422348
 21
173.1595783778
 31
0.0
  0
MTEXT
  5
1DA
330
1D2
100
AcDbEntity
  8
VERMASSUNG
100
AcDbMText
 10
214.4217422848
 20
175.7377139738
 30
0.0
 40
2.0
 41
0.0
 71
     1
 72
     1
  1
80
  7
SLDTEXTSTYLE0
 73
     1
 44
1.0
  0
ENDBLK
  5
1D4
330
1D2
100
AcDbEntity
  8
0
100
AcDbBlockEnd
  0
BLOCK
  5
1DD
330
1DC
100
AcDbEntity
  8
0
100
AcDbBlockBegin
  2
_D_4
 70
     0
 10
0.0
 20
0.0
 30
0.0
  3
_D_4
  1

  0
SOLID
  5
1DF
330
1DC
100
AcDbEntity
  8
VERMASSUNG
100
AcDbTrace
 10
272.9008569851
 20
131.3297331946
 30
0.0
 11
272.4508569851
 21
128.3297331946
 31
0.0
 12
273.3508569851
 22
128.3297331946
 32
0.0
 13
273.3508569851
 23
128.3297331946
 33
0.0
  0
SOLID
  5
1E0
330
1DC
100
AcDbEntity
  8
VERMASSUNG
100
AcDbTrace
 10
272.9008569851
 20
99.3297331946
 30
0.0
 11
273.3508569851
 21
102.3297331946
 31
0.0
 12
272.4508569851
 22
102.3297331946
 32
0.0
 13
272.4508569851
 23
102.3297331946
 33
0.0
  0
LINE
  5
1E1
330
1DC
100
AcDbEntity
  8
VERMASSUNG
100
AcDbLine
 10
255.5217422348
 20
131.3297331946
 30
0.0
 11
273.9008569851
 21
131.3297331946
 31
0.0
  0
LINE
  5
1E2
330
1DC
100
AcDbEntity
  8
VERMASSUNG
100
AcDbLine
 10
255.5217422348
 20
99.3297331946
 30
0.0
 11
273.9008569851
 21
99.3297331946
 31
0.0
  0
LINE
  5
1E3
330
1DC
100
AcDbEntity
  8
VERMASSUNG
100
AcDbLine
 10
272.9008569851
 20
131.3297331946
 30
0.0
 11
272.9008569851
 21
99.3297331946
 31
0.0
  0
MTEXT
  5
1E4
330
1DC
100
AcDbEntity
  8
VERMASSUNG
100
AcDbMText
 10
270.1227217289
 20
110.2247332053
 30
0.0
 40
2.0
 41
0.0
 71
     1
 72
     1
  1
WH
  7
SLDTEXTSTYLE0
 11
-7.044195017643634E-15
 21
1.0
 31
0.0
 73
     1
 44
1.0
  0
MTEXT
  5
1E5
330
1DC
100
AcDbEntity
  8
VERMASSUNG
100
AcDbMText
 10
270.3227216802
 20
114.0247332694
 30
0.0
 40
2.0
 41
0.0
 71
     1
 72
     1
  1
%%c
  7
SLDTEXTSTYLE0
 11
-7.044195017643634E-15
 21
1.0
 31
0.0
 73
     1
 44
1.0
  0
MTEXT
  5
1E6
330
1DC
100
AcDbEntity
  8
VERMASSUNG
100
AcDbMText
 10
270.1227217289
 20
117.6347332837
 30
0.0
 40
2.0
 41
0.0
 71
     1
 72
     1
  1
32
  7
SLDTEXTSTYLE0
 11
-7.044195017643634E-15
 21
1.0
 31
0.0
 73
     1
 44
1.0
  0
ENDBLK
  5
1DE
330
1DC
100
AcDbEntity
  8
0
100
AcDbBlockEnd
  0
BLOCK
  5
1E9
330
1E8
100
AcDbEntity
  8
0
100
AcDbBlockBegin
  2
_D_5
 70
     0
 10
0.0
 20
0.0
 30
0.0
  3
_D_5
  1

  0
SOLID
  5
1EB
330
1E8
100
AcDbEntity
  8
VERMASSUNG
100
AcDbTrace
 10
264.8280506428
 20
124.3297331946
 30
0.0
 11
264.3780506428
 21
121.3297331946
 31
0.0
 12
265.2780506428
 22
121.3297331946
 32
0.0
 13
265.2780506428
 23
121.3297331946
 33
0.0
  0
SOLID
  5
1EC
330
1E8
100
AcDbEntity
  8
VERMASSUNG
100
AcDbTrace
 10
264.8280506428
 20
106.3297331946
 30
0.0
 11
265.2780506428
 21
109.3297331946
 31
0.0
 12
264.3780506428
 22
109.3297331946
 32
0.0
 13
264.3780506428
 23
109.3297331946
 33
0.0
  0
LINE
  5
1ED
330
1E8
100
AcDbEntity
  8
VERMASSUNG
100
AcDbLine
 10
254.8217422348
 20
124.3297331946
 30
0.0
 11
265.8280506428
 21
124.3297331946
 31
0.0
  0
LINE
  5
1EE
330
1E8
100
AcDbEntity
  8
VERMASSUNG
100
AcDbLine
 10
254.8217422348
 20
106.3297331946
 30
0.0
 11
265.8280506428
 21
106.3297331946
 31
0.0
  0
LINE
  5
1EF
330
1E8
100
AcDbEntity
  8
VERMASSUNG
100
AcDbLine
 10
264.8280506428
 20
124.3297331946
 30
0.0
 11
264.8280506428
 21
106.3297331946
 31
0.0
  0
MTEXT
  5
1F0
330
1E8
100
AcDbEntity
  8
VERMASSUNG
100
AcDbMText
 10
262.2499153378
 20
112.3247331304
 30
0.0
 40
2.0
 41
0.0
 71
     1
 72
     1
  1
%%c
  7
SLDTEXTSTYLE0
 11
-7.044195017643634E-15
 21
1.0
 31
0.0
 73
     1
 44
1.0
  0
MTEXT
  5
1F1
330
1E8
100
AcDbEntity
  8
VERMASSUNG
100
AcDbMText
 10
262.0499153866
 20
115.9347331447
 30
0.0
 40
2.0
 41
0.0
 71
     1
 72
     1
  1
18
  7
SLDTEXTSTYLE0
 11
-7.044195017643634E-15
 21
1.0
 31
0.0
 73
     1
 44
1.0
  0
ENDBLK
  5
1EA
330
1E8
100
AcDbEntity
  8
0
100
AcDbBlockEnd
  0
ENDSEC
  0
SECTION
  2
ENTITIES
  0
MTEXT
  5
78
330
1F
100
AcDbEntity
  8
KOPF_DÜNN
100
AcDbMText
 10
13.8892156294
 20
23.8442973028
 30
0.0
 40
3.0
 41
0.0
 71
     1
 72
     1
  1
A34.550.032.118
  7
SLDTEXTSTYLE0
 73
     1
 44
1.0
  0
MTEXT
  5
79
330
1F
100
AcDbEntity
  8
VERMASSUNG
100
AcDbMText
 10
13.9329988022
 20
28.8834360957
 30
0.0
 40
3.0
 41
0.0
 71
     1
 72
     1
  1
Aufnahme_Master shank
  7
SLDTEXTSTYLE0
 73
     1
 44
1.0
  0
MTEXT
  5
7A
330
1F
100
AcDbEntity
  8
VERMASSUNG
100
AcDbMText
 10
98.8601118557
 20
13.8365368761
 30
0.0
 40
2.0
 41
0.0
 71
     1
 72
     1
  1
Datum: 18.11.2011
  7
SLDTEXTSTYLE0
 73
     1
 44
1.0
  0
MTEXT
  5
7B
330
1F
100
AcDbEntity
  8
VERMASSUNG
100
AcDbMText
 10
13.933048693
 20
18.0482802738
 30
0.0
 40
2.0
 41
0.0
 71
     1
 72
     1
  1
MAS-BT A/D
  7
SLDTEXTSTYLE0
 73
     1
 44
1.0
  0
MTEXT
  5
7C
330
1F
100
AcDbEntity
  8
VERMASSUNG
100
AcDbMText
 10
13.9808475933
 20
13.9090974274
 30
0.0
 40
2.0
 41
0.0
 71
     1
 72
     1
  1
Gewicht: 4099g
  7
SLDTEXTSTYLE0
 73
     1
 44
1.0
  0
LINE
  5
7D
330
1F
100
AcDbEntity
  8
0
  6
Continuous
 62
     7
370
    15
100
AcDbLine
 10
171.8214550081
 20
65.3297331946
 30
0.0
 11
174.8217422348
 21
65.3297331946
 31
0.0
  0
LINE
  5
7E
330
1F
100
AcDbEntity
  8
0
  6
Continuous
 62
     7
370
    15
100
AcDbLine
 10
174.8217422348
 20
165.3297331946
 30
0.0
 11
171.8213080539
 21
165.3297331946
 31
0.0
  0
ARC
  5
7F
330
1F
100
AcDbEntity
  8
0
  6
Continuous
 62
     7
370
    15
100
AcDbCircle
 10
174.8217422348
 20
66.3297331946
 30
0.0
 40
1.0
100
AcDbArc
 50
270.0
 51
0.0
  0
ARC
  5
80
330
1F
100
AcDbEntity
  8
0
  6
Continuous
 62
     7
370
    15
100
AcDbCircle
 10
174.8217422348
 20
164.3297331946
 30
0.0
 40
1.0
100
AcDbArc
 50
0.0
 51
90.0
  0
ARC
  5
81
330
1F
100
AcDbEntity
  8
0
  6
Continuous
 62
     7
370
    15
100
AcDbCircle
 10
139.8217422348
 20
79.4047331946
 30
0.0
 40
1.000000000000006
100
AcDbArc
 50
38.7240252166
 51
90.0
  0
ARC
  5
82
330
1F
100
AcDbEntity
  8
0
  6
Continuous
 62
     7
370
    15
100
AcDbCircle
 10
139.8217422348
 20
151.2547331946
 30
0.0
 40
1.0
100
AcDbArc
 50
270.0
 51
321.2772281032
  0
LINE
  5
83
330
1F
100
AcDbEntity
  8
0
  6
Continuous
 62
     7
370
    15
100
AcDbLine
 10
137.8217422348
 20
80.4047331946
 30
0.0
 11
139.8217422348
 21
80.4047331946
 31
0.0
  0
LINE
  5
84
330
1F
100
AcDbEntity
  8
0
  6
Continuous
 62
     7
370
    15
100
AcDbLine
 10
139.8217422348
 20
150.2547331946
 30
0.0
 11
137.8217422348
 21
150.2547331946
 31
0.0
  0
LINE
  5
85
330
1F
100
AcDbEntity
  8
0
  6
Continuous
 62
     7
370
    15
100
AcDbLine
 10
137.8217422348
 20
150.2547331946
 30
0.0
 11
37.7331284487
 21
135.6584770174
 31
0.0
  0
LINE
  5
86
330
1F
100
AcDbEntity
  8
0
  6
Continuous
 62
     7
370
    15
100
AcDbLine
 10
37.7331284487
 20
95.0009893717
 30
0.0
 11
137.8217422348
 21
80.4047331946
 31
0.0
  0
ARC
  5
87
330
1F
100
AcDbEntity
  8
0
  6
Continuous
 62
     7
370
    15
100
AcDbCircle
 10
38.0217422348
 20
96.9800553338
 30
0.0
 40
2.0
100
AcDbArc
 50
180.0
 51
261.7028550302
  0
ARC
  5
88
330
1F
100
AcDbEntity
  8
0
  6
Continuous
 62
     7
370
    15
100
AcDbCircle
 10
38.0217422348
 20
133.6794110553
 30
0.0
 40
2.0
100
AcDbArc
 50
98.2971449698
 51
180.0
  0
ARC
  5
89
330
1F
100
AcDbEntity
  8
0
  6
Continuous
 62
     7
370
    15
100
AcDbCircle
 10
178.8217422348
 20
96.3297331946
 30
0.0
 40
3.0
100
AcDbArc
 50
90.0
 51
180.0
  0
ARC
  5
8A
330
1F
100
AcDbEntity
  8
0
  6
Continuous
 62
     7
370
    15
100
AcDbCircle
 10
178.8217422348
 20
134.3297331946
 30
0.0
 40
3.0
100
AcDbArc
 50
180.0
 51
270.0
  0
LINE
  5
8B
330
1F
100
AcDbEntity
  8
0
  6
Continuous
 62
     7
370
    15
100
AcDbLine
 10
255.5217422348
 20
99.3297331946
 30
0.0
 11
255.8217422348
 21
99.6297331946
 31
0.0
  0
LINE
  5
8C
330
1F
100
AcDbEntity
  8
0
  6
Continuous
 62
     7
370
    15
100
AcDbLine
 10
255.8217422348
 20
131.0297331946
 30
0.0
 11
255.5217422348
 21
131.3297331946
 31
0.0
  0
LINE
  5
8D
330
1F
100
AcDbEntity
  8
0
  6
Continuous
 62
     7
370
    15
100
AcDbLine
 10
238.7765984844
 20
131.3297331946
 30
0.0
 11
178.8217422348
 21
131.3297331946
 31
0.0
  0
LINE
  5
8E
330
1F
100
AcDbEntity
  8
0
  6
Continuous
 62
     7
370
    15
100
AcDbLine
 10
255.5217422348
 20
131.3297331946
 30
0.0
 11
248.7659214066
 21
131.3297331946
 31
0.0
  0
LINE
  5
8F
330
1F
100
AcDbEntity
  8
0
  6
Continuous
 62
     7
370
    15
100
AcDbLine
 10
178.8217422348
 20
99.3297331946
 30
0.0
 11
255.5217422348
 21
99.3297331946
 31
0.0
  0
LINE
  5
90
330
1F
100
AcDbEntity
  8
0
  6
Continuous
 62
     7
370
    15
100
AcDbLine
 10
247.3635803262
 20
131.0378951032
 30
0.0
 11
247.0717422348
 21
131.3297331946
 31
0.0
  0
LINE
  5
91
330
1F
100
AcDbEntity
  8
0
  6
Continuous
 62
     7
370
    15
100
AcDbLine
 10
240.4717422348
 20
131.3297331946
 30
0.0
 11
240.1805203073
 21
131.038511267
 31
0.0
  0
SPLINE
  5
92
330
1F
100
AcDbEntity
  8
0
  6
Continuous
 62
     7
370
    15
100
AcDbSpline
210
0.0
220
0.0
230
1.0
 70
     8
 71
     3
 72
    12
 73
     8
 74
     0
 42
0.000000001
 43
0.00000001
 40
0.0
 40
0.0
 40
0.0
 40
0.0
 40
0.0005125153354919
 40
0.2509311781591491
 40
0.5009716914396624
 40
0.7506335204375856
 40
1.0
 40
1.0
 40
1.0
 40
1.0
 10
171.821308053915
 20
165.3296081523721
 30
0.0
 10
171.8214525106018
 20
165.3296498256895
 30
0.0
 10
171.8921795388919
 20
165.350053380277
 30
0.0
 10
171.6489159786156
 20
165.2784417488904
 30
0.0
 10
171.0433913644104
 20
165.1100885404185
 30
0.0
 10
170.0182276799943
 20
164.8327549499629
 30
0.0
 10
169.0370438127696
 20
164.6041362006393
 30
0.0
 10
168.5467422355321
 20
164.4898944798736
 30
0.0
  0
SPLINE
  5
93
330
1F
100
AcDbEntity
  8
0
  6
Continuous
 62
     7
370
    15
100
AcDbSpline
210
0.0
220
0.0
230
1.0
 70
     8
 71
     3
 72
    13
 73
     9
 74
     0
 42
0.000000001
 43
0.00000001
 40
0.0
 40
0.0
 40
0.0
 40
0.0
 40
0.2492492380460214
 40
0.4988437701385547
 40
0.6658825660855477
 40
0.832025671123022
 40
0.9994886337290263
 40
1.0
 40
1.0
 40
1.0
 40
1.0
 10
168.5467422355321
 20
66.16957190923797
 30
0.0
 10
169.0379269589557
 20
66.05508438554594
 30
0.0
 10
170.020976861888
 20
65.82595073442594
 30
0.0
 10
170.9200202867069
 20
65.58274098327757
 30
0.0
 10
171.4783451873876
 20
65.42880377589265
 30
0.0
 10
171.7440164120957
 20
65.352550217044
 30
0.0
 10
171.8529106581149
 20
65.32063603271726
 30
0.0
 10
171.8215504782941
 20
65.32978894666306
 30
0.0
 10
171.8214550081212
 20
65.32981681098912
 30
0.0
  0
LINE
  5
94
330
1F
100
AcDbEntity
  8
0
  6
Continuous
 62
     7
370
    15
100
AcDbLine
 10
168.5467422348
 20
66.1695719092
 30
0.0
 11
168.5467422348
 21
164.4898944799
 31
0.0
  0
SPLINE
  5
95
330
1F
100
AcDbEntity
  8
0
  6
Continuous
 62
     7
370
    15
100
AcDbSpline
210
0.0
220
0.0
230
1.0
 70
     8
 71
     3
 72
    12
 73
     8
 74
     0
 42
0.000000001
 43
0.00000001
 40
0.0
 40
0.0
 40
0.0
 40
0.0
 40
0.4999999999999992
 40
0.4999999999999992
 40
0.7499999999999996
 40
0.7499999999999996
 40
1.0
 40
1.0
 40
1.0
 40
1.0
 10
167.9060218996885
 20
163.5357801462568
 30
0.0
 10
167.367125204591
 20
162.4780803287557
 30
0.0
 10
166.8047943938713
 20
161.3757118937971
 30
0.0
 10
165.9361281512809
 20
159.6757472874343
 30
0.0
 10
165.6417994289383
 20
159.1002288719957
 30
0.0
 10
165.0482684299706
 20
157.9408002035372
 30
0.0
 10
164.7490421718521
 20
157.3568405344559
 30
0.0
 10
164.4475553235987
 20
156.7691305738671
 30
0.0
  0
SPLINE
  5
96
330
1F
100
AcDbEntity
  8
0
  6
Continuous
 62
     7
370
    15
100
AcDbSpline
210
0.0
220
0.0
230
1.0
 70
     8
 71
     3
 72
     9
 73
     5
 74
     0
 42
0.000000001
 43
0.00000001
 40
0.0
 40
0.0
 40
0.0
 40
0.0
 40
0.5047943291262357
 40
1.0
 40
1.0
 40
1.0
 40
1.0
 10
168.5467186402572
 20
164.4898384446432
 30
0.0
 10
168.4383362060308
 20
164.328996883764
 30
0.0
 10
168.2236300812333
 20
164.0103689761216
 30
0.0
 10
168.0112026524141
 20
163.6929947495183
 30
0.0
 10
167.9060073850138
 20
163.5358292327151
 30
0.0
  0
SPLINE
  5
97
330
1F
100
AcDbEntity
  8
0
  6
Continuous
 62
     7
370
    15
100
AcDbSpline
210
0.0
220
0.0
230
1.0
 70
     8
 71
     3
 72
     9
 73
     5
 74
     0
 42
0.000000001
 43
0.00000001
 40
0.0
 40
0.0
 40
0.0
 40
0.0
 40
0.4952056703152484
 40
1.0
 40
1.0
 40
1.0
 40
1.0
 10
167.9060073850138
 20
67.12363715639641
 30
0.0
 10
168.0112026522943
 20
66.96647163977296
 30
0.0
 10
168.2236300811109
 20
66.64909741317454
 30
0.0
 10
168.43833620591
 20
66.33046950552776
 30
0.0
 10
168.5467186402572
 20
66.16962794446836
 30
0.0
  0
SPLINE
  5
98
330
1F
100
AcDbEntity
  8
0
  6
Continuous
 62
     7
370
    15
100
AcDbSpline
210
0.0
220
0.0
230
1.0
 70
     8
 71
     3
 72
    12
 73
     8
 74
     0
 42
0.000000001
 43
0.00000001
 40
0.0
 40
0.0
 40
0.0
 40
0.0
 40
0.2499999999999993
 40
0.2499999999999993
 40
0.4999999999999986
 40
0.4999999999999986
 40
1.0
 40
1.0
 40
1.0
 40
1.0
 10
167.9060218674496
 20
67.12368630613058
 30
0.0
 10
167.6366843460808
 20
67.65231869481522
 30
0.0
 10
167.3609142286867
 20
68.19324334876192
 30
0.0
 10
166.798653942081
 20
69.29530010312497
 30
0.0
 10
166.5115685686762
 20
69.8575969423618
 30
0.0
 10
165.641142127957
 20
71.56099217768178
 30
0.0
 10
165.0491321317876
 20
72.71763894876388
 30
0.0
 10
164.4475553235987
 20
73.89033581524451
 30
0.0
  0
LINE
  5
99
330
1F
100
AcDbEntity
  8
0
  6
Continuous
 62
     7
370
    15
100
AcDbLine
 10
175.8217422348
 20
66.3297331946
 30
0.0
 11
175.8217422348
 21
164.3297331946
 31
0.0
  0
SPLINE
  5
9A
330
1F
100
AcDbEntity
  8
0
  6
Continuous
 62
     7
370
    15
100
AcDbSpline
210
0.0
220
0.0
230
1.0
 70
     8
 71
     3
 72
     8
 73
     4
 74
     0
 42
0.000000001
 43
0.00000001
 40
0.0
 40
0.0
 40
0.0
 40
0.0
 40
0.0012417047560385
 40
0.0012417047560385
 40
0.0012417047560385
 40
0.0012417047560385
 10
154.0543112713728
 20
162.6503033484768
 30
0.0
 10
153.8689227200784
 20
162.9119764340253
 30
0.0
 10
153.6830564744704
 20
163.1734805429029
 30
0.0
 10
153.4967422348451
 20
163.4348246900202
 30
0.0
  0
SPLINE
  5
9B
330
1F
100
AcDbEntity
  8
0
  6
Continuous
 62
     7
370
    15
100
AcDbSpline
210
0.0
220
0.0
230
1.0
 70
     8
 71
     3
 72
     8
 73
     4
 74
     0
 42
0.000000001
 43
0.00000001
 40
0.0
 40
0.0
 40
0.0
 40
0.0
 40
1.0
 40
1.0
 40
1.0
 40
1.0
 10
157.5959291460914
 20
156.2600092747388
 30
0.0
 10
156.4209416701885
 20
158.3930860296747
 30
0.0
 10
155.2396951360921
 20
160.5228045955508
 30
0.0
 10
154.0543112713728
 20
162.6503033484768
 30
0.0
  0
SPLINE
  5
9C
330
1F
100
AcDbEntity
  8
0
  6
Continuous
 62
     7
370
    15
100
AcDbSpline
210
0.0
220
0.0
230
1.0
 70
     8
 71
     3
 72
     8
 73
     4
 74
     0
 42
0.000000001
 43
0.00000001
 40
0.0
 40
0.0
 40
0.0
 40
0.0
 40
1.0
 40
1.0
 40
1.0
 40
1.0
 10
157.5959291460914
 20
74.3994571143728
 30
0.0
 10
156.4208923482645
 20
72.26629082022747
 30
0.0
 10
155.2396451408255
 20
70.1365720632458
 30
0.0
 10
154.0543112713728
 20
68.00916304063485
 30
0.0
  0
SPLINE
  5
9D
330
1F
100
AcDbEntity
  8
0
  6
Continuous
 62
     7
370
    15
100
AcDbSpline
210
0.0
220
0.0
230
1.0
 70
     8
 71
     3
 72
     8
 73
     4
 74
     0
 42
0.000000001
 43
0.00000001
 40
0.0
 40
0.0
 40
0.0
 40
0.0
 40
0.0012417047560385
 40
0.0012417047560385
 40
0.0012417047560385
 40
0.0012417047560385
 10
153.4967422348451
 20
67.22464169909142
 30
0.0
 10
153.6830564744705
 20
67.48598584620868
 30
0.0
 10
153.8689227200784
 20
67.74748995508627
 30
0.0
 10
154.0543112713728
 20
68.00916304063485
 30
0.0
  0
LINE
  5
9E
330
1F
100
AcDbEntity
  8
0
  6
Continuous
 62
     7
370
    15
100
AcDbLine
 10
153.4967422348
 20
67.2246416991
 30
0.0
 11
153.4967422348
 21
163.43482469
 31
0.0
  0
LINE
  5
9F
330
1F
100
AcDbEntity
  8
0
  6
Continuous
 62
     7
370
    15
100
AcDbLine
 10
153.4967422348
 20
163.43482469
 30
0.0
 11
141.8217422348
 21
163.43482469
 31
0.0
  0
LINE
  5
A0
330
1F
100
AcDbEntity
  8
0
  6
Continuous
 62
     7
370
    15
100
AcDbLine
 10
141.8217422348
 20
67.2246416991
 30
0.0
 11
153.4967422348
 21
67.2246416991
 31
0.0
  0
LINE
  5
A1
330
1F
100
AcDbEntity
  8
0
  6
Continuous
 62
     7
370
    15
100
AcDbLine
 10
140.8217422348
 20
68.3278449346
 30
0.0
 11
140.8217422348
 21
162.3316214545
 31
0.0
  0
SPLINE
  5
A2
330
1F
100
AcDbEntity
  8
0
  6
Continuous
 62
     7
370
    15
100
AcDbSpline
210
0.0
220
0.0
230
1.0
 70
     8
 71
     3
 72
    12
 73
     8
 74
     0
 42
0.000000001
 43
0.00000001
 40
0.0
 40
0.0
 40
0.0
 40
0.0
 40
0.2500000000000001
 40
0.2500000000000001
 40
0.5000000000000002
 40
0.5000000000000002
 40
1.0
 40
1.0
 40
1.0
 40
1.0
 10
141.2078786548948
 20
163.264166928427
 30
0.0
 10
141.156248532785
 20
163.2079626577124
 30
0.0
 10
141.1077162997946
 20
163.146673247192
 30
0.0
 10
141.0178911628367
 20
163.0122111731473
 30
0.0
 10
140.9761808896243
 20
162.9380921029044
 30
0.0
 10
140.8700495094622
 20
162.701784457736
 30
0.0
 10
140.8217422348451
 20
162.5199609150861
 30
0.0
 10
140.8217422348451
 20
162.331621454497
 30
0.0
  0
SPLINE
  5
A3
330
1F
100
AcDbEntity
  8
0
  6
Continuous
 62
     7
370
    15
100
AcDbSpline
210
0.0
220
0.0
230
1.0
 70
     8
 71
     3
 72
     8
 73
     4
 74
     0
 42
0.000000001
 43
0.00000001
 40
0.0
 40
0.0
 40
0.0
 40
0.0
 40
1.0
 40
1.0
 40
1.0
 40
1.0
 10
141.8217422348451
 20
163.4348246900202
 30
0.0
 10
141.5948479911453
 20
163.4348246900202
 30
0.0
 10
141.3769983452189
 20
163.3708125230514
 30
0.0
 10
141.2078786548948
 20
163.264166928427
 30
0.0
  0
SPLINE
  5
A4
330
1F
100
AcDbEntity
  8
0
  6
Continuous
 62
     7
370
    15
100
AcDbSpline
210
0.0
220
0.0
230
1.0
 70
     8
 71
     3
 72
    10
 73
     6
 74
     0
 42
0.000000001
 43
0.00000001
 40
0.0
 40
0.0
 40
0.0
 40
0.0
 40
0.5
 40
0.5
 40
1.0
 40
1.0
 40
1.0
 40
1.0
 10
141.2078786548948
 20
67.39529946068454
 30
0.0
 10
141.2924892956256
 20
67.34194463207186
 30
0.0
 10
141.3877239177321
 20
67.29937517012165
 30
0.0
 10
141.597761276912
 20
67.24009283544069
 30
0.0
 10
141.7081931816961
 20
67.22464169909142
 30
0.0
 10
141.8217422348451
 20
67.22464169909142
 30
0.0
  0
SPLINE
  5
A5
330
1F
100
AcDbEntity
  8
0
  6
Continuous
 62
     7
370
    15
100
AcDbSpline
210
0.0
220
0.0
230
1.0
 70
     8
 71
     3
 72
    12
 73
     8
 74
     0
 42
0.000000001
 43
0.00000001
 40
0.0
 40
0.0
 40
0.0
 40
0.0
 40
0.2500000000000039
 40
0.2500000000000039
 40
0.5000000000000079
 40
0.5000000000000079
 40
1.0
 40
1.0
 40
1.0
 40
1.0
 10
141.2078786548948
 20
67.39529946068454
 30
0.0
 10
141.156248532785
 20
67.45150373139917
 30
0.0
 10
141.1077162997946
 20
67.51279314191957
 30
0.0
 10
141.0178911628367
 20
67.6472552159643
 30
0.0
 10
140.9761808896243
 20
67.72137428620711
 30
0.0
 10
140.8700495094622
 20
67.95768193137556
 30
0.0
 10
140.8217422348451
 20
68.13950547402546
 30
0.0
 10
140.8217422348451
 20
68.32784493461457
 30
0.0
  0
SPLINE
  5
A6
330
1F
100
AcDbEntity
  8
0
  6
Continuous
 62
     7
370
    15
100
AcDbSpline
210
0.0
220
0.0
230
1.0
 70
     8
 71
     3
 72
    12
 73
     8
 74
     0
 42
0.000000001
 43
0.00000001
 40
0.0
 40
0.0
 40
0.0
 40
0.0
 40
0.2500000000000049
 40
0.2500000000000049
 40
0.5000000000000098
 40
0.5000000000000098
 40
1.0
 40
1.0
 40
1.0
 40
1.0
 10
164.4475553235987
 20
156.7691305738671
 30
0.0
 10
164.4113349022118
 20
156.6985235057673
 30
0.0
 10
164.368409227564
 20
156.6347889144416
 30
0.0
 10
164.270882644305
 20
156.5190147381931
 30
0.0
 10
164.2154511246883
 20
156.4664668941816
 30
0.0
 10
164.0369632217841
 20
156.3323182909673
 30
0.0
 10
163.9001263931363
 20
156.2717961889034
 30
0.0
 10
163.7547350005719
 20
156.251249604975
 30
0.0
  0
SPLINE
  5
A7
330
1F
100
AcDbEntity
  8
0
  6
Continuous
 62
     7
370
    15
100
AcDbSpline
210
0.0
220
0.0
230
1.0
 70
     8
 71
     3
 72
    12
 73
     8
 74
     0
 42
0.000000001
 43
0.00000001
 40
0.0
 40
0.0
 40
0.0
 40
0.0
 40
0.249999999999999
 40
0.249999999999999
 40
0.499999999999998
 40
0.499999999999998
 40
1.0
 40
1.0
 40
1.0
 40
1.0
 10
164.4475553235987
 20
73.89033581524448
 30
0.0
 10
164.4113349022118
 20
73.96094288334443
 30
0.0
 10
164.3684092275639
 20
74.02467747467013
 30
0.0
 10
164.2708826443049
 20
74.14045165091856
 30
0.0
 10
164.2154511246882
 20
74.19299949492998
 30
0.0
 10
164.036963221784
 20
74.32714809814436
 30
0.0
 10
163.9001263931363
 20
74.38767020020818
 30
0.0
 10
163.7547350005719
 20
74.40821678413657
 30
0.0
  0
SPLINE
  5
A8
330
1F
100
AcDbEntity
  8
0
  6
Continuous
 62
     7
370
    15
100
AcDbSpline
210
0.0
220
0.0
230
1.0
 70
     8
 71
     3
 72
    10
 73
     6
 74
     0
 42
0.000000001
 43
0.00000001
 40
0.0
 40
0.0
 40
0.0
 40
0.0
 40
0.5
 40
0.5
 40
1.0
 40
1.0
 40
1.0
 40
1.0
 10
157.971742234845
 20
74.75020198040662
 30
0.0
 10
157.8927421665938
 20
74.71443774579873
 30
0.0
 10
157.8189849163172
 20
74.66494814223928
 30
0.0
 10
157.690929793184
 20
74.54465965073634
 30
0.0
 10
157.6380797587723
 20
74.47597749774701
 30
0.0
 10
157.5959291460914
 20
74.3994571143728
 30
0.0
  0
SPLINE
  5
A9
330
1F
100
AcDbEntity
  8
0
  6
Continuous
 62
     7
370
    15
100
AcDbSpline
210
0.0
220
0.0
230
1.0
 70
     8
 71
     3
 72
    10
 73
     6
 74
     0
 42
0.000000001
 43
0.00000001
 40
0.0
 40
0.0
 40
0.0
 40
0.0
 40
0.5
 40
0.5
 40
1.0
 40
1.0
 40
1.0
 40
1.0
 10
157.9717422348451
 20
155.9092644087049
 30
0.0
 10
157.8924557871623
 20
155.9451582905574
 30
0.0
 10
157.8189435680417
 20
155.9946600004084
 30
0.0
 10
157.6919911151711
 20
156.113707697077
 30
0.0
 10
157.6379252664345
 20
156.1837693573453
 30
0.0
 10
157.5959291460914
 20
156.2600092747388
 30
0.0
  0
SPLINE
  5
AA
330
1F
100
AcDbEntity
  8
0
  6
Continuous
 62
     7
370
    15
100
AcDbSpline
210
0.0
220
0.0
230
1.0
 70
     8
 71
     3
 72
     8
 73
     4
 74
     0
 42
0.000000001
 43
0.00000001
 40
0.0
 40
0.0
 40
0.0
 40
0.0
 40
1.0
 40
1.0
 40
1.0
 40
1.0
 10
158.288749469119
 20
155.8418053902184
 30
0.0
 10
158.1790476838173
 20
155.8409469730191
 30
0.0
 10
158.0717006628328
 20
155.8640120848939
 30
0.0
 10
157.971742234845
 20
155.9092644087048
 30
0.0
  0
SPLINE
  5
AB
330
1F
100
AcDbEntity
  8
0
  6
Continuous
 62
     7
370
    15
100
AcDbSpline
210
0.0
220
0.0
230
1.0
 70
     8
 71
     3
 72
     8
 73
     4
 74
     0
 42
0.000000001
 43
0.00000001
 40
0.0
 40
0.0
 40
0.0
 40
0.0
 40
1.0
 40
1.0
 40
1.0
 40
1.0
 10
158.288749469119
 20
74.81766099889315
 30
0.0
 10
158.1790476838173
 20
74.81851941609249
 30
0.0
 10
158.0717006628327
 20
74.79545430421769
 30
0.0
 10
157.971742234845
 20
74.75020198040677
 30
0.0
  0
SPLINE
  5
AC
330
1F
100
AcDbEntity
  8
0
  6
Continuous
 62
     7
370
    15
100
AcDbSpline
210
0.0
220
0.0
230
1.0
 70
    11
 71
     3
 72
    66
 73
    62
 74
     0
 42
0.000000001
 43
0.00000001
 40
0.0
 40
0.0
 40
0.0
 40
0.0
 40
0.03125
 40
0.03125
 40
0.0625
 40
0.0625
 40
0.09375
 40
0.09375
 40
0.125
 40
0.125
 40
0.15625
 40
0.15625
 40
0.1874999999999999
 40
0.1874999999999999
 40
0.2187499999999999
 40
0.2187499999999999
 40
0.2499999999999999
 40
0.2499999999999999
 40
0.2812499999999999
 40
0.2812499999999999
 40
0.3124999999999999
 40
0.3124999999999999
 40
0.3437499999999999
 40
0.3437499999999999
 40
0.3749999999999999
 40
0.3749999999999999
 40
0.4062499999999999
 40
0.4062499999999999
 40
0.4374999999999999
 40
0.4374999999999999
 40
0.4687499999999999
 40
0.4687499999999999
 40
0.4999999999999999
 40
0.4999999999999999
 40
0.5312499999999999
 40
0.5312499999999999
 40
0.5624999999999999
 40
0.5624999999999999
 40
0.625
 40
0.625
 40
0.65625
 40
0.65625
 40
0.6875
 40
0.6875
 40
0.71875
 40
0.71875
 40
0.7499999999999999
 40
0.7499999999999999
 40
0.7812499999999999
 40
0.7812499999999999
 40
0.8124999999999999
 40
0.8124999999999999
 40
0.8437499999999999
 40
0.8437499999999999
 40
0.8749999999999999
 40
0.8749999999999999
 40
0.9062499999999999
 40
0.9062499999999999
 40
0.9374999999999999
 40
0.9374999999999999
 40
1.0
 40
1.0
 40
1.0
 40
1.0
 10
161.0217422348451
 20
98.46981588371253
 30
0.0
 10
161.186942525509
 20
98.46981588371254
 30
0.0
 10
161.3493750668055
 20
98.48472191307033
 30
0.0
 10
161.6689332223955
 20
98.54315709181279
 30
0.0
 10
161.8277165603726
 20
98.58739814418851
 30
0.0
 10
162.1304545768519
 20
98.702989689611
 30
0.0
 10
162.2740337419862
 20
98.77376565982969
 30
0.0
 10
162.5457634718542
 20
98.94120419174229
 30
0.0
 10
162.674392035392
 20
99.03874346406295
 30
0.0
 10
162.9049577970592
 20
99.25216182426439
 30
0.0
 10
163.0084317983085
 20
99.36877647629049
 30
0.0
 10
163.1911923362343
 20
99.6225018403102
 30
0.0
 10
163.2688365924629
 20
99.75779469937895
 30
0.0
 10
163.393529243153
 20
100.0381410547705
 30
0.0
 10
163.4415332237314
 20
100.1852619306066
 30
0.0
 10
163.5057649660497
 20
100.4872520349839
 30
0.0
 10
163.5216544100919
 20
100.6393758025531
 30
0.0
 10
163.5218293404471
 20
100.9458584453793
 30
0.0
 10
163.5055986891122
 20
101.101844366445
 30
0.0
 10
163.4418174664026
 20
101.4044238354143
 30
0.0
 10
163.3946253550063
 20
101.5518023468065
 30
0.0
 10
163.2694587373483
 20
101.8385910521842
 30
0.0
 10
163.1911992499733
 20
101.9775481537221
 30
0.0
 10
163.010279066618
 20
102.2351418139901
 30
0.0
 10
162.9069938376941
 20
102.3554343576911
 30
0.0
 10
162.6737420956454
 20
102.5781551753378
 30
0.0
 10
162.5473282273799
 20
102.6771330793296
 30
0.0
 10
162.2766559566852
 20
102.8503499339388
 30
0.0
 10
162.1305741845209
 20
102.9253309714155
 30
0.0
 10
161.8276897390481
 20
103.0456591415113
 30
0.0
 10
161.6718593794083
 20
103.0910428290005
 30
0.0
 10
161.3515138901429
 20
103.1524690894215
 30
0.0
 10
161.1858038041713
 20
103.1682227109412
 30
0.0
 10
160.8594724154748
 20
103.1683349561967
 30
0.0
 10
160.6972853296479
 20
103.1532027262907
 30
0.0
 10
160.3749097484393
 20
103.0919506131102
 30
0.0
 10
160.2168942744018
 20
103.045943869735
 30
0.0
 10
159.7654833993262
 20
102.867063140493
 30
0.0
 10
159.4864039422741
 20
102.6889110331941
 30
0.0
 10
159.1403302377757
 20
102.3594146169071
 30
0.0
 10
159.034688221861
 20
102.2370417770671
 30
0.0
 10
158.8529047458902
 20
101.9786390729525
 30
0.0
 10
158.7760169225063
 20
101.8424075074042
 30
0.0
 10
158.6503623651359
 20
101.5559720455181
 30
0.0
 10
158.6020542892213
 20
101.4056649609426
 30
0.0
 10
158.538236403781
 20
101.1040970308581
 30
0.0
 10
158.5219082267381
 20
100.9512309683936
 30
0.0
 10
158.5215787366784
 20
100.6412158516501
 30
0.0
 10
158.5376752485131
 20
100.4883468512975
 30
0.0
 10
158.6009039857743
 20
100.1893140855226
 30
0.0
 10
158.6487405791848
 20
100.0412484890998
 30
0.0
 10
158.7740838970983
 20
99.75869145095427
 30
0.0
 10
158.8507805716234
 20
99.62507511883055
 30
0.0
 10
159.0318319382752
 20
99.3727852488984
 30
0.0
 10
159.1373075486361
 20
99.25344193983054
 30
0.0
 10
159.3678341173123
 20
99.03975816034571
 30
0.0
 10
159.4935535549426
 20
98.94409818568593
 30
0.0
 10
159.7663204041395
 20
98.77537711668212
 30
0.0
 10
159.9120397805455
 20
98.70350990802889
 30
0.0
 10
160.3631088856535
 20
98.53085883076045
 30
0.0
 10
160.6913416535173
 20
98.46981588371251
 30
0.0
 10
161.0217422348451
 20
98.46981588371253
 30
0.0
  0
SPLINE
  5
AD
330
1F
100
AcDbEntity
  8
0
  6
Continuous
 62
     7
370
    15
100
AcDbSpline
210
0.0
220
0.0
230
1.0
 70
     8
 71
     3
 72
    10
 73
     6
 74
     0
 42
0.000000001
 43
0.00000001
 40
0.0
 40
0.0
 40
0.0
 40
0.0
 40
0.5
 40
0.5
 40
1.0
 40
1.0
 40
1.0
 40
1.0
 10
163.7547350005712
 20
156.2512496049778
 30
0.0
 10
162.9071706338029
 20
156.1314725529168
 30
0.0
 10
162.026457198081
 20
156.032782373253
 30
0.0
 10
160.1989009468655
 20
155.8915099670158
 30
0.0
 10
159.2454685437642
 20
155.8492917233382
 30
0.0
 10
158.288749469119
 20
155.8418053902184
 30
0.0
  0
SPLINE
  5
AE
330
1F
100
AcDbEntity
  8
0
  6
Continuous
 62
     7
370
    15
100
AcDbSpline
210
0.0
220
0.0
230
1.0
 70
     8
 71
     3
 72
    10
 73
     6
 74
     0
 42
0.000000001
 43
0.00000001
 40
0.0
 40
0.0
 40
0.0
 40
0.0
 40
0.5
 40
0.5
 40
1.0
 40
1.0
 40
1.0
 40
1.0
 10
163.7547350005712
 20
74.40821678413376
 30
0.0
 10
162.9071706338029
 20
74.5279938361948
 30
0.0
 10
162.026457198081
 20
74.62668401585861
 30
0.0
 10
160.1989009468655
 20
74.76795642209575
 30
0.0
 10
159.2454685437642
 20
74.81017466577335
 30
0.0
 10
158.288749469119
 20
74.81766099889316
 30
0.0
  0
LINE
  5
AF
330
1F
100
AcDbEntity
  8
0
  6
Continuous
 62
     7
370
    15
100
AcDbLine
 10
137.8217422348
 20
80.4047331946
 30
0.0
 11
137.8217422348
 21
150.2547331946
 31
0.0
  0
LINE
  5
B0
330
1F
100
AcDbEntity
  8
0
  6
Continuous
 62
     7
370
    15
100
AcDbLine
 10
36.0217422348
 20
96.9800553338
 30
0.0
 11
36.0217422348
 21
133.6794109598
 31
0.0
  0
LINE
  5
B1
330
1F
100
AcDbEntity
  8
0
  6
Continuous
 62
     7
370
    15
100
AcDbLine
 10
255.8217422348
 20
115.3297331946
 30
0.0
 11
255.8217422348
 21
99.6297331946
 31
0.0
  0
LINE
  5
B2
330
1F
100
AcDbEntity
  8
0
  6
Continuous
 62
     7
370
    15
100
AcDbLine
 10
255.8217422348
 20
131.0297331946
 30
0.0
 11
255.8217422348
 21
115.3297331946
 31
0.0
  0
LINE
  5
B3
330
1F
100
AcDbEntity
  8
0
  6
Continuous
 62
     7
370
    15
100
AcDbLine
 10
255.5217422348
 20
115.3297331946
 30
0.0
 11
255.5217422348
 21
99.3297331946
 31
0.0
  0
LINE
  5
B4
330
1F
100
AcDbEntity
  8
0
  6
Continuous
 62
     7
370
    15
100
AcDbLine
 10
255.5217422348
 20
131.3297331946
 30
0.0
 11
255.5217422348
 21
115.3297331946
 31
0.0
  0
SPLINE
  5
B5
330
1F
100
AcDbEntity
  8
0
  6
Continuous
 62
     7
370
    15
100
AcDbSpline
210
0.0
220
0.0
230
1.0
 70
     8
 71
     3
 72
    37
 73
    33
 74
     0
 42
0.000000001
 43
0.00000001
 40
0.0
 40
0.0
 40
0.0
 40
0.0
 40
0.0402693576791885
 40
0.0555916060707597
 40
0.1400739157091533
 40
0.1697762057713013
 40
0.1999747821696511
 40
0.2305052457673855
 40
0.2641777877896398
 40
0.2984156225429046
 40
0.3330395943811446
 40
0.3519131715706975
 40
0.3900478276856676
 40
0.4287796767128002
 40
0.448304833220274
 40
0.5086316253153655
 40
0.5497237119753362
 40
0.5704581354678272
 40
0.6313949949857003
 40
0.6729428790757879
 40
0.6939204314406175
 40
0.7137619370615045
 40
0.7514003339548856
 40
0.7923871461455703
 40
0.8157233650003964
 40
0.8338941961197921
 40
0.8684214307252899
 40
0.9061476036142527
 40
0.9276744356249131
 40
0.9431581717216265
 40
0.9745548328272967
 40
1.0
 40
1.0
 40
1.0
 40
1.0
 10
248.7659214066003
 20
131.3283523900324
 30
0.0
 10
248.7600000541039
 20
131.3269295554951
 30
0.0
 10
248.7518256625975
 20
131.3249653409741
 30
0.0
 10
248.6207284726824
 20
131.2940894618423
 30
0.0
 10
248.3833486223066
 20
131.2389898729624
 30
0.0
 10
247.9962469973192
 20
131.1575076423652
 30
0.0
 10
247.7181620335551
 20
131.1021999278956
 30
0.0
 10
247.3942535171468
 20
131.0421098646583
 30
0.0
 10
247.0238948294285
 20
130.9792703712914
 30
0.0
 10
246.6073923750767
 20
130.9163766937941
 30
0.0
 10
246.2284121779146
 20
130.8669858580784
 30
0.0
 10
245.8178218229958
 20
130.8206279174171
 30
0.0
 10
245.3737673532945
 20
130.7788224047262
 30
0.0
 10
244.9117381487569
 20
130.7478467337997
 30
0.0
 10
244.3347906028625
 20
130.7214822966823
 30
0.0
 10
243.735943582005
 20
130.711773225335
 30
0.0
 10
243.1340333404958
 20
130.7250896673041
 30
0.0
 10
242.5364005885189
 20
130.7518991960731
 30
0.0
 10
241.9483425414309
 20
130.796115872572
 30
0.0
 10
241.3906002570538
 20
130.8575370893367
 30
0.0
 10
241.0349812865133
 20
130.9036648636836
 30
0.0
 10
240.7077400388138
 20
130.9501737644109
 30
0.0
 10
240.3193251983101
 20
131.011989660238
 30
0.0
 10
239.9551912653904
 20
131.0775067924069
 30
0.0
 10
239.6909513037062
 20
131.1288048478757
 30
0.0
 10
239.4671462468487
 20
131.1741396929403
 30
0.0
 10
239.232717666361
 20
131.2240440698526
 30
0.0
 10
239.0409785600042
 20
131.2670053155872
 30
0.0
 10
238.9254534776077
 20
131.2935972144078
 30
0.0
 10
238.8430122948751
 20
131.3128260004567
 30
0.0
 10
238.7818295333031
 20
131.3273271101718
 30
0.0
 10
238.7782160536857
 20
131.3281915300827
 30
0.0
 10
238.7765984844461
 20
131.328578486481
 30
0.0
  0
SPLINE
  5
B6
330
1F
100
AcDbEntity
  8
0
  6
Continuous
 62
     7
370
    15
100
AcDbSpline
210
0.0
220
0.0
230
1.0
 70
    11
 71
     3
 72
    82
 73
    78
 74
     0
 42
0.000000001
 43
0.00000001
 40
0.0
 40
0.0
 40
0.0
 40
0.0
 40
0.0312499999999994
 40
0.0312499999999994
 40
0.0624999999999988
 40
0.0624999999999988
 40
0.0937499999999982
 40
0.0937499999999982
 40
0.1249999999999976
 40
0.1249999999999976
 40
0.156249999999997
 40
0.156249999999997
 40
0.1874999999999964
 40
0.1874999999999964
 40
0.2187499999999958
 40
0.2187499999999958
 40
0.2343749999999961
 40
0.2343749999999961
 40
0.2499999999999964
 40
0.2499999999999964
 40
0.2812499999999959
 40
0.2812499999999959
 40
0.2968749999999962
 40
0.2968749999999962
 40
0.3124999999999963
 40
0.3124999999999963
 40
0.3437499999999968
 40
0.3437499999999968
 40
0.3593749999999968
 40
0.3593749999999968
 40
0.3749999999999968
 40
0.3749999999999968
 40
0.3906249999999969
 40
0.3906249999999969
 40
0.4062499999999969
 40
0.4062499999999969
 40
0.4374999999999971
 40
0.4374999999999971
 40
0.4687499999999972
 40
0.4687499999999972
 40
0.4999999999999973
 40
0.4999999999999973
 40
0.5312499999999976
 40
0.5312499999999976
 40
0.5624999999999977
 40
0.5624999999999977
 40
0.5937499999999979
 40
0.5937499999999979
 40
0.624999999999998
 40
0.624999999999998
 40
0.6562499999999982
 40
0.6562499999999982
 40
0.6874999999999983
 40
0.6874999999999983
 40
0.7187499999999986
 40
0.7187499999999986
 40
0.7499999999999987
 40
0.7499999999999987
 40
0.7812499999999989
 40
0.7812499999999989
 40
0.8124999999999991
 40
0.8124999999999991
 40
0.8281249999999992
 40
0.8281249999999992
 40
0.8437499999999993
 40
0.8437499999999993
 40
0.8749999999999993
 40
0.8749999999999993
 40
0.8906249999999992
 40
0.8906249999999992
 40
0.9062499999999991
 40
0.9062499999999991
 40
0.9374999999999994
 40
0.9374999999999994
 40
0.9687499999999997
 40
0.9687499999999997
 40
1.0
 40
1.0
 40
1.0
 40
1.0
 10
240.4515592106633
 20
118.6021317613035
 30
0.0
 10
240.6946167355414
 20
118.7921722841584
 30
0.0
 10
240.9517038325111
 20
118.9565679531892
 30
0.0
 10
241.4916137563345
 20
119.2392383591527
 30
0.0
 10
241.7760699448945
 20
119.3579616638822
 30
0.0
 10
242.3644117311136
 20
119.546425836595
 30
0.0
 10
242.6633275498901
 20
119.6148811278314
 30
0.0
 10
243.2703031613589
 20
119.7026502537382
 30
0.0
 10
243.580983345367
 20
119.7218359637441
 30
0.0
 10
244.1989945724599
 20
119.7088698273722
 30
0.0
 10
244.5039784578719
 20
119.6772557987039
 30
0.0
 10
245.1060686416183
 20
119.5645506776314
 30
0.0
 10
245.4058610080156
 20
119.4824056237804
 30
0.0
 10
245.9830862093572
 20
119.269681553789
 30
0.0
 10
246.259011034656
 20
119.1402744005948
 30
0.0
 10
246.6537802910657
 20
118.9108253481523
 30
0.0
 10
246.7821629829331
 20
118.8284132044207
 30
0.0
 10
247.0322140359326
 20
118.6510526418325
 30
0.0
 10
247.1542767035188
 20
118.5556743143954
 30
0.0
 10
247.5020000785574
 20
118.2561015928811
 30
0.0
 10
247.7119289647367
 20
118.0370863048254
 30
0.0
 10
247.9922891972097
 20
117.6775531703412
 30
0.0
 10
248.0799443667137
 20
117.5525025737123
 30
0.0
 10
248.2427354439818
 20
117.2910712894476
 30
0.0
 10
248.3176109488957
 20
117.1548079158881
 30
0.0
 10
248.5161167498834
 20
116.7400713300214
 30
0.0
 10
248.6163677532451
 20
116.4520440008993
 30
0.0
 10
248.7153007735205
 20
116.0013462863475
 30
0.0
 10
248.7397141975852
 20
115.8467166512492
 30
0.0
 10
248.7692036886137
 20
115.5379075841445
 30
0.0
 10
248.7744540024844
 20
115.3839146062346
 30
0.0
 10
248.7664360262522
 20
115.0767317393849
 30
0.0
 10
248.7531668954169
 20
114.9235418863055
 30
0.0
 10
248.7079721158291
 20
114.6179703372815
 30
0.0
 10
248.6757155071418
 20
114.4646520997191
 30
0.0
 10
248.55329836374
 20
114.0169869647328
 30
0.0
 10
248.4379119724148
 20
113.7323931441752
 30
0.0
 10
248.1439281093973
 20
113.1888658635812
 30
0.0
 10
247.9675062991866
 20
112.9349773181952
 30
0.0
 10
247.5692882587035
 20
112.4700712729672
 30
0.0
 10
247.3440214487836
 20
112.255616897777
 30
0.0
 10
246.8625556189754
 20
111.8768754452935
 30
0.0
 10
246.6056874915186
 20
111.7110558668284
 30
0.0
 10
246.0607681985605
 20
111.4240457357304
 30
0.0
 10
245.7745995149482
 20
111.3044131815046
 30
0.0
 10
245.191157829233
 20
111.1163246140121
 30
0.0
 10
244.8917100881047
 20
111.0466961795909
 30
0.0
 10
244.2769799239886
 20
110.9569359557742
 30
0.0
 10
243.9684613776195
 20
110.937947518747
 30
0.0
 10
243.3545491623655
 20
110.9499547610318
 30
0.0
 10
243.0482661352814
 20
110.9808164002138
 30
0.0
 10
242.4371061313587
 20
111.0947314413288
 30
0.0
 10
242.1407604443123
 20
111.1762222681843
 30
0.0
 10
241.5670700963136
 20
111.3870138858887
 30
0.0
 10
241.2893146257656
 20
111.5164319593219
 30
0.0
 10
240.7546088867442
 20
111.8271079104724
 30
0.0
 10
240.5057419895491
 20
112.0036296713584
 30
0.0
 10
240.0451032436631
 20
112.4000143582535
 30
0.0
 10
239.8324260174987
 20
112.6208990550223
 30
0.0
 10
239.4528881077935
 20
113.1083505686725
 30
0.0
 10
239.2916564879734
 20
113.3673286573614
 30
0.0
 10
239.0941431455968
 20
113.7798268614237
 30
0.0
 10
239.0357507625331
 20
113.9213609371223
 30
0.0
 10
238.9349127739388
 20
114.2131151807318
 30
0.0
 10
238.892411750643
 20
114.3641687270807
 30
0.0
 10
238.7938739317958
 20
114.8172319765329
 30
0.0
 10
238.7647766236972
 20
115.122968981086
 30
0.0
 10
238.7773043713485
 20
115.5872600910947
 30
0.0
 10
238.7911545892198
 20
115.7438658080683
 30
0.0
 10
238.8371850731903
 20
116.0503946993323
 30
0.0
 10
238.8692828384382
 20
116.2012012191275
 30
0.0
 10
238.9917779062038
 20
116.6465495300301
 30
0.0
 10
239.110207729391
 20
116.9371664533895
 30
0.0
 10
239.4044513871242
 20
117.4780769070737
 30
0.0
 10
239.5798219733412
 20
117.7300548862425
 30
0.0
 10
239.9839290149976
 20
118.1996426261178
 30
0.0
 10
240.2085016857852
 20
118.4120912384486
 30
0.0
 10
240.4515592106633
 20
118.6021317613035
 30
0.0
  0
SPLINE
  5
B7
330
1F
100
AcDbEntity
  8
0
  6
Continuous
 62
     7
370
    15
100
AcDbSpline
210
0.0
220
0.0
230
1.0
 70
    24
 71
     3
 72
    10
 73
     6
 74
     0
 42
0.000000001
 43
0.00000001
 40
0.0
 40
0.0
 40
0.0
 40
0.0
 40
0.4391222274230438
 40
0.7513714712594646
 40
1.0
 40
1.0
 40
1.0
 40
1.0
 10
246.0589818580352
 20
115.6489012371945
 30
0.0
 10
245.8556911196598
 20
115.9096271063816
 30
0.0
 10
245.5078452315502
 20
116.3557488640437
 30
0.0
 10
245.0021939631927
 20
117.0042602891168
 30
0.0
 10
244.7505183564109
 20
117.3270410604186
 30
0.0
 10
244.6389544134389
 20
117.4701248341003
 30
0.0
  0
SPLINE
  5
B8
330
1F
100
AcDbEntity
  8
0
  6
Continuous
 62
     7
370
    15
100
AcDbSpline
210
0.0
220
0.0
230
1.0
 70
    24
 71
     3
 72
    15
 73
    11
 74
     0
 42
0.000000001
 43
0.00000001
 40
0.0
 40
0.0
 40
0.0
 40
0.0
 40
0.0920657613126148
 40
0.1844804466012852
 40
0.3495514851719064
 40
0.5198009272493962
 40
0.692717154227598
 40
0.871794071011006
 40
0.9358391946447508
 40
1.0
 40
1.0
 40
1.0
 40
1.0
 10
244.6389544134389
 20
117.4701248341003
 30
0.0
 10
244.5729170832603
 20
117.4609097937519
 30
0.0
 10
244.4405921451942
 20
117.4424447885786
 30
0.0
 10
244.1812310045937
 20
117.4062527837082
 30
0.0
 10
243.8516162121238
 20
117.3602573807471
 30
0.0
 10
243.445545155076
 20
117.3035930491501
 30
0.0
 10
243.0305897015792
 20
117.2456889631365
 30
0.0
 10
242.7144168986168
 20
117.2015692943296
 30
0.0
 10
242.4893761117104
 20
117.1701664510322
 30
0.0
 10
242.397629492088
 20
117.1573638619607
 30
0.0
 10
242.3517147902485
 20
117.1509567914615
 30
0.0
  0
SPLINE
  5
B9
330
1F
100
AcDbEntity
  8
0
  6
Continuous
 62
     7
370
    15
100
AcDbSpline
210
0.0
220
0.0
230
1.0
 70
    24
 71
     3
 72
    10
 73
     6
 74
     0
 42
0.000000001
 43
0.00000001
 40
0.0
 40
0.0
 40
0.0
 40
0.0
 40
0.4391222274230511
 40
0.7513714712594598
 40
1.0
 40
1.0
 40
1.0
 40
1.0
 10
242.3517147902485
 20
117.1509567914615
 30
0.0
 10
242.2275649332965
 20
116.8445389130807
 30
0.0
 10
242.0151351020351
 20
116.3202346585448
 30
0.0
 10
241.7063333674561
 20
115.5580721021548
 30
0.0
 10
241.5526348230465
 20
115.178724247518
 30
0.0
 10
241.4845026116548
 20
115.010565151917
 30
0.0
  0
SPLINE
  5
BA
330
1F
100
AcDbEntity
  8
0
  6
Continuous
 62
     7
370
    15
100
AcDbSpline
210
0.0
220
0.0
230
1.0
 70
    24
 71
     3
 72
    11
 73
     7
 74
     0
 42
0.000000001
 43
0.00000001
 40
0.0
 40
0.0
 40
0.0
 40
0.0
 40
0.2164526859271234
 40
0.4403055508634177
 40
0.7518960204222
 40
1.0
 40
1.0
 40
1.0
 40
1.0
 10
241.4845026116548
 20
115.010565151917
 30
0.0
 10
241.5817746342761
 20
114.8858111525554
 30
0.0
 10
241.7796442579326
 20
114.6320380095887
 30
0.0
 10
242.1468395469382
 20
114.161100122047
 30
0.0
 10
242.5407271391382
 20
113.6559286338672
 30
0.0
 10
242.792793082881
 20
113.3326472448577
 30
0.0
 10
242.9045300562512
 20
113.1893415550113
 30
0.0
  0
SPLINE
  5
BB
330
1F
100
AcDbEntity
  8
0
  6
Continuous
 62
     7
370
    15
100
AcDbSpline
210
0.0
220
0.0
230
1.0
 70
    24
 71
     3
 72
    15
 73
    11
 74
     0
 42
0.000000001
 43
0.00000001
 40
0.0
 40
0.0
 40
0.0
 40
0.0
 40
0.0640504367340864
 40
0.1282061551362699
 40
0.3015971188615493
 40
0.4801922626499842
 40
0.644912149973226
 40
0.8155191712970238
 40
0.9075602129381688
 40
1.0
 40
1.0
 40
1.0
 40
1.0
 10
242.9045300562512
 20
113.1893415550113
 30
0.0
 10
242.9503649211832
 20
113.1957374848372
 30
0.0
 10
243.0421099912209
 20
113.208539857675
 30
0.0
 10
243.2629921839792
 20
113.2393623986987
 30
0.0
 10
243.5788719188822
 20
113.2834411719395
 30
0.0
 10
243.9894514017365
 20
113.3407346223335
 30
0.0
 10
244.399960984425
 20
113.3980183186557
 30
0.0
 10
244.7296637815404
 20
113.4440260020401
 30
0.0
 10
244.9931311339986
 20
113.4807909996077
 30
0.0
 10
245.1254614893043
 20
113.4992567607184
 30
0.0
 10
245.1917696794414
 20
113.50850959765
 30
0.0
  0
CIRCLE
  5
BC
330
1F
100
AcDbEntity
  8
0
  6
Continuous
 62
     7
370
    15
100
AcDbCircle
 10
243.7717422348
 20
115.3297331946
 30
0.0
 40
2.400000000000013
  0
SPLINE
  5
BD
330
1F
100
AcDbEntity
  8
0
  6
Continuous
 62
     7
370
    15
100
AcDbSpline
210
0.0
220
0.0
230
1.0
 70
    24
 71
     3
 72
    11
 73
     7
 74
     0
 42
0.000000001
 43
0.00000001
 40
0.0
 40
0.0
 40
0.0
 40
0.0
 40
0.2164526859271328
 40
0.440305550863431
 40
0.7518960204221968
 40
1.0
 40
1.0
 40
1.0
 40
1.0
 10
245.1917696794414
 20
113.50850959765
 30
0.0
 10
245.2511738008017
 20
113.6551266399983
 30
0.0
 10
245.3720129775808
 20
113.9533733322055
 30
0.0
 10
245.5962595072937
 20
114.5068427244052
 30
0.0
 10
245.836807053225
 20
115.1005451295757
 30
0.0
 10
245.9907439768065
 20
115.4804813347907
 30
0.0
 10
246.0589818580352
 20
115.6489012371945
 30
0.0
  0
CIRCLE
  5
BE
330
1F
100
AcDbEntity
  8
0
  6
Continuous
 62
     7
370
    15
100
AcDbCircle
 10
243.7717422348
 20
115.3297331946
 30
0.0
 40
4.000000000000003
  0
CIRCLE
  5
BF
330
1F
100
AcDbEntity
  8
0
  6
Continuous
 62
     7
370
    15
100
AcDbCircle
 10
243.7717422348
 20
115.3297331946
 30
0.0
 40
3.299999999999994
  0
ARC
  5
C0
330
1F
100
AcDbEntity
  8
0
  6
Continuous
 62
     7
370
    15
100
AcDbCircle
 10
243.7717422348
 20
115.3297331946
 30
0.0
 40
2.000000000000051
100
AcDbArc
 50
97.9439221561
 51
157.9439221561
  0
ARC
  5
C1
330
1F
100
AcDbEntity
  8
0
  6
Continuous
 62
     7
370
    15
100
AcDbCircle
 10
243.7717422348
 20
115.3297331946
 30
0.0
 40
2.000000000000007
100
AcDbArc
 50
37.9439221561
 51
97.9439221561
  0
ARC
  5
C2
330
1F
100
AcDbEntity
  8
0
  6
Continuous
 62
     7
370
    15
100
AcDbCircle
 10
243.7717422348
 20
115.3297331946
 30
0.0
 40
2.00000000000012
100
AcDbArc
 50
157.9439221561
 51
217.9439221561
  0
ARC
  5
C3
330
1F
100
AcDbEntity
  8
0
  6
Continuous
 62
     7
370
    15
100
AcDbCircle
 10
243.7717422348
 20
115.3297331946
 30
0.0
 40
2.00000000000012
100
AcDbArc
 50
217.9439221561
 51
277.9439221561
  0
ARC
  5
C4
330
1F
100
AcDbEntity
  8
0
  6
Continuous
 62
     7
370
    15
100
AcDbCircle
 10
243.7717422348
 20
115.3297331946
 30
0.0
 40
2.000000000000008
100
AcDbArc
 50
277.9439221561
 51
337.9439221561
  0
ARC
  5
C5
330
1F
100
AcDbEntity
  8
0
  6
Continuous
 62
     7
370
    15
100
AcDbCircle
 10
243.7717422348
 20
115.3297331946
 30
0.0
 40
2.000000000000008
100
AcDbArc
 50
337.9439221561
 51
37.9439221561
  0
LINE
  5
C6
330
1F
100
AcDbEntity
  8
0
  6
Continuous
 62
     7
370
    15
100
AcDbLine
 10
240.4717422348
 20
131.3297331946
 30
0.0
 11
247.0717422348
 21
131.3297331946
 31
0.0
  0
LWPOLYLINE
  5
C7
330
1F
100
AcDbEntity
  8
0
  6
Continuous
 62
     7
370
    15
100
AcDbPolyline
 90
       20
 70
   128
 43
0.0
 10
159.8578812814
 20
102.8149586621
 10
159.2225820836
 20
102.3503363169
 10
158.782249805
 20
101.7170474649
 10
158.5846012805
 20
100.9837187797
 10
158.6510547946
 20
100.2298178032
 10
158.9744090778
 20
99.5370414042
 10
159.5196236762
 20
98.9804626549
 10
160.2276161282
 20
98.6203954992
 10
161.021664466
 20
98.4958588002
 10
161.8157212313
 20
98.6203480419
 10
162.5237380525
 20
98.9803728831
 10
163.0689903209
 20
99.536919046
 10
163.3923914929
 20
100.2296761181
 10
163.4588960334
 20
100.9835731214
 10
163.2612971434
 20
101.7169136177
 10
162.8210077289
 20
102.3502287853
 10
162.1857399795
 20
102.8148890988
 10
161.4243350133
 20
103.0605414034
 10
160.6193028727
 20
103.0605654601
 10
159.8578812814
 20
102.8149586621
  0
LINE
  5
C8
330
1F
100
AcDbEntity
  8
0
  6
Continuous
 62
     7
370
    15
100
AcDbLine
 10
160.1146672175
 20
99.4073241294
 30
0.0
 11
161.846058859
 21
99.3624250704
 31
0.0
  0
LINE
  5
C9
330
1F
100
AcDbEntity
  8
0
  6
Continuous
 62
     7
370
    15
100
AcDbLine
 10
162.7531338763
 20
100.7489780442
 30
0.0
 11
161.846058859
 21
99.3624250704
 31
0.0
  0
LINE
  5
CA
330
1F
100
AcDbEntity
  8
0
  6
Continuous
 62
     7
370
    15
100
AcDbLine
 10
161.9288172522
 20
102.1804300771
 30
0.0
 11
162.7531338763
 21
100.7489780442
 31
0.0
  0
LINE
  5
CB
330
1F
100
AcDbEntity
  8
0
  6
Continuous
 62
     7
370
    15
100
AcDbLine
 10
161.9288172522
 20
102.1804300771
 30
0.0
 11
160.1974256107
 21
102.225329136
 31
0.0
  0
LINE
  5
CC
330
1F
100
AcDbEntity
  8
0
  6
Continuous
 62
     7
370
    15
100
AcDbLine
 10
159.2903505934
 20
100.8387761622
 30
0.0
 11
160.1974256107
 21
102.225329136
 31
0.0
  0
LINE
  5
CD
330
1F
100
AcDbEntity
  8
0
  6
Continuous
 62
     7
370
    15
100
AcDbLine
 10
159.2903505934
 20
100.8387761622
 30
0.0
 11
160.1146672175
 21
99.4073241294
 31
0.0
  0
LINE
  5
CE
330
1F
100
AcDbEntity
  8
0
  6
Continuous
 62
     7
370
    15
100
AcDbLine
 10
159.4998492496
 20
101.1590153698
 30
0.0
 11
160.1146672175
 21
100.091364416
 31
0.0
  0
LINE
  5
CF
330
1F
100
AcDbEntity
  8
0
  6
Continuous
 62
     7
370
    15
100
AcDbLine
 10
160.1146672175
 20
100.091364416
 30
0.0
 11
160.1146672175
 21
99.4073241294
 31
0.0
  0
LINE
  5
D0
330
1F
100
AcDbEntity
  8
0
  6
Continuous
 62
     7
370
    15
100
AcDbLine
 10
161.846058859
 20
100.046465357
 30
0.0
 11
161.846058859
 21
99.3624250704
 31
0.0
  0
LINE
  5
D1
330
1F
100
AcDbEntity
  8
0
  6
Continuous
 62
     7
370
    15
100
AcDbLine
 10
162.5436352201
 20
101.1127791233
 30
0.0
 11
161.846058859
 21
100.046465357
 31
0.0
  0
LINE
  5
D2
330
1F
100
AcDbEntity
  8
0
  6
Continuous
 62
     7
370
    15
100
AcDbLine
 10
160.1146672175
 20
100.091364416
 30
0.0
 11
161.846058859
 21
100.046465357
 31
0.0
  0
SPLINE
  5
D3
330
1F
100
AcDbEntity
  8
0
  6
HIDDEN
 62
     7
370
     0
100
AcDbSpline
210
0.0
220
0.0
230
1.0
 70
     8
 71
     3
 72
     9
 73
     5
 74
     0
 42
0.000000001
 43
0.00000001
 40
0.0
 40
0.0
 40
0.0
 40
0.0
 40
0.3267154957258129
 40
1.0
 40
1.0
 40
1.0
 40
1.0
 10
170.445709692456
 20
65.70597275838034
 30
0.0
 10
170.2889168191888
 20
65.74805498607506
 30
0.0
 10
169.8090103705559
 20
65.8768588788969
 30
0.0
 10
169.0547988369519
 20
66.05188552528402
 30
0.0
 10
168.5469998984314
 20
66.16972825413156
 30
0.0
  0
LWPOLYLINE
  5
D4
330
1F
100
AcDbEntity
  8
0
  6
HIDDEN
 62
     7
370
     0
100
AcDbPolyline
 90
       22
 70
   128
 43
0.0
 10
141.0911293467
 20
101.300578392
 10
141.2876043227
 20
100.429338736
 10
141.5937378681
 20
99.6355125468
 10
141.982328674
 20
98.989634765
 10
142.4188487419
 20
98.5490944659
 10
142.8645113482
 20
98.3530355882
 10
143.2797174146
 20
98.4188788238
 10
143.6275740599
 20
98.7407737121
 10
143.8771726948
 20
99.2901184798
 10
144.006335385
 20
100.0181014334
 10
144.0035854588
 20
100.8600380928
 10
143.8691672592
 20
101.7411186911
 10
143.6150244331
 20
102.5830553505
 10
143.263738686
 20
103.3110383041
 10
142.8465232979
 20
103.8603830718
 10
142.4004496871
 20
104.1822779601
 10
141.9651534514
 20
104.2481211957
 10
141.5793125717
 20
104.0520623181
 10
141.2772107034
 20
103.6115220189
 10
141.0856909232
 20
102.9656442371
 10
141.021770604
 20
102.1718180479
 10
141.0911293467
 20
101.300578392
  0
LWPOLYLINE
  5
D5
330
1F
100
AcDbEntity
  8
0
  6
HIDDEN
 62
     7
370
     0
100
AcDbPolyline
 90
       18
 70
   128
 43
0.0
 10
141.8039999353
 20
101.3565967102
 10
141.985652993
 20
100.6091640454
 10
142.2780213371
 20
99.9626763036
 10
142.6416190028
 20
99.5044452367
 10
143.0273401105
 20
99.2963574895
 10
143.3830908873
 20
99.3665164652
 10
143.6608252194
 20
99.7054468053
 10
143.8230335464
 20
100.2673740895
 10
143.8478087349
 20
100.9764069242
 10
143.7318047583
 20
101.7367864962
 10
143.4906885966
 20
102.4458193309
 10
143.1570243233
 20
103.0077466151
 10
142.7758751476
 20
103.3466769553
 10
142.3987173777
 20
103.416835931
 10
142.0764882601
 20
103.2087481837
 10
141.8527066229
 20
102.7505171168
 10
141.7575954162
 20
102.1040293751
 10
141.8039999353
 20
101.3565967102
  0
SPLINE
  5
D6
330
1F
100
AcDbEntity
  8
0
  6
HIDDEN
 62
     7
370
     0
100
AcDbSpline
210
0.0
220
0.0
230
1.0
 70
    11
 71
     3
 72
    66
 73
    62
 74
     0
 42
0.000000001
 43
0.00000001
 40
0.0
 40
0.0
 40
0.0
 40
0.0
 40
0.0312500000000002
 40
0.0312500000000002
 40
0.0625000000000004
 40
0.0625000000000004
 40
0.0937500000000007
 40
0.0937500000000007
 40
0.1250000000000009
 40
0.1250000000000009
 40
0.1562500000000011
 40
0.1562500000000011
 40
0.1875000000000013
 40
0.1875000000000013
 40
0.2187500000000016
 40
0.2187500000000016
 40
0.2343750000000017
 40
0.2343750000000017
 40
0.2500000000000018
 40
0.2500000000000018
 40
0.2812500000000018
 40
0.2812500000000018
 40
0.3125000000000019
 40
0.3125000000000019
 40
0.3750000000000018
 40
0.3750000000000018
 40
0.4375000000000018
 40
0.4375000000000018
 40
0.4687500000000015
 40
0.4687500000000015
 40
0.5000000000000012
 40
0.5000000000000012
 40
0.5312500000000009
 40
0.5312500000000009
 40
0.5625000000000006
 40
0.5625000000000006
 40
0.5937500000000002
 40
0.5937500000000002
 40
0.6249999999999999
 40
0.6249999999999999
 40
0.6874999999999994
 40
0.6874999999999994
 40
0.749999999999999
 40
0.749999999999999
 40
0.7812499999999989
 40
0.7812499999999989
 40
0.8124999999999988
 40
0.8124999999999988
 40
0.8437499999999987
 40
0.8437499999999987
 40
0.8593749999999989
 40
0.8593749999999989
 40
0.8749999999999991
 40
0.8749999999999991
 40
0.9062499999999993
 40
0.9062499999999993
 40
0.9374999999999996
 40
0.9374999999999996
 40
0.9687499999999998
 40
0.9687499999999998
 40
1.0
 40
1.0
 40
1.0
 40
1.0
 10
158.6027671746255
 20
104.6737723691451
 30
0.0
 10
158.5631768869855
 20
104.8273858888361
 30
0.0
 10
158.537915896304
 20
104.9796293164361
 30
0.0
 10
158.5167709902892
 20
105.2817342331845
 30
0.0
 10
158.5214187023827
 20
105.4322143770264
 30
0.0
 10
158.5601123701684
 20
105.714658650325
 30
0.0
 10
158.5944093292631
 20
105.8501053452983
 30
0.0
 10
158.6887201152124
 20
106.0992487438753
 30
0.0
 10
158.7478666555057
 20
106.2117401608981
 30
0.0
 10
158.8862028401979
 20
106.4129070961332
 30
0.0
 10
158.9648393561487
 20
106.500161252325
 30
0.0
 10
159.1293929081636
 20
106.6423708712743
 30
0.0
 10
159.2173276044253
 20
106.6988337991514
 30
0.0
 10
159.3849061507763
 20
106.773742714698
 30
0.0
 10
159.4655030275836
 20
106.792552633809
 30
0.0
 10
159.5603453930451
 20
106.7879847573357
 30
0.0
 10
159.5872696984671
 20
106.7811105018568
 30
0.0
 10
159.6297983735184
 20
106.7570203340306
 30
0.0
 10
159.6452846625905
 20
106.7396126820809
 30
0.0
 10
159.6727089892786
 20
106.6757203057944
 30
0.0
 10
159.6663463857464
 20
106.6165505350614
 30
0.0
 10
159.623696250211
 20
106.4831307270061
 30
0.0
 10
159.5882006429141
 20
106.4085753162442
 30
0.0
 10
159.4596632957441
 20
106.1662185849724
 30
0.0
 10
159.3484898763052
 20
105.9850266088131
 30
0.0
 10
159.1197640606829
 20
105.5813281657761
 30
0.0
 10
158.998698877076
 20
105.355303500463
 30
0.0
 10
158.8305849025237
 20
104.9767717635318
 30
0.0
 10
158.7762446858979
 20
104.8426932593385
 30
0.0
 10
158.677619611657
 20
104.5605133129881
 30
0.0
 10
158.6336167700948
 20
104.4138146402179
 30
0.0
 10
158.5628303425429
 20
104.1033978588252
 30
0.0
 10
158.5376401960872
 20
103.9448934290876
 30
0.0
 10
158.5167262217223
 20
103.6335298544881
 30
0.0
 10
158.5216880634752
 20
103.4858114758589
 30
0.0
 10
158.5598621818331
 20
103.2223094768869
 30
0.0
 10
158.5926985075324
 20
103.1077705578485
 30
0.0
 10
158.6734309698445
 20
102.9168048613799
 30
0.0
 10
158.7215326767864
 20
102.8386211734135
 30
0.0
 10
158.8779750735038
 20
102.6448259954741
 30
0.0
 10
158.9947645332481
 20
102.5710508414462
 30
0.0
 10
159.2298215053314
 20
102.4880018846656
 30
0.0
 10
159.3456190922909
 20
102.4808584917499
 30
0.0
 10
159.4963197959998
 20
102.5126325091798
 30
0.0
 10
159.5426395837551
 20
102.5305299611784
 30
0.0
 10
159.6187227946153
 20
102.5841294815698
 30
0.0
 10
159.6481089501178
 20
102.6196486521342
 30
0.0
 10
159.6715699833456
 20
102.7137580269372
 30
0.0
 10
159.6645303395396
 20
102.7728785007515
 30
0.0
 10
159.6155326426598
 20
102.882785730169
 30
0.0
 10
159.5926795980821
 20
102.9234289554761
 30
0.0
 10
159.5373370804103
 20
103.0097364393302
 30
0.0
 10
159.5047479449831
 20
103.0557779425868
 30
0.0
 10
159.3959494701229
 20
103.2035567507865
 30
0.0
 10
159.3113287484707
 20
103.3120253531048
 30
0.0
 10
159.1411405196661
 20
103.54607221575
 30
0.0
 10
159.0545104447203
 20
103.673083180491
 30
0.0
 10
158.8953944433796
 20
103.9387691419639
 30
0.0
 10
158.8210805490907
 20
104.0803460545389
 30
0.0
 10
158.6947517273454
 20
104.3710768803566
 30
0.0
 10
158.6423574622655
 20
104.5201588494542
 30
0.0
 10
158.6027671746255
 20
104.6737723691451
 30
0.0
  0
SPLINE
  5
D7
330
1F
100
AcDbEntity
  8
0
  6
HIDDEN
 62
     7
370
     0
100
AcDbSpline
210
0.0
220
0.0
230
1.0
 70
    11
 71
     3
 72
    66
 73
    62
 74
     0
 42
0.000000001
 43
0.00000001
 40
0.0
 40
0.0
 40
0.0
 40
0.0
 40
0.03125
 40
0.03125
 40
0.0625000000000001
 40
0.0625000000000001
 40
0.0937500000000001
 40
0.0937500000000001
 40
0.1250000000000002
 40
0.1250000000000002
 40
0.1562500000000002
 40
0.1562500000000002
 40
0.1875000000000003
 40
0.1875000000000003
 40
0.2187500000000003
 40
0.2187500000000003
 40
0.2500000000000003
 40
0.2500000000000003
 40
0.2812500000000003
 40
0.2812500000000003
 40
0.3125000000000003
 40
0.3125000000000003
 40
0.3437500000000003
 40
0.3437500000000003
 40
0.3750000000000003
 40
0.3750000000000003
 40
0.4062500000000003
 40
0.4062500000000003
 40
0.4375000000000003
 40
0.4375000000000003
 40
0.4687500000000003
 40
0.4687500000000003
 40
0.5000000000000002
 40
0.5000000000000002
 40
0.5312500000000002
 40
0.5312500000000002
 40
0.5625000000000003
 40
0.5625000000000003
 40
0.6250000000000003
 40
0.6250000000000003
 40
0.6562500000000003
 40
0.6562500000000003
 40
0.6875000000000004
 40
0.6875000000000004
 40
0.7187500000000004
 40
0.7187500000000004
 40
0.7500000000000004
 40
0.7500000000000004
 40
0.7812500000000004
 40
0.7812500000000004
 40
0.8125000000000003
 40
0.8125000000000003
 40
0.8437500000000003
 40
0.8437500000000003
 40
0.8750000000000002
 40
0.8750000000000002
 40
0.9375000000000001
 40
0.9375000000000001
 40
0.9687500000000001
 40
0.9687500000000001
 40
1.0
 40
1.0
 40
1.0
 40
1.0
 10
161.0217422348451
 20
112.1923696717137
 30
0.0
 10
160.8486915691747
 20
112.1923696717136
 30
0.0
 10
160.6809969151675
 20
112.2023291764502
 30
0.0
 10
160.354535365047
 20
112.2416118760055
 30
0.0
 10
160.1955775185863
 20
112.2713957827199
 30
0.0
 10
159.8996238213724
 20
112.3496480704093
 30
0.0
 10
159.7592527610269
 20
112.3988241415476
 30
0.0
 10
159.4979404802194
 20
112.5173805783782
 30
0.0
 10
159.3773009732003
 20
112.5863637774244
 30
0.0
 10
159.153852927357
 20
112.7472829739241
 30
0.0
 10
159.051049680091
 20
112.8397462862336
 30
0.0
 10
158.8713359953736
 20
113.0445774266704
 30
0.0
 10
158.7932435665585
 20
113.1576029511718
 30
0.0
 10
158.6625930744916
 20
113.4093456909583
 30
0.0
 10
158.6105422937133
 20
113.548585097844
 30
0.0
 10
158.5408798452624
 20
113.8411606602454
 30
0.0
 10
158.5223073101926
 20
113.9986043923172
 30
0.0
 10
158.5212031724919
 20
114.3199757097045
 30
0.0
 10
158.5380482122937
 20
114.4831129254593
 30
0.0
 10
158.6061338160997
 20
114.8140266889574
 30
0.0
 10
158.6565972211941
 20
114.9772083726142
 30
0.0
 10
158.7856457842473
 20
115.2935572590583
 30
0.0
 10
158.8650887978841
 20
115.4481890405807
 30
0.0
 10
159.0451466243828
 20
115.7378650769141
 30
0.0
 10
159.1468013537297
 20
115.8751375469112
 30
0.0
 10
159.3708152312407
 20
116.1310497112922
 30
0.0
 10
159.4912990281819
 20
116.2477824223337
 30
0.0
 10
159.7508154567747
 20
116.4588385521287
 30
0.0
 10
159.8913702108612
 20
116.5539633156412
 30
0.0
 10
160.1876637132206
 20
116.7126556633362
 30
0.0
 10
160.3430775096905
 20
116.776556858837
 30
0.0
 10
160.673534887387
 20
116.8663006743063
 30
0.0
 10
160.8431666928469
 20
116.890203648413
 30
0.0
 10
161.1866160072104
 20
116.8914372949788
 30
0.0
 10
161.3585167168906
 20
116.8682673742783
 30
0.0
 10
161.6870461916046
 20
116.7812406863699
 30
0.0
 10
161.8461125889999
 20
116.716941848979
 30
0.0
 10
162.2896913028577
 20
116.4820154013779
 30
0.0
 10
162.5534312211001
 20
116.2652476919465
 30
0.0
 10
162.8884250479255
 20
115.885528101722
 30
0.0
 10
162.9915883954098
 20
115.7474736685839
 30
0.0
 10
163.1727381076816
 20
115.4584577655562
 30
0.0
 10
163.2512401650697
 20
115.3073481724084
 30
0.0
 10
163.3822278689165
 20
114.990817256657
 30
0.0
 10
163.4337038930757
 20
114.8265697170188
 30
0.0
 10
163.5027306606716
 20
114.5009815891688
 30
0.0
 10
163.5212037035746
 20
114.3360575822715
 30
0.0
 10
163.5222573821606
 20
114.0120473000888
 30
0.0
 10
163.5051626123862
 20
113.857420903385
 30
0.0
 10
163.4373154104735
 20
113.5619631467478
 30
0.0
 10
163.3862946859093
 20
113.4222688603752
 30
0.0
 10
163.2571036708676
 20
113.1685406232757
 30
0.0
 10
163.177584634632
 20
113.0516985819868
 30
0.0
 10
162.9968453362132
 20
112.8438969935714
 30
0.0
 10
162.8956397895137
 20
112.7522339180418
 30
0.0
 10
162.5591837009886
 20
112.5081037194971
 30
0.0
 10
162.3003606585294
 20
112.3916696350041
 30
0.0
 10
161.8523645493553
 20
112.2722627567973
 30
0.0
 10
161.6964258559961
 20
112.2427813045478
 30
0.0
 10
161.3672919936964
 20
112.2026474039321
 30
0.0
 10
161.1947929005155
 20
112.1923696717136
 30
0.0
 10
161.0217422348451
 20
112.1923696717136
 30
0.0
  0
LINE
  5
D8
330
1F
100
AcDbEntity
  8
0
  6
HIDDEN
 62
     7
370
     0
100
AcDbLine
 10
240.4515592107
 20
130.9915153368
 30
0.0
 11
240.6017367542
 21
130.9686251376
 31
0.0
  0
CIRCLE
  5
D9
330
1F
100
AcDbEntity
  8
0
  6
HIDDEN
 62
     7
370
     0
100
AcDbCircle
 10
243.7717422348
 20
115.3297331946
 30
0.0
 40
3.5
  0
LINE
  5
DA
330
1F
100
AcDbEntity
  8
0
  6
HIDDEN
 62
     7
370
     0
100
AcDbLine
 10
140.8217422348
 20
150.6297331946
 30
0.0
 11
140.9933151101
 21
150.6297331946
 31
0.0
  0
ELLIPSE
  5
DB
330
1F
100
AcDbEntity
  8
0
  6
HIDDEN
 62
     7
370
     0
100
AcDbEllipse
 10
140.9933151101
 20
152.6297331946
 30
0.0
 11
0.0
 21
2.0
 31
0.0
210
0.0
220
0.0
230
1.0
 40
0.4142135624
 41
3.141592653589793
 42
4.712388980384681
  0
ELLIPSE
  5
DC
330
1F
100
AcDbEntity
  8
0
  6
HIDDEN
 62
     7
370
     0
100
AcDbEllipse
 10
140.9933151101
 20
78.0297331946
 30
0.0
 11
0.0
 21
2.0
 31
0.0
210
0.0
220
0.0
230
1.0
 40
0.4142135624
 41
4.712388980384702
 42
6.283185307179586
  0
LINE
  5
DD
330
1F
100
AcDbEntity
  8
0
  6
HIDDEN
 62
     7
370
     0
100
AcDbLine
 10
140.9933151101
 20
80.0297331946
 30
0.0
 11
140.8217422348
 21
80.0297331946
 31
0.0
  0
LINE
  5
DE
330
1F
100
AcDbEntity
  8
0
  6
HIDDEN
 62
     7
370
     0
100
AcDbLine
 10
141.8217422348
 20
68.0091630406
 30
0.0
 11
141.2078786549
 21
67.3952994607
 31
0.0
  0
LINE
  5
DF
330
1F
100
AcDbEntity
  8
0
  6
HIDDEN
 62
     7
370
     0
100
AcDbLine
 10
141.2078786549
 20
163.2641669284
 30
0.0
 11
141.8217422348
 21
162.6503033485
 31
0.0
  0
LINE
  5
E0
330
1F
100
AcDbEntity
  8
0
  6
HIDDEN
 62
     7
370
     0
100
AcDbLine
 10
141.8217422348
 20
162.6503033485
 30
0.0
 11
154.0543112714
 21
162.6503033485
 31
0.0
  0
LINE
  5
E1
330
1F
100
AcDbEntity
  8
0
  6
HIDDEN
 62
     7
370
     0
100
AcDbLine
 10
141.8217422348
 20
162.6503033485
 30
0.0
 11
141.8217422348
 21
152.6297331946
 31
0.0
  0
SPLINE
  5
E2
330
1F
100
AcDbEntity
  8
0
  6
HIDDEN
 62
     7
370
     0
100
AcDbSpline
210
0.0
220
0.0
230
1.0
 70
     8
 71
     3
 72
    13
 73
     9
 74
     0
 42
0.000000001
 43
0.00000001
 40
0.0
 40
0.0
 40
0.0
 40
0.0
 40
0.0005825290635634
 40
0.1623661983695077
 40
0.328738549447489
 40
0.499871825213266
 40
0.7262528256364211
 40
1.0
 40
1.0
 40
1.0
 40
1.0
 10
170.8213080774513
 20
66.32986600121498
 30
0.0
 10
170.8214528634863
 20
66.32982165902168
 30
0.0
 10
170.8618085462099
 20
66.31746232142969
 30
0.0
 10
170.7476539393128
 20
66.35309140742925
 30
0.0
 10
170.5235368316253
 20
66.42093937034014
 30
0.0
 10
170.0442279406359
 20
66.56003254449338
 30
0.0
 10
169.2507202829858
 20
66.79027912526017
 30
0.0
 10
168.3817024105065
 20
67.00576469602464
 30
0.0
 10
167.9060419717318
 20
67.12371159261379
 30
0.0
  0
LINE
  5
E3
330
1F
100
AcDbEntity
  8
0
  6
HIDDEN
 62
     7
370
     0
100
AcDbLine
 10
154.0543112714
 20
68.0091630406
 30
0.0
 11
141.8217422348
 21
68.0091630406
 31
0.0
  0
LINE
  5
E4
330
1F
100
AcDbEntity
  8
0
  6
HIDDEN
 62
     7
370
     0
100
AcDbLine
 10
141.8217422348
 20
68.0091630406
 30
0.0
 11
141.8217422348
 21
78.0297331946
 31
0.0
  0
LINE
  5
E5
330
1F
100
AcDbEntity
  8
0
  6
HIDDEN
 62
     7
370
     0
100
AcDbLine
 10
157.9717422348
 20
150.6297331946
 30
0.0
 11
168.8217422348
 21
150.6297331946
 31
0.0
  0
LINE
  5
E6
330
1F
100
AcDbEntity
  8
0
  6
HIDDEN
 62
     7
370
     0
100
AcDbLine
 10
157.9717422348
 20
80.0297331946
 30
0.0
 11
140.9933151101
 21
80.0297331946
 31
0.0
  0
LINE
  5
E7
330
1F
100
AcDbEntity
  8
0
  6
HIDDEN
 62
     7
370
     0
100
AcDbLine
 10
140.9933151101
 20
150.6297331946
 30
0.0
 11
157.9717422348
 21
150.6297331946
 31
0.0
  0
SPLINE
  5
E8
330
1F
100
AcDbEntity
  8
0
  6
HIDDEN
 62
     7
370
     0
100
AcDbSpline
210
0.0
220
0.0
230
1.0
 70
     8
 71
     3
 72
    14
 73
    10
 74
     0
 42
0.000000001
 43
0.00000001
 40
0.0
 40
0.0
 40
0.0
 40
0.0
 40
0.1878284864210363
 40
0.354582006350713
 40
0.5003029611496775
 40
0.6713289150616614
 40
0.8376430920894544
 40
0.9994176736746192
 40
1.0
 40
1.0
 40
1.0
 40
1.0
 10
167.9060419717318
 20
163.5357547964978
 30
0.0
 10
168.2390325143377
 20
163.6172990243431
 30
0.0
 10
168.8676509786762
 20
163.7712379527063
 30
0.0
 10
169.5672413253217
 20
163.9622627496269
 30
0.0
 10
170.114590651573
 20
164.1194768887273
 30
0.0
 10
170.5229324051204
 20
164.2384693964438
 30
0.0
 10
170.7477796200703
 20
164.3063650947088
 30
0.0
 10
170.8618101823279
 20
164.3420048068209
 30
0.0
 10
170.8214529350942
 20
164.3296447506129
 30
0.0
 10
170.8213081855558
 20
164.3296004187381
 30
0.0
  0
LINE
  5
E9
330
1F
100
AcDbEntity
  8
0
  6
HIDDEN
 62
     7
370
     0
100
AcDbLine
 10
168.8217422348
 20
80.0297331946
 30
0.0
 11
157.9717422348
 21
80.0297331946
 31
0.0
  0
LINE
  5
EA
330
1F
100
AcDbEntity
  8
0
  6
HIDDEN
 62
     7
370
     0
100
AcDbLine
 10
46.0217422348
 20
102.8297331946
 30
0.0
 11
46.0217422348
 21
127.8297331946
 31
0.0
  0
LINE
  5
EB
330
1F
100
AcDbEntity
  8
0
  6
HIDDEN
 62
     7
370
     0
100
AcDbLine
 10
49.3063465838
 20
104.8297331946
 30
0.0
 11
49.3063465838
 21
125.8297331946
 31
0.0
  0
LINE
  5
EC
330
1F
100
AcDbEntity
  8
0
  6
HIDDEN
 62
     7
370
     0
100
AcDbLine
 10
99.0217422348
 20
104.8297331946
 30
0.0
 11
99.0217422348
 21
125.8297331946
 31
0.0
  0
LINE
  5
ED
330
1F
100
AcDbEntity
  8
0
  6
HIDDEN
 62
     7
370
     0
100
AcDbLine
 10
103.2878526299
 20
111.9297331946
 30
0.0
 11
103.2878526299
 21
118.7297331946
 31
0.0
  0
LINE
  5
EE
330
1F
100
AcDbEntity
  8
0
  6
HIDDEN
 62
     7
370
     0
100
AcDbLine
 10
233.3217422348
 20
115.3297331946
 30
0.0
 11
233.3217422348
 21
106.6297331946
 31
0.0
  0
LINE
  5
EF
330
1F
100
AcDbEntity
  8
0
  6
HIDDEN
 62
     7
370
     0
100
AcDbLine
 10
233.3217422348
 20
124.0297331946
 30
0.0
 11
233.3217422348
 21
115.3297331946
 31
0.0
  0
LINE
  5
F0
330
1F
100
AcDbEntity
  8
0
  6
HIDDEN
 62
     7
370
     0
100
AcDbLine
 10
236.6877676386
 20
115.3297331946
 30
0.0
 11
236.6877676386
 21
106.3297331946
 31
0.0
  0
LINE
  5
F1
330
1F
100
AcDbEntity
  8
0
  6
HIDDEN
 62
     7
370
     0
100
AcDbLine
 10
236.6877676386
 20
124.3297331946
 30
0.0
 11
236.6877676386
 21
115.3297331946
 31
0.0
  0
SPLINE
  5
F2
330
1F
100
AcDbEntity
  8
0
  6
HIDDEN
 62
     7
370
     0
100
AcDbSpline
210
0.0
220
0.0
230
1.0
 70
     8
 71
     3
 72
     9
 73
     5
 74
     0
 42
0.000000001
 43
0.00000001
 40
0.0
 40
0.0
 40
0.0
 40
0.0
 40
0.4951995007203773
 40
1.0
 40
1.0
 40
1.0
 40
1.0
 10
167.9060264492822
 20
163.5357453589685
 30
0.0
 10
168.0112226710068
 20
163.6929011192213
 30
0.0
 10
168.2236546738089
 20
164.0102595980245
 30
0.0
 10
168.4383730573232
 20
164.3288861461275
 30
0.0
 10
168.5467630045256
 20
164.4897289866936
 30
0.0
  0
SPLINE
  5
F3
330
1F
100
AcDbEntity
  8
0
  6
HIDDEN
 62
     7
370
     0
100
AcDbSpline
210
0.0
220
0.0
230
1.0
 70
     8
 71
     3
 72
     9
 73
     5
 74
     0
 42
0.000000001
 43
0.00000001
 40
0.0
 40
0.0
 40
0.0
 40
0.0
 40
0.5048004990382029
 40
1.0
 40
1.0
 40
1.0
 40
1.0
 10
168.5467630045256
 20
66.16973740241797
 30
0.0
 10
168.4383730573779
 20
66.33058024290044
 30
0.0
 10
168.2236546738694
 20
66.64920679099006
 30
0.0
 10
168.0112226710612
 20
66.96656526980694
 30
0.0
 10
167.9060264492822
 20
67.12372103014303
 30
0.0
  0
SPLINE
  5
F4
330
1F
100
AcDbEntity
  8
0
  6
HIDDEN
 62
     7
370
     0
100
AcDbSpline
210
0.0
220
0.0
230
1.0
 70
     8
 71
     3
 72
    23
 73
    19
 74
     0
 42
0.000000001
 43
0.00000001
 40
0.0
 40
0.0
 40
0.0
 40
0.0
 40
0.0499457449747766
 40
0.151640182589889
 40
0.2035009367246781
 40
0.2534420043554075
 40
0.3548973817692532
 40
0.4064953737402215
 40
0.4588756663928392
 40
0.5652880991273422
 40
0.6194389401073388
 40
0.6736070402506603
 40
0.7281726899570046
 40
0.7840357284940559
 40
0.8403680858165617
 40
0.8920013671538158
 40
0.9972120018324492
 40
1.0
 40
1.0
 40
1.0
 40
1.0
 10
243.7717422348451
 20
123.6212951704442
 30
0.0
 10
243.8641498869293
 20
123.622227530177
 30
0.0
 10
244.1447085860104
 20
123.625058265812
 30
0.0
 10
244.5177329611302
 20
123.6514528973372
 30
0.0
 10
244.8774901621726
 20
123.6932920565904
 30
0.0
 10
245.2262324804214
 20
123.7449346798196
 30
0.0
 10
245.556145969431
 20
123.8087289851186
 30
0.0
 10
245.8645316655345
 20
123.8803830325937
 30
0.0
 10
246.1614604012526
 20
123.9567889507431
 30
0.0
 10
246.4307152595359
 20
124.0358827823544
 30
0.0
 10
246.6644793555302
 20
124.1109443563388
 30
0.0
 10
246.8216043152091
 20
124.1640612399861
 30
0.0
 10
246.9586272920158
 20
124.2123919470127
 30
0.0
 10
247.0736900240147
 20
124.2544050372556
 30
0.0
 10
247.1625863901892
 20
124.2877636278857
 30
0.0
 10
247.2434474895765
 20
124.3186686066794
 30
0.0
 10
247.2792256562886
 20
124.3326398145645
 30
0.0
 10
247.2713213714109
 20
124.3295697460984
 30
0.0
 10
247.2711173213117
 20
124.3294904918984
 30
0.0
  0
LINE
  5
F5
330
1F
100
AcDbEntity
  8
0
  6
HIDDEN
 62
     7
370
     0
100
AcDbLine
 10
244.0796514581
 20
123.6279857279
 30
0.0
 11
243.5874283646
 21
123.6250263096
 31
0.0
  0
SPLINE
  5
F6
330
1F
100
AcDbEntity
  8
0
  6
HIDDEN
 62
     7
370
     0
100
AcDbSpline
210
0.0
220
0.0
230
1.0
 70
     8
 71
     3
 72
    22
 73
    18
 74
     0
 42
0.000000001
 43
0.00000001
 40
0.0
 40
0.0
 40
0.0
 40
0.0
 40
0.0857172758004432
 40
0.1378362142459938
 40
0.1867349162579084
 40
0.2860844735031731
 40
0.3366213187997305
 40
0.3876790799748125
 40
0.4913594451801604
 40
0.5440780701312861
 40
0.5979913549953891
 40
0.7076681988817806
 40
0.7635916051184344
 40
0.8212550251376747
 40
0.8794493113089685
 40
0.93940429779176
 40
1.0
 40
1.0
 40
1.0
 40
1.0
 10
240.2779515415677
 20
124.3273264837089
 30
0.0
 10
240.2812594284365
 20
124.3260263981614
 30
0.0
 10
240.2865786199168
 20
124.3239358176058
 30
0.0
 10
240.3506269305811
 20
124.299287264335
 30
0.0
 10
240.4437650898888
 20
124.2640317625625
 30
0.0
 10
240.578069930104
 20
124.2145189128986
 30
0.0
 10
240.7513599604681
 20
124.153954718122
 30
0.0
 10
240.9535155002277
 20
124.0861544718768
 30
0.0
 10
241.1948297228638
 20
124.0108550393211
 30
0.0
 10
241.4721314991742
 20
123.9334197229864
 30
0.0
 10
241.778836478284
 20
123.8550069095862
 30
0.0
 10
242.1217606489516
 20
123.7805541573543
 30
0.0
 10
242.4952420738136
 20
123.7173494100701
 30
0.0
 10
242.794063029516
 20
123.6768354181188
 30
0.0
 10
243.1092387822775
 20
123.6458183824071
 30
0.0
 10
243.4364832916229
 20
123.6252345121026
 30
0.0
 10
243.6595939828966
 20
123.622612928821
 30
0.0
 10
243.7717422348451
 20
123.6212951704442
 30
0.0
  0
LINE
  5
F7
330
1F
100
AcDbEntity
  8
0
  6
HIDDEN
 62
     7
370
     0
100
AcDbLine
 10
243.7717422348
 20
129.8297331946
 30
0.0
 11
247.2717422348
 21
129.8297331946
 31
0.0
  0
LINE
  5
F8
330
1F
100
AcDbEntity
  8
0
  6
HIDDEN
 62
     7
370
     0
100
AcDbLine
 10
240.2717422348
 20
129.8297331946
 30
0.0
 11
243.7717422348
 21
129.8297331946
 31
0.0
  0
SPLINE
  5
F9
330
1F
100
AcDbEntity
  8
0
  6
HIDDEN
 62
     7
370
     0
100
AcDbSpline
210
0.0
220
0.0
230
1.0
 70
    11
 71
     3
 72
    66
 73
    62
 74
     0
 42
0.000000001
 43
0.00000001
 40
0.0
 40
0.0
 40
0.0
 40
0.0
 40
0.03125
 40
0.03125
 40
0.0625
 40
0.0625
 40
0.0937499999999999
 40
0.0937499999999999
 40
0.1249999999999999
 40
0.1249999999999999
 40
0.1562499999999999
 40
0.1562499999999999
 40
0.1874999999999998
 40
0.1874999999999998
 40
0.2187499999999998
 40
0.2187499999999998
 40
0.2499999999999997
 40
0.2499999999999997
 40
0.2812499999999997
 40
0.2812499999999997
 40
0.3124999999999997
 40
0.3124999999999997
 40
0.3437499999999997
 40
0.3437499999999997
 40
0.3749999999999998
 40
0.3749999999999998
 40
0.4062499999999998
 40
0.4062499999999998
 40
0.4374999999999998
 40
0.4374999999999998
 40
0.4687499999999998
 40
0.4687499999999998
 40
0.4999999999999999
 40
0.4999999999999999
 40
0.5312499999999999
 40
0.5312499999999999
 40
0.5624999999999999
 40
0.5624999999999999
 40
0.6249999999999999
 40
0.6249999999999999
 40
0.6562499999999999
 40
0.6562499999999999
 40
0.6874999999999999
 40
0.6874999999999999
 40
0.7187499999999999
 40
0.7187499999999999
 40
0.7499999999999998
 40
0.7499999999999998
 40
0.7812499999999998
 40
0.7812499999999998
 40
0.8124999999999998
 40
0.8124999999999998
 40
0.8437499999999999
 40
0.8437499999999999
 40
0.8749999999999999
 40
0.8749999999999999
 40
0.9374999999999999
 40
0.9374999999999999
 40
0.9687499999999999
 40
0.9687499999999999
 40
1.0
 40
1.0
 40
1.0
 40
1.0
 10
161.0217422348451
 20
113.7686336134685
 30
0.0
 10
161.1947929005154
 20
113.7686336134685
 30
0.0
 10
161.3624875545227
 20
113.7919951485275
 30
0.0
 10
161.6889491046431
 20
113.878990154505
 30
0.0
 10
161.8479069511039
 20
113.9433070815735
 30
0.0
 10
162.1438606483178
 20
114.1003866819572
 30
0.0
 10
162.2842317086633
 20
114.1945280139294
 30
0.0
 10
162.5455439894708
 20
114.4055635118246
 30
0.0
 10
162.6661834964899
 20
114.5218824473005
 30
0.0
 10
162.8896315423332
 20
114.7754496617454
 30
0.0
 10
162.9924347895992
 20
114.9133185364541
 30
0.0
 10
163.1721484743165
 20
115.2000924926503
 30
0.0
 10
163.2502409031317
 20
115.3501695281764
 30
0.0
 10
163.3808913951986
 20
115.6649617999058
 30
0.0
 10
163.4329421759769
 20
115.8299712053137
 30
0.0
 10
163.5026046244278
 20
116.1572313461772
 30
0.0
 10
163.5211771594976
 20
116.3240571512042
 30
0.0
 10
163.5222812971983
 20
116.6459838162858
 30
0.0
 10
163.5054362573965
 20
116.8006058748326
 30
0.0
 10
163.4373506535904
 20
117.0975966004684
 30
0.0
 10
163.386887248496
 20
117.2357666491902
 30
0.0
 10
163.2578386854429
 20
117.4897465822827
 30
0.0
 10
163.1783956718061
 20
117.6066219849939
 30
0.0
 10
162.9983378453074
 20
117.8140640485286
 30
0.0
 10
162.8966831159605
 20
117.9063444270662
 30
0.0
 10
162.6726692384495
 20
118.0691479840159
 30
0.0
 10
162.5521854415082
 20
118.1385026628674
 30
0.0
 10
162.2926690129155
 20
118.2573520857636
 30
0.0
 10
162.152114258829
 20
118.307185118873
 30
0.0
 10
161.8558207564696
 20
118.3864051032353
 30
0.0
 10
161.7004069599996
 20
118.4160540992757
 30
0.0
 10
161.3699495823032
 20
118.4566375682185
 30
0.0
 10
161.2003177768433
 20
118.466823786607
 30
0.0
 10
160.8568684624798
 20
118.467358972722
 30
0.0
 10
160.6849677527995
 20
118.4574877699383
 30
0.0
 10
160.3564382780856
 20
118.4182084812273
 30
0.0
 10
160.1973718806902
 20
118.3884412385165
 30
0.0
 10
159.7537931668325
 20
118.2714652634515
 30
0.0
 10
159.4900532485901
 20
118.1540543824347
 30
0.0
 10
159.1550594217647
 20
117.9131755031268
 30
0.0
 10
159.0518960742803
 20
117.8206614251338
 30
0.0
 10
158.8707463620086
 20
117.6142402537621
 30
0.0
 10
158.7922443046205
 20
117.5003889672986
 30
0.0
 10
158.6612566007736
 20
117.2470864750122
 30
0.0
 10
158.6097805766145
 20
117.1083336229433
 30
0.0
 10
158.5407538090186
 20
116.8171165033715
 30
0.0
 10
158.5222807661156
 20
116.6615236919582
 30
0.0
 10
158.5212270875295
 20
116.3380433781974
 30
0.0
 10
158.538321857304
 20
116.1747770124381
 30
0.0
 10
158.6061690592167
 20
115.8455160001339
 30
0.0
 10
158.6571897837809
 20
115.6805362636444
 30
0.0
 10
158.7863807988226
 20
115.364379250361
 30
0.0
 10
158.8658998350582
 20
115.2097484468445
 30
0.0
 10
159.046639133477
 20
114.9194271576787
 30
0.0
 10
159.1478446801765
 20
114.7829874282292
 30
0.0
 10
159.4843007687016
 20
114.3990728906934
 30
0.0
 10
159.7431238111608
 20
114.1844981256756
 30
0.0
 10
160.1911199203348
 20
113.9451641719498
 30
0.0
 10
160.3470586136941
 20
113.8815369622982
 30
0.0
 10
160.6761924759937
 20
113.7927413206877
 30
0.0
 10
160.8486915691747
 20
113.7686336134685
 30
0.0
 10
161.0217422348451
 20
113.7686336134685
 30
0.0
  0
SPLINE
  5
FA
330
1F
100
AcDbEntity
  8
0
  6
HIDDEN
 62
     7
370
     0
100
AcDbSpline
210
0.0
220
0.0
230
1.0
 70
    11
 71
     3
 72
    66
 73
    62
 74
     0
 42
0.000000001
 43
0.00000001
 40
0.0
 40
0.0
 40
0.0
 40
0.0
 40
0.0312500000000003
 40
0.0312500000000003
 40
0.0625000000000005
 40
0.0625000000000005
 40
0.0937500000000008
 40
0.0937500000000008
 40
0.1250000000000011
 40
0.1250000000000011
 40
0.1562500000000013
 40
0.1562500000000013
 40
0.1875000000000016
 40
0.1875000000000016
 40
0.2187500000000018
 40
0.2187500000000018
 40
0.2500000000000021
 40
0.2500000000000021
 40
0.2812500000000024
 40
0.2812500000000024
 40
0.3125000000000027
 40
0.3125000000000027
 40
0.3437500000000026
 40
0.3437500000000026
 40
0.3750000000000026
 40
0.3750000000000026
 40
0.4062500000000026
 40
0.4062500000000026
 40
0.4375000000000026
 40
0.4375000000000026
 40
0.4687500000000026
 40
0.4687500000000026
 40
0.5000000000000026
 40
0.5000000000000026
 40
0.5312500000000024
 40
0.5312500000000024
 40
0.5625000000000024
 40
0.5625000000000024
 40
0.6250000000000021
 40
0.6250000000000021
 40
0.656250000000002
 40
0.656250000000002
 40
0.6875000000000018
 40
0.6875000000000018
 40
0.7187500000000017
 40
0.7187500000000017
 40
0.7500000000000014
 40
0.7500000000000014
 40
0.7812500000000012
 40
0.7812500000000012
 40
0.8125000000000011
 40
0.8125000000000011
 40
0.8437500000000009
 40
0.8437500000000009
 40
0.8750000000000007
 40
0.8750000000000007
 40
0.9062500000000006
 40
0.9062500000000006
 40
0.9375000000000003
 40
0.9375000000000003
 40
1.0
 40
1.0
 40
1.0
 40
1.0
 10
161.0217422348451
 20
127.4911874014696
 30
0.0
 10
160.8565419441812
 20
127.4911874014696
 30
0.0
 10
160.6941094028847
 20
127.5067529927515
 30
0.0
 10
160.3745512472947
 20
127.5676992645811
 30
0.0
 10
160.2157679093176
 20
127.6138213085664
 30
0.0
 10
159.9130298928383
 20
127.7340844961545
 30
0.0
 10
159.7694507277039
 20
127.8076281455751
 30
0.0
 10
159.4977209978359
 20
127.9811450685075
 30
0.0
 10
159.3690924342982
 20
128.082017725294
 30
0.0
 10
159.138526672631
 20
128.3020025141923
 30
0.0
 10
159.0350526713817
 20
128.4218816777811
 30
0.0
 10
158.8522921334559
 20
128.6817230443785
 30
0.0
 10
158.7746478772273
 20
128.8198124749508
 30
0.0
 10
158.6499552265372
 20
129.1047949071989
 30
0.0
 10
158.6019512459587
 20
129.2537900165414
 30
0.0
 10
158.5377195036405
 20
129.5583151039361
 30
0.0
 10
158.5218300595983
 20
129.7110844513726
 30
0.0
 10
158.5216551292431
 20
130.0175741329867
 30
0.0
 10
158.537885780578
 20
130.1729009032817
 30
0.0
 10
158.6016670032876
 20
130.4729631091802
 30
0.0
 10
158.6488591146839
 20
130.6184978216794
 30
0.0
 10
158.7740257323418
 20
130.9006311020013
 30
0.0
 10
158.8522852197168
 20
131.036770943356
 30
0.0
 10
159.0332054030722
 20
131.2883074931255
 30
0.0
 10
159.1364906319961
 20
131.4053343369688
 30
0.0
 10
159.3697423740448
 20
131.6214096305903
 30
0.0
 10
159.4961562423103
 20
131.7171135544756
 30
0.0
 10
159.766828513005
 20
131.8842665512472
 30
0.0
 10
159.9129102851693
 20
131.9564277368703
 30
0.0
 10
160.2157947306421
 20
132.0720817788268
 30
0.0
 10
160.3716250902818
 20
132.1156145860095
 30
0.0
 10
160.6919705795473
 20
132.1745104889429
 30
0.0
 10
160.8576806655189
 20
132.1895965919628
 30
0.0
 10
161.1840120542154
 20
132.1897041236295
 30
0.0
 10
161.3461991400423
 20
132.1752134664398
 30
0.0
 10
161.6685747212509
 20
132.1164854021627
 30
0.0
 10
161.8265901952884
 20
132.0723545950333
 30
0.0
 10
162.2780010703639
 20
131.9004249964354
 30
0.0
 10
162.5570805274161
 20
131.7288513037644
 30
0.0
 10
162.9031542319145
 20
131.4092004853981
 30
0.0
 10
163.0087962478291
 20
131.2901593560097
 30
0.0
 10
163.1905797237999
 20
131.0378395951512
 30
0.0
 10
163.2674675471839
 20
130.9043752837799
 30
0.0
 10
163.3931221045542
 20
130.6226098712276
 30
0.0
 10
163.4414301804689
 20
130.4741891395966
 30
0.0
 10
163.5052480659092
 20
130.17513954182
 30
0.0
 10
163.5215762429521
 20
130.0229364719528
 30
0.0
 10
163.5219057330117
 20
129.712934613113
 30
0.0
 10
163.5058092211771
 20
129.559411946015
 30
0.0
 10
163.4425804839159
 20
129.2578832284359
 30
0.0
 10
163.3947438905053
 20
129.1079484031341
 30
0.0
 10
163.2694005725919
 20
128.8207293070433
 30
0.0
 10
163.1927038980667
 20
128.684350392727
 30
0.0
 10
163.011652531415
 20
128.4259948347128
 30
0.0
 10
162.9061769210541
 20
128.3033196583385
 30
0.0
 10
162.6756503523779
 20
128.0830659742864
 30
0.0
 10
162.5499309147475
 20
127.9841404028526
 30
0.0
 10
162.2771640655507
 20
127.809301721931
 30
0.0
 10
162.1314446891447
 20
127.7346248769506
 30
0.0
 10
161.6803755840367
 20
127.5549986614578
 30
0.0
 10
161.3521428161729
 20
127.4911874014696
 30
0.0
 10
161.0217422348451
 20
127.4911874014696
 30
0.0
  0
SPLINE
  5
FB
330
1F
100
AcDbEntity
  8
0
  6
HIDDEN
 62
     7
370
     0
100
AcDbSpline
210
0.0
220
0.0
230
1.0
 70
    11
 71
     3
 72
    60
 73
    56
 74
     0
 42
0.000000001
 43
0.00000001
 40
0.0
 40
0.0
 40
0.0
 40
0.0
 40
0.0312499999999998
 40
0.0312499999999998
 40
0.0624999999999995
 40
0.0624999999999995
 40
0.0937499999999993
 40
0.0937499999999993
 40
0.124999999999999
 40
0.124999999999999
 40
0.1562499999999988
 40
0.1562499999999988
 40
0.1874999999999985
 40
0.1874999999999985
 40
0.2187499999999983
 40
0.2187499999999983
 40
0.249999999999998
 40
0.249999999999998
 40
0.3124999999999969
 40
0.3124999999999969
 40
0.3749999999999959
 40
0.3749999999999959
 40
0.4062499999999958
 40
0.4062499999999958
 40
0.4374999999999956
 40
0.4374999999999956
 40
0.4531249999999954
 40
0.4531249999999954
 40
0.4687499999999953
 40
0.4687499999999953
 40
0.4999999999999954
 40
0.4999999999999954
 40
0.5624999999999958
 40
0.5624999999999958
 40
0.6249999999999962
 40
0.6249999999999962
 40
0.6874999999999966
 40
0.6874999999999966
 40
0.7187499999999969
 40
0.7187499999999969
 40
0.7499999999999972
 40
0.7499999999999972
 40
0.7812499999999976
 40
0.7812499999999976
 40
0.8124999999999978
 40
0.8124999999999978
 40
0.8437499999999981
 40
0.8437499999999981
 40
0.8749999999999984
 40
0.8749999999999984
 40
0.9062499999999988
 40
0.9062499999999988
 40
0.937499999999999
 40
0.937499999999999
 40
1.0
 40
1.0
 40
1.0
 40
1.0
 10
158.6027671746254
 20
124.7992083948329
 30
0.0
 10
158.6423572574722
 20
124.6677278634789
 30
0.0
 10
158.6946688783924
 20
124.5485440127992
 30
0.0
 10
158.820388983995
 20
124.3333505254713
 30
0.0
 10
158.8948120144392
 20
124.236762619863
 30
0.0
 10
159.0535223226322
 20
124.076201708108
 30
0.0
 10
159.1384009224377
 20
124.010922471406
 30
0.0
 10
159.3101741419796
 20
123.9134202968488
 30
0.0
 10
159.3941843782756
 20
123.8829452000516
 30
0.0
 10
159.5395803015542
 20
123.8631962316941
 30
0.0
 10
159.5978465500635
 20
123.8749727811903
 30
0.0
 10
159.6644512748736
 20
123.9393931239737
 30
0.0
 10
159.6716121592714
 20
123.9901062620535
 30
0.0
 10
159.6484668398891
 20
124.1131297744285
 30
0.0
 10
159.6195587539195
 20
124.1836010007138
 30
0.0
 10
159.5441379960743
 20
124.3372226633783
 30
0.0
 10
159.497192523298
 20
124.4208579315622
 30
0.0
 10
159.3455506316765
 20
124.6842381705723
 30
0.0
 10
159.2296234944133
 20
124.8777870959959
 30
0.0
 10
158.9959979234309
 20
125.3146565678918
 30
0.0
 10
158.8773151567291
 20
125.5576617020792
 30
0.0
 10
158.7208438477734
 20
125.9687362406089
 30
0.0
 10
158.6728571992213
 20
126.1124078060922
 30
0.0
 10
158.592248189431
 20
126.4128707340512
 30
0.0
 10
158.5595486605359
 20
126.5713699883255
 30
0.0
 10
158.531128051192
 20
126.8065805101548
 30
0.0
 10
158.5249819792184
 20
126.8858281179513
 30
0.0
 10
158.5205037774535
 20
127.0375056884107
 30
0.0
 10
158.5220199878657
 20
127.1107137607191
 30
0.0
 10
158.5377829275422
 20
127.3224694919461
 30
0.0
 10
158.5632569822276
 20
127.4483676378075
 30
0.0
 10
158.6696217259764
 20
127.7700980038267
 30
0.0
 10
158.775499755247
 20
127.9081117201868
 30
0.0
 10
158.998669976192
 20
128.093923571317
 30
0.0
 10
159.1195564083192
 20
128.1428476060732
 30
0.0
 10
159.348638882001
 20
128.1788989318642
 30
0.0
 10
159.4588017002515
 20
128.1670207486625
 30
0.0
 10
159.5867848676025
 20
128.102413187113
 30
0.0
 10
159.623126213015
 20
128.0724059733496
 30
0.0
 10
159.6662162161751
 20
127.9918778497996
 30
0.0
 10
159.672701024777
 20
127.9402974325479
 30
0.0
 10
159.6366602720761
 20
127.8107502229222
 30
0.0
 10
159.5924410569509
 20
127.7308913984288
 30
0.0
 10
159.4667910821387
 20
127.5487619231238
 30
0.0
 10
159.3856669506573
 20
127.4447094831037
 30
0.0
 10
159.2187215805629
 20
127.2217455874244
 30
0.0
 10
159.130833415833
 20
127.0999422053791
 30
0.0
 10
158.9651939185839
 20
126.8423809823195
 30
0.0
 10
158.8872478304465
 20
126.7069021220056
 30
0.0
 10
158.7479920967749
 20
126.4201478006575
 30
0.0
 10
158.6889663778759
 20
126.2736957627665
 30
0.0
 10
158.5951814241727
 20
125.9734510328645
 30
0.0
 10
158.5603683660632
 20
125.8177491767393
 30
0.0
 10
158.5020507613866
 20
125.3619861894776
 30
0.0
 10
158.5235870089317
 20
125.0621694575408
 30
0.0
 10
158.6027671746254
 20
124.7992083948329
 30
0.0
  0
LWPOLYLINE
  5
FC
330
1F
100
AcDbEntity
  8
0
  6
HIDDEN
 62
     7
370
     0
100
AcDbPolyline
 90
       18
 70
   128
 43
0.0
 10
141.8039999353
 20
128.1163840538
 10
141.985652993
 20
127.5841725749
 10
142.2780213371
 20
127.2840806635
 10
142.6416190028
 20
127.2566373952
 10
143.0273401105
 20
127.5055491353
 10
143.3830908873
 20
127.9971989741
 10
143.6608252194
 20
128.6651868766
 10
143.8230335464
 20
129.4192973751
 10
143.8478087349
 20
130.157683668
 10
143.7318047583
 20
130.7806225951
 10
143.4906885966
 20
131.2039828022
 10
143.1570243233
 20
131.3705871477
 10
142.7758751476
 20
131.2579347913
 10
142.3987173777
 20
130.8812400582
 10
142.0764882601
 20
130.2913776592
 10
141.8527066229
 20
129.56801178
 10
141.7575954162
 20
128.8088369909
 10
141.8039999353
 20
128.1163840538
  0
LWPOLYLINE
  5
FD
330
1F
100
AcDbEntity
  8
0
  6
HIDDEN
 62
     7
370
     0
100
AcDbPolyline
 90
       22
 70
   128
 43
0.0
 10
141.0911293467
 20
127.6639085327
 10
141.2876043227
 20
127.0254509607
 10
141.5937378681
 20
126.5943295096
 10
141.982328674
 20
126.4088512122
 10
142.4188487419
 20
126.4854966291
 10
142.8645113482
 20
126.8174554788
 10
143.2797174146
 20
127.3752317606
 10
143.6275740599
 20
128.1092646041
 10
143.8771726948
 20
128.95433197
 10
144.006335385
 20
129.8353459143
 10
144.0035854588
 20
130.6740244817
 10
143.8691672592
 20
131.3958474011
 10
143.6150244331
 20
131.9366775384
 10
143.263738686
 20
132.2484597626
 10
142.8465232979
 20
132.3034908546
 10
142.4004496871
 20
132.0968810607
 10
141.9651534514
 20
131.6469885675
 10
141.5793125717
 20
130.9937882975
 10
141.2772107034
 20
130.1953199612
 10
141.0856909232
 20
129.3225309742
 10
141.021770604
 20
128.4529724683
 10
141.0911293467
 20
127.6639085327
  0
LINE
  5
FE
330
1F
100
AcDbEntity
  8
0
  6
HIDDEN
 62
     7
370
     0
100
AcDbLine
 10
239.7717422348
 20
130.6297331946
 30
0.0
 11
247.7717422348
 21
130.6297331946
 31
0.0
  0
LINE
  5
FF
330
1F
100
AcDbEntity
  8
0
  6
HIDDEN
 62
     7
370
     0
100
AcDbLine
 10
239.7717422348
 20
125.4349890829
 30
0.0
 11
247.7717422348
 21
125.4349890829
 31
0.0
  0
LINE
  5
100
330
1F
100
AcDbEntity
  8
0
  6
HIDDEN
 62
     7
370
     0
100
AcDbLine
 10
241.1019403312
 20
121.3297331946
 30
0.0
 11
246.4415438169
 21
121.3297331946
 31
0.0
  0
SPLINE
  5
101
330
1F
100
AcDbEntity
  8
0
  6
HIDDEN
 62
     7
370
     0
100
AcDbSpline
210
0.0
220
0.0
230
1.0
 70
     8
 71
     3
 72
    11
 73
     7
 74
     0
 42
0.000000001
 43
0.00000001
 40
0.0
 40
0.0
 40
0.0
 40
0.0
 40
0.2164526859271326
 40
0.4403055508634289
 40
0.7518960204221987
 40
1.0
 40
1.0
 40
1.0
 40
1.0
 10
241.771742234845
 20
131.2391342713143
 30
0.0
 10
241.9087424357797
 20
131.1666963406515
 30
0.0
 10
242.1874266603833
 20
131.0193439396994
 30
0.0
 10
242.7045931284017
 20
130.8965220541693
 30
0.0
 10
243.2593536630643
 20
130.9705688038935
 30
0.0
 10
243.6143692575897
 20
131.156648147455
 30
0.0
 10
243.771742234845
 20
131.2391342713142
 30
0.0
  0
SPLINE
  5
102
330
1F
100
AcDbEntity
  8
0
  6
HIDDEN
 62
     7
370
     0
100
AcDbSpline
210
0.0
220
0.0
230
1.0
 70
     8
 71
     3
 72
    10
 73
     6
 74
     0
 42
0.000000001
 43
0.00000001
 40
0.0
 40
0.0
 40
0.0
 40
0.0
 40
0.4391222274230412
 40
0.7513714712594631
 40
1.0
 40
1.0
 40
1.0
 40
1.0
 10
243.771742234845
 20
131.2391342713142
 30
0.0
 10
244.0580616847248
 20
131.1021534474837
 30
0.0
 10
244.5479760021322
 20
130.8677688577079
 30
0.0
 10
245.2601471228829
 20
130.9719561503609
 30
0.0
 10
245.6146129576659
 20
131.157074251502
 30
0.0
 10
245.7717422348451
 20
131.2391342713143
 30
0.0
  0
LINE
  5
103
330
1F
100
AcDbEntity
  8
0
  6
HIDDEN
 62
     7
370
     0
100
AcDbLine
 10
243.7717422348
 20
126.3297331946
 30
0.0
 11
243.7717422348
 21
131.2391342713
 31
0.0
  0
LINE
  5
104
330
1F
100
AcDbEntity
  8
0
  6
HIDDEN
 62
     7
370
     0
100
AcDbLine
 10
244.7717422348
 20
126.3297331946
 30
0.0
 11
243.7717422348
 21
126.3297331946
 31
0.0
  0
LINE
  5
105
330
1F
100
AcDbEntity
  8
0
  6
HIDDEN
 62
     7
370
     0
100
AcDbLine
 10
243.7717422348
 20
126.3297331946
 30
0.0
 11
242.7717422348
 21
126.3297331946
 31
0.0
  0
LINE
  5
106
330
1F
100
AcDbEntity
  8
0
  6
HIDDEN
 62
     7
370
     0
100
AcDbLine
 10
241.7717422348
 20
125.3297331946
 30
0.0
 11
245.7717422348
 21
125.3297331946
 31
0.0
  0
LINE
  5
107
330
1F
100
AcDbEntity
  8
0
  6
HIDDEN
 62
     7
370
     0
100
AcDbLine
 10
242.7717422348
 20
126.3297331946
 30
0.0
 11
241.7717422348
 21
126.3297331946
 31
0.0
  0
LINE
  5
108
330
1F
100
AcDbEntity
  8
0
  6
HIDDEN
 62
     7
370
     0
100
AcDbLine
 10
245.7717422348
 20
126.3297331946
 30
0.0
 11
244.7717422348
 21
126.3297331946
 31
0.0
  0
LINE
  5
109
330
1F
100
AcDbEntity
  8
0
  6
HIDDEN
 62
     7
370
     0
100
AcDbLine
 10
245.7717422348
 20
126.3297331946
 30
0.0
 11
245.7717422348
 21
131.2391342713
 31
0.0
  0
LINE
  5
10A
330
1F
100
AcDbEntity
  8
0
  6
HIDDEN
 62
     7
370
     0
100
AcDbLine
 10
241.7717422348
 20
126.3297331946
 30
0.0
 11
241.7717422348
 21
131.2391342713
 31
0.0
  0
LWPOLYLINE
  5
10B
330
1F
100
AcDbEntity
  8
0
  6
HIDDEN
 62
     7
370
     0
100
AcDbPolyline
 90
       22
 70
   128
 43
0.0
 10
159.5939839603
 20
103.3827193291
 10
158.8797135543
 20
102.8771094358
 10
158.3557717966
 20
102.1961242814
 10
158.0687132119
 20
101.4002723851
 10
158.0440442149
 20
100.5602686805
 10
158.2839567545
 20
99.7507511831
 10
158.7671335486
 20
99.043649075
 10
159.4506422186
 20
98.5017914815
 10
160.2737500197
 20
98.1733248279
 10
161.1633202117
 20
98.0874348176
 10
162.0403105791
 20
98.251753155
 10
162.8267966792
 20
98.6516794348
 10
163.4528957705
 20
99.2516784519
 10
163.8629762013
 20
99.9984376607
 10
164.0206005257
 20
100.8256042282
 10
163.9117631306
 20
101.6596807751
 10
163.5461346962
 20
102.4265559399
 10
162.9562029136
 20
103.0580894987
 10
162.1943858104
 20
103.4981669235
 10
161.3283741795
 20
103.7076854038
 10
160.4351169546
 20
103.6680283032
 10
159.5939839603
 20
103.3827193291
  0
LWPOLYLINE
  5
10C
330
1F
100
AcDbEntity
  8
0
  6
HIDDEN
 62
     7
370
     0
100
AcDbPolyline
 90
       22
 70
   128
 43
0.0
 10
159.5939839603
 20
104.641305326
 10
158.8797135543
 20
104.1356954327
 10
158.3557717966
 20
103.4547102783
 10
158.0687132119
 20
102.658858382
 10
158.0440442149
 20
101.8188546774
 10
158.2839567545
 20
101.00933718
 10
158.7671335486
 20
100.3022350719
 10
159.4506422186
 20
99.7603774784
 10
160.2737500197
 20
99.4319108248
 10
161.1633202117
 20
99.3460208145
 10
162.0403105791
 20
99.5103391519
 10
162.8267966792
 20
99.9102654317
 10
163.4528957705
 20
100.5102644488
 10
163.8629762013
 20
101.2570236576
 10
164.0206005257
 20
102.0841902251
 10
163.9117631306
 20
102.918266772
 10
163.5461346962
 20
103.6851419368
 10
162.9562029136
 20
104.3166754956
 10
162.1943858104
 20
104.7567529204
 10
161.3283741795
 20
104.9662714007
 10
160.4351169546
 20
104.9266143001
 10
159.5939839603
 20
104.641305326
  0
LINE
  5
10D
330
1F
100
AcDbEntity
  8
0
  6
HIDDEN
 62
     7
370
     0
100
AcDbLine
 10
160.1974256107
 20
102.9093694227
 30
0.0
 11
160.1974256107
 21
102.225329136
 31
0.0
  0
LINE
  5
10E
330
1F
100
AcDbEntity
  8
0
  6
HIDDEN
 62
     7
370
     0
100
AcDbLine
 10
161.9288172522
 20
102.8644703637
 30
0.0
 11
161.9288172522
 21
102.1804300771
 31
0.0
  0
LINE
  5
10F
330
1F
100
AcDbEntity
  8
0
  6
HIDDEN
 62
     7
370
     0
100
AcDbLine
 10
159.2903505934
 20
101.5228164488
 30
0.0
 11
159.4998492496
 21
101.1590153698
 31
0.0
  0
LINE
  5
110
330
1F
100
AcDbEntity
  8
0
  6
HIDDEN
 62
     7
370
     0
100
AcDbLine
 10
159.2903505934
 20
101.5228164488
 30
0.0
 11
159.2903505934
 21
100.8387761622
 31
0.0
  0
LINE
  5
111
330
1F
100
AcDbEntity
  8
0
  6
HIDDEN
 62
     7
370
     0
100
AcDbLine
 10
162.7531338763
 20
101.4330183309
 30
0.0
 11
162.5436352201
 21
101.1127791233
 31
0.0
  0
LINE
  5
112
330
1F
100
AcDbEntity
  8
0
  6
HIDDEN
 62
     7
370
     0
100
AcDbLine
 10
162.7531338763
 20
101.4330183309
 30
0.0
 11
162.7531338763
 21
100.7489780442
 31
0.0
  0
LINE
  5
113
330
1F
100
AcDbEntity
  8
0
  6
HIDDEN
 62
     7
370
     0
100
AcDbLine
 10
161.9288172522
 20
102.8644703637
 30
0.0
 11
162.7531338763
 21
101.4330183309
 31
0.0
  0
LINE
  5
114
330
1F
100
AcDbEntity
  8
0
  6
HIDDEN
 62
     7
370
     0
100
AcDbLine
 10
159.2903505934
 20
101.5228164488
 30
0.0
 11
160.1974256107
 21
102.9093694227
 31
0.0
  0
LINE
  5
115
330
1F
100
AcDbEntity
  8
0
  6
HIDDEN
 62
     7
370
     0
100
AcDbLine
 10
161.9288172522
 20
102.8644703637
 30
0.0
 11
160.1974256107
 21
102.9093694227
 31
0.0
  0
LWPOLYLINE
  5
116
330
1F
100
AcDbEntity
  8
0
  6
HIDDEN
 62
     7
370
     0
100
AcDbPolyline
 90
       18
 70
   128
 43
0.0
 10
160.0699033851
 20
104.1568762528
 10
159.4987628793
 20
103.7221521762
 10
159.1333091745
 20
103.1229069026
 10
159.0228988188
 20
102.4400718268
 10
159.1824433423
 20
101.7658676094
 10
159.5903953731
 20
101.191349266
 10
160.1916587291
 20
100.7941086823
 10
160.9050294621
 20
100.6277954004
 10
161.6341629018
 20
100.7148709504
 10
162.2805855369
 20
101.043575297
 10
162.7569944085
 20
101.5695150967
 10
162.9990478588
 20
102.2216592651
 10
162.9740552279
 20
102.9119321188
 10
162.6853919091
 20
103.5471084838
 10
162.1720434833
 20
104.0414042725
 10
161.5033404998
 20
104.3280620995
 10
160.769595002
 20
104.368367237
 10
160.0699033851
 20
104.1568762528
  0
LWPOLYLINE
  5
117
330
1F
100
AcDbEntity
  8
0
  6
HIDDEN
 62
     7
370
     0
100
AcDbPolyline
 90
       20
 70
   128
 43
0.0
 10
142.6212456165
 20
103.5320296914
 10
142.2201447443
 20
103.7062608227
 10
141.8517266399
 20
103.6197989346
 10
141.5559151216
 20
103.2820135143
 10
141.3647659573
 20
102.7295088534
 10
141.2989931251
 20
102.0221574048
 10
141.3657241318
 20
101.2366116737
 10
141.5577276374
 20
100.4579977291
 10
141.8541970829
 20
99.7706904733
 10
142.2230054037
 20
99.2491703122
 10
142.6241864955
 20
98.9499520474
 10
143.014266162
 20
98.9054606207
 10
143.3509732188
 20
99.1205173686
 10
143.5978202316
 20
99.5718175556
 10
143.7280574964
 20
100.2104558036
 10
143.7275717846
 20
100.9672257491
 10
143.5964157308
 20
101.760119626
 10
143.3488021285
 20
102.5032150796
 10
143.0115637535
 20
103.1159861873
 10
142.6212456165
 20
103.5320296914
  0
LWPOLYLINE
  5
118
330
1F
100
AcDbEntity
  8
0
  6
HIDDEN
 62
     7
370
     0
100
AcDbPolyline
 90
       22
 70
   128
 43
0.0
 10
142.9210573116
 20
104.0927429357
 10
142.4749679119
 20
104.2997952816
 10
142.0576694954
 20
104.2452185819
 10
141.7062408575
 20
103.9338622157
 10
141.4519079749
 20
103.3933915627
 10
141.3172694404
 20
102.6718298121
 10
141.3142884786
 20
101.833290892
 10
141.4432299611
 20
100.9522826653
 10
141.6926368712
 20
100.1070865792
 10
142.0403483106
 20
99.372802015
 10
142.4554685919
 20
98.8146733786
 10
142.9011124564
 20
98.4822928487
 10
143.3376824911
 20
98.405193894
 10
143.7263875325
 20
98.5902270949
 10
144.0326894319
 20
99.0209514396
 10
144.2293719214
 20
99.6590951797
 10
144.2989588985
 20
100.4479564436
 10
144.2352672552
 20
101.3174414461
 10
144.0439562732
 20
102.1902926291
 10
143.7420247731
 20
102.9889533344
 10
143.3563006934
 20
103.6424590536
 10
142.9210573116
 20
104.0927429357
  0
LWPOLYLINE
  5
119
330
1F
100
AcDbEntity
  8
0
  6
HIDDEN
 62
     7
370
     0
100
AcDbPolyline
 90
       22
 70
   128
 43
0.0
 10
146.1079089267
 20
104.7220359341
 10
145.6618195271
 20
104.9290882801
 10
145.2445211105
 20
104.8745115803
 10
144.8930924726
 20
104.5631552142
 10
144.63875959
 20
104.0226845611
 10
144.5041210555
 20
103.3011228105
 10
144.5011400937
 20
102.4625838904
 10
144.6300815762
 20
101.5815756637
 10
144.8794884864
 20
100.7363795776
 10
145.2271999258
 20
100.0020950134
 10
145.6423202071
 20
99.4439663771
 10
146.0879640716
 20
99.1115858472
 10
146.5245341063
 20
99.0344868925
 10
146.9132391477
 20
99.2195200934
 10
147.219541047
 20
99.650244438
 10
147.4162235365
 20
100.2883881782
 10
147.4858105137
 20
101.0772494421
 10
147.4221188703
 20
101.9467344446
 10
147.2308078884
 20
102.8195856275
 10
146.9288763882
 20
103.6182463329
 10
146.5431523086
 20
104.2717520521
 10
146.1079089267
 20
104.7220359341
  0
LINE
  5
11A
330
1F
100
AcDbEntity
  8
0
  6
HIDDEN
 62
     7
370
     0
100
AcDbLine
 10
141.7389925211
 20
101.0678813988
 30
0.0
 11
142.4512679299
 21
99.7201298026
 31
0.0
  0
LINE
  5
11B
330
1F
100
AcDbEntity
  8
0
  6
HIDDEN
 62
     7
370
     0
100
AcDbLine
 10
143.2340176437
 20
99.9528267958
 30
0.0
 11
142.4512679299
 21
99.7201298026
 31
0.0
  0
LINE
  5
11C
330
1F
100
AcDbEntity
  8
0
  6
HIDDEN
 62
     7
370
     0
100
AcDbLine
 10
143.3044919486
 20
101.5332753851
 30
0.0
 11
143.2340176437
 21
99.9528267958
 31
0.0
  0
LINE
  5
11D
330
1F
100
AcDbEntity
  8
0
  6
HIDDEN
 62
     7
370
     0
100
AcDbLine
 10
143.3044919486
 20
101.5332753851
 30
0.0
 11
142.5922165397
 21
102.8810269813
 31
0.0
  0
LINE
  5
11E
330
1F
100
AcDbEntity
  8
0
  6
HIDDEN
 62
     7
370
     0
100
AcDbLine
 10
141.809466826
 20
102.6483299882
 30
0.0
 11
142.5922165397
 21
102.8810269813
 31
0.0
  0
LINE
  5
11F
330
1F
100
AcDbEntity
  8
0
  6
HIDDEN
 62
     7
370
     0
100
AcDbLine
 10
141.809466826
 20
102.6483299882
 30
0.0
 11
141.7389925211
 21
101.0678813988
 31
0.0
  0
LWPOLYLINE
  5
120
330
1F
100
AcDbEntity
  8
0
  6
HIDDEN
 62
     7
370
     0
100
AcDbPolyline
 90
       18
 70
   128
 43
0.0
 10
146.9332459716
 20
103.9805735873
 10
146.5677072057
 20
104.1258752528
 10
146.2405460991
 20
104.0050842106
 10
145.9959475719
 20
103.6345139603
 10
145.8669460107
 20
103.0642120676
 10
145.8709637911
 20
102.3712009633
 10
146.0074582897
 20
101.6490756371
 10
146.257995168
 20
100.9953631157
 10
146.5887380323
 20
100.4983508975
 10
146.9550182261
 20
100.2251632367
 10
147.3073675797
 20
100.2126956405
 10
147.5981993604
 20
100.462631927
 10
147.7882351246
 20
100.9412168156
 10
147.8518094893
 20
101.5838147654
 10
147.7803363844
 20
102.3036393623
 10
147.5834686487
 20
103.0034743059
 10
147.2877943608
 20
103.5888030092
 10
146.9332459716
 20
103.9805735873
  0
LINE
  5
121
330
1F
100
AcDbEntity
  8
0
  6
HIDDEN
 62
     7
370
     0
100
AcDbLine
 10
145.0365427561
 20
101.8752955284
 30
0.0
 11
143.3044919486
 21
101.5332753851
 31
0.0
  0
LINE
  5
122
330
1F
100
AcDbEntity
  8
0
  6
HIDDEN
 62
     7
370
     0
100
AcDbLine
 10
144.9660684512
 20
100.2948469391
 30
0.0
 11
144.1833187375
 21
100.0621499459
 31
0.0
  0
LINE
  5
123
330
1F
100
AcDbEntity
  8
0
  6
HIDDEN
 62
     7
370
     0
100
AcDbLine
 10
143.4710433287
 20
101.4099015421
 30
0.0
 11
144.1833187375
 21
100.0621499459
 31
0.0
  0
LINE
  5
124
330
1F
100
AcDbEntity
  8
0
  6
HIDDEN
 62
     7
370
     0
100
AcDbLine
 10
143.5415176336
 20
102.9903501315
 30
0.0
 11
143.4710433287
 21
101.4099015421
 31
0.0
  0
LINE
  5
125
330
1F
100
AcDbEntity
  8
0
  6
HIDDEN
 62
     7
370
     0
100
AcDbLine
 10
143.5415176336
 20
102.9903501315
 30
0.0
 11
144.3242673473
 21
103.2230471246
 31
0.0
  0
LINE
  5
126
330
1F
100
AcDbEntity
  8
0
  6
HIDDEN
 62
     7
370
     0
100
AcDbLine
 10
145.0365427561
 20
101.8752955284
 30
0.0
 11
144.9660684512
 21
100.2948469391
 31
0.0
  0
LINE
  5
127
330
1F
100
AcDbEntity
  8
0
  6
HIDDEN
 62
     7
370
     0
100
AcDbLine
 10
145.0365427561
 20
101.8752955284
 30
0.0
 11
144.3242673473
 21
103.2230471246
 31
0.0
  0
LINE
  5
128
330
1F
100
AcDbEntity
  8
0
  6
HIDDEN
 62
     7
370
     0
100
AcDbLine
 10
144.9660684512
 20
100.2948469391
 30
0.0
 11
143.2340176437
 21
99.9528267958
 31
0.0
  0
LINE
  5
129
330
1F
100
AcDbEntity
  8
0
  6
HIDDEN
 62
     7
370
     0
100
AcDbLine
 10
143.5415176336
 20
102.9903501315
 30
0.0
 11
141.809466826
 21
102.6483299882
 31
0.0
  0
LINE
  5
12A
330
1F
100
AcDbEntity
  8
0
  6
HIDDEN
 62
     7
370
     0
100
AcDbLine
 10
144.3242673473
 20
103.2230471246
 30
0.0
 11
142.5922165397
 21
102.8810269813
 31
0.0
  0
LINE
  5
12B
330
1F
100
AcDbEntity
  8
0
  6
HIDDEN
 62
     7
370
     0
100
AcDbLine
 10
143.4710433287
 20
101.4099015421
 30
0.0
 11
141.7389925211
 21
101.0678813988
 31
0.0
  0
LINE
  5
12C
330
1F
100
AcDbEntity
  8
0
  6
HIDDEN
 62
     7
370
     0
100
AcDbLine
 10
144.1833187375
 20
100.0621499459
 30
0.0
 11
142.4512679299
 21
99.7201298026
 31
0.0
  0
LWPOLYLINE
  5
12D
330
1F
100
AcDbEntity
  8
0
  6
HIDDEN
 62
     7
370
     0
100
AcDbPolyline
 90
       22
 70
   128
 43
0.0
 10
146.1079089267
 20
125.937430455
 10
145.6618195271
 20
125.730378109
 10
145.2445211105
 20
125.7849548088
 10
144.8930924726
 20
126.0963111749
 10
144.63875959
 20
126.636781828
 10
144.5041210555
 20
127.3583435786
 10
144.5011400937
 20
128.1968824987
 10
144.6300815762
 20
129.0778907254
 10
144.8794884864
 20
129.9230868115
 10
145.2271999258
 20
130.6573713757
 10
145.6423202071
 20
131.215500012
 10
146.0879640716
 20
131.5478805419
 10
146.5245341063
 20
131.6249794967
 10
146.9132391477
 20
131.4399462957
 10
147.219541047
 20
131.0092219511
 10
147.4162235365
 20
130.3710782109
 10
147.4858105137
 20
129.582216947
 10
147.4221188703
 20
128.7127319445
 10
147.2308078884
 20
127.8398807616
 10
146.9288763882
 20
127.0412200562
 10
146.5431523086
 20
126.387714337
 10
146.1079089267
 20
125.937430455
  0
LWPOLYLINE
  5
12E
330
1F
100
AcDbEntity
  8
0
  6
HIDDEN
 62
     7
370
     0
100
AcDbPolyline
 90
       18
 70
   128
 43
0.0
 10
146.9332459716
 20
126.6788928018
 10
146.5677072057
 20
126.5335911363
 10
146.2405460991
 20
126.6543821785
 10
145.9959475719
 20
127.0249524288
 10
145.8669460107
 20
127.5952543215
 10
145.8709637911
 20
128.2882654258
 10
146.0074582897
 20
129.010390752
 10
146.257995168
 20
129.6641032734
 10
146.5887380323
 20
130.1611154916
 10
146.9550182261
 20
130.4343031524
 10
147.3073675797
 20
130.4467707486
 10
147.5981993604
 20
130.1968344621
 10
147.7882351246
 20
129.7182495735
 10
147.8518094893
 20
129.0756516237
 10
147.7803363844
 20
128.3558270268
 10
147.5834686487
 20
127.6559920832
 10
147.2877943608
 20
127.0706633799
 10
146.9332459716
 20
126.6788928018
  0
LWPOLYLINE
  5
12F
330
1F
100
AcDbEntity
  8
0
  6
HIDDEN
 62
     7
370
     0
100
AcDbPolyline
 90
       22
 70
   128
 43
0.0
 10
142.9210573116
 20
126.5667234534
 10
142.4749679119
 20
126.3596711075
 10
142.0576694954
 20
126.4142478072
 10
141.7062408575
 20
126.7256041734
 10
141.4519079749
 20
127.2660748264
 10
141.3172694404
 20
127.987636577
 10
141.3142884786
 20
128.8261754972
 10
141.4432299611
 20
129.7071837239
 10
141.6926368712
 20
130.55237981
 10
142.0403483106
 20
131.2866643741
 10
142.4554685919
 20
131.8447930105
 10
142.9011124564
 20
132.1771735404
 10
143.3376824911
 20
132.2542724951
 10
143.7263875325
 20
132.0692392942
 10
144.0326894319
 20
131.6385149495
 10
144.2293719214
 20
131.0003712094
 10
144.2989588985
 20
130.2115099455
 10
144.2352672552
 20
129.342024943
 10
144.0439562732
 20
128.46917376
 10
143.7420247731
 20
127.6705130547
 10
143.3563006934
 20
127.0170073355
 10
142.9210573116
 20
126.5667234534
  0
LWPOLYLINE
  5
130
330
1F
100
AcDbEntity
  8
0
  6
HIDDEN
 62
     7
370
     0
100
AcDbPolyline
 90
       20
 70
   128
 43
0.0
 10
142.6212456165
 20
127.1274366977
 10
142.2201447443
 20
126.9532055664
 10
141.8517266399
 20
127.0396674545
 10
141.5559151216
 20
127.3774528748
 10
141.3647659573
 20
127.9299575358
 10
141.2989931251
 20
128.6373089843
 10
141.3657241318
 20
129.4228547154
 10
141.5577276374
 20
130.20146866
 10
141.8541970829
 20
130.8887759158
 10
142.2230054037
 20
131.4102960769
 10
142.6241864955
 20
131.7095143418
 10
143.014266162
 20
131.7540057684
 10
143.3509732188
 20
131.5389490205
 10
143.5978202316
 20
131.0876488335
 10
143.7280574964
 20
130.4490105855
 10
143.7275717846
 20
129.69224064
 10
143.5964157308
 20
128.8993467631
 10
143.3488021285
 20
128.1562513095
 10
143.0115637535
 20
127.5434802018
 10
142.6212456165
 20
127.1274366977
  0
LINE
  5
131
330
1F
100
AcDbEntity
  8
0
  6
HIDDEN
 62
     7
370
     0
100
AcDbLine
 10
143.4710433287
 20
129.249564847
 30
0.0
 11
144.1833187375
 21
130.5973164432
 31
0.0
  0
LINE
  5
132
330
1F
100
AcDbEntity
  8
0
  6
HIDDEN
 62
     7
370
     0
100
AcDbLine
 10
141.7389925211
 20
129.5915849903
 30
0.0
 11
142.4512679299
 21
130.9393365865
 31
0.0
  0
LINE
  5
133
330
1F
100
AcDbEntity
  8
0
  6
HIDDEN
 62
     7
370
     0
100
AcDbLine
 10
143.4710433287
 20
129.249564847
 30
0.0
 11
141.7389925211
 21
129.5915849903
 31
0.0
  0
LINE
  5
134
330
1F
100
AcDbEntity
  8
0
  6
HIDDEN
 62
     7
370
     0
100
AcDbLine
 10
143.5415176336
 20
127.6691162576
 30
0.0
 11
143.4710433287
 21
129.249564847
 31
0.0
  0
LINE
  5
135
330
1F
100
AcDbEntity
  8
0
  6
HIDDEN
 62
     7
370
     0
100
AcDbLine
 10
141.809466826
 20
128.0111364009
 30
0.0
 11
141.7389925211
 21
129.5915849903
 31
0.0
  0
LINE
  5
136
330
1F
100
AcDbEntity
  8
0
  6
HIDDEN
 62
     7
370
     0
100
AcDbLine
 10
143.5415176336
 20
127.6691162576
 30
0.0
 11
141.809466826
 21
128.0111364009
 31
0.0
  0
LINE
  5
137
330
1F
100
AcDbEntity
  8
0
  6
HIDDEN
 62
     7
370
     0
100
AcDbLine
 10
143.5415176336
 20
127.6691162576
 30
0.0
 11
144.3242673473
 21
127.4364192645
 31
0.0
  0
LINE
  5
138
330
1F
100
AcDbEntity
  8
0
  6
HIDDEN
 62
     7
370
     0
100
AcDbLine
 10
141.809466826
 20
128.0111364009
 30
0.0
 11
142.5922165397
 21
127.7784394078
 31
0.0
  0
LINE
  5
139
330
1F
100
AcDbEntity
  8
0
  6
HIDDEN
 62
     7
370
     0
100
AcDbLine
 10
144.9660684512
 20
130.36461945
 30
0.0
 11
143.2340176437
 21
130.7066395933
 31
0.0
  0
LINE
  5
13A
330
1F
100
AcDbEntity
  8
0
  6
HIDDEN
 62
     7
370
     0
100
AcDbLine
 10
144.1833187375
 20
130.5973164432
 30
0.0
 11
142.4512679299
 21
130.9393365865
 31
0.0
  0
LINE
  5
13B
330
1F
100
AcDbEntity
  8
0
  6
HIDDEN
 62
     7
370
     0
100
AcDbLine
 10
144.9660684512
 20
130.36461945
 30
0.0
 11
144.1833187375
 21
130.5973164432
 31
0.0
  0
LINE
  5
13C
330
1F
100
AcDbEntity
  8
0
  6
HIDDEN
 62
     7
370
     0
100
AcDbLine
 10
143.2340176437
 20
130.7066395933
 30
0.0
 11
142.4512679299
 21
130.9393365865
 31
0.0
  0
LINE
  5
13D
330
1F
100
AcDbEntity
  8
0
  6
HIDDEN
 62
     7
370
     0
100
AcDbLine
 10
145.0365427561
 20
128.7841708607
 30
0.0
 11
143.3044919486
 21
129.126191004
 31
0.0
  0
LINE
  5
13E
330
1F
100
AcDbEntity
  8
0
  6
HIDDEN
 62
     7
370
     0
100
AcDbLine
 10
144.3242673473
 20
127.4364192645
 30
0.0
 11
142.5922165397
 21
127.7784394078
 31
0.0
  0
LINE
  5
13F
330
1F
100
AcDbEntity
  8
0
  6
HIDDEN
 62
     7
370
     0
100
AcDbLine
 10
145.0365427561
 20
128.7841708607
 30
0.0
 11
144.3242673473
 21
127.4364192645
 31
0.0
  0
LINE
  5
140
330
1F
100
AcDbEntity
  8
0
  6
HIDDEN
 62
     7
370
     0
100
AcDbLine
 10
143.3044919486
 20
129.126191004
 30
0.0
 11
142.5922165397
 21
127.7784394078
 31
0.0
  0
LINE
  5
141
330
1F
100
AcDbEntity
  8
0
  6
HIDDEN
 62
     7
370
     0
100
AcDbLine
 10
145.0365427561
 20
128.7841708607
 30
0.0
 11
144.9660684512
 21
130.36461945
 31
0.0
  0
LINE
  5
142
330
1F
100
AcDbEntity
  8
0
  6
HIDDEN
 62
     7
370
     0
100
AcDbLine
 10
143.3044919486
 20
129.126191004
 30
0.0
 11
143.2340176437
 21
130.7066395933
 31
0.0
  0
LWPOLYLINE
  5
143
330
1F
100
AcDbEntity
  8
0
  6
HIDDEN
 62
     7
370
     0
100
AcDbPolyline
 90
       22
 70
   128
 43
0.0
 10
162.4495005094
 20
126.0181610632
 10
161.6083675151
 20
125.732852089
 10
160.7151102902
 20
125.6931949884
 10
159.8490986593
 20
125.9027134687
 10
159.0872815561
 20
126.3427908935
 10
158.4973497735
 20
126.9743244523
 10
158.1317213391
 20
127.7411996171
 10
158.022883944
 20
128.575276164
 10
158.1805082684
 20
129.4024427315
 10
158.5905886991
 20
130.1492019403
 10
159.2166877905
 20
130.7492009574
 10
160.0031738906
 20
131.1491272372
 10
160.880164258
 20
131.3134455746
 10
161.76973445
 20
131.2275555643
 10
162.5928422511
 20
130.8990889107
 10
163.2763509211
 20
130.3572313172
 10
163.7595277152
 20
129.6501292091
 10
163.9994402547
 20
128.8406117117
 10
163.9747712578
 20
128.0006080071
 10
163.687712673
 20
127.2047561108
 10
163.1637709154
 20
126.5237709564
 10
162.4495005094
 20
126.0181610632
  0
LWPOLYLINE
  5
144
330
1F
100
AcDbEntity
  8
0
  6
HIDDEN
 62
     7
370
     0
100
AcDbPolyline
 90
       18
 70
   128
 43
0.0
 10
161.9735810845
 20
126.5025901363
 10
161.2738894677
 20
126.2910991521
 10
160.5401439699
 20
126.3314042896
 10
159.8714409864
 20
126.6180621166
 10
159.3580925605
 20
127.1123579053
 10
159.0694292418
 20
127.7475342703
 10
159.0444366109
 20
128.437807124
 10
159.2864900611
 20
129.0899512924
 10
159.7628989328
 20
129.6158910921
 10
160.4093215679
 20
129.9445954387
 10
161.1384550076
 20
130.0316709887
 10
161.8518257406
 20
129.8653577068
 10
162.4530890965
 20
129.4681171231
 10
162.8610411274
 20
128.8935987797
 10
163.0205856509
 20
128.2193945623
 10
162.9101752951
 20
127.5365594865
 10
162.5447215904
 20
126.9373142129
 10
161.9735810845
 20
126.5025901363
  0
LWPOLYLINE
  5
145
330
1F
100
AcDbEntity
  8
0
  6
HIDDEN
 62
     7
370
     0
100
AcDbPolyline
 90
       22
 70
   128
 43
0.0
 10
162.4495005094
 20
127.2767470601
 10
161.6083675151
 20
126.9914380859
 10
160.7151102902
 20
126.9517809853
 10
159.8490986593
 20
127.1612994656
 10
159.0872815561
 20
127.6013768904
 10
158.4973497735
 20
128.2329104492
 10
158.1317213391
 20
128.999785614
 10
158.022883944
 20
129.8338621609
 10
158.1805082684
 20
130.6610287284
 10
158.5905886991
 20
131.4077879372
 10
159.2166877905
 20
132.0077869543
 10
160.0031738906
 20
132.4077132341
 10
160.880164258
 20
132.5720315715
 10
161.76973445
 20
132.4861415612
 10
162.5928422511
 20
132.1576749076
 10
163.2763509211
 20
131.6158173141
 10
163.7595277152
 20
130.908715206
 10
163.9994402547
 20
130.0991977086
 10
163.9747712578
 20
129.259194004
 10
163.687712673
 20
128.4633421077
 10
163.1637709154
 20
127.7823569533
 10
162.4495005094
 20
127.2767470601
  0
LINE
  5
146
330
1F
100
AcDbEntity
  8
0
  6
HIDDEN
 62
     7
370
     0
100
AcDbLine
 10
161.9288172522
 20
130.5681019731
 30
0.0
 11
160.1974256107
 21
130.6130010321
 31
0.0
  0
LINE
  5
147
330
1F
100
AcDbEntity
  8
0
  6
HIDDEN
 62
     7
370
     0
100
AcDbLine
 10
160.1974256107
 20
130.6130010321
 30
0.0
 11
160.1974256107
 21
131.2970413187
 31
0.0
  0
LINE
  5
148
330
1F
100
AcDbEntity
  8
0
  6
HIDDEN
 62
     7
370
     0
100
AcDbLine
 10
159.2903505934
 20
129.2264480582
 30
0.0
 11
160.1974256107
 21
130.6130010321
 31
0.0
  0
LINE
  5
149
330
1F
100
AcDbEntity
  8
0
  6
HIDDEN
 62
     7
370
     0
100
AcDbLine
 10
161.9288172522
 20
130.5681019731
 30
0.0
 11
161.9288172522
 21
131.2521422597
 31
0.0
  0
LINE
  5
14A
330
1F
100
AcDbEntity
  8
0
  6
HIDDEN
 62
     7
370
     0
100
AcDbLine
 10
162.7531338763
 20
129.1366499403
 30
0.0
 11
161.9288172522
 21
130.5681019731
 31
0.0
  0
LINE
  5
14B
330
1F
100
AcDbEntity
  8
0
  6
HIDDEN
 62
     7
370
     0
100
AcDbLine
 10
160.1146672175
 20
127.7949960254
 30
0.0
 11
160.1146672175
 21
128.4790363121
 31
0.0
  0
LINE
  5
14C
330
1F
100
AcDbEntity
  8
0
  6
HIDDEN
 62
     7
370
     0
100
AcDbLine
 10
160.1146672175
 20
128.4790363121
 30
0.0
 11
159.2903505934
 21
129.9104883449
 31
0.0
  0
LINE
  5
14D
330
1F
100
AcDbEntity
  8
0
  6
HIDDEN
 62
     7
370
     0
100
AcDbLine
 10
159.2903505934
 20
129.2264480582
 30
0.0
 11
159.2903505934
 21
129.9104883449
 31
0.0
  0
LINE
  5
14E
330
1F
100
AcDbEntity
  8
0
  6
HIDDEN
 62
     7
370
     0
100
AcDbLine
 10
160.1146672175
 20
127.7949960254
 30
0.0
 11
159.2903505934
 21
129.2264480582
 31
0.0
  0
LINE
  5
14F
330
1F
100
AcDbEntity
  8
0
  6
HIDDEN
 62
     7
370
     0
100
AcDbLine
 10
161.846058859
 20
127.7500969664
 30
0.0
 11
161.846058859
 21
128.4341372531
 31
0.0
  0
LINE
  5
150
330
1F
100
AcDbEntity
  8
0
  6
HIDDEN
 62
     7
370
     0
100
AcDbLine
 10
162.7531338763
 20
129.8206902269
 30
0.0
 11
161.846058859
 21
128.4341372531
 31
0.0
  0
LINE
  5
151
330
1F
100
AcDbEntity
  8
0
  6
HIDDEN
 62
     7
370
     0
100
AcDbLine
 10
162.7531338763
 20
129.1366499403
 30
0.0
 11
162.7531338763
 21
129.8206902269
 31
0.0
  0
LINE
  5
152
330
1F
100
AcDbEntity
  8
0
  6
HIDDEN
 62
     7
370
     0
100
AcDbLine
 10
162.7531338763
 20
129.1366499403
 30
0.0
 11
161.846058859
 21
127.7500969664
 31
0.0
  0
LINE
  5
153
330
1F
100
AcDbEntity
  8
0
  6
HIDDEN
 62
     7
370
     0
100
AcDbLine
 10
160.1146672175
 20
128.4790363121
 30
0.0
 11
161.846058859
 21
128.4341372531
 31
0.0
  0
LINE
  5
154
330
1F
100
AcDbEntity
  8
0
  6
HIDDEN
 62
     7
370
     0
100
AcDbLine
 10
160.1146672175
 20
127.7949960254
 30
0.0
 11
161.846058859
 21
127.7500969664
 31
0.0
  0
LWPOLYLINE
  5
155
330
1F
100
AcDbEntity
  8
0
  6
HIDDEN
 62
     7
370
     0
100
AcDbPolyline
 90
       20
 70
   128
 43
0.0
 10
162.1856031883
 20
127.844507727
 10
161.424181597
 20
127.598900929
 10
160.6191494564
 20
127.5989249857
 10
159.8577444901
 20
127.8445772903
 10
159.2224767408
 20
128.3092376038
 10
158.7821873263
 20
128.9425527714
 10
158.5845884363
 20
129.6758932677
 10
158.6510929768
 20
130.429790271
 10
158.9744941488
 20
131.1225473431
 10
159.5197464172
 20
131.679093506
 10
160.2277632384
 20
132.0391183472
 10
161.0218200036
 20
132.1636075889
 10
161.8158683415
 20
132.03907089
 10
162.5238607935
 20
131.6790037342
 10
163.0690753919
 20
131.1224249849
 10
163.3924296751
 20
130.4296485859
 10
163.4588831892
 20
129.6757476094
 10
163.2612346647
 20
128.9424189242
 10
162.8209023861
 20
128.3091300722
 10
162.1856031883
 20
127.844507727
  0
LINE
  5
156
330
1F
100
AcDbEntity
  8
0
  6
HIDDEN
 62
     7
370
     0
100
AcDbLine
 10
162.7531338763
 20
129.8206902269
 30
0.0
 11
161.9288172522
 21
131.2521422597
 31
0.0
  0
LINE
  5
157
330
1F
100
AcDbEntity
  8
0
  6
HIDDEN
 62
     7
370
     0
100
AcDbLine
 10
159.2903505934
 20
129.9104883449
 30
0.0
 11
160.1974256107
 21
131.2970413187
 31
0.0
  0
LINE
  5
158
330
1F
100
AcDbEntity
  8
0
  6
HIDDEN
 62
     7
370
     0
100
AcDbLine
 10
161.9288172522
 20
131.2521422597
 30
0.0
 11
160.1974256107
 21
131.2970413187
 31
0.0
  0
LINE
  5
159
330
1F
100
AcDbEntity
  8
0
  6
HIDDEN
 62
     7
370
     0
100
AcDbLine
 10
140.8217422348
 20
97.9069575918
 30
0.0
 11
143.1029161135
 21
98.3574105539
 31
0.0
  0
LINE
  5
15A
330
1F
100
AcDbEntity
  8
0
  6
HIDDEN
 62
     7
370
     0
100
AcDbLine
 10
141.9405683562
 20
104.24374623
 30
0.0
 11
140.8217422348
 21
104.022816758
 31
0.0
  0
LINE
  5
15B
330
1F
100
AcDbEntity
  8
0
  6
HIDDEN
 62
     7
370
     0
100
AcDbLine
 10
163.5217422348
 20
100.7940382853
 30
0.0
 11
163.5217422348
 21
114.1678388322
 31
0.0
  0
LINE
  5
15C
330
1F
100
AcDbEntity
  8
0
  6
HIDDEN
 62
     7
370
     0
100
AcDbLine
 10
158.5217422348
 20
103.6308592447
 30
0.0
 11
158.5217422348
 21
100.7939097571
 31
0.0
  0
LINE
  5
15D
330
1F
100
AcDbEntity
  8
0
  6
HIDDEN
 62
     7
370
     0
100
AcDbLine
 10
158.5217422348
 20
114.1683789128
 30
0.0
 11
158.5217422348
 21
105.2889903522
 31
0.0
  0
LINE
  5
15E
330
1F
100
AcDbEntity
  8
0
  6
HIDDEN
 62
     7
370
     0
100
AcDbLine
 10
143.2122506721
 20
99.2963792236
 30
0.0
 11
159.438171986
 21
102.5004376202
 31
0.0
  0
LINE
  5
15F
330
1F
100
AcDbEntity
  8
0
  6
HIDDEN
 62
     7
370
     0
100
AcDbLine
 10
159.4366115754
 20
106.7812309095
 30
0.0
 11
142.398607242
 21
103.4168141968
 31
0.0
  0
ARC
  5
160
330
1F
100
AcDbEntity
  8
0
  6
HIDDEN
 62
     7
370
     0
100
AcDbCircle
 10
37.2217422348
 20
101.6297331946
 30
0.0
 40
1.200000000000017
100
AcDbArc
 50
90.0
 51
180.0
  0
ARC
  5
161
330
1F
100
AcDbEntity
  8
0
  6
HIDDEN
 62
     7
370
     0
100
AcDbCircle
 10
37.2217422348
 20
129.0297331946
 30
0.0
 40
1.200000000000017
100
AcDbArc
 50
180.0
 51
270.0
  0
LINE
  5
162
330
1F
100
AcDbEntity
  8
0
  6
HIDDEN
 62
     7
370
     0
100
AcDbLine
 10
170.8217422348
 20
66.2295178075
 30
0.0
 11
170.8217422348
 21
78.0297331946
 31
0.0
  0
ARC
  5
163
330
1F
100
AcDbEntity
  8
0
  6
HIDDEN
 62
     7
370
     0
100
AcDbCircle
 10
168.8217422348
 20
152.6297331946
 30
0.0
 40
2.0
100
AcDbArc
 50
270.0
 51
0.0
  0
LINE
  5
164
330
1F
100
AcDbEntity
  8
0
  6
HIDDEN
 62
     7
370
     0
100
AcDbLine
 10
170.8217422348
 20
152.6297331946
 30
0.0
 11
170.8217422348
 21
164.4298365451
 31
0.0
  0
ARC
  5
165
330
1F
100
AcDbEntity
  8
0
  6
HIDDEN
 62
     7
370
     0
100
AcDbCircle
 10
168.8217422348
 20
78.0297331946
 30
0.0
 40
2.0
100
AcDbArc
 50
0.0
 51
90.0
  0
LINE
  5
166
330
1F
100
AcDbEntity
  8
0
  6
HIDDEN
 62
     7
370
     0
100
AcDbLine
 10
46.9141146656
 20
102.6047331946
 30
0.0
 11
47.7908021272
 21
102.6047331946
 31
0.0
  0
LINE
  5
167
330
1F
100
AcDbEntity
  8
0
  6
HIDDEN
 62
     7
370
     0
100
AcDbLine
 10
47.7908021272
 20
128.0547331946
 30
0.0
 11
46.9141146656
 21
128.0547331946
 31
0.0
  0
ARC
  5
168
330
1F
100
AcDbEntity
  8
0
  6
HIDDEN
 62
     7
370
     0
100
AcDbCircle
 10
47.7908021272
 20
103.0047331946
 30
0.0
 40
0.4000000000000057
100
AcDbArc
 50
270.0
 51
330.0
  0
ARC
  5
169
330
1F
100
AcDbEntity
  8
0
  6
HIDDEN
 62
     7
370
     0
100
AcDbCircle
 10
47.7908021272
 20
127.6547331946
 30
0.0
 40
0.4000000000000057
100
AcDbArc
 50
30.0
 51
90.0
  0
ARC
  5
16A
330
1F
100
AcDbEntity
  8
0
  6
HIDDEN
 62
     7
370
     0
100
AcDbCircle
 10
46.9141146656
 20
103.0047331946
 30
0.0
 40
0.4000000000000057
100
AcDbArc
 50
255.0
 51
270.0
  0
ARC
  5
16B
330
1F
100
AcDbEntity
  8
0
  6
HIDDEN
 62
     7
370
     0
100
AcDbCircle
 10
46.9141146656
 20
127.6547331946
 30
0.0
 40
0.4000000000000057
100
AcDbArc
 50
90.0
 51
105.0
  0
LINE
  5
16C
330
1F
100
AcDbEntity
  8
0
  6
HIDDEN
 62
     7
370
     0
100
AcDbLine
 10
46.8105870475
 20
128.0411035251
 30
0.0
 11
46.0217422348
 21
127.8297331946
 31
0.0
  0
LINE
  5
16D
330
1F
100
AcDbEntity
  8
0
  6
HIDDEN
 62
     7
370
     0
100
AcDbLine
 10
46.0217422348
 20
102.8297331946
 30
0.0
 11
46.8105870475
 21
102.618362864
 31
0.0
  0
LINE
  5
16E
330
1F
100
AcDbEntity
  8
0
  6
HIDDEN
 62
     7
370
     0
100
AcDbLine
 10
48.1372122887
 20
102.8047331946
 30
0.0
 11
49.3063465838
 21
104.8297331946
 31
0.0
  0
LINE
  5
16F
330
1F
100
AcDbEntity
  8
0
  6
HIDDEN
 62
     7
370
     0
100
AcDbLine
 10
49.3063465838
 20
125.8297331946
 30
0.0
 11
48.1372122887
 21
127.8547331946
 31
0.0
  0
LINE
  5
170
330
1F
100
AcDbEntity
  8
0
  6
HIDDEN
 62
     7
370
     0
100
AcDbLine
 10
37.2217422348
 20
102.8297331946
 30
0.0
 11
46.0217422348
 21
102.8297331946
 31
0.0
  0
LINE
  5
171
330
1F
100
AcDbEntity
  8
0
  6
HIDDEN
 62
     7
370
     0
100
AcDbLine
 10
46.0217422348
 20
127.8297331946
 30
0.0
 11
37.2217422348
 21
127.8297331946
 31
0.0
  0
LINE
  5
172
330
1F
100
AcDbEntity
  8
0
  6
HIDDEN
 62
     7
370
     0
100
AcDbLine
 10
99.0217422348
 20
104.8297331946
 30
0.0
 11
103.2878526299
 21
111.9297331946
 31
0.0
  0
LINE
  5
173
330
1F
100
AcDbEntity
  8
0
  6
HIDDEN
 62
     7
370
     0
100
AcDbLine
 10
103.2878526299
 20
118.7297331946
 30
0.0
 11
99.0217422348
 21
125.8297331946
 31
0.0
  0
LINE
  5
174
330
1F
100
AcDbEntity
  8
0
  6
HIDDEN
 62
     7
370
     0
100
AcDbLine
 10
49.3063465838
 20
104.8297331946
 30
0.0
 11
99.0217422348
 21
104.8297331946
 31
0.0
  0
LINE
  5
175
330
1F
100
AcDbEntity
  8
0
  6
HIDDEN
 62
     7
370
     0
100
AcDbLine
 10
99.0217422348
 20
125.8297331946
 30
0.0
 11
49.3063465838
 21
125.8297331946
 31
0.0
  0
ARC
  5
176
330
1F
100
AcDbEntity
  8
0
  6
HIDDEN
 62
     7
370
     0
100
AcDbCircle
 10
254.8217422348
 20
125.3297331946
 30
0.0
 40
1.0
100
AcDbArc
 50
270.0
 51
0.0
  0
ARC
  5
177
330
1F
100
AcDbEntity
  8
0
  6
HIDDEN
 62
     7
370
     0
100
AcDbCircle
 10
254.8217422348
 20
105.3297331946
 30
0.0
 40
1.0
100
AcDbArc
 50
0.0
 51
90.0
  0
ARC
  5
178
330
1F
100
AcDbEntity
  8
0
  6
HIDDEN
 62
     7
370
     0
100
AcDbCircle
 10
234.7164202368
 20
124.0297331946
 30
0.0
 40
0.8000000000000119
100
AcDbArc
 50
75.0
 51
90.0
  0
ARC
  5
179
330
1F
100
AcDbEntity
  8
0
  6
HIDDEN
 62
     7
370
     0
100
AcDbCircle
 10
234.7164202368
 20
106.6297331946
 30
0.0
 40
0.8000000000000119
100
AcDbArc
 50
270.0
 51
285.0
  0
LINE
  5
17A
330
1F
100
AcDbEntity
  8
0
  6
HIDDEN
 62
     7
370
     0
100
AcDbLine
 10
234.7164202368
 20
124.8297331946
 30
0.0
 11
234.1217422348
 21
124.8297331946
 31
0.0
  0
LINE
  5
17B
330
1F
100
AcDbEntity
  8
0
  6
HIDDEN
 62
     7
370
     0
100
AcDbLine
 10
234.1217422348
 20
105.8297331946
 30
0.0
 11
234.7164202368
 21
105.8297331946
 31
0.0
  0
ARC
  5
17C
330
1F
100
AcDbEntity
  8
0
  6
HIDDEN
 62
     7
370
     0
100
AcDbCircle
 10
234.1217422348
 20
124.0297331946
 30
0.0
 40
0.8000000000000114
100
AcDbArc
 50
90.0
 51
180.0
  0
ARC
  5
17D
330
1F
100
AcDbEntity
  8
0
  6
HIDDEN
 62
     7
370
     0
100
AcDbCircle
 10
234.1217422348
 20
106.6297331946
 30
0.0
 40
0.8000000000000114
100
AcDbArc
 50
180.0
 51
270.0
  0
LINE
  5
17E
330
1F
100
AcDbEntity
  8
0
  6
HIDDEN
 62
     7
370
     0
100
AcDbLine
 10
234.9234754729
 20
105.8569925335
 30
0.0
 11
236.6877676386
 21
106.3297331946
 31
0.0
  0
LINE
  5
17F
330
1F
100
AcDbEntity
  8
0
  6
HIDDEN
 62
     7
370
     0
100
AcDbLine
 10
236.6877676386
 20
124.3297331946
 30
0.0
 11
234.9234754729
 21
124.8024738556
 31
0.0
  0
LINE
  5
180
330
1F
100
AcDbEntity
  8
0
  6
HIDDEN
 62
     7
370
     0
100
AcDbLine
 10
170.8217465552
 20
164.3297337183
 30
0.0
 11
171.8217464046
 21
165.3297334971
 31
0.0
  0
LINE
  5
181
330
1F
100
AcDbEntity
  8
0
  6
HIDDEN
 62
     7
370
     0
100
AcDbLine
 10
171.8217464053
 20
65.3297328913
 30
0.0
 11
170.8217465559
 21
66.3297326701
 31
0.0
  0
LINE
  5
182
330
1F
100
AcDbEntity
  8
0
  6
HIDDEN
 62
     7
370
     0
100
AcDbLine
 10
240.2779515416
 20
124.3297331946
 30
0.0
 11
236.6877676386
 21
124.3297331946
 31
0.0
  0
LINE
  5
183
330
1F
100
AcDbEntity
  8
0
  6
HIDDEN
 62
     7
370
     0
100
AcDbLine
 10
254.8217422348
 20
124.3297331946
 30
0.0
 11
247.2711173213
 21
124.3297331946
 31
0.0
  0
LINE
  5
184
330
1F
100
AcDbEntity
  8
0
  6
HIDDEN
 62
     7
370
     0
100
AcDbLine
 10
236.6877676386
 20
106.3297331946
 30
0.0
 11
254.8217422348
 21
106.3297331946
 31
0.0
  0
LINE
  5
185
330
1F
100
AcDbEntity
  8
0
  6
HIDDEN
 62
     7
370
     0
100
AcDbLine
 10
238.7717422348
 20
131.3297331946
 30
0.0
 11
240.2717422348
 21
129.8297331946
 31
0.0
  0
LINE
  5
186
330
1F
100
AcDbEntity
  8
0
  6
HIDDEN
 62
     7
370
     0
100
AcDbLine
 10
247.2717422348
 20
129.8297331946
 30
0.0
 11
248.7717422348
 21
131.3297331946
 31
0.0
  0
LINE
  5
187
330
1F
100
AcDbEntity
  8
0
  6
HIDDEN
 62
     7
370
     0
100
AcDbLine
 10
240.2717422348
 20
129.8297331946
 30
0.0
 11
240.2717422348
 21
124.3273326625
 31
0.0
  0
LINE
  5
188
330
1F
100
AcDbEntity
  8
0
  6
HIDDEN
 62
     7
370
     0
100
AcDbLine
 10
247.2717422348
 20
124.3294907924
 30
0.0
 11
247.2717422348
 21
129.8297331946
 31
0.0
  0
LINE
  5
189
330
1F
100
AcDbEntity
  8
0
  6
HIDDEN
 62
     7
370
     0
100
AcDbLine
 10
103.2878526299
 20
111.9297331946
 30
0.0
 11
233.3217422348
 21
111.9297331946
 31
0.0
  0
LINE
  5
18A
330
1F
100
AcDbEntity
  8
0
  6
HIDDEN
 62
     7
370
     0
100
AcDbLine
 10
233.3217422348
 20
118.7297331946
 30
0.0
 11
103.2878526299
 21
118.7297331946
 31
0.0
  0
LINE
  5
18B
330
1F
100
AcDbEntity
  8
0
  6
HIDDEN
 62
     7
370
     0
100
AcDbLine
 10
163.5217422348
 20
116.4910874763
 30
0.0
 11
163.5217422348
 21
129.865556632
 31
0.0
  0
LINE
  5
18C
330
1F
100
AcDbEntity
  8
0
  6
HIDDEN
 62
     7
370
     0
100
AcDbLine
 10
158.5217422348
 20
125.3718136725
 30
0.0
 11
158.5217422348
 21
116.491627557
 31
0.0
  0
LINE
  5
18D
330
1F
100
AcDbEntity
  8
0
  6
HIDDEN
 62
     7
370
     0
100
AcDbLine
 10
158.5217422348
 20
129.8654281038
 30
0.0
 11
158.5217422348
 21
127.0228296959
 31
0.0
  0
LINE
  5
18E
330
1F
100
AcDbEntity
  8
0
  6
HIDDEN
 62
     7
370
     0
100
AcDbLine
 10
142.398607242
 20
127.2426521923
 30
0.0
 11
159.4365459594
 21
123.8782484365
 31
0.0
  0
LINE
  5
18F
330
1F
100
AcDbEntity
  8
0
  6
HIDDEN
 62
     7
370
     0
100
AcDbLine
 10
159.4323292703
 20
128.1601825032
 30
0.0
 11
143.2122506721
 21
131.3630871655
 31
0.0
  0
LINE
  5
190
330
1F
100
AcDbEntity
  8
0
  6
HIDDEN
 62
     7
370
     0
100
AcDbLine
 10
140.8217422348
 20
126.6366496311
 30
0.0
 11
141.9405683562
 21
126.4157201591
 31
0.0
  0
LINE
  5
191
330
1F
100
AcDbEntity
  8
0
  6
HIDDEN
 62
     7
370
     0
100
AcDbLine
 10
143.1029161135
 20
132.3020558352
 30
0.0
 11
140.8217422348
 21
132.7525087974
 31
0.0
  0
LINE
  5
192
330
1F
100
AcDbEntity
  8
0
  6
HIDDEN
 62
     7
370
     0
100
AcDbLine
 10
247.7717422348
 20
130.6297331946
 30
0.0
 11
247.3635803262
 21
131.0378951032
 31
0.0
  0
LINE
  5
193
330
1F
100
AcDbEntity
  8
0
  6
HIDDEN
 62
     7
370
     0
100
AcDbLine
 10
240.1805203073
 20
131.038511267
 30
0.0
 11
239.7717422348
 21
130.6297331946
 31
0.0
  0
LINE
  5
194
330
1F
100
AcDbEntity
  8
0
  6
HIDDEN
 62
     7
370
     0
100
AcDbLine
 10
239.7717422348
 20
130.6297331946
 30
0.0
 11
239.7717422348
 21
125.4349890829
 31
0.0
  0
LINE
  5
195
330
1F
100
AcDbEntity
  8
0
  6
HIDDEN
 62
     7
370
     0
100
AcDbLine
 10
247.7717422348
 20
125.4349890829
 30
0.0
 11
247.7717422348
 21
130.6297331946
 31
0.0
  0
LINE
  5
196
330
1F
100
AcDbEntity
  8
0
  6
HIDDEN
 62
     7
370
     0
100
AcDbLine
 10
239.7717422348
 20
125.4349890829
 30
0.0
 11
240.8121625834
 21
121.552087481
 31
0.0
  0
LINE
  5
197
330
1F
100
AcDbEntity
  8
0
  6
HIDDEN
 62
     7
370
     0
100
AcDbLine
 10
246.7313218863
 20
121.552087481
 30
0.0
 11
247.7717422348
 21
125.4349890829
 31
0.0
  0
ARC
  5
198
330
1F
100
AcDbEntity
  8
0
  6
HIDDEN
 62
     7
370
     0
100
AcDbCircle
 10
241.1019403312
 20
121.6297331946
 30
0.0
 40
0.3000000000000241
100
AcDbArc
 50
195.0
 51
270.0
  0
ARC
  5
199
330
1F
100
AcDbEntity
  8
0
  6
HIDDEN
 62
     7
370
     0
100
AcDbCircle
 10
246.4415441385
 20
121.6297331946
 30
0.0
 40
0.3000000000000241
100
AcDbArc
 50
270.0
 51
345.0
  0
LINE
  5
19A
330
1F
100
AcDbEntity
  8
0
  6
HIDDEN
 62
     7
370
     0
100
AcDbLine
 10
241.3717422348
 20
131.3297331946
 30
0.0
 11
241.7717422348
 21
130.9297331946
 31
0.0
  0
LINE
  5
19B
330
1F
100
AcDbEntity
  8
0
  6
HIDDEN
 62
     7
370
     0
100
AcDbLine
 10
245.7717422348
 20
130.9297331946
 30
0.0
 11
246.1717422348
 21
131.3297331946
 31
0.0
  0
LINE
  5
19C
330
1F
100
AcDbEntity
  8
0
  6
HIDDEN
 62
     7
370
     0
100
AcDbLine
 10
241.7717422348
 20
126.3297331946
 30
0.0
 11
241.7717422348
 21
125.3297331946
 31
0.0
  0
LINE
  5
19D
330
1F
100
AcDbEntity
  8
0
  6
HIDDEN
 62
     7
370
     0
100
AcDbLine
 10
245.7717422348
 20
125.3297331946
 30
0.0
 11
245.7717422348
 21
126.3297331946
 31
0.0
  0
LINE
  5
19E
330
1F
100
AcDbEntity
  8
0
  6
HIDDEN
 62
     7
370
     0
100
AcDbLine
 10
241.7717422348
 20
125.3297331946
 30
0.0
 11
243.7717422348
 21
124.601792726
 31
0.0
  0
LINE
  5
19F
330
1F
100
AcDbEntity
  8
0
  6
HIDDEN
 62
     7
370
     0
100
AcDbLine
 10
243.7717422348
 20
124.601792726
 30
0.0
 11
245.7717422348
 21
125.3297331946
 31
0.0
  0
LINE
  5
1A0
330
1F
100
AcDbEntity
  8
0
  6
HIDDEN
 62
     7
370
     0
100
AcDbLine
 10
164.0217422348
 20
100.9033716796
 30
0.0
 11
164.0217422348
 21
102.1619576765
 31
0.0
  0
LINE
  5
1A1
330
1F
100
AcDbEntity
  8
0
  6
HIDDEN
 62
     7
370
     0
100
AcDbLine
 10
158.0217422348
 20
102.1619576765
 30
0.0
 11
158.0217422348
 21
100.9033716796
 31
0.0
  0
LINE
  5
1A2
330
1F
100
AcDbEntity
  8
0
  6
HIDDEN
 62
     7
370
     0
100
AcDbLine
 10
141.2989922348
 20
102.2439200783
 30
0.0
 11
141.2989922348
 21
102.0249309255
 31
0.0
  0
LINE
  5
1A3
330
1F
100
AcDbEntity
  8
0
  6
HIDDEN
 62
     7
370
     0
100
AcDbLine
 10
141.6661031705
 20
100.1658158851
 30
0.0
 11
141.7493430044
 21
99.9632637212
 31
0.0
  0
LINE
  5
1A4
330
1F
100
AcDbEntity
  8
0
  6
HIDDEN
 62
     7
370
     0
100
AcDbLine
 10
143.3801661135
 20
98.4121578421
 30
0.0
 11
146.5670177286
 21
99.0414508406
 31
0.0
  0
LINE
  5
1A5
330
1F
100
AcDbEntity
  8
0
  6
HIDDEN
 62
     7
370
     0
100
AcDbLine
 10
145.4046699714
 20
104.9277865166
 30
0.0
 11
142.2178183562
 21
104.2984935182
 31
0.0
  0
LINE
  5
1A6
330
1F
100
AcDbEntity
  8
0
  6
HIDDEN
 62
     7
370
     0
100
AcDbLine
 10
147.2138770939
 20
99.6383164062
 30
0.0
 11
147.670558083
 21
100.5914272354
 31
0.0
  0
LINE
  5
1A7
330
1F
100
AcDbEntity
  8
0
  6
HIDDEN
 62
     7
370
     0
100
AcDbLine
 10
147.0145408708
 20
103.9136150197
 30
0.0
 11
146.2298512756
 21
104.6215980827
 31
0.0
  0
LINE
  5
1A8
330
1F
100
AcDbEntity
  8
0
  6
HIDDEN
 62
     7
370
     0
100
AcDbLine
 10
146.2298512756
 20
126.0378683064
 30
0.0
 11
147.0145408708
 21
126.7458513694
 31
0.0
  0
LINE
  5
1A9
330
1F
100
AcDbEntity
  8
0
  6
HIDDEN
 62
     7
370
     0
100
AcDbLine
 10
147.670558083
 20
130.0680391537
 30
0.0
 11
147.2138770939
 21
131.0211499829
 31
0.0
  0
LINE
  5
1AA
330
1F
100
AcDbEntity
  8
0
  6
HIDDEN
 62
     7
370
     0
100
AcDbLine
 10
142.2178183562
 20
126.3609728709
 30
0.0
 11
145.4046699714
 21
125.7316798725
 31
0.0
  0
LINE
  5
1AB
330
1F
100
AcDbEntity
  8
0
  6
HIDDEN
 62
     7
370
     0
100
AcDbLine
 10
146.5670177286
 20
131.6180155485
 30
0.0
 11
143.3801661135
 21
132.247308547
 31
0.0
  0
LINE
  5
1AC
330
1F
100
AcDbEntity
  8
0
  6
HIDDEN
 62
     7
370
     0
100
AcDbLine
 10
141.7493430044
 20
130.6962026679
 30
0.0
 11
141.6661031705
 21
130.493650504
 31
0.0
  0
LINE
  5
1AD
330
1F
100
AcDbEntity
  8
0
  6
HIDDEN
 62
     7
370
     0
100
AcDbLine
 10
141.2989922348
 20
128.6345354636
 30
0.0
 11
141.2989922348
 21
128.4155463108
 31
0.0
  0
LINE
  5
1AE
330
1F
100
AcDbEntity
  8
0
  6
HIDDEN
 62
     7
370
     0
100
AcDbLine
 10
158.0217422348
 20
129.7560947095
 30
0.0
 11
158.0217422348
 21
128.4975087126
 31
0.0
  0
LINE
  5
1AF
330
1F
100
AcDbEntity
  8
0
  6
HIDDEN
 62
     7
370
     0
100
AcDbLine
 10
164.0217422348
 20
128.4975087126
 30
0.0
 11
164.0217422348
 21
129.7560947095
 31
0.0
  0
DIMENSION
  5
1B0
330
1F
100
AcDbEntity
  8
VERMASSUNG
100
AcDbDimension
  2
_D
 10
26.0217422348
 20
165.3297331946
 30
0.0
 11
26.0217422348
 21
115.3297331946
 31
0.0
 70
   160
  1
MAS-BT 50 %%c<>
 71
     2
 42
-1.0
  3
SLDDIMSTYLE0
100
AcDbAlignedDimension
 13
174.8217422348
 23
65.3297331946
 33
0.0
 14
174.8217422348
 24
165.3297331946
 34
0.0
 50
90.0
100
AcDbRotatedDimension
  0
DIMENSION
  5
1BD
330
1F
100
AcDbEntity
  8
VERMASSUNG
100
AcDbDimension
  2
_D_1
 10
255.8217422348
 20
190.4159382721
 30
0.0
 11
145.9217422348
 21
190.4159382721
 31
0.0
 70
   160
  1
<>
 71
     2
 42
-1.0
  3
SLDDIMSTYLE0
100
AcDbAlignedDimension
 13
36.0217422348
 23
133.6794110553
 33
0.0
 14
255.8217422348
 24
131.0297331946
 34
0.0
100
AcDbRotatedDimension
  0
DIMENSION
  5
1C7
330
1F
100
AcDbEntity
  8
VERMASSUNG
100
AcDbDimension
  2
_D_2
 10
255.8217422348
 20
181.4297331946
 30
0.0
 11
196.8217422348
 21
181.4297331946
 31
0.0
 70
   160
  1
<>
 71
     2
 42
-1.0
  3
SLDDIMSTYLE0
100
AcDbAlignedDimension
 13
137.8217422348
 23
150.2547331946
 33
0.0
 14
255.8217422348
 24
131.0297331946
 34
0.0
100
AcDbRotatedDimension
  0
DIMENSION
  5
1D1
330
1F
100
AcDbEntity
  8
VERMASSUNG
100
AcDbDimension
  2
_D_3
 10
255.8217422348
 20
173.1595783778
 30
0.0
 11
215.8217422348
 21
173.1595783778
 31
0.0
 70
   160
  1
<>
 71
     2
 42
-1.0
  3
SLDDIMSTYLE0
100
AcDbAlignedDimension
 13
175.8217422348
 23
164.3297331946
 33
0.0
 14
255.8217422348
 24
131.0297331946
 34
0.0
100
AcDbRotatedDimension
  0
DIMENSION
  5
1DB
330
1F
100
AcDbEntity
  8
VERMASSUNG
100
AcDbDimension
  2
_D_4
 10
272.9008569851
 20
99.3297331946
 30
0.0
 11
272.9008569851
 21
115.3297331946
 31
0.0
 70
   160
  1
WH%%c<>
 71
     2
 42
-1.0
  3
SLDDIMSTYLE0
100
AcDbAlignedDimension
 13
255.5217422348
 23
131.3297331946
 33
0.0
 14
255.5217422348
 24
99.3297331946
 34
0.0
 50
90.0
100
AcDbRotatedDimension
  0
DIMENSION
  5
1E7
330
1F
100
AcDbEntity
  8
VERMASSUNG
100
AcDbDimension
  2
_D_5
 10
264.8280506428
 20
106.3297331946
 30
0.0
 11
264.8280506428
 21
115.3297331946
 31
0.0
 70
   160
  1
%%c<>
 71
     2
 42
-1.0
  3
SLDDIMSTYLE0
100
AcDbAlignedDimension
 13
254.8217422348
 23
124.3297331946
 33
0.0
 14
254.8217422348
 24
106.3297331946
 34
0.0
 50
90.0
100
AcDbRotatedDimension
  0
LINE
  5
1F2
330
1F
100
AcDbEntity
  8
VERMASSUNG
  6
CENTERX2
370
     0
100
AcDbLine
 10
159.556946802
 20
125.9950241416
 30
0.0
 11
142.5217422348
 21
129.3588879971
 31
0.0
  0
LINE
  5
1F3
330
1F
100
AcDbEntity
  8
VERMASSUNG
  6
CENTERX2
370
     0
100
AcDbLine
 10
142.5217422348
 20
129.3588879971
 30
0.0
 11
140.3596303428
 21
129.7858303339
 31
0.0
  0
LINE
  5
1F4
330
1F
100
AcDbEntity
  8
VERMASSUNG
  6
CENTERX2
370
     0
100
AcDbLine
 10
243.7717422348
 20
121.62129524
 30
0.0
 11
243.7717422348
 21
131.8297331946
 31
0.0
  0
LINE
  5
1F5
330
1F
100
AcDbEntity
  8
VERMASSUNG
  6
CENTERX2
370
     0
100
AcDbLine
 10
34.43618189
 20
115.3297331946
 30
0.0
 11
258.7922163728
 21
115.3297331946
 31
0.0
  0
LINE
  5
1F6
330
1F
100
AcDbEntity
  8
0
  6
Continuous
 62
     7
370
    15
100
AcDbLine
 10
276.1136547973
 20
20.4392606802
 30
0.0
 11
276.2197035758
 21
20.5005012403
 31
0.0
  0
LINE
  5
1F7
330
1F
100
AcDbEntity
  8
0
  6
Continuous
 62
     7
370
    15
100
AcDbLine
 10
281.7695896489
 20
30.1142275624
 30
0.0
 11
281.7695896489
 21
30.2366887792
 31
0.0
  0
LINE
  5
1F8
330
1F
100
AcDbEntity
  8
0
  6
Continuous
 62
     7
370
    15
100
AcDbLine
 10
280.11241033
 20
33.8994472309
 30
0.0
 11
252.9948652715
 21
49.5540727751
 31
0.0
  0
LINE
  5
1F9
330
1F
100
AcDbEntity
  8
0
  6
Continuous
 62
     7
370
    15
100
AcDbLine
 10
244.9955154104
 20
35.697290977
 30
0.0
 11
272.1130604689
 21
20.0426654328
 31
0.0
  0
SPLINE
  5
1FA
330
1F
100
AcDbEntity
  8
0
  6
Continuous
 62
     7
370
    15
100
AcDbSpline
210
0.0
220
0.0
230
1.0
 70
     8
 71
     3
 72
    21
 73
    17
 74
     0
 42
0.000000001
 43
0.00000001
 40
0.0
 40
0.0
 40
0.0
 40
0.0
 40
0.0039279620157788
 40
0.0892269582967605
 40
0.1635459138966113
 40
0.242808775694058
 40
0.3194325884817167
 40
0.3954632861614663
 40
0.4715370015984932
 40
0.5479117561641351
 40
0.624565950182921
 40
0.7013793387620828
 40
0.7782038854320883
 40
0.8548344103653316
 40
0.9311146761364207
 40
1.0
 40
1.0
 40
1.0
 40
1.0
 10
273.6298458849789
 20
23.21203346251419
 30
0.0
 10
273.6237188227775
 20
23.21430772670851
 30
0.0
 10
273.4845374556149
 20
23.26596954920268
 30
0.0
 10
273.2936304792203
 20
23.46668904832131
 30
0.0
 10
273.0427844664146
 20
23.84465512467751
 30
0.0
 10
272.881767789825
 20
24.34709814007929
 30
0.0
 10
272.8136212664209
 20
24.96114278601202
 30
0.0
 10
272.8498138748173
 20
25.64861203880893
 30
0.0
 10
272.9904387476126
 20
26.38771838106884
 30
0.0
 10
273.2331507008146
 20
27.15353212529011
 30
0.0
 10
273.5711755365049
 20
27.91879864887226
 30
0.0
 10
273.9933187404743
 20
28.65529283396155
 30
0.0
 10
274.4843687627924
 20
29.33656025714702
 30
0.0
 10
275.0251299553843
 20
29.93466394038399
 30
0.0
 10
275.5780594363308
 20
30.42418561387603
 30
0.0
 10
275.9423575735701
 20
30.65437552505966
 30
0.0
 10
276.1152277091842
 20
30.76360737967422
 30
0.0
  0
SPLINE
  5
1FB
330
1F
100
AcDbEntity
  8
0
  6
Continuous
 62
     7
370
    15
100
AcDbSpline
210
0.0
220
0.0
230
1.0
 70
     8
 71
     3
 72
    12
 73
     8
 74
     0
 42
0.000000001
 43
0.00000001
 40
0.0
 40
0.0
 40
0.0
 40
0.0
 40
0.1216869153391395
 40
0.3541105868250889
 40
0.5865410421555072
 40
0.8224502451871478
 40
1.0
 40
1.0
 40
1.0
 40
1.0
 10
276.1152277091842
 20
30.76360737967422
 30
0.0
 10
276.2127588990781
 20
30.81672765051484
 30
0.0
 10
276.4965759947029
 20
30.97130836469643
 30
0.0
 10
276.9483022007941
 20
31.13152544749334
 30
0.0
 10
277.4316079475016
 20
31.19587418271444
 30
0.0
 10
277.815382446082
 20
31.15773743603686
 30
0.0
 10
278.0068075450112
 20
31.05467811012105
 30
0.0
 10
278.0890103337889
 20
31.01042182373431
 30
0.0
  0
SPLINE
  5
1FC
330
1F
100
AcDbEntity
  8
0
  6
Continuous
 62
     7
370
    15
100
AcDbSpline
210
0.0
220
0.0
230
1.0
 70
     8
 71
     3
 72
    21
 73
    17
 74
     0
 42
0.000000001
 43
0.00000001
 40
0.0
 40
0.0
 40
0.0
 40
0.0
 40
0.0186815492028909
 40
0.0995613813757216
 40
0.1807751724263713
 40
0.2622824718514895
 40
0.3440120081045606
 40
0.4258877106036008
 40
0.507844615072023
 40
0.5898346873845314
 40
0.6718201103585308
 40
0.7537845365164614
 40
0.8357211148667856
 40
0.9176283422039012
 40
0.9995080307745897
 40
1.0
 40
1.0
 40
1.0
 40
1.0
 10
238.9443372280147
 20
20.62574998942853
 30
0.0
 10
239.0385794557241
 20
20.61388394255754
 30
0.0
 10
239.5408336463572
 20
20.55064507488575
 30
0.0
 10
240.5024064265971
 20
20.5793598727538
 30
0.0
 10
241.8224913392472
 20
20.71810590083696
 30
0.0
 10
243.1840198999249
 20
21.01364364400672
 30
0.0
 10
244.5726349863269
 20
21.44899936018246
 30
0.0
 10
245.9805841669498
 20
22.02552424168026
 30
0.0
 10
247.3981706486891
 20
22.73818460672514
 30
0.0
 10
248.8161938222961
 20
23.58245366403481
 30
0.0
 10
250.2256963198498
 20
24.55225682400751
 30
0.0
 10
251.6172133993804
 20
25.64208050044826
 30
0.0
 10
252.9843279167536
 20
26.84126599876779
 30
0.0
 10
254.3103560652165
 20
28.15524752198374
 30
0.0
 10
255.1848171189875
 20
29.07232306881539
 30
0.0
 10
255.5994915314683
 20
29.57133573407083
 30
0.0
 10
255.6019681970468
 20
29.57431611447065
 30
0.0
  0
SPLINE
  5
1FD
330
1F
100
AcDbEntity
  8
0
  6
Continuous
 62
     7
370
    15
100
AcDbSpline
210
0.0
220
0.0
230
1.0
 70
     8
 71
     3
 72
    20
 73
    16
 74
     0
 42
0.000000001
 43
0.00000001
 40
0.0
 40
0.0
 40
0.0
 40
0.0
 40
0.0650880969799208
 40
0.1468739850693313
 40
0.2286922481024535
 40
0.3105474910514719
 40
0.392442606213502
 40
0.4743774759265202
 40
0.556346980271058
 40
0.6383381224111444
 40
0.7203155848341173
 40
0.8022324043286242
 40
0.88402308741083
 40
0.9656066293207268
 40
0.9999999999999999
 40
0.9999999999999999
 40
0.9999999999999999
 40
0.9999999999999999
 10
263.5947304854633
 20
43.43490083731754
 30
0.0
 10
263.7565264984191
 20
43.91699873496823
 30
0.0
 10
264.1216258989817
 20
45.00487259681039
 30
0.0
 10
264.5671319212033
 20
46.69062882046619
 30
0.0
 10
264.9495559876016
 20
48.47955478910313
 30
0.0
 10
265.2192155690029
 20
50.23753010184325
 30
0.0
 10
265.3780054148017
 20
51.95370861905454
 30
0.0
 10
265.4234941079941
 20
53.61743275771498
 30
0.0
 10
265.355153371233
 20
55.21825709324164
 30
0.0
 10
265.172941219836
 20
56.74615768114448
 30
0.0
 10
264.8769150865223
 20
58.19052872539473
 30
0.0
 10
264.4705801387627
 20
59.54412611345098
 30
0.0
 10
263.948463679723
 20
60.78855390393681
 30
0.0
 10
263.4590755018151
 20
61.72638613862031
 30
0.0
 10
263.1081463697121
 20
62.20393418007218
 30
0.0
 10
263.0040770730467
 20
62.34555276984269
 30
0.0
  0
LINE
  5
1FE
330
1F
100
AcDbEntity
  8
0
  6
Continuous
 62
     7
370
    15
100
AcDbLine
 10
232.8634450946
 20
23.0716086538
 30
0.0
 11
235.0819926206
 21
21.7908684284
 31
0.0
  0
LINE
  5
1FF
330
1F
100
AcDbEntity
  8
0
  6
Continuous
 62
     7
370
    15
100
AcDbLine
 10
260.0799609365
 20
65.0933115474
 30
0.0
 11
257.8614134105
 21
66.3740517728
 31
0.0
  0
LINE
  5
200
330
1F
100
AcDbEntity
  8
0
  6
Continuous
 62
     7
370
    15
100
AcDbLine
 10
252.5404348821
 20
69.4457872936
 30
0.0
 11
248.4126990469
 21
71.8286784699
 31
0.0
  0
SPLINE
  5
201
330
1F
100
AcDbEntity
  8
0
  6
Continuous
 62
     7
370
    15
100
AcDbSpline
210
0.0
220
0.0
230
1.0
 70
     8
 71
     3
 72
    31
 73
    27
 74
     0
 42
0.000000001
 43
0.00000001
 40
0.0
 40
0.0
 40
0.0
 40
0.0
 40
0.018342481450696
 40
0.0620149509310538
 40
0.105864957153825
 40
0.1498655462930296
 40
0.1939766288579195
 40
0.2381579821269867
 40
0.2823764970167145
 40
0.3266079441111511
 40
0.370833879296485
 40
0.415047333874742
 40
0.4592453778710863
 40
0.503427682981613
 40
0.5475955173449968
 40
0.5917510864138393
 40
0.6358971226055855
 40
0.6800366424902103
 40
0.724172811530625
 40
0.768308874283194
 40
0.8124474407720712
 40
0.856591413997809
 40
0.9007441210778869
 40
0.9449088566948951
 40
0.9890887974791109
 40
1.0
 40
1.0
 40
1.0
 40
1.0
 10
244.5054835021853
 20
72.99253441580265
 30
0.0
 10
244.3326193985256
 20
73.01049614796196
 30
0.0
 10
243.7481750890132
 20
73.07122380585766
 30
0.0
 10
242.6994405633248
 20
73.02157392815892
 30
0.0
 10
241.3692782073151
 20
72.84763827011386
 30
0.0
 10
240.0008815343437
 20
72.5204821817757
 30
0.0
 10
238.6071115144478
 20
72.05313825415125
 30
0.0
 10
237.1961882117709
 20
71.44565425295455
 30
0.0
 10
235.7777006906886
 20
70.70297306071419
 30
0.0
 10
234.3608083168496
 20
69.82997420824144
 30
0.0
 10
232.9545733581175
 20
68.83263068789599
 30
0.0
 10
231.5678169113569
 20
67.71756118991676
 30
0.0
 10
230.2091197075903
 20
66.4920299021731
 30
0.0
 10
228.886855540003
 20
65.1639172613132
 30
0.0
 10
227.6091663666628
 20
63.74168811286285
 30
0.0
 10
226.3839265607592
 20
62.23434865947598
 30
0.0
 10
225.2187019807928
 20
60.65140050480791
 30
0.0
 10
224.1207092985236
 20
59.00278927960277
 30
0.0
 10
223.0967642864165
 20
57.298845353945
 30
0.0
 10
222.1532770418646
 20
55.55023948306862
 30
0.0
 10
221.2960893723247
 20
53.76788393263708
 30
0.0
 10
220.5308815329611
 20
51.96297424039627
 30
0.0
 10
219.8614724330745
 20
50.14647693896492
 30
0.0
 10
219.2960171607385
 20
48.33067630657176
 30
0.0
 10
218.942368724013
 20
46.9770452968853
 30
0.0
 10
218.7850430606518
 20
46.2345603125041
 30
0.0
 10
218.7538835661908
 20
46.08750574897044
 30
0.0
  0
LINE
  5
202
330
1F
100
AcDbEntity
  8
0
  6
Continuous
 62
     7
370
    15
100
AcDbLine
 10
233.9899116923
 20
69.5449536642
 30
0.0
 11
203.6433510348
 21
80.480651229
 31
0.0
  0
LINE
  5
203
330
1F
100
AcDbEntity
  8
0
  6
Continuous
 62
     7
370
    15
100
AcDbLine
 10
193.5339963594
 20
62.9688378581
 30
0.0
 11
222.997733686
 21
38.0899016327
 31
0.0
  0
LINE
  5
204
330
1F
100
AcDbEntity
  8
0
  6
Continuous
 62
     7
370
    15
100
AcDbLine
 10
223.414730731
 20
28.5262353509
 30
0.0
 11
227.5424665662
 21
26.1433441745
 31
0.0
  0
SPLINE
  5
205
330
1F
100
AcDbEntity
  8
0
  6
Continuous
 62
     7
370
    15
100
AcDbSpline
210
0.0
220
0.0
230
1.0
 70
     8
 71
     3
 72
    11
 73
     7
 74
     0
 42
0.000000001
 43
0.00000001
 40
0.0
 40
0.0
 40
0.0
 40
0.0
 40
0.1050885860694574
 40
0.4236183153902486
 40
0.7416590627631888
 40
1.0
 40
1.0
 40
1.0
 40
1.0
 10
218.7591720012447
 20
35.0006477103626
 30
0.0
 10
218.8015787566316
 20
34.85029409689019
 30
0.0
 10
218.9725228995694
 20
34.2442097747553
 30
0.0
 10
219.3536356736375
 20
33.25419308182784
 30
0.0
 10
219.8935827124123
 20
32.13650337512821
 30
0.0
 10
220.3240162628253
 20
31.50651772233314
 30
0.0
 10
220.5169415583387
 20
31.22415086659409
 30
0.0
  0
SPLINE
  5
206
330
1F
100
AcDbEntity
  8
0
  6
Continuous
 62
     7
370
    15
100
AcDbSpline
210
0.0
220
0.0
230
1.0
 70
     8
 71
     3
 72
    26
 73
    22
 74
     0
 42
0.000000001
 43
0.00000001
 40
0.0
 40
0.0
 40
0.0
 40
0.0
 40
0.0211003487122628
 40
0.0734660947596716
 40
0.1265293848983989
 40
0.1807963946600735
 40
0.2363312363639711
 40
0.2928241536681345
 40
0.3498299648572936
 40
0.4069680242110202
 40
0.464024702657787
 40
0.5209555255077407
 40
0.5777730718169946
 40
0.6345160112361959
 40
0.6912339037794962
 40
0.7479784728614466
 40
0.8047900183011125
 40
0.8617257557541511
 40
0.9188408427311997
 40
0.9761800833651304
 40
0.9999999999999999
 40
0.9999999999999999
 40
0.9999999999999999
 40
0.9999999999999999
 10
203.6837815484543
 20
80.44581274750514
 30
0.0
 10
203.5846125271085
 20
80.48791296584061
 30
0.0
 10
203.2393309955676
 20
80.63449531250288
 30
0.0
 10
202.5844623106131
 20
80.73518972694416
 30
0.0
 10
201.7384207608502
 20
80.74999306920778
 30
0.0
 10
200.8512842098345
 20
80.6115184261435
 30
0.0
 10
199.9370604092371
 20
80.33065344143037
 30
0.0
 10
199.007605383624
 20
79.90600337517046
 30
0.0
 10
198.0796435472482
 20
79.34489157238028
 30
0.0
 10
197.1698066579753
 20
78.65775930996098
 30
0.0
 10
196.2932476813066
 20
77.85778334527224
 30
0.0
 10
195.4631218706583
 20
76.95900680096753
 30
0.0
 10
194.691133565208
 20
75.9759328126815
 30
0.0
 10
193.9881076943213
 20
74.92369229022907
 30
0.0
 10
193.3640812392501
 20
73.8180215814759
 30
0.0
 10
192.8282410601344
 20
72.67519665181446
 30
0.0
 10
192.3889704273959
 20
71.51183869429475
 30
0.0
 10
192.0530463372039
 20
70.344255880073
 30
0.0
 10
191.8285321455368
 20
69.18960098573378
 30
0.0
 10
191.7366815489796
 20
68.28201192562751
 30
0.0
 10
191.7294148663082
 20
67.76869700533655
 30
0.0
 10
191.727282121449
 20
67.61804094851884
 30
0.0
  0
SPLINE
  5
207
330
1F
100
AcDbEntity
  8
0
  6
Continuous
 62
     7
370
    15
100
AcDbSpline
210
0.0
220
0.0
230
1.0
 70
     8
 71
     3
 72
    13
 73
     9
 74
     0
 42
0.000000001
 43
0.00000001
 40
0.0
 40
0.0
 40
0.0
 40
0.0
 40
0.1011487783717619
 40
0.2919018006118885
 40
0.4826418266735833
 40
0.6715266520409041
 40
0.8566629140943125
 40
0.9999999999999999
 40
0.9999999999999999
 40
0.9999999999999999
 40
0.9999999999999999
 10
191.727282121449
 20
67.61804094851884
 30
0.0
 10
191.730739554815
 20
67.42739531683225
 30
0.0
 10
191.7407172435351
 20
66.87721760768014
 30
0.0
 10
191.8525770506014
 20
66.01390168063406
 30
0.0
 10
192.1042684418646
 20
65.0657914657714
 30
0.0
 10
192.4861353238035
 20
64.22108968286942
 30
0.0
 10
192.940275615988
 20
63.52900361863839
 30
0.0
 10
193.3156503970254
 20
63.18417996343106
 30
0.0
 10
193.4794540284942
 20
63.03370803566016
 30
0.0
  0
LINE
  5
208
330
1F
100
AcDbEntity
  8
0
  6
Continuous
 62
     7
370
    15
100
AcDbLine
 10
273.3729264158
 20
36.4320678046
 30
0.0
 11
273.1253988285
 21
36.5750088879
 31
0.0
  0
LINE
  5
209
330
1F
100
AcDbEntity
  8
0
  6
Continuous
 62
     7
370
    15
100
AcDbLine
 10
270.7915672914
 20
36.5750088879
 30
0.0
 11
270.5440397041
 21
36.4320678046
 31
0.0
  0
LINE
  5
20A
330
1F
100
AcDbEntity
  8
0
  6
Continuous
 62
     7
370
    15
100
AcDbLine
 10
269.95848306
 20
35.6157923713
 30
0.0
 11
269.95848306
 21
35.4933112495
 31
0.0
  0
LINE
  5
20B
330
1F
100
AcDbEntity
  8
0
  6
Continuous
 62
     7
370
    15
100
AcDbLine
 10
273.95848306
 20
35.4933112495
 30
0.0
 11
273.95848306
 21
35.6157923713
 31
0.0
  0
LINE
  5
20C
330
1F
100
AcDbEntity
  8
0
  6
Continuous
 62
     7
370
    15
100
AcDbLine
 10
274.7446395931
 20
29.2999558482
 30
0.0
 11
275.6709268355
 21
29.488679937
 31
0.0
  0
LINE
  5
20D
330
1F
100
AcDbEntity
  8
0
  6
Continuous
 62
     7
370
    15
100
AcDbLine
 10
274.4785683034
 20
29.3030533259
 30
0.0
 11
274.6728086118
 21
29.3032986089
 31
0.0
  0
LWPOLYLINE
  5
20E
330
1F
100
AcDbEntity
  8
0
  6
Continuous
 62
     7
370
    15
100
AcDbPolyline
 90
       43
 70
   128
 43
0.0
 10
276.2188014166
 20
33.3196710968
 10
275.3914993594
 20
32.7704871081
 10
274.5826778631
 20
32.0903856286
 10
273.8104046633
 20
31.2945590014
 10
273.0919310673
 20
30.4007846783
 10
272.4433065879
 20
29.4290281008
 10
271.8790204241
 20
28.4009967051
 10
271.4116777964
 20
27.3396550137
 10
271.0517183669
 20
26.2687116462
 10
270.8071830343
 20
25.2120897079
 10
270.683534314
 20
24.1933923867
 10
270.683534314
 20
23.2353756974
 10
270.8071830343
 20
22.3594401499
 10
271.0517183669
 20
21.5851526968
 10
271.4116777964
 20
20.9298096404
 10
271.8790204241
 20
20.4080502616
 10
272.4433065879
 20
20.0315298028
 10
273.0919310673
 20
19.8086591087
 10
273.8104046633
 20
19.7444167426
 10
274.5826778631
 20
19.8402377725
 10
275.3914993594
 20
20.0939817152
 10
276.2188014166
 20
20.4999803502
 10
277.0461034738
 20
21.0491643388
 10
277.8549249702
 20
21.7292658184
 10
278.6271981699
 20
22.5250924456
 10
279.3456717659
 20
23.4188667686
 10
279.9942962454
 20
24.3906233461
 10
280.5585824092
 20
25.4186547419
 10
281.0259250368
 20
26.4799964333
 10
281.3858844664
 20
27.5509398007
 10
281.6304197989
 20
28.6075617391
 10
281.7540685192
 20
29.6262590603
 10
281.7540685192
 20
30.5842757496
 10
281.6304197989
 20
31.4602112971
 10
281.3858844664
 20
32.2344987501
 10
281.0259250368
 20
32.8898418066
 10
280.5585824092
 20
33.4116011854
 10
279.9942962454
 20
33.7881216442
 10
279.3456717659
 20
34.0109923382
 10
278.6271981699
 20
34.0752347044
 10
277.8549249702
 20
33.9794136744
 10
277.0461034738
 20
33.7256697317
 10
276.2188014166
 20
33.3196710968
  0
LWPOLYLINE
  5
20F
330
1F
100
AcDbEntity
  8
0
  6
Continuous
 62
     7
370
    15
100
AcDbPolyline
 90
       23
 70
   128
 43
0.0
 10
276.1127353994
 20
33.503382827
 10
275.2696250227
 20
32.9437048767
 10
274.4453483385
 20
32.2506078275
 10
273.658318326
 20
31.4395743221
 10
272.9261159352
 20
30.5287215088
 10
272.2650973574
 20
29.5383963343
 10
271.6900286555
 20
28.4907210265
 10
271.2137559139
 20
27.4090989206
 10
270.8469182787
 20
26.3176916672
 10
270.5977102965
 20
25.2408795007
 10
270.4716988617
 20
24.2027166255
 10
270.4716988617
 20
23.2263938849
 10
270.5977102965
 20
22.3337207155
 10
270.8469182787
 20
21.5446379608
 10
271.2137559139
 20
20.8767724255
 10
271.6900286555
 20
20.3450431223
 10
272.2650973574
 20
19.961328005
 10
272.9261159352
 20
19.7341986353
 10
273.658318326
 20
19.668728708
 10
274.4453483385
 20
19.7663807131
 10
275.2696250227
 20
20.0249732661
 10
276.1127353994
 20
20.4387298368
 10
276.1136547973
 20
20.4392606802
  0
LWPOLYLINE
  5
210
330
1F
100
AcDbEntity
  8
0
  6
Continuous
 62
     7
370
    15
100
AcDbPolyline
 90
       12
 70
   128
 43
0.0
 10
281.7695896489
 20
30.2366887792
 10
281.7537719371
 20
30.7157187788
 10
281.6277605024
 20
31.6083919483
 10
281.3785525202
 20
32.397474703
 10
281.011714885
 20
33.0653402382
 10
280.5354421434
 20
33.5970695414
 10
279.9603734415
 20
33.9807846587
 10
279.2993548637
 20
34.2079140284
 10
278.5671524729
 20
34.2733839557
 10
277.7801224604
 20
34.1757319507
 10
276.9558457762
 20
33.9171393976
 10
276.1127353994
 20
33.503382827
  0
SPLINE
  5
211
330
1F
100
AcDbEntity
  8
0
  6
Continuous
 62
     7
370
    15
100
AcDbSpline
210
0.0
220
0.0
230
1.0
 70
    11
 71
     3
 72
    82
 73
    78
 74
     0
 42
0.000000001
 43
0.00000001
 40
0.0
 40
0.0
 40
0.0
 40
0.0
 40
0.0312499999999994
 40
0.0312499999999994
 40
0.0624999999999988
 40
0.0624999999999988
 40
0.0937499999999982
 40
0.0937499999999982
 40
0.1249999999999976
 40
0.1249999999999976
 40
0.156249999999997
 40
0.156249999999997
 40
0.1874999999999964
 40
0.1874999999999964
 40
0.2187499999999958
 40
0.2187499999999958
 40
0.2343749999999961
 40
0.2343749999999961
 40
0.2499999999999964
 40
0.2499999999999964
 40
0.2812499999999959
 40
0.2812499999999959
 40
0.2968749999999962
 40
0.2968749999999962
 40
0.3124999999999963
 40
0.3124999999999963
 40
0.3437499999999968
 40
0.3437499999999968
 40
0.3593749999999968
 40
0.3593749999999968
 40
0.3749999999999968
 40
0.3749999999999968
 40
0.3906249999999969
 40
0.3906249999999969
 40
0.4062499999999969
 40
0.4062499999999969
 40
0.4374999999999971
 40
0.4374999999999971
 40
0.4687499999999972
 40
0.4687499999999972
 40
0.4999999999999973
 40
0.4999999999999973
 40
0.5312499999999976
 40
0.5312499999999976
 40
0.5624999999999977
 40
0.5624999999999977
 40
0.5937499999999979
 40
0.5937499999999979
 40
0.624999999999998
 40
0.624999999999998
 40
0.6562499999999982
 40
0.6562499999999982
 40
0.6874999999999983
 40
0.6874999999999983
 40
0.7187499999999986
 40
0.7187499999999986
 40
0.7499999999999987
 40
0.7499999999999987
 40
0.7812499999999989
 40
0.7812499999999989
 40
0.8124999999999991
 40
0.8124999999999991
 40
0.8281249999999992
 40
0.8281249999999992
 40
0.8437499999999993
 40
0.8437499999999993
 40
0.8749999999999993
 40
0.8749999999999993
 40
0.8906249999999992
 40
0.8906249999999992
 40
0.9062499999999991
 40
0.9062499999999991
 40
0.9374999999999994
 40
0.9374999999999994
 40
0.9687499999999997
 40
0.9687499999999997
 40
1.0
 40
1.0
 40
1.0
 40
1.0
 10
271.941588703026
 20
37.10905658553618
 30
0.0
 10
272.0947119862614
 20
37.08202435976565
 30
0.0
 10
272.2437286472575
 20
37.04764177214675
 30
0.0
 10
272.5345547118889
 20
36.96717270216483
 30
0.0
 10
272.6771001887591
 20
36.92078192933278
 30
0.0
 10
272.9517425693725
 20
36.81864836188572
 30
0.0
 10
273.0816278709237
 20
36.76381042633059
 30
0.0
 10
273.3272572284196
 20
36.64776841923754
 30
0.0
 10
273.4438824336893
 20
36.58601603172961
 30
0.0
 10
273.6577981769756
 20
36.45874106460618
 30
0.0
 10
273.7544490167133
 20
36.39374404284595
 30
0.0
 10
273.9274727649274
 20
36.26066310312093
 30
0.0
 10
274.0044227102316
 20
36.19193225001405
 30
0.0
 10
274.1332933210956
 20
36.05340355204724
 30
0.0
 10
274.18509514085
 20
35.98402883752903
 30
0.0
 10
274.2435446594962
 20
35.8786215518444
 30
0.0
 10
274.259797702657
 20
35.84325803997515
 30
0.0
 10
274.2854976720058
 20
35.77181797302631
 30
0.0
 10
274.2949320109413
 20
35.73560487319137
 30
0.0
 10
274.3119558377541
 20
35.62785632276825
 30
0.0
 10
274.3087433095623
 20
35.55652406157826
 30
0.0
 10
274.2807514616132
 20
35.44883345317042
 30
0.0
 10
274.2675301815605
 20
35.41282172493915
 30
0.0
 10
274.232655601928
 20
35.3403138455072
 30
0.0
 10
274.2109517128271
 20
35.30387404167492
 30
0.0
 10
274.1345025856825
 20
35.19666143165342
 30
0.0
 10
274.0681136290367
 20
35.12691716918972
 30
0.0
 10
273.9437460286842
 20
35.02420047580889
 30
0.0
 10
273.8977076457631
 20
34.9900194886118
 30
0.0
 10
273.7989532625824
 20
34.92382986831855
 30
0.0
 10
273.7463647893854
 20
34.89184010268359
 30
0.0
 10
273.634924462596
 20
34.83000071577292
 30
0.0
 10
273.5760723244381
 20
34.80015121684607
 30
0.0
 10
273.4520576996515
 20
34.74264665012764
 30
0.0
 10
273.3864470835511
 20
34.71483664201381
 30
0.0
 10
273.1848925611099
 20
34.63684310727596
 30
0.0
 10
273.0434782010285
 20
34.5915120055594
 30
0.0
 10
272.747373296545
 20
34.51447813163845
 30
0.0
 10
272.5952356113164
 20
34.48357740126173
 30
0.0
 10
272.2900751643105
 20
34.4383709228379
 30
0.0
 10
272.1346102483992
 20
34.42382177519811
 30
0.0
 10
271.8304810471319
 20
34.41257141390297
 30
0.0
 10
271.6810383755411
 20
34.41561120582742
 30
0.0
 10
271.3869069069318
 20
34.43990343849057
 30
0.0
 10
271.2434345033871
 20
34.46123662436048
 30
0.0
 10
270.9706573664203
 20
34.52146862519
 30
0.0
 10
270.8401692331676
 20
34.56044987155228
 30
0.0
 10
270.5910942678736
 20
34.65730078870862
 30
0.0
 10
270.4753030634508
 20
34.71415840453214
 30
0.0
 10
270.2624975194426
 20
34.84330710261754
 30
0.0
 10
270.1651213539079
 20
34.9157372051797
 30
0.0
 10
269.9893187113518
 20
35.07667681113059
 30
0.0
 10
269.9133560470459
 20
35.16294214056502
 30
0.0
 10
269.7850519705083
 20
35.34556254225389
 30
0.0
 10
269.7326067808066
 20
35.44204598061643
 30
0.0
 10
269.653400289711
 20
35.64437747068074
 30
0.0
 10
269.6278224214759
 20
35.74714208969338
 30
0.0
 10
269.6051051810604
 20
35.95432205266632
 30
0.0
 10
269.6080069601207
 20
36.05921379880228
 30
0.0
 10
269.6461601806866
 20
36.26720025938871
 30
0.0
 10
269.6807187761737
 20
36.36710916948712
 30
0.0
 10
269.7567274029489
 20
36.50947445325352
 30
0.0
 10
269.7861224302796
 20
36.55567399224695
 30
0.0
 10
269.8536215195597
 20
36.64523111171012
 30
0.0
 10
269.8920006321425
 20
36.68877576450713
 30
0.0
 10
270.0173443001845
 20
36.81078763629638
 30
0.0
 10
270.1151512028387
 20
36.88198942011432
 30
0.0
 10
270.2837321266632
 20
36.97297775012025
 30
0.0
 10
270.3439974003743
 20
37.00076665239104
 30
0.0
 10
270.4686459628739
 20
37.04949412145375
 30
0.0
 10
270.5333123930049
 20
37.07063798787737
 30
0.0
 10
270.734075344859
 20
37.12491912090019
 30
0.0
 10
270.8786952090117
 20
37.14899227668502
 30
0.0
 10
271.1739667767712
 20
37.17323779228103
 30
0.0
 10
271.3250573110286
 20
37.17387610945881
 30
0.0
 10
271.6339550633828
 20
37.1552286420385
 30
0.0
 10
271.7884654197907
 20
37.1360888113067
 30
0.0
 10
271.941588703026
 20
37.10905658553617
 30
0.0
  0
ARC
  5
212
330
1F
100
AcDbEntity
  8
0
  6
Continuous
 62
     7
370
    15
100
AcDbCircle
 10
255.7252133862
 20
57.5457588416
 30
0.0
 40
8.703891722761787
100
AcDbArc
 50
34.3325496066
 51
84.2964748064
  0
ARC
  5
213
330
1F
100
AcDbEntity
  8
0
  6
Continuous
 62
     7
370
    15
100
AcDbCircle
 10
239.432049399
 20
29.3230424112
 30
0.0
 40
8.690205791197942
100
AcDbArc
 50
215.038918254
 51
265.86285515
  0
LWPOLYLINE
  5
214
330
1F
100
AcDbEntity
  8
0
  6
Continuous
 62
     7
370
    15
100
AcDbPolyline
 90
        9
 70
   128
 43
0.0
 10
232.8634450946
 20
23.0716086538
 10
232.6971218315
 20
23.1702146646
 10
231.7062274436
 20
23.8766698563
 10
230.8118063379
 20
24.7303912892
 10
230.0201770896
 20
25.7253479079
 10
229.3369321081
 20
26.8545109111
 10
228.7668981299
 20
28.1099034057
 10
228.3141021201
 20
29.4826567592
 10
227.9817428243
 20
30.9630732517
  0
SPLINE
  5
215
330
1F
100
AcDbEntity
  8
0
  6
Continuous
 62
     7
370
    15
100
AcDbSpline
210
0.0
220
0.0
230
1.0
 70
     8
 71
     3
 72
    32
 73
    28
 74
     0
 42
0.000000001
 43
0.00000001
 40
0.0
 40
0.0
 40
0.0
 40
0.0
 40
0.0193254758652704
 40
0.0385826927409049
 40
0.0577846348017481
 40
0.0769443985967347
 40
0.0960751672961712
 40
0.1151901840600305
 40
0.1343027247899319
 40
0.1534260705421022
 40
0.1725734798867981
 40
0.1917581615009326
 40
0.2109932472750491
 40
0.230291766203487
 40
0.2496666193081581
 40
0.3745846283004807
 40
0.4997410234225904
 40
0.4999962720874485
 40
0.624862702147581
 40
0.7503411293900218
 40
0.78614513231055
 40
0.8217618639989446
 40
0.8572756267685467
 40
0.8927714566740896
 40
0.9283345184906214
 40
0.9640494961172915
 40
1.0
 40
1.0
 40
1.0
 40
1.0
 10
227.9816875482971
 20
38.41489801817856
 30
0.0
 10
228.0036307655849
 20
38.35480697446277
 30
0.0
 10
228.0474396951175
 20
38.23483713297838
 30
0.0
 10
228.10987894634
 20
38.05408957886676
 30
0.0
 10
228.1697875738672
 20
37.87324618244775
 30
0.0
 10
228.2269741595012
 20
37.69223906690505
 30
0.0
 10
228.2815322307095
 20
37.51110966458223
 30
0.0
 10
228.3334799773005
 20
37.3298711472505
 30
0.0
 10
228.3828564567634
 20
37.14854519304063
 30
0.0
 10
228.429695838211
 20
36.96715211630575
 30
0.0
 10
228.4740344445565
 20
36.78571376090439
 30
0.0
 10
228.5159082877794
 20
36.60425187193322
 30
0.0
 10
228.5553558789674
 20
36.42279181948339
 30
0.0
 10
228.592409398327
 20
36.24134937379456
 30
0.0
 10
228.6901014979608
 20
35.730998422056
 30
0.0
 10
228.8075976967936
 20
34.90439689336922
 30
0.0
 10
228.8424491329146
 20
34.18907739807658
 30
0.0
 10
228.842844957088
 20
33.51236543316764
 30
0.0
 10
228.8077936060457
 20
32.87067430906853
 30
0.0
 10
228.6828595258741
 20
32.24937337029441
 30
0.0
 10
228.5621333449986
 20
31.87674926832253
 30
0.0
 10
228.4878259324764
 20
31.68795256719153
 30
0.0
 10
228.4049124612442
 20
31.51376128423004
 30
0.0
 10
228.3132136602343
 20
31.35394511416457
 30
0.0
 10
228.2123115926117
 20
31.20874124154895
 30
0.0
 10
228.1027586958118
 20
31.0766942814208
 30
0.0
 10
228.0222303979118
 20
31.00099479647855
 30
0.0
 10
227.981833922156
 20
30.96302066206938
 30
0.0
  0
LWPOLYLINE
  5
216
330
1F
100
AcDbEntity
  8
0
  6
Continuous
 62
     7
370
    15
100
AcDbPolyline
 90
       27
 70
   128
 43
0.0
 10
227.9816875481
 20
38.4148980183
 10
228.314026888
 20
40.2790638807
 10
228.7668064465
 20
42.1746231942
 10
229.3368275149
 20
44.0881845823
 10
230.0200631201
 20
46.0062294908
 10
230.8116864727
 20
47.915207691
 10
231.7061050669
 20
49.8016330073
 10
232.6970001891
 20
51.6521785909
 10
233.7773715573
 20
53.4537710694
 10
234.9395867752
 20
55.1936829047
 10
236.175435252
 20
56.8596223079
 10
237.4761862071
 20
58.4398200761
 10
238.8326503496
 20
59.9231127373
 10
240.235244797
 20
61.2990214156
 10
241.6740607742
 20
62.5578258604
 10
243.1389336156
 20
63.6906331164
 10
244.6195145742
 20
64.6894403483
 10
246.105343931
 20
65.5471913783
 10
247.5859248895
 20
66.2578265345
 10
249.050797731
 20
66.8163254608
 10
250.4896137082
 20
67.2187425832
 10
251.8922081556
 20
67.4622349839
 10
253.2486722981
 20
67.5450824855
 10
254.5494232532
 20
67.4666998029
 10
255.78527173
 20
67.2276406791
 10
256.9474869479
 20
66.829593972
 10
257.8614134105
 20
66.3740517728
  0
SPLINE
  5
217
330
1F
100
AcDbEntity
  8
0
  6
Continuous
 62
     7
370
    15
100
AcDbSpline
210
0.0
220
0.0
230
1.0
 70
     8
 71
     3
 72
     8
 73
     4
 74
     0
 42
0.000000001
 43
0.00000001
 40
0.0
 40
0.0
 40
0.0
 40
0.0
 40
1.0
 40
1.0
 40
1.0
 40
1.0
 10
227.0196942692409
 20
43.85023573610496
 30
0.0
 10
225.850067849303
 20
43.65467956286222
 30
0.0
 10
224.6794646064432
 20
43.46109459614231
 30
0.0
 10
223.5082331247903
 20
43.26881514689604
 30
0.0
  0
SPLINE
  5
218
330
1F
100
AcDbEntity
  8
0
  6
Continuous
 62
     7
370
    15
100
AcDbSpline
210
0.0
220
0.0
230
1.0
 70
     8
 71
     3
 72
     8
 73
     4
 74
     0
 42
0.000000001
 43
0.00000001
 40
0.0
 40
0.0
 40
0.0
 40
0.0
 40
0.0012417047560385
 40
0.0012417047560385
 40
0.0012417047560385
 40
0.0012417047560385
 10
223.0337325211406
 20
43.5427905677759
 30
0.0
 10
223.192003661601
 20
43.45140524301796
 30
0.0
 10
223.3501729672803
 20
43.36007869561436
 30
0.0
 10
223.5082331247903
 20
43.26881514689604
 30
0.0
  0
LWPOLYLINE
  5
219
330
1F
100
AcDbEntity
  8
0
  6
Continuous
 62
     7
370
    15
100
AcDbPolyline
 90
       28
 70
   128
 43
0.0
 10
223.0337325211
 20
43.5427905678
 10
223.512568112
 20
45.491456704
 10
224.1144498283
 20
47.4572678977
 10
224.834897076
 20
49.4255900411
 10
225.6685466226
 20
51.381770334
 10
226.6091925223
 20
53.3112463639
 10
227.6498323156
 20
55.1996545133
 10
228.7827191572
 20
57.0329368865
 10
229.9994194865
 20
58.7974459613
 10
231.2908758089
 20
60.4800461852
 10
232.6474741233
 20
62.0682117606
 10
234.0591154914
 20
63.5501198907
 10
235.5152912172
 20
64.914738792
 10
237.0051610774
 20
66.1519098185
 10
238.5176340188
 20
67.2524230855
 10
240.0414507242
 20
68.2080860312
 10
241.5652674295
 20
69.0117844044
 10
243.0777403709
 20
69.6575352253
 10
244.5676102311
 20
70.1405313245
 10
246.0237859569
 20
70.4571771296
 10
247.435427325
 20
70.6051154308
 10
248.7920256395
 20
70.5832449297
 10
250.0834819619
 20
70.3917284371
 10
251.3001822911
 20
70.031991661
 10
252.4330691327
 20
69.5067125935
 10
253.473708926
 20
68.8198015749
 10
254.4143548258
 20
67.9763721837
 10
254.9145851685
 20
67.413912132
  0
LINE
  5
21A
330
1F
100
AcDbEntity
  8
0
  6
Continuous
 62
     7
370
    15
100
AcDbLine
 10
218.905996686
 20
45.9256817442
 30
0.0
 11
223.0337325211
 21
43.5427905678
 31
0.0
  0
ARC
  5
21B
330
1F
100
AcDbEntity
  8
0
  6
Continuous
 62
     7
370
    15
100
AcDbCircle
 10
244.0236747966
 20
64.1111993562
 30
0.0
 40
8.878232805073642
100
AcDbArc
 50
60.3725835944
 51
85.9811821539
  0
SPLINE
  5
21C
330
1F
100
AcDbEntity
  8
0
  6
Continuous
 62
     7
370
    15
100
AcDbSpline
210
0.0
220
0.0
230
1.0
 70
     8
 71
     3
 72
    13
 73
     9
 74
     0
 42
0.000000001
 43
0.00000001
 40
0.0
 40
0.0
 40
0.0
 40
0.0
 40
0.1935905955796629
 40
0.3928012754946468
 40
0.5863901717882928
 40
0.7855816257802019
 40
0.9793802664243568
 40
1.0
 40
1.0
 40
1.0
 40
1.0
 10
236.7410590580053
 20
58.74529822455138
 30
0.0
 10
236.7921652833937
 20
58.71936989427305
 30
0.0
 10
236.8958613873195
 20
58.66676051428598
 30
0.0
 10
237.0753163240737
 20
58.62175018257931
 30
0.0
 10
237.2685452693534
 20
58.60202680826628
 30
0.0
 10
237.4682083281528
 20
58.61388863198204
 30
0.0
 10
237.612079917457
 20
58.63462218716069
 30
0.0
 10
237.6846728915726
 20
58.65813698613684
 30
0.0
 10
237.6916538594639
 20
58.66039830768513
 30
0.0
  0
LWPOLYLINE
  5
21D
330
1F
100
AcDbEntity
  8
0
  6
Continuous
 62
     7
370
    15
100
AcDbPolyline
 90
       25
 70
   128
 43
0.0
 10
238.7726586351
 20
59.8590713478
 10
238.7571759645
 20
59.9633925119
 10
238.699925048
 20
60.106810119
 10
238.6123178763
 20
60.2322377049
 10
238.4917261364
 20
60.3435048669
 10
238.348480331
 20
60.4312439911
 10
238.1782812404
 20
60.4981849292
 10
237.9955979461
 20
60.5385964968
 10
237.7951410894
 20
60.5535149193
 10
237.5935484589
 20
60.5414085264
 10
237.3853763644
 20
60.5015795965
 10
237.1879409353
 20
60.4369496894
 10
236.9959253917
 20
60.3453705439
 10
236.8256723216
 20
60.2343749503
 10
236.6722022792
 20
60.1005404753
 10
236.5486224857
 20
59.9553091259
 10
236.4510905404
 20
59.79436749
 10
236.3877191348
 20
59.6313785755
 10
236.3565714746
 20
59.4619018216
 10
236.3601594108
 20
59.3001716556
 10
236.39853146
 20
59.1421188132
 10
236.4684155664
 20
59.0012111035
 10
236.5717258749
 20
58.8737695933
 10
236.741059058
 20
58.7452982246
 10
236.741059058
 20
58.7452982246
  0
SPLINE
  5
21E
330
1F
100
AcDbEntity
  8
0
  6
Continuous
 62
     7
370
    15
100
AcDbSpline
210
0.0
220
0.0
230
1.0
 70
     8
 71
     3
 72
    10
 73
     6
 74
     0
 42
0.000000001
 43
0.00000001
 40
0.0
 40
0.0
 40
0.0
 40
0.0
 40
0.1982376724753472
 40
0.6709252460000957
 40
1.0
 40
1.0
 40
1.0
 40
1.0
 10
228.8616280782019
 20
42.46212523459382
 30
0.0
 10
228.7773050958656
 20
42.57253853491088
 30
0.0
 10
228.491918282345
 20
42.94622669292799
 30
0.0
 10
228.000656295525
 20
43.39557549274645
 30
0.0
 10
227.5836545442244
 20
43.67705785894041
 30
0.0
 10
227.4125006448508
 20
43.79258927920129
 30
0.0
  0
SPLINE
  5
21F
330
1F
100
AcDbEntity
  8
0
  6
Continuous
 62
     7
370
    15
100
AcDbSpline
210
0.0
220
0.0
230
1.0
 70
     8
 71
     3
 72
    10
 73
     6
 74
     0
 42
0.000000001
 43
0.00000001
 40
0.0
 40
0.0
 40
0.0
 40
0.0
 40
0.5
 40
0.5
 40
1.0
 40
1.0
 40
1.0
 40
1.0
 10
227.2765712976186
 20
43.8451192610106
 30
0.0
 10
227.2359959892237
 20
43.85394378233756
 30
0.0
 10
227.19242164617
 20
43.85889685824625
 30
0.0
 10
227.1046189191832
 20
43.86048204351238
 30
0.0
 10
227.0616508022613
 20
43.85725067600383
 30
0.0
 10
227.0196942692409
 20
43.85023573610496
 30
0.0
  0
SPLINE
  5
220
330
1F
100
AcDbEntity
  8
0
  6
Continuous
 62
     7
370
    15
100
AcDbSpline
210
0.0
220
0.0
230
1.0
 70
     8
 71
     3
 72
     8
 73
     4
 74
     0
 42
0.000000001
 43
0.00000001
 40
0.0
 40
0.0
 40
0.0
 40
0.0
 40
1.0
 40
1.0
 40
1.0
 40
1.0
 10
227.4125006448507
 20
43.79258927920129
 30
0.0
 10
227.3740187030145
 20
43.81626008899715
 30
0.0
 10
227.3279110512676
 20
43.8339536342066
 30
0.0
 10
227.2765712976186
 20
43.84511926101065
 30
0.0
  0
SPLINE
  5
221
330
1F
100
AcDbEntity
  8
0
  6
Continuous
 62
     7
370
    15
100
AcDbSpline
210
0.0
220
0.0
230
1.0
 70
     8
 71
     3
 72
    10
 73
     6
 74
     0
 42
0.000000001
 43
0.00000001
 40
0.0
 40
0.0
 40
0.0
 40
0.0
 40
0.5
 40
0.5
 40
1.0
 40
1.0
 40
1.0
 40
1.0
 10
218.7492997661533
 20
46.01612962733903
 30
0.0
 10
218.7603503645034
 20
46.00975379279489
 30
0.0
 10
218.7789703104428
 20
45.99900755128949
 30
0.0
 10
218.8322702605034
 20
45.96824207844954
 30
0.0
 10
218.8658510332247
 20
45.94885733617859
 30
0.0
 10
218.9059966859642
 20
45.92568174415843
 30
0.0
  0
SPLINE
  5
222
330
1F
100
AcDbEntity
  8
0
  6
Continuous
 62
     7
370
    15
100
AcDbSpline
210
0.0
220
0.0
230
1.0
 70
     8
 71
     3
 72
     9
 73
     5
 74
     0
 42
0.000000001
 43
0.00000001
 40
0.0
 40
0.0
 40
0.0
 40
0.0
 40
0.5377956222890862
 40
0.9999999999999999
 40
0.9999999999999999
 40
0.9999999999999999
 40
0.9999999999999999
 10
227.4125006448508
 20
33.30323321625819
 30
0.0
 10
227.6525668182981
 20
33.17646716871671
 30
0.0
 10
228.0989560477709
 20
32.94075300094064
 30
0.0
 10
228.4905622052141
 20
32.82510836192632
 30
0.0
 10
228.6715642855229
 20
32.77165690351512
 30
0.0
  0
SPLINE
  5
223
330
1F
100
AcDbEntity
  8
0
  6
Continuous
 62
     7
370
    15
100
AcDbSpline
210
0.0
220
0.0
230
1.0
 70
     8
 71
     3
 72
     8
 73
     4
 74
     0
 42
0.000000001
 43
0.00000001
 40
0.0
 40
0.0
 40
0.0
 40
0.0
 40
1.0
 40
1.0
 40
1.0
 40
1.0
 10
227.2765712976191
 20
33.3525698282786
 30
0.0
 10
227.3278996796163
 20
33.34140667463831
 30
0.0
 10
227.3740202437205
 20
33.3246926703366
 30
0.0
 10
227.4125006448508
 20
33.30323321625821
 30
0.0
  0
SPLINE
  5
224
330
1F
100
AcDbEntity
  8
0
  6
Continuous
 62
     7
370
    15
100
AcDbSpline
210
0.0
220
0.0
230
1.0
 70
     8
 71
     3
 72
    12
 73
     8
 74
     0
 42
0.000000001
 43
0.00000001
 40
0.0
 40
0.0
 40
0.0
 40
0.0
 40
0.1882348860552934
 40
0.3552030333413834
 40
0.5009466077120189
 40
0.7563025321915505
 40
1.0
 40
1.0
 40
1.0
 40
1.0
 10
228.0924878139509
 20
31.68699481897686
 30
0.0
 10
228.1815313472779
 20
31.78127646699446
 30
0.0
 10
228.3495582938234
 20
31.959187841799
 30
0.0
 10
228.5294676458427
 20
32.30650494298789
 30
0.0
 10
228.6909916403027
 20
32.76715855177673
 30
0.0
 10
228.8167487039194
 20
33.38870946331991
 30
0.0
 10
228.8340515001092
 20
33.97203676897723
 30
0.0
 10
228.8425007916732
 20
34.2568868260833
 30
0.0
  0
SPLINE
  5
225
330
1F
100
AcDbEntity
  8
0
  6
Continuous
 62
     7
370
    15
100
AcDbSpline
210
0.0
220
0.0
230
1.0
 70
     8
 71
     3
 72
     9
 73
     5
 74
     0
 42
0.000000001
 43
0.00000001
 40
0.0
 40
0.0
 40
0.0
 40
0.0
 40
0.5048004990382029
 40
1.0
 40
1.0
 40
1.0
 40
1.0
 10
227.9817534019201
 20
30.96297029871575
 30
0.0
 10
228.000298300205
 20
31.08468417444095
 30
0.0
 10
228.037035384103
 20
31.32579700209683
 30
0.0
 10
228.0741324954588
 20
31.56730323534368
 30
0.0
 10
228.0925029664894
 20
31.68689700152668
 30
0.0
  0
LINE
  5
226
330
1F
100
AcDbEntity
  8
0
  6
Continuous
 62
     7
370
    15
100
AcDbLine
 10
219.1833668663
 20
45.7655072944
 30
0.0
 11
218.7492997662
 21
46.0161296273
 31
0.0
  0
LINE
  5
227
330
1F
100
AcDbEntity
  8
0
  6
Continuous
 62
     7
370
    15
100
AcDbLine
 10
223.5082331248
 20
43.2688151469
 30
0.0
 11
219.1833668663
 21
45.7655072944
 31
0.0
  0
SPLINE
  5
228
330
1F
100
AcDbEntity
  8
0
  6
Continuous
 62
     7
370
    15
100
AcDbSpline
210
0.0
220
0.0
230
1.0
 70
     8
 71
     3
 72
    11
 73
     7
 74
     0
 42
0.000000001
 43
0.00000001
 40
0.0
 40
0.0
 40
0.0
 40
0.0
 40
0.0763291486410529
 40
0.4828240100964536
 40
0.8892344489868813
 40
1.0
 40
1.0
 40
1.0
 40
1.0
 10
223.0797268104494
 20
40.45277594866914
 30
0.0
 10
223.0792914311194
 20
40.53101508768871
 30
0.0
 10
223.0765374164635
 20
41.02592084152556
 30
0.0
 10
223.0318417592496
 20
41.9589068840229
 30
0.0
 10
222.9937666446879
 20
42.92439069230256
 30
0.0
 10
223.005784663824
 20
43.44572945473774
 30
0.0
 10
223.0083586087435
 20
43.55738656259459
 30
0.0
  0
LINE
  5
229
330
1F
100
AcDbEntity
  8
0
  6
Continuous
 62
     7
370
    15
100
AcDbLine
 10
223.0797268104
 20
38.6769753196
 30
0.0
 11
223.0797268104
 21
40.4527759487
 31
0.0
  0
LINE
  5
22A
330
1F
100
AcDbEntity
  8
0
  6
Continuous
 62
     7
370
    15
100
AcDbLine
 10
222.1516491601
 20
43.8656016959
 30
0.0
 11
222.1526901874
 21
44.0513534279
 31
0.0
  0
ARC
  5
22B
330
1F
100
AcDbEntity
  8
0
  6
Continuous
 62
     7
370
    15
100
AcDbCircle
 10
234.0875023614
 20
43.6000120314
 30
0.0
 40
11.93880770898452
100
AcDbArc
 50
178.7252979842
 51
202.7773427363
  0
LINE
  5
22C
330
1F
100
AcDbEntity
  8
0
  6
Continuous
 62
     7
370
    15
100
AcDbLine
 10
193.5339963594
 20
62.9688378581
 30
0.0
 11
193.4811713107
 21
63.0143504743
 31
0.0
  0
LWPOLYLINE
  5
22D
330
1F
100
AcDbEntity
  8
0
  6
Continuous
 62
     7
370
    15
100
AcDbPolyline
 90
       10
 70
   128
 43
0.0
 10
230.4892948082
 20
25.1034838154
 10
229.9994194865
 20
25.197403031
 10
228.7827191572
 20
25.5571398071
 10
227.6498323156
 20
26.0824188746
 10
226.6091925223
 20
26.7693298932
 10
225.6685466226
 20
27.6127592844
 10
224.834897076
 20
28.6064282985
 10
224.1144498283
 20
29.7429397552
 10
223.512568112
 20
31.013833111
 10
223.0337325211
 20
32.4096474419
  0
SPLINE
  5
22E
330
1F
100
AcDbEntity
  8
0
  6
Continuous
 62
     7
370
    15
100
AcDbSpline
210
0.0
220
0.0
230
1.0
 70
     8
 71
     3
 72
     8
 73
     4
 74
     0
 42
0.000000001
 43
0.00000001
 40
0.0
 40
0.0
 40
0.0
 40
0.0
 40
0.0012417047560385
 40
0.0012417047560385
 40
0.0012417047560385
 40
0.0012417047560385
 10
223.5082331247903
 20
32.77626571416415
 30
0.0
 10
223.3501729672803
 20
32.65386250916
 30
0.0
 10
223.192003661601
 20
32.53166027918923
 30
0.0
 10
223.0337325211406
 20
32.40964744187847
 30
0.0
  0
SPLINE
  5
22F
330
1F
100
AcDbEntity
  8
0
  6
Continuous
 62
     7
370
    15
100
AcDbSpline
210
0.0
220
0.0
230
1.0
 70
     8
 71
     3
 72
     8
 73
     4
 74
     0
 42
0.000000001
 43
0.00000001
 40
0.0
 40
0.0
 40
0.0
 40
0.0
 40
1.0
 40
1.0
 40
1.0
 40
1.0
 10
223.5082331247903
 20
32.77626571416415
 30
0.0
 10
224.679465709466
 20
32.96854534449215
 30
0.0
 10
225.8500850840584
 20
33.1621330117024
 30
0.0
 10
227.0196942692409
 20
33.35768630337307
 30
0.0
  0
SPLINE
  5
230
330
1F
100
AcDbEntity
  8
0
  6
Continuous
 62
     7
370
    15
100
AcDbSpline
210
0.0
220
0.0
230
1.0
 70
     8
 71
     3
 72
    10
 73
     6
 74
     0
 42
0.000000001
 43
0.00000001
 40
0.0
 40
0.0
 40
0.0
 40
0.0
 40
0.5
 40
0.5
 40
1.0
 40
1.0
 40
1.0
 40
1.0
 10
227.0196942692409
 20
33.35768630337308
 30
0.0
 10
227.0614601302554
 20
33.36466936378702
 30
0.0
 10
227.1053574160694
 20
33.3679594547954
 30
0.0
 10
227.1929847988594
 20
33.36629648036635
 30
0.0
 10
227.23549009592
 20
33.36150437381561
 30
0.0
 10
227.2765712976191
 20
33.3525698282786
 30
0.0
  0
LINE
  5
231
330
1F
100
AcDbEntity
  8
0
  6
Continuous
 62
     7
370
    15
100
AcDbLine
 10
219.1833668663
 20
35.2729578616
 30
0.0
 11
223.5082331248
 21
32.7762657142
 31
0.0
  0
LINE
  5
232
330
1F
100
AcDbEntity
  8
0
  6
Continuous
 62
     7
370
    15
100
AcDbLine
 10
219.1833668663
 20
35.2729578616
 30
0.0
 11
222.7261734199
 21
37.3181765513
 31
0.0
  0
LINE
  5
233
330
1F
100
AcDbEntity
  8
0
  6
Continuous
 62
     7
370
    15
100
AcDbLine
 10
218.7492997662
 20
35.0223355286
 30
0.0
 11
219.1833668663
 21
35.2729578616
 31
0.0
  0
LINE
  5
234
330
1F
100
AcDbEntity
  8
0
  6
Continuous
 62
     7
370
    15
100
AcDbLine
 10
223.0337325211
 20
32.4096474419
 30
0.0
 11
218.905996686
 21
34.7925386183
 31
0.0
  0
SPLINE
  5
235
330
1F
100
AcDbEntity
  8
0
  6
Continuous
 62
     7
370
    15
100
AcDbSpline
210
0.0
220
0.0
230
1.0
 70
     8
 71
     3
 72
     8
 73
     4
 74
     0
 42
0.000000001
 43
0.00000001
 40
0.0
 40
0.0
 40
0.0
 40
0.0
 40
1.0
 40
1.0
 40
1.0
 40
1.0
 10
218.9059966859642
 20
34.79253861826101
 30
0.0
 10
218.825777456798
 20
34.8388481935316
 30
0.0
 10
218.7713876945107
 20
34.92251103454369
 30
0.0
 10
218.7492997661525
 20
35.02233552865106
 30
0.0
  0
ARC
  5
236
330
1F
100
AcDbEntity
  8
0
  6
Continuous
 62
     7
370
    15
100
AcDbCircle
 10
227.9351050378
 20
36.2179178297
 30
0.0
 40
8.921645768970645
100
AcDbArc
 50
214.8451889641
 51
239.5573983443
  0
ELLIPSE
  5
237
330
1F
100
AcDbEntity
  8
0
  6
Continuous
 62
     7
370
    15
100
AcDbEllipse
 10
222.433280201
 20
38.3038010194
 30
0.0
 11
-7.507462979106093E-5
 21
1.066811201853412
 31
0.0
210
0.0
220
0.0
230
1.0
 40
0.7174342186
 41
3.534193645557519
 42
5.104989972352359
  0
ELLIPSE
  5
238
330
1F
100
AcDbEntity
  8
0
  6
Continuous
 62
     7
370
    15
100
AcDbEllipse
 10
222.3726200293
 20
38.2687712637
 30
0.0
 11
0.3250094736511642
 21
1.213179526238662
 31
0.0
210
0.0
220
0.0
230
1.0
 40
0.5176380889
 41
3.619174351347721
 42
5.189970678142625
  0
LWPOLYLINE
  5
239
330
1F
100
AcDbEntity
  8
0
  6
Continuous
 62
     7
370
    15
100
AcDbPolyline
 90
       12
 70
   128
 43
0.0
 10
270.7532902726
 20
34.6943879507
 10
271.2772900445
 20
34.5302495184
 10
271.8618168053
 20
34.4625663324
 10
272.454932787
 20
34.4973523408
 10
273.0039370319
 20
34.6315166541
 10
273.4600481034
 20
34.8531381843
 10
273.7827385313
 20
35.1425248859
 10
273.943335855
 20
35.4739634805
 10
273.9275702974
 20
35.8180041944
 10
273.7368426976
 20
36.1440775004
 10
273.3881000398
 20
36.4232103544
 10
273.3729264158
 20
36.4320678046
  0
LWPOLYLINE
  5
23A
330
1F
100
AcDbEntity
  8
0
  6
Continuous
 62
     7
370
    15
100
AcDbPolyline
 90
        7
 70
   128
 43
0.0
 10
270.5440397041
 20
36.4320678046
 10
270.276789677
 20
36.2407332811
 10
270.0324163531
 20
35.9268144187
 10
269.9591825085
 20
35.5852598825
 10
270.0635952917
 20
35.2464182919
 10
270.3363771686
 20
34.9403972092
 10
270.7532902726
 20
34.6943879507
  0
LWPOLYLINE
  5
23B
330
1F
100
AcDbEntity
  8
0
  6
Continuous
 62
     7
370
    15
100
AcDbPolyline
 90
       20
 70
   128
 43
0.0
 10
270.9641990104
 20
35.1414230084
 10
271.4456285549
 20
34.9962369134
 10
271.9826338429
 20
34.949158969
 10
272.5170220188
 20
35.005290801
 10
272.9908838319
 20
35.1585496546
 10
273.352869002
 20
35.3923275547
 10
273.5637508191
 20
35.6812910385
 10
273.6006769663
 20
35.9941264289
 10
273.4596459224
 20
36.2969331571
 10
273.1559405895
 20
36.5568974155
 10
272.7224721527
 20
36.7458480431
 10
272.2062136433
 20
36.8433093074
 10
271.6631096812
 20
36.8387197682
 10
271.1520140079
 20
36.7325767733
 10
270.72831177
 20
36.5363825632
 10
270.4379176795
 20
36.2713978248
 10
270.312300442
 20
35.9663377661
 10
270.3650726342
 20
35.654260378
 10
270.5905155705
 20
35.368984088
 10
270.9641990104
 20
35.1414230084
  0
LWPOLYLINE
  5
23C
330
1F
100
AcDbEntity
  8
0
  6
Continuous
 62
     7
370
    15
100
AcDbPolyline
 90
       17
 70
   128
 43
0.0
 10
271.2353673875
 20
35.3487390031
 10
271.6568901179
 20
35.2310720557
 10
272.1243276398
 20
35.2154841166
 10
272.5665168277
 20
35.3043483084
 10
272.9161383864
 20
35.4841358633
 10
273.1199656028
 20
35.7274757559
 10
273.1469676309
 20
35.9973216935
 10
272.9930336567
 20
36.2525920781
 10
272.6815987324
 20
36.4544243078
 10
272.260076002
 20
36.5720912552
 10
271.7926384802
 20
36.5876791942
 10
271.3504492922
 20
36.4988150025
 10
271.0008277335
 20
36.3190274476
 10
270.7970005171
 20
36.0756875549
 10
270.769998489
 20
35.8058416174
 10
270.9239324632
 20
35.5505712328
 10
271.2353673875
 20
35.3487390031
  0
LINE
  5
23D
330
1F
100
AcDbEntity
  8
0
  6
Continuous
 62
     7
370
    15
100
AcDbLine
 10
272.7215104144
 20
35.3681009662
 30
0.0
 11
272.8799873275
 21
35.4629053955
 31
0.0
  0
SPLINE
  5
23E
330
1F
100
AcDbEntity
  8
0
  6
Continuous
 62
     7
370
    15
100
AcDbSpline
210
0.0
220
0.0
230
1.0
 70
     8
 71
     3
 72
    10
 73
     6
 74
     0
 42
0.000000001
 43
0.00000001
 40
0.0
 40
0.0
 40
0.0
 40
0.0
 40
0.4391222274230436
 40
0.7513714712594641
 40
1.0
 40
1.0
 40
1.0
 40
1.0
 10
272.8799873274916
 20
35.46290539550978
 30
0.0
 10
272.9002937127292
 20
35.50168690956669
 30
0.0
 10
272.935039479623
 20
35.56804502458539
 30
0.0
 10
272.9855481724105
 20
35.84614855917089
 30
0.0
 10
273.0106876444152
 20
36.03897451321006
 30
0.0
 10
273.0218315874336
 20
36.12445130619381
 30
0.0
  0
SPLINE
  5
23F
330
1F
100
AcDbEntity
  8
0
  6
Continuous
 62
     7
370
    15
100
AcDbSpline
210
0.0
220
0.0
230
1.0
 70
     8
 71
     3
 72
    15
 73
    11
 74
     0
 42
0.000000001
 43
0.00000001
 40
0.0
 40
0.0
 40
0.0
 40
0.0
 40
0.0920657613126149
 40
0.1844804466012858
 40
0.3495514851719067
 40
0.5198009272493964
 40
0.6927171542275924
 40
0.871794071011
 40
0.9358391946447508
 40
1.0
 40
1.0
 40
1.0
 40
1.0
 10
273.0218315874336
 20
36.12445130619381
 30
0.0
 10
272.9952258566836
 20
36.1229408814871
 30
0.0
 10
272.9419135609838
 20
36.11991430765031
 30
0.0
 10
272.8374197443022
 20
36.12374099812178
 30
0.0
 10
272.7046214861662
 20
36.14424194017002
 30
0.0
 10
272.5410198205633
 20
36.20201231924094
 30
0.0
 10
272.373838727095
 20
36.29725833441232
 30
0.0
 10
272.2464561020957
 20
36.395301094088
 30
0.0
 10
272.1557895871411
 20
36.47432322079314
 30
0.0
 10
272.1188258599236
 20
36.5088564916361
 30
0.0
 10
272.1003273199113
 20
36.52613870694632
 30
0.0
  0
SPLINE
  5
240
330
1F
100
AcDbEntity
  8
0
  6
Continuous
 62
     7
370
    15
100
AcDbSpline
210
0.0
220
0.0
230
1.0
 70
     8
 71
     3
 72
    10
 73
     6
 74
     0
 42
0.000000001
 43
0.00000001
 40
0.0
 40
0.0
 40
0.0
 40
0.0
 40
0.4391222274230511
 40
0.7513714712594598
 40
1.0
 40
1.0
 40
1.0
 40
1.0
 10
272.1003273199113
 20
36.52613870694632
 30
0.0
 10
271.9480986372044
 20
36.43301221758951
 30
0.0
 10
271.6876238032051
 20
36.27366572371722
 30
0.0
 10
271.3089807469287
 20
36.22367044885544
 30
0.0
 10
271.1205203852023
 20
36.2531932093315
 30
0.0
 10
271.0369787924473
 20
36.26628019701475
 30
0.0
  0
SPLINE
  5
241
330
1F
100
AcDbEntity
  8
0
  6
Continuous
 62
     7
370
    15
100
AcDbSpline
210
0.0
220
0.0
230
1.0
 70
     8
 71
     3
 72
    11
 73
     7
 74
     0
 42
0.000000001
 43
0.00000001
 40
0.0
 40
0.0
 40
0.0
 40
0.0
 40
0.2164526859271284
 40
0.4403055508634167
 40
0.7518960204221984
 40
1.0
 40
1.0
 40
1.0
 40
1.0
 10
271.0369787924473
 20
36.26628019701475
 30
0.0
 10
271.0272624463906
 20
36.19138997231178
 30
0.0
 10
271.0074975675923
 20
36.03904914317912
 30
0.0
 10
270.970819020131
 20
35.81783992108481
 30
0.0
 10
270.9314742213889
 20
35.66457123609594
 30
0.0
 10
270.9062957592523
 20
35.62311236783575
 30
0.0
 10
270.8951345325054
 20
35.60473428633073
 30
0.0
  0
SPLINE
  5
242
330
1F
100
AcDbEntity
  8
0
  6
Continuous
 62
     7
370
    15
100
AcDbSpline
210
0.0
220
0.0
230
1.0
 70
     8
 71
     3
 72
    10
 73
     6
 74
     0
 42
0.000000001
 43
0.00000001
 40
0.0
 40
0.0
 40
0.0
 40
0.0
 40
0.2378555933453281
 40
0.4761021572275198
 40
1.0
 40
1.0
 40
1.0
 40
1.0
 10
270.8951345325054
 20
35.60473428633073
 30
0.0
 10
270.9136095644712
 20
35.58750907855995
 30
0.0
 10
270.9505899963798
 20
35.55303034941587
 30
0.0
 10
271.0298640537098
 20
35.48319989411762
 30
0.0
 10
271.0932549483502
 20
35.43708619360495
 30
0.0
 10
271.1368298308312
 20
35.4053876493266
 30
0.0
  0
LINE
  5
243
330
1F
100
AcDbEntity
  8
0
  6
Continuous
 62
     7
370
    15
100
AcDbLine
 10
271.0369787924
 20
35.4814062294
 30
0.0
 11
271.0369787924
 21
36.266280197
 31
0.0
  0
LINE
  5
244
330
1F
100
AcDbEntity
  8
0
  6
Continuous
 62
     7
370
    15
100
AcDbLine
 10
272.1003273199
 20
35.2136929705
 30
0.0
 11
272.1003273199
 21
36.5261387069
 31
0.0
  0
LINE
  5
245
330
1F
100
AcDbEntity
  8
0
  6
Continuous
 62
     7
370
    15
100
AcDbLine
 10
274.7446395931
 20
29.2999558482
 30
0.0
 11
274.6858459369
 21
29.2911908733
 31
0.0
  0
LWPOLYLINE
  5
246
330
1F
100
AcDbEntity
  8
0
  6
Continuous
 62
     7
370
    15
100
AcDbPolyline
 90
       10
 70
   128
 43
0.0
 10
237.8658120336
 20
60.5473519563
 10
237.403769462
 20
60.495383356
 10
236.9659285282
 20
60.3066393898
 10
236.6189465455
 20
60.0098546156
 10
236.4156483754
 20
59.6502118248
 10
236.3869843212
 20
59.2824633722
 10
236.5373182255
 20
58.9625956261
 10
236.8437631141
 20
58.7393055511
 10
237.2596655306
 20
58.6465870371
 10
237.696959982
 20
58.6921435598
  0
ARC
  5
247
330
1F
100
AcDbEntity
  8
0
  6
Continuous
 62
     7
370
    15
100
AcDbCircle
 10
237.9362059549
 20
59.7324696741
 30
0.0
 40
0.8179171339456668
100
AcDbArc
 50
7.185977892
 51
94.9372610958
  0
LINE
  5
248
330
1F
100
AcDbEntity
  8
0
  6
Continuous
 62
     7
370
    15
100
AcDbLine
 10
236.7518188291
 20
59.2930676929
 30
0.0
 11
237.3480839998
 21
58.923851236
 31
0.0
  0
LINE
  5
249
330
1F
100
AcDbEntity
  8
0
  6
Continuous
 62
     7
370
    15
100
AcDbLine
 10
238.1590039529
 20
59.2277530398
 30
0.0
 11
237.3480839998
 21
58.923851236
 31
0.0
  0
LINE
  5
24A
330
1F
100
AcDbEntity
  8
0
  6
Continuous
 62
     7
370
    15
100
AcDbLine
 10
238.3736587351
 20
59.9008713005
 30
0.0
 11
238.1590039529
 21
59.2277530398
 31
0.0
  0
LINE
  5
24B
330
1F
100
AcDbEntity
  8
0
  6
Continuous
 62
     7
370
    15
100
AcDbLine
 10
238.3736587351
 20
59.9008713005
 30
0.0
 11
237.7773935644
 21
60.2700877575
 31
0.0
  0
LINE
  5
24C
330
1F
100
AcDbEntity
  8
0
  6
Continuous
 62
     7
370
    15
100
AcDbLine
 10
236.9664736114
 20
59.9661859537
 30
0.0
 11
237.7773935644
 21
60.2700877575
 31
0.0
  0
LINE
  5
24D
330
1F
100
AcDbEntity
  8
0
  6
Continuous
 62
     7
370
    15
100
AcDbLine
 10
236.9664736114
 20
59.9661859537
 30
0.0
 11
236.7518188291
 21
59.2930676929
 31
0.0
  0
LINE
  5
24E
330
1F
100
AcDbEntity
  8
0
  6
Continuous
 62
     7
370
    15
100
AcDbLine
 10
238.2463817103
 20
59.5017537562
 30
0.0
 11
238.019238327
 21
59.6424043917
 31
0.0
  0
LINE
  5
24F
330
1F
100
AcDbEntity
  8
0
  6
Continuous
 62
     7
370
    15
100
AcDbLine
 10
237.208318374
 20
59.3385025879
 30
0.0
 11
237.1209406166
 21
59.0645018715
 31
0.0
  0
LINE
  5
250
330
1F
100
AcDbEntity
  8
0
  6
Continuous
 62
     7
370
    15
100
AcDbLine
 10
237.208318374
 20
59.3385025879
 30
0.0
 11
238.019238327
 21
59.6424043917
 31
0.0
  0
LINE
  5
251
330
1F
100
AcDbEntity
  8
0
  6
Continuous
 62
     7
370
    15
100
AcDbLine
 10
238.019238327
 20
59.6424043917
 30
0.0
 11
237.7773935644
 21
60.2700877575
 31
0.0
  0
LINE
  5
252
330
1F
100
AcDbEntity
  8
0
  6
Continuous
 62
     7
370
    15
100
AcDbLine
 10
237.208318374
 20
59.3385025879
 30
0.0
 11
236.9664736114
 21
59.9661859537
 31
0.0
  0
LWPOLYLINE
  5
253
330
1F
100
AcDbEntity
  8
0
  6
Continuous
 62
     7
370
     0
100
AcDbPolyline
 90
        7
 70
   128
 43
0.0
 10
243.3383360914
 20
39.3600494288
 10
243.4015184796
 20
38.4229311008
 10
243.5896542538
 20
37.5796952804
 10
243.8985407719
 20
36.8491784622
 10
244.3212780194
 20
36.2476991849
 10
244.8484227447
 20
35.7886935017
 10
244.9955154104
 20
35.697290977
  0
LWPOLYLINE
  5
254
330
1F
100
AcDbEntity
  8
0
  6
Continuous
 62
     7
370
     0
100
AcDbPolyline
 90
       17
 70
   128
 43
0.0
 10
252.9948652715
 20
49.5540727751
 10
252.5221812761
 20
49.7689489112
 10
251.8236174657
 20
49.9156587903
 10
251.0618712671
 20
49.8995226314
 10
250.2539588318
 20
49.7209008897
 10
249.4179275884
 20
49.3837836798
 10
248.5724530935
 20
48.895701643
 10
247.7364218501
 20
48.2675577255
 10
246.9285094147
 20
47.5133836244
 10
246.1667632162
 20
46.650026343
 10
245.4681994058
 20
45.6967718562
 10
244.8484227447
 20
44.674914294
 10
244.3212780194
 20
43.607280266
 10
243.8985407719
 20
42.5177189519
 10
243.5896542538
 20
41.4305693511
 10
243.4015184796
 20
40.3701165893
 10
243.3383360914
 20
39.3600494288
  0
LWPOLYLINE
  5
255
330
1F
100
AcDbEntity
  8
0
  6
Continuous
 62
     7
370
     0
100
AcDbPolyline
 90
       34
 70
   128
 43
0.0
 10
276.2188014166
 20
30.9925297829
 10
275.5496972254
 20
30.5324843742
 10
274.9047762031
 20
29.9415066431
 10
274.3073474756
 20
29.2409560646
 10
273.7790036738
 20
28.4561523619
 10
273.3388405192
 20
27.6154603855
 10
273.0027666551
 20
26.749264934
 10
272.7829286666
 20
25.8888725677
 10
272.6872720714
 20
25.0653801085
 10
272.719254148
 20
24.3085507195
 10
272.8777189809
 20
23.6457381867
 10
273.1569392381
 20
23.100898282
 10
273.5468231721
 20
22.6937229391
 10
274.0332793616
 20
22.4389285358
 10
274.5987260125
 20
22.3457240056
 10
275.2227264095
 20
22.4174780032
 10
275.8827275526
 20
22.6515971521
 10
276.5548752807
 20
23.0396197762
 10
277.2148764237
 20
23.567521727
 10
277.8388768208
 20
24.2162232526
 10
278.4043234717
 20
24.9622785895
 10
278.8907796611
 20
25.7787233542
 10
279.2806635951
 20
26.6360491055
 10
279.5598838523
 20
27.5032698571
 10
279.7183486852
 20
28.3490419916
 10
279.7503307618
 20
29.1427971002
 10
279.6546741666
 20
29.8558468054
 10
279.4348361781
 20
30.4624196329
 10
279.098762314
 20
30.9405924603
 10
278.6585991595
 20
31.2730828757
 10
278.1302553577
 20
31.4478738094
 10
277.5328266302
 20
31.4586478614
 10
276.8879056078
 20
31.3050156295
 10
276.2188014166
 20
30.9925297829
  0
LWPOLYLINE
  5
256
330
1F
100
AcDbEntity
  8
0
  6
Continuous
 62
     7
370
     0
100
AcDbPolyline
 90
       18
 70
   128
 43
0.0
 10
273.631678706
 20
23.2074626866
 10
273.7925934778
 20
23.1294033685
 10
274.3210266372
 20
23.0097390878
 10
274.9126804017
 20
23.0581007732
 10
275.5433323967
 20
23.2725084916
 10
276.1871636554
 20
23.6441843659
 10
276.8178156503
 20
24.1579119421
 10
277.4094694149
 20
24.7926591528
 10
277.9379025743
 20
25.5224393727
 10
278.381481013
 20
26.3173753138
 10
278.7220445775
 20
27.1449222053
 10
278.9456505556
 20
27.9712001802
 10
279.0431444922
 20
28.7623813211
 10
279.0105349741
 20
29.4860745793
 10
278.8491570387
 20
30.1126518675
 10
278.5656175178
 20
30.6164610382
 10
278.1715245526
 20
30.9768760845
 10
278.0913864882
 20
31.02453234
  0
LWPOLYLINE
  5
257
330
1F
100
AcDbEntity
  8
0
  6
Continuous
 62
     7
370
     0
100
AcDbPolyline
 90
       44
 70
   128
 43
0.0
 10
230.6104140301
 20
33.2369885901
 10
230.672824357
 20
34.9695810163
 10
230.8596056698
 20
36.761747504
 10
231.1694122049
 20
38.6005754526
 10
231.6000117991
 20
40.4728160646
 10
232.1483019724
 20
42.3649798034
 10
232.8103322817
 20
44.263433586
 10
233.5813327833
 20
46.1544990094
 10
234.455748401
 20
48.0245509038
 10
235.4272789502
 20
49.8601155026
 10
236.488924531
 20
51.6479675206
 10
237.6330359627
 20
53.3752254432
 10
238.8513698963
 20
55.0294443375
 10
240.1351482077
 20
56.5987055183
 10
241.4751212449
 20
58.071702423
 10
242.8616344714
 20
59.437822075
 10
244.2846980277
 20
60.6872215511
 10
245.7340587081
 20
61.8108988992
 10
247.1992738359
 20
62.8007579985
 10
248.6697865024
 20
63.6496668913
 10
250.1350016302
 20
64.3515091697
 10
251.5843623107
 20
64.901228044
 10
253.0074258669
 20
65.2948627771
 10
254.3939390934
 20
65.5295772216
 10
255.7339121306
 20
65.6036802547
 10
257.0176904421
 20
65.5166379624
 10
258.2360243756
 20
65.2690774862
 10
259.3801358073
 20
64.8627825052
 10
260.4417813881
 20
64.3006803839
 10
261.4133119373
 20
63.5868210811
 10
262.287727555
 20
62.7263479694
 10
263.0587280566
 20
61.7254607772
 10
263.7207583659
 20
60.5913709197
 10
264.2690485392
 20
59.3322495403
 10
264.6996481334
 20
57.9571686375
 10
265.0094546685
 20
56.4760357006
 10
265.1962359813
 20
54.8995223263
 10
265.2586463082
 20
53.2389873298
 10
265.1962359813
 20
51.5063949036
 10
265.0094546685
 20
49.7142284159
 10
264.6996481334
 20
47.8754004673
 10
264.2690485392
 20
46.0031598553
 10
263.7207583659
 20
44.1109961165
 10
263.5136821573
 20
43.4816890413
  0
LWPOLYLINE
  5
258
330
1F
100
AcDbEntity
  8
0
  6
Continuous
 62
     7
370
     0
100
AcDbPolyline
 90
       25
 70
   128
 43
0.0
 10
255.5143322962
 20
29.6249072432
 10
254.3939390934
 20
28.4042734969
 10
253.0074258669
 20
27.0381538448
 10
251.5843623107
 20
25.7887543688
 10
250.1350016302
 20
24.6650770206
 10
248.6697865024
 20
23.6752179214
 10
247.1992738359
 20
22.8263090285
 10
245.7340587081
 20
22.1244667501
 10
244.2846980277
 20
21.5747478759
 10
242.8616344714
 20
21.1811131428
 10
241.4751212449
 20
20.9463986982
 10
240.1351482077
 20
20.8722956651
 10
238.8513698963
 20
20.9593379575
 10
237.6330359627
 20
21.2068984336
 10
236.488924531
 20
21.6131934147
 10
235.4272789502
 20
22.1752955359
 10
234.455748401
 20
22.8891548387
 10
233.5813327833
 20
23.7496279505
 10
232.8103322817
 20
24.7505151427
 10
232.1483019724
 20
25.8846050002
 10
231.6000117991
 20
27.1437263795
 10
231.1694122049
 20
28.5188072824
 10
230.8596056698
 20
29.9999402193
 10
230.672824357
 20
31.5764535935
 10
230.6104140301
 20
33.2369885901
  0
LWPOLYLINE
  5
259
330
1F
100
AcDbEntity
  8
0
  6
Continuous
 62
     7
370
     0
100
AcDbPolyline
 90
       27
 70
   128
 43
0.0
 10
229.9033072489
 20
33.2369885901
 10
229.9653053241
 20
34.9809386704
 10
230.1508646777
 20
36.7842376478
 10
230.4586837441
 20
38.6342366757
 10
230.8866033939
 20
40.5179593402
 10
231.431622078
 20
42.4221926802
 10
232.0899168821
 20
44.333579867
 10
232.8568703411
 20
46.2387138928
 10
233.7271028274
 20
48.1242316113
 10
234.6945102855
 20
49.9769074705
 10
235.7523070472
 20
51.7837462802
 10
236.8930734281
 20
53.5320743646
 10
238.1088077718
 20
55.2096284582
 10
239.3909825753
 20
56.8046417243
 10
240.7306043037
 20
58.3059262911
 10
242.118276473
 20
59.7029517258
 10
243.5442655599
 20
60.9859188988
 10
244.9985692757
 20
62.1458287173
 10
246.4709867247
 20
63.1745452471
 10
247.9511899564
 20
64.0648527811
 10
249.4287964087
 20
64.8105064515
 10
250.8934417338
 20
65.4062760337
 10
252.3348524974
 20
65.8479826319
 10
253.7429182384
 20
66.1325279919
 10
255.1077623874
 20
66.2579162323
 10
256.4198115434
 20
66.2232678448
 10
256.5902146021
 20
66.2065615768
  0
ARC
  5
25A
330
1F
100
AcDbEntity
  8
0
  6
Continuous
 62
     7
370
     0
100
AcDbCircle
 10
245.2964727709
 20
32.6310457796
 30
0.0
 40
15.40508719477942
100
AcDbArc
 50
177.7457495802
 51
212.5890690703
  0
LWPOLYLINE
  5
25B
330
1F
100
AcDbEntity
  8
0
  6
Continuous
 62
     7
370
     0
100
AcDbPolyline
 90
       23
 70
   128
 43
0.0
 10
241.2170157479
 20
39.3600494288
 10
241.2795830397
 20
40.4524322065
 10
241.4661194049
 20
41.5967046174
 10
241.7731500239
 20
42.7715510315
 10
242.1949554973
 20
43.9550862831
 10
242.7236783871
 20
45.1252633498
 10
243.3494695863
 20
46.2602840467
 10
244.0606717889
 20
47.339005086
 10
244.8440366435
 20
48.3413319357
 10
245.684971545
 20
49.248593143
 10
246.5678114674
 20
50.0438881482
 10
247.4761107732
 20
50.7124021102
 10
248.3929495651
 20
51.2416818787
 10
249.3012488709
 20
51.621867973
 10
250.1840887933
 20
51.8458782456
 10
251.0250236948
 20
51.909539809
 10
251.8083885494
 20
51.8116667686
 10
252.519590752
 20
51.554082314
 10
253.1453819512
 20
51.1415847563
 10
253.674104841
 20
50.5818581444
 10
254.0959103144
 20
49.8853291262
 10
254.4029409334
 20
49.0649727192
 10
254.4961509599
 20
48.6873989948
  0
LWPOLYLINE
  5
25C
330
1F
100
AcDbEntity
  8
0
  6
Continuous
 62
     7
370
     0
100
AcDbPolyline
 90
       11
 70
   128
 43
0.0
 10
246.4968010989
 20
34.8306171967
 10
245.684971545
 20
34.6300976742
 10
244.8440366435
 20
34.5664361109
 10
244.0606717889
 20
34.6643091513
 10
243.3494695863
 20
34.9218936058
 10
242.7236783871
 20
35.3343911636
 10
242.1949554973
 20
35.8941177754
 10
241.7731500239
 20
36.5906467937
 10
241.4661194049
 20
37.4110032006
 10
241.2795830397
 20
38.3399053086
 10
241.2170157479
 20
39.3600494288
  0
LWPOLYLINE
  5
25D
330
1F
100
AcDbEntity
  8
0
  6
Continuous
 62
     7
370
     0
100
AcDbPolyline
 90
       21
 70
   128
 43
0.0
 10
227.0196942692
 20
43.8502357361
 10
227.489339781
 20
45.6096636666
 10
228.0735082699
 20
47.3801194696
 10
228.7674215885
 20
49.1471218803
 10
229.565403943
 20
50.8962178809
 10
230.4609283171
 20
52.6131009169
 10
231.4466698595
 20
54.2837279165
 10
232.5145657966
 20
55.8944341549
 10
233.6558813813
 20
57.4320450226
 10
234.8612813378
 20
58.8839837867
 10
236.1209062189
 20
60.2383744604
 10
237.4244530497
 20
61.4841389418
 10
238.7612596004
 20
62.6110876259
 10
240.1203915966
 20
63.6100027496
 10
241.4907321553
 20
64.4727137874
 10
242.861072714
 20
65.1921642814
 10
244.2202047102
 20
65.7624695587
 10
245.557011261
 20
66.1789648649
 10
246.8605580918
 20
66.4382435187
 10
248.1201829728
 20
66.5381847763
 10
248.2767008364
 20
66.5394183517
  0
LWPOLYLINE
  5
25E
330
1F
100
AcDbEntity
  8
0
  6
Continuous
 62
     7
370
     0
100
AcDbPolyline
 90
       22
 70
   128
 43
0.0
 10
218.905996686
 20
45.9256817442
 10
219.3848322768
 20
47.8743478804
 10
219.9867139931
 20
49.8401590741
 10
220.7071612408
 20
51.8084812175
 10
221.5408107874
 20
53.7646615104
 10
222.4814566871
 20
55.6941375403
 10
223.5220964804
 20
57.5825456897
 10
224.6549833221
 20
59.4158280629
 10
225.8716836513
 20
61.1803371376
 10
227.1631399737
 20
62.8629373615
 10
228.5197382881
 20
64.4511029369
 10
229.9313796562
 20
65.933011067
 10
231.3875553821
 20
67.2976299684
 10
232.8774252422
 20
68.5348009948
 10
234.3898981837
 20
69.6353142619
 10
235.913714889
 20
70.5909772076
 10
237.4375315943
 20
71.3946755808
 10
238.9500045357
 20
72.0404264016
 10
240.4398743959
 20
72.5234225009
 10
241.8960501218
 20
72.840068306
 10
243.3076914899
 20
72.9880066072
 10
244.6458977817
 20
72.9676013512
  0
LWPOLYLINE
  5
25F
330
1F
100
AcDbEntity
  8
0
  6
Continuous
 62
     7
370
     0
100
AcDbPolyline
 90
       19
 70
   128
 43
0.0
 10
227.4125006449
 20
43.7925892792
 10
227.8997448622
 20
45.5969422384
 10
228.5081421154
 20
47.4119742013
 10
229.2323650329
 20
49.2217920163
 10
230.0660720267
 20
51.0105481889
 10
231.0019628224
 20
52.7625796491
 10
232.0318423829
 20
54.462544903
 10
233.1466926674
 20
56.0955583696
 10
234.3367515976
 20
57.6473207245
 10
235.5915985376
 20
59.1042441111
 10
236.9002455417
 20
60.4535711207
 10
238.2512335692
 20
61.6834865021
 10
239.6327328242
 20
62.7832206204
 10
241.0326463425
 20
63.7431437604
 10
242.4387159167
 20
64.5548504479
 10
243.8386294349
 20
65.2112330521
 10
245.22012869
 20
65.7065440222
 10
246.5711167175
 20
66.0364462157
 10
247.3442075788
 20
66.1517244174
  0
LINE
  5
260
330
1F
100
AcDbEntity
  8
0
  6
Continuous
 62
     7
370
     0
100
AcDbLine
 10
227.2765712976
 20
33.3525698283
 30
0.0
 11
228.4360606779
 21
34.0219287998
 31
0.0
  0
LINE
  5
261
330
1F
100
AcDbEntity
  8
0
  6
Continuous
 62
     7
370
     0
100
AcDbLine
 10
228.8213927481
 20
33.8183855279
 30
0.0
 11
228.4360606779
 21
34.0219287998
 31
0.0
  0
ARC
  5
262
330
1F
100
AcDbEntity
  8
0
  6
Continuous
 62
     7
370
     0
100
AcDbCircle
 10
227.710914217
 20
35.1978493531
 30
0.0
 40
1.381530505398072
100
AcDbArc
 50
301.6605905891
 51
324.2377952695
  0
LINE
  5
263
330
1F
100
AcDbEntity
  8
0
  6
Continuous
 62
     7
370
     0
100
AcDbLine
 10
223.1403869822
 20
38.7120050753
 30
0.0
 11
228.7153900494
 21
35.4936243098
 31
0.0
  0
LINE
  5
264
330
1F
100
AcDbEntity
  8
0
  6
Continuous
 62
     7
370
     0
100
AcDbLine
 10
223.0797268104
 20
38.6769753196
 30
0.0
 11
223.1403869822
 21
38.7120050753
 31
0.0
  0
LINE
  5
265
330
1F
100
AcDbEntity
  8
0
  6
Continuous
 62
     7
370
     0
100
AcDbLine
 10
222.8587559413
 20
43.45739764
 30
0.0
 11
222.8597969686
 21
43.6431493719
 31
0.0
  0
LWPOLYLINE
  5
266
330
1F
100
AcDbEntity
  8
0
  6
Continuous
 62
     7
370
     0
100
AcDbPolyline
 90
        3
 70
   128
 43
0.0
 10
222.9935361535
 20
41.4341936612
 10
222.9221087776
 20
42.0514271403
 10
222.8587559413
 20
43.45739764
  0
LWPOLYLINE
  5
267
330
1F
100
AcDbEntity
  8
0
  6
Continuous
 62
     7
370
     0
100
AcDbPolyline
 90
       18
 70
   128
 43
0.0
 10
191.9255362577
 20
67.2730162312
 10
191.9896649941
 20
68.4162686422
 10
192.1809068245
 20
69.6131611498
 10
192.495849034
 20
70.8423351789
 10
192.9288714712
 20
72.08185609
 10
193.4722468407
 20
73.3096046028
 10
194.116278596
 20
74.5036715163
 10
194.8494739752
 20
75.6427486779
 10
195.6587490894
 20
76.7065092288
 10
196.529662405
 20
77.6759703367
 10
197.4466724533
 20
78.5338319451
 10
198.3934151682
 20
79.2647854935
 10
199.3529959035
 20
79.8557870983
 10
200.3082909184
 20
80.296290322
 10
201.2422529505
 20
80.578434374
 10
202.1382154254
 20
80.6971843871
 10
202.9801898715
 20
80.6504212645
 10
203.6433510348
 20
80.480651229
  0
ARC
  5
268
330
1F
100
AcDbEntity
  8
0
  6
Continuous
 62
     7
370
     0
100
AcDbCircle
 10
197.3118562393
 20
66.8271091885
 30
0.0
 40
5.404745695691456
100
AcDbArc
 50
175.2675545005
 51
224.8656241104
  0
LWPOLYLINE
  5
269
330
1F
100
AcDbEntity
  8
0
  6
Continuous
 62
     7
370
     0
100
AcDbPolyline
 90
        3
 70
   128
 43
0.0
 10
228.0854262641
 20
31.6832395688
 10
227.8997448622
 20
32.061440456
 10
227.4125006449
 20
33.3032332163
  0
LWPOLYLINE
  5
26A
330
1F
100
AcDbEntity
  8
0
  6
Continuous
 62
     7
370
     0
100
AcDbPolyline
 90
        3
 70
   128
 43
0.0
 10
227.9997393105
 20
31.1655994214
 10
227.489339781
 20
32.1404995389
 10
227.0196942692
 20
33.3576863034
  0
LINE
  5
26B
330
1F
100
AcDbEntity
  8
0
  6
Continuous
 62
     7
370
     0
100
AcDbLine
 10
228.4360606779
 20
34.0219287998
 30
0.0
 11
222.7261734199
 21
37.3181765513
 31
0.0
  0
ARC
  5
26C
330
1F
100
AcDbEntity
  8
0
  6
Continuous
 62
     7
370
     0
100
AcDbCircle
 10
230.5745024354
 20
37.9842494552
 30
0.0
 40
12.0971502632552
100
AcDbArc
 50
195.2980304775
 51
214.568481162
  0
ARC
  5
26D
330
1F
100
AcDbEntity
  8
0
  6
Continuous
 62
     7
370
     0
100
AcDbCircle
 10
274.4934989504
 20
29.9705457709
 30
0.0
 40
0.7160743444427312
100
AcDbArc
 50
290.5312785593
 51
6.7177976436
  0
OLE2FRAME
  5
26E
330
1F
100
AcDbEntity
  8
0
100
AcDbOle2Frame
 70
     2
  3
Paintbrush-Bild
 10
13.8511154363
 20
38.264191557
 30
0.0
 11
51.6290888628
 21
31.9806341108
 31
0.0
 71
     2
 72
     0
 73
     1
 90
    12928
310
80552BED0767C5B32B40DDAF6807D121434000000000000000006FFBDDFB85D0
310
4940DDAF6807D121434000000000000000006FFBDDFB85D04940416F4BD60AFB
310
3F4000000000000000002BED0767C5B32B40416F4BD60AFB3F40000000000000
310
0000000000000100000000010000010000000100000000000100000000320000
310
D0CF11E0A1B11AE1000000000000000000000000000000003E000300FEFF0900
310
0600000000000000000000000100000001000000000000000010000002000000
310
01000000FEFFFFFF0000000000000000FFFFFFFFFFFFFFFFFFFFFFFFFFFFFFFF
310
FFFFFFFFFFFFFFFFFFFFFFFFFFFFFFFFFFFFFFFFFFFFFFFFFFFFFFFFFFFFFFFF
310
FFFFFFFFFFFFFFFFFFFFFFFFFFFFFFFFFFFFFFFFFFFFFFFFFFFFFFFFFFFFFFFF
310
FFFFFFFFFFFFFFFFFFFFFFFFFFFFFFFFFFFFFFFFFFFFFFFFFFFFFFFFFFFFFFFF
310
FFFFFFFFFFFFFFFFFFFFFFFFFFFFFFFFFFFFFFFFFFFFFFFFFFFFFFFFFFFFFFFF
310
FFFFFFFFFFFFFFFFFFFFFFFFFFFFFFFFFFFFFFFFFFFFFFFFFFFFFFFFFFFFFFFF
310
FFFFFFFFFFFFFFFFFFFFFFFFFFFFFFFFFFFFFFFFFFFFFFFFFFFFFFFFFFFFFFFF
310
FFFFFFFFFFFFFFFFFFFFFFFFFFFFFFFFFFFFFFFFFFFFFFFFFFFFFFFFFFFFFFFF
310
FFFFFFFFFFFFFFFFFFFFFFFFFFFFFFFFFFFFFFFFFFFFFFFFFFFFFFFFFFFFFFFF
310
FFFFFFFFFFFFFFFFFFFFFFFFFFFFFFFFFFFFFFFFFFFFFFFFFFFFFFFFFFFFFFFF
310
FFFFFFFFFFFFFFFFFFFFFFFFFFFFFFFFFFFFFFFFFFFFFFFFFFFFFFFFFFFFFFFF
310
FFFFFFFFFFFFFFFFFFFFFFFFFFFFFFFFFFFFFFFFFFFFFFFFFFFFFFFFFFFFFFFF
310
FFFFFFFFFFFFFFFFFFFFFFFFFFFFFFFFFFFFFFFFFFFFFFFFFFFFFFFFFFFFFFFF
310
FFFFFFFFFFFFFFFFFFFFFFFFFFFFFFFFFFFFFFFFFFFFFFFFFFFFFFFFFFFFFFFF
310
FDFFFFFFFEFFFFFFFEFFFFFFFEFFFFFF05000000060000000700000008000000
310
090000000A0000000B0000000C0000000D0000000E0000000F00000010000000
310
11000000120000001300000014000000150000001600000017000000FEFFFFFF
310
FFFFFFFFFFFFFFFFFFFFFFFFFFFFFFFFFFFFFFFFFFFFFFFFFFFFFFFFFFFFFFFF
310
FFFFFFFFFFFFFFFFFFFFFFFFFFFFFFFFFFFFFFFFFFFFFFFFFFFFFFFFFFFFFFFF
310
FFFFFFFFFFFFFFFFFFFFFFFFFFFFFFFFFFFFFFFFFFFFFFFFFFFFFFFFFFFFFFFF
310
FFFFFFFFFFFFFFFFFFFFFFFFFFFFFFFFFFFFFFFFFFFFFFFFFFFFFFFFFFFFFFFF
310
FFFFFFFFFFFFFFFFFFFFFFFFFFFFFFFFFFFFFFFFFFFFFFFFFFFFFFFFFFFFFFFF
310
FFFFFFFFFFFFFFFFFFFFFFFFFFFFFFFFFFFFFFFFFFFFFFFFFFFFFFFFFFFFFFFF
310
FFFFFFFFFFFFFFFFFFFFFFFFFFFFFFFFFFFFFFFFFFFFFFFFFFFFFFFFFFFFFFFF
310
FFFFFFFFFFFFFFFFFFFFFFFFFFFFFFFFFFFFFFFFFFFFFFFFFFFFFFFFFFFFFFFF
310
FFFFFFFFFFFFFFFFFFFFFFFFFFFFFFFFFFFFFFFFFFFFFFFFFFFFFFFFFFFFFFFF
310
FFFFFFFFFFFFFFFFFFFFFFFFFFFFFFFFFFFFFFFFFFFFFFFFFFFFFFFFFFFFFFFF
310
FFFFFFFFFFFFFFFFFFFFFFFFFFFFFFFFFFFFFFFFFFFFFFFFFFFFFFFFFFFFFFFF
310
FFFFFFFFFFFFFFFFFFFFFFFFFFFFFFFFFFFFFFFFFFFFFFFFFFFFFFFFFFFFFFFF
310
FFFFFFFFFFFFFFFFFFFFFFFFFFFFFFFFFFFFFFFFFFFFFFFFFFFFFFFFFFFFFFFF
310
52006F006F007400200045006E00740072007900000000000000000000000000
310
0000000000000000000000000000000000000000000000000000000000000000
310
16000500FFFFFFFFFFFFFFFF020000000A00030000000000C000000000000046
310
000000000000000000000000C05344D7EA25D20103000000C000000000000000
310
01004F006C006500000000000000000000000000000000000000000000000000
310
0000000000000000000000000000000000000000000000000000000000000000
310
0A000200FFFFFFFFFFFFFFFFFFFFFFFF00000000000000000000000000000000
310
0000000000000000000000000000000000000000000000001400000000000000
310
010043006F006D0070004F0062006A0000000000000000000000000000000000
310
0000000000000000000000000000000000000000000000000000000000000000
310
120002010100000003000000FFFFFFFF00000000000000000000000000000000
310
0000000000000000000000000000000000000000010000004D00000000000000
310
01004F006C006500310030004E00610074006900760065000000000000000000
310
0000000000000000000000000000000000000000000000000000000000000000
310
1A000200FFFFFFFFFFFFFFFFFFFFFFFF00000000000000000000000000000000
310
0000000000000000000000000000000000000000040000002426000000000000
310
FEFFFFFF02000000FEFFFFFFFFFFFFFFFFFFFFFFFFFFFFFFFFFFFFFFFFFFFFFF
310
FFFFFFFFFFFFFFFFFFFFFFFFFFFFFFFFFFFFFFFFFFFFFFFFFFFFFFFFFFFFFFFF
310
FFFFFFFFFFFFFFFFFFFFFFFFFFFFFFFFFFFFFFFFFFFFFFFFFFFFFFFFFFFFFFFF
310
FFFFFFFFFFFFFFFFFFFFFFFFFFFFFFFFFFFFFFFFFFFFFFFFFFFFFFFFFFFFFFFF
310
FFFFFFFFFFFFFFFFFFFFFFFFFFFFFFFFFFFFFFFFFFFFFFFFFFFFFFFFFFFFFFFF
310
FFFFFFFFFFFFFFFFFFFFFFFFFFFFFFFFFFFFFFFFFFFFFFFFFFFFFFFFFFFFFFFF
310
FFFFFFFFFFFFFFFFFFFFFFFFFFFFFFFFFFFFFFFFFFFFFFFFFFFFFFFFFFFFFFFF
310
FFFFFFFFFFFFFFFFFFFFFFFFFFFFFFFFFFFFFFFFFFFFFFFFFFFFFFFFFFFFFFFF
310
FFFFFFFFFFFFFFFFFFFFFFFFFFFFFFFFFFFFFFFFFFFFFFFFFFFFFFFFFFFFFFFF
310
FFFFFFFFFFFFFFFFFFFFFFFFFFFFFFFFFFFFFFFFFFFFFFFFFFFFFFFFFFFFFFFF
310
FFFFFFFFFFFFFFFFFFFFFFFFFFFFFFFFFFFFFFFFFFFFFFFFFFFFFFFFFFFFFFFF
310
FFFFFFFFFFFFFFFFFFFFFFFFFFFFFFFFFFFFFFFFFFFFFFFFFFFFFFFFFFFFFFFF
310
FFFFFFFFFFFFFFFFFFFFFFFFFFFFFFFFFFFFFFFFFFFFFFFFFFFFFFFFFFFFFFFF
310
FFFFFFFFFFFFFFFFFFFFFFFFFFFFFFFFFFFFFFFFFFFFFFFFFFFFFFFFFFFFFFFF
310
FFFFFFFFFFFFFFFFFFFFFFFFFFFFFFFFFFFFFFFFFFFFFFFFFFFFFFFFFFFFFFFF
310
FFFFFFFFFFFFFFFFFFFFFFFFFFFFFFFFFFFFFFFFFFFFFFFFFFFFFFFFFFFFFFFF
310
0100000200000000000000000000000000000000000000000000000000000000
310
0000000000000000000000000000000000000000000000000000000000000000
310
0100FEFF030A0000FFFFFFFF0A00030000000000C00000000000004607000000
310
5042727573680007000000504272757368000700000050427275736800F439B2
310
7100000000000000000000000000000000000000000000000000000000000000
310
0000000000000000000000000000000000000000000000000000000000000000
310
0000000000000000000000000000000000000000000000000000000000000000
310
0000000000000000000000000000000000000000000000000000000000000000
310
0000000000000000000000000000000000000000000000000000000000000000
310
0000000000000000000000000000000000000000000000000000000000000000
310
0000000000000000000000000000000000000000000000000000000000000000
310
0000000000000000000000000000000000000000000000000000000000000000
310
0000000000000000000000000000000000000000000000000000000000000000
310
0000000000000000000000000000000000000000000000000000000000000000
310
0000000000000000000000000000000000000000000000000000000000000000
310
0000000000000000000000000000000000000000000000000000000000000000
310
20260000424D0E260000000000003E00000028000000B40200006E0000000100
310
01000000000000000000130B0000130B00000200000002000000000000FFFFFF
310
FFFFFFFFFFFFFFFFFFFFFFFFFFFFFFFFFFFFFFFFFFFFFFFFFFFFFFFFFFFFFFFF
310
FFFFFFFFFFFFFFFFFFFFFFFFFFFFFFFFFFFFFFFFFFFFFFFFFFFFFFFFFFFFFFFF
310
FFFFFFFFFFFFFFFFFFFFFFFFFFFFFFFFFFFFFFFFFFFFFFFFF000FFFFFFFFFFFF
310
FFFFFFFFFFFFFFFFFFFFFFFFFFFFFFFFFFFFFFFFFFFFFFFFFFFFFFFFFFFFFFFF
310
FFFFFFFFFFFFFFFFFFFFFFFFFFFFFFFFFFFFFFFFFFFFFFFFFFFFFFFFFFFFFFFF
310
FFFFFFFFFFFFFFFFFFFFFFFFFFFFFFFFF000FFFFFFFFFFFFFFFFFFFFFFFFFFFF
310
FFFFFFFFFFFFFFFFFFFFFFFFFFFFFFFFFFFFFFFFFFFFFFFFFFFFFFFFFFFFFFFF
310
FFFFFFFFFFFFFFFFFFFFFFFFFFFFFFFFFFFFFFFFFFFFFFFFFFFFFFFFFFFFFFFF
310
FFFFFFFFFFFFFFFFF000FFFFFFFFFFFFFFFFFFFFFFFFFFFFFFFFFFFFFFFFFFFF
310
FFFFFFFFFFFFFFFFFFFFFFFFFFFFFFFFFFFFFFFFFFFFFFFFFFFFFFFFFFFFFFFF
310
FFFFFFFFFFFFFFFFFFFFFFFFFFFFFFFFFFFFFFFFFFFFFFFFFFFFFFFFFFFFFFFF
310
F000FFFFFFFFFFFFFFFFFFFFFFFFFFFFFFFFFFFFFFFFFFFFFFFFFFFFFFFFFFFF
310
FFFFFFFFFFFFFFFFFFFFFFFFFFFFFFFFFFFFFFFFFFFFFFFFFFFFFFFFFFFFFFFF
310
FFFFFFFFFFFFFFFFFFFFFFFFFFFFFFFFFFFFFFFFFFFFFFFFF000FFFFFFFFFFFF
310
FFFFFFFFFFFFFFFFFFFFFFFFFFFFFFFFFFFFFFFFFFFFFFFFFFFFFFFFFFFFFFFF
310
FFFFFFFFFFFFFFFFFFFFFFFFFFFFFFFFFFFFFFFFFFFFFFFFFFFFFFFFFFFFFFFF
310
FFFFFFFFFFFFFFFFFFFFFFFFFFFFFFFFF000FFFFFFFFFFFFFFFFFFFFFFFFFFFF
310
FFFFFFFFFFFFFFFFFFFFFFFFFFFFFFFFFFFFFFFFFFFFFFFFFFFFFFFFFFFFFFFF
310
FFFFFFFFFFFFFFFFFFFFFFFFFFFFFFFFFFFFFFFFFFFFFFFFFFFFFFFFFFFFFFFF
310
FFFFFFFFFFFFFFFFF000FFFFFFFFFFFFFFFFFFFFFFFFFFFFFFFFFFFFFFFFFFFF
310
FFFFFFFFFFFFFFFFFFFFFFFFFFFFFFFFFFFFFFFFFFFFFFFFFFFFFFFFFFFFFFFF
310
FFFFFFFFFFFFFFFFFFFFFFFFFFFFFFFFFFFFFFFFFFFFFFFFFFFFFFFFFFFFFFFF
310
F000FFFFFFFFFFFFFFFFFFFFFFFFFFFFFFFFFFFFFFFFFFFFFFFFFFFFFFFFFFFF
310
FFFFFFFFFFFFFFFFFFFFFFFFFFFFFFFFFFFFFFFFFFFFFFFFFFFFFFFFFFFFFFFF
310
FFFFFFFFFFFFFFFFFFFFFFFFFFFFFFFFFFFFFFFFFFFFFFFFF000FFFFFFFFFFFF
310
FFFFFFFFFFFFFFFFFFFFFFFFFFFFFFFFFFFFFFFFFFFFFFFFFFFFFFFFFFFFFFFF
310
FFFFFFFFFFFFFFFFFFFFFFFFFFFFFFFFFFFFFFFFFFFFFFFFFFFFFFFFFFFFFFFF
310
FFFFFFFFFFFFFFFFFFFFFFFFFFFFFFFFF000FFFFFFFFFFFFFFFFFFFFFFFFFFFF
310
FFFFFFFFFFFFFFFFFFFFFFFFFFFFFFFFFFFFFFFFFFFFFFFFFFFFFFFFFFFFFFFF
310
FFFFFFFFFFFFFFFFFFFFFFFFFFFFFFFFFFFFFFFFFFFFFFFFFFFFFFFFFFFFFFFF
310
FFFFFFFFFFFFFFFFF000FFFFFFFFFFFFFFFFFFFFFFFFFFFFFFFFFFFFFFFFFFFF
310
FFFFFFFFFFFFFFFFFFFFFFFFFFFFFFFFFFFFFFFFFFFFFFFFFFFFFFFFFFFFFFFF
310
FFFFFFFFFFFFFFFFFFFFFFFFFFFFFFFFFFFFFFFFFFFFFFFFFFFFFFFFFFFFFFFF
310
F000FFFFFFFFFFFFFFFFFFFFFFFFFFFFFFFFFFFFFFFFFFFFFFFFFFFFFFFFFFFF
310
FFFFFFFFFFFFFFFFFFFFFFFFFFFFFFFFFFFFFFFFFFFFFFFFFFFFFFFFFFFFFFFF
310
FFFFFFFFFFFFFFFFFFFFFFFFFFFFFFFFFFFFFFFFFFFFFFFFF000FFFFFFFFFFFF
310
FFFFFFFFFFFFFFFFFFFFFFFFFFFFFFFFFFFFFFFFFFFFFFFFFFFFFFFFFFFFFFFF
310
FFFFFFFFFFFFFFFFFFFFFFFFFFFFFFFFFFFFFFFFFFFFFFFFFFFFFFFFFFFFFFFF
310
FFFFFFFFFFFFFFFFFFFFFFFFFFFFFFFFF000FFFFFFFFFFFFFFFFFFFFFFFFFFFF
310
FFFFFFFFFFFFFFFFFFFFFFFFFFFFFFFFFFFFFFFFFFFFFFFFFFFFFFFFFFFFFFFF
310
FFFFFFFFFFFFFFFFFFFFFFFFFFFFFFFFFFFFFFFFFFFFFFFFFFFFFFFFFFFFFFFF
310
FFFFFFFFFFFFFFFFF000FFFFFFFFFFFFFFFFFFFFFFFFFFFFFFFFFFFFFFFFFFFF
310
FFFFFFFFFFFFFFFFFFFFFFFFFFFFFFFFFFFFFFFFFFFFFFFFFFFFFFFFFFFFFFFF
310
FFFFFFFFFFFFFFFFFFFFFFFFFFFFFFFFFFFFFFFFFFFFFFFFFFFFFFFFFFFFFFFF
310
F000FFFFFFFFFFFFFFFFFFFFFFFFFFFFFFFFFFFFFFFFFFFFFFFFFFFFFFFFFFFF
310
FFFFFFFFFFFFFFFFFFFFFFFFFFFFFFFFFFFFFFFFFFFFFFFFFFFFFFFFFFFFFFFF
310
FFFFFFFFFFFFFFFFFFFFFFFFFFFFFFFFFFFFFFFFFFFFFFFFF000FFFFFFFFFFFF
310
FFFFFFFFFFFFFFFFFFFFFFFFFFFFFFFFFFFFFFFFFFFFFFFFFFFFFFFFFFFFFFFF
310
FFFFFFFFFFFFFFFFFFFFFFFFFFFFFFFFFFFFFFFFFFFFFFFFFFFFFFFFFFFFFFFF
310
FFFFFFFFFFFFFFFFFFFFFFFFFFFFFFFFF000FFFFFFFFFFFFFFFFFFFFFFFFFFFF
310
FFFFFFFFFFFFFFFFFFFFFFFFFFFFFFFFFFFFFFFFFFFFFFFFFFFFFFFFFFFFFFFF
310
FFFFFFFFFFFFFFFFFFFFFFFFFFFFFFFFFFFFFFFFFFFFFFFFFFFFFFFFFFFFFFFF
310
FFFFFFFFFFFFFFFFF000FFFFF80003FFFFFFFFFFFFFFFFFFFFFFFFFFFFFFFFFF
310
FFFFF00007FFFFFFFFFF00007FFFFFF800000000000000007FFFFFFFFFFFFFFF
310
FFFFFFFC001FFFFFFFFFFFFFFC001FFFFFFFFFFFFFFFFFFFFFFFFFFE0007FFFF
310
F000FFFF8000007FFFFFFFF8000FFFFFC0007FFFFF80007FFFFF0000007FFFFF
310
FFF8000007FFFFF800000000000000007FFFFFF0001FFFFFFFFFFFC00001FFFF
310
FFFFFFFFC00001FFFFFFFF000000000003FFFFE000007FFFF000FFFE0000000F
310
FFFFFFF0000FFFFF80007FFFFF80007FFFFC0000001FFFFFFFC0000001FFFFF8
310
00000000000000007FFFFFF0001FFFFFFFFFFE0000003FFFFFFFFFFE0000003F
310
FFFFFF000000000003FFFF0000000FFFF000FFF800000003FFFFFFF00007FFFF
310
80007FFFFF80007FFFF000000007FFFFFF000000003FFFF80000000000000000
310
7FFFFFF0001FFFFFFFFFF80000000FFFFFFFFFF80000000FFFFFFF0000000000
310
03FFFC00000003FFF000FFE000000000FFFFFFF00007FFFF80003FFFFF80007F
310
FFC000000001FFFFFC000000001FFFF800000000000000007FFFFFF0001FFFFF
310
FFFFE000000003FFFFFFFFE000000003FFFFFF000000000003FFF000000000FF
310
F000FF80000000007FFFFFF00007FFFF80003FFFFF80007FFF8000000000FFFF
310
F80000000007FFF800000000000000007FFFFFF0001FFFFFFFFFC000000001FF
310
FFFFFFC000000001FFFFFF000000000003FFC0000000007FF000FF0000000000
310
3FFFFFE00007FFFF00003FFFFF80007FFE00000000003FFFF00000000003FFF8
310
00000000000000007FFFFFF0001FFFFFFFFF8000000000FFFFFFFF8000000000
310
FFFFFF000000000003FF80000000003FF000FE00000000001FFFFFE00003FFFF
310
00003FFFFF80007FFC00000000001FFFE00000000001FFF8000001FFFE000000
310
7FFFFFF0001FFFFFFFFE00000000003FFFFFFE00000000003FFFFF0000000000
310
03FF00000000001FF000FC00000000000FFFFFE00003FFFF00001FFFFF80007F
310
F800000000001FFFC00000000000FFF8000001FFFE0000007FFFFFF0001FFFFF
310
FFFC00000000001FFFFFFC00000000001FFFFF000000000003FE00000000000F
310
F000F8000000000007FFFFE00003FFFF00001FFFFF80007FF800000000000FFF
310
800000000000FFF8000001FFFE0000007FFFFFF0001FFFFFFFF800000000000F
310
FFFFF800000000000FFFFF000000000003FC000000000007F000F80000000000
310
03FFFFC00003FFFE00001FFFFF80007FF0000000000007FF0000000000007FF8
310
000001FFFE0000007FFFFFF0001FFFFFFFF0000000000007FFFFF00000000000
310
07FFFF000000000003F8000000000003F000F0000000000003FFFFC00001FFFE
310
00001FFFFF80007FE0000000000007FE0000000000003FF8000001FFFE000000
310
7FFFFFF0001FFFFFFFF0000000000007FFFFF0000000000007FFFF0000000000
310
03F800001F800003F000E00001FFF00001FFFFC00001FFFE00000FFFFF80007F
310
E00001FFE00003FE00001FFF00003FF8000001FFFE0000007FFFFFF0001FFFFF
310
FFE000003E000003FFFFE000003E000003FFFF000000000003F00001FFF80001
310
F000E00007FFFC0001FFFFC00001FFFE00000FFFFF80007FC0000FFFFC0003FC
310
0000FFFFC0001FF8000001FFFE0000007FFFFFF0001FFFFFFFC00003FFE00001
310
FFFFC00003FFE00001FFFF0001FFFFFFFFF00007FFFE0001F000E0000FFFFF00
310
00FFFF800001FFFC00000FFFFF80007FC0001FFFFE0001FC0001FFFFE0001FF8
310
000001FFFE0000007FFFFFF0001FFFFFFF80000FFFF80000FFFF80000FFFF800
310
00FFFF0003FFFFFFFFE0000FFFFF8000F000C0003FFFFF8000FFFF800000FFFC
310
000007FFFF80007F80003FFFFF0001FC0003FFFFF0001FF8000001FFFE000000
310
7FFFFFF0001FFFFFFF80003FFFFE0000FFFF80003FFFFE0000FFFF0003FFFFFF
310
FFE0003FFFFF8000F000C0003FFFFF8000FFFF800000FFFC000007FFFF80007F
310
80007FFFFF8001F80007FFFFF8000FF8000001FFFE0000007FFFFFF0001FFFFF
310
FF00007FFFFF00007FFF00007FFFFF00007FFF0003FFFFFFFFE0003FFFFFC000
310
F000C0007FFFFFC000FFFF000000FFFC000007FFFF80007F8000FFFFFF8000F8
310
000FFFFFF8000FF8000001FFFE0000007FFFFFF0001FFFFFFF0000FFFFFF8000
310
7FFF0000FFFFFF80007FFF0003FFFFFFFFC0007FFFFFC00070008000FFFFFFC0
310
00FFFF000000FFF8000007FFFF80007F8000FFFFFF8000F8000FFFFFF8000FF8
310
000001FFFE0000007FFFFFF0001FFFFFFE0001FFFFFFC0003FFE0001FFFFFFC0
310
003FFF0003FFFFFFFFC0007FFFFFE00070008000FFFFFFC0007FFF0000007FF8
310
000003FFFF80007F0001FFFFFF8000F8000FFFFFF8000FF8000001FFFE000000
310
7FFFFFF0001FFFFFFE0001FFFFFFC0003FFE0001FFFFFFC0003FFF0003FFFFFF
310
FFC000FFFFFFE00070008000FFFFFFC0007FFF0000007FF8000003FFFF80007F
310
0001FFFFFF8000F8001FFFFFF8000FF8000001FFFE0000007FFFFFF0001FFFFF
310
FE0003FFFFFFE0003FFE0003FFFFFFE0003FFF0003FFFFFFFFC000FFFFFFE000
310
70008000FFFFFFC0007FFE0000007FF8000003FFFF80007F0001FFFFFF8000F0
310
001FFFFFF8000FF8000001FFFE0000007FFFFFF0001FFFFFFC0003FFFFFFE000
310
1FFC0003FFFFFFE0001FFF0003FFFFFFFFC000FFFFFFC00070008000FFFFFF80
310
007FFE0000007FF0000003FFFF80007F0001FFFFFF0000F0001FFFFFF8000FF8
310
000001FFFE0000007FFFFFF0001FFFFFFC0007FFFFFFF0001FFC0007FFFFFFF0
310
001FFF0003FFFFFFFFC000FFFFFFC00070008001FFFFFF0000FFFE0000003FF0
310
000001FFFF80007F0001FFFFFF0000F8001FFFFFF0000FF8000001FFFE000000
310
7FFFFFF0001FFFFFFC0007FFFFFFF0001FFC0007FFFFFFF0001FFF0003FFFFFF
310
FFC001FFFFFF80007000FFFFFFFFFE0000FFFE0008003FF0008001FFFF80007F
310
FFFFFFFFFC0000FFFFFFFFFFE0000FF8000001FFFE0000007FFFFFF0001FFFFF
310
F8000FFFFFFFF8000FF8000FFFFFFFF8000FFF0003FFFFFFFFFFFFFFFFFF0000
310
7000FFFFFFFFFC0000FFFC0008003FF0008001FFFF80007FFFFFFFFFF80001FF
310
FFFFFFFF80000FF8000001FFFE0000007FFFFFF0001FFFFFF8000FFFFFFFF800
310
0FF8000FFFFFFFF8000FFF0003FFFFFFFFFFFFFFFFFE0000F000FFFFFFFFE000
310
00FFFC000C003FE000C001FFFF80007FFFFFFFFFC00001FFFFFFFFFE00001FF8
310
000001FFFE0000007FFFFFF0001FFFFFF8000FFFFFFFF8000FF8000FFFFFFFF8
310
000FFF0003FFFFFFFFFFFFFFFFF00000F000FFFFFFFE000001FFFC000C001FE0
310
00C000FFFF80007FFFFFFFFE000001FFFFFFFFE000001FF80FFFFFFFFFFFFFC0
310
7FFFFFF0001FFFFFF8000FFFFFFFF8000FF8000FFFFFFFF8000FFF0003FFFFFF
310
FFFFFFFFFF800000F000FFFFFFC0000001FFFC001C001FE001C000FFFF80007F
310
FFFFFF80000003FFFFFFF80000001FF80FFFFFFFFFFFFFC07FFFFFF0001FFFFF
310
F8001FFFFFFFFC000FF8001FFFFFFFFC000FFF0003FFFFFFFFFFFFFFF0000001
310
F000FFFFF800000001FFF8001C001FE001C000FFFF80007FFFFFF800000003FF
310
FFFF800000003FF80FFFFFFFFFFFFFC07FFFFFF0001FFFFFF8001FFFFFFFFC00
310
0FF8001FFFFFFFFC000FFF0003FFFFFFFFFFFFFE00000001F000FFFFC0000000
310
03FFF8001E001FC001E000FFFF80007FFFFF8000000007FFFFFC000000003FF8
310
0FFFFFFFFFFFFFC07FFFFFF0001FFFFFF8001FFFFFFFFC000FF8001FFFFFFFFC
310
000FFF0003FFFFFFFFFFFFE000000003F000FFFE0000000007FFF8001E000FC0
310
01E0007FFF80007FFFFE0000000007FFFFE0000000007FF80FFFFFFFFFFFFFC0
310
7FFFFFF0001FFFFFF0001FFFFFFFFC0007F0001FFFFFFFFC0007FF0003FFFFFF
310
FFFFFF0000000003F000FFF80000000007FFF8001E000FC003E0007FFF80007F
310
FFF0000000000FFFFF8000000000FFF80FFFFFFFFFFFFFC07FFFFFF0001FFFFF
310
F0001FFFFFFFFC0007F0001FFFFFFFFC0007FF0003FFFFFFFFFFFC0000000007
310
F000FFE0000000000FFFF0003E000FC003E0007FFF80007FFFC0000000001FFF
310
FE0000000001FFF80FFFFFFFFFFFFFC07FFFFFF0001FFFFFF0001FFFFFFFFC00
310
07F0001FFFFFFFFC0007FF0003FFFFFFFFFFF0000000000FF000FFC000000000
310
1FFFF0003F000F8003F0003FFF80007FFF80000000003FFFF80000000003FFF8
310
0FFFFFFFFFFFFFC07FFFFFF0001FFFFFF0001FFFFFFFFC0007F0001FFFFFFFFC
310
0007FF0003FFFFFFFFFFE0000000001FF000FF00000000007FFFF0003F000780
310
03F0003FFF80007FFF00000000007FFFF00000000007FFF80FFFFFFFFFFFFFC0
310
7FFFFFF0001FFFFFF0001FFFFFFFFC0007F0001FFFFFFFFC0007FF0003FFFFFF
310
FFFF80000000007FF000FE0000000000FFFFE0003F00078007F0003FFF80007F
310
FE0000000001FFFFE0000000001FFFF80FFFFFFFFFFFFFC07FFFFFF0001FFFFF
310
F0001FFFFFFFFC0007F0001FFFFFFFFC0007FF0003FFFFFFFFFF0000000000FF
310
F000FC0000000003FFFFE0007F00078007F0003FFF80007FFC0000000007FFFF
310
C0000000007FFFF80FFFFFFFFFFFFFC07FFFFFF0001FFFFFF8001FFFFFFFFC00
310
0FF8001FFFFFFFFC000FFF0003FFFFFFFFFE0000000003FFF000FC000000000F
310
FFFFE0007F80070007F8001FFF80007FF8000000001FFFFF8000000001FFFFF8
310
0FFFFFFFFFFFFFC07FFFFFF0001FFFFFF8001FFFFFFFFC000FF8001FFFFFFFFC
310
000FFF0003FFFFFFFFFC000000000FFFF000F8000000007FFFFFE0007F800700
310
07F8001FFF80007FF000000000FFFFFF800000000FFFFFF80FFFFFFFFFFFFFC0
310
7FFFFFF0001FFFFFF8000FFFFFFFF8000FF8000FFFFFFFF8000FFF0003FFFFFF
310
FFFC000000007FFFF000F800000007FFFFFFC0007F8003000FF8001FFF80007F
310
F000000007FFFFFF000000007FFFFFF80FFFFFFFFFFFFFC07FFFFFF0001FFFFF
310
F8000FFFFFFFF8000FF8000FFFFFFFF8000FFF0003FFFFFFFFF80000000FFFFF
310
F000F0000000FFFFFFFFC000FF8003000FF8001FFF80007FE0000000FFFFFFFF
310
0000000FFFFFFFF8000001FFFE0000007FFFFFF0001FFFFFF8000FFFFFFFF800
310
0FF8000FFFFFFFF8000FFF0003FFFFFFFFF8000000FFFFFFF000F000000FFFFF
310
FFFFC000FFC002000FF8000FFF80007FE000001FFFFFFFFE000001FFFFFFFFF8
310
000001FFFE0000007FFFFFF0001FFFFFF8000FFFFFFFF8000FF8000FFFFFFFF8
310
000FFF0003FFFFFFFFF000001FFFFFFFF000E00000FFFFFFFFFFC000FFC00200
310
0FFC000FFF80007FE00001FFFFFFFFFE00001FFFFFFFFFF8000001FFFE000000
310
7FFFFFF0001FFFFFFC000FFFFFFFF8001FFC000FFFFFFFF8001FFF0003FFFFFF
310
FFF00001FFFFFFFFF000E00007FFFFFFFFFF8000FFC000001FFC000FFF80007F
310
C0000FFFFFFFFFFE0000FFFFFFFFFFF8000001FFFE0000007FFFFFF0001FFFFF
310
FC0007FFFFFFF0001FFC0007FFFFFFF0001FFF0003FFFFFFFFF00007FFFFFFFF
310
F000E0001FFFFFFFFFFF8000FFC000001FFC000FFF80007FC0003FFFFFFFFFFE
310
0001FFFFFFFFFFF8000001FFFE0000007FFFFFF0001FFFFFFC0007FFFFFFF000
310
1FFC0007FFFFFFF0001FFF0003FFFFFFFFF0001FFFFFFFFFF000E0003FFFFF00
310
03FF8001FFE000001FFC0007FF80007FC0007FFFFF0007FC0003FFFFF0003FF8
310
000001FFFE0000007FFFFFF0001FFFFFFC0003FFFFFFE0001FFC0003FFFFFFE0
310
001FFF0003FFFFFFFFF0003FFFFFFFFFF000E0003FFFFF0001FF8001FFE00000
310
1FFE0007FF80007FC0007FFFFE0003FC0007FFFFE0003FF8000001FFFE000000
310
7FFFFFF0001FFFFFFE0003FFFFFFE0003FFE0003FFFFFFE0003FFF0003FFFFFF
310
FFF0003FFFFF8001F000E0003FFFFF0001FF0001FFE000001FFE0007FF80007F
310
C0007FFFFE0003FC0007FFFFE0003FF8000001FFFE0000007FFFFFF0001FFFFF
310
FE0001FFFFFFC0003FFE0001FFFFFFC0003FFF0003FFFFFFFFF0003FFFFF0001
310
F000E0003FFFFF0003FF0001FFE000003FFE0007FF80007FC0007FFFFE0003FC
310
0007FFFFE0003FF8000001FFFE0000007FFFFFF0001FFFFFFF0001FFFFFFC000
310
7FFF0001FFFFFFC0007FFF0003FFFFFFFFF0003FFFFF0001F000E0003FFFFE00
310
03FF0003FFF000003FFE0003FF80007FC0007FFFFC0003FE0007FFFFE0003FF8
310
000001FFFE0000007FFFFFF0001FFFFFFF0000FFFFFF80007FFF0000FFFFFF80
310
007FFF0003FFFFFFFFF0003FFFFF0001F000E0003FFFFE0003FF0003FFF00000
310
3FFF0003FF80007FC0007FFFFC0007FE0007FFFFC0003FF8000001FFFE000000
310
7FFFFFF0001FFFFFFF80007FFFFF0000FFFF80007FFFFF0000FFFF0003FFFFFF
310
FFF0003FFFFF0003F000E0003FFFFC0003FE0003FFF000003FFF0003FF80007F
310
E0003FFFF80007FE0003FFFFC0007FF8000001FFFE0000007FFFFFF0001FFFFF
310
FF80003FFFFE0000FFFF80003FFFFE0000FFFF0003FFFFFFFFF0001FFFFE0003
310
F000F0001FFFF80003FE0003FFF000007FFF0001FF80007FE0003FFFF00007FE
310
0001FFFF80007FF8000001FFFE0000007FFFFFF0001FFFFFFFC0000FFFF80001
310
FFFFC0000FFFF80001FFFF0003FFFFFFFFF0001FFFFC0003F000F0000FFFF000
310
07FE0007FFF800007FFF0001FF80007FE0001FFFE00007FF0000FFFE00007FF8
310
000001FFFE0000007FFFFFF0001FFFFFFFC00003FFE00001FFFFC00003FFE000
310
01FFFF0003FFFFFFFFF8000FFFF80003F000F00003FFC00007FC0007FFF80000
310
7FFF8001FF80007FF00007FF80000FFF00007FF80000FFF8000001FFFE000000
310
7F80000000000001FFE000003E000003FFFFE000003E000003FFFF0003FFFFFF
310
FFF80003FFE00007F000F800000000000FFC0007FFF800007FFF8001FF80007F
310
F000000000000FFF000000000000FFF8000001FFFE0000007F80000000000001
310
FFF0000000000007FFFFF0000000000007FFFF0003FFFFFFFFFC00007E000007
310
F000F800000000000FFC0007FFF80000FFFF8000FF80007FF800000000001FFF
310
800000000001FFF8000001FFFE0000007F80000000000001FFF800000000000F
310
FFFFF800000000000FFFFF0003FFFFFFFFFC00000000000FF000FC0000000000
310
1FFC0007FFFC0000FFFF8000FF80007FF800000000003FFFC00000000001FFF8
310
000001FFFE0000007F80000000000001FFF800000000000FFFFFF80000000000
310
0FFFFF0003FFFFFFFFFE00000000001FF000FE00000000003FF8000FFFFC0000
310
FFFF8000FF80007FFC00000000003FFFC00000000003FFF8000001FFFE000000
310
7F80000000000001FFFC00000000001FFFFFFC00000000001FFFFF0003FFFFFF
310
FFFF00000000001FF000FF00000000003FF8000FFFFC0000FFFFC000FF80007F
310
FE00000000007FFFE00000000007FFF8000001FFFE0000007F80000000000001
310
FFFE00000000003FFFFFFE00000000003FFFFF0003FFFFFFFFFF80000000003F
310
F000FF80000000007FF8000FFFFC0001FFFFC0007F80007FFF0000000000FFFF
310
F0000000000FFFF800000000000000007F80000000000001FFFF8000000000FF
310
FFFFFF8000000000FFFFFF0003FFFFFFFFFFC0000000007FF000FFC000000000
310
FFF8000FFFFE0001FFFFC0007F80007FFF8000000001FFFFF8000000001FFFF8
310
00000000000000007F80000000000001FFFFC000000001FFFFFFFFC000000001
310
FFFFFF0003FFFFFFFFFFE000000000FFF000FFE000000003FFF0001FFFFE0001
310
FFFFC0007F80007FFFC000000007FFFFFE000000003FFFF80000000000000000
310
7F80000000000001FFFFE000000003FFFFFFFFE000000003FFFFFF0003FFFFFF
310
FFFFF000000003FFF000FFF80000000FFFF0001FFFFE0001FFFFE0007F80007F
310
FFF00000000FFFFFFF00000000FFFFF800000000000000007F80000000000001
310
FFFFF80000000FFFFFFFFFF80000000FFFFFFF0003FFFFFFFFFFFC0000000FFF
310
F000FFFE0000003FFFF0001FFFFE0003FFFFE0003F80007FFFFC0000003FFFFF
310
FFC0000003FFFFF800000000000000007F80000000000001FFFFFE0000003FFF
310
FFFFFFFE0000003FFFFFFF0003FFFFFFFFFFFF0000003FFFF000FFFF800000FF
310
FFF0001FFFFF0003FFFFE0003F80007FFFFF000001FFFFFFFFF800001FFFFFF8
310
00000000000000007F80000000000001FFFFFFC00001FFFFFFFFFFFFC00001FF
310
FFFFFF0003FFFFFFFFFFFFC00000FFFFF000FFFFF8000FFFFFFFFFFFFFFFFFFF
310
FFFFFFFFFFFFFFFFFFFFF0001FFFFFFFFFFF0000FFFFFFF80000000000000000
310
7FFFFFFFFFFFFFFFFFFFFFFC001FFFFFFFFFFFFFFC001FFFFFFFFFFFFFFFFFFF
310
FFFFFFFC001FFFFFF000FFFFFFFFFFFFFFFFFFFFFFFFFFFFFFFFFFFFFFFFFFFF
310
FFFFFFFFFFFFFFFFFFFFFFFFFFFFFFFFFFFFFFFFFFFFFFFFFFFFFFFFFFFFFFFF
310
FFFFFFFFFFFFFFFFFFFFFFFFFFFFFFFFFFFFFFFFFFFFFFFFFFFFFFFFFFFFFFFF
310
F000FFFFFFFFFFFFFFFFFFFFFFFFFFFFFFFFFFFFFFFFFFFFFFFFFFFFFFFFFFFF
310
FFFFFFFFFFFFFFFFFFFFFFFFFFFFFFFFFFFFFFFFFFFFFFFFFFFFFFFFFFFFFFFF
310
FFFFFFFFFFFFFFFFFFFFFFFFFFFFFFFFFFFFFFFFFFFFFFFFF000FFFFFFFFFFFF
310
FFFFFFFFFFFFFFFFFFFFFFFFFFFFFFFFFFFFFFFFFFFFFFFFFFFFFFFFFFFFFFFF
310
FFFFFFFFFFFFFFFFFFFFFFFFFFFFFFFFFFFFFFFFFFFFFFFFFFFFFFFFFFFFFFFF
310
FFFFFFFFFFFFFFFFFFFFFFFFFFFFFFFFF000FFFFFFFFFFFFFFFFFFFFFFFFFFFF
310
FFFFFFFFFFFFFFFFFFFFFFFFFFFFFFFFFFFFFFFFFFFFFFFFFFFFFFFFFFFFFFFF
310
FFFFFFFFFFFFFFFFFFFFFFFFFFFFFFFFFFFFFFFFFFFFFFFFFFFFFFFFFFFFFFFF
310
FFFFFFFFFFFFFFFFF000FFFFFFFFFFFFFFFFFFFFFFFFFFFFFFFFFFFFFFFFFFFF
310
FFFFFFFFFFFFFFFFFFFFFFFFFFFFFFFFFFFFFFFFFFFFFFFFFFFFFFFFFFFFFFFF
310
FFFFFFFFFFFFFFFFFFFFFFFFFFFFFFFFFFFFFFFFFFFFFFFFFFFFFFFFFFFFFFFF
310
F000FFFFFFFFFFFFFFFFFFFFFFFFFFFFFFFFFFFFFFFFFFFFFFFFFFFFFFFFFFFF
310
FFFFFFFFFFFFFFFFFFFFFFFFFFFFFFFFFFFFFFFFFFFFFFFFFFFFFFFFFFFFFFFF
310
FFFFFFFFFFFFFFFFFFFFFFFFFFFFFFFFFFFFFFFFFFFFFFFFF000FFFFFFFFFFFF
310
FFFFFFFFFFFFFFFFFFFFFFFFFFFFFFFFFFFFFFFFFFFFFFFFFFFFFFFFFFFFFFFF
310
FFFFFFFFFFFFFFFFFFFFFFFFFFFFFFFFFFFFFFFFFFFFFFFFFFFFFFFFFFFFFFFF
310
FFFFFFFFFFFFFFFFFFFFFFFFFFFFFFFFF000FFFFFFFFFFFFFFFFFFFFFFFFFFFF
310
FFFFFFFFFFFFFFFFFFFFFFFFFFFFFFFFFFFFFFFFFFFFFFFFFFFFFFFFFFFFFFFF
310
FFFFFFFFFFFFFFFFFFFFFFFFFFFFFFFFFFFFFFFFFFFFFFFFFFFFFFFFFFFFFFFF
310
FFFFFFFFFFFFFFFFF000FFFFFFFFFFFFFFFFFFFFFFFFFFFFFFFFFFFFFFFFFFFF
310
FFFFFFFFFFFFFFFFFFFFFFFFFFFFFFFFFFFFFFFFFFFFFFFFFFFFFFFFFFFFFFFF
310
FFFFFFFFFFFFFFFFFFFFFFFFFFFFFFFFFFFFFFFFFFFFFFFFFFFFFFFFFFFFFFFF
310
F000FFFFFFFFFFFFFFFFFFFFFFFFFFFFFFFFFFFFFFFFFFFFFFFFFFFFFFFFFFFF
310
FFFFFFFFFFFFFFFFFFFFFFFFFFFFFFFFFFFFFFFFFFFFFFFFFFFFFFFFFFFFFFFF
310
FFFFFFFFFFFFFFFFFFFFFFFFFFFFFFFFFFFFFFFFFFFFFFFFF000FFFFFFFFFFFF
310
FFFFFFFFFFFFFFFFFFFFFFFFFFFFFFFFFFFFFFFFFFFFFFFFFFFFFFFFFFFFFFFF
310
FFFFFFFFFFFFFFFFFFFFFFFFFFFFFFFFFFFFFFFFFFFFFFFFFFFFFFFFFFFFFFFF
310
FFFFFFFFFFFFFFFFFFFFFFFFFFFFFFFFF000FFFFFFFFFFFFFFFFFFFFFFFFFFFF
310
FFFFFFFFFFFFFFFFFFFFFFFFFFFFFFFFFFFFFFFFFFFFFFFFFFFFFFFFFFFFFFFF
310
FFFFFFFFFFFFFFFFFFFFFFFFFFFFFFFFFFFFFFFFFFFFFFFFFFFFFFFFFFFFFFFF
310
FFFFFFFFFFFFFFFFF000FFFFFFFFFFFFFFFFFFFFFFFFFFFFFFFFFFFFFFFFFFFF
310
FFFFFFFFFFFFFFFFFFFFFFFFFFFFFFFFFFFFFFFFFFFFFFFFFFFFFFFFFFFFFFFF
310
FFFFFFFFFFFFFFFFFFFFFFFFFFFFFFFFFFFFFFFFFFFFFFFFFFFFFFFFFFFFFFFF
310
F000FFFFFFFFFFFFFFFFFFFFFFFFFFFFFFFFFFFFFFFFFFFFFFFFFFFFFFFFFFFF
310
FFFFFFFFFFFFFFFFFFFFFFFFFFFFFFFFFFFFFFFFFFFFFFFFFFFFFFFFFFFFFFFF
310
FFFFFFFFFFFFFFFFFFFFFFFFFFFFFFFFFFFFFFFFFFFFFFFFF000FFFFFFFFFFFF
310
FFFFFFFFFFFFFFFFFFFFFFFFFFFFFFFFFFFFFFFFFFFFFFFFFFFFFFFFFFFFFFFF
310
FFFFFFFFFFFFFFFFFFFFFFFFFFFFFFFFFFFFFFFFFFFFFFFFFFFFFFFFFFFFFFFF
310
FFFFFFFFFFFFFFFFFFFFFFFFFFFFFFFFF000FFFFFFFFFFFFFFFFFFFFFFFFFFFF
310
FFFFFFFFFFFFFFFFFFFFFFFFFFFFFFFFFFFFFFFFFFFFFFFFFFFFFFFFFFFFFFFF
310
FFFFFFFFFFFFFFFFFFFFFFFFFFFFFFFFFFFFFFFFFFFFFFFFFFFFFFFFFFFFFFFF
310
FFFFFFFFFFFFFFFFF000FFFFFFFFFFFFFFFFFFFFFFFFFFFFFFFFFFFFFFFFFFFF
310
FFFFFFFFFFFFFFFFFFFFFFFFFFFFFFFFFFFFFFFFFFFFFFFFFFFFFFFFFFFFFFFF
310
FFFFFFFFFFFFFFFFFFFFFFFFFFFFFFFFFFFFFFFFFFFFFFFFFFFFFFFFFFFFFFFF
310
F000FFFFFFFFFFFFFFFFFFFFFFFFFFFFFFFFFFFFFFFFFFFFFFFFFFFFFFFFFFFF
310
FFFFFFFFFFFFFFFFFFFFFFFFFFFFFFFFFFFFFFFFFFFFFFFFFFFFFFFFFFFFFFFF
310
FFFFFFFFFFFFFFFFFFFFFFFFFFFFFFFFFFFFFFFFFFFFFFFFF000FFFFFFFFFFFF
310
FFFFFFFFFFFFFFFFFFFFFFFFFFFFFFFFFFFFFFFFFFFFFFFFFFFFFFFFFFFFFFFF
310
FFFFFFFFFFFFFFFFFFFFFFFFFFFFFFFFFFFFFFFFFFFFFFFFFFFFFFFFFFFFFFFF
310
FFFFFFFFFFFFFFFFFFFFFFFFFFFFFFFFF000FFFFFFFFFFFFFFFFFFFFFFFFFFFF
310
FFFFFFFFFFFFFFFFFFFFFFFFFFFFFFFFFFFFFFFFFFFFFFFFFFFFFFFFFFFFFFFF
310
FFFFFFFFFFFFFFFFFFFFFFFFFFFFFFFFFFFFFFFFFFFFFFFFFFFFFFFFFFFFFFFF
310
FFFFFFFFFFFFFFFFF000FFFFFFFFFFFFFFFFFFFFFFFFFFFFFFFFFFFFFFFFFFFF
310
FFFFFFFFFFFFFFFFFFFFFFFFFFFFFFFFFFFFFFFFFFFFFFFFFFFFFFFFFFFFFFFF
310
FFFFFFFFFFFFFFFFFFFFFFFFFFFFFFFFFFFFFFFFFFFFFFFFFFFFFFFFFFFFFFFF
310
F000FFFFFFFFFFFFFFFFFFFFFFFFFFFFFFFFFFFFFFFFFFFFFFFFFFFFFFFFFFFF
310
FFFFFFFFFFFFFFFFFFFFFFFFFFFFFFFFFFFFFFFFFFFFFFFFFFFFFFFFFFFFFFFF
310
FFFFFFFFFFFFFFFFFFFFFFFFFFFFFFFFFFFFFFFFFFFFFFFFF000FFFFFFFFFFFF
310
FFFFFFFFFFFFFFFFFFFFFFFFFFFFFFFFFFFFFFFFFFFFFFFFFFFFFFFFFFFFFFFF
310
FFFFFFFFFFFFFFFFFFFFFFFFFFFFFFFFFFFFFFFFFFFFFFFFFFFFFFFFFFFFFFFF
310
FFFFFFFFFFFFFFFFFFFFFFFFFFFFFFFFF0000000000000000000000000000000
310
0000000000000000000000000000000000000000000000000000000000000000
310
0000000000000000000000000000000000000000000000000000000000000000
310
0000000000000000000000000000000000000000000000000000000000000000
310
0000000000000000000000000000000000000000000000000000000000000000
310
0000000000000000000000000000000000000000000000000000000000000000
310
0000000000000000000000000000000000000000000000000000000000000000
310
0000000000000000000000000000000000000000000000000000000000000000
310
0000000000000000000000000000000000000000000000000000000000000000
310
0000000000000000000000000000000000000000000000000000000000000000
310
0000000000000000000000000000000000000000000000000000000000000000
310
0000000000000000000000000000000000000000000000000000000000000000
310
0000000000000000000000000000000000000000000000000000000000000000
310
0000000000000000000000000000000000000000000000000000000000000000
310
0000000000000000000000000000000000000000000000000000000000000000
310
0000000000000000000000000000000000000000000000000000000000000000
  1
OLE
  0
ENDSEC
  0
SECTION
  2
OBJECTS
  0
DICTIONARY
  5
C
330
0
100
AcDbDictionary
281
     1
  3
ACAD_GROUP
350
D
  3
ACAD_LAYOUT
350
1A
  3
ACAD_MLINESTYLE
350
17
  3
ACAD_PLOTSETTINGS
350
19
  3
ACAD_PLOTSTYLENAME
350
E
  3
ACAD_SCALELIST
350
47
  0
DICTIONARY
  5
D
102
{ACAD_REACTORS
330
C
102
}
330
C
100
AcDbDictionary
281
     1
  0
DICTIONARY
  5
1A
102
{ACAD_REACTORS
330
C
102
}
330
C
100
AcDbDictionary
281
     1
  3
Layout1
350
1E
  3
Layout2
350
26
  3
Model
350
22
  0
DICTIONARY
  5
17
102
{ACAD_REACTORS
330
C
102
}
330
C
100
AcDbDictionary
281
     1
  3
Standard
350
18
  0
DICTIONARY
  5
19
102
{ACAD_REACTORS
330
C
102
}
330
C
100
AcDbDictionary
281
     1
  0
ACDBDICTIONARYWDFLT
  5
E
102
{ACAD_REACTORS
330
C
102
}
330
C
100
AcDbDictionary
281
     1
  3
Normal
350
F
100
AcDbDictionaryWithDefault
340
F
  0
DICTIONARY
  5
47
102
{ACAD_REACTORS
330
C
102
}
330
C
100
AcDbDictionary
281
     1
  3
A0
350
48
  3
A1
350
49
  3
A2
350
4A
  3
A3
350
4B
  3
A4
350
4C
  3
A5
350
4D
  3
A6
350
4E
  3
A7
350
4F
  3
A8
350
50
  3
A9
350
51
  3
B0
350
52
  3
B1
350
53
  3
B2
350
54
  3
B3
350
55
  3
B4
350
56
  3
B5
350
57
  3
B6
350
58
  3
B7
350
59
  3
B8
350
5A
  3
B9
350
5B
  3
C0
350
5C
  3
C1
350
5D
  3
C2
350
5E
  3
C3
350
5F
  3
C4
350
60
  3
C5
350
61
  3
C6
350
62
  3
C7
350
63
  3
C8
350
64
  3
C9
350
65
  3
D0
350
66
  3
D1
350
67
  3
D2
350
68
  0
LAYOUT
  5
1E
102
{ACAD_REACTORS
330
1A
102
}
330
1A
100
AcDbPlotSettings
  1

  2
none_device
  4

  6

 40
0.0
 41
0.0
 42
0.0
 43
0.0
 44
0.0
 45
0.0
 46
0.0
 47
0.0
 48
0.0
 49
0.0
140
0.0
141
0.0
142
1.0
143
1.0
 70
   688
 72
     1
 73
     0
 74
     5
  7

 75
    16
147
1.0
148
0.0
149
0.0
100
AcDbLayout
  1
Layout1
 70
     1
 71
     1
 10
0.0
 20
0.0
 11
420.0
 21
297.0
 12
0.0
 22
0.0
 32
0.0
 14
1.0000000000E+20
 24
1.0000000000E+20
 34
1.0000000000E+20
 15
-1.0000000000E+20
 25
-1.0000000000E+20
 35
-1.0000000000E+20
146
0.0
 13
0.0
 23
0.0
 33
0.0
 16
1.0
 26
0.0
 36
0.0
 17
0.0
 27
1.0
 37
0.0
 76
     0
330
1B
  0
LAYOUT
  5
26
102
{ACAD_REACTORS
330
1A
102
}
330
1A
100
AcDbPlotSettings
  1

  2
none_device
  4

  6

 40
0.0
 41
0.0
 42
0.0
 43
0.0
 44
0.0
 45
0.0
 46
0.0
 47
0.0
 48
0.0
 49
0.0
140
0.0
141
0.0
142
1.0
143
1.0
 70
   688
 72
     1
 73
     0
 74
     5
  7

 75
    16
147
1.0
148
0.0
149
0.0
100
AcDbLayout
  1
Layout2
 70
     1
 71
     2
 10
0.0
 20
0.0
 11
0.0
 21
0.0
 12
0.0
 22
0.0
 32
0.0
 14
0.0
 24
0.0
 34
0.0
 15
0.0
 25
0.0
 35
0.0
146
0.0
 13
0.0
 23
0.0
 33
0.0
 16
1.0
 26
0.0
 36
0.0
 17
0.0
 27
1.0
 37
0.0
 76
     0
330
23
  0
LAYOUT
  5
22
102
{ACAD_REACTORS
330
1A
102
}
330
1A
100
AcDbPlotSettings
  1

  2
none_device
  4
Letter_(8.50_x_11.00_Inches)
  6

 40
6.35
 41
6.35
 42
6.35000508
 43
6.35000508
 44
215.9
 45
279.4
 46
0.0
 47
0.0
 48
0.0
 49
0.0
140
0.0
141
0.0
142
1.0
143
1.0
 70
  1712
 72
     1
 73
     0
 74
     0
  7

 75
     0
147
1.0
148
0.0
149
0.0
100
AcDbLayout
  1
Model
 70
     1
 71
     0
 10
0.0
 20
0.0
 11
297.0
 21
210.0
 12
0.0
 22
0.0
 32
0.0
 14
0.0
 24
0.0
 34
0.0
 15
297.0
 25
210.0
 35
0.0
146
0.0
 13
0.0
 23
0.0
 33
0.0
 16
1.0
 26
0.0
 36
0.0
 17
0.0
 27
1.0
 37
0.0
 76
     0
330
1F
331
29
  0
MLINESTYLE
  5
18
102
{ACAD_REACTORS
330
17
102
}
330
17
100
AcDbMlineStyle
  2
Standard
 70
     0
  3

 62
   256
 51
90.0
 52
90.0
 71
     2
 49
0.5
 62
   256
  6
BYLAYER
 49
-0.5
 62
   256
  6
BYLAYER
  0
ACDBPLACEHOLDER
  5
F
102
{ACAD_REACTORS
330
E
102
}
330
E
  0
SCALE
  5
48
102
{ACAD_REACTORS
330
47
102
}
330
47
100
AcDbScale
 70
     0
300
1:1
140
1.0
141
1.0
290
     1
  0
SCALE
  5
49
102
{ACAD_REACTORS
330
47
102
}
330
47
100
AcDbScale
 70
     0
300
1:2
140
1.0
141
2.0
290
     0
  0
SCALE
  5
4A
102
{ACAD_REACTORS
330
47
102
}
330
47
100
AcDbScale
 70
     0
300
1:4
140
1.0
141
4.0
290
     0
  0
SCALE
  5
4B
102
{ACAD_REACTORS
330
47
102
}
330
47
100
AcDbScale
 70
     0
300
1:5
140
1.0
141
5.0
290
     0
  0
SCALE
  5
4C
102
{ACAD_REACTORS
330
47
102
}
330
47
100
AcDbScale
 70
     0
300
1:8
140
1.0
141
8.0
290
     0
  0
SCALE
  5
4D
102
{ACAD_REACTORS
330
47
102
}
330
47
100
AcDbScale
 70
     0
300
1:10
140
1.0
141
10.0
290
     0
  0
SCALE
  5
4E
102
{ACAD_REACTORS
330
47
102
}
330
47
100
AcDbScale
 70
     0
300
1:16
140
1.0
141
16.0
290
     0
  0
SCALE
  5
4F
102
{ACAD_REACTORS
330
47
102
}
330
47
100
AcDbScale
 70
     0
300
1:20
140
1.0
141
20.0
290
     0
  0
SCALE
  5
50
102
{ACAD_REACTORS
330
47
102
}
330
47
100
AcDbScale
 70
     0
300
1:30
140
1.0
141
30.0
290
     0
  0
SCALE
  5
51
102
{ACAD_REACTORS
330
47
102
}
330
47
100
AcDbScale
 70
     0
300
1:40
140
1.0
141
40.0
290
     0
  0
SCALE
  5
52
102
{ACAD_REACTORS
330
47
102
}
330
47
100
AcDbScale
 70
     0
300
1:50
140
1.0
141
50.0
290
     0
  0
SCALE
  5
53
102
{ACAD_REACTORS
330
47
102
}
330
47
100
AcDbScale
 70
     0
300
1:100
140
1.0
141
100.0
290
     0
  0
SCALE
  5
54
102
{ACAD_REACTORS
330
47
102
}
330
47
100
AcDbScale
 70
     0
300
2:1
140
2.0
141
1.0
290
     0
  0
SCALE
  5
55
102
{ACAD_REACTORS
330
47
102
}
330
47
100
AcDbScale
 70
     0
300
4:1
140
4.0
141
1.0
290
     0
  0
SCALE
  5
56
102
{ACAD_REACTORS
330
47
102
}
330
47
100
AcDbScale
 70
     0
300
8:1
140
8.0
141
1.0
290
     0
  0
SCALE
  5
57
102
{ACAD_REACTORS
330
47
102
}
330
47
100
AcDbScale
 70
     0
300
10:1
140
10.0
141
1.0
290
     0
  0
SCALE
  5
58
102
{ACAD_REACTORS
330
47
102
}
330
47
100
AcDbScale
 70
     0
300
100:1
140
100.0
141
1.0
290
     0
  0
SCALE
  5
59
102
{ACAD_REACTORS
330
47
102
}
330
47
100
AcDbScale
 70
     0
300
1/128" = 1'-0"
140
0.0078125
141
12.0
290
     0
  0
SCALE
  5
5A
102
{ACAD_REACTORS
330
47
102
}
330
47
100
AcDbScale
 70
     0
300
1/64" = 1'-0"
140
0.015625
141
12.0
290
     0
  0
SCALE
  5
5B
102
{ACAD_REACTORS
330
47
102
}
330
47
100
AcDbScale
 70
     0
300
1/32" = 1'-0"
140
0.03125
141
12.0
290
     0
  0
SCALE
  5
5C
102
{ACAD_REACTORS
330
47
102
}
330
47
100
AcDbScale
 70
     0
300
1/16" = 1'-0"
140
0.0625
141
12.0
290
     0
  0
SCALE
  5
5D
102
{ACAD_REACTORS
330
47
102
}
330
47
100
AcDbScale
 70
     0
300
3/32" = 1'-0"
140
0.09375
141
12.0
290
     0
  0
SCALE
  5
5E
102
{ACAD_REACTORS
330
47
102
}
330
47
100
AcDbScale
 70
     0
300
1/8" = 1'-0"
140
0.125
141
12.0
290
     0
  0
SCALE
  5
5F
102
{ACAD_REACTORS
330
47
102
}
330
47
100
AcDbScale
 70
     0
300
3/16" = 1'-0"
140
0.1875
141
12.0
290
     0
  0
SCALE
  5
60
102
{ACAD_REACTORS
330
47
102
}
330
47
100
AcDbScale
 70
     0
300
1/4" = 1'-0"
140
0.25
141
12.0
290
     0
  0
SCALE
  5
61
102
{ACAD_REACTORS
330
47
102
}
330
47
100
AcDbScale
 70
     0
300
3/8" = 1'-0"
140
0.375
141
12.0
290
     0
  0
SCALE
  5
62
102
{ACAD_REACTORS
330
47
102
}
330
47
100
AcDbScale
 70
     0
300
1/2" = 1'-0"
140
0.5
141
12.0
290
     0
  0
SCALE
  5
63
102
{ACAD_REACTORS
330
47
102
}
330
47
100
AcDbScale
 70
     0
300
3/4" = 1'-0"
140
0.75
141
12.0
290
     0
  0
SCALE
  5
64
102
{ACAD_REACTORS
330
47
102
}
330
47
100
AcDbScale
 70
     0
300
1" = 1'-0"
140
1.0
141
12.0
290
     0
  0
SCALE
  5
65
102
{ACAD_REACTORS
330
47
102
}
330
47
100
AcDbScale
 70
     0
300
1-1/2" = 1'-0"
140
1.5
141
12.0
290
     0
  0
SCALE
  5
66
102
{ACAD_REACTORS
330
47
102
}
330
47
100
AcDbScale
 70
     0
300
3" = 1'-0"
140
3.0
141
12.0
290
     0
  0
SCALE
  5
67
102
{ACAD_REACTORS
330
47
102
}
330
47
100
AcDbScale
 70
     0
300
6" = 1'-0"
140
6.0
141
12.0
290
     0
  0
SCALE
  5
68
102
{ACAD_REACTORS
330
47
102
}
330
47
100
AcDbScale
 70
     0
300
1'-0" = 1'-0"
140
12.0
141
12.0
290
     0
  0
ENDSEC
  0
EOF
