  0
SECTION
  2
HEADER
  9
$ACADVER
  1
AC1015
  9
$ACADMAINTVER
 70
     6
  9
$DWGCODEPAGE
  3
ANSI_1252
  9
$INSBASE
 10
0.0
 20
0.0
 30
0.0
  9
$EXTMIN
 10
0.0
 20
0.0
 30
0.0
  9
$EXTMAX
 10
297.0
 20
210.0
 30
0.0
  9
$LIMMIN
 10
0.0
 20
0.0
  9
$LIMMAX
 10
297.0
 20
210.0
  9
$ORTHOMODE
 70
     0
  9
$REGENMODE
 70
     1
  9
$FILLMODE
 70
     1
  9
$QTEXTMODE
 70
     0
  9
$MIRRTEXT
 70
     1
  9
$LTSCALE
 40
1.0
  9
$ATTMODE
 70
     1
  9
$TEXTSIZE
 40
2.0
  9
$TRACEWID
 40
1.0
  9
$TEXTSTYLE
  7
Standard
  9
$CLAYER
  8
0
  9
$CELTYPE
  6
ByLayer
  9
$CECOLOR
 62
   256
  9
$CELTSCALE
 40
1.0
  9
$DISPSILH
 70
     0
  9
$DIMSCALE
 40
1.0
  9
$DIMASZ
 40
3.0
  9
$DIMEXO
 40
0.0
  9
$DIMDLI
 40
3.75
  9
$DIMRND
 40
0.0
  9
$DIMDLE
 40
0.0
  9
$DIMEXE
 40
1.0
  9
$DIMTP
 40
0.0
  9
$DIMTM
 40
0.0
  9
$DIMTXT
 40
2.0
  9
$DIMCEN
 40
2.5
  9
$DIMTSZ
 40
0.0
  9
$DIMTOL
 70
     0
  9
$DIMLIM
 70
     0
  9
$DIMTIH
 70
     1
  9
$DIMTOH
 70
     1
  9
$DIMSE1
 70
     0
  9
$DIMSE2
 70
     0
  9
$DIMTAD
 70
     1
  9
$DIMZIN
 70
     0
  9
$DIMBLK
  1

  9
$DIMASO
 70
     1
  9
$DIMSHO
 70
     1
  9
$DIMPOST
  1

  9
$DIMAPOST
  1

  9
$DIMALT
 70
     0
  9
$DIMALTD
 70
     3
  9
$DIMALTF
 40
0.0393700787
  9
$DIMLFAC
 40
2.0
  9
$DIMTOFL
 70
     1
  9
$DIMTVP
 40
0.0
  9
$DIMTIX
 70
     0
  9
$DIMSOXD
 70
     0
  9
$DIMSAH
 70
     0
  9
$DIMBLK1
  1

  9
$DIMBLK2
  1

  9
$DIMSTYLE
  2
ISO-25
  9
$DIMCLRD
 70
     0
  9
$DIMCLRE
 70
     0
  9
$DIMCLRT
 70
     0
  9
$DIMTFAC
 40
1.0
  9
$DIMGAP
 40
1.524
  9
$DIMJUST
 70
     0
  9
$DIMSD1
 70
     0
  9
$DIMSD2
 70
     0
  9
$DIMTOLJ
 70
     0
  9
$DIMTZIN
 70
     0
  9
$DIMALTZ
 70
     0
  9
$DIMALTTZ
 70
     0
  9
$DIMUPT
 70
     0
  9
$DIMDEC
 70
     2
  9
$DIMTDEC
 70
     3
  9
$DIMALTU
 70
     2
  9
$DIMALTTD
 70
     3
  9
$DIMTXSTY
  7
Standard
  9
$DIMAUNIT
 70
     0
  9
$DIMADEC
 70
     2
  9
$DIMALTRND
 40
0.0
  9
$DIMAZIN
 70
     0
  9
$DIMDSEP
 70
    44
  9
$DIMATFIT
 70
     3
  9
$DIMFRAC
 70
     0
  9
$DIMLDRBLK
  1

  9
$DIMLUNIT
 70
     2
  9
$DIMLWD
 70
    -2
  9
$DIMLWE
 70
    -2
  9
$DIMTMOVE
 70
     0
  9
$LUNITS
 70
     2
  9
$LUPREC
 70
     2
  9
$SKETCHINC
 40
1.0
  9
$FILLETRAD
 40
10.0
  9
$AUNITS
 70
     0
  9
$AUPREC
 70
     2
  9
$MENU
  1
.
  9
$ELEVATION
 40
0.0
  9
$PELEVATION
 40
0.0
  9
$THICKNESS
 40
0.0
  9
$LIMCHECK
 70
     0
  9
$CHAMFERA
 40
0.0
  9
$CHAMFERB
 40
0.0
  9
$CHAMFERC
 40
0.0
  9
$CHAMFERD
 40
0.0
  9
$SKPOLY
 70
     0
  9
$TDCREATE
 40
2457675.611432396
  9
$TDUCREATE
 40
2457675.528099062
  9
$TDUPDATE
 40
2457675.611433843
  9
$TDUUPDATE
 40
2457675.528100509
  9
$TDINDWG
 40
0.0000000116
  9
$TDUSRTIMER
 40
0.0000000116
  9
$USRTIMER
 70
     1
  9
$ANGBASE
 50
0.0
  9
$ANGDIR
 70
     0
  9
$PDMODE
 70
     0
  9
$PDSIZE
 40
-1.0
  9
$PLINEWID
 40
0.0
  9
$SPLFRAME
 70
     0
  9
$SPLINETYPE
 70
     6
  9
$SPLINESEGS
 70
     8
  9
$HANDSEED
  5
257
  9
$SURFTAB1
 70
     6
  9
$SURFTAB2
 70
     6
  9
$SURFTYPE
 70
     6
  9
$SURFU
 70
     6
  9
$SURFV
 70
     6
  9
$UCSBASE
  2

  9
$UCSNAME
  2

  9
$UCSORG
 10
0.0
 20
0.0
 30
0.0
  9
$UCSXDIR
 10
1.0
 20
0.0
 30
0.0
  9
$UCSYDIR
 10
0.0
 20
1.0
 30
0.0
  9
$UCSORTHOREF
  2

  9
$UCSORTHOVIEW
 70
     0
  9
$UCSORGTOP
 10
0.0
 20
0.0
 30
0.0
  9
$UCSORGBOTTOM
 10
0.0
 20
0.0
 30
0.0
  9
$UCSORGLEFT
 10
0.0
 20
0.0
 30
0.0
  9
$UCSORGRIGHT
 10
0.0
 20
0.0
 30
0.0
  9
$UCSORGFRONT
 10
0.0
 20
0.0
 30
0.0
  9
$UCSORGBACK
 10
0.0
 20
0.0
 30
0.0
  9
$PUCSBASE
  2

  9
$PUCSNAME
  2

  9
$PUCSORG
 10
0.0
 20
0.0
 30
0.0
  9
$PUCSXDIR
 10
1.0
 20
0.0
 30
0.0
  9
$PUCSYDIR
 10
0.0
 20
1.0
 30
0.0
  9
$PUCSORTHOREF
  2

  9
$PUCSORTHOVIEW
 70
     0
  9
$PUCSORGTOP
 10
0.0
 20
0.0
 30
0.0
  9
$PUCSORGBOTTOM
 10
0.0
 20
0.0
 30
0.0
  9
$PUCSORGLEFT
 10
0.0
 20
0.0
 30
0.0
  9
$PUCSORGRIGHT
 10
0.0
 20
0.0
 30
0.0
  9
$PUCSORGFRONT
 10
0.0
 20
0.0
 30
0.0
  9
$PUCSORGBACK
 10
0.0
 20
0.0
 30
0.0
  9
$USERI1
 70
     0
  9
$USERI2
 70
     0
  9
$USERI3
 70
     0
  9
$USERI4
 70
     0
  9
$USERI5
 70
     0
  9
$USERR1
 40
0.0
  9
$USERR2
 40
0.0
  9
$USERR3
 40
0.0
  9
$USERR4
 40
0.0
  9
$USERR5
 40
0.0
  9
$WORLDVIEW
 70
     1
  9
$SHADEDGE
 70
     3
  9
$SHADEDIF
 70
    70
  9
$TILEMODE
 70
     1
  9
$MAXACTVP
 70
    64
  9
$PINSBASE
 10
0.0
 20
0.0
 30
0.0
  9
$PLIMCHECK
 70
     0
  9
$PEXTMIN
 10
1.0000000000E+20
 20
1.0000000000E+20
 30
1.0000000000E+20
  9
$PEXTMAX
 10
-1.0000000000E+20
 20
-1.0000000000E+20
 30
-1.0000000000E+20
  9
$PLIMMIN
 10
0.0
 20
0.0
  9
$PLIMMAX
 10
420.0
 20
297.0
  9
$UNITMODE
 70
     0
  9
$VISRETAIN
 70
     1
  9
$PLINEGEN
 70
     0
  9
$PSLTSCALE
 70
     1
  9
$TREEDEPTH
 70
  3020
  9
$CMLSTYLE
  2
Standard
  9
$CMLJUST
 70
     0
  9
$CMLSCALE
 40
20.0
  9
$PROXYGRAPHICS
 70
     1
  9
$MEASUREMENT
 70
     1
  9
$CELWEIGHT
370
    -1
  9
$ENDCAPS
280
     0
  9
$JOINSTYLE
280
     0
  9
$LWDISPLAY
290
     1
  9
$INSUNITS
 70
     4
  9
$HYPERLINKBASE
  1

  9
$STYLESHEET
  1

  9
$XEDIT
290
     1
  9
$CEPSNTYPE
380
     0
  9
$PSTYLEMODE
290
     1
  9
$FINGERPRINTGUID
  2
{9B73126C-728C-42EC-B12C-D43C43C62819}
  9
$VERSIONGUID
  2
{FAEB1C32-E019-11D5-929B-00C0DF256EC4}
  9
$EXTNAMES
290
     1
  9
$PSVPSCALE
 40
0.0
  9
$OLESTARTUP
290
     0
  0
ENDSEC
  0
SECTION
  2
CLASSES
  0
CLASS
  1
ACDBDICTIONARYWDFLT
  2
AcDbDictionaryWithDefault
  3
ObjectDBX Classes
 90
        0
280
     0
281
     0
  0
CLASS
  1
VISUALSTYLE
  2
AcDbVisualStyle
  3
ObjectDBX Classes
 90
     4095
280
     0
281
     0
  0
CLASS
  1
MATERIAL
  2
AcDbMaterial
  3
ObjectDBX Classes
 90
     1153
280
     0
281
     0
  0
CLASS
  1
SCALE
  2
AcDbScale
  3
ObjectDBX Classes
 90
     1153
280
     0
281
     0
  0
CLASS
  1
TABLESTYLE
  2
AcDbTableStyle
  3
ObjectDBX Classes
 90
     4095
280
     0
281
     0
  0
CLASS
  1
MLEADERSTYLE
  2
AcDbMLeaderStyle
  3
ACDB_MLEADERSTYLE_CLASS
 90
     4095
280
     0
281
     0
  0
CLASS
  1
SUN
  2
AcDbSun
  3
SCENEOE
 90
     1153
280
     0
281
     0
  0
CLASS
  1
ACDBPLACEHOLDER
  2
AcDbPlaceHolder
  3
ObjectDBX Classes
 90
        0
280
     0
281
     0
  0
CLASS
  1
LAYOUT
  2
AcDbLayout
  3
ObjectDBX Classes
 90
        0
280
     0
281
     0
  0
ENDSEC
  0
SECTION
  2
TABLES
  0
TABLE
  2
VPORT
  5
8
330
0
100
AcDbSymbolTable
 70
     1
  0
VPORT
  5
29
330
8
100
AcDbSymbolTableRecord
100
AcDbViewportTableRecord
  2
*Active
 70
     0
 10
0.0
 20
0.0
 11
1.0
 21
1.0
 12
148.5
 22
105.0
 13
0.0
 23
0.0
 14
10.0
 24
10.0
 15
10.0
 25
10.0
 16
0.0
 26
0.0
 36
1.0
 17
0.0
 27
0.0
 37
0.0
 40
210.0
 41
1.4142857143
 42
50.0
 43
0.0
 44
0.0
 50
0.0
 51
0.0
 71
     0
 72
  2000
 73
     1
 74
     3
 75
     0
 76
     0
 77
     0
 78
     0
281
     0
 65
     1
110
0.0
120
0.0
130
0.0
111
1.0
121
0.0
131
0.0
112
0.0
122
1.0
132
0.0
 79
     0
146
0.0
  0
ENDTAB
  0
TABLE
  2
LTYPE
  5
5
330
0
100
AcDbSymbolTable
 70
     6
  0
LTYPE
  5
14
330
5
100
AcDbSymbolTableRecord
100
AcDbLinetypeTableRecord
  2
ByBlock
 70
     0
  3

 72
    65
 73
     0
 40
0.0
  0
LTYPE
  5
15
330
5
100
AcDbSymbolTableRecord
100
AcDbLinetypeTableRecord
  2
ByLayer
 70
     0
  3

 72
    65
 73
     0
 40
0.0
  0
LTYPE
  5
16
330
5
100
AcDbSymbolTableRecord
100
AcDbLinetypeTableRecord
  2
Continuous
 70
     0
  3
Solid line
 72
    65
 73
     0
 40
0.0
  0
LTYPE
  5
6E
330
5
100
AcDbSymbolTableRecord
100
AcDbLinetypeTableRecord
  2
HIDDEN
 70
     0
  3
Hidden __ __ __ __ __ __ __ __ __ __ __ __ __ __
 72
    65
 73
     2
 40
1.905
 49
1.27
 74
     0
 49
-0.635
 74
     0
  0
LTYPE
  5
6F
330
5
100
AcDbSymbolTableRecord
100
AcDbLinetypeTableRecord
  2
PHANTOM
 70
     0
  3
Phantom ______  __  __  ______  __  __  ______
 72
    65
 73
     6
 40
12.7
 49
6.35
 74
     0
 49
-1.27
 74
     0
 49
1.27
 74
     0
 49
-1.27
 74
     0
 49
1.27
 74
     0
 49
-1.27
 74
     0
  0
LTYPE
  5
70
330
5
100
AcDbSymbolTableRecord
100
AcDbLinetypeTableRecord
  2
CENTER
 70
     0
  3
Center ____ _ ____ _ ____ _ ____ _ ____ _ ____
 72
    65
 73
     4
 40
10.16
 49
6.35
 74
     0
 49
-1.27
 74
     0
 49
1.27
 74
     0
 49
-1.27
 74
     0
  0
LTYPE
  5
71
330
5
100
AcDbSymbolTableRecord
100
AcDbLinetypeTableRecord
  2
CENTERX2
 70
     0
  3
Center (2x) ________  __  ________  __  _____
 72
    65
 73
     4
 40
20.32
 49
12.7
 74
     0
 49
-2.54
 74
     0
 49
2.54
 74
     0
 49
-2.54
 74
     0
  0
LTYPE
  5
72
330
5
100
AcDbSymbolTableRecord
100
AcDbLinetypeTableRecord
  2
DOT2
 70
     0
  3
Dot (.5x) ........................................
 72
    65
 73
     2
 40
0.635
 49
0.0
 74
     0
 49
-0.635
 74
     0
  0
ENDTAB
  0
TABLE
  2
LAYER
  5
2
330
0
100
AcDbSymbolTable
 70
     5
  0
LAYER
  5
10
330
2
100
AcDbSymbolTableRecord
100
AcDbLayerTableRecord
  2
0
 70
     0
 62
     7
  6
Continuous
370
    -3
390
F
  0
LAYER
  5
73
330
2
100
AcDbSymbolTableRecord
100
AcDbLayerTableRecord
  2
FORMAT
 70
     0
 62
     7
  6
Continuous
370
    -3
390
F
  0
LAYER
  5
74
330
2
100
AcDbSymbolTableRecord
100
AcDbLayerTableRecord
  2
VERMASSUNG
 70
     0
 62
     7
  6
Continuous
370
    -3
390
F
  0
LAYER
  5
75
330
2
100
AcDbSymbolTableRecord
100
AcDbLayerTableRecord
  2
KOPF_DÜNN
 70
     0
 62
     7
  6
Continuous
370
    -3
390
F
  0
LAYER
  5
76
330
2
100
AcDbSymbolTableRecord
100
AcDbLayerTableRecord
  2
KOPF_DICK
 70
     0
 62
     7
  6
Continuous
370
    15
390
F
  0
ENDTAB
  0
TABLE
  2
STYLE
  5
3
330
0
100
AcDbSymbolTable
 70
     2
  0
STYLE
  5
11
330
3
100
AcDbSymbolTableRecord
100
AcDbTextStyleTableRecord
  2
Standard
 70
     0
 40
0.0
 41
1.0
 50
0.0
 71
     0
 42
2.0
  3
txt
  4

  0
STYLE
  5
77
330
3
100
AcDbSymbolTableRecord
100
AcDbTextStyleTableRecord
  2
SLDTEXTSTYLE0
 70
     0
 40
0.0
 41
0.7
 50
0.0
 71
     0
 42
2.0
  3
TXT
  4

  0
ENDTAB
  0
TABLE
  2
VIEW
  5
6
330
0
100
AcDbSymbolTable
 70
     0
  0
ENDTAB
  0
TABLE
  2
UCS
  5
7
330
0
100
AcDbSymbolTable
 70
     0
  0
ENDTAB
  0
TABLE
  2
APPID
  5
9
330
0
100
AcDbSymbolTable
 70
     1
  0
APPID
  5
12
330
9
100
AcDbSymbolTableRecord
100
AcDbRegAppTableRecord
  2
ACAD
 70
     0
  0
ENDTAB
  0
TABLE
  2
DIMSTYLE
  5
A
330
0
100
AcDbSymbolTable
 70
     2
100
AcDbDimStyleTable
  0
DIMSTYLE
105
27
330
A
100
AcDbSymbolTableRecord
100
AcDbDimStyleTableRecord
  2
ISO-25
 70
     0
 41
2.5
 42
0.625
 43
3.75
 44
1.25
 73
     0
 74
     0
 77
     1
 78
     8
140
2.5
141
2.5
143
0.0393700787
147
0.625
171
     3
172
     1
178
     0
271
     2
272
     2
274
     3
278
    44
283
     0
284
     8
340
11
  0
DIMSTYLE
105
1AB
102
{ACAD_REACTORS
330
1AA
330
1B7
330
1C1
330
1CB
330
1D5
330
1E0
102
}
330
A
100
AcDbSymbolTableRecord
100
AcDbDimStyleTableRecord
  2
SLDDIMSTYLE0
 70
     0
 41
3.0
 44
0.0
 45
0.000000001
 73
     0
 74
     0
 77
     1
 78
    12
 79
     3
140
2.0
147
0.5
173
     1
178
     0
271
     2
272
     3
276
     2
284
    12
340
77
  0
ENDTAB
  0
TABLE
  2
BLOCK_RECORD
  5
1
330
0
100
AcDbSymbolTable
 70
     7
  0
BLOCK_RECORD
  5
1F
330
1
100
AcDbSymbolTableRecord
100
AcDbBlockTableRecord
  2
*Model_Space
340
22
  0
BLOCK_RECORD
  5
1B
330
1
100
AcDbSymbolTableRecord
100
AcDbBlockTableRecord
  2
*Paper_Space
340
1E
  0
BLOCK_RECORD
  5
23
330
1
100
AcDbSymbolTableRecord
100
AcDbBlockTableRecord
  2
*Paper_Space0
340
26
  0
BLOCK_RECORD
  5
1AC
330
1
100
AcDbSymbolTableRecord
100
AcDbBlockTableRecord
  2
_D
340
0
  0
BLOCK_RECORD
  5
1B8
330
1
100
AcDbSymbolTableRecord
100
AcDbBlockTableRecord
  2
_D_1
340
0
  0
BLOCK_RECORD
  5
1C2
330
1
100
AcDbSymbolTableRecord
100
AcDbBlockTableRecord
  2
_D_2
340
0
  0
BLOCK_RECORD
  5
1CC
330
1
100
AcDbSymbolTableRecord
100
AcDbBlockTableRecord
  2
_D_3
340
0
  0
BLOCK_RECORD
  5
1D6
330
1
100
AcDbSymbolTableRecord
100
AcDbBlockTableRecord
  2
_D_4
340
0
  0
BLOCK_RECORD
  5
1E1
330
1
100
AcDbSymbolTableRecord
100
AcDbBlockTableRecord
  2
_D_5
340
0
  0
ENDTAB
  0
ENDSEC
  0
SECTION
  2
BLOCKS
  0
BLOCK
  5
20
330
1F
100
AcDbEntity
  8
0
100
AcDbBlockBegin
  2
*Model_Space
 70
     0
 10
0.0
 20
0.0
 30
0.0
  3
*Model_Space
  1

  0
ENDBLK
  5
21
330
1F
100
AcDbEntity
  8
0
100
AcDbBlockEnd
  0
BLOCK
  5
1C
330
1B
100
AcDbEntity
 67
     1
  8
0
100
AcDbBlockBegin
  2
*Paper_Space
 70
     0
 10
0.0
 20
0.0
 30
0.0
  3
*Paper_Space
  1

  0
ENDBLK
  5
1D
330
1B
100
AcDbEntity
 67
     1
  8
0
100
AcDbBlockEnd
  0
BLOCK
  5
24
330
23
100
AcDbEntity
  8
0
100
AcDbBlockBegin
  2
*Paper_Space0
 70
     0
 10
0.0
 20
0.0
 30
0.0
  3
*Paper_Space0
  1

  0
ENDBLK
  5
25
330
23
100
AcDbEntity
  8
0
100
AcDbBlockEnd
  0
BLOCK
  5
1AD
330
1AC
100
AcDbEntity
  8
0
100
AcDbBlockBegin
  2
_D
 70
     0
 10
0.0
 20
0.0
 30
0.0
  3
_D
  1

  0
SOLID
  5
1AF
330
1AC
100
AcDbEntity
  8
VERMASSUNG
100
AcDbTrace
 10
54.1286566299
 20
85.9727145529
 30
0.0
 11
54.5786566299
 21
88.9727145529
 31
0.0
 12
53.6786566299
 22
88.9727145529
 32
0.0
 13
53.6786566299
 23
88.9727145529
 33
0.0
  0
SOLID
  5
1B0
330
1AC
100
AcDbEntity
  8
VERMASSUNG
100
AcDbTrace
 10
54.1286566299
 20
148.9727145529
 30
0.0
 11
53.6786566299
 21
145.9727145529
 31
0.0
 12
54.5786566299
 22
145.9727145529
 32
0.0
 13
54.5786566299
 23
145.9727145529
 33
0.0
  0
LINE
  5
1B1
330
1AC
100
AcDbEntity
  8
VERMASSUNG
100
AcDbLine
 10
155.5286566299
 20
85.9727145529
 30
0.0
 11
53.1286566299
 21
85.9727145529
 31
0.0
  0
LINE
  5
1B2
330
1AC
100
AcDbEntity
  8
VERMASSUNG
100
AcDbLine
 10
155.5286566299
 20
148.9727145529
 30
0.0
 11
53.1286566299
 21
148.9727145529
 31
0.0
  0
LINE
  5
1B3
330
1AC
100
AcDbEntity
  8
VERMASSUNG
100
AcDbLine
 10
54.1286566299
 20
85.9727145529
 30
0.0
 11
54.1286566299
 21
148.9727145529
 31
0.0
  0
MTEXT
  5
1B4
330
1AC
100
AcDbEntity
  8
VERMASSUNG
100
AcDbMText
 10
51.3505213737
 20
106.6689606909
 30
0.0
 40
2.0
 41
0.0
 71
     1
 72
     1
  1
MAS-BT 40
  7
SLDTEXTSTYLE0
 11
3.391901413832837E-15
 21
1.0
 31
0.0
 73
     1
 44
1.0
  0
MTEXT
  5
1B5
330
1AC
100
AcDbEntity
  8
VERMASSUNG
100
AcDbMText
 10
51.550521325
 20
121.8689609472
 30
0.0
 40
2.0
 41
0.0
 71
     1
 72
     1
  1
%%c
  7
SLDTEXTSTYLE0
 11
3.391901413832837E-15
 21
1.0
 31
0.0
 73
     1
 44
1.0
  0
MTEXT
  5
1B6
330
1AC
100
AcDbEntity
  8
VERMASSUNG
100
AcDbMText
 10
51.550521034
 20
125.4770883943
 30
0.0
 40
2.0
 41
0.0
 71
     1
 72
     1
  1
63
  7
SLDTEXTSTYLE0
 11
3.391901413832837E-15
 21
1.0
 31
0.0
 73
     1
 44
1.0
  0
ENDBLK
  5
1AE
330
1AC
100
AcDbEntity
  8
0
100
AcDbBlockEnd
  0
BLOCK
  5
1B9
330
1B8
100
AcDbEntity
  8
0
100
AcDbBlockBegin
  2
_D_1
 70
     0
 10
0.0
 20
0.0
 30
0.0
  3
_D_1
  1

  0
SOLID
  5
1BB
330
1B8
100
AcDbEntity
  8
VERMASSUNG
100
AcDbTrace
 10
64.1286566299
 20
165.0727145529
 30
0.0
 11
67.1286566299
 21
164.6227145529
 31
0.0
 12
67.1286566299
 22
165.5227145529
 32
0.0
 13
67.1286566299
 23
165.5227145529
 33
0.0
  0
SOLID
  5
1BC
330
1B8
100
AcDbEntity
  8
VERMASSUNG
100
AcDbTrace
 10
236.5286566299
 20
165.0727145529
 30
0.0
 11
233.5286566299
 21
165.5227145529
 31
0.0
 12
233.5286566299
 22
164.6227145529
 32
0.0
 13
233.5286566299
 23
164.6227145529
 33
0.0
  0
LINE
  5
1BD
330
1B8
100
AcDbEntity
  8
VERMASSUNG
100
AcDbLine
 10
64.1286566299
 20
129.2954701499
 30
0.0
 11
64.1286566299
 21
166.0727145529
 31
0.0
  0
LINE
  5
1BE
330
1B8
100
AcDbEntity
  8
VERMASSUNG
100
AcDbLine
 10
236.5286566299
 20
141.9727145529
 30
0.0
 11
236.5286566299
 21
166.0727145529
 31
0.0
  0
LINE
  5
1BF
330
1B8
100
AcDbEntity
  8
VERMASSUNG
100
AcDbLine
 10
64.1286566299
 20
165.0727145529
 30
0.0
 11
236.5286566299
 21
165.0727145529
 31
0.0
  0
MTEXT
  5
1C0
330
1B8
100
AcDbEntity
  8
VERMASSUNG
100
AcDbMText
 10
147.3286566039
 20
167.6508501488
 30
0.0
 40
2.0
 41
0.0
 71
     1
 72
     1
  1
172.4
  7
SLDTEXTSTYLE0
 73
     1
 44
1.0
  0
ENDBLK
  5
1BA
330
1B8
100
AcDbEntity
  8
0
100
AcDbBlockEnd
  0
BLOCK
  5
1C3
330
1C2
100
AcDbEntity
  8
0
100
AcDbBlockBegin
  2
_D_2
 70
     0
 10
0.0
 20
0.0
 30
0.0
  3
_D_2
  1

  0
SOLID
  5
1C5
330
1C2
100
AcDbEntity
  8
VERMASSUNG
100
AcDbTrace
 10
129.5286566299
 20
159.0727145529
 30
0.0
 11
132.5286566299
 21
158.6227145529
 31
0.0
 12
132.5286566299
 22
159.5227145529
 32
0.0
 13
132.5286566299
 23
159.5227145529
 33
0.0
  0
SOLID
  5
1C6
330
1C2
100
AcDbEntity
  8
VERMASSUNG
100
AcDbTrace
 10
236.5286566299
 20
159.0727145529
 30
0.0
 11
233.5286566299
 21
159.5227145529
 31
0.0
 12
233.5286566299
 22
158.6227145529
 32
0.0
 13
233.5286566299
 23
158.6227145529
 33
0.0
  0
LINE
  5
1C7
330
1C2
100
AcDbEntity
  8
VERMASSUNG
100
AcDbLine
 10
129.5286566299
 20
139.6977145529
 30
0.0
 11
129.5286566299
 21
160.0727145529
 31
0.0
  0
LINE
  5
1C8
330
1C2
100
AcDbEntity
  8
VERMASSUNG
100
AcDbLine
 10
236.5286566299
 20
141.9727145529
 30
0.0
 11
236.5286566299
 21
160.0727145529
 31
0.0
  0
LINE
  5
1C9
330
1C2
100
AcDbEntity
  8
VERMASSUNG
100
AcDbLine
 10
129.5286566299
 20
159.0727145529
 30
0.0
 11
236.5286566299
 21
159.0727145529
 31
0.0
  0
MTEXT
  5
1CA
330
1C2
100
AcDbEntity
  8
VERMASSUNG
100
AcDbMText
 10
181.1286565979
 20
161.6508501488
 30
0.0
 40
2.0
 41
0.0
 71
     1
 72
     1
  1
107
  7
SLDTEXTSTYLE0
 73
     1
 44
1.0
  0
ENDBLK
  5
1C4
330
1C2
100
AcDbEntity
  8
0
100
AcDbBlockEnd
  0
BLOCK
  5
1CD
330
1CC
100
AcDbEntity
  8
0
100
AcDbBlockBegin
  2
_D_3
 70
     0
 10
0.0
 20
0.0
 30
0.0
  3
_D_3
  1

  0
SOLID
  5
1CF
330
1CC
100
AcDbEntity
  8
VERMASSUNG
100
AcDbTrace
 10
156.5286566299
 20
153.0727145529
 30
0.0
 11
159.5286566299
 21
152.6227145529
 31
0.0
 12
159.5286566299
 22
153.5227145529
 32
0.0
 13
159.5286566299
 23
153.5227145529
 33
0.0
  0
SOLID
  5
1D0
330
1CC
100
AcDbEntity
  8
VERMASSUNG
100
AcDbTrace
 10
236.5286566299
 20
153.0727145529
 30
0.0
 11
233.5286566299
 21
153.5227145529
 31
0.0
 12
233.5286566299
 22
152.6227145529
 32
0.0
 13
233.5286566299
 23
152.6227145529
 33
0.0
  0
LINE
  5
1D1
330
1CC
100
AcDbEntity
  8
VERMASSUNG
100
AcDbLine
 10
156.5286566299
 20
147.9727145529
 30
0.0
 11
156.5286566299
 21
154.0727145529
 31
0.0
  0
LINE
  5
1D2
330
1CC
100
AcDbEntity
  8
VERMASSUNG
100
AcDbLine
 10
236.5286566299
 20
141.9727145529
 30
0.0
 11
236.5286566299
 21
154.0727145529
 31
0.0
  0
LINE
  5
1D3
330
1CC
100
AcDbEntity
  8
VERMASSUNG
100
AcDbLine
 10
156.5286566299
 20
153.0727145529
 30
0.0
 11
236.5286566299
 21
153.0727145529
 31
0.0
  0
MTEXT
  5
1D4
330
1CC
100
AcDbEntity
  8
VERMASSUNG
100
AcDbMText
 10
195.1286566799
 20
155.6508501488
 30
0.0
 40
2.0
 41
0.0
 71
     1
 72
     1
  1
80
  7
SLDTEXTSTYLE0
 73
     1
 44
1.0
  0
ENDBLK
  5
1CE
330
1CC
100
AcDbEntity
  8
0
100
AcDbBlockEnd
  0
BLOCK
  5
1D7
330
1D6
100
AcDbEntity
  8
0
100
AcDbBlockBegin
  2
_D_4
 70
     0
 10
0.0
 20
0.0
 30
0.0
  3
_D_4
  1

  0
SOLID
  5
1D9
330
1D6
100
AcDbEntity
  8
VERMASSUNG
100
AcDbTrace
 10
249.6655079272
 20
142.4727145529
 30
0.0
 11
249.2155079272
 21
139.4727145529
 31
0.0
 12
250.1155079272
 22
139.4727145529
 32
0.0
 13
250.1155079272
 23
139.4727145529
 33
0.0
  0
SOLID
  5
1DA
330
1D6
100
AcDbEntity
  8
VERMASSUNG
100
AcDbTrace
 10
249.6655079272
 20
92.4727145529
 30
0.0
 11
250.1155079272
 21
95.4727145529
 31
0.0
 12
249.2155079272
 22
95.4727145529
 32
0.0
 13
249.2155079272
 23
95.4727145529
 33
0.0
  0
LINE
  5
1DB
330
1D6
100
AcDbEntity
  8
VERMASSUNG
100
AcDbLine
 10
236.0286566299
 20
142.4727145529
 30
0.0
 11
250.6655079272
 21
142.4727145529
 31
0.0
  0
LINE
  5
1DC
330
1D6
100
AcDbEntity
  8
VERMASSUNG
100
AcDbLine
 10
236.0286566299
 20
92.4727145529
 30
0.0
 11
250.6655079272
 21
92.4727145529
 31
0.0
  0
LINE
  5
1DD
330
1D6
100
AcDbEntity
  8
VERMASSUNG
100
AcDbLine
 10
249.6655079272
 20
142.4727145529
 30
0.0
 11
249.6655079272
 21
92.4727145529
 31
0.0
  0
MTEXT
  5
1DE
330
1D6
100
AcDbEntity
  8
VERMASSUNG
100
AcDbMText
 10
247.0873726223
 20
114.2677145956
 30
0.0
 40
2.0
 41
0.0
 71
     1
 72
     1
  1
%%c
  7
SLDTEXTSTYLE0
 11
-7.044195017643634E-15
 21
1.0
 31
0.0
 73
     1
 44
1.0
  0
MTEXT
  5
1DF
330
1D6
100
AcDbEntity
  8
VERMASSUNG
100
AcDbMText
 10
246.887372671
 20
117.8777146099
 30
0.0
 40
2.0
 41
0.0
 71
     1
 72
     1
  1
50
  7
SLDTEXTSTYLE0
 11
-7.044195017643634E-15
 21
1.0
 31
0.0
 73
     1
 44
1.0
  0
ENDBLK
  5
1D8
330
1D6
100
AcDbEntity
  8
0
100
AcDbBlockEnd
  0
BLOCK
  5
1E2
330
1E1
100
AcDbEntity
  8
0
100
AcDbBlockBegin
  2
_D_5
 70
     0
 10
0.0
 20
0.0
 30
0.0
  3
_D_5
  1

  0
SOLID
  5
1E4
330
1E1
100
AcDbEntity
  8
VERMASSUNG
100
AcDbTrace
 10
243.6655079272
 20
131.4727145529
 30
0.0
 11
243.2155079272
 21
128.4727145529
 31
0.0
 12
244.1155079272
 22
128.4727145529
 32
0.0
 13
244.1155079272
 23
128.4727145529
 33
0.0
  0
SOLID
  5
1E5
330
1E1
100
AcDbEntity
  8
VERMASSUNG
100
AcDbTrace
 10
243.6655079272
 20
103.4727145529
 30
0.0
 11
244.1155079272
 21
106.4727145529
 31
0.0
 12
243.2155079272
 22
106.4727145529
 32
0.0
 13
243.2155079272
 23
106.4727145529
 33
0.0
  0
LINE
  5
1E6
330
1E1
100
AcDbEntity
  8
VERMASSUNG
100
AcDbLine
 10
235.5286566299
 20
131.4727145529
 30
0.0
 11
244.6655079272
 21
131.4727145529
 31
0.0
  0
LINE
  5
1E7
330
1E1
100
AcDbEntity
  8
VERMASSUNG
100
AcDbLine
 10
235.5286566299
 20
103.4727145529
 30
0.0
 11
244.6655079272
 21
103.4727145529
 31
0.0
  0
LINE
  5
1E8
330
1E1
100
AcDbEntity
  8
VERMASSUNG
100
AcDbLine
 10
243.6655079272
 20
131.4727145529
 30
0.0
 11
243.6655079272
 21
103.4727145529
 31
0.0
  0
MTEXT
  5
1E9
330
1E1
100
AcDbEntity
  8
VERMASSUNG
100
AcDbMText
 10
241.0873726223
 20
114.2677145956
 30
0.0
 40
2.0
 41
0.0
 71
     1
 72
     1
  1
%%c
  7
SLDTEXTSTYLE0
 11
-7.044195017643634E-15
 21
1.0
 31
0.0
 73
     1
 44
1.0
  0
MTEXT
  5
1EA
330
1E1
100
AcDbEntity
  8
VERMASSUNG
100
AcDbMText
 10
240.887372671
 20
117.8777146099
 30
0.0
 40
2.0
 41
0.0
 71
     1
 72
     1
  1
28
  7
SLDTEXTSTYLE0
 11
-7.044195017643634E-15
 21
1.0
 31
0.0
 73
     1
 44
1.0
  0
ENDBLK
  5
1E3
330
1E1
100
AcDbEntity
  8
0
100
AcDbBlockEnd
  0
ENDSEC
  0
SECTION
  2
ENTITIES
  0
MTEXT
  5
78
330
1F
100
AcDbEntity
  8
KOPF_DÜNN
100
AcDbMText
 10
13.8892156294
 20
23.8442973028
 30
0.0
 40
3.0
 41
0.0
 71
     1
 72
     1
  1
A34.540.050.107
  7
SLDTEXTSTYLE0
 73
     1
 44
1.0
  0
MTEXT
  5
79
330
1F
100
AcDbEntity
  8
VERMASSUNG
100
AcDbMText
 10
13.9329988022
 20
28.8834360957
 30
0.0
 40
3.0
 41
0.0
 71
     1
 72
     1
  1
Aufnahme_Master shank
  7
SLDTEXTSTYLE0
 73
     1
 44
1.0
  0
MTEXT
  5
7A
330
1F
100
AcDbEntity
  8
VERMASSUNG
100
AcDbMText
 10
98.8601118557
 20
13.8365368761
 30
0.0
 40
2.0
 41
0.0
 71
     1
 72
     1
  1
Datum: 17.11.2011
  7
SLDTEXTSTYLE0
 73
     1
 44
1.0
  0
MTEXT
  5
7B
330
1F
100
AcDbEntity
  8
VERMASSUNG
100
AcDbMText
 10
13.933048693
 20
18.0482802738
 30
0.0
 40
2.0
 41
0.0
 71
     1
 72
     1
  1
MAS-BT A/D
  7
SLDTEXTSTYLE0
 73
     1
 44
1.0
  0
MTEXT
  5
7C
330
1F
100
AcDbEntity
  8
VERMASSUNG
100
AcDbMText
 10
13.9808475933
 20
13.9090974274
 30
0.0
 40
2.0
 41
0.0
 71
     1
 72
     1
  1
Gewicht: 2044g
  7
SLDTEXTSTYLE0
 73
     1
 44
1.0
  0
LINE
  5
7D
330
1F
100
AcDbEntity
  8
0
  6
Continuous
 62
     7
370
    15
100
AcDbLine
 10
153.5286590713
 20
85.9727145529
 30
0.0
 11
155.5286566299
 21
85.9727145529
 31
0.0
  0
LINE
  5
7E
330
1F
100
AcDbEntity
  8
0
  6
Continuous
 62
     7
370
    15
100
AcDbLine
 10
155.5286566299
 20
148.9727145529
 30
0.0
 11
153.5281564599
 21
148.9727145529
 31
0.0
  0
ARC
  5
7F
330
1F
100
AcDbEntity
  8
0
  6
Continuous
 62
     7
370
    15
100
AcDbCircle
 10
155.5286566299
 20
86.9727145529
 30
0.0
 40
1.0
100
AcDbArc
 50
270.0
 51
0.0
  0
ARC
  5
80
330
1F
100
AcDbEntity
  8
0
  6
Continuous
 62
     7
370
    15
100
AcDbCircle
 10
155.5286566299
 20
147.9727145529
 30
0.0
 40
1.0
100
AcDbArc
 50
0.0
 51
90.0
  0
ARC
  5
81
330
1F
100
AcDbEntity
  8
0
  6
Continuous
 62
     7
370
    15
100
AcDbCircle
 10
159.5286566299
 20
89.4727145529
 30
0.0
 40
3.000000000000028
100
AcDbArc
 50
90.0
 51
180.0
  0
ARC
  5
82
330
1F
100
AcDbEntity
  8
0
  6
Continuous
 62
     7
370
    15
100
AcDbCircle
 10
159.5286566299
 20
145.4727145529
 30
0.0
 40
3.000000000000028
100
AcDbArc
 50
180.0
 51
270.0
  0
LINE
  5
83
330
1F
100
AcDbEntity
  8
0
  6
Continuous
 62
     7
370
    15
100
AcDbLine
 10
236.0286566299
 20
92.4727145529
 30
0.0
 11
236.5286566299
 21
92.9727145529
 31
0.0
  0
LINE
  5
84
330
1F
100
AcDbEntity
  8
0
  6
Continuous
 62
     7
370
    15
100
AcDbLine
 10
236.5286566299
 20
141.9727145529
 30
0.0
 11
236.0286566299
 21
142.4727145529
 31
0.0
  0
LINE
  5
85
330
1F
100
AcDbEntity
  8
0
  6
Continuous
 62
     7
370
    15
100
AcDbLine
 10
215.0036796772
 20
142.4727145529
 30
0.0
 11
159.5286566299
 21
142.4727145529
 31
0.0
  0
LINE
  5
86
330
1F
100
AcDbEntity
  8
0
  6
Continuous
 62
     7
370
    15
100
AcDbLine
 10
236.0286566299
 20
142.4727145529
 30
0.0
 11
229.9665181511
 21
142.4727145529
 31
0.0
  0
LINE
  5
87
330
1F
100
AcDbEntity
  8
0
  6
Continuous
 62
     7
370
    15
100
AcDbLine
 10
159.5286566299
 20
92.4727145529
 30
0.0
 11
236.0286566299
 21
92.4727145529
 31
0.0
  0
ARC
  5
88
330
1F
100
AcDbEntity
  8
0
  6
Continuous
 62
     7
370
    15
100
AcDbCircle
 10
130.5286566299
 20
94.2477145529
 30
0.0
 40
1.0
100
AcDbArc
 50
46.4289202303
 51
90.0
  0
ARC
  5
89
330
1F
100
AcDbEntity
  8
0
  6
Continuous
 62
     7
370
    15
100
AcDbCircle
 10
130.5286566299
 20
140.6977145529
 30
0.0
 40
1.000000000000006
100
AcDbArc
 50
270.0
 51
313.5373327693
  0
LINE
  5
8A
330
1F
100
AcDbEntity
  8
0
  6
Continuous
 62
     7
370
    15
100
AcDbLine
 10
129.5286566299
 20
95.2477145529
 30
0.0
 11
130.5286566299
 21
95.2477145529
 31
0.0
  0
LINE
  5
8B
330
1F
100
AcDbEntity
  8
0
  6
Continuous
 62
     7
370
    15
100
AcDbLine
 10
130.5286566299
 20
139.6977145529
 30
0.0
 11
129.5286566299
 21
139.6977145529
 31
0.0
  0
LINE
  5
8C
330
1F
100
AcDbEntity
  8
0
  6
Continuous
 62
     7
370
    15
100
AcDbLine
 10
129.5286566299
 20
139.6977145529
 30
0.0
 11
64.9843497369
 21
130.285003131
 31
0.0
  0
LINE
  5
8D
330
1F
100
AcDbEntity
  8
0
  6
Continuous
 62
     7
370
    15
100
AcDbLine
 10
64.9843497369
 20
104.6604259748
 30
0.0
 11
129.5286566299
 21
95.2477145529
 31
0.0
  0
ARC
  5
8E
330
1F
100
AcDbEntity
  8
0
  6
Continuous
 62
     7
370
    15
100
AcDbCircle
 10
65.1286566299
 20
105.6499589558
 30
0.0
 40
1.00000000000001
100
AcDbArc
 50
180.0
 51
261.7028550302
  0
ARC
  5
8F
330
1F
100
AcDbEntity
  8
0
  6
Continuous
 62
     7
370
    15
100
AcDbCircle
 10
65.1286566299
 20
129.2954701499
 30
0.0
 40
1.0
100
AcDbArc
 50
98.2971449698
 51
180.0
  0
SPLINE
  5
90
330
1F
100
AcDbEntity
  8
0
  6
Continuous
 62
     7
370
    15
100
AcDbSpline
210
0.0
220
0.0
230
1.0
 70
     8
 71
     3
 72
    10
 73
     6
 74
     0
 42
0.000000001
 43
0.00000001
 40
0.0
 40
0.0
 40
0.0
 40
0.0
 40
0.5
 40
0.5
 40
1.0
 40
1.0
 40
1.0
 40
1.0
 10
150.5052650339886
 20
147.3771752742141
 30
0.0
 10
150.1891612028492
 20
146.7573127159369
 30
0.0
 10
149.8593821585044
 20
146.1114119806381
 30
0.0
 10
149.1871588861156
 20
144.7969933403375
 30
0.0
 10
148.845025720185
 20
144.1290711133253
 30
0.0
 10
148.4978453916709
 20
143.4527333808438
 30
0.0
  0
SPLINE
  5
91
330
1F
100
AcDbEntity
  8
0
  6
Continuous
 62
     7
370
    15
100
AcDbSpline
210
0.0
220
0.0
230
1.0
 70
     8
 71
     3
 72
     9
 73
     5
 74
     0
 42
0.000000001
 43
0.00000001
 40
0.0
 40
0.0
 40
0.0
 40
0.0
 40
0.5067583433955531
 40
1.0
 40
1.0
 40
1.0
 40
1.0
 10
151.1542871729277
 20
148.3348496602089
 30
0.0
 10
151.0438872155793
 20
148.1727754005443
 30
0.0
 10
150.8260319818428
 20
147.8529498628361
 30
0.0
 10
150.6114386357688
 20
147.534601317884
 30
0.0
 10
150.505592258255
 20
147.3775785541942
 30
0.0
  0
LINE
  5
92
330
1F
100
AcDbEntity
  8
0
  6
Continuous
 62
     7
370
    15
100
AcDbLine
 10
151.1536566299
 20
86.6116165333
 30
0.0
 11
151.1536566299
 21
148.3337963074
 31
0.0
  0
SPLINE
  5
93
330
1F
100
AcDbEntity
  8
0
  6
Continuous
 62
     7
370
    15
100
AcDbSpline
210
0.0
220
0.0
230
1.0
 70
     8
 71
     3
 72
     9
 73
     5
 74
     0
 42
0.000000001
 43
0.00000001
 40
0.0
 40
0.0
 40
0.0
 40
0.0
 40
0.4932438861071711
 40
0.9999999999999999
 40
0.9999999999999999
 40
0.9999999999999999
 40
0.9999999999999999
 10
150.5055783432322
 20
87.56784845115517
 30
0.0
 10
150.6114248337252
 20
87.4108245392496
 30
0.0
 10
150.826017438873
 20
87.09247510537246
 30
0.0
 10
151.0438714878595
 20
86.77264961763223
 30
0.0
 10
151.1542703591198
 20
86.6105760963411
 30
0.0
  0
SPLINE
  5
94
330
1F
100
AcDbEntity
  8
0
  6
Continuous
 62
     7
370
    15
100
AcDbSpline
210
0.0
220
0.0
230
1.0
 70
     8
 71
     3
 72
    10
 73
     6
 74
     0
 42
0.000000001
 43
0.00000001
 40
0.0
 40
0.0
 40
0.0
 40
0.0
 40
0.5
 40
0.5
 40
1.0
 40
1.0
 40
1.0
 40
1.0
 10
150.5052591143209
 20
87.56826543965491
 30
0.0
 10
150.1890800116468
 20
88.18827559166863
 30
0.0
 10
149.8586377844797
 20
88.83547365753633
 30
0.0
 10
149.186926263797
 20
90.14888958213011
 30
0.0
 10
148.8449523887651
 20
90.8165008484329
 30
0.0
 10
148.4978453916709
 20
91.49269572487607
 30
0.0
  0
SPLINE
  5
95
330
1F
100
AcDbEntity
  8
0
  6
Continuous
 62
     7
370
    15
100
AcDbSpline
210
0.0
220
0.0
230
1.0
 70
     8
 71
     3
 72
    11
 73
     7
 74
     0
 42
0.000000001
 43
0.00000001
 40
0.0
 40
0.0
 40
0.0
 40
0.0
 40
0.2488814606662326
 40
0.5011921284372279
 40
0.7520447562616803
 40
0.9999999999999999
 40
0.9999999999999999
 40
0.9999999999999999
 40
0.9999999999999999
 10
153.5281564599261
 20
148.9725648074535
 30
0.0
 10
153.4983781304386
 20
148.9634327813093
 30
0.0
 10
153.4384111714808
 20
148.9450429036226
 30
0.0
 10
152.9464891096919
 20
148.8010056551369
 30
0.0
 10
152.2184196870614
 20
148.5916025770246
 30
0.0
 10
151.5076762158887
 20
148.419398307675
 30
0.0
 10
151.1543686987521
 20
148.3337963073585
 30
0.0
  0
SPLINE
  5
96
330
1F
100
AcDbEntity
  8
0
  6
Continuous
 62
     7
370
    15
100
AcDbSpline
210
0.0
220
0.0
230
1.0
 70
     8
 71
     3
 72
    24
 73
    20
 74
     0
 42
0.000000001
 43
0.00000001
 40
0.0
 40
0.0
 40
0.0
 40
0.0
 40
0.0452125937745432
 40
0.0902998333923186
 40
0.1353099193833892
 40
0.1802913002820134
 40
0.225292517312021
 40
0.2703620475818443
 40
0.3155481483109035
 40
0.3608987045706354
 40
0.406461082893424
 40
0.4522819928899755
 40
0.4984073587335087
 40
0.5831196400567015
 40
0.6669904077626623
 40
0.750313332028954
 40
0.8333878931341699
 40
0.9165162556642423
 40
0.9999999999999999
 40
0.9999999999999999
 40
0.9999999999999999
 40
0.9999999999999999
 10
151.1542753233608
 20
86.61161653332447
 30
0.0
 10
151.2219790652662
 20
86.59585749230637
 30
0.0
 10
151.3571988370976
 20
86.56438310299228
 30
0.0
 10
151.549860553942
 20
86.51792229965216
 30
0.0
 10
151.7345974255956
 20
86.47229132001927
 30
0.0
 10
151.9107153668902
 20
86.42766602258556
 30
0.0
 10
152.0783991595036
 20
86.38417873598651
 30
0.0
 10
152.2375986437955
 20
86.34197768818872
 30
0.0
 10
152.3883267822762
 20
86.30121109587668
 30
0.0
 10
152.5305797357126
 20
86.26203134327025
 30
0.0
 10
152.6643584907935
 20
86.2245940514642
 30
0.0
 10
152.7896624017176
 20
86.18905746750815
 30
0.0
 10
152.9387666942579
 20
86.14633948267836
 30
0.0
 10
153.0996201577594
 20
86.09980510505613
 30
0.0
 10
153.2556286127815
 20
86.05412041082454
 30
0.0
 10
153.3772819293952
 20
86.0180809158464
 30
0.0
 10
153.4637306175705
 20
85.99220676989417
 30
0.0
 10
153.5180717370143
 20
85.97579374931777
 30
0.0
 10
153.5251231932985
 20
85.9737424171792
 30
0.0
 10
153.5286564417803
 20
85.9727145633754
 30
0.0
  0
LINE
  5
97
330
1F
100
AcDbEntity
  8
0
  6
Continuous
 62
     7
370
    15
100
AcDbLine
 10
156.5286566299
 20
86.9727145529
 30
0.0
 11
156.5286566299
 21
147.9727145529
 31
0.0
  0
LINE
  5
98
330
1F
100
AcDbEntity
  8
0
  6
Continuous
 62
     7
370
    15
100
AcDbLine
 10
131.5286566299
 20
88.3463090074
 30
0.0
 11
131.5286566299
 21
146.5991200983
 31
0.0
  0
SPLINE
  5
99
330
1F
100
AcDbEntity
  8
0
  6
Continuous
 62
     7
370
    15
100
AcDbSpline
210
0.0
220
0.0
230
1.0
 70
     8
 71
     3
 72
    12
 73
     8
 74
     0
 42
0.000000001
 43
0.00000001
 40
0.0
 40
0.0
 40
0.0
 40
0.0
 40
0.2500000000000015
 40
0.2500000000000015
 40
0.500000000000003
 40
0.500000000000003
 40
1.0
 40
1.0
 40
1.0
 40
1.0
 10
131.9156894529087
 20
147.5397044526809
 30
0.0
 10
131.8638287017206
 20
147.4828918803665
 30
0.0
 10
131.8150969047017
 20
147.4208996941147
 30
0.0
 10
131.7249238947842
 20
147.2848466209907
 30
0.0
 10
131.6831466464993
 20
147.209940518392
 30
0.0
 10
131.5770577766534
 20
146.9718138830946
 30
0.0
 10
131.5286566299432
 20
146.7884071515258
 30
0.0
 10
131.5286566299432
 20
146.5991200983439
 30
0.0
  0
SPLINE
  5
9A
330
1F
100
AcDbEntity
  8
0
  6
Continuous
 62
     7
370
    15
100
AcDbSpline
210
0.0
220
0.0
230
1.0
 70
     8
 71
     3
 72
     8
 73
     4
 74
     0
 42
0.000000001
 43
0.00000001
 40
0.0
 40
0.0
 40
0.0
 40
0.0
 40
1.0
 40
1.0
 40
1.0
 40
1.0
 10
132.5286566299432
 20
147.7091046558618
 30
0.0
 10
132.3023123163433
 20
147.7091046558618
 30
0.0
 10
132.0848601959382
 20
147.6457361868409
 30
0.0
 10
131.9156894529087
 20
147.5397044526809
 30
0.0
  0
SPLINE
  5
9B
330
1F
100
AcDbEntity
  8
0
  6
Continuous
 62
     7
370
    15
100
AcDbSpline
210
0.0
220
0.0
230
1.0
 70
     8
 71
     3
 72
     8
 73
     4
 74
     0
 42
0.000000001
 43
0.00000001
 40
0.0
 40
0.0
 40
0.0
 40
0.0
 40
1.0
 40
1.0
 40
1.0
 40
1.0
 10
131.9156894529087
 20
87.40572465303897
 30
0.0
 10
132.0852829585607
 20
87.29942794248177
 30
0.0
 10
132.3016516508939
 20
87.2363244498581
 30
0.0
 10
132.5286566299432
 20
87.2363244498581
 30
0.0
  0
SPLINE
  5
9C
330
1F
100
AcDbEntity
  8
0
  6
Continuous
 62
     7
370
    15
100
AcDbSpline
210
0.0
220
0.0
230
1.0
 70
     8
 71
     3
 72
    12
 73
     8
 74
     0
 42
0.000000001
 43
0.00000001
 40
0.0
 40
0.0
 40
0.0
 40
0.0
 40
0.2500000000000017
 40
0.2500000000000017
 40
0.5000000000000033
 40
0.5000000000000033
 40
1.0
 40
1.0
 40
1.0
 40
1.0
 10
131.9156894529087
 20
87.40572465303897
 30
0.0
 10
131.8638287017206
 20
87.46253722535337
 30
0.0
 10
131.8150969047017
 20
87.52452941160519
 30
0.0
 10
131.7249238947842
 20
87.66058248472918
 30
0.0
 10
131.6831466464993
 20
87.73548858732791
 30
0.0
 10
131.5770577766534
 20
87.9736152226253
 30
0.0
 10
131.5286566299432
 20
88.1570219541941
 30
0.0
 10
131.5286566299432
 20
88.34630900737596
 30
0.0
  0
LINE
  5
9D
330
1F
100
AcDbEntity
  8
0
  6
Continuous
 62
     7
370
    15
100
AcDbLine
 10
141.1036566299
 20
147.7091046559
 30
0.0
 11
132.5286566299
 21
147.7091046559
 31
0.0
  0
LINE
  5
9E
330
1F
100
AcDbEntity
  8
0
  6
Continuous
 62
     7
370
    15
100
AcDbLine
 10
141.1036566299
 20
87.2363244499
 30
0.0
 11
141.1036566299
 21
147.7091046559
 31
0.0
  0
LINE
  5
9F
330
1F
100
AcDbEntity
  8
0
  6
Continuous
 62
     7
370
    15
100
AcDbLine
 10
132.5286566299
 20
87.2363244499
 30
0.0
 11
141.1036566299
 21
87.2363244499
 31
0.0
  0
SPLINE
  5
A0
330
1F
100
AcDbEntity
  8
0
  6
Continuous
 62
     7
370
    15
100
AcDbSpline
210
0.0
220
0.0
230
1.0
 70
     8
 71
     3
 72
     8
 73
     4
 74
     0
 42
0.000000001
 43
0.00000001
 40
0.0
 40
0.0
 40
0.0
 40
0.0
 40
0.0012389803509652
 40
0.0012389803509652
 40
0.0012389803509652
 40
0.0012389803509652
 10
141.6612181734769
 20
146.9267372756464
 30
0.0
 10
141.4760982003441
 20
147.1877872570254
 30
0.0
 10
141.2902197525852
 20
147.4485688701444
 30
0.0
 10
141.1036566299431
 20
147.7091046558618
 30
0.0
  0
SPLINE
  5
A1
330
1F
100
AcDbEntity
  8
0
  6
Continuous
 62
     7
370
    15
100
AcDbSpline
210
0.0
220
0.0
230
1.0
 70
     8
 71
     3
 72
     8
 73
     4
 74
     0
 42
0.000000001
 43
0.00000001
 40
0.0
 40
0.0
 40
0.0
 40
0.0
 40
1.0
 40
1.0
 40
1.0
 40
1.0
 10
143.7594678682154
 20
143.139960217325
 30
0.0
 10
143.0631745021739
 20
144.4038985854398
 30
0.0
 10
142.3633793369828
 20
145.665954030948
 30
0.0
 10
141.6612181734769
 20
146.9267372756464
 30
0.0
  0
SPLINE
  5
A2
330
1F
100
AcDbEntity
  8
0
  6
Continuous
 62
     7
370
    15
100
AcDbSpline
210
0.0
220
0.0
230
1.0
 70
     8
 71
     3
 72
     8
 73
     4
 74
     0
 42
0.000000001
 43
0.00000001
 40
0.0
 40
0.0
 40
0.0
 40
0.0
 40
1.0
 40
1.0
 40
1.0
 40
1.0
 10
143.7594678682154
 20
91.80546888839488
 30
0.0
 10
143.0631497275575
 20
90.5414855484481
 30
0.0
 10
142.363352535447
 20
89.27942695059612
 30
0.0
 10
141.6612181734769
 20
88.01869183007344
 30
0.0
  0
SPLINE
  5
A3
330
1F
100
AcDbEntity
  8
0
  6
Continuous
 62
     7
370
    15
100
AcDbSpline
210
0.0
220
0.0
230
1.0
 70
     8
 71
     3
 72
     8
 73
     4
 74
     0
 42
0.000000001
 43
0.00000001
 40
0.0
 40
0.0
 40
0.0
 40
0.0
 40
0.0012389803509652
 40
0.0012389803509652
 40
0.0012389803509652
 40
0.0012389803509652
 10
141.1036566299432
 20
87.2363244498581
 30
0.0
 10
141.2902197525852
 20
87.49686023557544
 30
0.0
 10
141.4760982003441
 20
87.75764184869445
 30
0.0
 10
141.6612181734769
 20
88.01869183007344
 30
0.0
  0
SPLINE
  5
A4
330
1F
100
AcDbEntity
  8
0
  6
Continuous
 62
     7
370
    15
100
AcDbSpline
210
0.0
220
0.0
230
1.0
 70
     8
 71
     3
 72
    10
 73
     6
 74
     0
 42
0.000000001
 43
0.00000001
 40
0.0
 40
0.0
 40
0.0
 40
0.0
 40
0.5
 40
0.5
 40
1.0
 40
1.0
 40
1.0
 40
1.0
 10
144.452288191243
 20
142.7204372224395
 30
0.0
 10
144.310270878796
 20
142.7204372224395
 30
0.0
 10
144.1698238319337
 20
142.760927074649
 30
0.0
 10
143.9282339126724
 20
142.9088629045881
 30
0.0
 10
143.8275564704192
 20
143.0163631805676
 30
0.0
 10
143.7594678682156
 20
143.1399602173247
 30
0.0
  0
SPLINE
  5
A5
330
1F
100
AcDbEntity
  8
0
  6
Continuous
 62
     7
370
    15
100
AcDbSpline
210
0.0
220
0.0
230
1.0
 70
     8
 71
     3
 72
    10
 73
     6
 74
     0
 42
0.000000001
 43
0.00000001
 40
0.0
 40
0.0
 40
0.0
 40
0.0
 40
0.5
 40
0.5
 40
1.0
 40
1.0
 40
1.0
 40
1.0
 10
144.452288191243
 20
92.22499188328041
 30
0.0
 10
144.3114308267323
 20
92.22499188328041
 30
0.0
 10
144.1685966952582
 20
92.18388797746171
 30
0.0
 10
143.9283350044848
 20
92.03649008416076
 30
0.0
 10
143.8276287354053
 20
91.92919710332112
 30
0.0
 10
143.7594678682154
 20
91.8054688883949
 30
0.0
  0
SPLINE
  5
A6
330
1F
100
AcDbEntity
  8
0
  6
Continuous
 62
     7
370
    15
100
AcDbSpline
210
0.0
220
0.0
230
1.0
 70
     8
 71
     3
 72
    12
 73
     8
 74
     0
 42
0.000000001
 43
0.00000001
 40
0.0
 40
0.0
 40
0.0
 40
0.0
 40
0.25
 40
0.25
 40
0.5
 40
0.5
 40
1.0
 40
1.0
 40
1.0
 40
1.0
 10
148.4978453916709
 20
143.4527333808439
 30
0.0
 10
148.4619412413343
 20
143.3827889466957
 30
0.0
 10
148.4194096892048
 20
143.3195375836379
 30
0.0
 10
148.3226154123649
 20
143.2044789287219
 30
0.0
 10
148.2675257341005
 20
143.1521503950099
 30
0.0
 10
148.0893925005466
 20
143.0183654919248
 30
0.0
 10
147.952015408544
 20
142.9578177247667
 30
0.0
 10
147.8050250686441
 20
142.9386177763828
 30
0.0
  0
SPLINE
  5
A7
330
1F
100
AcDbEntity
  8
0
  6
Continuous
 62
     7
370
    15
100
AcDbSpline
210
0.0
220
0.0
230
1.0
 70
     8
 71
     3
 72
    12
 73
     8
 74
     0
 42
0.000000001
 43
0.00000001
 40
0.0
 40
0.0
 40
0.0
 40
0.0
 40
0.25
 40
0.25
 40
0.5
 40
0.5
 40
1.0
 40
1.0
 40
1.0
 40
1.0
 10
148.4978453916709
 20
91.49269572487604
 30
0.0
 10
148.4619412413343
 20
91.56264015902421
 30
0.0
 10
148.4194096892048
 20
91.62589152208204
 30
0.0
 10
148.3226154123649
 20
91.74095017699798
 30
0.0
 10
148.2675257341005
 20
91.79327871070997
 30
0.0
 10
148.0893925005466
 20
91.92706361379506
 30
0.0
 10
147.952015408544
 20
91.98761138095321
 30
0.0
 10
147.8050250686441
 20
92.00681132933711
 30
0.0
  0
LINE
  5
A8
330
1F
100
AcDbEntity
  8
0
  6
Continuous
 62
     7
370
    15
100
AcDbLine
 10
144.4786566299
 20
92.2249918833
 30
0.0
 11
144.4522881912
 21
92.2249918833
 31
0.0
  0
LINE
  5
A9
330
1F
100
AcDbEntity
  8
0
  6
Continuous
 62
     7
370
    15
100
AcDbLine
 10
144.4786566299
 20
142.7204372224
 30
0.0
 11
144.4522881912
 21
142.7204372224
 31
0.0
  0
SPLINE
  5
AA
330
1F
100
AcDbEntity
  8
0
  6
Continuous
 62
     7
370
    15
100
AcDbSpline
210
0.0
220
0.0
230
1.0
 70
     8
 71
     3
 72
    10
 73
     6
 74
     0
 42
0.000000001
 43
0.00000001
 40
0.0
 40
0.0
 40
0.0
 40
0.0
 40
0.5000000000000001
 40
0.5000000000000001
 40
1.0
 40
1.0
 40
1.0
 40
1.0
 10
147.8050250686433
 20
142.9386177763857
 30
0.0
 10
147.2831103442474
 20
142.8704450258775
 30
0.0
 10
146.744259164138
 20
142.8158217609196
 30
0.0
 10
145.6328965221059
 20
142.7407259080283
 30
0.0
 10
145.0560557449099
 20
142.7204372224395
 30
0.0
 10
144.4786566299432
 20
142.7204372224395
 30
0.0
  0
SPLINE
  5
AB
330
1F
100
AcDbEntity
  8
0
  6
Continuous
 62
     7
370
    15
100
AcDbSpline
210
0.0
220
0.0
230
1.0
 70
     8
 71
     3
 72
    10
 73
     6
 74
     0
 42
0.000000001
 43
0.00000001
 40
0.0
 40
0.0
 40
0.0
 40
0.0
 40
0.5000000000000001
 40
0.5000000000000001
 40
1.0
 40
1.0
 40
1.0
 40
1.0
 10
147.8050250686433
 20
92.00681132933417
 30
0.0
 10
147.2831103442474
 20
92.07498407984237
 30
0.0
 10
146.744259164138
 20
92.1296073448003
 30
0.0
 10
145.6328965221059
 20
92.20470319769164
 30
0.0
 10
145.0560557449099
 20
92.22499188328042
 30
0.0
 10
144.4786566299432
 20
92.22499188328042
 30
0.0
  0
LINE
  5
AC
330
1F
100
AcDbEntity
  8
0
  6
Continuous
 62
     7
370
    15
100
AcDbLine
 10
236.5286566299
 20
117.4727145529
 30
0.0
 11
236.5286566299
 21
92.9727145529
 31
0.0
  0
LINE
  5
AD
330
1F
100
AcDbEntity
  8
0
  6
Continuous
 62
     7
370
    15
100
AcDbLine
 10
236.5286566299
 20
141.9727145529
 30
0.0
 11
236.5286566299
 21
117.4727145529
 31
0.0
  0
LINE
  5
AE
330
1F
100
AcDbEntity
  8
0
  6
Continuous
 62
     7
370
    15
100
AcDbLine
 10
236.0286566299
 20
117.4727145529
 30
0.0
 11
236.0286566299
 21
92.4727145529
 31
0.0
  0
LINE
  5
AF
330
1F
100
AcDbEntity
  8
0
  6
Continuous
 62
     7
370
    15
100
AcDbLine
 10
236.0286566299
 20
142.4727145529
 30
0.0
 11
236.0286566299
 21
117.4727145529
 31
0.0
  0
SPLINE
  5
B0
330
1F
100
AcDbEntity
  8
0
  6
Continuous
 62
     7
370
    15
100
AcDbSpline
210
0.0
220
0.0
230
1.0
 70
     8
 71
     3
 72
    27
 73
    23
 74
     0
 42
0.000000001
 43
0.00000001
 40
0.0
 40
0.0
 40
0.0
 40
0.0
 40
0.0076488152377502
 40
0.0538171996058476
 40
0.0960392788541612
 40
0.1393570464977737
 40
0.1842434188309648
 40
0.2301613845254116
 40
0.2807933172095163
 40
0.3326004826018172
 40
0.3892516297247942
 40
0.4473648538811129
 40
0.5073463659585135
 40
0.5690274121802158
 40
0.6296608243176531
 40
0.6920999341580031
 40
0.751752328916222
 40
0.813422291851424
 40
0.8682682474729301
 40
0.9252615836570437
 40
0.9723202994648227
 40
1.0
 40
1.0
 40
1.0
 40
1.0
 10
229.9665181511215
 20
142.469921584268
 30
0.0
 10
229.9703606799929
 20
142.4708056355202
 30
0.0
 10
229.9973967812496
 20
142.477025835803
 30
0.0
 10
229.8788030883418
 20
142.4496177584295
 30
0.0
 10
229.6138913781737
 20
142.3898773900309
 30
0.0
 10
229.1962129198939
 20
142.2995398081135
 30
0.0
 10
228.639684596023
 20
142.186947937829
 30
0.0
 10
227.9307337527781
 20
142.0563830506148
 30
0.0
 10
227.0754980726835
 20
141.9186752354586
 30
0.0
 10
226.0577664812875
 20
141.7839577928289
 30
0.0
 10
224.9078299940529
 20
141.6707452738713
 30
0.0
 10
223.6398375823566
 20
141.595680808014
 30
0.0
 10
222.3040890718235
 20
141.573420173988
 30
0.0
 10
220.9539476229872
 20
141.6110391756259
 30
0.0
 10
219.6290811406494
 20
141.7057621713807
 30
0.0
 10
218.3993052673956
 20
141.8443502156864
 30
0.0
 10
217.2828831134663
 20
142.0109266120392
 30
0.0
 10
216.3668009749876
 20
142.176188619059
 30
0.0
 10
215.6504764856149
 20
142.3223615602619
 30
0.0
 10
215.2074430153942
 20
142.4201543110243
 30
0.0
 10
214.991048118805
 20
142.4698451520361
 30
0.0
 10
215.0002658500215
 20
142.4677319097391
 30
0.0
 10
215.0036796772362
 20
142.4669492611789
 30
0.0
  0
SPLINE
  5
B1
330
1F
100
AcDbEntity
  8
0
  6
Continuous
 62
     7
370
    15
100
AcDbSpline
210
0.0
220
0.0
230
1.0
 70
    11
 71
     3
 72
    96
 73
    92
 74
     0
 42
0.000000001
 43
0.00000001
 40
0.0
 40
0.0
 40
0.0
 40
0.0
 40
0.0312499999999993
 40
0.0312499999999993
 40
0.0468749999999993
 40
0.0468749999999993
 40
0.0624999999999993
 40
0.0624999999999993
 40
0.0937499999999994
 40
0.0937499999999994
 40
0.1093749999999995
 40
0.1093749999999995
 40
0.1249999999999996
 40
0.1249999999999996
 40
0.1562499999999988
 40
0.1562499999999988
 40
0.1718749999999984
 40
0.1718749999999984
 40
0.187499999999998
 40
0.187499999999998
 40
0.2187499999999972
 40
0.2187499999999972
 40
0.2343749999999971
 40
0.2343749999999971
 40
0.2499999999999972
 40
0.2499999999999972
 40
0.2812499999999971
 40
0.2812499999999971
 40
0.2968749999999974
 40
0.2968749999999974
 40
0.3124999999999977
 40
0.3124999999999977
 40
0.3437499999999983
 40
0.3437499999999983
 40
0.3593749999999986
 40
0.3593749999999986
 40
0.3749999999999989
 40
0.3749999999999989
 40
0.3906249999999992
 40
0.3906249999999992
 40
0.4062499999999994
 40
0.4062499999999994
 40
0.4375000000000001
 40
0.4375000000000001
 40
0.4531250000000003
 40
0.4531250000000003
 40
0.4687500000000006
 40
0.4687500000000006
 40
0.5000000000000006
 40
0.5000000000000006
 40
0.5312500000000004
 40
0.5312500000000004
 40
0.5468750000000009
 40
0.5468750000000009
 40
0.5625000000000012
 40
0.5625000000000012
 40
0.5937500000000011
 40
0.5937500000000011
 40
0.6250000000000009
 40
0.6250000000000009
 40
0.6562500000000007
 40
0.6562500000000007
 40
0.6875000000000004
 40
0.6875000000000004
 40
0.7187500000000003
 40
0.7187500000000003
 40
0.7500000000000001
 40
0.7500000000000001
 40
0.7656250000000004
 40
0.7656250000000004
 40
0.7812500000000007
 40
0.7812500000000007
 40
0.8125000000000007
 40
0.8125000000000007
 40
0.8281250000000007
 40
0.8281250000000007
 40
0.8437500000000007
 40
0.8437500000000007
 40
0.8750000000000004
 40
0.8750000000000004
 40
0.8906250000000004
 40
0.8906250000000004
 40
0.9062500000000003
 40
0.9062500000000003
 40
0.9218750000000003
 40
0.9218750000000003
 40
0.9375000000000002
 40
0.9375000000000002
 40
0.9687500000000001
 40
0.9687500000000001
 40
1.0
 40
1.0
 40
1.0
 40
1.0
 10
217.4773953280236
 20
122.3876850985424
 30
0.0
 10
217.8412183183265
 20
122.6755476761278
 30
0.0
 10
218.2264127747774
 20
122.924813059103
 30
0.0
 10
218.833610706678
 20
123.2465722418171
 30
0.0
 10
219.0409536247404
 20
123.3450561899163
 30
0.0
 10
219.4655346563304
 20
123.5246146436312
 30
0.0
 10
219.6837690285672
 20
123.6059949210825
 30
0.0
 10
220.3460352241767
 20
123.8210750913325
 30
0.0
 10
220.7949013712542
 20
123.9255465025425
 30
0.0
 10
221.4788329834009
 20
124.0265655535631
 30
0.0
 10
221.7085934561699
 20
124.0508938372937
 30
0.0
 10
222.1717434960519
 20
124.0805789224448
 30
0.0
 10
222.4060621962419
 20
124.0858580376533
 30
0.0
 10
223.102405619443
 20
124.0726667024739
 30
0.0
 10
223.560788322816
 20
124.0258973708834
 30
0.0
 10
224.2397570255052
 20
123.8995864420997
 30
0.0
 10
224.4646375087876
 20
123.8480658713554
 30
0.0
 10
224.9114370267395
 20
123.7255945612803
 30
0.0
 10
225.13401316535
 20
123.6543124262974
 30
0.0
 10
225.7845143777518
 20
123.4147500192108
 30
0.0
 10
226.1992655814267
 20
123.2201874110919
 30
0.0
 10
226.7928222435593
 20
122.8748389640209
 30
0.0
 10
226.9858818693539
 20
122.7507459279515
 30
0.0
 10
227.3619558144802
 20
122.4835709323438
 30
0.0
 10
227.5452893752067
 20
122.3400425135091
 30
0.0
 10
228.0673600388372
 20
121.889441101223
 30
0.0
 10
228.3827012121235
 20
121.5598682428611
 30
0.0
 10
228.8040388255683
 20
121.0186266700422
 30
0.0
 10
228.9358087581048
 20
120.8303420914643
 30
0.0
 10
229.180607119685
 20
120.4366440608454
 30
0.0
 10
229.2928175335769
 20
120.2321693017901
 30
0.0
 10
229.5908875069772
 20
119.6092148200545
 30
0.0
 10
229.7418551807756
 20
119.1763372294523
 30
0.0
 10
229.8915534793181
 20
118.4985355273851
 30
0.0
 10
229.9286487253771
 20
118.2659591053151
 30
0.0
 10
229.9739151893666
 20
117.8025133381582
 30
0.0
 10
229.9824314964456
 20
117.5712677835612
 30
0.0
 10
229.9718509913554
 20
117.1097107751749
 30
0.0
 10
229.9527533276566
 20
116.8793993498671
 30
0.0
 10
229.8866657633948
 20
116.4197190728396
 30
0.0
 10
229.8392009793733
 20
116.1890616667069
 30
0.0
 10
229.6585423061088
 20
115.5156945533739
 30
0.0
 10
229.487517218461
 20
115.0869999093443
 30
0.0
 10
229.1595960869753
 20
114.4722196038285
 30
0.0
 10
229.0384615243543
 20
114.2727099135363
 30
0.0
 10
228.7783686915644
 20
113.891396822717
 30
0.0
 10
228.6388280678482
 20
113.7084564966932
 30
0.0
 10
228.1929902328377
 20
113.181582535468
 30
0.0
 10
227.8561971912609
 20
112.8571291707471
 30
0.0
 10
227.1355370360405
 20
112.2836692019109
 30
0.0
 10
226.7507089028946
 20
112.0323615761412
 30
0.0
 10
226.137952371281
 20
111.7058196990153
 30
0.0
 10
225.9272150862023
 20
111.605320753886
 30
0.0
 10
225.5013553385817
 20
111.4245242671539
 30
0.0
 10
225.2853802875926
 20
111.3437178031797
 30
0.0
 10
224.6285561519072
 20
111.129125797565
 30
0.0
 10
224.1788800108046
 20
111.0229305031785
 30
0.0
 10
223.2553663362701
 20
110.8853074071847
 30
0.0
 10
222.7920156487139
 20
110.8556535875908
 30
0.0
 10
221.8694509259145
 20
110.8718593797803
 30
0.0
 10
221.4089561151871
 20
110.9175486685704
 30
0.0
 10
220.4900901359966
 20
111.0878334542002
 30
0.0
 10
220.045001380678
 20
111.209947127498
 30
0.0
 10
219.1826051920572
 20
111.526598560799
 30
0.0
 10
218.7644931049984
 20
111.7215392357549
 30
0.0
 10
217.9613743090296
 20
112.1887217146049
 30
0.0
 10
217.5874996889929
 20
112.4543132136815
 30
0.0
 10
217.0683941428817
 20
112.9017874324188
 30
0.0
 10
216.9023598571598
 20
113.0591852051373
 30
0.0
 10
216.5849998208831
 20
113.3914476285986
 30
0.0
 10
216.4329427890107
 20
113.5672621446943
 30
0.0
 10
216.0059043166977
 20
114.1166887158171
 30
0.0
 10
215.7637897377221
 20
114.5060049409988
 30
0.0
 10
215.4668172838324
 20
115.1262677689713
 30
0.0
 10
215.378943381047
 20
115.3391145111949
 30
0.0
 10
215.2270102107574
 20
115.7779229864411
 30
0.0
 10
215.162991726033
 20
116.0047318923783
 30
0.0
 10
215.0140947387399
 20
116.6847902420145
 30
0.0
 10
214.9692474799696
 20
117.1440659794995
 30
0.0
 10
214.9857908749896
 20
117.8420939785947
 30
0.0
 10
215.0057274742057
 20
118.0774492259083
 30
0.0
 10
215.0729309268256
 20
118.538119103425
 30
0.0
 10
215.120095060278
 20
118.7648997358542
 30
0.0
 10
215.2405710140563
 20
119.2116259718627
 30
0.0
 10
215.3138852825909
 20
119.4315709032521
 30
0.0
 10
215.4865686151072
 20
119.8646770079169
 30
0.0
 10
215.5856501206382
 20
120.0766874513862
 30
0.0
 10
215.9136759506027
 20
120.6883937104295
 30
0.0
 10
216.1748850253434
 20
121.0687691266623
 30
0.0
 10
216.7778649118711
 20
121.7783053201373
 30
0.0
 10
217.1135723377207
 20
122.0998225209569
 30
0.0
 10
217.4773953280236
 20
122.3876850985424
 30
0.0
  0
CIRCLE
  5
B2
330
1F
100
AcDbEntity
  8
0
  6
Continuous
 62
     7
370
    15
100
AcDbCircle
 10
222.4786566299
 20
117.4727145529
 30
0.0
 40
5.5
  0
SPLINE
  5
B3
330
1F
100
AcDbEntity
  8
0
  6
Continuous
 62
     7
370
    15
100
AcDbSpline
210
0.0
220
0.0
230
1.0
 70
    24
 71
     3
 72
    16
 73
    12
 74
     0
 42
0.000000001
 43
0.00000001
 40
0.0
 40
0.0
 40
0.0
 40
0.0
 40
0.5
 40
0.5
 40
0.7500000000000001
 40
0.7500000000000001
 40
0.8750000000000001
 40
0.8750000000000001
 40
0.9375000000000001
 40
0.9375000000000001
 40
1.0
 40
1.0
 40
1.0
 40
1.0
 10
131.5286566299432
 20
139.9727145528599
 30
0.0
 10
131.5286566299432
 20
139.9727145528599
 30
0.0
 10
131.4478564908935
 20
139.9727145528599
 30
0.0
 10
131.3302845154734
 20
139.9727145528599
 30
0.0
 10
131.2913427753781
 20
139.9727145528599
 30
0.0
 10
131.2487675985753
 20
139.9727145528599
 30
0.0
 10
131.2372333756805
 20
139.9727145528599
 30
0.0
 10
131.2254638823102
 20
139.9727145528599
 30
0.0
 10
131.222456619787
 20
139.9727145528599
 30
0.0
 10
131.2184271252595
 20
139.9727145528599
 30
0.0
 10
131.2174053670794
 20
139.9727145528599
 30
0.0
 10
131.2174054956528
 20
139.9727145528599
 30
0.0
  0
SPLINE
  5
B4
330
1F
100
AcDbEntity
  8
0
  6
Continuous
 62
     7
370
    15
100
AcDbSpline
210
0.0
220
0.0
230
1.0
 70
    24
 71
     3
 72
     9
 73
     5
 74
     0
 42
0.000000001
 43
0.00000001
 40
0.0
 40
0.0
 40
0.0
 40
0.0
 40
0.884959784145506
 40
1.0
 40
1.0
 40
1.0
 40
1.0
 10
131.2174065100879
 20
94.97271455285994
 30
0.0
 10
131.2339794582618
 20
94.97271455285994
 30
0.0
 10
131.252706804375
 20
94.97271455285994
 30
0.0
 10
131.3135517107227
 20
94.97271455285994
 30
0.0
 10
131.3205513218827
 20
94.97271455285994
 30
0.0
  0
LINE
  5
B5
330
1F
100
AcDbEntity
  8
0
  6
Continuous
 62
     7
370
    15
100
AcDbLine
 10
129.5286566299
 20
95.2477145529
 30
0.0
 11
129.5286566299
 21
139.6977145529
 31
0.0
  0
LINE
  5
B6
330
1F
100
AcDbEntity
  8
0
  6
Continuous
 62
     7
370
    15
100
AcDbLine
 10
64.1286566299
 20
105.6499589558
 30
0.0
 11
64.1286566299
 21
129.2954700469
 31
0.0
  0
SPLINE
  5
B7
330
1F
100
AcDbEntity
  8
0
  6
Continuous
 62
     7
370
    15
100
AcDbSpline
210
0.0
220
0.0
230
1.0
 70
    24
 71
     3
 72
    11
 73
     7
 74
     0
 42
0.000000001
 43
0.00000001
 40
0.0
 40
0.0
 40
0.0
 40
0.0
 40
0.2164553779443432
 40
0.4403112895790665
 40
0.7519005688038832
 40
1.0
 40
1.0
 40
1.0
 40
1.0
 10
220.7442247525428
 20
114.4740905246335
 30
0.0
 10
220.9815189948077
 20
114.4739021433488
 30
0.0
 10
221.4642204865128
 20
114.4735189400891
 30
0.0
 10
222.3599855335473
 20
114.4728078171864
 30
0.0
 10
223.3208542279276
 20
114.4720450103127
 30
0.0
 10
223.9357524925705
 20
114.4715568597197
 30
0.0
 10
224.2083252760855
 20
114.4713404717844
 30
0.0
  0
SPLINE
  5
B8
330
1F
100
AcDbEntity
  8
0
  6
Continuous
 62
     7
370
    15
100
AcDbSpline
210
0.0
220
0.0
230
1.0
 70
    24
 71
     3
 72
    11
 73
     7
 74
     0
 42
0.000000001
 43
0.00000001
 40
0.0
 40
0.0
 40
0.0
 40
0.0
 40
0.2164553779443479
 40
0.4403112895790612
 40
0.7519005688038761
 40
1.0
 40
1.0
 40
1.0
 40
1.0
 10
224.2083252760855
 20
114.4713404717844
 30
0.0
 10
224.3271355401961
 20
114.6767491231152
 30
0.0
 10
224.5688181498064
 20
115.0945892757467
 30
0.0
 10
225.0173165238227
 20
115.8699890008494
 30
0.0
 10
225.4984114811436
 20
116.7017442964471
 30
0.0
 10
225.8062833642794
 20
117.2340177390743
 30
0.0
 10
225.942757153486
 20
117.4699645000109
 30
0.0
  0
SPLINE
  5
B9
330
1F
100
AcDbEntity
  8
0
  6
Continuous
 62
     7
370
    15
100
AcDbSpline
210
0.0
220
0.0
230
1.0
 70
    24
 71
     3
 72
    11
 73
     7
 74
     0
 42
0.000000001
 43
0.00000001
 40
0.0
 40
0.0
 40
0.0
 40
0.0
 40
0.1849308168246079
 40
0.5198464202157751
 40
0.8714438233692635
 40
1.0
 40
1.0
 40
1.0
 40
1.0
 10
225.942757153486
 20
117.4699645000109
 30
0.0
 10
225.8420819869052
 20
117.644659136615
 30
0.0
 10
225.5590808849243
 20
118.1357313279829
 30
0.0
 10
225.0308052845545
 20
119.0524113511486
 30
0.0
 10
224.5429211532492
 20
119.8990028584489
 30
0.0
 10
224.2827473610728
 20
120.3504644017653
 30
0.0
 10
224.2130885073436
 20
120.4713385810865
 30
0.0
  0
SPLINE
  5
BA
330
1F
100
AcDbEntity
  8
0
  6
Continuous
 62
     7
370
    15
100
AcDbSpline
210
0.0
220
0.0
230
1.0
 70
    24
 71
     3
 72
    11
 73
     7
 74
     0
 42
0.000000001
 43
0.00000001
 40
0.0
 40
0.0
 40
0.0
 40
0.0
 40
0.2164553779443375
 40
0.4403112895790586
 40
0.7519005688038802
 40
1.0
 40
1.0
 40
1.0
 40
1.0
 10
224.2130885073436
 20
120.4713385810865
 30
0.0
 10
223.9757942650787
 20
120.4715269623712
 30
0.0
 10
223.4930927733736
 20
120.4719101656309
 30
0.0
 10
222.597327726339
 20
120.4726212885336
 30
0.0
 10
221.6364590319588
 20
120.4733840954073
 30
0.0
 10
221.0215607673159
 20
120.4738722460003
 30
0.0
 10
220.7489879838008
 20
120.4740886339356
 30
0.0
  0
SPLINE
  5
BB
330
1F
100
AcDbEntity
  8
0
  6
Continuous
 62
     7
370
    15
100
AcDbSpline
210
0.0
220
0.0
230
1.0
 70
    24
 71
     3
 72
    11
 73
     7
 74
     0
 42
0.000000001
 43
0.00000001
 40
0.0
 40
0.0
 40
0.0
 40
0.0
 40
0.1285561766307352
 40
0.4801535797842229
 40
0.8150691831753909
 40
0.9999999999999999
 40
0.9999999999999999
 40
0.9999999999999999
 40
0.9999999999999999
 10
219.0145561064004
 20
117.475464605709
 30
0.0
 10
219.0842149601295
 20
117.3545904263878
 30
0.0
 10
219.3443887523059
 20
116.9031288830715
 30
0.0
 10
219.8322728836112
 20
116.0565373757711
 30
0.0
 10
220.3605484839811
 20
115.1398573526055
 30
0.0
 10
220.6435495859621
 20
114.6487851612376
 30
0.0
 10
220.7442247525428
 20
114.4740905246335
 30
0.0
  0
CIRCLE
  5
BC
330
1F
100
AcDbEntity
  8
0
  6
Continuous
 62
     7
370
    15
100
AcDbCircle
 10
222.4786566299
 20
117.4727145529
 30
0.0
 40
3.60000000000001
  0
SPLINE
  5
BD
330
1F
100
AcDbEntity
  8
0
  6
Continuous
 62
     7
370
    15
100
AcDbSpline
210
0.0
220
0.0
230
1.0
 70
    24
 71
     3
 72
    11
 73
     7
 74
     0
 42
0.000000001
 43
0.00000001
 40
0.0
 40
0.0
 40
0.0
 40
0.0
 40
0.2164553779443464
 40
0.440311289579056
 40
0.7519005688038727
 40
0.9999999999999999
 40
0.9999999999999999
 40
0.9999999999999999
 40
0.9999999999999999
 10
220.7489879838008
 20
120.4740886339356
 30
0.0
 10
220.6301777196902
 20
120.2686799826047
 30
0.0
 10
220.38849511008
 20
119.8508398299733
 30
0.0
 10
219.9399967360637
 20
119.0754401048706
 30
0.0
 10
219.4589017787428
 20
118.2436848092729
 30
0.0
 10
219.151029895607
 20
117.7114113666457
 30
0.0
 10
219.0145561064004
 20
117.475464605709
 30
0.0
  0
CIRCLE
  5
BE
330
1F
100
AcDbEntity
  8
0
  6
Continuous
 62
     7
370
    15
100
AcDbCircle
 10
222.4786566299
 20
117.4727145529
 30
0.0
 40
5.299999999999985
  0
ARC
  5
BF
330
1F
100
AcDbEntity
  8
0
  6
Continuous
 62
     7
370
    15
100
AcDbCircle
 10
222.4786566299
 20
117.4727145529
 30
0.0
 40
3.000000000000027
100
AcDbArc
 50
269.9545144872
 51
329.9545144872
  0
ARC
  5
C0
330
1F
100
AcDbEntity
  8
0
  6
Continuous
 62
     7
370
    15
100
AcDbCircle
 10
222.4786566299
 20
117.4727145529
 30
0.0
 40
3.000000000000025
100
AcDbArc
 50
89.9545144872
 51
149.9545144872
  0
ARC
  5
C1
330
1F
100
AcDbEntity
  8
0
  6
Continuous
 62
     7
370
    15
100
AcDbCircle
 10
222.4786566299
 20
117.4727145529
 30
0.0
 40
2.999999999999996
100
AcDbArc
 50
209.9545144872
 51
269.9545144872
  0
ARC
  5
C2
330
1F
100
AcDbEntity
  8
0
  6
Continuous
 62
     7
370
    15
100
AcDbCircle
 10
222.4786566299
 20
117.4727145529
 30
0.0
 40
2.999999999999967
100
AcDbArc
 50
149.9545144872
 51
209.9545144872
  0
ARC
  5
C3
330
1F
100
AcDbEntity
  8
0
  6
Continuous
 62
     7
370
    15
100
AcDbCircle
 10
222.4786566299
 20
117.4727145529
 30
0.0
 40
3.000000000000057
100
AcDbArc
 50
29.9545144872
 51
89.9545144872
  0
ARC
  5
C4
330
1F
100
AcDbEntity
  8
0
  6
Continuous
 62
     7
370
    15
100
AcDbCircle
 10
222.4786566299
 20
117.4727145529
 30
0.0
 40
3.000000000000057
100
AcDbArc
 50
329.9545144872
 51
29.9545144872
  0
SPLINE
  5
C5
330
1F
100
AcDbEntity
  8
0
  6
HIDDEN
 62
     7
370
     0
100
AcDbSpline
210
0.0
220
0.0
230
1.0
 70
     8
 71
     3
 72
    17
 73
    13
 74
     0
 42
0.000000001
 43
0.00000001
 40
0.0
 40
0.0
 40
0.0
 40
0.0
 40
0.0000967946242774
 40
0.0001175338766653
 40
0.2495393799843792
 40
0.5019982093521933
 40
0.5864147224260519
 40
0.6698736385015485
 40
0.752663930295611
 40
0.8350816048199919
 40
0.9174266885103952
 40
0.9999999999999999
 40
0.9999999999999999
 40
0.9999999999999999
 40
0.9999999999999999
 10
153.5286564417803
 20
85.9727145633754
 30
0.0
 10
153.5286567231031
 20
85.97271455886165
 30
0.0
 10
153.5286570647022
 20
85.97271455338077
 30
0.0
 10
153.5292717279007
 20
85.9727134137166
 30
0.0
 10
153.4251324618482
 20
86.00493007727952
 30
0.0
 10
153.0566458766145
 20
86.11329122931076
 30
0.0
 10
152.690033473599
 20
86.21812190747283
 30
0.0
 10
152.4405019159043
 20
86.28781461223465
 30
0.0
 10
152.1627161292355
 20
86.36295632114833
 30
0.0
 10
151.8560563526409
 20
86.44262131473401
 30
0.0
 10
151.5228695199712
 20
86.52577049617507
 30
0.0
 10
151.2778720778203
 20
86.58308297840718
 30
0.0
 10
151.1552038328208
 20
86.61177887641436
 30
0.0
  0
LWPOLYLINE
  5
C6
330
1F
100
AcDbEntity
  8
0
  6
HIDDEN
 62
     7
370
     0
100
AcDbPolyline
 90
       21
 70
   128
 43
0.0
 10
131.7772276082
 20
108.4850024603
 10
131.9237846911
 20
107.8456260617
 10
132.1540225955
 20
107.2688362797
 10
132.4454040313
 20
106.811093317
 10
132.7694065533
 20
106.517204244
 10
133.0943145374
 20
106.415936971
 10
133.3883237261
 20
106.517204244
 10
133.6226544516
 20
106.811093317
 10
133.7743687899
 20
107.2688362797
 10
133.8286158844
 20
107.8456260617
 10
133.7800856516
 20
108.4850024603
 10
133.6335285688
 20
109.124378859
 10
133.4032906644
 20
109.701168641
 10
133.1119092286
 20
110.1589116037
 10
132.7879067065
 20
110.4528006766
 10
132.4629987225
 20
110.5540679497
 10
132.1689895338
 20
110.4528006766
 10
131.9346588083
 20
110.1589116037
 10
131.78294447
 20
109.701168641
 10
131.7286973755
 20
109.124378859
 10
131.7772276082
 20
108.4850024603
  0
LWPOLYLINE
  5
C7
330
1F
100
AcDbEntity
  8
0
  6
HIDDEN
 62
     7
370
     0
100
AcDbPolyline
 90
       19
 70
   128
 43
0.0
 10
132.1336629026
 20
108.5130116195
 10
132.2659417702
 20
107.9569914175
 10
132.4771700196
 20
107.4680354579
 10
132.7418704064
 20
107.1051190456
 10
133.0281161573
 20
106.9120152559
 10
133.3013818104
 20
106.9120152559
 10
133.5287074948
 20
107.1051190456
 10
133.6826743781
 20
107.4680354579
 10
133.7447117818
 20
107.9569914175
 10
133.7073370795
 20
108.5130116195
 10
133.5750582118
 20
109.0690318214
 10
133.3638299625
 20
109.557987781
 10
133.0991295757
 20
109.9209041934
 10
132.8128838247
 20
110.114007983
 10
132.5396181717
 20
110.114007983
 10
132.3122924872
 20
109.9209041934
 10
132.1583256039
 20
109.557987781
 10
132.0962882002
 20
109.0690318214
 10
132.1336629026
 20
108.5130116195
  0
SPLINE
  5
C8
330
1F
100
AcDbEntity
  8
0
  6
HIDDEN
 62
     7
370
     0
100
AcDbSpline
210
0.0
220
0.0
230
1.0
 70
     8
 71
     3
 72
    12
 73
     8
 74
     0
 42
0.000000001
 43
0.00000001
 40
0.0
 40
0.0
 40
0.0
 40
0.0
 40
0.4999999999999987
 40
0.4999999999999987
 40
0.7499999999999993
 40
0.7499999999999993
 40
1.0
 40
1.0
 40
1.0
 40
1.0
 10
144.1197382426218
 20
110.6941452296536
 30
0.0
 10
144.1928386030972
 20
110.4994102618924
 30
0.0
 10
144.2287423524294
 20
110.2918320868635
 30
0.0
 10
144.2287944704796
 20
109.996070436792
 30
0.0
 10
144.2197576603893
 20
109.8983744442181
 30
0.0
 10
144.1837051872736
 20
109.7145065353894
 30
0.0
 10
144.1567575461708
 20
109.6272168287824
 30
0.0
 10
144.1197382426218
 20
109.5444177130625
 30
0.0
  0
SPLINE
  5
C9
330
1F
100
AcDbEntity
  8
0
  6
HIDDEN
 62
     7
370
     0
100
AcDbSpline
210
0.0
220
0.0
230
1.0
 70
     8
 71
     3
 72
    50
 73
    46
 74
     0
 42
0.000000001
 43
0.00000001
 40
0.0
 40
0.0
 40
0.0
 40
0.0
 40
0.0625000000000006
 40
0.0625000000000006
 40
0.1250000000000013
 40
0.1250000000000013
 40
0.1875000000000019
 40
0.1875000000000019
 40
0.2500000000000026
 40
0.2500000000000026
 40
0.2812500000000033
 40
0.2812500000000033
 40
0.3125000000000041
 40
0.3125000000000041
 40
0.3750000000000048
 40
0.3750000000000048
 40
0.4062500000000049
 40
0.4062500000000049
 40
0.4375000000000051
 40
0.4375000000000051
 40
0.4687500000000051
 40
0.4687500000000051
 40
0.5000000000000052
 40
0.5000000000000052
 40
0.5312500000000053
 40
0.5312500000000053
 40
0.5625000000000054
 40
0.5625000000000054
 40
0.5937500000000056
 40
0.5937500000000056
 40
0.6250000000000056
 40
0.6250000000000056
 40
0.687500000000006
 40
0.687500000000006
 40
0.7187500000000058
 40
0.7187500000000058
 40
0.7500000000000056
 40
0.7500000000000056
 40
0.8125000000000042
 40
0.8125000000000042
 40
0.8750000000000028
 40
0.8750000000000028
 40
0.9375000000000014
 40
0.9375000000000014
 40
1.0
 40
1.0
 40
1.0
 40
1.0
 10
144.1197382426218
 20
109.5444177130625
 30
0.0
 10
144.1749245379663
 20
109.4135928471242
 30
0.0
 10
144.2440811662473
 20
109.3276759202371
 30
0.0
 10
144.3916196145536
 20
109.2043784131307
 30
0.0
 10
144.4679045357767
 20
109.170353562959
 30
0.0
 10
144.6126966629381
 20
109.1410011403596
 30
0.0
 10
144.6825516560176
 20
109.1460083308528
 30
0.0
 10
144.7911779297114
 20
109.196630849652
 30
0.0
 10
144.8310811594134
 20
109.2424342525735
 30
0.0
 10
144.8288261359108
 20
109.3561456030986
 30
0.0
 10
144.8169347086432
 20
109.4027223381912
 30
0.0
 10
144.769600419595
 20
109.5106928257362
 30
0.0
 10
144.734010392761
 20
109.5730439663388
 30
0.0
 10
144.6028066428948
 20
109.7837181682383
 30
0.0
 10
144.4885670470397
 20
109.9508916799924
 30
0.0
 10
144.3352300372123
 20
110.2256306674208
 30
0.0
 10
144.285795675864
 20
110.322926406288
 30
0.0
 10
144.1980303409938
 20
110.5221462178759
 30
0.0
 10
144.1595502168968
 20
110.6239782502635
 30
0.0
 10
144.0957145589634
 20
110.8329217567911
 30
0.0
 10
144.0705608839744
 20
110.9401201028613
 30
0.0
 10
144.0372484917798
 20
111.1504600693941
 30
0.0
 10
144.0286398378258
 20
111.2548341469397
 30
0.0
 10
144.028673470923
 20
111.4620165571282
 30
0.0
 10
144.037373078132
 20
111.561709075491
 30
0.0
 10
144.0708580143655
 20
111.7515918183294
 30
0.0
 10
144.0960719627458
 20
111.8430475991086
 30
0.0
 10
144.160071995736
 20
112.0108903348073
 30
0.0
 10
144.1986391478872
 20
112.0874277402228
 30
0.0
 10
144.2865887092448
 20
112.2256708628329
 30
0.0
 10
144.3360247100005
 20
112.287026008786
 30
0.0
 10
144.4893055011118
 20
112.4401685942268
 30
0.0
 10
144.6036190050374
 20
112.5049745457375
 30
0.0
 10
144.7340655715601
 20
112.5258269073834
 30
0.0
 10
144.7700904813526
 20
112.5198576522257
 30
0.0
 10
144.8172187743975
 20
112.4849045823908
 30
0.0
 10
144.8289554801563
 20
112.4554462120409
 30
0.0
 10
144.8308577089925
 20
112.3447352714625
 30
0.0
 10
144.7907343155445
 20
112.2413953669194
 30
0.0
 10
144.682462038103
 20
112.0109655519131
 30
0.0
 10
144.6130895621963
 20
111.8808530439992
 30
0.0
 10
144.4675839542837
 20
111.5941676186804
 30
0.0
 10
144.3916847065726
 20
111.4391381951329
 30
0.0
 10
144.2452579835285
 20
111.0932127030577
 30
0.0
 10
144.1747274017933
 20
110.9031597453274
 30
0.0
 10
144.1197382426218
 20
110.6941452296536
 30
0.0
  0
LINE
  5
CA
330
1F
100
AcDbEntity
  8
0
  6
HIDDEN
 62
     7
370
     0
100
AcDbLine
 10
217.477395328
 20
141.9848152029
 30
0.0
 11
217.9635261002
 21
141.9155585821
 31
0.0
  0
SPLINE
  5
CB
330
1F
100
AcDbEntity
  8
0
  6
HIDDEN
 62
     7
370
     0
100
AcDbSpline
210
0.0
220
0.0
230
1.0
 70
     8
 71
     3
 72
    11
 73
     7
 74
     0
 42
0.000000001
 43
0.00000001
 40
0.0
 40
0.0
 40
0.0
 40
0.0
 40
0.1762085361286677
 40
0.531382701559454
 40
0.8965307209881621
 40
1.0
 40
1.0
 40
1.0
 40
1.0
 10
215.0036796772362
 20
142.4669492611789
 30
0.0
 10
214.9974985334251
 20
142.4683622005872
 30
0.0
 10
214.9788583871007
 20
142.4726231267397
 30
0.0
 10
215.1401016793663
 20
142.4358993915464
 30
0.0
 10
215.3446817713034
 20
142.3889942486931
 30
0.0
 10
215.5421336410258
 20
142.3474687213382
 30
0.0
 10
215.5857304153397
 20
142.3383000107713
 30
0.0
  0
LINE
  5
CC
330
1F
100
AcDbEntity
  8
0
  6
HIDDEN
 62
     7
370
     0
100
AcDbLine
 10
217.3944715992
 20
141.9991984251
 30
0.0
 11
217.4773952268
 21
141.9848149145
 31
0.0
  0
SPLINE
  5
CD
330
1F
100
AcDbEntity
  8
0
  6
HIDDEN
 62
     7
370
     0
100
AcDbSpline
210
0.0
220
0.0
230
1.0
 70
    11
 71
     3
 72
    62
 73
    58
 74
     0
 42
0.000000001
 43
0.00000001
 40
0.0
 40
0.0
 40
0.0
 40
0.0
 40
0.0312500000000004
 40
0.0312500000000004
 40
0.0625000000000007
 40
0.0625000000000007
 40
0.1250000000000011
 40
0.1250000000000011
 40
0.1875000000000014
 40
0.1875000000000014
 40
0.2187500000000016
 40
0.2187500000000016
 40
0.2500000000000017
 40
0.2500000000000017
 40
0.2812500000000018
 40
0.2812500000000018
 40
0.312500000000002
 40
0.312500000000002
 40
0.3437500000000021
 40
0.3437500000000021
 40
0.3750000000000023
 40
0.3750000000000023
 40
0.4375000000000023
 40
0.4375000000000023
 40
0.4687500000000021
 40
0.4687500000000021
 40
0.5000000000000019
 40
0.5000000000000019
 40
0.5312500000000017
 40
0.5312500000000017
 40
0.5625000000000014
 40
0.5625000000000014
 40
0.5937500000000013
 40
0.5937500000000013
 40
0.6250000000000011
 40
0.6250000000000011
 40
0.6562500000000009
 40
0.6562500000000009
 40
0.6875000000000007
 40
0.6875000000000007
 40
0.7187500000000006
 40
0.7187500000000006
 40
0.7500000000000003
 40
0.7500000000000003
 40
0.7812500000000001
 40
0.7812500000000001
 40
0.8125
 40
0.8125
 40
0.875
 40
0.875
 40
0.90625
 40
0.90625
 40
0.9375
 40
0.9375
 40
0.9687500000000001
 40
0.9687500000000001
 40
1.0
 40
1.0
 40
1.0
 40
1.0
 10
146.1286566299432
 20
114.2356199176322
 30
0.0
 10
145.9874584059633
 20
114.2356199176322
 30
0.0
 10
145.8491805289495
 20
114.2460878540158
 30
0.0
 10
145.5780144577417
 20
114.2871113349511
 30
0.0
 10
145.4438111302821
 20
114.3182377883668
 30
0.0
 10
145.0647479504919
 20
114.4396117762786
 30
0.0
 10
144.8357410287982
 20
114.5597665502867
 30
0.0
 10
144.4547104097954
 20
114.8685454493096
 30
0.0
 10
144.2990873328737
 20
115.0607146174734
 30
0.0
 10
144.1400168563052
 20
115.3906989293116
 30
0.0
 10
144.0982897111618
 20
115.5101982926238
 30
0.0
 10
144.0430190100197
 20
115.7567826917794
 30
0.0
 10
144.0289390785299
 20
115.8839546222166
 30
0.0
 10
144.0283825122087
 20
116.1464438149128
 30
0.0
 10
144.0423717896293
 20
116.2815861836098
 30
0.0
 10
144.096853308865
 20
116.5460712769696
 30
0.0
 10
144.1377037670199
 20
116.6782211812155
 30
0.0
 10
144.2443177338793
 20
116.9349169321374
 30
0.0
 10
144.3090698761523
 20
117.0576548165913
 30
0.0
 10
144.460628418105
 20
117.2920255653496
 30
0.0
 10
144.547966541278
 20
117.4038430663631
 30
0.0
 10
144.8337429622395
 20
117.7090265314914
 30
0.0
 10
145.0632793107053
 20
117.8798408506713
 30
0.0
 10
145.4395974466996
 20
118.0563512136453
 30
0.0
 10
145.5719303550603
 20
118.102836020839
 30
0.0
 10
145.8459630140511
 20
118.1659397335792
 30
0.0
 10
145.9839881736732
 20
118.1818974233234
 30
0.0
 10
146.262059554892
 20
118.1827432921851
 30
0.0
 10
146.4037724935623
 20
118.1670186172121
 30
0.0
 10
146.6761947492427
 20
118.1055781747129
 30
0.0
 10
146.8080228937397
 20
118.0602565310265
 30
0.0
 10
147.0634217893443
 20
117.9417087280254
 30
0.0
 10
147.1835877925336
 20
117.8700216448091
 30
0.0
 10
147.40875920509
 20
117.7052930788107
 30
0.0
 10
147.5149102664243
 20
117.6110338057759
 30
0.0
 10
147.7063575551265
 20
117.4074691316321
 30
0.0
 10
147.792291569046
 20
117.298001841393
 30
0.0
 10
147.9447038870861
 20
117.063904238909
 30
0.0
 10
148.0108873773735
 20
116.9390100160111
 30
0.0
 10
148.1170690759246
 20
116.6852782644764
 30
0.0
 10
148.1580491391404
 20
116.5551085796927
 30
0.0
 10
148.2141292799378
 20
116.2880448845638
 30
0.0
 10
148.2283534553791
 20
116.1540916545486
 30
0.0
 10
148.2289501392505
 20
115.8926349120805
 30
0.0
 10
148.2151815717521
 20
115.7625175426931
 30
0.0
 10
148.16033150481
 20
115.5143266872092
 30
0.0
 10
148.1198349915336
 20
115.3969711961285
 30
0.0
 10
147.9603725203574
 20
115.0632220743888
 30
0.0
 10
147.8057040960432
 20
114.8713825024628
 30
0.0
 10
147.5173960646986
 20
114.6372599344931
 30
0.0
 10
147.4133712493508
 20
114.5691035251299
 30
0.0
 10
147.188951991172
 20
114.4503925859058
 30
0.0
 10
147.0670212033115
 20
114.3994706495375
 30
0.0
 10
146.8145640518855
 20
114.3185208147158
 30
0.0
 10
146.6836775219683
 20
114.2879854957168
 30
0.0
 10
146.4117366042555
 20
114.2464274669724
 30
0.0
 10
146.269854853923
 20
114.2356199176322
 30
0.0
 10
146.1286566299432
 20
114.2356199176322
 30
0.0
  0
LWPOLYLINE
  5
CE
330
1F
100
AcDbEntity
  8
0
  6
HIDDEN
 62
     7
370
     0
100
AcDbPolyline
 90
       19
 70
   128
 43
0.0
 10
144.1197382426
 20
109.5444177131
 10
144.4095888167
 20
108.9858680884
 10
144.8699116952
 20
108.5397140247
 10
145.455058707
 20
108.2501986349
 10
146.1070034269
 20
108.1460318718
 10
146.7610953986
 20
108.2375434896
 10
147.3524712323
 20
108.5156586885
 10
147.8224868183
 20
108.952798022
 10
148.1245328029
 20
109.5056123277
 10
148.2286566299
 20
110.1192814714
 10
148.1245328029
 20
110.732950615
 10
147.8224868183
 20
111.2857649207
 10
147.3524712323
 20
111.7229042542
 10
146.7610953986
 20
112.0010194531
 10
146.1070034269
 20
112.0925310709
 10
145.455058707
 20
111.9883643078
 10
144.8699116952
 20
111.698848918
 10
144.4095888167
 20
111.2526948543
 10
144.1197382426
 20
110.6941452297
  0
LINE
  5
CF
330
1F
100
AcDbEntity
  8
0
  6
HIDDEN
 62
     7
370
     0
100
AcDbLine
 10
208.0286566299
 20
117.4727145529
 30
0.0
 11
208.0286566299
 21
103.9727145529
 31
0.0
  0
LINE
  5
D0
330
1F
100
AcDbEntity
  8
0
  6
HIDDEN
 62
     7
370
     0
100
AcDbLine
 10
208.0286566299
 20
130.9727145529
 30
0.0
 11
208.0286566299
 21
117.4727145529
 31
0.0
  0
LINE
  5
D1
330
1F
100
AcDbEntity
  8
0
  6
HIDDEN
 62
     7
370
     0
100
AcDbLine
 10
212.8946820337
 20
117.4727145529
 30
0.0
 11
212.8946820337
 21
103.4727145529
 31
0.0
  0
LINE
  5
D2
330
1F
100
AcDbEntity
  8
0
  6
HIDDEN
 62
     7
370
     0
100
AcDbLine
 10
212.8946820337
 20
131.4727145529
 30
0.0
 11
212.8946820337
 21
117.4727145529
 31
0.0
  0
SPLINE
  5
D3
330
1F
100
AcDbEntity
  8
0
  6
HIDDEN
 62
     7
370
     0
100
AcDbSpline
210
0.0
220
0.0
230
1.0
 70
     8
 71
     3
 72
    23
 73
    19
 74
     0
 42
0.000000001
 43
0.00000001
 40
0.0
 40
0.0
 40
0.0
 40
0.0
 40
0.0498866253041101
 40
0.1514632799743454
 40
0.2032650306614323
 40
0.2531468784644711
 40
0.3544795286300124
 40
0.4060131752456806
 40
0.4583830516485916
 40
0.564771521270908
 40
0.6189085536548881
 40
0.6731086015365634
 40
0.7277068292508851
 40
0.7836053861930915
 40
0.8399747541766354
 40
0.8915917666744407
 40
0.9967733547052359
 40
1.0
 40
1.0
 40
1.0
 40
1.0
 10
222.4786566299432
 20
130.3471077424437
 30
0.0
 10
222.6237292068168
 20
130.348587702513
 30
0.0
 10
223.0641913185283
 20
130.353081083353
 30
0.0
 10
223.6498125693759
 20
130.3949782537264
 30
0.0
 10
224.2145824645641
 20
130.4613786321692
 30
0.0
 10
224.7620403539852
 20
130.5433260858935
 30
0.0
 10
225.2799309731774
 20
130.6445358136872
 30
0.0
 10
225.764212035045
 20
130.7582353173322
 30
0.0
 10
226.2307823541186
 20
130.8795394500552
 30
0.0
 10
226.6540547111963
 20
131.0051560709583
 30
0.0
 10
227.0217411888557
 20
131.12442584376
 30
0.0
 10
227.2690344415405
 20
131.2088758853785
 30
0.0
 10
227.4848147594589
 20
131.2857597307852
 30
0.0
 10
227.6660851380753
 20
131.3526195662008
 30
0.0
 10
227.8061511012893
 20
131.4057130287498
 30
0.0
 10
227.9336758794024
 20
131.4549471166684
 30
0.0
 10
227.9902141215628
 20
131.4772496209345
 30
0.0
 10
227.977896280082
 20
131.4724162370386
 30
0.0
 10
227.9775296538209
 20
131.4722723769744
 30
0.0
  0
LINE
  5
D4
330
1F
100
AcDbEntity
  8
0
  6
HIDDEN
 62
     7
370
     0
100
AcDbLine
 10
222.9664805535
 20
130.3580265863
 30
0.0
 11
222.1227020759
 21
130.3523591874
 31
0.0
  0
SPLINE
  5
D5
330
1F
100
AcDbEntity
  8
0
  6
HIDDEN
 62
     7
370
     0
100
AcDbSpline
210
0.0
220
0.0
230
1.0
 70
     8
 71
     3
 72
    27
 73
    23
 74
     0
 42
0.000000001
 43
0.00000001
 40
0.0
 40
0.0
 40
0.0
 40
0.0
 40
0.037926251972344
 40
0.1230062369899019
 40
0.1664836803451716
 40
0.2056199009430995
 40
0.2853061508388107
 40
0.3259560603995413
 40
0.3640527601538147
 40
0.4414549820979503
 40
0.4808271995970058
 40
0.5206198306294476
 40
0.6014218200295028
 40
0.6425053503776754
 40
0.6845812888552801
 40
0.7269480515166539
 40
0.77025296681927
 40
0.8138952235046314
 40
0.8522514988963097
 40
0.9302281848915378
 40
0.9699589709040912
 40
1.0
 40
1.0
 40
1.0
 40
1.0
 10
217.5151052763977
 20
131.2708770764283
 30
0.0
 10
217.4573126862607
 20
131.2918460888286
 30
0.0
 10
217.2698739421462
 20
131.3598548999983
 30
0.0
 10
217.101369149746
 20
131.4248635408944
 30
0.0
 10
217.0059477093066
 20
131.4619781278731
 30
0.0
 10
216.9647936053215
 20
131.4781797660767
 30
0.0
 10
216.9961997870556
 20
131.465746422069
 30
0.0
 10
217.098911381465
 20
131.4258179935831
 30
0.0
 10
217.2449467046044
 20
131.3699266870972
 30
0.0
 10
217.4537307129637
 20
131.2920986741217
 30
0.0
 10
217.7242875829754
 20
131.1964114557261
 30
0.0
 10
218.0400363091605
 20
131.089204481505
 30
0.0
 10
218.4173032831752
 20
130.9699313799039
 30
0.0
 10
218.8511553372014
 20
130.8470386351728
 30
0.0
 10
219.2086516067343
 20
130.7542589288294
 30
0.0
 10
219.5964661544826
 20
130.6638462633879
 30
0.0
 10
220.0113903982788
 20
130.5791295825385
 30
0.0
 10
220.4329466162647
 20
130.5064096163862
 30
0.0
 10
220.9907216691501
 20
130.4277629511257
 30
0.0
 10
221.5588848083675
 20
130.3745590498279
 30
0.0
 10
222.1066593463567
 20
130.3499817798867
 30
0.0
 10
222.3666952755814
 20
130.3479727517833
 30
0.0
 10
222.4786566299432
 20
130.3471077424437
 30
0.0
  0
LINE
  5
D6
330
1F
100
AcDbEntity
  8
0
  6
HIDDEN
 62
     7
370
     0
100
AcDbLine
 10
131.5286566299
 20
139.9727145529
 30
0.0
 11
131.8659149301
 21
139.9727145529
 31
0.0
  0
ELLIPSE
  5
D7
330
1F
100
AcDbEntity
  8
0
  6
HIDDEN
 62
     7
370
     0
100
AcDbEllipse
 10
131.8659149301
 20
141.5727145529
 30
0.0
 11
0.0
 21
1.600000000000023
 31
0.0
210
0.0
220
0.0
230
1.0
 40
0.4142135624
 41
3.141592653589793
 42
4.712388980384695
  0
ELLIPSE
  5
D8
330
1F
100
AcDbEntity
  8
0
  6
HIDDEN
 62
     7
370
     0
100
AcDbEllipse
 10
131.8659149301
 20
93.3727145529
 30
0.0
 11
0.0
 21
1.599999999999994
 31
0.0
210
0.0
220
0.0
230
1.0
 40
0.4142135624
 41
4.712388980384695
 42
6.283185307179586
  0
LINE
  5
D9
330
1F
100
AcDbEntity
  8
0
  6
HIDDEN
 62
     7
370
     0
100
AcDbLine
 10
131.8659149301
 20
94.9727145529
 30
0.0
 11
131.5286566299
 21
94.9727145529
 31
0.0
  0
LINE
  5
DA
330
1F
100
AcDbEntity
  8
0
  6
HIDDEN
 62
     7
370
     0
100
AcDbLine
 10
132.5286566299
 20
88.0186918301
 30
0.0
 11
131.9156894529
 21
87.405724653
 31
0.0
  0
LINE
  5
DB
330
1F
100
AcDbEntity
  8
0
  6
HIDDEN
 62
     7
370
     0
100
AcDbLine
 10
131.9156894529
 20
147.5397044527
 30
0.0
 11
132.5286566299
 21
146.9267372756
 31
0.0
  0
LINE
  5
DC
330
1F
100
AcDbEntity
  8
0
  6
HIDDEN
 62
     7
370
     0
100
AcDbLine
 10
71.1286566299
 20
108.9727145529
 30
0.0
 11
71.1286566299
 21
125.9727145529
 31
0.0
  0
LINE
  5
DD
330
1F
100
AcDbEntity
  8
0
  6
HIDDEN
 62
     7
370
     0
100
AcDbLine
 10
74.1245858443
 20
110.4727145529
 30
0.0
 11
74.1245858443
 21
124.4727145529
 31
0.0
  0
LINE
  5
DE
330
1F
100
AcDbEntity
  8
0
  6
HIDDEN
 62
     7
370
     0
100
AcDbLine
 10
132.5286566299
 20
146.9267372756
 30
0.0
 11
141.6612181735
 21
146.9267372756
 31
0.0
  0
LINE
  5
DF
330
1F
100
AcDbEntity
  8
0
  6
HIDDEN
 62
     7
370
     0
100
AcDbLine
 10
132.5286566299
 20
146.9267372756
 30
0.0
 11
132.5286566299
 21
141.5727145529
 31
0.0
  0
LINE
  5
E0
330
1F
100
AcDbEntity
  8
0
  6
HIDDEN
 62
     7
370
     0
100
AcDbLine
 10
141.6612181735
 20
88.0186918301
 30
0.0
 11
132.5286566299
 21
88.0186918301
 31
0.0
  0
LINE
  5
E1
330
1F
100
AcDbEntity
  8
0
  6
HIDDEN
 62
     7
370
     0
100
AcDbLine
 10
132.5286566299
 20
88.0186918301
 30
0.0
 11
132.5286566299
 21
93.3727145529
 31
0.0
  0
LINE
  5
E2
330
1F
100
AcDbEntity
  8
0
  6
HIDDEN
 62
     7
370
     0
100
AcDbLine
 10
131.8659149301
 20
139.9727145529
 30
0.0
 11
144.4786566299
 21
139.9727145529
 31
0.0
  0
LINE
  5
E3
330
1F
100
AcDbEntity
  8
0
  6
HIDDEN
 62
     7
370
     0
100
AcDbLine
 10
144.4786566299
 20
94.9727145529
 30
0.0
 11
131.8659149301
 21
94.9727145529
 31
0.0
  0
LINE
  5
E4
330
1F
100
AcDbEntity
  8
0
  6
HIDDEN
 62
     7
370
     0
100
AcDbLine
 10
144.4786566299
 20
139.9727145529
 30
0.0
 11
150.9286566299
 21
139.9727145529
 31
0.0
  0
LINE
  5
E5
330
1F
100
AcDbEntity
  8
0
  6
HIDDEN
 62
     7
370
     0
100
AcDbLine
 10
150.9286566299
 20
94.9727145529
 30
0.0
 11
144.4786566299
 21
94.9727145529
 31
0.0
  0
LINE
  5
E6
330
1F
100
AcDbEntity
  8
0
  6
HIDDEN
 62
     7
370
     0
100
AcDbLine
 10
150.5048983961
 20
87.5676666595
 30
0.0
 11
150.5988411261
 21
87.542682988
 31
0.0
  0
SPLINE
  5
E7
330
1F
100
AcDbEntity
  8
0
  6
HIDDEN
 62
     7
370
     0
100
AcDbSpline
210
0.0
220
0.0
230
1.0
 70
     8
 71
     3
 72
    13
 73
     9
 74
     0
 42
0.000000001
 43
0.00000001
 40
0.0
 40
0.0
 40
0.0
 40
0.0
 40
0.0000729225245184
 40
0.1576810837176015
 40
0.3241445774567602
 40
0.4996852408392112
 40
0.7294243771557649
 40
1.0
 40
1.0
 40
1.0
 40
1.0
 10
152.528624054767
 20
86.97272699197326
 30
0.0
 10
152.5286349135083
 20
86.97272270212035
 30
0.0
 10
152.5521148753778
 20
86.96344671147625
 30
0.0
 10
152.4805296603148
 20
86.99161221355095
 30
0.0
 10
152.3249133218732
 20
87.0452011434032
 30
0.0
 10
151.9886600995588
 20
87.15372443221942
 30
0.0
 10
151.4313470335723
 20
87.32479049556324
 30
0.0
 10
150.8300892683006
 20
87.48255448458481
 30
0.0
 10
150.5049225780331
 20
87.56787495297056
 30
0.0
  0
SPLINE
  5
E8
330
1F
100
AcDbEntity
  8
0
  6
HIDDEN
 62
     7
370
     0
100
AcDbSpline
210
0.0
220
0.0
230
1.0
 70
     8
 71
     3
 72
    22
 73
    18
 74
     0
 42
0.000000001
 43
0.00000001
 40
0.0
 40
0.0
 40
0.0
 40
0.0
 40
0.04793664067658
 40
0.0947413351471304
 40
0.1404146906340693
 40
0.1849573613338597
 40
0.228370053265296
 40
0.270653529757638
 40
0.3118086176819161
 40
0.3518362145485119
 40
0.3907372966184057
 40
0.4285129282052885
 40
0.4651642723825996
 40
0.5006926033553193
 40
0.7601481598668187
 40
0.9994104155412957
 40
1.0
 40
1.0
 40
1.0
 40
1.0
 10
150.5049202605556
 20
147.377575328571
 30
0.0
 10
150.5655824082164
 20
147.3930615195188
 30
0.0
 10
150.6854742650749
 20
147.4236682200727
 30
0.0
 10
150.8542891216957
 20
147.4678299637243
 30
0.0
 10
151.0126145445143
 20
147.5100049681114
 30
0.0
 10
151.1601733677489
 20
147.550113107225
 30
0.0
 10
151.2974774581398
 20
147.5881751359426
 30
0.0
 10
151.4248554232024
 20
147.6241857540064
 30
0.0
 10
151.542699990412
 20
147.6581464569992
 30
0.0
 10
151.6514007839812
 20
147.6900567509981
 30
0.0
 10
151.7513586761631
 20
147.7199175454651
 30
0.0
 10
151.8429784015136
 20
147.7477262462866
 30
0.0
 10
151.9266702981304
 20
147.7734924261437
 30
0.0
 10
152.1636602040749
 20
147.8472020064453
 30
0.0
 10
152.4430739440354
 20
147.9395708889089
 30
0.0
 10
152.5287909879411
 20
147.9726526779758
 30
0.0
 10
152.5286562169901
 20
147.9727142005138
 30
0.0
 10
152.528655885707
 20
147.9727143517435
 30
0.0
  0
LINE
  5
E9
330
1F
100
AcDbEntity
  8
0
  6
HIDDEN
 62
     7
370
     0
100
AcDbLine
 10
222.4786566299
 20
140.4727145529
 30
0.0
 11
227.9786566299
 21
140.4727145529
 31
0.0
  0
LINE
  5
EA
330
1F
100
AcDbEntity
  8
0
  6
HIDDEN
 62
     7
370
     0
100
AcDbLine
 10
216.9786566299
 20
140.4727145529
 30
0.0
 11
222.4786566299
 21
140.4727145529
 31
0.0
  0
LINE
  5
EB
330
1F
100
AcDbEntity
  8
0
  6
HIDDEN
 62
     7
370
     0
100
AcDbLine
 10
107.1286566299
 20
110.4727145529
 30
0.0
 11
107.1286566299
 21
124.4727145529
 31
0.0
  0
LINE
  5
EC
330
1F
100
AcDbEntity
  8
0
  6
HIDDEN
 62
     7
370
     0
100
AcDbLine
 10
108.7810233323
 20
113.2227145529
 30
0.0
 11
108.7810233323
 21
121.7227145529
 31
0.0
  0
SPLINE
  5
ED
330
1F
100
AcDbEntity
  8
0
  6
HIDDEN
 62
     7
370
     0
100
AcDbSpline
210
0.0
220
0.0
230
1.0
 70
     8
 71
     3
 72
     9
 73
     5
 74
     0
 42
0.000000001
 43
0.00000001
 40
0.0
 40
0.0
 40
0.0
 40
0.0
 40
0.4932377403388442
 40
1.0
 40
1.0
 40
1.0
 40
1.0
 10
150.5057161686406
 20
147.3775460640323
 30
0.0
 10
150.6115645098018
 20
147.5345681248084
 30
0.0
 10
150.8261635408664
 20
147.8529177723198
 30
0.0
 10
151.0440231838283
 20
148.1727433210959
 30
0.0
 10
151.1544262287847
 20
148.3348188388911
 30
0.0
  0
SPLINE
  5
EE
330
1F
100
AcDbEntity
  8
0
  6
HIDDEN
 62
     7
370
     0
100
AcDbSpline
210
0.0
220
0.0
230
1.0
 70
     8
 71
     3
 72
     9
 73
     5
 74
     0
 42
0.000000001
 43
0.00000001
 40
0.0
 40
0.0
 40
0.0
 40
0.0
 40
0.506764932008893
 40
1.0
 40
1.0
 40
1.0
 40
1.0
 10
151.1544299140706
 20
86.61062440238281
 30
0.0
 10
151.0440254742988
 20
86.77270113790125
 30
0.0
 10
150.8261642277951
 20
87.09252740306121
 30
0.0
 10
150.6115642660895
 20
87.41087648458615
 30
0.0
 10
150.5057160393868
 20
87.56789741545701
 30
0.0
  0
SPLINE
  5
EF
330
1F
100
AcDbEntity
  8
0
  6
HIDDEN
 62
     7
370
     0
100
AcDbSpline
210
0.0
220
0.0
230
1.0
 70
    11
 71
     3
 72
    62
 73
    58
 74
     0
 42
0.000000001
 43
0.00000001
 40
0.0
 40
0.0
 40
0.0
 40
0.0
 40
0.0312499999999996
 40
0.0312499999999996
 40
0.0624999999999993
 40
0.0624999999999993
 40
0.1249999999999985
 40
0.1249999999999985
 40
0.1874999999999978
 40
0.1874999999999978
 40
0.2187499999999976
 40
0.2187499999999976
 40
0.2499999999999973
 40
0.2499999999999973
 40
0.2812499999999971
 40
0.2812499999999971
 40
0.312499999999997
 40
0.312499999999997
 40
0.3437499999999968
 40
0.3437499999999968
 40
0.3749999999999967
 40
0.3749999999999967
 40
0.4374999999999964
 40
0.4374999999999964
 40
0.4687499999999966
 40
0.4687499999999966
 40
0.4999999999999968
 40
0.4999999999999968
 40
0.531249999999997
 40
0.531249999999997
 40
0.5624999999999971
 40
0.5624999999999971
 40
0.5937499999999973
 40
0.5937499999999973
 40
0.6249999999999976
 40
0.6249999999999976
 40
0.6562499999999977
 40
0.6562499999999977
 40
0.6874999999999979
 40
0.6874999999999979
 40
0.7187499999999981
 40
0.7187499999999981
 40
0.7499999999999983
 40
0.7499999999999983
 40
0.7812499999999986
 40
0.7812499999999986
 40
0.8124999999999988
 40
0.8124999999999988
 40
0.8749999999999993
 40
0.8749999999999993
 40
0.9062499999999996
 40
0.9062499999999996
 40
0.9374999999999998
 40
0.9374999999999998
 40
0.9687499999999999
 40
0.9687499999999999
 40
1.0
 40
1.0
 40
1.0
 40
1.0
 10
146.1286566299432
 20
116.7631001807869
 30
0.0
 10
146.269854853923
 20
116.7631001807869
 30
0.0
 10
146.4081327309368
 20
116.7791115907783
 30
0.0
 10
146.6792988021446
 20
116.8408411564013
 30
0.0
 10
146.8135021296042
 20
116.887378919856
 30
0.0
 10
147.1925653093944
 20
117.064355248591
 30
0.0
 10
147.4215722310882
 20
117.2347815423001
 30
0.0
 10
147.8026028500909
 20
117.6406678197235
 30
0.0
 10
147.9582259270125
 20
117.8803382610594
 30
0.0
 10
148.1172964035812
 20
118.2608150883761
 30
0.0
 10
148.1590235487246
 20
118.3940838236812
 30
0.0
 10
148.2142942498666
 20
118.65906505931
 30
0.0
 10
148.2283741813564
 20
118.7910303740279
 30
0.0
 10
148.2289307476776
 20
119.0537076838421
 30
0.0
 10
148.214941470257
 20
119.1840875477996
 30
0.0
 10
148.1604599510214
 20
119.4304314785228
 30
0.0
 10
148.1196094928664
 20
119.5490857485056
 30
0.0
 10
148.012995526007
 20
119.771912015261
 30
0.0
 10
147.948243383734
 20
119.8745971262454
 30
0.0
 10
147.7966848417814
 20
120.0647203791588
 30
0.0
 10
147.7093467186083
 20
120.1522271703781
 30
0.0
 10
147.4235702976468
 20
120.3844946658268
 30
0.0
 10
147.194033949181
 20
120.5049434084693
 30
0.0
 10
146.8177158131868
 20
120.626040000771
 30
0.0
 10
146.685382904826
 20
120.6571481342072
 30
0.0
 10
146.4113502458352
 20
120.6990953737628
 30
0.0
 10
146.2733250862131
 20
120.7095256083725
 30
0.0
 10
145.9952537049944
 20
120.7100815072393
 30
0.0
 10
145.853540766324
 20
120.6998030484092
 30
0.0
 10
145.5811185106437
 20
120.6589798637161
 30
0.0
 10
145.4492903661466
 20
120.6286865278413
 30
0.0
 10
145.193891470542
 20
120.5474193375504
 30
0.0
 10
145.0737254673527
 20
120.4974714866921
 30
0.0
 10
144.8485540547964
 20
120.3791502754941
 30
0.0
 10
144.742402993462
 20
120.3098571664116
 30
0.0
 10
144.5509557047598
 20
120.1550425178178
 30
0.0
 10
144.4650216908403
 20
120.0694565299472
 30
0.0
 10
144.3126093728003
 20
119.8797728578701
 30
0.0
 10
144.2464258825128
 20
119.7753515967996
 30
0.0
 10
144.1402441839617
 20
119.5553202569923
 30
0.0
 10
144.0992641207459
 20
119.4386717708828
 30
0.0
 10
144.0431839799486
 20
119.1902703898935
 30
0.0
 10
144.0289598045073
 20
119.0611604010893
 30
0.0
 10
144.0283631206358
 20
118.7999053352572
 30
0.0
 10
144.0421316881342
 20
118.6650990445845
 30
0.0
 10
144.0969817550763
 20
118.3986439302301
 30
0.0
 10
144.1374782683527
 20
118.2679099955315
 30
0.0
 10
144.2969407395289
 20
117.8834945415279
 30
0.0
 10
144.4516091638431
 20
117.6443355096511
 30
0.0
 10
144.7399171951877
 20
117.3366761502073
 30
0.0
 10
144.8439420105355
 20
117.244003033443
 30
0.0
 10
145.0683612687143
 20
117.0788601908034
 30
0.0
 10
145.1902920565748
 20
117.0058193221242
 30
0.0
 10
145.4427492080008
 20
116.8877974058518
 30
0.0
 10
145.573635737918
 20
116.8421497002341
 30
0.0
 10
145.8455766556308
 20
116.7796292607669
 30
0.0
 10
145.9874584059633
 20
116.7631001807869
 30
0.0
 10
146.1286566299432
 20
116.7631001807869
 30
0.0
  0
SPLINE
  5
F0
330
1F
100
AcDbEntity
  8
0
  6
HIDDEN
 62
     7
370
     0
100
AcDbSpline
210
0.0
220
0.0
230
1.0
 70
    11
 71
     3
 72
    56
 73
    52
 74
     0
 42
0.000000001
 43
0.00000001
 40
0.0
 40
0.0
 40
0.0
 40
0.0
 40
0.0312500000000006
 40
0.0312500000000006
 40
0.0625000000000012
 40
0.0625000000000012
 40
0.1250000000000023
 40
0.1250000000000023
 40
0.1562500000000026
 40
0.1562500000000026
 40
0.1875000000000028
 40
0.1875000000000028
 40
0.218750000000003
 40
0.218750000000003
 40
0.2500000000000033
 40
0.2500000000000033
 40
0.3125000000000037
 40
0.3125000000000037
 40
0.3437500000000038
 40
0.3437500000000038
 40
0.375000000000004
 40
0.375000000000004
 40
0.4375000000000041
 40
0.4375000000000041
 40
0.4687500000000042
 40
0.4687500000000042
 40
0.5000000000000042
 40
0.5000000000000042
 40
0.5312500000000043
 40
0.5312500000000043
 40
0.5625000000000044
 40
0.5625000000000044
 40
0.6250000000000039
 40
0.6250000000000039
 40
0.6875000000000032
 40
0.6875000000000032
 40
0.7500000000000026
 40
0.7500000000000026
 40
0.7812500000000024
 40
0.7812500000000024
 40
0.8125000000000022
 40
0.8125000000000022
 40
0.8437500000000018
 40
0.8437500000000018
 40
0.8750000000000014
 40
0.8750000000000014
 40
0.9062500000000011
 40
0.9062500000000011
 40
0.9375000000000009
 40
0.9375000000000009
 40
1.0
 40
1.0
 40
1.0
 40
1.0
 10
144.088080629106
 20
123.1395946418363
 30
0.0
 10
144.1167521457029
 20
123.0377805769634
 30
0.0
 10
144.1545220652867
 20
122.9453776593137
 30
0.0
 10
144.2448202020564
 20
122.7785995746181
 30
0.0
 10
144.2980958982297
 20
122.7037298854951
 30
0.0
 10
144.4670269750039
 20
122.5176092209802
 30
0.0
 10
144.5982136909882
 20
122.4395927233967
 30
0.0
 10
144.7434992109917
 20
122.4190181728421
 30
0.0
 10
144.7816401437933
 20
122.4285663927747
 30
0.0
 10
144.8264166769575
 20
122.4759226219548
 30
0.0
 10
144.8333114149974
 20
122.514023384215
 30
0.0
 10
144.8220628693835
 20
122.606143862179
 30
0.0
 10
144.8044020241788
 20
122.6611993043183
 30
0.0
 10
144.7556780184169
 20
122.7808060624977
 30
0.0
 10
144.7247390200254
 20
122.8454839316005
 30
0.0
 10
144.6210834847068
 20
123.052845314024
 30
0.0
 10
144.5372781480446
 20
123.2096330692469
 30
0.0
 10
144.4118278835923
 20
123.4687783318997
 30
0.0
 10
144.3697347035447
 20
123.5595307064495
 30
0.0
 10
144.2869937122319
 20
123.7525319284876
 30
0.0
 10
144.2461634788242
 20
123.855312891016
 30
0.0
 10
144.1333137226641
 20
124.177554004196
 30
0.0
 10
144.0686235393001
 20
124.4165005429071
 30
0.0
 10
144.0281538615622
 20
124.7852676478843
 30
0.0
 10
144.0251120653722
 20
124.9050270585293
 30
0.0
 10
144.0409152219496
 20
125.1241253197385
 30
0.0
 10
144.0596583194944
 20
125.2224543280623
 30
0.0
 10
144.1109322228879
 20
125.3893293752689
 30
0.0
 10
144.1434567689202
 20
125.459204021365
 30
0.0
 10
144.2156099173622
 20
125.5758130816576
 30
0.0
 10
144.2547150941149
 20
125.6220337214307
 30
0.0
 10
144.3767128325613
 20
125.7348525389187
 30
0.0
 10
144.4642446452911
 20
125.7753058282784
 30
0.0
 10
144.6263611982437
 20
125.8061639477008
 30
0.0
 10
144.7039188555322
 20
125.7972607621324
 30
0.0
 10
144.8150636786362
 20
125.7261847136943
 30
0.0
 10
144.8477966649781
 20
125.6639457949841
 30
0.0
 10
144.8041682826581
 20
125.5060445117111
 30
0.0
 10
144.773853021662
 20
125.4427891088409
 30
0.0
 10
144.6889960380249
 20
125.2974750429811
 30
0.0
 10
144.6341469637619
 20
125.2141031272219
 30
0.0
 10
144.5193082783495
 20
125.0355099697314
 30
0.0
 10
144.45788884917
 20
124.9377632213139
 30
0.0
 10
144.3416808622831
 20
124.7327849222145
 30
0.0
 10
144.2861667973145
 20
124.624502986901
 30
0.0
 10
144.1879628219692
 20
124.3991530827725
 30
0.0
 10
144.1460724037231
 20
124.2842471273115
 30
0.0
 10
144.0795657234184
 20
124.0489797242784
 30
0.0
 10
144.055122228491
 20
123.9279823897827
 30
0.0
 10
144.0146323026956
 20
123.5747809576063
 30
0.0
 10
144.030737595912
 20
123.343222771582
 30
0.0
 10
144.088080629106
 20
123.1395946418363
 30
0.0
  0
SPLINE
  5
F1
330
1F
100
AcDbEntity
  8
0
  6
HIDDEN
 62
     7
370
     0
100
AcDbSpline
210
0.0
220
0.0
230
1.0
 70
     8
 71
     3
 72
    22
 73
    18
 74
     0
 42
0.000000001
 43
0.00000001
 40
0.0
 40
0.0
 40
0.0
 40
0.0
 40
0.1250000000000006
 40
0.1250000000000006
 40
0.2500000000000012
 40
0.2500000000000012
 40
0.3750000000000018
 40
0.3750000000000018
 40
0.5000000000000023
 40
0.5000000000000023
 40
0.6250000000000029
 40
0.6250000000000029
 40
0.7500000000000036
 40
0.7500000000000036
 40
0.8750000000000018
 40
0.8750000000000018
 40
1.0
 40
1.0
 40
1.0
 40
1.0
 10
147.8050250686433
 20
125.3373695285152
 30
0.0
 10
147.7067468450879
 20
125.2128408085829
 30
0.0
 10
147.5954240777807
 20
125.1012376691506
 30
0.0
 10
147.3476154694159
 20
124.9032538259623
 30
0.0
 10
147.2096639438658
 20
124.8165993037735
 30
0.0
 10
146.9214029822818
 20
124.6780757285506
 30
0.0
 10
146.7689594633696
 20
124.624631977274
 30
0.0
 10
146.4520477250939
 20
124.5524518271289
 30
0.0
 10
146.2920592209855
 20
124.5345337877354
 30
0.0
 10
145.9690891143635
 20
124.5342486462379
 30
0.0
 10
145.8055266307107
 20
124.5525469561062
 30
0.0
 10
145.4920283995708
 20
124.6236423782971
 30
0.0
 10
145.338526433342
 20
124.676952930561
 30
0.0
 10
145.0479237354677
 20
124.8163343685855
 30
0.0
 10
144.913103492054
 20
124.9008882656933
 30
0.0
 10
144.6641554154247
 20
125.0990797135995
 30
0.0
 10
144.5505661822556
 20
125.2128411032389
 30
0.0
 10
144.452288191243
 20
125.3373695285152
 30
0.0
  0
SPLINE
  5
F2
330
1F
100
AcDbEntity
  8
0
  6
HIDDEN
 62
     7
370
     0
100
AcDbSpline
210
0.0
220
0.0
230
1.0
 70
     8
 71
     3
 72
    18
 73
    14
 74
     0
 42
0.000000001
 43
0.00000001
 40
0.0
 40
0.0
 40
0.0
 40
0.0
 40
0.2499999999999999
 40
0.2499999999999999
 40
0.3749999999999997
 40
0.3749999999999997
 40
0.4999999999999996
 40
0.4999999999999996
 40
0.6249999999999994
 40
0.6249999999999994
 40
0.7499999999999992
 40
0.7499999999999992
 40
1.0
 40
1.0
 40
1.0
 40
1.0
 10
147.8050250686433
 20
127.714467853094
 30
0.0
 10
147.9435954173737
 20
127.5448878588582
 30
0.0
 10
148.0480808369243
 20
127.3712766507164
 30
0.0
 10
148.1556370700622
 20
127.0882453883128
 30
0.0
 10
148.1826470440343
 20
126.99157235322
 30
0.0
 10
148.2191880061468
 20
126.7905039260486
 30
0.0
 10
148.228663826659
 20
126.684760028962
 30
0.0
 10
148.2286494248482
 20
126.4705105366827
 30
0.0
 10
148.2194273118264
 20
126.3624825382724
 30
0.0
 10
148.1831825657949
 20
126.145489648741
 30
0.0
 10
148.1558082745161
 20
126.035640031006
 30
0.0
 10
148.0485481526181
 20
125.7160562410901
 30
0.0
 10
147.9433576304789
 20
125.5126512565224
 30
0.0
 10
147.8050250686436
 20
125.337369528515
 30
0.0
  0
SPLINE
  5
F3
330
1F
100
AcDbEntity
  8
0
  6
HIDDEN
 62
     7
370
     0
100
AcDbSpline
210
0.0
220
0.0
230
1.0
 70
     8
 71
     3
 72
    22
 73
    18
 74
     0
 42
0.000000001
 43
0.00000001
 40
0.0
 40
0.0
 40
0.0
 40
0.0
 40
0.1249999999999982
 40
0.1249999999999982
 40
0.2499999999999963
 40
0.2499999999999963
 40
0.3749999999999969
 40
0.3749999999999969
 40
0.4999999999999976
 40
0.4999999999999976
 40
0.6249999999999981
 40
0.6249999999999981
 40
0.7499999999999988
 40
0.7499999999999988
 40
0.8749999999999993
 40
0.8749999999999993
 40
1.0
 40
1.0
 40
1.0
 40
1.0
 10
144.452288191243
 20
127.714467853094
 30
0.0
 10
144.5505664147984
 20
127.8347390419647
 30
0.0
 10
144.6618891821056
 20
127.9418872503608
 30
0.0
 10
144.9096977904703
 20
128.1312652887813
 30
0.0
 10
145.0476493160205
 20
128.2137454423388
 30
0.0
 10
145.3359102776045
 20
128.3452802736502
 30
0.0
 10
145.4883537965167
 20
128.3958402794353
 30
0.0
 10
145.8052655347924
 20
128.4640669548352
 30
0.0
 10
145.9652540389008
 20
128.4809640264608
 30
0.0
 10
146.2882241455228
 20
128.4812331314433
 30
0.0
 10
146.4517866291756
 20
128.4639766021427
 30
0.0
 10
146.7652848603155
 20
128.3967761044966
 30
0.0
 10
146.9187868265443
 20
128.3463450988644
 30
0.0
 10
147.2093895244186
 20
128.2139983237294
 30
0.0
 10
147.3442097678323
 20
128.1335217863947
 30
0.0
 10
147.5931578444616
 20
127.943957503188
 30
0.0
 10
147.7067470776308
 20
127.8347387573828
 30
0.0
 10
147.8050250686433
 20
127.714467853094
 30
0.0
  0
SPLINE
  5
F4
330
1F
100
AcDbEntity
  8
0
  6
HIDDEN
 62
     7
370
     0
100
AcDbSpline
210
0.0
220
0.0
230
1.0
 70
     8
 71
     3
 72
    18
 73
    14
 74
     0
 42
0.000000001
 43
0.00000001
 40
0.0
 40
0.0
 40
0.0
 40
0.0
 40
0.2500000000000013
 40
0.2500000000000013
 40
0.3750000000000007
 40
0.3750000000000007
 40
0.5000000000000001
 40
0.5000000000000001
 40
0.6249999999999996
 40
0.6249999999999996
 40
0.7499999999999989
 40
0.7499999999999989
 40
1.0
 40
1.0
 40
1.0
 40
1.0
 10
144.452288191243
 20
125.3373695285152
 30
0.0
 10
144.3137178425126
 20
125.5129525572237
 30
0.0
 10
144.209232422962
 20
125.7149455728546
 30
0.0
 10
144.1016761898241
 20
126.0349898636525
 30
0.0
 10
144.0746662158521
 20
126.1430491394977
 30
0.0
 10
144.0381252537395
 20
126.3603003686144
 30
0.0
 10
144.0286494332273
 20
126.4707633018023
 30
0.0
 10
144.0286638350381
 20
126.6850058672451
 30
0.0
 10
144.0378859480599
 20
126.7884371540366
 30
0.0
 10
144.0741306940914
 20
126.9893597913197
 30
0.0
 10
144.1015049853702
 20
127.087665034179
 30
0.0
 10
144.2087651072682
 20
127.370305127248
 30
0.0
 10
144.3139556294074
 20
127.5451788583446
 30
0.0
 10
144.4522881912427
 20
127.714467853094
 30
0.0
  0
LWPOLYLINE
  5
F5
330
1F
100
AcDbEntity
  8
0
  6
HIDDEN
 62
     7
370
     0
100
AcDbPolyline
 90
       19
 70
   128
 43
0.0
 10
132.1336629026
 20
125.5001787808
 10
132.2659417702
 20
125.1008815933
 10
132.4771700196
 20
124.8621872858
 10
132.7418704064
 20
124.8128859146
 10
133.0281161573
 20
124.9589239527
 10
133.3013818104
 20
125.2826870575
 10
133.5287074948
 20
125.7451246201
 10
133.6826743781
 20
126.2904598457
 10
133.7447117818
 20
126.8529172579
 10
133.7073370795
 20
127.3646561917
 10
133.5750582118
 20
127.7639533793
 10
133.3638299625
 20
128.0026476867
 10
133.0991295757
 20
128.0519490579
 10
132.8128838247
 20
127.9059110198
 10
132.5396181717
 20
127.582147915
 10
132.3122924872
 20
127.1197103524
 10
132.1583256039
 20
126.5743751268
 10
132.0962882002
 20
126.0119177146
 10
132.1336629026
 20
125.5001787808
  0
LWPOLYLINE
  5
F6
330
1F
100
AcDbEntity
  8
0
  6
HIDDEN
 62
     7
370
     0
100
AcDbPolyline
 90
       21
 70
   128
 43
0.0
 10
131.7772276082
 20
125.2739410202
 10
131.9237846911
 20
124.8082043586
 10
132.1540225955
 20
124.5041987261
 10
132.4454040313
 20
124.3916823122
 10
132.7694065533
 20
124.4816690074
 10
133.0943145374
 20
124.765350287
 10
133.3883237261
 20
125.2149574509
 10
133.6226544516
 20
125.7864798172
 10
133.7743687899
 20
126.4239727948
 10
133.8286158844
 20
127.0650341292
 10
133.7800856516
 20
127.6469122705
 10
133.6335285688
 20
128.1126489321
 10
133.4032906644
 20
128.4166545646
 10
133.1119092286
 20
128.5291709786
 10
132.7879067065
 20
128.4391842834
 10
132.4629987225
 20
128.1555030037
 10
132.1689895338
 20
127.7058958399
 10
131.9346588083
 20
127.1343734735
 10
131.78294447
 20
126.496880496
 10
131.7286973755
 20
125.8558191616
 10
131.7772276082
 20
125.2739410202
  0
LINE
  5
F7
330
1F
100
AcDbEntity
  8
0
  6
HIDDEN
 62
     7
370
     0
100
AcDbLine
 10
217.280124229
 20
139.7727145529
 30
0.0
 11
228.4786566299
 21
139.7727145529
 31
0.0
  0
LINE
  5
F8
330
1F
100
AcDbEntity
  8
0
  6
HIDDEN
 62
     7
370
     0
100
AcDbLine
 10
216.4786566299
 20
139.7727145529
 30
0.0
 11
217.280124229
 21
139.7727145529
 31
0.0
  0
LINE
  5
F9
330
1F
100
AcDbEntity
  8
0
  6
HIDDEN
 62
     7
370
     0
100
AcDbLine
 10
217.280124229
 20
132.3698288699
 30
0.0
 11
228.4786566299
 21
132.3698288699
 31
0.0
  0
LINE
  5
FA
330
1F
100
AcDbEntity
  8
0
  6
HIDDEN
 62
     7
370
     0
100
AcDbLine
 10
216.4786566299
 20
132.3698288699
 30
0.0
 11
217.280124229
 21
132.3698288699
 31
0.0
  0
LINE
  5
FB
330
1F
100
AcDbEntity
  8
0
  6
HIDDEN
 62
     7
370
     0
100
AcDbLine
 10
219.4290225898
 20
123.9727145529
 30
0.0
 11
221.1852605138
 21
123.9727145529
 31
0.0
  0
LINE
  5
FC
330
1F
100
AcDbEntity
  8
0
  6
HIDDEN
 62
     7
370
     0
100
AcDbLine
 10
223.8033270447
 20
123.9727145529
 30
0.0
 11
225.9984585335
 21
123.9727145529
 31
0.0
  0
LINE
  5
FD
330
1F
100
AcDbEntity
  8
0
  6
HIDDEN
 62
     7
370
     0
100
AcDbLine
 10
218.9588547263
 20
123.9727145529
 30
0.0
 11
219.4290225898
 21
123.9727145529
 31
0.0
  0
SPLINE
  5
FE
330
1F
100
AcDbEntity
  8
0
  6
HIDDEN
 62
     7
370
     0
100
AcDbSpline
210
0.0
220
0.0
230
1.0
 70
     8
 71
     3
 72
    11
 73
     7
 74
     0
 42
0.000000001
 43
0.00000001
 40
0.0
 40
0.0
 40
0.0
 40
0.0
 40
0.2164553779443432
 40
0.4403112895790665
 40
0.7519005688038832
 40
1.0
 40
1.0
 40
1.0
 40
1.0
 10
220.7442247525428
 20
140.3368161679977
 30
0.0
 10
220.9815189948077
 20
140.2281579977327
 30
0.0
 10
221.4642204865128
 20
140.0071266723527
 30
0.0
 10
222.3599855335473
 20
139.8228967479352
 30
0.0
 10
223.3208542279276
 20
139.9339726520346
 30
0.0
 10
223.9357524925705
 20
140.2130891138081
 30
0.0
 10
224.2083252760855
 20
140.3368161679977
 30
0.0
  0
SPLINE
  5
FF
330
1F
100
AcDbEntity
  8
0
  6
HIDDEN
 62
     7
370
     0
100
AcDbSpline
210
0.0
220
0.0
230
1.0
 70
     8
 71
     3
 72
    11
 73
     7
 74
     0
 42
0.000000001
 43
0.00000001
 40
0.0
 40
0.0
 40
0.0
 40
0.0
 40
0.2164553779443478
 40
0.4403112895790612
 40
0.7519005688038761
 40
1.0
 40
1.0
 40
1.0
 40
1.0
 10
224.2083252760855
 20
140.3368161679977
 30
0.0
 10
224.3271355401961
 20
140.2281579977327
 30
0.0
 10
224.5688181498064
 20
140.0071266723527
 30
0.0
 10
225.0173165238227
 20
139.8228967479352
 30
0.0
 10
225.4984114811436
 20
139.9339726520346
 30
0.0
 10
225.8062833642794
 20
140.2130891138082
 30
0.0
 10
225.942757153486
 20
140.3368161679977
 30
0.0
  0
LINE
  5
100
330
1F
100
AcDbEntity
  8
0
  6
HIDDEN
 62
     7
370
     0
100
AcDbLine
 10
224.263502387
 20
140.291234457
 30
0.0
 11
224.2130885073
 21
140.336816168
 31
0.0
  0
SPLINE
  5
101
330
1F
100
AcDbEntity
  8
0
  6
HIDDEN
 62
     7
370
     0
100
AcDbSpline
210
0.0
220
0.0
230
1.0
 70
     8
 71
     3
 72
     9
 73
     5
 74
     0
 42
0.000000001
 43
0.00000001
 40
0.0
 40
0.0
 40
0.0
 40
0.0
 40
0.9251813836971787
 40
1.0
 40
1.0
 40
1.0
 40
1.0
 10
224.2130885073436
 20
140.3368161679977
 30
0.0
 10
223.9792562032054
 20
140.2147218586208
 30
0.0
 10
223.7265140833804
 20
140.0827538883089
 30
0.0
 10
223.4498209226084
 20
140.0298225295644
 30
0.0
 10
223.429119123179
 20
140.0258622785441
 30
0.0
  0
LINE
  5
102
330
1F
100
AcDbEntity
  8
0
  6
HIDDEN
 62
     7
370
     0
100
AcDbLine
 10
221.5281941367
 20
140.0258622785
 30
0.0
 11
220.7489879838
 21
140.336816168
 31
0.0
  0
LINE
  5
103
330
1F
100
AcDbEntity
  8
0
  6
HIDDEN
 62
     7
370
     0
100
AcDbLine
 10
220.7489879838
 20
140.336816168
 30
0.0
 11
220.6151548471
 21
140.2262568572
 31
0.0
  0
SPLINE
  5
104
330
1F
100
AcDbEntity
  8
0
  6
HIDDEN
 62
     7
370
     0
100
AcDbSpline
210
0.0
220
0.0
230
1.0
 70
     8
 71
     3
 72
    11
 73
     7
 74
     0
 42
0.000000001
 43
0.00000001
 40
0.0
 40
0.0
 40
0.0
 40
0.0
 40
0.1285561766307352
 40
0.4801535797842229
 40
0.8150691831753908
 40
1.0
 40
1.0
 40
1.0
 40
1.0
 10
219.0145561064004
 20
140.3368161679977
 30
0.0
 10
219.0842149601295
 20
140.2706956812654
 30
0.0
 10
219.3443887523059
 20
140.0237375868844
 30
0.0
 10
219.8322728836112
 20
139.7856767309181
 30
0.0
 10
220.3605484839811
 20
139.9800819281422
 30
0.0
 10
220.6435495859621
 20
140.2432104853811
 30
0.0
 10
220.7442247525428
 20
140.3368161679977
 30
0.0
  0
LINE
  5
105
330
1F
100
AcDbEntity
  8
0
  6
HIDDEN
 62
     7
370
     0
100
AcDbLine
 10
219.8793904295
 20
132.4727145529
 30
0.0
 11
225.4786566299
 21
132.4727145529
 31
0.0
  0
LINE
  5
106
330
1F
100
AcDbEntity
  8
0
  6
HIDDEN
 62
     7
370
     0
100
AcDbLine
 10
219.4786566299
 20
132.4727145529
 30
0.0
 11
219.8793904295
 21
132.4727145529
 31
0.0
  0
LINE
  5
107
330
1F
100
AcDbEntity
  8
0
  6
HIDDEN
 62
     7
370
     0
100
AcDbLine
 10
224.2083252761
 20
133.4727145529
 30
0.0
 11
222.4762750143
 21
133.4727145529
 31
0.0
  0
LINE
  5
108
330
1F
100
AcDbEntity
  8
0
  6
HIDDEN
 62
     7
370
     0
100
AcDbLine
 10
222.4762750143
 20
133.4727145529
 30
0.0
 11
220.7442247525
 21
133.4727145529
 31
0.0
  0
LINE
  5
109
330
1F
100
AcDbEntity
  8
0
  6
HIDDEN
 62
     7
370
     0
100
AcDbLine
 10
225.0755412148
 20
133.4727145529
 30
0.0
 11
224.2083252761
 21
133.4727145529
 31
0.0
  0
LINE
  5
10A
330
1F
100
AcDbEntity
  8
0
  6
HIDDEN
 62
     7
370
     0
100
AcDbLine
 10
224.2083252761
 20
133.4727145529
 30
0.0
 11
224.2083252761
 21
140.336816168
 31
0.0
  0
LINE
  5
10B
330
1F
100
AcDbEntity
  8
0
  6
HIDDEN
 62
     7
370
     0
100
AcDbLine
 10
220.7442247525
 20
133.4727145529
 30
0.0
 11
219.8793904295
 21
133.4727145529
 31
0.0
  0
LINE
  5
10C
330
1F
100
AcDbEntity
  8
0
  6
HIDDEN
 62
     7
370
     0
100
AcDbLine
 10
220.7442247525
 20
133.4727145529
 30
0.0
 11
220.7442247525
 21
140.336816168
 31
0.0
  0
LINE
  5
10D
330
1F
100
AcDbEntity
  8
0
  6
HIDDEN
 62
     7
370
     0
100
AcDbLine
 10
225.9427571535
 20
133.4727145529
 30
0.0
 11
225.0755412148
 21
133.4727145529
 31
0.0
  0
LINE
  5
10E
330
1F
100
AcDbEntity
  8
0
  6
HIDDEN
 62
     7
370
     0
100
AcDbLine
 10
219.8793904295
 20
133.4727145529
 30
0.0
 11
219.0145561064
 21
133.4727145529
 31
0.0
  0
LINE
  5
10F
330
1F
100
AcDbEntity
  8
0
  6
HIDDEN
 62
     7
370
     0
100
AcDbLine
 10
220.7489879838
 20
133.4727145529
 30
0.0
 11
220.7489879838
 21
140.336816168
 31
0.0
  0
LINE
  5
110
330
1F
100
AcDbEntity
  8
0
  6
HIDDEN
 62
     7
370
     0
100
AcDbLine
 10
219.0145561064
 20
133.4727145529
 30
0.0
 11
219.0145561064
 21
140.336816168
 31
0.0
  0
LINE
  5
111
330
1F
100
AcDbEntity
  8
0
  6
HIDDEN
 62
     7
370
     0
100
AcDbLine
 10
224.2130885073
 20
133.4727145529
 30
0.0
 11
224.2130885073
 21
140.336816168
 31
0.0
  0
LINE
  5
112
330
1F
100
AcDbEntity
  8
0
  6
HIDDEN
 62
     7
370
     0
100
AcDbLine
 10
225.9427571535
 20
133.4727145529
 30
0.0
 11
225.9427571535
 21
140.336816168
 31
0.0
  0
CIRCLE
  5
113
330
1F
100
AcDbEntity
  8
0
  6
HIDDEN
 62
     7
370
     0
100
AcDbCircle
 10
222.4786566299
 20
117.4727145529
 30
0.0
 40
6.000000000000012
  0
LWPOLYLINE
  5
114
330
1F
100
AcDbEntity
  8
0
  6
HIDDEN
 62
     7
370
     0
100
AcDbPolyline
 90
       19
 70
   128
 43
0.0
 10
132.3670460015
 20
110.029017398
 10
132.1552560525
 20
109.8114924127
 10
132.0186574136
 20
109.4339731623
 10
131.9737258965
 20
108.9419940399
 10
132.0258809055
 20
108.3948949885
 10
132.1688317766
 20
107.8586642281
 10
132.385336525
 20
107.3979791022
 10
132.6492814829
 20
107.0684050361
 10
132.9288309929
 20
106.9096935261
 10
133.1902672584
 20
106.9409875227
 10
133.4020572074
 20
107.1585125079
 10
133.5386558463
 20
107.5360317584
 10
133.5835873633
 20
108.0280108808
 10
133.5314323544
 20
108.5751099322
 10
133.3884814833
 20
109.1113406926
 10
133.1719767349
 20
109.5720258185
 10
132.908031777
 20
109.9015998846
 10
132.628482267
 20
110.0603113946
 10
132.3670460015
 20
110.029017398
  0
LWPOLYLINE
  5
115
330
1F
100
AcDbEntity
  8
0
  6
HIDDEN
 62
     7
370
     0
100
AcDbPolyline
 90
       21
 70
   128
 43
0.0
 10
132.462339079
 20
110.4415391961
 10
132.2217980529
 20
110.208031
 10
132.0548541828
 20
109.8096299771
 10
131.977849098
 20
109.2853343956
 10
131.9983205925
 20
108.6864659597
 10
132.114264774
 20
108.0716460847
 10
132.314332218
 20
107.5010576236
 10
132.5789389293
 20
107.0305537504
 10
132.8821833593
 20
106.7061906625
 10
133.1943818303
 20
106.5597192789
 10
133.4849741809
 20
106.6054772391
 10
133.725515207
 20
106.8389854352
 10
133.892459077
 20
107.237386458
 10
133.9694641619
 20
107.7616820396
 10
133.9489926674
 20
108.3605504755
 10
133.8330484859
 20
108.9753703505
 10
133.6329810419
 20
109.5459588116
 10
133.3683743306
 20
110.0164626848
 10
133.0651299006
 20
110.3408257727
 10
132.7529314296
 20
110.4872971563
 10
132.462339079
 20
110.4415391961
  0
LWPOLYLINE
  5
116
330
1F
100
AcDbEntity
  8
0
  6
HIDDEN
 62
     7
370
     0
100
AcDbPolyline
 90
       21
 70
   128
 43
0.0
 10
134.2158962376
 20
110.7878061001
 10
133.9753552114
 20
110.5542979039
 10
133.8084113414
 20
110.1558968811
 10
133.7314062565
 20
109.6316012996
 10
133.751877751
 20
109.0327328637
 10
133.8678219325
 20
108.4179129887
 10
134.0678893765
 20
107.8473245275
 10
134.3324960878
 20
107.3768206544
 10
134.6357405178
 20
107.0524575665
 10
134.9479389888
 20
106.9059861829
 10
135.2385313394
 20
106.9517441431
 10
135.4790723655
 20
107.1852523392
 10
135.6460162356
 20
107.583653362
 10
135.7230213204
 20
108.1079489436
 10
135.7025498259
 20
108.7068173794
 10
135.5866056444
 20
109.3216372545
 10
135.3865382004
 20
109.8922257156
 10
135.1219314891
 20
110.3627295888
 10
134.8186870591
 20
110.6870926767
 10
134.5064885881
 20
110.8335640603
 10
134.2158962376
 20
110.7878061001
  0
LINE
  5
117
330
1F
100
AcDbEntity
  8
0
  6
HIDDEN
 62
     7
370
     0
100
AcDbLine
 10
132.4965653648
 20
107.705383543
 30
0.0
 11
133.0738659556
 21
107.3776267586
 31
0.0
  0
LINE
  5
118
330
1F
100
AcDbEntity
  8
0
  6
HIDDEN
 62
     7
370
     0
100
AcDbLine
 10
133.3559572208
 20
108.1572456759
 30
0.0
 11
133.0738659556
 21
107.3776267586
 31
0.0
  0
LINE
  5
119
330
1F
100
AcDbEntity
  8
0
  6
HIDDEN
 62
     7
370
     0
100
AcDbLine
 10
133.0607478951
 20
109.2646213777
 30
0.0
 11
133.3559572208
 21
108.1572456759
 31
0.0
  0
LINE
  5
11A
330
1F
100
AcDbEntity
  8
0
  6
HIDDEN
 62
     7
370
     0
100
AcDbLine
 10
133.0607478951
 20
109.2646213777
 30
0.0
 11
132.4834473043
 21
109.5923781621
 31
0.0
  0
LINE
  5
11B
330
1F
100
AcDbEntity
  8
0
  6
HIDDEN
 62
     7
370
     0
100
AcDbLine
 10
132.2013560391
 20
108.8127592448
 30
0.0
 11
132.4834473043
 21
109.5923781621
 31
0.0
  0
LINE
  5
11C
330
1F
100
AcDbEntity
  8
0
  6
HIDDEN
 62
     7
370
     0
100
AcDbLine
 10
132.2013560391
 20
108.8127592448
 30
0.0
 11
132.4965653648
 21
107.705383543
 31
0.0
  0
LINE
  5
11D
330
1F
100
AcDbEntity
  8
0
  6
HIDDEN
 62
     7
370
     0
100
AcDbLine
 10
134.6549953264
 20
108.4137607834
 30
0.0
 11
133.3559572208
 21
108.1572456759
 31
0.0
  0
LWPOLYLINE
  5
11E
330
1F
100
AcDbEntity
  8
0
  6
HIDDEN
 62
     7
370
     0
100
AcDbPolyline
 90
       17
 70
   128
 43
0.0
 10
135.057159372
 20
110.1968020369
 10
134.8759385631
 20
109.9974760577
 10
134.7709591434
 20
109.6459938835
 10
134.7582032778
 20
109.1958654892
 10
134.8396129313
 20
108.7156188423
 10
135.0027942221
 20
108.2783671414
 10
135.2229042779
 20
107.9506779942
 10
135.466433338
 20
107.782439103
 10
135.6963063106
 20
107.7992633138
 10
135.8775271195
 20
107.998589293
 10
135.9825065392
 20
108.3500714671
 10
135.9952624048
 20
108.8001998615
 10
135.9138527513
 20
109.2804465084
 10
135.7506714605
 20
109.7176982093
 10
135.5305614047
 20
110.0453873564
 10
135.2870323446
 20
110.2136262476
 10
135.057159372
 20
110.1968020369
  0
LINE
  5
11F
330
1F
100
AcDbEntity
  8
0
  6
HIDDEN
 62
     7
370
     0
100
AcDbLine
 10
134.3597860008
 20
109.5211364851
 30
0.0
 11
133.0607478951
 21
109.2646213777
 31
0.0
  0
LINE
  5
120
330
1F
100
AcDbEntity
  8
0
  6
HIDDEN
 62
     7
370
     0
100
AcDbLine
 10
133.7956034705
 20
107.9618986505
 30
0.0
 11
134.3729040613
 21
107.6341418661
 31
0.0
  0
LINE
  5
121
330
1F
100
AcDbEntity
  8
0
  6
HIDDEN
 62
     7
370
     0
100
AcDbLine
 10
133.5003941448
 20
109.0692743523
 30
0.0
 11
133.7956034705
 21
107.9618986505
 31
0.0
  0
LINE
  5
122
330
1F
100
AcDbEntity
  8
0
  6
HIDDEN
 62
     7
370
     0
100
AcDbLine
 10
133.5003941448
 20
109.0692743523
 30
0.0
 11
133.78248541
 21
109.8488932696
 31
0.0
  0
LINE
  5
123
330
1F
100
AcDbEntity
  8
0
  6
HIDDEN
 62
     7
370
     0
100
AcDbLine
 10
134.3597860008
 20
109.5211364851
 30
0.0
 11
133.78248541
 21
109.8488932696
 31
0.0
  0
LINE
  5
124
330
1F
100
AcDbEntity
  8
0
  6
HIDDEN
 62
     7
370
     0
100
AcDbLine
 10
134.3597860008
 20
109.5211364851
 30
0.0
 11
134.6549953264
 21
108.4137607834
 31
0.0
  0
LINE
  5
125
330
1F
100
AcDbEntity
  8
0
  6
HIDDEN
 62
     7
370
     0
100
AcDbLine
 10
134.6549953264
 20
108.4137607834
 30
0.0
 11
134.3729040613
 21
107.6341418661
 31
0.0
  0
LINE
  5
126
330
1F
100
AcDbEntity
  8
0
  6
HIDDEN
 62
     7
370
     0
100
AcDbLine
 10
133.7956034705
 20
107.9618986505
 30
0.0
 11
132.4965653648
 21
107.705383543
 31
0.0
  0
LINE
  5
127
330
1F
100
AcDbEntity
  8
0
  6
HIDDEN
 62
     7
370
     0
100
AcDbLine
 10
134.3729040613
 20
107.6341418661
 30
0.0
 11
133.0738659556
 21
107.3776267586
 31
0.0
  0
LINE
  5
128
330
1F
100
AcDbEntity
  8
0
  6
HIDDEN
 62
     7
370
     0
100
AcDbLine
 10
133.5003941448
 20
109.0692743523
 30
0.0
 11
132.2013560391
 21
108.8127592448
 31
0.0
  0
LINE
  5
129
330
1F
100
AcDbEntity
  8
0
  6
HIDDEN
 62
     7
370
     0
100
AcDbLine
 10
133.78248541
 20
109.8488932696
 30
0.0
 11
132.4834473043
 21
109.5923781621
 31
0.0
  0
LWPOLYLINE
  5
12A
330
1F
100
AcDbEntity
  8
0
  6
HIDDEN
 62
     7
370
     0
100
AcDbPolyline
 90
       21
 70
   128
 43
0.0
 10
134.2158962376
 20
124.1576230057
 10
133.9753552114
 20
124.3911312018
 10
133.8084113414
 20
124.7895322246
 10
133.7314062565
 20
125.3138278062
 10
133.751877751
 20
125.912696242
 10
133.8678219325
 20
126.527516117
 10
134.0678893765
 20
127.0981045782
 10
134.3324960878
 20
127.5686084514
 10
134.6357405178
 20
127.8929715393
 10
134.9479389888
 20
128.0394429229
 10
135.2385313394
 20
127.9936849626
 10
135.4790723655
 20
127.7601767665
 10
135.6460162356
 20
127.3617757437
 10
135.7230213204
 20
126.8374801621
 10
135.7025498259
 20
126.2386117263
 10
135.5866056444
 20
125.6237918513
 10
135.3865382004
 20
125.0532033901
 10
135.1219314891
 20
124.5826995169
 10
134.8186870591
 20
124.258336429
 10
134.5064885881
 20
124.1118650454
 10
134.2158962376
 20
124.1576230057
  0
LWPOLYLINE
  5
12B
330
1F
100
AcDbEntity
  8
0
  6
HIDDEN
 62
     7
370
     0
100
AcDbPolyline
 90
       17
 70
   128
 43
0.0
 10
135.057159372
 20
124.7486270688
 10
134.8759385631
 20
124.947953048
 10
134.7709591434
 20
125.2994352222
 10
134.7582032778
 20
125.7495636166
 10
134.8396129313
 20
126.2298102634
 10
135.0027942221
 20
126.6670619643
 10
135.2229042779
 20
126.9947511115
 10
135.466433338
 20
127.1629900027
 10
135.6963063106
 20
127.1461657919
 10
135.8775271195
 20
126.9468398128
 10
135.9825065392
 20
126.5953576386
 10
135.9952624048
 20
126.1452292442
 10
135.9138527513
 20
125.6649825973
 10
135.7506714605
 20
125.2277308964
 10
135.5305614047
 20
124.9000417493
 10
135.2870323446
 20
124.7318028581
 10
135.057159372
 20
124.7486270688
  0
LWPOLYLINE
  5
12C
330
1F
100
AcDbEntity
  8
0
  6
HIDDEN
 62
     7
370
     0
100
AcDbPolyline
 90
       21
 70
   128
 43
0.0
 10
132.462339079
 20
124.5038899096
 10
132.2217980529
 20
124.7373981058
 10
132.0548541828
 20
125.1357991286
 10
131.977849098
 20
125.6600947102
 10
131.9983205925
 20
126.258963146
 10
132.114264774
 20
126.873783021
 10
132.314332218
 20
127.4443714822
 10
132.5789389293
 20
127.9148753553
 10
132.8821833593
 20
128.2392384432
 10
133.1943818303
 20
128.3857098268
 10
133.4849741809
 20
128.3399518666
 10
133.725515207
 20
128.1064436705
 10
133.892459077
 20
127.7080426477
 10
133.9694641619
 20
127.1837470661
 10
133.9489926674
 20
126.5848786303
 10
133.8330484859
 20
125.9700587552
 10
133.6329810419
 20
125.3994702941
 10
133.3683743306
 20
124.9289664209
 10
133.0651299006
 20
124.604603333
 10
132.7529314296
 20
124.4581319494
 10
132.462339079
 20
124.5038899096
  0
LWPOLYLINE
  5
12D
330
1F
100
AcDbEntity
  8
0
  6
HIDDEN
 62
     7
370
     0
100
AcDbPolyline
 90
       19
 70
   128
 43
0.0
 10
132.3670460015
 20
124.9164117077
 10
132.1552560525
 20
125.133936693
 10
132.0186574136
 20
125.5114559434
 10
131.9737258965
 20
126.0034350658
 10
132.0258809055
 20
126.5505341172
 10
132.1688317766
 20
127.0867648777
 10
132.385336525
 20
127.5474500035
 10
132.6492814829
 20
127.8770240696
 10
132.9288309929
 20
128.0357355796
 10
133.1902672584
 20
128.0044415831
 10
133.4020572074
 20
127.7869165978
 10
133.5386558463
 20
127.4093973473
 10
133.5835873633
 20
126.9174182249
 10
133.5314323544
 20
126.3703191735
 10
133.3884814833
 20
125.8340884131
 10
133.1719767349
 20
125.3734032872
 10
132.908031777
 20
125.0438292211
 10
132.628482267
 20
124.8851177111
 10
132.3670460015
 20
124.9164117077
  0
LINE
  5
12E
330
1F
100
AcDbEntity
  8
0
  6
HIDDEN
 62
     7
370
     0
100
AcDbLine
 10
133.5003941448
 20
125.8761547535
 30
0.0
 11
133.78248541
 21
125.0965358361
 31
0.0
  0
LINE
  5
12F
330
1F
100
AcDbEntity
  8
0
  6
HIDDEN
 62
     7
370
     0
100
AcDbLine
 10
133.5003941448
 20
125.8761547535
 30
0.0
 11
133.7956034705
 21
126.9835304552
 31
0.0
  0
LINE
  5
130
330
1F
100
AcDbEntity
  8
0
  6
HIDDEN
 62
     7
370
     0
100
AcDbLine
 10
133.5003941448
 20
125.8761547535
 30
0.0
 11
132.2013560391
 21
126.132669861
 31
0.0
  0
LINE
  5
131
330
1F
100
AcDbEntity
  8
0
  6
HIDDEN
 62
     7
370
     0
100
AcDbLine
 10
132.2013560391
 20
126.132669861
 30
0.0
 11
132.4965653648
 21
127.2400455627
 31
0.0
  0
LINE
  5
132
330
1F
100
AcDbEntity
  8
0
  6
HIDDEN
 62
     7
370
     0
100
AcDbLine
 10
132.2013560391
 20
126.132669861
 30
0.0
 11
132.4834473043
 21
125.3530509436
 31
0.0
  0
LINE
  5
133
330
1F
100
AcDbEntity
  8
0
  6
HIDDEN
 62
     7
370
     0
100
AcDbLine
 10
132.4965653648
 20
127.2400455627
 30
0.0
 11
133.0738659556
 21
127.5678023471
 31
0.0
  0
LINE
  5
134
330
1F
100
AcDbEntity
  8
0
  6
HIDDEN
 62
     7
370
     0
100
AcDbLine
 10
133.7956034705
 20
126.9835304552
 30
0.0
 11
132.4965653648
 21
127.2400455627
 31
0.0
  0
LINE
  5
135
330
1F
100
AcDbEntity
  8
0
  6
HIDDEN
 62
     7
370
     0
100
AcDbLine
 10
133.7956034705
 20
126.9835304552
 30
0.0
 11
134.3729040613
 21
127.3112872396
 31
0.0
  0
LINE
  5
136
330
1F
100
AcDbEntity
  8
0
  6
HIDDEN
 62
     7
370
     0
100
AcDbLine
 10
134.3597860008
 20
125.4242926206
 30
0.0
 11
133.0607478951
 21
125.6808077281
 31
0.0
  0
LINE
  5
137
330
1F
100
AcDbEntity
  8
0
  6
HIDDEN
 62
     7
370
     0
100
AcDbLine
 10
133.0607478951
 20
125.6808077281
 30
0.0
 11
132.4834473043
 21
125.3530509436
 31
0.0
  0
LINE
  5
138
330
1F
100
AcDbEntity
  8
0
  6
HIDDEN
 62
     7
370
     0
100
AcDbLine
 10
134.3597860008
 20
125.4242926206
 30
0.0
 11
133.78248541
 21
125.0965358361
 31
0.0
  0
LINE
  5
139
330
1F
100
AcDbEntity
  8
0
  6
HIDDEN
 62
     7
370
     0
100
AcDbLine
 10
133.78248541
 20
125.0965358361
 30
0.0
 11
132.4834473043
 21
125.3530509436
 31
0.0
  0
LINE
  5
13A
330
1F
100
AcDbEntity
  8
0
  6
HIDDEN
 62
     7
370
     0
100
AcDbLine
 10
134.6549953264
 20
126.5316683223
 30
0.0
 11
133.3559572208
 21
126.7881834298
 31
0.0
  0
LINE
  5
13B
330
1F
100
AcDbEntity
  8
0
  6
HIDDEN
 62
     7
370
     0
100
AcDbLine
 10
134.3729040613
 20
127.3112872396
 30
0.0
 11
133.0738659556
 21
127.5678023471
 31
0.0
  0
LINE
  5
13C
330
1F
100
AcDbEntity
  8
0
  6
HIDDEN
 62
     7
370
     0
100
AcDbLine
 10
133.3559572208
 20
126.7881834298
 30
0.0
 11
133.0738659556
 21
127.5678023471
 31
0.0
  0
LINE
  5
13D
330
1F
100
AcDbEntity
  8
0
  6
HIDDEN
 62
     7
370
     0
100
AcDbLine
 10
134.6549953264
 20
126.5316683223
 30
0.0
 11
134.3729040613
 21
127.3112872396
 31
0.0
  0
LINE
  5
13E
330
1F
100
AcDbEntity
  8
0
  6
HIDDEN
 62
     7
370
     0
100
AcDbLine
 10
133.0607478951
 20
125.6808077281
 30
0.0
 11
133.3559572208
 21
126.7881834298
 31
0.0
  0
LINE
  5
13F
330
1F
100
AcDbEntity
  8
0
  6
HIDDEN
 62
     7
370
     0
100
AcDbLine
 10
134.3597860008
 20
125.4242926206
 30
0.0
 11
134.6549953264
 21
126.5316683223
 31
0.0
  0
LWPOLYLINE
  5
140
330
1F
100
AcDbEntity
  8
0
  6
HIDDEN
 62
     7
370
     0
100
AcDbPolyline
 90
       23
 70
   128
 43
0.0
 10
145.2554911021
 20
127.6259681493
 10
145.9508355352
 20
127.7679642213
 10
146.6605859759
 20
127.7201215755
 10
147.3272426645
 20
127.4863161385
 10
147.8967970409
 20
127.0854894363
 10
148.3231071967
 20
126.5501140645
 10
148.5716360184
 20
125.9235629518
 10
148.6222491791
 20
125.2565955431
 10
148.4708463014
 20
124.6032455711
 10
148.1296931461
 20
124.016443565
 10
147.6264279128
 20
123.5437287336
 10
147.0018221578
 20
123.223397621
 10
146.3064777246
 20
123.081401549
 10
145.5967272839
 20
123.1292441949
 10
144.9300705954
 20
123.3630496319
 10
144.360516219
 20
123.7638763341
 10
143.9342060632
 20
124.2992517058
 10
143.6856772415
 20
124.9258028185
 10
143.6350640808
 20
125.5927702273
 10
143.7864669585
 20
126.2461201993
 10
144.1276201138
 20
126.8329222053
 10
144.6308853471
 20
127.3056370368
 10
145.2554911021
 20
127.6259681493
  0
LWPOLYLINE
  5
141
330
1F
100
AcDbEntity
  8
0
  6
HIDDEN
 62
     7
370
     0
100
AcDbPolyline
 90
       19
 70
   128
 43
0.0
 10
145.5174407604
 20
126.7090674626
 10
146.115143207
 20
126.8125808348
 10
146.7144755717
 20
126.7177537234
 10
147.2431495264
 20
126.4360236775
 10
147.6373991895
 20
126.0013714986
 10
147.8496722333
 20
125.4662226541
 10
147.8543653959
 20
124.8951239926
 10
147.6509126125
 20
124.3569584414
 10
147.2638532915
 20
123.9166367083
 10
146.7398724994
 20
123.6272680928
 10
146.1421700529
 20
123.5237547205
 10
145.5428376882
 20
123.6185818319
 10
145.0141637335
 20
123.9003118778
 10
144.6199140704
 20
124.3349640568
 10
144.4076410266
 20
124.8701129013
 10
144.402947864
 20
125.4412115627
 10
144.6064006474
 20
125.979377114
 10
144.9934599684
 20
126.4196988471
 10
145.5174407604
 20
126.7090674626
  0
LWPOLYLINE
  5
142
330
1F
100
AcDbEntity
  8
0
  6
HIDDEN
 62
     7
370
     0
100
AcDbPolyline
 90
       23
 70
   128
 43
0.0
 10
145.2554911021
 20
128.6496615024
 10
145.9508355352
 20
128.7916575744
 10
146.6605859759
 20
128.7438149286
 10
147.3272426645
 20
128.5100094916
 10
147.8967970409
 20
128.1091827894
 10
148.3231071967
 20
127.5738074176
 10
148.5716360184
 20
126.9472563049
 10
148.6222491791
 20
126.2802888962
 10
148.4708463014
 20
125.6269389242
 10
148.1296931461
 20
125.0401369181
 10
147.6264279128
 20
124.5674220867
 10
147.0018221578
 20
124.2470909741
 10
146.3064777246
 20
124.1050949021
 10
145.5967272839
 20
124.152937548
 10
144.9300705954
 20
124.386742985
 10
144.360516219
 20
124.7875696872
 10
143.9342060632
 20
125.3229450589
 10
143.6856772415
 20
125.9494961716
 10
143.6350640808
 20
126.6164635804
 10
143.7864669585
 20
127.2698135524
 10
144.1276201138
 20
127.8566155584
 10
144.6308853471
 20
128.3293303899
 10
145.2554911021
 20
128.6496615024
  0
LINE
  5
143
330
1F
100
AcDbEntity
  8
0
  6
HIDDEN
 62
     7
370
     0
100
AcDbLine
 10
147.0478748782
 20
126.8979179859
 30
0.0
 11
145.6245342774
 21
127.1231207042
 31
0.0
  0
LINE
  5
144
330
1F
100
AcDbEntity
  8
0
  6
HIDDEN
 62
     7
370
     0
100
AcDbLine
 10
145.6245342774
 20
127.1231207042
 30
0.0
 11
145.6245342774
 21
127.8071609908
 31
0.0
  0
LINE
  5
145
330
1F
100
AcDbEntity
  8
0
  6
HIDDEN
 62
     7
370
     0
100
AcDbLine
 10
144.7053160292
 20
126.0774107826
 30
0.0
 11
145.6245342774
 21
127.1231207042
 31
0.0
  0
LINE
  5
146
330
1F
100
AcDbEntity
  8
0
  6
HIDDEN
 62
     7
370
     0
100
AcDbLine
 10
147.0478748782
 20
126.8979179859
 30
0.0
 11
147.0478748782
 21
127.5819582725
 31
0.0
  0
LINE
  5
147
330
1F
100
AcDbEntity
  8
0
  6
HIDDEN
 62
     7
370
     0
100
AcDbLine
 10
147.0478748782
 20
126.8979179859
 30
0.0
 11
147.5519972307
 21
125.6270053461
 31
0.0
  0
LINE
  5
148
330
1F
100
AcDbEntity
  8
0
  6
HIDDEN
 62
     7
370
     0
100
AcDbLine
 10
145.2094383817
 20
124.8064981428
 30
0.0
 11
145.2094383817
 21
125.4905384295
 31
0.0
  0
LINE
  5
149
330
1F
100
AcDbEntity
  8
0
  6
HIDDEN
 62
     7
370
     0
100
AcDbLine
 10
144.7053160292
 20
126.7614510693
 30
0.0
 11
145.2094383817
 21
125.4905384295
 31
0.0
  0
LINE
  5
14A
330
1F
100
AcDbEntity
  8
0
  6
HIDDEN
 62
     7
370
     0
100
AcDbLine
 10
144.7053160292
 20
126.0774107826
 30
0.0
 11
144.7053160292
 21
126.7614510693
 31
0.0
  0
LINE
  5
14B
330
1F
100
AcDbEntity
  8
0
  6
HIDDEN
 62
     7
370
     0
100
AcDbLine
 10
144.7053160292
 20
126.0774107826
 30
0.0
 11
145.2094383817
 21
124.8064981428
 31
0.0
  0
LINE
  5
14C
330
1F
100
AcDbEntity
  8
0
  6
HIDDEN
 62
     7
370
     0
100
AcDbLine
 10
146.6327789825
 20
124.5812954245
 30
0.0
 11
146.6327789825
 21
125.2653357112
 31
0.0
  0
LINE
  5
14D
330
1F
100
AcDbEntity
  8
0
  6
HIDDEN
 62
     7
370
     0
100
AcDbLine
 10
147.5519972307
 20
126.3110456327
 30
0.0
 11
146.6327789825
 21
125.2653357112
 31
0.0
  0
LINE
  5
14E
330
1F
100
AcDbEntity
  8
0
  6
HIDDEN
 62
     7
370
     0
100
AcDbLine
 10
147.5519972307
 20
125.6270053461
 30
0.0
 11
147.5519972307
 21
126.3110456327
 31
0.0
  0
LINE
  5
14F
330
1F
100
AcDbEntity
  8
0
  6
HIDDEN
 62
     7
370
     0
100
AcDbLine
 10
147.5519972307
 20
125.6270053461
 30
0.0
 11
146.6327789825
 21
124.5812954245
 31
0.0
  0
LINE
  5
150
330
1F
100
AcDbEntity
  8
0
  6
HIDDEN
 62
     7
370
     0
100
AcDbLine
 10
145.2094383817
 20
125.4905384295
 30
0.0
 11
146.6327789825
 21
125.2653357112
 31
0.0
  0
LINE
  5
151
330
1F
100
AcDbEntity
  8
0
  6
HIDDEN
 62
     7
370
     0
100
AcDbLine
 10
145.2094383817
 20
124.8064981428
 30
0.0
 11
146.6327789825
 21
124.5812954245
 31
0.0
  0
LWPOLYLINE
  5
152
330
1F
100
AcDbEntity
  8
0
  6
HIDDEN
 62
     7
370
     0
100
AcDbPolyline
 90
       21
 70
   128
 43
0.0
 10
145.410914566
 20
128.3457048381
 10
146.0410813497
 20
128.4655623846
 10
146.6798206119
 20
128.3965652312
 10
147.2646081034
 20
128.1454672999
 10
147.73820075
 20
127.7368478058
 10
148.0542400038
 20
127.2107052721
 10
148.1817897407
 20
126.6185421956
 10
148.1083645036
 20
126.0183236243
 10
147.8411516664
 20
125.4688031338
 10
147.4063078834
 20
125.0237716185
 10
146.8463986938
 20
124.7267918639
 10
146.2162319102
 20
124.6069343174
 10
145.577492648
 20
124.6759314708
 10
144.9927051565
 20
124.9270294021
 10
144.5191125099
 20
125.3356488961
 10
144.2030732561
 20
125.8617914299
 10
144.0755235192
 20
126.4539545063
 10
144.1489487563
 20
127.0541730777
 10
144.4161615935
 20
127.6036935681
 10
144.8510053764
 20
128.0487250834
 10
145.410914566
 20
128.3457048381
  0
LINE
  5
153
330
1F
100
AcDbEntity
  8
0
  6
HIDDEN
 62
     7
370
     0
100
AcDbLine
 10
147.0478748782
 20
127.5819582725
 30
0.0
 11
147.5519972307
 21
126.3110456327
 31
0.0
  0
LINE
  5
154
330
1F
100
AcDbEntity
  8
0
  6
HIDDEN
 62
     7
370
     0
100
AcDbLine
 10
144.7053160292
 20
126.7614510693
 30
0.0
 11
145.6245342774
 21
127.8071609908
 31
0.0
  0
LINE
  5
155
330
1F
100
AcDbEntity
  8
0
  6
HIDDEN
 62
     7
370
     0
100
AcDbLine
 10
147.0478748782
 20
127.5819582725
 30
0.0
 11
145.6245342774
 21
127.8071609908
 31
0.0
  0
LINE
  5
156
330
1F
100
AcDbEntity
  8
0
  6
HIDDEN
 62
     7
370
     0
100
AcDbLine
 10
131.5286566299
 20
106.0976199749
 30
0.0
 11
133.185478345
 21
106.4247849737
 31
0.0
  0
LINE
  5
157
330
1F
100
AcDbEntity
  8
0
  6
HIDDEN
 62
     7
370
     0
100
AcDbLine
 10
132.3718349149
 20
110.545219947
 30
0.0
 11
131.5286566299
 21
110.3787213913
 31
0.0
  0
LINE
  5
158
330
1F
100
AcDbEntity
  8
0
  6
HIDDEN
 62
     7
370
     0
100
AcDbLine
 10
133.2401456243
 20
106.8942693086
 30
0.0
 11
144.6798429347
 21
109.1532139634
 31
0.0
  0
LINE
  5
159
330
1F
100
AcDbEntity
  8
0
  6
HIDDEN
 62
     7
370
     0
100
AcDbLine
 10
144.6780965867
 20
112.5165916615
 30
0.0
 11
132.6008543578
 21
110.1317539304
 31
0.0
  0
LINE
  5
15A
330
1F
100
AcDbEntity
  8
0
  6
HIDDEN
 62
     7
370
     0
100
AcDbLine
 10
148.2286566299
 20
110.1192814714
 30
0.0
 11
148.2286566299
 21
116.0237133354
 31
0.0
  0
LINE
  5
15B
330
1F
100
AcDbEntity
  8
0
  6
HIDDEN
 62
     7
370
     0
100
AcDbLine
 10
144.0286566299
 20
116.0219963116
 30
0.0
 11
144.0286566299
 21
111.3578054665
 31
0.0
  0
ARC
  5
15C
330
1F
100
AcDbEntity
  8
0
  6
HIDDEN
 62
     7
370
     0
100
AcDbCircle
 10
235.5286566299
 20
132.4727145529
 30
0.0
 40
1.0
100
AcDbArc
 50
270.0
 51
0.0
  0
ARC
  5
15D
330
1F
100
AcDbEntity
  8
0
  6
HIDDEN
 62
     7
370
     0
100
AcDbCircle
 10
235.5286566299
 20
102.4727145529
 30
0.0
 40
1.0
100
AcDbArc
 50
0.0
 51
90.0
  0
ARC
  5
15E
330
1F
100
AcDbEntity
  8
0
  6
HIDDEN
 62
     7
370
     0
100
AcDbCircle
 10
210.8970041324
 20
130.9727145529
 30
0.0
 40
1.000000000000003
100
AcDbArc
 50
75.0
 51
90.0
  0
ARC
  5
15F
330
1F
100
AcDbEntity
  8
0
  6
HIDDEN
 62
     7
370
     0
100
AcDbCircle
 10
210.8970041324
 20
103.9727145529
 30
0.0
 40
1.0
100
AcDbArc
 50
270.0
 51
285.0
  0
LINE
  5
160
330
1F
100
AcDbEntity
  8
0
  6
HIDDEN
 62
     7
370
     0
100
AcDbLine
 10
210.8970041324
 20
131.9727145529
 30
0.0
 11
209.0286566299
 21
131.9727145529
 31
0.0
  0
LINE
  5
161
330
1F
100
AcDbEntity
  8
0
  6
HIDDEN
 62
     7
370
     0
100
AcDbLine
 10
209.0286566299
 20
102.9727145529
 30
0.0
 11
210.8970041324
 21
102.9727145529
 31
0.0
  0
ARC
  5
162
330
1F
100
AcDbEntity
  8
0
  6
HIDDEN
 62
     7
370
     0
100
AcDbCircle
 10
209.0286566299
 20
130.9727145529
 30
0.0
 40
1.0
100
AcDbArc
 50
90.0
 51
180.0
  0
ARC
  5
163
330
1F
100
AcDbEntity
  8
0
  6
HIDDEN
 62
     7
370
     0
100
AcDbCircle
 10
209.0286566299
 20
103.9727145529
 30
0.0
 40
1.0
100
AcDbArc
 50
180.0
 51
270.0
  0
LINE
  5
164
330
1F
100
AcDbEntity
  8
0
  6
HIDDEN
 62
     7
370
     0
100
AcDbLine
 10
211.1558231775
 20
103.0067887266
 30
0.0
 11
212.8946820337
 21
103.4727145529
 31
0.0
  0
LINE
  5
165
330
1F
100
AcDbEntity
  8
0
  6
HIDDEN
 62
     7
370
     0
100
AcDbLine
 10
212.8946820337
 20
131.4727145529
 30
0.0
 11
211.1558231775
 21
131.9386403791
 31
0.0
  0
LINE
  5
166
330
1F
100
AcDbEntity
  8
0
  6
HIDDEN
 62
     7
370
     0
100
AcDbLine
 10
216.9891163158
 20
131.4727145529
 30
0.0
 11
212.8946820337
 21
131.4727145529
 31
0.0
  0
LINE
  5
167
330
1F
100
AcDbEntity
  8
0
  6
HIDDEN
 62
     7
370
     0
100
AcDbLine
 10
235.5286566299
 20
131.4727145529
 30
0.0
 11
227.9775296538
 21
131.4727145529
 31
0.0
  0
LINE
  5
168
330
1F
100
AcDbEntity
  8
0
  6
HIDDEN
 62
     7
370
     0
100
AcDbLine
 10
212.8946820337
 20
103.4727145529
 30
0.0
 11
235.5286566299
 21
103.4727145529
 31
0.0
  0
ARC
  5
169
330
1F
100
AcDbEntity
  8
0
  6
HIDDEN
 62
     7
370
     0
100
AcDbCircle
 10
64.9286566299
 20
108.1727145529
 30
0.0
 40
0.7999999999999972
100
AcDbArc
 50
90.0
 51
180.0
  0
ARC
  5
16A
330
1F
100
AcDbEntity
  8
0
  6
HIDDEN
 62
     7
370
     0
100
AcDbCircle
 10
64.9286566299
 20
126.7727145529
 30
0.0
 40
0.7999999999999972
100
AcDbArc
 50
180.0
 51
270.0
  0
ARC
  5
16B
330
1F
100
AcDbEntity
  8
0
  6
HIDDEN
 62
     7
370
     0
100
AcDbCircle
 10
72.0210290607
 20
109.1477145529
 30
0.0
 40
0.4000000000000096
100
AcDbArc
 50
255.0
 51
270.0
  0
ARC
  5
16C
330
1F
100
AcDbEntity
  8
0
  6
HIDDEN
 62
     7
370
     0
100
AcDbCircle
 10
72.0210290607
 20
125.7977145529
 30
0.0
 40
0.4000000000000234
100
AcDbArc
 50
90.0
 51
105.0
  0
LINE
  5
16D
330
1F
100
AcDbEntity
  8
0
  6
HIDDEN
 62
     7
370
     0
100
AcDbLine
 10
72.0210290607
 20
108.7477145529
 30
0.0
 11
72.8977165223
 21
108.7477145529
 31
0.0
  0
LINE
  5
16E
330
1F
100
AcDbEntity
  8
0
  6
HIDDEN
 62
     7
370
     0
100
AcDbLine
 10
72.8977165223
 20
126.1977145529
 30
0.0
 11
72.0210290607
 21
126.1977145529
 31
0.0
  0
ARC
  5
16F
330
1F
100
AcDbEntity
  8
0
  6
HIDDEN
 62
     7
370
     0
100
AcDbCircle
 10
72.8977165223
 20
109.1477145529
 30
0.0
 40
0.4000000000000069
100
AcDbArc
 50
270.0
 51
330.0
  0
ARC
  5
170
330
1F
100
AcDbEntity
  8
0
  6
HIDDEN
 62
     7
370
     0
100
AcDbCircle
 10
72.8977165223
 20
125.7977145529
 30
0.0
 40
0.4000000000000057
100
AcDbArc
 50
30.0
 51
90.0
  0
LINE
  5
171
330
1F
100
AcDbEntity
  8
0
  6
HIDDEN
 62
     7
370
     0
100
AcDbLine
 10
71.9175014426
 20
126.1840848834
 30
0.0
 11
71.1286566299
 21
125.9727145529
 31
0.0
  0
LINE
  5
172
330
1F
100
AcDbEntity
  8
0
  6
HIDDEN
 62
     7
370
     0
100
AcDbLine
 10
71.1286566299
 20
108.9727145529
 30
0.0
 11
71.9175014426
 21
108.7613442223
 31
0.0
  0
LINE
  5
173
330
1F
100
AcDbEntity
  8
0
  6
HIDDEN
 62
     7
370
     0
100
AcDbLine
 10
73.2441266838
 20
108.9477145529
 30
0.0
 11
74.1245858443
 21
110.4727145529
 31
0.0
  0
LINE
  5
174
330
1F
100
AcDbEntity
  8
0
  6
HIDDEN
 62
     7
370
     0
100
AcDbLine
 10
74.1245858443
 20
124.4727145529
 30
0.0
 11
73.2441266838
 21
125.9977145529
 31
0.0
  0
LINE
  5
175
330
1F
100
AcDbEntity
  8
0
  6
HIDDEN
 62
     7
370
     0
100
AcDbLine
 10
64.9286566299
 20
108.9727145529
 30
0.0
 11
71.1286566299
 21
108.9727145529
 31
0.0
  0
LINE
  5
176
330
1F
100
AcDbEntity
  8
0
  6
HIDDEN
 62
     7
370
     0
100
AcDbLine
 10
71.1286566299
 20
125.9727145529
 30
0.0
 11
64.9286566299
 21
125.9727145529
 31
0.0
  0
ARC
  5
177
330
1F
100
AcDbEntity
  8
0
  6
HIDDEN
 62
     7
370
     0
100
AcDbCircle
 10
150.9286566299
 20
141.5727145529
 30
0.0
 40
1.600000000000023
100
AcDbArc
 50
270.0
 51
0.0
  0
ARC
  5
178
330
1F
100
AcDbEntity
  8
0
  6
HIDDEN
 62
     7
370
     0
100
AcDbCircle
 10
150.9286566299
 20
93.3727145529
 30
0.0
 40
1.600000000000023
100
AcDbArc
 50
0.0
 51
90.0
  0
LINE
  5
179
330
1F
100
AcDbEntity
  8
0
  6
HIDDEN
 62
     7
370
     0
100
AcDbLine
 10
152.5286566299
 20
86.8723570919
 30
0.0
 11
152.5286566299
 21
93.3727145529
 31
0.0
  0
LINE
  5
17A
330
1F
100
AcDbEntity
  8
0
  6
HIDDEN
 62
     7
370
     0
100
AcDbLine
 10
152.5286566299
 20
141.5727145529
 30
0.0
 11
152.5286566299
 21
148.0730085665
 31
0.0
  0
LINE
  5
17B
330
1F
100
AcDbEntity
  8
0
  6
HIDDEN
 62
     7
370
     0
100
AcDbLine
 10
214.9786566299
 20
142.4727145529
 30
0.0
 11
216.9786566299
 21
140.4727145529
 31
0.0
  0
LINE
  5
17C
330
1F
100
AcDbEntity
  8
0
  6
HIDDEN
 62
     7
370
     0
100
AcDbLine
 10
227.9786566299
 20
140.4727145529
 30
0.0
 11
229.9786566299
 21
142.4727145529
 31
0.0
  0
LINE
  5
17D
330
1F
100
AcDbEntity
  8
0
  6
HIDDEN
 62
     7
370
     0
100
AcDbLine
 10
74.1245858443
 20
110.4727145529
 30
0.0
 11
107.1286566299
 21
110.4727145529
 31
0.0
  0
LINE
  5
17E
330
1F
100
AcDbEntity
  8
0
  6
HIDDEN
 62
     7
370
     0
100
AcDbLine
 10
107.1286566299
 20
124.4727145529
 30
0.0
 11
74.1245858443
 21
124.4727145529
 31
0.0
  0
LINE
  5
17F
330
1F
100
AcDbEntity
  8
0
  6
HIDDEN
 62
     7
370
     0
100
AcDbLine
 10
107.1286566299
 20
110.4727145529
 30
0.0
 11
108.7810233323
 21
113.2227145529
 31
0.0
  0
LINE
  5
180
330
1F
100
AcDbEntity
  8
0
  6
HIDDEN
 62
     7
370
     0
100
AcDbLine
 10
108.7810233323
 20
121.7227145529
 30
0.0
 11
107.1286566299
 21
124.4727145529
 31
0.0
  0
LINE
  5
181
330
1F
100
AcDbEntity
  8
0
  6
HIDDEN
 62
     7
370
     0
100
AcDbLine
 10
152.52865572
 20
147.9727143409
 30
0.0
 11
153.5286550893
 21
148.9727140877
 31
0.0
  0
LINE
  5
182
330
1F
100
AcDbEntity
  8
0
  6
HIDDEN
 62
     7
370
     0
100
AcDbLine
 10
153.5286629913
 20
85.9727134152
 30
0.0
 11
152.5286627424
 21
86.9727132197
 31
0.0
  0
LINE
  5
183
330
1F
100
AcDbEntity
  8
0
  6
HIDDEN
 62
     7
370
     0
100
AcDbLine
 10
216.9786566299
 20
140.4727145529
 30
0.0
 11
216.9786566299
 21
131.4686278874
 31
0.0
  0
LINE
  5
184
330
1F
100
AcDbEntity
  8
0
  6
HIDDEN
 62
     7
370
     0
100
AcDbLine
 10
227.9786566299
 20
131.4722729027
 30
0.0
 11
227.9786566299
 21
140.4727145529
 31
0.0
  0
LINE
  5
185
330
1F
100
AcDbEntity
  8
0
  6
HIDDEN
 62
     7
370
     0
100
AcDbLine
 10
208.0286566299
 20
121.7227145529
 30
0.0
 11
108.7810233323
 21
121.7227145529
 31
0.0
  0
LINE
  5
186
330
1F
100
AcDbEntity
  8
0
  6
HIDDEN
 62
     7
370
     0
100
AcDbLine
 10
108.7810233323
 20
113.2227145529
 30
0.0
 11
208.0286566299
 21
113.2227145529
 31
0.0
  0
LINE
  5
187
330
1F
100
AcDbEntity
  8
0
  6
HIDDEN
 62
     7
370
     0
100
AcDbLine
 10
148.2286566299
 20
118.9234327941
 30
0.0
 11
148.2286566299
 21
126.5748750018
 31
0.0
  0
LINE
  5
188
330
1F
100
AcDbEntity
  8
0
  6
HIDDEN
 62
     7
370
     0
100
AcDbLine
 10
144.0286566299
 20
123.5886415561
 30
0.0
 11
144.0286566299
 21
118.9217157703
 31
0.0
  0
LINE
  5
189
330
1F
100
AcDbEntity
  8
0
  6
HIDDEN
 62
     7
370
     0
100
AcDbLine
 10
144.0286566299
 20
126.5748750018
 30
0.0
 11
144.0286566299
 21
124.8895223289
 31
0.0
  0
LINE
  5
18A
330
1F
100
AcDbEntity
  8
0
  6
HIDDEN
 62
     7
370
     0
100
AcDbLine
 10
132.6008543578
 20
124.8136751753
 30
0.0
 11
144.6780460337
 21
122.4288474267
 31
0.0
  0
LINE
  5
18B
330
1F
100
AcDbEntity
  8
0
  6
HIDDEN
 62
     7
370
     0
100
AcDbLine
 10
144.6779234574
 20
125.7925941727
 30
0.0
 11
133.2401456243
 21
128.0511597972
 31
0.0
  0
LINE
  5
18C
330
1F
100
AcDbEntity
  8
0
  6
HIDDEN
 62
     7
370
     0
100
AcDbLine
 10
131.5286566299
 20
124.5667077145
 30
0.0
 11
132.3718349149
 21
124.4002091588
 31
0.0
  0
LINE
  5
18D
330
1F
100
AcDbEntity
  8
0
  6
HIDDEN
 62
     7
370
     0
100
AcDbLine
 10
133.185478345
 20
128.520644132
 30
0.0
 11
131.5286566299
 21
128.8478091308
 31
0.0
  0
LINE
  5
18E
330
1F
100
AcDbEntity
  8
0
  6
HIDDEN
 62
     7
370
     0
100
AcDbLine
 10
228.4786566299
 20
139.7727145529
 30
0.0
 11
227.7786566299
 21
140.4727145529
 31
0.0
  0
LINE
  5
18F
330
1F
100
AcDbEntity
  8
0
  6
HIDDEN
 62
     7
370
     0
100
AcDbLine
 10
217.1786566299
 20
140.4727145529
 30
0.0
 11
216.4786566299
 21
139.7727145529
 31
0.0
  0
LINE
  5
190
330
1F
100
AcDbEntity
  8
0
  6
HIDDEN
 62
     7
370
     0
100
AcDbLine
 10
216.4786566299
 20
139.7727145529
 30
0.0
 11
216.4786566299
 21
132.3698288699
 31
0.0
  0
LINE
  5
191
330
1F
100
AcDbEntity
  8
0
  6
HIDDEN
 62
     7
370
     0
100
AcDbLine
 10
228.4786566299
 20
132.3698288699
 30
0.0
 11
228.4786566299
 21
139.7727145529
 31
0.0
  0
LINE
  5
192
330
1F
100
AcDbEntity
  8
0
  6
HIDDEN
 62
     7
370
     0
100
AcDbLine
 10
216.4786566299
 20
132.3698288699
 30
0.0
 11
218.6690769785
 21
124.1950688393
 31
0.0
  0
LINE
  5
193
330
1F
100
AcDbEntity
  8
0
  6
HIDDEN
 62
     7
370
     0
100
AcDbLine
 10
226.2882362814
 20
124.1950688393
 30
0.0
 11
228.4786566299
 21
132.3698288699
 31
0.0
  0
ARC
  5
194
330
1F
100
AcDbEntity
  8
0
  6
HIDDEN
 62
     7
370
     0
100
AcDbCircle
 10
218.9588547263
 20
124.2727145529
 30
0.0
 40
0.3000000000000205
100
AcDbArc
 50
195.0
 51
270.0
  0
ARC
  5
195
330
1F
100
AcDbEntity
  8
0
  6
HIDDEN
 62
     7
370
     0
100
AcDbCircle
 10
225.9984585335
 20
124.2727145529
 30
0.0
 40
0.299999999999993
100
AcDbArc
 50
270.0
 51
345.0
  0
LINE
  5
196
330
1F
100
AcDbEntity
  8
0
  6
HIDDEN
 62
     7
370
     0
100
AcDbLine
 10
218.8786566299
 20
140.4727145529
 30
0.0
 11
219.0160621267
 21
140.3353090561
 31
0.0
  0
LINE
  5
197
330
1F
100
AcDbEntity
  8
0
  6
HIDDEN
 62
     7
370
     0
100
AcDbLine
 10
225.9441771823
 20
140.3382351052
 30
0.0
 11
226.0786566299
 21
140.4727145529
 31
0.0
  0
LINE
  5
198
330
1F
100
AcDbEntity
  8
0
  6
HIDDEN
 62
     7
370
     0
100
AcDbLine
 10
219.4786566299
 20
133.4727145529
 30
0.0
 11
219.4786566299
 21
132.4727145529
 31
0.0
  0
LINE
  5
199
330
1F
100
AcDbEntity
  8
0
  6
HIDDEN
 62
     7
370
     0
100
AcDbLine
 10
225.4786566299
 20
132.4727145529
 30
0.0
 11
225.4786566299
 21
133.4727145529
 31
0.0
  0
LINE
  5
19A
330
1F
100
AcDbEntity
  8
0
  6
HIDDEN
 62
     7
370
     0
100
AcDbLine
 10
219.4786566299
 20
132.4727145529
 30
0.0
 11
222.4786566299
 21
131.3808038501
 31
0.0
  0
LINE
  5
19B
330
1F
100
AcDbEntity
  8
0
  6
HIDDEN
 62
     7
370
     0
100
AcDbLine
 10
222.4786566299
 20
131.3808038501
 30
0.0
 11
225.4786566299
 21
132.4727145529
 31
0.0
  0
LINE
  5
19C
330
1F
100
AcDbEntity
  8
0
  6
HIDDEN
 62
     7
370
     0
100
AcDbLine
 10
131.9736566299
 20
109.115904483
 30
0.0
 11
131.9736566299
 21
108.961881454
 31
0.0
  0
LINE
  5
19D
330
1F
100
AcDbEntity
  8
0
  6
HIDDEN
 62
     7
370
     0
100
AcDbLine
 10
132.2153448763
 20
107.737929209
 30
0.0
 11
132.2738904763
 21
107.5954669116
 31
0.0
  0
LINE
  5
19E
330
1F
100
AcDbEntity
  8
0
  6
HIDDEN
 62
     7
370
     0
100
AcDbLine
 10
133.3611058824
 20
106.5613963256
 30
0.0
 11
135.1146630409
 21
106.9076632296
 31
0.0
  0
LINE
  5
19F
330
1F
100
AcDbEntity
  8
0
  6
HIDDEN
 62
     7
370
     0
100
AcDbLine
 10
134.339764536
 20
110.8318870136
 30
0.0
 11
132.5862073775
 21
110.4856201096
 31
0.0
  0
LINE
  5
1A0
330
1F
100
AcDbEntity
  8
0
  6
HIDDEN
 62
     7
370
     0
100
AcDbLine
 10
135.5459026177
 20
107.3055736067
 30
0.0
 11
135.8884133596
 21
108.0204067285
 31
0.0
  0
LINE
  5
1A1
330
1F
100
AcDbEntity
  8
0
  6
HIDDEN
 62
     7
370
     0
100
AcDbLine
 10
135.478402602
 20
110.0967740937
 30
0.0
 11
134.8898854055
 21
110.627761391
 31
0.0
  0
LINE
  5
1A2
330
1F
100
AcDbEntity
  8
0
  6
HIDDEN
 62
     7
370
     0
100
AcDbLine
 10
134.8898854055
 20
124.3176677147
 30
0.0
 11
135.478402602
 21
124.848655012
 31
0.0
  0
LINE
  5
1A3
330
1F
100
AcDbEntity
  8
0
  6
HIDDEN
 62
     7
370
     0
100
AcDbLine
 10
135.8884133596
 20
126.9250223772
 30
0.0
 11
135.5459026177
 21
127.6398554991
 31
0.0
  0
LINE
  5
1A4
330
1F
100
AcDbEntity
  8
0
  6
HIDDEN
 62
     7
370
     0
100
AcDbLine
 10
132.5862073775
 20
124.4598089961
 30
0.0
 11
134.339764536
 21
124.1135420921
 31
0.0
  0
LINE
  5
1A5
330
1F
100
AcDbEntity
  8
0
  6
HIDDEN
 62
     7
370
     0
100
AcDbLine
 10
135.1146630409
 20
128.0377658762
 30
0.0
 11
133.3611058824
 21
128.3840327801
 31
0.0
  0
LINE
  5
1A6
330
1F
100
AcDbEntity
  8
0
  6
HIDDEN
 62
     7
370
     0
100
AcDbLine
 10
132.2738904763
 20
127.3499621941
 30
0.0
 11
132.2153448763
 21
127.2074998967
 31
0.0
  0
LINE
  5
1A7
330
1F
100
AcDbEntity
  8
0
  6
HIDDEN
 62
     7
370
     0
100
AcDbLine
 10
131.9736566299
 20
125.9835476517
 30
0.0
 11
131.9736566299
 21
125.8295246227
 31
0.0
  0
LINE
  5
1A8
330
1F
100
AcDbEntity
  8
0
  6
HIDDEN
 62
     7
370
     0
100
AcDbLine
 10
143.6286566299
 20
126.4483762383
 30
0.0
 11
143.6286566299
 21
125.4246828852
 31
0.0
  0
LINE
  5
1A9
330
1F
100
AcDbEntity
  8
0
  6
HIDDEN
 62
     7
370
     0
100
AcDbLine
 10
148.6286566299
 20
125.4246828852
 30
0.0
 11
148.6286566299
 21
126.4483762383
 31
0.0
  0
DIMENSION
  5
1AA
330
1F
100
AcDbEntity
  8
VERMASSUNG
100
AcDbDimension
  2
_D
 10
54.1286566299
 20
148.9727145529
 30
0.0
 11
54.1286566299
 21
117.4727145529
 31
0.0
 70
   160
  1
MAS-BT 40 %%c<>
 71
     2
 42
-1.0
  3
SLDDIMSTYLE0
100
AcDbAlignedDimension
 13
155.5286566299
 23
85.9727145529
 33
0.0
 14
155.5286566299
 24
148.9727145529
 34
0.0
 50
90.0
100
AcDbRotatedDimension
  0
DIMENSION
  5
1B7
330
1F
100
AcDbEntity
  8
VERMASSUNG
100
AcDbDimension
  2
_D_1
 10
236.5286566299
 20
165.0727145529
 30
0.0
 11
150.3286566299
 21
165.0727145529
 31
0.0
 70
   160
  1
<>
 71
     2
 42
-1.0
  3
SLDDIMSTYLE0
100
AcDbAlignedDimension
 13
64.1286566299
 23
129.2954701499
 33
0.0
 14
236.5286566299
 24
141.9727145529
 34
0.0
100
AcDbRotatedDimension
  0
DIMENSION
  5
1C1
330
1F
100
AcDbEntity
  8
VERMASSUNG
100
AcDbDimension
  2
_D_2
 10
236.5286566299
 20
159.0727145529
 30
0.0
 11
183.0286566299
 21
159.0727145529
 31
0.0
 70
   160
  1
<>
 71
     2
 42
-1.0
  3
SLDDIMSTYLE0
100
AcDbAlignedDimension
 13
129.5286566299
 23
139.6977145529
 33
0.0
 14
236.5286566299
 24
141.9727145529
 34
0.0
100
AcDbRotatedDimension
  0
DIMENSION
  5
1CB
330
1F
100
AcDbEntity
  8
VERMASSUNG
100
AcDbDimension
  2
_D_3
 10
236.5286566299
 20
153.0727145529
 30
0.0
 11
196.5286566299
 21
153.0727145529
 31
0.0
 70
   160
  1
<>
 71
     2
 42
-1.0
  3
SLDDIMSTYLE0
100
AcDbAlignedDimension
 13
156.5286566299
 23
147.9727145529
 33
0.0
 14
236.5286566299
 24
141.9727145529
 34
0.0
100
AcDbRotatedDimension
  0
DIMENSION
  5
1D5
330
1F
100
AcDbEntity
  8
VERMASSUNG
100
AcDbDimension
  2
_D_4
 10
249.6655079272
 20
92.4727145529
 30
0.0
 11
249.6655079272
 21
117.4727145529
 31
0.0
 70
   160
  1
%%c<>
 71
     2
 42
-1.0
  3
SLDDIMSTYLE0
100
AcDbAlignedDimension
 13
236.0286566299
 23
142.4727145529
 33
0.0
 14
236.0286566299
 24
92.4727145529
 34
0.0
 50
90.0
100
AcDbRotatedDimension
  0
DIMENSION
  5
1E0
330
1F
100
AcDbEntity
  8
VERMASSUNG
100
AcDbDimension
  2
_D_5
 10
243.6655079272
 20
103.4727145529
 30
0.0
 11
243.6655079272
 21
117.4727145529
 31
0.0
 70
   160
  1
%%c<>
 71
     2
 42
-1.0
  3
SLDDIMSTYLE0
100
AcDbAlignedDimension
 13
235.5286566299
 23
131.4727145529
 33
0.0
 14
235.5286566299
 24
103.4727145529
 34
0.0
 50
90.0
100
AcDbRotatedDimension
  0
LINE
  5
1EB
330
1F
100
AcDbEntity
  8
VERMASSUNG
  6
CENTERX2
370
     0
100
AcDbLine
 10
62.1286566299
 20
117.4727145529
 30
0.0
 11
239.8864152506
 21
117.4727145529
 31
0.0
  0
LINE
  5
1EC
330
1F
100
AcDbEntity
  8
0
  6
Continuous
 62
     7
370
    15
100
AcDbLine
 10
274.9813946768
 20
19.6163257044
 30
0.0
 11
275.158142641
 21
19.7183933045
 31
0.0
  0
LINE
  5
1ED
330
1F
100
AcDbEntity
  8
0
  6
Continuous
 62
     7
370
    15
100
AcDbLine
 10
283.8187928824
 20
34.7207050811
 30
0.0
 11
283.8187928824
 21
34.9248071091
 31
0.0
  0
LINE
  5
1EE
330
1F
100
AcDbEntity
  8
0
  6
Continuous
 62
     7
370
    15
100
AcDbLine
 10
281.2294501966
 20
40.6478671899
 30
0.0
 11
254.1826158162
 21
56.2616723285
 31
0.0
  0
LINE
  5
1EF
330
1F
100
AcDbEntity
  8
0
  6
Continuous
 62
     7
370
    15
100
AcDbLine
 10
241.6836316583
 20
34.610450769
 30
0.0
 11
268.7304660386
 21
18.9966456304
 31
0.0
  0
SPLINE
  5
1F0
330
1F
100
AcDbEntity
  8
0
  6
Continuous
 62
     7
370
    15
100
AcDbSpline
210
0.0
220
0.0
230
1.0
 70
     8
 71
     3
 72
    26
 73
    22
 74
     0
 42
0.000000001
 43
0.00000001
 40
0.0
 40
0.0
 40
0.0
 40
0.0
 40
0.0024839246411619
 40
0.0628374358873801
 40
0.1230626116226904
 40
0.1813508742994598
 40
0.2380878438546999
 40
0.2940643582498127
 40
0.3497926864029577
 40
0.4054950094108159
 40
0.4612723373875963
 40
0.5171636028200547
 40
0.5731615569365061
 40
0.6292389209544131
 40
0.6853604990968065
 40
0.7414882023657249
 40
0.7975715114007612
 40
0.8535692048360307
 40
0.9094429822846603
 40
0.9651603167234164
 40
1.0
 40
1.0
 40
1.0
 40
1.0
 10
271.2951365691322
 20
23.86957576349634
 30
0.0
 10
271.2888086308556
 20
23.87235629831763
 30
0.0
 10
271.1287267148573
 20
23.94269727230301
 30
0.0
 10
270.8720933305172
 20
24.17833690854797
 30
0.0
 10
270.5338635956609
 20
24.58788291459587
 30
0.0
 10
270.2765859606671
 20
25.11021597548208
 30
0.0
 10
270.098096163687
 20
25.71436836353494
 30
0.0
 10
270.0026848354363
 20
26.39310026943443
 30
0.0
 10
269.9914833048517
 20
27.13516382364058
 30
0.0
 10
270.0658795070685
 20
27.92873176089124
 30
0.0
 10
270.2257107701883
 20
28.75976004513688
 30
0.0
 10
270.4691562736964
 20
29.61313947308372
 30
0.0
 10
270.7925719217725
 20
30.47301681442742
 30
0.0
 10
271.1905209801003
 20
31.32323448265157
 30
0.0
 10
271.6558926074946
 20
32.14776382733132
 30
0.0
 10
272.1800320196286
 20
32.9310930469016
 30
0.0
 10
272.7528961734995
 20
33.65838715268725
 30
0.0
 10
273.3633272288338
 20
34.31668712553378
 30
0.0
 10
273.9989591932295
 20
34.89205829029115
 30
0.0
 10
274.5672829066836
 20
35.32114960926654
 30
0.0
 10
274.9181667840697
 20
35.53360273676125
 30
0.0
 10
275.0531611054752
 20
35.61533908210228
 30
0.0
  0
SPLINE
  5
1F1
330
1F
100
AcDbEntity
  8
0
  6
Continuous
 62
     7
370
    15
100
AcDbSpline
210
0.0
220
0.0
230
1.0
 70
     8
 71
     3
 72
    14
 73
    10
 74
     0
 42
0.000000001
 43
0.00000001
 40
0.0
 40
0.0
 40
0.0
 40
0.0
 40
0.0845074939746613
 40
0.245792553494842
 40
0.4069976305837436
 40
0.5687265701297084
 40
0.7323852214384713
 40
0.900139422878728
 40
1.0
 40
1.0
 40
1.0
 40
1.0
 10
275.0531611054752
 20
35.61533908210228
 30
0.0
 10
275.1651139333525
 20
35.67729826752448
 30
0.0
 10
275.4907320547842
 20
35.85750839660426
 30
0.0
 10
276.0199118587366
 20
36.07728303789288
 30
0.0
 10
276.6203524299379
 20
36.2362359437988
 30
0.0
 10
277.1815975862456
 20
36.28885034475835
 30
0.0
 10
277.6936572793184
 20
36.23384841725678
 30
0.0
 10
278.0981097215101
 20
36.11426927539183
 30
0.0
 10
278.3085896276069
 20
35.97092127867405
 30
0.0
 10
278.3871303009144
 20
35.91743090808105
 30
0.0
  0
SPLINE
  5
1F2
330
1F
100
AcDbEntity
  8
0
  6
Continuous
 62
     7
370
    15
100
AcDbSpline
210
0.0
220
0.0
230
1.0
 70
     8
 71
     3
 72
    13
 73
     9
 74
     0
 42
0.000000001
 43
0.00000001
 40
0.0
 40
0.0
 40
0.0
 40
0.0
 40
0.084154900336887
 40
0.2856791392473352
 40
0.4886151921878045
 40
0.6929308999619918
 40
0.8983462957359679
 40
0.9999999999999999
 40
0.9999999999999999
 40
0.9999999999999999
 40
0.9999999999999999
 10
240.5254160485993
 20
31.94725988330595
 30
0.0
 10
240.6440663205121
 20
31.92234910802811
 30
0.0
 10
241.0468462824136
 20
31.83778494348315
 30
0.0
 10
241.7800462504083
 20
31.81663383039092
 30
0.0
 10
242.7160861355522
 20
31.87932982067086
 30
0.0
 10
243.6867864659818
 20
32.07184746526372
 30
0.0
 10
244.510534732844
 20
32.3081658777732
 30
0.0
 10
245.0117470424538
 20
32.5224478628845
 30
0.0
 10
245.1776708944085
 20
32.59338485244457
 30
0.0
  0
SPLINE
  5
1F3
330
1F
100
AcDbEntity
  8
0
  6
Continuous
 62
     7
370
    15
100
AcDbSpline
210
0.0
220
0.0
230
1.0
 70
     8
 71
     3
 72
    13
 73
     9
 74
     0
 42
0.000000001
 43
0.00000001
 40
0.0
 40
0.0
 40
0.0
 40
0.0
 40
0.0243917127804333
 40
0.2285621162852501
 40
0.4324933600150061
 40
0.6358624192650714
 40
0.8382676825002784
 40
1.0
 40
1.0
 40
1.0
 40
1.0
 10
257.684480836843
 20
54.2400886827417
 30
0.0
 10
257.6802978939614
 20
54.28438383080396
 30
0.0
 10
257.6411017011424
 20
54.69945073788885
 30
0.0
 10
257.4786561457846
 20
55.42573097304637
 30
0.0
 10
257.1923476456144
 20
56.40428079606895
 30
0.0
 10
256.804361015916
 20
57.29140701641668
 30
0.0
 10
256.3715374907186
 20
58.04803673085021
 30
0.0
 10
256.0288125384039
 20
58.45995881136514
 30
0.0
 10
255.876590675747
 20
58.64291469462368
 30
0.0
  0
LINE
  5
1F4
330
1F
100
AcDbEntity
  8
0
  6
Continuous
 62
     7
370
    15
100
AcDbLine
 10
237.0977540715
 20
33.5051464504
 30
0.0
 11
238.6445501553
 21
32.6122000781
 31
0.0
  0
LINE
  5
1F5
330
1F
100
AcDbEntity
  8
0
  6
Continuous
 62
     7
370
    15
100
AcDbLine
 10
254.3932701944
 20
59.8927392431
 30
0.0
 11
252.8464741105
 21
60.7856856154
 31
0.0
  0
LINE
  5
1F6
330
1F
100
AcDbEntity
  8
0
  6
Continuous
 62
     7
370
    15
100
AcDbLine
 10
249.2932625351
 20
62.8369109964
 30
0.0
 11
246.2615422107
 21
64.5870858861
 31
0.0
  0
SPLINE
  5
1F7
330
1F
100
AcDbEntity
  8
0
  6
Continuous
 62
     7
370
    15
100
AcDbSpline
210
0.0
220
0.0
230
1.0
 70
     8
 71
     3
 72
    29
 73
    25
 74
     0
 42
0.000000001
 43
0.00000001
 40
0.0
 40
0.0
 40
0.0
 40
0.0
 40
0.0133927248722024
 40
0.0611037225093159
 40
0.1091460566212478
 40
0.1575186189244347
 40
0.2061585364705147
 40
0.2549792538961843
 40
0.3039003846837561
 40
0.3528616769470711
 40
0.4018172457087933
 40
0.4507492348521577
 40
0.499651424092319
 40
0.5485238792731865
 40
0.5973702605631223
 40
0.6461961714246046
 40
0.6950082129747499
 40
0.7438134794369841
 40
0.7926193114099488
 40
0.8414313907424509
 40
0.8902565841843246
 40
0.939102459384446
 40
0.9879764309640321
 40
1.0
 40
1.0
 40
1.0
 40
1.0
 10
244.3354598638122
 20
65.26250245831086
 30
0.0
 10
244.2559783902284
 20
65.27980152400526
 30
0.0
 10
243.8933476371266
 20
65.35872775596691
 30
0.0
 10
243.2026827621752
 20
65.38228206574155
 30
0.0
 10
242.2700954593847
 20
65.32963044066898
 30
0.0
 10
241.3019330844603
 20
65.15110655798972
 30
0.0
 10
240.3103139394423
 20
64.85896342333548
 30
0.0
 10
239.3025435902219
 20
64.4523202964265
 30
0.0
 10
238.2876608087164
 20
63.9355343482443
 30
0.0
 10
237.2742571838333
 20
63.31305988934263
 30
0.0
 10
236.2707489734524
 20
62.59054110002989
 30
0.0
 10
235.2851992557526
 20
61.77427400047992
 30
0.0
 10
234.3253269461657
 20
60.87114866604705
 30
0.0
 10
233.3985878938143
 20
59.88862304984539
 30
0.0
 10
232.5121710119512
 20
58.83469643805655
 30
0.0
 10
231.6729683835402
 20
57.71786488130883
 30
0.0
 10
230.8875261464333
 20
56.54706866781258
 30
0.0
 10
230.1620279498809
 20
55.33163921357389
 30
0.0
 10
229.5021475030271
 20
54.08122084879356
 30
0.0
 10
228.9134055410952
 20
52.80578575746429
 30
0.0
 10
228.3995999308535
 20
51.51518809412892
 30
0.0
 10
227.9684721542073
 20
50.22041244403903
 30
0.0
 10
227.7004740724383
 20
49.25347138939455
 30
0.0
 10
227.584287727446
 20
48.72350288072865
 30
0.0
 10
227.5613479744456
 20
48.61886625851987
 30
0.0
  0
LINE
  5
1F8
330
1F
100
AcDbEntity
  8
0
  6
Continuous
 62
     7
370
    15
100
AcDbLine
 10
237.2475415085
 20
63.2759628475
 30
0.0
 11
217.3620445333
 21
70.4419077235
 31
0.0
  0
LINE
  5
1F9
330
1F
100
AcDbEntity
  8
0
  6
Continuous
 62
     7
370
    15
100
AcDbLine
 10
210.9905751219
 20
59.4050031125
 30
0.0
 11
230.0184492082
 21
43.3380235351
 31
0.0
  0
LINE
  5
1FA
330
1F
100
AcDbEntity
  8
0
  6
Continuous
 62
     7
370
    15
100
AcDbLine
 10
230.5128221717
 20
37.3065467211
 30
0.0
 11
233.544542496
 21
35.5563718314
 31
0.0
  0
SPLINE
  5
1FB
330
1F
100
AcDbEntity
  8
0
  6
Continuous
 62
     7
370
    15
100
AcDbSpline
210
0.0
220
0.0
230
1.0
 70
     8
 71
     3
 72
    11
 73
     7
 74
     0
 42
0.000000001
 43
0.00000001
 40
0.0
 40
0.0
 40
0.0
 40
0.0
 40
0.1078312376036701
 40
0.4129458071939535
 40
0.7170952226502931
 40
1.0
 40
1.0
 40
1.0
 40
1.0
 10
227.5499851440094
 20
41.37370612306433
 30
0.0
 10
227.5836480910714
 20
41.25876651216
 30
0.0
 10
227.7125622457816
 20
40.81859878842582
 30
0.0
 10
228.0036708819239
 20
40.11117744097798
 30
0.0
 10
228.437191437354
 20
39.29878193202902
 30
0.0
 10
228.7937461373515
 20
38.84233222438231
 30
0.0
 10
228.9655718891337
 20
38.62236649635319
 30
0.0
  0
SPLINE
  5
1FC
330
1F
100
AcDbEntity
  8
0
  6
Continuous
 62
     7
370
    15
100
AcDbSpline
210
0.0
220
0.0
230
1.0
 70
     8
 71
     3
 72
    23
 73
    19
 74
     0
 42
0.000000001
 43
0.00000001
 40
0.0
 40
0.0
 40
0.0
 40
0.0
 40
0.0396183275435922
 40
0.1013663537595829
 40
0.164415432551543
 40
0.2288490926203872
 40
0.2942344514418336
 40
0.3600368209227183
 40
0.4258522471615145
 40
0.4915511847253749
 40
0.5571283084094731
 40
0.6226221197010924
 40
0.68808804638817
 40
0.7535847336272454
 40
0.8191590845993694
 40
0.8848769715546068
 40
0.9508004245408527
 40
1.0
 40
1.0
 40
1.0
 40
1.0
 10
217.148232363395
 20
70.49409292698768
 30
0.0
 10
217.0302851015034
 20
70.52608872937036
 30
0.0
 10
216.7285085093258
 20
70.60795230171766
 30
0.0
 10
216.1982022125264
 20
70.60736135456152
 30
0.0
 10
215.5746320466175
 20
70.50903108245127
 30
0.0
 10
214.9272819347091
 20
70.2902908642293
 30
0.0
 10
214.2704223569843
 20
69.95977670210327
 30
0.0
 10
213.6180019005598
 20
69.52247195608415
 30
0.0
 10
212.9845674200207
 20
68.98907304661739
 30
0.0
 10
212.3829605784927
 20
68.37157889717356
 30
0.0
 10
211.8244914320267
 20
67.68294151857224
 30
0.0
 10
211.3194375546329
 20
66.93683588377539
 30
0.0
 10
210.8771435932246
 20
66.1476559757474
 30
0.0
 10
210.5062019958825
 20
65.33050195020186
 30
0.0
 10
210.2134365923341
 20
64.50044043994255
 30
0.0
 10
210.0070618136751
 20
63.67378015303618
 30
0.0
 10
209.8951722628893
 20
62.9314798059519
 30
0.0
 10
209.8829371844257
 20
62.48223583255183
 30
0.0
 10
209.8777083377367
 20
62.29024459441872
 30
0.0
  0
SPLINE
  5
1FD
330
1F
100
AcDbEntity
  8
0
  6
Continuous
 62
     7
370
    15
100
AcDbSpline
210
0.0
220
0.0
230
1.0
 70
     8
 71
     3
 72
    13
 73
     9
 74
     0
 42
0.000000001
 43
0.00000001
 40
0.0
 40
0.0
 40
0.0
 40
0.0
 40
0.1136900231440132
 40
0.3288504876826222
 40
0.5439833558149852
 40
0.7568877006985673
 40
0.965309164281646
 40
1.0
 40
1.0
 40
1.0
 40
1.0
 10
209.8777083377367
 20
62.29024459441872
 30
0.0
 10
209.8804140964298
 20
62.15647724681841
 30
0.0
 10
209.8882405533271
 20
61.76955272804469
 30
0.0
 10
209.9765557500533
 20
61.16898251690044
 30
0.0
 10
210.1733651907758
 20
60.51913571985828
 30
0.0
 10
210.4759644229921
 20
59.96436772858271
 30
0.0
 10
210.7418556020568
 20
59.60503363876369
 30
0.0
 10
210.9262147563624
 20
59.46946324103647
 30
0.0
 10
210.9525218298982
 20
59.45011806430399
 30
0.0
  0
LINE
  5
1FE
330
1F
100
AcDbEntity
  8
0
  6
Continuous
 62
     7
370
    15
100
AcDbLine
 10
273.3206076123
 20
32.2359412796
 30
0.0
 11
275.9640505665
 21
32.7745229852
 31
0.0
  0
LINE
  5
1FF
330
1F
100
AcDbEntity
  8
0
  6
Continuous
 62
     7
370
    15
100
AcDbLine
 10
272.1341692893
 20
43.0187828653
 30
0.0
 11
272.0634471215
 21
43.0596231748
 31
0.0
  0
LINE
  5
200
330
1F
100
AcDbEntity
  8
0
  6
Continuous
 62
     7
370
    15
100
AcDbLine
 10
268.3151722286
 20
43.0596231748
 30
0.0
 11
268.2444500608
 21
43.0187828653
 31
0.0
  0
LWPOLYLINE
  5
201
330
1F
100
AcDbEntity
  8
0
  6
Continuous
 62
     7
370
    15
100
AcDbPolyline
 90
       59
 70
   128
 43
0.0
 10
275.1567348129
 20
39.7228303418
 10
274.2202015969
 20
39.1235454082
 10
273.2946483766
 20
38.4140149106
 10
272.3909264172
 20
37.6025574452
 10
271.5196310324
 20
36.698686609
 10
270.6909773641
 20
35.712999461
 10
269.9146806187
 20
34.6570522818
 10
269.1998421659
 20
33.5432250868
 10
268.554842833
 20
32.3845764813
 10
267.9872446474
 20
31.1946905608
 10
267.5037021788
 20
29.98751765
 10
267.1098845206
 20
28.7772107474
 10
266.8104088248
 20
27.5779595948
 10
266.6087861701
 20
26.4038243156
 10
266.5073803978
 20
25.2685705724
 10
266.5073803978
 20
24.1855081773
 10
266.6087861701
 20
23.1673350467
 10
266.8104088248
 20
22.2259883296
 10
267.1098845206
 20
21.3725044555
 10
267.5037021788
 20
20.6168897427
 10
267.9872446474
 20
19.9680030826
 10
268.554842833
 20
19.4334520781
 10
269.1998421659
 20
19.019503851
 10
269.9146806187
 20
18.7310115658
 10
270.6909773641
 20
18.5713575307
 10
271.5196310324
 20
18.5424135433
 10
272.3909264172
 20
18.6445189455
 10
273.2946483766
 20
18.8764766447
 10
274.2202015969
 20
19.235567149
 10
275.1567348129
 20
19.7175804506
 10
276.0932680289
 20
20.3168653842
 10
277.0188212493
 20
21.0263958818
 10
277.9225432086
 20
21.8378533472
 10
278.7938385934
 20
22.7417241834
 10
279.6224922617
 20
23.7274113314
 10
280.3987890071
 20
24.7833585105
 10
281.1136274599
 20
25.8971857056
 10
281.7586267928
 20
27.0558343111
 10
282.3262249785
 20
28.2457202315
 10
282.809767447
 20
29.4528931424
 10
283.2035851052
 20
30.663200045
 10
283.503060801
 20
31.8624511976
 10
283.7046834557
 20
33.0365864768
 10
283.8060892281
 20
34.17184022
 10
283.8060892281
 20
35.2549026151
 10
283.7046834557
 20
36.2730757457
 10
283.503060801
 20
37.2144224628
 10
283.2035851052
 20
38.0679063369
 10
282.809767447
 20
38.8235210497
 10
282.3262249785
 20
39.4724077098
 10
281.7586267928
 20
40.0069587143
 10
281.1136274599
 20
40.4209069414
 10
280.3987890071
 20
40.7093992266
 10
279.6224922617
 20
40.8690532617
 10
278.7938385934
 20
40.8979972491
 10
277.9225432086
 20
40.7958918469
 10
277.0188212493
 20
40.5639341477
 10
276.0932680289
 20
40.2048436434
 10
275.1567348129
 20
39.7228303418
  0
LWPOLYLINE
  5
202
330
1F
100
AcDbEntity
  8
0
  6
Continuous
 62
     7
370
    15
100
AcDbPolyline
 90
       31
 70
   128
 43
0.0
 10
274.9799581176
 20
40.0290165587
 10
274.0404475614
 20
39.4288253238
 10
273.1115820352
 20
38.7197878245
 10
272.2038859566
 20
37.909937739
 10
271.3276438848
 20
37.0084509924
 10
270.4927839927
 20
36.0255417897
 10
269.7087655764
 20
34.9723468849
 10
268.9844718778
 20
33.8607993972
 10
268.328109434
 20
32.7034936037
 10
267.7471150938
 20
31.5135422415
 10
267.2480717551
 20
30.3044279351
 10
266.8366337784
 20
29.0898504326
 10
266.5174629203
 20
27.8835713825
 10
266.2941755143
 20
26.6992584084
 10
266.1693014959
 20
25.5503302496
 10
266.1442557375
 20
24.4498047211
 10
266.2193220177
 20
23.410151217
 10
266.3936498054
 20
22.4431494269
 10
266.6652638973
 20
21.5597558675
 10
267.031086797
 20
20.7699797407
 10
267.486973585
 20
20.0827695257
 10
268.0277588819
 20
19.5059115888
 10
268.647315374
 20
19.0459419609
 10
269.3386232388
 20
18.7080722818
 10
270.0938496819
 20
18.4961307498
 10
270.904437686
 20
18.4125187472
 10
271.7612029651
 20
18.4581836315
 10
272.6544380262
 20
18.6326080012
 10
273.5740221592
 20
18.9338155585
 10
274.5095361084
 20
19.3583935014
 10
274.9813946768
 20
19.6163257044
  0
LWPOLYLINE
  5
203
330
1F
100
AcDbEntity
  8
0
  6
Continuous
 62
     7
370
    15
100
AcDbPolyline
 90
       16
 70
   128
 43
0.0
 10
283.8187928824
 20
34.9248071091
 10
283.7906147394
 20
35.7228978559
 10
283.6657407209
 20
36.7276495419
 10
283.4424533149
 20
37.6541603645
 10
283.1232824569
 20
38.4919325858
 10
282.7118444802
 20
39.2314739118
 10
282.2128011415
 20
39.8644050438
 10
281.6318068012
 20
40.3835546191
 10
280.9754443574
 20
40.7830404656
 10
280.2511506589
 20
41.0583362491
 10
279.4671322426
 20
41.2063227583
 10
278.6322723504
 20
41.2253232469
 10
277.7560302787
 20
41.1151224319
 10
276.8483342
 20
40.8769689324
 10
275.9194686738
 20
40.5135611228
 10
274.9799581176
 20
40.0290165587
  0
SPLINE
  5
204
330
1F
100
AcDbEntity
  8
0
  6
Continuous
 62
     7
370
    15
100
AcDbSpline
210
0.0
220
0.0
230
1.0
 70
    11
 71
     3
 72
    96
 73
    92
 74
     0
 42
0.000000001
 43
0.00000001
 40
0.0
 40
0.0
 40
0.0
 40
0.0
 40
0.0312499999999993
 40
0.0312499999999993
 40
0.0468749999999993
 40
0.0468749999999993
 40
0.0624999999999993
 40
0.0624999999999993
 40
0.0937499999999994
 40
0.0937499999999994
 40
0.1093749999999995
 40
0.1093749999999995
 40
0.1249999999999996
 40
0.1249999999999996
 40
0.1562499999999988
 40
0.1562499999999988
 40
0.1718749999999984
 40
0.1718749999999984
 40
0.187499999999998
 40
0.187499999999998
 40
0.2187499999999972
 40
0.2187499999999972
 40
0.2343749999999971
 40
0.2343749999999971
 40
0.2499999999999972
 40
0.2499999999999972
 40
0.2812499999999971
 40
0.2812499999999971
 40
0.2968749999999974
 40
0.2968749999999974
 40
0.3124999999999977
 40
0.3124999999999977
 40
0.3437499999999983
 40
0.3437499999999983
 40
0.3593749999999986
 40
0.3593749999999986
 40
0.3749999999999989
 40
0.3749999999999989
 40
0.3906249999999992
 40
0.3906249999999992
 40
0.4062499999999994
 40
0.4062499999999994
 40
0.4375000000000001
 40
0.4375000000000001
 40
0.4531250000000003
 40
0.4531250000000003
 40
0.4687500000000006
 40
0.4687500000000006
 40
0.5000000000000006
 40
0.5000000000000006
 40
0.5312500000000004
 40
0.5312500000000004
 40
0.5468750000000009
 40
0.5468750000000009
 40
0.5625000000000012
 40
0.5625000000000012
 40
0.5937500000000011
 40
0.5937500000000011
 40
0.6250000000000009
 40
0.6250000000000009
 40
0.6562500000000007
 40
0.6562500000000007
 40
0.6875000000000004
 40
0.6875000000000004
 40
0.7187500000000003
 40
0.7187500000000003
 40
0.7500000000000001
 40
0.7500000000000001
 40
0.7656250000000004
 40
0.7656250000000004
 40
0.7812500000000007
 40
0.7812500000000007
 40
0.8125000000000007
 40
0.8125000000000007
 40
0.8281250000000007
 40
0.8281250000000007
 40
0.8437500000000007
 40
0.8437500000000007
 40
0.8750000000000004
 40
0.8750000000000004
 40
0.8906250000000004
 40
0.8906250000000004
 40
0.9062500000000003
 40
0.9062500000000003
 40
0.9218750000000003
 40
0.9218750000000003
 40
0.9375000000000002
 40
0.9375000000000002
 40
0.9687500000000001
 40
0.9687500000000001
 40
1.0
 40
1.0
 40
1.0
 40
1.0
 10
270.1588012856295
 20
44.61932720165597
 30
0.0
 10
270.3892069277571
 20
44.58025819884423
 30
0.0
 10
270.6135223551814
 20
44.53000425647076
 30
0.0
 10
270.9419582927692
 20
44.44117426255129
 30
0.0
 10
271.0500844182352
 20
44.40929562314161
 30
0.0
 10
271.263679981656
 20
44.34128363913801
 30
0.0
 10
271.3696097569247
 20
44.30497682960062
 30
0.0
 10
271.679798539299
 20
44.19120668873948
 30
0.0
 10
271.8754329091741
 20
44.109474577308
 30
0.0
 10
272.1529548775853
 20
43.97935883218766
 30
0.0
 10
272.2427888189574
 20
43.93471781928808
 30
0.0
 10
272.4170323484163
 20
43.84293326658713
 30
0.0
 10
272.5017429684291
 20
43.79559305476393
 30
0.0
 10
272.7432737054401
 20
43.65225177587983
 30
0.0
 10
272.8888010086474
 20
43.55441925979551
 30
0.0
 10
273.0841950384494
 20
43.40387449508847
 30
0.0
 10
273.1454870233201
 20
43.35304969918172
 30
0.0
 10
273.2601543608801
 20
43.24991209308865
 30
0.0
 10
273.313644868839
 20
43.19743060644534
 30
0.0
 10
273.4589336767845
 20
43.04038280612208
 30
0.0
 10
273.5367821013134
 20
42.93536052845587
 30
0.0
 10
273.6245369573215
 20
42.77563094026944
 30
0.0
 10
273.6489203289565
 20
42.72201619499976
 30
0.0
 10
273.6874219217909
 20
42.61366482739177
 30
0.0
 10
273.7014951646697
 20
42.55880080031977
 30
0.0
 10
273.7267633608057
 20
42.39562324215832
 30
0.0
 10
273.7217317002933
 20
42.28754442349209
 30
0.0
 10
273.6793392489112
 20
42.12438882979935
 30
0.0
 10
273.659358304185
 20
42.06983130532645
 30
0.0
 10
273.6067143213381
 20
41.95999923342762
 30
0.0
 10
273.5740939492748
 20
41.90501648164871
 30
0.0
 10
273.4592299298016
 20
41.74313022646278
 30
0.0
 10
273.3595597228737
 20
41.63782723643065
 30
0.0
 10
273.1728469739737
 20
41.48280595285521
 30
0.0
 10
273.1037339413978
 20
41.43124297280278
 30
0.0
 10
272.9558852308871
 20
41.33166469455021
 30
0.0
 10
272.8771385502428
 20
41.28353386087466
 30
0.0
 10
272.7102127315269
 20
41.19049196647436
 30
0.0
 10
272.6220333024639
 20
41.14558102301721
 30
0.0
 10
272.4361462995111
 20
41.05906521038683
 30
0.0
 10
272.3378152561829
 20
41.01725071608757
 30
0.0
 10
272.0358715436773
 20
40.90007354755815
 30
0.0
 10
271.823838599137
 20
40.83196163784419
 30
0.0
 10
271.490543309768
 20
40.74516883058186
 30
0.0
 10
271.3771784469763
 20
40.71894765620735
 30
0.0
 10
271.1504072079376
 20
40.67289527285692
 30
0.0
 10
271.0363929747553
 20
40.65289989534971
 30
0.0
 10
270.6924874211261
 20
40.60203141568935
 30
0.0
 10
270.458701512162
 20
40.58023114519852
 30
0.0
 10
270.0011609544667
 20
40.5634554953204
 30
0.0
 10
269.7762530000245
 20
40.56808910388417
 30
0.0
 10
269.4441608628358
 20
40.5955296929189
 30
0.0
 10
269.3341222383703
 20
40.60818080590426
 30
0.0
 10
269.1196368697903
 20
40.64008616488449
 30
0.0
 10
269.0147087589096
 20
40.65936318376248
 30
0.0
 10
268.7066166275353
 20
40.72719329692562
 30
0.0
 10
268.5100863967842
 20
40.78568175851331
 30
0.0
 10
268.1349178936807
 20
40.93090814240483
 30
0.0
 10
267.9606144786
 20
41.01606918833392
 30
0.0
 10
267.6401682055884
 20
41.20948776006642
 30
0.0
 10
267.4935123068707
 20
41.31795351211317
 30
0.0
 10
267.2288488877529
 20
41.55887842295478
 30
0.0
 10
267.1146599524274
 20
41.68783982929196
 30
0.0
 10
266.9217100437855
 20
41.96103833194903
 30
0.0
 10
266.842807034353
 20
42.10557181513798
 30
0.0
 10
266.7240356104123
 20
42.40800342711916
 30
0.0
 10
266.6857517458528
 20
42.56164244526752
 30
0.0
 10
266.660426247187
 20
42.79404763468052
 30
0.0
 10
266.6573727787318
 20
42.87184301934114
 30
0.0
 10
266.6626415682488
 20
43.02781915637518
 30
0.0
 10
266.6710411073479
 20
43.10640167687256
 30
0.0
 10
266.7143118346505
 20
43.33947539375724
 30
0.0
 10
266.7663554757675
 20
43.48890484186923
 30
0.0
 10
266.8806558836707
 20
43.70211275184977
 30
0.0
 10
266.9248404547861
 20
43.77135073619696
 30
0.0
 10
267.026266191531
 20
43.90568001117106
 30
0.0
 10
267.0838212969069
 20
43.97093276134924
 30
0.0
 10
267.2716151975154
 20
44.15392697635232
 30
0.0
 10
267.4181377913234
 20
44.26109314250084
 30
0.0
 10
267.6707769305338
 20
44.39862717639404
 30
0.0
 10
267.7610362284651
 20
44.44071385725933
 30
0.0
 10
267.9476676341387
 20
44.51473532001879
 30
0.0
 10
268.0445217349514
 20
44.54700016812605
 30
0.0
 10
268.2450579923025
 20
44.60251160244886
 30
0.0
 10
268.3487407767583
 20
44.62575710208852
 30
0.0
 10
268.5629196862593
 20
44.66346471357028
 30
0.0
 10
268.6729072996146
 20
44.67777952347188
 30
0.0
 10
269.0051527659327
 20
44.7074509404051
 30
0.0
 10
269.2319871380684
 20
44.71009490769839
 30
0.0
 10
269.6960316483616
 20
44.68548128622923
 30
0.0
 10
269.9283956435018
 20
44.65839620446771
 30
0.0
 10
270.1588012856295
 20
44.61932720165597
 30
0.0
  0
LINE
  5
205
330
1F
100
AcDbEntity
  8
0
  6
Continuous
 62
     7
370
    15
100
AcDbLine
 10
241.6836316583
 20
34.610450769
 30
0.0
 11
241.7224570787
 21
34.5883140625
 31
0.0
  0
LINE
  5
206
330
1F
100
AcDbEntity
  8
0
  6
Continuous
 62
     7
370
    15
100
AcDbLine
 10
278.4099879426
 20
35.9209229551
 30
0.0
 11
278.3028969865
 21
35.9866494608
 31
0.0
  0
LWPOLYLINE
  5
207
330
1F
100
AcDbEntity
  8
0
  6
Continuous
 62
     7
370
    15
100
AcDbPolyline
 90
       22
 70
   128
 43
0.0
 10
272.1341692893
 20
40.8556795048
 10
272.243628621
 20
40.9226673939
 10
272.6098635008
 20
41.2246105812
 10
272.8456056974
 20
41.5671723261
 10
272.9381462878
 20
41.9318850361
 10
272.8824963849
 20
42.2990869548
 10
272.6816560894
 20
42.6489821315
 10
272.3464527536
 20
42.9627076269
 10
271.8949572761
 20
43.2233504181
 10
271.3515098949
 20
43.4168591849
 10
270.745407999
 20
43.5328018196
 10
270.1093266985
 20
43.5649278247
 10
269.477557301
 20
43.511505279
 10
268.8841586583
 20
43.3754142057
 10
268.3611210446
 20
43.1639913098
 10
267.9366415533
 20
42.8886344544
 10
267.6336039835
 20
42.5641881988
 10
267.468345169
 20
42.2081435247
 10
267.4497742553
 20
41.8396948925
 10
267.5788924052
 20
41.4787054634
 10
267.8487388259
 20
41.144636271
 10
267.9352623866
 20
41.0686201134
  0
ARC
  5
208
330
1F
100
AcDbEntity
  8
0
  6
Continuous
 62
     7
370
    15
100
AcDbCircle
 10
251.6959629873
 20
55.2209411449
 30
0.0
 40
5.392341337215688
100
AcDbArc
 50
40.4659168775
 51
80.0184109133
  0
ARC
  5
209
330
1F
100
AcDbEntity
  8
0
  6
Continuous
 62
     7
370
    15
100
AcDbCircle
 10
241.344077629
 20
37.2888948044
 30
0.0
 40
5.397590207797236
100
AcDbArc
 50
219.5452848379
 51
260.1027899646
  0
ARC
  5
20A
330
1F
100
AcDbEntity
  8
0
  6
Continuous
 62
     7
370
    15
100
AcDbCircle
 10
240.7933772413
 20
39.2105461083
 30
0.0
 40
6.797736084088378
100
AcDbArc
 50
187.9592832021
 51
237.0672015328
  0
SPLINE
  5
20B
330
1F
100
AcDbEntity
  8
0
  6
Continuous
 62
     7
370
    15
100
AcDbSpline
210
0.0
220
0.0
230
1.0
 70
     8
 71
     3
 72
    29
 73
    25
 74
     0
 42
0.000000001
 43
0.00000001
 40
0.0
 40
0.0
 40
0.0
 40
0.0
 40
0.0226170105025813
 40
0.0451713142227494
 40
0.067687022847175
 40
0.0901883721233939
 40
0.1126996441656912
 40
0.1352450890154609
 40
0.1578488467174853
 40
0.1805348711543707
 40
0.2033268568163237
 40
0.2262481695770471
 40
0.249321782405382
 40
0.3751991801869415
 40
0.4999614246460882
 40
0.4999717960762048
 40
0.6247044141129467
 40
0.750955787939839
 40
0.793171387116697
 40
0.834908104501548
 40
0.8763104515880161
 40
0.9175264576289888
 40
0.9587061619389432
 40
1.0
 40
1.0
 40
1.0
 40
1.0
 10
234.0612869899261
 20
43.42352142644743
 30
0.0
 10
234.079652215049
 20
43.37468153664704
 30
0.0
 10
234.116331746798
 20
43.277137168061
 30
0.0
 10
234.1680215754629
 20
43.12967455865879
 30
0.0
 10
234.2172029352855
 20
42.98173726913801
 30
0.0
 10
234.2636926051845
 20
42.83324540390673
 30
0.0
 10
234.3076027016435
 20
42.68425343777442
 30
0.0
 10
234.3489678930991
 20
42.53478164919628
 30
0.0
 10
234.3878451798039
 20
42.38486154588752
 30
0.0
 10
234.4242870248264
 20
42.23452273590623
 30
0.0
 10
234.4583490059137
 20
42.08380028428116
 30
0.0
 10
234.4900860590114
 20
41.93271858754554
 30
0.0
 10
234.5632443308817
 20
41.55699738059816
 30
0.0
 10
234.6489208709118
 20
40.96822695888243
 30
0.0
 10
234.674653232746
 20
40.46674335488403
 30
0.0
 10
234.6750903889685
 20
39.99629052962042
 30
0.0
 10
234.6496593322533
 20
39.54984799974801
 30
0.0
 10
234.5576920162171
 20
39.1138213282541
 30
0.0
 10
234.465138122174
 20
38.84562844563979
 30
0.0
 10
234.4015554982863
 20
38.6993773348099
 30
0.0
 10
234.3299099942507
 20
38.56845700296552
 30
0.0
 10
234.2496552199374
 20
38.45301067051335
 30
0.0
 10
234.1612535603419
 20
38.35148866606404
 30
0.0
 10
234.0948969064297
 20
38.2964897890969
 30
0.0
 10
234.0616726645437
 20
38.26895229460195
 30
0.0
  0
LWPOLYLINE
  5
20C
330
1F
100
AcDbEntity
  8
0
  6
Continuous
 62
     7
370
    15
100
AcDbPolyline
 90
       24
 70
   128
 43
0.0
 10
234.0610682488
 20
43.423647703
 10
234.3310805588
 20
44.7973563403
 10
234.7027685457
 20
46.1935008206
 10
235.1725807099
 20
47.5987409046
 10
235.7360279694
 20
48.9996494439
 10
236.3877265539
 20
50.382840678
 10
237.1214494465
 20
51.7350981367
 10
237.9301858837
 20
53.0435009235
 10
238.8062083429
 20
54.2955471757
 10
239.74114638
 20
55.4792735207
 10
240.7260666094
 20
56.5833693863
 10
241.7515580624
 20
57.597285074
 10
242.8078221103
 20
58.5113325623
 10
243.8847660905
 20
59.3167780757
 10
244.9720997423
 20
60.0059255367
 10
246.0594335311
 20
60.5721901025
 10
247.1363779213
 20
61.0101610831
 10
248.1926426482
 20
61.3156536409
 10
249.2181350427
 20
61.4857487774
 10
250.203056467
 20
61.5188212239
 10
251.1379959412
 20
61.4145549714
 10
252.0140200658
 20
61.1739462897
 10
252.8227583808
 20
60.7992942083
 10
252.8464741105
 20
60.7856856154
  0
SPLINE
  5
20D
330
1F
100
AcDbEntity
  8
0
  6
Continuous
 62
     7
370
    15
100
AcDbSpline
210
0.0
220
0.0
230
1.0
 70
     8
 71
     3
 72
     8
 73
     4
 74
     0
 42
0.000000001
 43
0.00000001
 40
0.0
 40
0.0
 40
0.0
 40
0.0
 40
1.0
 40
1.0
 40
1.0
 40
1.0
 10
233.2831318517511
 20
46.70242482995177
 30
0.0
 10
232.5900606166982
 20
46.58656321157707
 30
0.0
 10
231.896439850302
 20
46.471804518424
 30
0.0
 10
231.2024606894746
 20
46.35779297078585
 30
0.0
  0
SPLINE
  5
20E
330
1F
100
AcDbEntity
  8
0
  6
Continuous
 62
     7
370
    15
100
AcDbSpline
210
0.0
220
0.0
230
1.0
 70
     8
 71
     3
 72
     8
 73
     4
 74
     0
 42
0.000000001
 43
0.00000001
 40
0.0
 40
0.0
 40
0.0
 40
0.0
 40
0.0012389803509652
 40
0.0012389803509652
 40
0.0012389803509652
 40
0.0012389803509652
 10
230.7287242753291
 20
46.63132709153984
 30
0.0
 10
230.8867976103101
 20
46.54005601108934
 30
0.0
 10
231.0447157892761
 20
46.44887448398909
 30
0.0
 10
231.2024606894746
 20
46.35779297078585
 30
0.0
  0
LWPOLYLINE
  5
20F
330
1F
100
AcDbEntity
  8
0
  6
Continuous
 62
     7
370
    15
100
AcDbPolyline
 90
       26
 70
   128
 43
0.0
 10
230.7287242753
 20
46.6313270915
 10
231.074389666
 20
47.9892137696
 10
231.5139400726
 20
49.3580588528
 10
232.0433862112
 20
50.7254389392
 10
232.65792292
 20
52.0789439228
 10
233.3519727698
 20
53.4062896255
 10
234.1192366837
 20
54.6954292865
 10
234.9527511066
 20
55.9346628965
 10
235.8449512053
 20
57.1127433847
 10
236.7877395255
 20
58.2189786957
 10
237.7725594829
 20
59.2433288285
 10
238.7904730212
 20
60.1764969577
 10
239.8322417326
 20
61.0100138103
 10
240.8884107038
 20
61.736314531
 10
241.9493943273
 20
62.3488073396
 10
243.0055632985
 20
62.8419333568
 10
244.0473320099
 20
63.2112170561
 10
245.0652455482
 20
63.4533068821
 10
246.0500655056
 20
63.5660056693
 10
246.9928538258
 20
63.548290583
 10
247.8850539245
 20
63.4003224022
 10
248.7185683474
 20
63.1234440607
 10
249.4858322613
 20
62.7201684584
 10
250.1798821111
 20
62.1941556554
 10
250.7944188199
 20
61.5501796531
 10
250.8668995336
 20
61.4597079552
  0
LINE
  5
210
330
1F
100
AcDbEntity
  8
0
  6
Continuous
 62
     7
370
    15
100
AcDbLine
 10
227.697003951
 20
48.3815019813
 30
0.0
 11
230.7287242753
 21
46.6313270915
 31
0.0
  0
ARC
  5
211
330
1F
100
AcDbEntity
  8
0
  6
Continuous
 62
     7
370
    15
100
AcDbCircle
 10
243.5423956599
 20
59.8379871899
 30
0.0
 40
5.472448847711224
100
AcDbArc
 50
60.2062499925
 51
80.4865566714
  0
LINE
  5
212
330
1F
100
AcDbEntity
  8
0
  6
Continuous
 62
     7
370
    15
100
AcDbLine
 10
233.6857272542
 20
46.6412624392
 30
0.0
 11
233.6764046033
 21
46.646644291
 31
0.0
  0
SPLINE
  5
213
330
1F
100
AcDbEntity
  8
0
  6
Continuous
 62
     7
370
    15
100
AcDbSpline
210
0.0
220
0.0
230
1.0
 70
     8
 71
     3
 72
    10
 73
     6
 74
     0
 42
0.000000001
 43
0.00000001
 40
0.0
 40
0.0
 40
0.0
 40
0.0
 40
0.2496072526300731
 40
0.716434437246763
 40
1.0
 40
1.0
 40
1.0
 40
1.0
 10
234.6124883575785
 20
45.82756109151081
 30
0.0
 10
234.5435269048896
 20
45.9124957637159
 30
0.0
 10
234.345590510701
 20
46.15627924133053
 30
0.0
 10
234.0293197970251
 20
46.4254194663467
 30
0.0
 10
233.7799583385848
 20
46.5820669828248
 30
0.0
 10
233.6857272542101
 20
46.64126243923039
 30
0.0
  0
SPLINE
  5
214
330
1F
100
AcDbEntity
  8
0
  6
Continuous
 62
     7
370
    15
100
AcDbSpline
210
0.0
220
0.0
230
1.0
 70
     8
 71
     3
 72
    10
 73
     6
 74
     0
 42
0.000000001
 43
0.00000001
 40
0.0
 40
0.0
 40
0.0
 40
0.0
 40
0.5
 40
0.5
 40
1.0
 40
1.0
 40
1.0
 40
1.0
 10
233.676404603303
 20
46.64664429104312
 30
0.0
 10
233.6266040044902
 20
46.67539356479224
 30
0.0
 10
233.5615720877463
 20
46.69615691015291
 30
0.0
 10
233.4245137274008
 20
46.71511059954069
 30
0.0
 10
233.350974887351
 20
46.71376623831288
 30
0.0
 10
233.2831318517511
 20
46.70242482995178
 30
0.0
  0
SPLINE
  5
215
330
1F
100
AcDbEntity
  8
0
  6
Continuous
 62
     7
370
    15
100
AcDbSpline
210
0.0
220
0.0
230
1.0
 70
     8
 71
     3
 72
     8
 73
     4
 74
     0
 42
0.000000001
 43
0.00000001
 40
0.0
 40
0.0
 40
0.0
 40
0.0
 40
1.0
 40
1.0
 40
1.0
 40
1.0
 10
227.5401793434307
 20
48.47202366044863
 30
0.0
 10
227.5625581399501
 20
48.4591117089968
 30
0.0
 10
227.6167455709674
 20
48.42783415783978
 30
0.0
 10
227.6970039509918
 20
48.38150198125978
 30
0.0
  0
LINE
  5
216
330
1F
100
AcDbEntity
  8
0
  6
Continuous
 62
     7
370
    15
100
AcDbLine
 10
227.5401793434
 20
48.4720236604
 30
0.0
 11
227.5633175413
 21
48.6184890185
 31
0.0
  0
SPLINE
  5
217
330
1F
100
AcDbEntity
  8
0
  6
Continuous
 62
     7
370
    15
100
AcDbSpline
210
0.0
220
0.0
230
1.0
 70
     8
 71
     3
 72
    11
 73
     7
 74
     0
 42
0.000000001
 43
0.00000001
 40
0.0
 40
0.0
 40
0.0
 40
0.0
 40
0.2912888849913265
 40
0.554962417420661
 40
0.791341792124543
 40
1.0
 40
1.0
 40
1.0
 40
1.0
 10
234.16971233921
 20
38.99508103336258
 30
0.0
 10
234.2606491540502
 20
39.0866385999753
 30
0.0
 10
234.43390160959
 20
39.26107370930693
 30
0.0
 10
234.5849923278535
 20
39.67847175204462
 30
0.0
 10
234.6635817059107
 20
40.13260355255509
 30
0.0
 10
234.6712103072486
 20
40.47657068440925
 30
0.0
 10
234.6747870170503
 20
40.63784148065253
 30
0.0
  0
SPLINE
  5
218
330
1F
100
AcDbEntity
  8
0
  6
Continuous
 62
     7
370
    15
100
AcDbSpline
210
0.0
220
0.0
230
1.0
 70
     8
 71
     3
 72
     9
 73
     5
 74
     0
 42
0.000000001
 43
0.00000001
 40
0.0
 40
0.0
 40
0.0
 40
0.0
 40
0.506764932008893
 40
1.0
 40
1.0
 40
1.0
 40
1.0
 10
234.0609908747374
 20
38.26845026681831
 30
0.0
 10
234.0792597900983
 20
38.39090438555452
 30
0.0
 10
234.1153098681662
 20
38.63254328162174
 30
0.0
 10
234.1519907212494
 20
38.87469355200839
 30
0.0
 10
234.1700830043139
 20
38.9941305570866
 30
0.0
  0
SPLINE
  5
219
330
1F
100
AcDbEntity
  8
0
  6
Continuous
 62
     7
370
    15
100
AcDbSpline
210
0.0
220
0.0
230
1.0
 70
     8
 71
     3
 72
    10
 73
     6
 74
     0
 42
0.000000001
 43
0.00000001
 40
0.0
 40
0.0
 40
0.0
 40
0.0
 40
0.4807908150149239
 40
0.9757817590326512
 40
1.0
 40
1.0
 40
1.0
 40
1.0
 10
233.6857272542101
 20
40.0681089035501
 30
0.0
 10
233.8355182011104
 20
39.98793852818807
 30
0.0
 10
234.1395241618918
 20
39.82522995004968
 30
0.0
 10
234.4291396060904
 20
39.71372851932819
 30
0.0
 10
234.5634780367693
 20
39.6854969018489
 30
0.0
 10
234.56974418263
 20
39.68418005281236
 30
0.0
  0
LINE
  5
21A
330
1F
100
AcDbEntity
  8
0
  6
Continuous
 62
     7
370
    15
100
AcDbLine
 10
227.973612591
 20
48.2217673023
 30
0.0
 11
227.5401793434
 21
48.4720236604
 31
0.0
  0
LINE
  5
21B
330
1F
100
AcDbEntity
  8
0
  6
Continuous
 62
     7
370
    15
100
AcDbLine
 10
231.2024606895
 20
46.3577929708
 30
0.0
 11
227.973612591
 21
48.2217673023
 31
0.0
  0
SPLINE
  5
21C
330
1F
100
AcDbEntity
  8
0
  6
Continuous
 62
     7
370
    15
100
AcDbSpline
210
0.0
220
0.0
230
1.0
 70
     8
 71
     3
 72
    11
 73
     7
 74
     0
 42
0.000000001
 43
0.00000001
 40
0.0
 40
0.0
 40
0.0
 40
0.0
 40
0.2180025369760418
 40
0.5290085500344841
 40
0.8400525035994092
 40
1.0
 40
1.0
 40
1.0
 40
1.0
 10
230.0786775122671
 20
44.2079413564639
 30
0.0
 10
230.073955327642
 20
44.41433568710324
 30
0.0
 10
230.0624963965846
 20
44.91517557227785
 30
0.0
 10
229.9974239842105
 20
45.73390211489966
 30
0.0
 10
229.9566960221024
 20
46.48806850320711
 30
0.0
 10
229.977581053689
 20
46.91561337054615
 30
0.0
 10
229.9846735572042
 20
47.06080651818143
 30
0.0
  0
LINE
  5
21D
330
1F
100
AcDbEntity
  8
0
  6
Continuous
 62
     7
370
    15
100
AcDbLine
 10
230.0786775123
 20
43.7875860011
 30
0.0
 11
230.0786775123
 21
44.2079413565
 31
0.0
  0
LINE
  5
21E
330
1F
100
AcDbEntity
  8
0
  6
Continuous
 62
     7
370
    15
100
AcDbLine
 10
229.4687979135
 20
47.0229548161
 30
0.0
 11
229.4739858082
 21
47.3556202804
 31
0.0
  0
ARC
  5
21F
330
1F
100
AcDbEntity
  8
0
  6
Continuous
 62
     7
370
    15
100
AcDbCircle
 10
236.9295258532
 20
46.8306928744
 30
0.0
 40
7.463204810534363
100
AcDbArc
 50
178.5238222856
 51
203.3718076394
  0
LWPOLYLINE
  5
220
330
1F
100
AcDbEntity
  8
0
  6
Continuous
 62
     7
370
    15
100
AcDbPolyline
 90
        3
 70
   128
 43
0.0
 10
217.1796741848
 20
70.4989228094
 10
217.3309650785
 20
70.4528462326
 10
217.3620445333
 20
70.4419077235
  0
LINE
  5
221
330
1F
100
AcDbEntity
  8
0
  6
Continuous
 62
     7
370
    15
100
AcDbLine
 10
210.9905751219
 20
59.4050031125
 30
0.0
 11
210.9528431713
 21
59.4375998044
 31
0.0
  0
LINE
  5
222
330
1F
100
AcDbEntity
  8
0
  6
Continuous
 62
     7
370
    15
100
AcDbLine
 10
233.6764046033
 20
40.0734907554
 30
0.0
 11
233.6857272542
 21
40.0681089036
 31
0.0
  0
ARC
  5
223
330
1F
100
AcDbEntity
  8
0
  6
Continuous
 62
     7
370
    15
100
AcDbCircle
 10
236.4824157554
 20
40.6979794213
 30
0.0
 40
5.89405529699538
100
AcDbArc
 50
192.5292124781
 51
260.6428941703
  0
SPLINE
  5
224
330
1F
100
AcDbEntity
  8
0
  6
Continuous
 62
     7
370
    15
100
AcDbSpline
210
0.0
220
0.0
230
1.0
 70
     8
 71
     3
 72
     8
 73
     4
 74
     0
 42
0.000000001
 43
0.00000001
 40
0.0
 40
0.0
 40
0.0
 40
0.0
 40
0.0012389803509652
 40
0.0012389803509652
 40
0.0012389803509652
 40
0.0012389803509652
 10
231.2024606894746
 20
39.78463943510556
 30
0.0
 10
231.0447157892761
 20
39.66256298457084
 30
0.0
 10
230.8867976103101
 20
39.54080568157003
 30
0.0
 10
230.7287242753291
 20
39.41933866002559
 30
0.0
  0
SPLINE
  5
225
330
1F
100
AcDbEntity
  8
0
  6
Continuous
 62
     7
370
    15
100
AcDbSpline
210
0.0
220
0.0
230
1.0
 70
     8
 71
     3
 72
     8
 73
     4
 74
     0
 42
0.000000001
 43
0.00000001
 40
0.0
 40
0.0
 40
0.0
 40
0.0
 40
1.0
 40
1.0
 40
1.0
 40
1.0
 10
231.2024606894746
 20
39.78463943510556
 30
0.0
 10
231.8964412724162
 20
39.89865121637817
 30
0.0
 10
232.5900743331782
 20
40.01341196889854
 30
0.0
 10
233.2831318517511
 20
40.12927129427149
 30
0.0
  0
SPLINE
  5
226
330
1F
100
AcDbEntity
  8
0
  6
Continuous
 62
     7
370
    15
100
AcDbSpline
210
0.0
220
0.0
230
1.0
 70
     8
 71
     3
 72
    12
 73
     8
 74
     0
 42
0.000000001
 43
0.00000001
 40
0.0
 40
0.0
 40
0.0
 40
0.0
 40
0.2499999999999984
 40
0.2499999999999984
 40
0.4999999999999968
 40
0.4999999999999968
 40
1.0
 40
1.0
 40
1.0
 40
1.0
 10
233.2831318517511
 20
40.12927129427149
 30
0.0
 10
233.3169203676752
 20
40.13491976435574
 30
0.0
 10
233.3524921437441
 20
40.13818022787118
 30
0.0
 10
233.4230743901366
 20
40.1393178174193
 30
0.0
 10
233.4580973485855
 20
40.13730120096128
 30
0.0
 10
233.5623026438504
 20
40.12292546362168
 30
0.0
 10
233.6260130757901
 20
40.10258116498928
 30
0.0
 10
233.676404603303
 20
40.07349075536283
 30
0.0
  0
LINE
  5
227
330
1F
100
AcDbEntity
  8
0
  6
Continuous
 62
     7
370
    15
100
AcDbLine
 10
227.973612591
 20
41.6486137666
 30
0.0
 11
231.2024606895
 21
39.7846394351
 31
0.0
  0
LINE
  5
228
330
1F
100
AcDbEntity
  8
0
  6
Continuous
 62
     7
370
    15
100
AcDbLine
 10
227.973612591
 20
41.6486137666
 30
0.0
 11
229.8665454779
 21
42.741380662
 31
0.0
  0
LINE
  5
229
330
1F
100
AcDbEntity
  8
0
  6
Continuous
 62
     7
370
    15
100
AcDbLine
 10
227.5401793434
 20
41.3983574084
 30
0.0
 11
227.973612591
 21
41.6486137666
 31
0.0
  0
LINE
  5
22A
330
1F
100
AcDbEntity
  8
0
  6
Continuous
 62
     7
370
    15
100
AcDbLine
 10
230.7287242753
 20
39.41933866
 30
0.0
 11
227.697003951
 21
41.1695135497
 31
0.0
  0
SPLINE
  5
22B
330
1F
100
AcDbEntity
  8
0
  6
Continuous
 62
     7
370
    15
100
AcDbSpline
210
0.0
220
0.0
230
1.0
 70
     8
 71
     3
 72
     8
 73
     4
 74
     0
 42
0.000000001
 43
0.00000001
 40
0.0
 40
0.0
 40
0.0
 40
0.0
 40
1.0
 40
1.0
 40
1.0
 40
1.0
 10
227.6970039509918
 20
41.16951354974552
 30
0.0
 10
227.6169791514762
 20
41.21571088316799
 30
0.0
 10
227.5625023540954
 20
41.29889840553111
 30
0.0
 10
227.5401793434307
 20
41.39835740837331
 30
0.0
  0
ARC
  5
22C
330
1F
100
AcDbEntity
  8
0
  6
Continuous
 62
     7
370
    15
100
AcDbCircle
 10
233.2336938517
 20
41.9983635346
 30
0.0
 40
5.423678429816209
100
AcDbArc
 50
219.523237723
 51
239.8897582962
  0
ELLIPSE
  5
22D
330
1F
100
AcDbEntity
  8
0
  6
Continuous
 62
     7
370
    15
100
AcDbEllipse
 10
229.6322309029
 20
43.5298802365
 30
0.0
 11
-6.005970382716441E-5
 21
0.8534489614827194
 31
0.0
210
0.0
220
0.0
230
1.0
 40
0.7174342186
 41
3.534193645557514
 42
5.104989972352372
  0
ELLIPSE
  5
22E
330
1F
100
AcDbEntity
  8
0
  6
Continuous
 62
     7
370
    15
100
AcDbEllipse
 10
229.5129920873
 20
43.4610227563
 30
0.0
 11
0.2600075789209199
 21
0.9705436209909308
 31
0.0
210
0.0
220
0.0
230
1.0
 40
0.5176380889
 41
3.619174351347694
 42
5.189970678142648
  0
LWPOLYLINE
  5
22F
330
1F
100
AcDbEntity
  8
0
  6
Continuous
 62
     7
370
    15
100
AcDbPolyline
 90
        7
 70
   128
 43
0.0
 10
273.7928261252
 20
32.6096951241
 10
273.630551988
 20
32.3924823963
 10
273.3684513502
 20
32.2474684529
 10
273.0468381112
 20
32.2294566133
 10
272.6895648538
 20
32.3397827333
 10
272.323128901
 20
32.5702644292
 10
272.094428685
 20
32.7752443696
  0
LWPOLYLINE
  5
230
330
1F
100
AcDbEntity
  8
0
  6
Continuous
 62
     7
370
    15
100
AcDbPolyline
 90
        6
 70
   128
 43
0.0
 10
267.6301515353
 20
42.3751757879
 10
267.5404927793
 20
42.0237663374
 10
267.5936324279
 20
41.6698927508
 10
267.7867057087
 20
41.3326324447
 10
268.1093039912
 20
41.0301672095
 10
268.4858922462
 20
40.806168569
  0
LWPOLYLINE
  5
231
330
1F
100
AcDbEntity
  8
0
  6
Continuous
 62
     7
370
    15
100
AcDbPolyline
 90
       18
 70
   128
 43
0.0
 10
272.1142336641
 20
40.9266387357
 10
272.358855241
 20
41.0995992965
 10
272.6513031169
 20
41.4121135783
 10
272.8110242892
 20
41.7551380824
 10
272.8294081479
 20
42.1101802692
 10
272.7054636147
 20
42.4580997225
 10
272.4458725713
 20
42.7801400143
 10
272.064629638
 20
43.0589398694
 10
271.5822877202
 20
43.2794691152
 10
271.0248499954
 20
43.4298389632
 10
270.4223680756
 20
43.5019429358
 10
269.8073219171
 20
43.4918938892
 10
269.2128688176
 20
43.4002335702
 10
268.6710558974
 20
43.2319034102
 10
268.2110924314
 20
42.9959781318
 10
267.857775169
 20
42.7051765278
 10
267.6301515353
 20
42.3751757879
 10
267.6301515353
 20
42.3751757879
  0
LWPOLYLINE
  5
232
330
1F
100
AcDbEntity
  8
0
  6
Continuous
 62
     7
370
    15
100
AcDbPolyline
 90
       23
 70
   128
 43
0.0
 10
268.4510135801
 20
42.2477984566
 10
268.3897860055
 20
41.9541543132
 10
268.4743451364
 20
41.6624467227
 10
268.6978404949
 20
41.3963080991
 10
269.0421658163
 20
41.177299411
 10
269.4794259108
 20
41.0231634397
 10
269.9741965661
 20
40.946387365
 10
270.4863944061
 20
40.9531911279
 10
270.974524208
 20
41.0430235279
 10
271.3990405984
 20
41.2086068782
 10
271.7255517838
 20
41.4365266007
 10
271.92760577
 20
41.7083179947
 10
271.9888333447
 20
42.0019621381
 10
271.9042742138
 20
42.2936697286
 10
271.6807788552
 20
42.5598083522
 10
271.3364535338
 20
42.7788170403
 10
270.8991934393
 20
42.9329530116
 10
270.4044227841
 20
43.0097290863
 10
269.892224944
 20
43.0029253234
 10
269.4040951421
 20
42.9130929234
 10
268.9795787518
 20
42.7475095731
 10
268.6530675663
 20
42.5195898506
 10
268.4510135801
 20
42.2477984566
  0
SPLINE
  5
233
330
1F
100
AcDbEntity
  8
0
  6
Continuous
 62
     7
370
    15
100
AcDbSpline
210
0.0
220
0.0
230
1.0
 70
     8
 71
     3
 72
     9
 73
     5
 74
     0
 42
0.000000001
 43
0.00000001
 40
0.0
 40
0.0
 40
0.0
 40
0.0
 40
0.5818499893414236
 40
1.0
 40
1.0
 40
1.0
 40
1.0
 10
268.515921711772
 20
41.66455075519329
 30
0.0
 10
268.5994241724009
 20
41.56983832919607
 30
0.0
 10
268.7429361809228
 20
41.40706024595777
 30
0.0
 10
268.8999021559838
 20
41.28781183655517
 30
0.0
 10
268.9655374801286
 20
41.23794811289246
 30
0.0
  0
SPLINE
  5
234
330
1F
100
AcDbEntity
  8
0
  6
Continuous
 62
     7
370
    15
100
AcDbSpline
210
0.0
220
0.0
230
1.0
 70
     8
 71
     3
 72
    11
 73
     7
 74
     0
 42
0.000000001
 43
0.00000001
 40
0.0
 40
0.0
 40
0.0
 40
0.0
 40
0.1849308168246087
 40
0.5198464202157757
 40
0.8714438233692647
 40
1.0
 40
1.0
 40
1.0
 40
1.0
 10
271.4130818700193
 20
41.21498370364166
 30
0.0
 10
271.439251704616
 20
41.232970808869
 30
0.0
 10
271.5128159437532
 20
41.28353313494874
 30
0.0
 10
271.6501376443541
 20
41.4990816192302
 30
0.0
 10
271.776959853368
 20
41.86864400563153
 30
0.0
 10
271.8445902863625
 20
42.11471590221429
 30
0.0
 10
271.8626976383758
 20
42.18059911861179
 30
0.0
  0
SPLINE
  5
235
330
1F
100
AcDbEntity
  8
0
  6
Continuous
 62
     7
370
    15
100
AcDbSpline
210
0.0
220
0.0
230
1.0
 70
     8
 71
     3
 72
    11
 73
     7
 74
     0
 42
0.000000001
 43
0.00000001
 40
0.0
 40
0.0
 40
0.0
 40
0.0
 40
0.2164553779443386
 40
0.440311289579053
 40
0.7519005688038757
 40
0.9999999999999999
 40
0.9999999999999999
 40
0.9999999999999999
 40
0.9999999999999999
 10
271.8626976383758
 20
42.18059911861179
 30
0.0
 10
271.7788680572968
 20
42.1847078883994
 30
0.0
 10
271.6083427910718
 20
42.19306590537708
 30
0.0
 10
271.2918934414312
 20
42.30082288364648
 30
0.0
 10
270.9524447495746
 20
42.54244282765556
 30
0.0
 10
270.7352179705375
 20
42.78199943413524
 30
0.0
 10
270.6389254434305
 20
42.88819035187267
 30
0.0
  0
SPLINE
  5
236
330
1F
100
AcDbEntity
  8
0
  6
Continuous
 62
     7
370
    15
100
AcDbSpline
210
0.0
220
0.0
230
1.0
 70
     8
 71
     3
 72
    11
 73
     7
 74
     0
 42
0.000000001
 43
0.00000001
 40
0.0
 40
0.0
 40
0.0
 40
0.0
 40
0.2164553779443443
 40
0.4403112895790572
 40
0.751900568803872
 40
1.0
 40
1.0
 40
1.0
 40
1.0
 10
270.6389254434305
 20
42.88819035187267
 30
0.0
 10
270.5242967465817
 20
42.82615353014025
 30
0.0
 10
270.2911202378177
 20
42.69995886943094
 30
0.0
 10
269.8584069151335
 20
42.55802201470401
 30
0.0
 10
269.3942442568729
 20
42.5318005329952
 30
0.0
 10
269.0972080283583
 20
42.59995471078025
 30
0.0
 10
268.9655374801286
 20
42.63016617016342
 30
0.0
  0
SPLINE
  5
237
330
1F
100
AcDbEntity
  8
0
  6
Continuous
 62
     7
370
    15
100
AcDbSpline
210
0.0
220
0.0
230
1.0
 70
     8
 71
     3
 72
    11
 73
     7
 74
     0
 42
0.000000001
 43
0.00000001
 40
0.0
 40
0.0
 40
0.0
 40
0.0
 40
0.1285561766307364
 40
0.4801535797842241
 40
0.8150691831753902
 40
0.9999999999999999
 40
0.9999999999999999
 40
0.9999999999999999
 40
0.9999999999999999
 10
268.9655374801286
 20
42.63016617016342
 30
0.0
 10
268.9474301281152
 20
42.56428295376593
 30
0.0
 10
268.8797996951207
 20
42.31821105718317
 30
0.0
 10
268.7529774861068
 20
41.94864867078182
 30
0.0
 10
268.6156557855059
 20
41.73310018650039
 30
0.0
 10
268.5420915463687
 20
41.68253786042064
 30
0.0
 10
268.515921711772
 20
41.66455075519329
 30
0.0
  0
LINE
  5
238
330
1F
100
AcDbEntity
  8
0
  6
Continuous
 62
     7
370
    15
100
AcDbLine
 10
268.9655374801
 20
41.2379481129
 30
0.0
 11
268.9655374801
 21
42.6301661702
 31
0.0
  0
LINE
  5
239
330
1F
100
AcDbEntity
  8
0
  6
Continuous
 62
     7
370
    15
100
AcDbLine
 10
270.6389254434
 20
40.9718794174
 30
0.0
 11
270.6389254434
 21
42.8881903519
 31
0.0
  0
LWPOLYLINE
  5
23A
330
1F
100
AcDbEntity
  8
0
  6
Continuous
 62
     7
370
     0
100
AcDbPolyline
 90
        9
 70
   128
 43
0.0
 10
239.0942889724
 20
40.3335108499
 10
239.1443627372
 20
39.2775057057
 10
239.294016676
 20
38.29127946
 10
239.5415551498
 20
37.3860064503
 10
239.8841734489
 20
36.5719437815
 10
240.3179895708
 20
35.8583151089
 10
240.8380882057
 20
35.2532061306
 10
241.4385764283
 20
34.763472973
 10
241.6836316583
 20
34.610450769
  0
LWPOLYLINE
  5
23B
330
1F
100
AcDbEntity
  8
0
  6
Continuous
 62
     7
370
     0
100
AcDbPolyline
 90
       24
 70
   128
 43
0.0
 10
254.1826158162
 20
56.2616723285
 10
254.0993734793
 20
56.3084638596
 10
253.391321772
 20
56.6151552789
 10
252.6214264999
 20
56.7951830994
 10
251.7984108842
 20
56.8465075338
 10
250.9316000207
 20
56.7685470558
 10
250.0308152227
 20
56.5621849888
 10
249.106262742
 20
56.2297594974
 10
248.1684181276
 20
55.7750370954
 10
247.2279075337
 20
55.2031699691
 10
246.2953873212
 20
54.5206376017
 10
245.3814233168
 20
53.7351733576
 10
244.4963710976
 20
52.8556768606
 10
243.6502586592
 20
51.8921131574
 10
242.8526727934
 20
50.8553998097
 10
242.1126504669
 20
49.7572831941
 10
241.4385764283
 20
48.6102054105
 10
240.8380882057
 20
47.4271633087
 10
240.3179895708
 20
46.2215612283
 10
239.8841734489
 20
45.0070591227
 10
239.5415551498
 20
43.797417786
 10
239.294016676
 20
42.6063429379
 10
239.1443627372
 20
41.4473299324
 10
239.0942889724
 20
40.3335108499
  0
LWPOLYLINE
  5
23C
330
1F
100
AcDbEntity
  8
0
  6
Continuous
 62
     7
370
     0
100
AcDbPolyline
 90
       46
 70
   128
 43
0.0
 10
275.1567348129
 20
35.8442614853
 10
274.4186579871
 20
35.3585799103
 10
273.6949469871
 20
34.7631537889
 10
272.9996880243
 20
34.0695724133
 10
272.3464135238
 20
33.2913355561
 10
271.7478387304
 20
32.4435907124
 10
271.2156142217
 20
31.5428382713
 10
270.7600991423
 20
30.6066103546
 10
270.3901595752
 20
29.6531295735
 10
270.1129959732
 20
28.7009543471
 10
269.9340030105
 20
27.768617683
 10
269.8566645816
 20
26.8742664538
 10
269.882485991
 20
26.0353081889
 10
270.0109646544
 20
25.2680722566
 10
270.2395998806
 20
24.5874920317
 10
270.5639415452
 20
24.006814234
 10
270.9776767065
 20
23.5373410964
 10
271.4727524802
 20
23.1882103796
 10
272.0395327796
 20
22.9662175156
 10
272.6669858708
 20
22.8756833433
 10
273.342899093
 20
22.9183700071
 10
274.0541165644
 20
23.0934466599
 10
274.7867952458
 20
23.3975056336
 10
275.52667438
 20
23.8246287662
 10
276.2593530614
 20
24.3665025918
 10
276.9705705328
 20
25.0125801528
 10
277.6464837551
 20
25.7502862842
 10
278.2739368462
 20
26.5652623755
 10
278.8407171456
 20
27.441645844
 10
279.3357929193
 20
28.3623788823
 10
279.7495280806
 20
29.3095404692
 10
280.0738697452
 20
30.2646951818
 10
280.3025049715
 20
31.2092520201
 10
280.4309836348
 20
32.1248262596
 10
280.4568050442
 20
32.9935972892
 10
280.3794666153
 20
33.798655469
 10
280.2004736526
 20
34.5243312574
 10
279.9233100506
 20
35.1565002005
 10
279.5533704835
 20
35.6828578488
 10
279.0978554042
 20
36.0931592497
 10
278.5656308954
 20
36.3794183529
 10
277.9670561021
 20
36.5360634506
 10
277.3137816015
 20
36.5600456242
 10
276.6185226388
 20
36.450898088
 10
275.8948116388
 20
36.2107452746
 10
275.1567348129
 20
35.8442614853
  0
LWPOLYLINE
  5
23D
330
1F
100
AcDbEntity
  8
0
  6
Continuous
 62
     7
370
     0
100
AcDbPolyline
 90
       24
 70
   128
 43
0.0
 10
271.2917849322
 20
23.8687537997
 10
271.5617861624
 20
23.7333871734
 10
272.1271459049
 20
23.5710401039
 10
272.7469820134
 20
23.5380272358
 10
273.4086764124
 20
23.6350206157
 10
274.0987589119
 20
23.8600457383
 10
274.8031814223
 20
24.2085217409
 10
275.5076039328
 20
24.6733546571
 10
276.1976864323
 20
25.2450818291
 10
276.8593808312
 20
25.9120645405
 10
277.4792169398
 20
26.6607249466
 10
278.0445766823
 20
27.4758224805
 10
278.5439509646
 20
28.3407641071
 10
278.9671739667
 20
29.237942109
 10
279.3056300884
 20
30.1490925295
 10
279.5524293393
 20
31.0556669734
 10
279.7025475983
 20
31.9392101995
 10
279.7529288906
 20
32.7817358155
 10
279.7025475983
 20
33.5660924297
 10
279.5524293393
 20
34.2763128032
 10
279.3056300884
 20
34.8979388973
 10
278.9671739667
 20
35.4183161974
 10
278.5439509646
 20
35.8268513223
 10
278.4099879426
 20
35.9209229551
  0
LWPOLYLINE
  5
23E
330
1F
100
AcDbEntity
  8
0
  6
Continuous
 62
     7
370
     0
100
AcDbPolyline
 90
       32
 70
   128
 43
0.0
 10
236.0890851524
 20
39.82325578
 10
236.1394259018
 20
41.054132095
 10
236.289978132
 20
42.3316382416
 10
236.5393361774
 20
43.6438464891
 10
236.8851718491
 20
44.9785051027
 10
237.3242561727
 20
46.3231527344
 10
237.852489536
 20
47.6652347717
 10
238.4649399666
 20
48.9922205562
 10
239.1558891797
 20
50.2917203791
 10
239.9188859688
 20
51.5516011607
 10
240.7468064383
 20
52.7600997336
 10
241.631920518
 20
53.9059326723
 10
242.5659641361
 20
54.9784016433
 10
243.540216379
 20
55.9674932928
 10
244.5455809161
 20
56.8639727385
 10
245.5726709296
 20
57.6594697936
 10
246.6118967567
 20
58.3465571161
 10
247.6535554259
 20
58.9188195571
 10
248.6879212508
 20
59.3709140561
 10
249.7053366365
 20
59.6986195288
 10
250.6963022496
 20
59.8988762774
 10
251.6515657111
 20
59.9698145586
 10
252.5622079836
 20
59.9107720407
 10
253.4197266455
 20
59.722299988
 10
254.2161152761
 20
59.406158113
 10
254.9439382092
 20
58.9652981475
 10
255.5963999584
 20
58.4038362819
 10
256.167408664
 20
57.7270147346
 10
256.6516329716
 20
56.941152806
 10
257.0445518093
 20
56.053587877
 10
257.3424965999
 20
55.0726069025
 10
257.4901618818
 20
54.3522666277
  0
LWPOLYLINE
  5
23F
330
1F
100
AcDbEntity
  8
0
  6
Continuous
 62
     7
370
     0
100
AcDbPolyline
 90
       16
 70
   128
 43
0.0
 10
244.9911777238
 20
32.7010450682
 10
244.5455809161
 20
32.5462010049
 10
243.540216379
 20
32.2819112638
 10
242.5659641361
 20
32.1461552167
 10
241.631920518
 20
32.1402003811
 10
240.7468064383
 20
32.2641023558
 10
239.9188859688
 20
32.5167043014
 10
239.1558891797
 20
32.8956477417
 10
238.4649399666
 20
33.3973945837
 10
237.852489536
 20
34.0172601525
 10
237.3242561727
 20
34.7494569303
 10
236.8851718491
 20
35.5871485929
 10
236.5393361774
 20
36.5225138391
 10
236.289978132
 20
37.5468194155
 10
236.1394259018
 20
38.6505016571
 10
236.0890851524
 20
39.82325578
  0
LWPOLYLINE
  5
240
330
1F
100
AcDbEntity
  8
0
  6
Continuous
 62
     7
370
     0
100
AcDbPolyline
 90
       24
 70
   128
 43
0.0
 10
235.3819783712
 20
39.82325578
 10
235.4324072607
 20
41.0748376939
 10
235.5832372374
 20
42.3733090447
 10
235.8331023616
 20
43.7069106748
 10
236.1797398161
 20
45.0635652812
 10
236.6200103985
 20
46.4309867898
 10
237.1499269501
 20
47.7967916196
 10
237.7646904646
 20
49.1486108306
 10
238.4587335485
 20
50.4742021387
 10
239.22577084
 20
51.7615607837
 10
240.0588559307
 20
52.9990282464
 10
240.950444273
 20
54.1753978298
 10
241.8924615048
 20
55.2800161489
 10
242.8763765722
 20
56.3028796089
 10
243.893278988
 20
57.2347250002
 10
244.9339595264
 20
58.0671133864
 10
245.9889936232
 20
58.7925065295
 10
247.0488267265
 20
59.4043351569
 10
248.1038608234
 20
59.8970584537
 10
249.1445413617
 20
60.2662142415
 10
250.1614437775
 20
60.5084593883
 10
251.1453588449
 20
60.6216000845
 10
252.0873760767
 20
60.6046117104
 10
252.6306267828
 20
60.5316613114
  0
ARC
  5
241
330
1F
100
AcDbEntity
  8
0
  6
Continuous
 62
     7
370
     0
100
AcDbCircle
 10
244.6575430134
 20
39.3625587402
 30
0.0
 40
9.28699850304306
100
AcDbArc
 50
177.1565803543
 51
216.3935919554
  0
LWPOLYLINE
  5
242
330
1F
100
AcDbEntity
  8
0
  6
Continuous
 62
     7
370
     0
100
AcDbPolyline
 90
       29
 70
   128
 43
0.0
 10
236.9729686288
 20
40.3335108499
 10
237.0237597359
 20
41.5193448247
 10
237.1756118718
 20
42.7516527023
 10
237.4269668279
 20
44.0177893363
 10
237.7752453624
 20
45.3047624513
 10
238.2168736661
 20
46.5993659618
 10
238.7473200351
 20
47.8883154838
 10
239.3611413717
 20
49.1583846511
 10
240.0520390386
 20
50.3965408351
 10
240.8129234905
 20
51.5900788781
 10
241.6359870236
 20
52.7267514646
 10
242.512783892
 20
53.7948947957
 10
243.4343169735
 20
54.7835482754
 10
244.3911300915
 20
55.6825669811
 10
245.3734050488
 20
56.4827257643
 10
246.371062375
 20
57.1758139131
 10
247.3738647559
 20
57.7547194053
 10
248.3715220821
 20
58.213501887
 10
249.3537970394
 20
58.5474536292
 10
250.3106101574
 20
58.7531478352
 10
251.2321432389
 20
58.8284738039
 10
252.1089401073
 20
58.7726585891
 10
252.9320036403
 20
58.5862749304
 10
253.6928880923
 20
58.2712353763
 10
254.3837857592
 20
57.8307726589
 10
254.9976070958
 20
57.2694065219
 10
255.5280534648
 20
56.5928973413
 10
255.9696817685
 20
55.8081870169
 10
256.2745918625
 20
55.0540002631
  0
LWPOLYLINE
  5
243
330
1F
100
AcDbEntity
  8
0
  6
Continuous
 62
     7
370
     0
100
AcDbPolyline
 90
       14
 70
   128
 43
0.0
 10
243.7756077045
 20
33.4027787035
 10
243.4343169735
 20
33.3435874301
 10
242.512783892
 20
33.2682614614
 10
241.6359870236
 20
33.3240766762
 10
240.8129234905
 20
33.5104603349
 10
240.0520390386
 20
33.825499889
 10
239.3611413717
 20
34.2659626064
 10
238.7473200351
 20
34.8273287434
 10
238.2168736661
 20
35.503837924
 10
237.7752453624
 20
36.2885482484
 10
237.4269668279
 20
37.1734075268
 10
237.1756118718
 20
38.1493359056
 10
237.0237597359
 20
39.2063190391
 10
236.9729686288
 20
40.3335108499
  0
LWPOLYLINE
  5
244
330
1F
100
AcDbEntity
  8
0
  6
Continuous
 62
     7
370
     0
100
AcDbPolyline
 90
       18
 70
   128
 43
0.0
 10
233.2831318518
 20
46.70242483
 10
233.6335730559
 20
47.9907017286
 10
234.0811631193
 20
49.2863712542
 10
234.6209179333
 20
50.575005566
 10
235.2468270943
 20
51.8422551638
 10
235.9519208334
 20
53.0740086753
 10
236.7283476267
 20
54.2565499923
 10
237.5674616261
 20
55.376711006
 10
238.4599189343
 20
56.422018239
 10
239.3957816534
 20
57.3808317432
 10
240.364628547
 20
58.2424747156
 10
241.3556710862
 20
58.997352389
 10
242.3578735836
 20
59.6370588741
 10
243.360076081
 20
60.1544707626
 10
244.3511186202
 20
60.5438264492
 10
245.3199655139
 20
60.80079029
 10
246.2558282329
 20
60.9225008816
 10
246.9023789717
 20
60.925612913
  0
LWPOLYLINE
  5
245
330
1F
100
AcDbEntity
  8
0
  6
Continuous
 62
     7
370
     0
100
AcDbPolyline
 90
       21
 70
   128
 43
0.0
 10
227.697003951
 20
48.3815019813
 10
228.0426693417
 20
49.7393886593
 10
228.4822197482
 20
51.1082337426
 10
229.0116658869
 20
52.475613829
 10
229.6262025957
 20
53.8291188125
 10
230.3202524455
 20
55.1564645152
 10
231.0875163593
 20
56.4456041762
 10
231.9210307822
 20
57.6848377862
 10
232.813230881
 20
58.8629182744
 10
233.7560192012
 20
59.9691535854
 10
234.7408391585
 20
60.9935037182
 10
235.7587526968
 20
61.9266718474
 10
236.8005214082
 20
62.7601887
 10
237.8566903795
 20
63.4864894207
 10
238.917674003
 20
64.0989822293
 10
239.9738429742
 20
64.5921082466
 10
241.0156116856
 20
64.9613919458
 10
242.0335252239
 20
65.2034817718
 10
243.0183451812
 20
65.3161805591
 10
243.9611335014
 20
65.2984654727
 10
244.4468766087
 20
65.2351726235
  0
LWPOLYLINE
  5
246
330
1F
100
AcDbEntity
  8
0
  6
Continuous
 62
     7
370
     0
100
AcDbPolyline
 90
       17
 70
   128
 43
0.0
 10
233.6764046033
 20
46.646644291
 10
234.02453191
 20
47.9116259802
 10
234.4674697614
 20
49.1832562623
 10
235.0003226394
 20
50.4474805936
 10
235.6172012504
 20
51.690326284
 10
236.3112876162
 20
52.8980569283
 10
237.0749104294
 20
54.0573242259
 10
237.8996298389
 20
55.155315512
 10
238.7763307307
 20
56.1798953674
 10
239.6953234718
 20
57.1197397443
 10
240.6464510034
 20
57.9644611236
 10
241.6192011006
 20
58.704723322
 10
242.6028225579
 20
59.3323446788
 10
243.5864440152
 20
59.8403884832
 10
244.5591941124
 20
60.223239641
 10
245.5103216439
 20
60.4766667349
 10
246.0373136988
 20
60.5619006647
  0
LINE
  5
247
330
1F
100
AcDbEntity
  8
0
  6
Continuous
 62
     7
370
     0
100
AcDbLine
 10
233.6857272542
 20
40.0681089036
 30
0.0
 11
234.0915084955
 21
40.3023614279
 31
0.0
  0
LINE
  5
248
330
1F
100
AcDbEntity
  8
0
  6
Continuous
 62
     7
370
     0
100
AcDbLine
 10
234.646313661
 20
40.0451283135
 30
0.0
 11
234.0915084955
 21
40.3023614279
 31
0.0
  0
ARC
  5
249
330
1F
100
AcDbEntity
  8
0
  6
Continuous
 62
     7
370
     0
100
AcDbCircle
 10
233.403519326
 20
41.3589630231
 30
0.0
 40
1.260847345342883
100
AcDbArc
 50
303.0695173616
 51
345.5982002285
  0
LINE
  5
24A
330
1F
100
AcDbEntity
  8
0
  6
Continuous
 62
     7
370
     0
100
AcDbLine
 10
230.1979163278
 20
43.8564434812
 30
0.0
 11
234.5829068334
 21
41.3250423447
 31
0.0
  0
LINE
  5
24B
330
1F
100
AcDbEntity
  8
0
  6
Continuous
 62
     7
370
     0
100
AcDbLine
 10
230.0786775123
 20
43.7875860011
 30
0.0
 11
230.1979163278
 21
43.8564434812
 31
0.0
  0
LINE
  5
24C
330
1F
100
AcDbEntity
  8
0
  6
Continuous
 62
     7
370
     0
100
AcDbLine
 10
229.8223513041
 20
46.8188527882
 30
0.0
 11
229.8275391988
 21
47.1515182524
 31
0.0
  0
ARC
  5
24D
330
1F
100
AcDbEntity
  8
0
  6
Continuous
 62
     7
370
     0
100
AcDbCircle
 10
238.2722070467
 20
46.7307127168
 30
0.0
 40
8.450315422702403
100
AcDbArc
 50
179.4023719336
 51
192.8818183876
  0
LWPOLYLINE
  5
24E
330
1F
100
AcDbEntity
  8
0
  6
Continuous
 62
     7
370
     0
100
AcDbPolyline
 90
       16
 70
   128
 43
0.0
 10
209.9768354058
 20
62.1177322358
 10
210.0274298427
 20
62.9265617323
 10
210.1780829572
 20
63.7757384078
 10
210.4254294076
 20
64.6462930585
 10
210.7639438831
 20
65.5187789323
 10
211.1860645295
 20
66.3737061362
 10
211.6823618693
 20
67.1919770095
 10
212.2417494399
 20
67.9553127328
 10
212.8517314473
 20
68.6466616475
 10
213.4986819015
 20
69.2505801614
 10
214.1681489984
 20
69.7535777326
 10
214.8451779493
 20
70.1444182267
 10
215.5146450463
 20
70.4143709128
 10
216.1615955005
 20
70.5574054941
 10
216.7715775079
 20
70.5703268143
 10
217.1796741848
 20
70.4989228094
  0
ARC
  5
24F
330
1F
100
AcDbEntity
  8
0
  6
Continuous
 62
     7
370
     0
100
AcDbCircle
 10
213.4563534808
 20
61.8670678153
 30
0.0
 40
3.488535320981407
100
AcDbArc
 50
175.879531301
 51
224.1400747385
  0
LWPOLYLINE
  5
250
330
1F
100
AcDbEntity
  8
0
  6
Continuous
 62
     7
370
     0
100
AcDbPolyline
 90
        3
 70
   128
 43
0.0
 10
234.146564494
 20
38.9732002922
 10
234.0209646646
 20
39.2177803815
 10
233.6764046033
 20
40.0734907554
  0
LWPOLYLINE
  5
251
330
1F
100
AcDbEntity
  8
0
  6
Continuous
 62
     7
370
     0
100
AcDbPolyline
 90
        3
 70
   128
 43
0.0
 10
234.0616969957
 20
38.4953821203
 10
233.6335730559
 20
39.2456051975
 10
233.2831318518
 20
40.1292712943
  0
LINE
  5
252
330
1F
100
AcDbEntity
  8
0
  6
Continuous
 62
     7
370
     0
100
AcDbLine
 10
234.0915084955
 20
40.3023614279
 30
0.0
 11
229.8665454779
 21
42.741380662
 31
0.0
  0
ARC
  5
253
330
1F
100
AcDbEntity
  8
0
  6
Continuous
 62
     7
370
     0
100
AcDbCircle
 10
234.5853101138
 20
43.0627573928
 30
0.0
 40
7.143747898772498
100
AcDbArc
 50
195.3682058743
 51
219.2094875773
  0
ARC
  5
254
330
1F
100
AcDbEntity
  8
0
  6
Continuous
 62
     7
370
     0
100
AcDbCircle
 10
271.7987941583
 20
33.2859215021
 30
0.0
 40
2.105574885741623
100
AcDbArc
 50
341.2669102266
 51
33.89378972
  0
LWPOLYLINE
  5
255
330
1F
100
AcDbEntity
  8
0
  6
Continuous
 62
     7
370
     0
100
AcDbPolyline
 90
       11
 70
   128
 43
0.0
 10
273.4134429066
 20
34.3398832595
 10
273.5005225271
 20
34.1641315144
 10
273.6630780567
 20
33.706886164
 10
273.7303876861
 20
33.2664606196
 10
273.6969983894
 20
32.8785355396
 10
273.5656151689
 20
32.5745383067
 10
273.3468819117
 20
32.379096969
 10
273.0585190855
 20
32.3080450212
 10
272.7238881315
 20
32.3671386695
 10
272.3700988594
 20
32.5515904981
 10
272.0951364097
 20
32.7771852175
  0
OLE2FRAME
  5
256
330
1F
100
AcDbEntity
  8
0
100
AcDbOle2Frame
 70
     2
  3
Paintbrush-Bild
 10
13.8511154363
 20
38.264191557
 30
0.0
 11
51.6290888628
 21
31.9806341108
 31
0.0
 71
     2
 72
     0
 73
     1
 90
    12928
310
80552BED0767C5B32B40DDAF6807D121434000000000000000006FFBDDFB85D0
310
4940DDAF6807D121434000000000000000006FFBDDFB85D04940416F4BD60AFB
310
3F4000000000000000002BED0767C5B32B40416F4BD60AFB3F40000000000000
310
0000000000000100000000010000010000000100000000000100000000320000
310
D0CF11E0A1B11AE1000000000000000000000000000000003E000300FEFF0900
310
0600000000000000000000000100000001000000000000000010000002000000
310
01000000FEFFFFFF0000000000000000FFFFFFFFFFFFFFFFFFFFFFFFFFFFFFFF
310
FFFFFFFFFFFFFFFFFFFFFFFFFFFFFFFFFFFFFFFFFFFFFFFFFFFFFFFFFFFFFFFF
310
FFFFFFFFFFFFFFFFFFFFFFFFFFFFFFFFFFFFFFFFFFFFFFFFFFFFFFFFFFFFFFFF
310
FFFFFFFFFFFFFFFFFFFFFFFFFFFFFFFFFFFFFFFFFFFFFFFFFFFFFFFFFFFFFFFF
310
FFFFFFFFFFFFFFFFFFFFFFFFFFFFFFFFFFFFFFFFFFFFFFFFFFFFFFFFFFFFFFFF
310
FFFFFFFFFFFFFFFFFFFFFFFFFFFFFFFFFFFFFFFFFFFFFFFFFFFFFFFFFFFFFFFF
310
FFFFFFFFFFFFFFFFFFFFFFFFFFFFFFFFFFFFFFFFFFFFFFFFFFFFFFFFFFFFFFFF
310
FFFFFFFFFFFFFFFFFFFFFFFFFFFFFFFFFFFFFFFFFFFFFFFFFFFFFFFFFFFFFFFF
310
FFFFFFFFFFFFFFFFFFFFFFFFFFFFFFFFFFFFFFFFFFFFFFFFFFFFFFFFFFFFFFFF
310
FFFFFFFFFFFFFFFFFFFFFFFFFFFFFFFFFFFFFFFFFFFFFFFFFFFFFFFFFFFFFFFF
310
FFFFFFFFFFFFFFFFFFFFFFFFFFFFFFFFFFFFFFFFFFFFFFFFFFFFFFFFFFFFFFFF
310
FFFFFFFFFFFFFFFFFFFFFFFFFFFFFFFFFFFFFFFFFFFFFFFFFFFFFFFFFFFFFFFF
310
FFFFFFFFFFFFFFFFFFFFFFFFFFFFFFFFFFFFFFFFFFFFFFFFFFFFFFFFFFFFFFFF
310
FFFFFFFFFFFFFFFFFFFFFFFFFFFFFFFFFFFFFFFFFFFFFFFFFFFFFFFFFFFFFFFF
310
FDFFFFFFFEFFFFFFFEFFFFFFFEFFFFFF05000000060000000700000008000000
310
090000000A0000000B0000000C0000000D0000000E0000000F00000010000000
310
11000000120000001300000014000000150000001600000017000000FEFFFFFF
310
FFFFFFFFFFFFFFFFFFFFFFFFFFFFFFFFFFFFFFFFFFFFFFFFFFFFFFFFFFFFFFFF
310
FFFFFFFFFFFFFFFFFFFFFFFFFFFFFFFFFFFFFFFFFFFFFFFFFFFFFFFFFFFFFFFF
310
FFFFFFFFFFFFFFFFFFFFFFFFFFFFFFFFFFFFFFFFFFFFFFFFFFFFFFFFFFFFFFFF
310
FFFFFFFFFFFFFFFFFFFFFFFFFFFFFFFFFFFFFFFFFFFFFFFFFFFFFFFFFFFFFFFF
310
FFFFFFFFFFFFFFFFFFFFFFFFFFFFFFFFFFFFFFFFFFFFFFFFFFFFFFFFFFFFFFFF
310
FFFFFFFFFFFFFFFFFFFFFFFFFFFFFFFFFFFFFFFFFFFFFFFFFFFFFFFFFFFFFFFF
310
FFFFFFFFFFFFFFFFFFFFFFFFFFFFFFFFFFFFFFFFFFFFFFFFFFFFFFFFFFFFFFFF
310
FFFFFFFFFFFFFFFFFFFFFFFFFFFFFFFFFFFFFFFFFFFFFFFFFFFFFFFFFFFFFFFF
310
FFFFFFFFFFFFFFFFFFFFFFFFFFFFFFFFFFFFFFFFFFFFFFFFFFFFFFFFFFFFFFFF
310
FFFFFFFFFFFFFFFFFFFFFFFFFFFFFFFFFFFFFFFFFFFFFFFFFFFFFFFFFFFFFFFF
310
FFFFFFFFFFFFFFFFFFFFFFFFFFFFFFFFFFFFFFFFFFFFFFFFFFFFFFFFFFFFFFFF
310
FFFFFFFFFFFFFFFFFFFFFFFFFFFFFFFFFFFFFFFFFFFFFFFFFFFFFFFFFFFFFFFF
310
FFFFFFFFFFFFFFFFFFFFFFFFFFFFFFFFFFFFFFFFFFFFFFFFFFFFFFFFFFFFFFFF
310
52006F006F007400200045006E00740072007900000000000000000000000000
310
0000000000000000000000000000000000000000000000000000000000000000
310
16000500FFFFFFFFFFFFFFFF020000000A00030000000000C000000000000046
310
000000000000000000000000A004FBF94E25D20103000000C000000000000000
310
01004F006C006500000000000000000000000000000000000000000000000000
310
0000000000000000000000000000000000000000000000000000000000000000
310
0A000200FFFFFFFFFFFFFFFFFFFFFFFF00000000000000000000000000000000
310
0000000000000000000000000000000000000000000000001400000000000000
310
010043006F006D0070004F0062006A0000000000000000000000000000000000
310
0000000000000000000000000000000000000000000000000000000000000000
310
120002010100000003000000FFFFFFFF00000000000000000000000000000000
310
0000000000000000000000000000000000000000010000004D00000000000000
310
01004F006C006500310030004E00610074006900760065000000000000000000
310
0000000000000000000000000000000000000000000000000000000000000000
310
1A000200FFFFFFFFFFFFFFFFFFFFFFFF00000000000000000000000000000000
310
0000000000000000000000000000000000000000040000002426000000000000
310
FEFFFFFF02000000FEFFFFFFFFFFFFFFFFFFFFFFFFFFFFFFFFFFFFFFFFFFFFFF
310
FFFFFFFFFFFFFFFFFFFFFFFFFFFFFFFFFFFFFFFFFFFFFFFFFFFFFFFFFFFFFFFF
310
FFFFFFFFFFFFFFFFFFFFFFFFFFFFFFFFFFFFFFFFFFFFFFFFFFFFFFFFFFFFFFFF
310
FFFFFFFFFFFFFFFFFFFFFFFFFFFFFFFFFFFFFFFFFFFFFFFFFFFFFFFFFFFFFFFF
310
FFFFFFFFFFFFFFFFFFFFFFFFFFFFFFFFFFFFFFFFFFFFFFFFFFFFFFFFFFFFFFFF
310
FFFFFFFFFFFFFFFFFFFFFFFFFFFFFFFFFFFFFFFFFFFFFFFFFFFFFFFFFFFFFFFF
310
FFFFFFFFFFFFFFFFFFFFFFFFFFFFFFFFFFFFFFFFFFFFFFFFFFFFFFFFFFFFFFFF
310
FFFFFFFFFFFFFFFFFFFFFFFFFFFFFFFFFFFFFFFFFFFFFFFFFFFFFFFFFFFFFFFF
310
FFFFFFFFFFFFFFFFFFFFFFFFFFFFFFFFFFFFFFFFFFFFFFFFFFFFFFFFFFFFFFFF
310
FFFFFFFFFFFFFFFFFFFFFFFFFFFFFFFFFFFFFFFFFFFFFFFFFFFFFFFFFFFFFFFF
310
FFFFFFFFFFFFFFFFFFFFFFFFFFFFFFFFFFFFFFFFFFFFFFFFFFFFFFFFFFFFFFFF
310
FFFFFFFFFFFFFFFFFFFFFFFFFFFFFFFFFFFFFFFFFFFFFFFFFFFFFFFFFFFFFFFF
310
FFFFFFFFFFFFFFFFFFFFFFFFFFFFFFFFFFFFFFFFFFFFFFFFFFFFFFFFFFFFFFFF
310
FFFFFFFFFFFFFFFFFFFFFFFFFFFFFFFFFFFFFFFFFFFFFFFFFFFFFFFFFFFFFFFF
310
FFFFFFFFFFFFFFFFFFFFFFFFFFFFFFFFFFFFFFFFFFFFFFFFFFFFFFFFFFFFFFFF
310
FFFFFFFFFFFFFFFFFFFFFFFFFFFFFFFFFFFFFFFFFFFFFFFFFFFFFFFFFFFFFFFF
310
0100000200000000000000000000000000000000000000000000000000000000
310
0000000000000000000000000000000000000000000000000000000000000000
310
0100FEFF030A0000FFFFFFFF0A00030000000000C00000000000004607000000
310
5042727573680007000000504272757368000700000050427275736800F439B2
310
7100000000000000000000000000000000000000000000000000000000000000
310
0000000000000000000000000000000000000000000000000000000000000000
310
0000000000000000000000000000000000000000000000000000000000000000
310
0000000000000000000000000000000000000000000000000000000000000000
310
0000000000000000000000000000000000000000000000000000000000000000
310
0000000000000000000000000000000000000000000000000000000000000000
310
0000000000000000000000000000000000000000000000000000000000000000
310
0000000000000000000000000000000000000000000000000000000000000000
310
0000000000000000000000000000000000000000000000000000000000000000
310
0000000000000000000000000000000000000000000000000000000000000000
310
0000000000000000000000000000000000000000000000000000000000000000
310
0000000000000000000000000000000000000000000000000000000000000000
310
20260000424D0E260000000000003E00000028000000B40200006E0000000100
310
01000000000000000000130B0000130B00000200000002000000000000FFFFFF
310
FFFFFFFFFFFFFFFFFFFFFFFFFFFFFFFFFFFFFFFFFFFFFFFFFFFFFFFFFFFFFFFF
310
FFFFFFFFFFFFFFFFFFFFFFFFFFFFFFFFFFFFFFFFFFFFFFFFFFFFFFFFFFFFFFFF
310
FFFFFFFFFFFFFFFFFFFFFFFFFFFFFFFFFFFFFFFFFFFFFFFFF000FFFFFFFFFFFF
310
FFFFFFFFFFFFFFFFFFFFFFFFFFFFFFFFFFFFFFFFFFFFFFFFFFFFFFFFFFFFFFFF
310
FFFFFFFFFFFFFFFFFFFFFFFFFFFFFFFFFFFFFFFFFFFFFFFFFFFFFFFFFFFFFFFF
310
FFFFFFFFFFFFFFFFFFFFFFFFFFFFFFFFF000FFFFFFFFFFFFFFFFFFFFFFFFFFFF
310
FFFFFFFFFFFFFFFFFFFFFFFFFFFFFFFFFFFFFFFFFFFFFFFFFFFFFFFFFFFFFFFF
310
FFFFFFFFFFFFFFFFFFFFFFFFFFFFFFFFFFFFFFFFFFFFFFFFFFFFFFFFFFFFFFFF
310
FFFFFFFFFFFFFFFFF000FFFFFFFFFFFFFFFFFFFFFFFFFFFFFFFFFFFFFFFFFFFF
310
FFFFFFFFFFFFFFFFFFFFFFFFFFFFFFFFFFFFFFFFFFFFFFFFFFFFFFFFFFFFFFFF
310
FFFFFFFFFFFFFFFFFFFFFFFFFFFFFFFFFFFFFFFFFFFFFFFFFFFFFFFFFFFFFFFF
310
F000FFFFFFFFFFFFFFFFFFFFFFFFFFFFFFFFFFFFFFFFFFFFFFFFFFFFFFFFFFFF
310
FFFFFFFFFFFFFFFFFFFFFFFFFFFFFFFFFFFFFFFFFFFFFFFFFFFFFFFFFFFFFFFF
310
FFFFFFFFFFFFFFFFFFFFFFFFFFFFFFFFFFFFFFFFFFFFFFFFF000FFFFFFFFFFFF
310
FFFFFFFFFFFFFFFFFFFFFFFFFFFFFFFFFFFFFFFFFFFFFFFFFFFFFFFFFFFFFFFF
310
FFFFFFFFFFFFFFFFFFFFFFFFFFFFFFFFFFFFFFFFFFFFFFFFFFFFFFFFFFFFFFFF
310
FFFFFFFFFFFFFFFFFFFFFFFFFFFFFFFFF000FFFFFFFFFFFFFFFFFFFFFFFFFFFF
310
FFFFFFFFFFFFFFFFFFFFFFFFFFFFFFFFFFFFFFFFFFFFFFFFFFFFFFFFFFFFFFFF
310
FFFFFFFFFFFFFFFFFFFFFFFFFFFFFFFFFFFFFFFFFFFFFFFFFFFFFFFFFFFFFFFF
310
FFFFFFFFFFFFFFFFF000FFFFFFFFFFFFFFFFFFFFFFFFFFFFFFFFFFFFFFFFFFFF
310
FFFFFFFFFFFFFFFFFFFFFFFFFFFFFFFFFFFFFFFFFFFFFFFFFFFFFFFFFFFFFFFF
310
FFFFFFFFFFFFFFFFFFFFFFFFFFFFFFFFFFFFFFFFFFFFFFFFFFFFFFFFFFFFFFFF
310
F000FFFFFFFFFFFFFFFFFFFFFFFFFFFFFFFFFFFFFFFFFFFFFFFFFFFFFFFFFFFF
310
FFFFFFFFFFFFFFFFFFFFFFFFFFFFFFFFFFFFFFFFFFFFFFFFFFFFFFFFFFFFFFFF
310
FFFFFFFFFFFFFFFFFFFFFFFFFFFFFFFFFFFFFFFFFFFFFFFFF000FFFFFFFFFFFF
310
FFFFFFFFFFFFFFFFFFFFFFFFFFFFFFFFFFFFFFFFFFFFFFFFFFFFFFFFFFFFFFFF
310
FFFFFFFFFFFFFFFFFFFFFFFFFFFFFFFFFFFFFFFFFFFFFFFFFFFFFFFFFFFFFFFF
310
FFFFFFFFFFFFFFFFFFFFFFFFFFFFFFFFF000FFFFFFFFFFFFFFFFFFFFFFFFFFFF
310
FFFFFFFFFFFFFFFFFFFFFFFFFFFFFFFFFFFFFFFFFFFFFFFFFFFFFFFFFFFFFFFF
310
FFFFFFFFFFFFFFFFFFFFFFFFFFFFFFFFFFFFFFFFFFFFFFFFFFFFFFFFFFFFFFFF
310
FFFFFFFFFFFFFFFFF000FFFFFFFFFFFFFFFFFFFFFFFFFFFFFFFFFFFFFFFFFFFF
310
FFFFFFFFFFFFFFFFFFFFFFFFFFFFFFFFFFFFFFFFFFFFFFFFFFFFFFFFFFFFFFFF
310
FFFFFFFFFFFFFFFFFFFFFFFFFFFFFFFFFFFFFFFFFFFFFFFFFFFFFFFFFFFFFFFF
310
F000FFFFFFFFFFFFFFFFFFFFFFFFFFFFFFFFFFFFFFFFFFFFFFFFFFFFFFFFFFFF
310
FFFFFFFFFFFFFFFFFFFFFFFFFFFFFFFFFFFFFFFFFFFFFFFFFFFFFFFFFFFFFFFF
310
FFFFFFFFFFFFFFFFFFFFFFFFFFFFFFFFFFFFFFFFFFFFFFFFF000FFFFFFFFFFFF
310
FFFFFFFFFFFFFFFFFFFFFFFFFFFFFFFFFFFFFFFFFFFFFFFFFFFFFFFFFFFFFFFF
310
FFFFFFFFFFFFFFFFFFFFFFFFFFFFFFFFFFFFFFFFFFFFFFFFFFFFFFFFFFFFFFFF
310
FFFFFFFFFFFFFFFFFFFFFFFFFFFFFFFFF000FFFFFFFFFFFFFFFFFFFFFFFFFFFF
310
FFFFFFFFFFFFFFFFFFFFFFFFFFFFFFFFFFFFFFFFFFFFFFFFFFFFFFFFFFFFFFFF
310
FFFFFFFFFFFFFFFFFFFFFFFFFFFFFFFFFFFFFFFFFFFFFFFFFFFFFFFFFFFFFFFF
310
FFFFFFFFFFFFFFFFF000FFFFFFFFFFFFFFFFFFFFFFFFFFFFFFFFFFFFFFFFFFFF
310
FFFFFFFFFFFFFFFFFFFFFFFFFFFFFFFFFFFFFFFFFFFFFFFFFFFFFFFFFFFFFFFF
310
FFFFFFFFFFFFFFFFFFFFFFFFFFFFFFFFFFFFFFFFFFFFFFFFFFFFFFFFFFFFFFFF
310
F000FFFFFFFFFFFFFFFFFFFFFFFFFFFFFFFFFFFFFFFFFFFFFFFFFFFFFFFFFFFF
310
FFFFFFFFFFFFFFFFFFFFFFFFFFFFFFFFFFFFFFFFFFFFFFFFFFFFFFFFFFFFFFFF
310
FFFFFFFFFFFFFFFFFFFFFFFFFFFFFFFFFFFFFFFFFFFFFFFFF000FFFFFFFFFFFF
310
FFFFFFFFFFFFFFFFFFFFFFFFFFFFFFFFFFFFFFFFFFFFFFFFFFFFFFFFFFFFFFFF
310
FFFFFFFFFFFFFFFFFFFFFFFFFFFFFFFFFFFFFFFFFFFFFFFFFFFFFFFFFFFFFFFF
310
FFFFFFFFFFFFFFFFFFFFFFFFFFFFFFFFF000FFFFFFFFFFFFFFFFFFFFFFFFFFFF
310
FFFFFFFFFFFFFFFFFFFFFFFFFFFFFFFFFFFFFFFFFFFFFFFFFFFFFFFFFFFFFFFF
310
FFFFFFFFFFFFFFFFFFFFFFFFFFFFFFFFFFFFFFFFFFFFFFFFFFFFFFFFFFFFFFFF
310
FFFFFFFFFFFFFFFFF000FFFFF80003FFFFFFFFFFFFFFFFFFFFFFFFFFFFFFFFFF
310
FFFFF00007FFFFFFFFFF00007FFFFFF800000000000000007FFFFFFFFFFFFFFF
310
FFFFFFFC001FFFFFFFFFFFFFFC001FFFFFFFFFFFFFFFFFFFFFFFFFFE0007FFFF
310
F000FFFF8000007FFFFFFFF8000FFFFFC0007FFFFF80007FFFFF0000007FFFFF
310
FFF8000007FFFFF800000000000000007FFFFFF0001FFFFFFFFFFFC00001FFFF
310
FFFFFFFFC00001FFFFFFFF000000000003FFFFE000007FFFF000FFFE0000000F
310
FFFFFFF0000FFFFF80007FFFFF80007FFFFC0000001FFFFFFFC0000001FFFFF8
310
00000000000000007FFFFFF0001FFFFFFFFFFE0000003FFFFFFFFFFE0000003F
310
FFFFFF000000000003FFFF0000000FFFF000FFF800000003FFFFFFF00007FFFF
310
80007FFFFF80007FFFF000000007FFFFFF000000003FFFF80000000000000000
310
7FFFFFF0001FFFFFFFFFF80000000FFFFFFFFFF80000000FFFFFFF0000000000
310
03FFFC00000003FFF000FFE000000000FFFFFFF00007FFFF80003FFFFF80007F
310
FFC000000001FFFFFC000000001FFFF800000000000000007FFFFFF0001FFFFF
310
FFFFE000000003FFFFFFFFE000000003FFFFFF000000000003FFF000000000FF
310
F000FF80000000007FFFFFF00007FFFF80003FFFFF80007FFF8000000000FFFF
310
F80000000007FFF800000000000000007FFFFFF0001FFFFFFFFFC000000001FF
310
FFFFFFC000000001FFFFFF000000000003FFC0000000007FF000FF0000000000
310
3FFFFFE00007FFFF00003FFFFF80007FFE00000000003FFFF00000000003FFF8
310
00000000000000007FFFFFF0001FFFFFFFFF8000000000FFFFFFFF8000000000
310
FFFFFF000000000003FF80000000003FF000FE00000000001FFFFFE00003FFFF
310
00003FFFFF80007FFC00000000001FFFE00000000001FFF8000001FFFE000000
310
7FFFFFF0001FFFFFFFFE00000000003FFFFFFE00000000003FFFFF0000000000
310
03FF00000000001FF000FC00000000000FFFFFE00003FFFF00001FFFFF80007F
310
F800000000001FFFC00000000000FFF8000001FFFE0000007FFFFFF0001FFFFF
310
FFFC00000000001FFFFFFC00000000001FFFFF000000000003FE00000000000F
310
F000F8000000000007FFFFE00003FFFF00001FFFFF80007FF800000000000FFF
310
800000000000FFF8000001FFFE0000007FFFFFF0001FFFFFFFF800000000000F
310
FFFFF800000000000FFFFF000000000003FC000000000007F000F80000000000
310
03FFFFC00003FFFE00001FFFFF80007FF0000000000007FF0000000000007FF8
310
000001FFFE0000007FFFFFF0001FFFFFFFF0000000000007FFFFF00000000000
310
07FFFF000000000003F8000000000003F000F0000000000003FFFFC00001FFFE
310
00001FFFFF80007FE0000000000007FE0000000000003FF8000001FFFE000000
310
7FFFFFF0001FFFFFFFF0000000000007FFFFF0000000000007FFFF0000000000
310
03F800001F800003F000E00001FFF00001FFFFC00001FFFE00000FFFFF80007F
310
E00001FFE00003FE00001FFF00003FF8000001FFFE0000007FFFFFF0001FFFFF
310
FFE000003E000003FFFFE000003E000003FFFF000000000003F00001FFF80001
310
F000E00007FFFC0001FFFFC00001FFFE00000FFFFF80007FC0000FFFFC0003FC
310
0000FFFFC0001FF8000001FFFE0000007FFFFFF0001FFFFFFFC00003FFE00001
310
FFFFC00003FFE00001FFFF0001FFFFFFFFF00007FFFE0001F000E0000FFFFF00
310
00FFFF800001FFFC00000FFFFF80007FC0001FFFFE0001FC0001FFFFE0001FF8
310
000001FFFE0000007FFFFFF0001FFFFFFF80000FFFF80000FFFF80000FFFF800
310
00FFFF0003FFFFFFFFE0000FFFFF8000F000C0003FFFFF8000FFFF800000FFFC
310
000007FFFF80007F80003FFFFF0001FC0003FFFFF0001FF8000001FFFE000000
310
7FFFFFF0001FFFFFFF80003FFFFE0000FFFF80003FFFFE0000FFFF0003FFFFFF
310
FFE0003FFFFF8000F000C0003FFFFF8000FFFF800000FFFC000007FFFF80007F
310
80007FFFFF8001F80007FFFFF8000FF8000001FFFE0000007FFFFFF0001FFFFF
310
FF00007FFFFF00007FFF00007FFFFF00007FFF0003FFFFFFFFE0003FFFFFC000
310
F000C0007FFFFFC000FFFF000000FFFC000007FFFF80007F8000FFFFFF8000F8
310
000FFFFFF8000FF8000001FFFE0000007FFFFFF0001FFFFFFF0000FFFFFF8000
310
7FFF0000FFFFFF80007FFF0003FFFFFFFFC0007FFFFFC00070008000FFFFFFC0
310
00FFFF000000FFF8000007FFFF80007F8000FFFFFF8000F8000FFFFFF8000FF8
310
000001FFFE0000007FFFFFF0001FFFFFFE0001FFFFFFC0003FFE0001FFFFFFC0
310
003FFF0003FFFFFFFFC0007FFFFFE00070008000FFFFFFC0007FFF0000007FF8
310
000003FFFF80007F0001FFFFFF8000F8000FFFFFF8000FF8000001FFFE000000
310
7FFFFFF0001FFFFFFE0001FFFFFFC0003FFE0001FFFFFFC0003FFF0003FFFFFF
310
FFC000FFFFFFE00070008000FFFFFFC0007FFF0000007FF8000003FFFF80007F
310
0001FFFFFF8000F8001FFFFFF8000FF8000001FFFE0000007FFFFFF0001FFFFF
310
FE0003FFFFFFE0003FFE0003FFFFFFE0003FFF0003FFFFFFFFC000FFFFFFE000
310
70008000FFFFFFC0007FFE0000007FF8000003FFFF80007F0001FFFFFF8000F0
310
001FFFFFF8000FF8000001FFFE0000007FFFFFF0001FFFFFFC0003FFFFFFE000
310
1FFC0003FFFFFFE0001FFF0003FFFFFFFFC000FFFFFFC00070008000FFFFFF80
310
007FFE0000007FF0000003FFFF80007F0001FFFFFF0000F0001FFFFFF8000FF8
310
000001FFFE0000007FFFFFF0001FFFFFFC0007FFFFFFF0001FFC0007FFFFFFF0
310
001FFF0003FFFFFFFFC000FFFFFFC00070008001FFFFFF0000FFFE0000003FF0
310
000001FFFF80007F0001FFFFFF0000F8001FFFFFF0000FF8000001FFFE000000
310
7FFFFFF0001FFFFFFC0007FFFFFFF0001FFC0007FFFFFFF0001FFF0003FFFFFF
310
FFC001FFFFFF80007000FFFFFFFFFE0000FFFE0008003FF0008001FFFF80007F
310
FFFFFFFFFC0000FFFFFFFFFFE0000FF8000001FFFE0000007FFFFFF0001FFFFF
310
F8000FFFFFFFF8000FF8000FFFFFFFF8000FFF0003FFFFFFFFFFFFFFFFFF0000
310
7000FFFFFFFFFC0000FFFC0008003FF0008001FFFF80007FFFFFFFFFF80001FF
310
FFFFFFFF80000FF8000001FFFE0000007FFFFFF0001FFFFFF8000FFFFFFFF800
310
0FF8000FFFFFFFF8000FFF0003FFFFFFFFFFFFFFFFFE0000F000FFFFFFFFE000
310
00FFFC000C003FE000C001FFFF80007FFFFFFFFFC00001FFFFFFFFFE00001FF8
310
000001FFFE0000007FFFFFF0001FFFFFF8000FFFFFFFF8000FF8000FFFFFFFF8
310
000FFF0003FFFFFFFFFFFFFFFFF00000F000FFFFFFFE000001FFFC000C001FE0
310
00C000FFFF80007FFFFFFFFE000001FFFFFFFFE000001FF80FFFFFFFFFFFFFC0
310
7FFFFFF0001FFFFFF8000FFFFFFFF8000FF8000FFFFFFFF8000FFF0003FFFFFF
310
FFFFFFFFFF800000F000FFFFFFC0000001FFFC001C001FE001C000FFFF80007F
310
FFFFFF80000003FFFFFFF80000001FF80FFFFFFFFFFFFFC07FFFFFF0001FFFFF
310
F8001FFFFFFFFC000FF8001FFFFFFFFC000FFF0003FFFFFFFFFFFFFFF0000001
310
F000FFFFF800000001FFF8001C001FE001C000FFFF80007FFFFFF800000003FF
310
FFFF800000003FF80FFFFFFFFFFFFFC07FFFFFF0001FFFFFF8001FFFFFFFFC00
310
0FF8001FFFFFFFFC000FFF0003FFFFFFFFFFFFFE00000001F000FFFFC0000000
310
03FFF8001E001FC001E000FFFF80007FFFFF8000000007FFFFFC000000003FF8
310
0FFFFFFFFFFFFFC07FFFFFF0001FFFFFF8001FFFFFFFFC000FF8001FFFFFFFFC
310
000FFF0003FFFFFFFFFFFFE000000003F000FFFE0000000007FFF8001E000FC0
310
01E0007FFF80007FFFFE0000000007FFFFE0000000007FF80FFFFFFFFFFFFFC0
310
7FFFFFF0001FFFFFF0001FFFFFFFFC0007F0001FFFFFFFFC0007FF0003FFFFFF
310
FFFFFF0000000003F000FFF80000000007FFF8001E000FC003E0007FFF80007F
310
FFF0000000000FFFFF8000000000FFF80FFFFFFFFFFFFFC07FFFFFF0001FFFFF
310
F0001FFFFFFFFC0007F0001FFFFFFFFC0007FF0003FFFFFFFFFFFC0000000007
310
F000FFE0000000000FFFF0003E000FC003E0007FFF80007FFFC0000000001FFF
310
FE0000000001FFF80FFFFFFFFFFFFFC07FFFFFF0001FFFFFF0001FFFFFFFFC00
310
07F0001FFFFFFFFC0007FF0003FFFFFFFFFFF0000000000FF000FFC000000000
310
1FFFF0003F000F8003F0003FFF80007FFF80000000003FFFF80000000003FFF8
310
0FFFFFFFFFFFFFC07FFFFFF0001FFFFFF0001FFFFFFFFC0007F0001FFFFFFFFC
310
0007FF0003FFFFFFFFFFE0000000001FF000FF00000000007FFFF0003F000780
310
03F0003FFF80007FFF00000000007FFFF00000000007FFF80FFFFFFFFFFFFFC0
310
7FFFFFF0001FFFFFF0001FFFFFFFFC0007F0001FFFFFFFFC0007FF0003FFFFFF
310
FFFF80000000007FF000FE0000000000FFFFE0003F00078007F0003FFF80007F
310
FE0000000001FFFFE0000000001FFFF80FFFFFFFFFFFFFC07FFFFFF0001FFFFF
310
F0001FFFFFFFFC0007F0001FFFFFFFFC0007FF0003FFFFFFFFFF0000000000FF
310
F000FC0000000003FFFFE0007F00078007F0003FFF80007FFC0000000007FFFF
310
C0000000007FFFF80FFFFFFFFFFFFFC07FFFFFF0001FFFFFF8001FFFFFFFFC00
310
0FF8001FFFFFFFFC000FFF0003FFFFFFFFFE0000000003FFF000FC000000000F
310
FFFFE0007F80070007F8001FFF80007FF8000000001FFFFF8000000001FFFFF8
310
0FFFFFFFFFFFFFC07FFFFFF0001FFFFFF8001FFFFFFFFC000FF8001FFFFFFFFC
310
000FFF0003FFFFFFFFFC000000000FFFF000F8000000007FFFFFE0007F800700
310
07F8001FFF80007FF000000000FFFFFF800000000FFFFFF80FFFFFFFFFFFFFC0
310
7FFFFFF0001FFFFFF8000FFFFFFFF8000FF8000FFFFFFFF8000FFF0003FFFFFF
310
FFFC000000007FFFF000F800000007FFFFFFC0007F8003000FF8001FFF80007F
310
F000000007FFFFFF000000007FFFFFF80FFFFFFFFFFFFFC07FFFFFF0001FFFFF
310
F8000FFFFFFFF8000FF8000FFFFFFFF8000FFF0003FFFFFFFFF80000000FFFFF
310
F000F0000000FFFFFFFFC000FF8003000FF8001FFF80007FE0000000FFFFFFFF
310
0000000FFFFFFFF8000001FFFE0000007FFFFFF0001FFFFFF8000FFFFFFFF800
310
0FF8000FFFFFFFF8000FFF0003FFFFFFFFF8000000FFFFFFF000F000000FFFFF
310
FFFFC000FFC002000FF8000FFF80007FE000001FFFFFFFFE000001FFFFFFFFF8
310
000001FFFE0000007FFFFFF0001FFFFFF8000FFFFFFFF8000FF8000FFFFFFFF8
310
000FFF0003FFFFFFFFF000001FFFFFFFF000E00000FFFFFFFFFFC000FFC00200
310
0FFC000FFF80007FE00001FFFFFFFFFE00001FFFFFFFFFF8000001FFFE000000
310
7FFFFFF0001FFFFFFC000FFFFFFFF8001FFC000FFFFFFFF8001FFF0003FFFFFF
310
FFF00001FFFFFFFFF000E00007FFFFFFFFFF8000FFC000001FFC000FFF80007F
310
C0000FFFFFFFFFFE0000FFFFFFFFFFF8000001FFFE0000007FFFFFF0001FFFFF
310
FC0007FFFFFFF0001FFC0007FFFFFFF0001FFF0003FFFFFFFFF00007FFFFFFFF
310
F000E0001FFFFFFFFFFF8000FFC000001FFC000FFF80007FC0003FFFFFFFFFFE
310
0001FFFFFFFFFFF8000001FFFE0000007FFFFFF0001FFFFFFC0007FFFFFFF000
310
1FFC0007FFFFFFF0001FFF0003FFFFFFFFF0001FFFFFFFFFF000E0003FFFFF00
310
03FF8001FFE000001FFC0007FF80007FC0007FFFFF0007FC0003FFFFF0003FF8
310
000001FFFE0000007FFFFFF0001FFFFFFC0003FFFFFFE0001FFC0003FFFFFFE0
310
001FFF0003FFFFFFFFF0003FFFFFFFFFF000E0003FFFFF0001FF8001FFE00000
310
1FFE0007FF80007FC0007FFFFE0003FC0007FFFFE0003FF8000001FFFE000000
310
7FFFFFF0001FFFFFFE0003FFFFFFE0003FFE0003FFFFFFE0003FFF0003FFFFFF
310
FFF0003FFFFF8001F000E0003FFFFF0001FF0001FFE000001FFE0007FF80007F
310
C0007FFFFE0003FC0007FFFFE0003FF8000001FFFE0000007FFFFFF0001FFFFF
310
FE0001FFFFFFC0003FFE0001FFFFFFC0003FFF0003FFFFFFFFF0003FFFFF0001
310
F000E0003FFFFF0003FF0001FFE000003FFE0007FF80007FC0007FFFFE0003FC
310
0007FFFFE0003FF8000001FFFE0000007FFFFFF0001FFFFFFF0001FFFFFFC000
310
7FFF0001FFFFFFC0007FFF0003FFFFFFFFF0003FFFFF0001F000E0003FFFFE00
310
03FF0003FFF000003FFE0003FF80007FC0007FFFFC0003FE0007FFFFE0003FF8
310
000001FFFE0000007FFFFFF0001FFFFFFF0000FFFFFF80007FFF0000FFFFFF80
310
007FFF0003FFFFFFFFF0003FFFFF0001F000E0003FFFFE0003FF0003FFF00000
310
3FFF0003FF80007FC0007FFFFC0007FE0007FFFFC0003FF8000001FFFE000000
310
7FFFFFF0001FFFFFFF80007FFFFF0000FFFF80007FFFFF0000FFFF0003FFFFFF
310
FFF0003FFFFF0003F000E0003FFFFC0003FE0003FFF000003FFF0003FF80007F
310
E0003FFFF80007FE0003FFFFC0007FF8000001FFFE0000007FFFFFF0001FFFFF
310
FF80003FFFFE0000FFFF80003FFFFE0000FFFF0003FFFFFFFFF0001FFFFE0003
310
F000F0001FFFF80003FE0003FFF000007FFF0001FF80007FE0003FFFF00007FE
310
0001FFFF80007FF8000001FFFE0000007FFFFFF0001FFFFFFFC0000FFFF80001
310
FFFFC0000FFFF80001FFFF0003FFFFFFFFF0001FFFFC0003F000F0000FFFF000
310
07FE0007FFF800007FFF0001FF80007FE0001FFFE00007FF0000FFFE00007FF8
310
000001FFFE0000007FFFFFF0001FFFFFFFC00003FFE00001FFFFC00003FFE000
310
01FFFF0003FFFFFFFFF8000FFFF80003F000F00003FFC00007FC0007FFF80000
310
7FFF8001FF80007FF00007FF80000FFF00007FF80000FFF8000001FFFE000000
310
7F80000000000001FFE000003E000003FFFFE000003E000003FFFF0003FFFFFF
310
FFF80003FFE00007F000F800000000000FFC0007FFF800007FFF8001FF80007F
310
F000000000000FFF000000000000FFF8000001FFFE0000007F80000000000001
310
FFF0000000000007FFFFF0000000000007FFFF0003FFFFFFFFFC00007E000007
310
F000F800000000000FFC0007FFF80000FFFF8000FF80007FF800000000001FFF
310
800000000001FFF8000001FFFE0000007F80000000000001FFF800000000000F
310
FFFFF800000000000FFFFF0003FFFFFFFFFC00000000000FF000FC0000000000
310
1FFC0007FFFC0000FFFF8000FF80007FF800000000003FFFC00000000001FFF8
310
000001FFFE0000007F80000000000001FFF800000000000FFFFFF80000000000
310
0FFFFF0003FFFFFFFFFE00000000001FF000FE00000000003FF8000FFFFC0000
310
FFFF8000FF80007FFC00000000003FFFC00000000003FFF8000001FFFE000000
310
7F80000000000001FFFC00000000001FFFFFFC00000000001FFFFF0003FFFFFF
310
FFFF00000000001FF000FF00000000003FF8000FFFFC0000FFFFC000FF80007F
310
FE00000000007FFFE00000000007FFF8000001FFFE0000007F80000000000001
310
FFFE00000000003FFFFFFE00000000003FFFFF0003FFFFFFFFFF80000000003F
310
F000FF80000000007FF8000FFFFC0001FFFFC0007F80007FFF0000000000FFFF
310
F0000000000FFFF800000000000000007F80000000000001FFFF8000000000FF
310
FFFFFF8000000000FFFFFF0003FFFFFFFFFFC0000000007FF000FFC000000000
310
FFF8000FFFFE0001FFFFC0007F80007FFF8000000001FFFFF8000000001FFFF8
310
00000000000000007F80000000000001FFFFC000000001FFFFFFFFC000000001
310
FFFFFF0003FFFFFFFFFFE000000000FFF000FFE000000003FFF0001FFFFE0001
310
FFFFC0007F80007FFFC000000007FFFFFE000000003FFFF80000000000000000
310
7F80000000000001FFFFE000000003FFFFFFFFE000000003FFFFFF0003FFFFFF
310
FFFFF000000003FFF000FFF80000000FFFF0001FFFFE0001FFFFE0007F80007F
310
FFF00000000FFFFFFF00000000FFFFF800000000000000007F80000000000001
310
FFFFF80000000FFFFFFFFFF80000000FFFFFFF0003FFFFFFFFFFFC0000000FFF
310
F000FFFE0000003FFFF0001FFFFE0003FFFFE0003F80007FFFFC0000003FFFFF
310
FFC0000003FFFFF800000000000000007F80000000000001FFFFFE0000003FFF
310
FFFFFFFE0000003FFFFFFF0003FFFFFFFFFFFF0000003FFFF000FFFF800000FF
310
FFF0001FFFFF0003FFFFE0003F80007FFFFF000001FFFFFFFFF800001FFFFFF8
310
00000000000000007F80000000000001FFFFFFC00001FFFFFFFFFFFFC00001FF
310
FFFFFF0003FFFFFFFFFFFFC00000FFFFF000FFFFF8000FFFFFFFFFFFFFFFFFFF
310
FFFFFFFFFFFFFFFFFFFFF0001FFFFFFFFFFF0000FFFFFFF80000000000000000
310
7FFFFFFFFFFFFFFFFFFFFFFC001FFFFFFFFFFFFFFC001FFFFFFFFFFFFFFFFFFF
310
FFFFFFFC001FFFFFF000FFFFFFFFFFFFFFFFFFFFFFFFFFFFFFFFFFFFFFFFFFFF
310
FFFFFFFFFFFFFFFFFFFFFFFFFFFFFFFFFFFFFFFFFFFFFFFFFFFFFFFFFFFFFFFF
310
FFFFFFFFFFFFFFFFFFFFFFFFFFFFFFFFFFFFFFFFFFFFFFFFFFFFFFFFFFFFFFFF
310
F000FFFFFFFFFFFFFFFFFFFFFFFFFFFFFFFFFFFFFFFFFFFFFFFFFFFFFFFFFFFF
310
FFFFFFFFFFFFFFFFFFFFFFFFFFFFFFFFFFFFFFFFFFFFFFFFFFFFFFFFFFFFFFFF
310
FFFFFFFFFFFFFFFFFFFFFFFFFFFFFFFFFFFFFFFFFFFFFFFFF000FFFFFFFFFFFF
310
FFFFFFFFFFFFFFFFFFFFFFFFFFFFFFFFFFFFFFFFFFFFFFFFFFFFFFFFFFFFFFFF
310
FFFFFFFFFFFFFFFFFFFFFFFFFFFFFFFFFFFFFFFFFFFFFFFFFFFFFFFFFFFFFFFF
310
FFFFFFFFFFFFFFFFFFFFFFFFFFFFFFFFF000FFFFFFFFFFFFFFFFFFFFFFFFFFFF
310
FFFFFFFFFFFFFFFFFFFFFFFFFFFFFFFFFFFFFFFFFFFFFFFFFFFFFFFFFFFFFFFF
310
FFFFFFFFFFFFFFFFFFFFFFFFFFFFFFFFFFFFFFFFFFFFFFFFFFFFFFFFFFFFFFFF
310
FFFFFFFFFFFFFFFFF000FFFFFFFFFFFFFFFFFFFFFFFFFFFFFFFFFFFFFFFFFFFF
310
FFFFFFFFFFFFFFFFFFFFFFFFFFFFFFFFFFFFFFFFFFFFFFFFFFFFFFFFFFFFFFFF
310
FFFFFFFFFFFFFFFFFFFFFFFFFFFFFFFFFFFFFFFFFFFFFFFFFFFFFFFFFFFFFFFF
310
F000FFFFFFFFFFFFFFFFFFFFFFFFFFFFFFFFFFFFFFFFFFFFFFFFFFFFFFFFFFFF
310
FFFFFFFFFFFFFFFFFFFFFFFFFFFFFFFFFFFFFFFFFFFFFFFFFFFFFFFFFFFFFFFF
310
FFFFFFFFFFFFFFFFFFFFFFFFFFFFFFFFFFFFFFFFFFFFFFFFF000FFFFFFFFFFFF
310
FFFFFFFFFFFFFFFFFFFFFFFFFFFFFFFFFFFFFFFFFFFFFFFFFFFFFFFFFFFFFFFF
310
FFFFFFFFFFFFFFFFFFFFFFFFFFFFFFFFFFFFFFFFFFFFFFFFFFFFFFFFFFFFFFFF
310
FFFFFFFFFFFFFFFFFFFFFFFFFFFFFFFFF000FFFFFFFFFFFFFFFFFFFFFFFFFFFF
310
FFFFFFFFFFFFFFFFFFFFFFFFFFFFFFFFFFFFFFFFFFFFFFFFFFFFFFFFFFFFFFFF
310
FFFFFFFFFFFFFFFFFFFFFFFFFFFFFFFFFFFFFFFFFFFFFFFFFFFFFFFFFFFFFFFF
310
FFFFFFFFFFFFFFFFF000FFFFFFFFFFFFFFFFFFFFFFFFFFFFFFFFFFFFFFFFFFFF
310
FFFFFFFFFFFFFFFFFFFFFFFFFFFFFFFFFFFFFFFFFFFFFFFFFFFFFFFFFFFFFFFF
310
FFFFFFFFFFFFFFFFFFFFFFFFFFFFFFFFFFFFFFFFFFFFFFFFFFFFFFFFFFFFFFFF
310
F000FFFFFFFFFFFFFFFFFFFFFFFFFFFFFFFFFFFFFFFFFFFFFFFFFFFFFFFFFFFF
310
FFFFFFFFFFFFFFFFFFFFFFFFFFFFFFFFFFFFFFFFFFFFFFFFFFFFFFFFFFFFFFFF
310
FFFFFFFFFFFFFFFFFFFFFFFFFFFFFFFFFFFFFFFFFFFFFFFFF000FFFFFFFFFFFF
310
FFFFFFFFFFFFFFFFFFFFFFFFFFFFFFFFFFFFFFFFFFFFFFFFFFFFFFFFFFFFFFFF
310
FFFFFFFFFFFFFFFFFFFFFFFFFFFFFFFFFFFFFFFFFFFFFFFFFFFFFFFFFFFFFFFF
310
FFFFFFFFFFFFFFFFFFFFFFFFFFFFFFFFF000FFFFFFFFFFFFFFFFFFFFFFFFFFFF
310
FFFFFFFFFFFFFFFFFFFFFFFFFFFFFFFFFFFFFFFFFFFFFFFFFFFFFFFFFFFFFFFF
310
FFFFFFFFFFFFFFFFFFFFFFFFFFFFFFFFFFFFFFFFFFFFFFFFFFFFFFFFFFFFFFFF
310
FFFFFFFFFFFFFFFFF000FFFFFFFFFFFFFFFFFFFFFFFFFFFFFFFFFFFFFFFFFFFF
310
FFFFFFFFFFFFFFFFFFFFFFFFFFFFFFFFFFFFFFFFFFFFFFFFFFFFFFFFFFFFFFFF
310
FFFFFFFFFFFFFFFFFFFFFFFFFFFFFFFFFFFFFFFFFFFFFFFFFFFFFFFFFFFFFFFF
310
F000FFFFFFFFFFFFFFFFFFFFFFFFFFFFFFFFFFFFFFFFFFFFFFFFFFFFFFFFFFFF
310
FFFFFFFFFFFFFFFFFFFFFFFFFFFFFFFFFFFFFFFFFFFFFFFFFFFFFFFFFFFFFFFF
310
FFFFFFFFFFFFFFFFFFFFFFFFFFFFFFFFFFFFFFFFFFFFFFFFF000FFFFFFFFFFFF
310
FFFFFFFFFFFFFFFFFFFFFFFFFFFFFFFFFFFFFFFFFFFFFFFFFFFFFFFFFFFFFFFF
310
FFFFFFFFFFFFFFFFFFFFFFFFFFFFFFFFFFFFFFFFFFFFFFFFFFFFFFFFFFFFFFFF
310
FFFFFFFFFFFFFFFFFFFFFFFFFFFFFFFFF000FFFFFFFFFFFFFFFFFFFFFFFFFFFF
310
FFFFFFFFFFFFFFFFFFFFFFFFFFFFFFFFFFFFFFFFFFFFFFFFFFFFFFFFFFFFFFFF
310
FFFFFFFFFFFFFFFFFFFFFFFFFFFFFFFFFFFFFFFFFFFFFFFFFFFFFFFFFFFFFFFF
310
FFFFFFFFFFFFFFFFF000FFFFFFFFFFFFFFFFFFFFFFFFFFFFFFFFFFFFFFFFFFFF
310
FFFFFFFFFFFFFFFFFFFFFFFFFFFFFFFFFFFFFFFFFFFFFFFFFFFFFFFFFFFFFFFF
310
FFFFFFFFFFFFFFFFFFFFFFFFFFFFFFFFFFFFFFFFFFFFFFFFFFFFFFFFFFFFFFFF
310
F000FFFFFFFFFFFFFFFFFFFFFFFFFFFFFFFFFFFFFFFFFFFFFFFFFFFFFFFFFFFF
310
FFFFFFFFFFFFFFFFFFFFFFFFFFFFFFFFFFFFFFFFFFFFFFFFFFFFFFFFFFFFFFFF
310
FFFFFFFFFFFFFFFFFFFFFFFFFFFFFFFFFFFFFFFFFFFFFFFFF000FFFFFFFFFFFF
310
FFFFFFFFFFFFFFFFFFFFFFFFFFFFFFFFFFFFFFFFFFFFFFFFFFFFFFFFFFFFFFFF
310
FFFFFFFFFFFFFFFFFFFFFFFFFFFFFFFFFFFFFFFFFFFFFFFFFFFFFFFFFFFFFFFF
310
FFFFFFFFFFFFFFFFFFFFFFFFFFFFFFFFF000FFFFFFFFFFFFFFFFFFFFFFFFFFFF
310
FFFFFFFFFFFFFFFFFFFFFFFFFFFFFFFFFFFFFFFFFFFFFFFFFFFFFFFFFFFFFFFF
310
FFFFFFFFFFFFFFFFFFFFFFFFFFFFFFFFFFFFFFFFFFFFFFFFFFFFFFFFFFFFFFFF
310
FFFFFFFFFFFFFFFFF000FFFFFFFFFFFFFFFFFFFFFFFFFFFFFFFFFFFFFFFFFFFF
310
FFFFFFFFFFFFFFFFFFFFFFFFFFFFFFFFFFFFFFFFFFFFFFFFFFFFFFFFFFFFFFFF
310
FFFFFFFFFFFFFFFFFFFFFFFFFFFFFFFFFFFFFFFFFFFFFFFFFFFFFFFFFFFFFFFF
310
F000FFFFFFFFFFFFFFFFFFFFFFFFFFFFFFFFFFFFFFFFFFFFFFFFFFFFFFFFFFFF
310
FFFFFFFFFFFFFFFFFFFFFFFFFFFFFFFFFFFFFFFFFFFFFFFFFFFFFFFFFFFFFFFF
310
FFFFFFFFFFFFFFFFFFFFFFFFFFFFFFFFFFFFFFFFFFFFFFFFF000FFFFFFFFFFFF
310
FFFFFFFFFFFFFFFFFFFFFFFFFFFFFFFFFFFFFFFFFFFFFFFFFFFFFFFFFFFFFFFF
310
FFFFFFFFFFFFFFFFFFFFFFFFFFFFFFFFFFFFFFFFFFFFFFFFFFFFFFFFFFFFFFFF
310
FFFFFFFFFFFFFFFFFFFFFFFFFFFFFFFFF0000000000000000000000000000000
310
0000000000000000000000000000000000000000000000000000000000000000
310
0000000000000000000000000000000000000000000000000000000000000000
310
0000000000000000000000000000000000000000000000000000000000000000
310
0000000000000000000000000000000000000000000000000000000000000000
310
0000000000000000000000000000000000000000000000000000000000000000
310
0000000000000000000000000000000000000000000000000000000000000000
310
0000000000000000000000000000000000000000000000000000000000000000
310
0000000000000000000000000000000000000000000000000000000000000000
310
0000000000000000000000000000000000000000000000000000000000000000
310
0000000000000000000000000000000000000000000000000000000000000000
310
0000000000000000000000000000000000000000000000000000000000000000
310
0000000000000000000000000000000000000000000000000000000000000000
310
0000000000000000000000000000000000000000000000000000000000000000
310
0000000000000000000000000000000000000000000000000000000000000000
310
0000000000000000000000000000000000000000000000000000000000000000
  1
OLE
  0
ENDSEC
  0
SECTION
  2
OBJECTS
  0
DICTIONARY
  5
C
330
0
100
AcDbDictionary
281
     1
  3
ACAD_GROUP
350
D
  3
ACAD_LAYOUT
350
1A
  3
ACAD_MLINESTYLE
350
17
  3
ACAD_PLOTSETTINGS
350
19
  3
ACAD_PLOTSTYLENAME
350
E
  3
ACAD_SCALELIST
350
47
  0
DICTIONARY
  5
D
102
{ACAD_REACTORS
330
C
102
}
330
C
100
AcDbDictionary
281
     1
  0
DICTIONARY
  5
1A
102
{ACAD_REACTORS
330
C
102
}
330
C
100
AcDbDictionary
281
     1
  3
Layout1
350
1E
  3
Layout2
350
26
  3
Model
350
22
  0
DICTIONARY
  5
17
102
{ACAD_REACTORS
330
C
102
}
330
C
100
AcDbDictionary
281
     1
  3
Standard
350
18
  0
DICTIONARY
  5
19
102
{ACAD_REACTORS
330
C
102
}
330
C
100
AcDbDictionary
281
     1
  0
ACDBDICTIONARYWDFLT
  5
E
102
{ACAD_REACTORS
330
C
102
}
330
C
100
AcDbDictionary
281
     1
  3
Normal
350
F
100
AcDbDictionaryWithDefault
340
F
  0
DICTIONARY
  5
47
102
{ACAD_REACTORS
330
C
102
}
330
C
100
AcDbDictionary
281
     1
  3
A0
350
48
  3
A1
350
49
  3
A2
350
4A
  3
A3
350
4B
  3
A4
350
4C
  3
A5
350
4D
  3
A6
350
4E
  3
A7
350
4F
  3
A8
350
50
  3
A9
350
51
  3
B0
350
52
  3
B1
350
53
  3
B2
350
54
  3
B3
350
55
  3
B4
350
56
  3
B5
350
57
  3
B6
350
58
  3
B7
350
59
  3
B8
350
5A
  3
B9
350
5B
  3
C0
350
5C
  3
C1
350
5D
  3
C2
350
5E
  3
C3
350
5F
  3
C4
350
60
  3
C5
350
61
  3
C6
350
62
  3
C7
350
63
  3
C8
350
64
  3
C9
350
65
  3
D0
350
66
  3
D1
350
67
  3
D2
350
68
  0
LAYOUT
  5
1E
102
{ACAD_REACTORS
330
1A
102
}
330
1A
100
AcDbPlotSettings
  1

  2
none_device
  4

  6

 40
0.0
 41
0.0
 42
0.0
 43
0.0
 44
0.0
 45
0.0
 46
0.0
 47
0.0
 48
0.0
 49
0.0
140
0.0
141
0.0
142
1.0
143
1.0
 70
   688
 72
     1
 73
     0
 74
     5
  7

 75
    16
147
1.0
148
0.0
149
0.0
100
AcDbLayout
  1
Layout1
 70
     1
 71
     1
 10
0.0
 20
0.0
 11
420.0
 21
297.0
 12
0.0
 22
0.0
 32
0.0
 14
1.0000000000E+20
 24
1.0000000000E+20
 34
1.0000000000E+20
 15
-1.0000000000E+20
 25
-1.0000000000E+20
 35
-1.0000000000E+20
146
0.0
 13
0.0
 23
0.0
 33
0.0
 16
1.0
 26
0.0
 36
0.0
 17
0.0
 27
1.0
 37
0.0
 76
     0
330
1B
  0
LAYOUT
  5
26
102
{ACAD_REACTORS
330
1A
102
}
330
1A
100
AcDbPlotSettings
  1

  2
none_device
  4

  6

 40
0.0
 41
0.0
 42
0.0
 43
0.0
 44
0.0
 45
0.0
 46
0.0
 47
0.0
 48
0.0
 49
0.0
140
0.0
141
0.0
142
1.0
143
1.0
 70
   688
 72
     1
 73
     0
 74
     5
  7

 75
    16
147
1.0
148
0.0
149
0.0
100
AcDbLayout
  1
Layout2
 70
     1
 71
     2
 10
0.0
 20
0.0
 11
0.0
 21
0.0
 12
0.0
 22
0.0
 32
0.0
 14
0.0
 24
0.0
 34
0.0
 15
0.0
 25
0.0
 35
0.0
146
0.0
 13
0.0
 23
0.0
 33
0.0
 16
1.0
 26
0.0
 36
0.0
 17
0.0
 27
1.0
 37
0.0
 76
     0
330
23
  0
LAYOUT
  5
22
102
{ACAD_REACTORS
330
1A
102
}
330
1A
100
AcDbPlotSettings
  1

  2
none_device
  4
Letter_(8.50_x_11.00_Inches)
  6

 40
6.35
 41
6.35
 42
6.35000508
 43
6.35000508
 44
215.9
 45
279.4
 46
0.0
 47
0.0
 48
0.0
 49
0.0
140
0.0
141
0.0
142
1.0
143
1.0
 70
  1712
 72
     1
 73
     0
 74
     0
  7

 75
     0
147
1.0
148
0.0
149
0.0
100
AcDbLayout
  1
Model
 70
     1
 71
     0
 10
0.0
 20
0.0
 11
297.0
 21
210.0
 12
0.0
 22
0.0
 32
0.0
 14
0.0
 24
0.0
 34
0.0
 15
297.0
 25
210.0
 35
0.0
146
0.0
 13
0.0
 23
0.0
 33
0.0
 16
1.0
 26
0.0
 36
0.0
 17
0.0
 27
1.0
 37
0.0
 76
     0
330
1F
331
29
  0
MLINESTYLE
  5
18
102
{ACAD_REACTORS
330
17
102
}
330
17
100
AcDbMlineStyle
  2
Standard
 70
     0
  3

 62
   256
 51
90.0
 52
90.0
 71
     2
 49
0.5
 62
   256
  6
BYLAYER
 49
-0.5
 62
   256
  6
BYLAYER
  0
ACDBPLACEHOLDER
  5
F
102
{ACAD_REACTORS
330
E
102
}
330
E
  0
SCALE
  5
48
102
{ACAD_REACTORS
330
47
102
}
330
47
100
AcDbScale
 70
     0
300
1:1
140
1.0
141
1.0
290
     1
  0
SCALE
  5
49
102
{ACAD_REACTORS
330
47
102
}
330
47
100
AcDbScale
 70
     0
300
1:2
140
1.0
141
2.0
290
     0
  0
SCALE
  5
4A
102
{ACAD_REACTORS
330
47
102
}
330
47
100
AcDbScale
 70
     0
300
1:4
140
1.0
141
4.0
290
     0
  0
SCALE
  5
4B
102
{ACAD_REACTORS
330
47
102
}
330
47
100
AcDbScale
 70
     0
300
1:5
140
1.0
141
5.0
290
     0
  0
SCALE
  5
4C
102
{ACAD_REACTORS
330
47
102
}
330
47
100
AcDbScale
 70
     0
300
1:8
140
1.0
141
8.0
290
     0
  0
SCALE
  5
4D
102
{ACAD_REACTORS
330
47
102
}
330
47
100
AcDbScale
 70
     0
300
1:10
140
1.0
141
10.0
290
     0
  0
SCALE
  5
4E
102
{ACAD_REACTORS
330
47
102
}
330
47
100
AcDbScale
 70
     0
300
1:16
140
1.0
141
16.0
290
     0
  0
SCALE
  5
4F
102
{ACAD_REACTORS
330
47
102
}
330
47
100
AcDbScale
 70
     0
300
1:20
140
1.0
141
20.0
290
     0
  0
SCALE
  5
50
102
{ACAD_REACTORS
330
47
102
}
330
47
100
AcDbScale
 70
     0
300
1:30
140
1.0
141
30.0
290
     0
  0
SCALE
  5
51
102
{ACAD_REACTORS
330
47
102
}
330
47
100
AcDbScale
 70
     0
300
1:40
140
1.0
141
40.0
290
     0
  0
SCALE
  5
52
102
{ACAD_REACTORS
330
47
102
}
330
47
100
AcDbScale
 70
     0
300
1:50
140
1.0
141
50.0
290
     0
  0
SCALE
  5
53
102
{ACAD_REACTORS
330
47
102
}
330
47
100
AcDbScale
 70
     0
300
1:100
140
1.0
141
100.0
290
     0
  0
SCALE
  5
54
102
{ACAD_REACTORS
330
47
102
}
330
47
100
AcDbScale
 70
     0
300
2:1
140
2.0
141
1.0
290
     0
  0
SCALE
  5
55
102
{ACAD_REACTORS
330
47
102
}
330
47
100
AcDbScale
 70
     0
300
4:1
140
4.0
141
1.0
290
     0
  0
SCALE
  5
56
102
{ACAD_REACTORS
330
47
102
}
330
47
100
AcDbScale
 70
     0
300
8:1
140
8.0
141
1.0
290
     0
  0
SCALE
  5
57
102
{ACAD_REACTORS
330
47
102
}
330
47
100
AcDbScale
 70
     0
300
10:1
140
10.0
141
1.0
290
     0
  0
SCALE
  5
58
102
{ACAD_REACTORS
330
47
102
}
330
47
100
AcDbScale
 70
     0
300
100:1
140
100.0
141
1.0
290
     0
  0
SCALE
  5
59
102
{ACAD_REACTORS
330
47
102
}
330
47
100
AcDbScale
 70
     0
300
1/128" = 1'-0"
140
0.0078125
141
12.0
290
     0
  0
SCALE
  5
5A
102
{ACAD_REACTORS
330
47
102
}
330
47
100
AcDbScale
 70
     0
300
1/64" = 1'-0"
140
0.015625
141
12.0
290
     0
  0
SCALE
  5
5B
102
{ACAD_REACTORS
330
47
102
}
330
47
100
AcDbScale
 70
     0
300
1/32" = 1'-0"
140
0.03125
141
12.0
290
     0
  0
SCALE
  5
5C
102
{ACAD_REACTORS
330
47
102
}
330
47
100
AcDbScale
 70
     0
300
1/16" = 1'-0"
140
0.0625
141
12.0
290
     0
  0
SCALE
  5
5D
102
{ACAD_REACTORS
330
47
102
}
330
47
100
AcDbScale
 70
     0
300
3/32" = 1'-0"
140
0.09375
141
12.0
290
     0
  0
SCALE
  5
5E
102
{ACAD_REACTORS
330
47
102
}
330
47
100
AcDbScale
 70
     0
300
1/8" = 1'-0"
140
0.125
141
12.0
290
     0
  0
SCALE
  5
5F
102
{ACAD_REACTORS
330
47
102
}
330
47
100
AcDbScale
 70
     0
300
3/16" = 1'-0"
140
0.1875
141
12.0
290
     0
  0
SCALE
  5
60
102
{ACAD_REACTORS
330
47
102
}
330
47
100
AcDbScale
 70
     0
300
1/4" = 1'-0"
140
0.25
141
12.0
290
     0
  0
SCALE
  5
61
102
{ACAD_REACTORS
330
47
102
}
330
47
100
AcDbScale
 70
     0
300
3/8" = 1'-0"
140
0.375
141
12.0
290
     0
  0
SCALE
  5
62
102
{ACAD_REACTORS
330
47
102
}
330
47
100
AcDbScale
 70
     0
300
1/2" = 1'-0"
140
0.5
141
12.0
290
     0
  0
SCALE
  5
63
102
{ACAD_REACTORS
330
47
102
}
330
47
100
AcDbScale
 70
     0
300
3/4" = 1'-0"
140
0.75
141
12.0
290
     0
  0
SCALE
  5
64
102
{ACAD_REACTORS
330
47
102
}
330
47
100
AcDbScale
 70
     0
300
1" = 1'-0"
140
1.0
141
12.0
290
     0
  0
SCALE
  5
65
102
{ACAD_REACTORS
330
47
102
}
330
47
100
AcDbScale
 70
     0
300
1-1/2" = 1'-0"
140
1.5
141
12.0
290
     0
  0
SCALE
  5
66
102
{ACAD_REACTORS
330
47
102
}
330
47
100
AcDbScale
 70
     0
300
3" = 1'-0"
140
3.0
141
12.0
290
     0
  0
SCALE
  5
67
102
{ACAD_REACTORS
330
47
102
}
330
47
100
AcDbScale
 70
     0
300
6" = 1'-0"
140
6.0
141
12.0
290
     0
  0
SCALE
  5
68
102
{ACAD_REACTORS
330
47
102
}
330
47
100
AcDbScale
 70
     0
300
1'-0" = 1'-0"
140
12.0
141
12.0
290
     0
  0
ENDSEC
  0
EOF
