  0
SECTION
  2
HEADER
  9
$ACADVER
  1
AC1015
  9
$ACADMAINTVER
 70
     6
  9
$DWGCODEPAGE
  3
ANSI_1252
  9
$INSBASE
 10
0.0
 20
0.0
 30
0.0
  9
$EXTMIN
 10
0.0
 20
0.0
 30
0.0
  9
$EXTMAX
 10
297.0
 20
210.0
 30
0.0
  9
$LIMMIN
 10
0.0
 20
0.0
  9
$LIMMAX
 10
297.0
 20
210.0
  9
$ORTHOMODE
 70
     0
  9
$REGENMODE
 70
     1
  9
$FILLMODE
 70
     1
  9
$QTEXTMODE
 70
     0
  9
$MIRRTEXT
 70
     1
  9
$LTSCALE
 40
1.0
  9
$ATTMODE
 70
     1
  9
$TEXTSIZE
 40
2.0
  9
$TRACEWID
 40
1.0
  9
$TEXTSTYLE
  7
Standard
  9
$CLAYER
  8
0
  9
$CELTYPE
  6
ByLayer
  9
$CECOLOR
 62
   256
  9
$CELTSCALE
 40
1.0
  9
$DISPSILH
 70
     0
  9
$DIMSCALE
 40
1.0
  9
$DIMASZ
 40
3.0
  9
$DIMEXO
 40
0.0
  9
$DIMDLI
 40
3.75
  9
$DIMRND
 40
0.0
  9
$DIMDLE
 40
0.0
  9
$DIMEXE
 40
1.0
  9
$DIMTP
 40
0.0
  9
$DIMTM
 40
0.0
  9
$DIMTXT
 40
2.0
  9
$DIMCEN
 40
2.5
  9
$DIMTSZ
 40
0.0
  9
$DIMTOL
 70
     0
  9
$DIMLIM
 70
     0
  9
$DIMTIH
 70
     1
  9
$DIMTOH
 70
     1
  9
$DIMSE1
 70
     0
  9
$DIMSE2
 70
     0
  9
$DIMTAD
 70
     1
  9
$DIMZIN
 70
     0
  9
$DIMBLK
  1

  9
$DIMASO
 70
     1
  9
$DIMSHO
 70
     1
  9
$DIMPOST
  1

  9
$DIMAPOST
  1

  9
$DIMALT
 70
     0
  9
$DIMALTD
 70
     3
  9
$DIMALTF
 40
0.0393700787
  9
$DIMLFAC
 40
1.0
  9
$DIMTOFL
 70
     1
  9
$DIMTVP
 40
0.0
  9
$DIMTIX
 70
     0
  9
$DIMSOXD
 70
     0
  9
$DIMSAH
 70
     0
  9
$DIMBLK1
  1

  9
$DIMBLK2
  1

  9
$DIMSTYLE
  2
ISO-25
  9
$DIMCLRD
 70
     0
  9
$DIMCLRE
 70
     0
  9
$DIMCLRT
 70
     0
  9
$DIMTFAC
 40
1.0
  9
$DIMGAP
 40
1.524
  9
$DIMJUST
 70
     0
  9
$DIMSD1
 70
     0
  9
$DIMSD2
 70
     0
  9
$DIMTOLJ
 70
     0
  9
$DIMTZIN
 70
     0
  9
$DIMALTZ
 70
     0
  9
$DIMALTTZ
 70
     0
  9
$DIMUPT
 70
     0
  9
$DIMDEC
 70
     2
  9
$DIMTDEC
 70
     3
  9
$DIMALTU
 70
     2
  9
$DIMALTTD
 70
     3
  9
$DIMTXSTY
  7
Standard
  9
$DIMAUNIT
 70
     0
  9
$DIMADEC
 70
     2
  9
$DIMALTRND
 40
0.0
  9
$DIMAZIN
 70
     0
  9
$DIMDSEP
 70
    44
  9
$DIMATFIT
 70
     3
  9
$DIMFRAC
 70
     0
  9
$DIMLDRBLK
  1

  9
$DIMLUNIT
 70
     2
  9
$DIMLWD
 70
    -2
  9
$DIMLWE
 70
    -2
  9
$DIMTMOVE
 70
     0
  9
$LUNITS
 70
     2
  9
$LUPREC
 70
     2
  9
$SKETCHINC
 40
1.0
  9
$FILLETRAD
 40
10.0
  9
$AUNITS
 70
     0
  9
$AUPREC
 70
     2
  9
$MENU
  1
.
  9
$ELEVATION
 40
0.0
  9
$PELEVATION
 40
0.0
  9
$THICKNESS
 40
0.0
  9
$LIMCHECK
 70
     0
  9
$CHAMFERA
 40
0.0
  9
$CHAMFERB
 40
0.0
  9
$CHAMFERC
 40
0.0
  9
$CHAMFERD
 40
0.0
  9
$SKPOLY
 70
     0
  9
$TDCREATE
 40
2457675.614967384
  9
$TDUCREATE
 40
2457675.531634051
  9
$TDUPDATE
 40
2457675.614968634
  9
$TDUUPDATE
 40
2457675.531635301
  9
$TDINDWG
 40
0.0000000116
  9
$TDUSRTIMER
 40
0.0000000116
  9
$USRTIMER
 70
     1
  9
$ANGBASE
 50
0.0
  9
$ANGDIR
 70
     0
  9
$PDMODE
 70
     0
  9
$PDSIZE
 40
-1.0
  9
$PLINEWID
 40
0.0
  9
$SPLFRAME
 70
     0
  9
$SPLINETYPE
 70
     6
  9
$SPLINESEGS
 70
     8
  9
$HANDSEED
  5
257
  9
$SURFTAB1
 70
     6
  9
$SURFTAB2
 70
     6
  9
$SURFTYPE
 70
     6
  9
$SURFU
 70
     6
  9
$SURFV
 70
     6
  9
$UCSBASE
  2

  9
$UCSNAME
  2

  9
$UCSORG
 10
0.0
 20
0.0
 30
0.0
  9
$UCSXDIR
 10
1.0
 20
0.0
 30
0.0
  9
$UCSYDIR
 10
0.0
 20
1.0
 30
0.0
  9
$UCSORTHOREF
  2

  9
$UCSORTHOVIEW
 70
     0
  9
$UCSORGTOP
 10
0.0
 20
0.0
 30
0.0
  9
$UCSORGBOTTOM
 10
0.0
 20
0.0
 30
0.0
  9
$UCSORGLEFT
 10
0.0
 20
0.0
 30
0.0
  9
$UCSORGRIGHT
 10
0.0
 20
0.0
 30
0.0
  9
$UCSORGFRONT
 10
0.0
 20
0.0
 30
0.0
  9
$UCSORGBACK
 10
0.0
 20
0.0
 30
0.0
  9
$PUCSBASE
  2

  9
$PUCSNAME
  2

  9
$PUCSORG
 10
0.0
 20
0.0
 30
0.0
  9
$PUCSXDIR
 10
1.0
 20
0.0
 30
0.0
  9
$PUCSYDIR
 10
0.0
 20
1.0
 30
0.0
  9
$PUCSORTHOREF
  2

  9
$PUCSORTHOVIEW
 70
     0
  9
$PUCSORGTOP
 10
0.0
 20
0.0
 30
0.0
  9
$PUCSORGBOTTOM
 10
0.0
 20
0.0
 30
0.0
  9
$PUCSORGLEFT
 10
0.0
 20
0.0
 30
0.0
  9
$PUCSORGRIGHT
 10
0.0
 20
0.0
 30
0.0
  9
$PUCSORGFRONT
 10
0.0
 20
0.0
 30
0.0
  9
$PUCSORGBACK
 10
0.0
 20
0.0
 30
0.0
  9
$USERI1
 70
     0
  9
$USERI2
 70
     0
  9
$USERI3
 70
     0
  9
$USERI4
 70
     0
  9
$USERI5
 70
     0
  9
$USERR1
 40
0.0
  9
$USERR2
 40
0.0
  9
$USERR3
 40
0.0
  9
$USERR4
 40
0.0
  9
$USERR5
 40
0.0
  9
$WORLDVIEW
 70
     1
  9
$SHADEDGE
 70
     3
  9
$SHADEDIF
 70
    70
  9
$TILEMODE
 70
     1
  9
$MAXACTVP
 70
    64
  9
$PINSBASE
 10
0.0
 20
0.0
 30
0.0
  9
$PLIMCHECK
 70
     0
  9
$PEXTMIN
 10
1.0000000000E+20
 20
1.0000000000E+20
 30
1.0000000000E+20
  9
$PEXTMAX
 10
-1.0000000000E+20
 20
-1.0000000000E+20
 30
-1.0000000000E+20
  9
$PLIMMIN
 10
0.0
 20
0.0
  9
$PLIMMAX
 10
420.0
 20
297.0
  9
$UNITMODE
 70
     0
  9
$VISRETAIN
 70
     1
  9
$PLINEGEN
 70
     0
  9
$PSLTSCALE
 70
     1
  9
$TREEDEPTH
 70
  3020
  9
$CMLSTYLE
  2
Standard
  9
$CMLJUST
 70
     0
  9
$CMLSCALE
 40
20.0
  9
$PROXYGRAPHICS
 70
     1
  9
$MEASUREMENT
 70
     1
  9
$CELWEIGHT
370
    -1
  9
$ENDCAPS
280
     0
  9
$JOINSTYLE
280
     0
  9
$LWDISPLAY
290
     1
  9
$INSUNITS
 70
     4
  9
$HYPERLINKBASE
  1

  9
$STYLESHEET
  1

  9
$XEDIT
290
     1
  9
$CEPSNTYPE
380
     0
  9
$PSTYLEMODE
290
     1
  9
$FINGERPRINTGUID
  2
{F7482174-6F06-44DB-B1BD-E08FEE687574}
  9
$VERSIONGUID
  2
{FAEB1C32-E019-11D5-929B-00C0DF256EC4}
  9
$EXTNAMES
290
     1
  9
$PSVPSCALE
 40
0.0
  9
$OLESTARTUP
290
     0
  0
ENDSEC
  0
SECTION
  2
CLASSES
  0
CLASS
  1
ACDBDICTIONARYWDFLT
  2
AcDbDictionaryWithDefault
  3
ObjectDBX Classes
 90
        0
280
     0
281
     0
  0
CLASS
  1
VISUALSTYLE
  2
AcDbVisualStyle
  3
ObjectDBX Classes
 90
     4095
280
     0
281
     0
  0
CLASS
  1
MATERIAL
  2
AcDbMaterial
  3
ObjectDBX Classes
 90
     1153
280
     0
281
     0
  0
CLASS
  1
SCALE
  2
AcDbScale
  3
ObjectDBX Classes
 90
     1153
280
     0
281
     0
  0
CLASS
  1
TABLESTYLE
  2
AcDbTableStyle
  3
ObjectDBX Classes
 90
     4095
280
     0
281
     0
  0
CLASS
  1
MLEADERSTYLE
  2
AcDbMLeaderStyle
  3
ACDB_MLEADERSTYLE_CLASS
 90
     4095
280
     0
281
     0
  0
CLASS
  1
SUN
  2
AcDbSun
  3
SCENEOE
 90
     1153
280
     0
281
     0
  0
CLASS
  1
ACDBPLACEHOLDER
  2
AcDbPlaceHolder
  3
ObjectDBX Classes
 90
        0
280
     0
281
     0
  0
CLASS
  1
LAYOUT
  2
AcDbLayout
  3
ObjectDBX Classes
 90
        0
280
     0
281
     0
  0
ENDSEC
  0
SECTION
  2
TABLES
  0
TABLE
  2
VPORT
  5
8
330
0
100
AcDbSymbolTable
 70
     1
  0
VPORT
  5
29
330
8
100
AcDbSymbolTableRecord
100
AcDbViewportTableRecord
  2
*Active
 70
     0
 10
0.0
 20
0.0
 11
1.0
 21
1.0
 12
148.5
 22
105.0
 13
0.0
 23
0.0
 14
10.0
 24
10.0
 15
10.0
 25
10.0
 16
0.0
 26
0.0
 36
1.0
 17
0.0
 27
0.0
 37
0.0
 40
210.0
 41
1.4142857143
 42
50.0
 43
0.0
 44
0.0
 50
0.0
 51
0.0
 71
     0
 72
  2000
 73
     1
 74
     3
 75
     0
 76
     0
 77
     0
 78
     0
281
     0
 65
     1
110
0.0
120
0.0
130
0.0
111
1.0
121
0.0
131
0.0
112
0.0
122
1.0
132
0.0
 79
     0
146
0.0
  0
ENDTAB
  0
TABLE
  2
LTYPE
  5
5
330
0
100
AcDbSymbolTable
 70
     6
  0
LTYPE
  5
14
330
5
100
AcDbSymbolTableRecord
100
AcDbLinetypeTableRecord
  2
ByBlock
 70
     0
  3

 72
    65
 73
     0
 40
0.0
  0
LTYPE
  5
15
330
5
100
AcDbSymbolTableRecord
100
AcDbLinetypeTableRecord
  2
ByLayer
 70
     0
  3

 72
    65
 73
     0
 40
0.0
  0
LTYPE
  5
16
330
5
100
AcDbSymbolTableRecord
100
AcDbLinetypeTableRecord
  2
Continuous
 70
     0
  3
Solid line
 72
    65
 73
     0
 40
0.0
  0
LTYPE
  5
6E
330
5
100
AcDbSymbolTableRecord
100
AcDbLinetypeTableRecord
  2
HIDDEN
 70
     0
  3
Hidden __ __ __ __ __ __ __ __ __ __ __ __ __ __
 72
    65
 73
     2
 40
1.905
 49
1.27
 74
     0
 49
-0.635
 74
     0
  0
LTYPE
  5
6F
330
5
100
AcDbSymbolTableRecord
100
AcDbLinetypeTableRecord
  2
PHANTOM
 70
     0
  3
Phantom ______  __  __  ______  __  __  ______
 72
    65
 73
     6
 40
12.7
 49
6.35
 74
     0
 49
-1.27
 74
     0
 49
1.27
 74
     0
 49
-1.27
 74
     0
 49
1.27
 74
     0
 49
-1.27
 74
     0
  0
LTYPE
  5
70
330
5
100
AcDbSymbolTableRecord
100
AcDbLinetypeTableRecord
  2
CENTER
 70
     0
  3
Center ____ _ ____ _ ____ _ ____ _ ____ _ ____
 72
    65
 73
     4
 40
10.16
 49
6.35
 74
     0
 49
-1.27
 74
     0
 49
1.27
 74
     0
 49
-1.27
 74
     0
  0
LTYPE
  5
71
330
5
100
AcDbSymbolTableRecord
100
AcDbLinetypeTableRecord
  2
CENTERX2
 70
     0
  3
Center (2x) ________  __  ________  __  _____
 72
    65
 73
     4
 40
20.32
 49
12.7
 74
     0
 49
-2.54
 74
     0
 49
2.54
 74
     0
 49
-2.54
 74
     0
  0
LTYPE
  5
72
330
5
100
AcDbSymbolTableRecord
100
AcDbLinetypeTableRecord
  2
DOT2
 70
     0
  3
Dot (.5x) ........................................
 72
    65
 73
     2
 40
0.635
 49
0.0
 74
     0
 49
-0.635
 74
     0
  0
ENDTAB
  0
TABLE
  2
LAYER
  5
2
330
0
100
AcDbSymbolTable
 70
     5
  0
LAYER
  5
10
330
2
100
AcDbSymbolTableRecord
100
AcDbLayerTableRecord
  2
0
 70
     0
 62
     7
  6
Continuous
370
    -3
390
F
  0
LAYER
  5
73
330
2
100
AcDbSymbolTableRecord
100
AcDbLayerTableRecord
  2
FORMAT
 70
     0
 62
     7
  6
Continuous
370
    -3
390
F
  0
LAYER
  5
74
330
2
100
AcDbSymbolTableRecord
100
AcDbLayerTableRecord
  2
VERMASSUNG
 70
     0
 62
     7
  6
Continuous
370
    -3
390
F
  0
LAYER
  5
75
330
2
100
AcDbSymbolTableRecord
100
AcDbLayerTableRecord
  2
KOPF_DÜNN
 70
     0
 62
     7
  6
Continuous
370
    -3
390
F
  0
LAYER
  5
76
330
2
100
AcDbSymbolTableRecord
100
AcDbLayerTableRecord
  2
KOPF_DICK
 70
     0
 62
     7
  6
Continuous
370
    15
390
F
  0
ENDTAB
  0
TABLE
  2
STYLE
  5
3
330
0
100
AcDbSymbolTable
 70
     2
  0
STYLE
  5
11
330
3
100
AcDbSymbolTableRecord
100
AcDbTextStyleTableRecord
  2
Standard
 70
     0
 40
0.0
 41
1.0
 50
0.0
 71
     0
 42
2.0
  3
txt
  4

  0
STYLE
  5
77
330
3
100
AcDbSymbolTableRecord
100
AcDbTextStyleTableRecord
  2
SLDTEXTSTYLE0
 70
     0
 40
0.0
 41
0.7
 50
0.0
 71
     0
 42
2.0
  3
TXT
  4

  0
ENDTAB
  0
TABLE
  2
VIEW
  5
6
330
0
100
AcDbSymbolTable
 70
     0
  0
ENDTAB
  0
TABLE
  2
UCS
  5
7
330
0
100
AcDbSymbolTable
 70
     0
  0
ENDTAB
  0
TABLE
  2
APPID
  5
9
330
0
100
AcDbSymbolTable
 70
     1
  0
APPID
  5
12
330
9
100
AcDbSymbolTableRecord
100
AcDbRegAppTableRecord
  2
ACAD
 70
     0
  0
ENDTAB
  0
TABLE
  2
DIMSTYLE
  5
A
330
0
100
AcDbSymbolTable
 70
     2
100
AcDbDimStyleTable
  0
DIMSTYLE
105
27
330
A
100
AcDbSymbolTableRecord
100
AcDbDimStyleTableRecord
  2
ISO-25
 70
     0
 41
2.5
 42
0.625
 43
3.75
 44
1.25
 73
     0
 74
     0
 77
     1
 78
     8
140
2.5
141
2.5
143
0.0393700787
147
0.625
171
     3
172
     1
178
     0
271
     2
272
     2
274
     3
278
    44
283
     0
284
     8
340
11
  0
DIMSTYLE
105
1A8
102
{ACAD_REACTORS
330
1A7
330
1B4
330
1BE
330
1C8
330
1D2
330
1DD
102
}
330
A
100
AcDbSymbolTableRecord
100
AcDbDimStyleTableRecord
  2
SLDDIMSTYLE0
 70
     0
 41
3.0
 44
0.0
 45
0.000000001
 73
     0
 74
     0
 77
     1
 78
    12
 79
     3
140
2.0
147
0.5
173
     1
178
     0
271
     2
272
     3
276
     2
284
    12
340
77
  0
ENDTAB
  0
TABLE
  2
BLOCK_RECORD
  5
1
330
0
100
AcDbSymbolTable
 70
     7
  0
BLOCK_RECORD
  5
1F
330
1
100
AcDbSymbolTableRecord
100
AcDbBlockTableRecord
  2
*Model_Space
340
22
  0
BLOCK_RECORD
  5
1B
330
1
100
AcDbSymbolTableRecord
100
AcDbBlockTableRecord
  2
*Paper_Space
340
1E
  0
BLOCK_RECORD
  5
23
330
1
100
AcDbSymbolTableRecord
100
AcDbBlockTableRecord
  2
*Paper_Space0
340
26
  0
BLOCK_RECORD
  5
1A9
330
1
100
AcDbSymbolTableRecord
100
AcDbBlockTableRecord
  2
_D
340
0
  0
BLOCK_RECORD
  5
1B5
330
1
100
AcDbSymbolTableRecord
100
AcDbBlockTableRecord
  2
_D_1
340
0
  0
BLOCK_RECORD
  5
1BF
330
1
100
AcDbSymbolTableRecord
100
AcDbBlockTableRecord
  2
_D_2
340
0
  0
BLOCK_RECORD
  5
1C9
330
1
100
AcDbSymbolTableRecord
100
AcDbBlockTableRecord
  2
_D_3
340
0
  0
BLOCK_RECORD
  5
1D3
330
1
100
AcDbSymbolTableRecord
100
AcDbBlockTableRecord
  2
_D_4
340
0
  0
BLOCK_RECORD
  5
1DE
330
1
100
AcDbSymbolTableRecord
100
AcDbBlockTableRecord
  2
_D_5
340
0
  0
ENDTAB
  0
ENDSEC
  0
SECTION
  2
BLOCKS
  0
BLOCK
  5
20
330
1F
100
AcDbEntity
  8
0
100
AcDbBlockBegin
  2
*Model_Space
 70
     0
 10
0.0
 20
0.0
 30
0.0
  3
*Model_Space
  1

  0
ENDBLK
  5
21
330
1F
100
AcDbEntity
  8
0
100
AcDbBlockEnd
  0
BLOCK
  5
1C
330
1B
100
AcDbEntity
 67
     1
  8
0
100
AcDbBlockBegin
  2
*Paper_Space
 70
     0
 10
0.0
 20
0.0
 30
0.0
  3
*Paper_Space
  1

  0
ENDBLK
  5
1D
330
1B
100
AcDbEntity
 67
     1
  8
0
100
AcDbBlockEnd
  0
BLOCK
  5
24
330
23
100
AcDbEntity
  8
0
100
AcDbBlockBegin
  2
*Paper_Space0
 70
     0
 10
0.0
 20
0.0
 30
0.0
  3
*Paper_Space0
  1

  0
ENDBLK
  5
25
330
23
100
AcDbEntity
  8
0
100
AcDbBlockEnd
  0
BLOCK
  5
1AA
330
1A9
100
AcDbEntity
  8
0
100
AcDbBlockBegin
  2
_D
 70
     0
 10
0.0
 20
0.0
 30
0.0
  3
_D
  1

  0
SOLID
  5
1AC
330
1A9
100
AcDbEntity
  8
VERMASSUNG
100
AcDbTrace
 10
84.1295678291
 20
81.6083196822
 30
0.0
 11
84.5795678291
 21
84.6083196822
 31
0.0
 12
83.6795678291
 22
84.6083196822
 32
0.0
 13
83.6795678291
 23
84.6083196822
 33
0.0
  0
SOLID
  5
1AD
330
1A9
100
AcDbEntity
  8
VERMASSUNG
100
AcDbTrace
 10
84.1295678291
 20
144.6083196822
 30
0.0
 11
83.6795678291
 21
141.6083196822
 31
0.0
 12
84.5795678291
 22
141.6083196822
 32
0.0
 13
84.5795678291
 23
141.6083196822
 33
0.0
  0
LINE
  5
1AE
330
1A9
100
AcDbEntity
  8
VERMASSUNG
100
AcDbLine
 10
180.4620269856
 20
81.6083196822
 30
0.0
 11
83.1295678291
 21
81.6083196822
 31
0.0
  0
LINE
  5
1AF
330
1A9
100
AcDbEntity
  8
VERMASSUNG
100
AcDbLine
 10
180.4620269856
 20
144.6083196822
 30
0.0
 11
83.1295678291
 21
144.6083196822
 31
0.0
  0
LINE
  5
1B0
330
1A9
100
AcDbEntity
  8
VERMASSUNG
100
AcDbLine
 10
84.1295678291
 20
81.6083196822
 30
0.0
 11
84.1295678291
 21
144.6083196822
 31
0.0
  0
MTEXT
  5
1B1
330
1A9
100
AcDbEntity
  8
VERMASSUNG
100
AcDbMText
 10
81.3514325729
 20
102.3045658202
 30
0.0
 40
2.0
 41
0.0
 71
     1
 72
     1
  1
MAS-BT 40
  7
SLDTEXTSTYLE0
 11
3.391901413832837E-15
 21
1.0
 31
0.0
 73
     1
 44
1.0
  0
MTEXT
  5
1B2
330
1A9
100
AcDbEntity
  8
VERMASSUNG
100
AcDbMText
 10
81.5514325242
 20
117.5045660765
 30
0.0
 40
2.0
 41
0.0
 71
     1
 72
     1
  1
%%c
  7
SLDTEXTSTYLE0
 11
3.391901413832837E-15
 21
1.0
 31
0.0
 73
     1
 44
1.0
  0
MTEXT
  5
1B3
330
1A9
100
AcDbEntity
  8
VERMASSUNG
100
AcDbMText
 10
81.5514322331
 20
121.1126935236
 30
0.0
 40
2.0
 41
0.0
 71
     1
 72
     1
  1
63
  7
SLDTEXTSTYLE0
 11
3.391901413832837E-15
 21
1.0
 31
0.0
 73
     1
 44
1.0
  0
ENDBLK
  5
1AB
330
1A9
100
AcDbEntity
  8
0
100
AcDbBlockEnd
  0
BLOCK
  5
1B6
330
1B5
100
AcDbEntity
  8
0
100
AcDbBlockBegin
  2
_D_1
 70
     0
 10
0.0
 20
0.0
 30
0.0
  3
_D_1
  1

  0
SOLID
  5
1B8
330
1B5
100
AcDbEntity
  8
VERMASSUNG
100
AcDbTrace
 10
181.4620269856
 20
148.7083196822
 30
0.0
 11
184.4620269856
 21
148.2583196822
 31
0.0
 12
184.4620269856
 22
149.1583196822
 32
0.0
 13
184.4620269856
 23
149.1583196822
 33
0.0
  0
SOLID
  5
1B9
330
1B5
100
AcDbEntity
  8
VERMASSUNG
100
AcDbTrace
 10
208.4620269856
 20
148.7083196822
 30
0.0
 11
205.4620269856
 21
149.1583196822
 31
0.0
 12
205.4620269856
 22
148.2583196822
 32
0.0
 13
205.4620269856
 23
148.2583196822
 33
0.0
  0
LINE
  5
1BA
330
1B5
100
AcDbEntity
  8
VERMASSUNG
100
AcDbLine
 10
181.4620269856
 20
143.6083196822
 30
0.0
 11
181.4620269856
 21
149.7083196822
 31
0.0
  0
LINE
  5
1BB
330
1B5
100
AcDbEntity
  8
VERMASSUNG
100
AcDbLine
 10
208.4620269856
 20
132.7083196822
 30
0.0
 11
208.4620269856
 21
149.7083196822
 31
0.0
  0
LINE
  5
1BC
330
1B5
100
AcDbEntity
  8
VERMASSUNG
100
AcDbLine
 10
181.4620269856
 20
148.7083196822
 30
0.0
 11
208.4620269856
 21
148.7083196822
 31
0.0
  0
MTEXT
  5
1BD
330
1B5
100
AcDbEntity
  8
VERMASSUNG
100
AcDbMText
 10
193.5623369753
 20
151.2864552782
 30
0.0
 40
2.0
 41
0.0
 71
     1
 72
     1
  1
27
  7
SLDTEXTSTYLE0
 73
     1
 44
1.0
  0
ENDBLK
  5
1B7
330
1B5
100
AcDbEntity
  8
0
100
AcDbBlockEnd
  0
BLOCK
  5
1C0
330
1BF
100
AcDbEntity
  8
0
100
AcDbBlockBegin
  2
_D_2
 70
     0
 10
0.0
 20
0.0
 30
0.0
  3
_D_2
  1

  0
SOLID
  5
1C2
330
1BF
100
AcDbEntity
  8
VERMASSUNG
100
AcDbTrace
 10
208.4620269856
 20
154.7083196822
 30
0.0
 11
205.4620269856
 21
155.1583196822
 31
0.0
 12
205.4620269856
 22
154.2583196822
 32
0.0
 13
205.4620269856
 23
154.2583196822
 33
0.0
  0
SOLID
  5
1C3
330
1BF
100
AcDbEntity
  8
VERMASSUNG
100
AcDbTrace
 10
154.4620269856
 20
154.7083196822
 30
0.0
 11
157.4620269856
 21
154.2583196822
 31
0.0
 12
157.4620269856
 22
155.1583196822
 32
0.0
 13
157.4620269856
 23
155.1583196822
 33
0.0
  0
LINE
  5
1C4
330
1BF
100
AcDbEntity
  8
VERMASSUNG
100
AcDbLine
 10
208.4620269856
 20
132.7083196822
 30
0.0
 11
208.4620269856
 21
155.7083196822
 31
0.0
  0
LINE
  5
1C5
330
1BF
100
AcDbEntity
  8
VERMASSUNG
100
AcDbLine
 10
154.4620269856
 20
135.3333196822
 30
0.0
 11
154.4620269856
 21
155.7083196822
 31
0.0
  0
LINE
  5
1C6
330
1BF
100
AcDbEntity
  8
VERMASSUNG
100
AcDbLine
 10
208.4620269856
 20
154.7083196822
 30
0.0
 11
154.4620269856
 21
154.7083196822
 31
0.0
  0
MTEXT
  5
1C7
330
1BF
100
AcDbEntity
  8
VERMASSUNG
100
AcDbMText
 10
179.9630681802
 20
157.2864552782
 30
0.0
 40
2.0
 41
0.0
 71
     1
 72
     1
  1
54
  7
SLDTEXTSTYLE0
 73
     1
 44
1.0
  0
ENDBLK
  5
1C1
330
1BF
100
AcDbEntity
  8
0
100
AcDbBlockEnd
  0
BLOCK
  5
1CA
330
1C9
100
AcDbEntity
  8
0
100
AcDbBlockBegin
  2
_D_3
 70
     0
 10
0.0
 20
0.0
 30
0.0
  3
_D_3
  1

  0
SOLID
  5
1CC
330
1C9
100
AcDbEntity
  8
VERMASSUNG
100
AcDbTrace
 10
208.4620269856
 20
160.7083196822
 30
0.0
 11
205.4620269856
 21
161.1583196822
 31
0.0
 12
205.4620269856
 22
160.2583196822
 32
0.0
 13
205.4620269856
 23
160.2583196822
 33
0.0
  0
SOLID
  5
1CD
330
1C9
100
AcDbEntity
  8
VERMASSUNG
100
AcDbTrace
 10
89.0620269856
 20
160.7083196822
 30
0.0
 11
92.0620269856
 21
160.2583196822
 31
0.0
 12
92.0620269856
 22
161.1583196822
 32
0.0
 13
92.0620269856
 23
161.1583196822
 33
0.0
  0
LINE
  5
1CE
330
1C9
100
AcDbEntity
  8
VERMASSUNG
100
AcDbLine
 10
208.4620269856
 20
132.7083196822
 30
0.0
 11
208.4620269856
 21
161.7083196822
 31
0.0
  0
LINE
  5
1CF
330
1C9
100
AcDbEntity
  8
VERMASSUNG
100
AcDbLine
 10
89.0620269856
 20
124.9310752792
 30
0.0
 11
89.0620269856
 21
161.7083196822
 31
0.0
  0
LINE
  5
1D0
330
1C9
100
AcDbEntity
  8
VERMASSUNG
100
AcDbLine
 10
208.4620269856
 20
160.7083196822
 30
0.0
 11
89.0620269856
 21
160.7083196822
 31
0.0
  0
MTEXT
  5
1D1
330
1C9
100
AcDbEntity
  8
VERMASSUNG
100
AcDbMText
 10
145.962646965
 20
163.2864552782
 30
0.0
 40
2.0
 41
0.0
 71
     1
 72
     1
  1
119.4
  7
SLDTEXTSTYLE0
 73
     1
 44
1.0
  0
ENDBLK
  5
1CB
330
1C9
100
AcDbEntity
  8
0
100
AcDbBlockEnd
  0
BLOCK
  5
1D4
330
1D3
100
AcDbEntity
  8
0
100
AcDbBlockBegin
  2
_D_4
 70
     0
 10
0.0
 20
0.0
 30
0.0
  3
_D_4
  1

  0
SOLID
  5
1D6
330
1D3
100
AcDbEntity
  8
VERMASSUNG
100
AcDbTrace
 10
214.7073087168
 20
102.1083196822
 30
0.0
 11
215.1573087168
 21
105.1083196822
 31
0.0
 12
214.2573087168
 22
105.1083196822
 32
0.0
 13
214.2573087168
 23
105.1083196822
 33
0.0
  0
SOLID
  5
1D7
330
1D3
100
AcDbEntity
  8
VERMASSUNG
100
AcDbTrace
 10
214.7073087168
 20
124.1083196822
 30
0.0
 11
214.2573087168
 21
121.1083196822
 31
0.0
 12
215.1573087168
 22
121.1083196822
 32
0.0
 13
215.1573087168
 23
121.1083196822
 33
0.0
  0
LINE
  5
1D8
330
1D3
100
AcDbEntity
  8
VERMASSUNG
100
AcDbLine
 10
207.4620269856
 20
102.1083196822
 30
0.0
 11
215.7073087168
 21
102.1083196822
 31
0.0
  0
LINE
  5
1D9
330
1D3
100
AcDbEntity
  8
VERMASSUNG
100
AcDbLine
 10
207.4620269856
 20
124.1083196822
 30
0.0
 11
215.7073087168
 21
124.1083196822
 31
0.0
  0
LINE
  5
1DA
330
1D3
100
AcDbEntity
  8
VERMASSUNG
100
AcDbLine
 10
214.7073087168
 20
102.1083196822
 30
0.0
 11
214.7073087168
 21
124.1083196822
 31
0.0
  0
MTEXT
  5
1DB
330
1D3
100
AcDbEntity
  8
VERMASSUNG
100
AcDbMText
 10
212.129173179
 20
109.9041435751
 30
0.0
 40
2.0
 41
0.0
 71
     1
 72
     1
  1
%%c
  7
SLDTEXTSTYLE0
 11
6.123233995736766E-17
 21
1.0
 31
0.0
 73
     1
 44
1.0
  0
MTEXT
  5
1DC
330
1D3
100
AcDbEntity
  8
VERMASSUNG
100
AcDbMText
 10
212.1291731208
 20
113.5131157687
 30
0.0
 40
2.0
 41
0.0
 71
     1
 72
     1
  1
22
  7
SLDTEXTSTYLE0
 11
6.123233995736766E-17
 21
1.0
 31
0.0
 73
     1
 44
1.0
  0
ENDBLK
  5
1D5
330
1D3
100
AcDbEntity
  8
0
100
AcDbBlockEnd
  0
BLOCK
  5
1DF
330
1DE
100
AcDbEntity
  8
0
100
AcDbBlockBegin
  2
_D_5
 70
     0
 10
0.0
 20
0.0
 30
0.0
  3
_D_5
  1

  0
SOLID
  5
1E1
330
1DE
100
AcDbEntity
  8
VERMASSUNG
100
AcDbTrace
 10
220.8073087168
 20
133.1083196822
 30
0.0
 11
220.3573087168
 21
130.1083196822
 31
0.0
 12
221.2573087168
 22
130.1083196822
 32
0.0
 13
221.2573087168
 23
130.1083196822
 33
0.0
  0
SOLID
  5
1E2
330
1DE
100
AcDbEntity
  8
VERMASSUNG
100
AcDbTrace
 10
220.8073087168
 20
93.1083196822
 30
0.0
 11
221.2573087168
 21
96.1083196822
 31
0.0
 12
220.3573087168
 22
96.1083196822
 32
0.0
 13
220.3573087168
 23
96.1083196822
 33
0.0
  0
LINE
  5
1E3
330
1DE
100
AcDbEntity
  8
VERMASSUNG
100
AcDbLine
 10
208.0620269856
 20
133.1083196822
 30
0.0
 11
221.8073087168
 21
133.1083196822
 31
0.0
  0
LINE
  5
1E4
330
1DE
100
AcDbEntity
  8
VERMASSUNG
100
AcDbLine
 10
208.0620269856
 20
93.1083196822
 30
0.0
 11
221.8073087168
 21
93.1083196822
 31
0.0
  0
LINE
  5
1E5
330
1DE
100
AcDbEntity
  8
VERMASSUNG
100
AcDbLine
 10
220.8073087168
 20
133.1083196822
 30
0.0
 11
220.8073087168
 21
93.1083196822
 31
0.0
  0
MTEXT
  5
1E6
330
1DE
100
AcDbEntity
  8
VERMASSUNG
100
AcDbMText
 10
218.0291734605
 20
107.3044041312
 30
0.0
 40
2.0
 41
0.0
 71
     1
 72
     1
  1
WH
  7
SLDTEXTSTYLE0
 11
-7.044195017643634E-15
 21
1.0
 31
0.0
 73
     1
 44
1.0
  0
MTEXT
  5
1E7
330
1DE
100
AcDbEntity
  8
VERMASSUNG
100
AcDbMText
 10
218.2291734118
 20
112.3044040195
 30
0.0
 40
2.0
 41
0.0
 71
     1
 72
     1
  1
%%c
  7
SLDTEXTSTYLE0
 11
-7.044195017643634E-15
 21
1.0
 31
0.0
 73
     1
 44
1.0
  0
MTEXT
  5
1E8
330
1DE
100
AcDbEntity
  8
VERMASSUNG
100
AcDbMText
 10
218.2291731208
 20
115.9143176225
 30
0.0
 40
2.0
 41
0.0
 71
     1
 72
     1
  1
40
  7
SLDTEXTSTYLE0
 11
-7.044195017643634E-15
 21
1.0
 31
0.0
 73
     1
 44
1.0
  0
ENDBLK
  5
1E0
330
1DE
100
AcDbEntity
  8
0
100
AcDbBlockEnd
  0
ENDSEC
  0
SECTION
  2
ENTITIES
  0
MTEXT
  5
78
330
1F
100
AcDbEntity
  8
KOPF_DÜNN
100
AcDbMText
 10
13.8892156294
 20
23.8442973028
 30
0.0
 40
3.0
 41
0.0
 71
     1
 72
     1
  1
A34.540.040.054
  7
SLDTEXTSTYLE0
 73
     1
 44
1.0
  0
MTEXT
  5
79
330
1F
100
AcDbEntity
  8
VERMASSUNG
100
AcDbMText
 10
13.9329988022
 20
28.8834360957
 30
0.0
 40
3.0
 41
0.0
 71
     1
 72
     1
  1
Aufnahme_Masrter shak WH40
  7
SLDTEXTSTYLE0
 73
     1
 44
1.0
  0
MTEXT
  5
7A
330
1F
100
AcDbEntity
  8
VERMASSUNG
100
AcDbMText
 10
98.8601118557
 20
13.8365368761
 30
0.0
 40
2.0
 41
0.0
 71
     1
 72
     1
  1
Datum: 02.09.2011
  7
SLDTEXTSTYLE0
 73
     1
 44
1.0
  0
MTEXT
  5
7B
330
1F
100
AcDbEntity
  8
VERMASSUNG
100
AcDbMText
 10
13.933048693
 20
18.0482802738
 30
0.0
 40
2.0
 41
0.0
 71
     1
 72
     1
  1
MAS-BT AD/B
  7
SLDTEXTSTYLE0
 73
     1
 44
1.0
  0
MTEXT
  5
7C
330
1F
100
AcDbEntity
  8
VERMASSUNG
100
AcDbMText
 10
13.9808475933
 20
13.9090974274
 30
0.0
 40
2.0
 41
0.0
 71
     1
 72
     1
  1
Gewicht: 1161g
  7
SLDTEXTSTYLE0
 73
     1
 44
1.0
  0
LINE
  5
7D
330
1F
100
AcDbEntity
  8
0
  6
Continuous
 62
     7
370
    15
100
AcDbLine
 10
178.462029427
 20
81.6083196822
 30
0.0
 11
180.4620269856
 21
81.6083196822
 31
0.0
  0
LINE
  5
7E
330
1F
100
AcDbEntity
  8
0
  6
Continuous
 62
     7
370
    15
100
AcDbLine
 10
180.4620269856
 20
144.6083196822
 30
0.0
 11
178.4615268156
 21
144.6083196822
 31
0.0
  0
ARC
  5
7F
330
1F
100
AcDbEntity
  8
0
  6
Continuous
 62
     7
370
    15
100
AcDbCircle
 10
180.4620269856
 20
82.6083196822
 30
0.0
 40
1.0
100
AcDbArc
 50
270.0
 51
0.0
  0
ARC
  5
80
330
1F
100
AcDbEntity
  8
0
  6
Continuous
 62
     7
370
    15
100
AcDbCircle
 10
180.4620269856
 20
143.6083196822
 30
0.0
 40
1.0
100
AcDbArc
 50
0.0
 51
90.0
  0
ARC
  5
81
330
1F
100
AcDbEntity
  8
0
  6
Continuous
 62
     7
370
    15
100
AcDbCircle
 10
155.4620269856
 20
89.8833196822
 30
0.0
 40
1.0
100
AcDbArc
 50
46.4333463416
 51
90.0
  0
ARC
  5
82
330
1F
100
AcDbEntity
  8
0
  6
Continuous
 62
     7
370
    15
100
AcDbCircle
 10
155.4620269856
 20
136.3333196822
 30
0.0
 40
1.0
100
AcDbArc
 50
270.0
 51
313.5375610145
  0
ARC
  5
83
330
1F
100
AcDbEntity
  8
0
  6
Continuous
 62
     7
370
    15
100
AcDbCircle
 10
184.4620269856
 20
90.1083196822
 30
0.0
 40
3.0
100
AcDbArc
 50
90.0
 51
180.0
  0
ARC
  5
84
330
1F
100
AcDbEntity
  8
0
  6
Continuous
 62
     7
370
    15
100
AcDbCircle
 10
184.4620269856
 20
136.1083196822
 30
0.0
 40
3.000000000000028
100
AcDbArc
 50
180.0
 51
270.0
  0
LINE
  5
85
330
1F
100
AcDbEntity
  8
0
  6
Continuous
 62
     7
370
    15
100
AcDbLine
 10
154.4620269856
 20
90.8833196822
 30
0.0
 11
155.4620269856
 21
90.8833196822
 31
0.0
  0
LINE
  5
86
330
1F
100
AcDbEntity
  8
0
  6
Continuous
 62
     7
370
    15
100
AcDbLine
 10
155.4620269856
 20
135.3333196822
 30
0.0
 11
154.4620269856
 21
135.3333196822
 31
0.0
  0
LINE
  5
87
330
1F
100
AcDbEntity
  8
0
  6
Continuous
 62
     7
370
    15
100
AcDbLine
 10
154.4620269856
 20
135.3333196822
 30
0.0
 11
89.9177200925
 21
125.9206082603
 31
0.0
  0
LINE
  5
88
330
1F
100
AcDbEntity
  8
0
  6
Continuous
 62
     7
370
    15
100
AcDbLine
 10
89.9177200925
 20
100.2960311041
 30
0.0
 11
154.4620269856
 21
90.8833196822
 31
0.0
  0
LINE
  5
89
330
1F
100
AcDbEntity
  8
0
  6
Continuous
 62
     7
370
    15
100
AcDbLine
 10
208.0620269856
 20
93.1083196822
 30
0.0
 11
208.4620269856
 21
93.5083196822
 31
0.0
  0
LINE
  5
8A
330
1F
100
AcDbEntity
  8
0
  6
Continuous
 62
     7
370
    15
100
AcDbLine
 10
208.4620269856
 20
132.7083196822
 30
0.0
 11
208.0620269856
 21
133.1083196822
 31
0.0
  0
LINE
  5
8B
330
1F
100
AcDbEntity
  8
0
  6
Continuous
 62
     7
370
    15
100
AcDbLine
 10
190.1830202475
 20
133.1083196822
 30
0.0
 11
184.4620269856
 21
133.1083196822
 31
0.0
  0
LINE
  5
8C
330
1F
100
AcDbEntity
  8
0
  6
Continuous
 62
     7
370
    15
100
AcDbLine
 10
208.0620269856
 20
133.1083196822
 30
0.0
 11
202.6501735414
 21
133.1083196822
 31
0.0
  0
LINE
  5
8D
330
1F
100
AcDbEntity
  8
0
  6
Continuous
 62
     7
370
    15
100
AcDbLine
 10
184.4620269856
 20
93.1083196822
 30
0.0
 11
208.0620269856
 21
93.1083196822
 31
0.0
  0
ARC
  5
8E
330
1F
100
AcDbEntity
  8
0
  6
Continuous
 62
     7
370
    15
100
AcDbCircle
 10
90.0620269856
 20
101.2855640852
 30
0.0
 40
1.00000000000001
100
AcDbArc
 50
180.0
 51
261.7028550302
  0
ARC
  5
8F
330
1F
100
AcDbEntity
  8
0
  6
Continuous
 62
     7
370
    15
100
AcDbCircle
 10
90.0620269856
 20
124.9310752792
 30
0.0
 40
1.00000000000001
100
AcDbArc
 50
98.2971449698
 51
180.0
  0
SPLINE
  5
90
330
1F
100
AcDbEntity
  8
0
  6
Continuous
 62
     7
370
    15
100
AcDbSpline
210
0.0
220
0.0
230
1.0
 70
    24
 71
     3
 72
    11
 73
     7
 74
     0
 42
0.000000001
 43
0.00000001
 40
0.0
 40
0.0
 40
0.0
 40
0.0
 40
0.2164543009645042
 40
0.4403089937225375
 40
0.7518987489759481
 40
0.9999999999999999
 40
0.9999999999999999
 40
0.9999999999999999
 40
0.9999999999999999
 10
197.5845446332077
 20
110.4704160260101
 30
0.0
 10
197.7008746323513
 20
110.630322636742
 30
0.0
 10
197.9375118561644
 20
110.955602931692
 30
0.0
 10
198.3766483535754
 20
111.5592376730882
 30
0.0
 10
198.8477033048447
 20
112.2067473548598
 30
0.0
 10
199.1491509226292
 20
112.6211156796942
 30
0.0
 10
199.2827773883963
 20
112.8047979233306
 30
0.0
  0
SPLINE
  5
91
330
1F
100
AcDbEntity
  8
0
  6
Continuous
 62
     7
370
    15
100
AcDbSpline
210
0.0
220
0.0
230
1.0
 70
    24
 71
     3
 72
    11
 73
     7
 74
     0
 42
0.000000001
 43
0.00000001
 40
0.0
 40
0.0
 40
0.0
 40
0.0
 40
0.184930816824614
 40
0.5198464202157763
 40
0.8714438233692643
 40
0.9999999999999999
 40
0.9999999999999999
 40
0.9999999999999999
 40
0.9999999999999999
 10
199.2827773883963
 20
112.8047979233306
 30
0.0
 10
199.2145311322384
 20
112.958336805245
 30
0.0
 10
199.0226887310313
 20
113.3899394959031
 30
0.0
 10
198.6645782538472
 20
114.1956083393552
 30
0.0
 10
198.3338485760993
 20
114.9396764801745
 30
0.0
 10
198.1574804818662
 20
115.3364654253625
 30
0.0
 10
198.1102597407766
 20
115.4427015795231
 30
0.0
  0
SPLINE
  5
92
330
1F
100
AcDbEntity
  8
0
  6
Continuous
 62
     7
370
    15
100
AcDbSpline
210
0.0
220
0.0
230
1.0
 70
    24
 71
     3
 72
    11
 73
     7
 74
     0
 42
0.000000001
 43
0.00000001
 40
0.0
 40
0.0
 40
0.0
 40
0.0
 40
0.2164543009645048
 40
0.4403089937225366
 40
0.7518987489759481
 40
1.0
 40
1.0
 40
1.0
 40
1.0
 10
198.1102597407766
 20
115.442701579523
 30
0.0
 10
197.9136115540779
 20
115.4634930086377
 30
0.0
 10
197.5135919433941
 20
115.5057867084658
 30
0.0
 10
196.7712606740326
 20
115.5842727002545
 30
0.0
 10
195.9749733647874
 20
115.6684634137464
 30
0.0
 10
195.465396060065
 20
115.7223405462408
 30
0.0
 10
195.2395093379681
 20
115.746223338395
 30
0.0
  0
SPLINE
  5
93
330
1F
100
AcDbEntity
  8
0
  6
Continuous
 62
     7
370
    15
100
AcDbSpline
210
0.0
220
0.0
230
1.0
 70
    24
 71
     3
 72
    11
 73
     7
 74
     0
 42
0.000000001
 43
0.00000001
 40
0.0
 40
0.0
 40
0.0
 40
0.0
 40
0.216454300964504
 40
0.4403089937225361
 40
0.7518987489759466
 40
1.0
 40
1.0
 40
1.0
 40
1.0
 10
195.2395093379681
 20
115.746223338395
 30
0.0
 10
195.1231793388246
 20
115.5863167276631
 30
0.0
 10
194.8865421150115
 20
115.2610364327131
 30
0.0
 10
194.4474056176005
 20
114.6574016913168
 30
0.0
 10
193.9763506663311
 20
114.0098920095452
 30
0.0
 10
193.6749030485467
 20
113.5955236847108
 30
0.0
 10
193.5412765827795
 20
113.4118414410744
 30
0.0
  0
SPLINE
  5
94
330
1F
100
AcDbEntity
  8
0
  6
Continuous
 62
     7
370
    15
100
AcDbSpline
210
0.0
220
0.0
230
1.0
 70
    24
 71
     3
 72
    11
 73
     7
 74
     0
 42
0.000000001
 43
0.00000001
 40
0.0
 40
0.0
 40
0.0
 40
0.0
 40
0.1285561766307357
 40
0.4801535797842238
 40
0.8150691831753875
 40
1.0
 40
1.0
 40
1.0
 40
1.0
 10
193.5412765827795
 20
113.4118414410744
 30
0.0
 10
193.5884973238692
 20
113.3056052869139
 30
0.0
 10
193.7648654181023
 20
112.9088163417259
 30
0.0
 10
194.0955950958502
 20
112.1647482009066
 30
0.0
 10
194.4537055730343
 20
111.3590793574545
 30
0.0
 10
194.6455479742414
 20
110.9274766667963
 30
0.0
 10
194.7137942303993
 20
110.773937784882
 30
0.0
  0
CIRCLE
  5
95
330
1F
100
AcDbEntity
  8
0
  6
Continuous
 62
     7
370
    15
100
AcDbCircle
 10
196.4120269856
 20
113.1083196822
 30
0.0
 40
3.000000000000024
  0
SPLINE
  5
96
330
1F
100
AcDbEntity
  8
0
  6
Continuous
 62
     7
370
    15
100
AcDbSpline
210
0.0
220
0.0
230
1.0
 70
    24
 71
     3
 72
    11
 73
     7
 74
     0
 42
0.000000001
 43
0.00000001
 40
0.0
 40
0.0
 40
0.0
 40
0.0
 40
0.2164543009645048
 40
0.4403089937225366
 40
0.7518987489759481
 40
1.0
 40
1.0
 40
1.0
 40
1.0
 10
194.7137942303993
 20
110.773937784882
 30
0.0
 10
194.910442417098
 20
110.7531463557674
 30
0.0
 10
195.3104620277817
 20
110.7108526559392
 30
0.0
 10
196.0527932971433
 20
110.6323666641505
 30
0.0
 10
196.8490806063885
 20
110.5481759506586
 30
0.0
 10
197.3586579111109
 20
110.4942988181642
 30
0.0
 10
197.5845446332077
 20
110.4704160260101
 30
0.0
  0
CIRCLE
  5
97
330
1F
100
AcDbEntity
  8
0
  6
Continuous
 62
     7
370
    15
100
AcDbCircle
 10
196.4120269856
 20
113.1083196822
 30
0.0
 40
4.300000000000019
  0
ARC
  5
98
330
1F
100
AcDbEntity
  8
0
  6
Continuous
 62
     7
370
    15
100
AcDbCircle
 10
196.4120269856
 20
113.1083196822
 30
0.0
 40
2.500000000000002
100
AcDbArc
 50
83.9645932988
 51
143.9645932988
  0
ARC
  5
99
330
1F
100
AcDbEntity
  8
0
  6
Continuous
 62
     7
370
    15
100
AcDbCircle
 10
196.4120269856
 20
113.1083196822
 30
0.0
 40
2.500000000000006
100
AcDbArc
 50
203.9645932988
 51
263.9645932988
  0
ARC
  5
9A
330
1F
100
AcDbEntity
  8
0
  6
Continuous
 62
     7
370
    15
100
AcDbCircle
 10
196.4120269856
 20
113.1083196822
 30
0.0
 40
2.500000000000006
100
AcDbArc
 50
143.9645932988
 51
203.9645932988
  0
ARC
  5
9B
330
1F
100
AcDbEntity
  8
0
  6
Continuous
 62
     7
370
    15
100
AcDbCircle
 10
196.4120269856
 20
113.1083196822
 30
0.0
 40
2.5
100
AcDbArc
 50
23.9645932988
 51
83.9645932988
  0
ARC
  5
9C
330
1F
100
AcDbEntity
  8
0
  6
Continuous
 62
     7
370
    15
100
AcDbCircle
 10
196.4120269856
 20
113.1083196822
 30
0.0
 40
2.500000000000004
100
AcDbArc
 50
263.9645932988
 51
323.9645932988
  0
ARC
  5
9D
330
1F
100
AcDbEntity
  8
0
  6
Continuous
 62
     7
370
    15
100
AcDbCircle
 10
196.4120269856
 20
113.1083196822
 30
0.0
 40
2.5
100
AcDbArc
 50
323.9645932988
 51
23.9645932988
  0
SPLINE
  5
9E
330
1F
100
AcDbEntity
  8
0
  6
Continuous
 62
     7
370
    15
100
AcDbSpline
210
0.0
220
0.0
230
1.0
 70
     8
 71
     3
 72
    10
 73
     6
 74
     0
 42
0.000000001
 43
0.00000001
 40
0.0
 40
0.0
 40
0.0
 40
0.0
 40
0.5
 40
0.5
 40
1.0
 40
1.0
 40
1.0
 40
1.0
 10
175.4386353896334
 20
143.0127804035566
 30
0.0
 10
175.122531558494
 20
142.3929178452795
 30
0.0
 10
174.7927525141492
 20
141.7470171099806
 30
0.0
 10
174.1205292417604
 20
140.4325984696801
 30
0.0
 10
173.7783960758298
 20
139.7646762426678
 30
0.0
 10
173.4312157473156
 20
139.0883385101864
 30
0.0
  0
SPLINE
  5
9F
330
1F
100
AcDbEntity
  8
0
  6
Continuous
 62
     7
370
    15
100
AcDbSpline
210
0.0
220
0.0
230
1.0
 70
     8
 71
     3
 72
     9
 73
     5
 74
     0
 42
0.000000001
 43
0.00000001
 40
0.0
 40
0.0
 40
0.0
 40
0.0
 40
0.5067583433955531
 40
1.0
 40
1.0
 40
1.0
 40
1.0
 10
176.0876575285725
 20
143.9704547895515
 30
0.0
 10
175.9772575712241
 20
143.8083805298869
 30
0.0
 10
175.7594023374875
 20
143.4885549921786
 30
0.0
 10
175.5448089914135
 20
143.1702064472265
 30
0.0
 10
175.4389626138997
 20
143.0131836835368
 30
0.0
  0
LINE
  5
A0
330
1F
100
AcDbEntity
  8
0
  6
Continuous
 62
     7
370
    15
100
AcDbLine
 10
176.0870269856
 20
82.2472216627
 30
0.0
 11
176.0870269856
 21
143.9694014367
 31
0.0
  0
SPLINE
  5
A1
330
1F
100
AcDbEntity
  8
0
  6
Continuous
 62
     7
370
    15
100
AcDbSpline
210
0.0
220
0.0
230
1.0
 70
     8
 71
     3
 72
     9
 73
     5
 74
     0
 42
0.000000001
 43
0.00000001
 40
0.0
 40
0.0
 40
0.0
 40
0.0
 40
0.4932438861071711
 40
0.9999999999999999
 40
0.9999999999999999
 40
0.9999999999999999
 40
0.9999999999999999
 10
175.4389486988769
 20
83.20345358049775
 30
0.0
 10
175.5447951893699
 20
83.04642966859217
 30
0.0
 10
175.7593877945178
 20
82.72808023471504
 30
0.0
 10
175.9772418435043
 20
82.4082547469748
 30
0.0
 10
176.0876407147645
 20
82.24618122568369
 30
0.0
  0
SPLINE
  5
A2
330
1F
100
AcDbEntity
  8
0
  6
Continuous
 62
     7
370
    15
100
AcDbSpline
210
0.0
220
0.0
230
1.0
 70
     8
 71
     3
 72
    10
 73
     6
 74
     0
 42
0.000000001
 43
0.00000001
 40
0.0
 40
0.0
 40
0.0
 40
0.0
 40
0.5
 40
0.5
 40
1.0
 40
1.0
 40
1.0
 40
1.0
 10
175.4386294699656
 20
83.20387056899747
 30
0.0
 10
175.1224503672915
 20
83.8238807210112
 30
0.0
 10
174.7920081401245
 20
84.4710787868789
 30
0.0
 10
174.1202966194417
 20
85.78449471147268
 30
0.0
 10
173.7783227444098
 20
86.45210597777547
 30
0.0
 10
173.4312157473156
 20
87.12830085421865
 30
0.0
  0
SPLINE
  5
A3
330
1F
100
AcDbEntity
  8
0
  6
Continuous
 62
     7
370
    15
100
AcDbSpline
210
0.0
220
0.0
230
1.0
 70
     8
 71
     3
 72
    11
 73
     7
 74
     0
 42
0.000000001
 43
0.00000001
 40
0.0
 40
0.0
 40
0.0
 40
0.0
 40
0.2488814606662326
 40
0.5011921284372279
 40
0.7520447562616803
 40
0.9999999999999999
 40
0.9999999999999999
 40
0.9999999999999999
 40
0.9999999999999999
 10
178.4615268155709
 20
144.6081699367961
 30
0.0
 10
178.4317484860834
 20
144.5990379106519
 30
0.0
 10
178.3717815271255
 20
144.5806480329652
 30
0.0
 10
177.8798594653367
 20
144.4366107844795
 30
0.0
 10
177.1517900427061
 20
144.2272077063672
 30
0.0
 10
176.4410465715334
 20
144.0550034370175
 30
0.0
 10
176.0877390543968
 20
143.969401436701
 30
0.0
  0
SPLINE
  5
A4
330
1F
100
AcDbEntity
  8
0
  6
Continuous
 62
     7
370
    15
100
AcDbSpline
210
0.0
220
0.0
230
1.0
 70
     8
 71
     3
 72
    24
 73
    20
 74
     0
 42
0.000000001
 43
0.00000001
 40
0.0
 40
0.0
 40
0.0
 40
0.0
 40
0.0452116620179242
 40
0.090297972462422
 40
0.1353071308702234
 40
0.1802875847771427
 40
0.2252878744066556
 40
0.2703564758681617
 40
0.3155416453865796
 40
0.3608912670465144
 40
0.4064527064042042
 40
0.4522726721077476
 40
0.4983970873839424
 40
0.583111077468355
 40
0.6669835141538943
 40
0.7503080981350146
 40
0.8333843407916259
 40
0.9165144377976991
 40
0.9999999999999999
 40
0.9999999999999999
 40
0.9999999999999999
 40
0.9999999999999999
 10
176.0876456790055
 20
82.24722166266704
 30
0.0
 10
176.155349420911
 20
82.23146262164892
 30
0.0
 10
176.2905691927423
 20
82.19998823233485
 30
0.0
 10
176.4832309095868
 20
82.15352742899474
 30
0.0
 10
176.6679677812403
 20
82.10789644936182
 30
0.0
 10
176.844085722535
 20
82.06327115192813
 30
0.0
 10
177.0117695151483
 20
82.0197838653291
 30
0.0
 10
177.1709689994404
 20
81.97758281753121
 30
0.0
 10
177.3216971379205
 20
81.93681622521949
 30
0.0
 10
177.463950091359
 20
81.8976364726119
 30
0.0
 10
177.5977288464325
 20
81.86019918081026
 30
0.0
 10
177.7230327573842
 20
81.8246625968376
 30
0.0
 10
177.8721399655715
 20
81.78194377672446
 30
0.0
 10
178.0329980256404
 20
81.73540805564787
 30
0.0
 10
178.1890107873647
 20
81.68972206450958
 30
0.0
 10
178.3106655812477
 20
81.65368208779743
 30
0.0
 10
178.397112850908
 20
81.62780832906196
 30
0.0
 10
178.4514498963516
 20
81.61139651609398
 30
0.0
 10
178.4584962701558
 20
81.6093467559484
 30
0.0
 10
178.4620269735803
 20
81.60831968935126
 30
0.0
  0
LINE
  5
A5
330
1F
100
AcDbEntity
  8
0
  6
Continuous
 62
     7
370
    15
100
AcDbLine
 10
181.4620269856
 20
82.6083196822
 30
0.0
 11
181.4620269856
 21
143.608319682
 31
0.0
  0
LINE
  5
A6
330
1F
100
AcDbEntity
  8
0
  6
Continuous
 62
     7
370
    15
100
AcDbLine
 10
156.4620269856
 20
83.9819141367
 30
0.0
 11
156.4620269856
 21
142.2347252277
 31
0.0
  0
SPLINE
  5
A7
330
1F
100
AcDbEntity
  8
0
  6
Continuous
 62
     7
370
    15
100
AcDbSpline
210
0.0
220
0.0
230
1.0
 70
     8
 71
     3
 72
    12
 73
     8
 74
     0
 42
0.000000001
 43
0.00000001
 40
0.0
 40
0.0
 40
0.0
 40
0.0
 40
0.2500000000000015
 40
0.2500000000000015
 40
0.500000000000003
 40
0.500000000000003
 40
1.0
 40
1.0
 40
1.0
 40
1.0
 10
156.8490598085534
 20
143.1753095820235
 30
0.0
 10
156.7971990573654
 20
143.1184970097091
 30
0.0
 10
156.7484672603464
 20
143.0565048234573
 30
0.0
 10
156.658294250429
 20
142.9204517503333
 30
0.0
 10
156.616517002144
 20
142.8455456477346
 30
0.0
 10
156.5104281322981
 20
142.6074190124372
 30
0.0
 10
156.4620269855879
 20
142.4240122808684
 30
0.0
 10
156.4620269855879
 20
142.2347252276865
 30
0.0
  0
SPLINE
  5
A8
330
1F
100
AcDbEntity
  8
0
  6
Continuous
 62
     7
370
    15
100
AcDbSpline
210
0.0
220
0.0
230
1.0
 70
     8
 71
     3
 72
     8
 73
     4
 74
     0
 42
0.000000001
 43
0.00000001
 40
0.0
 40
0.0
 40
0.0
 40
0.0
 40
1.0
 40
1.0
 40
1.0
 40
1.0
 10
157.4620269855879
 20
143.3447097852044
 30
0.0
 10
157.2356826719881
 20
143.3447097852044
 30
0.0
 10
157.0182305515829
 20
143.2813413161835
 30
0.0
 10
156.8490598085534
 20
143.1753095820235
 30
0.0
  0
SPLINE
  5
A9
330
1F
100
AcDbEntity
  8
0
  6
Continuous
 62
     7
370
    15
100
AcDbSpline
210
0.0
220
0.0
230
1.0
 70
     8
 71
     3
 72
     8
 73
     4
 74
     0
 42
0.000000001
 43
0.00000001
 40
0.0
 40
0.0
 40
0.0
 40
0.0
 40
1.0
 40
1.0
 40
1.0
 40
1.0
 10
156.8490598085534
 20
83.04132978238155
 30
0.0
 10
157.0186533142054
 20
82.93503307182435
 30
0.0
 10
157.2350220065386
 20
82.87192957920067
 30
0.0
 10
157.4620269855879
 20
82.87192957920067
 30
0.0
  0
SPLINE
  5
AA
330
1F
100
AcDbEntity
  8
0
  6
Continuous
 62
     7
370
    15
100
AcDbSpline
210
0.0
220
0.0
230
1.0
 70
     8
 71
     3
 72
    12
 73
     8
 74
     0
 42
0.000000001
 43
0.00000001
 40
0.0
 40
0.0
 40
0.0
 40
0.0
 40
0.2500000000000017
 40
0.2500000000000017
 40
0.5000000000000033
 40
0.5000000000000033
 40
1.0
 40
1.0
 40
1.0
 40
1.0
 10
156.8490598085534
 20
83.04132978238155
 30
0.0
 10
156.7971990573654
 20
83.09814235469594
 30
0.0
 10
156.7484672603464
 20
83.16013454094775
 30
0.0
 10
156.658294250429
 20
83.29618761407174
 30
0.0
 10
156.616517002144
 20
83.37109371667049
 30
0.0
 10
156.5104281322981
 20
83.60922035196786
 30
0.0
 10
156.4620269855879
 20
83.79262708353666
 30
0.0
 10
156.4620269855879
 20
83.98191413671853
 30
0.0
  0
LINE
  5
AB
330
1F
100
AcDbEntity
  8
0
  6
Continuous
 62
     7
370
    15
100
AcDbLine
 10
166.0370269856
 20
143.3447097852
 30
0.0
 11
157.4620269856
 21
143.3447097852
 31
0.0
  0
LINE
  5
AC
330
1F
100
AcDbEntity
  8
0
  6
Continuous
 62
     7
370
    15
100
AcDbLine
 10
166.0370269856
 20
82.8719295792
 30
0.0
 11
166.0370269856
 21
143.3447097852
 31
0.0
  0
LINE
  5
AD
330
1F
100
AcDbEntity
  8
0
  6
Continuous
 62
     7
370
    15
100
AcDbLine
 10
157.4620269856
 20
82.8719295792
 30
0.0
 11
166.0370269856
 21
82.8719295792
 31
0.0
  0
SPLINE
  5
AE
330
1F
100
AcDbEntity
  8
0
  6
Continuous
 62
     7
370
    15
100
AcDbSpline
210
0.0
220
0.0
230
1.0
 70
     8
 71
     3
 72
     8
 73
     4
 74
     0
 42
0.000000001
 43
0.00000001
 40
0.0
 40
0.0
 40
0.0
 40
0.0
 40
0.0012389803509652
 40
0.0012389803509652
 40
0.0012389803509652
 40
0.0012389803509652
 10
166.5945885291216
 20
142.562342404989
 30
0.0
 10
166.4094685559888
 20
142.823392386368
 30
0.0
 10
166.2235901082299
 20
143.084173999487
 30
0.0
 10
166.0370269855879
 20
143.3447097852044
 30
0.0
  0
SPLINE
  5
AF
330
1F
100
AcDbEntity
  8
0
  6
Continuous
 62
     7
370
    15
100
AcDbSpline
210
0.0
220
0.0
230
1.0
 70
     8
 71
     3
 72
     8
 73
     4
 74
     0
 42
0.000000001
 43
0.00000001
 40
0.0
 40
0.0
 40
0.0
 40
0.0
 40
1.0
 40
1.0
 40
1.0
 40
1.0
 10
168.6928382238602
 20
138.7755653466675
 30
0.0
 10
167.9965448578186
 20
140.0395037147823
 30
0.0
 10
167.2967496926275
 20
141.3015591602906
 30
0.0
 10
166.5945885291216
 20
142.562342404989
 30
0.0
  0
SPLINE
  5
B0
330
1F
100
AcDbEntity
  8
0
  6
Continuous
 62
     7
370
    15
100
AcDbSpline
210
0.0
220
0.0
230
1.0
 70
     8
 71
     3
 72
     8
 73
     4
 74
     0
 42
0.000000001
 43
0.00000001
 40
0.0
 40
0.0
 40
0.0
 40
0.0
 40
1.0
 40
1.0
 40
1.0
 40
1.0
 10
168.6928382238602
 20
87.44107401773746
 30
0.0
 10
167.9965200832022
 20
86.17709067779067
 30
0.0
 10
167.2967228910918
 20
84.9150320799387
 30
0.0
 10
166.5945885291216
 20
83.654296959416
 30
0.0
  0
SPLINE
  5
B1
330
1F
100
AcDbEntity
  8
0
  6
Continuous
 62
     7
370
    15
100
AcDbSpline
210
0.0
220
0.0
230
1.0
 70
     8
 71
     3
 72
     8
 73
     4
 74
     0
 42
0.000000001
 43
0.00000001
 40
0.0
 40
0.0
 40
0.0
 40
0.0
 40
0.0012389803509652
 40
0.0012389803509652
 40
0.0012389803509652
 40
0.0012389803509652
 10
166.0370269855879
 20
82.87192957920067
 30
0.0
 10
166.2235901082299
 20
83.13246536491802
 30
0.0
 10
166.4094685559888
 20
83.39324697803701
 30
0.0
 10
166.5945885291216
 20
83.654296959416
 30
0.0
  0
SPLINE
  5
B2
330
1F
100
AcDbEntity
  8
0
  6
Continuous
 62
     7
370
    15
100
AcDbSpline
210
0.0
220
0.0
230
1.0
 70
     8
 71
     3
 72
    10
 73
     6
 74
     0
 42
0.000000001
 43
0.00000001
 40
0.0
 40
0.0
 40
0.0
 40
0.0
 40
0.5
 40
0.5
 40
1.0
 40
1.0
 40
1.0
 40
1.0
 10
169.3856585468877
 20
138.356042351782
 30
0.0
 10
169.2436412344408
 20
138.356042351782
 30
0.0
 10
169.1031941875785
 20
138.3965322039915
 30
0.0
 10
168.8616042683172
 20
138.5444680339307
 30
0.0
 10
168.7609268260639
 20
138.6519683099102
 30
0.0
 10
168.6928382238603
 20
138.7755653466673
 30
0.0
  0
SPLINE
  5
B3
330
1F
100
AcDbEntity
  8
0
  6
Continuous
 62
     7
370
    15
100
AcDbSpline
210
0.0
220
0.0
230
1.0
 70
     8
 71
     3
 72
    10
 73
     6
 74
     0
 42
0.000000001
 43
0.00000001
 40
0.0
 40
0.0
 40
0.0
 40
0.0
 40
0.5
 40
0.5
 40
1.0
 40
1.0
 40
1.0
 40
1.0
 10
169.3856585468877
 20
87.86059701262299
 30
0.0
 10
169.244801182377
 20
87.86059701262299
 30
0.0
 10
169.1019670509029
 20
87.81949310680429
 30
0.0
 10
168.8617053601296
 20
87.67209521350333
 30
0.0
 10
168.7609990910501
 20
87.5648022326637
 30
0.0
 10
168.6928382238602
 20
87.44107401773748
 30
0.0
  0
SPLINE
  5
B4
330
1F
100
AcDbEntity
  8
0
  6
Continuous
 62
     7
370
    15
100
AcDbSpline
210
0.0
220
0.0
230
1.0
 70
     8
 71
     3
 72
    12
 73
     8
 74
     0
 42
0.000000001
 43
0.00000001
 40
0.0
 40
0.0
 40
0.0
 40
0.0
 40
0.25
 40
0.25
 40
0.5
 40
0.5
 40
1.0
 40
1.0
 40
1.0
 40
1.0
 10
173.4312157473156
 20
139.0883385101864
 30
0.0
 10
173.3953115969791
 20
139.0183940760382
 30
0.0
 10
173.3527800448496
 20
138.9551427129804
 30
0.0
 10
173.2559857680096
 20
138.8400840580645
 30
0.0
 10
173.2008960897453
 20
138.7877555243525
 30
0.0
 10
173.0227628561913
 20
138.6539706212674
 30
0.0
 10
172.8853857641888
 20
138.5934228541092
 30
0.0
 10
172.7383954242888
 20
138.5742229057253
 30
0.0
  0
SPLINE
  5
B5
330
1F
100
AcDbEntity
  8
0
  6
Continuous
 62
     7
370
    15
100
AcDbSpline
210
0.0
220
0.0
230
1.0
 70
     8
 71
     3
 72
    12
 73
     8
 74
     0
 42
0.000000001
 43
0.00000001
 40
0.0
 40
0.0
 40
0.0
 40
0.0
 40
0.25
 40
0.25
 40
0.5
 40
0.5
 40
1.0
 40
1.0
 40
1.0
 40
1.0
 10
173.4312157473156
 20
87.12830085421862
 30
0.0
 10
173.3953115969791
 20
87.19824528836678
 30
0.0
 10
173.3527800448496
 20
87.26149665142462
 30
0.0
 10
173.2559857680096
 20
87.37655530634056
 30
0.0
 10
173.2008960897453
 20
87.42888384005253
 30
0.0
 10
173.0227628561913
 20
87.56266874313764
 30
0.0
 10
172.8853857641888
 20
87.62321651029578
 30
0.0
 10
172.7383954242888
 20
87.64241645867968
 30
0.0
  0
LINE
  5
B6
330
1F
100
AcDbEntity
  8
0
  6
Continuous
 62
     7
370
    15
100
AcDbLine
 10
169.4120269856
 20
87.8605970126
 30
0.0
 11
169.3856585469
 21
87.8605970126
 31
0.0
  0
LINE
  5
B7
330
1F
100
AcDbEntity
  8
0
  6
Continuous
 62
     7
370
    15
100
AcDbLine
 10
169.4120269856
 20
138.3560423518
 30
0.0
 11
169.3856585469
 21
138.3560423518
 31
0.0
  0
SPLINE
  5
B8
330
1F
100
AcDbEntity
  8
0
  6
Continuous
 62
     7
370
    15
100
AcDbSpline
210
0.0
220
0.0
230
1.0
 70
     8
 71
     3
 72
    10
 73
     6
 74
     0
 42
0.000000001
 43
0.00000001
 40
0.0
 40
0.0
 40
0.0
 40
0.0
 40
0.5000000000000001
 40
0.5000000000000001
 40
1.0
 40
1.0
 40
1.0
 40
1.0
 10
172.7383954242881
 20
138.5742229057283
 30
0.0
 10
172.2164806998921
 20
138.5060501552201
 30
0.0
 10
171.6776295197828
 20
138.4514268902622
 30
0.0
 10
170.5662668777507
 20
138.3763310373708
 30
0.0
 10
169.9894261005546
 20
138.356042351782
 30
0.0
 10
169.4120269855879
 20
138.356042351782
 30
0.0
  0
SPLINE
  5
B9
330
1F
100
AcDbEntity
  8
0
  6
Continuous
 62
     7
370
    15
100
AcDbSpline
210
0.0
220
0.0
230
1.0
 70
     8
 71
     3
 72
    10
 73
     6
 74
     0
 42
0.000000001
 43
0.00000001
 40
0.0
 40
0.0
 40
0.0
 40
0.0
 40
0.5000000000000001
 40
0.5000000000000001
 40
1.0
 40
1.0
 40
1.0
 40
1.0
 10
172.7383954242881
 20
87.64241645867673
 30
0.0
 10
172.2164806998921
 20
87.71058920918495
 30
0.0
 10
171.6776295197828
 20
87.76521247414287
 30
0.0
 10
170.5662668777507
 20
87.84030832703421
 30
0.0
 10
169.9894261005546
 20
87.860597012623
 30
0.0
 10
169.4120269855879
 20
87.860597012623
 30
0.0
  0
SPLINE
  5
BA
330
1F
100
AcDbEntity
  8
0
  6
Continuous
 62
     7
370
    15
100
AcDbSpline
210
0.0
220
0.0
230
1.0
 70
    24
 71
     3
 72
    16
 73
    12
 74
     0
 42
0.000000001
 43
0.00000001
 40
0.0
 40
0.0
 40
0.0
 40
0.0
 40
0.5
 40
0.5
 40
0.75
 40
0.75
 40
0.875
 40
0.875
 40
0.9375
 40
0.9375
 40
1.0
 40
1.0
 40
1.0
 40
1.0
 10
156.4620269855879
 20
135.6083196822025
 30
0.0
 10
156.4620269855879
 20
135.6083196822025
 30
0.0
 10
156.3812269611238
 20
135.6083196822025
 30
0.0
 10
156.2636550681289
 20
135.6083196822025
 30
0.0
 10
156.224713340165
 20
135.6083196822025
 30
0.0
 10
156.1821381259145
 20
135.6083196822025
 30
0.0
 10
156.1706038813035
 20
135.6083196822025
 30
0.0
 10
156.1588343411649
 20
135.6083196822025
 30
0.0
 10
156.1558270607339
 20
135.6083196822025
 30
0.0
 10
156.1517975263373
 20
135.6083196822025
 30
0.0
 10
156.1507757468796
 20
135.6083196822025
 30
0.0
 10
156.1507758512935
 20
135.6083196822025
 30
0.0
  0
SPLINE
  5
BB
330
1F
100
AcDbEntity
  8
0
  6
Continuous
 62
     7
370
    15
100
AcDbSpline
210
0.0
220
0.0
230
1.0
 70
    24
 71
     3
 72
     9
 73
     5
 74
     0
 42
0.000000001
 43
0.00000001
 40
0.0
 40
0.0
 40
0.0
 40
0.0
 40
0.7022321769713785
 40
1.0
 40
1.0
 40
1.0
 40
1.0
 10
156.1507767055957
 20
90.6083196822025
 30
0.0
 10
156.1696199191832
 20
90.6083196822025
 30
0.0
 10
156.1964532290277
 20
90.60831968220252
 30
0.0
 10
156.276363598577
 20
90.6083196822025
 30
0.0
 10
156.3001583353551
 20
90.6083196822025
 30
0.0
  0
LINE
  5
BC
330
1F
100
AcDbEntity
  8
0
  6
Continuous
 62
     7
370
    15
100
AcDbLine
 10
154.4620269856
 20
90.8833196822
 30
0.0
 11
154.4620269856
 21
135.3333196822
 31
0.0
  0
LINE
  5
BD
330
1F
100
AcDbEntity
  8
0
  6
Continuous
 62
     7
370
    15
100
AcDbLine
 10
208.4620269856
 20
113.1083196822
 30
0.0
 11
208.4620269856
 21
93.5083196822
 31
0.0
  0
LINE
  5
BE
330
1F
100
AcDbEntity
  8
0
  6
Continuous
 62
     7
370
    15
100
AcDbLine
 10
208.4620269856
 20
132.7083196822
 30
0.0
 11
208.4620269856
 21
113.1083196822
 31
0.0
  0
LINE
  5
BF
330
1F
100
AcDbEntity
  8
0
  6
Continuous
 62
     7
370
    15
100
AcDbLine
 10
208.0620269856
 20
113.1083196822
 30
0.0
 11
208.0620269856
 21
93.1083196822
 31
0.0
  0
LINE
  5
C0
330
1F
100
AcDbEntity
  8
0
  6
Continuous
 62
     7
370
    15
100
AcDbLine
 10
208.0620269856
 20
133.1083196822
 30
0.0
 11
208.0620269856
 21
113.1083196822
 31
0.0
  0
SPLINE
  5
C1
330
1F
100
AcDbEntity
  8
0
  6
Continuous
 62
     7
370
    15
100
AcDbSpline
210
0.0
220
0.0
230
1.0
 70
     8
 71
     3
 72
    27
 73
    23
 74
     0
 42
0.000000001
 43
0.00000001
 40
0.0
 40
0.0
 40
0.0
 40
0.0
 40
0.0094755149790923
 40
0.0552335167809371
 40
0.0970789766715539
 40
0.1400015331534214
 40
0.1846774098274238
 40
0.2303702970998518
 40
0.28101162108765
 40
0.3328204291960578
 40
0.3896727860213696
 40
0.4479914059491984
 40
0.5082002424342789
 40
0.5701177672070006
 40
0.6309363065051162
 40
0.6935646321281037
 40
0.753418765169139
 40
0.8153072813720542
 40
0.8701820454296487
 40
0.9272353594654759
 40
0.9739917504996861
 40
1.0
 40
1.0
 40
1.0
 40
1.0
 10
202.6501735414193
 20
133.1055044400701
 30
0.0
 10
202.6538303994321
 20
133.1063728799871
 30
0.0
 10
202.6751465103624
 20
133.1114350840819
 30
0.0
 10
202.5731330726068
 20
133.0871166547053
 30
0.0
 10
202.3489314550706
 20
133.0350054017695
 30
0.0
 10
202.000163147174
 20
132.9572621064781
 30
0.0
 10
201.5367561212956
 20
132.860605766136
 30
0.0
 10
200.946322541191
 20
132.7484560513795
 30
0.0
 10
200.2341226257578
 20
132.6301268747447
 30
0.0
 10
199.385159137163
 20
132.5141605420567
 30
0.0
 10
198.4254197239854
 20
132.4167230076764
 30
0.0
 10
197.3663196698392
 20
132.3523107923136
 30
0.0
 10
196.2508980854282
 20
132.3337129452886
 30
0.0
 10
195.1240718619192
 20
132.3669995820334
 30
0.0
 10
194.0190983895265
 20
132.4496003389146
 30
0.0
 10
192.9940232196703
 20
132.5698850735905
 30
0.0
 10
192.0637406067188
 20
132.7140773721231
 30
0.0
 10
191.301795688979
 20
132.8566247546692
 30
0.0
 10
190.7076774220817
 20
132.9821540938843
 30
0.0
 10
190.3440786726727
 20
133.0651406130166
 30
0.0
 10
190.1699015798728
 20
133.1064379945368
 30
0.0
 10
190.1795659233064
 20
133.1041475635765
 30
0.0
 10
190.1830202474594
 20
133.1033288953409
 30
0.0
  0
SPLINE
  5
C2
330
1F
100
AcDbEntity
  8
0
  6
Continuous
 62
     7
370
    15
100
AcDbSpline
210
0.0
220
0.0
230
1.0
 70
    11
 71
     3
 72
    88
 73
    84
 74
     0
 42
0.000000001
 43
0.00000001
 40
0.0
 40
0.0
 40
0.0
 40
0.0
 40
0.0312499999999999
 40
0.0312499999999999
 40
0.0624999999999999
 40
0.0624999999999999
 40
0.0937499999999998
 40
0.0937499999999998
 40
0.1093749999999998
 40
0.1093749999999998
 40
0.1249999999999998
 40
0.1249999999999998
 40
0.1562500000000003
 40
0.1562500000000003
 40
0.1718750000000002
 40
0.1718750000000002
 40
0.1875000000000002
 40
0.1875000000000002
 40
0.2187500000000001
 40
0.2187500000000001
 40
0.2343750000000001
 40
0.2343750000000001
 40
0.2500000000000001
 40
0.2500000000000001
 40
0.2812500000000005
 40
0.2812500000000005
 40
0.2968750000000008
 40
0.2968750000000008
 40
0.3125000000000012
 40
0.3125000000000012
 40
0.3437500000000017
 40
0.3437500000000017
 40
0.3593750000000019
 40
0.3593750000000019
 40
0.3750000000000022
 40
0.3750000000000022
 40
0.3906250000000024
 40
0.3906250000000024
 40
0.4062500000000027
 40
0.4062500000000027
 40
0.4375000000000032
 40
0.4375000000000032
 40
0.4531250000000033
 40
0.4531250000000033
 40
0.4687500000000033
 40
0.4687500000000033
 40
0.5000000000000031
 40
0.5000000000000031
 40
0.5312500000000029
 40
0.5312500000000029
 40
0.5625000000000027
 40
0.5625000000000027
 40
0.5937500000000023
 40
0.5937500000000023
 40
0.6250000000000021
 40
0.6250000000000021
 40
0.6562500000000018
 40
0.6562500000000018
 40
0.6875000000000016
 40
0.6875000000000016
 40
0.7187500000000012
 40
0.7187500000000012
 40
0.7500000000000009
 40
0.7500000000000009
 40
0.7812500000000008
 40
0.7812500000000008
 40
0.8125000000000006
 40
0.8125000000000006
 40
0.8281250000000007
 40
0.8281250000000007
 40
0.8437500000000008
 40
0.8437500000000008
 40
0.8750000000000007
 40
0.8750000000000007
 40
0.8906250000000007
 40
0.8906250000000007
 40
0.9062500000000007
 40
0.9062500000000007
 40
0.9375000000000004
 40
0.9375000000000004
 40
0.9687500000000003
 40
0.9687500000000003
 40
1.0
 40
1.0
 40
1.0
 40
1.0
 10
192.2547808723952
 20
117.1933230445314
 30
0.0
 10
192.5582557802229
 20
117.431315748966
 30
0.0
 10
192.8793211935991
 20
117.6372582700849
 30
0.0
 10
193.5537135386479
 20
117.9915145261953
 30
0.0
 10
193.9090906557637
 20
118.1403940458373
 30
0.0
 10
194.6441813045385
 20
118.376929632258
 30
0.0
 10
195.0177074817227
 20
118.4629799415816
 30
0.0
 10
195.5866411169084
 20
118.5459924725383
 30
0.0
 10
195.7777354292701
 20
118.565933791051
 30
0.0
 10
196.1628731375125
 20
118.5901336705799
 30
0.0
 10
196.3577513012508
 20
118.5943328022625
 30
0.0
 10
196.9371370692345
 20
118.5829139066882
 30
0.0
 10
197.3184183950376
 20
118.543883104529
 30
0.0
 10
197.883029932641
 20
118.4389446385847
 30
0.0
 10
198.0700084665693
 20
118.396185759224
 30
0.0
 10
198.4414531259862
 20
118.2946311789934
 30
0.0
 10
198.6266032783865
 20
118.2355232399871
 30
0.0
 10
199.1680113824771
 20
118.0368098942364
 30
0.0
 10
199.5131416441615
 20
117.8755131627725
 30
0.0
 10
200.0070172995327
 20
117.589374723734
 30
0.0
 10
200.1676467545936
 20
117.4865804352296
 30
0.0
 10
200.4805404729633
 20
117.2653151004994
 30
0.0
 10
200.6332891508491
 20
117.1463143014261
 30
0.0
 10
201.0684830867962
 20
116.7725017068673
 30
0.0
 10
201.3313124716433
 20
116.4991385648776
 30
0.0
 10
201.6824821438347
 20
116.0502824391538
 30
0.0
 10
201.7923063571761
 20
115.8941477943059
 30
0.0
 10
201.9963391490827
 20
115.5676979234694
 30
0.0
 10
202.0902155704285
 20
115.3975406538235
 30
0.0
 10
202.339233745899
 20
114.8795774033231
 30
0.0
 10
202.4651912090619
 20
114.5197846364689
 30
0.0
 10
202.5898919972532
 20
113.9566647510758
 30
0.0
 10
202.620768524048
 20
113.7634440013019
 30
0.0
 10
202.6583549962826
 20
113.3775003853206
 30
0.0
 10
202.665280636594
 20
113.18502253339
 30
0.0
 10
202.6559816156439
 20
112.8010308554083
 30
0.0
 10
202.6397559155255
 20
112.6095170718607
 30
0.0
 10
202.583978969058
 20
112.2274597561488
 30
0.0
 10
202.5440150405372
 20
112.0357363398923
 30
0.0
 10
202.3920109655625
 20
111.4758416047444
 30
0.0
 10
202.248407847441
 20
111.1198372584616
 30
0.0
 10
201.973676372745
 20
110.6098139184883
 30
0.0
 10
201.8722248128448
 20
110.4443149742768
 30
0.0
 10
201.6545618288326
 20
110.1281700372126
 30
0.0
 10
201.5378576483233
 20
109.9765679398645
 30
0.0
 10
201.1652132282179
 20
109.5401258340269
 30
0.0
 10
200.8840343404615
 20
109.2716310729278
 30
0.0
 10
200.2828899958051
 20
108.7973239074967
 30
0.0
 10
199.9620988606846
 20
108.5895998950993
 30
0.0
 10
199.2814491386517
 20
108.2299086535269
 30
0.0
 10
198.9239499180842
 20
108.0798962902178
 30
0.0
 10
198.194968762412
 20
107.8438326969155
 30
0.0
 10
197.8207726090435
 20
107.7563138179495
 30
0.0
 10
197.0524908622818
 20
107.6431291419219
 30
0.0
 10
196.6669022505329
 20
107.6189061951393
 30
0.0
 10
195.8994893277194
 20
107.6329387599393
 30
0.0
 10
195.5165744457851
 20
107.671028661918
 30
0.0
 10
194.7523983972531
 20
107.8124512894301
 30
0.0
 10
194.3818629031549
 20
107.913828370121
 30
0.0
 10
193.6643824299146
 20
108.1763780647207
 30
0.0
 10
193.3169254711013
 20
108.3377078237685
 30
0.0
 10
192.6480278502822
 20
108.7251185446573
 30
0.0
 10
192.3366308253449
 20
108.9453261202664
 30
0.0
 10
191.7600929000032
 20
109.4399625541496
 30
0.0
 10
191.4938030692593
 20
109.7156870009872
 30
0.0
 10
191.0184388750785
 20
110.3242040974267
 30
0.0
 10
190.8163664304416
 20
110.6475763156315
 30
0.0
 10
190.568587605692
 20
111.1627553397542
 30
0.0
 10
190.4952866645288
 20
111.3395387689494
 30
0.0
 10
190.3685883784668
 20
111.7039940216886
 30
0.0
 10
190.3151195618529
 20
111.8927077857452
 30
0.0
 10
190.1909064677616
 20
112.4587938028623
 30
0.0
 10
190.153816167031
 20
112.8408834376237
 30
0.0
 10
190.1683808736228
 20
113.4212511501324
 30
0.0
 10
190.1853242087787
 20
113.6170426963592
 30
0.0
 10
190.2421484430115
 20
114.0003271929584
 30
0.0
 10
190.2819223946804
 20
114.1889138046932
 30
0.0
 10
190.4340229639026
 20
114.7458822205685
 30
0.0
 10
190.5814129148985
 20
115.1094214642524
 30
0.0
 10
190.9480761981254
 20
115.7862204757823
 30
0.0
 10
191.1667750252089
 20
116.1015551968448
 30
0.0
 10
191.6709752435836
 20
116.6893290053002
 30
0.0
 10
191.9513059645675
 20
116.9553303400967
 30
0.0
 10
192.2547808723952
 20
117.1933230445314
 30
0.0
  0
CIRCLE
  5
C3
330
1F
100
AcDbEntity
  8
0
  6
Continuous
 62
     7
370
    15
100
AcDbCircle
 10
196.4120269856
 20
113.1083196822
 30
0.0
 40
4.5
  0
LINE
  5
C4
330
1F
100
AcDbEntity
  8
0
  6
Continuous
 62
     7
370
    15
100
AcDbLine
 10
89.0620269856
 20
101.2855640852
 30
0.0
 11
89.0620269856
 21
124.9310752777
 31
0.0
  0
CIRCLE
  5
C5
330
1F
100
AcDbEntity
  8
0
  6
HIDDEN
 62
     7
370
     0
100
AcDbCircle
 10
196.4120269856
 20
113.1083196822
 30
0.0
 40
5.000000000000005
  0
LINE
  5
C6
330
1F
100
AcDbEntity
  8
0
  6
HIDDEN
 62
     7
370
     0
100
AcDbLine
 10
191.8430438276
 20
130.6583196822
 30
0.0
 11
201.4120269856
 21
130.6583196822
 31
0.0
  0
LINE
  5
C7
330
1F
100
AcDbEntity
  8
0
  6
HIDDEN
 62
     7
370
     0
100
AcDbLine
 10
191.4120269856
 20
130.6583196822
 30
0.0
 11
191.8430438276
 21
130.6583196822
 31
0.0
  0
LINE
  5
C8
330
1F
100
AcDbEntity
  8
0
  6
HIDDEN
 62
     7
370
     0
100
AcDbLine
 10
191.8430438276
 20
124.135818757
 30
0.0
 11
201.4120269856
 21
124.135818757
 31
0.0
  0
LINE
  5
C9
330
1F
100
AcDbEntity
  8
0
  6
HIDDEN
 62
     7
370
     0
100
AcDbLine
 10
191.4120269856
 20
124.135818757
 30
0.0
 11
191.8430438276
 21
124.135818757
 31
0.0
  0
SPLINE
  5
CA
330
1F
100
AcDbEntity
  8
0
  6
HIDDEN
 62
     7
370
     0
100
AcDbSpline
210
0.0
220
0.0
230
1.0
 70
     8
 71
     3
 72
    11
 73
     7
 74
     0
 42
0.000000001
 43
0.00000001
 40
0.0
 40
0.0
 40
0.0
 40
0.0
 40
0.2164543009645051
 40
0.4403089937225367
 40
0.7518987489759481
 40
1.0
 40
1.0
 40
1.0
 40
1.0
 10
194.7137942303993
 20
131.2450710281506
 30
0.0
 10
194.910442417098
 20
131.1545229777545
 30
0.0
 10
195.3104620277817
 20
130.9703311147341
 30
0.0
 10
196.0527932971433
 20
130.8168052096357
 30
0.0
 10
196.8490806063885
 20
130.9093665361463
 30
0.0
 10
197.3586579111109
 20
131.1419644389406
 30
0.0
 10
197.5845446332077
 20
131.2450710281506
 30
0.0
  0
SPLINE
  5
CB
330
1F
100
AcDbEntity
  8
0
  6
HIDDEN
 62
     7
370
     0
100
AcDbSpline
210
0.0
220
0.0
230
1.0
 70
     8
 71
     3
 72
    11
 73
     7
 74
     0
 42
0.000000001
 43
0.00000001
 40
0.0
 40
0.0
 40
0.0
 40
0.0
 40
0.2164543009645044
 40
0.4403089937225375
 40
0.7518987489759481
 40
1.0
 40
1.0
 40
1.0
 40
1.0
 10
197.5845446332077
 20
131.2450710281506
 30
0.0
 10
197.7008746323513
 20
131.1545229777545
 30
0.0
 10
197.9375118561644
 20
130.9703311147341
 30
0.0
 10
198.3766483535754
 20
130.8168052096358
 30
0.0
 10
198.8477033048447
 20
130.9093665361463
 30
0.0
 10
199.1491509226291
 20
131.1419644389406
 30
0.0
 10
199.2827773883963
 20
131.2450710281506
 30
0.0
  0
SPLINE
  5
CC
330
1F
100
AcDbEntity
  8
0
  6
HIDDEN
 62
     7
370
     0
100
AcDbSpline
210
0.0
220
0.0
230
1.0
 70
     8
 71
     3
 72
    11
 73
     7
 74
     0
 42
0.000000001
 43
0.00000001
 40
0.0
 40
0.0
 40
0.0
 40
0.0
 40
0.1849308168246137
 40
0.5198464202157763
 40
0.8714438233692643
 40
0.9999999999999999
 40
0.9999999999999999
 40
0.9999999999999999
 40
0.9999999999999999
 10
199.2827773883963
 20
131.2450710281506
 30
0.0
 10
199.2145311322384
 20
131.1670662926368
 30
0.0
 10
199.0226887310313
 20
130.9477924949378
 30
0.0
 10
198.6645782538471
 20
130.7857881639176
 30
0.0
 10
198.3338485760994
 20
130.9841722105562
 30
0.0
 10
198.1574804818662
 20
131.1899706225403
 30
0.0
 10
198.1102597407766
 20
131.2450710281507
 30
0.0
  0
SPLINE
  5
CD
330
1F
100
AcDbEntity
  8
0
  6
HIDDEN
 62
     7
370
     0
100
AcDbSpline
210
0.0
220
0.0
230
1.0
 70
     8
 71
     3
 72
    11
 73
     7
 74
     0
 42
0.000000001
 43
0.00000001
 40
0.0
 40
0.0
 40
0.0
 40
0.0
 40
0.2164543009645049
 40
0.4403089937225367
 40
0.7518987489759482
 40
1.0
 40
1.0
 40
1.0
 40
1.0
 10
198.1102597407766
 20
131.2450710281507
 30
0.0
 10
197.9136115540779
 20
131.1545229777546
 30
0.0
 10
197.5135919433941
 20
130.9703311147341
 30
0.0
 10
196.7712606740326
 20
130.8168052096358
 30
0.0
 10
195.9749733647874
 20
130.9093665361464
 30
0.0
 10
195.465396060065
 20
131.1419644389406
 30
0.0
 10
195.2395093379681
 20
131.2450710281507
 30
0.0
  0
SPLINE
  5
CE
330
1F
100
AcDbEntity
  8
0
  6
HIDDEN
 62
     7
370
     0
100
AcDbSpline
210
0.0
220
0.0
230
1.0
 70
     8
 71
     3
 72
    11
 73
     7
 74
     0
 42
0.000000001
 43
0.00000001
 40
0.0
 40
0.0
 40
0.0
 40
0.0
 40
0.2164543009645042
 40
0.440308993722536
 40
0.7518987489759463
 40
1.0
 40
1.0
 40
1.0
 40
1.0
 10
195.2395093379681
 20
131.2450710281507
 30
0.0
 10
195.1231793388246
 20
131.1545229777546
 30
0.0
 10
194.8865421150115
 20
130.9703311147341
 30
0.0
 10
194.4474056176005
 20
130.8168052096358
 30
0.0
 10
193.9763506663312
 20
130.9093665361463
 30
0.0
 10
193.6749030485467
 20
131.1419644389406
 30
0.0
 10
193.5412765827795
 20
131.2450710281506
 30
0.0
  0
SPLINE
  5
CF
330
1F
100
AcDbEntity
  8
0
  6
HIDDEN
 62
     7
370
     0
100
AcDbSpline
210
0.0
220
0.0
230
1.0
 70
     8
 71
     3
 72
    11
 73
     7
 74
     0
 42
0.000000001
 43
0.00000001
 40
0.0
 40
0.0
 40
0.0
 40
0.0
 40
0.1285561766307357
 40
0.4801535797842237
 40
0.8150691831753875
 40
1.0
 40
1.0
 40
1.0
 40
1.0
 10
193.5412765827795
 20
131.2450710281506
 30
0.0
 10
193.5884973238692
 20
131.1899706225403
 30
0.0
 10
193.7648654181023
 20
130.9841722105562
 30
0.0
 10
194.0955950958502
 20
130.7857881639176
 30
0.0
 10
194.4537055730343
 20
130.9477924949377
 30
0.0
 10
194.6455479742414
 20
131.1670662926368
 30
0.0
 10
194.7137942303993
 20
131.2450710281506
 30
0.0
  0
LINE
  5
D0
330
1F
100
AcDbEntity
  8
0
  6
HIDDEN
 62
     7
370
     0
100
AcDbLine
 10
193.8353015043
 20
116.8583196822
 30
0.0
 11
199.2318288892
 21
116.8583196822
 31
0.0
  0
LINE
  5
D1
330
1F
100
AcDbEntity
  8
0
  6
HIDDEN
 62
     7
370
     0
100
AcDbLine
 10
193.592225082
 20
116.8583196822
 30
0.0
 11
193.8353015043
 21
116.8583196822
 31
0.0
  0
LINE
  5
D2
330
1F
100
AcDbEntity
  8
0
  6
HIDDEN
 62
     7
370
     0
100
AcDbLine
 10
194.1275354066
 20
123.3583196822
 30
0.0
 11
198.9120269856
 21
123.3583196822
 31
0.0
  0
LINE
  5
D3
330
1F
100
AcDbEntity
  8
0
  6
HIDDEN
 62
     7
370
     0
100
AcDbLine
 10
193.9120269856
 20
123.3583196822
 30
0.0
 11
194.1275354066
 21
123.3583196822
 31
0.0
  0
LINE
  5
D4
330
1F
100
AcDbEntity
  8
0
  6
HIDDEN
 62
     7
370
     0
100
AcDbLine
 10
197.5845446332
 20
124.3583196822
 30
0.0
 11
196.1491694318
 21
124.3583196822
 31
0.0
  0
LINE
  5
D5
330
1F
100
AcDbEntity
  8
0
  6
HIDDEN
 62
     7
370
     0
100
AcDbLine
 10
196.1491694318
 20
124.3583196822
 30
0.0
 11
194.7137942304
 21
124.3583196822
 31
0.0
  0
LINE
  5
D6
330
1F
100
AcDbEntity
  8
0
  6
HIDDEN
 62
     7
370
     0
100
AcDbLine
 10
198.4336610108
 20
124.3583196822
 30
0.0
 11
197.5845446332
 21
124.3583196822
 31
0.0
  0
LINE
  5
D7
330
1F
100
AcDbEntity
  8
0
  6
HIDDEN
 62
     7
370
     0
100
AcDbLine
 10
197.5845446332
 20
124.3583196822
 30
0.0
 11
197.5845446332
 21
131.2450710282
 31
0.0
  0
LINE
  5
D8
330
1F
100
AcDbEntity
  8
0
  6
HIDDEN
 62
     7
370
     0
100
AcDbLine
 10
194.7137942304
 20
124.3583196822
 30
0.0
 11
194.1275354066
 21
124.3583196822
 31
0.0
  0
LINE
  5
D9
330
1F
100
AcDbEntity
  8
0
  6
HIDDEN
 62
     7
370
     0
100
AcDbLine
 10
194.7137942304
 20
124.3583196822
 30
0.0
 11
194.7137942304
 21
131.2450710282
 31
0.0
  0
LINE
  5
DA
330
1F
100
AcDbEntity
  8
0
  6
HIDDEN
 62
     7
370
     0
100
AcDbLine
 10
199.2827773884
 20
124.3583196822
 30
0.0
 11
198.4336610108
 21
124.3583196822
 31
0.0
  0
LINE
  5
DB
330
1F
100
AcDbEntity
  8
0
  6
HIDDEN
 62
     7
370
     0
100
AcDbLine
 10
194.1275354066
 20
124.3583196822
 30
0.0
 11
193.5412765828
 21
124.3583196822
 31
0.0
  0
LINE
  5
DC
330
1F
100
AcDbEntity
  8
0
  6
HIDDEN
 62
     7
370
     0
100
AcDbLine
 10
198.1102597408
 20
124.3583196822
 30
0.0
 11
198.1102597408
 21
131.2450710282
 31
0.0
  0
LINE
  5
DD
330
1F
100
AcDbEntity
  8
0
  6
HIDDEN
 62
     7
370
     0
100
AcDbLine
 10
199.2827773884
 20
124.3583196822
 30
0.0
 11
199.2827773884
 21
131.2450710282
 31
0.0
  0
LINE
  5
DE
330
1F
100
AcDbEntity
  8
0
  6
HIDDEN
 62
     7
370
     0
100
AcDbLine
 10
195.239509338
 20
124.3583196822
 30
0.0
 11
195.239509338
 21
131.2450710282
 31
0.0
  0
LINE
  5
DF
330
1F
100
AcDbEntity
  8
0
  6
HIDDEN
 62
     7
370
     0
100
AcDbLine
 10
193.5412765828
 20
124.3583196822
 30
0.0
 11
193.5412765828
 21
131.2450710282
 31
0.0
  0
SPLINE
  5
E0
330
1F
100
AcDbEntity
  8
0
  6
HIDDEN
 62
     7
370
     0
100
AcDbSpline
210
0.0
220
0.0
230
1.0
 70
     8
 71
     3
 72
    17
 73
    13
 74
     0
 42
0.000000001
 43
0.00000001
 40
0.0
 40
0.0
 40
0.0
 40
0.0
 40
0.0000761713053791
 40
0.0000969109855206
 40
0.2495239014974577
 40
0.5019879379082324
 40
0.5864061920992911
 40
0.6698668295412479
 40
0.752658828911184
 40
0.8350782033260896
 40
0.9174249854098089
 40
0.9999999999999999
 40
0.9999999999999999
 40
0.9999999999999999
 40
0.9999999999999999
 10
178.4620269735803
 20
81.60831968935126
 30
0.0
 10
178.4620271927483
 20
81.60831968639468
 30
0.0
 10
178.4620274715905
 20
81.60831968263308
 30
0.0
 10
178.4626411496302
 20
81.60831853472158
 30
0.0
 10
178.3585032731753
 20
81.64053521069026
 30
0.0
 10
177.9900161956548
 20
81.74889635832655
 30
0.0
 10
177.6234038345018
 20
81.85372703686237
 30
0.0
 10
177.3738722701593
 20
81.92341974156483
 30
0.0
 10
177.0960864852493
 20
81.9985614504942
 30
0.0
 10
176.7894267081875
 20
82.0782264440757
 30
0.0
 10
176.4562398756405
 20
82.16137562551788
 30
0.0
 10
176.2112424334733
 20
82.21868810774983
 30
0.0
 10
176.0885741884655
 20
82.24738400575693
 30
0.0
  0
LWPOLYLINE
  5
E1
330
1F
100
AcDbEntity
  8
0
  6
HIDDEN
 62
     7
370
     0
100
AcDbPolyline
 90
       24
 70
   128
 43
0.0
 10
156.7105979639
 20
104.1206075897
 10
156.8328971528
 20
103.5623804013
 10
157.0203973796
 20
103.0455543698
 10
157.2591926103
 20
102.6084601176
 10
157.531572495
 20
102.2835149258
 10
157.8173358638
 20
102.0948184927
 10
158.0952889548
 20
102.0563655695
 10
158.3448172589
 20
102.1710080338
 10
158.5474144032
 20
102.4302433782
 10
158.6880546845
 20
102.8148453033
 10
158.7563074563
 20
103.2962896438
 10
158.7471107228
 20
103.8388698752
 10
158.6611465638
 20
104.4023453041
 10
158.5047905476
 20
104.9449255356
 10
158.2896388847
 20
105.426369876
 10
158.0316483896
 20
105.8109718012
 10
157.7499530371
 20
106.0702071456
 10
157.4654448829
 20
106.1848496098
 10
157.1992245952
 20
106.1463966867
 10
156.9710365149
 20
105.9577002536
 10
156.797804308
 20
105.6327550618
 10
156.6923758148
 20
105.1956608095
 10
156.6625701843
 20
104.678834778
 10
156.7105979639
 20
104.1206075897
  0
LWPOLYLINE
  5
E2
330
1F
100
AcDbEntity
  8
0
  6
HIDDEN
 62
     7
370
     0
100
AcDbPolyline
 90
       21
 70
   128
 43
0.0
 10
157.0670332582
 20
104.1486167488
 10
157.1821852518
 20
103.6462495784
 10
157.3630864625
 20
103.1930576069
 10
157.5920290192
 20
102.8334024219
 10
157.8466024293
 20
102.6024895789
 10
158.1018872739
 20
102.5229224357
 10
158.3328944936
 20
102.6024895789
 10
158.5170114923
 20
102.8334024219
 10
158.6362156152
 20
103.1930576069
 10
158.6788383323
 20
103.6462495784
 10
158.6407074352
 20
104.1486167488
 10
158.5255554415
 20
104.6509839192
 10
158.3446542309
 20
105.1041758908
 10
158.1157116742
 20
105.4638310757
 10
157.861138264
 20
105.6947439188
 10
157.6058534194
 20
105.7743110619
 10
157.3748461997
 20
105.6947439188
 10
157.1907292011
 20
105.4638310757
 10
157.0715250781
 20
105.1041758908
 10
157.028902361
 20
104.6509839192
 10
157.0670332582
 20
104.1486167488
  0
SPLINE
  5
E3
330
1F
100
AcDbEntity
  8
0
  6
HIDDEN
 62
     7
370
     0
100
AcDbSpline
210
0.0
220
0.0
230
1.0
 70
     8
 71
     3
 72
    12
 73
     8
 74
     0
 42
0.000000001
 43
0.00000001
 40
0.0
 40
0.0
 40
0.0
 40
0.0
 40
0.4999999999999987
 40
0.4999999999999987
 40
0.7499999999999993
 40
0.7499999999999993
 40
1.0
 40
1.0
 40
1.0
 40
1.0
 10
169.0531085982666
 20
106.3297503589962
 30
0.0
 10
169.1262089587419
 20
106.1350153912349
 30
0.0
 10
169.1621127080741
 20
105.927437216206
 30
0.0
 10
169.1621648261244
 20
105.6316755661345
 30
0.0
 10
169.1531280160341
 20
105.5339795735607
 30
0.0
 10
169.1170755429183
 20
105.350111664732
 30
0.0
 10
169.0901279018155
 20
105.262821958125
 30
0.0
 10
169.0531085982666
 20
105.1800228424051
 30
0.0
  0
SPLINE
  5
E4
330
1F
100
AcDbEntity
  8
0
  6
HIDDEN
 62
     7
370
     0
100
AcDbSpline
210
0.0
220
0.0
230
1.0
 70
     8
 71
     3
 72
    50
 73
    46
 74
     0
 42
0.000000001
 43
0.00000001
 40
0.0
 40
0.0
 40
0.0
 40
0.0
 40
0.0625000000000012
 40
0.0625000000000012
 40
0.1250000000000025
 40
0.1250000000000025
 40
0.1875000000000037
 40
0.1875000000000037
 40
0.250000000000005
 40
0.250000000000005
 40
0.2812500000000052
 40
0.2812500000000052
 40
0.3125000000000053
 40
0.3125000000000053
 40
0.3750000000000051
 40
0.3750000000000051
 40
0.4062500000000048
 40
0.4062500000000048
 40
0.4375000000000046
 40
0.4375000000000046
 40
0.4687500000000044
 40
0.4687500000000044
 40
0.5000000000000042
 40
0.5000000000000042
 40
0.5312500000000041
 40
0.5312500000000041
 40
0.5625000000000039
 40
0.5625000000000039
 40
0.5937500000000038
 40
0.5937500000000038
 40
0.6250000000000036
 40
0.6250000000000036
 40
0.6875000000000031
 40
0.6875000000000031
 40
0.7187500000000023
 40
0.7187500000000023
 40
0.7500000000000017
 40
0.7500000000000017
 40
0.8125000000000012
 40
0.8125000000000012
 40
0.8750000000000008
 40
0.8750000000000008
 40
0.9375000000000004
 40
0.9375000000000004
 40
1.0
 40
1.0
 40
1.0
 40
1.0
 10
169.0531085982666
 20
105.1800228424051
 30
0.0
 10
169.1082948936111
 20
105.0491979764668
 30
0.0
 10
169.1774515218921
 20
104.9632810495796
 30
0.0
 10
169.3249899701983
 20
104.8399835424733
 30
0.0
 10
169.4012748914214
 20
104.8059586923016
 30
0.0
 10
169.5460670185828
 20
104.7766062697022
 30
0.0
 10
169.6159220116623
 20
104.7816134601953
 30
0.0
 10
169.7245482853561
 20
104.8322359789945
 30
0.0
 10
169.7644515150581
 20
104.8780393819161
 30
0.0
 10
169.7621964915555
 20
104.9917507324412
 30
0.0
 10
169.750305064288
 20
105.0383274675338
 30
0.0
 10
169.7029707752397
 20
105.1462979550788
 30
0.0
 10
169.6673807484057
 20
105.2086490956814
 30
0.0
 10
169.5361769985396
 20
105.4193232975809
 30
0.0
 10
169.4219374026844
 20
105.586496809335
 30
0.0
 10
169.268600392857
 20
105.8612357967634
 30
0.0
 10
169.2191660315087
 20
105.9585315356306
 30
0.0
 10
169.1314006966385
 20
106.1577513472184
 30
0.0
 10
169.0929205725415
 20
106.2595833796061
 30
0.0
 10
169.0290849146082
 20
106.4685268861337
 30
0.0
 10
169.0039312396192
 20
106.5757252322039
 30
0.0
 10
168.9706188474246
 20
106.7860651987367
 30
0.0
 10
168.9620101934706
 20
106.8904392762823
 30
0.0
 10
168.9620438265678
 20
107.0976216864708
 30
0.0
 10
168.9707434337767
 20
107.1973142048336
 30
0.0
 10
169.0042283700102
 20
107.387196947672
 30
0.0
 10
169.0294423183905
 20
107.4786527284512
 30
0.0
 10
169.0934423513807
 20
107.6464954641499
 30
0.0
 10
169.1320095035319
 20
107.7230328695653
 30
0.0
 10
169.2199590648895
 20
107.8612759921755
 30
0.0
 10
169.2693950656452
 20
107.9226311381285
 30
0.0
 10
169.4226758567565
 20
108.0757737235694
 30
0.0
 10
169.5369893606822
 20
108.14057967508
 30
0.0
 10
169.6674359272049
 20
108.161432036726
 30
0.0
 10
169.7034608369973
 20
108.1554627815682
 30
0.0
 10
169.7505891300423
 20
108.1205097117334
 30
0.0
 10
169.7623258358011
 20
108.0910513413834
 30
0.0
 10
169.7642280646372
 20
107.980340400805
 30
0.0
 10
169.7241046711892
 20
107.877000496262
 30
0.0
 10
169.6158323937477
 20
107.6465706812556
 30
0.0
 10
169.546459917841
 20
107.5164581733418
 30
0.0
 10
169.4009543099285
 20
107.229772748023
 30
0.0
 10
169.3250550622173
 20
107.0747433244755
 30
0.0
 10
169.1786283391733
 20
106.7288178324002
 30
0.0
 10
169.1080977574381
 20
106.53876487467
 30
0.0
 10
169.0531085982666
 20
106.3297503589962
 30
0.0
  0
SPLINE
  5
E5
330
1F
100
AcDbEntity
  8
0
  6
HIDDEN
 62
     7
370
     0
100
AcDbSpline
210
0.0
220
0.0
230
1.0
 70
    11
 71
     3
 72
    62
 73
    58
 74
     0
 42
0.000000001
 43
0.00000001
 40
0.0
 40
0.0
 40
0.0
 40
0.0
 40
0.03125
 40
0.03125
 40
0.0624999999999999
 40
0.0624999999999999
 40
0.1249999999999999
 40
0.1249999999999999
 40
0.1562499999999998
 40
0.1562499999999998
 40
0.1874999999999998
 40
0.1874999999999998
 40
0.2187499999999997
 40
0.2187499999999997
 40
0.2499999999999997
 40
0.2499999999999997
 40
0.3124999999999996
 40
0.3124999999999996
 40
0.3749999999999996
 40
0.3749999999999996
 40
0.4062499999999995
 40
0.4062499999999995
 40
0.4374999999999994
 40
0.4374999999999994
 40
0.4687499999999994
 40
0.4687499999999994
 40
0.4999999999999994
 40
0.4999999999999994
 40
0.5312499999999994
 40
0.5312499999999994
 40
0.5624999999999993
 40
0.5624999999999993
 40
0.5937499999999993
 40
0.5937499999999993
 40
0.6249999999999993
 40
0.6249999999999993
 40
0.6562499999999992
 40
0.6562499999999992
 40
0.6874999999999992
 40
0.6874999999999992
 40
0.7499999999999992
 40
0.7499999999999992
 40
0.7812499999999993
 40
0.7812499999999993
 40
0.8124999999999994
 40
0.8124999999999994
 40
0.8437499999999996
 40
0.8437499999999996
 40
0.8749999999999996
 40
0.8749999999999996
 40
0.9062499999999997
 40
0.9062499999999997
 40
0.9374999999999998
 40
0.9374999999999998
 40
0.9687499999999998
 40
0.9687499999999998
 40
1.0
 40
1.0
 40
1.0
 40
1.0
 10
171.0620269855879
 20
110.2204209664717
 30
0.0
 10
171.2048510572776
 20
110.2204209664718
 30
0.0
 10
171.3442142918875
 20
110.2300314801213
 30
0.0
 10
171.6167743513377
 20
110.2677001554726
 30
0.0
 10
171.7509384713417
 20
110.2962666348864
 30
0.0
 10
172.1276328703382
 20
110.4076735992046
 30
0.0
 10
172.3531607502277
 20
110.5179961994572
 30
0.0
 10
172.636672456925
 20
110.7357415743053
 30
0.0
 10
172.7236157413826
 20
110.8184458215471
 30
0.0
 10
172.8750092472959
 20
110.9997285551134
 30
0.0
 10
172.9399100048766
 20
111.098255239177
 30
0.0
 10
173.0473965901668
 20
111.3135301818019
 30
0.0
 10
173.0900575101223
 20
111.4318296298412
 30
0.0
 10
173.1466430897935
 20
111.6766593406407
 30
0.0
 10
173.1614244038834
 20
111.8042144435336
 30
0.0
 10
173.1631785692342
 20
112.2035202386492
 30
0.0
 10
173.1054110210781
 20
112.4814648277699
 30
0.0
 10
172.8921249133252
 20
113.0024078244805
 30
0.0
 10
172.7373012044198
 20
113.2465904634874
 30
0.0
 10
172.4548367519127
 20
113.5597030908132
 30
0.0
 10
172.3507733237631
 20
113.6568431261924
 30
0.0
 10
172.1286246892692
 20
113.8288608013927
 30
0.0
 10
172.0111247316007
 20
113.9036638846503
 30
0.0
 10
171.7614502584721
 20
114.0289423393704
 30
0.0
 10
171.627388444515
 20
114.0797154051776
 30
0.0
 10
171.3540553323716
 20
114.1480754673937
 30
0.0
 10
171.2134687530464
 20
114.1663888746117
 30
0.0
 10
170.9281016661641
 20
114.1678269373576
 30
0.0
 10
170.7882298684714
 20
114.1510952908003
 30
0.0
 10
170.5136196196041
 20
114.0853098476974
 30
0.0
 10
170.3793730901644
 20
114.0359340545043
 30
0.0
 10
170.1272332560462
 20
113.9120984344364
 30
0.0
 10
170.006629738545
 20
113.8364470609802
 30
0.0
 10
169.7831408000861
 20
113.6654668985351
 30
0.0
 10
169.6799347160409
 20
113.5702999525066
 30
0.0
 10
169.4892628714638
 20
113.3613840953066
 30
0.0
 10
169.4024436103181
 20
113.2479154269423
 30
0.0
 10
169.2510671016128
 20
113.011028104782
 30
0.0
 10
169.1855661046085
 20
112.8866450109936
 30
0.0
 10
169.0220192881275
 20
112.4943745511461
 30
0.0
 10
168.9631246136359
 20
112.2206893823829
 30
0.0
 10
168.9615009437045
 20
111.8190922158371
 30
0.0
 10
168.9752892552583
 20
111.6904185574767
 30
0.0
 10
169.0304974039547
 20
111.4428262045003
 30
0.0
 10
169.0723281788421
 20
111.3241729431982
 30
0.0
 10
169.1790231656323
 20
111.1067051817768
 30
0.0
 10
169.2448773029775
 20
111.0054668442086
 30
0.0
 10
169.3968212455216
 20
110.8220660701554
 30
0.0
 10
169.4822019052589
 20
110.7402756260332
 30
0.0
 10
169.6718303388179
 20
110.5935512524339
 30
0.0
 10
169.7764151535926
 20
110.5287599698584
 30
0.0
 10
169.9981417007841
 20
110.4186483892076
 30
0.0
 10
170.1161231716354
 20
110.3725674512876
 30
0.0
 10
170.3690203839756
 20
110.2971935566283
 30
0.0
 10
170.5023093540611
 20
110.2686053047298
 30
0.0
 10
170.7759037558079
 20
110.2303641830202
 30
0.0
 10
170.9192029138982
 20
110.2204209664718
 30
0.0
 10
171.0620269855879
 20
110.2204209664718
 30
0.0
  0
LWPOLYLINE
  5
E6
330
1F
100
AcDbEntity
  8
0
  6
HIDDEN
 62
     7
370
     0
100
AcDbPolyline
 90
       22
 70
   128
 43
0.0
 10
169.0531085983
 20
105.1800228424
 10
169.2902441104
 20
104.6955793812
 10
169.6567513185
 20
104.2884842076
 10
170.1258686707
 20
103.9884625176
 10
170.6633422479
 20
103.8174212362
 10
171.2299269094
 20
103.7878494223
 10
171.784251887
 20
103.9019063449
 10
172.2858415879
 20
104.1512638179
 10
172.6980710332
 20
104.5177143059
 10
172.9908401338
 20
104.974500399
 10
173.1427715327
 20
105.4882685793
 10
173.1427715327
 20
106.0215046221
 10
172.9908401338
 20
106.5352728024
 10
172.6980710332
 20
106.9920588955
 10
172.2858415879
 20
107.3585093835
 10
171.784251887
 20
107.6078668565
 10
171.2299269094
 20
107.7219237791
 10
170.6633422479
 20
107.6923519652
 10
170.1258686707
 20
107.5213106838
 10
169.6567513185
 20
107.2212889938
 10
169.2902441104
 20
106.8141938202
 10
169.0531085983
 20
106.329750359
  0
SPLINE
  5
E7
330
1F
100
AcDbEntity
  8
0
  6
HIDDEN
 62
     7
370
     0
100
AcDbSpline
210
0.0
220
0.0
230
1.0
 70
     8
 71
     3
 72
     9
 73
     5
 74
     0
 42
0.000000001
 43
0.00000001
 40
0.0
 40
0.0
 40
0.0
 40
0.0
 40
0.2037706092141731
 40
1.0
 40
1.0
 40
1.0
 40
1.0
 10
192.1706410752973
 20
132.7017549051237
 30
0.0
 10
192.1982382425465
 20
132.6967089575061
 30
0.0
 10
192.3336707632401
 20
132.6719460751795
 30
0.0
 10
192.5015747538834
 20
132.6490478996932
 30
0.0
 10
192.6352648460638
 20
132.6308156993756
 30
0.0
  0
LINE
  5
E8
330
1F
100
AcDbEntity
  8
0
  6
HIDDEN
 62
     7
370
     0
100
AcDbLine
 10
179.9620269856
 20
113.1083196822
 30
0.0
 11
179.9620269856
 21
102.6083196822
 31
0.0
  0
LINE
  5
E9
330
1F
100
AcDbEntity
  8
0
  6
HIDDEN
 62
     7
370
     0
100
AcDbLine
 10
179.9620269856
 20
123.6083196822
 30
0.0
 11
179.9620269856
 21
113.1083196822
 31
0.0
  0
LINE
  5
EA
330
1F
100
AcDbEntity
  8
0
  6
HIDDEN
 62
     7
370
     0
100
AcDbLine
 10
183.8280523894
 20
113.1083196822
 30
0.0
 11
183.8280523894
 21
102.1083196822
 31
0.0
  0
LINE
  5
EB
330
1F
100
AcDbEntity
  8
0
  6
HIDDEN
 62
     7
370
     0
100
AcDbLine
 10
183.8280523894
 20
124.1083196822
 30
0.0
 11
183.8280523894
 21
113.1083196822
 31
0.0
  0
SPLINE
  5
EC
330
1F
100
AcDbEntity
  8
0
  6
HIDDEN
 62
     7
370
     0
100
AcDbSpline
210
0.0
220
0.0
230
1.0
 70
     8
 71
     3
 72
    13
 73
     9
 74
     0
 42
0.000000001
 43
0.00000001
 40
0.0
 40
0.0
 40
0.0
 40
0.0
 40
0.2021555734140137
 40
0.4038782797559887
 40
0.616554331652673
 40
0.7259226286153748
 40
0.8387876858523751
 40
1.0
 40
1.0
 40
1.0
 40
1.0
 10
196.4120269855879
 20
123.1457496321448
 30
0.0
 10
196.8939528990518
 20
123.1667749787736
 30
0.0
 10
197.8567727986596
 20
123.2087806513569
 30
0.0
 10
199.152047993172
 20
123.4951210340642
 30
0.0
 10
200.0149344126933
 20
123.7671889277008
 30
0.0
 10
200.5152377274606
 20
123.9505789874955
 30
0.0
 10
200.8434252087438
 20
124.0797448292045
 30
0.0
 10
200.8585798495055
 20
124.0863899625165
 30
0.0
 10
200.8674938094393
 20
124.0902986300348
 30
0.0
  0
LINE
  5
ED
330
1F
100
AcDbEntity
  8
0
  6
HIDDEN
 62
     7
370
     0
100
AcDbLine
 10
196.8458693842
 20
123.1762244653
 30
0.0
 11
195.8737336364
 21
123.1675263917
 31
0.0
  0
SPLINE
  5
EE
330
1F
100
AcDbEntity
  8
0
  6
HIDDEN
 62
     7
370
     0
100
AcDbSpline
210
0.0
220
0.0
230
1.0
 70
     8
 71
     3
 72
    17
 73
    13
 74
     0
 42
0.000000001
 43
0.00000001
 40
0.0
 40
0.0
 40
0.0
 40
0.0
 40
0.006531572834797
 40
0.0894135517450834
 40
0.1750503560972237
 40
0.3314909107166023
 40
0.4828162885814093
 40
0.640984352549449
 40
0.8094477072840607
 40
0.8918334761628683
 40
0.9770328867648767
 40
1.0
 40
1.0
 40
1.0
 40
1.0
 10
192.4215935372418
 20
123.9111282898655
 30
0.0
 10
192.4097152949985
 20
123.915094179833
 30
0.0
 10
192.2471088517534
 20
123.9693849788166
 30
0.0
 10
192.0964618396677
 20
124.0361981962264
 30
0.0
 10
191.8668031260826
 20
124.1252139817775
 30
0.0
 10
191.9317919083633
 20
124.1000280002359
 30
0.0
 10
192.4447320647353
 20
123.8949570184841
 30
0.0
 10
193.3651336564809
 20
123.5801344063724
 30
0.0
 10
194.4339646828065
 20
123.3192852991798
 30
0.0
 10
195.4200105575196
 20
123.1855347466737
 30
0.0
 10
196.0067048729605
 20
123.148429050391
 30
0.0
 10
196.3410377332095
 20
123.1462189129765
 30
0.0
 10
196.4120269855879
 20
123.1457496321449
 30
0.0
  0
LINE
  5
EF
330
1F
100
AcDbEntity
  8
0
  6
HIDDEN
 62
     7
370
     0
100
AcDbLine
 10
156.4620269856
 20
135.6083196822
 30
0.0
 11
156.7992852858
 21
135.6083196822
 31
0.0
  0
ELLIPSE
  5
F0
330
1F
100
AcDbEntity
  8
0
  6
HIDDEN
 62
     7
370
     0
100
AcDbEllipse
 10
156.7992852858
 20
137.2083196822
 30
0.0
 11
0.0
 21
1.600000000000023
 31
0.0
210
0.0
220
0.0
230
1.0
 40
0.4142135624
 41
3.141592653589793
 42
4.712388980384695
  0
ELLIPSE
  5
F1
330
1F
100
AcDbEntity
  8
0
  6
HIDDEN
 62
     7
370
     0
100
AcDbEllipse
 10
156.7992852858
 20
89.0083196822
 30
0.0
 11
0.0
 21
1.59999999999998
 31
0.0
210
0.0
220
0.0
230
1.0
 40
0.4142135624
 41
4.712388980384695
 42
6.283185307179586
  0
LINE
  5
F2
330
1F
100
AcDbEntity
  8
0
  6
HIDDEN
 62
     7
370
     0
100
AcDbLine
 10
156.7992852858
 20
90.6083196822
 30
0.0
 11
156.4620269856
 21
90.6083196822
 31
0.0
  0
LINE
  5
F3
330
1F
100
AcDbEntity
  8
0
  6
HIDDEN
 62
     7
370
     0
100
AcDbLine
 10
157.4620269856
 20
83.6542969594
 30
0.0
 11
156.8490598086
 21
83.0413297824
 31
0.0
  0
LINE
  5
F4
330
1F
100
AcDbEntity
  8
0
  6
HIDDEN
 62
     7
370
     0
100
AcDbLine
 10
156.8490598086
 20
143.175309582
 30
0.0
 11
157.4620269856
 21
142.562342405
 31
0.0
  0
LINE
  5
F5
330
1F
100
AcDbEntity
  8
0
  6
HIDDEN
 62
     7
370
     0
100
AcDbLine
 10
96.0620269856
 20
104.6083196822
 30
0.0
 11
96.0620269856
 21
121.6083196822
 31
0.0
  0
LINE
  5
F6
330
1F
100
AcDbEntity
  8
0
  6
HIDDEN
 62
     7
370
     0
100
AcDbLine
 10
99.0579561999
 20
106.1083196822
 30
0.0
 11
99.0579561999
 21
120.1083196822
 31
0.0
  0
LINE
  5
F7
330
1F
100
AcDbEntity
  8
0
  6
HIDDEN
 62
     7
370
     0
100
AcDbLine
 10
157.4620269856
 20
142.562342405
 30
0.0
 11
166.5945885291
 21
142.562342405
 31
0.0
  0
LINE
  5
F8
330
1F
100
AcDbEntity
  8
0
  6
HIDDEN
 62
     7
370
     0
100
AcDbLine
 10
157.4620269856
 20
142.562342405
 30
0.0
 11
157.4620269856
 21
137.2083196822
 31
0.0
  0
LINE
  5
F9
330
1F
100
AcDbEntity
  8
0
  6
HIDDEN
 62
     7
370
     0
100
AcDbLine
 10
166.5945885291
 20
83.6542969594
 30
0.0
 11
157.4620269856
 21
83.6542969594
 31
0.0
  0
LINE
  5
FA
330
1F
100
AcDbEntity
  8
0
  6
HIDDEN
 62
     7
370
     0
100
AcDbLine
 10
157.4620269856
 20
83.6542969594
 30
0.0
 11
157.4620269856
 21
89.0083196822
 31
0.0
  0
LINE
  5
FB
330
1F
100
AcDbEntity
  8
0
  6
HIDDEN
 62
     7
370
     0
100
AcDbLine
 10
169.4120269856
 20
90.6083196822
 30
0.0
 11
156.7992852858
 21
90.6083196822
 31
0.0
  0
LINE
  5
FC
330
1F
100
AcDbEntity
  8
0
  6
HIDDEN
 62
     7
370
     0
100
AcDbLine
 10
156.7992852858
 20
135.6083196822
 30
0.0
 11
169.4120269856
 21
135.6083196822
 31
0.0
  0
LINE
  5
FD
330
1F
100
AcDbEntity
  8
0
  6
HIDDEN
 62
     7
370
     0
100
AcDbLine
 10
169.4120269856
 20
135.6083196822
 30
0.0
 11
175.8620269856
 21
135.6083196822
 31
0.0
  0
LINE
  5
FE
330
1F
100
AcDbEntity
  8
0
  6
HIDDEN
 62
     7
370
     0
100
AcDbLine
 10
175.8620269856
 20
90.6083196822
 30
0.0
 11
169.4120269856
 21
90.6083196822
 31
0.0
  0
SPLINE
  5
FF
330
1F
100
AcDbEntity
  8
0
  6
HIDDEN
 62
     7
370
     0
100
AcDbSpline
210
0.0
220
0.0
230
1.0
 70
     8
 71
     3
 72
    13
 73
     9
 74
     0
 42
0.000000001
 43
0.00000001
 40
0.0
 40
0.0
 40
0.0
 40
0.0
 40
0.1850454653090146
 40
0.3520092965804931
 40
0.5010298177385868
 40
0.6766227814541285
 40
0.8430962614767981
 40
1.0
 40
1.0
 40
1.0
 40
1.0
 10
175.4382906162004
 20
143.0131804579136
 30
0.0
 10
175.665080731814
 20
143.0720171294516
 30
0.0
 10
176.0965002693599
 20
143.1839412737512
 30
0.0
 10
176.5839557403149
 20
143.3242073453788
 30
0.0
 10
176.973064916862
 20
143.4435021046367
 30
0.0
 10
177.2539648372892
 20
143.5341699142643
 30
0.0
 10
177.4308496123573
 20
143.5960856746127
 30
0.0
 10
177.4517119921813
 20
143.6042749307701
 30
0.0
 10
177.461834490617
 20
143.6082483860203
 30
0.0
  0
LINE
  5
100
330
1F
100
AcDbEntity
  8
0
  6
HIDDEN
 62
     7
370
     0
100
AcDbLine
 10
176.188521159
 20
143.2128935371
 30
0.0
 11
175.4382685982
 21
143.0133678841
 31
0.0
  0
LINE
  5
101
330
1F
100
AcDbEntity
  8
0
  6
HIDDEN
 62
     7
370
     0
100
AcDbLine
 10
175.4382687518
 20
83.2032717888
 30
0.0
 11
175.5322114818
 21
83.1782881173
 31
0.0
  0
SPLINE
  5
102
330
1F
100
AcDbEntity
  8
0
  6
HIDDEN
 62
     7
370
     0
100
AcDbSpline
210
0.0
220
0.0
230
1.0
 70
     8
 71
     3
 72
    13
 73
     9
 74
     0
 42
0.000000001
 43
0.00000001
 40
0.0
 40
0.0
 40
0.0
 40
0.0
 40
0.0000730266254186
 40
0.1576811714101537
 40
0.3241446478190491
 40
0.4996852929262263
 40
0.729424405324985
 40
1.0
 40
1.0
 40
1.0
 40
1.0
 10
177.4620056785357
 20
82.60832798325436
 30
0.0
 10
177.4620127802435
 20
82.60832507311943
 30
0.0
 10
177.477346990154
 20
82.60204142683497
 30
0.0
 10
177.4178859180456
 20
82.6257531198848
 30
0.0
 10
177.2571355159462
 20
82.68122805043996
 30
0.0
 10
176.9224508796885
 20
82.78917511842944
 30
0.0
 10
176.3645766211567
 20
82.96044733611909
 30
0.0
 10
175.7634102156164
 20
83.1181777641003
 30
0.0
 10
175.4382929336778
 20
83.20348008231312
 30
0.0
  0
LINE
  5
103
330
1F
100
AcDbEntity
  8
0
  6
HIDDEN
 62
     7
370
     0
100
AcDbLine
 10
132.0620269856
 20
106.1083196822
 30
0.0
 11
132.0620269856
 21
120.1083196822
 31
0.0
  0
LINE
  5
104
330
1F
100
AcDbEntity
  8
0
  6
HIDDEN
 62
     7
370
     0
100
AcDbLine
 10
134.2251252141
 20
116.5083196822
 30
0.0
 11
134.2251252141
 21
109.7083196822
 31
0.0
  0
SPLINE
  5
105
330
1F
100
AcDbEntity
  8
0
  6
HIDDEN
 62
     7
370
     0
100
AcDbSpline
210
0.0
220
0.0
230
1.0
 70
     8
 71
     3
 72
     9
 73
     5
 74
     0
 42
0.000000001
 43
0.00000001
 40
0.0
 40
0.0
 40
0.0
 40
0.0
 40
0.4932377403388442
 40
1.0
 40
1.0
 40
1.0
 40
1.0
 10
175.4390865242854
 20
143.0131511933748
 30
0.0
 10
175.5449348654466
 20
143.170173254151
 30
0.0
 10
175.7595338965112
 20
143.4885229016624
 30
0.0
 10
175.9773935394731
 20
143.8083484504385
 30
0.0
 10
176.0877965844294
 20
143.9704239682337
 30
0.0
  0
SPLINE
  5
106
330
1F
100
AcDbEntity
  8
0
  6
HIDDEN
 62
     7
370
     0
100
AcDbSpline
210
0.0
220
0.0
230
1.0
 70
     8
 71
     3
 72
     9
 73
     5
 74
     0
 42
0.000000001
 43
0.00000001
 40
0.0
 40
0.0
 40
0.0
 40
0.0
 40
0.506764932008893
 40
1.0
 40
1.0
 40
1.0
 40
1.0
 10
176.0878002697154
 20
82.24622953172538
 30
0.0
 10
175.9773958299435
 20
82.40830626724383
 30
0.0
 10
175.7595345834399
 20
82.72813253240378
 30
0.0
 10
175.5449346217343
 20
83.04648161392872
 30
0.0
 10
175.4390863950315
 20
83.20350254479958
 30
0.0
  0
LINE
  5
107
330
1F
100
AcDbEntity
  8
0
  6
HIDDEN
 62
     7
370
     0
100
AcDbLine
 10
196.4120269856
 20
131.3583196822
 30
0.0
 11
200.9120269856
 21
131.3583196822
 31
0.0
  0
LINE
  5
108
330
1F
100
AcDbEntity
  8
0
  6
HIDDEN
 62
     7
370
     0
100
AcDbLine
 10
191.9120269856
 20
131.3583196822
 30
0.0
 11
196.4120269856
 21
131.3583196822
 31
0.0
  0
SPLINE
  5
109
330
1F
100
AcDbEntity
  8
0
  6
HIDDEN
 62
     7
370
     0
100
AcDbSpline
210
0.0
220
0.0
230
1.0
 70
    11
 71
     3
 72
    62
 73
    58
 74
     0
 42
0.000000001
 43
0.00000001
 40
0.0
 40
0.0
 40
0.0
 40
0.0
 40
0.03125
 40
0.03125
 40
0.0625
 40
0.0625
 40
0.1249999999999996
 40
0.1249999999999996
 40
0.1562499999999996
 40
0.1562499999999996
 40
0.1874999999999995
 40
0.1874999999999995
 40
0.2187499999999995
 40
0.2187499999999995
 40
0.2499999999999994
 40
0.2499999999999994
 40
0.3124999999999994
 40
0.3124999999999994
 40
0.3749999999999993
 40
0.3749999999999993
 40
0.4062499999999994
 40
0.4062499999999994
 40
0.4374999999999995
 40
0.4374999999999995
 40
0.4687499999999996
 40
0.4687499999999996
 40
0.4999999999999997
 40
0.4999999999999997
 40
0.5312499999999998
 40
0.5312499999999998
 40
0.5624999999999999
 40
0.5624999999999999
 40
0.59375
 40
0.59375
 40
0.625
 40
0.625
 40
0.6562500000000001
 40
0.6562500000000001
 40
0.6875000000000002
 40
0.6875000000000002
 40
0.7500000000000001
 40
0.7500000000000001
 40
0.7812500000000001
 40
0.7812500000000001
 40
0.8125000000000001
 40
0.8125000000000001
 40
0.8437500000000001
 40
0.8437500000000001
 40
0.875
 40
0.875
 40
0.90625
 40
0.90625
 40
0.9375
 40
0.9375
 40
0.96875
 40
0.96875
 40
1.0
 40
1.0
 40
1.0
 40
1.0
 10
171.0620269855879
 20
112.0495093906324
 30
0.0
 10
170.9192029138982
 20
112.0495093906324
 30
0.0
 10
170.7798396792883
 20
112.0669696012858
 30
0.0
 10
170.5072796198381
 20
112.1334651963725
 30
0.0
 10
170.3731154998341
 20
112.1832970129803
 30
0.0
 10
169.9964211008376
 20
112.3697849769836
 30
0.0
 10
169.7708932209481
 20
112.5459975641475
 30
0.0
 10
169.4873815142508
 20
112.8576641000308
 30
0.0
 10
169.4004382297932
 20
112.9714725936673
 30
0.0
 10
169.2490447238798
 20
113.2091760854231
 30
0.0
 10
169.1841439662992
 20
113.3331465207676
 30
0.0
 10
169.076657381009
 20
113.5914762119777
 30
0.0
 10
169.0339964610536
 20
113.7274350781615
 30
0.0
 10
168.9774108813823
 20
113.9958607135293
 30
0.0
 10
168.9626295672925
 20
114.1296968314264
 30
0.0
 10
168.9608754019416
 20
114.5297437495598
 30
0.0
 10
169.0186429500977
 20
114.7827250789088
 30
0.0
 10
169.2319290578506
 20
115.2180859032065
 30
0.0
 10
169.386752766756
 20
115.4020728151407
 30
0.0
 10
169.6692172192631
 20
115.6212815692038
 30
0.0
 10
169.7732806474127
 20
115.6860961058231
 30
0.0
 10
169.9954292819066
 20
115.7968647392279
 30
0.0
 10
170.1129292395751
 20
115.8428372104456
 30
0.0
 10
170.3626037127037
 20
115.917805478882
 30
0.0
 10
170.4966655266608
 20
115.9469604475132
 30
0.0
 10
170.7699986388042
 20
115.9857227849422
 30
0.0
 10
170.9105852181294
 20
115.9958067907296
 30
0.0
 10
171.1959523050118
 20
115.9966054922995
 30
0.0
 10
171.3358241027045
 20
115.9874023635839
 30
0.0
 10
171.6104343515717
 20
115.9501614075492
 30
0.0
 10
171.7446808810114
 20
115.921883455424
 30
0.0
 10
171.9968207151296
 20
115.8479780912537
 30
0.0
 10
172.1174242326308
 20
115.8016050180916
 30
0.0
 10
172.3409131710897
 20
115.6917809709339
 30
0.0
 10
172.4441192551349
 20
115.6284788363234
 30
0.0
 10
172.634791099712
 20
115.4826396536489
 30
0.0
 10
172.7216103608577
 20
115.4002181517972
 30
0.0
 10
172.8729868695631
 20
115.2196992446542
 30
0.0
 10
172.9384878665674
 20
115.1209714986591
 30
0.0
 10
173.1020346830483
 20
114.7941967489393
 30
0.0
 10
173.16092935754
 20
114.5459626161774
 30
0.0
 10
173.1625530274713
 20
114.1450514397569
 30
0.0
 10
173.1487647159175
 20
114.0105150194627
 30
0.0
 10
173.0935565672211
 20
113.7398813684988
 30
0.0
 10
173.0517257923337
 20
113.6038888991202
 30
0.0
 10
172.9450308055435
 20
113.3436148634754
 30
0.0
 10
172.8791766681983
 20
113.2165131744011
 30
0.0
 10
172.7272327256541
 20
112.9763973886521
 30
0.0
 10
172.6418520659169
 20
112.8639950747715
 30
0.0
 10
172.4522236323579
 20
112.6542929858939
 30
0.0
 10
172.3476388175833
 20
112.5570859774617
 30
0.0
 10
172.1259122703916
 20
112.3859689082473
 30
0.0
 10
172.0079307995404
 20
112.3109640128623
 30
0.0
 10
171.7550335872002
 20
112.184902051458
 30
0.0
 10
171.6217446171148
 20
112.1350486878449
 30
0.0
 10
171.3481502153679
 20
112.0675708029624
 30
0.0
 10
171.2048510572776
 20
112.0495093906324
 30
0.0
 10
171.0620269855879
 20
112.0495093906324
 30
0.0
  0
SPLINE
  5
10A
330
1F
100
AcDbEntity
  8
0
  6
HIDDEN
 62
     7
370
     0
100
AcDbSpline
210
0.0
220
0.0
230
1.0
 70
    11
 71
     3
 72
    56
 73
    52
 74
     0
 42
0.000000001
 43
0.00000001
 40
0.0
 40
0.0
 40
0.0
 40
0.0
 40
0.0312499999999996
 40
0.0312499999999996
 40
0.0624999999999993
 40
0.0624999999999993
 40
0.1249999999999988
 40
0.1249999999999988
 40
0.1562499999999991
 40
0.1562499999999991
 40
0.1874999999999994
 40
0.1874999999999994
 40
0.2187499999999997
 40
0.2187499999999997
 40
0.25
 40
0.25
 40
0.3124999999999998
 40
0.3124999999999998
 40
0.3437499999999999
 40
0.3437499999999999
 40
0.375
 40
0.375
 40
0.4375000000000002
 40
0.4375000000000002
 40
0.4687500000000003
 40
0.4687500000000003
 40
0.5000000000000004
 40
0.5000000000000004
 40
0.5312500000000007
 40
0.5312500000000007
 40
0.5625000000000008
 40
0.5625000000000008
 40
0.6250000000000012
 40
0.6250000000000012
 40
0.6875000000000018
 40
0.6875000000000018
 40
0.7500000000000022
 40
0.7500000000000022
 40
0.7812500000000021
 40
0.7812500000000021
 40
0.8125000000000019
 40
0.8125000000000019
 40
0.8437500000000017
 40
0.8437500000000017
 40
0.8750000000000012
 40
0.8750000000000012
 40
0.9062500000000009
 40
0.9062500000000009
 40
0.9375000000000006
 40
0.9375000000000006
 40
1.0
 40
1.0
 40
1.0
 40
1.0
 10
169.0214509847507
 20
118.7751997711788
 30
0.0
 10
169.0501225013477
 20
118.673385706306
 30
0.0
 10
169.0878924209315
 20
118.5809827886563
 30
0.0
 10
169.1781905577011
 20
118.4142047039607
 30
0.0
 10
169.2314662538744
 20
118.3393350148377
 30
0.0
 10
169.4003973306487
 20
118.1532143503228
 30
0.0
 10
169.5315840466329
 20
118.0751978527393
 30
0.0
 10
169.6768695666364
 20
118.0546233021847
 30
0.0
 10
169.7150104994381
 20
118.0641715221173
 30
0.0
 10
169.7597870326022
 20
118.1115277512974
 30
0.0
 10
169.7666817706422
 20
118.1496285135575
 30
0.0
 10
169.7554332250283
 20
118.2417489915216
 30
0.0
 10
169.7377723798236
 20
118.2968044336609
 30
0.0
 10
169.6890483740616
 20
118.4164111918403
 30
0.0
 10
169.6581093756702
 20
118.4810890609431
 30
0.0
 10
169.5544538403515
 20
118.6884504433666
 30
0.0
 10
169.4706485036893
 20
118.8452381985894
 30
0.0
 10
169.345198239237
 20
119.1043834612423
 30
0.0
 10
169.3031050591895
 20
119.1951358357921
 30
0.0
 10
169.2203640678766
 20
119.3881370578302
 30
0.0
 10
169.1795338344689
 20
119.4909180203586
 30
0.0
 10
169.0666840783088
 20
119.8131591335386
 30
0.0
 10
169.0019938949449
 20
120.0521056722497
 30
0.0
 10
168.9615242172069
 20
120.4208727772269
 30
0.0
 10
168.958482421017
 20
120.5406321878719
 30
0.0
 10
168.9742855775944
 20
120.7597304490811
 30
0.0
 10
168.9930286751392
 20
120.8580594574049
 30
0.0
 10
169.0443025785327
 20
121.0249345046115
 30
0.0
 10
169.076827124565
 20
121.0948091507076
 30
0.0
 10
169.1489802730069
 20
121.2114182110002
 30
0.0
 10
169.1880854497597
 20
121.2576388507733
 30
0.0
 10
169.3100831882061
 20
121.3704576682613
 30
0.0
 10
169.3976150009359
 20
121.410910957621
 30
0.0
 10
169.5597315538884
 20
121.4417690770434
 30
0.0
 10
169.637289211177
 20
121.432865891475
 30
0.0
 10
169.7484340342809
 20
121.3617898430369
 30
0.0
 10
169.7811670206229
 20
121.2995509243266
 30
0.0
 10
169.7375386383028
 20
121.1416496410537
 30
0.0
 10
169.7072233773067
 20
121.0783942381834
 30
0.0
 10
169.6223663936697
 20
120.9330801723237
 30
0.0
 10
169.5675173194066
 20
120.8497082565645
 30
0.0
 10
169.4526786339943
 20
120.671115099074
 30
0.0
 10
169.3912592048148
 20
120.5733683506565
 30
0.0
 10
169.2750512179278
 20
120.3683900515571
 30
0.0
 10
169.2195371529592
 20
120.2601081162436
 30
0.0
 10
169.1213331776139
 20
120.0347582121151
 30
0.0
 10
169.0794427593678
 20
119.9198522566541
 30
0.0
 10
169.0129360790631
 20
119.684584853621
 30
0.0
 10
168.9884925841358
 20
119.5635875191252
 30
0.0
 10
168.9480026583403
 20
119.2103860869488
 30
0.0
 10
168.9641079515567
 20
118.9788279009246
 30
0.0
 10
169.0214509847507
 20
118.7751997711788
 30
0.0
  0
SPLINE
  5
10B
330
1F
100
AcDbEntity
  8
0
  6
HIDDEN
 62
     7
370
     0
100
AcDbSpline
210
0.0
220
0.0
230
1.0
 70
     8
 71
     3
 72
    22
 73
    18
 74
     0
 42
0.000000001
 43
0.00000001
 40
0.0
 40
0.0
 40
0.0
 40
0.0
 40
0.1250000000000006
 40
0.1250000000000006
 40
0.2500000000000012
 40
0.2500000000000012
 40
0.3750000000000018
 40
0.3750000000000018
 40
0.5000000000000023
 40
0.5000000000000023
 40
0.6250000000000029
 40
0.6250000000000029
 40
0.7500000000000036
 40
0.7500000000000036
 40
0.8750000000000018
 40
0.8750000000000018
 40
1.0
 40
1.0
 40
1.0
 40
1.0
 10
172.7383954242881
 20
120.9729746578577
 30
0.0
 10
172.6401172007326
 20
120.8484459379255
 30
0.0
 10
172.5287944334254
 20
120.7368427984932
 30
0.0
 10
172.2809858250607
 20
120.5388589553049
 30
0.0
 10
172.1430342995106
 20
120.4522044331161
 30
0.0
 10
171.8547733379265
 20
120.3136808578931
 30
0.0
 10
171.7023298190143
 20
120.2602371066166
 30
0.0
 10
171.3854180807386
 20
120.1880569564714
 30
0.0
 10
171.2254295766302
 20
120.170138917078
 30
0.0
 10
170.9024594700083
 20
120.1698537755805
 30
0.0
 10
170.7388969863555
 20
120.1881520854488
 30
0.0
 10
170.4253987552156
 20
120.2592475076396
 30
0.0
 10
170.2718967889867
 20
120.3125580599036
 30
0.0
 10
169.9812940911125
 20
120.4519394979281
 30
0.0
 10
169.8464738476987
 20
120.5364933950359
 30
0.0
 10
169.5975257710694
 20
120.734684842942
 30
0.0
 10
169.4839365379003
 20
120.8484462325815
 30
0.0
 10
169.3856585468877
 20
120.9729746578578
 30
0.0
  0
SPLINE
  5
10C
330
1F
100
AcDbEntity
  8
0
  6
HIDDEN
 62
     7
370
     0
100
AcDbSpline
210
0.0
220
0.0
230
1.0
 70
     8
 71
     3
 72
    18
 73
    14
 74
     0
 42
0.000000001
 43
0.00000001
 40
0.0
 40
0.0
 40
0.0
 40
0.0
 40
0.2499999999999999
 40
0.2499999999999999
 40
0.3749999999999997
 40
0.3749999999999997
 40
0.4999999999999996
 40
0.4999999999999996
 40
0.6249999999999994
 40
0.6249999999999994
 40
0.7499999999999992
 40
0.7499999999999992
 40
1.0
 40
1.0
 40
1.0
 40
1.0
 10
172.7383954242881
 20
123.3500729824366
 30
0.0
 10
172.8769657730185
 20
123.1804929882008
 30
0.0
 10
172.981451192569
 20
123.0068817800589
 30
0.0
 10
173.0890074257069
 20
122.7238505176554
 30
0.0
 10
173.116017399679
 20
122.6271774825626
 30
0.0
 10
173.1525583617916
 20
122.4261090553911
 30
0.0
 10
173.1620341823038
 20
122.3203651583046
 30
0.0
 10
173.162019780493
 20
122.1061156660253
 30
0.0
 10
173.1527976674711
 20
121.998087667615
 30
0.0
 10
173.1165529214396
 20
121.7810947780835
 30
0.0
 10
173.0891786301609
 20
121.6712451603485
 30
0.0
 10
172.9819185082629
 20
121.3516613704326
 30
0.0
 10
172.8767279861236
 20
121.1482563858649
 30
0.0
 10
172.7383954242883
 20
120.9729746578575
 30
0.0
  0
SPLINE
  5
10D
330
1F
100
AcDbEntity
  8
0
  6
HIDDEN
 62
     7
370
     0
100
AcDbSpline
210
0.0
220
0.0
230
1.0
 70
     8
 71
     3
 72
    22
 73
    18
 74
     0
 42
0.000000001
 43
0.00000001
 40
0.0
 40
0.0
 40
0.0
 40
0.0
 40
0.1249999999999982
 40
0.1249999999999982
 40
0.2499999999999963
 40
0.2499999999999963
 40
0.3749999999999969
 40
0.3749999999999969
 40
0.4999999999999976
 40
0.4999999999999976
 40
0.6249999999999981
 40
0.6249999999999981
 40
0.7499999999999988
 40
0.7499999999999988
 40
0.8749999999999993
 40
0.8749999999999993
 40
1.0
 40
1.0
 40
1.0
 40
1.0
 10
169.3856585468877
 20
123.3500729824366
 30
0.0
 10
169.4839367704432
 20
123.4703441713073
 30
0.0
 10
169.5952595377503
 20
123.5774923797033
 30
0.0
 10
169.8430681461151
 20
123.7668704181239
 30
0.0
 10
169.9810196716652
 20
123.8493505716814
 30
0.0
 10
170.2692806332493
 20
123.9808854029928
 30
0.0
 10
170.4217241521615
 20
124.0314454087779
 30
0.0
 10
170.7386358904371
 20
124.0996720841777
 30
0.0
 10
170.8986243945456
 20
124.1165691558034
 30
0.0
 10
171.2215945011675
 20
124.1168382607859
 30
0.0
 10
171.3851569848203
 20
124.0995817314853
 30
0.0
 10
171.6986552159602
 20
124.0323812338392
 30
0.0
 10
171.8521571821891
 20
123.981950228207
 30
0.0
 10
172.1427598800634
 20
123.8496034530719
 30
0.0
 10
172.2775801234771
 20
123.7691269157373
 30
0.0
 10
172.5265282001064
 20
123.5795626325305
 30
0.0
 10
172.6401174332755
 20
123.4703438867253
 30
0.0
 10
172.7383954242881
 20
123.3500729824366
 30
0.0
  0
SPLINE
  5
10E
330
1F
100
AcDbEntity
  8
0
  6
HIDDEN
 62
     7
370
     0
100
AcDbSpline
210
0.0
220
0.0
230
1.0
 70
     8
 71
     3
 72
    18
 73
    14
 74
     0
 42
0.000000001
 43
0.00000001
 40
0.0
 40
0.0
 40
0.0
 40
0.0
 40
0.2500000000000013
 40
0.2500000000000013
 40
0.3750000000000007
 40
0.3750000000000007
 40
0.5000000000000001
 40
0.5000000000000001
 40
0.6249999999999996
 40
0.6249999999999996
 40
0.7499999999999989
 40
0.7499999999999989
 40
1.0
 40
1.0
 40
1.0
 40
1.0
 10
169.3856585468877
 20
120.9729746578578
 30
0.0
 10
169.2470881981573
 20
121.1485576865663
 30
0.0
 10
169.1426027786068
 20
121.3505507021972
 30
0.0
 10
169.0350465454688
 20
121.6705949929951
 30
0.0
 10
169.0080365714968
 20
121.7786542688403
 30
0.0
 10
168.9714956093842
 20
121.9959054979569
 30
0.0
 10
168.9620197888721
 20
122.1063684311449
 30
0.0
 10
168.9620341906828
 20
122.3206109965877
 30
0.0
 10
168.9712563037047
 20
122.4240422833791
 30
0.0
 10
169.0075010497362
 20
122.6249649206623
 30
0.0
 10
169.0348753410149
 20
122.7232701635215
 30
0.0
 10
169.1421354629129
 20
123.0059102565906
 30
0.0
 10
169.2473259850522
 20
123.1807839876872
 30
0.0
 10
169.3856585468875
 20
123.3500729824366
 30
0.0
  0
LWPOLYLINE
  5
10F
330
1F
100
AcDbEntity
  8
0
  6
HIDDEN
 62
     7
370
     0
100
AcDbPolyline
 90
       21
 70
   128
 43
0.0
 10
157.0670332582
 20
121.1357839101
 10
157.1821852518
 20
120.7698479617
 10
157.3630864625
 20
120.5309863933
 10
157.5920290192
 20
120.4425806395
 10
157.8466024293
 20
120.5132844715
 10
158.1018872739
 20
120.7361769055
 10
158.3328944936
 20
121.0894396771
 10
158.5170114923
 20
121.5384929649
 10
158.6362156152
 20
122.0393803044
 10
158.6788383323
 20
122.5430713529
 10
158.6407074352
 20
123.0002613211
 10
158.5255554415
 20
123.3661972695
 10
158.3446542309
 20
123.6050588379
 10
158.1157116742
 20
123.6934645917
 10
157.861138264
 20
123.6227607597
 10
157.6058534194
 20
123.3998683257
 10
157.3748461997
 20
123.0466055541
 10
157.1907292011
 20
122.5975522663
 10
157.0715250781
 20
122.0966649268
 10
157.028902361
 20
121.5929738783
 10
157.0670332582
 20
121.1357839101
  0
LWPOLYLINE
  5
110
330
1F
100
AcDbEntity
  8
0
  6
HIDDEN
 62
     7
370
     0
100
AcDbPolyline
 90
       24
 70
   128
 43
0.0
 10
156.7105979639
 20
120.9095461496
 10
156.8328971528
 20
120.4962181267
 10
157.0203973796
 20
120.2015409635
 10
157.2591926103
 20
120.047369517
 10
157.531572495
 20
120.0451379782
 10
157.8173358638
 20
120.19501185
 10
158.0952889548
 20
120.4858756731
 10
158.3448172589
 20
120.8961574082
 10
158.5474144032
 20
121.3954283361
 10
158.6880546845
 20
121.9466598159
 10
158.7563074563
 20
122.5089695306
 10
158.7471107228
 20
123.040653541
 10
158.6611465638
 20
123.5022792764
 10
158.5047905476
 20
123.8596100677
 10
158.2896388847
 20
124.0861443249
 10
158.0316483896
 20
124.1650810383
 10
157.7499530371
 20
124.0905658332
 10
157.4654448829
 20
123.8681251613
 10
157.1992245952
 20
123.5142564298
 10
156.9710365149
 20
123.0552044635
 10
156.797804308
 20
122.5250150468
 10
156.6923758148
 20
121.9630099033
 10
156.6625701843
 20
121.4108703834
 10
156.7105979639
 20
120.9095461496
  0
LWPOLYLINE
  5
111
330
1F
100
AcDbEntity
  8
0
  6
HIDDEN
 62
     7
370
     0
100
AcDbPolyline
 90
       21
 70
   128
 43
0.0
 10
157.3776001149
 20
105.6948924562
 10
157.1676917861
 20
105.5576643211
 10
157.0110667792
 20
105.2797670605
 10
156.9230566413
 20
104.8884031945
 10
156.9122764177
 20
104.4218821453
 10
156.9797813518
 20
103.9258702434
 10
157.1189635905
 20
103.4489205898
 10
157.3161990064
 20
103.0377203396
 10
157.5521808228
 20
102.7325206384
 10
157.8038094953
 20
102.5631965594
 10
158.0464538563
 20
102.5463227231
 10
158.2563621851
 20
102.6835508583
 10
158.4129871919
 20
102.9614481189
 10
158.5009973299
 20
103.3528119848
 10
158.5117775535
 20
103.8193330341
 10
158.4442726194
 20
104.315344936
 10
158.3050903807
 20
104.7922945896
 10
158.1078549648
 20
105.2034948398
 10
157.8718731484
 20
105.5086945409
 10
157.6202444759
 20
105.67801862
 10
157.3776001149
 20
105.6948924562
  0
LWPOLYLINE
  5
112
330
1F
100
AcDbEntity
  8
0
  6
HIDDEN
 62
     7
370
     0
100
AcDbPolyline
 90
       23
 70
   128
 43
0.0
 10
157.4915898791
 20
106.1147467215
 10
157.2521478958
 20
105.9673759773
 10
157.0657603217
 20
105.6735105489
 10
156.9475271694
 20
105.2569576657
 10
156.9070269859
 20
104.7514639648
 10
156.9475408551
 20
104.1979815398
 10
157.0657865843
 20
103.641350245
 10
157.2521846078
 20
103.1266650374
 10
157.4916340663
 20
102.6956226516
 10
157.7647361886
 20
102.3831435783
 10
158.0493658651
 20
102.2145430135
 10
158.322464092
 20
102.2034799723
 10
158.5619060753
 20
102.3508507166
 10
158.7482936495
 20
102.644716145
 10
158.8665268018
 20
103.0612690282
 10
158.9070269853
 20
103.566762729
 10
158.8665131161
 20
104.1202451541
 10
158.7482673868
 20
104.6768764489
 10
158.5618693633
 20
105.1915616565
 10
158.3224199049
 20
105.6226040423
 10
158.0493177826
 20
105.9350831156
 10
157.7646881061
 20
106.1036836804
 10
157.4915898791
 20
106.1147467215
  0
LWPOLYLINE
  5
113
330
1F
100
AcDbEntity
  8
0
  6
HIDDEN
 62
     7
370
     0
100
AcDbPolyline
 90
       23
 70
   128
 43
0.0
 10
159.2451470377
 20
106.4610136255
 10
159.0057050544
 20
106.3136428813
 10
158.8193174802
 20
106.0197774529
 10
158.7010843279
 20
105.6032245696
 10
158.6605841444
 20
105.0977308688
 10
158.7010980136
 20
104.5442484438
 10
158.8193437429
 20
103.9876171489
 10
159.0057417663
 20
103.4729319414
 10
159.2451912248
 20
103.0418895556
 10
159.5182933471
 20
102.7294104823
 10
159.8029230236
 20
102.5608099175
 10
160.0760212505
 20
102.5497468763
 10
160.3154632338
 20
102.6971176206
 10
160.501850808
 20
102.990983049
 10
160.6200839603
 20
103.4075359322
 10
160.6605841438
 20
103.913029633
 10
160.6200702746
 20
104.466512058
 10
160.5018245454
 20
105.0231433529
 10
160.3154265219
 20
105.5378285605
 10
160.0759770634
 20
105.9688709463
 10
159.8028749411
 20
106.2813500196
 10
159.5182452646
 20
106.4499505844
 10
159.2451470377
 20
106.4610136255
  0
LINE
  5
114
330
1F
100
AcDbEntity
  8
0
  6
HIDDEN
 62
     7
370
     0
100
AcDbLine
 10
157.3771423956
 20
103.4351099886
 30
0.0
 11
157.9518797108
 21
102.9915221344
 31
0.0
  0
LINE
  5
115
330
1F
100
AcDbEntity
  8
0
  6
HIDDEN
 62
     7
370
     0
100
AcDbLine
 10
158.2867643009
 20
103.6770197355
 30
0.0
 11
157.9518797108
 21
102.9915221344
 31
0.0
  0
LINE
  5
116
330
1F
100
AcDbEntity
  8
0
  6
HIDDEN
 62
     7
370
     0
100
AcDbLine
 10
158.0469115756
 20
104.8061051908
 30
0.0
 11
158.2867643009
 21
103.6770197355
 31
0.0
  0
LINE
  5
117
330
1F
100
AcDbEntity
  8
0
  6
HIDDEN
 62
     7
370
     0
100
AcDbLine
 10
158.0469115756
 20
104.8061051908
 30
0.0
 11
157.4721742604
 21
105.2496930449
 31
0.0
  0
LINE
  5
118
330
1F
100
AcDbEntity
  8
0
  6
HIDDEN
 62
     7
370
     0
100
AcDbLine
 10
157.1372896703
 20
104.5641954438
 30
0.0
 11
157.4721742604
 21
105.2496930449
 31
0.0
  0
LINE
  5
119
330
1F
100
AcDbEntity
  8
0
  6
HIDDEN
 62
     7
370
     0
100
AcDbLine
 10
157.1372896703
 20
104.5641954438
 30
0.0
 11
157.3771423956
 21
103.4351099886
 31
0.0
  0
LINE
  5
11A
330
1F
100
AcDbEntity
  8
0
  6
HIDDEN
 62
     7
370
     0
100
AcDbLine
 10
159.5858024065
 20
103.933534843
 30
0.0
 11
158.2867643009
 21
103.6770197355
 31
0.0
  0
LINE
  5
11B
330
1F
100
AcDbEntity
  8
0
  6
HIDDEN
 62
     7
370
     0
100
AcDbLine
 10
159.3459496813
 20
105.0626202983
 30
0.0
 11
158.0469115756
 21
104.8061051908
 31
0.0
  0
LWPOLYLINE
  5
11C
330
1F
100
AcDbEntity
  8
0
  6
HIDDEN
 62
     7
370
     0
100
AcDbPolyline
 90
       19
 70
   128
 43
0.0
 10
160.0504550054
 20
105.8559086638
 10
159.8716705734
 20
105.7304854576
 10
159.7457675863
 20
105.4727662368
 10
159.6879318025
 20
105.1138357428
 10
159.7051390712
 20
104.6969862905
 10
159.7953139418
 20
104.2724960759
 10
159.9475799941
 20
103.8915648837
 10
160.1435716948
 20
103.6001386375
 10
160.3596495525
 20
103.4333676438
 10
160.5697513885
 20
103.4113669455
 10
160.7485358205
 20
103.5367901517
 10
160.8744388076
 20
103.7945093726
 10
160.9322745913
 20
104.1534398665
 10
160.9150673226
 20
104.5702893188
 10
160.8248924521
 20
104.9947795334
 10
160.6726263998
 20
105.3757107257
 10
160.476634699
 20
105.6671369718
 10
160.2605568414
 20
105.8339079656
 10
160.0504550054
 20
105.8559086638
  0
LINE
  5
11D
330
1F
100
AcDbEntity
  8
0
  6
HIDDEN
 62
     7
370
     0
100
AcDbLine
 10
158.6761805012
 20
103.6916250961
 30
0.0
 11
159.2509178165
 21
103.2480372419
 31
0.0
  0
LINE
  5
11E
330
1F
100
AcDbEntity
  8
0
  6
HIDDEN
 62
     7
370
     0
100
AcDbLine
 10
158.436327776
 20
104.8207105513
 30
0.0
 11
158.6761805012
 21
103.6916250961
 31
0.0
  0
LINE
  5
11F
330
1F
100
AcDbEntity
  8
0
  6
HIDDEN
 62
     7
370
     0
100
AcDbLine
 10
158.436327776
 20
104.8207105513
 30
0.0
 11
158.771212366
 21
105.5062081524
 31
0.0
  0
LINE
  5
120
330
1F
100
AcDbEntity
  8
0
  6
HIDDEN
 62
     7
370
     0
100
AcDbLine
 10
159.3459496813
 20
105.0626202983
 30
0.0
 11
158.771212366
 21
105.5062081524
 31
0.0
  0
LINE
  5
121
330
1F
100
AcDbEntity
  8
0
  6
HIDDEN
 62
     7
370
     0
100
AcDbLine
 10
159.3459496813
 20
105.0626202983
 30
0.0
 11
159.5858024065
 21
103.933534843
 31
0.0
  0
LINE
  5
122
330
1F
100
AcDbEntity
  8
0
  6
HIDDEN
 62
     7
370
     0
100
AcDbLine
 10
159.5858024065
 20
103.933534843
 30
0.0
 11
159.2509178165
 21
103.2480372419
 31
0.0
  0
LINE
  5
123
330
1F
100
AcDbEntity
  8
0
  6
HIDDEN
 62
     7
370
     0
100
AcDbLine
 10
158.6761805012
 20
103.6916250961
 30
0.0
 11
157.3771423956
 21
103.4351099886
 31
0.0
  0
LINE
  5
124
330
1F
100
AcDbEntity
  8
0
  6
HIDDEN
 62
     7
370
     0
100
AcDbLine
 10
159.2509178165
 20
103.2480372419
 30
0.0
 11
157.9518797108
 21
102.9915221344
 31
0.0
  0
LINE
  5
125
330
1F
100
AcDbEntity
  8
0
  6
HIDDEN
 62
     7
370
     0
100
AcDbLine
 10
158.436327776
 20
104.8207105513
 30
0.0
 11
157.1372896703
 21
104.5641954438
 31
0.0
  0
LINE
  5
126
330
1F
100
AcDbEntity
  8
0
  6
HIDDEN
 62
     7
370
     0
100
AcDbLine
 10
158.771212366
 20
105.5062081524
 30
0.0
 11
157.4721742604
 21
105.2496930449
 31
0.0
  0
LWPOLYLINE
  5
127
330
1F
100
AcDbEntity
  8
0
  6
HIDDEN
 62
     7
370
     0
100
AcDbPolyline
 90
       23
 70
   128
 43
0.0
 10
159.2451470377
 20
119.7556257389
 10
159.0057050544
 20
119.9029964831
 10
158.8193174802
 20
120.1968619115
 10
158.7010843279
 20
120.6134147948
 10
158.6605841444
 20
121.1189084956
 10
158.7010980136
 20
121.6723909206
 10
158.8193437429
 20
122.2290222155
 10
159.0057417663
 20
122.7437074231
 10
159.2451912248
 20
123.1747498088
 10
159.5182933471
 20
123.4872288821
 10
159.8029230236
 20
123.6558294469
 10
160.0760212505
 20
123.6668924881
 10
160.3154632338
 20
123.5195217438
 10
160.501850808
 20
123.2256563154
 10
160.6200839603
 20
122.8091034322
 10
160.6605841438
 20
122.3036097314
 10
160.6200702746
 20
121.7501273064
 10
160.5018245454
 20
121.1934960115
 10
160.3154265219
 20
120.6788108039
 10
160.0759770634
 20
120.2477684182
 10
159.8028749411
 20
119.9352893448
 10
159.5182452646
 20
119.76668878
 10
159.2451470377
 20
119.7556257389
  0
LWPOLYLINE
  5
128
330
1F
100
AcDbEntity
  8
0
  6
HIDDEN
 62
     7
370
     0
100
AcDbPolyline
 90
       19
 70
   128
 43
0.0
 10
160.0504550054
 20
120.3607307006
 10
159.8716705734
 20
120.4861539068
 10
159.7457675863
 20
120.7438731276
 10
159.6879318025
 20
121.1028036216
 10
159.7051390712
 20
121.5196530739
 10
159.7953139418
 20
121.9441432885
 10
159.9475799941
 20
122.3250744807
 10
160.1435716948
 20
122.6165007269
 10
160.3596495525
 20
122.7832717206
 10
160.5697513885
 20
122.8052724189
 10
160.7485358205
 20
122.6798492127
 10
160.8744388076
 20
122.4221299918
 10
160.9322745913
 20
122.0631994979
 10
160.9150673226
 20
121.6463500456
 10
160.8248924521
 20
121.221859831
 10
160.6726263998
 20
120.8409286387
 10
160.476634699
 20
120.5495023926
 10
160.2605568414
 20
120.3827313989
 10
160.0504550054
 20
120.3607307006
  0
LWPOLYLINE
  5
129
330
1F
100
AcDbEntity
  8
0
  6
HIDDEN
 62
     7
370
     0
100
AcDbPolyline
 90
       23
 70
   128
 43
0.0
 10
157.4915898791
 20
120.1018926429
 10
157.2521478958
 20
120.2492633871
 10
157.0657603217
 20
120.5431288155
 10
156.9475271694
 20
120.9596816988
 10
156.9070269859
 20
121.4651753996
 10
156.9475408551
 20
122.0186578246
 10
157.0657865843
 20
122.5752891195
 10
157.2521846078
 20
123.089974327
 10
157.4916340663
 20
123.5210167128
 10
157.7647361886
 20
123.8334957861
 10
158.0493658651
 20
124.0020963509
 10
158.322464092
 20
124.0131593921
 10
158.5619060753
 20
123.8657886478
 10
158.7482936495
 20
123.5719232194
 10
158.8665268018
 20
123.1553703362
 10
158.9070269853
 20
122.6498766354
 10
158.8665131161
 20
122.0963942103
 10
158.7482673868
 20
121.5397629155
 10
158.5618693633
 20
121.0250777079
 10
158.3224199049
 20
120.5940353221
 10
158.0493177826
 20
120.2815562488
 10
157.7646881061
 20
120.112955684
 10
157.4915898791
 20
120.1018926429
  0
LWPOLYLINE
  5
12A
330
1F
100
AcDbEntity
  8
0
  6
HIDDEN
 62
     7
370
     0
100
AcDbPolyline
 90
       21
 70
   128
 43
0.0
 10
157.3776001149
 20
120.5217469082
 10
157.1676917861
 20
120.6589750433
 10
157.0110667792
 20
120.9368723039
 10
156.9230566413
 20
121.3282361699
 10
156.9122764177
 20
121.7947572191
 10
156.9797813518
 20
122.290769121
 10
157.1189635905
 20
122.7677187747
 10
157.3161990064
 20
123.1789190248
 10
157.5521808228
 20
123.484118726
 10
157.8038094953
 20
123.653442805
 10
158.0464538563
 20
123.6703166413
 10
158.2563621851
 20
123.5330885061
 10
158.4129871919
 20
123.2551912455
 10
158.5009973299
 20
122.8638273796
 10
158.5117775535
 20
122.3973063303
 10
158.4442726194
 20
121.9012944284
 10
158.3050903807
 20
121.4243447748
 10
158.1078549648
 20
121.0131445246
 10
157.8718731484
 20
120.7079448235
 10
157.6202444759
 20
120.5386207444
 10
157.3776001149
 20
120.5217469082
  0
LINE
  5
12B
330
1F
100
AcDbEntity
  8
0
  6
HIDDEN
 62
     7
370
     0
100
AcDbLine
 10
158.436327776
 20
121.3959288131
 30
0.0
 11
158.771212366
 21
120.710431212
 31
0.0
  0
LINE
  5
12C
330
1F
100
AcDbEntity
  8
0
  6
HIDDEN
 62
     7
370
     0
100
AcDbLine
 10
158.436327776
 20
121.3959288131
 30
0.0
 11
158.6761805012
 21
122.5250142683
 31
0.0
  0
LINE
  5
12D
330
1F
100
AcDbEntity
  8
0
  6
HIDDEN
 62
     7
370
     0
100
AcDbLine
 10
158.436327776
 20
121.3959288131
 30
0.0
 11
157.1372896703
 21
121.6524439206
 31
0.0
  0
LINE
  5
12E
330
1F
100
AcDbEntity
  8
0
  6
HIDDEN
 62
     7
370
     0
100
AcDbLine
 10
158.6761805012
 20
122.5250142683
 30
0.0
 11
157.3771423956
 21
122.7815293758
 31
0.0
  0
LINE
  5
12F
330
1F
100
AcDbEntity
  8
0
  6
HIDDEN
 62
     7
370
     0
100
AcDbLine
 10
158.6761805012
 20
122.5250142683
 30
0.0
 11
159.2509178165
 21
122.9686021225
 31
0.0
  0
LINE
  5
130
330
1F
100
AcDbEntity
  8
0
  6
HIDDEN
 62
     7
370
     0
100
AcDbLine
 10
157.3771423956
 20
122.7815293758
 30
0.0
 11
157.9518797108
 21
123.22511723
 31
0.0
  0
LINE
  5
131
330
1F
100
AcDbEntity
  8
0
  6
HIDDEN
 62
     7
370
     0
100
AcDbLine
 10
157.1372896703
 20
121.6524439206
 30
0.0
 11
157.3771423956
 21
122.7815293758
 31
0.0
  0
LINE
  5
132
330
1F
100
AcDbEntity
  8
0
  6
HIDDEN
 62
     7
370
     0
100
AcDbLine
 10
157.1372896703
 20
121.6524439206
 30
0.0
 11
157.4721742604
 21
120.9669463195
 31
0.0
  0
LINE
  5
133
330
1F
100
AcDbEntity
  8
0
  6
HIDDEN
 62
     7
370
     0
100
AcDbLine
 10
159.3459496813
 20
121.1540190661
 30
0.0
 11
158.0469115756
 21
121.4105341736
 31
0.0
  0
LINE
  5
134
330
1F
100
AcDbEntity
  8
0
  6
HIDDEN
 62
     7
370
     0
100
AcDbLine
 10
158.0469115756
 20
121.4105341736
 30
0.0
 11
157.4721742604
 21
120.9669463195
 31
0.0
  0
LINE
  5
135
330
1F
100
AcDbEntity
  8
0
  6
HIDDEN
 62
     7
370
     0
100
AcDbLine
 10
159.3459496813
 20
121.1540190661
 30
0.0
 11
158.771212366
 21
120.710431212
 31
0.0
  0
LINE
  5
136
330
1F
100
AcDbEntity
  8
0
  6
HIDDEN
 62
     7
370
     0
100
AcDbLine
 10
158.771212366
 20
120.710431212
 30
0.0
 11
157.4721742604
 21
120.9669463195
 31
0.0
  0
LINE
  5
137
330
1F
100
AcDbEntity
  8
0
  6
HIDDEN
 62
     7
370
     0
100
AcDbLine
 10
159.5858024065
 20
122.2831045214
 30
0.0
 11
158.2867643009
 21
122.5396196289
 31
0.0
  0
LINE
  5
138
330
1F
100
AcDbEntity
  8
0
  6
HIDDEN
 62
     7
370
     0
100
AcDbLine
 10
158.2867643009
 20
122.5396196289
 30
0.0
 11
157.9518797108
 21
123.22511723
 31
0.0
  0
LINE
  5
139
330
1F
100
AcDbEntity
  8
0
  6
HIDDEN
 62
     7
370
     0
100
AcDbLine
 10
159.2509178165
 20
122.9686021225
 30
0.0
 11
157.9518797108
 21
123.22511723
 31
0.0
  0
LINE
  5
13A
330
1F
100
AcDbEntity
  8
0
  6
HIDDEN
 62
     7
370
     0
100
AcDbLine
 10
159.5858024065
 20
122.2831045214
 30
0.0
 11
159.2509178165
 21
122.9686021225
 31
0.0
  0
LINE
  5
13B
330
1F
100
AcDbEntity
  8
0
  6
HIDDEN
 62
     7
370
     0
100
AcDbLine
 10
158.0469115756
 20
121.4105341736
 30
0.0
 11
158.2867643009
 21
122.5396196289
 31
0.0
  0
LINE
  5
13C
330
1F
100
AcDbEntity
  8
0
  6
HIDDEN
 62
     7
370
     0
100
AcDbLine
 10
159.3459496813
 20
121.1540190661
 30
0.0
 11
159.5858024065
 21
122.2831045214
 31
0.0
  0
LWPOLYLINE
  5
13D
330
1F
100
AcDbEntity
  8
0
  6
HIDDEN
 62
     7
370
     0
100
AcDbPolyline
 90
       26
 70
   128
 43
0.0
 10
170.0959677356
 20
123.2270344965
 10
170.6997482619
 20
123.3847225397
 10
171.3262920927
 20
123.396357813
 10
171.936231175
 20
123.2612092295
 10
172.491240793
 20
122.9877686716
 10
172.9564476511
 20
122.5932174152
 10
173.3026210917
 20
122.1023465668
 10
173.5080097642
 20
121.5459993472
 10
173.5597083431
 20
120.9591330983
 10
173.4544684164
 20
120.3786227847
 10
173.1989025959
 20
119.8409440045
 10
172.8090690219
 20
119.3798810929
 10
172.3094623715
 20
119.0244043283
 10
171.7314747682
 20
118.7968496232
 10
171.1114232986
 20
118.7115150765
 10
170.4882680769
 20
118.7737625717
 10
169.9011642377
 20
118.9796808698
 10
169.3870016743
 20
119.3163313666
 10
168.9780871114
 20
119.7625610735
 10
168.7001141551
 20
120.2903317368
 10
168.5705488684
 20
120.8664815847
 10
168.5975323148
 20
121.4548090034
 10
168.7793690252
 20
122.0183472174
 10
169.1046335303
 20
122.5216870482
 10
169.5528882649
 20
122.9332018031
 10
170.0959677356
 20
123.2270344965
  0
LWPOLYLINE
  5
13E
330
1F
100
AcDbEntity
  8
0
  6
HIDDEN
 62
     7
370
     0
100
AcDbPolyline
 90
       22
 70
   128
 43
0.0
 10
170.3857855106
 20
122.3204954444
 10
170.8915822695
 20
122.4404165826
 10
171.4125237894
 20
122.4149147479
 10
171.9023221301
 20
122.2462558902
 10
172.3174565597
 20
121.9494260893
 10
172.6210405623
 20
121.5507999755
 10
172.7860993669
 20
121.0857972284
 10
172.7979667745
 20
120.5957353827
 10
172.6555883139
 20
120.124158584
 10
172.3716149359
 20
119.7129685004
 10
171.9712789216
 20
119.3987011752
 10
171.4901518825
 20
119.2092806394
 10
170.9709840676
 20
119.1615377389
 10
170.4599058154
 20
119.2597146399
 10
170.0023286716
 20
119.495087894
 10
169.6389103734
 20
119.8467435545
 10
169.4019422315
 20
120.2834354729
 10
169.3124799051
 20
120.7663616557
 10
169.3784725145
 20
121.2526119924
 10
169.5940563269
 20
121.6989810067
 10
169.9400757744
 20
122.0658068528
 10
170.3857855106
 20
122.3204954444
  0
LWPOLYLINE
  5
13F
330
1F
100
AcDbEntity
  8
0
  6
HIDDEN
 62
     7
370
     0
100
AcDbPolyline
 90
       26
 70
   128
 43
0.0
 10
170.0959677356
 20
124.2507278496
 10
170.6997482619
 20
124.4084158928
 10
171.3262920927
 20
124.4200511661
 10
171.936231175
 20
124.2849025826
 10
172.491240793
 20
124.0114620247
 10
172.9564476511
 20
123.6169107683
 10
173.3026210917
 20
123.1260399199
 10
173.5080097642
 20
122.5696927003
 10
173.5597083431
 20
121.9828264514
 10
173.4544684164
 20
121.4023161378
 10
173.1989025959
 20
120.8646373576
 10
172.8090690219
 20
120.403574446
 10
172.3094623715
 20
120.0480976814
 10
171.7314747682
 20
119.8205429763
 10
171.1114232986
 20
119.7352084296
 10
170.4882680769
 20
119.7974559248
 10
169.9011642377
 20
120.0033742229
 10
169.3870016743
 20
120.3400247197
 10
168.9780871114
 20
120.7862544266
 10
168.7001141551
 20
121.3140250899
 10
168.5705488684
 20
121.8901749378
 10
168.5975323148
 20
122.4785023565
 10
168.7793690252
 20
123.0420405705
 10
169.1046335303
 20
123.5453804013
 10
169.5528882649
 20
123.9568951562
 10
170.0959677356
 20
124.2507278496
  0
LINE
  5
140
330
1F
100
AcDbEntity
  8
0
  6
HIDDEN
 62
     7
370
     0
100
AcDbLine
 10
171.9360514239
 20
122.5671984002
 30
0.0
 11
170.5042724175
 21
122.7387848583
 31
0.0
  0
LINE
  5
141
330
1F
100
AcDbEntity
  8
0
  6
HIDDEN
 62
     7
370
     0
100
AcDbLine
 10
170.5042724175
 20
122.7387848583
 30
0.0
 11
170.5042724175
 21
123.422825145
 31
0.0
  0
LINE
  5
142
330
1F
100
AcDbEntity
  8
0
  6
HIDDEN
 62
     7
370
     0
100
AcDbLine
 10
169.6302479792
 20
121.6593996518
 30
0.0
 11
170.5042724175
 21
122.7387848583
 31
0.0
  0
LINE
  5
143
330
1F
100
AcDbEntity
  8
0
  6
HIDDEN
 62
     7
370
     0
100
AcDbLine
 10
171.9360514239
 20
122.5671984002
 30
0.0
 11
171.9360514239
 21
123.2512386869
 31
0.0
  0
LINE
  5
144
330
1F
100
AcDbEntity
  8
0
  6
HIDDEN
 62
     7
370
     0
100
AcDbLine
 10
171.9360514239
 20
122.5671984002
 30
0.0
 11
172.4938059919
 21
121.3162267356
 31
0.0
  0
LINE
  5
145
330
1F
100
AcDbEntity
  8
0
  6
HIDDEN
 62
     7
370
     0
100
AcDbLine
 10
170.1880025473
 20
120.4084279871
 30
0.0
 11
170.1880025473
 21
121.0924682738
 31
0.0
  0
LINE
  5
146
330
1F
100
AcDbEntity
  8
0
  6
HIDDEN
 62
     7
370
     0
100
AcDbLine
 10
169.6302479792
 20
122.3434399384
 30
0.0
 11
170.1880025473
 21
121.0924682738
 31
0.0
  0
LINE
  5
147
330
1F
100
AcDbEntity
  8
0
  6
HIDDEN
 62
     7
370
     0
100
AcDbLine
 10
169.6302479792
 20
121.6593996518
 30
0.0
 11
169.6302479792
 21
122.3434399384
 31
0.0
  0
LINE
  5
148
330
1F
100
AcDbEntity
  8
0
  6
HIDDEN
 62
     7
370
     0
100
AcDbLine
 10
169.6302479792
 20
121.6593996518
 30
0.0
 11
170.1880025473
 21
120.4084279871
 31
0.0
  0
LINE
  5
149
330
1F
100
AcDbEntity
  8
0
  6
HIDDEN
 62
     7
370
     0
100
AcDbLine
 10
171.6197815536
 20
120.2368415291
 30
0.0
 11
171.6197815536
 21
120.9208818157
 31
0.0
  0
LINE
  5
14A
330
1F
100
AcDbEntity
  8
0
  6
HIDDEN
 62
     7
370
     0
100
AcDbLine
 10
172.4938059919
 20
122.0002670223
 30
0.0
 11
171.6197815536
 21
120.9208818157
 31
0.0
  0
LINE
  5
14B
330
1F
100
AcDbEntity
  8
0
  6
HIDDEN
 62
     7
370
     0
100
AcDbLine
 10
172.4938059919
 20
121.3162267356
 30
0.0
 11
172.4938059919
 21
122.0002670223
 31
0.0
  0
LINE
  5
14C
330
1F
100
AcDbEntity
  8
0
  6
HIDDEN
 62
     7
370
     0
100
AcDbLine
 10
172.4938059919
 20
121.3162267356
 30
0.0
 11
171.6197815536
 21
120.2368415291
 31
0.0
  0
LINE
  5
14D
330
1F
100
AcDbEntity
  8
0
  6
HIDDEN
 62
     7
370
     0
100
AcDbLine
 10
170.1880025473
 20
121.0924682738
 30
0.0
 11
171.6197815536
 21
120.9208818157
 31
0.0
  0
LINE
  5
14E
330
1F
100
AcDbEntity
  8
0
  6
HIDDEN
 62
     7
370
     0
100
AcDbLine
 10
170.1880025473
 20
120.4084279871
 30
0.0
 11
171.6197815536
 21
120.2368415291
 31
0.0
  0
LWPOLYLINE
  5
14F
330
1F
100
AcDbEntity
  8
0
  6
HIDDEN
 62
     7
370
     0
100
AcDbPolyline
 90
       24
 70
   128
 43
0.0
 10
170.2679262821
 20
123.9529190885
 10
170.8087385129
 20
124.0881975471
 10
171.3683359909
 20
124.0813495329
 10
171.9052159314
 20
123.9328829319
 10
172.379560405
 20
123.6538088326
 10
172.7561894523
 20
123.2648248843
 10
173.0071702196
 20
122.794780247
 10
173.1138886118
 20
122.2785359812
 10
173.0684298137
 20
121.7543795623
 10
172.8741652966
 20
121.261185274
 10
172.545502771
 20
120.8355310807
 10
172.1068176327
 20
120.5089858064
 10
171.5906451518
 20
120.3057678204
 10
171.0352674798
 20
120.240948871
 10
170.4818744379
 20
120.3193362832
 10
169.9715086564
 20
120.5351164212
 10
169.5420216306
 20
120.8722858593
 10
169.2252664485
 20
121.3058382827
 10
169.0447353927
 20
121.8036190916
 10
169.0138176259
 20
122.3287101605
 10
169.1348061774
 20
122.8421678871
 10
169.3987278798
 20
123.3059114606
 10
169.7860088677
 20
123.6855471416
 10
170.2679262821
 20
123.9529190885
  0
LINE
  5
150
330
1F
100
AcDbEntity
  8
0
  6
HIDDEN
 62
     7
370
     0
100
AcDbLine
 10
171.9360514239
 20
123.2512386869
 30
0.0
 11
172.4938059919
 21
122.0002670223
 31
0.0
  0
LINE
  5
151
330
1F
100
AcDbEntity
  8
0
  6
HIDDEN
 62
     7
370
     0
100
AcDbLine
 10
169.6302479792
 20
122.3434399384
 30
0.0
 11
170.5042724175
 21
123.422825145
 31
0.0
  0
LINE
  5
152
330
1F
100
AcDbEntity
  8
0
  6
HIDDEN
 62
     7
370
     0
100
AcDbLine
 10
171.9360514239
 20
123.2512386869
 30
0.0
 11
170.5042724175
 21
123.422825145
 31
0.0
  0
LINE
  5
153
330
1F
100
AcDbEntity
  8
0
  6
HIDDEN
 62
     7
370
     0
100
AcDbLine
 10
201.4120269856
 20
130.6583196822
 30
0.0
 11
200.7120269856
 21
131.3583196822
 31
0.0
  0
LINE
  5
154
330
1F
100
AcDbEntity
  8
0
  6
HIDDEN
 62
     7
370
     0
100
AcDbLine
 10
192.1120269856
 20
131.3583196822
 30
0.0
 11
191.4120269856
 21
130.6583196822
 31
0.0
  0
LINE
  5
155
330
1F
100
AcDbEntity
  8
0
  6
HIDDEN
 62
     7
370
     0
100
AcDbLine
 10
191.4120269856
 20
130.6583196822
 30
0.0
 11
191.4120269856
 21
124.135818757
 31
0.0
  0
LINE
  5
156
330
1F
100
AcDbEntity
  8
0
  6
HIDDEN
 62
     7
370
     0
100
AcDbLine
 10
201.4120269856
 20
124.135818757
 30
0.0
 11
201.4120269856
 21
130.6583196822
 31
0.0
  0
LINE
  5
157
330
1F
100
AcDbEntity
  8
0
  6
HIDDEN
 62
     7
370
     0
100
AcDbLine
 10
191.4120269856
 20
124.135818757
 30
0.0
 11
193.3024473341
 21
117.0806739687
 31
0.0
  0
LINE
  5
158
330
1F
100
AcDbEntity
  8
0
  6
HIDDEN
 62
     7
370
     0
100
AcDbLine
 10
199.5216066371
 20
117.0806739687
 30
0.0
 11
201.4120269856
 21
124.135818757
 31
0.0
  0
LINE
  5
159
330
1F
100
AcDbEntity
  8
0
  6
HIDDEN
 62
     7
370
     0
100
AcDbLine
 10
193.4120269856
 20
131.3583196822
 30
0.0
 11
193.6757193598
 21
131.094627308
 31
0.0
  0
LINE
  5
15A
330
1F
100
AcDbEntity
  8
0
  6
HIDDEN
 62
     7
370
     0
100
AcDbLine
 10
199.1522425368
 20
131.0985352334
 30
0.0
 11
199.4120269856
 21
131.3583196822
 31
0.0
  0
ARC
  5
15B
330
1F
100
AcDbEntity
  8
0
  6
HIDDEN
 62
     7
370
     0
100
AcDbCircle
 10
193.592225082
 20
117.1583196822
 30
0.0
 40
0.2999999999999972
100
AcDbArc
 50
195.0
 51
270.0
  0
ARC
  5
15C
330
1F
100
AcDbEntity
  8
0
  6
HIDDEN
 62
     7
370
     0
100
AcDbCircle
 10
199.2318288892
 20
117.1583196822
 30
0.0
 40
0.2999999999999972
100
AcDbArc
 50
270.0
 51
345.0
  0
LINE
  5
15D
330
1F
100
AcDbEntity
  8
0
  6
HIDDEN
 62
     7
370
     0
100
AcDbLine
 10
193.9120269856
 20
124.3583196822
 30
0.0
 11
193.9120269856
 21
123.3583196822
 31
0.0
  0
LINE
  5
15E
330
1F
100
AcDbEntity
  8
0
  6
HIDDEN
 62
     7
370
     0
100
AcDbLine
 10
198.9120269856
 20
123.3583196822
 30
0.0
 11
198.9120269856
 21
124.3583196822
 31
0.0
  0
LINE
  5
15F
330
1F
100
AcDbEntity
  8
0
  6
HIDDEN
 62
     7
370
     0
100
AcDbLine
 10
193.9120269856
 20
123.3583196822
 30
0.0
 11
196.4120269856
 21
122.4483940965
 31
0.0
  0
LINE
  5
160
330
1F
100
AcDbEntity
  8
0
  6
HIDDEN
 62
     7
370
     0
100
AcDbLine
 10
196.4120269856
 20
122.4483940965
 30
0.0
 11
198.9120269856
 21
123.3583196822
 31
0.0
  0
LINE
  5
161
330
1F
100
AcDbEntity
  8
0
  6
HIDDEN
 62
     7
370
     0
100
AcDbLine
 10
156.4620269856
 20
101.7332251042
 30
0.0
 11
158.1188487006
 21
102.0603901031
 31
0.0
  0
LINE
  5
162
330
1F
100
AcDbEntity
  8
0
  6
HIDDEN
 62
     7
370
     0
100
AcDbLine
 10
157.3052052706
 20
106.1808250763
 30
0.0
 11
156.4620269856
 21
106.0143265206
 31
0.0
  0
LINE
  5
163
330
1F
100
AcDbEntity
  8
0
  6
HIDDEN
 62
     7
370
     0
100
AcDbLine
 10
158.1735159799
 20
102.5298744379
 30
0.0
 11
169.6112993304
 21
104.7884411519
 31
0.0
  0
LINE
  5
164
330
1F
100
AcDbEntity
  8
0
  6
HIDDEN
 62
     7
370
     0
100
AcDbLine
 10
169.6062837118
 20
108.1511732821
 30
0.0
 11
157.5342247134
 21
105.7673590597
 31
0.0
  0
LINE
  5
165
330
1F
100
AcDbEntity
  8
0
  6
HIDDEN
 62
     7
370
     0
100
AcDbLine
 10
173.1620269856
 20
105.7548866007
 30
0.0
 11
173.1620269856
 21
111.9475275567
 31
0.0
  0
LINE
  5
166
330
1F
100
AcDbEntity
  8
0
  6
HIDDEN
 62
     7
370
     0
100
AcDbLine
 10
168.9620269856
 20
111.9474151795
 30
0.0
 11
168.9620269856
 21
106.9930839142
 31
0.0
  0
ARC
  5
167
330
1F
100
AcDbEntity
  8
0
  6
HIDDEN
 62
     7
370
     0
100
AcDbCircle
 10
207.4620269856
 20
125.1083196822
 30
0.0
 40
1.0
100
AcDbArc
 50
270.0
 51
0.0
  0
ARC
  5
168
330
1F
100
AcDbEntity
  8
0
  6
HIDDEN
 62
     7
370
     0
100
AcDbCircle
 10
207.4620269856
 20
101.1083196822
 30
0.0
 40
1.0
100
AcDbArc
 50
0.0
 51
90.0
  0
ARC
  5
169
330
1F
100
AcDbEntity
  8
0
  6
HIDDEN
 62
     7
370
     0
100
AcDbCircle
 10
181.830374488
 20
123.6083196822
 30
0.0
 40
1.000000000000009
100
AcDbArc
 50
75.0
 51
90.0
  0
ARC
  5
16A
330
1F
100
AcDbEntity
  8
0
  6
HIDDEN
 62
     7
370
     0
100
AcDbCircle
 10
181.830374488
 20
102.6083196822
 30
0.0
 40
1.0
100
AcDbArc
 50
270.0
 51
285.0
  0
LINE
  5
16B
330
1F
100
AcDbEntity
  8
0
  6
HIDDEN
 62
     7
370
     0
100
AcDbLine
 10
181.830374488
 20
124.6083196822
 30
0.0
 11
180.9620269856
 21
124.6083196822
 31
0.0
  0
LINE
  5
16C
330
1F
100
AcDbEntity
  8
0
  6
HIDDEN
 62
     7
370
     0
100
AcDbLine
 10
180.9620269856
 20
101.6083196822
 30
0.0
 11
181.830374488
 21
101.6083196822
 31
0.0
  0
ARC
  5
16D
330
1F
100
AcDbEntity
  8
0
  6
HIDDEN
 62
     7
370
     0
100
AcDbCircle
 10
180.9620269856
 20
123.6083196822
 30
0.0
 40
1.0
100
AcDbArc
 50
90.0
 51
180.0
  0
ARC
  5
16E
330
1F
100
AcDbEntity
  8
0
  6
HIDDEN
 62
     7
370
     0
100
AcDbCircle
 10
180.9620269856
 20
102.6083196822
 30
0.0
 40
1.0
100
AcDbArc
 50
180.0
 51
270.0
  0
LINE
  5
16F
330
1F
100
AcDbEntity
  8
0
  6
HIDDEN
 62
     7
370
     0
100
AcDbLine
 10
182.0891935331
 20
101.6423938559
 30
0.0
 11
183.8280523894
 21
102.1083196822
 31
0.0
  0
LINE
  5
170
330
1F
100
AcDbEntity
  8
0
  6
HIDDEN
 62
     7
370
     0
100
AcDbLine
 10
183.8280523894
 20
124.1083196822
 30
0.0
 11
182.0891935331
 21
124.5742455085
 31
0.0
  0
LINE
  5
171
330
1F
100
AcDbEntity
  8
0
  6
HIDDEN
 62
     7
370
     0
100
AcDbLine
 10
191.9665359227
 20
124.1083196822
 30
0.0
 11
183.8280523894
 21
124.1083196822
 31
0.0
  0
LINE
  5
172
330
1F
100
AcDbEntity
  8
0
  6
HIDDEN
 62
     7
370
     0
100
AcDbLine
 10
207.4620269856
 20
124.1083196822
 30
0.0
 11
200.8674938094
 21
124.1083196822
 31
0.0
  0
LINE
  5
173
330
1F
100
AcDbEntity
  8
0
  6
HIDDEN
 62
     7
370
     0
100
AcDbLine
 10
183.8280523894
 20
102.1083196822
 30
0.0
 11
207.4620269856
 21
102.1083196822
 31
0.0
  0
ARC
  5
174
330
1F
100
AcDbEntity
  8
0
  6
HIDDEN
 62
     7
370
     0
100
AcDbCircle
 10
89.8620269856
 20
103.8083196822
 30
0.0
 40
0.7999999999999972
100
AcDbArc
 50
90.0
 51
180.0
  0
ARC
  5
175
330
1F
100
AcDbEntity
  8
0
  6
HIDDEN
 62
     7
370
     0
100
AcDbCircle
 10
89.8620269856
 20
122.4083196822
 30
0.0
 40
0.7999999999999972
100
AcDbArc
 50
180.0
 51
270.0
  0
LINE
  5
176
330
1F
100
AcDbEntity
  8
0
  6
HIDDEN
 62
     7
370
     0
100
AcDbLine
 10
96.9543994163
 20
104.3833196822
 30
0.0
 11
97.8310868779
 21
104.3833196822
 31
0.0
  0
LINE
  5
177
330
1F
100
AcDbEntity
  8
0
  6
HIDDEN
 62
     7
370
     0
100
AcDbLine
 10
97.8310868779
 20
121.8333196822
 30
0.0
 11
96.9543994163
 21
121.8333196822
 31
0.0
  0
ARC
  5
178
330
1F
100
AcDbEntity
  8
0
  6
HIDDEN
 62
     7
370
     0
100
AcDbCircle
 10
96.9543994163
 20
104.7833196822
 30
0.0
 40
0.4000000000000096
100
AcDbArc
 50
255.0
 51
270.0
  0
ARC
  5
179
330
1F
100
AcDbEntity
  8
0
  6
HIDDEN
 62
     7
370
     0
100
AcDbCircle
 10
96.9543994163
 20
121.4333196822
 30
0.0
 40
0.4000000000000096
100
AcDbArc
 50
90.0
 51
105.0
  0
ARC
  5
17A
330
1F
100
AcDbEntity
  8
0
  6
HIDDEN
 62
     7
370
     0
100
AcDbCircle
 10
97.8310868779
 20
104.7833196822
 30
0.0
 40
0.4000000000000121
100
AcDbArc
 50
270.0
 51
330.0
  0
ARC
  5
17B
330
1F
100
AcDbEntity
  8
0
  6
HIDDEN
 62
     7
370
     0
100
AcDbCircle
 10
97.8310868779
 20
121.4333196822
 30
0.0
 40
0.4000000000000192
100
AcDbArc
 50
30.0
 51
90.0
  0
LINE
  5
17C
330
1F
100
AcDbEntity
  8
0
  6
HIDDEN
 62
     7
370
     0
100
AcDbLine
 10
96.8508717983
 20
121.8196900127
 30
0.0
 11
96.0620269856
 21
121.6083196822
 31
0.0
  0
LINE
  5
17D
330
1F
100
AcDbEntity
  8
0
  6
HIDDEN
 62
     7
370
     0
100
AcDbLine
 10
96.0620269856
 20
104.6083196822
 30
0.0
 11
96.8508717983
 21
104.3969493517
 31
0.0
  0
LINE
  5
17E
330
1F
100
AcDbEntity
  8
0
  6
HIDDEN
 62
     7
370
     0
100
AcDbLine
 10
98.1774970394
 20
104.5833196822
 30
0.0
 11
99.0579561999
 21
106.1083196822
 31
0.0
  0
LINE
  5
17F
330
1F
100
AcDbEntity
  8
0
  6
HIDDEN
 62
     7
370
     0
100
AcDbLine
 10
99.0579561999
 20
120.1083196822
 30
0.0
 11
98.1774970394
 21
121.6333196822
 31
0.0
  0
LINE
  5
180
330
1F
100
AcDbEntity
  8
0
  6
HIDDEN
 62
     7
370
     0
100
AcDbLine
 10
89.8620269856
 20
104.6083196822
 30
0.0
 11
96.0620269856
 21
104.6083196822
 31
0.0
  0
LINE
  5
181
330
1F
100
AcDbEntity
  8
0
  6
HIDDEN
 62
     7
370
     0
100
AcDbLine
 10
96.0620269856
 20
121.6083196822
 30
0.0
 11
89.8620269856
 21
121.6083196822
 31
0.0
  0
ARC
  5
182
330
1F
100
AcDbEntity
  8
0
  6
HIDDEN
 62
     7
370
     0
100
AcDbCircle
 10
175.8620269856
 20
137.2083196822
 30
0.0
 40
1.600000000000023
100
AcDbArc
 50
270.0
 51
0.0
  0
ARC
  5
183
330
1F
100
AcDbEntity
  8
0
  6
HIDDEN
 62
     7
370
     0
100
AcDbCircle
 10
175.8620269856
 20
89.0083196822
 30
0.0
 40
1.600000000000023
100
AcDbArc
 50
0.0
 51
90.0
  0
LINE
  5
184
330
1F
100
AcDbEntity
  8
0
  6
HIDDEN
 62
     7
370
     0
100
AcDbLine
 10
177.4620269856
 20
137.2083196822
 30
0.0
 11
177.4620269856
 21
143.608248386
 31
0.0
  0
LINE
  5
185
330
1F
100
AcDbEntity
  8
0
  6
HIDDEN
 62
     7
370
     0
100
AcDbLine
 10
177.4620269856
 20
82.6083279833
 30
0.0
 11
177.4620269856
 21
89.0083196822
 31
0.0
  0
LINE
  5
186
330
1F
100
AcDbEntity
  8
0
  6
HIDDEN
 62
     7
370
     0
100
AcDbLine
 10
99.0579561999
 20
106.1083196822
 30
0.0
 11
132.0620269856
 21
106.1083196822
 31
0.0
  0
LINE
  5
187
330
1F
100
AcDbEntity
  8
0
  6
HIDDEN
 62
     7
370
     0
100
AcDbLine
 10
132.0620269856
 20
120.1083196822
 30
0.0
 11
99.0579561999
 21
120.1083196822
 31
0.0
  0
LINE
  5
188
330
1F
100
AcDbEntity
  8
0
  6
HIDDEN
 62
     7
370
     0
100
AcDbLine
 10
132.0620269856
 20
106.1083196822
 30
0.0
 11
134.2251252141
 21
109.7083196822
 31
0.0
  0
LINE
  5
189
330
1F
100
AcDbEntity
  8
0
  6
HIDDEN
 62
     7
370
     0
100
AcDbLine
 10
134.2251252141
 20
116.5083196822
 30
0.0
 11
132.0620269856
 21
120.1083196822
 31
0.0
  0
LINE
  5
18A
330
1F
100
AcDbEntity
  8
0
  6
HIDDEN
 62
     7
370
     0
100
AcDbLine
 10
177.4620260756
 20
143.6083194703
 30
0.0
 11
178.4620254449
 21
144.608319217
 31
0.0
  0
LINE
  5
18B
330
1F
100
AcDbEntity
  8
0
  6
HIDDEN
 62
     7
370
     0
100
AcDbLine
 10
178.462033347
 20
81.6083185445
 30
0.0
 11
177.4620330981
 21
82.608318349
 31
0.0
  0
LINE
  5
18C
330
1F
100
AcDbEntity
  8
0
  6
HIDDEN
 62
     7
370
     0
100
AcDbLine
 10
190.1620269856
 20
133.1083196822
 30
0.0
 11
191.9120269856
 21
131.3583196822
 31
0.0
  0
LINE
  5
18D
330
1F
100
AcDbEntity
  8
0
  6
HIDDEN
 62
     7
370
     0
100
AcDbLine
 10
200.9120269856
 20
131.3583196822
 30
0.0
 11
202.6620269856
 21
133.1083196822
 31
0.0
  0
LINE
  5
18E
330
1F
100
AcDbEntity
  8
0
  6
HIDDEN
 62
     7
370
     0
100
AcDbLine
 10
191.9120269856
 20
131.3583196822
 30
0.0
 11
191.9120269856
 21
124.0862047971
 31
0.0
  0
LINE
  5
18F
330
1F
100
AcDbEntity
  8
0
  6
HIDDEN
 62
     7
370
     0
100
AcDbLine
 10
200.9120269856
 20
124.0904189921
 30
0.0
 11
200.9120269856
 21
131.3583196822
 31
0.0
  0
LINE
  5
190
330
1F
100
AcDbEntity
  8
0
  6
HIDDEN
 62
     7
370
     0
100
AcDbLine
 10
179.9620269856
 20
116.5083196822
 30
0.0
 11
134.2251252141
 21
116.5083196822
 31
0.0
  0
LINE
  5
191
330
1F
100
AcDbEntity
  8
0
  6
HIDDEN
 62
     7
370
     0
100
AcDbLine
 10
134.2251252141
 20
109.7083196822
 30
0.0
 11
179.9620269856
 21
109.7083196822
 31
0.0
  0
LINE
  5
192
330
1F
100
AcDbEntity
  8
0
  6
HIDDEN
 62
     7
370
     0
100
AcDbLine
 10
173.1620269856
 20
114.2692241849
 30
0.0
 11
173.1620269856
 21
122.2104801312
 31
0.0
  0
LINE
  5
193
330
1F
100
AcDbEntity
  8
0
  6
HIDDEN
 62
     7
370
     0
100
AcDbLine
 10
168.9620269856
 20
119.2262619307
 30
0.0
 11
168.9620269856
 21
114.2691118077
 31
0.0
  0
LINE
  5
194
330
1F
100
AcDbEntity
  8
0
  6
HIDDEN
 62
     7
370
     0
100
AcDbLine
 10
168.9620269856
 20
122.2104801312
 30
0.0
 11
168.9620269856
 21
120.5233583745
 31
0.0
  0
LINE
  5
195
330
1F
100
AcDbEntity
  8
0
  6
HIDDEN
 62
     7
370
     0
100
AcDbLine
 10
157.5342247134
 20
120.4492803047
 30
0.0
 11
169.6068040145
 21
118.0653633406
 31
0.0
  0
LINE
  5
196
330
1F
100
AcDbEntity
  8
0
  6
HIDDEN
 62
     7
370
     0
100
AcDbLine
 10
169.6127558373
 20
121.4279106028
 30
0.0
 11
158.1735159799
 21
123.6867649265
 31
0.0
  0
LINE
  5
197
330
1F
100
AcDbEntity
  8
0
  6
HIDDEN
 62
     7
370
     0
100
AcDbLine
 10
156.4620269856
 20
120.2023128438
 30
0.0
 11
157.3052052706
 21
120.0358142881
 31
0.0
  0
LINE
  5
198
330
1F
100
AcDbEntity
  8
0
  6
HIDDEN
 62
     7
370
     0
100
AcDbLine
 10
158.1188487006
 20
124.1562492613
 30
0.0
 11
156.4620269856
 21
124.4834142602
 31
0.0
  0
LINE
  5
199
330
1F
100
AcDbEntity
  8
0
  6
HIDDEN
 62
     7
370
     0
100
AcDbLine
 10
156.9070269856
 20
104.7515096124
 30
0.0
 11
156.9070269856
 21
104.5974865834
 31
0.0
  0
LINE
  5
19A
330
1F
100
AcDbEntity
  8
0
  6
HIDDEN
 62
     7
370
     0
100
AcDbLine
 10
157.1487152319
 20
103.3735343384
 30
0.0
 11
157.207260832
 21
103.231072041
 31
0.0
  0
LINE
  5
19B
330
1F
100
AcDbEntity
  8
0
  6
HIDDEN
 62
     7
370
     0
100
AcDbLine
 10
158.294476238
 20
102.1970014549
 30
0.0
 11
160.0480333965
 21
102.5432683589
 31
0.0
  0
LINE
  5
19C
330
1F
100
AcDbEntity
  8
0
  6
HIDDEN
 62
     7
370
     0
100
AcDbLine
 10
159.2731348917
 20
106.4674921429
 30
0.0
 11
157.5195777332
 21
106.121225239
 31
0.0
  0
LINE
  5
19D
330
1F
100
AcDbEntity
  8
0
  6
HIDDEN
 62
     7
370
     0
100
AcDbLine
 10
160.4792729734
 20
102.941178736
 30
0.0
 11
160.8217837152
 21
103.6560118578
 31
0.0
  0
LINE
  5
19E
330
1F
100
AcDbEntity
  8
0
  6
HIDDEN
 62
     7
370
     0
100
AcDbLine
 10
160.4117729576
 20
105.7323792231
 30
0.0
 11
159.8232557612
 21
106.2633665203
 31
0.0
  0
LINE
  5
19F
330
1F
100
AcDbEntity
  8
0
  6
HIDDEN
 62
     7
370
     0
100
AcDbLine
 10
159.8232557612
 20
119.9532728441
 30
0.0
 11
160.4117729576
 21
120.4842601414
 31
0.0
  0
LINE
  5
1A0
330
1F
100
AcDbEntity
  8
0
  6
HIDDEN
 62
     7
370
     0
100
AcDbLine
 10
160.8217837152
 20
122.5606275066
 30
0.0
 11
160.4792729734
 21
123.2754606284
 31
0.0
  0
LINE
  5
1A1
330
1F
100
AcDbEntity
  8
0
  6
HIDDEN
 62
     7
370
     0
100
AcDbLine
 10
157.5195777332
 20
120.0954141254
 30
0.0
 11
159.2731348917
 21
119.7491472215
 31
0.0
  0
LINE
  5
1A2
330
1F
100
AcDbEntity
  8
0
  6
HIDDEN
 62
     7
370
     0
100
AcDbLine
 10
160.0480333965
 20
123.6733710055
 30
0.0
 11
158.294476238
 21
124.0196379095
 31
0.0
  0
LINE
  5
1A3
330
1F
100
AcDbEntity
  8
0
  6
HIDDEN
 62
     7
370
     0
100
AcDbLine
 10
157.207260832
 20
122.9855673234
 30
0.0
 11
157.1487152319
 21
122.843105026
 31
0.0
  0
LINE
  5
1A4
330
1F
100
AcDbEntity
  8
0
  6
HIDDEN
 62
     7
370
     0
100
AcDbLine
 10
156.9070269856
 20
121.619152781
 30
0.0
 11
156.9070269856
 21
121.465129752
 31
0.0
  0
LINE
  5
1A5
330
1F
100
AcDbEntity
  8
0
  6
HIDDEN
 62
     7
370
     0
100
AcDbLine
 10
168.5620269856
 20
122.0839813676
 30
0.0
 11
168.5620269856
 21
121.0602880145
 31
0.0
  0
LINE
  5
1A6
330
1F
100
AcDbEntity
  8
0
  6
HIDDEN
 62
     7
370
     0
100
AcDbLine
 10
173.5620269856
 20
121.0602880145
 30
0.0
 11
173.5620269856
 21
122.0839813676
 31
0.0
  0
DIMENSION
  5
1A7
330
1F
100
AcDbEntity
  8
VERMASSUNG
100
AcDbDimension
  2
_D
 10
84.1295678291
 20
144.6083196822
 30
0.0
 11
84.1295678291
 21
113.1083196822
 31
0.0
 70
   160
  1
MAS-BT 40 %%c<>
 71
     2
 42
-1.0
  3
SLDDIMSTYLE0
100
AcDbAlignedDimension
 13
180.4620269856
 23
81.6083196822
 33
0.0
 14
180.4620269856
 24
144.6083196822
 34
0.0
 50
90.0
100
AcDbRotatedDimension
  0
DIMENSION
  5
1B4
330
1F
100
AcDbEntity
  8
VERMASSUNG
100
AcDbDimension
  2
_D_1
 10
208.4620269856
 20
148.7083196822
 30
0.0
 11
194.9620269856
 21
148.7083196822
 31
0.0
 70
   160
  1
<>
 71
     2
 42
-1.0
  3
SLDDIMSTYLE0
100
AcDbAlignedDimension
 13
181.4620269856
 23
143.6083196822
 33
0.0
 14
208.4620269856
 24
132.7083196822
 34
0.0
100
AcDbRotatedDimension
  0
DIMENSION
  5
1BE
330
1F
100
AcDbEntity
  8
VERMASSUNG
100
AcDbDimension
  2
_D_2
 10
154.4620269856
 20
154.7083196822
 30
0.0
 11
181.4620269856
 21
154.7083196822
 31
0.0
 70
   160
  1
<>
 71
     2
 42
-1.0
  3
SLDDIMSTYLE0
100
AcDbAlignedDimension
 13
208.4620269856
 23
132.7083196822
 33
0.0
 14
154.4620269856
 24
135.3333196822
 34
0.0
100
AcDbRotatedDimension
  0
DIMENSION
  5
1C8
330
1F
100
AcDbEntity
  8
VERMASSUNG
100
AcDbDimension
  2
_D_3
 10
89.0620269856
 20
160.7083196822
 30
0.0
 11
148.7620269856
 21
160.7083196822
 31
0.0
 70
   160
  1
<>
 71
     2
 42
-1.0
  3
SLDDIMSTYLE0
100
AcDbAlignedDimension
 13
208.4620269856
 23
132.7083196822
 33
0.0
 14
89.0620269856
 24
124.9310752792
 34
0.0
100
AcDbRotatedDimension
  0
DIMENSION
  5
1D2
330
1F
100
AcDbEntity
  8
VERMASSUNG
100
AcDbDimension
  2
_D_4
 10
214.7073087168
 20
124.1083196822
 30
0.0
 11
214.7073087168
 21
113.1083196822
 31
0.0
 70
   160
  1
%%c<>
 71
     2
 42
-1.0
  3
SLDDIMSTYLE0
100
AcDbAlignedDimension
 13
207.4620269856
 23
102.1083196822
 33
0.0
 14
207.4620269856
 24
124.1083196822
 34
0.0
 50
90.0
100
AcDbRotatedDimension
  0
DIMENSION
  5
1DD
330
1F
100
AcDbEntity
  8
VERMASSUNG
100
AcDbDimension
  2
_D_5
 10
220.8073087168
 20
93.1083196822
 30
0.0
 11
220.8073087168
 21
113.1083196822
 31
0.0
 70
   160
  1
WH %%c<>
 71
     2
 42
-1.0
  3
SLDDIMSTYLE0
100
AcDbAlignedDimension
 13
208.0620269856
 23
133.1083196822
 33
0.0
 14
208.0620269856
 24
93.1083196822
 34
0.0
 50
90.0
100
AcDbRotatedDimension
  0
LINE
  5
1E9
330
1F
100
AcDbEntity
  8
VERMASSUNG
  6
CENTERX2
370
     0
100
AcDbLine
 10
169.4120269856
 20
146.2945392757
 30
0.0
 11
169.4120269856
 21
130.7863215156
 31
0.0
  0
LINE
  5
1EA
330
1F
100
AcDbEntity
  8
VERMASSUNG
  6
CENTERX2
370
     0
100
AcDbLine
 10
169.4120269856
 20
79.9220640645
 30
0.0
 11
169.4120269856
 21
95.4302947262
 31
0.0
  0
LINE
  5
1EB
330
1F
100
AcDbEntity
  8
VERMASSUNG
  6
CENTERX2
370
     0
100
AcDbLine
 10
87.9406909736
 20
113.1083196822
 30
0.0
 11
209.0002006722
 21
113.1083196822
 31
0.0
  0
LINE
  5
1EC
330
1F
100
AcDbEntity
  8
0
  6
Continuous
 62
     7
370
    15
100
AcDbLine
 10
267.0892521831
 20
45.8759292636
 30
0.0
 11
267.0185300153
 21
45.9167695732
 31
0.0
  0
LINE
  5
1ED
330
1F
100
AcDbEntity
  8
0
  6
Continuous
 62
     7
370
    15
100
AcDbLine
 10
263.9774768003
 20
45.9167695732
 30
0.0
 11
263.9067546325
 21
45.8759292636
 31
0.0
  0
LINE
  5
1EE
330
1F
100
AcDbEntity
  8
0
  6
Continuous
 62
     7
370
    15
100
AcDbLine
 10
267.5183762313
 20
36.9919304086
 30
0.0
 11
270.0743999169
 21
37.5127010929
 31
0.0
  0
LINE
  5
1EF
330
1F
100
AcDbEntity
  8
0
  6
Continuous
 62
     7
370
    15
100
AcDbLine
 10
269.6180496556
 20
27.0458053836
 30
0.0
 11
269.7594480269
 21
27.1274594637
 31
0.0
  0
LINE
  5
1F0
330
1F
100
AcDbEntity
  8
0
  6
Continuous
 62
     7
370
    15
100
AcDbLine
 10
276.6879682201
 20
39.129308885
 30
0.0
 11
276.6879682201
 21
39.2925905073
 31
0.0
  0
LINE
  5
1F1
330
1F
100
AcDbEntity
  8
0
  6
Continuous
 62
     7
370
    15
100
AcDbLine
 10
274.6164940714
 20
43.871038572
 30
0.0
 11
266.2726340534
 21
48.6878464318
 31
0.0
  0
LINE
  5
1F2
330
1F
100
AcDbEntity
  8
0
  6
Continuous
 62
     7
370
    15
100
AcDbLine
 10
256.273446727
 20
31.3668691841
 30
0.0
 11
264.617306745
 21
26.5500613244
 31
0.0
  0
SPLINE
  5
1F3
330
1F
100
AcDbEntity
  8
0
  6
Continuous
 62
     7
370
    15
100
AcDbSpline
210
0.0
220
0.0
230
1.0
 70
     8
 71
     3
 72
    17
 73
    13
 74
     0
 42
0.000000001
 43
0.00000001
 40
0.0
 40
0.0
 40
0.0
 40
0.0
 40
0.0795573149283192
 40
0.1920679810477895
 40
0.3052767254620423
 40
0.4192060585940465
 40
0.5337572125340649
 40
0.6487699639690647
 40
0.7640776557049359
 40
0.8795406932874459
 40
0.9950554872385462
 40
1.0
 40
1.0
 40
1.0
 40
1.0
 10
253.4881965417575
 20
26.61373949100092
 30
0.0
 10
253.6674139602106
 20
26.5706266365757
 30
0.0
 10
254.1000822542813
 20
26.46654319793625
 30
0.0
 10
254.8290153069167
 20
26.41137641915314
 30
0.0
 10
255.6634090829034
 20
26.43270016711345
 30
0.0
 10
256.527435601284
 20
26.55297483369824
 30
0.0
 10
257.4137525769364
 20
26.76728211110614
 30
0.0
 10
258.3165864240617
 20
27.07643628593003
 30
0.0
 10
259.2298224047504
 20
27.47490453446181
 30
0.0
 10
260.1455336579711
 20
27.97143821717478
 30
0.0
 10
260.7703779069941
 20
28.34430847269784
 30
0.0
 10
261.0847677364579
 20
28.57253485264166
 30
0.0
 10
261.0976725469394
 20
28.58190289799182
 30
0.0
  0
SPLINE
  5
1F4
330
1F
100
AcDbEntity
  8
0
  6
Continuous
 62
     7
370
    15
100
AcDbSpline
210
0.0
220
0.0
230
1.0
 70
     8
 71
     3
 72
    17
 73
    13
 74
     0
 42
0.000000001
 43
0.00000001
 40
0.0
 40
0.0
 40
0.0
 40
0.0
 40
0.0007786670557422
 40
0.1164201073344436
 40
0.2321439346729768
 40
0.3479227520048291
 40
0.4636806532799502
 40
0.5793099425551212
 40
0.6946621552586021
 40
0.8095542636228776
 40
0.92380267577604
 40
0.9999999999999999
 40
0.9999999999999999
 40
0.9999999999999999
 40
0.9999999999999999
 10
271.0980430661663
 20
45.90219710290276
 30
0.0
 10
271.0983078914557
 20
45.90469554217059
 30
0.0
 10
271.1379024632321
 20
46.27824231750164
 30
0.0
 10
271.1488763267419
 20
46.99446758584192
 30
0.0
 10
271.1239896103973
 20
48.03979198955946
 30
0.0
 10
271.0142329358552
 20
49.03545816047741
 30
0.0
 10
270.8313779669441
 20
49.97944950941396
 30
0.0
 10
270.5728040291648
 20
50.86341579937759
 30
0.0
 10
270.2416460900918
 20
51.68218632090048
 30
0.0
 10
269.8367796108477
 20
52.4252129281715
 30
0.0
 10
269.4238670027883
 20
53.02827475188031
 30
0.0
 10
269.1189560874798
 20
53.3467277264253
 30
0.0
 10
268.9969612541212
 20
53.4741407366249
 30
0.0
  0
LINE
  5
1F5
330
1F
100
AcDbEntity
  8
0
  6
Continuous
 62
     7
370
    15
100
AcDbLine
 10
250.4376707245
 20
28.0964427096
 30
0.0
 11
251.9844668083
 21
27.2034963373
 31
0.0
  0
LINE
  5
1F6
330
1F
100
AcDbEntity
  8
0
  6
Continuous
 62
     7
370
    15
100
AcDbLine
 10
267.7331868474
 20
54.4840355023
 30
0.0
 11
266.1863907635
 21
55.3769818746
 31
0.0
  0
SPLINE
  5
1F7
330
1F
100
AcDbEntity
  8
0
  6
Continuous
 62
     7
370
    15
100
AcDbSpline
210
0.0
220
0.0
230
1.0
 70
     8
 71
     3
 72
    25
 73
    21
 74
     0
 42
0.000000001
 43
0.00000001
 40
0.0
 40
0.0
 40
0.0
 40
0.0
 40
0.025354919584495
 40
0.0887202098321788
 40
0.1499967180055727
 40
0.208612291760871
 40
0.2657518675273889
 40
0.3223356468235419
 40
0.3788142949805035
 40
0.4353451944690853
 40
0.4920181770908569
 40
0.5488406365352121
 40
0.605783541097676
 40
0.6628031158281834
 40
0.7198501657105578
 40
0.7768650556300714
 40
0.8337873128001981
 40
0.8905656894516348
 40
0.9471537598967071
 40
1.0
 40
1.0
 40
1.0
 40
1.0
 10
266.6341518408113
 20
30.59566696782284
 30
0.0
 10
266.587796713326
 20
30.62041360083823
 30
0.0
 10
266.4255940045543
 20
30.7070053356867
 30
0.0
 10
266.2016344770016
 20
30.94556719967232
 30
0.0
 10
265.965373775506
 20
31.3126745060311
 30
0.0
 10
265.7950018657718
 20
31.76042299548426
 30
0.0
 10
265.6894747226586
 20
32.27067668295592
 30
0.0
 10
265.6509184700547
 20
32.83743321088558
 30
0.0
 10
265.6806047329052
 20
33.45152937372213
 30
0.0
 10
265.7793462593456
 20
34.10231329608937
 30
0.0
 10
265.9464747648901
 20
34.77754454197537
 30
0.0
 10
266.1798057183416
 20
35.46428666523155
 30
0.0
 10
266.475539687124
 20
36.14908360338536
 30
0.0
 10
266.8283545007747
 20
36.81842353238765
 30
0.0
 10
267.2315238519633
 20
37.45913313134825
 30
0.0
 10
267.6770275117454
 20
38.05846630405092
 30
0.0
 10
268.1558024050986
 20
38.60529674348277
 30
0.0
 10
268.6576123020936
 20
39.08723044251747
 30
0.0
 10
269.1617427425778
 20
39.49418476598043
 30
0.0
 10
269.494202156019
 20
39.69989389372161
 30
0.0
 10
269.6547480570191
 20
39.79923160509912
 30
0.0
  0
SPLINE
  5
1F8
330
1F
100
AcDbEntity
  8
0
  6
Continuous
 62
     7
370
    15
100
AcDbSpline
210
0.0
220
0.0
230
1.0
 70
     8
 71
     3
 72
    14
 73
    10
 74
     0
 42
0.000000001
 43
0.00000001
 40
0.0
 40
0.0
 40
0.0
 40
0.0
 40
0.0892328903216452
 40
0.2595684275211578
 40
0.4297739461149771
 40
0.600667202652239
 40
0.7741902887754598
 40
0.953482500655891
 40
1.0
 40
1.0
 40
1.0
 40
1.0
 10
269.6547480570191
 20
39.79923160509912
 30
0.0
 10
269.7433545595229
 20
39.84824900492748
 30
0.0
 10
270.0011008954327
 20
39.99083510013033
 30
0.0
 10
270.4182931213087
 20
40.16337218994467
 30
0.0
 10
270.8883537020672
 20
40.28601813935859
 30
0.0
 10
271.3241092263978
 20
40.32474476907511
 30
0.0
 10
271.7164332141284
 20
40.27630600034799
 30
0.0
 10
271.9875321412499
 20
40.19938925311973
 30
0.0
 10
272.1148125838007
 20
40.11151869805278
 30
0.0
 10
272.1410327488714
 20
40.09341709176877
 30
0.0
  0
LINE
  5
1F9
330
1F
100
AcDbEntity
  8
0
  6
Continuous
 62
     7
370
    15
100
AcDbLine
 10
262.633179188
 20
57.4282072555
 30
0.0
 11
259.6014588637
 21
59.1783821453
 31
0.0
  0
SPLINE
  5
1FA
330
1F
100
AcDbEntity
  8
0
  6
Continuous
 62
     7
370
    15
100
AcDbSpline
210
0.0
220
0.0
230
1.0
 70
     8
 71
     3
 72
    31
 73
    27
 74
     0
 42
0.000000001
 43
0.00000001
 40
0.0
 40
0.0
 40
0.0
 40
0.0
 40
0.039621308794287
 40
0.0817320545073413
 40
0.1241106274718163
 40
0.1667532974967846
 40
0.2096157690052393
 40
0.2526360152946532
 40
0.2957532968829245
 40
0.3389186297236298
 40
0.3820950489194806
 40
0.4252589794936992
 40
0.46840145516479
 40
0.5115193559945982
 40
0.554613236044624
 40
0.5976858445699997
 40
0.6407411833402923
 40
0.6837839377990382
 40
0.7268191528819771
 40
0.7698520607461431
 40
0.8128876167949799
 40
0.8559298114434917
 40
0.8989840730411294
 40
0.9420558070823383
 40
0.9851502771087401
 40
0.9999999999999999
 40
0.9999999999999999
 40
0.9999999999999999
 40
0.9999999999999999
 10
258.1043157708542
 20
59.77451278557002
 30
0.0
 10
257.8630993190934
 20
59.82592900496977
 30
0.0
 10
257.365510602735
 20
59.93199196387808
 30
0.0
 10
256.5672682324839
 20
59.974243542495
 30
0.0
 10
255.7254772649004
 20
59.9298492934076
 30
0.0
 10
254.8558146759993
 20
59.78788863998718
 30
0.0
 10
253.9651192856557
 20
59.55155451470775
 30
0.0
 10
253.059322573865
 20
59.22153213692823
 30
0.0
 10
252.1449237026862
 20
58.80033093634172
 30
0.0
 10
251.22830950169
 20
58.29101079844974
 30
0.0
 10
250.3157561534002
 20
57.69736348315502
 30
0.0
 10
249.4133182404589
 20
57.02369397252547
 30
0.0
 10
248.5268269050704
 20
56.27474470223442
 30
0.0
 10
247.6619085462317
 20
55.45563721533008
 30
0.0
 10
246.8240270436341
 20
54.57187536410392
 30
0.0
 10
246.018472868607
 20
53.629321996436
 30
0.0
 10
245.250343003573
 20
52.63417352186843
 30
0.0
 10
244.5245176310644
 20
51.59293034291288
 30
0.0
 10
243.8456253760516
 20
50.51236045043117
 30
0.0
 10
243.2180428635269
 20
49.39946929216318
 30
0.0
 10
242.645774612535
 20
48.2614444137805
 30
0.0
 10
242.1327804382708
 20
47.10567980986025
 30
0.0
 10
241.6816040556066
 20
45.93941846884993
 30
0.0
 10
241.2983895040888
 20
44.77083405443128
 30
0.0
 10
241.0449923430651
 20
43.85973793836977
 30
0.0
 10
240.9312632125282
 20
43.34330253957143
 30
0.0
 10
240.9021171326866
 20
43.21095239062224
 30
0.0
  0
LINE
  5
1FB
330
1F
100
AcDbEntity
  8
0
  6
Continuous
 62
     7
370
    15
100
AcDbLine
 10
250.5949807097
 20
57.8645482785
 30
0.0
 11
230.7019611862
 21
65.0332039827
 31
0.0
  0
LINE
  5
1FC
330
1F
100
AcDbEntity
  8
0
  6
Continuous
 62
     7
370
    15
100
AcDbLine
 10
224.3304917749
 20
53.9962993717
 30
0.0
 11
243.3583658612
 21
37.9293197943
 31
0.0
  0
LINE
  5
1FD
330
1F
100
AcDbEntity
  8
0
  6
Continuous
 62
     7
370
    15
100
AcDbLine
 10
243.8527388247
 20
31.8978429803
 30
0.0
 11
246.884459149
 21
30.1476680905
 31
0.0
  0
SPLINE
  5
1FE
330
1F
100
AcDbEntity
  8
0
  6
Continuous
 62
     7
370
    15
100
AcDbSpline
210
0.0
220
0.0
230
1.0
 70
     8
 71
     3
 72
    12
 73
     8
 74
     0
 42
0.000000001
 43
0.00000001
 40
0.0
 40
0.0
 40
0.0
 40
0.0
 40
0.080843718943489
 40
0.3227039237445168
 40
0.5638986797775689
 40
0.8038037243623193
 40
1.0
 40
1.0
 40
1.0
 40
1.0
 10
240.8895084435929
 20
35.96457519408173
 30
0.0
 10
240.9181339486832
 20
35.86634273629964
 30
0.0
 10
241.0323983953532
 20
35.47422817279834
 30
0.0
 10
241.2850209342348
 20
34.83313073303174
 30
0.0
 10
241.6758905060542
 20
34.07580121544468
 30
0.0
 10
242.1037795279394
 20
33.42859000857894
 30
0.0
 10
242.4307972823279
 20
33.07346796416079
 30
0.0
 10
242.5779182895417
 20
32.91370320473254
 30
0.0
  0
SPLINE
  5
1FF
330
1F
100
AcDbEntity
  8
0
  6
Continuous
 62
     7
370
    15
100
AcDbSpline
210
0.0
220
0.0
230
1.0
 70
     8
 71
     3
 72
    25
 73
    21
 74
     0
 42
0.000000001
 43
0.00000001
 40
0.0
 40
0.0
 40
0.0
 40
0.0
 40
0.0333577104700368
 40
0.0887768915458268
 40
0.1452004606039748
 40
0.2027887059325798
 40
0.2612993771215977
 40
0.3203259364499876
 40
0.3795169970656934
 40
0.4386506694187138
 40
0.4976782556562464
 40
0.5566054513852589
 40
0.6154628315212841
 40
0.6742912600645882
 40
0.7331357734201538
 40
0.7920284861096858
 40
0.8510167595871929
 40
0.9101474451418875
 40
0.9694604150355839
 40
1.0
 40
1.0
 40
1.0
 40
1.0
 10
230.5286496974859
 20
65.07633422818856
 30
0.0
 10
230.4297353825029
 20
65.10556568592861
 30
0.0
 10
230.1664887360802
 20
65.18336113162762
 30
0.0
 10
229.700879513893
 20
65.20333740767653
 30
0.0
 10
229.1448309684668
 20
65.14742169593062
 30
0.0
 10
228.566038726775
 20
64.99245229836822
 30
0.0
 10
227.974832750452
 20
64.74476349631045
 30
0.0
 10
227.3810293628331
 20
64.40646443680025
 30
0.0
 10
226.7957190190921
 20
63.98434654890215
 30
0.0
 10
226.228989187858
 20
63.48644054958727
 30
0.0
 10
225.6898808979477
 20
62.92180660240883
 30
0.0
 10
225.1864790790553
 20
62.29991689225174
 30
0.0
 10
224.7262862271847
 20
61.63080582657243
 30
0.0
 10
224.3162427519871
 20
60.92500211905626
 30
0.0
 10
223.9626691151244
 20
60.19346852999737
 30
0.0
 10
223.6713026543438
 20
59.44748168443635
 30
0.0
 10
223.4466821828023
 20
58.6981556287681
 30
0.0
 10
223.2942558167281
 20
57.95731486935997
 30
0.0
 10
223.2258372352744
 20
57.35120175959512
 30
0.0
 10
223.219708171076
 20
57.00067860763976
 30
0.0
 10
223.2176249907241
 20
56.88154085359326
 30
0.0
  0
SPLINE
  5
200
330
1F
100
AcDbEntity
  8
0
  6
Continuous
 62
     7
370
    15
100
AcDbSpline
210
0.0
220
0.0
230
1.0
 70
     8
 71
     3
 72
    13
 73
     9
 74
     0
 42
0.000000001
 43
0.00000001
 40
0.0
 40
0.0
 40
0.0
 40
0.0
 40
0.1043412342946585
 40
0.301655808070682
 40
0.4990049681465095
 40
0.6948144373748241
 40
0.8873793154613151
 40
1.0
 40
1.0
 40
1.0
 40
1.0
 10
223.2176249907241
 20
56.88154085359326
 30
0.0
 10
223.2198364233139
 20
56.76062140434808
 30
0.0
 10
223.2262297872544
 20
56.41103713481079
 30
0.0
 10
223.2979864125238
 20
55.8643462241513
 30
0.0
 10
223.4588359193835
 20
55.26627697158135
 30
0.0
 10
223.7034642669101
 20
54.73794100226401
 30
0.0
 10
223.970862204713
 20
54.33386149536535
 30
0.0
 10
224.1829839906176
 20
54.14436977858802
 30
0.0
 10
224.2612619423289
 20
54.07444285716257
 30
0.0
  0
LWPOLYLINE
  5
201
330
1F
100
AcDbEntity
  8
0
  6
Continuous
 62
     7
370
    15
100
AcDbPolyline
 90
        7
 70
   128
 43
0.0
 10
263.4912820094
 20
45.4847844901
 10
263.3673999542
 20
45.2056174352
 10
263.3583792827
 20
44.9174827347
 10
263.4647063016
 20
44.635913805
 10
263.6806488937
 20
44.3760900999
 10
263.9945655382
 20
44.1520187826
 10
264.0946795697
 20
44.0989530971
  0
LWPOLYLINE
  5
202
330
1F
100
AcDbEntity
  8
0
  6
Continuous
 62
     7
370
    15
100
AcDbPolyline
 90
       18
 70
   128
 43
0.0
 10
267.0884582963
 20
44.2041088837
 10
267.1197570414
 20
44.2244149239
 10
267.4015635362
 20
44.4622863736
 10
267.5807486118
 20
44.7312633477
 10
267.6476523543
 20
45.0168452279
 10
267.5986679657
 20
45.3036362211
 10
267.4364362071
 20
45.5761753506
 10
267.1697030345
 20
45.8197699614
 10
266.8128481023
 20
46.0212878051
 10
266.3851095523
 20
46.1698650023
 10
265.9095468805
 20
46.2574917181
 10
265.4117977935
 20
46.2794439735
 10
264.9186960735
 20
46.2345383167
 10
264.4568249618
 20
46.1251956233
 10
264.0510840497
 20
45.9573105862
 10
263.7233469346
 20
45.7399339312
 10
263.4912820094
 20
45.4847844901
 10
263.4912820094
 20
45.4847844901
  0
LWPOLYLINE
  5
203
330
1F
100
AcDbEntity
  8
0
  6
Continuous
 62
     7
370
    15
100
AcDbPolyline
 90
       23
 70
   128
 43
0.0
 10
264.0979652229
 20
45.3500951156
 10
264.0029869523
 20
45.1098014047
 10
264.0291260237
 20
44.8637939409
 10
264.1742648051
 20
44.632002786
 10
264.4266450154
 20
44.4332062807
 10
264.7658203111
 20
44.2835097357
 10
265.1643127268
 20
44.1950406748
 10
265.589838777
 20
44.1749663351
 10
266.0079248717
 20
44.2249130202
 10
266.384700162
 20
44.3408343467
 10
266.6896405547
 20
44.5133390583
 10
266.8980415927
 20
44.728451849
 10
266.9930198633
 20
44.96874556
 10
266.9668807919
 20
45.2147530238
 10
266.8217420105
 20
45.4465441787
 10
266.5693618002
 20
45.645340684
 10
266.2301865045
 20
45.795037229
 10
265.8316940888
 20
45.8835062899
 10
265.4061680386
 20
45.9035806296
 10
264.9880819439
 20
45.8536339445
 10
264.6113066536
 20
45.7377126179
 10
264.3063662609
 20
45.5652079064
 10
264.0979652229
 20
45.3500951156
  0
SPLINE
  5
204
330
1F
100
AcDbEntity
  8
0
  6
Continuous
 62
     7
370
    15
100
AcDbSpline
210
0.0
220
0.0
230
1.0
 70
     8
 71
     3
 72
    10
 73
     6
 74
     0
 42
0.000000001
 43
0.00000001
 40
0.0
 40
0.0
 40
0.0
 40
0.0
 40
0.3673815674533417
 40
0.7473236039052623
 40
0.9999999999999999
 40
0.9999999999999999
 40
0.9999999999999999
 40
0.9999999999999999
 10
264.0722588244537
 20
44.86319807838902
 30
0.0
 10
264.1343583192545
 20
44.78275479287751
 30
0.0
 10
264.2606804387254
 20
44.61911793309938
 30
0.0
 10
264.4456382517475
 20
44.42616201580794
 30
0.0
 10
264.5623902180198
 20
44.36819774079638
 30
0.0
 10
264.609022539427
 20
44.34504602191078
 30
0.0
  0
SPLINE
  5
205
330
1F
100
AcDbEntity
  8
0
  6
Continuous
 62
     7
370
    15
100
AcDbSpline
210
0.0
220
0.0
230
1.0
 70
     8
 71
     3
 72
    14
 73
    10
 74
     0
 42
0.000000001
 43
0.00000001
 40
0.0
 40
0.0
 40
0.0
 40
0.0
 40
0.0722423063665632
 40
0.2600317044156029
 40
0.4537121981155157
 40
0.6504265003839277
 40
0.8541493744775727
 40
0.9270088858691667
 40
1.0
 40
1.0
 40
1.0
 40
1.0
 10
266.4653520004109
 20
44.37399642435241
 30
0.0
 10
266.4759670996169
 20
44.38017014390341
 30
0.0
 10
266.5141754913182
 20
44.40239206479952
 30
0.0
 10
266.5840768375746
 20
44.46531599106618
 30
0.0
 10
266.675958407983
 20
44.58576515689555
 30
0.0
 10
266.769979415512
 20
44.75501734068034
 30
0.0
 10
266.8415902853856
 20
44.9156214550528
 30
0.0
 10
266.892565827803
 20
45.0415201460048
 30
0.0
 10
266.9133476861325
 20
45.09574156604058
 30
0.0
 10
266.9237479911552
 20
45.1228767383718
 30
0.0
  0
SPLINE
  5
206
330
1F
100
AcDbEntity
  8
0
  6
Continuous
 62
     7
370
    15
100
AcDbSpline
210
0.0
220
0.0
230
1.0
 70
     8
 71
     3
 72
    11
 73
     7
 74
     0
 42
0.000000001
 43
0.00000001
 40
0.0
 40
0.0
 40
0.0
 40
0.0
 40
0.2164543009645002
 40
0.4403089937225187
 40
0.7518987489759386
 40
1.0
 40
1.0
 40
1.0
 40
1.0
 10
266.9237479911552
 20
45.1228767383718
 30
0.0
 10
266.8615732382526
 20
45.13028851562464
 30
0.0
 10
266.7350980295665
 20
45.14536547260519
 30
0.0
 10
266.5003932808514
 20
45.25021585658973
 30
0.0
 10
266.2486291149928
 20
45.46771325694986
 30
0.0
 10
266.0875147740077
 20
45.6776782904417
 30
0.0
 10
266.0160955996633
 20
45.770752123854
 30
0.0
  0
SPLINE
  5
207
330
1F
100
AcDbEntity
  8
0
  6
Continuous
 62
     7
370
    15
100
AcDbSpline
210
0.0
220
0.0
230
1.0
 70
     8
 71
     3
 72
    15
 73
    11
 74
     0
 42
0.000000001
 43
0.00000001
 40
0.0
 40
0.0
 40
0.0
 40
0.0
 40
0.1077864249424352
 40
0.216169103219374
 40
0.3273133803425688
 40
0.4399575567902405
 40
0.5934881890594474
 40
0.7521499596953797
 40
0.875507285715614
 40
1.0
 40
1.0
 40
1.0
 40
1.0
 10
266.0160955996633
 20
45.770752123854
 30
0.0
 10
265.9678276862287
 20
45.74726540324734
 30
0.0
 10
265.871024850742
 20
45.70016203810819
 30
0.0
 10
265.7184067319524
 20
45.63969684360266
 30
0.0
 10
265.5588357555241
 20
45.59001987094793
 30
0.0
 10
265.3729244414366
 20
45.55149675851962
 30
0.0
 10
265.1608350051504
 20
45.53571440103158
 30
0.0
 10
264.9482833091275
 20
45.55309054568938
 30
0.0
 10
264.7573351512179
 20
45.59052741196279
 30
0.0
 10
264.6461821233788
 20
45.624066453023
 30
0.0
 10
264.5903510163125
 20
45.64091279386261
 30
0.0
  0
SPLINE
  5
208
330
1F
100
AcDbEntity
  8
0
  6
Continuous
 62
     7
370
    15
100
AcDbSpline
210
0.0
220
0.0
230
1.0
 70
     8
 71
     3
 72
    19
 73
    15
 74
     0
 42
0.000000001
 43
0.00000001
 40
0.0
 40
0.0
 40
0.0
 40
0.0
 40
0.0640054021493264
 40
0.128116011942031
 40
0.2145724298417733
 40
0.30151284842855
 40
0.3904126010252949
 40
0.4802147647062883
 40
0.5622196529512555
 40
0.6450138877094479
 40
0.7300216784293634
 40
0.8156488818491578
 40
0.9076252083954381
 40
1.0
 40
1.0
 40
1.0
 40
1.0
 10
264.5903510163125
 20
45.64091279386261
 30
0.0
 10
264.5799693308323
 20
45.61382463897021
 30
0.0
 10
264.5591888951769
 20
45.55960380355405
 30
0.0
 10
264.5235583032511
 20
45.47161721358961
 30
0.0
 10
264.4832664903267
 20
45.3777690202796
 30
0.0
 10
264.4376296851026
 20
45.2803541732989
 30
0.0
 10
264.3904195077943
 20
45.18980801847091
 30
0.0
 10
264.3434412632766
 20
45.11090992207965
 30
0.0
 10
264.2974525131456
 20
45.04457290197257
 30
0.0
 10
264.2526664243718
 20
44.99004707358336
 30
0.0
 10
264.2079572236309
 20
44.94533390669186
 30
0.0
 10
264.1626770452584
 20
44.90936689556324
 30
0.0
 10
264.1172488744697
 20
44.88145157437068
 30
0.0
 10
264.0872771019189
 20
44.86929133828236
 30
0.0
 10
264.0722588244537
 20
44.86319807838902
 30
0.0
  0
LINE
  5
209
330
1F
100
AcDbEntity
  8
0
  6
Continuous
 62
     7
370
    15
100
AcDbLine
 10
264.5903510163
 20
44.3498635664
 30
0.0
 11
264.5903510163
 21
45.6409127939
 31
0.0
  0
LINE
  5
20A
330
1F
100
AcDbEntity
  8
0
  6
Continuous
 62
     7
370
    15
100
AcDbLine
 10
266.0160955997
 20
44.2266335278
 30
0.0
 11
266.0160955997
 21
45.7707521239
 31
0.0
  0
ARC
  5
20B
330
1F
100
AcDbEntity
  8
0
  6
Continuous
 62
     7
370
    15
100
AcDbCircle
 10
267.3508515072
 20
37.6370025747
 30
0.0
 40
0.6577166943174865
100
AcDbArc
 50
239.4828696936
 51
319.6131708814
  0
LWPOLYLINE
  5
20C
330
1F
100
AcDbEntity
  8
0
  6
Continuous
 62
     7
370
    15
100
AcDbPolyline
 90
        9
 70
   128
 43
0.0
 10
270.8093788828
 20
40.2509608005
 10
270.8976383444
 20
40.0513178357
 10
271.0633515586
 20
39.5578705872
 10
271.1511392865
 20
39.0775720743
 10
271.1568966715
 20
38.6328805216
 10
271.0803545047
 20
38.244589212
 10
270.9250918128
 20
37.9308542154
 10
270.6983685065
 20
37.7063454317
 10
270.6467115112
 20
37.6739513424
  0
LWPOLYLINE
  5
20D
330
1F
100
AcDbEntity
  8
0
  6
Continuous
 62
     7
370
    15
100
AcDbPolyline
 90
       59
 70
   128
 43
0.0
 10
269.7583217645
 20
43.1310090935
 10
269.0090951916
 20
42.6515811466
 10
268.2686526154
 20
42.0839567485
 10
267.5456750479
 20
41.4347907762
 10
266.8486387401
 20
40.7116941072
 10
266.1857158054
 20
39.9231443888
 10
265.5646784091
 20
39.0783866455
 10
264.9928076469
 20
38.1873248895
 10
264.4768081805
 20
37.2604060051
 10
264.022729632
 20
36.3084972687
 10
263.6358956572
 20
35.3427589401
 10
263.3208415306
 20
34.374513418
 10
263.081260974
 20
33.4151124959
 10
262.9199628502
 20
32.4758042726
 10
262.8388382323
 20
31.567601278
 10
262.8388382323
 20
30.7011513619
 10
262.9199628502
 20
29.8866128574
 10
263.081260974
 20
29.1335354837
 10
263.3208415306
 20
28.4507483845
 10
263.6358956572
 20
27.8462566142
 10
264.022729632
 20
27.3271472861
 10
264.4768081805
 20
26.8995064825
 10
264.9928076469
 20
26.5683479008
 10
265.5646784091
 20
26.3375540727
 10
266.1857158054
 20
26.2098308446
 10
266.8486387401
 20
26.1866756547
 10
267.5456750479
 20
26.2683599765
 10
268.2686526154
 20
26.4539261358
 10
269.0090951916
 20
26.7411985393
 10
269.7583217645
 20
27.1268091805
 10
270.5075483373
 20
27.6062371274
 10
271.2479909135
 20
28.1738615255
 10
271.970968481
 20
28.8230274978
 10
272.6680047888
 20
29.5461241668
 10
273.3309277235
 20
30.3346738852
 10
273.9519651198
 20
31.1794316285
 10
274.523835882
 20
32.0704933845
 10
275.0398353484
 20
32.997412269
 10
275.4939138969
 20
33.9493210053
 10
275.8807478718
 20
34.915059334
 10
276.1958019983
 20
35.8833048561
 10
276.4353825549
 20
36.8427057781
 10
276.5966806787
 20
37.7820140015
 10
276.6778052966
 20
38.6902169961
 10
276.6778052966
 20
39.5566669121
 10
276.5966806787
 20
40.3712054166
 10
276.4353825549
 20
41.1242827903
 10
276.1958019983
 20
41.8070698895
 10
275.8807478718
 20
42.4115616599
 10
275.4939138969
 20
42.9306709879
 10
275.0398353484
 20
43.3583117915
 10
274.523835882
 20
43.6894703732
 10
273.9519651198
 20
43.9202642014
 10
273.3309277235
 20
44.0479874294
 10
272.6680047888
 20
44.0711426193
 10
271.970968481
 20
43.9894582976
 10
271.2479909135
 20
43.8038921382
 10
270.5075483373
 20
43.5166197347
 10
269.7583217645
 20
43.1310090935
  0
LWPOLYLINE
  5
20E
330
1F
100
AcDbEntity
  8
0
  6
Continuous
 62
     7
370
    15
100
AcDbPolyline
 90
       31
 70
   128
 43
0.0
 10
269.6169004082
 20
43.3759580671
 10
268.8523834972
 20
42.8867458764
 10
268.0968298479
 20
42.3075373069
 10
267.3590976362
 20
41.6451230494
 10
266.6478360976
 20
40.9072693056
 10
265.9713841234
 20
40.1026267358
 10
265.3376724946
 20
39.2406290385
 10
264.7541309005
 20
38.3313823487
 10
264.2276008328
 20
37.3855467523
 10
263.7642553751
 20
36.4142113071
 10
263.3695268293
 20
35.4287640329
 10
263.0480430267
 20
34.4407583981
 10
262.803573071
 20
33.4617778655
 10
262.6389831488
 20
32.5033000865
 10
262.5562029265
 20
31.5765623369
 10
262.5562029265
 20
30.6924297695
 10
262.6389831488
 20
29.8612680302
 10
262.803573071
 20
29.0928217306
 10
263.0480430267
 20
28.3961002007
 10
263.3695268293
 20
27.7792718637
 10
263.7642553751
 20
27.2495684677
 10
264.2276008328
 20
26.8132003008
 10
264.7541309005
 20
26.4752833807
 10
265.3376724946
 20
26.2397794744
 10
265.9713841234
 20
26.1094496498
 10
266.6478360976
 20
26.085821905
 10
267.3590976362
 20
26.1691732538
 10
268.0968298479
 20
26.3585264776
 10
268.8523834972
 20
26.6516615832
 10
269.6169004082
 20
27.0451418293
 10
269.6180496556
 20
27.0458053836
  0
LWPOLYLINE
  5
20F
330
1F
100
AcDbEntity
  8
0
  6
Continuous
 62
     7
370
    15
100
AcDbPolyline
 90
       16
 70
   128
 43
0.0
 10
276.6879682201
 20
39.2925905073
 10
276.67759789
 20
39.7286701269
 10
276.5948176677
 20
40.5598318662
 10
276.4302277454
 20
41.3282781658
 10
276.1857577897
 20
42.0249996957
 10
275.8642739871
 20
42.6418280327
 10
275.4695454413
 20
43.1715314287
 10
275.0061999837
 20
43.6078995956
 10
274.479669916
 20
43.9458165157
 10
273.8961283218
 20
44.181320422
 10
273.262416693
 20
44.3116502466
 10
272.5859647188
 20
44.3352779914
 10
271.8747031802
 20
44.2519266426
 10
271.1369709685
 20
44.0625734188
 10
270.3814173192
 20
43.7694383132
 10
269.6169004082
 20
43.3759580671
  0
SPLINE
  5
210
330
1F
100
AcDbEntity
  8
0
  6
Continuous
 62
     7
370
    15
100
AcDbSpline
210
0.0
220
0.0
230
1.0
 70
    11
 71
     3
 72
    88
 73
    84
 74
     0
 42
0.000000001
 43
0.00000001
 40
0.0
 40
0.0
 40
0.0
 40
0.0
 40
0.0312499999999999
 40
0.0312499999999999
 40
0.0624999999999999
 40
0.0624999999999999
 40
0.0937499999999998
 40
0.0937499999999998
 40
0.1093749999999998
 40
0.1093749999999998
 40
0.1249999999999998
 40
0.1249999999999998
 40
0.1562500000000003
 40
0.1562500000000003
 40
0.1718750000000002
 40
0.1718750000000002
 40
0.1875000000000002
 40
0.1875000000000002
 40
0.2187500000000001
 40
0.2187500000000001
 40
0.2343750000000001
 40
0.2343750000000001
 40
0.2500000000000001
 40
0.2500000000000001
 40
0.2812500000000005
 40
0.2812500000000005
 40
0.2968750000000008
 40
0.2968750000000008
 40
0.3125000000000012
 40
0.3125000000000012
 40
0.3437500000000017
 40
0.3437500000000017
 40
0.3593750000000019
 40
0.3593750000000019
 40
0.3750000000000022
 40
0.3750000000000022
 40
0.3906250000000024
 40
0.3906250000000024
 40
0.4062500000000027
 40
0.4062500000000027
 40
0.4375000000000032
 40
0.4375000000000032
 40
0.4531250000000033
 40
0.4531250000000033
 40
0.4687500000000033
 40
0.4687500000000033
 40
0.5000000000000031
 40
0.5000000000000031
 40
0.5312500000000029
 40
0.5312500000000029
 40
0.5625000000000027
 40
0.5625000000000027
 40
0.5937500000000023
 40
0.5937500000000023
 40
0.6250000000000021
 40
0.6250000000000021
 40
0.6562500000000018
 40
0.6562500000000018
 40
0.6875000000000016
 40
0.6875000000000016
 40
0.7187500000000012
 40
0.7187500000000012
 40
0.7500000000000009
 40
0.7500000000000009
 40
0.7812500000000008
 40
0.7812500000000008
 40
0.8125000000000006
 40
0.8125000000000006
 40
0.8281250000000007
 40
0.8281250000000007
 40
0.8437500000000008
 40
0.8437500000000008
 40
0.8750000000000007
 40
0.8750000000000007
 40
0.8906250000000007
 40
0.8906250000000007
 40
0.9062500000000007
 40
0.9062500000000007
 40
0.9375000000000004
 40
0.9375000000000004
 40
0.9687500000000003
 40
0.9687500000000003
 40
1.0
 40
1.0
 40
1.0
 40
1.0
 10
265.4724617382907
 20
47.26386943702807
 30
0.0
 10
265.6638994485025
 20
47.23023095218561
 30
0.0
 10
265.8502248906128
 20
47.18738400927913
 30
0.0
 10
266.2139070912817
 20
47.08702794110629
 30
0.0
 10
266.3921887349366
 20
47.02913724672698
 30
0.0
 10
266.7357104847793
 20
46.90164459923327
 30
0.0
 10
266.8981953098211
 20
46.83316875652523
 30
0.0
 10
267.128693087345
 20
46.72446859766122
 30
0.0
 10
267.2033054501766
 20
46.68722411127354
 30
0.0
 10
267.3480281422305
 20
46.61074680758693
 30
0.0
 10
267.4184125950167
 20
46.57133850715033
 30
0.0
 10
267.6192192085017
 20
46.45208287406405
 30
0.0
 10
267.7402230415683
 20
46.37086924745754
 30
0.0
 10
267.9027420146178
 20
46.24614412997605
 30
0.0
 10
267.9537313624804
 20
46.20407627693858
 30
0.0
 10
268.0491519150642
 20
46.11878563407637
 30
0.0
 10
268.0937145669675
 20
46.0753922090935
 30
0.0
 10
268.2148754607172
 20
45.94555205678282
 30
0.0
 10
268.2798704286313
 20
45.85884833925896
 30
0.0
 10
268.3533166258182
 20
45.72710581721396
 30
0.0
 10
268.3737644450497
 20
45.68290602724176
 30
0.0
 10
268.4061599707601
 20
45.59361353517046
 30
0.0
 10
268.4180916477396
 20
45.54835285259472
 30
0.0
 10
268.4397932291066
 20
45.41368402189926
 30
0.0
 10
268.4360689835531
 20
45.32452414077859
 30
0.0
 10
268.4015316066917
 20
45.18990921542945
 30
0.0
 10
268.3851583966127
 20
45.14489232580203
 30
0.0
 10
268.3418774232905
 20
45.0542489682446
 30
0.0
 10
268.3149080707366
 20
45.0086960542573
 30
0.0
 10
268.2198216275765
 20
44.87465939072857
 30
0.0
 10
268.1371483631161
 20
44.78745266729249
 30
0.0
 10
267.9821438047995
 20
44.65899276785714
 30
0.0
 10
267.924746454322
 20
44.61624084131438
 30
0.0
 10
267.801583605013
 20
44.53343951758674
 30
0.0
 10
267.735980991463
 20
44.49341635109575
 30
0.0
 10
267.5969317313668
 20
44.41603706677844
 30
0.0
 10
267.5234847325565
 20
44.37868110174941
 30
0.0
 10
267.3686869446451
 20
44.30670332655917
 30
0.0
 10
267.2867730983416
 20
44.27188582720109
 30
0.0
 10
267.0350788602634
 20
44.17421380624859
 30
0.0
 10
266.8584409472576
 20
44.11741992064967
 30
0.0
 10
266.5809882217468
 20
44.04498752309739
 30
0.0
 10
266.4866069658975
 20
44.02308227998522
 30
0.0
 10
266.2978773654755
 20
43.98458520587854
 30
0.0
 10
266.2030167712215
 20
43.96785427826298
 30
0.0
 10
265.916961486691
 20
43.92523506339379
 30
0.0
 10
265.7226225044184
 20
43.90688155241003
 30
0.0
 10
265.3423929766083
 20
43.89248054805458
 30
0.0
 10
265.1555346542234
 20
43.89610873798879
 30
0.0
 10
264.7877185791677
 20
43.92612414614296
 30
0.0
 10
264.6082861379227
 20
43.95261300491321
 30
0.0
 10
264.2670912948486
 20
44.02755404635229
 30
0.0
 10
264.1038503796789
 20
44.07610786666421
 30
0.0
 10
263.7922049372076
 20
44.19683430710252
 30
0.0
 10
263.6473146711845
 20
44.26773761744074
 30
0.0
 10
263.3809544912024
 20
44.42886523249487
 30
0.0
 10
263.2590404503778
 20
44.51925959848172
 30
0.0
 10
263.0388638668727
 20
44.72017688202045
 30
0.0
 10
262.9437019972058
 20
44.82788125181382
 30
0.0
 10
262.7828596779323
 20
45.05595779059688
 30
0.0
 10
262.7170537753735
 20
45.17649313579528
 30
0.0
 10
262.6175331274955
 20
45.42927062168108
 30
0.0
 10
262.5852927884993
 20
45.55768453093403
 30
0.0
 10
262.5563362384995
 20
45.81663129332092
 30
0.0
 10
262.5596718790083
 20
45.94776822454543
 30
0.0
 10
262.6067485390692
 20
46.20782004362145
 30
0.0
 10
262.6496344852923
 20
46.33277625691752
 30
0.0
 10
262.744174732426
 20
46.51089007097924
 30
0.0
 10
262.7807613169367
 20
46.56870062398565
 30
0.0
 10
262.8648210986426
 20
46.68078703547338
 30
0.0
 10
262.9126374083716
 20
46.73529744700295
 30
0.0
 10
263.0688630785188
 20
46.88807142032349
 30
0.0
 10
263.1908387628178
 20
46.97727389809965
 30
0.0
 10
263.4011791367646
 20
47.09133994518301
 30
0.0
 10
263.476392275375
 20
47.12619426226333
 30
0.0
 10
263.6319942093903
 20
47.18734231291525
 30
0.0
 10
263.7127318608595
 20
47.21389167899186
 30
0.0
 10
263.9634256047052
 20
47.28210021782651
 30
0.0
 10
264.1440663538373
 20
47.31243186080126
 30
0.0
 10
264.5129859861049
 20
47.34318556161467
 30
0.0
 10
264.7017953577424
 20
47.34419005316679
 30
0.0
 10
265.087866477368
 20
47.32126320194874
 30
0.0
 10
265.2810240280789
 20
47.29750792187052
 30
0.0
 10
265.4724617382907
 20
47.26386943702806
 30
0.0
  0
ARC
  5
211
330
1F
100
AcDbEntity
  8
0
  6
Continuous
 62
     7
370
    15
100
AcDbCircle
 10
265.0558890998
 20
49.8462921995
 30
0.0
 40
5.353755168683703
100
AcDbArc
 50
43.6359469001
 51
76.3341348135
  0
ARC
  5
212
330
1F
100
AcDbEntity
  8
0
  6
Continuous
 62
     7
370
    15
100
AcDbCircle
 10
254.6612590406
 20
31.8403154911
 30
0.0
 40
5.35273992952541
100
AcDbArc
 50
223.690011534
 51
256.3478001937
  0
ARC
  5
213
330
1F
100
AcDbEntity
  8
0
  6
Continuous
 62
     7
370
    15
100
AcDbCircle
 10
254.2194970203
 20
33.8567878292
 30
0.0
 40
6.890847990550923
100
AcDbArc
 50
188.312493873
 51
236.7139908619
  0
SPLINE
  5
214
330
1F
100
AcDbEntity
  8
0
  6
Continuous
 62
     7
370
    15
100
AcDbSpline
210
0.0
220
0.0
230
1.0
 70
     8
 71
     3
 72
    29
 73
    25
 74
     0
 42
0.000000001
 43
0.00000001
 40
0.0
 40
0.0
 40
0.0
 40
0.0
 40
0.0226170105025813
 40
0.0451713142227494
 40
0.067687022847175
 40
0.0901883721233939
 40
0.1126996441656912
 40
0.1352450890154609
 40
0.1578488467174853
 40
0.1805348711543707
 40
0.2033268568163237
 40
0.2262481695770471
 40
0.249321782405382
 40
0.3751991801869415
 40
0.4999614246460882
 40
0.4999717960762048
 40
0.6247044141129467
 40
0.750955787939839
 40
0.793171387116697
 40
0.834908104501548
 40
0.8763104515880161
 40
0.9175264576289888
 40
0.9587061619389432
 40
1.0
 40
1.0
 40
1.0
 40
1.0
 10
247.4012036429136
 20
38.01481768562198
 30
0.0
 10
247.4195688680365
 20
37.96597779582158
 30
0.0
 10
247.4562483997855
 20
37.86843342723554
 30
0.0
 10
247.5079382284503
 20
37.72097081783333
 30
0.0
 10
247.5571195882729
 20
37.57303352831255
 30
0.0
 10
247.6036092581719
 20
37.42454166308128
 30
0.0
 10
247.647519354631
 20
37.27554969694896
 30
0.0
 10
247.6888845460865
 20
37.12607790837082
 30
0.0
 10
247.7277618327913
 20
36.97615780506206
 30
0.0
 10
247.7642036778139
 20
36.82581899508078
 30
0.0
 10
247.7982656589012
 20
36.6750965434557
 30
0.0
 10
247.8300027119988
 20
36.52401484672008
 30
0.0
 10
247.9031609838691
 20
36.14829363977271
 30
0.0
 10
247.9888375238992
 20
35.55952321805698
 30
0.0
 10
248.0145698857334
 20
35.05803961405857
 30
0.0
 10
248.0150070419559
 20
34.58758678879497
 30
0.0
 10
247.9895759852407
 20
34.14114425892257
 30
0.0
 10
247.8976086692046
 20
33.70511758742864
 30
0.0
 10
247.8050547751614
 20
33.43692470481434
 30
0.0
 10
247.7414721512737
 20
33.29067359398444
 30
0.0
 10
247.6698266472381
 20
33.15975326214007
 30
0.0
 10
247.5895718729249
 20
33.04430692968789
 30
0.0
 10
247.5011702133294
 20
32.94278492523858
 30
0.0
 10
247.4348135594171
 20
32.88778604827144
 30
0.0
 10
247.4015893175312
 20
32.86024855377649
 30
0.0
  0
LWPOLYLINE
  5
215
330
1F
100
AcDbEntity
  8
0
  6
Continuous
 62
     7
370
    15
100
AcDbPolyline
 90
       27
 70
   128
 43
0.0
 10
247.4009849018
 20
38.0149439622
 10
247.6316229163
 20
39.2154402986
 10
247.9404090136
 20
40.4343846733
 10
248.3250838193
 20
41.6628581229
 10
248.7828326843
 20
42.8918719603
 10
249.3103062799
 20
44.1124335443
 10
249.9036451047
 20
45.3156120785
 10
250.5585077241
 20
46.4926039576
 10
251.2701025366
 20
47.6347971827
 10
252.0332228337
 20
48.7338343753
 10
252.8422848971
 20
49.7816739279
 10
253.6913688546
 20
50.7706488436
 10
254.5742619957
 20
51.6935228357
 10
255.4845042292
 20
52.5435432751
 10
256.4154353521
 20
53.3144905988
 10
257.3602437816
 20
54.0007238187
 10
258.3120163953
 20
54.5972217959
 10
259.2637891139
 20
55.0996199805
 10
260.2085978576
 20
55.5042423466
 10
261.1395295016
 20
55.8081282898
 10
262.0497724594
 20
56.0090542899
 10
262.9326665224
 20
56.10555018
 10
263.781751593
 20
56.0969099038
 10
264.5908149523
 20
55.9831966818
 10
265.3539367188
 20
55.7652425488
 10
266.0655331634
 20
55.4446422658
 10
266.1863907635
 20
55.3769818746
  0
LINE
  5
216
330
1F
100
AcDbEntity
  8
0
  6
Continuous
 62
     7
370
    15
100
AcDbLine
 10
266.6225691394
 20
30.5889062749
 30
0.0
 11
266.6549918591
 21
30.5697424219
 31
0.0
  0
SPLINE
  5
217
330
1F
100
AcDbEntity
  8
0
  6
Continuous
 62
     7
370
    15
100
AcDbSpline
210
0.0
220
0.0
230
1.0
 70
     8
 71
     3
 72
     8
 73
     4
 74
     0
 42
0.000000001
 43
0.00000001
 40
0.0
 40
0.0
 40
0.0
 40
0.0
 40
1.0
 40
1.0
 40
1.0
 40
1.0
 10
246.6230485047385
 20
41.29372108912632
 30
0.0
 10
245.9299772696857
 20
41.17785947075161
 30
0.0
 10
245.2363565032894
 20
41.06310077759856
 30
0.0
 10
244.542377342462
 20
40.94908922996039
 30
0.0
  0
SPLINE
  5
218
330
1F
100
AcDbEntity
  8
0
  6
Continuous
 62
     7
370
    15
100
AcDbSpline
210
0.0
220
0.0
230
1.0
 70
     8
 71
     3
 72
     8
 73
     4
 74
     0
 42
0.000000001
 43
0.00000001
 40
0.0
 40
0.0
 40
0.0
 40
0.0
 40
0.0012389803509652
 40
0.0012389803509652
 40
0.0012389803509652
 40
0.0012389803509652
 10
244.0686409283165
 20
41.22262335071439
 30
0.0
 10
244.2267142632975
 20
41.13135227026388
 30
0.0
 10
244.3846324422635
 20
41.04017074316364
 30
0.0
 10
244.542377342462
 20
40.94908922996039
 30
0.0
  0
LWPOLYLINE
  5
219
330
1F
100
AcDbEntity
  8
0
  6
Continuous
 62
     7
370
    15
100
AcDbPolyline
 90
       28
 70
   128
 43
0.0
 10
244.0686409283
 20
41.2226233507
 10
244.375456406
 20
42.4440237378
 10
244.7586153282
 20
43.6753052223
 10
245.2153005274
 20
44.9074148344
 10
245.7421542358
 20
46.1312935154
 10
246.3353027732
 20
47.3379427246
 10
246.9903850281
 20
48.5184906004
 10
247.7025845228
 20
49.6642571907
 10
248.4666648263
 20
50.766818272
 10
249.277008055
 20
51.8180672884
 10
250.1276561785
 20
52.8102749549
 10
251.0123548251
 20
53.7361460865
 10
251.9245992678
 20
54.5888732364
 10
252.8576822495
 20
55.362186747
 10
253.8047432982
 20
56.0504008479
 10
254.7588191685
 20
56.6484554602
 10
255.7128950389
 20
57.1519534007
 10
256.6599560876
 20
57.5571927118
 10
257.5930390693
 20
57.8611938805
 10
258.5052835119
 20
58.0617217449
 10
259.3899821586
 20
58.1573019285
 10
260.240630282
 20
58.14723168
 10
261.0509735108
 20
58.0315850406
 10
261.8150538143
 20
57.8112122999
 10
262.527253309
 20
57.4877337433
 10
263.1823355639
 20
57.0635277399
 10
263.7754841013
 20
56.5417132548
 10
264.2068161866
 20
56.0510042144
  0
LWPOLYLINE
  5
21A
330
1F
100
AcDbEntity
  8
0
  6
Continuous
 62
     7
370
    15
100
AcDbPolyline
 90
       22
 70
   128
 43
0.0
 10
267.2934537202
 20
44.2564453384
 10
267.478456538
 20
44.4228163187
 10
267.671336517
 20
44.70309411
 10
267.7470515455
 20
45.0014954182
 10
267.7015198068
 20
45.3019333516
 10
267.5371959286
 20
45.5882112235
 10
267.2629386539
 20
45.8448957197
 10
266.8935332632
 20
46.0581489125
 10
266.4488944967
 20
46.2164742672
 10
265.9529929456
 20
46.3113364228
 10
265.4325627906
 20
46.3376213361
 10
264.9156605563
 20
46.2939119805
 10
264.4301525759
 20
46.1825647387
 10
264.0022127102
 20
46.0095823694
 10
263.6549113082
 20
45.7842903968
 10
263.4069714783
 20
45.5188343695
 10
263.271759721
 20
45.2275250906
 10
263.2565653371
 20
44.9260671189
 10
263.3622074598
 20
44.6307121314
 10
263.5829908948
 20
44.3573827922
 10
263.9070131501
 20
44.1208143565
 10
263.9070131501
 20
44.1208143565
  0
LINE
  5
21B
330
1F
100
AcDbEntity
  8
0
  6
Continuous
 62
     7
370
    15
100
AcDbLine
 10
241.036920604
 20
42.9727982404
 30
0.0
 11
244.0686409283
 21
41.2226233507
 31
0.0
  0
ARC
  5
21C
330
1F
100
AcDbEntity
  8
0
  6
Continuous
 62
     7
370
    15
100
AcDbCircle
 10
256.9262543925
 20
54.5335079914
 30
0.0
 40
5.360184219581035
100
AcDbArc
 50
60.0603086361
 51
76.3483600426
  0
LINE
  5
21D
330
1F
100
AcDbEntity
  8
0
  6
Continuous
 62
     7
370
    15
100
AcDbLine
 10
247.0256439072
 20
41.2325586984
 30
0.0
 11
247.0163212563
 21
41.2379405502
 31
0.0
  0
SPLINE
  5
21E
330
1F
100
AcDbEntity
  8
0
  6
Continuous
 62
     7
370
    15
100
AcDbSpline
210
0.0
220
0.0
230
1.0
 70
     8
 71
     3
 72
    10
 73
     6
 74
     0
 42
0.000000001
 43
0.00000001
 40
0.0
 40
0.0
 40
0.0
 40
0.0
 40
0.2386821730236697
 40
0.7123059640471328
 40
1.0
 40
1.0
 40
1.0
 40
1.0
 10
247.9403110393033
 20
40.43315070056473
 30
0.0
 10
247.8752749245384
 20
40.51313240245161
 30
0.0
 10
247.6811858066181
 20
40.75182405900449
 30
0.0
 10
247.3691977657732
 20
41.01664691663753
 30
0.0
 10
247.1198643823262
 20
41.17334437099687
 30
0.0
 10
247.0256439071975
 20
41.23255869840494
 30
0.0
  0
SPLINE
  5
21F
330
1F
100
AcDbEntity
  8
0
  6
Continuous
 62
     7
370
    15
100
AcDbSpline
210
0.0
220
0.0
230
1.0
 70
     8
 71
     3
 72
    10
 73
     6
 74
     0
 42
0.000000001
 43
0.00000001
 40
0.0
 40
0.0
 40
0.0
 40
0.0
 40
0.5
 40
0.5
 40
1.0
 40
1.0
 40
1.0
 40
1.0
 10
247.0163212562904
 20
41.23794055021767
 30
0.0
 10
246.9665206574777
 20
41.26668982396678
 30
0.0
 10
246.9014887407337
 20
41.28745316932745
 30
0.0
 10
246.7644303803883
 20
41.30640685871523
 30
0.0
 10
246.6908915403385
 20
41.30506249748742
 30
0.0
 10
246.6230485047385
 20
41.29372108912632
 30
0.0
  0
SPLINE
  5
220
330
1F
100
AcDbEntity
  8
0
  6
Continuous
 62
     7
370
    15
100
AcDbSpline
210
0.0
220
0.0
230
1.0
 70
     8
 71
     3
 72
     8
 73
     4
 74
     0
 42
0.000000001
 43
0.00000001
 40
0.0
 40
0.0
 40
0.0
 40
0.0
 40
1.0
 40
1.0
 40
1.0
 40
1.0
 10
240.8800959964181
 20
43.06331991962318
 30
0.0
 10
240.9024747929375
 20
43.05040796817134
 30
0.0
 10
240.9566622239548
 20
43.01913041701432
 30
0.0
 10
241.0369206039792
 20
42.97279824043432
 30
0.0
  0
LINE
  5
221
330
1F
100
AcDbEntity
  8
0
  6
Continuous
 62
     7
370
    15
100
AcDbLine
 10
240.8800959964
 20
43.0633199196
 30
0.0
 11
240.903380117
 21
43.210708972
 31
0.0
  0
SPLINE
  5
222
330
1F
100
AcDbEntity
  8
0
  6
Continuous
 62
     7
370
    15
100
AcDbSpline
210
0.0
220
0.0
230
1.0
 70
     8
 71
     3
 72
    11
 73
     7
 74
     0
 42
0.000000001
 43
0.00000001
 40
0.0
 40
0.0
 40
0.0
 40
0.0
 40
0.3095641458076221
 40
0.5897803711572289
 40
0.84099002242465
 40
1.0
 40
1.0
 40
1.0
 40
1.0
 10
247.5096289921974
 20
33.58637729253714
 30
0.0
 10
247.6006249551726
 20
33.67785150894785
 30
0.0
 10
247.7739900995026
 20
33.85212781980833
 30
0.0
 10
247.9243230832028
 20
34.27059364479934
 30
0.0
 10
247.9986038223041
 20
34.68374287297416
 30
0.0
 10
248.0061484542396
 20
34.98077412457404
 30
0.0
 10
248.009072916334
 20
35.09590984538124
 30
0.0
  0
SPLINE
  5
223
330
1F
100
AcDbEntity
  8
0
  6
Continuous
 62
     7
370
    15
100
AcDbSpline
210
0.0
220
0.0
230
1.0
 70
     8
 71
     3
 72
     9
 73
     5
 74
     0
 42
0.000000001
 43
0.00000001
 40
0.0
 40
0.0
 40
0.0
 40
0.0
 40
0.506764932008893
 40
1.0
 40
1.0
 40
1.0
 40
1.0
 10
247.4009075277248
 20
32.85974652599285
 30
0.0
 10
247.4191764430858
 20
32.98220064472906
 30
0.0
 10
247.4552265211536
 20
33.22383954079629
 30
0.0
 10
247.4919073742368
 20
33.46598981118293
 30
0.0
 10
247.5099996573013
 20
33.58542681626114
 30
0.0
  0
SPLINE
  5
224
330
1F
100
AcDbEntity
  8
0
  6
Continuous
 62
     7
370
    15
100
AcDbSpline
210
0.0
220
0.0
230
1.0
 70
     8
 71
     3
 72
    10
 73
     6
 74
     0
 42
0.000000001
 43
0.00000001
 40
0.0
 40
0.0
 40
0.0
 40
0.0
 40
0.4807908150149239
 40
0.9757817590326512
 40
1.0
 40
1.0
 40
1.0
 40
1.0
 10
247.0256439071975
 20
34.65940516272465
 30
0.0
 10
247.1754348540978
 20
34.57923478736262
 30
0.0
 10
247.4794408148792
 20
34.41652620922422
 30
0.0
 10
247.7690562590779
 20
34.30502477850274
 30
0.0
 10
247.9033946897567
 20
34.27679316102344
 30
0.0
 10
247.9096608356174
 20
34.2754763119869
 30
0.0
  0
LINE
  5
225
330
1F
100
AcDbEntity
  8
0
  6
Continuous
 62
     7
370
    15
100
AcDbLine
 10
241.3135292439
 20
42.8130635614
 30
0.0
 11
240.8800959964
 21
43.0633199196
 31
0.0
  0
LINE
  5
226
330
1F
100
AcDbEntity
  8
0
  6
Continuous
 62
     7
370
    15
100
AcDbLine
 10
244.5423773425
 20
40.94908923
 30
0.0
 11
241.3135292439
 21
42.8130635614
 31
0.0
  0
SPLINE
  5
227
330
1F
100
AcDbEntity
  8
0
  6
Continuous
 62
     7
370
    15
100
AcDbSpline
210
0.0
220
0.0
230
1.0
 70
     8
 71
     3
 72
    11
 73
     7
 74
     0
 42
0.000000001
 43
0.00000001
 40
0.0
 40
0.0
 40
0.0
 40
0.0
 40
0.2163155055778993
 40
0.5249147718327557
 40
0.8335516849882196
 40
1.0
 40
1.0
 40
1.0
 40
1.0
 10
243.4185941652545
 20
38.79923761563845
 30
0.0
 10
243.4138765736216
 20
39.00562924762158
 30
0.0
 10
243.402428787995
 20
39.50646258419253
 30
0.0
 10
243.3372452306472
 20
40.32525443109918
 30
0.0
 10
243.296491160637
 20
41.08671887881545
 30
0.0
 10
243.3178789842028
 20
41.52125104541494
 30
0.0
 10
243.3253723074703
 20
41.67349140706104
 30
0.0
  0
LINE
  5
228
330
1F
100
AcDbEntity
  8
0
  6
Continuous
 62
     7
370
    15
100
AcDbLine
 10
243.4185941653
 20
38.3788822602
 30
0.0
 11
243.4185941653
 21
38.7992376156
 31
0.0
  0
LINE
  5
229
330
1F
100
AcDbEntity
  8
0
  6
Continuous
 62
     7
370
    15
100
AcDbLine
 10
242.8087145665
 20
41.6142510753
 30
0.0
 11
242.8139024612
 21
41.9469165396
 31
0.0
  0
ARC
  5
22A
330
1F
100
AcDbEntity
  8
0
  6
Continuous
 62
     7
370
    15
100
AcDbCircle
 10
250.3625441534
 20
41.4399982751
 30
0.0
 40
7.55583916367017
100
AcDbArc
 50
178.6785272924
 51
203.2171026327
  0
LINE
  5
22B
330
1F
100
AcDbEntity
  8
0
  6
Continuous
 62
     7
370
    15
100
AcDbLine
 10
230.5546504028
 20
65.080567403
 30
0.0
 11
230.7019611862
 21
65.0332039827
 31
0.0
  0
LINE
  5
22C
330
1F
100
AcDbEntity
  8
0
  6
Continuous
 62
     7
370
    15
100
AcDbLine
 10
224.3304917749
 20
53.9962993717
 30
0.0
 11
224.2623404938
 21
54.0562804013
 31
0.0
  0
LINE
  5
22D
330
1F
100
AcDbEntity
  8
0
  6
Continuous
 62
     7
370
    15
100
AcDbLine
 10
247.0163212563
 20
34.6647870145
 30
0.0
 11
247.0256439072
 21
34.6594051627
 31
0.0
  0
ARC
  5
22E
330
1F
100
AcDbEntity
  8
0
  6
Continuous
 62
     7
370
    15
100
AcDbCircle
 10
249.8435370224
 20
35.3116880005
 30
0.0
 40
5.919642220385742
100
AcDbArc
 50
192.6964501329
 51
260.4756565155
  0
SPLINE
  5
22F
330
1F
100
AcDbEntity
  8
0
  6
Continuous
 62
     7
370
    15
100
AcDbSpline
210
0.0
220
0.0
230
1.0
 70
     8
 71
     3
 72
     8
 73
     4
 74
     0
 42
0.000000001
 43
0.00000001
 40
0.0
 40
0.0
 40
0.0
 40
0.0
 40
0.0012389803509652
 40
0.0012389803509652
 40
0.0012389803509652
 40
0.0012389803509652
 10
244.542377342462
 20
34.37593569428011
 30
0.0
 10
244.3846324422635
 20
34.25385924374539
 30
0.0
 10
244.2267142632975
 20
34.13210194074457
 30
0.0
 10
244.0686409283165
 20
34.01063491920014
 30
0.0
  0
SPLINE
  5
230
330
1F
100
AcDbEntity
  8
0
  6
Continuous
 62
     7
370
    15
100
AcDbSpline
210
0.0
220
0.0
230
1.0
 70
     8
 71
     3
 72
     8
 73
     4
 74
     0
 42
0.000000001
 43
0.00000001
 40
0.0
 40
0.0
 40
0.0
 40
0.0
 40
1.0
 40
1.0
 40
1.0
 40
1.0
 10
244.542377342462
 20
34.3759356942801
 30
0.0
 10
245.2363579254036
 20
34.48994747555272
 30
0.0
 10
245.9299909861656
 20
34.60470822807309
 30
0.0
 10
246.6230485047385
 20
34.72056755344603
 30
0.0
  0
SPLINE
  5
231
330
1F
100
AcDbEntity
  8
0
  6
Continuous
 62
     7
370
    15
100
AcDbSpline
210
0.0
220
0.0
230
1.0
 70
     8
 71
     3
 72
    12
 73
     8
 74
     0
 42
0.000000001
 43
0.00000001
 40
0.0
 40
0.0
 40
0.0
 40
0.0
 40
0.2499999999999984
 40
0.2499999999999984
 40
0.4999999999999968
 40
0.4999999999999968
 40
1.0
 40
1.0
 40
1.0
 40
1.0
 10
246.6230485047385
 20
34.72056755344603
 30
0.0
 10
246.6568370206626
 20
34.72621602353028
 30
0.0
 10
246.6924087967315
 20
34.72947648704573
 30
0.0
 10
246.762991043124
 20
34.73061407659385
 30
0.0
 10
246.7980140015729
 20
34.72859746013583
 30
0.0
 10
246.9022192968379
 20
34.71422172279623
 30
0.0
 10
246.9659297287775
 20
34.69387742416383
 30
0.0
 10
247.0163212562904
 20
34.66478701453738
 30
0.0
  0
LINE
  5
232
330
1F
100
AcDbEntity
  8
0
  6
Continuous
 62
     7
370
    15
100
AcDbLine
 10
241.3135292439
 20
36.2399100257
 30
0.0
 11
244.5423773425
 21
34.3759356943
 31
0.0
  0
LINE
  5
233
330
1F
100
AcDbEntity
  8
0
  6
Continuous
 62
     7
370
    15
100
AcDbLine
 10
241.3135292439
 20
36.2399100257
 30
0.0
 11
243.2064621309
 21
37.3326769212
 31
0.0
  0
LINE
  5
234
330
1F
100
AcDbEntity
  8
0
  6
Continuous
 62
     7
370
    15
100
AcDbLine
 10
240.8800959964
 20
35.9896536675
 30
0.0
 11
241.3135292439
 21
36.2399100257
 31
0.0
  0
LINE
  5
235
330
1F
100
AcDbEntity
  8
0
  6
Continuous
 62
     7
370
    15
100
AcDbLine
 10
244.0686409283
 20
34.0106349192
 30
0.0
 11
241.036920604
 21
35.7608098089
 31
0.0
  0
SPLINE
  5
236
330
1F
100
AcDbEntity
  8
0
  6
Continuous
 62
     7
370
    15
100
AcDbSpline
210
0.0
220
0.0
230
1.0
 70
     8
 71
     3
 72
     8
 73
     4
 74
     0
 42
0.000000001
 43
0.00000001
 40
0.0
 40
0.0
 40
0.0
 40
0.0
 40
1.0
 40
1.0
 40
1.0
 40
1.0
 10
241.0369206039792
 20
35.76080980892007
 30
0.0
 10
240.9568958044636
 20
35.80700714234253
 30
0.0
 10
240.9024190070828
 20
35.89019466470565
 30
0.0
 10
240.8800959964181
 20
35.98965366754785
 30
0.0
  0
ARC
  5
237
330
1F
100
AcDbEntity
  8
0
  6
Continuous
 62
     7
370
    15
100
AcDbCircle
 10
246.5710291897
 20
36.5803656998
 30
0.0
 40
5.414344053268242
100
AcDbArc
 50
223.5450461559
 51
239.8640484934
  0
ELLIPSE
  5
238
330
1F
100
AcDbEntity
  8
0
  6
Continuous
 62
     7
370
    15
100
AcDbEllipse
 10
242.9721475558
 20
38.1211764956
 30
0.0
 11
-6.005970385558612E-5
 21
0.8534489614827194
 31
0.0
210
0.0
220
0.0
230
1.0
 40
0.7174342186
 41
3.534193645557441
 42
5.10498997235233
  0
ELLIPSE
  5
239
330
1F
100
AcDbEntity
  8
0
  6
Continuous
 62
     7
370
    15
100
AcDbEllipse
 10
242.8529087403
 20
38.0523190155
 30
0.0
 11
0.2600075789208915
 21
0.9705436209909308
 31
0.0
210
0.0
220
0.0
230
1.0
 40
0.5176380889
 41
3.619174351347648
 42
5.18997067814262
  0
ARC
  5
23A
330
1F
100
AcDbEntity
  8
0
  6
Continuous
 62
     7
370
     0
100
AcDbCircle
 10
266.669847629
 20
37.8292599348
 30
0.0
 40
1.33398570931824
100
AcDbArc
 50
332.3810384984
 51
20.8240748184
  0
LWPOLYLINE
  5
23B
330
1F
100
AcDbEntity
  8
0
  6
Continuous
 62
     7
370
     0
100
AcDbPolyline
 90
        7
 70
   128
 43
0.0
 10
267.7746617516
 20
38.150912144
 10
267.8203143229
 20
37.8136132601
 10
267.7850156177
 20
37.4932528817
 10
267.6643112298
 20
37.2493488875
 10
267.4689262739
 20
37.1035732179
 10
267.2162215607
 20
37.0688786808
 10
267.0326574044
 20
37.1074648276
  0
LWPOLYLINE
  5
23C
330
1F
100
AcDbEntity
  8
0
  6
Continuous
 62
     7
370
     0
100
AcDbPolyline
 90
        9
 70
   128
 43
0.0
 10
254.2019725783
 20
35.9453172488
 10
254.2434234808
 20
35.0864104347
 10
254.3672902143
 20
34.2854317109
 10
254.5721205547
 20
33.5517718207
 10
254.8555130533
 20
32.8940322555
 10
255.2141451925
 20
32.3199244104
 10
255.6438123381
 20
31.8361791748
 10
256.1394770357
 20
31.4484680195
 10
256.273446727
 20
31.3668691841
  0
LWPOLYLINE
  5
23D
330
1F
100
AcDbEntity
  8
0
  6
Continuous
 62
     7
370
     0
100
AcDbPolyline
 90
       23
 70
   128
 43
0.0
 10
266.2726340534
 20
48.6878464318
 10
265.8507527104
 20
48.8933791127
 10
265.2412321845
 20
49.0765646355
 10
264.5851882381
 20
49.153656482
 10
263.8903123864
 20
49.1237508208
 10
263.1647514136
 20
48.9871982684
 10
262.4170118586
 20
48.7455997787
 10
261.6558602841
 20
48.401787873
 10
260.8902204963
 20
47.9597934317
 10
260.1290689219
 20
47.4247984354
 10
259.3813293669
 20
46.8030752112
 10
258.655768394
 20
46.1019128956
 10
257.9608925424
 20
45.3295319756
 10
257.3048485959
 20
44.4949879113
 10
256.6953280701
 20
43.6080649689
 10
256.1394770357
 20
42.6791615088
 10
255.6438123381
 20
41.719168075
 10
255.2141451925
 20
40.7393397126
 10
254.8555130533
 20
39.7511640133
 10
254.5721205547
 20
38.7662264338
 10
254.3672902143
 20
37.7960744665
 10
254.2434234808
 20
36.8520822563
 10
254.2019725783
 20
35.9453172488
  0
LWPOLYLINE
  5
23E
330
1F
100
AcDbEntity
  8
0
  6
Continuous
 62
     7
370
     0
100
AcDbPolyline
 90
       46
 70
   128
 43
0.0
 10
269.7583217645
 20
40.0281540083
 10
269.1678603038
 20
39.6396087483
 10
268.5888915038
 20
39.1632678512
 10
268.0326843336
 20
38.6084027507
 10
267.5100647331
 20
37.9858132649
 10
267.0312048984
 20
37.30761739
 10
266.6054252915
 20
36.5870154371
 10
266.241013228
 20
35.8380331037
 10
265.9450615743
 20
35.0752484789
 10
265.7233306927
 20
34.3135082977
 10
265.5801363225
 20
33.5676389664
 10
265.5182655794
 20
32.8521579831
 10
265.5389227069
 20
32.1809913712
 10
265.6417056376
 20
31.5672026253
 10
265.8246138186
 20
31.0227384454
 10
266.0840871503
 20
30.5581962073
 10
266.4150752793
 20
30.1826176972
 10
266.8111358983
 20
29.9033131237
 10
267.2645601378
 20
29.7257188326
 10
267.7665226107
 20
29.6532914947
 10
268.3072531886
 20
29.6874408258
 10
268.8762271657
 20
29.827502148
 10
269.4623701108
 20
30.0707493269
 10
270.0542734182
 20
30.412447833
 10
270.6404163632
 20
30.8459468935
 10
271.2093903403
 20
31.3628089423
 10
271.7501209182
 20
31.9529738475
 10
272.2520833911
 20
32.6049547205
 10
272.7055076306
 20
33.3060614952
 10
273.1015682496
 20
34.0426479259
 10
273.4325563786
 20
34.8003771954
 10
273.6920297103
 20
35.5645009655
 10
273.8749378913
 20
36.3201464361
 10
273.977720822
 20
37.0526058277
 10
273.9983779495
 20
37.7476226514
 10
273.9365072064
 20
38.3916691953
 10
273.7933128362
 20
38.972209826
 10
273.5715819546
 20
39.4779449804
 10
273.2756303009
 20
39.8990310991
 10
272.9112182374
 20
40.2272722198
 10
272.4854386305
 20
40.4562795024
 10
272.0065787958
 20
40.5815955805
 10
271.4839591953
 20
40.6007813194
 10
270.9277520251
 20
40.5134632905
 10
270.3487832251
 20
40.3213410397
 10
269.7583217645
 20
40.0281540083
  0
LWPOLYLINE
  5
23F
330
1F
100
AcDbEntity
  8
0
  6
Continuous
 62
     7
370
     0
100
AcDbPolyline
 90
       38
 70
   128
 43
0.0
 10
249.4290018053
 20
34.4145520392
 10
249.4700358158
 20
35.5235253386
 10
249.5928255536
 20
36.6714355416
 10
249.7964365146
 20
37.8495463584
 10
250.0793190965
 20
39.0488916544
 10
250.4393203921
 20
40.2603436876
 10
250.8737005741
 20
41.4746825767
 10
251.379153747
 20
42.6826664693
 10
251.951833107
 20
43.8751018787
 10
252.5873802184
 20
45.0429136515
 10
253.2809581839
 20
46.1772140348
 10
254.0272884564
 20
47.2693703178
 10
254.8206910119
 20
48.3110705319
 10
255.6551275778
 20
49.2943867093
 10
256.5242475881
 20
50.2118352201
 10
257.4214365146
 20
51.0564337274
 10
258.3398662079
 20
51.8217543263
 10
259.2725468635
 20
52.5019724652
 10
260.2123802184
 20
53.0919112731
 10
261.1522135734
 20
53.5870809596
 10
262.084894229
 20
53.9837129843
 10
263.0033239223
 20
54.2787887381
 10
263.9005128488
 20
54.4700625163
 10
264.7696328591
 20
54.5560786099
 10
265.604069425
 20
54.5361823845
 10
266.3974719804
 20
54.4105252625
 10
267.1438022529
 20
54.1800635704
 10
267.8373802184
 20
53.8465512608
 10
268.4729273298
 20
53.4125265638
 10
269.0456066899
 20
52.8812926694
 10
269.5510598628
 20
52.2568925882
 10
269.9854400448
 20
51.5440783821
 10
270.3454413404
 20
50.7482749974
 10
270.6283239223
 20
49.8755389784
 10
270.8319348833
 20
48.9325123733
 10
270.9547246211
 20
47.9263721838
 10
270.9957586315
 20
46.8647757445
 10
270.9692311525
 20
45.9765586378
  0
LWPOLYLINE
  5
240
330
1F
100
AcDbEntity
  8
0
  6
Continuous
 62
     7
370
     0
100
AcDbPolyline
 90
       20
 70
   128
 43
0.0
 10
260.9700438262
 20
28.6555813902
 10
260.2123802184
 20
28.1874165106
 10
259.2725468635
 20
27.6922468241
 10
258.3398662079
 20
27.2956147993
 10
257.4214365146
 20
27.0005390456
 10
256.5242475881
 20
26.8092652674
 10
255.6551275778
 20
26.7232491738
 10
254.8206910119
 20
26.7431453991
 10
254.0272884564
 20
26.8688025211
 10
253.2809581839
 20
27.0992642133
 10
252.5873802184
 20
27.4327765229
 10
251.951833107
 20
27.8668012199
 10
251.379153747
 20
28.3980351143
 10
250.8737005741
 20
29.0224351954
 10
250.4393203921
 20
29.7352494016
 10
250.0793190965
 20
30.5310527863
 10
249.7964365146
 20
31.4037888052
 10
249.5928255536
 20
32.3468154104
 10
249.4700358158
 20
33.3529555998
 10
249.4290018053
 20
34.4145520392
  0
LWPOLYLINE
  5
241
330
1F
100
AcDbEntity
  8
0
  6
Continuous
 62
     7
370
     0
100
AcDbPolyline
 90
       27
 70
   128
 43
0.0
 10
248.7218950242
 20
34.4145520392
 10
248.7631219975
 20
35.5439036875
 10
248.8864976873
 20
36.7124936615
 10
249.0911086632
 20
37.91167013
 10
249.3754400571
 20
39.1325548098
 10
249.7373867788
 20
40.366108698
 10
250.1742691015
 20
41.6031989931
 10
250.6828525012
 20
42.8346667114
 10
251.2593716045
 20
44.0513944969
 10
251.8995580656
 20
45.2443741226
 10
252.5986721678
 20
46.4047731848
 10
253.3515379151
 20
47.5240004948
 10
254.1525813528
 20
48.5937696853
 10
254.9958718356
 20
49.6061605594
 10
255.8751659357
 20
50.5536777292
 10
256.7839536673
 20
51.4293061092
 10
257.7155066839
 20
52.2265628533
 10
258.6629280931
 20
52.9395453513
 10
259.619203518
 20
53.5629749303
 10
260.5772530301
 20
54.0922359359
 10
261.529983566
 20
54.5234099047
 10
262.470341442
 20
54.8533045755
 10
263.3913645776
 20
55.0794775236
 10
264.2862340396
 20
55.2002542437
 10
265.1483245275
 20
55.2147405471
 10
265.9712534252
 20
55.1228291823
 10
266.3207634906
 20
55.0484828133
  0
ARC
  5
242
330
1F
100
AcDbEntity
  8
0
  6
Continuous
 62
     7
370
     0
100
AcDbCircle
 10
257.4946962199
 20
33.8314027975
 30
0.0
 40
8.792161500913148
100
AcDbArc
 50
176.1970061233
 51
220.3157775657
  0
LWPOLYLINE
  5
243
330
1F
100
AcDbEntity
  8
0
  6
Continuous
 62
     7
370
     0
100
AcDbPolyline
 90
       30
 70
   128
 43
0.0
 10
252.0806522348
 20
35.9453172488
 10
252.1223735013
 20
36.9193951567
 10
252.2471091843
 20
37.9316480562
 10
252.4535793269
 20
38.9716888626
 10
252.7396652659
 20
40.02884535
 10
253.1024313725
 20
41.0922696622
 10
253.5381551756
 20
42.1510496267
 10
254.0423655593
 20
43.1943207284
 10
254.6098886428
 20
44.2113775939
 10
255.2349008712
 20
45.1917838435
 10
255.9109887733
 20
46.1254791824
 10
256.6312147724
 20
47.0028826329
 10
257.388188375
 20
47.8149908483
 10
258.1741420077
 20
48.5534704994
 10
258.9810107226
 20
49.2107437856
 10
259.8005149548
 20
49.7800661936
 10
260.624245482
 20
50.255595705
 10
261.4437497143
 20
50.6324527436
 10
262.2506184292
 20
50.9067702462
 10
263.0365720619
 20
51.0757333439
 10
263.7935456645
 20
51.1376082468
 10
264.5137716636
 20
51.0917600347
 10
265.1898595657
 20
50.9386591721
 10
265.8148717941
 20
50.6798766812
 10
266.3823948776
 20
50.3180680206
 10
266.8866052613
 20
49.8569458366
 10
267.3223290643
 20
49.3012418668
 10
267.685095171
 20
48.6566583861
 10
267.97118111
 20
47.9298096931
 10
268.0516587907
 20
47.6608373114
  0
LWPOLYLINE
  5
244
330
1F
100
AcDbEntity
  8
0
  6
Continuous
 62
     7
370
     0
100
AcDbPolyline
 90
       14
 70
   128
 43
0.0
 10
258.0524714644
 20
30.3398600638
 10
257.388188375
 20
30.2035944397
 10
256.6312147724
 20
30.1417195368
 10
255.9109887733
 20
30.187567749
 10
255.2349008712
 20
30.3406686115
 10
254.6098886428
 20
30.5994511024
 10
254.0423655593
 20
30.9612597631
 10
253.5381551756
 20
31.4223819471
 10
253.1024313725
 20
31.9780859168
 10
252.7396652659
 20
32.6226693976
 10
252.4535793269
 20
33.3495180906
 10
252.2471091843
 20
34.1511735446
 10
252.1223735013
 20
35.01940969
 10
252.0806522348
 20
35.9453172488
  0
LWPOLYLINE
  5
245
330
1F
100
AcDbEntity
  8
0
  6
Continuous
 62
     7
370
     0
100
AcDbPolyline
 90
       23
 70
   128
 43
0.0
 10
266.6549918591
 20
30.5697424219
 10
267.0278604464
 20
30.4062609067
 10
267.5013796392
 20
30.3178566126
 10
268.0154662584
 20
30.3363416308
 10
268.5591634401
 20
30.4613219851
 10
269.1208832229
 20
30.6901339363
 10
269.6886535248
 20
31.0179007548
 10
270.2503733076
 20
31.4376366601
 10
270.7940704893
 20
31.94039571
 10
271.3081571085
 20
32.5154624683
 10
271.7816763013
 20
33.1505803853
 10
272.2045358284
 20
33.8322130254
 10
272.5677231729
 20
34.5458325722
 10
272.8634976273
 20
35.276229464
 10
273.0855552726
 20
36.0078365592
 10
273.2291633355
 20
36.7250609227
 10
273.2912610595
 20
37.4126161625
 10
273.2705249394
 20
38.0558482322
 10
273.1673969297
 20
38.6410477572
 10
272.9840750248
 20
39.1557422253
 10
272.7244664128
 20
39.5889618178
 10
272.3941042007
 20
39.9314732111
 10
272.14299564
 20
40.1028913844
  0
LWPOLYLINE
  5
246
330
1F
100
AcDbEntity
  8
0
  6
Continuous
 62
     7
370
     0
100
AcDbPolyline
 90
       20
 70
   128
 43
0.0
 10
246.6230485047
 20
41.2937210891
 10
246.9296734264
 20
42.4382273676
 10
247.3134584948
 20
43.5898410661
 10
247.7710263697
 20
44.7384278898
 10
248.2983504165
 20
45.8738801803
 10
248.8907901402
 20
46.9862058645
 10
249.5431320227
 20
48.0656163852
 10
250.249635402
 20
49.1026128413
 10
251.0040829904
 20
50.088069579
 10
251.7998355873
 20
51.0133144982
 10
252.6298905047
 20
51.8702053678
 10
253.4869431912
 20
52.6512014779
 10
254.3634515129
 20
53.3494299988
 10
255.2517021247
 20
53.9587464621
 10
256.1438783485
 20
54.4737888331
 10
257.0321289603
 20
54.8900246967
 10
257.908637282
 20
55.2037911432
 10
258.7656899685
 20
55.4123270021
 10
259.5957448859
 20
55.5137971408
 10
260.2422956247
 20
55.5169091722
  0
LWPOLYLINE
  5
247
330
1F
100
AcDbEntity
  8
0
  6
Continuous
 62
     7
370
     0
100
AcDbPolyline
 90
       24
 70
   128
 43
0.0
 10
241.036920604
 20
42.9727982404
 10
241.3437360817
 20
44.1941986275
 10
241.7268950038
 20
45.425480112
 10
242.183580203
 20
46.6575897241
 10
242.7104339114
 20
47.8814684052
 10
243.3035824488
 20
49.0881176144
 10
243.9586647037
 20
50.2686654901
 10
244.6708641984
 20
51.4144320804
 10
245.4349445019
 20
52.5169931617
 10
246.2452877307
 20
53.5682421781
 10
247.0959358542
 20
54.5604498446
 10
247.9806345008
 20
55.4863209763
 10
248.8928789435
 20
56.3390481261
 10
249.8259619251
 20
57.1123616367
 10
250.7730229738
 20
57.8005757376
 10
251.7270988442
 20
58.39863035
 10
252.6811747146
 20
58.9021282904
 10
253.6282357633
 20
59.3073676015
 10
254.5613187449
 20
59.6113687702
 10
255.4735631876
 20
59.8118966347
 10
256.3582618342
 20
59.9074768182
 10
257.2089099577
 20
59.8974065697
 10
258.0192531865
 20
59.7817599304
 10
258.1913545316
 20
59.7422599058
  0
LWPOLYLINE
  5
248
330
1F
100
AcDbEntity
  8
0
  6
Continuous
 62
     7
370
     0
100
AcDbPolyline
 90
       19
 70
   128
 43
0.0
 10
247.0163212563
 20
41.2379405502
 10
247.3210061498
 20
42.3617834797
 10
247.7009970215
 20
43.4921134026
 10
248.1529748654
 20
44.6190575241
 10
248.6729919099
 20
45.7327726227
 10
249.2565060991
 20
46.8235310246
 10
249.8984207656
 20
47.8818055701
 10
250.5931291466
 20
48.8983528276
 10
251.3345633559
 20
49.8642938298
 10
252.1162473837
 20
50.7711916266
 10
252.9313536607
 20
51.6111249769
 10
253.772762693
 20
52.3767575364
 10
254.6331252469
 20
53.0614019362
 10
255.5049265406
 20
53.6590781935
 10
256.3805518812
 20
54.164565943
 10
257.2523531749
 20
54.5734500342
 10
258.1127157288
 20
54.882159095
 10
258.954124761
 20
55.0879967258
 10
259.3772303517
 20
55.1531969239
  0
LINE
  5
249
330
1F
100
AcDbEntity
  8
0
  6
Continuous
 62
     7
370
     0
100
AcDbLine
 10
247.0256439072
 20
34.6594051627
 30
0.0
 11
247.4314251485
 21
34.8936576871
 31
0.0
  0
LWPOLYLINE
  5
24A
330
1F
100
AcDbEntity
  8
0
  6
Continuous
 62
     7
370
     0
100
AcDbPolyline
 90
        3
 70
   128
 43
0.0
 10
247.9895370805
 20
34.6352768927
 10
247.9256460595
 20
34.6582805142
 10
247.4314251485
 20
34.8936576871
  0
ARC
  5
24B
330
1F
100
AcDbEntity
  8
0
  6
Continuous
 62
     7
370
     0
100
AcDbCircle
 10
246.743435979
 20
35.9502592823
 30
0.0
 40
1.26084734534369
100
AcDbArc
 50
303.0695173616
 51
345.5982002285
  0
LINE
  5
24C
330
1F
100
AcDbEntity
  8
0
  6
Continuous
 62
     7
370
     0
100
AcDbLine
 10
243.5378329808
 20
38.4477397404
 30
0.0
 11
247.9228234864
 21
35.9163386039
 31
0.0
  0
LINE
  5
24D
330
1F
100
AcDbEntity
  8
0
  6
Continuous
 62
     7
370
     0
100
AcDbLine
 10
243.4185941653
 20
38.3788822602
 30
0.0
 11
243.5378329808
 21
38.4477397404
 31
0.0
  0
LINE
  5
24E
330
1F
100
AcDbEntity
  8
0
  6
Continuous
 62
     7
370
     0
100
AcDbLine
 10
243.1622679571
 20
41.4101490474
 30
0.0
 11
243.1674558518
 21
41.7428145116
 31
0.0
  0
ARC
  5
24F
330
1F
100
AcDbEntity
  8
0
  6
Continuous
 62
     7
370
     0
100
AcDbCircle
 10
251.7085532209
 20
41.3317159591
 30
0.0
 40
8.546645164033857
100
AcDbArc
 50
179.4741857274
 51
192.6038112494
  0
LWPOLYLINE
  5
250
330
1F
100
AcDbEntity
  8
0
  6
Continuous
 62
     7
370
     0
100
AcDbPolyline
 90
       18
 70
   128
 43
0.0
 10
223.3167520588
 20
56.709028495
 10
223.3589431219
 20
57.4456560416
 10
223.4847303714
 20
58.2172743753
 10
223.691770629
 20
59.0095097065
 10
223.9762071263
 20
59.8076041899
 10
224.3327413495
 20
60.5966908355
 10
224.7547317408
 20
61.3620704519
 10
225.2343174175
 20
62.0894854651
 10
225.7625646058
 20
62.7653855097
 10
226.3296330603
 20
63.3771798467
 10
226.9249593683
 20
63.9134719052
 10
227.5374537274
 20
64.3642715789
 10
228.1557065264
 20
64.7211813227
 10
228.7682008854
 20
64.9775525834
 10
229.3635271935
 20
65.1286096496
 10
229.9305956479
 20
65.1715386139
 10
230.4588428363
 20
65.1055397908
 10
230.5546504028
 20
65.080567403
  0
ARC
  5
251
330
1F
100
AcDbEntity
  8
0
  6
Continuous
 62
     7
370
     0
100
AcDbCircle
 10
226.8674886897
 20
56.4798060233
 30
0.0
 40
3.558127817134058
100
AcDbArc
 50
176.3063210893
 51
222.9315250867
  0
LWPOLYLINE
  5
252
330
1F
100
AcDbEntity
  8
0
  6
Continuous
 62
     7
370
     0
100
AcDbPolyline
 90
        3
 70
   128
 43
0.0
 10
247.4879390256
 20
33.561810744
 10
247.3365733375
 20
33.859693709
 10
247.0163212563
 20
34.6647870145
  0
ARC
  5
253
330
1F
100
AcDbEntity
  8
0
  6
Continuous
 62
     7
370
     0
100
AcDbCircle
 10
252.6600072712
 20
36.5949620271
 30
0.0
 40
6.321251916429302
100
AcDbArc
 50
197.2488655996
 51
213.7856470572
  0
LINE
  5
254
330
1F
100
AcDbEntity
  8
0
  6
Continuous
 62
     7
370
     0
100
AcDbLine
 10
247.4314251485
 20
34.8936576871
 30
0.0
 11
243.2064621309
 21
37.3326769212
 31
0.0
  0
ARC
  5
255
330
1F
100
AcDbEntity
  8
0
  6
Continuous
 62
     7
370
     0
100
AcDbCircle
 10
247.8547039219
 20
37.630925449
 30
0.0
 40
7.069618227152034
100
AcDbArc
 50
195.3389392146
 51
222.5491558567
  0
OLE2FRAME
  5
256
330
1F
100
AcDbEntity
  8
0
100
AcDbOle2Frame
 70
     2
  3
Paintbrush-Bild
 10
13.8511154363
 20
38.264191557
 30
0.0
 11
51.6290888628
 21
31.9806341108
 31
0.0
 71
     2
 72
     0
 73
     1
 90
    12928
310
80552BED0767C5B32B40DDAF6807D121434000000000000000006FFBDDFB85D0
310
4940DDAF6807D121434000000000000000006FFBDDFB85D04940416F4BD60AFB
310
3F4000000000000000002BED0767C5B32B40416F4BD60AFB3F40000000000000
310
0000000000000100000000010000010000000100000000000100000000320000
310
D0CF11E0A1B11AE1000000000000000000000000000000003E000300FEFF0900
310
0600000000000000000000000100000001000000000000000010000002000000
310
01000000FEFFFFFF0000000000000000FFFFFFFFFFFFFFFFFFFFFFFFFFFFFFFF
310
FFFFFFFFFFFFFFFFFFFFFFFFFFFFFFFFFFFFFFFFFFFFFFFFFFFFFFFFFFFFFFFF
310
FFFFFFFFFFFFFFFFFFFFFFFFFFFFFFFFFFFFFFFFFFFFFFFFFFFFFFFFFFFFFFFF
310
FFFFFFFFFFFFFFFFFFFFFFFFFFFFFFFFFFFFFFFFFFFFFFFFFFFFFFFFFFFFFFFF
310
FFFFFFFFFFFFFFFFFFFFFFFFFFFFFFFFFFFFFFFFFFFFFFFFFFFFFFFFFFFFFFFF
310
FFFFFFFFFFFFFFFFFFFFFFFFFFFFFFFFFFFFFFFFFFFFFFFFFFFFFFFFFFFFFFFF
310
FFFFFFFFFFFFFFFFFFFFFFFFFFFFFFFFFFFFFFFFFFFFFFFFFFFFFFFFFFFFFFFF
310
FFFFFFFFFFFFFFFFFFFFFFFFFFFFFFFFFFFFFFFFFFFFFFFFFFFFFFFFFFFFFFFF
310
FFFFFFFFFFFFFFFFFFFFFFFFFFFFFFFFFFFFFFFFFFFFFFFFFFFFFFFFFFFFFFFF
310
FFFFFFFFFFFFFFFFFFFFFFFFFFFFFFFFFFFFFFFFFFFFFFFFFFFFFFFFFFFFFFFF
310
FFFFFFFFFFFFFFFFFFFFFFFFFFFFFFFFFFFFFFFFFFFFFFFFFFFFFFFFFFFFFFFF
310
FFFFFFFFFFFFFFFFFFFFFFFFFFFFFFFFFFFFFFFFFFFFFFFFFFFFFFFFFFFFFFFF
310
FFFFFFFFFFFFFFFFFFFFFFFFFFFFFFFFFFFFFFFFFFFFFFFFFFFFFFFFFFFFFFFF
310
FFFFFFFFFFFFFFFFFFFFFFFFFFFFFFFFFFFFFFFFFFFFFFFFFFFFFFFFFFFFFFFF
310
FDFFFFFFFEFFFFFFFEFFFFFFFEFFFFFF05000000060000000700000008000000
310
090000000A0000000B0000000C0000000D0000000E0000000F00000010000000
310
11000000120000001300000014000000150000001600000017000000FEFFFFFF
310
FFFFFFFFFFFFFFFFFFFFFFFFFFFFFFFFFFFFFFFFFFFFFFFFFFFFFFFFFFFFFFFF
310
FFFFFFFFFFFFFFFFFFFFFFFFFFFFFFFFFFFFFFFFFFFFFFFFFFFFFFFFFFFFFFFF
310
FFFFFFFFFFFFFFFFFFFFFFFFFFFFFFFFFFFFFFFFFFFFFFFFFFFFFFFFFFFFFFFF
310
FFFFFFFFFFFFFFFFFFFFFFFFFFFFFFFFFFFFFFFFFFFFFFFFFFFFFFFFFFFFFFFF
310
FFFFFFFFFFFFFFFFFFFFFFFFFFFFFFFFFFFFFFFFFFFFFFFFFFFFFFFFFFFFFFFF
310
FFFFFFFFFFFFFFFFFFFFFFFFFFFFFFFFFFFFFFFFFFFFFFFFFFFFFFFFFFFFFFFF
310
FFFFFFFFFFFFFFFFFFFFFFFFFFFFFFFFFFFFFFFFFFFFFFFFFFFFFFFFFFFFFFFF
310
FFFFFFFFFFFFFFFFFFFFFFFFFFFFFFFFFFFFFFFFFFFFFFFFFFFFFFFFFFFFFFFF
310
FFFFFFFFFFFFFFFFFFFFFFFFFFFFFFFFFFFFFFFFFFFFFFFFFFFFFFFFFFFFFFFF
310
FFFFFFFFFFFFFFFFFFFFFFFFFFFFFFFFFFFFFFFFFFFFFFFFFFFFFFFFFFFFFFFF
310
FFFFFFFFFFFFFFFFFFFFFFFFFFFFFFFFFFFFFFFFFFFFFFFFFFFFFFFFFFFFFFFF
310
FFFFFFFFFFFFFFFFFFFFFFFFFFFFFFFFFFFFFFFFFFFFFFFFFFFFFFFFFFFFFFFF
310
FFFFFFFFFFFFFFFFFFFFFFFFFFFFFFFFFFFFFFFFFFFFFFFFFFFFFFFFFFFFFFFF
310
52006F006F007400200045006E00740072007900000000000000000000000000
310
0000000000000000000000000000000000000000000000000000000000000000
310
16000500FFFFFFFFFFFFFFFF020000000A00030000000000C000000000000046
310
000000000000000000000000804604B04F25D20103000000C000000000000000
310
01004F006C006500000000000000000000000000000000000000000000000000
310
0000000000000000000000000000000000000000000000000000000000000000
310
0A000200FFFFFFFFFFFFFFFFFFFFFFFF00000000000000000000000000000000
310
0000000000000000000000000000000000000000000000001400000000000000
310
010043006F006D0070004F0062006A0000000000000000000000000000000000
310
0000000000000000000000000000000000000000000000000000000000000000
310
120002010100000003000000FFFFFFFF00000000000000000000000000000000
310
0000000000000000000000000000000000000000010000004D00000000000000
310
01004F006C006500310030004E00610074006900760065000000000000000000
310
0000000000000000000000000000000000000000000000000000000000000000
310
1A000200FFFFFFFFFFFFFFFFFFFFFFFF00000000000000000000000000000000
310
0000000000000000000000000000000000000000040000002426000000000000
310
FEFFFFFF02000000FEFFFFFFFFFFFFFFFFFFFFFFFFFFFFFFFFFFFFFFFFFFFFFF
310
FFFFFFFFFFFFFFFFFFFFFFFFFFFFFFFFFFFFFFFFFFFFFFFFFFFFFFFFFFFFFFFF
310
FFFFFFFFFFFFFFFFFFFFFFFFFFFFFFFFFFFFFFFFFFFFFFFFFFFFFFFFFFFFFFFF
310
FFFFFFFFFFFFFFFFFFFFFFFFFFFFFFFFFFFFFFFFFFFFFFFFFFFFFFFFFFFFFFFF
310
FFFFFFFFFFFFFFFFFFFFFFFFFFFFFFFFFFFFFFFFFFFFFFFFFFFFFFFFFFFFFFFF
310
FFFFFFFFFFFFFFFFFFFFFFFFFFFFFFFFFFFFFFFFFFFFFFFFFFFFFFFFFFFFFFFF
310
FFFFFFFFFFFFFFFFFFFFFFFFFFFFFFFFFFFFFFFFFFFFFFFFFFFFFFFFFFFFFFFF
310
FFFFFFFFFFFFFFFFFFFFFFFFFFFFFFFFFFFFFFFFFFFFFFFFFFFFFFFFFFFFFFFF
310
FFFFFFFFFFFFFFFFFFFFFFFFFFFFFFFFFFFFFFFFFFFFFFFFFFFFFFFFFFFFFFFF
310
FFFFFFFFFFFFFFFFFFFFFFFFFFFFFFFFFFFFFFFFFFFFFFFFFFFFFFFFFFFFFFFF
310
FFFFFFFFFFFFFFFFFFFFFFFFFFFFFFFFFFFFFFFFFFFFFFFFFFFFFFFFFFFFFFFF
310
FFFFFFFFFFFFFFFFFFFFFFFFFFFFFFFFFFFFFFFFFFFFFFFFFFFFFFFFFFFFFFFF
310
FFFFFFFFFFFFFFFFFFFFFFFFFFFFFFFFFFFFFFFFFFFFFFFFFFFFFFFFFFFFFFFF
310
FFFFFFFFFFFFFFFFFFFFFFFFFFFFFFFFFFFFFFFFFFFFFFFFFFFFFFFFFFFFFFFF
310
FFFFFFFFFFFFFFFFFFFFFFFFFFFFFFFFFFFFFFFFFFFFFFFFFFFFFFFFFFFFFFFF
310
FFFFFFFFFFFFFFFFFFFFFFFFFFFFFFFFFFFFFFFFFFFFFFFFFFFFFFFFFFFFFFFF
310
0100000200000000000000000000000000000000000000000000000000000000
310
0000000000000000000000000000000000000000000000000000000000000000
310
0100FEFF030A0000FFFFFFFF0A00030000000000C00000000000004607000000
310
5042727573680007000000504272757368000700000050427275736800F439B2
310
7100000000000000000000000000000000000000000000000000000000000000
310
0000000000000000000000000000000000000000000000000000000000000000
310
0000000000000000000000000000000000000000000000000000000000000000
310
0000000000000000000000000000000000000000000000000000000000000000
310
0000000000000000000000000000000000000000000000000000000000000000
310
0000000000000000000000000000000000000000000000000000000000000000
310
0000000000000000000000000000000000000000000000000000000000000000
310
0000000000000000000000000000000000000000000000000000000000000000
310
0000000000000000000000000000000000000000000000000000000000000000
310
0000000000000000000000000000000000000000000000000000000000000000
310
0000000000000000000000000000000000000000000000000000000000000000
310
0000000000000000000000000000000000000000000000000000000000000000
310
20260000424D0E260000000000003E00000028000000B40200006E0000000100
310
01000000000000000000130B0000130B00000200000002000000000000FFFFFF
310
FFFFFFFFFFFFFFFFFFFFFFFFFFFFFFFFFFFFFFFFFFFFFFFFFFFFFFFFFFFFFFFF
310
FFFFFFFFFFFFFFFFFFFFFFFFFFFFFFFFFFFFFFFFFFFFFFFFFFFFFFFFFFFFFFFF
310
FFFFFFFFFFFFFFFFFFFFFFFFFFFFFFFFFFFFFFFFFFFFFFFFF000FFFFFFFFFFFF
310
FFFFFFFFFFFFFFFFFFFFFFFFFFFFFFFFFFFFFFFFFFFFFFFFFFFFFFFFFFFFFFFF
310
FFFFFFFFFFFFFFFFFFFFFFFFFFFFFFFFFFFFFFFFFFFFFFFFFFFFFFFFFFFFFFFF
310
FFFFFFFFFFFFFFFFFFFFFFFFFFFFFFFFF000FFFFFFFFFFFFFFFFFFFFFFFFFFFF
310
FFFFFFFFFFFFFFFFFFFFFFFFFFFFFFFFFFFFFFFFFFFFFFFFFFFFFFFFFFFFFFFF
310
FFFFFFFFFFFFFFFFFFFFFFFFFFFFFFFFFFFFFFFFFFFFFFFFFFFFFFFFFFFFFFFF
310
FFFFFFFFFFFFFFFFF000FFFFFFFFFFFFFFFFFFFFFFFFFFFFFFFFFFFFFFFFFFFF
310
FFFFFFFFFFFFFFFFFFFFFFFFFFFFFFFFFFFFFFFFFFFFFFFFFFFFFFFFFFFFFFFF
310
FFFFFFFFFFFFFFFFFFFFFFFFFFFFFFFFFFFFFFFFFFFFFFFFFFFFFFFFFFFFFFFF
310
F000FFFFFFFFFFFFFFFFFFFFFFFFFFFFFFFFFFFFFFFFFFFFFFFFFFFFFFFFFFFF
310
FFFFFFFFFFFFFFFFFFFFFFFFFFFFFFFFFFFFFFFFFFFFFFFFFFFFFFFFFFFFFFFF
310
FFFFFFFFFFFFFFFFFFFFFFFFFFFFFFFFFFFFFFFFFFFFFFFFF000FFFFFFFFFFFF
310
FFFFFFFFFFFFFFFFFFFFFFFFFFFFFFFFFFFFFFFFFFFFFFFFFFFFFFFFFFFFFFFF
310
FFFFFFFFFFFFFFFFFFFFFFFFFFFFFFFFFFFFFFFFFFFFFFFFFFFFFFFFFFFFFFFF
310
FFFFFFFFFFFFFFFFFFFFFFFFFFFFFFFFF000FFFFFFFFFFFFFFFFFFFFFFFFFFFF
310
FFFFFFFFFFFFFFFFFFFFFFFFFFFFFFFFFFFFFFFFFFFFFFFFFFFFFFFFFFFFFFFF
310
FFFFFFFFFFFFFFFFFFFFFFFFFFFFFFFFFFFFFFFFFFFFFFFFFFFFFFFFFFFFFFFF
310
FFFFFFFFFFFFFFFFF000FFFFFFFFFFFFFFFFFFFFFFFFFFFFFFFFFFFFFFFFFFFF
310
FFFFFFFFFFFFFFFFFFFFFFFFFFFFFFFFFFFFFFFFFFFFFFFFFFFFFFFFFFFFFFFF
310
FFFFFFFFFFFFFFFFFFFFFFFFFFFFFFFFFFFFFFFFFFFFFFFFFFFFFFFFFFFFFFFF
310
F000FFFFFFFFFFFFFFFFFFFFFFFFFFFFFFFFFFFFFFFFFFFFFFFFFFFFFFFFFFFF
310
FFFFFFFFFFFFFFFFFFFFFFFFFFFFFFFFFFFFFFFFFFFFFFFFFFFFFFFFFFFFFFFF
310
FFFFFFFFFFFFFFFFFFFFFFFFFFFFFFFFFFFFFFFFFFFFFFFFF000FFFFFFFFFFFF
310
FFFFFFFFFFFFFFFFFFFFFFFFFFFFFFFFFFFFFFFFFFFFFFFFFFFFFFFFFFFFFFFF
310
FFFFFFFFFFFFFFFFFFFFFFFFFFFFFFFFFFFFFFFFFFFFFFFFFFFFFFFFFFFFFFFF
310
FFFFFFFFFFFFFFFFFFFFFFFFFFFFFFFFF000FFFFFFFFFFFFFFFFFFFFFFFFFFFF
310
FFFFFFFFFFFFFFFFFFFFFFFFFFFFFFFFFFFFFFFFFFFFFFFFFFFFFFFFFFFFFFFF
310
FFFFFFFFFFFFFFFFFFFFFFFFFFFFFFFFFFFFFFFFFFFFFFFFFFFFFFFFFFFFFFFF
310
FFFFFFFFFFFFFFFFF000FFFFFFFFFFFFFFFFFFFFFFFFFFFFFFFFFFFFFFFFFFFF
310
FFFFFFFFFFFFFFFFFFFFFFFFFFFFFFFFFFFFFFFFFFFFFFFFFFFFFFFFFFFFFFFF
310
FFFFFFFFFFFFFFFFFFFFFFFFFFFFFFFFFFFFFFFFFFFFFFFFFFFFFFFFFFFFFFFF
310
F000FFFFFFFFFFFFFFFFFFFFFFFFFFFFFFFFFFFFFFFFFFFFFFFFFFFFFFFFFFFF
310
FFFFFFFFFFFFFFFFFFFFFFFFFFFFFFFFFFFFFFFFFFFFFFFFFFFFFFFFFFFFFFFF
310
FFFFFFFFFFFFFFFFFFFFFFFFFFFFFFFFFFFFFFFFFFFFFFFFF000FFFFFFFFFFFF
310
FFFFFFFFFFFFFFFFFFFFFFFFFFFFFFFFFFFFFFFFFFFFFFFFFFFFFFFFFFFFFFFF
310
FFFFFFFFFFFFFFFFFFFFFFFFFFFFFFFFFFFFFFFFFFFFFFFFFFFFFFFFFFFFFFFF
310
FFFFFFFFFFFFFFFFFFFFFFFFFFFFFFFFF000FFFFFFFFFFFFFFFFFFFFFFFFFFFF
310
FFFFFFFFFFFFFFFFFFFFFFFFFFFFFFFFFFFFFFFFFFFFFFFFFFFFFFFFFFFFFFFF
310
FFFFFFFFFFFFFFFFFFFFFFFFFFFFFFFFFFFFFFFFFFFFFFFFFFFFFFFFFFFFFFFF
310
FFFFFFFFFFFFFFFFF000FFFFFFFFFFFFFFFFFFFFFFFFFFFFFFFFFFFFFFFFFFFF
310
FFFFFFFFFFFFFFFFFFFFFFFFFFFFFFFFFFFFFFFFFFFFFFFFFFFFFFFFFFFFFFFF
310
FFFFFFFFFFFFFFFFFFFFFFFFFFFFFFFFFFFFFFFFFFFFFFFFFFFFFFFFFFFFFFFF
310
F000FFFFFFFFFFFFFFFFFFFFFFFFFFFFFFFFFFFFFFFFFFFFFFFFFFFFFFFFFFFF
310
FFFFFFFFFFFFFFFFFFFFFFFFFFFFFFFFFFFFFFFFFFFFFFFFFFFFFFFFFFFFFFFF
310
FFFFFFFFFFFFFFFFFFFFFFFFFFFFFFFFFFFFFFFFFFFFFFFFF000FFFFFFFFFFFF
310
FFFFFFFFFFFFFFFFFFFFFFFFFFFFFFFFFFFFFFFFFFFFFFFFFFFFFFFFFFFFFFFF
310
FFFFFFFFFFFFFFFFFFFFFFFFFFFFFFFFFFFFFFFFFFFFFFFFFFFFFFFFFFFFFFFF
310
FFFFFFFFFFFFFFFFFFFFFFFFFFFFFFFFF000FFFFFFFFFFFFFFFFFFFFFFFFFFFF
310
FFFFFFFFFFFFFFFFFFFFFFFFFFFFFFFFFFFFFFFFFFFFFFFFFFFFFFFFFFFFFFFF
310
FFFFFFFFFFFFFFFFFFFFFFFFFFFFFFFFFFFFFFFFFFFFFFFFFFFFFFFFFFFFFFFF
310
FFFFFFFFFFFFFFFFF000FFFFF80003FFFFFFFFFFFFFFFFFFFFFFFFFFFFFFFFFF
310
FFFFF00007FFFFFFFFFF00007FFFFFF800000000000000007FFFFFFFFFFFFFFF
310
FFFFFFFC001FFFFFFFFFFFFFFC001FFFFFFFFFFFFFFFFFFFFFFFFFFE0007FFFF
310
F000FFFF8000007FFFFFFFF8000FFFFFC0007FFFFF80007FFFFF0000007FFFFF
310
FFF8000007FFFFF800000000000000007FFFFFF0001FFFFFFFFFFFC00001FFFF
310
FFFFFFFFC00001FFFFFFFF000000000003FFFFE000007FFFF000FFFE0000000F
310
FFFFFFF0000FFFFF80007FFFFF80007FFFFC0000001FFFFFFFC0000001FFFFF8
310
00000000000000007FFFFFF0001FFFFFFFFFFE0000003FFFFFFFFFFE0000003F
310
FFFFFF000000000003FFFF0000000FFFF000FFF800000003FFFFFFF00007FFFF
310
80007FFFFF80007FFFF000000007FFFFFF000000003FFFF80000000000000000
310
7FFFFFF0001FFFFFFFFFF80000000FFFFFFFFFF80000000FFFFFFF0000000000
310
03FFFC00000003FFF000FFE000000000FFFFFFF00007FFFF80003FFFFF80007F
310
FFC000000001FFFFFC000000001FFFF800000000000000007FFFFFF0001FFFFF
310
FFFFE000000003FFFFFFFFE000000003FFFFFF000000000003FFF000000000FF
310
F000FF80000000007FFFFFF00007FFFF80003FFFFF80007FFF8000000000FFFF
310
F80000000007FFF800000000000000007FFFFFF0001FFFFFFFFFC000000001FF
310
FFFFFFC000000001FFFFFF000000000003FFC0000000007FF000FF0000000000
310
3FFFFFE00007FFFF00003FFFFF80007FFE00000000003FFFF00000000003FFF8
310
00000000000000007FFFFFF0001FFFFFFFFF8000000000FFFFFFFF8000000000
310
FFFFFF000000000003FF80000000003FF000FE00000000001FFFFFE00003FFFF
310
00003FFFFF80007FFC00000000001FFFE00000000001FFF8000001FFFE000000
310
7FFFFFF0001FFFFFFFFE00000000003FFFFFFE00000000003FFFFF0000000000
310
03FF00000000001FF000FC00000000000FFFFFE00003FFFF00001FFFFF80007F
310
F800000000001FFFC00000000000FFF8000001FFFE0000007FFFFFF0001FFFFF
310
FFFC00000000001FFFFFFC00000000001FFFFF000000000003FE00000000000F
310
F000F8000000000007FFFFE00003FFFF00001FFFFF80007FF800000000000FFF
310
800000000000FFF8000001FFFE0000007FFFFFF0001FFFFFFFF800000000000F
310
FFFFF800000000000FFFFF000000000003FC000000000007F000F80000000000
310
03FFFFC00003FFFE00001FFFFF80007FF0000000000007FF0000000000007FF8
310
000001FFFE0000007FFFFFF0001FFFFFFFF0000000000007FFFFF00000000000
310
07FFFF000000000003F8000000000003F000F0000000000003FFFFC00001FFFE
310
00001FFFFF80007FE0000000000007FE0000000000003FF8000001FFFE000000
310
7FFFFFF0001FFFFFFFF0000000000007FFFFF0000000000007FFFF0000000000
310
03F800001F800003F000E00001FFF00001FFFFC00001FFFE00000FFFFF80007F
310
E00001FFE00003FE00001FFF00003FF8000001FFFE0000007FFFFFF0001FFFFF
310
FFE000003E000003FFFFE000003E000003FFFF000000000003F00001FFF80001
310
F000E00007FFFC0001FFFFC00001FFFE00000FFFFF80007FC0000FFFFC0003FC
310
0000FFFFC0001FF8000001FFFE0000007FFFFFF0001FFFFFFFC00003FFE00001
310
FFFFC00003FFE00001FFFF0001FFFFFFFFF00007FFFE0001F000E0000FFFFF00
310
00FFFF800001FFFC00000FFFFF80007FC0001FFFFE0001FC0001FFFFE0001FF8
310
000001FFFE0000007FFFFFF0001FFFFFFF80000FFFF80000FFFF80000FFFF800
310
00FFFF0003FFFFFFFFE0000FFFFF8000F000C0003FFFFF8000FFFF800000FFFC
310
000007FFFF80007F80003FFFFF0001FC0003FFFFF0001FF8000001FFFE000000
310
7FFFFFF0001FFFFFFF80003FFFFE0000FFFF80003FFFFE0000FFFF0003FFFFFF
310
FFE0003FFFFF8000F000C0003FFFFF8000FFFF800000FFFC000007FFFF80007F
310
80007FFFFF8001F80007FFFFF8000FF8000001FFFE0000007FFFFFF0001FFFFF
310
FF00007FFFFF00007FFF00007FFFFF00007FFF0003FFFFFFFFE0003FFFFFC000
310
F000C0007FFFFFC000FFFF000000FFFC000007FFFF80007F8000FFFFFF8000F8
310
000FFFFFF8000FF8000001FFFE0000007FFFFFF0001FFFFFFF0000FFFFFF8000
310
7FFF0000FFFFFF80007FFF0003FFFFFFFFC0007FFFFFC00070008000FFFFFFC0
310
00FFFF000000FFF8000007FFFF80007F8000FFFFFF8000F8000FFFFFF8000FF8
310
000001FFFE0000007FFFFFF0001FFFFFFE0001FFFFFFC0003FFE0001FFFFFFC0
310
003FFF0003FFFFFFFFC0007FFFFFE00070008000FFFFFFC0007FFF0000007FF8
310
000003FFFF80007F0001FFFFFF8000F8000FFFFFF8000FF8000001FFFE000000
310
7FFFFFF0001FFFFFFE0001FFFFFFC0003FFE0001FFFFFFC0003FFF0003FFFFFF
310
FFC000FFFFFFE00070008000FFFFFFC0007FFF0000007FF8000003FFFF80007F
310
0001FFFFFF8000F8001FFFFFF8000FF8000001FFFE0000007FFFFFF0001FFFFF
310
FE0003FFFFFFE0003FFE0003FFFFFFE0003FFF0003FFFFFFFFC000FFFFFFE000
310
70008000FFFFFFC0007FFE0000007FF8000003FFFF80007F0001FFFFFF8000F0
310
001FFFFFF8000FF8000001FFFE0000007FFFFFF0001FFFFFFC0003FFFFFFE000
310
1FFC0003FFFFFFE0001FFF0003FFFFFFFFC000FFFFFFC00070008000FFFFFF80
310
007FFE0000007FF0000003FFFF80007F0001FFFFFF0000F0001FFFFFF8000FF8
310
000001FFFE0000007FFFFFF0001FFFFFFC0007FFFFFFF0001FFC0007FFFFFFF0
310
001FFF0003FFFFFFFFC000FFFFFFC00070008001FFFFFF0000FFFE0000003FF0
310
000001FFFF80007F0001FFFFFF0000F8001FFFFFF0000FF8000001FFFE000000
310
7FFFFFF0001FFFFFFC0007FFFFFFF0001FFC0007FFFFFFF0001FFF0003FFFFFF
310
FFC001FFFFFF80007000FFFFFFFFFE0000FFFE0008003FF0008001FFFF80007F
310
FFFFFFFFFC0000FFFFFFFFFFE0000FF8000001FFFE0000007FFFFFF0001FFFFF
310
F8000FFFFFFFF8000FF8000FFFFFFFF8000FFF0003FFFFFFFFFFFFFFFFFF0000
310
7000FFFFFFFFFC0000FFFC0008003FF0008001FFFF80007FFFFFFFFFF80001FF
310
FFFFFFFF80000FF8000001FFFE0000007FFFFFF0001FFFFFF8000FFFFFFFF800
310
0FF8000FFFFFFFF8000FFF0003FFFFFFFFFFFFFFFFFE0000F000FFFFFFFFE000
310
00FFFC000C003FE000C001FFFF80007FFFFFFFFFC00001FFFFFFFFFE00001FF8
310
000001FFFE0000007FFFFFF0001FFFFFF8000FFFFFFFF8000FF8000FFFFFFFF8
310
000FFF0003FFFFFFFFFFFFFFFFF00000F000FFFFFFFE000001FFFC000C001FE0
310
00C000FFFF80007FFFFFFFFE000001FFFFFFFFE000001FF80FFFFFFFFFFFFFC0
310
7FFFFFF0001FFFFFF8000FFFFFFFF8000FF8000FFFFFFFF8000FFF0003FFFFFF
310
FFFFFFFFFF800000F000FFFFFFC0000001FFFC001C001FE001C000FFFF80007F
310
FFFFFF80000003FFFFFFF80000001FF80FFFFFFFFFFFFFC07FFFFFF0001FFFFF
310
F8001FFFFFFFFC000FF8001FFFFFFFFC000FFF0003FFFFFFFFFFFFFFF0000001
310
F000FFFFF800000001FFF8001C001FE001C000FFFF80007FFFFFF800000003FF
310
FFFF800000003FF80FFFFFFFFFFFFFC07FFFFFF0001FFFFFF8001FFFFFFFFC00
310
0FF8001FFFFFFFFC000FFF0003FFFFFFFFFFFFFE00000001F000FFFFC0000000
310
03FFF8001E001FC001E000FFFF80007FFFFF8000000007FFFFFC000000003FF8
310
0FFFFFFFFFFFFFC07FFFFFF0001FFFFFF8001FFFFFFFFC000FF8001FFFFFFFFC
310
000FFF0003FFFFFFFFFFFFE000000003F000FFFE0000000007FFF8001E000FC0
310
01E0007FFF80007FFFFE0000000007FFFFE0000000007FF80FFFFFFFFFFFFFC0
310
7FFFFFF0001FFFFFF0001FFFFFFFFC0007F0001FFFFFFFFC0007FF0003FFFFFF
310
FFFFFF0000000003F000FFF80000000007FFF8001E000FC003E0007FFF80007F
310
FFF0000000000FFFFF8000000000FFF80FFFFFFFFFFFFFC07FFFFFF0001FFFFF
310
F0001FFFFFFFFC0007F0001FFFFFFFFC0007FF0003FFFFFFFFFFFC0000000007
310
F000FFE0000000000FFFF0003E000FC003E0007FFF80007FFFC0000000001FFF
310
FE0000000001FFF80FFFFFFFFFFFFFC07FFFFFF0001FFFFFF0001FFFFFFFFC00
310
07F0001FFFFFFFFC0007FF0003FFFFFFFFFFF0000000000FF000FFC000000000
310
1FFFF0003F000F8003F0003FFF80007FFF80000000003FFFF80000000003FFF8
310
0FFFFFFFFFFFFFC07FFFFFF0001FFFFFF0001FFFFFFFFC0007F0001FFFFFFFFC
310
0007FF0003FFFFFFFFFFE0000000001FF000FF00000000007FFFF0003F000780
310
03F0003FFF80007FFF00000000007FFFF00000000007FFF80FFFFFFFFFFFFFC0
310
7FFFFFF0001FFFFFF0001FFFFFFFFC0007F0001FFFFFFFFC0007FF0003FFFFFF
310
FFFF80000000007FF000FE0000000000FFFFE0003F00078007F0003FFF80007F
310
FE0000000001FFFFE0000000001FFFF80FFFFFFFFFFFFFC07FFFFFF0001FFFFF
310
F0001FFFFFFFFC0007F0001FFFFFFFFC0007FF0003FFFFFFFFFF0000000000FF
310
F000FC0000000003FFFFE0007F00078007F0003FFF80007FFC0000000007FFFF
310
C0000000007FFFF80FFFFFFFFFFFFFC07FFFFFF0001FFFFFF8001FFFFFFFFC00
310
0FF8001FFFFFFFFC000FFF0003FFFFFFFFFE0000000003FFF000FC000000000F
310
FFFFE0007F80070007F8001FFF80007FF8000000001FFFFF8000000001FFFFF8
310
0FFFFFFFFFFFFFC07FFFFFF0001FFFFFF8001FFFFFFFFC000FF8001FFFFFFFFC
310
000FFF0003FFFFFFFFFC000000000FFFF000F8000000007FFFFFE0007F800700
310
07F8001FFF80007FF000000000FFFFFF800000000FFFFFF80FFFFFFFFFFFFFC0
310
7FFFFFF0001FFFFFF8000FFFFFFFF8000FF8000FFFFFFFF8000FFF0003FFFFFF
310
FFFC000000007FFFF000F800000007FFFFFFC0007F8003000FF8001FFF80007F
310
F000000007FFFFFF000000007FFFFFF80FFFFFFFFFFFFFC07FFFFFF0001FFFFF
310
F8000FFFFFFFF8000FF8000FFFFFFFF8000FFF0003FFFFFFFFF80000000FFFFF
310
F000F0000000FFFFFFFFC000FF8003000FF8001FFF80007FE0000000FFFFFFFF
310
0000000FFFFFFFF8000001FFFE0000007FFFFFF0001FFFFFF8000FFFFFFFF800
310
0FF8000FFFFFFFF8000FFF0003FFFFFFFFF8000000FFFFFFF000F000000FFFFF
310
FFFFC000FFC002000FF8000FFF80007FE000001FFFFFFFFE000001FFFFFFFFF8
310
000001FFFE0000007FFFFFF0001FFFFFF8000FFFFFFFF8000FF8000FFFFFFFF8
310
000FFF0003FFFFFFFFF000001FFFFFFFF000E00000FFFFFFFFFFC000FFC00200
310
0FFC000FFF80007FE00001FFFFFFFFFE00001FFFFFFFFFF8000001FFFE000000
310
7FFFFFF0001FFFFFFC000FFFFFFFF8001FFC000FFFFFFFF8001FFF0003FFFFFF
310
FFF00001FFFFFFFFF000E00007FFFFFFFFFF8000FFC000001FFC000FFF80007F
310
C0000FFFFFFFFFFE0000FFFFFFFFFFF8000001FFFE0000007FFFFFF0001FFFFF
310
FC0007FFFFFFF0001FFC0007FFFFFFF0001FFF0003FFFFFFFFF00007FFFFFFFF
310
F000E0001FFFFFFFFFFF8000FFC000001FFC000FFF80007FC0003FFFFFFFFFFE
310
0001FFFFFFFFFFF8000001FFFE0000007FFFFFF0001FFFFFFC0007FFFFFFF000
310
1FFC0007FFFFFFF0001FFF0003FFFFFFFFF0001FFFFFFFFFF000E0003FFFFF00
310
03FF8001FFE000001FFC0007FF80007FC0007FFFFF0007FC0003FFFFF0003FF8
310
000001FFFE0000007FFFFFF0001FFFFFFC0003FFFFFFE0001FFC0003FFFFFFE0
310
001FFF0003FFFFFFFFF0003FFFFFFFFFF000E0003FFFFF0001FF8001FFE00000
310
1FFE0007FF80007FC0007FFFFE0003FC0007FFFFE0003FF8000001FFFE000000
310
7FFFFFF0001FFFFFFE0003FFFFFFE0003FFE0003FFFFFFE0003FFF0003FFFFFF
310
FFF0003FFFFF8001F000E0003FFFFF0001FF0001FFE000001FFE0007FF80007F
310
C0007FFFFE0003FC0007FFFFE0003FF8000001FFFE0000007FFFFFF0001FFFFF
310
FE0001FFFFFFC0003FFE0001FFFFFFC0003FFF0003FFFFFFFFF0003FFFFF0001
310
F000E0003FFFFF0003FF0001FFE000003FFE0007FF80007FC0007FFFFE0003FC
310
0007FFFFE0003FF8000001FFFE0000007FFFFFF0001FFFFFFF0001FFFFFFC000
310
7FFF0001FFFFFFC0007FFF0003FFFFFFFFF0003FFFFF0001F000E0003FFFFE00
310
03FF0003FFF000003FFE0003FF80007FC0007FFFFC0003FE0007FFFFE0003FF8
310
000001FFFE0000007FFFFFF0001FFFFFFF0000FFFFFF80007FFF0000FFFFFF80
310
007FFF0003FFFFFFFFF0003FFFFF0001F000E0003FFFFE0003FF0003FFF00000
310
3FFF0003FF80007FC0007FFFFC0007FE0007FFFFC0003FF8000001FFFE000000
310
7FFFFFF0001FFFFFFF80007FFFFF0000FFFF80007FFFFF0000FFFF0003FFFFFF
310
FFF0003FFFFF0003F000E0003FFFFC0003FE0003FFF000003FFF0003FF80007F
310
E0003FFFF80007FE0003FFFFC0007FF8000001FFFE0000007FFFFFF0001FFFFF
310
FF80003FFFFE0000FFFF80003FFFFE0000FFFF0003FFFFFFFFF0001FFFFE0003
310
F000F0001FFFF80003FE0003FFF000007FFF0001FF80007FE0003FFFF00007FE
310
0001FFFF80007FF8000001FFFE0000007FFFFFF0001FFFFFFFC0000FFFF80001
310
FFFFC0000FFFF80001FFFF0003FFFFFFFFF0001FFFFC0003F000F0000FFFF000
310
07FE0007FFF800007FFF0001FF80007FE0001FFFE00007FF0000FFFE00007FF8
310
000001FFFE0000007FFFFFF0001FFFFFFFC00003FFE00001FFFFC00003FFE000
310
01FFFF0003FFFFFFFFF8000FFFF80003F000F00003FFC00007FC0007FFF80000
310
7FFF8001FF80007FF00007FF80000FFF00007FF80000FFF8000001FFFE000000
310
7F80000000000001FFE000003E000003FFFFE000003E000003FFFF0003FFFFFF
310
FFF80003FFE00007F000F800000000000FFC0007FFF800007FFF8001FF80007F
310
F000000000000FFF000000000000FFF8000001FFFE0000007F80000000000001
310
FFF0000000000007FFFFF0000000000007FFFF0003FFFFFFFFFC00007E000007
310
F000F800000000000FFC0007FFF80000FFFF8000FF80007FF800000000001FFF
310
800000000001FFF8000001FFFE0000007F80000000000001FFF800000000000F
310
FFFFF800000000000FFFFF0003FFFFFFFFFC00000000000FF000FC0000000000
310
1FFC0007FFFC0000FFFF8000FF80007FF800000000003FFFC00000000001FFF8
310
000001FFFE0000007F80000000000001FFF800000000000FFFFFF80000000000
310
0FFFFF0003FFFFFFFFFE00000000001FF000FE00000000003FF8000FFFFC0000
310
FFFF8000FF80007FFC00000000003FFFC00000000003FFF8000001FFFE000000
310
7F80000000000001FFFC00000000001FFFFFFC00000000001FFFFF0003FFFFFF
310
FFFF00000000001FF000FF00000000003FF8000FFFFC0000FFFFC000FF80007F
310
FE00000000007FFFE00000000007FFF8000001FFFE0000007F80000000000001
310
FFFE00000000003FFFFFFE00000000003FFFFF0003FFFFFFFFFF80000000003F
310
F000FF80000000007FF8000FFFFC0001FFFFC0007F80007FFF0000000000FFFF
310
F0000000000FFFF800000000000000007F80000000000001FFFF8000000000FF
310
FFFFFF8000000000FFFFFF0003FFFFFFFFFFC0000000007FF000FFC000000000
310
FFF8000FFFFE0001FFFFC0007F80007FFF8000000001FFFFF8000000001FFFF8
310
00000000000000007F80000000000001FFFFC000000001FFFFFFFFC000000001
310
FFFFFF0003FFFFFFFFFFE000000000FFF000FFE000000003FFF0001FFFFE0001
310
FFFFC0007F80007FFFC000000007FFFFFE000000003FFFF80000000000000000
310
7F80000000000001FFFFE000000003FFFFFFFFE000000003FFFFFF0003FFFFFF
310
FFFFF000000003FFF000FFF80000000FFFF0001FFFFE0001FFFFE0007F80007F
310
FFF00000000FFFFFFF00000000FFFFF800000000000000007F80000000000001
310
FFFFF80000000FFFFFFFFFF80000000FFFFFFF0003FFFFFFFFFFFC0000000FFF
310
F000FFFE0000003FFFF0001FFFFE0003FFFFE0003F80007FFFFC0000003FFFFF
310
FFC0000003FFFFF800000000000000007F80000000000001FFFFFE0000003FFF
310
FFFFFFFE0000003FFFFFFF0003FFFFFFFFFFFF0000003FFFF000FFFF800000FF
310
FFF0001FFFFF0003FFFFE0003F80007FFFFF000001FFFFFFFFF800001FFFFFF8
310
00000000000000007F80000000000001FFFFFFC00001FFFFFFFFFFFFC00001FF
310
FFFFFF0003FFFFFFFFFFFFC00000FFFFF000FFFFF8000FFFFFFFFFFFFFFFFFFF
310
FFFFFFFFFFFFFFFFFFFFF0001FFFFFFFFFFF0000FFFFFFF80000000000000000
310
7FFFFFFFFFFFFFFFFFFFFFFC001FFFFFFFFFFFFFFC001FFFFFFFFFFFFFFFFFFF
310
FFFFFFFC001FFFFFF000FFFFFFFFFFFFFFFFFFFFFFFFFFFFFFFFFFFFFFFFFFFF
310
FFFFFFFFFFFFFFFFFFFFFFFFFFFFFFFFFFFFFFFFFFFFFFFFFFFFFFFFFFFFFFFF
310
FFFFFFFFFFFFFFFFFFFFFFFFFFFFFFFFFFFFFFFFFFFFFFFFFFFFFFFFFFFFFFFF
310
F000FFFFFFFFFFFFFFFFFFFFFFFFFFFFFFFFFFFFFFFFFFFFFFFFFFFFFFFFFFFF
310
FFFFFFFFFFFFFFFFFFFFFFFFFFFFFFFFFFFFFFFFFFFFFFFFFFFFFFFFFFFFFFFF
310
FFFFFFFFFFFFFFFFFFFFFFFFFFFFFFFFFFFFFFFFFFFFFFFFF000FFFFFFFFFFFF
310
FFFFFFFFFFFFFFFFFFFFFFFFFFFFFFFFFFFFFFFFFFFFFFFFFFFFFFFFFFFFFFFF
310
FFFFFFFFFFFFFFFFFFFFFFFFFFFFFFFFFFFFFFFFFFFFFFFFFFFFFFFFFFFFFFFF
310
FFFFFFFFFFFFFFFFFFFFFFFFFFFFFFFFF000FFFFFFFFFFFFFFFFFFFFFFFFFFFF
310
FFFFFFFFFFFFFFFFFFFFFFFFFFFFFFFFFFFFFFFFFFFFFFFFFFFFFFFFFFFFFFFF
310
FFFFFFFFFFFFFFFFFFFFFFFFFFFFFFFFFFFFFFFFFFFFFFFFFFFFFFFFFFFFFFFF
310
FFFFFFFFFFFFFFFFF000FFFFFFFFFFFFFFFFFFFFFFFFFFFFFFFFFFFFFFFFFFFF
310
FFFFFFFFFFFFFFFFFFFFFFFFFFFFFFFFFFFFFFFFFFFFFFFFFFFFFFFFFFFFFFFF
310
FFFFFFFFFFFFFFFFFFFFFFFFFFFFFFFFFFFFFFFFFFFFFFFFFFFFFFFFFFFFFFFF
310
F000FFFFFFFFFFFFFFFFFFFFFFFFFFFFFFFFFFFFFFFFFFFFFFFFFFFFFFFFFFFF
310
FFFFFFFFFFFFFFFFFFFFFFFFFFFFFFFFFFFFFFFFFFFFFFFFFFFFFFFFFFFFFFFF
310
FFFFFFFFFFFFFFFFFFFFFFFFFFFFFFFFFFFFFFFFFFFFFFFFF000FFFFFFFFFFFF
310
FFFFFFFFFFFFFFFFFFFFFFFFFFFFFFFFFFFFFFFFFFFFFFFFFFFFFFFFFFFFFFFF
310
FFFFFFFFFFFFFFFFFFFFFFFFFFFFFFFFFFFFFFFFFFFFFFFFFFFFFFFFFFFFFFFF
310
FFFFFFFFFFFFFFFFFFFFFFFFFFFFFFFFF000FFFFFFFFFFFFFFFFFFFFFFFFFFFF
310
FFFFFFFFFFFFFFFFFFFFFFFFFFFFFFFFFFFFFFFFFFFFFFFFFFFFFFFFFFFFFFFF
310
FFFFFFFFFFFFFFFFFFFFFFFFFFFFFFFFFFFFFFFFFFFFFFFFFFFFFFFFFFFFFFFF
310
FFFFFFFFFFFFFFFFF000FFFFFFFFFFFFFFFFFFFFFFFFFFFFFFFFFFFFFFFFFFFF
310
FFFFFFFFFFFFFFFFFFFFFFFFFFFFFFFFFFFFFFFFFFFFFFFFFFFFFFFFFFFFFFFF
310
FFFFFFFFFFFFFFFFFFFFFFFFFFFFFFFFFFFFFFFFFFFFFFFFFFFFFFFFFFFFFFFF
310
F000FFFFFFFFFFFFFFFFFFFFFFFFFFFFFFFFFFFFFFFFFFFFFFFFFFFFFFFFFFFF
310
FFFFFFFFFFFFFFFFFFFFFFFFFFFFFFFFFFFFFFFFFFFFFFFFFFFFFFFFFFFFFFFF
310
FFFFFFFFFFFFFFFFFFFFFFFFFFFFFFFFFFFFFFFFFFFFFFFFF000FFFFFFFFFFFF
310
FFFFFFFFFFFFFFFFFFFFFFFFFFFFFFFFFFFFFFFFFFFFFFFFFFFFFFFFFFFFFFFF
310
FFFFFFFFFFFFFFFFFFFFFFFFFFFFFFFFFFFFFFFFFFFFFFFFFFFFFFFFFFFFFFFF
310
FFFFFFFFFFFFFFFFFFFFFFFFFFFFFFFFF000FFFFFFFFFFFFFFFFFFFFFFFFFFFF
310
FFFFFFFFFFFFFFFFFFFFFFFFFFFFFFFFFFFFFFFFFFFFFFFFFFFFFFFFFFFFFFFF
310
FFFFFFFFFFFFFFFFFFFFFFFFFFFFFFFFFFFFFFFFFFFFFFFFFFFFFFFFFFFFFFFF
310
FFFFFFFFFFFFFFFFF000FFFFFFFFFFFFFFFFFFFFFFFFFFFFFFFFFFFFFFFFFFFF
310
FFFFFFFFFFFFFFFFFFFFFFFFFFFFFFFFFFFFFFFFFFFFFFFFFFFFFFFFFFFFFFFF
310
FFFFFFFFFFFFFFFFFFFFFFFFFFFFFFFFFFFFFFFFFFFFFFFFFFFFFFFFFFFFFFFF
310
F000FFFFFFFFFFFFFFFFFFFFFFFFFFFFFFFFFFFFFFFFFFFFFFFFFFFFFFFFFFFF
310
FFFFFFFFFFFFFFFFFFFFFFFFFFFFFFFFFFFFFFFFFFFFFFFFFFFFFFFFFFFFFFFF
310
FFFFFFFFFFFFFFFFFFFFFFFFFFFFFFFFFFFFFFFFFFFFFFFFF000FFFFFFFFFFFF
310
FFFFFFFFFFFFFFFFFFFFFFFFFFFFFFFFFFFFFFFFFFFFFFFFFFFFFFFFFFFFFFFF
310
FFFFFFFFFFFFFFFFFFFFFFFFFFFFFFFFFFFFFFFFFFFFFFFFFFFFFFFFFFFFFFFF
310
FFFFFFFFFFFFFFFFFFFFFFFFFFFFFFFFF000FFFFFFFFFFFFFFFFFFFFFFFFFFFF
310
FFFFFFFFFFFFFFFFFFFFFFFFFFFFFFFFFFFFFFFFFFFFFFFFFFFFFFFFFFFFFFFF
310
FFFFFFFFFFFFFFFFFFFFFFFFFFFFFFFFFFFFFFFFFFFFFFFFFFFFFFFFFFFFFFFF
310
FFFFFFFFFFFFFFFFF000FFFFFFFFFFFFFFFFFFFFFFFFFFFFFFFFFFFFFFFFFFFF
310
FFFFFFFFFFFFFFFFFFFFFFFFFFFFFFFFFFFFFFFFFFFFFFFFFFFFFFFFFFFFFFFF
310
FFFFFFFFFFFFFFFFFFFFFFFFFFFFFFFFFFFFFFFFFFFFFFFFFFFFFFFFFFFFFFFF
310
F000FFFFFFFFFFFFFFFFFFFFFFFFFFFFFFFFFFFFFFFFFFFFFFFFFFFFFFFFFFFF
310
FFFFFFFFFFFFFFFFFFFFFFFFFFFFFFFFFFFFFFFFFFFFFFFFFFFFFFFFFFFFFFFF
310
FFFFFFFFFFFFFFFFFFFFFFFFFFFFFFFFFFFFFFFFFFFFFFFFF000FFFFFFFFFFFF
310
FFFFFFFFFFFFFFFFFFFFFFFFFFFFFFFFFFFFFFFFFFFFFFFFFFFFFFFFFFFFFFFF
310
FFFFFFFFFFFFFFFFFFFFFFFFFFFFFFFFFFFFFFFFFFFFFFFFFFFFFFFFFFFFFFFF
310
FFFFFFFFFFFFFFFFFFFFFFFFFFFFFFFFF000FFFFFFFFFFFFFFFFFFFFFFFFFFFF
310
FFFFFFFFFFFFFFFFFFFFFFFFFFFFFFFFFFFFFFFFFFFFFFFFFFFFFFFFFFFFFFFF
310
FFFFFFFFFFFFFFFFFFFFFFFFFFFFFFFFFFFFFFFFFFFFFFFFFFFFFFFFFFFFFFFF
310
FFFFFFFFFFFFFFFFF000FFFFFFFFFFFFFFFFFFFFFFFFFFFFFFFFFFFFFFFFFFFF
310
FFFFFFFFFFFFFFFFFFFFFFFFFFFFFFFFFFFFFFFFFFFFFFFFFFFFFFFFFFFFFFFF
310
FFFFFFFFFFFFFFFFFFFFFFFFFFFFFFFFFFFFFFFFFFFFFFFFFFFFFFFFFFFFFFFF
310
F000FFFFFFFFFFFFFFFFFFFFFFFFFFFFFFFFFFFFFFFFFFFFFFFFFFFFFFFFFFFF
310
FFFFFFFFFFFFFFFFFFFFFFFFFFFFFFFFFFFFFFFFFFFFFFFFFFFFFFFFFFFFFFFF
310
FFFFFFFFFFFFFFFFFFFFFFFFFFFFFFFFFFFFFFFFFFFFFFFFF000FFFFFFFFFFFF
310
FFFFFFFFFFFFFFFFFFFFFFFFFFFFFFFFFFFFFFFFFFFFFFFFFFFFFFFFFFFFFFFF
310
FFFFFFFFFFFFFFFFFFFFFFFFFFFFFFFFFFFFFFFFFFFFFFFFFFFFFFFFFFFFFFFF
310
FFFFFFFFFFFFFFFFFFFFFFFFFFFFFFFFF0000000000000000000000000000000
310
0000000000000000000000000000000000000000000000000000000000000000
310
0000000000000000000000000000000000000000000000000000000000000000
310
0000000000000000000000000000000000000000000000000000000000000000
310
0000000000000000000000000000000000000000000000000000000000000000
310
0000000000000000000000000000000000000000000000000000000000000000
310
0000000000000000000000000000000000000000000000000000000000000000
310
0000000000000000000000000000000000000000000000000000000000000000
310
0000000000000000000000000000000000000000000000000000000000000000
310
0000000000000000000000000000000000000000000000000000000000000000
310
0000000000000000000000000000000000000000000000000000000000000000
310
0000000000000000000000000000000000000000000000000000000000000000
310
0000000000000000000000000000000000000000000000000000000000000000
310
0000000000000000000000000000000000000000000000000000000000000000
310
0000000000000000000000000000000000000000000000000000000000000000
310
0000000000000000000000000000000000000000000000000000000000000000
  1
OLE
  0
ENDSEC
  0
SECTION
  2
OBJECTS
  0
DICTIONARY
  5
C
330
0
100
AcDbDictionary
281
     1
  3
ACAD_GROUP
350
D
  3
ACAD_LAYOUT
350
1A
  3
ACAD_MLINESTYLE
350
17
  3
ACAD_PLOTSETTINGS
350
19
  3
ACAD_PLOTSTYLENAME
350
E
  3
ACAD_SCALELIST
350
47
  0
DICTIONARY
  5
D
102
{ACAD_REACTORS
330
C
102
}
330
C
100
AcDbDictionary
281
     1
  0
DICTIONARY
  5
1A
102
{ACAD_REACTORS
330
C
102
}
330
C
100
AcDbDictionary
281
     1
  3
Layout1
350
1E
  3
Layout2
350
26
  3
Model
350
22
  0
DICTIONARY
  5
17
102
{ACAD_REACTORS
330
C
102
}
330
C
100
AcDbDictionary
281
     1
  3
Standard
350
18
  0
DICTIONARY
  5
19
102
{ACAD_REACTORS
330
C
102
}
330
C
100
AcDbDictionary
281
     1
  0
ACDBDICTIONARYWDFLT
  5
E
102
{ACAD_REACTORS
330
C
102
}
330
C
100
AcDbDictionary
281
     1
  3
Normal
350
F
100
AcDbDictionaryWithDefault
340
F
  0
DICTIONARY
  5
47
102
{ACAD_REACTORS
330
C
102
}
330
C
100
AcDbDictionary
281
     1
  3
A0
350
48
  3
A1
350
49
  3
A2
350
4A
  3
A3
350
4B
  3
A4
350
4C
  3
A5
350
4D
  3
A6
350
4E
  3
A7
350
4F
  3
A8
350
50
  3
A9
350
51
  3
B0
350
52
  3
B1
350
53
  3
B2
350
54
  3
B3
350
55
  3
B4
350
56
  3
B5
350
57
  3
B6
350
58
  3
B7
350
59
  3
B8
350
5A
  3
B9
350
5B
  3
C0
350
5C
  3
C1
350
5D
  3
C2
350
5E
  3
C3
350
5F
  3
C4
350
60
  3
C5
350
61
  3
C6
350
62
  3
C7
350
63
  3
C8
350
64
  3
C9
350
65
  3
D0
350
66
  3
D1
350
67
  3
D2
350
68
  0
LAYOUT
  5
1E
102
{ACAD_REACTORS
330
1A
102
}
330
1A
100
AcDbPlotSettings
  1

  2
none_device
  4

  6

 40
0.0
 41
0.0
 42
0.0
 43
0.0
 44
0.0
 45
0.0
 46
0.0
 47
0.0
 48
0.0
 49
0.0
140
0.0
141
0.0
142
1.0
143
1.0
 70
   688
 72
     1
 73
     0
 74
     5
  7

 75
    16
147
1.0
148
0.0
149
0.0
100
AcDbLayout
  1
Layout1
 70
     1
 71
     1
 10
0.0
 20
0.0
 11
420.0
 21
297.0
 12
0.0
 22
0.0
 32
0.0
 14
1.0000000000E+20
 24
1.0000000000E+20
 34
1.0000000000E+20
 15
-1.0000000000E+20
 25
-1.0000000000E+20
 35
-1.0000000000E+20
146
0.0
 13
0.0
 23
0.0
 33
0.0
 16
1.0
 26
0.0
 36
0.0
 17
0.0
 27
1.0
 37
0.0
 76
     0
330
1B
  0
LAYOUT
  5
26
102
{ACAD_REACTORS
330
1A
102
}
330
1A
100
AcDbPlotSettings
  1

  2
none_device
  4

  6

 40
0.0
 41
0.0
 42
0.0
 43
0.0
 44
0.0
 45
0.0
 46
0.0
 47
0.0
 48
0.0
 49
0.0
140
0.0
141
0.0
142
1.0
143
1.0
 70
   688
 72
     1
 73
     0
 74
     5
  7

 75
    16
147
1.0
148
0.0
149
0.0
100
AcDbLayout
  1
Layout2
 70
     1
 71
     2
 10
0.0
 20
0.0
 11
0.0
 21
0.0
 12
0.0
 22
0.0
 32
0.0
 14
0.0
 24
0.0
 34
0.0
 15
0.0
 25
0.0
 35
0.0
146
0.0
 13
0.0
 23
0.0
 33
0.0
 16
1.0
 26
0.0
 36
0.0
 17
0.0
 27
1.0
 37
0.0
 76
     0
330
23
  0
LAYOUT
  5
22
102
{ACAD_REACTORS
330
1A
102
}
330
1A
100
AcDbPlotSettings
  1

  2
none_device
  4
Letter_(8.50_x_11.00_Inches)
  6

 40
6.35
 41
6.35
 42
6.35000508
 43
6.35000508
 44
215.9
 45
279.4
 46
0.0
 47
0.0
 48
0.0
 49
0.0
140
0.0
141
0.0
142
1.0
143
1.0
 70
  1712
 72
     1
 73
     0
 74
     0
  7

 75
     0
147
1.0
148
0.0
149
0.0
100
AcDbLayout
  1
Model
 70
     1
 71
     0
 10
0.0
 20
0.0
 11
297.0
 21
210.0
 12
0.0
 22
0.0
 32
0.0
 14
0.0
 24
0.0
 34
0.0
 15
297.0
 25
210.0
 35
0.0
146
0.0
 13
0.0
 23
0.0
 33
0.0
 16
1.0
 26
0.0
 36
0.0
 17
0.0
 27
1.0
 37
0.0
 76
     0
330
1F
331
29
  0
MLINESTYLE
  5
18
102
{ACAD_REACTORS
330
17
102
}
330
17
100
AcDbMlineStyle
  2
Standard
 70
     0
  3

 62
   256
 51
90.0
 52
90.0
 71
     2
 49
0.5
 62
   256
  6
BYLAYER
 49
-0.5
 62
   256
  6
BYLAYER
  0
ACDBPLACEHOLDER
  5
F
102
{ACAD_REACTORS
330
E
102
}
330
E
  0
SCALE
  5
48
102
{ACAD_REACTORS
330
47
102
}
330
47
100
AcDbScale
 70
     0
300
1:1
140
1.0
141
1.0
290
     1
  0
SCALE
  5
49
102
{ACAD_REACTORS
330
47
102
}
330
47
100
AcDbScale
 70
     0
300
1:2
140
1.0
141
2.0
290
     0
  0
SCALE
  5
4A
102
{ACAD_REACTORS
330
47
102
}
330
47
100
AcDbScale
 70
     0
300
1:4
140
1.0
141
4.0
290
     0
  0
SCALE
  5
4B
102
{ACAD_REACTORS
330
47
102
}
330
47
100
AcDbScale
 70
     0
300
1:5
140
1.0
141
5.0
290
     0
  0
SCALE
  5
4C
102
{ACAD_REACTORS
330
47
102
}
330
47
100
AcDbScale
 70
     0
300
1:8
140
1.0
141
8.0
290
     0
  0
SCALE
  5
4D
102
{ACAD_REACTORS
330
47
102
}
330
47
100
AcDbScale
 70
     0
300
1:10
140
1.0
141
10.0
290
     0
  0
SCALE
  5
4E
102
{ACAD_REACTORS
330
47
102
}
330
47
100
AcDbScale
 70
     0
300
1:16
140
1.0
141
16.0
290
     0
  0
SCALE
  5
4F
102
{ACAD_REACTORS
330
47
102
}
330
47
100
AcDbScale
 70
     0
300
1:20
140
1.0
141
20.0
290
     0
  0
SCALE
  5
50
102
{ACAD_REACTORS
330
47
102
}
330
47
100
AcDbScale
 70
     0
300
1:30
140
1.0
141
30.0
290
     0
  0
SCALE
  5
51
102
{ACAD_REACTORS
330
47
102
}
330
47
100
AcDbScale
 70
     0
300
1:40
140
1.0
141
40.0
290
     0
  0
SCALE
  5
52
102
{ACAD_REACTORS
330
47
102
}
330
47
100
AcDbScale
 70
     0
300
1:50
140
1.0
141
50.0
290
     0
  0
SCALE
  5
53
102
{ACAD_REACTORS
330
47
102
}
330
47
100
AcDbScale
 70
     0
300
1:100
140
1.0
141
100.0
290
     0
  0
SCALE
  5
54
102
{ACAD_REACTORS
330
47
102
}
330
47
100
AcDbScale
 70
     0
300
2:1
140
2.0
141
1.0
290
     0
  0
SCALE
  5
55
102
{ACAD_REACTORS
330
47
102
}
330
47
100
AcDbScale
 70
     0
300
4:1
140
4.0
141
1.0
290
     0
  0
SCALE
  5
56
102
{ACAD_REACTORS
330
47
102
}
330
47
100
AcDbScale
 70
     0
300
8:1
140
8.0
141
1.0
290
     0
  0
SCALE
  5
57
102
{ACAD_REACTORS
330
47
102
}
330
47
100
AcDbScale
 70
     0
300
10:1
140
10.0
141
1.0
290
     0
  0
SCALE
  5
58
102
{ACAD_REACTORS
330
47
102
}
330
47
100
AcDbScale
 70
     0
300
100:1
140
100.0
141
1.0
290
     0
  0
SCALE
  5
59
102
{ACAD_REACTORS
330
47
102
}
330
47
100
AcDbScale
 70
     0
300
1/128" = 1'-0"
140
0.0078125
141
12.0
290
     0
  0
SCALE
  5
5A
102
{ACAD_REACTORS
330
47
102
}
330
47
100
AcDbScale
 70
     0
300
1/64" = 1'-0"
140
0.015625
141
12.0
290
     0
  0
SCALE
  5
5B
102
{ACAD_REACTORS
330
47
102
}
330
47
100
AcDbScale
 70
     0
300
1/32" = 1'-0"
140
0.03125
141
12.0
290
     0
  0
SCALE
  5
5C
102
{ACAD_REACTORS
330
47
102
}
330
47
100
AcDbScale
 70
     0
300
1/16" = 1'-0"
140
0.0625
141
12.0
290
     0
  0
SCALE
  5
5D
102
{ACAD_REACTORS
330
47
102
}
330
47
100
AcDbScale
 70
     0
300
3/32" = 1'-0"
140
0.09375
141
12.0
290
     0
  0
SCALE
  5
5E
102
{ACAD_REACTORS
330
47
102
}
330
47
100
AcDbScale
 70
     0
300
1/8" = 1'-0"
140
0.125
141
12.0
290
     0
  0
SCALE
  5
5F
102
{ACAD_REACTORS
330
47
102
}
330
47
100
AcDbScale
 70
     0
300
3/16" = 1'-0"
140
0.1875
141
12.0
290
     0
  0
SCALE
  5
60
102
{ACAD_REACTORS
330
47
102
}
330
47
100
AcDbScale
 70
     0
300
1/4" = 1'-0"
140
0.25
141
12.0
290
     0
  0
SCALE
  5
61
102
{ACAD_REACTORS
330
47
102
}
330
47
100
AcDbScale
 70
     0
300
3/8" = 1'-0"
140
0.375
141
12.0
290
     0
  0
SCALE
  5
62
102
{ACAD_REACTORS
330
47
102
}
330
47
100
AcDbScale
 70
     0
300
1/2" = 1'-0"
140
0.5
141
12.0
290
     0
  0
SCALE
  5
63
102
{ACAD_REACTORS
330
47
102
}
330
47
100
AcDbScale
 70
     0
300
3/4" = 1'-0"
140
0.75
141
12.0
290
     0
  0
SCALE
  5
64
102
{ACAD_REACTORS
330
47
102
}
330
47
100
AcDbScale
 70
     0
300
1" = 1'-0"
140
1.0
141
12.0
290
     0
  0
SCALE
  5
65
102
{ACAD_REACTORS
330
47
102
}
330
47
100
AcDbScale
 70
     0
300
1-1/2" = 1'-0"
140
1.5
141
12.0
290
     0
  0
SCALE
  5
66
102
{ACAD_REACTORS
330
47
102
}
330
47
100
AcDbScale
 70
     0
300
3" = 1'-0"
140
3.0
141
12.0
290
     0
  0
SCALE
  5
67
102
{ACAD_REACTORS
330
47
102
}
330
47
100
AcDbScale
 70
     0
300
6" = 1'-0"
140
6.0
141
12.0
290
     0
  0
SCALE
  5
68
102
{ACAD_REACTORS
330
47
102
}
330
47
100
AcDbScale
 70
     0
300
1'-0" = 1'-0"
140
12.0
141
12.0
290
     0
  0
ENDSEC
  0
EOF
