  0
SECTION
  2
HEADER
  9
$ACADVER
  1
AC1015
  9
$ACADMAINTVER
 70
     6
  9
$DWGCODEPAGE
  3
ANSI_1252
  9
$INSBASE
 10
0.0
 20
0.0
 30
0.0
  9
$EXTMIN
 10
0.0
 20
0.0
 30
0.0
  9
$EXTMAX
 10
297.0
 20
210.0
 30
0.0
  9
$LIMMIN
 10
0.0
 20
0.0
  9
$LIMMAX
 10
297.0
 20
210.0
  9
$ORTHOMODE
 70
     0
  9
$REGENMODE
 70
     1
  9
$FILLMODE
 70
     1
  9
$QTEXTMODE
 70
     0
  9
$MIRRTEXT
 70
     1
  9
$LTSCALE
 40
1.0
  9
$ATTMODE
 70
     1
  9
$TEXTSIZE
 40
2.0
  9
$TRACEWID
 40
1.0
  9
$TEXTSTYLE
  7
Standard
  9
$CLAYER
  8
0
  9
$CELTYPE
  6
ByLayer
  9
$CECOLOR
 62
   256
  9
$CELTSCALE
 40
1.0
  9
$DISPSILH
 70
     0
  9
$DIMSCALE
 40
1.0
  9
$DIMASZ
 40
3.0
  9
$DIMEXO
 40
0.0
  9
$DIMDLI
 40
3.75
  9
$DIMRND
 40
0.0
  9
$DIMDLE
 40
0.0
  9
$DIMEXE
 40
1.0
  9
$DIMTP
 40
0.0
  9
$DIMTM
 40
0.0
  9
$DIMTXT
 40
2.0
  9
$DIMCEN
 40
2.5
  9
$DIMTSZ
 40
0.0
  9
$DIMTOL
 70
     0
  9
$DIMLIM
 70
     0
  9
$DIMTIH
 70
     1
  9
$DIMTOH
 70
     1
  9
$DIMSE1
 70
     0
  9
$DIMSE2
 70
     0
  9
$DIMTAD
 70
     1
  9
$DIMZIN
 70
     0
  9
$DIMBLK
  1

  9
$DIMASO
 70
     1
  9
$DIMSHO
 70
     1
  9
$DIMPOST
  1

  9
$DIMAPOST
  1

  9
$DIMALT
 70
     0
  9
$DIMALTD
 70
     3
  9
$DIMALTF
 40
0.0393700787
  9
$DIMLFAC
 40
2.0
  9
$DIMTOFL
 70
     1
  9
$DIMTVP
 40
0.0
  9
$DIMTIX
 70
     0
  9
$DIMSOXD
 70
     0
  9
$DIMSAH
 70
     0
  9
$DIMBLK1
  1

  9
$DIMBLK2
  1

  9
$DIMSTYLE
  2
ISO-25
  9
$DIMCLRD
 70
     0
  9
$DIMCLRE
 70
     0
  9
$DIMCLRT
 70
     0
  9
$DIMTFAC
 40
1.0
  9
$DIMGAP
 40
1.524
  9
$DIMJUST
 70
     0
  9
$DIMSD1
 70
     0
  9
$DIMSD2
 70
     0
  9
$DIMTOLJ
 70
     0
  9
$DIMTZIN
 70
     0
  9
$DIMALTZ
 70
     0
  9
$DIMALTTZ
 70
     0
  9
$DIMUPT
 70
     0
  9
$DIMDEC
 70
     2
  9
$DIMTDEC
 70
     3
  9
$DIMALTU
 70
     2
  9
$DIMALTTD
 70
     3
  9
$DIMTXSTY
  7
Standard
  9
$DIMAUNIT
 70
     0
  9
$DIMADEC
 70
     2
  9
$DIMALTRND
 40
0.0
  9
$DIMAZIN
 70
     0
  9
$DIMDSEP
 70
    44
  9
$DIMATFIT
 70
     3
  9
$DIMFRAC
 70
     0
  9
$DIMLDRBLK
  1

  9
$DIMLUNIT
 70
     2
  9
$DIMLWD
 70
    -2
  9
$DIMLWE
 70
    -2
  9
$DIMTMOVE
 70
     0
  9
$LUNITS
 70
     2
  9
$LUPREC
 70
     2
  9
$SKETCHINC
 40
1.0
  9
$FILLETRAD
 40
10.0
  9
$AUNITS
 70
     0
  9
$AUPREC
 70
     2
  9
$MENU
  1
.
  9
$ELEVATION
 40
0.0
  9
$PELEVATION
 40
0.0
  9
$THICKNESS
 40
0.0
  9
$LIMCHECK
 70
     0
  9
$CHAMFERA
 40
0.0
  9
$CHAMFERB
 40
0.0
  9
$CHAMFERC
 40
0.0
  9
$CHAMFERD
 40
0.0
  9
$SKPOLY
 70
     0
  9
$TDCREATE
 40
2457675.615821979
  9
$TDUCREATE
 40
2457675.532488646
  9
$TDUPDATE
 40
2457675.615823275
  9
$TDUUPDATE
 40
2457675.532489942
  9
$TDINDWG
 40
0.0000000116
  9
$TDUSRTIMER
 40
0.0000000116
  9
$USRTIMER
 70
     1
  9
$ANGBASE
 50
0.0
  9
$ANGDIR
 70
     0
  9
$PDMODE
 70
     0
  9
$PDSIZE
 40
-1.0
  9
$PLINEWID
 40
0.0
  9
$SPLFRAME
 70
     0
  9
$SPLINETYPE
 70
     6
  9
$SPLINESEGS
 70
     8
  9
$HANDSEED
  5
242
  9
$SURFTAB1
 70
     6
  9
$SURFTAB2
 70
     6
  9
$SURFTYPE
 70
     6
  9
$SURFU
 70
     6
  9
$SURFV
 70
     6
  9
$UCSBASE
  2

  9
$UCSNAME
  2

  9
$UCSORG
 10
0.0
 20
0.0
 30
0.0
  9
$UCSXDIR
 10
1.0
 20
0.0
 30
0.0
  9
$UCSYDIR
 10
0.0
 20
1.0
 30
0.0
  9
$UCSORTHOREF
  2

  9
$UCSORTHOVIEW
 70
     0
  9
$UCSORGTOP
 10
0.0
 20
0.0
 30
0.0
  9
$UCSORGBOTTOM
 10
0.0
 20
0.0
 30
0.0
  9
$UCSORGLEFT
 10
0.0
 20
0.0
 30
0.0
  9
$UCSORGRIGHT
 10
0.0
 20
0.0
 30
0.0
  9
$UCSORGFRONT
 10
0.0
 20
0.0
 30
0.0
  9
$UCSORGBACK
 10
0.0
 20
0.0
 30
0.0
  9
$PUCSBASE
  2

  9
$PUCSNAME
  2

  9
$PUCSORG
 10
0.0
 20
0.0
 30
0.0
  9
$PUCSXDIR
 10
1.0
 20
0.0
 30
0.0
  9
$PUCSYDIR
 10
0.0
 20
1.0
 30
0.0
  9
$PUCSORTHOREF
  2

  9
$PUCSORTHOVIEW
 70
     0
  9
$PUCSORGTOP
 10
0.0
 20
0.0
 30
0.0
  9
$PUCSORGBOTTOM
 10
0.0
 20
0.0
 30
0.0
  9
$PUCSORGLEFT
 10
0.0
 20
0.0
 30
0.0
  9
$PUCSORGRIGHT
 10
0.0
 20
0.0
 30
0.0
  9
$PUCSORGFRONT
 10
0.0
 20
0.0
 30
0.0
  9
$PUCSORGBACK
 10
0.0
 20
0.0
 30
0.0
  9
$USERI1
 70
     0
  9
$USERI2
 70
     0
  9
$USERI3
 70
     0
  9
$USERI4
 70
     0
  9
$USERI5
 70
     0
  9
$USERR1
 40
0.0
  9
$USERR2
 40
0.0
  9
$USERR3
 40
0.0
  9
$USERR4
 40
0.0
  9
$USERR5
 40
0.0
  9
$WORLDVIEW
 70
     1
  9
$SHADEDGE
 70
     3
  9
$SHADEDIF
 70
    70
  9
$TILEMODE
 70
     1
  9
$MAXACTVP
 70
    64
  9
$PINSBASE
 10
0.0
 20
0.0
 30
0.0
  9
$PLIMCHECK
 70
     0
  9
$PEXTMIN
 10
1.0000000000E+20
 20
1.0000000000E+20
 30
1.0000000000E+20
  9
$PEXTMAX
 10
-1.0000000000E+20
 20
-1.0000000000E+20
 30
-1.0000000000E+20
  9
$PLIMMIN
 10
0.0
 20
0.0
  9
$PLIMMAX
 10
420.0
 20
297.0
  9
$UNITMODE
 70
     0
  9
$VISRETAIN
 70
     1
  9
$PLINEGEN
 70
     0
  9
$PSLTSCALE
 70
     1
  9
$TREEDEPTH
 70
  3020
  9
$CMLSTYLE
  2
Standard
  9
$CMLJUST
 70
     0
  9
$CMLSCALE
 40
20.0
  9
$PROXYGRAPHICS
 70
     1
  9
$MEASUREMENT
 70
     1
  9
$CELWEIGHT
370
    -1
  9
$ENDCAPS
280
     0
  9
$JOINSTYLE
280
     0
  9
$LWDISPLAY
290
     1
  9
$INSUNITS
 70
     4
  9
$HYPERLINKBASE
  1

  9
$STYLESHEET
  1

  9
$XEDIT
290
     1
  9
$CEPSNTYPE
380
     0
  9
$PSTYLEMODE
290
     1
  9
$FINGERPRINTGUID
  2
{7BD27DB7-5F5C-45E3-8A30-17D7FC399B45}
  9
$VERSIONGUID
  2
{FAEB1C32-E019-11D5-929B-00C0DF256EC4}
  9
$EXTNAMES
290
     1
  9
$PSVPSCALE
 40
0.0
  9
$OLESTARTUP
290
     0
  0
ENDSEC
  0
SECTION
  2
CLASSES
  0
CLASS
  1
ACDBDICTIONARYWDFLT
  2
AcDbDictionaryWithDefault
  3
ObjectDBX Classes
 90
        0
280
     0
281
     0
  0
CLASS
  1
VISUALSTYLE
  2
AcDbVisualStyle
  3
ObjectDBX Classes
 90
     4095
280
     0
281
     0
  0
CLASS
  1
MATERIAL
  2
AcDbMaterial
  3
ObjectDBX Classes
 90
     1153
280
     0
281
     0
  0
CLASS
  1
SCALE
  2
AcDbScale
  3
ObjectDBX Classes
 90
     1153
280
     0
281
     0
  0
CLASS
  1
TABLESTYLE
  2
AcDbTableStyle
  3
ObjectDBX Classes
 90
     4095
280
     0
281
     0
  0
CLASS
  1
MLEADERSTYLE
  2
AcDbMLeaderStyle
  3
ACDB_MLEADERSTYLE_CLASS
 90
     4095
280
     0
281
     0
  0
CLASS
  1
SUN
  2
AcDbSun
  3
SCENEOE
 90
     1153
280
     0
281
     0
  0
CLASS
  1
ACDBPLACEHOLDER
  2
AcDbPlaceHolder
  3
ObjectDBX Classes
 90
        0
280
     0
281
     0
  0
CLASS
  1
LAYOUT
  2
AcDbLayout
  3
ObjectDBX Classes
 90
        0
280
     0
281
     0
  0
ENDSEC
  0
SECTION
  2
TABLES
  0
TABLE
  2
VPORT
  5
8
330
0
100
AcDbSymbolTable
 70
     1
  0
VPORT
  5
29
330
8
100
AcDbSymbolTableRecord
100
AcDbViewportTableRecord
  2
*Active
 70
     0
 10
0.0
 20
0.0
 11
1.0
 21
1.0
 12
148.5
 22
105.0
 13
0.0
 23
0.0
 14
10.0
 24
10.0
 15
10.0
 25
10.0
 16
0.0
 26
0.0
 36
1.0
 17
0.0
 27
0.0
 37
0.0
 40
210.0
 41
1.4142857143
 42
50.0
 43
0.0
 44
0.0
 50
0.0
 51
0.0
 71
     0
 72
  2000
 73
     1
 74
     3
 75
     0
 76
     0
 77
     0
 78
     0
281
     0
 65
     1
110
0.0
120
0.0
130
0.0
111
1.0
121
0.0
131
0.0
112
0.0
122
1.0
132
0.0
 79
     0
146
0.0
  0
ENDTAB
  0
TABLE
  2
LTYPE
  5
5
330
0
100
AcDbSymbolTable
 70
     6
  0
LTYPE
  5
14
330
5
100
AcDbSymbolTableRecord
100
AcDbLinetypeTableRecord
  2
ByBlock
 70
     0
  3

 72
    65
 73
     0
 40
0.0
  0
LTYPE
  5
15
330
5
100
AcDbSymbolTableRecord
100
AcDbLinetypeTableRecord
  2
ByLayer
 70
     0
  3

 72
    65
 73
     0
 40
0.0
  0
LTYPE
  5
16
330
5
100
AcDbSymbolTableRecord
100
AcDbLinetypeTableRecord
  2
Continuous
 70
     0
  3
Solid line
 72
    65
 73
     0
 40
0.0
  0
LTYPE
  5
6E
330
5
100
AcDbSymbolTableRecord
100
AcDbLinetypeTableRecord
  2
HIDDEN
 70
     0
  3
Hidden __ __ __ __ __ __ __ __ __ __ __ __ __ __
 72
    65
 73
     2
 40
1.905
 49
1.27
 74
     0
 49
-0.635
 74
     0
  0
LTYPE
  5
6F
330
5
100
AcDbSymbolTableRecord
100
AcDbLinetypeTableRecord
  2
PHANTOM
 70
     0
  3
Phantom ______  __  __  ______  __  __  ______
 72
    65
 73
     6
 40
12.7
 49
6.35
 74
     0
 49
-1.27
 74
     0
 49
1.27
 74
     0
 49
-1.27
 74
     0
 49
1.27
 74
     0
 49
-1.27
 74
     0
  0
LTYPE
  5
70
330
5
100
AcDbSymbolTableRecord
100
AcDbLinetypeTableRecord
  2
CENTER
 70
     0
  3
Center ____ _ ____ _ ____ _ ____ _ ____ _ ____
 72
    65
 73
     4
 40
10.16
 49
6.35
 74
     0
 49
-1.27
 74
     0
 49
1.27
 74
     0
 49
-1.27
 74
     0
  0
LTYPE
  5
71
330
5
100
AcDbSymbolTableRecord
100
AcDbLinetypeTableRecord
  2
CENTERX2
 70
     0
  3
Center (2x) ________  __  ________  __  _____
 72
    65
 73
     4
 40
20.32
 49
12.7
 74
     0
 49
-2.54
 74
     0
 49
2.54
 74
     0
 49
-2.54
 74
     0
  0
LTYPE
  5
72
330
5
100
AcDbSymbolTableRecord
100
AcDbLinetypeTableRecord
  2
DOT2
 70
     0
  3
Dot (.5x) ........................................
 72
    65
 73
     2
 40
0.635
 49
0.0
 74
     0
 49
-0.635
 74
     0
  0
ENDTAB
  0
TABLE
  2
LAYER
  5
2
330
0
100
AcDbSymbolTable
 70
     5
  0
LAYER
  5
10
330
2
100
AcDbSymbolTableRecord
100
AcDbLayerTableRecord
  2
0
 70
     0
 62
     7
  6
Continuous
370
    -3
390
F
  0
LAYER
  5
73
330
2
100
AcDbSymbolTableRecord
100
AcDbLayerTableRecord
  2
FORMAT
 70
     0
 62
     7
  6
Continuous
370
    -3
390
F
  0
LAYER
  5
74
330
2
100
AcDbSymbolTableRecord
100
AcDbLayerTableRecord
  2
VERMASSUNG
 70
     0
 62
     7
  6
Continuous
370
    -3
390
F
  0
LAYER
  5
75
330
2
100
AcDbSymbolTableRecord
100
AcDbLayerTableRecord
  2
KOPF_DÜNN
 70
     0
 62
     7
  6
Continuous
370
    -3
390
F
  0
LAYER
  5
76
330
2
100
AcDbSymbolTableRecord
100
AcDbLayerTableRecord
  2
KOPF_DICK
 70
     0
 62
     7
  6
Continuous
370
    15
390
F
  0
ENDTAB
  0
TABLE
  2
STYLE
  5
3
330
0
100
AcDbSymbolTable
 70
     2
  0
STYLE
  5
11
330
3
100
AcDbSymbolTableRecord
100
AcDbTextStyleTableRecord
  2
Standard
 70
     0
 40
0.0
 41
1.0
 50
0.0
 71
     0
 42
2.0
  3
txt
  4

  0
STYLE
  5
77
330
3
100
AcDbSymbolTableRecord
100
AcDbTextStyleTableRecord
  2
SLDTEXTSTYLE0
 70
     0
 40
0.0
 41
0.7
 50
0.0
 71
     0
 42
2.0
  3
TXT
  4

  0
ENDTAB
  0
TABLE
  2
VIEW
  5
6
330
0
100
AcDbSymbolTable
 70
     0
  0
ENDTAB
  0
TABLE
  2
UCS
  5
7
330
0
100
AcDbSymbolTable
 70
     0
  0
ENDTAB
  0
TABLE
  2
APPID
  5
9
330
0
100
AcDbSymbolTable
 70
     1
  0
APPID
  5
12
330
9
100
AcDbSymbolTableRecord
100
AcDbRegAppTableRecord
  2
ACAD
 70
     0
  0
ENDTAB
  0
TABLE
  2
DIMSTYLE
  5
A
330
0
100
AcDbSymbolTable
 70
     2
100
AcDbDimStyleTable
  0
DIMSTYLE
105
27
330
A
100
AcDbSymbolTableRecord
100
AcDbDimStyleTableRecord
  2
ISO-25
 70
     0
 41
2.5
 42
0.625
 43
3.75
 44
1.25
 73
     0
 74
     0
 77
     1
 78
     8
140
2.5
141
2.5
143
0.0393700787
147
0.625
171
     3
172
     1
178
     0
271
     2
272
     2
274
     3
278
    44
283
     0
284
     8
340
11
  0
DIMSTYLE
105
1A2
102
{ACAD_REACTORS
330
1A1
330
1AC
330
1B6
330
1C0
330
1CC
102
}
330
A
100
AcDbSymbolTableRecord
100
AcDbDimStyleTableRecord
  2
SLDDIMSTYLE0
 70
     0
 41
3.0
 44
0.0
 45
0.000000001
 73
     0
 74
     0
 77
     1
 78
    12
 79
     3
140
2.0
147
0.5
173
     1
178
     0
271
     2
272
     3
276
     2
284
    12
340
77
  0
ENDTAB
  0
TABLE
  2
BLOCK_RECORD
  5
1
330
0
100
AcDbSymbolTable
 70
     6
  0
BLOCK_RECORD
  5
1F
330
1
100
AcDbSymbolTableRecord
100
AcDbBlockTableRecord
  2
*Model_Space
340
22
  0
BLOCK_RECORD
  5
1B
330
1
100
AcDbSymbolTableRecord
100
AcDbBlockTableRecord
  2
*Paper_Space
340
1E
  0
BLOCK_RECORD
  5
23
330
1
100
AcDbSymbolTableRecord
100
AcDbBlockTableRecord
  2
*Paper_Space0
340
26
  0
BLOCK_RECORD
  5
1A3
330
1
100
AcDbSymbolTableRecord
100
AcDbBlockTableRecord
  2
_D
340
0
  0
BLOCK_RECORD
  5
1AD
330
1
100
AcDbSymbolTableRecord
100
AcDbBlockTableRecord
  2
_D_1
340
0
  0
BLOCK_RECORD
  5
1B7
330
1
100
AcDbSymbolTableRecord
100
AcDbBlockTableRecord
  2
_D_2
340
0
  0
BLOCK_RECORD
  5
1C1
330
1
100
AcDbSymbolTableRecord
100
AcDbBlockTableRecord
  2
_D_3
340
0
  0
BLOCK_RECORD
  5
1CD
330
1
100
AcDbSymbolTableRecord
100
AcDbBlockTableRecord
  2
_D_4
340
0
  0
ENDTAB
  0
ENDSEC
  0
SECTION
  2
BLOCKS
  0
BLOCK
  5
20
330
1F
100
AcDbEntity
  8
0
100
AcDbBlockBegin
  2
*Model_Space
 70
     0
 10
0.0
 20
0.0
 30
0.0
  3
*Model_Space
  1

  0
ENDBLK
  5
21
330
1F
100
AcDbEntity
  8
0
100
AcDbBlockEnd
  0
BLOCK
  5
1C
330
1B
100
AcDbEntity
 67
     1
  8
0
100
AcDbBlockBegin
  2
*Paper_Space
 70
     0
 10
0.0
 20
0.0
 30
0.0
  3
*Paper_Space
  1

  0
ENDBLK
  5
1D
330
1B
100
AcDbEntity
 67
     1
  8
0
100
AcDbBlockEnd
  0
BLOCK
  5
24
330
23
100
AcDbEntity
  8
0
100
AcDbBlockBegin
  2
*Paper_Space0
 70
     0
 10
0.0
 20
0.0
 30
0.0
  3
*Paper_Space0
  1

  0
ENDBLK
  5
25
330
23
100
AcDbEntity
  8
0
100
AcDbBlockEnd
  0
BLOCK
  5
1A4
330
1A3
100
AcDbEntity
  8
0
100
AcDbBlockBegin
  2
_D
 70
     0
 10
0.0
 20
0.0
 30
0.0
  3
_D
  1

  0
SOLID
  5
1A6
330
1A3
100
AcDbEntity
  8
VERMASSUNG
100
AcDbTrace
 10
54.18185205
 20
159.2090155997
 30
0.0
 11
57.18185205
 21
158.7590155997
 31
0.0
 12
57.18185205
 22
159.6590155997
 32
0.0
 13
57.18185205
 23
159.6590155997
 33
0.0
  0
SOLID
  5
1A7
330
1A3
100
AcDbEntity
  8
VERMASSUNG
100
AcDbTrace
 10
246.58185205
 20
159.2090155997
 30
0.0
 11
243.58185205
 21
159.6590155997
 31
0.0
 12
243.58185205
 22
158.7590155997
 32
0.0
 13
243.58185205
 23
158.7590155997
 33
0.0
  0
LINE
  5
1A8
330
1A3
100
AcDbEntity
  8
VERMASSUNG
100
AcDbLine
 10
54.18185205
 20
122.6835605351
 30
0.0
 11
54.18185205
 21
160.2090155997
 31
0.0
  0
LINE
  5
1A9
330
1A3
100
AcDbEntity
  8
VERMASSUNG
100
AcDbLine
 10
246.58185205
 20
126.560804938
 30
0.0
 11
246.58185205
 21
160.2090155997
 31
0.0
  0
LINE
  5
1AA
330
1A3
100
AcDbEntity
  8
VERMASSUNG
100
AcDbLine
 10
54.18185205
 20
159.2090155997
 30
0.0
 11
246.58185205
 21
159.2090155997
 31
0.0
  0
MTEXT
  5
1AB
330
1A3
100
AcDbEntity
  8
VERMASSUNG
100
AcDbMText
 10
147.3818520239
 20
161.7871511956
 30
0.0
 40
2.0
 41
0.0
 71
     1
 72
     1
  1
192.4
  7
SLDTEXTSTYLE0
 73
     1
 44
1.0
  0
ENDBLK
  5
1A5
330
1A3
100
AcDbEntity
  8
0
100
AcDbBlockEnd
  0
BLOCK
  5
1AE
330
1AD
100
AcDbEntity
  8
0
100
AcDbBlockBegin
  2
_D_1
 70
     0
 10
0.0
 20
0.0
 30
0.0
  3
_D_1
  1

  0
SOLID
  5
1B0
330
1AD
100
AcDbEntity
  8
VERMASSUNG
100
AcDbTrace
 10
119.58185205
 20
153.2090155997
 30
0.0
 11
122.58185205
 21
152.7590155997
 31
0.0
 12
122.58185205
 22
153.6590155997
 32
0.0
 13
122.58185205
 23
153.6590155997
 33
0.0
  0
SOLID
  5
1B1
330
1AD
100
AcDbEntity
  8
VERMASSUNG
100
AcDbTrace
 10
246.58185205
 20
153.2090155997
 30
0.0
 11
243.58185205
 21
153.6590155997
 31
0.0
 12
243.58185205
 22
152.7590155997
 32
0.0
 13
243.58185205
 23
152.7590155997
 33
0.0
  0
LINE
  5
1B2
330
1AD
100
AcDbEntity
  8
VERMASSUNG
100
AcDbLine
 10
119.58185205
 20
133.085804938
 30
0.0
 11
119.58185205
 21
154.2090155997
 31
0.0
  0
LINE
  5
1B3
330
1AD
100
AcDbEntity
  8
VERMASSUNG
100
AcDbLine
 10
246.58185205
 20
126.560804938
 30
0.0
 11
246.58185205
 21
154.2090155997
 31
0.0
  0
LINE
  5
1B4
330
1AD
100
AcDbEntity
  8
VERMASSUNG
100
AcDbLine
 10
119.58185205
 20
153.2090155997
 30
0.0
 11
246.58185205
 21
153.2090155997
 31
0.0
  0
MTEXT
  5
1B5
330
1AD
100
AcDbEntity
  8
VERMASSUNG
100
AcDbMText
 10
181.1818520179
 20
155.7871511956
 30
0.0
 40
2.0
 41
0.0
 71
     1
 72
     1
  1
127
  7
SLDTEXTSTYLE0
 73
     1
 44
1.0
  0
ENDBLK
  5
1AF
330
1AD
100
AcDbEntity
  8
0
100
AcDbBlockEnd
  0
BLOCK
  5
1B8
330
1B7
100
AcDbEntity
  8
0
100
AcDbBlockBegin
  2
_D_2
 70
     0
 10
0.0
 20
0.0
 30
0.0
  3
_D_2
  1

  0
SOLID
  5
1BA
330
1B7
100
AcDbEntity
  8
VERMASSUNG
100
AcDbTrace
 10
146.58185205
 20
147.2090155997
 30
0.0
 11
149.58185205
 21
146.7590155997
 31
0.0
 12
149.58185205
 22
147.6590155997
 32
0.0
 13
149.58185205
 23
147.6590155997
 33
0.0
  0
SOLID
  5
1BB
330
1B7
100
AcDbEntity
  8
VERMASSUNG
100
AcDbTrace
 10
246.58185205
 20
147.2090155997
 30
0.0
 11
243.58185205
 21
147.6590155997
 31
0.0
 12
243.58185205
 22
146.7590155997
 32
0.0
 13
243.58185205
 23
146.7590155997
 33
0.0
  0
LINE
  5
1BC
330
1B7
100
AcDbEntity
  8
VERMASSUNG
100
AcDbLine
 10
146.58185205
 20
141.360804938
 30
0.0
 11
146.58185205
 21
148.2090155997
 31
0.0
  0
LINE
  5
1BD
330
1B7
100
AcDbEntity
  8
VERMASSUNG
100
AcDbLine
 10
246.58185205
 20
126.560804938
 30
0.0
 11
246.58185205
 21
148.2090155997
 31
0.0
  0
LINE
  5
1BE
330
1B7
100
AcDbEntity
  8
VERMASSUNG
100
AcDbLine
 10
146.58185205
 20
147.2090155997
 30
0.0
 11
246.58185205
 21
147.2090155997
 31
0.0
  0
MTEXT
  5
1BF
330
1B7
100
AcDbEntity
  8
VERMASSUNG
100
AcDbMText
 10
194.6818520179
 20
149.7871511956
 30
0.0
 40
2.0
 41
0.0
 71
     1
 72
     1
  1
100
  7
SLDTEXTSTYLE0
 73
     1
 44
1.0
  0
ENDBLK
  5
1B9
330
1B7
100
AcDbEntity
  8
0
100
AcDbBlockEnd
  0
BLOCK
  5
1C2
330
1C1
100
AcDbEntity
  8
0
100
AcDbBlockBegin
  2
_D_3
 70
     0
 10
0.0
 20
0.0
 30
0.0
  3
_D_3
  1

  0
SOLID
  5
1C4
330
1C1
100
AcDbEntity
  8
VERMASSUNG
100
AcDbTrace
 10
259.5271106707
 20
126.860804938
 30
0.0
 11
259.0771106707
 21
123.860804938
 31
0.0
 12
259.9771106707
 22
123.860804938
 32
0.0
 13
259.9771106707
 23
123.860804938
 33
0.0
  0
SOLID
  5
1C5
330
1C1
100
AcDbEntity
  8
VERMASSUNG
100
AcDbTrace
 10
259.5271106707
 20
94.860804938
 30
0.0
 11
259.9771106707
 21
97.860804938
 31
0.0
 12
259.0771106707
 22
97.860804938
 32
0.0
 13
259.0771106707
 23
97.860804938
 33
0.0
  0
LINE
  5
1C6
330
1C1
100
AcDbEntity
  8
VERMASSUNG
100
AcDbLine
 10
246.28185205
 20
126.860804938
 30
0.0
 11
260.5271106707
 21
126.860804938
 31
0.0
  0
LINE
  5
1C7
330
1C1
100
AcDbEntity
  8
VERMASSUNG
100
AcDbLine
 10
246.28185205
 20
94.860804938
 30
0.0
 11
260.5271106707
 21
94.860804938
 31
0.0
  0
LINE
  5
1C8
330
1C1
100
AcDbEntity
  8
VERMASSUNG
100
AcDbLine
 10
259.5271106707
 20
126.860804938
 30
0.0
 11
259.5271106707
 21
94.860804938
 31
0.0
  0
MTEXT
  5
1C9
330
1C1
100
AcDbEntity
  8
VERMASSUNG
100
AcDbMText
 10
256.7489754144
 20
105.7558049488
 30
0.0
 40
2.0
 41
0.0
 71
     1
 72
     1
  1
WH
  7
SLDTEXTSTYLE0
 11
-7.044195017643634E-15
 21
1.0
 31
0.0
 73
     1
 44
1.0
  0
MTEXT
  5
1CA
330
1C1
100
AcDbEntity
  8
VERMASSUNG
100
AcDbMText
 10
256.9489753657
 20
109.5558050128
 30
0.0
 40
2.0
 41
0.0
 71
     1
 72
     1
  1
%%c
  7
SLDTEXTSTYLE0
 11
-7.044195017643634E-15
 21
1.0
 31
0.0
 73
     1
 44
1.0
  0
MTEXT
  5
1CB
330
1C1
100
AcDbEntity
  8
VERMASSUNG
100
AcDbMText
 10
256.7489754144
 20
113.1658050271
 30
0.0
 40
2.0
 41
0.0
 71
     1
 72
     1
  1
32
  7
SLDTEXTSTYLE0
 11
-7.044195017643634E-15
 21
1.0
 31
0.0
 73
     1
 44
1.0
  0
ENDBLK
  5
1C3
330
1C1
100
AcDbEntity
  8
0
100
AcDbBlockEnd
  0
BLOCK
  5
1CE
330
1CD
100
AcDbEntity
  8
0
100
AcDbBlockBegin
  2
_D_4
 70
     0
 10
0.0
 20
0.0
 30
0.0
  3
_D_4
  1

  0
SOLID
  5
1D0
330
1CD
100
AcDbEntity
  8
VERMASSUNG
100
AcDbTrace
 10
253.3271106707
 20
101.860804938
 30
0.0
 11
253.7771106707
 21
104.860804938
 31
0.0
 12
252.8771106707
 22
104.860804938
 32
0.0
 13
252.8771106707
 23
104.860804938
 33
0.0
  0
SOLID
  5
1D1
330
1CD
100
AcDbEntity
  8
VERMASSUNG
100
AcDbTrace
 10
253.3271106707
 20
119.860804938
 30
0.0
 11
252.8771106707
 21
116.860804938
 31
0.0
 12
253.7771106707
 22
116.860804938
 32
0.0
 13
253.7771106707
 23
116.860804938
 33
0.0
  0
LINE
  5
1D2
330
1CD
100
AcDbEntity
  8
VERMASSUNG
100
AcDbLine
 10
245.58185205
 20
101.860804938
 30
0.0
 11
254.3271106707
 21
101.860804938
 31
0.0
  0
LINE
  5
1D3
330
1CD
100
AcDbEntity
  8
VERMASSUNG
100
AcDbLine
 10
245.58185205
 20
119.860804938
 30
0.0
 11
254.3271106707
 21
119.860804938
 31
0.0
  0
LINE
  5
1D4
330
1CD
100
AcDbEntity
  8
VERMASSUNG
100
AcDbLine
 10
253.3271106707
 20
101.860804938
 30
0.0
 11
253.3271106707
 21
119.860804938
 31
0.0
  0
MTEXT
  5
1D5
330
1CD
100
AcDbEntity
  8
VERMASSUNG
100
AcDbMText
 10
250.7489753657
 20
107.8558048739
 30
0.0
 40
2.0
 41
0.0
 71
     1
 72
     1
  1
%%c
  7
SLDTEXTSTYLE0
 11
6.123233995736766E-17
 21
1.0
 31
0.0
 73
     1
 44
1.0
  0
MTEXT
  5
1D6
330
1CD
100
AcDbEntity
  8
VERMASSUNG
100
AcDbMText
 10
250.5489754144
 20
111.4658048882
 30
0.0
 40
2.0
 41
0.0
 71
     1
 72
     1
  1
18
  7
SLDTEXTSTYLE0
 11
6.123233995736766E-17
 21
1.0
 31
0.0
 73
     1
 44
1.0
  0
ENDBLK
  5
1CF
330
1CD
100
AcDbEntity
  8
0
100
AcDbBlockEnd
  0
ENDSEC
  0
SECTION
  2
ENTITIES
  0
MTEXT
  5
78
330
1F
100
AcDbEntity
  8
KOPF_DÜNN
100
AcDbMText
 10
13.8892156294
 20
23.8442973028
 30
0.0
 40
3.0
 41
0.0
 71
     1
 72
     1
  1
A34.540.032.127
  7
SLDTEXTSTYLE0
 73
     1
 44
1.0
  0
MTEXT
  5
79
330
1F
100
AcDbEntity
  8
VERMASSUNG
100
AcDbMText
 10
13.9329988022
 20
28.8834360957
 30
0.0
 40
3.0
 41
0.0
 71
     1
 72
     1
  1
Aufnahme_Master shank
  7
SLDTEXTSTYLE0
 73
     1
 44
1.0
  0
MTEXT
  5
7A
330
1F
100
AcDbEntity
  8
VERMASSUNG
100
AcDbMText
 10
98.8601118557
 20
13.8365368761
 30
0.0
 40
2.0
 41
0.0
 71
     1
 72
     1
  1
Datum: 17.11.2011
  7
SLDTEXTSTYLE0
 73
     1
 44
1.0
  0
MTEXT
  5
7B
330
1F
100
AcDbEntity
  8
VERMASSUNG
100
AcDbMText
 10
13.933048693
 20
18.0482802738
 30
0.0
 40
2.0
 41
0.0
 71
     1
 72
     1
  1
MAS-BT A/D
  7
SLDTEXTSTYLE0
 73
     1
 44
1.0
  0
MTEXT
  5
7C
330
1F
100
AcDbEntity
  8
VERMASSUNG
100
AcDbMText
 10
13.9808475933
 20
13.9090974274
 30
0.0
 40
2.0
 41
0.0
 71
     1
 72
     1
  1
Gewicht: 1542g
  7
SLDTEXTSTYLE0
 73
     1
 44
1.0
  0
LINE
  5
7D
330
1F
100
AcDbEntity
  8
0
  6
Continuous
 62
     7
370
    15
100
AcDbLine
 10
143.5818544913
 20
79.360804938
 30
0.0
 11
145.58185205
 21
79.360804938
 31
0.0
  0
LINE
  5
7E
330
1F
100
AcDbEntity
  8
0
  6
Continuous
 62
     7
370
    15
100
AcDbLine
 10
145.58185205
 20
142.360804938
 30
0.0
 11
143.5813518799
 21
142.360804938
 31
0.0
  0
ARC
  5
7F
330
1F
100
AcDbEntity
  8
0
  6
Continuous
 62
     7
370
    15
100
AcDbCircle
 10
145.58185205
 20
80.360804938
 30
0.0
 40
1.0
100
AcDbArc
 50
270.0
 51
0.0
  0
ARC
  5
80
330
1F
100
AcDbEntity
  8
0
  6
Continuous
 62
     7
370
    15
100
AcDbCircle
 10
145.58185205
 20
141.360804938
 30
0.0
 40
1.0
100
AcDbArc
 50
0.0
 51
90.0
  0
ARC
  5
81
330
1F
100
AcDbEntity
  8
0
  6
Continuous
 62
     7
370
    15
100
AcDbCircle
 10
120.58185205
 20
87.635804938
 30
0.0
 40
1.0
100
AcDbArc
 50
46.4276319692
 51
90.0
  0
ARC
  5
82
330
1F
100
AcDbEntity
  8
0
  6
Continuous
 62
     7
370
    15
100
AcDbCircle
 10
120.58185205
 20
134.085804938
 30
0.0
 40
1.0
100
AcDbArc
 50
270.0
 51
313.53724077
  0
LINE
  5
83
330
1F
100
AcDbEntity
  8
0
  6
Continuous
 62
     7
370
    15
100
AcDbLine
 10
119.58185205
 20
133.085804938
 30
0.0
 11
55.0375451569
 21
123.6730935161
 31
0.0
  0
LINE
  5
84
330
1F
100
AcDbEntity
  8
0
  6
Continuous
 62
     7
370
    15
100
AcDbLine
 10
55.0375451569
 20
98.0485163599
 30
0.0
 11
119.58185205
 21
88.635804938
 31
0.0
  0
LINE
  5
85
330
1F
100
AcDbEntity
  8
0
  6
Continuous
 62
     7
370
    15
100
AcDbLine
 10
119.58185205
 20
88.635804938
 30
0.0
 11
120.58185205
 21
88.635804938
 31
0.0
  0
LINE
  5
86
330
1F
100
AcDbEntity
  8
0
  6
Continuous
 62
     7
370
    15
100
AcDbLine
 10
120.58185205
 20
133.085804938
 30
0.0
 11
119.58185205
 21
133.085804938
 31
0.0
  0
ARC
  5
87
330
1F
100
AcDbEntity
  8
0
  6
Continuous
 62
     7
370
    15
100
AcDbCircle
 10
149.58185205
 20
91.860804938
 30
0.0
 40
3.0
100
AcDbArc
 50
90.0
 51
180.0
  0
ARC
  5
88
330
1F
100
AcDbEntity
  8
0
  6
Continuous
 62
     7
370
    15
100
AcDbCircle
 10
149.58185205
 20
129.860804938
 30
0.0
 40
3.000000000000014
100
AcDbArc
 50
180.0
 51
270.0
  0
LINE
  5
89
330
1F
100
AcDbEntity
  8
0
  6
Continuous
 62
     7
370
    15
100
AcDbLine
 10
246.28185205
 20
94.860804938
 30
0.0
 11
246.58185205
 21
95.160804938
 31
0.0
  0
LINE
  5
8A
330
1F
100
AcDbEntity
  8
0
  6
Continuous
 62
     7
370
    15
100
AcDbLine
 10
246.58185205
 20
126.560804938
 30
0.0
 11
246.28185205
 21
126.860804938
 31
0.0
  0
LINE
  5
8B
330
1F
100
AcDbEntity
  8
0
  6
Continuous
 62
     7
370
    15
100
AcDbLine
 10
229.5381163779
 20
126.860804938
 30
0.0
 11
149.58185205
 21
126.860804938
 31
0.0
  0
LINE
  5
8C
330
1F
100
AcDbEntity
  8
0
  6
Continuous
 62
     7
370
    15
100
AcDbLine
 10
246.28185205
 20
126.860804938
 30
0.0
 11
239.5282333376
 21
126.860804938
 31
0.0
  0
LINE
  5
8D
330
1F
100
AcDbEntity
  8
0
  6
Continuous
 62
     7
370
    15
100
AcDbLine
 10
149.58185205
 20
94.860804938
 30
0.0
 11
246.28185205
 21
94.860804938
 31
0.0
  0
ARC
  5
8E
330
1F
100
AcDbEntity
  8
0
  6
Continuous
 62
     7
370
    15
100
AcDbCircle
 10
55.18185205
 20
99.038049341
 30
0.0
 40
1.0
100
AcDbArc
 50
180.0
 51
261.7028550302
  0
ARC
  5
8F
330
1F
100
AcDbEntity
  8
0
  6
Continuous
 62
     7
370
    15
100
AcDbCircle
 10
55.18185205
 20
122.6835605351
 30
0.0
 40
1.000000000000009
100
AcDbArc
 50
98.2971449698
 51
180.0
  0
SPLINE
  5
90
330
1F
100
AcDbEntity
  8
0
  6
Continuous
 62
     7
370
    15
100
AcDbSpline
210
0.0
220
0.0
230
1.0
 70
     8
 71
     3
 72
    11
 73
     7
 74
     0
 42
0.000000001
 43
0.00000001
 40
0.0
 40
0.0
 40
0.0
 40
0.0
 40
0.2488814606714261
 40
0.5011921284371436
 40
0.7520447562616431
 40
1.0
 40
1.0
 40
1.0
 40
1.0
 10
143.5813518799491
 20
142.3606551926239
 30
0.0
 10
143.551573550457
 20
142.3515231664794
 30
0.0
 10
143.4916065914911
 20
142.3331332887924
 30
0.0
 10
142.9996845297123
 20
142.1890960403059
 30
0.0
 10
142.2716151070837
 20
141.979692962195
 30
0.0
 10
141.5608716359114
 20
141.8074886928454
 30
0.0
 10
141.2075641187751
 20
141.721886692529
 30
0.0
  0
SPLINE
  5
91
330
1F
100
AcDbEntity
  8
0
  6
Continuous
 62
     7
370
    15
100
AcDbSpline
210
0.0
220
0.0
230
1.0
 70
     8
 71
     3
 72
    24
 73
    20
 74
     0
 42
0.000000001
 43
0.00000001
 40
0.0
 40
0.0
 40
0.0
 40
0.0
 40
0.0452129651556379
 40
0.0903005751245504
 40
0.1353110308327239
 40
0.1802927812123763
 40
0.2252943678860638
 40
0.2703642683604138
 40
0.3155507402512423
 40
0.360901669023321
 40
0.406464421598112
 40
0.4522857079700058
 40
0.4984114526894524
 40
0.5831230529347654
 40
0.6669931554177903
 40
0.7503154181534564
 40
0.833389309024804
 40
0.916516980227494
 40
1.0
 40
1.0
 40
1.0
 40
1.0
 10
141.2074707433838
 20
79.99970691849494
 30
0.0
 10
141.2751744852915
 20
79.98394787747634
 30
0.0
 10
141.4103942571271
 20
79.95247348816144
 30
0.0
 10
141.6030559739771
 20
79.90601268482033
 30
0.0
 10
141.7877928456348
 20
79.86038170518677
 30
0.0
 10
141.9639107869323
 20
79.81575640775273
 30
0.0
 10
142.1315945795471
 20
79.77226912115361
 30
0.0
 10
142.290794063839
 20
79.73006807335601
 30
0.0
 10
142.4415222023185
 20
79.68930148104425
 30
0.0
 10
142.5837751557515
 20
79.65012172843886
 30
0.0
 10
142.7175539108311
 20
79.61268443663174
 30
0.0
 10
142.8428578217388
 20
79.57714785268311
 30
0.0
 10
142.9919609521869
 20
79.53443020077135
 30
0.0
 10
143.1528125836249
 20
79.48789635861068
 30
0.0
 10
143.308819322081
 20
79.44221218129906
 30
0.0
 10
143.4304720498201
 20
79.40617287834914
 30
0.0
 10
143.5169213032579
 20
79.38029857809978
 30
0.0
 10
143.5712640463273
 20
79.3638850762545
 30
0.0
 10
143.5783175282102
 20
79.36183311760809
 30
0.0
 10
143.581851791012
 20
79.36080495006823
 30
0.0
  0
LINE
  5
92
330
1F
100
AcDbEntity
  8
0
  6
Continuous
 62
     7
370
    15
100
AcDbLine
 10
141.20685205
 20
79.9997069185
 30
0.0
 11
141.20685205
 21
141.7218866925
 31
0.0
  0
SPLINE
  5
93
330
1F
100
AcDbEntity
  8
0
  6
Continuous
 62
     7
370
    15
100
AcDbSpline
210
0.0
220
0.0
230
1.0
 70
     8
 71
     3
 72
    10
 73
     6
 74
     0
 42
0.000000001
 43
0.00000001
 40
0.0
 40
0.0
 40
0.0
 40
0.0
 40
0.5
 40
0.5
 40
1.0
 40
1.0
 40
1.0
 40
1.0
 10
140.5584604540117
 20
140.7652656593846
 30
0.0
 10
140.2423566228723
 20
140.1454031011074
 30
0.0
 10
139.9125775785274
 20
139.4995023658086
 30
0.0
 10
139.2403543061386
 20
138.185083725508
 30
0.0
 10
138.898221140208
 20
137.5171614984957
 30
0.0
 10
138.5510408116939
 20
136.8408237660143
 30
0.0
  0
SPLINE
  5
94
330
1F
100
AcDbEntity
  8
0
  6
Continuous
 62
     7
370
    15
100
AcDbSpline
210
0.0
220
0.0
230
1.0
 70
     8
 71
     3
 72
     9
 73
     5
 74
     0
 42
0.000000001
 43
0.00000001
 40
0.0
 40
0.0
 40
0.0
 40
0.0
 40
0.5067583433954557
 40
1.0
 40
1.0
 40
1.0
 40
1.0
 10
141.2074825929507
 20
141.7229400453794
 30
0.0
 10
141.0970826356023
 20
141.5608657857148
 30
0.0
 10
140.8792274018658
 20
141.2410402480066
 30
0.0
 10
140.6646340557918
 20
140.9226917030545
 30
0.0
 10
140.558787678278
 20
140.7656689393647
 30
0.0
  0
SPLINE
  5
95
330
1F
100
AcDbEntity
  8
0
  6
Continuous
 62
     7
370
    15
100
AcDbSpline
210
0.0
220
0.0
230
1.0
 70
     8
 71
     3
 72
     9
 73
     5
 74
     0
 42
0.000000001
 43
0.00000001
 40
0.0
 40
0.0
 40
0.0
 40
0.0
 40
0.4932438861072345
 40
1.0
 40
1.0
 40
1.0
 40
1.0
 10
140.5587737632552
 20
80.95593883632561
 30
0.0
 10
140.6646202537482
 20
80.79891492442003
 30
0.0
 10
140.879212858896
 20
80.48056549054289
 30
0.0
 10
141.0970669078826
 20
80.16074000280267
 30
0.0
 10
141.2074657791428
 20
79.99866648151158
 30
0.0
  0
SPLINE
  5
96
330
1F
100
AcDbEntity
  8
0
  6
Continuous
 62
     7
370
    15
100
AcDbSpline
210
0.0
220
0.0
230
1.0
 70
     8
 71
     3
 72
    10
 73
     6
 74
     0
 42
0.000000001
 43
0.00000001
 40
0.0
 40
0.0
 40
0.0
 40
0.0
 40
0.5
 40
0.5
 40
1.0
 40
1.0
 40
1.0
 40
1.0
 10
140.5584545343438
 20
80.95635582482537
 30
0.0
 10
140.2422754316698
 20
81.57636597683909
 30
0.0
 10
139.9118332045027
 20
82.2235640427068
 30
0.0
 10
139.24012168382
 20
83.53697996730057
 30
0.0
 10
138.8981478087881
 20
84.20459123360337
 30
0.0
 10
138.5510408116939
 20
84.88078611004654
 30
0.0
  0
LINE
  5
97
330
1F
100
AcDbEntity
  8
0
  6
Continuous
 62
     7
370
    15
100
AcDbLine
 10
146.58185205
 20
80.360804938
 30
0.0
 11
146.58185205
 21
141.3608049183
 31
0.0
  0
LINE
  5
98
330
1F
100
AcDbEntity
  8
0
  6
Continuous
 62
     7
370
    15
100
AcDbLine
 10
131.15685205
 20
141.097195041
 30
0.0
 11
122.58185205
 21
141.097195041
 31
0.0
  0
LINE
  5
99
330
1F
100
AcDbEntity
  8
0
  6
Continuous
 62
     7
370
    15
100
AcDbLine
 10
131.15685205
 20
80.624414835
 30
0.0
 11
131.15685205
 21
141.097195041
 31
0.0
  0
LINE
  5
9A
330
1F
100
AcDbEntity
  8
0
  6
Continuous
 62
     7
370
    15
100
AcDbLine
 10
122.58185205
 20
80.624414835
 30
0.0
 11
131.15685205
 21
80.624414835
 31
0.0
  0
LINE
  5
9B
330
1F
100
AcDbEntity
  8
0
  6
Continuous
 62
     7
370
    15
100
AcDbLine
 10
121.58185205
 20
81.7343993925
 30
0.0
 11
121.58185205
 21
139.9872104835
 31
0.0
  0
SPLINE
  5
9C
330
1F
100
AcDbEntity
  8
0
  6
Continuous
 62
     7
370
    15
100
AcDbSpline
210
0.0
220
0.0
230
1.0
 70
     8
 71
     3
 72
    12
 73
     8
 74
     0
 42
0.000000001
 43
0.00000001
 40
0.0
 40
0.0
 40
0.0
 40
0.0
 40
0.25
 40
0.25
 40
0.5
 40
0.5
 40
1.0
 40
1.0
 40
1.0
 40
1.0
 10
121.9688848729317
 20
140.9277948378514
 30
0.0
 10
121.9170241217436
 20
140.870982265537
 30
0.0
 10
121.8682923247247
 20
140.8089900792852
 30
0.0
 10
121.7781193148072
 20
140.6729370061612
 30
0.0
 10
121.7363420665223
 20
140.5980309035624
 30
0.0
 10
121.6302531966764
 20
140.3599042682651
 30
0.0
 10
121.5818520499662
 20
140.1764975366962
 30
0.0
 10
121.5818520499662
 20
139.9872104835144
 30
0.0
  0
SPLINE
  5
9D
330
1F
100
AcDbEntity
  8
0
  6
Continuous
 62
     7
370
    15
100
AcDbSpline
210
0.0
220
0.0
230
1.0
 70
     8
 71
     3
 72
     8
 73
     4
 74
     0
 42
0.000000001
 43
0.00000001
 40
0.0
 40
0.0
 40
0.0
 40
0.0
 40
1.0
 40
1.0
 40
1.0
 40
1.0
 10
122.5818520499662
 20
141.0971950410323
 30
0.0
 10
122.3555077363663
 20
141.0971950410323
 30
0.0
 10
122.1380556159612
 20
141.0338265720113
 30
0.0
 10
121.9688848729317
 20
140.9277948378514
 30
0.0
  0
SPLINE
  5
9E
330
1F
100
AcDbEntity
  8
0
  6
Continuous
 62
     7
370
    15
100
AcDbSpline
210
0.0
220
0.0
230
1.0
 70
     8
 71
     3
 72
     8
 73
     4
 74
     0
 42
0.000000001
 43
0.00000001
 40
0.0
 40
0.0
 40
0.0
 40
0.0
 40
1.0
 40
1.0
 40
1.0
 40
1.0
 10
121.9688848729317
 20
80.79381503820944
 30
0.0
 10
122.1384783785837
 20
80.68751832765226
 30
0.0
 10
122.3548470709169
 20
80.62441483502856
 30
0.0
 10
122.5818520499662
 20
80.62441483502856
 30
0.0
  0
SPLINE
  5
9F
330
1F
100
AcDbEntity
  8
0
  6
Continuous
 62
     7
370
    15
100
AcDbSpline
210
0.0
220
0.0
230
1.0
 70
     8
 71
     3
 72
    12
 73
     8
 74
     0
 42
0.000000001
 43
0.00000001
 40
0.0
 40
0.0
 40
0.0
 40
0.0
 40
0.2499999999999977
 40
0.2499999999999977
 40
0.4999999999999953
 40
0.4999999999999953
 40
1.0
 40
1.0
 40
1.0
 40
1.0
 10
121.9688848729317
 20
80.79381503820946
 30
0.0
 10
121.9170241217436
 20
80.85062761052383
 30
0.0
 10
121.8682923247247
 20
80.91261979677564
 30
0.0
 10
121.7781193148073
 20
81.04867286989966
 30
0.0
 10
121.7363420665223
 20
81.12357897249836
 30
0.0
 10
121.6302531966764
 20
81.36170560779578
 30
0.0
 10
121.5818520499662
 20
81.54511233936455
 30
0.0
 10
121.5818520499662
 20
81.73439939254642
 30
0.0
  0
SPLINE
  5
A0
330
1F
100
AcDbEntity
  8
0
  6
Continuous
 62
     7
370
    15
100
AcDbSpline
210
0.0
220
0.0
230
1.0
 70
     8
 71
     3
 72
     8
 73
     4
 74
     0
 42
0.000000001
 43
0.00000001
 40
0.0
 40
0.0
 40
0.0
 40
0.0
 40
0.0012389803509652
 40
0.0012389803509652
 40
0.0012389803509652
 40
0.0012389803509652
 10
131.7144135934999
 20
140.3148276608169
 30
0.0
 10
131.5292936203671
 20
140.5758776421959
 30
0.0
 10
131.3434151726081
 20
140.8366592553149
 30
0.0
 10
131.1568520499661
 20
141.0971950410323
 30
0.0
  0
SPLINE
  5
A1
330
1F
100
AcDbEntity
  8
0
  6
Continuous
 62
     7
370
    15
100
AcDbSpline
210
0.0
220
0.0
230
1.0
 70
     8
 71
     3
 72
     8
 73
     4
 74
     0
 42
0.000000001
 43
0.00000001
 40
0.0
 40
0.0
 40
0.0
 40
0.0
 40
1.0
 40
1.0
 40
1.0
 40
1.0
 10
133.8126632882384
 20
136.5280506024954
 30
0.0
 10
133.1163699221969
 20
137.7919889706102
 30
0.0
 10
132.4165747570058
 20
139.0540444161185
 30
0.0
 10
131.7144135934999
 20
140.3148276608169
 30
0.0
  0
SPLINE
  5
A2
330
1F
100
AcDbEntity
  8
0
  6
Continuous
 62
     7
370
    15
100
AcDbSpline
210
0.0
220
0.0
230
1.0
 70
     8
 71
     3
 72
     8
 73
     4
 74
     0
 42
0.000000001
 43
0.00000001
 40
0.0
 40
0.0
 40
0.0
 40
0.0
 40
1.0
 40
1.0
 40
1.0
 40
1.0
 10
133.8126632882384
 20
85.19355927356537
 30
0.0
 10
133.1163451475804
 20
83.92957593361858
 30
0.0
 10
132.41654795547
 20
82.6675173357666
 30
0.0
 10
131.7144135934999
 20
81.40678221524392
 30
0.0
  0
SPLINE
  5
A3
330
1F
100
AcDbEntity
  8
0
  6
Continuous
 62
     7
370
    15
100
AcDbSpline
210
0.0
220
0.0
230
1.0
 70
     8
 71
     3
 72
     8
 73
     4
 74
     0
 42
0.000000001
 43
0.00000001
 40
0.0
 40
0.0
 40
0.0
 40
0.0
 40
0.0012389803509652
 40
0.0012389803509652
 40
0.0012389803509652
 40
0.0012389803509652
 10
131.1568520499661
 20
80.62441483502856
 30
0.0
 10
131.3434151726081
 20
80.88495062074593
 30
0.0
 10
131.5292936203671
 20
81.14573223386492
 30
0.0
 10
131.7144135934999
 20
81.40678221524392
 30
0.0
  0
SPLINE
  5
A4
330
1F
100
AcDbEntity
  8
0
  6
Continuous
 62
     7
370
    15
100
AcDbSpline
210
0.0
220
0.0
230
1.0
 70
     8
 71
     3
 72
    12
 73
     8
 74
     0
 42
0.000000001
 43
0.00000001
 40
0.0
 40
0.0
 40
0.0
 40
0.0
 40
0.25
 40
0.25
 40
0.5
 40
0.5
 40
1.0
 40
1.0
 40
1.0
 40
1.0
 10
138.5510408116939
 20
136.8408237660143
 30
0.0
 10
138.5151366613573
 20
136.7708793318662
 30
0.0
 10
138.4726051092278
 20
136.7076279688083
 30
0.0
 10
138.3758108323878
 20
136.5925693138923
 30
0.0
 10
138.3207211541235
 20
136.5402407801804
 30
0.0
 10
138.1425879205696
 20
136.4064558770953
 30
0.0
 10
138.005210828567
 20
136.3459081099371
 30
0.0
 10
137.8582204886671
 20
136.3267081615533
 30
0.0
  0
SPLINE
  5
A5
330
1F
100
AcDbEntity
  8
0
  6
Continuous
 62
     7
370
    15
100
AcDbSpline
210
0.0
220
0.0
230
1.0
 70
     8
 71
     3
 72
    12
 73
     8
 74
     0
 42
0.000000001
 43
0.00000001
 40
0.0
 40
0.0
 40
0.0
 40
0.0
 40
0.25
 40
0.25
 40
0.5
 40
0.5
 40
1.0
 40
1.0
 40
1.0
 40
1.0
 10
138.5510408116939
 20
84.88078611004651
 30
0.0
 10
138.5151366613573
 20
84.95073054419468
 30
0.0
 10
138.4726051092278
 20
85.01398190725251
 30
0.0
 10
138.3758108323878
 20
85.12904056216846
 30
0.0
 10
138.3207211541235
 20
85.18136909588043
 30
0.0
 10
138.1425879205696
 20
85.31515399896553
 30
0.0
 10
138.005210828567
 20
85.3757017661237
 30
0.0
 10
137.8582204886671
 20
85.39490171450757
 30
0.0
  0
SPLINE
  5
A6
330
1F
100
AcDbEntity
  8
0
  6
Continuous
 62
     7
370
    15
100
AcDbSpline
210
0.0
220
0.0
230
1.0
 70
     8
 71
     3
 72
    10
 73
     6
 74
     0
 42
0.000000001
 43
0.00000001
 40
0.0
 40
0.0
 40
0.0
 40
0.0
 40
0.5
 40
0.5
 40
1.0
 40
1.0
 40
1.0
 40
1.0
 10
134.505483611266
 20
136.1085276076099
 30
0.0
 10
134.363466298819
 20
136.1085276076099
 30
0.0
 10
134.2230192519567
 20
136.1490174598194
 30
0.0
 10
133.9814293326954
 20
136.2969532897586
 30
0.0
 10
133.8807518904422
 20
136.4044535657381
 30
0.0
 10
133.8126632882386
 20
136.5280506024951
 30
0.0
  0
SPLINE
  5
A7
330
1F
100
AcDbEntity
  8
0
  6
Continuous
 62
     7
370
    15
100
AcDbSpline
210
0.0
220
0.0
230
1.0
 70
     8
 71
     3
 72
    10
 73
     6
 74
     0
 42
0.000000001
 43
0.00000001
 40
0.0
 40
0.0
 40
0.0
 40
0.0
 40
0.5
 40
0.5
 40
1.0
 40
1.0
 40
1.0
 40
1.0
 10
134.505483611266
 20
85.61308226845088
 30
0.0
 10
134.3646262467553
 20
85.61308226845088
 30
0.0
 10
134.2217921152811
 20
85.5719783626322
 30
0.0
 10
133.9815304245078
 20
85.42458046933123
 30
0.0
 10
133.8808241554283
 20
85.31728748849159
 30
0.0
 10
133.8126632882384
 20
85.19355927356537
 30
0.0
  0
LINE
  5
A8
330
1F
100
AcDbEntity
  8
0
  6
Continuous
 62
     7
370
    15
100
AcDbLine
 10
134.53185205
 20
85.6130822685
 30
0.0
 11
134.5054836113
 21
85.6130822685
 31
0.0
  0
LINE
  5
A9
330
1F
100
AcDbEntity
  8
0
  6
Continuous
 62
     7
370
    15
100
AcDbLine
 10
134.53185205
 20
136.1085276076
 30
0.0
 11
134.5054836113
 21
136.1085276076
 31
0.0
  0
SPLINE
  5
AA
330
1F
100
AcDbEntity
  8
0
  6
Continuous
 62
     7
370
    15
100
AcDbSpline
210
0.0
220
0.0
230
1.0
 70
     8
 71
     3
 72
    10
 73
     6
 74
     0
 42
0.000000001
 43
0.00000001
 40
0.0
 40
0.0
 40
0.0
 40
0.0
 40
0.5000000000000001
 40
0.5000000000000001
 40
1.0
 40
1.0
 40
1.0
 40
1.0
 10
137.8582204886663
 20
136.3267081615562
 30
0.0
 10
137.3363057642704
 20
136.258535411048
 30
0.0
 10
136.797454584161
 20
136.20391214609
 30
0.0
 10
135.6860919421289
 20
136.1288162931987
 30
0.0
 10
135.1092511649329
 20
136.1085276076099
 30
0.0
 10
134.5318520499661
 20
136.1085276076099
 30
0.0
  0
SPLINE
  5
AB
330
1F
100
AcDbEntity
  8
0
  6
Continuous
 62
     7
370
    15
100
AcDbSpline
210
0.0
220
0.0
230
1.0
 70
     8
 71
     3
 72
    10
 73
     6
 74
     0
 42
0.000000001
 43
0.00000001
 40
0.0
 40
0.0
 40
0.0
 40
0.0
 40
0.5000000000000001
 40
0.5000000000000001
 40
1.0
 40
1.0
 40
1.0
 40
1.0
 10
137.8582204886663
 20
85.39490171450464
 30
0.0
 10
137.3363057642704
 20
85.46307446501284
 30
0.0
 10
136.797454584161
 20
85.51769772997076
 30
0.0
 10
135.6860919421289
 20
85.59279358286211
 30
0.0
 10
135.1092511649329
 20
85.61308226845088
 30
0.0
 10
134.5318520499661
 20
85.61308226845088
 30
0.0
  0
SPLINE
  5
AC
330
1F
100
AcDbEntity
  8
0
  6
Continuous
 62
     7
370
    15
100
AcDbSpline
210
0.0
220
0.0
230
1.0
 70
    24
 71
     3
 72
     9
 73
     5
 74
     0
 42
0.000000001
 43
0.00000001
 40
0.0
 40
0.0
 40
0.0
 40
0.0
 40
0.9999883940803936
 40
1.0
 40
1.0
 40
1.0
 40
1.0
 10
121.3608846072818
 20
133.3608049380304
 30
0.0
 10
121.3014070608558
 20
133.3608049380684
 30
0.0
 10
121.2419288241301
 20
133.3608049381064
 30
0.0
 10
121.2706015811995
 20
133.3608049380304
 30
0.0
 10
121.2706019139733
 20
133.3608049380304
 30
0.0
  0
LINE
  5
AD
330
1F
100
AcDbEntity
  8
0
  6
Continuous
 62
     7
370
    15
100
AcDbLine
 10
121.2706019937
 20
88.360804938
 30
0.0
 11
121.3511110422
 21
88.360804938
 31
0.0
  0
LINE
  5
AE
330
1F
100
AcDbEntity
  8
0
  6
Continuous
 62
     7
370
    15
100
AcDbLine
 10
119.58185205
 20
88.635804938
 30
0.0
 11
119.58185205
 21
133.085804938
 31
0.0
  0
LINE
  5
AF
330
1F
100
AcDbEntity
  8
0
  6
Continuous
 62
     7
370
    15
100
AcDbLine
 10
246.58185205
 20
110.860804938
 30
0.0
 11
246.58185205
 21
95.160804938
 31
0.0
  0
LINE
  5
B0
330
1F
100
AcDbEntity
  8
0
  6
Continuous
 62
     7
370
    15
100
AcDbLine
 10
246.58185205
 20
126.560804938
 30
0.0
 11
246.58185205
 21
110.860804938
 31
0.0
  0
LINE
  5
B1
330
1F
100
AcDbEntity
  8
0
  6
Continuous
 62
     7
370
    15
100
AcDbLine
 10
246.28185205
 20
110.860804938
 30
0.0
 11
246.28185205
 21
94.860804938
 31
0.0
  0
LINE
  5
B2
330
1F
100
AcDbEntity
  8
0
  6
Continuous
 62
     7
370
    15
100
AcDbLine
 10
246.28185205
 20
126.860804938
 30
0.0
 11
246.28185205
 21
110.860804938
 31
0.0
  0
SPLINE
  5
B3
330
1F
100
AcDbEntity
  8
0
  6
Continuous
 62
     7
370
    15
100
AcDbSpline
210
0.0
220
0.0
230
1.0
 70
     8
 71
     3
 72
    38
 73
    34
 74
     0
 42
0.000000001
 43
0.00000001
 40
0.0
 40
0.0
 40
0.0
 40
0.0
 40
0.0250420442534443
 40
0.0556052818736453
 40
0.0764640758936328
 40
0.0973221314419223
 40
0.1181793472504527
 40
0.1403843786463261
 40
0.1700754056178971
 40
0.2002625307341904
 40
0.2307814171984401
 40
0.2644411906129557
 40
0.298666042399819
 40
0.3332768848487053
 40
0.3710491646823217
 40
0.4095188724762273
 40
0.4484848860359555
 40
0.4884656257878346
 40
0.5292512480497586
 40
0.5706215165940357
 40
0.590817361426685
 40
0.6110132496568632
 40
0.6522347065685402
 40
0.6940829215433033
 40
0.7338000793141846
 40
0.7693157482310317
 40
0.815813372792419
 40
0.8521919880018157
 40
0.8848281452238485
 40
0.9276938957338025
 40
0.9586917971633997
 40
0.9904704704449154
 40
0.9999999999999999
 40
0.9999999999999999
 40
0.9999999999999999
 40
0.9999999999999999
 10
239.5282333375997
 20
126.8599444979742
 30
0.0
 10
239.5262103107734
 20
126.8594612182562
 30
0.0
 10
239.5217182263501
 20
126.8583881067855
 30
0.0
 10
239.4588811981049
 20
126.8434934539957
 30
0.0
 10
239.3698386438235
 20
126.8227309916535
 30
0.0
 10
239.2689246870096
 20
126.7995818129044
 30
0.0
 10
239.1437326786984
 20
126.7714681275883
 30
0.0
 10
238.9764520790814
 20
126.7348937777276
 30
0.0
 10
238.7563747847123
 20
126.6885874969451
 30
0.0
 10
238.4782672127139
 20
126.6332694826854
 30
0.0
 10
238.154363717449
 20
126.5731821888021
 30
0.0
 10
237.7840087871794
 20
126.5103422710377
 30
0.0
 10
237.3674849382873
 20
126.4474471768315
 30
0.0
 10
236.9068936740894
 20
126.3874155963707
 30
0.0
 10
236.4033172697951
 20
126.3335221749927
 30
0.0
 10
235.859191715362
 20
126.2895341740194
 30
0.0
 10
235.2895240439997
 20
126.2593458637421
 30
0.0
 10
234.6996237096618
 20
126.2453509792528
 30
0.0
 10
234.0958002069709
 20
126.2493585638141
 30
0.0
 10
233.5941877231921
 20
126.2681334279419
 30
0.0
 10
233.2002822363057
 20
126.2916996139183
 30
0.0
 10
232.8125799529269
 20
126.3204990135823
 30
0.0
 10
232.3345979266795
 20
126.3664167240147
 30
0.0
 10
231.7948606991934
 20
126.4331498470554
 30
0.0
 10
231.3144117790253
 20
126.5045142915117
 30
0.0
 10
230.8551914016566
 20
126.5822450574206
 30
0.0
 10
230.4582862241363
 20
126.6576422958289
 30
0.0
 10
230.1310767101689
 20
126.725300029537
 30
0.0
 10
229.8698557691829
 20
126.7823457368784
 30
0.0
 10
229.683669917107
 20
126.8250036388012
 30
0.0
 10
229.5735740533992
 20
126.8508682258287
 30
0.0
 10
229.5284368442586
 20
126.8616170777643
 30
0.0
 10
229.5363019499643
 20
126.859746471625
 30
0.0
 10
229.5381163779018
 20
126.859314935144
 30
0.0
  0
SPLINE
  5
B4
330
1F
100
AcDbEntity
  8
0
  6
Continuous
 62
     7
370
    15
100
AcDbSpline
210
0.0
220
0.0
230
1.0
 70
    11
 71
     3
 72
    82
 73
    78
 74
     0
 42
0.000000001
 43
0.00000001
 40
0.0
 40
0.0
 40
0.0
 40
0.0
 40
0.0312499999999985
 40
0.0312499999999985
 40
0.0624999999999969
 40
0.0624999999999969
 40
0.0937499999999954
 40
0.0937499999999954
 40
0.1249999999999939
 40
0.1249999999999939
 40
0.1562499999999924
 40
0.1562499999999924
 40
0.1874999999999909
 40
0.1874999999999909
 40
0.2187499999999893
 40
0.2187499999999893
 40
0.2343749999999892
 40
0.2343749999999892
 40
0.2499999999999891
 40
0.2499999999999891
 40
0.2812499999999887
 40
0.2812499999999887
 40
0.296874999999989
 40
0.296874999999989
 40
0.3124999999999893
 40
0.3124999999999893
 40
0.3437499999999898
 40
0.3437499999999898
 40
0.35937499999999
 40
0.35937499999999
 40
0.3749999999999901
 40
0.3749999999999901
 40
0.3906249999999901
 40
0.3906249999999901
 40
0.4062499999999902
 40
0.4062499999999902
 40
0.4374999999999907
 40
0.4374999999999907
 40
0.4687499999999913
 40
0.4687499999999913
 40
0.4999999999999919
 40
0.4999999999999919
 40
0.5312499999999925
 40
0.5312499999999925
 40
0.562499999999993
 40
0.562499999999993
 40
0.5937499999999936
 40
0.5937499999999936
 40
0.6249999999999941
 40
0.6249999999999941
 40
0.6562499999999948
 40
0.6562499999999948
 40
0.6874999999999953
 40
0.6874999999999953
 40
0.7187499999999959
 40
0.7187499999999959
 40
0.7499999999999964
 40
0.7499999999999964
 40
0.781249999999997
 40
0.781249999999997
 40
0.8124999999999976
 40
0.8124999999999976
 40
0.8281249999999978
 40
0.8281249999999978
 40
0.843749999999998
 40
0.843749999999998
 40
0.8749999999999982
 40
0.8749999999999982
 40
0.8906249999999984
 40
0.8906249999999984
 40
0.9062499999999986
 40
0.9062499999999986
 40
0.937499999999999
 40
0.937499999999999
 40
0.9687499999999994
 40
0.9687499999999994
 40
1.0
 40
1.0
 40
1.0
 40
1.0
 10
231.2116690257844
 20
114.1332035047781
 30
0.0
 10
231.4547265506625
 20
114.323244027633
 30
0.0
 10
231.7118136476322
 20
114.4876396966639
 30
0.0
 10
232.2517235714556
 20
114.7703101026273
 30
0.0
 10
232.5361797600156
 20
114.8890334073568
 30
0.0
 10
233.1245215462347
 20
115.0774975800696
 30
0.0
 10
233.4234373650113
 20
115.145952871306
 30
0.0
 10
234.0304129764799
 20
115.2337219972128
 30
0.0
 10
234.341093160488
 20
115.2529077072188
 30
0.0
 10
234.9591043875809
 20
115.2399415708468
 30
0.0
 10
235.264088272993
 20
115.2083275421785
 30
0.0
 10
235.8661784567394
 20
115.095622421106
 30
0.0
 10
236.1659708231366
 20
115.0134773672551
 30
0.0
 10
236.7431960244782
 20
114.8007532972637
 30
0.0
 10
237.0191208497771
 20
114.6713461440695
 30
0.0
 10
237.4138901061868
 20
114.4418970916269
 30
0.0
 10
237.5422727980542
 20
114.3594849478953
 30
0.0
 10
237.7923238510537
 20
114.1821243853071
 30
0.0
 10
237.9143865186399
 20
114.08674605787
 30
0.0
 10
238.2621098936785
 20
113.7871733363557
 30
0.0
 10
238.4720387798577
 20
113.5681580483
 30
0.0
 10
238.7523990123308
 20
113.2086249138158
 30
0.0
 10
238.8400541818349
 20
113.0835743171869
 30
0.0
 10
239.0028452591028
 20
112.8221430329222
 30
0.0
 10
239.0777207640169
 20
112.6858796593628
 30
0.0
 10
239.2762265650045
 20
112.271143073496
 30
0.0
 10
239.3764775683663
 20
111.9831157443739
 30
0.0
 10
239.4754105886416
 20
111.5324180298221
 30
0.0
 10
239.4998240127063
 20
111.3777883947238
 30
0.0
 10
239.5293135037348
 20
111.0689793276191
 30
0.0
 10
239.5345638176055
 20
110.9149863497092
 30
0.0
 10
239.5265458413733
 20
110.6078034828595
 30
0.0
 10
239.5132767105379
 20
110.4546136297801
 30
0.0
 10
239.4680819309501
 20
110.1490420807561
 30
0.0
 10
239.4358253222629
 20
109.9957238431937
 30
0.0
 10
239.3134081788611
 20
109.5480587082074
 30
0.0
 10
239.198021787536
 20
109.2634648876498
 30
0.0
 10
238.9040379245184
 20
108.7199376070559
 30
0.0
 10
238.7276161143077
 20
108.4660490616699
 30
0.0
 10
238.3293980738246
 20
108.0011430164419
 30
0.0
 10
238.1041312639047
 20
107.7866886412516
 30
0.0
 10
237.6226654340964
 20
107.4079471887682
 30
0.0
 10
237.3657973066397
 20
107.242127610303
 30
0.0
 10
236.8208780136817
 20
106.955117479205
 30
0.0
 10
236.5347093300692
 20
106.8354849249792
 30
0.0
 10
235.951267644354
 20
106.6473963574867
 30
0.0
 10
235.6518199032258
 20
106.5777679230655
 30
0.0
 10
235.0370897391097
 20
106.4880076992489
 30
0.0
 10
234.7285711927406
 20
106.4690192622217
 30
0.0
 10
234.1146589774866
 20
106.4810265045064
 30
0.0
 10
233.8083759504024
 20
106.5118881436884
 30
0.0
 10
233.1972159464798
 20
106.6258031848034
 30
0.0
 10
232.9008702594333
 20
106.7072940116589
 30
0.0
 10
232.3271799114347
 20
106.9180856293633
 30
0.0
 10
232.0494244408866
 20
107.0475037027965
 30
0.0
 10
231.5147187018653
 20
107.358179653947
 30
0.0
 10
231.2658518046701
 20
107.534701414833
 30
0.0
 10
230.8052130587841
 20
107.9310861017282
 30
0.0
 10
230.5925358326199
 20
108.1519707984969
 30
0.0
 10
230.2129979229145
 20
108.6394223121472
 30
0.0
 10
230.0517663030945
 20
108.898400400836
 30
0.0
 10
229.8542529607178
 20
109.3108986048983
 30
0.0
 10
229.7958605776542
 20
109.4524326805969
 30
0.0
 10
229.6950225890599
 20
109.7441869242064
 30
0.0
 10
229.6525215657641
 20
109.8952404705553
 30
0.0
 10
229.5539837469169
 20
110.3483037200076
 30
0.0
 10
229.5248864388183
 20
110.6540407245607
 30
0.0
 10
229.5374141864696
 20
111.1183318345693
 30
0.0
 10
229.5512644043409
 20
111.2749375515429
 30
0.0
 10
229.5972948883114
 20
111.5814664428069
 30
0.0
 10
229.6293926535592
 20
111.7322729626021
 30
0.0
 10
229.7518877213248
 20
112.1776212735048
 30
0.0
 10
229.870317544512
 20
112.4682381968641
 30
0.0
 10
230.1645612022452
 20
113.0091486505483
 30
0.0
 10
230.3399317884623
 20
113.2611266297171
 30
0.0
 10
230.7440388301187
 20
113.7307143695924
 30
0.0
 10
230.9686115009063
 20
113.9431629819232
 30
0.0
 10
231.2116690257844
 20
114.1332035047781
 30
0.0
  0
CIRCLE
  5
B5
330
1F
100
AcDbEntity
  8
0
  6
Continuous
 62
     7
370
    15
100
AcDbCircle
 10
234.53185205
 20
110.860804938
 30
0.0
 40
3.5
  0
LINE
  5
B6
330
1F
100
AcDbEntity
  8
0
  6
Continuous
 62
     7
370
    15
100
AcDbLine
 10
54.18185205
 20
99.038049341
 30
0.0
 11
54.18185205
 21
122.6835605351
 31
0.0
  0
SPLINE
  5
B7
330
1F
100
AcDbEntity
  8
0
  6
Continuous
 62
     7
370
    15
100
AcDbSpline
210
0.0
220
0.0
230
1.0
 70
    24
 71
     3
 72
    10
 73
     6
 74
     0
 42
0.000000001
 43
0.00000001
 40
0.0
 40
0.0
 40
0.0
 40
0.0
 40
0.4391222274230622
 40
0.7513714712594793
 40
0.9999999999999999
 40
0.9999999999999999
 40
0.9999999999999999
 40
0.9999999999999999
 10
232.2337730765045
 20
110.6324053647668
 30
0.0
 10
232.4265862230067
 20
110.3638384388275
 30
0.0
 10
232.756504155915
 20
109.9043000377338
 30
0.0
 10
233.2360941896958
 20
109.2362853124918
 30
0.0
 10
233.4747984515289
 20
108.9037972484145
 30
0.0
 10
233.5806123958951
 20
108.756410380478
 30
0.0
  0
SPLINE
  5
B8
330
1F
100
AcDbEntity
  8
0
  6
Continuous
 62
     7
370
    15
100
AcDbSpline
210
0.0
220
0.0
230
1.0
 70
    24
 71
     3
 72
    10
 73
     6
 74
     0
 42
0.000000001
 43
0.00000001
 40
0.0
 40
0.0
 40
0.0
 40
0.0
 40
0.4391222274230672
 40
0.7513714712594577
 40
1.0
 40
1.0
 40
1.0
 40
1.0
 10
233.5806123958951
 20
108.756410380478
 30
0.0
 10
233.909604749626
 20
108.7891080005628
 30
0.0
 10
234.4725356454418
 20
108.8450561110785
 30
0.0
 10
235.2908483844937
 20
108.9263859011136
 30
0.0
 10
235.6981436253563
 20
108.9668658238141
 30
0.0
 10
235.8786913693567
 20
108.9848099537415
 30
0.0
  0
SPLINE
  5
B9
330
1F
100
AcDbEntity
  8
0
  6
Continuous
 62
     7
370
    15
100
AcDbSpline
210
0.0
220
0.0
230
1.0
 70
    24
 71
     3
 72
    11
 73
     7
 74
     0
 42
0.000000001
 43
0.00000001
 40
0.0
 40
0.0
 40
0.0
 40
0.0
 40
0.1849308168246009
 40
0.5198464202157687
 40
0.8714438233692539
 40
1.0
 40
1.0
 40
1.0
 40
1.0
 10
235.8786913693567
 20
108.9848099537415
 30
0.0
 10
235.9340581650984
 20
109.1072959993235
 30
0.0
 10
236.0896959925808
 20
109.4516081773342
 30
0.0
 10
236.380223719074
 20
110.0943326094301
 30
0.0
 10
236.6485379614141
 20
110.6879149195015
 30
0.0
 10
236.7916217992466
 20
111.0044543407917
 30
0.0
 10
236.8299310234278
 20
111.0892045112939
 30
0.0
  0
SPLINE
  5
BA
330
1F
100
AcDbEntity
  8
0
  6
Continuous
 62
     7
370
    15
100
AcDbSpline
210
0.0
220
0.0
230
1.0
 70
    24
 71
     3
 72
    10
 73
     6
 74
     0
 42
0.000000001
 43
0.00000001
 40
0.0
 40
0.0
 40
0.0
 40
0.0
 40
0.4391222274230351
 40
0.7513714712594615
 40
1.0
 40
1.0
 40
1.0
 40
1.0
 10
236.8299310234278
 20
111.0892045112939
 30
0.0
 10
236.6371178769257
 20
111.3577714372333
 30
0.0
 10
236.3071999440174
 20
111.817309838327
 30
0.0
 10
235.8276099102365
 20
112.4853245635689
 30
0.0
 10
235.5889056484034
 20
112.8178126276462
 30
0.0
 10
235.4830917040373
 20
112.9651994955828
 30
0.0
  0
SPLINE
  5
BB
330
1F
100
AcDbEntity
  8
0
  6
Continuous
 62
     7
370
    15
100
AcDbSpline
210
0.0
220
0.0
230
1.0
 70
    24
 71
     3
 72
    10
 73
     6
 74
     0
 42
0.000000001
 43
0.00000001
 40
0.0
 40
0.0
 40
0.0
 40
0.0
 40
0.4391222274230443
 40
0.7513714712594819
 40
1.0
 40
1.0
 40
1.0
 40
1.0
 10
235.4830917040373
 20
112.9651994955828
 30
0.0
 10
235.1540993503064
 20
112.932501875498
 30
0.0
 10
234.5911684544906
 20
112.8765537649822
 30
0.0
 10
233.7728557154385
 20
112.7952239749471
 30
0.0
 10
233.3655604745759
 20
112.7547440522467
 30
0.0
 10
233.1850127305756
 20
112.7367999223193
 30
0.0
  0
SPLINE
  5
BC
330
1F
100
AcDbEntity
  8
0
  6
Continuous
 62
     7
370
    15
100
AcDbSpline
210
0.0
220
0.0
230
1.0
 70
    24
 71
     3
 72
    11
 73
     7
 74
     0
 42
0.000000001
 43
0.00000001
 40
0.0
 40
0.0
 40
0.0
 40
0.0
 40
0.1285561766307357
 40
0.4801535797842344
 40
0.8150691831754009
 40
1.0
 40
1.0
 40
1.0
 40
1.0
 10
233.1850127305756
 20
112.7367999223193
 30
0.0
 10
233.1467035063944
 20
112.652049751817
 30
0.0
 10
233.0036196685621
 20
112.3355103305268
 30
0.0
 10
232.7353054262218
 20
111.7419280204554
 30
0.0
 10
232.4447776997287
 20
111.0992035883595
 30
0.0
 10
232.2891398722462
 20
110.7548914103488
 30
0.0
 10
232.2337730765045
 20
110.6324053647668
 30
0.0
  0
CIRCLE
  5
BD
330
1F
100
AcDbEntity
  8
0
  6
Continuous
 62
     7
370
    15
100
AcDbCircle
 10
234.53185205
 20
110.860804938
 30
0.0
 40
2.399999999999987
  0
CIRCLE
  5
BE
330
1F
100
AcDbEntity
  8
0
  6
Continuous
 62
     7
370
    15
100
AcDbCircle
 10
234.53185205
 20
110.860804938
 30
0.0
 40
3.3
  0
ARC
  5
BF
330
1F
100
AcDbEntity
  8
0
  6
Continuous
 62
     7
370
    15
100
AcDbCircle
 10
234.53185205
 20
110.860804938
 30
0.0
 40
2.000000000000035
100
AcDbArc
 50
35.6758262979
 51
95.6758262979
  0
ARC
  5
C0
330
1F
100
AcDbEntity
  8
0
  6
Continuous
 62
     7
370
    15
100
AcDbCircle
 10
234.53185205
 20
110.860804938
 30
0.0
 40
1.999999999999977
100
AcDbArc
 50
155.6758262979
 51
215.6758262979
  0
ARC
  5
C1
330
1F
100
AcDbEntity
  8
0
  6
Continuous
 62
     7
370
    15
100
AcDbCircle
 10
234.53185205
 20
110.860804938
 30
0.0
 40
2.000000000000027
100
AcDbArc
 50
215.6758262979
 51
275.6758262979
  0
ARC
  5
C2
330
1F
100
AcDbEntity
  8
0
  6
Continuous
 62
     7
370
    15
100
AcDbCircle
 10
234.53185205
 20
110.860804938
 30
0.0
 40
2.000000000000043
100
AcDbArc
 50
275.6758262979
 51
335.6758262979
  0
ARC
  5
C3
330
1F
100
AcDbEntity
  8
0
  6
Continuous
 62
     7
370
    15
100
AcDbCircle
 10
234.53185205
 20
110.860804938
 30
0.0
 40
2.000000000000043
100
AcDbArc
 50
335.6758262979
 51
35.6758262979
  0
ARC
  5
C4
330
1F
100
AcDbEntity
  8
0
  6
Continuous
 62
     7
370
    15
100
AcDbCircle
 10
234.53185205
 20
110.860804938
 30
0.0
 40
1.999999999999996
100
AcDbArc
 50
95.6758262979
 51
155.6758262979
  0
SPLINE
  5
C5
330
1F
100
AcDbEntity
  8
0
  6
HIDDEN
 62
     7
370
     0
100
AcDbSpline
210
0.0
220
0.0
230
1.0
 70
     8
 71
     3
 72
    17
 73
    13
 74
     0
 42
0.000000001
 43
0.00000001
 40
0.0
 40
0.0
 40
0.0
 40
0.0
 40
0.0001050141949164
 40
0.000125753276819
 40
0.2495455490454387
 40
0.5020023031091138
 40
0.5864181222545175
 40
0.6698763522708477
 40
0.7526659634995814
 40
0.8350829605192243
 40
0.9174273672992211
 40
1.0
 40
1.0
 40
1.0
 40
1.0
 10
143.581851791012
 20
79.36080495006823
 30
0.0
 10
143.5818520974055
 20
79.36080494484365
 30
0.0
 10
143.5818524643082
 20
79.36080493858726
 30
0.0
 10
143.5824674347897
 20
79.36080380141699
 30
0.0
 10
143.4783277419022
 20
79.39302046121561
 30
0.0
 10
143.1098413078757
 20
79.50138161458146
 30
0.0
 10
142.7432288919941
 20
79.60621229263329
 30
0.0
 10
142.4936973363329
 20
79.67590499741726
 30
0.0
 10
142.215911549121
 20
79.75104670632851
 30
0.0
 10
141.9092517726733
 20
79.83071169991526
 30
0.0
 10
141.5760649399755
 20
79.9138608813526
 30
0.0
 10
141.331067497836
 20
79.97117336358025
 30
0.0
 10
141.2083992528437
 20
79.9998692615848
 30
0.0
  0
LWPOLYLINE
  5
C6
330
1F
100
AcDbEntity
  8
0
  6
HIDDEN
 62
     7
370
     0
100
AcDbPolyline
 90
       20
 70
   128
 43
0.0
 10
121.8304230283
 20
101.8730928455
 10
121.9871771699
 20
101.2012683794
 10
122.2354649413
 20
100.6022465186
 10
122.5483805097
 20
100.1409405765
 10
122.8920146181
 20
99.8673402099
 10
123.2291291787
 20
99.8110942638
 10
123.523192598
 20
99.9782978592
 10
123.7423385417
 20
100.3508318922
 10
123.8628191464
 20
100.8883265198
 10
123.871578469
 20
101.532535859
 10
123.7676673011
 20
102.213649832
 10
123.5623460301
 20
102.8578591712
 10
123.2778644016
 20
103.3953537988
 10
122.9450504141
 20
103.7678878318
 10
122.5999696275
 20
103.9350914272
 10
122.2800168994
 20
103.8788454811
 10
122.0198640724
 20
103.6052451145
 10
121.8477027421
 20
103.1439391725
 10
121.7821892599
 20
102.5449173117
 10
121.8304230283
 20
101.8730928455
  0
LWPOLYLINE
  5
C7
330
1F
100
AcDbEntity
  8
0
  6
HIDDEN
 62
     7
370
     0
100
AcDbPolyline
 90
       18
 70
   128
 43
0.0
 10
122.1868583226
 20
101.9011020046
 10
122.329585725
 20
101.3138334823
 10
122.5593037097
 20
100.805878828
 10
122.8449875899
 20
100.4458401326
 10
123.1480541745
 20
100.2823426169
 10
123.427572642
 20
100.3374675264
 10
123.6457924744
 20
100.6037699365
 10
123.7732418741
 20
101.0452842312
 10
123.7927080937
 20
101.6023814585
 10
123.7015621121
 20
102.1998225508
 10
123.5121136993
 20
102.756919778
 10
123.2499489132
 20
103.1984340728
 10
122.9504745608
 20
103.4647364829
 10
122.654136313
 20
103.5198613924
 10
122.4009562921
 20
103.3563638767
 10
122.2251278628
 20
102.9963251813
 10
122.150397629
 20
102.488370527
 10
122.1868583226
 20
101.9011020046
  0
SPLINE
  5
C8
330
1F
100
AcDbEntity
  8
0
  6
HIDDEN
 62
     7
370
     0
100
AcDbSpline
210
0.0
220
0.0
230
1.0
 70
     8
 71
     3
 72
    12
 73
     8
 74
     0
 42
0.000000001
 43
0.00000001
 40
0.0
 40
0.0
 40
0.0
 40
0.0
 40
0.4999999999999987
 40
0.4999999999999987
 40
0.7499999999999993
 40
0.7499999999999993
 40
1.0
 40
1.0
 40
1.0
 40
1.0
 10
134.1729336626448
 20
104.0822356148241
 30
0.0
 10
134.2460340231201
 20
103.8875006470628
 30
0.0
 10
134.2819377724524
 20
103.6799224720339
 30
0.0
 10
134.2819898905026
 20
103.3841608219624
 30
0.0
 10
134.2729530804123
 20
103.2864648293886
 30
0.0
 10
134.2369006072966
 20
103.1025969205599
 30
0.0
 10
134.2099529661938
 20
103.0153072139529
 30
0.0
 10
134.1729336626448
 20
102.9325080982329
 30
0.0
  0
SPLINE
  5
C9
330
1F
100
AcDbEntity
  8
0
  6
HIDDEN
 62
     7
370
     0
100
AcDbSpline
210
0.0
220
0.0
230
1.0
 70
     8
 71
     3
 72
    50
 73
    46
 74
     0
 42
0.000000001
 43
0.00000001
 40
0.0
 40
0.0
 40
0.0
 40
0.0
 40
0.0624999999999995
 40
0.0624999999999995
 40
0.124999999999999
 40
0.124999999999999
 40
0.1874999999999985
 40
0.1874999999999985
 40
0.249999999999998
 40
0.249999999999998
 40
0.2812499999999973
 40
0.2812499999999973
 40
0.3124999999999966
 40
0.3124999999999966
 40
0.374999999999996
 40
0.374999999999996
 40
0.4062499999999959
 40
0.4062499999999959
 40
0.4374999999999957
 40
0.4374999999999957
 40
0.4687499999999956
 40
0.4687499999999956
 40
0.4999999999999954
 40
0.4999999999999954
 40
0.5312499999999953
 40
0.5312499999999953
 40
0.5624999999999952
 40
0.5624999999999952
 40
0.593749999999995
 40
0.593749999999995
 40
0.6249999999999949
 40
0.6249999999999949
 40
0.6874999999999946
 40
0.6874999999999946
 40
0.7187499999999948
 40
0.7187499999999948
 40
0.749999999999995
 40
0.749999999999995
 40
0.8124999999999962
 40
0.8124999999999962
 40
0.8749999999999976
 40
0.8749999999999976
 40
0.9374999999999988
 40
0.9374999999999988
 40
1.0
 40
1.0
 40
1.0
 40
1.0
 10
134.1729336626448
 20
102.9325080982329
 30
0.0
 10
134.2281199579893
 20
102.8016832322946
 30
0.0
 10
134.2972765862703
 20
102.7157663054075
 30
0.0
 10
134.4448150345766
 20
102.5924687983012
 30
0.0
 10
134.5210999557997
 20
102.5584439481295
 30
0.0
 10
134.6658920829611
 20
102.5290915255301
 30
0.0
 10
134.7357470760405
 20
102.5340987160232
 30
0.0
 10
134.8443733497344
 20
102.5847212348224
 30
0.0
 10
134.8842765794364
 20
102.6305246377439
 30
0.0
 10
134.8820215559338
 20
102.7442359882691
 30
0.0
 10
134.8701301286662
 20
102.7908127233617
 30
0.0
 10
134.822795839618
 20
102.8987832109067
 30
0.0
 10
134.787205812784
 20
102.9611343515093
 30
0.0
 10
134.6560020629178
 20
103.1718085534088
 30
0.0
 10
134.5417624670627
 20
103.3389820651629
 30
0.0
 10
134.3884254572353
 20
103.6137210525913
 30
0.0
 10
134.338991095887
 20
103.7110167914585
 30
0.0
 10
134.2512257610168
 20
103.9102366030463
 30
0.0
 10
134.2127456369198
 20
104.012068635434
 30
0.0
 10
134.1489099789865
 20
104.2210121419616
 30
0.0
 10
134.1237563039974
 20
104.3282104880318
 30
0.0
 10
134.0904439118029
 20
104.5385504545646
 30
0.0
 10
134.0818352578488
 20
104.6429245321101
 30
0.0
 10
134.081868890946
 20
104.8501069422987
 30
0.0
 10
134.090568498155
 20
104.9497994606615
 30
0.0
 10
134.1240534343885
 20
105.1396822034999
 30
0.0
 10
134.1492673827688
 20
105.2311379842791
 30
0.0
 10
134.213267415759
 20
105.3989807199778
 30
0.0
 10
134.2518345679102
 20
105.4755181253932
 30
0.0
 10
134.3397841292678
 20
105.6137612480034
 30
0.0
 10
134.3892201300235
 20
105.6751163939564
 30
0.0
 10
134.5425009211348
 20
105.8282589793973
 30
0.0
 10
134.6568144250604
 20
105.8930649309079
 30
0.0
 10
134.7872609915831
 20
105.9139172925539
 30
0.0
 10
134.8232859013756
 20
105.9079480373961
 30
0.0
 10
134.8704141944205
 20
105.8729949675613
 30
0.0
 10
134.8821509001793
 20
105.8435365972113
 30
0.0
 10
134.8840531290155
 20
105.7328256566329
 30
0.0
 10
134.8439297355675
 20
105.6294857520899
 30
0.0
 10
134.7356574581259
 20
105.3990559370835
 30
0.0
 10
134.6662849822193
 20
105.2689434291697
 30
0.0
 10
134.5207793743067
 20
104.9822580038509
 30
0.0
 10
134.4448801265956
 20
104.8272285803034
 30
0.0
 10
134.2984534035515
 20
104.4813030882281
 30
0.0
 10
134.2279228218163
 20
104.2912501304979
 30
0.0
 10
134.1729336626448
 20
104.0822356148241
 30
0.0
  0
SPLINE
  5
CA
330
1F
100
AcDbEntity
  8
0
  6
HIDDEN
 62
     7
370
     0
100
AcDbSpline
210
0.0
220
0.0
230
1.0
 70
    11
 71
     3
 72
    62
 73
    58
 74
     0
 42
0.000000001
 43
0.00000001
 40
0.0
 40
0.0
 40
0.0
 40
0.0
 40
0.03125
 40
0.03125
 40
0.0625
 40
0.0625
 40
0.1249999999999996
 40
0.1249999999999996
 40
0.1562499999999995
 40
0.1562499999999995
 40
0.1874999999999994
 40
0.1874999999999994
 40
0.2187499999999993
 40
0.2187499999999993
 40
0.2499999999999992
 40
0.2499999999999992
 40
0.3124999999999992
 40
0.3124999999999992
 40
0.3749999999999992
 40
0.3749999999999992
 40
0.4062499999999993
 40
0.4062499999999993
 40
0.4374999999999994
 40
0.4374999999999994
 40
0.4687499999999995
 40
0.4687499999999995
 40
0.4999999999999996
 40
0.4999999999999996
 40
0.5312499999999997
 40
0.5312499999999997
 40
0.5624999999999998
 40
0.5624999999999998
 40
0.5937499999999999
 40
0.5937499999999999
 40
0.625
 40
0.625
 40
0.6562500000000001
 40
0.6562500000000001
 40
0.6875000000000002
 40
0.6875000000000002
 40
0.75
 40
0.75
 40
0.78125
 40
0.78125
 40
0.8125
 40
0.8125
 40
0.84375
 40
0.84375
 40
0.875
 40
0.875
 40
0.90625
 40
0.90625
 40
0.9375
 40
0.9375
 40
0.96875
 40
0.96875
 40
1.0
 40
1.0
 40
1.0
 40
1.0
 10
136.1818520499662
 20
107.9729062222997
 30
0.0
 10
136.0390279782764
 20
107.9729062222997
 30
0.0
 10
135.8996647436666
 20
107.9825167359492
 30
0.0
 10
135.6271046842163
 20
108.0201854113004
 30
0.0
 10
135.4929405642123
 20
108.0487518907143
 30
0.0
 10
135.1162461652158
 20
108.1601588550325
 30
0.0
 10
134.8907182853263
 20
108.2704814552851
 30
0.0
 10
134.6072065786291
 20
108.4882268301332
 30
0.0
 10
134.5202632941715
 20
108.570931077375
 30
0.0
 10
134.3688697882581
 20
108.7522138109412
 30
0.0
 10
134.3039690306774
 20
108.8507404950049
 30
0.0
 10
134.1964824453872
 20
109.0660154376298
 30
0.0
 10
134.1538215254318
 20
109.1843148856691
 30
0.0
 10
134.0972359457605
 20
109.4291445964686
 30
0.0
 10
134.0824546316707
 20
109.5566996993615
 30
0.0
 10
134.0807004663199
 20
109.9560054944772
 30
0.0
 10
134.1384680144759
 20
110.2339500835978
 30
0.0
 10
134.3517541222288
 20
110.7548930803084
 30
0.0
 10
134.5065778311342
 20
110.9990757193153
 30
0.0
 10
134.7890422836414
 20
111.3121883466411
 30
0.0
 10
134.8931057117909
 20
111.4093283820203
 30
0.0
 10
135.1152543462848
 20
111.5813460572205
 30
0.0
 10
135.2327543039534
 20
111.6561491404782
 30
0.0
 10
135.482428777082
 20
111.7814275951983
 30
0.0
 10
135.616490591039
 20
111.8322006610055
 30
0.0
 10
135.8898237031825
 20
111.9005607232216
 30
0.0
 10
136.0304102825077
 20
111.9188741304396
 30
0.0
 10
136.31577736939
 20
111.9203121931855
 30
0.0
 10
136.4556491670827
 20
111.9035805466282
 30
0.0
 10
136.73025941595
 20
111.8377951035253
 30
0.0
 10
136.8645059453896
 20
111.7884193103321
 30
0.0
 10
137.1166457795079
 20
111.6645836902643
 30
0.0
 10
137.2372492970091
 20
111.5889323168081
 30
0.0
 10
137.4607382354679
 20
111.417952154363
 30
0.0
 10
137.5639443195132
 20
111.3227852083345
 30
0.0
 10
137.7546161640902
 20
111.1138693511345
 30
0.0
 10
137.8414354252359
 20
111.0004006827702
 30
0.0
 10
137.9928119339413
 20
110.7635133606098
 30
0.0
 10
138.0583129309456
 20
110.6391302668215
 30
0.0
 10
138.2218597474266
 20
110.246859806974
 30
0.0
 10
138.2807544219182
 20
109.9731746382108
 30
0.0
 10
138.2823780918496
 20
109.571577471665
 30
0.0
 10
138.2685897802958
 20
109.4429038133045
 30
0.0
 10
138.2133816315993
 20
109.1953114603282
 30
0.0
 10
138.171550856712
 20
109.0766581990261
 30
0.0
 10
138.0648558699217
 20
108.8591904376047
 30
0.0
 10
137.9990017325766
 20
108.7579521000365
 30
0.0
 10
137.8470577900324
 20
108.5745513259833
 30
0.0
 10
137.7616771302952
 20
108.4927608818611
 30
0.0
 10
137.5720486967361
 20
108.3460365082618
 30
0.0
 10
137.4674638819615
 20
108.2812452256863
 30
0.0
 10
137.2457373347699
 20
108.1711336450355
 30
0.0
 10
137.1277558639187
 20
108.1250527071155
 30
0.0
 10
136.8748586515784
 20
108.0496788124562
 30
0.0
 10
136.741569681493
 20
108.0210905605577
 30
0.0
 10
136.4679752797461
 20
107.982849438848
 30
0.0
 10
136.3246761216559
 20
107.9729062222997
 30
0.0
 10
136.1818520499662
 20
107.9729062222997
 30
0.0
  0
LWPOLYLINE
  5
CB
330
1F
100
AcDbEntity
  8
0
  6
HIDDEN
 62
     7
370
     0
100
AcDbPolyline
 90
       18
 70
   128
 43
0.0
 10
134.1729336626
 20
102.9325080982
 10
134.4855163173
 20
102.3441078878
 10
134.9864989032
 20
101.8849031234
 10
135.6202408516
 20
101.6058944085
 10
136.3163569569
 20
101.5380692544
 10
136.9975345599
 20
101.688960518
 10
137.5881201146
 20
102.041809781
 10
138.0225214886
 20
102.5574285884
 10
138.2524928144
 20
103.1785508305
 10
138.2524928144
 20
103.8361928826
 10
138.0225214886
 20
104.4573151247
 10
137.5881201146
 20
104.972933932
 10
136.9975345599
 20
105.3257831951
 10
136.3163569569
 20
105.4766744587
 10
135.6202408516
 20
105.4088493045
 10
134.9864989032
 20
105.1298405896
 10
134.4855163173
 20
104.6706358253
 10
134.1729336626
 20
104.0822356148
  0
LINE
  5
CC
330
1F
100
AcDbEntity
  8
0
  6
HIDDEN
 62
     7
370
     0
100
AcDbLine
 10
224.08185205
 20
110.860804938
 30
0.0
 11
224.08185205
 21
102.160804938
 31
0.0
  0
LINE
  5
CD
330
1F
100
AcDbEntity
  8
0
  6
HIDDEN
 62
     7
370
     0
100
AcDbLine
 10
224.08185205
 20
119.560804938
 30
0.0
 11
224.08185205
 21
110.860804938
 31
0.0
  0
LINE
  5
CE
330
1F
100
AcDbEntity
  8
0
  6
HIDDEN
 62
     7
370
     0
100
AcDbLine
 10
227.4478774538
 20
110.860804938
 30
0.0
 11
227.4478774538
 21
101.860804938
 31
0.0
  0
LINE
  5
CF
330
1F
100
AcDbEntity
  8
0
  6
HIDDEN
 62
     7
370
     0
100
AcDbLine
 10
227.4478774538
 20
119.860804938
 30
0.0
 11
227.4478774538
 21
110.860804938
 31
0.0
  0
LINE
  5
D0
330
1F
100
AcDbEntity
  8
0
  6
HIDDEN
 62
     7
370
     0
100
AcDbLine
 10
121.58185205
 20
133.360804938
 30
0.0
 11
121.9191103502
 21
133.360804938
 31
0.0
  0
ELLIPSE
  5
D1
330
1F
100
AcDbEntity
  8
0
  6
HIDDEN
 62
     7
370
     0
100
AcDbEllipse
 10
121.9191103502
 20
134.960804938
 30
0.0
 11
0.0
 21
1.599999999999966
 31
0.0
210
0.0
220
0.0
230
1.0
 40
0.4142135624
 41
3.141592653589793
 42
4.712388980384695
  0
ELLIPSE
  5
D2
330
1F
100
AcDbEntity
  8
0
  6
HIDDEN
 62
     7
370
     0
100
AcDbEllipse
 10
121.9191103502
 20
86.760804938
 30
0.0
 11
0.0
 21
1.599999999999994
 31
0.0
210
0.0
220
0.0
230
1.0
 40
0.4142135624
 41
4.712388980384695
 42
6.283185307179586
  0
LINE
  5
D3
330
1F
100
AcDbEntity
  8
0
  6
HIDDEN
 62
     7
370
     0
100
AcDbLine
 10
121.9191103502
 20
88.360804938
 30
0.0
 11
121.58185205
 21
88.360804938
 31
0.0
  0
SPLINE
  5
D4
330
1F
100
AcDbEntity
  8
0
  6
HIDDEN
 62
     7
370
     0
100
AcDbSpline
210
0.0
220
0.0
230
1.0
 70
     8
 71
     3
 72
    23
 73
    19
 74
     0
 42
0.000000001
 43
0.00000001
 40
0.0
 40
0.0
 40
0.0
 40
0.0
 40
0.0499457449747766
 40
0.1516401825898889
 40
0.203500936724678
 40
0.2534420043554073
 40
0.354897381769253
 40
0.4064953737402204
 40
0.4588756663928388
 40
0.565288099127342
 40
0.6194389401073384
 40
0.67360704025066
 40
0.7281726899570045
 40
0.7840357284940559
 40
0.8403680858165624
 40
0.8920013671538156
 40
0.997212001832449
 40
1.0
 40
1.0
 40
1.0
 40
1.0
 10
234.5318520499661
 20
119.1523669139189
 30
0.0
 10
234.6242597020504
 20
119.1532992736516
 30
0.0
 10
234.9048184011315
 20
119.1561300092866
 30
0.0
 10
235.2778427762513
 20
119.1825246408118
 30
0.0
 10
235.6375999772937
 20
119.224363800065
 30
0.0
 10
235.9863422955425
 20
119.2760064232942
 30
0.0
 10
236.3162557845521
 20
119.3398007285932
 30
0.0
 10
236.6246414806555
 20
119.4114547760683
 30
0.0
 10
236.9215702163737
 20
119.4878606942177
 30
0.0
 10
237.1908250746569
 20
119.566954525829
 30
0.0
 10
237.4245891706513
 20
119.6420160998134
 30
0.0
 10
237.5817141303303
 20
119.6951329834607
 30
0.0
 10
237.7187371071368
 20
119.7434636904873
 30
0.0
 10
237.8337998391358
 20
119.7854767807302
 30
0.0
 10
237.9226962053102
 20
119.8188353713603
 30
0.0
 10
238.0035573046977
 20
119.849740350154
 30
0.0
 10
238.0393354714096
 20
119.8637115580391
 30
0.0
 10
238.031431186532
 20
119.8606414895731
 30
0.0
 10
238.0312271364328
 20
119.860562235373
 30
0.0
  0
SPLINE
  5
D5
330
1F
100
AcDbEntity
  8
0
  6
HIDDEN
 62
     7
370
     0
100
AcDbSpline
210
0.0
220
0.0
230
1.0
 70
     8
 71
     3
 72
    28
 73
    24
 74
     0
 42
0.000000001
 43
0.00000001
 40
0.0
 40
0.0
 40
0.0
 40
0.0
 40
0.0529643729912608
 40
0.0922837493870956
 40
0.1300584034780884
 40
0.2070426266588249
 40
0.2463807429324815
 40
0.2818362893435569
 40
0.3540256613820952
 40
0.3908496064274393
 40
0.4253983361095787
 40
0.4955924487563837
 40
0.5312985868602833
 40
0.5673727711726468
 40
0.640626758772405
 40
0.6778744043685344
 40
0.7159661210891998
 40
0.7934568412088827
 40
0.8329687825382035
 40
0.8737101075391615
 40
0.9148265089824393
 40
0.9571869098901277
 40
1.0
 40
1.0
 40
1.0
 40
1.0
 10
231.7625629701324
 20
119.6039262329914
 30
0.0
 10
231.6793750374493
 20
119.6303720959635
 30
0.0
 10
231.5344305417781
 20
119.676450681492
 30
0.0
 10
231.3785996841404
 20
119.7315587622872
 30
0.0
 10
231.2189886490836
 20
119.7891658012218
 30
0.0
 10
231.1076736218541
 20
119.8315032755331
 30
0.0
 10
231.0483652825049
 20
119.8543780084174
 30
0.0
 10
231.0229893792373
 20
119.8642611939679
 30
0.0
 10
231.0439399035797
 20
119.8560552857
 30
0.0
 10
231.1102343984587
 20
119.8305540724443
 30
0.0
 10
231.2041660590644
 20
119.794990449063
 30
0.0
 10
231.338132183876
 20
119.7456091247481
 30
0.0
 10
231.5114787498105
 20
119.6850229768493
 30
0.0
 10
231.713619960075
 20
119.6172282948383
 30
0.0
 10
231.9549404117174
 20
119.5419264435198
 30
0.0
 10
232.2322411471459
 20
119.4644915313662
 30
0.0
 10
232.5389463938222
 20
119.3860786140682
 30
0.0
 10
232.8818704475996
 20
119.3116259072255
 30
0.0
 10
233.255351892184
 20
119.248421152283
 30
0.0
 10
233.5541728437474
 20
119.2079071619389
 30
0.0
 10
233.8693485976447
 20
119.1768901257862
 30
0.0
 10
234.196593106681
 20
119.1563062556017
 30
0.0
 10
234.4197037979965
 20
119.1536846723038
 30
0.0
 10
234.5318520499662
 20
119.1523669139189
 30
0.0
  0
LINE
  5
D6
330
1F
100
AcDbEntity
  8
0
  6
HIDDEN
 62
     7
370
     0
100
AcDbLine
 10
122.58185205
 20
81.4067822152
 30
0.0
 11
121.9688848729
 21
80.7938150382
 31
0.0
  0
LINE
  5
D7
330
1F
100
AcDbEntity
  8
0
  6
HIDDEN
 62
     7
370
     0
100
AcDbLine
 10
121.9688848729
 20
140.9277948379
 30
0.0
 11
122.58185205
 21
140.3148276608
 31
0.0
  0
LINE
  5
D8
330
1F
100
AcDbEntity
  8
0
  6
HIDDEN
 62
     7
370
     0
100
AcDbLine
 10
61.18185205
 20
102.360804938
 30
0.0
 11
61.18185205
 21
119.360804938
 31
0.0
  0
LINE
  5
D9
330
1F
100
AcDbEntity
  8
0
  6
HIDDEN
 62
     7
370
     0
100
AcDbLine
 10
64.1777812643
 20
103.860804938
 30
0.0
 11
64.1777812643
 21
117.860804938
 31
0.0
  0
LINE
  5
DA
330
1F
100
AcDbEntity
  8
0
  6
HIDDEN
 62
     7
370
     0
100
AcDbLine
 10
122.58185205
 20
140.3148276608
 30
0.0
 11
131.7144135935
 21
140.3148276608
 31
0.0
  0
LINE
  5
DB
330
1F
100
AcDbEntity
  8
0
  6
HIDDEN
 62
     7
370
     0
100
AcDbLine
 10
122.58185205
 20
140.3148276608
 30
0.0
 11
122.58185205
 21
134.960804938
 31
0.0
  0
LINE
  5
DC
330
1F
100
AcDbEntity
  8
0
  6
HIDDEN
 62
     7
370
     0
100
AcDbLine
 10
131.7144135935
 20
81.4067822152
 30
0.0
 11
122.58185205
 21
81.4067822152
 31
0.0
  0
LINE
  5
DD
330
1F
100
AcDbEntity
  8
0
  6
HIDDEN
 62
     7
370
     0
100
AcDbLine
 10
122.58185205
 20
81.4067822152
 30
0.0
 11
122.58185205
 21
86.760804938
 31
0.0
  0
LINE
  5
DE
330
1F
100
AcDbEntity
  8
0
  6
HIDDEN
 62
     7
370
     0
100
AcDbLine
 10
121.9191103502
 20
133.360804938
 30
0.0
 11
134.53185205
 21
133.360804938
 31
0.0
  0
LINE
  5
DF
330
1F
100
AcDbEntity
  8
0
  6
HIDDEN
 62
     7
370
     0
100
AcDbLine
 10
134.53185205
 20
88.360804938
 30
0.0
 11
121.9191103502
 21
88.360804938
 31
0.0
  0
SPLINE
  5
E0
330
1F
100
AcDbEntity
  8
0
  6
HIDDEN
 62
     7
370
     0
100
AcDbSpline
210
0.0
220
0.0
230
1.0
 70
     8
 71
     3
 72
    13
 73
     9
 74
     0
 42
0.000000001
 43
0.00000001
 40
0.0
 40
0.0
 40
0.0
 40
0.0
 40
0.185045465315833
 40
0.3520092965873052
 40
0.5010298177386137
 40
0.6766227814616118
 40
0.843096261484258
 40
0.9999999999999999
 40
0.9999999999999999
 40
0.9999999999999999
 40
0.9999999999999999
 10
140.5581156805786
 20
140.7656657137415
 30
0.0
 10
140.7849057962003
 20
140.8245023852816
 30
0.0
 10
141.2163253337539
 20
140.9364265295834
 30
0.0
 10
141.7037808047047
 20
141.0766926012118
 30
0.0
 10
142.0928899812501
 20
141.1959873604677
 30
0.0
 10
142.3737899016752
 20
141.2866551700927
 30
0.0
 10
142.5506746767379
 20
141.3485709304426
 30
0.0
 10
142.5715370565605
 20
141.3567601865987
 30
0.0
 10
142.5816595549952
 20
141.3607336418482
 30
0.0
  0
LINE
  5
E1
330
1F
100
AcDbEntity
  8
0
  6
HIDDEN
 62
     7
370
     0
100
AcDbLine
 10
141.3083462239
 20
140.9653787931
 30
0.0
 11
140.5580936625
 21
140.7658531399
 31
0.0
  0
LINE
  5
E2
330
1F
100
AcDbEntity
  8
0
  6
HIDDEN
 62
     7
370
     0
100
AcDbLine
 10
140.98185205
 20
88.360804938
 30
0.0
 11
134.53185205
 21
88.360804938
 31
0.0
  0
LINE
  5
E3
330
1F
100
AcDbEntity
  8
0
  6
HIDDEN
 62
     7
370
     0
100
AcDbLine
 10
140.5580938162
 20
80.9557570446
 30
0.0
 11
140.6520365458
 21
80.9307733732
 31
0.0
  0
SPLINE
  5
E4
330
1F
100
AcDbEntity
  8
0
  6
HIDDEN
 62
     7
370
     0
100
AcDbSpline
210
0.0
220
0.0
230
1.0
 70
     8
 71
     3
 72
    13
 73
     9
 74
     0
 42
0.000000001
 43
0.00000001
 40
0.0
 40
0.0
 40
0.0
 40
0.0
 40
0.0000729225244412
 40
0.1576810837163452
 40
0.3241445774555209
 40
0.4996852408391247
 40
0.7294243771609252
 40
1.0
 40
1.0
 40
1.0
 40
1.0
 10
142.58181947479
 20
80.36081737714369
 30
0.0
 10
142.5818303335313
 20
80.3608130872908
 30
0.0
 10
142.6053102953926
 20
80.35153709665919
 30
0.0
 10
142.5337250803423
 20
80.37970259872189
 30
0.0
 10
142.3781087418965
 20
80.43329152858075
 30
0.0
 10
142.0418555195803
 20
80.54181481738934
 30
0.0
 10
141.4845424535893
 20
80.71288088072704
 30
0.0
 10
140.8832846883174
 20
80.870644869754
 30
0.0
 10
140.5581179980561
 20
80.95596533814101
 30
0.0
  0
LINE
  5
E5
330
1F
100
AcDbEntity
  8
0
  6
HIDDEN
 62
     7
370
     0
100
AcDbLine
 10
134.53185205
 20
133.360804938
 30
0.0
 11
140.98185205
 21
133.360804938
 31
0.0
  0
LINE
  5
E6
330
1F
100
AcDbEntity
  8
0
  6
HIDDEN
 62
     7
370
     0
100
AcDbLine
 10
99.3449502785
 20
107.460804938
 30
0.0
 11
99.3449502785
 21
114.260804938
 31
0.0
  0
LINE
  5
E7
330
1F
100
AcDbEntity
  8
0
  6
HIDDEN
 62
     7
370
     0
100
AcDbLine
 10
97.18185205
 20
103.860804938
 30
0.0
 11
97.18185205
 21
117.860804938
 31
0.0
  0
SPLINE
  5
E8
330
1F
100
AcDbEntity
  8
0
  6
HIDDEN
 62
     7
370
     0
100
AcDbSpline
210
0.0
220
0.0
230
1.0
 70
     8
 71
     3
 72
     9
 73
     5
 74
     0
 42
0.000000001
 43
0.00000001
 40
0.0
 40
0.0
 40
0.0
 40
0.0
 40
0.493237740338934
 40
1.0
 40
1.0
 40
1.0
 40
1.0
 10
140.5589115886636
 20
140.7656364492028
 30
0.0
 10
140.6647599298249
 20
140.922658509979
 30
0.0
 10
140.8793589608894
 20
141.2410081574903
 30
0.0
 10
141.0972186038513
 20
141.5608337062664
 30
0.0
 10
141.2076216488076
 20
141.7229092240616
 30
0.0
  0
SPLINE
  5
E9
330
1F
100
AcDbEntity
  8
0
  6
HIDDEN
 62
     7
370
     0
100
AcDbSpline
210
0.0
220
0.0
230
1.0
 70
     8
 71
     3
 72
     9
 73
     5
 74
     0
 42
0.000000001
 43
0.00000001
 40
0.0
 40
0.0
 40
0.0
 40
0.0
 40
0.5067649320089164
 40
1.0
 40
1.0
 40
1.0
 40
1.0
 10
141.2076253340936
 20
79.99871478755327
 30
0.0
 10
141.0972208943218
 20
80.16079152307172
 30
0.0
 10
140.8793596478181
 20
80.48061778823167
 30
0.0
 10
140.6647596861125
 20
80.79896686975657
 30
0.0
 10
140.5589114594098
 20
80.95598780062741
 30
0.0
  0
LINE
  5
EA
330
1F
100
AcDbEntity
  8
0
  6
HIDDEN
 62
     7
370
     0
100
AcDbLine
 10
234.53185205
 20
125.360804938
 30
0.0
 11
238.03185205
 21
125.360804938
 31
0.0
  0
LINE
  5
EB
330
1F
100
AcDbEntity
  8
0
  6
HIDDEN
 62
     7
370
     0
100
AcDbLine
 10
231.03185205
 20
125.360804938
 30
0.0
 11
234.53185205
 21
125.360804938
 31
0.0
  0
SPLINE
  5
EC
330
1F
100
AcDbEntity
  8
0
  6
HIDDEN
 62
     7
370
     0
100
AcDbSpline
210
0.0
220
0.0
230
1.0
 70
    11
 71
     3
 72
    62
 73
    58
 74
     0
 42
0.000000001
 43
0.00000001
 40
0.0
 40
0.0
 40
0.0
 40
0.0
 40
0.03125
 40
0.03125
 40
0.0625
 40
0.0625
 40
0.125
 40
0.125
 40
0.1562500000000001
 40
0.1562500000000001
 40
0.1875000000000001
 40
0.1875000000000001
 40
0.2187500000000001
 40
0.2187500000000001
 40
0.2500000000000001
 40
0.2500000000000001
 40
0.3125000000000001
 40
0.3125000000000001
 40
0.3750000000000001
 40
0.3750000000000001
 40
0.4062500000000001
 40
0.4062500000000001
 40
0.4375000000000001
 40
0.4375000000000001
 40
0.4687500000000001
 40
0.4687500000000001
 40
0.5000000000000001
 40
0.5000000000000001
 40
0.5312500000000001
 40
0.5312500000000001
 40
0.5625000000000001
 40
0.5625000000000001
 40
0.5937500000000001
 40
0.5937500000000001
 40
0.6250000000000001
 40
0.6250000000000001
 40
0.6562500000000001
 40
0.6562500000000001
 40
0.6875000000000001
 40
0.6875000000000001
 40
0.75
 40
0.75
 40
0.78125
 40
0.78125
 40
0.8125
 40
0.8125
 40
0.84375
 40
0.84375
 40
0.875
 40
0.875
 40
0.90625
 40
0.90625
 40
0.9375
 40
0.9375
 40
0.96875
 40
0.96875
 40
1.0
 40
1.0
 40
1.0
 40
1.0
 10
136.1818520499662
 20
109.8019946464603
 30
0.0
 10
136.3246761216559
 20
109.8019946464603
 30
0.0
 10
136.4640393562657
 20
109.8194548571137
 30
0.0
 10
136.736599415716
 20
109.8859504522004
 30
0.0
 10
136.87076353572
 20
109.9357822688082
 30
0.0
 10
137.2474579347165
 20
110.1222702328115
 30
0.0
 10
137.472985814606
 20
110.2984828199754
 30
0.0
 10
137.7564975213032
 20
110.6101493558587
 30
0.0
 10
137.8434408057608
 20
110.7239578494952
 30
0.0
 10
137.9948343116742
 20
110.961661341251
 30
0.0
 10
138.0597350692549
 20
111.0856317765955
 30
0.0
 10
138.1672216545451
 20
111.3439614678056
 30
0.0
 10
138.2098825745005
 20
111.4799203339894
 30
0.0
 10
138.2664681541718
 20
111.7483459693572
 30
0.0
 10
138.2812494682616
 20
111.8821820872543
 30
0.0
 10
138.2830036336124
 20
112.2822290053877
 30
0.0
 10
138.2252360854564
 20
112.5352103347367
 30
0.0
 10
138.0119499777035
 20
112.9705711590344
 30
0.0
 10
137.8571262687981
 20
113.1545580709686
 30
0.0
 10
137.5746618162909
 20
113.3737668250318
 30
0.0
 10
137.4705983881414
 20
113.438581361651
 30
0.0
 10
137.2484497536475
 20
113.5493499950558
 30
0.0
 10
137.1309497959789
 20
113.5953224662735
 30
0.0
 10
136.8812753228503
 20
113.6702907347099
 30
0.0
 10
136.7472135088933
 20
113.6994457033411
 30
0.0
 10
136.4738803967498
 20
113.7382080407701
 30
0.0
 10
136.3332938174247
 20
113.7482920465575
 30
0.0
 10
136.0479267305423
 20
113.7490907481274
 30
0.0
 10
135.9080549328496
 20
113.7398876194118
 30
0.0
 10
135.6334446839823
 20
113.7026466633771
 30
0.0
 10
135.4991981545427
 20
113.6743687112519
 30
0.0
 10
135.2470583204244
 20
113.6004633470815
 30
0.0
 10
135.1264548029232
 20
113.5540902739194
 30
0.0
 10
134.9029658644644
 20
113.4442662267618
 30
0.0
 10
134.7997597804192
 20
113.3809640921513
 30
0.0
 10
134.6090879358421
 20
113.2351249094768
 30
0.0
 10
134.5222686746964
 20
113.1527034076251
 30
0.0
 10
134.370892165991
 20
112.9721845004821
 30
0.0
 10
134.3053911689867
 20
112.873456754487
 30
0.0
 10
134.1418443525057
 20
112.5466820047672
 30
0.0
 10
134.0829496780141
 20
112.2984478720053
 30
0.0
 10
134.0813260080828
 20
111.8975366955848
 30
0.0
 10
134.0951143196366
 20
111.7630002752906
 30
0.0
 10
134.150322468333
 20
111.4923666243267
 30
0.0
 10
134.1921532432203
 20
111.356374154948
 30
0.0
 10
134.2988482300106
 20
111.0961001193033
 30
0.0
 10
134.3647023673557
 20
110.968998430229
 30
0.0
 10
134.5166463098999
 20
110.72888264448
 30
0.0
 10
134.6020269696371
 20
110.6164803305994
 30
0.0
 10
134.7916554031962
 20
110.4067782417218
 30
0.0
 10
134.8962402179708
 20
110.3095712332896
 30
0.0
 10
135.1179667651624
 20
110.1384541640752
 30
0.0
 10
135.2359482360137
 20
110.0634492686902
 30
0.0
 10
135.4888454483539
 20
109.9373873072859
 30
0.0
 10
135.6221344184393
 20
109.8875339436728
 30
0.0
 10
135.8957288201862
 20
109.8200560587903
 30
0.0
 10
136.0390279782764
 20
109.8019946464603
 30
0.0
 10
136.1818520499662
 20
109.8019946464603
 30
0.0
  0
SPLINE
  5
ED
330
1F
100
AcDbEntity
  8
0
  6
HIDDEN
 62
     7
370
     0
100
AcDbSpline
210
0.0
220
0.0
230
1.0
 70
    11
 71
     3
 72
    56
 73
    52
 74
     0
 42
0.000000001
 43
0.00000001
 40
0.0
 40
0.0
 40
0.0
 40
0.0
 40
0.0312499999999998
 40
0.0312499999999998
 40
0.0624999999999996
 40
0.0624999999999996
 40
0.124999999999999
 40
0.124999999999999
 40
0.156249999999999
 40
0.156249999999999
 40
0.187499999999999
 40
0.187499999999999
 40
0.218749999999999
 40
0.218749999999999
 40
0.249999999999999
 40
0.249999999999999
 40
0.312499999999999
 40
0.312499999999999
 40
0.3437499999999991
 40
0.3437499999999991
 40
0.3749999999999991
 40
0.3749999999999991
 40
0.4374999999999991
 40
0.4374999999999991
 40
0.4687499999999991
 40
0.4687499999999991
 40
0.4999999999999991
 40
0.4999999999999991
 40
0.5312499999999992
 40
0.5312499999999992
 40
0.5624999999999993
 40
0.5624999999999993
 40
0.6249999999999994
 40
0.6249999999999994
 40
0.6874999999999997
 40
0.6874999999999997
 40
0.7499999999999998
 40
0.7499999999999998
 40
0.7812499999999998
 40
0.7812499999999998
 40
0.8124999999999998
 40
0.8124999999999998
 40
0.8437499999999998
 40
0.8437499999999998
 40
0.8749999999999998
 40
0.8749999999999998
 40
0.9062499999999999
 40
0.9062499999999999
 40
0.9374999999999999
 40
0.9374999999999999
 40
1.0
 40
1.0
 40
1.0
 40
1.0
 10
134.141276049129
 20
116.5276850270068
 30
0.0
 10
134.1699475657259
 20
116.4258709621339
 30
0.0
 10
134.2077174853097
 20
116.3334680444842
 30
0.0
 10
134.2980156220794
 20
116.1666899597886
 30
0.0
 10
134.3512913182527
 20
116.0918202706656
 30
0.0
 10
134.5202223950269
 20
115.9056996061506
 30
0.0
 10
134.6514091110112
 20
115.8276831085672
 30
0.0
 10
134.7966946310147
 20
115.8071085580125
 30
0.0
 10
134.8348355638163
 20
115.8166567779452
 30
0.0
 10
134.8796120969805
 20
115.8640130071253
 30
0.0
 10
134.8865068350204
 20
115.9021137693854
 30
0.0
 10
134.8752582894065
 20
115.9942342473495
 30
0.0
 10
134.8575974442018
 20
116.0492896894888
 30
0.0
 10
134.8088734384399
 20
116.1688964476682
 30
0.0
 10
134.7779344400484
 20
116.233574316771
 30
0.0
 10
134.6742789047297
 20
116.4409356991945
 30
0.0
 10
134.5904735680676
 20
116.5977234544173
 30
0.0
 10
134.4650233036153
 20
116.8568687170702
 30
0.0
 10
134.4229301235677
 20
116.94762109162
 30
0.0
 10
134.3401891322549
 20
117.1406223136581
 30
0.0
 10
134.2993588988472
 20
117.2434032761865
 30
0.0
 10
134.1865091426871
 20
117.5656443893664
 30
0.0
 10
134.1218189593232
 20
117.8045909280776
 30
0.0
 10
134.0813492815852
 20
118.1733580330548
 30
0.0
 10
134.0783074853952
 20
118.2931174436998
 30
0.0
 10
134.0941106419727
 20
118.512215704909
 30
0.0
 10
134.1128537395174
 20
118.6105447132328
 30
0.0
 10
134.1641276429109
 20
118.7774197604394
 30
0.0
 10
134.1966521889432
 20
118.8472944065355
 30
0.0
 10
134.2688053373852
 20
118.9639034668281
 30
0.0
 10
134.3079105141379
 20
119.0101241066012
 30
0.0
 10
134.4299082525843
 20
119.1229429240892
 30
0.0
 10
134.5174400653141
 20
119.1633962134489
 30
0.0
 10
134.6795566182667
 20
119.1942543328713
 30
0.0
 10
134.7571142755552
 20
119.1853511473029
 30
0.0
 10
134.8682590986592
 20
119.1142750988648
 30
0.0
 10
134.9009920850012
 20
119.0520361801545
 30
0.0
 10
134.8573637026811
 20
118.8941348968816
 30
0.0
 10
134.827048441685
 20
118.8308794940113
 30
0.0
 10
134.742191458048
 20
118.6855654281516
 30
0.0
 10
134.6873423837849
 20
118.6021935123924
 30
0.0
 10
134.5725036983725
 20
118.4236003549019
 30
0.0
 10
134.511084269193
 20
118.3258536064844
 30
0.0
 10
134.394876282306
 20
118.120875307385
 30
0.0
 10
134.3393622173375
 20
118.0125933720714
 30
0.0
 10
134.2411582419922
 20
117.787243467943
 30
0.0
 10
134.1992678237461
 20
117.672337512482
 30
0.0
 10
134.1327611434414
 20
117.4370701094489
 30
0.0
 10
134.108317648514
 20
117.3160727749531
 30
0.0
 10
134.0678277227186
 20
116.9628713427767
 30
0.0
 10
134.083933015935
 20
116.7313131567525
 30
0.0
 10
134.1412760491289
 20
116.5276850270067
 30
0.0
  0
SPLINE
  5
EE
330
1F
100
AcDbEntity
  8
0
  6
HIDDEN
 62
     7
370
     0
100
AcDbSpline
210
0.0
220
0.0
230
1.0
 70
     8
 71
     3
 72
    22
 73
    18
 74
     0
 42
0.000000001
 43
0.00000001
 40
0.0
 40
0.0
 40
0.0
 40
0.0
 40
0.1250000000000006
 40
0.1250000000000006
 40
0.2500000000000012
 40
0.2500000000000012
 40
0.3750000000000018
 40
0.3750000000000018
 40
0.5000000000000023
 40
0.5000000000000023
 40
0.6250000000000029
 40
0.6250000000000029
 40
0.7500000000000036
 40
0.7500000000000036
 40
0.8750000000000018
 40
0.8750000000000018
 40
1.0
 40
1.0
 40
1.0
 40
1.0
 10
137.8582204886663
 20
118.7254599136856
 30
0.0
 10
137.7599422651109
 20
118.6009311937534
 30
0.0
 10
137.6486194978037
 20
118.4893280543211
 30
0.0
 10
137.400810889439
 20
118.2913442111328
 30
0.0
 10
137.2628593638888
 20
118.204689688944
 30
0.0
 10
136.9745984023048
 20
118.0661661137211
 30
0.0
 10
136.8221548833926
 20
118.0127223624445
 30
0.0
 10
136.5052431451169
 20
117.9405422122993
 30
0.0
 10
136.3452546410085
 20
117.9226241729059
 30
0.0
 10
136.0222845343865
 20
117.9223390314084
 30
0.0
 10
135.8587220507337
 20
117.9406373412767
 30
0.0
 10
135.5452238195938
 20
118.0117327634675
 30
0.0
 10
135.391721853365
 20
118.0650433157315
 30
0.0
 10
135.1011191554907
 20
118.204424753756
 30
0.0
 10
134.966298912077
 20
118.2889786508638
 30
0.0
 10
134.7173508354477
 20
118.4871700987699
 30
0.0
 10
134.6037616022786
 20
118.6009314884094
 30
0.0
 10
134.505483611266
 20
118.7254599136857
 30
0.0
  0
SPLINE
  5
EF
330
1F
100
AcDbEntity
  8
0
  6
HIDDEN
 62
     7
370
     0
100
AcDbSpline
210
0.0
220
0.0
230
1.0
 70
     8
 71
     3
 72
    18
 73
    14
 74
     0
 42
0.000000001
 43
0.00000001
 40
0.0
 40
0.0
 40
0.0
 40
0.0
 40
0.2499999999999999
 40
0.2499999999999999
 40
0.3749999999999997
 40
0.3749999999999997
 40
0.4999999999999996
 40
0.4999999999999996
 40
0.6249999999999994
 40
0.6249999999999994
 40
0.7499999999999992
 40
0.7499999999999992
 40
1.0
 40
1.0
 40
1.0
 40
1.0
 10
137.8582204886663
 20
121.1025582382645
 30
0.0
 10
137.9967908373967
 20
120.9329782440287
 30
0.0
 10
138.1012762569473
 20
120.7593670358868
 30
0.0
 10
138.2088324900852
 20
120.4763357734833
 30
0.0
 10
138.2358424640573
 20
120.3796627383905
 30
0.0
 10
138.2723834261698
 20
120.178594311219
 30
0.0
 10
138.281859246682
 20
120.0728504141325
 30
0.0
 10
138.2818448448712
 20
119.8586009218532
 30
0.0
 10
138.2726227318494
 20
119.7505729234429
 30
0.0
 10
138.2363779858179
 20
119.5335800339114
 30
0.0
 10
138.2090036945391
 20
119.4237304161764
 30
0.0
 10
138.1017435726411
 20
119.1041466262605
 30
0.0
 10
137.9965530505019
 20
118.9007416416928
 30
0.0
 10
137.8582204886666
 20
118.7254599136854
 30
0.0
  0
SPLINE
  5
F0
330
1F
100
AcDbEntity
  8
0
  6
HIDDEN
 62
     7
370
     0
100
AcDbSpline
210
0.0
220
0.0
230
1.0
 70
     8
 71
     3
 72
    22
 73
    18
 74
     0
 42
0.000000001
 43
0.00000001
 40
0.0
 40
0.0
 40
0.0
 40
0.0
 40
0.1249999999999982
 40
0.1249999999999982
 40
0.2499999999999963
 40
0.2499999999999963
 40
0.3749999999999969
 40
0.3749999999999969
 40
0.4999999999999976
 40
0.4999999999999976
 40
0.6249999999999981
 40
0.6249999999999981
 40
0.7499999999999988
 40
0.7499999999999988
 40
0.8749999999999993
 40
0.8749999999999993
 40
1.0
 40
1.0
 40
1.0
 40
1.0
 10
134.505483611266
 20
121.1025582382645
 30
0.0
 10
134.6037618348214
 20
121.2228294271352
 30
0.0
 10
134.7150846021286
 20
121.3299776355312
 30
0.0
 10
134.9628932104933
 20
121.5193556739518
 30
0.0
 10
135.1008447360435
 20
121.6018358275092
 30
0.0
 10
135.3891056976275
 20
121.7333706588207
 30
0.0
 10
135.5415492165397
 20
121.7839306646058
 30
0.0
 10
135.8584609548154
 20
121.8521573400056
 30
0.0
 10
136.0184494589239
 20
121.8690544116313
 30
0.0
 10
136.3414195655458
 20
121.8693235166138
 30
0.0
 10
136.5049820491986
 20
121.8520669873132
 30
0.0
 10
136.8184802803385
 20
121.7848664896671
 30
0.0
 10
136.9719822465673
 20
121.7344354840349
 30
0.0
 10
137.2625849444416
 20
121.6020887088998
 30
0.0
 10
137.3974051878554
 20
121.5216121715652
 30
0.0
 10
137.6463532644846
 20
121.3320478883584
 30
0.0
 10
137.7599424976538
 20
121.2228291425533
 30
0.0
 10
137.8582204886663
 20
121.1025582382645
 30
0.0
  0
SPLINE
  5
F1
330
1F
100
AcDbEntity
  8
0
  6
HIDDEN
 62
     7
370
     0
100
AcDbSpline
210
0.0
220
0.0
230
1.0
 70
     8
 71
     3
 72
    18
 73
    14
 74
     0
 42
0.000000001
 43
0.00000001
 40
0.0
 40
0.0
 40
0.0
 40
0.0
 40
0.2499999999999989
 40
0.2499999999999989
 40
0.3749999999999989
 40
0.3749999999999989
 40
0.499999999999999
 40
0.499999999999999
 40
0.624999999999999
 40
0.624999999999999
 40
0.749999999999999
 40
0.749999999999999
 40
1.0
 40
1.0
 40
1.0
 40
1.0
 10
134.505483611266
 20
118.7254599136857
 30
0.0
 10
134.3669132625356
 20
118.9010429423942
 30
0.0
 10
134.262427842985
 20
119.1030359580251
 30
0.0
 10
134.1548716098471
 20
119.423080248823
 30
0.0
 10
134.127861635875
 20
119.5311395246681
 30
0.0
 10
134.0913206737625
 20
119.7483907537848
 30
0.0
 10
134.0818448532503
 20
119.8588536869728
 30
0.0
 10
134.0818592550611
 20
120.0730962524156
 30
0.0
 10
134.091081368083
 20
120.176527539207
 30
0.0
 10
134.1273261141144
 20
120.3774501764902
 30
0.0
 10
134.1547004053932
 20
120.4757554193494
 30
0.0
 10
134.2619605272912
 20
120.7583955124185
 30
0.0
 10
134.3671510494304
 20
120.9332692435151
 30
0.0
 10
134.5054836112657
 20
121.1025582382645
 30
0.0
  0
LWPOLYLINE
  5
F2
330
1F
100
AcDbEntity
  8
0
  6
HIDDEN
 62
     7
370
     0
100
AcDbPolyline
 90
       18
 70
   128
 43
0.0
 10
122.1868583226
 20
118.888269166
 10
122.329585725
 20
118.470103004
 10
122.5593037097
 20
118.2343165022
 10
122.8449875899
 20
118.2127539342
 10
123.1480541745
 20
118.4083274443
 10
123.427572642
 20
118.7946237463
 10
123.6457924744
 20
119.3194713839
 10
123.7732418741
 20
119.9119867756
 10
123.7927080937
 20
120.4921474343
 10
123.7015621121
 20
120.9815994484
 10
123.5121136993
 20
121.3142396112
 10
123.2499489132
 20
121.4451430255
 10
122.9504745608
 20
121.3566304598
 10
122.654136313
 20
121.0606560266
 10
122.4009562921
 20
120.5971927131
 10
122.2251278628
 20
120.028833808
 10
122.150397629
 20
119.4323393308
 10
122.1868583226
 20
118.888269166
  0
LWPOLYLINE
  5
F3
330
1F
100
AcDbEntity
  8
0
  6
HIDDEN
 62
     7
370
     0
100
AcDbPolyline
 90
       20
 70
   128
 43
0.0
 10
121.8304230283
 20
118.6620314054
 10
121.9871771699
 20
118.1759280755
 10
122.2354649413
 20
117.8710757117
 10
122.5483805097
 20
117.7805097979
 10
122.8920146181
 20
117.9140445563
 10
123.2291291787
 20
118.2572094237
 10
123.523192598
 20
118.772817162
 10
123.7423385417
 20
119.4049936722
 10
123.8628191464
 20
120.0852328203
 10
123.871578469
 20
120.7398201395
 10
123.7676673011
 20
121.2978209369
 10
123.5623460301
 20
121.6987671678
 10
123.2778644016
 20
121.8992100867
 10
122.9450504141
 20
121.8774285932
 10
122.5999696275
 20
121.6357830501
 10
122.2800168994
 20
121.2004595014
 10
122.0198640724
 20
120.6186320085
 10
121.8477027421
 20
119.9533506082
 10
121.7821892599
 20
119.2767088631
 10
121.8304230283
 20
118.6620314054
  0
CIRCLE
  5
F4
330
1F
100
AcDbEntity
  8
0
  6
HIDDEN
 62
     7
370
     0
100
AcDbCircle
 10
234.53185205
 20
110.860804938
 30
0.0
 40
3.99999999999995
  0
LINE
  5
F5
330
1F
100
AcDbEntity
  8
0
  6
HIDDEN
 62
     7
370
     0
100
AcDbLine
 10
230.53185205
 20
124.660804938
 30
0.0
 11
238.53185205
 21
124.660804938
 31
0.0
  0
LINE
  5
F6
330
1F
100
AcDbEntity
  8
0
  6
HIDDEN
 62
     7
370
     0
100
AcDbLine
 10
230.53185205
 20
119.4660608264
 30
0.0
 11
238.53185205
 21
119.4660608264
 31
0.0
  0
LINE
  5
F7
330
1F
100
AcDbEntity
  8
0
  6
HIDDEN
 62
     7
370
     0
100
AcDbLine
 10
231.8620501464
 20
115.360804938
 30
0.0
 11
237.2016539536
 21
115.360804938
 31
0.0
  0
SPLINE
  5
F8
330
1F
100
AcDbEntity
  8
0
  6
HIDDEN
 62
     7
370
     0
100
AcDbSpline
210
0.0
220
0.0
230
1.0
 70
     8
 71
     3
 72
    10
 73
     6
 74
     0
 42
0.000000001
 43
0.00000001
 40
0.0
 40
0.0
 40
0.0
 40
0.0
 40
0.4391222274230622
 40
0.7513714712594792
 40
1.0
 40
1.0
 40
1.0
 40
1.0
 10
232.2337730765045
 20
125.2702060147889
 30
0.0
 10
232.4265862230067
 20
125.1332251909583
 30
0.0
 10
232.756504155915
 20
124.8988406011826
 30
0.0
 10
233.2360941896958
 20
125.0030278938355
 30
0.0
 10
233.4747984515289
 20
125.1881459949766
 30
0.0
 10
233.5806123958951
 20
125.2702060147889
 30
0.0
  0
SPLINE
  5
F9
330
1F
100
AcDbEntity
  8
0
  6
HIDDEN
 62
     7
370
     0
100
AcDbSpline
210
0.0
220
0.0
230
1.0
 70
     8
 71
     3
 72
    10
 73
     6
 74
     0
 42
0.000000001
 43
0.00000001
 40
0.0
 40
0.0
 40
0.0
 40
0.0
 40
0.4391222274230671
 40
0.7513714712594575
 40
1.0
 40
1.0
 40
1.0
 40
1.0
 10
233.5806123958951
 20
125.2702060147889
 30
0.0
 10
233.909604749626
 20
125.1332251909583
 30
0.0
 10
234.4725356454417
 20
124.8988406011826
 30
0.0
 10
235.2908483844938
 20
125.0030278938355
 30
0.0
 10
235.6981436253564
 20
125.1881459949766
 30
0.0
 10
235.8786913693567
 20
125.2702060147889
 30
0.0
  0
SPLINE
  5
FA
330
1F
100
AcDbEntity
  8
0
  6
HIDDEN
 62
     7
370
     0
100
AcDbSpline
210
0.0
220
0.0
230
1.0
 70
     8
 71
     3
 72
    11
 73
     7
 74
     0
 42
0.000000001
 43
0.00000001
 40
0.0
 40
0.0
 40
0.0
 40
0.0
 40
0.1849308168246009
 40
0.5198464202157688
 40
0.871443823369254
 40
1.0
 40
1.0
 40
1.0
 40
1.0
 10
235.8786913693567
 20
125.2702060147889
 30
0.0
 10
235.9340581650984
 20
125.2078022263779
 30
0.0
 10
236.0896959925808
 20
125.0323831882186
 30
0.0
 10
236.380223719074
 20
124.9027797234025
 30
0.0
 10
236.6485379614142
 20
125.0614869607134
 30
0.0
 10
236.7916217992466
 20
125.2261256903007
 30
0.0
 10
236.8299310234278
 20
125.2702060147889
 30
0.0
  0
SPLINE
  5
FB
330
1F
100
AcDbEntity
  8
0
  6
HIDDEN
 62
     7
370
     0
100
AcDbSpline
210
0.0
220
0.0
230
1.0
 70
     8
 71
     3
 72
    10
 73
     6
 74
     0
 42
0.000000001
 43
0.00000001
 40
0.0
 40
0.0
 40
0.0
 40
0.0
 40
0.4391222274230351
 40
0.7513714712594617
 40
1.0
 40
1.0
 40
1.0
 40
1.0
 10
236.8299310234278
 20
125.2702060147889
 30
0.0
 10
236.6371178769257
 20
125.1332251909583
 30
0.0
 10
236.3071999440173
 20
124.8988406011826
 30
0.0
 10
235.8276099102365
 20
125.0030278938356
 30
0.0
 10
235.5889056484034
 20
125.1881459949766
 30
0.0
 10
235.4830917040373
 20
125.2702060147889
 30
0.0
  0
SPLINE
  5
FC
330
1F
100
AcDbEntity
  8
0
  6
HIDDEN
 62
     7
370
     0
100
AcDbSpline
210
0.0
220
0.0
230
1.0
 70
     8
 71
     3
 72
    10
 73
     6
 74
     0
 42
0.000000001
 43
0.00000001
 40
0.0
 40
0.0
 40
0.0
 40
0.0
 40
0.4391222274230444
 40
0.7513714712594821
 40
1.0
 40
1.0
 40
1.0
 40
1.0
 10
235.4830917040373
 20
125.2702060147889
 30
0.0
 10
235.1540993503064
 20
125.1332251909583
 30
0.0
 10
234.5911684544906
 20
124.8988406011826
 30
0.0
 10
233.7728557154385
 20
125.0030278938356
 30
0.0
 10
233.3655604745759
 20
125.1881459949766
 30
0.0
 10
233.1850127305756
 20
125.2702060147889
 30
0.0
  0
SPLINE
  5
FD
330
1F
100
AcDbEntity
  8
0
  6
HIDDEN
 62
     7
370
     0
100
AcDbSpline
210
0.0
220
0.0
230
1.0
 70
     8
 71
     3
 72
    11
 73
     7
 74
     0
 42
0.000000001
 43
0.00000001
 40
0.0
 40
0.0
 40
0.0
 40
0.0
 40
0.1285561766307356
 40
0.4801535797842344
 40
0.8150691831754009
 40
1.0
 40
1.0
 40
1.0
 40
1.0
 10
233.1850127305756
 20
125.2702060147889
 30
0.0
 10
233.1467035063944
 20
125.2261256903007
 30
0.0
 10
233.0036196685621
 20
125.0614869607134
 30
0.0
 10
232.7353054262217
 20
124.9027797234025
 30
0.0
 10
232.4447776997287
 20
125.0323831882186
 30
0.0
 10
232.2891398722462
 20
125.2078022263779
 30
0.0
 10
232.2337730765045
 20
125.2702060147889
 30
0.0
  0
LINE
  5
FE
330
1F
100
AcDbEntity
  8
0
  6
HIDDEN
 62
     7
370
     0
100
AcDbLine
 10
232.53185205
 20
119.360804938
 30
0.0
 11
236.53185205
 21
119.360804938
 31
0.0
  0
LINE
  5
FF
330
1F
100
AcDbEntity
  8
0
  6
HIDDEN
 62
     7
370
     0
100
AcDbLine
 10
234.7296518826
 20
120.360804938
 30
0.0
 11
233.5806123959
 21
120.360804938
 31
0.0
  0
LINE
  5
100
330
1F
100
AcDbEntity
  8
0
  6
HIDDEN
 62
     7
370
     0
100
AcDbLine
 10
235.8786913694
 20
120.360804938
 30
0.0
 11
234.7296518826
 21
120.360804938
 31
0.0
  0
LINE
  5
101
330
1F
100
AcDbEntity
  8
0
  6
HIDDEN
 62
     7
370
     0
100
AcDbLine
 10
233.5806123959
 20
120.360804938
 30
0.0
 11
232.9071927362
 21
120.360804938
 31
0.0
  0
LINE
  5
102
330
1F
100
AcDbEntity
  8
0
  6
HIDDEN
 62
     7
370
     0
100
AcDbLine
 10
233.5806123959
 20
120.360804938
 30
0.0
 11
233.5806123959
 21
125.2702060148
 31
0.0
  0
LINE
  5
103
330
1F
100
AcDbEntity
  8
0
  6
HIDDEN
 62
     7
370
     0
100
AcDbLine
 10
236.3543111964
 20
120.360804938
 30
0.0
 11
235.8786913694
 21
120.360804938
 31
0.0
  0
LINE
  5
104
330
1F
100
AcDbEntity
  8
0
  6
HIDDEN
 62
     7
370
     0
100
AcDbLine
 10
235.8786913694
 20
120.360804938
 30
0.0
 11
235.8786913694
 21
125.2702060148
 31
0.0
  0
LINE
  5
105
330
1F
100
AcDbEntity
  8
0
  6
HIDDEN
 62
     7
370
     0
100
AcDbLine
 10
232.9071927362
 20
120.360804938
 30
0.0
 11
232.2337730765
 21
120.360804938
 31
0.0
  0
LINE
  5
106
330
1F
100
AcDbEntity
  8
0
  6
HIDDEN
 62
     7
370
     0
100
AcDbLine
 10
236.8299310234
 20
120.360804938
 30
0.0
 11
236.3543111964
 21
120.360804938
 31
0.0
  0
LINE
  5
107
330
1F
100
AcDbEntity
  8
0
  6
HIDDEN
 62
     7
370
     0
100
AcDbLine
 10
233.1850127306
 20
120.360804938
 30
0.0
 11
233.1850127306
 21
125.2702060148
 31
0.0
  0
LINE
  5
108
330
1F
100
AcDbEntity
  8
0
  6
HIDDEN
 62
     7
370
     0
100
AcDbLine
 10
232.2337730765
 20
120.360804938
 30
0.0
 11
232.2337730765
 21
125.2702060148
 31
0.0
  0
LINE
  5
109
330
1F
100
AcDbEntity
  8
0
  6
HIDDEN
 62
     7
370
     0
100
AcDbLine
 10
235.483091704
 20
120.360804938
 30
0.0
 11
235.483091704
 21
125.2702060148
 31
0.0
  0
LINE
  5
10A
330
1F
100
AcDbEntity
  8
0
  6
HIDDEN
 62
     7
370
     0
100
AcDbLine
 10
236.8299310234
 20
120.360804938
 30
0.0
 11
236.8299310234
 21
125.2702060148
 31
0.0
  0
LWPOLYLINE
  5
10B
330
1F
100
AcDbEntity
  8
0
  6
HIDDEN
 62
     7
370
     0
100
AcDbPolyline
 90
       18
 70
   128
 43
0.0
 10
122.3803602705
 20
103.3931058278
 10
122.1700923364
 20
103.1265624917
 10
122.0491987185
 20
102.6907311341
 10
122.0340067699
 20
102.1444731951
 10
122.1265682473
 20
101.561563836
 10
122.3143822105
 20
101.0207281959
 10
122.5720833428
 20
100.5950091249
 10
122.8648676785
 20
100.3419023424
 10
123.1531930706
 20
100.295591322
 10
123.3981195772
 20
100.4623306236
 10
123.5665685165
 20
100.8196011806
 10
123.6357899258
 20
101.3191516245
 10
123.5964350702
 20
101.8935148998
 10
123.453819041
 20
102.4651200635
 10
123.2272029232
 20
102.9567686709
 10
122.9471924793
 20
103.3020608532
 10
122.6516046712
 20
103.4543629879
 10
122.3803602705
 20
103.3931058278
  0
LWPOLYLINE
  5
10C
330
1F
100
AcDbEntity
  8
0
  6
HIDDEN
 62
     7
370
     0
100
AcDbPolyline
 90
       20
 70
   128
 43
0.0
 10
122.4659926966
 20
103.7998134875
 10
122.2275593094
 20
103.5144978934
 10
122.0757416929
 20
103.0554832896
 10
122.0269916417
 20
102.4725110307
 10
122.0865919801
 20
101.8287552068
 10
122.2480840867
 20
101.1939767504
 10
122.493967786
 20
100.6369637567
 10
122.7975977638
 20
100.2180772265
 10
123.1260710008
 20
99.9827100152
 10
123.4437923249
 20
99.9563678121
 10
123.7163317007
 20
100.1419052037
 10
123.914155258
 20
100.5192163348
 10
124.0158257448
 20
101.0474136896
 10
124.0103255862
 20
101.6692588889
 10
123.8982508098
 20
102.3173653566
 10
123.6917464567
 20
102.9215007003
 10
123.4131904777
 20
103.4161974815
 10
123.0927687353
 20
103.747847628
 10
122.7652038973
 20
103.8805117002
 10
122.4659926966
 20
103.7998134875
  0
LWPOLYLINE
  5
10D
330
1F
100
AcDbEntity
  8
0
  6
HIDDEN
 62
     7
370
     0
100
AcDbPolyline
 90
       20
 70
   128
 43
0.0
 10
124.2195498551
 20
104.1460803915
 10
123.9811164679
 20
103.8607647974
 10
123.8292988515
 20
103.4017501935
 10
123.7805488002
 20
102.8187779347
 10
123.8401491386
 20
102.1750221108
 10
124.0016412452
 20
101.5402436544
 10
124.2475249445
 20
100.9832306606
 10
124.5511549223
 20
100.5643441305
 10
124.8796281593
 20
100.3289769192
 10
125.1973494834
 20
100.3026347161
 10
125.4698888592
 20
100.4881721077
 10
125.6677124165
 20
100.8654832387
 10
125.7693829033
 20
101.3936805935
 10
125.7638827447
 20
102.0155257929
 10
125.6518079684
 20
102.6636322606
 10
125.4453036152
 20
103.2677676043
 10
125.1667476362
 20
103.7624643855
 10
124.8463258939
 20
104.094114532
 10
124.5187610559
 20
104.2267786042
 10
124.2195498551
 20
104.1460803915
  0
LINE
  5
10E
330
1F
100
AcDbEntity
  8
0
  6
HIDDEN
 62
     7
370
     0
100
AcDbLine
 10
122.5798026504
 20
101.046202485
 30
0.0
 11
123.1556643486
 21
100.7829314735
 31
0.0
  0
LINE
  5
10F
330
1F
100
AcDbEntity
  8
0
  6
HIDDEN
 62
     7
370
     0
100
AcDbLine
 10
123.4077137482
 20
101.609821834
 30
0.0
 11
123.1556643486
 21
100.7829314735
 31
0.0
  0
LINE
  5
110
330
1F
100
AcDbEntity
  8
0
  6
HIDDEN
 62
     7
370
     0
100
AcDbLine
 10
123.0839014495
 20
102.699983206
 30
0.0
 11
123.4077137482
 21
101.609821834
 31
0.0
  0
LINE
  5
111
330
1F
100
AcDbEntity
  8
0
  6
HIDDEN
 62
     7
370
     0
100
AcDbLine
 10
123.0839014495
 20
102.699983206
 30
0.0
 11
122.5080397513
 21
102.9632542175
 31
0.0
  0
LINE
  5
112
330
1F
100
AcDbEntity
  8
0
  6
HIDDEN
 62
     7
370
     0
100
AcDbLine
 10
122.2559903518
 20
102.1363638571
 30
0.0
 11
122.5080397513
 21
102.9632542175
 31
0.0
  0
LINE
  5
113
330
1F
100
AcDbEntity
  8
0
  6
HIDDEN
 62
     7
370
     0
100
AcDbLine
 10
122.2559903518
 20
102.1363638571
 30
0.0
 11
122.5798026504
 21
101.046202485
 31
0.0
  0
LWPOLYLINE
  5
114
330
1F
100
AcDbEntity
  8
0
  6
HIDDEN
 62
     7
370
     0
100
AcDbPolyline
 90
       17
 70
   128
 43
0.0
 10
125.0793911655
 20
103.5662573635
 10
124.9080568002
 20
103.3416201218
 10
124.8161726341
 20
102.9715171141
 10
124.8177271986
 20
102.5122931683
 10
124.9124838252
 20
102.0338609674
 10
125.0860166766
 20
101.6090574769
 10
125.3119069492
 20
101.3025551774
 10
125.5557648967
 20
101.1610162655
 10
125.7804653572
 20
101.2059887575
 10
125.9517997224
 20
101.4306259992
 10
126.0436838885
 20
101.8007290069
 10
126.042129324
 20
102.2599529527
 10
125.9473726974
 20
102.7383851536
 10
125.773839846
 20
103.1631886441
 10
125.5479495734
 20
103.4696909436
 10
125.3040916259
 20
103.6112298555
 10
125.0793911655
 20
103.5662573635
  0
LINE
  5
115
330
1F
100
AcDbEntity
  8
0
  6
HIDDEN
 62
     7
370
     0
100
AcDbLine
 10
124.7067518538
 20
101.8663369415
 30
0.0
 11
123.4077137482
 21
101.609821834
 31
0.0
  0
LINE
  5
116
330
1F
100
AcDbEntity
  8
0
  6
HIDDEN
 62
     7
370
     0
100
AcDbLine
 10
124.3829395552
 20
102.9564983135
 30
0.0
 11
123.0839014495
 21
102.699983206
 31
0.0
  0
LINE
  5
117
330
1F
100
AcDbEntity
  8
0
  6
HIDDEN
 62
     7
370
     0
100
AcDbLine
 10
123.8788407561
 20
101.3027175925
 30
0.0
 11
124.4547024543
 21
101.039446581
 31
0.0
  0
LINE
  5
118
330
1F
100
AcDbEntity
  8
0
  6
HIDDEN
 62
     7
370
     0
100
AcDbLine
 10
123.5550284575
 20
102.3928789645
 30
0.0
 11
123.8788407561
 21
101.3027175925
 31
0.0
  0
LINE
  5
119
330
1F
100
AcDbEntity
  8
0
  6
HIDDEN
 62
     7
370
     0
100
AcDbLine
 10
123.5550284575
 20
102.3928789645
 30
0.0
 11
123.807077857
 21
103.219769325
 31
0.0
  0
LINE
  5
11A
330
1F
100
AcDbEntity
  8
0
  6
HIDDEN
 62
     7
370
     0
100
AcDbLine
 10
124.3829395552
 20
102.9564983135
 30
0.0
 11
123.807077857
 21
103.219769325
 31
0.0
  0
LINE
  5
11B
330
1F
100
AcDbEntity
  8
0
  6
HIDDEN
 62
     7
370
     0
100
AcDbLine
 10
124.3829395552
 20
102.9564983135
 30
0.0
 11
124.7067518538
 21
101.8663369415
 31
0.0
  0
LINE
  5
11C
330
1F
100
AcDbEntity
  8
0
  6
HIDDEN
 62
     7
370
     0
100
AcDbLine
 10
124.7067518538
 20
101.8663369415
 30
0.0
 11
124.4547024543
 21
101.039446581
 31
0.0
  0
LINE
  5
11D
330
1F
100
AcDbEntity
  8
0
  6
HIDDEN
 62
     7
370
     0
100
AcDbLine
 10
123.8788407561
 20
101.3027175925
 30
0.0
 11
122.5798026504
 21
101.046202485
 31
0.0
  0
LINE
  5
11E
330
1F
100
AcDbEntity
  8
0
  6
HIDDEN
 62
     7
370
     0
100
AcDbLine
 10
124.4547024543
 20
101.039446581
 30
0.0
 11
123.1556643486
 21
100.7829314735
 31
0.0
  0
LINE
  5
11F
330
1F
100
AcDbEntity
  8
0
  6
HIDDEN
 62
     7
370
     0
100
AcDbLine
 10
123.5550284575
 20
102.3928789645
 30
0.0
 11
122.2559903518
 21
102.1363638571
 31
0.0
  0
LINE
  5
120
330
1F
100
AcDbEntity
  8
0
  6
HIDDEN
 62
     7
370
     0
100
AcDbLine
 10
123.807077857
 20
103.219769325
 30
0.0
 11
122.5080397513
 21
102.9632542175
 31
0.0
  0
LWPOLYLINE
  5
121
330
1F
100
AcDbEntity
  8
0
  6
HIDDEN
 62
     7
370
     0
100
AcDbPolyline
 90
       20
 70
   128
 43
0.0
 10
124.2195498551
 20
117.5755294845
 10
123.9811164679
 20
117.8608450787
 10
123.8292988515
 20
118.3198596825
 10
123.7805488002
 20
118.9028319414
 10
123.8401491386
 20
119.5465877652
 10
124.0016412452
 20
120.1813662217
 10
124.2475249445
 20
120.7383792154
 10
124.5511549223
 20
121.1572657456
 10
124.8796281593
 20
121.3926329569
 10
125.1973494834
 20
121.41897516
 10
125.4698888592
 20
121.2334377684
 10
125.6677124165
 20
120.8561266373
 10
125.7693829033
 20
120.3279292825
 10
125.7638827447
 20
119.7060840832
 10
125.6518079684
 20
119.0579776155
 10
125.4453036152
 20
118.4538422718
 10
125.1667476362
 20
117.9591454905
 10
124.8463258939
 20
117.6274953441
 10
124.5187610559
 20
117.4948312718
 10
124.2195498551
 20
117.5755294845
  0
LWPOLYLINE
  5
122
330
1F
100
AcDbEntity
  8
0
  6
HIDDEN
 62
     7
370
     0
100
AcDbPolyline
 90
       17
 70
   128
 43
0.0
 10
125.0793911655
 20
118.1553525126
 10
124.9080568002
 20
118.3799897543
 10
124.8161726341
 20
118.750092762
 10
124.8177271986
 20
119.2093167077
 10
124.9124838252
 20
119.6877489086
 10
125.0860166766
 20
120.1125523992
 10
125.3119069492
 20
120.4190546987
 10
125.5557648967
 20
120.5605936106
 10
125.7804653572
 20
120.5156211186
 10
125.9517997224
 20
120.2909838768
 10
126.0436838885
 20
119.9208808691
 10
126.042129324
 20
119.4616569234
 10
125.9473726974
 20
118.9832247225
 10
125.773839846
 20
118.558421232
 10
125.5479495734
 20
118.2519189324
 10
125.3040916259
 20
118.1103800206
 10
125.0793911655
 20
118.1553525126
  0
LWPOLYLINE
  5
123
330
1F
100
AcDbEntity
  8
0
  6
HIDDEN
 62
     7
370
     0
100
AcDbPolyline
 90
       20
 70
   128
 43
0.0
 10
122.4659926966
 20
117.9217963885
 10
122.2275593094
 20
118.2071119827
 10
122.0757416929
 20
118.6661265865
 10
122.0269916417
 20
119.2490988454
 10
122.0865919801
 20
119.8928546692
 10
122.2480840867
 20
120.5276331257
 10
122.493967786
 20
121.0846461194
 10
122.7975977638
 20
121.5035326495
 10
123.1260710008
 20
121.7388998609
 10
123.4437923249
 20
121.765242064
 10
123.7163317007
 20
121.5797046723
 10
123.914155258
 20
121.2023935413
 10
124.0158257448
 20
120.6741961865
 10
124.0103255862
 20
120.0523509871
 10
123.8982508098
 20
119.4042445195
 10
123.6917464567
 20
118.8001091758
 10
123.4131904777
 20
118.3054123945
 10
123.0927687353
 20
117.9737622481
 10
122.7652038974
 20
117.8410981758
 10
122.4659926966
 20
117.9217963885
  0
LWPOLYLINE
  5
124
330
1F
100
AcDbEntity
  8
0
  6
HIDDEN
 62
     7
370
     0
100
AcDbPolyline
 90
       18
 70
   128
 43
0.0
 10
122.3803602705
 20
118.3285040483
 10
122.1700923364
 20
118.5950473844
 10
122.0491987185
 20
119.0308787419
 10
122.0340067699
 20
119.577136681
 10
122.1265682473
 20
120.1600460401
 10
122.3143822105
 20
120.7008816802
 10
122.5720833428
 20
121.1266007512
 10
122.8648676785
 20
121.3797075337
 10
123.1531930706
 20
121.4260185541
 10
123.3981195772
 20
121.2592792525
 10
123.5665685165
 20
120.9020086955
 10
123.6357899258
 20
120.4024582516
 10
123.5964350702
 20
119.8280949763
 10
123.453819041
 20
119.2564898126
 10
123.2272029232
 20
118.7648412052
 10
122.9471924793
 20
118.4195490229
 10
122.6516046712
 20
118.2672468882
 10
122.3803602705
 20
118.3285040483
  0
LINE
  5
125
330
1F
100
AcDbEntity
  8
0
  6
HIDDEN
 62
     7
370
     0
100
AcDbLine
 10
123.5550284575
 20
119.3287309115
 30
0.0
 11
123.807077857
 21
118.5018405511
 31
0.0
  0
LINE
  5
126
330
1F
100
AcDbEntity
  8
0
  6
HIDDEN
 62
     7
370
     0
100
AcDbLine
 10
122.2559903518
 20
119.585246019
 30
0.0
 11
122.5080397513
 21
118.7583556585
 31
0.0
  0
LINE
  5
127
330
1F
100
AcDbEntity
  8
0
  6
HIDDEN
 62
     7
370
     0
100
AcDbLine
 10
122.2559903518
 20
119.585246019
 30
0.0
 11
122.5798026504
 21
120.675407391
 31
0.0
  0
LINE
  5
128
330
1F
100
AcDbEntity
  8
0
  6
HIDDEN
 62
     7
370
     0
100
AcDbLine
 10
123.5550284575
 20
119.3287309115
 30
0.0
 11
123.8788407561
 21
120.4188922835
 31
0.0
  0
LINE
  5
129
330
1F
100
AcDbEntity
  8
0
  6
HIDDEN
 62
     7
370
     0
100
AcDbLine
 10
123.5550284575
 20
119.3287309115
 30
0.0
 11
122.2559903518
 21
119.585246019
 31
0.0
  0
LINE
  5
12A
330
1F
100
AcDbEntity
  8
0
  6
HIDDEN
 62
     7
370
     0
100
AcDbLine
 10
123.8788407561
 20
120.4188922835
 30
0.0
 11
122.5798026504
 21
120.675407391
 31
0.0
  0
LINE
  5
12B
330
1F
100
AcDbEntity
  8
0
  6
HIDDEN
 62
     7
370
     0
100
AcDbLine
 10
122.5798026504
 20
120.675407391
 30
0.0
 11
123.1556643486
 21
120.9386784026
 31
0.0
  0
LINE
  5
12C
330
1F
100
AcDbEntity
  8
0
  6
HIDDEN
 62
     7
370
     0
100
AcDbLine
 10
123.8788407561
 20
120.4188922835
 30
0.0
 11
124.4547024543
 21
120.6821632951
 31
0.0
  0
LINE
  5
12D
330
1F
100
AcDbEntity
  8
0
  6
HIDDEN
 62
     7
370
     0
100
AcDbLine
 10
124.3829395552
 20
118.7651115626
 30
0.0
 11
123.0839014495
 21
119.0216266701
 31
0.0
  0
LINE
  5
12E
330
1F
100
AcDbEntity
  8
0
  6
HIDDEN
 62
     7
370
     0
100
AcDbLine
 10
123.0839014495
 20
119.0216266701
 30
0.0
 11
122.5080397513
 21
118.7583556585
 31
0.0
  0
LINE
  5
12F
330
1F
100
AcDbEntity
  8
0
  6
HIDDEN
 62
     7
370
     0
100
AcDbLine
 10
124.3829395552
 20
118.7651115626
 30
0.0
 11
123.807077857
 21
118.5018405511
 31
0.0
  0
LINE
  5
130
330
1F
100
AcDbEntity
  8
0
  6
HIDDEN
 62
     7
370
     0
100
AcDbLine
 10
123.807077857
 20
118.5018405511
 30
0.0
 11
122.5080397513
 21
118.7583556585
 31
0.0
  0
LINE
  5
131
330
1F
100
AcDbEntity
  8
0
  6
HIDDEN
 62
     7
370
     0
100
AcDbLine
 10
124.7067518538
 20
119.8552729346
 30
0.0
 11
123.4077137482
 21
120.1117880421
 31
0.0
  0
LINE
  5
132
330
1F
100
AcDbEntity
  8
0
  6
HIDDEN
 62
     7
370
     0
100
AcDbLine
 10
124.4547024543
 20
120.6821632951
 30
0.0
 11
123.1556643486
 21
120.9386784026
 31
0.0
  0
LINE
  5
133
330
1F
100
AcDbEntity
  8
0
  6
HIDDEN
 62
     7
370
     0
100
AcDbLine
 10
123.4077137482
 20
120.1117880421
 30
0.0
 11
123.1556643486
 21
120.9386784026
 31
0.0
  0
LINE
  5
134
330
1F
100
AcDbEntity
  8
0
  6
HIDDEN
 62
     7
370
     0
100
AcDbLine
 10
124.7067518538
 20
119.8552729346
 30
0.0
 11
124.4547024543
 21
120.6821632951
 31
0.0
  0
LINE
  5
135
330
1F
100
AcDbEntity
  8
0
  6
HIDDEN
 62
     7
370
     0
100
AcDbLine
 10
123.0839014495
 20
119.0216266701
 30
0.0
 11
123.4077137482
 21
120.1117880421
 31
0.0
  0
LINE
  5
136
330
1F
100
AcDbEntity
  8
0
  6
HIDDEN
 62
     7
370
     0
100
AcDbLine
 10
124.3829395552
 20
118.7651115626
 30
0.0
 11
124.7067518538
 21
119.8552729346
 31
0.0
  0
LWPOLYLINE
  5
137
330
1F
100
AcDbEntity
  8
0
  6
HIDDEN
 62
     7
370
     0
100
AcDbPolyline
 90
       22
 70
   128
 43
0.0
 10
133.6818949671
 20
118.8265385315
 10
133.7972788217
 20
119.5183632483
 10
134.1245424721
 20
120.147493199
 10
134.6346071068
 20
120.6580274268
 10
135.2821512448
 20
121.004602725
 10
136.0096377475
 20
121.1564243575
 10
136.7524262468
 20
121.100002306
 10
137.4445167247
 20
120.8403499172
 10
138.0244139052
 20
120.4005384456
 10
138.4405913789
 20
119.8196470703
 10
138.6560699509
 20
119.1492905393
 10
138.6517034045
 20
118.4490329722
 10
138.4278797265
 20
117.7810953268
 10
138.0044866329
 20
117.2048267942
 10
137.419144458
 20
116.7714313623
 10
136.723863423
 20
116.5194181172
 10
135.9804222989
 20
116.4711795417
 10
135.2548790921
 20
116.6310018449
 10
134.6117015006
 20
116.9846841138
 10
134.1080386759
 20
117.5008001267
 10
133.7886432703
 20
118.1334907109
 10
133.6818949671
 20
118.8265385315
  0
LWPOLYLINE
  5
138
330
1F
100
AcDbEntity
  8
0
  6
HIDDEN
 62
     7
370
     0
100
AcDbPolyline
 90
       18
 70
   128
 43
0.0
 10
134.431882092
 20
118.5658938457
 10
134.5537578626
 20
119.1592811956
 10
134.8955167748
 20
119.6712269435
 10
135.4110023938
 20
120.0325899793
 10
136.0305955302
 20
120.1945662227
 10
136.6706166978
 20
120.1352798844
 10
137.2446274914
 20
119.8627379129
 10
137.6751045725
 20
119.4137486118
 10
137.9039096261
 20
118.848950474
 10
137.9001412618
 20
118.2446226177
 10
137.664308418
 20
117.6823828686
 10
137.2282616272
 20
117.2381648203
 10
136.6508914246
 20
116.9719625818
 10
136.0101748554
 20
116.9197282403
 10
135.3926442427
 20
117.0885163332
 10
134.8817005175
 20
117.4555310933
 10
134.5463494611
 20
117.9712051434
 10
134.431882092
 20
118.5658938457
  0
LWPOLYLINE
  5
139
330
1F
100
AcDbEntity
  8
0
  6
HIDDEN
 62
     7
370
     0
100
AcDbPolyline
 90
       22
 70
   128
 43
0.0
 10
133.6818949671
 20
119.8502318846
 10
133.7972788217
 20
120.5420566014
 10
134.1245424721
 20
121.1711865521
 10
134.6346071068
 20
121.6817207799
 10
135.2821512448
 20
122.0282960781
 10
136.0096377475
 20
122.1801177106
 10
136.7524262468
 20
122.1236956591
 10
137.4445167247
 20
121.8640432703
 10
138.0244139052
 20
121.4242317987
 10
138.4405913789
 20
120.8433404234
 10
138.6560699509
 20
120.1729838924
 10
138.6517034045
 20
119.4727263253
 10
138.4278797265
 20
118.8047886799
 10
138.0044866329
 20
118.2285201473
 10
137.419144458
 20
117.7951247154
 10
136.723863423
 20
117.5431114703
 10
135.9804222989
 20
117.4948728948
 10
135.2548790921
 20
117.654695198
 10
134.6117015006
 20
118.0083774669
 10
134.1080386759
 20
118.5244934798
 10
133.7886432703
 20
119.157184064
 10
133.6818949671
 20
119.8502318846
  0
LINE
  5
13A
330
1F
100
AcDbEntity
  8
0
  6
HIDDEN
 62
     7
370
     0
100
AcDbLine
 10
135.4675009451
 20
120.4188677496
 30
0.0
 11
134.7385011552
 21
119.2482458268
 31
0.0
  0
LINE
  5
13B
330
1F
100
AcDbEntity
  8
0
  6
HIDDEN
 62
     7
370
     0
100
AcDbLine
 10
135.4675009451
 20
120.4188677496
 30
0.0
 11
135.4675009451
 21
121.1029080363
 31
0.0
  0
LINE
  5
13C
330
1F
100
AcDbEntity
  8
0
  6
HIDDEN
 62
     7
370
     0
100
AcDbLine
 10
135.4675009451
 20
120.4188677496
 30
0.0
 11
136.9108518398
 21
120.4109203724
 31
0.0
  0
LINE
  5
13D
330
1F
100
AcDbEntity
  8
0
  6
HIDDEN
 62
     7
370
     0
100
AcDbLine
 10
136.9108518398
 20
120.4109203724
 30
0.0
 11
136.9108518398
 21
121.094960659
 31
0.0
  0
LINE
  5
13E
330
1F
100
AcDbEntity
  8
0
  6
HIDDEN
 62
     7
370
     0
100
AcDbLine
 10
136.9108518398
 20
120.4109203724
 30
0.0
 11
137.6252029447
 21
119.2323510723
 31
0.0
  0
LINE
  5
13F
330
1F
100
AcDbEntity
  8
0
  6
HIDDEN
 62
     7
370
     0
100
AcDbLine
 10
135.4528522601
 20
118.0696765266
 30
0.0
 11
135.4528522601
 21
118.7537168133
 31
0.0
  0
LINE
  5
140
330
1F
100
AcDbEntity
  8
0
  6
HIDDEN
 62
     7
370
     0
100
AcDbLine
 10
135.4528522601
 20
118.7537168133
 30
0.0
 11
134.7385011552
 21
119.9322861134
 31
0.0
  0
LINE
  5
141
330
1F
100
AcDbEntity
  8
0
  6
HIDDEN
 62
     7
370
     0
100
AcDbLine
 10
134.7385011552
 20
119.2482458268
 30
0.0
 11
134.7385011552
 21
119.9322861134
 31
0.0
  0
LINE
  5
142
330
1F
100
AcDbEntity
  8
0
  6
HIDDEN
 62
     7
370
     0
100
AcDbLine
 10
135.4528522601
 20
118.0696765266
 30
0.0
 11
134.7385011552
 21
119.2482458268
 31
0.0
  0
LINE
  5
143
330
1F
100
AcDbEntity
  8
0
  6
HIDDEN
 62
     7
370
     0
100
AcDbLine
 10
136.8962031548
 20
118.0617291494
 30
0.0
 11
136.8962031548
 21
118.745769436
 31
0.0
  0
LINE
  5
144
330
1F
100
AcDbEntity
  8
0
  6
HIDDEN
 62
     7
370
     0
100
AcDbLine
 10
136.8962031548
 20
118.745769436
 30
0.0
 11
137.6252029447
 21
119.9163913589
 31
0.0
  0
LINE
  5
145
330
1F
100
AcDbEntity
  8
0
  6
HIDDEN
 62
     7
370
     0
100
AcDbLine
 10
137.6252029447
 20
119.2323510723
 30
0.0
 11
137.6252029447
 21
119.9163913589
 31
0.0
  0
LINE
  5
146
330
1F
100
AcDbEntity
  8
0
  6
HIDDEN
 62
     7
370
     0
100
AcDbLine
 10
136.8962031548
 20
118.0617291494
 30
0.0
 11
137.6252029447
 21
119.2323510723
 31
0.0
  0
LINE
  5
147
330
1F
100
AcDbEntity
  8
0
  6
HIDDEN
 62
     7
370
     0
100
AcDbLine
 10
135.4528522601
 20
118.7537168133
 30
0.0
 11
136.8962031548
 21
118.745769436
 31
0.0
  0
LINE
  5
148
330
1F
100
AcDbEntity
  8
0
  6
HIDDEN
 62
     7
370
     0
100
AcDbLine
 10
135.4528522601
 20
118.0696765266
 30
0.0
 11
136.8962031548
 21
118.0617291494
 31
0.0
  0
LWPOLYLINE
  5
149
330
1F
100
AcDbEntity
  8
0
  6
HIDDEN
 62
     7
370
     0
100
AcDbPolyline
 90
       20
 70
   128
 43
0.0
 10
134.1268873279
 20
119.9356537809
 10
134.2421407622
 20
120.5620468002
 10
134.5675920122
 20
121.1193342558
 10
135.0679733852
 20
121.5471254045
 10
135.6890607951
 20
121.7990624376
 10
136.3635497839
 20
121.8478440683
 10
137.0183490039
 20
121.68818405
 10
137.5825007994
 20
121.3373840231
 10
137.9948705695
 20
120.8334586137
 10
138.2107716512
 20
120.2310159591
 10
138.2068078122
 20
119.5953400688
 10
137.9834085959
 20
118.995316289
 10
137.5647827738
 20
118.4959665067
 10
136.9962949494
 20
118.1514030189
 10
136.3395495995
 20
117.998964626
 10
135.6657152731
 20
118.0551703932
 10
135.0478123753
 20
118.3139295535
 10
134.5528002726
 20
118.7472015368
 10
134.2343212073
 20
119.3080346008
 10
134.1268873279
 20
119.9356537809
  0
LINE
  5
14A
330
1F
100
AcDbEntity
  8
0
  6
HIDDEN
 62
     7
370
     0
100
AcDbLine
 10
136.9108518398
 20
121.094960659
 30
0.0
 11
137.6252029447
 21
119.9163913589
 31
0.0
  0
LINE
  5
14B
330
1F
100
AcDbEntity
  8
0
  6
HIDDEN
 62
     7
370
     0
100
AcDbLine
 10
135.4675009451
 20
121.1029080363
 30
0.0
 11
136.9108518398
 21
121.094960659
 31
0.0
  0
LINE
  5
14C
330
1F
100
AcDbEntity
  8
0
  6
HIDDEN
 62
     7
370
     0
100
AcDbLine
 10
135.4675009451
 20
121.1029080363
 30
0.0
 11
134.7385011552
 21
119.9322861134
 31
0.0
  0
LINE
  5
14D
330
1F
100
AcDbEntity
  8
0
  6
HIDDEN
 62
     7
370
     0
100
AcDbLine
 10
121.58185205
 20
99.4857103601
 30
0.0
 11
123.238673765
 21
99.8128753589
 31
0.0
  0
LINE
  5
14E
330
1F
100
AcDbEntity
  8
0
  6
HIDDEN
 62
     7
370
     0
100
AcDbLine
 10
122.4250303349
 20
103.9333103321
 30
0.0
 11
121.58185205
 21
103.7668117764
 31
0.0
  0
LINE
  5
14F
330
1F
100
AcDbEntity
  8
0
  6
HIDDEN
 62
     7
370
     0
100
AcDbLine
 10
123.2933410443
 20
100.2823596937
 30
0.0
 11
134.7311243948
 21
102.5409264077
 31
0.0
  0
LINE
  5
150
330
1F
100
AcDbEntity
  8
0
  6
HIDDEN
 62
     7
370
     0
100
AcDbLine
 10
134.7261087762
 20
105.9036585379
 30
0.0
 11
122.6540497778
 21
103.5198443156
 31
0.0
  0
LINE
  5
151
330
1F
100
AcDbEntity
  8
0
  6
HIDDEN
 62
     7
370
     0
100
AcDbLine
 10
138.28185205
 20
103.5073718565
 30
0.0
 11
138.28185205
 21
109.6999004353
 31
0.0
  0
LINE
  5
152
330
1F
100
AcDbEntity
  8
0
  6
HIDDEN
 62
     7
370
     0
100
AcDbLine
 10
134.08185205
 20
109.7000128125
 30
0.0
 11
134.08185205
 21
104.74556917
 31
0.0
  0
ARC
  5
153
330
1F
100
AcDbEntity
  8
0
  6
HIDDEN
 62
     7
370
     0
100
AcDbCircle
 10
245.58185205
 20
120.860804938
 30
0.0
 40
1.000000000000014
100
AcDbArc
 50
270.0
 51
0.0
  0
ARC
  5
154
330
1F
100
AcDbEntity
  8
0
  6
HIDDEN
 62
     7
370
     0
100
AcDbCircle
 10
245.58185205
 20
100.860804938
 30
0.0
 40
1.0
100
AcDbArc
 50
0.0
 51
90.0
  0
LINE
  5
155
330
1F
100
AcDbEntity
  8
0
  6
HIDDEN
 62
     7
370
     0
100
AcDbLine
 10
225.4765300519
 20
120.360804938
 30
0.0
 11
224.88185205
 21
120.360804938
 31
0.0
  0
LINE
  5
156
330
1F
100
AcDbEntity
  8
0
  6
HIDDEN
 62
     7
370
     0
100
AcDbLine
 10
224.88185205
 20
101.360804938
 30
0.0
 11
225.4765300519
 21
101.360804938
 31
0.0
  0
ARC
  5
157
330
1F
100
AcDbEntity
  8
0
  6
HIDDEN
 62
     7
370
     0
100
AcDbCircle
 10
225.4765300519
 20
119.560804938
 30
0.0
 40
0.7999999999999972
100
AcDbArc
 50
75.0
 51
90.0
  0
ARC
  5
158
330
1F
100
AcDbEntity
  8
0
  6
HIDDEN
 62
     7
370
     0
100
AcDbCircle
 10
225.4765300519
 20
102.160804938
 30
0.0
 40
0.8000000000000114
100
AcDbArc
 50
270.0
 51
285.0
  0
ARC
  5
159
330
1F
100
AcDbEntity
  8
0
  6
HIDDEN
 62
     7
370
     0
100
AcDbCircle
 10
224.88185205
 20
119.560804938
 30
0.0
 40
0.8000000000000114
100
AcDbArc
 50
90.0
 51
180.0
  0
ARC
  5
15A
330
1F
100
AcDbEntity
  8
0
  6
HIDDEN
 62
     7
370
     0
100
AcDbCircle
 10
224.88185205
 20
102.160804938
 30
0.0
 40
0.8000000000000114
100
AcDbArc
 50
180.0
 51
270.0
  0
LINE
  5
15B
330
1F
100
AcDbEntity
  8
0
  6
HIDDEN
 62
     7
370
     0
100
AcDbLine
 10
225.683585288
 20
101.388064277
 30
0.0
 11
227.4478774538
 21
101.860804938
 31
0.0
  0
LINE
  5
15C
330
1F
100
AcDbEntity
  8
0
  6
HIDDEN
 62
     7
370
     0
100
AcDbLine
 10
227.4478774538
 20
119.860804938
 30
0.0
 11
225.683585288
 21
120.3335455991
 31
0.0
  0
ARC
  5
15D
330
1F
100
AcDbEntity
  8
0
  6
HIDDEN
 62
     7
370
     0
100
AcDbCircle
 10
54.98185205
 20
101.560804938
 30
0.0
 40
0.8000000000000114
100
AcDbArc
 50
90.0
 51
180.0
  0
ARC
  5
15E
330
1F
100
AcDbEntity
  8
0
  6
HIDDEN
 62
     7
370
     0
100
AcDbCircle
 10
54.98185205
 20
120.160804938
 30
0.0
 40
0.8000000000000114
100
AcDbArc
 50
180.0
 51
270.0
  0
LINE
  5
15F
330
1F
100
AcDbEntity
  8
0
  6
HIDDEN
 62
     7
370
     0
100
AcDbLine
 10
231.0380613567
 20
119.860804938
 30
0.0
 11
227.4478774538
 21
119.860804938
 31
0.0
  0
LINE
  5
160
330
1F
100
AcDbEntity
  8
0
  6
HIDDEN
 62
     7
370
     0
100
AcDbLine
 10
245.58185205
 20
119.860804938
 30
0.0
 11
238.0312271364
 21
119.860804938
 31
0.0
  0
LINE
  5
161
330
1F
100
AcDbEntity
  8
0
  6
HIDDEN
 62
     7
370
     0
100
AcDbLine
 10
227.4478774538
 20
101.860804938
 30
0.0
 11
245.58185205
 21
101.860804938
 31
0.0
  0
ARC
  5
162
330
1F
100
AcDbEntity
  8
0
  6
HIDDEN
 62
     7
370
     0
100
AcDbCircle
 10
62.9509119423
 20
102.535804938
 30
0.0
 40
0.3999999999999989
100
AcDbArc
 50
270.0
 51
330.0
  0
ARC
  5
163
330
1F
100
AcDbEntity
  8
0
  6
HIDDEN
 62
     7
370
     0
100
AcDbCircle
 10
62.9509119423
 20
119.185804938
 30
0.0
 40
0.3999999999999989
100
AcDbArc
 50
30.0
 51
90.0
  0
ARC
  5
164
330
1F
100
AcDbEntity
  8
0
  6
HIDDEN
 62
     7
370
     0
100
AcDbCircle
 10
62.0742244807
 20
102.535804938
 30
0.0
 40
0.3999999999999923
100
AcDbArc
 50
255.0
 51
270.0
  0
ARC
  5
165
330
1F
100
AcDbEntity
  8
0
  6
HIDDEN
 62
     7
370
     0
100
AcDbCircle
 10
62.0742244807
 20
119.185804938
 30
0.0
 40
0.3999999999999923
100
AcDbArc
 50
90.0
 51
105.0
  0
LINE
  5
166
330
1F
100
AcDbEntity
  8
0
  6
HIDDEN
 62
     7
370
     0
100
AcDbLine
 10
62.0742244807
 20
102.135804938
 30
0.0
 11
62.9509119423
 21
102.135804938
 31
0.0
  0
LINE
  5
167
330
1F
100
AcDbEntity
  8
0
  6
HIDDEN
 62
     7
370
     0
100
AcDbLine
 10
62.9509119423
 20
119.585804938
 30
0.0
 11
62.0742244807
 21
119.585804938
 31
0.0
  0
LINE
  5
168
330
1F
100
AcDbEntity
  8
0
  6
HIDDEN
 62
     7
370
     0
100
AcDbLine
 10
61.9706968627
 20
119.5721752685
 30
0.0
 11
61.18185205
 21
119.360804938
 31
0.0
  0
LINE
  5
169
330
1F
100
AcDbEntity
  8
0
  6
HIDDEN
 62
     7
370
     0
100
AcDbLine
 10
61.18185205
 20
102.360804938
 30
0.0
 11
61.9706968627
 21
102.1494346075
 31
0.0
  0
LINE
  5
16A
330
1F
100
AcDbEntity
  8
0
  6
HIDDEN
 62
     7
370
     0
100
AcDbLine
 10
63.2973221038
 20
102.335804938
 30
0.0
 11
64.1777812643
 21
103.860804938
 31
0.0
  0
LINE
  5
16B
330
1F
100
AcDbEntity
  8
0
  6
HIDDEN
 62
     7
370
     0
100
AcDbLine
 10
64.1777812643
 20
117.860804938
 30
0.0
 11
63.2973221038
 21
119.385804938
 31
0.0
  0
LINE
  5
16C
330
1F
100
AcDbEntity
  8
0
  6
HIDDEN
 62
     7
370
     0
100
AcDbLine
 10
54.98185205
 20
102.360804938
 30
0.0
 11
61.18185205
 21
102.360804938
 31
0.0
  0
LINE
  5
16D
330
1F
100
AcDbEntity
  8
0
  6
HIDDEN
 62
     7
370
     0
100
AcDbLine
 10
61.18185205
 20
119.360804938
 30
0.0
 11
54.98185205
 21
119.360804938
 31
0.0
  0
LINE
  5
16E
330
1F
100
AcDbEntity
  8
0
  6
HIDDEN
 62
     7
370
     0
100
AcDbLine
 10
142.58185205
 20
134.960804938
 30
0.0
 11
142.58185205
 21
141.4610989516
 31
0.0
  0
ARC
  5
16F
330
1F
100
AcDbEntity
  8
0
  6
HIDDEN
 62
     7
370
     0
100
AcDbCircle
 10
140.98185205
 20
86.760804938
 30
0.0
 40
1.599999999999994
100
AcDbArc
 50
0.0
 51
90.0
  0
LINE
  5
170
330
1F
100
AcDbEntity
  8
0
  6
HIDDEN
 62
     7
370
     0
100
AcDbLine
 10
142.58185205
 20
80.2604474771
 30
0.0
 11
142.58185205
 21
86.760804938
 31
0.0
  0
ARC
  5
171
330
1F
100
AcDbEntity
  8
0
  6
HIDDEN
 62
     7
370
     0
100
AcDbCircle
 10
140.98185205
 20
134.960804938
 30
0.0
 40
1.600000000000023
100
AcDbArc
 50
270.0
 51
0.0
  0
LINE
  5
172
330
1F
100
AcDbEntity
  8
0
  6
HIDDEN
 62
     7
370
     0
100
AcDbLine
 10
97.18185205
 20
103.860804938
 30
0.0
 11
99.3449502785
 21
107.460804938
 31
0.0
  0
LINE
  5
173
330
1F
100
AcDbEntity
  8
0
  6
HIDDEN
 62
     7
370
     0
100
AcDbLine
 10
99.3449502785
 20
114.260804938
 30
0.0
 11
97.18185205
 21
117.860804938
 31
0.0
  0
LINE
  5
174
330
1F
100
AcDbEntity
  8
0
  6
HIDDEN
 62
     7
370
     0
100
AcDbLine
 10
64.1777812643
 20
103.860804938
 30
0.0
 11
97.18185205
 21
103.860804938
 31
0.0
  0
LINE
  5
175
330
1F
100
AcDbEntity
  8
0
  6
HIDDEN
 62
     7
370
     0
100
AcDbLine
 10
97.18185205
 20
117.860804938
 30
0.0
 11
64.1777812643
 21
117.860804938
 31
0.0
  0
LINE
  5
176
330
1F
100
AcDbEntity
  8
0
  6
HIDDEN
 62
     7
370
     0
100
AcDbLine
 10
142.58185114
 20
141.3608047261
 30
0.0
 11
143.5818505093
 21
142.3608044729
 31
0.0
  0
LINE
  5
177
330
1F
100
AcDbEntity
  8
0
  6
HIDDEN
 62
     7
370
     0
100
AcDbLine
 10
143.5818584114
 20
79.3608038003
 30
0.0
 11
142.5818581624
 21
80.3608036049
 31
0.0
  0
LINE
  5
178
330
1F
100
AcDbEntity
  8
0
  6
HIDDEN
 62
     7
370
     0
100
AcDbLine
 10
229.53185205
 20
126.860804938
 30
0.0
 11
231.03185205
 21
125.360804938
 31
0.0
  0
LINE
  5
179
330
1F
100
AcDbEntity
  8
0
  6
HIDDEN
 62
     7
370
     0
100
AcDbLine
 10
238.03185205
 20
125.360804938
 30
0.0
 11
239.53185205
 21
126.860804938
 31
0.0
  0
LINE
  5
17A
330
1F
100
AcDbEntity
  8
0
  6
HIDDEN
 62
     7
370
     0
100
AcDbLine
 10
231.03185205
 20
125.360804938
 30
0.0
 11
231.03185205
 21
119.858404406
 31
0.0
  0
LINE
  5
17B
330
1F
100
AcDbEntity
  8
0
  6
HIDDEN
 62
     7
370
     0
100
AcDbLine
 10
238.03185205
 20
119.8605625358
 30
0.0
 11
238.03185205
 21
125.360804938
 31
0.0
  0
LINE
  5
17C
330
1F
100
AcDbEntity
  8
0
  6
HIDDEN
 62
     7
370
     0
100
AcDbLine
 10
224.08185205
 20
114.260804938
 30
0.0
 11
99.3449502785
 21
114.260804938
 31
0.0
  0
LINE
  5
17D
330
1F
100
AcDbEntity
  8
0
  6
HIDDEN
 62
     7
370
     0
100
AcDbLine
 10
99.3449502785
 20
107.460804938
 30
0.0
 11
224.08185205
 21
107.460804938
 31
0.0
  0
LINE
  5
17E
330
1F
100
AcDbEntity
  8
0
  6
HIDDEN
 62
     7
370
     0
100
AcDbLine
 10
138.28185205
 20
112.0215970635
 30
0.0
 11
138.28185205
 21
119.962965387
 31
0.0
  0
LINE
  5
17F
330
1F
100
AcDbEntity
  8
0
  6
HIDDEN
 62
     7
370
     0
100
AcDbLine
 10
134.08185205
 20
116.9787471865
 30
0.0
 11
134.08185205
 21
112.0217094407
 31
0.0
  0
LINE
  5
180
330
1F
100
AcDbEntity
  8
0
  6
HIDDEN
 62
     7
370
     0
100
AcDbLine
 10
134.08185205
 20
119.9645811537
 30
0.0
 11
134.08185205
 21
118.2758436303
 31
0.0
  0
LINE
  5
181
330
1F
100
AcDbEntity
  8
0
  6
HIDDEN
 62
     7
370
     0
100
AcDbLine
 10
122.6540497778
 20
118.2017655605
 30
0.0
 11
134.7266290789
 21
115.8178485964
 31
0.0
  0
LINE
  5
182
330
1F
100
AcDbEntity
  8
0
  6
HIDDEN
 62
     7
370
     0
100
AcDbLine
 10
134.7325809016
 20
119.1803958586
 30
0.0
 11
123.2933410443
 21
121.4392501823
 31
0.0
  0
LINE
  5
183
330
1F
100
AcDbEntity
  8
0
  6
HIDDEN
 62
     7
370
     0
100
AcDbLine
 10
121.58185205
 20
117.9547980996
 30
0.0
 11
122.4250303349
 21
117.7882995439
 31
0.0
  0
LINE
  5
184
330
1F
100
AcDbEntity
  8
0
  6
HIDDEN
 62
     7
370
     0
100
AcDbLine
 10
123.238673765
 20
121.9087345172
 30
0.0
 11
121.58185205
 21
122.235899516
 31
0.0
  0
LINE
  5
185
330
1F
100
AcDbEntity
  8
0
  6
HIDDEN
 62
     7
370
     0
100
AcDbLine
 10
238.53185205
 20
124.660804938
 30
0.0
 11
237.83185205
 21
125.360804938
 31
0.0
  0
LINE
  5
186
330
1F
100
AcDbEntity
  8
0
  6
HIDDEN
 62
     7
370
     0
100
AcDbLine
 10
231.23185205
 20
125.360804938
 30
0.0
 11
230.53185205
 21
124.660804938
 31
0.0
  0
LINE
  5
187
330
1F
100
AcDbEntity
  8
0
  6
HIDDEN
 62
     7
370
     0
100
AcDbLine
 10
230.53185205
 20
124.660804938
 30
0.0
 11
230.53185205
 21
119.4660608264
 31
0.0
  0
LINE
  5
188
330
1F
100
AcDbEntity
  8
0
  6
HIDDEN
 62
     7
370
     0
100
AcDbLine
 10
238.53185205
 20
119.4660608264
 30
0.0
 11
238.53185205
 21
124.660804938
 31
0.0
  0
LINE
  5
189
330
1F
100
AcDbEntity
  8
0
  6
HIDDEN
 62
     7
370
     0
100
AcDbLine
 10
230.53185205
 20
119.4660608264
 30
0.0
 11
231.5722723985
 21
115.5831592245
 31
0.0
  0
LINE
  5
18A
330
1F
100
AcDbEntity
  8
0
  6
HIDDEN
 62
     7
370
     0
100
AcDbLine
 10
237.4914317015
 20
115.5831592245
 30
0.0
 11
238.53185205
 21
119.4660608264
 31
0.0
  0
ARC
  5
18B
330
1F
100
AcDbEntity
  8
0
  6
HIDDEN
 62
     7
370
     0
100
AcDbCircle
 10
231.8620501464
 20
115.660804938
 30
0.0
 40
0.3000000000000114
100
AcDbArc
 50
195.0
 51
270.0
  0
ARC
  5
18C
330
1F
100
AcDbEntity
  8
0
  6
HIDDEN
 62
     7
370
     0
100
AcDbCircle
 10
237.2016539536
 20
115.660804938
 30
0.0
 40
0.3000000000000114
100
AcDbArc
 50
270.0
 51
345.0
  0
LINE
  5
18D
330
1F
100
AcDbEntity
  8
0
  6
HIDDEN
 62
     7
370
     0
100
AcDbLine
 10
232.13185205
 20
125.360804938
 30
0.0
 11
232.3333645152
 21
125.1592924728
 31
0.0
  0
LINE
  5
18E
330
1F
100
AcDbEntity
  8
0
  6
HIDDEN
 62
     7
370
     0
100
AcDbLine
 10
236.7273780672
 20
125.1563309552
 30
0.0
 11
236.93185205
 21
125.360804938
 31
0.0
  0
LINE
  5
18F
330
1F
100
AcDbEntity
  8
0
  6
HIDDEN
 62
     7
370
     0
100
AcDbLine
 10
232.53185205
 20
120.360804938
 30
0.0
 11
232.53185205
 21
119.360804938
 31
0.0
  0
LINE
  5
190
330
1F
100
AcDbEntity
  8
0
  6
HIDDEN
 62
     7
370
     0
100
AcDbLine
 10
236.53185205
 20
119.360804938
 30
0.0
 11
236.53185205
 21
120.360804938
 31
0.0
  0
LINE
  5
191
330
1F
100
AcDbEntity
  8
0
  6
HIDDEN
 62
     7
370
     0
100
AcDbLine
 10
232.53185205
 20
119.360804938
 30
0.0
 11
234.53185205
 21
118.6328644695
 31
0.0
  0
LINE
  5
192
330
1F
100
AcDbEntity
  8
0
  6
HIDDEN
 62
     7
370
     0
100
AcDbLine
 10
234.53185205
 20
118.6328644695
 30
0.0
 11
236.53185205
 21
119.360804938
 31
0.0
  0
LINE
  5
193
330
1F
100
AcDbEntity
  8
0
  6
HIDDEN
 62
     7
370
     0
100
AcDbLine
 10
122.02685205
 20
102.5039948682
 30
0.0
 11
122.02685205
 21
102.3499718392
 31
0.0
  0
LINE
  5
194
330
1F
100
AcDbEntity
  8
0
  6
HIDDEN
 62
     7
370
     0
100
AcDbLine
 10
122.2685402963
 20
101.1260195942
 30
0.0
 11
122.3270858964
 21
100.9835572968
 31
0.0
  0
LINE
  5
195
330
1F
100
AcDbEntity
  8
0
  6
HIDDEN
 62
     7
370
     0
100
AcDbLine
 10
123.4143013024
 20
99.9494867107
 30
0.0
 11
125.1678584609
 21
100.2957536147
 31
0.0
  0
LINE
  5
196
330
1F
100
AcDbEntity
  8
0
  6
HIDDEN
 62
     7
370
     0
100
AcDbLine
 10
124.3929599561
 20
104.2199773988
 30
0.0
 11
122.6394027976
 21
103.8737104948
 31
0.0
  0
LINE
  5
197
330
1F
100
AcDbEntity
  8
0
  6
HIDDEN
 62
     7
370
     0
100
AcDbLine
 10
125.5990980377
 20
100.6936639918
 30
0.0
 11
125.9416087796
 21
101.4084971137
 31
0.0
  0
LINE
  5
198
330
1F
100
AcDbEntity
  8
0
  6
HIDDEN
 62
     7
370
     0
100
AcDbLine
 10
125.531598022
 20
103.4848644789
 30
0.0
 11
124.9430808256
 21
104.0158517762
 31
0.0
  0
LINE
  5
199
330
1F
100
AcDbEntity
  8
0
  6
HIDDEN
 62
     7
370
     0
100
AcDbLine
 10
124.9430808256
 20
117.7057580999
 30
0.0
 11
125.531598022
 21
118.2367453972
 31
0.0
  0
LINE
  5
19A
330
1F
100
AcDbEntity
  8
0
  6
HIDDEN
 62
     7
370
     0
100
AcDbLine
 10
125.9416087796
 20
120.3131127624
 30
0.0
 11
125.5990980378
 21
121.0279458842
 31
0.0
  0
LINE
  5
19B
330
1F
100
AcDbEntity
  8
0
  6
HIDDEN
 62
     7
370
     0
100
AcDbLine
 10
122.6394027976
 20
117.8478993813
 30
0.0
 11
124.3929599561
 21
117.5016324773
 31
0.0
  0
LINE
  5
19C
330
1F
100
AcDbEntity
  8
0
  6
HIDDEN
 62
     7
370
     0
100
AcDbLine
 10
125.1678584609
 20
121.4258562613
 30
0.0
 11
123.4143013024
 21
121.7721231653
 31
0.0
  0
LINE
  5
19D
330
1F
100
AcDbEntity
  8
0
  6
HIDDEN
 62
     7
370
     0
100
AcDbLine
 10
122.3270858964
 20
120.7380525793
 30
0.0
 11
122.2685402963
 21
120.5955902819
 31
0.0
  0
LINE
  5
19E
330
1F
100
AcDbEntity
  8
0
  6
HIDDEN
 62
     7
370
     0
100
AcDbLine
 10
122.02685205
 20
119.3716380369
 30
0.0
 11
122.02685205
 21
119.2176150078
 31
0.0
  0
LINE
  5
19F
330
1F
100
AcDbEntity
  8
0
  6
HIDDEN
 62
     7
370
     0
100
AcDbLine
 10
133.68185205
 20
119.8364666235
 30
0.0
 11
133.68185205
 21
118.8127732704
 31
0.0
  0
LINE
  5
1A0
330
1F
100
AcDbEntity
  8
0
  6
HIDDEN
 62
     7
370
     0
100
AcDbLine
 10
138.68185205
 20
118.8127732704
 30
0.0
 11
138.68185205
 21
119.8364666235
 31
0.0
  0
DIMENSION
  5
1A1
330
1F
100
AcDbEntity
  8
VERMASSUNG
100
AcDbDimension
  2
_D
 10
246.58185205
 20
159.2090155997
 30
0.0
 11
150.38185205
 21
159.2090155997
 31
0.0
 70
   160
  1
<>
 71
     2
 42
-1.0
  3
SLDDIMSTYLE0
100
AcDbAlignedDimension
 13
54.18185205
 23
122.6835605351
 33
0.0
 14
246.58185205
 24
126.560804938
 34
0.0
100
AcDbRotatedDimension
  0
DIMENSION
  5
1AC
330
1F
100
AcDbEntity
  8
VERMASSUNG
100
AcDbDimension
  2
_D_1
 10
246.58185205
 20
153.2090155997
 30
0.0
 11
183.08185205
 21
153.2090155997
 31
0.0
 70
   160
  1
<>
 71
     2
 42
-1.0
  3
SLDDIMSTYLE0
100
AcDbAlignedDimension
 13
119.58185205
 23
133.085804938
 33
0.0
 14
246.58185205
 24
126.560804938
 34
0.0
100
AcDbRotatedDimension
  0
DIMENSION
  5
1B6
330
1F
100
AcDbEntity
  8
VERMASSUNG
100
AcDbDimension
  2
_D_2
 10
246.58185205
 20
147.2090155997
 30
0.0
 11
196.58185205
 21
147.2090155997
 31
0.0
 70
   160
  1
<>
 71
     2
 42
-1.0
  3
SLDDIMSTYLE0
100
AcDbAlignedDimension
 13
146.58185205
 23
141.360804938
 33
0.0
 14
246.58185205
 24
126.560804938
 34
0.0
100
AcDbRotatedDimension
  0
DIMENSION
  5
1C0
330
1F
100
AcDbEntity
  8
VERMASSUNG
100
AcDbDimension
  2
_D_3
 10
259.5271106707
 20
94.860804938
 30
0.0
 11
259.5271106707
 21
110.860804938
 31
0.0
 70
   160
  1
WH%%c<>
 71
     2
 42
-1.0
  3
SLDDIMSTYLE0
100
AcDbAlignedDimension
 13
246.28185205
 23
126.860804938
 33
0.0
 14
246.28185205
 24
94.860804938
 34
0.0
 50
90.0
100
AcDbRotatedDimension
  0
DIMENSION
  5
1CC
330
1F
100
AcDbEntity
  8
VERMASSUNG
100
AcDbDimension
  2
_D_4
 10
253.3271106707
 20
119.860804938
 30
0.0
 11
253.3271106707
 21
110.860804938
 31
0.0
 70
   160
  1
%%c<>
 71
     2
 42
-1.0
  3
SLDDIMSTYLE0
100
AcDbAlignedDimension
 13
245.58185205
 23
101.860804938
 33
0.0
 14
245.58185205
 24
119.860804938
 34
0.0
 50
90.0
100
AcDbRotatedDimension
  0
LINE
  5
1D7
330
1F
100
AcDbEntity
  8
VERMASSUNG
  6
CENTERX2
370
     0
100
AcDbLine
 10
52.18185205
 20
110.860804938
 30
0.0
 11
148.58185205
 21
110.860804938
 31
0.0
  0
LINE
  5
1D8
330
1F
100
AcDbEntity
  8
VERMASSUNG
  6
CENTERX2
370
     0
100
AcDbLine
 10
97.3449502785
 20
110.860804938
 30
0.0
 11
250.5572830844
 21
110.860804938
 31
0.0
  0
LINE
  5
1D9
330
1F
100
AcDbEntity
  8
0
  6
Continuous
 62
     7
370
    15
100
AcDbLine
 10
275.9399542314
 20
21.2086200733
 30
0.0
 11
276.0460030099
 21
21.2698606334
 31
0.0
  0
LINE
  5
1DA
330
1F
100
AcDbEntity
  8
0
  6
Continuous
 62
     7
370
    15
100
AcDbLine
 10
281.595889083
 20
30.8835869555
 30
0.0
 11
281.595889083
 21
31.0060481723
 31
0.0
  0
LINE
  5
1DB
330
1F
100
AcDbEntity
  8
0
  6
Continuous
 62
     7
370
    15
100
AcDbLine
 10
279.938709764
 20
34.6688066241
 30
0.0
 11
245.7500968937
 21
54.4054727274
 31
0.0
  0
LINE
  5
1DC
330
1F
100
AcDbEntity
  8
0
  6
Continuous
 62
     7
370
    15
100
AcDbLine
 10
237.7507470326
 20
40.5486909293
 30
0.0
 11
271.9393599029
 21
20.812024826
 31
0.0
  0
SPLINE
  5
1DD
330
1F
100
AcDbEntity
  8
0
  6
Continuous
 62
     7
370
    15
100
AcDbSpline
210
0.0
220
0.0
230
1.0
 70
     8
 71
     3
 72
    22
 73
    18
 74
     0
 42
0.000000001
 43
0.00000001
 40
0.0
 40
0.0
 40
0.0
 40
0.0
 40
0.0261689072735676
 40
0.0992520246233662
 40
0.1680697340572966
 40
0.2413656730152806
 40
0.3126249049556227
 40
0.3834040772028218
 40
0.454216747317172
 40
0.5252895512496476
 40
0.5966240934453363
 40
0.668133041104161
 40
0.7397012181792402
 40
0.8111824735318194
 40
0.8824333651346129
 40
0.9533349725897358
 40
1.0
 40
1.0
 40
1.0
 40
1.0
 10
273.4441191612045
 20
23.99999421432164
 30
0.0
 10
273.4055984121196
 20
24.01825088860078
 30
0.0
 10
273.2594989859297
 20
24.08749382129759
 30
0.0
 10
273.0655633021959
 20
24.30353913279233
 30
0.0
 10
272.8515550650879
 20
24.66293642041047
 30
0.0
 10
272.7075389901471
 20
25.13228381325947
 30
0.0
 10
272.6433917483365
 20
25.6985187521088
 30
0.0
 10
272.6682667956513
 20
26.32953083797338
 30
0.0
 10
272.7829633012987
 20
27.00813701535396
 30
0.0
 10
272.986205253303
 20
27.71451704930494
 30
0.0
 10
273.2734403832921
 20
28.42698877600541
 30
0.0
 10
273.6367900302256
 20
29.12313485009908
 30
0.0
 10
274.0651818514253
 20
29.78061915972867
 30
0.0
 10
274.5448633708784
 20
30.3791622008277
 30
0.0
 10
275.0593128845986
 20
30.89791908146557
 30
0.0
 10
275.5321161139577
 20
31.28122979612225
 30
0.0
 10
275.8251964878726
 20
31.46143785596137
 30
0.0
 10
275.9415271432308
 20
31.53296677283113
 30
0.0
  0
SPLINE
  5
1DE
330
1F
100
AcDbEntity
  8
0
  6
Continuous
 62
     7
370
    15
100
AcDbSpline
210
0.0
220
0.0
230
1.0
 70
     8
 71
     3
 72
    13
 73
     9
 74
     0
 42
0.000000001
 43
0.00000001
 40
0.0
 40
0.0
 40
0.0
 40
0.0
 40
0.1118430744278612
 40
0.3254170273887575
 40
0.5389072929850224
 40
0.7548198154662443
 40
0.9793364753113637
 40
1.0
 40
1.0
 40
1.0
 40
1.0
 10
275.9415271432308
 20
31.53296677283113
 30
0.0
 10
276.0321284881318
 20
31.58254546628651
 30
0.0
 10
276.2957408797434
 20
31.72679893149751
 30
0.0
 10
276.7162272588026
 20
31.88200179913316
 30
0.0
 10
277.1753356659815
 20
31.9636861324735
 30
0.0
 10
277.5733173385401
 20
31.92896376663806
 30
0.0
 10
277.8211152280908
 20
31.86786808298388
 30
0.0
 10
277.9251617043523
 20
31.78588626639158
 30
0.0
 10
277.9339306304997
 20
31.77897692624894
 30
0.0
  0
SPLINE
  5
1DF
330
1F
100
AcDbEntity
  8
0
  6
Continuous
 62
     7
370
    15
100
AcDbSpline
210
0.0
220
0.0
230
1.0
 70
     8
 71
     3
 72
    17
 73
    13
 74
     0
 42
0.000000001
 43
0.00000001
 40
0.0
 40
0.0
 40
0.0
 40
0.0
 40
0.0672587467385553
 40
0.1807371690827202
 40
0.2950499479927093
 40
0.4101064581868205
 40
0.5257049532329461
 40
0.6416285259653247
 40
0.757702033346314
 40
0.8737956403182086
 40
0.9898413410771818
 40
1.0
 40
1.0
 40
1.0
 40
1.0
 10
234.5163337345571
 20
33.96047870309837
 30
0.0
 10
234.6941015529341
 20
33.93202730081335
 30
0.0
 10
235.1717978200435
 20
33.85557291897041
 30
0.0
 10
235.9981837664901
 20
33.87084848517888
 30
0.0
 10
236.9825682206946
 20
33.99271834891724
 30
0.0
 10
237.9989032636529
 20
34.24496035541318
 30
0.0
 10
239.0356516592036
 20
34.61844184879879
 30
0.0
 10
240.0836534321006
 20
35.11268153194695
 30
0.0
 10
241.1340673083078
 20
35.71909694832023
 30
0.0
 10
242.1737593185546
 20
36.44443532891134
 30
0.0
 10
242.893404096839
 20
36.99493131169211
 30
0.0
 10
243.2551856666901
 20
37.32746776650751
 30
0.0
 10
243.2843068125994
 20
37.35423486419249
 30
0.0
  0
SPLINE
  5
1E0
330
1F
100
AcDbEntity
  8
0
  6
Continuous
 62
     7
370
    15
100
AcDbSpline
210
0.0
220
0.0
230
1.0
 70
     8
 71
     3
 72
    17
 73
    13
 74
     0
 42
0.000000001
 43
0.00000001
 40
0.0
 40
0.0
 40
0.0
 40
0.0
 40
0.0513891379521264
 40
0.1678419218905047
 40
0.2844036396559058
 40
0.401067363816518
 40
0.5178020691065006
 40
0.6345083152110047
 40
0.7510346361146308
 40
0.8671683343647814
 40
0.9826589079346394
 40
1.0
 40
1.0
 40
1.0
 40
1.0
 10
251.2769149757498
 20
51.21490856166159
 30
0.0
 10
251.3167650320704
 20
51.40881507625257
 30
0.0
 10
251.4469191912338
 20
52.04213260935376
 30
0.0
 10
251.5662319078605
 20
53.08587461399083
 30
0.0
 10
251.6357470628733
 20
54.33375079465602
 30
0.0
 10
251.6008179151649
 20
55.52994991398218
 30
0.0
 10
251.4680591025531
 20
56.66616263498699
 30
0.0
 10
251.2350770500513
 20
57.73069721904352
 30
0.0
 10
250.9065321485741
 20
58.71703219268773
 30
0.0
 10
250.47425726456
 20
59.60236726063083
 30
0.0
 10
250.1202484930282
 20
60.19416774398224
 30
0.0
 10
249.8860463370196
 20
60.45600122867888
 30
0.0
 10
249.8554713899253
 20
60.49018342870027
 30
0.0
  0
LINE
  5
1E1
330
1F
100
AcDbEntity
  8
0
  6
Continuous
 62
     7
370
    15
100
AcDbLine
 10
230.9150522974
 20
35.54616673
 30
0.0
 11
232.4618483812
 21
34.6532203577
 31
0.0
  0
LINE
  5
1E2
330
1F
100
AcDbEntity
  8
0
  6
Continuous
 62
     7
370
    15
100
AcDbLine
 10
248.2105684203
 20
61.9337595227
 30
0.0
 11
246.6637723364
 21
62.826705895
 31
0.0
  0
LINE
  5
1E3
330
1F
100
AcDbEntity
  8
0
  6
Continuous
 62
     7
370
    15
100
AcDbLine
 10
243.1105607609
 20
64.8779312759
 30
0.0
 11
240.0788404366
 21
66.6281061656
 31
0.0
  0
SPLINE
  5
1E4
330
1F
100
AcDbEntity
  8
0
  6
Continuous
 62
     7
370
    15
100
AcDbSpline
210
0.0
220
0.0
230
1.0
 70
     8
 71
     3
 72
    28
 73
    24
 74
     0
 42
0.000000001
 43
0.00000001
 40
0.0
 40
0.0
 40
0.0
 40
0.0
 40
0.0224317573467559
 40
0.0721290766836688
 40
0.1221907420772084
 40
0.1725907338626064
 40
0.2232459749972847
 40
0.2740601049565461
 40
0.3249520428891753
 40
0.375861963187131
 40
0.4267539225230025
 40
0.4776161302683494
 40
0.5284459741931379
 40
0.5792461419560768
 40
0.6300221964169284
 40
0.6807811742711286
 40
0.7315308330911203
 40
0.7822792801893638
 40
0.8330334286192114
 40
0.8838002921979736
 40
0.9345883071161858
 40
0.9854057765568037
 40
1.0
 40
1.0
 40
1.0
 40
1.0
 10
238.0588590634099
 20
67.31507839790144
 30
0.0
 10
237.9247568599664
 20
67.33965048356959
 30
0.0
 10
237.4935526539783
 20
67.41866176316027
 30
0.0
 10
236.7169858743398
 20
67.41900803129822
 30
0.0
 10
235.7394156878814
 20
67.32103742133377
 30
0.0
 10
234.7277190702081
 20
67.09101810318744
 30
0.0
 10
233.694136514711
 20
66.73956389539929
 30
0.0
 10
232.6472912951608
 20
66.26723081319801
 30
0.0
 10
231.5970970168119
 20
65.67916751367508
 30
0.0
 10
230.552973937402
 20
64.98087697748541
 30
0.0
 10
229.5240638327091
 20
64.17902296946973
 30
0.0
 10
228.5190962657416
 20
63.28094970769217
 30
0.0
 10
227.5464508160007
 20
62.29466121159697
 30
0.0
 10
226.614205666475
 20
61.22879327427294
 30
0.0
 10
225.7301122112202
 20
60.09257045847755
 30
0.0
 10
224.9015412114887
 20
58.89574554148572
 30
0.0
 10
224.1354609568144
 20
57.64853940399712
 30
0.0
 10
223.4382739820409
 20
56.36154792031426
 30
0.0
 10
222.8161910096199
 20
55.04575830339674
 30
0.0
 10
222.2735725456739
 20
53.7120697711733
 30
0.0
 10
221.818871624169
 20
52.37258555962827
 30
0.0
 10
221.5318318657518
 20
51.35334330425983
 30
0.0
 10
221.4071361928623
 20
50.78688980199889
 30
0.0
 10
221.3793149206659
 20
50.66050645037303
 30
0.0
  0
LINE
  5
1E5
330
1F
100
AcDbEntity
  8
0
  6
Continuous
 62
     7
370
    15
100
AcDbLine
 10
231.0772736641
 20
65.3125024316
 30
0.0
 11
211.1793427591
 21
72.482928003
 31
0.0
  0
LINE
  5
1E6
330
1F
100
AcDbEntity
  8
0
  6
Continuous
 62
     7
370
    15
100
AcDbLine
 10
204.8078733478
 20
61.4460233921
 30
0.0
 11
223.8357474341
 21
45.3790438147
 31
0.0
  0
LINE
  5
1E7
330
1F
100
AcDbEntity
  8
0
  6
Continuous
 62
     7
370
    15
100
AcDbLine
 10
224.3301203976
 20
39.3475670006
 30
0.0
 11
227.3618407219
 21
37.5973921109
 31
0.0
  0
SPLINE
  5
1E8
330
1F
100
AcDbEntity
  8
0
  6
Continuous
 62
     7
370
    15
100
AcDbSpline
210
0.0
220
0.0
230
1.0
 70
     8
 71
     3
 72
    11
 73
     7
 74
     0
 42
0.000000001
 43
0.00000001
 40
0.0
 40
0.0
 40
0.0
 40
0.0
 40
0.1197534676364517
 40
0.4530211862673725
 40
0.785184073972632
 40
1.0
 40
1.0
 40
1.0
 40
1.0
 10
221.3674225850013
 20
43.41487799669412
 30
0.0
 10
221.402871442179
 20
43.29401775846108
 30
0.0
 10
221.5369726389744
 20
42.83680971615949
 30
0.0
 10
221.8427274956717
 20
42.10690607934487
 30
0.0
 10
222.2489816955778
 20
41.34836437434298
 30
0.0
 10
222.5670877780817
 20
40.94979062171925
 30
0.0
 10
222.692018124509
 20
40.79325806943299
 30
0.0
  0
SPLINE
  5
1E9
330
1F
100
AcDbEntity
  8
0
  6
Continuous
 62
     7
370
    15
100
AcDbSpline
210
0.0
220
0.0
230
1.0
 70
     8
 71
     3
 72
    23
 73
    19
 74
     0
 42
0.000000001
 43
0.00000001
 40
0.0
 40
0.0
 40
0.0
 40
0.0
 40
0.0394737783046345
 40
0.1032610629242435
 40
0.1684258578836474
 40
0.2350646148311823
 40
0.3026931311354534
 40
0.3707302309750033
 40
0.4387502014029954
 40
0.5066420573335341
 40
0.5744113743303222
 40
0.6421060790279736
 40
0.7097897722415073
 40
0.7775215915114413
 40
0.8453610888764436
 40
0.9133808489327718
 40
0.9816446865085218
 40
1.0
 40
1.0
 40
1.0
 40
1.0
 10
210.9711013602309
 20
72.53216376134547
 30
0.0
 10
210.8538062543286
 20
72.56487190782487
 30
0.0
 10
210.5469692138556
 20
72.65043447915207
 30
0.0
 10
210.0027726283588
 20
72.64837992898948
 30
0.0
 10
209.3572941884091
 20
72.5425313209266
 30
0.0
 10
208.6869729110809
 20
72.30790051537208
 30
0.0
 10
208.0076296681757
 20
71.95427422729358
 30
0.0
 10
207.3347062925586
 20
71.4874694622774
 30
0.0
 10
206.6841807873152
 20
70.91964833991108
 30
0.0
 10
206.0700628240532
 20
70.26433980109003
 30
0.0
 10
205.5046486408049
 20
69.53607537362704
 30
0.0
 10
204.9990937393677
 20
68.75021581199606
 30
0.0
 10
204.5635039860484
 20
67.92293378971176
 30
0.0
 10
204.2069498882639
 20
67.07106038657767
 30
0.0
 10
203.9368490001965
 20
66.21143051435921
 30
0.0
 10
203.7606964140016
 20
65.36156774464038
 30
0.0
 10
203.6994325829228
 20
64.73782148985671
 30
0.0
 10
203.695780475378
 20
64.40235334456598
 30
0.0
 10
203.6950065636269
 20
64.3312648739755
 30
0.0
  0
SPLINE
  5
1EA
330
1F
100
AcDbEntity
  8
0
  6
Continuous
 62
     7
370
    15
100
AcDbSpline
210
0.0
220
0.0
230
1.0
 70
     8
 71
     3
 72
    12
 73
     8
 74
     0
 42
0.000000001
 43
0.00000001
 40
0.0
 40
0.0
 40
0.0
 40
0.0
 40
0.120640007965492
 40
0.3490190680756846
 40
0.5773386117730825
 40
0.8030617016462762
 40
1.0
 40
1.0
 40
1.0
 40
1.0
 10
203.6950065636269
 20
64.3312648739755
 30
0.0
 10
203.69792464044
 20
64.19298752204449
 30
0.0
 10
203.7063668186782
 20
63.79294251773099
 30
0.0
 10
203.8000326116369
 20
63.17230655544084
 30
0.0
 10
204.0143340666767
 20
62.50996084894687
 30
0.0
 10
204.3138233688356
 20
61.94928014550877
 30
0.0
 10
204.5880126139422
 20
61.66810782631863
 30
0.0
 10
204.7157705896226
 20
61.53709610008131
 30
0.0
  0
LINE
  5
1EB
330
1F
100
AcDbEntity
  8
0
  6
Continuous
 62
     7
370
    15
100
AcDbLine
 10
273.0224204304
 20
36.6911223626
 30
0.0
 11
272.9516982626
 21
36.7319626722
 31
0.0
  0
LINE
  5
1EC
330
1F
100
AcDbEntity
  8
0
  6
Continuous
 62
     7
370
    15
100
AcDbLine
 10
270.6178667255
 20
36.7319626722
 30
0.0
 11
270.5471445577
 21
36.6911223626
 31
0.0
  0
LINE
  5
1ED
330
1F
100
AcDbEntity
  8
0
  6
Continuous
 62
     7
370
    15
100
AcDbLine
 10
274.0406089413
 20
29.7631621994
 30
0.0
 11
275.5307301045
 21
30.0667632272
 31
0.0
  0
LWPOLYLINE
  5
1EE
330
1F
100
AcDbEntity
  8
0
  6
Continuous
 62
     7
370
    15
100
AcDbPolyline
 90
       46
 70
   128
 43
0.0
 10
276.0451008507
 20
34.0890304899
 10
275.2725804396
 20
33.5806837747
 10
274.5150962596
 20
32.957471101
 10
273.7873918786
 20
32.2315225946
 10
273.1036312347
 20
31.4169680173
 10
272.4771229509
 20
30.5296617476
 10
271.9200612985
 20
29.5868741926
 10
271.4432888488
 20
28.6069556397
 10
271.0560854352
 20
27.6089790889
 10
270.7659875317
 20
26.6123690186
 10
270.5786415642
 20
25.6365233101
 10
270.4976940086
 20
24.7004356902
 10
270.5247204171
 20
23.8223260396
 10
270.6591947514
 20
23.0192857639
 10
270.8984996215
 20
22.3069451284
 10
271.2379772305
 20
21.6991690336
 10
271.6710200326
 20
21.2077871496
 10
272.1891993424
 20
20.8423636659
 10
272.7824293891
 20
20.610011135
 10
273.4391636245
 20
20.5152520346
 10
274.1466194639
 20
20.5599307428
 10
274.8910270839
 20
20.7431776393
 10
275.6578974371
 20
21.0614260318
 10
276.4323042643
 20
21.5084815772
 10
277.1991746174
 20
22.0756428481
 10
277.9435822375
 20
22.7518706952
 10
278.6510380768
 20
23.5240031128
 10
279.3077723122
 20
24.3770114216
 10
279.9010023589
 20
25.2942927853
 10
280.4191816687
 20
26.2579933654
 10
280.8522244709
 20
27.2493558264
 10
281.1917020798
 20
28.2490844256
 10
281.4310069499
 20
29.237720583
 10
281.5654812843
 20
30.1960216203
 10
281.5925076928
 20
31.105335298
 10
281.5115601372
 20
31.9479628596
 10
281.3242141696
 20
32.707503518
 10
281.0341162661
 20
33.3691736784
 10
280.6469128525
 20
33.9200946837
 10
280.1701404028
 20
34.3495434833
 10
279.6130787504
 20
34.6491613446
 10
278.9865704666
 20
34.8131165469
 10
278.3028098227
 20
34.8382178886
 10
277.5751054417
 20
34.7239768007
 10
276.8176212617
 20
34.472616856
 10
276.0451008507
 20
34.0890304899
  0
LWPOLYLINE
  5
1EF
330
1F
100
AcDbEntity
  8
0
  6
Continuous
 62
     7
370
    15
100
AcDbPolyline
 90
       24
 70
   128
 43
0.0
 10
275.9390348335
 20
34.2727422201
 10
275.1517528859
 20
33.7546818734
 10
274.3797944859
 20
33.1195606773
 10
273.6381849257
 20
32.3797405433
 10
272.9413587917
 20
31.5496212289
 10
272.3028790121
 20
30.6453600623
 10
271.7351728695
 20
29.6845574585
 10
271.2492901182
 20
28.6859143473
 10
270.8546879133
 20
27.6688681808
 10
270.5590467378
 20
26.653214606
 10
270.3681209109
 20
25.6587221642
 10
270.2856265868
 20
24.7047475198
 10
270.3131694235
 20
23.8098587039
 10
270.450213331
 20
22.9914737095
 10
270.6940909057
 20
22.2655214695
 10
271.0400553479
 20
21.6461318187
 10
271.4813728533
 20
21.145360472
 10
272.0094536786
 20
20.7729543739
 10
272.6140193313
 20
20.5361619858
 10
273.2833026285
 20
20.4395922019
 10
274.0042767323
 20
20.4851246434
 10
274.7629087018
 20
20.6718730729
 10
275.5444326286
 20
20.9962026449
 10
275.9399542314
 20
21.2086200733
  0
LWPOLYLINE
  5
1F0
330
1F
100
AcDbEntity
  8
0
  6
Continuous
 62
     7
370
    15
100
AcDbPolyline
 90
       13
 70
   128
 43
0.0
 10
281.595889083
 20
31.0060481723
 10
281.5924430802
 20
31.2320337442
 10
281.509948756
 20
32.0907624694
 10
281.3190229292
 20
32.8648166436
 10
281.0233817537
 20
33.5391301829
 10
280.6287795488
 20
34.1005783412
 10
280.1428967975
 20
34.5382331687
 10
279.5751906549
 20
34.8435762121
 10
278.9367108753
 20
35.0106643164
 10
278.2398847413
 20
35.0362453016
 10
277.4982751811
 20
34.919821263
 10
276.7263167811
 20
34.663658262
 10
275.9390348335
 20
34.2727422201
  0
SPLINE
  5
1F1
330
1F
100
AcDbEntity
  8
0
  6
Continuous
 62
     7
370
    15
100
AcDbSpline
210
0.0
220
0.0
230
1.0
 70
    11
 71
     3
 72
    82
 73
    78
 74
     0
 42
0.000000001
 43
0.00000001
 40
0.0
 40
0.0
 40
0.0
 40
0.0
 40
0.0312499999999985
 40
0.0312499999999985
 40
0.0624999999999969
 40
0.0624999999999969
 40
0.0937499999999954
 40
0.0937499999999954
 40
0.1249999999999939
 40
0.1249999999999939
 40
0.1562499999999924
 40
0.1562499999999924
 40
0.1874999999999909
 40
0.1874999999999909
 40
0.2187499999999893
 40
0.2187499999999893
 40
0.2343749999999892
 40
0.2343749999999892
 40
0.2499999999999891
 40
0.2499999999999891
 40
0.2812499999999887
 40
0.2812499999999887
 40
0.296874999999989
 40
0.296874999999989
 40
0.3124999999999893
 40
0.3124999999999893
 40
0.3437499999999898
 40
0.3437499999999898
 40
0.35937499999999
 40
0.35937499999999
 40
0.3749999999999901
 40
0.3749999999999901
 40
0.3906249999999901
 40
0.3906249999999901
 40
0.4062499999999902
 40
0.4062499999999902
 40
0.4374999999999907
 40
0.4374999999999907
 40
0.4687499999999913
 40
0.4687499999999913
 40
0.4999999999999919
 40
0.4999999999999919
 40
0.5312499999999925
 40
0.5312499999999925
 40
0.562499999999993
 40
0.562499999999993
 40
0.5937499999999936
 40
0.5937499999999936
 40
0.6249999999999941
 40
0.6249999999999941
 40
0.6562499999999948
 40
0.6562499999999948
 40
0.6874999999999953
 40
0.6874999999999953
 40
0.7187499999999959
 40
0.7187499999999959
 40
0.7499999999999964
 40
0.7499999999999964
 40
0.781249999999997
 40
0.781249999999997
 40
0.8124999999999976
 40
0.8124999999999976
 40
0.8281249999999978
 40
0.8281249999999978
 40
0.843749999999998
 40
0.843749999999998
 40
0.8749999999999982
 40
0.8749999999999982
 40
0.8906249999999984
 40
0.8906249999999984
 40
0.9062499999999986
 40
0.9062499999999986
 40
0.937499999999999
 40
0.937499999999999
 40
0.9687499999999994
 40
0.9687499999999994
 40
1.0
 40
1.0
 40
1.0
 40
1.0
 10
271.7678881370726
 20
37.87841597869308
 30
0.0
 10
271.9210114203079
 20
37.85138375292255
 30
0.0
 10
272.0700280813041
 20
37.81700116530367
 30
0.0
 10
272.3608541459356
 20
37.73653209532174
 30
0.0
 10
272.5033996228057
 20
37.69014132248968
 30
0.0
 10
272.7780420034192
 20
37.58800775504263
 30
0.0
 10
272.9079273049703
 20
37.53316981948748
 30
0.0
 10
273.1535566624661
 20
37.41712781239445
 30
0.0
 10
273.2701818677359
 20
37.35537542488652
 30
0.0
 10
273.4840976110222
 20
37.22810045776308
 30
0.0
 10
273.5807484507599
 20
37.16310343600286
 30
0.0
 10
273.7537721989739
 20
37.03002249627784
 30
0.0
 10
273.8307221442782
 20
36.96129164317095
 30
0.0
 10
273.9595927551421
 20
36.82276294520417
 30
0.0
 10
274.0113945748967
 20
36.75338823068594
 30
0.0
 10
274.0698440935428
 20
36.6479809450013
 30
0.0
 10
274.0860971367036
 20
36.61261743313206
 30
0.0
 10
274.1117971060524
 20
36.54117736618322
 30
0.0
 10
274.1212314449879
 20
36.50496426634827
 30
0.0
 10
274.1382552718007
 20
36.39721571592516
 30
0.0
 10
274.1350427436089
 20
36.32588345473517
 30
0.0
 10
274.1070508956598
 20
36.21819284632732
 30
0.0
 10
274.0938296156071
 20
36.18218111809605
 30
0.0
 10
274.0589550359746
 20
36.1096732386641
 30
0.0
 10
274.0372511468738
 20
36.07323343483182
 30
0.0
 10
273.960802019729
 20
35.96602082481033
 30
0.0
 10
273.8944130630834
 20
35.89627656234662
 30
0.0
 10
273.7700454627309
 20
35.79355986896578
 30
0.0
 10
273.7240070798098
 20
35.75937888176871
 30
0.0
 10
273.625252696629
 20
35.69318926147545
 30
0.0
 10
273.572664223432
 20
35.66119949584051
 30
0.0
 10
273.4612238966426
 20
35.59936010892983
 30
0.0
 10
273.4023717584848
 20
35.56951061000299
 30
0.0
 10
273.2783571336981
 20
35.51200604328455
 30
0.0
 10
273.2127465175977
 20
35.48419603517071
 30
0.0
 10
273.0111919951565
 20
35.40620250043287
 30
0.0
 10
272.8697776350751
 20
35.36087139871629
 30
0.0
 10
272.5736727305916
 20
35.28383752479535
 30
0.0
 10
272.421535045363
 20
35.25293679441863
 30
0.0
 10
272.1163745983571
 20
35.20773031599479
 30
0.0
 10
271.9609096824457
 20
35.19318116835501
 30
0.0
 10
271.6567804811785
 20
35.18193080705988
 30
0.0
 10
271.5073378095877
 20
35.18497059898431
 30
0.0
 10
271.2132063409784
 20
35.20926283164748
 30
0.0
 10
271.0697339374337
 20
35.23059601751739
 30
0.0
 10
270.7969568004669
 20
35.2908280183469
 30
0.0
 10
270.6664686672142
 20
35.32980926470918
 30
0.0
 10
270.4173937019202
 20
35.42666018186553
 30
0.0
 10
270.3016024974975
 20
35.48351779768903
 30
0.0
 10
270.0887969534892
 20
35.61266649577445
 30
0.0
 10
269.9914207879545
 20
35.68509659833659
 30
0.0
 10
269.8156181453984
 20
35.84603620428748
 30
0.0
 10
269.7396554810925
 20
35.93230153372193
 30
0.0
 10
269.611351404555
 20
36.1149219354108
 30
0.0
 10
269.5589062148532
 20
36.21140537377333
 30
0.0
 10
269.4796997237576
 20
36.41373686383763
 30
0.0
 10
269.4541218555225
 20
36.51650148285028
 30
0.0
 10
269.4314046151069
 20
36.72368144582322
 30
0.0
 10
269.4343063941673
 20
36.82857319195918
 30
0.0
 10
269.4724596147332
 20
37.03655965254563
 30
0.0
 10
269.5070182102203
 20
37.13646856264402
 30
0.0
 10
269.5830268369955
 20
37.27883384641044
 30
0.0
 10
269.6124218643263
 20
37.32503338540385
 30
0.0
 10
269.6799209536063
 20
37.41459050486703
 30
0.0
 10
269.7183000661892
 20
37.45813515766404
 30
0.0
 10
269.8436437342311
 20
37.58014702945327
 30
0.0
 10
269.9414506368853
 20
37.65134881327121
 30
0.0
 10
270.1100315607098
 20
37.74233714327715
 30
0.0
 10
270.170296834421
 20
37.77012604554794
 30
0.0
 10
270.2949453969205
 20
37.81885351461065
 30
0.0
 10
270.3596118270515
 20
37.83999738103427
 30
0.0
 10
270.5603747789056
 20
37.89427851405711
 30
0.0
 10
270.7049946430583
 20
37.91835166984193
 30
0.0
 10
271.0002662108178
 20
37.94259718543795
 30
0.0
 10
271.1513567450752
 20
37.94323550261571
 30
0.0
 10
271.4602544974294
 20
37.92458803519541
 30
0.0
 10
271.6147648538373
 20
37.90544820446361
 30
0.0
 10
271.7678881370726
 20
37.87841597869308
 30
0.0
  0
LWPOLYLINE
  5
1F2
330
1F
100
AcDbEntity
  8
0
  6
Continuous
 62
     7
370
    15
100
AcDbPolyline
 90
       17
 70
   128
 43
0.0
 10
273.2012563624
 20
35.4652752576
 10
273.2665498427
 20
35.5210481743
 10
273.47515269
 20
35.7970625945
 10
273.5335587274
 20
36.0963100244
 10
273.4365783221
 20
36.3922010167
 10
273.1928286086
 20
36.6584443582
 10
272.8239678188
 20
36.8713831597
 10
272.3627708524
 20
37.0120968741
 10
271.850217084
 20
37.0680824704
 10
271.3318491651
 20
37.0343653827
 10
270.8537263601
 20
36.9139415222
 10
270.4583319785
 20
36.7175110774
 10
270.1807985462
 20
36.4625277553
 10
270.0457861267
 20
36.1716479431
 10
270.0652911659
 20
35.8707175886
 10
270.2375805554
 20
35.5864756743
 10
270.355982724
 20
35.4752087824
  0
ARC
  5
1F3
330
1F
100
AcDbEntity
  8
0
  6
Continuous
 62
     7
370
    15
100
AcDbCircle
 10
245.485355953
 20
57.2131692082
 30
0.0
 40
5.445834604965589
100
AcDbArc
 50
38.1323437877
 51
81.9843531058
  0
ARC
  5
1F4
330
1F
100
AcDbEntity
  8
0
  6
Continuous
 62
     7
370
    15
100
AcDbCircle
 10
235.1861399741
 20
39.3726160066
 30
0.0
 40
5.444394052233393
100
AcDbArc
 50
218.0780041002
 51
261.683797159
  0
ARC
  5
1F5
330
1F
100
AcDbEntity
  8
0
  6
Continuous
 62
     7
370
    15
100
AcDbCircle
 10
234.5865599417
 20
41.2361952668
 30
0.0
 40
6.771734868679922
100
AcDbArc
 50
187.8587342088
 51
237.1677505261
  0
SPLINE
  5
1F6
330
1F
100
AcDbEntity
  8
0
  6
Continuous
 62
     7
370
    15
100
AcDbSpline
210
0.0
220
0.0
230
1.0
 70
     8
 71
     3
 72
    29
 73
    25
 74
     0
 42
0.000000001
 43
0.00000001
 40
0.0
 40
0.0
 40
0.0
 40
0.0
 40
0.0226170105032921
 40
0.0451713142240263
 40
0.0676870228488737
 40
0.0901883721253699
 40
0.1126996441678027
 40
0.135245089017566
 40
0.1578488467194459
 40
0.1805348711560506
 40
0.2033268568175892
 40
0.2262481695777687
 40
0.2493217824054336
 40
0.3751991801893576
 40
0.4999614246459921
 40
0.4999717960761083
 40
0.6247044141127994
 40
0.7509557879396762
 40
0.7931713871196463
 40
0.834908104506354
 40
0.8763104515934291
 40
0.9175264576337788
 40
0.9587061619419142
 40
1.0
 40
1.0
 40
1.0
 40
1.0
 10
227.8785852158163
 20
45.4645417060042
 30
0.0
 10
227.8969504409398
 20
45.41570181620228
 30
0.0
 10
227.93362997269
 20
45.31815744761352
 30
0.0
 10
227.9853198013565
 20
45.17069483820768
 30
0.0
 10
228.0345011611803
 20
45.02275754868418
 30
0.0
 10
228.0809908310802
 20
44.87426568345111
 30
0.0
 10
228.1249009275397
 20
44.7252737173179
 30
0.0
 10
228.1662661189953
 20
44.57580192873978
 30
0.0
 10
228.2051434056998
 20
44.42588182543194
 30
0.0
 10
228.2415852507216
 20
44.27554301545248
 30
0.0
 10
228.2756472318077
 20
44.12482056383011
 30
0.0
 10
228.3073842849038
 20
43.97373886709809
 30
0.0
 10
228.3805425567708
 20
43.59801766014829
 30
0.0
 10
228.4662190968019
 20
43.00924723843936
 30
0.0
 10
228.4919514586308
 20
42.50776363442803
 30
0.0
 10
228.492388614864
 20
42.03731080918532
 30
0.0
 10
228.4669575581411
 20
41.59086827930064
 30
0.0
 10
228.374990242106
 20
41.15484160780709
 30
0.0
 10
228.2824363480611
 20
40.88664872518575
 30
0.0
 10
228.2188537241718
 20
40.74039761434856
 30
0.0
 10
228.1472082201362
 20
40.60947728250185
 30
0.0
 10
228.0669534458239
 20
40.49403095005215
 30
0.0
 10
227.9785517862307
 20
40.39250894560967
 30
0.0
 10
227.9121951323191
 20
40.33751006864971
 30
0.0
 10
227.8789708904339
 20
40.30997257415873
 30
0.0
  0
LWPOLYLINE
  5
1F7
330
1F
100
AcDbEntity
  8
0
  6
Continuous
 62
     7
370
    15
100
AcDbPolyline
 90
       23
 70
   128
 43
0.0
 10
227.8783664747
 20
45.4646679826
 10
228.16035085
 20
46.889767326
 10
228.5515523147
 20
48.3384656959
 10
229.0479511457
 20
49.7958772417
 10
229.6444466821
 20
51.2470265822
 10
230.334909737
 20
52.6770026825
 10
231.1122455763
 20
54.0711120697
 10
231.9684668193
 20
55.4150298128
 10
232.8947755124
 20
56.6949467168
 10
233.8816535302
 20
57.897711216
 10
234.9189603776
 20
59.0109645112
 10
235.9960373869
 20
60.02326756
 10
237.101817239
 20
60.9242186167
 10
238.2249376835
 20
61.7045601141
 10
239.3538582897
 20
62.3562737876
 10
240.4769790287
 20
62.8726630657
 10
241.5827594667
 20
63.2484218793
 10
242.6598373475
 20
63.4796891835
 10
243.6971453428
 20
63.5640886309
 10
244.6840247732
 20
63.5007529896
 10
245.6103351291
 20
63.2903330541
 10
246.466558268
 20
62.9349909581
 10
246.6637723364
 20
62.826705895
  0
SPLINE
  5
1F8
330
1F
100
AcDbEntity
  8
0
  6
Continuous
 62
     7
370
    15
100
AcDbSpline
210
0.0
220
0.0
230
1.0
 70
     8
 71
     3
 72
     8
 73
     4
 74
     0
 42
0.000000001
 43
0.00000001
 40
0.0
 40
0.0
 40
0.0
 40
0.0
 40
1.0
 40
1.0
 40
1.0
 40
1.0
 10
227.1004300776412
 20
48.74344510950855
 30
0.0
 10
226.4073588425884
 20
48.62758349113384
 30
0.0
 10
225.7137380761922
 20
48.51282479798078
 30
0.0
 10
225.0197589153647
 20
48.39881325034262
 30
0.0
  0
SPLINE
  5
1F9
330
1F
100
AcDbEntity
  8
0
  6
Continuous
 62
     7
370
    15
100
AcDbSpline
210
0.0
220
0.0
230
1.0
 70
     8
 71
     3
 72
     8
 73
     4
 74
     0
 42
0.000000001
 43
0.00000001
 40
0.0
 40
0.0
 40
0.0
 40
0.0
 40
0.0012389803509652
 40
0.0012389803509652
 40
0.0012389803509652
 40
0.0012389803509652
 10
224.5460225012193
 20
48.67234737109661
 30
0.0
 10
224.7040958362003
 20
48.58107629064612
 30
0.0
 10
224.8620140151663
 20
48.48989476354587
 30
0.0
 10
225.0197589153647
 20
48.39881325034263
 30
0.0
  0
LWPOLYLINE
  5
1FA
330
1F
100
AcDbEntity
  8
0
  6
Continuous
 62
     7
370
    15
100
AcDbPolyline
 90
       25
 70
   128
 43
0.0
 10
224.5460225012
 20
48.6723473711
 10
224.9068805388
 20
50.0827586549
 10
225.3688297031
 20
51.504472759
 10
225.9273489841
 20
52.923575633
 10
226.5769722578
 20
54.3261787824
 10
227.3113417828
 20
55.698555192
 10
228.1232704216
 20
57.0272736705
 10
229.0048119804
 20
58.2993302984
 10
229.9473389767
 20
59.5022756951
 10
230.9416270748
 20
60.6243368589
 10
231.977945363
 20
61.6545323866
 10
233.0461515877
 20
62.5827799473
 10
234.1357914144
 20
63.3999949555
 10
235.2362007414
 20
64.0981794806
 10
236.3366100685
 20
64.6705005211
 10
237.4262498951
 20
65.1113568779
 10
238.4944561199
 20
65.4164339723
 10
239.5307744081
 20
65.5827460716
 10
240.5250625062
 20
65.6086655106
 10
241.4675895025
 20
65.4939386204
 10
242.3491310613
 20
65.2396882117
 10
243.1610597001
 20
64.8484025857
 10
243.895429225
 20
64.3239111818
 10
244.5450524988
 20
63.6713470993
 10
244.6841977595
 20
63.5007282347
  0
LINE
  5
1FB
330
1F
100
AcDbEntity
  8
0
  6
Continuous
 62
     7
370
    15
100
AcDbLine
 10
221.5143021769
 20
50.4225222608
 30
0.0
 11
224.5460225012
 21
48.6723473711
 31
0.0
  0
ARC
  5
1FC
330
1F
100
AcDbEntity
  8
0
  6
Continuous
 62
     7
370
    15
100
AcDbCircle
 10
237.3442909743
 20
61.8381144014
 30
0.0
 40
5.51559442515745
100
AcDbArc
 50
60.2784668012
 51
81.3172543569
  0
LINE
  5
1FD
330
1F
100
AcDbEntity
  8
0
  6
Continuous
 62
     7
370
    15
100
AcDbLine
 10
227.5030254801
 20
48.6822827188
 30
0.0
 11
227.4937028292
 21
48.6876645706
 31
0.0
  0
SPLINE
  5
1FE
330
1F
100
AcDbEntity
  8
0
  6
Continuous
 62
     7
370
    15
100
AcDbSpline
210
0.0
220
0.0
230
1.0
 70
     8
 71
     3
 72
    10
 73
     6
 74
     0
 42
0.000000001
 43
0.00000001
 40
0.0
 40
0.0
 40
0.0
 40
0.0
 40
0.2534901721302397
 40
0.7179017518724033
 40
1.0
 40
1.0
 40
1.0
 40
1.0
 10
228.4341702062856
 20
47.86340055384049
 30
0.0
 10
228.3637866817721
 20
47.95013177717668
 30
0.0
 10
228.1644556579041
 20
48.1957606181366
 30
0.0
 10
227.8466316221465
 20
48.46646393528759
 30
0.0
 10
227.597260294097
 20
48.62309389637857
 30
0.0
 10
227.5030254801003
 20
48.68228271878716
 30
0.0
  0
SPLINE
  5
1FF
330
1F
100
AcDbEntity
  8
0
  6
Continuous
 62
     7
370
    15
100
AcDbSpline
210
0.0
220
0.0
230
1.0
 70
     8
 71
     3
 72
    10
 73
     6
 74
     0
 42
0.000000001
 43
0.00000001
 40
0.0
 40
0.0
 40
0.0
 40
0.0
 40
0.5
 40
0.5
 40
1.0
 40
1.0
 40
1.0
 40
1.0
 10
227.4937028291932
 20
48.68766457059989
 30
0.0
 10
227.4439022303804
 20
48.71641384434901
 30
0.0
 10
227.3788703136364
 20
48.73717718970968
 30
0.0
 10
227.2418119532909
 20
48.75613087909746
 30
0.0
 10
227.1682731132412
 20
48.75478651786966
 30
0.0
 10
227.1004300776412
 20
48.74344510950855
 30
0.0
  0
SPLINE
  5
200
330
1F
100
AcDbEntity
  8
0
  6
Continuous
 62
     7
370
    15
100
AcDbSpline
210
0.0
220
0.0
230
1.0
 70
     8
 71
     3
 72
     8
 73
     4
 74
     0
 42
0.000000001
 43
0.00000001
 40
0.0
 40
0.0
 40
0.0
 40
0.0
 40
1.0
 40
1.0
 40
1.0
 40
1.0
 10
221.3574775693208
 20
50.51304394000542
 30
0.0
 10
221.3798563658403
 20
50.50013198855358
 30
0.0
 10
221.4340437968575
 20
50.46885443739655
 30
0.0
 10
221.514302176882
 20
50.42252226081656
 30
0.0
  0
LINE
  5
201
330
1F
100
AcDbEntity
  8
0
  6
Continuous
 62
     7
370
    15
100
AcDbLine
 10
221.3574775693
 20
50.51304394
 30
0.0
 11
221.380730259
 21
50.6602340341
 31
0.0
  0
SPLINE
  5
202
330
1F
100
AcDbEntity
  8
0
  6
Continuous
 62
     7
370
    15
100
AcDbSpline
210
0.0
220
0.0
230
1.0
 70
     8
 71
     3
 72
    11
 73
     7
 74
     0
 42
0.000000001
 43
0.00000001
 40
0.0
 40
0.0
 40
0.0
 40
0.0
 40
0.2912888850038958
 40
0.5549624174374319
 40
0.7913417921371096
 40
1.0
 40
1.0
 40
1.0
 40
1.0
 10
227.9870105651
 20
41.03610131291924
 30
0.0
 10
228.0779473799444
 20
41.12765887953694
 30
0.0
 10
228.2511998354902
 20
41.30209398887582
 30
0.0
 10
228.4022905537508
 20
41.7194920316263
 30
0.0
 10
228.4808799318006
 20
42.1736238321327
 30
0.0
 10
228.4885085331387
 20
42.51759096397508
 30
0.0
 10
228.4920852429404
 20
42.6788617602092
 30
0.0
  0
SPLINE
  5
203
330
1F
100
AcDbEntity
  8
0
  6
Continuous
 62
     7
370
    15
100
AcDbSpline
210
0.0
220
0.0
230
1.0
 70
     8
 71
     3
 72
     9
 73
     5
 74
     0
 42
0.000000001
 43
0.00000001
 40
0.0
 40
0.0
 40
0.0
 40
0.0
 40
0.5067649320089164
 40
1.0
 40
1.0
 40
1.0
 40
1.0
 10
227.8782891006275
 20
40.30947054637508
 30
0.0
 10
227.8965580159885
 20
40.4319246651113
 30
0.0
 10
227.9326080940563
 20
40.6735635611785
 30
0.0
 10
227.9692889471395
 20
40.91571383156512
 30
0.0
 10
227.987381230204
 20
41.03515083664333
 30
0.0
  0
SPLINE
  5
204
330
1F
100
AcDbEntity
  8
0
  6
Continuous
 62
     7
370
    15
100
AcDbSpline
210
0.0
220
0.0
230
1.0
 70
     8
 71
     3
 72
    10
 73
     6
 74
     0
 42
0.000000001
 43
0.00000001
 40
0.0
 40
0.0
 40
0.0
 40
0.0
 40
0.4807908150166064
 40
0.975781759036066
 40
1.0
 40
1.0
 40
1.0
 40
1.0
 10
227.5030254801003
 20
42.10912918310688
 30
0.0
 10
227.6528164270005
 20
42.02895880774485
 30
0.0
 10
227.9568223877819
 20
41.86625022960649
 30
0.0
 10
228.2464378319796
 20
41.7547487988853
 30
0.0
 10
228.3807762626576
 20
41.72651718140607
 30
0.0
 10
228.3870424085174
 20
41.72520033236971
 30
0.0
  0
LINE
  5
205
330
1F
100
AcDbEntity
  8
0
  6
Continuous
 62
     7
370
    15
100
AcDbLine
 10
221.7909108168
 20
50.2627875818
 30
0.0
 11
221.3574775693
 21
50.51304394
 31
0.0
  0
LINE
  5
206
330
1F
100
AcDbEntity
  8
0
  6
Continuous
 62
     7
370
    15
100
AcDbLine
 10
225.0197589154
 20
48.3988132503
 30
0.0
 11
221.7909108168
 21
50.2627875818
 31
0.0
  0
SPLINE
  5
207
330
1F
100
AcDbEntity
  8
0
  6
Continuous
 62
     7
370
    15
100
AcDbSpline
210
0.0
220
0.0
230
1.0
 70
     8
 71
     3
 72
    11
 73
     7
 74
     0
 42
0.000000001
 43
0.00000001
 40
0.0
 40
0.0
 40
0.0
 40
0.0
 40
0.2180025369760413
 40
0.529008550034483
 40
0.8400525035994074
 40
1.0
 40
1.0
 40
1.0
 40
1.0
 10
223.8959757381572
 20
46.24896163602068
 30
0.0
 10
223.8912535535321
 20
46.45535596666002
 30
0.0
 10
223.8797946224748
 20
46.95619585183463
 30
0.0
 10
223.8147222101006
 20
47.77492239445644
 30
0.0
 10
223.7739942479926
 20
48.52908878276388
 30
0.0
 10
223.7948792795792
 20
48.95663365010292
 30
0.0
 10
223.8019717830944
 20
49.10182679773821
 30
0.0
  0
LINE
  5
208
330
1F
100
AcDbEntity
  8
0
  6
Continuous
 62
     7
370
    15
100
AcDbLine
 10
223.8959757382
 20
45.8286062806
 30
0.0
 11
223.8959757382
 21
46.248961636
 31
0.0
  0
LINE
  5
209
330
1F
100
AcDbEntity
  8
0
  6
Continuous
 62
     7
370
    15
100
AcDbLine
 10
223.2860961394
 20
49.0639750957
 30
0.0
 11
223.2912840341
 21
49.39664056
 31
0.0
  0
ARC
  5
20A
330
1F
100
AcDbEntity
  8
0
  6
Continuous
 62
     7
370
    15
100
AcDbCircle
 10
230.7114424815
 20
48.8648691053
 30
0.0
 40
7.428015313391095
100
AcDbArc
 50
178.4640177796
 51
203.4316121455
  0
LINE
  5
20B
330
1F
100
AcDbEntity
  8
0
  6
Continuous
 62
     7
370
    15
100
AcDbLine
 10
211.00272667
 20
72.5384001632
 30
0.0
 11
211.1793427591
 21
72.482928003
 31
0.0
  0
LINE
  5
20C
330
1F
100
AcDbEntity
  8
0
  6
Continuous
 62
     7
370
    15
100
AcDbLine
 10
204.8078733478
 20
61.4460233921
 30
0.0
 11
204.7241033698
 21
61.5204629695
 31
0.0
  0
LINE
  5
20D
330
1F
100
AcDbEntity
  8
0
  6
Continuous
 62
     7
370
    15
100
AcDbLine
 10
227.4937028292
 20
42.1145110349
 30
0.0
 11
227.5030254801
 21
42.1091291831
 31
0.0
  0
ARC
  5
20E
330
1F
100
AcDbEntity
  8
0
  6
Continuous
 62
     7
370
    15
100
AcDbCircle
 10
230.2899323246
 20
42.7286609312
 30
0.0
 40
5.88226912009386
100
AcDbArc
 50
192.4515759335
 51
260.7205307149
  0
SPLINE
  5
20F
330
1F
100
AcDbEntity
  8
0
  6
Continuous
 62
     7
370
    15
100
AcDbSpline
210
0.0
220
0.0
230
1.0
 70
     8
 71
     3
 72
     8
 73
     4
 74
     0
 42
0.000000001
 43
0.00000001
 40
0.0
 40
0.0
 40
0.0
 40
0.0
 40
0.0012389803509652
 40
0.0012389803509652
 40
0.0012389803509652
 40
0.0012389803509652
 10
225.0197589153647
 20
41.82565971466234
 30
0.0
 10
224.8620140151663
 20
41.70358326412762
 30
0.0
 10
224.7040958362003
 20
41.5818259611268
 30
0.0
 10
224.5460225012193
 20
41.46035893958236
 30
0.0
  0
SPLINE
  5
210
330
1F
100
AcDbEntity
  8
0
  6
Continuous
 62
     7
370
    15
100
AcDbSpline
210
0.0
220
0.0
230
1.0
 70
     8
 71
     3
 72
     8
 73
     4
 74
     0
 42
0.000000001
 43
0.00000001
 40
0.0
 40
0.0
 40
0.0
 40
0.0
 40
1.0
 40
1.0
 40
1.0
 40
1.0
 10
225.0197589153647
 20
41.82565971466234
 30
0.0
 10
225.7137394983064
 20
41.93967149593495
 30
0.0
 10
226.4073725590683
 20
42.05443224845531
 30
0.0
 10
227.1004300776412
 20
42.17029157382827
 30
0.0
  0
SPLINE
  5
211
330
1F
100
AcDbEntity
  8
0
  6
Continuous
 62
     7
370
    15
100
AcDbSpline
210
0.0
220
0.0
230
1.0
 70
     8
 71
     3
 72
    12
 73
     8
 74
     0
 42
0.000000001
 43
0.00000001
 40
0.0
 40
0.0
 40
0.0
 40
0.0
 40
0.2499999999999987
 40
0.2499999999999987
 40
0.4999999999999973
 40
0.4999999999999973
 40
1.0
 40
1.0
 40
1.0
 40
1.0
 10
227.1004300776412
 20
42.17029157382827
 30
0.0
 10
227.1342185935653
 20
42.17594004391251
 30
0.0
 10
227.1697903696342
 20
42.17920050742796
 30
0.0
 10
227.2403726160267
 20
42.18033809697608
 30
0.0
 10
227.2753955744756
 20
42.17832148051806
 30
0.0
 10
227.3796008697406
 20
42.16394574317847
 30
0.0
 10
227.4433113016802
 20
42.14360144454606
 30
0.0
 10
227.4937028291932
 20
42.11451103491961
 30
0.0
  0
LINE
  5
212
330
1F
100
AcDbEntity
  8
0
  6
Continuous
 62
     7
370
    15
100
AcDbLine
 10
221.7909108168
 20
43.6896340461
 30
0.0
 11
225.0197589154
 21
41.8256597147
 31
0.0
  0
LINE
  5
213
330
1F
100
AcDbEntity
  8
0
  6
Continuous
 62
     7
370
    15
100
AcDbLine
 10
221.7909108168
 20
43.6896340461
 30
0.0
 11
223.6838437038
 21
44.7824009416
 31
0.0
  0
LINE
  5
214
330
1F
100
AcDbEntity
  8
0
  6
Continuous
 62
     7
370
    15
100
AcDbLine
 10
221.3574775693
 20
43.4393776879
 30
0.0
 11
221.7909108168
 21
43.6896340461
 31
0.0
  0
LINE
  5
215
330
1F
100
AcDbEntity
  8
0
  6
Continuous
 62
     7
370
    15
100
AcDbLine
 10
224.5460225012
 20
41.4603589396
 30
0.0
 11
221.5143021769
 21
43.2105338293
 31
0.0
  0
SPLINE
  5
216
330
1F
100
AcDbEntity
  8
0
  6
Continuous
 62
     7
370
    15
100
AcDbSpline
210
0.0
220
0.0
230
1.0
 70
     8
 71
     3
 72
     8
 73
     4
 74
     0
 42
0.000000001
 43
0.00000001
 40
0.0
 40
0.0
 40
0.0
 40
0.0
 40
1.0
 40
1.0
 40
1.0
 40
1.0
 10
221.514302176882
 20
43.2105338293023
 30
0.0
 10
221.4342773773672
 20
43.25673116272426
 30
0.0
 10
221.3798005799853
 20
43.33991868508896
 30
0.0
 10
221.3574775693208
 20
43.43937768793008
 30
0.0
  0
ARC
  5
217
330
1F
100
AcDbEntity
  8
0
  6
Continuous
 62
     7
370
    15
100
AcDbCircle
 10
227.0925097603
 20
44.0909689848
 30
0.0
 40
5.489139948493142
100
AcDbArc
 50
218.1309193603
 51
239.7849931837
  0
ELLIPSE
  5
218
330
1F
100
AcDbEntity
  8
0
  6
Continuous
 62
     7
370
    15
100
AcDbEllipse
 10
223.4495291288
 20
45.570900516
 30
0.0
 11
-6.005970385558612E-5
 21
0.8534489614827194
 31
0.0
210
0.0
220
0.0
230
1.0
 40
0.7174342186
 41
3.534193645557468
 42
5.104989972352355
  0
ELLIPSE
  5
219
330
1F
100
AcDbEntity
  8
0
  6
Continuous
 62
     7
370
    15
100
AcDbEllipse
 10
223.3302903132
 20
45.5020430359
 30
0.0
 11
0.2600075789209199
 21
0.9705436209909308
 31
0.0
210
0.0
220
0.0
230
1.0
 40
0.5176380889
 41
3.619174351347717
 42
5.1899706781426
  0
ARC
  5
21A
330
1F
100
AcDbEntity
  8
0
  6
Continuous
 62
     7
370
    15
100
AcDbCircle
 10
271.2506570912
 20
35.8047088234
 30
0.0
 40
1.146027054575731
100
AcDbArc
 50
92.4233280725
 51
166.8164320492
  0
LWPOLYLINE
  5
21B
330
1F
100
AcDbEntity
  8
0
  6
Continuous
 62
     7
370
    15
100
AcDbPolyline
 90
       10
 70
   128
 43
0.0
 10
272.9946957189
 20
35.4108891224
 10
273.1634823139
 20
35.535241783
 10
273.3761183969
 20
35.806802221
 10
273.4329834343
 20
36.1030040605
 10
273.3285110799
 20
36.3948530015
 10
273.0729278158
 20
36.6537808363
 10
272.6912519126
 20
36.8544419043
 10
272.2208444669
 20
36.9771941022
 10
271.7077522371
 20
37.0100215895
 10
271.2022002655
 20
36.9497109831
  0
LWPOLYLINE
  5
21C
330
1F
100
AcDbEntity
  8
0
  6
Continuous
 62
     7
370
    15
100
AcDbPolyline
 90
       18
 70
   128
 43
0.0
 10
271.3610863278
 20
36.7066631076
 10
270.9841273406
 20
36.5745387338
 10
270.7153012684
 20
36.3727252558
 10
270.590914562
 20
36.1284787021
 10
270.6277663352
 20
35.8747859233
 10
270.8208795519
 20
35.6459095349
 10
271.1441732021
 20
35.4727605613
 10
271.5539846869
 20
35.378723731
 10
271.9949666945
 20
35.3764992389
 10
272.4075621611
 20
35.4663875149
 10
272.7360477828
 20
35.6362486495
 10
272.936059756
 20
35.863141955
 10
272.9805853556
 20
36.1164242333
 10
272.8636111525
 20
36.3618883093
 10
272.6009351611
 20
36.5663828993
 10
272.2280332296
 20
36.7022898758
 10
271.7952678301
 20
36.7512542485
 10
271.3610863278
 20
36.7066631076
  0
SPLINE
  5
21D
330
1F
100
AcDbEntity
  8
0
  6
Continuous
 62
     7
370
    15
100
AcDbSpline
210
0.0
220
0.0
230
1.0
 70
     8
 71
     3
 72
    10
 73
     6
 74
     0
 42
0.000000001
 43
0.00000001
 40
0.0
 40
0.0
 40
0.0
 40
0.0
 40
0.4391222274230553
 40
0.7513714712594673
 40
1.0
 40
1.0
 40
1.0
 40
1.0
 10
270.8915374375602
 20
36.44397234330337
 30
0.0
 10
270.86475443199
 20
36.29387851830801
 30
0.0
 10
270.8189266759728
 20
36.03705658794127
 30
0.0
 10
270.7523084874351
 20
35.84536471759862
 30
0.0
 10
270.719150906169
 20
35.80436144782782
 30
0.0
 10
270.7044526580838
 20
35.78618532615727
 30
0.0
  0
LINE
  5
21E
330
1F
100
AcDbEntity
  8
0
  6
Continuous
 62
     7
370
    15
100
AcDbLine
 10
270.7044526581
 20
35.7861853262
 30
0.0
 11
271.0745158259
 21
35.4935091001
 31
0.0
  0
LINE
  5
21F
330
1F
100
AcDbEntity
  8
0
  6
Continuous
 62
     7
370
    15
100
AcDbLine
 10
272.5609417364
 20
35.5274798339
 30
0.0
 11
272.6780275505
 21
35.5991208177
 31
0.0
  0
SPLINE
  5
220
330
1F
100
AcDbEntity
  8
0
  6
Continuous
 62
     7
370
    15
100
AcDbSpline
210
0.0
220
0.0
230
1.0
 70
     8
 71
     3
 72
    10
 73
     6
 74
     0
 42
0.000000001
 43
0.00000001
 40
0.0
 40
0.0
 40
0.0
 40
0.0
 40
0.4391222274230458
 40
0.7513714712594628
 40
1.0
 40
1.0
 40
1.0
 40
1.0
 10
272.6780275504719
 20
35.59912081770632
 30
0.0
 10
272.7048105560422
 20
35.63736420959827
 30
0.0
 10
272.7506383120595
 20
35.70280155673605
 30
0.0
 10
272.817256500597
 20
35.97956660360969
 30
0.0
 10
272.8504140818632
 20
36.17172635798097
 30
0.0
 10
272.8651123299484
 20
36.25690783485242
 30
0.0
  0
SPLINE
  5
221
330
1F
100
AcDbEntity
  8
0
  6
Continuous
 62
     7
370
    15
100
AcDbSpline
210
0.0
220
0.0
230
1.0
 70
     8
 71
     3
 72
    10
 73
     6
 74
     0
 42
0.000000001
 43
0.00000001
 40
0.0
 40
0.0
 40
0.0
 40
0.0
 40
0.4391222274230494
 40
0.7513714712594813
 40
1.0
 40
1.0
 40
1.0
 40
1.0
 10
272.8651123299484
 20
36.25690783485242
 30
0.0
 10
272.7372356133623
 20
36.26145697431046
 30
0.0
 10
272.5184288423067
 20
36.26924089731433
 30
0.0
 10
272.2003571758261
 20
36.46219720004294
 30
0.0
 10
272.0420447485249
 20
36.6126431926653
 30
0.0
 10
271.9718672734925
 20
36.67933359765095
 30
0.0
  0
SPLINE
  5
222
330
1F
100
AcDbEntity
  8
0
  6
Continuous
 62
     7
370
    15
100
AcDbSpline
210
0.0
220
0.0
230
1.0
 70
     8
 71
     3
 72
    11
 73
     7
 74
     0
 42
0.000000001
 43
0.00000001
 40
0.0
 40
0.0
 40
0.0
 40
0.0
 40
0.1285561766307404
 40
0.4801535797842323
 40
0.8150691831754012
 40
1.0
 40
1.0
 40
1.0
 40
1.0
 10
271.9718672734925
 20
36.67933359765095
 30
0.0
 10
271.9283592072578
 20
36.65185821435372
 30
0.0
 10
271.7658578455996
 20
36.54923845704721
 30
0.0
 10
271.4611313971537
 20
36.41805511659113
 30
0.0
 10
271.1311769322061
 20
36.39908431393032
 30
0.0
 10
270.9544179126369
 20
36.43219389828368
 30
0.0
 10
270.8915374375602
 20
36.44397234330337
 30
0.0
  0
LINE
  5
223
330
1F
100
AcDbEntity
  8
0
  6
Continuous
 62
     7
370
    15
100
AcDbLine
 10
270.8915374376
 20
35.6382233781
 30
0.0
 11
270.8915374376
 21
36.4439723433
 31
0.0
  0
LINE
  5
224
330
1F
100
AcDbEntity
  8
0
  6
Continuous
 62
     7
370
    15
100
AcDbLine
 10
271.9718672735
 20
35.3742609254
 30
0.0
 11
271.9718672735
 21
36.6793335977
 31
0.0
  0
ARC
  5
225
330
1F
100
AcDbEntity
  8
0
  6
Continuous
 62
     7
370
    15
100
AcDbCircle
 10
275.0295509995
 20
31.1255688192
 30
0.0
 40
1.250163546834968
100
AcDbArc
 50
309.6406602717
 51
24.5204988916
  0
ARC
  5
226
330
1F
100
AcDbEntity
  8
0
  6
Continuous
 62
     7
370
     0
100
AcDbCircle
 10
240.0749489857
 20
43.8065199542
 30
0.0
 40
4.00192012344328
100
AcDbArc
 50
174.1926578304
 51
234.4951617762
  0
LWPOLYLINE
  5
227
330
1F
100
AcDbEntity
  8
0
  6
Continuous
 62
     7
370
     0
100
AcDbPolyline
 90
       18
 70
   128
 43
0.0
 10
245.7500968937
 20
54.4054727274
 10
245.2331291961
 20
54.6351494429
 10
244.5788490879
 20
54.7670587425
 10
243.869516863
 20
54.7570769338
 10
243.1189388663
 20
54.6053983011
 10
242.3417242447
 20
54.3149750967
 10
241.5530005969
 20
53.8914600778
 10
240.7681195314
 20
53.3430964825
 10
240.0023578653
 20
52.6805575845
 10
239.2706202785
 20
51.9167389497
 10
238.5871492108
 20
51.0665074391
 10
237.9652476491
 20
50.1464118419
 10
237.4170201998
 20
49.1743607723
 10
236.9531374866
 20
48.1692740987
 10
236.5826284589
 20
47.1507146899
 10
236.3127046536
 20
46.1385076462
 10
236.1486198303
 20
45.1523544263
 10
236.0935677136
 20
44.211449381
  0
LWPOLYLINE
  5
228
330
1F
100
AcDbEntity
  8
0
  6
Continuous
 62
     7
370
     0
100
AcDbPolyline
 90
       37
 70
   128
 43
0.0
 10
276.0451008507
 20
31.7618891761
 10
275.4311618308
 20
31.3454442755
 10
274.8358770374
 20
30.8176019456
 10
274.2773338977
 20
30.1944004085
 10
273.7725034623
 20
29.4947753274
 10
273.3367247486
 20
28.7399844566
 10
272.9832386722
 20
27.9529617346
 10
272.7227857287
 20
27.1576204486
 10
272.5632796491
 20
26.3781266411
 10
272.5095669447
 20
25.6381648371
 10
272.5632796491
 20
24.9602184014
 10
272.7227857287
 20
24.3648863935
 10
272.9832386722
 20
23.8702576752
 10
273.3367247486
 20
23.4913612898
 10
273.7725034623
 20
23.2397098122
 10
274.2773338977
 20
23.1229495453
 10
274.8358770374
 20
23.1446281906
 10
275.4311618308
 20
23.3040870535
 10
276.0451008507
 20
23.5964810572
 10
276.6590398705
 20
24.0129259578
 10
277.2543246639
 20
24.5407682877
 10
277.8128678036
 20
25.1639698248
 10
278.317698239
 20
25.8635949058
 10
278.7534769528
 20
26.6183857767
 10
279.1069630291
 20
27.4054084987
 10
279.3674159726
 20
28.2007497846
 10
279.5269220523
 20
28.9802435921
 10
279.5806347566
 20
29.7202053962
 10
279.5269220523
 20
30.3981518319
 10
279.3674159726
 20
30.9934838398
 10
279.1069630291
 20
31.4881125581
 10
278.7534769528
 20
31.8670089435
 10
278.317698239
 20
32.1186604211
 10
277.8128678036
 20
32.235420688
 10
277.2543246639
 20
32.2137420427
 10
276.6590398705
 20
32.0542831797
 10
276.0451008507
 20
31.7618891761
  0
LWPOLYLINE
  5
229
330
1F
100
AcDbEntity
  8
0
  6
Continuous
 62
     7
370
     0
100
AcDbPolyline
 90
       19
 70
   128
 43
0.0
 10
273.4358581572
 20
23.9894749258
 10
273.5478610487
 20
23.9303240851
 10
274.0164505751
 20
23.7922078401
 10
274.5420835169
 20
23.7934083941
 10
275.1068600747
 20
23.9338848636
 10
275.6915474601
 20
24.2088534911
 10
276.2762348455
 20
24.6089505496
 10
276.8410114032
 20
25.1205512138
 10
277.366644345
 20
25.7262335365
 10
277.8352338714
 20
26.4053717328
 10
278.2308227282
 20
27.1348385658
 10
278.5399396112
 20
27.8897929175
 10
278.7520579158
 20
28.644525723
 10
278.8599542075
 20
29.3733354616
 10
278.8599542075
 20
30.0514033919
 10
278.7520579158
 20
30.6556387238
 10
278.5399396112
 20
31.1654649478
 10
278.2308227282
 20
31.5635205431
 10
277.9343986359
 20
31.7845035742
  0
LWPOLYLINE
  5
22A
330
1F
100
AcDbEntity
  8
0
  6
Continuous
 62
     7
370
     0
100
AcDbPolyline
 90
       35
 70
   128
 43
0.0
 10
229.9063833782
 20
41.8642760596
 10
229.9599684079
 20
43.1350534958
 10
230.1201909448
 20
44.4550693332
 10
230.3854586253
 20
45.8112046615
 10
230.7531351001
 20
47.1899815985
 10
231.2195662351
 20
48.5776972394
 10
231.7801164283
 20
49.9605598429
 10
232.4292146799
 20
51.3248258991
 10
233.16040996
 20
52.656936719
 10
233.9664353212
 20
53.9436531868
 10
234.8392801215
 20
55.1721873361
 10
235.770269637
 20
56.3303294427
 10
236.7501512758
 20
57.40656937
 10
237.7691865338
 20
58.390210962
 10
238.8172477808
 20
59.2714783467
 10
239.8839189133
 20
60.0416130929
 10
240.9585988744
 20
60.6929612555
 10
242.0306070118
 20
61.2190494438
 10
243.089289227
 20
61.614649157
 10
244.1241238605
 20
61.8758287475
 10
245.1248262608
 20
61.9999924952
 10
246.0814509979
 20
61.9859064049
 10
246.9844907053
 20
61.8337104706
 10
247.8249705687
 20
61.5449172837
 10
248.5945375217
 20
61.1223970008
 10
249.2855432621
 20
60.5703488183
 10
249.8911202644
 20
59.894259239
 10
250.4052500323
 20
59.1008475448
 10
250.8228229133
 20
58.1979990178
 10
251.1396888803
 20
57.194686572
 10
251.3526987771
 20
56.1008815775
 10
251.4597356155
 20
54.9274547596
 10
251.4597356155
 20
53.6860681612
 10
251.3526987771
 20
52.3890592401
 10
251.181545319
 20
51.2699642926
  0
LWPOLYLINE
  5
22B
330
1F
100
AcDbEntity
  8
0
  6
Continuous
 62
     7
370
     0
100
AcDbPolyline
 90
       20
 70
   128
 43
0.0
 10
243.1821954579
 20
37.4131824945
 10
243.089289227
 20
37.3345620743
 10
242.0306070118
 20
36.5078333198
 10
240.9585988744
 20
35.7962072582
 10
239.8839189133
 20
35.2067563488
 10
238.8172477808
 20
34.7453388197
 10
237.7691865338
 20
34.4165404456
 10
236.7501512758
 20
34.2236289723
 10
235.770269637
 20
34.1685216409
 10
234.8392801215
 20
34.2517661327
 10
233.9664353212
 20
34.4725351265
 10
233.16040996
 20
34.828634521
 10
232.4292146799
 20
35.3165252403
 10
231.7801164283
 20
35.9313584073
 10
231.2195662351
 20
36.6670235337
 10
230.7531351001
 20
37.5162092491
 10
230.3854586253
 20
38.4704759642
 10
230.1201909448
 20
39.5203397477
 10
229.9599684079
 20
40.6553665817
 10
229.9063833782
 20
41.8642760596
  0
LWPOLYLINE
  5
22C
330
1F
100
AcDbEntity
  8
0
  6
Continuous
 62
     7
370
     0
100
AcDbPolyline
 90
       23
 70
   128
 43
0.0
 10
229.1992765971
 20
41.8642760596
 10
229.2529039677
 20
43.1557856583
 10
229.4132696188
 20
44.4967741579
 10
229.6788291415
 20
45.8743271059
 10
230.0470250523
 20
47.2751779145
 10
230.5143114235
 20
48.6858356246
 10
231.0761880317
 20
50.0927148312
 10
231.7272436981
 20
51.4822665186
 10
232.4612084007
 20
52.8411085444
 10
233.2710136583
 20
54.156154517
 10
234.1488606034
 20
55.4147398249
 10
235.0862950902
 20
56.6047436035
 10
236.0742891121
 20
57.714705466
 10
237.1033277465
 20
58.7339358728
 10
238.1635007889
 20
59.6526190779
 10
239.2445981933
 20
60.4619076599
 10
240.3362084007
 20
61.1540077274
 10
241.4278186082
 20
61.7222539782
 10
242.5089160126
 20
62.1611738905
 10
243.569089055
 20
62.4665404255
 10
244.5981276894
 20
62.6354127365
 10
245.5861217113
 20
62.6661644909
 10
246.2447423427
 20
62.6057981456
  0
ARC
  5
22D
330
1F
100
AcDbEntity
  8
0
  6
Continuous
 62
     7
370
     0
100
AcDbCircle
 10
238.5169336713
 20
41.4020629568
 30
0.0
 40
9.329114336612447
100
AcDbArc
 50
177.1601048329
 51
215.2720751698
  0
LWPOLYLINE
  5
22E
330
1F
100
AcDbEntity
  8
0
  6
Continuous
 62
     7
370
     0
100
AcDbPolyline
 90
       24
 70
   128
 43
0.0
 10
233.9722473701
 20
44.211449381
 10
234.0273980706
 20
45.2352479563
 10
234.1919445993
 20
46.3059114307
 10
234.4631851065
 20
47.4058595397
 10
234.8366658309
 20
48.5170311656
 10
235.306254229
 20
49.6211809011
 10
235.8642396725
 20
50.7001786381
 10
236.5014600558
 20
51.7363072636
 10
237.2074522378
 20
52.7125535741
 10
237.9706238464
 20
53.6128876323
 10
238.7784436249
 20
54.4225259778
 10
239.6176471948
 20
55.1281743713
 10
240.4744548568
 20
55.7182460858
 10
241.3347978526
 20
56.18305216
 10
242.1845493742
 20
56.5149604909
 10
243.009756525
 20
56.7085211531
 10
243.7968694264
 20
56.7605558858
 10
244.5329637064
 20
56.67021028
 10
245.2059527171
 20
56.4389678082
 10
245.8047859977
 20
56.0706254654
 10
246.3196307222
 20
55.5712314226
 10
246.7420331546
 20
54.9489857161
 10
247.0650574585
 20
54.2141056034
 10
247.2513825821
 20
53.5387989471
  0
LWPOLYLINE
  5
22F
330
1F
100
AcDbEntity
  8
0
  6
Continuous
 62
     7
370
     0
100
AcDbPolyline
 90
       12
 70
   128
 43
0.0
 10
239.252032721
 20
39.682017149
 10
238.7784436249
 20
39.5494888639
 10
237.9706238464
 20
39.426438346
 10
237.2074522378
 20
39.4456332205
 10
236.5014600558
 20
39.606758308
 10
235.8642396725
 20
39.9071679391
 10
235.306254229
 20
40.341929396
 10
234.8366658309
 20
40.9039039075
 10
234.4631851065
 20
41.5838638678
 10
234.1919445993
 20
42.3706443529
 10
234.0273980706
 20
43.2513264493
 10
233.9722473701
 20
44.211449381
  0
LWPOLYLINE
  5
230
330
1F
100
AcDbEntity
  8
0
  6
Continuous
 62
     7
370
     0
100
AcDbPolyline
 90
       18
 70
   128
 43
0.0
 10
227.1004300776
 20
48.7434451095
 10
227.4683439039
 20
50.0880060368
 10
227.9418173979
 20
51.4399333632
 10
228.515110271
 20
52.782836619
 10
229.1812720464
 20
54.1004347403
 10
229.9322263253
 20
55.376753457
 10
230.758868703
 20
56.5963189616
 10
231.651177149
 20
57.74434551
 10
232.5983335119
 20
58.8069146807
 10
233.588854676
 20
59.7711441185
 10
234.6107317806
 20
60.6253437178
 10
235.6515758123
 20
61.3591573503
 10
236.6987678067
 20
61.9636884209
 10
237.7396118384
 20
62.4316077277
 10
238.761488943
 20
62.7572423199
 10
239.7520101071
 20
62.9366442754
 10
240.69916647
 20
62.9676385641
 10
240.7196771976
 20
62.9666331926
  0
LWPOLYLINE
  5
231
330
1F
100
AcDbEntity
  8
0
  6
Continuous
 62
     7
370
     0
100
AcDbPolyline
 90
       20
 70
   128
 43
0.0
 10
221.5143021769
 20
50.4225222608
 10
221.8751602144
 20
51.8329335447
 10
222.3371093788
 20
53.2546476487
 10
222.8956286597
 20
54.6737505228
 10
223.5452519335
 20
56.0763536721
 10
224.2796214584
 20
57.4487300817
 10
225.0915500973
 20
58.7774485603
 10
225.9730916561
 20
60.0495051881
 10
226.9156186523
 20
61.2524505849
 10
227.9099067505
 20
62.3745117486
 10
228.9462250386
 20
63.4047072764
 10
230.0144312634
 20
64.3329548371
 10
231.10407109
 20
65.1501698453
 10
232.2044804171
 20
65.8483543703
 10
233.3048897442
 20
66.4206754108
 10
234.3945295708
 20
66.8615317677
 10
235.4627357956
 20
67.166608862
 10
236.4990540837
 20
67.3329209614
 10
237.4933421819
 20
67.3588404003
 10
238.1769423895
 20
67.2904967691
  0
LWPOLYLINE
  5
232
330
1F
100
AcDbEntity
  8
0
  6
Continuous
 62
     7
370
     0
100
AcDbPolyline
 90
       16
 70
   128
 43
0.0
 10
227.4937028292
 20
48.6876645706
 10
227.8591485882
 20
50.007897899
 10
228.3276116572
 20
51.3347050708
 10
228.8934548486
 20
52.6521201299
 10
229.5498691644
 20
53.9442901391
 10
230.288955731
 20
55.195665944
 10
231.1018208493
 20
56.3911892818
 10
231.9786830162
 20
57.5164739829
 10
232.9089906283
 20
58.5579790848
 10
233.8815489539
 20
59.5031717756
 10
234.8846548429
 20
60.3406782061
 10
235.9062375552
 20
61.0604203549
 10
236.9340040124
 20
61.6537373015
 10
237.9555867247
 20
62.1134894461
 10
238.9586926137
 20
62.4341444229
 10
239.8546119246
 20
62.6029209442
  0
LINE
  5
233
330
1F
100
AcDbEntity
  8
0
  6
Continuous
 62
     7
370
     0
100
AcDbLine
 10
227.5030254801
 20
42.1091291831
 30
0.0
 11
227.9088067214
 21
42.3433817075
 31
0.0
  0
LWPOLYLINE
  5
234
330
1F
100
AcDbEntity
  8
0
  6
Continuous
 62
     7
370
     0
100
AcDbPolyline
 90
        3
 70
   128
 43
0.0
 10
228.4735443336
 20
42.0827155002
 10
228.4640542222
 20
42.0859947991
 10
227.9088067214
 20
42.3433817075
  0
ARC
  5
235
330
1F
100
AcDbEntity
  8
0
  6
Continuous
 62
     7
370
     0
100
AcDbCircle
 10
227.2208175519
 20
43.3999833027
 30
0.0
 40
1.260847345344049
100
AcDbArc
 50
303.0695173616
 51
345.5982002281
  0
LINE
  5
236
330
1F
100
AcDbEntity
  8
0
  6
Continuous
 62
     7
370
     0
100
AcDbLine
 10
224.0152145537
 20
45.8974637607
 30
0.0
 11
228.4002050593
 21
43.3660626243
 31
0.0
  0
LINE
  5
237
330
1F
100
AcDbEntity
  8
0
  6
Continuous
 62
     7
370
     0
100
AcDbLine
 10
223.8959757382
 20
45.8286062806
 30
0.0
 11
224.0152145537
 21
45.8974637607
 31
0.0
  0
LINE
  5
238
330
1F
100
AcDbEntity
  8
0
  6
Continuous
 62
     7
370
     0
100
AcDbLine
 10
223.63964953
 20
48.8598730677
 30
0.0
 11
223.6457518509
 21
49.2209316059
 31
0.0
  0
ARC
  5
239
330
1F
100
AcDbEntity
  8
0
  6
Continuous
 62
     7
370
     0
100
AcDbCircle
 10
232.0244339206
 20
48.7656775951
 30
0.0
 40
8.385313474451797
100
AcDbArc
 50
179.3563607893
 51
193.3440494375
  0
LWPOLYLINE
  5
23A
330
1F
100
AcDbEntity
  8
0
  6
Continuous
 62
     7
370
     0
100
AcDbPolyline
 90
       16
 70
   128
 43
0.0
 10
203.7941336317
 20
64.1587525153
 10
203.8499033321
 20
65.0092373202
 10
204.015839198
 20
65.9031706919
 10
204.2878553377
 20
66.8185410242
 10
204.6592538111
 20
67.7328088615
 10
205.1208895553
 20
68.6234618953
 10
205.661395566
 20
69.4685692921
 10
206.2674627914
 20
70.247321703
 10
206.9241678452
 20
70.9405436592
 10
207.6153404692
 20
71.5311657353
 10
208.3239616998
 20
72.0046448557
 10
209.0325829303
 20
72.3493223931
 10
209.7237555544
 20
72.5567112426
 10
210.3804606081
 20
72.6217048024
 10
210.9865278336
 20
72.5427027154
 10
211.00272667
 20
72.5384001632
  0
ARC
  5
23B
330
1F
100
AcDbEntity
  8
0
  6
Continuous
 62
     7
370
     0
100
AcDbCircle
 10
207.2749555409
 20
63.9026590616
 30
0.0
 40
3.490229937986626
100
AcDbArc
 50
175.7921763123
 51
223.0418762325
  0
LWPOLYLINE
  5
23C
330
1F
100
AcDbEntity
  8
0
  6
Continuous
 62
     7
370
     0
100
AcDbPolyline
 90
        3
 70
   128
 43
0.0
 10
227.9651791743
 20
41.0117951626
 10
227.8664893302
 20
41.2014357382
 10
227.4937028292
 20
42.1145110349
  0
LWPOLYLINE
  5
23D
330
1F
100
AcDbEntity
  8
0
  6
Continuous
 62
     7
370
     0
100
AcDbPolyline
 90
        3
 70
   128
 43
0.0
 10
227.9023453501
 20
40.5020583647
 10
227.4683439039
 20
41.2505149085
 10
227.1004300776
 20
42.1702915738
  0
LINE
  5
23E
330
1F
100
AcDbEntity
  8
0
  6
Continuous
 62
     7
370
     0
100
AcDbLine
 10
227.9088067214
 20
42.3433817075
 30
0.0
 11
223.6838437038
 21
44.7824009416
 31
0.0
  0
ARC
  5
23F
330
1F
100
AcDbEntity
  8
0
  6
Continuous
 62
     7
370
     0
100
AcDbCircle
 10
228.5864136463
 20
45.1924233828
 30
0.0
 40
7.344565803268698
100
AcDbArc
 50
195.6550047259
 51
217.6938936044
  0
ARC
  5
240
330
1F
100
AcDbEntity
  8
0
  6
Continuous
 62
     7
370
     0
100
AcDbCircle
 10
273.8998522197
 20
30.3241045202
 30
0.0
 40
0.5783327258849609
100
AcDbArc
 50
284.0863317357
 51
349.7267517918
  0
OLE2FRAME
  5
241
330
1F
100
AcDbEntity
  8
0
100
AcDbOle2Frame
 70
     2
  3
Paintbrush-Bild
 10
13.8511154363
 20
38.264191557
 30
0.0
 11
51.6290888628
 21
31.9806341108
 31
0.0
 71
     2
 72
     0
 73
     1
 90
    12928
310
80552BED0767C5B32B40DDAF6807D121434000000000000000006FFBDDFB85D0
310
4940DDAF6807D121434000000000000000006FFBDDFB85D04940416F4BD60AFB
310
3F4000000000000000002BED0767C5B32B40416F4BD60AFB3F40000000000000
310
0000000000000100000000010000010000000100000000000100000000320000
310
D0CF11E0A1B11AE1000000000000000000000000000000003E000300FEFF0900
310
0600000000000000000000000100000001000000000000000010000002000000
310
01000000FEFFFFFF0000000000000000FFFFFFFFFFFFFFFFFFFFFFFFFFFFFFFF
310
FFFFFFFFFFFFFFFFFFFFFFFFFFFFFFFFFFFFFFFFFFFFFFFFFFFFFFFFFFFFFFFF
310
FFFFFFFFFFFFFFFFFFFFFFFFFFFFFFFFFFFFFFFFFFFFFFFFFFFFFFFFFFFFFFFF
310
FFFFFFFFFFFFFFFFFFFFFFFFFFFFFFFFFFFFFFFFFFFFFFFFFFFFFFFFFFFFFFFF
310
FFFFFFFFFFFFFFFFFFFFFFFFFFFFFFFFFFFFFFFFFFFFFFFFFFFFFFFFFFFFFFFF
310
FFFFFFFFFFFFFFFFFFFFFFFFFFFFFFFFFFFFFFFFFFFFFFFFFFFFFFFFFFFFFFFF
310
FFFFFFFFFFFFFFFFFFFFFFFFFFFFFFFFFFFFFFFFFFFFFFFFFFFFFFFFFFFFFFFF
310
FFFFFFFFFFFFFFFFFFFFFFFFFFFFFFFFFFFFFFFFFFFFFFFFFFFFFFFFFFFFFFFF
310
FFFFFFFFFFFFFFFFFFFFFFFFFFFFFFFFFFFFFFFFFFFFFFFFFFFFFFFFFFFFFFFF
310
FFFFFFFFFFFFFFFFFFFFFFFFFFFFFFFFFFFFFFFFFFFFFFFFFFFFFFFFFFFFFFFF
310
FFFFFFFFFFFFFFFFFFFFFFFFFFFFFFFFFFFFFFFFFFFFFFFFFFFFFFFFFFFFFFFF
310
FFFFFFFFFFFFFFFFFFFFFFFFFFFFFFFFFFFFFFFFFFFFFFFFFFFFFFFFFFFFFFFF
310
FFFFFFFFFFFFFFFFFFFFFFFFFFFFFFFFFFFFFFFFFFFFFFFFFFFFFFFFFFFFFFFF
310
FFFFFFFFFFFFFFFFFFFFFFFFFFFFFFFFFFFFFFFFFFFFFFFFFFFFFFFFFFFFFFFF
310
FDFFFFFFFEFFFFFFFEFFFFFFFEFFFFFF05000000060000000700000008000000
310
090000000A0000000B0000000C0000000D0000000E0000000F00000010000000
310
11000000120000001300000014000000150000001600000017000000FEFFFFFF
310
FFFFFFFFFFFFFFFFFFFFFFFFFFFFFFFFFFFFFFFFFFFFFFFFFFFFFFFFFFFFFFFF
310
FFFFFFFFFFFFFFFFFFFFFFFFFFFFFFFFFFFFFFFFFFFFFFFFFFFFFFFFFFFFFFFF
310
FFFFFFFFFFFFFFFFFFFFFFFFFFFFFFFFFFFFFFFFFFFFFFFFFFFFFFFFFFFFFFFF
310
FFFFFFFFFFFFFFFFFFFFFFFFFFFFFFFFFFFFFFFFFFFFFFFFFFFFFFFFFFFFFFFF
310
FFFFFFFFFFFFFFFFFFFFFFFFFFFFFFFFFFFFFFFFFFFFFFFFFFFFFFFFFFFFFFFF
310
FFFFFFFFFFFFFFFFFFFFFFFFFFFFFFFFFFFFFFFFFFFFFFFFFFFFFFFFFFFFFFFF
310
FFFFFFFFFFFFFFFFFFFFFFFFFFFFFFFFFFFFFFFFFFFFFFFFFFFFFFFFFFFFFFFF
310
FFFFFFFFFFFFFFFFFFFFFFFFFFFFFFFFFFFFFFFFFFFFFFFFFFFFFFFFFFFFFFFF
310
FFFFFFFFFFFFFFFFFFFFFFFFFFFFFFFFFFFFFFFFFFFFFFFFFFFFFFFFFFFFFFFF
310
FFFFFFFFFFFFFFFFFFFFFFFFFFFFFFFFFFFFFFFFFFFFFFFFFFFFFFFFFFFFFFFF
310
FFFFFFFFFFFFFFFFFFFFFFFFFFFFFFFFFFFFFFFFFFFFFFFFFFFFFFFFFFFFFFFF
310
FFFFFFFFFFFFFFFFFFFFFFFFFFFFFFFFFFFFFFFFFFFFFFFFFFFFFFFFFFFFFFFF
310
FFFFFFFFFFFFFFFFFFFFFFFFFFFFFFFFFFFFFFFFFFFFFFFFFFFFFFFFFFFFFFFF
310
52006F006F007400200045006E00740072007900000000000000000000000000
310
0000000000000000000000000000000000000000000000000000000000000000
310
16000500FFFFFFFFFFFFFFFF020000000A00030000000000C000000000000046
310
000000000000000000000000908407DC4F25D20103000000C000000000000000
310
01004F006C006500000000000000000000000000000000000000000000000000
310
0000000000000000000000000000000000000000000000000000000000000000
310
0A000200FFFFFFFFFFFFFFFFFFFFFFFF00000000000000000000000000000000
310
0000000000000000000000000000000000000000000000001400000000000000
310
010043006F006D0070004F0062006A0000000000000000000000000000000000
310
0000000000000000000000000000000000000000000000000000000000000000
310
120002010100000003000000FFFFFFFF00000000000000000000000000000000
310
0000000000000000000000000000000000000000010000004D00000000000000
310
01004F006C006500310030004E00610074006900760065000000000000000000
310
0000000000000000000000000000000000000000000000000000000000000000
310
1A000200FFFFFFFFFFFFFFFFFFFFFFFF00000000000000000000000000000000
310
0000000000000000000000000000000000000000040000002426000000000000
310
FEFFFFFF02000000FEFFFFFFFFFFFFFFFFFFFFFFFFFFFFFFFFFFFFFFFFFFFFFF
310
FFFFFFFFFFFFFFFFFFFFFFFFFFFFFFFFFFFFFFFFFFFFFFFFFFFFFFFFFFFFFFFF
310
FFFFFFFFFFFFFFFFFFFFFFFFFFFFFFFFFFFFFFFFFFFFFFFFFFFFFFFFFFFFFFFF
310
FFFFFFFFFFFFFFFFFFFFFFFFFFFFFFFFFFFFFFFFFFFFFFFFFFFFFFFFFFFFFFFF
310
FFFFFFFFFFFFFFFFFFFFFFFFFFFFFFFFFFFFFFFFFFFFFFFFFFFFFFFFFFFFFFFF
310
FFFFFFFFFFFFFFFFFFFFFFFFFFFFFFFFFFFFFFFFFFFFFFFFFFFFFFFFFFFFFFFF
310
FFFFFFFFFFFFFFFFFFFFFFFFFFFFFFFFFFFFFFFFFFFFFFFFFFFFFFFFFFFFFFFF
310
FFFFFFFFFFFFFFFFFFFFFFFFFFFFFFFFFFFFFFFFFFFFFFFFFFFFFFFFFFFFFFFF
310
FFFFFFFFFFFFFFFFFFFFFFFFFFFFFFFFFFFFFFFFFFFFFFFFFFFFFFFFFFFFFFFF
310
FFFFFFFFFFFFFFFFFFFFFFFFFFFFFFFFFFFFFFFFFFFFFFFFFFFFFFFFFFFFFFFF
310
FFFFFFFFFFFFFFFFFFFFFFFFFFFFFFFFFFFFFFFFFFFFFFFFFFFFFFFFFFFFFFFF
310
FFFFFFFFFFFFFFFFFFFFFFFFFFFFFFFFFFFFFFFFFFFFFFFFFFFFFFFFFFFFFFFF
310
FFFFFFFFFFFFFFFFFFFFFFFFFFFFFFFFFFFFFFFFFFFFFFFFFFFFFFFFFFFFFFFF
310
FFFFFFFFFFFFFFFFFFFFFFFFFFFFFFFFFFFFFFFFFFFFFFFFFFFFFFFFFFFFFFFF
310
FFFFFFFFFFFFFFFFFFFFFFFFFFFFFFFFFFFFFFFFFFFFFFFFFFFFFFFFFFFFFFFF
310
FFFFFFFFFFFFFFFFFFFFFFFFFFFFFFFFFFFFFFFFFFFFFFFFFFFFFFFFFFFFFFFF
310
0100000200000000000000000000000000000000000000000000000000000000
310
0000000000000000000000000000000000000000000000000000000000000000
310
0100FEFF030A0000FFFFFFFF0A00030000000000C00000000000004607000000
310
5042727573680007000000504272757368000700000050427275736800F439B2
310
7100000000000000000000000000000000000000000000000000000000000000
310
0000000000000000000000000000000000000000000000000000000000000000
310
0000000000000000000000000000000000000000000000000000000000000000
310
0000000000000000000000000000000000000000000000000000000000000000
310
0000000000000000000000000000000000000000000000000000000000000000
310
0000000000000000000000000000000000000000000000000000000000000000
310
0000000000000000000000000000000000000000000000000000000000000000
310
0000000000000000000000000000000000000000000000000000000000000000
310
0000000000000000000000000000000000000000000000000000000000000000
310
0000000000000000000000000000000000000000000000000000000000000000
310
0000000000000000000000000000000000000000000000000000000000000000
310
0000000000000000000000000000000000000000000000000000000000000000
310
20260000424D0E260000000000003E00000028000000B40200006E0000000100
310
01000000000000000000130B0000130B00000200000002000000000000FFFFFF
310
FFFFFFFFFFFFFFFFFFFFFFFFFFFFFFFFFFFFFFFFFFFFFFFFFFFFFFFFFFFFFFFF
310
FFFFFFFFFFFFFFFFFFFFFFFFFFFFFFFFFFFFFFFFFFFFFFFFFFFFFFFFFFFFFFFF
310
FFFFFFFFFFFFFFFFFFFFFFFFFFFFFFFFFFFFFFFFFFFFFFFFF000FFFFFFFFFFFF
310
FFFFFFFFFFFFFFFFFFFFFFFFFFFFFFFFFFFFFFFFFFFFFFFFFFFFFFFFFFFFFFFF
310
FFFFFFFFFFFFFFFFFFFFFFFFFFFFFFFFFFFFFFFFFFFFFFFFFFFFFFFFFFFFFFFF
310
FFFFFFFFFFFFFFFFFFFFFFFFFFFFFFFFF000FFFFFFFFFFFFFFFFFFFFFFFFFFFF
310
FFFFFFFFFFFFFFFFFFFFFFFFFFFFFFFFFFFFFFFFFFFFFFFFFFFFFFFFFFFFFFFF
310
FFFFFFFFFFFFFFFFFFFFFFFFFFFFFFFFFFFFFFFFFFFFFFFFFFFFFFFFFFFFFFFF
310
FFFFFFFFFFFFFFFFF000FFFFFFFFFFFFFFFFFFFFFFFFFFFFFFFFFFFFFFFFFFFF
310
FFFFFFFFFFFFFFFFFFFFFFFFFFFFFFFFFFFFFFFFFFFFFFFFFFFFFFFFFFFFFFFF
310
FFFFFFFFFFFFFFFFFFFFFFFFFFFFFFFFFFFFFFFFFFFFFFFFFFFFFFFFFFFFFFFF
310
F000FFFFFFFFFFFFFFFFFFFFFFFFFFFFFFFFFFFFFFFFFFFFFFFFFFFFFFFFFFFF
310
FFFFFFFFFFFFFFFFFFFFFFFFFFFFFFFFFFFFFFFFFFFFFFFFFFFFFFFFFFFFFFFF
310
FFFFFFFFFFFFFFFFFFFFFFFFFFFFFFFFFFFFFFFFFFFFFFFFF000FFFFFFFFFFFF
310
FFFFFFFFFFFFFFFFFFFFFFFFFFFFFFFFFFFFFFFFFFFFFFFFFFFFFFFFFFFFFFFF
310
FFFFFFFFFFFFFFFFFFFFFFFFFFFFFFFFFFFFFFFFFFFFFFFFFFFFFFFFFFFFFFFF
310
FFFFFFFFFFFFFFFFFFFFFFFFFFFFFFFFF000FFFFFFFFFFFFFFFFFFFFFFFFFFFF
310
FFFFFFFFFFFFFFFFFFFFFFFFFFFFFFFFFFFFFFFFFFFFFFFFFFFFFFFFFFFFFFFF
310
FFFFFFFFFFFFFFFFFFFFFFFFFFFFFFFFFFFFFFFFFFFFFFFFFFFFFFFFFFFFFFFF
310
FFFFFFFFFFFFFFFFF000FFFFFFFFFFFFFFFFFFFFFFFFFFFFFFFFFFFFFFFFFFFF
310
FFFFFFFFFFFFFFFFFFFFFFFFFFFFFFFFFFFFFFFFFFFFFFFFFFFFFFFFFFFFFFFF
310
FFFFFFFFFFFFFFFFFFFFFFFFFFFFFFFFFFFFFFFFFFFFFFFFFFFFFFFFFFFFFFFF
310
F000FFFFFFFFFFFFFFFFFFFFFFFFFFFFFFFFFFFFFFFFFFFFFFFFFFFFFFFFFFFF
310
FFFFFFFFFFFFFFFFFFFFFFFFFFFFFFFFFFFFFFFFFFFFFFFFFFFFFFFFFFFFFFFF
310
FFFFFFFFFFFFFFFFFFFFFFFFFFFFFFFFFFFFFFFFFFFFFFFFF000FFFFFFFFFFFF
310
FFFFFFFFFFFFFFFFFFFFFFFFFFFFFFFFFFFFFFFFFFFFFFFFFFFFFFFFFFFFFFFF
310
FFFFFFFFFFFFFFFFFFFFFFFFFFFFFFFFFFFFFFFFFFFFFFFFFFFFFFFFFFFFFFFF
310
FFFFFFFFFFFFFFFFFFFFFFFFFFFFFFFFF000FFFFFFFFFFFFFFFFFFFFFFFFFFFF
310
FFFFFFFFFFFFFFFFFFFFFFFFFFFFFFFFFFFFFFFFFFFFFFFFFFFFFFFFFFFFFFFF
310
FFFFFFFFFFFFFFFFFFFFFFFFFFFFFFFFFFFFFFFFFFFFFFFFFFFFFFFFFFFFFFFF
310
FFFFFFFFFFFFFFFFF000FFFFFFFFFFFFFFFFFFFFFFFFFFFFFFFFFFFFFFFFFFFF
310
FFFFFFFFFFFFFFFFFFFFFFFFFFFFFFFFFFFFFFFFFFFFFFFFFFFFFFFFFFFFFFFF
310
FFFFFFFFFFFFFFFFFFFFFFFFFFFFFFFFFFFFFFFFFFFFFFFFFFFFFFFFFFFFFFFF
310
F000FFFFFFFFFFFFFFFFFFFFFFFFFFFFFFFFFFFFFFFFFFFFFFFFFFFFFFFFFFFF
310
FFFFFFFFFFFFFFFFFFFFFFFFFFFFFFFFFFFFFFFFFFFFFFFFFFFFFFFFFFFFFFFF
310
FFFFFFFFFFFFFFFFFFFFFFFFFFFFFFFFFFFFFFFFFFFFFFFFF000FFFFFFFFFFFF
310
FFFFFFFFFFFFFFFFFFFFFFFFFFFFFFFFFFFFFFFFFFFFFFFFFFFFFFFFFFFFFFFF
310
FFFFFFFFFFFFFFFFFFFFFFFFFFFFFFFFFFFFFFFFFFFFFFFFFFFFFFFFFFFFFFFF
310
FFFFFFFFFFFFFFFFFFFFFFFFFFFFFFFFF000FFFFFFFFFFFFFFFFFFFFFFFFFFFF
310
FFFFFFFFFFFFFFFFFFFFFFFFFFFFFFFFFFFFFFFFFFFFFFFFFFFFFFFFFFFFFFFF
310
FFFFFFFFFFFFFFFFFFFFFFFFFFFFFFFFFFFFFFFFFFFFFFFFFFFFFFFFFFFFFFFF
310
FFFFFFFFFFFFFFFFF000FFFFFFFFFFFFFFFFFFFFFFFFFFFFFFFFFFFFFFFFFFFF
310
FFFFFFFFFFFFFFFFFFFFFFFFFFFFFFFFFFFFFFFFFFFFFFFFFFFFFFFFFFFFFFFF
310
FFFFFFFFFFFFFFFFFFFFFFFFFFFFFFFFFFFFFFFFFFFFFFFFFFFFFFFFFFFFFFFF
310
F000FFFFFFFFFFFFFFFFFFFFFFFFFFFFFFFFFFFFFFFFFFFFFFFFFFFFFFFFFFFF
310
FFFFFFFFFFFFFFFFFFFFFFFFFFFFFFFFFFFFFFFFFFFFFFFFFFFFFFFFFFFFFFFF
310
FFFFFFFFFFFFFFFFFFFFFFFFFFFFFFFFFFFFFFFFFFFFFFFFF000FFFFFFFFFFFF
310
FFFFFFFFFFFFFFFFFFFFFFFFFFFFFFFFFFFFFFFFFFFFFFFFFFFFFFFFFFFFFFFF
310
FFFFFFFFFFFFFFFFFFFFFFFFFFFFFFFFFFFFFFFFFFFFFFFFFFFFFFFFFFFFFFFF
310
FFFFFFFFFFFFFFFFFFFFFFFFFFFFFFFFF000FFFFFFFFFFFFFFFFFFFFFFFFFFFF
310
FFFFFFFFFFFFFFFFFFFFFFFFFFFFFFFFFFFFFFFFFFFFFFFFFFFFFFFFFFFFFFFF
310
FFFFFFFFFFFFFFFFFFFFFFFFFFFFFFFFFFFFFFFFFFFFFFFFFFFFFFFFFFFFFFFF
310
FFFFFFFFFFFFFFFFF000FFFFF80003FFFFFFFFFFFFFFFFFFFFFFFFFFFFFFFFFF
310
FFFFF00007FFFFFFFFFF00007FFFFFF800000000000000007FFFFFFFFFFFFFFF
310
FFFFFFFC001FFFFFFFFFFFFFFC001FFFFFFFFFFFFFFFFFFFFFFFFFFE0007FFFF
310
F000FFFF8000007FFFFFFFF8000FFFFFC0007FFFFF80007FFFFF0000007FFFFF
310
FFF8000007FFFFF800000000000000007FFFFFF0001FFFFFFFFFFFC00001FFFF
310
FFFFFFFFC00001FFFFFFFF000000000003FFFFE000007FFFF000FFFE0000000F
310
FFFFFFF0000FFFFF80007FFFFF80007FFFFC0000001FFFFFFFC0000001FFFFF8
310
00000000000000007FFFFFF0001FFFFFFFFFFE0000003FFFFFFFFFFE0000003F
310
FFFFFF000000000003FFFF0000000FFFF000FFF800000003FFFFFFF00007FFFF
310
80007FFFFF80007FFFF000000007FFFFFF000000003FFFF80000000000000000
310
7FFFFFF0001FFFFFFFFFF80000000FFFFFFFFFF80000000FFFFFFF0000000000
310
03FFFC00000003FFF000FFE000000000FFFFFFF00007FFFF80003FFFFF80007F
310
FFC000000001FFFFFC000000001FFFF800000000000000007FFFFFF0001FFFFF
310
FFFFE000000003FFFFFFFFE000000003FFFFFF000000000003FFF000000000FF
310
F000FF80000000007FFFFFF00007FFFF80003FFFFF80007FFF8000000000FFFF
310
F80000000007FFF800000000000000007FFFFFF0001FFFFFFFFFC000000001FF
310
FFFFFFC000000001FFFFFF000000000003FFC0000000007FF000FF0000000000
310
3FFFFFE00007FFFF00003FFFFF80007FFE00000000003FFFF00000000003FFF8
310
00000000000000007FFFFFF0001FFFFFFFFF8000000000FFFFFFFF8000000000
310
FFFFFF000000000003FF80000000003FF000FE00000000001FFFFFE00003FFFF
310
00003FFFFF80007FFC00000000001FFFE00000000001FFF8000001FFFE000000
310
7FFFFFF0001FFFFFFFFE00000000003FFFFFFE00000000003FFFFF0000000000
310
03FF00000000001FF000FC00000000000FFFFFE00003FFFF00001FFFFF80007F
310
F800000000001FFFC00000000000FFF8000001FFFE0000007FFFFFF0001FFFFF
310
FFFC00000000001FFFFFFC00000000001FFFFF000000000003FE00000000000F
310
F000F8000000000007FFFFE00003FFFF00001FFFFF80007FF800000000000FFF
310
800000000000FFF8000001FFFE0000007FFFFFF0001FFFFFFFF800000000000F
310
FFFFF800000000000FFFFF000000000003FC000000000007F000F80000000000
310
03FFFFC00003FFFE00001FFFFF80007FF0000000000007FF0000000000007FF8
310
000001FFFE0000007FFFFFF0001FFFFFFFF0000000000007FFFFF00000000000
310
07FFFF000000000003F8000000000003F000F0000000000003FFFFC00001FFFE
310
00001FFFFF80007FE0000000000007FE0000000000003FF8000001FFFE000000
310
7FFFFFF0001FFFFFFFF0000000000007FFFFF0000000000007FFFF0000000000
310
03F800001F800003F000E00001FFF00001FFFFC00001FFFE00000FFFFF80007F
310
E00001FFE00003FE00001FFF00003FF8000001FFFE0000007FFFFFF0001FFFFF
310
FFE000003E000003FFFFE000003E000003FFFF000000000003F00001FFF80001
310
F000E00007FFFC0001FFFFC00001FFFE00000FFFFF80007FC0000FFFFC0003FC
310
0000FFFFC0001FF8000001FFFE0000007FFFFFF0001FFFFFFFC00003FFE00001
310
FFFFC00003FFE00001FFFF0001FFFFFFFFF00007FFFE0001F000E0000FFFFF00
310
00FFFF800001FFFC00000FFFFF80007FC0001FFFFE0001FC0001FFFFE0001FF8
310
000001FFFE0000007FFFFFF0001FFFFFFF80000FFFF80000FFFF80000FFFF800
310
00FFFF0003FFFFFFFFE0000FFFFF8000F000C0003FFFFF8000FFFF800000FFFC
310
000007FFFF80007F80003FFFFF0001FC0003FFFFF0001FF8000001FFFE000000
310
7FFFFFF0001FFFFFFF80003FFFFE0000FFFF80003FFFFE0000FFFF0003FFFFFF
310
FFE0003FFFFF8000F000C0003FFFFF8000FFFF800000FFFC000007FFFF80007F
310
80007FFFFF8001F80007FFFFF8000FF8000001FFFE0000007FFFFFF0001FFFFF
310
FF00007FFFFF00007FFF00007FFFFF00007FFF0003FFFFFFFFE0003FFFFFC000
310
F000C0007FFFFFC000FFFF000000FFFC000007FFFF80007F8000FFFFFF8000F8
310
000FFFFFF8000FF8000001FFFE0000007FFFFFF0001FFFFFFF0000FFFFFF8000
310
7FFF0000FFFFFF80007FFF0003FFFFFFFFC0007FFFFFC00070008000FFFFFFC0
310
00FFFF000000FFF8000007FFFF80007F8000FFFFFF8000F8000FFFFFF8000FF8
310
000001FFFE0000007FFFFFF0001FFFFFFE0001FFFFFFC0003FFE0001FFFFFFC0
310
003FFF0003FFFFFFFFC0007FFFFFE00070008000FFFFFFC0007FFF0000007FF8
310
000003FFFF80007F0001FFFFFF8000F8000FFFFFF8000FF8000001FFFE000000
310
7FFFFFF0001FFFFFFE0001FFFFFFC0003FFE0001FFFFFFC0003FFF0003FFFFFF
310
FFC000FFFFFFE00070008000FFFFFFC0007FFF0000007FF8000003FFFF80007F
310
0001FFFFFF8000F8001FFFFFF8000FF8000001FFFE0000007FFFFFF0001FFFFF
310
FE0003FFFFFFE0003FFE0003FFFFFFE0003FFF0003FFFFFFFFC000FFFFFFE000
310
70008000FFFFFFC0007FFE0000007FF8000003FFFF80007F0001FFFFFF8000F0
310
001FFFFFF8000FF8000001FFFE0000007FFFFFF0001FFFFFFC0003FFFFFFE000
310
1FFC0003FFFFFFE0001FFF0003FFFFFFFFC000FFFFFFC00070008000FFFFFF80
310
007FFE0000007FF0000003FFFF80007F0001FFFFFF0000F0001FFFFFF8000FF8
310
000001FFFE0000007FFFFFF0001FFFFFFC0007FFFFFFF0001FFC0007FFFFFFF0
310
001FFF0003FFFFFFFFC000FFFFFFC00070008001FFFFFF0000FFFE0000003FF0
310
000001FFFF80007F0001FFFFFF0000F8001FFFFFF0000FF8000001FFFE000000
310
7FFFFFF0001FFFFFFC0007FFFFFFF0001FFC0007FFFFFFF0001FFF0003FFFFFF
310
FFC001FFFFFF80007000FFFFFFFFFE0000FFFE0008003FF0008001FFFF80007F
310
FFFFFFFFFC0000FFFFFFFFFFE0000FF8000001FFFE0000007FFFFFF0001FFFFF
310
F8000FFFFFFFF8000FF8000FFFFFFFF8000FFF0003FFFFFFFFFFFFFFFFFF0000
310
7000FFFFFFFFFC0000FFFC0008003FF0008001FFFF80007FFFFFFFFFF80001FF
310
FFFFFFFF80000FF8000001FFFE0000007FFFFFF0001FFFFFF8000FFFFFFFF800
310
0FF8000FFFFFFFF8000FFF0003FFFFFFFFFFFFFFFFFE0000F000FFFFFFFFE000
310
00FFFC000C003FE000C001FFFF80007FFFFFFFFFC00001FFFFFFFFFE00001FF8
310
000001FFFE0000007FFFFFF0001FFFFFF8000FFFFFFFF8000FF8000FFFFFFFF8
310
000FFF0003FFFFFFFFFFFFFFFFF00000F000FFFFFFFE000001FFFC000C001FE0
310
00C000FFFF80007FFFFFFFFE000001FFFFFFFFE000001FF80FFFFFFFFFFFFFC0
310
7FFFFFF0001FFFFFF8000FFFFFFFF8000FF8000FFFFFFFF8000FFF0003FFFFFF
310
FFFFFFFFFF800000F000FFFFFFC0000001FFFC001C001FE001C000FFFF80007F
310
FFFFFF80000003FFFFFFF80000001FF80FFFFFFFFFFFFFC07FFFFFF0001FFFFF
310
F8001FFFFFFFFC000FF8001FFFFFFFFC000FFF0003FFFFFFFFFFFFFFF0000001
310
F000FFFFF800000001FFF8001C001FE001C000FFFF80007FFFFFF800000003FF
310
FFFF800000003FF80FFFFFFFFFFFFFC07FFFFFF0001FFFFFF8001FFFFFFFFC00
310
0FF8001FFFFFFFFC000FFF0003FFFFFFFFFFFFFE00000001F000FFFFC0000000
310
03FFF8001E001FC001E000FFFF80007FFFFF8000000007FFFFFC000000003FF8
310
0FFFFFFFFFFFFFC07FFFFFF0001FFFFFF8001FFFFFFFFC000FF8001FFFFFFFFC
310
000FFF0003FFFFFFFFFFFFE000000003F000FFFE0000000007FFF8001E000FC0
310
01E0007FFF80007FFFFE0000000007FFFFE0000000007FF80FFFFFFFFFFFFFC0
310
7FFFFFF0001FFFFFF0001FFFFFFFFC0007F0001FFFFFFFFC0007FF0003FFFFFF
310
FFFFFF0000000003F000FFF80000000007FFF8001E000FC003E0007FFF80007F
310
FFF0000000000FFFFF8000000000FFF80FFFFFFFFFFFFFC07FFFFFF0001FFFFF
310
F0001FFFFFFFFC0007F0001FFFFFFFFC0007FF0003FFFFFFFFFFFC0000000007
310
F000FFE0000000000FFFF0003E000FC003E0007FFF80007FFFC0000000001FFF
310
FE0000000001FFF80FFFFFFFFFFFFFC07FFFFFF0001FFFFFF0001FFFFFFFFC00
310
07F0001FFFFFFFFC0007FF0003FFFFFFFFFFF0000000000FF000FFC000000000
310
1FFFF0003F000F8003F0003FFF80007FFF80000000003FFFF80000000003FFF8
310
0FFFFFFFFFFFFFC07FFFFFF0001FFFFFF0001FFFFFFFFC0007F0001FFFFFFFFC
310
0007FF0003FFFFFFFFFFE0000000001FF000FF00000000007FFFF0003F000780
310
03F0003FFF80007FFF00000000007FFFF00000000007FFF80FFFFFFFFFFFFFC0
310
7FFFFFF0001FFFFFF0001FFFFFFFFC0007F0001FFFFFFFFC0007FF0003FFFFFF
310
FFFF80000000007FF000FE0000000000FFFFE0003F00078007F0003FFF80007F
310
FE0000000001FFFFE0000000001FFFF80FFFFFFFFFFFFFC07FFFFFF0001FFFFF
310
F0001FFFFFFFFC0007F0001FFFFFFFFC0007FF0003FFFFFFFFFF0000000000FF
310
F000FC0000000003FFFFE0007F00078007F0003FFF80007FFC0000000007FFFF
310
C0000000007FFFF80FFFFFFFFFFFFFC07FFFFFF0001FFFFFF8001FFFFFFFFC00
310
0FF8001FFFFFFFFC000FFF0003FFFFFFFFFE0000000003FFF000FC000000000F
310
FFFFE0007F80070007F8001FFF80007FF8000000001FFFFF8000000001FFFFF8
310
0FFFFFFFFFFFFFC07FFFFFF0001FFFFFF8001FFFFFFFFC000FF8001FFFFFFFFC
310
000FFF0003FFFFFFFFFC000000000FFFF000F8000000007FFFFFE0007F800700
310
07F8001FFF80007FF000000000FFFFFF800000000FFFFFF80FFFFFFFFFFFFFC0
310
7FFFFFF0001FFFFFF8000FFFFFFFF8000FF8000FFFFFFFF8000FFF0003FFFFFF
310
FFFC000000007FFFF000F800000007FFFFFFC0007F8003000FF8001FFF80007F
310
F000000007FFFFFF000000007FFFFFF80FFFFFFFFFFFFFC07FFFFFF0001FFFFF
310
F8000FFFFFFFF8000FF8000FFFFFFFF8000FFF0003FFFFFFFFF80000000FFFFF
310
F000F0000000FFFFFFFFC000FF8003000FF8001FFF80007FE0000000FFFFFFFF
310
0000000FFFFFFFF8000001FFFE0000007FFFFFF0001FFFFFF8000FFFFFFFF800
310
0FF8000FFFFFFFF8000FFF0003FFFFFFFFF8000000FFFFFFF000F000000FFFFF
310
FFFFC000FFC002000FF8000FFF80007FE000001FFFFFFFFE000001FFFFFFFFF8
310
000001FFFE0000007FFFFFF0001FFFFFF8000FFFFFFFF8000FF8000FFFFFFFF8
310
000FFF0003FFFFFFFFF000001FFFFFFFF000E00000FFFFFFFFFFC000FFC00200
310
0FFC000FFF80007FE00001FFFFFFFFFE00001FFFFFFFFFF8000001FFFE000000
310
7FFFFFF0001FFFFFFC000FFFFFFFF8001FFC000FFFFFFFF8001FFF0003FFFFFF
310
FFF00001FFFFFFFFF000E00007FFFFFFFFFF8000FFC000001FFC000FFF80007F
310
C0000FFFFFFFFFFE0000FFFFFFFFFFF8000001FFFE0000007FFFFFF0001FFFFF
310
FC0007FFFFFFF0001FFC0007FFFFFFF0001FFF0003FFFFFFFFF00007FFFFFFFF
310
F000E0001FFFFFFFFFFF8000FFC000001FFC000FFF80007FC0003FFFFFFFFFFE
310
0001FFFFFFFFFFF8000001FFFE0000007FFFFFF0001FFFFFFC0007FFFFFFF000
310
1FFC0007FFFFFFF0001FFF0003FFFFFFFFF0001FFFFFFFFFF000E0003FFFFF00
310
03FF8001FFE000001FFC0007FF80007FC0007FFFFF0007FC0003FFFFF0003FF8
310
000001FFFE0000007FFFFFF0001FFFFFFC0003FFFFFFE0001FFC0003FFFFFFE0
310
001FFF0003FFFFFFFFF0003FFFFFFFFFF000E0003FFFFF0001FF8001FFE00000
310
1FFE0007FF80007FC0007FFFFE0003FC0007FFFFE0003FF8000001FFFE000000
310
7FFFFFF0001FFFFFFE0003FFFFFFE0003FFE0003FFFFFFE0003FFF0003FFFFFF
310
FFF0003FFFFF8001F000E0003FFFFF0001FF0001FFE000001FFE0007FF80007F
310
C0007FFFFE0003FC0007FFFFE0003FF8000001FFFE0000007FFFFFF0001FFFFF
310
FE0001FFFFFFC0003FFE0001FFFFFFC0003FFF0003FFFFFFFFF0003FFFFF0001
310
F000E0003FFFFF0003FF0001FFE000003FFE0007FF80007FC0007FFFFE0003FC
310
0007FFFFE0003FF8000001FFFE0000007FFFFFF0001FFFFFFF0001FFFFFFC000
310
7FFF0001FFFFFFC0007FFF0003FFFFFFFFF0003FFFFF0001F000E0003FFFFE00
310
03FF0003FFF000003FFE0003FF80007FC0007FFFFC0003FE0007FFFFE0003FF8
310
000001FFFE0000007FFFFFF0001FFFFFFF0000FFFFFF80007FFF0000FFFFFF80
310
007FFF0003FFFFFFFFF0003FFFFF0001F000E0003FFFFE0003FF0003FFF00000
310
3FFF0003FF80007FC0007FFFFC0007FE0007FFFFC0003FF8000001FFFE000000
310
7FFFFFF0001FFFFFFF80007FFFFF0000FFFF80007FFFFF0000FFFF0003FFFFFF
310
FFF0003FFFFF0003F000E0003FFFFC0003FE0003FFF000003FFF0003FF80007F
310
E0003FFFF80007FE0003FFFFC0007FF8000001FFFE0000007FFFFFF0001FFFFF
310
FF80003FFFFE0000FFFF80003FFFFE0000FFFF0003FFFFFFFFF0001FFFFE0003
310
F000F0001FFFF80003FE0003FFF000007FFF0001FF80007FE0003FFFF00007FE
310
0001FFFF80007FF8000001FFFE0000007FFFFFF0001FFFFFFFC0000FFFF80001
310
FFFFC0000FFFF80001FFFF0003FFFFFFFFF0001FFFFC0003F000F0000FFFF000
310
07FE0007FFF800007FFF0001FF80007FE0001FFFE00007FF0000FFFE00007FF8
310
000001FFFE0000007FFFFFF0001FFFFFFFC00003FFE00001FFFFC00003FFE000
310
01FFFF0003FFFFFFFFF8000FFFF80003F000F00003FFC00007FC0007FFF80000
310
7FFF8001FF80007FF00007FF80000FFF00007FF80000FFF8000001FFFE000000
310
7F80000000000001FFE000003E000003FFFFE000003E000003FFFF0003FFFFFF
310
FFF80003FFE00007F000F800000000000FFC0007FFF800007FFF8001FF80007F
310
F000000000000FFF000000000000FFF8000001FFFE0000007F80000000000001
310
FFF0000000000007FFFFF0000000000007FFFF0003FFFFFFFFFC00007E000007
310
F000F800000000000FFC0007FFF80000FFFF8000FF80007FF800000000001FFF
310
800000000001FFF8000001FFFE0000007F80000000000001FFF800000000000F
310
FFFFF800000000000FFFFF0003FFFFFFFFFC00000000000FF000FC0000000000
310
1FFC0007FFFC0000FFFF8000FF80007FF800000000003FFFC00000000001FFF8
310
000001FFFE0000007F80000000000001FFF800000000000FFFFFF80000000000
310
0FFFFF0003FFFFFFFFFE00000000001FF000FE00000000003FF8000FFFFC0000
310
FFFF8000FF80007FFC00000000003FFFC00000000003FFF8000001FFFE000000
310
7F80000000000001FFFC00000000001FFFFFFC00000000001FFFFF0003FFFFFF
310
FFFF00000000001FF000FF00000000003FF8000FFFFC0000FFFFC000FF80007F
310
FE00000000007FFFE00000000007FFF8000001FFFE0000007F80000000000001
310
FFFE00000000003FFFFFFE00000000003FFFFF0003FFFFFFFFFF80000000003F
310
F000FF80000000007FF8000FFFFC0001FFFFC0007F80007FFF0000000000FFFF
310
F0000000000FFFF800000000000000007F80000000000001FFFF8000000000FF
310
FFFFFF8000000000FFFFFF0003FFFFFFFFFFC0000000007FF000FFC000000000
310
FFF8000FFFFE0001FFFFC0007F80007FFF8000000001FFFFF8000000001FFFF8
310
00000000000000007F80000000000001FFFFC000000001FFFFFFFFC000000001
310
FFFFFF0003FFFFFFFFFFE000000000FFF000FFE000000003FFF0001FFFFE0001
310
FFFFC0007F80007FFFC000000007FFFFFE000000003FFFF80000000000000000
310
7F80000000000001FFFFE000000003FFFFFFFFE000000003FFFFFF0003FFFFFF
310
FFFFF000000003FFF000FFF80000000FFFF0001FFFFE0001FFFFE0007F80007F
310
FFF00000000FFFFFFF00000000FFFFF800000000000000007F80000000000001
310
FFFFF80000000FFFFFFFFFF80000000FFFFFFF0003FFFFFFFFFFFC0000000FFF
310
F000FFFE0000003FFFF0001FFFFE0003FFFFE0003F80007FFFFC0000003FFFFF
310
FFC0000003FFFFF800000000000000007F80000000000001FFFFFE0000003FFF
310
FFFFFFFE0000003FFFFFFF0003FFFFFFFFFFFF0000003FFFF000FFFF800000FF
310
FFF0001FFFFF0003FFFFE0003F80007FFFFF000001FFFFFFFFF800001FFFFFF8
310
00000000000000007F80000000000001FFFFFFC00001FFFFFFFFFFFFC00001FF
310
FFFFFF0003FFFFFFFFFFFFC00000FFFFF000FFFFF8000FFFFFFFFFFFFFFFFFFF
310
FFFFFFFFFFFFFFFFFFFFF0001FFFFFFFFFFF0000FFFFFFF80000000000000000
310
7FFFFFFFFFFFFFFFFFFFFFFC001FFFFFFFFFFFFFFC001FFFFFFFFFFFFFFFFFFF
310
FFFFFFFC001FFFFFF000FFFFFFFFFFFFFFFFFFFFFFFFFFFFFFFFFFFFFFFFFFFF
310
FFFFFFFFFFFFFFFFFFFFFFFFFFFFFFFFFFFFFFFFFFFFFFFFFFFFFFFFFFFFFFFF
310
FFFFFFFFFFFFFFFFFFFFFFFFFFFFFFFFFFFFFFFFFFFFFFFFFFFFFFFFFFFFFFFF
310
F000FFFFFFFFFFFFFFFFFFFFFFFFFFFFFFFFFFFFFFFFFFFFFFFFFFFFFFFFFFFF
310
FFFFFFFFFFFFFFFFFFFFFFFFFFFFFFFFFFFFFFFFFFFFFFFFFFFFFFFFFFFFFFFF
310
FFFFFFFFFFFFFFFFFFFFFFFFFFFFFFFFFFFFFFFFFFFFFFFFF000FFFFFFFFFFFF
310
FFFFFFFFFFFFFFFFFFFFFFFFFFFFFFFFFFFFFFFFFFFFFFFFFFFFFFFFFFFFFFFF
310
FFFFFFFFFFFFFFFFFFFFFFFFFFFFFFFFFFFFFFFFFFFFFFFFFFFFFFFFFFFFFFFF
310
FFFFFFFFFFFFFFFFFFFFFFFFFFFFFFFFF000FFFFFFFFFFFFFFFFFFFFFFFFFFFF
310
FFFFFFFFFFFFFFFFFFFFFFFFFFFFFFFFFFFFFFFFFFFFFFFFFFFFFFFFFFFFFFFF
310
FFFFFFFFFFFFFFFFFFFFFFFFFFFFFFFFFFFFFFFFFFFFFFFFFFFFFFFFFFFFFFFF
310
FFFFFFFFFFFFFFFFF000FFFFFFFFFFFFFFFFFFFFFFFFFFFFFFFFFFFFFFFFFFFF
310
FFFFFFFFFFFFFFFFFFFFFFFFFFFFFFFFFFFFFFFFFFFFFFFFFFFFFFFFFFFFFFFF
310
FFFFFFFFFFFFFFFFFFFFFFFFFFFFFFFFFFFFFFFFFFFFFFFFFFFFFFFFFFFFFFFF
310
F000FFFFFFFFFFFFFFFFFFFFFFFFFFFFFFFFFFFFFFFFFFFFFFFFFFFFFFFFFFFF
310
FFFFFFFFFFFFFFFFFFFFFFFFFFFFFFFFFFFFFFFFFFFFFFFFFFFFFFFFFFFFFFFF
310
FFFFFFFFFFFFFFFFFFFFFFFFFFFFFFFFFFFFFFFFFFFFFFFFF000FFFFFFFFFFFF
310
FFFFFFFFFFFFFFFFFFFFFFFFFFFFFFFFFFFFFFFFFFFFFFFFFFFFFFFFFFFFFFFF
310
FFFFFFFFFFFFFFFFFFFFFFFFFFFFFFFFFFFFFFFFFFFFFFFFFFFFFFFFFFFFFFFF
310
FFFFFFFFFFFFFFFFFFFFFFFFFFFFFFFFF000FFFFFFFFFFFFFFFFFFFFFFFFFFFF
310
FFFFFFFFFFFFFFFFFFFFFFFFFFFFFFFFFFFFFFFFFFFFFFFFFFFFFFFFFFFFFFFF
310
FFFFFFFFFFFFFFFFFFFFFFFFFFFFFFFFFFFFFFFFFFFFFFFFFFFFFFFFFFFFFFFF
310
FFFFFFFFFFFFFFFFF000FFFFFFFFFFFFFFFFFFFFFFFFFFFFFFFFFFFFFFFFFFFF
310
FFFFFFFFFFFFFFFFFFFFFFFFFFFFFFFFFFFFFFFFFFFFFFFFFFFFFFFFFFFFFFFF
310
FFFFFFFFFFFFFFFFFFFFFFFFFFFFFFFFFFFFFFFFFFFFFFFFFFFFFFFFFFFFFFFF
310
F000FFFFFFFFFFFFFFFFFFFFFFFFFFFFFFFFFFFFFFFFFFFFFFFFFFFFFFFFFFFF
310
FFFFFFFFFFFFFFFFFFFFFFFFFFFFFFFFFFFFFFFFFFFFFFFFFFFFFFFFFFFFFFFF
310
FFFFFFFFFFFFFFFFFFFFFFFFFFFFFFFFFFFFFFFFFFFFFFFFF000FFFFFFFFFFFF
310
FFFFFFFFFFFFFFFFFFFFFFFFFFFFFFFFFFFFFFFFFFFFFFFFFFFFFFFFFFFFFFFF
310
FFFFFFFFFFFFFFFFFFFFFFFFFFFFFFFFFFFFFFFFFFFFFFFFFFFFFFFFFFFFFFFF
310
FFFFFFFFFFFFFFFFFFFFFFFFFFFFFFFFF000FFFFFFFFFFFFFFFFFFFFFFFFFFFF
310
FFFFFFFFFFFFFFFFFFFFFFFFFFFFFFFFFFFFFFFFFFFFFFFFFFFFFFFFFFFFFFFF
310
FFFFFFFFFFFFFFFFFFFFFFFFFFFFFFFFFFFFFFFFFFFFFFFFFFFFFFFFFFFFFFFF
310
FFFFFFFFFFFFFFFFF000FFFFFFFFFFFFFFFFFFFFFFFFFFFFFFFFFFFFFFFFFFFF
310
FFFFFFFFFFFFFFFFFFFFFFFFFFFFFFFFFFFFFFFFFFFFFFFFFFFFFFFFFFFFFFFF
310
FFFFFFFFFFFFFFFFFFFFFFFFFFFFFFFFFFFFFFFFFFFFFFFFFFFFFFFFFFFFFFFF
310
F000FFFFFFFFFFFFFFFFFFFFFFFFFFFFFFFFFFFFFFFFFFFFFFFFFFFFFFFFFFFF
310
FFFFFFFFFFFFFFFFFFFFFFFFFFFFFFFFFFFFFFFFFFFFFFFFFFFFFFFFFFFFFFFF
310
FFFFFFFFFFFFFFFFFFFFFFFFFFFFFFFFFFFFFFFFFFFFFFFFF000FFFFFFFFFFFF
310
FFFFFFFFFFFFFFFFFFFFFFFFFFFFFFFFFFFFFFFFFFFFFFFFFFFFFFFFFFFFFFFF
310
FFFFFFFFFFFFFFFFFFFFFFFFFFFFFFFFFFFFFFFFFFFFFFFFFFFFFFFFFFFFFFFF
310
FFFFFFFFFFFFFFFFFFFFFFFFFFFFFFFFF000FFFFFFFFFFFFFFFFFFFFFFFFFFFF
310
FFFFFFFFFFFFFFFFFFFFFFFFFFFFFFFFFFFFFFFFFFFFFFFFFFFFFFFFFFFFFFFF
310
FFFFFFFFFFFFFFFFFFFFFFFFFFFFFFFFFFFFFFFFFFFFFFFFFFFFFFFFFFFFFFFF
310
FFFFFFFFFFFFFFFFF000FFFFFFFFFFFFFFFFFFFFFFFFFFFFFFFFFFFFFFFFFFFF
310
FFFFFFFFFFFFFFFFFFFFFFFFFFFFFFFFFFFFFFFFFFFFFFFFFFFFFFFFFFFFFFFF
310
FFFFFFFFFFFFFFFFFFFFFFFFFFFFFFFFFFFFFFFFFFFFFFFFFFFFFFFFFFFFFFFF
310
F000FFFFFFFFFFFFFFFFFFFFFFFFFFFFFFFFFFFFFFFFFFFFFFFFFFFFFFFFFFFF
310
FFFFFFFFFFFFFFFFFFFFFFFFFFFFFFFFFFFFFFFFFFFFFFFFFFFFFFFFFFFFFFFF
310
FFFFFFFFFFFFFFFFFFFFFFFFFFFFFFFFFFFFFFFFFFFFFFFFF000FFFFFFFFFFFF
310
FFFFFFFFFFFFFFFFFFFFFFFFFFFFFFFFFFFFFFFFFFFFFFFFFFFFFFFFFFFFFFFF
310
FFFFFFFFFFFFFFFFFFFFFFFFFFFFFFFFFFFFFFFFFFFFFFFFFFFFFFFFFFFFFFFF
310
FFFFFFFFFFFFFFFFFFFFFFFFFFFFFFFFF000FFFFFFFFFFFFFFFFFFFFFFFFFFFF
310
FFFFFFFFFFFFFFFFFFFFFFFFFFFFFFFFFFFFFFFFFFFFFFFFFFFFFFFFFFFFFFFF
310
FFFFFFFFFFFFFFFFFFFFFFFFFFFFFFFFFFFFFFFFFFFFFFFFFFFFFFFFFFFFFFFF
310
FFFFFFFFFFFFFFFFF000FFFFFFFFFFFFFFFFFFFFFFFFFFFFFFFFFFFFFFFFFFFF
310
FFFFFFFFFFFFFFFFFFFFFFFFFFFFFFFFFFFFFFFFFFFFFFFFFFFFFFFFFFFFFFFF
310
FFFFFFFFFFFFFFFFFFFFFFFFFFFFFFFFFFFFFFFFFFFFFFFFFFFFFFFFFFFFFFFF
310
F000FFFFFFFFFFFFFFFFFFFFFFFFFFFFFFFFFFFFFFFFFFFFFFFFFFFFFFFFFFFF
310
FFFFFFFFFFFFFFFFFFFFFFFFFFFFFFFFFFFFFFFFFFFFFFFFFFFFFFFFFFFFFFFF
310
FFFFFFFFFFFFFFFFFFFFFFFFFFFFFFFFFFFFFFFFFFFFFFFFF000FFFFFFFFFFFF
310
FFFFFFFFFFFFFFFFFFFFFFFFFFFFFFFFFFFFFFFFFFFFFFFFFFFFFFFFFFFFFFFF
310
FFFFFFFFFFFFFFFFFFFFFFFFFFFFFFFFFFFFFFFFFFFFFFFFFFFFFFFFFFFFFFFF
310
FFFFFFFFFFFFFFFFFFFFFFFFFFFFFFFFF0000000000000000000000000000000
310
0000000000000000000000000000000000000000000000000000000000000000
310
0000000000000000000000000000000000000000000000000000000000000000
310
0000000000000000000000000000000000000000000000000000000000000000
310
0000000000000000000000000000000000000000000000000000000000000000
310
0000000000000000000000000000000000000000000000000000000000000000
310
0000000000000000000000000000000000000000000000000000000000000000
310
0000000000000000000000000000000000000000000000000000000000000000
310
0000000000000000000000000000000000000000000000000000000000000000
310
0000000000000000000000000000000000000000000000000000000000000000
310
0000000000000000000000000000000000000000000000000000000000000000
310
0000000000000000000000000000000000000000000000000000000000000000
310
0000000000000000000000000000000000000000000000000000000000000000
310
0000000000000000000000000000000000000000000000000000000000000000
310
0000000000000000000000000000000000000000000000000000000000000000
310
0000000000000000000000000000000000000000000000000000000000000000
  1
OLE
  0
ENDSEC
  0
SECTION
  2
OBJECTS
  0
DICTIONARY
  5
C
330
0
100
AcDbDictionary
281
     1
  3
ACAD_GROUP
350
D
  3
ACAD_LAYOUT
350
1A
  3
ACAD_MLINESTYLE
350
17
  3
ACAD_PLOTSETTINGS
350
19
  3
ACAD_PLOTSTYLENAME
350
E
  3
ACAD_SCALELIST
350
47
  0
DICTIONARY
  5
D
102
{ACAD_REACTORS
330
C
102
}
330
C
100
AcDbDictionary
281
     1
  0
DICTIONARY
  5
1A
102
{ACAD_REACTORS
330
C
102
}
330
C
100
AcDbDictionary
281
     1
  3
Layout1
350
1E
  3
Layout2
350
26
  3
Model
350
22
  0
DICTIONARY
  5
17
102
{ACAD_REACTORS
330
C
102
}
330
C
100
AcDbDictionary
281
     1
  3
Standard
350
18
  0
DICTIONARY
  5
19
102
{ACAD_REACTORS
330
C
102
}
330
C
100
AcDbDictionary
281
     1
  0
ACDBDICTIONARYWDFLT
  5
E
102
{ACAD_REACTORS
330
C
102
}
330
C
100
AcDbDictionary
281
     1
  3
Normal
350
F
100
AcDbDictionaryWithDefault
340
F
  0
DICTIONARY
  5
47
102
{ACAD_REACTORS
330
C
102
}
330
C
100
AcDbDictionary
281
     1
  3
A0
350
48
  3
A1
350
49
  3
A2
350
4A
  3
A3
350
4B
  3
A4
350
4C
  3
A5
350
4D
  3
A6
350
4E
  3
A7
350
4F
  3
A8
350
50
  3
A9
350
51
  3
B0
350
52
  3
B1
350
53
  3
B2
350
54
  3
B3
350
55
  3
B4
350
56
  3
B5
350
57
  3
B6
350
58
  3
B7
350
59
  3
B8
350
5A
  3
B9
350
5B
  3
C0
350
5C
  3
C1
350
5D
  3
C2
350
5E
  3
C3
350
5F
  3
C4
350
60
  3
C5
350
61
  3
C6
350
62
  3
C7
350
63
  3
C8
350
64
  3
C9
350
65
  3
D0
350
66
  3
D1
350
67
  3
D2
350
68
  0
LAYOUT
  5
1E
102
{ACAD_REACTORS
330
1A
102
}
330
1A
100
AcDbPlotSettings
  1

  2
none_device
  4

  6

 40
0.0
 41
0.0
 42
0.0
 43
0.0
 44
0.0
 45
0.0
 46
0.0
 47
0.0
 48
0.0
 49
0.0
140
0.0
141
0.0
142
1.0
143
1.0
 70
   688
 72
     1
 73
     0
 74
     5
  7

 75
    16
147
1.0
148
0.0
149
0.0
100
AcDbLayout
  1
Layout1
 70
     1
 71
     1
 10
0.0
 20
0.0
 11
420.0
 21
297.0
 12
0.0
 22
0.0
 32
0.0
 14
1.0000000000E+20
 24
1.0000000000E+20
 34
1.0000000000E+20
 15
-1.0000000000E+20
 25
-1.0000000000E+20
 35
-1.0000000000E+20
146
0.0
 13
0.0
 23
0.0
 33
0.0
 16
1.0
 26
0.0
 36
0.0
 17
0.0
 27
1.0
 37
0.0
 76
     0
330
1B
  0
LAYOUT
  5
26
102
{ACAD_REACTORS
330
1A
102
}
330
1A
100
AcDbPlotSettings
  1

  2
none_device
  4

  6

 40
0.0
 41
0.0
 42
0.0
 43
0.0
 44
0.0
 45
0.0
 46
0.0
 47
0.0
 48
0.0
 49
0.0
140
0.0
141
0.0
142
1.0
143
1.0
 70
   688
 72
     1
 73
     0
 74
     5
  7

 75
    16
147
1.0
148
0.0
149
0.0
100
AcDbLayout
  1
Layout2
 70
     1
 71
     2
 10
0.0
 20
0.0
 11
0.0
 21
0.0
 12
0.0
 22
0.0
 32
0.0
 14
0.0
 24
0.0
 34
0.0
 15
0.0
 25
0.0
 35
0.0
146
0.0
 13
0.0
 23
0.0
 33
0.0
 16
1.0
 26
0.0
 36
0.0
 17
0.0
 27
1.0
 37
0.0
 76
     0
330
23
  0
LAYOUT
  5
22
102
{ACAD_REACTORS
330
1A
102
}
330
1A
100
AcDbPlotSettings
  1

  2
none_device
  4
Letter_(8.50_x_11.00_Inches)
  6

 40
6.35
 41
6.35
 42
6.35000508
 43
6.35000508
 44
215.9
 45
279.4
 46
0.0
 47
0.0
 48
0.0
 49
0.0
140
0.0
141
0.0
142
1.0
143
1.0
 70
  1712
 72
     1
 73
     0
 74
     0
  7

 75
     0
147
1.0
148
0.0
149
0.0
100
AcDbLayout
  1
Model
 70
     1
 71
     0
 10
0.0
 20
0.0
 11
297.0
 21
210.0
 12
0.0
 22
0.0
 32
0.0
 14
0.0
 24
0.0
 34
0.0
 15
297.0
 25
210.0
 35
0.0
146
0.0
 13
0.0
 23
0.0
 33
0.0
 16
1.0
 26
0.0
 36
0.0
 17
0.0
 27
1.0
 37
0.0
 76
     0
330
1F
331
29
  0
MLINESTYLE
  5
18
102
{ACAD_REACTORS
330
17
102
}
330
17
100
AcDbMlineStyle
  2
Standard
 70
     0
  3

 62
   256
 51
90.0
 52
90.0
 71
     2
 49
0.5
 62
   256
  6
BYLAYER
 49
-0.5
 62
   256
  6
BYLAYER
  0
ACDBPLACEHOLDER
  5
F
102
{ACAD_REACTORS
330
E
102
}
330
E
  0
SCALE
  5
48
102
{ACAD_REACTORS
330
47
102
}
330
47
100
AcDbScale
 70
     0
300
1:1
140
1.0
141
1.0
290
     1
  0
SCALE
  5
49
102
{ACAD_REACTORS
330
47
102
}
330
47
100
AcDbScale
 70
     0
300
1:2
140
1.0
141
2.0
290
     0
  0
SCALE
  5
4A
102
{ACAD_REACTORS
330
47
102
}
330
47
100
AcDbScale
 70
     0
300
1:4
140
1.0
141
4.0
290
     0
  0
SCALE
  5
4B
102
{ACAD_REACTORS
330
47
102
}
330
47
100
AcDbScale
 70
     0
300
1:5
140
1.0
141
5.0
290
     0
  0
SCALE
  5
4C
102
{ACAD_REACTORS
330
47
102
}
330
47
100
AcDbScale
 70
     0
300
1:8
140
1.0
141
8.0
290
     0
  0
SCALE
  5
4D
102
{ACAD_REACTORS
330
47
102
}
330
47
100
AcDbScale
 70
     0
300
1:10
140
1.0
141
10.0
290
     0
  0
SCALE
  5
4E
102
{ACAD_REACTORS
330
47
102
}
330
47
100
AcDbScale
 70
     0
300
1:16
140
1.0
141
16.0
290
     0
  0
SCALE
  5
4F
102
{ACAD_REACTORS
330
47
102
}
330
47
100
AcDbScale
 70
     0
300
1:20
140
1.0
141
20.0
290
     0
  0
SCALE
  5
50
102
{ACAD_REACTORS
330
47
102
}
330
47
100
AcDbScale
 70
     0
300
1:30
140
1.0
141
30.0
290
     0
  0
SCALE
  5
51
102
{ACAD_REACTORS
330
47
102
}
330
47
100
AcDbScale
 70
     0
300
1:40
140
1.0
141
40.0
290
     0
  0
SCALE
  5
52
102
{ACAD_REACTORS
330
47
102
}
330
47
100
AcDbScale
 70
     0
300
1:50
140
1.0
141
50.0
290
     0
  0
SCALE
  5
53
102
{ACAD_REACTORS
330
47
102
}
330
47
100
AcDbScale
 70
     0
300
1:100
140
1.0
141
100.0
290
     0
  0
SCALE
  5
54
102
{ACAD_REACTORS
330
47
102
}
330
47
100
AcDbScale
 70
     0
300
2:1
140
2.0
141
1.0
290
     0
  0
SCALE
  5
55
102
{ACAD_REACTORS
330
47
102
}
330
47
100
AcDbScale
 70
     0
300
4:1
140
4.0
141
1.0
290
     0
  0
SCALE
  5
56
102
{ACAD_REACTORS
330
47
102
}
330
47
100
AcDbScale
 70
     0
300
8:1
140
8.0
141
1.0
290
     0
  0
SCALE
  5
57
102
{ACAD_REACTORS
330
47
102
}
330
47
100
AcDbScale
 70
     0
300
10:1
140
10.0
141
1.0
290
     0
  0
SCALE
  5
58
102
{ACAD_REACTORS
330
47
102
}
330
47
100
AcDbScale
 70
     0
300
100:1
140
100.0
141
1.0
290
     0
  0
SCALE
  5
59
102
{ACAD_REACTORS
330
47
102
}
330
47
100
AcDbScale
 70
     0
300
1/128" = 1'-0"
140
0.0078125
141
12.0
290
     0
  0
SCALE
  5
5A
102
{ACAD_REACTORS
330
47
102
}
330
47
100
AcDbScale
 70
     0
300
1/64" = 1'-0"
140
0.015625
141
12.0
290
     0
  0
SCALE
  5
5B
102
{ACAD_REACTORS
330
47
102
}
330
47
100
AcDbScale
 70
     0
300
1/32" = 1'-0"
140
0.03125
141
12.0
290
     0
  0
SCALE
  5
5C
102
{ACAD_REACTORS
330
47
102
}
330
47
100
AcDbScale
 70
     0
300
1/16" = 1'-0"
140
0.0625
141
12.0
290
     0
  0
SCALE
  5
5D
102
{ACAD_REACTORS
330
47
102
}
330
47
100
AcDbScale
 70
     0
300
3/32" = 1'-0"
140
0.09375
141
12.0
290
     0
  0
SCALE
  5
5E
102
{ACAD_REACTORS
330
47
102
}
330
47
100
AcDbScale
 70
     0
300
1/8" = 1'-0"
140
0.125
141
12.0
290
     0
  0
SCALE
  5
5F
102
{ACAD_REACTORS
330
47
102
}
330
47
100
AcDbScale
 70
     0
300
3/16" = 1'-0"
140
0.1875
141
12.0
290
     0
  0
SCALE
  5
60
102
{ACAD_REACTORS
330
47
102
}
330
47
100
AcDbScale
 70
     0
300
1/4" = 1'-0"
140
0.25
141
12.0
290
     0
  0
SCALE
  5
61
102
{ACAD_REACTORS
330
47
102
}
330
47
100
AcDbScale
 70
     0
300
3/8" = 1'-0"
140
0.375
141
12.0
290
     0
  0
SCALE
  5
62
102
{ACAD_REACTORS
330
47
102
}
330
47
100
AcDbScale
 70
     0
300
1/2" = 1'-0"
140
0.5
141
12.0
290
     0
  0
SCALE
  5
63
102
{ACAD_REACTORS
330
47
102
}
330
47
100
AcDbScale
 70
     0
300
3/4" = 1'-0"
140
0.75
141
12.0
290
     0
  0
SCALE
  5
64
102
{ACAD_REACTORS
330
47
102
}
330
47
100
AcDbScale
 70
     0
300
1" = 1'-0"
140
1.0
141
12.0
290
     0
  0
SCALE
  5
65
102
{ACAD_REACTORS
330
47
102
}
330
47
100
AcDbScale
 70
     0
300
1-1/2" = 1'-0"
140
1.5
141
12.0
290
     0
  0
SCALE
  5
66
102
{ACAD_REACTORS
330
47
102
}
330
47
100
AcDbScale
 70
     0
300
3" = 1'-0"
140
3.0
141
12.0
290
     0
  0
SCALE
  5
67
102
{ACAD_REACTORS
330
47
102
}
330
47
100
AcDbScale
 70
     0
300
6" = 1'-0"
140
6.0
141
12.0
290
     0
  0
SCALE
  5
68
102
{ACAD_REACTORS
330
47
102
}
330
47
100
AcDbScale
 70
     0
300
1'-0" = 1'-0"
140
12.0
141
12.0
290
     0
  0
ENDSEC
  0
EOF
