  0
SECTION
  2
HEADER
  9
$ACADVER
  1
AC1015
  9
$ACADMAINTVER
 70
     6
  9
$DWGCODEPAGE
  3
ANSI_1252
  9
$INSBASE
 10
0.0
 20
0.0
 30
0.0
  9
$EXTMIN
 10
0.0
 20
0.0
 30
0.0
  9
$EXTMAX
 10
297.0
 20
210.0
 30
0.0
  9
$LIMMIN
 10
0.0
 20
0.0
  9
$LIMMAX
 10
297.0
 20
210.0
  9
$ORTHOMODE
 70
     0
  9
$REGENMODE
 70
     1
  9
$FILLMODE
 70
     1
  9
$QTEXTMODE
 70
     0
  9
$MIRRTEXT
 70
     1
  9
$LTSCALE
 40
1.0
  9
$ATTMODE
 70
     1
  9
$TEXTSIZE
 40
2.0
  9
$TRACEWID
 40
1.0
  9
$TEXTSTYLE
  7
Standard
  9
$CLAYER
  8
0
  9
$CELTYPE
  6
ByLayer
  9
$CECOLOR
 62
   256
  9
$CELTSCALE
 40
1.0
  9
$DISPSILH
 70
     0
  9
$DIMSCALE
 40
1.0
  9
$DIMASZ
 40
3.0
  9
$DIMEXO
 40
0.0
  9
$DIMDLI
 40
3.75
  9
$DIMRND
 40
0.0
  9
$DIMDLE
 40
0.0
  9
$DIMEXE
 40
1.0
  9
$DIMTP
 40
0.0
  9
$DIMTM
 40
0.0
  9
$DIMTXT
 40
2.0
  9
$DIMCEN
 40
2.5
  9
$DIMTSZ
 40
0.0
  9
$DIMTOL
 70
     0
  9
$DIMLIM
 70
     0
  9
$DIMTIH
 70
     1
  9
$DIMTOH
 70
     1
  9
$DIMSE1
 70
     0
  9
$DIMSE2
 70
     0
  9
$DIMTAD
 70
     1
  9
$DIMZIN
 70
     0
  9
$DIMBLK
  1

  9
$DIMASO
 70
     1
  9
$DIMSHO
 70
     1
  9
$DIMPOST
  1

  9
$DIMAPOST
  1

  9
$DIMALT
 70
     0
  9
$DIMALTD
 70
     3
  9
$DIMALTF
 40
0.0393700787
  9
$DIMLFAC
 40
2.0
  9
$DIMTOFL
 70
     1
  9
$DIMTVP
 40
0.0
  9
$DIMTIX
 70
     0
  9
$DIMSOXD
 70
     0
  9
$DIMSAH
 70
     0
  9
$DIMBLK1
  1

  9
$DIMBLK2
  1

  9
$DIMSTYLE
  2
ISO-25
  9
$DIMCLRD
 70
     0
  9
$DIMCLRE
 70
     0
  9
$DIMCLRT
 70
     0
  9
$DIMTFAC
 40
1.0
  9
$DIMGAP
 40
1.524
  9
$DIMJUST
 70
     0
  9
$DIMSD1
 70
     0
  9
$DIMSD2
 70
     0
  9
$DIMTOLJ
 70
     0
  9
$DIMTZIN
 70
     0
  9
$DIMALTZ
 70
     0
  9
$DIMALTTZ
 70
     0
  9
$DIMUPT
 70
     0
  9
$DIMDEC
 70
     2
  9
$DIMTDEC
 70
     3
  9
$DIMALTU
 70
     2
  9
$DIMALTTD
 70
     3
  9
$DIMTXSTY
  7
Standard
  9
$DIMAUNIT
 70
     0
  9
$DIMADEC
 70
     2
  9
$DIMALTRND
 40
0.0
  9
$DIMAZIN
 70
     0
  9
$DIMDSEP
 70
    44
  9
$DIMATFIT
 70
     3
  9
$DIMFRAC
 70
     0
  9
$DIMLDRBLK
  1

  9
$DIMLUNIT
 70
     2
  9
$DIMLWD
 70
    -2
  9
$DIMLWE
 70
    -2
  9
$DIMTMOVE
 70
     0
  9
$LUNITS
 70
     2
  9
$LUPREC
 70
     2
  9
$SKETCHINC
 40
1.0
  9
$FILLETRAD
 40
10.0
  9
$AUNITS
 70
     0
  9
$AUPREC
 70
     2
  9
$MENU
  1
.
  9
$ELEVATION
 40
0.0
  9
$PELEVATION
 40
0.0
  9
$THICKNESS
 40
0.0
  9
$LIMCHECK
 70
     0
  9
$CHAMFERA
 40
0.0
  9
$CHAMFERB
 40
0.0
  9
$CHAMFERC
 40
0.0
  9
$CHAMFERD
 40
0.0
  9
$SKPOLY
 70
     0
  9
$TDCREATE
 40
2457675.616850706
  9
$TDUCREATE
 40
2457675.533517373
  9
$TDUPDATE
 40
2457675.616852095
  9
$TDUUPDATE
 40
2457675.533518761
  9
$TDINDWG
 40
0.0000000116
  9
$TDUSRTIMER
 40
0.0000000116
  9
$USRTIMER
 70
     1
  9
$ANGBASE
 50
0.0
  9
$ANGDIR
 70
     0
  9
$PDMODE
 70
     0
  9
$PDSIZE
 40
-1.0
  9
$PLINEWID
 40
0.0
  9
$SPLFRAME
 70
     0
  9
$SPLINETYPE
 70
     6
  9
$SPLINESEGS
 70
     8
  9
$HANDSEED
  5
253
  9
$SURFTAB1
 70
     6
  9
$SURFTAB2
 70
     6
  9
$SURFTYPE
 70
     6
  9
$SURFU
 70
     6
  9
$SURFV
 70
     6
  9
$UCSBASE
  2

  9
$UCSNAME
  2

  9
$UCSORG
 10
0.0
 20
0.0
 30
0.0
  9
$UCSXDIR
 10
1.0
 20
0.0
 30
0.0
  9
$UCSYDIR
 10
0.0
 20
1.0
 30
0.0
  9
$UCSORTHOREF
  2

  9
$UCSORTHOVIEW
 70
     0
  9
$UCSORGTOP
 10
0.0
 20
0.0
 30
0.0
  9
$UCSORGBOTTOM
 10
0.0
 20
0.0
 30
0.0
  9
$UCSORGLEFT
 10
0.0
 20
0.0
 30
0.0
  9
$UCSORGRIGHT
 10
0.0
 20
0.0
 30
0.0
  9
$UCSORGFRONT
 10
0.0
 20
0.0
 30
0.0
  9
$UCSORGBACK
 10
0.0
 20
0.0
 30
0.0
  9
$PUCSBASE
  2

  9
$PUCSNAME
  2

  9
$PUCSORG
 10
0.0
 20
0.0
 30
0.0
  9
$PUCSXDIR
 10
1.0
 20
0.0
 30
0.0
  9
$PUCSYDIR
 10
0.0
 20
1.0
 30
0.0
  9
$PUCSORTHOREF
  2

  9
$PUCSORTHOVIEW
 70
     0
  9
$PUCSORGTOP
 10
0.0
 20
0.0
 30
0.0
  9
$PUCSORGBOTTOM
 10
0.0
 20
0.0
 30
0.0
  9
$PUCSORGLEFT
 10
0.0
 20
0.0
 30
0.0
  9
$PUCSORGRIGHT
 10
0.0
 20
0.0
 30
0.0
  9
$PUCSORGFRONT
 10
0.0
 20
0.0
 30
0.0
  9
$PUCSORGBACK
 10
0.0
 20
0.0
 30
0.0
  9
$USERI1
 70
     0
  9
$USERI2
 70
     0
  9
$USERI3
 70
     0
  9
$USERI4
 70
     0
  9
$USERI5
 70
     0
  9
$USERR1
 40
0.0
  9
$USERR2
 40
0.0
  9
$USERR3
 40
0.0
  9
$USERR4
 40
0.0
  9
$USERR5
 40
0.0
  9
$WORLDVIEW
 70
     1
  9
$SHADEDGE
 70
     3
  9
$SHADEDIF
 70
    70
  9
$TILEMODE
 70
     1
  9
$MAXACTVP
 70
    64
  9
$PINSBASE
 10
0.0
 20
0.0
 30
0.0
  9
$PLIMCHECK
 70
     0
  9
$PEXTMIN
 10
1.0000000000E+20
 20
1.0000000000E+20
 30
1.0000000000E+20
  9
$PEXTMAX
 10
-1.0000000000E+20
 20
-1.0000000000E+20
 30
-1.0000000000E+20
  9
$PLIMMIN
 10
0.0
 20
0.0
  9
$PLIMMAX
 10
420.0
 20
297.0
  9
$UNITMODE
 70
     0
  9
$VISRETAIN
 70
     1
  9
$PLINEGEN
 70
     0
  9
$PSLTSCALE
 70
     1
  9
$TREEDEPTH
 70
  3020
  9
$CMLSTYLE
  2
Standard
  9
$CMLJUST
 70
     0
  9
$CMLSCALE
 40
20.0
  9
$PROXYGRAPHICS
 70
     1
  9
$MEASUREMENT
 70
     1
  9
$CELWEIGHT
370
    -1
  9
$ENDCAPS
280
     0
  9
$JOINSTYLE
280
     0
  9
$LWDISPLAY
290
     1
  9
$INSUNITS
 70
     4
  9
$HYPERLINKBASE
  1

  9
$STYLESHEET
  1

  9
$XEDIT
290
     1
  9
$CEPSNTYPE
380
     0
  9
$PSTYLEMODE
290
     1
  9
$FINGERPRINTGUID
  2
{36BE4C0A-22BB-4DF6-B086-2201F11C538A}
  9
$VERSIONGUID
  2
{FAEB1C32-E019-11D5-929B-00C0DF256EC4}
  9
$EXTNAMES
290
     1
  9
$PSVPSCALE
 40
0.0
  9
$OLESTARTUP
290
     0
  0
ENDSEC
  0
SECTION
  2
CLASSES
  0
CLASS
  1
ACDBDICTIONARYWDFLT
  2
AcDbDictionaryWithDefault
  3
ObjectDBX Classes
 90
        0
280
     0
281
     0
  0
CLASS
  1
VISUALSTYLE
  2
AcDbVisualStyle
  3
ObjectDBX Classes
 90
     4095
280
     0
281
     0
  0
CLASS
  1
MATERIAL
  2
AcDbMaterial
  3
ObjectDBX Classes
 90
     1153
280
     0
281
     0
  0
CLASS
  1
SCALE
  2
AcDbScale
  3
ObjectDBX Classes
 90
     1153
280
     0
281
     0
  0
CLASS
  1
TABLESTYLE
  2
AcDbTableStyle
  3
ObjectDBX Classes
 90
     4095
280
     0
281
     0
  0
CLASS
  1
MLEADERSTYLE
  2
AcDbMLeaderStyle
  3
ACDB_MLEADERSTYLE_CLASS
 90
     4095
280
     0
281
     0
  0
CLASS
  1
SUN
  2
AcDbSun
  3
SCENEOE
 90
     1153
280
     0
281
     0
  0
CLASS
  1
ACDBPLACEHOLDER
  2
AcDbPlaceHolder
  3
ObjectDBX Classes
 90
        0
280
     0
281
     0
  0
CLASS
  1
LAYOUT
  2
AcDbLayout
  3
ObjectDBX Classes
 90
        0
280
     0
281
     0
  0
ENDSEC
  0
SECTION
  2
TABLES
  0
TABLE
  2
VPORT
  5
8
330
0
100
AcDbSymbolTable
 70
     1
  0
VPORT
  5
29
330
8
100
AcDbSymbolTableRecord
100
AcDbViewportTableRecord
  2
*Active
 70
     0
 10
0.0
 20
0.0
 11
1.0
 21
1.0
 12
148.5
 22
105.0
 13
0.0
 23
0.0
 14
10.0
 24
10.0
 15
10.0
 25
10.0
 16
0.0
 26
0.0
 36
1.0
 17
0.0
 27
0.0
 37
0.0
 40
210.0
 41
1.4142857143
 42
50.0
 43
0.0
 44
0.0
 50
0.0
 51
0.0
 71
     0
 72
  2000
 73
     1
 74
     3
 75
     0
 76
     0
 77
     0
 78
     0
281
     0
 65
     1
110
0.0
120
0.0
130
0.0
111
1.0
121
0.0
131
0.0
112
0.0
122
1.0
132
0.0
 79
     0
146
0.0
  0
ENDTAB
  0
TABLE
  2
LTYPE
  5
5
330
0
100
AcDbSymbolTable
 70
     6
  0
LTYPE
  5
14
330
5
100
AcDbSymbolTableRecord
100
AcDbLinetypeTableRecord
  2
ByBlock
 70
     0
  3

 72
    65
 73
     0
 40
0.0
  0
LTYPE
  5
15
330
5
100
AcDbSymbolTableRecord
100
AcDbLinetypeTableRecord
  2
ByLayer
 70
     0
  3

 72
    65
 73
     0
 40
0.0
  0
LTYPE
  5
16
330
5
100
AcDbSymbolTableRecord
100
AcDbLinetypeTableRecord
  2
Continuous
 70
     0
  3
Solid line
 72
    65
 73
     0
 40
0.0
  0
LTYPE
  5
6E
330
5
100
AcDbSymbolTableRecord
100
AcDbLinetypeTableRecord
  2
HIDDEN
 70
     0
  3
Hidden __ __ __ __ __ __ __ __ __ __ __ __ __ __
 72
    65
 73
     2
 40
1.905
 49
1.27
 74
     0
 49
-0.635
 74
     0
  0
LTYPE
  5
6F
330
5
100
AcDbSymbolTableRecord
100
AcDbLinetypeTableRecord
  2
PHANTOM
 70
     0
  3
Phantom ______  __  __  ______  __  __  ______
 72
    65
 73
     6
 40
12.7
 49
6.35
 74
     0
 49
-1.27
 74
     0
 49
1.27
 74
     0
 49
-1.27
 74
     0
 49
1.27
 74
     0
 49
-1.27
 74
     0
  0
LTYPE
  5
70
330
5
100
AcDbSymbolTableRecord
100
AcDbLinetypeTableRecord
  2
CENTER
 70
     0
  3
Center ____ _ ____ _ ____ _ ____ _ ____ _ ____
 72
    65
 73
     4
 40
10.16
 49
6.35
 74
     0
 49
-1.27
 74
     0
 49
1.27
 74
     0
 49
-1.27
 74
     0
  0
LTYPE
  5
71
330
5
100
AcDbSymbolTableRecord
100
AcDbLinetypeTableRecord
  2
CENTERX2
 70
     0
  3
Center (2x) ________  __  ________  __  _____
 72
    65
 73
     4
 40
20.32
 49
12.7
 74
     0
 49
-2.54
 74
     0
 49
2.54
 74
     0
 49
-2.54
 74
     0
  0
LTYPE
  5
72
330
5
100
AcDbSymbolTableRecord
100
AcDbLinetypeTableRecord
  2
DOT2
 70
     0
  3
Dot (.5x) ........................................
 72
    65
 73
     2
 40
0.635
 49
0.0
 74
     0
 49
-0.635
 74
     0
  0
ENDTAB
  0
TABLE
  2
LAYER
  5
2
330
0
100
AcDbSymbolTable
 70
     5
  0
LAYER
  5
10
330
2
100
AcDbSymbolTableRecord
100
AcDbLayerTableRecord
  2
0
 70
     0
 62
     7
  6
Continuous
370
    -3
390
F
  0
LAYER
  5
73
330
2
100
AcDbSymbolTableRecord
100
AcDbLayerTableRecord
  2
FORMAT
 70
     0
 62
     7
  6
Continuous
370
    -3
390
F
  0
LAYER
  5
74
330
2
100
AcDbSymbolTableRecord
100
AcDbLayerTableRecord
  2
VERMASSUNG
 70
     0
 62
     7
  6
Continuous
370
    -3
390
F
  0
LAYER
  5
75
330
2
100
AcDbSymbolTableRecord
100
AcDbLayerTableRecord
  2
KOPF_DÜNN
 70
     0
 62
     7
  6
Continuous
370
    -3
390
F
  0
LAYER
  5
76
330
2
100
AcDbSymbolTableRecord
100
AcDbLayerTableRecord
  2
KOPF_DICK
 70
     0
 62
     7
  6
Continuous
370
    15
390
F
  0
ENDTAB
  0
TABLE
  2
STYLE
  5
3
330
0
100
AcDbSymbolTable
 70
     2
  0
STYLE
  5
11
330
3
100
AcDbSymbolTableRecord
100
AcDbTextStyleTableRecord
  2
Standard
 70
     0
 40
0.0
 41
1.0
 50
0.0
 71
     0
 42
2.0
  3
txt
  4

  0
STYLE
  5
77
330
3
100
AcDbSymbolTableRecord
100
AcDbTextStyleTableRecord
  2
SLDTEXTSTYLE0
 70
     0
 40
0.0
 41
0.7
 50
0.0
 71
     0
 42
2.0
  3
TXT
  4

  0
ENDTAB
  0
TABLE
  2
VIEW
  5
6
330
0
100
AcDbSymbolTable
 70
     0
  0
ENDTAB
  0
TABLE
  2
UCS
  5
7
330
0
100
AcDbSymbolTable
 70
     0
  0
ENDTAB
  0
TABLE
  2
APPID
  5
9
330
0
100
AcDbSymbolTable
 70
     1
  0
APPID
  5
12
330
9
100
AcDbSymbolTableRecord
100
AcDbRegAppTableRecord
  2
ACAD
 70
     0
  0
ENDTAB
  0
TABLE
  2
DIMSTYLE
  5
A
330
0
100
AcDbSymbolTable
 70
     2
100
AcDbDimStyleTable
  0
DIMSTYLE
105
27
330
A
100
AcDbSymbolTableRecord
100
AcDbDimStyleTableRecord
  2
ISO-25
 70
     0
 41
2.5
 42
0.625
 43
3.75
 44
1.25
 73
     0
 74
     0
 77
     1
 78
     8
140
2.5
141
2.5
143
0.0393700787
147
0.625
171
     3
172
     1
178
     0
271
     2
272
     2
274
     3
278
    44
283
     0
284
     8
340
11
  0
DIMSTYLE
105
1A5
102
{ACAD_REACTORS
330
1A4
330
1B1
330
1BB
330
1C5
330
1CF
330
1DB
102
}
330
A
100
AcDbSymbolTableRecord
100
AcDbDimStyleTableRecord
  2
SLDDIMSTYLE0
 70
     0
 41
3.0
 44
0.0
 45
0.000000001
 73
     0
 74
     0
 77
     1
 78
    12
 79
     3
140
2.0
147
0.5
173
     1
178
     0
271
     2
272
     3
276
     2
284
    12
340
77
  0
ENDTAB
  0
TABLE
  2
BLOCK_RECORD
  5
1
330
0
100
AcDbSymbolTable
 70
     7
  0
BLOCK_RECORD
  5
1F
330
1
100
AcDbSymbolTableRecord
100
AcDbBlockTableRecord
  2
*Model_Space
340
22
  0
BLOCK_RECORD
  5
1B
330
1
100
AcDbSymbolTableRecord
100
AcDbBlockTableRecord
  2
*Paper_Space
340
1E
  0
BLOCK_RECORD
  5
23
330
1
100
AcDbSymbolTableRecord
100
AcDbBlockTableRecord
  2
*Paper_Space0
340
26
  0
BLOCK_RECORD
  5
1A6
330
1
100
AcDbSymbolTableRecord
100
AcDbBlockTableRecord
  2
_D
340
0
  0
BLOCK_RECORD
  5
1B2
330
1
100
AcDbSymbolTableRecord
100
AcDbBlockTableRecord
  2
_D_1
340
0
  0
BLOCK_RECORD
  5
1BC
330
1
100
AcDbSymbolTableRecord
100
AcDbBlockTableRecord
  2
_D_2
340
0
  0
BLOCK_RECORD
  5
1C6
330
1
100
AcDbSymbolTableRecord
100
AcDbBlockTableRecord
  2
_D_3
340
0
  0
BLOCK_RECORD
  5
1D0
330
1
100
AcDbSymbolTableRecord
100
AcDbBlockTableRecord
  2
_D_4
340
0
  0
BLOCK_RECORD
  5
1DC
330
1
100
AcDbSymbolTableRecord
100
AcDbBlockTableRecord
  2
_D_5
340
0
  0
ENDTAB
  0
ENDSEC
  0
SECTION
  2
BLOCKS
  0
BLOCK
  5
20
330
1F
100
AcDbEntity
  8
0
100
AcDbBlockBegin
  2
*Model_Space
 70
     0
 10
0.0
 20
0.0
 30
0.0
  3
*Model_Space
  1

  0
ENDBLK
  5
21
330
1F
100
AcDbEntity
  8
0
100
AcDbBlockEnd
  0
BLOCK
  5
1C
330
1B
100
AcDbEntity
 67
     1
  8
0
100
AcDbBlockBegin
  2
*Paper_Space
 70
     0
 10
0.0
 20
0.0
 30
0.0
  3
*Paper_Space
  1

  0
ENDBLK
  5
1D
330
1B
100
AcDbEntity
 67
     1
  8
0
100
AcDbBlockEnd
  0
BLOCK
  5
24
330
23
100
AcDbEntity
  8
0
100
AcDbBlockBegin
  2
*Paper_Space0
 70
     0
 10
0.0
 20
0.0
 30
0.0
  3
*Paper_Space0
  1

  0
ENDBLK
  5
25
330
23
100
AcDbEntity
  8
0
100
AcDbBlockEnd
  0
BLOCK
  5
1A7
330
1A6
100
AcDbEntity
  8
0
100
AcDbBlockBegin
  2
_D
 70
     0
 10
0.0
 20
0.0
 30
0.0
  3
_D
  1

  0
SOLID
  5
1A9
330
1A6
100
AcDbEntity
  8
VERMASSUNG
100
AcDbTrace
 10
59.9952215229
 20
81.0222225613
 30
0.0
 11
60.4452215229
 21
84.0222225613
 31
0.0
 12
59.5452215229
 22
84.0222225613
 32
0.0
 13
59.5452215229
 23
84.0222225613
 33
0.0
  0
SOLID
  5
1AA
330
1A6
100
AcDbEntity
  8
VERMASSUNG
100
AcDbTrace
 10
59.9952215229
 20
144.0222225613
 30
0.0
 11
59.5452215229
 21
141.0222225613
 31
0.0
 12
60.4452215229
 22
141.0222225613
 32
0.0
 13
60.4452215229
 23
141.0222225613
 33
0.0
  0
LINE
  5
1AB
330
1A6
100
AcDbEntity
  8
VERMASSUNG
100
AcDbLine
 10
163.6315138156
 20
81.0222225613
 30
0.0
 11
58.9952215229
 21
81.0222225613
 31
0.0
  0
LINE
  5
1AC
330
1A6
100
AcDbEntity
  8
VERMASSUNG
100
AcDbLine
 10
163.6315138157
 20
144.0222225613
 30
0.0
 11
58.9952215229
 21
144.0222225613
 31
0.0
  0
LINE
  5
1AD
330
1A6
100
AcDbEntity
  8
VERMASSUNG
100
AcDbLine
 10
59.9952215229
 20
81.0222225613
 30
0.0
 11
59.9952215229
 21
144.0222225613
 31
0.0
  0
MTEXT
  5
1AE
330
1A6
100
AcDbEntity
  8
VERMASSUNG
100
AcDbMText
 10
57.2170862667
 20
101.7184686993
 30
0.0
 40
2.0
 41
0.0
 71
     1
 72
     1
  1
MAS-BT 40
  7
SLDTEXTSTYLE0
 11
3.391901413832837E-15
 21
1.0
 31
0.0
 73
     1
 44
1.0
  0
MTEXT
  5
1AF
330
1A6
100
AcDbEntity
  8
VERMASSUNG
100
AcDbMText
 10
57.417086218
 20
116.9184689556
 30
0.0
 40
2.0
 41
0.0
 71
     1
 72
     1
  1
%%c
  7
SLDTEXTSTYLE0
 11
3.391901413832837E-15
 21
1.0
 31
0.0
 73
     1
 44
1.0
  0
MTEXT
  5
1B0
330
1A6
100
AcDbEntity
  8
VERMASSUNG
100
AcDbMText
 10
57.417085927
 20
120.5265964027
 30
0.0
 40
2.0
 41
0.0
 71
     1
 72
     1
  1
63
  7
SLDTEXTSTYLE0
 11
3.391901413832837E-15
 21
1.0
 31
0.0
 73
     1
 44
1.0
  0
ENDBLK
  5
1A8
330
1A6
100
AcDbEntity
  8
0
100
AcDbBlockEnd
  0
BLOCK
  5
1B3
330
1B2
100
AcDbEntity
  8
0
100
AcDbBlockBegin
  2
_D_1
 70
     0
 10
0.0
 20
0.0
 30
0.0
  3
_D_1
  1

  0
SOLID
  5
1B5
330
1B2
100
AcDbEntity
  8
VERMASSUNG
100
AcDbTrace
 10
72.2315138156
 20
161.6351348232
 30
0.0
 11
75.2315138156
 21
161.1851348232
 31
0.0
 12
75.2315138156
 22
162.0851348232
 32
0.0
 13
75.2315138156
 23
162.0851348232
 33
0.0
  0
SOLID
  5
1B6
330
1B2
100
AcDbEntity
  8
VERMASSUNG
100
AcDbTrace
 10
230.6315138156
 20
161.6351348232
 30
0.0
 11
227.6315138156
 21
162.0851348232
 31
0.0
 12
227.6315138156
 22
161.1851348232
 32
0.0
 13
227.6315138156
 23
161.1851348232
 33
0.0
  0
LINE
  5
1B7
330
1B2
100
AcDbEntity
  8
VERMASSUNG
100
AcDbLine
 10
72.2315138156
 20
124.3449781583
 30
0.0
 11
72.2315138156
 21
162.6351348232
 31
0.0
  0
LINE
  5
1B8
330
1B2
100
AcDbEntity
  8
VERMASSUNG
100
AcDbLine
 10
230.6315138156
 20
128.2222225613
 30
0.0
 11
230.6315138156
 21
162.6351348232
 31
0.0
  0
LINE
  5
1B9
330
1B2
100
AcDbEntity
  8
VERMASSUNG
100
AcDbLine
 10
72.2315138156
 20
161.6351348232
 30
0.0
 11
230.6315138156
 21
161.6351348232
 31
0.0
  0
MTEXT
  5
1BA
330
1B2
100
AcDbEntity
  8
VERMASSUNG
100
AcDbMText
 10
148.4315137896
 20
164.2132704191
 30
0.0
 40
2.0
 41
0.0
 71
     1
 72
     1
  1
158.4
  7
SLDTEXTSTYLE0
 73
     1
 44
1.0
  0
ENDBLK
  5
1B4
330
1B2
100
AcDbEntity
  8
0
100
AcDbBlockEnd
  0
BLOCK
  5
1BD
330
1BC
100
AcDbEntity
  8
0
100
AcDbBlockBegin
  2
_D_2
 70
     0
 10
0.0
 20
0.0
 30
0.0
  3
_D_2
  1

  0
SOLID
  5
1BF
330
1BC
100
AcDbEntity
  8
VERMASSUNG
100
AcDbTrace
 10
137.6315138156
 20
155.6351348232
 30
0.0
 11
140.6315138156
 21
155.1851348232
 31
0.0
 12
140.6315138156
 22
156.0851348232
 32
0.0
 13
140.6315138156
 23
156.0851348232
 33
0.0
  0
SOLID
  5
1C0
330
1BC
100
AcDbEntity
  8
VERMASSUNG
100
AcDbTrace
 10
230.6315138156
 20
155.6351348232
 30
0.0
 11
227.6315138156
 21
156.0851348232
 31
0.0
 12
227.6315138156
 22
155.1851348232
 32
0.0
 13
227.6315138156
 23
155.1851348232
 33
0.0
  0
LINE
  5
1C1
330
1BC
100
AcDbEntity
  8
VERMASSUNG
100
AcDbLine
 10
137.6315138156
 20
134.7472225613
 30
0.0
 11
137.6315138156
 21
156.6351348232
 31
0.0
  0
LINE
  5
1C2
330
1BC
100
AcDbEntity
  8
VERMASSUNG
100
AcDbLine
 10
230.6315138156
 20
128.2222225613
 30
0.0
 11
230.6315138156
 21
156.6351348232
 31
0.0
  0
LINE
  5
1C3
330
1BC
100
AcDbEntity
  8
VERMASSUNG
100
AcDbLine
 10
137.6315138156
 20
155.6351348232
 30
0.0
 11
230.6315138156
 21
155.6351348232
 31
0.0
  0
MTEXT
  5
1C4
330
1BC
100
AcDbEntity
  8
VERMASSUNG
100
AcDbMText
 10
182.7315138656
 20
158.2132704191
 30
0.0
 40
2.0
 41
0.0
 71
     1
 72
     1
  1
93
  7
SLDTEXTSTYLE0
 73
     1
 44
1.0
  0
ENDBLK
  5
1BE
330
1BC
100
AcDbEntity
  8
0
100
AcDbBlockEnd
  0
BLOCK
  5
1C7
330
1C6
100
AcDbEntity
  8
0
100
AcDbBlockBegin
  2
_D_3
 70
     0
 10
0.0
 20
0.0
 30
0.0
  3
_D_3
  1

  0
SOLID
  5
1C9
330
1C6
100
AcDbEntity
  8
VERMASSUNG
100
AcDbTrace
 10
164.6315138156
 20
149.6351348232
 30
0.0
 11
167.6315138156
 21
149.1851348232
 31
0.0
 12
167.6315138156
 22
150.0851348232
 32
0.0
 13
167.6315138156
 23
150.0851348232
 33
0.0
  0
SOLID
  5
1CA
330
1C6
100
AcDbEntity
  8
VERMASSUNG
100
AcDbTrace
 10
230.6315138156
 20
149.6351348232
 30
0.0
 11
227.6315138156
 21
150.0851348232
 31
0.0
 12
227.6315138156
 22
149.1851348232
 32
0.0
 13
227.6315138156
 23
149.1851348232
 33
0.0
  0
LINE
  5
1CB
330
1C6
100
AcDbEntity
  8
VERMASSUNG
100
AcDbLine
 10
164.6315138156
 20
143.0222225613
 30
0.0
 11
164.6315138156
 21
150.6351348232
 31
0.0
  0
LINE
  5
1CC
330
1C6
100
AcDbEntity
  8
VERMASSUNG
100
AcDbLine
 10
230.6315138156
 20
128.2222225613
 30
0.0
 11
230.6315138156
 21
150.6351348232
 31
0.0
  0
LINE
  5
1CD
330
1C6
100
AcDbEntity
  8
VERMASSUNG
100
AcDbLine
 10
164.6315138156
 20
149.6351348232
 30
0.0
 11
230.6315138156
 21
149.6351348232
 31
0.0
  0
MTEXT
  5
1CE
330
1C6
100
AcDbEntity
  8
VERMASSUNG
100
AcDbMText
 10
196.2315138656
 20
152.2132704191
 30
0.0
 40
2.0
 41
0.0
 71
     1
 72
     1
  1
66
  7
SLDTEXTSTYLE0
 73
     1
 44
1.0
  0
ENDBLK
  5
1C8
330
1C6
100
AcDbEntity
  8
0
100
AcDbBlockEnd
  0
BLOCK
  5
1D1
330
1D0
100
AcDbEntity
  8
0
100
AcDbBlockBegin
  2
_D_4
 70
     0
 10
0.0
 20
0.0
 30
0.0
  3
_D_4
  1

  0
SOLID
  5
1D3
330
1D0
100
AcDbEntity
  8
VERMASSUNG
100
AcDbTrace
 10
244.9668941282
 20
128.5222225613
 30
0.0
 11
244.5168941282
 21
125.5222225613
 31
0.0
 12
245.4168941282
 22
125.5222225613
 32
0.0
 13
245.4168941282
 23
125.5222225613
 33
0.0
  0
SOLID
  5
1D4
330
1D0
100
AcDbEntity
  8
VERMASSUNG
100
AcDbTrace
 10
244.9668941282
 20
96.5222225613
 30
0.0
 11
245.4168941282
 21
99.5222225613
 31
0.0
 12
244.5168941282
 22
99.5222225613
 32
0.0
 13
244.5168941282
 23
99.5222225613
 33
0.0
  0
LINE
  5
1D5
330
1D0
100
AcDbEntity
  8
VERMASSUNG
100
AcDbLine
 10
230.3315138156
 20
128.5222225613
 30
0.0
 11
245.9668941282
 21
128.5222225613
 31
0.0
  0
LINE
  5
1D6
330
1D0
100
AcDbEntity
  8
VERMASSUNG
100
AcDbLine
 10
230.3315138156
 20
96.5222225613
 30
0.0
 11
245.9668941282
 21
96.5222225613
 31
0.0
  0
LINE
  5
1D7
330
1D0
100
AcDbEntity
  8
VERMASSUNG
100
AcDbLine
 10
244.9668941282
 20
128.5222225613
 30
0.0
 11
244.9668941282
 21
96.5222225613
 31
0.0
  0
MTEXT
  5
1D8
330
1D0
100
AcDbEntity
  8
VERMASSUNG
100
AcDbMText
 10
242.1887588719
 20
107.417222572
 30
0.0
 40
2.0
 41
0.0
 71
     1
 72
     1
  1
WH
  7
SLDTEXTSTYLE0
 11
-7.044195017643634E-15
 21
1.0
 31
0.0
 73
     1
 44
1.0
  0
MTEXT
  5
1D9
330
1D0
100
AcDbEntity
  8
VERMASSUNG
100
AcDbMText
 10
242.3887588232
 20
111.2172226361
 30
0.0
 40
2.0
 41
0.0
 71
     1
 72
     1
  1
%%c
  7
SLDTEXTSTYLE0
 11
-7.044195017643634E-15
 21
1.0
 31
0.0
 73
     1
 44
1.0
  0
MTEXT
  5
1DA
330
1D0
100
AcDbEntity
  8
VERMASSUNG
100
AcDbMText
 10
242.1887588719
 20
114.8272226504
 30
0.0
 40
2.0
 41
0.0
 71
     1
 72
     1
  1
32
  7
SLDTEXTSTYLE0
 11
-7.044195017643634E-15
 21
1.0
 31
0.0
 73
     1
 44
1.0
  0
ENDBLK
  5
1D2
330
1D0
100
AcDbEntity
  8
0
100
AcDbBlockEnd
  0
BLOCK
  5
1DD
330
1DC
100
AcDbEntity
  8
0
100
AcDbBlockBegin
  2
_D_5
 70
     0
 10
0.0
 20
0.0
 30
0.0
  3
_D_5
  1

  0
SOLID
  5
1DF
330
1DC
100
AcDbEntity
  8
VERMASSUNG
100
AcDbTrace
 10
238.7668941282
 20
121.5222225613
 30
0.0
 11
238.3168941282
 21
118.5222225613
 31
0.0
 12
239.2168941282
 22
118.5222225613
 32
0.0
 13
239.2168941282
 23
118.5222225613
 33
0.0
  0
SOLID
  5
1E0
330
1DC
100
AcDbEntity
  8
VERMASSUNG
100
AcDbTrace
 10
238.7668941282
 20
103.5222225613
 30
0.0
 11
239.2168941282
 21
106.5222225613
 31
0.0
 12
238.3168941282
 22
106.5222225613
 32
0.0
 13
238.3168941282
 23
106.5222225613
 33
0.0
  0
LINE
  5
1E1
330
1DC
100
AcDbEntity
  8
VERMASSUNG
100
AcDbLine
 10
229.6315138156
 20
121.5222225613
 30
0.0
 11
239.7668941282
 21
121.5222225613
 31
0.0
  0
LINE
  5
1E2
330
1DC
100
AcDbEntity
  8
VERMASSUNG
100
AcDbLine
 10
229.6315138156
 20
103.5222225613
 30
0.0
 11
239.7668941282
 21
103.5222225613
 31
0.0
  0
LINE
  5
1E3
330
1DC
100
AcDbEntity
  8
VERMASSUNG
100
AcDbLine
 10
238.7668941282
 20
121.5222225613
 30
0.0
 11
238.7668941282
 21
103.5222225613
 31
0.0
  0
MTEXT
  5
1E4
330
1DC
100
AcDbEntity
  8
VERMASSUNG
100
AcDbMText
 10
236.1887588232
 20
109.5172224971
 30
0.0
 40
2.0
 41
0.0
 71
     1
 72
     1
  1
%%c
  7
SLDTEXTSTYLE0
 11
-7.044195017643634E-15
 21
1.0
 31
0.0
 73
     1
 44
1.0
  0
MTEXT
  5
1E5
330
1DC
100
AcDbEntity
  8
VERMASSUNG
100
AcDbMText
 10
235.9887588719
 20
113.1272225114
 30
0.0
 40
2.0
 41
0.0
 71
     1
 72
     1
  1
18
  7
SLDTEXTSTYLE0
 11
-7.044195017643634E-15
 21
1.0
 31
0.0
 73
     1
 44
1.0
  0
ENDBLK
  5
1DE
330
1DC
100
AcDbEntity
  8
0
100
AcDbBlockEnd
  0
ENDSEC
  0
SECTION
  2
ENTITIES
  0
MTEXT
  5
78
330
1F
100
AcDbEntity
  8
KOPF_DÜNN
100
AcDbMText
 10
13.8892156294
 20
23.8442973028
 30
0.0
 40
3.0
 41
0.0
 71
     1
 72
     1
  1
A34.540.032.093
  7
SLDTEXTSTYLE0
 73
     1
 44
1.0
  0
MTEXT
  5
79
330
1F
100
AcDbEntity
  8
VERMASSUNG
100
AcDbMText
 10
13.9329988022
 20
28.8834360957
 30
0.0
 40
3.0
 41
0.0
 71
     1
 72
     1
  1
Aufnahme_Master shank
  7
SLDTEXTSTYLE0
 73
     1
 44
1.0
  0
MTEXT
  5
7A
330
1F
100
AcDbEntity
  8
VERMASSUNG
100
AcDbMText
 10
98.8601118557
 20
13.8365368761
 30
0.0
 40
2.0
 41
0.0
 71
     1
 72
     1
  1
Datum: 17.11.2011
  7
SLDTEXTSTYLE0
 73
     1
 44
1.0
  0
MTEXT
  5
7B
330
1F
100
AcDbEntity
  8
VERMASSUNG
100
AcDbMText
 10
13.933048693
 20
18.0482802738
 30
0.0
 40
2.0
 41
0.0
 71
     1
 72
     1
  1
MAS-BT A/D
  7
SLDTEXTSTYLE0
 73
     1
 44
1.0
  0
MTEXT
  5
7C
330
1F
100
AcDbEntity
  8
VERMASSUNG
100
AcDbMText
 10
13.9808475933
 20
13.9090974274
 30
0.0
 40
2.0
 41
0.0
 71
     1
 72
     1
  1
Gewicht: 1337g
  7
SLDTEXTSTYLE0
 73
     1
 44
1.0
  0
LINE
  5
7D
330
1F
100
AcDbEntity
  8
0
  6
Continuous
 62
     7
370
    15
100
AcDbLine
 10
161.631516257
 20
81.0222225613
 30
0.0
 11
163.6315138156
 21
81.0222225613
 31
0.0
  0
LINE
  5
7E
330
1F
100
AcDbEntity
  8
0
  6
Continuous
 62
     7
370
    15
100
AcDbLine
 10
163.6315138156
 20
144.0222225613
 30
0.0
 11
161.6310136456
 21
144.0222225613
 31
0.0
  0
ARC
  5
7F
330
1F
100
AcDbEntity
  8
0
  6
Continuous
 62
     7
370
    15
100
AcDbCircle
 10
163.6315138156
 20
82.0222225613
 30
0.0
 40
1.0
100
AcDbArc
 50
270.0
 51
0.0
  0
ARC
  5
80
330
1F
100
AcDbEntity
  8
0
  6
Continuous
 62
     7
370
    15
100
AcDbCircle
 10
163.6315138156
 20
143.0222225613
 30
0.0
 40
1.0
100
AcDbArc
 50
0.0
 51
90.0
  0
ARC
  5
81
330
1F
100
AcDbEntity
  8
0
  6
Continuous
 62
     7
370
    15
100
AcDbCircle
 10
138.6315138156
 20
89.2972225613
 30
0.0
 40
1.000000000000011
100
AcDbArc
 50
46.4299366488
 51
90.0
  0
ARC
  5
82
330
1F
100
AcDbEntity
  8
0
  6
Continuous
 62
     7
370
    15
100
AcDbCircle
 10
138.6315138156
 20
135.7472225613
 30
0.0
 40
1.000000000000006
100
AcDbArc
 50
270.0
 51
313.5373955816
  0
LINE
  5
83
330
1F
100
AcDbEntity
  8
0
  6
Continuous
 62
     7
370
    15
100
AcDbLine
 10
137.6315138156
 20
134.7472225613
 30
0.0
 11
73.0872069226
 21
125.3345111394
 31
0.0
  0
LINE
  5
84
330
1F
100
AcDbEntity
  8
0
  6
Continuous
 62
     7
370
    15
100
AcDbLine
 10
73.0872069226
 20
99.7099339832
 30
0.0
 11
137.6315138156
 21
90.2972225613
 31
0.0
  0
LINE
  5
85
330
1F
100
AcDbEntity
  8
0
  6
Continuous
 62
     7
370
    15
100
AcDbLine
 10
137.6315138156
 20
90.2972225613
 30
0.0
 11
138.6315138156
 21
90.2972225613
 31
0.0
  0
LINE
  5
86
330
1F
100
AcDbEntity
  8
0
  6
Continuous
 62
     7
370
    15
100
AcDbLine
 10
138.6315138156
 20
134.7472225613
 30
0.0
 11
137.6315138156
 21
134.7472225613
 31
0.0
  0
ARC
  5
87
330
1F
100
AcDbEntity
  8
0
  6
Continuous
 62
     7
370
    15
100
AcDbCircle
 10
167.6315138156
 20
93.5222225613
 30
0.0
 40
3.0
100
AcDbArc
 50
90.0
 51
180.0
  0
ARC
  5
88
330
1F
100
AcDbEntity
  8
0
  6
Continuous
 62
     7
370
    15
100
AcDbCircle
 10
167.6315138156
 20
131.5222225613
 30
0.0
 40
3.0
100
AcDbArc
 50
180.0
 51
270.0
  0
LINE
  5
89
330
1F
100
AcDbEntity
  8
0
  6
Continuous
 62
     7
370
    15
100
AcDbLine
 10
230.3315138156
 20
96.5222225613
 30
0.0
 11
230.6315138156
 21
96.8222225613
 31
0.0
  0
LINE
  5
8A
330
1F
100
AcDbEntity
  8
0
  6
Continuous
 62
     7
370
    15
100
AcDbLine
 10
230.6315138156
 20
128.2222225613
 30
0.0
 11
230.3315138156
 21
128.5222225613
 31
0.0
  0
LINE
  5
8B
330
1F
100
AcDbEntity
  8
0
  6
Continuous
 62
     7
370
    15
100
AcDbLine
 10
213.5824857458
 20
128.5222225613
 30
0.0
 11
167.6315138156
 21
128.5222225613
 31
0.0
  0
LINE
  5
8C
330
1F
100
AcDbEntity
  8
0
  6
Continuous
 62
     7
370
    15
100
AcDbLine
 10
230.3315138156
 20
128.5222225613
 30
0.0
 11
223.5699134353
 21
128.5222225613
 31
0.0
  0
LINE
  5
8D
330
1F
100
AcDbEntity
  8
0
  6
Continuous
 62
     7
370
    15
100
AcDbLine
 10
167.6315138156
 20
96.5222225613
 30
0.0
 11
230.3315138156
 21
96.5222225613
 31
0.0
  0
ARC
  5
8E
330
1F
100
AcDbEntity
  8
0
  6
Continuous
 62
     7
370
    15
100
AcDbCircle
 10
73.2315138156
 20
100.6994669642
 30
0.0
 40
1.00000000000001
100
AcDbArc
 50
180.0
 51
261.7028550302
  0
ARC
  5
8F
330
1F
100
AcDbEntity
  8
0
  6
Continuous
 62
     7
370
    15
100
AcDbCircle
 10
73.2315138156
 20
124.3449781583
 30
0.0
 40
1.0
100
AcDbArc
 50
98.2971449698
 51
180.0
  0
LINE
  5
90
330
1F
100
AcDbEntity
  8
0
  6
Continuous
 62
     7
370
    15
100
AcDbLine
 10
222.1734227679
 20
128.230313609
 30
0.0
 11
221.8815138156
 21
128.5222225613
 31
0.0
  0
LINE
  5
91
330
1F
100
AcDbEntity
  8
0
  6
Continuous
 62
     7
370
    15
100
AcDbLine
 10
215.2815138156
 20
128.5222225613
 30
0.0
 11
214.5815138156
 21
127.8222225613
 31
0.0
  0
SPLINE
  5
92
330
1F
100
AcDbEntity
  8
0
  6
Continuous
 62
     7
370
    15
100
AcDbSpline
210
0.0
220
0.0
230
1.0
 70
     8
 71
     3
 72
    11
 73
     7
 74
     0
 42
0.000000001
 43
0.00000001
 40
0.0
 40
0.0
 40
0.0
 40
0.0
 40
0.2488814606714261
 40
0.5011921284371436
 40
0.7520447562616431
 40
1.0
 40
1.0
 40
1.0
 40
1.0
 10
161.6310136456328
 20
144.0220728158608
 30
0.0
 10
161.6012353161407
 20
144.0129407897163
 30
0.0
 10
161.5412683571748
 20
143.9945509120293
 30
0.0
 10
161.0493462953961
 20
143.8505136635427
 30
0.0
 10
160.3212768727674
 20
143.6411105854319
 30
0.0
 10
159.6105334015952
 20
143.4689063160823
 30
0.0
 10
159.2572258844588
 20
143.3833043157659
 30
0.0
  0
SPLINE
  5
93
330
1F
100
AcDbEntity
  8
0
  6
Continuous
 62
     7
370
    15
100
AcDbSpline
210
0.0
220
0.0
230
1.0
 70
     8
 71
     3
 72
    24
 73
    20
 74
     0
 42
0.000000001
 43
0.00000001
 40
0.0
 40
0.0
 40
0.0
 40
0.0
 40
0.0452123390553297
 40
0.0902993246598282
 40
0.1353091570720049
 40
0.1802902845531662
 40
0.2252912480536735
 40
0.2703605244088471
 40
0.315546370566241
 40
0.3608966713275183
 40
0.4064587929582132
 40
0.4522794448058856
 40
0.4984045507850309
 40
0.5831172992473144
 40
0.6669885232160451
 40
0.7503119012110596
 40
0.8333869220130001
 40
0.9165157587062372
 40
1.0
 40
1.0
 40
1.0
 40
1.0
 10
159.2571325090675
 20
81.6611245417318
 30
0.0
 10
159.3248362509753
 20
81.64536550071321
 30
0.0
 10
159.4600560228108
 20
81.6138911113983
 30
0.0
 10
159.6527177396609
 20
81.56743030805718
 30
0.0
 10
159.8374546113186
 20
81.52179932842364
 30
0.0
 10
160.013572552616
 20
81.47717403098959
 30
0.0
 10
160.1812563452308
 20
81.4336867443905
 30
0.0
 10
160.3404558295228
 20
81.39148569659282
 30
0.0
 10
160.491183968002
 20
81.35071910428128
 30
0.0
 10
160.6334369214363
 20
81.3115393516751
 30
0.0
 10
160.767215676511
 20
81.27410205987094
 30
0.0
 10
160.8925195874372
 20
81.23856547591116
 30
0.0
 10
161.0416246770316
 20
81.19584726273726
 30
0.0
 10
161.2024793971106
 20
81.14931251784938
 30
0.0
 10
161.3584890294857
 20
81.1036274690734
 30
0.0
 10
161.4801427499737
 20
81.0675878423942
 30
0.0
 10
161.5665910504063
 20
81.04171380228492
 30
0.0
 10
161.620931056181
 20
81.02530111182041
 30
0.0
 10
161.6279811230962
 20
81.023250209408
 30
0.0
 10
161.6315136758502
 20
81.02222257079805
 30
0.0
  0
LINE
  5
94
330
1F
100
AcDbEntity
  8
0
  6
Continuous
 62
     7
370
    15
100
AcDbLine
 10
159.2565138156
 20
81.6611245417
 30
0.0
 11
159.2565138156
 21
143.3833043158
 31
0.0
  0
SPLINE
  5
95
330
1F
100
AcDbEntity
  8
0
  6
Continuous
 62
     7
370
    15
100
AcDbSpline
210
0.0
220
0.0
230
1.0
 70
     8
 71
     3
 72
    10
 73
     6
 74
     0
 42
0.000000001
 43
0.00000001
 40
0.0
 40
0.0
 40
0.0
 40
0.0
 40
0.5
 40
0.5
 40
1.0
 40
1.0
 40
1.0
 40
1.0
 10
158.6081222196954
 20
142.4266832826214
 30
0.0
 10
158.292018388556
 20
141.8068207243442
 30
0.0
 10
157.9622393442112
 20
141.1609199890454
 30
0.0
 10
157.2900160718224
 20
139.8465013487449
 30
0.0
 10
156.9478829058918
 20
139.1785791217326
 30
0.0
 10
156.6007025773776
 20
138.5022413892512
 30
0.0
  0
SPLINE
  5
96
330
1F
100
AcDbEntity
  8
0
  6
Continuous
 62
     7
370
    15
100
AcDbSpline
210
0.0
220
0.0
230
1.0
 70
     8
 71
     3
 72
     9
 73
     5
 74
     0
 42
0.000000001
 43
0.00000001
 40
0.0
 40
0.0
 40
0.0
 40
0.0
 40
0.5067583433954557
 40
1.0
 40
1.0
 40
1.0
 40
1.0
 10
159.2571443586344
 20
143.3843576686163
 30
0.0
 10
159.1467444012861
 20
143.2222834089517
 30
0.0
 10
158.9288891675495
 20
142.9024578712435
 30
0.0
 10
158.7142958214756
 20
142.5841093262914
 30
0.0
 10
158.6084494439617
 20
142.4270865626015
 30
0.0
  0
SPLINE
  5
97
330
1F
100
AcDbEntity
  8
0
  6
Continuous
 62
     7
370
    15
100
AcDbSpline
210
0.0
220
0.0
230
1.0
 70
     8
 71
     3
 72
     9
 73
     5
 74
     0
 42
0.000000001
 43
0.00000001
 40
0.0
 40
0.0
 40
0.0
 40
0.0
 40
0.4932438861072345
 40
1.0
 40
1.0
 40
1.0
 40
1.0
 10
158.6084355289389
 20
82.61735645956247
 30
0.0
 10
158.7142820194319
 20
82.46033254765689
 30
0.0
 10
158.9288746245798
 20
82.14198311377976
 30
0.0
 10
159.1467286735663
 20
81.82215762603953
 30
0.0
 10
159.2571275448265
 20
81.66008410474842
 30
0.0
  0
SPLINE
  5
98
330
1F
100
AcDbEntity
  8
0
  6
Continuous
 62
     7
370
    15
100
AcDbSpline
210
0.0
220
0.0
230
1.0
 70
     8
 71
     3
 72
    10
 73
     6
 74
     0
 42
0.000000001
 43
0.00000001
 40
0.0
 40
0.0
 40
0.0
 40
0.0
 40
0.5
 40
0.5
 40
1.0
 40
1.0
 40
1.0
 40
1.0
 10
158.6081163000276
 20
82.61777344806224
 30
0.0
 10
158.2919371973535
 20
83.23778360007594
 30
0.0
 10
157.9614949701865
 20
83.88498166594366
 30
0.0
 10
157.2897834495037
 20
85.19839759053744
 30
0.0
 10
156.9478095744718
 20
85.86600885684022
 30
0.0
 10
156.6007025773776
 20
86.5422037332834
 30
0.0
  0
LINE
  5
99
330
1F
100
AcDbEntity
  8
0
  6
Continuous
 62
     7
370
    15
100
AcDbLine
 10
164.6315138156
 20
82.0222225613
 30
0.0
 11
164.6315138156
 21
143.0222225539
 31
0.0
  0
LINE
  5
9A
330
1F
100
AcDbEntity
  8
0
  6
Continuous
 62
     7
370
    15
100
AcDbLine
 10
149.2065138156
 20
142.7586126643
 30
0.0
 11
140.6315138156
 21
142.7586126643
 31
0.0
  0
LINE
  5
9B
330
1F
100
AcDbEntity
  8
0
  6
Continuous
 62
     7
370
    15
100
AcDbLine
 10
149.2065138156
 20
82.2858324583
 30
0.0
 11
149.2065138156
 21
142.7586126643
 31
0.0
  0
LINE
  5
9C
330
1F
100
AcDbEntity
  8
0
  6
Continuous
 62
     7
370
    15
100
AcDbLine
 10
140.6315138156
 20
82.2858324583
 30
0.0
 11
149.2065138156
 21
82.2858324583
 31
0.0
  0
LINE
  5
9D
330
1F
100
AcDbEntity
  8
0
  6
Continuous
 62
     7
370
    15
100
AcDbLine
 10
139.6315138156
 20
83.3958170158
 30
0.0
 11
139.6315138156
 21
141.6486281068
 31
0.0
  0
SPLINE
  5
9E
330
1F
100
AcDbEntity
  8
0
  6
Continuous
 62
     7
370
    15
100
AcDbSpline
210
0.0
220
0.0
230
1.0
 70
     8
 71
     3
 72
    12
 73
     8
 74
     0
 42
0.000000001
 43
0.00000001
 40
0.0
 40
0.0
 40
0.0
 40
0.0
 40
0.25
 40
0.25
 40
0.5
 40
0.5
 40
1.0
 40
1.0
 40
1.0
 40
1.0
 10
140.0185466386154
 20
142.5892124610882
 30
0.0
 10
139.9666858874273
 20
142.5323998887738
 30
0.0
 10
139.9179540904084
 20
142.470407702522
 30
0.0
 10
139.827781080491
 20
142.334354629398
 30
0.0
 10
139.786003832206
 20
142.2594485267993
 30
0.0
 10
139.6799149623601
 20
142.0213218915019
 30
0.0
 10
139.6315138156499
 20
141.8379151599331
 30
0.0
 10
139.6315138156499
 20
141.6486281067513
 30
0.0
  0
SPLINE
  5
9F
330
1F
100
AcDbEntity
  8
0
  6
Continuous
 62
     7
370
    15
100
AcDbSpline
210
0.0
220
0.0
230
1.0
 70
     8
 71
     3
 72
     8
 73
     4
 74
     0
 42
0.000000001
 43
0.00000001
 40
0.0
 40
0.0
 40
0.0
 40
0.0
 40
1.0
 40
1.0
 40
1.0
 40
1.0
 10
140.6315138156499
 20
142.7586126642691
 30
0.0
 10
140.4051695020501
 20
142.7586126642691
 30
0.0
 10
140.1877173816449
 20
142.6952441952482
 30
0.0
 10
140.0185466386154
 20
142.5892124610882
 30
0.0
  0
SPLINE
  5
A0
330
1F
100
AcDbEntity
  8
0
  6
Continuous
 62
     7
370
    15
100
AcDbSpline
210
0.0
220
0.0
230
1.0
 70
     8
 71
     3
 72
     8
 73
     4
 74
     0
 42
0.000000001
 43
0.00000001
 40
0.0
 40
0.0
 40
0.0
 40
0.0
 40
1.0
 40
1.0
 40
1.0
 40
1.0
 10
140.0185466386154
 20
82.4552326614463
 30
0.0
 10
140.1881401442674
 20
82.3489359508891
 30
0.0
 10
140.4045088366006
 20
82.28583245826543
 30
0.0
 10
140.6315138156499
 20
82.28583245826543
 30
0.0
  0
SPLINE
  5
A1
330
1F
100
AcDbEntity
  8
0
  6
Continuous
 62
     7
370
    15
100
AcDbSpline
210
0.0
220
0.0
230
1.0
 70
     8
 71
     3
 72
    12
 73
     8
 74
     0
 42
0.000000001
 43
0.00000001
 40
0.0
 40
0.0
 40
0.0
 40
0.0
 40
0.2499999999999977
 40
0.2499999999999977
 40
0.4999999999999953
 40
0.4999999999999953
 40
1.0
 40
1.0
 40
1.0
 40
1.0
 10
140.0185466386154
 20
82.4552326614463
 30
0.0
 10
139.9666858874274
 20
82.5120452337607
 30
0.0
 10
139.9179540904084
 20
82.57403742001252
 30
0.0
 10
139.827781080491
 20
82.71009049313652
 30
0.0
 10
139.786003832206
 20
82.78499659573524
 30
0.0
 10
139.6799149623601
 20
83.02312323103264
 30
0.0
 10
139.6315138156499
 20
83.20652996260142
 30
0.0
 10
139.6315138156499
 20
83.3958170157833
 30
0.0
  0
SPLINE
  5
A2
330
1F
100
AcDbEntity
  8
0
  6
Continuous
 62
     7
370
    15
100
AcDbSpline
210
0.0
220
0.0
230
1.0
 70
     8
 71
     3
 72
     8
 73
     4
 74
     0
 42
0.000000001
 43
0.00000001
 40
0.0
 40
0.0
 40
0.0
 40
0.0
 40
0.0012389803509652
 40
0.0012389803509652
 40
0.0012389803509652
 40
0.0012389803509652
 10
149.7640753591837
 20
141.9762452840538
 30
0.0
 10
149.5789553860508
 20
142.2372952654327
 30
0.0
 10
149.3930769382919
 20
142.4980768785518
 30
0.0
 10
149.2065138156499
 20
142.7586126642691
 30
0.0
  0
SPLINE
  5
A3
330
1F
100
AcDbEntity
  8
0
  6
Continuous
 62
     7
370
    15
100
AcDbSpline
210
0.0
220
0.0
230
1.0
 70
     8
 71
     3
 72
     8
 73
     4
 74
     0
 42
0.000000001
 43
0.00000001
 40
0.0
 40
0.0
 40
0.0
 40
0.0
 40
1.0
 40
1.0
 40
1.0
 40
1.0
 10
151.8623250539222
 20
138.1894682257323
 30
0.0
 10
151.1660316878807
 20
139.4534065938471
 30
0.0
 10
150.4662365226895
 20
140.7154620393554
 30
0.0
 10
149.7640753591837
 20
141.9762452840538
 30
0.0
  0
SPLINE
  5
A4
330
1F
100
AcDbEntity
  8
0
  6
Continuous
 62
     7
370
    15
100
AcDbSpline
210
0.0
220
0.0
230
1.0
 70
     8
 71
     3
 72
     8
 73
     4
 74
     0
 42
0.000000001
 43
0.00000001
 40
0.0
 40
0.0
 40
0.0
 40
0.0
 40
1.0
 40
1.0
 40
1.0
 40
1.0
 10
151.8623250539221
 20
86.85497689680221
 30
0.0
 10
151.1660069132642
 20
85.59099355685544
 30
0.0
 10
150.4662097211538
 20
84.32893495900346
 30
0.0
 10
149.7640753591837
 20
83.06819983848078
 30
0.0
  0
SPLINE
  5
A5
330
1F
100
AcDbEntity
  8
0
  6
Continuous
 62
     7
370
    15
100
AcDbSpline
210
0.0
220
0.0
230
1.0
 70
     8
 71
     3
 72
     8
 73
     4
 74
     0
 42
0.000000001
 43
0.00000001
 40
0.0
 40
0.0
 40
0.0
 40
0.0
 40
0.0012389803509652
 40
0.0012389803509652
 40
0.0012389803509652
 40
0.0012389803509652
 10
149.2065138156499
 20
82.28583245826543
 30
0.0
 10
149.3930769382919
 20
82.54636824398278
 30
0.0
 10
149.5789553860508
 20
82.80714985710179
 30
0.0
 10
149.7640753591837
 20
83.06819983848078
 30
0.0
  0
SPLINE
  5
A6
330
1F
100
AcDbEntity
  8
0
  6
Continuous
 62
     7
370
    15
100
AcDbSpline
210
0.0
220
0.0
230
1.0
 70
     8
 71
     3
 72
    12
 73
     8
 74
     0
 42
0.000000001
 43
0.00000001
 40
0.0
 40
0.0
 40
0.0
 40
0.0
 40
0.25
 40
0.25
 40
0.5
 40
0.5
 40
1.0
 40
1.0
 40
1.0
 40
1.0
 10
156.6007025773776
 20
138.5022413892512
 30
0.0
 10
156.5647984270411
 20
138.432296955103
 30
0.0
 10
156.5222668749116
 20
138.3690455920452
 30
0.0
 10
156.4254725980716
 20
138.2539869371292
 30
0.0
 10
156.3703829198073
 20
138.2016584034172
 30
0.0
 10
156.1922496862533
 20
138.0678735003322
 30
0.0
 10
156.0548725942508
 20
138.007325733174
 30
0.0
 10
155.9078822543508
 20
137.9881257847901
 30
0.0
  0
SPLINE
  5
A7
330
1F
100
AcDbEntity
  8
0
  6
Continuous
 62
     7
370
    15
100
AcDbSpline
210
0.0
220
0.0
230
1.0
 70
     8
 71
     3
 72
    12
 73
     8
 74
     0
 42
0.000000001
 43
0.00000001
 40
0.0
 40
0.0
 40
0.0
 40
0.0
 40
0.25
 40
0.25
 40
0.5
 40
0.5
 40
1.0
 40
1.0
 40
1.0
 40
1.0
 10
156.6007025773776
 20
86.54220373328337
 30
0.0
 10
156.5647984270411
 20
86.61214816743154
 30
0.0
 10
156.5222668749116
 20
86.67539953048937
 30
0.0
 10
156.4254725980716
 20
86.79045818540531
 30
0.0
 10
156.3703829198073
 20
86.8427867191173
 30
0.0
 10
156.1922496862533
 20
86.97657162220239
 30
0.0
 10
156.0548725942508
 20
87.03711938936054
 30
0.0
 10
155.9078822543508
 20
87.05631933774444
 30
0.0
  0
SPLINE
  5
A8
330
1F
100
AcDbEntity
  8
0
  6
Continuous
 62
     7
370
    15
100
AcDbSpline
210
0.0
220
0.0
230
1.0
 70
     8
 71
     3
 72
    10
 73
     6
 74
     0
 42
0.000000001
 43
0.00000001
 40
0.0
 40
0.0
 40
0.0
 40
0.0
 40
0.5
 40
0.5
 40
1.0
 40
1.0
 40
1.0
 40
1.0
 10
152.5551453769497
 20
137.7699452308468
 30
0.0
 10
152.4131280645028
 20
137.7699452308468
 30
0.0
 10
152.2726810176405
 20
137.8104350830563
 30
0.0
 10
152.0310910983792
 20
137.9583709129954
 30
0.0
 10
151.9304136561259
 20
138.065871188975
 30
0.0
 10
151.8623250539223
 20
138.189468225732
 30
0.0
  0
SPLINE
  5
A9
330
1F
100
AcDbEntity
  8
0
  6
Continuous
 62
     7
370
    15
100
AcDbSpline
210
0.0
220
0.0
230
1.0
 70
     8
 71
     3
 72
    10
 73
     6
 74
     0
 42
0.000000001
 43
0.00000001
 40
0.0
 40
0.0
 40
0.0
 40
0.0
 40
0.5
 40
0.5
 40
1.0
 40
1.0
 40
1.0
 40
1.0
 10
152.5551453769497
 20
87.27449989168774
 30
0.0
 10
152.414288012439
 20
87.27449989168774
 30
0.0
 10
152.2714538809649
 20
87.23339598586904
 30
0.0
 10
152.0311921901915
 20
87.08599809256809
 30
0.0
 10
151.9304859211121
 20
86.97870511172844
 30
0.0
 10
151.8623250539221
 20
86.85497689680223
 30
0.0
  0
LINE
  5
AA
330
1F
100
AcDbEntity
  8
0
  6
Continuous
 62
     7
370
    15
100
AcDbLine
 10
152.5815138156
 20
87.2744998917
 30
0.0
 11
152.5551453769
 21
87.2744998917
 31
0.0
  0
LINE
  5
AB
330
1F
100
AcDbEntity
  8
0
  6
Continuous
 62
     7
370
    15
100
AcDbLine
 10
152.5815138156
 20
137.7699452308
 30
0.0
 11
152.5551453769
 21
137.7699452308
 31
0.0
  0
SPLINE
  5
AC
330
1F
100
AcDbEntity
  8
0
  6
Continuous
 62
     7
370
    15
100
AcDbSpline
210
0.0
220
0.0
230
1.0
 70
     8
 71
     3
 72
    10
 73
     6
 74
     0
 42
0.000000001
 43
0.00000001
 40
0.0
 40
0.0
 40
0.0
 40
0.0
 40
0.5000000000000001
 40
0.5000000000000001
 40
1.0
 40
1.0
 40
1.0
 40
1.0
 10
155.9078822543501
 20
137.9881257847931
 30
0.0
 10
155.3859675299541
 20
137.9199530342848
 30
0.0
 10
154.8471163498448
 20
137.8653297693269
 30
0.0
 10
153.7357537078126
 20
137.7902339164356
 30
0.0
 10
153.1589129306166
 20
137.7699452308468
 30
0.0
 10
152.5815138156499
 20
137.7699452308468
 30
0.0
  0
SPLINE
  5
AD
330
1F
100
AcDbEntity
  8
0
  6
Continuous
 62
     7
370
    15
100
AcDbSpline
210
0.0
220
0.0
230
1.0
 70
     8
 71
     3
 72
    10
 73
     6
 74
     0
 42
0.000000001
 43
0.00000001
 40
0.0
 40
0.0
 40
0.0
 40
0.0
 40
0.5000000000000001
 40
0.5000000000000001
 40
1.0
 40
1.0
 40
1.0
 40
1.0
 10
155.9078822543501
 20
87.0563193377415
 30
0.0
 10
155.3859675299541
 20
87.1244920882497
 30
0.0
 10
154.8471163498448
 20
87.17911535320764
 30
0.0
 10
153.7357537078126
 20
87.25421120609897
 30
0.0
 10
153.1589129306166
 20
87.27449989168775
 30
0.0
 10
152.5815138156499
 20
87.27449989168775
 30
0.0
  0
SPLINE
  5
AE
330
1F
100
AcDbEntity
  8
0
  6
Continuous
 62
     7
370
    15
100
AcDbSpline
210
0.0
220
0.0
230
1.0
 70
    24
 71
     3
 72
    10
 73
     6
 74
     0
 42
0.000000001
 43
0.00000001
 40
0.0
 40
0.0
 40
0.0
 40
0.0
 40
0.1266106551847045
 40
0.9999912780912702
 40
1.0
 40
1.0
 40
1.0
 40
1.0
 10
139.4367002524797
 20
135.0222225612673
 30
0.0
 10
139.4288278629904
 20
135.0222225612669
 30
0.0
 10
139.3666504671343
 20
135.0222225612636
 30
0.0
 10
139.290854299719
 20
135.0222225613364
 30
0.0
 10
139.3202632687104
 20
135.0222225612673
 30
0.0
 10
139.3202635623966
 20
135.0222225612673
 30
0.0
  0
SPLINE
  5
AF
330
1F
100
AcDbEntity
  8
0
  6
Continuous
 62
     7
370
    15
100
AcDbSpline
210
0.0
220
0.0
230
1.0
 70
    24
 71
     3
 72
     9
 73
     5
 74
     0
 42
0.000000001
 43
0.00000001
 40
0.0
 40
0.0
 40
0.0
 40
0.0
 40
0.8279593837915585
 40
1.0
 40
1.0
 40
1.0
 40
1.0
 10
139.3202636521074
 20
90.02222256126727
 30
0.0
 10
139.3375447889772
 20
90.02222256126728
 30
0.0
 10
139.3584167510663
 20
90.02222256126728
 30
0.0
 10
139.4243058570303
 20
90.02222256126727
 30
0.0
 10
139.4356414594218
 20
90.02222256126727
 30
0.0
  0
LINE
  5
B0
330
1F
100
AcDbEntity
  8
0
  6
Continuous
 62
     7
370
    15
100
AcDbLine
 10
137.6315138156
 20
90.2972225613
 30
0.0
 11
137.6315138156
 21
134.7472225613
 31
0.0
  0
LINE
  5
B1
330
1F
100
AcDbEntity
  8
0
  6
Continuous
 62
     7
370
    15
100
AcDbLine
 10
230.6315138156
 20
112.5222225613
 30
0.0
 11
230.6315138156
 21
96.8222225613
 31
0.0
  0
LINE
  5
B2
330
1F
100
AcDbEntity
  8
0
  6
Continuous
 62
     7
370
    15
100
AcDbLine
 10
230.6315138156
 20
128.2222225613
 30
0.0
 11
230.6315138156
 21
112.5222225613
 31
0.0
  0
LINE
  5
B3
330
1F
100
AcDbEntity
  8
0
  6
Continuous
 62
     7
370
    15
100
AcDbLine
 10
230.3315138156
 20
112.5222225613
 30
0.0
 11
230.3315138156
 21
96.5222225613
 31
0.0
  0
LINE
  5
B4
330
1F
100
AcDbEntity
  8
0
  6
Continuous
 62
     7
370
    15
100
AcDbLine
 10
230.3315138156
 20
128.5222225613
 30
0.0
 11
230.3315138156
 21
112.5222225613
 31
0.0
  0
SPLINE
  5
B5
330
1F
100
AcDbEntity
  8
0
  6
Continuous
 62
     7
370
    15
100
AcDbSpline
210
0.0
220
0.0
230
1.0
 70
     8
 71
     3
 72
    45
 73
    41
 74
     0
 42
0.000000001
 43
0.00000001
 40
0.0
 40
0.0
 40
0.0
 40
0.0
 40
0.0264301658808709
 40
0.0450467581643132
 40
0.0619545291265299
 40
0.0962896319308504
 40
0.1137404606210462
 40
0.1318041410217279
 40
0.1684260395198182
 40
0.1870026487241213
 40
0.2074807545769663
 40
0.2490013197920397
 40
0.2700698033956178
 40
0.2930510157308838
 40
0.3397129890617395
 40
0.363437749648927
 40
0.3877639776715444
 40
0.4372256935859193
 40
0.4624188703807074
 40
0.4869862720021073
 40
0.5117261912965472
 40
0.5370182588194611
 40
0.5625058407715332
 40
0.5866736632559659
 40
0.6359484716284286
 40
0.6611567336660404
 40
0.6832955296299692
 40
0.728568444888306
 40
0.7518216273147066
 40
0.7706855346503162
 40
0.8092020471951533
 40
0.8289233272258646
 40
0.8459121881366901
 40
0.8804529692444271
 40
0.8980347817235708
 40
0.9154619736279648
 40
0.9508075410554429
 40
0.968744643805619
 40
0.9941449378914184
 40
0.9999999999999999
 40
0.9999999999999999
 40
0.9999999999999999
 40
0.9999999999999999
 10
223.5699134352928
 20
128.5194663065964
 30
0.0
 10
223.569189455207
 20
128.5192873893559
 30
0.0
 10
223.5679555259164
 20
128.5189824483389
 30
0.0
 10
223.4989237129716
 20
128.5026655944289
 30
0.0
 10
223.393144254165
 20
128.4780058285159
 30
0.0
 10
223.2398223003649
 20
128.4430248815337
 30
0.0
 10
223.04137165381
 20
128.3996603244388
 30
0.0
 10
222.8076982618437
 20
128.3502523867212
 30
0.0
 10
222.5285805539766
 20
128.2945405340915
 30
0.0
 10
222.2045654341863
 20
128.2350954450787
 30
0.0
 10
221.8348893512997
 20
128.1716554372449
 30
0.0
 10
221.4170818693943
 20
128.1083090721654
 30
0.0
 10
220.9583509214203
 20
128.0498667595225
 30
0.0
 10
220.4534229468655
 20
127.994336661177
 30
0.0
 10
219.9076239478007
 20
127.9500142396204
 30
0.0
 10
219.3398686712617
 20
127.9220322120381
 30
0.0
 10
218.7485847291709
 20
127.9058035492179
 30
0.0
 10
218.1427752573602
 20
127.9099299098209
 30
0.0
 10
217.5449327351313
 20
127.9345515133267
 30
0.0
 10
217.1032067740298
 20
127.9626268775022
 30
0.0
 10
216.6712903456882
 20
127.9994203731312
 30
0.0
 10
216.2478902367617
 20
128.0444198336421
 30
0.0
 10
215.8449465634526
 20
128.0954539251874
 30
0.0
 10
215.3401119709276
 20
128.1688007219912
 30
0.0
 10
214.8815871686731
 20
128.247668119911
 30
0.0
 10
214.4938564152266
 20
128.3223922535914
 30
0.0
 10
214.1639030799194
 20
128.3899107256213
 30
0.0
 10
213.9047964454384
 20
128.4470991775127
 30
0.0
 10
213.7315509716745
 20
128.4868982741083
 30
0.0
 10
213.6175431817081
 20
128.5135965472465
 30
0.0
 10
213.5710686813254
 20
128.5247198721423
 30
0.0
 10
213.5902123683479
 20
128.520146043065
 30
0.0
 10
213.6461647118397
 20
128.5068815205216
 30
0.0
 10
213.7513692462727
 20
128.482210021523
 30
0.0
 10
213.904643385506
 20
128.447387026068
 30
0.0
 10
214.090229341398
 20
128.4062791119527
 30
0.0
 10
214.3197261913202
 20
128.3573858938301
 30
0.0
 10
214.618492950566
 20
128.2982645393299
 30
0.0
 10
214.8189451316153
 20
128.2596666664068
 30
0.0
 10
214.962891151664
 20
128.2351567310946
 30
0.0
 10
214.9898565422494
 20
128.2305652878668
 30
0.0
  0
SPLINE
  5
B6
330
1F
100
AcDbEntity
  8
0
  6
Continuous
 62
     7
370
    15
100
AcDbSpline
210
0.0
220
0.0
230
1.0
 70
    11
 71
     3
 72
    82
 73
    78
 74
     0
 42
0.000000001
 43
0.00000001
 40
0.0
 40
0.0
 40
0.0
 40
0.0
 40
0.0312499999999985
 40
0.0312499999999985
 40
0.0624999999999969
 40
0.0624999999999969
 40
0.0937499999999954
 40
0.0937499999999954
 40
0.1249999999999939
 40
0.1249999999999939
 40
0.1562499999999923
 40
0.1562499999999923
 40
0.1874999999999908
 40
0.1874999999999908
 40
0.2187499999999892
 40
0.2187499999999892
 40
0.234374999999989
 40
0.234374999999989
 40
0.2499999999999889
 40
0.2499999999999889
 40
0.2812499999999885
 40
0.2812499999999885
 40
0.2968749999999888
 40
0.2968749999999888
 40
0.312499999999989
 40
0.312499999999989
 40
0.3437499999999895
 40
0.3437499999999895
 40
0.3593749999999897
 40
0.3593749999999897
 40
0.3749999999999897
 40
0.3749999999999897
 40
0.3906249999999898
 40
0.3906249999999898
 40
0.4062499999999899
 40
0.4062499999999899
 40
0.4374999999999905
 40
0.4374999999999905
 40
0.4687499999999911
 40
0.4687499999999911
 40
0.4999999999999917
 40
0.4999999999999917
 40
0.5312499999999922
 40
0.5312499999999922
 40
0.5624999999999928
 40
0.5624999999999928
 40
0.5937499999999934
 40
0.5937499999999934
 40
0.624999999999994
 40
0.624999999999994
 40
0.6562499999999946
 40
0.6562499999999946
 40
0.6874999999999951
 40
0.6874999999999951
 40
0.7187499999999958
 40
0.7187499999999958
 40
0.7499999999999963
 40
0.7499999999999963
 40
0.7812499999999969
 40
0.7812499999999969
 40
0.8124999999999974
 40
0.8124999999999974
 40
0.8281249999999978
 40
0.8281249999999978
 40
0.843749999999998
 40
0.843749999999998
 40
0.8749999999999982
 40
0.8749999999999982
 40
0.8906249999999983
 40
0.8906249999999983
 40
0.9062499999999984
 40
0.9062499999999984
 40
0.9374999999999989
 40
0.9374999999999989
 40
0.9687499999999994
 40
0.9687499999999994
 40
1.0
 40
1.0
 40
1.0
 40
1.0
 10
215.2613307914681
 20
115.794621128015
 30
0.0
 10
215.5043883163462
 20
115.9846616508699
 30
0.0
 10
215.7614754133159
 20
116.1490573199007
 30
0.0
 10
216.3013853371393
 20
116.4317277258642
 30
0.0
 10
216.5858415256994
 20
116.5504510305937
 30
0.0
 10
217.1741833119185
 20
116.7389152033064
 30
0.0
 10
217.473099130695
 20
116.8073704945429
 30
0.0
 10
218.0800747421637
 20
116.8951396204497
 30
0.0
 10
218.3907549261717
 20
116.9143253304556
 30
0.0
 10
219.0087661532647
 20
116.9013591940837
 30
0.0
 10
219.3137500386767
 20
116.8697451654154
 30
0.0
 10
219.9158402224231
 20
116.7570400443429
 30
0.0
 10
220.2156325888204
 20
116.6748949904919
 30
0.0
 10
220.792857790162
 20
116.4621709205005
 30
0.0
 10
221.0687826154609
 20
116.3327637673063
 30
0.0
 10
221.4635518718706
 20
116.1033147148638
 30
0.0
 10
221.5919345637379
 20
116.0209025711322
 30
0.0
 10
221.8419856167374
 20
115.843542008544
 30
0.0
 10
221.9640482843236
 20
115.7481636811069
 30
0.0
 10
222.3117716593622
 20
115.4485909595926
 30
0.0
 10
222.5217005455414
 20
115.2295756715368
 30
0.0
 10
222.8020607780146
 20
114.8700425370527
 30
0.0
 10
222.8897159475185
 20
114.7449919404237
 30
0.0
 10
223.0525070247865
 20
114.4835606561591
 30
0.0
 10
223.1273825297006
 20
114.3472972825996
 30
0.0
 10
223.3258883306881
 20
113.9325606967329
 30
0.0
 10
223.42613933405
 20
113.6445333676108
 30
0.0
 10
223.5250723543253
 20
113.193835653059
 30
0.0
 10
223.54948577839
 20
113.0392060179606
 30
0.0
 10
223.5789752694185
 20
112.730396950856
 30
0.0
 10
223.5842255832892
 20
112.5764039729461
 30
0.0
 10
223.5762076070571
 20
112.2692211060964
 30
0.0
 10
223.5629384762217
 20
112.116031253017
 30
0.0
 10
223.5177436966339
 20
111.810459703993
 30
0.0
 10
223.4854870879466
 20
111.6571414664306
 30
0.0
 10
223.3630699445448
 20
111.2094763314443
 30
0.0
 10
223.2476835532196
 20
110.9248825108867
 30
0.0
 10
222.9536996902021
 20
110.3813552302927
 30
0.0
 10
222.7772778799914
 20
110.1274666849067
 30
0.0
 10
222.3790598395083
 20
109.6625606396787
 30
0.0
 10
222.1537930295883
 20
109.4481062644885
 30
0.0
 10
221.6723271997802
 20
109.069364812005
 30
0.0
 10
221.4154590723235
 20
108.9035452335399
 30
0.0
 10
220.8705397793654
 20
108.6165351024419
 30
0.0
 10
220.5843710957529
 20
108.4969025482161
 30
0.0
 10
220.0009294100378
 20
108.3088139807236
 30
0.0
 10
219.7014816689096
 20
108.2391855463024
 30
0.0
 10
219.0867515047935
 20
108.1494253224857
 30
0.0
 10
218.7782329584243
 20
108.1304368854585
 30
0.0
 10
218.1643207431703
 20
108.1424441277433
 30
0.0
 10
217.8580377160862
 20
108.1733057669252
 30
0.0
 10
217.2468777121635
 20
108.2872208080403
 30
0.0
 10
216.9505320251171
 20
108.3687116348958
 30
0.0
 10
216.3768416771184
 20
108.5795032526002
 30
0.0
 10
216.0990862065704
 20
108.7089213260334
 30
0.0
 10
215.564380467549
 20
109.0195972771838
 30
0.0
 10
215.3155135703538
 20
109.1961190380698
 30
0.0
 10
214.8548748244679
 20
109.592503724965
 30
0.0
 10
214.6421975983036
 20
109.8133884217338
 30
0.0
 10
214.2626596885983
 20
110.300839935384
 30
0.0
 10
214.1014280687782
 20
110.5598180240729
 30
0.0
 10
213.9039147264016
 20
110.9723162281351
 30
0.0
 10
213.845522343338
 20
111.1138503038337
 30
0.0
 10
213.7446843547436
 20
111.4056045474433
 30
0.0
 10
213.7021833314478
 20
111.5566580937922
 30
0.0
 10
213.6036455126007
 20
112.0097213432444
 30
0.0
 10
213.574548204502
 20
112.3154583477975
 30
0.0
 10
213.5870759521534
 20
112.7797494578062
 30
0.0
 10
213.6009261700246
 20
112.9363551747798
 30
0.0
 10
213.6469566539951
 20
113.2428840660437
 30
0.0
 10
213.679054419243
 20
113.393690585839
 30
0.0
 10
213.8015494870086
 20
113.8390388967416
 30
0.0
 10
213.9199793101957
 20
114.129655820101
 30
0.0
 10
214.214222967929
 20
114.6705662737851
 30
0.0
 10
214.389593554146
 20
114.922544252954
 30
0.0
 10
214.7937005958024
 20
115.3921319928293
 30
0.0
 10
215.0182732665899
 20
115.6045806051601
 30
0.0
 10
215.2613307914681
 20
115.794621128015
 30
0.0
  0
LINE
  5
B7
330
1F
100
AcDbEntity
  8
0
  6
Continuous
 62
     7
370
    15
100
AcDbLine
 10
72.2315138156
 20
100.6994669642
 30
0.0
 11
72.2315138156
 21
124.3449781583
 31
0.0
  0
SPLINE
  5
B8
330
1F
100
AcDbEntity
  8
0
  6
Continuous
 62
     7
370
    15
100
AcDbSpline
210
0.0
220
0.0
230
1.0
 70
    24
 71
     3
 72
    13
 73
     9
 74
     0
 42
0.000000001
 43
0.00000001
 40
0.0
 40
0.0
 40
0.0
 40
0.0
 40
0.2161268135840039
 40
0.4396426651111115
 40
0.5932590105054354
 40
0.7520094001457232
 40
0.8754366676457929
 40
1.0
 40
1.0
 40
1.0
 40
1.0
 10
216.5117986243673
 20
113.5467284716003
 30
0.0
 10
216.5219059133492
 20
113.3889197717285
 30
0.0
 10
216.5424660437252
 20
113.0679071391965
 30
0.0
 10
216.5726833662353
 20
112.5961133290536
 30
0.0
 10
216.600339645753
 20
112.1643059945845
 30
0.0
 10
216.6223514561821
 20
111.8206277647547
 30
0.0
 10
216.6421195412342
 20
111.5119816177381
 30
0.0
 10
216.6536276574318
 20
111.3323013040181
 30
0.0
 10
216.6594080753328
 20
111.2420495821844
 30
0.0
  0
SPLINE
  5
B9
330
1F
100
AcDbEntity
  8
0
  6
Continuous
 62
     7
370
    15
100
AcDbSpline
210
0.0
220
0.0
230
1.0
 70
    24
 71
     3
 72
    10
 73
     6
 74
     0
 42
0.000000001
 43
0.00000001
 40
0.0
 40
0.0
 40
0.0
 40
0.0
 40
0.439122227423067
 40
0.7513714712594397
 40
1.0
 40
1.0
 40
1.0
 40
1.0
 10
216.6594080753329
 20
111.2420495821844
 30
0.0
 10
216.9557079328207
 20
111.0953815978618
 30
0.0
 10
217.462699485403
 20
110.8444215409914
 30
0.0
 10
218.1996951791084
 20
110.4796097798026
 30
0.0
 10
218.5665168406289
 20
110.2980336084295
 30
0.0
 10
218.7291232666154
 20
110.2175436718513
 30
0.0
  0
SPLINE
  5
BA
330
1F
100
AcDbEntity
  8
0
  6
Continuous
 62
     7
370
    15
100
AcDbSpline
210
0.0
220
0.0
230
1.0
 70
    24
 71
     3
 72
    11
 73
     7
 74
     0
 42
0.000000001
 43
0.00000001
 40
0.0
 40
0.0
 40
0.0
 40
0.0
 40
0.1849308168245917
 40
0.5198464202157564
 40
0.8714438233692353
 40
1.0
 40
1.0
 40
1.0
 40
1.0
 10
218.7291232666154
 20
110.2175436718513
 30
0.0
 10
218.8409992123485
 20
110.2920559943176
 30
0.0
 10
219.1554860615186
 20
110.50151250763
 30
0.0
 10
219.742535821717
 20
110.8925030887509
 30
0.0
 10
220.2847002943649
 20
111.2535988877721
 30
0.0
 10
220.5738201443071
 20
111.4461603123851
 30
0.0
 10
220.6512290069325
 20
111.497716650934
 30
0.0
  0
SPLINE
  5
BB
330
1F
100
AcDbEntity
  8
0
  6
Continuous
 62
     7
370
    15
100
AcDbSpline
210
0.0
220
0.0
230
1.0
 70
    24
 71
     3
 72
    13
 73
     9
 74
     0
 42
0.000000001
 43
0.00000001
 40
0.0
 40
0.0
 40
0.0
 40
0.0
 40
0.2161268135839852
 40
0.4396426651110653
 40
0.5932590105054079
 40
0.7520094001456905
 40
0.875436667645779
 40
1.0
 40
1.0
 40
1.0
 40
1.0
 10
220.6512290069325
 20
111.497716650934
 30
0.0
 10
220.6411217179507
 20
111.6555253508058
 30
0.0
 10
220.6205615875748
 20
111.9765379833378
 30
0.0
 10
220.5903442650644
 20
112.4483317934806
 30
0.0
 10
220.5626879855469
 20
112.8801391279497
 30
0.0
 10
220.5406761751176
 20
113.2238173577795
 30
0.0
 10
220.5209080900657
 20
113.5324635047961
 30
0.0
 10
220.5093999738681
 20
113.7121438185161
 30
0.0
 10
220.503619555967
 20
113.8023955403498
 30
0.0
  0
SPLINE
  5
BC
330
1F
100
AcDbEntity
  8
0
  6
Continuous
 62
     7
370
    15
100
AcDbSpline
210
0.0
220
0.0
230
1.0
 70
    24
 71
     3
 72
    11
 73
     7
 74
     0
 42
0.000000001
 43
0.00000001
 40
0.0
 40
0.0
 40
0.0
 40
0.0
 40
0.1285561766307443
 40
0.4801535797842343
 40
0.8150691831754122
 40
1.0
 40
1.0
 40
1.0
 40
1.0
 10
218.4339043646844
 20
114.826901450683
 30
0.0
 10
218.356495502059
 20
114.7753451121341
 30
0.0
 10
218.0673756521169
 20
114.582783687521
 30
0.0
 10
217.5252111794689
 20
114.2216878885
 30
0.0
 10
216.9381614192707
 20
113.8306973073789
 30
0.0
 10
216.6236745701005
 20
113.6212407940666
 30
0.0
 10
216.5117986243673
 20
113.5467284716003
 30
0.0
  0
CIRCLE
  5
BD
330
1F
100
AcDbEntity
  8
0
  6
Continuous
 62
     7
370
    15
100
AcDbCircle
 10
218.5815138156
 20
112.5222225613
 30
0.0
 40
2.40000000000001
  0
SPLINE
  5
BE
330
1F
100
AcDbEntity
  8
0
  6
Continuous
 62
     7
370
    15
100
AcDbSpline
210
0.0
220
0.0
230
1.0
 70
    24
 71
     3
 72
    10
 73
     6
 74
     0
 42
0.000000001
 43
0.00000001
 40
0.0
 40
0.0
 40
0.0
 40
0.0
 40
0.4391222274230322
 40
0.7513714712594852
 40
1.0
 40
1.0
 40
1.0
 40
1.0
 10
220.503619555967
 20
113.8023955403498
 30
0.0
 10
220.2073196984791
 20
113.9490635246724
 30
0.0
 10
219.7003281458967
 20
114.2000235815427
 30
0.0
 10
218.9633324521913
 20
114.5648353427315
 30
0.0
 10
218.5965107906709
 20
114.7464115141048
 30
0.0
 10
218.4339043646844
 20
114.826901450683
 30
0.0
  0
CIRCLE
  5
BF
330
1F
100
AcDbEntity
  8
0
  6
Continuous
 62
     7
370
    15
100
AcDbCircle
 10
218.5815138156
 20
112.5222225613
 30
0.0
 40
4.000000000000011
  0
CIRCLE
  5
C0
330
1F
100
AcDbEntity
  8
0
  6
Continuous
 62
     7
370
    15
100
AcDbCircle
 10
218.5815138156
 20
112.5222225613
 30
0.0
 40
3.300000000000019
  0
ARC
  5
C1
330
1F
100
AcDbEntity
  8
0
  6
Continuous
 62
     7
370
    15
100
AcDbCircle
 10
218.5815138156
 20
112.5222225613
 30
0.0
 40
2.000000000000049
100
AcDbArc
 50
183.6646591321
 51
243.6646591321
  0
ARC
  5
C2
330
1F
100
AcDbEntity
  8
0
  6
Continuous
 62
     7
370
    15
100
AcDbCircle
 10
218.5815138156
 20
112.5222225613
 30
0.0
 40
2.000000000000049
100
AcDbArc
 50
243.6646591321
 51
303.6646591321
  0
ARC
  5
C3
330
1F
100
AcDbEntity
  8
0
  6
Continuous
 62
     7
370
    15
100
AcDbCircle
 10
218.5815138156
 20
112.5222225613
 30
0.0
 40
1.999999999999972
100
AcDbArc
 50
123.6646591321
 51
183.6646591321
  0
ARC
  5
C4
330
1F
100
AcDbEntity
  8
0
  6
Continuous
 62
     7
370
    15
100
AcDbCircle
 10
218.5815138156
 20
112.5222225613
 30
0.0
 40
2.000000000000032
100
AcDbArc
 50
3.6646591321
 51
63.6646591321
  0
ARC
  5
C5
330
1F
100
AcDbEntity
  8
0
  6
Continuous
 62
     7
370
    15
100
AcDbCircle
 10
218.5815138156
 20
112.5222225613
 30
0.0
 40
2.000000000000039
100
AcDbArc
 50
303.6646591321
 51
3.6646591321
  0
ARC
  5
C6
330
1F
100
AcDbEntity
  8
0
  6
Continuous
 62
     7
370
    15
100
AcDbCircle
 10
218.5815138156
 20
112.5222225613
 30
0.0
 40
1.999999999999972
100
AcDbArc
 50
63.6646591321
 51
123.6646591321
  0
LINE
  5
C7
330
1F
100
AcDbEntity
  8
0
  6
Continuous
 62
     7
370
    15
100
AcDbLine
 10
215.2815138156
 20
128.5222225613
 30
0.0
 11
221.8815138156
 21
128.5222225613
 31
0.0
  0
SPLINE
  5
C8
330
1F
100
AcDbEntity
  8
0
  6
HIDDEN
 62
     7
370
     0
100
AcDbSpline
210
0.0
220
0.0
230
1.0
 70
     8
 71
     3
 72
    17
 73
    13
 74
     0
 42
0.000000001
 43
0.00000001
 40
0.0
 40
0.0
 40
0.0
 40
0.0
 40
0.0000911568563012
 40
0.0001118962256225
 40
0.2495351486518076
 40
0.5019954014616274
 40
0.5864123905084778
 40
0.6698717771552243
 40
0.7526625357481239
 40
0.8350806749679495
 40
0.9174262229421157
 40
1.0
 40
1.0
 40
1.0
 40
1.0
 10
161.6315136758502
 20
81.02222257079805
 30
0.0
 10
161.6315139400752
 20
81.0222225667421
 30
0.0
 10
161.6315142644147
 20
81.02222256176339
 30
0.0
 10
161.6321286924964
 20
81.02222142016704
 30
0.0
 10
161.5279897554416
 20
81.0544380866417
 30
0.0
 10
161.1595030536495
 20
81.16279923764247
 30
0.0
 10
160.7928906605378
 20
81.26762991589541
 30
0.0
 10
160.5433591012607
 20
81.33732262064744
 30
0.0
 10
160.2655733150056
 20
81.41246432956719
 30
0.0
 10
159.9589135383036
 20
81.49212932315164
 30
0.0
 10
159.6257267056726
 20
81.57527850458959
 30
0.0
 10
159.3807292635242
 20
81.63259098681716
 30
0.0
 10
159.2580610185275
 20
81.66128688482169
 30
0.0
  0
LWPOLYLINE
  5
C9
330
1F
100
AcDbEntity
  8
0
  6
HIDDEN
 62
     7
370
     0
100
AcDbPolyline
 90
       22
 70
   128
 43
0.0
 10
139.880084794
 20
103.5345104687
 10
140.0176172771
 20
102.9246427096
 10
140.2319107589
 20
102.3689643771
 10
140.503924323
 20
101.9168499299
 10
140.8094883706
 20
101.6084717205
 10
141.121452195
 20
101.4712305061
 10
141.4120964415
 20
101.517320771
 10
141.6555960932
 20
101.7426471929
 10
141.8303151376
 20
102.1271885302
 10
141.9207290208
 20
102.6367765977
 10
141.9188040724
 20
103.2261322593
 10
141.8247113327
 20
103.8428886781
 10
141.6468113545
 20
104.4322443397
 10
141.4009113314
 20
104.9418324073
 10
141.1088605598
 20
105.3263737446
 10
140.7966090322
 20
105.5517001665
 10
140.4919016673
 20
105.5977904314
 10
140.2218130515
 20
105.460549217
 10
140.0103417436
 20
105.1521710076
 10
139.8762778975
 20
104.7000565604
 10
139.831533674
 20
104.1443782279
 10
139.880084794
 20
103.5345104687
  0
LWPOLYLINE
  5
CA
330
1F
100
AcDbEntity
  8
0
  6
HIDDEN
 62
     7
370
     0
100
AcDbPolyline
 90
       19
 70
   128
 43
0.0
 10
140.2365200883
 20
103.5625196279
 10
140.3687989559
 20
103.0064994259
 10
140.5800272053
 20
102.5175434663
 10
140.8447275921
 20
102.154627054
 10
141.130973343
 20
101.9615232643
 10
141.4042389961
 20
101.9615232643
 10
141.6315646805
 20
102.154627054
 10
141.7855315638
 20
102.5175434663
 10
141.8475689675
 20
103.0064994259
 10
141.8101942652
 20
103.5625196279
 10
141.6779153975
 20
104.1185398298
 10
141.4666871482
 20
104.6074957895
 10
141.2019867614
 20
104.9704122018
 10
140.9157410104
 20
105.1635159914
 10
140.6424753574
 20
105.1635159914
 10
140.4151496729
 20
104.9704122018
 10
140.2611827896
 20
104.6074957895
 10
140.1991453859
 20
104.1185398298
 10
140.2365200883
 20
103.5625196279
  0
SPLINE
  5
CB
330
1F
100
AcDbEntity
  8
0
  6
HIDDEN
 62
     7
370
     0
100
AcDbSpline
210
0.0
220
0.0
230
1.0
 70
     8
 71
     3
 72
    12
 73
     8
 74
     0
 42
0.000000001
 43
0.00000001
 40
0.0
 40
0.0
 40
0.0
 40
0.0
 40
0.4999999999999976
 40
0.4999999999999976
 40
0.7499999999999988
 40
0.7499999999999988
 40
1.0
 40
1.0
 40
1.0
 40
1.0
 10
152.2225954283286
 20
105.743653238061
 30
0.0
 10
152.2956957888039
 20
105.5489182702997
 30
0.0
 10
152.3315995381361
 20
105.3413400952708
 30
0.0
 10
152.3316516561864
 20
105.0455784451993
 30
0.0
 10
152.3226148460961
 20
104.9478824526255
 30
0.0
 10
152.2865623729803
 20
104.7640145437968
 30
0.0
 10
152.2596147318775
 20
104.6767248371898
 30
0.0
 10
152.2225954283286
 20
104.5939257214698
 30
0.0
  0
SPLINE
  5
CC
330
1F
100
AcDbEntity
  8
0
  6
HIDDEN
 62
     7
370
     0
100
AcDbSpline
210
0.0
220
0.0
230
1.0
 70
     8
 71
     3
 72
    50
 73
    46
 74
     0
 42
0.000000001
 43
0.00000001
 40
0.0
 40
0.0
 40
0.0
 40
0.0
 40
0.0625
 40
0.0625
 40
0.125
 40
0.125
 40
0.1875000000000001
 40
0.1875000000000001
 40
0.2500000000000001
 40
0.2500000000000001
 40
0.2812499999999996
 40
0.2812499999999996
 40
0.3124999999999992
 40
0.3124999999999992
 40
0.3749999999999987
 40
0.3749999999999987
 40
0.4062499999999987
 40
0.4062499999999987
 40
0.4374999999999986
 40
0.4374999999999986
 40
0.4687499999999984
 40
0.4687499999999984
 40
0.4999999999999983
 40
0.4999999999999983
 40
0.5312499999999982
 40
0.5312499999999982
 40
0.5624999999999981
 40
0.5624999999999981
 40
0.593749999999998
 40
0.593749999999998
 40
0.6249999999999979
 40
0.6249999999999979
 40
0.6874999999999977
 40
0.6874999999999977
 40
0.7187499999999979
 40
0.7187499999999979
 40
0.7499999999999981
 40
0.7499999999999981
 40
0.8124999999999987
 40
0.8124999999999987
 40
0.8749999999999991
 40
0.8749999999999991
 40
0.9374999999999996
 40
0.9374999999999996
 40
1.0
 40
1.0
 40
1.0
 40
1.0
 10
152.2225954283286
 20
104.5939257214698
 30
0.0
 10
152.2777817236731
 20
104.4631008555315
 30
0.0
 10
152.346938351954
 20
104.3771839286444
 30
0.0
 10
152.4944768002603
 20
104.2538864215381
 30
0.0
 10
152.5707617214834
 20
104.2198615713663
 30
0.0
 10
152.7155538486448
 20
104.1905091487669
 30
0.0
 10
152.7854088417243
 20
104.1955163392601
 30
0.0
 10
152.8940351154181
 20
104.2461388580593
 30
0.0
 10
152.9339383451201
 20
104.2919422609808
 30
0.0
 10
152.9316833216175
 20
104.405653611506
 30
0.0
 10
152.91979189435
 20
104.4522303465985
 30
0.0
 10
152.8724576053017
 20
104.5602008341436
 30
0.0
 10
152.8368675784677
 20
104.6225519747461
 30
0.0
 10
152.7056638286016
 20
104.8332261766456
 30
0.0
 10
152.5914242327464
 20
105.0003996883997
 30
0.0
 10
152.438087222919
 20
105.2751386758282
 30
0.0
 10
152.3886528615707
 20
105.3724344146954
 30
0.0
 10
152.3008875267005
 20
105.5716542262832
 30
0.0
 10
152.2624074026035
 20
105.6734862586709
 30
0.0
 10
152.1985717446702
 20
105.8824297651984
 30
0.0
 10
152.1734180696811
 20
105.9896281112687
 30
0.0
 10
152.1401056774866
 20
106.1999680778014
 30
0.0
 10
152.1314970235325
 20
106.304342155347
 30
0.0
 10
152.1315306566297
 20
106.5115245655356
 30
0.0
 10
152.1402302638387
 20
106.6112170838984
 30
0.0
 10
152.1737152000722
 20
106.8010998267367
 30
0.0
 10
152.1989291484525
 20
106.8925556075159
 30
0.0
 10
152.2629291814427
 20
107.0603983432146
 30
0.0
 10
152.3014963335939
 20
107.1369357486301
 30
0.0
 10
152.3894458949515
 20
107.2751788712403
 30
0.0
 10
152.4388818957072
 20
107.3365340171933
 30
0.0
 10
152.5921626868185
 20
107.4896766026342
 30
0.0
 10
152.7064761907441
 20
107.5544825541448
 30
0.0
 10
152.8369227572669
 20
107.5753349157908
 30
0.0
 10
152.8729476670593
 20
107.569365660633
 30
0.0
 10
152.9200759601043
 20
107.5344125907981
 30
0.0
 10
152.9318126658631
 20
107.5049542204482
 30
0.0
 10
152.9337148946992
 20
107.3942432798698
 30
0.0
 10
152.8935915012512
 20
107.2909033753267
 30
0.0
 10
152.7853192238097
 20
107.0604735603204
 30
0.0
 10
152.715946747903
 20
106.9303610524066
 30
0.0
 10
152.5704411399905
 20
106.6436756270877
 30
0.0
 10
152.4945418922793
 20
106.4886462035403
 30
0.0
 10
152.3481151692353
 20
106.142720711465
 30
0.0
 10
152.2775845875001
 20
105.9526677537348
 30
0.0
 10
152.2225954283286
 20
105.743653238061
 30
0.0
  0
SPLINE
  5
CD
330
1F
100
AcDbEntity
  8
0
  6
HIDDEN
 62
     7
370
     0
100
AcDbSpline
210
0.0
220
0.0
230
1.0
 70
    11
 71
     3
 72
    62
 73
    58
 74
     0
 42
0.000000001
 43
0.00000001
 40
0.0
 40
0.0
 40
0.0
 40
0.0
 40
0.03125
 40
0.03125
 40
0.0625
 40
0.0625
 40
0.1249999999999996
 40
0.1249999999999996
 40
0.1562499999999995
 40
0.1562499999999995
 40
0.1874999999999994
 40
0.1874999999999994
 40
0.2187499999999993
 40
0.2187499999999993
 40
0.2499999999999992
 40
0.2499999999999992
 40
0.3124999999999992
 40
0.3124999999999992
 40
0.3749999999999992
 40
0.3749999999999992
 40
0.4062499999999993
 40
0.4062499999999993
 40
0.4374999999999994
 40
0.4374999999999994
 40
0.4687499999999995
 40
0.4687499999999995
 40
0.4999999999999996
 40
0.4999999999999996
 40
0.5312499999999997
 40
0.5312499999999997
 40
0.5624999999999998
 40
0.5624999999999998
 40
0.5937499999999999
 40
0.5937499999999999
 40
0.625
 40
0.625
 40
0.6562500000000001
 40
0.6562500000000001
 40
0.6875000000000002
 40
0.6875000000000002
 40
0.75
 40
0.75
 40
0.78125
 40
0.78125
 40
0.8125
 40
0.8125
 40
0.84375
 40
0.84375
 40
0.875
 40
0.875
 40
0.90625
 40
0.90625
 40
0.9375
 40
0.9375
 40
0.96875
 40
0.96875
 40
1.0
 40
1.0
 40
1.0
 40
1.0
 10
154.2315138156499
 20
109.6343238455365
 30
0.0
 10
154.0886897439602
 20
109.6343238455365
 30
0.0
 10
153.9493265093503
 20
109.643934359186
 30
0.0
 10
153.6767664499
 20
109.6816030345373
 30
0.0
 10
153.5426023298961
 20
109.7101695139512
 30
0.0
 10
153.1659079308996
 20
109.8215764782694
 30
0.0
 10
152.9403800510101
 20
109.9318990785219
 30
0.0
 10
152.6568683443128
 20
110.14964445337
 30
0.0
 10
152.5699250598552
 20
110.2323487006118
 30
0.0
 10
152.4185315539418
 20
110.4136314341781
 30
0.0
 10
152.3536307963612
 20
110.5121581182417
 30
0.0
 10
152.2461442110709
 20
110.7274330608667
 30
0.0
 10
152.2034832911156
 20
110.8457325089059
 30
0.0
 10
152.1468977114443
 20
111.0905622197054
 30
0.0
 10
152.1321163973545
 20
111.2181173225984
 30
0.0
 10
152.1303622320036
 20
111.617423117714
 30
0.0
 10
152.1881297801597
 20
111.8953677068347
 30
0.0
 10
152.4014158879125
 20
112.4163107035453
 30
0.0
 10
152.556239596818
 20
112.6604933425522
 30
0.0
 10
152.8387040493251
 20
112.973605969878
 30
0.0
 10
152.9427674774747
 20
113.0707460052572
 30
0.0
 10
153.1649161119686
 20
113.2427636804574
 30
0.0
 10
153.2824160696371
 20
113.317566763715
 30
0.0
 10
153.5320905427657
 20
113.4428452184351
 30
0.0
 10
153.6661523567228
 20
113.4936182842424
 30
0.0
 10
153.9394854688662
 20
113.5619783464584
 30
0.0
 10
154.0800720481914
 20
113.5802917536764
 30
0.0
 10
154.3654391350738
 20
113.5817298164224
 30
0.0
 10
154.5053109327664
 20
113.564998169865
 30
0.0
 10
154.7799211816337
 20
113.4992127267622
 30
0.0
 10
154.9141677110734
 20
113.449836933569
 30
0.0
 10
155.1663075451916
 20
113.3260013135011
 30
0.0
 10
155.2869110626928
 20
113.2503499400449
 30
0.0
 10
155.5104000011517
 20
113.0793697775999
 30
0.0
 10
155.6136060851969
 20
112.9842028315714
 30
0.0
 10
155.8042779297739
 20
112.7752869743713
 30
0.0
 10
155.8910971909197
 20
112.661818306007
 30
0.0
 10
156.042473699625
 20
112.4249309838467
 30
0.0
 10
156.1079746966294
 20
112.3005478900584
 30
0.0
 10
156.2715215131103
 20
111.9082774302109
 30
0.0
 10
156.3304161876019
 20
111.6345922614477
 30
0.0
 10
156.3320398575333
 20
111.2329950949018
 30
0.0
 10
156.3182515459795
 20
111.1043214365414
 30
0.0
 10
156.2630433972831
 20
110.8567290835651
 30
0.0
 10
156.2212126223957
 20
110.738075822263
 30
0.0
 10
156.1145176356055
 20
110.5206080608416
 30
0.0
 10
156.0486634982603
 20
110.4193697232734
 30
0.0
 10
155.8967195557161
 20
110.2359689492202
 30
0.0
 10
155.8113388959789
 20
110.154178505098
 30
0.0
 10
155.6217104624199
 20
110.0074541314987
 30
0.0
 10
155.5171256476453
 20
109.9426628489231
 30
0.0
 10
155.2953991004536
 20
109.8325512682724
 30
0.0
 10
155.1774176296024
 20
109.7864703303523
 30
0.0
 10
154.9245204172622
 20
109.7110964356931
 30
0.0
 10
154.7912314471767
 20
109.6825081837946
 30
0.0
 10
154.5176370454298
 20
109.6442670620849
 30
0.0
 10
154.3743378873396
 20
109.6343238455365
 30
0.0
 10
154.2315138156499
 20
109.6343238455365
 30
0.0
  0
LWPOLYLINE
  5
CE
330
1F
100
AcDbEntity
  8
0
  6
HIDDEN
 62
     7
370
     0
100
AcDbPolyline
 90
       20
 70
   128
 43
0.0
 10
152.2225954283
 20
104.5939257215
 10
152.492610716
 20
104.0624172364
 10
152.9175239005
 20
103.6294621059
 10
153.4594845928
 20
103.3336270786
 10
154.0702160538
 20
103.2012645279
 10
154.6953155864
 20
103.2441650364
 10
155.2791006151
 20
103.4585071154
 10
155.7695687752
 20
103.8251976151
 10
156.1230301761
 20
104.3115725033
 10
156.3079992062
 20
104.8743065093
 10
156.3079992062
 20
105.4632724502
 10
156.1230301761
 20
106.0260064562
 10
155.7695687752
 20
106.5123813444
 10
155.2791006151
 20
106.8790718442
 10
154.6953155864
 20
107.0934139232
 10
154.0702160538
 20
107.1363144316
 10
153.4594845928
 20
107.0039518809
 10
152.9175239005
 20
106.7081168537
 10
152.492610716
 20
106.2751617231
 10
152.2225954283
 20
105.7436532381
  0
SPLINE
  5
CF
330
1F
100
AcDbEntity
  8
0
  6
HIDDEN
 62
     7
370
     0
100
AcDbSpline
210
0.0
220
0.0
230
1.0
 70
     8
 71
     3
 72
     9
 73
     5
 74
     0
 42
0.000000001
 43
0.00000001
 40
0.0
 40
0.0
 40
0.0
 40
0.0
 40
0.6412979858355021
 40
1.0
 40
1.0
 40
1.0
 40
1.0
 10
214.9898565422494
 20
128.2305652878668
 30
0.0
 10
215.0781803417541
 20
128.2149105642193
 30
0.0
 10
215.2159069547412
 20
128.1904995665344
 30
0.0
 10
215.369445122958
 20
128.1670689244729
 30
0.0
 10
215.4245195731485
 20
128.1586643059722
 30
0.0
  0
CIRCLE
  5
D0
330
1F
100
AcDbEntity
  8
0
  6
HIDDEN
 62
     7
370
     0
100
AcDbCircle
 10
218.5815138156
 20
112.5222225613
 30
0.0
 40
3.5
  0
LINE
  5
D1
330
1F
100
AcDbEntity
  8
0
  6
HIDDEN
 62
     7
370
     0
100
AcDbLine
 10
208.1315138156
 20
112.5222225613
 30
0.0
 11
208.1315138156
 21
103.8222225613
 31
0.0
  0
LINE
  5
D2
330
1F
100
AcDbEntity
  8
0
  6
HIDDEN
 62
     7
370
     0
100
AcDbLine
 10
208.1315138156
 20
121.2222225613
 30
0.0
 11
208.1315138156
 21
112.5222225613
 31
0.0
  0
LINE
  5
D3
330
1F
100
AcDbEntity
  8
0
  6
HIDDEN
 62
     7
370
     0
100
AcDbLine
 10
211.4975392194
 20
112.5222225613
 30
0.0
 11
211.4975392194
 21
103.5222225613
 31
0.0
  0
LINE
  5
D4
330
1F
100
AcDbEntity
  8
0
  6
HIDDEN
 62
     7
370
     0
100
AcDbLine
 10
211.4975392194
 20
121.5222225613
 30
0.0
 11
211.4975392194
 21
112.5222225613
 31
0.0
  0
ELLIPSE
  5
D5
330
1F
100
AcDbEntity
  8
0
  6
HIDDEN
 62
     7
370
     0
100
AcDbEllipse
 10
139.9687721159
 20
88.4222225613
 30
0.0
 11
0.0
 21
1.599999999999994
 31
0.0
210
0.0
220
0.0
230
1.0
 40
0.4142135624
 41
4.712388980384695
 42
6.283185307179586
  0
LINE
  5
D6
330
1F
100
AcDbEntity
  8
0
  6
HIDDEN
 62
     7
370
     0
100
AcDbLine
 10
139.9687721159
 20
90.0222225613
 30
0.0
 11
139.6315138156
 21
90.0222225613
 31
0.0
  0
LINE
  5
D7
330
1F
100
AcDbEntity
  8
0
  6
HIDDEN
 62
     7
370
     0
100
AcDbLine
 10
139.6315138156
 20
135.0222225613
 30
0.0
 11
139.9687721159
 21
135.0222225613
 31
0.0
  0
ELLIPSE
  5
D8
330
1F
100
AcDbEntity
  8
0
  6
HIDDEN
 62
     7
370
     0
100
AcDbEllipse
 10
139.9687721159
 20
136.6222225613
 30
0.0
 11
0.0
 21
1.599999999999994
 31
0.0
210
0.0
220
0.0
230
1.0
 40
0.4142135624
 41
3.141592653589793
 42
4.712388980384695
  0
SPLINE
  5
D9
330
1F
100
AcDbEntity
  8
0
  6
HIDDEN
 62
     7
370
     0
100
AcDbSpline
210
0.0
220
0.0
230
1.0
 70
     8
 71
     3
 72
    21
 73
    17
 74
     0
 42
0.000000001
 43
0.00000001
 40
0.0
 40
0.0
 40
0.0
 40
0.0
 40
0.0668155424897393
 40
0.1345258161111577
 40
0.2035536440812135
 40
0.2700887808777373
 40
0.3378981986893781
 40
0.4065939017812097
 40
0.4763804977784766
 40
0.5474997943071651
 40
0.6195863403706815
 40
0.7284871653278499
 40
0.8028395489801047
 40
0.8404099592777047
 40
0.9091925524526293
 40
1.0
 40
1.0
 40
1.0
 40
1.0
 10
218.5815138156499
 20
120.8137845371557
 30
0.0
 10
218.7051851888666
 20
120.8153915628391
 30
0.0
 10
218.9541840264367
 20
120.818627133988
 30
0.0
 10
219.3259523486584
 20
120.8446176509507
 30
0.0
 10
219.6873073209087
 20
120.8846778086035
 30
0.0
 10
220.0346059925363
 20
120.9379943204194
 30
0.0
 10
220.363700517944
 20
121.0012054979203
 30
0.0
 10
220.6765724456111
 20
121.0726919096114
 30
0.0
 10
220.9693138490192
 20
121.1493451029082
 30
0.0
 10
221.2379140969144
 20
121.2277849139925
 30
0.0
 10
221.5176794980721
 20
121.3169427424577
 30
0.0
 10
221.7481105730683
 20
121.3971884146751
 30
0.0
 10
221.895500364368
 20
121.4513908701969
 30
0.0
 10
221.9876785929529
 20
121.4860508976836
 30
0.0
 10
222.0637513641469
 20
121.5152784666871
 30
0.0
 10
222.0712140634861
 20
121.5182095741772
 30
0.0
 10
222.0754603728157
 20
121.5198773874596
 30
0.0
  0
LINE
  5
DA
330
1F
100
AcDbEntity
  8
0
  6
HIDDEN
 62
     7
370
     0
100
AcDbLine
 10
218.7589014374
 20
120.8177425439
 30
0.0
 11
218.2673867997
 21
120.820447485
 31
0.0
  0
SPLINE
  5
DB
330
1F
100
AcDbEntity
  8
0
  6
HIDDEN
 62
     7
370
     0
100
AcDbSpline
210
0.0
220
0.0
230
1.0
 70
     8
 71
     3
 72
    26
 73
    22
 74
     0
 42
0.000000001
 43
0.00000001
 40
0.0
 40
0.0
 40
0.0
 40
0.0
 40
0.0430641933086071
 40
0.0752531949051107
 40
0.1332023397485337
 40
0.1924153489842894
 40
0.2525462347972632
 40
0.3090178018180064
 40
0.3665781203830392
 40
0.4249005406453124
 40
0.4838674300263087
 40
0.5439312036684486
 40
0.604772227603679
 40
0.6670336238779431
 40
0.7627208385898632
 40
0.7950511402506767
 40
0.8616258662552654
 40
0.8957851114845452
 40
0.9300963198777584
 40
0.9649644737141647
 40
0.9999999999999999
 40
0.9999999999999999
 40
0.9999999999999999
 40
0.9999999999999999
 10
215.1893580175906
 20
121.480918140446
 30
0.0
 10
215.1671218279422
 20
121.4893498965987
 30
0.0
 10
215.1282648522277
 20
121.5040841001308
 30
0.0
 10
215.0923461752392
 20
121.5180194294498
 30
0.0
 10
215.0745522433935
 20
121.5249297656063
 30
0.0
 10
215.0955613367267
 20
121.5167482117727
 30
0.0
 10
215.1566771861106
 20
121.493158369409
 30
0.0
 10
215.2555810486398
 20
121.4557611681904
 30
0.0
 10
215.3889545641012
 20
121.4068049481913
 30
0.0
 10
215.5589353330264
 20
121.3469417375403
 30
0.0
 10
215.7646857209556
 20
121.2783471954589
 30
0.0
 10
216.0052022191525
 20
121.203652529003
 30
0.0
 10
216.280472310011
 20
121.125626636836
 30
0.0
 10
216.6426065099875
 20
121.0343576267164
 30
0.0
 10
216.9917481011838
 20
120.9619704969236
 30
0.0
 10
217.3695918557424
 20
120.9001751631544
 30
0.0
 10
217.6385562356435
 20
120.8652509751747
 30
0.0
 10
217.918716589674
 20
120.8392976270655
 30
0.0
 10
218.1361561719752
 20
120.824842304018
 30
0.0
 10
218.3575240852932
 20
120.8155366070205
 30
0.0
 10
218.5067314882979
 20
120.81436949193
 30
0.0
 10
218.5815138156499
 20
120.8137845371557
 30
0.0
  0
LINE
  5
DC
330
1F
100
AcDbEntity
  8
0
  6
HIDDEN
 62
     7
370
     0
100
AcDbLine
 10
140.6315138156
 20
83.0681998385
 30
0.0
 11
140.0185466386
 21
82.4552326614
 31
0.0
  0
LINE
  5
DD
330
1F
100
AcDbEntity
  8
0
  6
HIDDEN
 62
     7
370
     0
100
AcDbLine
 10
140.0185466386
 20
142.5892124611
 30
0.0
 11
140.6315138156
 21
141.9762452841
 31
0.0
  0
LINE
  5
DE
330
1F
100
AcDbEntity
  8
0
  6
HIDDEN
 62
     7
370
     0
100
AcDbLine
 10
79.2315138156
 20
104.0222225613
 30
0.0
 11
79.2315138156
 21
121.0222225613
 31
0.0
  0
LINE
  5
DF
330
1F
100
AcDbEntity
  8
0
  6
HIDDEN
 62
     7
370
     0
100
AcDbLine
 10
82.22744303
 20
105.5222225613
 30
0.0
 11
82.22744303
 21
119.5222225613
 31
0.0
  0
LINE
  5
E0
330
1F
100
AcDbEntity
  8
0
  6
HIDDEN
 62
     7
370
     0
100
AcDbLine
 10
140.6315138156
 20
141.9762452841
 30
0.0
 11
149.7640753592
 21
141.9762452841
 31
0.0
  0
LINE
  5
E1
330
1F
100
AcDbEntity
  8
0
  6
HIDDEN
 62
     7
370
     0
100
AcDbLine
 10
140.6315138156
 20
141.9762452841
 30
0.0
 11
140.6315138156
 21
136.6222225613
 31
0.0
  0
LINE
  5
E2
330
1F
100
AcDbEntity
  8
0
  6
HIDDEN
 62
     7
370
     0
100
AcDbLine
 10
149.7640753592
 20
83.0681998385
 30
0.0
 11
140.6315138156
 21
83.0681998385
 31
0.0
  0
LINE
  5
E3
330
1F
100
AcDbEntity
  8
0
  6
HIDDEN
 62
     7
370
     0
100
AcDbLine
 10
140.6315138156
 20
83.0681998385
 30
0.0
 11
140.6315138156
 21
88.4222225613
 31
0.0
  0
LINE
  5
E4
330
1F
100
AcDbEntity
  8
0
  6
HIDDEN
 62
     7
370
     0
100
AcDbLine
 10
139.9687721159
 20
135.0222225613
 30
0.0
 11
152.5815138156
 21
135.0222225613
 31
0.0
  0
LINE
  5
E5
330
1F
100
AcDbEntity
  8
0
  6
HIDDEN
 62
     7
370
     0
100
AcDbLine
 10
152.5815138156
 20
90.0222225613
 30
0.0
 11
139.9687721159
 21
90.0222225613
 31
0.0
  0
SPLINE
  5
E6
330
1F
100
AcDbEntity
  8
0
  6
HIDDEN
 62
     7
370
     0
100
AcDbSpline
210
0.0
220
0.0
230
1.0
 70
     8
 71
     3
 72
    33
 73
    29
 74
     0
 42
0.000000001
 43
0.00000001
 40
0.0
 40
0.0
 40
0.0
 40
0.0
 40
0.0239762613845764
 40
0.0473863621509931
 40
0.0702306060110498
 40
0.0925093201713509
 40
0.1142228577582503
 40
0.1353716005628283
 40
0.1559559621575778
 40
0.1759763914463686
 40
0.195433376721415
 40
0.2143274503158743
 40
0.2326591939591371
 40
0.2504292449647751
 40
0.380200003881057
 40
0.4998707672066848
 40
0.5332981986539205
 40
0.5681928386643808
 40
0.6045672022946817
 40
0.642432331270675
 40
0.6817980067524365
 40
0.7226729265437746
 40
0.7650648533222179
 40
0.8089807391664525
 40
0.8544268306233358
 40
0.9014087577334912
 40
0.9499316097796215
 40
1.0
 40
1.0
 40
1.0
 40
1.0
 10
158.6077774462624
 20
142.4270833369783
 30
0.0
 10
158.6684395939262
 20
142.4425695279266
 30
0.0
 10
158.7883314507902
 20
142.473176228481
 30
0.0
 10
158.9571463074165
 20
142.5173379721398
 30
0.0
 10
159.1154717302428
 20
142.5595129765085
 30
0.0
 10
159.2630305534679
 20
142.5996211156944
 30
0.0
 10
159.4003346439029
 20
142.6376831441567
 30
0.0
 10
159.5277126088103
 20
142.6736937631388
 30
0.0
 10
159.6455571765725
 20
142.7076544628414
 30
0.0
 10
159.7542579681541
 20
142.7395647686169
 30
0.0
 10
159.8542158674296
 20
142.769425520972
 30
0.0
 10
159.9458355674292
 20
142.7972343721826
 30
0.0
 10
160.0295275544451
 20
142.8230000156377
 30
0.0
 10
160.266516458491
 20
142.896715540599
 30
0.0
 10
160.5459603954325
 20
142.9889052528317
 30
0.0
 10
160.642954088383
 20
143.0269422578515
 30
0.0
 10
160.6249919130096
 20
143.0194278751971
 30
0.0
 10
160.5946293241327
 20
143.0068809354682
 30
0.0
 10
160.540948563316
 20
142.9861425917659
 30
0.0
 10
160.4614166429289
 20
142.9571128995481
 30
0.0
 10
160.3534997030984
 20
142.9198194616159
 30
0.0
 10
160.2147016873724
 20
142.8742530570681
 30
0.0
 10
160.0426159496339
 20
142.8204171046771
 30
0.0
 10
159.8348997298712
 20
142.7583031345263
 30
0.0
 10
159.5895882955022
 20
142.6879389907707
 30
0.0
 10
159.304092782014
 20
142.609213184162
 30
0.0
 10
158.9793844353331
 20
142.5225598873895
 30
0.0
 10
158.7329196428448
 20
142.4593640286749
 30
0.0
 10
158.6077554282329
 20
142.4272707631707
 30
0.0
  0
LINE
  5
E7
330
1F
100
AcDbEntity
  8
0
  6
HIDDEN
 62
     7
370
     0
100
AcDbLine
 10
159.0315138156
 20
90.0222225613
 30
0.0
 11
152.5815138156
 21
90.0222225613
 31
0.0
  0
LINE
  5
E8
330
1F
100
AcDbEntity
  8
0
  6
HIDDEN
 62
     7
370
     0
100
AcDbLine
 10
158.6077555818
 20
82.6171746679
 30
0.0
 11
158.7016983114
 21
82.5921909965
 31
0.0
  0
SPLINE
  5
E9
330
1F
100
AcDbEntity
  8
0
  6
HIDDEN
 62
     7
370
     0
100
AcDbSpline
210
0.0
220
0.0
230
1.0
 70
     8
 71
     3
 72
    13
 73
     9
 74
     0
 42
0.000000001
 43
0.00000001
 40
0.0
 40
0.0
 40
0.0
 40
0.0
 40
0.0000729225244412
 40
0.1576810837163452
 40
0.3241445774555209
 40
0.4996852408391247
 40
0.7294243771609252
 40
1.0
 40
1.0
 40
1.0
 40
1.0
 10
160.6314812404737
 20
82.02223500038056
 30
0.0
 10
160.6314920992151
 20
82.02223071052767
 30
0.0
 10
160.6549720610763
 20
82.01295471989603
 30
0.0
 10
160.583386846026
 20
82.04112022195875
 30
0.0
 10
160.4277705075802
 20
82.09470915181761
 30
0.0
 10
160.091517285264
 20
82.20323244062621
 30
0.0
 10
159.534204219273
 20
82.37429850396391
 30
0.0
 10
158.9329464540012
 20
82.53206249299086
 30
0.0
 10
158.6077797637398
 20
82.61738296137788
 30
0.0
  0
LINE
  5
EA
330
1F
100
AcDbEntity
  8
0
  6
HIDDEN
 62
     7
370
     0
100
AcDbLine
 10
152.5815138156
 20
135.0222225613
 30
0.0
 11
159.0315138156
 21
135.0222225613
 31
0.0
  0
LINE
  5
EB
330
1F
100
AcDbEntity
  8
0
  6
HIDDEN
 62
     7
370
     0
100
AcDbLine
 10
117.3946120441
 20
109.1222225613
 30
0.0
 11
117.3946120441
 21
115.9222225613
 31
0.0
  0
LINE
  5
EC
330
1F
100
AcDbEntity
  8
0
  6
HIDDEN
 62
     7
370
     0
100
AcDbLine
 10
115.2315138156
 20
105.5222225613
 30
0.0
 11
115.2315138156
 21
119.5222225613
 31
0.0
  0
SPLINE
  5
ED
330
1F
100
AcDbEntity
  8
0
  6
HIDDEN
 62
     7
370
     0
100
AcDbSpline
210
0.0
220
0.0
230
1.0
 70
     8
 71
     3
 72
     9
 73
     5
 74
     0
 42
0.000000001
 43
0.00000001
 40
0.0
 40
0.0
 40
0.0
 40
0.0
 40
0.493237740338934
 40
1.0
 40
1.0
 40
1.0
 40
1.0
 10
158.6085733543474
 20
142.4270540724396
 30
0.0
 10
158.7144216955086
 20
142.5840761332158
 30
0.0
 10
158.9290207265732
 20
142.9024257807272
 30
0.0
 10
159.1468803695351
 20
143.2222513295033
 30
0.0
 10
159.2572834144914
 20
143.3843268472984
 30
0.0
  0
SPLINE
  5
EE
330
1F
100
AcDbEntity
  8
0
  6
HIDDEN
 62
     7
370
     0
100
AcDbSpline
210
0.0
220
0.0
230
1.0
 70
     8
 71
     3
 72
     9
 73
     5
 74
     0
 42
0.000000001
 43
0.00000001
 40
0.0
 40
0.0
 40
0.0
 40
0.0
 40
0.5067649320089164
 40
1.0
 40
1.0
 40
1.0
 40
1.0
 10
159.2572870997774
 20
81.66013241079014
 30
0.0
 10
159.1468826600055
 20
81.82220914630858
 30
0.0
 10
158.9290214135019
 20
82.14203541146853
 30
0.0
 10
158.7144214517963
 20
82.46038449299343
 30
0.0
 10
158.6085732250936
 20
82.61740542386427
 30
0.0
  0
LINE
  5
EF
330
1F
100
AcDbEntity
  8
0
  6
HIDDEN
 62
     7
370
     0
100
AcDbLine
 10
218.5815138156
 20
127.0222225613
 30
0.0
 11
222.0815138156
 21
127.0222225613
 31
0.0
  0
LINE
  5
F0
330
1F
100
AcDbEntity
  8
0
  6
HIDDEN
 62
     7
370
     0
100
AcDbLine
 10
215.0815138156
 20
127.0222225613
 30
0.0
 11
218.5815138156
 21
127.0222225613
 31
0.0
  0
SPLINE
  5
F1
330
1F
100
AcDbEntity
  8
0
  6
HIDDEN
 62
     7
370
     0
100
AcDbSpline
210
0.0
220
0.0
230
1.0
 70
    11
 71
     3
 72
    62
 73
    58
 74
     0
 42
0.000000001
 43
0.00000001
 40
0.0
 40
0.0
 40
0.0
 40
0.0
 40
0.03125
 40
0.03125
 40
0.0625
 40
0.0625
 40
0.125
 40
0.125
 40
0.1562500000000001
 40
0.1562500000000001
 40
0.1875000000000001
 40
0.1875000000000001
 40
0.2187500000000001
 40
0.2187500000000001
 40
0.2500000000000001
 40
0.2500000000000001
 40
0.3125000000000001
 40
0.3125000000000001
 40
0.3750000000000001
 40
0.3750000000000001
 40
0.4062500000000001
 40
0.4062500000000001
 40
0.4375000000000001
 40
0.4375000000000001
 40
0.4687500000000001
 40
0.4687500000000001
 40
0.5000000000000001
 40
0.5000000000000001
 40
0.5312500000000001
 40
0.5312500000000001
 40
0.5625000000000001
 40
0.5625000000000001
 40
0.5937500000000001
 40
0.5937500000000001
 40
0.6250000000000001
 40
0.6250000000000001
 40
0.6562500000000001
 40
0.6562500000000001
 40
0.6875000000000001
 40
0.6875000000000001
 40
0.75
 40
0.75
 40
0.78125
 40
0.78125
 40
0.8125
 40
0.8125
 40
0.84375
 40
0.84375
 40
0.875
 40
0.875
 40
0.90625
 40
0.90625
 40
0.9375
 40
0.9375
 40
0.96875
 40
0.96875
 40
1.0
 40
1.0
 40
1.0
 40
1.0
 10
154.2315138156499
 20
111.4634122696972
 30
0.0
 10
154.3743378873396
 20
111.4634122696972
 30
0.0
 10
154.5137011219495
 20
111.4808724803506
 30
0.0
 10
154.7862611813997
 20
111.5473680754372
 30
0.0
 10
154.9204253014037
 20
111.5971998920451
 30
0.0
 10
155.2971197004002
 20
111.7836878560484
 30
0.0
 10
155.5226475802897
 20
111.9599004432123
 30
0.0
 10
155.806159286987
 20
112.2715669790955
 30
0.0
 10
155.8931025714446
 20
112.3853754727321
 30
0.0
 10
156.0444960773579
 20
112.6230789644879
 30
0.0
 10
156.1093968349386
 20
112.7470493998323
 30
0.0
 10
156.2168834202288
 20
113.0053790910424
 30
0.0
 10
156.2595443401842
 20
113.1413379572263
 30
0.0
 10
156.3161299198555
 20
113.4097635925941
 30
0.0
 10
156.3309112339453
 20
113.5435997104911
 30
0.0
 10
156.3326653992961
 20
113.9436466286246
 30
0.0
 10
156.2748978511401
 20
114.1966279579736
 30
0.0
 10
156.0616117433872
 20
114.6319887822713
 30
0.0
 10
155.9067880344818
 20
114.8159756942054
 30
0.0
 10
155.6243235819746
 20
115.0351844482686
 30
0.0
 10
155.5202601538251
 20
115.0999989848879
 30
0.0
 10
155.2981115193312
 20
115.2107676182927
 30
0.0
 10
155.1806115616627
 20
115.2567400895103
 30
0.0
 10
154.9309370885341
 20
115.3317083579468
 30
0.0
 10
154.796875274577
 20
115.360863326578
 30
0.0
 10
154.5235421624336
 20
115.3996256640069
 30
0.0
 10
154.3829555831084
 20
115.4097096697943
 30
0.0
 10
154.0975884962261
 20
115.4105083713643
 30
0.0
 10
153.9577166985333
 20
115.4013052426486
 30
0.0
 10
153.683106449666
 20
115.3640642866139
 30
0.0
 10
153.5488599202264
 20
115.3357863344888
 30
0.0
 10
153.2967200861082
 20
115.2618809703184
 30
0.0
 10
153.176116568607
 20
115.2155078971563
 30
0.0
 10
152.9526276301481
 20
115.1056838499986
 30
0.0
 10
152.8494215461029
 20
115.0423817153882
 30
0.0
 10
152.6587497015258
 20
114.8965425327137
 30
0.0
 10
152.5719304403801
 20
114.8141210308619
 30
0.0
 10
152.4205539316748
 20
114.6336021237189
 30
0.0
 10
152.3550529346705
 20
114.5348743777239
 30
0.0
 10
152.1915061181894
 20
114.208099628004
 30
0.0
 10
152.1326114436979
 20
113.9598654952422
 30
0.0
 10
152.1309877737665
 20
113.5589543188216
 30
0.0
 10
152.1447760853203
 20
113.4244178985274
 30
0.0
 10
152.1999842340167
 20
113.1537842475636
 30
0.0
 10
152.2418150089041
 20
113.0177917781849
 30
0.0
 10
152.3485099956943
 20
112.7575177425401
 30
0.0
 10
152.4143641330395
 20
112.6304160534659
 30
0.0
 10
152.5663080755836
 20
112.3903002677168
 30
0.0
 10
152.6516887353209
 20
112.2778979538363
 30
0.0
 10
152.8413171688799
 20
112.0681958649587
 30
0.0
 10
152.9459019836546
 20
111.9709888565265
 30
0.0
 10
153.1676285308461
 20
111.799871787312
 30
0.0
 10
153.2856100016974
 20
111.7248668919271
 30
0.0
 10
153.5385072140376
 20
111.5988049305228
 30
0.0
 10
153.671796184123
 20
111.5489515669096
 30
0.0
 10
153.9453905858699
 20
111.4814736820272
 30
0.0
 10
154.0886897439602
 20
111.4634122696972
 30
0.0
 10
154.2315138156499
 20
111.4634122696972
 30
0.0
  0
SPLINE
  5
F2
330
1F
100
AcDbEntity
  8
0
  6
HIDDEN
 62
     7
370
     0
100
AcDbSpline
210
0.0
220
0.0
230
1.0
 70
    11
 71
     3
 72
    56
 73
    52
 74
     0
 42
0.000000001
 43
0.00000001
 40
0.0
 40
0.0
 40
0.0
 40
0.0
 40
0.0312499999999998
 40
0.0312499999999998
 40
0.0624999999999996
 40
0.0624999999999996
 40
0.124999999999999
 40
0.124999999999999
 40
0.156249999999999
 40
0.156249999999999
 40
0.187499999999999
 40
0.187499999999999
 40
0.218749999999999
 40
0.218749999999999
 40
0.249999999999999
 40
0.249999999999999
 40
0.312499999999999
 40
0.312499999999999
 40
0.3437499999999991
 40
0.3437499999999991
 40
0.3749999999999991
 40
0.3749999999999991
 40
0.4374999999999991
 40
0.4374999999999991
 40
0.4687499999999991
 40
0.4687499999999991
 40
0.4999999999999991
 40
0.4999999999999991
 40
0.5312499999999992
 40
0.5312499999999992
 40
0.5624999999999993
 40
0.5624999999999993
 40
0.6249999999999994
 40
0.6249999999999994
 40
0.6874999999999997
 40
0.6874999999999997
 40
0.7499999999999998
 40
0.7499999999999998
 40
0.7812499999999998
 40
0.7812499999999998
 40
0.8124999999999998
 40
0.8124999999999998
 40
0.8437499999999998
 40
0.8437499999999998
 40
0.8749999999999998
 40
0.8749999999999998
 40
0.9062499999999999
 40
0.9062499999999999
 40
0.9374999999999999
 40
0.9374999999999999
 40
1.0
 40
1.0
 40
1.0
 40
1.0
 10
152.1909378148127
 20
118.1891026502436
 30
0.0
 10
152.2196093314097
 20
118.0872885853707
 30
0.0
 10
152.2573792509934
 20
117.994885667721
 30
0.0
 10
152.3476773877631
 20
117.8281075830254
 30
0.0
 10
152.4009530839364
 20
117.7532378939024
 30
0.0
 10
152.5698841607106
 20
117.5671172293875
 30
0.0
 10
152.7010708766949
 20
117.489100731804
 30
0.0
 10
152.8463563966984
 20
117.4685261812494
 30
0.0
 10
152.8844973295
 20
117.478074401182
 30
0.0
 10
152.9292738626642
 20
117.5254306303622
 30
0.0
 10
152.9361686007042
 20
117.5635313926223
 30
0.0
 10
152.9249200550903
 20
117.6556518705864
 30
0.0
 10
152.9072592098856
 20
117.7107073127257
 30
0.0
 10
152.8585352041236
 20
117.830314070905
 30
0.0
 10
152.8275962057322
 20
117.8949919400078
 30
0.0
 10
152.7239406704135
 20
118.1023533224313
 30
0.0
 10
152.6401353337513
 20
118.2591410776542
 30
0.0
 10
152.514685069299
 20
118.518286340307
 30
0.0
 10
152.4725918892514
 20
118.6090387148568
 30
0.0
 10
152.3898508979386
 20
118.802039936895
 30
0.0
 10
152.3490206645309
 20
118.9048208994234
 30
0.0
 10
152.2361709083708
 20
119.2270620126033
 30
0.0
 10
152.1714807250069
 20
119.4660085513144
 30
0.0
 10
152.1310110472689
 20
119.8347756562917
 30
0.0
 10
152.127969251079
 20
119.9545350669367
 30
0.0
 10
152.1437724076564
 20
120.1736333281458
 30
0.0
 10
152.1625155052012
 20
120.2719623364696
 30
0.0
 10
152.2137894085946
 20
120.4388373836762
 30
0.0
 10
152.2463139546269
 20
120.5087120297724
 30
0.0
 10
152.3184671030689
 20
120.6253210900649
 30
0.0
 10
152.3575722798217
 20
120.671541729838
 30
0.0
 10
152.4795700182681
 20
120.7843605473261
 30
0.0
 10
152.5671018309979
 20
120.8248138366858
 30
0.0
 10
152.7292183839504
 20
120.8556719561082
 30
0.0
 10
152.806776041239
 20
120.8467687705398
 30
0.0
 10
152.9179208643429
 20
120.7756927221016
 30
0.0
 10
152.9506538506849
 20
120.7134538033914
 30
0.0
 10
152.9070254683648
 20
120.5555525201185
 30
0.0
 10
152.8767102073688
 20
120.4922971172482
 30
0.0
 10
152.7918532237317
 20
120.3469830513884
 30
0.0
 10
152.7370041494686
 20
120.2636111356292
 30
0.0
 10
152.6221654640563
 20
120.0850179781387
 30
0.0
 10
152.5607460348768
 20
119.9872712297213
 30
0.0
 10
152.4445380479898
 20
119.7822929306218
 30
0.0
 10
152.3890239830212
 20
119.6740109953083
 30
0.0
 10
152.2908200076759
 20
119.4486610911799
 30
0.0
 10
152.2489295894298
 20
119.3337551357188
 30
0.0
 10
152.1824229091251
 20
119.0984877326857
 30
0.0
 10
152.1579794141978
 20
118.97749039819
 30
0.0
 10
152.1174894884023
 20
118.6242889660136
 30
0.0
 10
152.1335947816187
 20
118.3927307799893
 30
0.0
 10
152.1909378148127
 20
118.1891026502436
 30
0.0
  0
SPLINE
  5
F3
330
1F
100
AcDbEntity
  8
0
  6
HIDDEN
 62
     7
370
     0
100
AcDbSpline
210
0.0
220
0.0
230
1.0
 70
     8
 71
     3
 72
    22
 73
    18
 74
     0
 42
0.000000001
 43
0.00000001
 40
0.0
 40
0.0
 40
0.0
 40
0.0
 40
0.1250000000000006
 40
0.1250000000000006
 40
0.2500000000000012
 40
0.2500000000000012
 40
0.3750000000000018
 40
0.3750000000000018
 40
0.5000000000000023
 40
0.5000000000000023
 40
0.6250000000000029
 40
0.6250000000000029
 40
0.7500000000000036
 40
0.7500000000000036
 40
0.8750000000000018
 40
0.8750000000000018
 40
1.0
 40
1.0
 40
1.0
 40
1.0
 10
155.9078822543501
 20
120.3868775369225
 30
0.0
 10
155.8096040307946
 20
120.2623488169903
 30
0.0
 10
155.6982812634874
 20
120.150745677558
 30
0.0
 10
155.4504726551227
 20
119.9527618343696
 30
0.0
 10
155.3125211295726
 20
119.8661073121808
 30
0.0
 10
155.0242601679885
 20
119.7275837369579
 30
0.0
 10
154.8718166490763
 20
119.6741399856813
 30
0.0
 10
154.5549049108006
 20
119.6019598355362
 30
0.0
 10
154.3949164066922
 20
119.5840417961428
 30
0.0
 10
154.0719463000703
 20
119.5837566546452
 30
0.0
 10
153.9083838164175
 20
119.6020549645136
 30
0.0
 10
153.5948855852776
 20
119.6731503867044
 30
0.0
 10
153.4413836190487
 20
119.7264609389684
 30
0.0
 10
153.1507809211744
 20
119.8658423769929
 30
0.0
 10
153.0159606777607
 20
119.9503962741007
 30
0.0
 10
152.7670126011314
 20
120.1485877220068
 30
0.0
 10
152.6534233679623
 20
120.2623491116463
 30
0.0
 10
152.5551453769497
 20
120.3868775369225
 30
0.0
  0
SPLINE
  5
F4
330
1F
100
AcDbEntity
  8
0
  6
HIDDEN
 62
     7
370
     0
100
AcDbSpline
210
0.0
220
0.0
230
1.0
 70
     8
 71
     3
 72
    18
 73
    14
 74
     0
 42
0.000000001
 43
0.00000001
 40
0.0
 40
0.0
 40
0.0
 40
0.0
 40
0.2499999999999999
 40
0.2499999999999999
 40
0.3749999999999997
 40
0.3749999999999997
 40
0.4999999999999996
 40
0.4999999999999996
 40
0.6249999999999994
 40
0.6249999999999994
 40
0.7499999999999992
 40
0.7499999999999992
 40
1.0
 40
1.0
 40
1.0
 40
1.0
 10
155.9078822543501
 20
122.7639758615013
 30
0.0
 10
156.0464526030805
 20
122.5943958672655
 30
0.0
 10
156.150938022631
 20
122.4207846591237
 30
0.0
 10
156.2584942557689
 20
122.1377533967202
 30
0.0
 10
156.285504229741
 20
122.0410803616274
 30
0.0
 10
156.3220451918535
 20
121.8400119344559
 30
0.0
 10
156.3315210123657
 20
121.7342680373693
 30
0.0
 10
156.331506610555
 20
121.52001854509
 30
0.0
 10
156.3222844975331
 20
121.4119905466797
 30
0.0
 10
156.2860397515016
 20
121.1949976571483
 30
0.0
 10
156.2586654602229
 20
121.0851480394133
 30
0.0
 10
156.1514053383248
 20
120.7655642494974
 30
0.0
 10
156.0462148161856
 20
120.5621592649297
 30
0.0
 10
155.9078822543503
 20
120.3868775369223
 30
0.0
  0
SPLINE
  5
F5
330
1F
100
AcDbEntity
  8
0
  6
HIDDEN
 62
     7
370
     0
100
AcDbSpline
210
0.0
220
0.0
230
1.0
 70
     8
 71
     3
 72
    22
 73
    18
 74
     0
 42
0.000000001
 43
0.00000001
 40
0.0
 40
0.0
 40
0.0
 40
0.0
 40
0.1249999999999982
 40
0.1249999999999982
 40
0.2499999999999963
 40
0.2499999999999963
 40
0.3749999999999969
 40
0.3749999999999969
 40
0.4999999999999976
 40
0.4999999999999976
 40
0.6249999999999981
 40
0.6249999999999981
 40
0.7499999999999988
 40
0.7499999999999988
 40
0.8749999999999993
 40
0.8749999999999993
 40
1.0
 40
1.0
 40
1.0
 40
1.0
 10
152.5551453769497
 20
122.7639758615013
 30
0.0
 10
152.6534236005052
 20
122.884247050372
 30
0.0
 10
152.7647463678123
 20
122.9913952587681
 30
0.0
 10
153.0125549761771
 20
123.1807732971886
 30
0.0
 10
153.1505065017272
 20
123.2632534507461
 30
0.0
 10
153.4387674633113
 20
123.3947882820575
 30
0.0
 10
153.5912109822235
 20
123.4453482878427
 30
0.0
 10
153.9081227204991
 20
123.5135749632425
 30
0.0
 10
154.0681112246076
 20
123.5304720348682
 30
0.0
 10
154.3910813312295
 20
123.5307411398507
 30
0.0
 10
154.5546438148823
 20
123.51348461055
 30
0.0
 10
154.8681420460222
 20
123.4462841129039
 30
0.0
 10
155.021644012251
 20
123.3958531072717
 30
0.0
 10
155.3122467101253
 20
123.2635063321367
 30
0.0
 10
155.4470669535391
 20
123.183029794802
 30
0.0
 10
155.6960150301684
 20
122.9934655115953
 30
0.0
 10
155.8096042633375
 20
122.8842467657901
 30
0.0
 10
155.9078822543501
 20
122.7639758615013
 30
0.0
  0
SPLINE
  5
F6
330
1F
100
AcDbEntity
  8
0
  6
HIDDEN
 62
     7
370
     0
100
AcDbSpline
210
0.0
220
0.0
230
1.0
 70
     8
 71
     3
 72
    18
 73
    14
 74
     0
 42
0.000000001
 43
0.00000001
 40
0.0
 40
0.0
 40
0.0
 40
0.0
 40
0.2499999999999989
 40
0.2499999999999989
 40
0.3749999999999989
 40
0.3749999999999989
 40
0.499999999999999
 40
0.499999999999999
 40
0.624999999999999
 40
0.624999999999999
 40
0.749999999999999
 40
0.749999999999999
 40
1.0
 40
1.0
 40
1.0
 40
1.0
 10
152.5551453769497
 20
120.3868775369225
 30
0.0
 10
152.4165750282193
 20
120.5624605656311
 30
0.0
 10
152.3120896086688
 20
120.764453581262
 30
0.0
 10
152.2045333755309
 20
121.0844978720599
 30
0.0
 10
152.1775234015588
 20
121.192557147905
 30
0.0
 10
152.1409824394462
 20
121.4098083770217
 30
0.0
 10
152.1315066189341
 20
121.5202713102097
 30
0.0
 10
152.1315210207449
 20
121.7345138756525
 30
0.0
 10
152.1407431337667
 20
121.8379451624439
 30
0.0
 10
152.1769878797981
 20
122.0388677997271
 30
0.0
 10
152.2043621710769
 20
122.1371730425863
 30
0.0
 10
152.3116222929749
 20
122.4198131356553
 30
0.0
 10
152.4168128151142
 20
122.5946868667519
 30
0.0
 10
152.5551453769494
 20
122.7639758615014
 30
0.0
  0
LWPOLYLINE
  5
F7
330
1F
100
AcDbEntity
  8
0
  6
HIDDEN
 62
     7
370
     0
100
AcDbPolyline
 90
       19
 70
   128
 43
0.0
 10
140.2365200883
 20
120.5496867892
 10
140.3687989559
 20
120.1503896017
 10
140.5800272053
 20
119.9116952942
 10
140.8447275921
 20
119.862393923
 10
141.130973343
 20
120.0084319612
 10
141.4042389961
 20
120.3321950659
 10
141.6315646805
 20
120.7946326285
 10
141.7855315638
 20
121.3399678542
 10
141.8475689675
 20
121.9024252663
 10
141.8101942652
 20
122.4141642001
 10
141.6779153975
 20
122.8134613877
 10
141.4666871482
 20
123.0521556951
 10
141.2019867614
 20
123.1014570663
 10
140.9157410104
 20
122.9554190282
 10
140.6424753574
 20
122.6316559235
 10
140.4151496729
 20
122.1692183608
 10
140.2611827896
 20
121.6238831352
 10
140.1991453859
 20
121.061425723
 10
140.2365200883
 20
120.5496867892
  0
LWPOLYLINE
  5
F8
330
1F
100
AcDbEntity
  8
0
  6
HIDDEN
 62
     7
370
     0
100
AcDbPolyline
 90
       22
 70
   128
 43
0.0
 10
139.880084794
 20
120.3234490287
 10
140.0176172771
 20
119.8765287283
 10
140.2319107589
 20
119.5747437125
 10
140.503924323
 20
119.4449089043
 10
140.8094883706
 20
119.4985606962
 10
141.121452195
 20
119.7309318909
 10
141.4120964415
 20
120.1213752882
 10
141.6555960932
 20
120.6351982787
 10
141.8303151376
 20
121.2267454348
 10
141.9207290208
 20
121.8434551958
 10
141.9188040724
 20
122.430530193
 10
141.8247113327
 20
122.9358062366
 10
141.6468113545
 20
123.3143873327
 10
141.4009113314
 20
123.5326348896
 10
141.1088605598
 20
123.571156654
 10
140.7966090322
 20
123.4265297982
 10
140.4919016673
 20
123.111605053
 10
140.2218130515
 20
122.654364864
 10
140.0103417436
 20
122.0954370286
 10
139.8762778975
 20
121.4844847377
 10
139.831533674
 20
120.8757937836
 10
139.880084794
 20
120.3234490287
  0
LINE
  5
F9
330
1F
100
AcDbEntity
  8
0
  6
HIDDEN
 62
     7
370
     0
100
AcDbLine
 10
214.5815138156
 20
127.8222225613
 30
0.0
 11
222.5815138156
 21
127.8222225613
 31
0.0
  0
LINE
  5
FA
330
1F
100
AcDbEntity
  8
0
  6
HIDDEN
 62
     7
370
     0
100
AcDbLine
 10
214.5815138156
 20
122.6274784496
 30
0.0
 11
222.5815138156
 21
122.6274784496
 31
0.0
  0
LINE
  5
FB
330
1F
100
AcDbEntity
  8
0
  6
HIDDEN
 62
     7
370
     0
100
AcDbLine
 10
215.911711912
 20
118.5222225613
 30
0.0
 11
221.2513157193
 21
118.5222225613
 31
0.0
  0
SPLINE
  5
FC
330
1F
100
AcDbEntity
  8
0
  6
HIDDEN
 62
     7
370
     0
100
AcDbSpline
210
0.0
220
0.0
230
1.0
 70
     8
 71
     3
 72
    13
 73
     9
 74
     0
 42
0.000000001
 43
0.00000001
 40
0.0
 40
0.0
 40
0.0
 40
0.0
 40
0.2161268135840037
 40
0.4396426651111115
 40
0.5932590105054355
 40
0.7520094001457234
 40
0.8754366676457931
 40
1.0
 40
1.0
 40
1.0
 40
1.0
 10
216.5117986243674
 20
128.4316236380258
 30
0.0
 10
216.5219059133492
 20
128.3591455975807
 30
0.0
 10
216.5424660437251
 20
128.2117116057735
 30
0.0
 10
216.5726833662354
 20
128.1152186799019
 30
0.0
 10
216.6003396457529
 20
128.1236275133087
 30
0.0
 10
216.6223514561821
 20
128.1956762008699
 30
0.0
 10
216.6421195412342
 20
128.3030924433282
 30
0.0
 10
216.6536276574318
 20
128.3886492589121
 30
0.0
 10
216.6594080753328
 20
128.4316236380257
 30
0.0
  0
SPLINE
  5
FD
330
1F
100
AcDbEntity
  8
0
  6
HIDDEN
 62
     7
370
     0
100
AcDbSpline
210
0.0
220
0.0
230
1.0
 70
     8
 71
     3
 72
    10
 73
     6
 74
     0
 42
0.000000001
 43
0.00000001
 40
0.0
 40
0.0
 40
0.0
 40
0.0
 40
0.439122227423067
 40
0.7513714712594398
 40
1.0
 40
1.0
 40
1.0
 40
1.0
 10
216.6594080753329
 20
128.4316236380257
 30
0.0
 10
216.9557079328207
 20
128.2946428141951
 30
0.0
 10
217.4626994854031
 20
128.0602582244195
 30
0.0
 10
218.1996951791084
 20
128.1644455170724
 30
0.0
 10
218.5665168406289
 20
128.3495636182134
 30
0.0
 10
218.7291232666154
 20
128.4316236380257
 30
0.0
  0
SPLINE
  5
FE
330
1F
100
AcDbEntity
  8
0
  6
HIDDEN
 62
     7
370
     0
100
AcDbSpline
210
0.0
220
0.0
230
1.0
 70
     8
 71
     3
 72
    11
 73
     7
 74
     0
 42
0.000000001
 43
0.00000001
 40
0.0
 40
0.0
 40
0.0
 40
0.0
 40
0.1849308168245914
 40
0.5198464202157563
 40
0.8714438233692352
 40
1.0
 40
1.0
 40
1.0
 40
1.0
 10
218.7291232666154
 20
128.4316236380257
 30
0.0
 10
218.8409992123485
 20
128.3692198496147
 30
0.0
 10
219.1554860615186
 20
128.1938008114554
 30
0.0
 10
219.7425358217169
 20
128.0641973466393
 30
0.0
 10
220.2847002943649
 20
128.2229045839503
 30
0.0
 10
220.5738201443071
 20
128.3875433135375
 30
0.0
 10
220.6512290069325
 20
128.4316236380257
 30
0.0
  0
SPLINE
  5
FF
330
1F
100
AcDbEntity
  8
0
  6
HIDDEN
 62
     7
370
     0
100
AcDbSpline
210
0.0
220
0.0
230
1.0
 70
     8
 71
     3
 72
    13
 73
     9
 74
     0
 42
0.000000001
 43
0.00000001
 40
0.0
 40
0.0
 40
0.0
 40
0.0
 40
0.2161268135839853
 40
0.4396426651110654
 40
0.5932590105054079
 40
0.7520094001456904
 40
0.875436667645779
 40
1.0
 40
1.0
 40
1.0
 40
1.0
 10
220.6512290069325
 20
128.4316236380257
 30
0.0
 10
220.6411217179507
 20
128.3591455975808
 30
0.0
 10
220.6205615875747
 20
128.2117116057737
 30
0.0
 10
220.5903442650644
 20
128.1152186799018
 30
0.0
 10
220.5626879855469
 20
128.1236275133089
 30
0.0
 10
220.5406761751176
 20
128.1956762008699
 30
0.0
 10
220.5209080900657
 20
128.3030924433284
 30
0.0
 10
220.5093999738681
 20
128.3886492589122
 30
0.0
 10
220.503619555967
 20
128.4316236380258
 30
0.0
  0
SPLINE
  5
100
330
1F
100
AcDbEntity
  8
0
  6
HIDDEN
 62
     7
370
     0
100
AcDbSpline
210
0.0
220
0.0
230
1.0
 70
     8
 71
     3
 72
    10
 73
     6
 74
     0
 42
0.000000001
 43
0.00000001
 40
0.0
 40
0.0
 40
0.0
 40
0.0
 40
0.4391222274230321
 40
0.751371471259485
 40
1.0
 40
1.0
 40
1.0
 40
1.0
 10
220.503619555967
 20
128.4316236380258
 30
0.0
 10
220.2073196984791
 20
128.2946428141952
 30
0.0
 10
219.7003281458967
 20
128.0602582244195
 30
0.0
 10
218.9633324521913
 20
128.1644455170724
 30
0.0
 10
218.5965107906709
 20
128.3495636182135
 30
0.0
 10
218.4339043646844
 20
128.4316236380258
 30
0.0
  0
SPLINE
  5
101
330
1F
100
AcDbEntity
  8
0
  6
HIDDEN
 62
     7
370
     0
100
AcDbSpline
210
0.0
220
0.0
230
1.0
 70
     8
 71
     3
 72
    11
 73
     7
 74
     0
 42
0.000000001
 43
0.00000001
 40
0.0
 40
0.0
 40
0.0
 40
0.0
 40
0.1285561766307441
 40
0.4801535797842342
 40
0.8150691831754124
 40
1.0
 40
1.0
 40
1.0
 40
1.0
 10
218.4339043646844
 20
128.4316236380258
 30
0.0
 10
218.356495502059
 20
128.3875433135375
 30
0.0
 10
218.0673756521169
 20
128.2229045839503
 30
0.0
 10
217.5252111794689
 20
128.0641973466394
 30
0.0
 10
216.9381614192706
 20
128.1938008114554
 30
0.0
 10
216.6236745701005
 20
128.3692198496147
 30
0.0
 10
216.5117986243673
 20
128.4316236380258
 30
0.0
  0
LINE
  5
102
330
1F
100
AcDbEntity
  8
0
  6
HIDDEN
 62
     7
370
     0
100
AcDbLine
 10
216.5815138156
 20
122.5222225613
 30
0.0
 11
220.5815138156
 21
122.5222225613
 31
0.0
  0
LINE
  5
103
330
1F
100
AcDbEntity
  8
0
  6
HIDDEN
 62
     7
370
     0
100
AcDbLine
 10
218.7291232666
 20
123.5222225613
 30
0.0
 11
217.694265671
 21
123.5222225613
 31
0.0
  0
LINE
  5
104
330
1F
100
AcDbEntity
  8
0
  6
HIDDEN
 62
     7
370
     0
100
AcDbLine
 10
219.6901761368
 20
123.5222225613
 30
0.0
 11
218.7291232666
 21
123.5222225613
 31
0.0
  0
LINE
  5
105
330
1F
100
AcDbEntity
  8
0
  6
HIDDEN
 62
     7
370
     0
100
AcDbLine
 10
218.7291232666
 20
123.5222225613
 30
0.0
 11
218.7291232666
 21
128.431623638
 31
0.0
  0
LINE
  5
106
330
1F
100
AcDbEntity
  8
0
  6
HIDDEN
 62
     7
370
     0
100
AcDbLine
 10
217.694265671
 20
123.5222225613
 30
0.0
 11
216.6594080753
 21
123.5222225613
 31
0.0
  0
LINE
  5
107
330
1F
100
AcDbEntity
  8
0
  6
HIDDEN
 62
     7
370
     0
100
AcDbLine
 10
220.6512290069
 20
123.5222225613
 30
0.0
 11
219.6901761368
 21
123.5222225613
 31
0.0
  0
LINE
  5
108
330
1F
100
AcDbEntity
  8
0
  6
HIDDEN
 62
     7
370
     0
100
AcDbLine
 10
216.6594080753
 20
123.5222225613
 30
0.0
 11
216.5856033499
 21
123.5222225613
 31
0.0
  0
LINE
  5
109
330
1F
100
AcDbEntity
  8
0
  6
HIDDEN
 62
     7
370
     0
100
AcDbLine
 10
216.6594080753
 20
123.5222225613
 30
0.0
 11
216.6594080753
 21
128.431623638
 31
0.0
  0
LINE
  5
10A
330
1F
100
AcDbEntity
  8
0
  6
HIDDEN
 62
     7
370
     0
100
AcDbLine
 10
220.503619556
 20
123.5222225613
 30
0.0
 11
220.503619556
 21
128.431623638
 31
0.0
  0
LINE
  5
10B
330
1F
100
AcDbEntity
  8
0
  6
HIDDEN
 62
     7
370
     0
100
AcDbLine
 10
220.6512290069
 20
123.5222225613
 30
0.0
 11
220.6512290069
 21
128.431623638
 31
0.0
  0
LINE
  5
10C
330
1F
100
AcDbEntity
  8
0
  6
HIDDEN
 62
     7
370
     0
100
AcDbLine
 10
216.5856033499
 20
123.5222225613
 30
0.0
 11
216.5117986244
 21
123.5222225613
 31
0.0
  0
LINE
  5
10D
330
1F
100
AcDbEntity
  8
0
  6
HIDDEN
 62
     7
370
     0
100
AcDbLine
 10
218.4339043647
 20
123.5222225613
 30
0.0
 11
218.4339043647
 21
128.431623638
 31
0.0
  0
LINE
  5
10E
330
1F
100
AcDbEntity
  8
0
  6
HIDDEN
 62
     7
370
     0
100
AcDbLine
 10
216.5117986244
 20
123.5222225613
 30
0.0
 11
216.5117986244
 21
128.431623638
 31
0.0
  0
LWPOLYLINE
  5
10F
330
1F
100
AcDbEntity
  8
0
  6
HIDDEN
 62
     7
370
     0
100
AcDbPolyline
 90
       19
 70
   128
 43
0.0
 10
140.4569383589
 20
105.0713959319
 10
140.2486254462
 20
104.844370672
 10
140.1166482112
 20
104.45935694
 10
140.0769250564
 20
103.9627930744
 10
140.1342471804
 20
103.4145720058
 10
140.2817006892
 20
102.8808172859
 10
140.5015005132
 20
102.4259076113
 10
140.7671355499
 20
102.1047118026
 10
141.0465662936
 20
101.9559708146
 10
141.3060892724
 20
101.9976250056
 10
141.5144021851
 20
102.2246502655
 10
141.6463794201
 20
102.6096639974
 10
141.6861025749
 20
103.1062278631
 10
141.6287804509
 20
103.6544489317
 10
141.4813269421
 20
104.1882036516
 10
141.2615271181
 20
104.6431133262
 10
140.9958920814
 20
104.9643091349
 10
140.7164613377
 20
105.1130501229
 10
140.4569383589
 20
105.0713959319
  0
LWPOLYLINE
  5
110
330
1F
100
AcDbEntity
  8
0
  6
HIDDEN
 62
     7
370
     0
100
AcDbPolyline
 90
       21
 70
   128
 43
0.0
 10
140.549090888
 20
105.4821907144
 10
140.3123630747
 20
105.2379706205
 10
140.1504356602
 20
104.83077319
 10
140.0791592279
 20
104.3004577446
 10
140.1055108116
 20
103.698935255
 10
140.2269109347
 20
103.0850869334
 10
140.4314761073
 20
102.5190005307
 10
140.6991820651
 20
102.056088528
 10
141.0038238836
 20
101.7416639774
 10
141.3155810992
 20
101.6065049446
 10
141.6039367433
 20
101.6638417376
 10
141.8406645566
 20
101.9080618315
 10
142.0025919711
 20
102.315259262
 10
142.0738684034
 20
102.8455747074
 10
142.0475168197
 20
103.447097197
 10
141.9261166966
 20
104.0609455186
 10
141.721551524
 20
104.6270319213
 10
141.4538455662
 20
105.089943924
 10
141.1492037477
 20
105.4043684746
 10
140.8374465321
 20
105.5395275074
 10
140.549090888
 20
105.4821907144
  0
LWPOLYLINE
  5
111
330
1F
100
AcDbEntity
  8
0
  6
HIDDEN
 62
     7
370
     0
100
AcDbPolyline
 90
       21
 70
   128
 43
0.0
 10
142.3026480465
 20
105.8284576184
 10
142.0659202333
 20
105.5842375244
 10
141.9039928187
 20
105.177040094
 10
141.8327163864
 20
104.6467246486
 10
141.8590679701
 20
104.0452021589
 10
141.9804680932
 20
103.4313538374
 10
142.1850332658
 20
102.8652674347
 10
142.4527392236
 20
102.4023554319
 10
142.7573810421
 20
102.0879308813
 10
143.0691382577
 20
101.9527718486
 10
143.3574939018
 20
102.0101086416
 10
143.5942217151
 20
102.2543287355
 10
143.7561491296
 20
102.661526166
 10
143.827425562
 20
103.1918416114
 10
143.8010739783
 20
103.793364101
 10
143.6796738551
 20
104.4072124225
 10
143.4751086825
 20
104.9732988253
 10
143.2074027247
 20
105.436210828
 10
142.9027609062
 20
105.7506353786
 10
142.5910036906
 20
105.8857944113
 10
142.3026480465
 20
105.8284576184
  0
LINE
  5
112
330
1F
100
AcDbEntity
  8
0
  6
HIDDEN
 62
     7
370
     0
100
AcDbLine
 10
140.6089662598
 20
102.7394146201
 30
0.0
 11
141.1860215849
 21
102.432248064
 31
0.0
  0
LINE
  5
113
330
1F
100
AcDbEntity
  8
0
  6
HIDDEN
 62
     7
370
     0
100
AcDbLine
 10
141.4585691408
 20
103.2273439126
 30
0.0
 11
141.1860215849
 21
102.432248064
 31
0.0
  0
LINE
  5
114
330
1F
100
AcDbEntity
  8
0
  6
HIDDEN
 62
     7
370
     0
100
AcDbLine
 10
141.1540613715
 20
104.3296063174
 30
0.0
 11
141.4585691408
 21
103.2273439126
 31
0.0
  0
LINE
  5
115
330
1F
100
AcDbEntity
  8
0
  6
HIDDEN
 62
     7
370
     0
100
AcDbLine
 10
141.1540613715
 20
104.3296063174
 30
0.0
 11
140.5770060464
 21
104.6367728735
 31
0.0
  0
LINE
  5
116
330
1F
100
AcDbEntity
  8
0
  6
HIDDEN
 62
     7
370
     0
100
AcDbLine
 10
140.3044584905
 20
103.8416770249
 30
0.0
 11
140.5770060464
 21
104.6367728735
 31
0.0
  0
LINE
  5
117
330
1F
100
AcDbEntity
  8
0
  6
HIDDEN
 62
     7
370
     0
100
AcDbLine
 10
140.3044584905
 20
103.8416770249
 30
0.0
 11
140.6089662598
 21
102.7394146201
 31
0.0
  0
LWPOLYLINE
  5
118
330
1F
100
AcDbEntity
  8
0
  6
HIDDEN
 62
     7
370
     0
100
AcDbPolyline
 90
       17
 70
   128
 43
0.0
 10
143.1499506972
 20
105.240774739
 10
142.9718374054
 20
105.0332436696
 10
142.8710248475
 20
104.675648256
 10
142.8628608215
 20
104.2224291584
 10
142.9485882264
 20
103.7425848759
 10
143.1151558419
 20
103.3091673507
 10
143.3372052584
 20
102.988160472
 10
143.5809314653
 20
102.8284346273
 10
143.8092293568
 20
102.8543066285
 10
143.9873426486
 20
103.0618376979
 10
144.0881552065
 20
103.4194331114
 10
144.0963192325
 20
103.8726522091
 10
144.0105918276
 20
104.3524964916
 10
143.8440242121
 20
104.7859140168
 10
143.6219747956
 20
105.1069208954
 10
143.3782485887
 20
105.2666467401
 10
143.1499506972
 20
105.240774739
  0
LINE
  5
119
330
1F
100
AcDbEntity
  8
0
  6
HIDDEN
 62
     7
370
     0
100
AcDbLine
 10
142.7576072464
 20
103.4838590201
 30
0.0
 11
141.4585691408
 21
103.2273439126
 31
0.0
  0
LINE
  5
11A
330
1F
100
AcDbEntity
  8
0
  6
HIDDEN
 62
     7
370
     0
100
AcDbLine
 10
142.4530994772
 20
104.5861214249
 30
0.0
 11
141.1540613715
 21
104.3296063174
 31
0.0
  0
LINE
  5
11B
330
1F
100
AcDbEntity
  8
0
  6
HIDDEN
 62
     7
370
     0
100
AcDbLine
 10
141.9080043655
 20
102.9959297276
 30
0.0
 11
142.4850596906
 21
102.6887631715
 31
0.0
  0
LINE
  5
11C
330
1F
100
AcDbEntity
  8
0
  6
HIDDEN
 62
     7
370
     0
100
AcDbLine
 10
141.6034965962
 20
104.0981921324
 30
0.0
 11
141.9080043655
 21
102.9959297276
 31
0.0
  0
LINE
  5
11D
330
1F
100
AcDbEntity
  8
0
  6
HIDDEN
 62
     7
370
     0
100
AcDbLine
 10
141.6034965962
 20
104.0981921324
 30
0.0
 11
141.8760441521
 21
104.893287981
 31
0.0
  0
LINE
  5
11E
330
1F
100
AcDbEntity
  8
0
  6
HIDDEN
 62
     7
370
     0
100
AcDbLine
 10
142.4530994772
 20
104.5861214249
 30
0.0
 11
141.8760441521
 21
104.893287981
 31
0.0
  0
LINE
  5
11F
330
1F
100
AcDbEntity
  8
0
  6
HIDDEN
 62
     7
370
     0
100
AcDbLine
 10
142.4530994772
 20
104.5861214249
 30
0.0
 11
142.7576072464
 21
103.4838590201
 31
0.0
  0
LINE
  5
120
330
1F
100
AcDbEntity
  8
0
  6
HIDDEN
 62
     7
370
     0
100
AcDbLine
 10
142.7576072464
 20
103.4838590201
 30
0.0
 11
142.4850596906
 21
102.6887631715
 31
0.0
  0
LINE
  5
121
330
1F
100
AcDbEntity
  8
0
  6
HIDDEN
 62
     7
370
     0
100
AcDbLine
 10
141.9080043655
 20
102.9959297276
 30
0.0
 11
140.6089662598
 21
102.7394146201
 31
0.0
  0
LINE
  5
122
330
1F
100
AcDbEntity
  8
0
  6
HIDDEN
 62
     7
370
     0
100
AcDbLine
 10
142.4850596906
 20
102.6887631715
 30
0.0
 11
141.1860215849
 21
102.432248064
 31
0.0
  0
LINE
  5
123
330
1F
100
AcDbEntity
  8
0
  6
HIDDEN
 62
     7
370
     0
100
AcDbLine
 10
141.6034965962
 20
104.0981921324
 30
0.0
 11
140.3044584905
 21
103.8416770249
 31
0.0
  0
LINE
  5
124
330
1F
100
AcDbEntity
  8
0
  6
HIDDEN
 62
     7
370
     0
100
AcDbLine
 10
141.8760441521
 20
104.893287981
 30
0.0
 11
140.5770060464
 21
104.6367728735
 31
0.0
  0
LWPOLYLINE
  5
125
330
1F
100
AcDbEntity
  8
0
  6
HIDDEN
 62
     7
370
     0
100
AcDbPolyline
 90
       21
 70
   128
 43
0.0
 10
142.3026480465
 20
119.2159875042
 10
142.0659202333
 20
119.4602075981
 10
141.9039928187
 20
119.8674050286
 10
141.8327163864
 20
120.397720474
 10
141.8590679701
 20
120.9992429636
 10
141.9804680932
 20
121.6130912851
 10
142.1850332658
 20
122.1791776879
 10
142.4527392236
 20
122.6420896906
 10
142.7573810421
 20
122.9565142412
 10
143.0691382577
 20
123.0916732739
 10
143.3574939018
 20
123.0343364809
 10
143.5942217151
 20
122.790116387
 10
143.7561491296
 20
122.3829189565
 10
143.827425562
 20
121.8526035111
 10
143.8010739783
 20
121.2510810215
 10
143.6796738551
 20
120.6372327
 10
143.4751086825
 20
120.0711462972
 10
143.2074027247
 20
119.6082342945
 10
142.9027609062
 20
119.2938097439
 10
142.5910036906
 20
119.1586507112
 10
142.3026480465
 20
119.2159875042
  0
LWPOLYLINE
  5
126
330
1F
100
AcDbEntity
  8
0
  6
HIDDEN
 62
     7
370
     0
100
AcDbPolyline
 90
       17
 70
   128
 43
0.0
 10
143.1499506972
 20
119.8036703836
 10
142.9718374054
 20
120.0112014529
 10
142.8710248475
 20
120.3687968665
 10
142.8628608215
 20
120.8220159641
 10
142.9485882264
 20
121.3018602466
 10
143.1151558419
 20
121.7352777719
 10
143.3372052584
 20
122.0562846505
 10
143.5809314653
 20
122.2160104952
 10
143.8092293568
 20
122.190138494
 10
143.9873426486
 20
121.9826074247
 10
144.0881552065
 20
121.6250120111
 10
144.0963192325
 20
121.1717929135
 10
144.0105918276
 20
120.691948631
 10
143.8440242121
 20
120.2585311057
 10
143.6219747956
 20
119.9375242271
 10
143.3782485887
 20
119.7777983824
 10
143.1499506972
 20
119.8036703836
  0
LWPOLYLINE
  5
127
330
1F
100
AcDbEntity
  8
0
  6
HIDDEN
 62
     7
370
     0
100
AcDbPolyline
 90
       21
 70
   128
 43
0.0
 10
140.549090888
 20
119.5622544082
 10
140.3123630747
 20
119.8064745021
 10
140.1504356602
 20
120.2136719325
 10
140.0791592279
 20
120.7439873779
 10
140.1055108116
 20
121.3455098676
 10
140.2269109347
 20
121.9593581891
 10
140.4314761073
 20
122.5254445918
 10
140.6991820651
 20
122.9883565946
 10
141.0038238836
 20
123.3027811452
 10
141.3155810992
 20
123.4379401779
 10
141.6039367433
 20
123.3806033849
 10
141.8406645566
 20
123.136383291
 10
142.0025919711
 20
122.7291858605
 10
142.0738684034
 20
122.1988704151
 10
142.0475168197
 20
121.5973479255
 10
141.9261166966
 20
120.983499604
 10
141.721551524
 20
120.4174132012
 10
141.4538455662
 20
119.9545011985
 10
141.1492037477
 20
119.6400766479
 10
140.8374465321
 20
119.5049176152
 10
140.549090888
 20
119.5622544082
  0
LWPOLYLINE
  5
128
330
1F
100
AcDbEntity
  8
0
  6
HIDDEN
 62
     7
370
     0
100
AcDbPolyline
 90
       19
 70
   128
 43
0.0
 10
140.4569383589
 20
119.9730491907
 10
140.2486254462
 20
120.2000744506
 10
140.1166482112
 20
120.5850881825
 10
140.0769250564
 20
121.0816520481
 10
140.1342471804
 20
121.6298731168
 10
140.2817006892
 20
122.1636278367
 10
140.5015005132
 20
122.6185375112
 10
140.7671355499
 20
122.93973332
 10
141.0465662936
 20
123.088474308
 10
141.3060892724
 20
123.0468201169
 10
141.5144021851
 20
122.819794857
 10
141.6463794201
 20
122.4347811251
 10
141.6861025749
 20
121.9382172595
 10
141.6287804509
 20
121.3899961908
 10
141.4813269421
 20
120.8562414709
 10
141.2615271181
 20
120.4013317963
 10
140.9958920814
 20
120.0801359876
 10
140.7164613377
 20
119.9313949996
 10
140.4569383589
 20
119.9730491907
  0
LINE
  5
129
330
1F
100
AcDbEntity
  8
0
  6
HIDDEN
 62
     7
370
     0
100
AcDbLine
 10
141.6034965962
 20
120.9462529902
 30
0.0
 11
141.8760441521
 21
120.1511571415
 31
0.0
  0
LINE
  5
12A
330
1F
100
AcDbEntity
  8
0
  6
HIDDEN
 62
     7
370
     0
100
AcDbLine
 10
141.6034965962
 20
120.9462529902
 30
0.0
 11
141.9080043655
 21
122.048515395
 31
0.0
  0
LINE
  5
12B
330
1F
100
AcDbEntity
  8
0
  6
HIDDEN
 62
     7
370
     0
100
AcDbLine
 10
141.6034965962
 20
120.9462529902
 30
0.0
 11
140.3044584905
 21
121.2027680977
 31
0.0
  0
LINE
  5
12C
330
1F
100
AcDbEntity
  8
0
  6
HIDDEN
 62
     7
370
     0
100
AcDbLine
 10
140.3044584905
 20
121.2027680977
 30
0.0
 11
140.6089662598
 21
122.3050305025
 31
0.0
  0
LINE
  5
12D
330
1F
100
AcDbEntity
  8
0
  6
HIDDEN
 62
     7
370
     0
100
AcDbLine
 10
140.3044584905
 20
121.2027680977
 30
0.0
 11
140.5770060464
 21
120.407672249
 31
0.0
  0
LINE
  5
12E
330
1F
100
AcDbEntity
  8
0
  6
HIDDEN
 62
     7
370
     0
100
AcDbLine
 10
140.6089662598
 20
122.3050305025
 30
0.0
 11
141.1860215849
 21
122.6121970586
 31
0.0
  0
LINE
  5
12F
330
1F
100
AcDbEntity
  8
0
  6
HIDDEN
 62
     7
370
     0
100
AcDbLine
 10
141.9080043655
 20
122.048515395
 30
0.0
 11
140.6089662598
 21
122.3050305025
 31
0.0
  0
LINE
  5
130
330
1F
100
AcDbEntity
  8
0
  6
HIDDEN
 62
     7
370
     0
100
AcDbLine
 10
141.9080043655
 20
122.048515395
 30
0.0
 11
142.4850596906
 21
122.3556819511
 31
0.0
  0
LINE
  5
131
330
1F
100
AcDbEntity
  8
0
  6
HIDDEN
 62
     7
370
     0
100
AcDbLine
 10
142.4530994772
 20
120.4583236976
 30
0.0
 11
141.1540613715
 21
120.7148388051
 31
0.0
  0
LINE
  5
132
330
1F
100
AcDbEntity
  8
0
  6
HIDDEN
 62
     7
370
     0
100
AcDbLine
 10
141.1540613715
 20
120.7148388051
 30
0.0
 11
140.5770060464
 21
120.407672249
 31
0.0
  0
LINE
  5
133
330
1F
100
AcDbEntity
  8
0
  6
HIDDEN
 62
     7
370
     0
100
AcDbLine
 10
142.4530994772
 20
120.4583236976
 30
0.0
 11
141.8760441521
 21
120.1511571415
 31
0.0
  0
LINE
  5
134
330
1F
100
AcDbEntity
  8
0
  6
HIDDEN
 62
     7
370
     0
100
AcDbLine
 10
141.8760441521
 20
120.1511571415
 30
0.0
 11
140.5770060464
 21
120.407672249
 31
0.0
  0
LINE
  5
135
330
1F
100
AcDbEntity
  8
0
  6
HIDDEN
 62
     7
370
     0
100
AcDbLine
 10
142.7576072464
 20
121.5605861024
 30
0.0
 11
141.4585691408
 21
121.8171012099
 31
0.0
  0
LINE
  5
136
330
1F
100
AcDbEntity
  8
0
  6
HIDDEN
 62
     7
370
     0
100
AcDbLine
 10
142.4850596906
 20
122.3556819511
 30
0.0
 11
141.1860215849
 21
122.6121970586
 31
0.0
  0
LINE
  5
137
330
1F
100
AcDbEntity
  8
0
  6
HIDDEN
 62
     7
370
     0
100
AcDbLine
 10
141.4585691408
 20
121.8171012099
 30
0.0
 11
141.1860215849
 21
122.6121970586
 31
0.0
  0
LINE
  5
138
330
1F
100
AcDbEntity
  8
0
  6
HIDDEN
 62
     7
370
     0
100
AcDbLine
 10
142.7576072464
 20
121.5605861024
 30
0.0
 11
142.4850596906
 21
122.3556819511
 31
0.0
  0
LINE
  5
139
330
1F
100
AcDbEntity
  8
0
  6
HIDDEN
 62
     7
370
     0
100
AcDbLine
 10
141.1540613715
 20
120.7148388051
 30
0.0
 11
141.4585691408
 21
121.8171012099
 31
0.0
  0
LINE
  5
13A
330
1F
100
AcDbEntity
  8
0
  6
HIDDEN
 62
     7
370
     0
100
AcDbLine
 10
142.4530994772
 20
120.4583236976
 30
0.0
 11
142.7576072464
 21
121.5605861024
 31
0.0
  0
LWPOLYLINE
  5
13B
330
1F
100
AcDbEntity
  8
0
  6
HIDDEN
 62
     7
370
     0
100
AcDbPolyline
 90
       24
 70
   128
 43
0.0
 10
151.7837923739
 20
119.9962763598
 10
151.7373456577
 20
120.634559839
 10
151.8758799837
 20
121.2609494871
 10
152.1891208946
 20
121.8289888495
 10
152.6538367453
 20
122.2965490453
 10
153.2355616868
 20
122.6289532737
 10
153.8911518415
 20
122.8015486338
 10
154.5719850868
 20
122.8015345173
 10
155.2275671355
 20
122.628911971
 10
155.8092764661
 20
122.2964836196
 10
156.2739703587
 20
121.8289041532
 10
156.5871845931
 20
121.2608518017
 10
156.7256895024
 20
120.6344564094
 10
156.6792128112
 20
119.996174857
 10
156.4512014829
 20
119.3933455672
 10
156.0585660747
 20
118.8706776307
 10
155.5304265587
 20
118.4669349373
 10
154.9059526266
 20
118.2120612357
 10
154.2314586533
 20
118.1249593422
 10
153.5569687712
 20
118.2120892059
 10
152.9325068091
 20
118.4669888033
 10
152.4043862542
 20
118.8707533974
 10
152.0117753919
 20
119.3934376153
 10
151.7837923739
 20
119.9962763598
  0
LWPOLYLINE
  5
13C
330
1F
100
AcDbEntity
  8
0
  6
HIDDEN
 62
     7
370
     0
100
AcDbPolyline
 90
       20
 70
   128
 43
0.0
 10
152.5181088064
 20
119.8831356125
 10
152.4953494875
 20
120.4240521092
 10
152.6607305129
 20
120.942604529
 10
152.9963302823
 20
121.3825996711
 10
153.4657813535
 20
121.6963572346
 10
154.0182114185
 20
121.8498767191
 10
154.5937561079
 20
121.8265219062
 10
155.1300462242
 20
121.6288236525
 10
155.5689664119
 20
121.2782056312
 10
155.862952858
 20
120.8126627453
 10
155.9801475695
 20
120.2826437903
 10
155.907850681
 20
119.7455845439
 10
155.653896682
 20
119.2596837089
 10
155.245805429
 20
118.8775961802
 10
154.7277999412
 20
118.6407270703
 10
154.1560141511
 20
118.5747448226
 10
153.5924099212
 20
118.6867996375
 10
153.0980625149
 20
118.9647486371
 10
152.7265421443
 20
119.3784717345
 10
152.5181088064
 20
119.8831356125
  0
LWPOLYLINE
  5
13D
330
1F
100
AcDbEntity
  8
0
  6
HIDDEN
 62
     7
370
     0
100
AcDbPolyline
 90
       24
 70
   128
 43
0.0
 10
151.7837923739
 20
121.0199697129
 10
151.7373456577
 20
121.6582531921
 10
151.8758799837
 20
122.2846428402
 10
152.1891208946
 20
122.8526822026
 10
152.6538367453
 20
123.3202423984
 10
153.2355616868
 20
123.6526466268
 10
153.8911518415
 20
123.8252419869
 10
154.5719850868
 20
123.8252278704
 10
155.2275671355
 20
123.6526053241
 10
155.8092764661
 20
123.3201769727
 10
156.2739703587
 20
122.8525975063
 10
156.5871845931
 20
122.2845451548
 10
156.7256895024
 20
121.6581497625
 10
156.6792128112
 20
121.0198682101
 10
156.4512014829
 20
120.4170389203
 10
156.0585660747
 20
119.8943709838
 10
155.5304265587
 20
119.4906282904
 10
154.9059526266
 20
119.2357545888
 10
154.2314586533
 20
119.1486526953
 10
153.5569687712
 20
119.235782559
 10
152.9325068091
 20
119.4906821564
 10
152.4043862542
 20
119.8944467505
 10
152.0117753919
 20
120.4171309684
 10
151.7837923739
 20
121.0199697129
  0
LINE
  5
13E
330
1F
100
AcDbEntity
  8
0
  6
HIDDEN
 62
     7
370
     0
100
AcDbLine
 10
154.6838171203
 20
122.1897310034
 30
0.0
 11
155.6447064489
 21
121.1776401575
 31
0.0
  0
LINE
  5
13F
330
1F
100
AcDbEntity
  8
0
  6
HIDDEN
 62
     7
370
     0
100
AcDbLine
 10
154.6838171203
 20
122.1897310034
 30
0.0
 11
154.6838171203
 21
122.87377129
 31
0.0
  0
LINE
  5
140
330
1F
100
AcDbEntity
  8
0
  6
HIDDEN
 62
     7
370
     0
100
AcDbLine
 10
153.270624487
 20
121.9138069187
 30
0.0
 11
154.6838171203
 21
122.1897310034
 31
0.0
  0
LINE
  5
141
330
1F
100
AcDbEntity
  8
0
  6
HIDDEN
 62
     7
370
     0
100
AcDbLine
 10
153.270624487
 20
121.9138069187
 30
0.0
 11
153.270624487
 21
122.5978472053
 31
0.0
  0
LINE
  5
142
330
1F
100
AcDbEntity
  8
0
  6
HIDDEN
 62
     7
370
     0
100
AcDbLine
 10
153.270624487
 20
121.9138069187
 30
0.0
 11
152.8183211824
 21
120.625791988
 31
0.0
  0
LINE
  5
143
330
1F
100
AcDbEntity
  8
0
  6
HIDDEN
 62
     7
370
     0
100
AcDbLine
 10
155.1924031443
 20
119.8896252268
 30
0.0
 11
155.1924031443
 21
120.5736655135
 31
0.0
  0
LINE
  5
144
330
1F
100
AcDbEntity
  8
0
  6
HIDDEN
 62
     7
370
     0
100
AcDbLine
 10
155.1924031443
 20
120.5736655135
 30
0.0
 11
155.6447064489
 21
121.8616804441
 31
0.0
  0
LINE
  5
145
330
1F
100
AcDbEntity
  8
0
  6
HIDDEN
 62
     7
370
     0
100
AcDbLine
 10
155.6447064489
 20
121.1776401575
 30
0.0
 11
155.6447064489
 21
121.8616804441
 31
0.0
  0
LINE
  5
146
330
1F
100
AcDbEntity
  8
0
  6
HIDDEN
 62
     7
370
     0
100
AcDbLine
 10
155.1924031443
 20
119.8896252268
 30
0.0
 11
155.6447064489
 21
121.1776401575
 31
0.0
  0
LINE
  5
147
330
1F
100
AcDbEntity
  8
0
  6
HIDDEN
 62
     7
370
     0
100
AcDbLine
 10
153.779210511
 20
119.6137011421
 30
0.0
 11
153.779210511
 21
120.2977414288
 31
0.0
  0
LINE
  5
148
330
1F
100
AcDbEntity
  8
0
  6
HIDDEN
 62
     7
370
     0
100
AcDbLine
 10
153.779210511
 20
120.2977414288
 30
0.0
 11
152.8183211824
 21
121.3098322747
 31
0.0
  0
LINE
  5
149
330
1F
100
AcDbEntity
  8
0
  6
HIDDEN
 62
     7
370
     0
100
AcDbLine
 10
152.8183211824
 20
120.625791988
 30
0.0
 11
152.8183211824
 21
121.3098322747
 31
0.0
  0
LINE
  5
14A
330
1F
100
AcDbEntity
  8
0
  6
HIDDEN
 62
     7
370
     0
100
AcDbLine
 10
153.779210511
 20
119.6137011421
 30
0.0
 11
152.8183211824
 21
120.625791988
 31
0.0
  0
LINE
  5
14B
330
1F
100
AcDbEntity
  8
0
  6
HIDDEN
 62
     7
370
     0
100
AcDbLine
 10
153.779210511
 20
120.2977414288
 30
0.0
 11
155.1924031443
 21
120.5736655135
 31
0.0
  0
LINE
  5
14C
330
1F
100
AcDbEntity
  8
0
  6
HIDDEN
 62
     7
370
     0
100
AcDbLine
 10
153.779210511
 20
119.6137011421
 30
0.0
 11
155.1924031443
 21
119.8896252268
 31
0.0
  0
LWPOLYLINE
  5
14D
330
1F
100
AcDbEntity
  8
0
  6
HIDDEN
 62
     7
370
     0
100
AcDbPolyline
 90
       22
 70
   128
 43
0.0
 10
152.2194867906
 20
121.1929106127
 10
152.1856508322
 20
121.7676534081
 10
152.3335987781
 20
122.3262338526
 10
152.650184804
 20
122.8190196223
 10
153.107278852
 20
123.2022245389
 10
153.6642661102
 20
123.4417991641
 10
154.2716558164
 20
123.516456241
 10
154.8754787296
 20
123.4195621606
 10
155.4220825343
 20
123.1597263873
 10
155.8628990835
 20
122.7600364697
 10
156.1587598925
 20
122.2560066111
 10
156.28337643
 20
121.6924220763
 10
156.2256759698
 20
121.1193598245
 10
155.9907854509
 20
120.5877389515
 10
155.5995759268
 20
120.1447963049
 10
155.0868080805
 20
119.8298892828
 10
154.4980435853
 20
119.6709987559
 10
153.8855967505
 20
119.6822428448
 10
153.3038861649
 20
119.8626224629
 10
152.804599367
 20
120.1961100896
 10
152.4321001797
 20
120.6530738857
 10
152.2194867906
 20
121.1929106127
  0
LINE
  5
14E
330
1F
100
AcDbEntity
  8
0
  6
HIDDEN
 62
     7
370
     0
100
AcDbLine
 10
153.270624487
 20
122.5978472053
 30
0.0
 11
152.8183211824
 21
121.3098322747
 31
0.0
  0
LINE
  5
14F
330
1F
100
AcDbEntity
  8
0
  6
HIDDEN
 62
     7
370
     0
100
AcDbLine
 10
153.270624487
 20
122.5978472053
 30
0.0
 11
154.6838171203
 21
122.87377129
 31
0.0
  0
LINE
  5
150
330
1F
100
AcDbEntity
  8
0
  6
HIDDEN
 62
     7
370
     0
100
AcDbLine
 10
154.6838171203
 20
122.87377129
 30
0.0
 11
155.6447064489
 21
121.8616804441
 31
0.0
  0
LINE
  5
151
330
1F
100
AcDbEntity
  8
0
  6
HIDDEN
 62
     7
370
     0
100
AcDbLine
 10
139.6315138156
 20
101.1471279833
 30
0.0
 11
141.2883355307
 21
101.4742929821
 31
0.0
  0
LINE
  5
152
330
1F
100
AcDbEntity
  8
0
  6
HIDDEN
 62
     7
370
     0
100
AcDbLine
 10
140.4746921006
 20
105.5947279554
 30
0.0
 11
139.6315138156
 21
105.4282293997
 31
0.0
  0
LINE
  5
153
330
1F
100
AcDbEntity
  8
0
  6
HIDDEN
 62
     7
370
     0
100
AcDbLine
 10
141.34300281
 20
101.943777317
 30
0.0
 11
152.7807861605
 21
104.2023440309
 31
0.0
  0
LINE
  5
154
330
1F
100
AcDbEntity
  8
0
  6
HIDDEN
 62
     7
370
     0
100
AcDbLine
 10
152.7757705419
 20
107.5650761611
 30
0.0
 11
140.7037115435
 21
105.1812619388
 31
0.0
  0
LINE
  5
155
330
1F
100
AcDbEntity
  8
0
  6
HIDDEN
 62
     7
370
     0
100
AcDbLine
 10
156.3315138156
 20
105.1687894798
 30
0.0
 11
156.3315138156
 21
111.3613180586
 31
0.0
  0
LINE
  5
156
330
1F
100
AcDbEntity
  8
0
  6
HIDDEN
 62
     7
370
     0
100
AcDbLine
 10
152.1315138156
 20
111.3614304358
 30
0.0
 11
152.1315138156
 21
106.4069867932
 31
0.0
  0
ARC
  5
157
330
1F
100
AcDbEntity
  8
0
  6
HIDDEN
 62
     7
370
     0
100
AcDbCircle
 10
229.6315138156
 20
122.5222225613
 30
0.0
 40
1.0
100
AcDbArc
 50
270.0
 51
0.0
  0
ARC
  5
158
330
1F
100
AcDbEntity
  8
0
  6
HIDDEN
 62
     7
370
     0
100
AcDbCircle
 10
229.6315138156
 20
102.5222225613
 30
0.0
 40
1.0
100
AcDbArc
 50
0.0
 51
90.0
  0
LINE
  5
159
330
1F
100
AcDbEntity
  8
0
  6
HIDDEN
 62
     7
370
     0
100
AcDbLine
 10
209.5261918176
 20
122.0222225613
 30
0.0
 11
208.9315138156
 21
122.0222225613
 31
0.0
  0
LINE
  5
15A
330
1F
100
AcDbEntity
  8
0
  6
HIDDEN
 62
     7
370
     0
100
AcDbLine
 10
208.9315138156
 20
103.0222225613
 30
0.0
 11
209.5261918176
 21
103.0222225613
 31
0.0
  0
ARC
  5
15B
330
1F
100
AcDbEntity
  8
0
  6
HIDDEN
 62
     7
370
     0
100
AcDbCircle
 10
209.5261918176
 20
121.2222225613
 30
0.0
 40
0.7999999999999982
100
AcDbArc
 50
75.0
 51
90.0
  0
ARC
  5
15C
330
1F
100
AcDbEntity
  8
0
  6
HIDDEN
 62
     7
370
     0
100
AcDbCircle
 10
209.5261918176
 20
103.8222225613
 30
0.0
 40
0.7999999999999982
100
AcDbArc
 50
270.0
 51
285.0
  0
ARC
  5
15D
330
1F
100
AcDbEntity
  8
0
  6
HIDDEN
 62
     7
370
     0
100
AcDbCircle
 10
208.9315138156
 20
121.2222225613
 30
0.0
 40
0.8000000000000114
100
AcDbArc
 50
90.0
 51
180.0
  0
ARC
  5
15E
330
1F
100
AcDbEntity
  8
0
  6
HIDDEN
 62
     7
370
     0
100
AcDbCircle
 10
208.9315138156
 20
103.8222225613
 30
0.0
 40
0.8000000000000114
100
AcDbArc
 50
180.0
 51
270.0
  0
LINE
  5
15F
330
1F
100
AcDbEntity
  8
0
  6
HIDDEN
 62
     7
370
     0
100
AcDbLine
 10
209.7332470537
 20
103.0494819002
 30
0.0
 11
211.4975392194
 21
103.5222225613
 31
0.0
  0
LINE
  5
160
330
1F
100
AcDbEntity
  8
0
  6
HIDDEN
 62
     7
370
     0
100
AcDbLine
 10
211.4975392194
 20
121.5222225613
 30
0.0
 11
209.7332470537
 21
121.9949632223
 31
0.0
  0
ARC
  5
161
330
1F
100
AcDbEntity
  8
0
  6
HIDDEN
 62
     7
370
     0
100
AcDbCircle
 10
73.0315138156
 20
103.2222225613
 30
0.0
 40
0.7999999999999972
100
AcDbArc
 50
90.0
 51
180.0
  0
ARC
  5
162
330
1F
100
AcDbEntity
  8
0
  6
HIDDEN
 62
     7
370
     0
100
AcDbCircle
 10
73.0315138156
 20
121.8222225613
 30
0.0
 40
0.7999999999999972
100
AcDbArc
 50
180.0
 51
270.0
  0
LINE
  5
163
330
1F
100
AcDbEntity
  8
0
  6
HIDDEN
 62
     7
370
     0
100
AcDbLine
 10
215.0815866681
 20
121.5222225613
 30
0.0
 11
211.4975392194
 21
121.5222225613
 31
0.0
  0
LINE
  5
164
330
1F
100
AcDbEntity
  8
0
  6
HIDDEN
 62
     7
370
     0
100
AcDbLine
 10
229.6315138156
 20
121.5222225613
 30
0.0
 11
222.0754603728
 21
121.5222225613
 31
0.0
  0
LINE
  5
165
330
1F
100
AcDbEntity
  8
0
  6
HIDDEN
 62
     7
370
     0
100
AcDbLine
 10
211.4975392194
 20
103.5222225613
 30
0.0
 11
229.6315138156
 21
103.5222225613
 31
0.0
  0
ARC
  5
166
330
1F
100
AcDbEntity
  8
0
  6
HIDDEN
 62
     7
370
     0
100
AcDbCircle
 10
80.1238862464
 20
104.1972225613
 30
0.0
 40
0.400000000000006
100
AcDbArc
 50
255.0
 51
270.0
  0
ARC
  5
167
330
1F
100
AcDbEntity
  8
0
  6
HIDDEN
 62
     7
370
     0
100
AcDbCircle
 10
80.1238862464
 20
120.8472225613
 30
0.0
 40
0.400000000000006
100
AcDbArc
 50
90.0
 51
105.0
  0
LINE
  5
168
330
1F
100
AcDbEntity
  8
0
  6
HIDDEN
 62
     7
370
     0
100
AcDbLine
 10
80.1238862464
 20
103.7972225613
 30
0.0
 11
81.000573708
 21
103.7972225613
 31
0.0
  0
LINE
  5
169
330
1F
100
AcDbEntity
  8
0
  6
HIDDEN
 62
     7
370
     0
100
AcDbLine
 10
81.000573708
 20
121.2472225613
 30
0.0
 11
80.1238862464
 21
121.2472225613
 31
0.0
  0
ARC
  5
16A
330
1F
100
AcDbEntity
  8
0
  6
HIDDEN
 62
     7
370
     0
100
AcDbCircle
 10
81.000573708
 20
104.1972225613
 30
0.0
 40
0.4000000000000121
100
AcDbArc
 50
270.0
 51
330.0
  0
ARC
  5
16B
330
1F
100
AcDbEntity
  8
0
  6
HIDDEN
 62
     7
370
     0
100
AcDbCircle
 10
81.000573708
 20
120.8472225613
 30
0.0
 40
0.400000000000005
100
AcDbArc
 50
30.0
 51
90.0
  0
LINE
  5
16C
330
1F
100
AcDbEntity
  8
0
  6
HIDDEN
 62
     7
370
     0
100
AcDbLine
 10
80.0203586283
 20
121.2335928918
 30
0.0
 11
79.2315138156
 21
121.0222225613
 31
0.0
  0
LINE
  5
16D
330
1F
100
AcDbEntity
  8
0
  6
HIDDEN
 62
     7
370
     0
100
AcDbLine
 10
79.2315138156
 20
104.0222225613
 30
0.0
 11
80.0203586283
 21
103.8108522308
 31
0.0
  0
LINE
  5
16E
330
1F
100
AcDbEntity
  8
0
  6
HIDDEN
 62
     7
370
     0
100
AcDbLine
 10
81.3469838695
 20
103.9972225613
 30
0.0
 11
82.22744303
 21
105.5222225613
 31
0.0
  0
LINE
  5
16F
330
1F
100
AcDbEntity
  8
0
  6
HIDDEN
 62
     7
370
     0
100
AcDbLine
 10
82.22744303
 20
119.5222225613
 30
0.0
 11
81.3469838695
 21
121.0472225613
 31
0.0
  0
LINE
  5
170
330
1F
100
AcDbEntity
  8
0
  6
HIDDEN
 62
     7
370
     0
100
AcDbLine
 10
73.0315138156
 20
104.0222225613
 30
0.0
 11
79.2315138156
 21
104.0222225613
 31
0.0
  0
LINE
  5
171
330
1F
100
AcDbEntity
  8
0
  6
HIDDEN
 62
     7
370
     0
100
AcDbLine
 10
79.2315138156
 20
121.0222225613
 30
0.0
 11
73.0315138156
 21
121.0222225613
 31
0.0
  0
LINE
  5
172
330
1F
100
AcDbEntity
  8
0
  6
HIDDEN
 62
     7
370
     0
100
AcDbLine
 10
160.6315138156
 20
136.6222225613
 30
0.0
 11
160.6315138156
 21
143.1225165749
 31
0.0
  0
ARC
  5
173
330
1F
100
AcDbEntity
  8
0
  6
HIDDEN
 62
     7
370
     0
100
AcDbCircle
 10
159.0315138156
 20
88.4222225613
 30
0.0
 40
1.599999999999994
100
AcDbArc
 50
0.0
 51
90.0
  0
LINE
  5
174
330
1F
100
AcDbEntity
  8
0
  6
HIDDEN
 62
     7
370
     0
100
AcDbLine
 10
160.6315138156
 20
81.9218651003
 30
0.0
 11
160.6315138156
 21
88.4222225613
 31
0.0
  0
ARC
  5
175
330
1F
100
AcDbEntity
  8
0
  6
HIDDEN
 62
     7
370
     0
100
AcDbCircle
 10
159.0315138156
 20
136.6222225613
 30
0.0
 40
1.599999999999994
100
AcDbArc
 50
270.0
 51
0.0
  0
LINE
  5
176
330
1F
100
AcDbEntity
  8
0
  6
HIDDEN
 62
     7
370
     0
100
AcDbLine
 10
115.2315138156
 20
105.5222225613
 30
0.0
 11
117.3946120441
 21
109.1222225613
 31
0.0
  0
LINE
  5
177
330
1F
100
AcDbEntity
  8
0
  6
HIDDEN
 62
     7
370
     0
100
AcDbLine
 10
117.3946120441
 20
115.9222225613
 30
0.0
 11
115.2315138156
 21
119.5222225613
 31
0.0
  0
LINE
  5
178
330
1F
100
AcDbEntity
  8
0
  6
HIDDEN
 62
     7
370
     0
100
AcDbLine
 10
82.22744303
 20
105.5222225613
 30
0.0
 11
115.2315138156
 21
105.5222225613
 31
0.0
  0
LINE
  5
179
330
1F
100
AcDbEntity
  8
0
  6
HIDDEN
 62
     7
370
     0
100
AcDbLine
 10
115.2315138156
 20
119.5222225613
 30
0.0
 11
82.22744303
 21
119.5222225613
 31
0.0
  0
LINE
  5
17A
330
1F
100
AcDbEntity
  8
0
  6
HIDDEN
 62
     7
370
     0
100
AcDbLine
 10
160.6315129057
 20
143.0222223493
 30
0.0
 11
161.631512275
 21
144.0222220961
 31
0.0
  0
LINE
  5
17B
330
1F
100
AcDbEntity
  8
0
  6
HIDDEN
 62
     7
370
     0
100
AcDbLine
 10
161.631520177
 20
81.0222214236
 30
0.0
 11
160.6315199281
 21
82.0222212281
 31
0.0
  0
LINE
  5
17C
330
1F
100
AcDbEntity
  8
0
  6
HIDDEN
 62
     7
370
     0
100
AcDbLine
 10
213.5815138156
 20
128.5222225613
 30
0.0
 11
215.0815138156
 21
127.0222225613
 31
0.0
  0
LINE
  5
17D
330
1F
100
AcDbEntity
  8
0
  6
HIDDEN
 62
     7
370
     0
100
AcDbLine
 10
222.0815138156
 20
127.0222225613
 30
0.0
 11
223.5815138156
 21
128.5222225613
 31
0.0
  0
LINE
  5
17E
330
1F
100
AcDbEntity
  8
0
  6
HIDDEN
 62
     7
370
     0
100
AcDbLine
 10
215.0815138156
 20
127.0222225613
 30
0.0
 11
215.0815138156
 21
121.522194363
 31
0.0
  0
LINE
  5
17F
330
1F
100
AcDbEntity
  8
0
  6
HIDDEN
 62
     7
370
     0
100
AcDbLine
 10
222.0815138156
 20
121.5198845727
 30
0.0
 11
222.0815138156
 21
127.0222225613
 31
0.0
  0
LINE
  5
180
330
1F
100
AcDbEntity
  8
0
  6
HIDDEN
 62
     7
370
     0
100
AcDbLine
 10
208.1315138156
 20
115.9222225613
 30
0.0
 11
117.3946120441
 21
115.9222225613
 31
0.0
  0
LINE
  5
181
330
1F
100
AcDbEntity
  8
0
  6
HIDDEN
 62
     7
370
     0
100
AcDbLine
 10
117.3946120441
 20
109.1222225613
 30
0.0
 11
208.1315138156
 21
109.1222225613
 31
0.0
  0
LINE
  5
182
330
1F
100
AcDbEntity
  8
0
  6
HIDDEN
 62
     7
370
     0
100
AcDbLine
 10
156.3315138156
 20
113.6841127615
 30
0.0
 11
156.3315138156
 21
121.6259987769
 31
0.0
  0
LINE
  5
183
330
1F
100
AcDbEntity
  8
0
  6
HIDDEN
 62
     7
370
     0
100
AcDbLine
 10
152.1315138156
 20
118.637111473
 30
0.0
 11
152.1315138156
 21
113.6842356501
 31
0.0
  0
LINE
  5
184
330
1F
100
AcDbEntity
  8
0
  6
HIDDEN
 62
     7
370
     0
100
AcDbLine
 10
152.1315138156
 20
121.6259987769
 30
0.0
 11
152.1315138156
 21
119.9399490855
 31
0.0
  0
LINE
  5
185
330
1F
100
AcDbEntity
  8
0
  6
HIDDEN
 62
     7
370
     0
100
AcDbLine
 10
140.7037115435
 20
119.8631831837
 30
0.0
 11
152.7836755169
 21
117.4778080022
 31
0.0
  0
LINE
  5
186
330
1F
100
AcDbEntity
  8
0
  6
HIDDEN
 62
     7
370
     0
100
AcDbLine
 10
152.7834512411
 20
120.8415748304
 30
0.0
 11
141.34300281
 21
123.1006678056
 31
0.0
  0
LINE
  5
187
330
1F
100
AcDbEntity
  8
0
  6
HIDDEN
 62
     7
370
     0
100
AcDbLine
 10
139.6315138156
 20
119.6162157229
 30
0.0
 11
140.4746921006
 21
119.4497171672
 31
0.0
  0
LINE
  5
188
330
1F
100
AcDbEntity
  8
0
  6
HIDDEN
 62
     7
370
     0
100
AcDbLine
 10
141.2883355307
 20
123.5701521404
 30
0.0
 11
139.6315138156
 21
123.8973171392
 31
0.0
  0
LINE
  5
189
330
1F
100
AcDbEntity
  8
0
  6
HIDDEN
 62
     7
370
     0
100
AcDbLine
 10
222.5815138156
 20
127.8222225613
 30
0.0
 11
222.1734227679
 21
128.230313609
 31
0.0
  0
LINE
  5
18A
330
1F
100
AcDbEntity
  8
0
  6
HIDDEN
 62
     7
370
     0
100
AcDbLine
 10
214.5815138156
 20
127.8222225613
 30
0.0
 11
214.5815138156
 21
122.6274784496
 31
0.0
  0
LINE
  5
18B
330
1F
100
AcDbEntity
  8
0
  6
HIDDEN
 62
     7
370
     0
100
AcDbLine
 10
222.5815138156
 20
122.6274784496
 30
0.0
 11
222.5815138156
 21
127.8222225613
 31
0.0
  0
LINE
  5
18C
330
1F
100
AcDbEntity
  8
0
  6
HIDDEN
 62
     7
370
     0
100
AcDbLine
 10
214.5815138156
 20
122.6274784496
 30
0.0
 11
215.6219341642
 21
118.7445768477
 31
0.0
  0
LINE
  5
18D
330
1F
100
AcDbEntity
  8
0
  6
HIDDEN
 62
     7
370
     0
100
AcDbLine
 10
221.5410934671
 20
118.7445768477
 30
0.0
 11
222.5815138156
 21
122.6274784496
 31
0.0
  0
ARC
  5
18E
330
1F
100
AcDbEntity
  8
0
  6
HIDDEN
 62
     7
370
     0
100
AcDbCircle
 10
215.911711912
 20
118.8222225613
 30
0.0
 40
0.2999999999999972
100
AcDbArc
 50
195.0
 51
270.0
  0
ARC
  5
18F
330
1F
100
AcDbEntity
  8
0
  6
HIDDEN
 62
     7
370
     0
100
AcDbCircle
 10
221.2513157193
 20
118.8222225613
 30
0.0
 40
0.2999999999999972
100
AcDbArc
 50
270.0
 51
345.0
  0
LINE
  5
190
330
1F
100
AcDbEntity
  8
0
  6
HIDDEN
 62
     7
370
     0
100
AcDbLine
 10
216.1815138156
 20
128.5222225613
 30
0.0
 11
216.5815138156
 21
128.1222225613
 31
0.0
  0
LINE
  5
191
330
1F
100
AcDbEntity
  8
0
  6
HIDDEN
 62
     7
370
     0
100
AcDbLine
 10
220.5815138156
 20
128.1222225613
 30
0.0
 11
220.9815138156
 21
128.5222225613
 31
0.0
  0
LINE
  5
192
330
1F
100
AcDbEntity
  8
0
  6
HIDDEN
 62
     7
370
     0
100
AcDbLine
 10
216.5815138156
 20
123.5222225613
 30
0.0
 11
216.5815138156
 21
122.5222225613
 31
0.0
  0
LINE
  5
193
330
1F
100
AcDbEntity
  8
0
  6
HIDDEN
 62
     7
370
     0
100
AcDbLine
 10
220.5815138156
 20
122.5222225613
 30
0.0
 11
220.5815138156
 21
123.5222225613
 31
0.0
  0
LINE
  5
194
330
1F
100
AcDbEntity
  8
0
  6
HIDDEN
 62
     7
370
     0
100
AcDbLine
 10
216.5815138156
 20
122.5222225613
 30
0.0
 11
218.5815138156
 21
121.7942820927
 31
0.0
  0
LINE
  5
195
330
1F
100
AcDbEntity
  8
0
  6
HIDDEN
 62
     7
370
     0
100
AcDbLine
 10
218.5815138156
 20
121.7942820927
 30
0.0
 11
220.5815138156
 21
122.5222225613
 31
0.0
  0
LINE
  5
196
330
1F
100
AcDbEntity
  8
0
  6
HIDDEN
 62
     7
370
     0
100
AcDbLine
 10
140.0765138156
 20
104.1654124915
 30
0.0
 11
140.0765138156
 21
104.0113894624
 31
0.0
  0
LINE
  5
197
330
1F
100
AcDbEntity
  8
0
  6
HIDDEN
 62
     7
370
     0
100
AcDbLine
 10
140.318202062
 20
102.7874372174
 30
0.0
 11
140.376747662
 21
102.64497492
 31
0.0
  0
LINE
  5
198
330
1F
100
AcDbEntity
  8
0
  6
HIDDEN
 62
     7
370
     0
100
AcDbLine
 10
141.4639630681
 20
101.610904334
 30
0.0
 11
143.2175202266
 21
101.957171238
 31
0.0
  0
LINE
  5
199
330
1F
100
AcDbEntity
  8
0
  6
HIDDEN
 62
     7
370
     0
100
AcDbLine
 10
142.4426217218
 20
105.881395022
 30
0.0
 11
140.6890645632
 21
105.535128118
 31
0.0
  0
LINE
  5
19A
330
1F
100
AcDbEntity
  8
0
  6
HIDDEN
 62
     7
370
     0
100
AcDbLine
 10
143.6487598034
 20
102.3550816151
 30
0.0
 11
143.9912705453
 21
103.0699147369
 31
0.0
  0
LINE
  5
19B
330
1F
100
AcDbEntity
  8
0
  6
HIDDEN
 62
     7
370
     0
100
AcDbLine
 10
143.5812597877
 20
105.1462821021
 30
0.0
 11
142.9927425912
 21
105.6772693994
 31
0.0
  0
LINE
  5
19C
330
1F
100
AcDbEntity
  8
0
  6
HIDDEN
 62
     7
370
     0
100
AcDbLine
 10
142.9927425912
 20
119.3671757231
 30
0.0
 11
143.5812597877
 21
119.8981630204
 31
0.0
  0
LINE
  5
19D
330
1F
100
AcDbEntity
  8
0
  6
HIDDEN
 62
     7
370
     0
100
AcDbLine
 10
143.9912705453
 20
121.9745303856
 30
0.0
 11
143.6487598034
 21
122.6893635075
 31
0.0
  0
LINE
  5
19E
330
1F
100
AcDbEntity
  8
0
  6
HIDDEN
 62
     7
370
     0
100
AcDbLine
 10
140.6890645632
 20
119.5093170045
 30
0.0
 11
142.4426217218
 21
119.1630501005
 31
0.0
  0
LINE
  5
19F
330
1F
100
AcDbEntity
  8
0
  6
HIDDEN
 62
     7
370
     0
100
AcDbLine
 10
143.2175202266
 20
123.0872738846
 30
0.0
 11
141.4639630681
 21
123.4335407886
 31
0.0
  0
LINE
  5
1A0
330
1F
100
AcDbEntity
  8
0
  6
HIDDEN
 62
     7
370
     0
100
AcDbLine
 10
140.376747662
 20
122.3994702025
 30
0.0
 11
140.318202062
 21
122.2570079051
 31
0.0
  0
LINE
  5
1A1
330
1F
100
AcDbEntity
  8
0
  6
HIDDEN
 62
     7
370
     0
100
AcDbLine
 10
140.0765138156
 20
121.0330556601
 30
0.0
 11
140.0765138156
 21
120.8790326311
 31
0.0
  0
LINE
  5
1A2
330
1F
100
AcDbEntity
  8
0
  6
HIDDEN
 62
     7
370
     0
100
AcDbLine
 10
151.7315138156
 20
121.4978842467
 30
0.0
 11
151.7315138156
 21
120.4741908936
 31
0.0
  0
LINE
  5
1A3
330
1F
100
AcDbEntity
  8
0
  6
HIDDEN
 62
     7
370
     0
100
AcDbLine
 10
156.7315138156
 20
120.4741908936
 30
0.0
 11
156.7315138156
 21
121.4978842467
 31
0.0
  0
DIMENSION
  5
1A4
330
1F
100
AcDbEntity
  8
VERMASSUNG
100
AcDbDimension
  2
_D
 10
59.9952215229
 20
144.0222225613
 30
0.0
 11
59.9952215229
 21
112.5222225613
 31
0.0
 70
   160
  1
MAS-BT 40 %%c<>
 71
     2
 42
-1.0
  3
SLDDIMSTYLE0
100
AcDbAlignedDimension
 13
163.6315138156
 23
81.0222225613
 33
0.0
 14
163.6315138157
 24
144.0222225613
 34
0.0
 50
90.0
100
AcDbRotatedDimension
  0
DIMENSION
  5
1B1
330
1F
100
AcDbEntity
  8
VERMASSUNG
100
AcDbDimension
  2
_D_1
 10
230.6315138156
 20
161.6351348232
 30
0.0
 11
151.4315138156
 21
161.6351348232
 31
0.0
 70
   160
  1
<>
 71
     2
 42
-1.0
  3
SLDDIMSTYLE0
100
AcDbAlignedDimension
 13
72.2315138156
 23
124.3449781583
 33
0.0
 14
230.6315138156
 24
128.2222225613
 34
0.0
100
AcDbRotatedDimension
  0
DIMENSION
  5
1BB
330
1F
100
AcDbEntity
  8
VERMASSUNG
100
AcDbDimension
  2
_D_2
 10
230.6315138156
 20
155.6351348232
 30
0.0
 11
184.1315138156
 21
155.6351348232
 31
0.0
 70
   160
  1
<>
 71
     2
 42
-1.0
  3
SLDDIMSTYLE0
100
AcDbAlignedDimension
 13
137.6315138156
 23
134.7472225613
 33
0.0
 14
230.6315138156
 24
128.2222225613
 34
0.0
100
AcDbRotatedDimension
  0
DIMENSION
  5
1C5
330
1F
100
AcDbEntity
  8
VERMASSUNG
100
AcDbDimension
  2
_D_3
 10
230.6315138156
 20
149.6351348232
 30
0.0
 11
197.6315138156
 21
149.6351348232
 31
0.0
 70
   160
  1
<>
 71
     2
 42
-1.0
  3
SLDDIMSTYLE0
100
AcDbAlignedDimension
 13
164.6315138156
 23
143.0222225613
 33
0.0
 14
230.6315138156
 24
128.2222225613
 34
0.0
100
AcDbRotatedDimension
  0
DIMENSION
  5
1CF
330
1F
100
AcDbEntity
  8
VERMASSUNG
100
AcDbDimension
  2
_D_4
 10
244.9668941282
 20
96.5222225613
 30
0.0
 11
244.9668941282
 21
112.5222225613
 31
0.0
 70
   160
  1
WH%%c<>
 71
     2
 42
-1.0
  3
SLDDIMSTYLE0
100
AcDbAlignedDimension
 13
230.3315138156
 23
128.5222225613
 33
0.0
 14
230.3315138156
 24
96.5222225613
 34
0.0
 50
90.0
100
AcDbRotatedDimension
  0
DIMENSION
  5
1DB
330
1F
100
AcDbEntity
  8
VERMASSUNG
100
AcDbDimension
  2
_D_5
 10
238.7668941282
 20
103.5222225613
 30
0.0
 11
238.7668941282
 21
112.5222225613
 31
0.0
 70
   160
  1
%%c<>
 71
     2
 42
-1.0
  3
SLDDIMSTYLE0
100
AcDbAlignedDimension
 13
229.6315138156
 23
121.5222225613
 33
0.0
 14
229.6315138156
 24
103.5222225613
 34
0.0
 50
90.0
100
AcDbRotatedDimension
  0
LINE
  5
1E6
330
1F
100
AcDbEntity
  8
VERMASSUNG
  6
CENTERX2
370
     0
100
AcDbLine
 10
153.361622218
 20
119.0455447838
 30
0.0
 11
140.8815138156
 21
121.5099346538
 31
0.0
  0
LINE
  5
1E7
330
1F
100
AcDbEntity
  8
VERMASSUNG
  6
CENTERX2
370
     0
100
AcDbLine
 10
140.8815138156
 20
121.5099346538
 30
0.0
 11
138.7194019236
 21
121.9368769906
 31
0.0
  0
LINE
  5
1E8
330
1F
100
AcDbEntity
  8
VERMASSUNG
  6
CENTERX2
370
     0
100
AcDbLine
 10
218.5815138156
 20
118.8137846067
 30
0.0
 11
218.5815138156
 21
129.0222225613
 31
0.0
  0
LINE
  5
1E9
330
1F
100
AcDbEntity
  8
VERMASSUNG
  6
CENTERX2
370
     0
100
AcDbLine
 10
70.2315138156
 20
112.5222225613
 30
0.0
 11
234.5263414019
 21
112.5222225613
 31
0.0
  0
LINE
  5
1EA
330
1F
100
AcDbEntity
  8
0
  6
Continuous
 62
     7
370
    15
100
AcDbLine
 10
272.1355198148
 20
25.931580128
 30
0.0
 11
272.2415685933
 21
25.9928206881
 31
0.0
  0
LINE
  5
1EB
330
1F
100
AcDbEntity
  8
0
  6
Continuous
 62
     7
370
    15
100
AcDbLine
 10
277.7914546664
 20
35.6065470102
 30
0.0
 11
277.7914546664
 21
35.729008227
 31
0.0
  0
LINE
  5
1EC
330
1F
100
AcDbEntity
  8
0
  6
Continuous
 62
     7
370
    15
100
AcDbLine
 10
276.1342753474
 20
39.3917666787
 30
0.0
 11
253.9664777572
 21
52.1889638315
 31
0.0
  0
LINE
  5
1ED
330
1F
100
AcDbEntity
  8
0
  6
Continuous
 62
     7
370
    15
100
AcDbLine
 10
245.9671278961
 20
38.3321820334
 30
0.0
 11
268.1349254863
 21
25.5349848806
 31
0.0
  0
SPLINE
  5
1EE
330
1F
100
AcDbEntity
  8
0
  6
Continuous
 62
     7
370
    15
100
AcDbSpline
210
0.0
220
0.0
230
1.0
 70
     8
 71
     3
 72
    22
 73
    18
 74
     0
 42
0.000000001
 43
0.00000001
 40
0.0
 40
0.0
 40
0.0
 40
0.0
 40
0.070129255480405
 40
0.1363274052418163
 40
0.2068897118667447
 40
0.2743491296711149
 40
0.3406945373440883
 40
0.4068731193195638
 40
0.4731807459136794
 40
0.5397373648966941
 40
0.6065162387044764
 40
0.6734372725065886
 40
0.7404030872972661
 40
0.8072903781111157
 40
0.8739815246345841
 40
0.9403768551633025
 40
0.9999999999999999
 40
0.9999999999999999
 40
0.9999999999999999
 40
0.9999999999999999
 10
269.665807310781
 20
28.69629884079868
 30
0.0
 10
269.5693188397124
 20
28.75812306516234
 30
0.0
 10
269.3817505729966
 20
28.87830594791004
 30
0.0
 10
269.154412979651
 20
29.18133472314785
 30
0.0
 10
268.9773654615489
 20
29.57523747564912
 30
0.0
 10
268.8695290017162
 20
30.06691726595281
 30
0.0
 10
268.8389383837034
 20
30.62296707488137
 30
0.0
 10
268.8875626209799
 20
31.23219270973528
 30
0.0
 10
269.0159292364478
 20
31.87955213816792
 30
0.0
 10
269.2223657665379
 20
32.54776633212292
 30
0.0
 10
269.5025531477798
 20
33.21838014861191
 30
0.0
 10
269.8495250298797
 20
33.87254475560786
 30
0.0
 10
270.2538202686652
 20
34.49154977522233
 30
0.0
 10
270.7038865826934
 20
35.05854376107224
 30
0.0
 10
271.1859525434911
 20
35.55553310457345
 30
0.0
 10
271.6700375790427
 20
35.96415452756818
 30
0.0
 10
271.9870870507395
 20
36.16221733453978
 30
0.0
 10
272.1370927266261
 20
36.25592682747396
 30
0.0
  0
SPLINE
  5
1EF
330
1F
100
AcDbEntity
  8
0
  6
Continuous
 62
     7
370
    15
100
AcDbSpline
210
0.0
220
0.0
230
1.0
 70
     8
 71
     3
 72
    13
 73
     9
 74
     0
 42
0.000000001
 43
0.00000001
 40
0.0
 40
0.0
 40
0.0
 40
0.0
 40
0.1057682217714516
 40
0.3077143071779756
 40
0.5095317328150997
 40
0.7131807684430082
 40
0.9235050230039736
 40
1.0
 40
1.0
 40
1.0
 40
1.0
 10
272.1370927266261
 20
36.25592682747396
 30
0.0
 10
272.2225639236307
 20
36.30284086065884
 30
0.0
 10
272.4712275555747
 20
36.43932910804195
 30
0.0
 10
272.8691078227854
 20
36.59121204918387
 30
0.0
 10
273.3067584062439
 20
36.6792427882685
 30
0.0
 10
273.6930614149228
 20
36.66639881619985
 30
0.0
 10
273.9623126509171
 20
36.60673557485669
 30
0.0
 10
274.0884281935024
 20
36.52073521335814
 30
0.0
 10
274.1220633353182
 20
36.49779883061012
 30
0.0
  0
SPLINE
  5
1F0
330
1F
100
AcDbEntity
  8
0
  6
Continuous
 62
     7
370
    15
100
AcDbSpline
210
0.0
220
0.0
230
1.0
 70
     8
 71
     3
 72
    18
 73
    14
 74
     0
 42
0.000000001
 43
0.00000001
 40
0.0
 40
0.0
 40
0.0
 40
0.0
 40
0.0254470858802115
 40
0.1285240079174011
 40
0.2322800991053421
 40
0.3367479817830694
 40
0.4418206350269187
 40
0.5473249802637444
 40
0.6530873462878221
 40
0.7589695992587697
 40
0.8648679899566492
 40
0.9707263072167396
 40
1.0
 40
1.0
 40
1.0
 40
1.0
 10
242.4646309416353
 20
31.78536855501678
 30
0.0
 10
242.5320501304837
 20
31.76887853704071
 30
0.0
 10
242.8725600184186
 20
31.68559343277018
 30
0.0
 10
243.5298089713079
 20
31.64522328122838
 30
0.0
 10
244.4306822588999
 20
31.6690141984443
 30
0.0
 10
245.3674479102042
 20
31.81306138414534
 30
0.0
 10
246.3285493869031
 20
32.06544958365317
 30
0.0
 10
247.3075004792187
 20
32.42742986307324
 30
0.0
 10
248.2957358469515
 20
32.89582674426183
 30
0.0
 10
249.2858806871734
 20
33.46468009199866
 30
0.0
 10
250.2677206277614
 20
34.13713876828742
 30
0.0
 10
251.0074438071188
 20
34.69896837284879
 30
0.0
 10
251.4096069002732
 20
35.06148085539752
 30
0.0
 10
251.4967276263986
 20
35.14001205641218
 30
0.0
  0
SPLINE
  5
1F1
330
1F
100
AcDbEntity
  8
0
  6
Continuous
 62
     7
370
    15
100
AcDbSpline
210
0.0
220
0.0
230
1.0
 70
     8
 71
     3
 72
    17
 73
    13
 74
     0
 42
0.000000001
 43
0.00000001
 40
0.0
 40
0.0
 40
0.0
 40
0.0
 40
0.0586560946656311
 40
0.1648259239842786
 40
0.2710885940519343
 40
0.377437680425005
 40
0.4838481661623971
 40
0.5902449451678328
 40
0.6965110993524438
 40
0.8024840450390605
 40
0.9079642233101043
 40
0.9999999999999999
 40
0.9999999999999999
 40
0.9999999999999999
 40
0.9999999999999999
 10
259.4943807642726
 20
48.99777335196564
 30
0.0
 10
259.5398450240107
 20
49.2262543697708
 30
0.0
 10
259.667601375031
 20
49.86829498101987
 30
0.0
 10
259.7841509550973
 20
50.89616503994613
 30
0.0
 10
259.8494104982823
 20
52.07244378531706
 30
0.0
 10
259.8227743360093
 20
53.20335641522751
 30
0.0
 10
259.7088984043329
 20
54.2816223644928
 30
0.0
 10
259.506347052295
 20
55.29802563449003
 30
0.0
 10
259.2171036928081
 20
56.24497630137021
 30
0.0
 10
258.840434245377
 20
57.11102556670097
 30
0.0
 10
258.4072019007743
 20
57.86798571359293
 30
0.0
 10
258.0613712013261
 20
58.28849387679948
 30
0.0
 10
257.9002257534396
 20
58.48443650539781
 30
0.0
  0
LINE
  5
1F2
330
1F
100
AcDbEntity
  8
0
  6
Continuous
 62
     7
370
    15
100
AcDbLine
 10
239.131433161
 20
33.3296578341
 30
0.0
 11
240.6782292448
 21
32.4367114618
 31
0.0
  0
LINE
  5
1F3
330
1F
100
AcDbEntity
  8
0
  6
Continuous
 62
     7
370
    15
100
AcDbLine
 10
256.4269492838
 20
59.7172506268
 30
0.0
 11
254.8801532
 21
60.6101969991
 31
0.0
  0
LINE
  5
1F4
330
1F
100
AcDbEntity
  8
0
  6
Continuous
 62
     7
370
    15
100
AcDbLine
 10
251.3269416245
 20
62.6614223801
 30
0.0
 11
248.2952213002
 21
64.4115972698
 31
0.0
  0
SPLINE
  5
1F5
330
1F
100
AcDbEntity
  8
0
  6
Continuous
 62
     7
370
    15
100
AcDbSpline
210
0.0
220
0.0
230
1.0
 70
     8
 71
     3
 72
    30
 73
    26
 74
     0
 42
0.000000001
 43
0.00000001
 40
0.0
 40
0.0
 40
0.0
 40
0.0
 40
0.0096062853002342
 40
0.0557805914097045
 40
0.1022586308020489
 40
0.149055746748717
 40
0.1961244478664849
 40
0.2433873251448109
 40
0.2907664791225567
 40
0.3381998400872971
 40
0.3856408138750606
 40
0.4330639669452814
 40
0.4804603027610324
 40
0.5278278090994905
 40
0.5751686223556888
 40
0.6224872095853877
 40
0.6697892813197582
 40
0.7170811817849314
 40
0.7643695714212617
 40
0.8116609789202428
 40
0.8589603338852264
 40
0.9062746093862575
 40
0.9536107466793406
 40
0.9984956308336588
 40
1.0
 40
1.0
 40
1.0
 40
1.0
 10
246.4848636795957
 20
65.06882203609447
 30
0.0
 10
246.4280496446637
 20
65.08270602394064
 30
0.0
 10
246.0981489213525
 20
65.1633258503334
 30
0.0
 10
245.4520073347907
 20
65.20246107512506
 30
0.0
 10
244.5516652283507
 20
65.18022619282362
 30
0.0
 10
243.6151292212849
 20
65.03711041462424
 30
0.0
 10
242.654241631738
 20
64.78584265401496
 30
0.0
 10
241.6754449276176
 20
64.42479322719255
 30
0.0
 10
240.6871601862218
 20
63.95776402602332
 30
0.0
 10
239.6973757763832
 20
63.38851833617923
 30
0.0
 10
238.7139992450722
 20
62.72201587077894
 30
0.0
 10
237.7446141120222
 20
61.96383997866207
 30
0.0
 10
236.7965006325182
 20
61.12015983171887
 30
0.0
 10
235.8766735659698
 20
60.1976541984229
 30
0.0
 10
234.9919168797807
 20
59.20350833957746
 30
0.0
 10
234.1487604944089
 20
58.14537619866368
 30
0.0
 10
233.3534493246961
 20
57.03134006869408
 30
0.0
 10
232.6118963790597
 20
55.86985970119382
 30
0.0
 10
231.9296714014172
 20
54.66972556844355
 30
0.0
 10
231.3118622112592
 20
53.43998596748254
 30
0.0
 10
230.763419185536
 20
52.18995987161752
 30
0.0
 10
230.2876520683988
 20
50.9288048239664
 30
0.0
 10
229.898607250248
 20
49.68880321669659
 30
0.0
 10
229.6825598939114
 20
48.8598581261717
 30
0.0
 10
229.5950640726418
 20
48.45392060241071
 30
0.0
 10
229.5922266478876
 20
48.44075634882841
 30
0.0
  0
LINE
  5
1F6
330
1F
100
AcDbEntity
  8
0
  6
Continuous
 62
     7
370
    15
100
AcDbLine
 10
239.2917451332
 20
63.0966816058
 30
0.0
 11
219.3957236227
 21
70.2664191072
 31
0.0
  0
LINE
  5
1F7
330
1F
100
AcDbEntity
  8
0
  6
Continuous
 62
     7
370
    15
100
AcDbLine
 10
213.0242542113
 20
59.2295144962
 30
0.0
 11
232.0521282977
 21
43.1625349188
 31
0.0
  0
LINE
  5
1F8
330
1F
100
AcDbEntity
  8
0
  6
Continuous
 62
     7
370
    15
100
AcDbLine
 10
232.5465012612
 20
37.1310581048
 30
0.0
 11
235.5782215855
 21
35.3808832151
 31
0.0
  0
SPLINE
  5
1F9
330
1F
100
AcDbEntity
  8
0
  6
Continuous
 62
     7
370
    15
100
AcDbSpline
210
0.0
220
0.0
230
1.0
 70
     8
 71
     3
 72
    12
 73
     8
 74
     0
 42
0.000000001
 43
0.00000001
 40
0.0
 40
0.0
 40
0.0
 40
0.0
 40
0.098810989550198
 40
0.3820254461422846
 40
0.6643744439911058
 40
0.9450278620500971
 40
1.0
 40
1.0
 40
1.0
 40
1.0
 10
229.5835639626665
 20
41.19810845097437
 30
0.0
 10
229.6159674312938
 20
41.08746338521537
 30
0.0
 10
229.7412465081987
 20
40.65968474639758
 30
0.0
 10
230.0202856077075
 20
39.96643952315385
 30
0.0
 10
230.458662891341
 20
39.16580898336414
 30
0.0
 10
230.8222158661296
 20
38.62315104290023
 30
0.0
 10
231.0602045381436
 20
38.3787120116058
 30
0.0
 10
231.0991847226803
 20
38.33867532218188
 30
0.0
  0
SPLINE
  5
1FA
330
1F
100
AcDbEntity
  8
0
  6
Continuous
 62
     7
370
    15
100
AcDbSpline
210
0.0
220
0.0
230
1.0
 70
     8
 71
     3
 72
    29
 73
    25
 74
     0
 42
0.000000001
 43
0.00000001
 40
0.0
 40
0.0
 40
0.0
 40
0.0
 40
0.0441906272078238
 40
0.0899341016775402
 40
0.1366759503669055
 40
0.184368152399783
 40
0.2326654030866259
 40
0.2812052096015781
 40
0.3297248128801215
 40
0.3781563091556156
 40
0.4265007956542285
 40
0.4747868261250456
 40
0.5230536913433877
 40
0.5713424341671365
 40
0.6196860666677361
 40
0.66813070108621
 40
0.716719985917185
 40
0.7591465030186806
 40
0.7850002704614917
 40
0.8339190781082437
 40
0.8828358662315523
 40
0.931279907760884
 40
0.9787604031332029
 40
0.9999999999999999
 40
0.9999999999999999
 40
0.9999999999999999
 40
0.9999999999999999
 10
219.2226057768182
 20
70.3206529859733
 30
0.0
 10
219.0456770814624
 20
70.35982495111557
 30
0.0
 10
218.6856024619513
 20
70.43954537416924
 30
0.0
 10
218.0997507361965
 20
70.42024700050737
 30
0.0
 10
217.4854887083658
 20
70.29942970737542
 30
0.0
 10
216.8512865171639
 20
70.06640099528502
 30
0.0
 10
216.2101497296762
 20
69.72714824490154
 30
0.0
 10
215.5754753045707
 20
69.2877646217846
 30
0.0
 10
214.9604952759727
 20
68.7583124808796
 30
0.0
 10
214.3769200076021
 20
68.15009130904083
 30
0.0
 10
213.835082933184
 20
67.47511242721477
 30
0.0
 10
213.3444454736462
 20
66.74608615249086
 30
0.0
 10
212.913675679591
 20
65.97638965138985
 30
0.0
 10
212.5506003760787
 20
65.17995968599361
 30
0.0
 10
212.2620613226925
 20
64.37100612080148
 30
0.0
 10
212.0538675232187
 20
63.56374573909061
 30
0.0
 10
211.9361540160349
 20
62.80650142625245
 30
0.0
 10
211.9043653926687
 20
62.19583125010553
 30
0.0
 10
211.9237458832175
 20
61.6079847830635
 30
0.0
 10
212.0044703444446
 20
61.01943878341237
 30
0.0
 10
212.1931557018914
 20
60.3835350754651
 30
0.0
 10
212.4786618047934
 20
59.83269263197312
 30
0.0
 10
212.771010556209
 20
59.43850627335526
 30
0.0
 10
212.9925781476683
 20
59.27089514994423
 30
0.0
 10
213.0610589393553
 20
59.21909090207951
 30
0.0
  0
LINE
  5
1FB
330
1F
100
AcDbEntity
  8
0
  6
Continuous
 62
     7
370
    15
100
AcDbLine
 10
269.3947914332
 20
41.9243872524
 30
0.0
 11
269.147263846
 21
42.0673283357
 31
0.0
  0
LINE
  5
1FC
330
1F
100
AcDbEntity
  8
0
  6
Continuous
 62
     7
370
    15
100
AcDbLine
 10
266.8134323089
 20
42.0673283357
 30
0.0
 11
266.5659047216
 21
41.9243872524
 31
0.0
  0
LINE
  5
1FD
330
1F
100
AcDbEntity
  8
0
  6
Continuous
 62
     7
370
    15
100
AcDbLine
 10
265.9803480774
 20
41.1081118191
 30
0.0
 11
265.9803480774
 21
40.9856306973
 31
0.0
  0
LINE
  5
1FE
330
1F
100
AcDbEntity
  8
0
  6
Continuous
 62
     7
370
    15
100
AcDbLine
 10
269.9803480774
 20
40.9856306973
 30
0.0
 11
269.9803480774
 21
41.1081118191
 31
0.0
  0
LINE
  5
1FF
330
1F
100
AcDbEntity
  8
0
  6
Continuous
 62
     7
370
    15
100
AcDbLine
 10
270.7665046105
 20
34.792275296
 30
0.0
 11
271.692791853
 21
34.9809993848
 31
0.0
  0
SPLINE
  5
200
330
1F
100
AcDbEntity
  8
0
  6
Continuous
 62
     7
370
    15
100
AcDbSpline
210
0.0
220
0.0
230
1.0
 70
     8
 71
     3
 72
     9
 73
     5
 74
     0
 42
0.000000001
 43
0.00000001
 40
0.0
 40
0.0
 40
0.0
 40
0.0
 40
0.8412050897016526
 40
1.0
 40
1.0
 40
1.0
 40
1.0
 10
270.5145327598082
 20
34.80161429084414
 30
0.0
 10
270.5537338043343
 20
34.78789578417813
 30
0.0
 10
270.6003348591853
 20
34.77158762480776
 30
0.0
 10
270.642192696067
 20
34.78119804512546
 30
0.0
 10
270.6488395075198
 20
34.78272413095775
 30
0.0
  0
LWPOLYLINE
  5
201
330
1F
100
AcDbEntity
  8
0
  6
Continuous
 62
     7
370
    15
100
AcDbPolyline
 90
       49
 70
   128
 43
0.0
 10
272.2406664341
 20
38.8119905446
 10
271.5161431823
 20
38.3388950585
 10
270.8040167242
 20
37.7642201358
 10
270.116471741
 20
37.0977986238
 10
269.4652723179
 20
36.3510331794
 10
268.8615606576
 20
35.5367011664
 10
268.3156664341
 20
34.6687360312
 10
267.8369300487
 20
33.7619888979
 10
267.4335428138
 20
32.8319744615
 10
267.1124067969
 20
31.8946055268
 10
266.8790167242
 20
30.965920736
 10
266.7373659646
 20
30.0618101436
 10
266.6898782017
 20
29.1977433324
 10
266.7373659646
 20
28.388504725
 10
266.8790167242
 20
27.6479406185
 10
267.1124067969
 20
26.98872227
 10
267.4335428138
 20
26.4221290882
 10
267.8369300487
 20
25.9578556396
 10
268.3156664341
 20
25.6038457715
 10
268.8615606576
 20
25.3661566911
 10
269.4652723179
 20
25.2488553242
 10
270.116471741
 20
25.2539487299
 10
270.8040167242
 20
25.3813497586
 10
271.5161431823
 20
25.6288785433
 10
272.2406664341
 20
25.992299798
 10
272.9651896858
 20
26.4653952841
 10
273.6773161439
 20
27.0400702068
 10
274.3648611271
 20
27.7064917187
 10
275.0160605502
 20
28.4532571631
 10
275.6197722105
 20
29.2675891762
 10
276.1656664341
 20
30.1355543114
 10
276.6444028194
 20
31.0423014446
 10
277.0477900543
 20
31.9723158811
 10
277.3689260712
 20
32.9096848158
 10
277.6023161439
 20
33.8383696065
 10
277.7439669036
 20
34.7424801989
 10
277.7914546664
 20
35.6065470102
 10
277.7439669036
 20
36.4157856175
 10
277.6023161439
 20
37.1563497241
 10
277.3689260712
 20
37.8155680726
 10
277.0477900543
 20
38.3821612544
 10
276.6444028194
 20
38.846434703
 10
276.1656664341
 20
39.200444571
 10
275.6197722105
 20
39.4381336515
 10
275.0160605502
 20
39.5554350183
 10
274.3648611271
 20
39.5503416126
 10
273.6773161439
 20
39.4229405839
 10
272.9651896858
 20
39.1754117992
 10
272.2406664341
 20
38.8119905446
  0
LWPOLYLINE
  5
202
330
1F
100
AcDbEntity
  8
0
  6
Continuous
 62
     7
370
    15
100
AcDbPolyline
 90
       26
 70
   128
 43
0.0
 10
272.1346004169
 20
38.9957022748
 10
271.3962327718
 20
38.5135667475
 10
270.6704988017
 20
37.9279107754
 10
269.9698160163
 20
37.2487550944
 10
269.3061732921
 20
36.4877202466
 10
268.6909257403
 20
35.6578277492
 10
268.1346004169
 20
34.7732772929
 10
267.6467162025
 20
33.8492037813
 10
267.2356209313
 20
32.9014183684
 10
266.9083485574
 20
31.9461379254
 10
266.6704988017
 20
30.9997075654
 10
266.5261413397
 20
30.0783209744
 10
266.4777461674
 20
29.1977433324
 10
266.5261413397
 20
28.3730415669
 10
266.6704988017
 20
27.6183265539
 10
266.9083485574
 20
26.9465116764
 10
267.2356209313
 20
26.3690918733
 10
267.6467162025
 20
25.8959469575
 10
268.1346004169
 20
25.5351725697
 10
268.6909257403
 20
25.2929416597
 10
269.3061732921
 20
25.1733988655
 10
269.9698160163
 20
25.1785895974
 10
270.6704988017
 20
25.3084250406
 10
271.3962327718
 20
25.5606836748
 10
272.1346004169
 20
25.9310492846
 10
272.1355198148
 20
25.931580128
  0
LWPOLYLINE
  5
203
330
1F
100
AcDbEntity
  8
0
  6
Continuous
 62
     7
370
    15
100
AcDbPolyline
 90
       13
 70
   128
 43
0.0
 10
277.7914546664
 20
35.729008227
 10
277.7430594941
 20
36.5537099924
 10
277.598702032
 20
37.3084250054
 10
277.3608522764
 20
37.9802398829
 10
277.0335799024
 20
38.557659686
 10
276.6224846313
 20
39.0308046018
 10
276.1346004169
 20
39.3915789896
 10
275.5782750935
 20
39.6338098996
 10
274.9630275416
 20
39.7533526939
 10
274.2993848175
 20
39.7481619619
 10
273.598702032
 20
39.6183265187
 10
272.872968062
 20
39.3660678846
 10
272.1346004169
 20
38.9957022748
  0
SPLINE
  5
204
330
1F
100
AcDbEntity
  8
0
  6
Continuous
 62
     7
370
    15
100
AcDbSpline
210
0.0
220
0.0
230
1.0
 70
    11
 71
     3
 72
    82
 73
    78
 74
     0
 42
0.000000001
 43
0.00000001
 40
0.0
 40
0.0
 40
0.0
 40
0.0
 40
0.0312499999999985
 40
0.0312499999999985
 40
0.0624999999999969
 40
0.0624999999999969
 40
0.0937499999999954
 40
0.0937499999999954
 40
0.1249999999999939
 40
0.1249999999999939
 40
0.1562499999999923
 40
0.1562499999999923
 40
0.1874999999999908
 40
0.1874999999999908
 40
0.2187499999999892
 40
0.2187499999999892
 40
0.234374999999989
 40
0.234374999999989
 40
0.2499999999999889
 40
0.2499999999999889
 40
0.2812499999999885
 40
0.2812499999999885
 40
0.2968749999999888
 40
0.2968749999999888
 40
0.312499999999989
 40
0.312499999999989
 40
0.3437499999999895
 40
0.3437499999999895
 40
0.3593749999999897
 40
0.3593749999999897
 40
0.3749999999999897
 40
0.3749999999999897
 40
0.3906249999999898
 40
0.3906249999999898
 40
0.4062499999999899
 40
0.4062499999999899
 40
0.4374999999999905
 40
0.4374999999999905
 40
0.4687499999999911
 40
0.4687499999999911
 40
0.4999999999999917
 40
0.4999999999999917
 40
0.5312499999999922
 40
0.5312499999999922
 40
0.5624999999999928
 40
0.5624999999999928
 40
0.5937499999999934
 40
0.5937499999999934
 40
0.624999999999994
 40
0.624999999999994
 40
0.6562499999999946
 40
0.6562499999999946
 40
0.6874999999999951
 40
0.6874999999999951
 40
0.7187499999999958
 40
0.7187499999999958
 40
0.7499999999999963
 40
0.7499999999999963
 40
0.7812499999999969
 40
0.7812499999999969
 40
0.8124999999999974
 40
0.8124999999999974
 40
0.8281249999999978
 40
0.8281249999999978
 40
0.843749999999998
 40
0.843749999999998
 40
0.8749999999999982
 40
0.8749999999999982
 40
0.8906249999999983
 40
0.8906249999999983
 40
0.9062499999999984
 40
0.9062499999999984
 40
0.9374999999999989
 40
0.9374999999999989
 40
0.9687499999999994
 40
0.9687499999999994
 40
1.0
 40
1.0
 40
1.0
 40
1.0
 10
267.9634537204679
 20
42.60137603333591
 30
0.0
 10
268.1165770037032
 20
42.57434380756538
 30
0.0
 10
268.2655936646994
 20
42.53996121994648
 30
0.0
 10
268.5564197293309
 20
42.45949214996455
 30
0.0
 10
268.698965206201
 20
42.4131013771325
 30
0.0
 10
268.9736075868144
 20
42.31096780968544
 30
0.0
 10
269.1034928883656
 20
42.25612987413032
 30
0.0
 10
269.3491222458615
 20
42.14008786703727
 30
0.0
 10
269.4657474511312
 20
42.07833547952936
 30
0.0
 10
269.6796631944175
 20
41.9510605124059
 30
0.0
 10
269.7763140341552
 20
41.88606349064568
 30
0.0
 10
269.9493377823692
 20
41.75298255092066
 30
0.0
 10
270.0262877276735
 20
41.68425169781377
 30
0.0
 10
270.1551583385375
 20
41.54572299984698
 30
0.0
 10
270.2069601582918
 20
41.47634828532876
 30
0.0
 10
270.2654096769381
 20
41.37094099964413
 30
0.0
 10
270.2816627200988
 20
41.33557748777489
 30
0.0
 10
270.3073626894477
 20
41.26413742082605
 30
0.0
 10
270.3167970283831
 20
41.22792432099111
 30
0.0
 10
270.3338208551959
 20
41.120175770568
 30
0.0
 10
270.3306083270042
 20
41.04884350937801
 30
0.0
 10
270.3026164790551
 20
40.94115290097015
 30
0.0
 10
270.2893951990023
 20
40.90514117273889
 30
0.0
 10
270.2545206193699
 20
40.83263329330692
 30
0.0
 10
270.232816730269
 20
40.79619348947465
 30
0.0
 10
270.1563676031244
 20
40.68898087945316
 30
0.0
 10
270.0899786464786
 20
40.61923661698943
 30
0.0
 10
269.9656110461261
 20
40.51651992360862
 30
0.0
 10
269.919572663205
 20
40.48233893641154
 30
0.0
 10
269.8208182800242
 20
40.41614931611828
 30
0.0
 10
269.7682298068273
 20
40.38415955048332
 30
0.0
 10
269.6567894800378
 20
40.32232016357264
 30
0.0
 10
269.5979373418801
 20
40.2924706646458
 30
0.0
 10
269.4739227170934
 20
40.23496609792737
 30
0.0
 10
269.408312100993
 20
40.20715608981353
 30
0.0
 10
269.2067575785518
 20
40.1291625550757
 30
0.0
 10
269.0653432184704
 20
40.08383145335913
 30
0.0
 10
268.7692383139869
 20
40.00679757943817
 30
0.0
 10
268.6171006287583
 20
39.97589684906146
 30
0.0
 10
268.3119401817524
 20
39.93069037063762
 30
0.0
 10
268.156475265841
 20
39.91614122299785
 30
0.0
 10
267.8523460645737
 20
39.90489086170271
 30
0.0
 10
267.702903392983
 20
39.90793065362714
 30
0.0
 10
267.4087719243737
 20
39.9322228862903
 30
0.0
 10
267.265299520829
 20
39.95355607216022
 30
0.0
 10
266.9925223838622
 20
40.01378807298973
 30
0.0
 10
266.8620342506094
 20
40.052769319352
 30
0.0
 10
266.6129592853155
 20
40.14962023650836
 30
0.0
 10
266.4971680808927
 20
40.20647785233187
 30
0.0
 10
266.2843625368845
 20
40.33562655041727
 30
0.0
 10
266.1869863713498
 20
40.40805665297943
 30
0.0
 10
266.0111837287938
 20
40.56899625893032
 30
0.0
 10
265.9352210644878
 20
40.65526158836473
 30
0.0
 10
265.8069169879502
 20
40.83788199005362
 30
0.0
 10
265.7544717982485
 20
40.93436542841616
 30
0.0
 10
265.6752653071529
 20
41.13669691848047
 30
0.0
 10
265.6496874389178
 20
41.23946153749311
 30
0.0
 10
265.6269701985022
 20
41.44664150046606
 30
0.0
 10
265.6298719775627
 20
41.55153324660201
 30
0.0
 10
265.6680251981285
 20
41.75951970718844
 30
0.0
 10
265.7025837936156
 20
41.85942861728685
 30
0.0
 10
265.7785924203907
 20
42.00179390105325
 30
0.0
 10
265.8079874477215
 20
42.04799344004667
 30
0.0
 10
265.8754865370016
 20
42.13755055950985
 30
0.0
 10
265.9138656495844
 20
42.18109521230687
 30
0.0
 10
266.0392093176264
 20
42.3031070840961
 30
0.0
 10
266.1370162202805
 20
42.37430886791406
 30
0.0
 10
266.3055971441051
 20
42.46529719791997
 30
0.0
 10
266.3658624178162
 20
42.49308610019077
 30
0.0
 10
266.4905109803158
 20
42.54181356925348
 30
0.0
 10
266.5551774104468
 20
42.5629574356771
 30
0.0
 10
266.7559403623009
 20
42.61723856869992
 30
0.0
 10
266.9005602264536
 20
42.64131172448476
 30
0.0
 10
267.1958317942131
 20
42.66555724008077
 30
0.0
 10
267.3469223284704
 20
42.66619555725855
 30
0.0
 10
267.6558200808247
 20
42.64754808983824
 30
0.0
 10
267.8103304372326
 20
42.62840825910644
 30
0.0
 10
267.9634537204679
 20
42.60137603333591
 30
0.0
  0
LINE
  5
205
330
1F
100
AcDbEntity
  8
0
  6
Continuous
 62
     7
370
    15
100
AcDbLine
 10
269.637295895
 20
28.7090273185
 30
0.0
 11
269.6727774648
 21
28.6891802616
 31
0.0
  0
ARC
  5
206
330
1F
100
AcDbEntity
  8
0
  6
Continuous
 62
     7
370
    15
100
AcDbCircle
 10
253.7335391135
 20
55.0514321042
 30
0.0
 40
5.385418431242718
100
AcDbArc
 50
40.6396958219
 51
79.200585758
  0
ARC
  5
207
330
1F
100
AcDbEntity
  8
0
  6
Continuous
 62
     7
370
    15
100
AcDbCircle
 10
243.371700122
 20
37.1027310825
 30
0.0
 40
5.385617906331985
100
AcDbArc
 50
220.5828918272
 51
259.1743886033
  0
ARC
  5
208
330
1F
100
AcDbEntity
  8
0
  6
Continuous
 62
     7
370
    15
100
AcDbCircle
 10
242.850098355
 20
39.0497443685
 30
0.0
 40
6.822599269022901
100
AcDbArc
 50
188.054640006
 51
236.9718447289
  0
SPLINE
  5
209
330
1F
100
AcDbEntity
  8
0
  6
Continuous
 62
     7
370
    15
100
AcDbSpline
210
0.0
220
0.0
230
1.0
 70
     8
 71
     3
 72
    29
 73
    25
 74
     0
 42
0.000000001
 43
0.00000001
 40
0.0
 40
0.0
 40
0.0
 40
0.0
 40
0.0226170105032921
 40
0.0451713142240263
 40
0.0676870228488737
 40
0.0901883721253699
 40
0.1126996441678027
 40
0.135245089017566
 40
0.1578488467194459
 40
0.1805348711560506
 40
0.2033268568175892
 40
0.2262481695777687
 40
0.2493217824054336
 40
0.3751991801893576
 40
0.4999614246459921
 40
0.4999717960761083
 40
0.6247044141127994
 40
0.7509557879396762
 40
0.7931713871196463
 40
0.834908104506354
 40
0.8763104515934291
 40
0.9175264576337788
 40
0.9587061619419142
 40
1.0
 40
1.0
 40
1.0
 40
1.0
 10
236.0949660793829
 20
43.24803281015399
 30
0.0
 10
236.1133313045064
 20
43.19919292035207
 30
0.0
 10
236.1500108362566
 20
43.10164855176331
 30
0.0
 10
236.2017006649231
 20
42.95418594235747
 30
0.0
 10
236.2508820247469
 20
42.80624865283397
 30
0.0
 10
236.2973716946468
 20
42.6577567876009
 30
0.0
 10
236.3412817911063
 20
42.50876482146769
 30
0.0
 10
236.3826469825619
 20
42.35929303288957
 30
0.0
 10
236.4215242692663
 20
42.20937292958173
 30
0.0
 10
236.4579661142882
 20
42.05903411960227
 30
0.0
 10
236.4920280953742
 20
41.90831166797989
 30
0.0
 10
236.5237651484703
 20
41.75722997124788
 30
0.0
 10
236.5969234203373
 20
41.38150876429808
 30
0.0
 10
236.6825999603684
 20
40.79273834258915
 30
0.0
 10
236.7083323221974
 20
40.29125473857782
 30
0.0
 10
236.7087694784305
 20
39.82080191333512
 30
0.0
 10
236.6833384217077
 20
39.37435938345043
 30
0.0
 10
236.5913711056726
 20
38.93833271195687
 30
0.0
 10
236.4988172116276
 20
38.67013982933554
 30
0.0
 10
236.4352345877384
 20
38.52388871849835
 30
0.0
 10
236.3635890837027
 20
38.39296838665164
 30
0.0
 10
236.2833343093905
 20
38.27752205420194
 30
0.0
 10
236.1949326497972
 20
38.17600004975946
 30
0.0
 10
236.1285759958856
 20
38.1210011727995
 30
0.0
 10
236.0953517540005
 20
38.09346367830853
 30
0.0
  0
LWPOLYLINE
  5
20A
330
1F
100
AcDbEntity
  8
0
  6
Continuous
 62
     7
370
    15
100
AcDbPolyline
 90
       24
 70
   128
 43
0.0
 10
236.0947473382
 20
43.2481590867
 10
236.3537387155
 20
44.5740488782
 10
236.7076178465
 20
45.9212809875
 10
237.1532324009
 20
47.2778543656
 10
237.6866128753
 20
48.6316847521
 10
238.3030079541
 20
49.9707123209
 10
238.996926833
 20
51.2830091082
 10
239.7621881313
 20
52.5568852665
 10
240.5919749552
 20
53.7809931963
 10
241.4788956219
 20
54.94442863
 10
242.4150495041
 20
56.0368277664
 10
243.392097409
 20
57.0484595907
 10
244.4013358622
 20
57.9703125576
 10
245.4337746385
 20
58.7941748655
 10
246.4802168456
 20
59.5127076067
 10
247.5313408498
 20
60.1195101421
 10
248.5777833123
 20
60.6091771172
 10
249.610222597
 20
60.977346613
 10
250.6194618072
 20
61.2207390014
 10
251.5965107108
 20
61.3371861601
 10
252.5326658248
 20
61.325650786
 10
253.419587945
 20
61.1862356355
 10
254.2493764315
 20
60.9201826088
 10
254.8801532
 20
60.6101969991
  0
SPLINE
  5
20B
330
1F
100
AcDbEntity
  8
0
  6
Continuous
 62
     7
370
    15
100
AcDbSpline
210
0.0
220
0.0
230
1.0
 70
     8
 71
     3
 72
     8
 73
     4
 74
     0
 42
0.000000001
 43
0.00000001
 40
0.0
 40
0.0
 40
0.0
 40
0.0
 40
1.0
 40
1.0
 40
1.0
 40
1.0
 10
235.3168109412078
 20
46.52693621365834
 30
0.0
 10
234.623739706155
 20
46.41107459528363
 30
0.0
 10
233.9301189397587
 20
46.29631590213057
 30
0.0
 10
233.2361397789313
 20
46.18230435449242
 30
0.0
  0
SPLINE
  5
20C
330
1F
100
AcDbEntity
  8
0
  6
Continuous
 62
     7
370
    15
100
AcDbSpline
210
0.0
220
0.0
230
1.0
 70
     8
 71
     3
 72
     8
 73
     4
 74
     0
 42
0.000000001
 43
0.00000001
 40
0.0
 40
0.0
 40
0.0
 40
0.0
 40
0.0012389803509652
 40
0.0012389803509652
 40
0.0012389803509652
 40
0.0012389803509652
 10
232.7624033647858
 20
46.45583847524641
 30
0.0
 10
232.9204766997668
 20
46.36456739479591
 30
0.0
 10
233.0783948787328
 20
46.27338586769566
 30
0.0
 10
233.2361397789313
 20
46.18230435449242
 30
0.0
  0
LWPOLYLINE
  5
20D
330
1F
100
AcDbEntity
  8
0
  6
Continuous
 62
     7
370
    15
100
AcDbPolyline
 90
       26
 70
   128
 43
0.0
 10
232.7624033648
 20
46.4558384752
 10
233.1080687555
 20
47.8137251533
 10
233.547619162
 20
49.1825702365
 10
234.0770653007
 20
50.5499503229
 10
234.6916020095
 20
51.9034553065
 10
235.3856518592
 20
53.2308010092
 10
236.1529157731
 20
54.5199406702
 10
236.986430196
 20
55.7591742802
 10
237.8786302948
 20
56.9372547684
 10
238.821418615
 20
58.0434900794
 10
239.8062385723
 20
59.0678402122
 10
240.8241521106
 20
60.0010083414
 10
241.865920822
 20
60.834525194
 10
242.9220897933
 20
61.5608259147
 10
243.9830734167
 20
62.1733187233
 10
245.039242388
 20
62.6664447405
 10
246.0810110994
 20
63.0357284398
 10
247.0989246377
 20
63.2778182658
 10
248.083744595
 20
63.390517053
 10
249.0265329152
 20
63.3728019667
 10
249.918733014
 20
63.2248337859
 10
250.7522474369
 20
62.9479554444
 10
251.5195113508
 20
62.5446798421
 10
252.2135612005
 20
62.0186670391
 10
252.8280979093
 20
61.3746910369
 10
252.9005786231
 20
61.2842193389
  0
LINE
  5
20E
330
1F
100
AcDbEntity
  8
0
  6
Continuous
 62
     7
370
    15
100
AcDbLine
 10
229.7306830404
 20
48.206013365
 30
0.0
 11
232.7624033648
 21
46.4558384752
 31
0.0
  0
ARC
  5
20F
330
1F
100
AcDbEntity
  8
0
  6
Continuous
 62
     7
370
    15
100
AcDbCircle
 10
245.582671241
 20
59.6773572478
 30
0.0
 40
5.456276790029313
100
AcDbArc
 50
60.1888352859
 51
79.3502771967
  0
LINE
  5
210
330
1F
100
AcDbEntity
  8
0
  6
Continuous
 62
     7
370
    15
100
AcDbLine
 10
235.7194063437
 20
46.4657738229
 30
0.0
 11
235.7100836928
 21
46.4711556747
 31
0.0
  0
SPLINE
  5
211
330
1F
100
AcDbEntity
  8
0
  6
Continuous
 62
     7
370
    15
100
AcDbSpline
210
0.0
220
0.0
230
1.0
 70
     8
 71
     3
 72
    10
 73
     6
 74
     0
 42
0.000000001
 43
0.00000001
 40
0.0
 40
0.0
 40
0.0
 40
0.0
 40
0.2467742107334164
 40
0.7153638603754585
 40
1.0
 40
1.0
 40
1.0
 40
1.0
 10
236.6429976012251
 20
45.65581878106215
 30
0.0
 10
236.5750646989416
 20
45.73945476478735
 30
0.0
 10
236.3781367335777
 20
45.98190376302802
 30
0.0
 10
236.0629889150299
 20
46.24991311351543
 30
0.0
 10
235.8136346933468
 20
46.40657350224304
 30
0.0
 10
235.7194063436668
 20
46.46577382293695
 30
0.0
  0
SPLINE
  5
212
330
1F
100
AcDbEntity
  8
0
  6
Continuous
 62
     7
370
    15
100
AcDbSpline
210
0.0
220
0.0
230
1.0
 70
     8
 71
     3
 72
    10
 73
     6
 74
     0
 42
0.000000001
 43
0.00000001
 40
0.0
 40
0.0
 40
0.0
 40
0.0
 40
0.5
 40
0.5
 40
1.0
 40
1.0
 40
1.0
 40
1.0
 10
235.7100836927597
 20
46.47115567474968
 30
0.0
 10
235.660283093947
 20
46.4999049484988
 30
0.0
 10
235.595251177203
 20
46.52066829385947
 30
0.0
 10
235.4581928168575
 20
46.53962198324725
 30
0.0
 10
235.3846539768078
 20
46.53827762201944
 30
0.0
 10
235.3168109412078
 20
46.52693621365835
 30
0.0
  0
SPLINE
  5
213
330
1F
100
AcDbEntity
  8
0
  6
Continuous
 62
     7
370
    15
100
AcDbSpline
210
0.0
220
0.0
230
1.0
 70
     8
 71
     3
 72
     8
 73
     4
 74
     0
 42
0.000000001
 43
0.00000001
 40
0.0
 40
0.0
 40
0.0
 40
0.0
 40
1.0
 40
1.0
 40
1.0
 40
1.0
 10
229.5738584328874
 20
48.2965350441552
 30
0.0
 10
229.5962372294068
 20
48.28362309270337
 30
0.0
 10
229.6504246604241
 20
48.25234554154634
 30
0.0
 10
229.7306830404485
 20
48.20601336496635
 30
0.0
  0
LINE
  5
214
330
1F
100
AcDbEntity
  8
0
  6
Continuous
 62
     7
370
    15
100
AcDbLine
 10
229.5738584329
 20
48.2965350442
 30
0.0
 11
229.5965150188
 21
48.4399517867
 31
0.0
  0
SPLINE
  5
215
330
1F
100
AcDbEntity
  8
0
  6
Continuous
 62
     7
370
    15
100
AcDbSpline
210
0.0
220
0.0
230
1.0
 70
     8
 71
     3
 72
    11
 73
     7
 74
     0
 42
0.000000001
 43
0.00000001
 40
0.0
 40
0.0
 40
0.0
 40
0.0
 40
0.2913010432653671
 40
0.5549855813085073
 40
0.791374822372444
 40
0.9999999999999999
 40
0.9999999999999999
 40
0.9999999999999999
 40
0.9999999999999999
 10
236.2033914286665
 20
38.81959241706902
 30
0.0
 10
236.2943282793867
 20
38.91114993313147
 30
0.0
 10
236.4675808032829
 20
39.08558494615264
 30
0.0
 10
236.6186710619467
 20
39.50298363655632
 30
0.0
 10
236.6972572922608
 20
39.95708660567744
 30
0.0
 10
236.7048858270359
 20
40.30102056421633
 30
0.0
 10
236.7084621255908
 20
40.46225867286752
 30
0.0
  0
SPLINE
  5
216
330
1F
100
AcDbEntity
  8
0
  6
Continuous
 62
     7
370
    15
100
AcDbSpline
210
0.0
220
0.0
230
1.0
 70
     8
 71
     3
 72
     9
 73
     5
 74
     0
 42
0.000000001
 43
0.00000001
 40
0.0
 40
0.0
 40
0.0
 40
0.0
 40
0.5067649320089164
 40
1.0
 40
1.0
 40
1.0
 40
1.0
 10
236.0946699641941
 20
38.09296165052488
 30
0.0
 10
236.1129388795551
 20
38.21541576926109
 30
0.0
 10
236.1489889576229
 20
38.4570546653283
 30
0.0
 10
236.1856698107061
 20
38.69920493571491
 30
0.0
 10
236.2037620937706
 20
38.81864194079312
 30
0.0
  0
SPLINE
  5
217
330
1F
100
AcDbEntity
  8
0
  6
Continuous
 62
     7
370
    15
100
AcDbSpline
210
0.0
220
0.0
230
1.0
 70
     8
 71
     3
 72
    10
 73
     6
 74
     0
 42
0.000000001
 43
0.00000001
 40
0.0
 40
0.0
 40
0.0
 40
0.0
 40
0.4807908150166064
 40
0.975781759036066
 40
1.0
 40
1.0
 40
1.0
 40
1.0
 10
235.7194063436668
 20
39.89262028725667
 30
0.0
 10
235.8691972905671
 20
39.81244991189465
 30
0.0
 10
236.1732032513485
 20
39.64974133375627
 30
0.0
 10
236.4628186955462
 20
39.53823990303508
 30
0.0
 10
236.5971571262241
 20
39.51000828555586
 30
0.0
 10
236.603423272084
 20
39.5086914365195
 30
0.0
  0
LINE
  5
218
330
1F
100
AcDbEntity
  8
0
  6
Continuous
 62
     7
370
    15
100
AcDbLine
 10
230.0072916804
 20
48.046278686
 30
0.0
 11
229.5738584329
 21
48.2965350442
 31
0.0
  0
LINE
  5
219
330
1F
100
AcDbEntity
  8
0
  6
Continuous
 62
     7
370
    15
100
AcDbLine
 10
233.2361397789
 20
46.1823043545
 30
0.0
 11
230.0072916804
 21
48.046278686
 31
0.0
  0
SPLINE
  5
21A
330
1F
100
AcDbEntity
  8
0
  6
Continuous
 62
     7
370
    15
100
AcDbSpline
210
0.0
220
0.0
230
1.0
 70
     8
 71
     3
 72
    11
 73
     7
 74
     0
 42
0.000000001
 43
0.00000001
 40
0.0
 40
0.0
 40
0.0
 40
0.0
 40
0.2180025369760411
 40
0.5290085500344824
 40
0.8400525035994066
 40
1.0
 40
1.0
 40
1.0
 40
1.0
 10
232.1123566017238
 20
44.03245274017046
 30
0.0
 10
232.1076344170987
 20
44.2388470708098
 30
0.0
 10
232.0961754860414
 20
44.73968695598442
 30
0.0
 10
232.0311030736672
 20
45.55841349860623
 30
0.0
 10
231.9903751115592
 20
46.31257988691367
 30
0.0
 10
232.0112601431457
 20
46.74012475425272
 30
0.0
 10
232.0183526466609
 20
46.885317901888
 30
0.0
  0
LINE
  5
21B
330
1F
100
AcDbEntity
  8
0
  6
Continuous
 62
     7
370
    15
100
AcDbLine
 10
232.1123566017
 20
43.6120973848
 30
0.0
 11
232.1123566017
 21
44.0324527402
 31
0.0
  0
LINE
  5
21C
330
1F
100
AcDbEntity
  8
0
  6
Continuous
 62
     7
370
    15
100
AcDbLine
 10
231.502477003
 20
46.8474661998
 30
0.0
 11
231.5076648977
 21
47.1801316641
 31
0.0
  0
ARC
  5
21D
330
1F
100
AcDbEntity
  8
0
  6
Continuous
 62
     7
370
    15
100
AcDbCircle
 10
238.9962730638
 20
46.6616007988
 30
0.0
 40
7.496100676305137
100
AcDbArc
 50
178.5792087138
 51
203.3164212113
  0
LINE
  5
21E
330
1F
100
AcDbEntity
  8
0
  6
Continuous
 62
     7
370
    15
100
AcDbLine
 10
219.2454202115
 20
70.3146299403
 30
0.0
 11
219.3957236227
 21
70.2664191072
 31
0.0
  0
LINE
  5
21F
330
1F
100
AcDbEntity
  8
0
  6
Continuous
 62
     7
370
    15
100
AcDbLine
 10
235.7100836928
 20
39.8980021391
 30
0.0
 11
235.7194063437
 21
39.8926202873
 31
0.0
  0
ARC
  5
220
330
1F
100
AcDbEntity
  8
0
  6
Continuous
 62
     7
370
    15
100
AcDbCircle
 10
238.5160948448
 20
40.522490805
 30
0.0
 40
5.894055296995406
100
AcDbArc
 50
192.5292124781
 51
260.6428941703
  0
SPLINE
  5
221
330
1F
100
AcDbEntity
  8
0
  6
Continuous
 62
     7
370
    15
100
AcDbSpline
210
0.0
220
0.0
230
1.0
 70
     8
 71
     3
 72
     8
 73
     4
 74
     0
 42
0.000000001
 43
0.00000001
 40
0.0
 40
0.0
 40
0.0
 40
0.0
 40
0.0012389803509652
 40
0.0012389803509652
 40
0.0012389803509652
 40
0.0012389803509652
 10
233.2361397789313
 20
39.60915081881213
 30
0.0
 10
233.0783948787328
 20
39.4870743682774
 30
0.0
 10
232.9204766997668
 20
39.36531706527659
 30
0.0
 10
232.7624033647858
 20
39.24385004373215
 30
0.0
  0
SPLINE
  5
222
330
1F
100
AcDbEntity
  8
0
  6
Continuous
 62
     7
370
    15
100
AcDbSpline
210
0.0
220
0.0
230
1.0
 70
     8
 71
     3
 72
     8
 73
     4
 74
     0
 42
0.000000001
 43
0.00000001
 40
0.0
 40
0.0
 40
0.0
 40
0.0
 40
1.0
 40
1.0
 40
1.0
 40
1.0
 10
233.2361397789313
 20
39.60915081881213
 30
0.0
 10
233.9301203618729
 20
39.72316260008474
 30
0.0
 10
234.6237534226349
 20
39.83792335260511
 30
0.0
 10
235.3168109412078
 20
39.95378267797805
 30
0.0
  0
SPLINE
  5
223
330
1F
100
AcDbEntity
  8
0
  6
Continuous
 62
     7
370
    15
100
AcDbSpline
210
0.0
220
0.0
230
1.0
 70
     8
 71
     3
 72
    12
 73
     8
 74
     0
 42
0.000000001
 43
0.00000001
 40
0.0
 40
0.0
 40
0.0
 40
0.0
 40
0.2499999999999987
 40
0.2499999999999987
 40
0.4999999999999973
 40
0.4999999999999973
 40
1.0
 40
1.0
 40
1.0
 40
1.0
 10
235.3168109412078
 20
39.95378267797805
 30
0.0
 10
235.3505994571319
 20
39.9594311480623
 30
0.0
 10
235.3861712332008
 20
39.96269161157775
 30
0.0
 10
235.4567534795933
 20
39.96382920112588
 30
0.0
 10
235.4917764380422
 20
39.96181258466785
 30
0.0
 10
235.5959817333072
 20
39.94743684732826
 30
0.0
 10
235.6596921652468
 20
39.92709254869585
 30
0.0
 10
235.7100836927597
 20
39.8980021390694
 30
0.0
  0
LINE
  5
224
330
1F
100
AcDbEntity
  8
0
  6
Continuous
 62
     7
370
    15
100
AcDbLine
 10
230.0072916804
 20
41.4731251503
 30
0.0
 11
233.2361397789
 21
39.6091508188
 31
0.0
  0
LINE
  5
225
330
1F
100
AcDbEntity
  8
0
  6
Continuous
 62
     7
370
    15
100
AcDbLine
 10
230.0072916804
 20
41.4731251503
 30
0.0
 11
231.9002245674
 21
42.5658920457
 31
0.0
  0
LINE
  5
226
330
1F
100
AcDbEntity
  8
0
  6
Continuous
 62
     7
370
    15
100
AcDbLine
 10
229.5738584329
 20
41.2228687921
 30
0.0
 11
230.0072916804
 21
41.4731251503
 31
0.0
  0
LINE
  5
227
330
1F
100
AcDbEntity
  8
0
  6
Continuous
 62
     7
370
    15
100
AcDbLine
 10
232.7624033648
 20
39.2438500437
 30
0.0
 11
229.7306830404
 21
40.9940249335
 31
0.0
  0
SPLINE
  5
228
330
1F
100
AcDbEntity
  8
0
  6
Continuous
 62
     7
370
    15
100
AcDbSpline
210
0.0
220
0.0
230
1.0
 70
     8
 71
     3
 72
     8
 73
     4
 74
     0
 42
0.000000001
 43
0.00000001
 40
0.0
 40
0.0
 40
0.0
 40
0.0
 40
1.0
 40
1.0
 40
1.0
 40
1.0
 10
229.7306830404485
 20
40.9940249334521
 30
0.0
 10
229.6506582409338
 20
41.04022226687405
 30
0.0
 10
229.5961814435519
 20
41.12340978923875
 30
0.0
 10
229.5738584328874
 20
41.22286879207987
 30
0.0
  0
ARC
  5
229
330
1F
100
AcDbEntity
  8
0
  6
Continuous
 62
     7
370
    15
100
AcDbCircle
 10
235.2570553434
 20
41.8074736977
 30
0.0
 40
5.405179574298844
100
AcDbArc
 50
220.9676728376
 51
239.9024689524
  0
ELLIPSE
  5
22A
330
1F
100
AcDbEntity
  8
0
  6
Continuous
 62
     7
370
    15
100
AcDbEllipse
 10
231.6659099923
 20
43.3543916202
 30
0.0
 11
-6.005970385558612E-5
 21
0.8534489614827194
 31
0.0
210
0.0
220
0.0
230
1.0
 40
0.7174342186
 41
3.534193645557484
 42
5.104989972352349
  0
ELLIPSE
  5
22B
330
1F
100
AcDbEntity
  8
0
  6
Continuous
 62
     7
370
    15
100
AcDbEllipse
 10
231.5466711768
 20
43.2855341401
 30
0.0
 11
0.2600075789209484
 21
0.9705436209909308
 31
0.0
210
0.0
220
0.0
230
1.0
 40
0.5176380889
 41
3.619174351347763
 42
5.189970678142603
  0
LWPOLYLINE
  5
22C
330
1F
100
AcDbEntity
  8
0
  6
Continuous
 62
     7
370
    15
100
AcDbPolyline
 90
       20
 70
   128
 43
0.0
 10
266.5659047216
 20
41.9243872524
 10
266.4786342934
 20
41.8706683992
 10
266.1879221432
 20
41.6203092706
 10
266.0193608582
 20
41.335044732
 10
265.9844376116
 20
41.0343150905
 10
266.0855323648
 20
40.738614574
 10
266.3157556775
 20
40.4680946842
 10
266.6594182114
 20
40.2411909045
 10
267.0930999327
 20
40.0733663524
 10
267.5872461489
 20
39.9760579939
 10
268.1081816118
 20
39.9558972327
 10
268.6204054306
 20
40.0142579915
 10
269.0890103985
 20
40.147163081
 10
269.4820618614
 20
40.3455552389
 10
269.7727740117
 20
40.5959143676
 10
269.9413352966
 20
40.8811789061
 10
269.9762585432
 20
41.1819085477
 10
269.87516379
 20
41.4776090641
 10
269.6449404773
 20
41.7481289539
 10
269.3947914332
 20
41.9243872524
  0
LWPOLYLINE
  5
22D
330
1F
100
AcDbEntity
  8
0
  6
Continuous
 62
     7
370
    15
100
AcDbPolyline
 90
       22
 70
   128
 43
0.0
 10
268.3046571685
 20
42.327845509
 10
267.8133898434
 20
42.341536941
 10
267.3369574901
 20
42.2710267702
 10
266.917693214
 20
42.1225801347
 10
266.5928504858
 20
41.9093871695
 10
266.3912930077
 20
41.6503910051
 10
266.3309300459
 20
41.3686045874
 10
266.4171251145
 20
41.0890658761
 10
266.6422194035
 20
40.8366131125
 10
266.9862122975
 20
40.6336778324
 10
267.4185385182
 20
40.4982917262
 10
267.9007839837
 20
40.4424844434
 10
268.3900990681
 20
40.4712147061
 10
268.8430059788
 20
40.5819297043
 10
269.2192619492
 20
40.7647919246
 10
269.4854349853
 20
41.0035532562
 10
269.6178744446
 20
41.276998707
 10
269.6048125
 20
41.5608314488
 10
269.4474097627
 20
41.8298316967
 10
269.1596521565
 20
42.0600975984
 10
268.7671082076
 20
42.231169018
 10
268.3046571685
 20
42.327845509
  0
LWPOLYLINE
  5
22E
330
1F
100
AcDbEntity
  8
0
  6
Continuous
 62
     7
370
    15
100
AcDbPolyline
 90
       19
 70
   128
 43
0.0
 10
268.2162092345
 20
42.0731333983
 10
267.7995667884
 20
42.0787400552
 10
267.4047292338
 20
42.0017450273
 10
267.079319807
 20
41.8514350513
 10
266.8625876873
 20
41.6459397287
 10
266.7806739671
 20
41.4100448282
 10
266.8434586499
 20
41.1722027562
 10
267.0433689763
 20
40.9611007768
 10
267.3562928107
 20
40.8022009042
 10
267.7444869203
 20
40.7146688081
 10
268.1611293664
 20
40.7090621513
 10
268.555966921
 20
40.7860571792
 10
268.8813763478
 20
40.9363671551
 10
269.0981084675
 20
41.1418624777
 10
269.1800221877
 20
41.3777573782
 10
269.117237505
 20
41.6155994502
 10
268.9173271785
 20
41.8267014297
 10
268.6044033442
 20
41.9856013023
 10
268.2162092345
 20
42.0731333983
  0
SPLINE
  5
22F
330
1F
100
AcDbEntity
  8
0
  6
Continuous
 62
     7
370
    15
100
AcDbSpline
210
0.0
220
0.0
230
1.0
 70
     8
 71
     3
 72
    13
 73
     9
 74
     0
 42
0.000000001
 43
0.00000001
 40
0.0
 40
0.0
 40
0.0
 40
0.0
 40
0.2161268135839998
 40
0.4396426651111109
 40
0.5932590105054351
 40
0.7520094001457165
 40
0.8754366676457915
 40
0.9999999999999999
 40
0.9999999999999999
 40
0.9999999999999999
 40
0.9999999999999999
 10
267.6108107922522
 20
41.98844904584498
 30
0.0
 10
267.5585904576366
 20
41.92458641299933
 30
0.0
 10
267.4523644567871
 20
41.79467778371045
 30
0.0
 10
267.2962435923782
 20
41.65282108746342
 30
0.0
 10
267.1533546165883
 20
41.56247670990538
 30
0.0
 10
267.0396283633693
 20
41.51725397800365
 30
0.0
 10
266.9374945450936
 20
41.49407884014222
 30
0.0
 10
266.8780366944561
 20
41.48998720970401
 30
0.0
 10
266.8481715785429
 20
41.48793202244108
 30
0.0
  0
SPLINE
  5
230
330
1F
100
AcDbEntity
  8
0
  6
Continuous
 62
     7
370
    15
100
AcDbSpline
210
0.0
220
0.0
230
1.0
 70
     8
 71
     3
 72
    10
 73
     6
 74
     0
 42
0.000000001
 43
0.00000001
 40
0.0
 40
0.0
 40
0.0
 40
0.0
 40
0.4741526058564551
 40
0.8113111084231684
 40
1.0
 40
1.0
 40
1.0
 40
1.0
 10
266.8481715785429
 20
41.48793202244108
 30
0.0
 10
266.9010170932162
 20
41.34205105350817
 30
0.0
 10
266.991439781092
 20
41.09243763972334
 30
0.0
 10
267.1138048872753
 20
40.91959945279314
 30
0.0
 10
267.1708670478983
 20
40.88648976178349
 30
0.0
 10
267.1913425621992
 20
40.87460906984388
 30
0.0
  0
SPLINE
  5
231
330
1F
100
AcDbEntity
  8
0
  6
Continuous
 62
     7
370
    15
100
AcDbSpline
210
0.0
220
0.0
230
1.0
 70
     8
 71
     3
 72
    11
 73
     7
 74
     0
 42
0.000000001
 43
0.00000001
 40
0.0
 40
0.0
 40
0.0
 40
0.0
 40
0.2647712928175073
 40
0.55172993911714
 40
0.7748381889837727
 40
1.0
 40
1.0
 40
1.0
 40
1.0
 10
268.6889904527036
 20
40.82389369996341
 30
0.0
 10
268.7279567865219
 20
40.84861359841309
 30
0.0
 10
268.809154762165
 20
40.90012487790828
 30
0.0
 10
268.9210782339432
 20
41.00420887545668
 30
0.0
 10
269.0231992519481
 20
41.114727154089
 30
0.0
 10
269.0826586720431
 20
41.18872436609458
 30
0.0
 10
269.1125245762798
 20
41.22589246568283
 30
0.0
  0
SPLINE
  5
232
330
1F
100
AcDbEntity
  8
0
  6
Continuous
 62
     7
370
    15
100
AcDbSpline
210
0.0
220
0.0
230
1.0
 70
     8
 71
     3
 72
    10
 73
     6
 74
     0
 42
0.000000001
 43
0.00000001
 40
0.0
 40
0.0
 40
0.0
 40
0.0
 40
0.4391222274230381
 40
0.7513714712594818
 40
1.0
 40
1.0
 40
1.0
 40
1.0
 10
269.1125245762798
 20
41.22589246568283
 30
0.0
 10
269.0596217201814
 20
41.26037788396378
 30
0.0
 10
268.9691009167738
 20
41.31938505293086
 30
0.0
 10
268.8375140255081
 20
41.58680277715695
 30
0.0
 10
268.7720198543745
 20
41.7743101292773
 30
0.0
 10
268.7429872911206
 20
41.85742926746585
 30
0.0
  0
SPLINE
  5
233
330
1F
100
AcDbEntity
  8
0
  6
Continuous
 62
     7
370
    15
100
AcDbSpline
210
0.0
220
0.0
230
1.0
 70
     8
 71
     3
 72
    11
 73
     7
 74
     0
 42
0.000000001
 43
0.00000001
 40
0.0
 40
0.0
 40
0.0
 40
0.0
 40
0.128556176630732
 40
0.4801535797842313
 40
0.8150691831753997
 40
1.0
 40
1.0
 40
1.0
 40
1.0
 10
268.7429872911206
 20
41.85742926746585
 30
0.0
 10
268.6973912069769
 20
41.84470912808472
 30
0.0
 10
268.5270911591726
 20
41.79719977754805
 30
0.0
 10
268.2077404275358
 20
41.7693607928316
 30
0.0
 10
267.8619509487253
 20
41.86229012807264
 30
0.0
 10
267.6767089964408
 20
41.95534543453748
 30
0.0
 10
267.6108107922522
 20
41.98844904584497
 30
0.0
  0
LINE
  5
234
330
1F
100
AcDbEntity
  8
0
  6
Continuous
 62
     7
370
    15
100
AcDbLine
 10
268.7429872911
 20
40.8590505244
 30
0.0
 11
268.7429872911
 21
41.8574292675
 31
0.0
  0
LINE
  5
235
330
1F
100
AcDbEntity
  8
0
  6
Continuous
 62
     7
370
    15
100
AcDbLine
 10
267.6108107923
 20
40.7348209996
 30
0.0
 11
267.6108107923
 21
41.9884490458
 31
0.0
  0
LWPOLYLINE
  5
236
330
1F
100
AcDbEntity
  8
0
  6
Continuous
 62
     7
370
    15
100
AcDbPolyline
 90
        3
 70
   128
 43
0.0
 10
270.7665046105
 20
34.792275296
 10
270.5439106488
 20
34.7886510414
 10
270.531150874
 20
34.7906647573
  0
LWPOLYLINE
  5
237
330
1F
100
AcDbEntity
  8
0
  6
Continuous
 62
     7
370
     0
100
AcDbPolyline
 90
        8
 70
   128
 43
0.0
 10
244.3099485772
 20
41.9949404852
 10
244.3583437495
 20
41.1702387197
 10
244.5027012115
 20
40.4155237067
 10
244.7405509672
 20
39.7437088293
 10
245.0678233411
 20
39.1662890262
 10
245.4789186123
 20
38.6931441104
 10
245.9668028267
 20
38.3323697225
 10
245.9671278961
 20
38.3321820334
  0
LWPOLYLINE
  5
238
330
1F
100
AcDbEntity
  8
0
  6
Continuous
 62
     7
370
     0
100
AcDbPolyline
 90
       19
 70
   128
 43
0.0
 10
253.9664777572
 20
52.1889638315
 10
253.4104775033
 20
52.4310070525
 10
252.7952299514
 20
52.5505498467
 10
252.1315872273
 20
52.5453591148
 10
251.4309044418
 20
52.4155236715
 10
250.7051704718
 20
52.1632650374
 10
249.9668028267
 20
51.7928994276
 10
249.2284351816
 20
51.3107639003
 10
248.5027012115
 20
50.7251079282
 10
247.8020184261
 20
50.0459522472
 10
247.1383757019
 20
49.2849173994
 10
246.5231281501
 20
48.455024902
 10
245.9668028267
 20
47.5704744457
 10
245.4789186123
 20
46.6464009342
 10
245.0678233411
 20
45.6986155213
 10
244.7405509672
 20
44.7433350782
 10
244.5027012115
 20
43.7969047182
 10
244.3583437495
 20
42.8755181272
 10
244.3099485772
 20
41.9949404852
  0
LWPOLYLINE
  5
239
330
1F
100
AcDbEntity
  8
0
  6
Continuous
 62
     7
370
     0
100
AcDbPolyline
 90
       39
 70
   128
 43
0.0
 10
272.2406664341
 20
36.4848492307
 10
271.6587366794
 20
36.0932255721
 10
271.0926804514
 20
35.600918862
 10
270.5579382885
 20
35.0213579443
 10
270.0690965629
 20
34.3703517299
 10
269.6394896025
 20
33.6656579713
 10
269.2808359653
 20
32.9264988772
 10
269.0029187875
 20
32.173036781
 10
268.8133189254
 20
31.4258241644
 10
268.7172081689
 20
30.7052430397
 10
268.7172081689
 20
30.0309489818
 10
268.8133189254
 20
29.4213349746
 10
269.0029187875
 20
28.8930296992
 10
269.2808359653
 20
28.4604439463
 10
269.6394896025
 20
28.1353775276
 10
270.0690965629
 20
27.9266974075
 10
270.5579382885
 20
27.8400958359
 10
271.0926804514
 20
27.8779350777
 10
271.6587366794
 20
28.0391829771
 10
272.2406664341
 20
28.3194411119
 10
272.8225961887
 20
28.7110647705
 10
273.3886524167
 20
29.2033714805
 10
273.9233945796
 20
29.7829323983
 10
274.4122363052
 20
30.4339386127
 10
274.8418432657
 20
31.1386323713
 10
275.2004969029
 20
31.8777914653
 10
275.4784140806
 20
32.6312535616
 10
275.6680139427
 20
33.3784661782
 10
275.7641246992
 20
34.0990473028
 10
275.7641246992
 20
34.7733413608
 10
275.6680139427
 20
35.382955368
 10
275.4784140806
 20
35.9112606433
 10
275.2004969029
 20
36.3438463962
 10
274.8418432657
 20
36.668912815
 10
274.4122363052
 20
36.877592935
 10
273.9233945796
 20
36.9641945067
 10
273.3886524167
 20
36.9263552649
 10
272.8225961887
 20
36.7651073654
 10
272.2406664341
 20
36.4848492307
  0
LWPOLYLINE
  5
23A
330
1F
100
AcDbEntity
  8
0
  6
Continuous
 62
     7
370
     0
100
AcDbPolyline
 90
       20
 70
   128
 43
0.0
 10
269.6727774648
 20
28.6891802616
 10
269.8417753939
 20
28.6107194252
 10
270.2961227858
 20
28.505635185
 10
270.7988116116
 20
28.5251459658
 10
271.3345679256
 20
28.6686589424
 10
271.8871130435
 20
28.9318135457
 10
272.4396581613
 20
29.3066139563
 10
272.9754144754
 20
29.7816720532
 10
273.4781033011
 20
30.3425534366
 10
273.932450693
 20
30.9722160095
 10
274.3246515354
 20
31.6515277933
 10
274.6427890041
 20
32.3598482431
 10
274.8771966532
 20
33.0756554004
 10
275.0207521249
 20
33.7771998272
 10
275.0690935588
 20
34.4431654508
 10
275.0207521249
 20
35.0533172429
 10
274.8771966532
 20
35.5891160501
 10
274.6427890041
 20
36.0342818965
 10
274.3246515354
 20
36.3752886434
 10
274.1259917123
 20
36.5097206331
  0
LWPOLYLINE
  5
23B
330
1F
100
AcDbEntity
  8
0
  6
Continuous
 62
     7
370
     0
100
AcDbPolyline
 90
       37
 70
   128
 43
0.0
 10
238.1227642418
 20
39.6477671637
 10
238.1701466004
 20
40.8411674099
 10
238.3118772784
 20
42.0787865187
 10
238.5467107414
 20
43.3497482487
 10
238.8725832646
 20
44.6428833427
 10
239.2866310684
 20
45.9468276828
 10
239.785215486
 20
47.2501221594
 10
240.3639549395
 20
48.5413133738
 10
241.0177634457
 20
49.809054291
 10
241.7408953121
 20
51.0422039585
 10
242.5269956298
 20
52.2299254124
 10
243.3691561209
 20
53.3617809141
 10
244.2599758487
 20
54.4278236766
 10
245.1916262575
 20
55.4186852778
 10
246.15591997
 20
56.3256579904
 10
247.1443827383
 20
57.1407713055
 10
248.1483279161
 20
57.8568619781
 10
249.158932797
 20
58.4676369774
 10
250.1673161492
 20
58.9677287909
 10
251.1646162632
 20
59.3527425938
 10
252.1420688301
 20
59.6192948709
 10
253.0910839613
 20
59.7650431512
 10
254.0033216779
 20
59.7887065935
 10
254.8707652019
 20
59.6900772428
 10
255.6857914085
 20
59.4700218572
 10
256.4412378181
 20
59.1304742914
 10
257.1304655405
 20
58.6744185016
 10
257.7474176177
 20
58.1058623226
 10
258.2866722526
 20
57.4298022464
 10
258.743490456
 20
56.6521795133
 10
259.1138576933
 20
55.7798278999
 10
259.3945191638
 20
54.8204136635
 10
259.5830084045
 20
53.7823681709
 10
259.677668965
 20
52.6748138032
 10
259.677668965
 20
51.507483788
 10
259.5830084045
 20
50.2906366634
 10
259.3979261826
 20
49.0534553968
  0
LWPOLYLINE
  5
23C
330
1F
100
AcDbEntity
  8
0
  6
Continuous
 62
     7
370
     0
100
AcDbPolyline
 90
       21
 70
   128
 43
0.0
 10
251.3985763215
 20
35.1966735987
 10
251.1646162632
 20
35.0005935632
 10
250.1673161492
 20
34.2341491638
 10
249.158932797
 20
33.5699863409
 10
248.1483279161
 20
33.0139417811
 10
247.1443827383
 20
32.5709020242
 10
246.15591997
 20
32.2447605193
 10
245.1916262575
 20
32.0383834098
 10
244.2599758487
 20
31.9535843451
 10
243.3691561209
 20
31.9911085425
 10
242.5269956298
 20
32.1506262379
 10
241.7408953121
 20
32.4307355841
 10
241.0177634457
 20
32.8289749702
 10
240.3639549395
 20
33.341844654
 10
239.785215486
 20
33.9648375184
 10
239.2866310684
 20
34.6924786796
 10
238.8725832646
 20
35.518373601
 10
238.5467107414
 20
36.4352642883
 10
238.3118772784
 20
37.4350930732
 10
238.1701466004
 20
38.5090734243
 10
238.1227642418
 20
39.6477671637
  0
LWPOLYLINE
  5
23D
330
1F
100
AcDbEntity
  8
0
  6
Continuous
 62
     7
370
     0
100
AcDbPolyline
 90
       25
 70
   128
 43
0.0
 10
237.4156574606
 20
39.6477671637
 10
237.4631656483
 20
40.8618119348
 10
237.6052848883
 20
42.1203506898
 10
237.8408026693
 20
43.41264602
 10
238.1677096366
 20
44.7276725172
 10
238.5832167353
 20
46.054210839
 10
239.0837790054
 20
47.3809434282
 10
239.6651258259
 20
48.6965510701
 10
240.3222973509
 20
49.9898094641
 10
241.0496868246
 20
51.2496849857
 10
241.8410884164
 20
52.4654288211
 10
242.6897501671
 20
53.6266686726
 10
243.5884315937
 20
54.7234972512
 10
244.5294654633
 20
55.7465568021
 10
245.5048232067
 20
56.6871189421
 10
246.5061834154
 20
57.5371591266
 10
247.5250028373
 20
58.2894251125
 10
248.5525892643
 20
58.9374988315
 10
249.5801756913
 20
59.4758511473
 10
250.5989951132
 20
59.8998890276
 10
251.6003553219
 20
60.2059947309
 10
252.5757130653
 20
60.3915566711
 10
253.5167469349
 20
60.4549916993
 10
254.4154283615
 20
60.3957586101
 10
254.7426118166
 20
60.3414702855
  0
ARC
  5
23E
330
1F
100
AcDbEntity
  8
0
  6
Continuous
 62
     7
370
     0
100
AcDbCircle
 10
246.6760639679
 20
39.1922661507
 30
0.0
 40
9.271602334675935
100
AcDbArc
 50
177.1840039461
 51
217.1033364391
  0
LWPOLYLINE
  5
23F
330
1F
100
AcDbEntity
  8
0
  6
Continuous
 62
     7
370
     0
100
AcDbPolyline
 90
       26
 70
   128
 43
0.0
 10
242.1886282336
 20
41.9949404852
 10
242.237606477
 20
42.9582346515
 10
242.3838269941
 20
43.9640308958
 10
242.6251575605
 20
44.997662444
 10
242.9580790332
 20
46.0440566208
 10
243.3777366673
 20
47.0879546425
 10
243.8780109096
 20
48.1141341256
 10
244.4516066351
 20
49.1076310622
 10
245.0901595265
 20
50.0539580301
 10
245.7843580448
 20
50.9393154509
 10
246.5240792123
 20
51.7507928199
 10
247.2985362288
 20
52.4765569697
 10
248.096435767
 20
53.1060246248
 10
248.9061426549
 20
53.6300167293
 10
249.7158495428
 20
54.0408922983
 10
250.513749081
 20
54.332659841
 10
251.2882060975
 20
54.5010647295
 10
252.027927265
 20
54.5436512413
 10
252.7221257833
 20
54.4597983691
 10
253.3606786747
 20
54.2507288768
 10
253.9342744002
 20
53.9194914682
 10
254.4345486425
 20
53.4709163307
 10
254.8542062766
 20
52.9115446998
 10
255.1871277493
 20
52.2495334736
 10
255.4284583157
 20
51.4945362664
 10
255.4677634457
 20
51.3222900513
  0
LWPOLYLINE
  5
240
330
1F
100
AcDbEntity
  8
0
  6
Continuous
 62
     7
370
     0
100
AcDbPolyline
 90
       13
 70
   128
 43
0.0
 10
247.4684135846
 20
37.4655082532
 10
247.2985362288
 20
37.4130981917
 10
246.5240792123
 20
37.2446933032
 10
245.7843580448
 20
37.2021067914
 10
245.0901595265
 20
37.2859596636
 10
244.4516066351
 20
37.4950291559
 10
243.8780109096
 20
37.8262665645
 10
243.3777366673
 20
38.274841702
 10
242.9580790332
 20
38.8342133329
 10
242.6251575605
 20
39.4962245591
 10
242.3838269941
 20
40.2512217663
 10
242.237606477
 20
41.0881953951
 10
242.1886282336
 20
41.9949404852
  0
LWPOLYLINE
  5
241
330
1F
100
AcDbEntity
  8
0
  6
Continuous
 62
     7
370
     0
100
AcDbPolyline
 90
       19
 70
   128
 43
0.0
 10
235.3168109412
 20
46.5269362137
 10
235.6513396712
 20
47.763444132
 10
236.0755706233
 20
49.0072969049
 10
236.5851498465
 20
50.2457286698
 10
237.1748474468
 20
51.4660292009
 10
237.8386112622
 20
52.655674356
 10
238.5696289769
 20
53.8024546143
 10
239.3603980378
 20
54.894600384
 10
240.202802654
 20
55.9209027962
 10
241.0881970902
 20
56.870828743
 10
242.0074944
 20
57.7346289805
 10
242.9512596861
 20
58.5034381869
 10
243.9098069326
 20
59.1693659486
 10
244.8732984136
 20
59.7255777413
 10
245.83184566
 20
60.1663650732
 10
246.7756109461
 20
60.4872040724
 10
247.6949082559
 20
60.6848019163
 10
248.5803026922
 20
60.7571306263
 10
248.9360580612
 20
60.7501242967
  0
LWPOLYLINE
  5
242
330
1F
100
AcDbEntity
  8
0
  6
Continuous
 62
     7
370
     0
100
AcDbPolyline
 90
       21
 70
   128
 43
0.0
 10
229.7306830404
 20
48.206013365
 10
230.0763484312
 20
49.563900043
 10
230.5158988377
 20
50.9327451263
 10
231.0453449763
 20
52.3001252127
 10
231.6598816852
 20
53.6536301962
 10
232.3539315349
 20
54.9809758989
 10
233.1211954488
 20
56.2701155599
 10
233.9547098717
 20
57.5093491699
 10
234.8469099704
 20
58.6874296581
 10
235.7896982906
 20
59.7936649691
 10
236.774518248
 20
60.8180151019
 10
237.7924317863
 20
61.7511832311
 10
238.8342004977
 20
62.5847000837
 10
239.8903694689
 20
63.3110008044
 10
240.9513530924
 20
63.923493613
 10
242.0075220636
 20
64.4166196303
 10
243.049290775
 20
64.7859033295
 10
244.0672043133
 20
65.0279931555
 10
245.0520242707
 20
65.1406919428
 10
245.9948125909
 20
65.1229768564
 10
246.5910146468
 20
65.0396515315
  0
LWPOLYLINE
  5
243
330
1F
100
AcDbEntity
  8
0
  6
Continuous
 62
     7
370
     0
100
AcDbPolyline
 90
       18
 70
   128
 43
0.0
 10
235.7100836928
 20
46.4711556747
 10
236.0424364529
 20
47.6853169391
 10
236.4623336169
 20
48.9061236776
 10
236.9654978554
 20
50.1211400061
 10
237.5468036299
 20
51.3179890252
 10
238.2003294042
 20
52.484478899
 10
238.9194179651
 20
53.6087270481
 10
239.6967442367
 20
54.6792811934
 10
240.5243898983
 20
55.6852360156
 10
241.393924045
 20
56.6163442437
 10
242.2964890701
 20
57.4631210399
 10
243.2228908944
 20
58.2169406178
 10
244.1636926224
 20
58.8701241103
 10
245.1093106723
 20
59.4160177908
 10
246.0501124002
 20
59.8490608525
 10
246.9765142246
 20
60.1648420538
 10
247.8790792497
 20
60.3601446544
 10
248.0709927882
 20
60.3864120484
  0
LINE
  5
244
330
1F
100
AcDbEntity
  8
0
  6
Continuous
 62
     7
370
     0
100
AcDbLine
 10
235.7194063437
 20
39.8926202873
 30
0.0
 11
236.125187585
 21
40.1268728116
 31
0.0
  0
LWPOLYLINE
  5
245
330
1F
100
AcDbEntity
  8
0
  6
Continuous
 62
     7
370
     0
100
AcDbPolyline
 90
        3
 70
   128
 43
0.0
 10
236.6713745672
 20
39.8726528992
 10
236.6481579686
 20
39.8809286504
 10
236.125187585
 20
40.1268728116
  0
ARC
  5
246
330
1F
100
AcDbEntity
  8
0
  6
Continuous
 62
     7
370
     0
100
AcDbCircle
 10
235.4371984155
 20
41.1834744068
 30
0.0
 40
1.260847345344026
100
AcDbArc
 50
303.0695173616
 51
345.5982002281
  0
LINE
  5
247
330
1F
100
AcDbEntity
  8
0
  6
Continuous
 62
     7
370
     0
100
AcDbLine
 10
232.2315954173
 20
43.6809548649
 30
0.0
 11
236.6165859229
 21
41.1495537284
 31
0.0
  0
LINE
  5
248
330
1F
100
AcDbEntity
  8
0
  6
Continuous
 62
     7
370
     0
100
AcDbLine
 10
232.1123566017
 20
43.6120973848
 30
0.0
 11
232.2315954173
 21
43.6809548649
 31
0.0
  0
LINE
  5
249
330
1F
100
AcDbEntity
  8
0
  6
Continuous
 62
     7
370
     0
100
AcDbLine
 10
231.8560303935
 20
46.6433641719
 30
0.0
 11
231.8612182882
 21
46.9760296361
 31
0.0
  0
LWPOLYLINE
  5
24A
330
1F
100
AcDbEntity
  8
0
  6
Continuous
 62
     7
370
     0
100
AcDbPolyline
 90
        3
 70
   128
 43
0.0
 10
232.0378431992
 20
44.8076972008
 10
231.9037214567
 20
45.672701966
 10
231.8560303935
 20
46.6433641719
  0
LWPOLYLINE
  5
24B
330
1F
100
AcDbEntity
  8
0
  6
Continuous
 62
     7
370
     0
100
AcDbPolyline
 90
       17
 70
   128
 43
0.0
 10
212.0105144953
 20
61.9422436195
 10
212.0587872057
 20
62.7317328448
 10
212.2025764879
 20
63.560129963
 10
212.438817723
 20
64.4097791278
 10
212.7624758392
 20
65.2625715424
 10
213.1666526257
 20
66.1003314169
 10
213.6427337559
 20
66.9052033543
 10
214.1805723872
 20
67.6600329063
 10
214.7687054229
 20
68.3487321918
 10
215.3945978284
 20
68.9566227811
 10
216.0449097938
 20
69.4707485416
 10
216.7057810485
 20
69.8801517755
 10
217.3631262691
 20
70.1761067635
 10
218.0029352835
 20
70.3523057389
 10
218.6115716734
 20
70.4049933264
 10
219.1760634107
 20
70.3330465816
 10
219.2454202115
 20
70.3146299403
  0
ARC
  5
24C
330
1F
100
AcDbEntity
  8
0
  6
Continuous
 62
     7
370
     0
100
AcDbCircle
 10
215.4794446654
 20
61.6927931813
 30
0.0
 40
3.477887583905795
100
AcDbArc
 50
175.8869457832
 51
225.0942205936
  0
LWPOLYLINE
  5
24D
330
1F
100
AcDbEntity
  8
0
  6
Continuous
 62
     7
370
     0
100
AcDbPolyline
 90
        3
 70
   128
 43
0.0
 10
236.1742803287
 20
38.8087318548
 10
236.054643754
 20
39.0422917652
 10
235.7100836928
 20
39.8980021391
  0
ARC
  5
24E
330
1F
100
AcDbEntity
  8
0
  6
Continuous
 62
     7
370
     0
100
AcDbCircle
 10
241.32201614
 20
41.8129651832
 30
0.0
 40
6.286417824774245
100
AcDbArc
 50
197.2022721654
 51
213.8013536742
  0
LINE
  5
24F
330
1F
100
AcDbEntity
  8
0
  6
Continuous
 62
     7
370
     0
100
AcDbLine
 10
236.125187585
 20
40.1268728116
 30
0.0
 11
231.9002245674
 21
42.5658920457
 31
0.0
  0
ARC
  5
250
330
1F
100
AcDbEntity
  8
0
  6
Continuous
 62
     7
370
     0
100
AcDbCircle
 10
236.5717332002
 20
42.867043217
 30
0.0
 40
7.09282488008312
100
AcDbArc
 50
195.3118335283
 51
220.46774401
  0
ARC
  5
251
330
1F
100
AcDbEntity
  8
0
  6
Continuous
 62
     7
370
     0
100
AcDbCircle
 10
270.5785425099
 20
35.425115881
 30
0.0
 40
0.6601643411037228
100
AcDbArc
 50
286.5421222853
 51
11.0610655696
  0
OLE2FRAME
  5
252
330
1F
100
AcDbEntity
  8
0
100
AcDbOle2Frame
 70
     2
  3
Paintbrush-Bild
 10
13.8511154363
 20
38.264191557
 30
0.0
 11
51.6290888628
 21
31.9806341108
 31
0.0
 71
     2
 72
     0
 73
     1
 90
    12928
310
80552BED0767C5B32B40DDAF6807D121434000000000000000006FFBDDFB85D0
310
4940DDAF6807D121434000000000000000006FFBDDFB85D04940416F4BD60AFB
310
3F4000000000000000002BED0767C5B32B40416F4BD60AFB3F40000000000000
310
0000000000000100000000010000010000000100000000000100000000320000
310
D0CF11E0A1B11AE1000000000000000000000000000000003E000300FEFF0900
310
0600000000000000000000000100000001000000000000000010000002000000
310
01000000FEFFFFFF0000000000000000FFFFFFFFFFFFFFFFFFFFFFFFFFFFFFFF
310
FFFFFFFFFFFFFFFFFFFFFFFFFFFFFFFFFFFFFFFFFFFFFFFFFFFFFFFFFFFFFFFF
310
FFFFFFFFFFFFFFFFFFFFFFFFFFFFFFFFFFFFFFFFFFFFFFFFFFFFFFFFFFFFFFFF
310
FFFFFFFFFFFFFFFFFFFFFFFFFFFFFFFFFFFFFFFFFFFFFFFFFFFFFFFFFFFFFFFF
310
FFFFFFFFFFFFFFFFFFFFFFFFFFFFFFFFFFFFFFFFFFFFFFFFFFFFFFFFFFFFFFFF
310
FFFFFFFFFFFFFFFFFFFFFFFFFFFFFFFFFFFFFFFFFFFFFFFFFFFFFFFFFFFFFFFF
310
FFFFFFFFFFFFFFFFFFFFFFFFFFFFFFFFFFFFFFFFFFFFFFFFFFFFFFFFFFFFFFFF
310
FFFFFFFFFFFFFFFFFFFFFFFFFFFFFFFFFFFFFFFFFFFFFFFFFFFFFFFFFFFFFFFF
310
FFFFFFFFFFFFFFFFFFFFFFFFFFFFFFFFFFFFFFFFFFFFFFFFFFFFFFFFFFFFFFFF
310
FFFFFFFFFFFFFFFFFFFFFFFFFFFFFFFFFFFFFFFFFFFFFFFFFFFFFFFFFFFFFFFF
310
FFFFFFFFFFFFFFFFFFFFFFFFFFFFFFFFFFFFFFFFFFFFFFFFFFFFFFFFFFFFFFFF
310
FFFFFFFFFFFFFFFFFFFFFFFFFFFFFFFFFFFFFFFFFFFFFFFFFFFFFFFFFFFFFFFF
310
FFFFFFFFFFFFFFFFFFFFFFFFFFFFFFFFFFFFFFFFFFFFFFFFFFFFFFFFFFFFFFFF
310
FFFFFFFFFFFFFFFFFFFFFFFFFFFFFFFFFFFFFFFFFFFFFFFFFFFFFFFFFFFFFFFF
310
FDFFFFFFFEFFFFFFFEFFFFFFFEFFFFFF05000000060000000700000008000000
310
090000000A0000000B0000000C0000000D0000000E0000000F00000010000000
310
11000000120000001300000014000000150000001600000017000000FEFFFFFF
310
FFFFFFFFFFFFFFFFFFFFFFFFFFFFFFFFFFFFFFFFFFFFFFFFFFFFFFFFFFFFFFFF
310
FFFFFFFFFFFFFFFFFFFFFFFFFFFFFFFFFFFFFFFFFFFFFFFFFFFFFFFFFFFFFFFF
310
FFFFFFFFFFFFFFFFFFFFFFFFFFFFFFFFFFFFFFFFFFFFFFFFFFFFFFFFFFFFFFFF
310
FFFFFFFFFFFFFFFFFFFFFFFFFFFFFFFFFFFFFFFFFFFFFFFFFFFFFFFFFFFFFFFF
310
FFFFFFFFFFFFFFFFFFFFFFFFFFFFFFFFFFFFFFFFFFFFFFFFFFFFFFFFFFFFFFFF
310
FFFFFFFFFFFFFFFFFFFFFFFFFFFFFFFFFFFFFFFFFFFFFFFFFFFFFFFFFFFFFFFF
310
FFFFFFFFFFFFFFFFFFFFFFFFFFFFFFFFFFFFFFFFFFFFFFFFFFFFFFFFFFFFFFFF
310
FFFFFFFFFFFFFFFFFFFFFFFFFFFFFFFFFFFFFFFFFFFFFFFFFFFFFFFFFFFFFFFF
310
FFFFFFFFFFFFFFFFFFFFFFFFFFFFFFFFFFFFFFFFFFFFFFFFFFFFFFFFFFFFFFFF
310
FFFFFFFFFFFFFFFFFFFFFFFFFFFFFFFFFFFFFFFFFFFFFFFFFFFFFFFFFFFFFFFF
310
FFFFFFFFFFFFFFFFFFFFFFFFFFFFFFFFFFFFFFFFFFFFFFFFFFFFFFFFFFFFFFFF
310
FFFFFFFFFFFFFFFFFFFFFFFFFFFFFFFFFFFFFFFFFFFFFFFFFFFFFFFFFFFFFFFF
310
FFFFFFFFFFFFFFFFFFFFFFFFFFFFFFFFFFFFFFFFFFFFFFFFFFFFFFFFFFFFFFFF
310
52006F006F007400200045006E00740072007900000000000000000000000000
310
0000000000000000000000000000000000000000000000000000000000000000
310
16000500FFFFFFFFFFFFFFFF020000000A00030000000000C000000000000046
310
000000000000000000000000300E03115025D20103000000C000000000000000
310
01004F006C006500000000000000000000000000000000000000000000000000
310
0000000000000000000000000000000000000000000000000000000000000000
310
0A000200FFFFFFFFFFFFFFFFFFFFFFFF00000000000000000000000000000000
310
0000000000000000000000000000000000000000000000001400000000000000
310
010043006F006D0070004F0062006A0000000000000000000000000000000000
310
0000000000000000000000000000000000000000000000000000000000000000
310
120002010100000003000000FFFFFFFF00000000000000000000000000000000
310
0000000000000000000000000000000000000000010000004D00000000000000
310
01004F006C006500310030004E00610074006900760065000000000000000000
310
0000000000000000000000000000000000000000000000000000000000000000
310
1A000200FFFFFFFFFFFFFFFFFFFFFFFF00000000000000000000000000000000
310
0000000000000000000000000000000000000000040000002426000000000000
310
FEFFFFFF02000000FEFFFFFFFFFFFFFFFFFFFFFFFFFFFFFFFFFFFFFFFFFFFFFF
310
FFFFFFFFFFFFFFFFFFFFFFFFFFFFFFFFFFFFFFFFFFFFFFFFFFFFFFFFFFFFFFFF
310
FFFFFFFFFFFFFFFFFFFFFFFFFFFFFFFFFFFFFFFFFFFFFFFFFFFFFFFFFFFFFFFF
310
FFFFFFFFFFFFFFFFFFFFFFFFFFFFFFFFFFFFFFFFFFFFFFFFFFFFFFFFFFFFFFFF
310
FFFFFFFFFFFFFFFFFFFFFFFFFFFFFFFFFFFFFFFFFFFFFFFFFFFFFFFFFFFFFFFF
310
FFFFFFFFFFFFFFFFFFFFFFFFFFFFFFFFFFFFFFFFFFFFFFFFFFFFFFFFFFFFFFFF
310
FFFFFFFFFFFFFFFFFFFFFFFFFFFFFFFFFFFFFFFFFFFFFFFFFFFFFFFFFFFFFFFF
310
FFFFFFFFFFFFFFFFFFFFFFFFFFFFFFFFFFFFFFFFFFFFFFFFFFFFFFFFFFFFFFFF
310
FFFFFFFFFFFFFFFFFFFFFFFFFFFFFFFFFFFFFFFFFFFFFFFFFFFFFFFFFFFFFFFF
310
FFFFFFFFFFFFFFFFFFFFFFFFFFFFFFFFFFFFFFFFFFFFFFFFFFFFFFFFFFFFFFFF
310
FFFFFFFFFFFFFFFFFFFFFFFFFFFFFFFFFFFFFFFFFFFFFFFFFFFFFFFFFFFFFFFF
310
FFFFFFFFFFFFFFFFFFFFFFFFFFFFFFFFFFFFFFFFFFFFFFFFFFFFFFFFFFFFFFFF
310
FFFFFFFFFFFFFFFFFFFFFFFFFFFFFFFFFFFFFFFFFFFFFFFFFFFFFFFFFFFFFFFF
310
FFFFFFFFFFFFFFFFFFFFFFFFFFFFFFFFFFFFFFFFFFFFFFFFFFFFFFFFFFFFFFFF
310
FFFFFFFFFFFFFFFFFFFFFFFFFFFFFFFFFFFFFFFFFFFFFFFFFFFFFFFFFFFFFFFF
310
FFFFFFFFFFFFFFFFFFFFFFFFFFFFFFFFFFFFFFFFFFFFFFFFFFFFFFFFFFFFFFFF
310
0100000200000000000000000000000000000000000000000000000000000000
310
0000000000000000000000000000000000000000000000000000000000000000
310
0100FEFF030A0000FFFFFFFF0A00030000000000C00000000000004607000000
310
5042727573680007000000504272757368000700000050427275736800F439B2
310
7100000000000000000000000000000000000000000000000000000000000000
310
0000000000000000000000000000000000000000000000000000000000000000
310
0000000000000000000000000000000000000000000000000000000000000000
310
0000000000000000000000000000000000000000000000000000000000000000
310
0000000000000000000000000000000000000000000000000000000000000000
310
0000000000000000000000000000000000000000000000000000000000000000
310
0000000000000000000000000000000000000000000000000000000000000000
310
0000000000000000000000000000000000000000000000000000000000000000
310
0000000000000000000000000000000000000000000000000000000000000000
310
0000000000000000000000000000000000000000000000000000000000000000
310
0000000000000000000000000000000000000000000000000000000000000000
310
0000000000000000000000000000000000000000000000000000000000000000
310
20260000424D0E260000000000003E00000028000000B40200006E0000000100
310
01000000000000000000130B0000130B00000200000002000000000000FFFFFF
310
FFFFFFFFFFFFFFFFFFFFFFFFFFFFFFFFFFFFFFFFFFFFFFFFFFFFFFFFFFFFFFFF
310
FFFFFFFFFFFFFFFFFFFFFFFFFFFFFFFFFFFFFFFFFFFFFFFFFFFFFFFFFFFFFFFF
310
FFFFFFFFFFFFFFFFFFFFFFFFFFFFFFFFFFFFFFFFFFFFFFFFF000FFFFFFFFFFFF
310
FFFFFFFFFFFFFFFFFFFFFFFFFFFFFFFFFFFFFFFFFFFFFFFFFFFFFFFFFFFFFFFF
310
FFFFFFFFFFFFFFFFFFFFFFFFFFFFFFFFFFFFFFFFFFFFFFFFFFFFFFFFFFFFFFFF
310
FFFFFFFFFFFFFFFFFFFFFFFFFFFFFFFFF000FFFFFFFFFFFFFFFFFFFFFFFFFFFF
310
FFFFFFFFFFFFFFFFFFFFFFFFFFFFFFFFFFFFFFFFFFFFFFFFFFFFFFFFFFFFFFFF
310
FFFFFFFFFFFFFFFFFFFFFFFFFFFFFFFFFFFFFFFFFFFFFFFFFFFFFFFFFFFFFFFF
310
FFFFFFFFFFFFFFFFF000FFFFFFFFFFFFFFFFFFFFFFFFFFFFFFFFFFFFFFFFFFFF
310
FFFFFFFFFFFFFFFFFFFFFFFFFFFFFFFFFFFFFFFFFFFFFFFFFFFFFFFFFFFFFFFF
310
FFFFFFFFFFFFFFFFFFFFFFFFFFFFFFFFFFFFFFFFFFFFFFFFFFFFFFFFFFFFFFFF
310
F000FFFFFFFFFFFFFFFFFFFFFFFFFFFFFFFFFFFFFFFFFFFFFFFFFFFFFFFFFFFF
310
FFFFFFFFFFFFFFFFFFFFFFFFFFFFFFFFFFFFFFFFFFFFFFFFFFFFFFFFFFFFFFFF
310
FFFFFFFFFFFFFFFFFFFFFFFFFFFFFFFFFFFFFFFFFFFFFFFFF000FFFFFFFFFFFF
310
FFFFFFFFFFFFFFFFFFFFFFFFFFFFFFFFFFFFFFFFFFFFFFFFFFFFFFFFFFFFFFFF
310
FFFFFFFFFFFFFFFFFFFFFFFFFFFFFFFFFFFFFFFFFFFFFFFFFFFFFFFFFFFFFFFF
310
FFFFFFFFFFFFFFFFFFFFFFFFFFFFFFFFF000FFFFFFFFFFFFFFFFFFFFFFFFFFFF
310
FFFFFFFFFFFFFFFFFFFFFFFFFFFFFFFFFFFFFFFFFFFFFFFFFFFFFFFFFFFFFFFF
310
FFFFFFFFFFFFFFFFFFFFFFFFFFFFFFFFFFFFFFFFFFFFFFFFFFFFFFFFFFFFFFFF
310
FFFFFFFFFFFFFFFFF000FFFFFFFFFFFFFFFFFFFFFFFFFFFFFFFFFFFFFFFFFFFF
310
FFFFFFFFFFFFFFFFFFFFFFFFFFFFFFFFFFFFFFFFFFFFFFFFFFFFFFFFFFFFFFFF
310
FFFFFFFFFFFFFFFFFFFFFFFFFFFFFFFFFFFFFFFFFFFFFFFFFFFFFFFFFFFFFFFF
310
F000FFFFFFFFFFFFFFFFFFFFFFFFFFFFFFFFFFFFFFFFFFFFFFFFFFFFFFFFFFFF
310
FFFFFFFFFFFFFFFFFFFFFFFFFFFFFFFFFFFFFFFFFFFFFFFFFFFFFFFFFFFFFFFF
310
FFFFFFFFFFFFFFFFFFFFFFFFFFFFFFFFFFFFFFFFFFFFFFFFF000FFFFFFFFFFFF
310
FFFFFFFFFFFFFFFFFFFFFFFFFFFFFFFFFFFFFFFFFFFFFFFFFFFFFFFFFFFFFFFF
310
FFFFFFFFFFFFFFFFFFFFFFFFFFFFFFFFFFFFFFFFFFFFFFFFFFFFFFFFFFFFFFFF
310
FFFFFFFFFFFFFFFFFFFFFFFFFFFFFFFFF000FFFFFFFFFFFFFFFFFFFFFFFFFFFF
310
FFFFFFFFFFFFFFFFFFFFFFFFFFFFFFFFFFFFFFFFFFFFFFFFFFFFFFFFFFFFFFFF
310
FFFFFFFFFFFFFFFFFFFFFFFFFFFFFFFFFFFFFFFFFFFFFFFFFFFFFFFFFFFFFFFF
310
FFFFFFFFFFFFFFFFF000FFFFFFFFFFFFFFFFFFFFFFFFFFFFFFFFFFFFFFFFFFFF
310
FFFFFFFFFFFFFFFFFFFFFFFFFFFFFFFFFFFFFFFFFFFFFFFFFFFFFFFFFFFFFFFF
310
FFFFFFFFFFFFFFFFFFFFFFFFFFFFFFFFFFFFFFFFFFFFFFFFFFFFFFFFFFFFFFFF
310
F000FFFFFFFFFFFFFFFFFFFFFFFFFFFFFFFFFFFFFFFFFFFFFFFFFFFFFFFFFFFF
310
FFFFFFFFFFFFFFFFFFFFFFFFFFFFFFFFFFFFFFFFFFFFFFFFFFFFFFFFFFFFFFFF
310
FFFFFFFFFFFFFFFFFFFFFFFFFFFFFFFFFFFFFFFFFFFFFFFFF000FFFFFFFFFFFF
310
FFFFFFFFFFFFFFFFFFFFFFFFFFFFFFFFFFFFFFFFFFFFFFFFFFFFFFFFFFFFFFFF
310
FFFFFFFFFFFFFFFFFFFFFFFFFFFFFFFFFFFFFFFFFFFFFFFFFFFFFFFFFFFFFFFF
310
FFFFFFFFFFFFFFFFFFFFFFFFFFFFFFFFF000FFFFFFFFFFFFFFFFFFFFFFFFFFFF
310
FFFFFFFFFFFFFFFFFFFFFFFFFFFFFFFFFFFFFFFFFFFFFFFFFFFFFFFFFFFFFFFF
310
FFFFFFFFFFFFFFFFFFFFFFFFFFFFFFFFFFFFFFFFFFFFFFFFFFFFFFFFFFFFFFFF
310
FFFFFFFFFFFFFFFFF000FFFFFFFFFFFFFFFFFFFFFFFFFFFFFFFFFFFFFFFFFFFF
310
FFFFFFFFFFFFFFFFFFFFFFFFFFFFFFFFFFFFFFFFFFFFFFFFFFFFFFFFFFFFFFFF
310
FFFFFFFFFFFFFFFFFFFFFFFFFFFFFFFFFFFFFFFFFFFFFFFFFFFFFFFFFFFFFFFF
310
F000FFFFFFFFFFFFFFFFFFFFFFFFFFFFFFFFFFFFFFFFFFFFFFFFFFFFFFFFFFFF
310
FFFFFFFFFFFFFFFFFFFFFFFFFFFFFFFFFFFFFFFFFFFFFFFFFFFFFFFFFFFFFFFF
310
FFFFFFFFFFFFFFFFFFFFFFFFFFFFFFFFFFFFFFFFFFFFFFFFF000FFFFFFFFFFFF
310
FFFFFFFFFFFFFFFFFFFFFFFFFFFFFFFFFFFFFFFFFFFFFFFFFFFFFFFFFFFFFFFF
310
FFFFFFFFFFFFFFFFFFFFFFFFFFFFFFFFFFFFFFFFFFFFFFFFFFFFFFFFFFFFFFFF
310
FFFFFFFFFFFFFFFFFFFFFFFFFFFFFFFFF000FFFFFFFFFFFFFFFFFFFFFFFFFFFF
310
FFFFFFFFFFFFFFFFFFFFFFFFFFFFFFFFFFFFFFFFFFFFFFFFFFFFFFFFFFFFFFFF
310
FFFFFFFFFFFFFFFFFFFFFFFFFFFFFFFFFFFFFFFFFFFFFFFFFFFFFFFFFFFFFFFF
310
FFFFFFFFFFFFFFFFF000FFFFF80003FFFFFFFFFFFFFFFFFFFFFFFFFFFFFFFFFF
310
FFFFF00007FFFFFFFFFF00007FFFFFF800000000000000007FFFFFFFFFFFFFFF
310
FFFFFFFC001FFFFFFFFFFFFFFC001FFFFFFFFFFFFFFFFFFFFFFFFFFE0007FFFF
310
F000FFFF8000007FFFFFFFF8000FFFFFC0007FFFFF80007FFFFF0000007FFFFF
310
FFF8000007FFFFF800000000000000007FFFFFF0001FFFFFFFFFFFC00001FFFF
310
FFFFFFFFC00001FFFFFFFF000000000003FFFFE000007FFFF000FFFE0000000F
310
FFFFFFF0000FFFFF80007FFFFF80007FFFFC0000001FFFFFFFC0000001FFFFF8
310
00000000000000007FFFFFF0001FFFFFFFFFFE0000003FFFFFFFFFFE0000003F
310
FFFFFF000000000003FFFF0000000FFFF000FFF800000003FFFFFFF00007FFFF
310
80007FFFFF80007FFFF000000007FFFFFF000000003FFFF80000000000000000
310
7FFFFFF0001FFFFFFFFFF80000000FFFFFFFFFF80000000FFFFFFF0000000000
310
03FFFC00000003FFF000FFE000000000FFFFFFF00007FFFF80003FFFFF80007F
310
FFC000000001FFFFFC000000001FFFF800000000000000007FFFFFF0001FFFFF
310
FFFFE000000003FFFFFFFFE000000003FFFFFF000000000003FFF000000000FF
310
F000FF80000000007FFFFFF00007FFFF80003FFFFF80007FFF8000000000FFFF
310
F80000000007FFF800000000000000007FFFFFF0001FFFFFFFFFC000000001FF
310
FFFFFFC000000001FFFFFF000000000003FFC0000000007FF000FF0000000000
310
3FFFFFE00007FFFF00003FFFFF80007FFE00000000003FFFF00000000003FFF8
310
00000000000000007FFFFFF0001FFFFFFFFF8000000000FFFFFFFF8000000000
310
FFFFFF000000000003FF80000000003FF000FE00000000001FFFFFE00003FFFF
310
00003FFFFF80007FFC00000000001FFFE00000000001FFF8000001FFFE000000
310
7FFFFFF0001FFFFFFFFE00000000003FFFFFFE00000000003FFFFF0000000000
310
03FF00000000001FF000FC00000000000FFFFFE00003FFFF00001FFFFF80007F
310
F800000000001FFFC00000000000FFF8000001FFFE0000007FFFFFF0001FFFFF
310
FFFC00000000001FFFFFFC00000000001FFFFF000000000003FE00000000000F
310
F000F8000000000007FFFFE00003FFFF00001FFFFF80007FF800000000000FFF
310
800000000000FFF8000001FFFE0000007FFFFFF0001FFFFFFFF800000000000F
310
FFFFF800000000000FFFFF000000000003FC000000000007F000F80000000000
310
03FFFFC00003FFFE00001FFFFF80007FF0000000000007FF0000000000007FF8
310
000001FFFE0000007FFFFFF0001FFFFFFFF0000000000007FFFFF00000000000
310
07FFFF000000000003F8000000000003F000F0000000000003FFFFC00001FFFE
310
00001FFFFF80007FE0000000000007FE0000000000003FF8000001FFFE000000
310
7FFFFFF0001FFFFFFFF0000000000007FFFFF0000000000007FFFF0000000000
310
03F800001F800003F000E00001FFF00001FFFFC00001FFFE00000FFFFF80007F
310
E00001FFE00003FE00001FFF00003FF8000001FFFE0000007FFFFFF0001FFFFF
310
FFE000003E000003FFFFE000003E000003FFFF000000000003F00001FFF80001
310
F000E00007FFFC0001FFFFC00001FFFE00000FFFFF80007FC0000FFFFC0003FC
310
0000FFFFC0001FF8000001FFFE0000007FFFFFF0001FFFFFFFC00003FFE00001
310
FFFFC00003FFE00001FFFF0001FFFFFFFFF00007FFFE0001F000E0000FFFFF00
310
00FFFF800001FFFC00000FFFFF80007FC0001FFFFE0001FC0001FFFFE0001FF8
310
000001FFFE0000007FFFFFF0001FFFFFFF80000FFFF80000FFFF80000FFFF800
310
00FFFF0003FFFFFFFFE0000FFFFF8000F000C0003FFFFF8000FFFF800000FFFC
310
000007FFFF80007F80003FFFFF0001FC0003FFFFF0001FF8000001FFFE000000
310
7FFFFFF0001FFFFFFF80003FFFFE0000FFFF80003FFFFE0000FFFF0003FFFFFF
310
FFE0003FFFFF8000F000C0003FFFFF8000FFFF800000FFFC000007FFFF80007F
310
80007FFFFF8001F80007FFFFF8000FF8000001FFFE0000007FFFFFF0001FFFFF
310
FF00007FFFFF00007FFF00007FFFFF00007FFF0003FFFFFFFFE0003FFFFFC000
310
F000C0007FFFFFC000FFFF000000FFFC000007FFFF80007F8000FFFFFF8000F8
310
000FFFFFF8000FF8000001FFFE0000007FFFFFF0001FFFFFFF0000FFFFFF8000
310
7FFF0000FFFFFF80007FFF0003FFFFFFFFC0007FFFFFC00070008000FFFFFFC0
310
00FFFF000000FFF8000007FFFF80007F8000FFFFFF8000F8000FFFFFF8000FF8
310
000001FFFE0000007FFFFFF0001FFFFFFE0001FFFFFFC0003FFE0001FFFFFFC0
310
003FFF0003FFFFFFFFC0007FFFFFE00070008000FFFFFFC0007FFF0000007FF8
310
000003FFFF80007F0001FFFFFF8000F8000FFFFFF8000FF8000001FFFE000000
310
7FFFFFF0001FFFFFFE0001FFFFFFC0003FFE0001FFFFFFC0003FFF0003FFFFFF
310
FFC000FFFFFFE00070008000FFFFFFC0007FFF0000007FF8000003FFFF80007F
310
0001FFFFFF8000F8001FFFFFF8000FF8000001FFFE0000007FFFFFF0001FFFFF
310
FE0003FFFFFFE0003FFE0003FFFFFFE0003FFF0003FFFFFFFFC000FFFFFFE000
310
70008000FFFFFFC0007FFE0000007FF8000003FFFF80007F0001FFFFFF8000F0
310
001FFFFFF8000FF8000001FFFE0000007FFFFFF0001FFFFFFC0003FFFFFFE000
310
1FFC0003FFFFFFE0001FFF0003FFFFFFFFC000FFFFFFC00070008000FFFFFF80
310
007FFE0000007FF0000003FFFF80007F0001FFFFFF0000F0001FFFFFF8000FF8
310
000001FFFE0000007FFFFFF0001FFFFFFC0007FFFFFFF0001FFC0007FFFFFFF0
310
001FFF0003FFFFFFFFC000FFFFFFC00070008001FFFFFF0000FFFE0000003FF0
310
000001FFFF80007F0001FFFFFF0000F8001FFFFFF0000FF8000001FFFE000000
310
7FFFFFF0001FFFFFFC0007FFFFFFF0001FFC0007FFFFFFF0001FFF0003FFFFFF
310
FFC001FFFFFF80007000FFFFFFFFFE0000FFFE0008003FF0008001FFFF80007F
310
FFFFFFFFFC0000FFFFFFFFFFE0000FF8000001FFFE0000007FFFFFF0001FFFFF
310
F8000FFFFFFFF8000FF8000FFFFFFFF8000FFF0003FFFFFFFFFFFFFFFFFF0000
310
7000FFFFFFFFFC0000FFFC0008003FF0008001FFFF80007FFFFFFFFFF80001FF
310
FFFFFFFF80000FF8000001FFFE0000007FFFFFF0001FFFFFF8000FFFFFFFF800
310
0FF8000FFFFFFFF8000FFF0003FFFFFFFFFFFFFFFFFE0000F000FFFFFFFFE000
310
00FFFC000C003FE000C001FFFF80007FFFFFFFFFC00001FFFFFFFFFE00001FF8
310
000001FFFE0000007FFFFFF0001FFFFFF8000FFFFFFFF8000FF8000FFFFFFFF8
310
000FFF0003FFFFFFFFFFFFFFFFF00000F000FFFFFFFE000001FFFC000C001FE0
310
00C000FFFF80007FFFFFFFFE000001FFFFFFFFE000001FF80FFFFFFFFFFFFFC0
310
7FFFFFF0001FFFFFF8000FFFFFFFF8000FF8000FFFFFFFF8000FFF0003FFFFFF
310
FFFFFFFFFF800000F000FFFFFFC0000001FFFC001C001FE001C000FFFF80007F
310
FFFFFF80000003FFFFFFF80000001FF80FFFFFFFFFFFFFC07FFFFFF0001FFFFF
310
F8001FFFFFFFFC000FF8001FFFFFFFFC000FFF0003FFFFFFFFFFFFFFF0000001
310
F000FFFFF800000001FFF8001C001FE001C000FFFF80007FFFFFF800000003FF
310
FFFF800000003FF80FFFFFFFFFFFFFC07FFFFFF0001FFFFFF8001FFFFFFFFC00
310
0FF8001FFFFFFFFC000FFF0003FFFFFFFFFFFFFE00000001F000FFFFC0000000
310
03FFF8001E001FC001E000FFFF80007FFFFF8000000007FFFFFC000000003FF8
310
0FFFFFFFFFFFFFC07FFFFFF0001FFFFFF8001FFFFFFFFC000FF8001FFFFFFFFC
310
000FFF0003FFFFFFFFFFFFE000000003F000FFFE0000000007FFF8001E000FC0
310
01E0007FFF80007FFFFE0000000007FFFFE0000000007FF80FFFFFFFFFFFFFC0
310
7FFFFFF0001FFFFFF0001FFFFFFFFC0007F0001FFFFFFFFC0007FF0003FFFFFF
310
FFFFFF0000000003F000FFF80000000007FFF8001E000FC003E0007FFF80007F
310
FFF0000000000FFFFF8000000000FFF80FFFFFFFFFFFFFC07FFFFFF0001FFFFF
310
F0001FFFFFFFFC0007F0001FFFFFFFFC0007FF0003FFFFFFFFFFFC0000000007
310
F000FFE0000000000FFFF0003E000FC003E0007FFF80007FFFC0000000001FFF
310
FE0000000001FFF80FFFFFFFFFFFFFC07FFFFFF0001FFFFFF0001FFFFFFFFC00
310
07F0001FFFFFFFFC0007FF0003FFFFFFFFFFF0000000000FF000FFC000000000
310
1FFFF0003F000F8003F0003FFF80007FFF80000000003FFFF80000000003FFF8
310
0FFFFFFFFFFFFFC07FFFFFF0001FFFFFF0001FFFFFFFFC0007F0001FFFFFFFFC
310
0007FF0003FFFFFFFFFFE0000000001FF000FF00000000007FFFF0003F000780
310
03F0003FFF80007FFF00000000007FFFF00000000007FFF80FFFFFFFFFFFFFC0
310
7FFFFFF0001FFFFFF0001FFFFFFFFC0007F0001FFFFFFFFC0007FF0003FFFFFF
310
FFFF80000000007FF000FE0000000000FFFFE0003F00078007F0003FFF80007F
310
FE0000000001FFFFE0000000001FFFF80FFFFFFFFFFFFFC07FFFFFF0001FFFFF
310
F0001FFFFFFFFC0007F0001FFFFFFFFC0007FF0003FFFFFFFFFF0000000000FF
310
F000FC0000000003FFFFE0007F00078007F0003FFF80007FFC0000000007FFFF
310
C0000000007FFFF80FFFFFFFFFFFFFC07FFFFFF0001FFFFFF8001FFFFFFFFC00
310
0FF8001FFFFFFFFC000FFF0003FFFFFFFFFE0000000003FFF000FC000000000F
310
FFFFE0007F80070007F8001FFF80007FF8000000001FFFFF8000000001FFFFF8
310
0FFFFFFFFFFFFFC07FFFFFF0001FFFFFF8001FFFFFFFFC000FF8001FFFFFFFFC
310
000FFF0003FFFFFFFFFC000000000FFFF000F8000000007FFFFFE0007F800700
310
07F8001FFF80007FF000000000FFFFFF800000000FFFFFF80FFFFFFFFFFFFFC0
310
7FFFFFF0001FFFFFF8000FFFFFFFF8000FF8000FFFFFFFF8000FFF0003FFFFFF
310
FFFC000000007FFFF000F800000007FFFFFFC0007F8003000FF8001FFF80007F
310
F000000007FFFFFF000000007FFFFFF80FFFFFFFFFFFFFC07FFFFFF0001FFFFF
310
F8000FFFFFFFF8000FF8000FFFFFFFF8000FFF0003FFFFFFFFF80000000FFFFF
310
F000F0000000FFFFFFFFC000FF8003000FF8001FFF80007FE0000000FFFFFFFF
310
0000000FFFFFFFF8000001FFFE0000007FFFFFF0001FFFFFF8000FFFFFFFF800
310
0FF8000FFFFFFFF8000FFF0003FFFFFFFFF8000000FFFFFFF000F000000FFFFF
310
FFFFC000FFC002000FF8000FFF80007FE000001FFFFFFFFE000001FFFFFFFFF8
310
000001FFFE0000007FFFFFF0001FFFFFF8000FFFFFFFF8000FF8000FFFFFFFF8
310
000FFF0003FFFFFFFFF000001FFFFFFFF000E00000FFFFFFFFFFC000FFC00200
310
0FFC000FFF80007FE00001FFFFFFFFFE00001FFFFFFFFFF8000001FFFE000000
310
7FFFFFF0001FFFFFFC000FFFFFFFF8001FFC000FFFFFFFF8001FFF0003FFFFFF
310
FFF00001FFFFFFFFF000E00007FFFFFFFFFF8000FFC000001FFC000FFF80007F
310
C0000FFFFFFFFFFE0000FFFFFFFFFFF8000001FFFE0000007FFFFFF0001FFFFF
310
FC0007FFFFFFF0001FFC0007FFFFFFF0001FFF0003FFFFFFFFF00007FFFFFFFF
310
F000E0001FFFFFFFFFFF8000FFC000001FFC000FFF80007FC0003FFFFFFFFFFE
310
0001FFFFFFFFFFF8000001FFFE0000007FFFFFF0001FFFFFFC0007FFFFFFF000
310
1FFC0007FFFFFFF0001FFF0003FFFFFFFFF0001FFFFFFFFFF000E0003FFFFF00
310
03FF8001FFE000001FFC0007FF80007FC0007FFFFF0007FC0003FFFFF0003FF8
310
000001FFFE0000007FFFFFF0001FFFFFFC0003FFFFFFE0001FFC0003FFFFFFE0
310
001FFF0003FFFFFFFFF0003FFFFFFFFFF000E0003FFFFF0001FF8001FFE00000
310
1FFE0007FF80007FC0007FFFFE0003FC0007FFFFE0003FF8000001FFFE000000
310
7FFFFFF0001FFFFFFE0003FFFFFFE0003FFE0003FFFFFFE0003FFF0003FFFFFF
310
FFF0003FFFFF8001F000E0003FFFFF0001FF0001FFE000001FFE0007FF80007F
310
C0007FFFFE0003FC0007FFFFE0003FF8000001FFFE0000007FFFFFF0001FFFFF
310
FE0001FFFFFFC0003FFE0001FFFFFFC0003FFF0003FFFFFFFFF0003FFFFF0001
310
F000E0003FFFFF0003FF0001FFE000003FFE0007FF80007FC0007FFFFE0003FC
310
0007FFFFE0003FF8000001FFFE0000007FFFFFF0001FFFFFFF0001FFFFFFC000
310
7FFF0001FFFFFFC0007FFF0003FFFFFFFFF0003FFFFF0001F000E0003FFFFE00
310
03FF0003FFF000003FFE0003FF80007FC0007FFFFC0003FE0007FFFFE0003FF8
310
000001FFFE0000007FFFFFF0001FFFFFFF0000FFFFFF80007FFF0000FFFFFF80
310
007FFF0003FFFFFFFFF0003FFFFF0001F000E0003FFFFE0003FF0003FFF00000
310
3FFF0003FF80007FC0007FFFFC0007FE0007FFFFC0003FF8000001FFFE000000
310
7FFFFFF0001FFFFFFF80007FFFFF0000FFFF80007FFFFF0000FFFF0003FFFFFF
310
FFF0003FFFFF0003F000E0003FFFFC0003FE0003FFF000003FFF0003FF80007F
310
E0003FFFF80007FE0003FFFFC0007FF8000001FFFE0000007FFFFFF0001FFFFF
310
FF80003FFFFE0000FFFF80003FFFFE0000FFFF0003FFFFFFFFF0001FFFFE0003
310
F000F0001FFFF80003FE0003FFF000007FFF0001FF80007FE0003FFFF00007FE
310
0001FFFF80007FF8000001FFFE0000007FFFFFF0001FFFFFFFC0000FFFF80001
310
FFFFC0000FFFF80001FFFF0003FFFFFFFFF0001FFFFC0003F000F0000FFFF000
310
07FE0007FFF800007FFF0001FF80007FE0001FFFE00007FF0000FFFE00007FF8
310
000001FFFE0000007FFFFFF0001FFFFFFFC00003FFE00001FFFFC00003FFE000
310
01FFFF0003FFFFFFFFF8000FFFF80003F000F00003FFC00007FC0007FFF80000
310
7FFF8001FF80007FF00007FF80000FFF00007FF80000FFF8000001FFFE000000
310
7F80000000000001FFE000003E000003FFFFE000003E000003FFFF0003FFFFFF
310
FFF80003FFE00007F000F800000000000FFC0007FFF800007FFF8001FF80007F
310
F000000000000FFF000000000000FFF8000001FFFE0000007F80000000000001
310
FFF0000000000007FFFFF0000000000007FFFF0003FFFFFFFFFC00007E000007
310
F000F800000000000FFC0007FFF80000FFFF8000FF80007FF800000000001FFF
310
800000000001FFF8000001FFFE0000007F80000000000001FFF800000000000F
310
FFFFF800000000000FFFFF0003FFFFFFFFFC00000000000FF000FC0000000000
310
1FFC0007FFFC0000FFFF8000FF80007FF800000000003FFFC00000000001FFF8
310
000001FFFE0000007F80000000000001FFF800000000000FFFFFF80000000000
310
0FFFFF0003FFFFFFFFFE00000000001FF000FE00000000003FF8000FFFFC0000
310
FFFF8000FF80007FFC00000000003FFFC00000000003FFF8000001FFFE000000
310
7F80000000000001FFFC00000000001FFFFFFC00000000001FFFFF0003FFFFFF
310
FFFF00000000001FF000FF00000000003FF8000FFFFC0000FFFFC000FF80007F
310
FE00000000007FFFE00000000007FFF8000001FFFE0000007F80000000000001
310
FFFE00000000003FFFFFFE00000000003FFFFF0003FFFFFFFFFF80000000003F
310
F000FF80000000007FF8000FFFFC0001FFFFC0007F80007FFF0000000000FFFF
310
F0000000000FFFF800000000000000007F80000000000001FFFF8000000000FF
310
FFFFFF8000000000FFFFFF0003FFFFFFFFFFC0000000007FF000FFC000000000
310
FFF8000FFFFE0001FFFFC0007F80007FFF8000000001FFFFF8000000001FFFF8
310
00000000000000007F80000000000001FFFFC000000001FFFFFFFFC000000001
310
FFFFFF0003FFFFFFFFFFE000000000FFF000FFE000000003FFF0001FFFFE0001
310
FFFFC0007F80007FFFC000000007FFFFFE000000003FFFF80000000000000000
310
7F80000000000001FFFFE000000003FFFFFFFFE000000003FFFFFF0003FFFFFF
310
FFFFF000000003FFF000FFF80000000FFFF0001FFFFE0001FFFFE0007F80007F
310
FFF00000000FFFFFFF00000000FFFFF800000000000000007F80000000000001
310
FFFFF80000000FFFFFFFFFF80000000FFFFFFF0003FFFFFFFFFFFC0000000FFF
310
F000FFFE0000003FFFF0001FFFFE0003FFFFE0003F80007FFFFC0000003FFFFF
310
FFC0000003FFFFF800000000000000007F80000000000001FFFFFE0000003FFF
310
FFFFFFFE0000003FFFFFFF0003FFFFFFFFFFFF0000003FFFF000FFFF800000FF
310
FFF0001FFFFF0003FFFFE0003F80007FFFFF000001FFFFFFFFF800001FFFFFF8
310
00000000000000007F80000000000001FFFFFFC00001FFFFFFFFFFFFC00001FF
310
FFFFFF0003FFFFFFFFFFFFC00000FFFFF000FFFFF8000FFFFFFFFFFFFFFFFFFF
310
FFFFFFFFFFFFFFFFFFFFF0001FFFFFFFFFFF0000FFFFFFF80000000000000000
310
7FFFFFFFFFFFFFFFFFFFFFFC001FFFFFFFFFFFFFFC001FFFFFFFFFFFFFFFFFFF
310
FFFFFFFC001FFFFFF000FFFFFFFFFFFFFFFFFFFFFFFFFFFFFFFFFFFFFFFFFFFF
310
FFFFFFFFFFFFFFFFFFFFFFFFFFFFFFFFFFFFFFFFFFFFFFFFFFFFFFFFFFFFFFFF
310
FFFFFFFFFFFFFFFFFFFFFFFFFFFFFFFFFFFFFFFFFFFFFFFFFFFFFFFFFFFFFFFF
310
F000FFFFFFFFFFFFFFFFFFFFFFFFFFFFFFFFFFFFFFFFFFFFFFFFFFFFFFFFFFFF
310
FFFFFFFFFFFFFFFFFFFFFFFFFFFFFFFFFFFFFFFFFFFFFFFFFFFFFFFFFFFFFFFF
310
FFFFFFFFFFFFFFFFFFFFFFFFFFFFFFFFFFFFFFFFFFFFFFFFF000FFFFFFFFFFFF
310
FFFFFFFFFFFFFFFFFFFFFFFFFFFFFFFFFFFFFFFFFFFFFFFFFFFFFFFFFFFFFFFF
310
FFFFFFFFFFFFFFFFFFFFFFFFFFFFFFFFFFFFFFFFFFFFFFFFFFFFFFFFFFFFFFFF
310
FFFFFFFFFFFFFFFFFFFFFFFFFFFFFFFFF000FFFFFFFFFFFFFFFFFFFFFFFFFFFF
310
FFFFFFFFFFFFFFFFFFFFFFFFFFFFFFFFFFFFFFFFFFFFFFFFFFFFFFFFFFFFFFFF
310
FFFFFFFFFFFFFFFFFFFFFFFFFFFFFFFFFFFFFFFFFFFFFFFFFFFFFFFFFFFFFFFF
310
FFFFFFFFFFFFFFFFF000FFFFFFFFFFFFFFFFFFFFFFFFFFFFFFFFFFFFFFFFFFFF
310
FFFFFFFFFFFFFFFFFFFFFFFFFFFFFFFFFFFFFFFFFFFFFFFFFFFFFFFFFFFFFFFF
310
FFFFFFFFFFFFFFFFFFFFFFFFFFFFFFFFFFFFFFFFFFFFFFFFFFFFFFFFFFFFFFFF
310
F000FFFFFFFFFFFFFFFFFFFFFFFFFFFFFFFFFFFFFFFFFFFFFFFFFFFFFFFFFFFF
310
FFFFFFFFFFFFFFFFFFFFFFFFFFFFFFFFFFFFFFFFFFFFFFFFFFFFFFFFFFFFFFFF
310
FFFFFFFFFFFFFFFFFFFFFFFFFFFFFFFFFFFFFFFFFFFFFFFFF000FFFFFFFFFFFF
310
FFFFFFFFFFFFFFFFFFFFFFFFFFFFFFFFFFFFFFFFFFFFFFFFFFFFFFFFFFFFFFFF
310
FFFFFFFFFFFFFFFFFFFFFFFFFFFFFFFFFFFFFFFFFFFFFFFFFFFFFFFFFFFFFFFF
310
FFFFFFFFFFFFFFFFFFFFFFFFFFFFFFFFF000FFFFFFFFFFFFFFFFFFFFFFFFFFFF
310
FFFFFFFFFFFFFFFFFFFFFFFFFFFFFFFFFFFFFFFFFFFFFFFFFFFFFFFFFFFFFFFF
310
FFFFFFFFFFFFFFFFFFFFFFFFFFFFFFFFFFFFFFFFFFFFFFFFFFFFFFFFFFFFFFFF
310
FFFFFFFFFFFFFFFFF000FFFFFFFFFFFFFFFFFFFFFFFFFFFFFFFFFFFFFFFFFFFF
310
FFFFFFFFFFFFFFFFFFFFFFFFFFFFFFFFFFFFFFFFFFFFFFFFFFFFFFFFFFFFFFFF
310
FFFFFFFFFFFFFFFFFFFFFFFFFFFFFFFFFFFFFFFFFFFFFFFFFFFFFFFFFFFFFFFF
310
F000FFFFFFFFFFFFFFFFFFFFFFFFFFFFFFFFFFFFFFFFFFFFFFFFFFFFFFFFFFFF
310
FFFFFFFFFFFFFFFFFFFFFFFFFFFFFFFFFFFFFFFFFFFFFFFFFFFFFFFFFFFFFFFF
310
FFFFFFFFFFFFFFFFFFFFFFFFFFFFFFFFFFFFFFFFFFFFFFFFF000FFFFFFFFFFFF
310
FFFFFFFFFFFFFFFFFFFFFFFFFFFFFFFFFFFFFFFFFFFFFFFFFFFFFFFFFFFFFFFF
310
FFFFFFFFFFFFFFFFFFFFFFFFFFFFFFFFFFFFFFFFFFFFFFFFFFFFFFFFFFFFFFFF
310
FFFFFFFFFFFFFFFFFFFFFFFFFFFFFFFFF000FFFFFFFFFFFFFFFFFFFFFFFFFFFF
310
FFFFFFFFFFFFFFFFFFFFFFFFFFFFFFFFFFFFFFFFFFFFFFFFFFFFFFFFFFFFFFFF
310
FFFFFFFFFFFFFFFFFFFFFFFFFFFFFFFFFFFFFFFFFFFFFFFFFFFFFFFFFFFFFFFF
310
FFFFFFFFFFFFFFFFF000FFFFFFFFFFFFFFFFFFFFFFFFFFFFFFFFFFFFFFFFFFFF
310
FFFFFFFFFFFFFFFFFFFFFFFFFFFFFFFFFFFFFFFFFFFFFFFFFFFFFFFFFFFFFFFF
310
FFFFFFFFFFFFFFFFFFFFFFFFFFFFFFFFFFFFFFFFFFFFFFFFFFFFFFFFFFFFFFFF
310
F000FFFFFFFFFFFFFFFFFFFFFFFFFFFFFFFFFFFFFFFFFFFFFFFFFFFFFFFFFFFF
310
FFFFFFFFFFFFFFFFFFFFFFFFFFFFFFFFFFFFFFFFFFFFFFFFFFFFFFFFFFFFFFFF
310
FFFFFFFFFFFFFFFFFFFFFFFFFFFFFFFFFFFFFFFFFFFFFFFFF000FFFFFFFFFFFF
310
FFFFFFFFFFFFFFFFFFFFFFFFFFFFFFFFFFFFFFFFFFFFFFFFFFFFFFFFFFFFFFFF
310
FFFFFFFFFFFFFFFFFFFFFFFFFFFFFFFFFFFFFFFFFFFFFFFFFFFFFFFFFFFFFFFF
310
FFFFFFFFFFFFFFFFFFFFFFFFFFFFFFFFF000FFFFFFFFFFFFFFFFFFFFFFFFFFFF
310
FFFFFFFFFFFFFFFFFFFFFFFFFFFFFFFFFFFFFFFFFFFFFFFFFFFFFFFFFFFFFFFF
310
FFFFFFFFFFFFFFFFFFFFFFFFFFFFFFFFFFFFFFFFFFFFFFFFFFFFFFFFFFFFFFFF
310
FFFFFFFFFFFFFFFFF000FFFFFFFFFFFFFFFFFFFFFFFFFFFFFFFFFFFFFFFFFFFF
310
FFFFFFFFFFFFFFFFFFFFFFFFFFFFFFFFFFFFFFFFFFFFFFFFFFFFFFFFFFFFFFFF
310
FFFFFFFFFFFFFFFFFFFFFFFFFFFFFFFFFFFFFFFFFFFFFFFFFFFFFFFFFFFFFFFF
310
F000FFFFFFFFFFFFFFFFFFFFFFFFFFFFFFFFFFFFFFFFFFFFFFFFFFFFFFFFFFFF
310
FFFFFFFFFFFFFFFFFFFFFFFFFFFFFFFFFFFFFFFFFFFFFFFFFFFFFFFFFFFFFFFF
310
FFFFFFFFFFFFFFFFFFFFFFFFFFFFFFFFFFFFFFFFFFFFFFFFF000FFFFFFFFFFFF
310
FFFFFFFFFFFFFFFFFFFFFFFFFFFFFFFFFFFFFFFFFFFFFFFFFFFFFFFFFFFFFFFF
310
FFFFFFFFFFFFFFFFFFFFFFFFFFFFFFFFFFFFFFFFFFFFFFFFFFFFFFFFFFFFFFFF
310
FFFFFFFFFFFFFFFFFFFFFFFFFFFFFFFFF000FFFFFFFFFFFFFFFFFFFFFFFFFFFF
310
FFFFFFFFFFFFFFFFFFFFFFFFFFFFFFFFFFFFFFFFFFFFFFFFFFFFFFFFFFFFFFFF
310
FFFFFFFFFFFFFFFFFFFFFFFFFFFFFFFFFFFFFFFFFFFFFFFFFFFFFFFFFFFFFFFF
310
FFFFFFFFFFFFFFFFF000FFFFFFFFFFFFFFFFFFFFFFFFFFFFFFFFFFFFFFFFFFFF
310
FFFFFFFFFFFFFFFFFFFFFFFFFFFFFFFFFFFFFFFFFFFFFFFFFFFFFFFFFFFFFFFF
310
FFFFFFFFFFFFFFFFFFFFFFFFFFFFFFFFFFFFFFFFFFFFFFFFFFFFFFFFFFFFFFFF
310
F000FFFFFFFFFFFFFFFFFFFFFFFFFFFFFFFFFFFFFFFFFFFFFFFFFFFFFFFFFFFF
310
FFFFFFFFFFFFFFFFFFFFFFFFFFFFFFFFFFFFFFFFFFFFFFFFFFFFFFFFFFFFFFFF
310
FFFFFFFFFFFFFFFFFFFFFFFFFFFFFFFFFFFFFFFFFFFFFFFFF000FFFFFFFFFFFF
310
FFFFFFFFFFFFFFFFFFFFFFFFFFFFFFFFFFFFFFFFFFFFFFFFFFFFFFFFFFFFFFFF
310
FFFFFFFFFFFFFFFFFFFFFFFFFFFFFFFFFFFFFFFFFFFFFFFFFFFFFFFFFFFFFFFF
310
FFFFFFFFFFFFFFFFFFFFFFFFFFFFFFFFF0000000000000000000000000000000
310
0000000000000000000000000000000000000000000000000000000000000000
310
0000000000000000000000000000000000000000000000000000000000000000
310
0000000000000000000000000000000000000000000000000000000000000000
310
0000000000000000000000000000000000000000000000000000000000000000
310
0000000000000000000000000000000000000000000000000000000000000000
310
0000000000000000000000000000000000000000000000000000000000000000
310
0000000000000000000000000000000000000000000000000000000000000000
310
0000000000000000000000000000000000000000000000000000000000000000
310
0000000000000000000000000000000000000000000000000000000000000000
310
0000000000000000000000000000000000000000000000000000000000000000
310
0000000000000000000000000000000000000000000000000000000000000000
310
0000000000000000000000000000000000000000000000000000000000000000
310
0000000000000000000000000000000000000000000000000000000000000000
310
0000000000000000000000000000000000000000000000000000000000000000
310
0000000000000000000000000000000000000000000000000000000000000000
  1
OLE
  0
ENDSEC
  0
SECTION
  2
OBJECTS
  0
DICTIONARY
  5
C
330
0
100
AcDbDictionary
281
     1
  3
ACAD_GROUP
350
D
  3
ACAD_LAYOUT
350
1A
  3
ACAD_MLINESTYLE
350
17
  3
ACAD_PLOTSETTINGS
350
19
  3
ACAD_PLOTSTYLENAME
350
E
  3
ACAD_SCALELIST
350
47
  0
DICTIONARY
  5
D
102
{ACAD_REACTORS
330
C
102
}
330
C
100
AcDbDictionary
281
     1
  0
DICTIONARY
  5
1A
102
{ACAD_REACTORS
330
C
102
}
330
C
100
AcDbDictionary
281
     1
  3
Layout1
350
1E
  3
Layout2
350
26
  3
Model
350
22
  0
DICTIONARY
  5
17
102
{ACAD_REACTORS
330
C
102
}
330
C
100
AcDbDictionary
281
     1
  3
Standard
350
18
  0
DICTIONARY
  5
19
102
{ACAD_REACTORS
330
C
102
}
330
C
100
AcDbDictionary
281
     1
  0
ACDBDICTIONARYWDFLT
  5
E
102
{ACAD_REACTORS
330
C
102
}
330
C
100
AcDbDictionary
281
     1
  3
Normal
350
F
100
AcDbDictionaryWithDefault
340
F
  0
DICTIONARY
  5
47
102
{ACAD_REACTORS
330
C
102
}
330
C
100
AcDbDictionary
281
     1
  3
A0
350
48
  3
A1
350
49
  3
A2
350
4A
  3
A3
350
4B
  3
A4
350
4C
  3
A5
350
4D
  3
A6
350
4E
  3
A7
350
4F
  3
A8
350
50
  3
A9
350
51
  3
B0
350
52
  3
B1
350
53
  3
B2
350
54
  3
B3
350
55
  3
B4
350
56
  3
B5
350
57
  3
B6
350
58
  3
B7
350
59
  3
B8
350
5A
  3
B9
350
5B
  3
C0
350
5C
  3
C1
350
5D
  3
C2
350
5E
  3
C3
350
5F
  3
C4
350
60
  3
C5
350
61
  3
C6
350
62
  3
C7
350
63
  3
C8
350
64
  3
C9
350
65
  3
D0
350
66
  3
D1
350
67
  3
D2
350
68
  0
LAYOUT
  5
1E
102
{ACAD_REACTORS
330
1A
102
}
330
1A
100
AcDbPlotSettings
  1

  2
none_device
  4

  6

 40
0.0
 41
0.0
 42
0.0
 43
0.0
 44
0.0
 45
0.0
 46
0.0
 47
0.0
 48
0.0
 49
0.0
140
0.0
141
0.0
142
1.0
143
1.0
 70
   688
 72
     1
 73
     0
 74
     5
  7

 75
    16
147
1.0
148
0.0
149
0.0
100
AcDbLayout
  1
Layout1
 70
     1
 71
     1
 10
0.0
 20
0.0
 11
420.0
 21
297.0
 12
0.0
 22
0.0
 32
0.0
 14
1.0000000000E+20
 24
1.0000000000E+20
 34
1.0000000000E+20
 15
-1.0000000000E+20
 25
-1.0000000000E+20
 35
-1.0000000000E+20
146
0.0
 13
0.0
 23
0.0
 33
0.0
 16
1.0
 26
0.0
 36
0.0
 17
0.0
 27
1.0
 37
0.0
 76
     0
330
1B
  0
LAYOUT
  5
26
102
{ACAD_REACTORS
330
1A
102
}
330
1A
100
AcDbPlotSettings
  1

  2
none_device
  4

  6

 40
0.0
 41
0.0
 42
0.0
 43
0.0
 44
0.0
 45
0.0
 46
0.0
 47
0.0
 48
0.0
 49
0.0
140
0.0
141
0.0
142
1.0
143
1.0
 70
   688
 72
     1
 73
     0
 74
     5
  7

 75
    16
147
1.0
148
0.0
149
0.0
100
AcDbLayout
  1
Layout2
 70
     1
 71
     2
 10
0.0
 20
0.0
 11
0.0
 21
0.0
 12
0.0
 22
0.0
 32
0.0
 14
0.0
 24
0.0
 34
0.0
 15
0.0
 25
0.0
 35
0.0
146
0.0
 13
0.0
 23
0.0
 33
0.0
 16
1.0
 26
0.0
 36
0.0
 17
0.0
 27
1.0
 37
0.0
 76
     0
330
23
  0
LAYOUT
  5
22
102
{ACAD_REACTORS
330
1A
102
}
330
1A
100
AcDbPlotSettings
  1

  2
none_device
  4
Letter_(8.50_x_11.00_Inches)
  6

 40
6.35
 41
6.35
 42
6.35000508
 43
6.35000508
 44
215.9
 45
279.4
 46
0.0
 47
0.0
 48
0.0
 49
0.0
140
0.0
141
0.0
142
1.0
143
1.0
 70
  1712
 72
     1
 73
     0
 74
     0
  7

 75
     0
147
1.0
148
0.0
149
0.0
100
AcDbLayout
  1
Model
 70
     1
 71
     0
 10
0.0
 20
0.0
 11
297.0
 21
210.0
 12
0.0
 22
0.0
 32
0.0
 14
0.0
 24
0.0
 34
0.0
 15
297.0
 25
210.0
 35
0.0
146
0.0
 13
0.0
 23
0.0
 33
0.0
 16
1.0
 26
0.0
 36
0.0
 17
0.0
 27
1.0
 37
0.0
 76
     0
330
1F
331
29
  0
MLINESTYLE
  5
18
102
{ACAD_REACTORS
330
17
102
}
330
17
100
AcDbMlineStyle
  2
Standard
 70
     0
  3

 62
   256
 51
90.0
 52
90.0
 71
     2
 49
0.5
 62
   256
  6
BYLAYER
 49
-0.5
 62
   256
  6
BYLAYER
  0
ACDBPLACEHOLDER
  5
F
102
{ACAD_REACTORS
330
E
102
}
330
E
  0
SCALE
  5
48
102
{ACAD_REACTORS
330
47
102
}
330
47
100
AcDbScale
 70
     0
300
1:1
140
1.0
141
1.0
290
     1
  0
SCALE
  5
49
102
{ACAD_REACTORS
330
47
102
}
330
47
100
AcDbScale
 70
     0
300
1:2
140
1.0
141
2.0
290
     0
  0
SCALE
  5
4A
102
{ACAD_REACTORS
330
47
102
}
330
47
100
AcDbScale
 70
     0
300
1:4
140
1.0
141
4.0
290
     0
  0
SCALE
  5
4B
102
{ACAD_REACTORS
330
47
102
}
330
47
100
AcDbScale
 70
     0
300
1:5
140
1.0
141
5.0
290
     0
  0
SCALE
  5
4C
102
{ACAD_REACTORS
330
47
102
}
330
47
100
AcDbScale
 70
     0
300
1:8
140
1.0
141
8.0
290
     0
  0
SCALE
  5
4D
102
{ACAD_REACTORS
330
47
102
}
330
47
100
AcDbScale
 70
     0
300
1:10
140
1.0
141
10.0
290
     0
  0
SCALE
  5
4E
102
{ACAD_REACTORS
330
47
102
}
330
47
100
AcDbScale
 70
     0
300
1:16
140
1.0
141
16.0
290
     0
  0
SCALE
  5
4F
102
{ACAD_REACTORS
330
47
102
}
330
47
100
AcDbScale
 70
     0
300
1:20
140
1.0
141
20.0
290
     0
  0
SCALE
  5
50
102
{ACAD_REACTORS
330
47
102
}
330
47
100
AcDbScale
 70
     0
300
1:30
140
1.0
141
30.0
290
     0
  0
SCALE
  5
51
102
{ACAD_REACTORS
330
47
102
}
330
47
100
AcDbScale
 70
     0
300
1:40
140
1.0
141
40.0
290
     0
  0
SCALE
  5
52
102
{ACAD_REACTORS
330
47
102
}
330
47
100
AcDbScale
 70
     0
300
1:50
140
1.0
141
50.0
290
     0
  0
SCALE
  5
53
102
{ACAD_REACTORS
330
47
102
}
330
47
100
AcDbScale
 70
     0
300
1:100
140
1.0
141
100.0
290
     0
  0
SCALE
  5
54
102
{ACAD_REACTORS
330
47
102
}
330
47
100
AcDbScale
 70
     0
300
2:1
140
2.0
141
1.0
290
     0
  0
SCALE
  5
55
102
{ACAD_REACTORS
330
47
102
}
330
47
100
AcDbScale
 70
     0
300
4:1
140
4.0
141
1.0
290
     0
  0
SCALE
  5
56
102
{ACAD_REACTORS
330
47
102
}
330
47
100
AcDbScale
 70
     0
300
8:1
140
8.0
141
1.0
290
     0
  0
SCALE
  5
57
102
{ACAD_REACTORS
330
47
102
}
330
47
100
AcDbScale
 70
     0
300
10:1
140
10.0
141
1.0
290
     0
  0
SCALE
  5
58
102
{ACAD_REACTORS
330
47
102
}
330
47
100
AcDbScale
 70
     0
300
100:1
140
100.0
141
1.0
290
     0
  0
SCALE
  5
59
102
{ACAD_REACTORS
330
47
102
}
330
47
100
AcDbScale
 70
     0
300
1/128" = 1'-0"
140
0.0078125
141
12.0
290
     0
  0
SCALE
  5
5A
102
{ACAD_REACTORS
330
47
102
}
330
47
100
AcDbScale
 70
     0
300
1/64" = 1'-0"
140
0.015625
141
12.0
290
     0
  0
SCALE
  5
5B
102
{ACAD_REACTORS
330
47
102
}
330
47
100
AcDbScale
 70
     0
300
1/32" = 1'-0"
140
0.03125
141
12.0
290
     0
  0
SCALE
  5
5C
102
{ACAD_REACTORS
330
47
102
}
330
47
100
AcDbScale
 70
     0
300
1/16" = 1'-0"
140
0.0625
141
12.0
290
     0
  0
SCALE
  5
5D
102
{ACAD_REACTORS
330
47
102
}
330
47
100
AcDbScale
 70
     0
300
3/32" = 1'-0"
140
0.09375
141
12.0
290
     0
  0
SCALE
  5
5E
102
{ACAD_REACTORS
330
47
102
}
330
47
100
AcDbScale
 70
     0
300
1/8" = 1'-0"
140
0.125
141
12.0
290
     0
  0
SCALE
  5
5F
102
{ACAD_REACTORS
330
47
102
}
330
47
100
AcDbScale
 70
     0
300
3/16" = 1'-0"
140
0.1875
141
12.0
290
     0
  0
SCALE
  5
60
102
{ACAD_REACTORS
330
47
102
}
330
47
100
AcDbScale
 70
     0
300
1/4" = 1'-0"
140
0.25
141
12.0
290
     0
  0
SCALE
  5
61
102
{ACAD_REACTORS
330
47
102
}
330
47
100
AcDbScale
 70
     0
300
3/8" = 1'-0"
140
0.375
141
12.0
290
     0
  0
SCALE
  5
62
102
{ACAD_REACTORS
330
47
102
}
330
47
100
AcDbScale
 70
     0
300
1/2" = 1'-0"
140
0.5
141
12.0
290
     0
  0
SCALE
  5
63
102
{ACAD_REACTORS
330
47
102
}
330
47
100
AcDbScale
 70
     0
300
3/4" = 1'-0"
140
0.75
141
12.0
290
     0
  0
SCALE
  5
64
102
{ACAD_REACTORS
330
47
102
}
330
47
100
AcDbScale
 70
     0
300
1" = 1'-0"
140
1.0
141
12.0
290
     0
  0
SCALE
  5
65
102
{ACAD_REACTORS
330
47
102
}
330
47
100
AcDbScale
 70
     0
300
1-1/2" = 1'-0"
140
1.5
141
12.0
290
     0
  0
SCALE
  5
66
102
{ACAD_REACTORS
330
47
102
}
330
47
100
AcDbScale
 70
     0
300
3" = 1'-0"
140
3.0
141
12.0
290
     0
  0
SCALE
  5
67
102
{ACAD_REACTORS
330
47
102
}
330
47
100
AcDbScale
 70
     0
300
6" = 1'-0"
140
6.0
141
12.0
290
     0
  0
SCALE
  5
68
102
{ACAD_REACTORS
330
47
102
}
330
47
100
AcDbScale
 70
     0
300
1'-0" = 1'-0"
140
12.0
141
12.0
290
     0
  0
ENDSEC
  0
EOF
