  0
SECTION
  2
HEADER
  9
$ACADVER
  1
AC1015
  9
$ACADMAINTVER
 70
     6
  9
$DWGCODEPAGE
  3
ANSI_1252
  9
$INSBASE
 10
0.0
 20
0.0
 30
0.0
  9
$EXTMIN
 10
0.0
 20
0.0
 30
0.0
  9
$EXTMAX
 10
297.0
 20
210.0
 30
0.0
  9
$LIMMIN
 10
0.0
 20
0.0
  9
$LIMMAX
 10
297.0
 20
210.0
  9
$ORTHOMODE
 70
     0
  9
$REGENMODE
 70
     1
  9
$FILLMODE
 70
     1
  9
$QTEXTMODE
 70
     0
  9
$MIRRTEXT
 70
     1
  9
$LTSCALE
 40
1.0
  9
$ATTMODE
 70
     1
  9
$TEXTSIZE
 40
2.0
  9
$TRACEWID
 40
1.0
  9
$TEXTSTYLE
  7
Standard
  9
$CLAYER
  8
0
  9
$CELTYPE
  6
ByLayer
  9
$CECOLOR
 62
   256
  9
$CELTSCALE
 40
1.0
  9
$DISPSILH
 70
     0
  9
$DIMSCALE
 40
1.0
  9
$DIMASZ
 40
3.0
  9
$DIMEXO
 40
0.0
  9
$DIMDLI
 40
3.75
  9
$DIMRND
 40
0.0
  9
$DIMDLE
 40
0.0
  9
$DIMEXE
 40
1.0
  9
$DIMTP
 40
0.0
  9
$DIMTM
 40
0.0
  9
$DIMTXT
 40
2.0
  9
$DIMCEN
 40
2.5
  9
$DIMTSZ
 40
0.0
  9
$DIMTOL
 70
     0
  9
$DIMLIM
 70
     0
  9
$DIMTIH
 70
     1
  9
$DIMTOH
 70
     1
  9
$DIMSE1
 70
     0
  9
$DIMSE2
 70
     0
  9
$DIMTAD
 70
     1
  9
$DIMZIN
 70
     0
  9
$DIMBLK
  1

  9
$DIMASO
 70
     1
  9
$DIMSHO
 70
     1
  9
$DIMPOST
  1

  9
$DIMAPOST
  1

  9
$DIMALT
 70
     0
  9
$DIMALTD
 70
     3
  9
$DIMALTF
 40
0.0393700787
  9
$DIMLFAC
 40
1.0
  9
$DIMTOFL
 70
     1
  9
$DIMTVP
 40
0.0
  9
$DIMTIX
 70
     0
  9
$DIMSOXD
 70
     0
  9
$DIMSAH
 70
     0
  9
$DIMBLK1
  1

  9
$DIMBLK2
  1

  9
$DIMSTYLE
  2
ISO-25
  9
$DIMCLRD
 70
     0
  9
$DIMCLRE
 70
     0
  9
$DIMCLRT
 70
     0
  9
$DIMTFAC
 40
1.0
  9
$DIMGAP
 40
1.524
  9
$DIMJUST
 70
     0
  9
$DIMSD1
 70
     0
  9
$DIMSD2
 70
     0
  9
$DIMTOLJ
 70
     0
  9
$DIMTZIN
 70
     0
  9
$DIMALTZ
 70
     0
  9
$DIMALTTZ
 70
     0
  9
$DIMUPT
 70
     0
  9
$DIMDEC
 70
     2
  9
$DIMTDEC
 70
     3
  9
$DIMALTU
 70
     2
  9
$DIMALTTD
 70
     3
  9
$DIMTXSTY
  7
Standard
  9
$DIMAUNIT
 70
     0
  9
$DIMADEC
 70
     2
  9
$DIMALTRND
 40
0.0
  9
$DIMAZIN
 70
     0
  9
$DIMDSEP
 70
    44
  9
$DIMATFIT
 70
     3
  9
$DIMFRAC
 70
     0
  9
$DIMLDRBLK
  1

  9
$DIMLUNIT
 70
     2
  9
$DIMLWD
 70
    -2
  9
$DIMLWE
 70
    -2
  9
$DIMTMOVE
 70
     0
  9
$LUNITS
 70
     2
  9
$LUPREC
 70
     2
  9
$SKETCHINC
 40
1.0
  9
$FILLETRAD
 40
10.0
  9
$AUNITS
 70
     0
  9
$AUPREC
 70
     2
  9
$MENU
  1
.
  9
$ELEVATION
 40
0.0
  9
$PELEVATION
 40
0.0
  9
$THICKNESS
 40
0.0
  9
$LIMCHECK
 70
     0
  9
$CHAMFERA
 40
0.0
  9
$CHAMFERB
 40
0.0
  9
$CHAMFERC
 40
0.0
  9
$CHAMFERD
 40
0.0
  9
$SKPOLY
 70
     0
  9
$TDCREATE
 40
2457675.620582211
  9
$TDUCREATE
 40
2457675.537248877
  9
$TDUPDATE
 40
2457675.620583403
  9
$TDUUPDATE
 40
2457675.537250069
  9
$TDINDWG
 40
0.0000000116
  9
$TDUSRTIMER
 40
0.0000000116
  9
$USRTIMER
 70
     1
  9
$ANGBASE
 50
0.0
  9
$ANGDIR
 70
     0
  9
$PDMODE
 70
     0
  9
$PDSIZE
 40
-1.0
  9
$PLINEWID
 40
0.0
  9
$SPLFRAME
 70
     0
  9
$SPLINETYPE
 70
     6
  9
$SPLINESEGS
 70
     8
  9
$HANDSEED
  5
214
  9
$SURFTAB1
 70
     6
  9
$SURFTAB2
 70
     6
  9
$SURFTYPE
 70
     6
  9
$SURFU
 70
     6
  9
$SURFV
 70
     6
  9
$UCSBASE
  2

  9
$UCSNAME
  2

  9
$UCSORG
 10
0.0
 20
0.0
 30
0.0
  9
$UCSXDIR
 10
1.0
 20
0.0
 30
0.0
  9
$UCSYDIR
 10
0.0
 20
1.0
 30
0.0
  9
$UCSORTHOREF
  2

  9
$UCSORTHOVIEW
 70
     0
  9
$UCSORGTOP
 10
0.0
 20
0.0
 30
0.0
  9
$UCSORGBOTTOM
 10
0.0
 20
0.0
 30
0.0
  9
$UCSORGLEFT
 10
0.0
 20
0.0
 30
0.0
  9
$UCSORGRIGHT
 10
0.0
 20
0.0
 30
0.0
  9
$UCSORGFRONT
 10
0.0
 20
0.0
 30
0.0
  9
$UCSORGBACK
 10
0.0
 20
0.0
 30
0.0
  9
$PUCSBASE
  2

  9
$PUCSNAME
  2

  9
$PUCSORG
 10
0.0
 20
0.0
 30
0.0
  9
$PUCSXDIR
 10
1.0
 20
0.0
 30
0.0
  9
$PUCSYDIR
 10
0.0
 20
1.0
 30
0.0
  9
$PUCSORTHOREF
  2

  9
$PUCSORTHOVIEW
 70
     0
  9
$PUCSORGTOP
 10
0.0
 20
0.0
 30
0.0
  9
$PUCSORGBOTTOM
 10
0.0
 20
0.0
 30
0.0
  9
$PUCSORGLEFT
 10
0.0
 20
0.0
 30
0.0
  9
$PUCSORGRIGHT
 10
0.0
 20
0.0
 30
0.0
  9
$PUCSORGFRONT
 10
0.0
 20
0.0
 30
0.0
  9
$PUCSORGBACK
 10
0.0
 20
0.0
 30
0.0
  9
$USERI1
 70
     0
  9
$USERI2
 70
     0
  9
$USERI3
 70
     0
  9
$USERI4
 70
     0
  9
$USERI5
 70
     0
  9
$USERR1
 40
0.0
  9
$USERR2
 40
0.0
  9
$USERR3
 40
0.0
  9
$USERR4
 40
0.0
  9
$USERR5
 40
0.0
  9
$WORLDVIEW
 70
     1
  9
$SHADEDGE
 70
     3
  9
$SHADEDIF
 70
    70
  9
$TILEMODE
 70
     1
  9
$MAXACTVP
 70
    64
  9
$PINSBASE
 10
0.0
 20
0.0
 30
0.0
  9
$PLIMCHECK
 70
     0
  9
$PEXTMIN
 10
1.0000000000E+20
 20
1.0000000000E+20
 30
1.0000000000E+20
  9
$PEXTMAX
 10
-1.0000000000E+20
 20
-1.0000000000E+20
 30
-1.0000000000E+20
  9
$PLIMMIN
 10
0.0
 20
0.0
  9
$PLIMMAX
 10
420.0
 20
297.0
  9
$UNITMODE
 70
     0
  9
$VISRETAIN
 70
     1
  9
$PLINEGEN
 70
     0
  9
$PSLTSCALE
 70
     1
  9
$TREEDEPTH
 70
  3020
  9
$CMLSTYLE
  2
Standard
  9
$CMLJUST
 70
     0
  9
$CMLSCALE
 40
20.0
  9
$PROXYGRAPHICS
 70
     1
  9
$MEASUREMENT
 70
     1
  9
$CELWEIGHT
370
    -1
  9
$ENDCAPS
280
     0
  9
$JOINSTYLE
280
     0
  9
$LWDISPLAY
290
     1
  9
$INSUNITS
 70
     4
  9
$HYPERLINKBASE
  1

  9
$STYLESHEET
  1

  9
$XEDIT
290
     1
  9
$CEPSNTYPE
380
     0
  9
$PSTYLEMODE
290
     1
  9
$FINGERPRINTGUID
  2
{B16AED19-DED4-4673-A842-047AFB65E3F3}
  9
$VERSIONGUID
  2
{FAEB1C32-E019-11D5-929B-00C0DF256EC4}
  9
$EXTNAMES
290
     1
  9
$PSVPSCALE
 40
0.0
  9
$OLESTARTUP
290
     0
  0
ENDSEC
  0
SECTION
  2
CLASSES
  0
CLASS
  1
ACDBDICTIONARYWDFLT
  2
AcDbDictionaryWithDefault
  3
ObjectDBX Classes
 90
        0
280
     0
281
     0
  0
CLASS
  1
VISUALSTYLE
  2
AcDbVisualStyle
  3
ObjectDBX Classes
 90
     4095
280
     0
281
     0
  0
CLASS
  1
MATERIAL
  2
AcDbMaterial
  3
ObjectDBX Classes
 90
     1153
280
     0
281
     0
  0
CLASS
  1
SCALE
  2
AcDbScale
  3
ObjectDBX Classes
 90
     1153
280
     0
281
     0
  0
CLASS
  1
TABLESTYLE
  2
AcDbTableStyle
  3
ObjectDBX Classes
 90
     4095
280
     0
281
     0
  0
CLASS
  1
MLEADERSTYLE
  2
AcDbMLeaderStyle
  3
ACDB_MLEADERSTYLE_CLASS
 90
     4095
280
     0
281
     0
  0
CLASS
  1
SUN
  2
AcDbSun
  3
SCENEOE
 90
     1153
280
     0
281
     0
  0
CLASS
  1
ACDBPLACEHOLDER
  2
AcDbPlaceHolder
  3
ObjectDBX Classes
 90
        0
280
     0
281
     0
  0
CLASS
  1
LAYOUT
  2
AcDbLayout
  3
ObjectDBX Classes
 90
        0
280
     0
281
     0
  0
ENDSEC
  0
SECTION
  2
TABLES
  0
TABLE
  2
VPORT
  5
8
330
0
100
AcDbSymbolTable
 70
     1
  0
VPORT
  5
29
330
8
100
AcDbSymbolTableRecord
100
AcDbViewportTableRecord
  2
*Active
 70
     0
 10
0.0
 20
0.0
 11
1.0
 21
1.0
 12
148.5
 22
105.0
 13
0.0
 23
0.0
 14
10.0
 24
10.0
 15
10.0
 25
10.0
 16
0.0
 26
0.0
 36
1.0
 17
0.0
 27
0.0
 37
0.0
 40
210.0
 41
1.4142857143
 42
50.0
 43
0.0
 44
0.0
 50
0.0
 51
0.0
 71
     0
 72
  2000
 73
     1
 74
     3
 75
     0
 76
     0
 77
     0
 78
     0
281
     0
 65
     1
110
0.0
120
0.0
130
0.0
111
1.0
121
0.0
131
0.0
112
0.0
122
1.0
132
0.0
 79
     0
146
0.0
  0
ENDTAB
  0
TABLE
  2
LTYPE
  5
5
330
0
100
AcDbSymbolTable
 70
     6
  0
LTYPE
  5
14
330
5
100
AcDbSymbolTableRecord
100
AcDbLinetypeTableRecord
  2
ByBlock
 70
     0
  3

 72
    65
 73
     0
 40
0.0
  0
LTYPE
  5
15
330
5
100
AcDbSymbolTableRecord
100
AcDbLinetypeTableRecord
  2
ByLayer
 70
     0
  3

 72
    65
 73
     0
 40
0.0
  0
LTYPE
  5
16
330
5
100
AcDbSymbolTableRecord
100
AcDbLinetypeTableRecord
  2
Continuous
 70
     0
  3
Solid line
 72
    65
 73
     0
 40
0.0
  0
LTYPE
  5
6E
330
5
100
AcDbSymbolTableRecord
100
AcDbLinetypeTableRecord
  2
HIDDEN
 70
     0
  3
Hidden __ __ __ __ __ __ __ __ __ __ __ __ __ __
 72
    65
 73
     2
 40
1.905
 49
1.27
 74
     0
 49
-0.635
 74
     0
  0
LTYPE
  5
6F
330
5
100
AcDbSymbolTableRecord
100
AcDbLinetypeTableRecord
  2
PHANTOM
 70
     0
  3
Phantom ______  __  __  ______  __  __  ______
 72
    65
 73
     6
 40
12.7
 49
6.35
 74
     0
 49
-1.27
 74
     0
 49
1.27
 74
     0
 49
-1.27
 74
     0
 49
1.27
 74
     0
 49
-1.27
 74
     0
  0
LTYPE
  5
70
330
5
100
AcDbSymbolTableRecord
100
AcDbLinetypeTableRecord
  2
CENTER
 70
     0
  3
Center ____ _ ____ _ ____ _ ____ _ ____ _ ____
 72
    65
 73
     4
 40
10.16
 49
6.35
 74
     0
 49
-1.27
 74
     0
 49
1.27
 74
     0
 49
-1.27
 74
     0
  0
LTYPE
  5
71
330
5
100
AcDbSymbolTableRecord
100
AcDbLinetypeTableRecord
  2
CENTERX2
 70
     0
  3
Center (2x) ________  __  ________  __  _____
 72
    65
 73
     4
 40
20.32
 49
12.7
 74
     0
 49
-2.54
 74
     0
 49
2.54
 74
     0
 49
-2.54
 74
     0
  0
LTYPE
  5
72
330
5
100
AcDbSymbolTableRecord
100
AcDbLinetypeTableRecord
  2
DOT2
 70
     0
  3
Dot (.5x) ........................................
 72
    65
 73
     2
 40
0.635
 49
0.0
 74
     0
 49
-0.635
 74
     0
  0
ENDTAB
  0
TABLE
  2
LAYER
  5
2
330
0
100
AcDbSymbolTable
 70
     5
  0
LAYER
  5
10
330
2
100
AcDbSymbolTableRecord
100
AcDbLayerTableRecord
  2
0
 70
     0
 62
     7
  6
Continuous
370
    -3
390
F
  0
LAYER
  5
73
330
2
100
AcDbSymbolTableRecord
100
AcDbLayerTableRecord
  2
FORMAT
 70
     0
 62
     7
  6
Continuous
370
    -3
390
F
  0
LAYER
  5
74
330
2
100
AcDbSymbolTableRecord
100
AcDbLayerTableRecord
  2
VERMASSUNG
 70
     0
 62
     7
  6
Continuous
370
    -3
390
F
  0
LAYER
  5
75
330
2
100
AcDbSymbolTableRecord
100
AcDbLayerTableRecord
  2
KOPF_DÜNN
 70
     0
 62
     7
  6
Continuous
370
    -3
390
F
  0
LAYER
  5
76
330
2
100
AcDbSymbolTableRecord
100
AcDbLayerTableRecord
  2
KOPF_DICK
 70
     0
 62
     7
  6
Continuous
370
    15
390
F
  0
ENDTAB
  0
TABLE
  2
STYLE
  5
3
330
0
100
AcDbSymbolTable
 70
     2
  0
STYLE
  5
11
330
3
100
AcDbSymbolTableRecord
100
AcDbTextStyleTableRecord
  2
Standard
 70
     0
 40
0.0
 41
1.0
 50
0.0
 71
     0
 42
2.0
  3
txt
  4

  0
STYLE
  5
77
330
3
100
AcDbSymbolTableRecord
100
AcDbTextStyleTableRecord
  2
SLDTEXTSTYLE0
 70
     0
 40
0.0
 41
0.7
 50
0.0
 71
     0
 42
2.0
  3
TXT
  4

  0
ENDTAB
  0
TABLE
  2
VIEW
  5
6
330
0
100
AcDbSymbolTable
 70
     0
  0
ENDTAB
  0
TABLE
  2
UCS
  5
7
330
0
100
AcDbSymbolTable
 70
     0
  0
ENDTAB
  0
TABLE
  2
APPID
  5
9
330
0
100
AcDbSymbolTable
 70
     1
  0
APPID
  5
12
330
9
100
AcDbSymbolTableRecord
100
AcDbRegAppTableRecord
  2
ACAD
 70
     0
  0
ENDTAB
  0
TABLE
  2
DIMSTYLE
  5
A
330
0
100
AcDbSymbolTable
 70
     2
100
AcDbDimStyleTable
  0
DIMSTYLE
105
27
330
A
100
AcDbSymbolTableRecord
100
AcDbDimStyleTableRecord
  2
ISO-25
 70
     0
 41
2.5
 42
0.625
 43
3.75
 44
1.25
 73
     0
 74
     0
 77
     1
 78
     8
140
2.5
141
2.5
143
0.0393700787
147
0.625
171
     3
172
     1
178
     0
271
     2
272
     2
274
     3
278
    44
283
     0
284
     8
340
11
  0
DIMSTYLE
105
16B
102
{ACAD_REACTORS
330
16A
330
177
330
182
330
18E
330
198
330
1A2
102
}
330
A
100
AcDbSymbolTableRecord
100
AcDbDimStyleTableRecord
  2
SLDDIMSTYLE0
 70
     0
 41
3.0
 44
0.0
 45
0.000000001
 73
     0
 74
     0
 77
     1
 78
    12
 79
     3
140
2.0
147
0.5
173
     1
178
     0
271
     2
272
     3
276
     2
284
    12
340
77
  0
ENDTAB
  0
TABLE
  2
BLOCK_RECORD
  5
1
330
0
100
AcDbSymbolTable
 70
     7
  0
BLOCK_RECORD
  5
1F
330
1
100
AcDbSymbolTableRecord
100
AcDbBlockTableRecord
  2
*Model_Space
340
22
  0
BLOCK_RECORD
  5
1B
330
1
100
AcDbSymbolTableRecord
100
AcDbBlockTableRecord
  2
*Paper_Space
340
1E
  0
BLOCK_RECORD
  5
23
330
1
100
AcDbSymbolTableRecord
100
AcDbBlockTableRecord
  2
*Paper_Space0
340
26
  0
BLOCK_RECORD
  5
16C
330
1
100
AcDbSymbolTableRecord
100
AcDbBlockTableRecord
  2
_D
340
0
  0
BLOCK_RECORD
  5
178
330
1
100
AcDbSymbolTableRecord
100
AcDbBlockTableRecord
  2
_D_1
340
0
  0
BLOCK_RECORD
  5
183
330
1
100
AcDbSymbolTableRecord
100
AcDbBlockTableRecord
  2
_D_2
340
0
  0
BLOCK_RECORD
  5
18F
330
1
100
AcDbSymbolTableRecord
100
AcDbBlockTableRecord
  2
_D_3
340
0
  0
BLOCK_RECORD
  5
199
330
1
100
AcDbSymbolTableRecord
100
AcDbBlockTableRecord
  2
_D_4
340
0
  0
BLOCK_RECORD
  5
1A3
330
1
100
AcDbSymbolTableRecord
100
AcDbBlockTableRecord
  2
_D_5
340
0
  0
ENDTAB
  0
ENDSEC
  0
SECTION
  2
BLOCKS
  0
BLOCK
  5
20
330
1F
100
AcDbEntity
  8
0
100
AcDbBlockBegin
  2
*Model_Space
 70
     0
 10
0.0
 20
0.0
 30
0.0
  3
*Model_Space
  1

  0
ENDBLK
  5
21
330
1F
100
AcDbEntity
  8
0
100
AcDbBlockEnd
  0
BLOCK
  5
1C
330
1B
100
AcDbEntity
 67
     1
  8
0
100
AcDbBlockBegin
  2
*Paper_Space
 70
     0
 10
0.0
 20
0.0
 30
0.0
  3
*Paper_Space
  1

  0
ENDBLK
  5
1D
330
1B
100
AcDbEntity
 67
     1
  8
0
100
AcDbBlockEnd
  0
BLOCK
  5
24
330
23
100
AcDbEntity
  8
0
100
AcDbBlockBegin
  2
*Paper_Space0
 70
     0
 10
0.0
 20
0.0
 30
0.0
  3
*Paper_Space0
  1

  0
ENDBLK
  5
25
330
23
100
AcDbEntity
  8
0
100
AcDbBlockEnd
  0
BLOCK
  5
16D
330
16C
100
AcDbEntity
  8
0
100
AcDbBlockBegin
  2
_D
 70
     0
 10
0.0
 20
0.0
 30
0.0
  3
_D
  1

  0
SOLID
  5
16F
330
16C
100
AcDbEntity
  8
VERMASSUNG
100
AcDbTrace
 10
84.5770635772
 20
79.9427561693
 30
0.0
 11
85.0270635772
 21
82.9427561693
 31
0.0
 12
84.1270635772
 22
82.9427561693
 32
0.0
 13
84.1270635772
 23
82.9427561693
 33
0.0
  0
SOLID
  5
170
330
16C
100
AcDbEntity
  8
VERMASSUNG
100
AcDbTrace
 10
84.5770635772
 20
142.9427561693
 30
0.0
 11
84.1270635772
 21
139.9427561693
 31
0.0
 12
85.0270635772
 22
139.9427561693
 32
0.0
 13
85.0270635772
 23
139.9427561693
 33
0.0
  0
LINE
  5
171
330
16C
100
AcDbEntity
  8
VERMASSUNG
100
AcDbLine
 10
183.3202151644
 20
79.9427561693
 30
0.0
 11
83.5770635772
 21
79.9427561693
 31
0.0
  0
LINE
  5
172
330
16C
100
AcDbEntity
  8
VERMASSUNG
100
AcDbLine
 10
183.3202151644
 20
142.9427561693
 30
0.0
 11
83.5770635772
 21
142.9427561693
 31
0.0
  0
LINE
  5
173
330
16C
100
AcDbEntity
  8
VERMASSUNG
100
AcDbLine
 10
84.5770635772
 20
79.9427561693
 30
0.0
 11
84.5770635772
 21
142.9427561693
 31
0.0
  0
MTEXT
  5
174
330
16C
100
AcDbEntity
  8
VERMASSUNG
100
AcDbMText
 10
81.798928321
 20
100.6390023073
 30
0.0
 40
2.0
 41
0.0
 71
     1
 72
     1
  1
MAS-BT 40
  7
SLDTEXTSTYLE0
 11
3.391901413832837E-15
 21
1.0
 31
0.0
 73
     1
 44
1.0
  0
MTEXT
  5
175
330
16C
100
AcDbEntity
  8
VERMASSUNG
100
AcDbMText
 10
81.9989282723
 20
115.8390025636
 30
0.0
 40
2.0
 41
0.0
 71
     1
 72
     1
  1
%%c
  7
SLDTEXTSTYLE0
 11
3.391901413832837E-15
 21
1.0
 31
0.0
 73
     1
 44
1.0
  0
MTEXT
  5
176
330
16C
100
AcDbEntity
  8
VERMASSUNG
100
AcDbMText
 10
81.9989279813
 20
119.4471300107
 30
0.0
 40
2.0
 41
0.0
 71
     1
 72
     1
  1
63
  7
SLDTEXTSTYLE0
 11
3.391901413832837E-15
 21
1.0
 31
0.0
 73
     1
 44
1.0
  0
ENDBLK
  5
16E
330
16C
100
AcDbEntity
  8
0
100
AcDbBlockEnd
  0
BLOCK
  5
179
330
178
100
AcDbEntity
  8
0
100
AcDbBlockBegin
  2
_D_1
 70
     0
 10
0.0
 20
0.0
 30
0.0
  3
_D_1
  1

  0
SOLID
  5
17B
330
178
100
AcDbEntity
  8
VERMASSUNG
100
AcDbTrace
 10
221.3202151644
 20
118.4427561693
 30
0.0
 11
220.8702151644
 21
115.4427561693
 31
0.0
 12
221.7702151644
 22
115.4427561693
 32
0.0
 13
221.7702151644
 23
115.4427561693
 33
0.0
  0
SOLID
  5
17C
330
178
100
AcDbEntity
  8
VERMASSUNG
100
AcDbTrace
 10
221.3202151644
 20
104.4427561693
 30
0.0
 11
221.7702151644
 21
107.4427561693
 31
0.0
 12
220.8702151644
 22
107.4427561693
 32
0.0
 13
220.8702151644
 23
107.4427561693
 33
0.0
  0
LINE
  5
17D
330
178
100
AcDbEntity
  8
VERMASSUNG
100
AcDbLine
 10
210.3202151644
 20
118.4427561693
 30
0.0
 11
222.3202151644
 21
118.4427561693
 31
0.0
  0
LINE
  5
17E
330
178
100
AcDbEntity
  8
VERMASSUNG
100
AcDbLine
 10
210.3202151644
 20
104.4427561693
 30
0.0
 11
222.3202151644
 21
104.4427561693
 31
0.0
  0
LINE
  5
17F
330
178
100
AcDbEntity
  8
VERMASSUNG
100
AcDbLine
 10
221.3202151644
 20
118.4427561693
 30
0.0
 11
221.3202151644
 21
104.4427561693
 31
0.0
  0
MTEXT
  5
180
330
178
100
AcDbEntity
  8
VERMASSUNG
100
AcDbMText
 10
218.7420796267
 20
108.3389518439
 30
0.0
 40
2.0
 41
0.0
 71
     1
 72
     1
  1
%%c
  7
SLDTEXTSTYLE0
 11
-7.044195017643634E-15
 21
1.0
 31
0.0
 73
     1
 44
1.0
  0
MTEXT
  5
181
330
178
100
AcDbEntity
  8
VERMASSUNG
100
AcDbMText
 10
218.7420795685
 20
111.9479240375
 30
0.0
 40
2.0
 41
0.0
 71
     1
 72
     1
  1
14
  7
SLDTEXTSTYLE0
 11
-7.044195017643634E-15
 21
1.0
 31
0.0
 73
     1
 44
1.0
  0
ENDBLK
  5
17A
330
178
100
AcDbEntity
  8
0
100
AcDbBlockEnd
  0
BLOCK
  5
184
330
183
100
AcDbEntity
  8
0
100
AcDbBlockBegin
  2
_D_2
 70
     0
 10
0.0
 20
0.0
 30
0.0
  3
_D_2
  1

  0
SOLID
  5
186
330
183
100
AcDbEntity
  8
VERMASSUNG
100
AcDbTrace
 10
227.6202151644
 20
123.9427561693
 30
0.0
 11
227.1702151644
 21
120.9427561693
 31
0.0
 12
228.0702151644
 22
120.9427561693
 32
0.0
 13
228.0702151644
 23
120.9427561693
 33
0.0
  0
SOLID
  5
187
330
183
100
AcDbEntity
  8
VERMASSUNG
100
AcDbTrace
 10
227.6202151644
 20
98.9427561693
 30
0.0
 11
228.0702151644
 21
101.9427561693
 31
0.0
 12
227.1702151644
 22
101.9427561693
 32
0.0
 13
227.1702151644
 23
101.9427561693
 33
0.0
  0
LINE
  5
188
330
183
100
AcDbEntity
  8
VERMASSUNG
100
AcDbLine
 10
211.1202151644
 20
123.9427561693
 30
0.0
 11
228.6202151644
 21
123.9427561693
 31
0.0
  0
LINE
  5
189
330
183
100
AcDbEntity
  8
VERMASSUNG
100
AcDbLine
 10
211.1202151644
 20
98.9427561693
 30
0.0
 11
228.6202151644
 21
98.9427561693
 31
0.0
  0
LINE
  5
18A
330
183
100
AcDbEntity
  8
VERMASSUNG
100
AcDbLine
 10
227.6202151644
 20
123.9427561693
 30
0.0
 11
227.6202151644
 21
98.9427561693
 31
0.0
  0
MTEXT
  5
18B
330
183
100
AcDbEntity
  8
VERMASSUNG
100
AcDbMText
 10
224.8420799082
 20
105.7381094134
 30
0.0
 40
2.0
 41
0.0
 71
     1
 72
     1
  1
WH
  7
SLDTEXTSTYLE0
 11
-7.044195017643634E-15
 21
1.0
 31
0.0
 73
     1
 44
1.0
  0
MTEXT
  5
18C
330
183
100
AcDbEntity
  8
VERMASSUNG
100
AcDbMText
 10
225.0420798595
 20
110.7381093016
 30
0.0
 40
2.0
 41
0.0
 71
     1
 72
     1
  1
%%c
  7
SLDTEXTSTYLE0
 11
-7.044195017643634E-15
 21
1.0
 31
0.0
 73
     1
 44
1.0
  0
MTEXT
  5
18D
330
183
100
AcDbEntity
  8
VERMASSUNG
100
AcDbMText
 10
225.0420795685
 20
114.3480229046
 30
0.0
 40
2.0
 41
0.0
 71
     1
 72
     1
  1
25
  7
SLDTEXTSTYLE0
 11
-7.044195017643634E-15
 21
1.0
 31
0.0
 73
     1
 44
1.0
  0
ENDBLK
  5
185
330
183
100
AcDbEntity
  8
0
100
AcDbBlockEnd
  0
BLOCK
  5
190
330
18F
100
AcDbEntity
  8
0
100
AcDbBlockBegin
  2
_D_3
 70
     0
 10
0.0
 20
0.0
 30
0.0
  3
_D_3
  1

  0
SOLID
  5
192
330
18F
100
AcDbEntity
  8
VERMASSUNG
100
AcDbTrace
 10
211.3202151644
 20
154.6326587623
 30
0.0
 11
208.3202151644
 21
155.0826587623
 31
0.0
 12
208.3202151644
 22
154.1826587623
 32
0.0
 13
208.3202151644
 23
154.1826587623
 33
0.0
  0
SOLID
  5
193
330
18F
100
AcDbEntity
  8
VERMASSUNG
100
AcDbTrace
 10
157.3202151644
 20
154.6326587623
 30
0.0
 11
160.3202151644
 21
154.1826587623
 31
0.0
 12
160.3202151644
 22
155.0826587623
 32
0.0
 13
160.3202151644
 23
155.0826587623
 33
0.0
  0
LINE
  5
194
330
18F
100
AcDbEntity
  8
VERMASSUNG
100
AcDbLine
 10
211.3202151644
 20
123.7427561693
 30
0.0
 11
211.3202151644
 21
155.6326587623
 31
0.0
  0
LINE
  5
195
330
18F
100
AcDbEntity
  8
VERMASSUNG
100
AcDbLine
 10
157.3202151644
 20
133.6677561693
 30
0.0
 11
157.3202151644
 21
155.6326587623
 31
0.0
  0
LINE
  5
196
330
18F
100
AcDbEntity
  8
VERMASSUNG
100
AcDbLine
 10
211.3202151644
 20
154.6326587623
 30
0.0
 11
157.3202151644
 21
154.6326587623
 31
0.0
  0
MTEXT
  5
197
330
18F
100
AcDbEntity
  8
VERMASSUNG
100
AcDbMText
 10
182.8212563591
 20
157.2107943583
 30
0.0
 40
2.0
 41
0.0
 71
     1
 72
     1
  1
54
  7
SLDTEXTSTYLE0
 73
     1
 44
1.0
  0
ENDBLK
  5
191
330
18F
100
AcDbEntity
  8
0
100
AcDbBlockEnd
  0
BLOCK
  5
19A
330
199
100
AcDbEntity
  8
0
100
AcDbBlockBegin
  2
_D_4
 70
     0
 10
0.0
 20
0.0
 30
0.0
  3
_D_4
  1

  0
SOLID
  5
19C
330
199
100
AcDbEntity
  8
VERMASSUNG
100
AcDbTrace
 10
211.3202151644
 20
160.6326587623
 30
0.0
 11
208.3202151644
 21
161.0826587623
 31
0.0
 12
208.3202151644
 22
160.1826587623
 32
0.0
 13
208.3202151644
 23
160.1826587623
 33
0.0
  0
SOLID
  5
19D
330
199
100
AcDbEntity
  8
VERMASSUNG
100
AcDbTrace
 10
91.9202151644
 20
160.6326587623
 30
0.0
 11
94.9202151644
 21
160.1826587623
 31
0.0
 12
94.9202151644
 22
161.0826587623
 32
0.0
 13
94.9202151644
 23
161.0826587623
 33
0.0
  0
LINE
  5
19E
330
199
100
AcDbEntity
  8
VERMASSUNG
100
AcDbLine
 10
211.3202151644
 20
123.7427561693
 30
0.0
 11
211.3202151644
 21
161.6326587623
 31
0.0
  0
LINE
  5
19F
330
199
100
AcDbEntity
  8
VERMASSUNG
100
AcDbLine
 10
91.9202151644
 20
123.2655117663
 30
0.0
 11
91.9202151644
 21
161.6326587623
 31
0.0
  0
LINE
  5
1A0
330
199
100
AcDbEntity
  8
VERMASSUNG
100
AcDbLine
 10
211.3202151644
 20
160.6326587623
 30
0.0
 11
91.9202151644
 21
160.6326587623
 31
0.0
  0
MTEXT
  5
1A1
330
199
100
AcDbEntity
  8
VERMASSUNG
100
AcDbMText
 10
148.8208351438
 20
163.2107943583
 30
0.0
 40
2.0
 41
0.0
 71
     1
 72
     1
  1
119.4
  7
SLDTEXTSTYLE0
 73
     1
 44
1.0
  0
ENDBLK
  5
19B
330
199
100
AcDbEntity
  8
0
100
AcDbBlockEnd
  0
BLOCK
  5
1A4
330
1A3
100
AcDbEntity
  8
0
100
AcDbBlockBegin
  2
_D_5
 70
     0
 10
0.0
 20
0.0
 30
0.0
  3
_D_5
  1

  0
SOLID
  5
1A6
330
1A3
100
AcDbEntity
  8
VERMASSUNG
100
AcDbTrace
 10
211.3202151644
 20
148.6326587623
 30
0.0
 11
208.3202151644
 21
149.0826587623
 31
0.0
 12
208.3202151644
 22
148.1826587623
 32
0.0
 13
208.3202151644
 23
148.1826587623
 33
0.0
  0
SOLID
  5
1A7
330
1A3
100
AcDbEntity
  8
VERMASSUNG
100
AcDbTrace
 10
184.3202151644
 20
148.6326587623
 30
0.0
 11
187.3202151644
 21
148.1826587623
 31
0.0
 12
187.3202151644
 22
149.0826587623
 32
0.0
 13
187.3202151644
 23
149.0826587623
 33
0.0
  0
LINE
  5
1A8
330
1A3
100
AcDbEntity
  8
VERMASSUNG
100
AcDbLine
 10
211.3202151644
 20
123.7427561693
 30
0.0
 11
211.3202151644
 21
149.6326587623
 31
0.0
  0
LINE
  5
1A9
330
1A3
100
AcDbEntity
  8
VERMASSUNG
100
AcDbLine
 10
184.3202151644
 20
141.9427561693
 30
0.0
 11
184.3202151644
 21
149.6326587623
 31
0.0
  0
LINE
  5
1AA
330
1A3
100
AcDbEntity
  8
VERMASSUNG
100
AcDbLine
 10
211.3202151644
 20
148.6326587623
 30
0.0
 11
184.3202151644
 21
148.6326587623
 31
0.0
  0
MTEXT
  5
1AB
330
1A3
100
AcDbEntity
  8
VERMASSUNG
100
AcDbMText
 10
196.4205251541
 20
151.2107943583
 30
0.0
 40
2.0
 41
0.0
 71
     1
 72
     1
  1
27
  7
SLDTEXTSTYLE0
 73
     1
 44
1.0
  0
ENDBLK
  5
1A5
330
1A3
100
AcDbEntity
  8
0
100
AcDbBlockEnd
  0
ENDSEC
  0
SECTION
  2
ENTITIES
  0
MTEXT
  5
78
330
1F
100
AcDbEntity
  8
KOPF_DÜNN
100
AcDbMText
 10
13.8892156294
 20
23.8442973028
 30
0.0
 40
3.0
 41
0.0
 71
     1
 72
     1
  1
A34.540.025.054
  7
SLDTEXTSTYLE0
 73
     1
 44
1.0
  0
MTEXT
  5
79
330
1F
100
AcDbEntity
  8
VERMASSUNG
100
AcDbMText
 10
13.9329988022
 20
28.8834360957
 30
0.0
 40
3.0
 41
0.0
 71
     1
 72
     1
  1
Aufnahme_Master shank WH25
  7
SLDTEXTSTYLE0
 73
     1
 44
1.0
  0
MTEXT
  5
7A
330
1F
100
AcDbEntity
  8
VERMASSUNG
100
AcDbMText
 10
98.8601118557
 20
13.8365368761
 30
0.0
 40
2.0
 41
0.0
 71
     1
 72
     1
  1
Datum: 02.09.2011
  7
SLDTEXTSTYLE0
 73
     1
 44
1.0
  0
MTEXT
  5
7B
330
1F
100
AcDbEntity
  8
VERMASSUNG
100
AcDbMText
 10
13.933048693
 20
18.0482802738
 30
0.0
 40
2.0
 41
0.0
 71
     1
 72
     1
  1
MAS-BT AD/B
  7
SLDTEXTSTYLE0
 73
     1
 44
1.0
  0
MTEXT
  5
7C
330
1F
100
AcDbEntity
  8
VERMASSUNG
100
AcDbMText
 10
13.9808475933
 20
13.9090974274
 30
0.0
 40
2.0
 41
0.0
 71
     1
 72
     1
  1
Gewicht: 1061g
  7
SLDTEXTSTYLE0
 73
     1
 44
1.0
  0
LINE
  5
7D
330
1F
100
AcDbEntity
  8
0
  6
Continuous
 62
     7
370
    15
100
AcDbLine
 10
181.3202176058
 20
79.9427561693
 30
0.0
 11
183.3202151644
 21
79.9427561693
 31
0.0
  0
LINE
  5
7E
330
1F
100
AcDbEntity
  8
0
  6
Continuous
 62
     7
370
    15
100
AcDbLine
 10
183.3202151644
 20
142.9427561693
 30
0.0
 11
181.3197149944
 21
142.9427561693
 31
0.0
  0
ARC
  5
7F
330
1F
100
AcDbEntity
  8
0
  6
Continuous
 62
     7
370
    15
100
AcDbCircle
 10
183.3202151644
 20
80.9427561693
 30
0.0
 40
1.0
100
AcDbArc
 50
270.0
 51
0.0
  0
ARC
  5
80
330
1F
100
AcDbEntity
  8
0
  6
Continuous
 62
     7
370
    15
100
AcDbCircle
 10
183.3202151644
 20
141.9427561693
 30
0.0
 40
1.0
100
AcDbArc
 50
0.0
 51
90.0
  0
ARC
  5
81
330
1F
100
AcDbEntity
  8
0
  6
Continuous
 62
     7
370
    15
100
AcDbCircle
 10
158.3202151644
 20
88.2177561693
 30
0.0
 40
1.000000000000002
100
AcDbArc
 50
46.4333463416
 51
90.0
  0
ARC
  5
82
330
1F
100
AcDbEntity
  8
0
  6
Continuous
 62
     7
370
    15
100
AcDbCircle
 10
158.3202151644
 20
134.6677561693
 30
0.0
 40
1.0
100
AcDbArc
 50
270.0
 51
313.5375610145
  0
LINE
  5
83
330
1F
100
AcDbEntity
  8
0
  6
Continuous
 62
     7
370
    15
100
AcDbLine
 10
157.3202151644
 20
89.2177561693
 30
0.0
 11
158.3202151644
 21
89.2177561693
 31
0.0
  0
LINE
  5
84
330
1F
100
AcDbEntity
  8
0
  6
Continuous
 62
     7
370
    15
100
AcDbLine
 10
158.3202151644
 20
133.6677561693
 30
0.0
 11
157.3202151644
 21
133.6677561693
 31
0.0
  0
LINE
  5
85
330
1F
100
AcDbEntity
  8
0
  6
Continuous
 62
     7
370
    15
100
AcDbLine
 10
157.3202151644
 20
133.6677561693
 30
0.0
 11
92.7759082713
 21
124.2550447474
 31
0.0
  0
LINE
  5
86
330
1F
100
AcDbEntity
  8
0
  6
Continuous
 62
     7
370
    15
100
AcDbLine
 10
92.7759082713
 20
98.6304675912
 30
0.0
 11
157.3202151644
 21
89.2177561693
 31
0.0
  0
ARC
  5
87
330
1F
100
AcDbEntity
  8
0
  6
Continuous
 62
     7
370
    15
100
AcDbCircle
 10
187.3202151644
 20
95.9427561693
 30
0.0
 40
3.0
100
AcDbArc
 50
90.0
 51
180.0
  0
ARC
  5
88
330
1F
100
AcDbEntity
  8
0
  6
Continuous
 62
     7
370
    15
100
AcDbCircle
 10
187.3202151644
 20
126.9427561693
 30
0.0
 40
3.0
100
AcDbArc
 50
180.0
 51
270.0
  0
ARC
  5
89
330
1F
100
AcDbEntity
  8
0
  6
Continuous
 62
     7
370
    15
100
AcDbCircle
 10
92.9202151644
 20
99.6200005723
 30
0.0
 40
1.0
100
AcDbArc
 50
180.0
 51
261.7028550302
  0
ARC
  5
8A
330
1F
100
AcDbEntity
  8
0
  6
Continuous
 62
     7
370
    15
100
AcDbCircle
 10
92.9202151644
 20
123.2655117663
 30
0.0
 40
1.00000000000001
100
AcDbArc
 50
98.2971449698
 51
180.0
  0
LINE
  5
8B
330
1F
100
AcDbEntity
  8
0
  6
Continuous
 62
     7
370
    15
100
AcDbLine
 10
211.1202151644
 20
123.9427561693
 30
0.0
 11
187.3202151644
 21
123.9427561693
 31
0.0
  0
LINE
  5
8C
330
1F
100
AcDbEntity
  8
0
  6
Continuous
 62
     7
370
    15
100
AcDbLine
 10
187.3202151644
 20
98.9427561693
 30
0.0
 11
211.1202151644
 21
98.9427561693
 31
0.0
  0
LINE
  5
8D
330
1F
100
AcDbEntity
  8
0
  6
Continuous
 62
     7
370
    15
100
AcDbLine
 10
211.1202151644
 20
98.9427561693
 30
0.0
 11
211.3202151644
 21
99.1427561693
 31
0.0
  0
LINE
  5
8E
330
1F
100
AcDbEntity
  8
0
  6
Continuous
 62
     7
370
    15
100
AcDbLine
 10
211.3202151644
 20
123.7427561693
 30
0.0
 11
211.1202151644
 21
123.9427561693
 31
0.0
  0
LINE
  5
8F
330
1F
100
AcDbEntity
  8
0
  6
Continuous
 62
     7
370
    15
100
AcDbLine
 10
200.3797677376
 20
112.7692334061
 30
0.0
 11
202.4737544357
 21
113.7431702838
 31
0.0
  0
LINE
  5
90
330
1F
100
AcDbEntity
  8
0
  6
Continuous
 62
     7
370
    15
100
AcDbLine
 10
202.0666758932
 20
109.1423420547
 30
0.0
 11
200.1762284664
 21
110.4688192916
 31
0.0
  0
LINE
  5
91
330
1F
100
AcDbEntity
  8
0
  6
Continuous
 62
     7
370
    15
100
AcDbLine
 10
202.4737544357
 20
113.7431702838
 30
0.0
 11
204.3642018625
 21
112.416693047
 31
0.0
  0
LINE
  5
92
330
1F
100
AcDbEntity
  8
0
  6
Continuous
 62
     7
370
    15
100
AcDbLine
 10
200.1762284664
 20
110.4688192916
 30
0.0
 11
200.3797677376
 21
112.7692334061
 31
0.0
  0
LINE
  5
93
330
1F
100
AcDbEntity
  8
0
  6
Continuous
 62
     7
370
    15
100
AcDbLine
 10
204.1606625912
 20
110.1162789324
 30
0.0
 11
202.0666758932
 21
109.1423420547
 31
0.0
  0
CIRCLE
  5
94
330
1F
100
AcDbEntity
  8
0
  6
Continuous
 62
     7
370
    15
100
AcDbCircle
 10
202.2702151644
 20
111.4427561693
 30
0.0
 40
4.000000000000006
  0
LINE
  5
95
330
1F
100
AcDbEntity
  8
0
  6
Continuous
 62
     7
370
    15
100
AcDbLine
 10
204.3642018625
 20
112.416693047
 30
0.0
 11
204.1606625912
 21
110.1162789324
 31
0.0
  0
SPLINE
  5
96
330
1F
100
AcDbEntity
  8
0
  6
Continuous
 62
     7
370
    15
100
AcDbSpline
210
0.0
220
0.0
230
1.0
 70
     8
 71
     3
 72
    11
 73
     7
 74
     0
 42
0.000000001
 43
0.00000001
 40
0.0
 40
0.0
 40
0.0
 40
0.0
 40
0.2488814606714261
 40
0.5011921284371436
 40
0.7520447562616431
 40
1.0
 40
1.0
 40
1.0
 40
1.0
 10
181.3197149943973
 20
142.9426064238822
 30
0.0
 10
181.2899366649052
 20
142.9334743977377
 30
0.0
 10
181.2299697059393
 20
142.9150845200507
 30
0.0
 10
180.7380476441606
 20
142.7710472715641
 30
0.0
 10
180.009978221532
 20
142.5616441934533
 30
0.0
 10
179.2992347503597
 20
142.3894399241037
 30
0.0
 10
178.9459272332233
 20
142.3038379237873
 30
0.0
  0
SPLINE
  5
97
330
1F
100
AcDbEntity
  8
0
  6
Continuous
 62
     7
370
    15
100
AcDbSpline
210
0.0
220
0.0
230
1.0
 70
     8
 71
     3
 72
    24
 73
    20
 74
     0
 42
0.000000001
 43
0.00000001
 40
0.0
 40
0.0
 40
0.0
 40
0.0
 40
0.0452116620202646
 40
0.0902979724668112
 40
0.1353071308763714
 40
0.18028758478476
 40
0.2252878744154589
 40
0.2703564758778689
 40
0.3155416453969173
 40
0.3608912670572131
 40
0.4064527064150013
 40
0.4522726721183896
 40
0.4983970873941831
 40
0.5831110774795425
 40
0.6669835141650492
 40
0.7503080981450883
 40
0.8333843407995101
 40
0.9165144378022373
 40
1.0
 40
1.0
 40
1.0
 40
1.0
 10
178.945833857832
 20
80.58165814975321
 30
0.0
 10
179.0135375997398
 20
80.56589910873461
 30
0.0
 10
179.1487573715753
 20
80.53442471941972
 30
0.0
 10
179.3414190884253
 20
80.4879639160786
 30
0.0
 10
179.5261559600831
 20
80.44233293644504
 30
0.0
 10
179.7022739013805
 20
80.397707639011
 30
0.0
 10
179.8699576939953
 20
80.35422035241191
 30
0.0
 10
180.0291571782874
 20
80.3120193046142
 30
0.0
 10
180.1798853167662
 20
80.27125271230287
 30
0.0
 10
180.3221382702019
 20
80.23207295969584
 30
0.0
 10
180.4559170252712
 20
80.19463566789486
 30
0.0
 10
180.5812209362176
 20
80.15909908392302
 30
0.0
 10
180.7303281443972
 20
80.11638026381048
 30
0.0
 10
180.8911862044585
 20
80.06984454273451
 30
0.0
 10
181.0471989661789
 20
80.02415855159703
 30
0.0
 10
181.1688537600606
 20
79.98811857488572
 30
0.0
 10
181.2553010297225
 20
79.96224481615066
 30
0.0
 10
181.3096380751703
 20
79.94583300318226
 30
0.0
 10
181.3166844489796
 20
79.94378324303527
 30
0.0
 10
181.3202151524067
 20
79.94275617643744
 30
0.0
  0
LINE
  5
98
330
1F
100
AcDbEntity
  8
0
  6
Continuous
 62
     7
370
    15
100
AcDbLine
 10
178.9452151644
 20
80.5816581498
 30
0.0
 11
178.9452151644
 21
142.3038379238
 31
0.0
  0
SPLINE
  5
99
330
1F
100
AcDbEntity
  8
0
  6
Continuous
 62
     7
370
    15
100
AcDbSpline
210
0.0
220
0.0
230
1.0
 70
     8
 71
     3
 72
    10
 73
     6
 74
     0
 42
0.000000001
 43
0.00000001
 40
0.0
 40
0.0
 40
0.0
 40
0.0
 40
0.5
 40
0.5
 40
1.0
 40
1.0
 40
1.0
 40
1.0
 10
178.2968235684599
 20
141.3472168906429
 30
0.0
 10
177.9807197373205
 20
140.7273543323656
 30
0.0
 10
177.6509406929757
 20
140.0814535970668
 30
0.0
 10
176.9787174205869
 20
138.7670349567663
 30
0.0
 10
176.6365842546563
 20
138.099112729754
 30
0.0
 10
176.2894039261421
 20
137.4227749972726
 30
0.0
  0
SPLINE
  5
9A
330
1F
100
AcDbEntity
  8
0
  6
Continuous
 62
     7
370
    15
100
AcDbSpline
210
0.0
220
0.0
230
1.0
 70
     8
 71
     3
 72
     9
 73
     5
 74
     0
 42
0.000000001
 43
0.00000001
 40
0.0
 40
0.0
 40
0.0
 40
0.0
 40
0.5067583433954557
 40
1.0
 40
1.0
 40
1.0
 40
1.0
 10
178.9458457073989
 20
142.3048912766377
 30
0.0
 10
178.8354457500506
 20
142.1428170169731
 30
0.0
 10
178.617590516314
 20
141.8229914792649
 30
0.0
 10
178.40299717024
 20
141.5046429343128
 30
0.0
 10
178.2971507927262
 20
141.347620170623
 30
0.0
  0
SPLINE
  5
9B
330
1F
100
AcDbEntity
  8
0
  6
Continuous
 62
     7
370
    15
100
AcDbSpline
210
0.0
220
0.0
230
1.0
 70
     8
 71
     3
 72
     9
 73
     5
 74
     0
 42
0.000000001
 43
0.00000001
 40
0.0
 40
0.0
 40
0.0
 40
0.0
 40
0.4932438861072345
 40
1.0
 40
1.0
 40
1.0
 40
1.0
 10
178.2971368777034
 20
81.53789006758389
 30
0.0
 10
178.4029833681964
 20
81.3808661556783
 30
0.0
 10
178.6175759733443
 20
81.06251672180117
 30
0.0
 10
178.8354300223308
 20
80.74269123406094
 30
0.0
 10
178.945828893591
 20
80.58061771276984
 30
0.0
  0
SPLINE
  5
9C
330
1F
100
AcDbEntity
  8
0
  6
Continuous
 62
     7
370
    15
100
AcDbSpline
210
0.0
220
0.0
230
1.0
 70
     8
 71
     3
 72
    10
 73
     6
 74
     0
 42
0.000000001
 43
0.00000001
 40
0.0
 40
0.0
 40
0.0
 40
0.0
 40
0.5
 40
0.5
 40
1.0
 40
1.0
 40
1.0
 40
1.0
 10
178.2968176487921
 20
81.53830705608364
 30
0.0
 10
177.980638546118
 20
82.15831720809736
 30
0.0
 10
177.650196318951
 20
82.80551527396507
 30
0.0
 10
176.9784847982683
 20
84.11893119855884
 30
0.0
 10
176.6365109232363
 20
84.78654246486164
 30
0.0
 10
176.2894039261421
 20
85.46273734130482
 30
0.0
  0
LINE
  5
9D
330
1F
100
AcDbEntity
  8
0
  6
Continuous
 62
     7
370
    15
100
AcDbLine
 10
168.8952151644
 20
141.6791462723
 30
0.0
 11
160.3202151644
 21
141.6791462723
 31
0.0
  0
LINE
  5
9E
330
1F
100
AcDbEntity
  8
0
  6
Continuous
 62
     7
370
    15
100
AcDbLine
 10
168.8952151644
 20
81.2063660663
 30
0.0
 11
168.8952151644
 21
141.6791462723
 31
0.0
  0
LINE
  5
9F
330
1F
100
AcDbEntity
  8
0
  6
Continuous
 62
     7
370
    15
100
AcDbLine
 10
160.3202151644
 20
81.2063660663
 30
0.0
 11
168.8952151644
 21
81.2063660663
 31
0.0
  0
LINE
  5
A0
330
1F
100
AcDbEntity
  8
0
  6
Continuous
 62
     7
370
    15
100
AcDbLine
 10
184.3202151644
 20
80.9427561693
 30
0.0
 11
184.3202151644
 21
141.942756169
 31
0.0
  0
LINE
  5
A1
330
1F
100
AcDbEntity
  8
0
  6
Continuous
 62
     7
370
    15
100
AcDbLine
 10
159.3202151644
 20
82.3163506238
 30
0.0
 11
159.3202151644
 21
140.5691617148
 31
0.0
  0
SPLINE
  5
A2
330
1F
100
AcDbEntity
  8
0
  6
Continuous
 62
     7
370
    15
100
AcDbSpline
210
0.0
220
0.0
230
1.0
 70
     8
 71
     3
 72
    12
 73
     8
 74
     0
 42
0.000000001
 43
0.00000001
 40
0.0
 40
0.0
 40
0.0
 40
0.0
 40
0.25
 40
0.25
 40
0.5
 40
0.5
 40
1.0
 40
1.0
 40
1.0
 40
1.0
 10
159.7072479873799
 20
141.5097460691097
 30
0.0
 10
159.6553872361918
 20
141.4529334967953
 30
0.0
 10
159.6066554391729
 20
141.3909413105434
 30
0.0
 10
159.5164824292555
 20
141.2548882374194
 30
0.0
 10
159.4747051809705
 20
141.1799821348207
 30
0.0
 10
159.3686163111246
 20
140.9418554995233
 30
0.0
 10
159.3202151644144
 20
140.7584487679545
 30
0.0
 10
159.3202151644144
 20
140.5691617147727
 30
0.0
  0
SPLINE
  5
A3
330
1F
100
AcDbEntity
  8
0
  6
Continuous
 62
     7
370
    15
100
AcDbSpline
210
0.0
220
0.0
230
1.0
 70
     8
 71
     3
 72
     8
 73
     4
 74
     0
 42
0.000000001
 43
0.00000001
 40
0.0
 40
0.0
 40
0.0
 40
0.0
 40
1.0
 40
1.0
 40
1.0
 40
1.0
 10
160.3202151644144
 20
141.6791462722905
 30
0.0
 10
160.0938708508146
 20
141.6791462722905
 30
0.0
 10
159.8764187304094
 20
141.6157778032697
 30
0.0
 10
159.7072479873799
 20
141.5097460691097
 30
0.0
  0
SPLINE
  5
A4
330
1F
100
AcDbEntity
  8
0
  6
Continuous
 62
     7
370
    15
100
AcDbSpline
210
0.0
220
0.0
230
1.0
 70
     8
 71
     3
 72
     8
 73
     4
 74
     0
 42
0.000000001
 43
0.00000001
 40
0.0
 40
0.0
 40
0.0
 40
0.0
 40
1.0
 40
1.0
 40
1.0
 40
1.0
 10
159.70724798738
 20
81.37576626946772
 30
0.0
 10
159.8768414930319
 20
81.26946955891052
 30
0.0
 10
160.0932101853651
 20
81.20636606628683
 30
0.0
 10
160.3202151644144
 20
81.20636606628683
 30
0.0
  0
SPLINE
  5
A5
330
1F
100
AcDbEntity
  8
0
  6
Continuous
 62
     7
370
    15
100
AcDbSpline
210
0.0
220
0.0
230
1.0
 70
     8
 71
     3
 72
    12
 73
     8
 74
     0
 42
0.000000001
 43
0.00000001
 40
0.0
 40
0.0
 40
0.0
 40
0.0
 40
0.2499999999999977
 40
0.2499999999999977
 40
0.4999999999999953
 40
0.4999999999999953
 40
1.0
 40
1.0
 40
1.0
 40
1.0
 10
159.70724798738
 20
81.37576626946772
 30
0.0
 10
159.6553872361918
 20
81.4325788417821
 30
0.0
 10
159.6066554391729
 20
81.49457102803393
 30
0.0
 10
159.5164824292555
 20
81.63062410115793
 30
0.0
 10
159.4747051809705
 20
81.70553020375665
 30
0.0
 10
159.3686163111246
 20
81.94365683905406
 30
0.0
 10
159.3202151644144
 20
82.12706357062282
 30
0.0
 10
159.3202151644144
 20
82.3163506238047
 30
0.0
  0
SPLINE
  5
A6
330
1F
100
AcDbEntity
  8
0
  6
Continuous
 62
     7
370
    15
100
AcDbSpline
210
0.0
220
0.0
230
1.0
 70
     8
 71
     3
 72
     8
 73
     4
 74
     0
 42
0.000000001
 43
0.00000001
 40
0.0
 40
0.0
 40
0.0
 40
0.0
 40
0.0012389803509652
 40
0.0012389803509652
 40
0.0012389803509652
 40
0.0012389803509652
 10
169.4527767079481
 20
140.8967788920752
 30
0.0
 10
169.2676567348153
 20
141.1578288734542
 30
0.0
 10
169.0817782870564
 20
141.4186104865732
 30
0.0
 10
168.8952151644144
 20
141.6791462722905
 30
0.0
  0
SPLINE
  5
A7
330
1F
100
AcDbEntity
  8
0
  6
Continuous
 62
     7
370
    15
100
AcDbSpline
210
0.0
220
0.0
230
1.0
 70
     8
 71
     3
 72
     8
 73
     4
 74
     0
 42
0.000000001
 43
0.00000001
 40
0.0
 40
0.0
 40
0.0
 40
0.0
 40
1.0
 40
1.0
 40
1.0
 40
1.0
 10
171.5510264026867
 20
137.1100018337537
 30
0.0
 10
170.8547330366451
 20
138.3739402018685
 30
0.0
 10
170.154937871454
 20
139.6359956473768
 30
0.0
 10
169.4527767079482
 20
140.8967788920752
 30
0.0
  0
SPLINE
  5
A8
330
1F
100
AcDbEntity
  8
0
  6
Continuous
 62
     7
370
    15
100
AcDbSpline
210
0.0
220
0.0
230
1.0
 70
     8
 71
     3
 72
     8
 73
     4
 74
     0
 42
0.000000001
 43
0.00000001
 40
0.0
 40
0.0
 40
0.0
 40
0.0
 40
1.0
 40
1.0
 40
1.0
 40
1.0
 10
171.5510264026867
 20
85.77551050482363
 30
0.0
 10
170.8547082620287
 20
84.51152716487685
 30
0.0
 10
170.1549110699183
 20
83.24946856702488
 30
0.0
 10
169.4527767079481
 20
81.9887334465022
 30
0.0
  0
SPLINE
  5
A9
330
1F
100
AcDbEntity
  8
0
  6
Continuous
 62
     7
370
    15
100
AcDbSpline
210
0.0
220
0.0
230
1.0
 70
     8
 71
     3
 72
     8
 73
     4
 74
     0
 42
0.000000001
 43
0.00000001
 40
0.0
 40
0.0
 40
0.0
 40
0.0
 40
0.0012389803509652
 40
0.0012389803509652
 40
0.0012389803509652
 40
0.0012389803509652
 10
168.8952151644144
 20
81.20636606628683
 30
0.0
 10
169.0817782870564
 20
81.4669018520042
 30
0.0
 10
169.2676567348153
 20
81.72768346512319
 30
0.0
 10
169.4527767079481
 20
81.9887334465022
 30
0.0
  0
SPLINE
  5
AA
330
1F
100
AcDbEntity
  8
0
  6
Continuous
 62
     7
370
    15
100
AcDbSpline
210
0.0
220
0.0
230
1.0
 70
     8
 71
     3
 72
    10
 73
     6
 74
     0
 42
0.000000001
 43
0.00000001
 40
0.0
 40
0.0
 40
0.0
 40
0.0
 40
0.5
 40
0.5
 40
1.0
 40
1.0
 40
1.0
 40
1.0
 10
172.2438467257142
 20
136.6904788388682
 30
0.0
 10
172.1018294132673
 20
136.6904788388682
 30
0.0
 10
171.961382366405
 20
136.7309686910777
 30
0.0
 10
171.7197924471437
 20
136.8789045210168
 30
0.0
 10
171.6191150048904
 20
136.9864047969964
 30
0.0
 10
171.5510264026868
 20
137.1100018337534
 30
0.0
  0
SPLINE
  5
AB
330
1F
100
AcDbEntity
  8
0
  6
Continuous
 62
     7
370
    15
100
AcDbSpline
210
0.0
220
0.0
230
1.0
 70
     8
 71
     3
 72
    10
 73
     6
 74
     0
 42
0.000000001
 43
0.00000001
 40
0.0
 40
0.0
 40
0.0
 40
0.0
 40
0.5
 40
0.5
 40
1.0
 40
1.0
 40
1.0
 40
1.0
 10
172.2438467257142
 20
86.19503349970915
 30
0.0
 10
172.1029893612036
 20
86.19503349970915
 30
0.0
 10
171.9601552297294
 20
86.15392959389045
 30
0.0
 10
171.7198935389561
 20
86.0065317005895
 30
0.0
 10
171.6191872698765
 20
85.89923871974986
 30
0.0
 10
171.5510264026867
 20
85.77551050482364
 30
0.0
  0
SPLINE
  5
AC
330
1F
100
AcDbEntity
  8
0
  6
Continuous
 62
     7
370
    15
100
AcDbSpline
210
0.0
220
0.0
230
1.0
 70
     8
 71
     3
 72
    12
 73
     8
 74
     0
 42
0.000000001
 43
0.00000001
 40
0.0
 40
0.0
 40
0.0
 40
0.0
 40
0.25
 40
0.25
 40
0.5
 40
0.5
 40
1.0
 40
1.0
 40
1.0
 40
1.0
 10
176.2894039261421
 20
137.4227749972726
 30
0.0
 10
176.2534997758056
 20
137.3528305631244
 30
0.0
 10
176.2109682236761
 20
137.2895792000666
 30
0.0
 10
176.1141739468361
 20
137.1745205451506
 30
0.0
 10
176.0590842685718
 20
137.1221920114387
 30
0.0
 10
175.8809510350178
 20
136.9884071083536
 30
0.0
 10
175.7435739430153
 20
136.9278593411954
 30
0.0
 10
175.5965836031153
 20
136.9086593928115
 30
0.0
  0
SPLINE
  5
AD
330
1F
100
AcDbEntity
  8
0
  6
Continuous
 62
     7
370
    15
100
AcDbSpline
210
0.0
220
0.0
230
1.0
 70
     8
 71
     3
 72
    12
 73
     8
 74
     0
 42
0.000000001
 43
0.00000001
 40
0.0
 40
0.0
 40
0.0
 40
0.0
 40
0.25
 40
0.25
 40
0.5
 40
0.5
 40
1.0
 40
1.0
 40
1.0
 40
1.0
 10
176.2894039261421
 20
85.46273734130479
 30
0.0
 10
176.2534997758056
 20
85.53268177545296
 30
0.0
 10
176.2109682236761
 20
85.59593313851079
 30
0.0
 10
176.1141739468361
 20
85.71099179342673
 30
0.0
 10
176.0590842685718
 20
85.76332032713871
 30
0.0
 10
175.8809510350178
 20
85.8971052302238
 30
0.0
 10
175.7435739430153
 20
85.95765299738196
 30
0.0
 10
175.5965836031153
 20
85.97685294576584
 30
0.0
  0
LINE
  5
AE
330
1F
100
AcDbEntity
  8
0
  6
Continuous
 62
     7
370
    15
100
AcDbLine
 10
172.2702151644
 20
86.1950334997
 30
0.0
 11
172.2438467257
 21
86.1950334997
 31
0.0
  0
LINE
  5
AF
330
1F
100
AcDbEntity
  8
0
  6
Continuous
 62
     7
370
    15
100
AcDbLine
 10
172.2702151644
 20
136.6904788389
 30
0.0
 11
172.2438467257
 21
136.6904788389
 31
0.0
  0
SPLINE
  5
B0
330
1F
100
AcDbEntity
  8
0
  6
Continuous
 62
     7
370
    15
100
AcDbSpline
210
0.0
220
0.0
230
1.0
 70
     8
 71
     3
 72
    10
 73
     6
 74
     0
 42
0.000000001
 43
0.00000001
 40
0.0
 40
0.0
 40
0.0
 40
0.0
 40
0.5000000000000001
 40
0.5000000000000001
 40
1.0
 40
1.0
 40
1.0
 40
1.0
 10
175.5965836031146
 20
136.9086593928145
 30
0.0
 10
175.0746688787187
 20
136.8404866423062
 30
0.0
 10
174.5358176986093
 20
136.7858633773483
 30
0.0
 10
173.4244550565772
 20
136.710767524457
 30
0.0
 10
172.8476142793811
 20
136.6904788388682
 30
0.0
 10
172.2702151644144
 20
136.6904788388682
 30
0.0
  0
SPLINE
  5
B1
330
1F
100
AcDbEntity
  8
0
  6
Continuous
 62
     7
370
    15
100
AcDbSpline
210
0.0
220
0.0
230
1.0
 70
     8
 71
     3
 72
    10
 73
     6
 74
     0
 42
0.000000001
 43
0.00000001
 40
0.0
 40
0.0
 40
0.0
 40
0.0
 40
0.5000000000000001
 40
0.5000000000000001
 40
1.0
 40
1.0
 40
1.0
 40
1.0
 10
175.5965836031146
 20
85.9768529457629
 30
0.0
 10
175.0746688787187
 20
86.04502569627111
 30
0.0
 10
174.5358176986093
 20
86.09964896122904
 30
0.0
 10
173.4244550565772
 20
86.17474481412037
 30
0.0
 10
172.8476142793811
 20
86.19503349970917
 30
0.0
 10
172.2702151644144
 20
86.19503349970917
 30
0.0
  0
SPLINE
  5
B2
330
1F
100
AcDbEntity
  8
0
  6
Continuous
 62
     7
370
    15
100
AcDbSpline
210
0.0
220
0.0
230
1.0
 70
    24
 71
     3
 72
    16
 73
    12
 74
     0
 42
0.000000001
 43
0.00000001
 40
0.0
 40
0.0
 40
0.0
 40
0.0
 40
0.5
 40
0.5
 40
0.75
 40
0.75
 40
0.875
 40
0.875
 40
0.9375
 40
0.9375
 40
1.0
 40
1.0
 40
1.0
 40
1.0
 10
159.3202151644144
 20
133.9427561692887
 30
0.0
 10
159.3202151644144
 20
133.9427561692887
 30
0.0
 10
159.2394151399503
 20
133.9427561692887
 30
0.0
 10
159.1218432469554
 20
133.9427561692887
 30
0.0
 10
159.0829015189915
 20
133.9427561692887
 30
0.0
 10
159.040326304741
 20
133.9427561692887
 30
0.0
 10
159.02879206013
 20
133.9427561692887
 30
0.0
 10
159.0170225199914
 20
133.9427561692887
 30
0.0
 10
159.0140152395604
 20
133.9427561692887
 30
0.0
 10
159.0099857051638
 20
133.9427561692887
 30
0.0
 10
159.0089639257061
 20
133.9427561692887
 30
0.0
 10
159.00896403012
 20
133.9427561692887
 30
0.0
  0
SPLINE
  5
B3
330
1F
100
AcDbEntity
  8
0
  6
Continuous
 62
     7
370
    15
100
AcDbSpline
210
0.0
220
0.0
230
1.0
 70
    24
 71
     3
 72
     9
 73
     5
 74
     0
 42
0.000000001
 43
0.00000001
 40
0.0
 40
0.0
 40
0.0
 40
0.0
 40
0.7022321769713785
 40
1.0
 40
1.0
 40
1.0
 40
1.0
 10
159.0089648844222
 20
88.94275616928867
 30
0.0
 10
159.0278080980096
 20
88.94275616928867
 30
0.0
 10
159.0546414078542
 20
88.94275616928869
 30
0.0
 10
159.1345517774035
 20
88.94275616928867
 30
0.0
 10
159.1583465141816
 20
88.94275616928867
 30
0.0
  0
LINE
  5
B4
330
1F
100
AcDbEntity
  8
0
  6
Continuous
 62
     7
370
    15
100
AcDbLine
 10
157.3202151644
 20
89.2177561693
 30
0.0
 11
157.3202151644
 21
133.6677561693
 31
0.0
  0
LINE
  5
B5
330
1F
100
AcDbEntity
  8
0
  6
Continuous
 62
     7
370
    15
100
AcDbLine
 10
91.9202151644
 20
99.6200005723
 30
0.0
 11
91.9202151644
 21
123.2655117648
 31
0.0
  0
SPLINE
  5
B6
330
1F
100
AcDbEntity
  8
0
  6
Continuous
 62
     7
370
    15
100
AcDbSpline
210
0.0
220
0.0
230
1.0
 70
    11
 71
     3
 72
    74
 73
    70
 74
     0
 42
0.000000001
 43
0.00000001
 40
0.0
 40
0.0
 40
0.0
 40
0.0
 40
0.0624999999999998
 40
0.0624999999999998
 40
0.0937500000000001
 40
0.0937500000000001
 40
0.1250000000000003
 40
0.1250000000000003
 40
0.1562500000000005
 40
0.1562500000000005
 40
0.1875000000000007
 40
0.1875000000000007
 40
0.2500000000000012
 40
0.2500000000000012
 40
0.2812500000000014
 40
0.2812500000000014
 40
0.3125000000000017
 40
0.3125000000000017
 40
0.3437500000000019
 40
0.3437500000000019
 40
0.3750000000000021
 40
0.3750000000000021
 40
0.3906250000000022
 40
0.3906250000000022
 40
0.4062500000000023
 40
0.4062500000000023
 40
0.4375000000000024
 40
0.4375000000000024
 40
0.4687500000000024
 40
0.4687500000000024
 40
0.5000000000000024
 40
0.5000000000000024
 40
0.5312500000000024
 40
0.5312500000000024
 40
0.5625000000000026
 40
0.5625000000000026
 40
0.5937500000000026
 40
0.5937500000000026
 40
0.6250000000000026
 40
0.6250000000000026
 40
0.6562500000000027
 40
0.6562500000000027
 40
0.6875000000000027
 40
0.6875000000000027
 40
0.7187500000000027
 40
0.7187500000000027
 40
0.7500000000000027
 40
0.7500000000000027
 40
0.7812500000000028
 40
0.7812500000000028
 40
0.7968750000000026
 40
0.7968750000000026
 40
0.8125000000000024
 40
0.8125000000000024
 40
0.843750000000002
 40
0.843750000000002
 40
0.8593750000000018
 40
0.8593750000000018
 40
0.8750000000000016
 40
0.8750000000000016
 40
0.906250000000001
 40
0.906250000000001
 40
0.9218750000000009
 40
0.9218750000000009
 40
0.9375000000000007
 40
0.9375000000000007
 40
0.9687500000000003
 40
0.9687500000000003
 40
1.0
 40
1.0
 40
1.0
 40
1.0
 10
198.8319837647221
 20
114.7848876993014
 30
0.0
 10
199.3436267269403
 20
115.1613699507949
 30
0.0
 10
199.9092958561327
 20
115.4371819961015
 30
0.0
 10
200.8268741064623
 20
115.7145499625947
 30
0.0
 10
201.1369308500296
 20
115.7813661345902
 30
0.0
 10
201.7651414659794
 20
115.8664391595475
 30
0.0
 10
202.0847101319242
 20
115.8846417099374
 30
0.0
 10
202.7262629054864
 20
115.8704577506766
 30
0.0
 10
203.0422587575146
 20
115.8384332616898
 30
0.0
 10
203.6650343951607
 20
115.7258845455437
 30
0.0
 10
203.972892259572
 20
115.6450007684883
 30
0.0
 10
204.8751186956155
 20
115.326640811981
 30
0.0
 10
205.4257193017033
 20
115.0252002594665
 30
0.0
 10
206.1619587012206
 20
114.4224209111183
 30
0.0
 10
206.3850497492945
 20
114.2014680978299
 30
0.0
 10
206.783822439772
 20
113.7157602632353
 30
0.0
 10
206.9610857749438
 20
113.4472819609793
 30
0.0
 10
207.2460279259157
 20
112.881755331451
 30
0.0
 10
207.3556951224664
 20
112.5830391257289
 30
0.0
 10
207.4983802752833
 20
111.9555671345165
 30
0.0
 10
207.5287386489742
 20
111.6393031405436
 30
0.0
 10
207.5129212174932
 20
111.1611095644552
 30
0.0
 10
207.4970819099028
 20
110.9998169132774
 30
0.0
 10
207.4451514450924
 20
110.6832977917928
 30
0.0
 10
207.4092866909583
 20
110.5281096193257
 30
0.0
 10
207.2735992055615
 20
110.0712249472002
 30
0.0
 10
207.1437181056339
 20
109.775112773378
 30
0.0
 10
206.8250953628232
 20
109.2275215962964
 30
0.0
 10
206.6355701790054
 20
108.9728106747602
 30
0.0
 10
206.2068970376761
 20
108.504739112223
 30
0.0
 10
205.9719655171494
 20
108.2954858396918
 30
0.0
 10
205.4648236695485
 20
107.9204396755031
 30
0.0
 10
205.1911653214887
 20
107.7545341397043
 30
0.0
 10
204.6256685441663
 20
107.4743208649799
 30
0.0
 10
204.3318136743989
 20
107.358295418653
 30
0.0
 10
203.7218955064119
 20
107.1730493532248
 30
0.0
 10
203.4078940671448
 20
107.1049581549747
 30
0.0
 10
202.7789897051903
 20
107.0193602939375
 30
0.0
 10
202.4616717087189
 20
107.0010813504825
 30
0.0
 10
201.8211567352565
 20
107.0145646067712
 30
0.0
 10
201.5008061980719
 20
107.0467186136104
 30
0.0
 10
200.8770132978279
 20
107.1592206175111
 30
0.0
 10
200.5709736589422
 20
107.2395562533665
 30
0.0
 10
199.970924735222
 20
107.4507793401437
 30
0.0
 10
199.6793448671937
 20
107.5813492483426
 30
0.0
 10
199.1304416995883
 20
107.8858245731902
 30
0.0
 10
198.8704342865987
 20
108.0605366444146
 30
0.0
 10
198.3816784768219
 20
108.4602394028131
 30
0.0
 10
198.1548631604183
 20
108.6845759574572
 30
0.0
 10
197.855698978211
 20
109.0491079229101
 30
0.0
 10
197.7622322533867
 20
109.175812831522
 30
0.0
 10
197.588692728194
 20
109.4404840215391
 30
0.0
 10
197.5081739711239
 20
109.5794140643129
 30
0.0
 10
197.2931918111229
 20
110.0062983069383
 30
0.0
 10
197.1842956549745
 20
110.3041658125781
 30
0.0
 10
197.0777314943733
 20
110.7731530993024
 30
0.0
 10
197.0519775152848
 20
110.9332421566592
 30
0.0
 10
197.0217438917197
 20
111.2511340648697
 30
0.0
 10
197.0169329849893
 20
111.4101670231234
 30
0.0
 10
197.0332762640978
 20
111.887525855621
 30
0.0
 10
197.0868238418793
 20
112.2096747940076
 30
0.0
 10
197.2233841868097
 20
112.6672224130574
 30
0.0
 10
197.2781745739083
 20
112.8164067634665
 30
0.0
 10
197.4056323224069
 20
113.108392700481
 30
0.0
 10
197.4787506343594
 20
113.2518136336517
 30
0.0
 10
197.7191875614122
 20
113.6637462412379
 30
0.0
 10
197.9081190171998
 20
113.9168179199482
 30
0.0
 10
198.3378316795675
 20
114.3848988912716
 30
0.0
 10
198.576162283613
 20
114.5966465735546
 30
0.0
 10
198.8319837647221
 20
114.7848876993014
 30
0.0
  0
LINE
  5
B7
330
1F
100
AcDbEntity
  8
0
  6
Continuous
 62
     7
370
    15
100
AcDbLine
 10
211.1202151644
 20
111.4427561693
 30
0.0
 11
211.1202151644
 21
98.9427561693
 31
0.0
  0
LINE
  5
B8
330
1F
100
AcDbEntity
  8
0
  6
Continuous
 62
     7
370
    15
100
AcDbLine
 10
211.1202151644
 20
123.9427561693
 30
0.0
 11
211.1202151644
 21
111.4427561693
 31
0.0
  0
LINE
  5
B9
330
1F
100
AcDbEntity
  8
0
  6
Continuous
 62
     7
370
    15
100
AcDbLine
 10
211.3202151644
 20
111.4427561693
 30
0.0
 11
211.3202151644
 21
99.1427561693
 31
0.0
  0
LINE
  5
BA
330
1F
100
AcDbEntity
  8
0
  6
Continuous
 62
     7
370
    15
100
AcDbLine
 10
211.3202151644
 20
123.7427561693
 30
0.0
 11
211.3202151644
 21
111.4427561693
 31
0.0
  0
SPLINE
  5
BB
330
1F
100
AcDbEntity
  8
0
  6
HIDDEN
 62
     7
370
     0
100
AcDbSpline
210
0.0
220
0.0
230
1.0
 70
     8
 71
     3
 72
    17
 73
    13
 74
     0
 42
0.000000001
 43
0.00000001
 40
0.0
 40
0.0
 40
0.0
 40
0.0
 40
0.0000761713254959
 40
0.000096911005636
 40
0.2495239015124056
 40
0.5019879379180217
 40
0.5864061921135888
 40
0.6698668295575636
 40
0.7526588289270318
 40
0.8350782033390178
 40
0.9174249854174269
 40
0.9999999999999999
 40
0.9999999999999999
 40
0.9999999999999999
 40
0.9999999999999999
 10
181.3202151524067
 20
79.94275617643744
 30
0.0
 10
181.3202153715746
 20
79.94275617348084
 30
0.0
 10
181.320215650417
 20
79.94275616971925
 30
0.0
 10
181.320829328443
 20
79.94275502183076
 30
0.0
 10
181.2166914520091
 20
79.97497169776518
 30
0.0
 10
180.8482043744754
 20
80.08333284541472
 30
0.0
 10
180.4815920133155
 20
80.18816352395261
 30
0.0
 10
180.2320604489645
 20
80.2578562286594
 30
0.0
 10
179.9542746640518
 20
80.33299793759107
 30
0.0
 10
179.6476148869932
 20
80.4126629311724
 30
0.0
 10
179.3144280544559
 20
80.49581211261118
 30
0.0
 10
179.069430612295
 20
80.55312459483862
 30
0.0
 10
178.946762367292
 20
80.5818204928431
 30
0.0
  0
LWPOLYLINE
  5
BC
330
1F
100
AcDbEntity
  8
0
  6
HIDDEN
 62
     7
370
     0
100
AcDbPolyline
 90
       24
 70
   128
 43
0.0
 10
159.5687861427
 20
102.4550440768
 10
159.6910853316
 20
101.8968168884
 10
159.8785855584
 20
101.3799908569
 10
160.1173807891
 20
100.9428966047
 10
160.3897606738
 20
100.6179514129
 10
160.6755240426
 20
100.4292549798
 10
160.9534771336
 20
100.3908020566
 10
161.2030054377
 20
100.5054445208
 10
161.4056025821
 20
100.7646798653
 10
161.5462428633
 20
101.1492817904
 10
161.6144956351
 20
101.6307261308
 10
161.6052989017
 20
102.1733063623
 10
161.5193347426
 20
102.7367817912
 10
161.3629787264
 20
103.2793620227
 10
161.1478270635
 20
103.7608063631
 10
160.8898365684
 20
104.1454082882
 10
160.6081412159
 20
104.4046436327
 10
160.3236330617
 20
104.5192860969
 10
160.057412774
 20
104.4808331738
 10
159.8292246937
 20
104.2921367407
 10
159.6559924868
 20
103.9671915488
 10
159.5505639936
 20
103.5300972966
 10
159.5207583632
 20
103.0132712651
 10
159.5687861427
 20
102.4550440768
  0
LWPOLYLINE
  5
BD
330
1F
100
AcDbEntity
  8
0
  6
HIDDEN
 62
     7
370
     0
100
AcDbPolyline
 90
       21
 70
   128
 43
0.0
 10
159.925221437
 20
102.4830532359
 10
160.0403734307
 20
101.9806860655
 10
160.2212746413
 20
101.5274940939
 10
160.450217198
 20
101.167838909
 10
160.7047906082
 20
100.9369260659
 10
160.9600754528
 20
100.8573589228
 10
161.1910826725
 20
100.9369260659
 10
161.3751996711
 20
101.167838909
 10
161.494403794
 20
101.5274940939
 10
161.5370265112
 20
101.9806860655
 10
161.498895614
 20
102.4830532359
 10
161.3837436204
 20
102.9854204063
 10
161.2028424097
 20
103.4386123779
 10
160.973899853
 20
103.7982675628
 10
160.7193264428
 20
104.0291804058
 10
160.4640415983
 20
104.108747549
 10
160.2330343786
 20
104.0291804058
 10
160.0489173799
 20
103.7982675628
 10
159.929713257
 20
103.4386123779
 10
159.8870905398
 20
102.9854204063
 10
159.925221437
 20
102.4830532359
  0
SPLINE
  5
BE
330
1F
100
AcDbEntity
  8
0
  6
HIDDEN
 62
     7
370
     0
100
AcDbSpline
210
0.0
220
0.0
230
1.0
 70
     8
 71
     3
 72
    12
 73
     8
 74
     0
 42
0.000000001
 43
0.00000001
 40
0.0
 40
0.0
 40
0.0
 40
0.0
 40
0.4999999999999987
 40
0.4999999999999987
 40
0.7499999999999993
 40
0.7499999999999993
 40
1.0
 40
1.0
 40
1.0
 40
1.0
 10
171.9112967770931
 20
104.6641868460824
 30
0.0
 10
171.9843971375684
 20
104.4694518783211
 30
0.0
 10
172.0203008869007
 20
104.2618737032922
 30
0.0
 10
172.0203530049509
 20
103.9661120532207
 30
0.0
 10
172.0113161948605
 20
103.8684160606469
 30
0.0
 10
171.9752637217449
 20
103.6845481518182
 30
0.0
 10
171.948316080642
 20
103.5972584452112
 30
0.0
 10
171.9112967770931
 20
103.5144593294912
 30
0.0
  0
SPLINE
  5
BF
330
1F
100
AcDbEntity
  8
0
  6
HIDDEN
 62
     7
370
     0
100
AcDbSpline
210
0.0
220
0.0
230
1.0
 70
     8
 71
     3
 72
    50
 73
    46
 74
     0
 42
0.000000001
 43
0.00000001
 40
0.0
 40
0.0
 40
0.0
 40
0.0
 40
0.0625000000000011
 40
0.0625000000000011
 40
0.1250000000000022
 40
0.1250000000000022
 40
0.1875000000000033
 40
0.1875000000000033
 40
0.2500000000000044
 40
0.2500000000000044
 40
0.2812500000000046
 40
0.2812500000000046
 40
0.3125000000000047
 40
0.3125000000000047
 40
0.3750000000000044
 40
0.3750000000000044
 40
0.4062500000000041
 40
0.4062500000000041
 40
0.4375000000000038
 40
0.4375000000000038
 40
0.4687500000000036
 40
0.4687500000000036
 40
0.5000000000000032
 40
0.5000000000000032
 40
0.531250000000003
 40
0.531250000000003
 40
0.5625000000000028
 40
0.5625000000000028
 40
0.5937500000000026
 40
0.5937500000000026
 40
0.6250000000000023
 40
0.6250000000000023
 40
0.687500000000002
 40
0.687500000000002
 40
0.7187500000000014
 40
0.7187500000000014
 40
0.7500000000000009
 40
0.7500000000000009
 40
0.8125000000000007
 40
0.8125000000000007
 40
0.8750000000000004
 40
0.8750000000000004
 40
0.9375000000000002
 40
0.9375000000000002
 40
1.0
 40
1.0
 40
1.0
 40
1.0
 10
171.9112967770931
 20
103.5144593294912
 30
0.0
 10
171.9664830724376
 20
103.3836344635529
 30
0.0
 10
172.0356397007185
 20
103.2977175366658
 30
0.0
 10
172.1831781490249
 20
103.1744200295595
 30
0.0
 10
172.2594630702479
 20
103.1403951793878
 30
0.0
 10
172.4042551974094
 20
103.1110427567883
 30
0.0
 10
172.4741101904888
 20
103.1160499472815
 30
0.0
 10
172.5827364641827
 20
103.1666724660807
 30
0.0
 10
172.6226396938847
 20
103.2124758690022
 30
0.0
 10
172.620384670382
 20
103.3261872195274
 30
0.0
 10
172.6084932431145
 20
103.3727639546199
 30
0.0
 10
172.5611589540662
 20
103.480734442165
 30
0.0
 10
172.5255689272322
 20
103.5430855827675
 30
0.0
 10
172.3943651773661
 20
103.7537597846671
 30
0.0
 10
172.2801255815109
 20
103.9209332964211
 30
0.0
 10
172.1267885716835
 20
104.1956722838496
 30
0.0
 10
172.0773542103352
 20
104.2929680227168
 30
0.0
 10
171.989588875465
 20
104.4921878343046
 30
0.0
 10
171.951108751368
 20
104.5940198666923
 30
0.0
 10
171.8872730934347
 20
104.8029633732198
 30
0.0
 10
171.8621194184456
 20
104.9101617192901
 30
0.0
 10
171.8288070262511
 20
105.1205016858228
 30
0.0
 10
171.8201983722971
 20
105.2248757633684
 30
0.0
 10
171.8202320053942
 20
105.432058173557
 30
0.0
 10
171.8289316126032
 20
105.5317506919198
 30
0.0
 10
171.8624165488367
 20
105.7216334347582
 30
0.0
 10
171.887630497217
 20
105.8130892155373
 30
0.0
 10
171.9516305302072
 20
105.980931951236
 30
0.0
 10
171.9901976823584
 20
106.0574693566515
 30
0.0
 10
172.078147243716
 20
106.1957124792617
 30
0.0
 10
172.1275832444717
 20
106.2570676252147
 30
0.0
 10
172.280864035583
 20
106.4102102106556
 30
0.0
 10
172.3951775395086
 20
106.4750161621662
 30
0.0
 10
172.5256241060314
 20
106.4958685238122
 30
0.0
 10
172.5616490158238
 20
106.4898992686544
 30
0.0
 10
172.6087773088688
 20
106.4549461988196
 30
0.0
 10
172.6205140146276
 20
106.4254878284696
 30
0.0
 10
172.6224162434638
 20
106.3147768878912
 30
0.0
 10
172.5822928500157
 20
106.2114369833482
 30
0.0
 10
172.4740205725742
 20
105.9810071683418
 30
0.0
 10
172.4046480966676
 20
105.850894660428
 30
0.0
 10
172.2591424887549
 20
105.5642092351091
 30
0.0
 10
172.1832432410438
 20
105.4091798115617
 30
0.0
 10
172.0368165179998
 20
105.0632543194864
 30
0.0
 10
171.9662859362646
 20
104.8732013617562
 30
0.0
 10
171.911296777093
 20
104.6641868460824
 30
0.0
  0
SPLINE
  5
C0
330
1F
100
AcDbEntity
  8
0
  6
HIDDEN
 62
     7
370
     0
100
AcDbSpline
210
0.0
220
0.0
230
1.0
 70
    11
 71
     3
 72
    66
 73
    62
 74
     0
 42
0.000000001
 43
0.00000001
 40
0.0
 40
0.0
 40
0.0
 40
0.0
 40
0.03125
 40
0.03125
 40
0.0625
 40
0.0625
 40
0.0937500000000001
 40
0.0937500000000001
 40
0.1250000000000001
 40
0.1250000000000001
 40
0.1562500000000001
 40
0.1562500000000001
 40
0.1875000000000001
 40
0.1875000000000001
 40
0.2187500000000001
 40
0.2187500000000001
 40
0.2500000000000002
 40
0.2500000000000002
 40
0.2812500000000002
 40
0.2812500000000002
 40
0.3125000000000002
 40
0.3125000000000002
 40
0.3437500000000002
 40
0.3437500000000002
 40
0.3750000000000002
 40
0.3750000000000002
 40
0.4062500000000003
 40
0.4062500000000003
 40
0.4375000000000003
 40
0.4375000000000003
 40
0.4687500000000003
 40
0.4687500000000003
 40
0.5000000000000003
 40
0.5000000000000003
 40
0.5312500000000003
 40
0.5312500000000003
 40
0.5625000000000003
 40
0.5625000000000003
 40
0.5937500000000004
 40
0.5937500000000004
 40
0.6250000000000004
 40
0.6250000000000004
 40
0.6562500000000004
 40
0.6562500000000004
 40
0.6875000000000004
 40
0.6875000000000004
 40
0.7187500000000004
 40
0.7187500000000004
 40
0.7500000000000004
 40
0.7500000000000004
 40
0.7812500000000006
 40
0.7812500000000006
 40
0.8125000000000006
 40
0.8125000000000006
 40
0.8750000000000006
 40
0.8750000000000006
 40
0.9375000000000007
 40
0.9375000000000007
 40
0.9687500000000003
 40
0.9687500000000003
 40
1.0
 40
1.0
 40
1.0
 40
1.0
 10
173.9202151644144
 20
109.0054629710562
 30
0.0
 10
173.7710797892871
 20
109.0054629710562
 30
0.0
 10
173.627351481369
 20
109.0116539600655
 30
0.0
 10
173.3484132136744
 20
109.0378269980508
 30
0.0
 10
173.2198560705934
 20
109.0573043458497
 30
0.0
 10
172.9758384198658
 20
109.1116265917497
 30
0.0
 10
172.8603819260321
 20
109.1467659496575
 30
0.0
 10
172.6465452725599
 20
109.2333469354533
 30
0.0
 10
172.5470531673282
 20
109.2849545775995
 30
0.0
 10
172.3612495553923
 20
109.4085547128601
 30
0.0
 10
172.2746061018048
 20
109.4812056285587
 30
0.0
 10
172.1216448024756
 20
109.646065970333
 30
0.0
 10
172.0544371535127
 20
109.738618977186
 30
0.0
 10
171.9411722665716
 20
109.9490556140075
 30
0.0
 10
171.8969279219742
 20
110.0639419011592
 30
0.0
 10
171.8364061423662
 20
110.3125534843931
 30
0.0
 10
171.8204183905117
 20
110.4476273253963
 30
0.0
 10
171.8200159148165
 20
110.7223544888271
 30
0.0
 10
171.8354902810583
 20
110.8660525992931
 30
0.0
 10
171.8954163852095
 20
111.1500508266678
 30
0.0
 10
171.9393988422333
 20
111.2902992629059
 30
0.0
 10
172.0521612594836
 20
111.564417568611
 30
0.0
 10
172.1193411989806
 20
111.6947174417225
 30
0.0
 10
172.2729232608123
 20
111.9435270945098
 30
0.0
 10
172.3592268996921
 20
112.0614065467038
 30
0.0
 10
172.5443561599243
 20
112.2780784493965
 30
0.0
 10
172.6438687813574
 20
112.3780902959561
 30
0.0
 10
172.858779414493
 20
112.5613786752724
 30
0.0
 10
172.9739940454901
 20
112.6442824364234
 30
0.0
 10
173.2174520103155
 20
112.7851947316187
 30
0.0
 10
173.348303420346
 20
112.8446909043053
 30
0.0
 10
173.6248790510417
 20
112.9283414827995
 30
0.0
 10
173.772444485624
 20
112.9520914955315
 30
0.0
 10
174.0664247262228
 20
112.952252034928
 30
0.0
 10
174.2136195997582
 20
112.9287159107634
 30
0.0
 10
174.4897228228391
 20
112.8456245633597
 30
0.0
 10
174.6194167517094
 20
112.7870276092883
 30
0.0
 10
174.8649652407973
 20
112.6453577716645
 30
0.0
 10
174.978425148407
 20
112.5637637086961
 30
0.0
 10
175.1922128908922
 20
112.3821524223126
 30
0.0
 10
175.2930395684356
 20
112.2813592886164
 30
0.0
 10
175.4798328959684
 20
112.0632750794705
 30
0.0
 10
175.5645703852684
 20
111.9475965471455
 30
0.0
 10
175.7168135537677
 20
111.7023002554541
 30
0.0
 10
175.78484333328
 20
111.5714837684364
 30
0.0
 10
175.8982146252559
 20
111.2983405439832
 30
0.0
 10
175.9425152981059
 20
111.1590133234725
 30
0.0
 10
176.003744726154
 20
110.8744261144104
 30
0.0
 10
176.0197777196448
 20
110.7311457282673
 30
0.0
 10
176.02063461469
 20
110.4558240645116
 30
0.0
 10
176.0052365139574
 20
110.3201966028321
 30
0.0
 10
175.9457539762641
 20
110.070677109213
 30
0.0
 10
175.9014638974045
 20
109.9542347575222
 30
0.0
 10
175.7331358222955
 20
109.6383293870208
 30
0.0
 10
175.5748774737927
 20
109.4729804606423
 30
0.0
 10
175.2048495858382
 20
109.2253125579849
 30
0.0
 10
174.9889704960375
 20
109.1396258767216
 30
0.0
 10
174.623946342568
 20
109.0579026068209
 30
0.0
 10
174.4925978262228
 20
109.0379502742558
 30
0.0
 10
174.2163066138476
 20
109.0118889782238
 30
0.0
 10
174.0693505395417
 20
109.0054629710562
 30
0.0
 10
173.9202151644144
 20
109.0054629710562
 30
0.0
  0
LWPOLYLINE
  5
C1
330
1F
100
AcDbEntity
  8
0
  6
HIDDEN
 62
     7
370
     0
100
AcDbPolyline
 90
       22
 70
   128
 43
0.0
 10
171.9112967771
 20
103.5144593295
 10
172.1484322893
 20
103.0300158683
 10
172.5149394973
 20
102.6229206947
 10
172.9840568495
 20
102.3228990047
 10
173.5215304267
 20
102.1518577233
 10
174.0881150882
 20
102.1222859094
 10
174.6424400659
 20
102.236342832
 10
175.1440297667
 20
102.4857003049
 10
175.556259212
 20
102.852150793
 10
175.8490283126
 20
103.3089368861
 10
176.0009597115
 20
103.8227050663
 10
176.0009597115
 20
104.3559411092
 10
175.8490283126
 20
104.8697092895
 10
175.556259212
 20
105.3264953825
 10
175.1440297667
 20
105.6929458706
 10
174.6424400659
 20
105.9423033436
 10
174.0881150882
 20
106.0563602662
 10
173.5215304267
 20
106.0267884523
 10
172.9840568495
 20
105.8557471709
 10
172.5149394973
 20
105.5557254808
 10
172.1484322893
 20
105.1486303073
 10
171.9112967771
 20
104.6641868461
  0
CIRCLE
  5
C2
330
1F
100
AcDbEntity
  8
0
  6
HIDDEN
 62
     7
370
     0
100
AcDbCircle
 10
202.2702151644
 20
111.4427561693
 30
0.0
 40
3.500000000000014
  0
ELLIPSE
  5
C3
330
1F
100
AcDbEntity
  8
0
  6
HIDDEN
 62
     7
370
     0
100
AcDbEllipse
 10
159.6574734646
 20
87.3427561693
 30
0.0
 11
0.0
 21
1.59999999999998
 31
0.0
210
0.0
220
0.0
230
1.0
 40
0.4142135624
 41
4.712388980384695
 42
6.283185307179586
  0
LINE
  5
C4
330
1F
100
AcDbEntity
  8
0
  6
HIDDEN
 62
     7
370
     0
100
AcDbLine
 10
159.6574734646
 20
88.9427561693
 30
0.0
 11
159.3202151644
 21
88.9427561693
 31
0.0
  0
LINE
  5
C5
330
1F
100
AcDbEntity
  8
0
  6
HIDDEN
 62
     7
370
     0
100
AcDbLine
 10
159.3202151644
 20
133.9427561693
 30
0.0
 11
159.6574734646
 21
133.9427561693
 31
0.0
  0
ELLIPSE
  5
C6
330
1F
100
AcDbEntity
  8
0
  6
HIDDEN
 62
     7
370
     0
100
AcDbEllipse
 10
159.6574734646
 20
135.5427561693
 30
0.0
 11
0.0
 21
1.599999999999994
 31
0.0
210
0.0
220
0.0
230
1.0
 40
0.4142135624
 41
3.141592653589793
 42
4.712388980384695
  0
LINE
  5
C7
330
1F
100
AcDbEntity
  8
0
  6
HIDDEN
 62
     7
370
     0
100
AcDbLine
 10
160.3202151644
 20
81.9887334465
 30
0.0
 11
159.7072479874
 21
81.3757662695
 31
0.0
  0
LINE
  5
C8
330
1F
100
AcDbEntity
  8
0
  6
HIDDEN
 62
     7
370
     0
100
AcDbLine
 10
159.7072479874
 20
141.5097460691
 30
0.0
 11
160.3202151644
 21
140.8967788921
 31
0.0
  0
LINE
  5
C9
330
1F
100
AcDbEntity
  8
0
  6
HIDDEN
 62
     7
370
     0
100
AcDbLine
 10
98.9202151644
 20
102.9427561693
 30
0.0
 11
98.9202151644
 21
119.9427561693
 31
0.0
  0
LINE
  5
CA
330
1F
100
AcDbEntity
  8
0
  6
HIDDEN
 62
     7
370
     0
100
AcDbLine
 10
101.9161443788
 20
104.4427561693
 30
0.0
 11
101.9161443788
 21
118.4427561693
 31
0.0
  0
LINE
  5
CB
330
1F
100
AcDbEntity
  8
0
  6
HIDDEN
 62
     7
370
     0
100
AcDbLine
 10
160.3202151644
 20
140.8967788921
 30
0.0
 11
169.4527767079
 21
140.8967788921
 31
0.0
  0
LINE
  5
CC
330
1F
100
AcDbEntity
  8
0
  6
HIDDEN
 62
     7
370
     0
100
AcDbLine
 10
160.3202151644
 20
140.8967788921
 30
0.0
 11
160.3202151644
 21
135.5427561693
 31
0.0
  0
LINE
  5
CD
330
1F
100
AcDbEntity
  8
0
  6
HIDDEN
 62
     7
370
     0
100
AcDbLine
 10
169.4527767079
 20
81.9887334465
 30
0.0
 11
160.3202151644
 21
81.9887334465
 31
0.0
  0
LINE
  5
CE
330
1F
100
AcDbEntity
  8
0
  6
HIDDEN
 62
     7
370
     0
100
AcDbLine
 10
160.3202151644
 20
81.9887334465
 30
0.0
 11
160.3202151644
 21
87.3427561693
 31
0.0
  0
LINE
  5
CF
330
1F
100
AcDbEntity
  8
0
  6
HIDDEN
 62
     7
370
     0
100
AcDbLine
 10
159.6574734646
 20
133.9427561693
 30
0.0
 11
172.2702151644
 21
133.9427561693
 31
0.0
  0
LINE
  5
D0
330
1F
100
AcDbEntity
  8
0
  6
HIDDEN
 62
     7
370
     0
100
AcDbLine
 10
172.2702151644
 20
88.9427561693
 30
0.0
 11
159.6574734646
 21
88.9427561693
 31
0.0
  0
LINE
  5
D1
330
1F
100
AcDbEntity
  8
0
  6
HIDDEN
 62
     7
370
     0
100
AcDbLine
 10
178.7202151644
 20
88.9427561693
 30
0.0
 11
172.2702151644
 21
88.9427561693
 31
0.0
  0
LINE
  5
D2
330
1F
100
AcDbEntity
  8
0
  6
HIDDEN
 62
     7
370
     0
100
AcDbLine
 10
172.2702151644
 20
133.9427561693
 30
0.0
 11
178.7202151644
 21
133.9427561693
 31
0.0
  0
SPLINE
  5
D3
330
1F
100
AcDbEntity
  8
0
  6
HIDDEN
 62
     7
370
     0
100
AcDbSpline
210
0.0
220
0.0
230
1.0
 70
     8
 71
     3
 72
    13
 73
     9
 74
     0
 42
0.000000001
 43
0.00000001
 40
0.0
 40
0.0
 40
0.0
 40
0.0
 40
0.185045465315833
 40
0.3520092965873052
 40
0.5010298177386137
 40
0.6766227814616118
 40
0.843096261484258
 40
0.9999999999999999
 40
0.9999999999999999
 40
0.9999999999999999
 40
0.9999999999999999
 10
178.2964787950269
 20
141.3476169449997
 30
0.0
 10
178.5232689106486
 20
141.4064536165399
 30
0.0
 10
178.9546884482022
 20
141.5183777608416
 30
0.0
 10
179.4421439191529
 20
141.6586438324701
 30
0.0
 10
179.8312530956983
 20
141.7779385917259
 30
0.0
 10
180.1121530161235
 20
141.868606401351
 30
0.0
 10
180.2890377911861
 20
141.9305221617009
 30
0.0
 10
180.3099001710087
 20
141.938711417857
 30
0.0
 10
180.3200226694435
 20
141.9426848731065
 30
0.0
  0
LINE
  5
D4
330
1F
100
AcDbEntity
  8
0
  6
HIDDEN
 62
     7
370
     0
100
AcDbLine
 10
179.0467093383
 20
141.5473300243
 30
0.0
 11
178.296456777
 21
141.3478043712
 31
0.0
  0
LINE
  5
D5
330
1F
100
AcDbEntity
  8
0
  6
HIDDEN
 62
     7
370
     0
100
AcDbLine
 10
178.2964569306
 20
81.5377082759
 30
0.0
 11
178.3903996602
 21
81.5127246045
 31
0.0
  0
SPLINE
  5
D6
330
1F
100
AcDbEntity
  8
0
  6
HIDDEN
 62
     7
370
     0
100
AcDbSpline
210
0.0
220
0.0
230
1.0
 70
     8
 71
     3
 72
    13
 73
     9
 74
     0
 42
0.000000001
 43
0.00000001
 40
0.0
 40
0.0
 40
0.0
 40
0.0
 40
0.0000730266253414
 40
0.1576811714088974
 40
0.3241446478178098
 40
0.4996852929261399
 40
0.7294244053301453
 40
1.0
 40
1.0
 40
1.0
 40
1.0
 10
180.3201938573622
 20
80.94276447034052
 30
0.0
 10
180.32020095907
 20
80.9427615602056
 30
0.0
 10
180.3355351689733
 20
80.93647791392613
 30
0.0
 10
180.2760740968761
 20
80.96018960697508
 30
0.0
 10
180.1153236947731
 20
81.01566453753215
 30
0.0
 10
179.7806390585133
 20
81.12361160551545
 30
0.0
 10
179.2227647999772
 20
81.29488382319845
 30
0.0
 10
178.6215983944367
 20
81.45261425118515
 30
0.0
 10
178.2964811125043
 20
81.5379165693993
 30
0.0
  0
LINE
  5
D7
330
1F
100
AcDbEntity
  8
0
  6
HIDDEN
 62
     7
370
     0
100
AcDbLine
 10
192.8202151644
 20
111.4427561693
 30
0.0
 11
192.8202151644
 21
104.7427561693
 31
0.0
  0
LINE
  5
D8
330
1F
100
AcDbEntity
  8
0
  6
HIDDEN
 62
     7
370
     0
100
AcDbLine
 10
192.8202151644
 20
118.1427561693
 30
0.0
 11
192.8202151644
 21
111.4427561693
 31
0.0
  0
LINE
  5
D9
330
1F
100
AcDbEntity
  8
0
  6
HIDDEN
 62
     7
370
     0
100
AcDbLine
 10
196.1862405682
 20
111.4427561693
 30
0.0
 11
196.1862405682
 21
104.4427561693
 31
0.0
  0
LINE
  5
DA
330
1F
100
AcDbEntity
  8
0
  6
HIDDEN
 62
     7
370
     0
100
AcDbLine
 10
196.1862405682
 20
118.4427561693
 30
0.0
 11
196.1862405682
 21
111.4427561693
 31
0.0
  0
LINE
  5
DB
330
1F
100
AcDbEntity
  8
0
  6
HIDDEN
 62
     7
370
     0
100
AcDbLine
 10
134.9202151644
 20
104.4427561693
 30
0.0
 11
134.9202151644
 21
118.4427561693
 31
0.0
  0
LINE
  5
DC
330
1F
100
AcDbEntity
  8
0
  6
HIDDEN
 62
     7
370
     0
100
AcDbLine
 10
137.62408795
 20
108.9427561693
 30
0.0
 11
137.62408795
 21
113.9427561693
 31
0.0
  0
SPLINE
  5
DD
330
1F
100
AcDbEntity
  8
0
  6
HIDDEN
 62
     7
370
     0
100
AcDbSpline
210
0.0
220
0.0
230
1.0
 70
     8
 71
     3
 72
     9
 73
     5
 74
     0
 42
0.000000001
 43
0.00000001
 40
0.0
 40
0.0
 40
0.0
 40
0.0
 40
0.493237740338934
 40
1.0
 40
1.0
 40
1.0
 40
1.0
 10
178.2972747031119
 20
141.347587680461
 30
0.0
 10
178.4031230442731
 20
141.5046097412372
 30
0.0
 10
178.6177220753377
 20
141.8229593887486
 30
0.0
 10
178.8355817182996
 20
142.1427849375247
 30
0.0
 10
178.9459847632559
 20
142.3048604553198
 30
0.0
  0
SPLINE
  5
DE
330
1F
100
AcDbEntity
  8
0
  6
HIDDEN
 62
     7
370
     0
100
AcDbSpline
210
0.0
220
0.0
230
1.0
 70
     8
 71
     3
 72
     9
 73
     5
 74
     0
 42
0.000000001
 43
0.00000001
 40
0.0
 40
0.0
 40
0.0
 40
0.0
 40
0.5067649320089164
 40
1.0
 40
1.0
 40
1.0
 40
1.0
 10
178.9459884485418
 20
80.58066601881154
 30
0.0
 10
178.83558400877
 20
80.74274275433
 30
0.0
 10
178.6177227622664
 20
81.06256901948994
 30
0.0
 10
178.4031228005608
 20
81.38091810101483
 30
0.0
 10
178.2972745738581
 20
81.53793903188568
 30
0.0
  0
SPLINE
  5
DF
330
1F
100
AcDbEntity
  8
0
  6
HIDDEN
 62
     7
370
     0
100
AcDbSpline
210
0.0
220
0.0
230
1.0
 70
    11
 71
     3
 72
    66
 73
    62
 74
     0
 42
0.000000001
 43
0.00000001
 40
0.0
 40
0.0
 40
0.0
 40
0.0
 40
0.03125
 40
0.03125
 40
0.0625
 40
0.0625
 40
0.09375
 40
0.09375
 40
0.125
 40
0.125
 40
0.15625
 40
0.15625
 40
0.1874999999999999
 40
0.1874999999999999
 40
0.2187499999999999
 40
0.2187499999999999
 40
0.2499999999999999
 40
0.2499999999999999
 40
0.2812499999999999
 40
0.2812499999999999
 40
0.3124999999999999
 40
0.3124999999999999
 40
0.3437499999999999
 40
0.3437499999999999
 40
0.3749999999999999
 40
0.3749999999999999
 40
0.4062499999999998
 40
0.4062499999999998
 40
0.4374999999999997
 40
0.4374999999999997
 40
0.4687499999999997
 40
0.4687499999999997
 40
0.4999999999999996
 40
0.4999999999999996
 40
0.5312499999999996
 40
0.5312499999999996
 40
0.5624999999999994
 40
0.5624999999999994
 40
0.5937499999999993
 40
0.5937499999999993
 40
0.6249999999999992
 40
0.6249999999999992
 40
0.6562499999999991
 40
0.6562499999999991
 40
0.6874999999999991
 40
0.6874999999999991
 40
0.7187499999999991
 40
0.7187499999999991
 40
0.7499999999999991
 40
0.7499999999999991
 40
0.781249999999999
 40
0.781249999999999
 40
0.812499999999999
 40
0.812499999999999
 40
0.874999999999999
 40
0.874999999999999
 40
0.937499999999999
 40
0.937499999999999
 40
0.9687499999999994
 40
0.9687499999999994
 40
1.0
 40
1.0
 40
1.0
 40
1.0
 10
173.9202151644144
 20
109.9333403602203
 30
0.0
 10
174.0693505395417
 20
109.9333403602204
 30
0.0
 10
174.2130788474598
 20
109.9565489018736
 30
0.0
 10
174.4920171151544
 20
110.0406635515598
 30
0.0
 10
174.6205742582354
 20
110.0991175936282
 30
0.0
 10
174.864591908963
 20
110.2399742467299
 30
0.0
 10
174.9800484027967
 20
110.3229723876235
 30
0.0
 10
175.1938850562689
 20
110.5049380055748
 30
0.0
 10
175.2933771615006
 20
110.6045661805046
 30
0.0
 10
175.4791807734365
 20
110.821456942474
 30
0.0
 10
175.565824227024
 20
110.9396381638748
 30
0.0
 10
175.7187855263532
 20
111.1866935292541
 30
0.0
 10
175.7859931753161
 20
111.3163755861396
 30
0.0
 10
175.8992580622572
 20
111.5901172669703
 30
0.0
 10
175.9435024068546
 20
111.7301681544564
 30
0.0
 10
176.0040241864625
 20
112.013323315825
 30
0.0
 10
176.0200119383171
 20
112.1576112695933
 30
0.0
 10
176.0204144140123
 20
112.4325696930151
 30
0.0
 10
176.0049400477705
 20
112.5673483009847
 30
0.0
 10
175.9450139436193
 20
112.8171368024581
 30
0.0
 10
175.9010314865955
 20
112.9323633207926
 30
0.0
 10
175.7882690693452
 20
113.1434353789677
 30
0.0
 10
175.7210891298482
 20
113.2366013658037
 30
0.0
 10
175.5675070680165
 20
113.4028458880236
 30
0.0
 10
175.4812034291367
 20
113.4753592357869
 30
0.0
 10
175.2960741689045
 20
113.599010179844
 30
0.0
 10
175.1965615474714
 20
113.6509262116993
 30
0.0
 10
174.9816509143358
 20
113.7382499777427
 30
0.0
 10
174.8664362833387
 20
113.7733663124741
 30
0.0
 10
174.6229783185133
 20
113.8277797751884
 30
0.0
 10
174.4921269084828
 20
113.8476284700103
 30
0.0
 10
174.2155512777871
 20
113.8736725239124
 30
0.0
 10
174.0679858432048
 20
113.8800268967012
 30
0.0
 10
173.774005602606
 20
113.8800717193309
 30
0.0
 10
173.6268107290706
 20
113.8737761539624
 30
0.0
 10
173.3507075059897
 20
113.8479319020095
 30
0.0
 10
173.2210135771194
 20
113.8284455843423
 30
0.0
 10
172.9754650880315
 20
113.773822661033
 30
0.0
 10
172.8620051804218
 20
113.7392851089235
 30
0.0
 10
172.6482174379367
 20
113.6529591620848
 30
0.0
 10
172.5473907603932
 20
113.6007990705629
 30
0.0
 10
172.3605974328604
 20
113.4765070568808
 30
0.0
 10
172.2758599435604
 20
113.4053701572656
 30
0.0
 10
172.1236167750611
 20
113.2418536324561
 30
0.0
 10
172.0555869955488
 20
113.1486037863955
 30
0.0
 10
171.9422157035729
 20
112.9388130554004
 30
0.0
 10
171.8979150307229
 20
112.8246778262662
 30
0.0
 10
171.8366856026747
 20
112.5750348197602
 30
0.0
 10
171.820652609184
 20
112.4409950921391
 30
0.0
 10
171.8197957141387
 20
112.1661657943776
 30
0.0
 10
171.8351938148714
 20
112.0216628575025
 30
0.0
 10
171.8946763525647
 20
111.7381842557557
 30
0.0
 10
171.9389664314243
 20
111.5965444124378
 30
0.0
 10
172.1072945065334
 20
111.1865142229799
 30
0.0
 10
172.2655528550361
 20
110.9340368644951
 30
0.0
 10
172.6355807429906
 20
110.5003715783933
 30
0.0
 10
172.8514598327913
 20
110.3123153320407
 30
0.0
 10
173.2164839862608
 20
110.1007967439408
 30
0.0
 10
173.347832502606
 20
110.0410229123247
 30
0.0
 10
173.6241237149812
 20
109.9573405209166
 30
0.0
 10
173.7710797892871
 20
109.9333403602204
 30
0.0
 10
173.9202151644144
 20
109.9333403602204
 30
0.0
  0
SPLINE
  5
E0
330
1F
100
AcDbEntity
  8
0
  6
HIDDEN
 62
     7
370
     0
100
AcDbSpline
210
0.0
220
0.0
230
1.0
 70
    11
 71
     3
 72
    56
 73
    52
 74
     0
 42
0.000000001
 43
0.00000001
 40
0.0
 40
0.0
 40
0.0
 40
0.0
 40
0.0312499999999997
 40
0.0312499999999997
 40
0.0624999999999994
 40
0.0624999999999994
 40
0.1249999999999989
 40
0.1249999999999989
 40
0.1562499999999989
 40
0.1562499999999989
 40
0.187499999999999
 40
0.187499999999999
 40
0.2187499999999991
 40
0.2187499999999991
 40
0.2499999999999991
 40
0.2499999999999991
 40
0.3124999999999991
 40
0.3124999999999991
 40
0.343749999999999
 40
0.343749999999999
 40
0.374999999999999
 40
0.374999999999999
 40
0.4374999999999992
 40
0.4374999999999992
 40
0.4687499999999992
 40
0.4687499999999992
 40
0.4999999999999992
 40
0.4999999999999992
 40
0.5312499999999992
 40
0.5312499999999992
 40
0.5624999999999992
 40
0.5624999999999992
 40
0.625
 40
0.625
 40
0.6875000000000007
 40
0.6875000000000007
 40
0.7500000000000014
 40
0.7500000000000014
 40
0.7812500000000012
 40
0.7812500000000012
 40
0.812500000000001
 40
0.812500000000001
 40
0.8437500000000009
 40
0.8437500000000009
 40
0.8750000000000007
 40
0.8750000000000007
 40
0.9062500000000004
 40
0.9062500000000004
 40
0.9375000000000002
 40
0.9375000000000002
 40
1.0
 40
1.0
 40
1.0
 40
1.0
 10
171.8796391635772
 20
117.109636258265
 30
0.0
 10
171.9083106801742
 20
117.0078221933921
 30
0.0
 10
171.946080599758
 20
116.9154192757424
 30
0.0
 10
172.0363787365276
 20
116.7486411910468
 30
0.0
 10
172.0896544327009
 20
116.6737715019239
 30
0.0
 10
172.2585855094752
 20
116.4876508374089
 30
0.0
 10
172.3897722254595
 20
116.4096343398255
 30
0.0
 10
172.5350577454629
 20
116.3890597892708
 30
0.0
 10
172.5731986782645
 20
116.3986080092035
 30
0.0
 10
172.6179752114287
 20
116.4459642383836
 30
0.0
 10
172.6248699494687
 20
116.4840650006437
 30
0.0
 10
172.6136214038548
 20
116.5761854786078
 30
0.0
 10
172.5959605586501
 20
116.6312409207471
 30
0.0
 10
172.5472365528881
 20
116.7508476789265
 30
0.0
 10
172.5162975544967
 20
116.8155255480292
 30
0.0
 10
172.412642019178
 20
117.0228869304527
 30
0.0
 10
172.3288366825158
 20
117.1796746856756
 30
0.0
 10
172.2033864180635
 20
117.4388199483284
 30
0.0
 10
172.161293238016
 20
117.5295723228782
 30
0.0
 10
172.0785522467031
 20
117.7225735449164
 30
0.0
 10
172.0377220132954
 20
117.8253545074448
 30
0.0
 10
171.9248722571353
 20
118.1475956206247
 30
0.0
 10
171.8601820737714
 20
118.3865421593358
 30
0.0
 10
171.8197123960335
 20
118.7553092643131
 30
0.0
 10
171.8166705998435
 20
118.8750686749581
 30
0.0
 10
171.8324737564209
 20
119.0941669361672
 30
0.0
 10
171.8512168539657
 20
119.1924959444911
 30
0.0
 10
171.9024907573591
 20
119.3593709916976
 30
0.0
 10
171.9350153033915
 20
119.4292456377938
 30
0.0
 10
172.0071684518334
 20
119.5458546980863
 30
0.0
 10
172.0462736285862
 20
119.5920753378594
 30
0.0
 10
172.1682713670326
 20
119.7048941553475
 30
0.0
 10
172.2558031797624
 20
119.7453474447072
 30
0.0
 10
172.4179197327149
 20
119.7762055641296
 30
0.0
 10
172.4954773900035
 20
119.7673023785611
 30
0.0
 10
172.6066222131074
 20
119.696226330123
 30
0.0
 10
172.6393551994494
 20
119.6339874114128
 30
0.0
 10
172.5957268171293
 20
119.4760861281399
 30
0.0
 10
172.5654115561333
 20
119.4128307252696
 30
0.0
 10
172.4805545724962
 20
119.2675166594098
 30
0.0
 10
172.4257054982331
 20
119.1841447436507
 30
0.0
 10
172.3108668128208
 20
119.0055515861601
 30
0.0
 10
172.2494473836413
 20
118.9078048377427
 30
0.0
 10
172.1332393967543
 20
118.7028265386432
 30
0.0
 10
172.0777253317858
 20
118.5945446033297
 30
0.0
 10
171.9795213564404
 20
118.3691946992013
 30
0.0
 10
171.9376309381943
 20
118.2542887437402
 30
0.0
 10
171.8711242578896
 20
118.0190213407071
 30
0.0
 10
171.8466807629623
 20
117.8980240062114
 30
0.0
 10
171.8061908371668
 20
117.544822574035
 30
0.0
 10
171.8222961303832
 20
117.3132643880107
 30
0.0
 10
171.8796391635772
 20
117.109636258265
 30
0.0
  0
SPLINE
  5
E1
330
1F
100
AcDbEntity
  8
0
  6
HIDDEN
 62
     7
370
     0
100
AcDbSpline
210
0.0
220
0.0
230
1.0
 70
     8
 71
     3
 72
    22
 73
    18
 74
     0
 42
0.000000001
 43
0.00000001
 40
0.0
 40
0.0
 40
0.0
 40
0.0
 40
0.1250000000000006
 40
0.1250000000000006
 40
0.2500000000000012
 40
0.2500000000000012
 40
0.3750000000000018
 40
0.3750000000000018
 40
0.5000000000000023
 40
0.5000000000000023
 40
0.6250000000000029
 40
0.6250000000000029
 40
0.7500000000000036
 40
0.7500000000000036
 40
0.8750000000000018
 40
0.8750000000000018
 40
1.0
 40
1.0
 40
1.0
 40
1.0
 10
175.5965836031146
 20
119.3074111449439
 30
0.0
 10
175.4983053795591
 20
119.1828824250117
 30
0.0
 10
175.3869826122519
 20
119.0712792855794
 30
0.0
 10
175.1391740038872
 20
118.873295442391
 30
0.0
 10
175.001222478337
 20
118.7866409202022
 30
0.0
 10
174.712961516753
 20
118.6481173449793
 30
0.0
 10
174.5605179978408
 20
118.5946735937028
 30
0.0
 10
174.2436062595652
 20
118.5224934435576
 30
0.0
 10
174.0836177554567
 20
118.5045754041642
 30
0.0
 10
173.7606476488347
 20
118.5042902626667
 30
0.0
 10
173.597085165182
 20
118.522588572535
 30
0.0
 10
173.2835869340421
 20
118.5936839947258
 30
0.0
 10
173.1300849678132
 20
118.6469945469898
 30
0.0
 10
172.8394822699389
 20
118.7863759850143
 30
0.0
 10
172.7046620265252
 20
118.8709298821221
 30
0.0
 10
172.4557139498959
 20
119.0691213300282
 30
0.0
 10
172.3421247167268
 20
119.1828827196677
 30
0.0
 10
172.2438467257142
 20
119.3074111449439
 30
0.0
  0
SPLINE
  5
E2
330
1F
100
AcDbEntity
  8
0
  6
HIDDEN
 62
     7
370
     0
100
AcDbSpline
210
0.0
220
0.0
230
1.0
 70
     8
 71
     3
 72
    18
 73
    14
 74
     0
 42
0.000000001
 43
0.00000001
 40
0.0
 40
0.0
 40
0.0
 40
0.0
 40
0.2499999999999999
 40
0.2499999999999999
 40
0.3749999999999997
 40
0.3749999999999997
 40
0.4999999999999996
 40
0.4999999999999996
 40
0.6249999999999994
 40
0.6249999999999994
 40
0.7499999999999992
 40
0.7499999999999992
 40
1.0
 40
1.0
 40
1.0
 40
1.0
 10
175.5965836031146
 20
121.6845094695227
 30
0.0
 10
175.735153951845
 20
121.514929475287
 30
0.0
 10
175.8396393713955
 20
121.3413182671451
 30
0.0
 10
175.9471956045334
 20
121.0582870047416
 30
0.0
 10
175.9742055785055
 20
120.9616139696488
 30
0.0
 10
176.010746540618
 20
120.7605455424773
 30
0.0
 10
176.0202223611302
 20
120.6548016453907
 30
0.0
 10
176.0202079593194
 20
120.4405521531114
 30
0.0
 10
176.0109858462976
 20
120.3325241547011
 30
0.0
 10
175.9747411002662
 20
120.1155312651697
 30
0.0
 10
175.9473668089874
 20
120.0056816474347
 30
0.0
 10
175.8401066870894
 20
119.6860978575188
 30
0.0
 10
175.7349161649501
 20
119.4826928729511
 30
0.0
 10
175.5965836031148
 20
119.3074111449437
 30
0.0
  0
SPLINE
  5
E3
330
1F
100
AcDbEntity
  8
0
  6
HIDDEN
 62
     7
370
     0
100
AcDbSpline
210
0.0
220
0.0
230
1.0
 70
     8
 71
     3
 72
    22
 73
    18
 74
     0
 42
0.000000001
 43
0.00000001
 40
0.0
 40
0.0
 40
0.0
 40
0.0
 40
0.1249999999999982
 40
0.1249999999999982
 40
0.2499999999999963
 40
0.2499999999999963
 40
0.3749999999999969
 40
0.3749999999999969
 40
0.4999999999999976
 40
0.4999999999999976
 40
0.6249999999999981
 40
0.6249999999999981
 40
0.7499999999999988
 40
0.7499999999999988
 40
0.8749999999999993
 40
0.8749999999999993
 40
1.0
 40
1.0
 40
1.0
 40
1.0
 10
172.2438467257142
 20
121.6845094695227
 30
0.0
 10
172.3421249492697
 20
121.8047806583935
 30
0.0
 10
172.4534477165768
 20
121.9119288667895
 30
0.0
 10
172.7012563249416
 20
122.10130690521
 30
0.0
 10
172.8392078504917
 20
122.1837870587675
 30
0.0
 10
173.1274688120757
 20
122.3153218900789
 30
0.0
 10
173.279912330988
 20
122.3658818958641
 30
0.0
 10
173.5968240692636
 20
122.4341085712639
 30
0.0
 10
173.7568125733721
 20
122.4510056428896
 30
0.0
 10
174.079782679994
 20
122.4512747478721
 30
0.0
 10
174.2433451636468
 20
122.4340182185714
 30
0.0
 10
174.5568433947867
 20
122.3668177209253
 30
0.0
 10
174.7103453610156
 20
122.3163867152932
 30
0.0
 10
175.0009480588899
 20
122.1840399401581
 30
0.0
 10
175.1357683023036
 20
122.1035634028234
 30
0.0
 10
175.3847163789329
 20
121.9139991196167
 30
0.0
 10
175.498305612102
 20
121.8047803738115
 30
0.0
 10
175.5965836031146
 20
121.6845094695227
 30
0.0
  0
SPLINE
  5
E4
330
1F
100
AcDbEntity
  8
0
  6
HIDDEN
 62
     7
370
     0
100
AcDbSpline
210
0.0
220
0.0
230
1.0
 70
     8
 71
     3
 72
    18
 73
    14
 74
     0
 42
0.000000001
 43
0.00000001
 40
0.0
 40
0.0
 40
0.0
 40
0.0
 40
0.2499999999999989
 40
0.2499999999999989
 40
0.3749999999999989
 40
0.3749999999999989
 40
0.499999999999999
 40
0.499999999999999
 40
0.624999999999999
 40
0.624999999999999
 40
0.749999999999999
 40
0.749999999999999
 40
1.0
 40
1.0
 40
1.0
 40
1.0
 10
172.2438467257142
 20
119.3074111449439
 30
0.0
 10
172.1052763769838
 20
119.4829941736525
 30
0.0
 10
172.0007909574333
 20
119.6849871892834
 30
0.0
 10
171.8932347242954
 20
120.0050314800813
 30
0.0
 10
171.8662247503233
 20
120.1130907559264
 30
0.0
 10
171.8296837882108
 20
120.3303419850431
 30
0.0
 10
171.8202079676986
 20
120.4408049182311
 30
0.0
 10
171.8202223695093
 20
120.6550474836739
 30
0.0
 10
171.8294444825312
 20
120.7584787704653
 30
0.0
 10
171.8656892285626
 20
120.9594014077485
 30
0.0
 10
171.8930635198414
 20
121.0577066506077
 30
0.0
 10
172.0003236417394
 20
121.3403467436767
 30
0.0
 10
172.1055141638786
 20
121.5152204747733
 30
0.0
 10
172.243846725714
 20
121.6845094695228
 30
0.0
  0
LWPOLYLINE
  5
E5
330
1F
100
AcDbEntity
  8
0
  6
HIDDEN
 62
     7
370
     0
100
AcDbPolyline
 90
       21
 70
   128
 43
0.0
 10
159.925221437
 20
119.4702203972
 10
160.0403734307
 20
119.1042844488
 10
160.2212746413
 20
118.8654228804
 10
160.450217198
 20
118.7770171266
 10
160.7047906082
 20
118.8477209586
 10
160.9600754528
 20
119.0706133926
 10
161.1910826725
 20
119.4238761642
 10
161.3751996711
 20
119.872929452
 10
161.494403794
 20
120.3738167915
 10
161.5370265112
 20
120.8775078399
 10
161.498895614
 20
121.3346978081
 10
161.3837436204
 20
121.7006337566
 10
161.2028424097
 20
121.939495325
 10
160.973899853
 20
122.0279010787
 10
160.7193264428
 20
121.9571972468
 10
160.4640415983
 20
121.7343048128
 10
160.2330343786
 20
121.3810420412
 10
160.0489173799
 20
120.9319887534
 10
159.929713257
 20
120.4311014139
 10
159.8870905398
 20
119.9274103654
 10
159.925221437
 20
119.4702203972
  0
LWPOLYLINE
  5
E6
330
1F
100
AcDbEntity
  8
0
  6
HIDDEN
 62
     7
370
     0
100
AcDbPolyline
 90
       24
 70
   128
 43
0.0
 10
159.5687861427
 20
119.2439826367
 10
159.6910853316
 20
118.8306546138
 10
159.8785855584
 20
118.5359774506
 10
160.1173807891
 20
118.3818060041
 10
160.3897606738
 20
118.3795744653
 10
160.6755240426
 20
118.5294483371
 10
160.9534771336
 20
118.8203121602
 10
161.2030054377
 20
119.2305938953
 10
161.4056025821
 20
119.7298648232
 10
161.5462428633
 20
120.281096303
 10
161.6144956351
 20
120.8434060177
 10
161.6052989017
 20
121.3750900281
 10
161.5193347426
 20
121.8367157635
 10
161.3629787264
 20
122.1940465548
 10
161.1478270635
 20
122.4205808119
 10
160.8898365684
 20
122.4995175254
 10
160.6081412159
 20
122.4250023203
 10
160.3236330617
 20
122.2025616484
 10
160.057412774
 20
121.8486929168
 10
159.8292246937
 20
121.3896409506
 10
159.6559924868
 20
120.8594515339
 10
159.5505639936
 20
120.2974463904
 10
159.5207583632
 20
119.7453068705
 10
159.5687861427
 20
119.2439826367
  0
LWPOLYLINE
  5
E7
330
1F
100
AcDbEntity
  8
0
  6
HIDDEN
 62
     7
370
     0
100
AcDbPolyline
 90
       23
 70
   128
 43
0.0
 10
162.1127001324
 20
118.08768066
 10
161.8716901475
 20
118.2294851453
 10
161.683102912
 20
118.5184282003
 10
161.5622166423
 20
118.931101377
 10
161.518824825
 20
119.434072349
 10
161.556442807
 20
119.9865933994
 10
161.6720230032
 20
120.5439025586
 10
161.8562017935
 20
121.060849953
 10
162.0940581077
 20
121.4955555792
 10
162.3663222417
 20
121.8128021725
 10
162.6509369746
 20
121.9868883008
 10
162.9248445134
 20
122.0037105412
 10
163.1658544984
 20
121.8619060558
 10
163.3544417339
 20
121.5729630009
 10
163.4753280036
 20
121.1602898241
 10
163.5187198209
 20
120.6573188521
 10
163.4811018388
 20
120.1047978017
 10
163.3655216426
 20
119.5474886425
 10
163.1813428523
 20
119.0305412481
 10
162.9434865382
 20
118.5958356219
 10
162.6712224042
 20
118.2785890286
 10
162.3866076713
 20
118.1045029004
 10
162.1127001324
 20
118.08768066
  0
LWPOLYLINE
  5
E8
330
1F
100
AcDbEntity
  8
0
  6
HIDDEN
 62
     7
370
     0
100
AcDbPolyline
 90
       19
 70
   128
 43
0.0
 10
162.9144962567
 20
118.6936787089
 10
162.7344569562
 20
118.8148951256
 10
162.6067444895
 20
119.0690944904
 10
162.5467628648
 20
119.4256166083
 10
162.5617467513
 20
119.8414596502
 10
162.6498888711
 20
120.2664668081
 10
162.8005579838
 20
120.6493759462
 10
162.9955811708
 20
120.9440025714
 10
163.2114357574
 20
121.1148103645
 10
163.4220864948
 20
121.1411973847
 10
163.6021257953
 20
121.019980968
 10
163.729838262
 20
120.7657816032
 10
163.7898198868
 20
120.4092594853
 10
163.7748360003
 20
119.9934164434
 10
163.6866938804
 20
119.5684092856
 10
163.5360247677
 20
119.1855001475
 10
163.3410015808
 20
118.8908735222
 10
163.1251469942
 20
118.7200657292
 10
162.9144962567
 20
118.6936787089
  0
LWPOLYLINE
  5
E9
330
1F
100
AcDbEntity
  8
0
  6
HIDDEN
 62
     7
370
     0
100
AcDbPolyline
 90
       23
 70
   128
 43
0.0
 10
160.3591429739
 20
118.433947564
 10
160.1181329889
 20
118.5757520493
 10
159.9295457535
 20
118.8646951043
 10
159.8086594838
 20
119.277368281
 10
159.7652676664
 20
119.780339253
 10
159.8028856485
 20
120.3328603034
 10
159.9184658447
 20
120.8901694626
 10
160.102644635
 20
121.407116857
 10
160.3405009492
 20
121.8418224832
 10
160.6127650831
 20
122.1590690765
 10
160.8973798161
 20
122.3331552048
 10
161.1712873549
 20
122.3499774452
 10
161.4122973399
 20
122.2081729598
 10
161.6008845754
 20
121.9192299048
 10
161.7217708451
 20
121.5065567281
 10
161.7651626624
 20
121.0035857561
 10
161.7275446803
 20
120.4510647057
 10
161.6119644841
 20
119.8937555465
 10
161.4277856938
 20
119.3768081521
 10
161.1899293797
 20
118.9421025259
 10
160.9176652457
 20
118.6248559326
 10
160.6330505128
 20
118.4507698044
 10
160.3591429739
 20
118.433947564
  0
LWPOLYLINE
  5
EA
330
1F
100
AcDbEntity
  8
0
  6
HIDDEN
 62
     7
370
     0
100
AcDbPolyline
 90
       21
 70
   128
 43
0.0
 10
160.2433270511
 20
118.8542662346
 10
160.0320002124
 20
118.986588237
 10
159.8733576032
 20
119.2602472763
 10
159.7829282674
 20
119.6484556991
 10
159.7695640584
 20
120.1132129601
 10
159.8345731582
 20
120.6090253805
 10
159.971592023
 20
121.087359386
 10
160.1672082918
 20
121.5013923115
 10
160.4022736811
 20
121.8105957294
 10
160.653778353
 20
121.9847026549
 10
160.8971032778
 20
122.006670289
 10
161.1084301164
 20
121.8743482866
 10
161.2670727256
 20
121.6006892473
 10
161.3575020614
 20
121.2124808246
 10
161.3708662704
 20
120.7477235635
 10
161.3058571707
 20
120.2519111432
 10
161.1688383058
 20
119.7735771376
 10
160.9732220371
 20
119.3595442121
 10
160.7381566477
 20
119.0503407942
 10
160.4866519758
 20
118.8762338687
 10
160.2433270511
 20
118.8542662346
  0
LINE
  5
EB
330
1F
100
AcDbEntity
  8
0
  6
HIDDEN
 62
     7
370
     0
100
AcDbLine
 10
161.2951098251
 20
119.7196279704
 30
0.0
 11
161.6348073816
 21
119.0434927013
 31
0.0
  0
LINE
  5
EC
330
1F
100
AcDbEntity
  8
0
  6
HIDDEN
 62
     7
370
     0
100
AcDbLine
 10
161.2951098251
 20
119.7196279704
 30
0.0
 11
159.9960717194
 21
119.9761430779
 31
0.0
  0
LINE
  5
ED
330
1F
100
AcDbEntity
  8
0
  6
HIDDEN
 62
     7
370
     0
100
AcDbLine
 10
161.2951098251
 20
119.7196279704
 30
0.0
 11
161.5295557136
 21
120.8500884235
 31
0.0
  0
LINE
  5
EE
330
1F
100
AcDbEntity
  8
0
  6
HIDDEN
 62
     7
370
     0
100
AcDbLine
 10
161.5295557136
 20
120.8500884235
 30
0.0
 11
160.2305176079
 21
121.106603531
 31
0.0
  0
LINE
  5
EF
330
1F
100
AcDbEntity
  8
0
  6
HIDDEN
 62
     7
370
     0
100
AcDbLine
 10
161.5295557136
 20
120.8500884235
 30
0.0
 11
162.1036991586
 21
121.3044136074
 31
0.0
  0
LINE
  5
F0
330
1F
100
AcDbEntity
  8
0
  6
HIDDEN
 62
     7
370
     0
100
AcDbLine
 10
160.2305176079
 20
121.106603531
 30
0.0
 11
160.8046610529
 21
121.5609287148
 31
0.0
  0
LINE
  5
F1
330
1F
100
AcDbEntity
  8
0
  6
HIDDEN
 62
     7
370
     0
100
AcDbLine
 10
159.9960717194
 20
119.9761430779
 30
0.0
 11
160.2305176079
 21
121.106603531
 31
0.0
  0
LINE
  5
F2
330
1F
100
AcDbEntity
  8
0
  6
HIDDEN
 62
     7
370
     0
100
AcDbLine
 10
159.9960717194
 20
119.9761430779
 30
0.0
 11
160.3357692759
 21
119.3000078088
 31
0.0
  0
LINE
  5
F3
330
1F
100
AcDbEntity
  8
0
  6
HIDDEN
 62
     7
370
     0
100
AcDbLine
 10
162.2089508266
 20
119.4978178852
 30
0.0
 11
160.9099127209
 21
119.7543329926
 31
0.0
  0
LINE
  5
F4
330
1F
100
AcDbEntity
  8
0
  6
HIDDEN
 62
     7
370
     0
100
AcDbLine
 10
160.9099127209
 20
119.7543329926
 30
0.0
 11
160.3357692759
 21
119.3000078088
 31
0.0
  0
LINE
  5
F5
330
1F
100
AcDbEntity
  8
0
  6
HIDDEN
 62
     7
370
     0
100
AcDbLine
 10
161.6348073816
 20
119.0434927013
 30
0.0
 11
160.3357692759
 21
119.3000078088
 31
0.0
  0
LINE
  5
F6
330
1F
100
AcDbEntity
  8
0
  6
HIDDEN
 62
     7
370
     0
100
AcDbLine
 10
162.2089508266
 20
119.4978178852
 30
0.0
 11
161.6348073816
 21
119.0434927013
 31
0.0
  0
LINE
  5
F7
330
1F
100
AcDbEntity
  8
0
  6
HIDDEN
 62
     7
370
     0
100
AcDbLine
 10
162.4433967151
 20
120.6282783382
 30
0.0
 11
161.1443586094
 21
120.8847934457
 31
0.0
  0
LINE
  5
F8
330
1F
100
AcDbEntity
  8
0
  6
HIDDEN
 62
     7
370
     0
100
AcDbLine
 10
161.1443586094
 20
120.8847934457
 30
0.0
 11
160.8046610529
 21
121.5609287148
 31
0.0
  0
LINE
  5
F9
330
1F
100
AcDbEntity
  8
0
  6
HIDDEN
 62
     7
370
     0
100
AcDbLine
 10
162.1036991586
 20
121.3044136074
 30
0.0
 11
160.8046610529
 21
121.5609287148
 31
0.0
  0
LINE
  5
FA
330
1F
100
AcDbEntity
  8
0
  6
HIDDEN
 62
     7
370
     0
100
AcDbLine
 10
162.4433967151
 20
120.6282783382
 30
0.0
 11
162.1036991586
 21
121.3044136074
 31
0.0
  0
LINE
  5
FB
330
1F
100
AcDbEntity
  8
0
  6
HIDDEN
 62
     7
370
     0
100
AcDbLine
 10
160.9099127209
 20
119.7543329926
 30
0.0
 11
161.1443586094
 21
120.8847934457
 31
0.0
  0
LINE
  5
FC
330
1F
100
AcDbEntity
  8
0
  6
HIDDEN
 62
     7
370
     0
100
AcDbLine
 10
162.2089508266
 20
119.4978178852
 30
0.0
 11
162.4433967151
 21
120.6282783382
 31
0.0
  0
LWPOLYLINE
  5
FD
330
1F
100
AcDbEntity
  8
0
  6
HIDDEN
 62
     7
370
     0
100
AcDbPolyline
 90
       21
 70
   128
 43
0.0
 10
160.2433270511
 20
104.0312461039
 10
160.0320002124
 20
103.8989241016
 10
159.8733576032
 20
103.6252650623
 10
159.7829282674
 20
103.2370566395
 10
159.7695640584
 20
102.7722993785
 10
159.8345731582
 20
102.2764869581
 10
159.971592023
 20
101.7981529526
 10
160.1672082918
 20
101.3841200271
 10
160.4022736812
 20
101.0749166092
 10
160.653778353
 20
100.9008096837
 10
160.8971032778
 20
100.8788420496
 10
161.1084301164
 20
101.0111640519
 10
161.2670727256
 20
101.2848230912
 10
161.3575020614
 20
101.673031514
 10
161.3708662704
 20
102.137788775
 10
161.3058571707
 20
102.6336011954
 10
161.1688383059
 20
103.111935201
 10
160.9732220371
 20
103.5259681264
 10
160.7381566477
 20
103.8351715444
 10
160.4866519758
 20
104.0092784698
 10
160.2433270511
 20
104.0312461039
  0
LWPOLYLINE
  5
FE
330
1F
100
AcDbEntity
  8
0
  6
HIDDEN
 62
     7
370
     0
100
AcDbPolyline
 90
       23
 70
   128
 43
0.0
 10
160.3591429739
 20
104.4515647746
 10
160.118132989
 20
104.3097602893
 10
159.9295457535
 20
104.0208172343
 10
159.8086594838
 20
103.6081440575
 10
159.7652676665
 20
103.1051730855
 10
159.8028856485
 20
102.5526520352
 10
159.9184658447
 20
101.995342876
 10
160.1026446351
 20
101.4783954815
 10
160.3405009492
 20
101.0436898554
 10
160.6127650832
 20
100.7264432621
 10
160.8973798161
 20
100.5523571338
 10
161.1712873549
 20
100.5355348934
 10
161.4122973399
 20
100.6773393787
 10
161.6008845754
 20
100.9662824337
 10
161.7217708451
 20
101.3789556105
 10
161.7651626624
 20
101.8819265825
 10
161.7275446804
 20
102.4344476328
 10
161.6119644841
 20
102.9917567921
 10
161.4277856938
 20
103.5087041865
 10
161.1899293797
 20
103.9434098126
 10
160.9176652457
 20
104.260656406
 10
160.6330505128
 20
104.4347425342
 10
160.3591429739
 20
104.4515647746
  0
LWPOLYLINE
  5
FF
330
1F
100
AcDbEntity
  8
0
  6
HIDDEN
 62
     7
370
     0
100
AcDbPolyline
 90
       23
 70
   128
 43
0.0
 10
162.1127001325
 20
104.7978316786
 10
161.8716901475
 20
104.6560271933
 10
161.683102912
 20
104.3670841383
 10
161.5622166423
 20
103.9544109615
 10
161.518824825
 20
103.4514399895
 10
161.556442807
 20
102.8989189392
 10
161.6720230033
 20
102.3416097799
 10
161.8562017936
 20
101.8246623855
 10
162.0940581077
 20
101.3899567594
 10
162.3663222417
 20
101.072710166
 10
162.6509369746
 20
100.8986240378
 10
162.9248445134
 20
100.8818017974
 10
163.1658544984
 20
101.0236062827
 10
163.3544417339
 20
101.3125493377
 10
163.4753280036
 20
101.7252225145
 10
163.5187198209
 20
102.2281934865
 10
163.4811018389
 20
102.7807145368
 10
163.3655216426
 20
103.338023696
 10
163.1813428523
 20
103.8549710905
 10
162.9434865382
 20
104.2896767166
 10
162.6712224042
 20
104.6069233099
 10
162.3866076713
 20
104.7810094382
 10
162.1127001325
 20
104.7978316786
  0
LINE
  5
100
330
1F
100
AcDbEntity
  8
0
  6
HIDDEN
 62
     7
370
     0
100
AcDbLine
 10
160.2305176079
 20
101.7789088076
 30
0.0
 11
160.8046610529
 21
101.3245836237
 31
0.0
  0
LINE
  5
101
330
1F
100
AcDbEntity
  8
0
  6
HIDDEN
 62
     7
370
     0
100
AcDbLine
 10
161.1443586095
 20
102.0007188929
 30
0.0
 11
160.8046610529
 21
101.3245836237
 31
0.0
  0
LINE
  5
102
330
1F
100
AcDbEntity
  8
0
  6
HIDDEN
 62
     7
370
     0
100
AcDbLine
 10
160.909912721
 20
103.1311793459
 30
0.0
 11
161.1443586095
 21
102.0007188929
 31
0.0
  0
LINE
  5
103
330
1F
100
AcDbEntity
  8
0
  6
HIDDEN
 62
     7
370
     0
100
AcDbLine
 10
160.909912721
 20
103.1311793459
 30
0.0
 11
160.3357692759
 21
103.5855045298
 31
0.0
  0
LINE
  5
104
330
1F
100
AcDbEntity
  8
0
  6
HIDDEN
 62
     7
370
     0
100
AcDbLine
 10
159.9960717194
 20
102.9093692606
 30
0.0
 11
160.3357692759
 21
103.5855045298
 31
0.0
  0
LINE
  5
105
330
1F
100
AcDbEntity
  8
0
  6
HIDDEN
 62
     7
370
     0
100
AcDbLine
 10
159.9960717194
 20
102.9093692606
 30
0.0
 11
160.2305176079
 21
101.7789088076
 31
0.0
  0
LINE
  5
106
330
1F
100
AcDbEntity
  8
0
  6
HIDDEN
 62
     7
370
     0
100
AcDbLine
 10
162.4433967151
 20
102.2572340004
 30
0.0
 11
161.1443586095
 21
102.0007188929
 31
0.0
  0
LINE
  5
107
330
1F
100
AcDbEntity
  8
0
  6
HIDDEN
 62
     7
370
     0
100
AcDbLine
 10
162.2089508266
 20
103.3876944534
 30
0.0
 11
160.909912721
 21
103.1311793459
 31
0.0
  0
LWPOLYLINE
  5
108
330
1F
100
AcDbEntity
  8
0
  6
HIDDEN
 62
     7
370
     0
100
AcDbPolyline
 90
       19
 70
   128
 43
0.0
 10
162.9144962567
 20
104.1918336296
 10
162.7344569563
 20
104.0706172129
 10
162.6067444895
 20
103.8164178482
 10
162.5467628648
 20
103.4598957303
 10
162.5617467513
 20
103.0440526884
 10
162.6498888711
 20
102.6190455305
 10
162.8005579838
 20
102.2361363924
 10
162.9955811708
 20
101.9415097672
 10
163.2114357574
 20
101.7707019741
 10
163.4220864948
 20
101.7443149539
 10
163.6021257953
 20
101.8655313705
 10
163.7298382621
 20
102.1197307353
 10
163.7898198868
 20
102.4762528532
 10
163.7748360003
 20
102.8920958951
 10
163.6866938805
 20
103.317103053
 10
163.5360247677
 20
103.7000121911
 10
163.3410015808
 20
103.9946388163
 10
163.1251469942
 20
104.1654466094
 10
162.9144962567
 20
104.1918336296
  0
LINE
  5
109
330
1F
100
AcDbEntity
  8
0
  6
HIDDEN
 62
     7
370
     0
100
AcDbLine
 10
161.5295557136
 20
102.0354239151
 30
0.0
 11
162.1036991586
 21
101.5810987312
 31
0.0
  0
LINE
  5
10A
330
1F
100
AcDbEntity
  8
0
  6
HIDDEN
 62
     7
370
     0
100
AcDbLine
 10
161.2951098251
 20
103.1658843681
 30
0.0
 11
161.5295557136
 21
102.0354239151
 31
0.0
  0
LINE
  5
10B
330
1F
100
AcDbEntity
  8
0
  6
HIDDEN
 62
     7
370
     0
100
AcDbLine
 10
161.2951098251
 20
103.1658843681
 30
0.0
 11
161.6348073816
 21
103.8420196373
 31
0.0
  0
LINE
  5
10C
330
1F
100
AcDbEntity
  8
0
  6
HIDDEN
 62
     7
370
     0
100
AcDbLine
 10
162.2089508266
 20
103.3876944534
 30
0.0
 11
161.6348073816
 21
103.8420196373
 31
0.0
  0
LINE
  5
10D
330
1F
100
AcDbEntity
  8
0
  6
HIDDEN
 62
     7
370
     0
100
AcDbLine
 10
162.2089508266
 20
103.3876944534
 30
0.0
 11
162.4433967151
 21
102.2572340004
 31
0.0
  0
LINE
  5
10E
330
1F
100
AcDbEntity
  8
0
  6
HIDDEN
 62
     7
370
     0
100
AcDbLine
 10
162.4433967151
 20
102.2572340004
 30
0.0
 11
162.1036991586
 21
101.5810987312
 31
0.0
  0
LINE
  5
10F
330
1F
100
AcDbEntity
  8
0
  6
HIDDEN
 62
     7
370
     0
100
AcDbLine
 10
161.5295557136
 20
102.0354239151
 30
0.0
 11
160.2305176079
 21
101.7789088076
 31
0.0
  0
LINE
  5
110
330
1F
100
AcDbEntity
  8
0
  6
HIDDEN
 62
     7
370
     0
100
AcDbLine
 10
162.1036991586
 20
101.5810987312
 30
0.0
 11
160.8046610529
 21
101.3245836237
 31
0.0
  0
LINE
  5
111
330
1F
100
AcDbEntity
  8
0
  6
HIDDEN
 62
     7
370
     0
100
AcDbLine
 10
161.2951098251
 20
103.1658843681
 30
0.0
 11
159.9960717194
 21
102.9093692606
 31
0.0
  0
LINE
  5
112
330
1F
100
AcDbEntity
  8
0
  6
HIDDEN
 62
     7
370
     0
100
AcDbLine
 10
161.6348073816
 20
103.8420196373
 30
0.0
 11
160.3357692759
 21
103.5855045298
 31
0.0
  0
LWPOLYLINE
  5
113
330
1F
100
AcDbEntity
  8
0
  6
HIDDEN
 62
     7
370
     0
100
AcDbPolyline
 90
       26
 70
   128
 43
0.0
 10
171.6743835623
 20
120.4267792923
 10
172.0180740504
 20
120.9191883884
 10
172.4812830603
 20
121.3158098119
 10
173.0349054663
 20
121.5917223801
 10
173.6441551366
 20
121.7295894916
 10
174.2707506737
 20
121.7207484488
 10
174.8753207756
 20
121.5657547668
 10
175.4198780793
 20
121.2743472688
 10
175.8702060467
 20
120.8648361595
 10
176.1980089154
 20
120.3629525281
 10
176.3826896255
 20
119.8002315689
 10
176.412644009
 20
119.2120311093
 10
176.2859899216
 20
118.6353099475
 10
176.0106855055
 20
118.106305595
 10
175.6040291497
 20
117.6582573409
 10
175.0915725685
 20
117.3193177047
 10
174.5055152937
 20
117.1107835105
 10
173.8826814592
 20
117.0457577284
 10
173.2622060054
 20
117.1283261676
 10
172.6830756871
 20
117.3533007494
 10
172.181679392
 20
117.7065454933
 10
171.7895216934
 20
118.1658647331
 10
171.5312433017
 20
118.7023977515
 10
171.4230727982
 20
119.2824322058
 10
171.4718069333
 20
119.8695223981
 10
171.6743835623
 20
120.4267792923
  0
LWPOLYLINE
  5
114
330
1F
100
AcDbEntity
  8
0
  6
HIDDEN
 62
     7
370
     0
100
AcDbPolyline
 90
       22
 70
   128
 43
0.0
 10
172.3481330429
 20
119.8606477476
 10
172.6445848552
 20
120.2639859849
 10
173.0543820184
 20
120.5672940317
 10
173.5411122564
 20
120.743621637
 10
174.0615274513
 20
120.7773013193
 10
174.5693864294
 20
120.6653404911
 10
175.0195636918
 20
120.4176873631
 10
175.3720590131
 20
120.0563470027
 10
175.5955516372
 20
119.6134260866
 10
175.6701832635
 20
119.1282800819
 10
175.5893225447
 20
118.6440163402
 10
175.3601543103
 20
118.2036638201
 10
175.0030411638
 20
117.8463497754
 10
174.5497141753
 20
117.603823127
 10
174.0404534372
 20
117.497633432
 10
173.5205090009
 20
117.5372161108
 10
173.0360802113
 20
117.7190540687
 10
172.6302106922
 20
118.0269902051
 10
172.3389637316
 20
118.4336630429
 10
172.1882179
 20
118.9029379159
 10
172.1913676261
 20
119.3931176922
 10
172.3481330429
 20
119.8606477476
  0
LWPOLYLINE
  5
115
330
1F
100
AcDbEntity
  8
0
  6
HIDDEN
 62
     7
370
     0
100
AcDbPolyline
 90
       26
 70
   128
 43
0.0
 10
171.6743835623
 20
121.4504726454
 10
172.0180740504
 20
121.9428817415
 10
172.4812830603
 20
122.339503165
 10
173.0349054663
 20
122.6154157332
 10
173.6441551366
 20
122.7532828447
 10
174.2707506737
 20
122.7444418019
 10
174.8753207756
 20
122.5894481199
 10
175.4198780793
 20
122.2980406219
 10
175.8702060467
 20
121.8885295126
 10
176.1980089154
 20
121.3866458812
 10
176.3826896255
 20
120.823924922
 10
176.412644009
 20
120.2357244624
 10
176.2859899216
 20
119.6590033006
 10
176.0106855055
 20
119.1299989481
 10
175.6040291497
 20
118.681950694
 10
175.0915725685
 20
118.3430110578
 10
174.5055152937
 20
118.1344768636
 10
173.8826814592
 20
118.0694510815
 10
173.2622060054
 20
118.1520195207
 10
172.6830756871
 20
118.3769941025
 10
172.181679392
 20
118.7302388464
 10
171.7895216934
 20
119.1895580862
 10
171.5312433017
 20
119.7260911046
 10
171.4230727982
 20
120.3061255589
 10
171.4718069333
 20
120.8932157512
 10
171.6743835623
 20
121.4504726454
  0
LINE
  5
116
330
1F
100
AcDbEntity
  8
0
  6
HIDDEN
 62
     7
370
     0
100
AcDbLine
 10
173.8210443085
 20
121.1753739284
 30
0.0
 11
172.6235836844
 21
120.418106792
 31
0.0
  0
LINE
  5
117
330
1F
100
AcDbEntity
  8
0
  6
HIDDEN
 62
     7
370
     0
100
AcDbLine
 10
173.8210443085
 20
121.1753739284
 30
0.0
 11
173.8210443085
 21
121.859414215
 31
0.0
  0
LINE
  5
118
330
1F
100
AcDbEntity
  8
0
  6
HIDDEN
 62
     7
370
     0
100
AcDbLine
 10
173.8210443085
 20
121.1753739284
 30
0.0
 11
175.1176757885
 21
120.5795168172
 31
0.0
  0
LINE
  5
119
330
1F
100
AcDbEntity
  8
0
  6
HIDDEN
 62
     7
370
     0
100
AcDbLine
 10
175.1176757885
 20
120.5795168172
 30
0.0
 11
175.1176757885
 21
121.2635571038
 31
0.0
  0
LINE
  5
11A
330
1F
100
AcDbEntity
  8
0
  6
HIDDEN
 62
     7
370
     0
100
AcDbLine
 10
175.1176757885
 20
120.5795168172
 30
0.0
 11
175.2168466444
 21
119.2263925696
 31
0.0
  0
LINE
  5
11B
330
1F
100
AcDbEntity
  8
0
  6
HIDDEN
 62
     7
370
     0
100
AcDbLine
 10
172.7227545403
 20
119.0649825444
 30
0.0
 11
172.7227545403
 21
119.749022831
 31
0.0
  0
LINE
  5
11C
330
1F
100
AcDbEntity
  8
0
  6
HIDDEN
 62
     7
370
     0
100
AcDbLine
 10
172.7227545403
 20
119.749022831
 30
0.0
 11
172.6235836844
 21
121.1021470786
 31
0.0
  0
LINE
  5
11D
330
1F
100
AcDbEntity
  8
0
  6
HIDDEN
 62
     7
370
     0
100
AcDbLine
 10
172.6235836844
 20
120.418106792
 30
0.0
 11
172.6235836844
 21
121.1021470786
 31
0.0
  0
LINE
  5
11E
330
1F
100
AcDbEntity
  8
0
  6
HIDDEN
 62
     7
370
     0
100
AcDbLine
 10
172.7227545403
 20
119.0649825444
 30
0.0
 11
172.6235836844
 21
120.418106792
 31
0.0
  0
LINE
  5
11F
330
1F
100
AcDbEntity
  8
0
  6
HIDDEN
 62
     7
370
     0
100
AcDbLine
 10
174.0193860203
 20
118.4691254331
 30
0.0
 11
174.0193860203
 21
119.1531657198
 31
0.0
  0
LINE
  5
120
330
1F
100
AcDbEntity
  8
0
  6
HIDDEN
 62
     7
370
     0
100
AcDbLine
 10
174.0193860203
 20
119.1531657198
 30
0.0
 11
175.2168466444
 21
119.9104328562
 31
0.0
  0
LINE
  5
121
330
1F
100
AcDbEntity
  8
0
  6
HIDDEN
 62
     7
370
     0
100
AcDbLine
 10
175.2168466444
 20
119.2263925696
 30
0.0
 11
175.2168466444
 21
119.9104328562
 31
0.0
  0
LINE
  5
122
330
1F
100
AcDbEntity
  8
0
  6
HIDDEN
 62
     7
370
     0
100
AcDbLine
 10
174.0193860203
 20
118.4691254331
 30
0.0
 11
175.2168466444
 21
119.2263925696
 31
0.0
  0
LINE
  5
123
330
1F
100
AcDbEntity
  8
0
  6
HIDDEN
 62
     7
370
     0
100
AcDbLine
 10
172.7227545403
 20
119.749022831
 30
0.0
 11
174.0193860203
 21
119.1531657198
 31
0.0
  0
LINE
  5
124
330
1F
100
AcDbEntity
  8
0
  6
HIDDEN
 62
     7
370
     0
100
AcDbLine
 10
172.7227545403
 20
119.0649825444
 30
0.0
 11
174.0193860203
 21
118.4691254331
 31
0.0
  0
LWPOLYLINE
  5
125
330
1F
100
AcDbEntity
  8
0
  6
HIDDEN
 62
     7
370
     0
100
AcDbPolyline
 90
       24
 70
   128
 43
0.0
 10
172.0741415875
 20
121.3546390054
 10
172.3861699608
 20
121.791207636
 10
172.8119714491
 20
122.1324798012
 10
173.3199663039
 20
122.3531449058
 10
173.8724788707
 20
122.4368372284
 10
174.42853182
 20
122.3773496924
 10
174.9468852484
 20
122.179094216
 10
175.3890952534
 20
121.8567745011
 10
175.7223651418
 20
121.4342955264
 10
175.9219778107
 20
120.9429906248
 10
175.9731289016
 20
120.4192976331
 10
175.872024772
 20
119.9020564649
 10
175.6261638528
 20
119.4296285315
 10
175.2537805236
 20
119.0370516513
 10
174.7824927523
 20
118.7534414557
 10
174.247253797
 20
118.5998320155
 10
173.6877598824
 20
118.5876158401
 10
173.1455061127
 20
118.7176989474
 10
172.6607089693
 20
118.9804336683
 10
172.2693236385
 20
119.3563341707
 10
172.0003773799
 20
119.8175216338
 10
171.873816707
 20
120.3297918933
 10
171.8990280461
 20
120.8551522075
 10
172.0741415875
 20
121.3546390054
  0
LINE
  5
126
330
1F
100
AcDbEntity
  8
0
  6
HIDDEN
 62
     7
370
     0
100
AcDbLine
 10
175.1176757885
 20
121.2635571038
 30
0.0
 11
175.2168466444
 21
119.9104328562
 31
0.0
  0
LINE
  5
127
330
1F
100
AcDbEntity
  8
0
  6
HIDDEN
 62
     7
370
     0
100
AcDbLine
 10
173.8210443085
 20
121.859414215
 30
0.0
 11
175.1176757885
 21
121.2635571038
 31
0.0
  0
LINE
  5
128
330
1F
100
AcDbEntity
  8
0
  6
HIDDEN
 62
     7
370
     0
100
AcDbLine
 10
173.8210443085
 20
121.859414215
 30
0.0
 11
172.6235836844
 21
121.1021470786
 31
0.0
  0
LINE
  5
129
330
1F
100
AcDbEntity
  8
0
  6
HIDDEN
 62
     7
370
     0
100
AcDbLine
 10
159.3202151644
 20
100.0676615913
 30
0.0
 11
160.9770368794
 21
100.3948265901
 31
0.0
  0
LINE
  5
12A
330
1F
100
AcDbEntity
  8
0
  6
HIDDEN
 62
     7
370
     0
100
AcDbLine
 10
160.1633934494
 20
104.5152615634
 30
0.0
 11
159.3202151644
 21
104.3487630077
 31
0.0
  0
LINE
  5
12B
330
1F
100
AcDbEntity
  8
0
  6
HIDDEN
 62
     7
370
     0
100
AcDbLine
 10
161.0317041587
 20
100.864310925
 30
0.0
 11
172.4694875093
 21
103.1228776389
 31
0.0
  0
LINE
  5
12C
330
1F
100
AcDbEntity
  8
0
  6
HIDDEN
 62
     7
370
     0
100
AcDbLine
 10
172.4644718907
 20
106.4856097691
 30
0.0
 11
160.3924128923
 21
104.1017955468
 31
0.0
  0
LINE
  5
12D
330
1F
100
AcDbEntity
  8
0
  6
HIDDEN
 62
     7
370
     0
100
AcDbLine
 10
176.0202151644
 20
104.0893230878
 30
0.0
 11
176.0202151644
 21
110.5934800438
 31
0.0
  0
LINE
  5
12E
330
1F
100
AcDbEntity
  8
0
  6
HIDDEN
 62
     7
370
     0
100
AcDbLine
 10
171.8202151644
 20
110.5935275557
 30
0.0
 11
171.8202151644
 21
105.3275204013
 31
0.0
  0
ARC
  5
12F
330
1F
100
AcDbEntity
  8
0
  6
HIDDEN
 62
     7
370
     0
100
AcDbCircle
 10
92.7202151644
 20
102.1427561693
 30
0.0
 40
0.7999999999999972
100
AcDbArc
 50
90.0
 51
180.0
  0
ARC
  5
130
330
1F
100
AcDbEntity
  8
0
  6
HIDDEN
 62
     7
370
     0
100
AcDbCircle
 10
92.7202151644
 20
120.7427561693
 30
0.0
 40
0.7999999999999972
100
AcDbArc
 50
180.0
 51
270.0
  0
ARC
  5
131
330
1F
100
AcDbEntity
  8
0
  6
HIDDEN
 62
     7
370
     0
100
AcDbCircle
 10
99.8125875952
 20
103.1177561693
 30
0.0
 40
0.3999999999999915
100
AcDbArc
 50
255.0
 51
270.0
  0
ARC
  5
132
330
1F
100
AcDbEntity
  8
0
  6
HIDDEN
 62
     7
370
     0
100
AcDbCircle
 10
99.8125875952
 20
119.7677561693
 30
0.0
 40
0.3999999999999915
100
AcDbArc
 50
90.0
 51
105.0
  0
ARC
  5
133
330
1F
100
AcDbEntity
  8
0
  6
HIDDEN
 62
     7
370
     0
100
AcDbCircle
 10
100.6892750567
 20
103.1177561693
 30
0.0
 40
0.3999999999999927
100
AcDbArc
 50
270.0
 51
330.0
  0
ARC
  5
134
330
1F
100
AcDbEntity
  8
0
  6
HIDDEN
 62
     7
370
     0
100
AcDbCircle
 10
100.6892750567
 20
119.7677561693
 30
0.0
 40
0.3999999999999927
100
AcDbArc
 50
30.0
 51
90.0
  0
LINE
  5
135
330
1F
100
AcDbEntity
  8
0
  6
HIDDEN
 62
     7
370
     0
100
AcDbLine
 10
99.8125875952
 20
102.7177561693
 30
0.0
 11
100.6892750567
 21
102.7177561693
 31
0.0
  0
LINE
  5
136
330
1F
100
AcDbEntity
  8
0
  6
HIDDEN
 62
     7
370
     0
100
AcDbLine
 10
100.6892750567
 20
120.1677561693
 30
0.0
 11
99.8125875952
 21
120.1677561693
 31
0.0
  0
LINE
  5
137
330
1F
100
AcDbEntity
  8
0
  6
HIDDEN
 62
     7
370
     0
100
AcDbLine
 10
99.7090599771
 20
120.1541264998
 30
0.0
 11
98.9202151644
 21
119.9427561693
 31
0.0
  0
LINE
  5
138
330
1F
100
AcDbEntity
  8
0
  6
HIDDEN
 62
     7
370
     0
100
AcDbLine
 10
98.9202151644
 20
102.9427561693
 30
0.0
 11
99.7090599771
 21
102.7313858388
 31
0.0
  0
LINE
  5
139
330
1F
100
AcDbEntity
  8
0
  6
HIDDEN
 62
     7
370
     0
100
AcDbLine
 10
101.0356852183
 20
102.9177561693
 30
0.0
 11
101.9161443788
 21
104.4427561693
 31
0.0
  0
LINE
  5
13A
330
1F
100
AcDbEntity
  8
0
  6
HIDDEN
 62
     7
370
     0
100
AcDbLine
 10
101.9161443788
 20
118.4427561693
 30
0.0
 11
101.0356852183
 21
119.9677561693
 31
0.0
  0
LINE
  5
13B
330
1F
100
AcDbEntity
  8
0
  6
HIDDEN
 62
     7
370
     0
100
AcDbLine
 10
92.7202151644
 20
102.9427561693
 30
0.0
 11
98.9202151644
 21
102.9427561693
 31
0.0
  0
LINE
  5
13C
330
1F
100
AcDbEntity
  8
0
  6
HIDDEN
 62
     7
370
     0
100
AcDbLine
 10
98.9202151644
 20
119.9427561693
 30
0.0
 11
92.7202151644
 21
119.9427561693
 31
0.0
  0
ARC
  5
13D
330
1F
100
AcDbEntity
  8
0
  6
HIDDEN
 62
     7
370
     0
100
AcDbCircle
 10
178.7202151644
 20
87.3427561693
 30
0.0
 40
1.600000000000023
100
AcDbArc
 50
0.0
 51
90.0
  0
ARC
  5
13E
330
1F
100
AcDbEntity
  8
0
  6
HIDDEN
 62
     7
370
     0
100
AcDbCircle
 10
178.7202151644
 20
135.5427561693
 30
0.0
 40
1.600000000000023
100
AcDbArc
 50
270.0
 51
0.0
  0
LINE
  5
13F
330
1F
100
AcDbEntity
  8
0
  6
HIDDEN
 62
     7
370
     0
100
AcDbLine
 10
180.3202151644
 20
135.5427561693
 30
0.0
 11
180.3202151644
 21
141.9426848731
 31
0.0
  0
LINE
  5
140
330
1F
100
AcDbEntity
  8
0
  6
HIDDEN
 62
     7
370
     0
100
AcDbLine
 10
180.3202151644
 20
80.9427644703
 30
0.0
 11
180.3202151644
 21
87.3427561693
 31
0.0
  0
ARC
  5
141
330
1F
100
AcDbEntity
  8
0
  6
HIDDEN
 62
     7
370
     0
100
AcDbCircle
 10
210.3202151644
 20
119.4427561693
 30
0.0
 40
1.0
100
AcDbArc
 50
270.0
 51
0.0
  0
ARC
  5
142
330
1F
100
AcDbEntity
  8
0
  6
HIDDEN
 62
     7
370
     0
100
AcDbCircle
 10
210.3202151644
 20
103.4427561693
 30
0.0
 40
1.0
100
AcDbArc
 50
0.0
 51
90.0
  0
LINE
  5
143
330
1F
100
AcDbEntity
  8
0
  6
HIDDEN
 62
     7
370
     0
100
AcDbLine
 10
194.2148931663
 20
118.9427561693
 30
0.0
 11
193.6202151644
 21
118.9427561693
 31
0.0
  0
LINE
  5
144
330
1F
100
AcDbEntity
  8
0
  6
HIDDEN
 62
     7
370
     0
100
AcDbLine
 10
193.6202151644
 20
103.9427561693
 30
0.0
 11
194.2148931663
 21
103.9427561693
 31
0.0
  0
ARC
  5
145
330
1F
100
AcDbEntity
  8
0
  6
HIDDEN
 62
     7
370
     0
100
AcDbCircle
 10
193.6202151644
 20
118.1427561693
 30
0.0
 40
0.8000000000000398
100
AcDbArc
 50
90.0
 51
180.0
  0
ARC
  5
146
330
1F
100
AcDbEntity
  8
0
  6
HIDDEN
 62
     7
370
     0
100
AcDbCircle
 10
193.6202151644
 20
104.7427561693
 30
0.0
 40
0.8000000000000398
100
AcDbArc
 50
180.0
 51
270.0
  0
ARC
  5
147
330
1F
100
AcDbEntity
  8
0
  6
HIDDEN
 62
     7
370
     0
100
AcDbCircle
 10
194.2148931663
 20
118.1427561693
 30
0.0
 40
0.7999999999999908
100
AcDbArc
 50
75.0
 51
90.0
  0
ARC
  5
148
330
1F
100
AcDbEntity
  8
0
  6
HIDDEN
 62
     7
370
     0
100
AcDbCircle
 10
194.2148931663
 20
104.7427561693
 30
0.0
 40
0.7999999999999972
100
AcDbArc
 50
270.0
 51
285.0
  0
LINE
  5
149
330
1F
100
AcDbEntity
  8
0
  6
HIDDEN
 62
     7
370
     0
100
AcDbLine
 10
194.4219484024
 20
103.9700155083
 30
0.0
 11
196.1862405682
 21
104.4427561693
 31
0.0
  0
LINE
  5
14A
330
1F
100
AcDbEntity
  8
0
  6
HIDDEN
 62
     7
370
     0
100
AcDbLine
 10
196.1862405682
 20
118.4427561693
 30
0.0
 11
194.4219484024
 21
118.9154968303
 31
0.0
  0
LINE
  5
14B
330
1F
100
AcDbEntity
  8
0
  6
HIDDEN
 62
     7
370
     0
100
AcDbLine
 10
210.3202151644
 20
118.4427561693
 30
0.0
 11
196.1862405682
 21
118.4427561693
 31
0.0
  0
LINE
  5
14C
330
1F
100
AcDbEntity
  8
0
  6
HIDDEN
 62
     7
370
     0
100
AcDbLine
 10
196.1862405682
 20
104.4427561693
 30
0.0
 11
210.3202151644
 21
104.4427561693
 31
0.0
  0
LINE
  5
14D
330
1F
100
AcDbEntity
  8
0
  6
HIDDEN
 62
     7
370
     0
100
AcDbLine
 10
101.9161443788
 20
104.4427561693
 30
0.0
 11
134.9202151644
 21
104.4427561693
 31
0.0
  0
LINE
  5
14E
330
1F
100
AcDbEntity
  8
0
  6
HIDDEN
 62
     7
370
     0
100
AcDbLine
 10
134.9202151644
 20
118.4427561693
 30
0.0
 11
101.9161443788
 21
118.4427561693
 31
0.0
  0
LINE
  5
14F
330
1F
100
AcDbEntity
  8
0
  6
HIDDEN
 62
     7
370
     0
100
AcDbLine
 10
134.9202151644
 20
104.4427561693
 30
0.0
 11
137.62408795
 21
108.9427561693
 31
0.0
  0
LINE
  5
150
330
1F
100
AcDbEntity
  8
0
  6
HIDDEN
 62
     7
370
     0
100
AcDbLine
 10
137.62408795
 20
113.9427561693
 30
0.0
 11
134.9202151644
 21
118.4427561693
 31
0.0
  0
LINE
  5
151
330
1F
100
AcDbEntity
  8
0
  6
HIDDEN
 62
     7
370
     0
100
AcDbLine
 10
180.3202142544
 20
141.9427559574
 30
0.0
 11
181.3202136238
 21
142.9427557041
 31
0.0
  0
LINE
  5
152
330
1F
100
AcDbEntity
  8
0
  6
HIDDEN
 62
     7
370
     0
100
AcDbLine
 10
181.3202215258
 20
79.9427550316
 30
0.0
 11
180.3202212769
 21
80.9427548361
 31
0.0
  0
LINE
  5
153
330
1F
100
AcDbEntity
  8
0
  6
HIDDEN
 62
     7
370
     0
100
AcDbLine
 10
192.8202151644
 20
113.9427561693
 30
0.0
 11
137.62408795
 21
113.9427561693
 31
0.0
  0
LINE
  5
154
330
1F
100
AcDbEntity
  8
0
  6
HIDDEN
 62
     7
370
     0
100
AcDbLine
 10
137.62408795
 20
108.9427561693
 30
0.0
 11
192.8202151644
 21
108.9427561693
 31
0.0
  0
LINE
  5
155
330
1F
100
AcDbEntity
  8
0
  6
HIDDEN
 62
     7
370
     0
100
AcDbLine
 10
176.0202151644
 20
112.2919847829
 30
0.0
 11
176.0202151644
 21
120.5449166182
 31
0.0
  0
LINE
  5
156
330
1F
100
AcDbEntity
  8
0
  6
HIDDEN
 62
     7
370
     0
100
AcDbLine
 10
171.8202151644
 20
117.5606984178
 30
0.0
 11
171.8202151644
 21
112.2920322948
 31
0.0
  0
LINE
  5
157
330
1F
100
AcDbEntity
  8
0
  6
HIDDEN
 62
     7
370
     0
100
AcDbLine
 10
171.8202151644
 20
120.5449166182
 30
0.0
 11
171.8202151644
 21
118.8577948616
 31
0.0
  0
LINE
  5
158
330
1F
100
AcDbEntity
  8
0
  6
HIDDEN
 62
     7
370
     0
100
AcDbLine
 10
160.3924128923
 20
118.7837167918
 30
0.0
 11
172.4649921933
 21
116.3997998277
 31
0.0
  0
LINE
  5
159
330
1F
100
AcDbEntity
  8
0
  6
HIDDEN
 62
     7
370
     0
100
AcDbLine
 10
172.4709440161
 20
119.7623470899
 30
0.0
 11
161.0317041587
 21
122.0212014136
 31
0.0
  0
LINE
  5
15A
330
1F
100
AcDbEntity
  8
0
  6
HIDDEN
 62
     7
370
     0
100
AcDbLine
 10
159.3202151644
 20
118.5367493309
 30
0.0
 11
160.1633934494
 21
118.3702507752
 31
0.0
  0
LINE
  5
15B
330
1F
100
AcDbEntity
  8
0
  6
HIDDEN
 62
     7
370
     0
100
AcDbLine
 10
160.9770368794
 20
122.4906857484
 30
0.0
 11
159.3202151644
 21
122.8178507473
 31
0.0
  0
LINE
  5
15C
330
1F
100
AcDbEntity
  8
0
  6
HIDDEN
 62
     7
370
     0
100
AcDbLine
 10
162.68144394
 20
118.2877093312
 30
0.0
 11
163.2699611364
 21
118.8186966284
 31
0.0
  0
LINE
  5
15D
330
1F
100
AcDbEntity
  8
0
  6
HIDDEN
 62
     7
370
     0
100
AcDbLine
 10
163.6799718941
 20
120.8950639936
 30
0.0
 11
163.3374611522
 21
121.6098971155
 31
0.0
  0
LINE
  5
15E
330
1F
100
AcDbEntity
  8
0
  6
HIDDEN
 62
     7
370
     0
100
AcDbLine
 10
160.377765912
 20
118.4298506125
 30
0.0
 11
162.1313230705
 21
118.0835837085
 31
0.0
  0
LINE
  5
15F
330
1F
100
AcDbEntity
  8
0
  6
HIDDEN
 62
     7
370
     0
100
AcDbLine
 10
162.9062215753
 20
122.0078074926
 30
0.0
 11
161.1526644168
 21
122.3540743966
 31
0.0
  0
LINE
  5
160
330
1F
100
AcDbEntity
  8
0
  6
HIDDEN
 62
     7
370
     0
100
AcDbLine
 10
160.0654490108
 20
121.3200038105
 30
0.0
 11
160.0069034108
 21
121.1775415131
 31
0.0
  0
LINE
  5
161
330
1F
100
AcDbEntity
  8
0
  6
HIDDEN
 62
     7
370
     0
100
AcDbLine
 10
159.7652151644
 20
119.9535892681
 30
0.0
 11
159.7652151644
 21
119.7995662391
 31
0.0
  0
LINE
  5
162
330
1F
100
AcDbEntity
  8
0
  6
HIDDEN
 62
     7
370
     0
100
AcDbLine
 10
159.7652151644
 20
103.0859460995
 30
0.0
 11
159.7652151644
 21
102.9319230704
 31
0.0
  0
LINE
  5
163
330
1F
100
AcDbEntity
  8
0
  6
HIDDEN
 62
     7
370
     0
100
AcDbLine
 10
160.0069034108
 20
101.7079708255
 30
0.0
 11
160.0654490108
 21
101.565508528
 31
0.0
  0
LINE
  5
164
330
1F
100
AcDbEntity
  8
0
  6
HIDDEN
 62
     7
370
     0
100
AcDbLine
 10
161.1526644168
 20
100.531437942
 30
0.0
 11
162.9062215754
 21
100.877704846
 31
0.0
  0
LINE
  5
165
330
1F
100
AcDbEntity
  8
0
  6
HIDDEN
 62
     7
370
     0
100
AcDbLine
 10
162.1313230705
 20
104.80192863
 30
0.0
 11
160.377765912
 21
104.455661726
 31
0.0
  0
LINE
  5
166
330
1F
100
AcDbEntity
  8
0
  6
HIDDEN
 62
     7
370
     0
100
AcDbLine
 10
163.3374611522
 20
101.2756152231
 30
0.0
 11
163.6799718941
 21
101.9904483449
 31
0.0
  0
LINE
  5
167
330
1F
100
AcDbEntity
  8
0
  6
HIDDEN
 62
     7
370
     0
100
AcDbLine
 10
163.2699611365
 20
104.0668157101
 30
0.0
 11
162.68144394
 21
104.5978030074
 31
0.0
  0
LINE
  5
168
330
1F
100
AcDbEntity
  8
0
  6
HIDDEN
 62
     7
370
     0
100
AcDbLine
 10
171.4202151644
 20
120.4184178547
 30
0.0
 11
171.4202151644
 21
119.3947245016
 31
0.0
  0
LINE
  5
169
330
1F
100
AcDbEntity
  8
0
  6
HIDDEN
 62
     7
370
     0
100
AcDbLine
 10
176.4202151644
 20
119.3947245016
 30
0.0
 11
176.4202151644
 21
120.4184178547
 31
0.0
  0
DIMENSION
  5
16A
330
1F
100
AcDbEntity
  8
VERMASSUNG
100
AcDbDimension
  2
_D
 10
84.5770635772
 20
142.9427561693
 30
0.0
 11
84.5770635772
 21
111.4427561693
 31
0.0
 70
   160
  1
MAS-BT 40 %%c<>
 71
     2
 42
-1.0
  3
SLDDIMSTYLE0
100
AcDbAlignedDimension
 13
183.3202151644
 23
79.9427561693
 33
0.0
 14
183.3202151644
 24
142.9427561693
 34
0.0
 50
90.0
100
AcDbRotatedDimension
  0
DIMENSION
  5
177
330
1F
100
AcDbEntity
  8
VERMASSUNG
100
AcDbDimension
  2
_D_1
 10
221.3202151644
 20
104.4427561693
 30
0.0
 11
221.3202151644
 21
111.4427561693
 31
0.0
 70
   160
  1
%%c<>
 71
     2
 42
-1.0
  3
SLDDIMSTYLE0
100
AcDbAlignedDimension
 13
210.3202151644
 23
118.4427561693
 33
0.0
 14
210.3202151644
 24
104.4427561693
 34
0.0
 50
90.0
100
AcDbRotatedDimension
  0
DIMENSION
  5
182
330
1F
100
AcDbEntity
  8
VERMASSUNG
100
AcDbDimension
  2
_D_2
 10
227.6202151644
 20
98.9427561693
 30
0.0
 11
227.6202151644
 21
111.4427561693
 31
0.0
 70
   160
  1
WH %%c<>
 71
     2
 42
-1.0
  3
SLDDIMSTYLE0
100
AcDbAlignedDimension
 13
211.1202151644
 23
123.9427561693
 33
0.0
 14
211.1202151644
 24
98.9427561693
 34
0.0
 50
90.0
100
AcDbRotatedDimension
  0
DIMENSION
  5
18E
330
1F
100
AcDbEntity
  8
VERMASSUNG
100
AcDbDimension
  2
_D_3
 10
157.3202151644
 20
154.6326587623
 30
0.0
 11
184.3202151644
 21
154.6326587623
 31
0.0
 70
   160
  1
<>
 71
     2
 42
-1.0
  3
SLDDIMSTYLE0
100
AcDbAlignedDimension
 13
211.3202151644
 23
123.7427561693
 33
0.0
 14
157.3202151644
 24
133.6677561693
 34
0.0
100
AcDbRotatedDimension
  0
DIMENSION
  5
198
330
1F
100
AcDbEntity
  8
VERMASSUNG
100
AcDbDimension
  2
_D_4
 10
91.9202151644
 20
160.6326587623
 30
0.0
 11
151.6202151644
 21
160.6326587623
 31
0.0
 70
   160
  1
<>
 71
     2
 42
-1.0
  3
SLDDIMSTYLE0
100
AcDbAlignedDimension
 13
211.3202151644
 23
123.7427561693
 33
0.0
 14
91.9202151644
 24
123.2655117663
 34
0.0
100
AcDbRotatedDimension
  0
DIMENSION
  5
1A2
330
1F
100
AcDbEntity
  8
VERMASSUNG
100
AcDbDimension
  2
_D_5
 10
184.3202151644
 20
148.6326587623
 30
0.0
 11
197.8202151644
 21
148.6326587623
 31
0.0
 70
   160
  1
<>
 71
     2
 42
-1.0
  3
SLDDIMSTYLE0
100
AcDbAlignedDimension
 13
211.3202151644
 23
123.7427561693
 33
0.0
 14
184.3202151644
 24
141.9427561693
 34
0.0
100
AcDbRotatedDimension
  0
LINE
  5
1AC
330
1F
100
AcDbEntity
  8
VERMASSUNG
  6
CENTERX2
370
     0
100
AcDbLine
 10
172.2702151644
 20
144.6289757628
 30
0.0
 11
172.2702151644
 21
129.1207580027
 31
0.0
  0
LINE
  5
1AD
330
1F
100
AcDbEntity
  8
VERMASSUNG
  6
CENTERX2
370
     0
100
AcDbLine
 10
172.2702151644
 20
78.2565005516
 30
0.0
 11
172.2702151644
 21
93.7647312133
 31
0.0
  0
LINE
  5
1AE
330
1F
100
AcDbEntity
  8
VERMASSUNG
  6
CENTERX2
370
     0
100
AcDbLine
 10
89.9202151644
 20
111.4427561693
 30
0.0
 11
214.5401487526
 21
111.4427561693
 31
0.0
  0
LINE
  5
1AF
330
1F
100
AcDbEntity
  8
0
  6
Continuous
 62
     7
370
    15
100
AcDbLine
 10
256.8377572974
 20
46.0658986442
 30
0.0
 11
256.8377572974
 21
45.9810210038
 31
0.0
  0
LINE
  5
1B0
330
1F
100
AcDbEntity
  8
0
  6
Continuous
 62
     7
370
    15
100
AcDbLine
 10
260.8377572974
 20
45.9810210038
 30
0.0
 11
260.8377572974
 21
46.0658986442
 31
0.0
  0
SPLINE
  5
1B1
330
1F
100
AcDbEntity
  8
0
  6
Continuous
 62
     7
370
    15
100
AcDbSpline
210
0.0
220
0.0
230
1.0
 70
     8
 71
     3
 72
    20
 73
    16
 74
     0
 42
0.000000001
 43
0.00000001
 40
0.0
 40
0.0
 40
0.0
 40
0.0
 40
0.0569491615204657
 40
0.1374871749436931
 40
0.2185248906708421
 40
0.300078422238609
 40
0.3820770690502009
 40
0.4644061391587936
 40
0.546946335080875
 40
0.6295977315345446
 40
0.7122861765210514
 40
0.7949568160508332
 40
0.8775891539947541
 40
0.9601750544935581
 40
1.0
 40
1.0
 40
1.0
 40
1.0
 10
245.7672902595741
 20
31.02568593796281
 30
0.0
 10
245.9465076644469
 20
30.98257318398178
 30
0.0
 10
246.3791759257317
 20
30.87848998783562
 30
0.0
 10
247.1081093036732
 20
30.823320802996
 30
0.0
 10
247.9425017567387
 20
30.84465433566007
 30
0.0
 10
248.8065332492473
 20
30.96489221216959
 30
0.0
 10
249.6928315168203
 20
31.17933785989109
 30
0.0
 10
250.5957355902868
 20
31.48797262058238
 30
0.0
 10
251.5087085080906
 20
31.88838655755093
 30
0.0
 10
252.4254034382109
 20
32.37764468419266
 30
0.0
 10
253.3393556365693
 20
32.95239911518011
 30
0.0
 10
254.2449774465017
 20
33.60728839071755
 30
0.0
 10
255.134455811825
 20
34.34203125594825
 30
0.0
 10
255.8584774853038
 20
34.99852649802652
 30
0.0
 10
256.2737081243608
 20
35.43236104664887
 30
0.0
 10
256.4087985849916
 20
35.57350407295355
 30
0.0
  0
SPLINE
  5
1B2
330
1F
100
AcDbEntity
  8
0
  6
Continuous
 62
     7
370
    15
100
AcDbSpline
210
0.0
220
0.0
230
1.0
 70
     8
 71
     3
 72
    20
 73
    16
 74
     0
 42
0.000000001
 43
0.00000001
 40
0.0
 40
0.0
 40
0.0
 40
0.0
 40
0.0367625691996208
 40
0.1193534313548982
 40
0.2020034186416734
 40
0.2847182289000153
 40
0.3674989016978779
 40
0.450338550380391
 40
0.5332175630541616
 40
0.6160816031952109
 40
0.6988535778287736
 40
0.781427210198821
 40
0.8636714818598973
 40
0.9454549705585257
 40
1.0
 40
1.0
 40
1.0
 40
1.0
 10
262.6583713937285
 20
46.39906824841276
 30
0.0
 10
262.7091297151644
 20
46.57219436273157
 30
0.0
 10
262.8739217839747
 20
47.13426595486889
 30
0.0
 10
263.0788358957858
 20
48.07556360129091
 30
0.0
 10
263.2732195188643
 20
49.21413116502579
 30
0.0
 10
263.3902123630516
 20
50.32738351606465
 30
0.0
 10
263.4336993884059
 20
51.40874971087167
 30
0.0
 10
263.4015468666705
 20
52.45111206819287
 30
0.0
 10
263.2937383651715
 20
53.44757244961211
 30
0.0
 10
263.1103615015238
 20
54.39135103804367
 30
0.0
 10
262.8519271835415
 20
55.27537424672376
 30
0.0
 10
262.52073195703
 20
56.0941295672996
 30
0.0
 10
262.1158754337647
 20
56.83716023331836
 30
0.0
 10
261.702960393783
 20
57.44022106560691
 30
0.0
 10
261.3980497119021
 20
57.75867413531317
 30
0.0
 10
261.2760549719379
 20
57.88608718358679
 30
0.0
  0
LINE
  5
1B3
330
1F
100
AcDbEntity
  8
0
  6
Continuous
 62
     7
370
    15
100
AcDbLine
 10
242.7167644423
 20
32.5083891566
 30
0.0
 11
244.2635605261
 21
31.6154427842
 31
0.0
  0
LINE
  5
1B4
330
1F
100
AcDbEntity
  8
0
  6
Continuous
 62
     7
370
    15
100
AcDbLine
 10
260.0122805652
 20
58.8959819492
 30
0.0
 11
258.4654844813
 21
59.7889283215
 31
0.0
  0
LINE
  5
1B5
330
1F
100
AcDbEntity
  8
0
  6
Continuous
 62
     7
370
    15
100
AcDbLine
 10
261.9674230838
 20
34.4787106367
 30
0.0
 11
262.0381222694
 21
34.5195376767
 31
0.0
  0
LINE
  5
1B6
330
1F
100
AcDbEntity
  8
0
  6
Continuous
 62
     7
370
    15
100
AcDbLine
 10
266.3861221866
 20
42.0513105278
 30
0.0
 11
266.3861221866
 21
42.132951339
 31
0.0
  0
LINE
  5
1B7
330
1F
100
AcDbEntity
  8
0
  6
Continuous
 62
     7
370
    15
100
AcDbLine
 10
265.0914508436
 20
44.9944813795
 30
0.0
 11
256.6768801475
 21
49.8521096448
 31
0.0
  0
LINE
  5
1B8
330
1F
100
AcDbEntity
  8
0
  6
Continuous
 62
     7
370
    15
100
AcDbLine
 10
250.4273880685
 20
39.026498865
 30
0.0
 11
258.8419587647
 21
34.1688705997
 31
0.0
  0
LINE
  5
1B9
330
1F
100
AcDbEntity
  8
0
  6
Continuous
 62
     7
370
    15
100
AcDbLine
 10
254.9122729059
 20
61.8401537025
 30
0.0
 11
251.8805525815
 21
63.5903285922
 31
0.0
  0
SPLINE
  5
1BA
330
1F
100
AcDbEntity
  8
0
  6
Continuous
 62
     7
370
    15
100
AcDbSpline
210
0.0
220
0.0
230
1.0
 70
     8
 71
     3
 72
    22
 73
    18
 74
     0
 42
0.000000001
 43
0.00000001
 40
0.0
 40
0.0
 40
0.0
 40
0.0
 40
0.0570158986277799
 40
0.1271423180893623
 40
0.1937502732422289
 40
0.2646938112891276
 40
0.3342857234193553
 40
0.4036965484003662
 40
0.4733295182180727
 40
0.5433207128103927
 40
0.6136133815428588
 40
0.6840845501914241
 40
0.7545911385886055
 40
0.8249441091839091
 40
0.8949852148806223
 40
0.9645773795309472
 40
1.0
 40
1.0
 40
1.0
 40
1.0
 10
259.9191743512454
 20
36.73353832714946
 30
0.0
 10
259.863393435886
 20
36.76847591643006
 30
0.0
 10
259.7390050625615
 20
36.846384818973
 30
0.0
 10
259.5862531867183
 20
37.05475029093467
 30
0.0
 10
259.4521693585738
 20
37.35096126921521
 30
0.0
 10
259.3684149579685
 20
37.72720544191484
 30
0.0
 10
259.3451690507438
 20
38.1752347994635
 30
0.0
 10
259.3883087660926
 20
38.6700692292285
 30
0.0
 10
259.4986930455239
 20
39.19803165476242
 30
0.0
 10
259.675029887749
 20
39.7435466560267
 30
0.0
 10
259.9133951722183
 20
40.28982677047021
 30
0.0
 10
260.207257911588
 20
40.81973671115517
 30
0.0
 10
260.5476272894859
 20
41.31640699586708
 30
0.0
 10
260.9234918794592
 20
41.76467141910732
 30
0.0
 10
261.3216798648629
 20
42.14943014590646
 30
0.0
 10
261.663380747786
 20
42.41416103833565
 30
0.0
 10
261.8656232096129
 20
42.53674689555319
 30
0.0
 10
261.9338417748357
 20
42.5780964282895
 30
0.0
  0
SPLINE
  5
1BB
330
1F
100
AcDbEntity
  8
0
  6
Continuous
 62
     7
370
    15
100
AcDbSpline
210
0.0
220
0.0
230
1.0
 70
     8
 71
     3
 72
    13
 73
     9
 74
     0
 42
0.000000001
 43
0.00000001
 40
0.0
 40
0.0
 40
0.0
 40
0.0
 40
0.1065258913068712
 40
0.3098312169431973
 40
0.5129742969818563
 40
0.7186533605601597
 40
0.9339069240210862
 40
0.9999999999999999
 40
0.9999999999999999
 40
0.9999999999999999
 40
0.9999999999999999
 10
261.9338417748357
 20
42.5780964282895
 30
0.0
 10
262.0023855745082
 20
42.61565082532379
 30
0.0
 10
262.2017456418674
 20
42.72487802250524
 30
0.0
 10
262.5175343313265
 20
42.84295886462379
 30
0.0
 10
262.858044690987
 20
42.90633390227431
 30
0.0
 10
263.1499717082772
 20
42.88768714118542
 30
0.0
 10
263.3426653045375
 20
42.83911752991357
 30
0.0
 10
263.4307407472944
 20
42.77070558674166
 30
0.0
 10
263.4514311559007
 20
42.75463446619467
 30
0.0
  0
SPLINE
  5
1BC
330
1F
100
AcDbEntity
  8
0
  6
Continuous
 62
     7
370
    15
100
AcDbSpline
210
0.0
220
0.0
230
1.0
 70
     8
 71
     3
 72
    31
 73
    27
 74
     0
 42
0.000000001
 43
0.00000001
 40
0.0
 40
0.0
 40
0.0
 40
0.0
 40
0.0396213087942862
 40
0.0817320545073401
 40
0.1241106274718147
 40
0.1667532974967826
 40
0.2096157690052376
 40
0.2526360152946524
 40
0.2957532968829231
 40
0.3389186297236279
 40
0.3820950489194797
 40
0.4252589794936977
 40
0.4684014551647881
 40
0.5115193559945972
 40
0.5546132360446228
 40
0.5976858445699988
 40
0.640741183340291
 40
0.6837839377990366
 40
0.7268191528819771
 40
0.7698520607461425
 40
0.812887616794979
 40
0.855929811443491
 40
0.8989840730411293
 40
0.9420558070823387
 40
0.9851502771087408
 40
1.0
 40
1.0
 40
1.0
 40
1.0
 10
250.3834094886708
 20
64.18645923253192
 30
0.0
 10
250.1421930369099
 20
64.23787545193166
 30
0.0
 10
249.6446043205516
 20
64.34393841083997
 30
0.0
 10
248.8463619503005
 20
64.38618998945688
 30
0.0
 10
248.004570982717
 20
64.34179574036948
 30
0.0
 10
247.134908393816
 20
64.19983508694908
 30
0.0
 10
246.2442130034724
 20
63.96350096166964
 30
0.0
 10
245.3384162916817
 20
63.63347858389014
 30
0.0
 10
244.4240174205028
 20
63.21227738330362
 30
0.0
 10
243.5074032195067
 20
62.70295724541164
 30
0.0
 10
242.5948498712169
 20
62.10930993011694
 30
0.0
 10
241.6924119582756
 20
61.43564041948738
 30
0.0
 10
240.8059206228871
 20
60.68669114919635
 30
0.0
 10
239.9410022640484
 20
59.86758366229199
 30
0.0
 10
239.1031207614508
 20
58.98382181106584
 30
0.0
 10
238.2975665864236
 20
58.04126844339792
 30
0.0
 10
237.5294367213896
 20
57.04611996883035
 30
0.0
 10
236.803611348881
 20
56.0048767898748
 30
0.0
 10
236.1247190938682
 20
54.92430689739309
 30
0.0
 10
235.4971365813435
 20
53.8114157391251
 30
0.0
 10
234.9248683303517
 20
52.67339086074241
 30
0.0
 10
234.4118741560874
 20
51.51762625682215
 30
0.0
 10
233.9606977734232
 20
50.35136491581183
 30
0.0
 10
233.5774832219054
 20
49.18278050139318
 30
0.0
 10
233.3240860608817
 20
48.27168438533165
 30
0.0
 10
233.2103569303448
 20
47.75524898653331
 30
0.0
 10
233.1812108505032
 20
47.62289883758413
 30
0.0
  0
LINE
  5
1BD
330
1F
100
AcDbEntity
  8
0
  6
Continuous
 62
     7
370
    15
100
AcDbLine
 10
242.8740744275
 20
62.2764947254
 30
0.0
 11
222.9810549041
 21
69.4451504296
 31
0.0
  0
LINE
  5
1BE
330
1F
100
AcDbEntity
  8
0
  6
Continuous
 62
     7
370
    15
100
AcDbLine
 10
216.6095854927
 20
58.4082458186
 30
0.0
 11
235.637459579
 21
42.3412662413
 31
0.0
  0
LINE
  5
1BF
330
1F
100
AcDbEntity
  8
0
  6
Continuous
 62
     7
370
    15
100
AcDbLine
 10
236.1318325425
 20
36.3097894272
 30
0.0
 11
239.1635528668
 21
34.5596145375
 31
0.0
  0
SPLINE
  5
1C0
330
1F
100
AcDbEntity
  8
0
  6
Continuous
 62
     7
370
    15
100
AcDbSpline
210
0.0
220
0.0
230
1.0
 70
     8
 71
     3
 72
    12
 73
     8
 74
     0
 42
0.000000001
 43
0.00000001
 40
0.0
 40
0.0
 40
0.0
 40
0.0
 40
0.0808437189434832
 40
0.3227039237445101
 40
0.5638986797775591
 40
0.803803724362314
 40
1.0
 40
1.0
 40
1.0
 40
1.0
 10
233.1686021614095
 20
40.3765216410436
 30
0.0
 10
233.1972276664998
 20
40.27828918326152
 30
0.0
 10
233.3114921131698
 20
39.88617461976023
 30
0.0
 10
233.5641146520514
 20
39.24507717999364
 30
0.0
 10
233.9549842238708
 20
38.48774766240658
 30
0.0
 10
234.3828732457561
 20
37.84053645554083
 30
0.0
 10
234.7098910001445
 20
37.48541441112266
 30
0.0
 10
234.8570120073583
 20
37.32564965169441
 30
0.0
  0
SPLINE
  5
1C1
330
1F
100
AcDbEntity
  8
0
  6
Continuous
 62
     7
370
    15
100
AcDbSpline
210
0.0
220
0.0
230
1.0
 70
     8
 71
     3
 72
    25
 73
    21
 74
     0
 42
0.000000001
 43
0.00000001
 40
0.0
 40
0.0
 40
0.0
 40
0.0
 40
0.0333577104700368
 40
0.0887768915458268
 40
0.1452004606039748
 40
0.2027887059325798
 40
0.2612993771215977
 40
0.3203259364499876
 40
0.3795169970656934
 40
0.4386506694187138
 40
0.4976782556562464
 40
0.5566054513852589
 40
0.6154628315212841
 40
0.6742912600645882
 40
0.7331357734201538
 40
0.7920284861096858
 40
0.8510167595871929
 40
0.9101474451418875
 40
0.9694604150355839
 40
1.0
 40
1.0
 40
1.0
 40
1.0
 10
222.8077434153025
 20
69.48828067515043
 30
0.0
 10
222.7088291003195
 20
69.51751213289049
 30
0.0
 10
222.4455824538968
 20
69.5953075785895
 30
0.0
 10
221.9799732317096
 20
69.61528385463842
 30
0.0
 10
221.4239246862834
 20
69.5593681428925
 30
0.0
 10
220.8451324445916
 20
69.40439874533011
 30
0.0
 10
220.2539264682686
 20
69.15670994327233
 30
0.0
 10
219.6601230806497
 20
68.81841088376213
 30
0.0
 10
219.0748127369087
 20
68.39629299586403
 30
0.0
 10
218.5080829056747
 20
67.89838699654915
 30
0.0
 10
217.9689746157644
 20
67.33375304937071
 30
0.0
 10
217.4655727968719
 20
66.71186333921361
 30
0.0
 10
217.0053799450014
 20
66.04275227353432
 30
0.0
 10
216.5953364698037
 20
65.33694856601814
 30
0.0
 10
216.241762832941
 20
64.60541497695925
 30
0.0
 10
215.9503963721604
 20
63.85942813139822
 30
0.0
 10
215.7257759006189
 20
63.11010207572998
 30
0.0
 10
215.5733495345447
 20
62.36926131632185
 30
0.0
 10
215.504930953091
 20
61.76314820655701
 30
0.0
 10
215.4988018888926
 20
61.41262505460165
 30
0.0
 10
215.4967187085407
 20
61.29348730055515
 30
0.0
  0
SPLINE
  5
1C2
330
1F
100
AcDbEntity
  8
0
  6
Continuous
 62
     7
370
    15
100
AcDbSpline
210
0.0
220
0.0
230
1.0
 70
     8
 71
     3
 72
    13
 73
     9
 74
     0
 42
0.000000001
 43
0.00000001
 40
0.0
 40
0.0
 40
0.0
 40
0.0
 40
0.1043412342946585
 40
0.301655808070682
 40
0.4990049681465095
 40
0.6948144373748241
 40
0.8873793154613151
 40
1.0
 40
1.0
 40
1.0
 40
1.0
 10
215.4967187085407
 20
61.29348730055514
 30
0.0
 10
215.4989301411305
 20
61.17256785130996
 30
0.0
 10
215.5053235050709
 20
60.82298358177268
 30
0.0
 10
215.5770801303404
 20
60.27629267111319
 30
0.0
 10
215.7379296372001
 20
59.67822341854323
 30
0.0
 10
215.9825579847267
 20
59.14988744922589
 30
0.0
 10
216.2499559225296
 20
58.74580794232724
 30
0.0
 10
216.4620777084342
 20
58.55631622554991
 30
0.0
 10
216.5403556601455
 20
58.48638930412446
 30
0.0
  0
LINE
  5
1C3
330
1F
100
AcDbEntity
  8
0
  6
Continuous
 62
     7
370
    15
100
AcDbLine
 10
259.7230385068
 20
46.4938750521
 30
0.0
 11
259.9224320797
 21
45.8372942044
 31
0.0
  0
LINE
  5
1C4
330
1F
100
AcDbEntity
  8
0
  6
Continuous
 62
     7
370
    15
100
AcDbLine
 10
258.6383637245
 20
46.7224794918
 30
0.0
 11
259.7230385068
 21
46.4938750521
 31
0.0
  0
LINE
  5
1C5
330
1F
100
AcDbEntity
  8
0
  6
Continuous
 62
     7
370
    15
100
AcDbLine
 10
257.7530825151
 20
46.2945030839
 30
0.0
 11
258.6383637245
 21
46.7224794918
 31
0.0
  0
LINE
  5
1C6
330
1F
100
AcDbEntity
  8
0
  6
Continuous
 62
     7
370
    15
100
AcDbLine
 10
257.952476088
 20
45.6379222363
 30
0.0
 11
257.7530825151
 21
46.2945030839
 31
0.0
  0
LINE
  5
1C7
330
1F
100
AcDbEntity
  8
0
  6
Continuous
 62
     7
370
    15
100
AcDbLine
 10
259.0371508703
 20
45.4093177965
 30
0.0
 11
257.952476088
 21
45.6379222363
 31
0.0
  0
LINE
  5
1C8
330
1F
100
AcDbEntity
  8
0
  6
Continuous
 62
     7
370
    15
100
AcDbLine
 10
259.9224320797
 20
45.8372942044
 30
0.0
 11
259.0371508703
 21
45.4093177965
 31
0.0
  0
ARC
  5
1C9
330
1F
100
AcDbEntity
  8
0
  6
Continuous
 62
     7
370
    15
100
AcDbCircle
 10
258.4308328978
 20
46.7275449601
 30
0.0
 40
1.784494394295536
100
AcDbArc
 50
208.8487990736
 51
267.8165164013
  0
LWPOLYLINE
  5
1CA
330
1F
100
AcDbEntity
  8
0
  6
Continuous
 62
     7
370
    15
100
AcDbPolyline
 90
       20
 70
   128
 43
0.0
 10
259.9820769994
 20
45.1189827025
 10
260.2410453913
 20
45.2432317472
 10
260.5413064385
 20
45.4610068046
 10
260.7425634018
 20
45.713935977
 10
260.8331199579
 20
45.9873199404
 10
260.8077132891
 20
46.2652706123
 10
260.6678199386
 20
46.5316345102
 10
260.4215699993
 20
46.7709315324
 10
260.0832746227
 20
46.9692546058
 10
259.6725943065
 20
47.1150779144
 10
259.2133962978
 20
47.1999267373
 10
258.7323675158
 20
47.2188699695
 10
258.2574636048
 20
47.1708066991
 10
257.816284254
 20
47.0585301888
 10
257.4344692035
 20
46.8885655412
 10
257.1342081563
 20
46.6707904838
 10
256.932951193
 20
46.4178613113
 10
256.8423946369
 20
46.144477348
 10
256.8678013057
 20
45.866526676
 10
256.8678013057
 20
45.866526676
  0
LINE
  5
1CB
330
1F
100
AcDbEntity
  8
0
  6
Continuous
 62
     7
370
    15
100
AcDbLine
 10
259.7230385068
 20
45.740900263
 30
0.0
 11
259.7230385068
 21
46.4938750521
 31
0.0
  0
LINE
  5
1CC
330
1F
100
AcDbEntity
  8
0
  6
Continuous
 62
     7
370
    15
100
AcDbLine
 10
258.6383637245
 20
45.4933655807
 30
0.0
 11
258.6383637245
 21
46.7224794918
 31
0.0
  0
ARC
  5
1CD
330
1F
100
AcDbEntity
  8
0
  6
Continuous
 62
     7
370
    15
100
AcDbCircle
 10
257.3349828176
 20
54.2582386465
 30
0.0
 40
5.353755168684885
100
AcDbArc
 50
43.6359469001
 51
76.3341348135
  0
ARC
  5
1CE
330
1F
100
AcDbEntity
  8
0
  6
Continuous
 62
     7
370
    15
100
AcDbCircle
 10
246.9403527584
 20
36.2522619381
 30
0.0
 40
5.352739929525865
100
AcDbArc
 50
223.690011534
 51
256.3478001937
  0
ARC
  5
1CF
330
1F
100
AcDbEntity
  8
0
  6
Continuous
 62
     7
370
    15
100
AcDbCircle
 10
246.4985907381
 20
38.2687342762
 30
0.0
 40
6.890847990550891
100
AcDbArc
 50
188.312493873
 51
236.7139908619
  0
SPLINE
  5
1D0
330
1F
100
AcDbEntity
  8
0
  6
Continuous
 62
     7
370
    15
100
AcDbSpline
210
0.0
220
0.0
230
1.0
 70
     8
 71
     3
 72
    29
 73
    25
 74
     0
 42
0.000000001
 43
0.00000001
 40
0.0
 40
0.0
 40
0.0
 40
0.0
 40
0.0226170105032921
 40
0.0451713142240263
 40
0.0676870228488737
 40
0.0901883721253699
 40
0.1126996441678027
 40
0.135245089017566
 40
0.1578488467194459
 40
0.1805348711560506
 40
0.2033268568175892
 40
0.2262481695777687
 40
0.2493217824054336
 40
0.3751991801893576
 40
0.4999614246459921
 40
0.4999717960761083
 40
0.6247044141127994
 40
0.7509557879396762
 40
0.7931713871196463
 40
0.834908104506354
 40
0.8763104515934291
 40
0.9175264576337788
 40
0.9587061619419142
 40
1.0
 40
1.0
 40
1.0
 40
1.0
 10
239.6802973607302
 20
42.42676413258386
 30
0.0
 10
239.6986625858537
 20
42.37792424278194
 30
0.0
 10
239.7353421176039
 20
42.28037987419317
 30
0.0
 10
239.7870319462704
 20
42.13291726478734
 30
0.0
 10
239.8362133060942
 20
41.98497997526384
 30
0.0
 10
239.8827029759941
 20
41.83648811003076
 30
0.0
 10
239.9266130724536
 20
41.68749614389755
 30
0.0
 10
239.9679782639092
 20
41.53802435531944
 30
0.0
 10
240.0068555506137
 20
41.3881042520116
 30
0.0
 10
240.0432973956355
 20
41.23776544203213
 30
0.0
 10
240.0773593767216
 20
41.08704299040976
 30
0.0
 10
240.1090964298176
 20
40.93596129367774
 30
0.0
 10
240.1822547016847
 20
40.56024008672794
 30
0.0
 10
240.2679312417158
 20
39.97146966501902
 30
0.0
 10
240.2936636035447
 20
39.46998606100768
 30
0.0
 10
240.2941007597778
 20
38.99953323576498
 30
0.0
 10
240.268669703055
 20
38.55309070588029
 30
0.0
 10
240.1767023870199
 20
38.11706403438674
 30
0.0
 10
240.084148492975
 20
37.84887115176541
 30
0.0
 10
240.0205658690857
 20
37.70262004092822
 30
0.0
 10
239.94892036505
 20
37.5716997090815
 30
0.0
 10
239.8686655907379
 20
37.45625337663181
 30
0.0
 10
239.7802639311446
 20
37.35473137218932
 30
0.0
 10
239.713907277233
 20
37.29973249522936
 30
0.0
 10
239.6806830353478
 20
37.27219500073839
 30
0.0
  0
LWPOLYLINE
  5
1D1
330
1F
100
AcDbEntity
  8
0
  6
Continuous
 62
     7
370
    15
100
AcDbPolyline
 90
       27
 70
   128
 43
0.0
 10
239.6800786196
 20
42.4268904092
 10
239.9107166341
 20
43.6273867456
 10
240.2195027315
 20
44.8463311203
 10
240.6041775371
 20
46.0748045699
 10
241.0619264021
 20
47.3038184073
 10
241.5893999978
 20
48.5243799913
 10
242.1827388226
 20
49.7275585255
 10
242.837601442
 20
50.9045504045
 10
243.5491962545
 20
52.0467436296
 10
244.3123165515
 20
53.1457808223
 10
245.1213786149
 20
54.1936203749
 10
245.9704625725
 20
55.1825952906
 10
246.8533557135
 20
56.1054692827
 10
247.763597947
 20
56.955489722
 10
248.6945290699
 20
57.7264370458
 10
249.6393374995
 20
58.4126702657
 10
250.5911101131
 20
59.0091682429
 10
251.5428828317
 20
59.5115664274
 10
252.4876915754
 20
59.9161887935
 10
253.4186232194
 20
60.2200747368
 10
254.3288661772
 20
60.4210007369
 10
255.2117602402
 20
60.517496627
 10
256.0608453108
 20
60.5088563508
 10
256.8699086702
 20
60.3951431288
 10
257.6330304366
 20
60.1771889958
 10
258.3446268812
 20
59.8565887128
 10
258.4654844813
 20
59.7889283215
  0
LWPOLYLINE
  5
1D2
330
1F
100
AcDbEntity
  8
0
  6
Continuous
 62
     7
370
    15
100
AcDbPolyline
 90
       46
 70
   128
 43
0.0
 10
262.0374154823
 20
44.5625815771
 10
261.4321924851
 20
44.1643226856
 10
260.8387494651
 20
43.676073266
 10
260.2686371156
 20
43.107336538
 10
259.7329520252
 20
42.4691823151
 10
259.2421206946
 20
41.7740315433
 10
258.8056965975
 20
41.0354145416
 10
258.4321742324
 20
40.2677076498
 10
258.1288237873
 20
39.4858534094
 10
257.9015496337
 20
38.7050697237
 10
257.7547754043
 20
37.9405536591
 10
257.6913578926
 20
37.2071856512
 10
257.7125314483
 20
36.519239874
 10
257.8178839523
 20
35.8901064095
 10
258.0053648378
 20
35.3320306251
 10
258.2713250027
 20
34.855874831
 10
258.610587835
 20
34.4709068582
 10
259.0165499695
 20
34.1846196703
 10
259.4813098149
 20
34.0025855219
 10
259.9958213497
 20
33.9283475006
 10
260.550070192
 20
33.9633505649
 10
261.1332685185
 20
34.1069134202
 10
261.7340650372
 20
34.3562417786
 10
262.3407659273
 20
34.7064827474
 10
262.941562446
 20
35.1508192844
 10
263.5247607726
 20
35.6806028844
 10
264.0790096148
 20
36.2855219122
 10
264.5935211496
 20
36.953802307
 10
265.0582809951
 20
37.6724367512
 10
265.4642431295
 20
38.4274378426
 10
265.8035059618
 20
39.2041103439
 10
266.0694661267
 20
39.9873372082
 10
266.2569470123
 20
40.7618738156
 10
266.3622995162
 20
41.512644692
 10
266.3834730719
 20
42.2250369363
 10
266.3200555602
 20
42.8851846437
 10
266.1732813308
 20
43.4802387902
 10
265.9460071772
 20
43.9986173235
 10
265.6426567322
 20
44.4302305952
 10
265.2691343671
 20
44.7666777438
 10
264.83271027
 20
45.0014102084
 10
264.3418789394
 20
45.1298591886
 10
263.8061938489
 20
45.149524571
 10
263.2360814995
 20
45.0600235913
 10
262.6426384795
 20
44.8630982843
 10
262.0374154823
 20
44.5625815771
  0
LWPOLYLINE
  5
1D3
330
1F
100
AcDbEntity
  8
0
  6
Continuous
 62
     7
370
    15
100
AcDbPolyline
 90
       25
 70
   128
 43
0.0
 10
261.9667048042
 20
44.6850560639
 10
261.3649275482
 20
44.2901242912
 10
260.774360264
 20
43.8074830354
 10
260.2060041025
 20
43.2461229899
 10
259.6704464637
 20
42.6165012301
 10
259.1776637732
 20
41.9303464183
 10
258.7368356399
 20
41.2004403202
 10
258.3561738581
 20
40.4403797054
 10
258.0427694364
 20
39.6643230652
 10
257.8024605062
 20
38.8867268663
 10
257.6397235682
 20
38.1220762546
 10
257.5575901037
 20
37.3846152244
 10
257.5575901037
 20
36.6880812792
 10
257.6397235682
 20
36.0454495286
 10
257.8024605062
 20
35.4686909862
 10
258.0427694364
 20
34.9685495723
 10
258.3561738581
 20
34.5543419752
 10
258.7368356399
 20
34.2337840987
 10
259.1776637732
 20
34.0128473295
 10
259.6704464637
 20
33.8956473016
 10
260.2060041025
 20
33.8843672298
 10
260.774360264
 20
33.9792172405
 10
261.3649275482
 20
34.1784304574
 10
261.9667048042
 20
34.4782959153
 10
261.9674230838
 20
34.4787106367
  0
LWPOLYLINE
  5
1D4
330
1F
100
AcDbEntity
  8
0
  6
Continuous
 62
     7
370
    15
100
AcDbPolyline
 90
       13
 70
   128
 43
0.0
 10
266.3861221866
 20
42.132951339
 10
266.3758195046
 20
42.4752706999
 10
266.2936860401
 20
43.1179024505
 10
266.1309491021
 20
43.694660993
 10
265.8906401719
 20
44.1948024069
 10
265.5772357502
 20
44.609010004
 10
265.1965739684
 20
44.9295678805
 10
264.7557458351
 20
45.1505046496
 10
264.2629631446
 20
45.2677046775
 10
263.7274055058
 20
45.2789847493
 10
263.1590493443
 20
45.1841347386
 10
262.5684820601
 20
44.9849215217
 10
261.9667048042
 20
44.6850560639
  0
SPLINE
  5
1D5
330
1F
100
AcDbEntity
  8
0
  6
Continuous
 62
     7
370
    15
100
AcDbSpline
210
0.0
220
0.0
230
1.0
 70
    11
 71
     3
 72
    74
 73
    70
 74
     0
 42
0.000000001
 43
0.00000001
 40
0.0
 40
0.0
 40
0.0
 40
0.0
 40
0.0624999999999998
 40
0.0624999999999998
 40
0.0937500000000001
 40
0.0937500000000001
 40
0.1250000000000003
 40
0.1250000000000003
 40
0.1562500000000005
 40
0.1562500000000005
 40
0.1875000000000007
 40
0.1875000000000007
 40
0.2500000000000012
 40
0.2500000000000012
 40
0.2812500000000014
 40
0.2812500000000014
 40
0.3125000000000017
 40
0.3125000000000017
 40
0.3437500000000019
 40
0.3437500000000019
 40
0.3750000000000021
 40
0.3750000000000021
 40
0.3906250000000022
 40
0.3906250000000022
 40
0.4062500000000023
 40
0.4062500000000023
 40
0.4375000000000024
 40
0.4375000000000024
 40
0.4687500000000024
 40
0.4687500000000024
 40
0.5000000000000024
 40
0.5000000000000024
 40
0.5312500000000024
 40
0.5312500000000024
 40
0.5625000000000026
 40
0.5625000000000026
 40
0.5937500000000026
 40
0.5937500000000026
 40
0.6250000000000026
 40
0.6250000000000026
 40
0.6562500000000027
 40
0.6562500000000027
 40
0.6875000000000027
 40
0.6875000000000027
 40
0.7187500000000027
 40
0.7187500000000027
 40
0.7500000000000027
 40
0.7500000000000027
 40
0.7812500000000028
 40
0.7812500000000028
 40
0.7968750000000026
 40
0.7968750000000026
 40
0.8125000000000024
 40
0.8125000000000024
 40
0.843750000000002
 40
0.843750000000002
 40
0.8593750000000018
 40
0.8593750000000018
 40
0.8750000000000016
 40
0.8750000000000016
 40
0.906250000000001
 40
0.906250000000001
 40
0.9218750000000009
 40
0.9218750000000009
 40
0.9375000000000007
 40
0.9375000000000007
 40
0.9687500000000003
 40
0.9687500000000003
 40
1.0
 40
1.0
 40
1.0
 40
1.0
 10
258.8037808626401
 20
47.68945048976619
 30
0.0
 10
259.1177805432193
 20
47.61921461473962
 30
0.0
 10
259.4152890655837
 20
47.52158105297242
 30
0.0
 10
259.8377663521181
 20
47.35073899707923
 30
0.0
 10
259.9710110492381
 20
47.29095409580571
 30
0.0
 10
260.2231948989354
 20
47.16710053137643
 30
0.0
 10
260.3426150577154
 20
47.1027375009095
 30
0.0
 10
260.5644234291642
 20
46.97109776448266
 30
0.0
 10
260.6648224673988
 20
46.90505980369756
 30
0.0
 10
260.8452149254671
 20
46.77198821144606
 30
0.0
 10
260.9254623836286
 20
46.7047171676738
 30
0.0
 10
261.1318903571224
 20
46.50067430145462
 30
0.0
 10
261.2199817388637
 20
46.36736238616405
 30
0.0
 10
261.2671669924633
 20
46.1588157871954
 30
0.0
 10
261.2679229726216
 20
46.08976376634325
 30
0.0
 10
261.2371867576572
 20
45.94998490686272
 30
0.0
 10
261.2049373967718
 20
45.87837222272247
 30
0.0
 10
261.1057358030303
 20
45.73689858580391
 30
0.0
 10
261.0388968848495
 20
45.66647888406327
 30
0.0
 10
260.8674988544198
 20
45.52626487161655
 30
0.0
 10
260.7664159529793
 20
45.45922823586135
 30
0.0
 10
260.5917566862628
 20
45.3629468835828
 30
0.0
 10
260.5291310816579
 20
45.33134528688222
 30
0.0
 10
260.3988644811606
 20
45.27111979228545
 30
0.0
 10
260.331317071178
 20
45.24248509603927
 30
0.0
 10
260.1218111757148
 20
45.16094824204359
 30
0.0
 10
259.9711998094106
 20
45.1119429510105
 30
0.0
 10
259.6649469410536
 20
45.0300604211602
 30
0.0
 10
259.5078857597817
 20
44.99659727944717
 30
0.0
 10
259.1908386292332
 20
44.94621505393312
 30
0.0
 10
259.0337955895976
 20
44.9296886988955
 30
0.0
 10
258.7218950268887
 20
44.91426352013605
 30
0.0
 10
258.5664857253681
 20
44.91557833280817
 30
0.0
 10
258.2674820690081
 20
44.93699885654792
 30
0.0
 10
258.1225674935155
 20
44.95697020562341
 30
0.0
 10
257.8414344827131
 20
45.01683198494079
 30
0.0
 10
257.7063443351982
 20
45.0566965485356
 30
0.0
 10
257.453729651673
 20
45.15451010833468
 30
0.0
 10
257.3350782156894
 20
45.21267880202302
 30
0.0
 10
257.113389026073
 20
45.34825014584774
 30
0.0
 10
257.0114961656122
 20
45.42521127311757
 30
0.0
 10
256.8307275356306
 20
45.59249480609763
 30
0.0
 10
256.7509291200887
 20
45.68334607516399
 30
0.0
 10
256.6134584270873
 20
45.87885051164474
 30
0.0
 10
256.5565328098702
 20
45.98287221546008
 30
0.0
 10
256.4701145173078
 20
46.19567463699011
 30
0.0
 10
256.4399580600249
 20
46.30530238732386
 30
0.0
 10
256.4084730517674
 20
46.5295998288467
 30
0.0
 10
256.407596677143
 20
46.64360316643328
 30
0.0
 10
256.430707678545
 20
46.80963616047497
 30
0.0
 10
256.4424591511203
 20
46.86443303737532
 30
0.0
 10
256.4746790602093
 20
46.97260063971819
 30
0.0
 10
256.4953305683188
 20
47.02631037355304
 30
0.0
 10
256.5702492681044
 20
47.1815434480746
 30
0.0
 10
256.6370607294421
 20
47.27741158553765
 30
0.0
 10
256.7651966545123
 20
47.40756204962981
 30
0.0
 10
256.8126912769096
 20
47.44859096847079
 30
0.0
 10
256.9143938387783
 20
47.52328542992388
 30
0.0
 10
256.9689195679986
 20
47.55730921026139
 30
0.0
 10
257.1434696235
 20
47.64943054174473
 30
0.0
 10
257.2762984006254
 20
47.69774848734946
 30
0.0
 10
257.4863472856691
 20
47.74718391292835
 30
0.0
 10
257.5584632457102
 20
47.7600564515718
 30
0.0
 10
257.7067589828863
 20
47.77903624858205
 30
0.0
 10
257.7833171671962
 20
47.78512933115931
 30
0.0
 10
258.0139646280876
 20
47.79362139393972
 30
0.0
 10
258.1702363349421
 20
47.78663087101916
 30
0.0
 10
258.4876543181866
 20
47.7520524359585
 30
0.0
 10
258.6467810223505
 20
47.72456842727949
 30
0.0
 10
258.8037808626401
 20
47.6894504897662
 30
0.0
  0
SPLINE
  5
1D6
330
1F
100
AcDbEntity
  8
0
  6
Continuous
 62
     7
370
    15
100
AcDbSpline
210
0.0
220
0.0
230
1.0
 70
     8
 71
     3
 72
     8
 73
     4
 74
     0
 42
0.000000001
 43
0.00000001
 40
0.0
 40
0.0
 40
0.0
 40
0.0
 40
1.0
 40
1.0
 40
1.0
 40
1.0
 10
238.9021422225551
 20
45.70566753608821
 30
0.0
 10
238.2090709875023
 20
45.58980591771349
 30
0.0
 10
237.5154502211061
 20
45.47504722456043
 30
0.0
 10
236.8214710602786
 20
45.36103567692228
 30
0.0
  0
SPLINE
  5
1D7
330
1F
100
AcDbEntity
  8
0
  6
Continuous
 62
     7
370
    15
100
AcDbSpline
210
0.0
220
0.0
230
1.0
 70
     8
 71
     3
 72
     8
 73
     4
 74
     0
 42
0.000000001
 43
0.00000001
 40
0.0
 40
0.0
 40
0.0
 40
0.0
 40
0.0012389803509652
 40
0.0012389803509652
 40
0.0012389803509652
 40
0.0012389803509652
 10
236.3477346461331
 20
45.63456979767627
 30
0.0
 10
236.5058079811141
 20
45.54329871722577
 30
0.0
 10
236.6637261600801
 20
45.45211719012553
 30
0.0
 10
236.8214710602786
 20
45.36103567692228
 30
0.0
  0
LWPOLYLINE
  5
1D8
330
1F
100
AcDbEntity
  8
0
  6
Continuous
 62
     7
370
    15
100
AcDbPolyline
 90
       28
 70
   128
 43
0.0
 10
236.3477346461
 20
45.6345697977
 10
236.6545501238
 20
46.8559701848
 10
237.037709046
 20
48.0872516692
 10
237.4943942452
 20
49.3193612813
 10
238.0212479536
 20
50.5432399624
 10
238.614396491
 20
51.7498891716
 10
239.2694787459
 20
52.9304370474
 10
239.9816782406
 20
54.0762036376
 10
240.7457585441
 20
55.1787647189
 10
241.5561017729
 20
56.2300137354
 10
242.4067498963
 20
57.2222214018
 10
243.291448543
 20
58.1480925335
 10
244.2036929856
 20
59.0008196834
 10
245.1367759673
 20
59.774133194
 10
246.083837016
 20
60.4623472949
 10
247.0379128864
 20
61.0604019072
 10
247.9919887567
 20
61.5638998476
 10
248.9390498054
 20
61.9691391587
 10
249.8721327871
 20
62.2731403274
 10
250.7843772297
 20
62.4736681919
 10
251.6690758764
 20
62.5692483755
 10
252.5197239998
 20
62.5591781269
 10
253.3300672286
 20
62.4435314876
 10
254.0941475321
 20
62.2231587468
 10
254.8063470268
 20
61.8996801902
 10
255.4614292817
 20
61.4754741868
 10
256.0545778191
 20
60.9536597018
 10
256.4859099044
 20
60.4629506613
  0
LINE
  5
1D9
330
1F
100
AcDbEntity
  8
0
  6
Continuous
 62
     7
370
    15
100
AcDbLine
 10
233.3160143218
 20
47.3847446874
 30
0.0
 11
236.3477346461
 21
45.6345697977
 31
0.0
  0
ARC
  5
1DA
330
1F
100
AcDbEntity
  8
0
  6
Continuous
 62
     7
370
    15
100
AcDbCircle
 10
249.2053481103
 20
58.9454544384
 30
0.0
 40
5.360184219585026
100
AcDbArc
 50
60.0603086361
 51
76.3483600426
  0
LINE
  5
1DB
330
1F
100
AcDbEntity
  8
0
  6
Continuous
 62
     7
370
    15
100
AcDbLine
 10
239.304737625
 20
45.6445051454
 30
0.0
 11
239.2954149741
 21
45.6498869972
 31
0.0
  0
SPLINE
  5
1DC
330
1F
100
AcDbEntity
  8
0
  6
Continuous
 62
     7
370
    15
100
AcDbSpline
210
0.0
220
0.0
230
1.0
 70
     8
 71
     3
 72
    10
 73
     6
 74
     0
 42
0.000000001
 43
0.00000001
 40
0.0
 40
0.0
 40
0.0
 40
0.0
 40
0.2386821730236696
 40
0.7123059640471328
 40
1.0
 40
1.0
 40
1.0
 40
1.0
 10
240.2194047571199
 20
44.84509714752662
 30
0.0
 10
240.154368642355
 20
44.92507884941349
 30
0.0
 10
239.9602795244348
 20
45.16377050596636
 30
0.0
 10
239.6482914835898
 20
45.42859336359942
 30
0.0
 10
239.3989581001428
 20
45.58529081795875
 30
0.0
 10
239.3047376250142
 20
45.64450514536681
 30
0.0
  0
LINE
  5
1DD
330
1F
100
AcDbEntity
  8
0
  6
Continuous
 62
     7
370
    15
100
AcDbLine
 10
263.4642770591
 20
42.7578613064
 30
0.0
 11
263.4337198738
 21
42.7761286303
 31
0.0
  0
SPLINE
  5
1DE
330
1F
100
AcDbEntity
  8
0
  6
Continuous
 62
     7
370
    15
100
AcDbSpline
210
0.0
220
0.0
230
1.0
 70
     8
 71
     3
 72
    10
 73
     6
 74
     0
 42
0.000000001
 43
0.00000001
 40
0.0
 40
0.0
 40
0.0
 40
0.0
 40
0.5
 40
0.5
 40
1.0
 40
1.0
 40
1.0
 40
1.0
 10
239.295414974107
 20
45.64988699717955
 30
0.0
 10
239.2456143752943
 20
45.67863627092866
 30
0.0
 10
239.1805824585503
 20
45.69939961628933
 30
0.0
 10
239.0435240982049
 20
45.71835330567711
 30
0.0
 10
238.9699852581551
 20
45.71700894444931
 30
0.0
 10
238.9021422225551
 20
45.70566753608821
 30
0.0
  0
SPLINE
  5
1DF
330
1F
100
AcDbEntity
  8
0
  6
Continuous
 62
     7
370
    15
100
AcDbSpline
210
0.0
220
0.0
230
1.0
 70
     8
 71
     3
 72
     8
 73
     4
 74
     0
 42
0.000000001
 43
0.00000001
 40
0.0
 40
0.0
 40
0.0
 40
0.0
 40
1.0
 40
1.0
 40
1.0
 40
1.0
 10
233.1591897142347
 20
47.47526636658507
 30
0.0
 10
233.1815685107541
 20
47.46235441513323
 30
0.0
 10
233.2357559417714
 20
47.43107686397621
 30
0.0
 10
233.3160143217958
 20
47.38474468739621
 30
0.0
  0
LINE
  5
1E0
330
1F
100
AcDbEntity
  8
0
  6
Continuous
 62
     7
370
    15
100
AcDbLine
 10
233.1591897142
 20
47.4752663666
 30
0.0
 11
233.1824738349
 21
47.622655419
 31
0.0
  0
SPLINE
  5
1E1
330
1F
100
AcDbEntity
  8
0
  6
Continuous
 62
     7
370
    15
100
AcDbSpline
210
0.0
220
0.0
230
1.0
 70
     8
 71
     3
 72
    11
 73
     7
 74
     0
 42
0.000000001
 43
0.00000001
 40
0.0
 40
0.0
 40
0.0
 40
0.0
 40
0.3095641458220321
 40
0.5897803711770564
 40
0.8409900224408633
 40
1.0
 40
1.0
 40
1.0
 40
1.0
 10
239.7887227100139
 20
37.99832373949889
 30
0.0
 10
239.8797186729934
 20
38.08979795591458
 30
0.0
 10
240.0530838173293
 20
38.2640742667823
 30
0.0
 10
240.2034168010265
 20
38.68254009178624
 30
0.0
 10
240.2776975401206
 20
39.09568931995435
 30
0.0
 10
240.2852421720562
 20
39.39272057153975
 30
0.0
 10
240.2881666341504
 20
39.50785629233516
 30
0.0
  0
SPLINE
  5
1E2
330
1F
100
AcDbEntity
  8
0
  6
Continuous
 62
     7
370
    15
100
AcDbSpline
210
0.0
220
0.0
230
1.0
 70
     8
 71
     3
 72
     9
 73
     5
 74
     0
 42
0.000000001
 43
0.00000001
 40
0.0
 40
0.0
 40
0.0
 40
0.0
 40
0.5067649320089164
 40
1.0
 40
1.0
 40
1.0
 40
1.0
 10
239.6800012455415
 20
37.27169297295474
 30
0.0
 10
239.6982701609024
 20
37.39414709169095
 30
0.0
 10
239.7343202389702
 20
37.63578598775815
 30
0.0
 10
239.7710010920534
 20
37.87793625814478
 30
0.0
 10
239.7890933751179
 20
37.99737326322298
 30
0.0
  0
SPLINE
  5
1E3
330
1F
100
AcDbEntity
  8
0
  6
Continuous
 62
     7
370
    15
100
AcDbSpline
210
0.0
220
0.0
230
1.0
 70
     8
 71
     3
 72
    10
 73
     6
 74
     0
 42
0.000000001
 43
0.00000001
 40
0.0
 40
0.0
 40
0.0
 40
0.0
 40
0.4807908150166064
 40
0.975781759036066
 40
1.0
 40
1.0
 40
1.0
 40
1.0
 10
239.3047376250142
 20
39.07135160968653
 30
0.0
 10
239.4545285719144
 20
38.99118123432451
 30
0.0
 10
239.7585345326958
 20
38.82847265618614
 30
0.0
 10
240.0481499768935
 20
38.71697122546495
 30
0.0
 10
240.1824884075714
 20
38.68873960798572
 30
0.0
 10
240.1887545534313
 20
38.68742275894936
 30
0.0
  0
LINE
  5
1E4
330
1F
100
AcDbEntity
  8
0
  6
Continuous
 62
     7
370
    15
100
AcDbLine
 10
233.5926229618
 20
47.2250100084
 30
0.0
 11
233.1591897142
 21
47.4752663666
 31
0.0
  0
LINE
  5
1E5
330
1F
100
AcDbEntity
  8
0
  6
Continuous
 62
     7
370
    15
100
AcDbLine
 10
236.8214710603
 20
45.3610356769
 30
0.0
 11
233.5926229618
 21
47.2250100084
 31
0.0
  0
SPLINE
  5
1E6
330
1F
100
AcDbEntity
  8
0
  6
Continuous
 62
     7
370
    15
100
AcDbSpline
210
0.0
220
0.0
230
1.0
 70
     8
 71
     3
 72
    11
 73
     7
 74
     0
 42
0.000000001
 43
0.00000001
 40
0.0
 40
0.0
 40
0.0
 40
0.0
 40
0.2163155055778993
 40
0.5249147718327557
 40
0.8335516849882196
 40
1.0
 40
1.0
 40
1.0
 40
1.0
 10
235.6976878830711
 20
43.21118406260033
 30
0.0
 10
235.6929702914382
 20
43.41757569458346
 30
0.0
 10
235.6815225058116
 20
43.91840903115442
 30
0.0
 10
235.6163389484638
 20
44.73720087806107
 30
0.0
 10
235.5755848784536
 20
45.49866532577733
 30
0.0
 10
235.5969727020194
 20
45.93319749237682
 30
0.0
 10
235.6044660252869
 20
46.08543785402293
 30
0.0
  0
LINE
  5
1E7
330
1F
100
AcDbEntity
  8
0
  6
Continuous
 62
     7
370
    15
100
AcDbLine
 10
235.6976878831
 20
42.7908287072
 30
0.0
 11
235.6976878831
 21
43.2111840626
 31
0.0
  0
LINE
  5
1E8
330
1F
100
AcDbEntity
  8
0
  6
Continuous
 62
     7
370
    15
100
AcDbLine
 10
235.0878082843
 20
46.0261975223
 30
0.0
 11
235.092996179
 21
46.3588629865
 31
0.0
  0
ARC
  5
1E9
330
1F
100
AcDbEntity
  8
0
  6
Continuous
 62
     7
370
    15
100
AcDbCircle
 10
242.6416378713
 20
45.851944722
 30
0.0
 40
7.555839163672291
100
AcDbArc
 50
178.6785272924
 51
203.2171026327
  0
LINE
  5
1EA
330
1F
100
AcDbEntity
  8
0
  6
Continuous
 62
     7
370
    15
100
AcDbLine
 10
222.8337441206
 20
69.4925138499
 30
0.0
 11
222.9810549041
 21
69.4451504296
 31
0.0
  0
LINE
  5
1EB
330
1F
100
AcDbEntity
  8
0
  6
Continuous
 62
     7
370
    15
100
AcDbLine
 10
216.6095854927
 20
58.4082458186
 30
0.0
 11
216.5414342116
 21
58.4682268483
 31
0.0
  0
LINE
  5
1EC
330
1F
100
AcDbEntity
  8
0
  6
Continuous
 62
     7
370
    15
100
AcDbLine
 10
239.2954149741
 20
39.0767334615
 30
0.0
 11
239.304737625
 21
39.0713516097
 31
0.0
  0
ARC
  5
1ED
330
1F
100
AcDbEntity
  8
0
  6
Continuous
 62
     7
370
    15
100
AcDbCircle
 10
242.1226307402
 20
39.7236344475
 30
0.0
 40
5.919642220385723
100
AcDbArc
 50
192.6964501328
 51
260.4756565155
  0
SPLINE
  5
1EE
330
1F
100
AcDbEntity
  8
0
  6
Continuous
 62
     7
370
    15
100
AcDbSpline
210
0.0
220
0.0
230
1.0
 70
     8
 71
     3
 72
     8
 73
     4
 74
     0
 42
0.000000001
 43
0.00000001
 40
0.0
 40
0.0
 40
0.0
 40
0.0
 40
0.0012389803509652
 40
0.0012389803509652
 40
0.0012389803509652
 40
0.0012389803509652
 10
236.8214710602786
 20
38.78788214124199
 30
0.0
 10
236.6637261600801
 20
38.66580569070727
 30
0.0
 10
236.5058079811141
 20
38.54404838770645
 30
0.0
 10
236.3477346461331
 20
38.42258136616202
 30
0.0
  0
SPLINE
  5
1EF
330
1F
100
AcDbEntity
  8
0
  6
Continuous
 62
     7
370
    15
100
AcDbSpline
210
0.0
220
0.0
230
1.0
 70
     8
 71
     3
 72
     8
 73
     4
 74
     0
 42
0.000000001
 43
0.00000001
 40
0.0
 40
0.0
 40
0.0
 40
0.0
 40
1.0
 40
1.0
 40
1.0
 40
1.0
 10
236.8214710602786
 20
38.78788214124199
 30
0.0
 10
237.5154516432202
 20
38.9018939225146
 30
0.0
 10
238.2090847039822
 20
39.01665467503497
 30
0.0
 10
238.9021422225551
 20
39.13251400040792
 30
0.0
  0
SPLINE
  5
1F0
330
1F
100
AcDbEntity
  8
0
  6
Continuous
 62
     7
370
    15
100
AcDbSpline
210
0.0
220
0.0
230
1.0
 70
     8
 71
     3
 72
    12
 73
     8
 74
     0
 42
0.000000001
 43
0.00000001
 40
0.0
 40
0.0
 40
0.0
 40
0.0
 40
0.2499999999999987
 40
0.2499999999999987
 40
0.4999999999999973
 40
0.4999999999999973
 40
1.0
 40
1.0
 40
1.0
 40
1.0
 10
238.9021422225551
 20
39.13251400040792
 30
0.0
 10
238.9359307384792
 20
39.13816247049216
 30
0.0
 10
238.9715025145481
 20
39.14142293400761
 30
0.0
 10
239.0420847609406
 20
39.14256052355573
 30
0.0
 10
239.0771077193895
 20
39.14054390709771
 30
0.0
 10
239.1813130146545
 20
39.12616816975812
 30
0.0
 10
239.2450234465941
 20
39.10582387112571
 30
0.0
 10
239.295414974107
 20
39.07673346149927
 30
0.0
  0
LINE
  5
1F1
330
1F
100
AcDbEntity
  8
0
  6
Continuous
 62
     7
370
    15
100
AcDbLine
 10
233.5926229618
 20
40.6518564727
 30
0.0
 11
236.8214710603
 21
38.7878821412
 31
0.0
  0
LINE
  5
1F2
330
1F
100
AcDbEntity
  8
0
  6
Continuous
 62
     7
370
    15
100
AcDbLine
 10
233.5926229618
 20
40.6518564727
 30
0.0
 11
235.4855558487
 21
41.7446233681
 31
0.0
  0
LINE
  5
1F3
330
1F
100
AcDbEntity
  8
0
  6
Continuous
 62
     7
370
    15
100
AcDbLine
 10
233.1591897142
 20
40.4016001145
 30
0.0
 11
233.5926229618
 21
40.6518564727
 31
0.0
  0
LINE
  5
1F4
330
1F
100
AcDbEntity
  8
0
  6
Continuous
 62
     7
370
    15
100
AcDbLine
 10
236.3477346461
 20
38.4225813662
 30
0.0
 11
233.3160143218
 21
40.1727562559
 31
0.0
  0
SPLINE
  5
1F5
330
1F
100
AcDbEntity
  8
0
  6
Continuous
 62
     7
370
    15
100
AcDbSpline
210
0.0
220
0.0
230
1.0
 70
     8
 71
     3
 72
     8
 73
     4
 74
     0
 42
0.000000001
 43
0.00000001
 40
0.0
 40
0.0
 40
0.0
 40
0.0
 40
1.0
 40
1.0
 40
1.0
 40
1.0
 10
233.3160143217958
 20
40.17275625588196
 30
0.0
 10
233.2359895222811
 20
40.21895358930392
 30
0.0
 10
233.1815127248992
 20
40.30214111166861
 30
0.0
 10
233.1591897142347
 20
40.40160011450973
 30
0.0
  0
ARC
  5
1F6
330
1F
100
AcDbEntity
  8
0
  6
Continuous
 62
     7
370
    15
100
AcDbCircle
 10
238.8501229075
 20
40.9923121467
 30
0.0
 40
5.414344053265869
100
AcDbArc
 50
223.5450461559
 51
239.8640484934
  0
ELLIPSE
  5
1F7
330
1F
100
AcDbEntity
  8
0
  6
Continuous
 62
     7
370
    15
100
AcDbEllipse
 10
235.2512412737
 20
42.5331229426
 30
0.0
 11
-6.005970385558612E-5
 21
0.8534489614827194
 31
0.0
210
0.0
220
0.0
230
1.0
 40
0.7174342186
 41
3.534193645557487
 42
5.104989972352339
  0
ELLIPSE
  5
1F8
330
1F
100
AcDbEntity
  8
0
  6
Continuous
 62
     7
370
    15
100
AcDbEllipse
 10
235.1320024581
 20
42.4642654625
 30
0.0
 11
0.2600075789209199
 21
0.9705436209909308
 31
0.0
210
0.0
220
0.0
230
1.0
 40
0.5176380889
 41
3.619174351347695
 42
5.18997067814264
  0
LWPOLYLINE
  5
1F9
330
1F
100
AcDbEntity
  8
0
  6
Continuous
 62
     7
370
     0
100
AcDbPolyline
 90
       42
 70
   128
 43
0.0
 10
241.7080955232
 20
38.8264984861
 10
241.7491295336
 20
39.9354717855
 10
241.8719192714
 20
41.0833819885
 10
242.0755302324
 20
42.2614928054
 10
242.3584128143
 20
43.4608381013
 10
242.7184141099
 20
44.6722901346
 10
243.1527942919
 20
45.8866290236
 10
243.6582474648
 20
47.0946129163
 10
244.2309268249
 20
48.2870483257
 10
244.8664739363
 20
49.4548600984
 10
245.5600519018
 20
50.5891604817
 10
246.3063821742
 20
51.6813167648
 10
247.0997847297
 20
52.7230169788
 10
247.9342212956
 20
53.7063331562
 10
248.8033413059
 20
54.6237816671
 10
249.7005302324
 20
55.4683801743
 10
250.6189599257
 20
56.2337007733
 10
251.5516405813
 20
56.9139189121
 10
252.4914739363
 20
57.50385772
 10
253.4313072912
 20
57.9990274065
 10
254.3639879468
 20
58.3956594313
 10
255.2824176401
 20
58.690735185
 10
256.1796065666
 20
58.8820089632
 10
257.0487265769
 20
58.9680250568
 10
257.8831631428
 20
58.9481288315
 10
258.6765656983
 20
58.8224717095
 10
259.4228959708
 20
58.5920100173
 10
260.1164739363
 20
58.2584977077
 10
260.7520210477
 20
57.8244730107
 10
261.3247004077
 20
57.2932391163
 10
261.8301535806
 20
56.6688390352
 10
262.2645337626
 20
55.956024829
 10
262.6245350582
 20
55.1602214443
 10
262.9074176401
 20
54.2874854254
 10
263.1110286011
 20
53.3444588203
 10
263.2338183389
 20
52.3383186308
 10
263.2748523493
 20
51.2767221914
 10
263.2338183389
 20
50.167748892
 10
263.1110286011
 20
49.019838689
 10
262.9074176401
 20
47.8417278722
 10
262.6245350582
 20
46.6423825762
 10
262.5719990333
 20
46.4489299507
  0
LWPOLYLINE
  5
1FA
330
1F
100
AcDbEntity
  8
0
  6
Continuous
 62
     7
370
     0
100
AcDbPolyline
 90
       24
 70
   128
 43
0.0
 10
256.3225069544
 20
35.623319171
 10
256.1796065666
 20
35.4794390105
 10
255.2824176401
 20
34.6348405032
 10
254.3639879468
 20
33.8695199043
 10
253.4313072912
 20
33.1893017655
 10
252.4914739363
 20
32.5993629575
 10
251.5516405813
 20
32.104193271
 10
250.6189599257
 20
31.7075612463
 10
249.7005302324
 20
31.4124854925
 10
248.8033413059
 20
31.2212117144
 10
247.9342212956
 20
31.1351956207
 10
247.0997847297
 20
31.1550918461
 10
246.3063821742
 20
31.2807489681
 10
245.5600519018
 20
31.5112106602
 10
244.8664739363
 20
31.8447229698
 10
244.2309268249
 20
32.2787476668
 10
243.6582474648
 20
32.8099815613
 10
243.1527942919
 20
33.4343816424
 10
242.7184141099
 20
34.1471958485
 10
242.3584128143
 20
34.9429992332
 10
242.0755302324
 20
35.8157352522
 10
241.8719192714
 20
36.7587618573
 10
241.7491295336
 20
37.7649020468
 10
241.7080955232
 20
38.8264984861
  0
LWPOLYLINE
  5
1FB
330
1F
100
AcDbEntity
  8
0
  6
Continuous
 62
     7
370
     0
100
AcDbPolyline
 90
       27
 70
   128
 43
0.0
 10
241.000988742
 20
38.8264984861
 10
241.0422157153
 20
39.9558501345
 10
241.1655914051
 20
41.1244401085
 10
241.370202381
 20
42.3236165769
 10
241.6545337749
 20
43.5445012568
 10
242.0164804966
 20
44.7780551449
 10
242.4533628193
 20
46.01514544
 10
242.961946219
 20
47.2466131584
 10
243.5384653223
 20
48.4633409438
 10
244.1786517834
 20
49.6563205695
 10
244.8777658857
 20
50.8167196318
 10
245.6306316329
 20
51.9359469418
 10
246.4316750706
 20
53.0057161323
 10
247.2749655534
 20
54.0181070063
 10
248.1542596535
 20
54.9656241762
 10
249.0630473851
 20
55.8412525562
 10
249.9946004017
 20
56.6385093002
 10
250.9420218109
 20
57.3514917982
 10
251.8982972358
 20
57.9749213772
 10
252.8563467479
 20
58.5041823828
 10
253.8090772838
 20
58.9353563516
 10
254.7494351599
 20
59.2652510225
 10
255.6704582954
 20
59.4914239706
 10
256.5653277574
 20
59.6122006906
 10
257.4274182454
 20
59.626686994
 10
258.250347143
 20
59.5347756293
 10
258.5998572084
 20
59.4604292603
  0
ARC
  5
1FC
330
1F
100
AcDbEntity
  8
0
  6
Continuous
 62
     7
370
     0
100
AcDbCircle
 10
249.7737899377
 20
38.2433492445
 30
0.0
 40
8.792161500912957
100
AcDbArc
 50
176.1970061233
 51
220.3157775657
  0
LWPOLYLINE
  5
1FD
330
1F
100
AcDbEntity
  8
0
  6
Continuous
 62
     7
370
     0
100
AcDbPolyline
 90
       26
 70
   128
 43
0.0
 10
247.0113963821
 20
41.8880289055
 10
247.0529325769
 20
42.6896678512
 10
247.176911515
 20
43.5271114375
 10
247.381453802
 20
44.3876648731
 10
247.6634587854
 20
45.2582830451
 10
248.018651557
 20
46.1257682697
 10
248.4416477566
 20
46.9769703549
 10
248.926035193
 20
47.7989859448
 10
249.4644710462
 20
48.5793541212
 10
250.0487931777
 20
49.3062452977
 10
250.6701438596
 20
49.9686405452
 10
251.3191040489
 20
50.5564986269
 10
251.9858361706
 20
51.0609082136
 10
252.6602332454
 20
51.47422297
 10
253.3320721012
 20
51.7901774658
 10
253.9911683456
 20
52.0039821528
 10
254.6275307514
 20
52.11239597
 10
255.2315127133
 20
52.1137754744
 10
255.7939584805
 20
52.0080997541
 10
256.3063419482
 20
51.7969707454
 10
256.7608959056
 20
51.4835889487
 10
257.150729778
 20
51.0727049127
 10
257.4699340811
 20
50.5705472205
 10
257.7136700032
 20
49.9847280709
 10
257.8782427562
 20
49.324127885
 10
257.907694015
 20
49.1415759232
  0
LWPOLYLINE
  5
1FE
330
1F
100
AcDbEntity
  8
0
  6
Continuous
 62
     7
370
     0
100
AcDbPolyline
 90
       13
 70
   128
 43
0.0
 10
251.658201936
 20
38.3159651435
 10
251.3191040489
 20
38.1931325906
 10
250.6701438596
 20
38.0317171865
 10
250.0487931777
 20
37.976716207
 10
249.4644710462
 20
38.0289634107
 10
248.926035193
 20
38.1876667833
 10
248.4416477566
 20
38.4504205436
 10
248.018651557
 20
38.8132416122
 10
247.6634587854
 20
39.2706299917
 10
247.381453802
 20
39.8156521404
 10
247.176911515
 20
40.4400460782
 10
247.0529325769
 20
41.1343466295
 10
247.0113963821
 20
41.8880289055
  0
ARC
  5
1FF
330
1F
100
AcDbEntity
  8
0
  6
Continuous
 62
     7
370
     0
100
AcDbCircle
 10
252.254701204
 20
41.5768945894
 30
0.0
 40
3.137449863488244
100
AcDbArc
 50
174.3087434829
 51
234.3790761237
  0
LWPOLYLINE
  5
200
330
1F
100
AcDbEntity
  8
0
  6
Continuous
 62
     7
370
     0
100
AcDbPolyline
 90
       19
 70
   128
 43
0.0
 10
256.6768801475
 20
49.8521096448
 10
256.5686213336
 20
49.9104189616
 10
256.1007251477
 20
50.0798824185
 10
255.5853535328
 20
50.1442725767
 10
255.0321068871
 20
50.1023899692
 10
254.4512911487
 20
49.9550147898
 10
253.8537258159
 20
49.7048923593
 10
253.2505424002
 20
49.3566819853
 10
252.6529770674
 20
48.9168701682
 10
252.072161329
 20
48.3936497701
 10
251.5189146832
 20
47.7967673969
 10
251.0035430684
 20
47.1373418379
 10
250.5356468825
 20
46.4276569436
 10
250.1239421462
 20
45.6809328009
 10
249.7760981397
 20
44.9110794675
 10
249.4985945388
 20
44.1324378546
 10
249.2966007105
 20
43.3595125822
 10
249.1738794176
 20
42.6067017855
 10
249.1327167256
 20
41.8880289055
  0
LWPOLYLINE
  5
201
330
1F
100
AcDbEntity
  8
0
  6
Continuous
 62
     7
370
     0
100
AcDbPolyline
 90
       38
 70
   128
 43
0.0
 10
262.0374154823
 20
42.8070188315
 10
261.559408978
 20
42.4840907653
 10
261.0951538505
 20
42.0764911817
 10
260.6580058746
 20
41.5959459785
 10
260.2605410016
 20
41.0562795664
 10
259.9141935723
 20
40.4730171654
 10
259.6289273716
 20
39.862938173
 10
259.4129489887
 20
39.2435934508
 10
259.2724717285
 20
38.632800419
 10
259.211536866
 20
38.048130481
 10
259.2318973861
 20
37.5064035264
 10
259.332967554
 20
37.0232040534
 10
259.5118397647
 20
36.6124328311
 10
259.7633681905
 20
36.2859069995
 10
260.0803168166
 20
36.0530201125
 10
260.453567608
 20
35.9204719017
 10
260.872382819
 20
35.8920755379
 10
261.3247138986
 20
35.9686479326
 10
261.7975481051
 20
36.1479862376
 10
262.2772828594
 20
36.4249312163
 10
262.7501170659
 20
36.7915156659
 10
263.2024481455
 20
37.2371936192
 10
263.6212633566
 20
37.749143733
 10
263.994514148
 20
38.3126381346
 10
264.311462774
 20
38.911466116
 10
264.5629911998
 20
39.5284004865
 10
264.7418634106
 20
40.1456931674
 10
264.8429335784
 20
40.7455857723
 10
264.8632940986
 20
41.3108204831
 10
264.802359236
 20
41.8251365263
 10
264.6618819758
 20
42.2737379658
 10
264.4459035929
 20
42.643719355
 10
264.1606373922
 20
42.9244370028
 10
263.8142899629
 20
43.1078151736
 10
263.41682509
 20
43.1885784114
 10
262.9796771141
 20
43.1644033049
 10
262.5154219866
 20
43.0359853278
 10
262.0374154823
 20
42.8070188315
  0
LWPOLYLINE
  5
202
330
1F
100
AcDbEntity
  8
0
  6
Continuous
 62
     7
370
     0
100
AcDbPolyline
 90
       20
 70
   128
 43
0.0
 10
238.9021422226
 20
45.7056675361
 10
239.2087671443
 20
46.8501738146
 10
239.5925522126
 20
48.0017875131
 10
240.0501200876
 20
49.1503743367
 10
240.5774441343
 20
50.2858266273
 10
241.169883858
 20
51.3981523115
 10
241.8222257405
 20
52.4775628322
 10
242.5287291198
 20
53.5145592882
 10
243.2831767082
 20
54.5000160259
 10
244.0789293051
 20
55.4252609452
 10
244.9089842225
 20
56.2821518148
 10
245.766036909
 20
57.0631479249
 10
246.6425452307
 20
57.7613764457
 10
247.5307958425
 20
58.3706929091
 10
248.4229720663
 20
58.8857352801
 10
249.3112226782
 20
59.3019711437
 10
250.1877309999
 20
59.6157375902
 10
251.0447836863
 20
59.8242734491
 10
251.8748386037
 20
59.9257435878
 10
252.5213893425
 20
59.9288556191
  0
LWPOLYLINE
  5
203
330
1F
100
AcDbEntity
  8
0
  6
Continuous
 62
     7
370
     0
100
AcDbPolyline
 90
       24
 70
   128
 43
0.0
 10
233.3160143218
 20
47.3847446874
 10
233.6228297995
 20
48.6061450745
 10
234.0059887217
 20
49.837426559
 10
234.4626739208
 20
51.069536171
 10
234.9895276292
 20
52.2934148521
 10
235.5826761666
 20
53.5000640613
 10
236.2377584216
 20
54.6806119371
 10
236.9499579163
 20
55.8263785274
 10
237.7140382197
 20
56.9289396087
 10
238.5243814485
 20
57.9801886251
 10
239.375029572
 20
58.9723962916
 10
240.2597282186
 20
59.8982674232
 10
241.1719726613
 20
60.7509945731
 10
242.1050556429
 20
61.5243080837
 10
243.0521166916
 20
62.2125221846
 10
244.006192562
 20
62.8105767969
 10
244.9602684324
 20
63.3140747373
 10
245.9073294811
 20
63.7193140484
 10
246.8404124627
 20
64.0233152171
 10
247.7526569054
 20
64.2238430816
 10
248.6373555521
 20
64.3194232652
 10
249.4880036755
 20
64.3093530167
 10
250.2983469043
 20
64.1937063773
 10
250.4704482494
 20
64.1542063528
  0
LWPOLYLINE
  5
204
330
1F
100
AcDbEntity
  8
0
  6
Continuous
 62
     7
370
     0
100
AcDbPolyline
 90
       19
 70
   128
 43
0.0
 10
239.2954149741
 20
45.6498869972
 10
239.6000998676
 20
46.7737299267
 10
239.9800907393
 20
47.9040598496
 10
240.4320685833
 20
49.0310039711
 10
240.9520856277
 20
50.1447190696
 10
241.535599817
 20
51.2354774715
 10
242.1775144834
 20
52.293752017
 10
242.8722228644
 20
53.3102992745
 10
243.6136570737
 20
54.2762402768
 10
244.3953411016
 20
55.1831380736
 10
245.2104473785
 20
56.0230714239
 10
246.0518564108
 20
56.7887039834
 10
246.9122189647
 20
57.4733483832
 10
247.7840202584
 20
58.0710246404
 10
248.659645599
 20
58.57651239
 10
249.5314468927
 20
58.9853964811
 10
250.3918094466
 20
59.294105542
 10
251.2332184789
 20
59.4999431728
 10
251.6563240696
 20
59.5651433708
  0
LWPOLYLINE
  5
205
330
1F
100
AcDbEntity
  8
0
  6
Continuous
 62
     7
370
     0
100
AcDbPolyline
 90
       19
 70
   128
 43
0.0
 10
259.9072487789
 20
36.7297118755
 10
260.0165504384
 20
36.6704307879
 10
260.381008959
 20
36.5630070418
 10
260.7898345803
 20
36.563940806
 10
261.2291052364
 20
36.6732002823
 10
261.6838620917
 20
36.8870647703
 10
262.138618947
 20
37.1982513714
 10
262.577889603
 20
37.5961629991
 10
262.9867152244
 20
38.0672492501
 10
263.351173745
 20
38.5954678472
 10
263.6588539669
 20
39.1628309395
 10
263.8992782092
 20
39.7500176576
 10
264.0642591128
 20
40.3370320618
 10
264.1481784508
 20
40.9038840807
 10
264.1481784508
 20
41.4312702488
 10
264.0642591128
 20
41.9012310625
 10
263.8992782092
 20
42.29776257
 10
263.6588539669
 20
42.6073613664
 10
263.4642770591
 20
42.7578613064
  0
LINE
  5
206
330
1F
100
AcDbEntity
  8
0
  6
Continuous
 62
     7
370
     0
100
AcDbLine
 10
239.304737625
 20
39.0713516097
 30
0.0
 11
239.7105188663
 21
39.3056041341
 31
0.0
  0
LWPOLYLINE
  5
207
330
1F
100
AcDbEntity
  8
0
  6
Continuous
 62
     7
370
     0
100
AcDbPolyline
 90
        3
 70
   128
 43
0.0
 10
240.2686307983
 20
39.0472233397
 10
240.2047397773
 20
39.0702269611
 10
239.7105188663
 20
39.3056041341
  0
ARC
  5
208
330
1F
100
AcDbEntity
  8
0
  6
Continuous
 62
     7
370
     0
100
AcDbCircle
 10
239.0225296968
 20
40.3622057292
 30
0.0
 40
1.260847345344067
100
AcDbArc
 50
303.0695173616
 51
345.5982002281
  0
LINE
  5
209
330
1F
100
AcDbEntity
  8
0
  6
Continuous
 62
     7
370
     0
100
AcDbLine
 10
235.8169266986
 20
42.8596861873
 30
0.0
 11
240.2019172042
 21
40.3282850508
 31
0.0
  0
LINE
  5
20A
330
1F
100
AcDbEntity
  8
0
  6
Continuous
 62
     7
370
     0
100
AcDbLine
 10
235.6976878831
 20
42.7908287072
 30
0.0
 11
235.8169266986
 21
42.8596861873
 31
0.0
  0
LINE
  5
20B
330
1F
100
AcDbEntity
  8
0
  6
Continuous
 62
     7
370
     0
100
AcDbLine
 10
235.4413616749
 20
45.8220954943
 30
0.0
 11
235.4465495696
 21
46.1547609586
 31
0.0
  0
ARC
  5
20C
330
1F
100
AcDbEntity
  8
0
  6
Continuous
 62
     7
370
     0
100
AcDbCircle
 10
243.9876469387
 20
45.7436624061
 30
0.0
 40
8.546645164033883
100
AcDbArc
 50
179.4741857274
 51
192.6038112494
  0
LWPOLYLINE
  5
20D
330
1F
100
AcDbEntity
  8
0
  6
Continuous
 62
     7
370
     0
100
AcDbPolyline
 90
       18
 70
   128
 43
0.0
 10
215.5958457767
 20
61.1209749419
 10
215.6380368397
 20
61.8576024885
 10
215.7638240893
 20
62.6292208222
 10
215.9708643468
 20
63.4214561534
 10
216.2553008441
 20
64.2195506369
 10
216.6118350674
 20
65.0086372824
 10
217.0338254586
 20
65.7740168989
 10
217.5134111353
 20
66.5014319121
 10
218.0416583237
 20
67.1773319566
 10
218.6087267781
 20
67.7891262937
 10
219.2040530862
 20
68.3254183522
 10
219.8165474452
 20
68.7762180258
 10
220.4348002442
 20
69.1331277696
 10
221.0472946032
 20
69.3894990304
 10
221.6426209113
 20
69.5405560966
 10
222.2096893657
 20
69.5834850608
 10
222.7379365541
 20
69.5174862378
 10
222.8337441206
 20
69.4925138499
  0
ARC
  5
20E
330
1F
100
AcDbEntity
  8
0
  6
Continuous
 62
     7
370
     0
100
AcDbCircle
 10
219.1465824075
 20
60.8917524703
 30
0.0
 40
3.558127817134196
100
AcDbArc
 50
176.3063210893
 51
222.9315250867
  0
LWPOLYLINE
  5
20F
330
1F
100
AcDbEntity
  8
0
  6
Continuous
 62
     7
370
     0
100
AcDbPolyline
 90
        3
 70
   128
 43
0.0
 10
239.7670327434
 20
37.973757191
 10
239.6156670554
 20
38.271640156
 10
239.2954149741
 20
39.0767334615
  0
ARC
  5
210
330
1F
100
AcDbEntity
  8
0
  6
Continuous
 62
     7
370
     0
100
AcDbCircle
 10
244.939100989
 20
41.006908474
 30
0.0
 40
6.321251916425875
100
AcDbArc
 50
197.2488655996
 51
213.7856470572
  0
LINE
  5
211
330
1F
100
AcDbEntity
  8
0
  6
Continuous
 62
     7
370
     0
100
AcDbLine
 10
239.7105188663
 20
39.3056041341
 30
0.0
 11
235.4855558487
 21
41.7446233681
 31
0.0
  0
ARC
  5
212
330
1F
100
AcDbEntity
  8
0
  6
Continuous
 62
     7
370
     0
100
AcDbCircle
 10
240.1337976397
 20
42.042871896
 30
0.0
 40
7.069618227152169
100
AcDbArc
 50
195.3389392146
 51
222.5491558567
  0
OLE2FRAME
  5
213
330
1F
100
AcDbEntity
  8
0
100
AcDbOle2Frame
 70
     2
  3
Paintbrush-Bild
 10
13.8511154363
 20
38.264191557
 30
0.0
 11
51.6290888628
 21
31.9806341108
 31
0.0
 71
     2
 72
     0
 73
     1
 90
    12928
310
80552BED0767C5B32B40DDAF6807D121434000000000000000006FFBDDFB85D0
310
4940DDAF6807D121434000000000000000006FFBDDFB85D04940416F4BD60AFB
310
3F4000000000000000002BED0767C5B32B40416F4BD60AFB3F40000000000000
310
0000000000000100000000010000010000000100000000000100000000320000
310
D0CF11E0A1B11AE1000000000000000000000000000000003E000300FEFF0900
310
0600000000000000000000000100000001000000000000000010000002000000
310
01000000FEFFFFFF0000000000000000FFFFFFFFFFFFFFFFFFFFFFFFFFFFFFFF
310
FFFFFFFFFFFFFFFFFFFFFFFFFFFFFFFFFFFFFFFFFFFFFFFFFFFFFFFFFFFFFFFF
310
FFFFFFFFFFFFFFFFFFFFFFFFFFFFFFFFFFFFFFFFFFFFFFFFFFFFFFFFFFFFFFFF
310
FFFFFFFFFFFFFFFFFFFFFFFFFFFFFFFFFFFFFFFFFFFFFFFFFFFFFFFFFFFFFFFF
310
FFFFFFFFFFFFFFFFFFFFFFFFFFFFFFFFFFFFFFFFFFFFFFFFFFFFFFFFFFFFFFFF
310
FFFFFFFFFFFFFFFFFFFFFFFFFFFFFFFFFFFFFFFFFFFFFFFFFFFFFFFFFFFFFFFF
310
FFFFFFFFFFFFFFFFFFFFFFFFFFFFFFFFFFFFFFFFFFFFFFFFFFFFFFFFFFFFFFFF
310
FFFFFFFFFFFFFFFFFFFFFFFFFFFFFFFFFFFFFFFFFFFFFFFFFFFFFFFFFFFFFFFF
310
FFFFFFFFFFFFFFFFFFFFFFFFFFFFFFFFFFFFFFFFFFFFFFFFFFFFFFFFFFFFFFFF
310
FFFFFFFFFFFFFFFFFFFFFFFFFFFFFFFFFFFFFFFFFFFFFFFFFFFFFFFFFFFFFFFF
310
FFFFFFFFFFFFFFFFFFFFFFFFFFFFFFFFFFFFFFFFFFFFFFFFFFFFFFFFFFFFFFFF
310
FFFFFFFFFFFFFFFFFFFFFFFFFFFFFFFFFFFFFFFFFFFFFFFFFFFFFFFFFFFFFFFF
310
FFFFFFFFFFFFFFFFFFFFFFFFFFFFFFFFFFFFFFFFFFFFFFFFFFFFFFFFFFFFFFFF
310
FFFFFFFFFFFFFFFFFFFFFFFFFFFFFFFFFFFFFFFFFFFFFFFFFFFFFFFFFFFFFFFF
310
FDFFFFFFFEFFFFFFFEFFFFFFFEFFFFFF05000000060000000700000008000000
310
090000000A0000000B0000000C0000000D0000000E0000000F00000010000000
310
11000000120000001300000014000000150000001600000017000000FEFFFFFF
310
FFFFFFFFFFFFFFFFFFFFFFFFFFFFFFFFFFFFFFFFFFFFFFFFFFFFFFFFFFFFFFFF
310
FFFFFFFFFFFFFFFFFFFFFFFFFFFFFFFFFFFFFFFFFFFFFFFFFFFFFFFFFFFFFFFF
310
FFFFFFFFFFFFFFFFFFFFFFFFFFFFFFFFFFFFFFFFFFFFFFFFFFFFFFFFFFFFFFFF
310
FFFFFFFFFFFFFFFFFFFFFFFFFFFFFFFFFFFFFFFFFFFFFFFFFFFFFFFFFFFFFFFF
310
FFFFFFFFFFFFFFFFFFFFFFFFFFFFFFFFFFFFFFFFFFFFFFFFFFFFFFFFFFFFFFFF
310
FFFFFFFFFFFFFFFFFFFFFFFFFFFFFFFFFFFFFFFFFFFFFFFFFFFFFFFFFFFFFFFF
310
FFFFFFFFFFFFFFFFFFFFFFFFFFFFFFFFFFFFFFFFFFFFFFFFFFFFFFFFFFFFFFFF
310
FFFFFFFFFFFFFFFFFFFFFFFFFFFFFFFFFFFFFFFFFFFFFFFFFFFFFFFFFFFFFFFF
310
FFFFFFFFFFFFFFFFFFFFFFFFFFFFFFFFFFFFFFFFFFFFFFFFFFFFFFFFFFFFFFFF
310
FFFFFFFFFFFFFFFFFFFFFFFFFFFFFFFFFFFFFFFFFFFFFFFFFFFFFFFFFFFFFFFF
310
FFFFFFFFFFFFFFFFFFFFFFFFFFFFFFFFFFFFFFFFFFFFFFFFFFFFFFFFFFFFFFFF
310
FFFFFFFFFFFFFFFFFFFFFFFFFFFFFFFFFFFFFFFFFFFFFFFFFFFFFFFFFFFFFFFF
310
FFFFFFFFFFFFFFFFFFFFFFFFFFFFFFFFFFFFFFFFFFFFFFFFFFFFFFFFFFFFFFFF
310
52006F006F007400200045006E00740072007900000000000000000000000000
310
0000000000000000000000000000000000000000000000000000000000000000
310
16000500FFFFFFFFFFFFFFFF020000000A00030000000000C000000000000046
310
000000000000000000000000401A2BD15025D20103000000C000000000000000
310
01004F006C006500000000000000000000000000000000000000000000000000
310
0000000000000000000000000000000000000000000000000000000000000000
310
0A000200FFFFFFFFFFFFFFFFFFFFFFFF00000000000000000000000000000000
310
0000000000000000000000000000000000000000000000001400000000000000
310
010043006F006D0070004F0062006A0000000000000000000000000000000000
310
0000000000000000000000000000000000000000000000000000000000000000
310
120002010100000003000000FFFFFFFF00000000000000000000000000000000
310
0000000000000000000000000000000000000000010000004D00000000000000
310
01004F006C006500310030004E00610074006900760065000000000000000000
310
0000000000000000000000000000000000000000000000000000000000000000
310
1A000200FFFFFFFFFFFFFFFFFFFFFFFF00000000000000000000000000000000
310
0000000000000000000000000000000000000000040000002426000000000000
310
FEFFFFFF02000000FEFFFFFFFFFFFFFFFFFFFFFFFFFFFFFFFFFFFFFFFFFFFFFF
310
FFFFFFFFFFFFFFFFFFFFFFFFFFFFFFFFFFFFFFFFFFFFFFFFFFFFFFFFFFFFFFFF
310
FFFFFFFFFFFFFFFFFFFFFFFFFFFFFFFFFFFFFFFFFFFFFFFFFFFFFFFFFFFFFFFF
310
FFFFFFFFFFFFFFFFFFFFFFFFFFFFFFFFFFFFFFFFFFFFFFFFFFFFFFFFFFFFFFFF
310
FFFFFFFFFFFFFFFFFFFFFFFFFFFFFFFFFFFFFFFFFFFFFFFFFFFFFFFFFFFFFFFF
310
FFFFFFFFFFFFFFFFFFFFFFFFFFFFFFFFFFFFFFFFFFFFFFFFFFFFFFFFFFFFFFFF
310
FFFFFFFFFFFFFFFFFFFFFFFFFFFFFFFFFFFFFFFFFFFFFFFFFFFFFFFFFFFFFFFF
310
FFFFFFFFFFFFFFFFFFFFFFFFFFFFFFFFFFFFFFFFFFFFFFFFFFFFFFFFFFFFFFFF
310
FFFFFFFFFFFFFFFFFFFFFFFFFFFFFFFFFFFFFFFFFFFFFFFFFFFFFFFFFFFFFFFF
310
FFFFFFFFFFFFFFFFFFFFFFFFFFFFFFFFFFFFFFFFFFFFFFFFFFFFFFFFFFFFFFFF
310
FFFFFFFFFFFFFFFFFFFFFFFFFFFFFFFFFFFFFFFFFFFFFFFFFFFFFFFFFFFFFFFF
310
FFFFFFFFFFFFFFFFFFFFFFFFFFFFFFFFFFFFFFFFFFFFFFFFFFFFFFFFFFFFFFFF
310
FFFFFFFFFFFFFFFFFFFFFFFFFFFFFFFFFFFFFFFFFFFFFFFFFFFFFFFFFFFFFFFF
310
FFFFFFFFFFFFFFFFFFFFFFFFFFFFFFFFFFFFFFFFFFFFFFFFFFFFFFFFFFFFFFFF
310
FFFFFFFFFFFFFFFFFFFFFFFFFFFFFFFFFFFFFFFFFFFFFFFFFFFFFFFFFFFFFFFF
310
FFFFFFFFFFFFFFFFFFFFFFFFFFFFFFFFFFFFFFFFFFFFFFFFFFFFFFFFFFFFFFFF
310
0100000200000000000000000000000000000000000000000000000000000000
310
0000000000000000000000000000000000000000000000000000000000000000
310
0100FEFF030A0000FFFFFFFF0A00030000000000C00000000000004607000000
310
5042727573680007000000504272757368000700000050427275736800F439B2
310
7100000000000000000000000000000000000000000000000000000000000000
310
0000000000000000000000000000000000000000000000000000000000000000
310
0000000000000000000000000000000000000000000000000000000000000000
310
0000000000000000000000000000000000000000000000000000000000000000
310
0000000000000000000000000000000000000000000000000000000000000000
310
0000000000000000000000000000000000000000000000000000000000000000
310
0000000000000000000000000000000000000000000000000000000000000000
310
0000000000000000000000000000000000000000000000000000000000000000
310
0000000000000000000000000000000000000000000000000000000000000000
310
0000000000000000000000000000000000000000000000000000000000000000
310
0000000000000000000000000000000000000000000000000000000000000000
310
0000000000000000000000000000000000000000000000000000000000000000
310
20260000424D0E260000000000003E00000028000000B40200006E0000000100
310
01000000000000000000130B0000130B00000200000002000000000000FFFFFF
310
FFFFFFFFFFFFFFFFFFFFFFFFFFFFFFFFFFFFFFFFFFFFFFFFFFFFFFFFFFFFFFFF
310
FFFFFFFFFFFFFFFFFFFFFFFFFFFFFFFFFFFFFFFFFFFFFFFFFFFFFFFFFFFFFFFF
310
FFFFFFFFFFFFFFFFFFFFFFFFFFFFFFFFFFFFFFFFFFFFFFFFF000FFFFFFFFFFFF
310
FFFFFFFFFFFFFFFFFFFFFFFFFFFFFFFFFFFFFFFFFFFFFFFFFFFFFFFFFFFFFFFF
310
FFFFFFFFFFFFFFFFFFFFFFFFFFFFFFFFFFFFFFFFFFFFFFFFFFFFFFFFFFFFFFFF
310
FFFFFFFFFFFFFFFFFFFFFFFFFFFFFFFFF000FFFFFFFFFFFFFFFFFFFFFFFFFFFF
310
FFFFFFFFFFFFFFFFFFFFFFFFFFFFFFFFFFFFFFFFFFFFFFFFFFFFFFFFFFFFFFFF
310
FFFFFFFFFFFFFFFFFFFFFFFFFFFFFFFFFFFFFFFFFFFFFFFFFFFFFFFFFFFFFFFF
310
FFFFFFFFFFFFFFFFF000FFFFFFFFFFFFFFFFFFFFFFFFFFFFFFFFFFFFFFFFFFFF
310
FFFFFFFFFFFFFFFFFFFFFFFFFFFFFFFFFFFFFFFFFFFFFFFFFFFFFFFFFFFFFFFF
310
FFFFFFFFFFFFFFFFFFFFFFFFFFFFFFFFFFFFFFFFFFFFFFFFFFFFFFFFFFFFFFFF
310
F000FFFFFFFFFFFFFFFFFFFFFFFFFFFFFFFFFFFFFFFFFFFFFFFFFFFFFFFFFFFF
310
FFFFFFFFFFFFFFFFFFFFFFFFFFFFFFFFFFFFFFFFFFFFFFFFFFFFFFFFFFFFFFFF
310
FFFFFFFFFFFFFFFFFFFFFFFFFFFFFFFFFFFFFFFFFFFFFFFFF000FFFFFFFFFFFF
310
FFFFFFFFFFFFFFFFFFFFFFFFFFFFFFFFFFFFFFFFFFFFFFFFFFFFFFFFFFFFFFFF
310
FFFFFFFFFFFFFFFFFFFFFFFFFFFFFFFFFFFFFFFFFFFFFFFFFFFFFFFFFFFFFFFF
310
FFFFFFFFFFFFFFFFFFFFFFFFFFFFFFFFF000FFFFFFFFFFFFFFFFFFFFFFFFFFFF
310
FFFFFFFFFFFFFFFFFFFFFFFFFFFFFFFFFFFFFFFFFFFFFFFFFFFFFFFFFFFFFFFF
310
FFFFFFFFFFFFFFFFFFFFFFFFFFFFFFFFFFFFFFFFFFFFFFFFFFFFFFFFFFFFFFFF
310
FFFFFFFFFFFFFFFFF000FFFFFFFFFFFFFFFFFFFFFFFFFFFFFFFFFFFFFFFFFFFF
310
FFFFFFFFFFFFFFFFFFFFFFFFFFFFFFFFFFFFFFFFFFFFFFFFFFFFFFFFFFFFFFFF
310
FFFFFFFFFFFFFFFFFFFFFFFFFFFFFFFFFFFFFFFFFFFFFFFFFFFFFFFFFFFFFFFF
310
F000FFFFFFFFFFFFFFFFFFFFFFFFFFFFFFFFFFFFFFFFFFFFFFFFFFFFFFFFFFFF
310
FFFFFFFFFFFFFFFFFFFFFFFFFFFFFFFFFFFFFFFFFFFFFFFFFFFFFFFFFFFFFFFF
310
FFFFFFFFFFFFFFFFFFFFFFFFFFFFFFFFFFFFFFFFFFFFFFFFF000FFFFFFFFFFFF
310
FFFFFFFFFFFFFFFFFFFFFFFFFFFFFFFFFFFFFFFFFFFFFFFFFFFFFFFFFFFFFFFF
310
FFFFFFFFFFFFFFFFFFFFFFFFFFFFFFFFFFFFFFFFFFFFFFFFFFFFFFFFFFFFFFFF
310
FFFFFFFFFFFFFFFFFFFFFFFFFFFFFFFFF000FFFFFFFFFFFFFFFFFFFFFFFFFFFF
310
FFFFFFFFFFFFFFFFFFFFFFFFFFFFFFFFFFFFFFFFFFFFFFFFFFFFFFFFFFFFFFFF
310
FFFFFFFFFFFFFFFFFFFFFFFFFFFFFFFFFFFFFFFFFFFFFFFFFFFFFFFFFFFFFFFF
310
FFFFFFFFFFFFFFFFF000FFFFFFFFFFFFFFFFFFFFFFFFFFFFFFFFFFFFFFFFFFFF
310
FFFFFFFFFFFFFFFFFFFFFFFFFFFFFFFFFFFFFFFFFFFFFFFFFFFFFFFFFFFFFFFF
310
FFFFFFFFFFFFFFFFFFFFFFFFFFFFFFFFFFFFFFFFFFFFFFFFFFFFFFFFFFFFFFFF
310
F000FFFFFFFFFFFFFFFFFFFFFFFFFFFFFFFFFFFFFFFFFFFFFFFFFFFFFFFFFFFF
310
FFFFFFFFFFFFFFFFFFFFFFFFFFFFFFFFFFFFFFFFFFFFFFFFFFFFFFFFFFFFFFFF
310
FFFFFFFFFFFFFFFFFFFFFFFFFFFFFFFFFFFFFFFFFFFFFFFFF000FFFFFFFFFFFF
310
FFFFFFFFFFFFFFFFFFFFFFFFFFFFFFFFFFFFFFFFFFFFFFFFFFFFFFFFFFFFFFFF
310
FFFFFFFFFFFFFFFFFFFFFFFFFFFFFFFFFFFFFFFFFFFFFFFFFFFFFFFFFFFFFFFF
310
FFFFFFFFFFFFFFFFFFFFFFFFFFFFFFFFF000FFFFFFFFFFFFFFFFFFFFFFFFFFFF
310
FFFFFFFFFFFFFFFFFFFFFFFFFFFFFFFFFFFFFFFFFFFFFFFFFFFFFFFFFFFFFFFF
310
FFFFFFFFFFFFFFFFFFFFFFFFFFFFFFFFFFFFFFFFFFFFFFFFFFFFFFFFFFFFFFFF
310
FFFFFFFFFFFFFFFFF000FFFFFFFFFFFFFFFFFFFFFFFFFFFFFFFFFFFFFFFFFFFF
310
FFFFFFFFFFFFFFFFFFFFFFFFFFFFFFFFFFFFFFFFFFFFFFFFFFFFFFFFFFFFFFFF
310
FFFFFFFFFFFFFFFFFFFFFFFFFFFFFFFFFFFFFFFFFFFFFFFFFFFFFFFFFFFFFFFF
310
F000FFFFFFFFFFFFFFFFFFFFFFFFFFFFFFFFFFFFFFFFFFFFFFFFFFFFFFFFFFFF
310
FFFFFFFFFFFFFFFFFFFFFFFFFFFFFFFFFFFFFFFFFFFFFFFFFFFFFFFFFFFFFFFF
310
FFFFFFFFFFFFFFFFFFFFFFFFFFFFFFFFFFFFFFFFFFFFFFFFF000FFFFFFFFFFFF
310
FFFFFFFFFFFFFFFFFFFFFFFFFFFFFFFFFFFFFFFFFFFFFFFFFFFFFFFFFFFFFFFF
310
FFFFFFFFFFFFFFFFFFFFFFFFFFFFFFFFFFFFFFFFFFFFFFFFFFFFFFFFFFFFFFFF
310
FFFFFFFFFFFFFFFFFFFFFFFFFFFFFFFFF000FFFFFFFFFFFFFFFFFFFFFFFFFFFF
310
FFFFFFFFFFFFFFFFFFFFFFFFFFFFFFFFFFFFFFFFFFFFFFFFFFFFFFFFFFFFFFFF
310
FFFFFFFFFFFFFFFFFFFFFFFFFFFFFFFFFFFFFFFFFFFFFFFFFFFFFFFFFFFFFFFF
310
FFFFFFFFFFFFFFFFF000FFFFF80003FFFFFFFFFFFFFFFFFFFFFFFFFFFFFFFFFF
310
FFFFF00007FFFFFFFFFF00007FFFFFF800000000000000007FFFFFFFFFFFFFFF
310
FFFFFFFC001FFFFFFFFFFFFFFC001FFFFFFFFFFFFFFFFFFFFFFFFFFE0007FFFF
310
F000FFFF8000007FFFFFFFF8000FFFFFC0007FFFFF80007FFFFF0000007FFFFF
310
FFF8000007FFFFF800000000000000007FFFFFF0001FFFFFFFFFFFC00001FFFF
310
FFFFFFFFC00001FFFFFFFF000000000003FFFFE000007FFFF000FFFE0000000F
310
FFFFFFF0000FFFFF80007FFFFF80007FFFFC0000001FFFFFFFC0000001FFFFF8
310
00000000000000007FFFFFF0001FFFFFFFFFFE0000003FFFFFFFFFFE0000003F
310
FFFFFF000000000003FFFF0000000FFFF000FFF800000003FFFFFFF00007FFFF
310
80007FFFFF80007FFFF000000007FFFFFF000000003FFFF80000000000000000
310
7FFFFFF0001FFFFFFFFFF80000000FFFFFFFFFF80000000FFFFFFF0000000000
310
03FFFC00000003FFF000FFE000000000FFFFFFF00007FFFF80003FFFFF80007F
310
FFC000000001FFFFFC000000001FFFF800000000000000007FFFFFF0001FFFFF
310
FFFFE000000003FFFFFFFFE000000003FFFFFF000000000003FFF000000000FF
310
F000FF80000000007FFFFFF00007FFFF80003FFFFF80007FFF8000000000FFFF
310
F80000000007FFF800000000000000007FFFFFF0001FFFFFFFFFC000000001FF
310
FFFFFFC000000001FFFFFF000000000003FFC0000000007FF000FF0000000000
310
3FFFFFE00007FFFF00003FFFFF80007FFE00000000003FFFF00000000003FFF8
310
00000000000000007FFFFFF0001FFFFFFFFF8000000000FFFFFFFF8000000000
310
FFFFFF000000000003FF80000000003FF000FE00000000001FFFFFE00003FFFF
310
00003FFFFF80007FFC00000000001FFFE00000000001FFF8000001FFFE000000
310
7FFFFFF0001FFFFFFFFE00000000003FFFFFFE00000000003FFFFF0000000000
310
03FF00000000001FF000FC00000000000FFFFFE00003FFFF00001FFFFF80007F
310
F800000000001FFFC00000000000FFF8000001FFFE0000007FFFFFF0001FFFFF
310
FFFC00000000001FFFFFFC00000000001FFFFF000000000003FE00000000000F
310
F000F8000000000007FFFFE00003FFFF00001FFFFF80007FF800000000000FFF
310
800000000000FFF8000001FFFE0000007FFFFFF0001FFFFFFFF800000000000F
310
FFFFF800000000000FFFFF000000000003FC000000000007F000F80000000000
310
03FFFFC00003FFFE00001FFFFF80007FF0000000000007FF0000000000007FF8
310
000001FFFE0000007FFFFFF0001FFFFFFFF0000000000007FFFFF00000000000
310
07FFFF000000000003F8000000000003F000F0000000000003FFFFC00001FFFE
310
00001FFFFF80007FE0000000000007FE0000000000003FF8000001FFFE000000
310
7FFFFFF0001FFFFFFFF0000000000007FFFFF0000000000007FFFF0000000000
310
03F800001F800003F000E00001FFF00001FFFFC00001FFFE00000FFFFF80007F
310
E00001FFE00003FE00001FFF00003FF8000001FFFE0000007FFFFFF0001FFFFF
310
FFE000003E000003FFFFE000003E000003FFFF000000000003F00001FFF80001
310
F000E00007FFFC0001FFFFC00001FFFE00000FFFFF80007FC0000FFFFC0003FC
310
0000FFFFC0001FF8000001FFFE0000007FFFFFF0001FFFFFFFC00003FFE00001
310
FFFFC00003FFE00001FFFF0001FFFFFFFFF00007FFFE0001F000E0000FFFFF00
310
00FFFF800001FFFC00000FFFFF80007FC0001FFFFE0001FC0001FFFFE0001FF8
310
000001FFFE0000007FFFFFF0001FFFFFFF80000FFFF80000FFFF80000FFFF800
310
00FFFF0003FFFFFFFFE0000FFFFF8000F000C0003FFFFF8000FFFF800000FFFC
310
000007FFFF80007F80003FFFFF0001FC0003FFFFF0001FF8000001FFFE000000
310
7FFFFFF0001FFFFFFF80003FFFFE0000FFFF80003FFFFE0000FFFF0003FFFFFF
310
FFE0003FFFFF8000F000C0003FFFFF8000FFFF800000FFFC000007FFFF80007F
310
80007FFFFF8001F80007FFFFF8000FF8000001FFFE0000007FFFFFF0001FFFFF
310
FF00007FFFFF00007FFF00007FFFFF00007FFF0003FFFFFFFFE0003FFFFFC000
310
F000C0007FFFFFC000FFFF000000FFFC000007FFFF80007F8000FFFFFF8000F8
310
000FFFFFF8000FF8000001FFFE0000007FFFFFF0001FFFFFFF0000FFFFFF8000
310
7FFF0000FFFFFF80007FFF0003FFFFFFFFC0007FFFFFC00070008000FFFFFFC0
310
00FFFF000000FFF8000007FFFF80007F8000FFFFFF8000F8000FFFFFF8000FF8
310
000001FFFE0000007FFFFFF0001FFFFFFE0001FFFFFFC0003FFE0001FFFFFFC0
310
003FFF0003FFFFFFFFC0007FFFFFE00070008000FFFFFFC0007FFF0000007FF8
310
000003FFFF80007F0001FFFFFF8000F8000FFFFFF8000FF8000001FFFE000000
310
7FFFFFF0001FFFFFFE0001FFFFFFC0003FFE0001FFFFFFC0003FFF0003FFFFFF
310
FFC000FFFFFFE00070008000FFFFFFC0007FFF0000007FF8000003FFFF80007F
310
0001FFFFFF8000F8001FFFFFF8000FF8000001FFFE0000007FFFFFF0001FFFFF
310
FE0003FFFFFFE0003FFE0003FFFFFFE0003FFF0003FFFFFFFFC000FFFFFFE000
310
70008000FFFFFFC0007FFE0000007FF8000003FFFF80007F0001FFFFFF8000F0
310
001FFFFFF8000FF8000001FFFE0000007FFFFFF0001FFFFFFC0003FFFFFFE000
310
1FFC0003FFFFFFE0001FFF0003FFFFFFFFC000FFFFFFC00070008000FFFFFF80
310
007FFE0000007FF0000003FFFF80007F0001FFFFFF0000F0001FFFFFF8000FF8
310
000001FFFE0000007FFFFFF0001FFFFFFC0007FFFFFFF0001FFC0007FFFFFFF0
310
001FFF0003FFFFFFFFC000FFFFFFC00070008001FFFFFF0000FFFE0000003FF0
310
000001FFFF80007F0001FFFFFF0000F8001FFFFFF0000FF8000001FFFE000000
310
7FFFFFF0001FFFFFFC0007FFFFFFF0001FFC0007FFFFFFF0001FFF0003FFFFFF
310
FFC001FFFFFF80007000FFFFFFFFFE0000FFFE0008003FF0008001FFFF80007F
310
FFFFFFFFFC0000FFFFFFFFFFE0000FF8000001FFFE0000007FFFFFF0001FFFFF
310
F8000FFFFFFFF8000FF8000FFFFFFFF8000FFF0003FFFFFFFFFFFFFFFFFF0000
310
7000FFFFFFFFFC0000FFFC0008003FF0008001FFFF80007FFFFFFFFFF80001FF
310
FFFFFFFF80000FF8000001FFFE0000007FFFFFF0001FFFFFF8000FFFFFFFF800
310
0FF8000FFFFFFFF8000FFF0003FFFFFFFFFFFFFFFFFE0000F000FFFFFFFFE000
310
00FFFC000C003FE000C001FFFF80007FFFFFFFFFC00001FFFFFFFFFE00001FF8
310
000001FFFE0000007FFFFFF0001FFFFFF8000FFFFFFFF8000FF8000FFFFFFFF8
310
000FFF0003FFFFFFFFFFFFFFFFF00000F000FFFFFFFE000001FFFC000C001FE0
310
00C000FFFF80007FFFFFFFFE000001FFFFFFFFE000001FF80FFFFFFFFFFFFFC0
310
7FFFFFF0001FFFFFF8000FFFFFFFF8000FF8000FFFFFFFF8000FFF0003FFFFFF
310
FFFFFFFFFF800000F000FFFFFFC0000001FFFC001C001FE001C000FFFF80007F
310
FFFFFF80000003FFFFFFF80000001FF80FFFFFFFFFFFFFC07FFFFFF0001FFFFF
310
F8001FFFFFFFFC000FF8001FFFFFFFFC000FFF0003FFFFFFFFFFFFFFF0000001
310
F000FFFFF800000001FFF8001C001FE001C000FFFF80007FFFFFF800000003FF
310
FFFF800000003FF80FFFFFFFFFFFFFC07FFFFFF0001FFFFFF8001FFFFFFFFC00
310
0FF8001FFFFFFFFC000FFF0003FFFFFFFFFFFFFE00000001F000FFFFC0000000
310
03FFF8001E001FC001E000FFFF80007FFFFF8000000007FFFFFC000000003FF8
310
0FFFFFFFFFFFFFC07FFFFFF0001FFFFFF8001FFFFFFFFC000FF8001FFFFFFFFC
310
000FFF0003FFFFFFFFFFFFE000000003F000FFFE0000000007FFF8001E000FC0
310
01E0007FFF80007FFFFE0000000007FFFFE0000000007FF80FFFFFFFFFFFFFC0
310
7FFFFFF0001FFFFFF0001FFFFFFFFC0007F0001FFFFFFFFC0007FF0003FFFFFF
310
FFFFFF0000000003F000FFF80000000007FFF8001E000FC003E0007FFF80007F
310
FFF0000000000FFFFF8000000000FFF80FFFFFFFFFFFFFC07FFFFFF0001FFFFF
310
F0001FFFFFFFFC0007F0001FFFFFFFFC0007FF0003FFFFFFFFFFFC0000000007
310
F000FFE0000000000FFFF0003E000FC003E0007FFF80007FFFC0000000001FFF
310
FE0000000001FFF80FFFFFFFFFFFFFC07FFFFFF0001FFFFFF0001FFFFFFFFC00
310
07F0001FFFFFFFFC0007FF0003FFFFFFFFFFF0000000000FF000FFC000000000
310
1FFFF0003F000F8003F0003FFF80007FFF80000000003FFFF80000000003FFF8
310
0FFFFFFFFFFFFFC07FFFFFF0001FFFFFF0001FFFFFFFFC0007F0001FFFFFFFFC
310
0007FF0003FFFFFFFFFFE0000000001FF000FF00000000007FFFF0003F000780
310
03F0003FFF80007FFF00000000007FFFF00000000007FFF80FFFFFFFFFFFFFC0
310
7FFFFFF0001FFFFFF0001FFFFFFFFC0007F0001FFFFFFFFC0007FF0003FFFFFF
310
FFFF80000000007FF000FE0000000000FFFFE0003F00078007F0003FFF80007F
310
FE0000000001FFFFE0000000001FFFF80FFFFFFFFFFFFFC07FFFFFF0001FFFFF
310
F0001FFFFFFFFC0007F0001FFFFFFFFC0007FF0003FFFFFFFFFF0000000000FF
310
F000FC0000000003FFFFE0007F00078007F0003FFF80007FFC0000000007FFFF
310
C0000000007FFFF80FFFFFFFFFFFFFC07FFFFFF0001FFFFFF8001FFFFFFFFC00
310
0FF8001FFFFFFFFC000FFF0003FFFFFFFFFE0000000003FFF000FC000000000F
310
FFFFE0007F80070007F8001FFF80007FF8000000001FFFFF8000000001FFFFF8
310
0FFFFFFFFFFFFFC07FFFFFF0001FFFFFF8001FFFFFFFFC000FF8001FFFFFFFFC
310
000FFF0003FFFFFFFFFC000000000FFFF000F8000000007FFFFFE0007F800700
310
07F8001FFF80007FF000000000FFFFFF800000000FFFFFF80FFFFFFFFFFFFFC0
310
7FFFFFF0001FFFFFF8000FFFFFFFF8000FF8000FFFFFFFF8000FFF0003FFFFFF
310
FFFC000000007FFFF000F800000007FFFFFFC0007F8003000FF8001FFF80007F
310
F000000007FFFFFF000000007FFFFFF80FFFFFFFFFFFFFC07FFFFFF0001FFFFF
310
F8000FFFFFFFF8000FF8000FFFFFFFF8000FFF0003FFFFFFFFF80000000FFFFF
310
F000F0000000FFFFFFFFC000FF8003000FF8001FFF80007FE0000000FFFFFFFF
310
0000000FFFFFFFF8000001FFFE0000007FFFFFF0001FFFFFF8000FFFFFFFF800
310
0FF8000FFFFFFFF8000FFF0003FFFFFFFFF8000000FFFFFFF000F000000FFFFF
310
FFFFC000FFC002000FF8000FFF80007FE000001FFFFFFFFE000001FFFFFFFFF8
310
000001FFFE0000007FFFFFF0001FFFFFF8000FFFFFFFF8000FF8000FFFFFFFF8
310
000FFF0003FFFFFFFFF000001FFFFFFFF000E00000FFFFFFFFFFC000FFC00200
310
0FFC000FFF80007FE00001FFFFFFFFFE00001FFFFFFFFFF8000001FFFE000000
310
7FFFFFF0001FFFFFFC000FFFFFFFF8001FFC000FFFFFFFF8001FFF0003FFFFFF
310
FFF00001FFFFFFFFF000E00007FFFFFFFFFF8000FFC000001FFC000FFF80007F
310
C0000FFFFFFFFFFE0000FFFFFFFFFFF8000001FFFE0000007FFFFFF0001FFFFF
310
FC0007FFFFFFF0001FFC0007FFFFFFF0001FFF0003FFFFFFFFF00007FFFFFFFF
310
F000E0001FFFFFFFFFFF8000FFC000001FFC000FFF80007FC0003FFFFFFFFFFE
310
0001FFFFFFFFFFF8000001FFFE0000007FFFFFF0001FFFFFFC0007FFFFFFF000
310
1FFC0007FFFFFFF0001FFF0003FFFFFFFFF0001FFFFFFFFFF000E0003FFFFF00
310
03FF8001FFE000001FFC0007FF80007FC0007FFFFF0007FC0003FFFFF0003FF8
310
000001FFFE0000007FFFFFF0001FFFFFFC0003FFFFFFE0001FFC0003FFFFFFE0
310
001FFF0003FFFFFFFFF0003FFFFFFFFFF000E0003FFFFF0001FF8001FFE00000
310
1FFE0007FF80007FC0007FFFFE0003FC0007FFFFE0003FF8000001FFFE000000
310
7FFFFFF0001FFFFFFE0003FFFFFFE0003FFE0003FFFFFFE0003FFF0003FFFFFF
310
FFF0003FFFFF8001F000E0003FFFFF0001FF0001FFE000001FFE0007FF80007F
310
C0007FFFFE0003FC0007FFFFE0003FF8000001FFFE0000007FFFFFF0001FFFFF
310
FE0001FFFFFFC0003FFE0001FFFFFFC0003FFF0003FFFFFFFFF0003FFFFF0001
310
F000E0003FFFFF0003FF0001FFE000003FFE0007FF80007FC0007FFFFE0003FC
310
0007FFFFE0003FF8000001FFFE0000007FFFFFF0001FFFFFFF0001FFFFFFC000
310
7FFF0001FFFFFFC0007FFF0003FFFFFFFFF0003FFFFF0001F000E0003FFFFE00
310
03FF0003FFF000003FFE0003FF80007FC0007FFFFC0003FE0007FFFFE0003FF8
310
000001FFFE0000007FFFFFF0001FFFFFFF0000FFFFFF80007FFF0000FFFFFF80
310
007FFF0003FFFFFFFFF0003FFFFF0001F000E0003FFFFE0003FF0003FFF00000
310
3FFF0003FF80007FC0007FFFFC0007FE0007FFFFC0003FF8000001FFFE000000
310
7FFFFFF0001FFFFFFF80007FFFFF0000FFFF80007FFFFF0000FFFF0003FFFFFF
310
FFF0003FFFFF0003F000E0003FFFFC0003FE0003FFF000003FFF0003FF80007F
310
E0003FFFF80007FE0003FFFFC0007FF8000001FFFE0000007FFFFFF0001FFFFF
310
FF80003FFFFE0000FFFF80003FFFFE0000FFFF0003FFFFFFFFF0001FFFFE0003
310
F000F0001FFFF80003FE0003FFF000007FFF0001FF80007FE0003FFFF00007FE
310
0001FFFF80007FF8000001FFFE0000007FFFFFF0001FFFFFFFC0000FFFF80001
310
FFFFC0000FFFF80001FFFF0003FFFFFFFFF0001FFFFC0003F000F0000FFFF000
310
07FE0007FFF800007FFF0001FF80007FE0001FFFE00007FF0000FFFE00007FF8
310
000001FFFE0000007FFFFFF0001FFFFFFFC00003FFE00001FFFFC00003FFE000
310
01FFFF0003FFFFFFFFF8000FFFF80003F000F00003FFC00007FC0007FFF80000
310
7FFF8001FF80007FF00007FF80000FFF00007FF80000FFF8000001FFFE000000
310
7F80000000000001FFE000003E000003FFFFE000003E000003FFFF0003FFFFFF
310
FFF80003FFE00007F000F800000000000FFC0007FFF800007FFF8001FF80007F
310
F000000000000FFF000000000000FFF8000001FFFE0000007F80000000000001
310
FFF0000000000007FFFFF0000000000007FFFF0003FFFFFFFFFC00007E000007
310
F000F800000000000FFC0007FFF80000FFFF8000FF80007FF800000000001FFF
310
800000000001FFF8000001FFFE0000007F80000000000001FFF800000000000F
310
FFFFF800000000000FFFFF0003FFFFFFFFFC00000000000FF000FC0000000000
310
1FFC0007FFFC0000FFFF8000FF80007FF800000000003FFFC00000000001FFF8
310
000001FFFE0000007F80000000000001FFF800000000000FFFFFF80000000000
310
0FFFFF0003FFFFFFFFFE00000000001FF000FE00000000003FF8000FFFFC0000
310
FFFF8000FF80007FFC00000000003FFFC00000000003FFF8000001FFFE000000
310
7F80000000000001FFFC00000000001FFFFFFC00000000001FFFFF0003FFFFFF
310
FFFF00000000001FF000FF00000000003FF8000FFFFC0000FFFFC000FF80007F
310
FE00000000007FFFE00000000007FFF8000001FFFE0000007F80000000000001
310
FFFE00000000003FFFFFFE00000000003FFFFF0003FFFFFFFFFF80000000003F
310
F000FF80000000007FF8000FFFFC0001FFFFC0007F80007FFF0000000000FFFF
310
F0000000000FFFF800000000000000007F80000000000001FFFF8000000000FF
310
FFFFFF8000000000FFFFFF0003FFFFFFFFFFC0000000007FF000FFC000000000
310
FFF8000FFFFE0001FFFFC0007F80007FFF8000000001FFFFF8000000001FFFF8
310
00000000000000007F80000000000001FFFFC000000001FFFFFFFFC000000001
310
FFFFFF0003FFFFFFFFFFE000000000FFF000FFE000000003FFF0001FFFFE0001
310
FFFFC0007F80007FFFC000000007FFFFFE000000003FFFF80000000000000000
310
7F80000000000001FFFFE000000003FFFFFFFFE000000003FFFFFF0003FFFFFF
310
FFFFF000000003FFF000FFF80000000FFFF0001FFFFE0001FFFFE0007F80007F
310
FFF00000000FFFFFFF00000000FFFFF800000000000000007F80000000000001
310
FFFFF80000000FFFFFFFFFF80000000FFFFFFF0003FFFFFFFFFFFC0000000FFF
310
F000FFFE0000003FFFF0001FFFFE0003FFFFE0003F80007FFFFC0000003FFFFF
310
FFC0000003FFFFF800000000000000007F80000000000001FFFFFE0000003FFF
310
FFFFFFFE0000003FFFFFFF0003FFFFFFFFFFFF0000003FFFF000FFFF800000FF
310
FFF0001FFFFF0003FFFFE0003F80007FFFFF000001FFFFFFFFF800001FFFFFF8
310
00000000000000007F80000000000001FFFFFFC00001FFFFFFFFFFFFC00001FF
310
FFFFFF0003FFFFFFFFFFFFC00000FFFFF000FFFFF8000FFFFFFFFFFFFFFFFFFF
310
FFFFFFFFFFFFFFFFFFFFF0001FFFFFFFFFFF0000FFFFFFF80000000000000000
310
7FFFFFFFFFFFFFFFFFFFFFFC001FFFFFFFFFFFFFFC001FFFFFFFFFFFFFFFFFFF
310
FFFFFFFC001FFFFFF000FFFFFFFFFFFFFFFFFFFFFFFFFFFFFFFFFFFFFFFFFFFF
310
FFFFFFFFFFFFFFFFFFFFFFFFFFFFFFFFFFFFFFFFFFFFFFFFFFFFFFFFFFFFFFFF
310
FFFFFFFFFFFFFFFFFFFFFFFFFFFFFFFFFFFFFFFFFFFFFFFFFFFFFFFFFFFFFFFF
310
F000FFFFFFFFFFFFFFFFFFFFFFFFFFFFFFFFFFFFFFFFFFFFFFFFFFFFFFFFFFFF
310
FFFFFFFFFFFFFFFFFFFFFFFFFFFFFFFFFFFFFFFFFFFFFFFFFFFFFFFFFFFFFFFF
310
FFFFFFFFFFFFFFFFFFFFFFFFFFFFFFFFFFFFFFFFFFFFFFFFF000FFFFFFFFFFFF
310
FFFFFFFFFFFFFFFFFFFFFFFFFFFFFFFFFFFFFFFFFFFFFFFFFFFFFFFFFFFFFFFF
310
FFFFFFFFFFFFFFFFFFFFFFFFFFFFFFFFFFFFFFFFFFFFFFFFFFFFFFFFFFFFFFFF
310
FFFFFFFFFFFFFFFFFFFFFFFFFFFFFFFFF000FFFFFFFFFFFFFFFFFFFFFFFFFFFF
310
FFFFFFFFFFFFFFFFFFFFFFFFFFFFFFFFFFFFFFFFFFFFFFFFFFFFFFFFFFFFFFFF
310
FFFFFFFFFFFFFFFFFFFFFFFFFFFFFFFFFFFFFFFFFFFFFFFFFFFFFFFFFFFFFFFF
310
FFFFFFFFFFFFFFFFF000FFFFFFFFFFFFFFFFFFFFFFFFFFFFFFFFFFFFFFFFFFFF
310
FFFFFFFFFFFFFFFFFFFFFFFFFFFFFFFFFFFFFFFFFFFFFFFFFFFFFFFFFFFFFFFF
310
FFFFFFFFFFFFFFFFFFFFFFFFFFFFFFFFFFFFFFFFFFFFFFFFFFFFFFFFFFFFFFFF
310
F000FFFFFFFFFFFFFFFFFFFFFFFFFFFFFFFFFFFFFFFFFFFFFFFFFFFFFFFFFFFF
310
FFFFFFFFFFFFFFFFFFFFFFFFFFFFFFFFFFFFFFFFFFFFFFFFFFFFFFFFFFFFFFFF
310
FFFFFFFFFFFFFFFFFFFFFFFFFFFFFFFFFFFFFFFFFFFFFFFFF000FFFFFFFFFFFF
310
FFFFFFFFFFFFFFFFFFFFFFFFFFFFFFFFFFFFFFFFFFFFFFFFFFFFFFFFFFFFFFFF
310
FFFFFFFFFFFFFFFFFFFFFFFFFFFFFFFFFFFFFFFFFFFFFFFFFFFFFFFFFFFFFFFF
310
FFFFFFFFFFFFFFFFFFFFFFFFFFFFFFFFF000FFFFFFFFFFFFFFFFFFFFFFFFFFFF
310
FFFFFFFFFFFFFFFFFFFFFFFFFFFFFFFFFFFFFFFFFFFFFFFFFFFFFFFFFFFFFFFF
310
FFFFFFFFFFFFFFFFFFFFFFFFFFFFFFFFFFFFFFFFFFFFFFFFFFFFFFFFFFFFFFFF
310
FFFFFFFFFFFFFFFFF000FFFFFFFFFFFFFFFFFFFFFFFFFFFFFFFFFFFFFFFFFFFF
310
FFFFFFFFFFFFFFFFFFFFFFFFFFFFFFFFFFFFFFFFFFFFFFFFFFFFFFFFFFFFFFFF
310
FFFFFFFFFFFFFFFFFFFFFFFFFFFFFFFFFFFFFFFFFFFFFFFFFFFFFFFFFFFFFFFF
310
F000FFFFFFFFFFFFFFFFFFFFFFFFFFFFFFFFFFFFFFFFFFFFFFFFFFFFFFFFFFFF
310
FFFFFFFFFFFFFFFFFFFFFFFFFFFFFFFFFFFFFFFFFFFFFFFFFFFFFFFFFFFFFFFF
310
FFFFFFFFFFFFFFFFFFFFFFFFFFFFFFFFFFFFFFFFFFFFFFFFF000FFFFFFFFFFFF
310
FFFFFFFFFFFFFFFFFFFFFFFFFFFFFFFFFFFFFFFFFFFFFFFFFFFFFFFFFFFFFFFF
310
FFFFFFFFFFFFFFFFFFFFFFFFFFFFFFFFFFFFFFFFFFFFFFFFFFFFFFFFFFFFFFFF
310
FFFFFFFFFFFFFFFFFFFFFFFFFFFFFFFFF000FFFFFFFFFFFFFFFFFFFFFFFFFFFF
310
FFFFFFFFFFFFFFFFFFFFFFFFFFFFFFFFFFFFFFFFFFFFFFFFFFFFFFFFFFFFFFFF
310
FFFFFFFFFFFFFFFFFFFFFFFFFFFFFFFFFFFFFFFFFFFFFFFFFFFFFFFFFFFFFFFF
310
FFFFFFFFFFFFFFFFF000FFFFFFFFFFFFFFFFFFFFFFFFFFFFFFFFFFFFFFFFFFFF
310
FFFFFFFFFFFFFFFFFFFFFFFFFFFFFFFFFFFFFFFFFFFFFFFFFFFFFFFFFFFFFFFF
310
FFFFFFFFFFFFFFFFFFFFFFFFFFFFFFFFFFFFFFFFFFFFFFFFFFFFFFFFFFFFFFFF
310
F000FFFFFFFFFFFFFFFFFFFFFFFFFFFFFFFFFFFFFFFFFFFFFFFFFFFFFFFFFFFF
310
FFFFFFFFFFFFFFFFFFFFFFFFFFFFFFFFFFFFFFFFFFFFFFFFFFFFFFFFFFFFFFFF
310
FFFFFFFFFFFFFFFFFFFFFFFFFFFFFFFFFFFFFFFFFFFFFFFFF000FFFFFFFFFFFF
310
FFFFFFFFFFFFFFFFFFFFFFFFFFFFFFFFFFFFFFFFFFFFFFFFFFFFFFFFFFFFFFFF
310
FFFFFFFFFFFFFFFFFFFFFFFFFFFFFFFFFFFFFFFFFFFFFFFFFFFFFFFFFFFFFFFF
310
FFFFFFFFFFFFFFFFFFFFFFFFFFFFFFFFF000FFFFFFFFFFFFFFFFFFFFFFFFFFFF
310
FFFFFFFFFFFFFFFFFFFFFFFFFFFFFFFFFFFFFFFFFFFFFFFFFFFFFFFFFFFFFFFF
310
FFFFFFFFFFFFFFFFFFFFFFFFFFFFFFFFFFFFFFFFFFFFFFFFFFFFFFFFFFFFFFFF
310
FFFFFFFFFFFFFFFFF000FFFFFFFFFFFFFFFFFFFFFFFFFFFFFFFFFFFFFFFFFFFF
310
FFFFFFFFFFFFFFFFFFFFFFFFFFFFFFFFFFFFFFFFFFFFFFFFFFFFFFFFFFFFFFFF
310
FFFFFFFFFFFFFFFFFFFFFFFFFFFFFFFFFFFFFFFFFFFFFFFFFFFFFFFFFFFFFFFF
310
F000FFFFFFFFFFFFFFFFFFFFFFFFFFFFFFFFFFFFFFFFFFFFFFFFFFFFFFFFFFFF
310
FFFFFFFFFFFFFFFFFFFFFFFFFFFFFFFFFFFFFFFFFFFFFFFFFFFFFFFFFFFFFFFF
310
FFFFFFFFFFFFFFFFFFFFFFFFFFFFFFFFFFFFFFFFFFFFFFFFF000FFFFFFFFFFFF
310
FFFFFFFFFFFFFFFFFFFFFFFFFFFFFFFFFFFFFFFFFFFFFFFFFFFFFFFFFFFFFFFF
310
FFFFFFFFFFFFFFFFFFFFFFFFFFFFFFFFFFFFFFFFFFFFFFFFFFFFFFFFFFFFFFFF
310
FFFFFFFFFFFFFFFFFFFFFFFFFFFFFFFFF000FFFFFFFFFFFFFFFFFFFFFFFFFFFF
310
FFFFFFFFFFFFFFFFFFFFFFFFFFFFFFFFFFFFFFFFFFFFFFFFFFFFFFFFFFFFFFFF
310
FFFFFFFFFFFFFFFFFFFFFFFFFFFFFFFFFFFFFFFFFFFFFFFFFFFFFFFFFFFFFFFF
310
FFFFFFFFFFFFFFFFF000FFFFFFFFFFFFFFFFFFFFFFFFFFFFFFFFFFFFFFFFFFFF
310
FFFFFFFFFFFFFFFFFFFFFFFFFFFFFFFFFFFFFFFFFFFFFFFFFFFFFFFFFFFFFFFF
310
FFFFFFFFFFFFFFFFFFFFFFFFFFFFFFFFFFFFFFFFFFFFFFFFFFFFFFFFFFFFFFFF
310
F000FFFFFFFFFFFFFFFFFFFFFFFFFFFFFFFFFFFFFFFFFFFFFFFFFFFFFFFFFFFF
310
FFFFFFFFFFFFFFFFFFFFFFFFFFFFFFFFFFFFFFFFFFFFFFFFFFFFFFFFFFFFFFFF
310
FFFFFFFFFFFFFFFFFFFFFFFFFFFFFFFFFFFFFFFFFFFFFFFFF000FFFFFFFFFFFF
310
FFFFFFFFFFFFFFFFFFFFFFFFFFFFFFFFFFFFFFFFFFFFFFFFFFFFFFFFFFFFFFFF
310
FFFFFFFFFFFFFFFFFFFFFFFFFFFFFFFFFFFFFFFFFFFFFFFFFFFFFFFFFFFFFFFF
310
FFFFFFFFFFFFFFFFFFFFFFFFFFFFFFFFF0000000000000000000000000000000
310
0000000000000000000000000000000000000000000000000000000000000000
310
0000000000000000000000000000000000000000000000000000000000000000
310
0000000000000000000000000000000000000000000000000000000000000000
310
0000000000000000000000000000000000000000000000000000000000000000
310
0000000000000000000000000000000000000000000000000000000000000000
310
0000000000000000000000000000000000000000000000000000000000000000
310
0000000000000000000000000000000000000000000000000000000000000000
310
0000000000000000000000000000000000000000000000000000000000000000
310
0000000000000000000000000000000000000000000000000000000000000000
310
0000000000000000000000000000000000000000000000000000000000000000
310
0000000000000000000000000000000000000000000000000000000000000000
310
0000000000000000000000000000000000000000000000000000000000000000
310
0000000000000000000000000000000000000000000000000000000000000000
310
0000000000000000000000000000000000000000000000000000000000000000
310
0000000000000000000000000000000000000000000000000000000000000000
  1
OLE
  0
ENDSEC
  0
SECTION
  2
OBJECTS
  0
DICTIONARY
  5
C
330
0
100
AcDbDictionary
281
     1
  3
ACAD_GROUP
350
D
  3
ACAD_LAYOUT
350
1A
  3
ACAD_MLINESTYLE
350
17
  3
ACAD_PLOTSETTINGS
350
19
  3
ACAD_PLOTSTYLENAME
350
E
  3
ACAD_SCALELIST
350
47
  0
DICTIONARY
  5
D
102
{ACAD_REACTORS
330
C
102
}
330
C
100
AcDbDictionary
281
     1
  0
DICTIONARY
  5
1A
102
{ACAD_REACTORS
330
C
102
}
330
C
100
AcDbDictionary
281
     1
  3
Layout1
350
1E
  3
Layout2
350
26
  3
Model
350
22
  0
DICTIONARY
  5
17
102
{ACAD_REACTORS
330
C
102
}
330
C
100
AcDbDictionary
281
     1
  3
Standard
350
18
  0
DICTIONARY
  5
19
102
{ACAD_REACTORS
330
C
102
}
330
C
100
AcDbDictionary
281
     1
  0
ACDBDICTIONARYWDFLT
  5
E
102
{ACAD_REACTORS
330
C
102
}
330
C
100
AcDbDictionary
281
     1
  3
Normal
350
F
100
AcDbDictionaryWithDefault
340
F
  0
DICTIONARY
  5
47
102
{ACAD_REACTORS
330
C
102
}
330
C
100
AcDbDictionary
281
     1
  3
A0
350
48
  3
A1
350
49
  3
A2
350
4A
  3
A3
350
4B
  3
A4
350
4C
  3
A5
350
4D
  3
A6
350
4E
  3
A7
350
4F
  3
A8
350
50
  3
A9
350
51
  3
B0
350
52
  3
B1
350
53
  3
B2
350
54
  3
B3
350
55
  3
B4
350
56
  3
B5
350
57
  3
B6
350
58
  3
B7
350
59
  3
B8
350
5A
  3
B9
350
5B
  3
C0
350
5C
  3
C1
350
5D
  3
C2
350
5E
  3
C3
350
5F
  3
C4
350
60
  3
C5
350
61
  3
C6
350
62
  3
C7
350
63
  3
C8
350
64
  3
C9
350
65
  3
D0
350
66
  3
D1
350
67
  3
D2
350
68
  0
LAYOUT
  5
1E
102
{ACAD_REACTORS
330
1A
102
}
330
1A
100
AcDbPlotSettings
  1

  2
none_device
  4

  6

 40
0.0
 41
0.0
 42
0.0
 43
0.0
 44
0.0
 45
0.0
 46
0.0
 47
0.0
 48
0.0
 49
0.0
140
0.0
141
0.0
142
1.0
143
1.0
 70
   688
 72
     1
 73
     0
 74
     5
  7

 75
    16
147
1.0
148
0.0
149
0.0
100
AcDbLayout
  1
Layout1
 70
     1
 71
     1
 10
0.0
 20
0.0
 11
420.0
 21
297.0
 12
0.0
 22
0.0
 32
0.0
 14
1.0000000000E+20
 24
1.0000000000E+20
 34
1.0000000000E+20
 15
-1.0000000000E+20
 25
-1.0000000000E+20
 35
-1.0000000000E+20
146
0.0
 13
0.0
 23
0.0
 33
0.0
 16
1.0
 26
0.0
 36
0.0
 17
0.0
 27
1.0
 37
0.0
 76
     0
330
1B
  0
LAYOUT
  5
26
102
{ACAD_REACTORS
330
1A
102
}
330
1A
100
AcDbPlotSettings
  1

  2
none_device
  4

  6

 40
0.0
 41
0.0
 42
0.0
 43
0.0
 44
0.0
 45
0.0
 46
0.0
 47
0.0
 48
0.0
 49
0.0
140
0.0
141
0.0
142
1.0
143
1.0
 70
   688
 72
     1
 73
     0
 74
     5
  7

 75
    16
147
1.0
148
0.0
149
0.0
100
AcDbLayout
  1
Layout2
 70
     1
 71
     2
 10
0.0
 20
0.0
 11
0.0
 21
0.0
 12
0.0
 22
0.0
 32
0.0
 14
0.0
 24
0.0
 34
0.0
 15
0.0
 25
0.0
 35
0.0
146
0.0
 13
0.0
 23
0.0
 33
0.0
 16
1.0
 26
0.0
 36
0.0
 17
0.0
 27
1.0
 37
0.0
 76
     0
330
23
  0
LAYOUT
  5
22
102
{ACAD_REACTORS
330
1A
102
}
330
1A
100
AcDbPlotSettings
  1

  2
none_device
  4
Letter_(8.50_x_11.00_Inches)
  6

 40
6.35
 41
6.35
 42
6.35000508
 43
6.35000508
 44
215.9
 45
279.4
 46
0.0
 47
0.0
 48
0.0
 49
0.0
140
0.0
141
0.0
142
1.0
143
1.0
 70
  1712
 72
     1
 73
     0
 74
     0
  7

 75
     0
147
1.0
148
0.0
149
0.0
100
AcDbLayout
  1
Model
 70
     1
 71
     0
 10
0.0
 20
0.0
 11
297.0
 21
210.0
 12
0.0
 22
0.0
 32
0.0
 14
0.0
 24
0.0
 34
0.0
 15
297.0
 25
210.0
 35
0.0
146
0.0
 13
0.0
 23
0.0
 33
0.0
 16
1.0
 26
0.0
 36
0.0
 17
0.0
 27
1.0
 37
0.0
 76
     0
330
1F
331
29
  0
MLINESTYLE
  5
18
102
{ACAD_REACTORS
330
17
102
}
330
17
100
AcDbMlineStyle
  2
Standard
 70
     0
  3

 62
   256
 51
90.0
 52
90.0
 71
     2
 49
0.5
 62
   256
  6
BYLAYER
 49
-0.5
 62
   256
  6
BYLAYER
  0
ACDBPLACEHOLDER
  5
F
102
{ACAD_REACTORS
330
E
102
}
330
E
  0
SCALE
  5
48
102
{ACAD_REACTORS
330
47
102
}
330
47
100
AcDbScale
 70
     0
300
1:1
140
1.0
141
1.0
290
     1
  0
SCALE
  5
49
102
{ACAD_REACTORS
330
47
102
}
330
47
100
AcDbScale
 70
     0
300
1:2
140
1.0
141
2.0
290
     0
  0
SCALE
  5
4A
102
{ACAD_REACTORS
330
47
102
}
330
47
100
AcDbScale
 70
     0
300
1:4
140
1.0
141
4.0
290
     0
  0
SCALE
  5
4B
102
{ACAD_REACTORS
330
47
102
}
330
47
100
AcDbScale
 70
     0
300
1:5
140
1.0
141
5.0
290
     0
  0
SCALE
  5
4C
102
{ACAD_REACTORS
330
47
102
}
330
47
100
AcDbScale
 70
     0
300
1:8
140
1.0
141
8.0
290
     0
  0
SCALE
  5
4D
102
{ACAD_REACTORS
330
47
102
}
330
47
100
AcDbScale
 70
     0
300
1:10
140
1.0
141
10.0
290
     0
  0
SCALE
  5
4E
102
{ACAD_REACTORS
330
47
102
}
330
47
100
AcDbScale
 70
     0
300
1:16
140
1.0
141
16.0
290
     0
  0
SCALE
  5
4F
102
{ACAD_REACTORS
330
47
102
}
330
47
100
AcDbScale
 70
     0
300
1:20
140
1.0
141
20.0
290
     0
  0
SCALE
  5
50
102
{ACAD_REACTORS
330
47
102
}
330
47
100
AcDbScale
 70
     0
300
1:30
140
1.0
141
30.0
290
     0
  0
SCALE
  5
51
102
{ACAD_REACTORS
330
47
102
}
330
47
100
AcDbScale
 70
     0
300
1:40
140
1.0
141
40.0
290
     0
  0
SCALE
  5
52
102
{ACAD_REACTORS
330
47
102
}
330
47
100
AcDbScale
 70
     0
300
1:50
140
1.0
141
50.0
290
     0
  0
SCALE
  5
53
102
{ACAD_REACTORS
330
47
102
}
330
47
100
AcDbScale
 70
     0
300
1:100
140
1.0
141
100.0
290
     0
  0
SCALE
  5
54
102
{ACAD_REACTORS
330
47
102
}
330
47
100
AcDbScale
 70
     0
300
2:1
140
2.0
141
1.0
290
     0
  0
SCALE
  5
55
102
{ACAD_REACTORS
330
47
102
}
330
47
100
AcDbScale
 70
     0
300
4:1
140
4.0
141
1.0
290
     0
  0
SCALE
  5
56
102
{ACAD_REACTORS
330
47
102
}
330
47
100
AcDbScale
 70
     0
300
8:1
140
8.0
141
1.0
290
     0
  0
SCALE
  5
57
102
{ACAD_REACTORS
330
47
102
}
330
47
100
AcDbScale
 70
     0
300
10:1
140
10.0
141
1.0
290
     0
  0
SCALE
  5
58
102
{ACAD_REACTORS
330
47
102
}
330
47
100
AcDbScale
 70
     0
300
100:1
140
100.0
141
1.0
290
     0
  0
SCALE
  5
59
102
{ACAD_REACTORS
330
47
102
}
330
47
100
AcDbScale
 70
     0
300
1/128" = 1'-0"
140
0.0078125
141
12.0
290
     0
  0
SCALE
  5
5A
102
{ACAD_REACTORS
330
47
102
}
330
47
100
AcDbScale
 70
     0
300
1/64" = 1'-0"
140
0.015625
141
12.0
290
     0
  0
SCALE
  5
5B
102
{ACAD_REACTORS
330
47
102
}
330
47
100
AcDbScale
 70
     0
300
1/32" = 1'-0"
140
0.03125
141
12.0
290
     0
  0
SCALE
  5
5C
102
{ACAD_REACTORS
330
47
102
}
330
47
100
AcDbScale
 70
     0
300
1/16" = 1'-0"
140
0.0625
141
12.0
290
     0
  0
SCALE
  5
5D
102
{ACAD_REACTORS
330
47
102
}
330
47
100
AcDbScale
 70
     0
300
3/32" = 1'-0"
140
0.09375
141
12.0
290
     0
  0
SCALE
  5
5E
102
{ACAD_REACTORS
330
47
102
}
330
47
100
AcDbScale
 70
     0
300
1/8" = 1'-0"
140
0.125
141
12.0
290
     0
  0
SCALE
  5
5F
102
{ACAD_REACTORS
330
47
102
}
330
47
100
AcDbScale
 70
     0
300
3/16" = 1'-0"
140
0.1875
141
12.0
290
     0
  0
SCALE
  5
60
102
{ACAD_REACTORS
330
47
102
}
330
47
100
AcDbScale
 70
     0
300
1/4" = 1'-0"
140
0.25
141
12.0
290
     0
  0
SCALE
  5
61
102
{ACAD_REACTORS
330
47
102
}
330
47
100
AcDbScale
 70
     0
300
3/8" = 1'-0"
140
0.375
141
12.0
290
     0
  0
SCALE
  5
62
102
{ACAD_REACTORS
330
47
102
}
330
47
100
AcDbScale
 70
     0
300
1/2" = 1'-0"
140
0.5
141
12.0
290
     0
  0
SCALE
  5
63
102
{ACAD_REACTORS
330
47
102
}
330
47
100
AcDbScale
 70
     0
300
3/4" = 1'-0"
140
0.75
141
12.0
290
     0
  0
SCALE
  5
64
102
{ACAD_REACTORS
330
47
102
}
330
47
100
AcDbScale
 70
     0
300
1" = 1'-0"
140
1.0
141
12.0
290
     0
  0
SCALE
  5
65
102
{ACAD_REACTORS
330
47
102
}
330
47
100
AcDbScale
 70
     0
300
1-1/2" = 1'-0"
140
1.5
141
12.0
290
     0
  0
SCALE
  5
66
102
{ACAD_REACTORS
330
47
102
}
330
47
100
AcDbScale
 70
     0
300
3" = 1'-0"
140
3.0
141
12.0
290
     0
  0
SCALE
  5
67
102
{ACAD_REACTORS
330
47
102
}
330
47
100
AcDbScale
 70
     0
300
6" = 1'-0"
140
6.0
141
12.0
290
     0
  0
SCALE
  5
68
102
{ACAD_REACTORS
330
47
102
}
330
47
100
AcDbScale
 70
     0
300
1'-0" = 1'-0"
140
12.0
141
12.0
290
     0
  0
ENDSEC
  0
EOF
