  0
SECTION
  2
HEADER
  9
$ACADVER
  1
AC1015
  9
$ACADMAINTVER
 70
     6
  9
$DWGCODEPAGE
  3
ANSI_1252
  9
$INSBASE
 10
0.0
 20
0.0
 30
0.0
  9
$EXTMIN
 10
0.0
 20
0.0
 30
0.0
  9
$EXTMAX
 10
297.0
 20
210.0
 30
0.0
  9
$LIMMIN
 10
0.0
 20
0.0
  9
$LIMMAX
 10
297.0
 20
210.0
  9
$ORTHOMODE
 70
     0
  9
$REGENMODE
 70
     1
  9
$FILLMODE
 70
     1
  9
$QTEXTMODE
 70
     0
  9
$MIRRTEXT
 70
     1
  9
$LTSCALE
 40
1.0
  9
$ATTMODE
 70
     1
  9
$TEXTSIZE
 40
2.0
  9
$TRACEWID
 40
1.0
  9
$TEXTSTYLE
  7
Standard
  9
$CLAYER
  8
0
  9
$CELTYPE
  6
ByLayer
  9
$CECOLOR
 62
   256
  9
$CELTSCALE
 40
1.0
  9
$DISPSILH
 70
     0
  9
$DIMSCALE
 40
1.0
  9
$DIMASZ
 40
3.0
  9
$DIMEXO
 40
0.0
  9
$DIMDLI
 40
3.75
  9
$DIMRND
 40
0.0
  9
$DIMDLE
 40
0.0
  9
$DIMEXE
 40
1.0
  9
$DIMTP
 40
0.0
  9
$DIMTM
 40
0.0
  9
$DIMTXT
 40
2.0
  9
$DIMCEN
 40
2.5
  9
$DIMTSZ
 40
0.0
  9
$DIMTOL
 70
     0
  9
$DIMLIM
 70
     0
  9
$DIMTIH
 70
     1
  9
$DIMTOH
 70
     1
  9
$DIMSE1
 70
     0
  9
$DIMSE2
 70
     0
  9
$DIMTAD
 70
     1
  9
$DIMZIN
 70
     0
  9
$DIMBLK
  1

  9
$DIMASO
 70
     1
  9
$DIMSHO
 70
     1
  9
$DIMPOST
  1

  9
$DIMAPOST
  1

  9
$DIMALT
 70
     0
  9
$DIMALTD
 70
     3
  9
$DIMALTF
 40
0.0393700787
  9
$DIMLFAC
 40
1.0
  9
$DIMTOFL
 70
     1
  9
$DIMTVP
 40
0.0
  9
$DIMTIX
 70
     0
  9
$DIMSOXD
 70
     0
  9
$DIMSAH
 70
     0
  9
$DIMBLK1
  1

  9
$DIMBLK2
  1

  9
$DIMSTYLE
  2
ISO-25
  9
$DIMCLRD
 70
     0
  9
$DIMCLRE
 70
     0
  9
$DIMCLRT
 70
     0
  9
$DIMTFAC
 40
1.0
  9
$DIMGAP
 40
1.524
  9
$DIMJUST
 70
     0
  9
$DIMSD1
 70
     0
  9
$DIMSD2
 70
     0
  9
$DIMTOLJ
 70
     0
  9
$DIMTZIN
 70
     0
  9
$DIMALTZ
 70
     0
  9
$DIMALTTZ
 70
     0
  9
$DIMUPT
 70
     0
  9
$DIMDEC
 70
     2
  9
$DIMTDEC
 70
     3
  9
$DIMALTU
 70
     2
  9
$DIMALTTD
 70
     3
  9
$DIMTXSTY
  7
Standard
  9
$DIMAUNIT
 70
     0
  9
$DIMADEC
 70
     2
  9
$DIMALTRND
 40
0.0
  9
$DIMAZIN
 70
     0
  9
$DIMDSEP
 70
    44
  9
$DIMATFIT
 70
     3
  9
$DIMFRAC
 70
     0
  9
$DIMLDRBLK
  1

  9
$DIMLUNIT
 70
     2
  9
$DIMLWD
 70
    -2
  9
$DIMLWE
 70
    -2
  9
$DIMTMOVE
 70
     0
  9
$LUNITS
 70
     2
  9
$LUPREC
 70
     2
  9
$SKETCHINC
 40
1.0
  9
$FILLETRAD
 40
10.0
  9
$AUNITS
 70
     0
  9
$AUPREC
 70
     2
  9
$MENU
  1
.
  9
$ELEVATION
 40
0.0
  9
$PELEVATION
 40
0.0
  9
$THICKNESS
 40
0.0
  9
$LIMCHECK
 70
     0
  9
$CHAMFERA
 40
0.0
  9
$CHAMFERB
 40
0.0
  9
$CHAMFERC
 40
0.0
  9
$CHAMFERD
 40
0.0
  9
$SKPOLY
 70
     0
  9
$TDCREATE
 40
2457674.661445313
  9
$TDUCREATE
 40
2457674.578111979
  9
$TDUPDATE
 40
2457674.661446748
  9
$TDUUPDATE
 40
2457674.578113414
  9
$TDINDWG
 40
0.0000000116
  9
$TDUSRTIMER
 40
0.0000000116
  9
$USRTIMER
 70
     1
  9
$ANGBASE
 50
0.0
  9
$ANGDIR
 70
     0
  9
$PDMODE
 70
     0
  9
$PDSIZE
 40
-1.0
  9
$PLINEWID
 40
0.0
  9
$SPLFRAME
 70
     0
  9
$SPLINETYPE
 70
     6
  9
$SPLINESEGS
 70
     8
  9
$HANDSEED
  5
2E5
  9
$SURFTAB1
 70
     6
  9
$SURFTAB2
 70
     6
  9
$SURFTYPE
 70
     6
  9
$SURFU
 70
     6
  9
$SURFV
 70
     6
  9
$UCSBASE
  2

  9
$UCSNAME
  2

  9
$UCSORG
 10
0.0
 20
0.0
 30
0.0
  9
$UCSXDIR
 10
1.0
 20
0.0
 30
0.0
  9
$UCSYDIR
 10
0.0
 20
1.0
 30
0.0
  9
$UCSORTHOREF
  2

  9
$UCSORTHOVIEW
 70
     0
  9
$UCSORGTOP
 10
0.0
 20
0.0
 30
0.0
  9
$UCSORGBOTTOM
 10
0.0
 20
0.0
 30
0.0
  9
$UCSORGLEFT
 10
0.0
 20
0.0
 30
0.0
  9
$UCSORGRIGHT
 10
0.0
 20
0.0
 30
0.0
  9
$UCSORGFRONT
 10
0.0
 20
0.0
 30
0.0
  9
$UCSORGBACK
 10
0.0
 20
0.0
 30
0.0
  9
$PUCSBASE
  2

  9
$PUCSNAME
  2

  9
$PUCSORG
 10
0.0
 20
0.0
 30
0.0
  9
$PUCSXDIR
 10
1.0
 20
0.0
 30
0.0
  9
$PUCSYDIR
 10
0.0
 20
1.0
 30
0.0
  9
$PUCSORTHOREF
  2

  9
$PUCSORTHOVIEW
 70
     0
  9
$PUCSORGTOP
 10
0.0
 20
0.0
 30
0.0
  9
$PUCSORGBOTTOM
 10
0.0
 20
0.0
 30
0.0
  9
$PUCSORGLEFT
 10
0.0
 20
0.0
 30
0.0
  9
$PUCSORGRIGHT
 10
0.0
 20
0.0
 30
0.0
  9
$PUCSORGFRONT
 10
0.0
 20
0.0
 30
0.0
  9
$PUCSORGBACK
 10
0.0
 20
0.0
 30
0.0
  9
$USERI1
 70
     0
  9
$USERI2
 70
     0
  9
$USERI3
 70
     0
  9
$USERI4
 70
     0
  9
$USERI5
 70
     0
  9
$USERR1
 40
0.0
  9
$USERR2
 40
0.0
  9
$USERR3
 40
0.0
  9
$USERR4
 40
0.0
  9
$USERR5
 40
0.0
  9
$WORLDVIEW
 70
     1
  9
$SHADEDGE
 70
     3
  9
$SHADEDIF
 70
    70
  9
$TILEMODE
 70
     1
  9
$MAXACTVP
 70
    64
  9
$PINSBASE
 10
0.0
 20
0.0
 30
0.0
  9
$PLIMCHECK
 70
     0
  9
$PEXTMIN
 10
1.0000000000E+20
 20
1.0000000000E+20
 30
1.0000000000E+20
  9
$PEXTMAX
 10
-1.0000000000E+20
 20
-1.0000000000E+20
 30
-1.0000000000E+20
  9
$PLIMMIN
 10
0.0
 20
0.0
  9
$PLIMMAX
 10
420.0
 20
297.0
  9
$UNITMODE
 70
     0
  9
$VISRETAIN
 70
     1
  9
$PLINEGEN
 70
     0
  9
$PSLTSCALE
 70
     1
  9
$TREEDEPTH
 70
  3020
  9
$CMLSTYLE
  2
Standard
  9
$CMLJUST
 70
     0
  9
$CMLSCALE
 40
20.0
  9
$PROXYGRAPHICS
 70
     1
  9
$MEASUREMENT
 70
     1
  9
$CELWEIGHT
370
    -1
  9
$ENDCAPS
280
     0
  9
$JOINSTYLE
280
     0
  9
$LWDISPLAY
290
     1
  9
$INSUNITS
 70
     4
  9
$HYPERLINKBASE
  1

  9
$STYLESHEET
  1

  9
$XEDIT
290
     1
  9
$CEPSNTYPE
380
     0
  9
$PSTYLEMODE
290
     1
  9
$FINGERPRINTGUID
  2
{72DCD94E-17D0-418C-A955-C48BC6C29640}
  9
$VERSIONGUID
  2
{FAEB1C32-E019-11D5-929B-00C0DF256EC4}
  9
$EXTNAMES
290
     1
  9
$PSVPSCALE
 40
0.0
  9
$OLESTARTUP
290
     0
  0
ENDSEC
  0
SECTION
  2
CLASSES
  0
CLASS
  1
ACDBDICTIONARYWDFLT
  2
AcDbDictionaryWithDefault
  3
ObjectDBX Classes
 90
        0
280
     0
281
     0
  0
CLASS
  1
VISUALSTYLE
  2
AcDbVisualStyle
  3
ObjectDBX Classes
 90
     4095
280
     0
281
     0
  0
CLASS
  1
MATERIAL
  2
AcDbMaterial
  3
ObjectDBX Classes
 90
     1153
280
     0
281
     0
  0
CLASS
  1
SCALE
  2
AcDbScale
  3
ObjectDBX Classes
 90
     1153
280
     0
281
     0
  0
CLASS
  1
TABLESTYLE
  2
AcDbTableStyle
  3
ObjectDBX Classes
 90
     4095
280
     0
281
     0
  0
CLASS
  1
MLEADERSTYLE
  2
AcDbMLeaderStyle
  3
ACDB_MLEADERSTYLE_CLASS
 90
     4095
280
     0
281
     0
  0
CLASS
  1
SUN
  2
AcDbSun
  3
SCENEOE
 90
     1153
280
     0
281
     0
  0
CLASS
  1
ACDBPLACEHOLDER
  2
AcDbPlaceHolder
  3
ObjectDBX Classes
 90
        0
280
     0
281
     0
  0
CLASS
  1
LAYOUT
  2
AcDbLayout
  3
ObjectDBX Classes
 90
        0
280
     0
281
     0
  0
ENDSEC
  0
SECTION
  2
TABLES
  0
TABLE
  2
VPORT
  5
8
330
0
100
AcDbSymbolTable
 70
     1
  0
VPORT
  5
29
330
8
100
AcDbSymbolTableRecord
100
AcDbViewportTableRecord
  2
*Active
 70
     0
 10
0.0
 20
0.0
 11
1.0
 21
1.0
 12
148.5
 22
105.0
 13
0.0
 23
0.0
 14
10.0
 24
10.0
 15
10.0
 25
10.0
 16
0.0
 26
0.0
 36
1.0
 17
0.0
 27
0.0
 37
0.0
 40
210.0
 41
1.4142857143
 42
50.0
 43
0.0
 44
0.0
 50
0.0
 51
0.0
 71
     0
 72
  2000
 73
     1
 74
     3
 75
     0
 76
     0
 77
     0
 78
     0
281
     0
 65
     1
110
0.0
120
0.0
130
0.0
111
1.0
121
0.0
131
0.0
112
0.0
122
1.0
132
0.0
 79
     0
146
0.0
  0
ENDTAB
  0
TABLE
  2
LTYPE
  5
5
330
0
100
AcDbSymbolTable
 70
     6
  0
LTYPE
  5
14
330
5
100
AcDbSymbolTableRecord
100
AcDbLinetypeTableRecord
  2
ByBlock
 70
     0
  3

 72
    65
 73
     0
 40
0.0
  0
LTYPE
  5
15
330
5
100
AcDbSymbolTableRecord
100
AcDbLinetypeTableRecord
  2
ByLayer
 70
     0
  3

 72
    65
 73
     0
 40
0.0
  0
LTYPE
  5
16
330
5
100
AcDbSymbolTableRecord
100
AcDbLinetypeTableRecord
  2
Continuous
 70
     0
  3
Solid line
 72
    65
 73
     0
 40
0.0
  0
LTYPE
  5
6E
330
5
100
AcDbSymbolTableRecord
100
AcDbLinetypeTableRecord
  2
HIDDEN
 70
     0
  3
Hidden __ __ __ __ __ __ __ __ __ __ __ __ __ __
 72
    65
 73
     2
 40
1.905
 49
1.27
 74
     0
 49
-0.635
 74
     0
  0
LTYPE
  5
6F
330
5
100
AcDbSymbolTableRecord
100
AcDbLinetypeTableRecord
  2
PHANTOM
 70
     0
  3
Phantom ______  __  __  ______  __  __  ______
 72
    65
 73
     6
 40
12.7
 49
6.35
 74
     0
 49
-1.27
 74
     0
 49
1.27
 74
     0
 49
-1.27
 74
     0
 49
1.27
 74
     0
 49
-1.27
 74
     0
  0
LTYPE
  5
70
330
5
100
AcDbSymbolTableRecord
100
AcDbLinetypeTableRecord
  2
CENTER
 70
     0
  3
Center ____ _ ____ _ ____ _ ____ _ ____ _ ____
 72
    65
 73
     4
 40
10.16
 49
6.35
 74
     0
 49
-1.27
 74
     0
 49
1.27
 74
     0
 49
-1.27
 74
     0
  0
LTYPE
  5
71
330
5
100
AcDbSymbolTableRecord
100
AcDbLinetypeTableRecord
  2
CENTERX2
 70
     0
  3
Center (2x) ________  __  ________  __  _____
 72
    65
 73
     4
 40
20.32
 49
12.7
 74
     0
 49
-2.54
 74
     0
 49
2.54
 74
     0
 49
-2.54
 74
     0
  0
LTYPE
  5
72
330
5
100
AcDbSymbolTableRecord
100
AcDbLinetypeTableRecord
  2
DOT2
 70
     0
  3
Dot (.5x) ........................................
 72
    65
 73
     2
 40
0.635
 49
0.0
 74
     0
 49
-0.635
 74
     0
  0
ENDTAB
  0
TABLE
  2
LAYER
  5
2
330
0
100
AcDbSymbolTable
 70
     5
  0
LAYER
  5
10
330
2
100
AcDbSymbolTableRecord
100
AcDbLayerTableRecord
  2
0
 70
     0
 62
     7
  6
Continuous
370
    -3
390
F
  0
LAYER
  5
73
330
2
100
AcDbSymbolTableRecord
100
AcDbLayerTableRecord
  2
FORMAT
 70
     0
 62
     7
  6
Continuous
370
    -3
390
F
  0
LAYER
  5
74
330
2
100
AcDbSymbolTableRecord
100
AcDbLayerTableRecord
  2
VERMASSUNG
 70
     0
 62
     7
  6
Continuous
370
    -3
390
F
  0
LAYER
  5
75
330
2
100
AcDbSymbolTableRecord
100
AcDbLayerTableRecord
  2
KOPF_DÜNN
 70
     0
 62
     7
  6
Continuous
370
    -3
390
F
  0
LAYER
  5
76
330
2
100
AcDbSymbolTableRecord
100
AcDbLayerTableRecord
  2
KOPF_DICK
 70
     0
 62
     7
  6
Continuous
370
    15
390
F
  0
ENDTAB
  0
TABLE
  2
STYLE
  5
3
330
0
100
AcDbSymbolTable
 70
     2
  0
STYLE
  5
11
330
3
100
AcDbSymbolTableRecord
100
AcDbTextStyleTableRecord
  2
Standard
 70
     0
 40
0.0
 41
1.0
 50
0.0
 71
     0
 42
2.0
  3
txt
  4

  0
STYLE
  5
77
330
3
100
AcDbSymbolTableRecord
100
AcDbTextStyleTableRecord
  2
SLDTEXTSTYLE0
 70
     0
 40
0.0
 41
0.7
 50
0.0
 71
     0
 42
2.0
  3
TXT
  4

  0
ENDTAB
  0
TABLE
  2
VIEW
  5
6
330
0
100
AcDbSymbolTable
 70
     0
  0
ENDTAB
  0
TABLE
  2
UCS
  5
7
330
0
100
AcDbSymbolTable
 70
     0
  0
ENDTAB
  0
TABLE
  2
APPID
  5
9
330
0
100
AcDbSymbolTable
 70
     1
  0
APPID
  5
12
330
9
100
AcDbSymbolTableRecord
100
AcDbRegAppTableRecord
  2
ACAD
 70
     0
  0
ENDTAB
  0
TABLE
  2
DIMSTYLE
  5
A
330
0
100
AcDbSymbolTable
 70
     2
100
AcDbDimStyleTable
  0
DIMSTYLE
105
27
330
A
100
AcDbSymbolTableRecord
100
AcDbDimStyleTableRecord
  2
ISO-25
 70
     0
 41
2.5
 42
0.625
 43
3.75
 44
1.25
 73
     0
 74
     0
 77
     1
 78
     8
140
2.5
141
2.5
143
0.0393700787
147
0.625
171
     3
172
     1
178
     0
271
     2
272
     2
274
     3
278
    44
283
     0
284
     8
340
11
  0
DIMSTYLE
105
1FC
102
{ACAD_REACTORS
330
1FB
330
208
330
212
330
21C
330
226
330
232
102
}
330
A
100
AcDbSymbolTableRecord
100
AcDbDimStyleTableRecord
  2
SLDDIMSTYLE0
 70
     0
 41
3.0
 44
0.0
 45
0.000000001
 73
     0
 74
     0
 77
     1
 78
    12
 79
     3
140
2.0
147
0.5
173
     1
178
     0
271
     2
272
     3
276
     2
284
    12
340
77
  0
ENDTAB
  0
TABLE
  2
BLOCK_RECORD
  5
1
330
0
100
AcDbSymbolTable
 70
     7
  0
BLOCK_RECORD
  5
1F
330
1
100
AcDbSymbolTableRecord
100
AcDbBlockTableRecord
  2
*Model_Space
340
22
  0
BLOCK_RECORD
  5
1B
330
1
100
AcDbSymbolTableRecord
100
AcDbBlockTableRecord
  2
*Paper_Space
340
1E
  0
BLOCK_RECORD
  5
23
330
1
100
AcDbSymbolTableRecord
100
AcDbBlockTableRecord
  2
*Paper_Space0
340
26
  0
BLOCK_RECORD
  5
1FD
330
1
100
AcDbSymbolTableRecord
100
AcDbBlockTableRecord
  2
_D
340
0
  0
BLOCK_RECORD
  5
209
330
1
100
AcDbSymbolTableRecord
100
AcDbBlockTableRecord
  2
_D_1
340
0
  0
BLOCK_RECORD
  5
213
330
1
100
AcDbSymbolTableRecord
100
AcDbBlockTableRecord
  2
_D_2
340
0
  0
BLOCK_RECORD
  5
21D
330
1
100
AcDbSymbolTableRecord
100
AcDbBlockTableRecord
  2
_D_3
340
0
  0
BLOCK_RECORD
  5
227
330
1
100
AcDbSymbolTableRecord
100
AcDbBlockTableRecord
  2
_D_4
340
0
  0
BLOCK_RECORD
  5
233
330
1
100
AcDbSymbolTableRecord
100
AcDbBlockTableRecord
  2
_D_5
340
0
  0
ENDTAB
  0
ENDSEC
  0
SECTION
  2
BLOCKS
  0
BLOCK
  5
20
330
1F
100
AcDbEntity
  8
0
100
AcDbBlockBegin
  2
*Model_Space
 70
     0
 10
0.0
 20
0.0
 30
0.0
  3
*Model_Space
  1

  0
ENDBLK
  5
21
330
1F
100
AcDbEntity
  8
0
100
AcDbBlockEnd
  0
BLOCK
  5
1C
330
1B
100
AcDbEntity
 67
     1
  8
0
100
AcDbBlockBegin
  2
*Paper_Space
 70
     0
 10
0.0
 20
0.0
 30
0.0
  3
*Paper_Space
  1

  0
ENDBLK
  5
1D
330
1B
100
AcDbEntity
 67
     1
  8
0
100
AcDbBlockEnd
  0
BLOCK
  5
24
330
23
100
AcDbEntity
  8
0
100
AcDbBlockBegin
  2
*Paper_Space0
 70
     0
 10
0.0
 20
0.0
 30
0.0
  3
*Paper_Space0
  1

  0
ENDBLK
  5
25
330
23
100
AcDbEntity
  8
0
100
AcDbBlockEnd
  0
BLOCK
  5
1FE
330
1FD
100
AcDbEntity
  8
0
100
AcDbBlockBegin
  2
_D
 70
     0
 10
0.0
 20
0.0
 30
0.0
  3
_D
  1

  0
SOLID
  5
200
330
1FD
100
AcDbEntity
  8
VERMASSUNG
100
AcDbTrace
 10
51.6375073978
 20
68.2302554071
 30
0.0
 11
52.0875073978
 21
71.2302554071
 31
0.0
 12
51.1875073978
 22
71.2302554071
 32
0.0
 13
51.1875073978
 23
71.2302554071
 33
0.0
  0
SOLID
  5
201
330
1FD
100
AcDbEntity
  8
VERMASSUNG
100
AcDbTrace
 10
51.6375073978
 20
165.6802554071
 30
0.0
 11
51.1875073978
 21
162.6802554071
 31
0.0
 12
52.0875073978
 22
162.6802554071
 32
0.0
 13
52.0875073978
 23
162.6802554071
 33
0.0
  0
LINE
  5
202
330
1FD
100
AcDbEntity
  8
VERMASSUNG
100
AcDbLine
 10
179.3180016099
 20
68.2302554071
 30
0.0
 11
50.6375073978
 21
68.2302554071
 31
0.0
  0
LINE
  5
203
330
1FD
100
AcDbEntity
  8
VERMASSUNG
100
AcDbLine
 10
179.3180016099
 20
165.6802554071
 30
0.0
 11
50.6375073978
 21
165.6802554071
 31
0.0
  0
LINE
  5
204
330
1FD
100
AcDbEntity
  8
VERMASSUNG
100
AcDbLine
 10
51.6375073978
 20
68.2302554071
 30
0.0
 11
51.6375073978
 21
165.6802554071
 31
0.0
  0
MTEXT
  5
205
330
1FD
100
AcDbEntity
  8
VERMASSUNG
100
AcDbMText
 10
48.8593721416
 20
107.4508197737
 30
0.0
 40
2.0
 41
0.0
 71
     1
 72
     1
  1
ISO 50
  7
SLDTEXTSTYLE0
 11
3.391901413832837E-15
 21
1.0
 31
0.0
 73
     1
 44
1.0
  0
MTEXT
  5
206
330
1FD
100
AcDbEntity
  8
VERMASSUNG
100
AcDbMText
 10
49.0593720929
 20
116.4508193863
 30
0.0
 40
2.0
 41
0.0
 71
     1
 72
     1
  1
%%c
  7
SLDTEXTSTYLE0
 11
3.391901413832837E-15
 21
1.0
 31
0.0
 73
     1
 44
1.0
  0
MTEXT
  5
207
330
1FD
100
AcDbEntity
  8
VERMASSUNG
100
AcDbMText
 10
49.0593718018
 20
120.0601627191
 30
0.0
 40
2.0
 41
0.0
 71
     1
 72
     1
  1
97.45
  7
SLDTEXTSTYLE0
 11
3.391901413832837E-15
 21
1.0
 31
0.0
 73
     1
 44
1.0
  0
ENDBLK
  5
1FF
330
1FD
100
AcDbEntity
  8
0
100
AcDbBlockEnd
  0
BLOCK
  5
20A
330
209
100
AcDbEntity
  8
0
100
AcDbBlockBegin
  2
_D_1
 70
     0
 10
0.0
 20
0.0
 30
0.0
  3
_D_1
  1

  0
SOLID
  5
20C
330
209
100
AcDbEntity
  8
VERMASSUNG
100
AcDbTrace
 10
245.8680016099
 20
170.2137900256
 30
0.0
 11
242.8680016099
 21
170.6637900256
 31
0.0
 12
242.8680016099
 22
169.7637900256
 32
0.0
 13
242.8680016099
 23
169.7637900256
 33
0.0
  0
SOLID
  5
20D
330
209
100
AcDbEntity
  8
VERMASSUNG
100
AcDbTrace
 10
179.9180016099
 20
170.2137900256
 30
0.0
 11
182.9180016099
 21
169.7637900256
 31
0.0
 12
182.9180016099
 22
170.6637900256
 32
0.0
 13
182.9180016099
 23
170.6637900256
 33
0.0
  0
LINE
  5
20E
330
209
100
AcDbEntity
  8
VERMASSUNG
100
AcDbLine
 10
245.8680016099
 20
156.1552554071
 30
0.0
 11
245.8680016099
 21
171.2137900256
 31
0.0
  0
LINE
  5
20F
330
209
100
AcDbEntity
  8
VERMASSUNG
100
AcDbLine
 10
179.9180016099
 20
146.8052554071
 30
0.0
 11
179.9180016099
 21
171.2137900256
 31
0.0
  0
LINE
  5
210
330
209
100
AcDbEntity
  8
VERMASSUNG
100
AcDbLine
 10
245.8680016099
 20
170.2137900256
 30
0.0
 11
179.9180016099
 21
170.2137900256
 31
0.0
  0
MTEXT
  5
211
330
209
100
AcDbEntity
  8
VERMASSUNG
100
AcDbMText
 10
209.7936092309
 20
172.7919256216
 30
0.0
 40
2.0
 41
0.0
 71
     1
 72
     1
  1
65.95
  7
SLDTEXTSTYLE0
 73
     1
 44
1.0
  0
ENDBLK
  5
20B
330
209
100
AcDbEntity
  8
0
100
AcDbBlockEnd
  0
BLOCK
  5
214
330
213
100
AcDbEntity
  8
0
100
AcDbBlockBegin
  2
_D_2
 70
     0
 10
0.0
 20
0.0
 30
0.0
  3
_D_2
  1

  0
SOLID
  5
216
330
213
100
AcDbEntity
  8
VERMASSUNG
100
AcDbTrace
 10
245.8680016099
 20
176.2137900256
 30
0.0
 11
242.8680016099
 21
176.6637900256
 31
0.0
 12
242.8680016099
 22
175.7637900256
 32
0.0
 13
242.8680016099
 23
175.7637900256
 33
0.0
  0
SOLID
  5
217
330
213
100
AcDbEntity
  8
VERMASSUNG
100
AcDbTrace
 10
160.8680016099
 20
176.2137900256
 30
0.0
 11
163.8680016099
 21
175.7637900256
 31
0.0
 12
163.8680016099
 22
176.6637900256
 32
0.0
 13
163.8680016099
 23
176.6637900256
 33
0.0
  0
LINE
  5
218
330
213
100
AcDbEntity
  8
VERMASSUNG
100
AcDbLine
 10
245.8680016099
 20
156.1552554071
 30
0.0
 11
245.8680016099
 21
177.2137900256
 31
0.0
  0
LINE
  5
219
330
213
100
AcDbEntity
  8
VERMASSUNG
100
AcDbLine
 10
160.8680016099
 20
151.8802554071
 30
0.0
 11
160.8680016099
 21
177.2137900256
 31
0.0
  0
LINE
  5
21A
330
213
100
AcDbEntity
  8
VERMASSUNG
100
AcDbLine
 10
245.8680016099
 20
176.2137900256
 30
0.0
 11
160.8680016099
 21
176.2137900256
 31
0.0
  0
MTEXT
  5
21B
330
213
100
AcDbEntity
  8
VERMASSUNG
100
AcDbMText
 10
201.9683115996
 20
178.7919256216
 30
0.0
 40
2.0
 41
0.0
 71
     1
 72
     1
  1
85
  7
SLDTEXTSTYLE0
 73
     1
 44
1.0
  0
ENDBLK
  5
215
330
213
100
AcDbEntity
  8
0
100
AcDbBlockEnd
  0
BLOCK
  5
21E
330
21D
100
AcDbEntity
  8
0
100
AcDbBlockBegin
  2
_D_3
 70
     0
 10
0.0
 20
0.0
 30
0.0
  3
_D_3
  1

  0
SOLID
  5
220
330
21D
100
AcDbEntity
  8
VERMASSUNG
100
AcDbTrace
 10
245.8680016099
 20
182.2137900256
 30
0.0
 11
242.8680016099
 21
182.6637900256
 31
0.0
 12
242.8680016099
 22
181.7637900256
 32
0.0
 13
242.8680016099
 23
181.7637900256
 33
0.0
  0
SOLID
  5
221
330
21D
100
AcDbEntity
  8
VERMASSUNG
100
AcDbTrace
 10
59.2680016099
 20
182.2137900256
 30
0.0
 11
62.2680016099
 21
181.7637900256
 31
0.0
 12
62.2680016099
 22
182.6637900256
 32
0.0
 13
62.2680016099
 23
182.6637900256
 33
0.0
  0
LINE
  5
222
330
21D
100
AcDbEntity
  8
VERMASSUNG
100
AcDbLine
 10
245.8680016099
 20
156.1552554071
 30
0.0
 11
245.8680016099
 21
183.2137900256
 31
0.0
  0
LINE
  5
223
330
21D
100
AcDbEntity
  8
VERMASSUNG
100
AcDbLine
 10
59.2680016099
 20
135.3340999345
 30
0.0
 11
59.2680016099
 21
183.2137900256
 31
0.0
  0
LINE
  5
224
330
21D
100
AcDbEntity
  8
VERMASSUNG
100
AcDbLine
 10
245.8680016099
 20
182.2137900256
 30
0.0
 11
59.2680016099
 21
182.2137900256
 31
0.0
  0
MTEXT
  5
225
330
21D
100
AcDbEntity
  8
VERMASSUNG
100
AcDbMText
 10
149.6682498077
 20
184.7919256216
 30
0.0
 40
2.0
 41
0.0
 71
     1
 72
     1
  1
186.6
  7
SLDTEXTSTYLE0
 73
     1
 44
1.0
  0
ENDBLK
  5
21F
330
21D
100
AcDbEntity
  8
0
100
AcDbBlockEnd
  0
BLOCK
  5
228
330
227
100
AcDbEntity
  8
0
100
AcDbBlockBegin
  2
_D_4
 70
     0
 10
0.0
 20
0.0
 30
0.0
  3
_D_4
  1

  0
SOLID
  5
22A
330
227
100
AcDbEntity
  8
VERMASSUNG
100
AcDbTrace
 10
258.7380338156
 20
156.9552554071
 30
0.0
 11
258.2880338156
 21
153.9552554071
 31
0.0
 12
259.1880338156
 22
153.9552554071
 32
0.0
 13
259.1880338156
 23
153.9552554071
 33
0.0
  0
SOLID
  5
22B
330
227
100
AcDbEntity
  8
VERMASSUNG
100
AcDbTrace
 10
258.7380338156
 20
76.9552554071
 30
0.0
 11
259.1880338156
 21
79.9552554071
 31
0.0
 12
258.2880338156
 22
79.9552554071
 32
0.0
 13
258.2880338156
 23
79.9552554071
 33
0.0
  0
LINE
  5
22C
330
227
100
AcDbEntity
  8
VERMASSUNG
100
AcDbLine
 10
218.3262656189
 20
156.9552554071
 30
0.0
 11
259.7380338156
 21
156.9552554071
 31
0.0
  0
LINE
  5
22D
330
227
100
AcDbEntity
  8
VERMASSUNG
100
AcDbLine
 10
245.0680016099
 20
76.9552554071
 30
0.0
 11
259.7380338156
 21
76.9552554071
 31
0.0
  0
LINE
  5
22E
330
227
100
AcDbEntity
  8
VERMASSUNG
100
AcDbLine
 10
258.7380338156
 20
156.9552554071
 30
0.0
 11
258.7380338156
 21
76.9552554071
 31
0.0
  0
MTEXT
  5
22F
330
227
100
AcDbEntity
  8
VERMASSUNG
100
AcDbMText
 10
255.9598985594
 20
111.2506086512
 30
0.0
 40
2.0
 41
0.0
 71
     1
 72
     1
  1
WH
  7
SLDTEXTSTYLE0
 11
-7.044195017643634E-15
 21
1.0
 31
0.0
 73
     1
 44
1.0
  0
MTEXT
  5
230
330
227
100
AcDbEntity
  8
VERMASSUNG
100
AcDbMText
 10
256.1598985107
 20
116.2506085394
 30
0.0
 40
2.0
 41
0.0
 71
     1
 72
     1
  1
%%c
  7
SLDTEXTSTYLE0
 11
-7.044195017643634E-15
 21
1.0
 31
0.0
 73
     1
 44
1.0
  0
MTEXT
  5
231
330
227
100
AcDbEntity
  8
VERMASSUNG
100
AcDbMText
 10
256.1598982197
 20
119.8605221424
 30
0.0
 40
2.0
 41
0.0
 71
     1
 72
     1
  1
80
  7
SLDTEXTSTYLE0
 11
-7.044195017643634E-15
 21
1.0
 31
0.0
 73
     1
 44
1.0
  0
ENDBLK
  5
229
330
227
100
AcDbEntity
  8
0
100
AcDbBlockEnd
  0
BLOCK
  5
234
330
233
100
AcDbEntity
  8
0
100
AcDbBlockBegin
  2
_D_5
 70
     0
 10
0.0
 20
0.0
 30
0.0
  3
_D_5
  1

  0
SOLID
  5
236
330
233
100
AcDbEntity
  8
VERMASSUNG
100
AcDbTrace
 10
254.0022429156
 20
134.9552554071
 30
0.0
 11
253.5522429156
 21
131.9552554071
 31
0.0
 12
254.4522429156
 22
131.9552554071
 32
0.0
 13
254.4522429156
 23
131.9552554071
 33
0.0
  0
SOLID
  5
237
330
233
100
AcDbEntity
  8
VERMASSUNG
100
AcDbTrace
 10
254.0022429156
 20
98.9552554071
 30
0.0
 11
254.4522429156
 21
101.9552554071
 31
0.0
 12
253.5522429156
 22
101.9552554071
 32
0.0
 13
253.5522429156
 23
101.9552554071
 33
0.0
  0
LINE
  5
238
330
233
100
AcDbEntity
  8
VERMASSUNG
100
AcDbLine
 10
220.5680016099
 20
134.9552554071
 30
0.0
 11
255.0022429156
 21
134.9552554071
 31
0.0
  0
LINE
  5
239
330
233
100
AcDbEntity
  8
VERMASSUNG
100
AcDbLine
 10
244.8680016099
 20
98.9552554071
 30
0.0
 11
255.0022429156
 21
98.9552554071
 31
0.0
  0
LINE
  5
23A
330
233
100
AcDbEntity
  8
VERMASSUNG
100
AcDbLine
 10
254.0022429156
 20
134.9552554071
 30
0.0
 11
254.0022429156
 21
98.9552554071
 31
0.0
  0
MTEXT
  5
23B
330
233
100
AcDbEntity
  8
VERMASSUNG
100
AcDbMText
 10
251.4241073779
 20
113.7510793
 30
0.0
 40
2.0
 41
0.0
 71
     1
 72
     1
  1
%%c
  7
SLDTEXTSTYLE0
 11
-7.044195017643634E-15
 21
1.0
 31
0.0
 73
     1
 44
1.0
  0
MTEXT
  5
23C
330
233
100
AcDbEntity
  8
VERMASSUNG
100
AcDbMText
 10
251.4241073197
 20
117.3600514936
 30
0.0
 40
2.0
 41
0.0
 71
     1
 72
     1
  1
36
  7
SLDTEXTSTYLE0
 11
-7.044195017643634E-15
 21
1.0
 31
0.0
 73
     1
 44
1.0
  0
ENDBLK
  5
235
330
233
100
AcDbEntity
  8
0
100
AcDbBlockEnd
  0
ENDSEC
  0
SECTION
  2
ENTITIES
  0
MTEXT
  5
78
330
1F
100
AcDbEntity
  8
KOPF_DÜNN
100
AcDbMText
 10
13.8892156294
 20
23.8442973028
 30
0.0
 40
3.0
 41
0.0
 71
     1
 72
     1
  1
A14.450.080.085
  7
SLDTEXTSTYLE0
 73
     1
 44
1.0
  0
MTEXT
  5
79
330
1F
100
AcDbEntity
  8
VERMASSUNG
100
AcDbMText
 10
13.9329988022
 20
28.8834360957
 30
0.0
 40
3.0
 41
0.0
 71
     1
 72
     1
  1
Aufnahme_Master shank WH50
  7
SLDTEXTSTYLE0
 73
     1
 44
1.0
  0
MTEXT
  5
7A
330
1F
100
AcDbEntity
  8
VERMASSUNG
100
AcDbMText
 10
98.8601118557
 20
13.8365368761
 30
0.0
 40
2.0
 41
0.0
 71
     1
 72
     1
  1
Datum: 02.09.2011
  7
SLDTEXTSTYLE0
 73
     1
 44
1.0
  0
MTEXT
  5
7B
330
1F
100
AcDbEntity
  8
VERMASSUNG
100
AcDbMText
 10
13.933048693
 20
18.0482802738
 30
0.0
 40
2.0
 41
0.0
 71
     1
 72
     1
  1
DIN 69871 AD/B
  7
SLDTEXTSTYLE0
 73
     1
 44
1.0
  0
MTEXT
  5
7C
330
1F
100
AcDbEntity
  8
VERMASSUNG
100
AcDbMText
 10
13.9808475933
 20
13.9090974274
 30
0.0
 40
2.0
 41
0.0
 71
     1
 72
     1
  1
Gewicht: 4868g
  7
SLDTEXTSTYLE0
 73
     1
 44
1.0
  0
LINE
  5
7D
330
1F
100
AcDbEntity
  8
0
  6
Continuous
 62
     7
370
    15
100
AcDbLine
 10
218.3447717427
 20
156.955254513
 30
0.0
 11
192.7219531237
 21
156.955254513
 31
0.0
  0
LINE
  5
7E
330
1F
100
AcDbEntity
  8
0
  6
Continuous
 62
     7
370
    15
100
AcDbLine
 10
245.068003863
 20
156.955254513
 30
0.0
 11
237.3141548334
 21
156.955254513
 31
0.0
  0
LINE
  5
7F
330
1F
100
AcDbEntity
  8
0
  6
Continuous
 62
     7
370
    15
100
AcDbLine
 10
192.7219531237
 20
76.9552563011
 30
0.0
 11
245.068003863
 21
76.9552563011
 31
0.0
  0
LINE
  5
80
330
1F
100
AcDbEntity
  8
0
  6
Continuous
 62
     7
370
    15
100
AcDbLine
 10
245.068003863
 20
76.9552563011
 30
0.0
 11
245.868002504
 21
77.7552549422
 31
0.0
  0
LINE
  5
81
330
1F
100
AcDbEntity
  8
0
  6
Continuous
 62
     7
370
    15
100
AcDbLine
 10
245.868002504
 20
156.155255872
 30
0.0
 11
245.068003863
 21
156.955254513
 31
0.0
  0
ARC
  5
82
330
1F
100
AcDbEntity
  8
0
  6
Continuous
 62
     7
370
    15
100
AcDbCircle
 10
163.4680016099
 20
81.4302554071
 30
0.0
 40
0.6000000000000227
100
AcDbArc
 50
0.0
 51
90.0
  0
ARC
  5
83
330
1F
100
AcDbEntity
  8
0
  6
Continuous
 62
     7
370
    15
100
AcDbCircle
 10
163.4680016099
 20
152.4802554071
 30
0.0
 40
0.6000000000000227
100
AcDbArc
 50
270.0
 51
0.0
  0
LINE
  5
84
330
1F
100
AcDbEntity
  8
0
  6
Continuous
 62
     7
370
    15
100
AcDbLine
 10
160.8680016099
 20
82.0302565276
 30
0.0
 11
163.468001617
 21
82.0302565276
 31
0.0
  0
LINE
  5
85
330
1F
100
AcDbEntity
  8
0
  6
Continuous
 62
     7
370
    15
100
AcDbLine
 10
163.468001617
 20
151.8802542865
 30
0.0
 11
160.8680016099
 21
151.8802542865
 31
0.0
  0
LINE
  5
86
330
1F
100
AcDbEntity
  8
0
  6
Continuous
 62
     7
370
    15
100
AcDbLine
 10
160.8680016099
 20
151.8802542865
 30
0.0
 11
60.9793862997
 21
137.3131659508
 31
0.0
  0
LINE
  5
87
330
1F
100
AcDbEntity
  8
0
  6
Continuous
 62
     7
370
    15
100
AcDbLine
 10
60.9793862997
 20
96.5973448634
 30
0.0
 11
160.8680016099
 21
82.0302565276
 31
0.0
  0
ARC
  5
88
330
1F
100
AcDbEntity
  8
0
  6
Continuous
 62
     7
370
    15
100
AcDbCircle
 10
61.2680016099
 20
98.5764108797
 30
0.0
 40
1.999999999999993
100
AcDbArc
 50
180.0
 51
261.7028550302
  0
ARC
  5
89
330
1F
100
AcDbEntity
  8
0
  6
Continuous
 62
     7
370
    15
100
AcDbCircle
 10
61.2680016099
 20
135.3340999345
 30
0.0
 40
1.999999999999993
100
AcDbArc
 50
98.2971449698
 51
180.0
  0
LINE
  5
8A
330
1F
100
AcDbEntity
  8
0
  6
Continuous
 62
     7
370
    15
100
AcDbLine
 10
235.1802489458
 20
156.5930110097
 30
0.0
 11
234.8180017172
 21
156.955254513
 31
0.0
  0
LINE
  5
8B
330
1F
100
AcDbEntity
  8
0
  6
Continuous
 62
     7
370
    15
100
AcDbLine
 10
220.8180031477
 20
156.955254513
 30
0.0
 11
220.4538113176
 21
156.5910664081
 31
0.0
  0
ARC
  5
8C
330
1F
100
AcDbEntity
  8
0
  6
Continuous
 62
     7
370
    15
100
AcDbCircle
 10
175.0680016099
 20
102.4895134451
 30
0.0
 40
2.000000000000011
100
AcDbArc
 50
192.2156859342
 51
340.3453161116
  0
SPLINE
  5
8D
330
1F
100
AcDbEntity
  8
0
  6
Continuous
 62
     7
370
    15
100
AcDbSpline
210
0.0
220
0.0
230
1.0
 70
     8
 71
     3
 72
    10
 73
     6
 74
     0
 42
0.000000001
 43
0.00000001
 40
0.0
 40
0.0
 40
0.0
 40
0.0
 40
0.5
 40
0.5
 40
1.0
 40
1.0
 40
1.0
 40
1.0
 10
175.2011631173935
 20
102.6581083419478
 30
0.0
 10
174.97843609052
 20
102.8015968422415
 30
0.0
 10
174.7567502032949
 20
102.9163175879744
 30
0.0
 10
174.315529365443
 20
103.0860780173323
 30
0.0
 10
174.0959707180441
 20
103.1414980117197
 30
0.0
 10
173.8780016099319
 20
103.1579933410893
 30
0.0
  0
LINE
  5
8E
330
1F
100
AcDbEntity
  8
0
  6
Continuous
 62
     7
370
    15
100
AcDbLine
 10
173.8780014886
 20
103.1579936549
 30
0.0
 11
173.8780014886
 21
146.8052559227
 31
0.0
  0
SPLINE
  5
8F
330
1F
100
AcDbEntity
  8
0
  6
Continuous
 62
     7
370
    15
100
AcDbSpline
210
0.0
220
0.0
230
1.0
 70
    24
 71
     3
 72
     8
 73
     4
 74
     0
 42
0.000000001
 43
0.00000001
 40
0.0
 40
0.0
 40
0.0
 40
0.0
 40
1.0
 40
1.0
 40
1.0
 40
1.0
 10
175.2011631173935
 20
146.8052554070789
 30
0.0
 10
174.7545613973741
 20
146.8052554070789
 30
0.0
 10
174.3132017146352
 20
146.8052554070789
 30
0.0
 10
173.8780016099315
 20
146.8052554070789
 30
0.0
  0
LINE
  5
90
330
1F
100
AcDbEntity
  8
0
  6
Continuous
 62
     7
370
    15
100
AcDbLine
 10
175.2011631354
 20
102.6581081256
 30
0.0
 11
175.2011631354
 21
146.8052559227
 31
0.0
  0
LINE
  5
91
330
1F
100
AcDbEntity
  8
0
  6
Continuous
 62
     7
370
    15
100
AcDbLine
 10
164.0680015291
 20
70.8662842095
 30
0.0
 11
164.0680015291
 21
146.8052559227
 31
0.0
  0
SPLINE
  5
92
330
1F
100
AcDbEntity
  8
0
  6
Continuous
 62
     7
370
    15
100
AcDbSpline
210
0.0
220
0.0
230
1.0
 70
    24
 71
     3
 72
    12
 73
     8
 74
     0
 42
0.000000001
 43
0.00000001
 40
0.0
 40
0.0
 40
0.0
 40
0.0
 40
0.25
 40
0.25
 40
0.5
 40
0.5
 40
1.0
 40
1.0
 40
1.0
 40
1.0
 10
164.6680016099316
 20
146.8052554070789
 30
0.0
 10
164.5775919751685
 20
146.8052554070789
 30
0.0
 10
164.4893670500416
 20
146.8052554070789
 30
0.0
 10
164.3356931085334
 20
146.8052554070789
 30
0.0
 10
164.2700898887719
 20
146.8052554070789
 30
0.0
 10
164.1162025484474
 20
146.8052554070789
 30
0.0
 10
164.0680016099316
 20
146.8052554070789
 30
0.0
 10
164.0680016099316
 20
146.8052554070789
 30
0.0
  0
SPLINE
  5
93
330
1F
100
AcDbEntity
  8
0
  6
Continuous
 62
     7
370
    15
100
AcDbSpline
210
0.0
220
0.0
230
1.0
 70
     8
 71
     3
 72
    10
 73
     6
 74
     0
 42
0.000000001
 43
0.00000001
 40
0.0
 40
0.0
 40
0.0
 40
0.0
 40
0.5
 40
0.5
 40
1.0
 40
1.0
 40
1.0
 40
1.0
 10
164.2836616410856
 20
70.32180113988665
 30
0.0
 10
164.3323122096652
 20
70.29384414861923
 30
0.0
 10
164.3896974216246
 20
70.26990186359244
 30
0.0
 10
164.5204105297907
 20
70.2357834004967
 30
0.0
 10
164.5931500635293
 20
70.22599606573286
 30
0.0
 10
164.6680016099316
 20
70.22599606573287
 30
0.0
  0
SPLINE
  5
94
330
1F
100
AcDbEntity
  8
0
  6
Continuous
 62
     7
370
    15
100
AcDbSpline
210
0.0
220
0.0
230
1.0
 70
     8
 71
     3
 72
    10
 73
     6
 74
     0
 42
0.000000001
 43
0.00000001
 40
0.0
 40
0.0
 40
0.0
 40
0.0
 40
0.5
 40
0.5
 40
1.0
 40
1.0
 40
1.0
 40
1.0
 10
164.2836616410856
 20
70.32180113988663
 30
0.0
 10
164.2254736345034
 20
70.38938487006547
 30
0.0
 10
164.1730311679771
 20
70.4698611047072
 30
0.0
 10
164.0946788607984
 20
70.65289672768996
 30
0.0
 10
164.0680016099315
 20
70.75877243048558
 30
0.0
 10
164.0680016099315
 20
70.86628573970619
 30
0.0
  0
SPLINE
  5
95
330
1F
100
AcDbEntity
  8
0
  6
Continuous
 62
     7
370
    15
100
AcDbSpline
210
0.0
220
0.0
230
1.0
 70
    24
 71
     3
 72
     8
 73
     4
 74
     0
 42
0.000000001
 43
0.00000001
 40
0.0
 40
0.0
 40
0.0
 40
0.0
 40
1.0
 40
1.0
 40
1.0
 40
1.0
 10
170.0580016099316
 20
146.8052554070789
 30
0.0
 10
169.6228015052279
 20
146.8052554070789
 30
0.0
 10
169.181441822489
 20
146.8052554070789
 30
0.0
 10
168.7348401024696
 20
146.8052554070789
 30
0.0
  0
LINE
  5
96
330
1F
100
AcDbEntity
  8
0
  6
Continuous
 62
     7
370
    15
100
AcDbLine
 10
170.0580012723
 20
72.3355163514
 30
0.0
 11
170.0580012723
 21
146.8052559227
 31
0.0
  0
SPLINE
  5
97
330
1F
100
AcDbEntity
  8
0
  6
Continuous
 62
     7
370
    15
100
AcDbSpline
210
0.0
220
0.0
230
1.0
 70
     8
 71
     3
 72
     8
 73
     4
 74
     0
 42
0.000000001
 43
0.00000001
 40
0.0
 40
0.0
 40
0.0
 40
0.0
 40
1.0
 40
1.0
 40
1.0
 40
1.0
 10
170.0580016099316
 20
72.3355159982491
 30
0.0
 10
169.768273163907
 20
71.81329598808556
 30
0.0
 10
169.4782480136893
 20
71.2912426058256
 30
0.0
 10
169.1879537794275
 20
70.76934034010249
 30
0.0
  0
SPLINE
  5
98
330
1F
100
AcDbEntity
  8
0
  6
Continuous
 62
     7
370
    15
100
AcDbSpline
210
0.0
220
0.0
230
1.0
 70
     8
 71
     3
 72
     8
 73
     4
 74
     0
 42
0.000000001
 43
0.00000001
 40
0.0
 40
0.0
 40
0.0
 40
0.0
 40
0.0011862984959113
 40
0.0011862984959113
 40
0.0011862984959113
 40
0.0011862984959113
 10
168.7348401024696
 20
70.22599606573287
 30
0.0
 10
168.8868648643405
 20
70.40690791535087
 30
0.0
 10
169.0379223095563
 20
70.5880202457917
 30
0.0
 10
169.1879537794275
 20
70.76934034010249
 30
0.0
  0
LINE
  5
99
330
1F
100
AcDbEntity
  8
0
  6
Continuous
 62
     7
370
    15
100
AcDbLine
 10
168.7348405569
 20
70.2259962141
 30
0.0
 11
168.7348405569
 21
146.8052559227
 31
0.0
  0
LINE
  5
9A
330
1F
100
AcDbEntity
  8
0
  6
Continuous
 62
     7
370
    15
100
AcDbLine
 10
168.7348405569
 20
146.8052559227
 30
0.0
 11
164.668001674
 21
146.8052559227
 31
0.0
  0
LINE
  5
9B
330
1F
100
AcDbEntity
  8
0
  6
Continuous
 62
     7
370
    15
100
AcDbLine
 10
164.668001674
 20
70.2259962141
 30
0.0
 11
168.7348405569
 21
70.2259962141
 31
0.0
  0
SPLINE
  5
9C
330
1F
100
AcDbEntity
  8
0
  6
Continuous
 62
     7
370
    15
100
AcDbSpline
210
0.0
220
0.0
230
1.0
 70
     8
 71
     3
 72
    34
 73
    30
 74
     0
 42
0.000000001
 43
0.00000001
 40
0.0
 40
0.0
 40
0.0
 40
0.0
 40
0.062499999999999
 40
0.062499999999999
 40
0.124999999999998
 40
0.124999999999998
 40
0.1874999999999971
 40
0.1874999999999971
 40
0.2499999999999966
 40
0.2499999999999966
 40
0.3124999999999962
 40
0.3124999999999962
 40
0.3749999999999957
 40
0.3749999999999957
 40
0.4999999999999958
 40
0.4999999999999958
 40
0.6249999999999958
 40
0.6249999999999958
 40
0.6874999999999964
 40
0.6874999999999964
 40
0.7499999999999971
 40
0.7499999999999971
 40
0.8124999999999979
 40
0.8124999999999979
 40
0.8749999999999986
 40
0.8749999999999986
 40
0.9374999999999992
 40
0.9374999999999992
 40
1.0
 40
1.0
 40
1.0
 40
1.0
 10
175.2011631173935
 20
97.96631501907771
 30
0.0
 10
175.3605549451813
 20
97.97415511500047
 30
0.0
 10
175.5165574286249
 20
97.99581376309091
 30
0.0
 10
175.8220669447022
 20
98.0656619905837
 30
0.0
 10
175.9729612797144
 20
98.11448769291196
 30
0.0
 10
176.2608606244052
 20
98.23741164631929
 30
0.0
 10
176.3968070273649
 20
98.3107191544536
 30
0.0
 10
176.6529896429569
 20
98.48072977822494
 30
0.0
 10
176.774171930716
 20
98.57860357042641
 30
0.0
 10
176.9913180025888
 20
98.79118774585837
 30
0.0
 10
177.0882798755491
 20
98.90623368438796
 30
0.0
 10
177.2588423113747
 20
99.15409480450809
 30
0.0
 10
177.3320823645866
 20
99.28712830157369
 30
0.0
 10
177.5069628213354
 20
99.69663631770382
 30
0.0
 10
177.5680007823114
 20
99.9945969674789
 30
0.0
 10
177.5680024375345
 20
100.5860385233533
 30
0.0
 10
177.5069678279482
 20
100.8862120733299
 30
0.0
 10
177.3320780605463
 20
101.3014433535977
 30
0.0
 10
177.2588343551218
 20
101.4367984718445
 30
0.0
 10
177.0882736393852
 20
101.6896978032312
 30
0.0
 10
176.9913099237917
 20
101.8074630808389
 30
0.0
 10
176.7741495952045
 20
102.0255933762076
 30
0.0
 10
176.6529683365177
 20
102.1262967013545
 30
0.0
 10
176.396798109579
 20
102.3015403941878
 30
0.0
 10
176.2608547599163
 20
102.3772853632784
 30
0.0
 10
175.9729520567332
 20
102.5044537385806
 30
0.0
 10
175.8220618608164
 20
102.5550550109081
 30
0.0
 10
175.5165563571108
 20
102.6274841106559
 30
0.0
 10
175.3605549588473
 20
102.6499698820529
 30
0.0
 10
175.2011631173935
 20
102.6581083419478
 30
0.0
  0
LINE
  5
9D
330
1F
100
AcDbEntity
  8
0
  6
Continuous
 62
     7
370
    15
100
AcDbLine
 10
179.318001002
 20
146.8052559227
 30
0.0
 11
175.2011631354
 21
146.8052559227
 31
0.0
  0
LINE
  5
9E
330
1F
100
AcDbEntity
  8
0
  6
Continuous
 62
     7
370
    15
100
AcDbLine
 10
175.2011631354
 20
70.2259962141
 30
0.0
 11
179.318001002
 21
70.2259962141
 31
0.0
  0
LINE
  5
9F
330
1F
100
AcDbEntity
  8
0
  6
Continuous
 62
     7
370
    15
100
AcDbLine
 10
175.2011631354
 20
70.2259962141
 30
0.0
 11
175.2011631354
 21
97.9663145423
 31
0.0
  0
SPLINE
  5
A0
330
1F
100
AcDbEntity
  8
0
  6
Continuous
 62
     7
370
    15
100
AcDbSpline
210
0.0
220
0.0
230
1.0
 70
    24
 71
     3
 72
    14
 73
    10
 74
     0
 42
0.000000001
 43
0.00000001
 40
0.0
 40
0.0
 40
0.0
 40
0.0
 40
0.25
 40
0.25
 40
0.5
 40
0.5
 40
0.75
 40
0.75
 40
1.0
 40
1.0
 40
1.0
 40
1.0
 10
179.9180016099316
 20
146.8052554070789
 30
0.0
 10
179.9180016099316
 20
146.8052554070789
 30
0.0
 10
179.905931883772
 20
146.8052554070789
 30
0.0
 10
179.8561678006797
 20
146.8052554070789
 30
0.0
 10
179.8186163735584
 20
146.8052554070789
 30
0.0
 10
179.7160166418561
 20
146.8052554070789
 30
0.0
 10
179.6508720211347
 20
146.8052554070789
 30
0.0
 10
179.4962701573566
 20
146.8052554070789
 30
0.0
 10
179.4073454442789
 20
146.8052554070789
 30
0.0
 10
179.3180016099322
 20
146.8052554070789
 30
0.0
  0
LINE
  5
A1
330
1F
100
AcDbEntity
  8
0
  6
Continuous
 62
     7
370
    15
100
AcDbLine
 10
179.9180018454
 20
70.6406247496
 30
0.0
 11
179.9180018454
 21
146.8052559227
 31
0.0
  0
SPLINE
  5
A2
330
1F
100
AcDbEntity
  8
0
  6
Continuous
 62
     7
370
    15
100
AcDbSpline
210
0.0
220
0.0
230
1.0
 70
     8
 71
     3
 72
    12
 73
     8
 74
     0
 42
0.000000001
 43
0.00000001
 40
0.0
 40
0.0
 40
0.0
 40
0.0
 40
0.2499999999999984
 40
0.2499999999999984
 40
0.4999999999999969
 40
0.4999999999999969
 40
1.0
 40
1.0
 40
1.0
 40
1.0
 10
179.3180016099315
 20
70.22599606573287
 30
0.0
 10
179.4139743631064
 20
70.22599606573287
 30
0.0
 10
179.5064023272609
 20
70.24226938984145
 30
0.0
 10
179.6628324273703
 20
70.29564311183785
 30
0.0
 10
179.7263108521432
 20
70.3317713693722
 30
0.0
 10
179.8745900129703
 20
70.4524725656515
 30
0.0
 10
179.9180016099316
 20
70.54632215201667
 30
0.0
 10
179.9180016099316
 20
70.64062642696386
 30
0.0
  0
SPLINE
  5
A3
330
1F
100
AcDbEntity
  8
0
  6
Continuous
 62
     7
370
    15
100
AcDbSpline
210
0.0
220
0.0
230
1.0
 70
     8
 71
     3
 72
    14
 73
    10
 74
     0
 42
0.000000001
 43
0.00000001
 40
0.0
 40
0.0
 40
0.0
 40
0.0
 40
0.25
 40
0.25
 40
0.5
 40
0.5
 40
0.75
 40
0.75
 40
1.0
 40
1.0
 40
1.0
 40
1.0
 10
173.8780016099315
 20
103.2036075631018
 30
0.0
 10
173.8780016099315
 20
103.2455112546239
 30
0.0
 10
173.8485311462856
 20
103.2733870521933
 30
0.0
 10
173.7417041767268
 20
103.2869585708775
 30
0.0
 10
173.6654507818708
 20
103.2723011172235
 30
0.0
 10
173.49774678037
 20
103.2004158628093
 30
0.0
 10
173.4075832054275
 20
103.1440250336686
 30
0.0
 10
173.2346594381311
 20
103.00191316841
 30
0.0
 10
173.1527731826466
 20
102.9174477707738
 30
0.0
 10
173.078001609929
 20
102.8239296932023
 30
0.0
  0
SPLINE
  5
A4
330
1F
100
AcDbEntity
  8
0
  6
Continuous
 62
     7
370
    15
100
AcDbSpline
210
0.0
220
0.0
230
1.0
 70
     8
 71
     3
 72
    10
 73
     6
 74
     0
 42
0.000000001
 43
0.00000001
 40
0.0
 40
0.0
 40
0.0
 40
0.0
 40
0.5
 40
0.5
 40
1.0
 40
1.0
 40
1.0
 40
1.0
 10
173.8780016099319
 20
99.02595214245778
 30
0.0
 10
174.0948924424526
 20
98.78891320300924
 30
0.0
 10
174.3140450791115
 20
98.58674296801576
 30
0.0
 10
174.7555295793804
 20
98.23599089649706
 30
0.0
 10
174.9787320446538
 20
98.08731480410022
 30
0.0
 10
175.2011631173935
 20
97.9663150190777
 30
0.0
  0
LINE
  5
A5
330
1F
100
AcDbEntity
  8
0
  6
Continuous
 62
     7
370
    15
100
AcDbLine
 10
173.8780014886
 20
99.0715671956
 30
0.0
 11
173.8780014886
 21
99.0259528786
 31
0.0
  0
SPLINE
  5
A6
330
1F
100
AcDbEntity
  8
0
  6
Continuous
 62
     7
370
    15
100
AcDbSpline
210
0.0
220
0.0
230
1.0
 70
     8
 71
     3
 72
    16
 73
    12
 74
     0
 42
0.000000001
 43
0.00000001
 40
0.0
 40
0.0
 40
0.0
 40
0.0
 40
0.2499999999999998
 40
0.2499999999999998
 40
0.4999999999999996
 40
0.4999999999999996
 40
0.6249999999999983
 40
0.6249999999999983
 40
0.7499999999999971
 40
0.7499999999999971
 40
1.0
 40
1.0
 40
1.0
 40
1.0
 10
173.0780016099316
 20
99.9799658501448
 30
0.0
 10
173.1528545913014
 20
99.88858659698488
 30
0.0
 10
173.2340142209816
 20
99.80020098606674
 30
0.0
 10
173.4072371495563
 20
99.62452082550138
 30
0.0
 10
173.4977404795216
 20
99.53915800857732
 30
0.0
 10
173.6240695514526
 20
99.41773639716888
 30
0.0
 10
173.6635665548613
 20
99.37926098546492
 30
0.0
 10
173.7356811251605
 20
99.30520031056125
 30
0.0
 10
173.7685733030904
 20
99.26920554530003
 30
0.0
 10
173.8482459727238
 20
99.17049945806622
 30
0.0
 10
173.8780016099315
 20
99.11386699764113
 30
0.0
 10
173.8780016099315
 20
99.07156636447044
 30
0.0
  0
SPLINE
  5
A7
330
1F
100
AcDbEntity
  8
0
  6
Continuous
 62
     7
370
    15
100
AcDbSpline
210
0.0
220
0.0
230
1.0
 70
     8
 71
     3
 72
    16
 73
    12
 74
     0
 42
0.000000001
 43
0.00000001
 40
0.0
 40
0.0
 40
0.0
 40
0.0
 40
0.2500000000000008
 40
0.2500000000000008
 40
0.5000000000000017
 40
0.5000000000000017
 40
0.7500000000000024
 40
0.7500000000000024
 40
0.8750000000000012
 40
0.8750000000000012
 40
1.0
 40
1.0
 40
1.0
 40
1.0
 10
173.0780016099316
 20
102.8239296931984
 30
0.0
 10
172.9125875034514
 20
102.6170434571731
 30
0.0
 10
172.7863901724758
 20
102.3911747593643
 30
0.0
 10
172.6119838741449
 20
101.9023055137514
 30
0.0
 10
172.5681538350481
 20
101.6505384604068
 30
0.0
 10
172.5678501620781
 20
101.1387591358245
 30
0.0
 10
172.6117070221384
 20
100.8877044267418
 30
0.0
 10
172.7416287814056
 20
100.5268558585997
 30
0.0
 10
172.7957435928136
 20
100.4095830902511
 30
0.0
 10
172.922420582957
 20
100.1870941389123
 30
0.0
 10
172.9952943033178
 20
100.080933530669
 30
0.0
 10
173.0780016099316
 20
99.9799658501448
 30
0.0
  0
SPLINE
  5
A8
330
1F
100
AcDbEntity
  8
0
  6
Continuous
 62
     7
370
    15
100
AcDbSpline
210
0.0
220
0.0
230
1.0
 70
     8
 71
     3
 72
    14
 73
    10
 74
     0
 42
0.000000001
 43
0.00000001
 40
0.0
 40
0.0
 40
0.0
 40
0.0
 40
0.25
 40
0.25
 40
0.5
 40
0.5
 40
0.75
 40
0.75
 40
1.0
 40
1.0
 40
1.0
 40
1.0
 10
170.8580016099316
 20
73.3074891412091
 30
0.0
 10
170.7515566020223
 20
73.30748914120909
 30
0.0
 10
170.6446578507488
 20
73.28491959177599
 30
0.0
 10
170.4484395953063
 20
73.19847650053406
 30
0.0
 10
170.3587812818419
 20
73.13417258286692
 30
0.0
 10
170.2133275689608
 20
72.97920306882396
 30
0.0
 10
170.1552917862346
 20
72.88643758258023
 30
0.0
 10
170.07800663185
 20
72.68797070093684
 30
0.0
 10
170.0580016099316
 20
72.58094627914306
 30
0.0
 10
170.0580016099316
 20
72.47416391867223
 30
0.0
  0
SPLINE
  5
A9
330
1F
100
AcDbEntity
  8
0
  6
Continuous
 62
     7
370
    15
100
AcDbSpline
210
0.0
220
0.0
230
1.0
 70
    24
 71
     3
 72
    14
 73
    10
 74
     0
 42
0.000000001
 43
0.00000001
 40
0.0
 40
0.0
 40
0.0
 40
0.0
 40
0.25
 40
0.25
 40
0.5
 40
0.5
 40
0.75
 40
0.75
 40
1.0
 40
1.0
 40
1.0
 40
1.0
 10
170.8580016099316
 20
146.8052554070789
 30
0.0
 10
170.7350203103853
 20
146.8052554070789
 30
0.0
 10
170.6148304219832
 20
146.8052554070789
 30
0.0
 10
170.4098065923041
 20
146.8052554070789
 30
0.0
 10
170.323212103502
 20
146.8052554070789
 30
0.0
 10
170.1881042167395
 20
146.8052554070789
 30
0.0
 10
170.1395811317114
 20
146.8052554070789
 30
0.0
 10
170.0738986229846
 20
146.8052554070789
 30
0.0
 10
170.0580016099316
 20
146.8052554070789
 30
0.0
 10
170.0580016099316
 20
146.8052554070789
 30
0.0
  0
SPLINE
  5
AA
330
1F
100
AcDbEntity
  8
0
  6
Continuous
 62
     7
370
    15
100
AcDbSpline
210
0.0
220
0.0
230
1.0
 70
    24
 71
     3
 72
    14
 73
    10
 74
     0
 42
0.000000001
 43
0.00000001
 40
0.0
 40
0.0
 40
0.0
 40
0.0
 40
0.25
 40
0.25
 40
0.5
 40
0.5
 40
0.75
 40
0.75
 40
1.0
 40
1.0
 40
1.0
 40
1.0
 10
173.8780016099315
 20
146.8052554070789
 30
0.0
 10
173.8780016099315
 20
146.8052554070789
 30
0.0
 10
173.8617205751557
 20
146.8052554070789
 30
0.0
 10
173.7970575126311
 20
146.8052554070789
 30
0.0
 10
173.7475777163425
 20
146.8052554070789
 30
0.0
 10
173.6136079592037
 20
146.8052554070789
 30
0.0
 10
173.5274932326043
 20
146.8052554070789
 30
0.0
 10
173.3220371168913
 20
146.8052554070789
 30
0.0
 10
173.2006165796984
 20
146.8052554070789
 30
0.0
 10
173.0780016099316
 20
146.8052554070789
 30
0.0
  0
LINE
  5
AB
330
1F
100
AcDbEntity
  8
0
  6
Continuous
 62
     7
370
    15
100
AcDbLine
 10
173.0780019163
 20
73.3074892938
 30
0.0
 11
170.8580017759
 21
73.3074892938
 31
0.0
  0
LINE
  5
AC
330
1F
100
AcDbEntity
  8
0
  6
Continuous
 62
     7
370
    15
100
AcDbLine
 10
173.0780019163
 20
146.8052559227
 30
0.0
 11
170.8580017759
 21
146.8052559227
 31
0.0
  0
LINE
  5
AD
330
1F
100
AcDbEntity
  8
0
  6
Continuous
 62
     7
370
    15
100
AcDbLine
 10
173.8780014886
 20
72.3355163514
 30
0.0
 11
173.8780014886
 21
99.0259528786
 31
0.0
  0
SPLINE
  5
AE
330
1F
100
AcDbEntity
  8
0
  6
Continuous
 62
     7
370
    15
100
AcDbSpline
210
0.0
220
0.0
230
1.0
 70
     8
 71
     3
 72
     8
 73
     4
 74
     0
 42
0.000000001
 43
0.00000001
 40
0.0000000000000004
 40
0.0000000000000004
 40
0.0000000000000004
 40
0.0000000000000004
 40
0.0011862984959128
 40
0.0011862984959128
 40
0.0011862984959128
 40
0.0011862984959128
 10
174.7480494404317
 20
70.76934034010249
 30
0.0
 10
174.8980809103031
 20
70.58802024579147
 30
0.0
 10
175.0491383555224
 20
70.4069079153511
 30
0.0
 10
175.2011631173935
 20
70.22599606573287
 30
0.0
  0
SPLINE
  5
AF
330
1F
100
AcDbEntity
  8
0
  6
Continuous
 62
     7
370
    15
100
AcDbSpline
210
0.0
220
0.0
230
1.0
 70
     8
 71
     3
 72
     8
 73
     4
 74
     0
 42
0.000000001
 43
0.00000001
 40
0.0
 40
0.0
 40
0.0
 40
0.0
 40
1.0
 40
1.0
 40
1.0
 40
1.0
 10
174.7480494404347
 20
70.76934034010418
 30
0.0
 10
174.4577552061732
 20
71.29124260582672
 30
0.0
 10
174.1677300559558
 20
71.81329598808613
 30
0.0
 10
173.8780016099315
 20
72.3355159982491
 30
0.0
  0
SPLINE
  5
B0
330
1F
100
AcDbEntity
  8
0
  6
Continuous
 62
     7
370
    15
100
AcDbSpline
210
0.0
220
0.0
230
1.0
 70
     8
 71
     3
 72
     8
 73
     4
 74
     0
 42
0.000000001
 43
0.00000001
 40
0.0
 40
0.0
 40
0.0
 40
0.0
 40
1.0
 40
1.0
 40
1.0
 40
1.0
 10
180.0227233904901
 20
146.8052554070789
 30
0.0
 10
179.9529209059604
 20
147.1690075163398
 30
0.0
 10
179.9180016099315
 20
147.5360769077516
 30
0.0
 10
179.9180016099315
 20
147.9064670150273
 30
0.0
  0
SPLINE
  5
B1
330
1F
100
AcDbEntity
  8
0
  6
Continuous
 62
     7
370
    15
100
AcDbSpline
210
0.0
220
0.0
230
1.0
 70
     8
 71
     3
 72
    10
 73
     6
 74
     0
 42
0.000000001
 43
0.00000001
 40
0.0
 40
0.0
 40
0.0
 40
0.0
 40
0.5
 40
0.5
 40
1.0
 40
1.0
 40
1.0
 40
1.0
 10
179.9180016099315
 20
157.9903318661279
 30
0.0
 10
179.9180016099315
 20
157.7222197096841
 30
0.0
 10
179.9502072401039
 20
157.4595583080411
 30
0.0
 10
180.0770845488997
 20
156.9448077901495
 30
0.0
 10
180.1728377569342
 20
156.692092110237
 30
0.0
 10
180.2985748944953
 20
156.4552554070789
 30
0.0
  0
SPLINE
  5
B2
330
1F
100
AcDbEntity
  8
0
  6
Continuous
 62
     7
370
    15
100
AcDbSpline
210
0.0
220
0.0
230
1.0
 70
     8
 71
     3
 72
    14
 73
    10
 74
     0
 42
0.000000001
 43
0.00000001
 40
0.0
 40
0.0
 40
0.0
 40
0.0
 40
0.25
 40
0.25
 40
0.5
 40
0.5
 40
0.75
 40
0.75
 40
1.0
 40
1.0
 40
1.0
 40
1.0
 10
180.2985748944953
 20
156.4552554070789
 30
0.0
 10
180.4253324739867
 20
156.2164966138588
 30
0.0
 10
180.5841575292694
 20
156.0044192540167
 30
0.0
 10
180.959230636509
 20
155.6400895389304
 30
0.0
 10
181.1675257527767
 20
155.494005527318
 30
0.0
 10
181.6268662617064
 20
155.2589694424633
 30
0.0
 10
181.8696332516905
 20
155.1743564894437
 30
0.0
 10
182.3823900640789
 20
155.0601051162351
 30
0.0
 10
182.6487674581456
 20
155.0317396965323
 30
0.0
 10
182.9180016099315
 20
155.0317396965323
 30
0.0
  0
SPLINE
  5
B3
330
1F
100
AcDbEntity
  8
0
  6
Continuous
 62
     7
370
    15
100
AcDbSpline
210
0.0
220
0.0
230
1.0
 70
     8
 71
     3
 72
    22
 73
    18
 74
     0
 42
0.000000001
 43
0.00000001
 40
0.0
 40
0.0
 40
0.0
 40
0.0
 40
0.125
 40
0.125
 40
0.25
 40
0.25
 40
0.375
 40
0.375
 40
0.5
 40
0.5
 40
0.625
 40
0.625
 40
0.75
 40
0.75
 40
0.875
 40
0.875
 40
1.0
 40
1.0
 40
1.0
 40
1.0
 10
182.9180016099315
 20
78.95686728337024
 30
0.0
 10
182.7214868609827
 20
78.97238226376699
 30
0.0
 10
182.5258216272461
 20
78.96617799834755
 30
0.0
 10
182.1364058902173
 20
78.90904444369285
 30
0.0
 10
181.941049891906
 20
78.85698223207714
 30
0.0
 10
181.572071897256
 20
78.71145105466789
 30
0.0
 10
181.3955427798646
 20
78.61762810770831
 30
0.0
 10
181.0626174789166
 20
78.38999609773293
 30
0.0
 10
180.9109727172668
 20
78.25967416803454
 30
0.0
 10
180.6351298345528
 20
77.96868113780721
 30
0.0
 10
180.5108412846406
 20
77.80701766607312
 30
0.0
 10
180.298721114734
 20
77.4673093792903
 30
0.0
 10
180.2092638024559
 20
77.287700595174
 30
0.0
 10
180.0637183663006
 20
76.91004584768869
 30
0.0
 10
180.0096154296421
 20
76.71723524268432
 30
0.0
 10
179.9367293376362
 20
76.32408095039636
 30
0.0
 10
179.9180016099315
 20
76.12259266811358
 30
0.0
 10
179.9180016099315
 20
75.92017894802983
 30
0.0
  0
SPLINE
  5
B4
330
1F
100
AcDbEntity
  8
0
  6
Continuous
 62
     7
370
    15
100
AcDbSpline
210
0.0
220
0.0
230
1.0
 70
     8
 71
     3
 72
    14
 73
    10
 74
     0
 42
0.000000001
 43
0.00000001
 40
0.0
 40
0.0
 40
0.0
 40
0.0
 40
0.25
 40
0.25
 40
0.5
 40
0.5
 40
0.75
 40
0.75
 40
1.0
 40
1.0
 40
1.0
 40
1.0
 10
173.8780016099315
 20
72.47416391867226
 30
0.0
 10
173.8780016099315
 20
72.58122790501307
 30
0.0
 10
173.8580177836916
 20
72.68796723138757
 30
0.0
 10
173.7805827012581
 20
72.88671713357836
 30
0.0
 10
173.7226437790987
 20
72.97927135007087
 30
0.0
 10
173.5770059733379
 20
73.13436829347647
 30
0.0
 10
173.4882169770025
 20
73.19810845038933
 30
0.0
 10
173.291668616798
 20
73.28485700747693
 30
0.0
 10
173.1855293870986
 20
73.30748914120909
 30
0.0
 10
173.0780016099316
 20
73.30748914120909
 30
0.0
  0
SPLINE
  5
B5
330
1F
100
AcDbEntity
  8
0
  6
Continuous
 62
     7
370
    15
100
AcDbSpline
210
0.0
220
0.0
230
1.0
 70
     8
 71
     3
 72
    24
 73
    20
 74
     0
 42
0.000000001
 43
0.00000001
 40
0.0
 40
0.0
 40
0.0
 40
0.0
 40
0.0466014322440418
 40
0.1359914788144806
 40
0.2290698751828208
 40
0.2798017343885933
 40
0.3317554608670412
 40
0.3874887685879604
 40
0.4446716449539659
 40
0.5034810935693241
 40
0.5639471879028437
 40
0.6235533259261092
 40
0.6849377217287612
 40
0.7435442684118267
 40
0.8040850035262329
 40
0.8587332106752641
 40
0.9153816914460142
 40
0.9638956306411002
 40
0.9999999999999999
 40
0.9999999999999999
 40
0.9999999999999999
 40
0.9999999999999999
 10
237.3141548334461
 20
156.9545206308204
 30
0.0
 10
237.2926503298932
 20
156.9503848119943
 30
0.0
 10
237.2298962663696
 20
156.9383157383373
 30
0.0
 10
236.4688251704497
 20
156.7942583377648
 30
0.0
 10
235.1202943206735
 20
156.5719299789351
 30
0.0
 10
233.6954845436588
 20
156.3813009104163
 30
0.0
 10
232.4095448243545
 20
156.2400843234212
 30
0.0
 10
230.9607182505344
 20
156.1215079890169
 30
0.0
 10
229.3716060016862
 20
156.0421690643053
 30
0.0
 10
227.6970797135797
 20
156.0161830121821
 30
0.0
 10
226.0022666538785
 20
156.0508474111898
 30
0.0
 10
224.3346716749608
 20
156.1440902457555
 30
0.0
 10
222.7827893802045
 20
156.2833475062699
 30
0.0
 10
221.371461133525
 20
156.4527657901183
 30
0.0
 10
220.2028713087523
 20
156.6237014793499
 30
0.0
 10
219.2768548626013
 20
156.77804208136
 30
0.0
 10
218.6759306023189
 20
156.8871103153153
 30
0.0
 10
218.3535315776104
 20
156.9484109558059
 30
0.0
 10
218.3473915347853
 20
156.9496174570379
 30
0.0
 10
218.3447717427116
 20
156.9501322388488
 30
0.0
  0
SPLINE
  5
B6
330
1F
100
AcDbEntity
  8
0
  6
Continuous
 62
     7
370
    15
100
AcDbSpline
210
0.0
220
0.0
230
1.0
 70
     8
 71
     3
 72
    13
 73
     9
 74
     0
 42
0.000000001
 43
0.00000001
 40
0.0
 40
0.0
 40
0.0
 40
0.0
 40
0.1730488125584767
 40
0.3460789112308382
 40
0.5189312225111532
 40
0.6918634133582592
 40
0.87030018047289
 40
0.9999999999999999
 40
0.9999999999999999
 40
0.9999999999999999
 40
0.9999999999999999
 10
191.1149876861673
 20
156.4552572250205
 30
0.0
 10
190.7777995847949
 20
156.3628524636081
 30
0.0
 10
190.1034598463264
 20
156.1780529336411
 30
0.0
 10
188.7713541025081
 20
155.8731418822594
 30
0.0
 10
187.2384104169417
 20
155.5881367742424
 30
0.0
 10
185.5188968291514
 20
155.3440098726753
 30
0.0
 10
183.837109641412
 20
155.1719468750535
 30
0.0
 10
182.7148846903177
 20
155.1168402784635
 30
0.0
 10
182.2425215243202
 20
155.0936449944812
 30
0.0
  0
SPLINE
  5
B7
330
1F
100
AcDbEntity
  8
0
  6
Continuous
 62
     7
370
    15
100
AcDbSpline
210
0.0
220
0.0
230
1.0
 70
     8
 71
     3
 72
    11
 73
     7
 74
     0
 42
0.000000001
 43
0.00000001
 40
0.0
 40
0.0
 40
0.0
 40
0.0
 40
0.2615395874371567
 40
0.5280850949325259
 40
0.8481000881495747
 40
0.9999999999999999
 40
0.9999999999999999
 40
0.9999999999999999
 40
0.9999999999999999
 10
191.1149876861673
 20
156.4552572250205
 30
0.0
 10
191.3769610556397
 20
156.5311134787505
 30
0.0
 10
191.9059220173177
 20
156.6842778900917
 30
0.0
 10
192.4529190450274
 20
156.854632562123
 30
0.0
 10
192.7639390525775
 20
156.9538960360038
 30
0.0
 10
192.7321767649505
 20
156.9437524715502
 30
0.0
 10
192.7219531236988
 20
156.9404874622661
 30
0.0
  0
SPLINE
  5
B8
330
1F
100
AcDbEntity
  8
0
  6
Continuous
 62
     7
370
    15
100
AcDbSpline
210
0.0
220
0.0
230
1.0
 70
     8
 71
     3
 72
    16
 73
    12
 74
     0
 42
0.000000001
 43
0.00000001
 40
0.0
 40
0.0
 40
0.0
 40
0.0
 40
0.0682100853101819
 40
0.1880945319498984
 40
0.3112488928344478
 40
0.4350841088960695
 40
0.5623378413707664
 40
0.6889395572189702
 40
0.8194491867610416
 40
0.9418843263456596
 40
1.0
 40
1.0
 40
1.0
 40
1.0
 10
182.9180023371082
 20
78.95686595438303
 30
0.0
 10
183.296053296695
 20
78.9235995761993
 30
0.0
 10
184.3385577588039
 20
78.83186499170661
 30
0.0
 10
185.976106115878
 20
78.60753335901455
 30
0.0
 10
187.7431577381043
 20
78.2876336489842
 30
0.0
 10
189.3293277271268
 20
77.93245917985061
 30
0.0
 10
190.6692610103345
 20
77.58498360657289
 30
0.0
 10
191.7339616833431
 20
77.27830073613967
 30
0.0
 10
192.4265369398026
 20
77.06467728961971
 30
0.0
 10
192.7634284295336
 20
76.95673923848237
 30
0.0
 10
192.7320524274175
 20
76.9667886488978
 30
0.0
 10
192.7219531236988
 20
76.97002335189165
 30
0.0
  0
SPLINE
  5
B9
330
1F
100
AcDbEntity
  8
0
  6
Continuous
 62
     7
370
    15
100
AcDbSpline
210
0.0
220
0.0
230
1.0
 70
    11
 71
     3
 72
    96
 73
    92
 74
     0
 42
0.000000001
 43
0.00000001
 40
0.0
 40
0.0
 40
0.0
 40
0.0
 40
0.0312499999999994
 40
0.0312499999999994
 40
0.0468749999999991
 40
0.0468749999999991
 40
0.0624999999999988
 40
0.0624999999999988
 40
0.0937499999999989
 40
0.0937499999999989
 40
0.1093749999999993
 40
0.1093749999999993
 40
0.1249999999999997
 40
0.1249999999999997
 40
0.1562499999999998
 40
0.1562499999999998
 40
0.1718749999999998
 40
0.1718749999999998
 40
0.1874999999999999
 40
0.1874999999999999
 40
0.2187500000000007
 40
0.2187500000000007
 40
0.2500000000000014
 40
0.2500000000000014
 40
0.2812500000000022
 40
0.2812500000000022
 40
0.2968750000000026
 40
0.2968750000000026
 40
0.3125000000000029
 40
0.3125000000000029
 40
0.3437500000000034
 40
0.3437500000000034
 40
0.3593750000000037
 40
0.3593750000000037
 40
0.3750000000000039
 40
0.3750000000000039
 40
0.3906250000000042
 40
0.3906250000000042
 40
0.4062500000000045
 40
0.4062500000000045
 40
0.4375000000000048
 40
0.4375000000000048
 40
0.4531250000000052
 40
0.4531250000000052
 40
0.4687500000000056
 40
0.4687500000000056
 40
0.5000000000000059
 40
0.5000000000000059
 40
0.5312500000000062
 40
0.5312500000000062
 40
0.5468750000000063
 40
0.5468750000000063
 40
0.5625000000000066
 40
0.5625000000000066
 40
0.5937500000000062
 40
0.5937500000000062
 40
0.6250000000000058
 40
0.6250000000000058
 40
0.6562500000000054
 40
0.6562500000000054
 40
0.6875000000000051
 40
0.6875000000000051
 40
0.7031250000000047
 40
0.7031250000000047
 40
0.7187500000000044
 40
0.7187500000000044
 40
0.750000000000004
 40
0.750000000000004
 40
0.7656250000000038
 40
0.7656250000000038
 40
0.7812500000000037
 40
0.7812500000000037
 40
0.8125000000000033
 40
0.8125000000000033
 40
0.828125000000003
 40
0.828125000000003
 40
0.8437500000000028
 40
0.8437500000000028
 40
0.8750000000000022
 40
0.8750000000000022
 40
0.890625000000002
 40
0.890625000000002
 40
0.9062500000000017
 40
0.9062500000000017
 40
0.9218750000000014
 40
0.9218750000000014
 40
0.9375000000000011
 40
0.9375000000000011
 40
0.9687500000000006
 40
0.9687500000000006
 40
1.0
 40
1.0
 40
1.0
 40
1.0
 10
221.4193850501717
 20
123.2798590665784
 30
0.0
 10
221.8786125745857
 20
123.658265033486
 30
0.0
 10
222.3665132028916
 20
123.9869563081679
 30
0.0
 10
223.1379494838954
 20
124.4121870251226
 30
0.0
 10
223.4017484334309
 20
124.5425305356068
 30
0.0
 10
223.942682933532
 20
124.7804894857314
 30
0.0
 10
224.221220833624
 20
124.8885384492973
 30
0.0
 10
225.0652162913676
 20
125.1738395784416
 30
0.0
 10
225.6382857343992
 20
125.3130573063202
 30
0.0
 10
226.5129549546356
 20
125.4485620825461
 30
0.0
 10
226.8070386137227
 20
125.4814261647336
 30
0.0
 10
227.4003623097951
 20
125.5220902894796
 30
0.0
 10
227.699965094357
 20
125.5297416562807
 30
0.0
 10
228.5894160283137
 20
125.5145521898395
 30
0.0
 10
229.1756518010393
 20
125.4544800934688
 30
0.0
 10
230.0450058613657
 20
125.2899586757278
 30
0.0
 10
230.3331140382878
 20
125.2226387984534
 30
0.0
 10
230.9058658983221
 20
125.0621276603845
 30
0.0
 10
231.1894423320929
 20
124.9690890657321
 30
0.0
 10
232.0182362731471
 20
124.6563433571262
 30
0.0
 10
232.5470143185454
 20
124.4019261655043
 30
0.0
 10
233.5561731157059
 20
123.7985195315626
 30
0.0
 10
234.0407526104137
 20
123.4449689458887
 30
0.0
 10
234.9194279278707
 20
122.6636876971215
 30
0.0
 10
235.3175411652791
 20
122.2349051441498
 30
0.0
 10
235.8491137405975
 20
121.5303337981673
 30
0.0
 10
236.0159731287722
 20
121.2840154579178
 30
0.0
 10
236.3227565930833
 20
120.7741664262751
 30
0.0
 10
236.4612260664562
 20
120.513326824716
 30
0.0
 10
236.8322138705721
 20
119.7131262964579
 30
0.0
 10
237.0208339032538
 20
119.1562882966151
 30
0.0
 10
237.2083190827848
 20
118.2828125275108
 30
0.0
 10
237.2543386333799
 20
117.9857536547042
 30
0.0
 10
237.3110707158749
 20
117.3957488731079
 30
0.0
 10
237.3222968913472
 20
117.100693625747
 30
0.0
 10
237.3107880944347
 20
116.5104783639507
 30
0.0
 10
237.2880543006612
 20
116.2153183530307
 30
0.0
 10
237.207865158351
 20
115.6248912932937
 30
0.0
 10
237.1501350937604
 20
115.3298295099586
 30
0.0
 10
236.9299063674848
 20
114.4677968821154
 30
0.0
 10
236.7200315434297
 20
113.9156852256233
 30
0.0
 10
236.3137880822667
 20
113.1200428774664
 30
0.0
 10
236.1637423625289
 20
112.8620724157878
 30
0.0
 10
235.840319184084
 20
112.3674795844883
 30
0.0
 10
235.6663248195918
 20
112.1296274851817
 30
0.0
 10
235.1088201026862
 20
111.4432402479444
 30
0.0
 10
234.6854553615711
 20
111.0185085688166
 30
0.0
 10
233.7760201710439
 20
110.2661108494327
 30
0.0
 10
233.2888194298721
 20
109.9354057220318
 30
0.0
 10
232.5107521028851
 20
109.5047505552015
 30
0.0
 10
232.2427136983506
 20
109.3719844890861
 30
0.0
 10
231.7006164531772
 20
109.1329559396652
 30
0.0
 10
231.4254659253034
 20
109.0260099086373
 30
0.0
 10
230.5880420462418
 20
108.7416806607626
 30
0.0
 10
230.0138972039646
 20
108.6004885766219
 30
0.0
 10
228.8331147084249
 20
108.4165113064935
 30
0.0
 10
228.2417469788606
 20
108.3762486214587
 30
0.0
 10
227.061903109684
 20
108.3950113216353
 30
0.0
 10
226.4704890858206
 20
108.4543197052702
 30
0.0
 10
225.2980066833867
 20
108.6757930599702
 30
0.0
 10
224.7298543544739
 20
108.8351290292843
 30
0.0
 10
223.9041112946913
 20
109.1458186689491
 30
0.0
 10
223.6333061391105
 20
109.2614084038971
 30
0.0
 10
223.1008306059252
 20
109.517441527471
 30
0.0
 10
222.8378468750704
 20
109.658698741455
 30
0.0
 10
222.0738217891303
 20
110.1156868857596
 30
0.0
 10
221.599775183045
 20
110.462147474787
 30
0.0
 10
220.9421770758942
 20
111.0459189785502
 30
0.0
 10
220.7319521300484
 20
111.2512644647569
 30
0.0
 10
220.3303903052878
 20
111.6847273590406
 30
0.0
 10
220.1381031622456
 20
111.9142835976885
 30
0.0
 10
219.6039083827145
 20
112.6234783040188
 30
0.0
 10
219.3008615719715
 20
113.1260155093806
 30
0.0
 10
218.9291223906212
 20
113.9266581517843
 30
0.0
 10
218.8191161569732
 20
114.2014014138786
 30
0.0
 10
218.6289151613775
 20
114.7677997956246
 30
0.0
 10
218.5500465515869
 20
115.0560273633694
 30
0.0
 10
218.3648235467762
 20
115.9238253627612
 30
0.0
 10
218.3076324845764
 20
116.5113270593466
 30
0.0
 10
218.3254714711344
 20
117.4066253694204
 30
0.0
 10
218.3491035273533
 20
117.7066063554204
 30
0.0
 10
218.4297907720685
 20
118.2947720687132
 30
0.0
 10
218.4868374866572
 20
118.5850287610526
 30
0.0
 10
218.6335250487997
 20
119.1580889901712
 30
0.0
 10
218.7231670047451
 20
119.4408922444372
 30
0.0
 10
218.9352847698471
 20
119.999011348983
 30
0.0
 10
219.0570457178629
 20
120.2720125216151
 30
0.0
 10
219.4619140955247
 20
121.0622441455406
 30
0.0
 10
219.7860457861135
 20
121.5559694710443
 30
0.0
 10
220.5387357730275
 20
122.4803018542862
 30
0.0
 10
220.9601575257577
 20
122.9014530996708
 30
0.0
 10
221.4193850501717
 20
123.2798590665784
 30
0.0
  0
LINE
  5
BA
330
1F
100
AcDbEntity
  8
0
  6
Continuous
 62
     7
370
    15
100
AcDbLine
 10
245.068003863
 20
116.9552554071
 30
0.0
 11
245.068003863
 21
76.9552563011
 31
0.0
  0
LINE
  5
BB
330
1F
100
AcDbEntity
  8
0
  6
Continuous
 62
     7
370
    15
100
AcDbLine
 10
245.068003863
 20
156.955254513
 30
0.0
 11
245.068003863
 21
116.9552554071
 31
0.0
  0
LINE
  5
BC
330
1F
100
AcDbEntity
  8
0
  6
Continuous
 62
     7
370
    15
100
AcDbLine
 10
245.868002504
 20
116.9552554071
 30
0.0
 11
245.868002504
 21
77.7552549422
 31
0.0
  0
LINE
  5
BD
330
1F
100
AcDbEntity
  8
0
  6
Continuous
 62
     7
370
    15
100
AcDbLine
 10
245.868002504
 20
156.155255872
 30
0.0
 11
245.868002504
 21
116.9552554071
 31
0.0
  0
LINE
  5
BE
330
1F
100
AcDbEntity
  8
0
  6
Continuous
 62
     7
370
    15
100
AcDbLine
 10
160.8680016099
 20
82.0302565276
 30
0.0
 11
160.8680016099
 21
151.8802542865
 31
0.0
  0
SPLINE
  5
BF
330
1F
100
AcDbEntity
  8
0
  6
Continuous
 62
     7
370
    15
100
AcDbSpline
210
0.0
220
0.0
230
1.0
 70
     8
 71
     3
 72
    12
 73
     8
 74
     0
 42
0.000000001
 43
0.00000001
 40
0.0
 40
0.0
 40
0.0
 40
0.0
 40
0.2500000000000007
 40
0.2500000000000007
 40
0.5000000000000014
 40
0.5000000000000014
 40
1.0
 40
1.0
 40
1.0
 40
1.0
 10
170.8580016099316
 20
160.6030216729486
 30
0.0
 10
170.7516566300556
 20
160.6030216729486
 30
0.0
 10
170.644380282653
 20
160.6257369108082
 30
0.0
 10
170.4490044932569
 20
160.7117620776905
 30
0.0
 10
170.36045075718
 20
160.7747408046189
 30
0.0
 10
170.1391928330487
 20
161.009932315056
 30
0.0
 10
170.0580016099316
 20
161.2231085295413
 30
0.0
 10
170.0580016099315
 20
161.4363468954853
 30
0.0
  0
SPLINE
  5
C0
330
1F
100
AcDbEntity
  8
0
  6
Continuous
 62
     7
370
    15
100
AcDbSpline
210
0.0
220
0.0
230
1.0
 70
     8
 71
     3
 72
    12
 73
     8
 74
     0
 42
0.000000001
 43
0.00000001
 40
0.0
 40
0.0
 40
0.0
 40
0.0
 40
0.499999999999994
 40
0.499999999999994
 40
0.749999999999997
 40
0.749999999999997
 40
1.0
 40
1.0
 40
1.0
 40
1.0
 10
170.0580016099316
 20
152.3482985087959
 30
0.0
 10
170.0580016099316
 20
152.1058754128152
 30
0.0
 10
170.1209227513734
 20
151.8601048922138
 30
0.0
 10
170.3229516483758
 20
151.5551587127969
 30
0.0
 10
170.4092453730231
 20
151.4645658461984
 30
0.0
 10
170.6147191675898
 20
151.3341322832617
 30
0.0
 10
170.7346697281894
 20
151.295137468612
 30
0.0
 10
170.8580016099316
 20
151.2951374686119
 30
0.0
  0
SPLINE
  5
C1
330
1F
100
AcDbEntity
  8
0
  6
Continuous
 62
     7
370
    15
100
AcDbSpline
210
0.0
220
0.0
230
1.0
 70
     8
 71
     3
 72
     8
 73
     4
 74
     0
 42
0.000000001
 43
0.00000001
 40
0.0
 40
0.0
 40
0.0
 40
0.0
 40
1.0
 40
1.0
 40
1.0
 40
1.0
 10
173.8780016099316
 20
152.5223911493885
 30
0.0
 10
174.312945401074
 20
153.5058895196725
 30
0.0
 10
174.7543118252445
 20
154.4870918411968
 30
0.0
 10
175.2011631173935
 20
155.466333358754
 30
0.0
  0
LINE
  5
C2
330
1F
100
AcDbEntity
  8
0
  6
Continuous
 62
     7
370
    15
100
AcDbLine
 10
173.8780014886
 20
152.5223900258
 30
0.0
 11
173.8780014886
 21
161.5749944627
 31
0.0
  0
SPLINE
  5
C3
330
1F
100
AcDbEntity
  8
0
  6
Continuous
 62
     7
370
    15
100
AcDbSpline
210
0.0
220
0.0
230
1.0
 70
     8
 71
     3
 72
     8
 73
     4
 74
     0
 42
0.000000001
 43
0.00000001
 40
0.0
 40
0.0
 40
0.0
 40
0.0
 40
1.0
 40
1.0
 40
1.0
 40
1.0
 10
174.644672632098
 20
162.9552886517462
 30
0.0
 10
174.3888963213426
 20
162.4953102964815
 30
0.0
 10
174.1333329232366
 20
162.0352158361737
 30
0.0
 10
173.8780016099315
 20
161.5749948159086
 30
0.0
  0
SPLINE
  5
C4
330
1F
100
AcDbEntity
  8
0
  6
Continuous
 62
     7
370
    15
100
AcDbSpline
210
0.0
220
0.0
230
1.0
 70
     8
 71
     3
 72
     8
 73
     4
 74
     0
 42
0.000000001
 43
0.00000001
 40
0.0
 40
0.0
 40
0.0
 40
0.0
 40
0.0012352705496738
 40
0.0012352705496738
 40
0.0012352705496738
 40
0.0012352705496738
 10
175.2011631173935
 20
163.7351000618544
 30
0.0
 10
175.0152146920713
 20
163.4753243061027
 30
0.0
 10
174.8297078829003
 20
163.2153902274754
 30
0.0
 10
174.6446726320981
 20
162.9552886517468
 30
0.0
  0
LINE
  5
C5
330
1F
100
AcDbEntity
  8
0
  6
Continuous
 62
     7
370
    15
100
AcDbLine
 10
175.2011631354
 20
155.4663342118
 30
0.0
 11
175.2011631354
 21
163.735100317
 31
0.0
  0
LINE
  5
C6
330
1F
100
AcDbEntity
  8
0
  6
Continuous
 62
     7
370
    15
100
AcDbLine
 10
170.0580012723
 20
152.5223900258
 30
0.0
 11
170.0580012723
 21
161.5749944627
 31
0.0
  0
SPLINE
  5
C7
330
1F
100
AcDbEntity
  8
0
  6
Continuous
 62
     7
370
    15
100
AcDbSpline
210
0.0
220
0.0
230
1.0
 70
     8
 71
     3
 72
     8
 73
     4
 74
     0
 42
0.000000001
 43
0.00000001
 40
0.0
 40
0.0
 40
0.0
 40
0.0
 40
1.0
 40
1.0
 40
1.0
 40
1.0
 10
168.7348401024696
 20
155.466333358754
 30
0.0
 10
169.1816913946186
 20
154.4870918411968
 30
0.0
 10
169.6230578187891
 20
153.5058895196725
 30
0.0
 10
170.0580016099316
 20
152.5223911493885
 30
0.0
  0
LINE
  5
C8
330
1F
100
AcDbEntity
  8
0
  6
Continuous
 62
     7
370
    15
100
AcDbLine
 10
168.7348405569
 20
155.4663342118
 30
0.0
 11
168.7348405569
 21
163.735100317
 31
0.0
  0
SPLINE
  5
C9
330
1F
100
AcDbEntity
  8
0
  6
Continuous
 62
     7
370
    15
100
AcDbSpline
210
0.0
220
0.0
230
1.0
 70
     8
 71
     3
 72
     8
 73
     4
 74
     0
 42
0.000000001
 43
0.00000001
 40
0.0
 40
0.0
 40
0.0
 40
0.0
 40
0.0012352705496723
 40
0.0012352705496723
 40
0.0012352705496723
 40
0.0012352705496723
 10
169.2913305877642
 20
162.955288651748
 30
0.0
 10
169.1062953369623
 20
163.2153902274762
 30
0.0
 10
168.9207885277915
 20
163.4753243061031
 30
0.0
 10
168.7348401024696
 20
163.7351000618544
 30
0.0
  0
SPLINE
  5
CA
330
1F
100
AcDbEntity
  8
0
  6
Continuous
 62
     7
370
    15
100
AcDbSpline
210
0.0
220
0.0
230
1.0
 70
     8
 71
     3
 72
     8
 73
     4
 74
     0
 42
0.000000001
 43
0.00000001
 40
0.0
 40
0.0
 40
0.0
 40
0.0
 40
1.0
 40
1.0
 40
1.0
 40
1.0
 10
170.0580016099316
 20
161.5749948159086
 30
0.0
 10
169.8026702966262
 20
162.0352158361742
 30
0.0
 10
169.5471068985199
 20
162.4953102964826
 30
0.0
 10
169.2913305877642
 20
162.955288651748
 30
0.0
  0
LINE
  5
CB
330
1F
100
AcDbEntity
  8
0
  6
Continuous
 62
     7
370
    15
100
AcDbLine
 10
175.2011631354
 20
155.4663342118
 30
0.0
 11
179.318001002
 21
155.4663342118
 31
0.0
  0
LINE
  5
CC
330
1F
100
AcDbEntity
  8
0
  6
Continuous
 62
     7
370
    15
100
AcDbLine
 10
179.318001002
 20
163.735100317
 30
0.0
 11
175.2011631354
 21
163.735100317
 31
0.0
  0
LINE
  5
CD
330
1F
100
AcDbEntity
  8
0
  6
Continuous
 62
     7
370
    15
100
AcDbLine
 10
173.0780019163
 20
160.6030215204
 30
0.0
 11
170.8580017759
 21
160.6030215204
 31
0.0
  0
LINE
  5
CE
330
1F
100
AcDbEntity
  8
0
  6
Continuous
 62
     7
370
    15
100
AcDbLine
 10
170.8580017759
 20
151.2951378405
 30
0.0
 11
173.0780019163
 21
151.2951378405
 31
0.0
  0
SPLINE
  5
CF
330
1F
100
AcDbEntity
  8
0
  6
Continuous
 62
     7
370
    15
100
AcDbSpline
210
0.0
220
0.0
230
1.0
 70
     8
 71
     3
 72
    14
 73
    10
 74
     0
 42
0.000000001
 43
0.00000001
 40
0.0
 40
0.0
 40
0.0
 40
0.0
 40
0.25
 40
0.25
 40
0.5
 40
0.5
 40
0.75
 40
0.75
 40
1.0
 40
1.0
 40
1.0
 40
1.0
 10
179.3180016099315
 20
155.466333358754
 30
0.0
 10
179.4085132201811
 20
155.466333358754
 30
0.0
 10
179.4975800546203
 20
155.4393739790157
 30
0.0
 10
179.6502893754884
 20
155.3481887387023
 30
0.0
 10
179.7156953176183
 20
155.2838246595275
 30
0.0
 10
179.8181839797201
 20
155.1372135890128
 30
0.0
 10
179.8558908226386
 20
155.0549760522482
 30
0.0
 10
179.90593146809
 20
154.8825271202249
 30
0.0
 10
179.9180016099315
 20
154.7938981212299
 30
0.0
 10
179.9180016099316
 20
154.7043365217234
 30
0.0
  0
SPLINE
  5
D0
330
1F
100
AcDbEntity
  8
0
  6
Continuous
 62
     7
370
    15
100
AcDbSpline
210
0.0
220
0.0
230
1.0
 70
     8
 71
     3
 72
    12
 73
     8
 74
     0
 42
0.000000001
 43
0.00000001
 40
0.0
 40
0.0
 40
0.0
 40
0.0
 40
0.4999999999999962
 40
0.4999999999999962
 40
0.7499999999999981
 40
0.7499999999999981
 40
1.0
 40
1.0
 40
1.0
 40
1.0
 10
179.9180016099315
 20
163.2502423603093
 30
0.0
 10
179.9180016099316
 20
163.3704349669745
 30
0.0
 10
179.8640331796625
 20
163.4883422674895
 30
0.0
 10
179.7029465387296
 20
163.6277218119729
 30
0.0
 10
179.6381841192565
 20
163.6658871095368
 30
0.0
 10
179.486130117692
 20
163.7205393718702
 30
0.0
 10
179.4034003445428
 20
163.7351000618544
 30
0.0
 10
179.3180016099315
 20
163.7351000618544
 30
0.0
  0
LINE
  5
D1
330
1F
100
AcDbEntity
  8
0
  6
Continuous
 62
     7
370
    15
100
AcDbLine
 10
179.9180018454
 20
154.7043372571
 30
0.0
 11
179.9180018454
 21
163.2502426088
 31
0.0
  0
SPLINE
  5
D2
330
1F
100
AcDbEntity
  8
0
  6
Continuous
 62
     7
370
    15
100
AcDbSpline
210
0.0
220
0.0
230
1.0
 70
     8
 71
     3
 72
    14
 73
    10
 74
     0
 42
0.000000001
 43
0.00000001
 40
0.0
 40
0.0
 40
0.0
 40
0.0
 40
0.25
 40
0.25
 40
0.5
 40
0.5
 40
0.75
 40
0.75
 40
1.0
 40
1.0
 40
1.0
 40
1.0
 10
173.8780016099315
 20
161.4363468954855
 30
0.0
 10
173.8780016099315
 20
161.329004523338
 30
0.0
 10
173.8580054178674
 20
161.2223755164902
 30
0.0
 10
173.7803073335227
 20
161.023223737339
 30
0.0
 10
173.7223141886291
 20
160.9307408390236
 30
0.0
 10
173.5762676958063
 20
160.7755050039144
 30
0.0
 10
173.4869299566386
 20
160.711771062302
 30
0.0
 10
173.2921749445782
 20
160.6259407959068
 30
0.0
 10
173.1846446733693
 20
160.6030216729484
 30
0.0
 10
173.0780016099295
 20
160.6030216729486
 30
0.0
  0
SPLINE
  5
D3
330
1F
100
AcDbEntity
  8
0
  6
Continuous
 62
     7
370
    15
100
AcDbSpline
210
0.0
220
0.0
230
1.0
 70
     8
 71
     3
 72
    14
 73
    10
 74
     0
 42
0.000000001
 43
0.00000001
 40
0.0
 40
0.0
 40
0.0
 40
0.0
 40
0.25
 40
0.25
 40
0.5
 40
0.5
 40
0.75
 40
0.75
 40
1.0
 40
1.0
 40
1.0
 40
1.0
 10
173.0780016099316
 20
151.2951374686119
 30
0.0
 10
173.1993281399173
 20
151.295137468612
 30
0.0
 10
173.3210328484795
 20
151.3339189840451
 30
0.0
 10
173.5274727273656
 20
151.465073605739
 30
0.0
 10
173.6134232658217
 20
151.5557256903262
 30
0.0
 10
173.74733502557
 20
151.7578427252674
 30
0.0
 10
173.7968994623891
 20
151.8715776688066
 30
0.0
 10
173.8617534903571
 20
152.1045372858731
 30
0.0
 10
173.8780016099315
 20
152.2272355522023
 30
0.0
 10
173.8780016099315
 20
152.3482985087959
 30
0.0
  0
SPLINE
  5
D4
330
1F
100
AcDbEntity
  8
0
  6
Continuous
 62
     7
370
    15
100
AcDbSpline
210
0.0
220
0.0
230
1.0
 70
     8
 71
     3
 72
    12
 73
     8
 74
     0
 42
0.000000001
 43
0.00000001
 40
0.0
 40
0.0
 40
0.0
 40
0.0
 40
0.5
 40
0.5
 40
0.75
 40
0.75
 40
1.0
 40
1.0
 40
1.0
 40
1.0
 10
164.0680016099316
 20
154.7043365217232
 30
0.0
 10
164.0680016099315
 20
154.8825080909378
 30
0.0
 10
164.1165819684254
 20
155.0636877892764
 30
0.0
 10
164.2698398287758
 20
155.2832697344746
 30
0.0
 10
164.335745408498
 20
155.3483772776285
 30
0.0
 10
164.489942528417
 20
155.4401098082372
 30
0.0
 10
164.5786066272908
 20
155.4663333587541
 30
0.0
 10
164.6680016099316
 20
155.466333358754
 30
0.0
  0
SPLINE
  5
D5
330
1F
100
AcDbEntity
  8
0
  6
Continuous
 62
     7
370
    15
100
AcDbSpline
210
0.0
220
0.0
230
1.0
 70
     8
 71
     3
 72
    10
 73
     6
 74
     0
 42
0.000000001
 43
0.00000001
 40
0.0
 40
0.0
 40
0.0
 40
0.0
 40
0.5
 40
0.5
 40
1.0
 40
1.0
 40
1.0
 40
1.0
 10
164.3578705288779
 20
163.6654197328016
 30
0.0
 10
164.2814174389591
 20
163.595156961581
 30
0.0
 10
164.21255571669
 20
163.5080620465393
 30
0.0
 10
164.1060434856171
 20
163.298892918287
 30
0.0
 10
164.0680016099315
 20
163.1735753690475
 30
0.0
 10
164.0680016099315
 20
163.0442250744515
 30
0.0
  0
SPLINE
  5
D6
330
1F
100
AcDbEntity
  8
0
  6
Continuous
 62
     7
370
    15
100
AcDbSpline
210
0.0
220
0.0
230
1.0
 70
     8
 71
     3
 72
     8
 73
     4
 74
     0
 42
0.000000001
 43
0.00000001
 40
0.0
 40
0.0
 40
0.0
 40
0.0
 40
1.0
 40
1.0
 40
1.0
 40
1.0
 10
164.6680016099316
 20
163.7351000618544
 30
0.0
 10
164.5569234245941
 20
163.7351000618544
 30
0.0
 10
164.4492594206918
 20
163.7099508862999
 30
0.0
 10
164.3578705288779
 20
163.6654197328016
 30
0.0
  0
LINE
  5
D7
330
1F
100
AcDbEntity
  8
0
  6
Continuous
 62
     7
370
    15
100
AcDbLine
 10
164.0680015291
 20
154.7043372571
 30
0.0
 11
164.0680015291
 21
163.0442266047
 31
0.0
  0
LINE
  5
D8
330
1F
100
AcDbEntity
  8
0
  6
Continuous
 62
     7
370
    15
100
AcDbLine
 10
164.668001674
 20
155.4663342118
 30
0.0
 11
168.7348405569
 21
155.4663342118
 31
0.0
  0
LINE
  5
D9
330
1F
100
AcDbEntity
  8
0
  6
Continuous
 62
     7
370
    15
100
AcDbLine
 10
168.7348405569
 20
163.735100317
 30
0.0
 11
164.668001674
 21
163.735100317
 31
0.0
  0
LINE
  5
DA
330
1F
100
AcDbEntity
  8
0
  6
Continuous
 62
     7
370
    15
100
AcDbLine
 10
170.0580012723
 20
152.5223900258
 30
0.0
 11
170.0580012723
 21
152.3482997596
 31
0.0
  0
LINE
  5
DB
330
1F
100
AcDbEntity
  8
0
  6
Continuous
 62
     7
370
    15
100
AcDbLine
 10
173.8780014886
 20
152.3482997596
 30
0.0
 11
173.8780014886
 21
152.5223900258
 31
0.0
  0
LINE
  5
DC
330
1F
100
AcDbEntity
  8
0
  6
Continuous
 62
     7
370
    15
100
AcDbLine
 10
179.9180018454
 20
154.7043372571
 30
0.0
 11
179.9180018454
 21
147.906466636
 31
0.0
  0
LINE
  5
DD
330
1F
100
AcDbEntity
  8
0
  6
Continuous
 62
     7
370
    15
100
AcDbLine
 10
164.0680015291
 20
154.7043372571
 30
0.0
 11
164.0680015291
 21
146.8052559227
 31
0.0
  0
LINE
  5
DE
330
1F
100
AcDbEntity
  8
0
  6
Continuous
 62
     7
370
    15
100
AcDbLine
 10
59.2680028378
 20
98.5764109224
 30
0.0
 11
59.2680028378
 21
135.3338726491
 31
0.0
  0
LINE
  5
DF
330
1F
100
AcDbEntity
  8
0
  6
Continuous
 62
     7
370
    15
100
AcDbLine
 10
220.8181149064
 20
156.955254513
 30
0.0
 11
234.8180017172
 21
156.955254513
 31
0.0
  0
SPLINE
  5
E0
330
1F
100
AcDbEntity
  8
0
  6
Continuous
 62
     7
370
    15
100
AcDbSpline
210
0.0
220
0.0
230
1.0
 70
     8
 71
     3
 72
    11
 73
     7
 74
     0
 42
0.000000001
 43
0.00000001
 40
0.0
 40
0.0
 40
0.0
 40
0.0
 40
0.2164566324242997
 40
0.440314726267334
 40
0.751903252224376
 40
1.0
 40
1.0
 40
1.0
 40
1.0
 10
223.8050154148441
 20
114.6684908468116
 30
0.0
 10
224.0781223169243
 20
114.508747880573
 30
0.0
 10
224.6336746669923
 20
114.1837997389306
 30
0.0
 10
225.6646314861572
 20
113.5807885133756
 30
0.0
 10
226.7705074386072
 20
112.9339516453839
 30
0.0
 10
227.4781984571888
 20
112.520015907801
 30
0.0
 10
227.7919030486446
 20
112.3365268736917
 30
0.0
  0
SPLINE
  5
E1
330
1F
100
AcDbEntity
  8
0
  6
Continuous
 62
     7
370
    15
100
AcDbSpline
210
0.0
220
0.0
230
1.0
 70
     8
 71
     3
 72
    11
 73
     7
 74
     0
 42
0.000000001
 43
0.00000001
 40
0.0
 40
0.0
 40
0.0
 40
0.0
 40
0.1845134175491663
 40
0.5180565143496085
 40
0.8676122038657492
 40
1.0
 40
1.0
 40
1.0
 40
1.0
 10
231.8048900662762
 20
114.623291433959
 30
0.0
 10
231.806404242488
 20
114.8915244413978
 30
0.0
 10
231.8106555802001
 20
115.6446396278867
 30
0.0
 10
231.8185930995005
 20
117.0484263189133
 30
0.0
 10
231.8259594316944
 20
118.3528224271624
 30
0.0
 10
231.829899641024
 20
119.0503987587843
 30
0.0
 10
231.8309819995266
 20
119.2420199673462
 30
0.0
  0
SPLINE
  5
E2
330
1F
100
AcDbEntity
  8
0
  6
Continuous
 62
     7
370
    15
100
AcDbSpline
210
0.0
220
0.0
230
1.0
 70
     8
 71
     3
 72
    11
 73
     7
 74
     0
 42
0.000000001
 43
0.00000001
 40
0.0
 40
0.0
 40
0.0
 40
0.0
 40
0.2164566474710665
 40
0.4403134462631149
 40
0.7519019938799224
 40
1.0
 40
1.0
 40
1.0
 40
1.0
 10
231.8309819995266
 20
119.2420199673462
 30
0.0
 10
231.5578749050699
 20
119.4017626172533
 30
0.0
 10
231.0023238172928
 20
119.7267091481986
 30
0.0
 10
229.9713724498357
 20
120.3297247863351
 30
0.0
 10
228.8654964144813
 20
120.9765607890596
 30
0.0
 10
228.1578015400598
 20
121.3904950499379
 30
0.0
 10
227.8440943657261
 20
121.5739839404661
 30
0.0
  0
SPLINE
  5
E3
330
1F
100
AcDbEntity
  8
0
  6
Continuous
 62
     7
370
    15
100
AcDbSpline
210
0.0
220
0.0
230
1.0
 70
     8
 71
     3
 72
    11
 73
     7
 74
     0
 42
0.000000001
 43
0.00000001
 40
0.0
 40
0.0
 40
0.0
 40
0.0
 40
0.216456776748217
 40
0.4403146021291202
 40
0.7519031039475264
 40
1.0
 40
1.0
 40
1.0
 40
1.0
 10
227.8440943657261
 20
121.5739839404661
 30
0.0
 10
227.5691998485496
 20
121.4173372261634
 30
0.0
 10
227.0100116735411
 20
121.0986877631195
 30
0.0
 10
225.9723086256023
 20
120.5073638668533
 30
0.0
 10
224.8591959865
 20
119.8730634757681
 30
0.0
 10
224.1468728358443
 20
119.4671516500378
 30
0.0
 10
223.8311147986751
 20
119.2872193801987
 30
0.0
  0
SPLINE
  5
E4
330
1F
100
AcDbEntity
  8
0
  6
Continuous
 62
     7
370
    15
100
AcDbSpline
210
0.0
220
0.0
230
1.0
 70
     8
 71
     3
 72
    11
 73
     7
 74
     0
 42
0.000000001
 43
0.00000001
 40
0.0
 40
0.0
 40
0.0
 40
0.0
 40
0.1323878169757752
 40
0.4819435147284605
 40
0.8154866206570746
 40
1.0
 40
1.0
 40
1.0
 40
1.0
 10
223.8311147986751
 20
119.2872193801987
 30
0.0
 10
223.8300327033374
 20
119.0955981307638
 30
0.0
 10
223.8260934524135
 20
118.3980217180773
 30
0.0
 10
223.81871103837
 20
117.0936256534565
 30
0.0
 10
223.8107938813101
 20
115.6898388356299
 30
0.0
 10
223.8065329925666
 20
114.93672377053
 30
0.0
 10
223.8050154148441
 20
114.6684908468116
 30
0.0
  0
CIRCLE
  5
E5
330
1F
100
AcDbEntity
  8
0
  6
Continuous
 62
     7
370
    15
100
AcDbCircle
 10
227.8180016099
 20
116.9552554071
 30
0.0
 40
4.69999999999999
  0
SPLINE
  5
E6
330
1F
100
AcDbEntity
  8
0
  6
Continuous
 62
     7
370
    15
100
AcDbSpline
210
0.0
220
0.0
230
1.0
 70
     8
 71
     3
 72
    11
 73
     7
 74
     0
 42
0.000000001
 43
0.00000001
 40
0.0
 40
0.0
 40
0.0
 40
0.0
 40
0.2164577468051476
 40
0.440313970826794
 40
0.751903416670724
 40
1.0
 40
1.0
 40
1.0
 40
1.0
 10
227.7919030486446
 20
112.3365268736917
 30
0.0
 10
228.066800478221
 20
112.4931729503906
 30
0.0
 10
228.6259912698343
 20
112.8118192315414
 30
0.0
 10
229.6636906344527
 20
113.4031517458696
 30
0.0
 10
230.776807961006
 20
114.0374450760832
 30
0.0
 10
231.4891322698694
 20
114.4433587670567
 30
0.0
 10
231.8048900662762
 20
114.623291433959
 30
0.0
  0
CIRCLE
  5
E7
330
1F
100
AcDbEntity
  8
0
  6
Continuous
 62
     7
370
    15
100
AcDbCircle
 10
227.8180016099
 20
116.9552554071
 30
0.0
 40
7.000000000000011
  0
CIRCLE
  5
E8
330
1F
100
AcDbEntity
  8
0
  6
Continuous
 62
     7
370
    15
100
AcDbCircle
 10
227.8180016099
 20
116.9552554071
 30
0.0
 40
7.999999999999996
  0
ARC
  5
E9
330
1F
100
AcDbEntity
  8
0
  6
Continuous
 62
     7
370
    15
100
AcDbCircle
 10
227.8180016099
 20
116.9552554071
 30
0.0
 40
3.999999999999994
100
AcDbArc
 50
59.6762822614
 51
119.6762822614
  0
ARC
  5
EA
330
1F
100
AcDbEntity
  8
0
  6
Continuous
 62
     7
370
    15
100
AcDbCircle
 10
227.8180016099
 20
116.9552554071
 30
0.0
 40
3.999999999999998
100
AcDbArc
 50
359.6762822614
 51
59.6762822614
  0
ARC
  5
EB
330
1F
100
AcDbEntity
  8
0
  6
Continuous
 62
     7
370
    15
100
AcDbCircle
 10
227.8180016099
 20
116.9552554071
 30
0.0
 40
4.000000000000012
100
AcDbArc
 50
179.6762822614
 51
239.6762822614
  0
ARC
  5
EC
330
1F
100
AcDbEntity
  8
0
  6
Continuous
 62
     7
370
    15
100
AcDbCircle
 10
227.8180016099
 20
116.9552554071
 30
0.0
 40
3.999999999999998
100
AcDbArc
 50
119.6762822614
 51
179.6762822614
  0
ARC
  5
ED
330
1F
100
AcDbEntity
  8
0
  6
Continuous
 62
     7
370
    15
100
AcDbCircle
 10
227.8180016099
 20
116.9552554071
 30
0.0
 40
4.000000000000006
100
AcDbArc
 50
299.6762822614
 51
359.6762822614
  0
ARC
  5
EE
330
1F
100
AcDbEntity
  8
0
  6
Continuous
 62
     7
370
    15
100
AcDbCircle
 10
227.8180016099
 20
116.9552554071
 30
0.0
 40
4.000000000000012
100
AcDbArc
 50
239.6762822614
 51
299.6762822614
  0
ARC
  5
EF
330
1F
100
AcDbEntity
  8
0
  6
Continuous
 62
     7
370
    15
100
AcDbCircle
 10
174.9338510792
 20
101.7663841645
 30
0.0
 40
2.369707250905896
100
AcDbArc
 50
185.6203299175
 51
252.2890843555
  0
ARC
  5
F0
330
1F
100
AcDbEntity
  8
0
  6
Continuous
 62
     7
370
    15
100
AcDbCircle
 10
175.0847094461
 20
101.8735477732
 30
0.0
 40
2.520135433679694
100
AcDbArc
 50
249.7622145608
 51
339.9433461867
  0
ARC
  5
F1
330
1F
100
AcDbEntity
  8
0
  6
Continuous
 62
     7
370
    15
100
AcDbCircle
 10
174.8969010562
 20
101.6713385348
 30
0.0
 40
2.181399248729546
100
AcDbArc
 50
159.26752016
 51
253.0470182115
  0
ARC
  5
F2
330
1F
100
AcDbEntity
  8
0
  6
Continuous
 62
     7
370
    15
100
AcDbCircle
 10
175.0854325171
 20
101.8035235332
 30
0.0
 40
2.367064187020484
100
AcDbArc
 50
249.6127475989
 51
345.549823666
  0
ARC
  5
F3
330
1F
100
AcDbEntity
  8
0
  6
Continuous
 62
     7
370
    15
100
AcDbCircle
 10
174.9157248648
 20
101.6621172878
 30
0.0
 40
1.838097904878298
100
AcDbArc
 50
124.090218903
 51
253.1838809708
  0
ARC
  5
F4
330
1F
100
AcDbEntity
  8
0
  6
Continuous
 62
     7
370
    15
100
AcDbCircle
 10
175.0918270372
 20
101.7494324439
 30
0.0
 40
1.977824793145185
100
AcDbArc
 50
249.0286405794
 51
357.659602652
  0
LWPOLYLINE
  5
F5
330
1F
100
AcDbEntity
  8
0
  6
HIDDEN
 62
     7
370
     0
100
AcDbPolyline
 90
       21
 70
   128
 43
0.0
 10
175.0680017023
 20
101.0979388535
 10
175.8405440225
 20
101.2129180759
 10
176.5374648123
 20
101.5466016412
 10
177.0905437617
 20
102.0663262039
 10
177.4456421583
 20
102.7212173372
 10
177.5680011808
 20
103.4471702456
 10
177.4456421583
 20
104.1731222227
 10
177.0905437617
 20
104.828013356
 10
176.5374648123
 20
105.3477379188
 10
175.8405440225
 20
105.681421484
 10
175.0680017023
 20
105.7964016378
 10
174.2954593821
 20
105.681421484
 10
173.5985385923
 20
105.3477379188
 10
173.0454587116
 20
104.828013356
 10
172.690360315
 20
104.1731222227
 10
172.5680012925
 20
103.4471702456
 10
172.690360315
 20
102.7212173372
 10
173.0454587116
 20
102.0663262039
 10
173.5985385923
 20
101.5466016412
 10
174.2954593821
 20
101.2129180759
 10
175.0680017023
 20
101.0979388535
  0
LWPOLYLINE
  5
F6
330
1F
100
AcDbEntity
  8
0
  6
HIDDEN
 62
     7
370
     0
100
AcDbPolyline
 90
       23
 70
   128
 43
0.0
 10
164.3397325854
 20
103.0503951639
 10
164.5450405515
 20
102.221620518
 10
164.8673079646
 20
101.4599886417
 10
165.2804263606
 20
100.8272015184
 10
165.7509272656
 20
100.3745247304
 10
166.2406935095
 20
100.1386300355
 10
166.7100474908
 20
100.1386300355
 10
167.1209647058
 20
100.3745247304
 10
167.4401550292
 20
100.8272015184
 10
167.6417593582
 20
101.4599886417
 10
167.7094455547
 20
102.221620518
 10
167.6377295255
 20
103.0503951639
 10
167.4324213265
 20
103.8791698098
 10
167.1101539134
 20
104.6408026174
 10
166.6970355174
 20
105.2735888094
 10
166.2265346124
 20
105.7262665286
 10
165.7367683685
 20
105.9621602923
 10
165.2674143872
 20
105.9621602923
 10
164.8564971722
 20
105.7262665286
 10
164.5373070816
 20
105.2735888094
 10
164.3357025198
 20
104.6408026174
 10
164.2680165562
 20
103.8791698098
 10
164.3397325854
 20
103.0503951639
  0
LWPOLYLINE
  5
F7
330
1F
100
AcDbEntity
  8
0
  6
HIDDEN
 62
     7
370
     0
100
AcDbPolyline
 90
       19
 70
   128
 43
0.0
 10
165.1027644723
 20
103.1146573528
 10
165.29008371
 20
102.4103707328
 10
165.5940348021
 20
101.7910319075
 10
165.9779571666
 20
101.3313422605
 10
166.3955435826
 20
101.0867462188
 10
166.7964271939
 20
101.0867462188
 10
167.1322560607
 20
101.3313422605
 10
167.362523239
 20
101.7910319075
 10
167.4594557582
 20
102.4103707328
 10
167.4113622605
 20
103.1146573528
 10
167.2240430227
 20
103.8189430415
 10
166.920091465
 20
104.4382818669
 10
166.5361695661
 20
104.8979724452
 10
166.1185826844
 20
105.1425675556
 10
165.7176990731
 20
105.1425675556
 10
165.381870672
 20
104.8979724452
 10
165.1516030281
 20
104.4382818669
 10
165.0546705088
 20
103.8189430415
 10
165.1027644723
 20
103.1146573528
  0
SPLINE
  5
F8
330
1F
100
AcDbEntity
  8
0
  6
HIDDEN
 62
     7
370
     0
100
AcDbSpline
210
0.0
220
0.0
230
1.0
 70
     8
 71
     3
 72
     9
 73
     5
 74
     0
 42
0.000000001
 43
0.00000001
 40
0.0
 40
0.0
 40
0.0
 40
0.0
 40
0.9851257384120711
 40
1.0
 40
1.0
 40
1.0
 40
1.0
 10
221.4193842111927
 20
156.4520832776863
 30
0.0
 10
221.8367932768269
 20
156.3957262379668
 30
0.0
 10
222.2605047375658
 20
156.3385182719965
 30
0.0
 10
222.7529002040545
 20
156.2941685154321
 30
0.0
 10
222.7602242230278
 20
156.2935088455516
 30
0.0
  0
LINE
  5
F9
330
1F
100
AcDbEntity
  8
0
  6
HIDDEN
 62
     7
370
     0
100
AcDbLine
 10
179.9180018454
 20
155.0317381203
 30
0.0
 11
182.9180023371
 21
155.0317381203
 31
0.0
  0
SPLINE
  5
FA
330
1F
100
AcDbEntity
  8
0
  6
HIDDEN
 62
     7
370
     0
100
AcDbSpline
210
0.0
220
0.0
230
1.0
 70
     8
 71
     3
 72
     9
 73
     5
 74
     0
 42
0.000000001
 43
0.00000001
 40
0.0
 40
0.0
 40
0.0
 40
0.0
 40
0.2310717639179324
 40
1.0
 40
1.0
 40
1.0
 40
1.0
 10
182.2425215243202
 20
155.0936449944812
 30
0.0
 10
182.0659353262517
 20
155.0829018443765
 30
0.0
 10
181.3017303231198
 20
155.0364091447815
 30
0.0
 10
180.5194891617629
 20
155.0337685489762
 30
0.0
 10
179.9180018453699
 20
155.0317381203014
 30
0.0
  0
CIRCLE
  5
FB
330
1F
100
AcDbEntity
  8
0
  6
HIDDEN
 62
     7
370
     0
100
AcDbCircle
 10
227.8180016099
 20
116.9552554071
 30
0.0
 40
7.250000000000014
  0
ELLIPSE
  5
FC
330
1F
100
AcDbEntity
  8
0
  6
HIDDEN
 62
     7
370
     0
100
AcDbEllipse
 10
175.0680016099
 20
105.2247452957
 30
0.0
 11
1.760776919379083
 21
2.232245799914466
 31
0.0
210
0.0
220
0.0
230
1.0
 40
0.5126701559
 41
1.100887047646269
 42
4.029627027608305
  0
ARC
  5
FD
330
1F
100
AcDbEntity
  8
0
  6
HIDDEN
 62
     7
370
     0
100
AcDbCircle
 10
174.3714021414
 20
106.4022851769
 30
0.0
 40
0.7945949542257675
100
AcDbArc
 50
53.4208190544
 51
99.1663888759
  0
ELLIPSE
  5
FE
330
1F
100
AcDbEntity
  8
0
  6
HIDDEN
 62
     7
370
     0
100
AcDbEllipse
 10
175.0680016099
 20
105.2247452957
 30
0.0
 11
1.760776919379083
 21
-1.388886188042946
 31
0.0
210
0.0
220
0.0
230
1.0
 40
0.8239737799
 41
2.54992626524854
 42
4.885930273856088
  0
ARC
  5
FF
330
1F
100
AcDbEntity
  8
0
  6
HIDDEN
 62
     7
370
     0
100
AcDbCircle
 10
175.3140543718
 20
104.3852677317
 30
0.0
 40
1.353195702694788
100
AcDbArc
 50
217.8001040701
 51
249.7155767561
  0
LWPOLYLINE
  5
100
330
1F
100
AcDbEntity
  8
0
  6
HIDDEN
 62
     7
370
     0
100
AcDbPolyline
 90
       19
 70
   128
 43
0.0
 10
175.0680017023
 20
101.5236091494
 10
175.7862441911
 20
101.6426172733
 10
176.4178559854
 20
101.9852862388
 10
176.8866548984
 20
102.5102867439
 10
177.1360984742
 20
103.1542944416
 10
177.1360984742
 20
103.8396333039
 10
176.8866548984
 20
104.4836410016
 10
176.4178559854
 20
105.0086415067
 10
175.7862441911
 20
105.3513104722
 10
175.0680017023
 20
105.470318596
 10
174.3497592135
 20
105.3513104722
 10
173.7181474193
 20
105.0086415067
 10
173.2493485062
 20
104.4836410016
 10
172.9999049305
 20
103.8396333039
 10
172.9999049305
 20
103.1542944416
 10
173.2493485062
 20
102.5102867439
 10
173.7181474193
 20
101.9852862388
 10
174.3497592135
 20
101.6426172733
 10
175.0680017023
 20
101.5236091494
  0
SPLINE
  5
101
330
1F
100
AcDbEntity
  8
0
  6
HIDDEN
 62
     7
370
     0
100
AcDbSpline
210
0.0
220
0.0
230
1.0
 70
     8
 71
     3
 72
     8
 73
     4
 74
     0
 42
0.000000001
 43
0.00000001
 40
0.0
 40
0.0
 40
0.0
 40
0.0
 40
1.0
 40
1.0
 40
1.0
 40
1.0
 10
174.2448214337722
 20
107.1867333716003
 30
0.0
 10
174.4562488237734
 20
107.1792238618178
 30
0.0
 10
174.6587173703061
 20
107.1251003321831
 30
0.0
 10
174.8449279694435
 20
107.0403720449579
 30
0.0
  0
SPLINE
  5
102
330
1F
100
AcDbEntity
  8
0
  6
HIDDEN
 62
     7
370
     0
100
AcDbSpline
210
0.0
220
0.0
230
1.0
 70
     8
 71
     3
 72
     8
 73
     4
 74
     0
 42
0.000000001
 43
0.00000001
 40
0.0
 40
0.0
 40
0.0
 40
0.0
 40
1.0
 40
1.0
 40
1.0
 40
1.0
 10
174.8449279694435
 20
103.1159932770237
 30
0.0
 10
174.6584036201591
 20
103.2383136929242
 30
0.0
 10
174.4558487216335
 20
103.3793988535889
 30
0.0
 10
174.2448214337721
 20
103.5558824893738
 30
0.0
  0
SPLINE
  5
103
330
1F
100
AcDbEntity
  8
0
  6
HIDDEN
 62
     7
370
     0
100
AcDbSpline
210
0.0
220
0.0
230
1.0
 70
    11
 71
     3
 72
    64
 73
    60
 74
     0
 42
0.000000001
 43
0.00000001
 40
0.0
 40
0.0
 40
0.0
 40
0.0
 40
0.0312499999999997
 40
0.0312499999999997
 40
0.0624999999999994
 40
0.0624999999999994
 40
0.0937499999999991
 40
0.0937499999999991
 40
0.1249999999999988
 40
0.1249999999999988
 40
0.1874999999999988
 40
0.1874999999999988
 40
0.2187499999999989
 40
0.2187499999999989
 40
0.2499999999999989
 40
0.2499999999999989
 40
0.2812499999999991
 40
0.2812499999999991
 40
0.3124999999999991
 40
0.3124999999999991
 40
0.3437499999999992
 40
0.3437499999999992
 40
0.3749999999999993
 40
0.3749999999999993
 40
0.4062499999999994
 40
0.4062499999999994
 40
0.4374999999999995
 40
0.4374999999999995
 40
0.4687499999999996
 40
0.4687499999999996
 40
0.4999999999999997
 40
0.4999999999999997
 40
0.5312499999999997
 40
0.5312499999999997
 40
0.5624999999999998
 40
0.5624999999999998
 40
0.5937499999999998
 40
0.5937499999999998
 40
0.6249999999999998
 40
0.6249999999999998
 40
0.6875
 40
0.6875
 40
0.7187500000000001
 40
0.7187500000000001
 40
0.7500000000000002
 40
0.7500000000000002
 40
0.7812500000000003
 40
0.7812500000000003
 40
0.8125000000000003
 40
0.8125000000000003
 40
0.8750000000000004
 40
0.8750000000000004
 40
0.9062500000000003
 40
0.9062500000000003
 40
0.9375000000000002
 40
0.9375000000000002
 40
0.9687500000000002
 40
0.9687500000000002
 40
1.0
 40
1.0
 40
1.0
 40
1.0
 10
175.0680016099316
 20
113.0595773039958
 30
0.0
 10
175.2079438885551
 20
113.0595773039958
 30
0.0
 10
175.3453053881089
 20
113.0708005935323
 30
0.0
 10
175.6151596014223
 20
113.1148149519551
 30
0.0
 10
175.7490803762313
 20
113.1481968864134
 30
0.0
 10
176.0027723673836
 20
113.2352150109671
 30
0.0
 10
176.1229174695773
 20
113.2885977350342
 30
0.0
 10
176.3503052943206
 20
113.4158778905203
 30
0.0
 10
176.4569973203743
 20
113.4898281983759
 30
0.0
 10
176.7450539088914
 20
113.7353787380159
 30
0.0
 10
176.901139911582
 20
113.9371555267972
 30
0.0
 10
177.0589213641202
 20
114.2752322049691
 30
0.0
 10
177.0998824189902
 20
114.3959451569835
 30
0.0
 10
177.154299180377
 20
114.6447985770636
 30
0.0
 10
177.1679088900219
 20
114.7719227054189
 30
0.0
 10
177.16809339468
 20
115.0317127863918
 30
0.0
 10
177.1541843533514
 20
115.1652939700581
 30
0.0
 10
177.1000435580036
 20
115.4256991786744
 30
0.0
 10
177.0599956321297
 20
115.5539707775582
 30
0.0
 10
176.9535234719377
 20
115.8062166963091
 30
0.0
 10
176.888384373112
 20
115.926926373087
 30
0.0
 10
176.7366726486215
 20
116.1550521980788
 30
0.0
 10
176.6488355261128
 20
116.2639247328373
 30
0.0
 10
176.4557050698435
 20
116.462113443043
 30
0.0
 10
176.3508346090832
 20
116.5514777898614
 30
0.0
 10
176.1241252534994
 20
116.7101117415768
 30
0.0
 10
176.0014374978617
 20
116.7794334403379
 30
0.0
 10
175.7488857269638
 20
116.8905194828748
 30
0.0
 10
175.6178800481358
 20
116.9332732048549
 30
0.0
 10
175.3457911154686
 20
116.9914996994736
 30
0.0
 10
175.2066354046769
 20
117.0062283843619
 30
0.0
 10
174.931016711155
 20
117.0063438927155
 30
0.0
 10
174.7920328509764
 20
116.9917676857991
 30
0.0
 10
174.519620326211
 20
116.9337137700168
 30
0.0
 10
174.3882795077649
 20
116.8909749437253
 30
0.0
 10
174.1347992517361
 20
116.779591510514
 30
0.0
 10
174.0121185644594
 20
116.7102466222054
 30
0.0
 10
173.7856324388881
 20
116.5518357091253
 30
0.0
 10
173.6804887419058
 20
116.4623485349422
 30
0.0
 10
173.3892942924549
 20
116.1634087369548
 30
0.0
 10
173.2355150549283
 20
115.9317785307242
 30
0.0
 10
173.0762601079082
 20
115.5546117024946
 30
0.0
 10
173.0362353619826
 20
115.4266443139678
 30
0.0
 10
172.9820183042507
 20
115.1666308139934
 30
0.0
 10
172.9679920273052
 20
115.0330386439648
 30
0.0
 10
172.9680112026376
 20
114.7729570188735
 30
0.0
 10
172.9815669719727
 20
114.6456812481754
 30
0.0
 10
173.0359406667018
 20
114.3965145684215
 30
0.0
 10
173.0768241464227
 20
114.275848433294
 30
0.0
 10
173.2349125801535
 20
113.9369221607337
 30
0.0
 10
173.3908624701132
 20
113.7353533132746
 30
0.0
 10
173.6796901327021
 20
113.4892948229241
 30
0.0
 10
173.7868879997082
 20
113.4151481574505
 30
0.0
 10
174.0134544900621
 20
113.2884553623212
 30
0.0
 10
174.1334436366828
 20
113.2351138391947
 30
0.0
 10
174.3875815500153
 20
113.1479992276531
 30
0.0
 10
174.521230746557
 20
113.1147408610187
 30
0.0
 10
174.7907033023077
 20
113.0708106659358
 30
0.0
 10
174.928059331308
 20
113.0595773039958
 30
0.0
 10
175.0680016099315
 20
113.0595773039958
 30
0.0
  0
LINE
  5
104
330
1F
100
AcDbEntity
  8
0
  6
HIDDEN
 62
     7
370
     0
100
AcDbLine
 10
205.3680023848
 20
116.9552554071
 30
0.0
 11
205.3680023848
 21
99.4552553326
 31
0.0
  0
LINE
  5
105
330
1F
100
AcDbEntity
  8
0
  6
HIDDEN
 62
     7
370
     0
100
AcDbLine
 10
205.3680023848
 20
134.4552554816
 30
0.0
 11
205.3680023848
 21
116.9552554071
 31
0.0
  0
LINE
  5
106
330
1F
100
AcDbEntity
  8
0
  6
HIDDEN
 62
     7
370
     0
100
AcDbLine
 10
210.2340287267
 20
116.9552554071
 30
0.0
 11
210.2340287267
 21
98.9552561819
 31
0.0
  0
LINE
  5
107
330
1F
100
AcDbEntity
  8
0
  6
HIDDEN
 62
     7
370
     0
100
AcDbLine
 10
210.2340287267
 20
134.9552546322
 30
0.0
 11
210.2340287267
 21
116.9552554071
 31
0.0
  0
SPLINE
  5
108
330
1F
100
AcDbEntity
  8
0
  6
HIDDEN
 62
     7
370
     0
100
AcDbSpline
210
0.0
220
0.0
230
1.0
 70
     8
 71
     3
 72
    13
 73
     9
 74
     0
 42
0.000000001
 43
0.00000001
 40
0.0
 40
0.0
 40
0.0
 40
0.0
 40
0.202547510839078
 40
0.4046764411017765
 40
0.6174322529685714
 40
0.7266921452381025
 40
0.8394359198361557
 40
1.0
 40
1.0
 40
1.0
 40
1.0
 10
227.8180024324757
 20
133.4306162476379
 30
0.0
 10
228.5956579317113
 20
133.463960516557
 30
0.0
 10
230.1493618431058
 20
133.5305801458055
 30
0.0
 10
232.2388300484317
 20
133.9849642176685
 30
0.0
 10
233.6287838973888
 20
134.4164325972737
 30
0.0
 10
234.4326410273092
 20
134.7065569183531
 30
0.0
 10
234.9586487138206
 20
134.9104051593614
 30
0.0
 10
234.9818650914532
 20
134.9204622253063
 30
0.0
 10
234.995504349361
 20
134.9263705938894
 30
0.0
  0
LINE
  5
109
330
1F
100
AcDbEntity
  8
0
  6
HIDDEN
 62
     7
370
     0
100
AcDbLine
 10
228.5061380564
 20
133.4781453639
 30
0.0
 11
226.9369638263
 21
133.4660102308
 31
0.0
  0
SPLINE
  5
10A
330
1F
100
AcDbEntity
  8
0
  6
HIDDEN
 62
     7
370
     0
100
AcDbSpline
210
0.0
220
0.0
230
1.0
 70
     8
 71
     3
 72
    14
 73
    10
 74
     0
 42
0.000000001
 43
0.00000001
 40
0.0
 40
0.0
 40
0.0
 40
0.0
 40
0.1319545836047729
 40
0.3295502647461255
 40
0.5360001840917911
 40
0.7553937611984427
 40
0.8625318944912298
 40
0.9733107763687885
 40
1.0
 40
1.0
 40
1.0
 40
1.0
 10
220.6545858382088
 20
134.9206224709588
 30
0.0
 10
220.6513959822579
 20
134.9217202652026
 30
0.0
 10
220.6434294695049
 20
134.9244619538488
 30
0.0
 10
221.4631700062187
 20
134.6027755318358
 30
0.0
 10
222.9319859288588
 20
134.1116234855509
 30
0.0
 10
224.6687913253532
 20
133.6976908449932
 30
0.0
 10
226.2582821579399
 20
133.4898601547052
 30
0.0
 10
227.1905726978271
 20
133.4342611323885
 30
0.0
 10
227.7159928993733
 20
133.4312088446589
 30
0.0
 10
227.8180024324757
 20
133.4306162476379
 30
0.0
  0
ELLIPSE
  5
10B
330
1F
100
AcDbEntity
  8
0
  6
HIDDEN
 62
     7
370
     0
100
AcDbEllipse
 10
164.2395744852
 20
79.6552554071
 30
0.0
 11
0.0
 21
2.0
 31
0.0
210
0.0
220
0.0
230
1.0
 40
0.4142135624
 41
4.712388980384695
 42
6.283185307179586
  0
LINE
  5
10C
330
1F
100
AcDbEntity
  8
0
  6
HIDDEN
 62
     7
370
     0
100
AcDbLine
 10
164.2395744304
 20
81.655253905
 30
0.0
 11
164.0680015291
 21
81.655253905
 31
0.0
  0
LINE
  5
10D
330
1F
100
AcDbEntity
  8
0
  6
HIDDEN
 62
     7
370
     0
100
AcDbLine
 10
164.0680015291
 20
154.4552568972
 30
0.0
 11
164.2395744304
 21
154.4552568972
 31
0.0
  0
ELLIPSE
  5
10E
330
1F
100
AcDbEntity
  8
0
  6
HIDDEN
 62
     7
370
     0
100
AcDbEllipse
 10
164.2395744852
 20
156.4552554071
 30
0.0
 11
0.0
 21
2.0
 31
0.0
210
0.0
220
0.0
230
1.0
 40
0.4142135624
 41
3.141592653589793
 42
4.712388980384695
  0
LINE
  5
10F
330
1F
100
AcDbEntity
  8
0
  6
HIDDEN
 62
     7
370
     0
100
AcDbLine
 10
165.0680014602
 20
70.76934098
 30
0.0
 11
164.2836616113
 21
70.3217995047
 31
0.0
  0
LINE
  5
110
330
1F
100
AcDbEntity
  8
0
  6
HIDDEN
 62
     7
370
     0
100
AcDbLine
 10
164.3578705582
 20
163.665418762
 30
0.0
 11
165.0680014602
 21
162.9552890241
 31
0.0
  0
LINE
  5
111
330
1F
100
AcDbEntity
  8
0
  6
HIDDEN
 62
     7
370
     0
100
AcDbLine
 10
179.9180018454
 20
154.4552568972
 30
0.0
 11
190.7680011093
 21
154.4552568972
 31
0.0
  0
LINE
  5
112
330
1F
100
AcDbEntity
  8
0
  6
HIDDEN
 62
     7
370
     0
100
AcDbLine
 10
169.1879541351
 20
70.76934098
 30
0.0
 11
165.0680014602
 21
70.76934098
 31
0.0
  0
LINE
  5
113
330
1F
100
AcDbEntity
  8
0
  6
HIDDEN
 62
     7
370
     0
100
AcDbLine
 10
179.9180018454
 20
70.76934098
 30
0.0
 11
174.7480495571
 21
70.76934098
 31
0.0
  0
LINE
  5
114
330
1F
100
AcDbEntity
  8
0
  6
HIDDEN
 62
     7
370
     0
100
AcDbLine
 10
165.0680014602
 20
70.76934098
 30
0.0
 11
165.0680014602
 21
79.6552535772
 31
0.0
  0
LINE
  5
115
330
1F
100
AcDbEntity
  8
0
  6
HIDDEN
 62
     7
370
     0
100
AcDbLine
 10
165.0680014602
 20
162.9552890241
 30
0.0
 11
169.2913309409
 21
162.9552890241
 31
0.0
  0
LINE
  5
116
330
1F
100
AcDbEntity
  8
0
  6
HIDDEN
 62
     7
370
     0
100
AcDbLine
 10
174.6446727513
 20
162.9552890241
 30
0.0
 11
179.9180018454
 21
162.9552890241
 31
0.0
  0
LINE
  5
117
330
1F
100
AcDbEntity
  8
0
  6
HIDDEN
 62
     7
370
     0
100
AcDbLine
 10
165.0680014602
 20
162.9552890241
 30
0.0
 11
165.0680014602
 21
156.455257225
 31
0.0
  0
LINE
  5
118
330
1F
100
AcDbEntity
  8
0
  6
HIDDEN
 62
     7
370
     0
100
AcDbLine
 10
164.2395744304
 20
154.4552568972
 30
0.0
 11
179.9180018454
 21
154.4552568972
 31
0.0
  0
LINE
  5
119
330
1F
100
AcDbEntity
  8
0
  6
HIDDEN
 62
     7
370
     0
100
AcDbLine
 10
179.9180018454
 20
81.655253905
 30
0.0
 11
164.2395744304
 21
81.655253905
 31
0.0
  0
LINE
  5
11A
330
1F
100
AcDbEntity
  8
0
  6
HIDDEN
 62
     7
370
     0
100
AcDbLine
 10
190.7680011093
 20
81.655253905
 30
0.0
 11
179.9180018454
 21
81.655253905
 31
0.0
  0
LINE
  5
11B
330
1F
100
AcDbEntity
  8
0
  6
HIDDEN
 62
     7
370
     0
100
AcDbLine
 10
69.2680007516
 20
104.4552552208
 30
0.0
 11
69.2680007516
 21
129.4552555933
 31
0.0
  0
LINE
  5
11C
330
1F
100
AcDbEntity
  8
0
  6
HIDDEN
 62
     7
370
     0
100
AcDbLine
 10
72.5526041089
 20
106.4552555486
 30
0.0
 11
72.5526041089
 21
127.4552552655
 31
0.0
  0
LINE
  5
11D
330
1F
100
AcDbEntity
  8
0
  6
HIDDEN
 62
     7
370
     0
100
AcDbLine
 10
121.2680018245
 20
106.4552555486
 30
0.0
 11
121.2680018245
 21
127.4552552655
 31
0.0
  0
LINE
  5
11E
330
1F
100
AcDbEntity
  8
0
  6
HIDDEN
 62
     7
370
     0
100
AcDbLine
 10
123.9718734025
 20
122.9552554592
 30
0.0
 11
123.9718734025
 21
110.9552553549
 31
0.0
  0
LINE
  5
11F
330
1F
100
AcDbEntity
  8
0
  6
HIDDEN
 62
     7
370
     0
100
AcDbLine
 10
227.8180024325
 20
154.7052536785
 30
0.0
 11
235.0679984986
 21
154.7052536785
 31
0.0
  0
LINE
  5
120
330
1F
100
AcDbEntity
  8
0
  6
HIDDEN
 62
     7
370
     0
100
AcDbLine
 10
220.5680026411
 20
154.7052536785
 30
0.0
 11
227.8180024325
 21
154.7052536785
 31
0.0
  0
SPLINE
  5
121
330
1F
100
AcDbEntity
  8
0
  6
HIDDEN
 62
     7
370
     0
100
AcDbSpline
210
0.0
220
0.0
230
1.0
 70
    11
 71
     3
 72
    64
 73
    60
 74
     0
 42
0.000000001
 43
0.00000001
 40
0.0
 40
0.0
 40
0.0
 40
0.0
 40
0.0312500000000001
 40
0.0312500000000001
 40
0.0625000000000002
 40
0.0625000000000002
 40
0.0937500000000003
 40
0.0937500000000003
 40
0.1250000000000004
 40
0.1250000000000004
 40
0.1875000000000002
 40
0.1875000000000002
 40
0.2187500000000002
 40
0.2187500000000002
 40
0.2500000000000002
 40
0.2500000000000002
 40
0.2812500000000002
 40
0.2812500000000002
 40
0.3125000000000002
 40
0.3125000000000002
 40
0.3437500000000002
 40
0.3437500000000002
 40
0.3750000000000001
 40
0.3750000000000001
 40
0.4062500000000001
 40
0.4062500000000001
 40
0.4375000000000001
 40
0.4375000000000001
 40
0.4687500000000001
 40
0.4687500000000001
 40
0.5
 40
0.5
 40
0.53125
 40
0.53125
 40
0.5625
 40
0.5625
 40
0.5937499999999999
 40
0.5937499999999999
 40
0.6249999999999999
 40
0.6249999999999999
 40
0.6875
 40
0.6875
 40
0.7187499999999999
 40
0.7187499999999999
 40
0.7499999999999997
 40
0.7499999999999997
 40
0.7812499999999996
 40
0.7812499999999996
 40
0.8124999999999994
 40
0.8124999999999994
 40
0.8749999999999992
 40
0.8749999999999992
 40
0.9062499999999994
 40
0.9062499999999994
 40
0.9374999999999996
 40
0.9374999999999996
 40
0.9687499999999998
 40
0.9687499999999998
 40
1.0
 40
1.0
 40
1.0
 40
1.0
 10
175.0680016099316
 20
116.9042245028611
 30
0.0
 10
174.928059331308
 20
116.9042245028611
 30
0.0
 10
174.7906978317542
 20
116.9190236029669
 30
0.0
 10
174.5208436184408
 20
116.9765403813754
 30
0.0
 10
174.3869228436318
 20
117.0200162234418
 30
0.0
 10
174.1332308524795
 20
117.1317256146361
 30
0.0
 10
174.0130857502859
 20
117.1996369906834
 30
0.0
 10
173.7856979255425
 20
117.3585802487543
 30
0.0
 10
173.6790058994888
 20
117.4496293025461
 30
0.0
 10
173.3909493109718
 20
117.745513936638
 30
0.0
 10
173.2348633082811
 20
117.9805516057794
 30
0.0
 10
173.0770818557429
 20
118.3538157098237
 30
0.0
 10
173.0361208008729
 20
118.4840738552403
 30
0.0
 10
172.9817040394861
 20
118.745731905665
 30
0.0
 10
172.9680943298412
 20
118.8761422268775
 30
0.0
 10
172.9679098251831
 20
119.1359764808585
 30
0.0
 10
172.9818188665118
 20
119.2662003422712
 30
0.0
 10
173.0359596618595
 20
119.513865730896
 30
0.0
 10
173.0760075877334
 20
119.6327962332169
 30
0.0
 10
173.1824797479254
 20
119.8612926718933
 30
0.0
 10
173.2476188467511
 20
119.9678937110769
 30
0.0
 10
173.3993305712416
 20
120.1652563654669
 30
0.0
 10
173.4871676937503
 20
120.257239144603
 30
0.0
 10
173.6802981500196
 20
120.4216966965396
 30
0.0
 10
173.78516861078
 20
120.4942651415039
 30
0.0
 10
174.0118779663637
 20
120.6213079759896
 30
0.0
 10
174.1345657220014
 20
120.6758027603705
 30
0.0
 10
174.3871174928993
 20
120.7623313079722
 30
0.0
 10
174.5181231717273
 20
120.7951612387379
 30
0.0
 10
174.7902121043946
 20
120.8397208387606
 30
0.0
 10
174.9293678151863
 20
120.8508894522528
 30
0.0
 10
175.2049865087081
 20
120.8509773052796
 30
0.0
 10
175.3439703688867
 20
120.8399248150507
 30
0.0
 10
175.6163828936521
 20
120.7954994896274
 30
0.0
 10
175.7477237120982
 20
120.7626842449007
 30
0.0
 10
176.0012039681271
 20
120.6759277127144
 30
0.0
 10
176.1238846554037
 20
120.6214138925886
 30
0.0
 10
176.350370780975
 20
120.4945538797575
 30
0.0
 10
176.4555144779573
 20
120.4218952067962
 30
0.0
 10
176.7467089274083
 20
120.1738238100259
 30
0.0
 10
176.9004881649348
 20
119.9750256580253
 30
0.0
 10
177.0597431119549
 20
119.6333802784281
 30
0.0
 10
177.0997678578805
 20
119.5147466431774
 30
0.0
 10
177.1539849156125
 20
119.2674896106583
 30
0.0
 10
177.1680111925579
 20
119.1372826580887
 30
0.0
 10
177.1679920172255
 20
118.8771964421524
 30
0.0
 10
177.1544362478905
 20
118.7466472653852
 30
0.0
 10
177.1000625531613
 20
118.4846852202962
 30
0.0
 10
177.0591790734404
 20
118.3544902540279
 30
0.0
 10
176.9010906397096
 20
117.9803055687975
 30
0.0
 10
176.7451407497499
 20
117.7454946483439
 30
0.0
 10
176.456313087161
 20
117.4489809003333
 30
0.0
 10
176.3491152201549
 20
117.3576747507637
 30
0.0
 10
176.1225487298011
 20
117.1994533919063
 30
0.0
 10
176.0025595831803
 20
117.1315972090083
 30
0.0
 10
175.7484216698478
 20
117.0197610007434
 30
0.0
 10
175.6147724733061
 20
116.9764437292979
 30
0.0
 10
175.3452999175554
 20
116.9190365971045
 30
0.0
 10
175.2079438885551
 20
116.9042245028611
 30
0.0
 10
175.0680016099315
 20
116.9042245028611
 30
0.0
  0
SPLINE
  5
122
330
1F
100
AcDbEntity
  8
0
  6
HIDDEN
 62
     7
370
     0
100
AcDbSpline
210
0.0
220
0.0
230
1.0
 70
     8
 71
     3
 72
     8
 73
     4
 74
     0
 42
0.000000001
 43
0.00000001
 40
0.0
 40
0.0
 40
0.0
 40
0.0
 40
1.0
 40
1.0
 40
1.0
 40
1.0
 10
174.2448214337721
 20
126.7237774425575
 30
0.0
 10
174.4562488237733
 20
126.73128695234
 30
0.0
 10
174.6587173703061
 20
126.7854104819746
 30
0.0
 10
174.8449279694434
 20
126.8701387691998
 30
0.0
  0
ELLIPSE
  5
123
330
1F
100
AcDbEntity
  8
0
  6
HIDDEN
 62
     7
370
     0
100
AcDbEllipse
 10
175.0680016099
 20
128.6857655184
 30
0.0
 11
-1.760776919379055
 21
2.232245799914466
 31
0.0
210
0.0
220
0.0
230
1.0
 40
0.5126701559
 41
5.395150933160684
 42
8.323890913123124
  0
SPLINE
  5
124
330
1F
100
AcDbEntity
  8
0
  6
HIDDEN
 62
     7
370
     0
100
AcDbSpline
210
0.0
220
0.0
230
1.0
 70
     8
 71
     3
 72
     8
 73
     4
 74
     0
 42
0.000000001
 43
0.00000001
 40
0.0
 40
0.0
 40
0.0
 40
0.0
 40
1.0
 40
1.0
 40
1.0
 40
1.0
 10
174.8449279694443
 20
130.7945175371346
 30
0.0
 10
174.6584036201594
 20
130.6721971212338
 30
0.0
 10
174.4558487216333
 20
130.5311119605687
 30
0.0
 10
174.2448214337714
 20
130.3546283247833
 30
0.0
  0
ELLIPSE
  5
125
330
1F
100
AcDbEntity
  8
0
  6
HIDDEN
 62
     7
370
     0
100
AcDbEllipse
 10
175.0680016099
 20
128.6857655184
 30
0.0
 11
1.760776919379112
 21
1.388886188042932
 31
0.0
210
0.0
220
0.0
230
1.0
 40
0.8239737799
 41
1.397255033323993
 42
3.733259041931074
  0
LWPOLYLINE
  5
126
330
1F
100
AcDbEntity
  8
0
  6
HIDDEN
 62
     7
370
     0
100
AcDbPolyline
 90
       19
 70
   128
 43
0.0
 10
175.0680017023
 20
128.4401922181
 10
175.7862441911
 20
128.559200342
 10
176.4178559854
 20
128.9018693074
 10
176.8866548984
 20
129.4268698126
 10
177.1360984742
 20
130.0708775103
 10
177.1360984742
 20
130.7562163725
 10
176.8866548984
 20
131.4002240702
 10
176.4178559854
 20
131.9252245754
 10
175.7862441911
 20
132.2678935408
 10
175.0680017023
 20
132.3869016647
 10
174.3497592135
 20
132.2678935408
 10
173.7181474193
 20
131.9252245754
 10
173.2493485062
 20
131.4002240702
 10
172.9999049305
 20
130.7562163725
 10
172.9999049305
 20
130.0708775103
 10
173.2493485062
 20
129.4268698126
 10
173.7181474193
 20
128.9018693074
 10
174.3497592135
 20
128.559200342
 10
175.0680017023
 20
128.4401922181
  0
LINE
  5
127
330
1F
100
AcDbEntity
  8
0
  6
HIDDEN
 62
     7
370
     0
100
AcDbLine
 10
179.9180018454
 20
147.906466636
 30
0.0
 11
179.9180018454
 21
146.8052559227
 31
0.0
  0
LINE
  5
128
330
1F
100
AcDbEntity
  8
0
  6
HIDDEN
 62
     7
370
     0
100
AcDbLine
 10
170.0580012723
 20
152.3482997596
 30
0.0
 11
170.0580012723
 21
146.8052559227
 31
0.0
  0
LINE
  5
129
330
1F
100
AcDbEntity
  8
0
  6
HIDDEN
 62
     7
370
     0
100
AcDbLine
 10
173.8780014886
 20
103.1579936549
 30
0.0
 11
173.8780014886
 21
99.0259528786
 31
0.0
  0
SPLINE
  5
12A
330
1F
100
AcDbEntity
  8
0
  6
HIDDEN
 62
     7
370
     0
100
AcDbSpline
210
0.0
220
0.0
230
1.0
 70
     8
 71
     3
 72
    14
 73
    10
 74
     0
 42
0.000000001
 43
0.00000001
 40
0.0
 40
0.0
 40
0.0
 40
0.0
 40
0.25
 40
0.25
 40
0.5
 40
0.5
 40
0.75
 40
0.75
 40
1.0
 40
1.0
 40
1.0
 40
1.0
 10
173.8780016099315
 20
130.7069032510559
 30
0.0
 10
173.8780016099315
 20
130.6649995595339
 30
0.0
 10
173.8485311462856
 20
130.6371237619644
 30
0.0
 10
173.7417041767268
 20
130.6235522432802
 30
0.0
 10
173.6654507818708
 20
130.6382096969343
 30
0.0
 10
173.49774678037
 20
130.7100949513485
 30
0.0
 10
173.4075832054275
 20
130.7664857804891
 30
0.0
 10
173.2346594381311
 20
130.9085976457478
 30
0.0
 10
173.1527731826466
 20
130.993063043384
 30
0.0
 10
173.078001609929
 20
131.0865811209555
 30
0.0
  0
SPLINE
  5
12B
330
1F
100
AcDbEntity
  8
0
  6
HIDDEN
 62
     7
370
     0
100
AcDbSpline
210
0.0
220
0.0
230
1.0
 70
     8
 71
     3
 72
    16
 73
    12
 74
     0
 42
0.000000001
 43
0.00000001
 40
0.0
 40
0.0
 40
0.0
 40
0.0
 40
0.2500000000000062
 40
0.2500000000000062
 40
0.5000000000000124
 40
0.5000000000000124
 40
0.6250000000000132
 40
0.6250000000000132
 40
0.750000000000014
 40
0.750000000000014
 40
1.0
 40
1.0
 40
1.0
 40
1.0
 10
173.0780016099316
 20
133.9305449640129
 30
0.0
 10
173.1528545913014
 20
134.0219242171729
 30
0.0
 10
173.2340142209817
 20
134.110309828091
 30
0.0
 10
173.4072371495563
 20
134.2859899886564
 30
0.0
 10
173.4977404795216
 20
134.3713528055804
 30
0.0
 10
173.6240695514527
 20
134.4927744169889
 30
0.0
 10
173.6635665548613
 20
134.5312498286928
 30
0.0
 10
173.7356811251605
 20
134.6053105035965
 30
0.0
 10
173.7685733030904
 20
134.6413052688577
 30
0.0
 10
173.8482459727238
 20
134.7400113560915
 30
0.0
 10
173.8780016099315
 20
134.7966438165166
 30
0.0
 10
173.8780016099315
 20
134.8389444496873
 30
0.0
  0
LINE
  5
12C
330
1F
100
AcDbEntity
  8
0
  6
HIDDEN
 62
     7
370
     0
100
AcDbLine
 10
173.8780014886
 20
152.3482997596
 30
0.0
 11
173.8780014886
 21
146.8052559227
 31
0.0
  0
LINE
  5
12D
330
1F
100
AcDbEntity
  8
0
  6
HIDDEN
 62
     7
370
     0
100
AcDbLine
 10
175.2011631354
 20
155.4663342118
 30
0.0
 11
175.2011631354
 21
146.8052559227
 31
0.0
  0
LINE
  5
12E
330
1F
100
AcDbEntity
  8
0
  6
HIDDEN
 62
     7
370
     0
100
AcDbLine
 10
175.2011631354
 20
102.6581081256
 30
0.0
 11
175.2011631354
 21
97.9663145423
 31
0.0
  0
LINE
  5
12F
330
1F
100
AcDbEntity
  8
0
  6
HIDDEN
 62
     7
370
     0
100
AcDbLine
 10
168.7348405569
 20
155.4663342118
 30
0.0
 11
168.7348405569
 21
146.8052559227
 31
0.0
  0
ARC
  5
130
330
1F
100
AcDbEntity
  8
0
  6
HIDDEN
 62
     7
370
     0
100
AcDbCircle
 10
175.3140543718
 20
129.5252430824
 30
0.0
 40
1.353195702694791
100
AcDbArc
 50
110.2844232439
 51
142.1998959299
  0
ARC
  5
131
330
1F
100
AcDbEntity
  8
0
  6
HIDDEN
 62
     7
370
     0
100
AcDbCircle
 10
174.3714021414
 20
127.5082256373
 30
0.0
 40
0.7945949542257675
100
AcDbArc
 50
260.8336111241
 51
306.5791809456
  0
LWPOLYLINE
  5
132
330
1F
100
AcDbEntity
  8
0
  6
HIDDEN
 62
     7
370
     0
100
AcDbPolyline
 90
       19
 70
   128
 43
0.0
 10
165.1027644723
 20
129.6682071566
 10
165.29008371
 20
129.146915178
 10
165.5940348021
 20
128.8245089978
 10
165.9779571666
 20
128.7398769215
 10
166.3955435826
 20
128.9032262444
 10
166.7964271939
 20
129.2948539063
 10
167.1322560607
 20
129.8675241574
 10
167.362523239
 20
130.5521645278
 10
167.4594557582
 20
131.2661983698
 10
167.4113622605
 20
131.9235006973
 10
167.2240430227
 20
132.444792676
 10
166.920091465
 20
132.7671979248
 10
166.5361695661
 20
132.8518309325
 10
166.1185826844
 20
132.6884825408
 10
165.7176990731
 20
132.2968539476
 10
165.381870672
 20
131.7241836965
 10
165.1516030281
 20
131.0395433262
 10
165.0546705088
 20
130.3255094841
 10
165.1027644723
 20
129.6682071566
  0
LWPOLYLINE
  5
133
330
1F
100
AcDbEntity
  8
0
  6
HIDDEN
 62
     7
370
     0
100
AcDbPolyline
 90
       23
 70
   128
 43
0.0
 10
164.3397325854
 20
129.2491911605
 10
164.5450405515
 20
128.6209842816
 10
164.8673079646
 20
128.1741785511
 10
165.2804263606
 20
127.9449716836
 10
165.7509272656
 20
127.9519314572
 10
166.2406935095
 20
128.1944962844
 10
166.7100474908
 20
128.6530124649
 10
167.1209647058
 20
129.2903360605
 10
167.4401550292
 20
130.0548336163
 10
167.6417593582
 20
130.8845703184
 10
167.7094455547
 20
131.7123251661
 10
167.6377295255
 20
132.4710401401
 10
167.4324213265
 20
133.0992460877
 10
167.1101539134
 20
133.5460518181
 10
166.6970355174
 20
133.775259617
 10
166.2265346124
 20
133.768298912
 10
165.7367683685
 20
133.5257340848
 10
165.2674143872
 20
133.0672179043
 10
164.8564971722
 20
132.4298952401
 10
164.5373070816
 20
131.6653976843
 10
164.3357025198
 20
130.8356609821
 10
164.2680165562
 20
130.0079052031
 10
164.3397325854
 20
129.2491911605
  0
LWPOLYLINE
  5
134
330
1F
100
AcDbEntity
  8
0
  6
HIDDEN
 62
     7
370
     0
100
AcDbPolyline
 90
       21
 70
   128
 43
0.0
 10
175.0680017023
 20
128.1141091764
 10
175.8405440225
 20
128.2290893301
 10
176.5374648123
 20
128.5627728954
 10
177.0905437617
 20
129.0824974581
 10
177.4456421583
 20
129.7373885915
 10
177.5680011808
 20
130.4633405685
 10
177.4456421583
 20
131.1892934769
 10
177.0905437617
 20
131.8441846102
 10
176.5374648123
 20
132.363909173
 10
175.8405440225
 20
132.6975927383
 10
175.0680017023
 20
132.8125719607
 10
174.2954593821
 20
132.6975927383
 10
173.5985385923
 20
132.363909173
 10
173.0454587116
 20
131.8441846102
 10
172.690360315
 20
131.1892934769
 10
172.5680012925
 20
130.4633405685
 10
172.690360315
 20
129.7373885915
 10
173.0454587116
 20
129.0824974581
 10
173.5985385923
 20
128.5627728954
 10
174.2954593821
 20
128.2290893301
 10
175.0680017023
 20
128.1141091764
  0
SPLINE
  5
135
330
1F
100
AcDbEntity
  8
0
  6
HIDDEN
 62
     7
370
     0
100
AcDbSpline
210
0.0
220
0.0
230
1.0
 70
     8
 71
     3
 72
    34
 73
    30
 74
     0
 42
0.000000001
 43
0.00000001
 40
0.0
 40
0.0
 40
0.0
 40
0.0
 40
0.062499999999999
 40
0.062499999999999
 40
0.124999999999998
 40
0.124999999999998
 40
0.1874999999999971
 40
0.1874999999999971
 40
0.2499999999999966
 40
0.2499999999999966
 40
0.3124999999999962
 40
0.3124999999999962
 40
0.3749999999999957
 40
0.3749999999999957
 40
0.4999999999999958
 40
0.4999999999999958
 40
0.6249999999999958
 40
0.6249999999999958
 40
0.6874999999999964
 40
0.6874999999999964
 40
0.7499999999999971
 40
0.7499999999999971
 40
0.8124999999999979
 40
0.8124999999999979
 40
0.8749999999999986
 40
0.8749999999999986
 40
0.9374999999999992
 40
0.9374999999999992
 40
1.0
 40
1.0
 40
1.0
 40
1.0
 10
175.2011631173935
 20
135.94419579508
 30
0.0
 10
175.3605549451813
 20
135.9363556991573
 30
0.0
 10
175.5165574286249
 20
135.9146970510668
 30
0.0
 10
175.8220669447022
 20
135.844848823574
 30
0.0
 10
175.9729612797144
 20
135.7960231212458
 30
0.0
 10
176.2608606244052
 20
135.6730991678384
 30
0.0
 10
176.3968070273649
 20
135.5997916597042
 30
0.0
 10
176.6529896429569
 20
135.4297810359328
 30
0.0
 10
176.774171930716
 20
135.3319072437313
 30
0.0
 10
176.9913180025888
 20
135.1193230682994
 30
0.0
 10
177.0882798755491
 20
135.0042771297698
 30
0.0
 10
177.2588423113747
 20
134.7564160096497
 30
0.0
 10
177.3320823645866
 20
134.623382512584
 30
0.0
 10
177.5069628213354
 20
134.2138744964539
 30
0.0
 10
177.5680007823114
 20
133.9159138466788
 30
0.0
 10
177.5680024375345
 20
133.3244722908044
 30
0.0
 10
177.5069678279482
 20
133.0242987408278
 30
0.0
 10
177.3320780605463
 20
132.6090674605601
 30
0.0
 10
177.2588343551218
 20
132.4737123423132
 30
0.0
 10
177.0882736393852
 20
132.2208130109266
 30
0.0
 10
176.9913099237917
 20
132.1030477333188
 30
0.0
 10
176.7741495952045
 20
131.8849174379502
 30
0.0
 10
176.6529683365177
 20
131.7842141128032
 30
0.0
 10
176.396798109579
 20
131.60897041997
 30
0.0
 10
176.2608547599163
 20
131.5332254508794
 30
0.0
 10
175.9729520567332
 20
131.4060570755771
 30
0.0
 10
175.8220618608164
 20
131.3554558032497
 30
0.0
 10
175.5165563571108
 20
131.2830267035018
 30
0.0
 10
175.3605549588473
 20
131.2605409321048
 30
0.0
 10
175.2011631173935
 20
131.25240247221
 30
0.0
  0
SPLINE
  5
136
330
1F
100
AcDbEntity
  8
0
  6
HIDDEN
 62
     7
370
     0
100
AcDbSpline
210
0.0
220
0.0
230
1.0
 70
     8
 71
     3
 72
    10
 73
     6
 74
     0
 42
0.000000001
 43
0.00000001
 40
0.0
 40
0.0
 40
0.0
 40
0.0
 40
0.5
 40
0.5
 40
1.0
 40
1.0
 40
1.0
 40
1.0
 10
173.8780016099319
 20
134.8845586716999
 30
0.0
 10
174.0948924424526
 20
135.1215976111485
 30
0.0
 10
174.3140450791115
 20
135.323767846142
 30
0.0
 10
174.7555295793804
 20
135.6745199176607
 30
0.0
 10
174.9787320446538
 20
135.8231960100575
 30
0.0
 10
175.2011631173935
 20
135.94419579508
 30
0.0
  0
SPLINE
  5
137
330
1F
100
AcDbEntity
  8
0
  6
HIDDEN
 62
     7
370
     0
100
AcDbSpline
210
0.0
220
0.0
230
1.0
 70
     8
 71
     3
 72
    10
 73
     6
 74
     0
 42
0.000000001
 43
0.00000001
 40
0.0
 40
0.0
 40
0.0
 40
0.0
 40
0.5
 40
0.5
 40
1.0
 40
1.0
 40
1.0
 40
1.0
 10
175.2011631173935
 20
131.25240247221
 30
0.0
 10
174.97843609052
 20
131.1089139719162
 30
0.0
 10
174.7567502032949
 20
130.9941932261833
 30
0.0
 10
174.315529365443
 20
130.8244327968255
 30
0.0
 10
174.0959707180441
 20
130.7690128024381
 30
0.0
 10
173.8780016099319
 20
130.7525174730684
 30
0.0
  0
SPLINE
  5
138
330
1F
100
AcDbEntity
  8
0
  6
HIDDEN
 62
     7
370
     0
100
AcDbSpline
210
0.0
220
0.0
230
1.0
 70
     8
 71
     3
 72
    16
 73
    12
 74
     0
 42
0.000000001
 43
0.00000001
 40
0.0
 40
0.0
 40
0.0
 40
0.0
 40
0.25
 40
0.25
 40
0.5
 40
0.5
 40
0.75
 40
0.75
 40
0.875
 40
0.875
 40
1.0
 40
1.0
 40
1.0
 40
1.0
 10
173.0780016099316
 20
131.0865811209593
 30
0.0
 10
172.9125875034514
 20
131.2934673569847
 30
0.0
 10
172.7863901724758
 20
131.5193360547934
 30
0.0
 10
172.611983874145
 20
132.0082053004063
 30
0.0
 10
172.5681538350481
 20
132.2599723537509
 30
0.0
 10
172.5678501620781
 20
132.7717516783332
 30
0.0
 10
172.6117070221384
 20
133.0228063874159
 30
0.0
 10
172.7416287814056
 20
133.383654955558
 30
0.0
 10
172.7957435928136
 20
133.5009277239066
 30
0.0
 10
172.922420582957
 20
133.7234166752454
 30
0.0
 10
172.9952943033178
 20
133.8295772834887
 30
0.0
 10
173.0780016099316
 20
133.9305449640129
 30
0.0
  0
LINE
  5
139
330
1F
100
AcDbEntity
  8
0
  6
HIDDEN
 62
     7
370
     0
100
AcDbLine
 10
219.818127781
 20
155.9552562117
 30
0.0
 11
235.8180037438
 21
155.9552562117
 31
0.0
  0
LINE
  5
13A
330
1F
100
AcDbEntity
  8
0
  6
HIDDEN
 62
     7
370
     0
100
AcDbLine
 10
219.818127781
 20
137.2853827357
 30
0.0
 11
235.8180037438
 21
137.2853827357
 31
0.0
  0
LINE
  5
13B
330
1F
100
AcDbEntity
  8
0
  6
HIDDEN
 62
     7
370
     0
100
AcDbLine
 10
222.7017483412
 20
127.9552553475
 30
0.0
 11
232.9343384801
 21
127.9552553475
 31
0.0
  0
SPLINE
  5
13C
330
1F
100
AcDbEntity
  8
0
  6
HIDDEN
 62
     7
370
     0
100
AcDbSpline
210
0.0
220
0.0
230
1.0
 70
     8
 71
     3
 72
    11
 73
     7
 74
     0
 42
0.000000001
 43
0.00000001
 40
0.0
 40
0.0
 40
0.0
 40
0.0
 40
0.2164566324242997
 40
0.440314726267334
 40
0.751903252224376
 40
1.0
 40
1.0
 40
1.0
 40
1.0
 10
223.8050154148441
 20
156.8740580856639
 30
0.0
 10
224.0781223169243
 20
156.729179102096
 30
0.0
 10
224.6336746669923
 20
156.4344671809266
 30
0.0
 10
225.6646314861572
 20
156.1888296708612
 30
0.0
 10
226.7705074386072
 20
156.3369370165288
 30
0.0
 10
227.4781984571888
 20
156.7090903259639
 30
0.0
 10
227.7919030486446
 20
156.8740580856639
 30
0.0
  0
SPLINE
  5
13D
330
1F
100
AcDbEntity
  8
0
  6
HIDDEN
 62
     7
370
     0
100
AcDbSpline
210
0.0
220
0.0
230
1.0
 70
     8
 71
     3
 72
    11
 73
     7
 74
     0
 42
0.000000001
 43
0.00000001
 40
0.0
 40
0.0
 40
0.0
 40
0.0
 40
0.2164577468051476
 40
0.440313970826794
 40
0.751903416670724
 40
1.0
 40
1.0
 40
1.0
 40
1.0
 10
227.7919030486446
 20
156.8740580856639
 30
0.0
 10
228.066800478221
 20
156.7291792836449
 30
0.0
 10
228.6259912698343
 20
156.4344697546621
 30
0.0
 10
229.6636906344527
 20
156.1888284692791
 30
0.0
 10
230.776807961006
 20
156.3369365538563
 30
0.0
 10
231.4891322698694
 20
156.7090904139023
 30
0.0
 10
231.8048900662762
 20
156.8740580856639
 30
0.0
  0
SPLINE
  5
13E
330
1F
100
AcDbEntity
  8
0
  6
HIDDEN
 62
     7
370
     0
100
AcDbSpline
210
0.0
220
0.0
230
1.0
 70
     8
 71
     3
 72
    11
 73
     7
 74
     0
 42
0.000000001
 43
0.00000001
 40
0.0
 40
0.0
 40
0.0
 40
0.0
 40
0.1845134175491663
 40
0.5180565143496085
 40
0.8676122038657492
 40
1.0
 40
1.0
 40
1.0
 40
1.0
 10
231.8048900662762
 20
156.8740580856639
 30
0.0
 10
231.806404242488
 20
156.7495161951506
 30
0.0
 10
231.8106555802001
 20
156.3998411495803
 30
0.0
 10
231.8185930995005
 20
156.1401239691047
 30
0.0
 10
231.8259594316944
 20
156.4532274342744
 30
0.0
 10
231.829899641024
 20
156.7833694879397
 30
0.0
 10
231.8309819995266
 20
156.8740580856639
 30
0.0
  0
SPLINE
  5
13F
330
1F
100
AcDbEntity
  8
0
  6
HIDDEN
 62
     7
370
     0
100
AcDbSpline
210
0.0
220
0.0
230
1.0
 70
     8
 71
     3
 72
     9
 73
     5
 74
     0
 42
0.000000001
 43
0.00000001
 40
0.0
 40
0.0
 40
0.0
 40
0.0
 40
0.8763461511723756
 40
1.0
 40
1.0
 40
1.0
 40
1.0
 10
231.8309819995266
 20
156.8740580856639
 30
0.0
 10
231.5614438288059
 20
156.7128521323488
 30
0.0
 10
231.2538733894765
 20
156.5288997602188
 30
0.0
 10
230.9172023657178
 20
156.4562001807814
 30
0.0
 10
230.8755716978413
 20
156.4472105979759
 30
0.0
  0
LINE
  5
140
330
1F
100
AcDbEntity
  8
0
  6
HIDDEN
 62
     7
370
     0
100
AcDbLine
 10
228.7809005677
 20
156.4409595609
 30
0.0
 11
227.8440943657
 21
156.8740580857
 31
0.0
  0
SPLINE
  5
141
330
1F
100
AcDbEntity
  8
0
  6
HIDDEN
 62
     7
370
     0
100
AcDbSpline
210
0.0
220
0.0
230
1.0
 70
     8
 71
     3
 72
     9
 73
     5
 74
     0
 42
0.000000001
 43
0.00000001
 40
0.0
 40
0.0
 40
0.0
 40
0.0
 40
0.8533273920790984
 40
1.0
 40
1.0
 40
1.0
 40
1.0
 10
227.8440943657261
 20
156.8740580856639
 30
0.0
 10
227.5725952452498
 20
156.7135974509754
 30
0.0
 10
227.2544299982457
 20
156.5255563354809
 30
0.0
 10
226.906182644819
 20
156.4517804607966
 30
0.0
 10
226.8551042972904
 20
156.440959560855
 30
0.0
  0
LINE
  5
142
330
1F
100
AcDbEntity
  8
0
  6
HIDDEN
 62
     7
370
     0
100
AcDbLine
 10
224.7604331671
 20
156.447210598
 30
0.0
 11
223.8311147987
 21
156.8740580857
 31
0.0
  0
SPLINE
  5
143
330
1F
100
AcDbEntity
  8
0
  6
HIDDEN
 62
     7
370
     0
100
AcDbSpline
210
0.0
220
0.0
230
1.0
 70
     8
 71
     3
 72
    11
 73
     7
 74
     0
 42
0.000000001
 43
0.00000001
 40
0.0
 40
0.0
 40
0.0
 40
0.0
 40
0.1323878169757752
 40
0.4819435147284605
 40
0.8154866206570746
 40
1.0
 40
1.0
 40
1.0
 40
1.0
 10
223.8311147986751
 20
156.8740580856639
 30
0.0
 10
223.8300327033374
 20
156.7833694885791
 30
0.0
 10
223.8260934524135
 20
156.4532274692963
 30
0.0
 10
223.81871103837
 20
156.1401239758299
 30
0.0
 10
223.8107938813101
 20
156.399841089718
 30
0.0
 10
223.8065329925666
 20
156.7495161932902
 30
0.0
 10
223.8050154148441
 20
156.8740580856639
 30
0.0
  0
LINE
  5
144
330
1F
100
AcDbEntity
  8
0
  6
HIDDEN
 62
     7
370
     0
100
AcDbLine
 10
227.7919030486
 20
145.9552545726
 30
0.0
 11
227.7919030486
 21
156.8740580857
 31
0.0
  0
LINE
  5
145
330
1F
100
AcDbEntity
  8
0
  6
HIDDEN
 62
     7
370
     0
100
AcDbLine
 10
227.7919030486
 20
145.9552545726
 30
0.0
 11
225.798462957
 21
145.9552545726
 31
0.0
  0
LINE
  5
146
330
1F
100
AcDbEntity
  8
0
  6
HIDDEN
 62
     7
370
     0
100
AcDbLine
 10
229.7983965575
 20
145.9552545726
 30
0.0
 11
227.7919030486
 21
145.9552545726
 31
0.0
  0
LINE
  5
147
330
1F
100
AcDbEntity
  8
0
  6
HIDDEN
 62
     7
370
     0
100
AcDbLine
 10
223.818068832
 20
144.9552562713
 30
0.0
 11
231.8180030881
 21
144.9552562713
 31
0.0
  0
LINE
  5
148
330
1F
100
AcDbEntity
  8
0
  6
HIDDEN
 62
     7
370
     0
100
AcDbLine
 10
231.8048900663
 20
145.9552545726
 30
0.0
 11
229.7983965575
 21
145.9552545726
 31
0.0
  0
LINE
  5
149
330
1F
100
AcDbEntity
  8
0
  6
HIDDEN
 62
     7
370
     0
100
AcDbLine
 10
225.798462957
 20
145.9552545726
 30
0.0
 11
223.8050154148
 21
145.9552545726
 31
0.0
  0
LINE
  5
14A
330
1F
100
AcDbEntity
  8
0
  6
HIDDEN
 62
     7
370
     0
100
AcDbLine
 10
231.8179360329
 20
145.9552545726
 30
0.0
 11
231.8048900663
 21
145.9552545726
 31
0.0
  0
LINE
  5
14B
330
1F
100
AcDbEntity
  8
0
  6
HIDDEN
 62
     7
370
     0
100
AcDbLine
 10
231.8048900663
 20
145.9552545726
 30
0.0
 11
231.8048900663
 21
156.8740580857
 31
0.0
  0
LINE
  5
14C
330
1F
100
AcDbEntity
  8
0
  6
HIDDEN
 62
     7
370
     0
100
AcDbLine
 10
223.8311147987
 20
145.9552545726
 30
0.0
 11
223.8311147987
 21
156.8740580857
 31
0.0
  0
LINE
  5
14D
330
1F
100
AcDbEntity
  8
0
  6
HIDDEN
 62
     7
370
     0
100
AcDbLine
 10
223.8050154148
 20
145.9552545726
 30
0.0
 11
223.8050154148
 21
156.8740580857
 31
0.0
  0
LINE
  5
14E
330
1F
100
AcDbEntity
  8
0
  6
HIDDEN
 62
     7
370
     0
100
AcDbLine
 10
231.8309819995
 20
145.9552545726
 30
0.0
 11
231.8179360329
 21
145.9552545726
 31
0.0
  0
LINE
  5
14F
330
1F
100
AcDbEntity
  8
0
  6
HIDDEN
 62
     7
370
     0
100
AcDbLine
 10
227.8440943657
 20
145.9552545726
 30
0.0
 11
227.8440943657
 21
156.8740580857
 31
0.0
  0
LINE
  5
150
330
1F
100
AcDbEntity
  8
0
  6
HIDDEN
 62
     7
370
     0
100
AcDbLine
 10
231.8309819995
 20
145.9552545726
 30
0.0
 11
231.8309819995
 21
156.8740580857
 31
0.0
  0
LWPOLYLINE
  5
151
330
1F
100
AcDbEntity
  8
0
  6
HIDDEN
 62
     7
370
     0
100
AcDbPolyline
 90
       19
 70
   128
 43
0.0
 10
174.9332709907
 20
128.5040939852
 10
175.6171579211
 20
128.57276133
 10
176.2348091899
 20
128.8570847988
 10
176.7117264419
 20
129.3227703005
 10
176.9903856068
 20
129.9136507019
 10
177.0371771156
 20
130.5584546804
 10
176.8464571534
 20
131.1794121444
 10
176.441229388
 20
131.7016242698
 10
175.870369628
 20
132.0621057108
 10
175.2027324139
 20
132.2173758104
 10
174.5188454836
 20
132.1487084657
 10
173.9011942147
 20
131.8643849969
 10
173.4242769628
 20
131.3986994952
 10
173.1456177979
 20
130.8078200251
 10
173.0988262891
 20
130.1630151152
 10
173.2895462512
 20
129.5420576513
 10
173.6947740166
 20
129.0198455259
 10
174.2656337767
 20
128.6593640849
 10
174.9332709907
 20
128.5040939852
  0
LWPOLYLINE
  5
152
330
1F
100
AcDbEntity
  8
0
  6
HIDDEN
 62
     7
370
     0
100
AcDbPolyline
 90
       21
 70
   128
 43
0.0
 10
174.8979198485
 20
128.1195527568
 10
175.6769963278
 20
128.1848766535
 10
176.3964607118
 20
128.4732336804
 10
176.9858873187
 20
128.9563954502
 10
177.3875760584
 20
129.5870684713
 10
177.562210217
 20
130.3035163015
 10
177.4926925747
 20
131.0356094196
 10
177.185829237
 20
131.7116844162
 10
176.6716590821
 20
132.2655633718
 10
176.0005117132
 20
132.6430284113
 10
175.2380835562
 20
132.8071293115
 10
174.4590061455
 20
132.7418044835
 10
173.7395417615
 20
132.453448388
 10
173.1501170172
 20
131.9702866182
 10
172.7484273462
 20
131.3396135971
 10
172.573794119
 20
130.6231657669
 10
172.6433108299
 20
129.8910726487
 10
172.9501732363
 20
129.2149976522
 10
173.4643443226
 20
128.6611186966
 10
174.1354916914
 20
128.2836536571
 10
174.8979198485
 20
128.1195527568
  0
LWPOLYLINE
  5
153
330
1F
100
AcDbEntity
  8
0
  6
HIDDEN
 62
     7
370
     0
100
AcDbPolyline
 90
       21
 70
   128
 43
0.0
 10
174.8979198485
 20
128.7180876985
 10
175.6769963278
 20
128.7834125265
 10
176.3964607118
 20
129.0717686221
 10
176.9858873187
 20
129.5549313232
 10
177.3875760584
 20
130.185603413
 10
177.562210217
 20
130.9020512432
 10
177.4926925747
 20
131.6341443613
 10
177.185829237
 20
132.3102193579
 10
176.6716590821
 20
132.8640983134
 10
176.0005117132
 20
133.2415633529
 10
175.2380835562
 20
133.4056642532
 10
174.4590061455
 20
133.3403394252
 10
173.7395417615
 20
133.0519833296
 10
173.1501170172
 20
132.5688215598
 10
172.7484273462
 20
131.9381485388
 10
172.573794119
 20
131.2217007086
 10
172.6433108299
 20
130.4896075904
 10
172.9501732363
 20
129.8135325938
 10
173.4643443226
 20
129.2596536383
 10
174.1354916914
 20
128.8821895301
 10
174.8979198485
 20
128.7180876985
  0
LWPOLYLINE
  5
154
330
1F
100
AcDbEntity
  8
0
  6
HIDDEN
 62
     7
370
     0
100
AcDbPolyline
 90
       19
 70
   128
 43
0.0
 10
174.9319364055
 20
130.3668145716
 10
175.6225977762
 20
130.4361627132
 10
176.2463659718
 20
130.7233025014
 10
176.7280059605
 20
131.1936008438
 10
177.0094255655
 20
131.790332745
 10
177.0566808729
 20
132.4415237337
 10
176.8640721886
 20
133.068631652
 10
176.4548304229
 20
133.5960154116
 10
175.8783166035
 20
133.9600675434
 10
175.2040669991
 20
134.1168761879
 10
174.5134056284
 20
134.047529909
 10
173.8896374329
 20
133.7603901207
 10
173.4079965128
 20
133.290090847
 10
173.1265769078
 20
132.6933589458
 10
173.0793216004
 20
132.0421670258
 10
173.271931216
 20
131.4150600388
 10
173.6811729817
 20
130.8876753479
 10
174.2576868011
 20
130.5236232161
 10
174.9319364055
 20
130.3668145716
  0
LWPOLYLINE
  5
155
330
1F
100
AcDbEntity
  8
0
  6
HIDDEN
 62
     7
370
     0
100
AcDbPolyline
 90
       19
 70
   128
 43
0.0
 10
174.9319364055
 20
128.9490389332
 10
175.6225977762
 20
129.0183861434
 10
176.2463659718
 20
129.3055259317
 10
176.7280059605
 20
129.7758242741
 10
177.0094255655
 20
130.3725571066
 10
177.0566808729
 20
131.0237480953
 10
176.8640721886
 20
131.6508550823
 10
176.4548304229
 20
132.1782397732
 10
175.8783166035
 20
132.542291905
 10
175.2040669991
 20
132.6991014808
 10
174.5134056284
 20
132.6297533393
 10
173.8896374329
 20
132.342613551
 10
173.4079965128
 20
131.8723152086
 10
173.1265769078
 20
131.2755823761
 10
173.0793216004
 20
130.6243913874
 10
173.271931216
 20
129.9972844004
 10
173.6811729817
 20
129.4698997095
 10
174.2576868011
 20
129.1058475777
 10
174.9319364055
 20
128.9490389332
  0
LWPOLYLINE
  5
156
330
1F
100
AcDbEntity
  8
0
  6
HIDDEN
 62
     7
370
     0
100
AcDbPolyline
 90
       21
 70
   128
 43
0.0
 10
174.8979198485
 20
128.9540811136
 10
175.6769963278
 20
129.0194059416
 10
176.3964607118
 20
129.3077629685
 10
176.9858873187
 20
129.7909247383
 10
177.3875760584
 20
130.4215977594
 10
177.562210217
 20
131.1380455896
 10
177.4926925747
 20
131.8701387077
 10
177.185829237
 20
132.5462137043
 10
176.6716590821
 20
133.1000917286
 10
176.0005117132
 20
133.477556768
 10
175.2380835562
 20
133.641659531
 10
174.4590061455
 20
133.576334703
 10
173.7395417615
 20
133.2879767448
 10
173.1501170172
 20
132.8048159063
 10
172.7484273462
 20
132.1741428852
 10
172.573794119
 20
131.457695055
 10
172.6433108299
 20
130.7256019369
 10
172.9501732363
 20
130.0495269403
 10
173.4643443226
 20
129.4956479847
 10
174.1354916914
 20
129.1181829452
 10
174.8979198485
 20
128.9540811136
  0
LWPOLYLINE
  5
157
330
1F
100
AcDbEntity
  8
0
  6
HIDDEN
 62
     7
370
     0
100
AcDbPolyline
 90
       20
 70
   128
 43
0.0
 10
174.9115264713
 20
128.9670646816
 10
175.6650828495
 20
129.0361548468
 10
176.3539365231
 20
129.3314250812
 10
176.9034391939
 20
129.820877935
 10
177.2540448903
 20
130.4514736563
 10
177.367757514
 20
131.1548783138
 10
177.2322556673
 20
131.8548659488
 10
176.8622244446
 20
132.4755831316
 10
176.2977600767
 20
132.9497632265
 10
175.6000327616
 20
133.2260251671
 10
174.8446519225
 20
133.2744278639
 10
174.1134752258
 20
133.0897298336
 10
173.4857349395
 20
132.6919433355
 10
173.0294585897
 20
132.1241746351
 10
172.7940891608
 20
131.4479515582
 10
172.8051346465
 20
130.7365524277
 10
173.0613964348
 20
130.0670693323
 10
173.5351043491
 20
129.5120513692
 10
174.1749257519
 20
129.1316414878
 10
174.9115264713
 20
128.9670646816
  0
LWPOLYLINE
  5
158
330
1F
100
AcDbEntity
  8
0
  6
HIDDEN
 62
     7
370
     0
100
AcDbPolyline
 90
       21
 70
   128
 43
0.0
 10
174.8979198485
 20
129.1900754601
 10
175.6769963278
 20
129.2554002881
 10
176.3964607118
 20
129.5437563836
 10
176.9858873187
 20
130.0269190848
 10
177.3875760584
 20
130.6575911745
 10
177.562210217
 20
131.3740390047
 10
177.4926925747
 20
132.1061321229
 10
177.185829237
 20
132.7822071194
 10
176.6716590821
 20
133.3360870063
 10
176.0005117132
 20
133.7135501832
 10
175.2380835562
 20
133.8776529461
 10
174.4590061455
 20
133.8123281181
 10
173.7395417615
 20
133.5239720225
 10
173.1501170172
 20
133.0408093214
 10
172.7484273462
 20
132.4101372316
 10
172.573794119
 20
131.6936884701
 10
172.6433108299
 20
130.961595352
 10
172.9501732363
 20
130.2855203554
 10
173.4643443226
 20
129.7316413998
 10
174.1354916914
 20
129.3541772917
 10
174.8979198485
 20
129.1900754601
  0
LWPOLYLINE
  5
159
330
1F
100
AcDbEntity
  8
0
  6
HIDDEN
 62
     7
370
     0
100
AcDbPolyline
 90
       20
 70
   128
 43
0.0
 10
174.9115264713
 20
129.2030590281
 10
175.6650828495
 20
129.2721491933
 10
176.3539365231
 20
129.5674184963
 10
176.9034391939
 20
130.0568722814
 10
177.2540448903
 20
130.6874680027
 10
177.367757514
 20
131.3908726603
 10
177.2322556673
 20
132.0908602953
 10
176.8622244446
 20
132.711577478
 10
176.2977600767
 20
133.1857585043
 10
175.6000327616
 20
133.4620185822
 10
174.8446519225
 20
133.5104231417
 10
174.1134752258
 20
133.3257232487
 10
173.4857349395
 20
132.9279367506
 10
173.0294585897
 20
132.3601680502
 10
172.7940891608
 20
131.6839449733
 10
172.8051346465
 20
130.9725467741
 10
173.0613964348
 20
130.3030636787
 10
173.5351043491
 20
129.7480447844
 10
174.1749257519
 20
129.3676358342
 10
174.9115264713
 20
129.2030590281
  0
LWPOLYLINE
  5
15A
330
1F
100
AcDbEntity
  8
0
  6
HIDDEN
 62
     7
370
     0
100
AcDbPolyline
 90
       21
 70
   128
 43
0.0
 10
174.8979198485
 20
129.4260688752
 10
175.6769963278
 20
129.4913937032
 10
176.3964607118
 20
129.7797507301
 10
176.9858873187
 20
130.2629124999
 10
177.3875760584
 20
130.893585521
 10
177.562210217
 20
131.6100333512
 10
177.4926925747
 20
132.3421264693
 10
177.185829237
 20
133.0182005346
 10
176.6716590821
 20
133.5720804214
 10
176.0005117132
 20
133.9495454609
 10
175.2380835562
 20
134.1136463612
 10
174.4590061455
 20
134.0483215332
 10
173.7395417615
 20
133.7599654376
 10
173.1501170172
 20
133.2768027365
 10
172.7484273462
 20
132.6461315781
 10
172.573794119
 20
131.9296828165
 10
172.6433108299
 20
131.1975896984
 10
172.9501732363
 20
130.5215147018
 10
173.4643443226
 20
129.9676357463
 10
174.1354916914
 20
129.5901707068
 10
174.8979198485
 20
129.4260688752
  0
LWPOLYLINE
  5
15B
330
1F
100
AcDbEntity
  8
0
  6
HIDDEN
 62
     7
370
     0
100
AcDbPolyline
 90
       20
 70
   128
 43
0.0
 10
174.9115264713
 20
129.4390524432
 10
175.6650828495
 20
129.5081426084
 10
176.3539365231
 20
129.8034128427
 10
176.9034391939
 20
130.2928656965
 10
177.2540448903
 20
130.9234623492
 10
177.367757514
 20
131.6268660754
 10
177.2322556673
 20
132.3268537104
 10
176.8622244446
 20
132.9475708932
 10
176.2977600767
 20
133.4217519194
 10
175.6000327616
 20
133.6980119973
 10
174.8446519225
 20
133.7464165568
 10
174.1134752258
 20
133.5617166638
 10
173.4857349395
 20
133.1639301658
 10
173.0294585897
 20
132.5961623967
 10
172.7940891608
 20
131.9199393198
 10
172.8051346465
 20
131.2085401893
 10
173.0613964348
 20
130.5390570938
 10
173.5351043491
 20
129.9840391308
 10
174.1749257519
 20
129.6036292493
 10
174.9115264713
 20
129.4390524432
  0
LWPOLYLINE
  5
15C
330
1F
100
AcDbEntity
  8
0
  6
HIDDEN
 62
     7
370
     0
100
AcDbPolyline
 90
       21
 70
   128
 43
0.0
 10
174.8979198485
 20
129.6620632216
 10
175.6769963278
 20
129.7273880496
 10
176.3964607118
 20
130.0157441452
 10
176.9858873187
 20
130.4989068463
 10
177.3875760584
 20
131.1295789361
 10
177.562210217
 20
131.8460267663
 10
177.4926925747
 20
132.5781198844
 10
177.185829237
 20
133.2541958123
 10
176.6716590821
 20
133.8080738365
 10
176.0005117132
 20
134.185538876
 10
175.2380835562
 20
134.3496397763
 10
174.4590061455
 20
134.2843149483
 10
173.7395417615
 20
133.9959588528
 10
173.1501170172
 20
133.5127961516
 10
172.7484273462
 20
132.8821249932
 10
172.573794119
 20
132.1656762317
 10
172.6433108299
 20
131.4335831135
 10
172.9501732363
 20
130.7575081169
 10
173.4643443226
 20
130.2036291614
 10
174.1354916914
 20
129.8261650532
 10
174.8979198485
 20
129.6620632216
  0
LWPOLYLINE
  5
15D
330
1F
100
AcDbEntity
  8
0
  6
HIDDEN
 62
     7
370
     0
100
AcDbPolyline
 90
       20
 70
   128
 43
0.0
 10
174.9115264713
 20
129.6750467896
 10
175.6650828495
 20
129.7441369548
 10
176.3539365231
 20
130.0394062579
 10
176.9034391939
 20
130.528860043
 10
177.2540448903
 20
131.1594557643
 10
177.367757514
 20
131.8628604218
 10
177.2322556673
 20
132.5628480568
 10
176.8622244446
 20
133.1835643083
 10
176.2977600767
 20
133.6577453345
 10
175.6000327616
 20
133.9340072751
 10
174.8446519225
 20
133.9824099719
 10
174.1134752258
 20
133.7977119416
 10
173.4857349395
 20
133.3999235809
 10
173.0294585897
 20
132.8321558118
 10
172.7940891608
 20
132.1559327349
 10
172.8051346465
 20
131.4445345357
 10
173.0613964348
 20
130.7750514403
 10
173.5351043491
 20
130.2200325459
 10
174.1749257519
 20
129.8396235958
 10
174.9115264713
 20
129.6750467896
  0
LWPOLYLINE
  5
15E
330
1F
100
AcDbEntity
  8
0
  6
HIDDEN
 62
     7
370
     0
100
AcDbPolyline
 90
       21
 70
   128
 43
0.0
 10
174.8979198485
 20
129.8501745492
 10
175.6769963278
 20
129.9154993772
 10
176.3964607118
 20
130.2038554728
 10
176.9858873187
 20
130.6870172426
 10
177.3875760584
 20
131.3176902637
 10
177.562210217
 20
132.0341380939
 10
177.4926925747
 20
132.766231212
 10
177.185829237
 20
133.4423062086
 10
176.6716590821
 20
133.9961842328
 10
176.0005117132
 20
134.3736492723
 10
175.2380835562
 20
134.5377520352
 10
174.4590061455
 20
134.4724272072
 10
173.7395417615
 20
134.1840711117
 10
173.1501170172
 20
133.7009084105
 10
172.7484273462
 20
133.0702353895
 10
172.573794119
 20
132.3537875593
 10
172.6433108299
 20
131.6216944411
 10
172.9501732363
 20
130.9456194445
 10
173.4643443226
 20
130.391740489
 10
174.1354916914
 20
130.0142763808
 10
174.8979198485
 20
129.8501745492
  0
LWPOLYLINE
  5
15F
330
1F
100
AcDbEntity
  8
0
  6
HIDDEN
 62
     7
370
     0
100
AcDbPolyline
 90
       21
 70
   128
 43
0.0
 10
174.9074444844
 20
130.0293088585
 10
175.6428931578
 20
130.0909754515
 10
176.3220675959
 20
130.3631842762
 10
176.8784853368
 20
130.8192892626
 10
177.257678911
 20
131.414644669
 10
177.4225341826
 20
132.0909711227
 10
177.3569094687
 20
132.7820674211
 10
177.0672308951
 20
133.4202822923
 10
176.5818535088
 20
133.9431435495
 10
175.9482905938
 20
134.2994694292
 10
175.2285589202
 20
134.454381901
 10
174.4931102468
 20
134.3927153081
 10
173.8139358087
 20
134.1205064833
 10
173.2575180678
 20
133.6644024283
 10
172.8783235623
 20
133.0690470218
 10
172.7134692221
 20
132.3927205682
 10
172.779093936
 20
131.7016242698
 10
173.0687715783
 20
131.0634093985
 10
173.5541489645
 20
130.5405481413
 10
174.1877118795
 20
130.1842213303
 10
174.9074444844
 20
130.0293088585
  0
ARC
  5
160
330
1F
100
AcDbEntity
  8
0
  6
HIDDEN
 62
     7
370
     0
100
AcDbCircle
 10
175.0528931314
 20
101.6351384624
 30
0.0
 40
2.479408675144699
100
AcDbArc
 50
345.3788411692
 51
182.3307801969
  0
ARC
  5
161
330
1F
100
AcDbEntity
  8
0
  6
HIDDEN
 62
     7
370
     0
100
AcDbCircle
 10
175.0483889385
 20
101.5754839855
 30
0.0
 40
2.357285514969169
100
AcDbArc
 50
351.1507649568
 51
158.3919933761
  0
ARC
  5
162
330
1F
100
AcDbEntity
  8
0
  6
HIDDEN
 62
     7
370
     0
100
AcDbCircle
 10
175.0743791542
 20
101.5816608749
 30
0.0
 40
1.995520474728729
100
AcDbArc
 50
2.4988843007
 51
126.5687074509
  0
LWPOLYLINE
  5
163
330
1F
100
AcDbEntity
  8
0
  6
HIDDEN
 62
     7
370
     0
100
AcDbPolyline
 90
       21
 70
   128
 43
0.0
 10
174.2129516526
 20
99.6971030414
 10
173.5288477241
 20
100.053440097
 10
172.9954075738
 20
100.5909845859
 10
172.6648476644
 20
101.2571223706
 10
172.5695249363
 20
101.9866459697
 10
172.7187703102
 20
102.7081434309
 10
173.0979750602
 20
103.3509907007
 10
173.6700194626
 20
103.8522601753
 10
174.3789086788
 20
104.162885125
 10
175.1552507951
 20
104.2524597302
 10
175.923051752
 20
104.1122146576
 10
176.6071556805
 20
103.7558785334
 10
177.1405948995
 20
103.2183321819
 10
177.4711566715
 20
102.5521953285
 10
177.5664793997
 20
101.8226717293
 10
177.4172330945
 20
101.1011742681
 10
177.0380283444
 20
100.4583269983
 10
176.465983942
 20
99.9570575237
 10
175.7570947259
 20
99.6464335054
 10
174.9807526096
 20
99.5568589002
 10
174.2129516526
 20
99.6971030414
  0
LWPOLYLINE
  5
164
330
1F
100
AcDbEntity
  8
0
  6
HIDDEN
 62
     7
370
     0
100
AcDbPolyline
 90
       19
 70
   128
 43
0.0
 10
174.3839611037
 20
101.3203964263
 10
173.7824263721
 20
101.6467486203
 10
173.3359512611
 20
102.1467487022
 10
173.0983857735
 20
102.7600888789
 10
173.0983857735
 20
103.4127932668
 10
173.3359512611
 20
104.0261334434
 10
173.7824263721
 20
104.5261335254
 10
174.3839611037
 20
104.8524857193
 10
175.0680017023
 20
104.965825814
 10
175.7520423009
 20
104.8524857193
 10
176.3535770326
 20
104.5261335254
 10
176.8000530748
 20
104.0261334434
 10
177.0376166998
 20
103.4127932668
 10
177.0376166998
 20
102.7600888789
 10
176.8000530748
 20
102.1467487022
 10
176.3535770326
 20
101.6467486203
 10
175.7520423009
 20
101.3203964263
 10
175.0680017023
 20
101.2070563316
 10
174.3839611037
 20
101.3203964263
  0
LWPOLYLINE
  5
165
330
1F
100
AcDbEntity
  8
0
  6
HIDDEN
 62
     7
370
     0
100
AcDbPolyline
 90
       21
 70
   128
 43
0.0
 10
174.2129516526
 20
99.9330964565
 10
173.5288477241
 20
100.2894335121
 10
172.9954075738
 20
100.8269798636
 10
172.6648476644
 20
101.493116717
 10
172.5695249363
 20
102.2226403162
 10
172.7187703102
 20
102.9441377774
 10
173.0979750602
 20
103.5869841158
 10
173.6700194626
 20
104.0882545218
 10
174.3789086788
 20
104.3988794714
 10
175.1552507951
 20
104.4884531453
 10
175.923051752
 20
104.3482080728
 10
176.6071556805
 20
103.9918728798
 10
177.1405948995
 20
103.4543265283
 10
177.4711566715
 20
102.7881887436
 10
177.5664793997
 20
102.0586660758
 10
177.4172330945
 20
101.3371686146
 10
177.0380283444
 20
100.6943222761
 10
176.465983942
 20
100.1930509388
 10
175.7570947259
 20
99.8824269205
 10
174.9807526096
 20
99.7928523153
 10
174.2129516526
 20
99.9330964565
  0
LWPOLYLINE
  5
166
330
1F
100
AcDbEntity
  8
0
  6
HIDDEN
 62
     7
370
     0
100
AcDbPolyline
 90
       20
 70
   128
 43
0.0
 10
174.2813554331
 20
100.0482284158
 10
173.6222072243
 20
100.3982902199
 10
173.1197335495
 20
100.9305019557
 10
172.8283851146
 20
101.5871924043
 10
172.7797337546
 20
102.2971964136
 10
172.9790516867
 20
102.9835746318
 10
173.4047396778
 20
103.5719479129
 10
174.0106674581
 20
103.9985560506
 10
174.7311749234
 20
104.2171700552
 10
175.4881818517
 20
104.2040998742
 10
176.1996564193
 20
103.9607611179
 10
176.788499087
 20
103.5135241851
 10
177.1908974944
 20
102.9108532399
 10
177.3632480501
 20
102.2180582091
 10
177.286874011
 20
101.5102120742
 10
176.970049247
 20
100.8640241504
 10
176.4471088274
 20
100.349514994
 10
175.7747209369
 20
100.022443819
 10
175.0257485284
 20
99.9182511747
 10
174.2813554331
 20
100.0482284158
  0
LWPOLYLINE
  5
167
330
1F
100
AcDbEntity
  8
0
  6
HIDDEN
 62
     7
370
     0
100
AcDbPolyline
 90
       21
 70
   128
 43
0.0
 10
174.2129516526
 20
100.1690917343
 10
173.5288477241
 20
100.5254269272
 10
172.9954075738
 20
101.0629732787
 10
172.6648476644
 20
101.7291110635
 10
172.5695249363
 20
102.4586337313
 10
172.7187703102
 20
103.1801311925
 10
173.0979750602
 20
103.8229784623
 10
173.6700194626
 20
104.3242479369
 10
174.3789086788
 20
104.6348728865
 10
175.1552507951
 20
104.7244474917
 10
175.923051752
 20
104.5842024192
 10
176.6071556805
 20
104.227866295
 10
177.1405948995
 20
103.6903208747
 10
177.4711566715
 20
103.02418309
 10
177.5664793997
 20
102.2946594909
 10
177.4172330945
 20
101.5731620297
 10
177.0380283444
 20
100.9303156912
 10
176.465983942
 20
100.4290462166
 10
175.7570947259
 20
100.1184203356
 10
174.9807526096
 20
100.0288457304
 10
174.2129516526
 20
100.1690917343
  0
LWPOLYLINE
  5
168
330
1F
100
AcDbEntity
  8
0
  6
HIDDEN
 62
     7
370
     0
100
AcDbPolyline
 90
       20
 70
   128
 43
0.0
 10
174.2813554331
 20
100.2842218309
 10
173.6222072243
 20
100.634283635
 10
173.1197335495
 20
101.1664972335
 10
172.8283851146
 20
101.8231858194
 10
172.7797337546
 20
102.5331898287
 10
172.9790516867
 20
103.2195680469
 10
173.4047396778
 20
103.807941328
 10
174.0106674581
 20
104.2345494658
 10
174.7311749234
 20
104.4531644016
 10
175.4881818517
 20
104.4400932893
 10
176.1996564193
 20
104.1967554644
 10
176.788499087
 20
103.7495176002
 10
177.1908974944
 20
103.1468475863
 10
177.3632480501
 20
102.4540516242
 10
177.286874011
 20
101.7462064206
 10
176.970049247
 20
101.1000175655
 10
176.4471088274
 20
100.5855102718
 10
175.7747209369
 20
100.2584372341
 10
175.0257485284
 20
100.1542445898
 10
174.2813554331
 20
100.2842218309
  0
LWPOLYLINE
  5
169
330
1F
100
AcDbEntity
  8
0
  6
HIDDEN
 62
     7
370
     0
100
AcDbPolyline
 90
       21
 70
   128
 43
0.0
 10
174.2129516526
 20
100.4050851494
 10
173.5288477241
 20
100.7614203423
 10
172.9954075738
 20
101.2989666939
 10
172.6648476644
 20
101.9651044786
 10
172.5695249363
 20
102.6946280777
 10
172.7187703102
 20
103.4161255389
 10
173.0979750602
 20
104.0589718774
 10
173.6700194626
 20
104.5602422833
 10
174.3789086788
 20
104.870867233
 10
175.1552507951
 20
104.9604409069
 10
175.923051752
 20
104.8201958343
 10
176.6071556805
 20
104.4638606414
 10
177.1405948995
 20
103.9263142899
 10
177.4711566715
 20
103.2601765051
 10
177.5664793997
 20
102.5306538373
 10
177.4172330945
 20
101.8091563761
 10
177.0380283444
 20
101.1663091063
 10
176.465983942
 20
100.6650396317
 10
175.7570947259
 20
100.3544137508
 10
174.9807526096
 20
100.2648410082
 10
174.2129516526
 20
100.4050851494
  0
LWPOLYLINE
  5
16A
330
1F
100
AcDbEntity
  8
0
  6
HIDDEN
 62
     7
370
     0
100
AcDbPolyline
 90
       20
 70
   128
 43
0.0
 10
174.2813554331
 20
100.5202152461
 10
173.6222072243
 20
100.8702770501
 10
173.1197335495
 20
101.4024906486
 10
172.8283851146
 20
102.0591801658
 10
172.7797337546
 20
102.7691841751
 10
172.9790516867
 20
103.4555623934
 10
173.4047396778
 20
104.0439356744
 10
174.0106674581
 20
104.4705438122
 10
174.7311749234
 20
104.6891578168
 10
175.4881818517
 20
104.6760876357
 10
176.1996564193
 20
104.4327488795
 10
176.788499087
 20
103.9855119467
 10
177.1908974944
 20
103.3828410014
 10
177.3632480501
 20
102.6900459707
 10
177.286874011
 20
101.9822007671
 10
176.970049247
 20
101.3360109806
 10
176.4471088274
 20
100.8215036869
 10
175.7747209369
 20
100.4944306493
 10
175.0257485284
 20
100.3902380049
 10
174.2813554331
 20
100.5202152461
  0
LWPOLYLINE
  5
16B
330
1F
100
AcDbEntity
  8
0
  6
HIDDEN
 62
     7
370
     0
100
AcDbPolyline
 90
       21
 70
   128
 43
0.0
 10
174.2129516526
 20
100.6410785645
 10
173.5288477241
 20
100.9974156201
 10
172.9954075738
 20
101.5349610403
 10
172.6648476644
 20
102.201098825
 10
172.5695249363
 20
102.9306214928
 10
172.7187703102
 20
103.652118954
 10
173.0979750602
 20
104.2949662238
 10
173.6700194626
 20
104.7962356984
 10
174.3789086788
 20
105.1068606481
 10
175.1552507951
 20
105.1964352533
 10
175.923051752
 20
105.0561901808
 10
176.6071556805
 20
104.6998540565
 10
177.1405948995
 20
104.1623086363
 10
177.4711566715
 20
103.4961708516
 10
177.5664793997
 20
102.7666472524
 10
177.4172330945
 20
102.0451497912
 10
177.0380283444
 20
101.4023034528
 10
176.465983942
 20
100.9010330468
 10
175.7570947259
 20
100.5904090285
 10
174.9807526096
 20
100.5008344233
 10
174.2129516526
 20
100.6410785645
  0
LWPOLYLINE
  5
16C
330
1F
100
AcDbEntity
  8
0
  6
HIDDEN
 62
     7
370
     0
100
AcDbPolyline
 90
       20
 70
   128
 43
0.0
 10
174.2813554331
 20
100.7562086612
 10
173.6222072243
 20
101.1062723279
 10
173.1197335495
 20
101.6384840637
 10
172.8283851146
 20
102.2951735809
 10
172.7797337546
 20
103.0051775902
 10
172.9790516867
 20
103.6915558085
 10
173.4047396778
 20
104.2799290895
 10
174.0106674581
 20
104.7065372273
 10
174.7311749234
 20
104.9251521632
 10
175.4881818517
 20
104.9120810509
 10
176.1996564193
 20
104.6687432259
 10
176.788499087
 20
104.2215053618
 10
177.1908974944
 20
103.6188353479
 10
177.3632480501
 20
102.9260393858
 10
177.286874011
 20
102.2181941822
 10
176.970049247
 20
101.572005327
 10
176.4471088274
 20
101.057497102
 10
175.7747209369
 20
100.730425927
 10
175.0257485284
 20
100.62623142
 10
174.2813554331
 20
100.7562086612
  0
LWPOLYLINE
  5
16D
330
1F
100
AcDbEntity
  8
0
  6
HIDDEN
 62
     7
370
     0
100
AcDbPolyline
 90
       21
 70
   128
 43
0.0
 10
174.2129516526
 20
101.2396135062
 10
173.5288477241
 20
101.5959505617
 10
172.9954075738
 20
102.133495982
 10
172.6648476644
 20
102.7996337667
 10
172.5695249363
 20
103.5291564345
 10
172.7187703102
 20
104.2506538957
 10
173.0979750602
 20
104.8935011655
 10
173.6700194626
 20
105.3947706401
 10
174.3789086788
 20
105.7053965211
 10
175.1552507951
 20
105.794970195
 10
175.923051752
 20
105.6547251224
 10
176.6071556805
 20
105.2983899295
 10
177.1405948995
 20
104.760843578
 10
177.4711566715
 20
104.0947057932
 10
177.5664793997
 20
103.3651831254
 10
177.4172330945
 20
102.6436856642
 10
177.0380283444
 20
102.0008383944
 10
176.465983942
 20
101.4995689198
 10
175.7570947259
 20
101.1889439702
 10
174.9807526096
 20
101.099369365
 10
174.2129516526
 20
101.2396135062
  0
LWPOLYLINE
  5
16E
330
1F
100
AcDbEntity
  8
0
  6
HIDDEN
 62
     7
370
     0
100
AcDbPolyline
 90
       19
 70
   128
 43
0.0
 10
174.3906703516
 20
101.8010520071
 10
173.7950346171
 20
102.1242032453
 10
173.3529376536
 20
102.6192989826
 10
173.1177032663
 20
103.2266246781
 10
173.1177032663
 20
103.8729271546
 10
173.3529376536
 20
104.4802519187
 10
173.7950346171
 20
104.9753485873
 10
174.3906703516
 20
105.2984998256
 10
175.0680017023
 20
105.4107288524
 10
175.7453330531
 20
105.2984998256
 10
176.3409687876
 20
104.9753485873
 10
176.7830657511
 20
104.4802519187
 10
177.018299207
 20
103.8729271546
 10
177.018299207
 20
103.2266246781
 10
176.7830657511
 20
102.6192989826
 10
176.3409687876
 20
102.1242032453
 10
175.7453330531
 20
101.8010520071
 10
175.0680017023
 20
101.6888229802
 10
174.3906703516
 20
101.8010520071
  0
LWPOLYLINE
  5
16F
330
1F
100
AcDbEntity
  8
0
  6
HIDDEN
 62
     7
370
     0
100
AcDbPolyline
 90
       19
 70
   128
 43
0.0
 10
165.2355901635
 20
101.9328145936
 10
165.5911211594
 20
101.4267273873
 10
165.9946096799
 20
101.1164796233
 10
166.3973889983
 20
101.0394909113
 10
166.7508785351
 20
101.2050446749
 10
167.0124414115
 20
101.5931770831
 10
167.1505300066
 20
102.1570714816
 10
167.1484880819
 20
102.8287133828
 10
167.0065624378
 20
103.527093555
 10
166.7418717145
 20
104.1679766655
 10
166.3863407186
 20
104.6740629405
 10
165.9828521981
 20
104.9843116358
 10
165.580072414
 20
105.0613003477
 10
165.2265833429
 20
104.8957456529
 10
164.9650204665
 20
104.5076132446
 10
164.8269318714
 20
103.9437197774
 10
164.8289737961
 20
103.2720778763
 10
164.9708994402
 20
102.5736977041
 10
165.2355901635
 20
101.9328145936
  0
LWPOLYLINE
  5
170
330
1F
100
AcDbEntity
  8
0
  6
HIDDEN
 62
     7
370
     0
100
AcDbPolyline
 90
       21
 70
   128
 43
0.0
 10
165.2829586266
 20
101.7412089437
 10
165.6686621456
 20
101.1774030208
 10
166.1062971427
 20
100.8018732697
 10
166.5530251077
 20
100.6513771295
 10
166.9651167205
 20
100.7406481236
 10
167.3022340721
 20
101.0609448582
 10
167.5313776097
 20
101.5809190154
 10
167.6301173604
 20
102.2496682286
 10
167.5887875928
 20
103.0017316967
 10
167.4114339723
 20
103.7634930268
 10
167.1154177486
 20
104.4603840142
 10
166.7297142296
 20
105.0241899371
 10
166.2920792325
 20
105.3997206196
 10
165.8453512675
 20
105.5502167597
 10
165.4332596547
 20
105.460946697
 10
165.0961423031
 20
105.1406480998
 10
164.8669987655
 20
104.6206748739
 10
164.7682590148
 20
103.9519256607
 10
164.8095887824
 20
103.1998612612
 10
164.9869424029
 20
102.4381008625
 10
165.2829586266
 20
101.7412089437
  0
LWPOLYLINE
  5
171
330
1F
100
AcDbEntity
  8
0
  6
HIDDEN
 62
     7
370
     0
100
AcDbPolyline
 90
       21
 70
   128
 43
0.0
 10
167.7347453981
 20
102.3283752307
 10
168.120448917
 20
101.7645693078
 10
168.5580839141
 20
101.3890395567
 10
169.0048123448
 20
101.2385424852
 10
169.4169039576
 20
101.3278134793
 10
169.7540213092
 20
101.6481120765
 10
169.9831648468
 20
102.1680853024
 10
170.0819045975
 20
102.8368345156
 10
170.0405743643
 20
103.5888979837
 10
169.8632207437
 20
104.3506593138
 10
169.56720452
 20
105.0475512326
 10
169.181501001
 20
105.6113562241
 10
168.7438660039
 20
105.9868869066
 10
168.2971380389
 20
106.1373830467
 10
167.8850464261
 20
106.048112984
 10
167.5479290745
 20
105.7278143868
 10
167.3187855369
 20
105.2078411609
 10
167.2200457862
 20
104.5390919477
 10
167.2613755538
 20
103.7870284796
 10
167.4387291743
 20
103.0252671495
 10
167.7347453981
 20
102.3283752307
  0
LINE
  5
172
330
1F
100
AcDbEntity
  8
0
  6
HIDDEN
 62
     7
370
     0
100
AcDbLine
 10
166.8047466985
 20
102.4229491755
 30
0.0
 11
166.5177163406
 21
103.8353538766
 31
0.0
  0
LINE
  5
173
330
1F
100
AcDbEntity
  8
0
  6
HIDDEN
 62
     7
370
     0
100
AcDbLine
 10
165.7017003483
 20
104.462799865
 30
0.0
 11
166.5177163406
 21
103.8353538766
 31
0.0
  0
LINE
  5
174
330
1F
100
AcDbEntity
  8
0
  6
HIDDEN
 62
     7
370
     0
100
AcDbLine
 10
165.1727151795
 20
103.6778420836
 30
0.0
 11
165.7017003483
 21
104.462799865
 31
0.0
  0
LINE
  5
175
330
1F
100
AcDbEntity
  8
0
  6
HIDDEN
 62
     7
370
     0
100
AcDbLine
 10
165.1727151795
 20
103.6778420836
 30
0.0
 11
165.4597455374
 21
102.2654373824
 31
0.0
  0
LINE
  5
176
330
1F
100
AcDbEntity
  8
0
  6
HIDDEN
 62
     7
370
     0
100
AcDbLine
 10
166.2757615297
 20
101.6379904628
 30
0.0
 11
165.4597455374
 21
102.2654373824
 31
0.0
  0
LINE
  5
177
330
1F
100
AcDbEntity
  8
0
  6
HIDDEN
 62
     7
370
     0
100
AcDbLine
 10
166.2757615297
 20
101.6379904628
 30
0.0
 11
166.8047466985
 21
102.4229491755
 31
0.0
  0
LINE
  5
178
330
1F
100
AcDbEntity
  8
0
  6
HIDDEN
 62
     7
370
     0
100
AcDbLine
 10
168.1560203171
 20
104.2277033135
 30
0.0
 11
166.5177163406
 21
103.8353538766
 31
0.0
  0
LWPOLYLINE
  5
179
330
1F
100
AcDbEntity
  8
0
  6
HIDDEN
 62
     7
370
     0
100
AcDbPolyline
 90
       18
 70
   128
 43
0.0
 10
168.6239787116
 20
102.8833829492
 10
168.9462144597
 20
102.4318339929
 10
169.311549954
 20
102.1698035925
 10
169.6706446557
 20
102.1326801434
 10
169.9749999418
 20
102.3254769549
 10
170.1835128217
 20
102.7221551791
 10
170.2680201008
 20
103.2691432789
 10
170.2171102836
 20
103.8925650224
 10
170.0376583933
 20
104.5082260549
 10
169.7539002373
 20
105.0329760343
 10
169.4041597395
 20
105.3959459692
 10
169.035670787
 20
105.5481138334
 10
168.6981995328
 20
105.4689290628
 10
168.4373235068
 20
105.1690860346
 10
168.2882755733
 20
104.6890795857
 10
168.271185804
 20
104.0937381491
 10
168.3883620164
 20
103.4634655967
 10
168.6239787116
 20
102.8833829492
  0
LINE
  5
17A
330
1F
100
AcDbEntity
  8
0
  6
HIDDEN
 62
     7
370
     0
100
AcDbLine
 10
168.443050675
 20
102.8152986124
 30
0.0
 11
166.8047466985
 21
102.4229491755
 31
0.0
  0
LINE
  5
17B
330
1F
100
AcDbEntity
  8
0
  6
HIDDEN
 62
     7
370
     0
100
AcDbLine
 10
166.811019156
 20
104.0701915204
 30
0.0
 11
167.0980495139
 21
102.6577868193
 31
0.0
  0
LINE
  5
17C
330
1F
100
AcDbEntity
  8
0
  6
HIDDEN
 62
     7
370
     0
100
AcDbLine
 10
166.811019156
 20
104.0701915204
 30
0.0
 11
167.3400047905
 21
104.8551493019
 31
0.0
  0
LINE
  5
17D
330
1F
100
AcDbEntity
  8
0
  6
HIDDEN
 62
     7
370
     0
100
AcDbLine
 10
167.9140655062
 20
102.0303398996
 30
0.0
 11
167.0980495139
 21
102.6577868193
 31
0.0
  0
LINE
  5
17E
330
1F
100
AcDbEntity
  8
0
  6
HIDDEN
 62
     7
370
     0
100
AcDbLine
 10
167.9140655062
 20
102.0303398996
 30
0.0
 11
168.443050675
 21
102.8152986124
 31
0.0
  0
LINE
  5
17F
330
1F
100
AcDbEntity
  8
0
  6
HIDDEN
 62
     7
370
     0
100
AcDbLine
 10
167.3400047905
 20
104.8551493019
 30
0.0
 11
168.1560203171
 21
104.2277033135
 31
0.0
  0
LINE
  5
180
330
1F
100
AcDbEntity
  8
0
  6
HIDDEN
 62
     7
370
     0
100
AcDbLine
 10
168.443050675
 20
102.8152986124
 30
0.0
 11
168.1560203171
 21
104.2277033135
 31
0.0
  0
LINE
  5
181
330
1F
100
AcDbEntity
  8
0
  6
HIDDEN
 62
     7
370
     0
100
AcDbLine
 10
166.811019156
 20
104.0701915204
 30
0.0
 11
165.1727151795
 21
103.6778420836
 31
0.0
  0
LINE
  5
182
330
1F
100
AcDbEntity
  8
0
  6
HIDDEN
 62
     7
370
     0
100
AcDbLine
 10
167.3400047905
 20
104.8551493019
 30
0.0
 11
165.7017003483
 21
104.462799865
 31
0.0
  0
LINE
  5
183
330
1F
100
AcDbEntity
  8
0
  6
HIDDEN
 62
     7
370
     0
100
AcDbLine
 10
167.0980495139
 20
102.6577868193
 30
0.0
 11
165.4597455374
 21
102.2654373824
 31
0.0
  0
LINE
  5
184
330
1F
100
AcDbEntity
  8
0
  6
HIDDEN
 62
     7
370
     0
100
AcDbLine
 10
167.9140655062
 20
102.0303398996
 30
0.0
 11
166.2757615297
 21
101.6379904628
 31
0.0
  0
LWPOLYLINE
  5
185
330
1F
100
AcDbEntity
  8
0
  6
HIDDEN
 62
     7
370
     0
100
AcDbPolyline
 90
       21
 70
   128
 43
0.0
 10
167.7347453981
 20
131.5821355834
 10
168.120448917
 20
132.1459415063
 10
168.5580839141
 20
132.5214712575
 10
169.0048123448
 20
132.6719683289
 10
169.4169039576
 20
132.5826973349
 10
169.7540213092
 20
132.2623987377
 10
169.9831648468
 20
131.7424255118
 10
170.0819045975
 20
131.0736762985
 10
170.0405743643
 20
130.3216128304
 10
169.8632207437
 20
129.5598515004
 10
169.56720452
 20
128.8629595816
 10
169.181501001
 20
128.2991545901
 10
168.7438660039
 20
127.9236239075
 10
168.2971380389
 20
127.7731277674
 10
167.8850464261
 20
127.8623978302
 10
167.5479290745
 20
128.1826964274
 10
167.3187855369
 20
128.7026696533
 10
167.2200457862
 20
129.3714188665
 10
167.2613755538
 20
130.1234823346
 10
167.4387291743
 20
130.8852436647
 10
167.7347453981
 20
131.5821355834
  0
LWPOLYLINE
  5
186
330
1F
100
AcDbEntity
  8
0
  6
HIDDEN
 62
     7
370
     0
100
AcDbPolyline
 90
       18
 70
   128
 43
0.0
 10
168.6239787116
 20
131.0271278649
 10
168.9462144597
 20
131.4786768213
 10
169.311549954
 20
131.7407072216
 10
169.6706446557
 20
131.7778306708
 10
169.9749999418
 20
131.5850338593
 10
170.1835128217
 20
131.1883556351
 10
170.2680201008
 20
130.6413675353
 10
170.2171102836
 20
130.0179457918
 10
170.0376583933
 20
129.4022847593
 10
169.7539002373
 20
128.8775347799
 10
169.4041597395
 20
128.5145648449
 10
169.035670787
 20
128.3623969808
 10
168.6981995328
 20
128.4415817514
 10
168.4373235068
 20
128.7414247796
 10
168.2882755733
 20
129.2214312285
 10
168.271185804
 20
129.8167726651
 10
168.3883620164
 20
130.4470452174
 10
168.6239787116
 20
131.0271278649
  0
LWPOLYLINE
  5
187
330
1F
100
AcDbEntity
  8
0
  6
HIDDEN
 62
     7
370
     0
100
AcDbPolyline
 90
       21
 70
   128
 43
0.0
 10
165.2829586266
 20
132.1693018704
 10
165.6686621456
 20
132.7331077933
 10
166.1062971427
 20
133.1086375445
 10
166.5530251077
 20
133.2591336846
 10
166.9651167205
 20
133.1698626906
 10
167.3022340721
 20
132.849565956
 10
167.5313776097
 20
132.3295917988
 10
167.6301173604
 20
131.6608425855
 10
167.5887875928
 20
130.9087791174
 10
167.4114339723
 20
130.1470177874
 10
167.1154177486
 20
129.4501267999
 10
166.7297142296
 20
128.8863208771
 10
166.2920792325
 20
128.5107901946
 10
165.8453512675
 20
128.3602940544
 10
165.4332596547
 20
128.4495641172
 10
165.0961423031
 20
128.7698627144
 10
164.8669987655
 20
129.2898359403
 10
164.7682590148
 20
129.9585851535
 10
164.8095887824
 20
130.7106495529
 10
164.9869424029
 20
131.4724099517
 10
165.2829586266
 20
132.1693018704
  0
LINE
  5
188
330
1F
100
AcDbEntity
  8
0
  6
HIDDEN
 62
     7
370
     0
100
AcDbLine
 10
166.811019156
 20
129.8403192937
 30
0.0
 11
167.0980495139
 21
131.2527239948
 31
0.0
  0
LINE
  5
189
330
1F
100
AcDbEntity
  8
0
  6
HIDDEN
 62
     7
370
     0
100
AcDbLine
 10
165.1727151795
 20
130.2326687306
 30
0.0
 11
165.4597455374
 21
131.6450734317
 31
0.0
  0
LWPOLYLINE
  5
18A
330
1F
100
AcDbEntity
  8
0
  6
HIDDEN
 62
     7
370
     0
100
AcDbPolyline
 90
       19
 70
   128
 43
0.0
 10
165.2355901635
 20
131.9776962206
 10
165.5911211594
 20
132.4837834269
 10
165.9946096799
 20
132.7940311909
 10
166.3973889983
 20
132.8710199028
 10
166.7508785351
 20
132.7054661393
 10
167.0124414115
 20
132.317333731
 10
167.1505300066
 20
131.7534393325
 10
167.1484880819
 20
131.0817974314
 10
167.0065624378
 20
130.3834172591
 10
166.7418717145
 20
129.7425341487
 10
166.3863407186
 20
129.2364478737
 10
165.9828521981
 20
128.9261991784
 10
165.580072414
 20
128.8492104664
 10
165.2265833429
 20
129.0147651613
 10
164.9650204665
 20
129.4028975695
 10
164.8269318714
 20
129.9667910367
 10
164.8289737961
 20
130.6384329378
 10
164.9708994402
 20
131.3368131101
 10
165.2355901635
 20
131.9776962206
  0
LINE
  5
18B
330
1F
100
AcDbEntity
  8
0
  6
HIDDEN
 62
     7
370
     0
100
AcDbLine
 10
166.2757615297
 20
132.2725203514
 30
0.0
 11
165.4597455374
 21
131.6450734317
 31
0.0
  0
LINE
  5
18C
330
1F
100
AcDbEntity
  8
0
  6
HIDDEN
 62
     7
370
     0
100
AcDbLine
 10
167.0980495139
 20
131.2527239948
 30
0.0
 11
165.4597455374
 21
131.6450734317
 31
0.0
  0
LINE
  5
18D
330
1F
100
AcDbEntity
  8
0
  6
HIDDEN
 62
     7
370
     0
100
AcDbLine
 10
167.9140655062
 20
131.8801709145
 30
0.0
 11
167.0980495139
 21
131.2527239948
 31
0.0
  0
LINE
  5
18E
330
1F
100
AcDbEntity
  8
0
  6
HIDDEN
 62
     7
370
     0
100
AcDbLine
 10
165.1727151795
 20
130.2326687306
 30
0.0
 11
165.7017003483
 21
129.4477109492
 31
0.0
  0
LINE
  5
18F
330
1F
100
AcDbEntity
  8
0
  6
HIDDEN
 62
     7
370
     0
100
AcDbLine
 10
166.811019156
 20
129.8403192937
 30
0.0
 11
165.1727151795
 21
130.2326687306
 31
0.0
  0
LINE
  5
190
330
1F
100
AcDbEntity
  8
0
  6
HIDDEN
 62
     7
370
     0
100
AcDbLine
 10
166.811019156
 20
129.8403192937
 30
0.0
 11
167.3400047905
 21
129.0553615123
 31
0.0
  0
LINE
  5
191
330
1F
100
AcDbEntity
  8
0
  6
HIDDEN
 62
     7
370
     0
100
AcDbLine
 10
168.443050675
 20
131.0952122018
 30
0.0
 11
166.8047466985
 21
131.4875616386
 31
0.0
  0
LINE
  5
192
330
1F
100
AcDbEntity
  8
0
  6
HIDDEN
 62
     7
370
     0
100
AcDbLine
 10
167.9140655062
 20
131.8801709145
 30
0.0
 11
166.2757615297
 21
132.2725203514
 31
0.0
  0
LINE
  5
193
330
1F
100
AcDbEntity
  8
0
  6
HIDDEN
 62
     7
370
     0
100
AcDbLine
 10
166.2757615297
 20
132.2725203514
 30
0.0
 11
166.8047466985
 21
131.4875616386
 31
0.0
  0
LINE
  5
194
330
1F
100
AcDbEntity
  8
0
  6
HIDDEN
 62
     7
370
     0
100
AcDbLine
 10
167.9140655062
 20
131.8801709145
 30
0.0
 11
168.443050675
 21
131.0952122018
 31
0.0
  0
LINE
  5
195
330
1F
100
AcDbEntity
  8
0
  6
HIDDEN
 62
     7
370
     0
100
AcDbLine
 10
168.1560203171
 20
129.6828075006
 30
0.0
 11
166.5177163406
 21
130.0751569375
 31
0.0
  0
LINE
  5
196
330
1F
100
AcDbEntity
  8
0
  6
HIDDEN
 62
     7
370
     0
100
AcDbLine
 10
167.3400047905
 20
129.0553615123
 30
0.0
 11
165.7017003483
 21
129.4477109492
 31
0.0
  0
LINE
  5
197
330
1F
100
AcDbEntity
  8
0
  6
HIDDEN
 62
     7
370
     0
100
AcDbLine
 10
165.7017003483
 20
129.4477109492
 30
0.0
 11
166.5177163406
 21
130.0751569375
 31
0.0
  0
LINE
  5
198
330
1F
100
AcDbEntity
  8
0
  6
HIDDEN
 62
     7
370
     0
100
AcDbLine
 10
167.3400047905
 20
129.0553615123
 30
0.0
 11
168.1560203171
 21
129.6828075006
 31
0.0
  0
LINE
  5
199
330
1F
100
AcDbEntity
  8
0
  6
HIDDEN
 62
     7
370
     0
100
AcDbLine
 10
166.8047466985
 20
131.4875616386
 30
0.0
 11
166.5177163406
 21
130.0751569375
 31
0.0
  0
LINE
  5
19A
330
1F
100
AcDbEntity
  8
0
  6
HIDDEN
 62
     7
370
     0
100
AcDbLine
 10
168.443050675
 20
131.0952122018
 30
0.0
 11
168.1560203171
 21
129.6828075006
 31
0.0
  0
LINE
  5
19B
330
1F
100
AcDbEntity
  8
0
  6
HIDDEN
 62
     7
370
     0
100
AcDbLine
 10
177.5680011808
 20
100.2909422546
 30
0.0
 11
177.5680011808
 21
103.4471702456
 31
0.0
  0
LINE
  5
19C
330
1F
100
AcDbEntity
  8
0
  6
HIDDEN
 62
     7
370
     0
100
AcDbLine
 10
172.5680012925
 20
103.4471702456
 30
0.0
 11
172.5680012925
 21
101.3935108363
 31
0.0
  0
LINE
  5
19D
330
1F
100
AcDbEntity
  8
0
  6
HIDDEN
 62
     7
370
     0
100
AcDbLine
 10
164.0680015291
 20
99.5055784166
 30
0.0
 11
166.6874293907
 21
100.1328930884
 31
0.0
  0
LINE
  5
19E
330
1F
100
AcDbEntity
  8
0
  6
HIDDEN
 62
     7
370
     0
100
AcDbLine
 10
165.2900324873
 20
105.9678981706
 30
0.0
 11
164.0680015291
 21
105.6752393648
 31
0.0
  0
LINE
  5
19F
330
1F
100
AcDbEntity
  8
0
  6
HIDDEN
 62
     7
370
     0
100
AcDbLine
 10
166.746152073
 20
101.0724057138
 30
0.0
 11
174.2153013795
 21
102.8611550733
 31
0.0
  0
LINE
  5
1A0
330
1F
100
AcDbEntity
  8
0
  6
HIDDEN
 62
     7
370
     0
100
AcDbLine
 10
174.2153013795
 20
107.1799176439
 30
0.0
 11
165.767974194
 21
105.1569089919
 31
0.0
  0
LINE
  5
1A1
330
1F
100
AcDbEntity
  8
0
  6
HIDDEN
 62
     7
370
     0
100
AcDbLine
 10
177.1680018603
 20
103.4969643384
 30
0.0
 11
177.1680018603
 21
114.9057990566
 31
0.0
  0
LINE
  5
1A2
330
1F
100
AcDbEntity
  8
0
  6
HIDDEN
 62
     7
370
     0
100
AcDbLine
 10
172.9680015444
 20
103.8450144857
 30
0.0
 11
172.9680015444
 21
103.4969643384
 31
0.0
  0
LINE
  5
1A3
330
1F
100
AcDbEntity
  8
0
  6
HIDDEN
 62
     7
370
     0
100
AcDbLine
 10
172.9680015444
 20
114.9056398004
 30
0.0
 11
172.9680015444
 21
105.5986390143
 31
0.0
  0
ARC
  5
1A4
330
1F
100
AcDbEntity
  8
0
  6
HIDDEN
 62
     7
370
     0
100
AcDbCircle
 10
244.8680016099
 20
135.9552554071
 30
0.0
 40
1.0
100
AcDbArc
 50
270.0
 51
0.0
  0
ARC
  5
1A5
330
1F
100
AcDbEntity
  8
0
  6
HIDDEN
 62
     7
370
     0
100
AcDbCircle
 10
244.8680016099
 20
97.9552554071
 30
0.0
 40
1.0
100
AcDbArc
 50
0.0
 51
90.0
  0
ARC
  5
1A6
330
1F
100
AcDbEntity
  8
0
  6
HIDDEN
 62
     7
370
     0
100
AcDbCircle
 10
206.3680016099
 20
134.4552554071
 30
0.0
 40
1.0
100
AcDbArc
 50
90.0
 51
180.0
  0
ARC
  5
1A7
330
1F
100
AcDbEntity
  8
0
  6
HIDDEN
 62
     7
370
     0
100
AcDbCircle
 10
206.3680016099
 20
99.4552554071
 30
0.0
 40
1.0
100
AcDbArc
 50
180.0
 51
270.0
  0
LINE
  5
1A8
330
1F
100
AcDbEntity
  8
0
  6
HIDDEN
 62
     7
370
     0
100
AcDbLine
 10
208.2363492547
 20
135.4552556455
 30
0.0
 11
206.3680006861
 21
135.4552556455
 31
0.0
  0
LINE
  5
1A9
330
1F
100
AcDbEntity
  8
0
  6
HIDDEN
 62
     7
370
     0
100
AcDbLine
 10
206.3680006861
 20
98.4552551687
 30
0.0
 11
208.2363492547
 21
98.4552551687
 31
0.0
  0
ARC
  5
1AA
330
1F
100
AcDbEntity
  8
0
  6
HIDDEN
 62
     7
370
     0
100
AcDbCircle
 10
208.2363491123
 20
134.4552554071
 30
0.0
 40
1.0
100
AcDbArc
 50
75.0
 51
90.0
  0
ARC
  5
1AB
330
1F
100
AcDbEntity
  8
0
  6
HIDDEN
 62
     7
370
     0
100
AcDbCircle
 10
208.2363491123
 20
99.4552554071
 30
0.0
 40
1.000000000000009
100
AcDbArc
 50
270.0
 51
285.0
  0
LINE
  5
1AC
330
1F
100
AcDbEntity
  8
0
  6
HIDDEN
 62
     7
370
     0
100
AcDbLine
 10
208.4951675235
 20
98.489330399
 30
0.0
 11
210.2340287267
 21
98.9552561819
 31
0.0
  0
LINE
  5
1AD
330
1F
100
AcDbEntity
  8
0
  6
HIDDEN
 62
     7
370
     0
100
AcDbLine
 10
210.2340287267
 20
134.9552546322
 30
0.0
 11
208.4951675235
 21
135.4211804151
 31
0.0
  0
LINE
  5
1AE
330
1F
100
AcDbEntity
  8
0
  6
HIDDEN
 62
     7
370
     0
100
AcDbLine
 10
220.6545858382
 20
134.9552546322
 30
0.0
 11
210.2340287267
 21
134.9552546322
 31
0.0
  0
LINE
  5
1AF
330
1F
100
AcDbEntity
  8
0
  6
HIDDEN
 62
     7
370
     0
100
AcDbLine
 10
244.8680004774
 20
134.9552546322
 30
0.0
 11
234.9955043494
 21
134.9552546322
 31
0.0
  0
LINE
  5
1B0
330
1F
100
AcDbEntity
  8
0
  6
HIDDEN
 62
     7
370
     0
100
AcDbLine
 10
210.2340287267
 20
98.9552561819
 30
0.0
 11
244.8680004774
 21
98.9552561819
 31
0.0
  0
ARC
  5
1B1
330
1F
100
AcDbEntity
  8
0
  6
HIDDEN
 62
     7
370
     0
100
AcDbCircle
 10
60.4680016099
 20
103.2552554071
 30
0.0
 40
1.200000000000003
100
AcDbArc
 50
90.0
 51
180.0
  0
ARC
  5
1B2
330
1F
100
AcDbEntity
  8
0
  6
HIDDEN
 62
     7
370
     0
100
AcDbCircle
 10
60.4680016099
 20
130.6552554071
 30
0.0
 40
1.200000000000017
100
AcDbArc
 50
180.0
 51
270.0
  0
ARC
  5
1B3
330
1F
100
AcDbEntity
  8
0
  6
HIDDEN
 62
     7
370
     0
100
AcDbCircle
 10
190.7680016099
 20
156.4552554071
 30
0.0
 40
2.0
100
AcDbArc
 50
270.0
 51
0.0
  0
LINE
  5
1B4
330
1F
100
AcDbEntity
  8
0
  6
HIDDEN
 62
     7
370
     0
100
AcDbLine
 10
192.7680014371
 20
76.9700233519
 30
0.0
 11
192.7680014371
 21
79.6552535772
 31
0.0
  0
ARC
  5
1B5
330
1F
100
AcDbEntity
  8
0
  6
HIDDEN
 62
     7
370
     0
100
AcDbCircle
 10
190.7680016099
 20
79.6552554071
 30
0.0
 40
2.0
100
AcDbArc
 50
0.0
 51
90.0
  0
LINE
  5
1B6
330
1F
100
AcDbEntity
  8
0
  6
HIDDEN
 62
     7
370
     0
100
AcDbLine
 10
70.1603716909
 20
104.2302551374
 30
0.0
 11
71.037059158
 21
104.2302551374
 31
0.0
  0
LINE
  5
1B7
330
1F
100
AcDbEntity
  8
0
  6
HIDDEN
 62
     7
370
     0
100
AcDbLine
 10
71.037059158
 20
129.6802556768
 30
0.0
 11
70.1603716909
 21
129.6802556768
 31
0.0
  0
ARC
  5
1B8
330
1F
100
AcDbEntity
  8
0
  6
HIDDEN
 62
     7
370
     0
100
AcDbCircle
 10
71.0370615023
 20
104.6302554071
 30
0.0
 40
0.4000000000000057
100
AcDbArc
 50
270.0
 51
330.0
  0
ARC
  5
1B9
330
1F
100
AcDbEntity
  8
0
  6
HIDDEN
 62
     7
370
     0
100
AcDbCircle
 10
71.0370615023
 20
129.2802554071
 30
0.0
 40
0.4000000000000057
100
AcDbArc
 50
30.0
 51
90.0
  0
ARC
  5
1BA
330
1F
100
AcDbEntity
  8
0
  6
HIDDEN
 62
     7
370
     0
100
AcDbCircle
 10
70.1603740407
 20
104.6302554071
 30
0.0
 40
0.4000000000000199
100
AcDbArc
 50
255.0
 51
270.0
  0
ARC
  5
1BB
330
1F
100
AcDbEntity
  8
0
  6
HIDDEN
 62
     7
370
     0
100
AcDbCircle
 10
70.1603740407
 20
129.2802554071
 30
0.0
 40
0.400000000000006
100
AcDbArc
 50
90.0
 51
105.0
  0
LINE
  5
1BC
330
1F
100
AcDbEntity
  8
0
  6
HIDDEN
 62
     7
370
     0
100
AcDbLine
 10
70.0568458735
 20
129.6666257709
 30
0.0
 11
69.2680007516
 21
129.4552555933
 31
0.0
  0
LINE
  5
1BD
330
1F
100
AcDbEntity
  8
0
  6
HIDDEN
 62
     7
370
     0
100
AcDbLine
 10
69.2680007516
 20
104.4552552208
 30
0.0
 11
70.0568458735
 21
104.2438850432
 31
0.0
  0
LINE
  5
1BE
330
1F
100
AcDbEntity
  8
0
  6
HIDDEN
 62
     7
370
     0
100
AcDbLine
 10
71.3834739028
 20
104.4302557289
 30
0.0
 11
72.5526041089
 21
106.4552555486
 31
0.0
  0
LINE
  5
1BF
330
1F
100
AcDbEntity
  8
0
  6
HIDDEN
 62
     7
370
     0
100
AcDbLine
 10
72.5526041089
 20
127.4552552655
 30
0.0
 11
71.3834739028
 21
129.4802550852
 31
0.0
  0
LINE
  5
1C0
330
1F
100
AcDbEntity
  8
0
  6
HIDDEN
 62
     7
370
     0
100
AcDbLine
 10
60.4680007993
 20
104.4552552208
 30
0.0
 11
69.2680007516
 21
104.4552552208
 31
0.0
  0
LINE
  5
1C1
330
1F
100
AcDbEntity
  8
0
  6
HIDDEN
 62
     7
370
     0
100
AcDbLine
 10
69.2680007516
 20
129.4552555933
 30
0.0
 11
60.4680007993
 21
129.4552555933
 31
0.0
  0
LINE
  5
1C2
330
1F
100
AcDbEntity
  8
0
  6
HIDDEN
 62
     7
370
     0
100
AcDbLine
 10
72.5526041089
 20
106.4552555486
 30
0.0
 11
121.2680018245
 21
106.4552555486
 31
0.0
  0
LINE
  5
1C3
330
1F
100
AcDbEntity
  8
0
  6
HIDDEN
 62
     7
370
     0
100
AcDbLine
 10
121.2680018245
 20
127.4552552655
 30
0.0
 11
72.5526041089
 21
127.4552552655
 31
0.0
  0
LINE
  5
1C4
330
1F
100
AcDbEntity
  8
0
  6
HIDDEN
 62
     7
370
     0
100
AcDbLine
 10
121.2680018245
 20
106.4552555486
 30
0.0
 11
123.9718734025
 21
110.9552553549
 31
0.0
  0
LINE
  5
1C5
330
1F
100
AcDbEntity
  8
0
  6
HIDDEN
 62
     7
370
     0
100
AcDbLine
 10
123.9718734025
 20
122.9552554592
 30
0.0
 11
121.2680018245
 21
127.4552552655
 31
0.0
  0
LINE
  5
1C6
330
1F
100
AcDbEntity
  8
0
  6
HIDDEN
 62
     7
370
     0
100
AcDbLine
 10
218.3180018066
 20
156.955254513
 30
0.0
 11
220.5680026411
 21
154.7052536785
 31
0.0
  0
LINE
  5
1C7
330
1F
100
AcDbEntity
  8
0
  6
HIDDEN
 62
     7
370
     0
100
AcDbLine
 10
235.0679984986
 20
154.7052536785
 30
0.0
 11
237.317999333
 21
156.955254513
 31
0.0
  0
LINE
  5
1C8
330
1F
100
AcDbEntity
  8
0
  6
HIDDEN
 62
     7
370
     0
100
AcDbLine
 10
220.5680026411
 20
154.7052536785
 30
0.0
 11
220.5680026411
 21
134.9206895262
 31
0.0
  0
LINE
  5
1C9
330
1F
100
AcDbEntity
  8
0
  6
HIDDEN
 62
     7
370
     0
100
AcDbLine
 10
235.0679984986
 20
134.926558721
 30
0.0
 11
235.0679984986
 21
154.7052536785
 31
0.0
  0
LINE
  5
1CA
330
1F
100
AcDbEntity
  8
0
  6
HIDDEN
 62
     7
370
     0
100
AcDbLine
 10
192.7680014371
 20
156.455257225
 30
0.0
 11
192.7680014371
 21
156.955254513
 31
0.0
  0
LINE
  5
1CB
330
1F
100
AcDbEntity
  8
0
  6
HIDDEN
 62
     7
370
     0
100
AcDbLine
 10
205.3680023848
 20
122.9552554592
 30
0.0
 11
123.9718734025
 21
122.9552554592
 31
0.0
  0
LINE
  5
1CC
330
1F
100
AcDbEntity
  8
0
  6
HIDDEN
 62
     7
370
     0
100
AcDbLine
 10
123.9718734025
 20
110.9552553549
 30
0.0
 11
205.3680023848
 21
110.9552553549
 31
0.0
  0
LINE
  5
1CD
330
1F
100
AcDbEntity
  8
0
  6
HIDDEN
 62
     7
370
     0
100
AcDbLine
 10
177.1680018603
 20
119.0048710137
 30
0.0
 11
177.1680018603
 21
130.4135464758
 31
0.0
  0
LINE
  5
1CE
330
1F
100
AcDbEntity
  8
0
  6
HIDDEN
 62
     7
370
     0
100
AcDbLine
 10
172.9680015444
 20
128.3118717998
 30
0.0
 11
172.9680015444
 21
119.0047117576
 31
0.0
  0
LINE
  5
1CF
330
1F
100
AcDbEntity
  8
0
  6
HIDDEN
 62
     7
370
     0
100
AcDbLine
 10
172.9680015444
 20
130.4135464758
 30
0.0
 11
172.9680015444
 21
130.0654963285
 31
0.0
  0
LINE
  5
1D0
330
1F
100
AcDbEntity
  8
0
  6
HIDDEN
 62
     7
370
     0
100
AcDbLine
 10
165.767974194
 20
128.7536018222
 30
0.0
 11
174.2153013795
 21
126.7305931702
 31
0.0
  0
LINE
  5
1D1
330
1F
100
AcDbEntity
  8
0
  6
HIDDEN
 62
     7
370
     0
100
AcDbLine
 10
174.2153013795
 20
131.0493557408
 30
0.0
 11
166.746152073
 21
132.8381051004
 31
0.0
  0
LINE
  5
1D2
330
1F
100
AcDbEntity
  8
0
  6
HIDDEN
 62
     7
370
     0
100
AcDbLine
 10
164.0680015291
 20
128.2352714494
 30
0.0
 11
165.2900324873
 21
127.9426126435
 31
0.0
  0
LINE
  5
1D3
330
1F
100
AcDbEntity
  8
0
  6
HIDDEN
 62
     7
370
     0
100
AcDbLine
 10
166.6874293907
 20
133.7776177257
 30
0.0
 11
164.0680015291
 21
134.4049323976
 31
0.0
  0
LINE
  5
1D4
330
1F
100
AcDbEntity
  8
0
  6
HIDDEN
 62
     7
370
     0
100
AcDbLine
 10
177.5680011808
 20
130.4633405685
 30
0.0
 11
177.5680011808
 21
133.6195685595
 31
0.0
  0
LINE
  5
1D5
330
1F
100
AcDbEntity
  8
0
  6
HIDDEN
 62
     7
370
     0
100
AcDbLine
 10
172.5680012925
 20
132.5169999778
 30
0.0
 11
172.5680012925
 21
130.4633405685
 31
0.0
  0
LINE
  5
1D6
330
1F
100
AcDbEntity
  8
0
  6
HIDDEN
 62
     7
370
     0
100
AcDbLine
 10
235.8180037438
 20
155.9552562117
 30
0.0
 11
235.1802489458
 21
156.5930110097
 31
0.0
  0
LINE
  5
1D7
330
1F
100
AcDbEntity
  8
0
  6
HIDDEN
 62
     7
370
     0
100
AcDbLine
 10
220.4538113176
 20
156.5910664081
 30
0.0
 11
219.8180011212
 21
155.9552562117
 31
0.0
  0
LINE
  5
1D8
330
1F
100
AcDbEntity
  8
0
  6
HIDDEN
 62
     7
370
     0
100
AcDbLine
 10
219.8180011212
 20
155.9552562117
 30
0.0
 11
219.8180011212
 21
137.2853827357
 31
0.0
  0
LINE
  5
1D9
330
1F
100
AcDbEntity
  8
0
  6
HIDDEN
 62
     7
370
     0
100
AcDbLine
 10
235.8180037438
 20
137.2853827357
 30
0.0
 11
235.8180037438
 21
155.9552562117
 31
0.0
  0
LINE
  5
1DA
330
1F
100
AcDbEntity
  8
0
  6
HIDDEN
 62
     7
370
     0
100
AcDbLine
 10
219.8180011212
 20
137.2853827357
 30
0.0
 11
222.2187011241
 21
128.325846295
 31
0.0
  0
LINE
  5
1DB
330
1F
100
AcDbEntity
  8
0
  6
HIDDEN
 62
     7
370
     0
100
AcDbLine
 10
233.4173000156
 20
128.325846295
 30
0.0
 11
235.8180037438
 21
137.2853827357
 31
0.0
  0
ARC
  5
1DC
330
1F
100
AcDbEntity
  8
0
  6
HIDDEN
 62
     7
370
     0
100
AcDbCircle
 10
222.7016651039
 20
128.4552554071
 30
0.0
 40
0.5000000000000079
100
AcDbArc
 50
195.0
 51
270.0
  0
ARC
  5
1DD
330
1F
100
AcDbEntity
  8
0
  6
HIDDEN
 62
     7
370
     0
100
AcDbCircle
 10
232.9343381159
 20
128.4552554071
 30
0.0
 40
0.5000000000000079
100
AcDbArc
 50
270.0
 51
345.0
  0
LINE
  5
1DE
330
1F
100
AcDbEntity
  8
0
  6
HIDDEN
 62
     7
370
     0
100
AcDbLine
 10
223.1180011033
 20
156.955254513
 30
0.0
 11
223.8180017768
 21
156.2552538395
 31
0.0
  0
LINE
  5
1DF
330
1F
100
AcDbEntity
  8
0
  6
HIDDEN
 62
     7
370
     0
100
AcDbLine
 10
231.8180030881
 20
156.2552538395
 30
0.0
 11
232.5180000364
 21
156.955254513
 31
0.0
  0
LINE
  5
1E0
330
1F
100
AcDbEntity
  8
0
  6
HIDDEN
 62
     7
370
     0
100
AcDbLine
 10
223.8180017768
 20
145.9552545726
 30
0.0
 11
223.8180017768
 21
144.9552562713
 31
0.0
  0
LINE
  5
1E1
330
1F
100
AcDbEntity
  8
0
  6
HIDDEN
 62
     7
370
     0
100
AcDbLine
 10
231.8180030881
 20
144.9552562713
 30
0.0
 11
231.8180030881
 21
145.9552545726
 31
0.0
  0
LINE
  5
1E2
330
1F
100
AcDbEntity
  8
0
  6
HIDDEN
 62
     7
370
     0
100
AcDbLine
 10
223.8180017768
 20
144.9552562713
 30
0.0
 11
227.8180024325
 21
143.4993737072
 31
0.0
  0
LINE
  5
1E3
330
1F
100
AcDbEntity
  8
0
  6
HIDDEN
 62
     7
370
     0
100
AcDbLine
 10
227.8180024325
 20
143.4993737072
 30
0.0
 11
231.8180030881
 21
144.9552562713
 31
0.0
  0
LINE
  5
1E4
330
1F
100
AcDbEntity
  8
0
  6
HIDDEN
 62
     7
370
     0
100
AcDbLine
 10
177.5680011808
 20
130.4633405685
 30
0.0
 11
177.5680011808
 21
131.0618764415
 31
0.0
  0
LINE
  5
1E5
330
1F
100
AcDbEntity
  8
0
  6
HIDDEN
 62
     7
370
     0
100
AcDbLine
 10
172.5680012925
 20
131.0618764415
 30
0.0
 11
172.5680012925
 21
130.4633405685
 31
0.0
  0
LINE
  5
1E6
330
1F
100
AcDbEntity
  8
0
  6
HIDDEN
 62
     7
370
     0
100
AcDbLine
 10
177.0680020301
 20
130.8240697414
 30
0.0
 11
177.0680020301
 21
132.2418453798
 31
0.0
  0
LINE
  5
1E7
330
1F
100
AcDbEntity
  8
0
  6
HIDDEN
 62
     7
370
     0
100
AcDbLine
 10
173.0680013745
 20
132.2418453798
 30
0.0
 11
173.0680013745
 21
130.8240697414
 31
0.0
  0
LINE
  5
1E8
330
1F
100
AcDbEntity
  8
0
  6
HIDDEN
 62
     7
370
     0
100
AcDbLine
 10
177.5680011808
 20
132.0058519646
 30
0.0
 11
177.5680011808
 21
132.1939632922
 31
0.0
  0
LINE
  5
1E9
330
1F
100
AcDbEntity
  8
0
  6
HIDDEN
 62
     7
370
     0
100
AcDbLine
 10
172.5680012925
 20
132.1939632922
 30
0.0
 11
172.5680012925
 21
132.0058519646
 31
0.0
  0
LINE
  5
1EA
330
1F
100
AcDbEntity
  8
0
  6
HIDDEN
 62
     7
370
     0
100
AcDbLine
 10
172.5680012925
 20
101.9046588495
 30
0.0
 11
172.5680012925
 21
101.7165475219
 31
0.0
  0
LINE
  5
1EB
330
1F
100
AcDbEntity
  8
0
  6
HIDDEN
 62
     7
370
     0
100
AcDbLine
 10
177.5680011808
 20
101.7165475219
 30
0.0
 11
177.5680011808
 21
101.9046588495
 31
0.0
  0
LINE
  5
1EC
330
1F
100
AcDbEntity
  8
0
  6
HIDDEN
 62
     7
370
     0
100
AcDbLine
 10
173.0680013745
 20
103.0864410728
 30
0.0
 11
173.0680013745
 21
101.6686654344
 31
0.0
  0
LINE
  5
1ED
330
1F
100
AcDbEntity
  8
0
  6
HIDDEN
 62
     7
370
     0
100
AcDbLine
 10
177.0680020301
 20
101.6686654344
 30
0.0
 11
177.0680020301
 21
103.0864410728
 31
0.0
  0
LINE
  5
1EE
330
1F
100
AcDbEntity
  8
0
  6
HIDDEN
 62
     7
370
     0
100
AcDbLine
 10
172.5680012925
 20
103.4471702456
 30
0.0
 11
172.5680012925
 21
102.8486343726
 31
0.0
  0
LINE
  5
1EF
330
1F
100
AcDbEntity
  8
0
  6
HIDDEN
 62
     7
370
     0
100
AcDbLine
 10
177.5680011808
 20
102.8486343726
 30
0.0
 11
177.5680011808
 21
103.4471702456
 31
0.0
  0
CIRCLE
  5
1F0
330
1F
100
AcDbEntity
  8
0
  6
HIDDEN
 62
     7
370
     0
100
AcDbCircle
 10
175.0680016099
 20
131.420997369
 30
0.0
 40
1.999999999999952
  0
ARC
  5
1F1
330
1F
100
AcDbEntity
  8
0
  6
HIDDEN
 62
     7
370
     0
100
AcDbCircle
 10
175.0680016099
 20
102.4895134451
 30
0.0
 40
2.000000000000003
100
AcDbArc
 50
71.1182787691
 51
192.2156859342
  0
ARC
  5
1F2
330
1F
100
AcDbEntity
  8
0
  6
HIDDEN
 62
     7
370
     0
100
AcDbCircle
 10
175.0680016099
 20
102.4895134451
 30
0.0
 40
2.000000000000011
100
AcDbArc
 50
340.3453161116
 51
71.1182787691
  0
LINE
  5
1F3
330
1F
100
AcDbEntity
  8
0
  6
HIDDEN
 62
     7
370
     0
100
AcDbLine
 10
166.7814366258
 20
100.6695453703
 30
0.0
 11
169.2332238628
 21
101.256710726
 31
0.0
  0
LINE
  5
1F4
330
1F
100
AcDbEntity
  8
0
  6
HIDDEN
 62
     7
370
     0
100
AcDbLine
 10
168.0687265209
 20
106.1192148059
 30
0.0
 11
165.6169397495
 21
105.5320485189
 31
0.0
  0
LINE
  5
1F5
330
1F
100
AcDbEntity
  8
0
  6
HIDDEN
 62
     7
370
     0
100
AcDbLine
 10
169.9369284062
 20
102.0204306274
 30
0.0
 11
170.165506631
 21
102.6678208887
 31
0.0
  0
LINE
  5
1F6
330
1F
100
AcDbEntity
  8
0
  6
HIDDEN
 62
     7
370
     0
100
AcDbLine
 10
169.5390897541
 20
105.2835027382
 30
0.0
 11
169.0420475527
 21
105.7571184516
 31
0.0
  0
LINE
  5
1F7
330
1F
100
AcDbEntity
  8
0
  6
HIDDEN
 62
     7
370
     0
100
AcDbLine
 10
169.0420475527
 20
128.1533923626
 30
0.0
 11
169.5390897541
 21
128.627008076
 31
0.0
  0
LINE
  5
1F8
330
1F
100
AcDbEntity
  8
0
  6
HIDDEN
 62
     7
370
     0
100
AcDbLine
 10
170.165506631
 20
131.2426899254
 30
0.0
 11
169.9369284062
 21
131.8900801867
 31
0.0
  0
LINE
  5
1F9
330
1F
100
AcDbEntity
  8
0
  6
HIDDEN
 62
     7
370
     0
100
AcDbLine
 10
165.6169397495
 20
128.3784622952
 30
0.0
 11
168.0687265209
 21
127.7912960082
 31
0.0
  0
LINE
  5
1FA
330
1F
100
AcDbEntity
  8
0
  6
HIDDEN
 62
     7
370
     0
100
AcDbLine
 10
169.2332238628
 20
132.6538000882
 30
0.0
 11
166.7814366258
 21
133.2409654438
 31
0.0
  0
DIMENSION
  5
1FB
330
1F
100
AcDbEntity
  8
VERMASSUNG
100
AcDbDimension
  2
_D
 10
51.6375073978
 20
165.6802554071
 30
0.0
 11
51.6375073978
 21
116.9552554071
 31
0.0
 70
   160
  1
ISO 50 %%c<>
 71
     2
 42
-1.0
  3
SLDDIMSTYLE0
100
AcDbAlignedDimension
 13
179.3180016099
 23
68.2302554071
 33
0.0
 14
179.3180016099
 24
165.6802554071
 34
0.0
 50
90.0
100
AcDbRotatedDimension
  0
DIMENSION
  5
208
330
1F
100
AcDbEntity
  8
VERMASSUNG
100
AcDbDimension
  2
_D_1
 10
179.9180016099
 20
170.2137900256
 30
0.0
 11
212.8930016099
 21
170.2137900256
 31
0.0
 70
   160
  1
<>
 71
     2
 42
-1.0
  3
SLDDIMSTYLE0
100
AcDbAlignedDimension
 13
245.8680016099
 23
156.1552554071
 33
0.0
 14
179.9180016099
 24
146.8052554071
 34
0.0
100
AcDbRotatedDimension
  0
DIMENSION
  5
212
330
1F
100
AcDbEntity
  8
VERMASSUNG
100
AcDbDimension
  2
_D_2
 10
160.8680016099
 20
176.2137900256
 30
0.0
 11
203.3680016099
 21
176.2137900256
 31
0.0
 70
   160
  1
<>
 71
     2
 42
-1.0
  3
SLDDIMSTYLE0
100
AcDbAlignedDimension
 13
245.8680016099
 23
156.1552554071
 33
0.0
 14
160.8680016099
 24
151.8802554071
 34
0.0
100
AcDbRotatedDimension
  0
DIMENSION
  5
21C
330
1F
100
AcDbEntity
  8
VERMASSUNG
100
AcDbDimension
  2
_D_3
 10
59.2680016099
 20
182.2137900256
 30
0.0
 11
152.5680016099
 21
182.2137900256
 31
0.0
 70
   160
  1
<>
 71
     2
 42
-1.0
  3
SLDDIMSTYLE0
100
AcDbAlignedDimension
 13
245.8680016099
 23
156.1552554071
 33
0.0
 14
59.2680016099
 24
135.3340999345
 34
0.0
100
AcDbRotatedDimension
  0
DIMENSION
  5
226
330
1F
100
AcDbEntity
  8
VERMASSUNG
100
AcDbDimension
  2
_D_4
 10
258.7380338156
 20
76.9552554071
 30
0.0
 11
258.7380338156
 21
116.9552554071
 31
0.0
 70
   160
  1
WH %%c<>
 71
     2
 42
-1.0
  3
SLDDIMSTYLE0
100
AcDbAlignedDimension
 13
218.3262656189
 23
156.9552554071
 33
0.0
 14
245.0680016099
 24
76.9552554071
 34
0.0
 50
90.0
100
AcDbRotatedDimension
  0
DIMENSION
  5
232
330
1F
100
AcDbEntity
  8
VERMASSUNG
100
AcDbDimension
  2
_D_5
 10
254.0022429156
 20
98.9552554071
 30
0.0
 11
254.0022429156
 21
116.9552554071
 31
0.0
 70
   160
  1
%%c<>
 71
     2
 42
-1.0
  3
SLDDIMSTYLE0
100
AcDbAlignedDimension
 13
220.5680016099
 23
134.9552554071
 33
0.0
 14
244.8680016099
 24
98.9552554071
 34
0.0
 50
90.0
100
AcDbRotatedDimension
  0
LINE
  5
23D
330
1F
100
AcDbEntity
  8
VERMASSUNG
  6
CENTERX2
370
     0
100
AcDbLine
 10
179.9180016099
 20
158.9552539775
 30
0.0
 11
179.9180016099
 21
154.4552554071
 31
0.0
  0
LINE
  5
23E
330
1F
100
AcDbEntity
  8
VERMASSUNG
  6
CENTERX2
370
     0
100
AcDbLine
 10
179.9180016099
 20
69.9051747101
 30
0.0
 11
179.9180016099
 21
91.366313126
 31
0.0
  0
LINE
  5
23F
330
1F
100
AcDbEntity
  8
VERMASSUNG
  6
CENTERX2
370
     0
100
AcDbLine
 10
57.2680016099
 20
116.9552554071
 30
0.0
 11
248.3852675028
 21
116.9552554071
 31
0.0
  0
LINE
  5
240
330
1F
100
AcDbEntity
  8
0
  6
Continuous
 62
     7
370
    15
100
AcDbLine
 10
276.2536492064
 20
7.7519979632
 30
0.0
 11
276.5364454684
 21
7.9153058502
 31
0.0
  0
LINE
  5
241
330
1F
100
AcDbEntity
  8
0
  6
Continuous
 62
     7
370
    15
100
AcDbLine
 10
290.3934860192
 20
31.9190051888
 30
0.0
 11
290.3934860192
 21
32.2455678788
 31
0.0
  0
LINE
  5
242
330
1F
100
AcDbEntity
  8
0
  6
Continuous
 62
     7
370
    15
100
AcDbLine
 10
286.2505377385
 20
41.4024636796
 30
0.0
 11
264.2771939736
 21
54.0874050285
 31
0.0
  0
LINE
  5
243
330
1F
100
AcDbEntity
  8
0
  6
Continuous
 62
     7
370
    15
100
AcDbLine
 10
244.2788199199
 20
19.4454515554
 30
0.0
 11
266.2521636847
 21
6.7605102065
 31
0.0
  0
SPLINE
  5
244
330
1F
100
AcDbEntity
  8
0
  6
Continuous
 62
     7
370
    15
100
AcDbSpline
210
0.0
220
0.0
230
1.0
 70
     8
 71
     3
 72
    26
 73
    22
 74
     0
 42
0.000000001
 43
0.00000001
 40
0.0
 40
0.0
 40
0.0
 40
0.0
 40
0.0227906059530124
 40
0.082483651712739
 40
0.1410993745450728
 40
0.1983504095001374
 40
0.2547370658846862
 40
0.3107486129327569
 40
0.3666695677743728
 40
0.4226008793116762
 40
0.4786073952329815
 40
0.5347012783918453
 40
0.5908693205568089
 40
0.6470875877476411
 40
0.7033280539192756
 40
0.7595584233449213
 40
0.815741169371863
 40
0.8718461364932633
 40
0.9278449921539788
 40
0.9837162389516386
 40
1.0
 40
1.0
 40
1.0
 40
1.0
 10
271.5456850391404
 20
16.43331803919453
 30
0.0
 10
271.4745049891624
 20
16.47510782599216
 30
0.0
 10
271.2168904938135
 20
16.62635322185715
 30
0.0
 10
270.8570727215932
 20
17.0257652914389
 30
0.0
 10
270.4745893762878
 20
17.62636473928027
 30
0.0
 10
270.1956624920247
 20
18.34900639311129
 30
0.0
 10
270.0184324356546
 20
19.16784825394915
 30
0.0
 10
269.9468371393185
 20
20.07264391837752
 30
0.0
 10
269.9822640801414
 20
21.04851595102762
 30
0.0
 10
270.1253344236607
 20
22.0794294962779
 30
0.0
 10
270.3745985653092
 20
23.14737980815556
 30
0.0
 10
270.72661851463
 20
24.23351606890822
 30
0.0
 10
271.1758195723478
 20
25.31832390145036
 30
0.0
 10
271.7145960595614
 20
26.38221123574812
 30
0.0
 10
272.3334796634898
 20
27.40592493160577
 30
0.0
 10
273.0212786553489
 20
28.37099888075146
 30
0.0
 10
273.7653006565143
 20
29.25998311000079
 30
0.0
 10
274.5516617066587
 20
30.05749868062187
 30
0.0
 10
275.3651920736625
 20
30.74813527563127
 30
0.0
 10
275.9966129004736
 20
31.18997372300452
 30
0.0
 10
276.3507083299011
 20
31.3992021729865
 30
0.0
 10
276.4306196975697
 20
31.44642032437658
 30
0.0
  0
SPLINE
  5
245
330
1F
100
AcDbEntity
  8
0
  6
Continuous
 62
     7
370
    15
100
AcDbSpline
210
0.0
220
0.0
230
1.0
 70
     8
 71
     3
 72
    14
 73
    10
 74
     0
 42
0.000000001
 43
0.00000001
 40
0.0
 40
0.0
 40
0.0
 40
0.0
 40
0.0908697716277657
 40
0.2642443952509709
 40
0.4375710462233622
 40
0.6113413710552578
 40
0.7866956140248875
 40
0.9653235514216671
 40
1.0
 40
1.0
 40
1.0
 40
1.0
 10
276.4306196975697
 20
31.44642032437658
 30
0.0
 10
276.5734467550166
 20
31.5254988674714
 30
0.0
 10
276.9887801353529
 20
31.75545500605416
 30
0.0
 10
277.6659931746228
 20
32.03795050248821
 30
0.0
 10
278.4382698491732
 20
32.24481833356803
 30
0.0
 10
279.1661208758308
 20
32.3184350293286
 30
0.0
 10
279.8318968551412
 20
32.24891502236247
 30
0.0
 10
280.2878752110105
 20
32.1345975946913
 30
0.0
 10
280.4987285833048
 20
32.00386802482894
 30
0.0
 10
280.5330065757076
 20
31.98261559166271
 30
0.0
  0
SPLINE
  5
246
330
1F
100
AcDbEntity
  8
0
  6
Continuous
 62
     7
370
    15
100
AcDbSpline
210
0.0
220
0.0
230
1.0
 70
     8
 71
     3
 72
    10
 73
     6
 74
     0
 42
0.000000001
 43
0.00000001
 40
0.0
 40
0.0
 40
0.0
 40
0.0
 40
0.134195124446517
 40
0.6045542330645128
 40
1.0
 40
1.0
 40
1.0
 40
1.0
 10
232.2747144709958
 20
40.41852038546569
 30
0.0
 10
232.2136826112469
 20
40.24810922164959
 30
0.0
 10
231.9387317192888
 20
39.48040032856284
 30
0.0
 10
231.5713260302596
 20
38.21025339356111
 30
0.0
 10
231.3195908489994
 20
37.12462327859432
 30
0.0
 10
231.2046138898383
 20
36.62877502739701
 30
0.0
  0
SPLINE
  5
247
330
1F
100
AcDbEntity
  8
0
  6
Continuous
 62
     7
370
    15
100
AcDbSpline
210
0.0
220
0.0
230
1.0
 70
     8
 71
     3
 72
    19
 73
    15
 74
     0
 42
0.000000001
 43
0.00000001
 40
0.0
 40
0.0
 40
0.0
 40
0.0
 40
0.0322518670420541
 40
0.1267981326814274
 40
0.2214319228444567
 40
0.3161097108905252
 40
0.4107995680169471
 40
0.5054797862936263
 40
0.6001421720025398
 40
0.6947836094698621
 40
0.7894041357995022
 40
0.884005857290241
 40
0.9785918871585876
 40
1.0
 40
1.0
 40
1.0
 40
1.0
 10
252.2054432444937
 20
62.30092549887308
 30
0.0
 10
252.052567382868
 20
62.26476133374081
 30
0.0
 10
251.4515363243892
 20
62.12258201113676
 30
0.0
 10
250.3759110616876
 20
61.7288705790648
 30
0.0
 10
248.9889232698802
 20
61.12271739600733
 30
0.0
 10
247.5928554734073
 20
60.3724222633501
 30
0.0
 10
246.1992758258801
 20
59.49554537521086
 30
0.0
 10
244.8166536755401
 20
58.49464867174777
 30
0.0
 10
243.4539382551324
 20
57.37744761798248
 30
0.0
 10
242.1202867976702
 20
56.15053737908628
 30
0.0
 10
240.8224084117101
 20
54.82400194232122
 30
0.0
 10
239.5753580868833
 20
53.39905912404807
 30
0.0
 10
238.674725645769
 20
52.29585540879608
 30
0.0
 10
238.2126207104266
 20
51.64932489403319
 30
0.0
 10
238.1273336918817
 20
51.52999991871876
 30
0.0
  0
LINE
  5
248
330
1F
100
AcDbEntity
  8
0
  6
Continuous
 62
     7
370
    15
100
AcDbLine
 10
246.4644975317
 20
59.6406936294
 30
0.0
 11
215.7032144826
 21
70.7258406354
 31
0.0
  0
LINE
  5
249
330
1F
100
AcDbEntity
  8
0
  6
Continuous
 62
     7
370
    15
100
AcDbLine
 10
205.5793551022
 20
53.188902235
 30
0.0
 11
235.0468662207
 21
28.3067797968
 31
0.0
  0
SPLINE
  5
24A
330
1F
100
AcDbEntity
  8
0
  6
Continuous
 62
     7
370
    15
100
AcDbSpline
210
0.0
220
0.0
230
1.0
 70
     8
 71
     3
 72
     9
 73
     5
 74
     0
 42
0.000000001
 43
0.00000001
 40
0.0
 40
0.0
 40
0.0
 40
0.0
 40
0.4489936860729496
 40
1.0
 40
1.0
 40
1.0
 40
1.0
 10
248.6490299346884
 20
15.69934310072885
 30
0.0
 10
248.8515565471286
 20
15.7475657166073
 30
0.0
 10
249.3026243877736
 20
15.85496726227318
 30
0.0
 10
249.7650042504731
 20
16.03310924658891
 30
0.0
 10
250.0197784742533
 20
16.13126660472237
 30
0.0
  0
LINE
  5
24B
330
1F
100
AcDbEntity
  8
0
  6
Continuous
 62
     7
370
    15
100
AcDbLine
 10
239.3694321868
 20
17.242335598
 30
0.0
 11
240.824954173
 21
16.4020806407
 31
0.0
  0
LINE
  5
24C
330
1F
100
AcDbEntity
  8
0
  6
Continuous
 62
     7
370
    15
100
AcDbLine
 10
235.6453972384
 20
19.3921752131
 30
0.0
 11
237.0832419145
 21
18.5621251497
 31
0.0
  0
LINE
  5
24D
330
1F
100
AcDbEntity
  8
0
  6
Continuous
 62
     7
370
    15
100
AcDbLine
 10
231.2135147774
 20
25.4577559691
 30
0.0
 11
231.2578759818
 21
25.3118901436
 31
0.0
  0
LINE
  5
24E
330
1F
100
AcDbEntity
  8
0
  6
Continuous
 62
     7
370
    15
100
AcDbLine
 10
269.6324318144
 20
52.4891535588
 30
0.0
 11
269.5808388035
 21
52.6550086004
 31
0.0
  0
SPLINE
  5
24F
330
1F
100
AcDbEntity
  8
0
  6
Continuous
 62
     7
370
    15
100
AcDbSpline
210
0.0
220
0.0
230
1.0
 70
     8
 71
     3
 72
    26
 73
    22
 74
     0
 42
0.000000001
 43
0.00000001
 40
0.0
 40
0.0
 40
0.0
 40
0.0
 40
0.0206098635346963
 40
0.0728944510643923
 40
0.1258585040611578
 40
0.1800156137396773
 40
0.2354401611125397
 40
0.2918299514627566
 40
0.3487416667418533
 40
0.4057939356565405
 40
0.4627674603426434
 40
0.5196158025351038
 40
0.5763503990457023
 40
0.6330092550266897
 40
0.6896415235028057
 40
0.7462991724022513
 40
0.8030217144057956
 40
0.8598660589598679
 40
0.9168873020481363
 40
0.9741306256673679
 40
1.0
 40
1.0
 40
1.0
 40
1.0
 10
215.754550661212
 20
70.68704105728087
 30
0.0
 10
215.6576785325187
 20
70.7286428801003
 30
0.0
 10
215.3150542044806
 20
70.87578320602218
 30
0.0
 10
214.662948803438
 20
70.97862777959942
 30
0.0
 10
213.8174056239612
 20
70.99705020773499
 30
0.0
 10
212.9304974631229
 20
70.86207599411107
 30
0.0
 10
212.0162273033042
 20
70.58474742262186
 30
0.0
 10
211.0863276399483
 20
70.16351949637836
 30
0.0
 10
210.1574662503067
 20
69.60560272148213
 30
0.0
 10
209.2462823537865
 20
68.92133756127778
 30
0.0
 10
208.3679655631843
 20
68.12384622297894
 30
0.0
 10
207.5357245016769
 20
67.22713909836553
 30
0.0
 10
206.7612720837054
 20
66.24569656124515
 30
0.0
 10
206.0554526285524
 20
65.19461819779887
 30
0.0
 10
205.4283259312659
 20
64.08960644523128
 30
0.0
 10
204.8891003387703
 20
62.94691400118785
 30
0.0
 10
204.4461851551096
 20
61.78315439483644
 30
0.0
 10
204.1063713793498
 20
60.6146169430021
 30
0.0
 10
203.8778299375851
 20
59.45850095536954
 30
0.0
 10
203.780910383722
 20
58.53544244951947
 30
0.0
 10
203.7728450454976
 20
58.00834343178845
 30
0.0
 10
203.7703346558847
 20
57.84428039285373
 30
0.0
  0
SPLINE
  5
250
330
1F
100
AcDbEntity
  8
0
  6
Continuous
 62
     7
370
    15
100
AcDbSpline
210
0.0
220
0.0
230
1.0
 70
     8
 71
     3
 72
    13
 73
     9
 74
     0
 42
0.000000001
 43
0.00000001
 40
0.0
 40
0.0
 40
0.0
 40
0.0
 40
0.1013708038922181
 40
0.2925452651573772
 40
0.4837075735181394
 40
0.673017314708729
 40
0.8585816591153959
 40
1.0
 40
1.0
 40
1.0
 40
1.0
 10
203.7703346558847
 20
57.84428039285373
 30
0.0
 10
203.7737905636433
 20
57.65351421522031
 30
0.0
 10
203.7837639426914
 20
57.10298349161896
 30
0.0
 10
203.8956151525555
 20
56.23909097501782
 30
0.0
 10
204.1472363046631
 20
55.29026245220896
 30
0.0
 10
204.5291136862502
 20
54.44490108713662
 30
0.0
 10
204.9809669281555
 20
53.75484316308908
 30
0.0
 10
205.3536481757278
 20
53.41175883002895
 30
0.0
 10
205.514830911332
 20
53.26337660874514
 30
0.0
  0
LINE
  5
251
330
1F
100
AcDbEntity
  8
0
  6
Continuous
 62
     7
370
    15
100
AcDbLine
 10
275.2817515956
 20
27.3891653708
 30
0.0
 11
277.5745714355
 21
27.8563100768
 31
0.0
  0
LINE
  5
252
330
1F
100
AcDbEntity
  8
0
  6
Continuous
 62
     7
370
    15
100
AcDbLine
 10
272.9814394949
 20
45.1573448906
 30
0.0
 11
272.6278308933
 21
45.3615445709
 31
0.0
  0
LINE
  5
253
330
1F
100
AcDbEntity
  8
0
  6
Continuous
 62
     7
370
    15
100
AcDbLine
 10
267.6772785656
 20
45.3615449712
 30
0.0
 11
267.3236670055
 21
45.1573445334
 31
0.0
  0
LINE
  5
254
330
1F
100
AcDbEntity
  8
0
  6
Continuous
 62
     7
370
    15
100
AcDbLine
 10
266.1525545474
 20
43.5247931875
 30
0.0
 11
266.1525545474
 21
43.3206575708
 31
0.0
  0
LINE
  5
255
330
1F
100
AcDbEntity
  8
0
  6
Continuous
 62
     7
370
    15
100
AcDbLine
 10
274.1525538889
 20
43.320657951
 30
0.0
 11
274.1525538889
 21
43.5247935677
 31
0.0
  0
LWPOLYLINE
  5
256
330
1F
100
AcDbEntity
  8
0
  6
Continuous
 62
     7
370
    15
100
AcDbPolyline
 90
       67
 70
   128
 43
0.0
 10
276.5341929436
 20
39.9224057009
 10
275.2167833811
 20
39.089412277
 10
273.9113045048
 20
38.11902823
 10
272.629578835
 20
37.0200375082
 10
271.3832142065
 20
35.802394432
 10
270.1834972489
 20
34.477127221
 10
269.0412932881
 20
33.0562361007
 10
267.966946412
 20
31.5525899843
 10
266.970185957
 20
29.9798063284
 10
266.0600379343
 20
28.3521269955
 10
265.244746004
 20
26.6842935457
 10
264.5316937671
 20
24.9914103606
 10
263.9273369354
 20
23.288807386
 10
263.4371493309
 20
21.5919043947
 10
263.0655721777
 20
19.9160695447
 10
262.8159680041
 20
18.2764779377
 10
262.690598252
 20
16.6879789679
 10
262.690598252
 20
15.1649580151
 10
262.8159680041
 20
13.7212078801
 10
263.0655721777
 20
12.3698031177
 10
263.4371493309
 20
11.1229821169
 10
263.9273369354
 20
9.992037687
 10
264.5316937671
 20
8.9872102578
 10
265.244746004
 20
8.1175996616
 10
266.0600379343
 20
7.391082238
 10
266.970185957
 20
6.8142374445
 10
267.966946412
 20
6.3922889136
 10
269.0412932881
 20
6.1290572975
 10
270.1834972489
 20
6.0269267997
 10
271.3832142065
 20
6.0868233038
 10
272.629578835
 20
6.3082021973
 10
273.9113045048
 20
6.6890604344
 10
275.2167833811
 20
7.2259502148
 10
276.5341929436
 20
7.9140054953
 10
277.8516025061
 20
8.7469989192
 10
279.1570813824
 20
9.7173829661
 10
280.4388070522
 20
10.816373688
 10
281.6851716807
 20
12.0340167641
 10
282.8848886383
 20
13.3592839752
 10
284.0270925991
 20
14.7801750955
 10
285.1014394752
 20
16.2838212119
 10
286.0981999302
 20
17.8566048678
 10
287.0083479529
 20
19.4842842007
 10
287.8236398832
 20
21.1521176505
 10
288.5366921201
 20
22.8450008356
 10
289.1410489518
 20
24.5476038101
 10
289.6312365563
 20
26.2445068015
 10
290.0028137095
 20
27.9203416515
 10
290.2524178831
 20
29.5599332585
 10
290.3777876353
 20
31.1484322283
 10
290.3777876353
 20
32.671453181
 10
290.2524178831
 20
34.115203316
 10
290.0028137095
 20
35.4666080785
 10
289.6312365563
 20
36.7134290792
 10
289.1410489518
 20
37.8443735091
 10
288.5366921201
 20
38.8492009384
 10
287.8236398832
 20
39.7188115346
 10
287.0083479529
 20
40.4453289581
 10
286.0981999302
 20
41.0221737517
 10
285.1014394752
 20
41.4441222825
 10
284.0270925991
 20
41.7073538987
 10
282.8848886383
 20
41.8094843965
 10
281.6851716807
 20
41.7495878923
 10
280.4388070522
 20
41.5282089988
 10
279.1570813824
 20
41.1473507618
 10
277.8516025061
 20
40.6104609814
 10
276.5341929436
 20
39.9224057009
  0
LWPOLYLINE
  5
257
330
1F
100
AcDbEntity
  8
0
  6
Continuous
 62
     7
370
    15
100
AcDbPolyline
 90
       35
 70
   128
 43
0.0
 10
276.2513507116
 20
40.4123028158
 10
274.9270600999
 20
39.57604884
 10
273.6144072867
 20
38.6036268078
 10
272.3249282431
 20
37.5035852834
 10
271.0699544622
 20
36.2855882591
 10
269.8605154121
 20
34.9603421126
 10
268.7072386839
 20
33.5394923358
 10
267.6202602656
 20
32.0355245882
 10
266.6091323451
 20
30.4616567196
 10
265.682740005
 20
28.8317191955
 10
264.8492254896
 20
27.1600376122
 10
264.1159124724
 20
25.4613000035
 10
263.4892467869
 20
23.7504374534
 10
262.9747351825
 20
22.0424849373
 10
262.5768992256
 20
20.3524509067
 10
262.2992331534
 20
18.695186684
 10
262.1441801661
 20
17.0852582312
 10
262.1131021337
 20
15.5368134049
 10
262.2062703765
 20
14.0634587144
 10
262.4228669822
 20
12.6781426856
 10
262.7609900744
 20
11.3930404604
 10
263.217665666
 20
10.219444051
 10
263.7888819039
 20
9.1676679921
 10
264.4696193618
 20
8.2469550404
 10
265.2538951629
 20
7.4653967022
 10
266.1348169803
 20
6.8298613647
 10
267.1046429649
 20
6.3459338332
 10
268.1548502335
 20
6.0178666556
 10
269.2762106021
 20
5.8485424718
 10
270.4588682935
 20
5.8394511931
 10
271.6924304875
 20
5.9906723124
 10
272.966056883
 20
6.3008741356
 10
274.2685543637
 20
6.7673334498
 10
275.5884768086
 20
7.3859505566
 10
276.2536492064
 20
7.7519979632
  0
LWPOLYLINE
  5
258
330
1F
100
AcDbEntity
  8
0
  6
Continuous
 62
     7
370
    15
100
AcDbPolyline
 90
       18
 70
   128
 43
0.0
 10
290.3934860192
 20
32.2455678788
 10
290.3585212571
 20
33.3730506476
 10
290.2034682698
 20
34.8039587318
 10
289.9258021976
 20
36.1406365315
 10
289.5279662408
 20
37.3713389434
 10
289.0134546363
 20
38.4852490056
 10
288.3867889508
 20
39.4725787561
 10
287.6534759336
 20
40.3246511768
 10
286.8199614182
 20
41.033977385
 10
285.8935690781
 20
41.5943250801
 10
284.8824411577
 20
42.000769501
 10
283.7954627393
 20
42.2497386802
 10
282.6421860112
 20
42.3390434894
 10
281.432746961
 20
42.2679010315
 10
280.1777731801
 20
42.0369361704
 10
278.8882941366
 20
41.6481768811
 10
277.5756413234
 20
41.1050422347
 10
276.2513507116
 20
40.4123028158
  0
LINE
  5
259
330
1F
100
AcDbEntity
  8
0
  6
Continuous
 62
     7
370
    15
100
AcDbLine
 10
264.3295620915
 20
54.0568557424
 30
0.0
 11
264.2771939736
 21
54.0874050285
 31
0.0
  0
LINE
  5
25A
330
1F
100
AcDbEntity
  8
0
  6
Continuous
 62
     7
370
    15
100
AcDbLine
 10
244.2073079132
 20
19.4873282117
 30
0.0
 11
244.2788199199
 21
19.4454515554
 31
0.0
  0
SPLINE
  5
25B
330
1F
100
AcDbEntity
  8
0
  6
Continuous
 62
     7
370
    15
100
AcDbSpline
210
0.0
220
0.0
230
1.0
 70
     8
 71
     3
 72
    44
 73
    40
 74
     0
 42
0.000000001
 43
0.00000001
 40
0.0
 40
0.0
 40
0.0
 40
0.0
 40
0.0625
 40
0.0625
 40
0.125
 40
0.125
 40
0.1875
 40
0.1875
 40
0.25
 40
0.25
 40
0.3125
 40
0.3125
 40
0.375
 40
0.375
 40
0.4062500000000001
 40
0.4062500000000001
 40
0.4375000000000001
 40
0.4375000000000001
 40
0.5000000000000002
 40
0.5000000000000002
 40
0.5625000000000003
 40
0.5625000000000003
 40
0.6250000000000004
 40
0.6250000000000004
 40
0.6875000000000006
 40
0.6875000000000006
 40
0.7500000000000007
 40
0.7500000000000007
 40
0.7812500000000006
 40
0.7812500000000006
 40
0.8125000000000004
 40
0.8125000000000004
 40
0.8750000000000001
 40
0.8750000000000001
 40
0.90625
 40
0.90625
 40
0.9374999999999999
 40
0.9374999999999999
 40
1.0
 40
1.0
 40
1.0
 40
1.0
 10
240.8435477314428
 20
34.11217783555171
 30
0.0
 10
241.0705369341001
 20
33.89034626293873
 30
0.0
 10
241.2888772556664
 20
33.64048513613492
 30
0.0
 10
241.6924544488312
 20
33.10732589724394
 30
0.0
 10
241.8793031189255
 20
32.82302972766428
 30
0.0
 10
242.2268617249931
 20
32.22076665187699
 30
0.0
 10
242.3883170678148
 20
31.90048658335431
 30
0.0
 10
242.6776587221943
 20
31.24864076437421
 30
0.0
 10
242.8069931545289
 20
30.91500714153875
 30
0.0
 10
243.0385195089356
 20
30.23350018578816
 30
0.0
 10
243.1411316954174
 20
29.88310116811402
 30
0.0
 10
243.3144528045069
 20
29.19329764559738
 30
0.0
 10
243.3862018773628
 20
28.85140456607463
 30
0.0
 10
243.4730374865964
 20
28.34386451735053
 30
0.0
 10
243.498493013183
 20
28.17556964563086
 30
0.0
 10
243.5423814376196
 20
27.84091357617281
 30
0.0
 10
243.5605875530763
 20
27.67613377900893
 30
0.0
 10
243.6039964811483
 20
27.19375061102091
 30
0.0
 10
243.6183469986902
 20
26.88615931930119
 30
0.0
 10
243.6183968634145
 20
26.29924222528998
 30
0.0
 10
243.6036607157449
 20
26.01781837704663
 30
0.0
 10
243.5454010222415
 20
25.50377613838816
 30
0.0
 10
243.5021314779155
 20
25.26896885845579
 30
0.0
 10
243.3861076527269
 20
24.8423256938101
 30
0.0
 10
243.312613526812
 20
24.64990236938828
 30
0.0
 10
243.1386973061473
 20
24.32035215450556
 30
0.0
 10
243.0379632829781
 20
24.18118938007739
 30
0.0
 10
242.8639107685403
 20
24.0092464230624
 30
0.0
 10
242.8017900915235
 20
23.95793407764197
 30
0.0
 10
242.6703773747358
 20
23.86856087615403
 30
0.0
 10
242.601402890921
 20
23.83063809538732
 30
0.0
 10
242.3842456453265
 20
23.73622319057552
 30
0.0
 10
242.2259097534623
 20
23.69894375782082
 30
0.0
 10
241.9649838046036
 20
23.68048601415218
 30
0.0
 10
241.8737688764757
 20
23.68063773599922
 30
0.0
 10
241.684149826418
 20
23.69366357813436
 30
0.0
 10
241.5864377872499
 20
23.70644584896793
 30
0.0
 10
241.2842128493867
 20
23.76284285962768
 30
0.0
 10
241.0706510988445
 20
23.82436606420425
 30
0.0
 10
240.8435477314428
 20
23.90958289499629
 30
0.0
  0
SPLINE
  5
25C
330
1F
100
AcDbEntity
  8
0
  6
Continuous
 62
     7
370
    15
100
AcDbSpline
210
0.0
220
0.0
230
1.0
 70
    11
 71
     3
 72
    96
 73
    92
 74
     0
 42
0.000000001
 43
0.00000001
 40
0.0
 40
0.0
 40
0.0
 40
0.0
 40
0.0312499999999994
 40
0.0312499999999994
 40
0.0468749999999991
 40
0.0468749999999991
 40
0.0624999999999988
 40
0.0624999999999988
 40
0.0937499999999989
 40
0.0937499999999989
 40
0.1093749999999993
 40
0.1093749999999993
 40
0.1249999999999997
 40
0.1249999999999997
 40
0.1562499999999998
 40
0.1562499999999998
 40
0.1718749999999998
 40
0.1718749999999998
 40
0.1874999999999999
 40
0.1874999999999999
 40
0.2187500000000007
 40
0.2187500000000007
 40
0.2500000000000014
 40
0.2500000000000014
 40
0.2812500000000022
 40
0.2812500000000022
 40
0.2968750000000026
 40
0.2968750000000026
 40
0.3125000000000029
 40
0.3125000000000029
 40
0.3437500000000034
 40
0.3437500000000034
 40
0.3593750000000037
 40
0.3593750000000037
 40
0.3750000000000039
 40
0.3750000000000039
 40
0.3906250000000042
 40
0.3906250000000042
 40
0.4062500000000045
 40
0.4062500000000045
 40
0.4375000000000048
 40
0.4375000000000048
 40
0.4531250000000052
 40
0.4531250000000052
 40
0.4687500000000056
 40
0.4687500000000056
 40
0.5000000000000059
 40
0.5000000000000059
 40
0.5312500000000062
 40
0.5312500000000062
 40
0.5468750000000063
 40
0.5468750000000063
 40
0.5625000000000066
 40
0.5625000000000066
 40
0.5937500000000062
 40
0.5937500000000062
 40
0.6250000000000058
 40
0.6250000000000058
 40
0.6562500000000054
 40
0.6562500000000054
 40
0.6875000000000051
 40
0.6875000000000051
 40
0.7031250000000047
 40
0.7031250000000047
 40
0.7187500000000044
 40
0.7187500000000044
 40
0.750000000000004
 40
0.750000000000004
 40
0.7656250000000038
 40
0.7656250000000038
 40
0.7812500000000037
 40
0.7812500000000037
 40
0.8125000000000033
 40
0.8125000000000033
 40
0.828125000000003
 40
0.828125000000003
 40
0.8437500000000028
 40
0.8437500000000028
 40
0.8750000000000022
 40
0.8750000000000022
 40
0.890625000000002
 40
0.890625000000002
 40
0.9062500000000017
 40
0.9062500000000017
 40
0.9218750000000014
 40
0.9218750000000014
 40
0.9375000000000011
 40
0.9375000000000011
 40
0.9687500000000006
 40
0.9687500000000006
 40
1.0
 40
1.0
 40
1.0
 40
1.0
 10
270.1263864154625
 20
46.324468324789
 30
0.0
 10
270.4225345763938
 20
46.28323377520145
 30
0.0
 10
270.7112434124261
 20
46.22702301008474
 30
0.0
 10
271.1343290869655
 20
46.12406753654727
 30
0.0
 10
271.2736794900821
 20
46.08660836180258
 30
0.0
 10
271.5490599103204
 20
46.00569623338094
 30
0.0
 10
271.6857390067254
 20
45.96200851230843
 30
0.0
 10
272.085005644005
 20
45.82411359354446
 30
0.0
 10
272.3368371883564
 20
45.72337309956121
 30
0.0
 10
272.6939876298948
 20
45.56055415868071
 30
0.0
 10
272.8095811123693
 20
45.50430847720239
 30
0.0
 10
273.0337296560145
 20
45.38787847040269
 30
0.0
 10
273.1423604030027
 20
45.32760322509997
 30
0.0
 10
273.4514585091079
 20
45.14432442713594
 30
0.0
 10
273.6374854608902
 20
45.01782958689437
 30
0.0
 10
273.886681431477
 20
44.82122196435941
 30
0.0
 10
273.9647418834209
 20
44.75452776317275
 30
0.0
 10
274.1104909884123
 20
44.61857036219234
 30
0.0
 10
274.177856287469
 20
44.54954095213152
 30
0.0
 10
274.3603068897607
 20
44.34230732425792
 30
0.0
 10
274.4573080998594
 20
44.20273879587911
 30
0.0
 10
274.6007631529059
 20
43.91833481567294
 30
0.0
 10
274.6470888679606
 20
43.77198995984885
 30
0.0
 10
274.6815228711696
 20
43.48240103100128
 30
0.0
 10
274.670679630665
 20
43.33825190482118
 30
0.0
 10
274.6095153287283
 20
43.12079537542894
 30
0.0
 10
274.5814223468092
 20
43.04777721352151
 30
0.0
 10
274.5096278269664
 20
42.90241153683247
 30
0.0
 10
274.4663634532388
 20
42.83080414057314
 30
0.0
 10
274.3146138393325
 20
42.61873554802789
 30
0.0
 10
274.1844291285654
 20
42.48097576203965
 30
0.0
 10
273.9418948297067
 20
42.27887474171612
 30
0.0
 10
273.8531390261666
 20
42.2124389878118
 30
0.0
 10
273.6645986552884
 20
42.08486861471047
 30
0.0
 10
273.5642499245733
 20
42.02323841746163
 30
0.0
 10
273.3515083434153
 20
41.90422161175611
 30
0.0
 10
273.2391159109172
 20
41.8468347689522
 30
0.0
 10
273.0020172788967
 20
41.73645390831612
 30
0.0
 10
272.8772865248889
 20
41.68353746189535
 30
0.0
 10
272.4946493536322
 20
41.5356950859144
 30
0.0
 10
272.2252464498484
 20
41.44999201667045
 30
0.0
 10
271.8003156468575
 20
41.34140704278354
 30
0.0
 10
271.6560601425008
 20
41.30884375143506
 30
0.0
 10
271.366847808696
 20
41.251865958438
 30
0.0
 10
271.2212380950161
 20
41.2272815872365
 30
0.0
 10
270.7814558770972
 20
41.16528004457455
 30
0.0
 10
270.4816085121703
 20
41.13957925838271
 30
0.0
 10
269.8940618522718
 20
41.12253508367919
 30
0.0
 10
269.6048884592518
 20
41.13068247363092
 30
0.0
 10
269.1775405232763
 20
41.16892191355138
 30
0.0
 10
269.0358347437131
 20
41.18612663240553
 30
0.0
 10
268.7596650705544
 20
41.22883258533386
 30
0.0
 10
268.6245735366207
 20
41.25436636892293
 30
0.0
 10
268.2279739151837
 20
41.34348458763596
 30
0.0
 10
267.9750641194321
 20
41.41949910222221
 30
0.0
 10
267.4925486769349
 20
41.60672171912038
 30
0.0
 10
267.2692336022515
 20
41.71555691592212
 30
0.0
 10
266.8587294181976
 20
41.96187509693589
 30
0.0
 10
266.670601664941
 20
42.10004093018863
 30
0.0
 10
266.3343691916298
 20
42.40394790858316
 30
0.0
 10
266.1898307815637
 20
42.56622027381882
 30
0.0
 10
266.0077318985444
 20
42.82376758644293
 30
0.0
 10
265.9528549603073
 20
42.91198396592729
 30
0.0
 10
265.8551178090854
 20
43.093055186108
 30
0.0
 10
265.8120809863206
 20
43.18640445619342
 30
0.0
 10
265.703527034568
 20
43.46948361112361
 30
0.0
 10
265.6584185656449
 20
43.66116458550398
 30
0.0
 10
265.6323169197012
 20
43.95133137322453
 30
0.0
 10
265.6305917702015
 20
44.04849753150596
 30
0.0
 10
265.641870501495
 20
44.24343649492816
 30
0.0
 10
265.6550471166108
 20
44.34176253687821
 30
0.0
 10
265.7169189340842
 20
44.63057277278763
 30
0.0
 10
265.7874494394924
 20
44.81634063622973
 30
0.0
 10
265.9390897123851
 20
45.08264854886902
 30
0.0
 10
265.9973330473485
 20
45.16935051454276
 30
0.0
 10
266.1303389087543
 20
45.33808438937802
 30
0.0
 10
266.20435847819
 20
45.41904532328365
 30
0.0
 10
266.4456851818583
 20
45.6482406978734
 30
0.0
 10
266.6331783047131
 20
45.78435491441312
 30
0.0
 10
266.9560210920145
 20
45.96204857696647
 30
0.0
 10
267.0704355803312
 20
46.01659765800314
 30
0.0
 10
267.3069108114432
 20
46.11389688036989
 30
0.0
 10
267.4297011085272
 20
46.15707245212869
 30
0.0
 10
267.6841703804996
 20
46.23287446505696
 30
0.0
 10
267.8158496473801
 20
46.26550025411678
 30
0.0
 10
268.088169504204
 20
46.32033273903708
 30
0.0
 10
268.2277389904369
 20
46.34226903364672
 30
0.0
 10
268.6502706480961
 20
46.39192951406725
 30
0.0
 10
268.9394267691561
 20
46.40415165644967
 30
0.0
 10
269.5323437142255
 20
46.39103151113085
 30
0.0
 10
269.8302382545313
 20
46.36570287437653
 30
0.0
 10
270.1263864154625
 20
46.324468324789
 30
0.0
  0
LINE
  5
25D
330
1F
100
AcDbEntity
  8
0
  6
Continuous
 62
     7
370
    15
100
AcDbLine
 10
271.5182342699
 20
16.428890554
 30
0.0
 11
271.681004411
 21
16.327868128
 31
0.0
  0
LINE
  5
25E
330
1F
100
AcDbEntity
  8
0
  6
Continuous
 62
     7
370
    15
100
AcDbLine
 10
280.680273262
 20
31.9167479513
 30
0.0
 11
280.5207941971
 21
32.0025073881
 31
0.0
  0
SPLINE
  5
25F
330
1F
100
AcDbEntity
  8
0
  6
Continuous
 62
     7
370
    15
100
AcDbSpline
210
0.0
220
0.0
230
1.0
 70
     8
 71
     3
 72
    14
 73
    10
 74
     0
 42
0.000000001
 43
0.00000001
 40
0.0
 40
0.0
 40
0.0
 40
0.0
 40
0.0898744194018182
 40
0.2701039144958393
 40
0.4414220421150061
 40
0.6030535980125696
 40
0.767216200687023
 40
0.9423046486314612
 40
1.0
 40
1.0
 40
1.0
 40
1.0
 10
278.0653109003005
 20
32.1248509735298
 30
0.0
 10
278.2030731007911
 20
31.96519039155354
 30
0.0
 10
278.6170964666134
 20
31.48535476680626
 30
0.0
 10
279.018355083023
 20
30.58643325688638
 30
0.0
 10
279.1359382855424
 20
29.56721018437845
 30
0.0
 10
278.8584482541163
 20
28.68954560442739
 30
0.0
 10
278.2653894158012
 20
28.05649955730786
 30
0.0
 10
277.62730321657
 20
27.70860640186291
 30
0.0
 10
277.2123848022262
 20
27.75104617362468
 30
0.0
 10
277.1095474751635
 20
27.76156485040125
 30
0.0
  0
SPLINE
  5
260
330
1F
100
AcDbEntity
  8
0
  6
Continuous
 62
     7
370
    15
100
AcDbSpline
210
0.0
220
0.0
230
1.0
 70
     8
 71
     3
 72
    14
 73
    10
 74
     0
 42
0.000000001
 43
0.00000001
 40
0.0
 40
0.0
 40
0.0
 40
0.0
 40
0.25
 40
0.25
 40
0.5
 40
0.5
 40
0.75
 40
0.75
 40
1.0
 40
1.0
 40
1.0
 40
1.0
 10
263.7709152270887
 20
58.8830127293602
 30
0.0
 10
263.7709152270887
 20
58.91975384763719
 30
0.0
 10
263.7666479344814
 20
58.95815298850217
 30
0.0
 10
263.7490536741743
 20
59.03847133490216
 30
0.0
 10
263.735777239794
 20
59.07971821723248
 30
0.0
 10
263.6995027567767
 20
59.16069564553231
 30
0.0
 10
263.6764706552418
 20
59.20029086282342
 30
0.0
 10
263.621810642111
 20
59.26946951738929
 30
0.0
 10
263.5903710082948
 20
59.2983394463397
 30
0.0
 10
263.5587831927329
 20
59.31657470411525
 30
0.0
  0
LWPOLYLINE
  5
261
330
1F
100
AcDbEntity
  8
0
  6
Continuous
 62
     7
370
    15
100
AcDbPolyline
 90
       17
 70
   128
 43
0.0
 10
236.9228283749
 20
33.628163491
 10
237.2967789225
 20
35.1201691422
 10
237.8670047094
 20
36.9926110178
 10
238.5491751601
 20
38.8678697903
 10
239.3383116782
 20
40.7322674808
 10
240.2286625359
 20
42.5722105944
 10
241.2137331673
 20
44.374279852
 10
242.2863408274
 20
46.1253347483
 10
243.438662666
 20
47.8126044236
 10
244.6622956552
 20
49.4237853766
 10
245.9483165169
 20
50.9471270116
 10
247.2873469188
 20
52.3715209865
 10
248.6696219629
 20
53.6865802945
 10
250.0850616377
 20
54.8827139728
 10
251.523343258
 20
55.9511993399
 10
252.9739783913
 20
56.8842446555
 10
253.4158378633
 20
57.1399969483
  0
SPLINE
  5
262
330
1F
100
AcDbEntity
  8
0
  6
Continuous
 62
     7
370
    15
100
AcDbSpline
210
0.0
220
0.0
230
1.0
 70
     8
 71
     3
 72
    12
 73
     8
 74
     0
 42
0.000000001
 43
0.00000001
 40
0.0
 40
0.0
 40
0.0
 40
0.0
 40
0.2499999999999984
 40
0.2499999999999984
 40
0.4999999999999969
 40
0.4999999999999969
 40
1.0
 40
1.0
 40
1.0
 40
1.0
 10
236.4839264034782
 20
33.59870700851832
 30
0.0
 10
236.5178578957677
 20
33.57911877496684
 30
0.0
 10
236.5562896047949
 20
33.55193158603044
 30
0.0
 10
236.6304664574599
 20
33.4927076584946
 30
0.0
 10
236.6656827377153
 20
33.46127497947784
 30
0.0
 10
236.7607816549733
 20
33.36928226267587
 30
0.0
 10
236.8093108117352
 20
33.31242559715121
 30
0.0
 10
236.8426524078902
 20
33.26419679114888
 30
0.0
  0
ARC
  5
263
330
1F
100
AcDbEntity
  8
0
  6
Continuous
 62
     7
370
    15
100
AcDbCircle
 10
260.5592191638
 20
48.8692259135
 30
0.0
 40
10.86942928536272
100
AcDbArc
 50
73.9805689162
 51
106.2233053919
  0
SPLINE
  5
264
330
1F
100
AcDbEntity
  8
0
  6
Continuous
 62
     7
370
    15
100
AcDbSpline
210
0.0
220
0.0
230
1.0
 70
     8
 71
     3
 72
    34
 73
    30
 74
     0
 42
0.000000001
 43
0.00000001
 40
0.0
 40
0.0
 40
0.0
 40
0.0
 40
0.062499999999999
 40
0.062499999999999
 40
0.124999999999998
 40
0.124999999999998
 40
0.1874999999999971
 40
0.1874999999999971
 40
0.2499999999999966
 40
0.2499999999999966
 40
0.3124999999999962
 40
0.3124999999999962
 40
0.3749999999999957
 40
0.3749999999999957
 40
0.4999999999999958
 40
0.4999999999999958
 40
0.6249999999999958
 40
0.6249999999999958
 40
0.6874999999999964
 40
0.6874999999999964
 40
0.7499999999999971
 40
0.7499999999999971
 40
0.8124999999999979
 40
0.8124999999999979
 40
0.8749999999999986
 40
0.8749999999999986
 40
0.9374999999999992
 40
0.9374999999999992
 40
1.0
 40
1.0
 40
1.0
 40
1.0
 10
244.8360880180103
 20
52.78590389955065
 30
0.0
 10
244.8952134316536
 20
52.75632641569241
 30
0.0
 10
244.9580261270841
 20
52.73265039349688
 30
0.0
 10
245.0907351300088
 20
52.69657088307714
 30
0.0
 10
245.1613468263799
 20
52.6841229929379
 30
0.0
 10
245.3065947963572
 20
52.67141309921251
 30
0.0
 10
245.3805772261194
 20
52.67107091931518
 30
0.0
 10
245.5312592909443
 20
52.6820772641378
 30
0.0
 10
245.6087073107444
 20
52.69366392812328
 30
0.0
 10
245.7606398967195
 20
52.72783847086208
 30
0.0
 10
245.835595977304
 20
52.75035087325207
 30
0.0
 10
245.9835310442127
 20
52.80616294585014
 30
0.0
 10
246.056459757303
 20
52.83960779205643
 30
0.0
 10
246.263072283313
 20
52.95197005137575
 30
0.0
 10
246.3899974593623
 20
53.04600745239648
 30
0.0
 10
246.5991042119892
 20
53.25460876757239
 30
0.0
 10
246.6836525951871
 20
53.37153286171609
 30
0.0
 10
246.7686261519611
 20
53.55005811168874
 30
0.0
 10
246.790585852559
 20
53.61127469061542
 30
0.0
 10
246.8196969492988
 20
53.73208067312926
 30
0.0
 10
246.8270514120786
 20
53.79168119957443
 30
0.0
 10
246.827394347123
 20
53.90942248970769
 30
0.0
 10
246.8201543042876
 20
53.96787387784478
 30
0.0
 10
246.7915424537657
 20
54.07863650223624
 30
0.0
 10
246.7702591122062
 20
54.13154894695888
 30
0.0
 10
246.7134309455991
 20
54.23246715426814
 30
0.0
 10
246.6779734566252
 20
54.27998216889924
 30
0.0
 10
246.5955685037387
 20
54.36624214678266
 30
0.0
 10
246.5483636011628
 20
54.40548769920273
 30
0.0
 10
246.4948874552739
 20
54.44070082731635
 30
0.0
  0
LWPOLYLINE
  5
265
330
1F
100
AcDbEntity
  8
0
  6
Continuous
 62
     7
370
    15
100
AcDbPolyline
 90
       12
 70
   128
 43
0.0
 10
246.4948873851
 20
54.4407015316
 10
247.9452444068
 20
55.7133048422
 10
249.4228763664
 20
56.8544538794
 10
250.9166021248
 20
57.8555129013
 10
252.4151186298
 20
58.708907356
 10
253.9070863624
 20
59.4081808131
 10
255.3812155238
 20
59.9480386348
 10
256.8263509461
 20
60.3243985148
 10
258.2315574977
 20
60.534410884
 10
259.5862019899
 20
60.5764864221
 10
260.8800331895
 20
60.4503087879
 10
262.1032611738
 20
60.156830239
  0
LINE
  5
266
330
1F
100
AcDbEntity
  8
0
  6
Continuous
 62
     7
370
    15
100
AcDbLine
 10
263.5587831601
 20
59.3165752817
 30
0.0
 11
262.1032611738
 21
60.156830239
 31
0.0
  0
LINE
  5
267
330
1F
100
AcDbEntity
  8
0
  6
Continuous
 62
     7
370
    15
100
AcDbLine
 10
235.0284042547
 20
34.438962151
 30
0.0
 11
236.483926241
 21
33.5987071937
 31
0.0
  0
ARC
  5
268
330
1F
100
AcDbEntity
  8
0
  6
Continuous
 62
     7
370
    15
100
AcDbCircle
 10
274.3611281264
 20
25.2078612861
 30
0.0
 40
40.40144044883933
100
AcDbArc
 50
136.9528122493
 51
166.7921386576
  0
LINE
  5
269
330
1F
100
AcDbEntity
  8
0
  6
Continuous
 62
     7
370
    15
100
AcDbLine
 10
236.8426518981
 20
33.264196364
 30
0.0
 11
236.8881599578
 21
33.1983702283
 31
0.0
  0
LINE
  5
26A
330
1F
100
AcDbEntity
  8
0
  6
Continuous
 62
     7
370
    15
100
AcDbLine
 10
263.7709154926
 20
56.1076436888
 30
0.0
 11
263.7709154926
 21
58.8830130868
 31
0.0
  0
LINE
  5
26B
330
1F
100
AcDbEntity
  8
0
  6
Continuous
 62
     7
370
    15
100
AcDbLine
 10
236.8881599578
 20
33.1983702283
 30
0.0
 11
238.7092567933
 21
34.249667054
 31
0.0
  0
SPLINE
  5
26C
330
1F
100
AcDbEntity
  8
0
  6
Continuous
 62
     7
370
    15
100
AcDbSpline
210
0.0
220
0.0
230
1.0
 70
     8
 71
     3
 72
     8
 73
     4
 74
     0
 42
0.000000001
 43
0.00000001
 40
0.0
 40
0.0
 40
0.0
 40
0.0
 40
1.0
 40
1.0
 40
1.0
 40
1.0
 10
263.7709152270887
 20
56.10764378631475
 30
0.0
 10
263.7709152270887
 20
55.95642446686008
 30
0.0
 10
263.7832610625968
 20
55.79943379828492
 30
0.0
 10
263.8079399676741
 20
55.63667774832552
 30
0.0
  0
SPLINE
  5
26D
330
1F
100
AcDbEntity
  8
0
  6
Continuous
 62
     7
370
    15
100
AcDbSpline
210
0.0
220
0.0
230
1.0
 70
     8
 71
     3
 72
     8
 73
     4
 74
     0
 42
0.000000001
 43
0.00000001
 40
0.0
 40
0.0
 40
0.0
 40
0.0
 40
1.0
 40
1.0
 40
1.0
 40
1.0
 10
263.8079399676741
 20
55.63667774832552
 30
0.0
 10
263.9118668541615
 20
55.72516712014769
 30
0.0
 10
264.0292996465699
 20
55.80721382646956
 30
0.0
 10
264.1602523248395
 20
55.88281119849925
 30
0.0
  0
SPLINE
  5
26E
330
1F
100
AcDbEntity
  8
0
  6
Continuous
 62
     7
370
    15
100
AcDbSpline
210
0.0
220
0.0
230
1.0
 70
     8
 71
     3
 72
    22
 73
    18
 74
     0
 42
0.000000001
 43
0.00000001
 40
0.0
 40
0.0
 40
0.0
 40
0.0
 40
0.125
 40
0.125
 40
0.25
 40
0.25
 40
0.375
 40
0.375
 40
0.5
 40
0.5
 40
0.625
 40
0.625
 40
0.75
 40
0.75
 40
0.875
 40
0.875
 40
1.0
 40
1.0
 40
1.0
 40
1.0
 10
240.8435477314428
 20
34.11217783555171
 30
0.0
 10
240.7795546495747
 20
34.17471687186264
 30
0.0
 10
240.7081830036907
 20
34.23056536131419
 30
0.0
 10
240.5503039875489
 20
34.32878190735786
 30
0.0
 10
240.4628284405347
 20
34.37130010564189
 30
0.0
 10
240.2809219782618
 20
34.43868387059696
 30
0.0
 10
240.1853380892567
 20
34.46430380863351
 30
0.0
 10
239.9871511513578
 20
34.49973534118399
 30
0.0
 10
239.8874608715973
 20
34.5091127307097
 30
0.0
 10
239.6870541126669
 20
34.51353092761125
 30
0.0
 10
239.5859548058668
 20
34.50836763629361
 30
0.0
 10
239.3908539839785
 20
34.48560964328679
 30
0.0
 10
239.2957247533045
 20
34.46806998936005
 30
0.0
 10
239.1107455544194
 20
34.4217065090346
 30
0.0
 10
239.0234484345811
 20
34.39353692233636
 30
0.0
 10
238.8586782765605
 20
34.32829729540842
 30
0.0
 10
238.7808201595666
 20
34.2909799687498
 30
0.0
 10
238.7092561025284
 20
34.24966691799465
 30
0.0
  0
LINE
  5
26F
330
1F
100
AcDbEntity
  8
0
  6
Continuous
 62
     7
370
    15
100
AcDbLine
 10
260.1275150387
 20
60.4997896597
 30
0.0
 11
259.8170709015
 21
61.4766197907
 31
0.0
  0
LWPOLYLINE
  5
270
330
1F
100
AcDbEntity
  8
0
  6
Continuous
 62
     7
370
    15
100
AcDbPolyline
 90
       22
 70
   128
 43
0.0
 10
233.9558499367
 20
35.5304759104
 10
234.4303589136
 20
37.4274045469
 10
235.0298030033
 20
39.3403679878
 10
235.7492865858
 20
41.2537467848
 10
236.5829341272
 20
43.151916258
 10
237.5239402285
 20
45.0193795729
 10
238.5646209923
 20
46.840887888
 10
239.6964785603
 20
48.6015688675
 10
240.9102715775
 20
50.2870456869
 10
242.1960896075
 20
51.8835560385
 10
243.5434341338
 20
53.378065813
 10
244.941302524
 20
54.7583708035
 10
246.3782822018
 20
56.0131997395
 10
247.8426398798
 20
57.1323083855
 10
249.3224185709
 20
58.1065598802
 10
250.8055360005
 20
58.9279967565
 10
252.2798821522
 20
59.589913985
 10
253.7334189561
 20
60.0869073963
 10
255.1542781229
 20
60.4149164719
 10
256.5308584033
 20
60.5712652807
 10
257.8519191012
 20
60.5546753987
 10
258.1468811864
 20
60.5263691484
  0
SPLINE
  5
271
330
1F
100
AcDbEntity
  8
0
  6
Continuous
 62
     7
370
    15
100
AcDbSpline
210
0.0
220
0.0
230
1.0
 70
     8
 71
     3
 72
     8
 73
     4
 74
     0
 42
0.000000001
 43
0.00000001
 40
0.0
 40
0.0
 40
0.0
 40
0.0
 40
1.0
 40
1.0
 40
1.0
 40
1.0
 10
233.9558499312496
 20
35.5304759360498
 30
0.0
 10
233.6687828015774
 20
35.48302393632645
 30
0.0
 10
233.3816696829919
 20
35.43566650362366
 30
0.0
 10
233.0945148565942
 20
35.38839483471159
 30
0.0
  0
SPLINE
  5
272
330
1F
100
AcDbEntity
  8
0
  6
Continuous
 62
     7
370
    15
100
AcDbSpline
210
0.0
220
0.0
230
1.0
 70
     8
 71
     3
 72
     8
 73
     4
 74
     0
 42
0.000000001
 43
0.00000001
 40
0.0
 40
0.0
 40
0.0
 40
0.0
 40
0.0011862984959113
 40
0.0011862984959113
 40
0.0011862984959113
 40
0.0011862984959113
 10
232.7422137693188
 20
35.75875173437377
 30
0.0
 10
232.8599246371633
 20
35.63520178326132
 30
0.0
 10
232.9773643875993
 20
35.51174673414603
 30
0.0
 10
233.0945148565942
 20
35.38839483471159
 30
0.0
  0
LWPOLYLINE
  5
273
330
1F
100
AcDbEntity
  8
0
  6
Continuous
 62
     7
370
    15
100
AcDbPolyline
 90
       23
 70
   128
 43
0.0
 10
232.7422139824
 20
35.7587517027
 10
233.2370153498
 20
37.705165938
 10
233.856738659
 20
39.6668275196
 10
234.5965554618
 20
41.6284451326
 10
235.4506982254
 20
43.5747294512
 10
236.4125077477
 20
45.4905083447
 10
237.474488475
 20
47.3608500672
 10
238.628362503
 20
49.1711735193
 10
239.8651354308
 20
50.907370677
 10
241.1751661667
 20
52.5559062056
 10
242.5482439782
 20
54.103930381
 10
243.9736655414
 20
55.5393768021
 10
245.4403202226
 20
56.8510557296
 10
246.936776183
 20
58.0287448584
 10
248.4513682122
 20
59.0632628361
 10
249.9722907475
 20
59.9465457764
 10
251.4876883413
 20
60.6717086102
 10
252.98574901
 20
61.2331004954
 10
254.4547955248
 20
61.62634383
 10
255.8833771138
 20
61.848373502
 10
257.2603574601
 20
61.8974587924
 10
258.575004593
 20
61.7732187655
 10
259.8170709015
 20
61.4766197907
  0
LINE
  5
274
330
1F
100
AcDbEntity
  8
0
  6
Continuous
 62
     7
370
    15
100
AcDbLine
 10
259.8170709015
 20
61.4766197907
 30
0.0
 11
258.3792262255
 21
62.3066698541
 31
0.0
  0
LINE
  5
275
330
1F
100
AcDbEntity
  8
0
  6
Continuous
 62
     7
370
    15
100
AcDbLine
 10
231.3043693064
 20
36.588801766
 30
0.0
 11
232.7422139824
 21
35.7587517027
 31
0.0
  0
ARC
  5
276
330
1F
100
AcDbEntity
  8
0
  6
Continuous
 62
     7
370
    15
100
AcDbCircle
 10
255.3796673612
 20
51.8593595576
 30
0.0
 40
10.86939031458845
100
AcDbArc
 50
73.9805380809
 51
106.2228094608
  0
SPLINE
  5
277
330
1F
100
AcDbEntity
  8
0
  6
Continuous
 62
     7
370
    15
100
AcDbSpline
210
0.0
220
0.0
230
1.0
 70
     8
 71
     3
 72
    11
 73
     7
 74
     0
 42
0.000000001
 43
0.00000001
 40
0.0
 40
0.0
 40
0.0
 40
0.0
 40
0.3165694752064712
 40
0.6331520400060429
 40
0.9494411625907934
 40
1.0
 40
1.0
 40
1.0
 40
1.0
 10
245.8028634621876
 20
53.54822258180352
 30
0.0
 10
245.6692732819839
 20
53.50104391888346
 30
0.0
 10
245.4020873978565
 20
53.4066846422883
 30
0.0
 10
245.0861371986578
 20
53.1468689430951
 30
0.0
 10
244.9054345077012
 20
52.92367755762263
 30
0.0
 10
244.8704995441511
 20
52.79492838012482
 30
0.0
 10
244.8656848216103
 20
52.77718422057767
 30
0.0
  0
LINE
  5
278
330
1F
100
AcDbEntity
  8
0
  6
Continuous
 62
     7
370
    15
100
AcDbLine
 10
235.2084407743
 20
35.2041339089
 30
0.0
 11
234.5823371566
 21
35.5655758339
 31
0.0
  0
SPLINE
  5
279
330
1F
100
AcDbEntity
  8
0
  6
Continuous
 62
     7
370
    15
100
AcDbSpline
210
0.0
220
0.0
230
1.0
 70
     8
 71
     3
 72
    14
 73
    10
 74
     0
 42
0.000000001
 43
0.00000001
 40
0.0
 40
0.0
 40
0.0
 40
0.0
 40
0.25
 40
0.25
 40
0.5
 40
0.5
 40
0.75
 40
0.75
 40
1.0
 40
1.0
 40
1.0
 40
1.0
 10
234.5823370439834
 20
35.56557600328185
 30
0.0
 10
234.5447030505253
 20
35.58730164526189
 30
0.0
 10
234.4989290938362
 20
35.6045134063734
 30
0.0
 10
234.3989932163262
 20
35.62691874000589
 30
0.0
 10
234.3445593474863
 20
35.63209362360572
 30
0.0
 10
234.2383436969944
 20
35.63015142929096
 30
0.0
 10
234.1850273970443
 20
35.62306302637273
 30
0.0
 10
234.0875343297436
 20
35.59832959008805
 30
0.0
 10
234.042622639214
 20
35.580568754102
 30
0.0
 10
234.004869373614
 20
35.55877425778001
 30
0.0
  0
LINE
  5
27A
330
1F
100
AcDbEntity
  8
0
  6
Continuous
 62
     7
370
    15
100
AcDbLine
 10
234.0048693557
 20
35.5587742186
 30
0.0
 11
233.9558499367
 21
35.5304759104
 31
0.0
  0
ARC
  5
27B
330
1F
100
AcDbEntity
  8
0
  6
Continuous
 62
     7
370
    15
100
AcDbCircle
 10
271.0227305541
 20
27.1096272276
 30
0.0
 40
40.92045494687415
100
AcDbArc
 50
143.5835897407
 51
160.8037648338
  0
SPLINE
  5
27C
330
1F
100
AcDbEntity
  8
0
  6
Continuous
 62
     7
370
    15
100
AcDbSpline
210
0.0
220
0.0
230
1.0
 70
     8
 71
     3
 72
    10
 73
     6
 74
     0
 42
0.000000001
 43
0.00000001
 40
0.0
 40
0.0
 40
0.0
 40
0.0
 40
0.5
 40
0.5
 40
1.0
 40
1.0
 40
1.0
 40
1.0
 10
231.2023567409638
 20
36.61824994495849
 30
0.0
 10
231.209673025386
 20
36.62261794485167
 30
0.0
 10
231.2214968855944
 20
36.62314999743994
 30
0.0
 10
231.2556482498722
 20
36.61391994780163
 30
0.0
 10
231.277905213265
 20
36.60407907048533
 30
0.0
 10
231.3043692312867
 20
36.58880171806901
 30
0.0
  0
SPLINE
  5
27D
330
1F
100
AcDbEntity
  8
0
  6
Continuous
 62
     7
370
    15
100
AcDbSpline
210
0.0
220
0.0
230
1.0
 70
     8
 71
     3
 72
    20
 73
    16
 74
     0
 42
0.000000001
 43
0.00000001
 40
0.0
 40
0.0
 40
0.0
 40
0.0
 40
0.125
 40
0.125
 40
0.2500000000000001
 40
0.2500000000000001
 40
0.3750000000000001
 40
0.3750000000000001
 40
0.5000000000000001
 40
0.5000000000000001
 40
0.6250000000000001
 40
0.6250000000000001
 40
0.7500000000000002
 40
0.7500000000000002
 40
1.0
 40
1.0
 40
1.0
 40
1.0
 10
238.7092561025284
 20
23.75711748526276
 30
0.0
 10
238.7809020060285
 20
23.79847778497466
 30
0.0
 10
238.8579922161237
 20
23.83540583104303
 30
0.0
 10
239.0226391392449
 20
23.90092819743015
 30
0.0
 10
239.1109779607249
 20
23.92971953985357
 30
0.0
 10
239.2952634557466
 20
23.97793187893179
 30
0.0
 10
239.3899843942695
 20
23.99714018822022
 30
0.0
 10
239.5846346868428
 20
24.02647113062947
 30
0.0
 10
239.6858685919519
 20
24.03662599531841
 30
0.0
 10
239.8862670578697
 20
24.04730169368941
 30
0.0
 10
239.9854983802557
 20
24.04798587978216
 30
0.0
 10
240.1818334553234
 20
24.04066212681212
 30
0.0
 10
240.2794238546591
 20
24.0324588544472
 30
0.0
 10
240.5523173056606
 20
23.99685600151781
 30
0.0
 10
240.7152868836691
 20
23.95771068406005
 30
0.0
 10
240.8435477314428
 20
23.90958289499629
 30
0.0
  0
SPLINE
  5
27E
330
1F
100
AcDbEntity
  8
0
  6
Continuous
 62
     7
370
    15
100
AcDbSpline
210
0.0
220
0.0
230
1.0
 70
     8
 71
     3
 72
    14
 73
    10
 74
     0
 42
0.000000001
 43
0.00000001
 40
0.0
 40
0.0
 40
0.0
 40
0.0
 40
0.25
 40
0.25
 40
0.5
 40
0.5
 40
0.75
 40
0.75
 40
1.0
 40
1.0
 40
1.0
 40
1.0
 10
246.2199423172133
 20
53.85467439094176
 30
0.0
 10
246.2347575094293
 20
53.81622307360436
 30
0.0
 10
246.234193709831
 20
53.7783642709316
 30
0.0
 10
246.201222928983
 20
53.71227714325767
 30
0.0
 10
246.1690810902506
 20
53.68404030126236
 30
0.0
 10
246.0843734964721
 20
53.63620070811839
 30
0.0
 10
246.0325586900022
 20
53.61651341425281
 30
0.0
 10
245.9211767739546
 20
53.58058478428195
 30
0.0
 10
245.862362582963
 20
53.56452402202378
 30
0.0
 10
245.8028632065015
 20
53.54822280775177
 30
0.0
  0
LINE
  5
27F
330
1F
100
AcDbEntity
  8
0
  6
Continuous
 62
     7
370
    15
100
AcDbLine
 10
246.2038153224
 20
53.8965302335
 30
0.0
 11
246.2199424189
 21
53.8546747439
 31
0.0
  0
SPLINE
  5
280
330
1F
100
AcDbEntity
  8
0
  6
Continuous
 62
     7
370
    15
100
AcDbSpline
210
0.0
220
0.0
230
1.0
 70
     8
 71
     3
 72
    10
 73
     6
 74
     0
 42
0.000000001
 43
0.00000001
 40
0.0
 40
0.0
 40
0.0
 40
0.0
 40
0.5
 40
0.5
 40
1.0
 40
1.0
 40
1.0
 40
1.0
 10
246.4948874552739
 20
54.44070082731635
 30
0.0
 10
246.4668724055361
 20
54.36867472462832
 30
0.0
 10
246.4290545170862
 20
54.28772823932487
 30
0.0
 10
246.3330787692513
 20
54.10733320298495
 30
0.0
 10
246.2750469919517
 20
54.00800699601016
 30
0.0
 10
246.2038152543616
 20
53.89653053444609
 30
0.0
  0
LINE
  5
281
330
1F
100
AcDbEntity
  8
0
  6
Continuous
 62
     7
370
    15
100
AcDbLine
 10
236.8881599578
 20
33.1983702283
 30
0.0
 11
235.0603057971
 21
34.2535679748
 31
0.0
  0
SPLINE
  5
282
330
1F
100
AcDbEntity
  8
0
  6
Continuous
 62
     7
370
    15
100
AcDbSpline
210
0.0
220
0.0
230
1.0
 70
     8
 71
     3
 72
     8
 73
     4
 74
     0
 42
0.000000001
 43
0.00000001
 40
0.0000000000000004
 40
0.0000000000000004
 40
0.0000000000000004
 40
0.0000000000000004
 40
0.0011862984959128
 40
0.0011862984959128
 40
0.0011862984959128
 40
0.0011862984959128
 10
235.0603055295652
 20
34.25356803467305
 30
0.0
 10
235.0492433303075
 20
34.31567647959184
 30
0.0
 10
235.0386173237338
 20
34.37746926689345
 30
0.0
 10
235.0284041959164
 20
34.43896209361134
 30
0.0
  0
LINE
  5
283
330
1F
100
AcDbEntity
  8
0
  6
Continuous
 62
     7
370
    15
100
AcDbLine
 10
235.1330900294
 20
35.03874287
 30
0.0
 11
235.1330900294
 21
34.8935930328
 31
0.0
  0
LINE
  5
284
330
1F
100
AcDbEntity
  8
0
  6
Continuous
 62
     7
370
    15
100
AcDbLine
 10
235.1330900294
 20
34.2115498354
 30
0.0
 11
235.1330900294
 21
31.7791567109
 31
0.0
  0
LINE
  5
285
330
1F
100
AcDbEntity
  8
0
  6
Continuous
 62
     7
370
    15
100
AcDbLine
 10
235.1330900294
 20
35.2476325204
 30
0.0
 11
235.1330900294
 21
35.03874287
 31
0.0
  0
LINE
  5
286
330
1F
100
AcDbEntity
  8
0
  6
Continuous
 62
     7
370
    15
100
AcDbLine
 10
235.1330900294
 20
31.7791567109
 30
0.0
 11
235.1330900294
 21
28.9091676682
 31
0.0
  0
LINE
  5
287
330
1F
100
AcDbEntity
  8
0
  6
Continuous
 62
     7
370
    15
100
AcDbLine
 10
235.1330900294
 20
35.03874287
 30
0.0
 11
235.1131967169
 21
34.8093971135
 31
0.0
  0
ARC
  5
288
330
1F
100
AcDbEntity
  8
0
  6
Continuous
 62
     7
370
    15
100
AcDbCircle
 10
251.1158731914
 20
33.3820969325
 30
0.0
 40
16.06296283247184
100
AcDbArc
 50
176.9225000953
 51
185.727139394
  0
LINE
  5
289
330
1F
100
AcDbEntity
  8
0
  6
Continuous
 62
     7
370
    15
100
AcDbLine
 10
234.1343026568
 20
34.1386150592
 30
0.0
 11
234.1960754487
 21
35.5987612274
 31
0.0
  0
ARC
  5
28A
330
1F
100
AcDbEntity
  8
0
  6
Continuous
 62
     7
370
    15
100
AcDbCircle
 10
245.9692903785
 20
33.8637556762
 30
0.0
 40
11.83817900076295
100
AcDbArc
 50
178.6695844123
 51
203.7430473282
  0
LINE
  5
28B
330
1F
100
AcDbEntity
  8
0
  6
Continuous
 62
     7
370
    15
100
AcDbLine
 10
215.7032144826
 20
70.7258406354
 30
0.0
 11
215.7529131903
 21
70.7075048239
 31
0.0
  0
LINE
  5
28C
330
1F
100
AcDbEntity
  8
0
  6
Continuous
 62
     7
370
    15
100
AcDbLine
 10
205.5793551022
 20
53.188902235
 30
0.0
 11
205.5177377268
 21
53.2421677958
 31
0.0
  0
LINE
  5
28D
330
1F
100
AcDbEntity
  8
0
  6
Continuous
 62
     7
370
    15
100
AcDbLine
 10
231.6378919713
 20
36.2292854221
 30
0.0
 11
231.2023561523
 21
36.6182495918
 31
0.0
  0
LINE
  5
28E
330
1F
100
AcDbEntity
  8
0
  6
Continuous
 62
     7
370
    15
100
AcDbLine
 10
233.0945152086
 20
35.388394726
 30
0.0
 11
231.6378919713
 21
36.2292854221
 31
0.0
  0
LINE
  5
28F
330
1F
100
AcDbEntity
  8
0
  6
Continuous
 62
     7
370
    15
100
AcDbLine
 10
235.0603057971
 20
23.7610188754
 30
0.0
 11
236.8881599578
 21
22.705821129
 31
0.0
  0
LINE
  5
290
330
1F
100
AcDbEntity
  8
0
  6
Continuous
 62
     7
370
    15
100
AcDbLine
 10
236.8881599578
 20
22.705821129
 30
0.0
 11
236.8426518981
 21
22.5874525059
 31
0.0
  0
SPLINE
  5
291
330
1F
100
AcDbEntity
  8
0
  6
Continuous
 62
     7
370
    15
100
AcDbSpline
210
0.0
220
0.0
230
1.0
 70
     8
 71
     3
 72
    14
 73
    10
 74
     0
 42
0.000000001
 43
0.00000001
 40
0.0
 40
0.0
 40
0.0
 40
0.0
 40
0.25
 40
0.25
 40
0.5
 40
0.5
 40
0.75
 40
0.75
 40
1.0
 40
1.0
 40
1.0
 40
1.0
 10
236.8426524078902
 20
22.58745285961239
 30
0.0
 10
236.8259775648239
 20
22.54408024150581
 30
0.0
 10
236.8056823219079
 20
22.50384991205996
 30
0.0
 10
236.7573853428375
 20
22.43007802438782
 30
0.0
 10
236.7291664950324
 20
22.39650841771071
 30
0.0
 10
236.6662411466093
 20
22.34295701204809
 30
0.0
 10
236.6310779705923
 20
22.32250098268844
 30
0.0
 10
236.5563949813838
 20
22.30506868917656
 30
0.0
 10
236.5178701061754
 20
22.30901599816145
 30
0.0
 10
236.4839264034782
 20
22.32861128063127
 30
0.0
  0
LINE
  5
292
330
1F
100
AcDbEntity
  8
0
  6
Continuous
 62
     7
370
    15
100
AcDbLine
 10
236.483926241
 20
22.3286114043
 30
0.0
 11
235.0284042547
 21
23.1688663616
 31
0.0
  0
SPLINE
  5
293
330
1F
100
AcDbEntity
  8
0
  6
Continuous
 62
     7
370
    15
100
AcDbSpline
210
0.0
220
0.0
230
1.0
 70
     8
 71
     3
 72
     8
 73
     4
 74
     0
 42
0.000000001
 43
0.00000001
 40
0.0
 40
0.0
 40
0.0
 40
0.0
 40
0.0011862984959113
 40
0.0011862984959113
 40
0.0011862984959113
 40
0.0011862984959113
 10
235.0284041959164
 20
23.1688663657243
 30
0.0
 10
235.0386173237338
 20
23.36626526761324
 30
0.0
 10
235.049243330309
 20
23.56365110459003
 30
0.0
 10
235.0603055295666
 20
23.76101860194037
 30
0.0
  0
LWPOLYLINE
  5
294
330
1F
100
AcDbEntity
  8
0
  6
Continuous
 62
     7
370
    15
100
AcDbPolyline
 90
       13
 70
   128
 43
0.0
 10
248.5110039449
 20
15.7026554459
 10
247.2450051411
 20
15.4279461816
 10
245.8765430681
 20
15.2760740264
 10
244.5604003806
 20
15.2873173928
 10
243.306237268
 20
15.4615966664
 10
242.1232575484
 20
15.7976303641
 10
241.020144131
 20
16.2929541516
 10
240.0049925036
 20
16.943931116
 10
239.0852547558
 20
17.7457856114
 10
238.2676783346
 20
18.6926295012
 10
237.5582665317
 20
19.7775161538
 10
236.962224483
 20
20.9924830345
 10
236.5105050973
 20
22.2410644222
  0
LINE
  5
295
330
1F
100
AcDbEntity
  8
0
  6
Continuous
 62
     7
370
    15
100
AcDbLine
 10
236.8881599578
 20
22.705821129
 30
0.0
 11
238.7092567933
 21
23.7571179546
 31
0.0
  0
SPLINE
  5
296
330
1F
100
AcDbEntity
  8
0
  6
Continuous
 62
     7
370
    15
100
AcDbSpline
210
0.0
220
0.0
230
1.0
 70
     8
 71
     3
 72
     8
 73
     4
 74
     0
 42
0.000000001
 43
0.00000001
 40
0.0
 40
0.0
 40
0.0
 40
0.0
 40
1.0
 40
1.0
 40
1.0
 40
1.0
 10
235.3064238833159
 20
24.25825675652722
 30
0.0
 10
235.2242257025303
 20
24.09253643002375
 30
0.0
 10
235.1421913343784
 20
23.92678955468579
 30
0.0
 10
235.0603055295666
 20
23.76101860194036
 30
0.0
  0
LINE
  5
297
330
1F
100
AcDbEntity
  8
0
  6
Continuous
 62
     7
370
    15
100
AcDbLine
 10
235.3554433843
 20
24.2865553283
 30
0.0
 11
235.3064239653
 21
24.2582570201
 31
0.0
  0
SPLINE
  5
298
330
1F
100
AcDbEntity
  8
0
  6
Continuous
 62
     7
370
    15
100
AcDbSpline
210
0.0
220
0.0
230
1.0
 70
     8
 71
     3
 72
    12
 73
     8
 74
     0
 42
0.000000001
 43
0.00000001
 40
0.0
 40
0.0
 40
0.0
 40
0.0
 40
0.249999999999997
 40
0.249999999999997
 40
0.499999999999994
 40
0.499999999999994
 40
1.0
 40
1.0
 40
1.0
 40
1.0
 10
235.3672255711004
 20
24.61992006848836
 30
0.0
 10
235.4048243556751
 20
24.59821475216407
 30
0.0
 10
235.4350019149215
 20
24.57141288159089
 30
0.0
 10
235.4735916496024
 20
24.5137891767609
 30
0.0
 10
235.4824511347922
 20
24.48274105118953
 30
0.0
 10
235.4774037009539
 20
24.39055207478423
 30
0.0
 10
235.4307014138786
 20
24.33000064780937
 30
0.0
 10
235.3554433256803
 20
24.28655507825743
 30
0.0
  0
LINE
  5
299
330
1F
100
AcDbEntity
  8
0
  6
Continuous
 62
     7
370
    15
100
AcDbLine
 10
234.5823371566
 20
25.0730267345
 30
0.0
 11
235.3672257334
 21
24.6199202038
 31
0.0
  0
SPLINE
  5
29A
330
1F
100
AcDbEntity
  8
0
  6
Continuous
 62
     7
370
    15
100
AcDbSpline
210
0.0
220
0.0
230
1.0
 70
     8
 71
     3
 72
    10
 73
     6
 74
     0
 42
0.000000001
 43
0.00000001
 40
0.0
 40
0.0
 40
0.0
 40
0.0
 40
0.5
 40
0.5
 40
1.0
 40
1.0
 40
1.0
 40
1.0
 10
234.004869373614
 20
25.06622482504812
 30
0.0
 10
234.0810067639525
 20
25.11017800492083
 30
0.0
 10
234.1845145446368
 20
25.13666467109962
 30
0.0
 10
234.3990098367227
 20
25.14049274148694
 30
0.0
 10
234.5064400811409
 20
25.11684095458355
 30
0.0
 10
234.5823370439834
 20
25.07302657054996
 30
0.0
  0
LINE
  5
29B
330
1F
100
AcDbEntity
  8
0
  6
Continuous
 62
     7
370
    15
100
AcDbLine
 10
233.9558499367
 20
25.037926811
 30
0.0
 11
234.0048693557
 21
25.0662251193
 31
0.0
  0
SPLINE
  5
29C
330
1F
100
AcDbEntity
  8
0
  6
Continuous
 62
     7
370
    15
100
AcDbSpline
210
0.0
220
0.0
230
1.0
 70
     8
 71
     3
 72
     8
 73
     4
 74
     0
 42
0.000000001
 43
0.00000001
 40
0.0
 40
0.0
 40
0.0
 40
0.0
 40
1.0
 40
1.0
 40
1.0
 40
1.0
 10
233.0945148565951
 20
24.89584540197986
 30
0.0
 10
233.3816696829925
 20
24.94311707089188
 30
0.0
 10
233.6687828015777
 20
24.99047450359462
 30
0.0
 10
233.9558499312496
 20
25.03792650331791
 30
0.0
  0
LINE
  5
29D
330
1F
100
AcDbEntity
  8
0
  6
Continuous
 62
     7
370
    15
100
AcDbLine
 10
231.6378919713
 20
25.7367363227
 30
0.0
 11
233.0945152086
 21
24.8958456267
 31
0.0
  0
LINE
  5
29E
330
1F
100
AcDbEntity
  8
0
  6
Continuous
 62
     7
370
    15
100
AcDbLine
 10
231.6378919713
 20
25.7367363227
 30
0.0
 11
234.7795364985
 21
27.550369104
 31
0.0
  0
ARC
  5
29F
330
1F
100
AcDbEntity
  8
0
  6
Continuous
 62
     7
370
    15
100
AcDbCircle
 10
244.5688264905
 20
25.603864978
 30
0.0
 40
9.846261965767267
100
AcDbArc
 50
194.3179057184
 51
238.1256858466
  0
ELLIPSE
  5
2A0
330
1F
100
AcDbEntity
  8
0
  6
Continuous
 62
     7
370
    15
100
AcDbEllipse
 10
234.4866439796
 20
28.5359937483
 30
0.0
 11
-7.507462981948265E-5
 21
1.066811201853401
 31
0.0
210
0.0
220
0.0
230
1.0
 40
0.7174342186
 41
3.534193645557456
 42
5.104989972352342
  0
ARC
  5
2A1
330
1F
100
AcDbEntity
  8
0
  6
Continuous
 62
     7
370
    15
100
AcDbCircle
 10
244.6313581448
 20
28.0053836351
 30
0.0
 40
11.08026513689337
100
AcDbArc
 50
195.5342643695
 51
215.7345697398
  0
ARC
  5
2A2
330
1F
100
AcDbEntity
  8
0
  6
Continuous
 62
     7
370
    15
100
AcDbCircle
 10
242.0533965695
 20
26.8215678864
 30
0.0
 40
9.598989501195637
100
AcDbArc
 50
194.065870688
 51
246.8527503441
  0
SPLINE
  5
2A3
330
1F
100
AcDbEntity
  8
0
  6
Continuous
 62
     7
370
    15
100
AcDbSpline
210
0.0
220
0.0
230
1.0
 70
     8
 71
     3
 72
     8
 73
     4
 74
     0
 42
0.000000001
 43
0.00000001
 40
0.0000000000000004
 40
0.0000000000000004
 40
0.0000000000000004
 40
0.0000000000000004
 40
0.0011862984959128
 40
0.0011862984959128
 40
0.0011862984959128
 40
0.0011862984959128
 10
233.0945148565956
 20
24.8958454019789
 30
0.0
 10
232.9773643876005
 20
24.75972135914413
 30
0.0
 10
232.8599246371634
 20
24.62399778398119
 30
0.0
 10
232.7422137693188
 20
24.48865600648671
 30
0.0
  0
LINE
  5
2A4
330
1F
100
AcDbEntity
  8
0
  6
Continuous
 62
     7
370
    15
100
AcDbLine
 10
231.2023561523
 20
25.4852546152
 30
0.0
 11
231.6378919713
 21
25.7367363227
 31
0.0
  0
LINE
  5
2A5
330
1F
100
AcDbEntity
  8
0
  6
Continuous
 62
     7
370
    15
100
AcDbLine
 10
232.7422139824
 20
24.4886559133
 30
0.0
 11
231.3043693064
 21
25.3187059766
 31
0.0
  0
SPLINE
  5
2A6
330
1F
100
AcDbEntity
  8
0
  6
Continuous
 62
     7
370
    15
100
AcDbSpline
210
0.0
220
0.0
230
1.0
 70
     8
 71
     3
 72
    10
 73
     6
 74
     0
 42
0.000000001
 43
0.00000001
 40
0.0
 40
0.0
 40
0.0
 40
0.0
 40
0.5
 40
0.5
 40
1.0
 40
1.0
 40
1.0
 40
1.0
 10
231.3043692312867
 20
25.31870599018195
 30
0.0
 10
231.277959802006
 20
25.33395182918888
 30
0.0
 10
231.2556763977969
 20
25.35780925160114
 30
0.0
 10
231.2215692629754
 20
25.41573534333542
 30
0.0
 10
231.2096692329205
 20
25.44963387481628
 30
0.0
 10
231.2023567409638
 20
25.48525491727063
 30
0.0
  0
ARC
  5
2A7
330
1F
100
AcDbEntity
  8
0
  6
Continuous
 62
     7
370
    15
100
AcDbCircle
 10
240.840843994
 20
27.7430266485
 30
0.0
 40
9.835109896964504
100
AcDbArc
 50
194.9325993597
 51
238.1123668138
  0
ELLIPSE
  5
2A8
330
1F
100
AcDbEntity
  8
0
  6
Continuous
 62
     7
370
    15
100
AcDbEllipse
 10
234.4259838078
 20
28.5009639927
 30
0.0
 11
0.3250094736511642
 21
1.213179526238665
 31
0.0
210
0.0
220
0.0
230
1.0
 40
0.5176380889
 41
3.619174351347739
 42
5.189970678142604
  0
SPLINE
  5
2A9
330
1F
100
AcDbEntity
  8
0
  6
Continuous
 62
     7
370
    15
100
AcDbSpline
210
0.0
220
0.0
230
1.0
 70
     8
 71
     3
 72
    12
 73
     8
 74
     0
 42
0.000000001
 43
0.00000001
 40
0.0
 40
0.0
 40
0.0
 40
0.0
 40
0.5
 40
0.5
 40
0.75
 40
0.75
 40
1.0
 40
1.0
 40
1.0
 40
1.0
 10
260.9598408968391
 20
60.50528729369144
 30
0.0
 10
261.0228340592422
 20
60.54165247229217
 30
0.0
 10
261.1040665063583
 20
60.56871626646007
 30
0.0
 10
261.2358852837581
 20
60.58225314667983
 30
0.0
 10
261.2822054175631
 20
60.58209026579782
 30
0.0
 10
261.3691546793547
 20
60.56934111644418
 30
0.0
 10
261.409773597334
 20
60.55659687389786
 30
0.0
 10
261.4413794965487
 20
60.53835117665183
 30
0.0
  0
LINE
  5
2AA
330
1F
100
AcDbEntity
  8
0
  6
Continuous
 62
     7
370
    15
100
AcDbLine
 10
261.4413798208
 20
60.5383515482
 30
0.0
 11
262.101048135
 21
60.1575331363
 31
0.0
  0
LINE
  5
2AB
330
1F
100
AcDbEntity
  8
0
  6
Continuous
 62
     7
370
    15
100
AcDbLine
 10
263.7709151633
 20
58.0827369197
 30
0.0
 11
265.1654147691
 21
58.3885119331
 31
0.0
  0
LINE
  5
2AC
330
1F
100
AcDbEntity
  8
0
  6
Continuous
 62
     7
370
    15
100
AcDbLine
 10
265.1654147691
 20
58.3885119331
 30
0.0
 11
266.6209367554
 21
57.5482569758
 31
0.0
  0
SPLINE
  5
2AD
330
1F
100
AcDbEntity
  8
0
  6
Continuous
 62
     7
370
    15
100
AcDbSpline
210
0.0
220
0.0
230
1.0
 70
     8
 71
     3
 72
    14
 73
    10
 74
     0
 42
0.000000001
 43
0.00000001
 40
0.0
 40
0.0
 40
0.0
 40
0.0
 40
0.25
 40
0.25
 40
0.5
 40
0.5
 40
0.75
 40
0.75
 40
1.0
 40
1.0
 40
1.0
 40
1.0
 10
266.6209366687401
 20
57.54825646710114
 30
0.0
 10
266.6529373554319
 20
57.52978286389566
 30
0.0
 10
266.6748956566225
 20
57.50610167828602
 30
0.0
 10
266.6966477039058
 20
57.45632230374152
 30
0.0
 10
266.697016058086
 20
57.42983597922539
 30
0.0
 10
266.6814164309905
 20
57.37899421863514
 30
0.0
 10
266.6656724531957
 20
57.35451332749992
 30
0.0
 10
266.6223945884416
 20
57.30910275353835
 30
0.0
 10
266.595326944915
 20
57.2885498546802
 30
0.0
 10
266.5636621377425
 20
57.27027015059398
 30
0.0
  0
LINE
  5
2AE
330
1F
100
AcDbEntity
  8
0
  6
Continuous
 62
     7
370
    15
100
AcDbLine
 10
266.563662481
 20
57.2702704631
 30
0.0
 11
264.1602522741
 21
55.8828112836
 31
0.0
  0
LINE
  5
2AF
330
1F
100
AcDbEntity
  8
0
  6
Continuous
 62
     7
370
    15
100
AcDbLine
 10
260.9598411283
 20
60.5052876708
 30
0.0
 11
260.8680505606
 21
60.452298104
 31
0.0
  0
LINE
  5
2B0
330
1F
100
AcDbEntity
  8
0
  6
Continuous
 62
     7
370
    15
100
AcDbLine
 10
269.4808144538
 20
52.0137091731
 30
0.0
 11
269.5850962937
 21
52.1943309979
 31
0.0
  0
LINE
  5
2B1
330
1F
100
AcDbEntity
  8
0
  6
Continuous
 62
     7
370
    15
100
AcDbLine
 10
269.4808144538
 20
52.0137091731
 30
0.0
 11
268.6750720774
 21
51.5485640001
 31
0.0
  0
ARC
  5
2B2
330
1F
100
AcDbEntity
  8
0
  6
Continuous
 62
     7
370
    15
100
AcDbCircle
 10
259.2918802434
 20
49.8810041232
 30
0.0
 40
10.6066882513844
100
AcDbArc
 50
15.7413341421
 51
46.2919137943
  0
SPLINE
  5
2B3
330
1F
100
AcDbEntity
  8
0
  6
Continuous
 62
     7
370
    15
100
AcDbSpline
210
0.0
220
0.0
230
1.0
 70
     8
 71
     3
 72
    10
 73
     6
 74
     0
 42
0.000000001
 43
0.00000001
 40
0.0
 40
0.0
 40
0.0
 40
0.0
 40
0.403890055881665
 40
0.8088426875932694
 40
1.0
 40
1.0
 40
1.0
 40
1.0
 10
269.5850962937494
 20
52.19433099788247
 30
0.0
 10
269.6033370582611
 20
52.2330948239754
 30
0.0
 10
269.6398665760755
 20
52.31072445813404
 30
0.0
 10
269.6538070900403
 20
52.41810440142034
 30
0.0
 10
269.6357585437945
 20
52.47136107645062
 30
0.0
 10
269.6299708336124
 20
52.48843913892375
 30
0.0
  0
LWPOLYLINE
  5
2B4
330
1F
100
AcDbEntity
  8
0
  6
Continuous
 62
     7
370
    15
100
AcDbPolyline
 90
        3
 70
   128
 43
0.0
 10
263.7709148341
 20
58.7637267062
 10
263.8093698821
 20
58.7162626088
 10
264.1896253348
 20
58.2099814583
  0
LWPOLYLINE
  5
2B5
330
1F
100
AcDbEntity
  8
0
  6
Continuous
 62
     7
370
    15
100
AcDbPolyline
 90
        8
 70
   128
 43
0.0
 10
275.8557653306
 20
27.7478720681
 10
275.7807860871
 20
27.6614363337
 10
275.4431397811
 20
27.4364244616
 10
275.0256673441
 20
27.3676523714
 10
274.5545946524
 20
27.4594443295
 10
274.0595272331
 20
27.7060291094
 10
273.5715668261
 20
28.0919159585
 10
273.1716590882
 20
28.5286274816
  0
LWPOLYLINE
  5
2B6
330
1F
100
AcDbEntity
  8
0
  6
Continuous
 62
     7
370
    15
100
AcDbPolyline
 90
       23
 70
   128
 43
0.0
 10
267.3401517701
 20
45.1668092824
 10
266.7944504328
 20
44.7794013454
 10
266.4057706729
 20
44.3333291651
 10
266.1922863485
 20
43.8494507523
 10
266.1639784836
 20
43.3503923554
 10
266.3221720696
 20
42.8594887876
 10
266.6594723105
 20
42.3996927917
 10
267.1601029491
 20
41.9925066681
 10
267.8006586553
 20
41.6569674123
 10
268.5511855321
 20
41.4087665266
 10
269.3765897426
 20
41.2595090698
 10
270.2382777799
 20
41.2161733411
 10
271.0959585738
 20
41.2807856446
 10
271.9095248706
 20
41.4503263404
 10
272.6409382956
 20
41.716866123
 10
273.2559981013
 20
42.0679423304
 10
273.7259457108
 20
42.4871385122
 10
274.0288018513
 20
42.9548563407
 10
274.150410985
 20
43.4492226838
 10
274.085086004
 20
43.9471217534
 10
273.8358772864
 20
44.4252750013
 10
273.4144423871
 20
44.861321609
 10
272.9814394949
 20
45.1573448906
  0
LWPOLYLINE
  5
2B7
330
1F
100
AcDbEntity
  8
0
  6
Continuous
 62
     7
370
    15
100
AcDbPolyline
 90
       29
 70
   128
 43
0.0
 10
267.6917030646
 20
45.3698264368
 10
267.1995871787
 20
45.0176866566
 10
266.8555466937
 20
44.6111584879
 10
266.6768308851
 20
44.1706285396
 10
266.6724015148
 20
43.7181863553
 10
266.8424847927
 20
43.2765172286
 10
267.1785449942
 20
42.8677723144
 10
267.6637377032
 20
42.5124434224
 10
268.2737272307
 20
42.2283522405
 10
268.9779304405
 20
42.0297412545
 10
269.741033871
 20
41.9265710994
 10
270.5247727936
 20
41.9240147436
 10
271.2898466716
 20
42.022200732
 10
271.9978918712
 20
42.2162054162
 10
272.6134053716
 20
42.4962997431
 10
273.1055212575
 20
42.8484395234
 10
273.4495604254
 20
43.2549684524
 10
273.628276234
 20
43.6954984007
 10
273.6327042873
 20
44.1479413453
 10
273.4626236435
 20
44.5896089513
 10
273.1265608079
 20
44.9983553862
 10
272.641370733
 20
45.3536827575
 10
272.0313812055
 20
45.6377739394
 10
271.3271779958
 20
45.8363849254
 10
270.5640745652
 20
45.9395550805
 10
269.7803343255
 20
45.9421121967
 10
269.0152604475
 20
45.8439262082
 10
268.307215248
 20
45.6499215241
 10
267.6917030646
 20
45.3698264368
  0
LWPOLYLINE
  5
2B8
330
1F
100
AcDbEntity
  8
0
  6
Continuous
 62
     7
370
    15
100
AcDbPolyline
 90
       23
 70
   128
 43
0.0
 10
268.5002676155
 20
44.8977475292
 10
268.0964046554
 20
44.5899416473
 10
267.8591174044
 20
44.2289200949
 10
267.8076303368
 20
43.8439302241
 10
267.9461184602
 20
43.4661595373
 10
268.2633553194
 20
43.1262164913
 10
268.7336445077
 20
42.8516390549
 10
269.3188856033
 20
42.664671905
 10
269.9716656242
 20
42.5804622836
 10
270.6391008947
 20
42.6058320025
 10
271.2671187778
 20
42.7387261258
 10
271.8048395036
 20
42.9683794111
 10
272.2087037808
 20
43.2761845326
 10
272.4459910319
 20
43.637206085
 10
272.4974754653
 20
44.0221974766
 10
272.358989976
 20
44.3999666427
 10
272.0417531168
 20
44.7399096887
 10
271.5714639285
 20
45.014487125
 10
270.9862228329
 20
45.2014542749
 10
270.333442812
 20
45.2856638963
 10
269.6660075415
 20
45.2602941775
 10
269.0379896584
 20
45.1274000542
 10
268.5002676155
 20
44.8977475292
  0
SPLINE
  5
2B9
330
1F
100
AcDbEntity
  8
0
  6
Continuous
 62
     7
370
    15
100
AcDbSpline
210
0.0
220
0.0
230
1.0
 70
     8
 71
     3
 72
    10
 73
     6
 74
     0
 42
0.000000001
 43
0.00000001
 40
0.0
 40
0.0
 40
0.0
 40
0.0
 40
0.4391313104865576
 40
0.7513786688196371
 40
1.0
 40
1.0
 40
1.0
 40
1.0
 10
267.925255687849
 20
44.2522384958671
 30
0.0
 10
268.0090211303367
 20
43.95575001859279
 30
0.0
 10
268.1523485705955
 20
43.44844135702661
 30
0.0
 10
268.3606954465919
 20
43.07428313730909
 30
0.0
 10
268.4643927283261
 20
42.99686562753244
 30
0.0
 10
268.5103595592557
 20
42.96254806854367
 30
0.0
  0
SPLINE
  5
2BA
330
1F
100
AcDbEntity
  8
0
  6
Continuous
 62
     7
370
    15
100
AcDbSpline
210
0.0
220
0.0
230
1.0
 70
     8
 71
     3
 72
     9
 73
     5
 74
     0
 42
0.000000001
 43
0.00000001
 40
0.0
 40
0.0
 40
0.0
 40
0.0
 40
0.673989776575879
 40
1.0
 40
1.0
 40
1.0
 40
1.0
 10
271.7163409111938
 20
42.94821003180394
 30
0.0
 10
271.8721528462054
 20
43.06321394980476
 30
0.0
 10
272.1033313305487
 20
43.23384549645088
 30
0.0
 10
272.3118657586854
 20
43.47045265531827
 30
0.0
 10
272.3798501141939
 20
43.54758900804438
 30
0.0
  0
SPLINE
  5
2BB
330
1F
100
AcDbEntity
  8
0
  6
Continuous
 62
     7
370
    15
100
AcDbSpline
210
0.0
220
0.0
230
1.0
 70
     8
 71
     3
 72
    10
 73
     6
 74
     0
 42
0.000000001
 43
0.00000001
 40
0.0
 40
0.0
 40
0.0
 40
0.0
 40
0.4391300451905686
 40
0.7513774155340988
 40
1.0
 40
1.0
 40
1.0
 40
1.0
 10
272.3798501141939
 20
43.54758900804438
 30
0.0
 10
272.2960856393287
 20
43.62037167007124
 30
0.0
 10
272.152759680818
 20
43.74490709890008
 30
0.0
 10
271.9444133397054
 20
44.28922833004523
 30
0.0
 10
271.8407140789807
 20
44.66895437291983
 30
0.0
 10
271.7947462427872
 20
44.83727943536781
 30
0.0
  0
SPLINE
  5
2BC
330
1F
100
AcDbEntity
  8
0
  6
Continuous
 62
     7
370
    15
100
AcDbSpline
210
0.0
220
0.0
230
1.0
 70
     8
 71
     3
 72
    10
 73
     6
 74
     0
 42
0.000000001
 43
0.00000001
 40
0.0
 40
0.0
 40
0.0
 40
0.0
 40
0.4391311907773481
 40
0.7513785223089042
 40
0.9999999999999999
 40
0.9999999999999999
 40
0.9999999999999999
 40
0.9999999999999999
 10
271.7947462427872
 20
44.83727943536781
 30
0.0
 10
271.4758802268114
 20
44.77586664552459
 30
0.0
 10
270.9302822803883
 20
44.67078585815991
 30
0.0
 10
270.1371754694419
 20
44.88132401785645
 30
0.0
 10
269.7424319421382
 20
45.09492052838748
 30
0.0
 10
269.5674503467038
 20
45.18960341893987
 30
0.0
  0
SPLINE
  5
2BD
330
1F
100
AcDbEntity
  8
0
  6
Continuous
 62
     7
370
    15
100
AcDbSpline
210
0.0
220
0.0
230
1.0
 70
     8
 71
     3
 72
    11
 73
     7
 74
     0
 42
0.000000001
 43
0.00000001
 40
0.0
 40
0.0
 40
0.0
 40
0.0
 40
0.1323878169757752
 40
0.4819435147284605
 40
0.8154866206570746
 40
1.0
 40
1.0
 40
1.0
 40
1.0
 10
269.5674503467038
 20
45.18960341893987
 30
0.0
 10
269.4993194257807
 20
45.11368852083748
 30
0.0
 10
269.251296184357
 20
44.8373285532249
 30
0.0
 10
268.787512455518
 20
44.44477454647625
 30
0.0
 10
268.2883997286829
 20
44.26590952946934
 30
0.0
 10
268.0206268922477
 20
44.25582886991545
 30
0.0
 10
267.925255687849
 20
44.2522384958671
 30
0.0
  0
LINE
  5
2BE
330
1F
100
AcDbEntity
  8
0
  6
Continuous
 62
     7
370
    15
100
AcDbLine
 10
271.7947462428
 20
42.9626532367
 30
0.0
 11
271.7947462428
 21
44.8372794354
 31
0.0
  0
LINE
  5
2BF
330
1F
100
AcDbEntity
  8
0
  6
Continuous
 62
     7
370
    15
100
AcDbLine
 10
269.5674503467
 20
42.6191597585
 30
0.0
 11
269.5674503467
 21
45.1896034189
 31
0.0
  0
ARC
  5
2C0
330
1F
100
AcDbEntity
  8
0
  6
Continuous
 62
     7
370
    15
100
AcDbCircle
 10
246.340109332
 20
51.7676830815
 30
0.0
 40
1.557574315952414
100
AcDbArc
 50
79.5861017376
 51
142.8221932109
  0
ARC
  5
2C1
330
1F
100
AcDbEntity
  8
0
  6
Continuous
 62
     7
370
    15
100
AcDbCircle
 10
246.3080174324
 20
51.851348474
 30
0.0
 40
1.463439891085682
100
AcDbArc
 50
78.2685922876
 51
144.4072601206
  0
ARC
  5
2C2
330
1F
100
AcDbEntity
  8
0
  6
Continuous
 62
     7
370
    15
100
AcDbCircle
 10
246.2796412232
 20
51.9249776647
 30
0.0
 40
1.24954724518554
100
AcDbArc
 50
80.705870252
 51
142.2259793291
  0
LWPOLYLINE
  5
2C3
330
1F
100
AcDbEntity
  8
0
  6
Continuous
 62
     7
370
     0
100
AcDbPolyline
 90
       23
 70
   128
 43
0.0
 10
264.2771939736
 20
54.0874050285
 10
264.1860066327
 20
54.1390961639
 10
263.1661319241
 20
54.5998924488
 10
262.0633207787
 20
54.8942817598
 10
260.8878629544
 20
55.0195182406
 10
259.6507281564
 20
54.9744303192
 10
258.3634596821
 20
54.7594414411
 10
257.0380687248
 20
54.3765562
 10
255.6869234089
 20
53.8293495122
 10
254.3226312809
 20
53.1229246353
 10
252.9579227057
 20
52.2638747527
 10
251.6055320821
 20
51.2602143998
 10
250.2780787281
 20
50.1213122221
 10
248.9879495364
 20
48.8577928153
 10
247.747182207
 20
47.4814449812
 10
246.5673555984
 20
46.005115844
 10
245.4594782701
 20
44.4425780648
 10
244.4338880537
 20
42.80841331
 10
243.500154918
 20
41.1178694834
 10
242.6669914068
 20
39.3867208098
 10
241.9421736137
 20
37.631123354
 10
241.3324614981
 20
35.8674557118
 10
240.8435475187
 20
34.1121775683
  0
ARC
  5
2C4
330
1F
100
AcDbEntity
  8
0
  6
Continuous
 62
     7
370
     0
100
AcDbCircle
 10
248.4098204661
 20
26.174382426
 30
0.0
 40
7.897962130895797
100
AcDbArc
 50
196.6639332091
 51
237.8524873773
  0
LWPOLYLINE
  5
2C5
330
1F
100
AcDbEntity
  8
0
  6
Continuous
 62
     7
370
     0
100
AcDbPolyline
 90
       47
 70
   128
 43
0.0
 10
276.5341929436
 20
31.6753430616
 10
275.6194914972
 20
31.075047098
 10
274.7218292314
 20
30.3414320256
 10
273.8579278261
 20
29.4881647879
 10
273.0438803802
 20
28.5311403535
 10
272.2948505398
 20
27.4881844508
 10
271.6247917103
 20
26.3787272133
 10
271.0461859446
 20
25.2234353304
 10
270.5698113111
 20
24.0438290805
 10
270.2045416972
 20
22.8618829174
 10
269.9571811847
 20
21.6996138846
 10
269.8323389267
 20
20.5786734016
 10
269.8323389267
 20
19.5199418503
 10
269.9571811847
 20
18.5431411703
 10
270.2045416972
 20
17.6664685061
 10
270.5698113111
 20
16.9062536624
 10
271.0461859446
 20
16.276657857
 10
271.6247917103
 20
15.7894099715
 10
272.2948505398
 20
15.4535861913
 10
273.0438803802
 20
15.2754417343
 10
273.8579278261
 20
15.258296475
 10
274.7218292314
 20
15.4024685688
 10
275.6194914972
 20
15.7052722877
 10
276.5341929436
 20
16.1610681346
 10
277.44889439
 20
16.7613640982
 10
278.3465566558
 20
17.4949791705
 10
279.2104580611
 20
18.3482464082
 10
280.024505507
 20
19.3052708427
 10
280.7735353474
 20
20.3482267454
 10
281.4435941769
 20
21.4576839828
 10
282.0221999427
 20
22.6129758658
 10
282.4985745761
 20
23.7925821156
 10
282.86384419
 20
24.9745282788
 10
283.1112047025
 20
26.1367973115
 10
283.2360469605
 20
27.2577377945
 10
283.2360469605
 20
28.3164693459
 10
283.1112047025
 20
29.2932700259
 10
282.86384419
 20
30.1699426901
 10
282.4985745761
 20
30.9301575338
 10
282.0221999427
 20
31.5597533391
 10
281.4435941769
 20
32.0470012246
 10
280.7735353474
 20
32.3828250049
 10
280.024505507
 20
32.5609694618
 10
279.2104580611
 20
32.5781147212
 10
278.3465566558
 20
32.4339426273
 10
277.44889439
 20
32.1311389084
 10
276.5341929436
 20
31.6753430616
  0
LWPOLYLINE
  5
2C6
330
1F
100
AcDbEntity
  8
0
  6
Continuous
 62
     7
370
     0
100
AcDbPolyline
 90
       25
 70
   128
 43
0.0
 10
271.681004411
 20
16.327868128
 10
271.7598601767
 20
16.2839141486
 10
272.4399963835
 20
16.0175225365
 10
273.192939954
 20
15.9088813589
 10
274.004035968
 20
15.9601058878
 10
274.8574969733
 20
16.1701975007
 10
275.7367113495
 20
16.5350684622
 10
276.6245663235
 20
17.0476162288
 10
277.5037806997
 20
17.6978645786
 10
278.3572417051
 20
18.473158068
 10
279.168337719
 20
19.3584050635
 10
279.9212812895
 20
20.3363763833
 10
280.6014174963
 20
21.3880365449
 10
281.1955086069
 20
22.4929160798
 10
281.6919909091
 20
23.6295103728
 10
282.0812009208
 20
24.7756958035
 10
282.3555630751
 20
25.9091639532
 10
282.5097375641
 20
27.0078531537
 10
282.5407234003
 20
28.0503784721
 10
282.4479166984
 20
29.0164479159
 10
282.2331251631
 20
29.8872589179
 10
281.900529235
 20
30.6458619365
 10
281.456601748
 20
31.2774912169
 10
280.9099834646
 20
31.7698524952
 10
280.680273262
 20
31.9167479513
  0
LINE
  5
2C7
330
1F
100
AcDbEntity
  8
0
  6
Continuous
 62
     7
370
     0
100
AcDbLine
 10
236.8426518981
 20
33.264196364
 30
0.0
 11
236.9228283749
 21
33.628163491
 31
0.0
  0
LWPOLYLINE
  5
2C8
330
1F
100
AcDbEntity
  8
0
  6
Continuous
 62
     7
370
     0
100
AcDbPolyline
 90
        9
 70
   128
 43
0.0
 10
253.4158378633
 20
57.1399969483
 10
254.4263883843
 20
57.675044888
 10
255.8699813307
 20
58.3178352729
 10
257.2942300261
 20
58.8079271899
 10
258.6887477419
 20
59.1417458219
 10
260.0433652337
 20
59.3168563605
 10
261.3482040047
 20
59.3319834857
 10
262.5937487453
 20
59.1870166827
 10
263.7709154926
 20
58.8830130868
  0
LWPOLYLINE
  5
2C9
330
1F
100
AcDbEntity
  8
0
  6
Continuous
 62
     7
370
     0
100
AcDbPolyline
 90
       19
 70
   128
 43
0.0
 10
236.483926241
 20
33.5987071937
 10
236.9787276083
 20
35.545121429
 10
237.5984509176
 20
37.5067830106
 10
238.3382677204
 20
39.4684006236
 10
239.1924104839
 20
41.4146849422
 10
240.1542200062
 20
43.3304638357
 10
241.2162007336
 20
45.2008055581
 10
242.3700747616
 20
47.0111290102
 10
243.6068476894
 20
48.747326168
 10
244.9168784253
 20
50.3958616966
 10
246.2899562368
 20
51.943885872
 10
247.7153778
 20
53.379332293
 10
249.1820324811
 20
54.6910112206
 10
250.6784884415
 20
55.8687003493
 10
252.1930804708
 20
56.9032183271
 10
253.714003006
 20
57.7865012674
 10
255.2294005998
 20
58.5116641011
 10
256.7274612686
 20
59.0730559864
 10
257.5224996625
 20
59.3058358832
  0
LWPOLYLINE
  5
2CA
330
1F
100
AcDbEntity
  8
0
  6
Continuous
 62
     7
370
     0
100
AcDbPolyline
 90
       23
 70
   128
 43
0.0
 10
238.7092567933
 20
34.249667054
 10
239.1908187819
 20
36.052433753
 10
239.7922648468
 20
37.8665360698
 10
240.5084530727
 20
39.6764694089
 10
241.3332629468
 20
41.466764248
 10
242.2596454087
 20
43.2221192142
 10
243.2796814607
 20
44.9275322585
 10
244.3846532907
 20
46.5684253648
 10
245.5651173703
 20
48.1307749625
 10
246.8109841392
 20
49.6012294108
 10
248.1116055912
 20
50.9672188769
 10
249.4558651657
 20
52.2170695875
 10
250.8322734014
 20
53.3400985925
 10
252.2290667177
 20
54.3267072922
 10
253.6343067317
 20
55.1684631071
 10
255.0359829497
 20
55.8581739694
 10
256.4221155829
 20
56.3899415936
 10
257.780857539
 20
56.7592233968
 10
259.1005955503
 20
56.9628619812
 10
260.3700500663
 20
56.999118466
 10
261.5783712372
 20
56.8676807488
 10
262.7152317678
 20
56.5696730022
 10
263.7709154926
 20
56.1076436888
  0
ARC
  5
2CB
330
1F
100
AcDbEntity
  8
0
  6
Continuous
 62
     7
370
     0
100
AcDbCircle
 10
259.6472922573
 20
48.936577613
 30
0.0
 40
8.283536099919823
100
AcDbArc
 50
24.8841574151
 51
56.9882639646
  0
LWPOLYLINE
  5
2CC
330
1F
100
AcDbEntity
  8
0
  6
Continuous
 62
     7
370
     0
100
AcDbPolyline
 90
       19
 70
   128
 43
0.0
 10
231.3043693064
 20
36.588801766
 10
231.7991706737
 20
38.5352160013
 10
232.418893983
 20
40.496877583
 10
233.1587107858
 20
42.458495196
 10
234.0128535494
 20
44.4047795146
 10
234.9746630716
 20
46.3205584081
 10
236.036643799
 20
48.1909001305
 10
237.190517827
 20
50.0012235826
 10
238.4272907548
 20
51.7374207404
 10
239.7373214907
 20
53.385956269
 10
241.1103993022
 20
54.9339804443
 10
242.5358208654
 20
56.3694268654
 10
244.0024755465
 20
57.681105793
 10
245.498931507
 20
58.8587949217
 10
247.0135235362
 20
59.8933128995
 10
248.5344460714
 20
60.7765958398
 10
250.0498436652
 20
61.5017586735
 10
251.547904334
 20
62.0631505588
 10
252.3430490829
 20
62.2959583926
  0
LWPOLYLINE
  5
2CD
330
1F
100
AcDbEntity
  8
0
  6
Continuous
 62
     7
370
     0
100
AcDbPolyline
 90
       19
 70
   128
 43
0.0
 10
234.5823371566
 20
35.5655758339
 10
235.0585201536
 20
37.4366219588
 10
235.6582237098
 20
39.3224627059
 10
236.3764955705
 20
41.2075219785
 10
237.2074035667
 20
43.0762313764
 10
238.1440843477
 20
44.9131571888
 10
239.178801991
 20
46.7031270057
 10
240.3030105645
 20
48.4313570898
 10
241.5074252494
 20
50.0835763249
 10
242.7820987306
 20
51.6461349553
 10
244.1165021988
 20
53.1061289137
 10
245.4996158993
 20
54.4515007641
 10
246.9200157314
 20
55.671138364
 10
248.3659707123
 20
56.7549691523
 10
249.8255383021
 20
57.6940410348
 10
251.2866635966
 20
58.4805963774
 10
252.7372790147
 20
59.1081417217
 10
254.1654037384
 20
59.5714930233
 10
254.598213677
 20
59.6803392904
  0
LINE
  5
2CE
330
1F
100
AcDbEntity
  8
0
  6
Continuous
 62
     7
370
     0
100
AcDbLine
 10
245.8028634622
 20
53.5482225818
 30
0.0
 11
246.1613543482
 21
53.8851046129
 31
0.0
  0
LWPOLYLINE
  5
2CF
330
1F
100
AcDbEntity
  8
0
  6
Continuous
 62
     7
370
     0
100
AcDbPolyline
 90
       21
 70
   128
 43
0.0
 10
234.0048693557
 20
35.5587742186
 10
234.4796075061
 20
37.451997098
 10
235.0790779375
 20
39.3610798943
 10
235.7983758106
 20
41.2704077228
 10
236.6316190056
 20
43.1643673115
 10
237.5719942212
 20
45.0274694308
 10
238.6118096576
 20
46.8444758868
 10
239.7425615294
 20
48.6005291732
 10
240.9550038717
 20
50.2812672948
 10
242.239219663
 20
51.8729439144
 10
243.5847070937
 20
53.3625427938
 10
244.9804625439
 20
54.7378819698
 10
246.4150711322
 20
55.987713176
 10
247.8768003944
 20
57.1018169871
 10
249.35369606
 20
58.0710778818
 10
250.8336799702
 20
58.8875727088
 10
252.3046485294
 20
59.5446244799
 10
253.7545720642
 20
60.036856687
 10
255.1715925751
 20
60.3602451699
 10
256.5441214897
 20
60.512145651
 10
257.8443326685
 20
60.4926862175
  0
LINE
  5
2D0
330
1F
100
AcDbEntity
  8
0
  6
Continuous
 62
     7
370
     0
100
AcDbLine
 10
238.7092567933
 20
23.7571179546
 30
0.0
 11
240.029804485
 21
24.5194539103
 31
0.0
  0
ARC
  5
2D1
330
1F
100
AcDbEntity
  8
0
  6
Continuous
 62
     7
370
     0
100
AcDbCircle
 10
241.9521055422
 20
27.2751491396
 30
0.0
 40
3.359925230051238
100
AcDbArc
 50
235.1013784696
 51
288.4681718927
  0
ARC
  5
2D2
330
1F
100
AcDbEntity
  8
0
  6
Continuous
 62
     7
370
     0
100
AcDbCircle
 10
242.2970624183
 20
27.7916972722
 30
0.0
 40
2.574164344813196
100
AcDbArc
 50
232.6933597756
 51
300.1460163604
  0
ARC
  5
2D3
330
1F
100
AcDbEntity
  8
0
  6
Continuous
 62
     7
370
     0
100
AcDbCircle
 10
239.2017013874
 20
25.8140561933
 30
0.0
 40
1.536798559128362
100
AcDbArc
 50
302.6053519586
 51
357.394632491
  0
LINE
  5
2D4
330
1F
100
AcDbEntity
  8
0
  6
Continuous
 62
     7
370
     0
100
AcDbLine
 10
235.1937502104
 20
28.9441974292
 30
0.0
 11
240.7369113821
 21
25.7441985986
 31
0.0
  0
LINE
  5
2D5
330
1F
100
AcDbEntity
  8
0
  6
Continuous
 62
     7
370
     0
100
AcDbLine
 10
235.1330900294
 20
28.9091676682
 30
0.0
 11
235.1937502104
 21
28.9441974292
 31
0.0
  0
LWPOLYLINE
  5
2D6
330
1F
100
AcDbEntity
  8
0
  6
Continuous
 62
     7
370
     0
100
AcDbPolyline
 90
        3
 70
   128
 43
0.0
 10
235.0539932364
 20
33.4862708677
 10
235.0535414748
 20
33.607949785
 10
235.0658062077
 20
34.250393198
  0
LWPOLYLINE
  5
2D7
330
1F
100
AcDbEntity
  8
0
  6
Continuous
 62
     7
370
     0
100
AcDbPolyline
 90
       18
 70
   128
 43
0.0
 10
203.9685875044
 20
57.4992562844
 10
204.0328081063
 20
58.6441489093
 10
204.224324703
 20
59.8427589546
 10
204.53971879
 20
61.0736965357
 10
204.973362446
 20
62.3149959251
 10
205.5175171144
 20
63.544505755
 10
206.1624728857
 20
64.7402854907
 10
206.8967203776
 20
65.8809968631
 10
207.70715653
 20
66.9462842705
 10
208.5793193762
 20
67.9171361668
 10
209.4976452046
 20
68.7762285766
 10
210.4457462174
 20
69.5082310124
 10
211.4067037272
 20
70.1000806777
 10
212.3633693789
 20
70.5412156746
 10
213.2986714145
 20
70.8237647349
 10
214.1959193735
 20
70.942685096
 10
215.0391016516
 20
70.8958544301
 10
215.7032144826
 20
70.7258406354
  0
ARC
  5
2D8
330
1F
100
AcDbEntity
  8
0
  6
Continuous
 62
     7
370
     0
100
AcDbCircle
 10
209.3667776065
 20
57.0532408883
 30
0.0
 40
5.416584358434998
100
AcDbArc
 50
175.2767713466
 51
224.7160200036
  0
LINE
  5
2D9
330
1F
100
AcDbEntity
  8
0
  6
Continuous
 62
     7
370
     0
100
AcDbLine
 10
236.5105050973
 20
22.2410644222
 30
0.0
 11
236.483926241
 21
22.3286114043
 31
0.0
  0
LWPOLYLINE
  5
2DA
330
1F
100
AcDbEntity
  8
0
  6
Continuous
 62
     7
370
     0
100
AcDbPolyline
 90
       14
 70
   128
 43
0.0
 10
249.9083198163
 20
16.1956096867
 10
248.8476779099
 20
15.8671554004
 10
247.4461621709
 20
15.5638416829
 10
246.0876276563
 20
15.4229949279
 10
244.7821915854
 20
15.4456647655
 10
243.5395767093
 20
15.6316814607
 10
242.369037554
 20
15.9796589619
 10
241.2792912731
 20
16.4870082157
 10
240.2784537691
 20
17.1499474391
 10
239.3739797659
 20
17.9635428099
 10
238.5726035396
 20
18.9217320463
 10
237.8802954546
 20
20.0173806858
 10
237.3022092805
 20
21.242328478
 10
236.8426518981
 20
22.5874525059
  0
ARC
  5
2DB
330
1F
100
AcDbEntity
  8
0
  6
Continuous
 62
     7
370
     0
100
AcDbCircle
 10
246.4492261542
 20
25.7375436816
 30
0.0
 40
7.989318604705217
100
AcDbArc
 50
194.3523443715
 51
275.1286744048
  0
LINE
  5
2DC
330
1F
100
AcDbEntity
  8
0
  6
Continuous
 62
     7
370
     0
100
AcDbLine
 10
240.029804485
 20
24.5194539103
 30
0.0
 11
234.7795364985
 21
27.550369104
 31
0.0
  0
LINE
  5
2DD
330
1F
100
AcDbEntity
  8
0
  6
Continuous
 62
     7
370
     0
100
AcDbLine
 10
235.4446718846
 20
24.3698932707
 30
0.0
 11
235.3672257334
 21
24.6199202038
 31
0.0
  0
LWPOLYLINE
  5
2DE
330
1F
100
AcDbEntity
  8
0
  6
Continuous
 62
     7
370
     0
100
AcDbPolyline
 90
        3
 70
   128
 43
0.0
 10
235.0536903882
 20
23.7630730085
 10
235.0447763297
 20
23.7840283999
 10
234.5823371566
 20
25.0730267345
  0
ARC
  5
2DF
330
1F
100
AcDbEntity
  8
0
  6
Continuous
 62
     7
370
     0
100
AcDbCircle
 10
244.7435113055
 20
28.0740429558
 30
0.0
 40
11.15192355892363
100
AcDbArc
 50
195.6471844777
 51
214.1548056384
  0
LINE
  5
2E0
330
1F
100
AcDbEntity
  8
0
  6
Continuous
 62
     7
370
     0
100
AcDbLine
 10
231.3378694655
 20
25.2086900888
 30
0.0
 11
231.3043693064
 21
25.3187059766
 31
0.0
  0
ARC
  5
2E1
330
1F
100
AcDbEntity
  8
0
  6
Continuous
 62
     7
370
     0
100
AcDbCircle
 10
259.404956891
 20
49.5718597034
 30
0.0
 40
10.51249703684862
100
AcDbArc
 50
14.4456939373
 51
47.0804331381
  0
ARC
  5
2E2
330
1F
100
AcDbEntity
  8
0
  6
Continuous
 62
     7
370
     0
100
AcDbCircle
 10
273.1906674844
 20
29.0127839919
 30
0.0
 40
2.950042153032759
100
AcDbArc
 50
334.6099929607
 51
38.1069156949
  0
LWPOLYLINE
  5
2E3
330
1F
100
AcDbEntity
  8
0
  6
Continuous
 62
     7
370
     0
100
AcDbPolyline
 90
       13
 70
   128
 43
0.0
 10
275.2798289749
 20
30.6553799882
 10
275.4383511747
 20
30.3684472137
 10
275.6966850143
 20
29.7349443632
 10
275.832271426
 20
29.1097797348
 10
275.835053118
 20
28.5393198987
 10
275.7048272586
 20
28.0658711925
 10
275.4512507445
 20
27.7245479458
 10
275.0931289727
 20
27.5406652138
 10
274.6570249945
 20
27.5278591627
 10
274.1752786135
 20
27.6870818848
 10
273.6836224547
 20
28.0065223716
 10
273.2185188105
 20
28.462490112
 10
273.1678556644
 20
28.522812309
  0
OLE2FRAME
  5
2E4
330
1F
100
AcDbEntity
  8
0
100
AcDbOle2Frame
 70
     2
  3
Paintbrush-Bild
 10
13.8511154363
 20
38.264191557
 30
0.0
 11
51.6290888628
 21
31.9806341108
 31
0.0
 71
     2
 72
     0
 73
     1
 90
    12928
310
80552BED0767C5B32B40DDAF6807D121434000000000000000006FFBDDFB85D0
310
4940DDAF6807D121434000000000000000006FFBDDFB85D04940416F4BD60AFB
310
3F4000000000000000002BED0767C5B32B40416F4BD60AFB3F40000000000000
310
0000000000000100000000010000010000000100000000000100000000320000
310
D0CF11E0A1B11AE1000000000000000000000000000000003E000300FEFF0900
310
0600000000000000000000000100000001000000000000000010000002000000
310
01000000FEFFFFFF0000000000000000FFFFFFFFFFFFFFFFFFFFFFFFFFFFFFFF
310
FFFFFFFFFFFFFFFFFFFFFFFFFFFFFFFFFFFFFFFFFFFFFFFFFFFFFFFFFFFFFFFF
310
FFFFFFFFFFFFFFFFFFFFFFFFFFFFFFFFFFFFFFFFFFFFFFFFFFFFFFFFFFFFFFFF
310
FFFFFFFFFFFFFFFFFFFFFFFFFFFFFFFFFFFFFFFFFFFFFFFFFFFFFFFFFFFFFFFF
310
FFFFFFFFFFFFFFFFFFFFFFFFFFFFFFFFFFFFFFFFFFFFFFFFFFFFFFFFFFFFFFFF
310
FFFFFFFFFFFFFFFFFFFFFFFFFFFFFFFFFFFFFFFFFFFFFFFFFFFFFFFFFFFFFFFF
310
FFFFFFFFFFFFFFFFFFFFFFFFFFFFFFFFFFFFFFFFFFFFFFFFFFFFFFFFFFFFFFFF
310
FFFFFFFFFFFFFFFFFFFFFFFFFFFFFFFFFFFFFFFFFFFFFFFFFFFFFFFFFFFFFFFF
310
FFFFFFFFFFFFFFFFFFFFFFFFFFFFFFFFFFFFFFFFFFFFFFFFFFFFFFFFFFFFFFFF
310
FFFFFFFFFFFFFFFFFFFFFFFFFFFFFFFFFFFFFFFFFFFFFFFFFFFFFFFFFFFFFFFF
310
FFFFFFFFFFFFFFFFFFFFFFFFFFFFFFFFFFFFFFFFFFFFFFFFFFFFFFFFFFFFFFFF
310
FFFFFFFFFFFFFFFFFFFFFFFFFFFFFFFFFFFFFFFFFFFFFFFFFFFFFFFFFFFFFFFF
310
FFFFFFFFFFFFFFFFFFFFFFFFFFFFFFFFFFFFFFFFFFFFFFFFFFFFFFFFFFFFFFFF
310
FFFFFFFFFFFFFFFFFFFFFFFFFFFFFFFFFFFFFFFFFFFFFFFFFFFFFFFFFFFFFFFF
310
FDFFFFFFFEFFFFFFFEFFFFFFFEFFFFFF05000000060000000700000008000000
310
090000000A0000000B0000000C0000000D0000000E0000000F00000010000000
310
11000000120000001300000014000000150000001600000017000000FEFFFFFF
310
FFFFFFFFFFFFFFFFFFFFFFFFFFFFFFFFFFFFFFFFFFFFFFFFFFFFFFFFFFFFFFFF
310
FFFFFFFFFFFFFFFFFFFFFFFFFFFFFFFFFFFFFFFFFFFFFFFFFFFFFFFFFFFFFFFF
310
FFFFFFFFFFFFFFFFFFFFFFFFFFFFFFFFFFFFFFFFFFFFFFFFFFFFFFFFFFFFFFFF
310
FFFFFFFFFFFFFFFFFFFFFFFFFFFFFFFFFFFFFFFFFFFFFFFFFFFFFFFFFFFFFFFF
310
FFFFFFFFFFFFFFFFFFFFFFFFFFFFFFFFFFFFFFFFFFFFFFFFFFFFFFFFFFFFFFFF
310
FFFFFFFFFFFFFFFFFFFFFFFFFFFFFFFFFFFFFFFFFFFFFFFFFFFFFFFFFFFFFFFF
310
FFFFFFFFFFFFFFFFFFFFFFFFFFFFFFFFFFFFFFFFFFFFFFFFFFFFFFFFFFFFFFFF
310
FFFFFFFFFFFFFFFFFFFFFFFFFFFFFFFFFFFFFFFFFFFFFFFFFFFFFFFFFFFFFFFF
310
FFFFFFFFFFFFFFFFFFFFFFFFFFFFFFFFFFFFFFFFFFFFFFFFFFFFFFFFFFFFFFFF
310
FFFFFFFFFFFFFFFFFFFFFFFFFFFFFFFFFFFFFFFFFFFFFFFFFFFFFFFFFFFFFFFF
310
FFFFFFFFFFFFFFFFFFFFFFFFFFFFFFFFFFFFFFFFFFFFFFFFFFFFFFFFFFFFFFFF
310
FFFFFFFFFFFFFFFFFFFFFFFFFFFFFFFFFFFFFFFFFFFFFFFFFFFFFFFFFFFFFFFF
310
FFFFFFFFFFFFFFFFFFFFFFFFFFFFFFFFFFFFFFFFFFFFFFFFFFFFFFFFFFFFFFFF
310
52006F006F007400200045006E00740072007900000000000000000000000000
310
0000000000000000000000000000000000000000000000000000000000000000
310
16000500FFFFFFFFFFFFFFFF020000000A00030000000000C000000000000046
310
000000000000000000000000501727DF8F24D20103000000C000000000000000
310
01004F006C006500000000000000000000000000000000000000000000000000
310
0000000000000000000000000000000000000000000000000000000000000000
310
0A000200FFFFFFFFFFFFFFFFFFFFFFFF00000000000000000000000000000000
310
0000000000000000000000000000000000000000000000001400000000000000
310
010043006F006D0070004F0062006A0000000000000000000000000000000000
310
0000000000000000000000000000000000000000000000000000000000000000
310
120002010100000003000000FFFFFFFF00000000000000000000000000000000
310
0000000000000000000000000000000000000000010000004D00000000000000
310
01004F006C006500310030004E00610074006900760065000000000000000000
310
0000000000000000000000000000000000000000000000000000000000000000
310
1A000200FFFFFFFFFFFFFFFFFFFFFFFF00000000000000000000000000000000
310
0000000000000000000000000000000000000000040000002426000000000000
310
FEFFFFFF02000000FEFFFFFFFFFFFFFFFFFFFFFFFFFFFFFFFFFFFFFFFFFFFFFF
310
FFFFFFFFFFFFFFFFFFFFFFFFFFFFFFFFFFFFFFFFFFFFFFFFFFFFFFFFFFFFFFFF
310
FFFFFFFFFFFFFFFFFFFFFFFFFFFFFFFFFFFFFFFFFFFFFFFFFFFFFFFFFFFFFFFF
310
FFFFFFFFFFFFFFFFFFFFFFFFFFFFFFFFFFFFFFFFFFFFFFFFFFFFFFFFFFFFFFFF
310
FFFFFFFFFFFFFFFFFFFFFFFFFFFFFFFFFFFFFFFFFFFFFFFFFFFFFFFFFFFFFFFF
310
FFFFFFFFFFFFFFFFFFFFFFFFFFFFFFFFFFFFFFFFFFFFFFFFFFFFFFFFFFFFFFFF
310
FFFFFFFFFFFFFFFFFFFFFFFFFFFFFFFFFFFFFFFFFFFFFFFFFFFFFFFFFFFFFFFF
310
FFFFFFFFFFFFFFFFFFFFFFFFFFFFFFFFFFFFFFFFFFFFFFFFFFFFFFFFFFFFFFFF
310
FFFFFFFFFFFFFFFFFFFFFFFFFFFFFFFFFFFFFFFFFFFFFFFFFFFFFFFFFFFFFFFF
310
FFFFFFFFFFFFFFFFFFFFFFFFFFFFFFFFFFFFFFFFFFFFFFFFFFFFFFFFFFFFFFFF
310
FFFFFFFFFFFFFFFFFFFFFFFFFFFFFFFFFFFFFFFFFFFFFFFFFFFFFFFFFFFFFFFF
310
FFFFFFFFFFFFFFFFFFFFFFFFFFFFFFFFFFFFFFFFFFFFFFFFFFFFFFFFFFFFFFFF
310
FFFFFFFFFFFFFFFFFFFFFFFFFFFFFFFFFFFFFFFFFFFFFFFFFFFFFFFFFFFFFFFF
310
FFFFFFFFFFFFFFFFFFFFFFFFFFFFFFFFFFFFFFFFFFFFFFFFFFFFFFFFFFFFFFFF
310
FFFFFFFFFFFFFFFFFFFFFFFFFFFFFFFFFFFFFFFFFFFFFFFFFFFFFFFFFFFFFFFF
310
FFFFFFFFFFFFFFFFFFFFFFFFFFFFFFFFFFFFFFFFFFFFFFFFFFFFFFFFFFFFFFFF
310
0100000200000000000000000000000000000000000000000000000000000000
310
0000000000000000000000000000000000000000000000000000000000000000
310
0100FEFF030A0000FFFFFFFF0A00030000000000C00000000000004607000000
310
5042727573680007000000504272757368000700000050427275736800F439B2
310
7100000000000000000000000000000000000000000000000000000000000000
310
0000000000000000000000000000000000000000000000000000000000000000
310
0000000000000000000000000000000000000000000000000000000000000000
310
0000000000000000000000000000000000000000000000000000000000000000
310
0000000000000000000000000000000000000000000000000000000000000000
310
0000000000000000000000000000000000000000000000000000000000000000
310
0000000000000000000000000000000000000000000000000000000000000000
310
0000000000000000000000000000000000000000000000000000000000000000
310
0000000000000000000000000000000000000000000000000000000000000000
310
0000000000000000000000000000000000000000000000000000000000000000
310
0000000000000000000000000000000000000000000000000000000000000000
310
0000000000000000000000000000000000000000000000000000000000000000
310
20260000424D0E260000000000003E00000028000000B40200006E0000000100
310
01000000000000000000130B0000130B00000200000002000000000000FFFFFF
310
FFFFFFFFFFFFFFFFFFFFFFFFFFFFFFFFFFFFFFFFFFFFFFFFFFFFFFFFFFFFFFFF
310
FFFFFFFFFFFFFFFFFFFFFFFFFFFFFFFFFFFFFFFFFFFFFFFFFFFFFFFFFFFFFFFF
310
FFFFFFFFFFFFFFFFFFFFFFFFFFFFFFFFFFFFFFFFFFFFFFFFF000FFFFFFFFFFFF
310
FFFFFFFFFFFFFFFFFFFFFFFFFFFFFFFFFFFFFFFFFFFFFFFFFFFFFFFFFFFFFFFF
310
FFFFFFFFFFFFFFFFFFFFFFFFFFFFFFFFFFFFFFFFFFFFFFFFFFFFFFFFFFFFFFFF
310
FFFFFFFFFFFFFFFFFFFFFFFFFFFFFFFFF000FFFFFFFFFFFFFFFFFFFFFFFFFFFF
310
FFFFFFFFFFFFFFFFFFFFFFFFFFFFFFFFFFFFFFFFFFFFFFFFFFFFFFFFFFFFFFFF
310
FFFFFFFFFFFFFFFFFFFFFFFFFFFFFFFFFFFFFFFFFFFFFFFFFFFFFFFFFFFFFFFF
310
FFFFFFFFFFFFFFFFF000FFFFFFFFFFFFFFFFFFFFFFFFFFFFFFFFFFFFFFFFFFFF
310
FFFFFFFFFFFFFFFFFFFFFFFFFFFFFFFFFFFFFFFFFFFFFFFFFFFFFFFFFFFFFFFF
310
FFFFFFFFFFFFFFFFFFFFFFFFFFFFFFFFFFFFFFFFFFFFFFFFFFFFFFFFFFFFFFFF
310
F000FFFFFFFFFFFFFFFFFFFFFFFFFFFFFFFFFFFFFFFFFFFFFFFFFFFFFFFFFFFF
310
FFFFFFFFFFFFFFFFFFFFFFFFFFFFFFFFFFFFFFFFFFFFFFFFFFFFFFFFFFFFFFFF
310
FFFFFFFFFFFFFFFFFFFFFFFFFFFFFFFFFFFFFFFFFFFFFFFFF000FFFFFFFFFFFF
310
FFFFFFFFFFFFFFFFFFFFFFFFFFFFFFFFFFFFFFFFFFFFFFFFFFFFFFFFFFFFFFFF
310
FFFFFFFFFFFFFFFFFFFFFFFFFFFFFFFFFFFFFFFFFFFFFFFFFFFFFFFFFFFFFFFF
310
FFFFFFFFFFFFFFFFFFFFFFFFFFFFFFFFF000FFFFFFFFFFFFFFFFFFFFFFFFFFFF
310
FFFFFFFFFFFFFFFFFFFFFFFFFFFFFFFFFFFFFFFFFFFFFFFFFFFFFFFFFFFFFFFF
310
FFFFFFFFFFFFFFFFFFFFFFFFFFFFFFFFFFFFFFFFFFFFFFFFFFFFFFFFFFFFFFFF
310
FFFFFFFFFFFFFFFFF000FFFFFFFFFFFFFFFFFFFFFFFFFFFFFFFFFFFFFFFFFFFF
310
FFFFFFFFFFFFFFFFFFFFFFFFFFFFFFFFFFFFFFFFFFFFFFFFFFFFFFFFFFFFFFFF
310
FFFFFFFFFFFFFFFFFFFFFFFFFFFFFFFFFFFFFFFFFFFFFFFFFFFFFFFFFFFFFFFF
310
F000FFFFFFFFFFFFFFFFFFFFFFFFFFFFFFFFFFFFFFFFFFFFFFFFFFFFFFFFFFFF
310
FFFFFFFFFFFFFFFFFFFFFFFFFFFFFFFFFFFFFFFFFFFFFFFFFFFFFFFFFFFFFFFF
310
FFFFFFFFFFFFFFFFFFFFFFFFFFFFFFFFFFFFFFFFFFFFFFFFF000FFFFFFFFFFFF
310
FFFFFFFFFFFFFFFFFFFFFFFFFFFFFFFFFFFFFFFFFFFFFFFFFFFFFFFFFFFFFFFF
310
FFFFFFFFFFFFFFFFFFFFFFFFFFFFFFFFFFFFFFFFFFFFFFFFFFFFFFFFFFFFFFFF
310
FFFFFFFFFFFFFFFFFFFFFFFFFFFFFFFFF000FFFFFFFFFFFFFFFFFFFFFFFFFFFF
310
FFFFFFFFFFFFFFFFFFFFFFFFFFFFFFFFFFFFFFFFFFFFFFFFFFFFFFFFFFFFFFFF
310
FFFFFFFFFFFFFFFFFFFFFFFFFFFFFFFFFFFFFFFFFFFFFFFFFFFFFFFFFFFFFFFF
310
FFFFFFFFFFFFFFFFF000FFFFFFFFFFFFFFFFFFFFFFFFFFFFFFFFFFFFFFFFFFFF
310
FFFFFFFFFFFFFFFFFFFFFFFFFFFFFFFFFFFFFFFFFFFFFFFFFFFFFFFFFFFFFFFF
310
FFFFFFFFFFFFFFFFFFFFFFFFFFFFFFFFFFFFFFFFFFFFFFFFFFFFFFFFFFFFFFFF
310
F000FFFFFFFFFFFFFFFFFFFFFFFFFFFFFFFFFFFFFFFFFFFFFFFFFFFFFFFFFFFF
310
FFFFFFFFFFFFFFFFFFFFFFFFFFFFFFFFFFFFFFFFFFFFFFFFFFFFFFFFFFFFFFFF
310
FFFFFFFFFFFFFFFFFFFFFFFFFFFFFFFFFFFFFFFFFFFFFFFFF000FFFFFFFFFFFF
310
FFFFFFFFFFFFFFFFFFFFFFFFFFFFFFFFFFFFFFFFFFFFFFFFFFFFFFFFFFFFFFFF
310
FFFFFFFFFFFFFFFFFFFFFFFFFFFFFFFFFFFFFFFFFFFFFFFFFFFFFFFFFFFFFFFF
310
FFFFFFFFFFFFFFFFFFFFFFFFFFFFFFFFF000FFFFFFFFFFFFFFFFFFFFFFFFFFFF
310
FFFFFFFFFFFFFFFFFFFFFFFFFFFFFFFFFFFFFFFFFFFFFFFFFFFFFFFFFFFFFFFF
310
FFFFFFFFFFFFFFFFFFFFFFFFFFFFFFFFFFFFFFFFFFFFFFFFFFFFFFFFFFFFFFFF
310
FFFFFFFFFFFFFFFFF000FFFFFFFFFFFFFFFFFFFFFFFFFFFFFFFFFFFFFFFFFFFF
310
FFFFFFFFFFFFFFFFFFFFFFFFFFFFFFFFFFFFFFFFFFFFFFFFFFFFFFFFFFFFFFFF
310
FFFFFFFFFFFFFFFFFFFFFFFFFFFFFFFFFFFFFFFFFFFFFFFFFFFFFFFFFFFFFFFF
310
F000FFFFFFFFFFFFFFFFFFFFFFFFFFFFFFFFFFFFFFFFFFFFFFFFFFFFFFFFFFFF
310
FFFFFFFFFFFFFFFFFFFFFFFFFFFFFFFFFFFFFFFFFFFFFFFFFFFFFFFFFFFFFFFF
310
FFFFFFFFFFFFFFFFFFFFFFFFFFFFFFFFFFFFFFFFFFFFFFFFF000FFFFFFFFFFFF
310
FFFFFFFFFFFFFFFFFFFFFFFFFFFFFFFFFFFFFFFFFFFFFFFFFFFFFFFFFFFFFFFF
310
FFFFFFFFFFFFFFFFFFFFFFFFFFFFFFFFFFFFFFFFFFFFFFFFFFFFFFFFFFFFFFFF
310
FFFFFFFFFFFFFFFFFFFFFFFFFFFFFFFFF000FFFFFFFFFFFFFFFFFFFFFFFFFFFF
310
FFFFFFFFFFFFFFFFFFFFFFFFFFFFFFFFFFFFFFFFFFFFFFFFFFFFFFFFFFFFFFFF
310
FFFFFFFFFFFFFFFFFFFFFFFFFFFFFFFFFFFFFFFFFFFFFFFFFFFFFFFFFFFFFFFF
310
FFFFFFFFFFFFFFFFF000FFFFF80003FFFFFFFFFFFFFFFFFFFFFFFFFFFFFFFFFF
310
FFFFF00007FFFFFFFFFF00007FFFFFF800000000000000007FFFFFFFFFFFFFFF
310
FFFFFFFC001FFFFFFFFFFFFFFC001FFFFFFFFFFFFFFFFFFFFFFFFFFE0007FFFF
310
F000FFFF8000007FFFFFFFF8000FFFFFC0007FFFFF80007FFFFF0000007FFFFF
310
FFF8000007FFFFF800000000000000007FFFFFF0001FFFFFFFFFFFC00001FFFF
310
FFFFFFFFC00001FFFFFFFF000000000003FFFFE000007FFFF000FFFE0000000F
310
FFFFFFF0000FFFFF80007FFFFF80007FFFFC0000001FFFFFFFC0000001FFFFF8
310
00000000000000007FFFFFF0001FFFFFFFFFFE0000003FFFFFFFFFFE0000003F
310
FFFFFF000000000003FFFF0000000FFFF000FFF800000003FFFFFFF00007FFFF
310
80007FFFFF80007FFFF000000007FFFFFF000000003FFFF80000000000000000
310
7FFFFFF0001FFFFFFFFFF80000000FFFFFFFFFF80000000FFFFFFF0000000000
310
03FFFC00000003FFF000FFE000000000FFFFFFF00007FFFF80003FFFFF80007F
310
FFC000000001FFFFFC000000001FFFF800000000000000007FFFFFF0001FFFFF
310
FFFFE000000003FFFFFFFFE000000003FFFFFF000000000003FFF000000000FF
310
F000FF80000000007FFFFFF00007FFFF80003FFFFF80007FFF8000000000FFFF
310
F80000000007FFF800000000000000007FFFFFF0001FFFFFFFFFC000000001FF
310
FFFFFFC000000001FFFFFF000000000003FFC0000000007FF000FF0000000000
310
3FFFFFE00007FFFF00003FFFFF80007FFE00000000003FFFF00000000003FFF8
310
00000000000000007FFFFFF0001FFFFFFFFF8000000000FFFFFFFF8000000000
310
FFFFFF000000000003FF80000000003FF000FE00000000001FFFFFE00003FFFF
310
00003FFFFF80007FFC00000000001FFFE00000000001FFF8000001FFFE000000
310
7FFFFFF0001FFFFFFFFE00000000003FFFFFFE00000000003FFFFF0000000000
310
03FF00000000001FF000FC00000000000FFFFFE00003FFFF00001FFFFF80007F
310
F800000000001FFFC00000000000FFF8000001FFFE0000007FFFFFF0001FFFFF
310
FFFC00000000001FFFFFFC00000000001FFFFF000000000003FE00000000000F
310
F000F8000000000007FFFFE00003FFFF00001FFFFF80007FF800000000000FFF
310
800000000000FFF8000001FFFE0000007FFFFFF0001FFFFFFFF800000000000F
310
FFFFF800000000000FFFFF000000000003FC000000000007F000F80000000000
310
03FFFFC00003FFFE00001FFFFF80007FF0000000000007FF0000000000007FF8
310
000001FFFE0000007FFFFFF0001FFFFFFFF0000000000007FFFFF00000000000
310
07FFFF000000000003F8000000000003F000F0000000000003FFFFC00001FFFE
310
00001FFFFF80007FE0000000000007FE0000000000003FF8000001FFFE000000
310
7FFFFFF0001FFFFFFFF0000000000007FFFFF0000000000007FFFF0000000000
310
03F800001F800003F000E00001FFF00001FFFFC00001FFFE00000FFFFF80007F
310
E00001FFE00003FE00001FFF00003FF8000001FFFE0000007FFFFFF0001FFFFF
310
FFE000003E000003FFFFE000003E000003FFFF000000000003F00001FFF80001
310
F000E00007FFFC0001FFFFC00001FFFE00000FFFFF80007FC0000FFFFC0003FC
310
0000FFFFC0001FF8000001FFFE0000007FFFFFF0001FFFFFFFC00003FFE00001
310
FFFFC00003FFE00001FFFF0001FFFFFFFFF00007FFFE0001F000E0000FFFFF00
310
00FFFF800001FFFC00000FFFFF80007FC0001FFFFE0001FC0001FFFFE0001FF8
310
000001FFFE0000007FFFFFF0001FFFFFFF80000FFFF80000FFFF80000FFFF800
310
00FFFF0003FFFFFFFFE0000FFFFF8000F000C0003FFFFF8000FFFF800000FFFC
310
000007FFFF80007F80003FFFFF0001FC0003FFFFF0001FF8000001FFFE000000
310
7FFFFFF0001FFFFFFF80003FFFFE0000FFFF80003FFFFE0000FFFF0003FFFFFF
310
FFE0003FFFFF8000F000C0003FFFFF8000FFFF800000FFFC000007FFFF80007F
310
80007FFFFF8001F80007FFFFF8000FF8000001FFFE0000007FFFFFF0001FFFFF
310
FF00007FFFFF00007FFF00007FFFFF00007FFF0003FFFFFFFFE0003FFFFFC000
310
F000C0007FFFFFC000FFFF000000FFFC000007FFFF80007F8000FFFFFF8000F8
310
000FFFFFF8000FF8000001FFFE0000007FFFFFF0001FFFFFFF0000FFFFFF8000
310
7FFF0000FFFFFF80007FFF0003FFFFFFFFC0007FFFFFC00070008000FFFFFFC0
310
00FFFF000000FFF8000007FFFF80007F8000FFFFFF8000F8000FFFFFF8000FF8
310
000001FFFE0000007FFFFFF0001FFFFFFE0001FFFFFFC0003FFE0001FFFFFFC0
310
003FFF0003FFFFFFFFC0007FFFFFE00070008000FFFFFFC0007FFF0000007FF8
310
000003FFFF80007F0001FFFFFF8000F8000FFFFFF8000FF8000001FFFE000000
310
7FFFFFF0001FFFFFFE0001FFFFFFC0003FFE0001FFFFFFC0003FFF0003FFFFFF
310
FFC000FFFFFFE00070008000FFFFFFC0007FFF0000007FF8000003FFFF80007F
310
0001FFFFFF8000F8001FFFFFF8000FF8000001FFFE0000007FFFFFF0001FFFFF
310
FE0003FFFFFFE0003FFE0003FFFFFFE0003FFF0003FFFFFFFFC000FFFFFFE000
310
70008000FFFFFFC0007FFE0000007FF8000003FFFF80007F0001FFFFFF8000F0
310
001FFFFFF8000FF8000001FFFE0000007FFFFFF0001FFFFFFC0003FFFFFFE000
310
1FFC0003FFFFFFE0001FFF0003FFFFFFFFC000FFFFFFC00070008000FFFFFF80
310
007FFE0000007FF0000003FFFF80007F0001FFFFFF0000F0001FFFFFF8000FF8
310
000001FFFE0000007FFFFFF0001FFFFFFC0007FFFFFFF0001FFC0007FFFFFFF0
310
001FFF0003FFFFFFFFC000FFFFFFC00070008001FFFFFF0000FFFE0000003FF0
310
000001FFFF80007F0001FFFFFF0000F8001FFFFFF0000FF8000001FFFE000000
310
7FFFFFF0001FFFFFFC0007FFFFFFF0001FFC0007FFFFFFF0001FFF0003FFFFFF
310
FFC001FFFFFF80007000FFFFFFFFFE0000FFFE0008003FF0008001FFFF80007F
310
FFFFFFFFFC0000FFFFFFFFFFE0000FF8000001FFFE0000007FFFFFF0001FFFFF
310
F8000FFFFFFFF8000FF8000FFFFFFFF8000FFF0003FFFFFFFFFFFFFFFFFF0000
310
7000FFFFFFFFFC0000FFFC0008003FF0008001FFFF80007FFFFFFFFFF80001FF
310
FFFFFFFF80000FF8000001FFFE0000007FFFFFF0001FFFFFF8000FFFFFFFF800
310
0FF8000FFFFFFFF8000FFF0003FFFFFFFFFFFFFFFFFE0000F000FFFFFFFFE000
310
00FFFC000C003FE000C001FFFF80007FFFFFFFFFC00001FFFFFFFFFE00001FF8
310
000001FFFE0000007FFFFFF0001FFFFFF8000FFFFFFFF8000FF8000FFFFFFFF8
310
000FFF0003FFFFFFFFFFFFFFFFF00000F000FFFFFFFE000001FFFC000C001FE0
310
00C000FFFF80007FFFFFFFFE000001FFFFFFFFE000001FF80FFFFFFFFFFFFFC0
310
7FFFFFF0001FFFFFF8000FFFFFFFF8000FF8000FFFFFFFF8000FFF0003FFFFFF
310
FFFFFFFFFF800000F000FFFFFFC0000001FFFC001C001FE001C000FFFF80007F
310
FFFFFF80000003FFFFFFF80000001FF80FFFFFFFFFFFFFC07FFFFFF0001FFFFF
310
F8001FFFFFFFFC000FF8001FFFFFFFFC000FFF0003FFFFFFFFFFFFFFF0000001
310
F000FFFFF800000001FFF8001C001FE001C000FFFF80007FFFFFF800000003FF
310
FFFF800000003FF80FFFFFFFFFFFFFC07FFFFFF0001FFFFFF8001FFFFFFFFC00
310
0FF8001FFFFFFFFC000FFF0003FFFFFFFFFFFFFE00000001F000FFFFC0000000
310
03FFF8001E001FC001E000FFFF80007FFFFF8000000007FFFFFC000000003FF8
310
0FFFFFFFFFFFFFC07FFFFFF0001FFFFFF8001FFFFFFFFC000FF8001FFFFFFFFC
310
000FFF0003FFFFFFFFFFFFE000000003F000FFFE0000000007FFF8001E000FC0
310
01E0007FFF80007FFFFE0000000007FFFFE0000000007FF80FFFFFFFFFFFFFC0
310
7FFFFFF0001FFFFFF0001FFFFFFFFC0007F0001FFFFFFFFC0007FF0003FFFFFF
310
FFFFFF0000000003F000FFF80000000007FFF8001E000FC003E0007FFF80007F
310
FFF0000000000FFFFF8000000000FFF80FFFFFFFFFFFFFC07FFFFFF0001FFFFF
310
F0001FFFFFFFFC0007F0001FFFFFFFFC0007FF0003FFFFFFFFFFFC0000000007
310
F000FFE0000000000FFFF0003E000FC003E0007FFF80007FFFC0000000001FFF
310
FE0000000001FFF80FFFFFFFFFFFFFC07FFFFFF0001FFFFFF0001FFFFFFFFC00
310
07F0001FFFFFFFFC0007FF0003FFFFFFFFFFF0000000000FF000FFC000000000
310
1FFFF0003F000F8003F0003FFF80007FFF80000000003FFFF80000000003FFF8
310
0FFFFFFFFFFFFFC07FFFFFF0001FFFFFF0001FFFFFFFFC0007F0001FFFFFFFFC
310
0007FF0003FFFFFFFFFFE0000000001FF000FF00000000007FFFF0003F000780
310
03F0003FFF80007FFF00000000007FFFF00000000007FFF80FFFFFFFFFFFFFC0
310
7FFFFFF0001FFFFFF0001FFFFFFFFC0007F0001FFFFFFFFC0007FF0003FFFFFF
310
FFFF80000000007FF000FE0000000000FFFFE0003F00078007F0003FFF80007F
310
FE0000000001FFFFE0000000001FFFF80FFFFFFFFFFFFFC07FFFFFF0001FFFFF
310
F0001FFFFFFFFC0007F0001FFFFFFFFC0007FF0003FFFFFFFFFF0000000000FF
310
F000FC0000000003FFFFE0007F00078007F0003FFF80007FFC0000000007FFFF
310
C0000000007FFFF80FFFFFFFFFFFFFC07FFFFFF0001FFFFFF8001FFFFFFFFC00
310
0FF8001FFFFFFFFC000FFF0003FFFFFFFFFE0000000003FFF000FC000000000F
310
FFFFE0007F80070007F8001FFF80007FF8000000001FFFFF8000000001FFFFF8
310
0FFFFFFFFFFFFFC07FFFFFF0001FFFFFF8001FFFFFFFFC000FF8001FFFFFFFFC
310
000FFF0003FFFFFFFFFC000000000FFFF000F8000000007FFFFFE0007F800700
310
07F8001FFF80007FF000000000FFFFFF800000000FFFFFF80FFFFFFFFFFFFFC0
310
7FFFFFF0001FFFFFF8000FFFFFFFF8000FF8000FFFFFFFF8000FFF0003FFFFFF
310
FFFC000000007FFFF000F800000007FFFFFFC0007F8003000FF8001FFF80007F
310
F000000007FFFFFF000000007FFFFFF80FFFFFFFFFFFFFC07FFFFFF0001FFFFF
310
F8000FFFFFFFF8000FF8000FFFFFFFF8000FFF0003FFFFFFFFF80000000FFFFF
310
F000F0000000FFFFFFFFC000FF8003000FF8001FFF80007FE0000000FFFFFFFF
310
0000000FFFFFFFF8000001FFFE0000007FFFFFF0001FFFFFF8000FFFFFFFF800
310
0FF8000FFFFFFFF8000FFF0003FFFFFFFFF8000000FFFFFFF000F000000FFFFF
310
FFFFC000FFC002000FF8000FFF80007FE000001FFFFFFFFE000001FFFFFFFFF8
310
000001FFFE0000007FFFFFF0001FFFFFF8000FFFFFFFF8000FF8000FFFFFFFF8
310
000FFF0003FFFFFFFFF000001FFFFFFFF000E00000FFFFFFFFFFC000FFC00200
310
0FFC000FFF80007FE00001FFFFFFFFFE00001FFFFFFFFFF8000001FFFE000000
310
7FFFFFF0001FFFFFFC000FFFFFFFF8001FFC000FFFFFFFF8001FFF0003FFFFFF
310
FFF00001FFFFFFFFF000E00007FFFFFFFFFF8000FFC000001FFC000FFF80007F
310
C0000FFFFFFFFFFE0000FFFFFFFFFFF8000001FFFE0000007FFFFFF0001FFFFF
310
FC0007FFFFFFF0001FFC0007FFFFFFF0001FFF0003FFFFFFFFF00007FFFFFFFF
310
F000E0001FFFFFFFFFFF8000FFC000001FFC000FFF80007FC0003FFFFFFFFFFE
310
0001FFFFFFFFFFF8000001FFFE0000007FFFFFF0001FFFFFFC0007FFFFFFF000
310
1FFC0007FFFFFFF0001FFF0003FFFFFFFFF0001FFFFFFFFFF000E0003FFFFF00
310
03FF8001FFE000001FFC0007FF80007FC0007FFFFF0007FC0003FFFFF0003FF8
310
000001FFFE0000007FFFFFF0001FFFFFFC0003FFFFFFE0001FFC0003FFFFFFE0
310
001FFF0003FFFFFFFFF0003FFFFFFFFFF000E0003FFFFF0001FF8001FFE00000
310
1FFE0007FF80007FC0007FFFFE0003FC0007FFFFE0003FF8000001FFFE000000
310
7FFFFFF0001FFFFFFE0003FFFFFFE0003FFE0003FFFFFFE0003FFF0003FFFFFF
310
FFF0003FFFFF8001F000E0003FFFFF0001FF0001FFE000001FFE0007FF80007F
310
C0007FFFFE0003FC0007FFFFE0003FF8000001FFFE0000007FFFFFF0001FFFFF
310
FE0001FFFFFFC0003FFE0001FFFFFFC0003FFF0003FFFFFFFFF0003FFFFF0001
310
F000E0003FFFFF0003FF0001FFE000003FFE0007FF80007FC0007FFFFE0003FC
310
0007FFFFE0003FF8000001FFFE0000007FFFFFF0001FFFFFFF0001FFFFFFC000
310
7FFF0001FFFFFFC0007FFF0003FFFFFFFFF0003FFFFF0001F000E0003FFFFE00
310
03FF0003FFF000003FFE0003FF80007FC0007FFFFC0003FE0007FFFFE0003FF8
310
000001FFFE0000007FFFFFF0001FFFFFFF0000FFFFFF80007FFF0000FFFFFF80
310
007FFF0003FFFFFFFFF0003FFFFF0001F000E0003FFFFE0003FF0003FFF00000
310
3FFF0003FF80007FC0007FFFFC0007FE0007FFFFC0003FF8000001FFFE000000
310
7FFFFFF0001FFFFFFF80007FFFFF0000FFFF80007FFFFF0000FFFF0003FFFFFF
310
FFF0003FFFFF0003F000E0003FFFFC0003FE0003FFF000003FFF0003FF80007F
310
E0003FFFF80007FE0003FFFFC0007FF8000001FFFE0000007FFFFFF0001FFFFF
310
FF80003FFFFE0000FFFF80003FFFFE0000FFFF0003FFFFFFFFF0001FFFFE0003
310
F000F0001FFFF80003FE0003FFF000007FFF0001FF80007FE0003FFFF00007FE
310
0001FFFF80007FF8000001FFFE0000007FFFFFF0001FFFFFFFC0000FFFF80001
310
FFFFC0000FFFF80001FFFF0003FFFFFFFFF0001FFFFC0003F000F0000FFFF000
310
07FE0007FFF800007FFF0001FF80007FE0001FFFE00007FF0000FFFE00007FF8
310
000001FFFE0000007FFFFFF0001FFFFFFFC00003FFE00001FFFFC00003FFE000
310
01FFFF0003FFFFFFFFF8000FFFF80003F000F00003FFC00007FC0007FFF80000
310
7FFF8001FF80007FF00007FF80000FFF00007FF80000FFF8000001FFFE000000
310
7F80000000000001FFE000003E000003FFFFE000003E000003FFFF0003FFFFFF
310
FFF80003FFE00007F000F800000000000FFC0007FFF800007FFF8001FF80007F
310
F000000000000FFF000000000000FFF8000001FFFE0000007F80000000000001
310
FFF0000000000007FFFFF0000000000007FFFF0003FFFFFFFFFC00007E000007
310
F000F800000000000FFC0007FFF80000FFFF8000FF80007FF800000000001FFF
310
800000000001FFF8000001FFFE0000007F80000000000001FFF800000000000F
310
FFFFF800000000000FFFFF0003FFFFFFFFFC00000000000FF000FC0000000000
310
1FFC0007FFFC0000FFFF8000FF80007FF800000000003FFFC00000000001FFF8
310
000001FFFE0000007F80000000000001FFF800000000000FFFFFF80000000000
310
0FFFFF0003FFFFFFFFFE00000000001FF000FE00000000003FF8000FFFFC0000
310
FFFF8000FF80007FFC00000000003FFFC00000000003FFF8000001FFFE000000
310
7F80000000000001FFFC00000000001FFFFFFC00000000001FFFFF0003FFFFFF
310
FFFF00000000001FF000FF00000000003FF8000FFFFC0000FFFFC000FF80007F
310
FE00000000007FFFE00000000007FFF8000001FFFE0000007F80000000000001
310
FFFE00000000003FFFFFFE00000000003FFFFF0003FFFFFFFFFF80000000003F
310
F000FF80000000007FF8000FFFFC0001FFFFC0007F80007FFF0000000000FFFF
310
F0000000000FFFF800000000000000007F80000000000001FFFF8000000000FF
310
FFFFFF8000000000FFFFFF0003FFFFFFFFFFC0000000007FF000FFC000000000
310
FFF8000FFFFE0001FFFFC0007F80007FFF8000000001FFFFF8000000001FFFF8
310
00000000000000007F80000000000001FFFFC000000001FFFFFFFFC000000001
310
FFFFFF0003FFFFFFFFFFE000000000FFF000FFE000000003FFF0001FFFFE0001
310
FFFFC0007F80007FFFC000000007FFFFFE000000003FFFF80000000000000000
310
7F80000000000001FFFFE000000003FFFFFFFFE000000003FFFFFF0003FFFFFF
310
FFFFF000000003FFF000FFF80000000FFFF0001FFFFE0001FFFFE0007F80007F
310
FFF00000000FFFFFFF00000000FFFFF800000000000000007F80000000000001
310
FFFFF80000000FFFFFFFFFF80000000FFFFFFF0003FFFFFFFFFFFC0000000FFF
310
F000FFFE0000003FFFF0001FFFFE0003FFFFE0003F80007FFFFC0000003FFFFF
310
FFC0000003FFFFF800000000000000007F80000000000001FFFFFE0000003FFF
310
FFFFFFFE0000003FFFFFFF0003FFFFFFFFFFFF0000003FFFF000FFFF800000FF
310
FFF0001FFFFF0003FFFFE0003F80007FFFFF000001FFFFFFFFF800001FFFFFF8
310
00000000000000007F80000000000001FFFFFFC00001FFFFFFFFFFFFC00001FF
310
FFFFFF0003FFFFFFFFFFFFC00000FFFFF000FFFFF8000FFFFFFFFFFFFFFFFFFF
310
FFFFFFFFFFFFFFFFFFFFF0001FFFFFFFFFFF0000FFFFFFF80000000000000000
310
7FFFFFFFFFFFFFFFFFFFFFFC001FFFFFFFFFFFFFFC001FFFFFFFFFFFFFFFFFFF
310
FFFFFFFC001FFFFFF000FFFFFFFFFFFFFFFFFFFFFFFFFFFFFFFFFFFFFFFFFFFF
310
FFFFFFFFFFFFFFFFFFFFFFFFFFFFFFFFFFFFFFFFFFFFFFFFFFFFFFFFFFFFFFFF
310
FFFFFFFFFFFFFFFFFFFFFFFFFFFFFFFFFFFFFFFFFFFFFFFFFFFFFFFFFFFFFFFF
310
F000FFFFFFFFFFFFFFFFFFFFFFFFFFFFFFFFFFFFFFFFFFFFFFFFFFFFFFFFFFFF
310
FFFFFFFFFFFFFFFFFFFFFFFFFFFFFFFFFFFFFFFFFFFFFFFFFFFFFFFFFFFFFFFF
310
FFFFFFFFFFFFFFFFFFFFFFFFFFFFFFFFFFFFFFFFFFFFFFFFF000FFFFFFFFFFFF
310
FFFFFFFFFFFFFFFFFFFFFFFFFFFFFFFFFFFFFFFFFFFFFFFFFFFFFFFFFFFFFFFF
310
FFFFFFFFFFFFFFFFFFFFFFFFFFFFFFFFFFFFFFFFFFFFFFFFFFFFFFFFFFFFFFFF
310
FFFFFFFFFFFFFFFFFFFFFFFFFFFFFFFFF000FFFFFFFFFFFFFFFFFFFFFFFFFFFF
310
FFFFFFFFFFFFFFFFFFFFFFFFFFFFFFFFFFFFFFFFFFFFFFFFFFFFFFFFFFFFFFFF
310
FFFFFFFFFFFFFFFFFFFFFFFFFFFFFFFFFFFFFFFFFFFFFFFFFFFFFFFFFFFFFFFF
310
FFFFFFFFFFFFFFFFF000FFFFFFFFFFFFFFFFFFFFFFFFFFFFFFFFFFFFFFFFFFFF
310
FFFFFFFFFFFFFFFFFFFFFFFFFFFFFFFFFFFFFFFFFFFFFFFFFFFFFFFFFFFFFFFF
310
FFFFFFFFFFFFFFFFFFFFFFFFFFFFFFFFFFFFFFFFFFFFFFFFFFFFFFFFFFFFFFFF
310
F000FFFFFFFFFFFFFFFFFFFFFFFFFFFFFFFFFFFFFFFFFFFFFFFFFFFFFFFFFFFF
310
FFFFFFFFFFFFFFFFFFFFFFFFFFFFFFFFFFFFFFFFFFFFFFFFFFFFFFFFFFFFFFFF
310
FFFFFFFFFFFFFFFFFFFFFFFFFFFFFFFFFFFFFFFFFFFFFFFFF000FFFFFFFFFFFF
310
FFFFFFFFFFFFFFFFFFFFFFFFFFFFFFFFFFFFFFFFFFFFFFFFFFFFFFFFFFFFFFFF
310
FFFFFFFFFFFFFFFFFFFFFFFFFFFFFFFFFFFFFFFFFFFFFFFFFFFFFFFFFFFFFFFF
310
FFFFFFFFFFFFFFFFFFFFFFFFFFFFFFFFF000FFFFFFFFFFFFFFFFFFFFFFFFFFFF
310
FFFFFFFFFFFFFFFFFFFFFFFFFFFFFFFFFFFFFFFFFFFFFFFFFFFFFFFFFFFFFFFF
310
FFFFFFFFFFFFFFFFFFFFFFFFFFFFFFFFFFFFFFFFFFFFFFFFFFFFFFFFFFFFFFFF
310
FFFFFFFFFFFFFFFFF000FFFFFFFFFFFFFFFFFFFFFFFFFFFFFFFFFFFFFFFFFFFF
310
FFFFFFFFFFFFFFFFFFFFFFFFFFFFFFFFFFFFFFFFFFFFFFFFFFFFFFFFFFFFFFFF
310
FFFFFFFFFFFFFFFFFFFFFFFFFFFFFFFFFFFFFFFFFFFFFFFFFFFFFFFFFFFFFFFF
310
F000FFFFFFFFFFFFFFFFFFFFFFFFFFFFFFFFFFFFFFFFFFFFFFFFFFFFFFFFFFFF
310
FFFFFFFFFFFFFFFFFFFFFFFFFFFFFFFFFFFFFFFFFFFFFFFFFFFFFFFFFFFFFFFF
310
FFFFFFFFFFFFFFFFFFFFFFFFFFFFFFFFFFFFFFFFFFFFFFFFF000FFFFFFFFFFFF
310
FFFFFFFFFFFFFFFFFFFFFFFFFFFFFFFFFFFFFFFFFFFFFFFFFFFFFFFFFFFFFFFF
310
FFFFFFFFFFFFFFFFFFFFFFFFFFFFFFFFFFFFFFFFFFFFFFFFFFFFFFFFFFFFFFFF
310
FFFFFFFFFFFFFFFFFFFFFFFFFFFFFFFFF000FFFFFFFFFFFFFFFFFFFFFFFFFFFF
310
FFFFFFFFFFFFFFFFFFFFFFFFFFFFFFFFFFFFFFFFFFFFFFFFFFFFFFFFFFFFFFFF
310
FFFFFFFFFFFFFFFFFFFFFFFFFFFFFFFFFFFFFFFFFFFFFFFFFFFFFFFFFFFFFFFF
310
FFFFFFFFFFFFFFFFF000FFFFFFFFFFFFFFFFFFFFFFFFFFFFFFFFFFFFFFFFFFFF
310
FFFFFFFFFFFFFFFFFFFFFFFFFFFFFFFFFFFFFFFFFFFFFFFFFFFFFFFFFFFFFFFF
310
FFFFFFFFFFFFFFFFFFFFFFFFFFFFFFFFFFFFFFFFFFFFFFFFFFFFFFFFFFFFFFFF
310
F000FFFFFFFFFFFFFFFFFFFFFFFFFFFFFFFFFFFFFFFFFFFFFFFFFFFFFFFFFFFF
310
FFFFFFFFFFFFFFFFFFFFFFFFFFFFFFFFFFFFFFFFFFFFFFFFFFFFFFFFFFFFFFFF
310
FFFFFFFFFFFFFFFFFFFFFFFFFFFFFFFFFFFFFFFFFFFFFFFFF000FFFFFFFFFFFF
310
FFFFFFFFFFFFFFFFFFFFFFFFFFFFFFFFFFFFFFFFFFFFFFFFFFFFFFFFFFFFFFFF
310
FFFFFFFFFFFFFFFFFFFFFFFFFFFFFFFFFFFFFFFFFFFFFFFFFFFFFFFFFFFFFFFF
310
FFFFFFFFFFFFFFFFFFFFFFFFFFFFFFFFF000FFFFFFFFFFFFFFFFFFFFFFFFFFFF
310
FFFFFFFFFFFFFFFFFFFFFFFFFFFFFFFFFFFFFFFFFFFFFFFFFFFFFFFFFFFFFFFF
310
FFFFFFFFFFFFFFFFFFFFFFFFFFFFFFFFFFFFFFFFFFFFFFFFFFFFFFFFFFFFFFFF
310
FFFFFFFFFFFFFFFFF000FFFFFFFFFFFFFFFFFFFFFFFFFFFFFFFFFFFFFFFFFFFF
310
FFFFFFFFFFFFFFFFFFFFFFFFFFFFFFFFFFFFFFFFFFFFFFFFFFFFFFFFFFFFFFFF
310
FFFFFFFFFFFFFFFFFFFFFFFFFFFFFFFFFFFFFFFFFFFFFFFFFFFFFFFFFFFFFFFF
310
F000FFFFFFFFFFFFFFFFFFFFFFFFFFFFFFFFFFFFFFFFFFFFFFFFFFFFFFFFFFFF
310
FFFFFFFFFFFFFFFFFFFFFFFFFFFFFFFFFFFFFFFFFFFFFFFFFFFFFFFFFFFFFFFF
310
FFFFFFFFFFFFFFFFFFFFFFFFFFFFFFFFFFFFFFFFFFFFFFFFF000FFFFFFFFFFFF
310
FFFFFFFFFFFFFFFFFFFFFFFFFFFFFFFFFFFFFFFFFFFFFFFFFFFFFFFFFFFFFFFF
310
FFFFFFFFFFFFFFFFFFFFFFFFFFFFFFFFFFFFFFFFFFFFFFFFFFFFFFFFFFFFFFFF
310
FFFFFFFFFFFFFFFFFFFFFFFFFFFFFFFFF000FFFFFFFFFFFFFFFFFFFFFFFFFFFF
310
FFFFFFFFFFFFFFFFFFFFFFFFFFFFFFFFFFFFFFFFFFFFFFFFFFFFFFFFFFFFFFFF
310
FFFFFFFFFFFFFFFFFFFFFFFFFFFFFFFFFFFFFFFFFFFFFFFFFFFFFFFFFFFFFFFF
310
FFFFFFFFFFFFFFFFF000FFFFFFFFFFFFFFFFFFFFFFFFFFFFFFFFFFFFFFFFFFFF
310
FFFFFFFFFFFFFFFFFFFFFFFFFFFFFFFFFFFFFFFFFFFFFFFFFFFFFFFFFFFFFFFF
310
FFFFFFFFFFFFFFFFFFFFFFFFFFFFFFFFFFFFFFFFFFFFFFFFFFFFFFFFFFFFFFFF
310
F000FFFFFFFFFFFFFFFFFFFFFFFFFFFFFFFFFFFFFFFFFFFFFFFFFFFFFFFFFFFF
310
FFFFFFFFFFFFFFFFFFFFFFFFFFFFFFFFFFFFFFFFFFFFFFFFFFFFFFFFFFFFFFFF
310
FFFFFFFFFFFFFFFFFFFFFFFFFFFFFFFFFFFFFFFFFFFFFFFFF000FFFFFFFFFFFF
310
FFFFFFFFFFFFFFFFFFFFFFFFFFFFFFFFFFFFFFFFFFFFFFFFFFFFFFFFFFFFFFFF
310
FFFFFFFFFFFFFFFFFFFFFFFFFFFFFFFFFFFFFFFFFFFFFFFFFFFFFFFFFFFFFFFF
310
FFFFFFFFFFFFFFFFFFFFFFFFFFFFFFFFF0000000000000000000000000000000
310
0000000000000000000000000000000000000000000000000000000000000000
310
0000000000000000000000000000000000000000000000000000000000000000
310
0000000000000000000000000000000000000000000000000000000000000000
310
0000000000000000000000000000000000000000000000000000000000000000
310
0000000000000000000000000000000000000000000000000000000000000000
310
0000000000000000000000000000000000000000000000000000000000000000
310
0000000000000000000000000000000000000000000000000000000000000000
310
0000000000000000000000000000000000000000000000000000000000000000
310
0000000000000000000000000000000000000000000000000000000000000000
310
0000000000000000000000000000000000000000000000000000000000000000
310
0000000000000000000000000000000000000000000000000000000000000000
310
0000000000000000000000000000000000000000000000000000000000000000
310
0000000000000000000000000000000000000000000000000000000000000000
310
0000000000000000000000000000000000000000000000000000000000000000
310
0000000000000000000000000000000000000000000000000000000000000000
  1
OLE
  0
ENDSEC
  0
SECTION
  2
OBJECTS
  0
DICTIONARY
  5
C
330
0
100
AcDbDictionary
281
     1
  3
ACAD_GROUP
350
D
  3
ACAD_LAYOUT
350
1A
  3
ACAD_MLINESTYLE
350
17
  3
ACAD_PLOTSETTINGS
350
19
  3
ACAD_PLOTSTYLENAME
350
E
  3
ACAD_SCALELIST
350
47
  0
DICTIONARY
  5
D
102
{ACAD_REACTORS
330
C
102
}
330
C
100
AcDbDictionary
281
     1
  0
DICTIONARY
  5
1A
102
{ACAD_REACTORS
330
C
102
}
330
C
100
AcDbDictionary
281
     1
  3
Layout1
350
1E
  3
Layout2
350
26
  3
Model
350
22
  0
DICTIONARY
  5
17
102
{ACAD_REACTORS
330
C
102
}
330
C
100
AcDbDictionary
281
     1
  3
Standard
350
18
  0
DICTIONARY
  5
19
102
{ACAD_REACTORS
330
C
102
}
330
C
100
AcDbDictionary
281
     1
  0
ACDBDICTIONARYWDFLT
  5
E
102
{ACAD_REACTORS
330
C
102
}
330
C
100
AcDbDictionary
281
     1
  3
Normal
350
F
100
AcDbDictionaryWithDefault
340
F
  0
DICTIONARY
  5
47
102
{ACAD_REACTORS
330
C
102
}
330
C
100
AcDbDictionary
281
     1
  3
A0
350
48
  3
A1
350
49
  3
A2
350
4A
  3
A3
350
4B
  3
A4
350
4C
  3
A5
350
4D
  3
A6
350
4E
  3
A7
350
4F
  3
A8
350
50
  3
A9
350
51
  3
B0
350
52
  3
B1
350
53
  3
B2
350
54
  3
B3
350
55
  3
B4
350
56
  3
B5
350
57
  3
B6
350
58
  3
B7
350
59
  3
B8
350
5A
  3
B9
350
5B
  3
C0
350
5C
  3
C1
350
5D
  3
C2
350
5E
  3
C3
350
5F
  3
C4
350
60
  3
C5
350
61
  3
C6
350
62
  3
C7
350
63
  3
C8
350
64
  3
C9
350
65
  3
D0
350
66
  3
D1
350
67
  3
D2
350
68
  0
LAYOUT
  5
1E
102
{ACAD_REACTORS
330
1A
102
}
330
1A
100
AcDbPlotSettings
  1

  2
none_device
  4

  6

 40
0.0
 41
0.0
 42
0.0
 43
0.0
 44
0.0
 45
0.0
 46
0.0
 47
0.0
 48
0.0
 49
0.0
140
0.0
141
0.0
142
1.0
143
1.0
 70
   688
 72
     1
 73
     0
 74
     5
  7

 75
    16
147
1.0
148
0.0
149
0.0
100
AcDbLayout
  1
Layout1
 70
     1
 71
     1
 10
0.0
 20
0.0
 11
420.0
 21
297.0
 12
0.0
 22
0.0
 32
0.0
 14
1.0000000000E+20
 24
1.0000000000E+20
 34
1.0000000000E+20
 15
-1.0000000000E+20
 25
-1.0000000000E+20
 35
-1.0000000000E+20
146
0.0
 13
0.0
 23
0.0
 33
0.0
 16
1.0
 26
0.0
 36
0.0
 17
0.0
 27
1.0
 37
0.0
 76
     0
330
1B
  0
LAYOUT
  5
26
102
{ACAD_REACTORS
330
1A
102
}
330
1A
100
AcDbPlotSettings
  1

  2
none_device
  4

  6

 40
0.0
 41
0.0
 42
0.0
 43
0.0
 44
0.0
 45
0.0
 46
0.0
 47
0.0
 48
0.0
 49
0.0
140
0.0
141
0.0
142
1.0
143
1.0
 70
   688
 72
     1
 73
     0
 74
     5
  7

 75
    16
147
1.0
148
0.0
149
0.0
100
AcDbLayout
  1
Layout2
 70
     1
 71
     2
 10
0.0
 20
0.0
 11
0.0
 21
0.0
 12
0.0
 22
0.0
 32
0.0
 14
0.0
 24
0.0
 34
0.0
 15
0.0
 25
0.0
 35
0.0
146
0.0
 13
0.0
 23
0.0
 33
0.0
 16
1.0
 26
0.0
 36
0.0
 17
0.0
 27
1.0
 37
0.0
 76
     0
330
23
  0
LAYOUT
  5
22
102
{ACAD_REACTORS
330
1A
102
}
330
1A
100
AcDbPlotSettings
  1

  2
none_device
  4
Letter_(8.50_x_11.00_Inches)
  6

 40
6.35
 41
6.35
 42
6.35000508
 43
6.35000508
 44
215.9
 45
279.4
 46
0.0
 47
0.0
 48
0.0
 49
0.0
140
0.0
141
0.0
142
1.0
143
1.0
 70
  1712
 72
     1
 73
     0
 74
     0
  7

 75
     0
147
1.0
148
0.0
149
0.0
100
AcDbLayout
  1
Model
 70
     1
 71
     0
 10
0.0
 20
0.0
 11
297.0
 21
210.0
 12
0.0
 22
0.0
 32
0.0
 14
0.0
 24
0.0
 34
0.0
 15
297.0
 25
210.0
 35
0.0
146
0.0
 13
0.0
 23
0.0
 33
0.0
 16
1.0
 26
0.0
 36
0.0
 17
0.0
 27
1.0
 37
0.0
 76
     0
330
1F
331
29
  0
MLINESTYLE
  5
18
102
{ACAD_REACTORS
330
17
102
}
330
17
100
AcDbMlineStyle
  2
Standard
 70
     0
  3

 62
   256
 51
90.0
 52
90.0
 71
     2
 49
0.5
 62
   256
  6
BYLAYER
 49
-0.5
 62
   256
  6
BYLAYER
  0
ACDBPLACEHOLDER
  5
F
102
{ACAD_REACTORS
330
E
102
}
330
E
  0
SCALE
  5
48
102
{ACAD_REACTORS
330
47
102
}
330
47
100
AcDbScale
 70
     0
300
1:1
140
1.0
141
1.0
290
     1
  0
SCALE
  5
49
102
{ACAD_REACTORS
330
47
102
}
330
47
100
AcDbScale
 70
     0
300
1:2
140
1.0
141
2.0
290
     0
  0
SCALE
  5
4A
102
{ACAD_REACTORS
330
47
102
}
330
47
100
AcDbScale
 70
     0
300
1:4
140
1.0
141
4.0
290
     0
  0
SCALE
  5
4B
102
{ACAD_REACTORS
330
47
102
}
330
47
100
AcDbScale
 70
     0
300
1:5
140
1.0
141
5.0
290
     0
  0
SCALE
  5
4C
102
{ACAD_REACTORS
330
47
102
}
330
47
100
AcDbScale
 70
     0
300
1:8
140
1.0
141
8.0
290
     0
  0
SCALE
  5
4D
102
{ACAD_REACTORS
330
47
102
}
330
47
100
AcDbScale
 70
     0
300
1:10
140
1.0
141
10.0
290
     0
  0
SCALE
  5
4E
102
{ACAD_REACTORS
330
47
102
}
330
47
100
AcDbScale
 70
     0
300
1:16
140
1.0
141
16.0
290
     0
  0
SCALE
  5
4F
102
{ACAD_REACTORS
330
47
102
}
330
47
100
AcDbScale
 70
     0
300
1:20
140
1.0
141
20.0
290
     0
  0
SCALE
  5
50
102
{ACAD_REACTORS
330
47
102
}
330
47
100
AcDbScale
 70
     0
300
1:30
140
1.0
141
30.0
290
     0
  0
SCALE
  5
51
102
{ACAD_REACTORS
330
47
102
}
330
47
100
AcDbScale
 70
     0
300
1:40
140
1.0
141
40.0
290
     0
  0
SCALE
  5
52
102
{ACAD_REACTORS
330
47
102
}
330
47
100
AcDbScale
 70
     0
300
1:50
140
1.0
141
50.0
290
     0
  0
SCALE
  5
53
102
{ACAD_REACTORS
330
47
102
}
330
47
100
AcDbScale
 70
     0
300
1:100
140
1.0
141
100.0
290
     0
  0
SCALE
  5
54
102
{ACAD_REACTORS
330
47
102
}
330
47
100
AcDbScale
 70
     0
300
2:1
140
2.0
141
1.0
290
     0
  0
SCALE
  5
55
102
{ACAD_REACTORS
330
47
102
}
330
47
100
AcDbScale
 70
     0
300
4:1
140
4.0
141
1.0
290
     0
  0
SCALE
  5
56
102
{ACAD_REACTORS
330
47
102
}
330
47
100
AcDbScale
 70
     0
300
8:1
140
8.0
141
1.0
290
     0
  0
SCALE
  5
57
102
{ACAD_REACTORS
330
47
102
}
330
47
100
AcDbScale
 70
     0
300
10:1
140
10.0
141
1.0
290
     0
  0
SCALE
  5
58
102
{ACAD_REACTORS
330
47
102
}
330
47
100
AcDbScale
 70
     0
300
100:1
140
100.0
141
1.0
290
     0
  0
SCALE
  5
59
102
{ACAD_REACTORS
330
47
102
}
330
47
100
AcDbScale
 70
     0
300
1/128" = 1'-0"
140
0.0078125
141
12.0
290
     0
  0
SCALE
  5
5A
102
{ACAD_REACTORS
330
47
102
}
330
47
100
AcDbScale
 70
     0
300
1/64" = 1'-0"
140
0.015625
141
12.0
290
     0
  0
SCALE
  5
5B
102
{ACAD_REACTORS
330
47
102
}
330
47
100
AcDbScale
 70
     0
300
1/32" = 1'-0"
140
0.03125
141
12.0
290
     0
  0
SCALE
  5
5C
102
{ACAD_REACTORS
330
47
102
}
330
47
100
AcDbScale
 70
     0
300
1/16" = 1'-0"
140
0.0625
141
12.0
290
     0
  0
SCALE
  5
5D
102
{ACAD_REACTORS
330
47
102
}
330
47
100
AcDbScale
 70
     0
300
3/32" = 1'-0"
140
0.09375
141
12.0
290
     0
  0
SCALE
  5
5E
102
{ACAD_REACTORS
330
47
102
}
330
47
100
AcDbScale
 70
     0
300
1/8" = 1'-0"
140
0.125
141
12.0
290
     0
  0
SCALE
  5
5F
102
{ACAD_REACTORS
330
47
102
}
330
47
100
AcDbScale
 70
     0
300
3/16" = 1'-0"
140
0.1875
141
12.0
290
     0
  0
SCALE
  5
60
102
{ACAD_REACTORS
330
47
102
}
330
47
100
AcDbScale
 70
     0
300
1/4" = 1'-0"
140
0.25
141
12.0
290
     0
  0
SCALE
  5
61
102
{ACAD_REACTORS
330
47
102
}
330
47
100
AcDbScale
 70
     0
300
3/8" = 1'-0"
140
0.375
141
12.0
290
     0
  0
SCALE
  5
62
102
{ACAD_REACTORS
330
47
102
}
330
47
100
AcDbScale
 70
     0
300
1/2" = 1'-0"
140
0.5
141
12.0
290
     0
  0
SCALE
  5
63
102
{ACAD_REACTORS
330
47
102
}
330
47
100
AcDbScale
 70
     0
300
3/4" = 1'-0"
140
0.75
141
12.0
290
     0
  0
SCALE
  5
64
102
{ACAD_REACTORS
330
47
102
}
330
47
100
AcDbScale
 70
     0
300
1" = 1'-0"
140
1.0
141
12.0
290
     0
  0
SCALE
  5
65
102
{ACAD_REACTORS
330
47
102
}
330
47
100
AcDbScale
 70
     0
300
1-1/2" = 1'-0"
140
1.5
141
12.0
290
     0
  0
SCALE
  5
66
102
{ACAD_REACTORS
330
47
102
}
330
47
100
AcDbScale
 70
     0
300
3" = 1'-0"
140
3.0
141
12.0
290
     0
  0
SCALE
  5
67
102
{ACAD_REACTORS
330
47
102
}
330
47
100
AcDbScale
 70
     0
300
6" = 1'-0"
140
6.0
141
12.0
290
     0
  0
SCALE
  5
68
102
{ACAD_REACTORS
330
47
102
}
330
47
100
AcDbScale
 70
     0
300
1'-0" = 1'-0"
140
12.0
141
12.0
290
     0
  0
ENDSEC
  0
EOF
