  0
SECTION
  2
HEADER
  9
$ACADVER
  1
AC1015
  9
$ACADMAINTVER
 70
     6
  9
$DWGCODEPAGE
  3
ANSI_1252
  9
$INSBASE
 10
0.0
 20
0.0
 30
0.0
  9
$EXTMIN
 10
0.0
 20
0.0
 30
0.0
  9
$EXTMAX
 10
297.0
 20
210.0
 30
0.0
  9
$LIMMIN
 10
0.0
 20
0.0
  9
$LIMMAX
 10
297.0
 20
210.0
  9
$ORTHOMODE
 70
     0
  9
$REGENMODE
 70
     1
  9
$FILLMODE
 70
     1
  9
$QTEXTMODE
 70
     0
  9
$MIRRTEXT
 70
     1
  9
$LTSCALE
 40
1.0
  9
$ATTMODE
 70
     1
  9
$TEXTSIZE
 40
2.0
  9
$TRACEWID
 40
1.0
  9
$TEXTSTYLE
  7
Standard
  9
$CLAYER
  8
0
  9
$CELTYPE
  6
ByLayer
  9
$CECOLOR
 62
   256
  9
$CELTSCALE
 40
1.0
  9
$DISPSILH
 70
     0
  9
$DIMSCALE
 40
1.0
  9
$DIMASZ
 40
3.0
  9
$DIMEXO
 40
0.0
  9
$DIMDLI
 40
3.75
  9
$DIMRND
 40
0.0
  9
$DIMDLE
 40
0.0
  9
$DIMEXE
 40
1.0
  9
$DIMTP
 40
0.0
  9
$DIMTM
 40
0.0
  9
$DIMTXT
 40
2.0
  9
$DIMCEN
 40
2.5
  9
$DIMTSZ
 40
0.0
  9
$DIMTOL
 70
     0
  9
$DIMLIM
 70
     0
  9
$DIMTIH
 70
     1
  9
$DIMTOH
 70
     1
  9
$DIMSE1
 70
     0
  9
$DIMSE2
 70
     0
  9
$DIMTAD
 70
     1
  9
$DIMZIN
 70
     0
  9
$DIMBLK
  1

  9
$DIMASO
 70
     1
  9
$DIMSHO
 70
     1
  9
$DIMPOST
  1

  9
$DIMAPOST
  1

  9
$DIMALT
 70
     0
  9
$DIMALTD
 70
     3
  9
$DIMALTF
 40
0.0393700787
  9
$DIMLFAC
 40
2.0
  9
$DIMTOFL
 70
     1
  9
$DIMTVP
 40
0.0
  9
$DIMTIX
 70
     0
  9
$DIMSOXD
 70
     0
  9
$DIMSAH
 70
     0
  9
$DIMBLK1
  1

  9
$DIMBLK2
  1

  9
$DIMSTYLE
  2
ISO-25
  9
$DIMCLRD
 70
     0
  9
$DIMCLRE
 70
     0
  9
$DIMCLRT
 70
     0
  9
$DIMTFAC
 40
1.0
  9
$DIMGAP
 40
1.524
  9
$DIMJUST
 70
     0
  9
$DIMSD1
 70
     0
  9
$DIMSD2
 70
     0
  9
$DIMTOLJ
 70
     0
  9
$DIMTZIN
 70
     0
  9
$DIMALTZ
 70
     0
  9
$DIMALTTZ
 70
     0
  9
$DIMUPT
 70
     0
  9
$DIMDEC
 70
     2
  9
$DIMTDEC
 70
     3
  9
$DIMALTU
 70
     2
  9
$DIMALTTD
 70
     3
  9
$DIMTXSTY
  7
Standard
  9
$DIMAUNIT
 70
     0
  9
$DIMADEC
 70
     2
  9
$DIMALTRND
 40
0.0
  9
$DIMAZIN
 70
     0
  9
$DIMDSEP
 70
    44
  9
$DIMATFIT
 70
     3
  9
$DIMFRAC
 70
     0
  9
$DIMLDRBLK
  1

  9
$DIMLUNIT
 70
     2
  9
$DIMLWD
 70
    -2
  9
$DIMLWE
 70
    -2
  9
$DIMTMOVE
 70
     0
  9
$LUNITS
 70
     2
  9
$LUPREC
 70
     2
  9
$SKETCHINC
 40
1.0
  9
$FILLETRAD
 40
10.0
  9
$AUNITS
 70
     0
  9
$AUPREC
 70
     2
  9
$MENU
  1
.
  9
$ELEVATION
 40
0.0
  9
$PELEVATION
 40
0.0
  9
$THICKNESS
 40
0.0
  9
$LIMCHECK
 70
     0
  9
$CHAMFERA
 40
0.0
  9
$CHAMFERB
 40
0.0
  9
$CHAMFERC
 40
0.0
  9
$CHAMFERD
 40
0.0
  9
$SKPOLY
 70
     0
  9
$TDCREATE
 40
2457674.66459897
  9
$TDUCREATE
 40
2457674.581265637
  9
$TDUPDATE
 40
2457674.664600428
  9
$TDUUPDATE
 40
2457674.581267095
  9
$TDINDWG
 40
0.0000000116
  9
$TDUSRTIMER
 40
0.0000000116
  9
$USRTIMER
 70
     1
  9
$ANGBASE
 50
0.0
  9
$ANGDIR
 70
     0
  9
$PDMODE
 70
     0
  9
$PDSIZE
 40
-1.0
  9
$PLINEWID
 40
0.0
  9
$SPLFRAME
 70
     0
  9
$SPLINETYPE
 70
     6
  9
$SPLINESEGS
 70
     8
  9
$HANDSEED
  5
2D3
  9
$SURFTAB1
 70
     6
  9
$SURFTAB2
 70
     6
  9
$SURFTYPE
 70
     6
  9
$SURFU
 70
     6
  9
$SURFV
 70
     6
  9
$UCSBASE
  2

  9
$UCSNAME
  2

  9
$UCSORG
 10
0.0
 20
0.0
 30
0.0
  9
$UCSXDIR
 10
1.0
 20
0.0
 30
0.0
  9
$UCSYDIR
 10
0.0
 20
1.0
 30
0.0
  9
$UCSORTHOREF
  2

  9
$UCSORTHOVIEW
 70
     0
  9
$UCSORGTOP
 10
0.0
 20
0.0
 30
0.0
  9
$UCSORGBOTTOM
 10
0.0
 20
0.0
 30
0.0
  9
$UCSORGLEFT
 10
0.0
 20
0.0
 30
0.0
  9
$UCSORGRIGHT
 10
0.0
 20
0.0
 30
0.0
  9
$UCSORGFRONT
 10
0.0
 20
0.0
 30
0.0
  9
$UCSORGBACK
 10
0.0
 20
0.0
 30
0.0
  9
$PUCSBASE
  2

  9
$PUCSNAME
  2

  9
$PUCSORG
 10
0.0
 20
0.0
 30
0.0
  9
$PUCSXDIR
 10
1.0
 20
0.0
 30
0.0
  9
$PUCSYDIR
 10
0.0
 20
1.0
 30
0.0
  9
$PUCSORTHOREF
  2

  9
$PUCSORTHOVIEW
 70
     0
  9
$PUCSORGTOP
 10
0.0
 20
0.0
 30
0.0
  9
$PUCSORGBOTTOM
 10
0.0
 20
0.0
 30
0.0
  9
$PUCSORGLEFT
 10
0.0
 20
0.0
 30
0.0
  9
$PUCSORGRIGHT
 10
0.0
 20
0.0
 30
0.0
  9
$PUCSORGFRONT
 10
0.0
 20
0.0
 30
0.0
  9
$PUCSORGBACK
 10
0.0
 20
0.0
 30
0.0
  9
$USERI1
 70
     0
  9
$USERI2
 70
     0
  9
$USERI3
 70
     0
  9
$USERI4
 70
     0
  9
$USERI5
 70
     0
  9
$USERR1
 40
0.0
  9
$USERR2
 40
0.0
  9
$USERR3
 40
0.0
  9
$USERR4
 40
0.0
  9
$USERR5
 40
0.0
  9
$WORLDVIEW
 70
     1
  9
$SHADEDGE
 70
     3
  9
$SHADEDIF
 70
    70
  9
$TILEMODE
 70
     1
  9
$MAXACTVP
 70
    64
  9
$PINSBASE
 10
0.0
 20
0.0
 30
0.0
  9
$PLIMCHECK
 70
     0
  9
$PEXTMIN
 10
1.0000000000E+20
 20
1.0000000000E+20
 30
1.0000000000E+20
  9
$PEXTMAX
 10
-1.0000000000E+20
 20
-1.0000000000E+20
 30
-1.0000000000E+20
  9
$PLIMMIN
 10
0.0
 20
0.0
  9
$PLIMMAX
 10
420.0
 20
297.0
  9
$UNITMODE
 70
     0
  9
$VISRETAIN
 70
     1
  9
$PLINEGEN
 70
     0
  9
$PSLTSCALE
 70
     1
  9
$TREEDEPTH
 70
  3020
  9
$CMLSTYLE
  2
Standard
  9
$CMLJUST
 70
     0
  9
$CMLSCALE
 40
20.0
  9
$PROXYGRAPHICS
 70
     1
  9
$MEASUREMENT
 70
     1
  9
$CELWEIGHT
370
    -1
  9
$ENDCAPS
280
     0
  9
$JOINSTYLE
280
     0
  9
$LWDISPLAY
290
     1
  9
$INSUNITS
 70
     4
  9
$HYPERLINKBASE
  1

  9
$STYLESHEET
  1

  9
$XEDIT
290
     1
  9
$CEPSNTYPE
380
     0
  9
$PSTYLEMODE
290
     1
  9
$FINGERPRINTGUID
  2
{16CF4484-F990-4735-A814-85150FA68758}
  9
$VERSIONGUID
  2
{FAEB1C32-E019-11D5-929B-00C0DF256EC4}
  9
$EXTNAMES
290
     1
  9
$PSVPSCALE
 40
0.0
  9
$OLESTARTUP
290
     0
  0
ENDSEC
  0
SECTION
  2
CLASSES
  0
CLASS
  1
ACDBDICTIONARYWDFLT
  2
AcDbDictionaryWithDefault
  3
ObjectDBX Classes
 90
        0
280
     0
281
     0
  0
CLASS
  1
VISUALSTYLE
  2
AcDbVisualStyle
  3
ObjectDBX Classes
 90
     4095
280
     0
281
     0
  0
CLASS
  1
MATERIAL
  2
AcDbMaterial
  3
ObjectDBX Classes
 90
     1153
280
     0
281
     0
  0
CLASS
  1
SCALE
  2
AcDbScale
  3
ObjectDBX Classes
 90
     1153
280
     0
281
     0
  0
CLASS
  1
TABLESTYLE
  2
AcDbTableStyle
  3
ObjectDBX Classes
 90
     4095
280
     0
281
     0
  0
CLASS
  1
MLEADERSTYLE
  2
AcDbMLeaderStyle
  3
ACDB_MLEADERSTYLE_CLASS
 90
     4095
280
     0
281
     0
  0
CLASS
  1
SUN
  2
AcDbSun
  3
SCENEOE
 90
     1153
280
     0
281
     0
  0
CLASS
  1
ACDBPLACEHOLDER
  2
AcDbPlaceHolder
  3
ObjectDBX Classes
 90
        0
280
     0
281
     0
  0
CLASS
  1
LAYOUT
  2
AcDbLayout
  3
ObjectDBX Classes
 90
        0
280
     0
281
     0
  0
ENDSEC
  0
SECTION
  2
TABLES
  0
TABLE
  2
VPORT
  5
8
330
0
100
AcDbSymbolTable
 70
     1
  0
VPORT
  5
29
330
8
100
AcDbSymbolTableRecord
100
AcDbViewportTableRecord
  2
*Active
 70
     0
 10
0.0
 20
0.0
 11
1.0
 21
1.0
 12
148.5
 22
105.0
 13
0.0
 23
0.0
 14
10.0
 24
10.0
 15
10.0
 25
10.0
 16
0.0
 26
0.0
 36
1.0
 17
0.0
 27
0.0
 37
0.0
 40
210.0
 41
1.4142857143
 42
50.0
 43
0.0
 44
0.0
 50
0.0
 51
0.0
 71
     0
 72
  2000
 73
     1
 74
     3
 75
     0
 76
     0
 77
     0
 78
     0
281
     0
 65
     1
110
0.0
120
0.0
130
0.0
111
1.0
121
0.0
131
0.0
112
0.0
122
1.0
132
0.0
 79
     0
146
0.0
  0
ENDTAB
  0
TABLE
  2
LTYPE
  5
5
330
0
100
AcDbSymbolTable
 70
     6
  0
LTYPE
  5
14
330
5
100
AcDbSymbolTableRecord
100
AcDbLinetypeTableRecord
  2
ByBlock
 70
     0
  3

 72
    65
 73
     0
 40
0.0
  0
LTYPE
  5
15
330
5
100
AcDbSymbolTableRecord
100
AcDbLinetypeTableRecord
  2
ByLayer
 70
     0
  3

 72
    65
 73
     0
 40
0.0
  0
LTYPE
  5
16
330
5
100
AcDbSymbolTableRecord
100
AcDbLinetypeTableRecord
  2
Continuous
 70
     0
  3
Solid line
 72
    65
 73
     0
 40
0.0
  0
LTYPE
  5
6E
330
5
100
AcDbSymbolTableRecord
100
AcDbLinetypeTableRecord
  2
HIDDEN
 70
     0
  3
Hidden __ __ __ __ __ __ __ __ __ __ __ __ __ __
 72
    65
 73
     2
 40
1.905
 49
1.27
 74
     0
 49
-0.635
 74
     0
  0
LTYPE
  5
6F
330
5
100
AcDbSymbolTableRecord
100
AcDbLinetypeTableRecord
  2
PHANTOM
 70
     0
  3
Phantom ______  __  __  ______  __  __  ______
 72
    65
 73
     6
 40
12.7
 49
6.35
 74
     0
 49
-1.27
 74
     0
 49
1.27
 74
     0
 49
-1.27
 74
     0
 49
1.27
 74
     0
 49
-1.27
 74
     0
  0
LTYPE
  5
70
330
5
100
AcDbSymbolTableRecord
100
AcDbLinetypeTableRecord
  2
CENTER
 70
     0
  3
Center ____ _ ____ _ ____ _ ____ _ ____ _ ____
 72
    65
 73
     4
 40
10.16
 49
6.35
 74
     0
 49
-1.27
 74
     0
 49
1.27
 74
     0
 49
-1.27
 74
     0
  0
LTYPE
  5
71
330
5
100
AcDbSymbolTableRecord
100
AcDbLinetypeTableRecord
  2
CENTERX2
 70
     0
  3
Center (2x) ________  __  ________  __  _____
 72
    65
 73
     4
 40
20.32
 49
12.7
 74
     0
 49
-2.54
 74
     0
 49
2.54
 74
     0
 49
-2.54
 74
     0
  0
LTYPE
  5
72
330
5
100
AcDbSymbolTableRecord
100
AcDbLinetypeTableRecord
  2
DOT2
 70
     0
  3
Dot (.5x) ........................................
 72
    65
 73
     2
 40
0.635
 49
0.0
 74
     0
 49
-0.635
 74
     0
  0
ENDTAB
  0
TABLE
  2
LAYER
  5
2
330
0
100
AcDbSymbolTable
 70
     5
  0
LAYER
  5
10
330
2
100
AcDbSymbolTableRecord
100
AcDbLayerTableRecord
  2
0
 70
     0
 62
     7
  6
Continuous
370
    -3
390
F
  0
LAYER
  5
73
330
2
100
AcDbSymbolTableRecord
100
AcDbLayerTableRecord
  2
FORMAT
 70
     0
 62
     7
  6
Continuous
370
    -3
390
F
  0
LAYER
  5
74
330
2
100
AcDbSymbolTableRecord
100
AcDbLayerTableRecord
  2
VERMASSUNG
 70
     0
 62
     7
  6
Continuous
370
    -3
390
F
  0
LAYER
  5
75
330
2
100
AcDbSymbolTableRecord
100
AcDbLayerTableRecord
  2
KOPF_DÜNN
 70
     0
 62
     7
  6
Continuous
370
    -3
390
F
  0
LAYER
  5
76
330
2
100
AcDbSymbolTableRecord
100
AcDbLayerTableRecord
  2
KOPF_DICK
 70
     0
 62
     7
  6
Continuous
370
    15
390
F
  0
ENDTAB
  0
TABLE
  2
STYLE
  5
3
330
0
100
AcDbSymbolTable
 70
     2
  0
STYLE
  5
11
330
3
100
AcDbSymbolTableRecord
100
AcDbTextStyleTableRecord
  2
Standard
 70
     0
 40
0.0
 41
1.0
 50
0.0
 71
     0
 42
2.0
  3
txt
  4

  0
STYLE
  5
77
330
3
100
AcDbSymbolTableRecord
100
AcDbTextStyleTableRecord
  2
SLDTEXTSTYLE0
 70
     0
 40
0.0
 41
0.7
 50
0.0
 71
     0
 42
2.0
  3
TXT
  4

  0
ENDTAB
  0
TABLE
  2
VIEW
  5
6
330
0
100
AcDbSymbolTable
 70
     0
  0
ENDTAB
  0
TABLE
  2
UCS
  5
7
330
0
100
AcDbSymbolTable
 70
     0
  0
ENDTAB
  0
TABLE
  2
APPID
  5
9
330
0
100
AcDbSymbolTable
 70
     1
  0
APPID
  5
12
330
9
100
AcDbSymbolTableRecord
100
AcDbRegAppTableRecord
  2
ACAD
 70
     0
  0
ENDTAB
  0
TABLE
  2
DIMSTYLE
  5
A
330
0
100
AcDbSymbolTable
 70
     2
100
AcDbDimStyleTable
  0
DIMSTYLE
105
27
330
A
100
AcDbSymbolTableRecord
100
AcDbDimStyleTableRecord
  2
ISO-25
 70
     0
 41
2.5
 42
0.625
 43
3.75
 44
1.25
 73
     0
 74
     0
 77
     1
 78
     8
140
2.5
141
2.5
143
0.0393700787
147
0.625
171
     3
172
     1
178
     0
271
     2
272
     2
274
     3
278
    44
283
     0
284
     8
340
11
  0
DIMSTYLE
105
1F0
102
{ACAD_REACTORS
330
1EF
330
1FC
330
206
330
210
330
21A
330
225
102
}
330
A
100
AcDbSymbolTableRecord
100
AcDbDimStyleTableRecord
  2
SLDDIMSTYLE0
 70
     0
 41
3.0
 44
0.0
 45
0.000000001
 73
     0
 74
     0
 77
     1
 78
    12
 79
     3
140
2.0
147
0.5
173
     1
178
     0
271
     2
272
     3
276
     2
284
    12
340
77
  0
ENDTAB
  0
TABLE
  2
BLOCK_RECORD
  5
1
330
0
100
AcDbSymbolTable
 70
     7
  0
BLOCK_RECORD
  5
1F
330
1
100
AcDbSymbolTableRecord
100
AcDbBlockTableRecord
  2
*Model_Space
340
22
  0
BLOCK_RECORD
  5
1B
330
1
100
AcDbSymbolTableRecord
100
AcDbBlockTableRecord
  2
*Paper_Space
340
1E
  0
BLOCK_RECORD
  5
23
330
1
100
AcDbSymbolTableRecord
100
AcDbBlockTableRecord
  2
*Paper_Space0
340
26
  0
BLOCK_RECORD
  5
1F1
330
1
100
AcDbSymbolTableRecord
100
AcDbBlockTableRecord
  2
_D
340
0
  0
BLOCK_RECORD
  5
1FD
330
1
100
AcDbSymbolTableRecord
100
AcDbBlockTableRecord
  2
_D_1
340
0
  0
BLOCK_RECORD
  5
207
330
1
100
AcDbSymbolTableRecord
100
AcDbBlockTableRecord
  2
_D_2
340
0
  0
BLOCK_RECORD
  5
211
330
1
100
AcDbSymbolTableRecord
100
AcDbBlockTableRecord
  2
_D_3
340
0
  0
BLOCK_RECORD
  5
21B
330
1
100
AcDbSymbolTableRecord
100
AcDbBlockTableRecord
  2
_D_4
340
0
  0
BLOCK_RECORD
  5
226
330
1
100
AcDbSymbolTableRecord
100
AcDbBlockTableRecord
  2
_D_5
340
0
  0
ENDTAB
  0
ENDSEC
  0
SECTION
  2
BLOCKS
  0
BLOCK
  5
20
330
1F
100
AcDbEntity
  8
0
100
AcDbBlockBegin
  2
*Model_Space
 70
     0
 10
0.0
 20
0.0
 30
0.0
  3
*Model_Space
  1

  0
ENDBLK
  5
21
330
1F
100
AcDbEntity
  8
0
100
AcDbBlockEnd
  0
BLOCK
  5
1C
330
1B
100
AcDbEntity
 67
     1
  8
0
100
AcDbBlockBegin
  2
*Paper_Space
 70
     0
 10
0.0
 20
0.0
 30
0.0
  3
*Paper_Space
  1

  0
ENDBLK
  5
1D
330
1B
100
AcDbEntity
 67
     1
  8
0
100
AcDbBlockEnd
  0
BLOCK
  5
24
330
23
100
AcDbEntity
  8
0
100
AcDbBlockBegin
  2
*Paper_Space0
 70
     0
 10
0.0
 20
0.0
 30
0.0
  3
*Paper_Space0
  1

  0
ENDBLK
  5
25
330
23
100
AcDbEntity
  8
0
100
AcDbBlockEnd
  0
BLOCK
  5
1F2
330
1F1
100
AcDbEntity
  8
0
100
AcDbBlockBegin
  2
_D
 70
     0
 10
0.0
 20
0.0
 30
0.0
  3
_D
  1

  0
SOLID
  5
1F4
330
1F1
100
AcDbEntity
  8
VERMASSUNG
100
AcDbTrace
 10
35.2578904088
 20
71.1288860816
 30
0.0
 11
35.7078904088
 21
74.1288860816
 31
0.0
 12
34.8078904088
 22
74.1288860816
 32
0.0
 13
34.8078904088
 23
74.1288860816
 33
0.0
  0
SOLID
  5
1F5
330
1F1
100
AcDbEntity
  8
VERMASSUNG
100
AcDbTrace
 10
35.2578904088
 20
168.5788860816
 30
0.0
 11
34.8078904088
 21
165.5788860816
 31
0.0
 12
35.7078904088
 22
165.5788860816
 32
0.0
 13
35.7078904088
 23
165.5788860816
 33
0.0
  0
LINE
  5
1F6
330
1F1
100
AcDbEntity
  8
VERMASSUNG
100
AcDbLine
 10
163.7655710388
 20
71.1288860816
 30
0.0
 11
34.2578904088
 21
71.1288860816
 31
0.0
  0
LINE
  5
1F7
330
1F1
100
AcDbEntity
  8
VERMASSUNG
100
AcDbLine
 10
163.7655710388
 20
168.5788860816
 30
0.0
 11
34.2578904088
 21
168.5788860816
 31
0.0
  0
LINE
  5
1F8
330
1F1
100
AcDbEntity
  8
VERMASSUNG
100
AcDbLine
 10
35.2578904088
 20
71.1288860816
 30
0.0
 11
35.2578904088
 21
168.5788860816
 31
0.0
  0
MTEXT
  5
1F9
330
1F1
100
AcDbEntity
  8
VERMASSUNG
100
AcDbMText
 10
32.4797551525
 20
110.3494504482
 30
0.0
 40
2.0
 41
0.0
 71
     1
 72
     1
  1
ISO 50
  7
SLDTEXTSTYLE0
 11
3.391901413832837E-15
 21
1.0
 31
0.0
 73
     1
 44
1.0
  0
MTEXT
  5
1FA
330
1F1
100
AcDbEntity
  8
VERMASSUNG
100
AcDbMText
 10
32.6797551038
 20
119.3494500608
 30
0.0
 40
2.0
 41
0.0
 71
     1
 72
     1
  1
%%c
  7
SLDTEXTSTYLE0
 11
3.391901413832837E-15
 21
1.0
 31
0.0
 73
     1
 44
1.0
  0
MTEXT
  5
1FB
330
1F1
100
AcDbEntity
  8
VERMASSUNG
100
AcDbMText
 10
32.6797548128
 20
122.9587933936
 30
0.0
 40
2.0
 41
0.0
 71
     1
 72
     1
  1
97.45
  7
SLDTEXTSTYLE0
 11
3.391901413832837E-15
 21
1.0
 31
0.0
 73
     1
 44
1.0
  0
ENDBLK
  5
1F3
330
1F1
100
AcDbEntity
  8
0
100
AcDbBlockEnd
  0
BLOCK
  5
1FE
330
1FD
100
AcDbEntity
  8
0
100
AcDbBlockBegin
  2
_D_1
 70
     0
 10
0.0
 20
0.0
 30
0.0
  3
_D_1
  1

  0
SOLID
  5
200
330
1FD
100
AcDbEntity
  8
VERMASSUNG
100
AcDbTrace
 10
43.7155710388
 20
186.1869483096
 30
0.0
 11
46.7155710388
 21
185.7369483096
 31
0.0
 12
46.7155710388
 22
186.6369483096
 32
0.0
 13
46.7155710388
 23
186.6369483096
 33
0.0
  0
SOLID
  5
201
330
1FD
100
AcDbEntity
  8
VERMASSUNG
100
AcDbTrace
 10
245.3155710388
 20
186.1869483096
 30
0.0
 11
242.3155710388
 21
186.6369483096
 31
0.0
 12
242.3155710388
 22
185.7369483096
 32
0.0
 13
242.3155710388
 23
185.7369483096
 33
0.0
  0
LINE
  5
202
330
1FD
100
AcDbEntity
  8
VERMASSUNG
100
AcDbLine
 10
43.7155710388
 20
138.232730609
 30
0.0
 11
43.7155710388
 21
187.1869483096
 31
0.0
  0
LINE
  5
203
330
1FD
100
AcDbEntity
  8
VERMASSUNG
100
AcDbLine
 10
245.3155710388
 20
150.7538860816
 30
0.0
 11
245.3155710388
 21
187.1869483096
 31
0.0
  0
LINE
  5
204
330
1FD
100
AcDbEntity
  8
VERMASSUNG
100
AcDbLine
 10
43.7155710388
 20
186.1869483096
 30
0.0
 11
245.3155710388
 21
186.1869483096
 31
0.0
  0
MTEXT
  5
205
330
1FD
100
AcDbEntity
  8
VERMASSUNG
100
AcDbMText
 10
141.6155710757
 20
188.7650839055
 30
0.0
 40
2.0
 41
0.0
 71
     1
 72
     1
  1
201.6
  7
SLDTEXTSTYLE0
 73
     1
 44
1.0
  0
ENDBLK
  5
1FF
330
1FD
100
AcDbEntity
  8
0
100
AcDbBlockEnd
  0
BLOCK
  5
208
330
207
100
AcDbEntity
  8
0
100
AcDbBlockBegin
  2
_D_2
 70
     0
 10
0.0
 20
0.0
 30
0.0
  3
_D_2
  1

  0
SOLID
  5
20A
330
207
100
AcDbEntity
  8
VERMASSUNG
100
AcDbTrace
 10
145.3155710388
 20
180.1869483096
 30
0.0
 11
148.3155710388
 21
179.7369483096
 31
0.0
 12
148.3155710388
 22
180.6369483096
 32
0.0
 13
148.3155710388
 23
180.6369483096
 33
0.0
  0
SOLID
  5
20B
330
207
100
AcDbEntity
  8
VERMASSUNG
100
AcDbTrace
 10
245.3155710388
 20
180.1869483096
 30
0.0
 11
242.3155710388
 21
180.6369483096
 31
0.0
 12
242.3155710388
 22
179.7369483096
 32
0.0
 13
242.3155710388
 23
179.7369483096
 33
0.0
  0
LINE
  5
20C
330
207
100
AcDbEntity
  8
VERMASSUNG
100
AcDbLine
 10
145.3155710388
 20
154.7788860816
 30
0.0
 11
145.3155710388
 21
181.1869483096
 31
0.0
  0
LINE
  5
20D
330
207
100
AcDbEntity
  8
VERMASSUNG
100
AcDbLine
 10
245.3155710388
 20
150.7538860816
 30
0.0
 11
245.3155710388
 21
181.1869483096
 31
0.0
  0
LINE
  5
20E
330
207
100
AcDbEntity
  8
VERMASSUNG
100
AcDbLine
 10
145.3155710388
 20
180.1869483096
 30
0.0
 11
245.3155710388
 21
180.1869483096
 31
0.0
  0
MTEXT
  5
20F
330
207
100
AcDbEntity
  8
VERMASSUNG
100
AcDbMText
 10
193.4155710068
 20
182.7650839055
 30
0.0
 40
2.0
 41
0.0
 71
     1
 72
     1
  1
100
  7
SLDTEXTSTYLE0
 73
     1
 44
1.0
  0
ENDBLK
  5
209
330
207
100
AcDbEntity
  8
0
100
AcDbBlockEnd
  0
BLOCK
  5
212
330
211
100
AcDbEntity
  8
0
100
AcDbBlockBegin
  2
_D_3
 70
     0
 10
0.0
 20
0.0
 30
0.0
  3
_D_3
  1

  0
SOLID
  5
214
330
211
100
AcDbEntity
  8
VERMASSUNG
100
AcDbTrace
 10
164.3655710388
 20
174.1869483096
 30
0.0
 11
167.3655710388
 21
173.7369483096
 31
0.0
 12
167.3655710388
 22
174.6369483096
 32
0.0
 13
167.3655710388
 23
174.6369483096
 33
0.0
  0
SOLID
  5
215
330
211
100
AcDbEntity
  8
VERMASSUNG
100
AcDbTrace
 10
245.3155710388
 20
174.1869483096
 30
0.0
 11
242.3155710388
 21
174.6369483096
 31
0.0
 12
242.3155710388
 22
173.7369483096
 32
0.0
 13
242.3155710388
 23
173.7369483096
 33
0.0
  0
LINE
  5
216
330
211
100
AcDbEntity
  8
VERMASSUNG
100
AcDbLine
 10
164.3655710388
 20
166.1488730348
 30
0.0
 11
164.3655710388
 21
175.1869483096
 31
0.0
  0
LINE
  5
217
330
211
100
AcDbEntity
  8
VERMASSUNG
100
AcDbLine
 10
245.3155710388
 20
150.7538860816
 30
0.0
 11
245.3155710388
 21
175.1869483096
 31
0.0
  0
LINE
  5
218
330
211
100
AcDbEntity
  8
VERMASSUNG
100
AcDbLine
 10
164.3655710388
 20
174.1869483096
 30
0.0
 11
245.3155710388
 21
174.1869483096
 31
0.0
  0
MTEXT
  5
219
330
211
100
AcDbEntity
  8
VERMASSUNG
100
AcDbMText
 10
201.7405711826
 20
176.7650839055
 30
0.0
 40
2.0
 41
0.0
 71
     1
 72
     1
  1
80.95
  7
SLDTEXTSTYLE0
 73
     1
 44
1.0
  0
ENDBLK
  5
213
330
211
100
AcDbEntity
  8
0
100
AcDbBlockEnd
  0
BLOCK
  5
21C
330
21B
100
AcDbEntity
  8
0
100
AcDbBlockBegin
  2
_D_4
 70
     0
 10
0.0
 20
0.0
 30
0.0
  3
_D_4
  1

  0
SOLID
  5
21E
330
21B
100
AcDbEntity
  8
VERMASSUNG
100
AcDbTrace
 10
253.3571235694
 20
137.8538860816
 30
0.0
 11
252.9071235694
 21
134.8538860816
 31
0.0
 12
253.8071235694
 22
134.8538860816
 32
0.0
 13
253.8071235694
 23
134.8538860816
 33
0.0
  0
SOLID
  5
21F
330
21B
100
AcDbEntity
  8
VERMASSUNG
100
AcDbTrace
 10
253.3571235694
 20
101.8538860816
 30
0.0
 11
253.8071235694
 21
104.8538860816
 31
0.0
 12
252.9071235694
 22
104.8538860816
 32
0.0
 13
252.9071235694
 23
104.8538860816
 33
0.0
  0
LINE
  5
220
330
21B
100
AcDbEntity
  8
VERMASSUNG
100
AcDbLine
 10
244.3155710388
 20
137.8538860816
 30
0.0
 11
254.3571235694
 21
137.8538860816
 31
0.0
  0
LINE
  5
221
330
21B
100
AcDbEntity
  8
VERMASSUNG
100
AcDbLine
 10
244.3155710388
 20
101.8538860816
 30
0.0
 11
254.3571235694
 21
101.8538860816
 31
0.0
  0
LINE
  5
222
330
21B
100
AcDbEntity
  8
VERMASSUNG
100
AcDbLine
 10
253.3571235694
 20
137.8538860816
 30
0.0
 11
253.3571235694
 21
101.8538860816
 31
0.0
  0
MTEXT
  5
223
330
21B
100
AcDbEntity
  8
VERMASSUNG
100
AcDbMText
 10
250.7789882645
 20
116.6488861244
 30
0.0
 40
2.0
 41
0.0
 71
     1
 72
     1
  1
%%c
  7
SLDTEXTSTYLE0
 11
-7.044195017643634E-15
 21
1.0
 31
0.0
 73
     1
 44
1.0
  0
MTEXT
  5
224
330
21B
100
AcDbEntity
  8
VERMASSUNG
100
AcDbMText
 10
250.5789883132
 20
120.2588861387
 30
0.0
 40
2.0
 41
0.0
 71
     1
 72
     1
  1
36
  7
SLDTEXTSTYLE0
 11
-7.044195017643634E-15
 21
1.0
 31
0.0
 73
     1
 44
1.0
  0
ENDBLK
  5
21D
330
21B
100
AcDbEntity
  8
0
100
AcDbBlockEnd
  0
BLOCK
  5
227
330
226
100
AcDbEntity
  8
0
100
AcDbBlockBegin
  2
_D_5
 70
     0
 10
0.0
 20
0.0
 30
0.0
  3
_D_5
  1

  0
SOLID
  5
229
330
226
100
AcDbEntity
  8
VERMASSUNG
100
AcDbTrace
 10
258.6908368856
 20
151.3538860816
 30
0.0
 11
258.2408368856
 21
148.3538860816
 31
0.0
 12
259.1408368856
 22
148.3538860816
 32
0.0
 13
259.1408368856
 23
148.3538860816
 33
0.0
  0
SOLID
  5
22A
330
226
100
AcDbEntity
  8
VERMASSUNG
100
AcDbTrace
 10
258.6908368856
 20
88.3538860816
 30
0.0
 11
259.1408368856
 21
91.3538860816
 31
0.0
 12
258.2408368856
 22
91.3538860816
 32
0.0
 13
258.2408368856
 23
91.3538860816
 33
0.0
  0
LINE
  5
22B
330
226
100
AcDbEntity
  8
VERMASSUNG
100
AcDbLine
 10
244.7155710388
 20
151.3538860816
 30
0.0
 11
259.6908368856
 21
151.3538860816
 31
0.0
  0
LINE
  5
22C
330
226
100
AcDbEntity
  8
VERMASSUNG
100
AcDbLine
 10
244.7155710388
 20
88.3538860816
 30
0.0
 11
259.6908368856
 21
88.3538860816
 31
0.0
  0
LINE
  5
22D
330
226
100
AcDbEntity
  8
VERMASSUNG
100
AcDbLine
 10
258.6908368856
 20
151.3538860816
 30
0.0
 11
258.6908368856
 21
88.3538860816
 31
0.0
  0
MTEXT
  5
22E
330
226
100
AcDbEntity
  8
VERMASSUNG
100
AcDbMText
 10
255.9127016293
 20
114.7488860923
 30
0.0
 40
2.0
 41
0.0
 71
     1
 72
     1
  1
WH
  7
SLDTEXTSTYLE0
 11
-7.044195017643634E-15
 21
1.0
 31
0.0
 73
     1
 44
1.0
  0
MTEXT
  5
22F
330
226
100
AcDbEntity
  8
VERMASSUNG
100
AcDbMText
 10
256.1127015806
 20
118.5488861564
 30
0.0
 40
2.0
 41
0.0
 71
     1
 72
     1
  1
%%c
  7
SLDTEXTSTYLE0
 11
-7.044195017643634E-15
 21
1.0
 31
0.0
 73
     1
 44
1.0
  0
MTEXT
  5
230
330
226
100
AcDbEntity
  8
VERMASSUNG
100
AcDbMText
 10
255.9127016293
 20
122.1588861707
 30
0.0
 40
2.0
 41
0.0
 71
     1
 72
     1
  1
63
  7
SLDTEXTSTYLE0
 11
-7.044195017643634E-15
 21
1.0
 31
0.0
 73
     1
 44
1.0
  0
ENDBLK
  5
228
330
226
100
AcDbEntity
  8
0
100
AcDbBlockEnd
  0
ENDSEC
  0
SECTION
  2
ENTITIES
  0
MTEXT
  5
78
330
1F
100
AcDbEntity
  8
KOPF_DÜNN
100
AcDbMText
 10
13.8892156294
 20
23.8442973028
 30
0.0
 40
3.0
 41
0.0
 71
     1
 72
     1
  1
A14.450.063.100
  7
SLDTEXTSTYLE0
 73
     1
 44
1.0
  0
MTEXT
  5
79
330
1F
100
AcDbEntity
  8
VERMASSUNG
100
AcDbMText
 10
13.9329988022
 20
28.8834360957
 30
0.0
 40
3.0
 41
0.0
 71
     1
 72
     1
  1
Aufnahme_Master shank WH60
  7
SLDTEXTSTYLE0
 73
     1
 44
1.0
  0
MTEXT
  5
7A
330
1F
100
AcDbEntity
  8
VERMASSUNG
100
AcDbMText
 10
98.8601118557
 20
13.8365368761
 30
0.0
 40
2.0
 41
0.0
 71
     1
 72
     1
  1
Datum: 17.11.2011
  7
SLDTEXTSTYLE0
 73
     1
 44
1.0
  0
MTEXT
  5
7B
330
1F
100
AcDbEntity
  8
VERMASSUNG
100
AcDbMText
 10
13.933048693
 20
18.0482802738
 30
0.0
 40
2.0
 41
0.0
 71
     1
 72
     1
  1
DIN 69871 AD/B
  7
SLDTEXTSTYLE0
 73
     1
 44
1.0
  0
MTEXT
  5
7C
330
1F
100
AcDbEntity
  8
VERMASSUNG
100
AcDbMText
 10
13.9808475933
 20
13.9090974274
 30
0.0
 40
2.0
 41
0.0
 71
     1
 72
     1
  1
Gewicht: 4242g
  7
SLDTEXTSTYLE0
 73
     1
 44
1.0
  0
ARC
  5
7D
330
1F
100
AcDbEntity
  8
0
  6
Continuous
 62
     7
370
    15
100
AcDbCircle
 10
147.9155710388
 20
84.3288860816
 30
0.0
 40
0.6000000000000227
100
AcDbArc
 50
0.0
 51
90.0
  0
ARC
  5
7E
330
1F
100
AcDbEntity
  8
0
  6
Continuous
 62
     7
370
    15
100
AcDbCircle
 10
147.9155710388
 20
155.3788860816
 30
0.0
 40
0.6000000000000227
100
AcDbArc
 50
270.0
 51
0.0
  0
LINE
  5
7F
330
1F
100
AcDbEntity
  8
0
  6
Continuous
 62
     7
370
    15
100
AcDbLine
 10
145.3155710388
 20
154.778884961
 30
0.0
 11
45.4269557286
 21
140.2117966253
 31
0.0
  0
LINE
  5
80
330
1F
100
AcDbEntity
  8
0
  6
Continuous
 62
     7
370
    15
100
AcDbLine
 10
45.4269557286
 20
99.4959755379
 30
0.0
 11
145.3155710388
 21
84.9288872022
 31
0.0
  0
LINE
  5
81
330
1F
100
AcDbEntity
  8
0
  6
Continuous
 62
     7
370
    15
100
AcDbLine
 10
145.3155710388
 20
84.9288872022
 30
0.0
 11
147.9155710459
 21
84.9288872022
 31
0.0
  0
LINE
  5
82
330
1F
100
AcDbEntity
  8
0
  6
Continuous
 62
     7
370
    15
100
AcDbLine
 10
147.9155710459
 20
154.778884961
 30
0.0
 11
145.3155710388
 21
154.778884961
 31
0.0
  0
ARC
  5
83
330
1F
100
AcDbEntity
  8
0
  6
Continuous
 62
     7
370
    15
100
AcDbCircle
 10
167.3655710388
 20
85.3538860816
 30
0.0
 40
3.0
100
AcDbArc
 50
90.0
 51
180.0
  0
ARC
  5
84
330
1F
100
AcDbEntity
  8
0
  6
Continuous
 62
     7
370
    15
100
AcDbCircle
 10
167.3655710388
 20
154.3538860816
 30
0.0
 40
3.0
100
AcDbArc
 50
180.0
 51
270.0
  0
LINE
  5
85
330
1F
100
AcDbEntity
  8
0
  6
Continuous
 62
     7
370
    15
100
AcDbLine
 10
244.7155698229
 20
88.3538855749
 30
0.0
 11
245.3155725289
 21
88.9538864184
 31
0.0
  0
LINE
  5
86
330
1F
100
AcDbEntity
  8
0
  6
Continuous
 62
     7
370
    15
100
AcDbLine
 10
245.3155725289
 20
150.7538857448
 30
0.0
 11
244.7155698229
 21
151.3538865882
 31
0.0
  0
LINE
  5
87
330
1F
100
AcDbEntity
  8
0
  6
Continuous
 62
     7
370
    15
100
AcDbLine
 10
217.5482272197
 20
151.3538865882
 30
0.0
 11
167.365571766
 21
151.3538865882
 31
0.0
  0
LINE
  5
88
330
1F
100
AcDbEntity
  8
0
  6
Continuous
 62
     7
370
    15
100
AcDbLine
 10
244.7155698229
 20
151.3538865882
 30
0.0
 11
236.9066162992
 21
151.3538865882
 31
0.0
  0
LINE
  5
89
330
1F
100
AcDbEntity
  8
0
  6
Continuous
 62
     7
370
    15
100
AcDbLine
 10
167.365571766
 20
88.3538855749
 30
0.0
 11
244.7155698229
 21
88.3538855749
 31
0.0
  0
ARC
  5
8A
330
1F
100
AcDbEntity
  8
0
  6
Continuous
 62
     7
370
    15
100
AcDbCircle
 10
45.7155710388
 20
101.4750415542
 30
0.0
 40
1.999999999999993
100
AcDbArc
 50
180.0
 51
261.7028550302
  0
ARC
  5
8B
330
1F
100
AcDbEntity
  8
0
  6
Continuous
 62
     7
370
    15
100
AcDbCircle
 10
45.7155710388
 20
138.232730609
 30
0.0
 40
1.999999999999993
100
AcDbArc
 50
98.2971449698
 51
180.0
  0
LINE
  5
8C
330
1F
100
AcDbEntity
  8
0
  6
Continuous
 62
     7
370
    15
100
AcDbLine
 10
234.7407772232
 20
150.8786773819
 30
0.0
 11
234.2655717421
 21
151.3538865882
 31
0.0
  0
LINE
  5
8D
330
1F
100
AcDbEntity
  8
0
  6
Continuous
 62
     7
370
    15
100
AcDbLine
 10
220.2655731727
 20
151.3538865882
 30
0.0
 11
219.7894289184
 21
150.877747922
 31
0.0
  0
ARC
  5
8E
330
1F
100
AcDbEntity
  8
0
  6
Continuous
 62
     7
370
    15
100
AcDbCircle
 10
159.5155710388
 20
105.3881441196
 30
0.0
 40
1.999999999999999
100
AcDbArc
 50
192.2156859341
 51
340.0106787784
  0
LINE
  5
8F
330
1F
100
AcDbEntity
  8
0
  6
Continuous
 62
     7
370
    15
100
AcDbLine
 10
159.6487325642
 20
105.5567388001
 30
0.0
 11
159.6487325642
 21
149.7038865972
 31
0.0
  0
LINE
  5
90
330
1F
100
AcDbEntity
  8
0
  6
Continuous
 62
     7
370
    15
100
AcDbLine
 10
163.7655704308
 20
149.7038865972
 30
0.0
 11
159.6487325642
 21
149.7038865972
 31
0.0
  0
LINE
  5
91
330
1F
100
AcDbEntity
  8
0
  6
Continuous
 62
     7
370
    15
100
AcDbLine
 10
159.6487325642
 20
73.1246268886
 30
0.0
 11
163.7655704308
 21
73.1246268886
 31
0.0
  0
LINE
  5
92
330
1F
100
AcDbEntity
  8
0
  6
Continuous
 62
     7
370
    15
100
AcDbLine
 10
159.6487325642
 20
73.1246268886
 30
0.0
 11
159.6487325642
 21
100.8649452168
 31
0.0
  0
SPLINE
  5
93
330
1F
100
AcDbEntity
  8
0
  6
Continuous
 62
     7
370
    15
100
AcDbSpline
210
0.0
220
0.0
230
1.0
 70
     8
 71
     3
 72
    34
 73
    30
 74
     0
 42
0.000000001
 43
0.00000001
 40
0.0
 40
0.0
 40
0.0
 40
0.0
 40
0.0624999999999989
 40
0.0624999999999989
 40
0.1249999999999978
 40
0.1249999999999978
 40
0.1874999999999968
 40
0.1874999999999968
 40
0.2499999999999962
 40
0.2499999999999962
 40
0.3124999999999957
 40
0.3124999999999957
 40
0.3749999999999952
 40
0.3749999999999952
 40
0.499999999999995
 40
0.499999999999995
 40
0.6249999999999948
 40
0.6249999999999948
 40
0.6874999999999954
 40
0.6874999999999954
 40
0.749999999999996
 40
0.749999999999996
 40
0.8124999999999966
 40
0.8124999999999966
 40
0.8749999999999977
 40
0.8749999999999977
 40
0.9374999999999989
 40
0.9374999999999989
 40
1.0
 40
1.0
 40
1.0
 40
1.0
 10
159.6487325462714
 20
100.8649456935876
 30
0.0
 10
159.8081243740593
 20
100.8727857895104
 30
0.0
 10
159.9641268575029
 20
100.8944444376008
 30
0.0
 10
160.2696363735801
 20
100.9642926650936
 30
0.0
 10
160.4205307085924
 20
101.0131183674219
 30
0.0
 10
160.7084300532832
 20
101.1360423208292
 30
0.0
 10
160.8443764562429
 20
101.2093498289635
 30
0.0
 10
161.1005590718349
 20
101.3793604527349
 30
0.0
 10
161.221741359594
 20
101.4772342449363
 30
0.0
 10
161.4388874314668
 20
101.6898184203683
 30
0.0
 10
161.5358493044271
 20
101.8048643588979
 30
0.0
 10
161.7064117402527
 20
102.052725479018
 30
0.0
 10
161.7796517934646
 20
102.1857589760836
 30
0.0
 10
161.9545322502134
 20
102.5952669922138
 30
0.0
 10
162.0155702111894
 20
102.8932276419888
 30
0.0
 10
162.0155718664125
 20
103.4846691978632
 30
0.0
 10
161.9545372568262
 20
103.7848427478398
 30
0.0
 10
161.7796474894243
 20
104.2000740281076
 30
0.0
 10
161.7064037839999
 20
104.3354291463544
 30
0.0
 10
161.5358430682632
 20
104.5883284777411
 30
0.0
 10
161.4388793526697
 20
104.7060937553488
 30
0.0
 10
161.2217190240825
 20
104.9242240507175
 30
0.0
 10
161.1005377653957
 20
105.0249273758644
 30
0.0
 10
160.844367538457
 20
105.2001710686977
 30
0.0
 10
160.7084241887943
 20
105.2759160377883
 30
0.0
 10
160.4205214856112
 20
105.4030844130905
 30
0.0
 10
160.2696312896944
 20
105.453685685418
 30
0.0
 10
159.9641257859888
 20
105.5261147851659
 30
0.0
 10
159.8081243877253
 20
105.5486005565628
 30
0.0
 10
159.6487325462714
 20
105.5567390164577
 30
0.0
  0
SPLINE
  5
94
330
1F
100
AcDbEntity
  8
0
  6
Continuous
 62
     7
370
    15
100
AcDbSpline
210
0.0
220
0.0
230
1.0
 70
     8
 71
     3
 72
     8
 73
     4
 74
     0
 42
0.000000001
 43
0.00000001
 40
0.0
 40
0.0
 40
0.0
 40
0.0
 40
1.0
 40
1.0
 40
1.0
 40
1.0
 10
154.5055710388096
 20
75.23414667275901
 30
0.0
 10
154.215842592785
 20
74.71192666259549
 30
0.0
 10
153.9258174425673
 20
74.18987328033552
 30
0.0
 10
153.6355232083055
 20
73.66797101461242
 30
0.0
  0
SPLINE
  5
95
330
1F
100
AcDbEntity
  8
0
  6
Continuous
 62
     7
370
    15
100
AcDbSpline
210
0.0
220
0.0
230
1.0
 70
     8
 71
     3
 72
     8
 73
     4
 74
     0
 42
0.000000001
 43
0.00000001
 40
0.0
 40
0.0
 40
0.0
 40
0.0
 40
0.0011862984959113
 40
0.0011862984959113
 40
0.0011862984959113
 40
0.0011862984959113
 10
153.1824095313476
 20
73.12462674024277
 30
0.0
 10
153.3344342932185
 20
73.30553858986077
 30
0.0
 10
153.4854917384343
 20
73.48665092030163
 30
0.0
 10
153.6355232083055
 20
73.66797101461242
 30
0.0
  0
LINE
  5
96
330
1F
100
AcDbEntity
  8
0
  6
Continuous
 62
     7
370
    15
100
AcDbLine
 10
153.1824099857
 20
73.1246268886
 30
0.0
 11
153.1824099857
 21
149.7038865972
 31
0.0
  0
SPLINE
  5
97
330
1F
100
AcDbEntity
  8
0
  6
Continuous
 62
     7
370
    15
100
AcDbSpline
210
0.0
220
0.0
230
1.0
 70
    24
 71
     3
 72
     8
 73
     4
 74
     0
 42
0.000000001
 43
0.00000001
 40
0.0
 40
0.0
 40
0.0
 40
0.0
 40
1.0
 40
1.0
 40
1.0
 40
1.0
 10
154.5055710388096
 20
149.7038860815888
 30
0.0
 10
154.0703709341059
 20
149.7038860815888
 30
0.0
 10
153.629011251367
 20
149.7038860815888
 30
0.0
 10
153.1824095313476
 20
149.7038860815888
 30
0.0
  0
LINE
  5
98
330
1F
100
AcDbEntity
  8
0
  6
Continuous
 62
     7
370
    15
100
AcDbLine
 10
154.5055707011
 20
75.234147026
 30
0.0
 11
154.5055707011
 21
149.7038865972
 31
0.0
  0
LINE
  5
99
330
1F
100
AcDbEntity
  8
0
  6
Continuous
 62
     7
370
    15
100
AcDbLine
 10
149.1155711029
 20
73.1246268886
 30
0.0
 11
153.1824099857
 21
73.1246268886
 31
0.0
  0
LINE
  5
9A
330
1F
100
AcDbEntity
  8
0
  6
Continuous
 62
     7
370
    15
100
AcDbLine
 10
153.1824099857
 20
149.7038865972
 30
0.0
 11
149.1155711029
 21
149.7038865972
 31
0.0
  0
SPLINE
  5
9B
330
1F
100
AcDbEntity
  8
0
  6
Continuous
 62
     7
370
    15
100
AcDbSpline
210
0.0
220
0.0
230
1.0
 70
     8
 71
     3
 72
    12
 73
     8
 74
     0
 42
0.000000001
 43
0.00000001
 40
0.0
 40
0.0
 40
0.0
 40
0.0
 40
0.2499999999999992
 40
0.2499999999999992
 40
0.4999999999999984
 40
0.4999999999999984
 40
1.0
 40
1.0
 40
1.0
 40
1.0
 10
163.7655710388096
 20
73.12462674024277
 30
0.0
 10
163.8615437919844
 20
73.12462674024277
 30
0.0
 10
163.9539717561389
 20
73.14090006435137
 30
0.0
 10
164.1104018562483
 20
73.1942737863478
 30
0.0
 10
164.1738802810212
 20
73.23040204388212
 30
0.0
 10
164.3221594418484
 20
73.3511032401614
 30
0.0
 10
164.3655710388096
 20
73.44495282652657
 30
0.0
 10
164.3655710388096
 20
73.53925710147378
 30
0.0
  0
SPLINE
  5
9C
330
1F
100
AcDbEntity
  8
0
  6
Continuous
 62
     7
370
    15
100
AcDbSpline
210
0.0
220
0.0
230
1.0
 70
    24
 71
     3
 72
    12
 73
     8
 74
     0
 42
0.000000001
 43
0.00000001
 40
0.0
 40
0.0
 40
0.0
 40
0.0
 40
0.5
 40
0.5
 40
0.75
 40
0.75
 40
1.0
 40
1.0
 40
1.0
 40
1.0
 10
164.3655710388096
 20
149.7038860815888
 30
0.0
 10
164.3655710388096
 20
149.7038860815888
 30
0.0
 10
164.3174403504242
 20
149.7038860815888
 30
0.0
 10
164.1635432946211
 20
149.7038860815888
 30
0.0
 10
164.0980787296143
 20
149.7038860815888
 30
0.0
 10
163.9445494090043
 20
149.7038860815888
 30
0.0
 10
163.8562007482684
 20
149.7038860815888
 30
0.0
 10
163.7655710388094
 20
149.7038860815888
 30
0.0
  0
LINE
  5
9D
330
1F
100
AcDbEntity
  8
0
  6
Continuous
 62
     7
370
    15
100
AcDbLine
 10
164.3655712742
 20
73.5392554242
 30
0.0
 11
164.3655712742
 21
149.7038865972
 31
0.0
  0
LINE
  5
9E
330
1F
100
AcDbEntity
  8
0
  6
Continuous
 62
     7
370
    15
100
AcDbLine
 10
158.3255709175
 20
106.0566243294
 30
0.0
 11
158.3255709175
 21
149.7038865972
 31
0.0
  0
SPLINE
  5
9F
330
1F
100
AcDbEntity
  8
0
  6
Continuous
 62
     7
370
    15
100
AcDbSpline
210
0.0
220
0.0
230
1.0
 70
    24
 71
     3
 72
     8
 73
     4
 74
     0
 42
0.000000001
 43
0.00000001
 40
0.0
 40
0.0
 40
0.0
 40
0.0
 40
1.0
 40
1.0
 40
1.0
 40
1.0
 10
159.6487325462715
 20
149.7038860815888
 30
0.0
 10
159.2021308262521
 20
149.7038860815888
 30
0.0
 10
158.7607711435132
 20
149.7038860815888
 30
0.0
 10
158.3255710388096
 20
149.7038860815888
 30
0.0
  0
SPLINE
  5
A0
330
1F
100
AcDbEntity
  8
0
  6
Continuous
 62
     7
370
    15
100
AcDbSpline
210
0.0
220
0.0
230
1.0
 70
     8
 71
     3
 72
    10
 73
     6
 74
     0
 42
0.000000001
 43
0.00000001
 40
0.0
 40
0.0
 40
0.0
 40
0.0
 40
0.5
 40
0.5
 40
1.0
 40
1.0
 40
1.0
 40
1.0
 10
159.6487325462715
 20
105.5567390164577
 30
0.0
 10
159.426005519398
 20
105.7002275167515
 30
0.0
 10
159.2043196321729
 20
105.8149482624843
 30
0.0
 10
158.763098794321
 20
105.9847086918422
 30
0.0
 10
158.5435401469221
 20
106.0401286862296
 30
0.0
 10
158.3255710388099
 20
106.0566240155992
 30
0.0
  0
SPLINE
  5
A1
330
1F
100
AcDbEntity
  8
0
  6
Continuous
 62
     7
370
    15
100
AcDbSpline
210
0.0
220
0.0
230
1.0
 70
     8
 71
     3
 72
    10
 73
     6
 74
     0
 42
0.000000001
 43
0.00000001
 40
0.0
 40
0.0
 40
0.0
 40
0.0
 40
0.5
 40
0.5
 40
1.0
 40
1.0
 40
1.0
 40
1.0
 10
148.7312310699636
 20
73.22043181439656
 30
0.0
 10
148.7798816385433
 20
73.19247482312916
 30
0.0
 10
148.8372668505027
 20
73.16853253810237
 30
0.0
 10
148.9679799586687
 20
73.13441407500662
 30
0.0
 10
149.0407194924073
 20
73.12462674024277
 30
0.0
 10
149.1155710388096
 20
73.12462674024277
 30
0.0
  0
SPLINE
  5
A2
330
1F
100
AcDbEntity
  8
0
  6
Continuous
 62
     7
370
    15
100
AcDbSpline
210
0.0
220
0.0
230
1.0
 70
     8
 71
     3
 72
    10
 73
     6
 74
     0
 42
0.000000001
 43
0.00000001
 40
0.0
 40
0.0
 40
0.0
 40
0.0
 40
0.5
 40
0.5
 40
1.0
 40
1.0
 40
1.0
 40
1.0
 10
148.7312310699636
 20
73.22043181439655
 30
0.0
 10
148.6730430633814
 20
73.28801554457537
 30
0.0
 10
148.6206005968551
 20
73.36849177921714
 30
0.0
 10
148.5422482896765
 20
73.55152740219987
 30
0.0
 10
148.5155710388095
 20
73.6574031049955
 30
0.0
 10
148.5155710388095
 20
73.7649164142161
 30
0.0
  0
LINE
  5
A3
330
1F
100
AcDbEntity
  8
0
  6
Continuous
 62
     7
370
    15
100
AcDbLine
 10
148.515570958
 20
73.764914884
 30
0.0
 11
148.515570958
 21
149.7038865972
 31
0.0
  0
SPLINE
  5
A4
330
1F
100
AcDbEntity
  8
0
  6
Continuous
 62
     7
370
    15
100
AcDbSpline
210
0.0
220
0.0
230
1.0
 70
    24
 71
     3
 72
    14
 73
    10
 74
     0
 42
0.000000001
 43
0.00000001
 40
0.0
 40
0.0
 40
0.0
 40
0.0
 40
0.25
 40
0.25
 40
0.5
 40
0.5
 40
0.75
 40
0.75
 40
1.0
 40
1.0
 40
1.0
 40
1.0
 10
149.1155710388096
 20
149.7038860815888
 30
0.0
 10
149.0265490864659
 20
149.7038860815888
 30
0.0
 10
148.9368623871923
 20
149.7038860815888
 30
0.0
 10
148.7831355616351
 20
149.7038860815888
 30
0.0
 10
148.7179306670083
 20
149.7038860815888
 30
0.0
 10
148.6153399728378
 20
149.7038860815888
 30
0.0
 10
148.577702518522
 20
149.7038860815888
 30
0.0
 10
148.5276106031368
 20
149.7038860815888
 30
0.0
 10
148.5155710388096
 20
149.7038860815888
 30
0.0
 10
148.5155710388096
 20
149.7038860815888
 30
0.0
  0
SPLINE
  5
A5
330
1F
100
AcDbEntity
  8
0
  6
Continuous
 62
     7
370
    15
100
AcDbSpline
210
0.0
220
0.0
230
1.0
 70
     8
 71
     3
 72
    14
 73
    10
 74
     0
 42
0.000000001
 43
0.00000001
 40
0.0
 40
0.0
 40
0.0
 40
0.0
 40
0.25
 40
0.25
 40
0.5
 40
0.5
 40
0.75
 40
0.75
 40
1.0
 40
1.0
 40
1.0
 40
1.0
 10
158.3255710388096
 20
106.1022382376117
 30
0.0
 10
158.3255710388096
 20
106.1442146194653
 30
0.0
 10
158.2959280848384
 20
106.1720650071062
 30
0.0
 10
158.1892732511083
 20
106.1855638823962
 30
0.0
 10
158.1129948565041
 20
106.1709483803585
 30
0.0
 10
157.9449433134376
 20
106.0988591761903
 30
0.0
 10
157.8538235068294
 20
106.0417215657076
 30
0.0
 10
157.6811463945767
 20
105.8994938651163
 30
0.0
 10
157.6002239550486
 20
105.8159300396042
 30
0.0
 10
157.5255710388096
 20
105.7225603677083
 30
0.0
  0
SPLINE
  5
A6
330
1F
100
AcDbEntity
  8
0
  6
Continuous
 62
     7
370
    15
100
AcDbSpline
210
0.0
220
0.0
230
1.0
 70
     8
 71
     3
 72
    10
 73
     6
 74
     0
 42
0.000000001
 43
0.00000001
 40
0.0
 40
0.0
 40
0.0
 40
0.0
 40
0.5
 40
0.5
 40
1.0
 40
1.0
 40
1.0
 40
1.0
 10
158.3255710388099
 20
101.9245828169677
 30
0.0
 10
158.5424618713306
 20
101.6875438775191
 30
0.0
 10
158.7616145079895
 20
101.4853736425257
 30
0.0
 10
159.2030990082584
 20
101.134621571007
 30
0.0
 10
159.4263014735318
 20
100.9859454786101
 30
0.0
 10
159.6487325462715
 20
100.8649456935876
 30
0.0
  0
LINE
  5
A7
330
1F
100
AcDbEntity
  8
0
  6
Continuous
 62
     7
370
    15
100
AcDbLine
 10
158.3255709175
 20
101.9701978701
 30
0.0
 11
158.3255709175
 21
101.9245835531
 31
0.0
  0
SPLINE
  5
A8
330
1F
100
AcDbEntity
  8
0
  6
Continuous
 62
     7
370
    15
100
AcDbSpline
210
0.0
220
0.0
230
1.0
 70
     8
 71
     3
 72
    16
 73
    12
 74
     0
 42
0.000000001
 43
0.00000001
 40
0.0
 40
0.0
 40
0.0
 40
0.0
 40
0.2500000000000014
 40
0.2500000000000014
 40
0.5000000000000028
 40
0.5000000000000028
 40
0.6250000000000047
 40
0.6250000000000047
 40
0.7500000000000067
 40
0.7500000000000067
 40
1.0
 40
1.0
 40
1.0
 40
1.0
 10
157.5255710388096
 20
102.8785965246547
 30
0.0
 10
157.5995789290318
 20
102.788248944469
 30
0.0
 10
157.6801969240207
 20
102.7002893716694
 30
0.0
 10
157.853964909525
 20
102.5239544476078
 30
0.0
 10
157.9447160404665
 20
102.4383472069418
 30
0.0
 10
158.0708291379279
 20
102.3171515109168
 30
0.0
 10
158.1104058987912
 20
102.278619931926
 30
0.0
 10
158.1828885554924
 20
102.2042239457966
 30
0.0
 10
158.2158165459612
 20
102.1682071578751
 30
0.0
 10
158.2956067159561
 20
102.0694544820581
 30
0.0
 10
158.3255710388096
 20
102.012690480276
 30
0.0
 10
158.3255710388096
 20
101.9701970389805
 30
0.0
  0
SPLINE
  5
A9
330
1F
100
AcDbEntity
  8
0
  6
Continuous
 62
     7
370
    15
100
AcDbSpline
210
0.0
220
0.0
230
1.0
 70
     8
 71
     3
 72
    16
 73
    12
 74
     0
 42
0.000000001
 43
0.00000001
 40
0.0
 40
0.0
 40
0.0
 40
0.0
 40
0.2500000000000009
 40
0.2500000000000009
 40
0.5000000000000018
 40
0.5000000000000018
 40
0.7500000000000011
 40
0.7500000000000011
 40
0.8750000000000006
 40
0.8750000000000006
 40
1.0
 40
1.0
 40
1.0
 40
1.0
 10
157.5255710388096
 20
105.7225603677083
 30
0.0
 10
157.3601569323294
 20
105.515674131683
 30
0.0
 10
157.2339596013538
 20
105.2898054338742
 30
0.0
 10
157.0595533030229
 20
104.8009361882613
 30
0.0
 10
157.0157232639261
 20
104.5491691349168
 30
0.0
 10
157.0154195909561
 20
104.0373898103344
 30
0.0
 10
157.0592764510164
 20
103.7863351012517
 30
0.0
 10
157.1891982102836
 20
103.4254865331096
 30
0.0
 10
157.2433130216916
 20
103.308213764761
 30
0.0
 10
157.369990011835
 20
103.0857248134222
 30
0.0
 10
157.4428637321958
 20
102.9795642051789
 30
0.0
 10
157.5255710388096
 20
102.8785965246547
 30
0.0
  0
SPLINE
  5
AA
330
1F
100
AcDbEntity
  8
0
  6
Continuous
 62
     7
370
    15
100
AcDbSpline
210
0.0
220
0.0
230
1.0
 70
     8
 71
     3
 72
    14
 73
    10
 74
     0
 42
0.000000001
 43
0.00000001
 40
0.0
 40
0.0
 40
0.0
 40
0.0
 40
0.25
 40
0.25
 40
0.5
 40
0.5
 40
0.75
 40
0.75
 40
1.0
 40
1.0
 40
1.0
 40
1.0
 10
155.3055710388096
 20
76.206119815719
 30
0.0
 10
155.1991260309003
 20
76.206119815719
 30
0.0
 10
155.0922272796268
 20
76.1835502662859
 30
0.0
 10
154.8960090241843
 20
76.09710717504397
 30
0.0
 10
154.8063507107199
 20
76.03280325737683
 30
0.0
 10
154.6608969978388
 20
75.87783374333387
 30
0.0
 10
154.6028612151126
 20
75.78506825709013
 30
0.0
 10
154.525576060728
 20
75.58660137544676
 30
0.0
 10
154.5055710388095
 20
75.47957695365298
 30
0.0
 10
154.5055710388096
 20
75.37279459318215
 30
0.0
  0
SPLINE
  5
AB
330
1F
100
AcDbEntity
  8
0
  6
Continuous
 62
     7
370
    15
100
AcDbSpline
210
0.0
220
0.0
230
1.0
 70
    24
 71
     3
 72
    14
 73
    10
 74
     0
 42
0.000000001
 43
0.00000001
 40
0.0
 40
0.0
 40
0.0
 40
0.0
 40
0.25
 40
0.25
 40
0.5
 40
0.5
 40
0.75
 40
0.75
 40
1.0
 40
1.0
 40
1.0
 40
1.0
 10
155.3055710388096
 20
149.7038860815888
 30
0.0
 10
155.1825897392633
 20
149.7038860815888
 30
0.0
 10
155.0623998508613
 20
149.7038860815888
 30
0.0
 10
154.8573760211821
 20
149.7038860815888
 30
0.0
 10
154.77078153238
 20
149.7038860815888
 30
0.0
 10
154.6356736456175
 20
149.7038860815888
 30
0.0
 10
154.5871505605894
 20
149.7038860815888
 30
0.0
 10
154.5214680518627
 20
149.7038860815888
 30
0.0
 10
154.5055710388096
 20
149.7038860815888
 30
0.0
 10
154.5055710388096
 20
149.7038860815888
 30
0.0
  0
SPLINE
  5
AC
330
1F
100
AcDbEntity
  8
0
  6
Continuous
 62
     7
370
    15
100
AcDbSpline
210
0.0
220
0.0
230
1.0
 70
    24
 71
     3
 72
    14
 73
    10
 74
     0
 42
0.000000001
 43
0.00000001
 40
0.0
 40
0.0
 40
0.0
 40
0.0
 40
0.25
 40
0.25
 40
0.5
 40
0.5
 40
0.75
 40
0.75
 40
1.0
 40
1.0
 40
1.0
 40
1.0
 10
158.3255710388096
 20
149.7038860815888
 30
0.0
 10
158.3255710388096
 20
149.7038860815888
 30
0.0
 10
158.3092900040338
 20
149.7038860815888
 30
0.0
 10
158.2446269415092
 20
149.7038860815888
 30
0.0
 10
158.1951471452205
 20
149.7038860815888
 30
0.0
 10
158.0611773880817
 20
149.7038860815888
 30
0.0
 10
157.9750626614823
 20
149.7038860815888
 30
0.0
 10
157.7696065457693
 20
149.7038860815888
 30
0.0
 10
157.6481860085764
 20
149.7038860815888
 30
0.0
 10
157.5255710388096
 20
149.7038860815888
 30
0.0
  0
LINE
  5
AD
330
1F
100
AcDbEntity
  8
0
  6
Continuous
 62
     7
370
    15
100
AcDbLine
 10
157.5255713452
 20
76.2061199683
 30
0.0
 11
155.3055712048
 21
76.2061199683
 31
0.0
  0
LINE
  5
AE
330
1F
100
AcDbEntity
  8
0
  6
Continuous
 62
     7
370
    15
100
AcDbLine
 10
157.5255713452
 20
149.7038865972
 30
0.0
 11
155.3055712048
 21
149.7038865972
 31
0.0
  0
SPLINE
  5
AF
330
1F
100
AcDbEntity
  8
0
  6
Continuous
 62
     7
370
    15
100
AcDbSpline
210
0.0
220
0.0
230
1.0
 70
     8
 71
     3
 72
     8
 73
     4
 74
     0
 42
0.000000001
 43
0.00000001
 40
0.0000000000000004
 40
0.0000000000000004
 40
0.0000000000000004
 40
0.0000000000000004
 40
0.0011862984959128
 40
0.0011862984959128
 40
0.0011862984959128
 40
0.0011862984959128
 10
159.1956188693097
 20
73.66797101461242
 30
0.0
 10
159.345650339181
 20
73.48665092030137
 30
0.0
 10
159.4967077844005
 20
73.30553858986102
 30
0.0
 10
159.6487325462715
 20
73.12462674024277
 30
0.0
  0
SPLINE
  5
B0
330
1F
100
AcDbEntity
  8
0
  6
Continuous
 62
     7
370
    15
100
AcDbSpline
210
0.0
220
0.0
230
1.0
 70
     8
 71
     3
 72
     8
 73
     4
 74
     0
 42
0.000000001
 43
0.00000001
 40
0.0
 40
0.0
 40
0.0
 40
0.0
 40
1.0
 40
1.0
 40
1.0
 40
1.0
 10
159.1956188693127
 20
73.66797101461408
 30
0.0
 10
158.9053246350512
 20
74.18987328033663
 30
0.0
 10
158.6152994848338
 20
74.71192666259604
 30
0.0
 10
158.3255710388096
 20
75.23414667275901
 30
0.0
  0
LINE
  5
B1
330
1F
100
AcDbEntity
  8
0
  6
Continuous
 62
     7
370
    15
100
AcDbLine
 10
158.3255709175
 20
75.234147026
 30
0.0
 11
158.3255709175
 21
101.9245835531
 31
0.0
  0
SPLINE
  5
B2
330
1F
100
AcDbEntity
  8
0
  6
Continuous
 62
     7
370
    15
100
AcDbSpline
210
0.0
220
0.0
230
1.0
 70
     8
 71
     3
 72
    14
 73
    10
 74
     0
 42
0.000000001
 43
0.00000001
 40
0.0
 40
0.0
 40
0.0
 40
0.0
 40
0.25
 40
0.25
 40
0.5
 40
0.5
 40
0.75
 40
0.75
 40
1.0
 40
1.0
 40
1.0
 40
1.0
 10
158.3255710388096
 20
75.37279459318216
 30
0.0
 10
158.3255710388096
 20
75.47985857952297
 30
0.0
 10
158.3055872125696
 20
75.58659790589748
 30
0.0
 10
158.2281521301361
 20
75.78534780808826
 30
0.0
 10
158.1702132079767
 20
75.87790202458079
 30
0.0
 10
158.0245754022159
 20
76.03299896798637
 30
0.0
 10
157.9357864058805
 20
76.09673912489924
 30
0.0
 10
157.739238045676
 20
76.18348768198685
 30
0.0
 10
157.6330988159766
 20
76.206119815719
 30
0.0
 10
157.5255710388096
 20
76.206119815719
 30
0.0
  0
LINE
  5
B3
330
1F
100
AcDbEntity
  8
0
  6
Continuous
 62
     7
370
    15
100
AcDbLine
 10
145.3155710388
 20
84.9288872022
 30
0.0
 11
145.3155710388
 21
154.778884961
 31
0.0
  0
LINE
  5
B4
330
1F
100
AcDbEntity
  8
0
  6
Continuous
 62
     7
370
    15
100
AcDbLine
 10
245.3155725289
 20
119.8538860816
 30
0.0
 11
245.3155725289
 21
88.9538864184
 31
0.0
  0
LINE
  5
B5
330
1F
100
AcDbEntity
  8
0
  6
Continuous
 62
     7
370
    15
100
AcDbLine
 10
245.3155725289
 20
150.7538857448
 30
0.0
 11
245.3155725289
 21
119.8538860816
 31
0.0
  0
LINE
  5
B6
330
1F
100
AcDbEntity
  8
0
  6
Continuous
 62
     7
370
    15
100
AcDbLine
 10
244.7155698229
 20
119.8538860816
 30
0.0
 11
244.7155698229
 21
88.3538855749
 31
0.0
  0
LINE
  5
B7
330
1F
100
AcDbEntity
  8
0
  6
Continuous
 62
     7
370
    15
100
AcDbLine
 10
244.7155698229
 20
151.3538865882
 30
0.0
 11
244.7155698229
 21
119.8538860816
 31
0.0
  0
SPLINE
  5
B8
330
1F
100
AcDbEntity
  8
0
  6
Continuous
 62
     7
370
    15
100
AcDbSpline
210
0.0
220
0.0
230
1.0
 70
    11
 71
     3
 72
    96
 73
    92
 74
     0
 42
0.000000001
 43
0.00000001
 40
0.0
 40
0.0
 40
0.0
 40
0.0
 40
0.03125
 40
0.03125
 40
0.0468750000000001
 40
0.0468750000000001
 40
0.0625000000000001
 40
0.0625000000000001
 40
0.0937499999999995
 40
0.0937499999999995
 40
0.1093749999999992
 40
0.1093749999999992
 40
0.1249999999999989
 40
0.1249999999999989
 40
0.1562499999999983
 40
0.1562499999999983
 40
0.171874999999998
 40
0.171874999999998
 40
0.1874999999999978
 40
0.1874999999999978
 40
0.2187499999999978
 40
0.2187499999999978
 40
0.2343749999999979
 40
0.2343749999999979
 40
0.2499999999999979
 40
0.2499999999999979
 40
0.2812499999999986
 40
0.2812499999999986
 40
0.2968749999999988
 40
0.2968749999999988
 40
0.3124999999999992
 40
0.3124999999999992
 40
0.3437499999999998
 40
0.3437499999999998
 40
0.3593750000000001
 40
0.3593750000000001
 40
0.3750000000000003
 40
0.3750000000000003
 40
0.3906250000000006
 40
0.3906250000000006
 40
0.4062500000000008
 40
0.4062500000000008
 40
0.4375000000000013
 40
0.4375000000000013
 40
0.4531250000000017
 40
0.4531250000000017
 40
0.4687500000000022
 40
0.4687500000000022
 40
0.5000000000000031
 40
0.5000000000000031
 40
0.531250000000004
 40
0.531250000000004
 40
0.5468750000000042
 40
0.5468750000000042
 40
0.5625000000000043
 40
0.5625000000000043
 40
0.5937500000000039
 40
0.5937500000000039
 40
0.6250000000000036
 40
0.6250000000000036
 40
0.6562500000000031
 40
0.6562500000000031
 40
0.6875000000000027
 40
0.6875000000000027
 40
0.7187500000000023
 40
0.7187500000000023
 40
0.7500000000000019
 40
0.7500000000000019
 40
0.7656250000000017
 40
0.7656250000000017
 40
0.7812500000000014
 40
0.7812500000000014
 40
0.8125000000000011
 40
0.8125000000000011
 40
0.828125000000001
 40
0.828125000000001
 40
0.8437500000000009
 40
0.8437500000000009
 40
0.8750000000000007
 40
0.8750000000000007
 40
0.8906250000000007
 40
0.8906250000000007
 40
0.9062500000000006
 40
0.9062500000000006
 40
0.9218750000000004
 40
0.9218750000000004
 40
0.9375000000000003
 40
0.9375000000000003
 40
0.9687500000000002
 40
0.9687500000000002
 40
1.0
 40
1.0
 40
1.0
 40
1.0
 10
220.7653794882793
 20
126.221827080563
 30
0.0
 10
221.238147291763
 20
126.5944900857007
 30
0.0
 10
221.7385214687884
 20
126.9171216978622
 30
0.0
 10
222.5270510624947
 20
127.3335856029289
 30
0.0
 10
222.7962775008795
 20
127.4610563273082
 30
0.0
 10
223.3475052014684
 20
127.6934775588315
 30
0.0
 10
223.6307708829374
 20
127.7988166239803
 30
0.0
 10
224.4906389660827
 20
128.077366047526
 30
0.0
 10
225.0733474049223
 20
128.2127337081349
 30
0.0
 10
225.9610878554508
 20
128.343811662373
 30
0.0
 10
226.2592953098573
 20
128.3754268230907
 30
0.0
 10
226.8603771597061
 20
128.4141492517963
 30
0.0
 10
227.1645258040551
 20
128.421162844211
 30
0.0
 10
228.0686974047341
 20
128.404665865113
 30
0.0
 10
228.6638354371248
 20
128.344564628334
 30
0.0
 10
229.5453075150043
 20
128.1818798781996
 30
0.0
 10
229.8372484209204
 20
128.115488772117
 30
0.0
 10
230.4172677463728
 20
127.9576281706912
 30
0.0
 10
230.7063552973561
 20
127.8656882483684
 30
0.0
 10
231.5516077925556
 20
127.5564811547831
 30
0.0
 10
232.0905455688291
 20
127.3052762332427
 30
0.0
 10
232.8619199312926
 20
126.8593499955273
 30
0.0
 10
233.1128325951814
 20
126.6991111727448
 30
0.0
 10
233.601649643292
 20
126.354113432413
 30
0.0
 10
233.840222061594
 20
126.1685928219571
 30
0.0
 10
234.5199209832901
 20
125.5858489887908
 30
0.0
 10
234.9305741173492
 20
125.1595681081029
 30
0.0
 10
235.4795067520252
 20
124.4594300560689
 30
0.0
 10
235.6512269877277
 20
124.2158572233408
 30
0.0
 10
235.9703587371168
 20
123.7065273252923
 30
0.0
 10
236.1171184943449
 20
123.4412516281349
 30
0.0
 10
236.5067406445434
 20
122.6335221765232
 30
0.0
 10
236.7041866349967
 20
122.0722815730307
 30
0.0
 10
236.9003596586048
 20
121.1935829758347
 30
0.0
 10
236.9491068882112
 20
120.8920297850396
 30
0.0
 10
237.0089273155769
 20
120.2899746771838
 30
0.0
 10
237.0203636831697
 20
119.989649647617
 30
0.0
 10
237.0071711563182
 20
119.3903717614116
 30
0.0
 10
236.98254078413
 20
119.0914189600171
 30
0.0
 10
236.8969154538098
 20
118.4948954503969
 30
0.0
 10
236.8352834786479
 20
118.1955037457378
 30
0.0
 10
236.6002958012899
 20
117.3211208120297
 30
0.0
 10
236.3776667964403
 20
116.7648857718684
 30
0.0
 10
235.9510102757923
 20
115.9676714096174
 30
0.0
 10
235.7933573054378
 20
115.7089201784467
 30
0.0
 10
235.4549470788368
 20
115.2145521637771
 30
0.0
 10
235.2734235621173
 20
114.9774383323121
 30
0.0
 10
234.6935881078664
 20
114.2946896928965
 30
0.0
 10
234.255777539433
 20
113.8744715779261
 30
0.0
 10
233.3192947742998
 20
113.1318476738959
 30
0.0
 10
232.8193608631031
 20
112.8064642493056
 30
0.0
 10
232.0235380789054
 20
112.3836633496491
 30
0.0
 10
231.7498937307414
 20
112.2535464561179
 30
0.0
 10
231.1969437497019
 20
112.019436326042
 30
0.0
 10
230.9165297678583
 20
111.9147851202354
 30
0.0
 10
230.0637738941141
 20
111.6368106823806
 30
0.0
 10
229.4800106052511
 20
111.4991607673685
 30
0.0
 10
228.2812157496314
 20
111.3204907700309
 30
0.0
 10
227.6795945146904
 20
111.2817562592976
 30
0.0
 10
226.4818845974839
 20
111.3019161797195
 30
0.0
 10
225.8841603508671
 20
111.3605596818167
 30
0.0
 10
224.6910750172837
 20
111.5798366545631
 30
0.0
 10
224.1127640521078
 20
111.7373572263435
 30
0.0
 10
222.9924822069939
 20
112.1459448977359
 30
0.0
 10
222.4496780799832
 20
112.3973356913042
 30
0.0
 10
221.4052517823982
 20
113.0009320642207
 30
0.0
 10
220.9189192142234
 20
113.344169809653
 30
0.0
 10
220.2434310732401
 20
113.9226064227437
 30
0.0
 10
220.0273348852332
 20
114.126091329491
 30
0.0
 10
219.6141860253993
 20
114.5556909415237
 30
0.0
 10
219.4163146129878
 20
114.7828515322661
 30
0.0
 10
218.8592749401147
 20
115.4944186941678
 30
0.0
 10
218.5433215970741
 20
115.9987188260679
 30
0.0
 10
218.155507699654
 20
116.8023291395633
 30
0.0
 10
218.0406984284664
 20
117.078117103587
 30
0.0
 10
217.8420609831427
 20
117.6467419355199
 30
0.0
 10
217.758154556026
 20
117.9410905777147
 30
0.0
 10
217.5628008697769
 20
118.8240280998676
 30
0.0
 10
217.5037081050296
 20
119.4201914273861
 30
0.0
 10
217.5244212515998
 20
120.3260526504677
 30
0.0
 10
217.5501508375571
 20
120.6316687721128
 30
0.0
 10
217.6373704820762
 20
121.2300066094973
 30
0.0
 10
217.6986959797756
 20
121.5244699663718
 30
0.0
 10
217.8554410036825
 20
122.1043648759828
 30
0.0
 10
217.9508640361095
 20
122.3897954566834
 30
0.0
 10
218.175629158814
 20
122.9517083520894
 30
0.0
 10
218.3046471015161
 20
123.2268060478269
 30
0.0
 10
218.7316874965801
 20
124.0202354848924
 30
0.0
 10
219.071668381851
 20
124.5133341729929
 30
0.0
 10
219.8561145033804
 20
125.4327959641594
 30
0.0
 10
220.2926116847956
 20
125.8491640754254
 30
0.0
 10
220.7653794882793
 20
126.221827080563
 30
0.0
  0
SPLINE
  5
B9
330
1F
100
AcDbEntity
  8
0
  6
Continuous
 62
     7
370
    15
100
AcDbSpline
210
0.0
220
0.0
230
1.0
 70
     8
 71
     3
 72
    23
 73
    19
 74
     0
 42
0.000000001
 43
0.00000001
 40
0.0
 40
0.0
 40
0.0
 40
0.0
 40
0.0542368869068254
 40
0.1390145289282723
 40
0.2292943145103889
 40
0.3315073220176052
 40
0.3883518249424622
 40
0.4466616889793866
 40
0.506877021467155
 40
0.5688002500464389
 40
0.6296442168896558
 40
0.6922986711212193
 40
0.7521839634033973
 40
0.8141004384196465
 40
0.8690649066898006
 40
0.9262037801903643
 40
0.9731193689492033
 40
0.9999999999999999
 40
0.9999999999999999
 40
0.9999999999999999
 40
0.9999999999999999
 10
236.9066162992389
 20
151.3282826680069
 30
0.0
 10
236.9172394806882
 20
151.3306894199997
 30
0.0
 10
236.9444677500285
 20
151.3368581644393
 30
0.0
 10
236.0336179802958
 20
151.1260987073099
 30
0.0
 10
234.3807319123613
 20
150.7923639715987
 30
0.0
 10
232.3689931796974
 20
150.4810945963633
 30
0.0
 10
230.4257572321895
 20
150.2849351866189
 30
0.0
 10
228.7749475683389
 20
150.1844028331244
 30
0.0
 10
227.0364775936413
 20
150.1547207965353
 30
0.0
 10
225.2790656196355
 20
150.2051655706271
 30
0.0
 10
223.5549613154976
 20
150.3320078685585
 30
0.0
 10
221.9546099110212
 20
150.5174269823401
 30
0.0
 10
220.501475878251
 20
150.7401878926907
 30
0.0
 10
219.309806625942
 20
150.9609296197263
 30
0.0
 10
218.3790540141291
 20
151.1558118703904
 30
0.0
 10
217.8066207383075
 20
151.2853796802211
 30
0.0
 10
217.5298369579492
 20
151.3505054821871
 30
0.0
 10
217.5433170358874
 20
151.3473341395431
 30
0.0
 10
217.5482272196682
 20
151.3461789626008
 30
0.0
  0
SPLINE
  5
BA
330
1F
100
AcDbEntity
  8
0
  6
Continuous
 62
     7
370
    15
100
AcDbSpline
210
0.0
220
0.0
230
1.0
 70
     8
 71
     3
 72
    12
 73
     8
 74
     0
 42
0.000000001
 43
0.00000001
 40
0.0
 40
0.0
 40
0.0
 40
0.0
 40
0.2500000000000007
 40
0.2500000000000007
 40
0.5000000000000014
 40
0.5000000000000014
 40
1.0
 40
1.0
 40
1.0
 40
1.0
 10
155.3055710388096
 20
163.5016523474586
 30
0.0
 10
155.1992260589336
 20
163.5016523474586
 30
0.0
 10
155.091949711531
 20
163.5243675853181
 30
0.0
 10
154.8965739221349
 20
163.6103927522004
 30
0.0
 10
154.808020186058
 20
163.6733714791288
 30
0.0
 10
154.5867622619267
 20
163.9085629895659
 30
0.0
 10
154.5055710388096
 20
164.1217392040512
 30
0.0
 10
154.5055710388095
 20
164.3349775699953
 30
0.0
  0
SPLINE
  5
BB
330
1F
100
AcDbEntity
  8
0
  6
Continuous
 62
     7
370
    15
100
AcDbSpline
210
0.0
220
0.0
230
1.0
 70
     8
 71
     3
 72
    12
 73
     8
 74
     0
 42
0.000000001
 43
0.00000001
 40
0.0
 40
0.0
 40
0.0
 40
0.0
 40
0.499999999999994
 40
0.499999999999994
 40
0.749999999999997
 40
0.749999999999997
 40
1.0
 40
1.0
 40
1.0
 40
1.0
 10
154.5055710388096
 20
155.2469291833058
 30
0.0
 10
154.5055710388096
 20
155.0045060873251
 30
0.0
 10
154.5684921802514
 20
154.7587355667237
 30
0.0
 10
154.7705210772538
 20
154.4537893873068
 30
0.0
 10
154.8568148019011
 20
154.3631965207084
 30
0.0
 10
155.0622885964678
 20
154.2327629577715
 30
0.0
 10
155.1822391570674
 20
154.1937681431218
 30
0.0
 10
155.3055710388096
 20
154.1937681431218
 30
0.0
  0
LINE
  5
BC
330
1F
100
AcDbEntity
  8
0
  6
Continuous
 62
     7
370
    15
100
AcDbLine
 10
163.7655704308
 20
166.6337309915
 30
0.0
 11
159.6487325642
 21
166.6337309915
 31
0.0
  0
LINE
  5
BD
330
1F
100
AcDbEntity
  8
0
  6
Continuous
 62
     7
370
    15
100
AcDbLine
 10
159.6487325642
 20
158.3649648863
 30
0.0
 11
163.7655704308
 21
158.3649648863
 31
0.0
  0
LINE
  5
BE
330
1F
100
AcDbEntity
  8
0
  6
Continuous
 62
     7
370
    15
100
AcDbLine
 10
159.6487325642
 20
158.3649648863
 30
0.0
 11
159.6487325642
 21
166.6337309915
 31
0.0
  0
SPLINE
  5
BF
330
1F
100
AcDbEntity
  8
0
  6
Continuous
 62
     7
370
    15
100
AcDbSpline
210
0.0
220
0.0
230
1.0
 70
     8
 71
     3
 72
    12
 73
     8
 74
     0
 42
0.000000001
 43
0.00000001
 40
0.0
 40
0.0
 40
0.0
 40
0.0
 40
0.4999999999999982
 40
0.4999999999999982
 40
0.7499999999999991
 40
0.7499999999999991
 40
1.0
 40
1.0
 40
1.0
 40
1.0
 10
164.3655710388095
 20
166.1488730348192
 30
0.0
 10
164.3655710388096
 20
166.2690656414844
 30
0.0
 10
164.3116026085405
 20
166.3869729419994
 30
0.0
 10
164.1505159676076
 20
166.5263524864828
 30
0.0
 10
164.0857535481345
 20
166.5645177840467
 30
0.0
 10
163.9336995465701
 20
166.6191700463802
 30
0.0
 10
163.8509697734208
 20
166.6337307363643
 30
0.0
 10
163.7655710388096
 20
166.6337307363643
 30
0.0
  0
SPLINE
  5
C0
330
1F
100
AcDbEntity
  8
0
  6
Continuous
 62
     7
370
    15
100
AcDbSpline
210
0.0
220
0.0
230
1.0
 70
     8
 71
     3
 72
    12
 73
     8
 74
     0
 42
0.000000001
 43
0.00000001
 40
0.0
 40
0.0
 40
0.0
 40
0.0
 40
0.2499999999999946
 40
0.2499999999999946
 40
0.4999999999999892
 40
0.4999999999999892
 40
1.0
 40
1.0
 40
1.0
 40
1.0
 10
163.7655710388101
 20
158.364964033264
 30
0.0
 10
163.8551080969812
 20
158.3649640332639
 30
0.0
 10
163.9450072757698
 20
158.3381367344329
 30
0.0
 10
164.0984321347691
 20
158.2464297691733
 30
0.0
 10
164.1634811921468
 20
158.1821748275745
 30
0.0
 10
164.3168004234111
 20
157.9627626815129
 30
0.0
 10
164.3655710388096
 20
157.7809473717161
 30
0.0
 10
164.3655710388096
 20
157.6029671962332
 30
0.0
  0
LINE
  5
C1
330
1F
100
AcDbEntity
  8
0
  6
Continuous
 62
     7
370
    15
100
AcDbLine
 10
164.3655712742
 20
157.6029679316
 30
0.0
 11
164.3655712742
 21
166.1488732833
 31
0.0
  0
SPLINE
  5
C2
330
1F
100
AcDbEntity
  8
0
  6
Continuous
 62
     7
370
    15
100
AcDbSpline
210
0.0
220
0.0
230
1.0
 70
     8
 71
     3
 72
     8
 73
     4
 74
     0
 42
0.000000001
 43
0.00000001
 40
0.0
 40
0.0
 40
0.0
 40
0.0
 40
1.0
 40
1.0
 40
1.0
 40
1.0
 10
159.092242060976
 20
165.8539193262562
 30
0.0
 10
158.8364657502206
 20
165.3939409709914
 30
0.0
 10
158.5809023521146
 20
164.9338465106836
 30
0.0
 10
158.3255710388096
 20
164.4736254904186
 30
0.0
  0
SPLINE
  5
C3
330
1F
100
AcDbEntity
  8
0
  6
Continuous
 62
     7
370
    15
100
AcDbSpline
210
0.0
220
0.0
230
1.0
 70
     8
 71
     3
 72
     8
 73
     4
 74
     0
 42
0.000000001
 43
0.00000001
 40
0.0
 40
0.0
 40
0.0
 40
0.0
 40
0.0012352705496738
 40
0.0012352705496738
 40
0.0012352705496738
 40
0.0012352705496738
 10
159.6487325462715
 20
166.6337307363643
 30
0.0
 10
159.4627841209494
 20
166.3739549806127
 30
0.0
 10
159.2772773117783
 20
166.1140209019854
 30
0.0
 10
159.0922420609761
 20
165.8539193262567
 30
0.0
  0
SPLINE
  5
C4
330
1F
100
AcDbEntity
  8
0
  6
Continuous
 62
     7
370
    15
100
AcDbSpline
210
0.0
220
0.0
230
1.0
 70
     8
 71
     3
 72
     8
 73
     4
 74
     0
 42
0.000000001
 43
0.00000001
 40
0.0
 40
0.0
 40
0.0
 40
0.0
 40
1.0
 40
1.0
 40
1.0
 40
1.0
 10
158.3255710388096
 20
155.4210218238984
 30
0.0
 10
158.7605174604479
 20
156.4045261422808
 30
0.0
 10
159.2018838183438
 20
157.3857281350077
 30
0.0
 10
159.6487325462715
 20
158.3649640332639
 30
0.0
  0
LINE
  5
C5
330
1F
100
AcDbEntity
  8
0
  6
Continuous
 62
     7
370
    15
100
AcDbLine
 10
158.3255709175
 20
155.4210207003
 30
0.0
 11
158.3255709175
 21
164.4736251372
 31
0.0
  0
LINE
  5
C6
330
1F
100
AcDbEntity
  8
0
  6
Continuous
 62
     7
370
    15
100
AcDbLine
 10
157.5255713452
 20
163.5016521949
 30
0.0
 11
155.3055712048
 21
163.5016521949
 31
0.0
  0
LINE
  5
C7
330
1F
100
AcDbEntity
  8
0
  6
Continuous
 62
     7
370
    15
100
AcDbLine
 10
155.3055712048
 20
154.193768515
 30
0.0
 11
157.5255713452
 21
154.193768515
 31
0.0
  0
SPLINE
  5
C8
330
1F
100
AcDbEntity
  8
0
  6
Continuous
 62
     7
370
    15
100
AcDbSpline
210
0.0
220
0.0
230
1.0
 70
     8
 71
     3
 72
    14
 73
    10
 74
     0
 42
0.000000001
 43
0.00000001
 40
0.0
 40
0.0
 40
0.0
 40
0.0
 40
0.25
 40
0.25
 40
0.5
 40
0.5
 40
0.75
 40
0.75
 40
1.0
 40
1.0
 40
1.0
 40
1.0
 10
158.3255710388096
 20
164.3349775699954
 30
0.0
 10
158.3255710388096
 20
164.2276351978479
 30
0.0
 10
158.3055748467454
 20
164.1210061910001
 30
0.0
 10
158.2278767624007
 20
163.921854411849
 30
0.0
 10
158.1698836175071
 20
163.8293715135335
 30
0.0
 10
158.0238371246843
 20
163.6741356784243
 30
0.0
 10
157.9344993855166
 20
163.6104017368119
 30
0.0
 10
157.7397443734562
 20
163.5245714704167
 30
0.0
 10
157.6322141022473
 20
163.5016523474583
 30
0.0
 10
157.5255710388075
 20
163.5016523474586
 30
0.0
  0
SPLINE
  5
C9
330
1F
100
AcDbEntity
  8
0
  6
Continuous
 62
     7
370
    15
100
AcDbSpline
210
0.0
220
0.0
230
1.0
 70
     8
 71
     3
 72
    14
 73
    10
 74
     0
 42
0.000000001
 43
0.00000001
 40
0.0
 40
0.0
 40
0.0
 40
0.0
 40
0.25
 40
0.25
 40
0.5
 40
0.5
 40
0.75
 40
0.75
 40
1.0
 40
1.0
 40
1.0
 40
1.0
 10
157.5255710388096
 20
154.1937681431218
 30
0.0
 10
157.6468975687953
 20
154.1937681431218
 30
0.0
 10
157.7686022773575
 20
154.232549658555
 30
0.0
 10
157.9750421562436
 20
154.3637042802489
 30
0.0
 10
158.0609926946997
 20
154.454356364836
 30
0.0
 10
158.194904454448
 20
154.6564733997773
 30
0.0
 10
158.2444688912672
 20
154.7702083433165
 30
0.0
 10
158.3093229192351
 20
155.003167960383
 30
0.0
 10
158.3255710388096
 20
155.1258662267122
 30
0.0
 10
158.3255710388096
 20
155.2469291833058
 30
0.0
  0
SPLINE
  5
CA
330
1F
100
AcDbEntity
  8
0
  6
Continuous
 62
     7
370
    15
100
AcDbSpline
210
0.0
220
0.0
230
1.0
 70
     8
 71
     3
 72
    12
 73
     8
 74
     0
 42
0.000000001
 43
0.00000001
 40
0.0
 40
0.0
 40
0.0
 40
0.0
 40
0.5000000000000003
 40
0.5000000000000003
 40
0.7500000000000001
 40
0.7500000000000001
 40
1.0
 40
1.0
 40
1.0
 40
1.0
 10
148.5155710388096
 20
157.6029671962332
 30
0.0
 10
148.5155710388096
 20
157.7813274634725
 30
0.0
 10
148.5628831601855
 20
157.9600998751764
 30
0.0
 10
148.7172432380669
 20
158.1818617405281
 30
0.0
 10
148.7821287729859
 20
158.2461537791446
 30
0.0
 10
148.9373614722142
 20
158.3387982633042
 30
0.0
 10
149.0264368848824
 20
158.364964033264
 30
0.0
 10
149.1155710388096
 20
158.364964033264
 30
0.0
  0
LINE
  5
CB
330
1F
100
AcDbEntity
  8
0
  6
Continuous
 62
     7
370
    15
100
AcDbLine
 10
149.1155711029
 20
158.3649648863
 30
0.0
 11
153.1824099857
 21
158.3649648863
 31
0.0
  0
SPLINE
  5
CC
330
1F
100
AcDbEntity
  8
0
  6
Continuous
 62
     7
370
    15
100
AcDbSpline
210
0.0
220
0.0
230
1.0
 70
     8
 71
     3
 72
     8
 73
     4
 74
     0
 42
0.000000001
 43
0.00000001
 40
0.0
 40
0.0
 40
0.0
 40
0.0
 40
1.0
 40
1.0
 40
1.0
 40
1.0
 10
153.1824095313476
 20
158.3649640332639
 30
0.0
 10
153.6292582592753
 20
157.3857281350076
 30
0.0
 10
154.0706246171712
 20
156.4045261422808
 30
0.0
 10
154.5055710388096
 20
155.4210218238984
 30
0.0
  0
LINE
  5
CD
330
1F
100
AcDbEntity
  8
0
  6
Continuous
 62
     7
370
    15
100
AcDbLine
 10
158.3255709175
 20
155.2469304341
 30
0.0
 11
158.3255709175
 21
155.4210207003
 31
0.0
  0
LINE
  5
CE
330
1F
100
AcDbEntity
  8
0
  6
Continuous
 62
     7
370
    15
100
AcDbLine
 10
154.5055707011
 20
155.4210207003
 30
0.0
 11
154.5055707011
 21
155.2469304341
 31
0.0
  0
LINE
  5
CF
330
1F
100
AcDbEntity
  8
0
  6
Continuous
 62
     7
370
    15
100
AcDbLine
 10
164.3655712742
 20
157.6029679316
 30
0.0
 11
164.3655712742
 21
149.7038865972
 31
0.0
  0
LINE
  5
D0
330
1F
100
AcDbEntity
  8
0
  6
Continuous
 62
     7
370
    15
100
AcDbLine
 10
148.515570958
 20
157.6029679316
 30
0.0
 11
148.515570958
 21
149.7038865972
 31
0.0
  0
SPLINE
  5
D1
330
1F
100
AcDbEntity
  8
0
  6
Continuous
 62
     7
370
    15
100
AcDbSpline
210
0.0
220
0.0
230
1.0
 70
     8
 71
     3
 72
     8
 73
     4
 74
     0
 42
0.000000001
 43
0.00000001
 40
0.0
 40
0.0
 40
0.0
 40
0.0
 40
0.0012352705496723
 40
0.0012352705496723
 40
0.0012352705496723
 40
0.0012352705496723
 10
153.7389000166422
 20
165.8539193262579
 30
0.0
 10
153.5538647658403
 20
166.1140209019861
 30
0.0
 10
153.3683579566695
 20
166.3739549806131
 30
0.0
 10
153.1824095313477
 20
166.6337307363643
 30
0.0
  0
SPLINE
  5
D2
330
1F
100
AcDbEntity
  8
0
  6
Continuous
 62
     7
370
    15
100
AcDbSpline
210
0.0
220
0.0
230
1.0
 70
     8
 71
     3
 72
     8
 73
     4
 74
     0
 42
0.000000001
 43
0.00000001
 40
0.0
 40
0.0
 40
0.0
 40
0.0
 40
1.0
 40
1.0
 40
1.0
 40
1.0
 10
154.5055710388096
 20
164.4736254904186
 30
0.0
 10
154.2502397255042
 20
164.9338465106842
 30
0.0
 10
153.9946763273979
 20
165.3939409709925
 30
0.0
 10
153.7389000166422
 20
165.8539193262579
 30
0.0
  0
LINE
  5
D3
330
1F
100
AcDbEntity
  8
0
  6
Continuous
 62
     7
370
    15
100
AcDbLine
 10
153.1824099857
 20
158.3649648863
 30
0.0
 11
153.1824099857
 21
166.6337309915
 31
0.0
  0
LINE
  5
D4
330
1F
100
AcDbEntity
  8
0
  6
Continuous
 62
     7
370
    15
100
AcDbLine
 10
154.5055707011
 20
155.4210207003
 30
0.0
 11
154.5055707011
 21
164.4736251372
 31
0.0
  0
LINE
  5
D5
330
1F
100
AcDbEntity
  8
0
  6
Continuous
 62
     7
370
    15
100
AcDbLine
 10
153.1824099857
 20
166.6337309915
 30
0.0
 11
149.1155711029
 21
166.6337309915
 31
0.0
  0
SPLINE
  5
D6
330
1F
100
AcDbEntity
  8
0
  6
Continuous
 62
     7
370
    15
100
AcDbSpline
210
0.0
220
0.0
230
1.0
 70
     8
 71
     3
 72
    10
 73
     6
 74
     0
 42
0.000000001
 43
0.00000001
 40
0.0
 40
0.0
 40
0.0
 40
0.0
 40
0.5
 40
0.5
 40
1.0
 40
1.0
 40
1.0
 40
1.0
 10
148.8054399577559
 20
166.5640504073116
 30
0.0
 10
148.7289868678371
 20
166.4937876360909
 30
0.0
 10
148.660125145568
 20
166.4066927210492
 30
0.0
 10
148.5536129144951
 20
166.1975235927969
 30
0.0
 10
148.5155710388095
 20
166.0722060435574
 30
0.0
 10
148.5155710388095
 20
165.9428557489615
 30
0.0
  0
SPLINE
  5
D7
330
1F
100
AcDbEntity
  8
0
  6
Continuous
 62
     7
370
    15
100
AcDbSpline
210
0.0
220
0.0
230
1.0
 70
     8
 71
     3
 72
     8
 73
     4
 74
     0
 42
0.000000001
 43
0.00000001
 40
0.0
 40
0.0
 40
0.0
 40
0.0
 40
1.0
 40
1.0
 40
1.0
 40
1.0
 10
149.1155710388096
 20
166.6337307363643
 30
0.0
 10
149.0044928534721
 20
166.6337307363643
 30
0.0
 10
148.8968288495699
 20
166.6085815608098
 30
0.0
 10
148.8054399577559
 20
166.5640504073116
 30
0.0
  0
LINE
  5
D8
330
1F
100
AcDbEntity
  8
0
  6
Continuous
 62
     7
370
    15
100
AcDbLine
 10
148.515570958
 20
157.6029679316
 30
0.0
 11
148.515570958
 21
165.9428572792
 31
0.0
  0
LINE
  5
D9
330
1F
100
AcDbEntity
  8
0
  6
Continuous
 62
     7
370
    15
100
AcDbLine
 10
43.7155722667
 20
101.4750415969
 30
0.0
 11
43.7155722667
 21
138.2327305663
 31
0.0
  0
LINE
  5
DA
330
1F
100
AcDbEntity
  8
0
  6
Continuous
 62
     7
370
    15
100
AcDbLine
 10
223.4256028224
 20
150.3538864243
 30
0.0
 11
231.0467048574
 21
150.3538864243
 31
0.0
  0
LINE
  5
DB
330
1F
100
AcDbEntity
  8
0
  6
Continuous
 62
     7
370
    15
100
AcDbLine
 10
220.5040886093
 20
151.3538865882
 30
0.0
 11
234.2655717421
 21
151.3538865882
 31
0.0
  0
LINE
  5
DC
330
1F
100
AcDbEntity
  8
0
  6
Continuous
 62
     7
370
    15
100
AcDbLine
 10
220.2655731727
 20
151.3538865882
 30
0.0
 11
220.5040886093
 21
151.3538865882
 31
0.0
  0
SPLINE
  5
DD
330
1F
100
AcDbEntity
  8
0
  6
Continuous
 62
     7
370
    15
100
AcDbSpline
210
0.0
220
0.0
230
1.0
 70
     8
 71
     3
 72
    11
 73
     7
 74
     0
 42
0.000000001
 43
0.00000001
 40
0.0
 40
0.0
 40
0.0
 40
0.0
 40
0.2164556954477531
 40
0.4403138242358914
 40
0.7519024205768376
 40
1.0
 40
1.0
 40
1.0
 40
1.0
 10
223.9995881009968
 20
116.5878998625403
 30
0.0
 10
224.3051995878092
 20
116.5060106805833
 30
0.0
 10
224.926873978083
 20
116.3394318396041
 30
0.0
 10
226.0805339926974
 20
116.0303114520979
 30
0.0
 10
227.3180345233621
 20
115.6987227705621
 30
0.0
 10
228.1099590586381
 20
115.4865276563581
 30
0.0
 10
228.4610032130154
 20
115.392465847296
 30
0.0
  0
SPLINE
  5
DE
330
1F
100
AcDbEntity
  8
0
  6
Continuous
 62
     7
370
    15
100
AcDbSpline
210
0.0
220
0.0
230
1.0
 70
     8
 71
     3
 72
    11
 73
     7
 74
     0
 42
0.000000001
 43
0.00000001
 40
0.0
 40
0.0
 40
0.0
 40
0.0
 40
0.1845135579579981
 40
0.5180565900825715
 40
0.8676124437791672
 40
1.0
 40
1.0
 40
1.0
 40
1.0
 10
231.7269950199993
 20
118.6584520663445
 30
0.0
 10
231.6575674565759
 20
118.9175492708303
 30
0.0
 10
231.4626364869339
 20
119.6450135056611
 30
0.0
 10
231.0993129529139
 20
121.0009909875142
 30
0.0
 10
230.7616997701946
 20
122.2609584681937
 30
0.0
 10
230.5811523335761
 20
122.9347774420853
 30
0.0
 10
230.5315568138035
 20
123.1198723006373
 30
0.0
  0
SPLINE
  5
DF
330
1F
100
AcDbEntity
  8
0
  6
Continuous
 62
     7
370
    15
100
AcDbSpline
210
0.0
220
0.0
230
1.0
 70
     8
 71
     3
 72
    11
 73
     7
 74
     0
 42
0.000000001
 43
0.00000001
 40
0.0
 40
0.0
 40
0.0
 40
0.0
 40
0.2164567739069539
 40
0.4403131223879287
 40
0.7519027682466103
 40
1.0
 40
1.0
 40
1.0
 40
1.0
 10
230.5315568138035
 20
123.1198723006373
 30
0.0
 10
230.2259426786337
 20
123.2017611120355
 30
0.0
 10
229.6042669894251
 20
123.3683381037579
 30
0.0
 10
228.4506070892585
 20
123.6774634999071
 30
0.0
 10
227.2131047951602
 20
124.0090480778092
 30
0.0
 10
226.4211783292487
 20
124.2212442760537
 30
0.0
 10
226.0701342512043
 20
124.3153063158815
 30
0.0
  0
SPLINE
  5
E0
330
1F
100
AcDbEntity
  8
0
  6
Continuous
 62
     7
370
    15
100
AcDbSpline
210
0.0
220
0.0
230
1.0
 70
     8
 71
     3
 72
    11
 73
     7
 74
     0
 42
0.000000001
 43
0.00000001
 40
0.0
 40
0.0
 40
0.0
 40
0.0
 40
0.2164561888309124
 40
0.4403136417887559
 40
0.7519030790520855
 40
1.0
 40
1.0
 40
1.0
 40
1.0
 10
226.0701342512043
 20
124.3153063158815
 30
0.0
 10
225.8464108070746
 20
124.0915815481332
 30
0.0
 10
225.3913141661777
 20
123.6364822147407
 30
0.0
 10
224.5467763568026
 20
122.7919431879447
 30
0.0
 10
223.6408592732088
 20
121.886032375106
 30
0.0
 10
223.0611309760723
 20
121.3063020687487
 30
0.0
 10
222.8041498948009
 20
121.049320096833
 30
0.0
  0
SPLINE
  5
E1
330
1F
100
AcDbEntity
  8
0
  6
Continuous
 62
     7
370
    15
100
AcDbSpline
210
0.0
220
0.0
230
1.0
 70
     8
 71
     3
 72
    11
 73
     7
 74
     0
 42
0.000000001
 43
0.00000001
 40
0.0
 40
0.0
 40
0.0
 40
0.0
 40
0.1323875880982893
 40
0.4819434414782212
 40
0.8154864905953353
 40
1.0
 40
1.0
 40
1.0
 40
1.0
 10
222.8041498948009
 20
121.049320096833
 30
0.0
 10
222.853745412197
 20
120.86422517855
 30
0.0
 10
223.0342928085133
 20
120.1904061053357
 30
0.0
 10
223.3719060696523
 20
118.9304386085769
 30
0.0
 10
223.7352295083244
 20
117.574461105988
 30
0.0
 10
223.9301605322715
 20
116.8469969769511
 30
0.0
 10
223.9995881009968
 20
116.5878998625403
 30
0.0
  0
CIRCLE
  5
E2
330
1F
100
AcDbEntity
  8
0
  6
Continuous
 62
     7
370
    15
100
AcDbCircle
 10
227.2655710388
 20
119.8538860816
 30
0.0
 40
4.699999999999997
  0
SPLINE
  5
E3
330
1F
100
AcDbEntity
  8
0
  6
Continuous
 62
     7
370
    15
100
AcDbSpline
210
0.0
220
0.0
230
1.0
 70
     8
 71
     3
 72
    11
 73
     7
 74
     0
 42
0.000000001
 43
0.00000001
 40
0.0
 40
0.0
 40
0.0
 40
0.0
 40
0.2164569968405302
 40
0.4403142393093038
 40
0.7519022956464054
 40
1.0
 40
1.0
 40
1.0
 40
1.0
 10
228.4610032130154
 20
115.392465847296
 30
0.0
 10
228.6847294029281
 20
115.6161903960593
 30
0.0
 10
229.1398305480187
 20
116.0712882027431
 30
0.0
 10
229.9843681433738
 20
116.9158269183893
 30
0.0
 10
230.8902780739557
 20
117.8217441309863
 30
0.0
 10
231.4700108621275
 20
118.4014706759599
 30
0.0
 10
231.7269950199993
 20
118.6584520663445
 30
0.0
  0
CIRCLE
  5
E4
330
1F
100
AcDbEntity
  8
0
  6
Continuous
 62
     7
370
    15
100
AcDbCircle
 10
227.2655710388
 20
119.8538860816
 30
0.0
 40
7.999999999999991
  0
CIRCLE
  5
E5
330
1F
100
AcDbEntity
  8
0
  6
Continuous
 62
     7
370
    15
100
AcDbCircle
 10
227.2655710388
 20
119.8538860816
 30
0.0
 40
6.999999999999992
  0
ARC
  5
E6
330
1F
100
AcDbEntity
  8
0
  6
Continuous
 62
     7
370
    15
100
AcDbCircle
 10
227.2655710388
 20
119.8538860816
 30
0.0
 40
4.000000000000021
100
AcDbArc
 50
315.0
 51
15.0
  0
ARC
  5
E7
330
1F
100
AcDbEntity
  8
0
  6
Continuous
 62
     7
370
    15
100
AcDbCircle
 10
227.2655710388
 20
119.8538860816
 30
0.0
 40
3.999999999999994
100
AcDbArc
 50
195.0
 51
255.0
  0
ARC
  5
E8
330
1F
100
AcDbEntity
  8
0
  6
Continuous
 62
     7
370
    15
100
AcDbCircle
 10
227.2655710388
 20
119.8538860816
 30
0.0
 40
3.999999999999994
100
AcDbArc
 50
135.0
 51
195.0
  0
ARC
  5
E9
330
1F
100
AcDbEntity
  8
0
  6
Continuous
 62
     7
370
    15
100
AcDbCircle
 10
227.2655710388
 20
119.8538860816
 30
0.0
 40
3.999999999999996
100
AcDbArc
 50
75.0
 51
135.0
  0
ARC
  5
EA
330
1F
100
AcDbEntity
  8
0
  6
Continuous
 62
     7
370
    15
100
AcDbCircle
 10
227.2655710388
 20
119.8538860816
 30
0.0
 40
3.999999999999992
100
AcDbArc
 50
255.0
 51
315.0
  0
ARC
  5
EB
330
1F
100
AcDbEntity
  8
0
  6
Continuous
 62
     7
370
    15
100
AcDbCircle
 10
227.2655710388
 20
119.8538860816
 30
0.0
 40
4.000000000000021
100
AcDbArc
 50
15.0
 51
75.0
  0
ARC
  5
EC
330
1F
100
AcDbEntity
  8
0
  6
Continuous
 62
     7
370
    15
100
AcDbCircle
 10
159.3422206111
 20
104.6417008832
 30
0.0
 40
2.326801057715686
100
AcDbArc
 50
180.6531159661
 51
244.5679624867
  0
ARC
  5
ED
330
1F
100
AcDbEntity
  8
0
  6
Continuous
 62
     7
370
    15
100
AcDbCircle
 10
159.5188390103
 20
104.7913481779
 30
0.0
 40
2.539580300517136
100
AcDbArc
 50
242.4187669381
 51
339.4879573351
  0
ARC
  5
EE
330
1F
100
AcDbEntity
  8
0
  6
Continuous
 62
     7
370
    15
100
AcDbCircle
 10
159.3162101921
 20
104.5636814749
 30
0.0
 40
2.155379476505795
100
AcDbArc
 50
153.2383866377
 51
245.0983962113
  0
ARC
  5
EF
330
1F
100
AcDbEntity
  8
0
  6
Continuous
 62
     7
370
    15
100
AcDbCircle
 10
159.5210908337
 20
104.7171407546
 30
0.0
 40
2.383923105808454
100
AcDbArc
 50
242.1837665531
 51
344.2308244915
  0
ARC
  5
F0
330
1F
100
AcDbEntity
  8
0
  6
Continuous
 62
     7
370
    15
100
AcDbCircle
 10
159.3566776447
 20
104.5644525965
 30
0.0
 40
1.831048544814786
100
AcDbArc
 50
124.8963626952
 51
244.8158425989
  0
ARC
  5
F1
330
1F
100
AcDbEntity
  8
0
  6
Continuous
 62
     7
370
    15
100
AcDbCircle
 10
159.5268314702
 20
104.6573072941
 30
0.0
 40
1.990775918189933
100
AcDbArc
 50
241.5195799789
 51
357.4085381625
  0
LWPOLYLINE
  5
F2
330
1F
100
AcDbEntity
  8
0
  6
HIDDEN
 62
     7
370
     0
100
AcDbPolyline
 90
       21
 70
   128
 43
0.0
 10
159.5155711312
 20
103.996569528
 10
160.2881134514
 20
104.1115487504
 10
160.9850342412
 20
104.4452323157
 10
161.5381131906
 20
104.9649568784
 10
161.8932115872
 20
105.6198480117
 10
162.0155706097
 20
106.3458009201
 10
161.8932115872
 20
107.0717528972
 10
161.5381131906
 20
107.7266440305
 10
160.9850342412
 20
108.2463685933
 10
160.2881134514
 20
108.5800521585
 10
159.5155711312
 20
108.6950323123
 10
158.743028811
 20
108.5800521585
 10
158.0461080212
 20
108.2463685933
 10
157.4930281405
 20
107.7266440305
 10
157.1379297439
 20
107.0717528972
 10
157.0155707214
 20
106.3458009201
 10
157.1379297439
 20
105.6198480117
 10
157.4930281405
 20
104.9649568784
 10
158.0461080212
 20
104.4452323157
 10
158.743028811
 20
104.1115487504
 10
159.5155711312
 20
103.996569528
  0
LWPOLYLINE
  5
F3
330
1F
100
AcDbEntity
  8
0
  6
HIDDEN
 62
     7
370
     0
100
AcDbPolyline
 90
       23
 70
   128
 43
0.0
 10
148.7873020142
 20
105.9490258384
 10
148.9926099803
 20
105.1202511925
 10
149.3148773935
 20
104.3586193162
 10
149.7279957894
 20
103.7258321929
 10
150.1984966945
 20
103.2731554049
 10
150.6882629383
 20
103.03726071
 10
151.1576169197
 20
103.03726071
 10
151.5685341347
 20
103.2731554049
 10
151.8877244581
 20
103.7258321929
 10
152.0893287871
 20
104.3586193162
 10
152.1570149835
 20
105.1202511925
 10
152.0852989543
 20
105.9490258384
 10
151.8799907554
 20
106.7778004843
 10
151.5577233423
 20
107.5394332919
 10
151.1446049463
 20
108.1722194839
 10
150.6741040412
 20
108.6248972032
 10
150.1843377974
 20
108.8607909668
 10
149.7149838161
 20
108.8607909668
 10
149.304066601
 20
108.6248972032
 10
148.9848765105
 20
108.1722194839
 10
148.7832719486
 20
107.5394332919
 10
148.715585985
 20
106.7778004843
 10
148.7873020142
 20
105.9490258384
  0
LWPOLYLINE
  5
F4
330
1F
100
AcDbEntity
  8
0
  6
HIDDEN
 62
     7
370
     0
100
AcDbPolyline
 90
       19
 70
   128
 43
0.0
 10
149.5503339011
 20
106.0132880274
 10
149.7376531389
 20
105.3090014073
 10
150.0416042309
 20
104.689662582
 10
150.4255265955
 20
104.229972935
 10
150.8431130115
 20
103.9853768933
 10
151.2439966228
 20
103.9853768933
 10
151.5798254896
 20
104.229972935
 10
151.8100926679
 20
104.689662582
 10
151.9070251871
 20
105.3090014073
 10
151.8589316893
 20
106.0132880274
 10
151.6716124516
 20
106.7175737161
 10
151.3676608939
 20
107.3369125414
 10
150.983738995
 20
107.7966031197
 10
150.5661521133
 20
108.0411982301
 10
150.165268502
 20
108.0411982301
 10
149.8294401009
 20
107.7966031197
 10
149.5991724569
 20
107.3369125414
 10
149.5022399377
 20
106.7175737161
 10
149.5503339011
 20
106.0132880274
  0
ELLIPSE
  5
F5
330
1F
100
AcDbEntity
  8
0
  6
HIDDEN
 62
     7
370
     0
100
AcDbEllipse
 10
159.5155710388
 20
108.1233759702
 30
0.0
 11
1.760776919379083
 21
2.232245799914466
 31
0.0
210
0.0
220
0.0
230
1.0
 40
0.5126701559
 41
1.100887047646266
 42
4.029627027608286
  0
ARC
  5
F6
330
1F
100
AcDbEntity
  8
0
  6
HIDDEN
 62
     7
370
     0
100
AcDbCircle
 10
158.8189715702
 20
109.3009158514
 30
0.0
 40
0.794594954225782
100
AcDbArc
 50
53.4208190544
 51
99.1663888759
  0
ELLIPSE
  5
F7
330
1F
100
AcDbEntity
  8
0
  6
HIDDEN
 62
     7
370
     0
100
AcDbEllipse
 10
159.5155710388
 20
108.1233759702
 30
0.0
 11
1.760776919379083
 21
-1.388886188042932
 31
0.0
210
0.0
220
0.0
230
1.0
 40
0.8239737799
 41
2.549926265248537
 42
4.885930273856099
  0
ARC
  5
F8
330
1F
100
AcDbEntity
  8
0
  6
HIDDEN
 62
     7
370
     0
100
AcDbCircle
 10
159.7616238007
 20
107.2838984062
 30
0.0
 40
1.353195702694764
100
AcDbArc
 50
217.8001040701
 51
249.7155767561
  0
LWPOLYLINE
  5
F9
330
1F
100
AcDbEntity
  8
0
  6
HIDDEN
 62
     7
370
     0
100
AcDbPolyline
 90
       19
 70
   128
 43
0.0
 10
159.5155711312
 20
104.4222398239
 10
160.23381362
 20
104.5412479478
 10
160.8654254142
 20
104.8839169133
 10
161.3342243273
 20
105.4089174184
 10
161.583667903
 20
106.0529251161
 10
161.583667903
 20
106.7382639784
 10
161.3342243273
 20
107.3822716761
 10
160.8654254142
 20
107.9072721812
 10
160.23381362
 20
108.2499411467
 10
159.5155711312
 20
108.3689492706
 10
158.7973286424
 20
108.2499411467
 10
158.1657168482
 20
107.9072721812
 10
157.6969179351
 20
107.3822716761
 10
157.4474743594
 20
106.7382639784
 10
157.4474743594
 20
106.0529251161
 10
157.6969179351
 20
105.4089174184
 10
158.1657168482
 20
104.8839169133
 10
158.7973286424
 20
104.5412479478
 10
159.5155711312
 20
104.4222398239
  0
SPLINE
  5
FA
330
1F
100
AcDbEntity
  8
0
  6
HIDDEN
 62
     7
370
     0
100
AcDbSpline
210
0.0
220
0.0
230
1.0
 70
     8
 71
     3
 72
     8
 73
     4
 74
     0
 42
0.000000001
 43
0.00000001
 40
0.0
 40
0.0
 40
0.0
 40
0.0
 40
1.0
 40
1.0
 40
1.0
 40
1.0
 10
158.6923908626502
 20
110.0853640461102
 30
0.0
 10
158.9038182526514
 20
110.0778545363277
 30
0.0
 10
159.1062867991841
 20
110.023731006693
 30
0.0
 10
159.2924973983215
 20
109.9390027194679
 30
0.0
  0
SPLINE
  5
FB
330
1F
100
AcDbEntity
  8
0
  6
HIDDEN
 62
     7
370
     0
100
AcDbSpline
210
0.0
220
0.0
230
1.0
 70
     8
 71
     3
 72
     8
 73
     4
 74
     0
 42
0.000000001
 43
0.00000001
 40
0.0
 40
0.0
 40
0.0
 40
0.0
 40
1.0
 40
1.0
 40
1.0
 40
1.0
 10
159.2924973983215
 20
106.0146239515336
 30
0.0
 10
159.1059730490371
 20
106.1369443674341
 30
0.0
 10
158.9034181505114
 20
106.2780295280988
 30
0.0
 10
158.6923908626502
 20
106.4545131638837
 30
0.0
  0
SPLINE
  5
FC
330
1F
100
AcDbEntity
  8
0
  6
HIDDEN
 62
     7
370
     0
100
AcDbSpline
210
0.0
220
0.0
230
1.0
 70
    11
 71
     3
 72
    64
 73
    60
 74
     0
 42
0.000000001
 43
0.00000001
 40
0.0
 40
0.0
 40
0.0
 40
0.0
 40
0.0312500000000003
 40
0.0312500000000003
 40
0.0625000000000006
 40
0.0625000000000006
 40
0.0937500000000009
 40
0.0937500000000009
 40
0.1250000000000012
 40
0.1250000000000012
 40
0.1875000000000023
 40
0.1875000000000023
 40
0.2187500000000027
 40
0.2187500000000027
 40
0.2500000000000032
 40
0.2500000000000032
 40
0.2812500000000037
 40
0.2812500000000037
 40
0.3125000000000042
 40
0.3125000000000042
 40
0.3437500000000046
 40
0.3437500000000046
 40
0.3750000000000051
 40
0.3750000000000051
 40
0.406250000000005
 40
0.406250000000005
 40
0.4375000000000049
 40
0.4375000000000049
 40
0.4687500000000048
 40
0.4687500000000048
 40
0.5000000000000047
 40
0.5000000000000047
 40
0.5312500000000047
 40
0.5312500000000047
 40
0.5625000000000046
 40
0.5625000000000046
 40
0.5937500000000046
 40
0.5937500000000046
 40
0.6250000000000046
 40
0.6250000000000046
 40
0.6875000000000041
 40
0.6875000000000041
 40
0.7187500000000039
 40
0.7187500000000039
 40
0.7500000000000036
 40
0.7500000000000036
 40
0.7812500000000033
 40
0.7812500000000033
 40
0.8125000000000031
 40
0.8125000000000031
 40
0.8750000000000023
 40
0.8750000000000023
 40
0.9062500000000018
 40
0.9062500000000018
 40
0.9375000000000012
 40
0.9375000000000012
 40
0.9687500000000006
 40
0.9687500000000006
 40
1.0
 40
1.0
 40
1.0
 40
1.0
 10
159.5155710388096
 20
115.9582079785057
 30
0.0
 10
159.6555133174331
 20
115.9582079785057
 30
0.0
 10
159.7928748169869
 20
115.9694312680422
 30
0.0
 10
160.0627290303003
 20
116.013445626465
 30
0.0
 10
160.1966498051093
 20
116.0468275609234
 30
0.0
 10
160.4503417962616
 20
116.133845685477
 30
0.0
 10
160.5704868984553
 20
116.1872284095441
 30
0.0
 10
160.7978747231986
 20
116.3145085650302
 30
0.0
 10
160.9045667492523
 20
116.3884588728858
 30
0.0
 10
161.1926233377693
 20
116.6340094125258
 30
0.0
 10
161.34870934046
 20
116.8357862013071
 30
0.0
 10
161.5064907929982
 20
117.173862879479
 30
0.0
 10
161.5474518478682
 20
117.2945758314935
 30
0.0
 10
161.601868609255
 20
117.5434292515735
 30
0.0
 10
161.6154783188999
 20
117.6705533799288
 30
0.0
 10
161.615662823558
 20
117.9303434609017
 30
0.0
 10
161.6017537822294
 20
118.063924644568
 30
0.0
 10
161.5476129868816
 20
118.3243298531844
 30
0.0
 10
161.5075650610077
 20
118.4526014520682
 30
0.0
 10
161.4010929008158
 20
118.704847370819
 30
0.0
 10
161.33595380199
 20
118.825557047597
 30
0.0
 10
161.1842420774996
 20
119.0536828725888
 30
0.0
 10
161.0964049549909
 20
119.1625554073472
 30
0.0
 10
160.9032744987215
 20
119.3607441175529
 30
0.0
 10
160.7984040379612
 20
119.4501084643713
 30
0.0
 10
160.5716946823775
 20
119.6087424160867
 30
0.0
 10
160.4490069267397
 20
119.6780641148478
 30
0.0
 10
160.1964551558418
 20
119.7891501573847
 30
0.0
 10
160.0654494770138
 20
119.8319038793648
 30
0.0
 10
159.7933605443466
 20
119.8901303739835
 30
0.0
 10
159.6542048335549
 20
119.9048590588718
 30
0.0
 10
159.378586140033
 20
119.9049745672254
 30
0.0
 10
159.2396022798544
 20
119.890398360309
 30
0.0
 10
158.967189755089
 20
119.8323444445267
 30
0.0
 10
158.8358489366429
 20
119.7896056182352
 30
0.0
 10
158.5823686806141
 20
119.678222185024
 30
0.0
 10
158.4596879933374
 20
119.6088772967153
 30
0.0
 10
158.2332018677661
 20
119.4504663836352
 30
0.0
 10
158.1280581707838
 20
119.3609792094521
 30
0.0
 10
157.8368637213329
 20
119.0620394114648
 30
0.0
 10
157.6830844838063
 20
118.8304092052341
 30
0.0
 10
157.5238295367862
 20
118.4532423770046
 30
0.0
 10
157.4838047908606
 20
118.3252749884777
 30
0.0
 10
157.4295877331287
 20
118.0652614885033
 30
0.0
 10
157.4155614561832
 20
117.9316693184747
 30
0.0
 10
157.4155806315156
 20
117.6715876933834
 30
0.0
 10
157.4291364008507
 20
117.5443119226853
 30
0.0
 10
157.4835100955798
 20
117.2951452429314
 30
0.0
 10
157.5243935753007
 20
117.1744791078039
 30
0.0
 10
157.6824820090316
 20
116.8355528352436
 30
0.0
 10
157.8384318989912
 20
116.6339839877846
 30
0.0
 10
158.1272595615801
 20
116.387925497434
 30
0.0
 10
158.2344574285863
 20
116.3137788319604
 30
0.0
 10
158.4610239189401
 20
116.1870860368311
 30
0.0
 10
158.5810130655608
 20
116.1337445137046
 30
0.0
 10
158.8351509788933
 20
116.046629902163
 30
0.0
 10
158.968800175435
 20
116.0133715355286
 30
0.0
 10
159.2382727311857
 20
115.9694413404457
 30
0.0
 10
159.375628760186
 20
115.9582079785057
 30
0.0
 10
159.5155710388096
 20
115.9582079785057
 30
0.0
  0
CIRCLE
  5
FD
330
1F
100
AcDbEntity
  8
0
  6
HIDDEN
 62
     7
370
     0
100
AcDbCircle
 10
227.2655710388
 20
119.8538860816
 30
0.0
 40
7.25
  0
LINE
  5
FE
330
1F
100
AcDbEntity
  8
0
  6
HIDDEN
 62
     7
370
     0
100
AcDbLine
 10
220.6518634249
 20
150.7237053055
 30
0.0
 11
220.7653804708
 21
150.7035105068
 31
0.0
  0
LINE
  5
FF
330
1F
100
AcDbEntity
  8
0
  6
HIDDEN
 62
     7
370
     0
100
AcDbLine
 10
204.8155724097
 20
119.8538860816
 30
0.0
 11
204.8155724097
 21
102.3538860071
 31
0.0
  0
LINE
  5
100
330
1F
100
AcDbEntity
  8
0
  6
HIDDEN
 62
     7
370
     0
100
AcDbLine
 10
204.8155724097
 20
137.3538861561
 30
0.0
 11
204.8155724097
 21
119.8538860816
 31
0.0
  0
LINE
  5
101
330
1F
100
AcDbEntity
  8
0
  6
HIDDEN
 62
     7
370
     0
100
AcDbLine
 10
209.6815987516
 20
119.8538860816
 30
0.0
 11
209.6815987516
 21
101.8538868564
 31
0.0
  0
LINE
  5
102
330
1F
100
AcDbEntity
  8
0
  6
HIDDEN
 62
     7
370
     0
100
AcDbLine
 10
209.6815987516
 20
137.8538853067
 30
0.0
 11
209.6815987516
 21
119.8538860816
 31
0.0
  0
SPLINE
  5
103
330
1F
100
AcDbEntity
  8
0
  6
HIDDEN
 62
     7
370
     0
100
AcDbSpline
210
0.0
220
0.0
230
1.0
 70
     8
 71
     3
 72
    17
 73
    13
 74
     0
 42
0.000000001
 43
0.00000001
 40
0.0
 40
0.0
 40
0.0
 40
0.0
 40
0.1017082611069044
 40
0.2032486976527651
 40
0.30920654388635
 40
0.4198859411343196
 40
0.5254192183741155
 40
0.6235433508762966
 40
0.7237493109260507
 40
0.8318095078102039
 40
0.9419750006061938
 40
0.9999999999999999
 40
0.9999999999999999
 40
0.9999999999999999
 40
0.9999999999999999
 10
220.0155689407261
 20
137.8538853067284
 30
0.0
 10
220.0894887239739
 20
137.8234630707163
 30
0.0
 10
220.2372063185172
 20
137.7626687971554
 30
0.0
 10
221.3814259735906
 20
137.3315086890633
 30
0.0
 10
223.1088171264118
 20
136.808044954274
 30
0.0
 10
225.3626374000467
 20
136.3788092665883
 30
0.0
 10
227.807179415124
 20
136.280733432283
 30
0.0
 10
230.0902127665769
 20
136.5259827321648
 30
0.0
 10
232.0874139340895
 20
136.9919048423064
 30
0.0
 10
233.6183730134277
 20
137.4981158344261
 30
0.0
 10
234.4709918526218
 20
137.8357243571559
 30
0.0
 10
234.4325532680523
 20
137.8205656810479
 30
0.0
 10
234.4192921210201
 20
137.8153360027199
 30
0.0
  0
LINE
  5
104
330
1F
100
AcDbEntity
  8
0
  6
HIDDEN
 62
     7
370
     0
100
AcDbLine
 10
148.6871438593
 20
84.5538845796
 30
0.0
 11
148.515570958
 21
84.5538845796
 31
0.0
  0
ELLIPSE
  5
105
330
1F
100
AcDbEntity
  8
0
  6
HIDDEN
 62
     7
370
     0
100
AcDbEllipse
 10
148.6871439141
 20
82.5538860816
 30
0.0
 11
0.0
 21
2.0
 31
0.0
210
0.0
220
0.0
230
1.0
 40
0.4142135624
 41
4.712388980384695
 42
6.283185307179586
  0
LINE
  5
106
330
1F
100
AcDbEntity
  8
0
  6
HIDDEN
 62
     7
370
     0
100
AcDbLine
 10
148.515570958
 20
157.3538875717
 30
0.0
 11
148.6871438593
 21
157.3538875717
 31
0.0
  0
ELLIPSE
  5
107
330
1F
100
AcDbEntity
  8
0
  6
HIDDEN
 62
     7
370
     0
100
AcDbEllipse
 10
148.6871439141
 20
159.3538860816
 30
0.0
 11
0.0
 21
2.0
 31
0.0
210
0.0
220
0.0
230
1.0
 40
0.4142135624
 41
3.141592653589793
 42
4.712388980384695
  0
LINE
  5
108
330
1F
100
AcDbEntity
  8
0
  6
HIDDEN
 62
     7
370
     0
100
AcDbLine
 10
149.5155708891
 20
73.6679716545
 30
0.0
 11
148.7312310401
 21
73.2204301793
 31
0.0
  0
LINE
  5
109
330
1F
100
AcDbEntity
  8
0
  6
HIDDEN
 62
     7
370
     0
100
AcDbLine
 10
148.805439987
 20
166.5640494365
 30
0.0
 11
149.5155708891
 21
165.8539196986
 31
0.0
  0
LINE
  5
10A
330
1F
100
AcDbEntity
  8
0
  6
HIDDEN
 62
     7
370
     0
100
AcDbLine
 10
149.5155708891
 20
165.8539196986
 30
0.0
 11
153.7389003698
 21
165.8539196986
 31
0.0
  0
LINE
  5
10B
330
1F
100
AcDbEntity
  8
0
  6
HIDDEN
 62
     7
370
     0
100
AcDbLine
 10
159.0922421802
 20
165.8539196986
 30
0.0
 11
164.3655712742
 21
165.8539196986
 31
0.0
  0
LINE
  5
10C
330
1F
100
AcDbEntity
  8
0
  6
HIDDEN
 62
     7
370
     0
100
AcDbLine
 10
149.5155708891
 20
165.8539196986
 30
0.0
 11
149.5155708891
 21
159.3538878995
 31
0.0
  0
LINE
  5
10D
330
1F
100
AcDbEntity
  8
0
  6
HIDDEN
 62
     7
370
     0
100
AcDbLine
 10
148.6871438593
 20
157.3538875717
 30
0.0
 11
164.3655712742
 21
157.3538875717
 31
0.0
  0
LINE
  5
10E
330
1F
100
AcDbEntity
  8
0
  6
HIDDEN
 62
     7
370
     0
100
AcDbLine
 10
164.3655712742
 20
84.5538845796
 30
0.0
 11
148.6871438593
 21
84.5538845796
 31
0.0
  0
LINE
  5
10F
330
1F
100
AcDbEntity
  8
0
  6
HIDDEN
 62
     7
370
     0
100
AcDbLine
 10
153.635523564
 20
73.6679716545
 30
0.0
 11
149.5155708891
 21
73.6679716545
 31
0.0
  0
LINE
  5
110
330
1F
100
AcDbEntity
  8
0
  6
HIDDEN
 62
     7
370
     0
100
AcDbLine
 10
164.3655712742
 20
73.6679716545
 30
0.0
 11
159.195618986
 21
73.6679716545
 31
0.0
  0
LINE
  5
111
330
1F
100
AcDbEntity
  8
0
  6
HIDDEN
 62
     7
370
     0
100
AcDbLine
 10
149.5155708891
 20
73.6679716545
 30
0.0
 11
149.5155708891
 21
82.5538842517
 31
0.0
  0
LINE
  5
112
330
1F
100
AcDbEntity
  8
0
  6
HIDDEN
 62
     7
370
     0
100
AcDbLine
 10
53.7155701805
 20
107.3538858953
 30
0.0
 11
53.7155701805
 21
132.3538862679
 31
0.0
  0
LINE
  5
113
330
1F
100
AcDbEntity
  8
0
  6
HIDDEN
 62
     7
370
     0
100
AcDbLine
 10
57.0001735378
 20
109.3538862231
 30
0.0
 11
57.0001735378
 21
130.35388594
 31
0.0
  0
LINE
  5
114
330
1F
100
AcDbEntity
  8
0
  6
HIDDEN
 62
     7
370
     0
100
AcDbLine
 10
105.7155712534
 20
109.3538862231
 30
0.0
 11
105.7155712534
 21
130.35388594
 31
0.0
  0
LINE
  5
115
330
1F
100
AcDbEntity
  8
0
  6
HIDDEN
 62
     7
370
     0
100
AcDbLine
 10
108.4194428314
 20
125.8538861337
 30
0.0
 11
108.4194428314
 21
113.8538860294
 31
0.0
  0
LINE
  5
116
330
1F
100
AcDbEntity
  8
0
  6
HIDDEN
 62
     7
370
     0
100
AcDbLine
 10
220.0155689407
 20
148.8538852471
 30
0.0
 11
234.5155685235
 21
148.8538852471
 31
0.0
  0
SPLINE
  5
117
330
1F
100
AcDbEntity
  8
0
  6
HIDDEN
 62
     7
370
     0
100
AcDbSpline
210
0.0
220
0.0
230
1.0
 70
    11
 71
     3
 72
    64
 73
    60
 74
     0
 42
0.000000001
 43
0.00000001
 40
0.0
 40
0.0
 40
0.0
 40
0.0
 40
0.0312500000000002
 40
0.0312500000000002
 40
0.0625000000000003
 40
0.0625000000000003
 40
0.0937500000000005
 40
0.0937500000000005
 40
0.1250000000000006
 40
0.1250000000000006
 40
0.1875000000000006
 40
0.1875000000000006
 40
0.2187500000000006
 40
0.2187500000000006
 40
0.2500000000000006
 40
0.2500000000000006
 40
0.2812500000000006
 40
0.2812500000000006
 40
0.3125000000000005
 40
0.3125000000000005
 40
0.3437500000000005
 40
0.3437500000000005
 40
0.3750000000000005
 40
0.3750000000000005
 40
0.4062500000000005
 40
0.4062500000000005
 40
0.4375000000000004
 40
0.4375000000000004
 40
0.4687500000000004
 40
0.4687500000000004
 40
0.5000000000000004
 40
0.5000000000000004
 40
0.5312500000000003
 40
0.5312500000000003
 40
0.5625000000000003
 40
0.5625000000000003
 40
0.5937500000000002
 40
0.5937500000000002
 40
0.6250000000000001
 40
0.6250000000000001
 40
0.6875000000000002
 40
0.6875000000000002
 40
0.7187500000000004
 40
0.7187500000000004
 40
0.7500000000000006
 40
0.7500000000000006
 40
0.7812500000000006
 40
0.7812500000000006
 40
0.8125000000000007
 40
0.8125000000000007
 40
0.8750000000000007
 40
0.8750000000000007
 40
0.9062500000000006
 40
0.9062500000000006
 40
0.9375000000000003
 40
0.9375000000000003
 40
0.9687500000000002
 40
0.9687500000000002
 40
1.0
 40
1.0
 40
1.0
 40
1.0
 10
159.5155710388096
 20
119.802855177371
 30
0.0
 10
159.375628760186
 20
119.802855177371
 30
0.0
 10
159.2382672606323
 20
119.8176542774769
 30
0.0
 10
158.9684130473189
 20
119.8751710558853
 30
0.0
 10
158.8344922725098
 20
119.9186468979517
 30
0.0
 10
158.5808002813575
 20
120.030356289146
 30
0.0
 10
158.4606551791639
 20
120.0982676651933
 30
0.0
 10
158.2332673544205
 20
120.2572109232642
 30
0.0
 10
158.1265753283668
 20
120.348259977056
 30
0.0
 10
157.8385187398498
 20
120.6441446111479
 30
0.0
 10
157.6824327371591
 20
120.8791822802893
 30
0.0
 10
157.5246512846209
 20
121.2524463843336
 30
0.0
 10
157.4836902297509
 20
121.3827045297502
 30
0.0
 10
157.4292734683641
 20
121.644362580175
 30
0.0
 10
157.4156637587192
 20
121.7747729013874
 30
0.0
 10
157.4154792540611
 20
122.0346071553684
 30
0.0
 10
157.4293882953898
 20
122.1648310167811
 30
0.0
 10
157.4835290907376
 20
122.4124964054059
 30
0.0
 10
157.5235770166114
 20
122.5314269077268
 30
0.0
 10
157.6300491768034
 20
122.7599233464032
 30
0.0
 10
157.6951882756291
 20
122.8665243855868
 30
0.0
 10
157.8469000001196
 20
123.0638870399768
 30
0.0
 10
157.9347371226283
 20
123.1558698191129
 30
0.0
 10
158.1278675788976
 20
123.3203273710495
 30
0.0
 10
158.232738039658
 20
123.3928958160139
 30
0.0
 10
158.4594473952417
 20
123.5199386504995
 30
0.0
 10
158.5821351508794
 20
123.5744334348804
 30
0.0
 10
158.8346869217773
 20
123.6609619824821
 30
0.0
 10
158.9656926006053
 20
123.6937919132478
 30
0.0
 10
159.2377815332726
 20
123.7383515132705
 30
0.0
 10
159.3769372440643
 20
123.7495201267627
 30
0.0
 10
159.6525559375861
 20
123.7496079797895
 30
0.0
 10
159.7915397977648
 20
123.7385554895607
 30
0.0
 10
160.0639523225302
 20
123.6941301641373
 30
0.0
 10
160.1952931409762
 20
123.6613149194106
 30
0.0
 10
160.4487733970051
 20
123.5745583872243
 30
0.0
 10
160.5714540842818
 20
123.5200445670986
 30
0.0
 10
160.7979402098531
 20
123.3931845542674
 30
0.0
 10
160.9030839068353
 20
123.3205258813061
 30
0.0
 10
161.1942783562863
 20
123.0724544845358
 30
0.0
 10
161.3480575938129
 20
122.8736563325352
 30
0.0
 10
161.5073125408329
 20
122.5320109529381
 30
0.0
 10
161.5473372867585
 20
122.4133773176873
 30
0.0
 10
161.6015543444905
 20
122.1661202851682
 30
0.0
 10
161.6155806214359
 20
122.0359133325986
 30
0.0
 10
161.6155614461035
 20
121.7758271166624
 30
0.0
 10
161.6020056767685
 20
121.6452779398952
 30
0.0
 10
161.5476319820393
 20
121.3833158948061
 30
0.0
 10
161.5067485023185
 20
121.2531209285378
 30
0.0
 10
161.3486600685875
 20
120.8789362433075
 30
0.0
 10
161.1927101786279
 20
120.6441253228538
 30
0.0
 10
160.903882516039
 20
120.3476115748432
 30
0.0
 10
160.7966846490329
 20
120.2563054252736
 30
0.0
 10
160.5701181586791
 20
120.0980840664162
 30
0.0
 10
160.4501290120583
 20
120.0302278835182
 30
0.0
 10
160.1959910987258
 20
119.9183916752533
 30
0.0
 10
160.0623419021841
 20
119.8750744038078
 30
0.0
 10
159.7928693464334
 20
119.8176672716144
 30
0.0
 10
159.6555133174331
 20
119.802855177371
 30
0.0
 10
159.5155710388096
 20
119.802855177371
 30
0.0
  0
SPLINE
  5
118
330
1F
100
AcDbEntity
  8
0
  6
HIDDEN
 62
     7
370
     0
100
AcDbSpline
210
0.0
220
0.0
230
1.0
 70
     8
 71
     3
 72
     8
 73
     4
 74
     0
 42
0.000000001
 43
0.00000001
 40
0.0
 40
0.0
 40
0.0
 40
0.0
 40
1.0
 40
1.0
 40
1.0
 40
1.0
 10
158.6923908626501
 20
129.6224081170674
 30
0.0
 10
158.9038182526513
 20
129.6299176268499
 30
0.0
 10
159.1062867991841
 20
129.6840411564846
 30
0.0
 10
159.2924973983214
 20
129.7687694437097
 30
0.0
  0
ELLIPSE
  5
119
330
1F
100
AcDbEntity
  8
0
  6
HIDDEN
 62
     7
370
     0
100
AcDbEllipse
 10
159.5155710388
 20
131.5843961929
 30
0.0
 11
-1.760776919379055
 21
2.232245799914466
 31
0.0
210
0.0
220
0.0
230
1.0
 40
0.5126701559
 41
5.395150933160695
 42
8.323890913123117
  0
SPLINE
  5
11A
330
1F
100
AcDbEntity
  8
0
  6
HIDDEN
 62
     7
370
     0
100
AcDbSpline
210
0.0
220
0.0
230
1.0
 70
     8
 71
     3
 72
     8
 73
     4
 74
     0
 42
0.000000001
 43
0.00000001
 40
0.0
 40
0.0
 40
0.0
 40
0.0
 40
1.0
 40
1.0
 40
1.0
 40
1.0
 10
159.2924973983223
 20
133.6931482116444
 30
0.0
 10
159.1059730490375
 20
133.5708277957437
 30
0.0
 10
158.9034181505113
 20
133.4297426350786
 30
0.0
 10
158.6923908626494
 20
133.2532589992933
 30
0.0
  0
ELLIPSE
  5
11B
330
1F
100
AcDbEntity
  8
0
  6
HIDDEN
 62
     7
370
     0
100
AcDbEllipse
 10
159.5155710388
 20
131.5843961929
 30
0.0
 11
1.760776919379111
 21
1.388886188042903
 31
0.0
210
0.0
220
0.0
230
1.0
 40
0.8239737799
 41
1.397255033323977
 42
3.733259041931076
  0
LWPOLYLINE
  5
11C
330
1F
100
AcDbEntity
  8
0
  6
HIDDEN
 62
     7
370
     0
100
AcDbPolyline
 90
       19
 70
   128
 43
0.0
 10
159.5155711312
 20
131.3388228926
 10
160.23381362
 20
131.4578310165
 10
160.8654254142
 20
131.800499982
 10
161.3342243273
 20
132.3255004871
 10
161.583667903
 20
132.9695081848
 10
161.583667903
 20
133.654847047
 10
161.3342243273
 20
134.2988547447
 10
160.8654254142
 20
134.8238552499
 10
160.23381362
 20
135.1665242154
 10
159.5155711312
 20
135.2855323392
 10
158.7973286424
 20
135.1665242154
 10
158.1657168482
 20
134.8238552499
 10
157.6969179351
 20
134.2988547447
 10
157.4474743594
 20
133.654847047
 10
157.4474743594
 20
132.9695081848
 10
157.6969179351
 20
132.3255004871
 10
158.1657168482
 20
131.800499982
 10
158.7973286424
 20
131.4578310165
 10
159.5155711312
 20
131.3388228926
  0
LINE
  5
11D
330
1F
100
AcDbEntity
  8
0
  6
HIDDEN
 62
     7
370
     0
100
AcDbLine
 10
154.5055707011
 20
155.2469304341
 30
0.0
 11
154.5055707011
 21
149.7038865972
 31
0.0
  0
LINE
  5
11E
330
1F
100
AcDbEntity
  8
0
  6
HIDDEN
 62
     7
370
     0
100
AcDbLine
 10
158.3255709175
 20
155.2469304341
 30
0.0
 11
158.3255709175
 21
149.7038865972
 31
0.0
  0
SPLINE
  5
11F
330
1F
100
AcDbEntity
  8
0
  6
HIDDEN
 62
     7
370
     0
100
AcDbSpline
210
0.0
220
0.0
230
1.0
 70
     8
 71
     3
 72
    14
 73
    10
 74
     0
 42
0.000000001
 43
0.00000001
 40
0.0
 40
0.0
 40
0.0
 40
0.0
 40
0.25
 40
0.25
 40
0.5
 40
0.5
 40
0.75
 40
0.75
 40
1.0
 40
1.0
 40
1.0
 40
1.0
 10
157.5255710388094
 20
136.8291756385226
 30
0.0
 10
157.599996590944
 20
136.9200330933042
 30
0.0
 10
157.6818748505574
 20
137.00924367651
 30
0.0
 10
157.854860996733
 20
137.1846679953019
 30
0.0
 10
157.945532816594
 20
137.2702029509286
 30
0.0
 10
158.1128963659384
 20
137.4310545638671
 30
0.0
 10
158.1893471909049
 20
137.5067866527636
 30
0.0
 10
158.2956402757433
 20
137.638377676339
 30
0.0
 10
158.3255710388096
 20
137.6953778512453
 30
0.0
 10
158.3255710388096
 20
137.7375751241973
 30
0.0
  0
LINE
  5
120
330
1F
100
AcDbEntity
  8
0
  6
HIDDEN
 62
     7
370
     0
100
AcDbLine
 10
158.3255709175
 20
106.0566243294
 30
0.0
 11
158.3255709175
 21
101.9245835531
 31
0.0
  0
SPLINE
  5
121
330
1F
100
AcDbEntity
  8
0
  6
HIDDEN
 62
     7
370
     0
100
AcDbSpline
210
0.0
220
0.0
230
1.0
 70
     8
 71
     3
 72
    14
 73
    10
 74
     0
 42
0.000000001
 43
0.00000001
 40
0.0
 40
0.0
 40
0.0
 40
0.0
 40
0.25
 40
0.25
 40
0.5
 40
0.5
 40
0.75
 40
0.75
 40
1.0
 40
1.0
 40
1.0
 40
1.0
 10
158.3255710388096
 20
133.6055339255659
 30
0.0
 10
158.3255710388096
 20
133.5630335079113
 30
0.0
 10
158.2958575799929
 20
133.5357616014286
 30
0.0
 10
158.1897762131007
 20
133.5222088274615
 30
0.0
 10
158.1134092839361
 20
133.5366543846025
 30
0.0
 10
157.9446497394077
 20
133.6090305486223
 30
0.0
 10
157.8538529269358
 20
133.6661034837398
 30
0.0
 10
157.6822879867284
 20
133.8072614172567
 30
0.0
 10
157.6002267464339
 20
133.8918386323402
 30
0.0
 10
157.5255710388094
 20
133.9852117954695
 30
0.0
  0
LINE
  5
122
330
1F
100
AcDbEntity
  8
0
  6
HIDDEN
 62
     7
370
     0
100
AcDbLine
 10
153.1824099857
 20
158.3649648863
 30
0.0
 11
153.1824099857
 21
149.7038865972
 31
0.0
  0
LINE
  5
123
330
1F
100
AcDbEntity
  8
0
  6
HIDDEN
 62
     7
370
     0
100
AcDbLine
 10
159.6487325642
 20
105.5567388001
 30
0.0
 11
159.6487325642
 21
100.8649452168
 31
0.0
  0
LINE
  5
124
330
1F
100
AcDbEntity
  8
0
  6
HIDDEN
 62
     7
370
     0
100
AcDbLine
 10
159.6487325642
 20
158.3649648863
 30
0.0
 11
159.6487325642
 21
149.7038865972
 31
0.0
  0
ARC
  5
125
330
1F
100
AcDbEntity
  8
0
  6
HIDDEN
 62
     7
370
     0
100
AcDbCircle
 10
159.7616238007
 20
132.4238737569
 30
0.0
 40
1.353195702694791
100
AcDbArc
 50
110.2844232439
 51
142.1998959299
  0
ARC
  5
126
330
1F
100
AcDbEntity
  8
0
  6
HIDDEN
 62
     7
370
     0
100
AcDbCircle
 10
158.8189715702
 20
130.4068563118
 30
0.0
 40
0.7945949542257307
100
AcDbArc
 50
260.8336111241
 51
306.5791809456
  0
LWPOLYLINE
  5
127
330
1F
100
AcDbEntity
  8
0
  6
HIDDEN
 62
     7
370
     0
100
AcDbPolyline
 90
       19
 70
   128
 43
0.0
 10
149.5503339011
 20
132.5668378312
 10
149.7376531389
 20
132.0455458525
 10
150.0416042309
 20
131.7231396723
 10
150.4255265955
 20
131.638507596
 10
150.8431130115
 20
131.8018569189
 10
151.2439966228
 20
132.1934845808
 10
151.5798254896
 20
132.766154832
 10
151.8100926679
 20
133.4507952023
 10
151.9070251871
 20
134.1648290444
 10
151.8589316893
 20
134.8221313718
 10
151.6716124516
 20
135.3434233505
 10
151.3676608939
 20
135.6658285993
 10
150.983738995
 20
135.750461607
 10
150.5661521133
 20
135.5871132153
 10
150.165268502
 20
135.1954846221
 10
149.8294401009
 20
134.622814371
 10
149.5991724569
 20
133.9381740007
 10
149.5022399377
 20
133.2241401586
 10
149.5503339011
 20
132.5668378312
  0
LWPOLYLINE
  5
128
330
1F
100
AcDbEntity
  8
0
  6
HIDDEN
 62
     7
370
     0
100
AcDbPolyline
 90
       23
 70
   128
 43
0.0
 10
148.7873020142
 20
132.147821835
 10
148.9926099803
 20
131.5196149561
 10
149.3148773935
 20
131.0728092256
 10
149.7279957894
 20
130.8436023581
 10
150.1984966945
 20
130.8505621317
 10
150.6882629383
 20
131.0931269589
 10
151.1576169197
 20
131.5516431394
 10
151.5685341347
 20
132.188966735
 10
151.8877244581
 20
132.9534642908
 10
152.0893287871
 20
133.783200993
 10
152.1570149835
 20
134.6109558407
 10
152.0852989543
 20
135.3696708146
 10
151.8799907554
 20
135.9978767622
 10
151.5577233423
 20
136.4446824926
 10
151.1446049463
 20
136.6738902915
 10
150.6741040412
 20
136.6669295865
 10
150.1843377974
 20
136.4243647593
 10
149.7149838161
 20
135.9658485788
 10
149.304066601
 20
135.3285259146
 10
148.9848765105
 20
134.5640283588
 10
148.7832719486
 20
133.7342916566
 10
148.715585985
 20
132.9065358776
 10
148.7873020142
 20
132.147821835
  0
LWPOLYLINE
  5
129
330
1F
100
AcDbEntity
  8
0
  6
HIDDEN
 62
     7
370
     0
100
AcDbPolyline
 90
       21
 70
   128
 43
0.0
 10
159.5155711312
 20
131.0127398509
 10
160.2881134514
 20
131.1277200046
 10
160.9850342412
 20
131.4614035699
 10
161.5381131906
 20
131.9811281327
 10
161.8932115872
 20
132.636019266
 10
162.0155706097
 20
133.361971243
 10
161.8932115872
 20
134.0879241514
 10
161.5381131906
 20
134.7428152847
 10
160.9850342412
 20
135.2625398475
 10
160.2881134514
 20
135.5962234128
 10
159.5155711312
 20
135.7112026352
 10
158.743028811
 20
135.5962234128
 10
158.0461080212
 20
135.2625398475
 10
157.4930281405
 20
134.7428152847
 10
157.1379297439
 20
134.0879241514
 10
157.0155707214
 20
133.361971243
 10
157.1379297439
 20
132.636019266
 10
157.4930281405
 20
131.9811281327
 10
158.0461080212
 20
131.4614035699
 10
158.743028811
 20
131.1277200046
 10
159.5155711312
 20
131.0127398509
  0
SPLINE
  5
12A
330
1F
100
AcDbEntity
  8
0
  6
HIDDEN
 62
     7
370
     0
100
AcDbSpline
210
0.0
220
0.0
230
1.0
 70
     8
 71
     3
 72
    34
 73
    30
 74
     0
 42
0.000000001
 43
0.00000001
 40
0.0
 40
0.0
 40
0.0
 40
0.0
 40
0.062499999999999
 40
0.062499999999999
 40
0.124999999999998
 40
0.124999999999998
 40
0.1874999999999971
 40
0.1874999999999971
 40
0.2499999999999966
 40
0.2499999999999966
 40
0.3124999999999962
 40
0.3124999999999962
 40
0.3749999999999957
 40
0.3749999999999957
 40
0.4999999999999958
 40
0.4999999999999958
 40
0.6249999999999958
 40
0.6249999999999958
 40
0.6874999999999964
 40
0.6874999999999964
 40
0.7499999999999971
 40
0.7499999999999971
 40
0.8124999999999979
 40
0.8124999999999979
 40
0.8749999999999986
 40
0.8749999999999986
 40
0.9374999999999992
 40
0.9374999999999992
 40
1.0
 40
1.0
 40
1.0
 40
1.0
 10
159.6487325462715
 20
138.84282646959
 30
0.0
 10
159.8081243740593
 20
138.8349863736672
 30
0.0
 10
159.9641268575029
 20
138.8133277255768
 30
0.0
 10
160.2696363735802
 20
138.7434794980839
 30
0.0
 10
160.4205307085924
 20
138.6946537957557
 30
0.0
 10
160.7084300532832
 20
138.5717298423484
 30
0.0
 10
160.8443764562429
 20
138.4984223342141
 30
0.0
 10
161.1005590718349
 20
138.3284117104427
 30
0.0
 10
161.221741359594
 20
138.2305379182413
 30
0.0
 10
161.4388874314668
 20
138.0179537428093
 30
0.0
 10
161.5358493044271
 20
137.9029078042797
 30
0.0
 10
161.7064117402527
 20
137.6550466841596
 30
0.0
 10
161.7796517934646
 20
137.522013187094
 30
0.0
 10
161.9545322502134
 20
137.1125051709638
 30
0.0
 10
162.0155702111894
 20
136.8145445211888
 30
0.0
 10
162.0155718664125
 20
136.2231029653143
 30
0.0
 10
161.9545372568262
 20
135.9229294153377
 30
0.0
 10
161.7796474894243
 20
135.50769813507
 30
0.0
 10
161.7064037839999
 20
135.3723430168231
 30
0.0
 10
161.5358430682632
 20
135.1194436854365
 30
0.0
 10
161.4388793526697
 20
135.0016784078287
 30
0.0
 10
161.2217190240825
 20
134.7835481124601
 30
0.0
 10
161.1005377653957
 20
134.6828447873131
 30
0.0
 10
160.844367538457
 20
134.5076010944799
 30
0.0
 10
160.7084241887943
 20
134.4318561253893
 30
0.0
 10
160.4205214856112
 20
134.304687750087
 30
0.0
 10
160.2696312896944
 20
134.2540864777596
 30
0.0
 10
159.9641257859888
 20
134.1816573780117
 30
0.0
 10
159.8081243877253
 20
134.1591716066148
 30
0.0
 10
159.6487325462715
 20
134.1510331467199
 30
0.0
  0
SPLINE
  5
12B
330
1F
100
AcDbEntity
  8
0
  6
HIDDEN
 62
     7
370
     0
100
AcDbSpline
210
0.0
220
0.0
230
1.0
 70
     8
 71
     3
 72
    10
 73
     6
 74
     0
 42
0.000000001
 43
0.00000001
 40
0.0
 40
0.0
 40
0.0
 40
0.0
 40
0.5
 40
0.5
 40
1.0
 40
1.0
 40
1.0
 40
1.0
 10
159.6487325462715
 20
134.1510331467199
 30
0.0
 10
159.426005519398
 20
134.0075446464261
 30
0.0
 10
159.2043196321729
 20
133.8928239006932
 30
0.0
 10
158.763098794321
 20
133.7230634713354
 30
0.0
 10
158.5435401469221
 20
133.667643476948
 30
0.0
 10
158.3255710388099
 20
133.6511481475784
 30
0.0
  0
SPLINE
  5
12C
330
1F
100
AcDbEntity
  8
0
  6
HIDDEN
 62
     7
370
     0
100
AcDbSpline
210
0.0
220
0.0
230
1.0
 70
     8
 71
     3
 72
    10
 73
     6
 74
     0
 42
0.000000001
 43
0.00000001
 40
0.0
 40
0.0
 40
0.0
 40
0.0
 40
0.5
 40
0.5
 40
1.0
 40
1.0
 40
1.0
 40
1.0
 10
158.3255710388099
 20
137.7831893462099
 30
0.0
 10
158.5424618713306
 20
138.0202282856584
 30
0.0
 10
158.7616145079895
 20
138.2223985206519
 30
0.0
 10
159.2030990082584
 20
138.5731505921706
 30
0.0
 10
159.4263014735318
 20
138.7218266845674
 30
0.0
 10
159.6487325462715
 20
138.84282646959
 30
0.0
  0
SPLINE
  5
12D
330
1F
100
AcDbEntity
  8
0
  6
HIDDEN
 62
     7
370
     0
100
AcDbSpline
210
0.0
220
0.0
230
1.0
 70
     8
 71
     3
 72
    16
 73
    12
 74
     0
 42
0.000000001
 43
0.00000001
 40
0.0
 40
0.0
 40
0.0
 40
0.0
 40
0.2499999999999994
 40
0.2499999999999994
 40
0.4999999999999989
 40
0.4999999999999989
 40
0.7499999999999983
 40
0.7499999999999983
 40
0.8749999999999991
 40
0.8749999999999991
 40
1.0
 40
1.0
 40
1.0
 40
1.0
 10
157.5255710388096
 20
133.9852117954692
 30
0.0
 10
157.3601569323294
 20
134.1920980314946
 30
0.0
 10
157.2339596013538
 20
134.4179667293035
 30
0.0
 10
157.059553303023
 20
134.9068359749163
 30
0.0
 10
157.0157232639261
 20
135.1586030282608
 30
0.0
 10
157.0154195909561
 20
135.6703823528431
 30
0.0
 10
157.0592764510164
 20
135.9214370619258
 30
0.0
 10
157.1891982102835
 20
136.2822856300678
 30
0.0
 10
157.2433130216915
 20
136.3995583984164
 30
0.0
 10
157.3699900118349
 20
136.6220473497551
 30
0.0
 10
157.4428637321958
 20
136.7282079579986
 30
0.0
 10
157.5255710388096
 20
136.8291756385229
 30
0.0
  0
LINE
  5
12E
330
1F
100
AcDbEntity
  8
0
  6
HIDDEN
 62
     7
370
     0
100
AcDbLine
 10
219.5381655384
 20
150.3538864243
 30
0.0
 11
223.4256028224
 21
150.3538864243
 31
0.0
  0
LINE
  5
12F
330
1F
100
AcDbEntity
  8
0
  6
HIDDEN
 62
     7
370
     0
100
AcDbLine
 10
231.0467048574
 20
150.3538864243
 30
0.0
 11
235.2655737687
 21
150.3538864243
 31
0.0
  0
LINE
  5
130
330
1F
100
AcDbEntity
  8
0
  6
HIDDEN
 62
     7
370
     0
100
AcDbLine
 10
219.2655711461
 20
150.3538864243
 30
0.0
 11
219.5381655384
 21
150.3538864243
 31
0.0
  0
LINE
  5
131
330
1F
100
AcDbEntity
  8
0
  6
HIDDEN
 62
     7
370
     0
100
AcDbLine
 10
219.5381655384
 20
140.1840134102
 30
0.0
 11
235.2655737687
 21
140.1840134102
 31
0.0
  0
LINE
  5
132
330
1F
100
AcDbEntity
  8
0
  6
HIDDEN
 62
     7
370
     0
100
AcDbLine
 10
219.2655711461
 20
140.1840134102
 30
0.0
 11
219.5381655384
 21
140.1840134102
 31
0.0
  0
LINE
  5
133
330
1F
100
AcDbEntity
  8
0
  6
HIDDEN
 62
     7
370
     0
100
AcDbLine
 10
222.3235725451
 20
130.853886022
 30
0.0
 11
232.381908505
 21
130.853886022
 31
0.0
  0
LINE
  5
134
330
1F
100
AcDbEntity
  8
0
  6
HIDDEN
 62
     7
370
     0
100
AcDbLine
 10
222.1492364098
 20
130.853886022
 30
0.0
 11
222.3235725451
 21
130.853886022
 31
0.0
  0
SPLINE
  5
135
330
1F
100
AcDbEntity
  8
0
  6
HIDDEN
 62
     7
370
     0
100
AcDbSpline
210
0.0
220
0.0
230
1.0
 70
     8
 71
     3
 72
    11
 73
     7
 74
     0
 42
0.000000001
 43
0.00000001
 40
0.0
 40
0.0
 40
0.0
 40
0.0
 40
0.2164556954477531
 40
0.4403138242358914
 40
0.7519024205768376
 40
1.0
 40
1.0
 40
1.0
 40
1.0
 10
223.9995881009968
 20
151.2726864355927
 30
0.0
 10
224.3051995878092
 20
151.1278089272597
 30
0.0
 10
224.926873978083
 20
150.833099335036
 30
0.0
 10
226.0805339926974
 20
150.5874617960426
 30
0.0
 10
227.3180345233621
 20
150.7355681500119
 30
0.0
 10
228.1099590586381
 20
151.1077193318836
 30
0.0
 10
228.4610032130154
 20
151.2726864355927
 30
0.0
  0
SPLINE
  5
136
330
1F
100
AcDbEntity
  8
0
  6
HIDDEN
 62
     7
370
     0
100
AcDbSpline
210
0.0
220
0.0
230
1.0
 70
     8
 71
     3
 72
    11
 73
     7
 74
     0
 42
0.000000001
 43
0.00000001
 40
0.0
 40
0.0
 40
0.0
 40
0.0
 40
0.2164569968405302
 40
0.4403142393093038
 40
0.7519022956464054
 40
1.0
 40
1.0
 40
1.0
 40
1.0
 10
228.4610032130154
 20
151.2726864355927
 30
0.0
 10
228.6847294029281
 20
151.1278090926006
 30
0.0
 10
229.1398305480187
 20
150.8331013307642
 30
0.0
 10
229.9843681433738
 20
150.5874610727676
 30
0.0
 10
230.8902780739557
 20
150.73556884039
 30
0.0
 10
231.4700108621275
 20
151.1077194015987
 30
0.0
 10
231.7269950199993
 20
151.2726864355927
 30
0.0
  0
SPLINE
  5
137
330
1F
100
AcDbEntity
  8
0
  6
HIDDEN
 62
     7
370
     0
100
AcDbSpline
210
0.0
220
0.0
230
1.0
 70
     8
 71
     3
 72
    11
 73
     7
 74
     0
 42
0.000000001
 43
0.00000001
 40
0.0
 40
0.0
 40
0.0
 40
0.0
 40
0.1845135579579981
 40
0.5180565900825715
 40
0.8676124437791672
 40
1.0
 40
1.0
 40
1.0
 40
1.0
 10
231.7269950199993
 20
151.2726864355927
 30
0.0
 10
231.6575674565759
 20
151.1481454125257
 30
0.0
 10
231.4626364869339
 20
150.7984730174481
 30
0.0
 10
231.0993129529139
 20
150.5387500757183
 30
0.0
 10
230.7616997701946
 20
150.8518588005782
 30
0.0
 10
230.5811523335761
 20
151.1819986056433
 30
0.0
 10
230.5315568138035
 20
151.2726864355927
 30
0.0
  0
SPLINE
  5
138
330
1F
100
AcDbEntity
  8
0
  6
HIDDEN
 62
     7
370
     0
100
AcDbSpline
210
0.0
220
0.0
230
1.0
 70
     8
 71
     3
 72
    11
 73
     7
 74
     0
 42
0.000000001
 43
0.00000001
 40
0.0
 40
0.0
 40
0.0
 40
0.0
 40
0.2164567739069539
 40
0.4403131223879287
 40
0.7519027682466103
 40
1.0
 40
1.0
 40
1.0
 40
1.0
 10
230.5315568138035
 20
151.2726864355927
 30
0.0
 10
230.2259426786337
 20
151.1278090962978
 30
0.0
 10
229.6042669894251
 20
150.8331017860262
 30
0.0
 10
228.4506070892585
 20
150.5874606669541
 30
0.0
 10
227.2131047951602
 20
150.7355674071845
 30
0.0
 10
226.4211783292487
 20
151.107719407243
 30
0.0
 10
226.0701342512043
 20
151.2726864355927
 30
0.0
  0
SPLINE
  5
139
330
1F
100
AcDbEntity
  8
0
  6
HIDDEN
 62
     7
370
     0
100
AcDbSpline
210
0.0
220
0.0
230
1.0
 70
     8
 71
     3
 72
    11
 73
     7
 74
     0
 42
0.000000001
 43
0.00000001
 40
0.0
 40
0.0
 40
0.0
 40
0.0
 40
0.2164561888309124
 40
0.4403136417887559
 40
0.7519030790520855
 40
1.0
 40
1.0
 40
1.0
 40
1.0
 10
226.0701342512043
 20
151.2726864355927
 30
0.0
 10
225.8464108070746
 20
151.1278089843235
 30
0.0
 10
225.3913141661777
 20
150.8331003020449
 30
0.0
 10
224.5467763568026
 20
150.587461402422
 30
0.0
 10
223.6408592732088
 20
150.7355670618646
 30
0.0
 10
223.0611309760723
 20
151.1077193383013
 30
0.0
 10
222.8041498948009
 20
151.2726864355927
 30
0.0
  0
SPLINE
  5
13A
330
1F
100
AcDbEntity
  8
0
  6
HIDDEN
 62
     7
370
     0
100
AcDbSpline
210
0.0
220
0.0
230
1.0
 70
     8
 71
     3
 72
    11
 73
     7
 74
     0
 42
0.000000001
 43
0.00000001
 40
0.0
 40
0.0
 40
0.0
 40
0.0
 40
0.1323875880982893
 40
0.4819434414782212
 40
0.8154864905953353
 40
1.0
 40
1.0
 40
1.0
 40
1.0
 10
222.8041498948009
 20
151.2726864355927
 30
0.0
 10
222.853745412197
 20
151.1819986068544
 30
0.0
 10
223.0342928085133
 20
150.851858864072
 30
0.0
 10
223.3719060696523
 20
150.5387500789156
 30
0.0
 10
223.7352295083244
 20
150.7984729385567
 30
0.0
 10
223.9301605322715
 20
151.1481454103774
 30
0.0
 10
223.9995881009968
 20
151.2726864355927
 30
0.0
  0
LINE
  5
13B
330
1F
100
AcDbEntity
  8
0
  6
HIDDEN
 62
     7
370
     0
100
AcDbLine
 10
228.461003213
 20
141.3538868117
 30
0.0
 11
226.2302919317
 21
141.3538868117
 31
0.0
  0
LINE
  5
13C
330
1F
100
AcDbEntity
  8
0
  6
HIDDEN
 62
     7
370
     0
100
AcDbLine
 10
230.0939991165
 20
141.3538868117
 30
0.0
 11
228.461003213
 21
141.3538868117
 31
0.0
  0
LINE
  5
13D
330
1F
100
AcDbEntity
  8
0
  6
HIDDEN
 62
     7
370
     0
100
AcDbLine
 10
228.461003213
 20
141.3538868117
 30
0.0
 11
228.461003213
 21
151.2726864356
 31
0.0
  0
LINE
  5
13E
330
1F
100
AcDbEntity
  8
0
  6
HIDDEN
 62
     7
370
     0
100
AcDbLine
 10
223.4018652726
 20
140.3538866478
 30
0.0
 11
231.2655731131
 21
140.3538866478
 31
0.0
  0
LINE
  5
13F
330
1F
100
AcDbEntity
  8
0
  6
HIDDEN
 62
     7
370
     0
100
AcDbLine
 10
223.2655718017
 20
140.3538866478
 30
0.0
 11
223.4018652726
 21
140.3538866478
 31
0.0
  0
LINE
  5
140
330
1F
100
AcDbEntity
  8
0
  6
HIDDEN
 62
     7
370
     0
100
AcDbLine
 10
226.2302919317
 20
141.3538868117
 30
0.0
 11
223.999588101
 21
141.3538868117
 31
0.0
  0
LINE
  5
141
330
1F
100
AcDbEntity
  8
0
  6
HIDDEN
 62
     7
370
     0
100
AcDbLine
 10
223.999588101
 20
141.3538868117
 30
0.0
 11
223.4018652726
 21
141.3538868117
 31
0.0
  0
LINE
  5
142
330
1F
100
AcDbEntity
  8
0
  6
HIDDEN
 62
     7
370
     0
100
AcDbLine
 10
223.999588101
 20
141.3538868117
 30
0.0
 11
223.999588101
 21
151.2726864356
 31
0.0
  0
LINE
  5
143
330
1F
100
AcDbEntity
  8
0
  6
HIDDEN
 62
     7
370
     0
100
AcDbLine
 10
231.72699502
 20
141.3538868117
 30
0.0
 11
230.0939991165
 21
141.3538868117
 31
0.0
  0
LINE
  5
144
330
1F
100
AcDbEntity
  8
0
  6
HIDDEN
 62
     7
370
     0
100
AcDbLine
 10
230.5315568138
 20
141.3538868117
 30
0.0
 11
230.5315568138
 21
151.2726864356
 31
0.0
  0
LINE
  5
145
330
1F
100
AcDbEntity
  8
0
  6
HIDDEN
 62
     7
370
     0
100
AcDbLine
 10
231.72699502
 20
141.3538868117
 30
0.0
 11
231.72699502
 21
151.2726864356
 31
0.0
  0
LINE
  5
146
330
1F
100
AcDbEntity
  8
0
  6
HIDDEN
 62
     7
370
     0
100
AcDbLine
 10
223.4018652726
 20
141.3538868117
 30
0.0
 11
222.8041498948
 21
141.3538868117
 31
0.0
  0
LINE
  5
147
330
1F
100
AcDbEntity
  8
0
  6
HIDDEN
 62
     7
370
     0
100
AcDbLine
 10
226.0701342512
 20
141.3538868117
 30
0.0
 11
226.0701342512
 21
151.2726864356
 31
0.0
  0
LINE
  5
148
330
1F
100
AcDbEntity
  8
0
  6
HIDDEN
 62
     7
370
     0
100
AcDbLine
 10
222.8041498948
 20
141.3538868117
 30
0.0
 11
222.8041498948
 21
151.2726864356
 31
0.0
  0
LWPOLYLINE
  5
149
330
1F
100
AcDbEntity
  8
0
  6
HIDDEN
 62
     7
370
     0
100
AcDbPolyline
 90
       18
 70
   128
 43
0.0
 10
160.1929024819
 20
131.5106416631
 10
160.8194171477
 20
131.8586536262
 10
161.2698401351
 20
132.3958395559
 10
161.4833402474
 20
133.0496484923
 10
161.4310818751
 20
133.7317817423
 10
161.1201225806
 20
134.3501128766
 10
160.5924603555
 20
134.8211320627
 10
159.9193581406
 20
135.0812262434
 10
159.191721401
 20
135.0952677938
 10
158.5078232948
 20
134.8613605413
 10
157.960026807
 20
134.4110949475
 10
157.6223152716
 20
133.8052826512
 10
157.540298349
 20
133.1257403407
 10
157.7250531901
 20
132.464245199
 10
158.1516268689
 20
131.9101362068
 10
158.7624087025
 20
131.5382469955
 10
159.4749105189
 20
131.398804723
 10
160.1929024819
 20
131.5106416631
  0
LWPOLYLINE
  5
14A
330
1F
100
AcDbEntity
  8
0
  6
HIDDEN
 62
     7
370
     0
100
AcDbPolyline
 90
       21
 70
   128
 43
0.0
 10
160.3706211809
 20
131.1544163662
 10
161.0547251094
 20
131.5107515592
 10
161.5881643284
 20
132.0482979107
 10
161.9187261004
 20
132.7144356954
 10
162.0140488286
 20
133.4439583632
 10
161.8648025233
 20
134.1654558244
 10
161.4855977733
 20
134.8083030942
 10
160.9135533709
 20
135.3095725688
 10
160.2046641547
 20
135.6201975185
 10
159.4283220384
 20
135.7097721237
 10
158.6605210815
 20
135.5695279825
 10
157.976417153
 20
135.2131909269
 10
157.4429770026
 20
134.6756455067
 10
157.1124170933
 20
134.009507722
 10
157.0170943651
 20
133.2799850541
 10
157.1663397391
 20
132.5584875929
 10
157.5455444891
 20
131.9156403232
 10
158.1175888915
 20
131.4143708485
 10
158.8264781077
 20
131.1037449676
 10
159.602820224
 20
131.0141712937
 10
160.3706211809
 20
131.1544163662
  0
LWPOLYLINE
  5
14B
330
1F
100
AcDbEntity
  8
0
  6
HIDDEN
 62
     7
370
     0
100
AcDbPolyline
 90
       21
 70
   128
 43
0.0
 10
160.3706211809
 20
131.7529513079
 10
161.0547251094
 20
132.1092874321
 10
161.5881643284
 20
132.6468328524
 10
161.9187261004
 20
133.3129706371
 10
162.0140488286
 20
134.0424942362
 10
161.8648025233
 20
134.7639916974
 10
161.4855977733
 20
135.4068380359
 10
160.9135533709
 20
135.9081084418
 10
160.2046641547
 20
136.2187324602
 10
159.4283220384
 20
136.3083070654
 10
158.6605210815
 20
136.1680629242
 10
157.976417153
 20
135.8117258686
 10
157.4429770026
 20
135.2741804484
 10
157.1124170933
 20
134.6080426636
 10
157.0170943651
 20
133.8785199958
 10
157.1663397391
 20
133.1570225346
 10
157.5455444891
 20
132.5141752648
 10
158.1175888915
 20
132.0129057902
 10
158.8264781077
 20
131.7022808406
 10
159.602820224
 20
131.6127062354
 10
160.3706211809
 20
131.7529513079
  0
LWPOLYLINE
  5
14C
330
1F
100
AcDbEntity
  8
0
  6
HIDDEN
 62
     7
370
     0
100
AcDbPolyline
 90
       18
 70
   128
 43
0.0
 10
160.1996117298
 20
133.3744323391
 10
160.8323317979
 20
133.7258901957
 10
161.2872167517
 20
134.2683967713
 10
161.5028309662
 20
134.9286821249
 10
161.4500547785
 20
135.6175711888
 10
161.136014669
 20
136.2420267004
 10
160.603126793
 20
136.7177108812
 10
159.9233572398
 20
136.9803811002
 10
159.1885139261
 20
136.9945632804
 10
158.4978413794
 20
136.7583388972
 10
157.9446190063
 20
136.3036131996
 10
157.6035630915
 20
135.6917994607
 10
157.5207340557
 20
135.0055274132
 10
157.7073180143
 20
134.3374804172
 10
158.1381171037
 20
133.7778831411
 10
158.7549488086
 20
133.402310549
 10
159.4745072562
 20
133.2614871252
 10
160.1996117298
 20
133.3744323391
  0
LWPOLYLINE
  5
14D
330
1F
100
AcDbEntity
  8
0
  6
HIDDEN
 62
     7
370
     0
100
AcDbPolyline
 90
       18
 70
   128
 43
0.0
 10
160.1996117298
 20
131.9566557694
 10
160.8323317979
 20
132.3081145573
 10
161.2872167517
 20
132.8506211329
 10
161.5028309662
 20
133.5109064865
 10
161.4500547785
 20
134.1997964817
 10
161.136014669
 20
134.824251062
 10
160.603126793
 20
135.2999352428
 10
159.9233572398
 20
135.5626063931
 10
159.1885139261
 20
135.5767867106
 10
158.4978413794
 20
135.3405623275
 10
157.9446190063
 20
134.8858375612
 10
157.6035630915
 20
134.2740247536
 10
157.5207340557
 20
133.5877517748
 10
157.7073180143
 20
132.9197047788
 10
158.1381171037
 20
132.3601065713
 10
158.7549488086
 20
131.9845349106
 10
159.4745072562
 20
131.8437114868
 10
160.1996117298
 20
131.9566557694
  0
LWPOLYLINE
  5
14E
330
1F
100
AcDbEntity
  8
0
  6
HIDDEN
 62
     7
370
     0
100
AcDbPolyline
 90
       21
 70
   128
 43
0.0
 10
160.3706211809
 20
131.9889456543
 10
161.0547251094
 20
132.3452808473
 10
161.5881643284
 20
132.8828271988
 10
161.9187261004
 20
133.5489649835
 10
162.0140488286
 20
134.2784876514
 10
161.8648025233
 20
134.9999851126
 10
161.4855977733
 20
135.6428323823
 10
160.9135533709
 20
136.144101857
 10
160.2046641547
 20
136.4547277379
 10
159.4283220384
 20
136.5443004805
 10
158.6605210815
 20
136.4040563393
 10
157.976417153
 20
136.0477211464
 10
157.4429770026
 20
135.5101747948
 10
157.1124170933
 20
134.8440370101
 10
157.0170943651
 20
134.1145134109
 10
157.1663397391
 20
133.3930159497
 10
157.5455444891
 20
132.7501696113
 10
158.1175888915
 20
132.2488992053
 10
158.8264781077
 20
131.9382742557
 10
159.602820224
 20
131.8487005818
 10
160.3706211809
 20
131.9889456543
  0
LWPOLYLINE
  5
14F
330
1F
100
AcDbEntity
  8
0
  6
HIDDEN
 62
     7
370
     0
100
AcDbPolyline
 90
       20
 70
   128
 43
0.0
 10
160.3022174005
 20
131.9910299543
 10
160.9613656093
 20
132.3410917583
 10
161.4638383526
 20
132.8733044255
 10
161.755187719
 20
133.5299939427
 10
161.8038400103
 20
134.239997952
 10
161.6045220781
 20
134.9263761702
 10
161.1788331557
 20
135.5147494513
 10
160.5729053754
 20
135.9413585204
 10
159.8523979101
 20
136.1599715936
 10
159.0953909818
 20
136.1469014126
 10
158.3839164142
 20
135.9035635877
 10
157.7950746779
 20
135.4563257235
 10
157.3926753391
 20
134.8536557096
 10
157.2203238521
 20
134.1608597475
 10
157.2966988225
 20
133.453014544
 10
157.6135235865
 20
132.8068256888
 10
158.1364640061
 20
132.2923174638
 10
158.8088518966
 20
131.9652453575
 10
159.5578243051
 20
131.8610527131
 10
160.3022174005
 20
131.9910299543
  0
LWPOLYLINE
  5
150
330
1F
100
AcDbEntity
  8
0
  6
HIDDEN
 62
     7
370
     0
100
AcDbPolyline
 90
       21
 70
   128
 43
0.0
 10
160.3706211809
 20
132.2249390695
 10
161.0547251094
 20
132.5812751937
 10
161.5881643284
 20
133.1188206139
 10
161.9187261004
 20
133.7849583987
 10
162.0140488286
 20
134.5144819978
 10
161.8648025233
 20
135.235979459
 10
161.4855977733
 20
135.8788257975
 10
160.9135533709
 20
136.3800952721
 10
160.2046641547
 20
136.690721153
 10
159.4283220384
 20
136.7802957583
 10
158.6605210815
 20
136.6400497544
 10
157.976417153
 20
136.2837145615
 10
157.4429770026
 20
135.7461682099
 10
157.1124170933
 20
135.0800304252
 10
157.0170943651
 20
134.3505077574
 10
157.1663397391
 20
133.6290102962
 10
157.5455444891
 20
132.9861630264
 10
158.1175888915
 20
132.4848935518
 10
158.8264781077
 20
132.1742686021
 10
159.602820224
 20
132.0846939969
 10
160.3706211809
 20
132.2249390695
  0
LWPOLYLINE
  5
151
330
1F
100
AcDbEntity
  8
0
  6
HIDDEN
 62
     7
370
     0
100
AcDbPolyline
 90
       20
 70
   128
 43
0.0
 10
160.3022174005
 20
132.2270233694
 10
160.9613656093
 20
132.5770861048
 10
161.4638383526
 20
133.1092987719
 10
161.755187719
 20
133.7659882891
 10
161.8038400103
 20
134.4759922984
 10
161.6045220781
 20
135.1623705167
 10
161.1788331557
 20
135.7507428664
 10
160.5729053754
 20
136.1773519355
 10
159.8523979101
 20
136.3959668714
 10
159.0953909818
 20
136.3828948277
 10
158.3839164142
 20
136.1395570028
 10
157.7950746779
 20
135.6923191387
 10
157.3926753391
 20
135.0896491248
 10
157.2203238521
 20
134.396854094
 10
157.2966988225
 20
133.6890088904
 10
157.6135235865
 20
133.0428191039
 10
158.1364640061
 20
132.5283118102
 10
158.8088518966
 20
132.2012397039
 10
159.5578243051
 20
132.0970461282
 10
160.3022174005
 20
132.2270233694
  0
LWPOLYLINE
  5
152
330
1F
100
AcDbEntity
  8
0
  6
HIDDEN
 62
     7
370
     0
100
AcDbPolyline
 90
       21
 70
   128
 43
0.0
 10
160.3706211809
 20
132.4609334159
 10
161.0547251094
 20
132.8172686088
 10
161.5881643284
 20
133.3548149604
 10
161.9187261004
 20
134.0209527451
 10
162.0140488286
 20
134.7504754129
 10
161.8648025233
 20
135.4719728741
 10
161.4855977733
 20
136.1148192126
 10
160.9135533709
 20
136.6160905498
 10
160.2046641547
 20
136.9267145682
 10
159.4283220384
 20
137.0162891734
 10
158.6605210815
 20
136.8760450322
 10
157.976417153
 20
136.5197079766
 10
157.4429770026
 20
135.982161625
 10
157.1124170933
 20
135.3160247716
 10
157.0170943651
 20
134.5865011725
 10
157.1663397391
 20
133.8650037113
 10
157.5455444891
 20
133.2221573728
 10
158.1175888915
 20
132.7208869669
 10
158.8264781077
 20
132.4102620173
 10
159.602820224
 20
132.3206883434
 10
160.3706211809
 20
132.4609334159
  0
LWPOLYLINE
  5
153
330
1F
100
AcDbEntity
  8
0
  6
HIDDEN
 62
     7
370
     0
100
AcDbPolyline
 90
       20
 70
   128
 43
0.0
 10
160.3022174005
 20
132.4630177158
 10
160.9613656093
 20
132.8130795199
 10
161.4638383526
 20
133.345292187
 10
161.755187719
 20
134.0019817042
 10
161.8038400103
 20
134.7119857136
 10
161.6045220781
 20
135.3983639318
 10
161.1788331557
 20
135.9867381442
 10
160.5729053754
 20
136.4133453506
 10
159.8523979101
 20
136.6319602865
 10
159.0953909818
 20
136.6188901055
 10
158.3839164142
 20
136.3755504179
 10
157.7950746779
 20
135.9283144164
 10
157.3926753391
 20
135.3256434712
 10
157.2203238521
 20
134.6328475091
 10
157.2966988225
 20
133.9250023055
 10
157.6135235865
 20
133.2788134503
 10
158.1364640061
 20
132.7643052253
 10
158.8088518966
 20
132.437233119
 10
159.5578243051
 20
132.3330404747
 10
160.3022174005
 20
132.4630177158
  0
LWPOLYLINE
  5
154
330
1F
100
AcDbEntity
  8
0
  6
HIDDEN
 62
     7
370
     0
100
AcDbPolyline
 90
       21
 70
   128
 43
0.0
 10
160.3706211809
 20
132.696926831
 10
161.0547251094
 20
133.0532629553
 10
161.5881643284
 20
133.5908093068
 10
161.9187261004
 20
134.2569461602
 10
162.0140488286
 20
134.9864697594
 10
161.8648025233
 20
135.7079672206
 10
161.4855977733
 20
136.3508144903
 10
160.9135533709
 20
136.852083965
 10
160.2046641547
 20
137.1627079833
 10
159.4283220384
 20
137.2522825885
 10
158.6605210815
 20
137.1120384473
 10
157.976417153
 20
136.7557013917
 10
157.4429770026
 20
136.2181569028
 10
157.1124170933
 20
135.5520191181
 10
157.0170943651
 20
134.8224955189
 10
157.1663397391
 20
134.1009980577
 10
157.5455444891
 20
133.458150788
 10
158.1175888915
 20
132.9568813133
 10
158.8264781077
 20
132.6462563637
 10
159.602820224
 20
132.5566817585
 10
160.3706211809
 20
132.696926831
  0
LWPOLYLINE
  5
155
330
1F
100
AcDbEntity
  8
0
  6
HIDDEN
 62
     7
370
     0
100
AcDbPolyline
 90
       20
 70
   128
 43
0.0
 10
160.3022174005
 20
132.6990111309
 10
160.9613656093
 20
133.0490738663
 10
161.4638383526
 20
133.5812865335
 10
161.755187719
 20
134.2379760507
 10
161.8038400103
 20
134.94798006
 10
161.6045220781
 20
135.6343573469
 10
161.1788331557
 20
136.2227315593
 10
160.5729053754
 20
136.6493406284
 10
159.8523979101
 20
136.8679537016
 10
159.0953909818
 20
136.8548835206
 10
158.3839164142
 20
136.6115456957
 10
157.7950746779
 20
136.1643078315
 10
157.3926753391
 20
135.5616378176
 10
157.2203238521
 20
134.8688418555
 10
157.2966988225
 20
134.160996652
 10
157.6135235865
 20
133.5148068655
 10
158.1364640061
 20
133.0002995718
 10
158.8088518966
 20
132.6732274655
 10
159.5578243051
 20
132.5690338898
 10
160.3022174005
 20
132.6990111309
  0
LWPOLYLINE
  5
156
330
1F
100
AcDbEntity
  8
0
  6
HIDDEN
 62
     7
370
     0
100
AcDbPolyline
 90
       21
 70
   128
 43
0.0
 10
160.3706211809
 20
132.8850381586
 10
161.0547251094
 20
133.2413742828
 10
161.5881643284
 20
133.7789197031
 10
161.9187261004
 20
134.4450574878
 10
162.0140488286
 20
135.1745801556
 10
161.8648025233
 20
135.8960776168
 10
161.4855977733
 20
136.5389248866
 10
160.9135533709
 20
137.0401943612
 10
160.2046641547
 20
137.3508202422
 10
159.4283220384
 20
137.4403948474
 10
158.6605210815
 20
137.3001488435
 10
157.976417153
 20
136.9438136506
 10
157.4429770026
 20
136.4062672991
 10
157.1124170933
 20
135.7401295143
 10
157.0170943651
 20
135.0106068465
 10
157.1663397391
 20
134.2891093853
 10
157.5455444891
 20
133.6462621156
 10
158.1175888915
 20
133.1449926409
 10
158.8264781077
 20
132.8343676913
 10
159.602820224
 20
132.7447930861
 10
160.3706211809
 20
132.8850381586
  0
LWPOLYLINE
  5
157
330
1F
100
AcDbEntity
  8
0
  6
HIDDEN
 62
     7
370
     0
100
AcDbPolyline
 90
       20
 70
   128
 43
0.0
 10
160.3227381621
 20
133.0565440047
 10
160.9990823109
 20
133.4157383579
 10
161.5146643508
 20
133.9618342507
 10
161.8136133094
 20
134.6356554467
 10
161.863534062
 20
135.364180668
 10
161.6590156246
 20
136.0684654254
 10
161.2222234745
 20
136.6721859712
 10
160.6004874248
 20
137.109924345
 10
159.8611849386
 20
137.3342408377
 10
159.0844293151
 20
137.3208297926
 10
158.3543953512
 20
137.071144073
 10
157.7501923803
 20
136.6122385997
 10
157.3372951735
 20
135.9938459981
 10
157.1604481924
 20
135.2829777214
 10
157.2388152618
 20
134.5566671851
 10
157.5639045823
 20
133.8936213914
 10
158.100487015
 20
133.3656918767
 10
158.7904154349
 20
133.030086993
 10
159.5589260597
 20
132.923175818
 10
160.3227381621
 20
133.0565440047
  0
ARC
  5
158
330
1F
100
AcDbEntity
  8
0
  6
HIDDEN
 62
     7
370
     0
100
AcDbCircle
 10
159.4966849065
 20
104.5332702261
 30
0.0
 40
2.482465813465688
100
AcDbArc
 50
345.2557007461
 51
178.1092054133
  0
ARC
  5
159
330
1F
100
AcDbEntity
  8
0
  6
HIDDEN
 62
     7
370
     0
100
AcDbCircle
 10
159.4954489933
 20
104.4754757176
 30
0.0
 40
2.355137641633071
100
AcDbArc
 50
350.0684057759
 51
153.2858191841
  0
ARC
  5
15A
330
1F
100
AcDbEntity
  8
0
  6
HIDDEN
 62
     7
370
     0
100
AcDbCircle
 10
159.5205954839
 20
104.4787561696
 30
0.0
 40
1.99693977424938
100
AcDbArc
 50
2.5412025364
 51
127.3478797316
  0
LWPOLYLINE
  5
15B
330
1F
100
AcDbEntity
  8
0
  6
HIDDEN
 62
     7
370
     0
100
AcDbPolyline
 90
       21
 70
   128
 43
0.0
 10
158.3429987569
 20
102.728488161
 10
157.7180924852
 20
103.1705292452
 10
157.2691353995
 20
103.772396459
 10
157.040075681
 20
104.4751734051
 10
157.0533339892
 20
105.2100688729
 10
157.307613923
 20
105.9051465753
 10
157.7780240242
 20
106.492366879
 10
158.4185169105
 20
106.9142485547
 10
159.1663968776
 20
107.1294939655
 10
159.9484573145
 20
107.1170356634
 10
160.6881425742
 20
106.8780908871
 10
161.3130497772
 20
106.4360498029
 10
161.7620068628
 20
105.8341835204
 10
161.9910656501
 20
105.1314056429
 10
161.9778073419
 20
104.3965101752
 10
161.7235283394
 20
103.7014334041
 10
161.2531191696
 20
103.1142121691
 10
160.6126253519
 20
102.6923304933
 10
159.8647453848
 20
102.4770850825
 10
159.0826849479
 20
102.4895443159
 10
158.3429987569
 20
102.728488161
  0
LWPOLYLINE
  5
15C
330
1F
100
AcDbEntity
  8
0
  6
HIDDEN
 62
     7
370
     0
100
AcDbPolyline
 90
       18
 70
   128
 43
0.0
 10
158.5775132317
 20
104.3252304706
 10
158.0027735818
 20
104.7557455066
 10
157.6323456157
 20
105.352287418
 10
157.5162571881
 20
106.0342902827
 10
157.6701871146
 20
106.7096462983
 10
158.0733464126
 20
107.2871445257
 10
158.6712862391
 20
107.6887904245
 10
159.3832516138
 20
107.8603391114
 10
160.113087206
 20
107.7786230061
 10
160.7622255597
 20
107.454678281
 10
161.2429956932
 20
106.9322547454
 10
161.4904667277
 20
106.2819084662
 10
161.4712181527
 20
105.5914734069
 10
161.1878483582
 20
104.9541954461
 10
160.6786281828
 20
104.456143691
 10
160.0123311419
 20
104.1645819831
 10
159.2789434854
 20
104.1188875723
 10
158.5775132317
 20
104.3252304706
  0
LWPOLYLINE
  5
15D
330
1F
100
AcDbEntity
  8
0
  6
HIDDEN
 62
     7
370
     0
100
AcDbPolyline
 90
       21
 70
   128
 43
0.0
 10
158.3429987569
 20
102.9644815761
 10
157.7180924852
 20
103.4065226603
 10
157.2691353995
 20
104.0083898741
 10
157.040075681
 20
104.7111668202
 10
157.0533339892
 20
105.4460632193
 10
157.307613923
 20
106.1411409217
 10
157.7780240242
 20
106.7283612254
 10
158.4185169105
 20
107.1502419698
 10
159.1663968776
 20
107.365488312
 10
159.9484573145
 20
107.3530290786
 10
160.6881425742
 20
107.1140843022
 10
161.3130497772
 20
106.6720441494
 10
161.7620068628
 20
106.0701778668
 10
161.9910656501
 20
105.3673999894
 10
161.9778073419
 20
104.6325035903
 10
161.7235283394
 20
103.9374268192
 10
161.2531191696
 20
103.3502055842
 10
160.6126253519
 20
102.9283257711
 10
159.8647453848
 20
102.7130784977
 10
159.0826849479
 20
102.7255377311
 10
158.3429987569
 20
102.9644815761
  0
LWPOLYLINE
  5
15E
330
1F
100
AcDbEntity
  8
0
  6
HIDDEN
 62
     7
370
     0
100
AcDbPolyline
 90
       20
 70
   128
 43
0.0
 10
158.4368052919
 20
103.0689927328
 10
157.8356868614
 20
103.5015678543
 10
157.4166103292
 20
104.0941181171
 10
157.2249879155
 20
104.7824288297
 10
157.2815871824
 20
105.4919122297
 10
157.5802725766
 20
106.1456848446
 10
158.0886769135
 20
106.6729000348
 10
158.7517087374
 20
107.016425817
 10
159.4975155804
 20
107.1390362966
 10
160.2452800635
 20
107.0274433631
 10
160.9139687408
 20
106.6937421027
 10
161.431119128
 20
106.1740920457
 10
161.7406907518
 20
105.524806543
 10
161.8091355104
 20
104.8162451524
 10
161.6290382136
 20
104.1251926261
 10
161.2199119318
 20
103.5265328872
 10
160.6260950703
 20
103.0851418662
 10
159.9119354997
 20
102.8488522905
 10
159.1548242632
 20
102.8432662177
 10
158.4368052919
 20
103.0689927328
  0
LWPOLYLINE
  5
15F
330
1F
100
AcDbEntity
  8
0
  6
HIDDEN
 62
     7
370
     0
100
AcDbPolyline
 90
       21
 70
   128
 43
0.0
 10
158.3429987569
 20
103.2004768539
 10
157.7180924852
 20
103.6425160754
 10
157.2691353995
 20
104.2443832892
 10
157.040075681
 20
104.9471611667
 10
157.0533339892
 20
105.6820575658
 10
157.307613923
 20
106.3771343368
 10
157.7780240242
 20
106.9643546406
 10
158.4185169105
 20
107.3862363163
 10
159.1663968776
 20
107.6014826584
 10
159.9484573145
 20
107.589023425
 10
160.6881425742
 20
107.3500786486
 10
161.3130497772
 20
106.9080375645
 10
161.7620068628
 20
106.3061712819
 10
161.9910656501
 20
105.6033934045
 10
161.9778073419
 20
104.8684979367
 10
161.7235283394
 20
104.1734202343
 10
161.2531191696
 20
103.5862008619
 10
160.6126253519
 20
103.1643191862
 10
159.8647453848
 20
102.9490719128
 10
159.0826849479
 20
102.9615311462
 10
158.3429987569
 20
103.2004768539
  0
LWPOLYLINE
  5
160
330
1F
100
AcDbEntity
  8
0
  6
HIDDEN
 62
     7
370
     0
100
AcDbPolyline
 90
       20
 70
   128
 43
0.0
 10
158.4368052919
 20
103.3049861479
 10
157.8356868614
 20
103.7375612694
 10
157.4166103292
 20
104.3301115322
 10
157.2249879155
 20
105.0184222448
 10
157.2815871824
 20
105.7279056448
 10
157.5802725766
 20
106.3816782597
 10
158.0886769135
 20
106.9088934499
 10
158.7517087374
 20
107.2524201635
 10
159.4975155804
 20
107.3750297117
 10
160.2452800635
 20
107.2634377095
 10
160.9139687408
 20
106.9297355178
 10
161.431119128
 20
106.4100863922
 10
161.7406907518
 20
105.7607999581
 10
161.8091355104
 20
105.0522394988
 10
161.6290382136
 20
104.3611860412
 10
161.2199119318
 20
103.7625263024
 10
160.6260950703
 20
103.321137144
 10
159.9119354997
 20
103.0848457056
 10
159.1548242632
 20
103.0792614955
 10
158.4368052919
 20
103.3049861479
  0
LWPOLYLINE
  5
161
330
1F
100
AcDbEntity
  8
0
  6
HIDDEN
 62
     7
370
     0
100
AcDbPolyline
 90
       21
 70
   128
 43
0.0
 10
158.3429987569
 20
103.436470269
 10
157.7180924852
 20
103.8785113531
 10
157.2691353995
 20
104.4803776357
 10
157.040075681
 20
105.1831555131
 10
157.0533339892
 20
105.9180509809
 10
157.307613923
 20
106.6131286833
 10
157.7780240242
 20
107.200348987
 10
158.4185169105
 20
107.6222297314
 10
159.1663968776
 20
107.8374760735
 10
159.9484573145
 20
107.8250168401
 10
160.6881425742
 20
107.5860720638
 10
161.3130497772
 20
107.1440319109
 10
161.7620068628
 20
106.5421656284
 10
161.9910656501
 20
105.8393877509
 10
161.9778073419
 20
105.1044913519
 10
161.7235283394
 20
104.4094145808
 10
161.2531191696
 20
103.8221942771
 10
160.6126253519
 20
103.4003126013
 10
159.8647453848
 20
103.1850671905
 10
159.0826849479
 20
103.1975264239
 10
158.3429987569
 20
103.436470269
  0
LWPOLYLINE
  5
162
330
1F
100
AcDbEntity
  8
0
  6
HIDDEN
 62
     7
370
     0
100
AcDbPolyline
 90
       20
 70
   128
 43
0.0
 10
158.4368052919
 20
103.540979563
 10
157.8356868614
 20
103.9735565472
 10
157.4166103292
 20
104.5661049473
 10
157.2249879155
 20
105.2544165912
 10
157.2815871824
 20
105.9638999912
 10
157.5802725766
 20
106.6176726061
 10
158.0886769135
 20
107.1448877964
 10
158.7517087374
 20
107.4884135786
 10
159.4975155804
 20
107.6110240582
 10
160.2452800635
 20
107.4994311246
 10
160.9139687408
 20
107.1657298643
 10
161.431119128
 20
106.6460798073
 10
161.7406907518
 20
105.9967943046
 10
161.8091355104
 20
105.2882329139
 10
161.6290382136
 20
104.5971803877
 10
161.2199119318
 20
103.9985215801
 10
160.6260950703
 20
103.5571305591
 10
159.9119354997
 20
103.3208391208
 10
159.1548242632
 20
103.3152549106
 10
158.4368052919
 20
103.540979563
  0
LWPOLYLINE
  5
163
330
1F
100
AcDbEntity
  8
0
  6
HIDDEN
 62
     7
370
     0
100
AcDbPolyline
 90
       21
 70
   128
 43
0.0
 10
158.3429987569
 20
103.6724636841
 10
157.7180924852
 20
104.1145047683
 10
157.2691353995
 20
104.7163710508
 10
157.040075681
 20
105.4191489282
 10
157.0533339892
 20
106.1540453273
 10
157.307613923
 20
106.8491220984
 10
157.7780240242
 20
107.4363424021
 10
158.4185169105
 20
107.8582240778
 10
159.1663968776
 20
108.07347042
 10
159.9484573145
 20
108.0610111866
 10
160.6881425742
 20
107.8220664102
 10
161.3130497772
 20
107.3800262573
 10
161.7620068628
 20
106.7781590435
 10
161.9910656501
 20
106.0753811661
 10
161.9778073419
 20
105.3404856983
 10
161.7235283394
 20
104.6454079959
 10
161.2531191696
 20
104.0581876922
 10
160.6126253519
 20
103.6363060165
 10
159.8647453848
 20
103.4210606057
 10
159.0826849479
 20
103.4335198391
 10
158.3429987569
 20
103.6724636841
  0
LWPOLYLINE
  5
164
330
1F
100
AcDbEntity
  8
0
  6
HIDDEN
 62
     7
370
     0
100
AcDbPolyline
 90
       20
 70
   128
 43
0.0
 10
158.4368052919
 20
103.7769748408
 10
157.8356868614
 20
104.2095499623
 10
157.4166103292
 20
104.8020992938
 10
157.2249879155
 20
105.4904100064
 10
157.2815871824
 20
106.1998934063
 10
157.5802725766
 20
106.8536660212
 10
158.0886769135
 20
107.3808812115
 10
158.7517087374
 20
107.724407925
 10
159.4975155804
 20
107.8470174733
 10
160.2452800635
 20
107.7354254711
 10
160.9139687408
 20
107.4017232794
 10
161.431119128
 20
106.8820741537
 10
161.7406907518
 20
106.232788651
 10
161.8091355104
 20
105.5242272604
 10
161.6290382136
 20
104.8331738028
 10
161.2199119318
 20
104.2345149952
 10
160.6260950703
 20
103.7931239742
 10
159.9119354997
 20
103.5568343985
 10
159.1548242632
 20
103.5512483257
 10
158.4368052919
 20
103.7769748408
  0
LWPOLYLINE
  5
165
330
1F
100
AcDbEntity
  8
0
  6
HIDDEN
 62
     7
370
     0
100
AcDbPolyline
 90
       21
 70
   128
 43
0.0
 10
158.3429987569
 20
104.2709995571
 10
157.7180924852
 20
104.7130397099
 10
157.2691353995
 20
105.3149069238
 10
157.040075681
 20
106.0176838699
 10
157.0533339892
 20
106.752580269
 10
157.307613923
 20
107.4476579714
 10
157.7780240242
 20
108.0348773438
 10
158.4185169105
 20
108.4567590195
 10
159.1663968776
 20
108.6720053616
 10
159.9484573145
 20
108.6595461282
 10
160.6881425742
 20
108.4206013519
 10
161.3130497772
 20
107.978561199
 10
161.7620068628
 20
107.3766949165
 10
161.9910656501
 20
106.673917039
 10
161.9778073419
 20
105.93902064
 10
161.7235283394
 20
105.2439429376
 10
161.2531191696
 20
104.6567235652
 10
160.6126253519
 20
104.2348418895
 10
159.8647453848
 20
104.0195955473
 10
159.0826849479
 20
104.0320547807
 10
158.3429987569
 20
104.2709995571
  0
LWPOLYLINE
  5
166
330
1F
100
AcDbEntity
  8
0
  6
HIDDEN
 62
     7
370
     0
100
AcDbPolyline
 90
       18
 70
   128
 43
0.0
 10
158.5867137674
 20
104.8048448327
 10
158.0176104818
 20
105.2311372522
 10
157.650815605
 20
105.8218285951
 10
157.5358652536
 20
106.4971427012
 10
157.6882864375
 20
107.1658751506
 10
158.0874913398
 20
107.737709074
 10
158.6795675594
 20
108.1354154784
 10
159.3845498774
 20
108.3052821967
 10
160.1072273243
 20
108.2243679601
 10
160.7499982257
 20
107.9035999763
 10
161.2260530729
 20
107.3862996462
 10
161.4710989434
 20
106.7423319954
 10
161.4520384956
 20
106.0586685825
 10
161.1714477677
 20
105.4276407275
 10
160.6672213439
 20
104.9344728279
 10
160.0074593935
 20
104.6457712117
 10
159.2812643413
 20
104.6005247671
 10
158.5867137674
 20
104.8048448327
  0
LWPOLYLINE
  5
167
330
1F
100
AcDbEntity
  8
0
  6
HIDDEN
 62
     7
370
     0
100
AcDbPolyline
 90
       21
 70
   128
 43
0.0
 10
152.046233232
 20
134.2030067507
 10
152.3987434831
 20
134.8298343408
 10
152.8197553035
 20
135.2894057098
 10
153.2680572037
 20
135.5367361146
 10
153.6997652639
 20
135.547615825
 10
154.0726221193
 20
135.3209775451
 10
154.3501301695
 20
134.8790081728
 10
154.5051236663
 20
134.2649704355
 10
154.522431365
 20
133.5389700297
 10
154.4003582586
 20
132.7720733869
 10
154.1508560095
 20
132.0393497634
 10
153.7983457584
 20
131.4125221732
 10
153.377333938
 20
130.9529508042
 10
152.9290320378
 20
130.7056203994
 10
152.4973235119
 20
130.6947406891
 10
152.1244666565
 20
130.921378969
 10
151.846959072
 20
131.3633483413
 10
151.6919655752
 20
131.9773860785
 10
151.6746578764
 20
132.7033864844
 10
151.7967300516
 20
133.4702831271
 10
152.046233232
 20
134.2030067507
  0
LWPOLYLINE
  5
168
330
1F
100
AcDbEntity
  8
0
  6
HIDDEN
 62
     7
370
     0
100
AcDbPolyline
 90
       17
 70
   128
 43
0.0
 10
152.9762906049
 20
133.7313272569
 10
153.2932969768
 20
134.2629615727
 10
153.6741846267
 20
134.5983708787
 10
154.0609684799
 20
134.6864907581
 10
154.3947628725
 20
134.5139073718
 10
154.6247511197
 20
134.1068933296
 10
154.7159201492
 20
133.5274151105
 10
154.6543895293
 20
132.8636903826
 10
154.4495265026
 20
132.2167676452
 10
154.1325201307
 20
131.6851333293
 10
153.7516324807
 20
131.3497240234
 10
153.3648486275
 20
131.261604144
 10
153.0310537692
 20
131.4341875303
 10
152.8010655221
 20
131.8412006411
 10
152.7098969583
 20
132.4206797916
 10
152.7714280438
 20
133.0844045195
 10
152.9762906049
 20
133.7313272569
  0
LWPOLYLINE
  5
169
330
1F
100
AcDbEntity
  8
0
  6
HIDDEN
 62
     7
370
     0
100
AcDbPolyline
 90
       21
 70
   128
 43
0.0
 10
149.5944464605
 20
134.7901730377
 10
149.9469567116
 20
135.4170006278
 10
150.3679685321
 20
135.8765719968
 10
150.8162699666
 20
136.123903333
 10
151.2479784925
 20
136.1347811806
 10
151.6208353479
 20
135.9081438321
 10
151.8983429324
 20
135.4661753911
 10
152.0533364292
 20
134.8521367225
 10
152.070644128
 20
134.1261363167
 10
151.9485719528
 20
133.3592396739
 10
151.6990687724
 20
132.6265160504
 10
151.3465585213
 20
131.9996893916
 10
150.9255467009
 20
131.5401170913
 10
150.4772452664
 20
131.2927866864
 10
150.0455367405
 20
131.2819079074
 10
149.6726794195
 20
131.508545256
 10
149.3951723006
 20
131.9505146283
 10
149.2401788037
 20
132.5645523656
 10
149.222871105
 20
133.2905527714
 10
149.3449432802
 20
134.0574494141
 10
149.5944464605
 20
134.7901730377
  0
LINE
  5
16A
330
1F
100
AcDbEntity
  8
0
  6
HIDDEN
 62
     7
370
     0
100
AcDbLine
 10
151.2837892424
 20
132.5787941504
 30
0.0
 11
151.4670521047
 21
133.9909911665
 31
0.0
  0
LINE
  5
16B
330
1F
100
AcDbEntity
  8
0
  6
HIDDEN
 62
     7
370
     0
100
AcDbLine
 10
151.4670521047
 20
133.9909911665
 30
0.0
 11
149.8287481282
 21
134.3833406034
 31
0.0
  0
LINE
  5
16C
330
1F
100
AcDbEntity
  8
0
  6
HIDDEN
 62
     7
370
     0
100
AcDbLine
 10
152.2578674395
 20
134.7785939041
 30
0.0
 11
151.4670521047
 21
133.9909911665
 31
0.0
  0
LINE
  5
16D
330
1F
100
AcDbEntity
  8
0
  6
HIDDEN
 62
     7
370
     0
100
AcDbLine
 10
150.6195629973
 20
135.170943341
 30
0.0
 11
149.8287481282
 21
134.3833406034
 31
0.0
  0
LINE
  5
16E
330
1F
100
AcDbEntity
  8
0
  6
HIDDEN
 62
     7
370
     0
100
AcDbLine
 10
149.6454852659
 20
132.9711435872
 30
0.0
 11
149.8287481282
 21
134.3833406034
 31
0.0
  0
LWPOLYLINE
  5
16F
330
1F
100
AcDbEntity
  8
0
  6
HIDDEN
 62
     7
370
     0
100
AcDbPolyline
 90
       19
 70
   128
 43
0.0
 10
149.5713003006
 20
134.6480094406
 10
149.8973190811
 20
135.2128332991
 10
150.2883469712
 20
135.6022732842
 10
150.6972199332
 20
135.7693562794
 10
151.0746225741
 20
135.6939284641
 10
151.375033709
 20
135.3850916538
 10
151.5622197677
 20
134.8800922322
 10
151.6136036281
 20
134.2398424211
 10
151.5229873385
 20
133.5415646944
 10
151.3013004352
 20
132.869483209
 10
150.9752816547
 20
132.3046593505
 10
150.5842537645
 20
131.9152193654
 10
150.1753808025
 20
131.7481363702
 10
149.7979781617
 20
131.8235632542
 10
149.4975670267
 20
132.1324009958
 10
149.3103805024
 20
132.6374004173
 10
149.2589971077
 20
133.2776502285
 10
149.3496133972
 20
133.9759270239
 10
149.5713003006
 20
134.6480094406
  0
LINE
  5
170
330
1F
100
AcDbEntity
  8
0
  6
HIDDEN
 62
     7
370
     0
100
AcDbLine
 10
149.6454852659
 20
132.9711435872
 30
0.0
 11
150.2530372728
 21
132.3465493086
 31
0.0
  0
LINE
  5
171
330
1F
100
AcDbEntity
  8
0
  6
HIDDEN
 62
     7
370
     0
100
AcDbLine
 10
151.2837892424
 20
132.5787941504
 30
0.0
 11
149.6454852659
 21
132.9711435872
 31
0.0
  0
LINE
  5
172
330
1F
100
AcDbEntity
  8
0
  6
HIDDEN
 62
     7
370
     0
100
AcDbLine
 10
151.2837892424
 20
132.5787941504
 30
0.0
 11
151.8913417149
 21
131.9541998717
 31
0.0
  0
LINE
  5
173
330
1F
100
AcDbEntity
  8
0
  6
HIDDEN
 62
     7
370
     0
100
AcDbLine
 10
152.8654194463
 20
134.1539996255
 30
0.0
 11
151.2271154698
 21
134.5463490623
 31
0.0
  0
LINE
  5
174
330
1F
100
AcDbEntity
  8
0
  6
HIDDEN
 62
     7
370
     0
100
AcDbLine
 10
150.6195629973
 20
135.170943341
 30
0.0
 11
151.2271154698
 21
134.5463490623
 31
0.0
  0
LINE
  5
175
330
1F
100
AcDbEntity
  8
0
  6
HIDDEN
 62
     7
370
     0
100
AcDbLine
 10
152.2578674395
 20
134.7785939041
 30
0.0
 11
150.6195629973
 21
135.170943341
 31
0.0
  0
LINE
  5
176
330
1F
100
AcDbEntity
  8
0
  6
HIDDEN
 62
     7
370
     0
100
AcDbLine
 10
152.2578674395
 20
134.7785939041
 30
0.0
 11
152.8654194463
 21
134.1539996255
 31
0.0
  0
LINE
  5
177
330
1F
100
AcDbEntity
  8
0
  6
HIDDEN
 62
     7
370
     0
100
AcDbLine
 10
152.6821565841
 20
132.7418026093
 30
0.0
 11
151.0438526075
 21
133.1341520462
 31
0.0
  0
LINE
  5
178
330
1F
100
AcDbEntity
  8
0
  6
HIDDEN
 62
     7
370
     0
100
AcDbLine
 10
151.8913417149
 20
131.9541998717
 30
0.0
 11
150.2530372728
 21
132.3465493086
 31
0.0
  0
LINE
  5
179
330
1F
100
AcDbEntity
  8
0
  6
HIDDEN
 62
     7
370
     0
100
AcDbLine
 10
150.2530372728
 20
132.3465493086
 30
0.0
 11
151.0438526075
 21
133.1341520462
 31
0.0
  0
LINE
  5
17A
330
1F
100
AcDbEntity
  8
0
  6
HIDDEN
 62
     7
370
     0
100
AcDbLine
 10
151.8913417149
 20
131.9541998717
 30
0.0
 11
152.6821565841
 21
132.7418026093
 31
0.0
  0
LINE
  5
17B
330
1F
100
AcDbEntity
  8
0
  6
HIDDEN
 62
     7
370
     0
100
AcDbLine
 10
151.2271154698
 20
134.5463490623
 30
0.0
 11
151.0438526075
 21
133.1341520462
 31
0.0
  0
LINE
  5
17C
330
1F
100
AcDbEntity
  8
0
  6
HIDDEN
 62
     7
370
     0
100
AcDbLine
 10
152.8654194463
 20
134.1539996255
 30
0.0
 11
152.6821565841
 21
132.7418026093
 31
0.0
  0
LWPOLYLINE
  5
17D
330
1F
100
AcDbEntity
  8
0
  6
HIDDEN
 62
     7
370
     0
100
AcDbPolyline
 90
       19
 70
   128
 43
0.0
 10
149.5713003006
 20
105.0597627226
 10
149.8973190811
 20
104.4949388641
 10
150.2883469712
 20
104.105498879
 10
150.6972199332
 20
103.9384158838
 10
151.0746225741
 20
104.0138436991
 10
151.375033709
 20
104.3226805094
 10
151.5622197677
 20
104.8276799309
 10
151.6136036281
 20
105.4679297421
 10
151.5229873385
 20
106.1662074688
 10
151.3013004352
 20
106.8382889542
 10
150.9752816547
 20
107.4031128127
 10
150.5842537645
 20
107.7925527978
 10
150.1753808025
 20
107.959635793
 10
149.7979781617
 20
107.884208909
 10
149.4975670267
 20
107.5753711674
 10
149.3103805024
 20
107.0703717458
 10
149.2589971077
 20
106.4301219347
 10
149.3496133972
 20
105.7318451393
 10
149.5713003006
 20
105.0597627226
  0
LWPOLYLINE
  5
17E
330
1F
100
AcDbEntity
  8
0
  6
HIDDEN
 62
     7
370
     0
100
AcDbPolyline
 90
       21
 70
   128
 43
0.0
 10
149.5944464605
 20
104.9175991255
 10
149.9469567116
 20
104.2907715353
 10
150.3679685321
 20
103.8312001664
 10
150.8162699666
 20
103.5838688302
 10
151.2479784925
 20
103.5729909825
 10
151.6208353479
 20
103.7996283311
 10
151.8983429324
 20
104.2415967721
 10
152.0533364292
 20
104.8556354407
 10
152.070644128
 20
105.5816358465
 10
151.9485719528
 20
106.3485324893
 10
151.6990687724
 20
107.0812561128
 10
151.3465585213
 20
107.7080827716
 10
150.9255467009
 20
108.1676550719
 10
150.4772452664
 20
108.4149854767
 10
150.0455367405
 20
108.4258642557
 10
149.6726794195
 20
108.1992269072
 10
149.3951723006
 20
107.7572575349
 10
149.2401788037
 20
107.1432197976
 10
149.222871105
 20
106.4172193918
 10
149.3449432802
 20
105.650322749
 10
149.5944464605
 20
104.9175991255
  0
LWPOLYLINE
  5
17F
330
1F
100
AcDbEntity
  8
0
  6
HIDDEN
 62
     7
370
     0
100
AcDbPolyline
 90
       21
 70
   128
 43
0.0
 10
152.046233232
 20
105.5047654125
 10
152.3987434831
 20
104.8779378224
 10
152.8197553035
 20
104.4183664534
 10
153.2680572037
 20
104.1710360485
 10
153.6997652639
 20
104.1601563382
 10
154.0726221193
 20
104.3867946181
 10
154.3501301695
 20
104.8287639904
 10
154.5051236663
 20
105.4428017277
 10
154.522431365
 20
106.1688021335
 10
154.4003582586
 20
106.9356987763
 10
154.1508560095
 20
107.6684223998
 10
153.7983457584
 20
108.2952499899
 10
153.377333938
 20
108.7548213589
 10
152.9290320378
 20
109.0021517637
 10
152.4973235119
 20
109.0130314741
 10
152.1244666565
 20
108.7863931942
 10
151.846959072
 20
108.3444238219
 10
151.6919655752
 20
107.7303860846
 10
151.6746578764
 20
107.0043856788
 10
151.7967300516
 20
106.237489036
 10
152.046233232
 20
105.5047654125
  0
LINE
  5
180
330
1F
100
AcDbEntity
  8
0
  6
HIDDEN
 62
     7
370
     0
100
AcDbLine
 10
151.2271154698
 20
105.1614231008
 30
0.0
 11
151.0438526075
 21
106.573620117
 31
0.0
  0
LINE
  5
181
330
1F
100
AcDbEntity
  8
0
  6
HIDDEN
 62
     7
370
     0
100
AcDbLine
 10
150.2530372728
 20
107.3612228546
 30
0.0
 11
151.0438526075
 21
106.573620117
 31
0.0
  0
LINE
  5
182
330
1F
100
AcDbEntity
  8
0
  6
HIDDEN
 62
     7
370
     0
100
AcDbLine
 10
149.6454852659
 20
106.7366285759
 30
0.0
 11
150.2530372728
 21
107.3612228546
 31
0.0
  0
LINE
  5
183
330
1F
100
AcDbEntity
  8
0
  6
HIDDEN
 62
     7
370
     0
100
AcDbLine
 10
149.6454852659
 20
106.7366285759
 30
0.0
 11
149.8287481282
 21
105.3244315598
 31
0.0
  0
LINE
  5
184
330
1F
100
AcDbEntity
  8
0
  6
HIDDEN
 62
     7
370
     0
100
AcDbLine
 10
150.6195629973
 20
104.5368288222
 30
0.0
 11
149.8287481282
 21
105.3244315598
 31
0.0
  0
LINE
  5
185
330
1F
100
AcDbEntity
  8
0
  6
HIDDEN
 62
     7
370
     0
100
AcDbLine
 10
150.6195629973
 20
104.5368288222
 30
0.0
 11
151.2271154698
 21
105.1614231008
 31
0.0
  0
LINE
  5
186
330
1F
100
AcDbEntity
  8
0
  6
HIDDEN
 62
     7
370
     0
100
AcDbLine
 10
152.6821565841
 20
106.9659695539
 30
0.0
 11
151.0438526075
 21
106.573620117
 31
0.0
  0
LWPOLYLINE
  5
187
330
1F
100
AcDbEntity
  8
0
  6
HIDDEN
 62
     7
370
     0
100
AcDbPolyline
 90
       17
 70
   128
 43
0.0
 10
152.9762906049
 20
105.9764449063
 10
153.2932969768
 20
105.4448105905
 10
153.6741846267
 20
105.1094012845
 10
154.0609684799
 20
105.0212814051
 10
154.3947628725
 20
105.1938647914
 10
154.6247511197
 20
105.6008788335
 10
154.7159201492
 20
106.1803570527
 10
154.6543895293
 20
106.8440817806
 10
154.4495265026
 20
107.491004518
 10
154.1325201307
 20
108.0226388338
 10
153.7516324807
 20
108.3580481398
 10
153.3648486275
 20
108.4461680192
 10
153.0310537692
 20
108.2735846329
 10
152.8010655221
 20
107.8665715221
 10
152.7098969583
 20
107.2870923716
 10
152.7714280438
 20
106.6233676437
 10
152.9762906049
 20
105.9764449063
  0
LINE
  5
188
330
1F
100
AcDbEntity
  8
0
  6
HIDDEN
 62
     7
370
     0
100
AcDbLine
 10
152.8654194463
 20
105.5537725377
 30
0.0
 11
151.2271154698
 21
105.1614231008
 31
0.0
  0
LINE
  5
189
330
1F
100
AcDbEntity
  8
0
  6
HIDDEN
 62
     7
370
     0
100
AcDbLine
 10
151.2837892424
 20
107.1289780128
 30
0.0
 11
151.4670521047
 21
105.7167809966
 31
0.0
  0
LINE
  5
18A
330
1F
100
AcDbEntity
  8
0
  6
HIDDEN
 62
     7
370
     0
100
AcDbLine
 10
151.2837892424
 20
107.1289780128
 30
0.0
 11
151.8913417149
 21
107.7535722914
 31
0.0
  0
LINE
  5
18B
330
1F
100
AcDbEntity
  8
0
  6
HIDDEN
 62
     7
370
     0
100
AcDbLine
 10
152.2578674395
 20
104.9291782591
 30
0.0
 11
151.4670521047
 21
105.7167809966
 31
0.0
  0
LINE
  5
18C
330
1F
100
AcDbEntity
  8
0
  6
HIDDEN
 62
     7
370
     0
100
AcDbLine
 10
152.2578674395
 20
104.9291782591
 30
0.0
 11
152.8654194463
 21
105.5537725377
 31
0.0
  0
LINE
  5
18D
330
1F
100
AcDbEntity
  8
0
  6
HIDDEN
 62
     7
370
     0
100
AcDbLine
 10
151.8913417149
 20
107.7535722914
 30
0.0
 11
152.6821565841
 21
106.9659695539
 31
0.0
  0
LINE
  5
18E
330
1F
100
AcDbEntity
  8
0
  6
HIDDEN
 62
     7
370
     0
100
AcDbLine
 10
152.8654194463
 20
105.5537725377
 30
0.0
 11
152.6821565841
 21
106.9659695539
 31
0.0
  0
LINE
  5
18F
330
1F
100
AcDbEntity
  8
0
  6
HIDDEN
 62
     7
370
     0
100
AcDbLine
 10
151.2837892424
 20
107.1289780128
 30
0.0
 11
149.6454852659
 21
106.7366285759
 31
0.0
  0
LINE
  5
190
330
1F
100
AcDbEntity
  8
0
  6
HIDDEN
 62
     7
370
     0
100
AcDbLine
 10
151.8913417149
 20
107.7535722914
 30
0.0
 11
150.2530372728
 21
107.3612228546
 31
0.0
  0
LINE
  5
191
330
1F
100
AcDbEntity
  8
0
  6
HIDDEN
 62
     7
370
     0
100
AcDbLine
 10
151.4670521047
 20
105.7167809966
 30
0.0
 11
149.8287481282
 21
105.3244315598
 31
0.0
  0
LINE
  5
192
330
1F
100
AcDbEntity
  8
0
  6
HIDDEN
 62
     7
370
     0
100
AcDbLine
 10
152.2578674395
 20
104.9291782591
 30
0.0
 11
150.6195629973
 21
104.5368288222
 31
0.0
  0
LINE
  5
193
330
1F
100
AcDbEntity
  8
0
  6
HIDDEN
 62
     7
370
     0
100
AcDbLine
 10
162.0155706097
 20
103.1895729292
 30
0.0
 11
162.0155706097
 21
106.3458009201
 31
0.0
  0
LINE
  5
194
330
1F
100
AcDbEntity
  8
0
  6
HIDDEN
 62
     7
370
     0
100
AcDbLine
 10
157.0155707214
 20
106.3458009201
 30
0.0
 11
157.0155707214
 21
104.2921415109
 31
0.0
  0
LINE
  5
195
330
1F
100
AcDbEntity
  8
0
  6
HIDDEN
 62
     7
370
     0
100
AcDbLine
 10
148.515570958
 20
102.4042090911
 30
0.0
 11
151.1349988196
 21
103.031523763
 31
0.0
  0
LINE
  5
196
330
1F
100
AcDbEntity
  8
0
  6
HIDDEN
 62
     7
370
     0
100
AcDbLine
 10
149.7376019161
 20
108.8665288451
 30
0.0
 11
148.515570958
 21
108.5738700393
 31
0.0
  0
LINE
  5
197
330
1F
100
AcDbEntity
  8
0
  6
HIDDEN
 62
     7
370
     0
100
AcDbLine
 10
151.1937215019
 20
103.9710363883
 30
0.0
 11
158.6628708083
 21
105.7597857478
 31
0.0
  0
LINE
  5
198
330
1F
100
AcDbEntity
  8
0
  6
HIDDEN
 62
     7
370
     0
100
AcDbLine
 10
158.6628708083
 20
110.0785483185
 30
0.0
 11
150.2155436229
 21
108.0555396664
 31
0.0
  0
LINE
  5
199
330
1F
100
AcDbEntity
  8
0
  6
HIDDEN
 62
     7
370
     0
100
AcDbLine
 10
161.6155712891
 20
106.3955950129
 30
0.0
 11
161.6155712891
 21
117.8044297311
 31
0.0
  0
LINE
  5
19A
330
1F
100
AcDbEntity
  8
0
  6
HIDDEN
 62
     7
370
     0
100
AcDbLine
 10
157.4155709732
 20
106.7436451602
 30
0.0
 11
157.4155709732
 21
106.3955950129
 31
0.0
  0
LINE
  5
19B
330
1F
100
AcDbEntity
  8
0
  6
HIDDEN
 62
     7
370
     0
100
AcDbLine
 10
157.4155709732
 20
117.8042704749
 30
0.0
 11
157.4155709732
 21
108.4972696889
 31
0.0
  0
ARC
  5
19C
330
1F
100
AcDbEntity
  8
0
  6
HIDDEN
 62
     7
370
     0
100
AcDbCircle
 10
244.3155710388
 20
138.8538860816
 30
0.0
 40
1.0
100
AcDbArc
 50
270.0
 51
0.0
  0
ARC
  5
19D
330
1F
100
AcDbEntity
  8
0
  6
HIDDEN
 62
     7
370
     0
100
AcDbCircle
 10
244.3155710388
 20
100.8538860816
 30
0.0
 40
1.0
100
AcDbArc
 50
0.0
 51
90.0
  0
ARC
  5
19E
330
1F
100
AcDbEntity
  8
0
  6
HIDDEN
 62
     7
370
     0
100
AcDbCircle
 10
207.6839185412
 20
137.3538860816
 30
0.0
 40
1.0
100
AcDbArc
 50
75.0
 51
90.0
  0
ARC
  5
19F
330
1F
100
AcDbEntity
  8
0
  6
HIDDEN
 62
     7
370
     0
100
AcDbCircle
 10
207.6839185412
 20
102.3538860816
 30
0.0
 40
1.0
100
AcDbArc
 50
270.0
 51
285.0
  0
LINE
  5
1A0
330
1F
100
AcDbEntity
  8
0
  6
HIDDEN
 62
     7
370
     0
100
AcDbLine
 10
207.6839192797
 20
138.35388632
 30
0.0
 11
205.815570711
 21
138.35388632
 31
0.0
  0
LINE
  5
1A1
330
1F
100
AcDbEntity
  8
0
  6
HIDDEN
 62
     7
370
     0
100
AcDbLine
 10
205.815570711
 20
101.3538858432
 30
0.0
 11
207.6839192797
 21
101.3538858432
 31
0.0
  0
ARC
  5
1A2
330
1F
100
AcDbEntity
  8
0
  6
HIDDEN
 62
     7
370
     0
100
AcDbCircle
 10
205.8155710388
 20
137.3538860816
 30
0.0
 40
1.0
100
AcDbArc
 50
90.0
 51
180.0
  0
ARC
  5
1A3
330
1F
100
AcDbEntity
  8
0
  6
HIDDEN
 62
     7
370
     0
100
AcDbCircle
 10
205.8155710388
 20
102.3538860816
 30
0.0
 40
1.0
100
AcDbArc
 50
180.0
 51
270.0
  0
LINE
  5
1A4
330
1F
100
AcDbEntity
  8
0
  6
HIDDEN
 62
     7
370
     0
100
AcDbLine
 10
207.9427375484
 20
101.3879610735
 30
0.0
 11
209.6815987516
 21
101.8538868564
 31
0.0
  0
LINE
  5
1A5
330
1F
100
AcDbEntity
  8
0
  6
HIDDEN
 62
     7
370
     0
100
AcDbLine
 10
209.6815987516
 20
137.8538853067
 30
0.0
 11
207.9427375484
 21
138.3198110896
 31
0.0
  0
LINE
  5
1A6
330
1F
100
AcDbEntity
  8
0
  6
HIDDEN
 62
     7
370
     0
100
AcDbLine
 10
220.0155689407
 20
137.8538853067
 30
0.0
 11
209.6815987516
 21
137.8538853067
 31
0.0
  0
LINE
  5
1A7
330
1F
100
AcDbEntity
  8
0
  6
HIDDEN
 62
     7
370
     0
100
AcDbLine
 10
244.3155705024
 20
137.8538853067
 30
0.0
 11
234.419292121
 21
137.8538853067
 31
0.0
  0
LINE
  5
1A8
330
1F
100
AcDbEntity
  8
0
  6
HIDDEN
 62
     7
370
     0
100
AcDbLine
 10
209.6815987516
 20
101.8538868564
 30
0.0
 11
244.3155705024
 21
101.8538868564
 31
0.0
  0
ARC
  5
1A9
330
1F
100
AcDbEntity
  8
0
  6
HIDDEN
 62
     7
370
     0
100
AcDbCircle
 10
44.9155710388
 20
106.1538860816
 30
0.0
 40
1.200000000000003
100
AcDbArc
 50
90.0
 51
180.0
  0
ARC
  5
1AA
330
1F
100
AcDbEntity
  8
0
  6
HIDDEN
 62
     7
370
     0
100
AcDbCircle
 10
44.9155710388
 20
133.5538860816
 30
0.0
 40
1.200000000000017
100
AcDbArc
 50
180.0
 51
270.0
  0
ARC
  5
1AB
330
1F
100
AcDbEntity
  8
0
  6
HIDDEN
 62
     7
370
     0
100
AcDbCircle
 10
54.6079434695
 20
107.5288860816
 30
0.0
 40
0.3999999999999915
100
AcDbArc
 50
255.0
 51
270.0
  0
ARC
  5
1AC
330
1F
100
AcDbEntity
  8
0
  6
HIDDEN
 62
     7
370
     0
100
AcDbCircle
 10
54.6079434695
 20
132.1788860816
 30
0.0
 40
0.4000000000000057
100
AcDbArc
 50
90.0
 51
105.0
  0
LINE
  5
1AD
330
1F
100
AcDbEntity
  8
0
  6
HIDDEN
 62
     7
370
     0
100
AcDbLine
 10
54.6079411198
 20
107.1288858119
 30
0.0
 11
55.4846285869
 21
107.1288858119
 31
0.0
  0
LINE
  5
1AE
330
1F
100
AcDbEntity
  8
0
  6
HIDDEN
 62
     7
370
     0
100
AcDbLine
 10
55.4846285869
 20
132.5788863513
 30
0.0
 11
54.6079411198
 21
132.5788863513
 31
0.0
  0
ARC
  5
1AF
330
1F
100
AcDbEntity
  8
0
  6
HIDDEN
 62
     7
370
     0
100
AcDbCircle
 10
55.4846309311
 20
107.5288860816
 30
0.0
 40
0.3999999999999998
100
AcDbArc
 50
270.0
 51
330.0
  0
ARC
  5
1B0
330
1F
100
AcDbEntity
  8
0
  6
HIDDEN
 62
     7
370
     0
100
AcDbCircle
 10
55.4846309311
 20
132.1788860816
 30
0.0
 40
0.4000000000000069
100
AcDbArc
 50
30.0
 51
90.0
  0
LINE
  5
1B1
330
1F
100
AcDbEntity
  8
0
  6
HIDDEN
 62
     7
370
     0
100
AcDbLine
 10
54.5044153024
 20
132.5652564454
 30
0.0
 11
53.7155701805
 21
132.3538862679
 31
0.0
  0
LINE
  5
1B2
330
1F
100
AcDbEntity
  8
0
  6
HIDDEN
 62
     7
370
     0
100
AcDbLine
 10
53.7155701805
 20
107.3538858953
 30
0.0
 11
54.5044153024
 21
107.1425157178
 31
0.0
  0
LINE
  5
1B3
330
1F
100
AcDbEntity
  8
0
  6
HIDDEN
 62
     7
370
     0
100
AcDbLine
 10
55.8310433317
 20
107.3288864035
 30
0.0
 11
57.0001735378
 21
109.3538862231
 31
0.0
  0
LINE
  5
1B4
330
1F
100
AcDbEntity
  8
0
  6
HIDDEN
 62
     7
370
     0
100
AcDbLine
 10
57.0001735378
 20
130.35388594
 30
0.0
 11
55.8310433317
 21
132.3788857597
 31
0.0
  0
LINE
  5
1B5
330
1F
100
AcDbEntity
  8
0
  6
HIDDEN
 62
     7
370
     0
100
AcDbLine
 10
44.9155702282
 20
107.3538858953
 30
0.0
 11
53.7155701805
 21
107.3538858953
 31
0.0
  0
LINE
  5
1B6
330
1F
100
AcDbEntity
  8
0
  6
HIDDEN
 62
     7
370
     0
100
AcDbLine
 10
53.7155701805
 20
132.3538862679
 30
0.0
 11
44.9155702282
 21
132.3538862679
 31
0.0
  0
LINE
  5
1B7
330
1F
100
AcDbEntity
  8
0
  6
HIDDEN
 62
     7
370
     0
100
AcDbLine
 10
57.0001735378
 20
109.3538862231
 30
0.0
 11
105.7155712534
 21
109.3538862231
 31
0.0
  0
LINE
  5
1B8
330
1F
100
AcDbEntity
  8
0
  6
HIDDEN
 62
     7
370
     0
100
AcDbLine
 10
105.7155712534
 20
130.35388594
 30
0.0
 11
57.0001735378
 21
130.35388594
 31
0.0
  0
LINE
  5
1B9
330
1F
100
AcDbEntity
  8
0
  6
HIDDEN
 62
     7
370
     0
100
AcDbLine
 10
105.7155712534
 20
109.3538862231
 30
0.0
 11
108.4194428314
 21
113.8538860294
 31
0.0
  0
LINE
  5
1BA
330
1F
100
AcDbEntity
  8
0
  6
HIDDEN
 62
     7
370
     0
100
AcDbLine
 10
108.4194428314
 20
125.8538861337
 30
0.0
 11
105.7155712534
 21
130.35388594
 31
0.0
  0
LINE
  5
1BB
330
1F
100
AcDbEntity
  8
0
  6
HIDDEN
 62
     7
370
     0
100
AcDbLine
 10
217.5155713249
 20
151.3538865882
 30
0.0
 11
220.0155689407
 21
148.8538852471
 31
0.0
  0
LINE
  5
1BC
330
1F
100
AcDbEntity
  8
0
  6
HIDDEN
 62
     7
370
     0
100
AcDbLine
 10
234.5155685235
 20
148.8538852471
 30
0.0
 11
237.0155735899
 21
151.3538865882
 31
0.0
  0
LINE
  5
1BD
330
1F
100
AcDbEntity
  8
0
  6
HIDDEN
 62
     7
370
     0
100
AcDbLine
 10
220.0155689407
 20
148.8538852471
 30
0.0
 11
220.0155689407
 21
137.8538853067
 31
0.0
  0
LINE
  5
1BE
330
1F
100
AcDbEntity
  8
0
  6
HIDDEN
 62
     7
370
     0
100
AcDbLine
 10
234.5155685235
 20
137.8153490412
 30
0.0
 11
234.5155685235
 21
148.8538852471
 31
0.0
  0
LINE
  5
1BF
330
1F
100
AcDbEntity
  8
0
  6
HIDDEN
 62
     7
370
     0
100
AcDbLine
 10
204.8155724097
 20
125.8538861337
 30
0.0
 11
108.4194428314
 21
125.8538861337
 31
0.0
  0
LINE
  5
1C0
330
1F
100
AcDbEntity
  8
0
  6
HIDDEN
 62
     7
370
     0
100
AcDbLine
 10
108.4194428314
 20
113.8538860294
 30
0.0
 11
204.8155724097
 21
113.8538860294
 31
0.0
  0
LINE
  5
1C1
330
1F
100
AcDbEntity
  8
0
  6
HIDDEN
 62
     7
370
     0
100
AcDbLine
 10
161.6155712891
 20
121.9035016883
 30
0.0
 11
161.6155712891
 21
133.3121771503
 31
0.0
  0
LINE
  5
1C2
330
1F
100
AcDbEntity
  8
0
  6
HIDDEN
 62
     7
370
     0
100
AcDbLine
 10
157.4155709732
 20
131.2105024743
 30
0.0
 11
157.4155709732
 21
121.9033424321
 31
0.0
  0
LINE
  5
1C3
330
1F
100
AcDbEntity
  8
0
  6
HIDDEN
 62
     7
370
     0
100
AcDbLine
 10
157.4155709732
 20
133.3121771503
 30
0.0
 11
157.4155709732
 21
132.964127003
 31
0.0
  0
LINE
  5
1C4
330
1F
100
AcDbEntity
  8
0
  6
HIDDEN
 62
     7
370
     0
100
AcDbLine
 10
150.2155436229
 20
131.6522324968
 30
0.0
 11
158.6628708083
 21
129.6292238447
 31
0.0
  0
LINE
  5
1C5
330
1F
100
AcDbEntity
  8
0
  6
HIDDEN
 62
     7
370
     0
100
AcDbLine
 10
158.6628708083
 20
133.9479864153
 30
0.0
 11
151.1937215019
 21
135.7367357749
 31
0.0
  0
LINE
  5
1C6
330
1F
100
AcDbEntity
  8
0
  6
HIDDEN
 62
     7
370
     0
100
AcDbLine
 10
148.515570958
 20
131.1339021239
 30
0.0
 11
149.7376019161
 21
130.841243318
 31
0.0
  0
LINE
  5
1C7
330
1F
100
AcDbEntity
  8
0
  6
HIDDEN
 62
     7
370
     0
100
AcDbLine
 10
151.1349988196
 20
136.6762484002
 30
0.0
 11
148.515570958
 21
137.3035630721
 31
0.0
  0
LINE
  5
1C8
330
1F
100
AcDbEntity
  8
0
  6
HIDDEN
 62
     7
370
     0
100
AcDbLine
 10
162.0155706097
 20
133.361971243
 30
0.0
 11
162.0155706097
 21
136.518199234
 31
0.0
  0
LINE
  5
1C9
330
1F
100
AcDbEntity
  8
0
  6
HIDDEN
 62
     7
370
     0
100
AcDbLine
 10
157.0155707214
 20
135.4156306523
 30
0.0
 11
157.0155707214
 21
133.361971243
 31
0.0
  0
LINE
  5
1CA
330
1F
100
AcDbEntity
  8
0
  6
HIDDEN
 62
     7
370
     0
100
AcDbLine
 10
235.2655737687
 20
150.3538864243
 30
0.0
 11
234.7407772232
 21
150.8786773819
 31
0.0
  0
LINE
  5
1CB
330
1F
100
AcDbEntity
  8
0
  6
HIDDEN
 62
     7
370
     0
100
AcDbLine
 10
219.7894289184
 20
150.877747922
 30
0.0
 11
219.2655711461
 21
150.3538864243
 31
0.0
  0
LINE
  5
1CC
330
1F
100
AcDbEntity
  8
0
  6
HIDDEN
 62
     7
370
     0
100
AcDbLine
 10
219.2655711461
 20
150.3538864243
 30
0.0
 11
219.2655711461
 21
140.1840134102
 31
0.0
  0
LINE
  5
1CD
330
1F
100
AcDbEntity
  8
0
  6
HIDDEN
 62
     7
370
     0
100
AcDbLine
 10
235.2655737687
 20
140.1840134102
 30
0.0
 11
235.2655737687
 21
150.3538864243
 31
0.0
  0
LINE
  5
1CE
330
1F
100
AcDbEntity
  8
0
  6
HIDDEN
 62
     7
370
     0
100
AcDbLine
 10
219.2655711461
 20
140.1840134102
 30
0.0
 11
221.6662748743
 21
131.2244769696
 31
0.0
  0
LINE
  5
1CF
330
1F
100
AcDbEntity
  8
0
  6
HIDDEN
 62
     7
370
     0
100
AcDbLine
 10
232.8648700405
 20
131.2244769696
 30
0.0
 11
235.2655737687
 21
140.1840134102
 31
0.0
  0
ARC
  5
1D0
330
1F
100
AcDbEntity
  8
0
  6
HIDDEN
 62
     7
370
     0
100
AcDbCircle
 10
222.1492345328
 20
131.3538860816
 30
0.0
 40
0.5000000000000079
100
AcDbArc
 50
195.0
 51
270.0
  0
ARC
  5
1D1
330
1F
100
AcDbEntity
  8
0
  6
HIDDEN
 62
     7
370
     0
100
AcDbCircle
 10
232.3819075448
 20
131.3538860816
 30
0.0
 40
0.5
100
AcDbArc
 50
270.0
 51
345.0
  0
LINE
  5
1D2
330
1F
100
AcDbEntity
  8
0
  6
HIDDEN
 62
     7
370
     0
100
AcDbLine
 10
222.5655674029
 20
151.3538865882
 30
0.0
 11
223.0871676494
 21
150.8322863418
 31
0.0
  0
LINE
  5
1D3
330
1F
100
AcDbEntity
  8
0
  6
HIDDEN
 62
     7
370
     0
100
AcDbLine
 10
231.4357294727
 20
150.824044137
 30
0.0
 11
231.9655700613
 21
151.3538865882
 31
0.0
  0
LINE
  5
1D4
330
1F
100
AcDbEntity
  8
0
  6
HIDDEN
 62
     7
370
     0
100
AcDbLine
 10
223.2655718017
 20
141.3538868117
 30
0.0
 11
223.2655718017
 21
140.3538866478
 31
0.0
  0
LINE
  5
1D5
330
1F
100
AcDbEntity
  8
0
  6
HIDDEN
 62
     7
370
     0
100
AcDbLine
 10
231.2655731131
 20
140.3538866478
 30
0.0
 11
231.2655731131
 21
141.3538868117
 31
0.0
  0
LINE
  5
1D6
330
1F
100
AcDbEntity
  8
0
  6
HIDDEN
 62
     7
370
     0
100
AcDbLine
 10
223.2655718017
 20
140.3538866478
 30
0.0
 11
227.2655724574
 21
138.8980059463
 31
0.0
  0
LINE
  5
1D7
330
1F
100
AcDbEntity
  8
0
  6
HIDDEN
 62
     7
370
     0
100
AcDbLine
 10
227.2655724574
 20
138.8980059463
 30
0.0
 11
231.2655731131
 21
140.3538866478
 31
0.0
  0
LINE
  5
1D8
330
1F
100
AcDbEntity
  8
0
  6
HIDDEN
 62
     7
370
     0
100
AcDbLine
 10
162.0155706097
 20
133.361971243
 30
0.0
 11
162.0155706097
 21
133.960507116
 31
0.0
  0
LINE
  5
1D9
330
1F
100
AcDbEntity
  8
0
  6
HIDDEN
 62
     7
370
     0
100
AcDbLine
 10
157.0155707214
 20
133.960507116
 30
0.0
 11
157.0155707214
 21
133.361971243
 31
0.0
  0
LINE
  5
1DA
330
1F
100
AcDbEntity
  8
0
  6
HIDDEN
 62
     7
370
     0
100
AcDbLine
 10
161.515571459
 20
133.7227004159
 30
0.0
 11
161.515571459
 21
135.1404760543
 31
0.0
  0
LINE
  5
1DB
330
1F
100
AcDbEntity
  8
0
  6
HIDDEN
 62
     7
370
     0
100
AcDbLine
 10
157.5155708034
 20
135.1404760543
 30
0.0
 11
157.5155708034
 21
133.7227004159
 31
0.0
  0
LINE
  5
1DC
330
1F
100
AcDbEntity
  8
0
  6
HIDDEN
 62
     7
370
     0
100
AcDbLine
 10
162.0155706097
 20
134.9044826391
 30
0.0
 11
162.0155706097
 21
135.0925939667
 31
0.0
  0
LINE
  5
1DD
330
1F
100
AcDbEntity
  8
0
  6
HIDDEN
 62
     7
370
     0
100
AcDbLine
 10
157.0155707214
 20
135.0925939667
 30
0.0
 11
157.0155707214
 21
134.9044826391
 31
0.0
  0
LINE
  5
1DE
330
1F
100
AcDbEntity
  8
0
  6
HIDDEN
 62
     7
370
     0
100
AcDbLine
 10
157.0155707214
 20
104.803289524
 30
0.0
 11
157.0155707214
 21
104.6151781964
 31
0.0
  0
LINE
  5
1DF
330
1F
100
AcDbEntity
  8
0
  6
HIDDEN
 62
     7
370
     0
100
AcDbLine
 10
162.0155706097
 20
104.6151781964
 30
0.0
 11
162.0155706097
 21
104.803289524
 31
0.0
  0
LINE
  5
1E0
330
1F
100
AcDbEntity
  8
0
  6
HIDDEN
 62
     7
370
     0
100
AcDbLine
 10
157.5155708034
 20
105.9850717473
 30
0.0
 11
157.5155708034
 21
104.5672961089
 31
0.0
  0
LINE
  5
1E1
330
1F
100
AcDbEntity
  8
0
  6
HIDDEN
 62
     7
370
     0
100
AcDbLine
 10
161.515571459
 20
104.5672961089
 30
0.0
 11
161.515571459
 21
105.9850717473
 31
0.0
  0
LINE
  5
1E2
330
1F
100
AcDbEntity
  8
0
  6
HIDDEN
 62
     7
370
     0
100
AcDbLine
 10
157.0155707214
 20
106.3458009201
 30
0.0
 11
157.0155707214
 21
105.7472650471
 31
0.0
  0
LINE
  5
1E3
330
1F
100
AcDbEntity
  8
0
  6
HIDDEN
 62
     7
370
     0
100
AcDbLine
 10
162.0155706097
 20
105.7472650471
 30
0.0
 11
162.0155706097
 21
106.3458009201
 31
0.0
  0
ARC
  5
1E4
330
1F
100
AcDbEntity
  8
0
  6
HIDDEN
 62
     7
370
     0
100
AcDbCircle
 10
159.5155710388
 20
105.3881441196
 30
0.0
 40
2.000000000000004
100
AcDbArc
 50
63.4790062248
 51
192.2156859341
  0
ARC
  5
1E5
330
1F
100
AcDbEntity
  8
0
  6
HIDDEN
 62
     7
370
     0
100
AcDbCircle
 10
159.5155710388
 20
105.3881441196
 30
0.0
 40
2.000000000000004
100
AcDbArc
 50
340.0106787784
 51
63.4790062248
  0
CIRCLE
  5
1E6
330
1F
100
AcDbEntity
  8
0
  6
HIDDEN
 62
     7
370
     0
100
AcDbCircle
 10
159.5155710388
 20
134.3196280435
 30
0.0
 40
2.000000000000016
  0
LINE
  5
1E7
330
1F
100
AcDbEntity
  8
0
  6
HIDDEN
 62
     7
370
     0
100
AcDbLine
 10
153.4896169815
 20
131.0520230371
 30
0.0
 11
153.986659183
 21
131.5256387505
 31
0.0
  0
LINE
  5
1E8
330
1F
100
AcDbEntity
  8
0
  6
HIDDEN
 62
     7
370
     0
100
AcDbLine
 10
154.6130760599
 20
134.1413205999
 30
0.0
 11
154.3844978351
 21
134.7887108612
 31
0.0
  0
LINE
  5
1E9
330
1F
100
AcDbEntity
  8
0
  6
HIDDEN
 62
     7
370
     0
100
AcDbLine
 10
150.0645091783
 20
131.2770929697
 30
0.0
 11
152.5162959498
 21
130.6899266827
 31
0.0
  0
LINE
  5
1EA
330
1F
100
AcDbEntity
  8
0
  6
HIDDEN
 62
     7
370
     0
100
AcDbLine
 10
153.6807932917
 20
135.5524307627
 30
0.0
 11
151.2290060546
 21
136.1395961183
 31
0.0
  0
LINE
  5
1EB
330
1F
100
AcDbEntity
  8
0
  6
HIDDEN
 62
     7
370
     0
100
AcDbLine
 10
151.2290060546
 20
103.5681760448
 30
0.0
 11
153.6807932917
 21
104.1553414005
 31
0.0
  0
LINE
  5
1EC
330
1F
100
AcDbEntity
  8
0
  6
HIDDEN
 62
     7
370
     0
100
AcDbLine
 10
152.5162959498
 20
109.0178454805
 30
0.0
 11
150.0645091783
 21
108.4306791934
 31
0.0
  0
LINE
  5
1ED
330
1F
100
AcDbEntity
  8
0
  6
HIDDEN
 62
     7
370
     0
100
AcDbLine
 10
154.3844978351
 20
104.919061302
 30
0.0
 11
154.6130760599
 21
105.5664515633
 31
0.0
  0
LINE
  5
1EE
330
1F
100
AcDbEntity
  8
0
  6
HIDDEN
 62
     7
370
     0
100
AcDbLine
 10
153.986659183
 20
108.1821334127
 30
0.0
 11
153.4896169815
 21
108.6557491261
 31
0.0
  0
DIMENSION
  5
1EF
330
1F
100
AcDbEntity
  8
VERMASSUNG
100
AcDbDimension
  2
_D
 10
35.2578904088
 20
168.5788860816
 30
0.0
 11
35.2578904088
 21
119.8538860816
 31
0.0
 70
   160
  1
ISO 50 %%c<>
 71
     2
 42
-1.0
  3
SLDDIMSTYLE0
100
AcDbAlignedDimension
 13
163.7655710388
 23
71.1288860816
 33
0.0
 14
163.7655710388
 24
168.5788860816
 34
0.0
 50
90.0
100
AcDbRotatedDimension
  0
DIMENSION
  5
1FC
330
1F
100
AcDbEntity
  8
VERMASSUNG
100
AcDbDimension
  2
_D_1
 10
245.3155710388
 20
186.1869483096
 30
0.0
 11
144.5155710388
 21
186.1869483096
 31
0.0
 70
   160
  1
<>
 71
     2
 42
-1.0
  3
SLDDIMSTYLE0
100
AcDbAlignedDimension
 13
43.7155710388
 23
138.232730609
 33
0.0
 14
245.3155710388
 24
150.7538860816
 34
0.0
100
AcDbRotatedDimension
  0
DIMENSION
  5
206
330
1F
100
AcDbEntity
  8
VERMASSUNG
100
AcDbDimension
  2
_D_2
 10
245.3155710388
 20
180.1869483096
 30
0.0
 11
195.3155710388
 21
180.1869483096
 31
0.0
 70
   160
  1
<>
 71
     2
 42
-1.0
  3
SLDDIMSTYLE0
100
AcDbAlignedDimension
 13
145.3155710388
 23
154.7788860816
 33
0.0
 14
245.3155710388
 24
150.7538860816
 34
0.0
100
AcDbRotatedDimension
  0
DIMENSION
  5
210
330
1F
100
AcDbEntity
  8
VERMASSUNG
100
AcDbDimension
  2
_D_3
 10
245.3155710388
 20
174.1869483096
 30
0.0
 11
204.8405710388
 21
174.1869483096
 31
0.0
 70
   160
  1
<>
 71
     2
 42
-1.0
  3
SLDDIMSTYLE0
100
AcDbAlignedDimension
 13
164.3655710388
 23
166.1488730348
 33
0.0
 14
245.3155710388
 24
150.7538860816
 34
0.0
100
AcDbRotatedDimension
  0
DIMENSION
  5
21A
330
1F
100
AcDbEntity
  8
VERMASSUNG
100
AcDbDimension
  2
_D_4
 10
253.3571235694
 20
101.8538860816
 30
0.0
 11
253.3571235694
 21
119.8538860816
 31
0.0
 70
   160
  1
%%c<>
 71
     2
 42
-1.0
  3
SLDDIMSTYLE0
100
AcDbAlignedDimension
 13
244.3155710388
 23
137.8538860816
 33
0.0
 14
244.3155710388
 24
101.8538860816
 34
0.0
 50
90.0
100
AcDbRotatedDimension
  0
DIMENSION
  5
225
330
1F
100
AcDbEntity
  8
VERMASSUNG
100
AcDbDimension
  2
_D_5
 10
258.6908368856
 20
88.3538860816
 30
0.0
 11
258.6908368856
 21
119.8538860816
 31
0.0
 70
   160
  1
WH%%c<>
 71
     2
 42
-1.0
  3
SLDDIMSTYLE0
100
AcDbAlignedDimension
 13
244.7155710388
 23
151.3538860816
 33
0.0
 14
244.7155710388
 24
88.3538860816
 34
0.0
 50
90.0
100
AcDbRotatedDimension
  0
LINE
  5
231
330
1F
100
AcDbEntity
  8
VERMASSUNG
  6
CENTERX2
370
     0
100
AcDbLine
 10
42.465320319
 20
119.8538860816
 30
0.0
 11
246.6036448381
 21
119.8538860816
 31
0.0
  0
LINE
  5
232
330
1F
100
AcDbEntity
  8
0
  6
Continuous
 62
     7
370
    15
100
AcDbLine
 10
265.6286237923
 20
12.9581846128
 30
0.0
 11
265.8407223062
 21
13.0806655283
 31
0.0
  0
LINE
  5
233
330
1F
100
AcDbEntity
  8
0
  6
Continuous
 62
     7
370
    15
100
AcDbLine
 10
276.7637463691
 20
32.0019485049
 30
0.0
 11
276.7637457106
 21
32.2468716629
 31
0.0
  0
LINE
  5
234
330
1F
100
AcDbEntity
  8
0
  6
Continuous
 62
     7
370
    15
100
AcDbLine
 10
273.5011739724
 20
39.4579272391
 30
0.0
 11
246.153819897
 21
55.2452187048
 31
0.0
  0
LINE
  5
235
330
1F
100
AcDbEntity
  8
0
  6
Continuous
 62
     7
370
    15
100
AcDbLine
 10
230.4050994077
 20
27.9646795844
 30
0.0
 11
257.7524534831
 21
12.1773881186
 31
0.0
  0
SPLINE
  5
236
330
1F
100
AcDbEntity
  8
0
  6
Continuous
 62
     7
370
    15
100
AcDbSpline
210
0.0
220
0.0
230
1.0
 70
     8
 71
     3
 72
    26
 73
    22
 74
     0
 42
0.000000001
 43
0.00000001
 40
0.0
 40
0.0
 40
0.0
 40
0.0
 40
0.0227906059794991
 40
0.0824836518085995
 40
0.1410993747090551
 40
0.1983504097306555
 40
0.2547370661807355
 40
0.3107486132939015
 40
0.3666695682005073
 40
0.4226008776163677
 40
0.4786073936027624
 40
0.5347012778510863
 40
0.590869320081327
 40
0.6470875873374947
 40
0.7033280535744906
 40
0.7595584230654859
 40
0.8157411691577219
 40
0.871846136344326
 40
0.9278449920701219
 40
0.9837162389327141
 40
1.0
 40
1.0
 40
1.0
 40
1.0
 10
260.850438814406
 20
18.21030835088674
 30
0.0
 10
260.7792587644525
 20
18.25209813766976
 30
0.0
 10
260.5216442691926
 20
18.40334353348182
 30
0.0
 10
260.1618264954727
 20
18.80275560395575
 30
0.0
 10
259.7793431564481
 20
19.40335504806069
 30
0.0
 10
259.500416249631
 20
20.12599671530888
 30
0.0
 10
259.3231862755813
 20
20.94483852717491
 30
0.0
 10
259.2515906750829
 20
21.84963437254736
 30
0.0
 10
259.2870187474704
 20
22.82550571905196
 30
0.0
 10
259.4300848607261
 20
23.85642176399242
 30
0.0
 10
259.6793490068908
 20
24.924372056286
 30
0.0
 10
260.0313731812272
 20
26.01050585049563
 30
0.0
 10
260.4805731076809
 20
27.09531435363285
 30
0.0
 10
261.0193498991698
 20
28.15920150976499
 30
0.0
 10
261.6382334215148
 20
29.18291525339305
 30
0.0
 10
262.3260324352297
 20
30.1479891897413
 30
0.0
 10
263.0700544305454
 20
31.0369734224159
 30
0.0
 10
263.8564154822551
 20
31.83448899212042
 30
0.0
 10
264.6699458488368
 20
32.52512558737691
 30
0.0
 10
265.3013666757446
 20
32.96696403469353
 30
0.0
 10
265.6554621051677
 20
33.17619248467813
 30
0.0
 10
265.7353734728352
 20
33.2234106360688
 30
0.0
  0
SPLINE
  5
237
330
1F
100
AcDbEntity
  8
0
  6
Continuous
 62
     7
370
    15
100
AcDbSpline
210
0.0
220
0.0
230
1.0
 70
     8
 71
     3
 72
    14
 73
    10
 74
     0
 42
0.000000001
 43
0.00000001
 40
0.0
 40
0.0
 40
0.0
 40
0.0
 40
0.0908697716277657
 40
0.2642443952509709
 40
0.4375710462233622
 40
0.6113413710552578
 40
0.7866956140248875
 40
0.9653235514216671
 40
1.0
 40
1.0
 40
1.0
 40
1.0
 10
265.7353734728352
 20
33.2234106360688
 30
0.0
 10
265.8782005302822
 20
33.30248917916362
 30
0.0
 10
266.2935339106185
 20
33.53244531774637
 30
0.0
 10
266.9707469498885
 20
33.81494081418042
 30
0.0
 10
267.7430236244388
 20
34.02180864526024
 30
0.0
 10
268.4708746510964
 20
34.09542534102081
 30
0.0
 10
269.1366506304067
 20
34.02590533405468
 30
0.0
 10
269.5926289862762
 20
33.91158790638351
 30
0.0
 10
269.8034823585704
 20
33.78085833652116
 30
0.0
 10
269.8377603509732
 20
33.75960590335492
 30
0.0
  0
SPLINE
  5
238
330
1F
100
AcDbEntity
  8
0
  6
Continuous
 62
     7
370
    15
100
AcDbSpline
210
0.0
220
0.0
230
1.0
 70
     8
 71
     3
 72
    10
 73
     6
 74
     0
 42
0.000000001
 43
0.00000001
 40
0.0
 40
0.0
 40
0.0
 40
0.0
 40
0.134195124446517
 40
0.6045542330645128
 40
1.0
 40
1.0
 40
1.0
 40
1.0
 10
216.2761671766281
 20
45.25704123814736
 30
0.0
 10
216.2151353168792
 20
45.08663007433126
 30
0.0
 10
215.9401844249211
 20
44.3189211812445
 30
0.0
 10
215.5727787358919
 20
43.04877424624278
 30
0.0
 10
215.3210435546318
 20
41.96314413127599
 30
0.0
 10
215.2060665954706
 20
41.46729588007867
 30
0.0
  0
SPLINE
  5
239
330
1F
100
AcDbEntity
  8
0
  6
Continuous
 62
     7
370
    15
100
AcDbSpline
210
0.0
220
0.0
230
1.0
 70
     8
 71
     3
 72
    19
 73
    15
 74
     0
 42
0.000000001
 43
0.00000001
 40
0.0
 40
0.0
 40
0.0
 40
0.0
 40
0.0322518670420541
 40
0.1267981326814274
 40
0.2214319228444567
 40
0.3161097108905252
 40
0.4107995680169471
 40
0.5054797862936263
 40
0.6001421720025398
 40
0.6947836094698621
 40
0.7894041357995022
 40
0.884005857290241
 40
0.9785918871585876
 40
1.0
 40
1.0
 40
1.0
 40
1.0
 10
236.206895950126
 20
67.13944635155474
 30
0.0
 10
236.0540200885003
 20
67.10328218642248
 30
0.0
 10
235.4529890300215
 20
66.96110286381841
 30
0.0
 10
234.3773637673198
 20
66.56739143174646
 30
0.0
 10
232.9903759755125
 20
65.96123824868899
 30
0.0
 10
231.5943081790396
 20
65.21094311603176
 30
0.0
 10
230.2007285315124
 20
64.33406622789252
 30
0.0
 10
228.8181063811723
 20
63.33316952442944
 30
0.0
 10
227.4553909607647
 20
62.21596847066415
 30
0.0
 10
226.1217395033025
 20
60.98905823176795
 30
0.0
 10
224.8238611173424
 20
59.66252279500288
 30
0.0
 10
223.5768107925155
 20
58.23757997672973
 30
0.0
 10
222.6761783514013
 20
57.13437626147775
 30
0.0
 10
222.2140734160589
 20
56.48784574671485
 30
0.0
 10
222.128786397514
 20
56.36852077140042
 30
0.0
  0
LINE
  5
23A
330
1F
100
AcDbEntity
  8
0
  6
Continuous
 62
     7
370
    15
100
AcDbLine
 10
230.4659502374
 20
64.4792144821
 30
0.0
 11
199.7046671883
 21
75.5643614881
 31
0.0
  0
LINE
  5
23B
330
1F
100
AcDbEntity
  8
0
  6
Continuous
 62
     7
370
    15
100
AcDbLine
 10
189.5808078079
 20
58.0274230877
 30
0.0
 11
219.0483189264
 21
33.1453006494
 31
0.0
  0
SPLINE
  5
23C
330
1F
100
AcDbEntity
  8
0
  6
Continuous
 62
     7
370
    15
100
AcDbSpline
210
0.0
220
0.0
230
1.0
 70
     8
 71
     3
 72
    12
 73
     8
 74
     0
 42
0.000000001
 43
0.00000001
 40
0.0
 40
0.0
 40
0.0
 40
0.0
 40
0.1064626619633355
 40
0.3423005654855918
 40
0.5783410129803483
 40
0.8144797837974593
 40
1.0
 40
1.0
 40
1.0
 40
1.0
 10
232.6504826403207
 20
20.53786395341051
 30
0.0
 10
232.8532743012048
 20
20.58798065098459
 30
0.0
 10
233.5052935060252
 20
20.7491167113039
 30
0.0
 10
234.6328686188984
 20
21.17120421359952
 30
0.0
 10
236.0213415046721
 20
21.79916009014465
 30
0.0
 10
237.3185796705883
 20
22.50055274537966
 30
0.0
 10
238.1460746351718
 20
23.04582425801888
 30
0.0
 10
238.5101533088439
 20
23.28573113070034
 30
0.0
  0
LINE
  5
23D
330
1F
100
AcDbEntity
  8
0
  6
Continuous
 62
     7
370
    15
100
AcDbLine
 10
223.3708848924
 20
22.0808564507
 30
0.0
 11
224.8264068787
 21
21.2406014934
 31
0.0
  0
LINE
  5
23E
330
1F
100
AcDbEntity
  8
0
  6
Continuous
 62
     7
370
    15
100
AcDbLine
 10
219.6468499441
 20
24.2306960657
 30
0.0
 11
221.0846946201
 21
23.4006460024
 31
0.0
  0
LINE
  5
23F
330
1F
100
AcDbEntity
  8
0
  6
Continuous
 62
     7
370
    15
100
AcDbLine
 10
215.214967483
 20
30.2962768218
 30
0.0
 11
215.2593286875
 21
30.1504109963
 31
0.0
  0
LINE
  5
240
330
1F
100
AcDbEntity
  8
0
  6
Continuous
 62
     7
370
    15
100
AcDbLine
 10
253.6338845201
 20
57.3276744115
 30
0.0
 11
253.5822915091
 21
57.4935294531
 31
0.0
  0
SPLINE
  5
241
330
1F
100
AcDbEntity
  8
0
  6
Continuous
 62
     7
370
    15
100
AcDbSpline
210
0.0
220
0.0
230
1.0
 70
     8
 71
     3
 72
    26
 73
    22
 74
     0
 42
0.000000001
 43
0.00000001
 40
0.0
 40
0.0
 40
0.0
 40
0.0
 40
0.0206098635346963
 40
0.0728944510643923
 40
0.1258585040611578
 40
0.1800156137396773
 40
0.2354401611125397
 40
0.2918299514627566
 40
0.3487416667418533
 40
0.4057939356565405
 40
0.4627674603426434
 40
0.5196158025351038
 40
0.5763503990457023
 40
0.6330092550266897
 40
0.6896415235028057
 40
0.7462991724022513
 40
0.8030217144057956
 40
0.8598660589598679
 40
0.9168873020481363
 40
0.9741306256673679
 40
1.0
 40
1.0
 40
1.0
 40
1.0
 10
199.7560033668443
 20
75.52556190996253
 30
0.0
 10
199.659131238151
 20
75.56716373278196
 30
0.0
 10
199.3165069101128
 20
75.71430405870385
 30
0.0
 10
198.6644015090702
 20
75.81714863228109
 30
0.0
 10
197.8188583295934
 20
75.83557106041667
 30
0.0
 10
196.9319501687552
 20
75.70059684679273
 30
0.0
 10
196.0176800089365
 20
75.42326827530351
 30
0.0
 10
195.0877803455806
 20
75.00204034906002
 30
0.0
 10
194.158918955939
 20
74.44412357416378
 30
0.0
 10
193.2477350594187
 20
73.75985841395946
 30
0.0
 10
192.3694182688165
 20
72.96236707566061
 30
0.0
 10
191.5371772073092
 20
72.0656599510472
 30
0.0
 10
190.7627247893377
 20
71.08421741392681
 30
0.0
 10
190.0569053341847
 20
70.03313905048054
 30
0.0
 10
189.4297786368981
 20
68.92812729791295
 30
0.0
 10
188.8905530444026
 20
67.7854348538695
 30
0.0
 10
188.4476378607419
 20
66.6216752475181
 30
0.0
 10
188.1078240849821
 20
65.45313779568376
 30
0.0
 10
187.8792826432174
 20
64.2970218080512
 30
0.0
 10
187.7823630893543
 20
63.37396330220113
 30
0.0
 10
187.7742977511299
 20
62.84686428447012
 30
0.0
 10
187.7717873615169
 20
62.68280124553539
 30
0.0
  0
SPLINE
  5
242
330
1F
100
AcDbEntity
  8
0
  6
Continuous
 62
     7
370
    15
100
AcDbSpline
210
0.0
220
0.0
230
1.0
 70
     8
 71
     3
 72
    13
 73
     9
 74
     0
 42
0.000000001
 43
0.00000001
 40
0.0
 40
0.0
 40
0.0
 40
0.0
 40
0.1013708038922181
 40
0.2925452651573772
 40
0.4837075735181394
 40
0.673017314708729
 40
0.8585816591153959
 40
1.0
 40
1.0
 40
1.0
 40
1.0
 10
187.7717873615169
 20
62.68280124553539
 30
0.0
 10
187.7752432692756
 20
62.49203506790197
 30
0.0
 10
187.7852166483237
 20
61.94150434430063
 30
0.0
 10
187.8970678581877
 20
61.07761182769949
 30
0.0
 10
188.1486890102954
 20
60.12878330489062
 30
0.0
 10
188.5305663918824
 20
59.28342193981828
 30
0.0
 10
188.9824196337878
 20
58.59336401577074
 30
0.0
 10
189.35510088136
 20
58.25027968271062
 30
0.0
 10
189.5162836169643
 20
58.10189746142681
 30
0.0
  0
LINE
  5
243
330
1F
100
AcDbEntity
  8
0
  6
Continuous
 62
     7
370
    15
100
AcDbLine
 10
264.5865053709
 20
29.1661556825
 30
0.0
 11
266.8793252108
 21
29.6333003885
 31
0.0
  0
LINE
  5
244
330
1F
100
AcDbEntity
  8
0
  6
Continuous
 62
     7
370
    15
100
AcDbLine
 10
262.2861932702
 20
43.4640365632
 30
0.0
 11
261.9325820343
 21
43.6682385246
 31
0.0
  0
LINE
  5
245
330
1F
100
AcDbEntity
  8
0
  6
Continuous
 62
     7
370
    15
100
AcDbLine
 10
256.9820323409
 20
43.6682374042
 30
0.0
 11
256.6284207807
 21
43.464036206
 31
0.0
  0
LINE
  5
246
330
1F
100
AcDbEntity
  8
0
  6
Continuous
 62
     7
370
    15
100
AcDbLine
 10
255.4573083226
 20
41.8314848601
 30
0.0
 11
255.4573083226
 21
41.5252821955
 31
0.0
  0
LINE
  5
247
330
1F
100
AcDbEntity
  8
0
  6
Continuous
 62
     7
370
    15
100
AcDbLine
 10
263.4573076641
 20
41.5252825757
 30
0.0
 11
263.4573076641
 21
41.8314852402
 31
0.0
  0
LWPOLYLINE
  5
248
330
1F
100
AcDbEntity
  8
0
  6
Continuous
 62
     7
370
    15
100
AcDbPolyline
 90
       60
 70
   128
 43
0.0
 10
265.8389467189
 20
38.3107513159
 10
264.677711645
 20
37.5689147535
 10
263.5296339611
 20
36.6925447972
 10
262.4077214029
 20
35.6915696854
 10
261.3246863491
 20
34.5773327158
 10
260.2927994594
 20
33.3624568012
 10
259.323752533
 20
32.0607075041
 10
258.4285258117
 20
30.6868350634
 10
257.6172615396
 20
29.2564048224
 10
256.899152998
 20
27.7856251851
 10
256.2823351871
 20
26.2911597918
 10
255.7737978984
 20
24.7899419741
 10
255.3793027378
 20
23.2989812255
 10
255.1033192469
 20
21.8351702393
 10
254.9489748535
 20
20.4150949881
 10
254.9180186518
 20
19.0548456568
 10
255.010800329
 20
17.7698338488
 10
255.2262695065
 20
16.57461958
 10
255.56198496
 20
15.4827454979
 10
256.0141416192
 20
14.506582029
 10
256.5776179834
 20
13.6571898263
 10
257.2460281467
 20
12.944193527
 10
258.0118001642
 20
12.3756714785
 10
258.8662570535
 20
11.9580640948
 10
259.7997168932
 20
11.6961046448
 10
260.8016034586
 20
11.5927599263
 10
261.8605654179
 20
11.649201737
 10
262.9646037611
 20
11.864790703
 10
264.1012099289
 20
12.2370830147
 10
265.2575050958
 20
12.7618614028
 10
266.420388342
 20
13.4331796114
 10
267.5766835089
 20
14.2434312061
 10
268.7132896767
 20
15.1834364428
 10
269.8173280198
 20
16.2425430151
 10
270.8762899791
 20
17.4087526577
 10
271.8781765445
 20
18.6688509824
 10
272.8116363843
 20
20.0085602228
 10
273.6660932736
 20
21.412702532
 10
274.4318652911
 20
22.8653661324
 10
275.1002754543
 20
24.3500923794
 10
275.6637518186
 20
25.8500605444
 10
276.1159084778
 20
27.3482729799
 10
276.4516239312
 20
28.8277558741
 10
276.6670931088
 20
30.2717455599
 10
276.759874786
 20
31.6638808123
 10
276.7289185843
 20
32.9883888738
 10
276.5745741909
 20
34.2302618815
 10
276.2985906999
 20
35.3754291116
 10
275.9040955393
 20
36.4109154428
 10
275.3955582506
 20
37.3249886047
 10
274.7787404398
 20
38.1072913124
 10
274.0606318981
 20
38.7489604756
 10
273.249367626
 20
39.2427249255
 10
272.3541409048
 20
39.5829905948
 10
271.3850939784
 20
39.7659021258
 10
270.3532070886
 20
39.7893867971
 10
269.2701720348
 20
39.65317811
 10
268.1482594767
 20
39.358820554
 10
267.0001817928
 20
38.9096482315
 10
265.8389467189
 20
38.3107513159
  0
LWPOLYLINE
  5
249
330
1F
100
AcDbEntity
  8
0
  6
Continuous
 62
     7
370
    15
100
AcDbPolyline
 90
       31
 70
   128
 43
0.0
 10
265.6268137278
 20
38.6781756729
 10
264.4430304192
 20
37.9219352073
 10
263.2726598513
 20
37.0285475179
 10
262.1289628054
 20
36.0081363534
 10
261.0248977913
 20
34.872263146
 10
259.9729740264
 20
33.6337972712
 10
258.9851111663
 20
32.3067719532
 10
258.0725008457
 20
30.9062214437
 10
257.2454841889
 20
29.4480167738
 10
256.5134316259
 20
27.9486777401
 10
255.884636866
 20
26.4251938264
 10
255.366225361
 20
24.8948264915
 10
254.9640700107
 20
23.3749144987
 10
254.6827279431
 20
21.882680384
 10
254.5253865136
 20
20.4350307444
 10
254.4938290608
 20
19.0483687397
 10
254.5884125157
 20
17.7384052622
 10
254.8080654265
 20
16.5199829845
 10
255.1502991535
 20
15.4069071556
 10
255.6112361866
 20
14.4117890858
 10
256.1856529508
 20
13.545904078
 10
256.8670423678
 20
12.8190627141
 10
257.6476836617
 20
12.2395015318
 10
258.5187319214
 20
11.8137860568
 10
259.4703168816
 20
11.5467393105
 10
260.4916578396
 20
11.4413879962
 10
261.5711821926
 20
11.4989259859
 10
262.6966584644
 20
11.7187006194
 10
263.8553344343
 20
12.098222482
 10
265.0340819765
 20
12.6331897028
 10
265.6286237923
 20
12.9581846128
  0
LWPOLYLINE
  5
24A
330
1F
100
AcDbEntity
  8
0
  6
Continuous
 62
     7
370
    15
100
AcDbPolyline
 90
       16
 70
   128
 43
0.0
 10
276.7637457106
 20
32.2468716629
 10
276.728240942
 20
33.2524657791
 10
276.5708995125
 20
34.5184528711
 10
276.2895574449
 20
35.6858563488
 10
275.8874020946
 20
36.7414496574
 10
275.3689905895
 20
37.6732718089
 10
274.7401958297
 20
38.4707647461
 10
274.0081432666
 20
39.1248938812
 10
273.1811266099
 20
39.6282454439
 10
272.2685162893
 20
39.9751185054
 10
271.2806534292
 20
40.1615816427
 10
270.2287296643
 20
40.1855221904
 10
269.1246646501
 20
40.0466690658
 10
267.9809676043
 20
39.7465957285
 10
266.8105970364
 20
39.288702323
 10
265.6268137278
 20
38.6781756729
  0
SPLINE
  5
24B
330
1F
100
AcDbEntity
  8
0
  6
Continuous
 62
     7
370
    15
100
AcDbSpline
210
0.0
220
0.0
230
1.0
 70
    11
 71
     3
 72
    96
 73
    92
 74
     0
 42
0.000000001
 43
0.00000001
 40
0.0
 40
0.0
 40
0.0
 40
0.0
 40
0.03125
 40
0.03125
 40
0.0468750000000001
 40
0.0468750000000001
 40
0.0625000000000001
 40
0.0625000000000001
 40
0.0937499999999995
 40
0.0937499999999995
 40
0.1093749999999992
 40
0.1093749999999992
 40
0.1249999999999989
 40
0.1249999999999989
 40
0.1562499999999983
 40
0.1562499999999983
 40
0.171874999999998
 40
0.171874999999998
 40
0.1874999999999978
 40
0.1874999999999978
 40
0.2187499999999978
 40
0.2187499999999978
 40
0.2343749999999979
 40
0.2343749999999979
 40
0.2499999999999979
 40
0.2499999999999979
 40
0.2812499999999986
 40
0.2812499999999986
 40
0.2968749999999988
 40
0.2968749999999988
 40
0.3124999999999992
 40
0.3124999999999992
 40
0.3437499999999998
 40
0.3437499999999998
 40
0.3593750000000001
 40
0.3593750000000001
 40
0.3750000000000003
 40
0.3750000000000003
 40
0.3906250000000006
 40
0.3906250000000006
 40
0.4062500000000008
 40
0.4062500000000008
 40
0.4375000000000013
 40
0.4375000000000013
 40
0.4531250000000017
 40
0.4531250000000017
 40
0.4687500000000022
 40
0.4687500000000022
 40
0.5000000000000031
 40
0.5000000000000031
 40
0.531250000000004
 40
0.531250000000004
 40
0.5468750000000042
 40
0.5468750000000042
 40
0.5625000000000043
 40
0.5625000000000043
 40
0.5937500000000039
 40
0.5937500000000039
 40
0.6250000000000036
 40
0.6250000000000036
 40
0.6562500000000031
 40
0.6562500000000031
 40
0.6875000000000027
 40
0.6875000000000027
 40
0.7187500000000023
 40
0.7187500000000023
 40
0.7500000000000019
 40
0.7500000000000019
 40
0.7656250000000017
 40
0.7656250000000017
 40
0.7812500000000014
 40
0.7812500000000014
 40
0.8125000000000011
 40
0.8125000000000011
 40
0.828125000000001
 40
0.828125000000001
 40
0.8437500000000009
 40
0.8437500000000009
 40
0.8750000000000007
 40
0.8750000000000007
 40
0.8906250000000007
 40
0.8906250000000007
 40
0.9062500000000006
 40
0.9062500000000006
 40
0.9218750000000004
 40
0.9218750000000004
 40
0.9375000000000003
 40
0.9375000000000003
 40
0.9687500000000002
 40
0.9687500000000002
 40
1.0
 40
1.0
 40
1.0
 40
1.0
 10
259.4105498609181
 20
44.60063857311174
 30
0.0
 10
259.7094547898182
 20
44.54880093001777
 30
0.0
 10
260.0004312770632
 20
44.48252427607043
 30
0.0
 10
260.4264608141972
 20
44.36583861291807
 30
0.0
 10
260.5667144411312
 20
44.32402962325299
 30
0.0
 10
260.8437761781142
 20
44.23496210458646
 30
0.0
 10
260.9811687038817
 20
44.18748223758196
 30
0.0
 10
261.383660073283
 20
44.03882187393279
 30
0.0
 10
261.637538312947
 20
43.93224784583462
 30
0.0
 10
261.997745014351
 20
43.76291679642525
 30
0.0
 10
262.1143549182225
 20
43.70487385309673
 30
0.0
 10
262.3405598902215
 20
43.58564182469526
 30
0.0
 10
262.4505723540539
 20
43.5241845130096
 30
0.0
 10
262.7644127262574
 20
43.33817645499226
 30
0.0
 10
262.9535767994382
 20
43.21141952172776
 30
0.0
 10
263.2077064962779
 20
43.01664042940204
 30
0.0
 10
263.2874503927567
 20
42.95092648368115
 30
0.0
 10
263.4367060410048
 20
42.81766081497734
 30
0.0
 10
263.5064082535652
 20
42.74985585970839
 30
0.0
 10
263.6959289228178
 20
42.54697236698421
 30
0.0
 10
263.7976578491937
 20
42.41143711205722
 30
0.0
 10
263.9127211371607
 20
42.20544120814009
 30
0.0
 10
263.9447791811219
 20
42.13632002450692
 30
0.0
 10
263.9956269850199
 20
41.9966667034516
 30
0.0
 10
264.014383631561
 20
41.92589748708308
 30
0.0
 10
264.048662431846
 20
41.71535582451662
 30
0.0
 10
264.043137189038
 20
41.57594041252398
 30
0.0
 10
263.989678001055
 20
41.36544064938435
 30
0.0
 10
263.9642742717537
 20
41.29504545657394
 30
0.0
 10
263.8970290714106
 20
41.15330222835787
 30
0.0
 10
263.8551273590093
 20
41.08213280390081
 30
0.0
 10
263.7073041049628
 20
40.87268252236519
 30
0.0
 10
263.5786832860432
 20
40.73639732862465
 30
0.0
 10
263.3373740553346
 20
40.53563215878514
 30
0.0
 10
263.2479936505941
 20
40.46881522148662
 30
0.0
 10
263.0562847408096
 20
40.3394785340054
 30
0.0
 10
262.9541471748648
 20
40.27695466506896
 30
0.0
 10
262.7376061836904
 20
40.15606058135965
 30
0.0
 10
262.6232022555313
 20
40.09769058402469
 30
0.0
 10
262.3820262202811
 20
39.98520952882886
 30
0.0
 10
262.254385074196
 20
39.93079688105407
 30
0.0
 10
261.862163333229
 20
39.77815528111663
 30
0.0
 10
261.5867933093042
 20
39.68936538519662
 30
0.0
 10
261.1540896090069
 20
39.57607502996613
 30
0.0
 10
261.0068684917003
 20
39.54180285171094
 30
0.0
 10
260.7124369208868
 20
39.48155128441493
 30
0.0
 10
260.5644262670072
 20
39.45535395596754
 30
0.0
 10
260.1180353797823
 20
39.38857833985694
 30
0.0
 10
259.8146764295386
 20
39.3597532740746
 30
0.0
 10
259.2210225734881
 20
39.33691224135351
 30
0.0
 10
258.9292288311052
 20
39.34238890654346
 30
0.0
 10
258.4983802958213
 20
39.37722617095888
 30
0.0
 10
258.3556291398298
 20
39.39338985753744
 30
0.0
 10
258.0773613689442
 20
39.4343127925858
 30
0.0
 10
257.941220266251
 20
39.45910087583634
 30
0.0
 10
257.5414467307386
 20
39.54648883432542
 30
0.0
 10
257.2863886464899
 20
39.62203039905182
 30
0.0
 10
256.7993812773037
 20
39.80994288183417
 30
0.0
 10
256.5729813322347
 20
39.92031065609898
 30
0.0
 10
256.1566545382784
 20
40.17120507936526
 30
0.0
 10
255.96606071325
 20
40.31198622321286
 30
0.0
 10
255.621767465488
 20
40.62497056274651
 30
0.0
 10
255.4729955951739
 20
40.79269559923889
 30
0.0
 10
255.2213737069892
 20
41.14802955499782
 30
0.0
 10
255.1183435348865
 20
41.33592276321511
 30
0.0
 10
254.962486620345
 20
41.7297627431609
 30
0.0
 10
254.9118949605881
 20
41.92988145307819
 30
0.0
 10
254.8775820638394
 20
42.23261604192088
 30
0.0
 10
254.8731233025903
 20
42.33395705072185
 30
0.0
 10
254.878939521808
 20
42.5371414280702
 30
0.0
 10
254.8892948101146
 20
42.63943253634529
 30
0.0
 10
254.9439285278005
 20
42.94347273526227
 30
0.0
 10
255.0105191736092
 20
43.1383535962194
 30
0.0
 10
255.1575254063091
 20
43.41629298149884
 30
0.0
 10
255.2144399689746
 20
43.50653118490639
 30
0.0
 10
255.345250263987
 20
43.68155052917913
 30
0.0
 10
255.4196528226518
 20
43.76666440032601
 30
0.0
 10
255.6627504191528
 20
44.00529178942576
 30
0.0
 10
255.8526335376083
 20
44.14479822549635
 30
0.0
 10
256.1802270476355
 20
44.32346027290543
 30
0.0
 10
256.2973754460169
 20
44.37809951563841
 30
0.0
 10
256.5397566181905
 20
44.47406309148067
 30
0.0
 10
256.6655469740605
 20
44.51579266041659
 30
0.0
 10
256.9259885202021
 20
44.58739443763813
 30
0.0
 10
257.060640606443
 20
44.61726511264426
 30
0.0
 10
257.3387732870513
 20
44.66548008857723
 30
0.0
 10
257.4816497412133
 20
44.68364189556457
 30
0.0
 10
257.9131509884795
 20
44.72076516581981
 30
0.0
 10
258.207689096279
 20
44.72310057793224
 30
0.0
 10
258.8101115160712
 20
44.68882979930391
 30
0.0
 10
259.1116449320181
 20
44.65247621620571
 30
0.0
 10
259.4105498609181
 20
44.60063857311174
 30
0.0
  0
LINE
  5
24C
330
1F
100
AcDbEntity
  8
0
  6
Continuous
 62
     7
370
    15
100
AcDbLine
 10
246.153819897
 20
55.2452187048
 30
0.0
 11
246.0821544495
 21
55.2858440338
 31
0.0
  0
LINE
  5
24D
330
1F
100
AcDbEntity
  8
0
  6
Continuous
 62
     7
370
    15
100
AcDbLine
 10
260.8229880451
 20
18.2058808656
 30
0.0
 11
260.9857581863
 21
18.1048584397
 31
0.0
  0
LINE
  5
24E
330
1F
100
AcDbEntity
  8
0
  6
Continuous
 62
     7
370
    15
100
AcDbLine
 10
269.9850270373
 20
33.693738263
 30
0.0
 11
269.8255479723
 21
33.7794976998
 31
0.0
  0
SPLINE
  5
24F
330
1F
100
AcDbEntity
  8
0
  6
Continuous
 62
     7
370
    15
100
AcDbSpline
210
0.0
220
0.0
230
1.0
 70
     8
 71
     3
 72
    14
 73
    10
 74
     0
 42
0.000000001
 43
0.00000001
 40
0.0
 40
0.0
 40
0.0
 40
0.0
 40
0.1250240669816663
 40
0.3020311102759999
 40
0.4683979440009661
 40
0.627244417324521
 40
0.7910455116790501
 40
0.965792792955418
 40
1.0
 40
1.0
 40
1.0
 40
1.0
 10
267.3742793604172
 20
33.90296991835783
 30
0.0
 10
267.5606478595337
 20
33.67249847165695
 30
0.0
 10
268.0108738525568
 20
33.11572929421379
 30
0.0
 10
268.3821179945755
 20
32.14491349968972
 30
0.0
 10
268.4123542358454
 20
31.14866405038539
 30
0.0
 10
268.0646354629612
 20
30.31044802063145
 30
0.0
 10
267.4144293566487
 20
29.73538458155048
 30
0.0
 10
266.7790955594887
 20
29.44289492878727
 30
0.0
 10
266.4028030251156
 20
29.51230015664662
 30
0.0
 10
266.341201492954
 20
29.52366224328299
 30
0.0
  0
SPLINE
  5
250
330
1F
100
AcDbEntity
  8
0
  6
Continuous
 62
     7
370
    15
100
AcDbSpline
210
0.0
220
0.0
230
1.0
 70
     8
 71
     3
 72
    12
 73
     8
 74
     0
 42
0.000000001
 43
0.00000001
 40
0.0
 40
0.0
 40
0.0
 40
0.0
 40
0.2499999999999992
 40
0.2499999999999992
 40
0.4999999999999984
 40
0.4999999999999984
 40
1.0
 40
1.0
 40
1.0
 40
1.0
 10
220.4853791091104
 20
38.43722786119999
 30
0.0
 10
220.5193106014
 20
38.41763962764851
 30
0.0
 10
220.5577423104272
 20
38.39045243871211
 30
0.0
 10
220.6319191630922
 20
38.33122851117628
 30
0.0
 10
220.6671354433477
 20
38.29979583215951
 30
0.0
 10
220.7622343606056
 20
38.20780311535753
 30
0.0
 10
220.8107635173675
 20
38.15094644983289
 30
0.0
 10
220.8441051135225
 20
38.10271764383055
 30
0.0
  0
ARC
  5
251
330
1F
100
AcDbEntity
  8
0
  6
Continuous
 62
     7
370
    15
100
AcDbCircle
 10
244.5606718695
 20
53.7077467662
 30
0.0
 40
10.86942928536237
100
AcDbArc
 50
73.9805689162
 51
106.2233053919
  0
SPLINE
  5
252
330
1F
100
AcDbEntity
  8
0
  6
Continuous
 62
     7
370
    15
100
AcDbSpline
210
0.0
220
0.0
230
1.0
 70
     8
 71
     3
 72
    12
 73
     8
 74
     0
 42
0.000000001
 43
0.00000001
 40
0.0
 40
0.0
 40
0.0
 40
0.0
 40
0.5
 40
0.5
 40
0.75
 40
0.75
 40
1.0
 40
1.0
 40
1.0
 40
1.0
 10
247.772367932721
 20
63.72153358204186
 30
0.0
 10
247.772367932721
 20
63.79421657923466
 30
0.0
 10
247.7553511646507
 20
63.87779942597495
 30
0.0
 10
247.7009403387692
 20
63.99924360385064
 30
0.0
 10
247.6777951198474
 20
64.03895848153199
 30
0.0
 10
247.6235143079902
 20
64.10768825339777
 30
0.0
 10
247.5922783394327
 20
64.13659784930346
 30
0.0
 10
247.5602358983649
 20
64.15509555679705
 30
0.0
  0
LWPOLYLINE
  5
253
330
1F
100
AcDbEntity
  8
0
  6
Continuous
 62
     7
370
    15
100
AcDbPolyline
 90
       17
 70
   128
 43
0.0
 10
220.9242810805
 20
38.4666843436
 10
221.2982316281
 20
39.9586899949
 10
221.868457415
 20
41.8311318705
 10
222.5506278658
 20
43.7063906429
 10
223.3397643839
 20
45.5707883335
 10
224.2301152416
 20
47.4107314471
 10
225.2151858729
 20
49.2128007046
 10
226.287793533
 20
50.963855601
 10
227.4401153717
 20
52.6511252763
 10
228.6637483609
 20
54.2623062293
 10
229.9497692226
 20
55.7856478643
 10
231.2887996245
 20
57.2100418392
 10
232.6710746685
 20
58.5251011472
 10
234.0865143433
 20
59.7212348255
 10
235.5247959636
 20
60.7897201926
 10
236.9754310969
 20
61.7227655082
 10
237.4172905689
 20
61.978517801
  0
LWPOLYLINE
  5
254
330
1F
100
AcDbEntity
  8
0
  6
Continuous
 62
     7
370
    15
100
AcDbPolyline
 90
       12
 70
   128
 43
0.0
 10
230.4963400908
 20
59.2792223843
 10
231.9466971125
 20
60.5518256949
 10
233.424329072
 20
61.6929747321
 10
234.9180548304
 20
62.694033754
 10
236.4165713354
 20
63.5474282087
 10
237.9085390681
 20
64.2467016658
 10
239.3826682294
 20
64.7865594875
 10
240.8278036517
 20
65.1629193675
 10
242.2330102034
 20
65.3729317367
 10
243.5876546955
 20
65.4150072748
 10
244.8814858951
 20
65.2888296406
 10
246.1047138794
 20
64.9953510917
  0
LINE
  5
255
330
1F
100
AcDbEntity
  8
0
  6
Continuous
 62
     7
370
    15
100
AcDbLine
 10
247.5602358657
 20
64.1550961344
 30
0.0
 11
246.1047138794
 21
64.9953510917
 31
0.0
  0
LINE
  5
256
330
1F
100
AcDbEntity
  8
0
  6
Continuous
 62
     7
370
    15
100
AcDbLine
 10
219.0298569604
 20
39.2774830037
 30
0.0
 11
220.4853789466
 21
38.4372280463
 31
0.0
  0
ARC
  5
257
330
1F
100
AcDbEntity
  8
0
  6
Continuous
 62
     7
370
    15
100
AcDbCircle
 10
258.362580832
 20
30.0463821387
 30
0.0
 40
40.4014404488383
100
AcDbArc
 50
136.9528122493
 51
166.7921386576
  0
SPLINE
  5
258
330
1F
100
AcDbEntity
  8
0
  6
Continuous
 62
     7
370
    15
100
AcDbSpline
210
0.0
220
0.0
230
1.0
 70
     8
 71
     3
 72
    34
 73
    30
 74
     0
 42
0.000000001
 43
0.00000001
 40
0.0
 40
0.0
 40
0.0
 40
0.0
 40
0.0624999999999989
 40
0.0624999999999989
 40
0.1249999999999978
 40
0.1249999999999978
 40
0.1874999999999968
 40
0.1874999999999968
 40
0.2499999999999962
 40
0.2499999999999962
 40
0.3124999999999957
 40
0.3124999999999957
 40
0.3749999999999952
 40
0.3749999999999952
 40
0.499999999999995
 40
0.499999999999995
 40
0.6249999999999948
 40
0.6249999999999948
 40
0.6874999999999954
 40
0.6874999999999954
 40
0.749999999999996
 40
0.749999999999996
 40
0.8124999999999966
 40
0.8124999999999966
 40
0.8749999999999977
 40
0.8749999999999977
 40
0.9374999999999989
 40
0.9374999999999989
 40
1.0
 40
1.0
 40
1.0
 40
1.0
 10
228.8375407236426
 20
57.62442475223231
 30
0.0
 10
228.896666137286
 20
57.59484726837407
 30
0.0
 10
228.9594788327164
 20
57.57117124617854
 30
0.0
 10
229.0921878356411
 20
57.5350917357588
 30
0.0
 10
229.1627995320122
 20
57.52264384561956
 30
0.0
 10
229.3080475019895
 20
57.50993395189418
 30
0.0
 10
229.3820299317517
 20
57.50959177199684
 30
0.0
 10
229.5327119965766
 20
57.52059811681946
 30
0.0
 10
229.6101600163767
 20
57.53218478080494
 30
0.0
 10
229.7620926023517
 20
57.56635932354374
 30
0.0
 10
229.8370486829363
 20
57.58887172593374
 30
0.0
 10
229.984983749845
 20
57.6446837985318
 30
0.0
 10
230.0579124629353
 20
57.67812864473809
 30
0.0
 10
230.2645249889453
 20
57.79049090405741
 30
0.0
 10
230.3914501649946
 20
57.88452830507815
 30
0.0
 10
230.6005569176215
 20
58.09312962025404
 30
0.0
 10
230.6851053008194
 20
58.21005371439775
 30
0.0
 10
230.7700788575934
 20
58.38857896437041
 30
0.0
 10
230.7920385581913
 20
58.44979554329709
 30
0.0
 10
230.8211496549311
 20
58.57060152581094
 30
0.0
 10
230.8285041177109
 20
58.6302020522561
 30
0.0
 10
230.8288470527552
 20
58.74794334238935
 30
0.0
 10
230.8216070099199
 20
58.80639473052645
 30
0.0
 10
230.7929951593979
 20
58.91715735491791
 30
0.0
 10
230.7717118178385
 20
58.97006979964055
 30
0.0
 10
230.7148836512314
 20
59.07098800694979
 30
0.0
 10
230.6794261622575
 20
59.11850302158091
 30
0.0
 10
230.5970212093709
 20
59.20476299946432
 30
0.0
 10
230.5498163067951
 20
59.24400855188438
 30
0.0
 10
230.4963401609062
 20
59.27922167999801
 30
0.0
  0
LINE
  5
259
330
1F
100
AcDbEntity
  8
0
  6
Continuous
 62
     7
370
    15
100
AcDbLine
 10
253.4822671595
 20
56.8522300258
 30
0.0
 11
253.5865489994
 21
57.0328518506
 31
0.0
  0
LINE
  5
25A
330
1F
100
AcDbEntity
  8
0
  6
Continuous
 62
     7
370
    15
100
AcDbLine
 10
251.1841588779
 20
55.5255603538
 30
0.0
 11
253.4822671595
 21
56.8522300258
 31
0.0
  0
ARC
  5
25B
330
1F
100
AcDbEntity
  8
0
  6
Continuous
 62
     7
370
    15
100
AcDbCircle
 10
252.0122619755
 20
54.2309580709
 30
0.0
 40
1.53679855912832
100
AcDbArc
 50
122.6053519586
 51
177.394632491
  0
LINE
  5
25C
330
1F
100
AcDbEntity
  8
0
  6
Continuous
 62
     7
370
    15
100
AcDbLine
 10
250.4770519808
 20
52.7494704169
 30
0.0
 11
250.4770519808
 21
54.3008156655
 31
0.0
  0
LINE
  5
25D
330
1F
100
AcDbEntity
  8
0
  6
Continuous
 62
     7
370
    15
100
AcDbLine
 10
220.8896126634
 20
27.5443419816
 30
0.0
 11
220.8441046037
 21
27.4259733586
 31
0.0
  0
LINE
  5
25E
330
1F
100
AcDbEntity
  8
0
  6
Continuous
 62
     7
370
    15
100
AcDbLine
 10
220.8896126634
 20
27.5443419816
 30
0.0
 11
224.0312571907
 21
29.357974763
 31
0.0
  0
ARC
  5
25F
330
1F
100
AcDbEntity
  8
0
  6
Continuous
 62
     7
370
    15
100
AcDbCircle
 10
223.2031540931
 20
30.6525770459
 30
0.0
 40
1.536798559128147
100
AcDbArc
 50
302.6053519586
 51
357.394632491
  0
LINE
  5
260
330
1F
100
AcDbEntity
  8
0
  6
Continuous
 62
     7
370
    15
100
AcDbLine
 10
224.7383640878
 20
39.4421874196
 30
0.0
 11
224.7383640878
 21
30.5827194513
 31
0.0
  0
ARC
  5
261
330
1F
100
AcDbEntity
  8
0
  6
Continuous
 62
     7
370
    15
100
AcDbCircle
 10
224.3072906047
 20
39.5121159667
 30
0.0
 40
0.4367085406723013
100
AcDbArc
 50
350.7857695821
 51
129.2035248725
  0
LINE
  5
262
330
1F
100
AcDbEntity
  8
0
  6
Continuous
 62
     7
370
    15
100
AcDbLine
 10
224.0312571907
 20
39.8505238623
 30
0.0
 11
220.8896126634
 21
38.036891081
 31
0.0
  0
LINE
  5
263
330
1F
100
AcDbEntity
  8
0
  6
Continuous
 62
     7
370
    15
100
AcDbLine
 10
220.8441046037
 20
38.1027172167
 30
0.0
 11
220.8896126634
 21
38.036891081
 31
0.0
  0
LINE
  5
264
330
1F
100
AcDbEntity
  8
0
  6
Continuous
 62
     7
370
    15
100
AcDbLine
 10
247.7723681982
 20
60.4965727965
 30
0.0
 11
247.7723681982
 21
63.7215339395
 31
0.0
  0
LINE
  5
265
330
1F
100
AcDbEntity
  8
0
  6
Continuous
 62
     7
370
    15
100
AcDbLine
 10
250.5651151866
 20
62.1087913158
 30
0.0
 11
247.7723681982
 21
60.4965727965
 31
0.0
  0
SPLINE
  5
266
330
1F
100
AcDbEntity
  8
0
  6
Continuous
 62
     7
370
    15
100
AcDbSpline
210
0.0
220
0.0
230
1.0
 70
     8
 71
     3
 72
     8
 73
     4
 74
     0
 42
0.000000001
 43
0.00000001
 40
0.0
 40
0.0
 40
0.0
 40
0.0
 40
1.0
 40
1.0
 40
1.0
 40
1.0
 10
217.9573026368819
 20
40.36899678873147
 30
0.0
 10
217.6702355072096
 20
40.32154478900812
 30
0.0
 10
217.3831223886241
 20
40.27418735630533
 30
0.0
 10
217.0959675622265
 20
40.22691568739326
 30
0.0
  0
SPLINE
  5
267
330
1F
100
AcDbEntity
  8
0
  6
Continuous
 62
     7
370
    15
100
AcDbSpline
210
0.0
220
0.0
230
1.0
 70
     8
 71
     3
 72
     8
 73
     4
 74
     0
 42
0.000000001
 43
0.00000001
 40
0.0
 40
0.0
 40
0.0
 40
0.0
 40
0.0011862984959113
 40
0.0011862984959113
 40
0.0011862984959113
 40
0.0011862984959113
 10
216.7436664749511
 20
40.59727258705544
 30
0.0
 10
216.8613773427956
 20
40.47372263594298
 30
0.0
 10
216.9788170932316
 20
40.3502675868277
 30
0.0
 10
217.0959675622265
 20
40.22691568739326
 30
0.0
  0
LWPOLYLINE
  5
268
330
1F
100
AcDbEntity
  8
0
  6
Continuous
 62
     7
370
    15
100
AcDbPolyline
 90
       23
 70
   128
 43
0.0
 10
216.7436666881
 20
40.5972725554
 10
217.2384680554
 20
42.5436867907
 10
217.8581913647
 20
44.5053483723
 10
218.5980081675
 20
46.4669659853
 10
219.452150931
 20
48.4132503039
 10
220.4139604533
 20
50.3290291974
 10
221.4759411807
 20
52.1993709198
 10
222.6298152087
 20
54.0096943719
 10
223.8665881364
 20
55.7458915297
 10
225.1766188724
 20
57.3944270583
 10
226.5496966839
 20
58.9424512337
 10
227.975118247
 20
60.3778976547
 10
229.4417729282
 20
61.6895765823
 10
230.9382288886
 20
62.867265711
 10
232.4528209178
 20
63.9017836888
 10
233.9737434531
 20
64.7850666291
 10
235.4891410469
 20
65.5102294629
 10
236.9872017156
 20
66.0716213481
 10
238.4562482305
 20
66.4648646827
 10
239.8848298194
 20
66.6868943547
 10
241.2618101657
 20
66.7359796451
 10
242.5764572986
 20
66.6117396182
 10
243.8185236071
 20
66.3151406434
  0
LINE
  5
269
330
1F
100
AcDbEntity
  8
0
  6
Continuous
 62
     7
370
    15
100
AcDbLine
 10
244.1289677444
 20
65.3383105124
 30
0.0
 11
243.8185236071
 21
66.3151406434
 31
0.0
  0
LWPOLYLINE
  5
26A
330
1F
100
AcDbEntity
  8
0
  6
Continuous
 62
     7
370
    15
100
AcDbPolyline
 90
       22
 70
   128
 43
0.0
 10
217.9573026424
 20
40.368996763
 10
218.4318116192
 20
42.2659253996
 10
219.0312557089
 20
44.1788888405
 10
219.7507392915
 20
46.0922676375
 10
220.5843868329
 20
47.9904371107
 10
221.5253929341
 20
49.8579004256
 10
222.5660736979
 20
51.6794087407
 10
223.697931266
 20
53.4400897202
 10
224.9117242831
 20
55.1255665396
 10
226.1975423131
 20
56.7220768912
 10
227.5448868394
 20
58.2165866657
 10
228.9427552296
 20
59.5968916562
 10
230.3797349075
 20
60.8517205922
 10
231.8440925854
 20
61.9708292382
 10
233.3238712766
 20
62.9450807329
 10
234.8069887061
 20
63.7665176091
 10
236.2813348579
 20
64.4284348377
 10
237.7348716617
 20
64.925428249
 10
239.1557308285
 20
65.2534373245
 10
240.532311109
 20
65.4097861333
 10
241.8533718069
 20
65.3931962514
 10
242.148333892
 20
65.3648900011
  0
LINE
  5
26B
330
1F
100
AcDbEntity
  8
0
  6
Continuous
 62
     7
370
    15
100
AcDbLine
 10
215.305822012
 20
41.4273226187
 30
0.0
 11
216.7436666881
 21
40.5972725554
 31
0.0
  0
ARC
  5
26C
330
1F
100
AcDbEntity
  8
0
  6
Continuous
 62
     7
370
    15
100
AcDbCircle
 10
239.3811200669
 20
56.6978804103
 30
0.0
 40
10.86939031458805
100
AcDbArc
 50
73.9805380809
 51
106.2228094608
  0
LINE
  5
26D
330
1F
100
AcDbEntity
  8
0
  6
Continuous
 62
     7
370
    15
100
AcDbLine
 10
243.8185236071
 20
66.3151406434
 30
0.0
 11
242.3806789311
 21
67.1451907068
 31
0.0
  0
LINE
  5
26E
330
1F
100
AcDbEntity
  8
0
  6
Continuous
 62
     7
370
    15
100
AcDbLine
 10
219.20989348
 20
40.0426547615
 30
0.0
 11
218.5837898623
 21
40.4040966865
 31
0.0
  0
SPLINE
  5
26F
330
1F
100
AcDbEntity
  8
0
  6
Continuous
 62
     7
370
    15
100
AcDbSpline
210
0.0
220
0.0
230
1.0
 70
     8
 71
     3
 72
    11
 73
     7
 74
     0
 42
0.000000001
 43
0.00000001
 40
0.0
 40
0.0
 40
0.0
 40
0.0
 40
0.3165694752064712
 40
0.6331520400060429
 40
0.9494411625907934
 40
1.0
 40
1.0
 40
1.0
 40
1.0
 10
229.8043161678199
 20
58.38674343448519
 30
0.0
 10
229.6707259876162
 20
58.33956477156512
 30
0.0
 10
229.4035401034888
 20
58.24520549496996
 30
0.0
 10
229.0875899042902
 20
57.98538979577677
 30
0.0
 10
228.9068872133335
 20
57.76219841030429
 30
0.0
 10
228.8719522497834
 20
57.63344923280648
 30
0.0
 10
228.8671375272426
 20
57.61570507325933
 30
0.0
  0
SPLINE
  5
270
330
1F
100
AcDbEntity
  8
0
  6
Continuous
 62
     7
370
    15
100
AcDbSpline
210
0.0
220
0.0
230
1.0
 70
     8
 71
     3
 72
    14
 73
    10
 74
     0
 42
0.000000001
 43
0.00000001
 40
0.0
 40
0.0
 40
0.0
 40
0.0
 40
0.25
 40
0.25
 40
0.5
 40
0.5
 40
0.75
 40
0.75
 40
1.0
 40
1.0
 40
1.0
 40
1.0
 10
218.5837897496156
 20
40.40409685596352
 30
0.0
 10
218.5461557561576
 20
40.42582249794356
 30
0.0
 10
218.5003817994684
 20
40.44303425905506
 30
0.0
 10
218.4004459219585
 20
40.46543959268756
 30
0.0
 10
218.3460120531186
 20
40.47061447628738
 30
0.0
 10
218.2397964026266
 20
40.46867228197262
 30
0.0
 10
218.1864801026765
 20
40.46158387905439
 30
0.0
 10
218.0889870353759
 20
40.4368504427697
 30
0.0
 10
218.0440753448462
 20
40.41908960678366
 30
0.0
 10
218.0063220792462
 20
40.39729511046167
 30
0.0
  0
LINE
  5
271
330
1F
100
AcDbEntity
  8
0
  6
Continuous
 62
     7
370
    15
100
AcDbLine
 10
218.0063220614
 20
40.3972950713
 30
0.0
 11
217.9573026424
 21
40.368996763
 31
0.0
  0
SPLINE
  5
272
330
1F
100
AcDbEntity
  8
0
  6
Continuous
 62
     7
370
    15
100
AcDbSpline
210
0.0
220
0.0
230
1.0
 70
     8
 71
     3
 72
    10
 73
     6
 74
     0
 42
0.000000001
 43
0.00000001
 40
0.0
 40
0.0
 40
0.0
 40
0.0
 40
0.5
 40
0.5
 40
1.0
 40
1.0
 40
1.0
 40
1.0
 10
215.2038094465961
 20
41.45677079764016
 30
0.0
 10
215.2111257310183
 20
41.46113879753334
 30
0.0
 10
215.2229495912267
 20
41.46167085012161
 30
0.0
 10
215.2571009555045
 20
41.45244080048329
 30
0.0
 10
215.2793579188973
 20
41.44259992316699
 30
0.0
 10
215.305821936919
 20
41.42732257075068
 30
0.0
  0
ARC
  5
273
330
1F
100
AcDbEntity
  8
0
  6
Continuous
 62
     7
370
    15
100
AcDbCircle
 10
255.0241832597
 20
31.9481480802
 30
0.0
 40
40.92045494687078
100
AcDbArc
 50
143.5835897407
 51
160.8037648338
  0
SPLINE
  5
274
330
1F
100
AcDbEntity
  8
0
  6
Continuous
 62
     7
370
    15
100
AcDbSpline
210
0.0
220
0.0
230
1.0
 70
     8
 71
     3
 72
    14
 73
    10
 74
     0
 42
0.000000001
 43
0.00000001
 40
0.0
 40
0.0
 40
0.0
 40
0.0
 40
0.25
 40
0.25
 40
0.5
 40
0.5
 40
0.75
 40
0.75
 40
1.0
 40
1.0
 40
1.0
 40
1.0
 10
230.2213950228455
 20
58.69319524362343
 30
0.0
 10
230.2362359149747
 20
58.65467722478784
 30
0.0
 10
230.2356021470708
 20
58.61675858663437
 30
0.0
 10
230.2026665421103
 20
58.55081763686509
 30
0.0
 10
230.1705306967684
 20
58.52254407932314
 30
0.0
 10
230.0856281213639
 20
58.47462505313564
 30
0.0
 10
230.0332112088708
 20
58.45474795568789
 30
0.0
 10
229.9218755445757
 20
58.41889102967151
 30
0.0
 10
229.8637208678647
 20
58.40301900598809
 30
0.0
 10
229.8043159121333
 20
58.38674366043335
 30
0.0
  0
LINE
  5
275
330
1F
100
AcDbEntity
  8
0
  6
Continuous
 62
     7
370
    15
100
AcDbLine
 10
230.2052680281
 20
58.7350510862
 30
0.0
 11
230.2213951245
 21
58.6931955966
 31
0.0
  0
SPLINE
  5
276
330
1F
100
AcDbEntity
  8
0
  6
Continuous
 62
     7
370
    15
100
AcDbSpline
210
0.0
220
0.0
230
1.0
 70
     8
 71
     3
 72
    10
 73
     6
 74
     0
 42
0.000000001
 43
0.00000001
 40
0.0
 40
0.0
 40
0.0
 40
0.0
 40
0.5
 40
0.5
 40
1.0
 40
1.0
 40
1.0
 40
1.0
 10
230.4963401609062
 20
59.27922167999802
 30
0.0
 10
230.4683251111684
 20
59.20719557730999
 30
0.0
 10
230.4305072227185
 20
59.12624909200653
 30
0.0
 10
230.3345314748836
 20
58.94585405566662
 30
0.0
 10
230.276499697584
 20
58.84652784869182
 30
0.0
 10
230.2052679599939
 20
58.73505138712775
 30
0.0
  0
LINE
  5
277
330
1F
100
AcDbEntity
  8
0
  6
Continuous
 62
     7
370
    15
100
AcDbLine
 10
220.8896126634
 20
38.036891081
 30
0.0
 11
219.0617585027
 21
39.0920888275
 31
0.0
  0
SPLINE
  5
278
330
1F
100
AcDbEntity
  8
0
  6
Continuous
 62
     7
370
    15
100
AcDbSpline
210
0.0
220
0.0
230
1.0
 70
     8
 71
     3
 72
     8
 73
     4
 74
     0
 42
0.000000001
 43
0.00000001
 40
0.0000000000000004
 40
0.0000000000000004
 40
0.0000000000000004
 40
0.0000000000000004
 40
0.0011862984959128
 40
0.0011862984959128
 40
0.0011862984959128
 40
0.0011862984959128
 10
219.0617582351975
 20
39.09208888735472
 30
0.0
 10
219.0506960359399
 20
39.1541973322735
 30
0.0
 10
219.0400700293661
 20
39.21599011957512
 30
0.0
 10
219.0298569015487
 20
39.27748294629301
 30
0.0
  0
LINE
  5
279
330
1F
100
AcDbEntity
  8
0
  6
Continuous
 62
     7
370
    15
100
AcDbLine
 10
219.134542735
 20
39.8772637227
 30
0.0
 11
219.1146494225
 21
39.6479179662
 31
0.0
  0
ARC
  5
27A
330
1F
100
AcDbEntity
  8
0
  6
Continuous
 62
     7
370
    15
100
AcDbCircle
 10
235.1247787655
 20
38.2210890628
 30
0.0
 40
16.0704255309916
100
AcDbArc
 50
176.8764611198
 51
185.7261596353
  0
LINE
  5
27B
330
1F
100
AcDbEntity
  8
0
  6
Continuous
 62
     7
370
    15
100
AcDbLine
 10
218.1357553624
 20
38.9771359118
 30
0.0
 11
218.1975281544
 21
40.4372820801
 31
0.0
  0
ARC
  5
27C
330
1F
100
AcDbEntity
  8
0
  6
Continuous
 62
     7
370
    15
100
AcDbCircle
 10
229.9707430842
 20
38.7022765288
 30
0.0
 40
11.83817900076394
100
AcDbArc
 50
178.6695844123
 51
203.7430473282
  0
LINE
  5
27D
330
1F
100
AcDbEntity
  8
0
  6
Continuous
 62
     7
370
    15
100
AcDbLine
 10
199.7046671883
 20
75.5643614881
 30
0.0
 11
199.7543658959
 21
75.5460256766
 31
0.0
  0
LINE
  5
27E
330
1F
100
AcDbEntity
  8
0
  6
Continuous
 62
     7
370
    15
100
AcDbLine
 10
189.5808078079
 20
58.0274230877
 30
0.0
 11
189.5191904324
 21
58.0806886485
 31
0.0
  0
LINE
  5
27F
330
1F
100
AcDbEntity
  8
0
  6
Continuous
 62
     7
370
    15
100
AcDbLine
 10
215.6393446769
 20
41.0678062748
 30
0.0
 11
215.2038088579
 21
41.4567704444
 31
0.0
  0
LINE
  5
280
330
1F
100
AcDbEntity
  8
0
  6
Continuous
 62
     7
370
    15
100
AcDbLine
 10
217.0959679142
 20
40.2269155787
 30
0.0
 11
215.6393446769
 21
41.0678062748
 31
0.0
  0
LINE
  5
281
330
1F
100
AcDbEntity
  8
0
  6
Continuous
 62
     7
370
    15
100
AcDbLine
 10
219.134542735
 20
39.8772637227
 30
0.0
 11
219.134542735
 21
39.7321138855
 31
0.0
  0
LINE
  5
282
330
1F
100
AcDbEntity
  8
0
  6
Continuous
 62
     7
370
    15
100
AcDbLine
 10
219.134542735
 20
39.0500706881
 30
0.0
 11
219.134542735
 21
36.6176775635
 31
0.0
  0
LINE
  5
283
330
1F
100
AcDbEntity
  8
0
  6
Continuous
 62
     7
370
    15
100
AcDbLine
 10
219.134542735
 20
40.0861533731
 30
0.0
 11
219.134542735
 21
39.8772637227
 31
0.0
  0
LINE
  5
284
330
1F
100
AcDbEntity
  8
0
  6
Continuous
 62
     7
370
    15
100
AcDbLine
 10
219.134542735
 20
36.6176775635
 30
0.0
 11
219.134542735
 21
33.7476885209
 31
0.0
  0
LINE
  5
285
330
1F
100
AcDbEntity
  8
0
  6
Continuous
 62
     7
370
    15
100
AcDbLine
 10
219.0617585027
 20
28.5995397281
 30
0.0
 11
220.8896126634
 21
27.5443419816
 31
0.0
  0
SPLINE
  5
286
330
1F
100
AcDbEntity
  8
0
  6
Continuous
 62
     7
370
    15
100
AcDbSpline
210
0.0
220
0.0
230
1.0
 70
     8
 71
     3
 72
    14
 73
    10
 74
     0
 42
0.000000001
 43
0.00000001
 40
0.0
 40
0.0
 40
0.0
 40
0.0
 40
0.25
 40
0.25
 40
0.5
 40
0.5
 40
0.75
 40
0.75
 40
1.0
 40
1.0
 40
1.0
 40
1.0
 10
220.8441051135225
 20
27.42597371229405
 30
0.0
 10
220.8274302704561
 20
27.38260109418746
 30
0.0
 10
220.8071350275402
 20
27.34237076474162
 30
0.0
 10
220.7588380484698
 20
27.26859887706949
 30
0.0
 10
220.7306192006647
 20
27.23502927039237
 30
0.0
 10
220.6676938522415
 20
27.18147786472975
 30
0.0
 10
220.6325306762245
 20
27.16102183537009
 30
0.0
 10
220.5578476870161
 20
27.14358954185822
 30
0.0
 10
220.5193228118077
 20
27.14753685084311
 30
0.0
 10
220.4853791091104
 20
27.16713213331293
 30
0.0
  0
LINE
  5
287
330
1F
100
AcDbEntity
  8
0
  6
Continuous
 62
     7
370
    15
100
AcDbLine
 10
220.4853789466
 20
27.1671322569
 30
0.0
 11
219.0298569604
 21
28.0073872143
 31
0.0
  0
SPLINE
  5
288
330
1F
100
AcDbEntity
  8
0
  6
Continuous
 62
     7
370
    15
100
AcDbSpline
210
0.0
220
0.0
230
1.0
 70
     8
 71
     3
 72
     8
 73
     4
 74
     0
 42
0.000000001
 43
0.00000001
 40
0.0
 40
0.0
 40
0.0
 40
0.0
 40
0.0011862984959113
 40
0.0011862984959113
 40
0.0011862984959113
 40
0.0011862984959113
 10
219.0298569015487
 20
28.00738721840596
 30
0.0
 10
219.040070029366
 20
28.2047861202949
 30
0.0
 10
219.0506960359412
 20
28.40217195727169
 30
0.0
 10
219.0617582351989
 20
28.59953945462203
 30
0.0
  0
LWPOLYLINE
  5
289
330
1F
100
AcDbEntity
  8
0
  6
Continuous
 62
     7
370
    15
100
AcDbPolyline
 90
       13
 70
   128
 43
0.0
 10
232.5124566505
 20
20.5411762986
 10
231.2464578468
 20
20.2664670343
 10
229.8779957737
 20
20.1145948791
 10
228.5618530862
 20
20.1258382455
 10
227.3076899736
 20
20.3001175191
 10
226.124710254
 20
20.6361512168
 10
225.0215968367
 20
21.1314750043
 10
224.0064452092
 20
21.7824519686
 10
223.0867074614
 20
22.5843064641
 10
222.2691310402
 20
23.5311503538
 10
221.5597192373
 20
24.6160370065
 10
220.9636771886
 20
25.8310038872
 10
220.511957803
 20
27.0795852749
  0
SPLINE
  5
28A
330
1F
100
AcDbEntity
  8
0
  6
Continuous
 62
     7
370
    15
100
AcDbSpline
210
0.0
220
0.0
230
1.0
 70
     8
 71
     3
 72
     8
 73
     4
 74
     0
 42
0.000000001
 43
0.00000001
 40
0.0
 40
0.0
 40
0.0
 40
0.0
 40
1.0
 40
1.0
 40
1.0
 40
1.0
 10
219.3078765889482
 20
29.09677760920889
 30
0.0
 10
219.2256784081626
 20
28.93105728270542
 30
0.0
 10
219.1436440400107
 20
28.76531040736745
 30
0.0
 10
219.0617582351989
 20
28.59953945462204
 30
0.0
  0
LINE
  5
28B
330
1F
100
AcDbEntity
  8
0
  6
Continuous
 62
     7
370
    15
100
AcDbLine
 10
219.3568960899
 20
29.125076181
 30
0.0
 11
219.3078766709
 21
29.0967778727
 31
0.0
  0
SPLINE
  5
28C
330
1F
100
AcDbEntity
  8
0
  6
Continuous
 62
     7
370
    15
100
AcDbSpline
210
0.0
220
0.0
230
1.0
 70
     8
 71
     3
 72
    12
 73
     8
 74
     0
 42
0.000000001
 43
0.00000001
 40
0.0
 40
0.0
 40
0.0
 40
0.0
 40
0.249999999999997
 40
0.249999999999997
 40
0.499999999999994
 40
0.499999999999994
 40
1.0
 40
1.0
 40
1.0
 40
1.0
 10
219.3686782767327
 20
29.45844092117002
 30
0.0
 10
219.4062770613073
 20
29.43673560484573
 30
0.0
 10
219.4364546205537
 20
29.40993373427256
 30
0.0
 10
219.4750443552347
 20
29.35231002944257
 30
0.0
 10
219.4839038404245
 20
29.32126190387119
 30
0.0
 10
219.4788564065861
 20
29.22907292746589
 30
0.0
 10
219.4321541195109
 20
29.16852150049104
 30
0.0
 10
219.3568960313125
 20
29.12507593093909
 30
0.0
  0
LINE
  5
28D
330
1F
100
AcDbEntity
  8
0
  6
Continuous
 62
     7
370
    15
100
AcDbLine
 10
218.5837898623
 20
29.9115475872
 30
0.0
 11
219.368678439
 21
29.4584410565
 31
0.0
  0
SPLINE
  5
28E
330
1F
100
AcDbEntity
  8
0
  6
Continuous
 62
     7
370
    15
100
AcDbSpline
210
0.0
220
0.0
230
1.0
 70
     8
 71
     3
 72
    10
 73
     6
 74
     0
 42
0.000000001
 43
0.00000001
 40
0.0
 40
0.0
 40
0.0
 40
0.0
 40
0.5
 40
0.5
 40
1.0
 40
1.0
 40
1.0
 40
1.0
 10
218.0063220792462
 20
29.90474567772978
 30
0.0
 10
218.0824594695848
 20
29.94869885760249
 30
0.0
 10
218.1859672502692
 20
29.97518552378128
 30
0.0
 10
218.4004625423549
 20
29.97901359416861
 30
0.0
 10
218.5078927867732
 20
29.95536180726521
 30
0.0
 10
218.5837897496156
 20
29.91154742323163
 30
0.0
  0
LINE
  5
28F
330
1F
100
AcDbEntity
  8
0
  6
Continuous
 62
     7
370
    15
100
AcDbLine
 10
217.9573026424
 20
29.8764476637
 30
0.0
 11
218.0063220614
 21
29.9047459719
 31
0.0
  0
SPLINE
  5
290
330
1F
100
AcDbEntity
  8
0
  6
Continuous
 62
     7
370
    15
100
AcDbSpline
210
0.0
220
0.0
230
1.0
 70
     8
 71
     3
 72
     8
 73
     4
 74
     0
 42
0.000000001
 43
0.00000001
 40
0.0
 40
0.0
 40
0.0
 40
0.0
 40
1.0
 40
1.0
 40
1.0
 40
1.0
 10
217.0959675622274
 20
29.73436625466152
 30
0.0
 10
217.3831223886247
 20
29.78163792357354
 30
0.0
 10
217.67023550721
 20
29.82899535627628
 30
0.0
 10
217.9573026368819
 20
29.87644735599958
 30
0.0
  0
LINE
  5
291
330
1F
100
AcDbEntity
  8
0
  6
Continuous
 62
     7
370
    15
100
AcDbLine
 10
215.6393446769
 20
30.5752571754
 30
0.0
 11
217.0959679142
 21
29.7343664794
 31
0.0
  0
LINE
  5
292
330
1F
100
AcDbEntity
  8
0
  6
Continuous
 62
     7
370
    15
100
AcDbLine
 10
215.6393446769
 20
30.5752571754
 30
0.0
 11
218.7809892042
 21
32.3888899567
 31
0.0
  0
ARC
  5
293
330
1F
100
AcDbEntity
  8
0
  6
Continuous
 62
     7
370
    15
100
AcDbCircle
 10
228.5702791961
 20
30.4423858307
 30
0.0
 40
9.846261965767123
100
AcDbArc
 50
194.3179057184
 51
238.1256858466
  0
ELLIPSE
  5
294
330
1F
100
AcDbEntity
  8
0
  6
Continuous
 62
     7
370
    15
100
AcDbEllipse
 10
218.4880966853
 20
33.374514601
 30
0.0
 11
-7.507462979106094E-5
 21
1.066811201853398
 31
0.0
210
0.0
220
0.0
230
1.0
 40
0.7174342186
 41
3.534193645557512
 42
5.104989972352378
  0
ARC
  5
295
330
1F
100
AcDbEntity
  8
0
  6
Continuous
 62
     7
370
    15
100
AcDbCircle
 10
228.6328108505
 20
32.8439044878
 30
0.0
 40
11.08026513689243
100
AcDbArc
 50
195.5342643695
 51
215.7345697398
  0
ARC
  5
296
330
1F
100
AcDbEntity
  8
0
  6
Continuous
 62
     7
370
    15
100
AcDbCircle
 10
226.0548492751
 20
31.6600887391
 30
0.0
 40
9.598989501195666
100
AcDbArc
 50
194.065870688
 51
246.8527503441
  0
SPLINE
  5
297
330
1F
100
AcDbEntity
  8
0
  6
Continuous
 62
     7
370
    15
100
AcDbSpline
210
0.0
220
0.0
230
1.0
 70
     8
 71
     3
 72
     8
 73
     4
 74
     0
 42
0.000000001
 43
0.00000001
 40
0.0000000000000004
 40
0.0000000000000004
 40
0.0000000000000004
 40
0.0000000000000004
 40
0.0011862984959128
 40
0.0011862984959128
 40
0.0011862984959128
 40
0.0011862984959128
 10
217.0959675622279
 20
29.73436625466056
 30
0.0
 10
216.9788170932328
 20
29.59824221182579
 30
0.0
 10
216.8613773427957
 20
29.46251863666285
 30
0.0
 10
216.7436664749511
 20
29.32717685916838
 30
0.0
  0
LINE
  5
298
330
1F
100
AcDbEntity
  8
0
  6
Continuous
 62
     7
370
    15
100
AcDbLine
 10
215.2038088579
 20
30.3237754678
 30
0.0
 11
215.6393446769
 21
30.5752571754
 31
0.0
  0
LINE
  5
299
330
1F
100
AcDbEntity
  8
0
  6
Continuous
 62
     7
370
    15
100
AcDbLine
 10
216.7436666881
 20
29.327176766
 30
0.0
 11
215.305822012
 21
30.1572268293
 31
0.0
  0
SPLINE
  5
29A
330
1F
100
AcDbEntity
  8
0
  6
Continuous
 62
     7
370
    15
100
AcDbSpline
210
0.0
220
0.0
230
1.0
 70
     8
 71
     3
 72
    10
 73
     6
 74
     0
 42
0.000000001
 43
0.00000001
 40
0.0
 40
0.0
 40
0.0
 40
0.0
 40
0.5
 40
0.5
 40
1.0
 40
1.0
 40
1.0
 40
1.0
 10
215.305821936919
 20
30.15722684286361
 30
0.0
 10
215.2794125076383
 20
30.17247268187054
 30
0.0
 10
215.2571291034292
 20
30.1963301042828
 30
0.0
 10
215.2230219686077
 20
30.25425619601709
 30
0.0
 10
215.2111219385528
 20
30.28815472749794
 30
0.0
 10
215.2038094465961
 20
30.3237757699523
 30
0.0
  0
ARC
  5
29B
330
1F
100
AcDbEntity
  8
0
  6
Continuous
 62
     7
370
    15
100
AcDbCircle
 10
224.8422966996
 20
32.5815475011
 30
0.0
 40
9.835109896964717
100
AcDbArc
 50
194.9325993597
 51
238.1123668138
  0
ELLIPSE
  5
29C
330
1F
100
AcDbEntity
  8
0
  6
Continuous
 62
     7
370
    15
100
AcDbEllipse
 10
218.4274365135
 20
33.3394848454
 30
0.0
 11
0.3250094736511926
 21
1.213179526238669
 31
0.0
210
0.0
220
0.0
230
1.0
 40
0.5176380889
 41
3.619174351347776
 42
5.189970678142606
  0
SPLINE
  5
29D
330
1F
100
AcDbEntity
  8
0
  6
Continuous
 62
     7
370
    15
100
AcDbSpline
210
0.0
220
0.0
230
1.0
 70
     8
 71
     3
 72
    12
 73
     8
 74
     0
 42
0.000000001
 43
0.00000001
 40
0.0
 40
0.0
 40
0.0
 40
0.0
 40
0.5000000000000003
 40
0.5000000000000003
 40
0.7500000000000001
 40
0.7500000000000001
 40
1.0
 40
1.0
 40
1.0
 40
1.0
 10
244.9612936024714
 20
65.34380814637309
 30
0.0
 10
245.0243534797009
 20
65.38021183862335
 30
0.0
 10
245.104286432932
 20
65.40704315047493
 30
0.0
 10
245.2372656212387
 20
65.42079999198546
 30
0.0
 10
245.2829367903507
 20
65.42067885818655
 30
0.0
 10
245.3705746089882
 20
65.4079044765649
 30
0.0
 10
245.4113185198424
 20
65.39506449091014
 30
0.0
 10
245.442832202181
 20
65.37687202933351
 30
0.0
  0
LINE
  5
29E
330
1F
100
AcDbEntity
  8
0
  6
Continuous
 62
     7
370
    15
100
AcDbLine
 10
245.4428325264
 20
65.3768724009
 30
0.0
 11
246.1025008406
 21
64.996053989
 31
0.0
  0
LINE
  5
29F
330
1F
100
AcDbEntity
  8
0
  6
Continuous
 62
     7
370
    15
100
AcDbLine
 10
247.772367869
 20
62.9212577724
 30
0.0
 11
249.1668674748
 21
63.2270327858
 31
0.0
  0
LINE
  5
2A0
330
1F
100
AcDbEntity
  8
0
  6
Continuous
 62
     7
370
    15
100
AcDbLine
 10
249.1668674748
 20
63.2270327858
 30
0.0
 11
250.622389461
 21
62.3867778285
 31
0.0
  0
SPLINE
  5
2A1
330
1F
100
AcDbEntity
  8
0
  6
Continuous
 62
     7
370
    15
100
AcDbSpline
210
0.0
220
0.0
230
1.0
 70
     8
 71
     3
 72
    12
 73
     8
 74
     0
 42
0.000000001
 43
0.00000001
 40
0.0
 40
0.0
 40
0.0
 40
0.0
 40
0.2499999999999946
 40
0.2499999999999946
 40
0.4999999999999892
 40
0.4999999999999892
 40
1.0
 40
1.0
 40
1.0
 40
1.0
 10
250.6223893743726
 20
62.38677731978272
 30
0.0
 10
250.6540455048727
 20
62.3685026246328
 30
0.0
 10
250.6763447818828
 20
62.3446785138345
 30
0.0
 10
250.6981653524747
 20
62.2946466113868
 30
0.0
 10
250.6984461148009
 20
62.2682554029729
 30
0.0
 10
250.6750787406801
 20
62.19218017297799
 30
0.0
 10
250.6280403378751
 20
62.14511711802757
 30
0.0
 10
250.5651148433748
 20
62.10879100327561
 30
0.0
  0
LINE
  5
2A2
330
1F
100
AcDbEntity
  8
0
  6
Continuous
 62
     7
370
    15
100
AcDbLine
 10
244.9612938339
 20
65.3438085235
 30
0.0
 11
244.8695032662
 21
65.2908189566
 31
0.0
  0
SPLINE
  5
2A3
330
1F
100
AcDbEntity
  8
0
  6
Continuous
 62
     7
370
    15
100
AcDbSpline
210
0.0
220
0.0
230
1.0
 70
     8
 71
     3
 72
    10
 73
     6
 74
     0
 42
0.000000001
 43
0.00000001
 40
0.0
 40
0.0
 40
0.0
 40
0.0
 40
0.403890055881665
 40
0.8088426875932694
 40
1.0
 40
1.0
 40
1.0
 40
1.0
 10
253.5865489993817
 20
57.03285185056413
 30
0.0
 10
253.6047897638934
 20
57.07161567665706
 30
0.0
 10
253.6413192817078
 20
57.1492453108157
 30
0.0
 10
253.6552597956725
 20
57.256625254102
 30
0.0
 10
253.6372112494267
 20
57.30988192913229
 30
0.0
 10
253.6314235392447
 20
57.32695999160542
 30
0.0
  0
ARC
  5
2A4
330
1F
100
AcDbEntity
  8
0
  6
Continuous
 62
     7
370
    15
100
AcDbCircle
 10
243.293332949
 20
54.7195249759
 30
0.0
 40
10.60668825138583
100
AcDbArc
 50
15.7413341421
 51
46.2919137943
  0
LWPOLYLINE
  5
2A5
330
1F
100
AcDbEntity
  8
0
  6
Continuous
 62
     7
370
    15
100
AcDbPolyline
 90
        3
 70
   128
 43
0.0
 10
247.7723675397
 20
63.6022475589
 10
247.8108225877
 20
63.5547834615
 10
248.1910780404
 20
63.048502311
  0
LWPOLYLINE
  5
2A6
330
1F
100
AcDbEntity
  8
0
  6
Continuous
 62
     7
370
    15
100
AcDbPolyline
 90
        8
 70
   128
 43
0.0
 10
265.159278408
 20
29.5232690936
 10
265.0667160261
 20
29.4195296577
 10
264.7232534551
 20
29.2042156132
 10
264.3015083813
 20
29.1457221088
 10
263.8279832699
 20
29.2477226709
 10
263.3324311618
 20
29.5038088188
 10
262.8459906755
 20
29.8978886574
 10
262.4781198108
 20
30.3034789614
  0
LWPOLYLINE
  5
2A7
330
1F
100
AcDbEntity
  8
0
  6
Continuous
 62
     7
370
    15
100
AcDbPolyline
 90
       22
 70
   128
 43
0.0
 10
255.9932062423
 20
42.9860605219
 10
255.6442530564
 20
42.5291735841
 10
255.4735965978
 20
42.0396618649
 10
255.4892123345
 20
41.5404171849
 10
255.6903703521
 20
41.0547833387
 10
256.0676691046
 20
40.6054654837
 10
256.6034628919
 20
40.2134752164
 10
257.27269887
 20
39.8971417513
 10
258.0440846501
 20
39.6712561588
 10
258.8815514204
 20
39.5463801224
 10
259.7459398194
 20
39.5283532378
 10
260.596831678
 20
39.6180183412
 10
261.3944390541
 20
39.8111836821
 10
262.1014701774
 20
40.0988150751
 10
262.6848650847
 20
40.4674630445
 10
263.1173400711
 20
40.8998928607
 10
263.3786786023
 20
41.3758814701
 10
263.4566566929
 20
41.8731744542
 10
263.3476295459
 20
42.3685181184
 10
263.056694625
 20
42.8387511969
 10
262.5974563075
 20
43.2618855324
 10
262.2861932702
 20
43.4640365632
  0
LWPOLYLINE
  5
2A8
330
1F
100
AcDbEntity
  8
0
  6
Continuous
 62
     7
370
    15
100
AcDbPolyline
 90
        3
 70
   128
 43
0.0
 10
256.6284207807
 20
43.464036206
 10
256.5041364965
 20
43.3889611711
 10
255.9932062423
 20
42.9860605219
  0
LWPOLYLINE
  5
2A9
330
1F
100
AcDbEntity
  8
0
  6
Continuous
 62
     7
370
    15
100
AcDbPolyline
 90
       29
 70
   128
 43
0.0
 10
256.4262179837
 20
43.2500096369
 10
256.1128024524
 20
42.8353108621
 10
255.9670938824
 20
42.3907486443
 10
255.9963984545
 20
41.938615538
 10
256.1992504132
 20
41.5015811546
 10
256.5654708007
 20
41.1015642703
 10
257.0767036767
 20
40.7586190246
 10
257.7073087754
 20
40.4899447675
 10
258.4256646005
 20
40.3090142365
 10
259.1957533772
 20
40.2248978993
 10
259.9789559154
 20
40.241815924
 10
260.7360007364
 20
40.3589191068
 10
261.4289285117
 20
40.5703341116
 10
262.0229893087
 20
40.8654618918
 10
262.4883953689
 20
41.2295029298
 10
262.8018135343
 20
41.6442001839
 10
262.9475221043
 20
42.0887624017
 10
262.9182148981
 20
42.5408970287
 10
262.7153655736
 20
42.9779298915
 10
262.3491425519
 20
43.3779482964
 10
261.8379123101
 20
43.7208920215
 10
261.2073072114
 20
43.9895662785
 10
260.4889513863
 20
44.1704968095
 10
259.7188626095
 20
44.2546131468
 10
258.9356600714
 20
44.237695122
 10
258.1786126161
 20
44.1205934599
 10
257.485687475
 20
43.9091769344
 10
256.891626678
 20
43.6140491543
 10
256.4262179837
 20
43.2500096369
  0
LWPOLYLINE
  5
2AA
330
1F
100
AcDbEntity
  8
0
  6
Continuous
 62
     7
370
    15
100
AcDbPolyline
 90
       23
 70
   128
 43
0.0
 10
257.4221470673
 20
42.9180692809
 10
257.1735514546
 20
42.5595919189
 10
257.109969394
 20
42.175204902
 10
257.2365554778
 20
41.7960468812
 10
257.5430529578
 20
41.4528359918
 10
258.0046350353
 20
41.1733749912
 10
258.5839019798
 20
40.9803069738
 10
259.2339262389
 20
40.8892723092
 10
259.9020487005
 20
40.9076451956
 10
260.5341410397
 20
41.0339376967
 10
261.078991908
 20
41.257920038
 10
261.4924662853
 20
41.5614432858
 10
261.7410645321
 20
41.9199191272
 10
261.8046465928
 20
42.304306144
 10
261.6780605089
 20
42.6834641649
 10
261.3715603947
 20
43.0266765749
 10
260.9099809515
 20
43.3061360549
 10
260.330714007
 20
43.4992040723
 10
259.6806897478
 20
43.5902387369
 10
259.0125672862
 20
43.5718658504
 10
258.3804749471
 20
43.4455733493
 10
257.8356214446
 20
43.2215925287
 10
257.4221470673
 20
42.9180692809
  0
SPLINE
  5
2AB
330
1F
100
AcDbEntity
  8
0
  6
Continuous
 62
     7
370
    15
100
AcDbSpline
210
0.0
220
0.0
230
1.0
 70
     8
 71
     3
 72
     9
 73
     5
 74
     0
 42
0.000000001
 43
0.00000001
 40
0.0
 40
0.0
 40
0.0
 40
0.0
 40
0.6979429598665057
 40
1.0
 40
1.0
 40
1.0
 40
1.0
 10
257.1479076491696
 20
42.20660352356687
 30
0.0
 10
257.3139567217428
 20
41.91783002960705
 30
0.0
 10
257.5518688178904
 20
41.50408061086508
 30
0.0
 10
257.8035207358168
 20
41.32268213688943
 30
0.0
 10
257.8795339692895
 20
41.26788945075563
 30
0.0
  0
SPLINE
  5
2AC
330
1F
100
AcDbEntity
  8
0
  6
Continuous
 62
     7
370
    15
100
AcDbSpline
210
0.0
220
0.0
230
1.0
 70
     8
 71
     3
 72
    10
 73
     6
 74
     0
 42
0.000000001
 43
0.00000001
 40
0.0
 40
0.0
 40
0.0
 40
0.0
 40
0.336937091433948
 40
0.8178597812951179
 40
1.0
 40
1.0
 40
1.0
 40
1.0
 10
260.9209102768576
 20
41.18925739167916
 30
0.0
 10
261.0172910672305
 20
41.24737085155622
 30
0.0
 10
261.2512397007869
 20
41.38843178783687
 30
0.0
 10
261.5446379937777
 20
41.81433177251198
 30
0.0
 10
261.7188524557437
 20
42.12207004744641
 30
0.0
 10
261.7667083375826
 20
42.20660428390617
 30
0.0
  0
SPLINE
  5
2AD
330
1F
100
AcDbEntity
  8
0
  6
Continuous
 62
     7
370
    15
100
AcDbSpline
210
0.0
220
0.0
230
1.0
 70
     8
 71
     3
 72
    10
 73
     6
 74
     0
 42
0.000000001
 43
0.00000001
 40
0.0
 40
0.0
 40
0.0
 40
0.0
 40
0.4391297762534029
 40
0.7513782161945154
 40
1.0
 40
1.0
 40
1.0
 40
1.0
 10
261.7667083375826
 20
42.20660428390617
 30
0.0
 10
261.6013988796254
 20
42.26004451343658
 30
0.0
 10
261.3185441693397
 20
42.3514840525181
 30
0.0
 10
260.9073714647879
 20
42.84769063480137
 30
0.0
 10
260.7027232105733
 20
43.20347055019301
 30
0.0
 10
260.6120070130265
 20
43.36118018329843
 30
0.0
  0
SPLINE
  5
2AE
330
1F
100
AcDbEntity
  8
0
  6
Continuous
 62
     7
370
    15
100
AcDbSpline
210
0.0
220
0.0
230
1.0
 70
     8
 71
     3
 72
    10
 73
     6
 74
     0
 42
0.000000001
 43
0.00000001
 40
0.0
 40
0.0
 40
0.0
 40
0.0
 40
0.4391302683381497
 40
0.7513785150617013
 40
1.0
 40
1.0
 40
1.0
 40
1.0
 10
260.6120070130265
 20
43.36118018329843
 30
0.0
 10
260.2813872769129
 20
43.24932786016915
 30
0.0
 10
259.7156768618434
 20
43.05794175331494
 30
0.0
 10
258.8933343708237
 20
43.14302323848386
 30
0.0
 10
258.4840386540652
 20
43.29417671780951
 30
0.0
 10
258.3026066688199
 20
43.36117980312878
 30
0.0
  0
SPLINE
  5
2AF
330
1F
100
AcDbEntity
  8
0
  6
Continuous
 62
     7
370
    15
100
AcDbSpline
210
0.0
220
0.0
230
1.0
 70
     8
 71
     3
 72
    11
 73
     7
 74
     0
 42
0.000000001
 43
0.00000001
 40
0.0
 40
0.0
 40
0.0
 40
0.0
 40
0.1323875880982893
 40
0.4819434414782212
 40
0.8154864905953353
 40
1.0
 40
1.0
 40
1.0
 40
1.0
 10
258.3026066688199
 20
43.36117980312878
 30
0.0
 10
258.254700396213
 20
43.2762538526118
 30
0.0
 10
258.0803025223621
 20
42.96708963675965
 30
0.0
 10
257.7542010550306
 20
42.51318711342964
 30
0.0
 10
257.4032448450467
 20
42.26831146199049
 30
0.0
 10
257.2149659601391
 20
42.22280966270723
 30
0.0
 10
257.1479076491696
 20
42.20660352356687
 30
0.0
  0
LINE
  5
2B0
330
1F
100
AcDbEntity
  8
0
  6
Continuous
 62
     7
370
    15
100
AcDbLine
 10
260.612007013
 20
41.058195124
 30
0.0
 11
260.612007013
 21
43.3611801833
 31
0.0
  0
LINE
  5
2B1
330
1F
100
AcDbEntity
  8
0
  6
Continuous
 62
     7
370
    15
100
AcDbLine
 10
258.3026066688
 20
41.0581947439
 30
0.0
 11
258.3026066688
 21
43.3611798031
 31
0.0
  0
ARC
  5
2B2
330
1F
100
AcDbEntity
  8
0
  6
Continuous
 62
     7
370
    15
100
AcDbCircle
 10
230.3510070784
 20
56.5819360483
 30
0.0
 40
1.579862860698606
100
AcDbArc
 50
80.1846128405
 51
142.2721629425
  0
ARC
  5
2B3
330
1F
100
AcDbEntity
  8
0
  6
Continuous
 62
     7
370
    15
100
AcDbCircle
 10
230.3070760124
 20
56.6959452916
 30
0.0
 40
1.457980719739312
100
AcDbArc
 50
78.1257719073
 51
144.5058479635
  0
ARC
  5
2B4
330
1F
100
AcDbEntity
  8
0
  6
Continuous
 62
     7
370
    15
100
AcDbCircle
 10
230.2887411619
 20
56.7442447142
 30
0.0
 40
1.267447625276169
100
AcDbArc
 50
81.3824950793
 51
141.7162640876
  0
LWPOLYLINE
  5
2B5
330
1F
100
AcDbEntity
  8
0
  6
Continuous
 62
     7
370
     0
100
AcDbPolyline
 90
        9
 70
   128
 43
0.0
 10
227.1425276696
 20
35.1757351606
 10
227.2056201847
 20
33.8451684226
 10
227.3941845264
 20
32.602523566
 10
227.7060830592
 20
31.4618796213
 10
228.1377820332
 20
30.4361606066
 10
228.6843904385
 20
29.5369881846
 10
229.3397146638
 20
28.7745512381
 10
230.0963302785
 20
28.157487421
 10
230.4050994077
 20
27.9646795844
  0
LWPOLYLINE
  5
2B6
330
1F
100
AcDbEntity
  8
0
  6
Continuous
 62
     7
370
     0
100
AcDbPolyline
 90
       24
 70
   128
 43
0.0
 10
246.0821544495
 20
55.2858440338
 10
246.0489341718
 20
55.3041762078
 10
245.1567894389
 20
55.6906077692
 10
244.1867211099
 20
55.9174425919
 10
243.1497216099
 20
55.9821108009
 10
242.0575397021
 20
55.883880679
 10
240.9225509196
 20
55.6238644777
 10
239.7576148256
 20
55.2050082594
 10
238.5759305865
 20
54.6320579513
 10
237.3908872764
 20
53.9115056284
 10
236.2159117537
 20
53.0515146218
 10
235.0643172775
 20
52.0618298459
 10
233.9491511786
 20
50.9536640049
 10
232.8830496089
 20
49.7395741973
 10
231.878091592
 20
48.4333153028
 10
230.9456630329
 20
47.0496884733
 10
230.0963302785
 20
45.6043708003
 10
229.3397146638
 20
44.113737189
 10
228.6843904385
 20
42.5946789971
 10
228.1377820332
 20
41.0644059438
 10
227.7060830592
 20
39.540257903
 10
227.3941845264
 20
38.0395035775
 10
227.2056201847
 20
36.5791469661
 10
227.1425276696
 20
35.1757351606
  0
LWPOLYLINE
  5
2B7
330
1F
100
AcDbEntity
  8
0
  6
Continuous
 62
     7
370
     0
100
AcDbPolyline
 90
       47
 70
   128
 43
0.0
 10
265.8389467189
 20
33.4523333733
 10
264.9242452725
 20
32.8520374097
 10
264.0265830067
 20
32.1184223373
 10
263.1626816013
 20
31.2651550996
 10
262.3486341555
 20
30.3081306652
 10
261.599604315
 20
29.2651747625
 10
260.9295454856
 20
28.155717525
 10
260.3509397198
 20
27.0004256421
 10
259.8745650864
 20
25.8208193922
 10
259.5092954725
 20
24.6388732291
 10
259.26193496
 20
23.4766041963
 10
259.137092702
 20
22.3556637133
 10
259.137092702
 20
21.296932162
 10
259.26193496
 20
20.320131482
 10
259.5092954725
 20
19.4434588178
 10
259.8745650864
 20
18.6832439741
 10
260.3509397198
 20
18.0536481687
 10
260.9295454856
 20
17.5664002832
 10
261.599604315
 20
17.230576503
 10
262.3486341555
 20
17.052432046
 10
263.1626816013
 20
17.0352867866
 10
264.0265830067
 20
17.1794588805
 10
264.9242452725
 20
17.4822625994
 10
265.8389467189
 20
17.9380584463
 10
266.7536481653
 20
18.5383544099
 10
267.651310431
 20
19.2719694822
 10
268.5152118364
 20
20.1252367199
 10
269.3292592822
 20
21.0822611544
 10
270.0782891227
 20
22.1252170571
 10
270.7483479521
 20
23.2346742945
 10
271.3269537179
 20
24.3899661775
 10
271.8033283514
 20
25.5695724273
 10
272.1685979653
 20
26.7515185905
 10
272.4159584777
 20
27.9137876232
 10
272.5408007357
 20
29.0347281062
 10
272.5408007357
 20
30.0934596576
 10
272.4159584777
 20
31.0702603376
 10
272.1685979653
 20
31.9469330017
 10
271.8033283514
 20
32.7071478455
 10
271.3269537179
 20
33.3367436508
 10
270.7483479521
 20
33.8239915363
 10
270.0782891227
 20
34.1598153166
 10
269.3292592822
 20
34.3379597735
 10
268.5152118364
 20
34.3551050329
 10
267.651310431
 20
34.210932939
 10
266.7536481653
 20
33.9081292201
 10
265.8389467189
 20
33.4523333733
  0
LWPOLYLINE
  5
2B8
330
1F
100
AcDbEntity
  8
0
  6
Continuous
 62
     7
370
     0
100
AcDbPolyline
 90
       25
 70
   128
 43
0.0
 10
260.9857581863
 20
18.1048584397
 10
261.064613952
 20
18.0609044603
 10
261.7447501588
 20
17.7945128482
 10
262.4976937293
 20
17.6858716706
 10
263.3087897432
 20
17.7370961995
 10
264.1622507486
 20
17.9471878124
 10
265.0414651248
 20
18.3120587739
 10
265.9293200988
 20
18.8246065405
 10
266.808534475
 20
19.4748548903
 10
267.6619954803
 20
20.2501483797
 10
268.4730914943
 20
21.1353953752
 10
269.2260350648
 20
22.113366695
 10
269.9061712716
 20
23.1650268566
 10
270.5002623822
 20
24.2699063915
 10
270.9967446844
 20
25.4065006845
 10
271.385954696
 20
26.5526861152
 10
271.6603168504
 20
27.6861542648
 10
271.8144913393
 20
28.7848434654
 10
271.8454771755
 20
29.8273687838
 10
271.7526704737
 20
30.7934382276
 10
271.5378789384
 20
31.6642492296
 10
271.2052830103
 20
32.4228522482
 10
270.7613555233
 20
33.0544815286
 10
270.2147372399
 20
33.5468428069
 10
269.9850270373
 20
33.693738263
  0
LWPOLYLINE
  5
2B9
330
1F
100
AcDbEntity
  8
0
  6
Continuous
 62
     7
370
     0
100
AcDbPolyline
 90
       19
 70
   128
 43
0.0
 10
220.4853789466
 20
38.4372280463
 10
220.980180314
 20
40.3836422816
 10
221.5999036232
 20
42.3453038633
 10
222.339720426
 20
44.3069214763
 10
223.1938631896
 20
46.2532057949
 10
224.1556727118
 20
48.1689846884
 10
225.2176534392
 20
50.0393264108
 10
226.3715274672
 20
51.8496498629
 10
227.608300395
 20
53.5858470207
 10
228.9183311309
 20
55.2343825493
 10
230.2914089424
 20
56.7824067246
 10
231.7168305056
 20
58.2178531457
 10
233.1834851868
 20
59.5295320733
 10
234.6799411472
 20
60.707221202
 10
236.1945331764
 20
61.7417391798
 10
237.7154557117
 20
62.6250221201
 10
239.2308533054
 20
63.3501849538
 10
240.7289139742
 20
63.911576839
 10
241.5239523682
 20
64.1443567359
  0
LINE
  5
2BA
330
1F
100
AcDbEntity
  8
0
  6
Continuous
 62
     7
370
     0
100
AcDbLine
 10
220.8441046037
 20
38.1027172167
 30
0.0
 11
220.9242810805
 21
38.4666843436
 31
0.0
  0
LWPOLYLINE
  5
2BB
330
1F
100
AcDbEntity
  8
0
  6
Continuous
 62
     7
370
     0
100
AcDbPolyline
 90
        9
 70
   128
 43
0.0
 10
237.4172905689
 20
61.978517801
 10
238.4278410899
 20
62.5135657406
 10
239.8714340363
 20
63.1563561256
 10
241.2956827317
 20
63.6464480426
 10
242.6902004475
 20
63.9802666746
 10
244.0448179393
 20
64.1553772132
 10
245.3496567104
 20
64.1705043384
 10
246.595201451
 20
64.0255375354
 10
247.7723681982
 20
63.7215339395
  0
LWPOLYLINE
  5
2BC
330
1F
100
AcDbEntity
  8
0
  6
Continuous
 62
     7
370
     0
100
AcDbPolyline
 90
       17
 70
   128
 43
0.0
 10
238.4410759412
 20
23.3256087094
 10
237.2060534093
 20
22.5618890424
 10
235.7391115359
 20
21.7894756323
 10
234.2831896484
 20
21.1691985772
 10
232.8491306155
 20
20.7056762531
 10
231.4476148765
 20
20.4023625356
 10
230.089080362
 20
20.2615157806
 10
228.7836442911
 20
20.2841856182
 10
227.541029415
 20
20.4702023134
 10
226.3704902596
 20
20.8181798146
 10
225.2807439787
 20
21.3255290684
 10
224.2799064747
 20
21.9884682918
 10
223.3754324715
 20
22.8020636625
 10
222.5740562452
 20
23.760252899
 10
221.8817481603
 20
24.8559015385
 10
221.3036619861
 20
26.0808493307
 10
220.8441046037
 20
27.4259733586
  0
ARC
  5
2BD
330
1F
100
AcDbEntity
  8
0
  6
Continuous
 62
     7
370
     0
100
AcDbCircle
 10
243.4064095966
 20
54.4103805561
 30
0.0
 40
10.51249703684825
100
AcDbArc
 50
14.4456939373
 51
47.0804331381
  0
LWPOLYLINE
  5
2BE
330
1F
100
AcDbEntity
  8
0
  6
Continuous
 62
     7
370
     0
100
AcDbPolyline
 90
       29
 70
   128
 43
0.0
 10
225.0212076368
 20
35.1757355408
 10
225.0837891214
 20
36.6368521739
 10
225.2708921529
 20
38.1552311954
 10
225.5805977324
 20
39.7152925165
 10
226.0097264073
 20
41.3010272659
 10
226.5538758073
 20
42.8961634718
 10
227.2074614752
 20
44.4843334549
 10
227.9637774521
 20
46.0492403642
 10
228.8150621325
 20
47.5748262331
 10
229.752580582
 20
49.0454354713
 10
230.766712124
 20
50.4459779756
 10
231.8470510966
 20
51.7620831145
 10
232.9825115616
 20
52.9802453468
 10
234.1614418911
 20
54.0879656571
 10
235.3717451163
 20
55.0738750244
 10
236.601001417
 20
55.9278591269
 10
237.8365971965
 20
56.6411533875
 10
239.0658534972
 20
57.2064383998
 10
240.2761567224
 20
57.6179153921
 10
241.4550870519
 20
57.871359067
 10
242.5905475169
 20
57.9641715828
 10
243.6708864895
 20
57.8953992714
 10
244.6850180315
 20
57.6657481224
 10
245.622536481
 20
57.2775746457
 10
246.4738211614
 20
56.7348611478
 10
247.2301371384
 20
56.0431780783
 10
247.8837228062
 20
55.2096220449
 10
248.4278722062
 20
54.2427473634
 10
248.6112570954
 20
53.8265702607
  0
LWPOLYLINE
  5
2BF
330
1F
100
AcDbEntity
  8
0
  6
Continuous
 62
     7
370
     0
100
AcDbPolyline
 90
       13
 70
   128
 43
0.0
 10
232.8625369353
 20
26.5460305699
 10
231.8470510966
 20
26.470339075
 10
230.766712124
 20
26.5391113863
 10
229.752580582
 20
26.7687625354
 10
228.8150621325
 20
27.156936012
 10
227.9637774521
 20
27.6996495099
 10
227.2074614752
 20
28.3913325794
 10
226.5538758073
 20
29.2248886128
 10
226.0097264073
 20
30.1917632943
 10
225.5805977324
 20
31.282036622
 10
225.2708921529
 20
32.4845194922
 10
225.0837891214
 20
33.7868739518
 10
225.0212076368
 20
35.1757355408
  0
LWPOLYLINE
  5
2C0
330
1F
100
AcDbEntity
  8
0
  6
Continuous
 62
     7
370
     0
100
AcDbPolyline
 90
       19
 70
   128
 43
0.0
 10
215.305822012
 20
41.4273226187
 10
215.8006233794
 20
43.373736854
 10
216.4203466886
 20
45.3353984357
 10
217.1601634914
 20
47.2970160486
 10
218.014306255
 20
49.2433003673
 10
218.9761157773
 20
51.1590792608
 10
220.0380965046
 20
53.0294209832
 10
221.1919705326
 20
54.8397444353
 10
222.4287434604
 20
56.5759415931
 10
223.7387741963
 20
58.2244771217
 10
225.1118520078
 20
59.772501297
 10
226.537273571
 20
61.2079477181
 10
228.0039282522
 20
62.5196266456
 10
229.5003842126
 20
63.6973157744
 10
231.0149762418
 20
64.7318337521
 10
232.5358987771
 20
65.6151166925
 10
234.0512963709
 20
66.3402795262
 10
235.5493570396
 20
66.9016714114
 10
236.3445017885
 20
67.1344792453
  0
LWPOLYLINE
  5
2C1
330
1F
100
AcDbEntity
  8
0
  6
Continuous
 62
     7
370
     0
100
AcDbPolyline
 90
       19
 70
   128
 43
0.0
 10
218.5837898623
 20
40.4040966865
 10
219.0599728593
 20
42.2751428115
 10
219.6596764155
 20
44.1609835586
 10
220.3779482761
 20
46.0460428312
 10
221.2088562724
 20
47.9147522291
 10
222.1455370533
 20
49.7516780415
 10
223.1802546966
 20
51.5416478584
 10
224.3044632702
 20
53.2698779424
 10
225.508877955
 20
54.9220971775
 10
226.7835514363
 20
56.484655808
 10
228.1179549044
 20
57.9446497663
 10
229.501068605
 20
59.2900216168
 10
230.921468437
 20
60.5096592167
 10
232.3674234179
 20
61.593490005
 10
233.8269910077
 20
62.5325618875
 10
235.2881163022
 20
63.3191172301
 10
236.7387317203
 20
63.9466625744
 10
238.1668564441
 20
64.410013876
 10
238.5996663827
 20
64.5188601431
  0
LINE
  5
2C2
330
1F
100
AcDbEntity
  8
0
  6
Continuous
 62
     7
370
     0
100
AcDbLine
 10
229.8043161678
 20
58.3867434345
 30
0.0
 11
230.1645429771
 21
58.7252314003
 31
0.0
  0
LWPOLYLINE
  5
2C3
330
1F
100
AcDbEntity
  8
0
  6
Continuous
 62
     7
370
     0
100
AcDbPolyline
 90
       21
 70
   128
 43
0.0
 10
218.0063220614
 20
40.3972950713
 10
218.4810602117
 20
42.2905179506
 10
219.0805306432
 20
44.199600747
 10
219.7998285162
 20
46.1089285755
 10
220.6330717113
 20
48.0028881641
 10
221.5734469269
 20
49.8659902835
 10
222.6132623632
 20
51.6829967395
 10
223.744014235
 20
53.4390500258
 10
224.9564565774
 20
55.1197881475
 10
226.2406723686
 20
56.7114647671
 10
227.5861597994
 20
58.2010636465
 10
228.9819152495
 20
59.5764028225
 10
230.4165238379
 20
60.8262340286
 10
231.8782531
 20
61.9403378398
 10
233.3551487657
 20
62.9095987345
 10
234.8351326758
 20
63.7260935614
 10
236.3061012351
 20
64.3831453326
 10
237.7560247698
 20
64.8753775397
 10
239.1730452807
 20
65.1987660226
 10
240.5455741954
 20
65.3506665037
 10
241.8457853741
 20
65.3312070702
  0
LWPOLYLINE
  5
2C4
330
1F
100
AcDbEntity
  8
0
  6
Continuous
 62
     7
370
     0
100
AcDbPolyline
 90
        3
 70
   128
 43
0.0
 10
219.055445942
 20
38.3247917204
 10
219.0549941805
 20
38.4464706377
 10
219.0672589134
 20
39.0889140507
  0
LWPOLYLINE
  5
2C5
330
1F
100
AcDbEntity
  8
0
  6
Continuous
 62
     7
370
     0
100
AcDbPolyline
 90
       18
 70
   128
 43
0.0
 10
187.97004021
 20
62.3377771371
 10
188.0342608119
 20
63.482669762
 10
188.2257774086
 20
64.6812798072
 10
188.5411714956
 20
65.9122173884
 10
188.9748151516
 20
67.1535167778
 10
189.51896982
 20
68.3830266077
 10
190.1639255913
 20
69.5788063434
 10
190.8981730832
 20
70.7195177158
 10
191.7086092356
 20
71.7848051232
 10
192.5807720818
 20
72.7556570195
 10
193.4990979102
 20
73.6147494293
 10
194.4471989231
 20
74.3467518651
 10
195.4081564328
 20
74.9386015303
 10
196.3648220845
 20
75.3797365273
 10
197.3001241202
 20
75.6622855876
 10
198.1973720792
 20
75.7812059487
 10
199.0405543572
 20
75.7343752828
 10
199.7046671883
 20
75.5643614881
  0
ARC
  5
2C6
330
1F
100
AcDbEntity
  8
0
  6
Continuous
 62
     7
370
     0
100
AcDbCircle
 10
193.3682303123
 20
61.8917617411
 30
0.0
 40
5.416584358572779
100
AcDbArc
 50
175.2767713473
 51
224.7160200029
  0
LINE
  5
2C7
330
1F
100
AcDbEntity
  8
0
  6
Continuous
 62
     7
370
     0
100
AcDbLine
 10
224.7383640878
 20
39.4421874196
 30
0.0
 11
224.0311426039
 21
39.850457692
 31
0.0
  0
LINE
  5
2C8
330
1F
100
AcDbEntity
  8
0
  6
Continuous
 62
     7
370
     0
100
AcDbLine
 10
219.195202916
 20
33.7827182818
 30
0.0
 11
224.7383640878
 21
30.5827194513
 31
0.0
  0
LINE
  5
2C9
330
1F
100
AcDbEntity
  8
0
  6
Continuous
 62
     7
370
     0
100
AcDbLine
 10
219.134542735
 20
33.7476885209
 30
0.0
 11
219.195202916
 21
33.7827182818
 31
0.0
  0
LINE
  5
2CA
330
1F
100
AcDbEntity
  8
0
  6
Continuous
 62
     7
370
     0
100
AcDbLine
 10
220.511957803
 20
27.0795852749
 30
0.0
 11
220.4853789466
 21
27.1671322569
 31
0.0
  0
LINE
  5
2CB
330
1F
100
AcDbEntity
  8
0
  6
Continuous
 62
     7
370
     0
100
AcDbLine
 10
224.0312571907
 20
29.357974763
 30
0.0
 11
218.7809892042
 21
32.3888899567
 31
0.0
  0
LINE
  5
2CC
330
1F
100
AcDbEntity
  8
0
  6
Continuous
 62
     7
370
     0
100
AcDbLine
 10
219.4461245902
 20
29.2084141233
 30
0.0
 11
219.368678439
 21
29.4584410565
 31
0.0
  0
LWPOLYLINE
  5
2CD
330
1F
100
AcDbEntity
  8
0
  6
Continuous
 62
     7
370
     0
100
AcDbPolyline
 90
        3
 70
   128
 43
0.0
 10
219.0551430938
 20
28.6015938611
 10
219.0462290354
 20
28.6225492525
 10
218.5837898623
 20
29.9115475872
  0
ARC
  5
2CE
330
1F
100
AcDbEntity
  8
0
  6
Continuous
 62
     7
370
     0
100
AcDbCircle
 10
228.7449640112
 20
32.9125638085
 30
0.0
 40
11.15192355892265
100
AcDbArc
 50
195.6471844777
 51
214.1548056384
  0
LINE
  5
2CF
330
1F
100
AcDbEntity
  8
0
  6
Continuous
 62
     7
370
     0
100
AcDbLine
 10
215.3393221712
 20
30.0472109415
 30
0.0
 11
215.305822012
 21
30.1572268293
 31
0.0
  0
ARC
  5
2D0
330
1F
100
AcDbEntity
  8
0
  6
Continuous
 62
     7
370
     0
100
AcDbCircle
 10
262.5187454224
 20
30.7921741274
 30
0.0
 40
2.929596291770626
100
AcDbArc
 50
334.3334424496
 51
38.2486928405
  0
LWPOLYLINE
  5
2D1
330
1F
100
AcDbEntity
  8
0
  6
Continuous
 62
     7
370
     0
100
AcDbPolyline
 90
       13
 70
   128
 43
0.0
 10
264.5870457067
 20
32.428271636
 10
264.7364931631
 20
32.1584785584
 10
264.9972267389
 20
31.5253084454
 10
265.1355237198
 20
30.8994856056
 10
265.1411318848
 20
30.3274218382
 10
265.0136323997
 20
29.8515461804
 10
264.7624793294
 20
29.5071532675
 10
264.4063042152
 20
29.3197825699
 10
263.9715199601
 20
29.3033321243
 10
263.4903715375
 20
29.4590223622
 10
262.9985467914
 20
29.775305011
 10
262.5325185507
 20
30.2287245437
 10
262.4739344312
 20
30.2981945561
  0
OLE2FRAME
  5
2D2
330
1F
100
AcDbEntity
  8
0
100
AcDbOle2Frame
 70
     2
  3
Paintbrush-Bild
 10
13.8511154363
 20
38.264191557
 30
0.0
 11
51.6290888628
 21
31.9806341108
 31
0.0
 71
     2
 72
     0
 73
     1
 90
    12928
310
80552BED0767C5B32B40DDAF6807D121434000000000000000006FFBDDFB85D0
310
4940DDAF6807D121434000000000000000006FFBDDFB85D04940416F4BD60AFB
310
3F4000000000000000002BED0767C5B32B40416F4BD60AFB3F40000000000000
310
0000000000000100000000010000010000000100000000000100000000320000
310
D0CF11E0A1B11AE1000000000000000000000000000000003E000300FEFF0900
310
0600000000000000000000000100000001000000000000000010000002000000
310
01000000FEFFFFFF0000000000000000FFFFFFFFFFFFFFFFFFFFFFFFFFFFFFFF
310
FFFFFFFFFFFFFFFFFFFFFFFFFFFFFFFFFFFFFFFFFFFFFFFFFFFFFFFFFFFFFFFF
310
FFFFFFFFFFFFFFFFFFFFFFFFFFFFFFFFFFFFFFFFFFFFFFFFFFFFFFFFFFFFFFFF
310
FFFFFFFFFFFFFFFFFFFFFFFFFFFFFFFFFFFFFFFFFFFFFFFFFFFFFFFFFFFFFFFF
310
FFFFFFFFFFFFFFFFFFFFFFFFFFFFFFFFFFFFFFFFFFFFFFFFFFFFFFFFFFFFFFFF
310
FFFFFFFFFFFFFFFFFFFFFFFFFFFFFFFFFFFFFFFFFFFFFFFFFFFFFFFFFFFFFFFF
310
FFFFFFFFFFFFFFFFFFFFFFFFFFFFFFFFFFFFFFFFFFFFFFFFFFFFFFFFFFFFFFFF
310
FFFFFFFFFFFFFFFFFFFFFFFFFFFFFFFFFFFFFFFFFFFFFFFFFFFFFFFFFFFFFFFF
310
FFFFFFFFFFFFFFFFFFFFFFFFFFFFFFFFFFFFFFFFFFFFFFFFFFFFFFFFFFFFFFFF
310
FFFFFFFFFFFFFFFFFFFFFFFFFFFFFFFFFFFFFFFFFFFFFFFFFFFFFFFFFFFFFFFF
310
FFFFFFFFFFFFFFFFFFFFFFFFFFFFFFFFFFFFFFFFFFFFFFFFFFFFFFFFFFFFFFFF
310
FFFFFFFFFFFFFFFFFFFFFFFFFFFFFFFFFFFFFFFFFFFFFFFFFFFFFFFFFFFFFFFF
310
FFFFFFFFFFFFFFFFFFFFFFFFFFFFFFFFFFFFFFFFFFFFFFFFFFFFFFFFFFFFFFFF
310
FFFFFFFFFFFFFFFFFFFFFFFFFFFFFFFFFFFFFFFFFFFFFFFFFFFFFFFFFFFFFFFF
310
FDFFFFFFFEFFFFFFFEFFFFFFFEFFFFFF05000000060000000700000008000000
310
090000000A0000000B0000000C0000000D0000000E0000000F00000010000000
310
11000000120000001300000014000000150000001600000017000000FEFFFFFF
310
FFFFFFFFFFFFFFFFFFFFFFFFFFFFFFFFFFFFFFFFFFFFFFFFFFFFFFFFFFFFFFFF
310
FFFFFFFFFFFFFFFFFFFFFFFFFFFFFFFFFFFFFFFFFFFFFFFFFFFFFFFFFFFFFFFF
310
FFFFFFFFFFFFFFFFFFFFFFFFFFFFFFFFFFFFFFFFFFFFFFFFFFFFFFFFFFFFFFFF
310
FFFFFFFFFFFFFFFFFFFFFFFFFFFFFFFFFFFFFFFFFFFFFFFFFFFFFFFFFFFFFFFF
310
FFFFFFFFFFFFFFFFFFFFFFFFFFFFFFFFFFFFFFFFFFFFFFFFFFFFFFFFFFFFFFFF
310
FFFFFFFFFFFFFFFFFFFFFFFFFFFFFFFFFFFFFFFFFFFFFFFFFFFFFFFFFFFFFFFF
310
FFFFFFFFFFFFFFFFFFFFFFFFFFFFFFFFFFFFFFFFFFFFFFFFFFFFFFFFFFFFFFFF
310
FFFFFFFFFFFFFFFFFFFFFFFFFFFFFFFFFFFFFFFFFFFFFFFFFFFFFFFFFFFFFFFF
310
FFFFFFFFFFFFFFFFFFFFFFFFFFFFFFFFFFFFFFFFFFFFFFFFFFFFFFFFFFFFFFFF
310
FFFFFFFFFFFFFFFFFFFFFFFFFFFFFFFFFFFFFFFFFFFFFFFFFFFFFFFFFFFFFFFF
310
FFFFFFFFFFFFFFFFFFFFFFFFFFFFFFFFFFFFFFFFFFFFFFFFFFFFFFFFFFFFFFFF
310
FFFFFFFFFFFFFFFFFFFFFFFFFFFFFFFFFFFFFFFFFFFFFFFFFFFFFFFFFFFFFFFF
310
FFFFFFFFFFFFFFFFFFFFFFFFFFFFFFFFFFFFFFFFFFFFFFFFFFFFFFFFFFFFFFFF
310
52006F006F007400200045006E00740072007900000000000000000000000000
310
0000000000000000000000000000000000000000000000000000000000000000
310
16000500FFFFFFFFFFFFFFFF020000000A00030000000000C000000000000046
310
000000000000000000000000401690819024D20103000000C000000000000000
310
01004F006C006500000000000000000000000000000000000000000000000000
310
0000000000000000000000000000000000000000000000000000000000000000
310
0A000200FFFFFFFFFFFFFFFFFFFFFFFF00000000000000000000000000000000
310
0000000000000000000000000000000000000000000000001400000000000000
310
010043006F006D0070004F0062006A0000000000000000000000000000000000
310
0000000000000000000000000000000000000000000000000000000000000000
310
120002010100000003000000FFFFFFFF00000000000000000000000000000000
310
0000000000000000000000000000000000000000010000004D00000000000000
310
01004F006C006500310030004E00610074006900760065000000000000000000
310
0000000000000000000000000000000000000000000000000000000000000000
310
1A000200FFFFFFFFFFFFFFFFFFFFFFFF00000000000000000000000000000000
310
0000000000000000000000000000000000000000040000002426000000000000
310
FEFFFFFF02000000FEFFFFFFFFFFFFFFFFFFFFFFFFFFFFFFFFFFFFFFFFFFFFFF
310
FFFFFFFFFFFFFFFFFFFFFFFFFFFFFFFFFFFFFFFFFFFFFFFFFFFFFFFFFFFFFFFF
310
FFFFFFFFFFFFFFFFFFFFFFFFFFFFFFFFFFFFFFFFFFFFFFFFFFFFFFFFFFFFFFFF
310
FFFFFFFFFFFFFFFFFFFFFFFFFFFFFFFFFFFFFFFFFFFFFFFFFFFFFFFFFFFFFFFF
310
FFFFFFFFFFFFFFFFFFFFFFFFFFFFFFFFFFFFFFFFFFFFFFFFFFFFFFFFFFFFFFFF
310
FFFFFFFFFFFFFFFFFFFFFFFFFFFFFFFFFFFFFFFFFFFFFFFFFFFFFFFFFFFFFFFF
310
FFFFFFFFFFFFFFFFFFFFFFFFFFFFFFFFFFFFFFFFFFFFFFFFFFFFFFFFFFFFFFFF
310
FFFFFFFFFFFFFFFFFFFFFFFFFFFFFFFFFFFFFFFFFFFFFFFFFFFFFFFFFFFFFFFF
310
FFFFFFFFFFFFFFFFFFFFFFFFFFFFFFFFFFFFFFFFFFFFFFFFFFFFFFFFFFFFFFFF
310
FFFFFFFFFFFFFFFFFFFFFFFFFFFFFFFFFFFFFFFFFFFFFFFFFFFFFFFFFFFFFFFF
310
FFFFFFFFFFFFFFFFFFFFFFFFFFFFFFFFFFFFFFFFFFFFFFFFFFFFFFFFFFFFFFFF
310
FFFFFFFFFFFFFFFFFFFFFFFFFFFFFFFFFFFFFFFFFFFFFFFFFFFFFFFFFFFFFFFF
310
FFFFFFFFFFFFFFFFFFFFFFFFFFFFFFFFFFFFFFFFFFFFFFFFFFFFFFFFFFFFFFFF
310
FFFFFFFFFFFFFFFFFFFFFFFFFFFFFFFFFFFFFFFFFFFFFFFFFFFFFFFFFFFFFFFF
310
FFFFFFFFFFFFFFFFFFFFFFFFFFFFFFFFFFFFFFFFFFFFFFFFFFFFFFFFFFFFFFFF
310
FFFFFFFFFFFFFFFFFFFFFFFFFFFFFFFFFFFFFFFFFFFFFFFFFFFFFFFFFFFFFFFF
310
0100000200000000000000000000000000000000000000000000000000000000
310
0000000000000000000000000000000000000000000000000000000000000000
310
0100FEFF030A0000FFFFFFFF0A00030000000000C00000000000004607000000
310
5042727573680007000000504272757368000700000050427275736800F439B2
310
7100000000000000000000000000000000000000000000000000000000000000
310
0000000000000000000000000000000000000000000000000000000000000000
310
0000000000000000000000000000000000000000000000000000000000000000
310
0000000000000000000000000000000000000000000000000000000000000000
310
0000000000000000000000000000000000000000000000000000000000000000
310
0000000000000000000000000000000000000000000000000000000000000000
310
0000000000000000000000000000000000000000000000000000000000000000
310
0000000000000000000000000000000000000000000000000000000000000000
310
0000000000000000000000000000000000000000000000000000000000000000
310
0000000000000000000000000000000000000000000000000000000000000000
310
0000000000000000000000000000000000000000000000000000000000000000
310
0000000000000000000000000000000000000000000000000000000000000000
310
20260000424D0E260000000000003E00000028000000B40200006E0000000100
310
01000000000000000000130B0000130B00000200000002000000000000FFFFFF
310
FFFFFFFFFFFFFFFFFFFFFFFFFFFFFFFFFFFFFFFFFFFFFFFFFFFFFFFFFFFFFFFF
310
FFFFFFFFFFFFFFFFFFFFFFFFFFFFFFFFFFFFFFFFFFFFFFFFFFFFFFFFFFFFFFFF
310
FFFFFFFFFFFFFFFFFFFFFFFFFFFFFFFFFFFFFFFFFFFFFFFFF000FFFFFFFFFFFF
310
FFFFFFFFFFFFFFFFFFFFFFFFFFFFFFFFFFFFFFFFFFFFFFFFFFFFFFFFFFFFFFFF
310
FFFFFFFFFFFFFFFFFFFFFFFFFFFFFFFFFFFFFFFFFFFFFFFFFFFFFFFFFFFFFFFF
310
FFFFFFFFFFFFFFFFFFFFFFFFFFFFFFFFF000FFFFFFFFFFFFFFFFFFFFFFFFFFFF
310
FFFFFFFFFFFFFFFFFFFFFFFFFFFFFFFFFFFFFFFFFFFFFFFFFFFFFFFFFFFFFFFF
310
FFFFFFFFFFFFFFFFFFFFFFFFFFFFFFFFFFFFFFFFFFFFFFFFFFFFFFFFFFFFFFFF
310
FFFFFFFFFFFFFFFFF000FFFFFFFFFFFFFFFFFFFFFFFFFFFFFFFFFFFFFFFFFFFF
310
FFFFFFFFFFFFFFFFFFFFFFFFFFFFFFFFFFFFFFFFFFFFFFFFFFFFFFFFFFFFFFFF
310
FFFFFFFFFFFFFFFFFFFFFFFFFFFFFFFFFFFFFFFFFFFFFFFFFFFFFFFFFFFFFFFF
310
F000FFFFFFFFFFFFFFFFFFFFFFFFFFFFFFFFFFFFFFFFFFFFFFFFFFFFFFFFFFFF
310
FFFFFFFFFFFFFFFFFFFFFFFFFFFFFFFFFFFFFFFFFFFFFFFFFFFFFFFFFFFFFFFF
310
FFFFFFFFFFFFFFFFFFFFFFFFFFFFFFFFFFFFFFFFFFFFFFFFF000FFFFFFFFFFFF
310
FFFFFFFFFFFFFFFFFFFFFFFFFFFFFFFFFFFFFFFFFFFFFFFFFFFFFFFFFFFFFFFF
310
FFFFFFFFFFFFFFFFFFFFFFFFFFFFFFFFFFFFFFFFFFFFFFFFFFFFFFFFFFFFFFFF
310
FFFFFFFFFFFFFFFFFFFFFFFFFFFFFFFFF000FFFFFFFFFFFFFFFFFFFFFFFFFFFF
310
FFFFFFFFFFFFFFFFFFFFFFFFFFFFFFFFFFFFFFFFFFFFFFFFFFFFFFFFFFFFFFFF
310
FFFFFFFFFFFFFFFFFFFFFFFFFFFFFFFFFFFFFFFFFFFFFFFFFFFFFFFFFFFFFFFF
310
FFFFFFFFFFFFFFFFF000FFFFFFFFFFFFFFFFFFFFFFFFFFFFFFFFFFFFFFFFFFFF
310
FFFFFFFFFFFFFFFFFFFFFFFFFFFFFFFFFFFFFFFFFFFFFFFFFFFFFFFFFFFFFFFF
310
FFFFFFFFFFFFFFFFFFFFFFFFFFFFFFFFFFFFFFFFFFFFFFFFFFFFFFFFFFFFFFFF
310
F000FFFFFFFFFFFFFFFFFFFFFFFFFFFFFFFFFFFFFFFFFFFFFFFFFFFFFFFFFFFF
310
FFFFFFFFFFFFFFFFFFFFFFFFFFFFFFFFFFFFFFFFFFFFFFFFFFFFFFFFFFFFFFFF
310
FFFFFFFFFFFFFFFFFFFFFFFFFFFFFFFFFFFFFFFFFFFFFFFFF000FFFFFFFFFFFF
310
FFFFFFFFFFFFFFFFFFFFFFFFFFFFFFFFFFFFFFFFFFFFFFFFFFFFFFFFFFFFFFFF
310
FFFFFFFFFFFFFFFFFFFFFFFFFFFFFFFFFFFFFFFFFFFFFFFFFFFFFFFFFFFFFFFF
310
FFFFFFFFFFFFFFFFFFFFFFFFFFFFFFFFF000FFFFFFFFFFFFFFFFFFFFFFFFFFFF
310
FFFFFFFFFFFFFFFFFFFFFFFFFFFFFFFFFFFFFFFFFFFFFFFFFFFFFFFFFFFFFFFF
310
FFFFFFFFFFFFFFFFFFFFFFFFFFFFFFFFFFFFFFFFFFFFFFFFFFFFFFFFFFFFFFFF
310
FFFFFFFFFFFFFFFFF000FFFFFFFFFFFFFFFFFFFFFFFFFFFFFFFFFFFFFFFFFFFF
310
FFFFFFFFFFFFFFFFFFFFFFFFFFFFFFFFFFFFFFFFFFFFFFFFFFFFFFFFFFFFFFFF
310
FFFFFFFFFFFFFFFFFFFFFFFFFFFFFFFFFFFFFFFFFFFFFFFFFFFFFFFFFFFFFFFF
310
F000FFFFFFFFFFFFFFFFFFFFFFFFFFFFFFFFFFFFFFFFFFFFFFFFFFFFFFFFFFFF
310
FFFFFFFFFFFFFFFFFFFFFFFFFFFFFFFFFFFFFFFFFFFFFFFFFFFFFFFFFFFFFFFF
310
FFFFFFFFFFFFFFFFFFFFFFFFFFFFFFFFFFFFFFFFFFFFFFFFF000FFFFFFFFFFFF
310
FFFFFFFFFFFFFFFFFFFFFFFFFFFFFFFFFFFFFFFFFFFFFFFFFFFFFFFFFFFFFFFF
310
FFFFFFFFFFFFFFFFFFFFFFFFFFFFFFFFFFFFFFFFFFFFFFFFFFFFFFFFFFFFFFFF
310
FFFFFFFFFFFFFFFFFFFFFFFFFFFFFFFFF000FFFFFFFFFFFFFFFFFFFFFFFFFFFF
310
FFFFFFFFFFFFFFFFFFFFFFFFFFFFFFFFFFFFFFFFFFFFFFFFFFFFFFFFFFFFFFFF
310
FFFFFFFFFFFFFFFFFFFFFFFFFFFFFFFFFFFFFFFFFFFFFFFFFFFFFFFFFFFFFFFF
310
FFFFFFFFFFFFFFFFF000FFFFFFFFFFFFFFFFFFFFFFFFFFFFFFFFFFFFFFFFFFFF
310
FFFFFFFFFFFFFFFFFFFFFFFFFFFFFFFFFFFFFFFFFFFFFFFFFFFFFFFFFFFFFFFF
310
FFFFFFFFFFFFFFFFFFFFFFFFFFFFFFFFFFFFFFFFFFFFFFFFFFFFFFFFFFFFFFFF
310
F000FFFFFFFFFFFFFFFFFFFFFFFFFFFFFFFFFFFFFFFFFFFFFFFFFFFFFFFFFFFF
310
FFFFFFFFFFFFFFFFFFFFFFFFFFFFFFFFFFFFFFFFFFFFFFFFFFFFFFFFFFFFFFFF
310
FFFFFFFFFFFFFFFFFFFFFFFFFFFFFFFFFFFFFFFFFFFFFFFFF000FFFFFFFFFFFF
310
FFFFFFFFFFFFFFFFFFFFFFFFFFFFFFFFFFFFFFFFFFFFFFFFFFFFFFFFFFFFFFFF
310
FFFFFFFFFFFFFFFFFFFFFFFFFFFFFFFFFFFFFFFFFFFFFFFFFFFFFFFFFFFFFFFF
310
FFFFFFFFFFFFFFFFFFFFFFFFFFFFFFFFF000FFFFFFFFFFFFFFFFFFFFFFFFFFFF
310
FFFFFFFFFFFFFFFFFFFFFFFFFFFFFFFFFFFFFFFFFFFFFFFFFFFFFFFFFFFFFFFF
310
FFFFFFFFFFFFFFFFFFFFFFFFFFFFFFFFFFFFFFFFFFFFFFFFFFFFFFFFFFFFFFFF
310
FFFFFFFFFFFFFFFFF000FFFFF80003FFFFFFFFFFFFFFFFFFFFFFFFFFFFFFFFFF
310
FFFFF00007FFFFFFFFFF00007FFFFFF800000000000000007FFFFFFFFFFFFFFF
310
FFFFFFFC001FFFFFFFFFFFFFFC001FFFFFFFFFFFFFFFFFFFFFFFFFFE0007FFFF
310
F000FFFF8000007FFFFFFFF8000FFFFFC0007FFFFF80007FFFFF0000007FFFFF
310
FFF8000007FFFFF800000000000000007FFFFFF0001FFFFFFFFFFFC00001FFFF
310
FFFFFFFFC00001FFFFFFFF000000000003FFFFE000007FFFF000FFFE0000000F
310
FFFFFFF0000FFFFF80007FFFFF80007FFFFC0000001FFFFFFFC0000001FFFFF8
310
00000000000000007FFFFFF0001FFFFFFFFFFE0000003FFFFFFFFFFE0000003F
310
FFFFFF000000000003FFFF0000000FFFF000FFF800000003FFFFFFF00007FFFF
310
80007FFFFF80007FFFF000000007FFFFFF000000003FFFF80000000000000000
310
7FFFFFF0001FFFFFFFFFF80000000FFFFFFFFFF80000000FFFFFFF0000000000
310
03FFFC00000003FFF000FFE000000000FFFFFFF00007FFFF80003FFFFF80007F
310
FFC000000001FFFFFC000000001FFFF800000000000000007FFFFFF0001FFFFF
310
FFFFE000000003FFFFFFFFE000000003FFFFFF000000000003FFF000000000FF
310
F000FF80000000007FFFFFF00007FFFF80003FFFFF80007FFF8000000000FFFF
310
F80000000007FFF800000000000000007FFFFFF0001FFFFFFFFFC000000001FF
310
FFFFFFC000000001FFFFFF000000000003FFC0000000007FF000FF0000000000
310
3FFFFFE00007FFFF00003FFFFF80007FFE00000000003FFFF00000000003FFF8
310
00000000000000007FFFFFF0001FFFFFFFFF8000000000FFFFFFFF8000000000
310
FFFFFF000000000003FF80000000003FF000FE00000000001FFFFFE00003FFFF
310
00003FFFFF80007FFC00000000001FFFE00000000001FFF8000001FFFE000000
310
7FFFFFF0001FFFFFFFFE00000000003FFFFFFE00000000003FFFFF0000000000
310
03FF00000000001FF000FC00000000000FFFFFE00003FFFF00001FFFFF80007F
310
F800000000001FFFC00000000000FFF8000001FFFE0000007FFFFFF0001FFFFF
310
FFFC00000000001FFFFFFC00000000001FFFFF000000000003FE00000000000F
310
F000F8000000000007FFFFE00003FFFF00001FFFFF80007FF800000000000FFF
310
800000000000FFF8000001FFFE0000007FFFFFF0001FFFFFFFF800000000000F
310
FFFFF800000000000FFFFF000000000003FC000000000007F000F80000000000
310
03FFFFC00003FFFE00001FFFFF80007FF0000000000007FF0000000000007FF8
310
000001FFFE0000007FFFFFF0001FFFFFFFF0000000000007FFFFF00000000000
310
07FFFF000000000003F8000000000003F000F0000000000003FFFFC00001FFFE
310
00001FFFFF80007FE0000000000007FE0000000000003FF8000001FFFE000000
310
7FFFFFF0001FFFFFFFF0000000000007FFFFF0000000000007FFFF0000000000
310
03F800001F800003F000E00001FFF00001FFFFC00001FFFE00000FFFFF80007F
310
E00001FFE00003FE00001FFF00003FF8000001FFFE0000007FFFFFF0001FFFFF
310
FFE000003E000003FFFFE000003E000003FFFF000000000003F00001FFF80001
310
F000E00007FFFC0001FFFFC00001FFFE00000FFFFF80007FC0000FFFFC0003FC
310
0000FFFFC0001FF8000001FFFE0000007FFFFFF0001FFFFFFFC00003FFE00001
310
FFFFC00003FFE00001FFFF0001FFFFFFFFF00007FFFE0001F000E0000FFFFF00
310
00FFFF800001FFFC00000FFFFF80007FC0001FFFFE0001FC0001FFFFE0001FF8
310
000001FFFE0000007FFFFFF0001FFFFFFF80000FFFF80000FFFF80000FFFF800
310
00FFFF0003FFFFFFFFE0000FFFFF8000F000C0003FFFFF8000FFFF800000FFFC
310
000007FFFF80007F80003FFFFF0001FC0003FFFFF0001FF8000001FFFE000000
310
7FFFFFF0001FFFFFFF80003FFFFE0000FFFF80003FFFFE0000FFFF0003FFFFFF
310
FFE0003FFFFF8000F000C0003FFFFF8000FFFF800000FFFC000007FFFF80007F
310
80007FFFFF8001F80007FFFFF8000FF8000001FFFE0000007FFFFFF0001FFFFF
310
FF00007FFFFF00007FFF00007FFFFF00007FFF0003FFFFFFFFE0003FFFFFC000
310
F000C0007FFFFFC000FFFF000000FFFC000007FFFF80007F8000FFFFFF8000F8
310
000FFFFFF8000FF8000001FFFE0000007FFFFFF0001FFFFFFF0000FFFFFF8000
310
7FFF0000FFFFFF80007FFF0003FFFFFFFFC0007FFFFFC00070008000FFFFFFC0
310
00FFFF000000FFF8000007FFFF80007F8000FFFFFF8000F8000FFFFFF8000FF8
310
000001FFFE0000007FFFFFF0001FFFFFFE0001FFFFFFC0003FFE0001FFFFFFC0
310
003FFF0003FFFFFFFFC0007FFFFFE00070008000FFFFFFC0007FFF0000007FF8
310
000003FFFF80007F0001FFFFFF8000F8000FFFFFF8000FF8000001FFFE000000
310
7FFFFFF0001FFFFFFE0001FFFFFFC0003FFE0001FFFFFFC0003FFF0003FFFFFF
310
FFC000FFFFFFE00070008000FFFFFFC0007FFF0000007FF8000003FFFF80007F
310
0001FFFFFF8000F8001FFFFFF8000FF8000001FFFE0000007FFFFFF0001FFFFF
310
FE0003FFFFFFE0003FFE0003FFFFFFE0003FFF0003FFFFFFFFC000FFFFFFE000
310
70008000FFFFFFC0007FFE0000007FF8000003FFFF80007F0001FFFFFF8000F0
310
001FFFFFF8000FF8000001FFFE0000007FFFFFF0001FFFFFFC0003FFFFFFE000
310
1FFC0003FFFFFFE0001FFF0003FFFFFFFFC000FFFFFFC00070008000FFFFFF80
310
007FFE0000007FF0000003FFFF80007F0001FFFFFF0000F0001FFFFFF8000FF8
310
000001FFFE0000007FFFFFF0001FFFFFFC0007FFFFFFF0001FFC0007FFFFFFF0
310
001FFF0003FFFFFFFFC000FFFFFFC00070008001FFFFFF0000FFFE0000003FF0
310
000001FFFF80007F0001FFFFFF0000F8001FFFFFF0000FF8000001FFFE000000
310
7FFFFFF0001FFFFFFC0007FFFFFFF0001FFC0007FFFFFFF0001FFF0003FFFFFF
310
FFC001FFFFFF80007000FFFFFFFFFE0000FFFE0008003FF0008001FFFF80007F
310
FFFFFFFFFC0000FFFFFFFFFFE0000FF8000001FFFE0000007FFFFFF0001FFFFF
310
F8000FFFFFFFF8000FF8000FFFFFFFF8000FFF0003FFFFFFFFFFFFFFFFFF0000
310
7000FFFFFFFFFC0000FFFC0008003FF0008001FFFF80007FFFFFFFFFF80001FF
310
FFFFFFFF80000FF8000001FFFE0000007FFFFFF0001FFFFFF8000FFFFFFFF800
310
0FF8000FFFFFFFF8000FFF0003FFFFFFFFFFFFFFFFFE0000F000FFFFFFFFE000
310
00FFFC000C003FE000C001FFFF80007FFFFFFFFFC00001FFFFFFFFFE00001FF8
310
000001FFFE0000007FFFFFF0001FFFFFF8000FFFFFFFF8000FF8000FFFFFFFF8
310
000FFF0003FFFFFFFFFFFFFFFFF00000F000FFFFFFFE000001FFFC000C001FE0
310
00C000FFFF80007FFFFFFFFE000001FFFFFFFFE000001FF80FFFFFFFFFFFFFC0
310
7FFFFFF0001FFFFFF8000FFFFFFFF8000FF8000FFFFFFFF8000FFF0003FFFFFF
310
FFFFFFFFFF800000F000FFFFFFC0000001FFFC001C001FE001C000FFFF80007F
310
FFFFFF80000003FFFFFFF80000001FF80FFFFFFFFFFFFFC07FFFFFF0001FFFFF
310
F8001FFFFFFFFC000FF8001FFFFFFFFC000FFF0003FFFFFFFFFFFFFFF0000001
310
F000FFFFF800000001FFF8001C001FE001C000FFFF80007FFFFFF800000003FF
310
FFFF800000003FF80FFFFFFFFFFFFFC07FFFFFF0001FFFFFF8001FFFFFFFFC00
310
0FF8001FFFFFFFFC000FFF0003FFFFFFFFFFFFFE00000001F000FFFFC0000000
310
03FFF8001E001FC001E000FFFF80007FFFFF8000000007FFFFFC000000003FF8
310
0FFFFFFFFFFFFFC07FFFFFF0001FFFFFF8001FFFFFFFFC000FF8001FFFFFFFFC
310
000FFF0003FFFFFFFFFFFFE000000003F000FFFE0000000007FFF8001E000FC0
310
01E0007FFF80007FFFFE0000000007FFFFE0000000007FF80FFFFFFFFFFFFFC0
310
7FFFFFF0001FFFFFF0001FFFFFFFFC0007F0001FFFFFFFFC0007FF0003FFFFFF
310
FFFFFF0000000003F000FFF80000000007FFF8001E000FC003E0007FFF80007F
310
FFF0000000000FFFFF8000000000FFF80FFFFFFFFFFFFFC07FFFFFF0001FFFFF
310
F0001FFFFFFFFC0007F0001FFFFFFFFC0007FF0003FFFFFFFFFFFC0000000007
310
F000FFE0000000000FFFF0003E000FC003E0007FFF80007FFFC0000000001FFF
310
FE0000000001FFF80FFFFFFFFFFFFFC07FFFFFF0001FFFFFF0001FFFFFFFFC00
310
07F0001FFFFFFFFC0007FF0003FFFFFFFFFFF0000000000FF000FFC000000000
310
1FFFF0003F000F8003F0003FFF80007FFF80000000003FFFF80000000003FFF8
310
0FFFFFFFFFFFFFC07FFFFFF0001FFFFFF0001FFFFFFFFC0007F0001FFFFFFFFC
310
0007FF0003FFFFFFFFFFE0000000001FF000FF00000000007FFFF0003F000780
310
03F0003FFF80007FFF00000000007FFFF00000000007FFF80FFFFFFFFFFFFFC0
310
7FFFFFF0001FFFFFF0001FFFFFFFFC0007F0001FFFFFFFFC0007FF0003FFFFFF
310
FFFF80000000007FF000FE0000000000FFFFE0003F00078007F0003FFF80007F
310
FE0000000001FFFFE0000000001FFFF80FFFFFFFFFFFFFC07FFFFFF0001FFFFF
310
F0001FFFFFFFFC0007F0001FFFFFFFFC0007FF0003FFFFFFFFFF0000000000FF
310
F000FC0000000003FFFFE0007F00078007F0003FFF80007FFC0000000007FFFF
310
C0000000007FFFF80FFFFFFFFFFFFFC07FFFFFF0001FFFFFF8001FFFFFFFFC00
310
0FF8001FFFFFFFFC000FFF0003FFFFFFFFFE0000000003FFF000FC000000000F
310
FFFFE0007F80070007F8001FFF80007FF8000000001FFFFF8000000001FFFFF8
310
0FFFFFFFFFFFFFC07FFFFFF0001FFFFFF8001FFFFFFFFC000FF8001FFFFFFFFC
310
000FFF0003FFFFFFFFFC000000000FFFF000F8000000007FFFFFE0007F800700
310
07F8001FFF80007FF000000000FFFFFF800000000FFFFFF80FFFFFFFFFFFFFC0
310
7FFFFFF0001FFFFFF8000FFFFFFFF8000FF8000FFFFFFFF8000FFF0003FFFFFF
310
FFFC000000007FFFF000F800000007FFFFFFC0007F8003000FF8001FFF80007F
310
F000000007FFFFFF000000007FFFFFF80FFFFFFFFFFFFFC07FFFFFF0001FFFFF
310
F8000FFFFFFFF8000FF8000FFFFFFFF8000FFF0003FFFFFFFFF80000000FFFFF
310
F000F0000000FFFFFFFFC000FF8003000FF8001FFF80007FE0000000FFFFFFFF
310
0000000FFFFFFFF8000001FFFE0000007FFFFFF0001FFFFFF8000FFFFFFFF800
310
0FF8000FFFFFFFF8000FFF0003FFFFFFFFF8000000FFFFFFF000F000000FFFFF
310
FFFFC000FFC002000FF8000FFF80007FE000001FFFFFFFFE000001FFFFFFFFF8
310
000001FFFE0000007FFFFFF0001FFFFFF8000FFFFFFFF8000FF8000FFFFFFFF8
310
000FFF0003FFFFFFFFF000001FFFFFFFF000E00000FFFFFFFFFFC000FFC00200
310
0FFC000FFF80007FE00001FFFFFFFFFE00001FFFFFFFFFF8000001FFFE000000
310
7FFFFFF0001FFFFFFC000FFFFFFFF8001FFC000FFFFFFFF8001FFF0003FFFFFF
310
FFF00001FFFFFFFFF000E00007FFFFFFFFFF8000FFC000001FFC000FFF80007F
310
C0000FFFFFFFFFFE0000FFFFFFFFFFF8000001FFFE0000007FFFFFF0001FFFFF
310
FC0007FFFFFFF0001FFC0007FFFFFFF0001FFF0003FFFFFFFFF00007FFFFFFFF
310
F000E0001FFFFFFFFFFF8000FFC000001FFC000FFF80007FC0003FFFFFFFFFFE
310
0001FFFFFFFFFFF8000001FFFE0000007FFFFFF0001FFFFFFC0007FFFFFFF000
310
1FFC0007FFFFFFF0001FFF0003FFFFFFFFF0001FFFFFFFFFF000E0003FFFFF00
310
03FF8001FFE000001FFC0007FF80007FC0007FFFFF0007FC0003FFFFF0003FF8
310
000001FFFE0000007FFFFFF0001FFFFFFC0003FFFFFFE0001FFC0003FFFFFFE0
310
001FFF0003FFFFFFFFF0003FFFFFFFFFF000E0003FFFFF0001FF8001FFE00000
310
1FFE0007FF80007FC0007FFFFE0003FC0007FFFFE0003FF8000001FFFE000000
310
7FFFFFF0001FFFFFFE0003FFFFFFE0003FFE0003FFFFFFE0003FFF0003FFFFFF
310
FFF0003FFFFF8001F000E0003FFFFF0001FF0001FFE000001FFE0007FF80007F
310
C0007FFFFE0003FC0007FFFFE0003FF8000001FFFE0000007FFFFFF0001FFFFF
310
FE0001FFFFFFC0003FFE0001FFFFFFC0003FFF0003FFFFFFFFF0003FFFFF0001
310
F000E0003FFFFF0003FF0001FFE000003FFE0007FF80007FC0007FFFFE0003FC
310
0007FFFFE0003FF8000001FFFE0000007FFFFFF0001FFFFFFF0001FFFFFFC000
310
7FFF0001FFFFFFC0007FFF0003FFFFFFFFF0003FFFFF0001F000E0003FFFFE00
310
03FF0003FFF000003FFE0003FF80007FC0007FFFFC0003FE0007FFFFE0003FF8
310
000001FFFE0000007FFFFFF0001FFFFFFF0000FFFFFF80007FFF0000FFFFFF80
310
007FFF0003FFFFFFFFF0003FFFFF0001F000E0003FFFFE0003FF0003FFF00000
310
3FFF0003FF80007FC0007FFFFC0007FE0007FFFFC0003FF8000001FFFE000000
310
7FFFFFF0001FFFFFFF80007FFFFF0000FFFF80007FFFFF0000FFFF0003FFFFFF
310
FFF0003FFFFF0003F000E0003FFFFC0003FE0003FFF000003FFF0003FF80007F
310
E0003FFFF80007FE0003FFFFC0007FF8000001FFFE0000007FFFFFF0001FFFFF
310
FF80003FFFFE0000FFFF80003FFFFE0000FFFF0003FFFFFFFFF0001FFFFE0003
310
F000F0001FFFF80003FE0003FFF000007FFF0001FF80007FE0003FFFF00007FE
310
0001FFFF80007FF8000001FFFE0000007FFFFFF0001FFFFFFFC0000FFFF80001
310
FFFFC0000FFFF80001FFFF0003FFFFFFFFF0001FFFFC0003F000F0000FFFF000
310
07FE0007FFF800007FFF0001FF80007FE0001FFFE00007FF0000FFFE00007FF8
310
000001FFFE0000007FFFFFF0001FFFFFFFC00003FFE00001FFFFC00003FFE000
310
01FFFF0003FFFFFFFFF8000FFFF80003F000F00003FFC00007FC0007FFF80000
310
7FFF8001FF80007FF00007FF80000FFF00007FF80000FFF8000001FFFE000000
310
7F80000000000001FFE000003E000003FFFFE000003E000003FFFF0003FFFFFF
310
FFF80003FFE00007F000F800000000000FFC0007FFF800007FFF8001FF80007F
310
F000000000000FFF000000000000FFF8000001FFFE0000007F80000000000001
310
FFF0000000000007FFFFF0000000000007FFFF0003FFFFFFFFFC00007E000007
310
F000F800000000000FFC0007FFF80000FFFF8000FF80007FF800000000001FFF
310
800000000001FFF8000001FFFE0000007F80000000000001FFF800000000000F
310
FFFFF800000000000FFFFF0003FFFFFFFFFC00000000000FF000FC0000000000
310
1FFC0007FFFC0000FFFF8000FF80007FF800000000003FFFC00000000001FFF8
310
000001FFFE0000007F80000000000001FFF800000000000FFFFFF80000000000
310
0FFFFF0003FFFFFFFFFE00000000001FF000FE00000000003FF8000FFFFC0000
310
FFFF8000FF80007FFC00000000003FFFC00000000003FFF8000001FFFE000000
310
7F80000000000001FFFC00000000001FFFFFFC00000000001FFFFF0003FFFFFF
310
FFFF00000000001FF000FF00000000003FF8000FFFFC0000FFFFC000FF80007F
310
FE00000000007FFFE00000000007FFF8000001FFFE0000007F80000000000001
310
FFFE00000000003FFFFFFE00000000003FFFFF0003FFFFFFFFFF80000000003F
310
F000FF80000000007FF8000FFFFC0001FFFFC0007F80007FFF0000000000FFFF
310
F0000000000FFFF800000000000000007F80000000000001FFFF8000000000FF
310
FFFFFF8000000000FFFFFF0003FFFFFFFFFFC0000000007FF000FFC000000000
310
FFF8000FFFFE0001FFFFC0007F80007FFF8000000001FFFFF8000000001FFFF8
310
00000000000000007F80000000000001FFFFC000000001FFFFFFFFC000000001
310
FFFFFF0003FFFFFFFFFFE000000000FFF000FFE000000003FFF0001FFFFE0001
310
FFFFC0007F80007FFFC000000007FFFFFE000000003FFFF80000000000000000
310
7F80000000000001FFFFE000000003FFFFFFFFE000000003FFFFFF0003FFFFFF
310
FFFFF000000003FFF000FFF80000000FFFF0001FFFFE0001FFFFE0007F80007F
310
FFF00000000FFFFFFF00000000FFFFF800000000000000007F80000000000001
310
FFFFF80000000FFFFFFFFFF80000000FFFFFFF0003FFFFFFFFFFFC0000000FFF
310
F000FFFE0000003FFFF0001FFFFE0003FFFFE0003F80007FFFFC0000003FFFFF
310
FFC0000003FFFFF800000000000000007F80000000000001FFFFFE0000003FFF
310
FFFFFFFE0000003FFFFFFF0003FFFFFFFFFFFF0000003FFFF000FFFF800000FF
310
FFF0001FFFFF0003FFFFE0003F80007FFFFF000001FFFFFFFFF800001FFFFFF8
310
00000000000000007F80000000000001FFFFFFC00001FFFFFFFFFFFFC00001FF
310
FFFFFF0003FFFFFFFFFFFFC00000FFFFF000FFFFF8000FFFFFFFFFFFFFFFFFFF
310
FFFFFFFFFFFFFFFFFFFFF0001FFFFFFFFFFF0000FFFFFFF80000000000000000
310
7FFFFFFFFFFFFFFFFFFFFFFC001FFFFFFFFFFFFFFC001FFFFFFFFFFFFFFFFFFF
310
FFFFFFFC001FFFFFF000FFFFFFFFFFFFFFFFFFFFFFFFFFFFFFFFFFFFFFFFFFFF
310
FFFFFFFFFFFFFFFFFFFFFFFFFFFFFFFFFFFFFFFFFFFFFFFFFFFFFFFFFFFFFFFF
310
FFFFFFFFFFFFFFFFFFFFFFFFFFFFFFFFFFFFFFFFFFFFFFFFFFFFFFFFFFFFFFFF
310
F000FFFFFFFFFFFFFFFFFFFFFFFFFFFFFFFFFFFFFFFFFFFFFFFFFFFFFFFFFFFF
310
FFFFFFFFFFFFFFFFFFFFFFFFFFFFFFFFFFFFFFFFFFFFFFFFFFFFFFFFFFFFFFFF
310
FFFFFFFFFFFFFFFFFFFFFFFFFFFFFFFFFFFFFFFFFFFFFFFFF000FFFFFFFFFFFF
310
FFFFFFFFFFFFFFFFFFFFFFFFFFFFFFFFFFFFFFFFFFFFFFFFFFFFFFFFFFFFFFFF
310
FFFFFFFFFFFFFFFFFFFFFFFFFFFFFFFFFFFFFFFFFFFFFFFFFFFFFFFFFFFFFFFF
310
FFFFFFFFFFFFFFFFFFFFFFFFFFFFFFFFF000FFFFFFFFFFFFFFFFFFFFFFFFFFFF
310
FFFFFFFFFFFFFFFFFFFFFFFFFFFFFFFFFFFFFFFFFFFFFFFFFFFFFFFFFFFFFFFF
310
FFFFFFFFFFFFFFFFFFFFFFFFFFFFFFFFFFFFFFFFFFFFFFFFFFFFFFFFFFFFFFFF
310
FFFFFFFFFFFFFFFFF000FFFFFFFFFFFFFFFFFFFFFFFFFFFFFFFFFFFFFFFFFFFF
310
FFFFFFFFFFFFFFFFFFFFFFFFFFFFFFFFFFFFFFFFFFFFFFFFFFFFFFFFFFFFFFFF
310
FFFFFFFFFFFFFFFFFFFFFFFFFFFFFFFFFFFFFFFFFFFFFFFFFFFFFFFFFFFFFFFF
310
F000FFFFFFFFFFFFFFFFFFFFFFFFFFFFFFFFFFFFFFFFFFFFFFFFFFFFFFFFFFFF
310
FFFFFFFFFFFFFFFFFFFFFFFFFFFFFFFFFFFFFFFFFFFFFFFFFFFFFFFFFFFFFFFF
310
FFFFFFFFFFFFFFFFFFFFFFFFFFFFFFFFFFFFFFFFFFFFFFFFF000FFFFFFFFFFFF
310
FFFFFFFFFFFFFFFFFFFFFFFFFFFFFFFFFFFFFFFFFFFFFFFFFFFFFFFFFFFFFFFF
310
FFFFFFFFFFFFFFFFFFFFFFFFFFFFFFFFFFFFFFFFFFFFFFFFFFFFFFFFFFFFFFFF
310
FFFFFFFFFFFFFFFFFFFFFFFFFFFFFFFFF000FFFFFFFFFFFFFFFFFFFFFFFFFFFF
310
FFFFFFFFFFFFFFFFFFFFFFFFFFFFFFFFFFFFFFFFFFFFFFFFFFFFFFFFFFFFFFFF
310
FFFFFFFFFFFFFFFFFFFFFFFFFFFFFFFFFFFFFFFFFFFFFFFFFFFFFFFFFFFFFFFF
310
FFFFFFFFFFFFFFFFF000FFFFFFFFFFFFFFFFFFFFFFFFFFFFFFFFFFFFFFFFFFFF
310
FFFFFFFFFFFFFFFFFFFFFFFFFFFFFFFFFFFFFFFFFFFFFFFFFFFFFFFFFFFFFFFF
310
FFFFFFFFFFFFFFFFFFFFFFFFFFFFFFFFFFFFFFFFFFFFFFFFFFFFFFFFFFFFFFFF
310
F000FFFFFFFFFFFFFFFFFFFFFFFFFFFFFFFFFFFFFFFFFFFFFFFFFFFFFFFFFFFF
310
FFFFFFFFFFFFFFFFFFFFFFFFFFFFFFFFFFFFFFFFFFFFFFFFFFFFFFFFFFFFFFFF
310
FFFFFFFFFFFFFFFFFFFFFFFFFFFFFFFFFFFFFFFFFFFFFFFFF000FFFFFFFFFFFF
310
FFFFFFFFFFFFFFFFFFFFFFFFFFFFFFFFFFFFFFFFFFFFFFFFFFFFFFFFFFFFFFFF
310
FFFFFFFFFFFFFFFFFFFFFFFFFFFFFFFFFFFFFFFFFFFFFFFFFFFFFFFFFFFFFFFF
310
FFFFFFFFFFFFFFFFFFFFFFFFFFFFFFFFF000FFFFFFFFFFFFFFFFFFFFFFFFFFFF
310
FFFFFFFFFFFFFFFFFFFFFFFFFFFFFFFFFFFFFFFFFFFFFFFFFFFFFFFFFFFFFFFF
310
FFFFFFFFFFFFFFFFFFFFFFFFFFFFFFFFFFFFFFFFFFFFFFFFFFFFFFFFFFFFFFFF
310
FFFFFFFFFFFFFFFFF000FFFFFFFFFFFFFFFFFFFFFFFFFFFFFFFFFFFFFFFFFFFF
310
FFFFFFFFFFFFFFFFFFFFFFFFFFFFFFFFFFFFFFFFFFFFFFFFFFFFFFFFFFFFFFFF
310
FFFFFFFFFFFFFFFFFFFFFFFFFFFFFFFFFFFFFFFFFFFFFFFFFFFFFFFFFFFFFFFF
310
F000FFFFFFFFFFFFFFFFFFFFFFFFFFFFFFFFFFFFFFFFFFFFFFFFFFFFFFFFFFFF
310
FFFFFFFFFFFFFFFFFFFFFFFFFFFFFFFFFFFFFFFFFFFFFFFFFFFFFFFFFFFFFFFF
310
FFFFFFFFFFFFFFFFFFFFFFFFFFFFFFFFFFFFFFFFFFFFFFFFF000FFFFFFFFFFFF
310
FFFFFFFFFFFFFFFFFFFFFFFFFFFFFFFFFFFFFFFFFFFFFFFFFFFFFFFFFFFFFFFF
310
FFFFFFFFFFFFFFFFFFFFFFFFFFFFFFFFFFFFFFFFFFFFFFFFFFFFFFFFFFFFFFFF
310
FFFFFFFFFFFFFFFFFFFFFFFFFFFFFFFFF000FFFFFFFFFFFFFFFFFFFFFFFFFFFF
310
FFFFFFFFFFFFFFFFFFFFFFFFFFFFFFFFFFFFFFFFFFFFFFFFFFFFFFFFFFFFFFFF
310
FFFFFFFFFFFFFFFFFFFFFFFFFFFFFFFFFFFFFFFFFFFFFFFFFFFFFFFFFFFFFFFF
310
FFFFFFFFFFFFFFFFF000FFFFFFFFFFFFFFFFFFFFFFFFFFFFFFFFFFFFFFFFFFFF
310
FFFFFFFFFFFFFFFFFFFFFFFFFFFFFFFFFFFFFFFFFFFFFFFFFFFFFFFFFFFFFFFF
310
FFFFFFFFFFFFFFFFFFFFFFFFFFFFFFFFFFFFFFFFFFFFFFFFFFFFFFFFFFFFFFFF
310
F000FFFFFFFFFFFFFFFFFFFFFFFFFFFFFFFFFFFFFFFFFFFFFFFFFFFFFFFFFFFF
310
FFFFFFFFFFFFFFFFFFFFFFFFFFFFFFFFFFFFFFFFFFFFFFFFFFFFFFFFFFFFFFFF
310
FFFFFFFFFFFFFFFFFFFFFFFFFFFFFFFFFFFFFFFFFFFFFFFFF000FFFFFFFFFFFF
310
FFFFFFFFFFFFFFFFFFFFFFFFFFFFFFFFFFFFFFFFFFFFFFFFFFFFFFFFFFFFFFFF
310
FFFFFFFFFFFFFFFFFFFFFFFFFFFFFFFFFFFFFFFFFFFFFFFFFFFFFFFFFFFFFFFF
310
FFFFFFFFFFFFFFFFFFFFFFFFFFFFFFFFF000FFFFFFFFFFFFFFFFFFFFFFFFFFFF
310
FFFFFFFFFFFFFFFFFFFFFFFFFFFFFFFFFFFFFFFFFFFFFFFFFFFFFFFFFFFFFFFF
310
FFFFFFFFFFFFFFFFFFFFFFFFFFFFFFFFFFFFFFFFFFFFFFFFFFFFFFFFFFFFFFFF
310
FFFFFFFFFFFFFFFFF000FFFFFFFFFFFFFFFFFFFFFFFFFFFFFFFFFFFFFFFFFFFF
310
FFFFFFFFFFFFFFFFFFFFFFFFFFFFFFFFFFFFFFFFFFFFFFFFFFFFFFFFFFFFFFFF
310
FFFFFFFFFFFFFFFFFFFFFFFFFFFFFFFFFFFFFFFFFFFFFFFFFFFFFFFFFFFFFFFF
310
F000FFFFFFFFFFFFFFFFFFFFFFFFFFFFFFFFFFFFFFFFFFFFFFFFFFFFFFFFFFFF
310
FFFFFFFFFFFFFFFFFFFFFFFFFFFFFFFFFFFFFFFFFFFFFFFFFFFFFFFFFFFFFFFF
310
FFFFFFFFFFFFFFFFFFFFFFFFFFFFFFFFFFFFFFFFFFFFFFFFF000FFFFFFFFFFFF
310
FFFFFFFFFFFFFFFFFFFFFFFFFFFFFFFFFFFFFFFFFFFFFFFFFFFFFFFFFFFFFFFF
310
FFFFFFFFFFFFFFFFFFFFFFFFFFFFFFFFFFFFFFFFFFFFFFFFFFFFFFFFFFFFFFFF
310
FFFFFFFFFFFFFFFFFFFFFFFFFFFFFFFFF0000000000000000000000000000000
310
0000000000000000000000000000000000000000000000000000000000000000
310
0000000000000000000000000000000000000000000000000000000000000000
310
0000000000000000000000000000000000000000000000000000000000000000
310
0000000000000000000000000000000000000000000000000000000000000000
310
0000000000000000000000000000000000000000000000000000000000000000
310
0000000000000000000000000000000000000000000000000000000000000000
310
0000000000000000000000000000000000000000000000000000000000000000
310
0000000000000000000000000000000000000000000000000000000000000000
310
0000000000000000000000000000000000000000000000000000000000000000
310
0000000000000000000000000000000000000000000000000000000000000000
310
0000000000000000000000000000000000000000000000000000000000000000
310
0000000000000000000000000000000000000000000000000000000000000000
310
0000000000000000000000000000000000000000000000000000000000000000
310
0000000000000000000000000000000000000000000000000000000000000000
310
0000000000000000000000000000000000000000000000000000000000000000
  1
OLE
  0
ENDSEC
  0
SECTION
  2
OBJECTS
  0
DICTIONARY
  5
C
330
0
100
AcDbDictionary
281
     1
  3
ACAD_GROUP
350
D
  3
ACAD_LAYOUT
350
1A
  3
ACAD_MLINESTYLE
350
17
  3
ACAD_PLOTSETTINGS
350
19
  3
ACAD_PLOTSTYLENAME
350
E
  3
ACAD_SCALELIST
350
47
  0
DICTIONARY
  5
D
102
{ACAD_REACTORS
330
C
102
}
330
C
100
AcDbDictionary
281
     1
  0
DICTIONARY
  5
1A
102
{ACAD_REACTORS
330
C
102
}
330
C
100
AcDbDictionary
281
     1
  3
Layout1
350
1E
  3
Layout2
350
26
  3
Model
350
22
  0
DICTIONARY
  5
17
102
{ACAD_REACTORS
330
C
102
}
330
C
100
AcDbDictionary
281
     1
  3
Standard
350
18
  0
DICTIONARY
  5
19
102
{ACAD_REACTORS
330
C
102
}
330
C
100
AcDbDictionary
281
     1
  0
ACDBDICTIONARYWDFLT
  5
E
102
{ACAD_REACTORS
330
C
102
}
330
C
100
AcDbDictionary
281
     1
  3
Normal
350
F
100
AcDbDictionaryWithDefault
340
F
  0
DICTIONARY
  5
47
102
{ACAD_REACTORS
330
C
102
}
330
C
100
AcDbDictionary
281
     1
  3
A0
350
48
  3
A1
350
49
  3
A2
350
4A
  3
A3
350
4B
  3
A4
350
4C
  3
A5
350
4D
  3
A6
350
4E
  3
A7
350
4F
  3
A8
350
50
  3
A9
350
51
  3
B0
350
52
  3
B1
350
53
  3
B2
350
54
  3
B3
350
55
  3
B4
350
56
  3
B5
350
57
  3
B6
350
58
  3
B7
350
59
  3
B8
350
5A
  3
B9
350
5B
  3
C0
350
5C
  3
C1
350
5D
  3
C2
350
5E
  3
C3
350
5F
  3
C4
350
60
  3
C5
350
61
  3
C6
350
62
  3
C7
350
63
  3
C8
350
64
  3
C9
350
65
  3
D0
350
66
  3
D1
350
67
  3
D2
350
68
  0
LAYOUT
  5
1E
102
{ACAD_REACTORS
330
1A
102
}
330
1A
100
AcDbPlotSettings
  1

  2
none_device
  4

  6

 40
0.0
 41
0.0
 42
0.0
 43
0.0
 44
0.0
 45
0.0
 46
0.0
 47
0.0
 48
0.0
 49
0.0
140
0.0
141
0.0
142
1.0
143
1.0
 70
   688
 72
     1
 73
     0
 74
     5
  7

 75
    16
147
1.0
148
0.0
149
0.0
100
AcDbLayout
  1
Layout1
 70
     1
 71
     1
 10
0.0
 20
0.0
 11
420.0
 21
297.0
 12
0.0
 22
0.0
 32
0.0
 14
1.0000000000E+20
 24
1.0000000000E+20
 34
1.0000000000E+20
 15
-1.0000000000E+20
 25
-1.0000000000E+20
 35
-1.0000000000E+20
146
0.0
 13
0.0
 23
0.0
 33
0.0
 16
1.0
 26
0.0
 36
0.0
 17
0.0
 27
1.0
 37
0.0
 76
     0
330
1B
  0
LAYOUT
  5
26
102
{ACAD_REACTORS
330
1A
102
}
330
1A
100
AcDbPlotSettings
  1

  2
none_device
  4

  6

 40
0.0
 41
0.0
 42
0.0
 43
0.0
 44
0.0
 45
0.0
 46
0.0
 47
0.0
 48
0.0
 49
0.0
140
0.0
141
0.0
142
1.0
143
1.0
 70
   688
 72
     1
 73
     0
 74
     5
  7

 75
    16
147
1.0
148
0.0
149
0.0
100
AcDbLayout
  1
Layout2
 70
     1
 71
     2
 10
0.0
 20
0.0
 11
0.0
 21
0.0
 12
0.0
 22
0.0
 32
0.0
 14
0.0
 24
0.0
 34
0.0
 15
0.0
 25
0.0
 35
0.0
146
0.0
 13
0.0
 23
0.0
 33
0.0
 16
1.0
 26
0.0
 36
0.0
 17
0.0
 27
1.0
 37
0.0
 76
     0
330
23
  0
LAYOUT
  5
22
102
{ACAD_REACTORS
330
1A
102
}
330
1A
100
AcDbPlotSettings
  1

  2
none_device
  4
Letter_(8.50_x_11.00_Inches)
  6

 40
6.35
 41
6.35
 42
6.35000508
 43
6.35000508
 44
215.9
 45
279.4
 46
0.0
 47
0.0
 48
0.0
 49
0.0
140
0.0
141
0.0
142
1.0
143
1.0
 70
  1712
 72
     1
 73
     0
 74
     0
  7

 75
     0
147
1.0
148
0.0
149
0.0
100
AcDbLayout
  1
Model
 70
     1
 71
     0
 10
0.0
 20
0.0
 11
297.0
 21
210.0
 12
0.0
 22
0.0
 32
0.0
 14
0.0
 24
0.0
 34
0.0
 15
297.0
 25
210.0
 35
0.0
146
0.0
 13
0.0
 23
0.0
 33
0.0
 16
1.0
 26
0.0
 36
0.0
 17
0.0
 27
1.0
 37
0.0
 76
     0
330
1F
331
29
  0
MLINESTYLE
  5
18
102
{ACAD_REACTORS
330
17
102
}
330
17
100
AcDbMlineStyle
  2
Standard
 70
     0
  3

 62
   256
 51
90.0
 52
90.0
 71
     2
 49
0.5
 62
   256
  6
BYLAYER
 49
-0.5
 62
   256
  6
BYLAYER
  0
ACDBPLACEHOLDER
  5
F
102
{ACAD_REACTORS
330
E
102
}
330
E
  0
SCALE
  5
48
102
{ACAD_REACTORS
330
47
102
}
330
47
100
AcDbScale
 70
     0
300
1:1
140
1.0
141
1.0
290
     1
  0
SCALE
  5
49
102
{ACAD_REACTORS
330
47
102
}
330
47
100
AcDbScale
 70
     0
300
1:2
140
1.0
141
2.0
290
     0
  0
SCALE
  5
4A
102
{ACAD_REACTORS
330
47
102
}
330
47
100
AcDbScale
 70
     0
300
1:4
140
1.0
141
4.0
290
     0
  0
SCALE
  5
4B
102
{ACAD_REACTORS
330
47
102
}
330
47
100
AcDbScale
 70
     0
300
1:5
140
1.0
141
5.0
290
     0
  0
SCALE
  5
4C
102
{ACAD_REACTORS
330
47
102
}
330
47
100
AcDbScale
 70
     0
300
1:8
140
1.0
141
8.0
290
     0
  0
SCALE
  5
4D
102
{ACAD_REACTORS
330
47
102
}
330
47
100
AcDbScale
 70
     0
300
1:10
140
1.0
141
10.0
290
     0
  0
SCALE
  5
4E
102
{ACAD_REACTORS
330
47
102
}
330
47
100
AcDbScale
 70
     0
300
1:16
140
1.0
141
16.0
290
     0
  0
SCALE
  5
4F
102
{ACAD_REACTORS
330
47
102
}
330
47
100
AcDbScale
 70
     0
300
1:20
140
1.0
141
20.0
290
     0
  0
SCALE
  5
50
102
{ACAD_REACTORS
330
47
102
}
330
47
100
AcDbScale
 70
     0
300
1:30
140
1.0
141
30.0
290
     0
  0
SCALE
  5
51
102
{ACAD_REACTORS
330
47
102
}
330
47
100
AcDbScale
 70
     0
300
1:40
140
1.0
141
40.0
290
     0
  0
SCALE
  5
52
102
{ACAD_REACTORS
330
47
102
}
330
47
100
AcDbScale
 70
     0
300
1:50
140
1.0
141
50.0
290
     0
  0
SCALE
  5
53
102
{ACAD_REACTORS
330
47
102
}
330
47
100
AcDbScale
 70
     0
300
1:100
140
1.0
141
100.0
290
     0
  0
SCALE
  5
54
102
{ACAD_REACTORS
330
47
102
}
330
47
100
AcDbScale
 70
     0
300
2:1
140
2.0
141
1.0
290
     0
  0
SCALE
  5
55
102
{ACAD_REACTORS
330
47
102
}
330
47
100
AcDbScale
 70
     0
300
4:1
140
4.0
141
1.0
290
     0
  0
SCALE
  5
56
102
{ACAD_REACTORS
330
47
102
}
330
47
100
AcDbScale
 70
     0
300
8:1
140
8.0
141
1.0
290
     0
  0
SCALE
  5
57
102
{ACAD_REACTORS
330
47
102
}
330
47
100
AcDbScale
 70
     0
300
10:1
140
10.0
141
1.0
290
     0
  0
SCALE
  5
58
102
{ACAD_REACTORS
330
47
102
}
330
47
100
AcDbScale
 70
     0
300
100:1
140
100.0
141
1.0
290
     0
  0
SCALE
  5
59
102
{ACAD_REACTORS
330
47
102
}
330
47
100
AcDbScale
 70
     0
300
1/128" = 1'-0"
140
0.0078125
141
12.0
290
     0
  0
SCALE
  5
5A
102
{ACAD_REACTORS
330
47
102
}
330
47
100
AcDbScale
 70
     0
300
1/64" = 1'-0"
140
0.015625
141
12.0
290
     0
  0
SCALE
  5
5B
102
{ACAD_REACTORS
330
47
102
}
330
47
100
AcDbScale
 70
     0
300
1/32" = 1'-0"
140
0.03125
141
12.0
290
     0
  0
SCALE
  5
5C
102
{ACAD_REACTORS
330
47
102
}
330
47
100
AcDbScale
 70
     0
300
1/16" = 1'-0"
140
0.0625
141
12.0
290
     0
  0
SCALE
  5
5D
102
{ACAD_REACTORS
330
47
102
}
330
47
100
AcDbScale
 70
     0
300
3/32" = 1'-0"
140
0.09375
141
12.0
290
     0
  0
SCALE
  5
5E
102
{ACAD_REACTORS
330
47
102
}
330
47
100
AcDbScale
 70
     0
300
1/8" = 1'-0"
140
0.125
141
12.0
290
     0
  0
SCALE
  5
5F
102
{ACAD_REACTORS
330
47
102
}
330
47
100
AcDbScale
 70
     0
300
3/16" = 1'-0"
140
0.1875
141
12.0
290
     0
  0
SCALE
  5
60
102
{ACAD_REACTORS
330
47
102
}
330
47
100
AcDbScale
 70
     0
300
1/4" = 1'-0"
140
0.25
141
12.0
290
     0
  0
SCALE
  5
61
102
{ACAD_REACTORS
330
47
102
}
330
47
100
AcDbScale
 70
     0
300
3/8" = 1'-0"
140
0.375
141
12.0
290
     0
  0
SCALE
  5
62
102
{ACAD_REACTORS
330
47
102
}
330
47
100
AcDbScale
 70
     0
300
1/2" = 1'-0"
140
0.5
141
12.0
290
     0
  0
SCALE
  5
63
102
{ACAD_REACTORS
330
47
102
}
330
47
100
AcDbScale
 70
     0
300
3/4" = 1'-0"
140
0.75
141
12.0
290
     0
  0
SCALE
  5
64
102
{ACAD_REACTORS
330
47
102
}
330
47
100
AcDbScale
 70
     0
300
1" = 1'-0"
140
1.0
141
12.0
290
     0
  0
SCALE
  5
65
102
{ACAD_REACTORS
330
47
102
}
330
47
100
AcDbScale
 70
     0
300
1-1/2" = 1'-0"
140
1.5
141
12.0
290
     0
  0
SCALE
  5
66
102
{ACAD_REACTORS
330
47
102
}
330
47
100
AcDbScale
 70
     0
300
3" = 1'-0"
140
3.0
141
12.0
290
     0
  0
SCALE
  5
67
102
{ACAD_REACTORS
330
47
102
}
330
47
100
AcDbScale
 70
     0
300
6" = 1'-0"
140
6.0
141
12.0
290
     0
  0
SCALE
  5
68
102
{ACAD_REACTORS
330
47
102
}
330
47
100
AcDbScale
 70
     0
300
1'-0" = 1'-0"
140
12.0
141
12.0
290
     0
  0
ENDSEC
  0
EOF
