  0
SECTION
  2
HEADER
  9
$ACADVER
  1
AC1015
  9
$ACADMAINTVER
 70
     6
  9
$DWGCODEPAGE
  3
ANSI_1252
  9
$INSBASE
 10
0.0
 20
0.0
 30
0.0
  9
$EXTMIN
 10
0.0
 20
0.0
 30
0.0
  9
$EXTMAX
 10
297.0
 20
210.0
 30
0.0
  9
$LIMMIN
 10
0.0
 20
0.0
  9
$LIMMAX
 10
297.0
 20
210.0
  9
$ORTHOMODE
 70
     0
  9
$REGENMODE
 70
     1
  9
$FILLMODE
 70
     1
  9
$QTEXTMODE
 70
     0
  9
$MIRRTEXT
 70
     1
  9
$LTSCALE
 40
1.0
  9
$ATTMODE
 70
     1
  9
$TEXTSIZE
 40
2.0
  9
$TRACEWID
 40
1.0
  9
$TEXTSTYLE
  7
Standard
  9
$CLAYER
  8
0
  9
$CELTYPE
  6
ByLayer
  9
$CECOLOR
 62
   256
  9
$CELTSCALE
 40
1.0
  9
$DISPSILH
 70
     0
  9
$DIMSCALE
 40
1.0
  9
$DIMASZ
 40
3.0
  9
$DIMEXO
 40
0.0
  9
$DIMDLI
 40
3.75
  9
$DIMRND
 40
0.0
  9
$DIMDLE
 40
0.0
  9
$DIMEXE
 40
1.0
  9
$DIMTP
 40
0.0
  9
$DIMTM
 40
0.0
  9
$DIMTXT
 40
2.0
  9
$DIMCEN
 40
2.5
  9
$DIMTSZ
 40
0.0
  9
$DIMTOL
 70
     0
  9
$DIMLIM
 70
     0
  9
$DIMTIH
 70
     1
  9
$DIMTOH
 70
     1
  9
$DIMSE1
 70
     0
  9
$DIMSE2
 70
     0
  9
$DIMTAD
 70
     1
  9
$DIMZIN
 70
     0
  9
$DIMBLK
  1

  9
$DIMASO
 70
     1
  9
$DIMSHO
 70
     1
  9
$DIMPOST
  1

  9
$DIMAPOST
  1

  9
$DIMALT
 70
     0
  9
$DIMALTD
 70
     3
  9
$DIMALTF
 40
0.0393700787
  9
$DIMLFAC
 40
1.0
  9
$DIMTOFL
 70
     1
  9
$DIMTVP
 40
0.0
  9
$DIMTIX
 70
     0
  9
$DIMSOXD
 70
     0
  9
$DIMSAH
 70
     0
  9
$DIMBLK1
  1

  9
$DIMBLK2
  1

  9
$DIMSTYLE
  2
ISO-25
  9
$DIMCLRD
 70
     0
  9
$DIMCLRE
 70
     0
  9
$DIMCLRT
 70
     0
  9
$DIMTFAC
 40
1.0
  9
$DIMGAP
 40
1.524
  9
$DIMJUST
 70
     0
  9
$DIMSD1
 70
     0
  9
$DIMSD2
 70
     0
  9
$DIMTOLJ
 70
     0
  9
$DIMTZIN
 70
     0
  9
$DIMALTZ
 70
     0
  9
$DIMALTTZ
 70
     0
  9
$DIMUPT
 70
     0
  9
$DIMDEC
 70
     2
  9
$DIMTDEC
 70
     3
  9
$DIMALTU
 70
     2
  9
$DIMALTTD
 70
     3
  9
$DIMTXSTY
  7
Standard
  9
$DIMAUNIT
 70
     0
  9
$DIMADEC
 70
     2
  9
$DIMALTRND
 40
0.0
  9
$DIMAZIN
 70
     0
  9
$DIMDSEP
 70
    44
  9
$DIMATFIT
 70
     3
  9
$DIMFRAC
 70
     0
  9
$DIMLDRBLK
  1

  9
$DIMLUNIT
 70
     2
  9
$DIMLWD
 70
    -2
  9
$DIMLWE
 70
    -2
  9
$DIMTMOVE
 70
     0
  9
$LUNITS
 70
     2
  9
$LUPREC
 70
     2
  9
$SKETCHINC
 40
1.0
  9
$FILLETRAD
 40
10.0
  9
$AUNITS
 70
     0
  9
$AUPREC
 70
     2
  9
$MENU
  1
.
  9
$ELEVATION
 40
0.0
  9
$PELEVATION
 40
0.0
  9
$THICKNESS
 40
0.0
  9
$LIMCHECK
 70
     0
  9
$CHAMFERA
 40
0.0
  9
$CHAMFERB
 40
0.0
  9
$CHAMFERC
 40
0.0
  9
$CHAMFERD
 40
0.0
  9
$SKPOLY
 70
     0
  9
$TDCREATE
 40
2457674.665275672
  9
$TDUCREATE
 40
2457674.581942338
  9
$TDUPDATE
 40
2457674.665277095
  9
$TDUUPDATE
 40
2457674.581943762
  9
$TDINDWG
 40
0.0000000116
  9
$TDUSRTIMER
 40
0.0000000116
  9
$USRTIMER
 70
     1
  9
$ANGBASE
 50
0.0
  9
$ANGDIR
 70
     0
  9
$PDMODE
 70
     0
  9
$PDSIZE
 40
-1.0
  9
$PLINEWID
 40
0.0
  9
$SPLFRAME
 70
     0
  9
$SPLINETYPE
 70
     6
  9
$SPLINESEGS
 70
     8
  9
$HANDSEED
  5
2D2
  9
$SURFTAB1
 70
     6
  9
$SURFTAB2
 70
     6
  9
$SURFTYPE
 70
     6
  9
$SURFU
 70
     6
  9
$SURFV
 70
     6
  9
$UCSBASE
  2

  9
$UCSNAME
  2

  9
$UCSORG
 10
0.0
 20
0.0
 30
0.0
  9
$UCSXDIR
 10
1.0
 20
0.0
 30
0.0
  9
$UCSYDIR
 10
0.0
 20
1.0
 30
0.0
  9
$UCSORTHOREF
  2

  9
$UCSORTHOVIEW
 70
     0
  9
$UCSORGTOP
 10
0.0
 20
0.0
 30
0.0
  9
$UCSORGBOTTOM
 10
0.0
 20
0.0
 30
0.0
  9
$UCSORGLEFT
 10
0.0
 20
0.0
 30
0.0
  9
$UCSORGRIGHT
 10
0.0
 20
0.0
 30
0.0
  9
$UCSORGFRONT
 10
0.0
 20
0.0
 30
0.0
  9
$UCSORGBACK
 10
0.0
 20
0.0
 30
0.0
  9
$PUCSBASE
  2

  9
$PUCSNAME
  2

  9
$PUCSORG
 10
0.0
 20
0.0
 30
0.0
  9
$PUCSXDIR
 10
1.0
 20
0.0
 30
0.0
  9
$PUCSYDIR
 10
0.0
 20
1.0
 30
0.0
  9
$PUCSORTHOREF
  2

  9
$PUCSORTHOVIEW
 70
     0
  9
$PUCSORGTOP
 10
0.0
 20
0.0
 30
0.0
  9
$PUCSORGBOTTOM
 10
0.0
 20
0.0
 30
0.0
  9
$PUCSORGLEFT
 10
0.0
 20
0.0
 30
0.0
  9
$PUCSORGRIGHT
 10
0.0
 20
0.0
 30
0.0
  9
$PUCSORGFRONT
 10
0.0
 20
0.0
 30
0.0
  9
$PUCSORGBACK
 10
0.0
 20
0.0
 30
0.0
  9
$USERI1
 70
     0
  9
$USERI2
 70
     0
  9
$USERI3
 70
     0
  9
$USERI4
 70
     0
  9
$USERI5
 70
     0
  9
$USERR1
 40
0.0
  9
$USERR2
 40
0.0
  9
$USERR3
 40
0.0
  9
$USERR4
 40
0.0
  9
$USERR5
 40
0.0
  9
$WORLDVIEW
 70
     1
  9
$SHADEDGE
 70
     3
  9
$SHADEDIF
 70
    70
  9
$TILEMODE
 70
     1
  9
$MAXACTVP
 70
    64
  9
$PINSBASE
 10
0.0
 20
0.0
 30
0.0
  9
$PLIMCHECK
 70
     0
  9
$PEXTMIN
 10
1.0000000000E+20
 20
1.0000000000E+20
 30
1.0000000000E+20
  9
$PEXTMAX
 10
-1.0000000000E+20
 20
-1.0000000000E+20
 30
-1.0000000000E+20
  9
$PLIMMIN
 10
0.0
 20
0.0
  9
$PLIMMAX
 10
420.0
 20
297.0
  9
$UNITMODE
 70
     0
  9
$VISRETAIN
 70
     1
  9
$PLINEGEN
 70
     0
  9
$PSLTSCALE
 70
     1
  9
$TREEDEPTH
 70
  3020
  9
$CMLSTYLE
  2
Standard
  9
$CMLJUST
 70
     0
  9
$CMLSCALE
 40
20.0
  9
$PROXYGRAPHICS
 70
     1
  9
$MEASUREMENT
 70
     1
  9
$CELWEIGHT
370
    -1
  9
$ENDCAPS
280
     0
  9
$JOINSTYLE
280
     0
  9
$LWDISPLAY
290
     1
  9
$INSUNITS
 70
     4
  9
$HYPERLINKBASE
  1

  9
$STYLESHEET
  1

  9
$XEDIT
290
     1
  9
$CEPSNTYPE
380
     0
  9
$PSTYLEMODE
290
     1
  9
$FINGERPRINTGUID
  2
{759A3258-534E-40C3-A21F-8DC1F120D721}
  9
$VERSIONGUID
  2
{FAEB1C32-E019-11D5-929B-00C0DF256EC4}
  9
$EXTNAMES
290
     1
  9
$PSVPSCALE
 40
0.0
  9
$OLESTARTUP
290
     0
  0
ENDSEC
  0
SECTION
  2
CLASSES
  0
CLASS
  1
ACDBDICTIONARYWDFLT
  2
AcDbDictionaryWithDefault
  3
ObjectDBX Classes
 90
        0
280
     0
281
     0
  0
CLASS
  1
VISUALSTYLE
  2
AcDbVisualStyle
  3
ObjectDBX Classes
 90
     4095
280
     0
281
     0
  0
CLASS
  1
MATERIAL
  2
AcDbMaterial
  3
ObjectDBX Classes
 90
     1153
280
     0
281
     0
  0
CLASS
  1
SCALE
  2
AcDbScale
  3
ObjectDBX Classes
 90
     1153
280
     0
281
     0
  0
CLASS
  1
TABLESTYLE
  2
AcDbTableStyle
  3
ObjectDBX Classes
 90
     4095
280
     0
281
     0
  0
CLASS
  1
MLEADERSTYLE
  2
AcDbMLeaderStyle
  3
ACDB_MLEADERSTYLE_CLASS
 90
     4095
280
     0
281
     0
  0
CLASS
  1
SUN
  2
AcDbSun
  3
SCENEOE
 90
     1153
280
     0
281
     0
  0
CLASS
  1
ACDBPLACEHOLDER
  2
AcDbPlaceHolder
  3
ObjectDBX Classes
 90
        0
280
     0
281
     0
  0
CLASS
  1
LAYOUT
  2
AcDbLayout
  3
ObjectDBX Classes
 90
        0
280
     0
281
     0
  0
ENDSEC
  0
SECTION
  2
TABLES
  0
TABLE
  2
VPORT
  5
8
330
0
100
AcDbSymbolTable
 70
     1
  0
VPORT
  5
29
330
8
100
AcDbSymbolTableRecord
100
AcDbViewportTableRecord
  2
*Active
 70
     0
 10
0.0
 20
0.0
 11
1.0
 21
1.0
 12
148.5
 22
105.0
 13
0.0
 23
0.0
 14
10.0
 24
10.0
 15
10.0
 25
10.0
 16
0.0
 26
0.0
 36
1.0
 17
0.0
 27
0.0
 37
0.0
 40
210.0
 41
1.4142857143
 42
50.0
 43
0.0
 44
0.0
 50
0.0
 51
0.0
 71
     0
 72
  2000
 73
     1
 74
     3
 75
     0
 76
     0
 77
     0
 78
     0
281
     0
 65
     1
110
0.0
120
0.0
130
0.0
111
1.0
121
0.0
131
0.0
112
0.0
122
1.0
132
0.0
 79
     0
146
0.0
  0
ENDTAB
  0
TABLE
  2
LTYPE
  5
5
330
0
100
AcDbSymbolTable
 70
     6
  0
LTYPE
  5
14
330
5
100
AcDbSymbolTableRecord
100
AcDbLinetypeTableRecord
  2
ByBlock
 70
     0
  3

 72
    65
 73
     0
 40
0.0
  0
LTYPE
  5
15
330
5
100
AcDbSymbolTableRecord
100
AcDbLinetypeTableRecord
  2
ByLayer
 70
     0
  3

 72
    65
 73
     0
 40
0.0
  0
LTYPE
  5
16
330
5
100
AcDbSymbolTableRecord
100
AcDbLinetypeTableRecord
  2
Continuous
 70
     0
  3
Solid line
 72
    65
 73
     0
 40
0.0
  0
LTYPE
  5
6E
330
5
100
AcDbSymbolTableRecord
100
AcDbLinetypeTableRecord
  2
HIDDEN
 70
     0
  3
Hidden __ __ __ __ __ __ __ __ __ __ __ __ __ __
 72
    65
 73
     2
 40
1.905
 49
1.27
 74
     0
 49
-0.635
 74
     0
  0
LTYPE
  5
6F
330
5
100
AcDbSymbolTableRecord
100
AcDbLinetypeTableRecord
  2
PHANTOM
 70
     0
  3
Phantom ______  __  __  ______  __  __  ______
 72
    65
 73
     6
 40
12.7
 49
6.35
 74
     0
 49
-1.27
 74
     0
 49
1.27
 74
     0
 49
-1.27
 74
     0
 49
1.27
 74
     0
 49
-1.27
 74
     0
  0
LTYPE
  5
70
330
5
100
AcDbSymbolTableRecord
100
AcDbLinetypeTableRecord
  2
CENTER
 70
     0
  3
Center ____ _ ____ _ ____ _ ____ _ ____ _ ____
 72
    65
 73
     4
 40
10.16
 49
6.35
 74
     0
 49
-1.27
 74
     0
 49
1.27
 74
     0
 49
-1.27
 74
     0
  0
LTYPE
  5
71
330
5
100
AcDbSymbolTableRecord
100
AcDbLinetypeTableRecord
  2
CENTERX2
 70
     0
  3
Center (2x) ________  __  ________  __  _____
 72
    65
 73
     4
 40
20.32
 49
12.7
 74
     0
 49
-2.54
 74
     0
 49
2.54
 74
     0
 49
-2.54
 74
     0
  0
LTYPE
  5
72
330
5
100
AcDbSymbolTableRecord
100
AcDbLinetypeTableRecord
  2
DOT2
 70
     0
  3
Dot (.5x) ........................................
 72
    65
 73
     2
 40
0.635
 49
0.0
 74
     0
 49
-0.635
 74
     0
  0
ENDTAB
  0
TABLE
  2
LAYER
  5
2
330
0
100
AcDbSymbolTable
 70
     5
  0
LAYER
  5
10
330
2
100
AcDbSymbolTableRecord
100
AcDbLayerTableRecord
  2
0
 70
     0
 62
     7
  6
Continuous
370
    -3
390
F
  0
LAYER
  5
73
330
2
100
AcDbSymbolTableRecord
100
AcDbLayerTableRecord
  2
FORMAT
 70
     0
 62
     7
  6
Continuous
370
    -3
390
F
  0
LAYER
  5
74
330
2
100
AcDbSymbolTableRecord
100
AcDbLayerTableRecord
  2
VERMASSUNG
 70
     0
 62
     7
  6
Continuous
370
    -3
390
F
  0
LAYER
  5
75
330
2
100
AcDbSymbolTableRecord
100
AcDbLayerTableRecord
  2
KOPF_DÜNN
 70
     0
 62
     7
  6
Continuous
370
    -3
390
F
  0
LAYER
  5
76
330
2
100
AcDbSymbolTableRecord
100
AcDbLayerTableRecord
  2
KOPF_DICK
 70
     0
 62
     7
  6
Continuous
370
    15
390
F
  0
ENDTAB
  0
TABLE
  2
STYLE
  5
3
330
0
100
AcDbSymbolTable
 70
     2
  0
STYLE
  5
11
330
3
100
AcDbSymbolTableRecord
100
AcDbTextStyleTableRecord
  2
Standard
 70
     0
 40
0.0
 41
1.0
 50
0.0
 71
     0
 42
2.0
  3
txt
  4

  0
STYLE
  5
77
330
3
100
AcDbSymbolTableRecord
100
AcDbTextStyleTableRecord
  2
SLDTEXTSTYLE0
 70
     0
 40
0.0
 41
0.7
 50
0.0
 71
     0
 42
2.0
  3
TXT
  4

  0
ENDTAB
  0
TABLE
  2
VIEW
  5
6
330
0
100
AcDbSymbolTable
 70
     0
  0
ENDTAB
  0
TABLE
  2
UCS
  5
7
330
0
100
AcDbSymbolTable
 70
     0
  0
ENDTAB
  0
TABLE
  2
APPID
  5
9
330
0
100
AcDbSymbolTable
 70
     1
  0
APPID
  5
12
330
9
100
AcDbSymbolTableRecord
100
AcDbRegAppTableRecord
  2
ACAD
 70
     0
  0
ENDTAB
  0
TABLE
  2
DIMSTYLE
  5
A
330
0
100
AcDbSymbolTable
 70
     2
100
AcDbDimStyleTable
  0
DIMSTYLE
105
27
330
A
100
AcDbSymbolTableRecord
100
AcDbDimStyleTableRecord
  2
ISO-25
 70
     0
 41
2.5
 42
0.625
 43
3.75
 44
1.25
 73
     0
 74
     0
 77
     1
 78
     8
140
2.5
141
2.5
143
0.0393700787
147
0.625
171
     3
172
     1
178
     0
271
     2
272
     2
274
     3
278
    44
283
     0
284
     8
340
11
  0
DIMSTYLE
105
1F5
102
{ACAD_REACTORS
330
1F4
330
201
330
20C
330
218
330
222
330
22C
102
}
330
A
100
AcDbSymbolTableRecord
100
AcDbDimStyleTableRecord
  2
SLDDIMSTYLE0
 70
     0
 41
3.0
 44
0.0
 45
0.000000001
 73
     0
 74
     0
 77
     1
 78
    12
 79
     3
140
2.0
147
0.5
173
     1
178
     0
271
     2
272
     3
276
     2
284
    12
340
77
  0
ENDTAB
  0
TABLE
  2
BLOCK_RECORD
  5
1
330
0
100
AcDbSymbolTable
 70
     7
  0
BLOCK_RECORD
  5
1F
330
1
100
AcDbSymbolTableRecord
100
AcDbBlockTableRecord
  2
*Model_Space
340
22
  0
BLOCK_RECORD
  5
1B
330
1
100
AcDbSymbolTableRecord
100
AcDbBlockTableRecord
  2
*Paper_Space
340
1E
  0
BLOCK_RECORD
  5
23
330
1
100
AcDbSymbolTableRecord
100
AcDbBlockTableRecord
  2
*Paper_Space0
340
26
  0
BLOCK_RECORD
  5
1F6
330
1
100
AcDbSymbolTableRecord
100
AcDbBlockTableRecord
  2
_D
340
0
  0
BLOCK_RECORD
  5
202
330
1
100
AcDbSymbolTableRecord
100
AcDbBlockTableRecord
  2
_D_1
340
0
  0
BLOCK_RECORD
  5
20D
330
1
100
AcDbSymbolTableRecord
100
AcDbBlockTableRecord
  2
_D_2
340
0
  0
BLOCK_RECORD
  5
219
330
1
100
AcDbSymbolTableRecord
100
AcDbBlockTableRecord
  2
_D_3
340
0
  0
BLOCK_RECORD
  5
223
330
1
100
AcDbSymbolTableRecord
100
AcDbBlockTableRecord
  2
_D_4
340
0
  0
BLOCK_RECORD
  5
22D
330
1
100
AcDbSymbolTableRecord
100
AcDbBlockTableRecord
  2
_D_5
340
0
  0
ENDTAB
  0
ENDSEC
  0
SECTION
  2
BLOCKS
  0
BLOCK
  5
20
330
1F
100
AcDbEntity
  8
0
100
AcDbBlockBegin
  2
*Model_Space
 70
     0
 10
0.0
 20
0.0
 30
0.0
  3
*Model_Space
  1

  0
ENDBLK
  5
21
330
1F
100
AcDbEntity
  8
0
100
AcDbBlockEnd
  0
BLOCK
  5
1C
330
1B
100
AcDbEntity
 67
     1
  8
0
100
AcDbBlockBegin
  2
*Paper_Space
 70
     0
 10
0.0
 20
0.0
 30
0.0
  3
*Paper_Space
  1

  0
ENDBLK
  5
1D
330
1B
100
AcDbEntity
 67
     1
  8
0
100
AcDbBlockEnd
  0
BLOCK
  5
24
330
23
100
AcDbEntity
  8
0
100
AcDbBlockBegin
  2
*Paper_Space0
 70
     0
 10
0.0
 20
0.0
 30
0.0
  3
*Paper_Space0
  1

  0
ENDBLK
  5
25
330
23
100
AcDbEntity
  8
0
100
AcDbBlockEnd
  0
BLOCK
  5
1F7
330
1F6
100
AcDbEntity
  8
0
100
AcDbBlockBegin
  2
_D
 70
     0
 10
0.0
 20
0.0
 30
0.0
  3
_D
  1

  0
SOLID
  5
1F9
330
1F6
100
AcDbEntity
  8
VERMASSUNG
100
AcDbTrace
 10
62.2014859762
 20
62.8252773243
 30
0.0
 11
62.6514859762
 21
65.8252773243
 31
0.0
 12
61.7514859762
 22
65.8252773243
 32
0.0
 13
61.7514859762
 23
65.8252773243
 33
0.0
  0
SOLID
  5
1FA
330
1F6
100
AcDbEntity
  8
VERMASSUNG
100
AcDbTrace
 10
62.2014859762
 20
160.2752773243
 30
0.0
 11
61.7514859762
 21
157.2752773243
 31
0.0
 12
62.6514859762
 22
157.2752773243
 32
0.0
 13
62.6514859762
 23
157.2752773243
 33
0.0
  0
LINE
  5
1FB
330
1F6
100
AcDbEntity
  8
VERMASSUNG
100
AcDbLine
 10
192.2514859762
 20
62.8252773243
 30
0.0
 11
61.2014859762
 21
62.8252773243
 31
0.0
  0
LINE
  5
1FC
330
1F6
100
AcDbEntity
  8
VERMASSUNG
100
AcDbLine
 10
192.2514859762
 20
160.2752773243
 30
0.0
 11
61.2014859762
 21
160.2752773243
 31
0.0
  0
LINE
  5
1FD
330
1F6
100
AcDbEntity
  8
VERMASSUNG
100
AcDbLine
 10
62.2014859762
 20
62.8252773243
 30
0.0
 11
62.2014859762
 21
160.2752773243
 31
0.0
  0
MTEXT
  5
1FE
330
1F6
100
AcDbEntity
  8
VERMASSUNG
100
AcDbMText
 10
59.42335072
 20
102.0458416909
 30
0.0
 40
2.0
 41
0.0
 71
     1
 72
     1
  1
ISO 50
  7
SLDTEXTSTYLE0
 11
3.391901413832837E-15
 21
1.0
 31
0.0
 73
     1
 44
1.0
  0
MTEXT
  5
1FF
330
1F6
100
AcDbEntity
  8
VERMASSUNG
100
AcDbMText
 10
59.6233506713
 20
111.0458413035
 30
0.0
 40
2.0
 41
0.0
 71
     1
 72
     1
  1
%%c
  7
SLDTEXTSTYLE0
 11
3.391901413832837E-15
 21
1.0
 31
0.0
 73
     1
 44
1.0
  0
MTEXT
  5
200
330
1F6
100
AcDbEntity
  8
VERMASSUNG
100
AcDbMText
 10
59.6233503803
 20
114.6551846363
 30
0.0
 40
2.0
 41
0.0
 71
     1
 72
     1
  1
97.45
  7
SLDTEXTSTYLE0
 11
3.391901413832837E-15
 21
1.0
 31
0.0
 73
     1
 44
1.0
  0
ENDBLK
  5
1F8
330
1F6
100
AcDbEntity
  8
0
100
AcDbBlockEnd
  0
BLOCK
  5
203
330
202
100
AcDbEntity
  8
0
100
AcDbBlockBegin
  2
_D_1
 70
     0
 10
0.0
 20
0.0
 30
0.0
  3
_D_1
  1

  0
SOLID
  5
205
330
202
100
AcDbEntity
  8
VERMASSUNG
100
AcDbTrace
 10
249.8014859762
 20
93.5502773243
 30
0.0
 11
250.2514859762
 21
96.5502773243
 31
0.0
 12
249.3514859762
 22
96.5502773243
 32
0.0
 13
249.3514859762
 23
96.5502773243
 33
0.0
  0
SOLID
  5
206
330
202
100
AcDbEntity
  8
VERMASSUNG
100
AcDbTrace
 10
249.8014859762
 20
129.5502773243
 30
0.0
 11
249.3514859762
 21
126.5502773243
 31
0.0
 12
250.2514859762
 22
126.5502773243
 32
0.0
 13
250.2514859762
 23
126.5502773243
 33
0.0
  0
LINE
  5
207
330
202
100
AcDbEntity
  8
VERMASSUNG
100
AcDbLine
 10
238.8014859762
 20
93.5502773243
 30
0.0
 11
250.8014859762
 21
93.5502773243
 31
0.0
  0
LINE
  5
208
330
202
100
AcDbEntity
  8
VERMASSUNG
100
AcDbLine
 10
238.8014859762
 20
129.5502773243
 30
0.0
 11
250.8014859762
 21
129.5502773243
 31
0.0
  0
LINE
  5
209
330
202
100
AcDbEntity
  8
VERMASSUNG
100
AcDbLine
 10
249.8014859762
 20
93.5502773243
 30
0.0
 11
249.8014859762
 21
129.5502773243
 31
0.0
  0
MTEXT
  5
20A
330
202
100
AcDbEntity
  8
VERMASSUNG
100
AcDbMText
 10
247.2233504385
 20
108.3461012172
 30
0.0
 40
2.0
 41
0.0
 71
     1
 72
     1
  1
%%c
  7
SLDTEXTSTYLE0
 11
6.123233995736766E-17
 21
1.0
 31
0.0
 73
     1
 44
1.0
  0
MTEXT
  5
20B
330
202
100
AcDbEntity
  8
VERMASSUNG
100
AcDbMText
 10
247.2233503803
 20
111.9550734108
 30
0.0
 40
2.0
 41
0.0
 71
     1
 72
     1
  1
36
  7
SLDTEXTSTYLE0
 11
6.123233995736766E-17
 21
1.0
 31
0.0
 73
     1
 44
1.0
  0
ENDBLK
  5
204
330
202
100
AcDbEntity
  8
0
100
AcDbBlockEnd
  0
BLOCK
  5
20E
330
20D
100
AcDbEntity
  8
0
100
AcDbBlockBegin
  2
_D_2
 70
     0
 10
0.0
 20
0.0
 30
0.0
  3
_D_2
  1

  0
SOLID
  5
210
330
20D
100
AcDbEntity
  8
VERMASSUNG
100
AcDbTrace
 10
255.7014859762
 20
143.0502773243
 30
0.0
 11
255.2514859762
 21
140.0502773243
 31
0.0
 12
256.1514859762
 22
140.0502773243
 32
0.0
 13
256.1514859762
 23
140.0502773243
 33
0.0
  0
SOLID
  5
211
330
20D
100
AcDbEntity
  8
VERMASSUNG
100
AcDbTrace
 10
255.7014859762
 20
80.0502773243
 30
0.0
 11
256.1514859762
 21
83.0502773243
 31
0.0
 12
255.2514859762
 22
83.0502773243
 32
0.0
 13
255.2514859762
 23
83.0502773243
 33
0.0
  0
LINE
  5
212
330
20D
100
AcDbEntity
  8
VERMASSUNG
100
AcDbLine
 10
239.2014859762
 20
143.0502773243
 30
0.0
 11
256.7014859762
 21
143.0502773243
 31
0.0
  0
LINE
  5
213
330
20D
100
AcDbEntity
  8
VERMASSUNG
100
AcDbLine
 10
239.2014859762
 20
80.0502773243
 30
0.0
 11
256.7014859762
 21
80.0502773243
 31
0.0
  0
LINE
  5
214
330
20D
100
AcDbEntity
  8
VERMASSUNG
100
AcDbLine
 10
255.7014859762
 20
143.0502773243
 30
0.0
 11
255.7014859762
 21
80.0502773243
 31
0.0
  0
MTEXT
  5
215
330
20D
100
AcDbEntity
  8
VERMASSUNG
100
AcDbMText
 10
252.92335072
 20
105.8456305683
 30
0.0
 40
2.0
 41
0.0
 71
     1
 72
     1
  1
WH
  7
SLDTEXTSTYLE0
 11
-7.044195017643634E-15
 21
1.0
 31
0.0
 73
     1
 44
1.0
  0
MTEXT
  5
216
330
20D
100
AcDbEntity
  8
VERMASSUNG
100
AcDbMText
 10
253.1233506713
 20
110.8456304566
 30
0.0
 40
2.0
 41
0.0
 71
     1
 72
     1
  1
%%c
  7
SLDTEXTSTYLE0
 11
-7.044195017643634E-15
 21
1.0
 31
0.0
 73
     1
 44
1.0
  0
MTEXT
  5
217
330
20D
100
AcDbEntity
  8
VERMASSUNG
100
AcDbMText
 10
253.1233503803
 20
114.4555440596
 30
0.0
 40
2.0
 41
0.0
 71
     1
 72
     1
  1
63
  7
SLDTEXTSTYLE0
 11
-7.044195017643634E-15
 21
1.0
 31
0.0
 73
     1
 44
1.0
  0
ENDBLK
  5
20F
330
20D
100
AcDbEntity
  8
0
100
AcDbBlockEnd
  0
BLOCK
  5
21A
330
219
100
AcDbEntity
  8
0
100
AcDbBlockBegin
  2
_D_3
 70
     0
 10
0.0
 20
0.0
 30
0.0
  3
_D_3
  1

  0
SOLID
  5
21C
330
219
100
AcDbEntity
  8
VERMASSUNG
100
AcDbTrace
 10
192.8514859762
 20
165.1285714286
 30
0.0
 11
195.8514859762
 21
164.6785714286
 31
0.0
 12
195.8514859762
 22
165.5785714286
 32
0.0
 13
195.8514859762
 23
165.5785714286
 33
0.0
  0
SOLID
  5
21D
330
219
100
AcDbEntity
  8
VERMASSUNG
100
AcDbTrace
 10
239.8014859762
 20
165.1285714286
 30
0.0
 11
236.8014859762
 21
165.5785714286
 31
0.0
 12
236.8014859762
 22
164.6785714286
 32
0.0
 13
236.8014859762
 23
164.6785714286
 33
0.0
  0
LINE
  5
21E
330
219
100
AcDbEntity
  8
VERMASSUNG
100
AcDbLine
 10
192.8514859762
 20
157.8452642775
 30
0.0
 11
192.8514859762
 21
166.1285714286
 31
0.0
  0
LINE
  5
21F
330
219
100
AcDbEntity
  8
VERMASSUNG
100
AcDbLine
 10
239.8014859762
 20
142.4502773243
 30
0.0
 11
239.8014859762
 21
166.1285714286
 31
0.0
  0
LINE
  5
220
330
219
100
AcDbEntity
  8
VERMASSUNG
100
AcDbLine
 10
192.8514859762
 20
165.1285714286
 30
0.0
 11
239.8014859762
 21
165.1285714286
 31
0.0
  0
MTEXT
  5
221
330
219
100
AcDbEntity
  8
VERMASSUNG
100
AcDbMText
 10
213.1267218156
 20
167.7067070245
 30
0.0
 40
2.0
 41
0.0
 71
     1
 72
     1
  1
46.95
  7
SLDTEXTSTYLE0
 73
     1
 44
1.0
  0
ENDBLK
  5
21B
330
219
100
AcDbEntity
  8
0
100
AcDbBlockEnd
  0
BLOCK
  5
224
330
223
100
AcDbEntity
  8
0
100
AcDbBlockBegin
  2
_D_4
 70
     0
 10
0.0
 20
0.0
 30
0.0
  3
_D_4
  1

  0
SOLID
  5
226
330
223
100
AcDbEntity
  8
VERMASSUNG
100
AcDbTrace
 10
239.8014859762
 20
170.7139727977
 30
0.0
 11
236.8014859762
 21
171.1639727977
 31
0.0
 12
236.8014859762
 22
170.2639727977
 32
0.0
 13
236.8014859762
 23
170.2639727977
 33
0.0
  0
SOLID
  5
227
330
223
100
AcDbEntity
  8
VERMASSUNG
100
AcDbTrace
 10
177.0014859762
 20
170.7139727977
 30
0.0
 11
180.0014859762
 21
170.2639727977
 31
0.0
 12
180.0014859762
 22
171.1639727977
 32
0.0
 13
180.0014859762
 23
171.1639727977
 33
0.0
  0
LINE
  5
228
330
223
100
AcDbEntity
  8
VERMASSUNG
100
AcDbLine
 10
239.8014859762
 20
142.4502773243
 30
0.0
 11
239.8014859762
 21
171.7139727977
 31
0.0
  0
LINE
  5
229
330
223
100
AcDbEntity
  8
VERMASSUNG
100
AcDbLine
 10
177.0014859762
 20
157.6392469916
 30
0.0
 11
177.0014859762
 21
171.7139727977
 31
0.0
  0
LINE
  5
22A
330
223
100
AcDbEntity
  8
VERMASSUNG
100
AcDbLine
 10
239.8014859762
 20
170.7139727977
 30
0.0
 11
177.0014859762
 21
170.7139727977
 31
0.0
  0
MTEXT
  5
22B
330
223
100
AcDbEntity
  8
VERMASSUNG
100
AcDbMText
 10
206.0024900957
 20
173.2921083937
 30
0.0
 40
2.0
 41
0.0
 71
     1
 72
     1
  1
62.8
  7
SLDTEXTSTYLE0
 73
     1
 44
1.0
  0
ENDBLK
  5
225
330
223
100
AcDbEntity
  8
0
100
AcDbBlockEnd
  0
BLOCK
  5
22E
330
22D
100
AcDbEntity
  8
0
100
AcDbBlockBegin
  2
_D_5
 70
     0
 10
0.0
 20
0.0
 30
0.0
  3
_D_5
  1

  0
SOLID
  5
230
330
22D
100
AcDbEntity
  8
VERMASSUNG
100
AcDbTrace
 10
239.8014859762
 20
176.2804533541
 30
0.0
 11
236.8014859762
 21
176.7304533541
 31
0.0
 12
236.8014859762
 22
175.8304533541
 32
0.0
 13
236.8014859762
 23
175.8304533541
 33
0.0
  0
SOLID
  5
231
330
22D
100
AcDbEntity
  8
VERMASSUNG
100
AcDbTrace
 10
72.2014859762
 20
176.2804533541
 30
0.0
 11
75.2014859762
 21
175.8304533541
 31
0.0
 12
75.2014859762
 22
176.7304533541
 32
0.0
 13
75.2014859762
 23
176.7304533541
 33
0.0
  0
LINE
  5
232
330
22D
100
AcDbEntity
  8
VERMASSUNG
100
AcDbLine
 10
239.8014859762
 20
142.4502773243
 30
0.0
 11
239.8014859762
 21
177.2804533541
 31
0.0
  0
LINE
  5
233
330
22D
100
AcDbEntity
  8
VERMASSUNG
100
AcDbLine
 10
72.2014859762
 20
129.9291218517
 30
0.0
 11
72.2014859762
 21
177.2804533541
 31
0.0
  0
LINE
  5
234
330
22D
100
AcDbEntity
  8
VERMASSUNG
100
AcDbLine
 10
239.8014859762
 20
176.2804533541
 30
0.0
 11
72.2014859762
 21
176.2804533541
 31
0.0
  0
MTEXT
  5
235
330
22D
100
AcDbEntity
  8
VERMASSUNG
100
AcDbMText
 10
153.101734174
 20
178.8585889501
 30
0.0
 40
2.0
 41
0.0
 71
     1
 72
     1
  1
167.6
  7
SLDTEXTSTYLE0
 73
     1
 44
1.0
  0
ENDBLK
  5
22F
330
22D
100
AcDbEntity
  8
0
100
AcDbBlockEnd
  0
ENDSEC
  0
SECTION
  2
ENTITIES
  0
MTEXT
  5
78
330
1F
100
AcDbEntity
  8
KOPF_DÜNN
100
AcDbMText
 10
13.8892156294
 20
23.8442973028
 30
0.0
 40
3.0
 41
0.0
 71
     1
 72
     1
  1
A14.450.063.066
  7
SLDTEXTSTYLE0
 73
     1
 44
1.0
  0
MTEXT
  5
79
330
1F
100
AcDbEntity
  8
VERMASSUNG
100
AcDbMText
 10
13.9329988022
 20
28.8834360957
 30
0.0
 40
3.0
 41
0.0
 71
     1
 72
     1
  1
Aufnahme_Master shak WH60
  7
SLDTEXTSTYLE0
 73
     1
 44
1.0
  0
MTEXT
  5
7A
330
1F
100
AcDbEntity
  8
VERMASSUNG
100
AcDbMText
 10
98.8601118557
 20
13.8365368761
 30
0.0
 40
2.0
 41
0.0
 71
     1
 72
     1
  1
Datum: 01.09.2011
  7
SLDTEXTSTYLE0
 73
     1
 44
1.0
  0
MTEXT
  5
7B
330
1F
100
AcDbEntity
  8
VERMASSUNG
100
AcDbMText
 10
13.933048693
 20
18.0482802738
 30
0.0
 40
2.0
 41
0.0
 71
     1
 72
     1
  1
DIN 69871 AD/B
  7
SLDTEXTSTYLE0
 73
     1
 44
1.0
  0
MTEXT
  5
7C
330
1F
100
AcDbEntity
  8
VERMASSUNG
100
AcDbMText
 10
13.9808475933
 20
13.9090974274
 30
0.0
 40
2.0
 41
0.0
 71
     1
 72
     1
  1
Gewicht: 3440g
  7
SLDTEXTSTYLE0
 73
     1
 44
1.0
  0
LINE
  5
7D
330
1F
100
AcDbEntity
  8
0
  6
Continuous
 62
     7
370
    15
100
AcDbLine
 10
229.2266940382
 20
142.5750686246
 30
0.0
 11
228.7514848318
 21
143.0502778309
 31
0.0
  0
LINE
  5
7E
330
1F
100
AcDbEntity
  8
0
  6
Continuous
 62
     7
370
    15
100
AcDbLine
 10
214.7514862623
 20
143.0502778309
 30
0.0
 11
214.2753457334
 21
142.5741391646
 31
0.0
  0
ARC
  5
7F
330
1F
100
AcDbEntity
  8
0
  6
Continuous
 62
     7
370
    15
100
AcDbCircle
 10
176.4014859762
 20
76.0252773243
 30
0.0
 40
0.5999999999999943
100
AcDbArc
 50
0.0
 51
90.0
  0
ARC
  5
80
330
1F
100
AcDbEntity
  8
0
  6
Continuous
 62
     7
370
    15
100
AcDbCircle
 10
176.4014859762
 20
147.0752773243
 30
0.0
 40
0.6000000000000227
100
AcDbArc
 50
270.0
 51
0.0
  0
LINE
  5
81
330
1F
100
AcDbEntity
  8
0
  6
Continuous
 62
     7
370
    15
100
AcDbLine
 10
173.8014859762
 20
76.6252784448
 30
0.0
 11
176.4014859833
 21
76.6252784448
 31
0.0
  0
LINE
  5
82
330
1F
100
AcDbEntity
  8
0
  6
Continuous
 62
     7
370
    15
100
AcDbLine
 10
176.4014859833
 20
146.4752762037
 30
0.0
 11
173.8014859762
 21
146.4752762037
 31
0.0
  0
LINE
  5
83
330
1F
100
AcDbEntity
  8
0
  6
Continuous
 62
     7
370
    15
100
AcDbLine
 10
173.8014859762
 20
146.4752762037
 30
0.0
 11
73.912870666
 21
131.9081878679
 31
0.0
  0
LINE
  5
84
330
1F
100
AcDbEntity
  8
0
  6
Continuous
 62
     7
370
    15
100
AcDbLine
 10
73.912870666
 20
91.1923667806
 30
0.0
 11
173.8014859762
 21
76.6252784448
 31
0.0
  0
ARC
  5
85
330
1F
100
AcDbEntity
  8
0
  6
Continuous
 62
     7
370
    15
100
AcDbCircle
 10
195.8514859762
 20
77.0502773243
 30
0.0
 40
3.0
100
AcDbArc
 50
90.0
 51
180.0
  0
ARC
  5
86
330
1F
100
AcDbEntity
  8
0
  6
Continuous
 62
     7
370
    15
100
AcDbCircle
 10
195.8514859762
 20
146.0502773243
 30
0.0
 40
3.0
100
AcDbArc
 50
180.0
 51
270.0
  0
LINE
  5
87
330
1F
100
AcDbEntity
  8
0
  6
Continuous
 62
     7
370
    15
100
AcDbLine
 10
212.0341440346
 20
143.0502778309
 30
0.0
 11
195.8514867034
 21
143.0502778309
 31
0.0
  0
LINE
  5
88
330
1F
100
AcDbEntity
  8
0
  6
Continuous
 62
     7
370
    15
100
AcDbLine
 10
239.2014829126
 20
143.0502778309
 30
0.0
 11
231.4842236843
 21
143.0502778309
 31
0.0
  0
LINE
  5
89
330
1F
100
AcDbEntity
  8
0
  6
Continuous
 62
     7
370
    15
100
AcDbLine
 10
195.8514867034
 20
80.0502768176
 30
0.0
 11
239.2014829126
 21
80.0502768176
 31
0.0
  0
LINE
  5
8A
330
1F
100
AcDbEntity
  8
0
  6
Continuous
 62
     7
370
    15
100
AcDbLine
 10
239.2014829126
 20
80.0502768176
 30
0.0
 11
239.8014856186
 21
80.650277661
 31
0.0
  0
LINE
  5
8B
330
1F
100
AcDbEntity
  8
0
  6
Continuous
 62
     7
370
    15
100
AcDbLine
 10
239.8014856186
 20
142.4502769875
 30
0.0
 11
239.2014829126
 21
143.0502778309
 31
0.0
  0
ARC
  5
8C
330
1F
100
AcDbEntity
  8
0
  6
Continuous
 62
     7
370
    15
100
AcDbCircle
 10
74.2014859762
 20
93.1714327969
 30
0.0
 40
1.999999999999992
100
AcDbArc
 50
180.0
 51
261.7028550302
  0
ARC
  5
8D
330
1F
100
AcDbEntity
  8
0
  6
Continuous
 62
     7
370
    15
100
AcDbCircle
 10
74.2014859762
 20
129.9291218517
 30
0.0
 40
2.00000000000002
100
AcDbArc
 50
98.2971449698
 51
180.0
  0
ARC
  5
8E
330
1F
100
AcDbEntity
  8
0
  6
Continuous
 62
     7
370
    15
100
AcDbCircle
 10
188.0014859762
 20
97.0845353623
 30
0.0
 40
1.999999999999996
100
AcDbArc
 50
192.215685934
 51
340.3453161116
  0
SPLINE
  5
8F
330
1F
100
AcDbEntity
  8
0
  6
Continuous
 62
     7
370
    15
100
AcDbSpline
210
0.0
220
0.0
230
1.0
 70
     8
 71
     3
 72
    11
 73
     7
 74
     0
 42
0.000000001
 43
0.00000001
 40
0.0
 40
0.0
 40
0.0
 40
0.0
 40
0.1845134208637163
 40
0.5180560452053128
 40
0.8676122096798671
 40
1.0
 40
1.0
 40
1.0
 40
1.0
 10
222.2688128855397
 20
116.1400165798636
 30
0.0
 10
222.0229523187438
 20
116.0327605785809
 30
0.0
 10
221.3326526521399
 20
115.7316192329329
 30
0.0
 10
220.0459525746005
 20
115.1702975563468
 30
0.0
 10
218.8503516092077
 20
114.6487215614817
 30
0.0
 10
218.2109571932359
 20
114.3697876062488
 30
0.0
 10
218.0353184845616
 20
114.2931657301755
 30
0.0
  0
SPLINE
  5
90
330
1F
100
AcDbEntity
  8
0
  6
Continuous
 62
     7
370
    15
100
AcDbSpline
210
0.0
220
0.0
230
1.0
 70
     8
 71
     3
 72
    11
 73
     7
 74
     0
 42
0.000000001
 43
0.00000001
 40
0.0
 40
0.0
 40
0.0
 40
0.0
 40
0.2164568647610728
 40
0.4403141590707018
 40
0.7519028845904391
 40
1.0
 40
1.0
 40
1.0
 40
1.0
 10
218.0353184845616
 20
114.2931657301755
 30
0.0
 10
217.9998800446368
 20
113.9787622549973
 30
0.0
 10
217.9277915622897
 20
113.3392061848547
 30
0.0
 10
217.7940233964197
 20
112.1523617570796
 30
0.0
 10
217.6505226307466
 20
110.8792685457997
 30
0.0
 10
217.558695989878
 20
110.0645668325822
 30
0.0
 10
217.5179911461045
 20
109.7034264745684
 30
0.0
  0
SPLINE
  5
91
330
1F
100
AcDbEntity
  8
0
  6
Continuous
 62
     7
370
    15
100
AcDbSpline
210
0.0
220
0.0
230
1.0
 70
     8
 71
     3
 72
    11
 73
     7
 74
     0
 42
0.000000001
 43
0.00000001
 40
0.0
 40
0.0
 40
0.0
 40
0.0
 40
0.2164568931880165
 40
0.4403141562059963
 40
0.7519027747003104
 40
1.0
 40
1.0
 40
1.0
 40
1.0
 10
217.5179911461045
 20
109.7034264745684
 30
0.0
 10
217.7725539603736
 20
109.5155349272072
 30
0.0
 10
218.2903827488936
 20
109.1333280733802
 30
0.0
 10
219.2513319806727
 20
108.4240539736681
 30
0.0
 10
220.2821158831665
 20
107.6632365848076
 30
0.0
 10
220.9417541358596
 20
107.1763603094852
 30
0.0
 10
221.2341582086255
 20
106.9605380686493
 30
0.0
  0
SPLINE
  5
92
330
1F
100
AcDbEntity
  8
0
  6
Continuous
 62
     7
370
    15
100
AcDbSpline
210
0.0
220
0.0
230
1.0
 70
     8
 71
     3
 72
    11
 73
     7
 74
     0
 42
0.000000001
 43
0.00000001
 40
0.0
 40
0.0
 40
0.0
 40
0.0
 40
0.1323878071885303
 40
0.4819432754916451
 40
0.8154865980451423
 40
1.0
 40
1.0
 40
1.0
 40
1.0
 10
221.2341582086255
 20
106.9605380686493
 30
0.0
 10
221.4097969339929
 20
107.0371599901388
 30
0.0
 10
222.0491904280343
 20
107.3160936820046
 30
0.0
 10
223.2447900739073
 20
107.8376719918063
 30
0.0
 10
224.5314915175274
 20
108.3989911975889
 30
0.0
 10
225.2217920735937
 20
108.7001329306892
 30
0.0
 10
225.4676526096036
 20
108.8073889183374
 30
0.0
  0
CIRCLE
  5
93
330
1F
100
AcDbEntity
  8
0
  6
Continuous
 62
     7
370
    15
100
AcDbCircle
 10
221.7514859762
 20
111.5502773243
 30
0.0
 40
4.699999999999998
  0
SPLINE
  5
94
330
1F
100
AcDbEntity
  8
0
  6
Continuous
 62
     7
370
    15
100
AcDbSpline
210
0.0
220
0.0
230
1.0
 70
     8
 71
     3
 72
    11
 73
     7
 74
     0
 42
0.000000001
 43
0.00000001
 40
0.0
 40
0.0
 40
0.0
 40
0.0
 40
0.2164568931880165
 40
0.4403141562059963
 40
0.7519027747003104
 40
1.0
 40
1.0
 40
1.0
 40
1.0
 10
225.9849799480607
 20
113.3971281739445
 30
0.0
 10
225.7304171337915
 20
113.5850197213057
 30
0.0
 10
225.2125883452716
 20
113.9672265751327
 30
0.0
 10
224.2516391134923
 20
114.6765006748447
 30
0.0
 10
223.2208552109986
 20
115.4373180637053
 30
0.0
 10
222.5612169583054
 20
115.9241943390277
 30
0.0
 10
222.2688128855397
 20
116.1400165798636
 30
0.0
  0
SPLINE
  5
95
330
1F
100
AcDbEntity
  8
0
  6
Continuous
 62
     7
370
    15
100
AcDbSpline
210
0.0
220
0.0
230
1.0
 70
     8
 71
     3
 72
    11
 73
     7
 74
     0
 42
0.000000001
 43
0.00000001
 40
0.0
 40
0.0
 40
0.0
 40
0.0
 40
0.2164568647610728
 40
0.4403141590707018
 40
0.7519028845904391
 40
1.0
 40
1.0
 40
1.0
 40
1.0
 10
225.4676526096036
 20
108.8073889183374
 30
0.0
 10
225.5030910495283
 20
109.1217923935155
 30
0.0
 10
225.5751795318754
 20
109.7613484636582
 30
0.0
 10
225.7089476977453
 20
110.9481928914332
 30
0.0
 10
225.8524484634185
 20
112.2212861027132
 30
0.0
 10
225.9442751042872
 20
113.0359878159307
 30
0.0
 10
225.9849799480607
 20
113.3971281739445
 30
0.0
  0
CIRCLE
  5
96
330
1F
100
AcDbEntity
  8
0
  6
Continuous
 62
     7
370
    15
100
AcDbCircle
 10
221.7514859762
 20
111.5502773243
 30
0.0
 40
6.999999999999996
  0
ARC
  5
97
330
1F
100
AcDbEntity
  8
0
  6
Continuous
 62
     7
370
    15
100
AcDbCircle
 10
221.7514859762
 20
111.5502773243
 30
0.0
 40
4.0
100
AcDbArc
 50
233.5691095116
 51
293.5691095116
  0
ARC
  5
98
330
1F
100
AcDbEntity
  8
0
  6
Continuous
 62
     7
370
    15
100
AcDbCircle
 10
221.7514859762
 20
111.5502773243
 30
0.0
 40
4.000000000000005
100
AcDbArc
 50
53.5691095116
 51
113.5691095116
  0
ARC
  5
99
330
1F
100
AcDbEntity
  8
0
  6
Continuous
 62
     7
370
    15
100
AcDbCircle
 10
221.7514859762
 20
111.5502773243
 30
0.0
 40
4.000000000000005
100
AcDbArc
 50
113.5691095116
 51
173.5691095116
  0
ARC
  5
9A
330
1F
100
AcDbEntity
  8
0
  6
Continuous
 62
     7
370
    15
100
AcDbCircle
 10
221.7514859762
 20
111.5502773243
 30
0.0
 40
4.000000000000004
100
AcDbArc
 50
353.5691095116
 51
53.5691095116
  0
ARC
  5
9B
330
1F
100
AcDbEntity
  8
0
  6
Continuous
 62
     7
370
    15
100
AcDbCircle
 10
221.7514859762
 20
111.5502773243
 30
0.0
 40
4.000000000000004
100
AcDbArc
 50
293.5691095116
 51
353.5691095116
  0
ARC
  5
9C
330
1F
100
AcDbEntity
  8
0
  6
Continuous
 62
     7
370
    15
100
AcDbCircle
 10
221.7514859762
 20
111.5502773243
 30
0.0
 40
4.000000000000004
100
AcDbArc
 50
173.5691095116
 51
233.5691095116
  0
LINE
  5
9D
330
1F
100
AcDbEntity
  8
0
  6
Continuous
 62
     7
370
    15
100
AcDbLine
 10
224.9503252711
 20
142.050277667
 30
0.0
 11
225.538597038
 21
142.050277667
 31
0.0
  0
LINE
  5
9E
330
1F
100
AcDbEntity
  8
0
  6
Continuous
 62
     7
370
    15
100
AcDbLine
 10
217.9136505034
 20
142.050277667
 30
0.0
 11
224.9503252711
 21
142.050277667
 31
0.0
  0
LINE
  5
9F
330
1F
100
AcDbEntity
  8
0
  6
Continuous
 62
     7
370
    15
100
AcDbLine
 10
224.550471237
 20
143.0502778309
 30
0.0
 11
228.7514848318
 21
143.0502778309
 31
0.0
  0
LINE
  5
A0
330
1F
100
AcDbEntity
  8
0
  6
Continuous
 62
     7
370
    15
100
AcDbLine
 10
214.7514862623
 20
143.0502778309
 30
0.0
 11
224.550471237
 21
143.0502778309
 31
0.0
  0
LINE
  5
A1
330
1F
100
AcDbEntity
  8
0
  6
Continuous
 62
     7
370
    15
100
AcDbLine
 10
188.1346475017
 20
97.2531300428
 30
0.0
 11
188.1346475017
 21
141.4002778398
 31
0.0
  0
LINE
  5
A2
330
1F
100
AcDbEntity
  8
0
  6
Continuous
 62
     7
370
    15
100
AcDbLine
 10
192.2514853683
 20
141.4002778398
 30
0.0
 11
188.1346475017
 21
141.4002778398
 31
0.0
  0
LINE
  5
A3
330
1F
100
AcDbEntity
  8
0
  6
Continuous
 62
     7
370
    15
100
AcDbLine
 10
188.1346475017
 20
64.8210181313
 30
0.0
 11
192.2514853683
 21
64.8210181313
 31
0.0
  0
LINE
  5
A4
330
1F
100
AcDbEntity
  8
0
  6
Continuous
 62
     7
370
    15
100
AcDbLine
 10
188.1346475017
 20
64.8210181313
 30
0.0
 11
188.1346475017
 21
92.5613364595
 31
0.0
  0
SPLINE
  5
A5
330
1F
100
AcDbEntity
  8
0
  6
Continuous
 62
     7
370
    15
100
AcDbSpline
210
0.0
220
0.0
230
1.0
 70
     8
 71
     3
 72
    34
 73
    30
 74
     0
 42
0.000000001
 43
0.00000001
 40
0.0
 40
0.0
 40
0.0
 40
0.0
 40
0.0624999999999994
 40
0.0624999999999994
 40
0.1249999999999989
 40
0.1249999999999989
 40
0.1874999999999983
 40
0.1874999999999983
 40
0.2499999999999978
 40
0.2499999999999978
 40
0.3124999999999972
 40
0.3124999999999972
 40
0.3749999999999967
 40
0.3749999999999967
 40
0.4999999999999982
 40
0.4999999999999982
 40
0.6249999999999998
 40
0.6249999999999998
 40
0.6875000000000001
 40
0.6875000000000001
 40
0.7500000000000004
 40
0.7500000000000004
 40
0.8125000000000008
 40
0.8125000000000008
 40
0.8750000000000006
 40
0.8750000000000006
 40
0.9375000000000003
 40
0.9375000000000003
 40
1.0
 40
1.0
 40
1.0
 40
1.0
 10
188.1346474836979
 20
92.56133693625537
 30
0.0
 10
188.2940393114858
 20
92.56917703217813
 30
0.0
 10
188.4500417949293
 20
92.59083568026855
 30
0.0
 10
188.7555513110065
 20
92.66068390776137
 30
0.0
 10
188.9064456460187
 20
92.70950961008961
 30
0.0
 10
189.1943449907096
 20
92.83243356349693
 30
0.0
 10
189.3302913936693
 20
92.90574107163124
 30
0.0
 10
189.5864740092613
 20
93.07575169540259
 30
0.0
 10
189.7076562970204
 20
93.17362548760403
 30
0.0
 10
189.9248023688932
 20
93.38620966303598
 30
0.0
 10
190.0217642418535
 20
93.50125560156557
 30
0.0
 10
190.192326677679
 20
93.7491167216857
 30
0.0
 10
190.265566730891
 20
93.88215021875129
 30
0.0
 10
190.4404471876398
 20
94.29165823488141
 30
0.0
 10
190.5014851486157
 20
94.58961888465646
 30
0.0
 10
190.5014868038388
 20
95.18106044053087
 30
0.0
 10
190.4404521942525
 20
95.48123399050745
 30
0.0
 10
190.2655624268506
 20
95.8964652707752
 30
0.0
 10
190.1923187214262
 20
96.03182038902203
 30
0.0
 10
190.0217580056896
 20
96.28471972040866
 30
0.0
 10
189.9247942900961
 20
96.4024849980164
 30
0.0
 10
189.7076339615089
 20
96.62061529338504
 30
0.0
 10
189.5864527028221
 20
96.72131861853201
 30
0.0
 10
189.3302824758834
 20
96.89656231136523
 30
0.0
 10
189.1943391262207
 20
96.97230728045584
 30
0.0
 10
188.9064364230375
 20
97.09947565575808
 30
0.0
 10
188.7555462271208
 20
97.15007692808555
 30
0.0
 10
188.4500407234152
 20
97.2225060278334
 30
0.0
 10
188.2940393251517
 20
97.24499179923038
 30
0.0
 10
188.1346474836979
 20
97.25313025912523
 30
0.0
  0
SPLINE
  5
A6
330
1F
100
AcDbEntity
  8
0
  6
Continuous
 62
     7
370
    15
100
AcDbSpline
210
0.0
220
0.0
230
1.0
 70
     8
 71
     3
 72
     8
 73
     4
 74
     0
 42
0.000000001
 43
0.00000001
 40
0.0
 40
0.0
 40
0.0
 40
0.0
 40
1.0
 40
1.0
 40
1.0
 40
1.0
 10
182.991485976236
 20
66.93053791542667
 30
0.0
 10
182.7017575302114
 20
66.40831790526313
 30
0.0
 10
182.4117323799937
 20
65.88626452300316
 30
0.0
 10
182.1214381457319
 20
65.36436225728006
 30
0.0
  0
SPLINE
  5
A7
330
1F
100
AcDbEntity
  8
0
  6
Continuous
 62
     7
370
    15
100
AcDbSpline
210
0.0
220
0.0
230
1.0
 70
     8
 71
     3
 72
     8
 73
     4
 74
     0
 42
0.000000001
 43
0.00000001
 40
0.0
 40
0.0
 40
0.0
 40
0.0
 40
0.0011862984959113
 40
0.0011862984959113
 40
0.0011862984959113
 40
0.0011862984959113
 10
181.6683244687741
 20
64.82101798291043
 30
0.0
 10
181.820349230645
 20
65.00192983252842
 30
0.0
 10
181.9714066758607
 20
65.18304216296927
 30
0.0
 10
182.1214381457319
 20
65.36436225728006
 30
0.0
  0
LINE
  5
A8
330
1F
100
AcDbEntity
  8
0
  6
Continuous
 62
     7
370
    15
100
AcDbLine
 10
181.6683249232
 20
64.8210181313
 30
0.0
 11
181.6683249232
 21
141.4002778398
 31
0.0
  0
SPLINE
  5
A9
330
1F
100
AcDbEntity
  8
0
  6
Continuous
 62
     7
370
    15
100
AcDbSpline
210
0.0
220
0.0
230
1.0
 70
    24
 71
     3
 72
     8
 73
     4
 74
     0
 42
0.000000001
 43
0.00000001
 40
0.0
 40
0.0
 40
0.0
 40
0.0
 40
1.0
 40
1.0
 40
1.0
 40
1.0
 10
182.991485976236
 20
141.4002773242564
 30
0.0
 10
182.5562858715324
 20
141.4002773242564
 30
0.0
 10
182.1149261887935
 20
141.4002773242564
 30
0.0
 10
181.6683244687741
 20
141.4002773242564
 30
0.0
  0
LINE
  5
AA
330
1F
100
AcDbEntity
  8
0
  6
Continuous
 62
     7
370
    15
100
AcDbLine
 10
182.9914856386
 20
66.9305382686
 30
0.0
 11
182.9914856386
 21
141.4002778398
 31
0.0
  0
LINE
  5
AB
330
1F
100
AcDbEntity
  8
0
  6
Continuous
 62
     7
370
    15
100
AcDbLine
 10
177.6014860403
 20
64.8210181313
 30
0.0
 11
181.6683249232
 21
64.8210181313
 31
0.0
  0
LINE
  5
AC
330
1F
100
AcDbEntity
  8
0
  6
Continuous
 62
     7
370
    15
100
AcDbLine
 10
181.6683249232
 20
141.4002778398
 30
0.0
 11
177.6014860403
 21
141.4002778398
 31
0.0
  0
LINE
  5
AD
330
1F
100
AcDbEntity
  8
0
  6
Continuous
 62
     7
370
    15
100
AcDbLine
 10
186.8114858549
 20
97.7530155721
 30
0.0
 11
186.8114858549
 21
141.4002778398
 31
0.0
  0
SPLINE
  5
AE
330
1F
100
AcDbEntity
  8
0
  6
Continuous
 62
     7
370
    15
100
AcDbSpline
210
0.0
220
0.0
230
1.0
 70
    24
 71
     3
 72
     8
 73
     4
 74
     0
 42
0.000000001
 43
0.00000001
 40
0.0
 40
0.0
 40
0.0
 40
0.0
 40
1.0
 40
1.0
 40
1.0
 40
1.0
 10
188.1346474836979
 20
141.4002773242564
 30
0.0
 10
187.6880457636785
 20
141.4002773242564
 30
0.0
 10
187.2466860809396
 20
141.4002773242564
 30
0.0
 10
186.811485976236
 20
141.4002773242564
 30
0.0
  0
SPLINE
  5
AF
330
1F
100
AcDbEntity
  8
0
  6
Continuous
 62
     7
370
    15
100
AcDbSpline
210
0.0
220
0.0
230
1.0
 70
     8
 71
     3
 72
    10
 73
     6
 74
     0
 42
0.000000001
 43
0.00000001
 40
0.0
 40
0.0
 40
0.0
 40
0.0
 40
0.5
 40
0.5
 40
1.0
 40
1.0
 40
1.0
 40
1.0
 10
188.1346474836979
 20
97.25313025912523
 30
0.0
 10
187.9119204568245
 20
97.39661875941898
 30
0.0
 10
187.6902345695994
 20
97.51133950515188
 30
0.0
 10
187.2490137317474
 20
97.68109993450975
 30
0.0
 10
187.0294550843486
 20
97.73651992889711
 30
0.0
 10
186.8114859762363
 20
97.75301525826677
 30
0.0
  0
SPLINE
  5
B0
330
1F
100
AcDbEntity
  8
0
  6
Continuous
 62
     7
370
    15
100
AcDbSpline
210
0.0
220
0.0
230
1.0
 70
     8
 71
     3
 72
    10
 73
     6
 74
     0
 42
0.000000001
 43
0.00000001
 40
0.0
 40
0.0
 40
0.0
 40
0.0
 40
0.5
 40
0.5
 40
1.0
 40
1.0
 40
1.0
 40
1.0
 10
177.2171460073901
 20
64.9168230570642
 30
0.0
 10
177.2657965759697
 20
64.8888660657968
 30
0.0
 10
177.3231817879291
 20
64.86492378076998
 30
0.0
 10
177.4538948960952
 20
64.83080531767426
 30
0.0
 10
177.5266344298337
 20
64.82101798291043
 30
0.0
 10
177.601485976236
 20
64.82101798291043
 30
0.0
  0
SPLINE
  5
B1
330
1F
100
AcDbEntity
  8
0
  6
Continuous
 62
     7
370
    15
100
AcDbSpline
210
0.0
220
0.0
230
1.0
 70
     8
 71
     3
 72
    10
 73
     6
 74
     0
 42
0.000000001
 43
0.00000001
 40
0.0
 40
0.0
 40
0.0
 40
0.0
 40
0.5
 40
0.5
 40
1.0
 40
1.0
 40
1.0
 40
1.0
 10
177.2171460073901
 20
64.91682305706419
 30
0.0
 10
177.1589580008078
 20
64.98440678724302
 30
0.0
 10
177.1065155342816
 20
65.06488302188478
 30
0.0
 10
177.0281632271029
 20
65.24791864486751
 30
0.0
 10
177.0014859762359
 20
65.35379434766314
 30
0.0
 10
177.0014859762359
 20
65.46130765688375
 30
0.0
  0
LINE
  5
B2
330
1F
100
AcDbEntity
  8
0
  6
Continuous
 62
     7
370
    15
100
AcDbLine
 10
177.0014858954
 20
65.4613061267
 30
0.0
 11
177.0014858954
 21
141.4002778398
 31
0.0
  0
SPLINE
  5
B3
330
1F
100
AcDbEntity
  8
0
  6
Continuous
 62
     7
370
    15
100
AcDbSpline
210
0.0
220
0.0
230
1.0
 70
    24
 71
     3
 72
    12
 73
     8
 74
     0
 42
0.000000001
 43
0.00000001
 40
0.0
 40
0.0
 40
0.0
 40
0.0
 40
0.25
 40
0.25
 40
0.5
 40
0.5
 40
1.0
 40
1.0
 40
1.0
 40
1.0
 10
177.601485976236
 20
141.4002773242564
 30
0.0
 10
177.5110763414729
 20
141.4002773242564
 30
0.0
 10
177.422851416346
 20
141.4002773242565
 30
0.0
 10
177.2691774748378
 20
141.4002773242564
 30
0.0
 10
177.2035742550763
 20
141.4002773242564
 30
0.0
 10
177.0496869147518
 20
141.4002773242564
 30
0.0
 10
177.001485976236
 20
141.4002773242564
 30
0.0
 10
177.001485976236
 20
141.4002773242564
 30
0.0
  0
SPLINE
  5
B4
330
1F
100
AcDbEntity
  8
0
  6
Continuous
 62
     7
370
    15
100
AcDbSpline
210
0.0
220
0.0
230
1.0
 70
     8
 71
     3
 72
    12
 73
     8
 74
     0
 42
0.000000001
 43
0.00000001
 40
0.0
 40
0.0
 40
0.0
 40
0.0
 40
0.2499999999999992
 40
0.2499999999999992
 40
0.4999999999999984
 40
0.4999999999999984
 40
1.0
 40
1.0
 40
1.0
 40
1.0
 10
192.251485976236
 20
64.82101798291043
 30
0.0
 10
192.3474587294109
 20
64.82101798291043
 30
0.0
 10
192.4398866935653
 20
64.83729130701902
 30
0.0
 10
192.5963167936748
 20
64.89066502901544
 30
0.0
 10
192.6597952184476
 20
64.92679328654977
 30
0.0
 10
192.8080743792748
 20
65.04749448282904
 30
0.0
 10
192.851485976236
 20
65.14134406919422
 30
0.0
 10
192.851485976236
 20
65.23564834414142
 30
0.0
  0
SPLINE
  5
B5
330
1F
100
AcDbEntity
  8
0
  6
Continuous
 62
     7
370
    15
100
AcDbSpline
210
0.0
220
0.0
230
1.0
 70
    24
 71
     3
 72
    14
 73
    10
 74
     0
 42
0.000000001
 43
0.00000001
 40
0.0
 40
0.0
 40
0.0
 40
0.0
 40
0.25
 40
0.25
 40
0.5
 40
0.5
 40
0.75
 40
0.75
 40
1.0
 40
1.0
 40
1.0
 40
1.0
 10
192.851485976236
 20
141.4002773242564
 30
0.0
 10
192.851485976236
 20
141.4002773242564
 30
0.0
 10
192.8394162500765
 20
141.4002773242565
 30
0.0
 10
192.7896521669841
 20
141.4002773242564
 30
0.0
 10
192.7521007398628
 20
141.4002773242564
 30
0.0
 10
192.6495010081606
 20
141.4002773242564
 30
0.0
 10
192.5843563874391
 20
141.4002773242564
 30
0.0
 10
192.4297545236611
 20
141.4002773242564
 30
0.0
 10
192.3408298105833
 20
141.4002773242564
 30
0.0
 10
192.2514859762366
 20
141.4002773242564
 30
0.0
  0
LINE
  5
B6
330
1F
100
AcDbEntity
  8
0
  6
Continuous
 62
     7
370
    15
100
AcDbLine
 10
192.8514862117
 20
65.2356466668
 30
0.0
 11
192.8514862117
 21
141.4002778398
 31
0.0
  0
SPLINE
  5
B7
330
1F
100
AcDbEntity
  8
0
  6
Continuous
 62
     7
370
    15
100
AcDbSpline
210
0.0
220
0.0
230
1.0
 70
     8
 71
     3
 72
    14
 73
    10
 74
     0
 42
0.000000001
 43
0.00000001
 40
0.0
 40
0.0
 40
0.0
 40
0.0
 40
0.25
 40
0.25
 40
0.5
 40
0.5
 40
0.75
 40
0.75
 40
1.0
 40
1.0
 40
1.0
 40
1.0
 10
186.811485976236
 20
97.79862948027926
 30
0.0
 10
186.811485976236
 20
97.8406058621328
 30
0.0
 10
186.7818430222648
 20
97.8684562497737
 30
0.0
 10
186.6751881885347
 20
97.88195512506371
 30
0.0
 10
186.5989097939306
 20
97.86733962302601
 30
0.0
 10
186.430858250864
 20
97.79525041885782
 30
0.0
 10
186.3397384442558
 20
97.73811280837506
 30
0.0
 10
186.1670613320031
 20
97.5958851077838
 30
0.0
 10
186.086138892475
 20
97.51232128227171
 30
0.0
 10
186.011485976236
 20
97.41895161037581
 30
0.0
  0
SPLINE
  5
B8
330
1F
100
AcDbEntity
  8
0
  6
Continuous
 62
     7
370
    15
100
AcDbSpline
210
0.0
220
0.0
230
1.0
 70
     8
 71
     3
 72
    10
 73
     6
 74
     0
 42
0.000000001
 43
0.00000001
 40
0.0
 40
0.0
 40
0.0
 40
0.0
 40
0.5
 40
0.5
 40
1.0
 40
1.0
 40
1.0
 40
1.0
 10
186.8114859762363
 20
93.62097405963546
 30
0.0
 10
187.0283768087571
 20
93.38393512018692
 30
0.0
 10
187.2475294454159
 20
93.18176488519342
 30
0.0
 10
187.6890139456848
 20
92.83101281367472
 30
0.0
 10
187.9122164109582
 20
92.68233672127788
 30
0.0
 10
188.1346474836979
 20
92.56133693625536
 30
0.0
  0
LINE
  5
B9
330
1F
100
AcDbEntity
  8
0
  6
Continuous
 62
     7
370
    15
100
AcDbLine
 10
186.8114858549
 20
93.6665891128
 30
0.0
 11
186.8114858549
 21
93.6209747958
 31
0.0
  0
SPLINE
  5
BA
330
1F
100
AcDbEntity
  8
0
  6
Continuous
 62
     7
370
    15
100
AcDbSpline
210
0.0
220
0.0
230
1.0
 70
     8
 71
     3
 72
    16
 73
    12
 74
     0
 42
0.000000001
 43
0.00000001
 40
0.0
 40
0.0
 40
0.0
 40
0.0
 40
0.2500000000000043
 40
0.2500000000000043
 40
0.5000000000000087
 40
0.5000000000000087
 40
0.6250000000000084
 40
0.6250000000000084
 40
0.7500000000000083
 40
0.7500000000000083
 40
1.0
 40
1.0
 40
1.0
 40
1.0
 10
186.011485976236
 20
94.57498776732251
 30
0.0
 10
186.0854938664582
 20
94.48464018713686
 30
0.0
 10
186.1661118614471
 20
94.3966806143372
 30
0.0
 10
186.3398798469514
 20
94.2203456902756
 30
0.0
 10
186.4306309778929
 20
94.1347384496096
 30
0.0
 10
186.5567440753543
 20
94.0135427535846
 30
0.0
 10
186.5963208362176
 20
93.97501117459375
 30
0.0
 10
186.6688034929188
 20
93.9006151884644
 30
0.0
 10
186.7017314833877
 20
93.86459840054292
 30
0.0
 10
186.7815216533826
 20
93.76584572472592
 30
0.0
 10
186.811485976236
 20
93.70908172294382
 30
0.0
 10
186.811485976236
 20
93.66658828164826
 30
0.0
  0
SPLINE
  5
BB
330
1F
100
AcDbEntity
  8
0
  6
Continuous
 62
     7
370
    15
100
AcDbSpline
210
0.0
220
0.0
230
1.0
 70
     8
 71
     3
 72
    16
 73
    12
 74
     0
 42
0.000000001
 43
0.00000001
 40
0.0
 40
0.0
 40
0.0
 40
0.0
 40
0.2500000000000006
 40
0.2500000000000006
 40
0.5000000000000011
 40
0.5000000000000011
 40
0.7500000000000017
 40
0.7500000000000017
 40
0.8750000000000008
 40
0.8750000000000008
 40
1.0
 40
1.0
 40
1.0
 40
1.0
 10
186.011485976236
 20
97.41895161037581
 30
0.0
 10
185.8460718697559
 20
97.21206537435049
 30
0.0
 10
185.7198745387803
 20
96.98619667654174
 30
0.0
 10
185.5454682404495
 20
96.49732743092892
 30
0.0
 10
185.5016382013526
 20
96.24556037758437
 30
0.0
 10
185.5013345283826
 20
95.73378105300212
 30
0.0
 10
185.5451913884429
 20
95.48272634391944
 30
0.0
 10
185.6751131477101
 20
95.12187777577738
 30
0.0
 10
185.729227959118
 20
95.00460500742882
 30
0.0
 10
185.8559049492615
 20
94.78211605609002
 30
0.0
 10
185.9287786696222
 20
94.67595544784675
 30
0.0
 10
186.011485976236
 20
94.57498776732251
 30
0.0
  0
SPLINE
  5
BC
330
1F
100
AcDbEntity
  8
0
  6
Continuous
 62
     7
370
    15
100
AcDbSpline
210
0.0
220
0.0
230
1.0
 70
     8
 71
     3
 72
    14
 73
    10
 74
     0
 42
0.000000001
 43
0.00000001
 40
0.0
 40
0.0
 40
0.0
 40
0.0
 40
0.25
 40
0.25
 40
0.5
 40
0.5
 40
0.75
 40
0.75
 40
1.0
 40
1.0
 40
1.0
 40
1.0
 10
183.791485976236
 20
67.90251105838665
 30
0.0
 10
183.6850409683267
 20
67.90251105838665
 30
0.0
 10
183.5781422170532
 20
67.87994150895355
 30
0.0
 10
183.3819239616108
 20
67.79349841771162
 30
0.0
 10
183.2922656481463
 20
67.72919450004447
 30
0.0
 10
183.1468119352652
 20
67.57422498600152
 30
0.0
 10
183.0887761525391
 20
67.48145949975779
 30
0.0
 10
183.0114909981544
 20
67.2829926181144
 30
0.0
 10
182.991485976236
 20
67.17596819632062
 30
0.0
 10
182.991485976236
 20
67.0691858358498
 30
0.0
  0
SPLINE
  5
BD
330
1F
100
AcDbEntity
  8
0
  6
Continuous
 62
     7
370
    15
100
AcDbSpline
210
0.0
220
0.0
230
1.0
 70
    24
 71
     3
 72
    14
 73
    10
 74
     0
 42
0.000000001
 43
0.00000001
 40
0.0
 40
0.0
 40
0.0
 40
0.0
 40
0.25
 40
0.25
 40
0.5
 40
0.5
 40
0.75
 40
0.75
 40
1.0
 40
1.0
 40
1.0
 40
1.0
 10
183.791485976236
 20
141.4002773242564
 30
0.0
 10
183.6685046766897
 20
141.4002773242564
 30
0.0
 10
183.5483147882877
 20
141.4002773242565
 30
0.0
 10
183.3432909586085
 20
141.4002773242564
 30
0.0
 10
183.2566964698064
 20
141.4002773242564
 30
0.0
 10
183.121588583044
 20
141.4002773242564
 30
0.0
 10
183.0730654980159
 20
141.4002773242564
 30
0.0
 10
183.0073829892891
 20
141.4002773242564
 30
0.0
 10
182.991485976236
 20
141.4002773242564
 30
0.0
 10
182.991485976236
 20
141.4002773242564
 30
0.0
  0
SPLINE
  5
BE
330
1F
100
AcDbEntity
  8
0
  6
Continuous
 62
     7
370
    15
100
AcDbSpline
210
0.0
220
0.0
230
1.0
 70
    24
 71
     3
 72
    14
 73
    10
 74
     0
 42
0.000000001
 43
0.00000001
 40
0.0
 40
0.0
 40
0.0
 40
0.0
 40
0.25
 40
0.25
 40
0.5
 40
0.5
 40
0.75
 40
0.75
 40
1.0
 40
1.0
 40
1.0
 40
1.0
 10
186.811485976236
 20
141.4002773242564
 30
0.0
 10
186.811485976236
 20
141.4002773242564
 30
0.0
 10
186.7952049414602
 20
141.4002773242565
 30
0.0
 10
186.7305418789356
 20
141.4002773242564
 30
0.0
 10
186.6810620826469
 20
141.4002773242564
 30
0.0
 10
186.5470923255081
 20
141.4002773242564
 30
0.0
 10
186.4609775989087
 20
141.4002773242564
 30
0.0
 10
186.2555214831957
 20
141.4002773242564
 30
0.0
 10
186.1341009460029
 20
141.4002773242564
 30
0.0
 10
186.011485976236
 20
141.4002773242564
 30
0.0
  0
LINE
  5
BF
330
1F
100
AcDbEntity
  8
0
  6
Continuous
 62
     7
370
    15
100
AcDbLine
 10
186.0114862826
 20
67.902511211
 30
0.0
 11
183.7914861422
 21
67.902511211
 31
0.0
  0
LINE
  5
C0
330
1F
100
AcDbEntity
  8
0
  6
Continuous
 62
     7
370
    15
100
AcDbLine
 10
186.0114862826
 20
141.4002778398
 30
0.0
 11
183.7914861422
 21
141.4002778398
 31
0.0
  0
SPLINE
  5
C1
330
1F
100
AcDbEntity
  8
0
  6
Continuous
 62
     7
370
    15
100
AcDbSpline
210
0.0
220
0.0
230
1.0
 70
     8
 71
     3
 72
     8
 73
     4
 74
     0
 42
0.000000001
 43
0.00000001
 40
0.0000000000000004
 40
0.0000000000000004
 40
0.0000000000000004
 40
0.0000000000000004
 40
0.0011862984959128
 40
0.0011862984959128
 40
0.0011862984959128
 40
0.0011862984959128
 10
187.6815338067362
 20
65.36436225728006
 30
0.0
 10
187.8315652766075
 20
65.18304216296903
 30
0.0
 10
187.9826227218269
 20
65.00192983252866
 30
0.0
 10
188.1346474836979
 20
64.82101798291043
 30
0.0
  0
SPLINE
  5
C2
330
1F
100
AcDbEntity
  8
0
  6
Continuous
 62
     7
370
    15
100
AcDbSpline
210
0.0
220
0.0
230
1.0
 70
     8
 71
     3
 72
     8
 73
     4
 74
     0
 42
0.000000001
 43
0.00000001
 40
0.0
 40
0.0
 40
0.0
 40
0.0
 40
1.0
 40
1.0
 40
1.0
 40
1.0
 10
187.6815338067392
 20
65.36436225728173
 30
0.0
 10
187.3912395724777
 20
65.88626452300429
 30
0.0
 10
187.1012144222603
 20
66.40831790526369
 30
0.0
 10
186.811485976236
 20
66.93053791542667
 30
0.0
  0
LINE
  5
C3
330
1F
100
AcDbEntity
  8
0
  6
Continuous
 62
     7
370
    15
100
AcDbLine
 10
186.8114858549
 20
66.9305382686
 30
0.0
 11
186.8114858549
 21
93.6209747958
 31
0.0
  0
SPLINE
  5
C4
330
1F
100
AcDbEntity
  8
0
  6
Continuous
 62
     7
370
    15
100
AcDbSpline
210
0.0
220
0.0
230
1.0
 70
     8
 71
     3
 72
    14
 73
    10
 74
     0
 42
0.000000001
 43
0.00000001
 40
0.0
 40
0.0
 40
0.0
 40
0.0
 40
0.25
 40
0.25
 40
0.5
 40
0.5
 40
0.75
 40
0.75
 40
1.0
 40
1.0
 40
1.0
 40
1.0
 10
186.811485976236
 20
67.06918583584981
 30
0.0
 10
186.811485976236
 20
67.17624982219061
 30
0.0
 10
186.791502149996
 20
67.28298914856512
 30
0.0
 10
186.7140670675625
 20
67.4817390507559
 30
0.0
 10
186.6561281454031
 20
67.57429326724844
 30
0.0
 10
186.5104903396423
 20
67.72939021065402
 30
0.0
 10
186.4217013433069
 20
67.79313036756689
 30
0.0
 10
186.2251529831024
 20
67.87987892465449
 30
0.0
 10
186.1190137534031
 20
67.90251105838665
 30
0.0
 10
186.011485976236
 20
67.90251105838665
 30
0.0
  0
LINE
  5
C5
330
1F
100
AcDbEntity
  8
0
  6
Continuous
 62
     7
370
    15
100
AcDbLine
 10
173.8014859762
 20
76.6252784448
 30
0.0
 11
173.8014859762
 21
146.4752762037
 31
0.0
  0
CIRCLE
  5
C6
330
1F
100
AcDbEntity
  8
0
  6
Continuous
 62
     7
370
    15
100
AcDbCircle
 10
221.7514859762
 20
111.5502773243
 30
0.0
 40
7.25
  0
SPLINE
  5
C7
330
1F
100
AcDbEntity
  8
0
  6
Continuous
 62
     7
370
    15
100
AcDbSpline
210
0.0
220
0.0
230
1.0
 70
    11
 71
     3
 72
    96
 73
    92
 74
     0
 42
0.000000001
 43
0.00000001
 40
0.0
 40
0.0
 40
0.0
 40
0.0
 40
0.0312499999999999
 40
0.0312499999999999
 40
0.046875
 40
0.046875
 40
0.0625000000000002
 40
0.0625000000000002
 40
0.0937500000000004
 40
0.0937500000000004
 40
0.1093750000000007
 40
0.1093750000000007
 40
0.125000000000001
 40
0.125000000000001
 40
0.1562500000000016
 40
0.1562500000000016
 40
0.1718750000000019
 40
0.1718750000000019
 40
0.1875000000000023
 40
0.1875000000000023
 40
0.2187500000000029
 40
0.2187500000000029
 40
0.2343750000000033
 40
0.2343750000000033
 40
0.2500000000000038
 40
0.2500000000000038
 40
0.2812500000000043
 40
0.2812500000000043
 40
0.2968750000000046
 40
0.2968750000000046
 40
0.3125000000000049
 40
0.3125000000000049
 40
0.3437500000000053
 40
0.3437500000000053
 40
0.3593750000000056
 40
0.3593750000000056
 40
0.3750000000000058
 40
0.3750000000000058
 40
0.390625000000006
 40
0.390625000000006
 40
0.4062500000000062
 40
0.4062500000000062
 40
0.4375000000000068
 40
0.4375000000000068
 40
0.453125000000007
 40
0.453125000000007
 40
0.4687500000000073
 40
0.4687500000000073
 40
0.5000000000000075
 40
0.5000000000000075
 40
0.5312500000000079
 40
0.5312500000000079
 40
0.5468750000000079
 40
0.5468750000000079
 40
0.5625000000000078
 40
0.5625000000000078
 40
0.5937500000000075
 40
0.5937500000000075
 40
0.6250000000000072
 40
0.6250000000000072
 40
0.6562500000000069
 40
0.6562500000000069
 40
0.6875000000000066
 40
0.6875000000000066
 40
0.7187500000000063
 40
0.7187500000000063
 40
0.750000000000006
 40
0.750000000000006
 40
0.7656250000000058
 40
0.7656250000000058
 40
0.7812500000000054
 40
0.7812500000000054
 40
0.8125000000000046
 40
0.8125000000000046
 40
0.8281250000000042
 40
0.8281250000000042
 40
0.8437500000000039
 40
0.8437500000000039
 40
0.8750000000000031
 40
0.8750000000000031
 40
0.8906250000000028
 40
0.8906250000000028
 40
0.9062500000000023
 40
0.9062500000000023
 40
0.921875000000002
 40
0.921875000000002
 40
0.9375000000000016
 40
0.9375000000000016
 40
0.9687500000000009
 40
0.9687500000000009
 40
1.0
 40
1.0
 40
1.0
 40
1.0
 10
215.2512944257057
 20
117.9182183232307
 30
0.0
 10
215.7240622291894
 20
118.2908813283683
 30
0.0
 10
216.2244364062149
 20
118.6135129405298
 30
0.0
 10
217.0129659999212
 20
119.0299768455966
 30
0.0
 10
217.282192438306
 20
119.1574475699758
 30
0.0
 10
217.8334201388948
 20
119.3898688014991
 30
0.0
 10
218.1166858203639
 20
119.495207866648
 30
0.0
 10
218.9765539035091
 20
119.7737572901937
 30
0.0
 10
219.5592623423486
 20
119.9091249508025
 30
0.0
 10
220.4470027928771
 20
120.0402029050406
 30
0.0
 10
220.7452102472837
 20
120.0718180657583
 30
0.0
 10
221.3462920971326
 20
120.1105404944639
 30
0.0
 10
221.6504407414815
 20
120.1175540868787
 30
0.0
 10
222.5546123421605
 20
120.1010571077806
 30
0.0
 10
223.1497503745512
 20
120.0409558710016
 30
0.0
 10
224.0312224524308
 20
119.8782711208672
 30
0.0
 10
224.3231633583469
 20
119.8118800147847
 30
0.0
 10
224.9031826837993
 20
119.6540194133588
 30
0.0
 10
225.1922702347824
 20
119.5620794910361
 30
0.0
 10
226.0375227299821
 20
119.2528723974508
 30
0.0
 10
226.5764605062556
 20
119.0016674759103
 30
0.0
 10
227.347834868719
 20
118.555741238195
 30
0.0
 10
227.5987475326078
 20
118.3955024154124
 30
0.0
 10
228.0875645807184
 20
118.0505046750807
 30
0.0
 10
228.3261369990204
 20
117.8649840646247
 30
0.0
 10
229.0058359207165
 20
117.2822402314584
 30
0.0
 10
229.4164890547756
 20
116.8559593507706
 30
0.0
 10
229.9654216894516
 20
116.1558212987366
 30
0.0
 10
230.1371419251541
 20
115.9122484660084
 30
0.0
 10
230.4562736745432
 20
115.40291856796
 30
0.0
 10
230.6030334317713
 20
115.1376428708026
 30
0.0
 10
230.9926555819698
 20
114.3299134191909
 30
0.0
 10
231.190101572423
 20
113.7686728156984
 30
0.0
 10
231.3862745960312
 20
112.8899742185023
 30
0.0
 10
231.4350218256376
 20
112.5884210277072
 30
0.0
 10
231.4948422530033
 20
111.9863659198515
 30
0.0
 10
231.5062786205961
 20
111.6860408902847
 30
0.0
 10
231.4930860937446
 20
111.0867630040792
 30
0.0
 10
231.4684557215564
 20
110.7878102026847
 30
0.0
 10
231.3828303912362
 20
110.1912866930646
 30
0.0
 10
231.3211984160743
 20
109.8918949884055
 30
0.0
 10
231.0862107387164
 20
109.0175120546973
 30
0.0
 10
230.8635817338667
 20
108.461277014536
 30
0.0
 10
230.4369252132188
 20
107.664062652285
 30
0.0
 10
230.2792722428642
 20
107.4053114211143
 30
0.0
 10
229.9408620162632
 20
106.9109434064447
 30
0.0
 10
229.7593384995438
 20
106.6738295749798
 30
0.0
 10
229.1795030452929
 20
105.9910809355642
 30
0.0
 10
228.7416924768594
 20
105.5708628205937
 30
0.0
 10
227.8052097117262
 20
104.8282389165635
 30
0.0
 10
227.3052758005296
 20
104.5028554919732
 30
0.0
 10
226.5094530163319
 20
104.0800545923168
 30
0.0
 10
226.2358086681678
 20
103.9499376987856
 30
0.0
 10
225.6828586871283
 20
103.7158275687097
 30
0.0
 10
225.4024447052848
 20
103.6111763629031
 30
0.0
 10
224.5496888315405
 20
103.3332019250483
 30
0.0
 10
223.9659255426776
 20
103.1955520100362
 30
0.0
 10
222.7671306870579
 20
103.0168820126985
 30
0.0
 10
222.1655094521169
 20
102.9781475019653
 30
0.0
 10
220.9677995349104
 20
102.9983074223872
 30
0.0
 10
220.3700752882935
 20
103.0569509244844
 30
0.0
 10
219.1769899547102
 20
103.2762278972308
 30
0.0
 10
218.5986789895342
 20
103.4337484690111
 30
0.0
 10
217.4783971444203
 20
103.8423361404036
 30
0.0
 10
216.9355930174097
 20
104.0937269339718
 30
0.0
 10
215.8911667198246
 20
104.6973233068884
 30
0.0
 10
215.4048341516499
 20
105.0405610523207
 30
0.0
 10
214.7293460106665
 20
105.6189976654114
 30
0.0
 10
214.5132498226597
 20
105.8224825721586
 30
0.0
 10
214.1001009628258
 20
106.2520821841913
 30
0.0
 10
213.9022295504142
 20
106.4792427749338
 30
0.0
 10
213.3451898775412
 20
107.1908099368354
 30
0.0
 10
213.0292365345006
 20
107.6951100687356
 30
0.0
 10
212.6414226370805
 20
108.4987203822309
 30
0.0
 10
212.5266133658928
 20
108.7745083462547
 30
0.0
 10
212.3279759205692
 20
109.3431331781876
 30
0.0
 10
212.2440694934525
 20
109.6374818203823
 30
0.0
 10
212.0487158072034
 20
110.5204193425353
 30
0.0
 10
211.9896230424561
 20
111.1165826700537
 30
0.0
 10
212.0103361890263
 20
112.0224438931353
 30
0.0
 10
212.0360657749836
 20
112.3280600147805
 30
0.0
 10
212.1232854195027
 20
112.9263978521649
 30
0.0
 10
212.1846109172021
 20
113.2208612090394
 30
0.0
 10
212.341355941109
 20
113.8007561186504
 30
0.0
 10
212.436778973536
 20
114.0861866993511
 30
0.0
 10
212.6615440962405
 20
114.6480995947571
 30
0.0
 10
212.7905620389426
 20
114.9231972904945
 30
0.0
 10
213.2176024340065
 20
115.71662672756
 30
0.0
 10
213.5575833192775
 20
116.2097254156605
 30
0.0
 10
214.3420294408068
 20
117.129187206827
 30
0.0
 10
214.778526622222
 20
117.5455553180931
 30
0.0
 10
215.2512944257057
 20
117.9182183232307
 30
0.0
  0
SPLINE
  5
C8
330
1F
100
AcDbEntity
  8
0
  6
Continuous
 62
     7
370
    15
100
AcDbSpline
210
0.0
220
0.0
230
1.0
 70
     8
 71
     3
 72
    25
 73
    21
 74
     0
 42
0.000000001
 43
0.00000001
 40
0.0
 40
0.0
 40
0.0
 40
0.0
 40
0.0086222598824892
 40
0.054529900467591
 40
0.1392556192487674
 40
0.2294801916576704
 40
0.2801140593058747
 40
0.3319168039530568
 40
0.3887263719028985
 40
0.4470005232565217
 40
0.5071791049115213
 40
0.5690642793278795
 40
0.6298711057962091
 40
0.692487186440073
 40
0.7523356959386919
 40
0.8142142493528263
 40
0.86914512483314
 40
0.9262489541336355
 40
0.9731358336557475
 40
1.0
 40
1.0
 40
1.0
 40
1.0
 10
231.4842236843278
 20
143.04620981389
 30
0.0
 10
231.4895929183496
 20
143.0474746246511
 30
0.0
 10
231.5235496536824
 20
143.0554736882208
 30
0.0
 10
231.3047638732945
 20
143.003771865897
 30
0.0
 10
230.5532104232457
 20
142.8303397896264
 30
0.0
 10
229.1687868210913
 20
142.5498907886105
 30
0.0
 10
227.7288833652514
 20
142.3122153077677
 30
0.0
 10
226.4061087037272
 20
142.1324032347102
 30
0.0
 10
224.9112216110112
 20
141.9812174480713
 30
0.0
 10
223.2609897427765
 20
141.8808245594458
 30
0.0
 10
221.5223576361635
 20
141.8511034251087
 30
0.0
 10
219.7649895621065
 20
141.9015593179864
 30
0.0
 10
218.0408729166602
 20
142.0283983135993
 30
0.0
 10
216.4405242237752
 20
142.2138181604162
 30
0.0
 10
214.9873917785006
 20
142.4365793273077
 30
0.0
 10
213.7957245792443
 20
142.6573210347308
 30
0.0
 10
212.8649648300762
 20
142.8522028707756
 30
0.0
 10
212.2925409861768
 20
142.9817710390429
 30
0.0
 10
212.0157474447012
 20
143.0468967103708
 30
0.0
 10
212.0292321625547
 20
143.0437253780321
 30
0.0
 10
212.0341440346409
 20
143.0425702052684
 30
0.0
  0
LINE
  5
C9
330
1F
100
AcDbEntity
  8
0
  6
Continuous
 62
     7
370
    15
100
AcDbLine
 10
239.2014829126
 20
111.5502773243
 30
0.0
 11
239.2014829126
 21
80.0502768176
 31
0.0
  0
LINE
  5
CA
330
1F
100
AcDbEntity
  8
0
  6
Continuous
 62
     7
370
    15
100
AcDbLine
 10
239.2014829126
 20
143.0502778309
 30
0.0
 11
239.2014829126
 21
111.5502773243
 31
0.0
  0
LINE
  5
CB
330
1F
100
AcDbEntity
  8
0
  6
Continuous
 62
     7
370
    15
100
AcDbLine
 10
239.8014856186
 20
111.5502773243
 30
0.0
 11
239.8014856186
 21
80.650277661
 31
0.0
  0
LINE
  5
CC
330
1F
100
AcDbEntity
  8
0
  6
Continuous
 62
     7
370
    15
100
AcDbLine
 10
239.8014856186
 20
142.4502769875
 30
0.0
 11
239.8014856186
 21
111.5502773243
 31
0.0
  0
SPLINE
  5
CD
330
1F
100
AcDbEntity
  8
0
  6
Continuous
 62
     7
370
    15
100
AcDbSpline
210
0.0
220
0.0
230
1.0
 70
     8
 71
     3
 72
    14
 73
    10
 74
     0
 42
0.000000001
 43
0.00000001
 40
0.0
 40
0.0
 40
0.0
 40
0.0
 40
0.25
 40
0.25
 40
0.5
 40
0.5
 40
0.75
 40
0.75
 40
1.0
 40
1.0
 40
1.0
 40
1.0
 10
177.001485976236
 20
149.2993584389167
 30
0.0
 10
177.0014859762375
 20
149.3890821172585
 30
0.0
 10
177.0136994296844
 20
149.4779306927964
 30
0.0
 10
177.0632772850946
 20
149.6490088140999
 30
0.0
 10
177.1011409747349
 20
149.7319004093561
 30
0.0
 10
177.2034050280911
 20
149.8783945266389
 30
0.0
 10
177.2696302133814
 20
149.9436692521517
 30
0.0
 10
177.423317537504
 20
150.0350347732691
 30
0.0
 10
177.511837914668
 20
150.0613552759316
 30
0.0
 10
177.601485976236
 20
150.0613552759316
 30
0.0
  0
LINE
  5
CE
330
1F
100
AcDbEntity
  8
0
  6
Continuous
 62
     7
370
    15
100
AcDbLine
 10
177.6014860403
 20
150.061356129
 30
0.0
 11
181.6683249232
 21
150.061356129
 31
0.0
  0
SPLINE
  5
CF
330
1F
100
AcDbEntity
  8
0
  6
Continuous
 62
     7
370
    15
100
AcDbSpline
210
0.0
220
0.0
230
1.0
 70
     8
 71
     3
 72
     8
 73
     4
 74
     0
 42
0.000000001
 43
0.00000001
 40
0.0
 40
0.0
 40
0.0
 40
0.0
 40
1.0
 40
1.0
 40
1.0
 40
1.0
 10
181.6683244687741
 20
150.0613552759316
 30
0.0
 10
182.1151731967018
 20
149.0821193776753
 30
0.0
 10
182.5565395545976
 20
148.1009173849484
 30
0.0
 10
182.991485976236
 20
147.117413066566
 30
0.0
  0
LINE
  5
D0
330
1F
100
AcDbEntity
  8
0
  6
Continuous
 62
     7
370
    15
100
AcDbLine
 10
182.9914856386
 20
147.117411943
 30
0.0
 11
182.9914856386
 21
146.9433216768
 31
0.0
  0
SPLINE
  5
D1
330
1F
100
AcDbEntity
  8
0
  6
Continuous
 62
     7
370
    15
100
AcDbSpline
210
0.0
220
0.0
230
1.0
 70
     8
 71
     3
 72
    12
 73
     8
 74
     0
 42
0.000000001
 43
0.00000001
 40
0.0
 40
0.0
 40
0.0
 40
0.0
 40
0.499999999999994
 40
0.499999999999994
 40
0.749999999999997
 40
0.749999999999997
 40
1.0
 40
1.0
 40
1.0
 40
1.0
 10
182.991485976236
 20
146.9433204259735
 30
0.0
 10
182.991485976236
 20
146.7008973299927
 30
0.0
 10
183.0544071176778
 20
146.4551268093913
 30
0.0
 10
183.2564360146803
 20
146.1501806299745
 30
0.0
 10
183.3427297393275
 20
146.059587763376
 30
0.0
 10
183.5482035338942
 20
145.9291542004392
 30
0.0
 10
183.6681540944939
 20
145.8901593857895
 30
0.0
 10
183.791485976236
 20
145.8901593857895
 30
0.0
  0
LINE
  5
D2
330
1F
100
AcDbEntity
  8
0
  6
Continuous
 62
     7
370
    15
100
AcDbLine
 10
183.7914861422
 20
145.8901597577
 30
0.0
 11
186.0114862826
 21
145.8901597577
 31
0.0
  0
SPLINE
  5
D3
330
1F
100
AcDbEntity
  8
0
  6
Continuous
 62
     7
370
    15
100
AcDbSpline
210
0.0
220
0.0
230
1.0
 70
     8
 71
     3
 72
    14
 73
    10
 74
     0
 42
0.000000001
 43
0.00000001
 40
0.0
 40
0.0
 40
0.0
 40
0.0
 40
0.25
 40
0.25
 40
0.5
 40
0.5
 40
0.75
 40
0.75
 40
1.0
 40
1.0
 40
1.0
 40
1.0
 10
186.011485976236
 20
145.8901593857895
 30
0.0
 10
186.1328125062217
 20
145.8901593857895
 30
0.0
 10
186.254517214784
 20
145.9289409012227
 30
0.0
 10
186.4609570936701
 20
146.0600955229166
 30
0.0
 10
186.5469076321262
 20
146.1507476075037
 30
0.0
 10
186.6808193918745
 20
146.352864642445
 30
0.0
 10
186.7303838286936
 20
146.4665995859841
 30
0.0
 10
186.7952378566615
 20
146.6995592030506
 30
0.0
 10
186.811485976236
 20
146.8222574693798
 30
0.0
 10
186.811485976236
 20
146.9433204259735
 30
0.0
  0
LINE
  5
D4
330
1F
100
AcDbEntity
  8
0
  6
Continuous
 62
     7
370
    15
100
AcDbLine
 10
186.8114858549
 20
146.9433216768
 30
0.0
 11
186.8114858549
 21
147.117411943
 31
0.0
  0
SPLINE
  5
D5
330
1F
100
AcDbEntity
  8
0
  6
Continuous
 62
     7
370
    15
100
AcDbSpline
210
0.0
220
0.0
230
1.0
 70
     8
 71
     3
 72
     8
 73
     4
 74
     0
 42
0.000000001
 43
0.00000001
 40
0.0
 40
0.0
 40
0.0
 40
0.0
 40
1.0
 40
1.0
 40
1.0
 40
1.0
 10
186.811485976236
 20
147.1174130665661
 30
0.0
 10
187.2464323978744
 20
148.1009173849485
 30
0.0
 10
187.6877987557702
 20
149.0821193776753
 30
0.0
 10
188.1346474836979
 20
150.0613552759316
 30
0.0
  0
LINE
  5
D6
330
1F
100
AcDbEntity
  8
0
  6
Continuous
 62
     7
370
    15
100
AcDbLine
 10
188.1346475017
 20
150.061356129
 30
0.0
 11
192.2514853683
 21
150.061356129
 31
0.0
  0
SPLINE
  5
D7
330
1F
100
AcDbEntity
  8
0
  6
Continuous
 62
     7
370
    15
100
AcDbSpline
210
0.0
220
0.0
230
1.0
 70
     8
 71
     3
 72
    12
 73
     8
 74
     0
 42
0.000000001
 43
0.00000001
 40
0.0
 40
0.0
 40
0.0
 40
0.0
 40
0.250000000000004
 40
0.250000000000004
 40
0.500000000000008
 40
0.500000000000008
 40
1.0
 40
1.0
 40
1.0
 40
1.0
 10
192.2514859762365
 20
150.0613552759316
 30
0.0
 10
192.3410230344076
 20
150.0613552759316
 30
0.0
 10
192.4309222131962
 20
150.0345279771005
 30
0.0
 10
192.5843470721955
 20
149.942821011841
 30
0.0
 10
192.6493961295732
 20
149.8785660702422
 30
0.0
 10
192.8027153608375
 20
149.6591539241806
 30
0.0
 10
192.851485976236
 20
149.4773386143837
 30
0.0
 10
192.851485976236
 20
149.2993584389008
 30
0.0
  0
LINE
  5
D8
330
1F
100
AcDbEntity
  8
0
  6
Continuous
 62
     7
370
    15
100
AcDbLine
 10
177.0014858954
 20
149.2993591743
 30
0.0
 11
177.0014858954
 21
141.4002778398
 31
0.0
  0
LINE
  5
D9
330
1F
100
AcDbEntity
  8
0
  6
Continuous
 62
     7
370
    15
100
AcDbLine
 10
192.8514862117
 20
149.2993591743
 30
0.0
 11
192.8514862117
 21
141.4002778398
 31
0.0
  0
LINE
  5
DA
330
1F
100
AcDbEntity
  8
0
  6
Continuous
 62
     7
370
    15
100
AcDbLine
 10
192.2514853683
 20
158.3301222342
 30
0.0
 11
188.1346475017
 21
158.3301222342
 31
0.0
  0
LINE
  5
DB
330
1F
100
AcDbEntity
  8
0
  6
Continuous
 62
     7
370
    15
100
AcDbLine
 10
188.1346475017
 20
150.061356129
 30
0.0
 11
188.1346475017
 21
158.3301222342
 31
0.0
  0
SPLINE
  5
DC
330
1F
100
AcDbEntity
  8
0
  6
Continuous
 62
     7
370
    15
100
AcDbSpline
210
0.0
220
0.0
230
1.0
 70
     8
 71
     3
 72
    12
 73
     8
 74
     0
 42
0.000000001
 43
0.00000001
 40
0.0
 40
0.0
 40
0.0
 40
0.0
 40
0.2500000000000007
 40
0.2500000000000007
 40
0.5000000000000014
 40
0.5000000000000014
 40
1.0
 40
1.0
 40
1.0
 40
1.0
 10
183.791485976236
 20
155.1980435901262
 30
0.0
 10
183.68514099636
 20
155.1980435901262
 30
0.0
 10
183.5778646489574
 20
155.2207588279857
 30
0.0
 10
183.3824888595613
 20
155.3067839948681
 30
0.0
 10
183.2939351234844
 20
155.3697627217965
 30
0.0
 10
183.0726771993532
 20
155.6049542322335
 30
0.0
 10
182.991485976236
 20
155.8181304467188
 30
0.0
 10
182.991485976236
 20
156.0313688126629
 30
0.0
  0
SPLINE
  5
DD
330
1F
100
AcDbEntity
  8
0
  6
Continuous
 62
     7
370
    15
100
AcDbSpline
210
0.0
220
0.0
230
1.0
 70
     8
 71
     3
 72
     8
 73
     4
 74
     0
 42
0.000000001
 43
0.00000001
 40
0.0
 40
0.0
 40
0.0
 40
0.0
 40
0.0012352705496723
 40
0.0012352705496723
 40
0.0012352705496723
 40
0.0012352705496723
 10
182.2248149540686
 20
157.5503105689255
 30
0.0
 10
182.0397797032667
 20
157.8104121446538
 30
0.0
 10
181.8542728940959
 20
158.0703462232807
 30
0.0
 10
181.6683244687741
 20
158.330121979032
 30
0.0
  0
SPLINE
  5
DE
330
1F
100
AcDbEntity
  8
0
  6
Continuous
 62
     7
370
    15
100
AcDbSpline
210
0.0
220
0.0
230
1.0
 70
     8
 71
     3
 72
     8
 73
     4
 74
     0
 42
0.000000001
 43
0.00000001
 40
0.0
 40
0.0
 40
0.0
 40
0.0
 40
1.0
 40
1.0
 40
1.0
 40
1.0
 10
182.991485976236
 20
156.1700167330862
 30
0.0
 10
182.7361546629306
 20
156.6302377533518
 30
0.0
 10
182.4805912648243
 20
157.0903322136602
 30
0.0
 10
182.2248149540686
 20
157.5503105689255
 30
0.0
  0
LINE
  5
DF
330
1F
100
AcDbEntity
  8
0
  6
Continuous
 62
     7
370
    15
100
AcDbLine
 10
181.6683249232
 20
150.061356129
 30
0.0
 11
181.6683249232
 21
158.3301222342
 31
0.0
  0
LINE
  5
E0
330
1F
100
AcDbEntity
  8
0
  6
Continuous
 62
     7
370
    15
100
AcDbLine
 10
182.9914856386
 20
147.117411943
 30
0.0
 11
182.9914856386
 21
156.1700163799
 31
0.0
  0
LINE
  5
E1
330
1F
100
AcDbEntity
  8
0
  6
Continuous
 62
     7
370
    15
100
AcDbLine
 10
181.6683249232
 20
158.3301222342
 30
0.0
 11
177.6014860403
 21
158.3301222342
 31
0.0
  0
SPLINE
  5
E2
330
1F
100
AcDbEntity
  8
0
  6
Continuous
 62
     7
370
    15
100
AcDbSpline
210
0.0
220
0.0
230
1.0
 70
     8
 71
     3
 72
    12
 73
     8
 74
     0
 42
0.000000001
 43
0.00000001
 40
0.0
 40
0.0
 40
0.0
 40
0.0
 40
0.4999999999999982
 40
0.4999999999999982
 40
0.7499999999999991
 40
0.7499999999999991
 40
1.0
 40
1.0
 40
1.0
 40
1.0
 10
192.851485976236
 20
157.8452642774869
 30
0.0
 10
192.851485976236
 20
157.965456884152
 30
0.0
 10
192.797517545967
 20
158.0833641846671
 30
0.0
 10
192.636430905034
 20
158.2227437291504
 30
0.0
 10
192.571668485561
 20
158.2609090267144
 30
0.0
 10
192.4196144839965
 20
158.3155612890478
 30
0.0
 10
192.3368847108473
 20
158.330121979032
 30
0.0
 10
192.251485976236
 20
158.330121979032
 30
0.0
  0
LINE
  5
E3
330
1F
100
AcDbEntity
  8
0
  6
Continuous
 62
     7
370
    15
100
AcDbLine
 10
192.8514862117
 20
149.2993591743
 30
0.0
 11
192.8514862117
 21
157.8452645259
 31
0.0
  0
SPLINE
  5
E4
330
1F
100
AcDbEntity
  8
0
  6
Continuous
 62
     7
370
    15
100
AcDbSpline
210
0.0
220
0.0
230
1.0
 70
     8
 71
     3
 72
     8
 73
     4
 74
     0
 42
0.000000001
 43
0.00000001
 40
0.0
 40
0.0
 40
0.0
 40
0.0
 40
1.0
 40
1.0
 40
1.0
 40
1.0
 10
187.5781569984024
 20
157.5503105689238
 30
0.0
 10
187.322380687647
 20
157.090332213659
 30
0.0
 10
187.0668172895411
 20
156.6302377533512
 30
0.0
 10
186.811485976236
 20
156.1700167330862
 30
0.0
  0
SPLINE
  5
E5
330
1F
100
AcDbEntity
  8
0
  6
Continuous
 62
     7
370
    15
100
AcDbSpline
210
0.0
220
0.0
230
1.0
 70
     8
 71
     3
 72
     8
 73
     4
 74
     0
 42
0.000000001
 43
0.00000001
 40
0.0
 40
0.0
 40
0.0
 40
0.0
 40
0.0012352705496738
 40
0.0012352705496738
 40
0.0012352705496738
 40
0.0012352705496738
 10
188.1346474836979
 20
158.330121979032
 30
0.0
 10
187.9486990583758
 20
158.0703462232803
 30
0.0
 10
187.7631922492047
 20
157.810412144653
 30
0.0
 10
187.5781569984026
 20
157.5503105689244
 30
0.0
  0
LINE
  5
E6
330
1F
100
AcDbEntity
  8
0
  6
Continuous
 62
     7
370
    15
100
AcDbLine
 10
186.8114858549
 20
147.117411943
 30
0.0
 11
186.8114858549
 21
156.1700163799
 31
0.0
  0
LINE
  5
E7
330
1F
100
AcDbEntity
  8
0
  6
Continuous
 62
     7
370
    15
100
AcDbLine
 10
186.0114862826
 20
155.1980434375
 30
0.0
 11
183.7914861422
 21
155.1980434375
 31
0.0
  0
SPLINE
  5
E8
330
1F
100
AcDbEntity
  8
0
  6
Continuous
 62
     7
370
    15
100
AcDbSpline
210
0.0
220
0.0
230
1.0
 70
     8
 71
     3
 72
    10
 73
     6
 74
     0
 42
0.000000001
 43
0.00000001
 40
0.0
 40
0.0
 40
0.0
 40
0.0
 40
0.5
 40
0.5
 40
1.0
 40
1.0
 40
1.0
 40
1.0
 10
177.2913548951823
 20
158.2604416499792
 30
0.0
 10
177.2149018052635
 20
158.1901788787586
 30
0.0
 10
177.1460400829945
 20
158.1030839637169
 30
0.0
 10
177.0395278519215
 20
157.8939148354646
 30
0.0
 10
177.0014859762359
 20
157.7685972862251
 30
0.0
 10
177.0014859762359
 20
157.6392469916291
 30
0.0
  0
SPLINE
  5
E9
330
1F
100
AcDbEntity
  8
0
  6
Continuous
 62
     7
370
    15
100
AcDbSpline
210
0.0
220
0.0
230
1.0
 70
     8
 71
     3
 72
     8
 73
     4
 74
     0
 42
0.000000001
 43
0.00000001
 40
0.0
 40
0.0
 40
0.0
 40
0.0
 40
1.0
 40
1.0
 40
1.0
 40
1.0
 10
177.601485976236
 20
158.330121979032
 30
0.0
 10
177.4904077908985
 20
158.330121979032
 30
0.0
 10
177.3827437869963
 20
158.3049728034774
 30
0.0
 10
177.2913548951823
 20
158.2604416499792
 30
0.0
  0
LINE
  5
EA
330
1F
100
AcDbEntity
  8
0
  6
Continuous
 62
     7
370
    15
100
AcDbLine
 10
177.0014858954
 20
149.2993591743
 30
0.0
 11
177.0014858954
 21
157.6392485219
 31
0.0
  0
SPLINE
  5
EB
330
1F
100
AcDbEntity
  8
0
  6
Continuous
 62
     7
370
    15
100
AcDbSpline
210
0.0
220
0.0
230
1.0
 70
     8
 71
     3
 72
    14
 73
    10
 74
     0
 42
0.000000001
 43
0.00000001
 40
0.0
 40
0.0
 40
0.0
 40
0.0
 40
0.25
 40
0.25
 40
0.5
 40
0.5
 40
0.75
 40
0.75
 40
1.0
 40
1.0
 40
1.0
 40
1.0
 10
186.811485976236
 20
156.0313688126631
 30
0.0
 10
186.811485976236
 20
155.9240264405156
 30
0.0
 10
186.7914897841718
 20
155.8173974336678
 30
0.0
 10
186.7137916998272
 20
155.6182456545166
 30
0.0
 10
186.6557985549336
 20
155.5257627562011
 30
0.0
 10
186.5097520621107
 20
155.370526921092
 30
0.0
 10
186.4204143229431
 20
155.3067929794796
 30
0.0
 10
186.2256593108826
 20
155.2209627130844
 30
0.0
 10
186.1181290396737
 20
155.1980435901259
 30
0.0
 10
186.0114859762339
 20
155.1980435901262
 30
0.0
  0
LINE
  5
EC
330
1F
100
AcDbEntity
  8
0
  6
Continuous
 62
     7
370
    15
100
AcDbLine
 10
72.2014872041
 20
93.1714328396
 30
0.0
 11
72.2014872041
 21
129.9291218089
 31
0.0
  0
ARC
  5
ED
330
1F
100
AcDbEntity
  8
0
  6
Continuous
 62
     7
370
    15
100
AcDbCircle
 10
187.8704413567
 20
96.3639171363
 30
0.0
 40
2.373045168760909
100
AcDbArc
 50
185.6733221437
 51
252.2360921293
  0
ARC
  5
EE
330
1F
100
AcDbEntity
  8
0
  6
Continuous
 62
     7
370
    15
100
AcDbCircle
 10
188.0156277689
 20
96.4741097086
 30
0.0
 40
2.524449504549648
100
AcDbArc
 50
249.8603539676
 51
339.8452067799
  0
ARC
  5
EF
330
1F
100
AcDbEntity
  8
0
  6
Continuous
 62
     7
370
    15
100
AcDbCircle
 10
187.8303854225
 20
96.266360452
 30
0.0
 40
2.181399248729519
100
AcDbArc
 50
159.26752016
 51
253.0470182115
  0
ARC
  5
F0
330
1F
100
AcDbEntity
  8
0
  6
Continuous
 62
     7
370
    15
100
AcDbCircle
 10
188.0189168834
 20
96.3985454504
 30
0.0
 40
2.367064187020477
100
AcDbArc
 50
249.6127475989
 51
345.549823666
  0
ARC
  5
F1
330
1F
100
AcDbEntity
  8
0
  6
Continuous
 62
     7
370
    15
100
AcDbCircle
 10
187.8469085684
 20
96.2566481477
 30
0.0
 40
1.836963417178797
100
AcDbArc
 50
124.9142806032
 51
253.2481402043
  0
ARC
  5
F2
330
1F
100
AcDbEntity
  8
0
  6
Continuous
 62
     7
370
    15
100
AcDbCircle
 10
188.0219998919
 20
96.3494872056
 30
0.0
 40
1.981345107956122
100
AcDbArc
 50
249.1701466721
 51
357.5180965593
  0
CIRCLE
  5
F3
330
1F
100
AcDbEntity
  8
0
  6
HIDDEN
 62
     7
370
     0
100
AcDbCircle
 10
221.7514859762
 20
111.5502773243
 30
0.0
 40
7.999999999999997
  0
LINE
  5
F4
330
1F
100
AcDbEntity
  8
0
  6
HIDDEN
 62
     7
370
     0
100
AcDbLine
 10
225.538597038
 20
142.050277667
 30
0.0
 11
229.7514868584
 21
142.050277667
 31
0.0
  0
LINE
  5
F5
330
1F
100
AcDbEntity
  8
0
  6
HIDDEN
 62
     7
370
     0
100
AcDbLine
 10
213.7514842358
 20
142.050277667
 30
0.0
 11
217.9136505034
 21
142.050277667
 31
0.0
  0
LINE
  5
F6
330
1F
100
AcDbEntity
  8
0
  6
HIDDEN
 62
     7
370
     0
100
AcDbLine
 10
224.9503252711
 20
131.8804046529
 30
0.0
 11
229.7514868584
 21
131.8804046529
 31
0.0
  0
LINE
  5
F7
330
1F
100
AcDbEntity
  8
0
  6
HIDDEN
 62
     7
370
     0
100
AcDbLine
 10
213.7514842358
 20
131.8804046529
 30
0.0
 11
224.9503252711
 21
131.8804046529
 31
0.0
  0
LINE
  5
F8
330
1F
100
AcDbEntity
  8
0
  6
HIDDEN
 62
     7
370
     0
100
AcDbLine
 10
223.7972771433
 20
122.5502772647
 30
0.0
 11
226.8678215947
 21
122.5502772647
 31
0.0
  0
LINE
  5
F9
330
1F
100
AcDbEntity
  8
0
  6
HIDDEN
 62
     7
370
     0
100
AcDbLine
 10
216.6351494994
 20
122.5502772647
 30
0.0
 11
223.7972771433
 21
122.5502772647
 31
0.0
  0
SPLINE
  5
FA
330
1F
100
AcDbEntity
  8
0
  6
HIDDEN
 62
     7
370
     0
100
AcDbSpline
210
0.0
220
0.0
230
1.0
 70
     8
 71
     3
 72
    11
 73
     7
 74
     0
 42
0.000000001
 43
0.00000001
 40
0.0
 40
0.0
 40
0.0
 40
0.0
 40
0.2164566476647845
 40
0.4403140988964823
 40
0.7519029377752033
 40
0.9999999999999999
 40
0.9999999999999999
 40
0.9999999999999999
 40
0.9999999999999999
 10
225.4676526096036
 20
142.9690776782603
 30
0.0
 10
225.5030910672345
 20
142.8242002747153
 30
0.0
 10
225.5751796480494
 20
142.5294920082766
 30
0.0
 10
225.7089476529457
 20
142.2838525509573
 30
0.0
 10
225.8524484207824
 20
142.4319588778903
 30
0.0
 10
225.9442751002703
 20
142.8041105986274
 30
0.0
 10
225.9849799480607
 20
142.9690776782603
 30
0.0
  0
SPLINE
  5
FB
330
1F
100
AcDbEntity
  8
0
  6
HIDDEN
 62
     7
370
     0
100
AcDbSpline
210
0.0
220
0.0
230
1.0
 70
     8
 71
     3
 72
    11
 73
     7
 74
     0
 42
0.000000001
 43
0.00000001
 40
0.0
 40
0.0
 40
0.0
 40
0.0
 40
0.2164566760917531
 40
0.4403140960317755
 40
0.7519028278849992
 40
1.0
 40
1.0
 40
1.0
 40
1.0
 10
225.9849799480607
 20
142.9690776782603
 30
0.0
 10
225.7304170065949
 20
142.8242002819102
 30
0.0
 10
225.2125875107416
 20
142.5294920707284
 30
0.0
 10
224.2516394353025
 20
142.2838525185315
 30
0.0
 10
223.2208555172672
 20
142.431959063257
 30
0.0
 10
222.5612169871579
 20
142.8041106055175
 30
0.0
 10
222.2688128855397
 20
142.9690776782603
 30
0.0
  0
SPLINE
  5
FC
330
1F
100
AcDbEntity
  8
0
  6
HIDDEN
 62
     7
370
     0
100
AcDbSpline
210
0.0
220
0.0
230
1.0
 70
     8
 71
     3
 72
    11
 73
     7
 74
     0
 42
0.000000001
 43
0.00000001
 40
0.0
 40
0.0
 40
0.0
 40
0.0
 40
0.1845133258994396
 40
0.5180560541007977
 40
0.8676123274214702
 40
1.0
 40
1.0
 40
1.0
 40
1.0
 10
222.2688128855397
 20
142.9690776782603
 30
0.0
 10
222.0229522797675
 20
142.8445366426178
 30
0.0
 10
221.3326521365974
 20
142.4948641342278
 30
0.0
 10
220.0459525131906
 20
142.2351414123265
 30
0.0
 10
218.8503523238196
 20
142.5482499722053
 30
0.0
 10
218.210957227232
 20
142.8783898495934
 30
0.0
 10
218.0353184845616
 20
142.9690776782603
 30
0.0
  0
SPLINE
  5
FD
330
1F
100
AcDbEntity
  8
0
  6
HIDDEN
 62
     7
370
     0
100
AcDbSpline
210
0.0
220
0.0
230
1.0
 70
     8
 71
     3
 72
    11
 73
     7
 74
     0
 42
0.000000001
 43
0.00000001
 40
0.0
 40
0.0
 40
0.0
 40
0.0
 40
0.2164566476647845
 40
0.4403140988964823
 40
0.7519029377752033
 40
0.9999999999999999
 40
0.9999999999999999
 40
0.9999999999999999
 40
0.9999999999999999
 10
218.0353184845616
 20
142.9690776782603
 30
0.0
 10
217.9998800269306
 20
142.8242002747153
 30
0.0
 10
217.9277914461158
 20
142.5294920082766
 30
0.0
 10
217.7940234412195
 20
142.2838525509573
 30
0.0
 10
217.6505226733827
 20
142.4319588778903
 30
0.0
 10
217.5586959938948
 20
142.8041105986274
 30
0.0
 10
217.5179911461045
 20
142.9690776782603
 30
0.0
  0
SPLINE
  5
FE
330
1F
100
AcDbEntity
  8
0
  6
HIDDEN
 62
     7
370
     0
100
AcDbSpline
210
0.0
220
0.0
230
1.0
 70
     8
 71
     3
 72
    11
 73
     7
 74
     0
 42
0.000000001
 43
0.00000001
 40
0.0
 40
0.0
 40
0.0
 40
0.0
 40
0.2164566760917531
 40
0.4403140960317755
 40
0.7519028278849992
 40
1.0
 40
1.0
 40
1.0
 40
1.0
 10
217.5179911461045
 20
142.9690776782603
 30
0.0
 10
217.7725540875702
 20
142.8242002819102
 30
0.0
 10
218.2903835834235
 20
142.5294920707284
 30
0.0
 10
219.2513316588626
 20
142.2838525185315
 30
0.0
 10
220.2821155768979
 20
142.431959063257
 30
0.0
 10
220.9417541070072
 20
142.8041106055175
 30
0.0
 10
221.2341582086255
 20
142.9690776782603
 30
0.0
  0
SPLINE
  5
FF
330
1F
100
AcDbEntity
  8
0
  6
HIDDEN
 62
     7
370
     0
100
AcDbSpline
210
0.0
220
0.0
230
1.0
 70
     8
 71
     3
 72
    11
 73
     7
 74
     0
 42
0.000000001
 43
0.00000001
 40
0.0
 40
0.0
 40
0.0
 40
0.0
 40
0.1323876894469533
 40
0.4819432665959668
 40
0.8154866930094402
 40
0.9999999999999999
 40
0.9999999999999999
 40
0.9999999999999999
 40
0.9999999999999999
 10
221.2341582086255
 20
142.9690776782603
 30
0.0
 10
221.409796967989
 20
142.8783898540272
 30
0.0
 10
222.0491911426447
 20
142.5482505001798
 30
0.0
 10
223.2447900124969
 20
142.2351413246348
 30
0.0
 10
224.5314910019839
 20
142.4948636438637
 30
0.0
 10
225.2217920346173
 20
142.844536643663
 30
0.0
 10
225.4676526096036
 20
142.9690776782603
 30
0.0
  0
LINE
  5
100
330
1F
100
AcDbEntity
  8
0
  6
HIDDEN
 62
     7
370
     0
100
AcDbLine
 10
223.3509054091
 20
132.0502778905
 30
0.0
 11
225.7514862027
 21
132.0502778905
 31
0.0
  0
LINE
  5
101
330
1F
100
AcDbEntity
  8
0
  6
HIDDEN
 62
     7
370
     0
100
AcDbLine
 10
217.7514848914
 20
132.0502778905
 30
0.0
 11
223.3509054091
 21
132.0502778905
 31
0.0
  0
LINE
  5
102
330
1F
100
AcDbEntity
  8
0
  6
HIDDEN
 62
     7
370
     0
100
AcDbLine
 10
221.2341582086
 20
133.0502780544
 30
0.0
 11
219.37607654
 21
133.0502780544
 31
0.0
  0
LINE
  5
103
330
1F
100
AcDbEntity
  8
0
  6
HIDDEN
 62
     7
370
     0
100
AcDbLine
 10
223.3509054091
 20
133.0502780544
 30
0.0
 11
221.2341582086
 21
133.0502780544
 31
0.0
  0
LINE
  5
104
330
1F
100
AcDbEntity
  8
0
  6
HIDDEN
 62
     7
370
     0
100
AcDbLine
 10
221.2341582086
 20
133.0502780544
 30
0.0
 11
221.2341582086
 21
142.9690776783
 31
0.0
  0
LINE
  5
105
330
1F
100
AcDbEntity
  8
0
  6
HIDDEN
 62
     7
370
     0
100
AcDbLine
 10
219.37607654
 20
133.0502780544
 30
0.0
 11
217.5179911461
 21
133.0502780544
 31
0.0
  0
LINE
  5
106
330
1F
100
AcDbEntity
  8
0
  6
HIDDEN
 62
     7
370
     0
100
AcDbLine
 10
225.4676526096
 20
133.0502780544
 30
0.0
 11
223.3509054091
 21
133.0502780544
 31
0.0
  0
LINE
  5
107
330
1F
100
AcDbEntity
  8
0
  6
HIDDEN
 62
     7
370
     0
100
AcDbLine
 10
225.7263181415
 20
133.0502780544
 30
0.0
 11
225.4676526096
 21
133.0502780544
 31
0.0
  0
LINE
  5
108
330
1F
100
AcDbEntity
  8
0
  6
HIDDEN
 62
     7
370
     0
100
AcDbLine
 10
225.4676526096
 20
133.0502780544
 30
0.0
 11
225.4676526096
 21
142.9690776783
 31
0.0
  0
LINE
  5
109
330
1F
100
AcDbEntity
  8
0
  6
HIDDEN
 62
     7
370
     0
100
AcDbLine
 10
218.0353184846
 20
133.0502780544
 30
0.0
 11
218.0353184846
 21
142.9690776783
 31
0.0
  0
LINE
  5
10A
330
1F
100
AcDbEntity
  8
0
  6
HIDDEN
 62
     7
370
     0
100
AcDbLine
 10
217.5179911461
 20
133.0502780544
 30
0.0
 11
217.5179911461
 21
142.9690776783
 31
0.0
  0
LINE
  5
10B
330
1F
100
AcDbEntity
  8
0
  6
HIDDEN
 62
     7
370
     0
100
AcDbLine
 10
225.9849799481
 20
133.0502780544
 30
0.0
 11
225.7263181415
 21
133.0502780544
 31
0.0
  0
LINE
  5
10C
330
1F
100
AcDbEntity
  8
0
  6
HIDDEN
 62
     7
370
     0
100
AcDbLine
 10
222.2688128855
 20
133.0502780544
 30
0.0
 11
222.2688128855
 21
142.9690776783
 31
0.0
  0
LINE
  5
10D
330
1F
100
AcDbEntity
  8
0
  6
HIDDEN
 62
     7
370
     0
100
AcDbLine
 10
225.9849799481
 20
133.0502780544
 30
0.0
 11
225.9849799481
 21
142.9690776783
 31
0.0
  0
LWPOLYLINE
  5
10E
330
1F
100
AcDbEntity
  8
0
  6
HIDDEN
 62
     7
370
     0
100
AcDbPolyline
 90
       22
 70
   128
 43
0.0
 10
188.0014860686
 20
95.6929607707
 10
188.7383736354
 20
95.7973303663
 10
189.4097864312
 20
96.1011659744
 10
189.9560639318
 20
96.5774694847
 10
190.3286711928
 20
97.1839206683
 10
190.4944950398
 20
97.8666332009
 10
190.4388056752
 20
98.5649453866
 10
190.1665502843
 20
99.2168078589
 10
189.7019171771
 20
99.7643007355
 10
189.0861956086
 20
100.1587763818
 10
188.3740914669
 20
100.3651844727
 10
187.6288806703
 20
100.3651844727
 10
186.9167765286
 20
100.1587763818
 10
186.3010540288
 20
99.7643007355
 10
185.8364227843
 20
99.2168078589
 10
185.5641664621
 20
98.5649453866
 10
185.5084761661
 20
97.8666332009
 10
185.6743018758
 20
97.1839206683
 10
186.0469072741
 20
96.5774694847
 10
186.5931857061
 20
96.1011659744
 10
187.2645985019
 20
95.7973303663
 10
188.0014860686
 20
95.6929607707
  0
LWPOLYLINE
  5
10F
330
1F
100
AcDbEntity
  8
0
  6
HIDDEN
 62
     7
370
     0
100
AcDbPolyline
 90
       24
 70
   128
 43
0.0
 10
177.2732169517
 20
97.6454170811
 10
177.4670100455
 20
96.8517542275
 10
177.768729223
 20
96.1169537547
 10
178.1559973639
 20
95.4955129343
 10
178.6000920143
 20
95.0335191953
 10
179.0680774171
 20
94.7652386891
 10
179.5252445769
 20
94.7105681913
 10
179.9376882296
 20
94.8735626804
 10
180.2748186197
 20
95.2421317267
 10
180.5116325301
 20
95.7889410126
 10
180.6305666138
 20
96.4734379592
 10
180.6228003148
 20
97.2448552417
 10
180.4889091906
 20
98.0459798517
 10
180.2388239336
 20
98.8173962029
 10
179.8910913673
 20
99.5018931496
 10
179.4715021421
 20
100.0487033668
 10
179.0111745391
 20
100.417272413
 10
178.5442489814
 20
100.5802659708
 10
178.1053557676
 20
100.525595473
 10
177.7270455528
 20
100.2573149669
 10
177.4373751283
 20
99.7953221592
 10
177.2578287088
 20
99.1738813388
 10
177.2017223444
 20
98.4390799346
 10
177.2732169517
 20
97.6454170811
  0
LWPOLYLINE
  5
110
330
1F
100
AcDbEntity
  8
0
  6
HIDDEN
 62
     7
370
     0
100
AcDbPolyline
 90
       20
 70
   128
 43
0.0
 10
178.0362488386
 20
97.70967927
 10
178.2105374765
 20
97.0410595106
 10
178.4910252933
 20
96.4448957162
 10
178.8473171797
 20
95.9857900085
 10
179.2408037614
 20
95.7134945708
 10
179.6288439688
 20
95.6575164961
 10
179.9693881218
 20
95.8239233511
 10
180.2255330291
 20
96.1946800741
 10
180.3695206214
 20
96.7296103405
 10
180.3857484516
 20
97.3707467707
 10
180.272457717
 20
98.048610838
 10
180.0419255775
 20
98.6897472682
 10
179.7191328984
 20
99.2246775346
 10
179.3390601557
 20
99.5954342576
 10
178.9428936933
 20
99.7618401813
 10
178.5735642221
 20
99.7058630379
 10
178.2710943986
 20
99.4335676002
 10
178.0682616551
 20
98.9744628238
 10
177.9870461356
 20
98.3782980981
 10
178.0362488386
 20
97.70967927
  0
ELLIPSE
  5
111
330
1F
100
AcDbEntity
  8
0
  6
HIDDEN
 62
     7
370
     0
100
AcDbEllipse
 10
188.0014859762
 20
99.8197672129
 30
0.0
 11
1.760776919379026
 21
2.232245799914438
 31
0.0
210
0.0
220
0.0
230
1.0
 40
0.5126701559
 41
1.100887047646263
 42
4.029627027608341
  0
ARC
  5
112
330
1F
100
AcDbEntity
  8
0
  6
HIDDEN
 62
     7
370
     0
100
AcDbCircle
 10
187.3048865077
 20
100.9973070941
 30
0.0
 40
0.7945949542257815
100
AcDbArc
 50
53.4208190544
 51
99.1663888759
  0
ELLIPSE
  5
113
330
1F
100
AcDbEntity
  8
0
  6
HIDDEN
 62
     7
370
     0
100
AcDbEllipse
 10
188.0014859762
 20
99.8197672129
 30
0.0
 11
1.760776919379026
 21
-1.388886188042918
 31
0.0
210
0.0
220
0.0
230
1.0
 40
0.8239737799
 41
2.54992626524857
 42
4.885930273855987
  0
ARC
  5
114
330
1F
100
AcDbEntity
  8
0
  6
HIDDEN
 62
     7
370
     0
100
AcDbCircle
 10
188.2475387381
 20
98.9802896489
 30
0.0
 40
1.353195702694788
100
AcDbArc
 50
217.8001040701
 51
249.7155767561
  0
LWPOLYLINE
  5
115
330
1F
100
AcDbEntity
  8
0
  6
HIDDEN
 62
     7
370
     0
100
AcDbPolyline
 90
       20
 70
   128
 43
0.0
 10
188.0014860686
 20
96.1186310666
 10
188.683354823
 20
96.2255534174
 10
189.2913324442
 20
96.5347320231
 10
189.7595362421
 20
97.0126634853
 10
190.0372268316
 20
97.6075560244
 10
190.0943131801
 20
98.2549444231
 10
189.9246094432
 20
98.8846730831
 10
189.5465055164
 20
99.4285021367
 10
189.0009758678
 20
99.8274993541
 10
188.347134335
 20
100.0384262221
 10
187.6558378022
 20
100.0384262221
 10
187.0019962695
 20
99.8274993541
 10
186.4564656895
 20
99.4285021367
 10
186.0783617627
 20
98.8846730831
 10
185.9086589571
 20
98.2549444231
 10
185.9657453057
 20
97.6075560244
 10
186.2434368264
 20
97.0126634853
 10
186.711639693
 20
96.5347320231
 10
187.3196173143
 20
96.2255534174
 10
188.0014860686
 20
96.1186310666
  0
SPLINE
  5
116
330
1F
100
AcDbEntity
  8
0
  6
HIDDEN
 62
     7
370
     0
100
AcDbSpline
210
0.0
220
0.0
230
1.0
 70
     8
 71
     3
 72
     8
 73
     4
 74
     0
 42
0.000000001
 43
0.00000001
 40
0.0
 40
0.0
 40
0.0
 40
0.0
 40
1.0
 40
1.0
 40
1.0
 40
1.0
 10
187.1783058000766
 20
101.7817552887778
 30
0.0
 10
187.3897331900778
 20
101.7742457789953
 30
0.0
 10
187.5922017366106
 20
101.7201222493606
 30
0.0
 10
187.7784123357479
 20
101.6353939621355
 30
0.0
  0
SPLINE
  5
117
330
1F
100
AcDbEntity
  8
0
  6
HIDDEN
 62
     7
370
     0
100
AcDbSpline
210
0.0
220
0.0
230
1.0
 70
     8
 71
     3
 72
     8
 73
     4
 74
     0
 42
0.000000001
 43
0.00000001
 40
0.0
 40
0.0
 40
0.0
 40
0.0
 40
1.0
 40
1.0
 40
1.0
 40
1.0
 10
187.7784123357481
 20
97.7110151942012
 30
0.0
 10
187.5918879864636
 20
97.83333561010173
 30
0.0
 10
187.3893330879378
 20
97.97442077076654
 30
0.0
 10
187.1783058000764
 20
98.15090440655153
 30
0.0
  0
SPLINE
  5
118
330
1F
100
AcDbEntity
  8
0
  6
HIDDEN
 62
     7
370
     0
100
AcDbSpline
210
0.0
220
0.0
230
1.0
 70
    11
 71
     3
 72
    64
 73
    60
 74
     0
 42
0.000000001
 43
0.00000001
 40
0.0
 40
0.0
 40
0.0
 40
0.0
 40
0.0312499999999999
 40
0.0312499999999999
 40
0.0624999999999997
 40
0.0624999999999997
 40
0.0937499999999996
 40
0.0937499999999996
 40
0.1249999999999994
 40
0.1249999999999994
 40
0.1874999999999991
 40
0.1874999999999991
 40
0.218749999999999
 40
0.218749999999999
 40
0.2499999999999988
 40
0.2499999999999988
 40
0.2812499999999987
 40
0.2812499999999987
 40
0.3124999999999986
 40
0.3124999999999986
 40
0.3437499999999984
 40
0.3437499999999984
 40
0.3749999999999983
 40
0.3749999999999983
 40
0.4062499999999984
 40
0.4062499999999984
 40
0.4374999999999986
 40
0.4374999999999986
 40
0.4687499999999987
 40
0.4687499999999987
 40
0.4999999999999989
 40
0.4999999999999989
 40
0.531249999999999
 40
0.531249999999999
 40
0.562499999999999
 40
0.562499999999999
 40
0.5937499999999991
 40
0.5937499999999991
 40
0.6249999999999992
 40
0.6249999999999992
 40
0.6874999999999991
 40
0.6874999999999991
 40
0.7187499999999992
 40
0.7187499999999992
 40
0.7499999999999993
 40
0.7499999999999993
 40
0.7812499999999994
 40
0.7812499999999994
 40
0.8124999999999994
 40
0.8124999999999994
 40
0.8749999999999997
 40
0.8749999999999997
 40
0.9062499999999998
 40
0.9062499999999998
 40
0.9374999999999998
 40
0.9374999999999998
 40
0.9687499999999999
 40
0.9687499999999999
 40
1.0
 40
1.0
 40
1.0
 40
1.0
 10
188.001485976236
 20
107.6545992211734
 30
0.0
 10
188.1414282548596
 20
107.6545992211734
 30
0.0
 10
188.2787897544133
 20
107.6658225107099
 30
0.0
 10
188.5486439677267
 20
107.7098368691327
 30
0.0
 10
188.6825647425357
 20
107.7432188035911
 30
0.0
 10
188.936256733688
 20
107.8302369281447
 30
0.0
 10
189.0564018358817
 20
107.8836196522118
 30
0.0
 10
189.283789660625
 20
108.0108998076979
 30
0.0
 10
189.3904816866787
 20
108.0848501155535
 30
0.0
 10
189.6785382751957
 20
108.3304006551935
 30
0.0
 10
189.8346242778864
 20
108.5321774439748
 30
0.0
 10
189.9924057304246
 20
108.8702541221467
 30
0.0
 10
190.0333667852946
 20
108.9909670741611
 30
0.0
 10
190.0877835466814
 20
109.2398204942412
 30
0.0
 10
190.1013932563263
 20
109.3669446225964
 30
0.0
 10
190.1015777609844
 20
109.6267347035693
 30
0.0
 10
190.0876687196558
 20
109.7603158872356
 30
0.0
 10
190.033527924308
 20
110.020721095852
 30
0.0
 10
189.9934799984341
 20
110.1489926947358
 30
0.0
 10
189.8870078382421
 20
110.4012386134866
 30
0.0
 10
189.8218687394164
 20
110.5219482902646
 30
0.0
 10
189.670157014926
 20
110.7500741152564
 30
0.0
 10
189.5823198924172
 20
110.8589466500148
 30
0.0
 10
189.3891894361479
 20
111.0571353602205
 30
0.0
 10
189.2843189753875
 20
111.146499707039
 30
0.0
 10
189.0576096198038
 20
111.3051336587542
 30
0.0
 10
188.9349218641662
 20
111.3744553575154
 30
0.0
 10
188.6823700932683
 20
111.4855414000523
 30
0.0
 10
188.5513644144402
 20
111.5282951220324
 30
0.0
 10
188.279275481773
 20
111.586521616651
 30
0.0
 10
188.1401197709813
 20
111.6012503015394
 30
0.0
 10
187.8645010774594
 20
111.601365809893
 30
0.0
 10
187.7255172172809
 20
111.5867896029766
 30
0.0
 10
187.4531046925154
 20
111.5287356871943
 30
0.0
 10
187.3217638740694
 20
111.4859968609028
 30
0.0
 10
187.0682836180405
 20
111.3746134276915
 30
0.0
 10
186.9456029307638
 20
111.3052685393829
 30
0.0
 10
186.7191168051926
 20
111.1468576263028
 30
0.0
 10
186.6139731082103
 20
111.0573704521197
 30
0.0
 10
186.3227786587593
 20
110.7584306541324
 30
0.0
 10
186.1689994212328
 20
110.5268004479017
 30
0.0
 10
186.0097444742127
 20
110.1496336196722
 30
0.0
 10
185.9697197282871
 20
110.0216662311453
 30
0.0
 10
185.9155026705552
 20
109.7616527311709
 30
0.0
 10
185.9014763936097
 20
109.6280605611423
 30
0.0
 10
185.9014955689422
 20
109.3679789360511
 30
0.0
 10
185.9150513382771
 20
109.240703165353
 30
0.0
 10
185.9694250330063
 20
108.991536485599
 30
0.0
 10
186.0103085127272
 20
108.8708703504715
 30
0.0
 10
186.168396946458
 20
108.5319440779113
 30
0.0
 10
186.3243468364177
 20
108.3303752304522
 30
0.0
 10
186.6131744990066
 20
108.0843167401017
 30
0.0
 10
186.7203723660127
 20
108.0101700746281
 30
0.0
 10
186.9469388563665
 20
107.8834772794988
 30
0.0
 10
187.0669280029873
 20
107.8301357563723
 30
0.0
 10
187.3210659163198
 20
107.7430211448307
 30
0.0
 10
187.4547151128615
 20
107.7097627781963
 30
0.0
 10
187.7241876686122
 20
107.6658325831134
 30
0.0
 10
187.8615436976125
 20
107.6545992211734
 30
0.0
 10
188.001485976236
 20
107.6545992211734
 30
0.0
  0
LINE
  5
119
330
1F
100
AcDbEntity
  8
0
  6
HIDDEN
 62
     7
370
     0
100
AcDbLine
 10
215.2512935605
 20
142.3999017494
 30
0.0
 11
215.8747059908
 21
142.3088146763
 31
0.0
  0
SPLINE
  5
11A
330
1F
100
AcDbEntity
  8
0
  6
HIDDEN
 62
     7
370
     0
100
AcDbSpline
210
0.0
220
0.0
230
1.0
 70
     8
 71
     3
 72
    10
 73
     6
 74
     0
 42
0.000000001
 43
0.00000001
 40
0.0
 40
0.0
 40
0.0
 40
0.0
 40
0.2748072644015872
 40
0.8086644207785685
 40
1.0
 40
1.0
 40
1.0
 40
1.0
 10
212.0341440346409
 20
143.0425702052684
 30
0.0
 10
212.0273269125031
 20
143.0441984992384
 30
0.0
 10
212.0072664379848
 20
143.0489900152233
 30
0.0
 10
212.1343583247754
 20
143.0184042243221
 30
0.0
 10
212.3189158323756
 20
142.9766132530546
 30
0.0
 10
212.3676096704175
 20
142.9655870812507
 30
0.0
  0
LINE
  5
11B
330
1F
100
AcDbEntity
  8
0
  6
HIDDEN
 62
     7
370
     0
100
AcDbLine
 10
215.1377802398
 20
142.4200965481
 30
0.0
 11
215.2512935605
 21
142.3999017494
 31
0.0
  0
LINE
  5
11C
330
1F
100
AcDbEntity
  8
0
  6
HIDDEN
 62
     7
370
     0
100
AcDbLine
 10
199.3014854994
 20
111.5502773243
 30
0.0
 11
199.3014854994
 21
94.0502772498
 31
0.0
  0
LINE
  5
11D
330
1F
100
AcDbEntity
  8
0
  6
HIDDEN
 62
     7
370
     0
100
AcDbLine
 10
199.3014854994
 20
129.0502773988
 30
0.0
 11
199.3014854994
 21
111.5502773243
 31
0.0
  0
LINE
  5
11E
330
1F
100
AcDbEntity
  8
0
  6
HIDDEN
 62
     7
370
     0
100
AcDbLine
 10
204.1675118413
 20
111.5502773243
 30
0.0
 11
204.1675118413
 21
93.5502780991
 31
0.0
  0
LINE
  5
11F
330
1F
100
AcDbEntity
  8
0
  6
HIDDEN
 62
     7
370
     0
100
AcDbLine
 10
204.1675118413
 20
129.5502765494
 30
0.0
 11
204.1675118413
 21
111.5502773243
 31
0.0
  0
SPLINE
  5
120
330
1F
100
AcDbEntity
  8
0
  6
HIDDEN
 62
     7
370
     0
100
AcDbSpline
210
0.0
220
0.0
230
1.0
 70
     8
 71
     3
 72
    14
 73
    10
 74
     0
 42
0.000000001
 43
0.00000001
 40
0.0
 40
0.0
 40
0.0
 40
0.0
 40
0.2023488539955663
 40
0.4042786511957782
 40
0.6168258999750333
 40
0.7259783004245859
 40
0.8386112103745286
 40
0.9423359433000036
 40
1.0
 40
1.0
 40
1.0
 40
1.0
 10
221.7514855470826
 20
128.0256381648154
 30
0.0
 10
222.5290329600242
 20
128.0589376409776
 30
0.0
 10
224.0825175147315
 20
128.1254676313509
 30
0.0
 10
226.1736517459531
 20
128.5805322213326
 30
0.0
 10
227.5580427587756
 20
129.0097378809124
 30
0.0
 10
228.373756306122
 20
129.3046754147238
 30
0.0
 10
228.784968260871
 20
129.4633690094886
 30
0.0
 10
228.9916856099935
 20
129.5463212057518
 30
0.0
 10
228.9797974834104
 20
129.5415503563764
 30
0.0
 10
228.9755498674084
 20
129.5398457365604
 30
0.0
  0
LINE
  5
121
330
1F
100
AcDbEntity
  8
0
  6
HIDDEN
 62
     7
370
     0
100
AcDbLine
 10
221.8010281828
 20
128.029059844
 30
0.0
 11
221.0874152985
 21
128.0487498658
 31
0.0
  0
SPLINE
  5
122
330
1F
100
AcDbEntity
  8
0
  6
HIDDEN
 62
     7
370
     0
100
AcDbSpline
210
0.0
220
0.0
230
1.0
 70
     8
 71
     3
 72
    15
 73
    11
 74
     0
 42
0.000000001
 43
0.00000001
 40
0.0
 40
0.0
 40
0.0
 40
0.0
 40
0.1318489239587639
 40
0.329286408123704
 40
0.5355710417058728
 40
0.6439859417235135
 40
0.7555896121639901
 40
0.8626422772748941
 40
0.9733324685289425
 40
1.0
 40
1.0
 40
1.0
 40
1.0
 10
214.588072678106
 20
129.5156443881364
 30
0.0
 10
214.5849070815271
 20
129.5167415208188
 30
0.0
 10
214.5770011548367
 20
129.519481557441
 30
0.0
 10
215.3960642636229
 20
129.1978125304383
 30
0.0
 10
216.6060365132146
 20
128.7939603920021
 30
0.0
 10
217.8908337471663
 20
128.4615044422096
 30
0.0
 10
218.9926013485625
 20
128.2419698101693
 30
0.0
 10
220.1920886960974
 20
128.0847572282909
 30
0.0
 10
221.1240426750394
 20
128.0292892172353
 30
0.0
 10
221.6494747157718
 20
128.0262317597212
 30
0.0
 10
221.7514855470826
 20
128.0256381648154
 30
0.0
  0
LINE
  5
123
330
1F
100
AcDbEntity
  8
0
  6
HIDDEN
 62
     7
370
     0
100
AcDbLine
 10
177.1730587967
 20
76.2502758222
 30
0.0
 11
177.0014858954
 21
76.2502758222
 31
0.0
  0
ELLIPSE
  5
124
330
1F
100
AcDbEntity
  8
0
  6
HIDDEN
 62
     7
370
     0
100
AcDbEllipse
 10
177.1730588515
 20
74.2502773243
 30
0.0
 11
0.0
 21
2.0
 31
0.0
210
0.0
220
0.0
230
1.0
 40
0.4142135624
 41
4.712388980384695
 42
6.283185307179586
  0
LINE
  5
125
330
1F
100
AcDbEntity
  8
0
  6
HIDDEN
 62
     7
370
     0
100
AcDbLine
 10
177.0014858954
 20
149.0502788144
 30
0.0
 11
177.1730587967
 21
149.0502788144
 31
0.0
  0
ELLIPSE
  5
126
330
1F
100
AcDbEntity
  8
0
  6
HIDDEN
 62
     7
370
     0
100
AcDbEllipse
 10
177.1730588515
 20
151.0502773243
 30
0.0
 11
0.0
 21
2.0
 31
0.0
210
0.0
220
0.0
230
1.0
 40
0.4142135624
 41
3.141592653589758
 42
4.712388980384695
  0
LINE
  5
127
330
1F
100
AcDbEntity
  8
0
  6
HIDDEN
 62
     7
370
     0
100
AcDbLine
 10
178.0014858265
 20
65.3643628972
 30
0.0
 11
177.2171459776
 21
64.9168214219
 31
0.0
  0
LINE
  5
128
330
1F
100
AcDbEntity
  8
0
  6
HIDDEN
 62
     7
370
     0
100
AcDbLine
 10
177.2913549245
 20
158.2604406791
 30
0.0
 11
178.0014858265
 21
157.5503109413
 31
0.0
  0
LINE
  5
129
330
1F
100
AcDbEntity
  8
0
  6
HIDDEN
 62
     7
370
     0
100
AcDbLine
 10
178.0014858265
 20
157.5503109413
 30
0.0
 11
182.2248153072
 21
157.5503109413
 31
0.0
  0
LINE
  5
12A
330
1F
100
AcDbEntity
  8
0
  6
HIDDEN
 62
     7
370
     0
100
AcDbLine
 10
187.5781571176
 20
157.5503109413
 30
0.0
 11
192.8514862117
 21
157.5503109413
 31
0.0
  0
LINE
  5
12B
330
1F
100
AcDbEntity
  8
0
  6
HIDDEN
 62
     7
370
     0
100
AcDbLine
 10
178.0014858265
 20
157.5503109413
 30
0.0
 11
178.0014858265
 21
151.0502791422
 31
0.0
  0
LINE
  5
12C
330
1F
100
AcDbEntity
  8
0
  6
HIDDEN
 62
     7
370
     0
100
AcDbLine
 10
177.1730587967
 20
149.0502788144
 30
0.0
 11
192.8514862117
 21
149.0502788144
 31
0.0
  0
LINE
  5
12D
330
1F
100
AcDbEntity
  8
0
  6
HIDDEN
 62
     7
370
     0
100
AcDbLine
 10
192.8514862117
 20
76.2502758222
 30
0.0
 11
177.1730587967
 21
76.2502758222
 31
0.0
  0
LINE
  5
12E
330
1F
100
AcDbEntity
  8
0
  6
HIDDEN
 62
     7
370
     0
100
AcDbLine
 10
182.1214385014
 20
65.3643628972
 30
0.0
 11
178.0014858265
 21
65.3643628972
 31
0.0
  0
LINE
  5
12F
330
1F
100
AcDbEntity
  8
0
  6
HIDDEN
 62
     7
370
     0
100
AcDbLine
 10
192.8514862117
 20
65.3643628972
 30
0.0
 11
187.6815339234
 21
65.3643628972
 31
0.0
  0
LINE
  5
130
330
1F
100
AcDbEntity
  8
0
  6
HIDDEN
 62
     7
370
     0
100
AcDbLine
 10
178.0014858265
 20
65.3643628972
 30
0.0
 11
178.0014858265
 21
74.2502754944
 31
0.0
  0
LINE
  5
131
330
1F
100
AcDbEntity
  8
0
  6
HIDDEN
 62
     7
370
     0
100
AcDbLine
 10
82.2014851179
 20
99.050277138
 30
0.0
 11
82.2014851179
 21
124.0502775105
 31
0.0
  0
LINE
  5
132
330
1F
100
AcDbEntity
  8
0
  6
HIDDEN
 62
     7
370
     0
100
AcDbLine
 10
85.4860884752
 20
101.0502774658
 30
0.0
 11
85.4860884752
 21
122.0502771827
 31
0.0
  0
LINE
  5
133
330
1F
100
AcDbEntity
  8
0
  6
HIDDEN
 62
     7
370
     0
100
AcDbLine
 10
134.2014861908
 20
101.0502774658
 30
0.0
 11
134.2014861908
 21
122.0502771827
 31
0.0
  0
LINE
  5
134
330
1F
100
AcDbEntity
  8
0
  6
HIDDEN
 62
     7
370
     0
100
AcDbLine
 10
136.9053577688
 20
117.5502773764
 30
0.0
 11
136.9053577688
 21
105.5502772721
 31
0.0
  0
LINE
  5
135
330
1F
100
AcDbEntity
  8
0
  6
HIDDEN
 62
     7
370
     0
100
AcDbLine
 10
221.7514855471
 20
140.5502764898
 30
0.0
 11
229.0014853385
 21
140.5502764898
 31
0.0
  0
LINE
  5
136
330
1F
100
AcDbEntity
  8
0
  6
HIDDEN
 62
     7
370
     0
100
AcDbLine
 10
214.5014857557
 20
140.5502764898
 30
0.0
 11
221.7514855471
 21
140.5502764898
 31
0.0
  0
SPLINE
  5
137
330
1F
100
AcDbEntity
  8
0
  6
HIDDEN
 62
     7
370
     0
100
AcDbSpline
210
0.0
220
0.0
230
1.0
 70
    11
 71
     3
 72
    64
 73
    60
 74
     0
 42
0.000000001
 43
0.00000001
 40
0.0
 40
0.0
 40
0.0
 40
0.0
 40
0.03125
 40
0.03125
 40
0.0625
 40
0.0625
 40
0.09375
 40
0.09375
 40
0.125
 40
0.125
 40
0.1875000000000001
 40
0.1875000000000001
 40
0.21875
 40
0.21875
 40
0.2499999999999999
 40
0.2499999999999999
 40
0.2812499999999998
 40
0.2812499999999998
 40
0.3124999999999997
 40
0.3124999999999997
 40
0.3437499999999996
 40
0.3437499999999996
 40
0.3749999999999995
 40
0.3749999999999995
 40
0.4062499999999994
 40
0.4062499999999994
 40
0.4374999999999993
 40
0.4374999999999993
 40
0.4687499999999992
 40
0.4687499999999992
 40
0.4999999999999991
 40
0.4999999999999991
 40
0.531249999999999
 40
0.531249999999999
 40
0.5624999999999989
 40
0.5624999999999989
 40
0.5937499999999988
 40
0.5937499999999988
 40
0.6249999999999987
 40
0.6249999999999987
 40
0.6874999999999983
 40
0.6874999999999983
 40
0.7187499999999982
 40
0.7187499999999982
 40
0.7499999999999981
 40
0.7499999999999981
 40
0.7812499999999981
 40
0.7812499999999981
 40
0.812499999999998
 40
0.812499999999998
 40
0.8749999999999982
 40
0.8749999999999982
 40
0.9062499999999987
 40
0.9062499999999987
 40
0.9374999999999991
 40
0.9374999999999991
 40
0.9687499999999996
 40
0.9687499999999996
 40
1.0
 40
1.0
 40
1.0
 40
1.0
 10
188.001485976236
 20
111.4992464200387
 30
0.0
 10
187.8615436976125
 20
111.4992464200387
 30
0.0
 10
187.7241821980587
 20
111.5140455201446
 30
0.0
 10
187.4543279847453
 20
111.571562298553
 30
0.0
 10
187.3204072099363
 20
111.6150381406194
 30
0.0
 10
187.066715218784
 20
111.7267475318137
 30
0.0
 10
186.9465701165903
 20
111.794658907861
 30
0.0
 10
186.719182291847
 20
111.9536021659319
 30
0.0
 10
186.6124902657933
 20
112.0446512197237
 30
0.0
 10
186.3244336772763
 20
112.3405358538156
 30
0.0
 10
186.1683476745856
 20
112.575573522957
 30
0.0
 10
186.0105662220474
 20
112.9488376270013
 30
0.0
 10
185.9696051671774
 20
113.0790957724178
 30
0.0
 10
185.9151884057906
 20
113.3407538228426
 30
0.0
 10
185.9015786961457
 20
113.4711641440551
 30
0.0
 10
185.9013941914876
 20
113.730998398036
 30
0.0
 10
185.9153032328163
 20
113.8612222594487
 30
0.0
 10
185.9694440281641
 20
114.1088876480736
 30
0.0
 10
186.0094919540379
 20
114.2278181503945
 30
0.0
 10
186.1159641142299
 20
114.4563145890709
 30
0.0
 10
186.1811032130556
 20
114.5629156282544
 30
0.0
 10
186.3328149375461
 20
114.7602782826445
 30
0.0
 10
186.4206520600548
 20
114.8522610617805
 30
0.0
 10
186.6137825163241
 20
115.0167186137171
 30
0.0
 10
186.7186529770844
 20
115.0892870586815
 30
0.0
 10
186.9453623326682
 20
115.2163298931671
 30
0.0
 10
187.0680500883059
 20
115.270824677548
 30
0.0
 10
187.3206018592037
 20
115.3573532251497
 30
0.0
 10
187.4516075380318
 20
115.3901831559154
 30
0.0
 10
187.723696470699
 20
115.4347427559381
 30
0.0
 10
187.8628521814907
 20
115.4459113694303
 30
0.0
 10
188.1384708750126
 20
115.4459992224571
 30
0.0
 10
188.2774547351912
 20
115.4349467322282
 30
0.0
 10
188.5498672599566
 20
115.3905214068049
 30
0.0
 10
188.6812080784026
 20
115.3577061620782
 30
0.0
 10
188.9346883344315
 20
115.2709496298919
 30
0.0
 10
189.0573690217082
 20
115.2164358097662
 30
0.0
 10
189.2838551472795
 20
115.089575796935
 30
0.0
 10
189.3889988442617
 20
115.0169171239737
 30
0.0
 10
189.6801932937126
 20
114.7688457272035
 30
0.0
 10
189.8339725312392
 20
114.5700475752028
 30
0.0
 10
189.9932274782593
 20
114.2284021956057
 30
0.0
 10
190.0332522241849
 20
114.109768560355
 30
0.0
 10
190.0874692819168
 20
113.8625115278359
 30
0.0
 10
190.1014955588623
 20
113.7323045752662
 30
0.0
 10
190.1014763835299
 20
113.47221835933
 30
0.0
 10
190.0879206141949
 20
113.3416691825628
 30
0.0
 10
190.0335469194657
 20
113.0797071374738
 30
0.0
 10
189.9926634397448
 20
112.9495121712055
 30
0.0
 10
189.834575006014
 20
112.5753274859751
 30
0.0
 10
189.6786251160543
 20
112.3405165655215
 30
0.0
 10
189.3897974534655
 20
112.0440028175109
 30
0.0
 10
189.2825995864593
 20
111.9526966679413
 30
0.0
 10
189.0560330961055
 20
111.7944753090839
 30
0.0
 10
188.9360439494847
 20
111.7266191261859
 30
0.0
 10
188.6819060361522
 20
111.614782917921
 30
0.0
 10
188.5482568396105
 20
111.5714656464755
 30
0.0
 10
188.2787842838599
 20
111.5140585142821
 30
0.0
 10
188.1414282548596
 20
111.4992464200387
 30
0.0
 10
188.001485976236
 20
111.4992464200387
 30
0.0
  0
SPLINE
  5
138
330
1F
100
AcDbEntity
  8
0
  6
HIDDEN
 62
     7
370
     0
100
AcDbSpline
210
0.0
220
0.0
230
1.0
 70
     8
 71
     3
 72
     8
 73
     4
 74
     0
 42
0.000000001
 43
0.00000001
 40
0.0
 40
0.0
 40
0.0
 40
0.0
 40
1.0
 40
1.0
 40
1.0
 40
1.0
 10
187.1783058000765
 20
121.3187993597351
 30
0.0
 10
187.3897331900777
 20
121.3263088695176
 30
0.0
 10
187.5922017366105
 20
121.3804323991523
 30
0.0
 10
187.7784123357479
 20
121.4651606863774
 30
0.0
  0
ELLIPSE
  5
139
330
1F
100
AcDbEntity
  8
0
  6
HIDDEN
 62
     7
370
     0
100
AcDbEllipse
 10
188.0014859762
 20
123.2807874356
 30
0.0
 11
-1.760776919379055
 21
2.232245799914438
 31
0.0
210
0.0
220
0.0
230
1.0
 40
0.5126701559
 41
5.395150933160588
 42
8.323890913123094
  0
SPLINE
  5
13A
330
1F
100
AcDbEntity
  8
0
  6
HIDDEN
 62
     7
370
     0
100
AcDbSpline
210
0.0
220
0.0
230
1.0
 70
     8
 71
     3
 72
     8
 73
     4
 74
     0
 42
0.000000001
 43
0.00000001
 40
0.0
 40
0.0
 40
0.0
 40
0.0
 40
1.0
 40
1.0
 40
1.0
 40
1.0
 10
187.778412335749
 20
125.3895394543122
 30
0.0
 10
187.591887986464
 20
125.2672190384113
 30
0.0
 10
187.3893330879376
 20
125.1261338777462
 30
0.0
 10
187.1783058000757
 20
124.9496502419606
 30
0.0
  0
ELLIPSE
  5
13B
330
1F
100
AcDbEntity
  8
0
  6
HIDDEN
 62
     7
370
     0
100
AcDbEllipse
 10
188.0014859762
 20
123.2807874356
 30
0.0
 11
1.760776919379026
 21
1.388886188042918
 31
0.0
210
0.0
220
0.0
230
1.0
 40
0.8239737799
 41
1.397255033324079
 42
3.733259041931018
  0
LWPOLYLINE
  5
13C
330
1F
100
AcDbEntity
  8
0
  6
HIDDEN
 62
     7
370
     0
100
AcDbPolyline
 90
       20
 70
   128
 43
0.0
 10
188.0014860686
 20
123.0352141353
 10
188.683354823
 20
123.1421364861
 10
189.2913324442
 20
123.4513150918
 10
189.7595362421
 20
123.929246554
 10
190.0372268316
 20
124.5241390931
 10
190.0943131801
 20
125.1715274917
 10
189.9246094432
 20
125.8012561517
 10
189.5465055164
 20
126.3450852054
 10
189.0009758678
 20
126.7440824228
 10
188.347134335
 20
126.9550092908
 10
187.6558378022
 20
126.9550092908
 10
187.0019962695
 20
126.7440824228
 10
186.4564656895
 20
126.3450852054
 10
186.0783617627
 20
125.8012561517
 10
185.9086589571
 20
125.1715274917
 10
185.9657453057
 20
124.5241390931
 10
186.2434368264
 20
123.929246554
 10
186.711639693
 20
123.4513150918
 10
187.3196173143
 20
123.1421364861
 10
188.0014860686
 20
123.0352141353
  0
LINE
  5
13D
330
1F
100
AcDbEntity
  8
0
  6
HIDDEN
 62
     7
370
     0
100
AcDbLine
 10
182.9914856386
 20
146.9433216768
 30
0.0
 11
182.9914856386
 21
141.4002778398
 31
0.0
  0
LINE
  5
13E
330
1F
100
AcDbEntity
  8
0
  6
HIDDEN
 62
     7
370
     0
100
AcDbLine
 10
186.8114858549
 20
146.9433216768
 30
0.0
 11
186.8114858549
 21
141.4002778398
 31
0.0
  0
SPLINE
  5
13F
330
1F
100
AcDbEntity
  8
0
  6
HIDDEN
 62
     7
370
     0
100
AcDbSpline
210
0.0
220
0.0
230
1.0
 70
     8
 71
     3
 72
    14
 73
    10
 74
     0
 42
0.000000001
 43
0.00000001
 40
0.0
 40
0.0
 40
0.0
 40
0.0
 40
0.25
 40
0.25
 40
0.5
 40
0.5
 40
0.75
 40
0.75
 40
1.0
 40
1.0
 40
1.0
 40
1.0
 10
186.0114859762358
 20
128.5255668811902
 30
0.0
 10
186.0859115283704
 20
128.6164243359719
 30
0.0
 10
186.1677897879839
 20
128.7056349191776
 30
0.0
 10
186.3407759341595
 20
128.8810592379695
 30
0.0
 10
186.4314477540205
 20
128.9665941935963
 30
0.0
 10
186.5988113033648
 20
129.1274458065347
 30
0.0
 10
186.6752621283313
 20
129.2031778954312
 30
0.0
 10
186.7815552131698
 20
129.3347689190066
 30
0.0
 10
186.811485976236
 20
129.3917690939129
 30
0.0
 10
186.811485976236
 20
129.433966366865
 30
0.0
  0
SPLINE
  5
140
330
1F
100
AcDbEntity
  8
0
  6
HIDDEN
 62
     7
370
     0
100
AcDbSpline
210
0.0
220
0.0
230
1.0
 70
     8
 71
     3
 72
    14
 73
    10
 74
     0
 42
0.000000001
 43
0.00000001
 40
0.0
 40
0.0
 40
0.0
 40
0.0
 40
0.25
 40
0.25
 40
0.5
 40
0.5
 40
0.75
 40
0.75
 40
1.0
 40
1.0
 40
1.0
 40
1.0
 10
186.811485976236
 20
125.3019251682335
 30
0.0
 10
186.811485976236
 20
125.2594247505789
 30
0.0
 10
186.7817725174193
 20
125.2321528440963
 30
0.0
 10
186.6756911505271
 20
125.2186000701291
 30
0.0
 10
186.5993242213625
 20
125.2330456272701
 30
0.0
 10
186.4305646768341
 20
125.30542179129
 30
0.0
 10
186.3397678643622
 20
125.3624947264074
 30
0.0
 10
186.1682029241549
 20
125.5036526599243
 30
0.0
 10
186.0861416838603
 20
125.5882298750079
 30
0.0
 10
186.0114859762358
 20
125.6816030381371
 30
0.0
  0
LINE
  5
141
330
1F
100
AcDbEntity
  8
0
  6
HIDDEN
 62
     7
370
     0
100
AcDbLine
 10
186.8114858549
 20
97.7530155721
 30
0.0
 11
186.8114858549
 21
93.6209747958
 31
0.0
  0
LINE
  5
142
330
1F
100
AcDbEntity
  8
0
  6
HIDDEN
 62
     7
370
     0
100
AcDbLine
 10
188.1346475017
 20
97.2531300428
 30
0.0
 11
188.1346475017
 21
92.5613364595
 31
0.0
  0
LINE
  5
143
330
1F
100
AcDbEntity
  8
0
  6
HIDDEN
 62
     7
370
     0
100
AcDbLine
 10
188.1346475017
 20
150.061356129
 30
0.0
 11
188.1346475017
 21
141.4002778398
 31
0.0
  0
LINE
  5
144
330
1F
100
AcDbEntity
  8
0
  6
HIDDEN
 62
     7
370
     0
100
AcDbLine
 10
181.6683249232
 20
150.061356129
 30
0.0
 11
181.6683249232
 21
141.4002778398
 31
0.0
  0
ARC
  5
145
330
1F
100
AcDbEntity
  8
0
  6
HIDDEN
 62
     7
370
     0
100
AcDbCircle
 10
188.2475387381
 20
124.1202649996
 30
0.0
 40
1.353195702694788
100
AcDbArc
 50
110.2844232439
 51
142.1998959299
  0
ARC
  5
146
330
1F
100
AcDbEntity
  8
0
  6
HIDDEN
 62
     7
370
     0
100
AcDbCircle
 10
187.3048865077
 20
122.1032475545
 30
0.0
 40
0.7945949542257815
100
AcDbArc
 50
260.8336111241
 51
306.5791809456
  0
LWPOLYLINE
  5
147
330
1F
100
AcDbEntity
  8
0
  6
HIDDEN
 62
     7
370
     0
100
AcDbPolyline
 90
       20
 70
   128
 43
0.0
 10
178.0362488386
 20
124.2632290738
 10
178.2105374765
 20
123.7648737075
 10
178.4910252933
 20
123.4427208471
 10
178.8473171797
 20
123.3316820505
 10
179.2408037614
 20
123.4437872114
 10
179.6288439688
 20
123.7668909522
 10
179.9693881218
 20
124.2659774067
 10
180.2255330291
 20
124.886964673
 10
180.3695206214
 20
125.5625591072
 10
180.3857484516
 20
126.2195485103
 10
180.272457717
 20
126.786737928
 10
180.0419255775
 20
127.2026637959
 10
179.7191328984
 20
127.4222547578
 10
179.3390601557
 20
127.4217145907
 10
178.9428936933
 20
127.2011010366
 10
178.5735642221
 20
126.7843220773
 10
178.2710943986
 20
126.2165412697
 10
178.0682616551
 20
125.5592864397
 10
177.9870461356
 20
124.8837814125
 10
178.0362488386
 20
124.2632290738
  0
LWPOLYLINE
  5
148
330
1F
100
AcDbEntity
  8
0
  6
HIDDEN
 62
     7
370
     0
100
AcDbPolyline
 90
       24
 70
   128
 43
0.0
 10
177.2732169517
 20
123.8442130777
 10
177.4670100455
 20
123.2398685458
 10
177.768729223
 20
122.7998204919
 10
178.1559973639
 20
122.5567052531
 10
178.6000920143
 20
122.5285532343
 10
179.0680774171
 20
122.7174533921
 10
179.5252445769
 20
123.1093939784
 10
179.9376882296
 20
123.6753084155
 10
180.2748186197
 20
124.3732238578
 10
180.5116325301
 20
125.1513801905
 10
180.6305666138
 20
125.9520652162
 10
180.6228003148
 20
126.7158950137
 10
180.4889091906
 20
127.3862200248
 10
180.2388239336
 20
127.9133262503
 10
179.8910913673
 20
128.2581186312
 10
179.4715021421
 20
128.3950267749
 10
179.0111745391
 20
128.3138974028
 10
178.5442489814
 20
128.0207468587
 10
178.1053557676
 20
127.5373177993
 10
177.7270455528
 20
126.8994614872
 10
177.4373751283
 20
126.1544863152
 10
177.2578287088
 20
125.3576439264
 10
177.2017223444
 20
124.568032326
 10
177.2732169517
 20
123.8442130777
  0
LWPOLYLINE
  5
149
330
1F
100
AcDbEntity
  8
0
  6
HIDDEN
 62
     7
370
     0
100
AcDbPolyline
 90
       22
 70
   128
 43
0.0
 10
188.0014860686
 20
122.7091310936
 10
188.7383736354
 20
122.8135006892
 10
189.4097864312
 20
123.1173362973
 10
189.9560639318
 20
123.593640739
 10
190.3286711928
 20
124.2000919225
 10
190.4944950398
 20
124.8828044551
 10
190.4388056752
 20
125.5811157095
 10
190.1665502843
 20
126.2329791131
 10
189.7019171771
 20
126.7804710584
 10
189.0861956086
 20
127.1749476361
 10
188.3740914669
 20
127.3813547956
 10
187.6288806703
 20
127.3813547956
 10
186.9167765286
 20
127.1749476361
 10
186.3010540288
 20
126.7804710584
 10
185.8364227843
 20
126.2329791131
 10
185.5641664621
 20
125.5811157095
 10
185.5084761661
 20
124.8828044551
 10
185.6743018758
 20
124.2000919225
 10
186.0469072741
 20
123.593640739
 10
186.5931857061
 20
123.1173362973
 10
187.2645985019
 20
122.8135006892
 10
188.0014860686
 20
122.7091310936
  0
SPLINE
  5
14A
330
1F
100
AcDbEntity
  8
0
  6
HIDDEN
 62
     7
370
     0
100
AcDbSpline
210
0.0
220
0.0
230
1.0
 70
     8
 71
     3
 72
    34
 73
    30
 74
     0
 42
0.000000001
 43
0.00000001
 40
0.0
 40
0.0
 40
0.0
 40
0.0
 40
0.062499999999999
 40
0.062499999999999
 40
0.124999999999998
 40
0.124999999999998
 40
0.1874999999999971
 40
0.1874999999999971
 40
0.2499999999999966
 40
0.2499999999999966
 40
0.3124999999999962
 40
0.3124999999999962
 40
0.3749999999999957
 40
0.3749999999999957
 40
0.4999999999999958
 40
0.4999999999999958
 40
0.6249999999999958
 40
0.6249999999999958
 40
0.6874999999999964
 40
0.6874999999999964
 40
0.7499999999999971
 40
0.7499999999999971
 40
0.8124999999999979
 40
0.8124999999999979
 40
0.8749999999999986
 40
0.8749999999999986
 40
0.9374999999999992
 40
0.9374999999999992
 40
1.0
 40
1.0
 40
1.0
 40
1.0
 10
188.1346474836979
 20
130.5392177122576
 30
0.0
 10
188.2940393114858
 20
130.5313776163348
 30
0.0
 10
188.4500417949293
 20
130.5097189682444
 30
0.0
 10
188.7555513110066
 20
130.4398707407516
 30
0.0
 10
188.9064456460188
 20
130.3910450384233
 30
0.0
 10
189.1943449907096
 20
130.268121085016
 30
0.0
 10
189.3302913936693
 20
130.1948135768817
 30
0.0
 10
189.5864740092613
 20
130.0248029531104
 30
0.0
 10
189.7076562970205
 20
129.9269291609089
 30
0.0
 10
189.9248023688932
 20
129.7143449854769
 30
0.0
 10
190.0217642418536
 20
129.5992990469473
 30
0.0
 10
190.1923266776791
 20
129.3514379268272
 30
0.0
 10
190.2655667308911
 20
129.2184044297616
 30
0.0
 10
190.4404471876398
 20
128.8088964136315
 30
0.0
 10
190.5014851486158
 20
128.5109357638564
 30
0.0
 10
190.5014868038389
 20
127.919494207982
 30
0.0
 10
190.4404521942526
 20
127.6193206580054
 30
0.0
 10
190.2655624268507
 20
127.2040893777376
 30
0.0
 10
190.1923187214263
 20
127.0687342594908
 30
0.0
 10
190.0217580056897
 20
126.8158349281041
 30
0.0
 10
189.9247942900962
 20
126.6980696504964
 30
0.0
 10
189.707633961509
 20
126.4799393551277
 30
0.0
 10
189.5864527028222
 20
126.3792360299808
 30
0.0
 10
189.3302824758835
 20
126.2039923371476
 30
0.0
 10
189.1943391262207
 20
126.1282473680569
 30
0.0
 10
188.9064364230376
 20
126.0010789927547
 30
0.0
 10
188.7555462271209
 20
125.9504777204272
 30
0.0
 10
188.4500407234152
 20
125.8780486206794
 30
0.0
 10
188.2940393251517
 20
125.8555628492824
 30
0.0
 10
188.1346474836979
 20
125.8474243893875
 30
0.0
  0
SPLINE
  5
14B
330
1F
100
AcDbEntity
  8
0
  6
HIDDEN
 62
     7
370
     0
100
AcDbSpline
210
0.0
220
0.0
230
1.0
 70
     8
 71
     3
 72
    10
 73
     6
 74
     0
 42
0.000000001
 43
0.00000001
 40
0.0
 40
0.0
 40
0.0
 40
0.0
 40
0.5
 40
0.5
 40
1.0
 40
1.0
 40
1.0
 40
1.0
 10
188.1346474836979
 20
125.8474243893876
 30
0.0
 10
187.9119204568245
 20
125.7039358890938
 30
0.0
 10
187.6902345695994
 20
125.5892151433609
 30
0.0
 10
187.2490137317474
 20
125.419454714003
 30
0.0
 10
187.0294550843486
 20
125.3640347196157
 30
0.0
 10
186.8114859762363
 20
125.347539390246
 30
0.0
  0
SPLINE
  5
14C
330
1F
100
AcDbEntity
  8
0
  6
HIDDEN
 62
     7
370
     0
100
AcDbSpline
210
0.0
220
0.0
230
1.0
 70
     8
 71
     3
 72
    10
 73
     6
 74
     0
 42
0.000000001
 43
0.00000001
 40
0.0
 40
0.0
 40
0.0
 40
0.0
 40
0.5
 40
0.5
 40
1.0
 40
1.0
 40
1.0
 40
1.0
 10
186.8114859762363
 20
129.4795805888775
 30
0.0
 10
187.0283768087571
 20
129.7166195283261
 30
0.0
 10
187.2475294454159
 20
129.9187897633196
 30
0.0
 10
187.6890139456848
 20
130.2695418348382
 30
0.0
 10
187.9122164109582
 20
130.4182179272351
 30
0.0
 10
188.1346474836979
 20
130.5392177122576
 30
0.0
  0
SPLINE
  5
14D
330
1F
100
AcDbEntity
  8
0
  6
HIDDEN
 62
     7
370
     0
100
AcDbSpline
210
0.0
220
0.0
230
1.0
 70
     8
 71
     3
 72
    16
 73
    12
 74
     0
 42
0.000000001
 43
0.00000001
 40
0.0
 40
0.0
 40
0.0
 40
0.0
 40
0.2499999999999994
 40
0.2499999999999994
 40
0.4999999999999989
 40
0.4999999999999989
 40
0.7499999999999983
 40
0.7499999999999983
 40
0.8749999999999991
 40
0.8749999999999991
 40
1.0
 40
1.0
 40
1.0
 40
1.0
 10
186.011485976236
 20
125.6816030381369
 30
0.0
 10
185.8460718697559
 20
125.8884892741622
 30
0.0
 10
185.7198745387802
 20
126.1143579719712
 30
0.0
 10
185.5454682404494
 20
126.603227217584
 30
0.0
 10
185.5016382013525
 20
126.8549942709285
 30
0.0
 10
185.5013345283826
 20
127.3667735955107
 30
0.0
 10
185.5451913884428
 20
127.6178283045934
 30
0.0
 10
185.67511314771
 20
127.9786768727354
 30
0.0
 10
185.7292279591179
 20
128.095949641084
 30
0.0
 10
185.8559049492613
 20
128.3184385924228
 30
0.0
 10
185.9287786696222
 20
128.4245992006663
 30
0.0
 10
186.011485976236
 20
128.5255668811905
 30
0.0
  0
LWPOLYLINE
  5
14E
330
1F
100
AcDbEntity
  8
0
  6
HIDDEN
 62
     7
370
     0
100
AcDbPolyline
 90
       19
 70
   128
 43
0.0
 10
187.866755357
 20
123.0991159024
 10
188.5506422874
 20
123.1677832472
 10
189.1682935562
 20
123.452106716
 10
189.6452108082
 20
123.9177922177
 10
189.9238699731
 20
124.5086726191
 10
189.9706614819
 20
125.1534765976
 10
189.7799415198
 20
125.7744340616
 10
189.3747137543
 20
126.2966461869
 10
188.8038539943
 20
126.657127628
 10
188.1362167802
 20
126.8123977276
 10
187.4523298499
 20
126.7437303829
 10
186.834678581
 20
126.4594069141
 10
186.3577613291
 20
125.9937214124
 10
186.0791021642
 20
125.4028419422
 10
186.0323106554
 20
124.7580370324
 10
186.2230306175
 20
124.1370795684
 10
186.6282583829
 20
123.6148674431
 10
187.199118143
 20
123.2543860021
 10
187.866755357
 20
123.0991159024
  0
LWPOLYLINE
  5
14F
330
1F
100
AcDbEntity
  8
0
  6
HIDDEN
 62
     7
370
     0
100
AcDbPolyline
 90
       22
 70
   128
 43
0.0
 10
187.8314042148
 20
122.714574674
 10
188.5741414186
 20
122.771593036
 10
189.2659948822
 20
123.0318017694
 10
189.8454917278
 20
123.4720789286
 10
190.2611409929
 20
124.0533043089
 10
190.4760082867
 20
124.7238332795
 10
190.4710052219
 20
125.4240872728
 10
190.2465732452
 20
126.0918446275
 10
189.822657561
 20
126.6677735763
 10
189.2369208541
 20
127.1006979438
 10
188.5414100867
 20
127.352152245
 10
187.7979259622
 20
127.39979312
 10
187.072528122
 20
127.2393895703
 10
186.4296724703
 20
126.8851899
 10
185.9264798146
 20
126.3686690869
 10
185.6076601576
 20
125.7357227074
 10
185.5015424695
 20
125.0425886753
 10
185.61755546
 20
124.3508572149
 10
185.9453912508
 20
123.7219909596
 10
186.4559208658
 20
123.2118664699
 10
187.1037795823
 20
122.8658112156
 10
187.8314042148
 20
122.714574674
  0
LWPOLYLINE
  5
150
330
1F
100
AcDbEntity
  8
0
  6
HIDDEN
 62
     7
370
     0
100
AcDbPolyline
 90
       22
 70
   128
 43
0.0
 10
187.8314042148
 20
123.3131096157
 10
188.5741414186
 20
123.3701279777
 10
189.2659948822
 20
123.630336711
 10
189.8454917278
 20
124.0706138703
 10
190.2611409929
 20
124.6518392506
 10
190.4760082867
 20
125.3223691525
 10
190.4710052219
 20
126.0226222145
 10
190.2465732452
 20
126.6903805005
 10
189.822657561
 20
127.266308518
 10
189.2369208541
 20
127.6992338168
 10
188.5414100867
 20
127.9506871867
 10
187.7979259622
 20
127.9983299243
 10
187.072528122
 20
127.837924512
 10
186.4296724703
 20
127.483725773
 10
185.9264798146
 20
126.9672049599
 10
185.6076601576
 20
126.3342576491
 10
185.5015424695
 20
125.6411245483
 10
185.61755546
 20
124.9493921565
 10
185.9453912508
 20
124.3205259013
 10
186.4559208658
 20
123.8104014116
 10
187.1037795823
 20
123.4643470886
 10
187.8314042148
 20
123.3131096157
  0
LWPOLYLINE
  5
151
330
1F
100
AcDbEntity
  8
0
  6
HIDDEN
 62
     7
370
     0
100
AcDbPolyline
 90
       20
 70
   128
 43
0.0
 10
187.8654207718
 20
124.9618364888
 10
188.5206872281
 20
125.0219151767
 10
189.119690625
 20
125.2786714973
 10
189.5975196418
 20
125.70428312
 10
189.9023918119
 20
126.2526272255
 10
190.0012740549
 20
126.8642835709
 10
189.8834468481
 20
127.4729689973
 10
189.5616786238
 20
128.0127225834
 10
189.0708408933
 20
128.4250544774
 10
188.4641224202
 20
128.6652798223
 10
187.8072689902
 20
128.7073700147
 10
187.1714625191
 20
128.5467634367
 10
186.625602251
 20
128.2008609193
 10
186.2288392764
 20
127.7071500587
 10
186.0241708961
 20
127.1191297489
 10
186.0337756258
 20
126.5005220118
 10
186.2566113156
 20
125.9183625149
 10
186.668531565
 20
125.4357381182
 10
187.2248990145
 20
125.1049472409
 10
187.8654207718
 20
124.9618364888
  0
LWPOLYLINE
  5
152
330
1F
100
AcDbEntity
  8
0
  6
HIDDEN
 62
     7
370
     0
100
AcDbPolyline
 90
       20
 70
   128
 43
0.0
 10
187.8654207718
 20
123.5440608504
 10
188.5206872281
 20
123.6041395383
 10
189.119690625
 20
123.8608958589
 10
189.5975196418
 20
124.2865074816
 10
189.9023918119
 20
124.8348515871
 10
190.0012740549
 20
125.4465079325
 10
189.8834468481
 20
126.0551924276
 10
189.5616786238
 20
126.5949460136
 10
189.0708408933
 20
127.0072779077
 10
188.4641224202
 20
127.2475051152
 10
187.8072689902
 20
127.2895953076
 10
187.1714625191
 20
127.128986867
 10
186.625602251
 20
126.7830852809
 10
186.2288392764
 20
126.289373489
 10
186.0241708961
 20
125.7013531792
 10
186.0337756258
 20
125.0827463734
 10
186.2566113156
 20
124.5005868765
 10
186.668531565
 20
124.0179615485
 10
187.2248990145
 20
123.6871716025
 10
187.8654207718
 20
123.5440608504
  0
LWPOLYLINE
  5
153
330
1F
100
AcDbEntity
  8
0
  6
HIDDEN
 62
     7
370
     0
100
AcDbPolyline
 90
       22
 70
   128
 43
0.0
 10
187.8314042148
 20
123.5491030308
 10
188.5741414186
 20
123.6061223241
 10
189.2659948822
 20
123.8663310575
 10
189.8454917278
 20
124.3066082167
 10
190.2611409929
 20
124.887833597
 10
190.4760082867
 20
125.5583625677
 10
190.4710052219
 20
126.2586165609
 10
190.2465732452
 20
126.9263739156
 10
189.822657561
 20
127.5023019331
 10
189.2369208541
 20
127.9352272319
 10
188.5414100867
 20
128.1866824644
 10
187.7979259622
 20
128.2343233394
 10
187.072528122
 20
128.0739179271
 10
186.4296724703
 20
127.7197191882
 10
185.9264798146
 20
127.203198375
 10
185.6076601576
 20
126.5702519956
 10
185.5015424695
 20
125.8771179634
 10
185.61755546
 20
125.185386503
 10
185.9453912508
 20
124.5565193164
 10
186.4559208658
 20
124.046395758
 10
187.1037795823
 20
123.7003405037
 10
187.8314042148
 20
123.5491030308
  0
LWPOLYLINE
  5
154
330
1F
100
AcDbEntity
  8
0
  6
HIDDEN
 62
     7
370
     0
100
AcDbPolyline
 90
       21
 70
   128
 43
0.0
 10
187.8450108376
 20
123.5620865988
 10
188.5617613476
 20
123.6221857759
 10
189.2236690652
 20
123.8874730113
 10
189.7659400162
 20
124.3319821002
 10
190.1354944017
 20
124.9122016522
 10
190.2961568591
 20
125.5713330972
 10
190.2322010752
 20
126.2448590639
 10
189.9498874005
 20
126.8668484333
 10
189.4768500384
 20
127.3764169233
 10
188.8593952786
 20
127.7236847597
 10
188.1579612997
 20
127.874657737
 10
187.4412107896
 20
127.8145594912
 10
186.7793030721
 20
127.5492703932
 10
186.2370321211
 20
127.1047613042
 10
185.8674777355
 20
126.5245426836
 10
185.7068152782
 20
125.8654112386
 10
185.7707701307
 20
125.1918852719
 10
186.0530838054
 20
124.5698959025
 10
186.5261211675
 20
124.0603274124
 10
187.1435768586
 20
123.7130605074
 10
187.8450108376
 20
123.5620865988
  0
LWPOLYLINE
  5
155
330
1F
100
AcDbEntity
  8
0
  6
HIDDEN
 62
     7
370
     0
100
AcDbPolyline
 90
       22
 70
   128
 43
0.0
 10
187.8314042148
 20
123.7850973772
 10
188.5741414186
 20
123.8421157392
 10
189.2659948822
 20
124.1023244726
 10
189.8454917278
 20
124.5426016318
 10
190.2611409929
 20
125.1238270121
 10
190.4760082867
 20
125.7943569141
 10
190.4710052219
 20
126.4946109074
 10
190.2465732452
 20
127.162368262
 10
189.822657561
 20
127.7382953482
 10
189.2369208541
 20
128.171220647
 10
188.5414100867
 20
128.4226758795
 10
187.7979259622
 20
128.4703167545
 10
187.072528122
 20
128.3099113422
 10
186.4296724703
 20
127.9557126033
 10
185.9264798146
 20
127.4391917902
 10
185.6076601576
 20
126.8062454107
 10
185.5015424695
 20
126.1131123098
 10
185.61755546
 20
125.4213799181
 10
185.9453912508
 20
124.7925136628
 10
186.4559208658
 20
124.2823891731
 10
187.1037795823
 20
123.9363348501
 10
187.8314042148
 20
123.7850973772
  0
LWPOLYLINE
  5
156
330
1F
100
AcDbEntity
  8
0
  6
HIDDEN
 62
     7
370
     0
100
AcDbPolyline
 90
       21
 70
   128
 43
0.0
 10
187.8450108376
 20
123.7980809453
 10
188.5617613476
 20
123.858179191
 10
189.2236690652
 20
124.1234673577
 10
189.7659400162
 20
124.5679764467
 10
190.1354944017
 20
125.1481950673
 10
190.2961568591
 20
125.8073274436
 10
190.2322010752
 20
126.480852479
 10
189.9498874005
 20
127.1028418484
 10
189.4768500384
 20
127.6124103385
 10
188.8593952786
 20
127.9596781748
 10
188.1579612997
 20
128.1106511521
 10
187.4412107896
 20
128.0505529063
 10
186.7793030721
 20
127.785265671
 10
186.2370321211
 20
127.3407547193
 10
185.8674777355
 20
126.76053703
 10
185.7068152782
 20
126.1014046537
 10
185.7707701307
 20
125.4278796183
 10
186.0530838054
 20
124.805890249
 10
186.5261211675
 20
124.2963217589
 10
187.1435768586
 20
123.9490539225
 10
187.8450108376
 20
123.7980809453
  0
LWPOLYLINE
  5
157
330
1F
100
AcDbEntity
  8
0
  6
HIDDEN
 62
     7
370
     0
100
AcDbPolyline
 90
       22
 70
   128
 43
0.0
 10
187.8314042148
 20
124.0210907924
 10
188.5741414186
 20
124.0781100857
 10
189.2659948822
 20
124.338318819
 10
189.8454917278
 20
124.7785959783
 10
190.2611409929
 20
125.3598213586
 10
190.4760082867
 20
126.0303503292
 10
190.4710052219
 20
126.7306043225
 10
190.2465732452
 20
127.3983626085
 10
189.822657561
 20
127.974290626
 10
189.2369208541
 20
128.4072159248
 10
188.5414100867
 20
128.6586692947
 10
187.7979259622
 20
128.7063101696
 10
187.072528122
 20
128.54590662
 10
186.4296724703
 20
128.1917060184
 10
185.9264798146
 20
127.6751870679
 10
185.6076601576
 20
127.0422397571
 10
185.5015424695
 20
126.3491057249
 10
185.61755546
 20
125.6573742645
 10
185.9453912508
 20
125.0285070779
 10
186.4559208658
 20
124.5183835196
 10
187.1037795823
 20
124.1723282652
 10
187.8314042148
 20
124.0210907924
  0
LWPOLYLINE
  5
158
330
1F
100
AcDbEntity
  8
0
  6
HIDDEN
 62
     7
370
     0
100
AcDbPolyline
 90
       21
 70
   128
 43
0.0
 10
187.8450108376
 20
124.0340743604
 10
188.5617613476
 20
124.0941735374
 10
189.2236690652
 20
124.3594607728
 10
189.7659400162
 20
124.8039707931
 10
190.1354944017
 20
125.3841894137
 10
190.2961568591
 20
126.0433208587
 10
190.2322010752
 20
126.7168468254
 10
189.9498874005
 20
127.3388361948
 10
189.4768500384
 20
127.8484037536
 10
188.8593952786
 20
128.1956715899
 10
188.1579612997
 20
128.3466445672
 10
187.4412107896
 20
128.2865463214
 10
186.7793030721
 20
128.0212590861
 10
186.2370321211
 20
127.5767499971
 10
185.8674777355
 20
126.9965304452
 10
185.7068152782
 20
126.3373990002
 10
185.7707701307
 20
125.6638730335
 10
186.0530838054
 20
125.0418836641
 10
186.5261211675
 20
124.532315174
 10
187.1435768586
 20
124.185048269
 10
187.8450108376
 20
124.0340743604
  0
LWPOLYLINE
  5
159
330
1F
100
AcDbEntity
  8
0
  6
HIDDEN
 62
     7
370
     0
100
AcDbPolyline
 90
       22
 70
   128
 43
0.0
 10
187.8314042148
 20
124.2570851388
 10
188.5741414186
 20
124.3141035008
 10
189.2659948822
 20
124.5743122342
 10
189.8454917278
 20
125.0145893934
 10
190.2611409929
 20
125.5958147737
 10
190.4760082867
 20
126.2663446757
 10
190.4710052219
 20
126.9665986689
 10
190.2465732452
 20
127.6343560236
 10
189.822657561
 20
128.2102840411
 10
189.2369208541
 20
128.6432093399
 10
188.5414100867
 20
128.8946627098
 10
187.7979259622
 20
128.9423054474
 10
187.072528122
 20
128.7819000351
 10
186.4296724703
 20
128.4277012961
 10
185.9264798146
 20
127.911180483
 10
185.6076601576
 20
127.2782331722
 10
185.5015424695
 20
126.5851000714
 10
185.61755546
 20
125.893368611
 10
185.9453912508
 20
125.2645014244
 10
186.4559208658
 20
124.7543769347
 10
187.1037795823
 20
124.4083226117
 10
187.8314042148
 20
124.2570851388
  0
LWPOLYLINE
  5
15A
330
1F
100
AcDbEntity
  8
0
  6
HIDDEN
 62
     7
370
     0
100
AcDbPolyline
 90
       21
 70
   128
 43
0.0
 10
187.8450108376
 20
124.2700687068
 10
188.5617613476
 20
124.3301669525
 10
189.2236690652
 20
124.5954551192
 10
189.7659400162
 20
125.0399642082
 10
190.1354944017
 20
125.6201828288
 10
190.2961568591
 20
126.2793152052
 10
190.2322010752
 20
126.9528402405
 10
189.9498874005
 20
127.5748296099
 10
189.4768500384
 20
128.0843990313
 10
188.8593952786
 20
128.431665005
 10
188.1579612997
 20
128.582639845
 10
187.4412107896
 20
128.5225397366
 10
186.7793030721
 20
128.2572525012
 10
186.2370321211
 20
127.8127434122
 10
185.8674777355
 20
127.2325238603
 10
185.7068152782
 20
126.5733924153
 10
185.7707701307
 20
125.8998673799
 10
186.0530838054
 20
125.2778780105
 10
186.5261211675
 20
124.7683095204
 10
187.1435768586
 20
124.4210416841
 10
187.8450108376
 20
124.2700687068
  0
LWPOLYLINE
  5
15B
330
1F
100
AcDbEntity
  8
0
  6
HIDDEN
 62
     7
370
     0
100
AcDbPolyline
 90
       22
 70
   128
 43
0.0
 10
187.8314042148
 20
124.4451964664
 10
188.5741414186
 20
124.5022148284
 10
189.2659948822
 20
124.7624235617
 10
189.8454917278
 20
125.202700721
 10
190.2611409929
 20
125.7839261013
 10
190.4760082867
 20
126.4544560032
 10
190.4710052219
 20
127.1547090652
 10
190.2465732452
 20
127.8224664199
 10
189.822657561
 20
128.3983944374
 10
189.2369208541
 20
128.8313197362
 10
188.5414100867
 20
129.0827749687
 10
187.7979259622
 20
129.1304158437
 10
187.072528122
 20
128.9700104313
 10
186.4296724703
 20
128.6158116924
 10
185.9264798146
 20
128.0992908793
 10
185.6076601576
 20
127.4663435685
 10
185.5015424695
 20
126.773211399
 10
185.61755546
 20
126.0814790072
 10
185.9453912508
 20
125.452612752
 10
186.4559208658
 20
124.9424882623
 10
187.1037795823
 20
124.596433008
 10
187.8314042148
 20
124.4451964664
  0
LWPOLYLINE
  5
15C
330
1F
100
AcDbEntity
  8
0
  6
HIDDEN
 62
     7
370
     0
100
AcDbPolyline
 90
       21
 70
   128
 43
0.0
 10
187.8409288507
 20
124.6243307757
 10
188.5763775241
 20
124.6859973686
 10
189.2555519622
 20
124.9582061934
 10
189.8119697031
 20
125.4143111798
 10
190.1911632773
 20
126.0096665862
 10
190.3560185489
 20
126.6859930398
 10
190.290393835
 20
127.3770893382
 10
190.0007152614
 20
128.0153042095
 10
189.5153378751
 20
128.5381654667
 10
188.8817749601
 20
128.8944913464
 10
188.1620432865
 20
129.0494038182
 10
187.4265946132
 20
128.9877372252
 10
186.747420175
 20
128.7155284005
 10
186.1910024342
 20
128.2594243454
 10
185.8118079286
 20
127.664068939
 10
185.6469535884
 20
126.9877424853
 10
185.7125783023
 20
126.2966461869
 10
186.0022559446
 20
125.6584313157
 10
186.4876333308
 20
125.1355700585
 10
187.1211962458
 20
124.7792432474
 10
187.8409288507
 20
124.6243307757
  0
ARC
  5
15D
330
1F
100
AcDbEntity
  8
0
  6
HIDDEN
 62
     7
370
     0
100
AcDbCircle
 10
187.9875628418
 20
96.2411697386
 30
0.0
 40
2.481064946127802
100
AcDbArc
 50
345.1259223678
 51
182.5836989983
  0
ARC
  5
15E
330
1F
100
AcDbEntity
  8
0
  6
HIDDEN
 62
     7
370
     0
100
AcDbCircle
 10
187.9818733048
 20
96.1705059027
 30
0.0
 40
2.357285514969191
100
AcDbArc
 50
351.1507649568
 51
158.3919933761
  0
ARC
  5
15F
330
1F
100
AcDbEntity
  8
0
  6
HIDDEN
 62
     7
370
     0
100
AcDbCircle
 10
187.999616165
 20
96.1603789872
 30
0.0
 40
2.004534120853406
100
AcDbArc
 50
2.9541810452
 51
126.9189919437
  0
LWPOLYLINE
  5
160
330
1F
100
AcDbEntity
  8
0
  6
HIDDEN
 62
     7
370
     0
100
AcDbPolyline
 90
       22
 70
   128
 43
0.0
 10
187.1464360189
 20
94.2921249586
 10
186.4919751566
 20
94.6270322817
 10
185.9716405776
 20
95.1283315586
 10
185.631667791
 20
95.751481356
 10
185.5022633132
 20
96.4411126839
 10
185.5949252528
 20
97.1359482425
 10
185.9014207181
 20
97.7742478641
 10
186.3945169058
 20
98.299296798
 10
187.030398814
 20
98.6644423025
 10
187.7525658962
 20
98.8372389617
 10
188.4968509581
 20
98.8023329916
 10
189.1971207839
 20
98.5628266277
 10
189.7911527809
 20
98.1400005909
 10
190.2261661049
 20
97.5714253651
 10
190.4635062125
 20
96.9076205435
 10
190.4820842352
 20
96.2075686472
 10
190.2802498695
 20
95.5334717798
 10
189.8759385255
 20
94.9452279525
 10
189.3050741088
 20
94.4951029884
 10
188.6183792409
 20
94.2230934667
 10
187.8768713828
 20
94.1533690708
 10
187.1464360189
 20
94.2921249586
  0
LWPOLYLINE
  5
161
330
1F
100
AcDbEntity
  8
0
  6
HIDDEN
 62
     7
370
     0
100
AcDbPolyline
 90
       20
 70
   128
 43
0.0
 10
187.3174454701
 20
95.9154183435
 10
186.7442732361
 20
96.2198201957
 10
186.3073395249
 20
96.6826139408
 10
186.0539927762
 20
97.2536487895
 10
186.0116874483
 20
97.8710430133
 10
186.1850075107
 20
98.4678941237
 10
186.5551709812
 20
98.9795226994
 10
187.0820648652
 20
99.350486176
 10
187.7085925695
 20
99.5405858772
 10
188.3668597471
 20
99.5292200165
 10
188.9855336082
 20
99.3176216649
 10
189.4975701031
 20
98.9287199842
 10
189.8474828955
 20
98.4046582522
 10
189.9973531869
 20
97.8022275882
 10
189.9309405741
 20
97.1867099794
 10
189.6554404553
 20
96.6248058172
 10
189.2007101011
 20
96.1774077656
 10
188.6160239261
 20
95.8929976838
 10
187.9647444617
 20
95.8023948985
 10
187.3174454701
 20
95.9154183435
  0
LWPOLYLINE
  5
162
330
1F
100
AcDbEntity
  8
0
  6
HIDDEN
 62
     7
370
     0
100
AcDbPolyline
 90
       22
 70
   128
 43
0.0
 10
187.1464360189
 20
94.5281183737
 10
186.4919751566
 20
94.8630256968
 10
185.9716405776
 20
95.3643249738
 10
185.631667791
 20
95.9874757024
 10
185.5022633132
 20
96.6771070304
 10
185.5949252528
 20
97.3719416576
 10
185.9014207181
 20
98.0102412792
 10
186.3945169058
 20
98.5352902132
 10
187.030398814
 20
98.9004357176
 10
187.7525658962
 20
99.0732323768
 10
188.4968509581
 20
99.038327338
 10
189.1971207839
 20
98.7988209742
 10
189.7911527809
 20
98.3759949374
 10
190.2261661049
 20
97.8074197116
 10
190.4635062125
 20
97.1436148899
 10
190.4820842352
 20
96.4435629936
 10
190.2802498695
 20
95.7694670575
 10
189.8759385255
 20
95.1812213677
 10
189.3050741088
 20
94.7310964035
 10
188.6183792409
 20
94.4590887445
 10
187.8768713828
 20
94.3893643486
 10
187.1464360189
 20
94.5281183737
  0
LWPOLYLINE
  5
163
330
1F
100
AcDbEntity
  8
0
  6
HIDDEN
 62
     7
370
     0
100
AcDbPolyline
 90
       21
 70
   128
 43
0.0
 10
187.2148397994
 20
94.643250333
 10
186.585465042
 20
94.9710777419
 10
186.0946999546
 20
95.4656212049
 10
185.7905840185
 20
96.0784677806
 10
185.7028869596
 20
96.7496291193
 10
185.8401927781
 20
97.4134069326
 10
186.1890615579
 20
98.0048256385
 10
186.7153426316
 20
98.4659942257
 10
187.3675198909
 20
98.7517686951
 10
188.0817548987
 20
98.8341767731
 10
188.7881323379
 20
98.7051522749
 10
189.4175070953
 20
98.3773230033
 10
189.9082721826
 20
97.8827804717
 10
190.2123881188
 20
97.269933896
 10
190.3000851777
 20
96.5987725573
 10
190.1627784279
 20
95.934994744
 10
189.8139105793
 20
95.3435751068
 10
189.2876295057
 20
94.8824083822
 10
188.6354522463
 20
94.5966320502
 10
187.9212172386
 20
94.5142249035
 10
187.2148397994
 20
94.643250333
  0
LWPOLYLINE
  5
164
330
1F
100
AcDbEntity
  8
0
  6
HIDDEN
 62
     7
370
     0
100
AcDbPolyline
 90
       22
 70
   128
 43
0.0
 10
187.1464360189
 20
94.7641136515
 10
186.4919751566
 20
95.0990191119
 10
185.9716405776
 20
95.6003202515
 10
185.631667791
 20
96.2234700488
 10
185.5022633132
 20
96.9131004455
 10
185.5949252528
 20
97.607936004
 10
185.9014207181
 20
98.2462356257
 10
186.3945169058
 20
98.7712845596
 10
187.030398814
 20
99.1364300641
 10
187.7525658962
 20
99.3092267233
 10
188.4968509581
 20
99.2743207532
 10
189.1971207839
 20
99.0348143893
 10
189.7911527809
 20
98.6119883525
 10
190.2261661049
 20
98.0434131267
 10
190.4635062125
 20
97.379608305
 10
190.4820842352
 20
96.6795564088
 10
190.2802498695
 20
96.0054604726
 10
189.8759385255
 20
95.4172147828
 10
189.3050741088
 20
94.9670916813
 10
188.6183792409
 20
94.6950821596
 10
187.8768713828
 20
94.6253577637
 10
187.1464360189
 20
94.7641136515
  0
LWPOLYLINE
  5
165
330
1F
100
AcDbEntity
  8
0
  6
HIDDEN
 62
     7
370
     0
100
AcDbPolyline
 90
       21
 70
   128
 43
0.0
 10
187.2148397994
 20
94.8792437481
 10
186.585465042
 20
95.2070730197
 10
186.0946999546
 20
95.70161462
 10
185.7905840185
 20
96.3144611957
 10
185.7028869596
 20
96.9856225344
 10
185.8401927781
 20
97.6494003477
 10
186.1890615579
 20
98.2408199849
 10
186.7153426316
 20
98.7019876408
 10
187.3675198909
 20
98.9877630415
 10
188.0817548987
 20
99.0701711195
 10
188.7881323379
 20
98.94114569
 10
189.4175070953
 20
98.6133164185
 10
189.9082721826
 20
98.1187748181
 10
190.2123881188
 20
97.5059282424
 10
190.3000851777
 20
96.8347669038
 10
190.1627784279
 20
96.1709890904
 10
189.8139105793
 20
95.5795703846
 10
189.2876295057
 20
95.1184017974
 10
188.6354522463
 20
94.832627328
 10
187.9212172386
 20
94.7502183186
 10
187.2148397994
 20
94.8792437481
  0
LWPOLYLINE
  5
166
330
1F
100
AcDbEntity
  8
0
  6
HIDDEN
 62
     7
370
     0
100
AcDbPolyline
 90
       22
 70
   128
 43
0.0
 10
187.1464360189
 20
95.0001070666
 10
186.4919751566
 20
95.3350143897
 10
185.9716405776
 20
95.8363136666
 10
185.631667791
 20
96.459463464
 10
185.5022633132
 20
97.1490947919
 10
185.5949252528
 20
97.8439294192
 10
185.9014207181
 20
98.4822290408
 10
186.3945169058
 20
99.0072779747
 10
187.030398814
 20
99.3724234792
 10
187.7525658962
 20
99.5452201384
 10
188.4968509581
 20
99.5103150996
 10
189.1971207839
 20
99.2708087357
 10
189.7911527809
 20
98.8479826989
 10
190.2261661049
 20
98.2794074731
 10
190.4635062125
 20
97.6156026515
 10
190.4820842352
 20
96.9155507552
 10
190.2802498695
 20
96.2414538878
 10
189.8759385255
 20
95.6532100605
 10
189.3050741088
 20
95.2030850964
 10
188.6183792409
 20
94.9310755747
 10
187.8768713828
 20
94.8613511788
 10
187.1464360189
 20
95.0001070666
  0
LWPOLYLINE
  5
167
330
1F
100
AcDbEntity
  8
0
  6
HIDDEN
 62
     7
370
     0
100
AcDbPolyline
 90
       21
 70
   128
 43
0.0
 10
187.2148397994
 20
95.1152371632
 10
186.585465042
 20
95.4430664348
 10
186.0946999546
 20
95.9376089665
 10
185.7905840185
 20
96.5504555421
 10
185.7028869596
 20
97.2216168808
 10
185.8401927781
 20
97.8853946941
 10
186.1890615579
 20
98.4768134
 10
186.7153426316
 20
98.9379819872
 10
187.3675198909
 20
99.2237564566
 10
188.0817548987
 20
99.3061654659
 10
188.7881323379
 20
99.1771400365
 10
189.4175070953
 20
98.8493107649
 10
189.9082721826
 20
98.3547682332
 10
190.2123881188
 20
97.7419216576
 10
190.3000851777
 20
97.0707603189
 10
190.1627784279
 20
96.4069825056
 10
189.8139105793
 20
95.8155637997
 10
189.2876295057
 20
95.3543952125
 10
188.6354522463
 20
95.0686207431
 10
187.9212172386
 20
94.9862117338
 10
187.2148397994
 20
95.1152371632
  0
LWPOLYLINE
  5
168
330
1F
100
AcDbEntity
  8
0
  6
HIDDEN
 62
     7
370
     0
100
AcDbPolyline
 90
       22
 70
   128
 43
0.0
 10
187.1464360189
 20
95.2361004817
 10
186.4919751566
 20
95.5710078048
 10
185.9716405776
 20
96.0723070818
 10
185.631667791
 20
96.6954578104
 10
185.5022633132
 20
97.3850882071
 10
185.5949252528
 20
98.0799237656
 10
185.9014207181
 20
98.7182233872
 10
186.3945169058
 20
99.2432723212
 10
187.030398814
 20
99.6084178256
 10
187.7525658962
 20
99.7812144848
 10
188.4968509581
 20
99.7463085147
 10
189.1971207839
 20
99.5068021508
 10
189.7911527809
 20
99.083976114
 10
190.2261661049
 20
98.5154008883
 10
190.4635062125
 20
97.8515960666
 10
190.4820842352
 20
97.1515441703
 10
190.2802498695
 20
96.4774482342
 10
189.8759385255
 20
95.8892034757
 10
189.3050741088
 20
95.4390785115
 10
188.6183792409
 20
95.1670689898
 10
187.8768713828
 20
95.0973445939
 10
187.1464360189
 20
95.2361004817
  0
LWPOLYLINE
  5
169
330
1F
100
AcDbEntity
  8
0
  6
HIDDEN
 62
     7
370
     0
100
AcDbPolyline
 90
       21
 70
   128
 43
0.0
 10
187.2148397994
 20
95.3512305784
 10
186.585465042
 20
95.6790598499
 10
186.0946999546
 20
96.1736023816
 10
185.7905840185
 20
96.7864489573
 10
185.7028869596
 20
97.4576102959
 10
185.8401927781
 20
98.1213881093
 10
186.1890615579
 20
98.7128077465
 10
186.7153426316
 20
99.1739754024
 10
187.3675198909
 20
99.4597508031
 10
188.0817548987
 20
99.5421588811
 10
188.7881323379
 20
99.4131334516
 10
189.4175070953
 20
99.0853051113
 10
189.9082721826
 20
98.5907625797
 10
190.2123881188
 20
97.977916004
 10
190.3000851777
 20
97.3067546653
 10
190.1627784279
 20
96.642976852
 10
189.8139105793
 20
96.0515572148
 10
189.2876295057
 20
95.5903886276
 10
188.6354522463
 20
95.3046141582
 10
187.9212172386
 20
95.2222051489
 10
187.2148397994
 20
95.3512305784
  0
LWPOLYLINE
  5
16A
330
1F
100
AcDbEntity
  8
0
  6
HIDDEN
 62
     7
370
     0
100
AcDbPolyline
 90
       22
 70
   128
 43
0.0
 10
187.1464360189
 20
95.8346354234
 10
186.4919751566
 20
96.1695427465
 10
185.9716405776
 20
96.6708429548
 10
185.631667791
 20
97.2939927521
 10
185.5022633132
 20
97.9836240801
 10
185.5949252528
 20
98.6784587073
 10
185.9014207181
 20
99.3167583289
 10
186.3945169058
 20
99.8418072628
 10
187.030398814
 20
100.2069527673
 10
187.7525658962
 20
100.3797494265
 10
188.4968509581
 20
100.3448434564
 10
189.1971207839
 20
100.1053380238
 10
189.7911527809
 20
99.682511987
 10
190.2261661049
 20
99.1139358299
 10
190.4635062125
 20
98.4501319396
 10
190.4820842352
 20
97.7500800433
 10
190.2802498695
 20
97.0759831759
 10
189.8759385255
 20
96.4877384173
 10
189.3050741088
 20
96.0376134532
 10
188.6183792409
 20
95.7656039315
 10
187.8768713828
 20
95.6958813983
 10
187.1464360189
 20
95.8346354234
  0
LWPOLYLINE
  5
16B
330
1F
100
AcDbEntity
  8
0
  6
HIDDEN
 62
     7
370
     0
100
AcDbPolyline
 90
       19
 70
   128
 43
0.0
 10
187.3241547179
 20
96.3960739242
 10
186.7285189834
 20
96.7192251625
 10
186.2864220199
 20
97.2143208998
 10
186.0511876326
 20
97.8216465952
 10
186.0511876326
 20
98.4679490718
 10
186.2864220199
 20
99.0752738359
 10
186.7285189834
 20
99.5703705045
 10
187.3241547179
 20
99.8935217428
 10
188.0014860686
 20
100.0057507696
 10
188.6788174194
 20
99.8935217428
 10
189.2744531539
 20
99.5703705045
 10
189.7165501174
 20
99.0752738359
 10
189.9517835733
 20
98.4679490718
 10
189.9517835733
 20
97.8216465952
 10
189.7165501174
 20
97.2143208998
 10
189.2744531539
 20
96.7192251625
 10
188.6788174194
 20
96.3960739242
 10
188.0014860686
 20
96.2838448974
 10
187.3241547179
 20
96.3960739242
  0
LWPOLYLINE
  5
16C
330
1F
100
AcDbEntity
  8
0
  6
HIDDEN
 62
     7
370
     0
100
AcDbPolyline
 90
       20
 70
   128
 43
0.0
 10
180.0941555444
 20
96.8664691242
 10
180.0715849419
 20
97.5121038424
 10
179.9244620521
 20
98.1721861678
 10
179.668730652
 20
98.7751840072
 10
179.3321022448
 20
99.2557548376
 10
178.95105627
 20
99.5618200319
 10
178.5668852423
 20
99.6602133306
 10
178.2212192808
 20
99.5402720215
 10
177.9515175764
 20
99.2149945738
 10
177.7870059628
 20
98.719628753
 10
177.7455113512
 20
98.1078550609
 10
177.8315315638
 20
97.4459696951
 10
178.0357440617
 20
96.8056966009
 10
178.3360192236
 20
96.2564211729
 10
178.6998180356
 20
95.857665168
 10
179.0877171476
 20
95.6526382285
 10
179.4576813151
 20
95.6635626423
 10
179.7696194295
 20
95.8892500418
 10
179.9897282068
 20
96.3052448275
 10
180.0941555444
 20
96.8664691242
  0
LWPOLYLINE
  5
16D
330
1F
100
AcDbEntity
  8
0
  6
HIDDEN
 62
     7
370
     0
100
AcDbPolyline
 90
       22
 70
   128
 43
0.0
 10
180.5583905112
 20
96.7481930199
 10
180.5402492788
 20
97.4566929432
 10
180.3970384095
 20
98.1864400598
 10
180.141483495
 20
98.8725938293
 10
179.7962906454
 20
99.4541852193
 10
179.3921329696
 20
99.8795379343
 10
178.9649208691
 20
100.1108589041
 10
178.5526141208
 20
100.1275919768
 10
178.1918481607
 20
99.9282507616
 10
177.9146786463
 20
99.5305490139
 10
177.7457334716
 20
98.9698239061
 10
177.7000234612
 20
98.2958965393
 10
177.7816108112
 20
97.5686509552
 10
177.9832458739
 20
96.8527041765
 10
178.2870125641
 20
96.2116711231
 10
178.6659197565
 20
95.702512415
 10
179.0863001403
 20
95.3704661148
 10
179.5108006951
 20
95.2450393158
 10
179.9017033223
 20
95.3373743611
 10
180.224273881
 20
95.6392662989
 10
180.4498509188
 20
96.1238939705
 10
180.5583905112
 20
96.7481930199
  0
LWPOLYLINE
  5
16E
330
1F
100
AcDbEntity
  8
0
  6
HIDDEN
 62
     7
370
     0
100
AcDbPolyline
 90
       22
 70
   128
 43
0.0
 10
183.0101772826
 20
97.3353593069
 10
182.9920360502
 20
98.0438592302
 10
182.8488256466
 20
98.7736063468
 10
182.5932698008
 20
99.4597601163
 10
182.2480778825
 20
100.0413515063
 10
181.8439202067
 20
100.4667051526
 10
181.4167076405
 20
100.6980251911
 10
181.0044008922
 20
100.7147582638
 10
180.6436353978
 20
100.5154179799
 10
180.3664658834
 20
100.1177153009
 10
180.197520243
 20
99.5569901931
 10
180.1518104654
 20
98.8830628263
 10
180.2333975826
 20
98.1558172422
 10
180.4350326453
 20
97.4398704635
 10
180.7387993355
 20
96.7988374101
 10
181.1177069936
 20
96.289678702
 10
181.5380869117
 20
95.9576333331
 10
181.9625874665
 20
95.8322046714
 10
182.3534905594
 20
95.9245397168
 10
182.6760606524
 20
96.2264335173
 10
182.9016372245
 20
96.7110602575
 10
183.0101772826
 20
97.3353593069
  0
LINE
  5
16F
330
1F
100
AcDbEntity
  8
0
  6
HIDDEN
 62
     7
370
     0
100
AcDbLine
 10
178.5873184596
 20
99.0494016948
 30
0.0
 11
178.0990763251
 21
98.1925290468
 31
0.0
  0
LINE
  5
170
330
1F
100
AcDbEntity
  8
0
  6
HIDDEN
 62
     7
370
     0
100
AcDbLine
 10
178.4339734037
 20
96.7885444331
 30
0.0
 11
178.0990763251
 21
98.1925290468
 31
0.0
  0
LINE
  5
171
330
1F
100
AcDbEntity
  8
0
  6
HIDDEN
 62
     7
370
     0
100
AcDbLine
 10
179.257112151
 20
96.2414324673
 30
0.0
 11
178.4339734037
 21
96.7885444331
 31
0.0
  0
LINE
  5
172
330
1F
100
AcDbEntity
  8
0
  6
HIDDEN
 62
     7
370
     0
100
AcDbLine
 10
179.257112151
 20
96.2414324673
 30
0.0
 11
179.7453542855
 21
97.0983051153
 31
0.0
  0
LINE
  5
173
330
1F
100
AcDbEntity
  8
0
  6
HIDDEN
 62
     7
370
     0
100
AcDbLine
 10
179.4104572069
 20
98.5022897291
 30
0.0
 11
179.7453542855
 21
97.0983051153
 31
0.0
  0
LINE
  5
174
330
1F
100
AcDbEntity
  8
0
  6
HIDDEN
 62
     7
370
     0
100
AcDbLine
 10
179.4104572069
 20
98.5022897291
 30
0.0
 11
178.5873184596
 21
99.0494016948
 31
0.0
  0
LWPOLYLINE
  5
175
330
1F
100
AcDbEntity
  8
0
  6
HIDDEN
 62
     7
370
     0
100
AcDbPolyline
 90
       18
 70
   128
 43
0.0
 10
183.1968264338
 20
97.7667777258
 10
183.168209685
 20
98.3832732233
 10
183.0086722654
 20
99.0060942637
 10
182.7397593912
 20
99.5511265861
 10
182.3977907803
 20
99.9447603168
 10
182.0289507192
 20
100.1338327693
 10
181.6830528584
 20
100.0928089412
 10
181.4068123382
 20
99.8272292706
 10
181.2375374753
 20
99.3729617836
 10
181.198089445
 20
98.7913573551
 10
181.2937963438
 20
98.1609655934
 10
181.5117318798
 20
97.5669242831
 10
181.8224634659
 20
97.0894612762
 10
182.1840243098
 20
96.7930613475
 10
182.5475828406
 20
96.7177555355
 10
182.8640406635
 20
96.8737120199
 10
183.0906565916
 20
97.2398708033
 10
183.1968264338
 20
97.7667777258
  0
LINE
  5
176
330
1F
100
AcDbEntity
  8
0
  6
HIDDEN
 62
     7
370
     0
100
AcDbLine
 10
181.0487611834
 20
98.8946391659
 30
0.0
 11
179.4104572069
 21
98.5022897291
 31
0.0
  0
LINE
  5
177
330
1F
100
AcDbEntity
  8
0
  6
HIDDEN
 62
     7
370
     0
100
AcDbLine
 10
181.383658262
 20
97.4906545522
 30
0.0
 11
179.7453542855
 21
97.0983051153
 31
0.0
  0
LINE
  5
178
330
1F
100
AcDbEntity
  8
0
  6
HIDDEN
 62
     7
370
     0
100
AcDbLine
 10
180.8954161275
 20
96.6337819042
 30
0.0
 11
180.0722773802
 21
97.1808938699
 31
0.0
  0
LINE
  5
179
330
1F
100
AcDbEntity
  8
0
  6
HIDDEN
 62
     7
370
     0
100
AcDbLine
 10
180.0722773802
 20
97.1808938699
 30
0.0
 11
179.7373807673
 21
98.5848784837
 31
0.0
  0
LINE
  5
17A
330
1F
100
AcDbEntity
  8
0
  6
HIDDEN
 62
     7
370
     0
100
AcDbLine
 10
180.2256224361
 20
99.4417511317
 30
0.0
 11
179.7373807673
 21
98.5848784837
 31
0.0
  0
LINE
  5
17B
330
1F
100
AcDbEntity
  8
0
  6
HIDDEN
 62
     7
370
     0
100
AcDbLine
 10
180.8954161275
 20
96.6337819042
 30
0.0
 11
181.383658262
 21
97.4906545522
 31
0.0
  0
LINE
  5
17C
330
1F
100
AcDbEntity
  8
0
  6
HIDDEN
 62
     7
370
     0
100
AcDbLine
 10
181.0487611834
 20
98.8946391659
 30
0.0
 11
180.2256224361
 21
99.4417511317
 31
0.0
  0
LINE
  5
17D
330
1F
100
AcDbEntity
  8
0
  6
HIDDEN
 62
     7
370
     0
100
AcDbLine
 10
181.0487611834
 20
98.8946391659
 30
0.0
 11
181.383658262
 21
97.4906545522
 31
0.0
  0
LINE
  5
17E
330
1F
100
AcDbEntity
  8
0
  6
HIDDEN
 62
     7
370
     0
100
AcDbLine
 10
179.7373807673
 20
98.5848784837
 30
0.0
 11
178.0990763251
 21
98.1925290468
 31
0.0
  0
LINE
  5
17F
330
1F
100
AcDbEntity
  8
0
  6
HIDDEN
 62
     7
370
     0
100
AcDbLine
 10
180.2256224361
 20
99.4417511317
 30
0.0
 11
178.5873184596
 21
99.0494016948
 31
0.0
  0
LINE
  5
180
330
1F
100
AcDbEntity
  8
0
  6
HIDDEN
 62
     7
370
     0
100
AcDbLine
 10
180.0722773802
 20
97.1808938699
 30
0.0
 11
178.4339734037
 21
96.7885444331
 31
0.0
  0
LINE
  5
181
330
1F
100
AcDbEntity
  8
0
  6
HIDDEN
 62
     7
370
     0
100
AcDbLine
 10
180.8954161275
 20
96.6337819042
 30
0.0
 11
179.257112151
 21
96.2414324673
 31
0.0
  0
LWPOLYLINE
  5
182
330
1F
100
AcDbEntity
  8
0
  6
HIDDEN
 62
     7
370
     0
100
AcDbPolyline
 90
       22
 70
   128
 43
0.0
 10
183.0101772826
 20
125.7651953416
 10
182.9920360502
 20
125.0566954183
 10
182.8488256466
 20
124.3269483017
 10
182.5932698008
 20
123.6407945322
 10
182.2480778825
 20
123.0592031422
 10
181.8439202067
 20
122.6338494959
 10
181.4167076405
 20
122.4025294574
 10
181.0044008922
 20
122.3857963847
 10
180.6436353978
 20
122.5851366686
 10
180.3664658834
 20
122.9828393477
 10
180.197520243
 20
123.5435644554
 10
180.1518104654
 20
124.2174918222
 10
180.2333975826
 20
124.9447374063
 10
180.4350326453
 20
125.660684185
 10
180.7387993355
 20
126.3017172384
 10
181.1177069936
 20
126.8108759465
 10
181.5380869117
 20
127.1429213154
 10
181.9625874665
 20
127.2683499771
 10
182.3534905594
 20
127.1760149317
 10
182.6760606524
 20
126.8741211312
 10
182.9016372245
 20
126.389494391
 10
183.0101772826
 20
125.7651953416
  0
LWPOLYLINE
  5
183
330
1F
100
AcDbEntity
  8
0
  6
HIDDEN
 62
     7
370
     0
100
AcDbPolyline
 90
       18
 70
   128
 43
0.0
 10
183.1968264338
 20
125.3337769228
 10
183.168209685
 20
124.7172814252
 10
183.0086722654
 20
124.0944603848
 10
182.7397593912
 20
123.5494280624
 10
182.3977907803
 20
123.1557943317
 10
182.0289507192
 20
122.9667218792
 10
181.6830528584
 20
123.0077457073
 10
181.4068123382
 20
123.2733253779
 10
181.2375374753
 20
123.7275928649
 10
181.198089445
 20
124.3091972935
 10
181.2937963438
 20
124.9395890551
 10
181.5117318798
 20
125.5336303654
 10
181.8224634659
 20
126.0110933723
 10
182.1840243098
 20
126.307493301
 10
182.5475828406
 20
126.382799113
 10
182.8640406635
 20
126.2268426287
 10
183.0906565916
 20
125.8606838452
 10
183.1968264338
 20
125.3337769228
  0
LWPOLYLINE
  5
184
330
1F
100
AcDbEntity
  8
0
  6
HIDDEN
 62
     7
370
     0
100
AcDbPolyline
 90
       22
 70
   128
 43
0.0
 10
180.5583905112
 20
126.3523616286
 10
180.5402492788
 20
125.6438617053
 10
180.3970384095
 20
124.9141145887
 10
180.141483495
 20
124.2279608192
 10
179.7962906454
 20
123.6463694292
 10
179.3921329696
 20
123.2210167142
 10
178.9649208691
 20
122.9896957445
 10
178.5526141208
 20
122.9729626718
 10
178.1918481607
 20
123.1723038869
 10
177.9146786463
 20
123.5700056347
 10
177.7457334716
 20
124.1307307425
 10
177.7000234612
 20
124.8046581092
 10
177.7816108112
 20
125.5319036933
 10
177.9832458739
 20
126.247850472
 10
178.2870125641
 20
126.8888835254
 10
178.6659197565
 20
127.3980422335
 10
179.0863001403
 20
127.7300885337
 10
179.5108006951
 20
127.8555153328
 10
179.9017033223
 20
127.7631802874
 10
180.224273881
 20
127.4612883496
 10
180.4498509188
 20
126.976660678
 10
180.5583905112
 20
126.3523616286
  0
LINE
  5
185
330
1F
100
AcDbEntity
  8
0
  6
HIDDEN
 62
     7
370
     0
100
AcDbLine
 10
180.0722773802
 20
125.9196607786
 30
0.0
 11
179.7373807673
 21
124.5156761649
 31
0.0
  0
LINE
  5
186
330
1F
100
AcDbEntity
  8
0
  6
HIDDEN
 62
     7
370
     0
100
AcDbLine
 10
178.4339734037
 20
126.3120102155
 30
0.0
 11
178.0990763251
 21
124.9080256017
 31
0.0
  0
LWPOLYLINE
  5
187
330
1F
100
AcDbEntity
  8
0
  6
HIDDEN
 62
     7
370
     0
100
AcDbPolyline
 90
       20
 70
   128
 43
0.0
 10
180.0941555444
 20
126.2340855243
 10
180.0715849419
 20
125.5884508061
 10
179.9244620521
 20
124.9283684807
 10
179.668730652
 20
124.3253706413
 10
179.3321022448
 20
123.8447998109
 10
178.95105627
 20
123.5387346166
 10
178.5668852423
 20
123.4403413179
 10
178.2212192808
 20
123.560282627
 10
177.9515175764
 20
123.8855600747
 10
177.7870059628
 20
124.3809258955
 10
177.7455113512
 20
124.9926995876
 10
177.8315315638
 20
125.6545849534
 10
178.0357440617
 20
126.2948580476
 10
178.3360192236
 20
126.8441334757
 10
178.6998180356
 20
127.2428894805
 10
179.0877171476
 20
127.44791642
 10
179.4576813151
 20
127.4369920062
 10
179.7696194295
 20
127.2113046067
 10
179.9897282068
 20
126.795309821
 10
180.0941555444
 20
126.2340855243
  0
LINE
  5
188
330
1F
100
AcDbEntity
  8
0
  6
HIDDEN
 62
     7
370
     0
100
AcDbLine
 10
179.257112151
 20
126.8591221812
 30
0.0
 11
178.4339734037
 21
126.3120102155
 31
0.0
  0
LINE
  5
189
330
1F
100
AcDbEntity
  8
0
  6
HIDDEN
 62
     7
370
     0
100
AcDbLine
 10
180.8954161275
 20
126.4667727443
 30
0.0
 11
180.0722773802
 21
125.9196607786
 31
0.0
  0
LINE
  5
18A
330
1F
100
AcDbEntity
  8
0
  6
HIDDEN
 62
     7
370
     0
100
AcDbLine
 10
180.0722773802
 20
125.9196607786
 30
0.0
 11
178.4339734037
 21
126.3120102155
 31
0.0
  0
LINE
  5
18B
330
1F
100
AcDbEntity
  8
0
  6
HIDDEN
 62
     7
370
     0
100
AcDbLine
 10
178.5873184596
 20
124.0511529537
 30
0.0
 11
178.0990763251
 21
124.9080256017
 31
0.0
  0
LINE
  5
18C
330
1F
100
AcDbEntity
  8
0
  6
HIDDEN
 62
     7
370
     0
100
AcDbLine
 10
180.2256224361
 20
123.6588035169
 30
0.0
 11
179.7373807673
 21
124.5156761649
 31
0.0
  0
LINE
  5
18D
330
1F
100
AcDbEntity
  8
0
  6
HIDDEN
 62
     7
370
     0
100
AcDbLine
 10
179.7373807673
 20
124.5156761649
 30
0.0
 11
178.0990763251
 21
124.9080256017
 31
0.0
  0
LINE
  5
18E
330
1F
100
AcDbEntity
  8
0
  6
HIDDEN
 62
     7
370
     0
100
AcDbLine
 10
181.383658262
 20
125.6099000963
 30
0.0
 11
179.7453542855
 21
126.0022495332
 31
0.0
  0
LINE
  5
18F
330
1F
100
AcDbEntity
  8
0
  6
HIDDEN
 62
     7
370
     0
100
AcDbLine
 10
180.8954161275
 20
126.4667727443
 30
0.0
 11
179.257112151
 21
126.8591221812
 31
0.0
  0
LINE
  5
190
330
1F
100
AcDbEntity
  8
0
  6
HIDDEN
 62
     7
370
     0
100
AcDbLine
 10
179.257112151
 20
126.8591221812
 30
0.0
 11
179.7453542855
 21
126.0022495332
 31
0.0
  0
LINE
  5
191
330
1F
100
AcDbEntity
  8
0
  6
HIDDEN
 62
     7
370
     0
100
AcDbLine
 10
180.8954161275
 20
126.4667727443
 30
0.0
 11
181.383658262
 21
125.6099000963
 31
0.0
  0
LINE
  5
192
330
1F
100
AcDbEntity
  8
0
  6
HIDDEN
 62
     7
370
     0
100
AcDbLine
 10
181.0487611834
 20
124.2059154826
 30
0.0
 11
179.4104572069
 21
124.5982649195
 31
0.0
  0
LINE
  5
193
330
1F
100
AcDbEntity
  8
0
  6
HIDDEN
 62
     7
370
     0
100
AcDbLine
 10
180.2256224361
 20
123.6588035169
 30
0.0
 11
178.5873184596
 21
124.0511529537
 31
0.0
  0
LINE
  5
194
330
1F
100
AcDbEntity
  8
0
  6
HIDDEN
 62
     7
370
     0
100
AcDbLine
 10
179.4104572069
 20
124.5982649195
 30
0.0
 11
178.5873184596
 21
124.0511529537
 31
0.0
  0
LINE
  5
195
330
1F
100
AcDbEntity
  8
0
  6
HIDDEN
 62
     7
370
     0
100
AcDbLine
 10
181.0487611834
 20
124.2059154826
 30
0.0
 11
180.2256224361
 21
123.6588035169
 31
0.0
  0
LINE
  5
196
330
1F
100
AcDbEntity
  8
0
  6
HIDDEN
 62
     7
370
     0
100
AcDbLine
 10
179.4104572069
 20
124.5982649195
 30
0.0
 11
179.7453542855
 21
126.0022495332
 31
0.0
  0
LINE
  5
197
330
1F
100
AcDbEntity
  8
0
  6
HIDDEN
 62
     7
370
     0
100
AcDbLine
 10
181.0487611834
 20
124.2059154826
 30
0.0
 11
181.383658262
 21
125.6099000963
 31
0.0
  0
LINE
  5
198
330
1F
100
AcDbEntity
  8
0
  6
HIDDEN
 62
     7
370
     0
100
AcDbLine
 10
229.7514868584
 20
142.050277667
 30
0.0
 11
229.2266940382
 21
142.5750686246
 31
0.0
  0
LINE
  5
199
330
1F
100
AcDbEntity
  8
0
  6
HIDDEN
 62
     7
370
     0
100
AcDbLine
 10
214.2753457334
 20
142.5741391646
 30
0.0
 11
213.7514842358
 21
142.050277667
 31
0.0
  0
LINE
  5
19A
330
1F
100
AcDbEntity
  8
0
  6
HIDDEN
 62
     7
370
     0
100
AcDbLine
 10
213.7514842358
 20
142.050277667
 30
0.0
 11
213.7514842358
 21
131.8804046529
 31
0.0
  0
LINE
  5
19B
330
1F
100
AcDbEntity
  8
0
  6
HIDDEN
 62
     7
370
     0
100
AcDbLine
 10
229.7514868584
 20
131.8804046529
 30
0.0
 11
229.7514868584
 21
142.050277667
 31
0.0
  0
LINE
  5
19C
330
1F
100
AcDbEntity
  8
0
  6
HIDDEN
 62
     7
370
     0
100
AcDbLine
 10
213.7514842358
 20
131.8804046529
 30
0.0
 11
216.152187964
 21
122.9208682122
 31
0.0
  0
LINE
  5
19D
330
1F
100
AcDbEntity
  8
0
  6
HIDDEN
 62
     7
370
     0
100
AcDbLine
 10
227.3507868555
 20
122.9208682122
 30
0.0
 11
229.7514868584
 21
131.8804046529
 31
0.0
  0
ARC
  5
19E
330
1F
100
AcDbEntity
  8
0
  6
HIDDEN
 62
     7
370
     0
100
AcDbCircle
 10
216.6351494702
 20
123.0502773243
 30
0.0
 40
0.5
100
AcDbArc
 50
195.0
 51
270.0
  0
ARC
  5
19F
330
1F
100
AcDbEntity
  8
0
  6
HIDDEN
 62
     7
370
     0
100
AcDbCircle
 10
226.8678224822
 20
123.0502773243
 30
0.0
 40
0.5000000000000152
100
AcDbArc
 50
270.0
 51
345.0
  0
LINE
  5
1A0
330
1F
100
AcDbEntity
  8
0
  6
HIDDEN
 62
     7
370
     0
100
AcDbLine
 10
217.0514842179
 20
143.0502778309
 30
0.0
 11
217.7514848914
 21
142.3502771574
 31
0.0
  0
LINE
  5
1A1
330
1F
100
AcDbEntity
  8
0
  6
HIDDEN
 62
     7
370
     0
100
AcDbLine
 10
225.7514862027
 20
142.3502771574
 30
0.0
 11
226.4514868763
 21
143.0502778309
 31
0.0
  0
LINE
  5
1A2
330
1F
100
AcDbEntity
  8
0
  6
HIDDEN
 62
     7
370
     0
100
AcDbLine
 10
217.7514848914
 20
133.0502780544
 30
0.0
 11
217.7514848914
 21
132.0502778905
 31
0.0
  0
LINE
  5
1A3
330
1F
100
AcDbEntity
  8
0
  6
HIDDEN
 62
     7
370
     0
100
AcDbLine
 10
225.7514862027
 20
132.0502778905
 30
0.0
 11
225.7514862027
 21
133.0502780544
 31
0.0
  0
LINE
  5
1A4
330
1F
100
AcDbEntity
  8
0
  6
HIDDEN
 62
     7
370
     0
100
AcDbLine
 10
217.7514848914
 20
132.0502778905
 30
0.0
 11
221.7514855471
 21
130.594397189
 31
0.0
  0
LINE
  5
1A5
330
1F
100
AcDbEntity
  8
0
  6
HIDDEN
 62
     7
370
     0
100
AcDbLine
 10
221.7514855471
 20
130.594397189
 30
0.0
 11
225.7514862027
 21
132.0502778905
 31
0.0
  0
LINE
  5
1A6
330
1F
100
AcDbEntity
  8
0
  6
HIDDEN
 62
     7
370
     0
100
AcDbLine
 10
190.5014855471
 20
94.8859641718
 30
0.0
 11
190.5014855471
 21
98.0421921628
 31
0.0
  0
LINE
  5
1A7
330
1F
100
AcDbEntity
  8
0
  6
HIDDEN
 62
     7
370
     0
100
AcDbLine
 10
185.5014856588
 20
98.0421921628
 30
0.0
 11
185.5014856588
 21
95.9885327535
 31
0.0
  0
LINE
  5
1A8
330
1F
100
AcDbEntity
  8
0
  6
HIDDEN
 62
     7
370
     0
100
AcDbLine
 10
177.0014858954
 20
94.1006003337
 30
0.0
 11
179.620913757
 21
94.7279150056
 31
0.0
  0
LINE
  5
1A9
330
1F
100
AcDbEntity
  8
0
  6
HIDDEN
 62
     7
370
     0
100
AcDbLine
 10
178.2235168536
 20
100.5629200878
 30
0.0
 11
177.0014858954
 21
100.270261282
 31
0.0
  0
LINE
  5
1AA
330
1F
100
AcDbEntity
  8
0
  6
HIDDEN
 62
     7
370
     0
100
AcDbLine
 10
179.6796364393
 20
95.667427631
 30
0.0
 11
187.1487857458
 21
97.4561769905
 31
0.0
  0
LINE
  5
1AB
330
1F
100
AcDbEntity
  8
0
  6
HIDDEN
 62
     7
370
     0
100
AcDbLine
 10
187.1487857458
 20
101.7749395611
 30
0.0
 11
178.7014585603
 21
99.7519309091
 31
0.0
  0
LINE
  5
1AC
330
1F
100
AcDbEntity
  8
0
  6
HIDDEN
 62
     7
370
     0
100
AcDbLine
 10
190.1014862266
 20
98.0919862556
 30
0.0
 11
190.1014862266
 21
109.5008209738
 31
0.0
  0
LINE
  5
1AD
330
1F
100
AcDbEntity
  8
0
  6
HIDDEN
 62
     7
370
     0
100
AcDbLine
 10
185.9014859107
 20
98.4400364029
 30
0.0
 11
185.9014859107
 21
98.0919862556
 31
0.0
  0
LINE
  5
1AE
330
1F
100
AcDbEntity
  8
0
  6
HIDDEN
 62
     7
370
     0
100
AcDbLine
 10
185.9014859107
 20
109.5006617176
 30
0.0
 11
185.9014859107
 21
100.1936609315
 31
0.0
  0
ARC
  5
1AF
330
1F
100
AcDbEntity
  8
0
  6
HIDDEN
 62
     7
370
     0
100
AcDbCircle
 10
238.8014859762
 20
130.5502773243
 30
0.0
 40
1.0
100
AcDbArc
 50
270.0
 51
0.0
  0
ARC
  5
1B0
330
1F
100
AcDbEntity
  8
0
  6
HIDDEN
 62
     7
370
     0
100
AcDbCircle
 10
238.8014859762
 20
92.5502773243
 30
0.0
 40
1.000000000000014
100
AcDbArc
 50
0.0
 51
90.0
  0
LINE
  5
1B1
330
1F
100
AcDbEntity
  8
0
  6
HIDDEN
 62
     7
370
     0
100
AcDbLine
 10
202.169834232
 20
130.0502775627
 30
0.0
 11
200.3014856633
 21
130.0502775627
 31
0.0
  0
LINE
  5
1B2
330
1F
100
AcDbEntity
  8
0
  6
HIDDEN
 62
     7
370
     0
100
AcDbLine
 10
200.3014856633
 20
93.0502770858
 30
0.0
 11
202.169834232
 21
93.0502770858
 31
0.0
  0
ARC
  5
1B3
330
1F
100
AcDbEntity
  8
0
  6
HIDDEN
 62
     7
370
     0
100
AcDbCircle
 10
200.3014859762
 20
129.0502773243
 30
0.0
 40
1.0
100
AcDbArc
 50
90.0
 51
180.0
  0
ARC
  5
1B4
330
1F
100
AcDbEntity
  8
0
  6
HIDDEN
 62
     7
370
     0
100
AcDbCircle
 10
200.3014859762
 20
94.0502773243
 30
0.0
 40
1.0
100
AcDbArc
 50
180.0
 51
270.0
  0
ARC
  5
1B5
330
1F
100
AcDbEntity
  8
0
  6
HIDDEN
 62
     7
370
     0
100
AcDbCircle
 10
202.1698334786
 20
129.0502773243
 30
0.0
 40
0.9999999999999716
100
AcDbArc
 50
75.0
 51
90.0
  0
ARC
  5
1B6
330
1F
100
AcDbEntity
  8
0
  6
HIDDEN
 62
     7
370
     0
100
AcDbCircle
 10
202.1698334786
 20
94.0502773243
 30
0.0
 40
1.0
100
AcDbArc
 50
270.0
 51
285.0
  0
LINE
  5
1B7
330
1F
100
AcDbEntity
  8
0
  6
HIDDEN
 62
     7
370
     0
100
AcDbLine
 10
202.4286525008
 20
93.0843523162
 30
0.0
 11
204.1675118413
 21
93.5502780991
 31
0.0
  0
LINE
  5
1B8
330
1F
100
AcDbEntity
  8
0
  6
HIDDEN
 62
     7
370
     0
100
AcDbLine
 10
204.1675118413
 20
129.5502765494
 30
0.0
 11
202.4286525008
 21
130.0162023323
 31
0.0
  0
LINE
  5
1B9
330
1F
100
AcDbEntity
  8
0
  6
HIDDEN
 62
     7
370
     0
100
AcDbLine
 10
214.5880726781
 20
129.5502765494
 30
0.0
 11
204.1675118413
 21
129.5502765494
 31
0.0
  0
LINE
  5
1BA
330
1F
100
AcDbEntity
  8
0
  6
HIDDEN
 62
     7
370
     0
100
AcDbLine
 10
238.8014835921
 20
129.5502765494
 30
0.0
 11
228.9755498674
 21
129.5502765494
 31
0.0
  0
LINE
  5
1BB
330
1F
100
AcDbEntity
  8
0
  6
HIDDEN
 62
     7
370
     0
100
AcDbLine
 10
204.1675118413
 20
93.5502780991
 30
0.0
 11
238.8014835921
 21
93.5502780991
 31
0.0
  0
ARC
  5
1BC
330
1F
100
AcDbEntity
  8
0
  6
HIDDEN
 62
     7
370
     0
100
AcDbCircle
 10
73.4014859762
 20
97.8502773243
 30
0.0
 40
1.200000000000017
100
AcDbArc
 50
90.0
 51
180.0
  0
ARC
  5
1BD
330
1F
100
AcDbEntity
  8
0
  6
HIDDEN
 62
     7
370
     0
100
AcDbCircle
 10
73.4014859762
 20
125.2502773243
 30
0.0
 40
1.200000000000017
100
AcDbArc
 50
180.0
 51
270.0
  0
ARC
  5
1BE
330
1F
100
AcDbEntity
  8
0
  6
HIDDEN
 62
     7
370
     0
100
AcDbCircle
 10
83.093858407
 20
99.2252773243
 30
0.0
 40
0.3999999999999923
100
AcDbArc
 50
255.0
 51
270.0
  0
ARC
  5
1BF
330
1F
100
AcDbEntity
  8
0
  6
HIDDEN
 62
     7
370
     0
100
AcDbCircle
 10
83.093858407
 20
123.8752773243
 30
0.0
 40
0.400000000000006
100
AcDbArc
 50
90.0
 51
105.0
  0
LINE
  5
1C0
330
1F
100
AcDbEntity
  8
0
  6
HIDDEN
 62
     7
370
     0
100
AcDbLine
 10
83.0938560572
 20
98.8252770545
 30
0.0
 11
83.9705435243
 21
98.8252770545
 31
0.0
  0
LINE
  5
1C1
330
1F
100
AcDbEntity
  8
0
  6
HIDDEN
 62
     7
370
     0
100
AcDbLine
 10
83.9705435243
 20
124.275277594
 30
0.0
 11
83.0938560572
 21
124.275277594
 31
0.0
  0
ARC
  5
1C2
330
1F
100
AcDbEntity
  8
0
  6
HIDDEN
 62
     7
370
     0
100
AcDbCircle
 10
83.9705458686
 20
99.2252773243
 30
0.0
 40
0.3999999999999804
100
AcDbArc
 50
270.0
 51
330.0
  0
ARC
  5
1C3
330
1F
100
AcDbEntity
  8
0
  6
HIDDEN
 62
     7
370
     0
100
AcDbCircle
 10
83.9705458686
 20
123.8752773243
 30
0.0
 40
0.3999999999999915
100
AcDbArc
 50
30.0
 51
90.0
  0
LINE
  5
1C4
330
1F
100
AcDbEntity
  8
0
  6
HIDDEN
 62
     7
370
     0
100
AcDbLine
 10
82.9903302398
 20
124.2616476881
 30
0.0
 11
82.2014851179
 21
124.0502775105
 31
0.0
  0
LINE
  5
1C5
330
1F
100
AcDbEntity
  8
0
  6
HIDDEN
 62
     7
370
     0
100
AcDbLine
 10
82.2014851179
 20
99.050277138
 30
0.0
 11
82.9903302398
 21
98.8389069604
 31
0.0
  0
LINE
  5
1C6
330
1F
100
AcDbEntity
  8
0
  6
HIDDEN
 62
     7
370
     0
100
AcDbLine
 10
84.3169582691
 20
99.0252776461
 30
0.0
 11
85.4860884752
 21
101.0502774658
 31
0.0
  0
LINE
  5
1C7
330
1F
100
AcDbEntity
  8
0
  6
HIDDEN
 62
     7
370
     0
100
AcDbLine
 10
85.4860884752
 20
122.0502771827
 30
0.0
 11
84.3169582691
 21
124.0752770024
 31
0.0
  0
LINE
  5
1C8
330
1F
100
AcDbEntity
  8
0
  6
HIDDEN
 62
     7
370
     0
100
AcDbLine
 10
73.4014851656
 20
99.050277138
 30
0.0
 11
82.2014851179
 21
99.050277138
 31
0.0
  0
LINE
  5
1C9
330
1F
100
AcDbEntity
  8
0
  6
HIDDEN
 62
     7
370
     0
100
AcDbLine
 10
82.2014851179
 20
124.0502775105
 30
0.0
 11
73.4014851656
 21
124.0502775105
 31
0.0
  0
LINE
  5
1CA
330
1F
100
AcDbEntity
  8
0
  6
HIDDEN
 62
     7
370
     0
100
AcDbLine
 10
85.4860884752
 20
101.0502774658
 30
0.0
 11
134.2014861908
 21
101.0502774658
 31
0.0
  0
LINE
  5
1CB
330
1F
100
AcDbEntity
  8
0
  6
HIDDEN
 62
     7
370
     0
100
AcDbLine
 10
134.2014861908
 20
122.0502771827
 30
0.0
 11
85.4860884752
 21
122.0502771827
 31
0.0
  0
LINE
  5
1CC
330
1F
100
AcDbEntity
  8
0
  6
HIDDEN
 62
     7
370
     0
100
AcDbLine
 10
134.2014861908
 20
101.0502774658
 30
0.0
 11
136.9053577688
 21
105.5502772721
 31
0.0
  0
LINE
  5
1CD
330
1F
100
AcDbEntity
  8
0
  6
HIDDEN
 62
     7
370
     0
100
AcDbLine
 10
136.9053577688
 20
117.5502773764
 30
0.0
 11
134.2014861908
 21
122.0502771827
 31
0.0
  0
LINE
  5
1CE
330
1F
100
AcDbEntity
  8
0
  6
HIDDEN
 62
     7
370
     0
100
AcDbLine
 10
212.0014844146
 20
143.0502778309
 30
0.0
 11
214.5014857557
 21
140.5502764898
 31
0.0
  0
LINE
  5
1CF
330
1F
100
AcDbEntity
  8
0
  6
HIDDEN
 62
     7
370
     0
100
AcDbLine
 10
229.0014853385
 20
140.5502764898
 30
0.0
 11
231.5014866796
 21
143.0502778309
 31
0.0
  0
LINE
  5
1D0
330
1F
100
AcDbEntity
  8
0
  6
HIDDEN
 62
     7
370
     0
100
AcDbLine
 10
214.5014857557
 20
140.5502764898
 30
0.0
 11
214.5014857557
 21
129.5157114434
 31
0.0
  0
LINE
  5
1D1
330
1F
100
AcDbEntity
  8
0
  6
HIDDEN
 62
     7
370
     0
100
AcDbLine
 10
229.0014853385
 20
129.5398475992
 30
0.0
 11
229.0014853385
 21
140.5502764898
 31
0.0
  0
LINE
  5
1D2
330
1F
100
AcDbEntity
  8
0
  6
HIDDEN
 62
     7
370
     0
100
AcDbLine
 10
199.3014854994
 20
117.5502773764
 30
0.0
 11
136.9053577688
 21
117.5502773764
 31
0.0
  0
LINE
  5
1D3
330
1F
100
AcDbEntity
  8
0
  6
HIDDEN
 62
     7
370
     0
100
AcDbLine
 10
136.9053577688
 20
105.5502772721
 30
0.0
 11
199.3014854994
 21
105.5502772721
 31
0.0
  0
LINE
  5
1D4
330
1F
100
AcDbEntity
  8
0
  6
HIDDEN
 62
     7
370
     0
100
AcDbLine
 10
190.1014862266
 20
113.5998929309
 30
0.0
 11
190.1014862266
 21
125.0085683929
 31
0.0
  0
LINE
  5
1D5
330
1F
100
AcDbEntity
  8
0
  6
HIDDEN
 62
     7
370
     0
100
AcDbLine
 10
185.9014859107
 20
122.906893717
 30
0.0
 11
185.9014859107
 21
113.5997336748
 31
0.0
  0
LINE
  5
1D6
330
1F
100
AcDbEntity
  8
0
  6
HIDDEN
 62
     7
370
     0
100
AcDbLine
 10
185.9014859107
 20
125.0085683929
 30
0.0
 11
185.9014859107
 21
124.6605182456
 31
0.0
  0
LINE
  5
1D7
330
1F
100
AcDbEntity
  8
0
  6
HIDDEN
 62
     7
370
     0
100
AcDbLine
 10
178.7014585603
 20
123.3486237394
 30
0.0
 11
187.1487857458
 21
121.3256150874
 31
0.0
  0
LINE
  5
1D8
330
1F
100
AcDbEntity
  8
0
  6
HIDDEN
 62
     7
370
     0
100
AcDbLine
 10
187.1487857458
 20
125.644377658
 30
0.0
 11
179.6796364393
 21
127.4331270176
 31
0.0
  0
LINE
  5
1D9
330
1F
100
AcDbEntity
  8
0
  6
HIDDEN
 62
     7
370
     0
100
AcDbLine
 10
177.0014858954
 20
122.8302933665
 30
0.0
 11
178.2235168536
 21
122.5376345607
 31
0.0
  0
LINE
  5
1DA
330
1F
100
AcDbEntity
  8
0
  6
HIDDEN
 62
     7
370
     0
100
AcDbLine
 10
179.620913757
 20
128.3726396429
 30
0.0
 11
177.0014858954
 21
128.9999543148
 31
0.0
  0
LINE
  5
1DB
330
1F
100
AcDbEntity
  8
0
  6
HIDDEN
 62
     7
370
     0
100
AcDbLine
 10
190.5014855471
 20
125.0583624857
 30
0.0
 11
190.5014855471
 21
128.2145904767
 31
0.0
  0
LINE
  5
1DC
330
1F
100
AcDbEntity
  8
0
  6
HIDDEN
 62
     7
370
     0
100
AcDbLine
 10
185.5014856588
 20
127.112021895
 30
0.0
 11
185.5014856588
 21
125.0583624857
 31
0.0
  0
LINE
  5
1DD
330
1F
100
AcDbEntity
  8
0
  6
HIDDEN
 62
     7
370
     0
100
AcDbLine
 10
190.5014855471
 20
125.0583624857
 30
0.0
 11
190.5014855471
 21
125.6568983587
 31
0.0
  0
LINE
  5
1DE
330
1F
100
AcDbEntity
  8
0
  6
HIDDEN
 62
     7
370
     0
100
AcDbLine
 10
185.5014856588
 20
125.6568983587
 30
0.0
 11
185.5014856588
 21
125.0583624857
 31
0.0
  0
LINE
  5
1DF
330
1F
100
AcDbEntity
  8
0
  6
HIDDEN
 62
     7
370
     0
100
AcDbLine
 10
190.0014863964
 20
125.4190916585
 30
0.0
 11
190.0014863964
 21
126.8368672969
 31
0.0
  0
LINE
  5
1E0
330
1F
100
AcDbEntity
  8
0
  6
HIDDEN
 62
     7
370
     0
100
AcDbLine
 10
186.0014857408
 20
126.8368672969
 30
0.0
 11
186.0014857408
 21
125.4190916585
 31
0.0
  0
LINE
  5
1E1
330
1F
100
AcDbEntity
  8
0
  6
HIDDEN
 62
     7
370
     0
100
AcDbLine
 10
190.5014855471
 20
126.6008738818
 30
0.0
 11
190.5014855471
 21
126.7889852094
 31
0.0
  0
LINE
  5
1E2
330
1F
100
AcDbEntity
  8
0
  6
HIDDEN
 62
     7
370
     0
100
AcDbLine
 10
185.5014856588
 20
126.7889852094
 30
0.0
 11
185.5014856588
 21
126.6008738818
 31
0.0
  0
LINE
  5
1E3
330
1F
100
AcDbEntity
  8
0
  6
HIDDEN
 62
     7
370
     0
100
AcDbLine
 10
185.5014856588
 20
96.4996807667
 30
0.0
 11
185.5014856588
 21
96.3115694391
 31
0.0
  0
LINE
  5
1E4
330
1F
100
AcDbEntity
  8
0
  6
HIDDEN
 62
     7
370
     0
100
AcDbLine
 10
190.5014855471
 20
96.3115694391
 30
0.0
 11
190.5014855471
 21
96.4996807667
 31
0.0
  0
LINE
  5
1E5
330
1F
100
AcDbEntity
  8
0
  6
HIDDEN
 62
     7
370
     0
100
AcDbLine
 10
186.0014857408
 20
97.68146299
 30
0.0
 11
186.0014857408
 21
96.2636873516
 31
0.0
  0
LINE
  5
1E6
330
1F
100
AcDbEntity
  8
0
  6
HIDDEN
 62
     7
370
     0
100
AcDbLine
 10
190.0014863964
 20
96.2636873516
 30
0.0
 11
190.0014863964
 21
97.68146299
 31
0.0
  0
LINE
  5
1E7
330
1F
100
AcDbEntity
  8
0
  6
HIDDEN
 62
     7
370
     0
100
AcDbLine
 10
185.5014856588
 20
98.0421921628
 30
0.0
 11
185.5014856588
 21
97.4436562898
 31
0.0
  0
LINE
  5
1E8
330
1F
100
AcDbEntity
  8
0
  6
HIDDEN
 62
     7
370
     0
100
AcDbLine
 10
190.5014855471
 20
97.4436562898
 30
0.0
 11
190.5014855471
 21
98.0421921628
 31
0.0
  0
ARC
  5
1E9
330
1F
100
AcDbEntity
  8
0
  6
HIDDEN
 62
     7
370
     0
100
AcDbCircle
 10
188.0014859762
 20
97.0845353623
 30
0.0
 40
2.000000000000003
100
AcDbArc
 50
71.1182787691
 51
192.215685934
  0
ARC
  5
1EA
330
1F
100
AcDbEntity
  8
0
  6
HIDDEN
 62
     7
370
     0
100
AcDbCircle
 10
188.0014859762
 20
97.0845353623
 30
0.0
 40
2.000000000000003
100
AcDbArc
 50
340.3453161116
 51
71.1182787691
  0
CIRCLE
  5
1EB
330
1F
100
AcDbEntity
  8
0
  6
HIDDEN
 62
     7
370
     0
100
AcDbCircle
 10
188.0014859762
 20
126.0160192862
 30
0.0
 40
1.999999999999996
  0
LINE
  5
1EC
330
1F
100
AcDbEntity
  8
0
  6
HIDDEN
 62
     7
370
     0
100
AcDbLine
 10
179.7149209921
 20
95.2645672875
 30
0.0
 11
182.1667082291
 21
95.8517326432
 31
0.0
  0
LINE
  5
1ED
330
1F
100
AcDbEntity
  8
0
  6
HIDDEN
 62
     7
370
     0
100
AcDbLine
 10
181.0022108872
 20
100.7142367231
 30
0.0
 11
178.5504241158
 21
100.1270704361
 31
0.0
  0
LINE
  5
1EE
330
1F
100
AcDbEntity
  8
0
  6
HIDDEN
 62
     7
370
     0
100
AcDbLine
 10
182.8704127726
 20
96.6154525446
 30
0.0
 11
183.0989909973
 21
97.2628428059
 31
0.0
  0
LINE
  5
1EF
330
1F
100
AcDbEntity
  8
0
  6
HIDDEN
 62
     7
370
     0
100
AcDbLine
 10
182.4725741204
 20
99.8785246553
 30
0.0
 11
181.975531919
 21
100.3521403688
 31
0.0
  0
LINE
  5
1F0
330
1F
100
AcDbEntity
  8
0
  6
HIDDEN
 62
     7
370
     0
100
AcDbLine
 10
181.975531919
 20
122.7484142798
 30
0.0
 11
182.4725741204
 21
123.2220299932
 31
0.0
  0
LINE
  5
1F1
330
1F
100
AcDbEntity
  8
0
  6
HIDDEN
 62
     7
370
     0
100
AcDbLine
 10
183.0989909973
 20
125.8377118426
 30
0.0
 11
182.8704127726
 21
126.4851021039
 31
0.0
  0
LINE
  5
1F2
330
1F
100
AcDbEntity
  8
0
  6
HIDDEN
 62
     7
370
     0
100
AcDbLine
 10
178.5504241158
 20
122.9734842124
 30
0.0
 11
181.0022108872
 21
122.3863179254
 31
0.0
  0
LINE
  5
1F3
330
1F
100
AcDbEntity
  8
0
  6
HIDDEN
 62
     7
370
     0
100
AcDbLine
 10
182.1667082291
 20
127.2488220053
 30
0.0
 11
179.7149209921
 21
127.835987361
 31
0.0
  0
DIMENSION
  5
1F4
330
1F
100
AcDbEntity
  8
VERMASSUNG
100
AcDbDimension
  2
_D
 10
62.2014859762
 20
160.2752773243
 30
0.0
 11
62.2014859762
 21
111.5502773243
 31
0.0
 70
   160
  1
ISO 50 %%c<>
 71
     2
 42
-1.0
  3
SLDDIMSTYLE0
100
AcDbAlignedDimension
 13
192.2514859762
 23
62.8252773243
 33
0.0
 14
192.2514859762
 24
160.2752773243
 34
0.0
 50
90.0
100
AcDbRotatedDimension
  0
DIMENSION
  5
201
330
1F
100
AcDbEntity
  8
VERMASSUNG
100
AcDbDimension
  2
_D_1
 10
249.8014859762
 20
129.5502773243
 30
0.0
 11
249.8014859762
 21
111.5502773243
 31
0.0
 70
   160
  1
%%c<>
 71
     2
 42
-1.0
  3
SLDDIMSTYLE0
100
AcDbAlignedDimension
 13
238.8014859762
 23
93.5502773243
 33
0.0
 14
238.8014859762
 24
129.5502773243
 34
0.0
 50
90.0
100
AcDbRotatedDimension
  0
DIMENSION
  5
20C
330
1F
100
AcDbEntity
  8
VERMASSUNG
100
AcDbDimension
  2
_D_2
 10
255.7014859762
 20
80.0502773243
 30
0.0
 11
255.7014859762
 21
111.5502773243
 31
0.0
 70
   160
  1
WH %%c<>
 71
     2
 42
-1.0
  3
SLDDIMSTYLE0
100
AcDbAlignedDimension
 13
239.2014859762
 23
143.0502773243
 33
0.0
 14
239.2014859762
 24
80.0502773243
 34
0.0
 50
90.0
100
AcDbRotatedDimension
  0
DIMENSION
  5
218
330
1F
100
AcDbEntity
  8
VERMASSUNG
100
AcDbDimension
  2
_D_3
 10
239.8014859762
 20
165.1285714286
 30
0.0
 11
216.3264859762
 21
165.1285714286
 31
0.0
 70
   160
  1
<>
 71
     2
 42
-1.0
  3
SLDDIMSTYLE0
100
AcDbAlignedDimension
 13
192.8514859762
 23
157.8452642775
 33
0.0
 14
239.8014859762
 24
142.4502773243
 34
0.0
100
AcDbRotatedDimension
  0
DIMENSION
  5
222
330
1F
100
AcDbEntity
  8
VERMASSUNG
100
AcDbDimension
  2
_D_4
 10
177.0014859762
 20
170.7139727977
 30
0.0
 11
208.4014859762
 21
170.7139727977
 31
0.0
 70
   160
  1
<>
 71
     2
 42
-1.0
  3
SLDDIMSTYLE0
100
AcDbAlignedDimension
 13
239.8014859762
 23
142.4502773243
 33
0.0
 14
177.0014859762
 24
157.6392469916
 34
0.0
100
AcDbRotatedDimension
  0
DIMENSION
  5
22C
330
1F
100
AcDbEntity
  8
VERMASSUNG
100
AcDbDimension
  2
_D_5
 10
72.2014859762
 20
176.2804533541
 30
0.0
 11
156.0014859762
 21
176.2804533541
 31
0.0
 70
   160
  1
<>
 71
     2
 42
-1.0
  3
SLDDIMSTYLE0
100
AcDbAlignedDimension
 13
239.8014859762
 23
142.4502773243
 33
0.0
 14
72.2014859762
 24
129.9291218517
 34
0.0
100
AcDbRotatedDimension
  0
LINE
  5
236
330
1F
100
AcDbEntity
  8
VERMASSUNG
  6
CENTERX2
370
     0
100
AcDbLine
 10
70.2014859762
 20
111.5502773243
 30
0.0
 11
241.0661080854
 21
111.5502773243
 31
0.0
  0
LINE
  5
237
330
1F
100
AcDbEntity
  8
0
  6
Continuous
 62
     7
370
    15
100
AcDbLine
 10
271.508174988
 20
40.5634269579
 30
0.0
 11
271.4197721379
 21
40.6144768541
 31
0.0
  0
LINE
  5
238
330
1F
100
AcDbEntity
  8
0
  6
Continuous
 62
     7
370
    15
100
AcDbLine
 10
266.4692211274
 20
40.6144764941
 30
0.0
 11
266.3808182374
 21
40.5634267649
 31
0.0
  0
LINE
  5
239
330
1F
100
AcDbEntity
  8
0
  6
Continuous
 62
     7
370
    15
100
AcDbLine
 10
274.0736954745
 20
27.1330705745
 30
0.0
 11
276.3665153143
 21
27.6002152804
 31
0.0
  0
LINE
  5
23A
330
1F
100
AcDbEntity
  8
0
  6
Continuous
 62
     7
370
    15
100
AcDbLine
 10
275.1158125788
 20
10.9251002651
 30
0.0
 11
275.3279110927
 21
11.0475811806
 31
0.0
  0
LINE
  5
23B
330
1F
100
AcDbEntity
  8
0
  6
Continuous
 62
     7
370
    15
100
AcDbLine
 10
286.2509351556
 20
29.9688641571
 30
0.0
 11
286.2509344971
 21
30.2137873151
 31
0.0
  0
LINE
  5
23C
330
1F
100
AcDbEntity
  8
0
  6
Continuous
 62
     7
370
    15
100
AcDbLine
 10
282.9883627589
 20
37.4248428913
 30
0.0
 11
267.661824617
 21
46.2726650295
 31
0.0
  0
LINE
  5
23D
330
1F
100
AcDbEntity
  8
0
  6
Continuous
 62
     7
370
    15
100
AcDbLine
 10
251.9131041277
 20
18.9921259091
 30
0.0
 11
267.2396422696
 21
10.1443037709
 31
0.0
  0
SPLINE
  5
23E
330
1F
100
AcDbEntity
  8
0
  6
Continuous
 62
     7
370
    15
100
AcDbSpline
210
0.0
220
0.0
230
1.0
 70
     8
 71
     3
 72
    26
 73
    22
 74
     0
 42
0.000000001
 43
0.00000001
 40
0.0
 40
0.0
 40
0.0
 40
0.0
 40
0.0454647100464097
 40
0.1032393524475387
 40
0.1597828037858565
 40
0.2151195113722153
 40
0.2697585651695799
 40
0.3241140909001646
 40
0.3784103678943798
 40
0.4327314627086376
 40
0.4871285853546962
 40
0.5416085347936975
 40
0.5961573392402355
 40
0.6507523222283192
 40
0.7053672928924004
 40
0.7599720902835707
 40
0.8145321703597288
 40
0.8690195153462121
 40
0.9234077883558199
 40
0.9776764447007034
 40
1.0
 40
1.0
 40
1.0
 40
1.0
 10
270.3912588070862
 20
16.13555525971929
 30
0.0
 10
270.2529129619899
 20
16.22731661938378
 30
0.0
 10
269.938763032364
 20
16.43568445768732
 30
0.0
 10
269.5416204314461
 20
16.91224127376375
 30
0.0
 10
269.1931263755831
 20
17.53106932998232
 30
0.0
 10
268.9423650925422
 20
18.25830516318948
 30
0.0
 10
268.789703002524
 20
19.07581400841638
 30
0.0
 10
268.7380226130949
 20
19.97281707221023
 30
0.0
 10
268.7887117170437
 20
20.93543177173022
 30
0.0
 10
268.9420610993044
 20
21.94830194606945
 30
0.0
 10
269.1965175439859
 20
22.99449301466641
 30
0.0
 10
269.5486628453089
 20
24.05630103153269
 30
0.0
 10
269.9931203284996
 20
25.11548964107605
 30
0.0
 10
270.5226899157546
 20
26.15377881520554
 30
0.0
 10
271.1284649326064
 20
27.15322740392393
 30
0.0
 10
271.7999923741696
 20
28.09662357476202
 30
0.0
 10
272.5254272505889
 20
28.96765828277105
 30
0.0
 10
273.2918602722874
 20
29.75204310967352
 30
0.0
 10
274.0851792494578
 20
30.43489418936659
 30
0.0
 10
274.7339480884772
 20
30.89926479742707
 30
0.0
 10
275.1122906029489
 20
31.12463881009807
 30
0.0
 10
275.2225622593298
 20
31.19032628832703
 30
0.0
  0
SPLINE
  5
23F
330
1F
100
AcDbEntity
  8
0
  6
Continuous
 62
     7
370
    15
100
AcDbSpline
210
0.0
220
0.0
230
1.0
 70
     8
 71
     3
 72
    14
 73
    10
 74
     0
 42
0.000000001
 43
0.00000001
 40
0.0
 40
0.0
 40
0.0
 40
0.0
 40
0.0828850178784647
 40
0.2410171219768977
 40
0.3991016902087214
 40
0.5575567952878544
 40
0.7173507584158408
 40
0.8799375549878962
 40
1.0
 40
1.0
 40
1.0
 40
1.0
 10
275.2225622593298
 20
31.19032628832703
 30
0.0
 10
275.3621475856056
 20
31.26768596192536
 30
0.0
 10
275.7680406465025
 20
31.49263621668769
 30
0.0
 10
276.4301315931837
 20
31.77121534872904
 30
0.0
 10
277.186689086729
 20
31.97979501221478
 30
0.0
 10
277.9005276924195
 20
32.05936786103975
 30
0.0
 10
278.5595106021296
 20
32.0085646840481
 30
0.0
 10
279.1123675881343
 20
31.86355190937586
 30
0.0
 10
279.4130498529966
 20
31.68031344980872
 30
0.0
 10
279.5407722827077
 20
31.6024782596183
 30
0.0
  0
SPLINE
  5
240
330
1F
100
AcDbEntity
  8
0
  6
Continuous
 62
     7
370
    15
100
AcDbSpline
210
0.0
220
0.0
230
1.0
 70
     8
 71
     3
 72
    28
 73
    24
 74
     0
 42
0.000000001
 43
0.00000001
 40
0.0
 40
0.0
 40
0.0
 40
0.0
 40
0.0282710998712973
 40
0.0782957146868918
 40
0.1283687211225053
 40
0.1784672605617929
 40
0.2285747267172391
 40
0.2786784195754012
 40
0.3287735103465512
 40
0.3788579027859608
 40
0.4289313278366571
 40
0.4789945913688872
 40
0.5290491512181564
 40
0.5790968245188306
 40
0.6291396823523108
 40
0.6791798431725651
 40
0.7292194574038733
 40
0.7792605042290105
 40
0.8293047831294876
 40
0.8793545437397354
 40
0.9294120286373247
 40
0.9794794185052169
 40
1.0
 40
1.0
 40
1.0
 40
1.0
 10
258.168903558777
 20
58.27825731250139
 30
0.0
 10
257.9222695340209
 20
58.22380592357811
 30
0.0
 10
257.239226167392
 20
58.07300491368283
 30
0.0
 10
256.0914784857074
 20
57.67568950953962
 30
0.0
 10
254.7377666618789
 20
57.10236118304589
 30
0.0
 10
253.374374515655
 20
56.39363547311271
 30
0.0
 10
252.0115452873983
 20
55.56224409952004
 30
0.0
 10
250.6573233946329
 20
54.61138976590625
 30
0.0
 10
249.3201754164972
 20
53.54773944740683
 30
0.0
 10
248.0082392431678
 20
52.37784954117342
 30
0.0
 10
246.7295217885968
 20
51.10908480119301
 30
0.0
 10
245.4918111848932
 20
49.74933483254458
 30
0.0
 10
244.3026528450528
 20
48.30703455347984
 30
0.0
 10
243.1693028711805
 20
46.79110211787459
 30
0.0
 10
242.0986927268539
 20
45.21088968796731
 30
0.0
 10
241.0973720021154
 20
43.57613528126224
 30
0.0
 10
240.1715065243076
 20
41.89690346678265
 30
0.0
 10
239.326739535078
 20
40.18350965232538
 30
0.0
 10
238.5685079207454
 20
38.4465377802992
 30
0.0
 10
237.9006915963496
 20
36.69644357123294
 30
0.0
 10
237.3305183310808
 20
34.94471134904884
 30
0.0
 10
236.9446710416983
 20
33.54271937805964
 30
0.0
 10
236.7638420738905
 20
32.73168314538309
 30
0.0
 10
236.7112734067524
 20
32.49590734978258
 30
0.0
  0
LINE
  5
241
330
1F
100
AcDbEntity
  8
0
  6
Continuous
 62
     7
370
    15
100
AcDbLine
 10
251.9661656929
 20
55.5094678279
 30
0.0
 11
221.2126719082
 21
66.5918078127
 31
0.0
  0
LINE
  5
242
330
1F
100
AcDbEntity
  8
0
  6
Continuous
 62
     7
370
    15
100
AcDbLine
 10
211.0888125278
 20
49.0548694123
 30
0.0
 11
240.5563236463
 21
24.1727469741
 31
0.0
  0
SPLINE
  5
243
330
1F
100
AcDbEntity
  8
0
  6
Continuous
 62
     7
370
    15
100
AcDbSpline
210
0.0
220
0.0
230
1.0
 70
     8
 71
     3
 72
    13
 73
     9
 74
     0
 42
0.000000001
 43
0.00000001
 40
0.0
 40
0.0
 40
0.0
 40
0.0
 40
0.1073718902729186
 40
0.3200959494736962
 40
0.5330320580057808
 40
0.746081530638619
 40
0.9591729876624979
 40
1.0
 40
1.0
 40
1.0
 40
1.0
 10
253.6860073590209
 20
11.44762086895082
 30
0.0
 10
253.9060397525472
 20
11.49517457497984
 30
0.0
 10
254.5619980088632
 20
11.63694118301534
 30
0.0
 10
255.68205708713
 20
12.02083340225047
 30
0.0
 10
257.0351264272244
 20
12.5839591507894
 30
0.0
 10
258.3975177761713
 20
13.29386641744207
 30
0.0
 10
259.3954293889323
 20
13.87373571661538
 30
0.0
 10
259.9328342919841
 20
14.25176866540712
 30
0.0
 10
260.0192424869545
 20
14.31255178174805
 30
0.0
  0
LINE
  5
244
330
1F
100
AcDbEntity
  8
0
  6
Continuous
 62
     7
370
    15
100
AcDbLine
 10
244.8788896123
 20
13.1083027753
 30
0.0
 11
246.3344115986
 21
12.268047818
 31
0.0
  0
LINE
  5
245
330
1F
100
AcDbEntity
  8
0
  6
Continuous
 62
     7
370
    15
100
AcDbLine
 10
241.154854664
 20
15.2581423904
 30
0.0
 11
242.5926993401
 21
14.428092327
 31
0.0
  0
LINE
  5
246
330
1F
100
AcDbEntity
  8
0
  6
Continuous
 62
     7
370
    15
100
AcDbLine
 10
236.7228526772
 20
21.3235659315
 30
0.0
 11
236.8333737324
 21
20.9594034973
 31
0.0
  0
SPLINE
  5
247
330
1F
100
AcDbEntity
  8
0
  6
Continuous
 62
     7
370
    15
100
AcDbSpline
210
0.0
220
0.0
230
1.0
 70
     8
 71
     3
 72
     9
 73
     5
 74
     0
 42
0.000000001
 43
0.00000001
 40
0.0
 40
0.0
 40
0.0
 40
0.0
 40
0.715804909303696
 40
1.0
 40
1.0
 40
1.0
 40
1.0
 10
275.1419511431968
 20
48.35518879195918
 30
0.0
 10
275.0891693310838
 20
48.54195722541409
 30
0.0
 10
275.015431624864
 20
48.80287808670937
 30
0.0
 10
274.9180546218933
 20
49.04190749013693
 30
0.0
 10
274.8903805557023
 20
49.1098384731231
 30
0.0
  0
SPLINE
  5
248
330
1F
100
AcDbEntity
  8
0
  6
Continuous
 62
     7
370
    15
100
AcDbSpline
210
0.0
220
0.0
230
1.0
 70
     8
 71
     3
 72
    26
 73
    22
 74
     0
 42
0.000000001
 43
0.00000001
 40
0.0
 40
0.0
 40
0.0
 40
0.0
 40
0.0321522762257599
 40
0.0833699597147821
 40
0.1353878849849396
 40
0.188599068739103
 40
0.2429897613157024
 40
0.2982337716868352
 40
0.3539165417067592
 40
0.4096941686613685
 40
0.4653874470837683
 40
0.5209592909300054
 40
0.5764226854145946
 40
0.6318138832976448
 40
0.6871788047286447
 40
0.7425664787004362
 40
0.7980131833446142
 40
0.8535720210020624
 40
0.9092945915201497
 40
0.9652243997715668
 40
1.0
 40
1.0
 40
1.0
 40
1.0
 10
221.2573548116221
 20
66.55693607966961
 30
0.0
 10
221.1035501368136
 20
66.61585871862493
 30
0.0
 10
220.7047388846119
 20
66.76864348575936
 30
0.0
 10
219.9997915991008
 20
66.85975235255648
 30
0.0
 10
219.1643989131327
 20
66.84763335257213
 30
0.0
 10
218.2919302821515
 20
66.69161244484472
 30
0.0
 10
217.3946908766181
 20
66.39868650210065
 30
0.0
 10
216.484816896272
 20
65.96905236189954
 30
0.0
 10
215.578055507549
 20
65.40986891489631
 30
0.0
 10
214.6898320431474
 20
64.73126885043348
 30
0.0
 10
213.8341042262257
 20
63.94560325113166
 30
0.0
 10
213.0229874964926
 20
63.06594897530028
 30
0.0
 10
212.2673654420352
 20
62.10581005252205
 30
0.0
 10
211.5773271572319
 20
61.07927311622248
 30
0.0
 10
210.9622473324307
 20
60.00097992791346
 30
0.0
 10
210.430735052049
 20
58.88607333891602
 30
0.0
 10
209.9907216614896
 20
57.75004858839282
 30
0.0
 10
209.6484828394749
 20
56.60807698550818
 30
0.0
 10
209.4121691114745
 20
55.47638061000644
 30
0.0
 10
209.2958146904379
 20
54.50745828942553
 30
0.0
 10
209.2842325609403
 20
53.93118523680376
 30
0.0
 10
209.2797920814589
 20
53.71024757017229
 30
0.0
  0
SPLINE
  5
249
330
1F
100
AcDbEntity
  8
0
  6
Continuous
 62
     7
370
    15
100
AcDbSpline
210
0.0
220
0.0
230
1.0
 70
     8
 71
     3
 72
    13
 73
     9
 74
     0
 42
0.000000001
 43
0.00000001
 40
0.0
 40
0.0
 40
0.0
 40
0.0
 40
0.099536353997529
 40
0.2872188742470267
 40
0.4749029882821217
 40
0.6608776683587688
 40
0.8433681731739596
 40
1.0
 40
1.0
 40
1.0
 40
1.0
 10
209.2797920814589
 20
53.71024757017229
 30
0.0
 10
209.2830931652123
 20
53.52379541783991
 30
0.0
 10
209.2926186654073
 20
52.98577513536935
 30
0.0
 10
209.3993501272048
 20
52.14033042747904
 30
0.0
 10
209.6396244385358
 20
51.20960678322875
 30
0.0
 10
210.0037672207229
 20
50.37586519063661
 30
0.0
 10
210.4522076935096
 20
49.67017361124135
 30
0.0
 10
210.8296720520327
 20
49.30725599180779
 30
0.0
 10
211.0040130685945
 20
49.13963373748992
 30
0.0
  0
LWPOLYLINE
  5
24A
330
1F
100
AcDbEntity
  8
0
  6
Continuous
 62
     7
370
    15
100
AcDbPolyline
 90
       23
 70
   128
 43
0.0
 10
271.5466847158
 20
37.8347694148
 10
271.8362528069
 20
38.0477348346
 10
272.2025030759
 20
38.4477444481
 10
272.4053832697
 20
38.8847728914
 10
272.4347204397
 20
39.3369058076
 10
272.2890439737
 20
39.7814709717
 10
271.9756566365
 20
40.1961772312
 10
271.5102749218
 20
40.5602283555
 10
270.9162341899
 20
40.8553696436
 10
270.2233217257
 20
41.0668018511
 10
269.4662854658
 20
41.1839215713
 10
268.6830824337
 20
41.2008581293
 10
267.9129888825
 20
41.1167603253
 10
267.1946200923
 20
40.9358455
 10
266.5639964926
 20
40.6671864141
 10
266.0527407528
 20
40.3242543911
 10
265.6864904838
 20
39.9242447777
 10
265.48361029
 20
39.4872163344
 10
265.45427312
 20
39.0350834181
 10
265.5999509031
 20
38.5905174937
 10
265.9133369233
 20
38.1758119946
 10
266.3787186379
 20
37.8117608702
 10
266.7138083094
 20
37.6290261491
  0
LWPOLYLINE
  5
24B
330
1F
100
AcDbEntity
  8
0
  6
Continuous
 62
     7
370
    15
100
AcDbPolyline
 90
       24
 70
   128
 43
0.0
 10
268.0858573098
 20
37.9231667356
 10
268.7078833022
 20
37.8362624717
 10
269.3474581064
 20
37.8494613918
 10
269.957146926
 20
37.9617850342
 10
270.4917327575
 20
38.1649023493
 10
270.9115664676
 20
38.4437497917
 10
271.1855118867
 20
38.7776460256
 10
271.2932508384
 20
39.1418278808
 10
271.2267939017
 20
39.5092850876
 10
270.9910706939
 20
39.8527646618
 10
270.6035613734
 20
40.1467935735
 10
270.093006469
 20
40.3695647211
 10
269.4972719605
 20
40.5045557414
 10
268.8605412455
 20
40.5417546766
 10
268.2300373157
 20
40.4784030631
 10
267.6525215439
 20
40.3191994772
 10
267.1708250065
 20
40.0759516081
 10
266.8206733725
 20
39.7666998125
 10
266.6280372501
 20
39.4143791079
 10
266.6072013958
 20
39.0451206098
 10
266.7597119897
 20
38.6863101716
 10
267.0742588592
 20
38.3645587186
 10
267.5275123243
 20
38.1037294525
 10
268.0858573098
 20
37.9231667356
  0
SPLINE
  5
24C
330
1F
100
AcDbEntity
  8
0
  6
Continuous
 62
     7
370
    15
100
AcDbSpline
210
0.0
220
0.0
230
1.0
 70
     8
 71
     3
 72
     9
 73
     5
 74
     0
 42
0.000000001
 43
0.00000001
 40
0.0
 40
0.0
 40
0.0
 40
0.0
 40
0.2410203403836436
 40
1.0
 40
1.0
 40
1.0
 40
1.0
 10
270.513359215039
 20
38.20053909379977
 30
0.0
 10
270.5628550018598
 20
38.22740905740815
 30
0.0
 10
270.7682143783425
 20
38.33889327307893
 30
0.0
 10
270.9535542593904
 20
38.52470125035639
 30
0.0
 10
271.0942234592214
 20
38.66572572570443
 30
0.0
  0
SPLINE
  5
24D
330
1F
100
AcDbEntity
  8
0
  6
Continuous
 62
     7
370
    15
100
AcDbSpline
210
0.0
220
0.0
230
1.0
 70
     8
 71
     3
 72
    10
 73
     6
 74
     0
 42
0.000000001
 43
0.00000001
 40
0.0
 40
0.0
 40
0.0
 40
0.0
 40
0.4391307341907403
 40
0.7513781880565723
 40
0.9999999999999999
 40
0.9999999999999999
 40
0.9999999999999999
 40
0.9999999999999999
 10
271.0942234592214
 20
38.66572572570443
 30
0.0
 10
271.0449603072783
 20
38.74260588866422
 30
0.0
 10
270.9606681934203
 20
38.87415231218814
 30
0.0
 10
270.8381373472781
 20
39.42866128112996
 30
0.0
 10
270.7771513352272
 20
39.81345908980255
 30
0.0
 10
270.7501174901877
 20
39.98403204549125
 30
0.0
  0
SPLINE
  5
24E
330
1F
100
AcDbEntity
  8
0
  6
Continuous
 62
     7
370
    15
100
AcDbSpline
210
0.0
220
0.0
230
1.0
 70
     8
 71
     3
 72
    11
 73
     7
 74
     0
 42
0.000000001
 43
0.00000001
 40
0.0
 40
0.0
 40
0.0
 40
0.0
 40
0.1845134208637163
 40
0.5180560452053128
 40
0.8676122096798671
 40
1.0
 40
1.0
 40
1.0
 40
1.0
 10
270.7501174901877
 20
39.98403204549125
 30
0.0
 10
270.6252719302689
 20
39.96147479399145
 30
0.0
 10
270.274744598814
 20
39.89814107849269
 30
0.0
 10
269.6213702417528
 20
39.9401557922418
 30
0.0
 10
269.014256505205
 20
40.20555785670109
 30
0.0
 10
268.6895783958875
 20
40.41391585059563
 30
0.0
 10
268.600390810837
 20
40.47115083431689
 30
0.0
  0
SPLINE
  5
24F
330
1F
100
AcDbEntity
  8
0
  6
Continuous
 62
     7
370
    15
100
AcDbSpline
210
0.0
220
0.0
230
1.0
 70
     8
 71
     3
 72
    10
 73
     6
 74
     0
 42
0.000000001
 43
0.00000001
 40
0.0
 40
0.0
 40
0.0
 40
0.0
 40
0.4391307360647753
 40
0.7513782977372284
 40
1.0
 40
1.0
 40
1.0
 40
1.0
 10
268.600390810837
 20
40.47115083431689
 30
0.0
 10
268.341893508272
 20
40.24030335768132
 30
0.0
 10
267.8995895490649
 20
39.84530986306567
 30
0.0
 10
267.2566337500836
 20
39.63441736874088
 30
0.0
 10
266.9366238475816
 20
39.6382599616729
 30
0.0
 10
266.7947701005199
 20
39.63996330335571
 30
0.0
  0
SPLINE
  5
250
330
1F
100
AcDbEntity
  8
0
  6
Continuous
 62
     7
370
    15
100
AcDbSpline
210
0.0
220
0.0
230
1.0
 70
     8
 71
     3
 72
    10
 73
     6
 74
     0
 42
0.000000001
 43
0.00000001
 40
0.0
 40
0.0
 40
0.0
 40
0.0
 40
0.4391307341907403
 40
0.7513781880565723
 40
0.9999999999999999
 40
0.9999999999999999
 40
0.9999999999999999
 40
0.9999999999999999
 10
266.7947701005199
 20
39.63996330335571
 30
0.0
 10
266.844033252463
 20
39.33937877536049
 30
0.0
 10
266.9283253663211
 20
38.82506119196678
 30
0.0
 10
267.0508562124631
 20
38.44071208891589
 30
0.0
 10
267.1118422245141
 20
38.35822279241593
 30
0.0
 10
267.1388760695536
 20
38.32165698356888
 30
0.0
  0
LINE
  5
251
330
1F
100
AcDbEntity
  8
0
  6
Continuous
 62
     7
370
    15
100
AcDbLine
 10
267.1388760696
 20
38.3216569836
 30
0.0
 11
267.4012217623
 21
38.1586796764
 31
0.0
  0
LINE
  5
252
330
1F
100
AcDbEntity
  8
0
  6
Continuous
 62
     7
370
    15
100
AcDbLine
 10
270.7501174902
 20
38.3639092022
 30
0.0
 11
270.7501174902
 21
39.9840320455
 31
0.0
  0
LINE
  5
253
330
1F
100
AcDbEntity
  8
0
  6
Continuous
 62
     7
370
    15
100
AcDbLine
 10
268.6003908108
 20
37.8439918515
 30
0.0
 11
268.6003908108
 21
40.4711508343
 31
0.0
  0
LWPOLYLINE
  5
254
330
1F
100
AcDbEntity
  8
0
  6
Continuous
 62
     7
370
    15
100
AcDbPolyline
 90
        8
 70
   128
 43
0.0
 10
274.6100826104
 20
27.4460107003
 10
274.5986476436
 20
27.4330892677
 10
274.2693859263
 20
27.1944518281
 10
273.8581406861
 20
27.1111678385
 10
273.3907518925
 20
27.1884706626
 10
272.896585362
 20
27.4215038882
 10
272.4066941026
 20
27.7956241038
 10
271.9636977975
 20
28.2724134915
  0
LWPOLYLINE
  5
255
330
1F
100
AcDbEntity
  8
0
  6
Continuous
 62
     7
370
    15
100
AcDbPolyline
 90
       61
 70
   128
 43
0.0
 10
275.3261355054
 20
36.2776669682
 10
274.1841829439
 20
35.54932244
 10
273.054741905
 20
34.6907393879
 10
271.9501867691
 20
33.7113237667
 10
270.8826192794
 20
32.6218078042
 10
269.8637356802
 20
31.4341269136
 10
268.9046996182
 20
30.1612946095
 10
268.0160175122
 20
28.8172552743
 10
267.2074269308
 20
27.4167353089
 10
266.4877866147
 20
25.9750785022
 10
265.8649813171
 20
24.5080812101
 10
265.3458342179
 20
23.0318147952
 10
264.9360338244
 20
21.56245453
 10
264.640068776
 20
20.1160980421
 10
264.4611830629
 20
18.7085926935
 10
264.4013358551
 20
17.3553589669
 10
264.4611830629
 20
16.0712233557
 10
264.640068776
 20
14.8702550551
 10
264.9360338244
 20
13.7656125385
 10
265.3458342179
 20
12.7693977365
 10
265.8649813171
 20
11.8925258039
 10
266.4877866147
 20
11.1446042024
 10
267.2074269308
 20
10.533826419
 10
268.0160175122
 20
10.0668852671
 10
268.9046996182
 20
9.7488964514
 10
269.8637356802
 20
9.5833436153
 10
270.8826192794
 20
9.5720406885
 10
271.9501867691
 20
9.7151119132
 10
273.054741905
 20
10.0109885065
 10
274.1841829439
 20
10.456430321
 10
275.3261355054
 20
11.0465561559
 10
276.4680880668
 20
11.774900684
 10
277.5975291057
 20
12.6334837362
 10
278.7020842417
 20
13.6128993574
 10
279.7696517314
 20
14.7024153199
 10
280.7885353305
 20
15.8900962104
 10
281.7475713926
 20
17.1629285146
 10
282.6362534985
 20
18.5069678498
 10
283.4448440799
 20
19.9074878152
 10
284.1644843961
 20
21.3491446218
 10
284.7872896936
 20
22.816141914
 10
285.3064367929
 20
24.2924083288
 10
285.7162371864
 20
25.761768594
 10
286.0122022348
 20
27.208125082
 10
286.1910879478
 20
28.6156304305
 10
286.2509351556
 20
29.9688641571
 10
286.1910879478
 20
31.2529997684
 10
286.0122022348
 20
32.4539680689
 10
285.7162371864
 20
33.5586105855
 10
285.3064367929
 20
34.5548253876
 10
284.7872896936
 20
35.4316973201
 10
284.1644843961
 20
36.1796189217
 10
283.4448440799
 20
36.790396705
 10
282.6362534985
 20
37.2573378569
 10
281.7475713926
 20
37.5753266727
 10
280.7885353305
 20
37.7408795087
 10
279.7696517314
 20
37.7521824356
 10
278.7020842417
 20
37.6091112108
 10
277.5975291057
 20
37.3132346175
 10
276.4680880668
 20
36.867792803
 10
275.3261355054
 20
36.2776669682
  0
LWPOLYLINE
  5
256
330
1F
100
AcDbEntity
  8
0
  6
Continuous
 62
     7
370
    15
100
AcDbPolyline
 90
       32
 70
   128
 43
0.0
 10
275.1140025143
 20
36.6450913252
 10
273.949876183
 20
35.9026046957
 10
272.7985042126
 20
35.027348984
 10
271.6725012698
 20
34.0289160083
 10
270.5842041161
 20
32.9182436319
 10
269.5455365229
 20
31.7075012792
 10
268.5678784685
 20
30.4099535871
 10
267.6619405208
 20
29.0398164045
 10
266.8376495798
 20
27.6121026186
 10
266.1040356077
 20
26.1424525829
 10
265.4691367988
 20
24.6469698659
 10
264.9399093588
 20
23.142038368
 10
264.5221511134
 20
21.6441462818
 10
264.2204396057
 20
20.1697052978
 10
264.0380794118
 20
18.7348691439
 10
263.9770705315
 20
17.3553593471
 10
264.0380794118
 20
16.0462889042
 10
264.2204396057
 20
14.8220013484
 10
264.5221511134
 20
13.6959090565
 10
264.9399093588
 20
12.6803503737
 10
265.4691367988
 20
11.7864518718
 10
266.1040356077
 20
11.0240077164
 10
266.8376495798
 20
10.4013703437
 10
267.6619405208
 20
9.9253626207
 10
268.5678784685
 20
9.6011991283
 10
269.5455365229
 20
9.4324313991
 10
270.5842041161
 20
9.4209091234
 10
271.6725012698
 20
9.5667578949
 10
272.7985042126
 20
9.8683802444
 10
273.949876183
 20
10.3224703139
 10
275.1140025143
 20
10.9240553371
 10
275.1158125788
 20
10.9251002651
  0
LWPOLYLINE
  5
257
330
1F
100
AcDbEntity
  8
0
  6
Continuous
 62
     7
370
    15
100
AcDbPolyline
 90
       16
 70
   128
 43
0.0
 10
286.2509344971
 20
30.2137873151
 10
286.1899256168
 20
31.5228577581
 10
286.0075654229
 20
32.7471453138
 10
285.7058539151
 20
33.8732376057
 10
285.2880956698
 20
34.8887962885
 10
284.7588682297
 20
35.7826947904
 10
284.1239694208
 20
36.5451389458
 10
283.3903554488
 20
37.1677763185
 10
282.5660645077
 20
37.6437840415
 10
281.6601265601
 20
37.967947534
 10
280.6824685057
 20
38.1367152632
 10
279.6438009124
 20
38.1482375388
 10
278.5555037587
 20
38.0023887673
 10
277.429500816
 20
37.7007664179
 10
276.2781288455
 20
37.2466763483
 10
275.1140025143
 20
36.6450913252
  0
SPLINE
  5
258
330
1F
100
AcDbEntity
  8
0
  6
Continuous
 62
     7
370
    15
100
AcDbSpline
210
0.0
220
0.0
230
1.0
 70
    11
 71
     3
 72
    96
 73
    92
 74
     0
 42
0.000000001
 43
0.00000001
 40
0.0
 40
0.0
 40
0.0
 40
0.0
 40
0.0312499999999999
 40
0.0312499999999999
 40
0.046875
 40
0.046875
 40
0.0625000000000002
 40
0.0625000000000002
 40
0.0937500000000004
 40
0.0937500000000004
 40
0.1093750000000007
 40
0.1093750000000007
 40
0.125000000000001
 40
0.125000000000001
 40
0.1562500000000016
 40
0.1562500000000016
 40
0.1718750000000019
 40
0.1718750000000019
 40
0.1875000000000023
 40
0.1875000000000023
 40
0.2187500000000029
 40
0.2187500000000029
 40
0.2343750000000033
 40
0.2343750000000033
 40
0.2500000000000038
 40
0.2500000000000038
 40
0.2812500000000043
 40
0.2812500000000043
 40
0.2968750000000046
 40
0.2968750000000046
 40
0.3125000000000049
 40
0.3125000000000049
 40
0.3437500000000053
 40
0.3437500000000053
 40
0.3593750000000056
 40
0.3593750000000056
 40
0.3750000000000058
 40
0.3750000000000058
 40
0.390625000000006
 40
0.390625000000006
 40
0.4062500000000062
 40
0.4062500000000062
 40
0.4375000000000068
 40
0.4375000000000068
 40
0.453125000000007
 40
0.453125000000007
 40
0.4687500000000073
 40
0.4687500000000073
 40
0.5000000000000075
 40
0.5000000000000075
 40
0.5312500000000079
 40
0.5312500000000079
 40
0.5468750000000079
 40
0.5468750000000079
 40
0.5625000000000078
 40
0.5625000000000078
 40
0.5937500000000075
 40
0.5937500000000075
 40
0.6250000000000072
 40
0.6250000000000072
 40
0.6562500000000069
 40
0.6562500000000069
 40
0.6875000000000066
 40
0.6875000000000066
 40
0.7187500000000063
 40
0.7187500000000063
 40
0.750000000000006
 40
0.750000000000006
 40
0.7656250000000058
 40
0.7656250000000058
 40
0.7812500000000054
 40
0.7812500000000054
 40
0.8125000000000046
 40
0.8125000000000046
 40
0.8281250000000042
 40
0.8281250000000042
 40
0.8437500000000039
 40
0.8437500000000039
 40
0.8750000000000031
 40
0.8750000000000031
 40
0.8906250000000028
 40
0.8906250000000028
 40
0.9062500000000023
 40
0.9062500000000023
 40
0.921875000000002
 40
0.921875000000002
 40
0.9375000000000016
 40
0.9375000000000016
 40
0.9687500000000009
 40
0.9687500000000009
 40
1.0
 40
1.0
 40
1.0
 40
1.0
 10
268.8977393006888
 20
42.56755384824167
 30
0.0
 10
269.196644229589
 20
42.51571620514771
 30
0.0
 10
269.4876207168339
 20
42.44943955120036
 30
0.0
 10
269.9136502539679
 20
42.332753888048
 30
0.0
 10
270.0539038809019
 20
42.29094489838293
 30
0.0
 10
270.3309656178849
 20
42.2018773797164
 30
0.0
 10
270.4683581436523
 20
42.15439751271189
 30
0.0
 10
270.8708495130537
 20
42.00573714906275
 30
0.0
 10
271.1247277527176
 20
41.89916312096457
 30
0.0
 10
271.4849344541217
 20
41.72983207155519
 30
0.0
 10
271.6015443579932
 20
41.67178912822666
 30
0.0
 10
271.8277493299923
 20
41.55255709982521
 30
0.0
 10
271.9377617938247
 20
41.49109978813954
 30
0.0
 10
272.2516021660282
 20
41.3050917301222
 30
0.0
 10
272.4407662392088
 20
41.1783347968577
 30
0.0
 10
272.6948959360486
 20
40.98355570453198
 30
0.0
 10
272.7746398325274
 20
40.91784175881108
 30
0.0
 10
272.9238954807755
 20
40.78457609010729
 30
0.0
 10
272.9935976933359
 20
40.71677113483834
 30
0.0
 10
273.1831183625885
 20
40.51388764211414
 30
0.0
 10
273.2848472889644
 20
40.37835238718716
 30
0.0
 10
273.3999105769314
 20
40.17235648327004
 30
0.0
 10
273.4319686208926
 20
40.10323529963687
 30
0.0
 10
273.4828164247906
 20
39.96358197858154
 30
0.0
 10
273.5015730713317
 20
39.89281276221303
 30
0.0
 10
273.5358518716167
 20
39.68227109964658
 30
0.0
 10
273.5303266288088
 20
39.54285568765391
 30
0.0
 10
273.4768674408258
 20
39.3323559245143
 30
0.0
 10
273.4514637115244
 20
39.26196073170389
 30
0.0
 10
273.3842185111814
 20
39.1202175034878
 30
0.0
 10
273.34231679878
 20
39.04904807903076
 30
0.0
 10
273.1944935447335
 20
38.83959779749514
 30
0.0
 10
273.065872725814
 20
38.7033126037546
 30
0.0
 10
272.8245634951053
 20
38.50254743391508
 30
0.0
 10
272.7351830903648
 20
38.43573049661656
 30
0.0
 10
272.5434741805803
 20
38.30639380913536
 30
0.0
 10
272.4413366146354
 20
38.24386994019892
 30
0.0
 10
272.2247956234611
 20
38.12297585648959
 30
0.0
 10
272.110391695302
 20
38.06460585915464
 30
0.0
 10
271.8692156600519
 20
37.95212480395881
 30
0.0
 10
271.7415745139667
 20
37.89771215618402
 30
0.0
 10
271.3493527729997
 20
37.74507055624658
 30
0.0
 10
271.0739827490749
 20
37.65628066032659
 30
0.0
 10
270.6412790487776
 20
37.54299030509606
 30
0.0
 10
270.4940579314711
 20
37.50871812684088
 30
0.0
 10
270.1996263606575
 20
37.44846655954488
 30
0.0
 10
270.051615706778
 20
37.42226923109749
 30
0.0
 10
269.6052248195531
 20
37.3554936149869
 30
0.0
 10
269.3018658693093
 20
37.32666854920455
 30
0.0
 10
268.7082120132588
 20
37.30382751648345
 30
0.0
 10
268.4164182708759
 20
37.30930418167338
 30
0.0
 10
267.9855697355921
 20
37.34414144608883
 30
0.0
 10
267.8428185796005
 20
37.36030513266739
 30
0.0
 10
267.564550808715
 20
37.40122806771574
 30
0.0
 10
267.4284097060219
 20
37.42601615096629
 30
0.0
 10
267.0286361705094
 20
37.51340410945537
 30
0.0
 10
266.7735780862606
 20
37.58894567418174
 30
0.0
 10
266.2865707170745
 20
37.77685815696411
 30
0.0
 10
266.0601707720054
 20
37.88722593122891
 30
0.0
 10
265.6438439780491
 20
38.13812035449519
 30
0.0
 10
265.4532501530207
 20
38.27890149834281
 30
0.0
 10
265.1089569052587
 20
38.59188583787645
 30
0.0
 10
264.9601850349446
 20
38.75961087436884
 30
0.0
 10
264.70856314676
 20
39.11494483012775
 30
0.0
 10
264.6055329746573
 20
39.30283803834505
 30
0.0
 10
264.4496760601157
 20
39.69667801829085
 30
0.0
 10
264.3990844003588
 20
39.89679672820812
 30
0.0
 10
264.3647715036101
 20
40.19953131705082
 30
0.0
 10
264.360312742361
 20
40.30087232585178
 30
0.0
 10
264.3661289615787
 20
40.50405670320013
 30
0.0
 10
264.3764842498854
 20
40.60634781147522
 30
0.0
 10
264.4311179675713
 20
40.9103880103922
 30
0.0
 10
264.4977086133799
 20
41.10526887134934
 30
0.0
 10
264.6447148460799
 20
41.38320825662878
 30
0.0
 10
264.7016294087453
 20
41.47344646003631
 30
0.0
 10
264.8324397037578
 20
41.64846580430907
 30
0.0
 10
264.9068422624226
 20
41.73357967545595
 30
0.0
 10
265.1499398589235
 20
41.97220706455569
 30
0.0
 10
265.3398229773791
 20
42.11171350062627
 30
0.0
 10
265.6674164874063
 20
42.29037554803536
 30
0.0
 10
265.7845648857877
 20
42.34501479076835
 30
0.0
 10
266.0269460579613
 20
42.44097836661061
 30
0.0
 10
266.1527364138312
 20
42.48270793554652
 30
0.0
 10
266.4131779599728
 20
42.55430971276806
 30
0.0
 10
266.5478300462138
 20
42.5841803877742
 30
0.0
 10
266.825962726822
 20
42.63239536370716
 30
0.0
 10
266.968839180984
 20
42.6505571706945
 30
0.0
 10
267.4003404282502
 20
42.68768044094974
 30
0.0
 10
267.6948785360497
 20
42.69001585306216
 30
0.0
 10
268.297300955842
 20
42.65574507443384
 30
0.0
 10
268.5988343717888
 20
42.61939149133563
 30
0.0
 10
268.8977393006888
 20
42.56755384824167
 30
0.0
  0
SPLINE
  5
259
330
1F
100
AcDbEntity
  8
0
  6
Continuous
 62
     7
370
    15
100
AcDbSpline
210
0.0
220
0.0
230
1.0
 70
     8
 71
     3
 72
    12
 73
     8
 74
     0
 42
0.000000001
 43
0.00000001
 40
0.0
 40
0.0
 40
0.0
 40
0.0
 40
0.2499999999999992
 40
0.2499999999999992
 40
0.4999999999999984
 40
0.4999999999999984
 40
1.0
 40
1.0
 40
1.0
 40
1.0
 10
241.9933838290524
 20
29.46467418583689
 30
0.0
 10
242.027315321342
 20
29.44508595228541
 30
0.0
 10
242.0657470303693
 20
29.41789876334901
 30
0.0
 10
242.1399238830342
 20
29.35867483581317
 30
0.0
 10
242.1751401632897
 20
29.32724215679641
 30
0.0
 10
242.2702390805476
 20
29.23524943999443
 30
0.0
 10
242.3187682373095
 20
29.17839277446978
 30
0.0
 10
242.3521098334645
 20
29.13016396846745
 30
0.0
  0
ARC
  5
25A
330
1F
100
AcDbEntity
  8
0
  6
Continuous
 62
     7
370
    15
100
AcDbCircle
 10
266.0903326242
 20
44.9387643107
 30
0.0
 40
10.6678454515724
100
AcDbArc
 50
73.7906373846
 51
104.1628373202
  0
SPLINE
  5
25B
330
1F
100
AcDbEntity
  8
0
  6
Continuous
 62
     7
370
    15
100
AcDbSpline
210
0.0
220
0.0
230
1.0
 70
     8
 71
     3
 72
    14
 73
    10
 74
     0
 42
0.000000001
 43
0.00000001
 40
0.0
 40
0.0
 40
0.0
 40
0.0
 40
0.25
 40
0.25
 40
0.5
 40
0.5
 40
0.75
 40
0.75
 40
1.0
 40
1.0
 40
1.0
 40
1.0
 10
269.2803726526629
 20
54.74897990667876
 30
0.0
 10
269.2803726526629
 20
54.78572102495575
 30
0.0
 10
269.2761053600557
 20
54.82412016582073
 30
0.0
 10
269.2585110997487
 20
54.90443851222072
 30
0.0
 10
269.2452346653683
 20
54.94568539455105
 30
0.0
 10
269.208960182351
 20
55.02666282285087
 30
0.0
 10
269.185928080816
 20
55.06625804014197
 30
0.0
 10
269.1312680676853
 20
55.13543669470786
 30
0.0
 10
269.0998284338691
 20
55.16430662365827
 30
0.0
 10
269.0682406183072
 20
55.18254188143381
 30
0.0
  0
LWPOLYLINE
  5
25C
330
1F
100
AcDbEntity
  8
0
  6
Continuous
 62
     7
370
    15
100
AcDbPolyline
 90
       16
 70
   128
 43
0.0
 10
242.4560144762
 20
29.5982015907
 10
242.806236348
 20
30.9861363195
 10
243.376462135
 20
32.8585781951
 10
244.0586325857
 20
34.7338369676
 10
244.8477691038
 20
36.5982346581
 10
245.7381199615
 20
38.4381777718
 10
246.7231905929
 20
40.2402470293
 10
247.795798253
 20
41.9913019256
 10
248.9481200916
 20
43.6785716009
 10
250.1717530808
 20
45.2897525539
 10
251.4577739425
 20
46.813094189
 10
252.7968043444
 20
48.2374881639
 10
254.1790793885
 20
49.5525474718
 10
255.5945190633
 20
50.7486811501
 10
257.0328006836
 20
51.8171665173
 10
258.0860680028
 20
52.5088891766
  0
LWPOLYLINE
  5
25D
330
1F
100
AcDbEntity
  8
0
  6
Continuous
 62
     7
370
    15
100
AcDbPolyline
 90
       12
 70
   128
 43
0.0
 10
252.0043448107
 20
50.3066687089
 10
253.4547018324
 20
51.5792720196
 10
254.932333792
 20
52.7204210567
 10
256.4260595503
 20
53.7214800786
 10
257.9245760554
 20
54.5748745333
 10
259.416543788
 20
55.2741479905
 10
260.8906729494
 20
55.8140058122
 10
262.3358083716
 20
56.1903656921
 10
263.7410149233
 20
56.4003780613
 10
265.0956594155
 20
56.4424535994
 10
266.3894906151
 20
56.3162759652
 10
267.6127185994
 20
56.0227974164
  0
LINE
  5
25E
330
1F
100
AcDbEntity
  8
0
  6
Continuous
 62
     7
370
    15
100
AcDbLine
 10
269.0682405856
 20
55.182542459
 30
0.0
 11
267.6127185994
 21
56.0227974164
 31
0.0
  0
LINE
  5
25F
330
1F
100
AcDbEntity
  8
0
  6
Continuous
 62
     7
370
    15
100
AcDbLine
 10
240.5378616803
 20
30.3049293283
 30
0.0
 11
241.9933836666
 21
29.464674371
 31
0.0
  0
ARC
  5
260
330
1F
100
AcDbEntity
  8
0
  6
Continuous
 62
     7
370
    15
100
AcDbCircle
 10
279.870585552
 20
21.0738284634
 30
0.0
 40
40.40144044883899
100
AcDbArc
 50
136.9528122493
 51
166.7921386576
  0
SPLINE
  5
261
330
1F
100
AcDbEntity
  8
0
  6
Continuous
 62
     7
370
    15
100
AcDbSpline
210
0.0
220
0.0
230
1.0
 70
     8
 71
     3
 72
    34
 73
    30
 74
     0
 42
0.000000001
 43
0.00000001
 40
0.0
 40
0.0
 40
0.0
 40
0.0
 40
0.0624999999999994
 40
0.0624999999999994
 40
0.1249999999999989
 40
0.1249999999999989
 40
0.1874999999999983
 40
0.1874999999999983
 40
0.2499999999999978
 40
0.2499999999999978
 40
0.3124999999999972
 40
0.3124999999999972
 40
0.3749999999999967
 40
0.3749999999999967
 40
0.4999999999999982
 40
0.4999999999999982
 40
0.6249999999999998
 40
0.6249999999999998
 40
0.6875000000000001
 40
0.6875000000000001
 40
0.7500000000000004
 40
0.7500000000000004
 40
0.8125000000000008
 40
0.8125000000000008
 40
0.8750000000000006
 40
0.8750000000000006
 40
0.9375000000000003
 40
0.9375000000000003
 40
1.0
 40
1.0
 40
1.0
 40
1.0
 10
250.3455454435847
 20
48.65187107686925
 30
0.0
 10
250.404670857228
 20
48.62229359301102
 30
0.0
 10
250.4674835526585
 20
48.59861757081548
 30
0.0
 10
250.6001925555831
 20
48.56253806039575
 30
0.0
 10
250.6708042519543
 20
48.55009017025651
 30
0.0
 10
250.8160522219315
 20
48.53738027653112
 30
0.0
 10
250.8900346516937
 20
48.53703809663379
 30
0.0
 10
251.0407167165186
 20
48.5480444414564
 30
0.0
 10
251.1181647363187
 20
48.55963110544189
 30
0.0
 10
251.2700973222938
 20
48.59380564818069
 30
0.0
 10
251.3450534028783
 20
48.61631805057068
 30
0.0
 10
251.492988469787
 20
48.67213012316874
 30
0.0
 10
251.5659171828773
 20
48.70557496937503
 30
0.0
 10
251.7725297088872
 20
48.81793722869434
 30
0.0
 10
251.8994548849366
 20
48.91197462971507
 30
0.0
 10
252.1085616375635
 20
49.12057594489097
 30
0.0
 10
252.1931100207613
 20
49.23750003903467
 30
0.0
 10
252.2780835775353
 20
49.41602528900731
 30
0.0
 10
252.3000432781333
 20
49.47724186793399
 30
0.0
 10
252.3291543748731
 20
49.59804785044783
 30
0.0
 10
252.3365088376528
 20
49.65764837689299
 30
0.0
 10
252.3368517726972
 20
49.77538966702623
 30
0.0
 10
252.3296117298619
 20
49.83384105516333
 30
0.0
 10
252.3009998793399
 20
49.94460367955479
 30
0.0
 10
252.2797165377804
 20
49.99751612427742
 30
0.0
 10
252.2228883711734
 20
50.09843433158667
 30
0.0
 10
252.1874308821995
 20
50.14594934621777
 30
0.0
 10
252.1050259293129
 20
50.23220932410119
 30
0.0
 10
252.0578210267371
 20
50.27145487652127
 30
0.0
 10
252.0043448808482
 20
50.30666800463487
 30
0.0
  0
LINE
  5
262
330
1F
100
AcDbEntity
  8
0
  6
Continuous
 62
     7
370
    15
100
AcDbLine
 10
274.9902718794
 20
47.8796763504
 30
0.0
 11
275.0945537193
 21
48.0602981752
 31
0.0
  0
LINE
  5
263
330
1F
100
AcDbEntity
  8
0
  6
Continuous
 62
     7
370
    15
100
AcDbLine
 10
272.6921635979
 20
46.5530066785
 30
0.0
 11
274.9902718794
 21
47.8796763504
 31
0.0
  0
ARC
  5
264
330
1F
100
AcDbEntity
  8
0
  6
Continuous
 62
     7
370
    15
100
AcDbCircle
 10
273.5202666955
 20
45.2584043955
 30
0.0
 40
1.536798559128359
100
AcDbArc
 50
122.6053519586
 51
177.394632491
  0
LINE
  5
265
330
1F
100
AcDbEntity
  8
0
  6
Continuous
 62
     7
370
    15
100
AcDbLine
 10
271.9850567008
 20
43.7769167415
 30
0.0
 11
271.9850567008
 21
45.3282619902
 31
0.0
  0
LINE
  5
266
330
1F
100
AcDbEntity
  8
0
  6
Continuous
 62
     7
370
    15
100
AcDbLine
 10
242.3976173834
 20
18.5717883063
 30
0.0
 11
242.3521093237
 21
18.4534196833
 31
0.0
  0
LINE
  5
267
330
1F
100
AcDbEntity
  8
0
  6
Continuous
 62
     7
370
    15
100
AcDbLine
 10
242.3976173834
 20
18.5717883063
 30
0.0
 11
245.5392619106
 21
20.3854210876
 31
0.0
  0
ARC
  5
268
330
1F
100
AcDbEntity
  8
0
  6
Continuous
 62
     7
370
    15
100
AcDbCircle
 10
244.711158813
 20
21.6800233706
 30
0.0
 40
1.536798559128204
100
AcDbArc
 50
302.6053519586
 51
357.394632491
  0
LINE
  5
269
330
1F
100
AcDbEntity
  8
0
  6
Continuous
 62
     7
370
    15
100
AcDbLine
 10
246.2463688077
 20
30.4696337443
 30
0.0
 11
246.2463688077
 21
21.6101657759
 31
0.0
  0
ARC
  5
26A
330
1F
100
AcDbEntity
  8
0
  6
Continuous
 62
     7
370
    15
100
AcDbCircle
 10
245.8152953246
 20
30.5395622913
 30
0.0
 40
0.4367085406723013
100
AcDbArc
 50
350.7857695821
 51
129.2035248725
  0
LINE
  5
26B
330
1F
100
AcDbEntity
  8
0
  6
Continuous
 62
     7
370
    15
100
AcDbLine
 10
245.5392619106
 20
30.8779701869
 30
0.0
 11
242.3976173834
 21
29.0643374056
 31
0.0
  0
LINE
  5
26C
330
1F
100
AcDbEntity
  8
0
  6
Continuous
 62
     7
370
    15
100
AcDbLine
 10
242.3521093237
 20
29.1301635413
 30
0.0
 11
242.3976173834
 21
29.0643374056
 31
0.0
  0
LINE
  5
26D
330
1F
100
AcDbEntity
  8
0
  6
Continuous
 62
     7
370
    15
100
AcDbLine
 10
269.2803729182
 20
51.5240191211
 30
0.0
 11
269.2803729182
 21
54.7489802641
 31
0.0
  0
LINE
  5
26E
330
1F
100
AcDbEntity
  8
0
  6
Continuous
 62
     7
370
    15
100
AcDbLine
 10
272.0731199066
 20
53.1362376405
 30
0.0
 11
269.2803729182
 21
51.5240191211
 31
0.0
  0
SPLINE
  5
26F
330
1F
100
AcDbEntity
  8
0
  6
Continuous
 62
     7
370
    15
100
AcDbSpline
210
0.0
220
0.0
230
1.0
 70
     8
 71
     3
 72
     8
 73
     4
 74
     0
 42
0.000000001
 43
0.00000001
 40
0.0
 40
0.0
 40
0.0
 40
0.0
 40
1.0
 40
1.0
 40
1.0
 40
1.0
 10
239.4653073568239
 20
31.39644311336837
 30
0.0
 10
239.1782402271517
 20
31.34899111364502
 30
0.0
 10
238.8911271085662
 20
31.30163368094223
 30
0.0
 10
238.6039722821685
 20
31.25436201203015
 30
0.0
  0
SPLINE
  5
270
330
1F
100
AcDbEntity
  8
0
  6
Continuous
 62
     7
370
    15
100
AcDbSpline
210
0.0
220
0.0
230
1.0
 70
     8
 71
     3
 72
     8
 73
     4
 74
     0
 42
0.000000001
 43
0.00000001
 40
0.0
 40
0.0
 40
0.0
 40
0.0
 40
0.0011862984959113
 40
0.0011862984959113
 40
0.0011862984959113
 40
0.0011862984959113
 10
238.2516711948931
 20
31.62471891169233
 30
0.0
 10
238.3693820627376
 20
31.50116896057988
 30
0.0
 10
238.4868218131736
 20
31.3777139114646
 30
0.0
 10
238.6039722821685
 20
31.25436201203016
 30
0.0
  0
LWPOLYLINE
  5
271
330
1F
100
AcDbEntity
  8
0
  6
Continuous
 62
     7
370
    15
100
AcDbPolyline
 90
       24
 70
   128
 43
0.0
 10
238.251671408
 20
31.62471888
 10
238.7223305337
 20
33.4860791272
 10
239.3074644512
 20
35.3619972007
 10
240.0028993054
 20
37.2390927674
 10
240.8036762562
 20
39.1039798642
 10
241.7040844057
 20
40.9433562497
 10
242.6977003106
 20
42.7441053023
 10
243.7774380321
 20
44.4933811872
 10
244.9355978677
 20
46.1787099936
 10
246.1639183768
 20
47.788070719
 10
247.4536396001
 20
49.3099865192
 10
248.7955636465
 20
50.7336007481
 10
250.1801185717
 20
52.0487625046
 10
251.5974301592
 20
53.2460908846
 10
253.0373899156
 20
54.3170446518
 10
254.4897281478
 20
55.2539887602
 10
255.9440863419
 20
56.0502376572
 10
257.3900918661
 20
56.7001151399
 10
258.8174319341
 20
57.198984885
 10
260.2159259416
 20
57.5432891666
 10
261.5756003967
 20
57.7305723405
 10
262.8867579023
 20
57.7594993731
 10
264.1400464678
 20
57.6298623952
 10
265.3265283271
 20
57.3425869681
  0
LINE
  5
272
330
1F
100
AcDbEntity
  8
0
  6
Continuous
 62
     7
370
    15
100
AcDbLine
 10
265.6278572205
 20
56.3944381705
 30
0.0
 11
265.3265283271
 21
57.3425869681
 31
0.0
  0
LWPOLYLINE
  5
273
330
1F
100
AcDbEntity
  8
0
  6
Continuous
 62
     7
370
    15
100
AcDbPolyline
 90
       23
 70
   128
 43
0.0
 10
239.4653073623
 20
31.3964430877
 10
239.9165565472
 20
33.2104507517
 10
240.4822923776
 20
35.0397489469
 10
241.1582883151
 20
36.8706717913
 10
241.9394946402
 20
38.6895397917
 10
242.8200740145
 20
40.4827640241
 10
243.7934475783
 20
42.2369480309
 10
244.8523443418
 20
43.9389862968
 10
245.9888525511
 20
45.5761638641
 10
247.194481592
 20
47.1362468222
 10
248.4602245512
 20
48.6075823029
 10
249.7766240711
 20
49.9791760407
 10
251.1338464357
 20
51.2407822913
 10
252.5217515415
 20
52.3829761637
 10
253.9299701934
 20
53.3972225775
 10
255.347981752
 20
54.275945422
 10
256.765192397
 20
55.0125788211
 10
258.1710138647
 20
55.6016201913
 10
259.5549438311
 20
56.038669042
 10
260.9066426537
 20
56.3204591098
 10
262.2160115524
 20
56.4448867611
 10
263.4732691656
 20
56.411020206
 10
263.6563386119
 20
56.3923363257
  0
LINE
  5
274
330
1F
100
AcDbEntity
  8
0
  6
Continuous
 62
     7
370
    15
100
AcDbLine
 10
270.3743088593
 20
16.1312697967
 30
0.0
 11
270.4729469728
 21
16.071774092
 31
0.0
  0
LINE
  5
275
330
1F
100
AcDbEntity
  8
0
  6
Continuous
 62
     7
370
    15
100
AcDbLine
 10
279.5574110682
 20
31.6095728531
 30
0.0
 11
279.4722158238
 21
31.6606539153
 31
0.0
  0
LINE
  5
276
330
1F
100
AcDbEntity
  8
0
  6
Continuous
 62
     7
370
    15
100
AcDbLine
 10
236.813826732
 20
32.4547689434
 30
0.0
 11
238.251671408
 21
31.62471888
 31
0.0
  0
ARC
  5
277
330
1F
100
AcDbEntity
  8
0
  6
Continuous
 62
     7
370
    15
100
AcDbCircle
 10
260.9107786515
 20
47.9288780631
 30
0.0
 40
10.66782620723983
100
AcDbArc
 50
73.7906239038
 51
104.1625150241
  0
LINE
  5
278
330
1F
100
AcDbEntity
  8
0
  6
Continuous
 62
     7
370
    15
100
AcDbLine
 10
265.3265283271
 20
57.3425869681
 30
0.0
 11
263.8886836511
 21
58.1726370314
 31
0.0
  0
LINE
  5
279
330
1F
100
AcDbEntity
  8
0
  6
Continuous
 62
     7
370
    15
100
AcDbLine
 10
240.7178981999
 20
31.0701010862
 30
0.0
 11
240.0917945822
 21
31.4315430112
 31
0.0
  0
SPLINE
  5
27A
330
1F
100
AcDbEntity
  8
0
  6
Continuous
 62
     7
370
    15
100
AcDbSpline
210
0.0
220
0.0
230
1.0
 70
     8
 71
     3
 72
    11
 73
     7
 74
     0
 42
0.000000001
 43
0.00000001
 40
0.0
 40
0.0
 40
0.0
 40
0.0
 40
0.3165694752064712
 40
0.6331520400060429
 40
0.9494411625907934
 40
1.0
 40
1.0
 40
1.0
 40
1.0
 10
251.3123208877619
 20
49.41418975912208
 30
0.0
 10
251.1787307075582
 20
49.36701109620202
 30
0.0
 10
250.9115448234309
 20
49.27265181960686
 30
0.0
 10
250.5955946242321
 20
49.01283612041367
 30
0.0
 10
250.4148919332755
 20
48.78964473494118
 30
0.0
 10
250.3799569697254
 20
48.66089555744338
 30
0.0
 10
250.3751422471847
 20
48.64315139789623
 30
0.0
  0
SPLINE
  5
27B
330
1F
100
AcDbEntity
  8
0
  6
Continuous
 62
     7
370
    15
100
AcDbSpline
210
0.0
220
0.0
230
1.0
 70
     8
 71
     3
 72
    14
 73
    10
 74
     0
 42
0.000000001
 43
0.00000001
 40
0.0
 40
0.0
 40
0.0
 40
0.0
 40
0.0900065138656163
 40
0.2702096884681704
 40
0.4415030508437349
 40
0.6031111976157788
 40
0.7672501606210224
 40
0.9423132504759946
 40
0.9999999999999999
 40
0.9999999999999999
 40
0.9999999999999999
 40
0.9999999999999999
 10
276.856617308066
 20
31.86954208315931
 30
0.0
 10
276.9946085365265
 20
31.70962635804277
 30
0.0
 10
277.4088737408128
 20
31.22954134631332
 30
0.0
 10
277.8103059032488
 20
30.33034467017342
 30
0.0
 10
277.9278804140503
 20
29.31111399065356
 30
0.0
 10
277.6503927890282
 20
28.43345059549237
 30
0.0
 10
277.0573316936349
 20
27.80040587563501
 30
0.0
 10
276.4192462162837
 20
27.45251306311961
 30
0.0
 10
276.0043282423244
 20
27.49495169377164
 30
0.0
 10
275.9014913540127
 20
27.50547005401239
 30
0.0
  0
SPLINE
  5
27C
330
1F
100
AcDbEntity
  8
0
  6
Continuous
 62
     7
370
    15
100
AcDbSpline
210
0.0
220
0.0
230
1.0
 70
     8
 71
     3
 72
    14
 73
    10
 74
     0
 42
0.000000001
 43
0.00000001
 40
0.0
 40
0.0
 40
0.0
 40
0.0
 40
0.25
 40
0.25
 40
0.5
 40
0.5
 40
0.75
 40
0.75
 40
1.0
 40
1.0
 40
1.0
 40
1.0
 10
240.0917944695577
 20
31.43154318060041
 30
0.0
 10
240.0541604760996
 20
31.45326882258045
 30
0.0
 10
240.0083865194104
 20
31.47048058369196
 30
0.0
 10
239.9084506419005
 20
31.49288591732445
 30
0.0
 10
239.8540167730606
 20
31.49806080092428
 30
0.0
 10
239.7478011225687
 20
31.49611860660952
 30
0.0
 10
239.6944848226186
 20
31.48903020369129
 30
0.0
 10
239.5969917553179
 20
31.4642967674066
 30
0.0
 10
239.5520800647883
 20
31.44653593142056
 30
0.0
 10
239.5143267991882
 20
31.42474143509857
 30
0.0
  0
LINE
  5
27D
330
1F
100
AcDbEntity
  8
0
  6
Continuous
 62
     7
370
    15
100
AcDbLine
 10
239.5143267813
 20
31.4247413959
 30
0.0
 11
239.4653073623
 21
31.3964430877
 31
0.0
  0
SPLINE
  5
27E
330
1F
100
AcDbEntity
  8
0
  6
Continuous
 62
     7
370
    15
100
AcDbSpline
210
0.0
220
0.0
230
1.0
 70
     8
 71
     3
 72
    10
 73
     6
 74
     0
 42
0.000000001
 43
0.00000001
 40
0.0
 40
0.0
 40
0.0
 40
0.0
 40
0.5
 40
0.5
 40
1.0
 40
1.0
 40
1.0
 40
1.0
 10
236.7118141665381
 20
32.48421712227705
 30
0.0
 10
236.7191304509603
 20
32.48858512217024
 30
0.0
 10
236.7309543111687
 20
32.4891171747585
 30
0.0
 10
236.7651056754465
 20
32.4798871251202
 30
0.0
 10
236.7873626388393
 20
32.47004624780389
 30
0.0
 10
236.813826656861
 20
32.45476889538758
 30
0.0
  0
LWPOLYLINE
  5
27F
330
1F
100
AcDbEntity
  8
0
  6
Continuous
 62
     7
370
    15
100
AcDbPolyline
 90
       24
 70
   128
 43
0.0
 10
271.7906354289
 20
37.889971272
 10
271.8886822517
 20
37.9651430252
 10
272.2744692313
 20
38.3590587092
 10
272.5045503591
 20
38.7916409259
 10
272.5681672403
 20
39.2426628913
 10
272.4623462172
 20
39.6910345041
 10
272.1920337823
 20
40.1157914036
 10
271.769870862
 20
40.4970717216
 10
271.2155963401
 20
40.8170475922
 10
270.5551265773
 20
41.0607578189
 10
269.819346323
 20
41.216805866
 10
269.0426597535
 20
41.2778950423
 10
268.2613821409
 20
41.2411697985
 10
267.5120478883
 20
41.1083460304
 10
266.8296919749
 20
40.8856359475
 10
266.2462215306
 20
40.5834527711
 10
265.7889198792
 20
40.2159257853
 10
265.4791705476
 20
39.8002397574
 10
265.3314550632
 20
39.3558328389
 10
265.352681599
 20
38.9034843665
 10
265.5418575639
 20
38.464345744
 10
265.8901370588
 20
38.0589505047
 10
266.3812347718
 20
37.7062549528
 10
266.3812347718
 20
37.7062549528
  0
SPLINE
  5
280
330
1F
100
AcDbEntity
  8
0
  6
Continuous
 62
     7
370
    15
100
AcDbSpline
210
0.0
220
0.0
230
1.0
 70
     8
 71
     3
 72
    14
 73
    10
 74
     0
 42
0.000000001
 43
0.00000001
 40
0.0
 40
0.0
 40
0.0
 40
0.0
 40
0.25
 40
0.25
 40
0.5
 40
0.5
 40
0.75
 40
0.75
 40
1.0
 40
1.0
 40
1.0
 40
1.0
 10
251.7293997427875
 20
49.72064156826028
 30
0.0
 10
251.7442406349167
 20
49.68212354942468
 30
0.0
 10
251.7436068670127
 20
49.64420491127122
 30
0.0
 10
251.7106712620523
 20
49.57826396150195
 30
0.0
 10
251.6785354167103
 20
49.54999040396
 30
0.0
 10
251.5936328413059
 20
49.50207137777249
 30
0.0
 10
251.5412159288128
 20
49.48219428032474
 30
0.0
 10
251.4298802645176
 20
49.44633735430835
 30
0.0
 10
251.3717255878067
 20
49.43046533062493
 30
0.0
 10
251.3123206320753
 20
49.41418998507019
 30
0.0
  0
LINE
  5
281
330
1F
100
AcDbEntity
  8
0
  6
Continuous
 62
     7
370
    15
100
AcDbLine
 10
251.713272748
 20
49.7624974108
 30
0.0
 11
251.7293998445
 21
49.7206419212
 31
0.0
  0
SPLINE
  5
282
330
1F
100
AcDbEntity
  8
0
  6
Continuous
 62
     7
370
    15
100
AcDbSpline
210
0.0
220
0.0
230
1.0
 70
     8
 71
     3
 72
    10
 73
     6
 74
     0
 42
0.000000001
 43
0.00000001
 40
0.0
 40
0.0
 40
0.0
 40
0.0
 40
0.5
 40
0.5
 40
1.0
 40
1.0
 40
1.0
 40
1.0
 10
252.0043448808482
 20
50.30666800463487
 30
0.0
 10
251.9763298311103
 20
50.23464190194684
 30
0.0
 10
251.9385119426605
 20
50.1536954166434
 30
0.0
 10
251.8425361948256
 20
49.97330038030349
 30
0.0
 10
251.7845044175259
 20
49.87397417332868
 30
0.0
 10
251.7132726799358
 20
49.76249771176461
 30
0.0
  0
LINE
  5
283
330
1F
100
AcDbEntity
  8
0
  6
Continuous
 62
     7
370
    15
100
AcDbLine
 10
242.3976173834
 20
29.0643374056
 30
0.0
 11
240.5697632226
 21
30.1195351521
 31
0.0
  0
SPLINE
  5
284
330
1F
100
AcDbEntity
  8
0
  6
Continuous
 62
     7
370
    15
100
AcDbSpline
210
0.0
220
0.0
230
1.0
 70
     8
 71
     3
 72
     8
 73
     4
 74
     0
 42
0.000000001
 43
0.00000001
 40
0.0000000000000004
 40
0.0000000000000004
 40
0.0000000000000004
 40
0.0000000000000004
 40
0.0011862984959128
 40
0.0011862984959128
 40
0.0011862984959128
 40
0.0011862984959128
 10
240.5697629551395
 20
30.11953521199162
 30
0.0
 10
240.5587007558818
 20
30.1816436569104
 30
0.0
 10
240.5480747493081
 20
30.24343644421202
 30
0.0
 10
240.5378616214907
 20
30.30492927092991
 30
0.0
  0
LINE
  5
285
330
1F
100
AcDbEntity
  8
0
  6
Continuous
 62
     7
370
    15
100
AcDbLine
 10
240.642547455
 20
30.9047100473
 30
0.0
 11
240.6226541425
 21
30.6753642908
 31
0.0
  0
ARC
  5
286
330
1F
100
AcDbEntity
  8
0
  6
Continuous
 62
     7
370
    15
100
AcDbCircle
 10
256.625330617
 20
29.2480641098
 30
0.0
 40
16.06296283248745
100
AcDbArc
 50
176.9225000953
 51
185.727139394
  0
LWPOLYLINE
  5
287
330
1F
100
AcDbEntity
  8
0
  6
Continuous
 62
     7
370
    15
100
AcDbPolyline
 90
        3
 70
   128
 43
0.0
 10
239.6437600824
 20
30.0045822365
 10
239.7032174318
 20
31.4365173499
 10
239.7056277047
 20
31.4658760294
  0
ARC
  5
288
330
1F
100
AcDbEntity
  8
0
  6
Continuous
 62
     7
370
    15
100
AcDbCircle
 10
251.3178487169
 20
29.6978455442
 30
0.0
 40
11.67811769269729
100
AcDbArc
 50
178.4948996252
 51
203.9177321152
  0
LINE
  5
289
330
1F
100
AcDbEntity
  8
0
  6
Continuous
 62
     7
370
    15
100
AcDbLine
 10
211.0888125278
 20
49.0548694123
 30
0.0
 11
211.0130871534
 21
49.1206865963
 31
0.0
  0
LINE
  5
28A
330
1F
100
AcDbEntity
  8
0
  6
Continuous
 62
     7
370
    15
100
AcDbLine
 10
237.1473493969
 20
32.0952525994
 30
0.0
 11
236.7118135779
 21
32.4842167691
 31
0.0
  0
LINE
  5
28B
330
1F
100
AcDbEntity
  8
0
  6
Continuous
 62
     7
370
    15
100
AcDbLine
 10
238.6039726342
 20
31.2543619033
 30
0.0
 11
237.1473493969
 21
32.0952525994
 31
0.0
  0
LINE
  5
28C
330
1F
100
AcDbEntity
  8
0
  6
Continuous
 62
     7
370
    15
100
AcDbLine
 10
240.642547455
 20
30.9047100473
 30
0.0
 11
240.642547455
 21
30.7595602101
 31
0.0
  0
LINE
  5
28D
330
1F
100
AcDbEntity
  8
0
  6
Continuous
 62
     7
370
    15
100
AcDbLine
 10
240.642547455
 20
30.0775170127
 30
0.0
 11
240.642547455
 21
27.6451238882
 31
0.0
  0
LINE
  5
28E
330
1F
100
AcDbEntity
  8
0
  6
Continuous
 62
     7
370
    15
100
AcDbLine
 10
240.642547455
 20
31.1135996977
 30
0.0
 11
240.642547455
 21
30.9047100473
 31
0.0
  0
LINE
  5
28F
330
1F
100
AcDbEntity
  8
0
  6
Continuous
 62
     7
370
    15
100
AcDbLine
 10
240.642547455
 20
27.6451238882
 30
0.0
 11
240.642547455
 21
24.7751348455
 31
0.0
  0
LINE
  5
290
330
1F
100
AcDbEntity
  8
0
  6
Continuous
 62
     7
370
    15
100
AcDbLine
 10
240.5697632226
 20
19.6269860528
 30
0.0
 11
242.3976173834
 21
18.5717883063
 31
0.0
  0
SPLINE
  5
291
330
1F
100
AcDbEntity
  8
0
  6
Continuous
 62
     7
370
    15
100
AcDbSpline
210
0.0
220
0.0
230
1.0
 70
     8
 71
     3
 72
    14
 73
    10
 74
     0
 42
0.000000001
 43
0.00000001
 40
0.0
 40
0.0
 40
0.0
 40
0.0
 40
0.25
 40
0.25
 40
0.5
 40
0.5
 40
0.75
 40
0.75
 40
1.0
 40
1.0
 40
1.0
 40
1.0
 10
242.3521098334645
 20
18.45342003693095
 30
0.0
 10
242.3354349903982
 20
18.41004741882436
 30
0.0
 10
242.3151397474822
 20
18.36981708937852
 30
0.0
 10
242.2668427684118
 20
18.29604520170638
 30
0.0
 10
242.2386239206067
 20
18.26247559502927
 30
0.0
 10
242.1756985721835
 20
18.20892418936665
 30
0.0
 10
242.1405353961666
 20
18.18846816000699
 30
0.0
 10
242.0658524069581
 20
18.17103586649512
 30
0.0
 10
242.0273275317497
 20
18.17498317548001
 30
0.0
 10
241.9933838290524
 20
18.19457845794983
 30
0.0
  0
LINE
  5
292
330
1F
100
AcDbEntity
  8
0
  6
Continuous
 62
     7
370
    15
100
AcDbLine
 10
241.9933836666
 20
18.1945785816
 30
0.0
 11
240.5378616803
 21
19.0348335389
 31
0.0
  0
SPLINE
  5
293
330
1F
100
AcDbEntity
  8
0
  6
Continuous
 62
     7
370
    15
100
AcDbSpline
210
0.0
220
0.0
230
1.0
 70
     8
 71
     3
 72
     8
 73
     4
 74
     0
 42
0.000000001
 43
0.00000001
 40
0.0
 40
0.0
 40
0.0
 40
0.0
 40
0.0011862984959113
 40
0.0011862984959113
 40
0.0011862984959113
 40
0.0011862984959113
 10
240.5378616214907
 20
19.03483354304285
 30
0.0
 10
240.5480747493081
 20
19.2322324449318
 30
0.0
 10
240.5587007558833
 20
19.42961828190859
 30
0.0
 10
240.5697629551409
 20
19.62698577925893
 30
0.0
  0
LWPOLYLINE
  5
294
330
1F
100
AcDbEntity
  8
0
  6
Continuous
 62
     7
370
    15
100
AcDbPolyline
 90
       13
 70
   128
 43
0.0
 10
253.5542572984
 20
11.4531357055
 10
252.2635136847
 20
11.2213968176
 10
250.9552478481
 20
11.1278252248
 10
249.6989438073
 20
11.1871200485
 10
248.503236398
 20
11.3988743913
 10
247.3763449141
 20
11.7616338572
 10
246.3260151561
 20
12.2729011196
 10
245.3594667476
 20
12.929166345
 10
244.4833430854
 20
13.7259148025
 10
243.7036672177
 20
14.6576728754
 10
243.0257970626
 20
15.7180339216
 10
242.4543937981
 20
16.8997099877
 10
242.1136167716
 20
17.8136305248
  0
SPLINE
  5
295
330
1F
100
AcDbEntity
  8
0
  6
Continuous
 62
     7
370
    15
100
AcDbSpline
210
0.0
220
0.0
230
1.0
 70
     8
 71
     3
 72
     8
 73
     4
 74
     0
 42
0.000000001
 43
0.00000001
 40
0.0
 40
0.0
 40
0.0
 40
0.0
 40
1.0
 40
1.0
 40
1.0
 40
1.0
 10
240.8158813088903
 20
20.12422393384579
 30
0.0
 10
240.7336831281046
 20
19.95850360734232
 30
0.0
 10
240.6516487599527
 20
19.79275673200435
 30
0.0
 10
240.5697629551409
 20
19.62698577925893
 30
0.0
  0
LINE
  5
296
330
1F
100
AcDbEntity
  8
0
  6
Continuous
 62
     7
370
    15
100
AcDbLine
 10
240.8649008099
 20
20.1525225056
 30
0.0
 11
240.8158813909
 21
20.1242241974
 31
0.0
  0
SPLINE
  5
297
330
1F
100
AcDbEntity
  8
0
  6
Continuous
 62
     7
370
    15
100
AcDbSpline
210
0.0
220
0.0
230
1.0
 70
     8
 71
     3
 72
    12
 73
     8
 74
     0
 42
0.000000001
 43
0.00000001
 40
0.0
 40
0.0
 40
0.0
 40
0.0
 40
0.249999999999997
 40
0.249999999999997
 40
0.499999999999994
 40
0.499999999999994
 40
1.0
 40
1.0
 40
1.0
 40
1.0
 10
240.8766829966747
 20
20.48588724580692
 30
0.0
 10
240.9142817812494
 20
20.46418192948263
 30
0.0
 10
240.9444593404957
 20
20.43738005890946
 30
0.0
 10
240.9830490751767
 20
20.37975635407946
 30
0.0
 10
240.9919085603665
 20
20.34870822850809
 30
0.0
 10
240.9868611265282
 20
20.25651925210279
 30
0.0
 10
240.9401588394529
 20
20.19596782512794
 30
0.0
 10
240.8649007512545
 20
20.15252225557599
 30
0.0
  0
LINE
  5
298
330
1F
100
AcDbEntity
  8
0
  6
Continuous
 62
     7
370
    15
100
AcDbLine
 10
240.0917945822
 20
20.9389939118
 30
0.0
 11
240.8766831589
 21
20.4858873811
 31
0.0
  0
SPLINE
  5
299
330
1F
100
AcDbEntity
  8
0
  6
Continuous
 62
     7
370
    15
100
AcDbSpline
210
0.0
220
0.0
230
1.0
 70
     8
 71
     3
 72
    10
 73
     6
 74
     0
 42
0.000000001
 43
0.00000001
 40
0.0
 40
0.0
 40
0.0
 40
0.0
 40
0.5
 40
0.5
 40
1.0
 40
1.0
 40
1.0
 40
1.0
 10
239.5143267991882
 20
20.93219200236668
 30
0.0
 10
239.5904641895268
 20
20.9761451822394
 30
0.0
 10
239.6939719702112
 20
21.00263184841818
 30
0.0
 10
239.9084672622969
 20
21.00645991880551
 30
0.0
 10
240.0158975067152
 20
20.98280813190211
 30
0.0
 10
240.0917944695577
 20
20.93899374786853
 30
0.0
  0
LINE
  5
29A
330
1F
100
AcDbEntity
  8
0
  6
Continuous
 62
     7
370
    15
100
AcDbLine
 10
239.4653073623
 20
20.9038939883
 30
0.0
 11
239.5143267813
 21
20.9321922966
 31
0.0
  0
SPLINE
  5
29B
330
1F
100
AcDbEntity
  8
0
  6
Continuous
 62
     7
370
    15
100
AcDbSpline
210
0.0
220
0.0
230
1.0
 70
     8
 71
     3
 72
     8
 73
     4
 74
     0
 42
0.000000001
 43
0.00000001
 40
0.0
 40
0.0
 40
0.0
 40
0.0
 40
1.0
 40
1.0
 40
1.0
 40
1.0
 10
238.6039722821694
 20
20.76181257929842
 30
0.0
 10
238.8911271085668
 20
20.80908424821044
 30
0.0
 10
239.178240227152
 20
20.85644168091318
 30
0.0
 10
239.4653073568239
 20
20.90389368063648
 30
0.0
  0
LINE
  5
29C
330
1F
100
AcDbEntity
  8
0
  6
Continuous
 62
     7
370
    15
100
AcDbLine
 10
237.1473493969
 20
21.6027035
 30
0.0
 11
238.6039726342
 21
20.761812804
 31
0.0
  0
LINE
  5
29D
330
1F
100
AcDbEntity
  8
0
  6
Continuous
 62
     7
370
    15
100
AcDbLine
 10
237.1473493969
 20
21.6027035
 30
0.0
 11
240.2889939241
 21
23.4163362814
 31
0.0
  0
ARC
  5
29E
330
1F
100
AcDbEntity
  8
0
  6
Continuous
 62
     7
370
    15
100
AcDbCircle
 10
250.1167895091
 20
21.4980364896
 30
0.0
 40
9.89056252824689
100
AcDbArc
 50
194.4210541018
 51
238.0225374632
  0
ELLIPSE
  5
29F
330
1F
100
AcDbEntity
  8
0
  6
Continuous
 62
     7
370
    15
100
AcDbEllipse
 10
239.9961014052
 20
24.4019609256
 30
0.0
 11
-7.507462981948265E-5
 21
1.066811201853401
 31
0.0
210
0.0
220
0.0
230
1.0
 40
0.7174342186
 41
3.534193645557477
 42
5.104989972352355
  0
ARC
  5
2A0
330
1F
100
AcDbEntity
  8
0
  6
Continuous
 62
     7
370
    15
100
AcDbCircle
 10
250.1642099836
 20
23.8825768208
 30
0.0
 40
11.10581238431572
100
AcDbArc
 50
195.5577410858
 51
215.7110930235
  0
ARC
  5
2A1
330
1F
100
AcDbEntity
  8
0
  6
Continuous
 62
     7
370
    15
100
AcDbCircle
 10
247.3717018319
 20
22.5245103236
 30
0.0
 40
9.374612820624476
100
AcDbArc
 50
193.3832905048
 51
247.5353305273
  0
SPLINE
  5
2A2
330
1F
100
AcDbEntity
  8
0
  6
Continuous
 62
     7
370
    15
100
AcDbSpline
210
0.0
220
0.0
230
1.0
 70
     8
 71
     3
 72
     8
 73
     4
 74
     0
 42
0.000000001
 43
0.00000001
 40
0.0000000000000004
 40
0.0000000000000004
 40
0.0000000000000004
 40
0.0000000000000004
 40
0.0011862984959128
 40
0.0011862984959128
 40
0.0011862984959128
 40
0.0011862984959128
 10
238.6039722821699
 20
20.76181257929746
 30
0.0
 10
238.4868218131749
 20
20.62568853646269
 30
0.0
 10
238.3693820627377
 20
20.48996496129975
 30
0.0
 10
238.2516711948931
 20
20.35462318380528
 30
0.0
  0
LINE
  5
2A3
330
1F
100
AcDbEntity
  8
0
  6
Continuous
 62
     7
370
    15
100
AcDbLine
 10
236.7118135779
 20
21.3512217925
 30
0.0
 11
237.1473493969
 21
21.6027035
 31
0.0
  0
LINE
  5
2A4
330
1F
100
AcDbEntity
  8
0
  6
Continuous
 62
     7
370
    15
100
AcDbLine
 10
238.251671408
 20
20.3546230906
 30
0.0
 11
236.813826732
 21
21.184673154
 31
0.0
  0
SPLINE
  5
2A5
330
1F
100
AcDbEntity
  8
0
  6
Continuous
 62
     7
370
    15
100
AcDbSpline
210
0.0
220
0.0
230
1.0
 70
     8
 71
     3
 72
    10
 73
     6
 74
     0
 42
0.000000001
 43
0.00000001
 40
0.0
 40
0.0
 40
0.0
 40
0.0
 40
0.5
 40
0.5
 40
1.0
 40
1.0
 40
1.0
 40
1.0
 10
236.813826656861
 20
21.18467316750051
 30
0.0
 10
236.7874172275803
 20
21.19991900650744
 30
0.0
 10
236.7651338233712
 20
21.2237764289197
 30
0.0
 10
236.7310266885497
 20
21.28170252065398
 30
0.0
 10
236.7191266584948
 20
21.31560105213484
 30
0.0
 10
236.7118141665381
 20
21.3512220945892
 30
0.0
  0
ARC
  5
2A6
330
1F
100
AcDbEntity
  8
0
  6
Continuous
 62
     7
370
    15
100
AcDbCircle
 10
246.3304851897
 20
23.5799296258
 30
0.0
 40
9.799963986103002
100
AcDbArc
 50
196.1131343559
 51
238.1209750491
  0
ELLIPSE
  5
2A7
330
1F
100
AcDbEntity
  8
0
  6
Continuous
 62
     7
370
    15
100
AcDbEllipse
 10
239.9354412334
 20
24.36693117
 30
0.0
 11
0.3250094736511926
 21
1.213179526238669
 31
0.0
210
0.0
220
0.0
230
1.0
 40
0.5176380889
 41
3.619174351347776
 42
5.189970678142606
  0
SPLINE
  5
2A8
330
1F
100
AcDbEntity
  8
0
  6
Continuous
 62
     7
370
    15
100
AcDbSpline
210
0.0
220
0.0
230
1.0
 70
     8
 71
     3
 72
    14
 73
    10
 74
     0
 42
0.000000001
 43
0.00000001
 40
0.0
 40
0.0
 40
0.0
 40
0.0
 40
0.25
 40
0.25
 40
0.5
 40
0.5
 40
0.75
 40
0.75
 40
1.0
 40
1.0
 40
1.0
 40
1.0
 10
266.469298322419
 20
56.37125447101325
 30
0.0
 10
266.5010204331138
 20
56.38956725571814
 30
0.0
 10
266.5367512561216
 20
56.40520863954955
 30
0.0
 10
266.6147649248434
 20
56.43000709021552
 30
0.0
 10
266.6574583652506
 20
56.43919737706634
 30
0.0
 10
266.7454076599178
 20
56.44822482281036
 30
0.0
 10
266.791899899245
 20
56.44803083204228
 30
0.0
 10
266.8785391635541
 20
56.43531082566305
 30
0.0
 10
266.9191415459954
 20
56.42261570513872
 30
0.0
 10
266.950836922123
 20
56.40431835397039
 30
0.0
  0
LINE
  5
2A9
330
1F
100
AcDbEntity
  8
0
  6
Continuous
 62
     7
370
    15
100
AcDbLine
 10
266.9508372464
 20
56.4043187255
 30
0.0
 11
267.6105055606
 21
56.0235003137
 31
0.0
  0
LINE
  5
2AA
330
1F
100
AcDbEntity
  8
0
  6
Continuous
 62
     7
370
    15
100
AcDbLine
 10
269.2803725889
 20
53.9487040971
 30
0.0
 11
270.6748721947
 21
54.2544791105
 31
0.0
  0
LINE
  5
2AB
330
1F
100
AcDbEntity
  8
0
  6
Continuous
 62
     7
370
    15
100
AcDbLine
 10
270.6748721947
 20
54.2544791105
 30
0.0
 11
272.130394181
 21
53.4142241531
 31
0.0
  0
SPLINE
  5
2AC
330
1F
100
AcDbEntity
  8
0
  6
Continuous
 62
     7
370
    15
100
AcDbSpline
210
0.0
220
0.0
230
1.0
 70
     8
 71
     3
 72
    12
 73
     8
 74
     0
 42
0.000000001
 43
0.00000001
 40
0.0
 40
0.0
 40
0.0
 40
0.0
 40
0.250000000000004
 40
0.250000000000004
 40
0.500000000000008
 40
0.500000000000008
 40
1.0
 40
1.0
 40
1.0
 40
1.0
 10
272.1303940943146
 20
53.41422364441963
 30
0.0
 10
272.1620502248147
 20
53.39594894926969
 30
0.0
 10
272.1843495018248
 20
53.37212483847141
 30
0.0
 10
272.2061700724167
 20
53.32209293602371
 30
0.0
 10
272.206450834743
 20
53.29570172760982
 30
0.0
 10
272.1830834606221
 20
53.21962649761489
 30
0.0
 10
272.1360450578172
 20
53.17256344266448
 30
0.0
 10
272.0731195633168
 20
53.1362373279125
 30
0.0
  0
LINE
  5
2AD
330
1F
100
AcDbEntity
  8
0
  6
Continuous
 62
     7
370
    15
100
AcDbLine
 10
266.4692985538
 20
56.3712548481
 30
0.0
 11
266.3775079861
 21
56.3182652813
 31
0.0
  0
SPLINE
  5
2AE
330
1F
100
AcDbEntity
  8
0
  6
Continuous
 62
     7
370
    15
100
AcDbSpline
210
0.0
220
0.0
230
1.0
 70
     8
 71
     3
 72
    10
 73
     6
 74
     0
 42
0.000000001
 43
0.00000001
 40
0.0
 40
0.0
 40
0.0
 40
0.0
 40
0.4038214655940429
 40
0.8087053265669822
 40
1.0
 40
1.0
 40
1.0
 40
1.0
 10
275.0945537193238
 20
48.06029817520103
 30
0.0
 10
275.1127948312395
 20
48.09906214630989
 30
0.0
 10
275.1493250447759
 20
48.17669207088192
 30
0.0
 10
275.163263618333
 20
48.28408845459436
 30
0.0
 10
275.1452089227151
 20
48.33735995516506
 30
0.0
 10
275.1394157468411
 20
48.35445308032281
 30
0.0
  0
ARC
  5
2AF
330
1F
100
AcDbEntity
  8
0
  6
Continuous
 62
     7
370
    15
100
AcDbCircle
 10
264.9586719
 20
45.8728616408
 30
0.0
 40
10.40700480535369
100
AcDbArc
 50
18.7251026514
 51
46.4391523816
  0
LWPOLYLINE
  5
2B0
330
1F
100
AcDbEntity
  8
0
  6
Continuous
 62
     7
370
    15
100
AcDbPolyline
 90
        3
 70
   128
 43
0.0
 10
269.2803722596
 20
54.6296938835
 10
269.3188273076
 20
54.5822297861
 10
269.7017564511
 20
54.0721316215
  0
ARC
  5
2B1
330
1F
100
AcDbEntity
  8
0
  6
Continuous
 62
     7
370
    15
100
AcDbCircle
 10
251.8516525499
 20
47.6282739196
 30
0.0
 40
1.562487995952083
100
AcDbArc
 50
79.6969630873
 51
142.7113318612
  0
ARC
  5
2B2
330
1F
100
AcDbEntity
  8
0
  6
Continuous
 62
     7
370
    15
100
AcDbCircle
 10
251.817474858
 20
47.7173156514
 30
0.0
 40
1.463439891085847
100
AcDbArc
 50
78.2685922876
 51
144.4072601206
  0
ARC
  5
2B3
330
1F
100
AcDbEntity
  8
0
  6
Continuous
 62
     7
370
    15
100
AcDbCircle
 10
251.7890986488
 20
47.790944842
 30
0.0
 40
1.249547245185439
100
AcDbArc
 50
80.705870252
 51
142.2259793291
  0
LWPOLYLINE
  5
2B4
330
1F
100
AcDbEntity
  8
0
  6
Continuous
 62
     7
370
     0
100
AcDbPolyline
 90
        7
 70
   128
 43
0.0
 10
274.3051699178
 20
30.5751423987
 10
274.5324138711
 20
30.1576239667
 10
274.7837552851
 20
29.5184373307
 10
274.9207918118
 20
28.8885806874
 10
274.9349149573
 20
28.3076290722
 10
274.8252370037
 20
27.8120859754
 10
274.6100826104
 20
27.4460107003
  0
LWPOLYLINE
  5
2B5
330
1F
100
AcDbEntity
  8
0
  6
Continuous
 62
     7
370
     0
100
AcDbPolyline
 90
       13
 70
   128
 43
0.0
 10
274.0697563905
 20
30.4026313244
 10
274.2889766376
 20
29.9915638116
 10
274.5174138736
 20
29.3824420657
 10
274.6310997291
 20
28.787552642
 10
274.6222897207
 20
28.2474345203
 10
274.4915818067
 20
27.7988972974
 10
274.2478834603
 20
27.4725079973
 10
273.9078031738
 20
27.2905091038
 10
273.4945164457
 20
27.265303755
 10
273.0361892245
 20
27.3986088673
 10
272.5640549591
 20
27.6813406003
 10
272.1102875
 20
28.0942318433
 10
271.9598574952
 20
28.2666469851
  0
LWPOLYLINE
  5
2B6
330
1F
100
AcDbEntity
  8
0
  6
Continuous
 62
     7
370
     0
100
AcDbPolyline
 90
        9
 70
   128
 43
0.0
 10
248.6505323895
 20
26.2031814853
 10
248.7115412698
 20
24.8941110423
 10
248.8939014637
 20
23.6698234866
 10
249.1956129715
 20
22.5437311947
 10
249.6133712168
 20
21.5281725119
 10
250.1425986569
 20
20.63427401
 10
250.7774974658
 20
19.8718298545
 10
251.5111114378
 20
19.2491924819
 10
251.9131041277
 20
18.9921259091
  0
LWPOLYLINE
  5
2B7
330
1F
100
AcDbEntity
  8
0
  6
Continuous
 62
     7
370
     0
100
AcDbPolyline
 90
       24
 70
   128
 43
0.0
 10
267.661824617
 20
46.2726650295
 10
267.2395263658
 20
46.4916061797
 10
266.3335884181
 20
46.8157696721
 10
265.3559303637
 20
46.9845374013
 10
264.3172627705
 20
46.996059677
 10
263.2289656168
 20
46.8502109055
 10
262.102962674
 20
46.548588556
 10
260.9515907036
 20
46.0944984865
 10
259.7874643723
 20
45.4929134633
 10
258.6233380411
 20
44.7504268338
 10
257.4719660706
 20
43.8751711222
 10
256.3459631279
 20
42.8767381464
 10
255.2576659742
 20
41.76606577
 10
254.2189983809
 20
40.5553234173
 10
253.2413403265
 20
39.2577757253
 10
252.3354023789
 20
37.8876385426
 10
251.5111114378
 20
36.4599247567
 10
250.7774974658
 20
34.9902747211
 10
250.1425986569
 20
33.4947920041
 10
249.6133712168
 20
31.9898605061
 10
249.1956129715
 20
30.49196842
 10
248.8939014637
 20
29.017527436
 10
248.7115412698
 20
27.5826912821
 10
248.6505323895
 20
26.2031814853
  0
LWPOLYLINE
  5
2B8
330
1F
100
AcDbEntity
  8
0
  6
Continuous
 62
     7
370
     0
100
AcDbPolyline
 90
       48
 70
   128
 43
0.0
 10
275.3261355054
 20
31.4192490255
 10
274.4307784746
 20
30.8331576442
 10
273.5513990507
 20
30.1190978706
 10
272.7036899378
 20
29.2898141131
 10
271.9027784792
 20
28.3601031324
 10
271.1629567373
 20
27.3465566976
 10
270.4974270478
 20
26.2672610847
 10
269.9180659314
 20
25.1414763735
 10
269.4352118785
 20
23.9892926433
 10
269.0574812855
 20
22.8312701009
 10
268.7916150138
 20
21.6880740732
 10
268.6423578767
 20
20.5801049104
 10
268.6123723696
 20
19.5271340174
 10
268.7021945478
 20
18.547952097
 10
268.9102208553
 20
17.6600324555
 10
269.2327390768
 20
16.8792197329
 10
269.6639941919
 20
16.2194480507
 10
270.1962907786
 20
15.6924910471
 10
270.8201293325
 20
15.3077519767
 10
271.5243778171
 20
15.0720969627
 10
272.2964685692
 20
14.9897302627
 10
273.1226238497
 20
15.0621229544
 10
273.9881007405
 20
15.2879824458
 10
274.8774550145
 20
15.6632789487
 10
275.7748159962
 20
16.1813144168
 10
276.6641702703
 20
16.8328445021
 10
277.529647161
 20
17.6062433589
 10
278.3558024416
 20
18.4877092507
 10
279.1278931936
 20
19.4615129582
 10
279.8321416783
 20
20.5102759651
 10
280.4559802321
 20
21.6152836985
 10
280.9882768189
 20
22.7568172595
 10
281.4195319339
 20
23.914505499
 10
281.7420501554
 20
25.067689834
 10
281.950076463
 20
26.1957915378
 10
282.0398986411
 20
27.2786799377
 10
282.009913134
 20
28.2970303011
 10
281.8606559969
 20
29.2326708415
 10
281.5947897253
 20
30.0689042059
 10
281.2170591322
 20
30.7908082885
 10
280.7342050793
 20
31.3855005958
 10
280.154843963
 20
31.8423692004
 10
279.4893142734
 20
32.1532605896
 10
278.7494925315
 20
32.312627023
 10
277.948581073
 20
32.3176253167
 10
277.10087196
 20
32.1681649654
 10
276.2214925361
 20
31.8669148677
 10
275.3261355054
 20
31.4192490255
  0
LWPOLYLINE
  5
2B9
330
1F
100
AcDbEntity
  8
0
  6
Continuous
 62
     7
370
     0
100
AcDbPolyline
 90
       20
 70
   128
 43
0.0
 10
241.9933836666
 20
29.464674371
 10
242.4640427922
 20
31.3260346182
 10
243.0491767097
 20
33.2019526917
 10
243.744611564
 20
35.0790482583
 10
244.5453885148
 20
36.9439353552
 10
245.4457966642
 20
38.7833117407
 10
246.4394125691
 20
40.5840607933
 10
247.5191502906
 20
42.3333366781
 10
248.6773101263
 20
44.0186654845
 10
249.9056306353
 20
45.62802621
 10
251.1953518586
 20
47.1499420101
 10
252.5372759051
 20
48.5735562391
 10
253.9218308302
 20
49.8887179956
 10
255.3391424178
 20
51.0860463755
 10
256.7791021741
 20
52.1570001428
 10
258.2314404064
 20
53.0939442512
 10
259.6857986005
 20
53.8901931482
 10
261.1318041247
 20
54.5400706308
 10
262.5591441926
 20
55.0389403759
 10
263.4801397605
 20
55.2823526529
  0
LINE
  5
2BA
330
1F
100
AcDbEntity
  8
0
  6
Continuous
 62
     7
370
     0
100
AcDbLine
 10
242.3521093237
 20
29.1301635413
 30
0.0
 11
242.4560144762
 21
29.5982015907
 31
0.0
  0
LWPOLYLINE
  5
2BB
330
1F
100
AcDbEntity
  8
0
  6
Continuous
 62
     7
370
     0
100
AcDbPolyline
 90
       10
 70
   128
 43
0.0
 10
258.0860680028
 20
52.5088891766
 10
258.4834358168
 20
52.7502118328
 10
259.9358458099
 20
53.5410120653
 10
261.3794387563
 20
54.1838024503
 10
262.8036874517
 20
54.6738943672
 10
264.1982051674
 20
55.0077129992
 10
265.5528226593
 20
55.1828235378
 10
266.8576614303
 20
55.1979506631
 10
268.1032061709
 20
55.0529838601
 10
269.2803729182
 20
54.7489802641
  0
LWPOLYLINE
  5
2BC
330
1F
100
AcDbEntity
  8
0
  6
Continuous
 62
     7
370
     0
100
AcDbPolyline
 90
       18
 70
   128
 43
0.0
 10
259.9490806612
 20
14.353055034
 10
259.4245786072
 20
14.0160334458
 10
258.003559908
 20
13.1969272411
 10
256.5875859067
 20
12.517654622
 10
255.1865332891
 20
11.982953011
 10
253.8101739504
 20
11.5965548412
 10
252.4681089754
 20
11.361154007
 10
251.1696982573
 20
11.2783926102
 10
249.9239987587
 20
11.348846612
 10
248.7396999744
 20
11.5720265997
 10
247.6250620282
 20
11.946375511
 10
246.5878583794
 20
12.4692796658
 10
245.6353251151
 20
13.1370950075
 10
244.7741069493
 20
13.9451630774
 10
244.0102084909
 20
14.8878452402
 10
243.3489586821
 20
15.9585675546
 10
242.7949712857
 20
17.1498626026
 10
242.3521093237
 20
18.4534196833
  0
ARC
  5
2BD
330
1F
100
AcDbEntity
  8
0
  6
Continuous
 62
     7
370
     0
100
AcDbCircle
 10
264.9144143166
 20
45.4378268807
 30
0.0
 40
10.51249703684952
100
AcDbArc
 50
14.4456939373
 51
47.0804331381
  0
LWPOLYLINE
  5
2BE
330
1F
100
AcDbEntity
  8
0
  6
Continuous
 62
     7
370
     0
100
AcDbPolyline
 90
       29
 70
   128
 43
0.0
 10
246.5292123568
 20
26.2031818654
 10
246.5898247933
 20
27.6406185343
 10
246.7710601932
 20
29.1337512136
 10
247.0711167786
 20
30.6677402094
 10
247.4870126601
 20
32.2273402317
 10
248.0146154708
 20
33.797051153
 10
248.6486805624
 20
35.3612729494
 10
249.3829063223
 20
36.904459309
 10
250.2099960775
 20
38.4112731404
 10
251.1217298753
 20
39.866739419
 10
252.1090461435
 20
41.2563927098
 10
253.1621325687
 20
42.5664224062
 10
254.2705232325
 20
43.7838078942
 10
255.4232026608
 20
44.896453144
 10
256.6087144841
 20
45.8932950657
 10
257.8152768472
 20
46.7644324926
 10
259.0308984366
 20
47.5012030474
 10
260.2434977184
 20
48.0962854381
 10
261.4410235338
 20
48.5437675548
 10
262.6115742136
 20
48.839200024
 10
263.7435164046
 20
48.9796480753
 10
264.8255998616
 20
48.9637144631
 10
265.8470708822
 20
48.7915578024
 10
266.7977780026
 20
48.4648904676
 10
267.6682717677
 20
47.9869578602
 10
268.4499008784
 20
47.3625095025
 10
269.1348978022
 20
46.5977526413
 10
269.7164545059
 20
45.7002872211
 10
270.1192618153
 20
44.8540165853
  0
LWPOLYLINE
  5
2BF
330
1F
100
AcDbEntity
  8
0
  6
Continuous
 62
     7
370
     0
100
AcDbPolyline
 90
       14
 70
   128
 43
0.0
 10
254.3705416553
 20
17.5734768946
 10
254.2705232325
 20
17.5604831246
 10
253.1621325687
 20
17.4981479919
 10
252.1090461435
 20
17.5923099822
 10
251.1217298753
 20
17.8420321738
 10
250.2099960775
 20
18.2448330161
 10
249.3829063223
 20
18.7967093425
 10
248.6486805624
 20
19.4921766839
 10
248.0146154708
 20
20.3243225084
 10
247.4870126601
 20
21.2848761906
 10
247.0711167786
 20
22.3642930491
 10
246.7710601932
 20
23.5518440855
 10
246.5898247933
 20
24.8357268262
 10
246.5292123568
 20
26.2031818654
  0
LWPOLYLINE
  5
2C0
330
1F
100
AcDbEntity
  8
0
  6
Continuous
 62
     7
370
     0
100
AcDbPolyline
 90
       25
 70
   128
 43
0.0
 10
270.4729469728
 20
16.071774092
 10
270.9563624348
 20
15.8471007313
 10
271.6659694961
 20
15.6783328687
 10
272.4371723656
 20
15.6620895462
 10
273.2556052239
 20
15.798673445
 10
274.1060221896
 20
16.0855407739
 10
274.9725813983
 20
16.517347013
 10
275.839140607
 20
17.0860487399
 10
276.6895575726
 20
17.7810519398
 10
277.507990431
 20
18.5894105056
 10
278.2791933004
 20
19.4960657082
 10
278.9888003617
 20
20.4841284446
 10
279.6235931449
 20
21.5351936161
 10
280.171745837
 20
22.6296806031
 10
280.6230480347
 20
23.7472021634
 10
280.9690934173
 20
24.8669408438
 10
281.2034345049
 20
25.9680376571
 10
281.3217064643
 20
27.0299814277
 10
281.3217064643
 20
28.0329903458
 10
281.2034345049
 20
28.9583802186
 10
280.9690934173
 20
29.7889125714
 10
280.6230480347
 20
30.5091157574
 10
280.171745837
 20
31.1055748914
 10
279.6235931449
 20
31.5671782514
 10
279.5574110682
 20
31.6095728531
  0
LWPOLYLINE
  5
2C1
330
1F
100
AcDbEntity
  8
0
  6
Continuous
 62
     7
370
     0
100
AcDbPolyline
 90
       20
 70
   128
 43
0.0
 10
236.813826732
 20
32.4547689434
 10
237.2844858577
 20
34.3161291905
 10
237.8696197752
 20
36.1920472641
 10
238.5650546294
 20
38.0691428307
 10
239.3658315802
 20
39.9340299276
 10
240.2662397296
 20
41.7734063131
 10
241.2598556345
 20
43.5741553657
 10
242.339593356
 20
45.3234312505
 10
243.4977531917
 20
47.0087600569
 10
244.7260737007
 20
48.6181207824
 10
246.015794924
 20
50.1400365825
 10
247.3577189705
 20
51.5636508115
 10
248.7422738957
 20
52.878812568
 10
250.1595854832
 20
54.0761409479
 10
251.5995452396
 20
55.1470947152
 10
253.0518834718
 20
56.0840388236
 10
254.5062416659
 20
56.8802877206
 10
255.9522471901
 20
57.5301652032
 10
257.379587258
 20
58.0290349483
 10
258.3006486803
 20
58.2724624284
  0
LWPOLYLINE
  5
2C2
330
1F
100
AcDbEntity
  8
0
  6
Continuous
 62
     7
370
     0
100
AcDbPolyline
 90
       20
 70
   128
 43
0.0
 10
240.0917945822
 20
31.4315430112
 10
240.5446730062
 20
33.2208195086
 10
241.1107486456
 20
35.0242505267
 10
241.7857422783
 20
36.828207451
 10
242.5645528185
 20
38.619057942
 10
243.4412955125
 20
40.3832678332
 10
244.4093454025
 20
42.1075060713
 10
245.4613860591
 20
43.7787420509
 10
246.5894668744
 20
45.3843471304
 10
247.7850636482
 20
46.912185122
 10
249.03914115
 20
48.3507130467
 10
250.3422216072
 20
49.6890571746
 10
251.6844581331
 20
50.917105604
 10
253.0557073311
 20
52.0255760309
 10
254.4456065096
 20
53.0060953055
 10
255.8436522129
 20
53.8512493298
 10
257.2392792469
 20
54.554653013
 10
258.6219410212
 20
55.1109920892
 10
259.9811887395
 20
55.5160597077
 10
260.1076711026
 20
55.5463064678
  0
LINE
  5
2C3
330
1F
100
AcDbEntity
  8
0
  6
Continuous
 62
     7
370
     0
100
AcDbLine
 10
251.3123208878
 20
49.4141897591
 30
0.0
 11
251.6718852013
 21
49.7520640936
 31
0.0
  0
LWPOLYLINE
  5
2C4
330
1F
100
AcDbEntity
  8
0
  6
Continuous
 62
     7
370
     0
100
AcDbPolyline
 90
       22
 70
   128
 43
0.0
 10
239.5143267813
 20
31.4247413959
 10
239.9657998713
 20
33.2352083237
 10
240.5315725803
 20
35.0608045821
 10
241.2074144183
 20
36.8878703732
 10
241.9882651294
 20
38.7027338094
 10
242.8682847408
 20
40.491814332
 10
243.8408851734
 20
42.241723089
 10
244.8987901688
 20
43.9393682538
 10
246.034082705
 20
45.5720447553
 10
247.2382688749
 20
47.1275365541
 10
248.5023364969
 20
48.5942029498
 10
249.8168272255
 20
49.9610688788
 10
251.1719047107
 20
51.2179068481
 10
252.5574290134
 20
52.3553133547
 10
253.9630326674
 20
53.3647740882
 10
255.3781974616
 20
54.2387386746
 10
256.792333815
 20
54.970664978
 10
258.1948600906
 20
55.5550770544
 10
259.5752810026
 20
55.9876012901
 10
260.9232669512
 20
56.265001554
 10
262.2287319981
 20
56.3852029189
 10
263.3537900941
 20
56.3586533948
  0
LWPOLYLINE
  5
2C5
330
1F
100
AcDbEntity
  8
0
  6
Continuous
 62
     7
370
     0
100
AcDbPolyline
 90
        3
 70
   128
 43
0.0
 10
240.5634506619
 20
29.3522380451
 10
240.5629989004
 20
29.4739169623
 10
240.5752636333
 20
30.1163603753
  0
LWPOLYLINE
  5
2C6
330
1F
100
AcDbEntity
  8
0
  6
Continuous
 62
     7
370
     0
100
AcDbPolyline
 90
       19
 70
   128
 43
0.0
 10
209.47804493
 20
53.3652234617
 10
209.5371374457
 20
54.4621920063
 10
209.71344364
 20
55.6093745141
 10
210.0040692095
 20
56.7879346861
 10
210.4042423409
 20
57.9785208052
 10
210.9073920769
 20
59.1615831279
 10
211.505255989
 20
60.3176954543
 10
212.1880178128
 20
61.4278752703
 10
212.9444664864
 20
62.4738930511
 10
213.7621812019
 20
63.4385730065
 10
214.6277350601
 20
64.3060749088
 10
215.5269156826
 20
65.0621552909
 10
216.4449585221
 20
65.6943994723
 10
217.3667893507
 20
66.1924246635
 10
218.2772716671
 20
66.54805397
 10
219.1614555847
 20
66.7554479048
 10
220.0048225845
 20
66.8112015743
 10
220.7935247925
 20
66.7143991596
 10
221.2126719082
 20
66.5918078127
  0
ARC
  5
2C7
330
1F
100
AcDbEntity
  8
0
  6
Continuous
 62
     7
370
     0
100
AcDbCircle
 10
214.9262720557
 20
52.9357383867
 30
0.0
 40
5.465129114992093
100
AcDbArc
 50
175.4926807576
 51
224.2724975694
  0
LINE
  5
2C8
330
1F
100
AcDbEntity
  8
0
  6
Continuous
 62
     7
370
     0
100
AcDbLine
 10
246.2463688077
 20
30.4696337443
 30
0.0
 11
245.5391473239
 21
30.8779040166
 31
0.0
  0
LINE
  5
2C9
330
1F
100
AcDbEntity
  8
0
  6
Continuous
 62
     7
370
     0
100
AcDbLine
 10
240.703207636
 20
24.8101646065
 30
0.0
 11
246.2463688077
 21
21.6101657759
 31
0.0
  0
LINE
  5
2CA
330
1F
100
AcDbEntity
  8
0
  6
Continuous
 62
     7
370
     0
100
AcDbLine
 10
240.642547455
 20
24.7751348455
 30
0.0
 11
240.703207636
 21
24.8101646065
 31
0.0
  0
LINE
  5
2CB
330
1F
100
AcDbEntity
  8
0
  6
Continuous
 62
     7
370
     0
100
AcDbLine
 10
242.1136167716
 20
17.8136305248
 30
0.0
 11
241.9933836666
 21
18.1945785816
 31
0.0
  0
LINE
  5
2CC
330
1F
100
AcDbEntity
  8
0
  6
Continuous
 62
     7
370
     0
100
AcDbLine
 10
245.5392619106
 20
20.3854210876
 30
0.0
 11
240.2889939241
 21
23.4163362814
 31
0.0
  0
LINE
  5
2CD
330
1F
100
AcDbEntity
  8
0
  6
Continuous
 62
     7
370
     0
100
AcDbLine
 10
240.9537315493
 20
20.2371011805
 30
0.0
 11
240.8766831589
 21
20.4858873811
 31
0.0
  0
LWPOLYLINE
  5
2CE
330
1F
100
AcDbEntity
  8
0
  6
Continuous
 62
     7
370
     0
100
AcDbPolyline
 90
        3
 70
   128
 43
0.0
 10
240.5546222966
 20
19.6490799434
 10
240.5542337553
 20
19.6499955772
 10
240.0917945822
 20
20.9389939118
  0
ARC
  5
2CF
330
1F
100
AcDbEntity
  8
0
  6
Continuous
 62
     7
370
     0
100
AcDbCircle
 10
250.2767871496
 20
23.9510667777
 30
0.0
 40
11.17784220286693
100
AcDbArc
 50
195.6688296447
 51
214.1331604714
  0
LINE
  5
2D0
330
1F
100
AcDbEntity
  8
0
  6
Continuous
 62
     7
370
     0
100
AcDbLine
 10
236.9155073211
 20
20.8600976708
 30
0.0
 11
236.813826732
 21
21.184673154
 31
0.0
  0
OLE2FRAME
  5
2D1
330
1F
100
AcDbEntity
  8
0
100
AcDbOle2Frame
 70
     2
  3
Paintbrush-Bild
 10
13.8511154363
 20
38.264191557
 30
0.0
 11
51.6290888628
 21
31.9806341108
 31
0.0
 71
     2
 72
     0
 73
     1
 90
    12928
310
80552BED0767C5B32B40DDAF6807D121434000000000000000006FFBDDFB85D0
310
4940DDAF6807D121434000000000000000006FFBDDFB85D04940416F4BD60AFB
310
3F4000000000000000002BED0767C5B32B40416F4BD60AFB3F40000000000000
310
0000000000000100000000010000010000000100000000000100000000320000
310
D0CF11E0A1B11AE1000000000000000000000000000000003E000300FEFF0900
310
0600000000000000000000000100000001000000000000000010000002000000
310
01000000FEFFFFFF0000000000000000FFFFFFFFFFFFFFFFFFFFFFFFFFFFFFFF
310
FFFFFFFFFFFFFFFFFFFFFFFFFFFFFFFFFFFFFFFFFFFFFFFFFFFFFFFFFFFFFFFF
310
FFFFFFFFFFFFFFFFFFFFFFFFFFFFFFFFFFFFFFFFFFFFFFFFFFFFFFFFFFFFFFFF
310
FFFFFFFFFFFFFFFFFFFFFFFFFFFFFFFFFFFFFFFFFFFFFFFFFFFFFFFFFFFFFFFF
310
FFFFFFFFFFFFFFFFFFFFFFFFFFFFFFFFFFFFFFFFFFFFFFFFFFFFFFFFFFFFFFFF
310
FFFFFFFFFFFFFFFFFFFFFFFFFFFFFFFFFFFFFFFFFFFFFFFFFFFFFFFFFFFFFFFF
310
FFFFFFFFFFFFFFFFFFFFFFFFFFFFFFFFFFFFFFFFFFFFFFFFFFFFFFFFFFFFFFFF
310
FFFFFFFFFFFFFFFFFFFFFFFFFFFFFFFFFFFFFFFFFFFFFFFFFFFFFFFFFFFFFFFF
310
FFFFFFFFFFFFFFFFFFFFFFFFFFFFFFFFFFFFFFFFFFFFFFFFFFFFFFFFFFFFFFFF
310
FFFFFFFFFFFFFFFFFFFFFFFFFFFFFFFFFFFFFFFFFFFFFFFFFFFFFFFFFFFFFFFF
310
FFFFFFFFFFFFFFFFFFFFFFFFFFFFFFFFFFFFFFFFFFFFFFFFFFFFFFFFFFFFFFFF
310
FFFFFFFFFFFFFFFFFFFFFFFFFFFFFFFFFFFFFFFFFFFFFFFFFFFFFFFFFFFFFFFF
310
FFFFFFFFFFFFFFFFFFFFFFFFFFFFFFFFFFFFFFFFFFFFFFFFFFFFFFFFFFFFFFFF
310
FFFFFFFFFFFFFFFFFFFFFFFFFFFFFFFFFFFFFFFFFFFFFFFFFFFFFFFFFFFFFFFF
310
FDFFFFFFFEFFFFFFFEFFFFFFFEFFFFFF05000000060000000700000008000000
310
090000000A0000000B0000000C0000000D0000000E0000000F00000010000000
310
11000000120000001300000014000000150000001600000017000000FEFFFFFF
310
FFFFFFFFFFFFFFFFFFFFFFFFFFFFFFFFFFFFFFFFFFFFFFFFFFFFFFFFFFFFFFFF
310
FFFFFFFFFFFFFFFFFFFFFFFFFFFFFFFFFFFFFFFFFFFFFFFFFFFFFFFFFFFFFFFF
310
FFFFFFFFFFFFFFFFFFFFFFFFFFFFFFFFFFFFFFFFFFFFFFFFFFFFFFFFFFFFFFFF
310
FFFFFFFFFFFFFFFFFFFFFFFFFFFFFFFFFFFFFFFFFFFFFFFFFFFFFFFFFFFFFFFF
310
FFFFFFFFFFFFFFFFFFFFFFFFFFFFFFFFFFFFFFFFFFFFFFFFFFFFFFFFFFFFFFFF
310
FFFFFFFFFFFFFFFFFFFFFFFFFFFFFFFFFFFFFFFFFFFFFFFFFFFFFFFFFFFFFFFF
310
FFFFFFFFFFFFFFFFFFFFFFFFFFFFFFFFFFFFFFFFFFFFFFFFFFFFFFFFFFFFFFFF
310
FFFFFFFFFFFFFFFFFFFFFFFFFFFFFFFFFFFFFFFFFFFFFFFFFFFFFFFFFFFFFFFF
310
FFFFFFFFFFFFFFFFFFFFFFFFFFFFFFFFFFFFFFFFFFFFFFFFFFFFFFFFFFFFFFFF
310
FFFFFFFFFFFFFFFFFFFFFFFFFFFFFFFFFFFFFFFFFFFFFFFFFFFFFFFFFFFFFFFF
310
FFFFFFFFFFFFFFFFFFFFFFFFFFFFFFFFFFFFFFFFFFFFFFFFFFFFFFFFFFFFFFFF
310
FFFFFFFFFFFFFFFFFFFFFFFFFFFFFFFFFFFFFFFFFFFFFFFFFFFFFFFFFFFFFFFF
310
FFFFFFFFFFFFFFFFFFFFFFFFFFFFFFFFFFFFFFFFFFFFFFFFFFFFFFFFFFFFFFFF
310
52006F006F007400200045006E00740072007900000000000000000000000000
310
0000000000000000000000000000000000000000000000000000000000000000
310
16000500FFFFFFFFFFFFFFFF020000000A00030000000000C000000000000046
310
00000000000000000000000030D568A49024D20103000000C000000000000000
310
01004F006C006500000000000000000000000000000000000000000000000000
310
0000000000000000000000000000000000000000000000000000000000000000
310
0A000200FFFFFFFFFFFFFFFFFFFFFFFF00000000000000000000000000000000
310
0000000000000000000000000000000000000000000000001400000000000000
310
010043006F006D0070004F0062006A0000000000000000000000000000000000
310
0000000000000000000000000000000000000000000000000000000000000000
310
120002010100000003000000FFFFFFFF00000000000000000000000000000000
310
0000000000000000000000000000000000000000010000004D00000000000000
310
01004F006C006500310030004E00610074006900760065000000000000000000
310
0000000000000000000000000000000000000000000000000000000000000000
310
1A000200FFFFFFFFFFFFFFFFFFFFFFFF00000000000000000000000000000000
310
0000000000000000000000000000000000000000040000002426000000000000
310
FEFFFFFF02000000FEFFFFFFFFFFFFFFFFFFFFFFFFFFFFFFFFFFFFFFFFFFFFFF
310
FFFFFFFFFFFFFFFFFFFFFFFFFFFFFFFFFFFFFFFFFFFFFFFFFFFFFFFFFFFFFFFF
310
FFFFFFFFFFFFFFFFFFFFFFFFFFFFFFFFFFFFFFFFFFFFFFFFFFFFFFFFFFFFFFFF
310
FFFFFFFFFFFFFFFFFFFFFFFFFFFFFFFFFFFFFFFFFFFFFFFFFFFFFFFFFFFFFFFF
310
FFFFFFFFFFFFFFFFFFFFFFFFFFFFFFFFFFFFFFFFFFFFFFFFFFFFFFFFFFFFFFFF
310
FFFFFFFFFFFFFFFFFFFFFFFFFFFFFFFFFFFFFFFFFFFFFFFFFFFFFFFFFFFFFFFF
310
FFFFFFFFFFFFFFFFFFFFFFFFFFFFFFFFFFFFFFFFFFFFFFFFFFFFFFFFFFFFFFFF
310
FFFFFFFFFFFFFFFFFFFFFFFFFFFFFFFFFFFFFFFFFFFFFFFFFFFFFFFFFFFFFFFF
310
FFFFFFFFFFFFFFFFFFFFFFFFFFFFFFFFFFFFFFFFFFFFFFFFFFFFFFFFFFFFFFFF
310
FFFFFFFFFFFFFFFFFFFFFFFFFFFFFFFFFFFFFFFFFFFFFFFFFFFFFFFFFFFFFFFF
310
FFFFFFFFFFFFFFFFFFFFFFFFFFFFFFFFFFFFFFFFFFFFFFFFFFFFFFFFFFFFFFFF
310
FFFFFFFFFFFFFFFFFFFFFFFFFFFFFFFFFFFFFFFFFFFFFFFFFFFFFFFFFFFFFFFF
310
FFFFFFFFFFFFFFFFFFFFFFFFFFFFFFFFFFFFFFFFFFFFFFFFFFFFFFFFFFFFFFFF
310
FFFFFFFFFFFFFFFFFFFFFFFFFFFFFFFFFFFFFFFFFFFFFFFFFFFFFFFFFFFFFFFF
310
FFFFFFFFFFFFFFFFFFFFFFFFFFFFFFFFFFFFFFFFFFFFFFFFFFFFFFFFFFFFFFFF
310
FFFFFFFFFFFFFFFFFFFFFFFFFFFFFFFFFFFFFFFFFFFFFFFFFFFFFFFFFFFFFFFF
310
0100000200000000000000000000000000000000000000000000000000000000
310
0000000000000000000000000000000000000000000000000000000000000000
310
0100FEFF030A0000FFFFFFFF0A00030000000000C00000000000004607000000
310
5042727573680007000000504272757368000700000050427275736800F439B2
310
7100000000000000000000000000000000000000000000000000000000000000
310
0000000000000000000000000000000000000000000000000000000000000000
310
0000000000000000000000000000000000000000000000000000000000000000
310
0000000000000000000000000000000000000000000000000000000000000000
310
0000000000000000000000000000000000000000000000000000000000000000
310
0000000000000000000000000000000000000000000000000000000000000000
310
0000000000000000000000000000000000000000000000000000000000000000
310
0000000000000000000000000000000000000000000000000000000000000000
310
0000000000000000000000000000000000000000000000000000000000000000
310
0000000000000000000000000000000000000000000000000000000000000000
310
0000000000000000000000000000000000000000000000000000000000000000
310
0000000000000000000000000000000000000000000000000000000000000000
310
20260000424D0E260000000000003E00000028000000B40200006E0000000100
310
01000000000000000000130B0000130B00000200000002000000000000FFFFFF
310
FFFFFFFFFFFFFFFFFFFFFFFFFFFFFFFFFFFFFFFFFFFFFFFFFFFFFFFFFFFFFFFF
310
FFFFFFFFFFFFFFFFFFFFFFFFFFFFFFFFFFFFFFFFFFFFFFFFFFFFFFFFFFFFFFFF
310
FFFFFFFFFFFFFFFFFFFFFFFFFFFFFFFFFFFFFFFFFFFFFFFFF000FFFFFFFFFFFF
310
FFFFFFFFFFFFFFFFFFFFFFFFFFFFFFFFFFFFFFFFFFFFFFFFFFFFFFFFFFFFFFFF
310
FFFFFFFFFFFFFFFFFFFFFFFFFFFFFFFFFFFFFFFFFFFFFFFFFFFFFFFFFFFFFFFF
310
FFFFFFFFFFFFFFFFFFFFFFFFFFFFFFFFF000FFFFFFFFFFFFFFFFFFFFFFFFFFFF
310
FFFFFFFFFFFFFFFFFFFFFFFFFFFFFFFFFFFFFFFFFFFFFFFFFFFFFFFFFFFFFFFF
310
FFFFFFFFFFFFFFFFFFFFFFFFFFFFFFFFFFFFFFFFFFFFFFFFFFFFFFFFFFFFFFFF
310
FFFFFFFFFFFFFFFFF000FFFFFFFFFFFFFFFFFFFFFFFFFFFFFFFFFFFFFFFFFFFF
310
FFFFFFFFFFFFFFFFFFFFFFFFFFFFFFFFFFFFFFFFFFFFFFFFFFFFFFFFFFFFFFFF
310
FFFFFFFFFFFFFFFFFFFFFFFFFFFFFFFFFFFFFFFFFFFFFFFFFFFFFFFFFFFFFFFF
310
F000FFFFFFFFFFFFFFFFFFFFFFFFFFFFFFFFFFFFFFFFFFFFFFFFFFFFFFFFFFFF
310
FFFFFFFFFFFFFFFFFFFFFFFFFFFFFFFFFFFFFFFFFFFFFFFFFFFFFFFFFFFFFFFF
310
FFFFFFFFFFFFFFFFFFFFFFFFFFFFFFFFFFFFFFFFFFFFFFFFF000FFFFFFFFFFFF
310
FFFFFFFFFFFFFFFFFFFFFFFFFFFFFFFFFFFFFFFFFFFFFFFFFFFFFFFFFFFFFFFF
310
FFFFFFFFFFFFFFFFFFFFFFFFFFFFFFFFFFFFFFFFFFFFFFFFFFFFFFFFFFFFFFFF
310
FFFFFFFFFFFFFFFFFFFFFFFFFFFFFFFFF000FFFFFFFFFFFFFFFFFFFFFFFFFFFF
310
FFFFFFFFFFFFFFFFFFFFFFFFFFFFFFFFFFFFFFFFFFFFFFFFFFFFFFFFFFFFFFFF
310
FFFFFFFFFFFFFFFFFFFFFFFFFFFFFFFFFFFFFFFFFFFFFFFFFFFFFFFFFFFFFFFF
310
FFFFFFFFFFFFFFFFF000FFFFFFFFFFFFFFFFFFFFFFFFFFFFFFFFFFFFFFFFFFFF
310
FFFFFFFFFFFFFFFFFFFFFFFFFFFFFFFFFFFFFFFFFFFFFFFFFFFFFFFFFFFFFFFF
310
FFFFFFFFFFFFFFFFFFFFFFFFFFFFFFFFFFFFFFFFFFFFFFFFFFFFFFFFFFFFFFFF
310
F000FFFFFFFFFFFFFFFFFFFFFFFFFFFFFFFFFFFFFFFFFFFFFFFFFFFFFFFFFFFF
310
FFFFFFFFFFFFFFFFFFFFFFFFFFFFFFFFFFFFFFFFFFFFFFFFFFFFFFFFFFFFFFFF
310
FFFFFFFFFFFFFFFFFFFFFFFFFFFFFFFFFFFFFFFFFFFFFFFFF000FFFFFFFFFFFF
310
FFFFFFFFFFFFFFFFFFFFFFFFFFFFFFFFFFFFFFFFFFFFFFFFFFFFFFFFFFFFFFFF
310
FFFFFFFFFFFFFFFFFFFFFFFFFFFFFFFFFFFFFFFFFFFFFFFFFFFFFFFFFFFFFFFF
310
FFFFFFFFFFFFFFFFFFFFFFFFFFFFFFFFF000FFFFFFFFFFFFFFFFFFFFFFFFFFFF
310
FFFFFFFFFFFFFFFFFFFFFFFFFFFFFFFFFFFFFFFFFFFFFFFFFFFFFFFFFFFFFFFF
310
FFFFFFFFFFFFFFFFFFFFFFFFFFFFFFFFFFFFFFFFFFFFFFFFFFFFFFFFFFFFFFFF
310
FFFFFFFFFFFFFFFFF000FFFFFFFFFFFFFFFFFFFFFFFFFFFFFFFFFFFFFFFFFFFF
310
FFFFFFFFFFFFFFFFFFFFFFFFFFFFFFFFFFFFFFFFFFFFFFFFFFFFFFFFFFFFFFFF
310
FFFFFFFFFFFFFFFFFFFFFFFFFFFFFFFFFFFFFFFFFFFFFFFFFFFFFFFFFFFFFFFF
310
F000FFFFFFFFFFFFFFFFFFFFFFFFFFFFFFFFFFFFFFFFFFFFFFFFFFFFFFFFFFFF
310
FFFFFFFFFFFFFFFFFFFFFFFFFFFFFFFFFFFFFFFFFFFFFFFFFFFFFFFFFFFFFFFF
310
FFFFFFFFFFFFFFFFFFFFFFFFFFFFFFFFFFFFFFFFFFFFFFFFF000FFFFFFFFFFFF
310
FFFFFFFFFFFFFFFFFFFFFFFFFFFFFFFFFFFFFFFFFFFFFFFFFFFFFFFFFFFFFFFF
310
FFFFFFFFFFFFFFFFFFFFFFFFFFFFFFFFFFFFFFFFFFFFFFFFFFFFFFFFFFFFFFFF
310
FFFFFFFFFFFFFFFFFFFFFFFFFFFFFFFFF000FFFFFFFFFFFFFFFFFFFFFFFFFFFF
310
FFFFFFFFFFFFFFFFFFFFFFFFFFFFFFFFFFFFFFFFFFFFFFFFFFFFFFFFFFFFFFFF
310
FFFFFFFFFFFFFFFFFFFFFFFFFFFFFFFFFFFFFFFFFFFFFFFFFFFFFFFFFFFFFFFF
310
FFFFFFFFFFFFFFFFF000FFFFFFFFFFFFFFFFFFFFFFFFFFFFFFFFFFFFFFFFFFFF
310
FFFFFFFFFFFFFFFFFFFFFFFFFFFFFFFFFFFFFFFFFFFFFFFFFFFFFFFFFFFFFFFF
310
FFFFFFFFFFFFFFFFFFFFFFFFFFFFFFFFFFFFFFFFFFFFFFFFFFFFFFFFFFFFFFFF
310
F000FFFFFFFFFFFFFFFFFFFFFFFFFFFFFFFFFFFFFFFFFFFFFFFFFFFFFFFFFFFF
310
FFFFFFFFFFFFFFFFFFFFFFFFFFFFFFFFFFFFFFFFFFFFFFFFFFFFFFFFFFFFFFFF
310
FFFFFFFFFFFFFFFFFFFFFFFFFFFFFFFFFFFFFFFFFFFFFFFFF000FFFFFFFFFFFF
310
FFFFFFFFFFFFFFFFFFFFFFFFFFFFFFFFFFFFFFFFFFFFFFFFFFFFFFFFFFFFFFFF
310
FFFFFFFFFFFFFFFFFFFFFFFFFFFFFFFFFFFFFFFFFFFFFFFFFFFFFFFFFFFFFFFF
310
FFFFFFFFFFFFFFFFFFFFFFFFFFFFFFFFF000FFFFFFFFFFFFFFFFFFFFFFFFFFFF
310
FFFFFFFFFFFFFFFFFFFFFFFFFFFFFFFFFFFFFFFFFFFFFFFFFFFFFFFFFFFFFFFF
310
FFFFFFFFFFFFFFFFFFFFFFFFFFFFFFFFFFFFFFFFFFFFFFFFFFFFFFFFFFFFFFFF
310
FFFFFFFFFFFFFFFFF000FFFFF80003FFFFFFFFFFFFFFFFFFFFFFFFFFFFFFFFFF
310
FFFFF00007FFFFFFFFFF00007FFFFFF800000000000000007FFFFFFFFFFFFFFF
310
FFFFFFFC001FFFFFFFFFFFFFFC001FFFFFFFFFFFFFFFFFFFFFFFFFFE0007FFFF
310
F000FFFF8000007FFFFFFFF8000FFFFFC0007FFFFF80007FFFFF0000007FFFFF
310
FFF8000007FFFFF800000000000000007FFFFFF0001FFFFFFFFFFFC00001FFFF
310
FFFFFFFFC00001FFFFFFFF000000000003FFFFE000007FFFF000FFFE0000000F
310
FFFFFFF0000FFFFF80007FFFFF80007FFFFC0000001FFFFFFFC0000001FFFFF8
310
00000000000000007FFFFFF0001FFFFFFFFFFE0000003FFFFFFFFFFE0000003F
310
FFFFFF000000000003FFFF0000000FFFF000FFF800000003FFFFFFF00007FFFF
310
80007FFFFF80007FFFF000000007FFFFFF000000003FFFF80000000000000000
310
7FFFFFF0001FFFFFFFFFF80000000FFFFFFFFFF80000000FFFFFFF0000000000
310
03FFFC00000003FFF000FFE000000000FFFFFFF00007FFFF80003FFFFF80007F
310
FFC000000001FFFFFC000000001FFFF800000000000000007FFFFFF0001FFFFF
310
FFFFE000000003FFFFFFFFE000000003FFFFFF000000000003FFF000000000FF
310
F000FF80000000007FFFFFF00007FFFF80003FFFFF80007FFF8000000000FFFF
310
F80000000007FFF800000000000000007FFFFFF0001FFFFFFFFFC000000001FF
310
FFFFFFC000000001FFFFFF000000000003FFC0000000007FF000FF0000000000
310
3FFFFFE00007FFFF00003FFFFF80007FFE00000000003FFFF00000000003FFF8
310
00000000000000007FFFFFF0001FFFFFFFFF8000000000FFFFFFFF8000000000
310
FFFFFF000000000003FF80000000003FF000FE00000000001FFFFFE00003FFFF
310
00003FFFFF80007FFC00000000001FFFE00000000001FFF8000001FFFE000000
310
7FFFFFF0001FFFFFFFFE00000000003FFFFFFE00000000003FFFFF0000000000
310
03FF00000000001FF000FC00000000000FFFFFE00003FFFF00001FFFFF80007F
310
F800000000001FFFC00000000000FFF8000001FFFE0000007FFFFFF0001FFFFF
310
FFFC00000000001FFFFFFC00000000001FFFFF000000000003FE00000000000F
310
F000F8000000000007FFFFE00003FFFF00001FFFFF80007FF800000000000FFF
310
800000000000FFF8000001FFFE0000007FFFFFF0001FFFFFFFF800000000000F
310
FFFFF800000000000FFFFF000000000003FC000000000007F000F80000000000
310
03FFFFC00003FFFE00001FFFFF80007FF0000000000007FF0000000000007FF8
310
000001FFFE0000007FFFFFF0001FFFFFFFF0000000000007FFFFF00000000000
310
07FFFF000000000003F8000000000003F000F0000000000003FFFFC00001FFFE
310
00001FFFFF80007FE0000000000007FE0000000000003FF8000001FFFE000000
310
7FFFFFF0001FFFFFFFF0000000000007FFFFF0000000000007FFFF0000000000
310
03F800001F800003F000E00001FFF00001FFFFC00001FFFE00000FFFFF80007F
310
E00001FFE00003FE00001FFF00003FF8000001FFFE0000007FFFFFF0001FFFFF
310
FFE000003E000003FFFFE000003E000003FFFF000000000003F00001FFF80001
310
F000E00007FFFC0001FFFFC00001FFFE00000FFFFF80007FC0000FFFFC0003FC
310
0000FFFFC0001FF8000001FFFE0000007FFFFFF0001FFFFFFFC00003FFE00001
310
FFFFC00003FFE00001FFFF0001FFFFFFFFF00007FFFE0001F000E0000FFFFF00
310
00FFFF800001FFFC00000FFFFF80007FC0001FFFFE0001FC0001FFFFE0001FF8
310
000001FFFE0000007FFFFFF0001FFFFFFF80000FFFF80000FFFF80000FFFF800
310
00FFFF0003FFFFFFFFE0000FFFFF8000F000C0003FFFFF8000FFFF800000FFFC
310
000007FFFF80007F80003FFFFF0001FC0003FFFFF0001FF8000001FFFE000000
310
7FFFFFF0001FFFFFFF80003FFFFE0000FFFF80003FFFFE0000FFFF0003FFFFFF
310
FFE0003FFFFF8000F000C0003FFFFF8000FFFF800000FFFC000007FFFF80007F
310
80007FFFFF8001F80007FFFFF8000FF8000001FFFE0000007FFFFFF0001FFFFF
310
FF00007FFFFF00007FFF00007FFFFF00007FFF0003FFFFFFFFE0003FFFFFC000
310
F000C0007FFFFFC000FFFF000000FFFC000007FFFF80007F8000FFFFFF8000F8
310
000FFFFFF8000FF8000001FFFE0000007FFFFFF0001FFFFFFF0000FFFFFF8000
310
7FFF0000FFFFFF80007FFF0003FFFFFFFFC0007FFFFFC00070008000FFFFFFC0
310
00FFFF000000FFF8000007FFFF80007F8000FFFFFF8000F8000FFFFFF8000FF8
310
000001FFFE0000007FFFFFF0001FFFFFFE0001FFFFFFC0003FFE0001FFFFFFC0
310
003FFF0003FFFFFFFFC0007FFFFFE00070008000FFFFFFC0007FFF0000007FF8
310
000003FFFF80007F0001FFFFFF8000F8000FFFFFF8000FF8000001FFFE000000
310
7FFFFFF0001FFFFFFE0001FFFFFFC0003FFE0001FFFFFFC0003FFF0003FFFFFF
310
FFC000FFFFFFE00070008000FFFFFFC0007FFF0000007FF8000003FFFF80007F
310
0001FFFFFF8000F8001FFFFFF8000FF8000001FFFE0000007FFFFFF0001FFFFF
310
FE0003FFFFFFE0003FFE0003FFFFFFE0003FFF0003FFFFFFFFC000FFFFFFE000
310
70008000FFFFFFC0007FFE0000007FF8000003FFFF80007F0001FFFFFF8000F0
310
001FFFFFF8000FF8000001FFFE0000007FFFFFF0001FFFFFFC0003FFFFFFE000
310
1FFC0003FFFFFFE0001FFF0003FFFFFFFFC000FFFFFFC00070008000FFFFFF80
310
007FFE0000007FF0000003FFFF80007F0001FFFFFF0000F0001FFFFFF8000FF8
310
000001FFFE0000007FFFFFF0001FFFFFFC0007FFFFFFF0001FFC0007FFFFFFF0
310
001FFF0003FFFFFFFFC000FFFFFFC00070008001FFFFFF0000FFFE0000003FF0
310
000001FFFF80007F0001FFFFFF0000F8001FFFFFF0000FF8000001FFFE000000
310
7FFFFFF0001FFFFFFC0007FFFFFFF0001FFC0007FFFFFFF0001FFF0003FFFFFF
310
FFC001FFFFFF80007000FFFFFFFFFE0000FFFE0008003FF0008001FFFF80007F
310
FFFFFFFFFC0000FFFFFFFFFFE0000FF8000001FFFE0000007FFFFFF0001FFFFF
310
F8000FFFFFFFF8000FF8000FFFFFFFF8000FFF0003FFFFFFFFFFFFFFFFFF0000
310
7000FFFFFFFFFC0000FFFC0008003FF0008001FFFF80007FFFFFFFFFF80001FF
310
FFFFFFFF80000FF8000001FFFE0000007FFFFFF0001FFFFFF8000FFFFFFFF800
310
0FF8000FFFFFFFF8000FFF0003FFFFFFFFFFFFFFFFFE0000F000FFFFFFFFE000
310
00FFFC000C003FE000C001FFFF80007FFFFFFFFFC00001FFFFFFFFFE00001FF8
310
000001FFFE0000007FFFFFF0001FFFFFF8000FFFFFFFF8000FF8000FFFFFFFF8
310
000FFF0003FFFFFFFFFFFFFFFFF00000F000FFFFFFFE000001FFFC000C001FE0
310
00C000FFFF80007FFFFFFFFE000001FFFFFFFFE000001FF80FFFFFFFFFFFFFC0
310
7FFFFFF0001FFFFFF8000FFFFFFFF8000FF8000FFFFFFFF8000FFF0003FFFFFF
310
FFFFFFFFFF800000F000FFFFFFC0000001FFFC001C001FE001C000FFFF80007F
310
FFFFFF80000003FFFFFFF80000001FF80FFFFFFFFFFFFFC07FFFFFF0001FFFFF
310
F8001FFFFFFFFC000FF8001FFFFFFFFC000FFF0003FFFFFFFFFFFFFFF0000001
310
F000FFFFF800000001FFF8001C001FE001C000FFFF80007FFFFFF800000003FF
310
FFFF800000003FF80FFFFFFFFFFFFFC07FFFFFF0001FFFFFF8001FFFFFFFFC00
310
0FF8001FFFFFFFFC000FFF0003FFFFFFFFFFFFFE00000001F000FFFFC0000000
310
03FFF8001E001FC001E000FFFF80007FFFFF8000000007FFFFFC000000003FF8
310
0FFFFFFFFFFFFFC07FFFFFF0001FFFFFF8001FFFFFFFFC000FF8001FFFFFFFFC
310
000FFF0003FFFFFFFFFFFFE000000003F000FFFE0000000007FFF8001E000FC0
310
01E0007FFF80007FFFFE0000000007FFFFE0000000007FF80FFFFFFFFFFFFFC0
310
7FFFFFF0001FFFFFF0001FFFFFFFFC0007F0001FFFFFFFFC0007FF0003FFFFFF
310
FFFFFF0000000003F000FFF80000000007FFF8001E000FC003E0007FFF80007F
310
FFF0000000000FFFFF8000000000FFF80FFFFFFFFFFFFFC07FFFFFF0001FFFFF
310
F0001FFFFFFFFC0007F0001FFFFFFFFC0007FF0003FFFFFFFFFFFC0000000007
310
F000FFE0000000000FFFF0003E000FC003E0007FFF80007FFFC0000000001FFF
310
FE0000000001FFF80FFFFFFFFFFFFFC07FFFFFF0001FFFFFF0001FFFFFFFFC00
310
07F0001FFFFFFFFC0007FF0003FFFFFFFFFFF0000000000FF000FFC000000000
310
1FFFF0003F000F8003F0003FFF80007FFF80000000003FFFF80000000003FFF8
310
0FFFFFFFFFFFFFC07FFFFFF0001FFFFFF0001FFFFFFFFC0007F0001FFFFFFFFC
310
0007FF0003FFFFFFFFFFE0000000001FF000FF00000000007FFFF0003F000780
310
03F0003FFF80007FFF00000000007FFFF00000000007FFF80FFFFFFFFFFFFFC0
310
7FFFFFF0001FFFFFF0001FFFFFFFFC0007F0001FFFFFFFFC0007FF0003FFFFFF
310
FFFF80000000007FF000FE0000000000FFFFE0003F00078007F0003FFF80007F
310
FE0000000001FFFFE0000000001FFFF80FFFFFFFFFFFFFC07FFFFFF0001FFFFF
310
F0001FFFFFFFFC0007F0001FFFFFFFFC0007FF0003FFFFFFFFFF0000000000FF
310
F000FC0000000003FFFFE0007F00078007F0003FFF80007FFC0000000007FFFF
310
C0000000007FFFF80FFFFFFFFFFFFFC07FFFFFF0001FFFFFF8001FFFFFFFFC00
310
0FF8001FFFFFFFFC000FFF0003FFFFFFFFFE0000000003FFF000FC000000000F
310
FFFFE0007F80070007F8001FFF80007FF8000000001FFFFF8000000001FFFFF8
310
0FFFFFFFFFFFFFC07FFFFFF0001FFFFFF8001FFFFFFFFC000FF8001FFFFFFFFC
310
000FFF0003FFFFFFFFFC000000000FFFF000F8000000007FFFFFE0007F800700
310
07F8001FFF80007FF000000000FFFFFF800000000FFFFFF80FFFFFFFFFFFFFC0
310
7FFFFFF0001FFFFFF8000FFFFFFFF8000FF8000FFFFFFFF8000FFF0003FFFFFF
310
FFFC000000007FFFF000F800000007FFFFFFC0007F8003000FF8001FFF80007F
310
F000000007FFFFFF000000007FFFFFF80FFFFFFFFFFFFFC07FFFFFF0001FFFFF
310
F8000FFFFFFFF8000FF8000FFFFFFFF8000FFF0003FFFFFFFFF80000000FFFFF
310
F000F0000000FFFFFFFFC000FF8003000FF8001FFF80007FE0000000FFFFFFFF
310
0000000FFFFFFFF8000001FFFE0000007FFFFFF0001FFFFFF8000FFFFFFFF800
310
0FF8000FFFFFFFF8000FFF0003FFFFFFFFF8000000FFFFFFF000F000000FFFFF
310
FFFFC000FFC002000FF8000FFF80007FE000001FFFFFFFFE000001FFFFFFFFF8
310
000001FFFE0000007FFFFFF0001FFFFFF8000FFFFFFFF8000FF8000FFFFFFFF8
310
000FFF0003FFFFFFFFF000001FFFFFFFF000E00000FFFFFFFFFFC000FFC00200
310
0FFC000FFF80007FE00001FFFFFFFFFE00001FFFFFFFFFF8000001FFFE000000
310
7FFFFFF0001FFFFFFC000FFFFFFFF8001FFC000FFFFFFFF8001FFF0003FFFFFF
310
FFF00001FFFFFFFFF000E00007FFFFFFFFFF8000FFC000001FFC000FFF80007F
310
C0000FFFFFFFFFFE0000FFFFFFFFFFF8000001FFFE0000007FFFFFF0001FFFFF
310
FC0007FFFFFFF0001FFC0007FFFFFFF0001FFF0003FFFFFFFFF00007FFFFFFFF
310
F000E0001FFFFFFFFFFF8000FFC000001FFC000FFF80007FC0003FFFFFFFFFFE
310
0001FFFFFFFFFFF8000001FFFE0000007FFFFFF0001FFFFFFC0007FFFFFFF000
310
1FFC0007FFFFFFF0001FFF0003FFFFFFFFF0001FFFFFFFFFF000E0003FFFFF00
310
03FF8001FFE000001FFC0007FF80007FC0007FFFFF0007FC0003FFFFF0003FF8
310
000001FFFE0000007FFFFFF0001FFFFFFC0003FFFFFFE0001FFC0003FFFFFFE0
310
001FFF0003FFFFFFFFF0003FFFFFFFFFF000E0003FFFFF0001FF8001FFE00000
310
1FFE0007FF80007FC0007FFFFE0003FC0007FFFFE0003FF8000001FFFE000000
310
7FFFFFF0001FFFFFFE0003FFFFFFE0003FFE0003FFFFFFE0003FFF0003FFFFFF
310
FFF0003FFFFF8001F000E0003FFFFF0001FF0001FFE000001FFE0007FF80007F
310
C0007FFFFE0003FC0007FFFFE0003FF8000001FFFE0000007FFFFFF0001FFFFF
310
FE0001FFFFFFC0003FFE0001FFFFFFC0003FFF0003FFFFFFFFF0003FFFFF0001
310
F000E0003FFFFF0003FF0001FFE000003FFE0007FF80007FC0007FFFFE0003FC
310
0007FFFFE0003FF8000001FFFE0000007FFFFFF0001FFFFFFF0001FFFFFFC000
310
7FFF0001FFFFFFC0007FFF0003FFFFFFFFF0003FFFFF0001F000E0003FFFFE00
310
03FF0003FFF000003FFE0003FF80007FC0007FFFFC0003FE0007FFFFE0003FF8
310
000001FFFE0000007FFFFFF0001FFFFFFF0000FFFFFF80007FFF0000FFFFFF80
310
007FFF0003FFFFFFFFF0003FFFFF0001F000E0003FFFFE0003FF0003FFF00000
310
3FFF0003FF80007FC0007FFFFC0007FE0007FFFFC0003FF8000001FFFE000000
310
7FFFFFF0001FFFFFFF80007FFFFF0000FFFF80007FFFFF0000FFFF0003FFFFFF
310
FFF0003FFFFF0003F000E0003FFFFC0003FE0003FFF000003FFF0003FF80007F
310
E0003FFFF80007FE0003FFFFC0007FF8000001FFFE0000007FFFFFF0001FFFFF
310
FF80003FFFFE0000FFFF80003FFFFE0000FFFF0003FFFFFFFFF0001FFFFE0003
310
F000F0001FFFF80003FE0003FFF000007FFF0001FF80007FE0003FFFF00007FE
310
0001FFFF80007FF8000001FFFE0000007FFFFFF0001FFFFFFFC0000FFFF80001
310
FFFFC0000FFFF80001FFFF0003FFFFFFFFF0001FFFFC0003F000F0000FFFF000
310
07FE0007FFF800007FFF0001FF80007FE0001FFFE00007FF0000FFFE00007FF8
310
000001FFFE0000007FFFFFF0001FFFFFFFC00003FFE00001FFFFC00003FFE000
310
01FFFF0003FFFFFFFFF8000FFFF80003F000F00003FFC00007FC0007FFF80000
310
7FFF8001FF80007FF00007FF80000FFF00007FF80000FFF8000001FFFE000000
310
7F80000000000001FFE000003E000003FFFFE000003E000003FFFF0003FFFFFF
310
FFF80003FFE00007F000F800000000000FFC0007FFF800007FFF8001FF80007F
310
F000000000000FFF000000000000FFF8000001FFFE0000007F80000000000001
310
FFF0000000000007FFFFF0000000000007FFFF0003FFFFFFFFFC00007E000007
310
F000F800000000000FFC0007FFF80000FFFF8000FF80007FF800000000001FFF
310
800000000001FFF8000001FFFE0000007F80000000000001FFF800000000000F
310
FFFFF800000000000FFFFF0003FFFFFFFFFC00000000000FF000FC0000000000
310
1FFC0007FFFC0000FFFF8000FF80007FF800000000003FFFC00000000001FFF8
310
000001FFFE0000007F80000000000001FFF800000000000FFFFFF80000000000
310
0FFFFF0003FFFFFFFFFE00000000001FF000FE00000000003FF8000FFFFC0000
310
FFFF8000FF80007FFC00000000003FFFC00000000003FFF8000001FFFE000000
310
7F80000000000001FFFC00000000001FFFFFFC00000000001FFFFF0003FFFFFF
310
FFFF00000000001FF000FF00000000003FF8000FFFFC0000FFFFC000FF80007F
310
FE00000000007FFFE00000000007FFF8000001FFFE0000007F80000000000001
310
FFFE00000000003FFFFFFE00000000003FFFFF0003FFFFFFFFFF80000000003F
310
F000FF80000000007FF8000FFFFC0001FFFFC0007F80007FFF0000000000FFFF
310
F0000000000FFFF800000000000000007F80000000000001FFFF8000000000FF
310
FFFFFF8000000000FFFFFF0003FFFFFFFFFFC0000000007FF000FFC000000000
310
FFF8000FFFFE0001FFFFC0007F80007FFF8000000001FFFFF8000000001FFFF8
310
00000000000000007F80000000000001FFFFC000000001FFFFFFFFC000000001
310
FFFFFF0003FFFFFFFFFFE000000000FFF000FFE000000003FFF0001FFFFE0001
310
FFFFC0007F80007FFFC000000007FFFFFE000000003FFFF80000000000000000
310
7F80000000000001FFFFE000000003FFFFFFFFE000000003FFFFFF0003FFFFFF
310
FFFFF000000003FFF000FFF80000000FFFF0001FFFFE0001FFFFE0007F80007F
310
FFF00000000FFFFFFF00000000FFFFF800000000000000007F80000000000001
310
FFFFF80000000FFFFFFFFFF80000000FFFFFFF0003FFFFFFFFFFFC0000000FFF
310
F000FFFE0000003FFFF0001FFFFE0003FFFFE0003F80007FFFFC0000003FFFFF
310
FFC0000003FFFFF800000000000000007F80000000000001FFFFFE0000003FFF
310
FFFFFFFE0000003FFFFFFF0003FFFFFFFFFFFF0000003FFFF000FFFF800000FF
310
FFF0001FFFFF0003FFFFE0003F80007FFFFF000001FFFFFFFFF800001FFFFFF8
310
00000000000000007F80000000000001FFFFFFC00001FFFFFFFFFFFFC00001FF
310
FFFFFF0003FFFFFFFFFFFFC00000FFFFF000FFFFF8000FFFFFFFFFFFFFFFFFFF
310
FFFFFFFFFFFFFFFFFFFFF0001FFFFFFFFFFF0000FFFFFFF80000000000000000
310
7FFFFFFFFFFFFFFFFFFFFFFC001FFFFFFFFFFFFFFC001FFFFFFFFFFFFFFFFFFF
310
FFFFFFFC001FFFFFF000FFFFFFFFFFFFFFFFFFFFFFFFFFFFFFFFFFFFFFFFFFFF
310
FFFFFFFFFFFFFFFFFFFFFFFFFFFFFFFFFFFFFFFFFFFFFFFFFFFFFFFFFFFFFFFF
310
FFFFFFFFFFFFFFFFFFFFFFFFFFFFFFFFFFFFFFFFFFFFFFFFFFFFFFFFFFFFFFFF
310
F000FFFFFFFFFFFFFFFFFFFFFFFFFFFFFFFFFFFFFFFFFFFFFFFFFFFFFFFFFFFF
310
FFFFFFFFFFFFFFFFFFFFFFFFFFFFFFFFFFFFFFFFFFFFFFFFFFFFFFFFFFFFFFFF
310
FFFFFFFFFFFFFFFFFFFFFFFFFFFFFFFFFFFFFFFFFFFFFFFFF000FFFFFFFFFFFF
310
FFFFFFFFFFFFFFFFFFFFFFFFFFFFFFFFFFFFFFFFFFFFFFFFFFFFFFFFFFFFFFFF
310
FFFFFFFFFFFFFFFFFFFFFFFFFFFFFFFFFFFFFFFFFFFFFFFFFFFFFFFFFFFFFFFF
310
FFFFFFFFFFFFFFFFFFFFFFFFFFFFFFFFF000FFFFFFFFFFFFFFFFFFFFFFFFFFFF
310
FFFFFFFFFFFFFFFFFFFFFFFFFFFFFFFFFFFFFFFFFFFFFFFFFFFFFFFFFFFFFFFF
310
FFFFFFFFFFFFFFFFFFFFFFFFFFFFFFFFFFFFFFFFFFFFFFFFFFFFFFFFFFFFFFFF
310
FFFFFFFFFFFFFFFFF000FFFFFFFFFFFFFFFFFFFFFFFFFFFFFFFFFFFFFFFFFFFF
310
FFFFFFFFFFFFFFFFFFFFFFFFFFFFFFFFFFFFFFFFFFFFFFFFFFFFFFFFFFFFFFFF
310
FFFFFFFFFFFFFFFFFFFFFFFFFFFFFFFFFFFFFFFFFFFFFFFFFFFFFFFFFFFFFFFF
310
F000FFFFFFFFFFFFFFFFFFFFFFFFFFFFFFFFFFFFFFFFFFFFFFFFFFFFFFFFFFFF
310
FFFFFFFFFFFFFFFFFFFFFFFFFFFFFFFFFFFFFFFFFFFFFFFFFFFFFFFFFFFFFFFF
310
FFFFFFFFFFFFFFFFFFFFFFFFFFFFFFFFFFFFFFFFFFFFFFFFF000FFFFFFFFFFFF
310
FFFFFFFFFFFFFFFFFFFFFFFFFFFFFFFFFFFFFFFFFFFFFFFFFFFFFFFFFFFFFFFF
310
FFFFFFFFFFFFFFFFFFFFFFFFFFFFFFFFFFFFFFFFFFFFFFFFFFFFFFFFFFFFFFFF
310
FFFFFFFFFFFFFFFFFFFFFFFFFFFFFFFFF000FFFFFFFFFFFFFFFFFFFFFFFFFFFF
310
FFFFFFFFFFFFFFFFFFFFFFFFFFFFFFFFFFFFFFFFFFFFFFFFFFFFFFFFFFFFFFFF
310
FFFFFFFFFFFFFFFFFFFFFFFFFFFFFFFFFFFFFFFFFFFFFFFFFFFFFFFFFFFFFFFF
310
FFFFFFFFFFFFFFFFF000FFFFFFFFFFFFFFFFFFFFFFFFFFFFFFFFFFFFFFFFFFFF
310
FFFFFFFFFFFFFFFFFFFFFFFFFFFFFFFFFFFFFFFFFFFFFFFFFFFFFFFFFFFFFFFF
310
FFFFFFFFFFFFFFFFFFFFFFFFFFFFFFFFFFFFFFFFFFFFFFFFFFFFFFFFFFFFFFFF
310
F000FFFFFFFFFFFFFFFFFFFFFFFFFFFFFFFFFFFFFFFFFFFFFFFFFFFFFFFFFFFF
310
FFFFFFFFFFFFFFFFFFFFFFFFFFFFFFFFFFFFFFFFFFFFFFFFFFFFFFFFFFFFFFFF
310
FFFFFFFFFFFFFFFFFFFFFFFFFFFFFFFFFFFFFFFFFFFFFFFFF000FFFFFFFFFFFF
310
FFFFFFFFFFFFFFFFFFFFFFFFFFFFFFFFFFFFFFFFFFFFFFFFFFFFFFFFFFFFFFFF
310
FFFFFFFFFFFFFFFFFFFFFFFFFFFFFFFFFFFFFFFFFFFFFFFFFFFFFFFFFFFFFFFF
310
FFFFFFFFFFFFFFFFFFFFFFFFFFFFFFFFF000FFFFFFFFFFFFFFFFFFFFFFFFFFFF
310
FFFFFFFFFFFFFFFFFFFFFFFFFFFFFFFFFFFFFFFFFFFFFFFFFFFFFFFFFFFFFFFF
310
FFFFFFFFFFFFFFFFFFFFFFFFFFFFFFFFFFFFFFFFFFFFFFFFFFFFFFFFFFFFFFFF
310
FFFFFFFFFFFFFFFFF000FFFFFFFFFFFFFFFFFFFFFFFFFFFFFFFFFFFFFFFFFFFF
310
FFFFFFFFFFFFFFFFFFFFFFFFFFFFFFFFFFFFFFFFFFFFFFFFFFFFFFFFFFFFFFFF
310
FFFFFFFFFFFFFFFFFFFFFFFFFFFFFFFFFFFFFFFFFFFFFFFFFFFFFFFFFFFFFFFF
310
F000FFFFFFFFFFFFFFFFFFFFFFFFFFFFFFFFFFFFFFFFFFFFFFFFFFFFFFFFFFFF
310
FFFFFFFFFFFFFFFFFFFFFFFFFFFFFFFFFFFFFFFFFFFFFFFFFFFFFFFFFFFFFFFF
310
FFFFFFFFFFFFFFFFFFFFFFFFFFFFFFFFFFFFFFFFFFFFFFFFF000FFFFFFFFFFFF
310
FFFFFFFFFFFFFFFFFFFFFFFFFFFFFFFFFFFFFFFFFFFFFFFFFFFFFFFFFFFFFFFF
310
FFFFFFFFFFFFFFFFFFFFFFFFFFFFFFFFFFFFFFFFFFFFFFFFFFFFFFFFFFFFFFFF
310
FFFFFFFFFFFFFFFFFFFFFFFFFFFFFFFFF000FFFFFFFFFFFFFFFFFFFFFFFFFFFF
310
FFFFFFFFFFFFFFFFFFFFFFFFFFFFFFFFFFFFFFFFFFFFFFFFFFFFFFFFFFFFFFFF
310
FFFFFFFFFFFFFFFFFFFFFFFFFFFFFFFFFFFFFFFFFFFFFFFFFFFFFFFFFFFFFFFF
310
FFFFFFFFFFFFFFFFF000FFFFFFFFFFFFFFFFFFFFFFFFFFFFFFFFFFFFFFFFFFFF
310
FFFFFFFFFFFFFFFFFFFFFFFFFFFFFFFFFFFFFFFFFFFFFFFFFFFFFFFFFFFFFFFF
310
FFFFFFFFFFFFFFFFFFFFFFFFFFFFFFFFFFFFFFFFFFFFFFFFFFFFFFFFFFFFFFFF
310
F000FFFFFFFFFFFFFFFFFFFFFFFFFFFFFFFFFFFFFFFFFFFFFFFFFFFFFFFFFFFF
310
FFFFFFFFFFFFFFFFFFFFFFFFFFFFFFFFFFFFFFFFFFFFFFFFFFFFFFFFFFFFFFFF
310
FFFFFFFFFFFFFFFFFFFFFFFFFFFFFFFFFFFFFFFFFFFFFFFFF000FFFFFFFFFFFF
310
FFFFFFFFFFFFFFFFFFFFFFFFFFFFFFFFFFFFFFFFFFFFFFFFFFFFFFFFFFFFFFFF
310
FFFFFFFFFFFFFFFFFFFFFFFFFFFFFFFFFFFFFFFFFFFFFFFFFFFFFFFFFFFFFFFF
310
FFFFFFFFFFFFFFFFFFFFFFFFFFFFFFFFF000FFFFFFFFFFFFFFFFFFFFFFFFFFFF
310
FFFFFFFFFFFFFFFFFFFFFFFFFFFFFFFFFFFFFFFFFFFFFFFFFFFFFFFFFFFFFFFF
310
FFFFFFFFFFFFFFFFFFFFFFFFFFFFFFFFFFFFFFFFFFFFFFFFFFFFFFFFFFFFFFFF
310
FFFFFFFFFFFFFFFFF000FFFFFFFFFFFFFFFFFFFFFFFFFFFFFFFFFFFFFFFFFFFF
310
FFFFFFFFFFFFFFFFFFFFFFFFFFFFFFFFFFFFFFFFFFFFFFFFFFFFFFFFFFFFFFFF
310
FFFFFFFFFFFFFFFFFFFFFFFFFFFFFFFFFFFFFFFFFFFFFFFFFFFFFFFFFFFFFFFF
310
F000FFFFFFFFFFFFFFFFFFFFFFFFFFFFFFFFFFFFFFFFFFFFFFFFFFFFFFFFFFFF
310
FFFFFFFFFFFFFFFFFFFFFFFFFFFFFFFFFFFFFFFFFFFFFFFFFFFFFFFFFFFFFFFF
310
FFFFFFFFFFFFFFFFFFFFFFFFFFFFFFFFFFFFFFFFFFFFFFFFF000FFFFFFFFFFFF
310
FFFFFFFFFFFFFFFFFFFFFFFFFFFFFFFFFFFFFFFFFFFFFFFFFFFFFFFFFFFFFFFF
310
FFFFFFFFFFFFFFFFFFFFFFFFFFFFFFFFFFFFFFFFFFFFFFFFFFFFFFFFFFFFFFFF
310
FFFFFFFFFFFFFFFFFFFFFFFFFFFFFFFFF0000000000000000000000000000000
310
0000000000000000000000000000000000000000000000000000000000000000
310
0000000000000000000000000000000000000000000000000000000000000000
310
0000000000000000000000000000000000000000000000000000000000000000
310
0000000000000000000000000000000000000000000000000000000000000000
310
0000000000000000000000000000000000000000000000000000000000000000
310
0000000000000000000000000000000000000000000000000000000000000000
310
0000000000000000000000000000000000000000000000000000000000000000
310
0000000000000000000000000000000000000000000000000000000000000000
310
0000000000000000000000000000000000000000000000000000000000000000
310
0000000000000000000000000000000000000000000000000000000000000000
310
0000000000000000000000000000000000000000000000000000000000000000
310
0000000000000000000000000000000000000000000000000000000000000000
310
0000000000000000000000000000000000000000000000000000000000000000
310
0000000000000000000000000000000000000000000000000000000000000000
310
0000000000000000000000000000000000000000000000000000000000000000
  1
OLE
  0
ENDSEC
  0
SECTION
  2
OBJECTS
  0
DICTIONARY
  5
C
330
0
100
AcDbDictionary
281
     1
  3
ACAD_GROUP
350
D
  3
ACAD_LAYOUT
350
1A
  3
ACAD_MLINESTYLE
350
17
  3
ACAD_PLOTSETTINGS
350
19
  3
ACAD_PLOTSTYLENAME
350
E
  3
ACAD_SCALELIST
350
47
  0
DICTIONARY
  5
D
102
{ACAD_REACTORS
330
C
102
}
330
C
100
AcDbDictionary
281
     1
  0
DICTIONARY
  5
1A
102
{ACAD_REACTORS
330
C
102
}
330
C
100
AcDbDictionary
281
     1
  3
Layout1
350
1E
  3
Layout2
350
26
  3
Model
350
22
  0
DICTIONARY
  5
17
102
{ACAD_REACTORS
330
C
102
}
330
C
100
AcDbDictionary
281
     1
  3
Standard
350
18
  0
DICTIONARY
  5
19
102
{ACAD_REACTORS
330
C
102
}
330
C
100
AcDbDictionary
281
     1
  0
ACDBDICTIONARYWDFLT
  5
E
102
{ACAD_REACTORS
330
C
102
}
330
C
100
AcDbDictionary
281
     1
  3
Normal
350
F
100
AcDbDictionaryWithDefault
340
F
  0
DICTIONARY
  5
47
102
{ACAD_REACTORS
330
C
102
}
330
C
100
AcDbDictionary
281
     1
  3
A0
350
48
  3
A1
350
49
  3
A2
350
4A
  3
A3
350
4B
  3
A4
350
4C
  3
A5
350
4D
  3
A6
350
4E
  3
A7
350
4F
  3
A8
350
50
  3
A9
350
51
  3
B0
350
52
  3
B1
350
53
  3
B2
350
54
  3
B3
350
55
  3
B4
350
56
  3
B5
350
57
  3
B6
350
58
  3
B7
350
59
  3
B8
350
5A
  3
B9
350
5B
  3
C0
350
5C
  3
C1
350
5D
  3
C2
350
5E
  3
C3
350
5F
  3
C4
350
60
  3
C5
350
61
  3
C6
350
62
  3
C7
350
63
  3
C8
350
64
  3
C9
350
65
  3
D0
350
66
  3
D1
350
67
  3
D2
350
68
  0
LAYOUT
  5
1E
102
{ACAD_REACTORS
330
1A
102
}
330
1A
100
AcDbPlotSettings
  1

  2
none_device
  4

  6

 40
0.0
 41
0.0
 42
0.0
 43
0.0
 44
0.0
 45
0.0
 46
0.0
 47
0.0
 48
0.0
 49
0.0
140
0.0
141
0.0
142
1.0
143
1.0
 70
   688
 72
     1
 73
     0
 74
     5
  7

 75
    16
147
1.0
148
0.0
149
0.0
100
AcDbLayout
  1
Layout1
 70
     1
 71
     1
 10
0.0
 20
0.0
 11
420.0
 21
297.0
 12
0.0
 22
0.0
 32
0.0
 14
1.0000000000E+20
 24
1.0000000000E+20
 34
1.0000000000E+20
 15
-1.0000000000E+20
 25
-1.0000000000E+20
 35
-1.0000000000E+20
146
0.0
 13
0.0
 23
0.0
 33
0.0
 16
1.0
 26
0.0
 36
0.0
 17
0.0
 27
1.0
 37
0.0
 76
     0
330
1B
  0
LAYOUT
  5
26
102
{ACAD_REACTORS
330
1A
102
}
330
1A
100
AcDbPlotSettings
  1

  2
none_device
  4

  6

 40
0.0
 41
0.0
 42
0.0
 43
0.0
 44
0.0
 45
0.0
 46
0.0
 47
0.0
 48
0.0
 49
0.0
140
0.0
141
0.0
142
1.0
143
1.0
 70
   688
 72
     1
 73
     0
 74
     5
  7

 75
    16
147
1.0
148
0.0
149
0.0
100
AcDbLayout
  1
Layout2
 70
     1
 71
     2
 10
0.0
 20
0.0
 11
0.0
 21
0.0
 12
0.0
 22
0.0
 32
0.0
 14
0.0
 24
0.0
 34
0.0
 15
0.0
 25
0.0
 35
0.0
146
0.0
 13
0.0
 23
0.0
 33
0.0
 16
1.0
 26
0.0
 36
0.0
 17
0.0
 27
1.0
 37
0.0
 76
     0
330
23
  0
LAYOUT
  5
22
102
{ACAD_REACTORS
330
1A
102
}
330
1A
100
AcDbPlotSettings
  1

  2
none_device
  4
Letter_(8.50_x_11.00_Inches)
  6

 40
6.35
 41
6.35
 42
6.35000508
 43
6.35000508
 44
215.9
 45
279.4
 46
0.0
 47
0.0
 48
0.0
 49
0.0
140
0.0
141
0.0
142
1.0
143
1.0
 70
  1712
 72
     1
 73
     0
 74
     0
  7

 75
     0
147
1.0
148
0.0
149
0.0
100
AcDbLayout
  1
Model
 70
     1
 71
     0
 10
0.0
 20
0.0
 11
297.0
 21
210.0
 12
0.0
 22
0.0
 32
0.0
 14
0.0
 24
0.0
 34
0.0
 15
297.0
 25
210.0
 35
0.0
146
0.0
 13
0.0
 23
0.0
 33
0.0
 16
1.0
 26
0.0
 36
0.0
 17
0.0
 27
1.0
 37
0.0
 76
     0
330
1F
331
29
  0
MLINESTYLE
  5
18
102
{ACAD_REACTORS
330
17
102
}
330
17
100
AcDbMlineStyle
  2
Standard
 70
     0
  3

 62
   256
 51
90.0
 52
90.0
 71
     2
 49
0.5
 62
   256
  6
BYLAYER
 49
-0.5
 62
   256
  6
BYLAYER
  0
ACDBPLACEHOLDER
  5
F
102
{ACAD_REACTORS
330
E
102
}
330
E
  0
SCALE
  5
48
102
{ACAD_REACTORS
330
47
102
}
330
47
100
AcDbScale
 70
     0
300
1:1
140
1.0
141
1.0
290
     1
  0
SCALE
  5
49
102
{ACAD_REACTORS
330
47
102
}
330
47
100
AcDbScale
 70
     0
300
1:2
140
1.0
141
2.0
290
     0
  0
SCALE
  5
4A
102
{ACAD_REACTORS
330
47
102
}
330
47
100
AcDbScale
 70
     0
300
1:4
140
1.0
141
4.0
290
     0
  0
SCALE
  5
4B
102
{ACAD_REACTORS
330
47
102
}
330
47
100
AcDbScale
 70
     0
300
1:5
140
1.0
141
5.0
290
     0
  0
SCALE
  5
4C
102
{ACAD_REACTORS
330
47
102
}
330
47
100
AcDbScale
 70
     0
300
1:8
140
1.0
141
8.0
290
     0
  0
SCALE
  5
4D
102
{ACAD_REACTORS
330
47
102
}
330
47
100
AcDbScale
 70
     0
300
1:10
140
1.0
141
10.0
290
     0
  0
SCALE
  5
4E
102
{ACAD_REACTORS
330
47
102
}
330
47
100
AcDbScale
 70
     0
300
1:16
140
1.0
141
16.0
290
     0
  0
SCALE
  5
4F
102
{ACAD_REACTORS
330
47
102
}
330
47
100
AcDbScale
 70
     0
300
1:20
140
1.0
141
20.0
290
     0
  0
SCALE
  5
50
102
{ACAD_REACTORS
330
47
102
}
330
47
100
AcDbScale
 70
     0
300
1:30
140
1.0
141
30.0
290
     0
  0
SCALE
  5
51
102
{ACAD_REACTORS
330
47
102
}
330
47
100
AcDbScale
 70
     0
300
1:40
140
1.0
141
40.0
290
     0
  0
SCALE
  5
52
102
{ACAD_REACTORS
330
47
102
}
330
47
100
AcDbScale
 70
     0
300
1:50
140
1.0
141
50.0
290
     0
  0
SCALE
  5
53
102
{ACAD_REACTORS
330
47
102
}
330
47
100
AcDbScale
 70
     0
300
1:100
140
1.0
141
100.0
290
     0
  0
SCALE
  5
54
102
{ACAD_REACTORS
330
47
102
}
330
47
100
AcDbScale
 70
     0
300
2:1
140
2.0
141
1.0
290
     0
  0
SCALE
  5
55
102
{ACAD_REACTORS
330
47
102
}
330
47
100
AcDbScale
 70
     0
300
4:1
140
4.0
141
1.0
290
     0
  0
SCALE
  5
56
102
{ACAD_REACTORS
330
47
102
}
330
47
100
AcDbScale
 70
     0
300
8:1
140
8.0
141
1.0
290
     0
  0
SCALE
  5
57
102
{ACAD_REACTORS
330
47
102
}
330
47
100
AcDbScale
 70
     0
300
10:1
140
10.0
141
1.0
290
     0
  0
SCALE
  5
58
102
{ACAD_REACTORS
330
47
102
}
330
47
100
AcDbScale
 70
     0
300
100:1
140
100.0
141
1.0
290
     0
  0
SCALE
  5
59
102
{ACAD_REACTORS
330
47
102
}
330
47
100
AcDbScale
 70
     0
300
1/128" = 1'-0"
140
0.0078125
141
12.0
290
     0
  0
SCALE
  5
5A
102
{ACAD_REACTORS
330
47
102
}
330
47
100
AcDbScale
 70
     0
300
1/64" = 1'-0"
140
0.015625
141
12.0
290
     0
  0
SCALE
  5
5B
102
{ACAD_REACTORS
330
47
102
}
330
47
100
AcDbScale
 70
     0
300
1/32" = 1'-0"
140
0.03125
141
12.0
290
     0
  0
SCALE
  5
5C
102
{ACAD_REACTORS
330
47
102
}
330
47
100
AcDbScale
 70
     0
300
1/16" = 1'-0"
140
0.0625
141
12.0
290
     0
  0
SCALE
  5
5D
102
{ACAD_REACTORS
330
47
102
}
330
47
100
AcDbScale
 70
     0
300
3/32" = 1'-0"
140
0.09375
141
12.0
290
     0
  0
SCALE
  5
5E
102
{ACAD_REACTORS
330
47
102
}
330
47
100
AcDbScale
 70
     0
300
1/8" = 1'-0"
140
0.125
141
12.0
290
     0
  0
SCALE
  5
5F
102
{ACAD_REACTORS
330
47
102
}
330
47
100
AcDbScale
 70
     0
300
3/16" = 1'-0"
140
0.1875
141
12.0
290
     0
  0
SCALE
  5
60
102
{ACAD_REACTORS
330
47
102
}
330
47
100
AcDbScale
 70
     0
300
1/4" = 1'-0"
140
0.25
141
12.0
290
     0
  0
SCALE
  5
61
102
{ACAD_REACTORS
330
47
102
}
330
47
100
AcDbScale
 70
     0
300
3/8" = 1'-0"
140
0.375
141
12.0
290
     0
  0
SCALE
  5
62
102
{ACAD_REACTORS
330
47
102
}
330
47
100
AcDbScale
 70
     0
300
1/2" = 1'-0"
140
0.5
141
12.0
290
     0
  0
SCALE
  5
63
102
{ACAD_REACTORS
330
47
102
}
330
47
100
AcDbScale
 70
     0
300
3/4" = 1'-0"
140
0.75
141
12.0
290
     0
  0
SCALE
  5
64
102
{ACAD_REACTORS
330
47
102
}
330
47
100
AcDbScale
 70
     0
300
1" = 1'-0"
140
1.0
141
12.0
290
     0
  0
SCALE
  5
65
102
{ACAD_REACTORS
330
47
102
}
330
47
100
AcDbScale
 70
     0
300
1-1/2" = 1'-0"
140
1.5
141
12.0
290
     0
  0
SCALE
  5
66
102
{ACAD_REACTORS
330
47
102
}
330
47
100
AcDbScale
 70
     0
300
3" = 1'-0"
140
3.0
141
12.0
290
     0
  0
SCALE
  5
67
102
{ACAD_REACTORS
330
47
102
}
330
47
100
AcDbScale
 70
     0
300
6" = 1'-0"
140
6.0
141
12.0
290
     0
  0
SCALE
  5
68
102
{ACAD_REACTORS
330
47
102
}
330
47
100
AcDbScale
 70
     0
300
1'-0" = 1'-0"
140
12.0
141
12.0
290
     0
  0
ENDSEC
  0
EOF
