  0
SECTION
  2
HEADER
  9
$ACADVER
  1
AC1015
  9
$ACADMAINTVER
 70
     6
  9
$DWGCODEPAGE
  3
ANSI_1252
  9
$INSBASE
 10
0.0
 20
0.0
 30
0.0
  9
$EXTMIN
 10
0.0
 20
0.0
 30
0.0
  9
$EXTMAX
 10
297.0
 20
210.0
 30
0.0
  9
$LIMMIN
 10
0.0
 20
0.0
  9
$LIMMAX
 10
297.0
 20
210.0
  9
$ORTHOMODE
 70
     0
  9
$REGENMODE
 70
     1
  9
$FILLMODE
 70
     1
  9
$QTEXTMODE
 70
     0
  9
$MIRRTEXT
 70
     1
  9
$LTSCALE
 40
1.0
  9
$ATTMODE
 70
     1
  9
$TEXTSIZE
 40
2.0
  9
$TRACEWID
 40
1.0
  9
$TEXTSTYLE
  7
Standard
  9
$CLAYER
  8
0
  9
$CELTYPE
  6
ByLayer
  9
$CECOLOR
 62
   256
  9
$CELTSCALE
 40
1.0
  9
$DISPSILH
 70
     0
  9
$DIMSCALE
 40
1.0
  9
$DIMASZ
 40
3.0
  9
$DIMEXO
 40
0.0
  9
$DIMDLI
 40
3.75
  9
$DIMRND
 40
0.0
  9
$DIMDLE
 40
0.0
  9
$DIMEXE
 40
1.0
  9
$DIMTP
 40
0.0
  9
$DIMTM
 40
0.0
  9
$DIMTXT
 40
2.0
  9
$DIMCEN
 40
2.5
  9
$DIMTSZ
 40
0.0
  9
$DIMTOL
 70
     0
  9
$DIMLIM
 70
     0
  9
$DIMTIH
 70
     1
  9
$DIMTOH
 70
     1
  9
$DIMSE1
 70
     0
  9
$DIMSE2
 70
     0
  9
$DIMTAD
 70
     1
  9
$DIMZIN
 70
     0
  9
$DIMBLK
  1

  9
$DIMASO
 70
     1
  9
$DIMSHO
 70
     1
  9
$DIMPOST
  1

  9
$DIMAPOST
  1

  9
$DIMALT
 70
     0
  9
$DIMALTD
 70
     3
  9
$DIMALTF
 40
0.0393700787
  9
$DIMLFAC
 40
2.0
  9
$DIMTOFL
 70
     1
  9
$DIMTVP
 40
0.0
  9
$DIMTIX
 70
     0
  9
$DIMSOXD
 70
     0
  9
$DIMSAH
 70
     0
  9
$DIMBLK1
  1

  9
$DIMBLK2
  1

  9
$DIMSTYLE
  2
ISO-25
  9
$DIMCLRD
 70
     0
  9
$DIMCLRE
 70
     0
  9
$DIMCLRT
 70
     0
  9
$DIMTFAC
 40
1.0
  9
$DIMGAP
 40
1.524
  9
$DIMJUST
 70
     0
  9
$DIMSD1
 70
     0
  9
$DIMSD2
 70
     0
  9
$DIMTOLJ
 70
     0
  9
$DIMTZIN
 70
     0
  9
$DIMALTZ
 70
     0
  9
$DIMALTTZ
 70
     0
  9
$DIMUPT
 70
     0
  9
$DIMDEC
 70
     2
  9
$DIMTDEC
 70
     3
  9
$DIMALTU
 70
     2
  9
$DIMALTTD
 70
     3
  9
$DIMTXSTY
  7
Standard
  9
$DIMAUNIT
 70
     0
  9
$DIMADEC
 70
     2
  9
$DIMALTRND
 40
0.0
  9
$DIMAZIN
 70
     0
  9
$DIMDSEP
 70
    44
  9
$DIMATFIT
 70
     3
  9
$DIMFRAC
 70
     0
  9
$DIMLDRBLK
  1

  9
$DIMLUNIT
 70
     2
  9
$DIMLWD
 70
    -2
  9
$DIMLWE
 70
    -2
  9
$DIMTMOVE
 70
     0
  9
$LUNITS
 70
     2
  9
$LUPREC
 70
     2
  9
$SKETCHINC
 40
1.0
  9
$FILLETRAD
 40
10.0
  9
$AUNITS
 70
     0
  9
$AUPREC
 70
     2
  9
$MENU
  1
.
  9
$ELEVATION
 40
0.0
  9
$PELEVATION
 40
0.0
  9
$THICKNESS
 40
0.0
  9
$LIMCHECK
 70
     0
  9
$CHAMFERA
 40
0.0
  9
$CHAMFERB
 40
0.0
  9
$CHAMFERC
 40
0.0
  9
$CHAMFERD
 40
0.0
  9
$SKPOLY
 70
     0
  9
$TDCREATE
 40
2457674.666568113
  9
$TDUCREATE
 40
2457674.58323478
  9
$TDUPDATE
 40
2457674.666569641
  9
$TDUUPDATE
 40
2457674.583236308
  9
$TDINDWG
 40
0.0000000116
  9
$TDUSRTIMER
 40
0.0000000116
  9
$USRTIMER
 70
     1
  9
$ANGBASE
 50
0.0
  9
$ANGDIR
 70
     0
  9
$PDMODE
 70
     0
  9
$PDSIZE
 40
-1.0
  9
$PLINEWID
 40
0.0
  9
$SPLFRAME
 70
     0
  9
$SPLINETYPE
 70
     6
  9
$SPLINESEGS
 70
     8
  9
$HANDSEED
  5
2D6
  9
$SURFTAB1
 70
     6
  9
$SURFTAB2
 70
     6
  9
$SURFTYPE
 70
     6
  9
$SURFU
 70
     6
  9
$SURFV
 70
     6
  9
$UCSBASE
  2

  9
$UCSNAME
  2

  9
$UCSORG
 10
0.0
 20
0.0
 30
0.0
  9
$UCSXDIR
 10
1.0
 20
0.0
 30
0.0
  9
$UCSYDIR
 10
0.0
 20
1.0
 30
0.0
  9
$UCSORTHOREF
  2

  9
$UCSORTHOVIEW
 70
     0
  9
$UCSORGTOP
 10
0.0
 20
0.0
 30
0.0
  9
$UCSORGBOTTOM
 10
0.0
 20
0.0
 30
0.0
  9
$UCSORGLEFT
 10
0.0
 20
0.0
 30
0.0
  9
$UCSORGRIGHT
 10
0.0
 20
0.0
 30
0.0
  9
$UCSORGFRONT
 10
0.0
 20
0.0
 30
0.0
  9
$UCSORGBACK
 10
0.0
 20
0.0
 30
0.0
  9
$PUCSBASE
  2

  9
$PUCSNAME
  2

  9
$PUCSORG
 10
0.0
 20
0.0
 30
0.0
  9
$PUCSXDIR
 10
1.0
 20
0.0
 30
0.0
  9
$PUCSYDIR
 10
0.0
 20
1.0
 30
0.0
  9
$PUCSORTHOREF
  2

  9
$PUCSORTHOVIEW
 70
     0
  9
$PUCSORGTOP
 10
0.0
 20
0.0
 30
0.0
  9
$PUCSORGBOTTOM
 10
0.0
 20
0.0
 30
0.0
  9
$PUCSORGLEFT
 10
0.0
 20
0.0
 30
0.0
  9
$PUCSORGRIGHT
 10
0.0
 20
0.0
 30
0.0
  9
$PUCSORGFRONT
 10
0.0
 20
0.0
 30
0.0
  9
$PUCSORGBACK
 10
0.0
 20
0.0
 30
0.0
  9
$USERI1
 70
     0
  9
$USERI2
 70
     0
  9
$USERI3
 70
     0
  9
$USERI4
 70
     0
  9
$USERI5
 70
     0
  9
$USERR1
 40
0.0
  9
$USERR2
 40
0.0
  9
$USERR3
 40
0.0
  9
$USERR4
 40
0.0
  9
$USERR5
 40
0.0
  9
$WORLDVIEW
 70
     1
  9
$SHADEDGE
 70
     3
  9
$SHADEDIF
 70
    70
  9
$TILEMODE
 70
     1
  9
$MAXACTVP
 70
    64
  9
$PINSBASE
 10
0.0
 20
0.0
 30
0.0
  9
$PLIMCHECK
 70
     0
  9
$PEXTMIN
 10
1.0000000000E+20
 20
1.0000000000E+20
 30
1.0000000000E+20
  9
$PEXTMAX
 10
-1.0000000000E+20
 20
-1.0000000000E+20
 30
-1.0000000000E+20
  9
$PLIMMIN
 10
0.0
 20
0.0
  9
$PLIMMAX
 10
420.0
 20
297.0
  9
$UNITMODE
 70
     0
  9
$VISRETAIN
 70
     1
  9
$PLINEGEN
 70
     0
  9
$PSLTSCALE
 70
     1
  9
$TREEDEPTH
 70
  3020
  9
$CMLSTYLE
  2
Standard
  9
$CMLJUST
 70
     0
  9
$CMLSCALE
 40
20.0
  9
$PROXYGRAPHICS
 70
     1
  9
$MEASUREMENT
 70
     1
  9
$CELWEIGHT
370
    -1
  9
$ENDCAPS
280
     0
  9
$JOINSTYLE
280
     0
  9
$LWDISPLAY
290
     1
  9
$INSUNITS
 70
     4
  9
$HYPERLINKBASE
  1

  9
$STYLESHEET
  1

  9
$XEDIT
290
     1
  9
$CEPSNTYPE
380
     0
  9
$PSTYLEMODE
290
     1
  9
$FINGERPRINTGUID
  2
{824AD6E6-664E-4005-BDB6-FA2858FA5561}
  9
$VERSIONGUID
  2
{FAEB1C32-E019-11D5-929B-00C0DF256EC4}
  9
$EXTNAMES
290
     1
  9
$PSVPSCALE
 40
0.0
  9
$OLESTARTUP
290
     0
  0
ENDSEC
  0
SECTION
  2
CLASSES
  0
CLASS
  1
ACDBDICTIONARYWDFLT
  2
AcDbDictionaryWithDefault
  3
ObjectDBX Classes
 90
        0
280
     0
281
     0
  0
CLASS
  1
VISUALSTYLE
  2
AcDbVisualStyle
  3
ObjectDBX Classes
 90
     4095
280
     0
281
     0
  0
CLASS
  1
MATERIAL
  2
AcDbMaterial
  3
ObjectDBX Classes
 90
     1153
280
     0
281
     0
  0
CLASS
  1
SCALE
  2
AcDbScale
  3
ObjectDBX Classes
 90
     1153
280
     0
281
     0
  0
CLASS
  1
TABLESTYLE
  2
AcDbTableStyle
  3
ObjectDBX Classes
 90
     4095
280
     0
281
     0
  0
CLASS
  1
MLEADERSTYLE
  2
AcDbMLeaderStyle
  3
ACDB_MLEADERSTYLE_CLASS
 90
     4095
280
     0
281
     0
  0
CLASS
  1
SUN
  2
AcDbSun
  3
SCENEOE
 90
     1153
280
     0
281
     0
  0
CLASS
  1
ACDBPLACEHOLDER
  2
AcDbPlaceHolder
  3
ObjectDBX Classes
 90
        0
280
     0
281
     0
  0
CLASS
  1
LAYOUT
  2
AcDbLayout
  3
ObjectDBX Classes
 90
        0
280
     0
281
     0
  0
ENDSEC
  0
SECTION
  2
TABLES
  0
TABLE
  2
VPORT
  5
8
330
0
100
AcDbSymbolTable
 70
     1
  0
VPORT
  5
29
330
8
100
AcDbSymbolTableRecord
100
AcDbViewportTableRecord
  2
*Active
 70
     0
 10
0.0
 20
0.0
 11
1.0
 21
1.0
 12
148.5
 22
105.0
 13
0.0
 23
0.0
 14
10.0
 24
10.0
 15
10.0
 25
10.0
 16
0.0
 26
0.0
 36
1.0
 17
0.0
 27
0.0
 37
0.0
 40
210.0
 41
1.4142857143
 42
50.0
 43
0.0
 44
0.0
 50
0.0
 51
0.0
 71
     0
 72
  2000
 73
     1
 74
     3
 75
     0
 76
     0
 77
     0
 78
     0
281
     0
 65
     1
110
0.0
120
0.0
130
0.0
111
1.0
121
0.0
131
0.0
112
0.0
122
1.0
132
0.0
 79
     0
146
0.0
  0
ENDTAB
  0
TABLE
  2
LTYPE
  5
5
330
0
100
AcDbSymbolTable
 70
     6
  0
LTYPE
  5
14
330
5
100
AcDbSymbolTableRecord
100
AcDbLinetypeTableRecord
  2
ByBlock
 70
     0
  3

 72
    65
 73
     0
 40
0.0
  0
LTYPE
  5
15
330
5
100
AcDbSymbolTableRecord
100
AcDbLinetypeTableRecord
  2
ByLayer
 70
     0
  3

 72
    65
 73
     0
 40
0.0
  0
LTYPE
  5
16
330
5
100
AcDbSymbolTableRecord
100
AcDbLinetypeTableRecord
  2
Continuous
 70
     0
  3
Solid line
 72
    65
 73
     0
 40
0.0
  0
LTYPE
  5
6E
330
5
100
AcDbSymbolTableRecord
100
AcDbLinetypeTableRecord
  2
HIDDEN
 70
     0
  3
Hidden __ __ __ __ __ __ __ __ __ __ __ __ __ __
 72
    65
 73
     2
 40
1.905
 49
1.27
 74
     0
 49
-0.635
 74
     0
  0
LTYPE
  5
6F
330
5
100
AcDbSymbolTableRecord
100
AcDbLinetypeTableRecord
  2
PHANTOM
 70
     0
  3
Phantom ______  __  __  ______  __  __  ______
 72
    65
 73
     6
 40
12.7
 49
6.35
 74
     0
 49
-1.27
 74
     0
 49
1.27
 74
     0
 49
-1.27
 74
     0
 49
1.27
 74
     0
 49
-1.27
 74
     0
  0
LTYPE
  5
70
330
5
100
AcDbSymbolTableRecord
100
AcDbLinetypeTableRecord
  2
CENTER
 70
     0
  3
Center ____ _ ____ _ ____ _ ____ _ ____ _ ____
 72
    65
 73
     4
 40
10.16
 49
6.35
 74
     0
 49
-1.27
 74
     0
 49
1.27
 74
     0
 49
-1.27
 74
     0
  0
LTYPE
  5
71
330
5
100
AcDbSymbolTableRecord
100
AcDbLinetypeTableRecord
  2
CENTERX2
 70
     0
  3
Center (2x) ________  __  ________  __  _____
 72
    65
 73
     4
 40
20.32
 49
12.7
 74
     0
 49
-2.54
 74
     0
 49
2.54
 74
     0
 49
-2.54
 74
     0
  0
LTYPE
  5
72
330
5
100
AcDbSymbolTableRecord
100
AcDbLinetypeTableRecord
  2
DOT2
 70
     0
  3
Dot (.5x) ........................................
 72
    65
 73
     2
 40
0.635
 49
0.0
 74
     0
 49
-0.635
 74
     0
  0
ENDTAB
  0
TABLE
  2
LAYER
  5
2
330
0
100
AcDbSymbolTable
 70
     5
  0
LAYER
  5
10
330
2
100
AcDbSymbolTableRecord
100
AcDbLayerTableRecord
  2
0
 70
     0
 62
     7
  6
Continuous
370
    -3
390
F
  0
LAYER
  5
73
330
2
100
AcDbSymbolTableRecord
100
AcDbLayerTableRecord
  2
FORMAT
 70
     0
 62
     7
  6
Continuous
370
    -3
390
F
  0
LAYER
  5
74
330
2
100
AcDbSymbolTableRecord
100
AcDbLayerTableRecord
  2
VERMASSUNG
 70
     0
 62
     7
  6
Continuous
370
    -3
390
F
  0
LAYER
  5
75
330
2
100
AcDbSymbolTableRecord
100
AcDbLayerTableRecord
  2
KOPF_DÜNN
 70
     0
 62
     7
  6
Continuous
370
    -3
390
F
  0
LAYER
  5
76
330
2
100
AcDbSymbolTableRecord
100
AcDbLayerTableRecord
  2
KOPF_DICK
 70
     0
 62
     7
  6
Continuous
370
    15
390
F
  0
ENDTAB
  0
TABLE
  2
STYLE
  5
3
330
0
100
AcDbSymbolTable
 70
     2
  0
STYLE
  5
11
330
3
100
AcDbSymbolTableRecord
100
AcDbTextStyleTableRecord
  2
Standard
 70
     0
 40
0.0
 41
1.0
 50
0.0
 71
     0
 42
2.0
  3
txt
  4

  0
STYLE
  5
77
330
3
100
AcDbSymbolTableRecord
100
AcDbTextStyleTableRecord
  2
SLDTEXTSTYLE0
 70
     0
 40
0.0
 41
0.7
 50
0.0
 71
     0
 42
2.0
  3
TXT
  4

  0
ENDTAB
  0
TABLE
  2
VIEW
  5
6
330
0
100
AcDbSymbolTable
 70
     0
  0
ENDTAB
  0
TABLE
  2
UCS
  5
7
330
0
100
AcDbSymbolTable
 70
     0
  0
ENDTAB
  0
TABLE
  2
APPID
  5
9
330
0
100
AcDbSymbolTable
 70
     1
  0
APPID
  5
12
330
9
100
AcDbSymbolTableRecord
100
AcDbRegAppTableRecord
  2
ACAD
 70
     0
  0
ENDTAB
  0
TABLE
  2
DIMSTYLE
  5
A
330
0
100
AcDbSymbolTable
 70
     2
100
AcDbDimStyleTable
  0
DIMSTYLE
105
27
330
A
100
AcDbSymbolTableRecord
100
AcDbDimStyleTableRecord
  2
ISO-25
 70
     0
 41
2.5
 42
0.625
 43
3.75
 44
1.25
 73
     0
 74
     0
 77
     1
 78
     8
140
2.5
141
2.5
143
0.0393700787
147
0.625
171
     3
172
     1
178
     0
271
     2
272
     2
274
     3
278
    44
283
     0
284
     8
340
11
  0
DIMSTYLE
105
1F2
102
{ACAD_REACTORS
330
1F1
330
1FE
330
208
330
212
330
21C
330
227
102
}
330
A
100
AcDbSymbolTableRecord
100
AcDbDimStyleTableRecord
  2
SLDDIMSTYLE0
 70
     0
 41
3.0
 44
0.0
 45
0.000000001
 73
     0
 74
     0
 77
     1
 78
    12
 79
     3
140
2.0
147
0.5
173
     1
178
     0
271
     2
272
     3
276
     2
284
    12
340
77
  0
ENDTAB
  0
TABLE
  2
BLOCK_RECORD
  5
1
330
0
100
AcDbSymbolTable
 70
     7
  0
BLOCK_RECORD
  5
1F
330
1
100
AcDbSymbolTableRecord
100
AcDbBlockTableRecord
  2
*Model_Space
340
22
  0
BLOCK_RECORD
  5
1B
330
1
100
AcDbSymbolTableRecord
100
AcDbBlockTableRecord
  2
*Paper_Space
340
1E
  0
BLOCK_RECORD
  5
23
330
1
100
AcDbSymbolTableRecord
100
AcDbBlockTableRecord
  2
*Paper_Space0
340
26
  0
BLOCK_RECORD
  5
1F3
330
1
100
AcDbSymbolTableRecord
100
AcDbBlockTableRecord
  2
_D
340
0
  0
BLOCK_RECORD
  5
1FF
330
1
100
AcDbSymbolTableRecord
100
AcDbBlockTableRecord
  2
_D_1
340
0
  0
BLOCK_RECORD
  5
209
330
1
100
AcDbSymbolTableRecord
100
AcDbBlockTableRecord
  2
_D_2
340
0
  0
BLOCK_RECORD
  5
213
330
1
100
AcDbSymbolTableRecord
100
AcDbBlockTableRecord
  2
_D_3
340
0
  0
BLOCK_RECORD
  5
21D
330
1
100
AcDbSymbolTableRecord
100
AcDbBlockTableRecord
  2
_D_4
340
0
  0
BLOCK_RECORD
  5
228
330
1
100
AcDbSymbolTableRecord
100
AcDbBlockTableRecord
  2
_D_5
340
0
  0
ENDTAB
  0
ENDSEC
  0
SECTION
  2
BLOCKS
  0
BLOCK
  5
20
330
1F
100
AcDbEntity
  8
0
100
AcDbBlockBegin
  2
*Model_Space
 70
     0
 10
0.0
 20
0.0
 30
0.0
  3
*Model_Space
  1

  0
ENDBLK
  5
21
330
1F
100
AcDbEntity
  8
0
100
AcDbBlockEnd
  0
BLOCK
  5
1C
330
1B
100
AcDbEntity
 67
     1
  8
0
100
AcDbBlockBegin
  2
*Paper_Space
 70
     0
 10
0.0
 20
0.0
 30
0.0
  3
*Paper_Space
  1

  0
ENDBLK
  5
1D
330
1B
100
AcDbEntity
 67
     1
  8
0
100
AcDbBlockEnd
  0
BLOCK
  5
24
330
23
100
AcDbEntity
  8
0
100
AcDbBlockBegin
  2
*Paper_Space0
 70
     0
 10
0.0
 20
0.0
 30
0.0
  3
*Paper_Space0
  1

  0
ENDBLK
  5
25
330
23
100
AcDbEntity
  8
0
100
AcDbBlockEnd
  0
BLOCK
  5
1F4
330
1F3
100
AcDbEntity
  8
0
100
AcDbBlockBegin
  2
_D
 70
     0
 10
0.0
 20
0.0
 30
0.0
  3
_D
  1

  0
SOLID
  5
1F6
330
1F3
100
AcDbEntity
  8
VERMASSUNG
100
AcDbTrace
 10
26.2258648761
 20
70.1901069271
 30
0.0
 11
26.6758648761
 21
73.1901069271
 31
0.0
 12
25.7758648761
 22
73.1901069271
 32
0.0
 13
25.7758648761
 23
73.1901069271
 33
0.0
  0
SOLID
  5
1F7
330
1F3
100
AcDbEntity
  8
VERMASSUNG
100
AcDbTrace
 10
26.2258648761
 20
167.6401069271
 30
0.0
 11
25.7758648761
 21
164.6401069271
 31
0.0
 12
26.6758648761
 22
164.6401069271
 32
0.0
 13
26.6758648761
 23
164.6401069271
 33
0.0
  0
LINE
  5
1F8
330
1F3
100
AcDbEntity
  8
VERMASSUNG
100
AcDbLine
 10
156.2758648761
 20
70.1901069271
 30
0.0
 11
25.2258648761
 21
70.1901069271
 31
0.0
  0
LINE
  5
1F9
330
1F3
100
AcDbEntity
  8
VERMASSUNG
100
AcDbLine
 10
156.2758648761
 20
167.6401069271
 30
0.0
 11
25.2258648761
 21
167.6401069271
 31
0.0
  0
LINE
  5
1FA
330
1F3
100
AcDbEntity
  8
VERMASSUNG
100
AcDbLine
 10
26.2258648761
 20
70.1901069271
 30
0.0
 11
26.2258648761
 21
167.6401069271
 31
0.0
  0
MTEXT
  5
1FB
330
1F3
100
AcDbEntity
  8
VERMASSUNG
100
AcDbMText
 10
23.4477296199
 20
109.4106712938
 30
0.0
 40
2.0
 41
0.0
 71
     1
 72
     1
  1
ISO 50
  7
SLDTEXTSTYLE0
 11
3.391901413832837E-15
 21
1.0
 31
0.0
 73
     1
 44
1.0
  0
MTEXT
  5
1FC
330
1F3
100
AcDbEntity
  8
VERMASSUNG
100
AcDbMText
 10
23.6477295712
 20
118.4106709063
 30
0.0
 40
2.0
 41
0.0
 71
     1
 72
     1
  1
%%c
  7
SLDTEXTSTYLE0
 11
3.391901413832837E-15
 21
1.0
 31
0.0
 73
     1
 44
1.0
  0
MTEXT
  5
1FD
330
1F3
100
AcDbEntity
  8
VERMASSUNG
100
AcDbMText
 10
23.6477292801
 20
122.0200142392
 30
0.0
 40
2.0
 41
0.0
 71
     1
 72
     1
  1
97.45
  7
SLDTEXTSTYLE0
 11
3.391901413832837E-15
 21
1.0
 31
0.0
 73
     1
 44
1.0
  0
ENDBLK
  5
1F5
330
1F3
100
AcDbEntity
  8
0
100
AcDbBlockEnd
  0
BLOCK
  5
200
330
1FF
100
AcDbEntity
  8
0
100
AcDbBlockBegin
  2
_D_1
 70
     0
 10
0.0
 20
0.0
 30
0.0
  3
_D_1
  1

  0
SOLID
  5
202
330
1FF
100
AcDbEntity
  8
VERMASSUNG
100
AcDbTrace
 10
36.2258648761
 20
185.4954685891
 30
0.0
 11
39.2258648761
 21
185.0454685891
 31
0.0
 12
39.2258648761
 22
185.9454685891
 32
0.0
 13
39.2258648761
 23
185.9454685891
 33
0.0
  0
SOLID
  5
203
330
1FF
100
AcDbEntity
  8
VERMASSUNG
100
AcDbTrace
 10
257.8258648761
 20
185.4954685891
 30
0.0
 11
254.8258648761
 21
185.9454685891
 31
0.0
 12
254.8258648761
 22
185.0454685891
 32
0.0
 13
254.8258648761
 23
185.0454685891
 33
0.0
  0
LINE
  5
204
330
1FF
100
AcDbEntity
  8
VERMASSUNG
100
AcDbLine
 10
36.2258648761
 20
137.2939514545
 30
0.0
 11
36.2258648761
 21
186.4954685891
 31
0.0
  0
LINE
  5
205
330
1FF
100
AcDbEntity
  8
VERMASSUNG
100
AcDbLine
 10
257.8258648761
 20
143.4151069271
 30
0.0
 11
257.8258648761
 21
186.4954685891
 31
0.0
  0
LINE
  5
206
330
1FF
100
AcDbEntity
  8
VERMASSUNG
100
AcDbLine
 10
36.2258648761
 20
185.4954685891
 30
0.0
 11
257.8258648761
 21
185.4954685891
 31
0.0
  0
MTEXT
  5
207
330
1FF
100
AcDbEntity
  8
VERMASSUNG
100
AcDbMText
 10
144.125864913
 20
188.073604185
 30
0.0
 40
2.0
 41
0.0
 71
     1
 72
     1
  1
221.6
  7
SLDTEXTSTYLE0
 73
     1
 44
1.0
  0
ENDBLK
  5
201
330
1FF
100
AcDbEntity
  8
0
100
AcDbBlockEnd
  0
BLOCK
  5
20A
330
209
100
AcDbEntity
  8
0
100
AcDbBlockBegin
  2
_D_2
 70
     0
 10
0.0
 20
0.0
 30
0.0
  3
_D_2
  1

  0
SOLID
  5
20C
330
209
100
AcDbEntity
  8
VERMASSUNG
100
AcDbTrace
 10
137.8258648761
 20
179.4954685891
 30
0.0
 11
140.8258648761
 21
179.0454685891
 31
0.0
 12
140.8258648761
 22
179.9454685891
 32
0.0
 13
140.8258648761
 23
179.9454685891
 33
0.0
  0
SOLID
  5
20D
330
209
100
AcDbEntity
  8
VERMASSUNG
100
AcDbTrace
 10
257.8258648761
 20
179.4954685891
 30
0.0
 11
254.8258648761
 21
179.9454685891
 31
0.0
 12
254.8258648761
 22
179.0454685891
 32
0.0
 13
254.8258648761
 23
179.0454685891
 33
0.0
  0
LINE
  5
20E
330
209
100
AcDbEntity
  8
VERMASSUNG
100
AcDbLine
 10
137.8258648761
 20
153.8401069271
 30
0.0
 11
137.8258648761
 21
180.4954685891
 31
0.0
  0
LINE
  5
20F
330
209
100
AcDbEntity
  8
VERMASSUNG
100
AcDbLine
 10
257.8258648761
 20
143.4151069271
 30
0.0
 11
257.8258648761
 21
180.4954685891
 31
0.0
  0
LINE
  5
210
330
209
100
AcDbEntity
  8
VERMASSUNG
100
AcDbLine
 10
137.8258648761
 20
179.4954685891
 30
0.0
 11
257.8258648761
 21
179.4954685891
 31
0.0
  0
MTEXT
  5
211
330
209
100
AcDbEntity
  8
VERMASSUNG
100
AcDbMText
 10
195.925864844
 20
182.073604185
 30
0.0
 40
2.0
 41
0.0
 71
     1
 72
     1
  1
120
  7
SLDTEXTSTYLE0
 73
     1
 44
1.0
  0
ENDBLK
  5
20B
330
209
100
AcDbEntity
  8
0
100
AcDbBlockEnd
  0
BLOCK
  5
214
330
213
100
AcDbEntity
  8
0
100
AcDbBlockBegin
  2
_D_3
 70
     0
 10
0.0
 20
0.0
 30
0.0
  3
_D_3
  1

  0
SOLID
  5
216
330
213
100
AcDbEntity
  8
VERMASSUNG
100
AcDbTrace
 10
156.8758648761
 20
173.4954685891
 30
0.0
 11
159.8758648761
 21
173.0454685891
 31
0.0
 12
159.8758648761
 22
173.9454685891
 32
0.0
 13
159.8758648761
 23
173.9454685891
 33
0.0
  0
SOLID
  5
217
330
213
100
AcDbEntity
  8
VERMASSUNG
100
AcDbTrace
 10
257.8258648761
 20
173.4954685891
 30
0.0
 11
254.8258648761
 21
173.9454685891
 31
0.0
 12
254.8258648761
 22
173.0454685891
 32
0.0
 13
254.8258648761
 23
173.0454685891
 33
0.0
  0
LINE
  5
218
330
213
100
AcDbEntity
  8
VERMASSUNG
100
AcDbLine
 10
156.8758648761
 20
156.6641880418
 30
0.0
 11
156.8758648761
 21
174.4954685891
 31
0.0
  0
LINE
  5
219
330
213
100
AcDbEntity
  8
VERMASSUNG
100
AcDbLine
 10
257.8258648761
 20
143.4151069271
 30
0.0
 11
257.8258648761
 21
174.4954685891
 31
0.0
  0
LINE
  5
21A
330
213
100
AcDbEntity
  8
VERMASSUNG
100
AcDbLine
 10
156.8758648761
 20
173.4954685891
 30
0.0
 11
257.8258648761
 21
173.4954685891
 31
0.0
  0
MTEXT
  5
21B
330
213
100
AcDbEntity
  8
VERMASSUNG
100
AcDbMText
 10
203.7508649379
 20
176.073604185
 30
0.0
 40
2.0
 41
0.0
 71
     1
 72
     1
  1
100.95
  7
SLDTEXTSTYLE0
 73
     1
 44
1.0
  0
ENDBLK
  5
215
330
213
100
AcDbEntity
  8
0
100
AcDbBlockEnd
  0
BLOCK
  5
21E
330
21D
100
AcDbEntity
  8
0
100
AcDbBlockBegin
  2
_D_4
 70
     0
 10
0.0
 20
0.0
 30
0.0
  3
_D_4
  1

  0
SOLID
  5
220
330
21D
100
AcDbEntity
  8
VERMASSUNG
100
AcDbTrace
 10
267.8258648761
 20
132.9151069271
 30
0.0
 11
267.3758648761
 21
129.9151069271
 31
0.0
 12
268.2758648761
 22
129.9151069271
 32
0.0
 13
268.2758648761
 23
129.9151069271
 33
0.0
  0
SOLID
  5
221
330
21D
100
AcDbEntity
  8
VERMASSUNG
100
AcDbTrace
 10
267.8258648761
 20
104.9151069271
 30
0.0
 11
268.2758648761
 21
107.9151069271
 31
0.0
 12
267.3758648761
 22
107.9151069271
 32
0.0
 13
267.3758648761
 23
107.9151069271
 33
0.0
  0
LINE
  5
222
330
21D
100
AcDbEntity
  8
VERMASSUNG
100
AcDbLine
 10
256.8258648761
 20
132.9151069271
 30
0.0
 11
268.8258648761
 21
132.9151069271
 31
0.0
  0
LINE
  5
223
330
21D
100
AcDbEntity
  8
VERMASSUNG
100
AcDbLine
 10
256.8258648761
 20
104.9151069271
 30
0.0
 11
268.8258648761
 21
104.9151069271
 31
0.0
  0
LINE
  5
224
330
21D
100
AcDbEntity
  8
VERMASSUNG
100
AcDbLine
 10
267.8258648761
 20
132.9151069271
 30
0.0
 11
267.8258648761
 21
104.9151069271
 31
0.0
  0
MTEXT
  5
225
330
21D
100
AcDbEntity
  8
VERMASSUNG
100
AcDbMText
 10
265.2477295712
 20
115.7101069699
 30
0.0
 40
2.0
 41
0.0
 71
     1
 72
     1
  1
%%c
  7
SLDTEXTSTYLE0
 11
-7.044195017643634E-15
 21
1.0
 31
0.0
 73
     1
 44
1.0
  0
MTEXT
  5
226
330
21D
100
AcDbEntity
  8
VERMASSUNG
100
AcDbMText
 10
265.0477296199
 20
119.3201069842
 30
0.0
 40
2.0
 41
0.0
 71
     1
 72
     1
  1
28
  7
SLDTEXTSTYLE0
 11
-7.044195017643634E-15
 21
1.0
 31
0.0
 73
     1
 44
1.0
  0
ENDBLK
  5
21F
330
21D
100
AcDbEntity
  8
0
100
AcDbBlockEnd
  0
BLOCK
  5
229
330
228
100
AcDbEntity
  8
0
100
AcDbBlockBegin
  2
_D_5
 70
     0
 10
0.0
 20
0.0
 30
0.0
  3
_D_5
  1

  0
SOLID
  5
22B
330
228
100
AcDbEntity
  8
VERMASSUNG
100
AcDbTrace
 10
273.8258648761
 20
143.9151069271
 30
0.0
 11
273.3758648761
 21
140.9151069271
 31
0.0
 12
274.2758648761
 22
140.9151069271
 32
0.0
 13
274.2758648761
 23
140.9151069271
 33
0.0
  0
SOLID
  5
22C
330
228
100
AcDbEntity
  8
VERMASSUNG
100
AcDbTrace
 10
273.8258648761
 20
93.9151069271
 30
0.0
 11
274.2758648761
 21
96.9151069271
 31
0.0
 12
273.3758648761
 22
96.9151069271
 32
0.0
 13
273.3758648761
 23
96.9151069271
 33
0.0
  0
LINE
  5
22D
330
228
100
AcDbEntity
  8
VERMASSUNG
100
AcDbLine
 10
257.3258648761
 20
143.9151069271
 30
0.0
 11
274.8258648761
 21
143.9151069271
 31
0.0
  0
LINE
  5
22E
330
228
100
AcDbEntity
  8
VERMASSUNG
100
AcDbLine
 10
257.3258648761
 20
93.9151069271
 30
0.0
 11
274.8258648761
 21
93.9151069271
 31
0.0
  0
LINE
  5
22F
330
228
100
AcDbEntity
  8
VERMASSUNG
100
AcDbLine
 10
273.8258648761
 20
143.9151069271
 30
0.0
 11
273.8258648761
 21
93.9151069271
 31
0.0
  0
MTEXT
  5
230
330
228
100
AcDbEntity
  8
VERMASSUNG
100
AcDbMText
 10
271.0477296199
 20
113.2101070258
 30
0.0
 40
2.0
 41
0.0
 71
     1
 72
     1
  1
WH
  7
SLDTEXTSTYLE0
 11
-7.044195017643634E-15
 21
1.0
 31
0.0
 73
     1
 44
1.0
  0
MTEXT
  5
231
330
228
100
AcDbEntity
  8
VERMASSUNG
100
AcDbMText
 10
271.2477295712
 20
118.210106914
 30
0.0
 40
2.0
 41
0.0
 71
     1
 72
     1
  1
%%c
  7
SLDTEXTSTYLE0
 11
-7.044195017643634E-15
 21
1.0
 31
0.0
 73
     1
 44
1.0
  0
MTEXT
  5
232
330
228
100
AcDbEntity
  8
VERMASSUNG
100
AcDbMText
 10
271.0477296199
 20
121.8201069283
 30
0.0
 40
2.0
 41
0.0
 71
     1
 72
     1
  1
50
  7
SLDTEXTSTYLE0
 11
-7.044195017643634E-15
 21
1.0
 31
0.0
 73
     1
 44
1.0
  0
ENDBLK
  5
22A
330
228
100
AcDbEntity
  8
0
100
AcDbBlockEnd
  0
ENDSEC
  0
SECTION
  2
ENTITIES
  0
MTEXT
  5
78
330
1F
100
AcDbEntity
  8
KOPF_DÜNN
100
AcDbMText
 10
13.8892156294
 20
23.8442973028
 30
0.0
 40
3.0
 41
0.0
 71
     1
 72
     1
  1
A14.450.050.120
  7
SLDTEXTSTYLE0
 73
     1
 44
1.0
  0
MTEXT
  5
79
330
1F
100
AcDbEntity
  8
VERMASSUNG
100
AcDbMText
 10
13.9329988022
 20
28.8834360957
 30
0.0
 40
3.0
 41
0.0
 71
     1
 72
     1
  1
Aufnahme_Master shank WH50
  7
SLDTEXTSTYLE0
 73
     1
 44
1.0
  0
MTEXT
  5
7A
330
1F
100
AcDbEntity
  8
VERMASSUNG
100
AcDbMText
 10
98.8601118557
 20
13.8365368761
 30
0.0
 40
2.0
 41
0.0
 71
     1
 72
     1
  1
Datum: 17.11.2011
  7
SLDTEXTSTYLE0
 73
     1
 44
1.0
  0
MTEXT
  5
7B
330
1F
100
AcDbEntity
  8
VERMASSUNG
100
AcDbMText
 10
13.933048693
 20
18.0482802738
 30
0.0
 40
2.0
 41
0.0
 71
     1
 72
     1
  1
DIN 69871 AD/B
  7
SLDTEXTSTYLE0
 73
     1
 44
1.0
  0
MTEXT
  5
7C
330
1F
100
AcDbEntity
  8
VERMASSUNG
100
AcDbMText
 10
13.9808475933
 20
13.9090974274
 30
0.0
 40
2.0
 41
0.0
 71
     1
 72
     1
  1
Gewicht: 3999g
  7
SLDTEXTSTYLE0
 73
     1
 44
1.0
  0
ARC
  5
7D
330
1F
100
AcDbEntity
  8
0
  6
Continuous
 62
     7
370
    15
100
AcDbCircle
 10
140.4258648761
 20
83.3901069271
 30
0.0
 40
0.5999999999999943
100
AcDbArc
 50
0.0
 51
90.0
  0
ARC
  5
7E
330
1F
100
AcDbEntity
  8
0
  6
Continuous
 62
     7
370
    15
100
AcDbCircle
 10
140.4258648761
 20
154.4401069271
 30
0.0
 40
0.6000000000000227
100
AcDbArc
 50
270.0
 51
0.0
  0
LINE
  5
7F
330
1F
100
AcDbEntity
  8
0
  6
Continuous
 62
     7
370
    15
100
AcDbLine
 10
137.8258648761
 20
153.8401058066
 30
0.0
 11
37.9372495659
 21
139.2730174708
 31
0.0
  0
LINE
  5
80
330
1F
100
AcDbEntity
  8
0
  6
Continuous
 62
     7
370
    15
100
AcDbLine
 10
37.9372495659
 20
98.5571963835
 30
0.0
 11
137.8258648761
 21
83.9901080477
 31
0.0
  0
LINE
  5
81
330
1F
100
AcDbEntity
  8
0
  6
Continuous
 62
     7
370
    15
100
AcDbLine
 10
137.8258648761
 20
83.9901080477
 30
0.0
 11
140.4258648832
 21
83.9901080477
 31
0.0
  0
LINE
  5
82
330
1F
100
AcDbEntity
  8
0
  6
Continuous
 62
     7
370
    15
100
AcDbLine
 10
140.4258648832
 20
153.8401058066
 30
0.0
 11
137.8258648761
 21
153.8401058066
 31
0.0
  0
ARC
  5
83
330
1F
100
AcDbEntity
  8
0
  6
Continuous
 62
     7
370
    15
100
AcDbCircle
 10
159.8758648761
 20
90.9151069271
 30
0.0
 40
3.0
100
AcDbArc
 50
90.0
 51
180.0
  0
ARC
  5
84
330
1F
100
AcDbEntity
  8
0
  6
Continuous
 62
     7
370
    15
100
AcDbCircle
 10
159.8758648761
 20
146.9151069271
 30
0.0
 40
3.0
100
AcDbArc
 50
180.0
 51
270.0
  0
LINE
  5
85
330
1F
100
AcDbEntity
  8
0
  6
Continuous
 62
     7
370
    15
100
AcDbLine
 10
236.5879225977
 20
143.9151072997
 30
0.0
 11
159.8758656033
 21
143.9151072997
 31
0.0
  0
LINE
  5
86
330
1F
100
AcDbEntity
  8
0
  6
Continuous
 62
     7
370
    15
100
AcDbLine
 10
257.3258611806
 20
143.9151072997
 30
0.0
 11
250.9414810188
 21
143.9151072997
 31
0.0
  0
LINE
  5
87
330
1F
100
AcDbEntity
  8
0
  6
Continuous
 62
     7
370
    15
100
AcDbLine
 10
159.8758656033
 20
93.9151065546
 30
0.0
 11
257.3258611806
 21
93.9151065546
 31
0.0
  0
LINE
  5
88
330
1F
100
AcDbEntity
  8
0
  6
Continuous
 62
     7
370
    15
100
AcDbLine
 10
257.3258611806
 20
93.9151065546
 30
0.0
 11
257.8258621939
 21
94.4151075679
 31
0.0
  0
LINE
  5
89
330
1F
100
AcDbEntity
  8
0
  6
Continuous
 62
     7
370
    15
100
AcDbLine
 10
257.8258621939
 20
143.4151062864
 30
0.0
 11
257.3258611806
 21
143.9151072997
 31
0.0
  0
ARC
  5
8A
330
1F
100
AcDbEntity
  8
0
  6
Continuous
 62
     7
370
    15
100
AcDbCircle
 10
38.2258648761
 20
100.5362623998
 30
0.0
 40
2.000000000000006
100
AcDbArc
 50
180.0
 51
261.7028550302
  0
ARC
  5
8B
330
1F
100
AcDbEntity
  8
0
  6
Continuous
 62
     7
370
    15
100
AcDbCircle
 10
38.2258648761
 20
137.2939514545
 30
0.0
 40
2.00000000000002
100
AcDbArc
 50
98.2971449698
 51
180.0
  0
LINE
  5
8C
330
1F
100
AcDbEntity
  8
0
  6
Continuous
 62
     7
370
    15
100
AcDbLine
 10
249.3995312102
 20
143.5914373147
 30
0.0
 11
249.0758630879
 21
143.9151072997
 31
0.0
  0
LINE
  5
8D
330
1F
100
AcDbEntity
  8
0
  6
Continuous
 62
     7
370
    15
100
AcDbLine
 10
238.475862468
 20
143.9151072997
 30
0.0
 11
238.1507638343
 21
143.5900086659
 31
0.0
  0
ARC
  5
8E
330
1F
100
AcDbEntity
  8
0
  6
Continuous
 62
     7
370
    15
100
AcDbCircle
 10
152.0258648761
 20
104.4493649652
 30
0.0
 40
2.00000000000002
100
AcDbArc
 50
192.2156859342
 51
340.5387464665
  0
LINE
  5
8F
330
1F
100
AcDbEntity
  8
0
  6
Continuous
 62
     7
370
    15
100
AcDbLine
 10
141.6258649401
 20
72.1858477342
 30
0.0
 11
145.692703823
 21
72.1858477342
 31
0.0
  0
LINE
  5
90
330
1F
100
AcDbEntity
  8
0
  6
Continuous
 62
     7
370
    15
100
AcDbLine
 10
145.692703823
 20
148.7651074427
 30
0.0
 11
141.6258649401
 21
148.7651074427
 31
0.0
  0
LINE
  5
91
330
1F
100
AcDbEntity
  8
0
  6
Continuous
 62
     7
370
    15
100
AcDbLine
 10
145.692703823
 20
72.1858477342
 30
0.0
 11
145.692703823
 21
148.7651074427
 31
0.0
  0
LINE
  5
92
330
1F
100
AcDbEntity
  8
0
  6
Continuous
 62
     7
370
    15
100
AcDbLine
 10
152.1590264015
 20
104.6179596457
 30
0.0
 11
152.1590264015
 21
148.7651074427
 31
0.0
  0
LINE
  5
93
330
1F
100
AcDbEntity
  8
0
  6
Continuous
 62
     7
370
    15
100
AcDbLine
 10
156.2758642681
 20
148.7651074427
 30
0.0
 11
152.1590264015
 21
148.7651074427
 31
0.0
  0
LINE
  5
94
330
1F
100
AcDbEntity
  8
0
  6
Continuous
 62
     7
370
    15
100
AcDbLine
 10
152.1590264015
 20
72.1858477342
 30
0.0
 11
156.2758642681
 21
72.1858477342
 31
0.0
  0
LINE
  5
95
330
1F
100
AcDbEntity
  8
0
  6
Continuous
 62
     7
370
    15
100
AcDbLine
 10
152.1590264015
 20
72.1858477342
 30
0.0
 11
152.1590264015
 21
99.9261660623
 31
0.0
  0
SPLINE
  5
96
330
1F
100
AcDbEntity
  8
0
  6
Continuous
 62
     7
370
    15
100
AcDbSpline
210
0.0
220
0.0
230
1.0
 70
     8
 71
     3
 72
    34
 73
    30
 74
     0
 42
0.000000001
 43
0.00000001
 40
0.0
 40
0.0
 40
0.0
 40
0.0
 40
0.0624999999999989
 40
0.0624999999999989
 40
0.1249999999999978
 40
0.1249999999999978
 40
0.1874999999999968
 40
0.1874999999999968
 40
0.2499999999999962
 40
0.2499999999999962
 40
0.3124999999999957
 40
0.3124999999999957
 40
0.3749999999999952
 40
0.3749999999999952
 40
0.499999999999995
 40
0.499999999999995
 40
0.6249999999999948
 40
0.6249999999999948
 40
0.6874999999999954
 40
0.6874999999999954
 40
0.749999999999996
 40
0.749999999999996
 40
0.8124999999999966
 40
0.8124999999999966
 40
0.8749999999999977
 40
0.8749999999999977
 40
0.9374999999999989
 40
0.9374999999999989
 40
1.0
 40
1.0
 40
1.0
 40
1.0
 10
152.1590263835365
 20
99.92616653914374
 30
0.0
 10
152.3184182113244
 20
99.93400663506652
 30
0.0
 10
152.474420694768
 20
99.95566528315696
 30
0.0
 10
152.7799302108452
 20
100.0255135106498
 30
0.0
 10
152.9308245458574
 20
100.074339212978
 30
0.0
 10
153.2187238905482
 20
100.1972631663853
 30
0.0
 10
153.354670293508
 20
100.2705706745196
 30
0.0
 10
153.6108529091
 20
100.440581298291
 30
0.0
 10
153.7320351968591
 20
100.5384550904924
 30
0.0
 10
153.9491812687318
 20
100.7510392659244
 30
0.0
 10
154.0461431416922
 20
100.866085204454
 30
0.0
 10
154.2167055775177
 20
101.1139463245741
 30
0.0
 10
154.2899456307297
 20
101.2469798216397
 30
0.0
 10
154.4648260874785
 20
101.6564878377699
 30
0.0
 10
154.5258640484545
 20
101.9544484875449
 30
0.0
 10
154.5258657036775
 20
102.5458900434194
 30
0.0
 10
154.4648310940913
 20
102.846063593396
 30
0.0
 10
154.2899413266893
 20
103.2612948736637
 30
0.0
 10
154.216697621265
 20
103.3966499919106
 30
0.0
 10
154.0461369055283
 20
103.6495493232972
 30
0.0
 10
153.9491731899348
 20
103.767314600905
 30
0.0
 10
153.7320128613476
 20
103.9854448962736
 30
0.0
 10
153.6108316026608
 20
104.0861482214206
 30
0.0
 10
153.3546613757221
 20
104.2613919142538
 30
0.0
 10
153.2187180260593
 20
104.3371368833444
 30
0.0
 10
152.9308153228762
 20
104.4643052586467
 30
0.0
 10
152.7799251269595
 20
104.5149065309741
 30
0.0
 10
152.4744196232539
 20
104.587335630722
 30
0.0
 10
152.3184182249904
 20
104.609821402119
 30
0.0
 10
152.1590263835365
 20
104.6179598620138
 30
0.0
  0
LINE
  5
97
330
1F
100
AcDbEntity
  8
0
  6
Continuous
 62
     7
370
    15
100
AcDbLine
 10
150.8358647548
 20
105.117845175
 30
0.0
 11
150.8358647548
 21
148.7651074427
 31
0.0
  0
SPLINE
  5
98
330
1F
100
AcDbEntity
  8
0
  6
Continuous
 62
     7
370
    15
100
AcDbSpline
210
0.0
220
0.0
230
1.0
 70
    24
 71
     3
 72
     8
 73
     4
 74
     0
 42
0.000000001
 43
0.00000001
 40
0.0
 40
0.0
 40
0.0
 40
0.0
 40
1.0
 40
1.0
 40
1.0
 40
1.0
 10
152.1590263835365
 20
148.7651069271449
 30
0.0
 10
151.7124246635172
 20
148.7651069271449
 30
0.0
 10
151.2710649807783
 20
148.7651069271449
 30
0.0
 10
150.8358648760747
 20
148.7651069271449
 30
0.0
  0
SPLINE
  5
99
330
1F
100
AcDbEntity
  8
0
  6
Continuous
 62
     7
370
    15
100
AcDbSpline
210
0.0
220
0.0
230
1.0
 70
     8
 71
     3
 72
    10
 73
     6
 74
     0
 42
0.000000001
 43
0.00000001
 40
0.0
 40
0.0
 40
0.0
 40
0.0
 40
0.5
 40
0.5
 40
1.0
 40
1.0
 40
1.0
 40
1.0
 10
152.1590263835365
 20
104.6179598620138
 30
0.0
 10
151.9362993566631
 20
104.7614483623076
 30
0.0
 10
151.714613469438
 20
104.8761691080405
 30
0.0
 10
151.273392631586
 20
105.0459295373983
 30
0.0
 10
151.0538339841872
 20
105.1013495317857
 30
0.0
 10
150.8358648760749
 20
105.1178448611554
 30
0.0
  0
SPLINE
  5
9A
330
1F
100
AcDbEntity
  8
0
  6
Continuous
 62
     7
370
    15
100
AcDbSpline
210
0.0
220
0.0
230
1.0
 70
     8
 71
     3
 72
    10
 73
     6
 74
     0
 42
0.000000001
 43
0.00000001
 40
0.0
 40
0.0
 40
0.0
 40
0.0
 40
0.5
 40
0.5
 40
1.0
 40
1.0
 40
1.0
 40
1.0
 10
141.2415249072287
 20
72.2816526599527
 30
0.0
 10
141.2901754758083
 20
72.25369566868528
 30
0.0
 10
141.3475606877677
 20
72.22975338365849
 30
0.0
 10
141.4782737959338
 20
72.19563492056274
 30
0.0
 10
141.5510133296724
 20
72.18584758579891
 30
0.0
 10
141.6258648760746
 20
72.18584758579891
 30
0.0
  0
SPLINE
  5
9B
330
1F
100
AcDbEntity
  8
0
  6
Continuous
 62
     7
370
    15
100
AcDbSpline
210
0.0
220
0.0
230
1.0
 70
     8
 71
     3
 72
    10
 73
     6
 74
     0
 42
0.000000001
 43
0.00000001
 40
0.0
 40
0.0
 40
0.0
 40
0.0
 40
0.5
 40
0.5
 40
1.0
 40
1.0
 40
1.0
 40
1.0
 10
141.2415249072287
 20
72.28165265995268
 30
0.0
 10
141.1833369006465
 20
72.3492363901315
 30
0.0
 10
141.1308944341202
 20
72.42971262477327
 30
0.0
 10
141.0525421269415
 20
72.61274824775599
 30
0.0
 10
141.0258648760746
 20
72.71862395055162
 30
0.0
 10
141.0258648760746
 20
72.82613725977222
 30
0.0
  0
LINE
  5
9C
330
1F
100
AcDbEntity
  8
0
  6
Continuous
 62
     7
370
    15
100
AcDbLine
 10
141.0258647952
 20
72.8261357295
 30
0.0
 11
141.0258647952
 21
148.7651074427
 31
0.0
  0
SPLINE
  5
9D
330
1F
100
AcDbEntity
  8
0
  6
Continuous
 62
     7
370
    15
100
AcDbSpline
210
0.0
220
0.0
230
1.0
 70
    24
 71
     3
 72
    14
 73
    10
 74
     0
 42
0.000000001
 43
0.00000001
 40
0.0
 40
0.0
 40
0.0
 40
0.0
 40
0.25
 40
0.25
 40
0.5
 40
0.5
 40
0.75
 40
0.75
 40
1.0
 40
1.0
 40
1.0
 40
1.0
 10
141.6258648760746
 20
148.7651069271449
 30
0.0
 10
141.536842923731
 20
148.7651069271449
 30
0.0
 10
141.4471562244574
 20
148.7651069271449
 30
0.0
 10
141.2934293989001
 20
148.7651069271449
 30
0.0
 10
141.2282245042733
 20
148.7651069271449
 30
0.0
 10
141.1256338101029
 20
148.7651069271449
 30
0.0
 10
141.087996355787
 20
148.7651069271449
 30
0.0
 10
141.0379044404018
 20
148.7651069271449
 30
0.0
 10
141.0258648760746
 20
148.7651069271449
 30
0.0
 10
141.0258648760746
 20
148.7651069271449
 30
0.0
  0
SPLINE
  5
9E
330
1F
100
AcDbEntity
  8
0
  6
Continuous
 62
     7
370
    15
100
AcDbSpline
210
0.0
220
0.0
230
1.0
 70
     8
 71
     3
 72
     8
 73
     4
 74
     0
 42
0.000000001
 43
0.00000001
 40
0.0
 40
0.0
 40
0.0
 40
0.0
 40
1.0
 40
1.0
 40
1.0
 40
1.0
 10
147.0158648760747
 20
74.29536751831515
 30
0.0
 10
146.7261364300501
 20
73.77314750815161
 30
0.0
 10
146.4361112798323
 20
73.25109412589164
 30
0.0
 10
146.1458170455705
 20
72.72919186016854
 30
0.0
  0
SPLINE
  5
9F
330
1F
100
AcDbEntity
  8
0
  6
Continuous
 62
     7
370
    15
100
AcDbSpline
210
0.0
220
0.0
230
1.0
 70
     8
 71
     3
 72
     8
 73
     4
 74
     0
 42
0.000000001
 43
0.00000001
 40
0.0
 40
0.0
 40
0.0
 40
0.0
 40
0.0011862984959113
 40
0.0011862984959113
 40
0.0011862984959113
 40
0.0011862984959113
 10
145.6927033686127
 20
72.18584758579891
 30
0.0
 10
145.8447281304836
 20
72.3667594354169
 30
0.0
 10
145.9957855756994
 20
72.54787176585775
 30
0.0
 10
146.1458170455705
 20
72.72919186016854
 30
0.0
  0
SPLINE
  5
A0
330
1F
100
AcDbEntity
  8
0
  6
Continuous
 62
     7
370
    15
100
AcDbSpline
210
0.0
220
0.0
230
1.0
 70
    24
 71
     3
 72
     8
 73
     4
 74
     0
 42
0.000000001
 43
0.00000001
 40
0.0
 40
0.0
 40
0.0
 40
0.0
 40
1.0
 40
1.0
 40
1.0
 40
1.0
 10
147.0158648760747
 20
148.7651069271449
 30
0.0
 10
146.580664771371
 20
148.7651069271449
 30
0.0
 10
146.1393050886321
 20
148.7651069271449
 30
0.0
 10
145.6927033686127
 20
148.7651069271449
 30
0.0
  0
LINE
  5
A1
330
1F
100
AcDbEntity
  8
0
  6
Continuous
 62
     7
370
    15
100
AcDbLine
 10
147.0158645384
 20
74.2953678715
 30
0.0
 11
147.0158645384
 21
148.7651074427
 31
0.0
  0
SPLINE
  5
A2
330
1F
100
AcDbEntity
  8
0
  6
Continuous
 62
     7
370
    15
100
AcDbSpline
210
0.0
220
0.0
230
1.0
 70
     8
 71
     3
 72
    12
 73
     8
 74
     0
 42
0.000000001
 43
0.00000001
 40
0.0
 40
0.0
 40
0.0
 40
0.0
 40
0.2499999999999992
 40
0.2499999999999992
 40
0.4999999999999984
 40
0.4999999999999984
 40
1.0
 40
1.0
 40
1.0
 40
1.0
 10
156.2758648760746
 20
72.18584758579891
 30
0.0
 10
156.3718376292495
 20
72.18584758579891
 30
0.0
 10
156.464265593404
 20
72.20212090990749
 30
0.0
 10
156.6206956935134
 20
72.25549463190391
 30
0.0
 10
156.6841741182863
 20
72.29162288943824
 30
0.0
 10
156.8324532791134
 20
72.41232408571751
 30
0.0
 10
156.8758648760746
 20
72.5061736720827
 30
0.0
 10
156.8758648760746
 20
72.60047794702992
 30
0.0
  0
SPLINE
  5
A3
330
1F
100
AcDbEntity
  8
0
  6
Continuous
 62
     7
370
    15
100
AcDbSpline
210
0.0
220
0.0
230
1.0
 70
    24
 71
     3
 72
    12
 73
     8
 74
     0
 42
0.000000001
 43
0.00000001
 40
0.0
 40
0.0
 40
0.0
 40
0.0
 40
0.5
 40
0.5
 40
0.75
 40
0.75
 40
1.0
 40
1.0
 40
1.0
 40
1.0
 10
156.8758648760746
 20
148.7651069271449
 30
0.0
 10
156.8758648760746
 20
148.7651069271449
 30
0.0
 10
156.8277341876893
 20
148.7651069271449
 30
0.0
 10
156.6738371318862
 20
148.7651069271449
 30
0.0
 10
156.6083725668794
 20
148.7651069271449
 30
0.0
 10
156.4548432462693
 20
148.7651069271449
 30
0.0
 10
156.3664945855335
 20
148.7651069271449
 30
0.0
 10
156.2758648760745
 20
148.7651069271449
 30
0.0
  0
LINE
  5
A4
330
1F
100
AcDbEntity
  8
0
  6
Continuous
 62
     7
370
    15
100
AcDbLine
 10
156.8758651115
 20
72.6004762697
 30
0.0
 11
156.8758651115
 21
148.7651074427
 31
0.0
  0
SPLINE
  5
A5
330
1F
100
AcDbEntity
  8
0
  6
Continuous
 62
     7
370
    15
100
AcDbSpline
210
0.0
220
0.0
230
1.0
 70
     8
 71
     3
 72
    14
 73
    10
 74
     0
 42
0.000000001
 43
0.00000001
 40
0.0
 40
0.0
 40
0.0
 40
0.0
 40
0.25
 40
0.25
 40
0.5
 40
0.5
 40
0.75
 40
0.75
 40
1.0
 40
1.0
 40
1.0
 40
1.0
 10
150.8358648760747
 20
105.1634590831679
 30
0.0
 10
150.8358648760747
 20
105.2054354650214
 30
0.0
 10
150.8062219221034
 20
105.2332858526623
 30
0.0
 10
150.6995670883734
 20
105.2467847279523
 30
0.0
 10
150.6232886937692
 20
105.2321692259146
 30
0.0
 10
150.4552371507027
 20
105.1600800217464
 30
0.0
 10
150.3641173440944
 20
105.1029424112637
 30
0.0
 10
150.1914402318417
 20
104.9607147106724
 30
0.0
 10
150.1105177923137
 20
104.8771508851604
 30
0.0
 10
150.0358648760746
 20
104.7837812132645
 30
0.0
  0
SPLINE
  5
A6
330
1F
100
AcDbEntity
  8
0
  6
Continuous
 62
     7
370
    15
100
AcDbSpline
210
0.0
220
0.0
230
1.0
 70
     8
 71
     3
 72
    10
 73
     6
 74
     0
 42
0.000000001
 43
0.00000001
 40
0.0
 40
0.0
 40
0.0
 40
0.0
 40
0.5
 40
0.5
 40
1.0
 40
1.0
 40
1.0
 40
1.0
 10
150.8358648760749
 20
100.9858036625238
 30
0.0
 10
151.0527557085957
 20
100.7487647230753
 30
0.0
 10
151.2719083452546
 20
100.5465944880818
 30
0.0
 10
151.7133928455234
 20
100.1958424165631
 30
0.0
 10
151.9365953107968
 20
100.0471663241662
 30
0.0
 10
152.1590263835365
 20
99.92616653914374
 30
0.0
  0
LINE
  5
A7
330
1F
100
AcDbEntity
  8
0
  6
Continuous
 62
     7
370
    15
100
AcDbLine
 10
150.8358647548
 20
101.0314187157
 30
0.0
 11
150.8358647548
 21
100.9858043986
 31
0.0
  0
SPLINE
  5
A8
330
1F
100
AcDbEntity
  8
0
  6
Continuous
 62
     7
370
    15
100
AcDbSpline
210
0.0
220
0.0
230
1.0
 70
     8
 71
     3
 72
    16
 73
    12
 74
     0
 42
0.000000001
 43
0.00000001
 40
0.0
 40
0.0
 40
0.0
 40
0.0
 40
0.2500000000000014
 40
0.2500000000000014
 40
0.5000000000000028
 40
0.5000000000000028
 40
0.6250000000000047
 40
0.6250000000000047
 40
0.7500000000000067
 40
0.7500000000000067
 40
1.0
 40
1.0
 40
1.0
 40
1.0
 10
150.0358648760746
 20
101.9398173702108
 30
0.0
 10
150.1098727662968
 20
101.8494697900252
 30
0.0
 10
150.1904907612858
 20
101.7615102172255
 30
0.0
 10
150.3642587467901
 20
101.5851752931639
 30
0.0
 10
150.4550098777315
 20
101.4995680524979
 30
0.0
 10
150.581122975193
 20
101.3783723564729
 30
0.0
 10
150.6206997360563
 20
101.3398407774821
 30
0.0
 10
150.6931823927574
 20
101.2654447913528
 30
0.0
 10
150.7261103832263
 20
101.2294280034313
 30
0.0
 10
150.8059005532212
 20
101.1306753276143
 30
0.0
 10
150.8358648760747
 20
101.0739113258322
 30
0.0
 10
150.8358648760747
 20
101.0314178845366
 30
0.0
  0
SPLINE
  5
A9
330
1F
100
AcDbEntity
  8
0
  6
Continuous
 62
     7
370
    15
100
AcDbSpline
210
0.0
220
0.0
230
1.0
 70
     8
 71
     3
 72
    16
 73
    12
 74
     0
 42
0.000000001
 43
0.00000001
 40
0.0
 40
0.0
 40
0.0
 40
0.0
 40
0.2500000000000009
 40
0.2500000000000009
 40
0.5000000000000018
 40
0.5000000000000018
 40
0.7500000000000011
 40
0.7500000000000011
 40
0.8750000000000006
 40
0.8750000000000006
 40
1.0
 40
1.0
 40
1.0
 40
1.0
 10
150.0358648760746
 20
104.7837812132645
 30
0.0
 10
149.8704507695945
 20
104.5768949772391
 30
0.0
 10
149.7442534386189
 20
104.3510262794304
 30
0.0
 10
149.569847140288
 20
103.8621570338175
 30
0.0
 10
149.5260171011911
 20
103.6103899804729
 30
0.0
 10
149.5257134282212
 20
103.0986106558906
 30
0.0
 10
149.5695702882815
 20
102.8475559468078
 30
0.0
 10
149.6994920475487
 20
102.4867073786657
 30
0.0
 10
149.7536068589566
 20
102.3694346103172
 30
0.0
 10
149.8802838491001
 20
102.1469456589784
 30
0.0
 10
149.9531575694608
 20
102.0407850507351
 30
0.0
 10
150.0358648760746
 20
101.9398173702108
 30
0.0
  0
SPLINE
  5
AA
330
1F
100
AcDbEntity
  8
0
  6
Continuous
 62
     7
370
    15
100
AcDbSpline
210
0.0
220
0.0
230
1.0
 70
     8
 71
     3
 72
    14
 73
    10
 74
     0
 42
0.000000001
 43
0.00000001
 40
0.0
 40
0.0
 40
0.0
 40
0.0
 40
0.25
 40
0.25
 40
0.5
 40
0.5
 40
0.75
 40
0.75
 40
1.0
 40
1.0
 40
1.0
 40
1.0
 10
147.8158648760746
 20
75.26734066127513
 30
0.0
 10
147.7094198681654
 20
75.26734066127513
 30
0.0
 10
147.6025211168919
 20
75.24477111184203
 30
0.0
 10
147.4063028614494
 20
75.1583280206001
 30
0.0
 10
147.3166445479849
 20
75.09402410293295
 30
0.0
 10
147.1711908351039
 20
74.93905458889
 30
0.0
 10
147.1131550523777
 20
74.84628910264627
 30
0.0
 10
147.0358698979931
 20
74.64782222100288
 30
0.0
 10
147.0158648760746
 20
74.5407977992091
 30
0.0
 10
147.0158648760746
 20
74.43401543873827
 30
0.0
  0
SPLINE
  5
AB
330
1F
100
AcDbEntity
  8
0
  6
Continuous
 62
     7
370
    15
100
AcDbSpline
210
0.0
220
0.0
230
1.0
 70
    24
 71
     3
 72
    14
 73
    10
 74
     0
 42
0.000000001
 43
0.00000001
 40
0.0
 40
0.0
 40
0.0
 40
0.0
 40
0.25
 40
0.25
 40
0.5
 40
0.5
 40
0.75
 40
0.75
 40
1.0
 40
1.0
 40
1.0
 40
1.0
 10
147.8158648760746
 20
148.7651069271449
 30
0.0
 10
147.6928835765283
 20
148.7651069271449
 30
0.0
 10
147.5726936881263
 20
148.7651069271449
 30
0.0
 10
147.3676698584471
 20
148.7651069271449
 30
0.0
 10
147.281075369645
 20
148.7651069271449
 30
0.0
 10
147.1459674828826
 20
148.7651069271449
 30
0.0
 10
147.0974443978545
 20
148.7651069271449
 30
0.0
 10
147.0317618891277
 20
148.7651069271449
 30
0.0
 10
147.0158648760746
 20
148.7651069271449
 30
0.0
 10
147.0158648760746
 20
148.7651069271449
 30
0.0
  0
SPLINE
  5
AC
330
1F
100
AcDbEntity
  8
0
  6
Continuous
 62
     7
370
    15
100
AcDbSpline
210
0.0
220
0.0
230
1.0
 70
    24
 71
     3
 72
    14
 73
    10
 74
     0
 42
0.000000001
 43
0.00000001
 40
0.0
 40
0.0
 40
0.0
 40
0.0
 40
0.25
 40
0.25
 40
0.5
 40
0.5
 40
0.75
 40
0.75
 40
1.0
 40
1.0
 40
1.0
 40
1.0
 10
150.8358648760747
 20
148.7651069271449
 30
0.0
 10
150.8358648760747
 20
148.7651069271449
 30
0.0
 10
150.8195838412989
 20
148.7651069271449
 30
0.0
 10
150.7549207787742
 20
148.7651069271449
 30
0.0
 10
150.7054409824855
 20
148.7651069271449
 30
0.0
 10
150.5714712253468
 20
148.7651069271449
 30
0.0
 10
150.4853564987473
 20
148.7651069271449
 30
0.0
 10
150.2799003830343
 20
148.7651069271449
 30
0.0
 10
150.1584798458415
 20
148.7651069271449
 30
0.0
 10
150.0358648760746
 20
148.7651069271449
 30
0.0
  0
LINE
  5
AD
330
1F
100
AcDbEntity
  8
0
  6
Continuous
 62
     7
370
    15
100
AcDbLine
 10
150.0358651824
 20
75.2673408139
 30
0.0
 11
147.8158650421
 21
75.2673408139
 31
0.0
  0
LINE
  5
AE
330
1F
100
AcDbEntity
  8
0
  6
Continuous
 62
     7
370
    15
100
AcDbLine
 10
150.0358651824
 20
148.7651074427
 30
0.0
 11
147.8158650421
 21
148.7651074427
 31
0.0
  0
SPLINE
  5
AF
330
1F
100
AcDbEntity
  8
0
  6
Continuous
 62
     7
370
    15
100
AcDbSpline
210
0.0
220
0.0
230
1.0
 70
     8
 71
     3
 72
     8
 73
     4
 74
     0
 42
0.000000001
 43
0.00000001
 40
0.0000000000000004
 40
0.0000000000000004
 40
0.0000000000000004
 40
0.0000000000000004
 40
0.0011862984959128
 40
0.0011862984959128
 40
0.0011862984959128
 40
0.0011862984959128
 10
151.7059127065748
 20
72.72919186016854
 30
0.0
 10
151.8559441764461
 20
72.54787176585751
 30
0.0
 10
152.0070016216655
 20
72.36675943541714
 30
0.0
 10
152.1590263835365
 20
72.18584758579891
 30
0.0
  0
SPLINE
  5
B0
330
1F
100
AcDbEntity
  8
0
  6
Continuous
 62
     7
370
    15
100
AcDbSpline
210
0.0
220
0.0
230
1.0
 70
     8
 71
     3
 72
     8
 73
     4
 74
     0
 42
0.000000001
 43
0.00000001
 40
0.0
 40
0.0
 40
0.0
 40
0.0
 40
1.0
 40
1.0
 40
1.0
 40
1.0
 10
151.7059127065778
 20
72.72919186017022
 30
0.0
 10
151.4156184723163
 20
73.25109412589276
 30
0.0
 10
151.1255933220989
 20
73.77314750815216
 30
0.0
 10
150.8358648760747
 20
74.29536751831515
 30
0.0
  0
LINE
  5
B1
330
1F
100
AcDbEntity
  8
0
  6
Continuous
 62
     7
370
    15
100
AcDbLine
 10
150.8358647548
 20
74.2953678715
 30
0.0
 11
150.8358647548
 21
100.9858043986
 31
0.0
  0
SPLINE
  5
B2
330
1F
100
AcDbEntity
  8
0
  6
Continuous
 62
     7
370
    15
100
AcDbSpline
210
0.0
220
0.0
230
1.0
 70
     8
 71
     3
 72
    14
 73
    10
 74
     0
 42
0.000000001
 43
0.00000001
 40
0.0
 40
0.0
 40
0.0
 40
0.0
 40
0.25
 40
0.25
 40
0.5
 40
0.5
 40
0.75
 40
0.75
 40
1.0
 40
1.0
 40
1.0
 40
1.0
 10
150.8358648760747
 20
74.43401543873829
 30
0.0
 10
150.8358648760747
 20
74.54107942507909
 30
0.0
 10
150.8158810498347
 20
74.6478187514536
 30
0.0
 10
150.7384459674012
 20
74.8465686536444
 30
0.0
 10
150.6805070452417
 20
74.93912287013691
 30
0.0
 10
150.5348692394809
 20
75.0942198135425
 30
0.0
 10
150.4460802431456
 20
75.15795997045537
 30
0.0
 10
150.2495318829411
 20
75.24470852754297
 30
0.0
 10
150.1433926532417
 20
75.26734066127513
 30
0.0
 10
150.0358648760746
 20
75.26734066127513
 30
0.0
  0
LINE
  5
B3
330
1F
100
AcDbEntity
  8
0
  6
Continuous
 62
     7
370
    15
100
AcDbLine
 10
137.8258648761
 20
83.9901080477
 30
0.0
 11
137.8258648761
 21
153.8401058066
 31
0.0
  0
LINE
  5
B4
330
1F
100
AcDbEntity
  8
0
  6
Continuous
 62
     7
370
    15
100
AcDbLine
 10
150.0358651824
 20
162.5628730404
 30
0.0
 11
147.8158650421
 21
162.5628730404
 31
0.0
  0
LINE
  5
B5
330
1F
100
AcDbEntity
  8
0
  6
Continuous
 62
     7
370
    15
100
AcDbLine
 10
147.8158650421
 20
153.2549893606
 30
0.0
 11
150.0358651824
 21
153.2549893606
 31
0.0
  0
SPLINE
  5
B6
330
1F
100
AcDbEntity
  8
0
  6
Continuous
 62
     7
370
    15
100
AcDbSpline
210
0.0
220
0.0
230
1.0
 70
     8
 71
     3
 72
    12
 73
     8
 74
     0
 42
0.000000001
 43
0.00000001
 40
0.0
 40
0.0
 40
0.0
 40
0.0
 40
0.4999999999999982
 40
0.4999999999999982
 40
0.7499999999999991
 40
0.7499999999999991
 40
1.0
 40
1.0
 40
1.0
 40
1.0
 10
156.8758648760746
 20
165.2100938803754
 30
0.0
 10
156.8758648760746
 20
165.3302864870406
 30
0.0
 10
156.8218964458056
 20
165.4481937875555
 30
0.0
 10
156.6608098048727
 20
165.5875733320389
 30
0.0
 10
156.5960473853996
 20
165.6257386296028
 30
0.0
 10
156.4439933838351
 20
165.6803908919363
 30
0.0
 10
156.3612636106859
 20
165.6949515819204
 30
0.0
 10
156.2758648760746
 20
165.6949515819205
 30
0.0
  0
SPLINE
  5
B7
330
1F
100
AcDbEntity
  8
0
  6
Continuous
 62
     7
370
    15
100
AcDbSpline
210
0.0
220
0.0
230
1.0
 70
     8
 71
     3
 72
    12
 73
     8
 74
     0
 42
0.000000001
 43
0.00000001
 40
0.0
 40
0.0
 40
0.0
 40
0.0
 40
0.2499999999999946
 40
0.2499999999999946
 40
0.4999999999999892
 40
0.4999999999999892
 40
1.0
 40
1.0
 40
1.0
 40
1.0
 10
156.2758648760751
 20
157.4261848788201
 30
0.0
 10
156.3654019342462
 20
157.42618487882
 30
0.0
 10
156.4553011130349
 20
157.399357579989
 30
0.0
 10
156.6087259720342
 20
157.3076506147295
 30
0.0
 10
156.6737750294119
 20
157.2433956731306
 30
0.0
 10
156.8270942606761
 20
157.0239835270691
 30
0.0
 10
156.8758648760746
 20
156.8421682172722
 30
0.0
 10
156.8758648760746
 20
156.6641880417893
 30
0.0
  0
LINE
  5
B8
330
1F
100
AcDbEntity
  8
0
  6
Continuous
 62
     7
370
    15
100
AcDbLine
 10
156.8758651115
 20
156.6641887772
 30
0.0
 11
156.8758651115
 21
165.2100941288
 31
0.0
  0
SPLINE
  5
B9
330
1F
100
AcDbEntity
  8
0
  6
Continuous
 62
     7
370
    15
100
AcDbSpline
210
0.0
220
0.0
230
1.0
 70
     8
 71
     3
 72
    14
 73
    10
 74
     0
 42
0.000000001
 43
0.00000001
 40
0.0
 40
0.0
 40
0.0
 40
0.0
 40
0.25
 40
0.25
 40
0.5
 40
0.5
 40
0.75
 40
0.75
 40
1.0
 40
1.0
 40
1.0
 40
1.0
 10
150.8358648760747
 20
163.3961984155515
 30
0.0
 10
150.8358648760747
 20
163.2888560434041
 30
0.0
 10
150.8158686840104
 20
163.1822270365563
 30
0.0
 10
150.7381705996658
 20
162.9830752574051
 30
0.0
 10
150.6801774547722
 20
162.8905923590896
 30
0.0
 10
150.5341309619494
 20
162.7353565239804
 30
0.0
 10
150.4447932227817
 20
162.6716225823681
 30
0.0
 10
150.2500382107212
 20
162.5857923159729
 30
0.0
 10
150.1425079395124
 20
162.5628731930144
 30
0.0
 10
150.0358648760726
 20
162.5628731930147
 30
0.0
  0
SPLINE
  5
BA
330
1F
100
AcDbEntity
  8
0
  6
Continuous
 62
     7
370
    15
100
AcDbSpline
210
0.0
220
0.0
230
1.0
 70
     8
 71
     3
 72
    14
 73
    10
 74
     0
 42
0.000000001
 43
0.00000001
 40
0.0
 40
0.0
 40
0.0
 40
0.0
 40
0.25
 40
0.25
 40
0.5
 40
0.5
 40
0.75
 40
0.75
 40
1.0
 40
1.0
 40
1.0
 40
1.0
 10
150.0358648760746
 20
153.254988988678
 30
0.0
 10
150.1571914060604
 20
153.254988988678
 30
0.0
 10
150.2788961146226
 20
153.2937705041111
 30
0.0
 10
150.4853359935087
 20
153.424925125805
 30
0.0
 10
150.5712865319648
 20
153.5155772103922
 30
0.0
 10
150.7051982917131
 20
153.7176942453334
 30
0.0
 10
150.7547627285323
 20
153.8314291888726
 30
0.0
 10
150.8196167565002
 20
154.0643888059391
 30
0.0
 10
150.8358648760747
 20
154.1870870722683
 30
0.0
 10
150.8358648760747
 20
154.3081500288619
 30
0.0
  0
LINE
  5
BB
330
1F
100
AcDbEntity
  8
0
  6
Continuous
 62
     7
370
    15
100
AcDbLine
 10
156.2758642681
 20
165.6949518371
 30
0.0
 11
152.1590264015
 21
165.6949518371
 31
0.0
  0
LINE
  5
BC
330
1F
100
AcDbEntity
  8
0
  6
Continuous
 62
     7
370
    15
100
AcDbLine
 10
152.1590264015
 20
157.4261857319
 30
0.0
 11
156.2758642681
 21
157.4261857319
 31
0.0
  0
LINE
  5
BD
330
1F
100
AcDbEntity
  8
0
  6
Continuous
 62
     7
370
    15
100
AcDbLine
 10
152.1590264015
 20
157.4261857319
 30
0.0
 11
152.1590264015
 21
165.6949518371
 31
0.0
  0
LINE
  5
BE
330
1F
100
AcDbEntity
  8
0
  6
Continuous
 62
     7
370
    15
100
AcDbLine
 10
145.692703823
 20
165.6949518371
 30
0.0
 11
141.6258649401
 21
165.6949518371
 31
0.0
  0
LINE
  5
BF
330
1F
100
AcDbEntity
  8
0
  6
Continuous
 62
     7
370
    15
100
AcDbLine
 10
145.692703823
 20
157.4261857319
 30
0.0
 11
145.692703823
 21
165.6949518371
 31
0.0
  0
LINE
  5
C0
330
1F
100
AcDbEntity
  8
0
  6
Continuous
 62
     7
370
    15
100
AcDbLine
 10
141.6258649401
 20
157.4261857319
 30
0.0
 11
145.692703823
 21
157.4261857319
 31
0.0
  0
SPLINE
  5
C1
330
1F
100
AcDbEntity
  8
0
  6
Continuous
 62
     7
370
    15
100
AcDbSpline
210
0.0
220
0.0
230
1.0
 70
     8
 71
     3
 72
     8
 73
     4
 74
     0
 42
0.000000001
 43
0.00000001
 40
0.0
 40
0.0
 40
0.0
 40
0.0
 40
0.0012352705496723
 40
0.0012352705496723
 40
0.0012352705496723
 40
0.0012352705496723
 10
146.2491938539073
 20
164.915140171814
 30
0.0
 10
146.0641586031053
 20
165.1752417475423
 30
0.0
 10
145.8786517939346
 20
165.4351758261692
 30
0.0
 10
145.6927033686127
 20
165.6949515819205
 30
0.0
  0
SPLINE
  5
C2
330
1F
100
AcDbEntity
  8
0
  6
Continuous
 62
     7
370
    15
100
AcDbSpline
210
0.0
220
0.0
230
1.0
 70
     8
 71
     3
 72
     8
 73
     4
 74
     0
 42
0.000000001
 43
0.00000001
 40
0.0
 40
0.0
 40
0.0
 40
0.0
 40
1.0
 40
1.0
 40
1.0
 40
1.0
 10
147.0158648760747
 20
163.5348463359747
 30
0.0
 10
146.7605335627693
 20
163.9950673562403
 30
0.0
 10
146.504970164663
 20
164.4551618165487
 30
0.0
 10
146.2491938539073
 20
164.915140171814
 30
0.0
  0
LINE
  5
C3
330
1F
100
AcDbEntity
  8
0
  6
Continuous
 62
     7
370
    15
100
AcDbLine
 10
147.0158645384
 20
154.4822415459
 30
0.0
 11
147.0158645384
 21
163.5348459828
 31
0.0
  0
SPLINE
  5
C4
330
1F
100
AcDbEntity
  8
0
  6
Continuous
 62
     7
370
    15
100
AcDbSpline
210
0.0
220
0.0
230
1.0
 70
     8
 71
     3
 72
     8
 73
     4
 74
     0
 42
0.000000001
 43
0.00000001
 40
0.0
 40
0.0
 40
0.0
 40
0.0
 40
1.0
 40
1.0
 40
1.0
 40
1.0
 10
145.6927033686127
 20
157.4261848788201
 30
0.0
 10
146.1395520965404
 20
156.4469489805638
 30
0.0
 10
146.5809184544363
 20
155.4657469878369
 30
0.0
 10
147.0158648760747
 20
154.4822426694545
 30
0.0
  0
SPLINE
  5
C5
330
1F
100
AcDbEntity
  8
0
  6
Continuous
 62
     7
370
    15
100
AcDbSpline
210
0.0
220
0.0
230
1.0
 70
     8
 71
     3
 72
    12
 73
     8
 74
     0
 42
0.000000001
 43
0.00000001
 40
0.0
 40
0.0
 40
0.0
 40
0.0
 40
0.2500000000000007
 40
0.2500000000000007
 40
0.5000000000000014
 40
0.5000000000000014
 40
1.0
 40
1.0
 40
1.0
 40
1.0
 10
147.8158648760746
 20
162.5628731930147
 30
0.0
 10
147.7095198961987
 20
162.5628731930147
 30
0.0
 10
147.6022435487961
 20
162.5855884308742
 30
0.0
 10
147.4068677594
 20
162.6716135977566
 30
0.0
 10
147.318314023323
 20
162.734592324685
 30
0.0
 10
147.0970560991918
 20
162.969783835122
 30
0.0
 10
147.0158648760747
 20
163.1829600496073
 30
0.0
 10
147.0158648760746
 20
163.3961984155514
 30
0.0
  0
SPLINE
  5
C6
330
1F
100
AcDbEntity
  8
0
  6
Continuous
 62
     7
370
    15
100
AcDbSpline
210
0.0
220
0.0
230
1.0
 70
     8
 71
     3
 72
    12
 73
     8
 74
     0
 42
0.000000001
 43
0.00000001
 40
0.0
 40
0.0
 40
0.0
 40
0.0
 40
0.499999999999994
 40
0.499999999999994
 40
0.749999999999997
 40
0.749999999999997
 40
1.0
 40
1.0
 40
1.0
 40
1.0
 10
147.0158648760746
 20
154.3081500288619
 30
0.0
 10
147.0158648760746
 20
154.0657269328812
 30
0.0
 10
147.0787860175164
 20
153.8199564122798
 30
0.0
 10
147.2808149145189
 20
153.5150102328629
 30
0.0
 10
147.3671086391661
 20
153.4244173662645
 30
0.0
 10
147.5725824337328
 20
153.2939838033277
 30
0.0
 10
147.6925329943325
 20
153.254988988678
 30
0.0
 10
147.8158648760746
 20
153.254988988678
 30
0.0
  0
SPLINE
  5
C7
330
1F
100
AcDbEntity
  8
0
  6
Continuous
 62
     7
370
    15
100
AcDbSpline
210
0.0
220
0.0
230
1.0
 70
     8
 71
     3
 72
    12
 73
     8
 74
     0
 42
0.000000001
 43
0.00000001
 40
0.0
 40
0.0
 40
0.0
 40
0.0
 40
0.5000000000000003
 40
0.5000000000000003
 40
0.7500000000000001
 40
0.7500000000000001
 40
1.0
 40
1.0
 40
1.0
 40
1.0
 10
141.0258648760746
 20
156.6641880417893
 30
0.0
 10
141.0258648760746
 20
156.8425483090286
 30
0.0
 10
141.0731769974506
 20
157.0213207207325
 30
0.0
 10
141.227537075332
 20
157.2430825860843
 30
0.0
 10
141.292422610251
 20
157.3073746247007
 30
0.0
 10
141.4476553094792
 20
157.4000191088603
 30
0.0
 10
141.5367307221475
 20
157.4261848788201
 30
0.0
 10
141.6258648760746
 20
157.4261848788201
 30
0.0
  0
LINE
  5
C8
330
1F
100
AcDbEntity
  8
0
  6
Continuous
 62
     7
370
    15
100
AcDbLine
 10
150.8358647548
 20
154.3081512797
 30
0.0
 11
150.8358647548
 21
154.4822415459
 31
0.0
  0
SPLINE
  5
C9
330
1F
100
AcDbEntity
  8
0
  6
Continuous
 62
     7
370
    15
100
AcDbSpline
210
0.0
220
0.0
230
1.0
 70
     8
 71
     3
 72
     8
 73
     4
 74
     0
 42
0.000000001
 43
0.00000001
 40
0.0
 40
0.0
 40
0.0
 40
0.0
 40
1.0
 40
1.0
 40
1.0
 40
1.0
 10
150.8358648760747
 20
154.4822426694545
 30
0.0
 10
151.270811297713
 20
155.465746987837
 30
0.0
 10
151.7121776556089
 20
156.4469489805638
 30
0.0
 10
152.1590263835365
 20
157.4261848788201
 30
0.0
  0
LINE
  5
CA
330
1F
100
AcDbEntity
  8
0
  6
Continuous
 62
     7
370
    15
100
AcDbLine
 10
147.0158645384
 20
154.4822415459
 30
0.0
 11
147.0158645384
 21
154.3081512797
 31
0.0
  0
LINE
  5
CB
330
1F
100
AcDbEntity
  8
0
  6
Continuous
 62
     7
370
    15
100
AcDbLine
 10
156.8758651115
 20
156.6641887772
 30
0.0
 11
156.8758651115
 21
148.7651074427
 31
0.0
  0
LINE
  5
CC
330
1F
100
AcDbEntity
  8
0
  6
Continuous
 62
     7
370
    15
100
AcDbLine
 10
141.0258647952
 20
156.6641887772
 30
0.0
 11
141.0258647952
 21
148.7651074427
 31
0.0
  0
SPLINE
  5
CD
330
1F
100
AcDbEntity
  8
0
  6
Continuous
 62
     7
370
    15
100
AcDbSpline
210
0.0
220
0.0
230
1.0
 70
     8
 71
     3
 72
    10
 73
     6
 74
     0
 42
0.000000001
 43
0.00000001
 40
0.0
 40
0.0
 40
0.0
 40
0.0
 40
0.5
 40
0.5
 40
1.0
 40
1.0
 40
1.0
 40
1.0
 10
141.315733795021
 20
165.6252712528677
 30
0.0
 10
141.2392807051022
 20
165.5550084816471
 30
0.0
 10
141.1704189828331
 20
165.4679135666053
 30
0.0
 10
141.0639067517601
 20
165.2587444383531
 30
0.0
 10
141.0258648760746
 20
165.1334268891135
 30
0.0
 10
141.0258648760746
 20
165.0040765945176
 30
0.0
  0
SPLINE
  5
CE
330
1F
100
AcDbEntity
  8
0
  6
Continuous
 62
     7
370
    15
100
AcDbSpline
210
0.0
220
0.0
230
1.0
 70
     8
 71
     3
 72
     8
 73
     4
 74
     0
 42
0.000000001
 43
0.00000001
 40
0.0
 40
0.0
 40
0.0
 40
0.0
 40
1.0
 40
1.0
 40
1.0
 40
1.0
 10
141.6258648760746
 20
165.6949515819205
 30
0.0
 10
141.5147866907372
 20
165.6949515819205
 30
0.0
 10
141.4071226868349
 20
165.6698024063659
 30
0.0
 10
141.315733795021
 20
165.6252712528677
 30
0.0
  0
LINE
  5
CF
330
1F
100
AcDbEntity
  8
0
  6
Continuous
 62
     7
370
    15
100
AcDbLine
 10
141.0258647952
 20
156.6641887772
 30
0.0
 11
141.0258647952
 21
165.0040781248
 31
0.0
  0
SPLINE
  5
D0
330
1F
100
AcDbEntity
  8
0
  6
Continuous
 62
     7
370
    15
100
AcDbSpline
210
0.0
220
0.0
230
1.0
 70
     8
 71
     3
 72
     8
 73
     4
 74
     0
 42
0.000000001
 43
0.00000001
 40
0.0
 40
0.0
 40
0.0
 40
0.0
 40
1.0
 40
1.0
 40
1.0
 40
1.0
 10
151.6025358982411
 20
164.9151401718123
 30
0.0
 10
151.3467595874856
 20
164.4551618165475
 30
0.0
 10
151.0911961893797
 20
163.9950673562397
 30
0.0
 10
150.8358648760747
 20
163.5348463359747
 30
0.0
  0
SPLINE
  5
D1
330
1F
100
AcDbEntity
  8
0
  6
Continuous
 62
     7
370
    15
100
AcDbSpline
210
0.0
220
0.0
230
1.0
 70
     8
 71
     3
 72
     8
 73
     4
 74
     0
 42
0.000000001
 43
0.00000001
 40
0.0
 40
0.0
 40
0.0
 40
0.0
 40
0.0012352705496738
 40
0.0012352705496738
 40
0.0012352705496738
 40
0.0012352705496738
 10
152.1590263835365
 20
165.6949515819205
 30
0.0
 10
151.9730779582144
 20
165.4351758261688
 30
0.0
 10
151.7875711490434
 20
165.1752417475415
 30
0.0
 10
151.6025358982412
 20
164.9151401718129
 30
0.0
  0
LINE
  5
D2
330
1F
100
AcDbEntity
  8
0
  6
Continuous
 62
     7
370
    15
100
AcDbLine
 10
150.8358647548
 20
154.4822415459
 30
0.0
 11
150.8358647548
 21
163.5348459828
 31
0.0
  0
SPLINE
  5
D3
330
1F
100
AcDbEntity
  8
0
  6
Continuous
 62
     7
370
    15
100
AcDbSpline
210
0.0
220
0.0
230
1.0
 70
     8
 71
     3
 72
    19
 73
    15
 74
     0
 42
0.000000001
 43
0.00000001
 40
0.0
 40
0.0
 40
0.0
 40
0.0
 40
0.05223414900832
 40
0.1383767276452155
 40
0.2295207468417586
 40
0.3319228495512845
 40
0.4463000663529704
 40
0.5674997529296455
 40
0.6901611704852857
 40
0.7498284443385138
 40
0.8115047722615082
 40
0.86650484329308
 40
0.9236343609800294
 40
0.9999999999999999
 40
0.9999999999999999
 40
0.9999999999999999
 40
0.9999999999999999
 10
250.9414810188244
 20
143.8962442922477
 30
0.0
 10
250.952625706969
 20
143.8986835611856
 30
0.0
 10
250.9821497923681
 20
143.9051455799968
 30
0.0
 10
250.3140036237401
 20
143.757762433573
 30
0.0
 10
249.0836297370105
 20
143.5213550418223
 30
0.0
 10
247.2425012735674
 20
143.2501289019769
 30
0.0
 10
244.899092214655
 20
143.063722725255
 30
0.0
 10
242.2896054873849
 20
143.0767389719362
 30
0.0
 10
240.2095123163341
 20
143.2697766156381
 30
0.0
 10
238.7779426256233
 20
143.4766076228373
 30
0.0
 10
237.8864806156224
 20
143.6325563084992
 30
0.0
 10
237.2004208515054
 20
143.7681751943182
 30
0.0
 10
236.642781390096
 20
143.8883504033354
 30
0.0
 10
236.6078850052629
 20
143.8966040856526
 30
0.0
 10
236.5879225976895
 20
143.9013255882148
 30
0.0
  0
SPLINE
  5
D4
330
1F
100
AcDbEntity
  8
0
  6
Continuous
 62
     7
370
    15
100
AcDbSpline
210
0.0
220
0.0
230
1.0
 70
    11
 71
     3
 72
    95
 73
    91
 74
     0
 42
0.000000001
 43
0.00000001
 40
0.0
 40
0.0
 40
0.0
 40
0.0
 40
0.0312499999999996
 40
0.0312499999999996
 40
0.0468749999999994
 40
0.0468749999999994
 40
0.0624999999999992
 40
0.0624999999999992
 40
0.0937499999999979
 40
0.0937499999999979
 40
0.1093749999999968
 40
0.1093749999999968
 40
0.1249999999999957
 40
0.1249999999999957
 40
0.1562499999999944
 40
0.1562499999999944
 40
0.1718749999999938
 40
0.1718749999999938
 40
0.1874999999999931
 40
0.1874999999999931
 40
0.2187499999999927
 40
0.2187499999999927
 40
0.2343749999999929
 40
0.2343749999999929
 40
0.2499999999999931
 40
0.2499999999999931
 40
0.2812499999999936
 40
0.2812499999999936
 40
0.296874999999994
 40
0.296874999999994
 40
0.3124999999999944
 40
0.3124999999999944
 40
0.3437499999999954
 40
0.3437499999999954
 40
0.3593749999999958
 40
0.3593749999999958
 40
0.3749999999999963
 40
0.3906249999999968
 40
0.3906249999999968
 40
0.4062499999999972
 40
0.4062499999999972
 40
0.4374999999999982
 40
0.4374999999999982
 40
0.4531249999999984
 40
0.4531249999999984
 40
0.4687499999999987
 40
0.4687499999999987
 40
0.4999999999999991
 40
0.4999999999999991
 40
0.5312499999999996
 40
0.5312499999999996
 40
0.5468749999999993
 40
0.5468749999999993
 40
0.5624999999999992
 40
0.5624999999999992
 40
0.5937499999999989
 40
0.5937499999999989
 40
0.6249999999999986
 40
0.6249999999999986
 40
0.6562499999999983
 40
0.6562499999999983
 40
0.687499999999998
 40
0.687499999999998
 40
0.7187499999999977
 40
0.7187499999999977
 40
0.7499999999999973
 40
0.7499999999999973
 40
0.7656249999999977
 40
0.7656249999999977
 40
0.7812499999999979
 40
0.7812499999999979
 40
0.8124999999999982
 40
0.8124999999999982
 40
0.8281249999999984
 40
0.8281249999999984
 40
0.8437499999999987
 40
0.8437499999999987
 40
0.874999999999999
 40
0.874999999999999
 40
0.8906249999999991
 40
0.8906249999999991
 40
0.9062499999999992
 40
0.9062499999999992
 40
0.9218749999999993
 40
0.9218749999999993
 40
0.9374999999999994
 40
0.9374999999999994
 40
0.9687499999999998
 40
0.9687499999999998
 40
1.0
 40
1.0
 40
1.0
 40
1.0
 10
238.9261346823749
 20
123.6720464958445
 30
0.0
 10
239.2772764454548
 20
123.9524309501069
 30
0.0
 10
239.6493251191717
 20
124.1954071849677
 30
0.0
 10
240.2361711191234
 20
124.5092743399913
 30
0.0
 10
240.43662350869
 20
124.6053873109264
 30
0.0
 10
240.8472111307522
 20
124.7807098770984
 30
0.0
 10
241.0583340644835
 20
124.8602243459954
 30
0.0
 10
241.6988589457677
 20
125.0704236122225
 30
0.0
 10
242.1331656361477
 20
125.1727422693856
 30
0.0
 10
242.795165296722
 20
125.2720703068162
 30
0.0
 10
243.0175996308618
 20
125.2960929414977
 30
0.0
 10
243.4660672602432
 20
125.3256813790691
 30
0.0
 10
243.6929232084109
 20
125.3311671981866
 30
0.0
 10
244.3669103194153
 20
125.319395340624
 30
0.0
 10
244.8107208088431
 20
125.2746192291674
 30
0.0
 10
245.4683073294783
 20
125.1527807656686
 30
0.0
 10
245.6861401806164
 20
125.1029995428939
 30
0.0
 10
246.1190052242932
 20
124.984505825808
 30
0.0
 10
246.334505666358
 20
124.91552019125
 30
0.0
 10
246.964166791863
 20
124.6836323612107
 30
0.0
 10
247.3657371019453
 20
124.4951245831208
 30
0.0
 10
247.9405465969257
 20
124.1602519888888
 30
0.0
 10
248.1275290172873
 20
124.0398848602195
 30
0.0
 10
248.491799711712
 20
123.7806492657209
 30
0.0
 10
248.6691362088696
 20
123.6415433037184
 30
0.0
 10
249.1741070170501
 20
123.2048753409331
 30
0.0
 10
249.4792248573346
 20
122.885393154091
 30
0.0
 10
249.8870310168456
 20
122.3605662944423
 30
0.0
 10
250.0145935368537
 20
122.1779681272924
 30
0.0
 10
250.2516246101418
 20
121.796110101741
 30
0.0
 10
250.3599246618419
 20
121.5984398943399
 30
0.0
 10
250.6481749652364
 20
120.9954742936189
 30
0.0
 10
250.7944693361629
 20
120.5763090584767
 30
0.0
 10
250.9400172427583
 20
119.919654776364
 30
0.0
 10
250.9761725186737
 20
119.6944044610506
 30
0.0
 10
251.0206119953302
 20
119.2461905990926
 30
0.0
 10
251.0379496761311
 20
118.7986918354311
 30
0.0
 10
251.002154490609
 20
118.3525956680264
 30
0.0
 10
250.9394693545459
 20
117.9072086627119
 30
0.0
 10
250.8942446236763
 20
117.6837443978126
 30
0.0
 10
250.7217419368077
 20
117.0314275203206
 30
0.0
 10
250.5579126114596
 20
116.6156659770936
 30
0.0
 10
250.2429698940173
 20
116.018876064305
 30
0.0
 10
250.1265603973253
 20
115.8251723209455
 30
0.0
 10
249.876401592246
 20
115.4547794038845
 30
0.0
 10
249.7420975690187
 20
115.2769982539649
 30
0.0
 10
249.3127094534341
 20
114.7647814456425
 30
0.0
 10
248.987954696052
 20
114.4490482186085
 30
0.0
 10
248.2924349990735
 20
113.8906652427603
 30
0.0
 10
247.9207695140217
 20
113.645786417416
 30
0.0
 10
247.3286073814183
 20
113.3273716796211
 30
0.0
 10
247.1248856125546
 20
113.2293253734787
 30
0.0
 10
246.7131233692733
 20
113.052869340614
 30
0.0
 10
246.5042576853093
 20
112.9739619587584
 30
0.0
 10
245.8689414092879
 20
112.764283624809
 30
0.0
 10
245.4338425688068
 20
112.6603252325642
 30
0.0
 10
244.5399765858642
 20
112.5250969680879
 30
0.0
 10
244.0916121966286
 20
112.4955876320132
 30
0.0
 10
243.1984668691608
 20
112.5099876235515
 30
0.0
 10
242.7522647077362
 20
112.5537984116337
 30
0.0
 10
241.8628477991498
 20
112.7180153601729
 30
0.0
 10
241.4319390395177
 20
112.836081544609
 30
0.0
 10
240.5968838629097
 20
113.1426947882266
 30
0.0
 10
240.1916034692811
 20
113.3318424347755
 30
0.0
 10
239.4145106952028
 20
113.7845174339836
 30
0.0
 10
239.0526989516187
 20
114.0419620893669
 30
0.0
 10
238.5502892777347
 20
114.4758358738051
 30
0.0
 10
238.3895853295563
 20
114.6284682862498
 30
0.0
 10
238.0823955546434
 20
114.9507039455544
 30
0.0
 10
237.9351161386505
 20
115.121351519405
 30
0.0
 10
237.5223705137432
 20
115.653390514693
 30
0.0
 10
237.2881996414711
 20
116.0304614938755
 30
0.0
 10
237.0007194800199
 20
116.6313268568459
 30
0.0
 10
236.9156023427589
 20
116.8375347956504
 30
0.0
 10
236.7683133105845
 20
117.2626922884366
 30
0.0
 10
236.7062948933028
 20
117.4820822522878
 30
0.0
 10
236.5616836854261
 20
118.1399058099699
 30
0.0
 10
236.5175213301373
 20
118.5844270138803
 30
0.0
 10
236.5319585979125
 20
119.2604529701091
 30
0.0
 10
236.5506427678148
 20
119.4882853386707
 30
0.0
 10
236.614300260644
 20
119.9342610275557
 30
0.0
 10
236.6591896425047
 20
120.1539133416607
 30
0.0
 10
236.7741981902439
 20
120.5867900746126
 30
0.0
 10
236.8443194683292
 20
120.8000139260443
 30
0.0
 10
237.0097462378522
 20
121.220069355074
 30
0.0
 10
237.1047569373692
 20
121.4257395180877
 30
0.0
 10
237.4196482002395
 20
122.0194367566233
 30
0.0
 10
237.6707887625512
 20
122.3889456497539
 30
0.0
 10
238.2513299712046
 20
123.0787209472648
 30
0.0
 10
238.5749929192949
 20
123.3916620415821
 30
0.0
 10
238.9261346823749
 20
123.6720464958445
 30
0.0
  0
LINE
  5
D5
330
1F
100
AcDbEntity
  8
0
  6
Continuous
 62
     7
370
    15
100
AcDbLine
 10
257.3258611806
 20
118.9151069271
 30
0.0
 11
257.3258611806
 21
93.9151065546
 31
0.0
  0
LINE
  5
D6
330
1F
100
AcDbEntity
  8
0
  6
Continuous
 62
     7
370
    15
100
AcDbLine
 10
257.3258611806
 20
143.9151072997
 30
0.0
 11
257.3258611806
 21
118.9151069271
 31
0.0
  0
LINE
  5
D7
330
1F
100
AcDbEntity
  8
0
  6
Continuous
 62
     7
370
    15
100
AcDbLine
 10
257.8258621939
 20
118.9151069271
 30
0.0
 11
257.8258621939
 21
94.4151075679
 31
0.0
  0
LINE
  5
D8
330
1F
100
AcDbEntity
  8
0
  6
Continuous
 62
     7
370
    15
100
AcDbLine
 10
257.8258621939
 20
143.4151062864
 30
0.0
 11
257.8258621939
 21
118.9151069271
 31
0.0
  0
CIRCLE
  5
D9
330
1F
100
AcDbEntity
  8
0
  6
Continuous
 62
     7
370
    15
100
AcDbCircle
 10
243.7758648761
 20
118.9151069271
 30
0.0
 40
5.5
  0
LINE
  5
DA
330
1F
100
AcDbEntity
  8
0
  6
Continuous
 62
     7
370
    15
100
AcDbLine
 10
36.2258661039
 20
100.5362624425
 30
0.0
 11
36.2258661039
 21
137.2939514118
 31
0.0
  0
SPLINE
  5
DB
330
1F
100
AcDbEntity
  8
0
  6
Continuous
 62
     7
370
    15
100
AcDbSpline
210
0.0
220
0.0
230
1.0
 70
     8
 71
     3
 72
    10
 73
     6
 74
     0
 42
0.000000001
 43
0.00000001
 40
0.0
 40
0.0
 40
0.0
 40
0.0
 40
0.4391281499510109
 40
0.7513748048022787
 40
1.0
 40
1.0
 40
1.0
 40
1.0
 10
244.9805471547078
 20
122.162990097988
 30
0.0
 10
244.4916361771739
 20
122.0798623877745
 30
0.0
 10
243.6550799455791
 20
121.9376258514872
 30
0.0
 10
242.4390166335115
 20
121.7308604452383
 30
0.0
 10
241.8337562328178
 20
121.6279507526974
 30
0.0
 10
241.5654543288182
 20
121.5823325916264
 30
0.0
  0
SPLINE
  5
DC
330
1F
100
AcDbEntity
  8
0
  6
Continuous
 62
     7
370
    15
100
AcDbSpline
210
0.0
220
0.0
230
1.0
 70
     8
 71
     3
 72
    11
 73
     7
 74
     0
 42
0.000000001
 43
0.00000001
 40
0.0
 40
0.0
 40
0.0
 40
0.0
 40
0.1849305112154229
 40
0.5198462205729296
 40
0.871444103161717
 40
0.9999999999999999
 40
0.9999999999999999
 40
0.9999999999999999
 40
0.9999999999999999
 10
241.5654543288182
 20
121.5823325916264
 30
0.0
 10
241.4953373940151
 20
121.393289819276
 30
0.0
 10
241.298236205488
 20
120.8618838869229
 30
0.0
 10
240.9303031956419
 20
119.8699152012925
 30
0.0
 10
240.5904907855556
 20
118.9537939393083
 30
0.0
 10
240.4092915155713
 20
118.4652513795561
 30
0.0
 10
240.3607774026821
 20
118.334449478991
 30
0.0
  0
SPLINE
  5
DD
330
1F
100
AcDbEntity
  8
0
  6
Continuous
 62
     7
370
    15
100
AcDbSpline
210
0.0
220
0.0
230
1.0
 70
     8
 71
     3
 72
    10
 73
     6
 74
     0
 42
0.000000001
 43
0.00000001
 40
0.0
 40
0.0
 40
0.0
 40
0.0
 40
0.439127165855533
 40
0.7513750562609784
 40
1.0
 40
1.0
 40
1.0
 40
1.0
 10
240.3607774026821
 20
118.334449478991
 30
0.0
 10
240.6772218771487
 20
117.9526048242942
 30
0.0
 10
241.2186788930053
 20
117.2992438591468
 30
0.0
 10
242.0057711406865
 20
116.3494827523418
 30
0.0
 10
242.397527313692
 20
115.8767692413424
 30
0.0
 10
242.5711858518551
 20
115.6672237563018
 30
0.0
  0
SPLINE
  5
DE
330
1F
100
AcDbEntity
  8
0
  6
Continuous
 62
     7
370
    15
100
AcDbSpline
210
0.0
220
0.0
230
1.0
 70
     8
 71
     3
 72
    11
 73
     7
 74
     0
 42
0.000000001
 43
0.00000001
 40
0.0
 40
0.0
 40
0.0
 40
0.0
 40
0.1285564830879001
 40
0.480153436417273
 40
0.8150689706193014
 40
1.0
 40
1.0
 40
1.0
 40
1.0
 10
245.9862712271641
 20
116.2478812626634
 30
0.0
 10
246.0347882828563
 20
116.378683018359
 30
0.0
 10
246.2159975883374
 20
116.8672224601522
 30
0.0
 10
246.5557940933142
 20
117.7833489110226
 30
0.0
 10
246.9237273380367
 20
118.7753173548981
 30
0.0
 10
247.1208358969327
 20
119.3067217462097
 30
0.0
 10
247.1909556038807
 20
119.4957643752988
 30
0.0
  0
CIRCLE
  5
DF
330
1F
100
AcDbEntity
  8
0
  6
Continuous
 62
     7
370
    15
100
AcDbCircle
 10
243.7758648761
 20
118.9151069271
 30
0.0
 40
3.600000000000001
  0
SPLINE
  5
E0
330
1F
100
AcDbEntity
  8
0
  6
Continuous
 62
     7
370
    15
100
AcDbSpline
210
0.0
220
0.0
230
1.0
 70
     8
 71
     3
 72
    10
 73
     6
 74
     0
 42
0.000000001
 43
0.00000001
 40
0.0
 40
0.0
 40
0.0
 40
0.0
 40
0.439128412975389
 40
0.7513762915433309
 40
1.0
 40
1.0
 40
1.0
 40
1.0
 10
247.1909556038807
 20
119.4957643752988
 30
0.0
 10
246.8745084363102
 20
119.8776088103854
 30
0.0
 10
246.3330474599467
 20
120.5309686183691
 30
0.0
 10
245.5459538441071
 20
121.4807289989659
 30
0.0
 10
245.1542028988355
 20
121.9534443655774
 30
0.0
 10
244.9805471547078
 20
122.162990097988
 30
0.0
  0
SPLINE
  5
E1
330
1F
100
AcDbEntity
  8
0
  6
Continuous
 62
     7
370
    15
100
AcDbSpline
210
0.0
220
0.0
230
1.0
 70
     8
 71
     3
 72
    10
 73
     6
 74
     0
 42
0.000000001
 43
0.00000001
 40
0.0
 40
0.0
 40
0.0
 40
0.0
 40
0.4391269965393156
 40
0.7513762463125524
 40
0.9999999999999999
 40
0.9999999999999999
 40
0.9999999999999999
 40
0.9999999999999999
 10
242.5711858518551
 20
115.6672237563018
 30
0.0
 10
243.0600941992906
 20
115.7503518724078
 30
0.0
 10
243.8966497328423
 20
115.8925897496848
 30
0.0
 10
245.1127124297667
 20
116.0993519580074
 30
0.0
 10
245.71797186048
 20
116.2022629041832
 30
0.0
 10
245.9862712271641
 20
116.2478812626634
 30
0.0
  0
CIRCLE
  5
E2
330
1F
100
AcDbEntity
  8
0
  6
Continuous
 62
     7
370
    15
100
AcDbCircle
 10
243.7758648761
 20
118.9151069271
 30
0.0
 40
5.299999999999997
  0
ARC
  5
E3
330
1F
100
AcDbEntity
  8
0
  6
Continuous
 62
     7
370
    15
100
AcDbCircle
 10
243.7758648761
 20
118.9151069271
 30
0.0
 40
2.999999999999989
100
AcDbArc
 50
159.6495490506
 51
219.6495490506
  0
ARC
  5
E4
330
1F
100
AcDbEntity
  8
0
  6
Continuous
 62
     7
370
    15
100
AcDbCircle
 10
243.7758648761
 20
118.9151069271
 30
0.0
 40
3.000000000000016
100
AcDbArc
 50
339.6495490506
 51
39.6495490506
  0
ARC
  5
E5
330
1F
100
AcDbEntity
  8
0
  6
Continuous
 62
     7
370
    15
100
AcDbCircle
 10
243.7758648761
 20
118.9151069271
 30
0.0
 40
3.00000000000001
100
AcDbArc
 50
99.6495490506
 51
159.6495490506
  0
ARC
  5
E6
330
1F
100
AcDbEntity
  8
0
  6
Continuous
 62
     7
370
    15
100
AcDbCircle
 10
243.7758648761
 20
118.9151069271
 30
0.0
 40
3.000000000000001
100
AcDbArc
 50
219.6495490506
 51
279.6495490506
  0
ARC
  5
E7
330
1F
100
AcDbEntity
  8
0
  6
Continuous
 62
     7
370
    15
100
AcDbCircle
 10
243.7758648761
 20
118.9151069271
 30
0.0
 40
3.000000000000016
100
AcDbArc
 50
279.6495490506
 51
339.6495490506
  0
ARC
  5
E8
330
1F
100
AcDbEntity
  8
0
  6
Continuous
 62
     7
370
    15
100
AcDbCircle
 10
243.7758648761
 20
118.9151069271
 30
0.0
 40
3.00000000000001
100
AcDbArc
 50
39.6495490506
 51
99.6495490506
  0
LINE
  5
E9
330
1F
100
AcDbEntity
  8
0
  6
Continuous
 62
     7
370
    15
100
AcDbLine
 10
241.0962689169
 20
143.2151066261
 30
0.0
 11
246.4792686947
 21
143.2151066261
 31
0.0
  0
LINE
  5
EA
330
1F
100
AcDbEntity
  8
0
  6
Continuous
 62
     7
370
    15
100
AcDbLine
 10
248.7450573094
 20
143.9151072997
 30
0.0
 11
249.0758630879
 21
143.9151072997
 31
0.0
  0
LINE
  5
EB
330
1F
100
AcDbEntity
  8
0
  6
Continuous
 62
     7
370
    15
100
AcDbLine
 10
238.475862468
 20
143.9151072997
 30
0.0
 11
248.7450573094
 21
143.9151072997
 31
0.0
  0
ARC
  5
EC
330
1F
100
AcDbEntity
  8
0
  6
Continuous
 62
     7
370
    15
100
AcDbCircle
 10
151.8297764001
 20
103.7000450341
 30
0.0
 40
2.306037269919992
100
AcDbArc
 50
186.9442933908
 51
233.842900348
  0
ARC
  5
ED
330
1F
100
AcDbEntity
  8
0
  6
Continuous
 62
     7
370
    15
100
AcDbCircle
 10
152.0203155029
 20
103.8666947197
 30
0.0
 40
2.553612508804682
100
AcDbArc
 50
232.5971325953
 51
338.7327772055
  0
ARC
  5
EE
330
1F
100
AcDbEntity
  8
0
  6
Continuous
 62
     7
370
    15
100
AcDbCircle
 10
151.8033103472
 20
103.6257028082
 30
0.0
 40
2.134566346763829
100
AcDbArc
 50
154.3652421352
 51
234.2563992202
  0
ARC
  5
EF
330
1F
100
AcDbEntity
  8
0
  6
Continuous
 62
     7
370
    15
100
AcDbCircle
 10
152.0207541649
 20
103.7885998126
 30
0.0
 40
2.395182856326799
100
AcDbArc
 50
232.3105531081
 51
345.146505917
  0
ARC
  5
F0
330
1F
100
AcDbEntity
  8
0
  6
Continuous
 62
     7
370
    15
100
AcDbCircle
 10
151.8498512414
 20
103.6289319772
 30
0.0
 40
1.818603434532798
100
AcDbArc
 50
124.5508661909
 51
233.9859547503
  0
ARC
  5
F1
330
1F
100
AcDbEntity
  8
0
  6
Continuous
 62
     7
370
    15
100
AcDbCircle
 10
152.0213879941
 20
103.7358045839
 30
0.0
 40
2.007346479959224
100
AcDbArc
 50
231.8186757373
 51
356.9362245758
  0
LWPOLYLINE
  5
F2
330
1F
100
AcDbEntity
  8
0
  6
HIDDEN
 62
     7
370
     0
100
AcDbPolyline
 90
       20
 70
   128
 43
0.0
 10
152.0258649685
 20
103.0577903736
 10
152.8376131751
 20
103.1850779551
 10
153.5613961019
 20
103.5531478125
 10
154.1187814869
 20
104.1221132624
 10
154.4493656106
 20
104.8303188878
 10
154.5173260816
 20
105.601019052
 10
154.3152980007
 20
106.3506964716
 10
153.8651748993
 20
106.9981128099
 10
153.2157329343
 20
107.4731087434
 10
152.4373512216
 20
107.7242128673
 10
151.6143787153
 20
107.7242128673
 10
150.8359960713
 20
107.4731087434
 10
150.1865550377
 20
106.9981128099
 10
149.7364319362
 20
106.3506964716
 10
149.5344038554
 20
105.601019052
 10
149.6023643263
 20
104.8303188878
 10
149.93294845
 20
104.1221132624
 10
150.4903329037
 20
103.5531478125
 10
151.2141158305
 20
103.1850779551
 10
152.0258649685
 20
103.0577903736
  0
LWPOLYLINE
  5
F3
330
1F
100
AcDbEntity
  8
0
  6
HIDDEN
 62
     7
370
     0
100
AcDbPolyline
 90
       22
 70
   128
 43
0.0
 10
141.2975958515
 20
105.0102466839
 10
141.5157707375
 20
104.1431639466
 10
141.8610807009
 20
103.3531248692
 10
142.3028433196
 20
102.7103269595
 10
142.8018059082
 20
102.2718900937
 10
143.3136333212
 20
102.0767649758
 10
143.792848146
 20
102.1422946948
 10
144.196869383
 20
102.4626547593
 10
144.4897982724
 20
103.0093783635
 10
144.6456066765
 20
103.7338877219
 10
144.6504504852
 20
104.5718079555
 10
144.5038989619
 20
105.4486854124
 10
144.2189743243
 20
106.286605646
 10
143.8209927142
 20
107.0111159357
 10
143.3453173809
 20
107.5578395399
 10
142.8342136055
 20
107.8781986731
 10
142.3330954708
 20
107.9437283921
 10
141.8864890434
 20
107.7486042055
 10
141.5340779781
 20
107.3101664084
 10
141.3071749699
 20
106.6673694301
 10
141.2259415224
 20
105.8773303527
 10
141.2975958515
 20
105.0102466839
  0
LWPOLYLINE
  5
F4
330
1F
100
AcDbEntity
  8
0
  6
HIDDEN
 62
     7
370
     0
100
AcDbPolyline
 90
       18
 70
   128
 43
0.0
 10
142.0606277384
 20
105.0745088729
 10
142.2628965661
 20
104.3306419748
 10
142.5937419258
 20
103.6872377741
 10
143.00848222
 20
103.2311933237
 10
143.4511039838
 20
103.0240969854
 10
143.8618284151
 20
103.0939219642
 10
144.18518501
 20
103.4312358248
 10
144.3775031217
 20
103.9904819924
 10
144.4128086291
 20
104.6961320686
 10
144.2863336265
 20
105.4528847459
 10
144.0151590355
 20
106.1585348222
 10
143.6359086506
 20
106.7177809897
 10
143.1998024196
 20
107.0550948503
 10
142.7657385789
 20
107.1249188977
 10
142.3923401594
 20
106.9178244221
 10
142.1300364159
 20
106.4617790404
 10
142.0142534621
 20
105.818375771
 10
142.0606277384
 20
105.0745088729
  0
ELLIPSE
  5
F5
330
1F
100
AcDbEntity
  8
0
  6
HIDDEN
 62
     7
370
     0
100
AcDbEllipse
 10
152.0258648761
 20
107.1845968158
 30
0.0
 11
1.760776919379055
 21
2.232245799914452
 31
0.0
210
0.0
220
0.0
230
1.0
 40
0.5126701559
 41
1.100887047646265
 42
4.029627027608239
  0
ARC
  5
F6
330
1F
100
AcDbEntity
  8
0
  6
HIDDEN
 62
     7
370
     0
100
AcDbCircle
 10
151.3292654075
 20
108.3621366969
 30
0.0
 40
0.7945949542257933
100
AcDbArc
 50
53.4208190544
 51
99.1663888759
  0
ELLIPSE
  5
F7
330
1F
100
AcDbEntity
  8
0
  6
HIDDEN
 62
     7
370
     0
100
AcDbEllipse
 10
152.0258648761
 20
107.1845968158
 30
0.0
 11
1.760776919379055
 21
-1.388886188042946
 31
0.0
210
0.0
220
0.0
230
1.0
 40
0.8239737799
 41
2.549926265248573
 42
4.885930273856122
  0
ARC
  5
F8
330
1F
100
AcDbEntity
  8
0
  6
HIDDEN
 62
     7
370
     0
100
AcDbCircle
 10
152.271917638
 20
106.3451192518
 30
0.0
 40
1.353195702694764
100
AcDbArc
 50
217.8001040701
 51
249.7155767561
  0
LWPOLYLINE
  5
F9
330
1F
100
AcDbEntity
  8
0
  6
HIDDEN
 62
     7
370
     0
100
AcDbPolyline
 90
       18
 70
   128
 43
0.0
 10
152.0258649685
 20
103.4834606695
 10
152.7844728403
 20
103.6167170974
 10
153.4406259157
 20
103.9984885725
 10
153.9057079204
 20
104.5772152144
 10
154.1169058032
 20
105.2747376385
 10
154.0456987418
 20
105.9968497726
 10
153.7017017104
 20
106.6460272419
 10
153.1313728042
 20
107.1345953393
 10
152.4117389195
 20
107.3965698603
 10
151.6399910174
 20
107.3965698603
 10
150.9203571327
 20
107.1345953393
 10
150.3500291579
 20
106.6460272419
 10
150.0060311951
 20
105.9968497726
 10
149.9348232024
 20
105.2747376385
 10
150.1460220166
 20
104.5772152144
 10
150.6111040212
 20
103.9984885725
 10
151.2672570966
 20
103.6167170974
 10
152.0258649685
 20
103.4834606695
  0
SPLINE
  5
FA
330
1F
100
AcDbEntity
  8
0
  6
HIDDEN
 62
     7
370
     0
100
AcDbSpline
210
0.0
220
0.0
230
1.0
 70
    11
 71
     3
 72
    64
 73
    60
 74
     0
 42
0.000000001
 43
0.00000001
 40
0.0
 40
0.0
 40
0.0
 40
0.0
 40
0.0312500000000003
 40
0.0312500000000003
 40
0.0625000000000005
 40
0.0625000000000005
 40
0.0937500000000008
 40
0.0937500000000008
 40
0.125000000000001
 40
0.125000000000001
 40
0.1875000000000013
 40
0.1875000000000013
 40
0.2187500000000014
 40
0.2187500000000014
 40
0.2500000000000015
 40
0.2500000000000015
 40
0.2812500000000017
 40
0.2812500000000017
 40
0.3125000000000018
 40
0.3125000000000018
 40
0.343750000000002
 40
0.343750000000002
 40
0.3750000000000021
 40
0.3750000000000021
 40
0.4062500000000023
 40
0.4062500000000023
 40
0.4375000000000024
 40
0.4375000000000024
 40
0.5000000000000023
 40
0.5000000000000023
 40
0.5312500000000021
 40
0.5312500000000021
 40
0.562500000000002
 40
0.562500000000002
 40
0.5937500000000018
 40
0.5937500000000018
 40
0.6250000000000016
 40
0.6250000000000016
 40
0.6562500000000014
 40
0.6562500000000014
 40
0.6875000000000012
 40
0.6875000000000012
 40
0.718750000000001
 40
0.718750000000001
 40
0.7500000000000008
 40
0.7500000000000008
 40
0.8125000000000002
 40
0.8125000000000002
 40
0.84375
 40
0.84375
 40
0.8749999999999999
 40
0.8749999999999999
 40
0.9062499999999999
 40
0.9062499999999999
 40
0.9374999999999999
 40
0.9374999999999999
 40
0.96875
 40
0.96875
 40
1.0
 40
1.0
 40
1.0
 40
1.0
 10
152.0258648760746
 20
115.3521864404932
 30
0.0
 10
151.8854538218011
 20
115.3521864404932
 30
0.0
 10
151.747743319916
 20
115.3631053057376
 30
0.0
 10
151.4773778486943
 20
115.4059138496327
 30
0.0
 10
151.343319356345
 20
115.4383903352735
 30
0.0
 10
151.0899709342963
 20
115.5229426794932
 30
0.0
 10
150.970060360649
 20
115.5748362687733
 30
0.0
 10
150.7430973355553
 20
115.6988607007637
 30
0.0
 10
150.637051340507
 20
115.7707413248641
 30
0.0
 10
150.3499081555454
 20
116.0105413051602
 30
0.0
 10
150.19398736363
 20
116.2084031207442
 30
0.0
 10
150.0357681248004
 20
116.5430402303799
 30
0.0
 10
149.9945173566942
 20
116.6632326422555
 30
0.0
 10
149.9397994864257
 20
116.9110932678283
 30
0.0
 10
149.9260224242993
 20
117.0381955441852
 30
0.0
 10
149.9257099887758
 20
117.2989705762546
 30
0.0
 10
149.9396594203333
 20
117.4332141620867
 30
0.0
 10
149.9939289849492
 20
117.6952386868908
 30
0.0
 10
150.0341994023183
 20
117.8248777463544
 30
0.0
 10
150.1409440754809
 20
118.0795266967703
 30
0.0
 10
150.2057942720568
 20
118.2008118751936
 30
0.0
 10
150.3573995283306
 20
118.4315245684944
 30
0.0
 10
150.4451890097129
 20
118.5418399504184
 30
0.0
 10
150.6372214174812
 20
118.7422131142275
 30
0.0
 10
150.7416594782673
 20
118.8330216247869
 30
0.0
 10
150.9681508823355
 20
118.9949107310332
 30
0.0
 10
151.0901308147481
 20
119.0654694683779
 30
0.0
 10
151.4678921871561
 20
119.2360123665523
 30
0.0
 10
151.7469282897826
 20
119.2985340952184
 30
0.0
 10
152.1615871121637
 20
119.2990736867286
 30
0.0
 10
152.3018083062424
 20
119.2840057311499
 30
0.0
 10
152.5740564935083
 20
119.2245873902361
 30
0.0
 10
152.7055158163004
 20
119.18082384142
 30
0.0
 10
152.959614214245
 20
119.0666153487281
 30
0.0
 10
153.081626943767
 20
118.9960827723987
 30
0.0
 10
153.3074095715375
 20
118.8351420344088
 30
0.0
 10
153.4130631451666
 20
118.743629324507
 30
0.0
 10
153.6065626237603
 20
118.5419081958805
 30
0.0
 10
153.6926571482419
 20
118.4337361250989
 30
0.0
 10
153.8443067255784
 20
118.2036178271175
 30
0.0
 10
153.9104124202323
 20
118.0801030985522
 30
0.0
 10
154.0164111795747
 20
117.8278572663499
 30
0.0
 10
154.0567387599459
 20
117.6991228001047
 30
0.0
 10
154.1115974080992
 20
117.4367065411009
 30
0.0
 10
154.1257666649337
 20
117.3023443627997
 30
0.0
 10
154.1260597309319
 20
116.9119001212663
 30
0.0
 10
154.0698169720955
 20
116.6577959943106
 30
0.0
 10
153.9114730500127
 20
116.3216255574571
 30
0.0
 10
153.8455428680697
 20
116.2148975750317
 30
0.0
 10
153.6934185312066
 20
116.0202095242665
 30
0.0
 10
153.6072765280212
 20
115.9316433870845
 30
0.0
 10
153.4145231760415
 20
115.7705531159775
 30
0.0
 10
153.308237237744
 20
115.6986811699347
 30
0.0
 10
153.0829685659423
 20
115.5755099357606
 30
0.0
 10
152.9630669631161
 20
115.523382022764
 30
0.0
 10
152.7071887937906
 20
115.4379798758273
 30
0.0
 10
152.5756518658222
 20
115.4062054177854
 30
0.0
 10
152.3058285272124
 20
115.3633122304036
 30
0.0
 10
152.1662759303481
 20
115.3521864404932
 30
0.0
 10
152.0258648760746
 20
115.3521864404932
 30
0.0
  0
SPLINE
  5
FB
330
1F
100
AcDbEntity
  8
0
  6
HIDDEN
 62
     7
370
     0
100
AcDbSpline
210
0.0
220
0.0
230
1.0
 70
     8
 71
     3
 72
     8
 73
     4
 74
     0
 42
0.000000001
 43
0.00000001
 40
0.0
 40
0.0
 40
0.0
 40
0.0
 40
1.0
 40
1.0
 40
1.0
 40
1.0
 10
151.2026846999152
 20
109.1465848916663
 30
0.0
 10
151.4141120899164
 20
109.1390753818838
 30
0.0
 10
151.6165806364492
 20
109.0849518522492
 30
0.0
 10
151.8027912355866
 20
109.000223565024
 30
0.0
  0
SPLINE
  5
FC
330
1F
100
AcDbEntity
  8
0
  6
HIDDEN
 62
     7
370
     0
100
AcDbSpline
210
0.0
220
0.0
230
1.0
 70
     8
 71
     3
 72
     8
 73
     4
 74
     0
 42
0.000000001
 43
0.00000001
 40
0.0
 40
0.0
 40
0.0
 40
0.0
 40
1.0
 40
1.0
 40
1.0
 40
1.0
 10
151.8027912355865
 20
105.0758447970898
 30
0.0
 10
151.6162668863021
 20
105.1981652129902
 30
0.0
 10
151.4137119877765
 20
105.3392503736549
 30
0.0
 10
151.2026846999153
 20
105.5157340094398
 30
0.0
  0
LINE
  5
FD
330
1F
100
AcDbEntity
  8
0
  6
HIDDEN
 62
     7
370
     0
100
AcDbLine
 10
229.3258640416
 20
118.9151069271
 30
0.0
 11
229.3258640416
 21
105.415106577
 31
0.0
  0
LINE
  5
FE
330
1F
100
AcDbEntity
  8
0
  6
HIDDEN
 62
     7
370
     0
100
AcDbLine
 10
229.3258640416
 20
132.4151072773
 30
0.0
 11
229.3258640416
 21
118.9151069271
 31
0.0
  0
LINE
  5
FF
330
1F
100
AcDbEntity
  8
0
  6
HIDDEN
 62
     7
370
     0
100
AcDbLine
 10
234.1918903835
 20
118.9151069271
 30
0.0
 11
234.1918903835
 21
104.915106495
 31
0.0
  0
LINE
  5
100
330
1F
100
AcDbEntity
  8
0
  6
HIDDEN
 62
     7
370
     0
100
AcDbLine
 10
234.1918903835
 20
132.9151073593
 30
0.0
 11
234.1918903835
 21
118.9151069271
 31
0.0
  0
SPLINE
  5
101
330
1F
100
AcDbEntity
  8
0
  6
HIDDEN
 62
     7
370
     0
100
AcDbSpline
210
0.0
220
0.0
230
1.0
 70
     8
 71
     3
 72
    12
 73
     8
 74
     0
 42
0.000000001
 43
0.00000001
 40
0.0
 40
0.0
 40
0.0
 40
0.0
 40
0.2033282441509758
 40
0.4062572954055899
 40
0.6193200155683997
 40
0.8402930887092308
 40
1.0
 40
1.0
 40
1.0
 40
1.0
 10
243.7758627779911
 20
131.7894997197274
 30
0.0
 10
244.3668829022884
 20
131.8140378158981
 30
0.0
 10
245.5477628052741
 20
131.8630658327697
 30
0.0
 10
247.1412784588001
 20
132.2014158392491
 30
0.0
 10
248.3982601798135
 20
132.5807345218908
 30
0.0
 10
249.1778425280165
 20
132.8761526359488
 30
0.0
 10
249.2075421283235
 20
132.8882994680496
 30
0.0
 10
249.2200020201634
 20
132.8933954360966
 30
0.0
  0
LINE
  5
102
330
1F
100
AcDbEntity
  8
0
  6
HIDDEN
 62
     7
370
     0
100
AcDbLine
 10
244.2854601391
 20
131.8237630772
 30
0.0
 11
243.1839141496
 21
131.8172261241
 31
0.0
  0
SPLINE
  5
103
330
1F
100
AcDbEntity
  8
0
  6
HIDDEN
 62
     7
370
     0
100
AcDbSpline
210
0.0
220
0.0
230
1.0
 70
     8
 71
     3
 72
    15
 73
    11
 74
     0
 42
0.000000001
 43
0.00000001
 40
0.0
 40
0.0
 40
0.0
 40
0.0
 40
0.0095516389802618
 40
0.1774856319219326
 40
0.3347937901207592
 40
0.4876528013713984
 40
0.6472464122256023
 40
0.8162537434940961
 40
0.9702404033789365
 40
1.0
 40
1.0
 40
1.0
 40
1.0
 10
238.8909566648434
 20
132.6871484640125
 30
0.0
 10
238.8701094779135
 20
132.6938686530718
 30
0.0
 10
238.4827334313854
 20
132.8187411492247
 30
0.0
 10
238.243036830397
 20
132.93464649727
 30
0.0
 10
238.3003489449096
 20
132.9029154331155
 30
0.0
 10
238.9626027606528
 20
132.6522547964134
 30
0.0
 10
240.1079408617267
 20
132.2798280460649
 30
0.0
 10
241.6562346828131
 20
131.926923062895
 30
0.0
 10
242.972883319601
 20
131.7960370675237
 30
0.0
 10
243.6639391729625
 20
131.7904109305001
 30
0.0
 10
243.7758627779911
 20
131.7894997197274
 30
0.0
  0
LINE
  5
104
330
1F
100
AcDbEntity
  8
0
  6
HIDDEN
 62
     7
370
     0
100
AcDbLine
 10
141.1974376965
 20
83.6151054251
 30
0.0
 11
141.0258647952
 21
83.6151054251
 31
0.0
  0
ELLIPSE
  5
105
330
1F
100
AcDbEntity
  8
0
  6
HIDDEN
 62
     7
370
     0
100
AcDbEllipse
 10
141.1974377513
 20
81.6151069271
 30
0.0
 11
0.0
 21
2.0
 31
0.0
210
0.0
220
0.0
230
1.0
 40
0.4142135624
 41
4.712388980384695
 42
6.283185307179586
  0
LINE
  5
106
330
1F
100
AcDbEntity
  8
0
  6
HIDDEN
 62
     7
370
     0
100
AcDbLine
 10
141.0258647952
 20
156.4151084173
 30
0.0
 11
141.1974376965
 21
156.4151084173
 31
0.0
  0
ELLIPSE
  5
107
330
1F
100
AcDbEntity
  8
0
  6
HIDDEN
 62
     7
370
     0
100
AcDbEllipse
 10
141.1974377513
 20
158.4151069271
 30
0.0
 11
0.0
 21
2.0
 31
0.0
210
0.0
220
0.0
230
1.0
 40
0.4142135624
 41
3.141592653589793
 42
4.712388980384681
  0
LINE
  5
108
330
1F
100
AcDbEntity
  8
0
  6
HIDDEN
 62
     7
370
     0
100
AcDbLine
 10
142.0258647263
 20
72.7291925001
 30
0.0
 11
141.2415248774
 21
72.2816510248
 31
0.0
  0
LINE
  5
109
330
1F
100
AcDbEntity
  8
0
  6
HIDDEN
 62
     7
370
     0
100
AcDbLine
 10
141.3157338243
 20
165.625270282
 30
0.0
 11
142.0258647263
 21
164.9151405442
 31
0.0
  0
LINE
  5
10A
330
1F
100
AcDbEntity
  8
0
  6
HIDDEN
 62
     7
370
     0
100
AcDbLine
 10
142.0258647263
 20
164.9151405442
 30
0.0
 11
146.2491942071
 21
164.9151405442
 31
0.0
  0
LINE
  5
10B
330
1F
100
AcDbEntity
  8
0
  6
HIDDEN
 62
     7
370
     0
100
AcDbLine
 10
151.6025360175
 20
164.9151405442
 30
0.0
 11
156.8758651115
 21
164.9151405442
 31
0.0
  0
LINE
  5
10C
330
1F
100
AcDbEntity
  8
0
  6
HIDDEN
 62
     7
370
     0
100
AcDbLine
 10
142.0258647263
 20
164.9151405442
 30
0.0
 11
142.0258647263
 21
158.4151087451
 31
0.0
  0
LINE
  5
10D
330
1F
100
AcDbEntity
  8
0
  6
HIDDEN
 62
     7
370
     0
100
AcDbLine
 10
146.1458174013
 20
72.7291925001
 30
0.0
 11
142.0258647263
 21
72.7291925001
 31
0.0
  0
LINE
  5
10E
330
1F
100
AcDbEntity
  8
0
  6
HIDDEN
 62
     7
370
     0
100
AcDbLine
 10
156.8758651115
 20
72.7291925001
 30
0.0
 11
151.7059128232
 21
72.7291925001
 31
0.0
  0
LINE
  5
10F
330
1F
100
AcDbEntity
  8
0
  6
HIDDEN
 62
     7
370
     0
100
AcDbLine
 10
142.0258647263
 20
72.7291925001
 30
0.0
 11
142.0258647263
 21
81.6151050973
 31
0.0
  0
LINE
  5
110
330
1F
100
AcDbEntity
  8
0
  6
HIDDEN
 62
     7
370
     0
100
AcDbLine
 10
156.8758651115
 20
83.6151054251
 30
0.0
 11
141.1974376965
 21
83.6151054251
 31
0.0
  0
LINE
  5
111
330
1F
100
AcDbEntity
  8
0
  6
HIDDEN
 62
     7
370
     0
100
AcDbLine
 10
141.1974376965
 20
156.4151084173
 30
0.0
 11
156.8758651115
 21
156.4151084173
 31
0.0
  0
LINE
  5
112
330
1F
100
AcDbEntity
  8
0
  6
HIDDEN
 62
     7
370
     0
100
AcDbLine
 10
46.2258640178
 20
106.4151067409
 30
0.0
 11
46.2258640178
 21
131.4151071134
 31
0.0
  0
LINE
  5
113
330
1F
100
AcDbEntity
  8
0
  6
HIDDEN
 62
     7
370
     0
100
AcDbLine
 10
49.5104673751
 20
108.4151070687
 30
0.0
 11
49.5104673751
 21
129.4151067856
 31
0.0
  0
LINE
  5
114
330
1F
100
AcDbEntity
  8
0
  6
HIDDEN
 62
     7
370
     0
100
AcDbLine
 10
98.2258650907
 20
108.4151070687
 30
0.0
 11
98.2258650907
 21
129.4151067856
 31
0.0
  0
LINE
  5
115
330
1F
100
AcDbEntity
  8
0
  6
HIDDEN
 62
     7
370
     0
100
AcDbLine
 10
101.4705109842
 20
113.8151067431
 30
0.0
 11
101.4705109842
 21
124.0151071112
 31
0.0
  0
LINE
  5
116
330
1F
100
AcDbEntity
  8
0
  6
HIDDEN
 62
     7
370
     0
100
AcDbLine
 10
243.775862778
 20
142.1651074785
 30
0.0
 11
249.2758664735
 21
142.1651074785
 31
0.0
  0
LINE
  5
117
330
1F
100
AcDbEntity
  8
0
  6
HIDDEN
 62
     7
370
     0
100
AcDbLine
 10
238.2758665331
 20
142.1651074785
 30
0.0
 11
243.775862778
 21
142.1651074785
 31
0.0
  0
SPLINE
  5
118
330
1F
100
AcDbEntity
  8
0
  6
HIDDEN
 62
     7
370
     0
100
AcDbSpline
210
0.0
220
0.0
230
1.0
 70
    11
 71
     3
 72
    64
 73
    60
 74
     0
 42
0.000000001
 43
0.00000001
 40
0.0
 40
0.0
 40
0.0
 40
0.0
 40
0.0312499999999997
 40
0.0312499999999997
 40
0.0624999999999995
 40
0.0624999999999995
 40
0.0937499999999992
 40
0.0937499999999992
 40
0.124999999999999
 40
0.124999999999999
 40
0.1874999999999984
 40
0.1874999999999984
 40
0.2187499999999982
 40
0.2187499999999982
 40
0.249999999999998
 40
0.249999999999998
 40
0.2812499999999977
 40
0.2812499999999977
 40
0.3124999999999975
 40
0.3124999999999975
 40
0.3437499999999972
 40
0.3437499999999972
 40
0.3749999999999969
 40
0.3749999999999969
 40
0.4062499999999967
 40
0.4062499999999967
 40
0.4374999999999965
 40
0.4374999999999965
 40
0.4999999999999964
 40
0.4999999999999964
 40
0.5312499999999967
 40
0.5312499999999967
 40
0.5624999999999968
 40
0.5624999999999968
 40
0.593749999999997
 40
0.593749999999997
 40
0.6249999999999972
 40
0.6249999999999972
 40
0.6562499999999973
 40
0.6562499999999973
 40
0.6874999999999976
 40
0.6874999999999976
 40
0.7187499999999978
 40
0.7187499999999978
 40
0.7499999999999979
 40
0.7499999999999979
 40
0.8124999999999983
 40
0.8124999999999983
 40
0.8437499999999987
 40
0.8437499999999987
 40
0.8749999999999989
 40
0.8749999999999989
 40
0.9062499999999992
 40
0.9062499999999992
 40
0.9374999999999996
 40
0.9374999999999996
 40
0.9687499999999998
 40
0.9687499999999998
 40
1.0
 40
1.0
 40
1.0
 40
1.0
 10
152.0258648760746
 20
118.5313184064959
 30
0.0
 10
152.1662759303481
 20
118.5313184064958
 30
0.0
 10
152.3039864322333
 20
118.5465923939518
 30
0.0
 10
152.574351903455
 20
118.6057828813506
 30
0.0
 10
152.7084103958042
 20
118.6504889812392
 30
0.0
 10
152.961758817853
 20
118.7647685348823
 30
0.0
 10
153.0816693915003
 20
118.8341006562628
 30
0.0
 10
153.3086324165939
 20
118.9960045015628
 30
0.0
 10
153.4146784116423
 20
119.0881949651518
 30
0.0
 10
153.7018215966039
 20
119.3877597094336
 30
0.0
 10
153.8577423885192
 20
119.6249290362781
 30
0.0
 10
154.0159616273488
 20
120.0012082757657
 30
0.0
 10
154.0572123954551
 20
120.1327229415325
 30
0.0
 10
154.1119302657236
 20
120.3957426719527
 30
0.0
 10
154.12570732785
 20
120.5267566305227
 30
0.0
 10
154.1260197633735
 20
120.7876196642749
 30
0.0
 10
154.1120703318159
 20
120.9179034895095
 30
0.0
 10
154.0578007672001
 20
121.1648908850901
 30
0.0
 10
154.017530349831
 20
121.2834645007167
 30
0.0
 10
153.9107856766683
 20
121.510007480787
 30
0.0
 10
153.8459354800925
 20
121.6146883230373
 30
0.0
 10
153.6943302238186
 20
121.8089619683909
 30
0.0
 10
153.6065407424365
 20
121.8992286122933
 30
0.0
 10
153.4145083346681
 20
122.0596297473729
 30
0.0
 10
153.3100702738819
 20
122.1304310268927
 30
0.0
 10
153.0835788698138
 20
122.2544685529624
 30
0.0
 10
152.9615989374012
 20
122.307287112501
 30
0.0
 10
152.5838375649932
 20
122.4334729551153
 30
0.0
 10
152.3048014623667
 20
122.4777681304487
 30
0.0
 10
151.8901426399856
 20
122.4781553065832
 30
0.0
 10
151.7499214459069
 20
122.4673854424057
 30
0.0
 10
151.477673258641
 20
122.4244141452889
 30
0.0
 10
151.3462139358489
 20
122.3926283489332
 30
0.0
 10
151.0921155379043
 20
122.3081449521445
 30
0.0
 10
150.9701028083823
 20
122.2553496900734
 30
0.0
 10
150.7443201806117
 20
122.1320721853744
 30
0.0
 10
150.6386666069827
 20
122.060753930003
 30
0.0
 10
150.445167128389
 20
121.8992926846608
 30
0.0
 10
150.3590726039074
 20
121.810786680316
 30
0.0
 10
150.2074230265709
 20
121.6170878382346
 30
0.0
 10
150.1413173319169
 20
121.5104902128063
 30
0.0
 10
150.0353185725746
 20
121.2861447975955
 30
0.0
 10
149.9949909922034
 20
121.1684831363377
 30
0.0
 10
149.9401323440501
 20
120.9212624947312
 30
0.0
 10
149.9259630872156
 20
120.7909221622191
 30
0.0
 10
149.9256700212173
 20
120.4005604667066
 30
0.0
 10
149.9819127800538
 20
120.1301510416535
 30
0.0
 10
150.1402567021366
 20
119.7522867396197
 30
0.0
 10
150.2061868840796
 20
119.6286736905914
 30
0.0
 10
150.3583112209427
 20
119.3974338119663
 30
0.0
 10
150.4444532241281
 20
119.2891898151041
 30
0.0
 10
150.6372065761077
 20
119.0879682457876
 30
0.0
 10
150.7434925144053
 20
118.9957658641792
 30
0.0
 10
150.968761186207
 20
118.8349843312432
 30
0.0
 10
151.0886627890332
 20
118.7653621515842
 30
0.0
 10
151.3445409583587
 20
118.6499344033731
 30
0.0
 10
151.4760778863271
 20
118.6061842235552
 30
0.0
 10
151.7459012249369
 20
118.5468802866134
 30
0.0
 10
151.8854538218011
 20
118.5313184064958
 30
0.0
 10
152.0258648760746
 20
118.5313184064958
 30
0.0
  0
SPLINE
  5
119
330
1F
100
AcDbEntity
  8
0
  6
HIDDEN
 62
     7
370
     0
100
AcDbSpline
210
0.0
220
0.0
230
1.0
 70
     8
 71
     3
 72
     8
 73
     4
 74
     0
 42
0.000000001
 43
0.00000001
 40
0.0
 40
0.0
 40
0.0
 40
0.0
 40
1.0
 40
1.0
 40
1.0
 40
1.0
 10
151.2026846999152
 20
128.6836289626236
 30
0.0
 10
151.4141120899164
 20
128.691138472406
 30
0.0
 10
151.6165806364492
 20
128.7452620020407
 30
0.0
 10
151.8027912355865
 20
128.8299902892659
 30
0.0
  0
ELLIPSE
  5
11A
330
1F
100
AcDbEntity
  8
0
  6
HIDDEN
 62
     7
370
     0
100
AcDbEllipse
 10
152.0258648761
 20
130.6456170385
 30
0.0
 11
-1.760776919379083
 21
2.232245799914466
 31
0.0
210
0.0
220
0.0
230
1.0
 40
0.5126701559
 41
5.395150933160731
 42
8.323890913123101
  0
SPLINE
  5
11B
330
1F
100
AcDbEntity
  8
0
  6
HIDDEN
 62
     7
370
     0
100
AcDbSpline
210
0.0
220
0.0
230
1.0
 70
     8
 71
     3
 72
     8
 73
     4
 74
     0
 42
0.000000001
 43
0.00000001
 40
0.0
 40
0.0
 40
0.0
 40
0.0
 40
1.0
 40
1.0
 40
1.0
 40
1.0
 10
151.8027912355873
 20
132.7543690572005
 30
0.0
 10
151.6162668863025
 20
132.6320486412998
 30
0.0
 10
151.4137119877764
 20
132.4909634806348
 30
0.0
 10
151.2026846999146
 20
132.3144798448494
 30
0.0
  0
ELLIPSE
  5
11C
330
1F
100
AcDbEntity
  8
0
  6
HIDDEN
 62
     7
370
     0
100
AcDbEllipse
 10
152.0258648761
 20
130.6456170385
 30
0.0
 11
1.760776919379055
 21
1.38888618804296
 31
0.0
210
0.0
220
0.0
230
1.0
 40
0.8239737799
 41
1.397255033323907
 42
3.733259041931007
  0
LWPOLYLINE
  5
11D
330
1F
100
AcDbEntity
  8
0
  6
HIDDEN
 62
     7
370
     0
100
AcDbPolyline
 90
       18
 70
   128
 43
0.0
 10
152.0258649685
 20
130.4000437382
 10
152.7844728403
 20
130.5333001661
 10
153.4406259157
 20
130.9150716412
 10
153.9057079204
 20
131.493798283
 10
154.1169058032
 20
132.1913207072
 10
154.0456987418
 20
132.9134328413
 10
153.7017017104
 20
133.5626103106
 10
153.1313728042
 20
134.051178408
 10
152.4117389195
 20
134.3131529289
 10
151.6399910174
 20
134.3131529289
 10
150.9203571327
 20
134.051178408
 10
150.3500291579
 20
133.5626103106
 10
150.0060311951
 20
132.9134328413
 10
149.9348232024
 20
132.1913207072
 10
150.1460220166
 20
131.493798283
 10
150.6111040212
 20
130.9150716412
 10
151.2672570966
 20
130.5333001661
 10
152.0258649685
 20
130.4000437382
  0
LINE
  5
11E
330
1F
100
AcDbEntity
  8
0
  6
HIDDEN
 62
     7
370
     0
100
AcDbLine
 10
147.0158645384
 20
154.3081512797
 30
0.0
 11
147.0158645384
 21
148.7651074427
 31
0.0
  0
LINE
  5
11F
330
1F
100
AcDbEntity
  8
0
  6
HIDDEN
 62
     7
370
     0
100
AcDbLine
 10
150.8358647548
 20
154.3081512797
 30
0.0
 11
150.8358647548
 21
148.7651074427
 31
0.0
  0
SPLINE
  5
120
330
1F
100
AcDbEntity
  8
0
  6
HIDDEN
 62
     7
370
     0
100
AcDbSpline
210
0.0
220
0.0
230
1.0
 70
     8
 71
     3
 72
    14
 73
    10
 74
     0
 42
0.000000001
 43
0.00000001
 40
0.0
 40
0.0
 40
0.0
 40
0.0
 40
0.25
 40
0.25
 40
0.5
 40
0.5
 40
0.75
 40
0.75
 40
1.0
 40
1.0
 40
1.0
 40
1.0
 10
150.0358648760744
 20
135.8903964840787
 30
0.0
 10
150.1102904282091
 20
135.9812539388603
 30
0.0
 10
150.1921686878225
 20
136.0704645220661
 30
0.0
 10
150.3651548339981
 20
136.245888840858
 30
0.0
 10
150.4558266538591
 20
136.3314237964847
 30
0.0
 10
150.6231902032035
 20
136.4922754094232
 30
0.0
 10
150.6996410281699
 20
136.5680074983196
 30
0.0
 10
150.8059341130084
 20
136.6995985218951
 30
0.0
 10
150.8358648760747
 20
136.7565986968014
 30
0.0
 10
150.8358648760747
 20
136.7987959697535
 30
0.0
  0
SPLINE
  5
121
330
1F
100
AcDbEntity
  8
0
  6
HIDDEN
 62
     7
370
     0
100
AcDbSpline
210
0.0
220
0.0
230
1.0
 70
     8
 71
     3
 72
    14
 73
    10
 74
     0
 42
0.000000001
 43
0.00000001
 40
0.0
 40
0.0
 40
0.0
 40
0.0
 40
0.25
 40
0.25
 40
0.5
 40
0.5
 40
0.75
 40
0.75
 40
1.0
 40
1.0
 40
1.0
 40
1.0
 10
150.8358648760747
 20
132.666754771122
 30
0.0
 10
150.8358648760747
 20
132.6242543534674
 30
0.0
 10
150.8061514172579
 20
132.5969824469848
 30
0.0
 10
150.7000700503657
 20
132.5834296730176
 30
0.0
 10
150.6237031212012
 20
132.5978752301586
 30
0.0
 10
150.4549435766727
 20
132.6702513941785
 30
0.0
 10
150.3641467642008
 20
132.7273243292959
 30
0.0
 10
150.1925818239935
 20
132.8684822628128
 30
0.0
 10
150.110520583699
 20
132.9530594778964
 30
0.0
 10
150.0358648760744
 20
133.0464326410256
 30
0.0
  0
LINE
  5
122
330
1F
100
AcDbEntity
  8
0
  6
HIDDEN
 62
     7
370
     0
100
AcDbLine
 10
150.8358647548
 20
105.117845175
 30
0.0
 11
150.8358647548
 21
100.9858043986
 31
0.0
  0
LINE
  5
123
330
1F
100
AcDbEntity
  8
0
  6
HIDDEN
 62
     7
370
     0
100
AcDbLine
 10
145.692703823
 20
157.4261857319
 30
0.0
 11
145.692703823
 21
148.7651074427
 31
0.0
  0
LINE
  5
124
330
1F
100
AcDbEntity
  8
0
  6
HIDDEN
 62
     7
370
     0
100
AcDbLine
 10
152.1590264015
 20
104.6179596457
 30
0.0
 11
152.1590264015
 21
99.9261660623
 31
0.0
  0
LINE
  5
125
330
1F
100
AcDbEntity
  8
0
  6
HIDDEN
 62
     7
370
     0
100
AcDbLine
 10
152.1590264015
 20
157.4261857319
 30
0.0
 11
152.1590264015
 21
148.7651074427
 31
0.0
  0
ARC
  5
126
330
1F
100
AcDbEntity
  8
0
  6
HIDDEN
 62
     7
370
     0
100
AcDbCircle
 10
152.271917638
 20
131.4850946025
 30
0.0
 40
1.353195702694764
100
AcDbArc
 50
110.2844232439
 51
142.1998959299
  0
ARC
  5
127
330
1F
100
AcDbEntity
  8
0
  6
HIDDEN
 62
     7
370
     0
100
AcDbCircle
 10
151.3292654075
 20
129.4680771573
 30
0.0
 40
0.7945949542258096
100
AcDbArc
 50
260.8336111241
 51
306.5791809456
  0
LWPOLYLINE
  5
128
330
1F
100
AcDbEntity
  8
0
  6
HIDDEN
 62
     7
370
     0
100
AcDbPolyline
 90
       18
 70
   128
 43
0.0
 10
142.0606277384
 20
131.6280586767
 10
142.2628965661
 20
131.0817895579
 10
142.5937419258
 20
130.7615934062
 10
143.00848222
 20
130.71071246
 10
143.4511039838
 20
130.9360189485
 10
143.8618284151
 20
131.4070847008
 10
144.18518501
 20
132.0602882776
 10
144.3775031217
 20
132.807412942
 10
144.4128086291
 20
133.5475536185
 10
144.2863336265
 20
134.1807505238
 10
144.0151590355
 20
134.6214877564
 10
143.6359086506
 20
134.8102407652
 10
143.1998024196
 20
134.7215173888
 10
142.7657385789
 20
134.3672990921
 10
142.3923401594
 20
133.7954279157
 10
142.1300364159
 20
133.0831356469
 10
142.0142534621
 20
132.3266213882
 10
142.0606277384
 20
131.6280586767
  0
LWPOLYLINE
  5
129
330
1F
100
AcDbEntity
  8
0
  6
HIDDEN
 62
     7
370
     0
100
AcDbPolyline
 90
       22
 70
   128
 43
0.0
 10
141.2975958515
 20
131.2090426805
 10
141.5157707375
 20
130.5550968397
 10
141.8610807009
 20
130.102394906
 10
142.3028433196
 20
129.8911607015
 10
142.8018059082
 20
129.9401641014
 10
143.3136333212
 20
130.2450502413
 10
143.792848146
 20
130.7787297416
 10
144.196869383
 20
131.4937815192
 10
144.4897982724
 20
132.3266707483
 10
144.6456066765
 20
133.203391743
 10
144.6504504852
 20
134.0460440266
 10
144.5038989619
 20
134.7797529894
 10
144.2189743243
 20
135.3393269825
 10
143.8209927142
 20
135.6750445562
 10
143.3453173809
 20
135.7570773113
 10
142.8342136055
 20
135.5781329918
 10
142.3330954708
 20
135.1541148621
 10
141.8864890434
 20
134.5226967829
 10
141.5340779781
 20
133.7399834889
 10
141.3071749699
 20
132.8755233559
 10
141.2259415224
 20
132.0061262819
 10
141.2975958515
 20
131.2090426805
  0
LWPOLYLINE
  5
12A
330
1F
100
AcDbEntity
  8
0
  6
HIDDEN
 62
     7
370
     0
100
AcDbPolyline
 90
       20
 70
   128
 43
0.0
 10
152.0258649685
 20
130.0739606964
 10
152.8376131751
 20
130.2012492093
 10
153.5613961019
 20
130.5693190667
 10
154.1187814869
 20
131.1382845166
 10
154.4493656106
 20
131.846490142
 10
154.5173260816
 20
132.6171903062
 10
154.3152980007
 20
133.3668677258
 10
153.8651748993
 20
134.0142840642
 10
153.2157329343
 20
134.4892799976
 10
152.4373512216
 20
134.7403841215
 10
151.6143787153
 20
134.7403841215
 10
150.8359960713
 20
134.4892799976
 10
150.1865550377
 20
134.0142840642
 10
149.7364319362
 20
133.3668677258
 10
149.5344038554
 20
132.6171903062
 10
149.6023643263
 20
131.846490142
 10
149.93294845
 20
131.1382845166
 10
150.4903329037
 20
130.5693190667
 10
151.2141158305
 20
130.2012492093
 10
152.0258649685
 20
130.0739606964
  0
SPLINE
  5
12B
330
1F
100
AcDbEntity
  8
0
  6
HIDDEN
 62
     7
370
     0
100
AcDbSpline
210
0.0
220
0.0
230
1.0
 70
     8
 71
     3
 72
    34
 73
    30
 74
     0
 42
0.000000001
 43
0.00000001
 40
0.0
 40
0.0
 40
0.0
 40
0.0
 40
0.062499999999999
 40
0.062499999999999
 40
0.124999999999998
 40
0.124999999999998
 40
0.1874999999999971
 40
0.1874999999999971
 40
0.2499999999999966
 40
0.2499999999999966
 40
0.3124999999999962
 40
0.3124999999999962
 40
0.3749999999999957
 40
0.3749999999999957
 40
0.4999999999999958
 40
0.4999999999999958
 40
0.6249999999999958
 40
0.6249999999999958
 40
0.6874999999999964
 40
0.6874999999999964
 40
0.7499999999999971
 40
0.7499999999999971
 40
0.8124999999999979
 40
0.8124999999999979
 40
0.8749999999999986
 40
0.8749999999999986
 40
0.9374999999999992
 40
0.9374999999999992
 40
1.0
 40
1.0
 40
1.0
 40
1.0
 10
152.1590263835365
 20
137.9040473151461
 30
0.0
 10
152.3184182113244
 20
137.8962072192233
 30
0.0
 10
152.474420694768
 20
137.8745485711329
 30
0.0
 10
152.7799302108452
 20
137.8047003436401
 30
0.0
 10
152.9308245458574
 20
137.7558746413118
 30
0.0
 10
153.2187238905482
 20
137.6329506879045
 30
0.0
 10
153.354670293508
 20
137.5596431797702
 30
0.0
 10
153.6108529091
 20
137.3896325559988
 30
0.0
 10
153.7320351968591
 20
137.2917587637974
 30
0.0
 10
153.9491812687318
 20
137.0791745883654
 30
0.0
 10
154.0461431416922
 20
136.9641286498358
 30
0.0
 10
154.2167055775177
 20
136.7162675297157
 30
0.0
 10
154.2899456307297
 20
136.5832340326501
 30
0.0
 10
154.4648260874785
 20
136.1737260165199
 30
0.0
 10
154.5258640484545
 20
135.8757653667449
 30
0.0
 10
154.5258657036775
 20
135.2843238108704
 30
0.0
 10
154.4648310940913
 20
134.9841502608939
 30
0.0
 10
154.2899413266893
 20
134.5689189806261
 30
0.0
 10
154.216697621265
 20
134.4335638623793
 30
0.0
 10
154.0461369055283
 20
134.1806645309926
 30
0.0
 10
153.9491731899348
 20
134.0628992533848
 30
0.0
 10
153.7320128613476
 20
133.8447689580162
 30
0.0
 10
153.6108316026608
 20
133.7440656328693
 30
0.0
 10
153.3546613757221
 20
133.568821940036
 30
0.0
 10
153.2187180260593
 20
133.4930769709454
 30
0.0
 10
152.9308153228762
 20
133.3659085956432
 30
0.0
 10
152.7799251269595
 20
133.3153073233157
 30
0.0
 10
152.4744196232539
 20
133.2428782235678
 30
0.0
 10
152.3184182249904
 20
133.2203924521709
 30
0.0
 10
152.1590263835365
 20
133.212253992276
 30
0.0
  0
SPLINE
  5
12C
330
1F
100
AcDbEntity
  8
0
  6
HIDDEN
 62
     7
370
     0
100
AcDbSpline
210
0.0
220
0.0
230
1.0
 70
     8
 71
     3
 72
    10
 73
     6
 74
     0
 42
0.000000001
 43
0.00000001
 40
0.0
 40
0.0
 40
0.0
 40
0.0
 40
0.5
 40
0.5
 40
1.0
 40
1.0
 40
1.0
 40
1.0
 10
152.1590263835365
 20
133.212253992276
 30
0.0
 10
151.9362993566631
 20
133.0687654919823
 30
0.0
 10
151.714613469438
 20
132.9540447462494
 30
0.0
 10
151.273392631586
 20
132.7842843168915
 30
0.0
 10
151.0538339841872
 20
132.7288643225041
 30
0.0
 10
150.8358648760749
 20
132.7123689931345
 30
0.0
  0
SPLINE
  5
12D
330
1F
100
AcDbEntity
  8
0
  6
HIDDEN
 62
     7
370
     0
100
AcDbSpline
210
0.0
220
0.0
230
1.0
 70
     8
 71
     3
 72
    10
 73
     6
 74
     0
 42
0.000000001
 43
0.00000001
 40
0.0
 40
0.0
 40
0.0
 40
0.0
 40
0.5
 40
0.5
 40
1.0
 40
1.0
 40
1.0
 40
1.0
 10
150.8358648760749
 20
136.844410191766
 30
0.0
 10
151.0527557085957
 20
137.0814491312146
 30
0.0
 10
151.2719083452546
 20
137.283619366208
 30
0.0
 10
151.7133928455234
 20
137.6343714377267
 30
0.0
 10
151.9365953107968
 20
137.7830475301236
 30
0.0
 10
152.1590263835365
 20
137.9040473151461
 30
0.0
  0
SPLINE
  5
12E
330
1F
100
AcDbEntity
  8
0
  6
HIDDEN
 62
     7
370
     0
100
AcDbSpline
210
0.0
220
0.0
230
1.0
 70
     8
 71
     3
 72
    16
 73
    12
 74
     0
 42
0.000000001
 43
0.00000001
 40
0.0
 40
0.0
 40
0.0
 40
0.0
 40
0.2499999999999994
 40
0.2499999999999994
 40
0.4999999999999989
 40
0.4999999999999989
 40
0.7499999999999983
 40
0.7499999999999983
 40
0.8749999999999991
 40
0.8749999999999991
 40
1.0
 40
1.0
 40
1.0
 40
1.0
 10
150.0358648760746
 20
133.0464326410254
 30
0.0
 10
149.8704507695945
 20
133.2533188770507
 30
0.0
 10
149.7442534386189
 20
133.4791875748597
 30
0.0
 10
149.569847140288
 20
133.9680568204724
 30
0.0
 10
149.5260171011912
 20
134.219823873817
 30
0.0
 10
149.5257134282212
 20
134.7316031983992
 30
0.0
 10
149.5695702882815
 20
134.9826579074819
 30
0.0
 10
149.6994920475486
 20
135.3435064756239
 30
0.0
 10
149.7536068589565
 20
135.4607792439725
 30
0.0
 10
149.8802838491
 20
135.6832681953113
 30
0.0
 10
149.9531575694609
 20
135.7894288035547
 30
0.0
 10
150.0358648760746
 20
135.890396484079
 30
0.0
  0
CIRCLE
  5
12F
330
1F
100
AcDbEntity
  8
0
  6
HIDDEN
 62
     7
370
     0
100
AcDbCircle
 10
243.7758648761
 20
118.9151069271
 30
0.0
 40
6.000000000000004
  0
LINE
  5
130
330
1F
100
AcDbEntity
  8
0
  6
HIDDEN
 62
     7
370
     0
100
AcDbLine
 10
249.4013640531
 20
143.2151066261
 30
0.0
 11
249.7758674868
 21
143.2151066261
 31
0.0
  0
LINE
  5
131
330
1F
100
AcDbEntity
  8
0
  6
HIDDEN
 62
     7
370
     0
100
AcDbLine
 10
237.7758655198
 20
143.2151066261
 30
0.0
 11
241.0962689169
 21
143.2151066261
 31
0.0
  0
LINE
  5
132
330
1F
100
AcDbEntity
  8
0
  6
HIDDEN
 62
     7
370
     0
100
AcDbLine
 10
246.4792686947
 20
143.2151066261
 30
0.0
 11
249.4013640531
 21
143.2151066261
 31
0.0
  0
LINE
  5
133
330
1F
100
AcDbEntity
  8
0
  6
HIDDEN
 62
     7
370
     0
100
AcDbLine
 10
249.4013640531
 20
135.8122209209
 30
0.0
 11
249.7758674868
 21
135.8122209209
 31
0.0
  0
LINE
  5
134
330
1F
100
AcDbEntity
  8
0
  6
HIDDEN
 62
     7
370
     0
100
AcDbLine
 10
237.7758655198
 20
135.8122209209
 30
0.0
 11
249.4013640531
 21
135.8122209209
 31
0.0
  0
LINE
  5
135
330
1F
100
AcDbEntity
  8
0
  6
HIDDEN
 62
     7
370
     0
100
AcDbLine
 10
247.0759707935
 20
127.4151073891
 30
0.0
 11
247.2956660636
 21
127.4151073891
 31
0.0
  0
LINE
  5
136
330
1F
100
AcDbEntity
  8
0
  6
HIDDEN
 62
     7
370
     0
100
AcDbLine
 10
240.2560594924
 20
127.4151073891
 30
0.0
 11
247.0759707935
 21
127.4151073891
 31
0.0
  0
SPLINE
  5
137
330
1F
100
AcDbEntity
  8
0
  6
HIDDEN
 62
     7
370
     0
100
AcDbSpline
210
0.0
220
0.0
230
1.0
 70
     8
 71
     3
 72
    10
 73
     6
 74
     0
 42
0.000000001
 43
0.00000001
 40
0.0
 40
0.0
 40
0.0
 40
0.0
 40
0.439128472044905
 40
0.7513764497642824
 40
1.0
 40
1.0
 40
1.0
 40
1.0
 10
247.1909556038808
 20
143.779208709586
 30
0.0
 10
246.8745083918013
 20
143.5737350621267
 30
0.0
 10
246.3330472980972
 20
143.2221567209884
 30
0.0
 10
245.545954202007
 20
143.3784469141347
 30
0.0
 10
245.1542029448603
 20
143.6561210922943
 30
0.0
 10
244.9805471547078
 20
143.779208709586
 30
0.0
  0
SPLINE
  5
138
330
1F
100
AcDbEntity
  8
0
  6
HIDDEN
 62
     7
370
     0
100
AcDbSpline
210
0.0
220
0.0
230
1.0
 70
     8
 71
     3
 72
    10
 73
     6
 74
     0
 42
0.000000001
 43
0.00000001
 40
0.0
 40
0.0
 40
0.0
 40
0.0
 40
0.4391282090197933
 40
0.7513749630219663
 40
0.9999999999999999
 40
0.9999999999999999
 40
0.9999999999999999
 40
0.9999999999999999
 10
244.9805471547078
 20
143.779208709586
 30
0.0
 10
244.4916361084076
 20
143.5737347695395
 30
0.0
 10
243.6550796955212
 20
143.2221564128472
 30
0.0
 10
242.439017186465
 20
143.378448592282
 30
0.0
 10
241.8337563039264
 20
143.6561211377232
 30
0.0
 10
241.5654543288182
 20
143.779208709586
 30
0.0
  0
SPLINE
  5
139
330
1F
100
AcDbEntity
  8
0
  6
HIDDEN
 62
     7
370
     0
100
AcDbSpline
210
0.0
220
0.0
230
1.0
 70
     8
 71
     3
 72
    11
 73
     7
 74
     0
 42
0.000000001
 43
0.00000001
 40
0.0
 40
0.0
 40
0.0
 40
0.0
 40
0.1849305112154229
 40
0.5198462205729296
 40
0.871444103161717
 40
0.9999999999999999
 40
0.9999999999999999
 40
0.9999999999999999
 40
0.9999999999999999
 10
241.5654543288182
 20
143.779208709586
 30
0.0
 10
241.4953373940151
 20
143.685603182972
 30
0.0
 10
241.298236205488
 20
143.422474730478
 30
0.0
 10
240.9303031956419
 20
143.2280694058194
 30
0.0
 10
240.5904907855556
 20
143.4661274560139
 30
0.0
 10
240.4092915155713
 20
143.713087793646
 30
0.0
 10
240.3607774026821
 20
143.779208709586
 30
0.0
  0
SPLINE
  5
13A
330
1F
100
AcDbEntity
  8
0
  6
HIDDEN
 62
     7
370
     0
100
AcDbSpline
210
0.0
220
0.0
230
1.0
 70
     8
 71
     3
 72
    10
 73
     6
 74
     0
 42
0.000000001
 43
0.00000001
 40
0.0
 40
0.0
 40
0.0
 40
0.0
 40
0.4391272249244686
 40
0.7513752144810599
 40
1.0
 40
1.0
 40
1.0
 40
1.0
 10
240.3607774026821
 20
143.779208709586
 30
0.0
 10
240.6772219216574
 20
143.5737350365103
 30
0.0
 10
241.2186790548545
 20
143.222156231065
 30
0.0
 10
242.0057707827866
 20
143.3784478557109
 30
0.0
 10
242.3975272676673
 20
143.6561211473877
 30
0.0
 10
242.5711858518551
 20
143.779208709586
 30
0.0
  0
SPLINE
  5
13B
330
1F
100
AcDbEntity
  8
0
  6
HIDDEN
 62
     7
370
     0
100
AcDbSpline
210
0.0
220
0.0
230
1.0
 70
     8
 71
     3
 72
    10
 73
     6
 74
     0
 42
0.000000001
 43
0.00000001
 40
0.0
 40
0.0
 40
0.0
 40
0.0
 40
0.4391270556088545
 40
0.7513764045337267
 40
0.9999999999999999
 40
0.9999999999999999
 40
0.9999999999999999
 40
0.9999999999999999
 10
242.5711858518551
 20
143.779208709586
 30
0.0
 10
243.0600942680565
 20
143.5737353510239
 30
0.0
 10
243.8966499828993
 20
143.222156391331
 30
0.0
 10
245.112711876808
 20
143.3784463452511
 30
0.0
 10
245.7179717893717
 20
143.6561211174315
 30
0.0
 10
245.9862712271641
 20
143.779208709586
 30
0.0
  0
SPLINE
  5
13C
330
1F
100
AcDbEntity
  8
0
  6
HIDDEN
 62
     7
370
     0
100
AcDbSpline
210
0.0
220
0.0
230
1.0
 70
     8
 71
     3
 72
    11
 73
     7
 74
     0
 42
0.000000001
 43
0.00000001
 40
0.0
 40
0.0
 40
0.0
 40
0.0
 40
0.1285564830879001
 40
0.480153436417273
 40
0.8150689706193014
 40
1.0
 40
1.0
 40
1.0
 40
1.0
 10
245.9862712271641
 20
143.779208709586
 30
0.0
 10
246.0347882828563
 20
143.7130878308524
 30
0.0
 10
246.2159975883374
 20
143.4661289348067
 30
0.0
 10
246.5557940933142
 20
143.2280687587289
 30
0.0
 10
246.9237273380367
 20
143.4224754598982
 30
0.0
 10
247.1208358969327
 20
143.6856032264695
 30
0.0
 10
247.1909556038807
 20
143.779208709586
 30
0.0
  0
LINE
  5
13D
330
1F
100
AcDbEntity
  8
0
  6
HIDDEN
 62
     7
370
     0
100
AcDbLine
 10
246.5886134155
 20
135.915107851
 30
0.0
 11
246.7758614071
 21
135.915107851
 31
0.0
  0
LINE
  5
13E
330
1F
100
AcDbEntity
  8
0
  6
HIDDEN
 62
     7
370
     0
100
AcDbLine
 10
240.7758641489
 20
135.915107851
 30
0.0
 11
246.5886134155
 21
135.915107851
 31
0.0
  0
LINE
  5
13F
330
1F
100
AcDbEntity
  8
0
  6
HIDDEN
 62
     7
370
     0
100
AcDbLine
 10
244.2787322648
 20
136.9151061523
 30
0.0
 11
242.5711858519
 21
136.9151061523
 31
0.0
  0
LINE
  5
140
330
1F
100
AcDbEntity
  8
0
  6
HIDDEN
 62
     7
370
     0
100
AcDbLine
 10
242.5711858519
 20
136.9151061523
 30
0.0
 11
241.4659816273
 21
136.9151061523
 31
0.0
  0
LINE
  5
141
330
1F
100
AcDbEntity
  8
0
  6
HIDDEN
 62
     7
370
     0
100
AcDbLine
 10
242.5711858519
 20
136.9151061523
 30
0.0
 11
242.5711858519
 21
143.7792087096
 31
0.0
  0
LINE
  5
142
330
1F
100
AcDbEntity
  8
0
  6
HIDDEN
 62
     7
370
     0
100
AcDbLine
 10
245.9862712272
 20
136.9151061523
 30
0.0
 11
244.2787322648
 21
136.9151061523
 31
0.0
  0
LINE
  5
143
330
1F
100
AcDbEntity
  8
0
  6
HIDDEN
 62
     7
370
     0
100
AcDbLine
 10
246.5886134155
 20
136.9151061523
 30
0.0
 11
245.9862712272
 21
136.9151061523
 31
0.0
  0
LINE
  5
144
330
1F
100
AcDbEntity
  8
0
  6
HIDDEN
 62
     7
370
     0
100
AcDbLine
 10
245.9862712272
 20
136.9151061523
 30
0.0
 11
245.9862712272
 21
143.7792087096
 31
0.0
  0
LINE
  5
145
330
1F
100
AcDbEntity
  8
0
  6
HIDDEN
 62
     7
370
     0
100
AcDbLine
 10
241.4659816273
 20
136.9151061523
 30
0.0
 11
240.3607774027
 21
136.9151061523
 31
0.0
  0
LINE
  5
146
330
1F
100
AcDbEntity
  8
0
  6
HIDDEN
 62
     7
370
     0
100
AcDbLine
 10
247.1909556039
 20
136.9151061523
 30
0.0
 11
246.5886134155
 21
136.9151061523
 31
0.0
  0
LINE
  5
147
330
1F
100
AcDbEntity
  8
0
  6
HIDDEN
 62
     7
370
     0
100
AcDbLine
 10
241.5654543288
 20
136.9151061523
 30
0.0
 11
241.5654543288
 21
143.7792087096
 31
0.0
  0
LINE
  5
148
330
1F
100
AcDbEntity
  8
0
  6
HIDDEN
 62
     7
370
     0
100
AcDbLine
 10
240.3607774027
 20
136.9151061523
 30
0.0
 11
240.3607774027
 21
143.7792087096
 31
0.0
  0
LINE
  5
149
330
1F
100
AcDbEntity
  8
0
  6
HIDDEN
 62
     7
370
     0
100
AcDbLine
 10
244.9805471547
 20
136.9151061523
 30
0.0
 11
244.9805471547
 21
143.7792087096
 31
0.0
  0
LINE
  5
14A
330
1F
100
AcDbEntity
  8
0
  6
HIDDEN
 62
     7
370
     0
100
AcDbLine
 10
247.1909556039
 20
136.9151061523
 30
0.0
 11
247.1909556039
 21
143.7792087096
 31
0.0
  0
LWPOLYLINE
  5
14B
330
1F
100
AcDbEntity
  8
0
  6
HIDDEN
 62
     7
370
     0
100
AcDbPolyline
 90
       18
 70
   128
 43
0.0
 10
153.9999093361
 20
132.4693903449
 10
153.8094017156
 20
133.1294428679
 10
153.3780186869
 20
133.6802549782
 10
152.7640191339
 20
134.0474363539
 10
152.0503280185
 20
134.181397793
 10
151.333333502
 20
134.0640455606
 10
150.7098689176
 20
133.7112298357
 10
150.2641370021
 20
133.1705998751
 10
150.0563356526
 20
132.5151704374
 10
150.114530275
 20
131.8334618705
 10
150.4308614381
 20
131.2175419304
 10
150.9626065813
 20
130.7505944866
 10
151.6379504897
 20
130.495683116
 10
152.3656850182
 20
130.4872350889
 10
153.0475239702
 20
130.7263912755
 10
153.5913828261
 20
131.1808524775
 10
153.9238091059
 20
131.7892408121
 10
153.9999093361
 20
132.4693903449
  0
LWPOLYLINE
  5
14C
330
1F
100
AcDbEntity
  8
0
  6
HIDDEN
 62
     7
370
     0
100
AcDbPolyline
 90
       20
 70
   128
 43
0.0
 10
154.5178606607
 20
132.6110398519
 10
154.3179280557
 20
133.3612136665
 10
153.8696154453
 20
134.0097382787
 10
153.2215052717
 20
134.4863351557
 10
152.4438276388
 20
134.7393596667
 10
151.6208579265
 20
134.7413918126
 10
150.8417767905
 20
134.4922099385
 10
150.1910095535
 20
134.0188186738
 10
149.7390778236
 20
133.3725161973
 10
149.534954267
 20
132.6233398291
 10
149.6007605888
 20
131.8524748209
 10
149.9293637894
 20
131.1434552196
 10
150.4851556815
 20
130.5731160688
 10
151.2079076342
 20
130.2032599348
 10
152.0192972817
 20
130.0739690784
 10
152.8313993909
 20
130.1992524537
 10
153.5562086351
 20
130.5655341717
 10
154.1151809938
 20
131.1331221956
 10
154.4477451094
 20
131.8405101198
 10
154.5178606607
 20
132.6110398519
  0
LWPOLYLINE
  5
14D
330
1F
100
AcDbEntity
  8
0
  6
HIDDEN
 62
     7
370
     0
100
AcDbPolyline
 90
       20
 70
   128
 43
0.0
 10
154.5178606607
 20
133.2095747936
 10
154.3179280557
 20
133.9597486082
 10
153.8696154453
 20
134.608272289
 10
153.2215052717
 20
135.0848710287
 10
152.4438276388
 20
135.3378946084
 10
151.6208579265
 20
135.3399267542
 10
150.8417767905
 20
135.0907458115
 10
150.1910095535
 20
134.6173545468
 10
149.7390778236
 20
133.9710511389
 10
149.534954267
 20
133.2218757021
 10
149.6007605888
 20
132.4510097626
 10
149.9293637894
 20
131.7419910926
 10
150.4851556815
 20
131.1716510105
 10
151.2079076342
 20
130.8017958078
 10
152.0192972817
 20
130.67250402
 10
152.8313993909
 20
130.7977883267
 10
153.5562086351
 20
131.1640700447
 10
154.1151809938
 20
131.7316580686
 10
154.4477451094
 20
132.4390450615
 10
154.5178606607
 20
133.2095747936
  0
LWPOLYLINE
  5
14E
330
1F
100
AcDbEntity
  8
0
  6
HIDDEN
 62
     7
370
     0
100
AcDbPolyline
 90
       18
 70
   128
 43
0.0
 10
154.0194615223
 20
134.3519751105
 10
153.8270670422
 20
135.0185645866
 10
153.3914111056
 20
135.5748323846
 10
152.7713309474
 20
135.9456515062
 10
152.0505710937
 20
136.0809391487
 10
151.3264743112
 20
135.9624246257
 10
150.6968341269
 20
135.6061136472
 10
150.246686811
 20
135.0601295131
 10
150.03682817
 20
134.398208757
 10
150.0955992811
 20
133.7097481015
 10
150.4150634132
 20
133.0877279985
 10
150.9520751856
 20
132.6161556068
 10
151.6341087841
 20
132.3587194207
 10
152.3690508179
 20
132.3501875746
 10
153.0576437213
 20
132.5917121145
 10
153.606889347
 20
133.0506743985
 10
153.9426087834
 20
133.6650883901
 10
154.0194615223
 20
134.3519751105
  0
LWPOLYLINE
  5
14F
330
1F
100
AcDbEntity
  8
0
  6
HIDDEN
 62
     7
370
     0
100
AcDbPolyline
 90
       18
 70
   128
 43
0.0
 10
154.0194615223
 20
132.9341985407
 10
153.8270670422
 20
133.6007898795
 10
153.3914111056
 20
134.1570576775
 10
152.7713309474
 20
134.5278758678
 10
152.0505710937
 20
134.6631625789
 10
151.3264743112
 20
134.544648056
 10
150.6968341269
 20
134.1883380088
 10
150.246686811
 20
133.6423538747
 10
150.03682817
 20
132.9804331186
 10
150.0955992811
 20
132.2919724631
 10
150.4150634132
 20
131.6699514288
 10
150.9520751856
 20
131.1983790371
 10
151.6341087841
 20
130.940942851
 10
152.3690508179
 20
130.9324110049
 10
153.0576437213
 20
131.1739364761
 10
153.606889347
 20
131.6328987601
 10
153.9426087834
 20
132.2473127517
 10
154.0194615223
 20
132.9341985407
  0
LWPOLYLINE
  5
150
330
1F
100
AcDbEntity
  8
0
  6
HIDDEN
 62
     7
370
     0
100
AcDbPolyline
 90
       20
 70
   128
 43
0.0
 10
154.5178606607
 20
133.44556914
 10
154.3179280557
 20
134.1957420233
 10
153.8696154453
 20
134.8442675668
 10
153.2215052717
 20
135.3208644438
 10
152.4438276388
 20
135.5738898861
 10
151.6208579265
 20
135.5759201693
 10
150.8417767905
 20
135.3267392266
 10
150.1910095535
 20
134.8533479619
 10
149.7390778236
 20
134.2070454854
 10
149.534954267
 20
133.4578691172
 10
149.6007605888
 20
132.687004109
 10
149.9293637894
 20
131.9779845077
 10
150.4851556815
 20
131.4076444256
 10
151.2079076342
 20
131.0377892229
 10
152.0192972817
 20
130.9084983665
 10
152.8313993909
 20
131.0337817418
 10
153.5562086351
 20
131.4000634599
 10
154.1151809938
 20
131.9676514837
 10
154.4477451094
 20
132.6750384766
 10
154.5178606607
 20
133.44556914
  0
LWPOLYLINE
  5
151
330
1F
100
AcDbEntity
  8
0
  6
HIDDEN
 62
     7
370
     0
100
AcDbPolyline
 90
       19
 70
   128
 43
0.0
 10
154.3184998877
 20
133.2560207817
 10
154.1173360743
 20
133.9824374887
 10
153.663910503
 20
134.6003933
 10
153.0129113667
 20
135.0353526074
 10
152.2428603344
 20
135.2348549414
 10
151.4466363438
 20
135.1748349267
 10
150.7202764474
 20
134.8625326651
 10
150.1513892286
 20
134.3356182921
 10
149.8085908093
 20
133.6576433974
 10
149.7332291179
 20
132.9103827599
 10
149.9343938626
 20
132.1839660528
 10
150.387819434
 20
131.5660102415
 10
151.0388185702
 20
131.1310509342
 10
151.8088696025
 20
130.9315495315
 10
152.6050935932
 20
130.9915686148
 10
153.3314534895
 20
131.3038699451
 10
153.9003416397
 20
131.8307852495
 10
154.2431391277
 20
132.5087601441
 10
154.3184998877
 20
133.2560207817
  0
LWPOLYLINE
  5
152
330
1F
100
AcDbEntity
  8
0
  6
HIDDEN
 62
     7
370
     0
100
AcDbPolyline
 90
       20
 70
   128
 43
0.0
 10
154.5178606607
 20
133.6815625551
 10
154.3179280557
 20
134.4317363697
 10
153.8696154453
 20
135.0802609819
 10
153.2215052717
 20
135.5568578589
 10
152.4438276388
 20
135.8098833012
 10
151.6208579265
 20
135.8119135845
 10
150.8417767905
 20
135.5627326417
 10
150.1910095535
 20
135.089341377
 10
149.7390778236
 20
134.4430398318
 10
149.534954267
 20
133.6938634637
 10
149.6007605888
 20
132.9229975241
 10
149.9293637894
 20
132.2139788541
 10
150.4851556815
 20
131.6436387721
 10
151.2079076342
 20
131.2737835693
 10
152.0192972817
 20
131.1444917816
 10
152.8313993909
 20
131.2697760883
 10
153.5562086351
 20
131.6360578063
 10
154.1151809938
 20
132.2036458301
 10
154.4477451094
 20
132.911032823
 10
154.5178606607
 20
133.6815625551
  0
LWPOLYLINE
  5
153
330
1F
100
AcDbEntity
  8
0
  6
HIDDEN
 62
     7
370
     0
100
AcDbPolyline
 90
       19
 70
   128
 43
0.0
 10
154.3184998877
 20
133.4920151281
 10
154.1173360743
 20
134.2184318352
 10
153.663910503
 20
134.8363867152
 10
153.0129113667
 20
135.2713460225
 10
152.2428603344
 20
135.4708483565
 10
151.4466363438
 20
135.4108283418
 10
150.7202764474
 20
135.0985279429
 10
150.1513892286
 20
134.5716117072
 10
149.8085908093
 20
133.8936377439
 10
149.7332291179
 20
133.146376175
 10
149.9343938626
 20
132.4199594679
 10
150.387819434
 20
131.8020045879
 10
151.0388185702
 20
131.3670443493
 10
151.8088696025
 20
131.1675429466
 10
152.6050935932
 20
131.2275629613
 10
153.3314534895
 20
131.5398642915
 10
153.9003416397
 20
132.0667786646
 10
154.2431391277
 20
132.7447535592
 10
154.3184998877
 20
133.4920151281
  0
LWPOLYLINE
  5
154
330
1F
100
AcDbEntity
  8
0
  6
HIDDEN
 62
     7
370
     0
100
AcDbPolyline
 90
       20
 70
   128
 43
0.0
 10
154.5178606607
 20
133.9175569016
 10
154.3179280557
 20
134.6677297848
 10
153.8696154453
 20
135.316254397
 10
153.2215052717
 20
135.7928531366
 10
152.4438276388
 20
136.0458767164
 10
151.6208579265
 20
136.0479088622
 10
150.8417767905
 20
135.7987279194
 10
150.1910095535
 20
135.3253347921
 10
149.7390778236
 20
134.6790341782
 10
149.534954267
 20
133.9298568788
 10
149.6007605888
 20
133.1589918706
 10
149.9293637894
 20
132.4499722692
 10
150.4851556815
 20
131.8796321872
 10
151.2079076342
 20
131.5097769844
 10
152.0192972817
 20
131.380486128
 10
152.8313993909
 20
131.5057695034
 10
153.5562086351
 20
131.8720512214
 10
154.1151809938
 20
132.4396392453
 10
154.4477451094
 20
133.1470262381
 10
154.5178606607
 20
133.9175569016
  0
LWPOLYLINE
  5
155
330
1F
100
AcDbEntity
  8
0
  6
HIDDEN
 62
     7
370
     0
100
AcDbPolyline
 90
       19
 70
   128
 43
0.0
 10
154.3184998877
 20
133.7280085432
 10
154.1173360743
 20
134.4544252503
 10
153.663910503
 20
135.0723801303
 10
153.0129113667
 20
135.5073413002
 10
152.2428603344
 20
135.7068417716
 10
151.4466363438
 20
135.6468217569
 10
150.7202764474
 20
135.334521358
 10
150.1513892286
 20
134.807606985
 10
149.8085908093
 20
134.129631159
 10
149.7332291179
 20
133.3823705214
 10
149.9343938626
 20
132.6559538144
 10
150.387819434
 20
132.0379980031
 10
151.0388185702
 20
131.6030386957
 10
151.8088696025
 20
131.4035372931
 10
152.6050935932
 20
131.4635563764
 10
153.3314534895
 20
131.7758577067
 10
153.9003416397
 20
132.302773011
 10
154.2431391277
 20
132.9807479057
 10
154.3184998877
 20
133.7280085432
  0
LWPOLYLINE
  5
156
330
1F
100
AcDbEntity
  8
0
  6
HIDDEN
 62
     7
370
     0
100
AcDbPolyline
 90
       20
 70
   128
 43
0.0
 10
154.5178606607
 20
134.1535503167
 10
154.3179280557
 20
134.9037232
 10
153.8696154453
 20
135.5522478121
 10
153.2215052717
 20
136.0288465518
 10
152.4438276388
 20
136.2818701315
 10
151.6208579265
 20
136.2839022773
 10
150.8417767905
 20
136.0347213346
 10
150.1910095535
 20
135.5613300699
 10
149.7390778236
 20
134.9150275934
 10
149.534954267
 20
134.1658512252
 10
149.6007605888
 20
133.3949852857
 10
149.9293637894
 20
132.6859666157
 10
150.4851556815
 20
132.1156265336
 10
151.2079076342
 20
131.7457713309
 10
152.0192972817
 20
131.6164795431
 10
152.8313993909
 20
131.7417638498
 10
153.5562086351
 20
132.1080455679
 10
154.1151809938
 20
132.6756335917
 10
154.4477451094
 20
133.3830205846
 10
154.5178606607
 20
134.1535503167
  0
LWPOLYLINE
  5
157
330
1F
100
AcDbEntity
  8
0
  6
HIDDEN
 62
     7
370
     0
100
AcDbPolyline
 90
       19
 70
   128
 43
0.0
 10
154.3184998877
 20
133.9640028897
 10
154.1173360743
 20
134.6904186654
 10
153.663910503
 20
135.308375408
 10
153.0129113667
 20
135.7433347154
 10
152.2428603344
 20
135.9428351867
 10
151.4466363438
 20
135.8828170347
 10
150.7202764474
 20
135.5705147731
 10
150.1513892286
 20
135.0436004001
 10
149.8085908093
 20
134.3656255054
 10
149.7332291179
 20
133.6183639365
 10
149.9343938626
 20
132.8919472295
 10
150.387819434
 20
132.2739923495
 10
151.0388185702
 20
131.8390321109
 10
151.8088696025
 20
131.6395307082
 10
152.6050935932
 20
131.6995507228
 10
153.3314534895
 20
132.0118520531
 10
153.9003416397
 20
132.5387664261
 10
154.2431391277
 20
133.2167413208
 10
154.3184998877
 20
133.9640028897
  0
LWPOLYLINE
  5
158
330
1F
100
AcDbEntity
  8
0
  6
HIDDEN
 62
     7
370
     0
100
AcDbPolyline
 90
       20
 70
   128
 43
0.0
 10
154.5178606607
 20
134.3416616443
 10
154.3179280557
 20
135.0918354589
 10
153.8696154453
 20
135.7403600711
 10
153.2215052717
 20
136.216956948
 10
152.4438276388
 20
136.4699823904
 10
151.6208579265
 20
136.4720126736
 10
150.8417767905
 20
136.2228317308
 10
150.1910095535
 20
135.7494404662
 10
149.7390778236
 20
135.1031379896
 10
149.534954267
 20
134.3539616215
 10
149.6007605888
 20
133.5830966133
 10
149.9293637894
 20
132.8740770119
 10
150.4851556815
 20
132.3037378612
 10
151.2079076342
 20
131.9338826585
 10
152.0192972817
 20
131.8045908707
 10
152.8313993909
 20
131.9298742461
 10
153.5562086351
 20
132.2961568954
 10
154.1151809938
 20
132.8637449193
 10
154.4477451094
 20
133.5711319122
 10
154.5178606607
 20
134.3416616443
  0
LWPOLYLINE
  5
159
330
1F
100
AcDbEntity
  8
0
  6
HIDDEN
 62
     7
370
     0
100
AcDbPolyline
 90
       19
 70
   128
 43
0.0
 10
154.3783075608
 20
134.3790244433
 10
154.171896676
 20
135.1243907708
 10
153.7066414453
 20
135.7584668445
 10
153.0386605732
 20
136.2047733861
 10
152.248520913
 20
136.4094799507
 10
151.4315265663
 20
136.3478953141
 10
150.6862170495
 20
136.0274458426
 10
150.1024892055
 20
135.4867851484
 10
149.7507491581
 20
134.791124438
 10
149.6734214448
 20
134.0243693563
 10
149.8798332609
 20
133.2790030289
 10
150.3450884916
 20
132.6449269551
 10
151.0130693637
 20
132.1986204135
 10
151.8032090239
 20
131.9939147803
 10
152.6202033706
 20
132.0554994169
 10
153.3655128874
 20
132.375947957
 10
153.9492398001
 20
132.9166086513
 10
154.3009798475
 20
133.6122702929
 10
154.3783075608
 20
134.3790244433
  0
ARC
  5
15A
330
1F
100
AcDbEntity
  8
0
  6
HIDDEN
 62
     7
370
     0
100
AcDbCircle
 10
152.0123500718
 20
103.6054490692
 30
0.0
 40
2.478549409360115
100
AcDbArc
 50
344.4368387591
 51
184.2623374401
  0
ARC
  5
15B
330
1F
100
AcDbEntity
  8
0
  6
HIDDEN
 62
     7
370
     0
100
AcDbCircle
 10
152.007619022
 20
103.5384378287
 30
0.0
 40
2.356538682316561
100
AcDbArc
 50
351.1182574525
 51
154.6014516035
  0
ARC
  5
15C
330
1F
100
AcDbEntity
  8
0
  6
HIDDEN
 62
     7
370
     0
100
AcDbCircle
 10
152.023978171
 20
103.525236569
 30
0.0
 40
2.004549550485561
100
AcDbArc
 50
2.9533575035
 51
126.9698492383
  0
LWPOLYLINE
  5
15D
330
1F
100
AcDbEntity
  8
0
  6
HIDDEN
 62
     7
370
     0
100
AcDbPolyline
 90
       20
 70
   128
 43
0.0
 10
150.4692114391
 20
102.0262574899
 10
149.9183685951
 20
102.6008201885
 10
149.5959065355
 20
103.3123254898
 10
149.5367675521
 20
104.0836673352
 10
149.7473600753
 20
104.8312613863
 10
150.2048648395
 20
105.4740918922
 10
150.8597028874
 20
105.9424996498
 10
151.6409130268
 20
106.1857247847
 10
152.4638389669
 20
106.1774108681
 10
153.2393028461
 20
105.9184575575
 10
153.8832723595
 20
105.4369274649
 10
154.3259616442
 20
104.785002594
 10
154.5194010683
 20
104.0333265561
 10
154.4426265605
 20
103.2633574802
 10
154.1039585568
 20
102.5585325557
 10
153.5400986172
 20
101.9952314097
 10
152.812145228
 20
101.6344947863
 10
151.998986999
 20
101.5154140192
 10
151.188741947
 20
101.6508953768
 10
150.4692114391
 20
102.0262574899
  0
LWPOLYLINE
  5
15E
330
1F
100
AcDbEntity
  8
0
  6
HIDDEN
 62
     7
370
     0
100
AcDbPolyline
 90
       18
 70
   128
 43
0.0
 10
150.7805423312
 20
103.5756895441
 10
150.2992990859
 20
104.0977284434
 10
150.0512385242
 20
104.7478763509
 10
150.0698612504
 20
105.4383272427
 10
150.3526536249
 20
106.0758305836
 10
150.8614230402
 20
106.574290258
 10
151.5274555855
 20
106.8663846823
 10
152.2608022638
 20
106.9126658264
 10
152.962418782
 20
106.7068826529
 10
153.537548656
 20
106.2768286216
 10
153.9085167892
 20
105.6805828708
 10
154.0252226837
 20
104.9986731383
 10
153.8719046362
 20
104.3231941882
 10
153.4692678101
 20
103.7453737232
 10
152.8716921307
 20
103.3432500559
 10
152.1598822869
 20
103.1711323309
 10
151.4299731203
 20
103.2522635656
 10
150.7805423312
 20
103.5756895441
  0
LWPOLYLINE
  5
15F
330
1F
100
AcDbEntity
  8
0
  6
HIDDEN
 62
     7
370
     0
100
AcDbPolyline
 90
       20
 70
   128
 43
0.0
 10
150.4692114391
 20
102.262250905
 10
149.9183685951
 20
102.8368154663
 10
149.5959065355
 20
103.5483189049
 10
149.5367675521
 20
104.3196616816
 10
149.7473600753
 20
105.0672548014
 10
150.2048648395
 20
105.7100853073
 10
150.8597028874
 20
106.1784930649
 10
151.6409130268
 20
106.4217191312
 10
152.4638389669
 20
106.4134042832
 10
153.2393028461
 20
106.154451904
 10
153.8832723595
 20
105.6729218113
 10
154.3259616442
 20
105.0209960091
 10
154.5194010683
 20
104.2693209025
 10
154.4426265605
 20
103.4993518266
 10
154.1039585568
 20
102.7945259708
 10
153.5400986172
 20
102.2312248248
 10
152.812145228
 20
101.8704882014
 10
151.998986999
 20
101.751409297
 10
151.188741947
 20
101.8868906546
 10
150.4692114391
 20
102.262250905
  0
LWPOLYLINE
  5
160
330
1F
100
AcDbEntity
  8
0
  6
HIDDEN
 62
     7
370
     0
100
AcDbPolyline
 90
       19
 70
   128
 43
0.0
 10
150.5937441684
 20
102.347837587
 10
150.0645676129
 20
102.9101031023
 10
149.7719525792
 20
103.6085344973
 10
149.7511924677
 20
104.3588908511
 10
150.0047916047
 20
105.070666236
 10
150.5021616317
 20
105.6580113369
 10
151.1833132677
 20
106.050084171
 10
151.9660889603
 20
106.1995931092
 10
152.756074021
 20
106.0885068151
 10
153.4579857685
 20
105.7302242267
 10
153.9871632554
 20
105.1679577801
 10
154.2797773577
 20
104.4695263851
 10
154.3005384006
 20
103.7191700312
 10
154.0469392635
 20
103.0073946464
 10
153.5495683052
 20
102.4200486141
 10
152.8684166692
 20
102.0279767114
 10
152.0856409766
 20
101.8784677732
 10
151.2956549846
 20
101.9895540672
 10
150.5937441684
 20
102.347837587
  0
LWPOLYLINE
  5
161
330
1F
100
AcDbEntity
  8
0
  6
HIDDEN
 62
     7
370
     0
100
AcDbPolyline
 90
       20
 70
   128
 43
0.0
 10
150.4692114391
 20
102.4982443201
 10
149.9183685951
 20
103.0728088814
 10
149.5959065355
 20
103.7843132514
 10
149.5367675521
 20
104.5556550968
 10
149.7473600753
 20
105.3032491478
 10
150.2048648395
 20
105.9460796538
 10
150.8597028874
 20
106.4144874114
 10
151.6409130268
 20
106.6577125463
 10
152.4638389669
 20
106.6493986297
 10
153.2393028461
 20
106.3904453191
 10
153.8832723595
 20
105.9089152264
 10
154.3259616442
 20
105.2569903555
 10
154.5194010683
 20
104.5053143176
 10
154.4426265605
 20
103.7353452417
 10
154.1039585568
 20
103.0305212486
 10
153.5400986172
 20
102.4672182399
 10
152.812145228
 20
102.1064816165
 10
151.998986999
 20
101.9874027121
 10
151.188741947
 20
102.1228840697
 10
150.4692114391
 20
102.4982443201
  0
LWPOLYLINE
  5
162
330
1F
100
AcDbEntity
  8
0
  6
HIDDEN
 62
     7
370
     0
100
AcDbPolyline
 90
       19
 70
   128
 43
0.0
 10
150.5937441684
 20
102.5838310021
 10
150.0645676129
 20
103.1460965174
 10
149.7719525792
 20
103.8445288437
 10
149.7511924677
 20
104.5948842662
 10
150.0047916047
 20
105.3066605824
 10
150.5021616317
 20
105.8940056834
 10
151.1833132677
 20
106.2860775861
 10
151.9660889603
 20
106.4355874556
 10
152.756074021
 20
106.3245011616
 10
153.4579857685
 20
105.9662176418
 10
153.9871632554
 20
105.4039511952
 10
154.2797773577
 20
104.7055198002
 10
154.3005384006
 20
103.9551643777
 10
154.0469392635
 20
103.2433880615
 10
153.5495683052
 20
102.6560438919
 10
152.8684166692
 20
102.2639701265
 10
152.0856409766
 20
102.1144611883
 10
151.2956549846
 20
102.2255474824
 10
150.5937441684
 20
102.5838310021
  0
LWPOLYLINE
  5
163
330
1F
100
AcDbEntity
  8
0
  6
HIDDEN
 62
     7
370
     0
100
AcDbPolyline
 90
       20
 70
   128
 43
0.0
 10
150.4692114391
 20
102.7342377353
 10
149.9183685951
 20
103.3088022965
 10
149.5959065355
 20
104.0203066665
 10
149.5367675521
 20
104.7916494432
 10
149.7473600753
 20
105.5392425629
 10
150.2048648395
 20
106.1820730689
 10
150.8597028874
 20
106.6504808265
 10
151.6409130268
 20
106.8937068927
 10
152.4638389669
 20
106.8853920448
 10
153.2393028461
 20
106.6264396655
 10
153.8832723595
 20
106.1449095729
 10
154.3259616442
 20
105.4929837707
 10
154.5194010683
 20
104.7413086641
 10
154.4426265605
 20
103.9713395882
 10
154.1039585568
 20
103.2665146637
 10
153.5400986172
 20
102.7032135177
 10
152.812145228
 20
102.3424768942
 10
151.998986999
 20
102.2233961272
 10
151.188741947
 20
102.3588774848
 10
150.4692114391
 20
102.7342377353
  0
LWPOLYLINE
  5
164
330
1F
100
AcDbEntity
  8
0
  6
HIDDEN
 62
     7
370
     0
100
AcDbPolyline
 90
       19
 70
   128
 43
0.0
 10
150.5937441684
 20
102.8198244172
 10
150.0645676129
 20
103.3820908639
 10
149.7719525792
 20
104.0805222589
 10
149.7511924677
 20
104.8308786127
 10
150.0047916047
 20
105.5426539975
 10
150.5021616317
 20
106.1299990985
 10
151.1833132677
 20
106.5220719325
 10
151.9660889603
 20
106.6715808707
 10
152.756074021
 20
106.5604945767
 10
153.4579857685
 20
106.2022119883
 10
153.9871632554
 20
105.6399455416
 10
154.2797773577
 20
104.9415141466
 10
154.3005384006
 20
104.1911577928
 10
154.0469392635
 20
103.479382408
 10
153.5495683052
 20
102.892037307
 10
152.8684166692
 20
102.4999654043
 10
152.0856409766
 20
102.3504546034
 10
151.2956549846
 20
102.4615408975
 10
150.5937441684
 20
102.8198244172
  0
LWPOLYLINE
  5
165
330
1F
100
AcDbEntity
  8
0
  6
HIDDEN
 62
     7
370
     0
100
AcDbPolyline
 90
       20
 70
   128
 43
0.0
 10
150.4692114391
 20
102.970233013
 10
149.9183685951
 20
103.5447966429
 10
149.5959065355
 20
104.2563010129
 10
149.5367675521
 20
105.0276428583
 10
149.7473600753
 20
105.7752369094
 10
150.2048648395
 20
106.4180674153
 10
150.8597028874
 20
106.8864751729
 10
151.6409130268
 20
107.1297003078
 10
152.4638389669
 20
107.1213863912
 10
153.2393028461
 20
106.8624330807
 10
153.8832723595
 20
106.3809039193
 10
154.3259616442
 20
105.7289781171
 10
154.5194010683
 20
104.9773020792
 10
154.4426265605
 20
104.2073330033
 10
154.1039585568
 20
103.5025080788
 10
153.5400986172
 20
102.9392069328
 10
152.812145228
 20
102.5784703094
 10
151.998986999
 20
102.4593895423
 10
151.188741947
 20
102.5948708999
 10
150.4692114391
 20
102.970233013
  0
LWPOLYLINE
  5
166
330
1F
100
AcDbEntity
  8
0
  6
HIDDEN
 62
     7
370
     0
100
AcDbPolyline
 90
       19
 70
   128
 43
0.0
 10
150.5937441684
 20
103.0558178323
 10
150.0645676129
 20
103.6180852103
 10
149.7719525792
 20
104.3165166053
 10
149.7511924677
 20
105.0668720278
 10
150.0047916047
 20
105.778648344
 10
150.5021616317
 20
106.3659934449
 10
151.1833132677
 20
106.7580653477
 10
151.9660889603
 20
106.9075752172
 10
152.756074021
 20
106.7964889231
 10
153.4579857685
 20
106.4382054034
 10
153.9871632554
 20
105.8759389567
 10
154.2797773577
 20
105.1775075617
 10
154.3005384006
 20
104.4271521392
 10
154.0469392635
 20
103.7153758231
 10
153.5495683052
 20
103.1280307221
 10
152.8684166692
 20
102.7359588194
 10
152.0856409766
 20
102.5864498812
 10
151.2956549846
 20
102.6975361752
 10
150.5937441684
 20
103.0558178323
  0
LWPOLYLINE
  5
167
330
1F
100
AcDbEntity
  8
0
  6
HIDDEN
 62
     7
370
     0
100
AcDbPolyline
 90
       20
 70
   128
 43
0.0
 10
150.4692114391
 20
103.5687679547
 10
149.9183685951
 20
104.1433315846
 10
149.5959065355
 20
104.8548359546
 10
149.5367675521
 20
105.6261787313
 10
149.7473600753
 20
106.3737718511
 10
150.2048648395
 20
107.016602357
 10
150.8597028874
 20
107.4850101146
 10
151.6409130268
 20
107.7282352495
 10
152.4638389669
 20
107.7199213329
 10
153.2393028461
 20
107.4609689537
 10
153.8832723595
 20
106.979438861
 10
154.3259616442
 20
106.3275130588
 10
154.5194010683
 20
105.5758379522
 10
154.4426265605
 20
104.8058688763
 10
154.1039585568
 20
104.1010439518
 10
153.5400986172
 20
103.5377418744
 10
152.812145228
 20
103.177005251
 10
151.998986999
 20
103.0579263466
 10
151.188741947
 20
103.1934077042
 10
150.4692114391
 20
103.5687679547
  0
LWPOLYLINE
  5
168
330
1F
100
AcDbEntity
  8
0
  6
HIDDEN
 62
     7
370
     0
100
AcDbPolyline
 90
       18
 70
   128
 43
0.0
 10
150.7927556954
 20
104.0534477803
 10
150.3162323929
 20
104.5703662681
 10
150.0706044458
 20
105.2141383412
 10
150.0890455641
 20
105.8978166553
 10
150.36906446
 20
106.5290680277
 10
150.8728429176
 20
107.0226391899
 10
151.5323440977
 20
107.3118688661
 10
152.2584981717
 20
107.357696456
 10
152.9532331474
 20
107.1539314586
 10
153.5227220006
 20
106.7280944559
 10
153.8900523879
 20
106.1376964795
 10
154.0056146182
 20
105.4624745744
 10
153.8537997253
 20
104.7936210531
 10
153.455111707
 20
104.221467686
 10
152.8633968406
 20
103.8232872385
 10
152.1585681908
 20
103.65285707
 10
151.4358171694
 20
103.7331938866
 10
150.7927556954
 20
104.0534477803
  0
LWPOLYLINE
  5
169
330
1F
100
AcDbEntity
  8
0
  6
HIDDEN
 62
     7
370
     0
100
AcDbPolyline
 90
       20
 70
   128
 43
0.0
 10
145.8789851017
 20
130.0071895245
 10
145.4070853502
 20
129.7579890239
 10
144.9570488617
 20
129.7715118277
 10
144.5776434116
 20
130.0462911028
 10
144.3099840976
 20
130.5525515351
 10
144.1830755644
 20
131.2354307744
 10
144.2106706523
 20
132.0209287229
 10
144.3897793502
 20
132.82392436
 10
144.7009914987
 20
133.5574014234
 10
145.1105829761
 20
134.1418752569
 10
145.5741683453
 20
134.514009406
 10
146.0415102042
 20
134.6334776032
 10
146.4619660251
 20
134.4873335335
 10
146.7899722479
 20
134.0914134058
 10
146.9899840154
 20
133.48862232
 10
147.0403266572
 20
132.74428231
 10
146.9355463483
 20
131.9390533614
 10
146.6869959109
 20
131.1601938802
 10
146.3216110565
 20
130.4921068373
 10
145.8789851017
 20
130.0071895245
  0
LWPOLYLINE
  5
16A
330
1F
100
AcDbEntity
  8
0
  6
HIDDEN
 62
     7
370
     0
100
AcDbPolyline
 90
       17
 70
   128
 43
0.0
 10
146.4123051115
 20
130.5126210797
 10
146.020667205
 20
130.3257009137
 10
145.6598635264
 20
130.3990462917
 10
145.3848225497
 20
130.7214915874
 10
145.2374174692
 20
131.2439477193
 10
145.2400894337
 20
131.8868750828
 10
145.3924314551
 20
132.5523944694
 10
145.6712508075
 20
133.1391854334
 10
146.0340996705
 20
133.5579155135
 10
146.4257375769
 20
133.7448356795
 10
146.7865412556
 20
133.6714903015
 10
147.0615822323
 20
133.3490440744
 10
147.2089873128
 20
132.8265879425
 10
147.2063153483
 20
132.183660579
 10
147.0539733268
 20
131.5181421238
 10
146.7751539745
 20
130.9313511598
 10
146.4123051115
 20
130.5126210797
  0
LWPOLYLINE
  5
16B
330
1F
100
AcDbEntity
  8
0
  6
HIDDEN
 62
     7
370
     0
100
AcDbPolyline
 90
       20
 70
   128
 43
0.0
 10
143.4271983303
 20
130.5943558115
 10
142.9552985788
 20
130.3451553109
 10
142.5052616246
 20
130.3586781147
 10
142.1258566402
 20
130.6334573898
 10
141.8581973262
 20
131.1397178221
 10
141.731288793
 20
131.8225970614
 10
141.7588838808
 20
132.6080950099
 10
141.9379921131
 20
133.411090647
 10
142.2492047273
 20
134.1445677104
 10
142.6587962046
 20
134.7290406126
 10
143.1223815739
 20
135.1011747616
 10
143.5897238985
 20
135.2206429589
 10
144.0101792537
 20
135.0744998205
 10
144.3381850109
 20
134.6785796928
 10
144.5381967783
 20
134.0757895383
 10
144.5885403514
 20
133.331448597
 10
144.4837591112
 20
132.5262196484
 10
144.2352091394
 20
131.7473601672
 10
143.8698238194
 20
131.0792731243
 10
143.4271983303
 20
130.5943558115
  0
LINE
  5
16C
330
1F
100
AcDbEntity
  8
0
  6
HIDDEN
 62
     7
370
     0
100
AcDbLine
 10
143.8027816326
 20
132.4903180945
 30
0.0
 11
144.4289288916
 21
133.6834754917
 31
0.0
  0
LINE
  5
16D
330
1F
100
AcDbEntity
  8
0
  6
HIDDEN
 62
     7
370
     0
100
AcDbLine
 10
142.1644771904
 20
132.8826675314
 30
0.0
 11
142.7906249151
 21
134.0758249286
 31
0.0
  0
LWPOLYLINE
  5
16E
330
1F
100
AcDbEntity
  8
0
  6
HIDDEN
 62
     7
370
     0
100
AcDbPolyline
 90
       18
 70
   128
 43
0.0
 10
143.1686552674
 20
131.0319442424
 10
142.735488756
 20
130.8170070994
 10
142.330833754
 20
130.8725800487
 10
142.0093402699
 20
131.1911584931
 10
141.8144284248
 20
131.7297171923
 10
141.7724215858
 20
132.4155198532
 10
141.8889933698
 20
133.1559445831
 10
142.1483997688
 20
133.8509943458
 10
142.5156072214
 20
134.4067983451
 10
142.9410214037
 20
134.7482910502
 10
143.3671885602
 20
134.8293533671
 10
143.736551559
 20
134.639037599
 10
143.9992269002
 20
134.2030454549
 10
144.1197381787
 20
133.580260736
 10
144.0818100669
 20
132.8547949093
 10
143.8905643731
 20
132.124624041
 10
143.5718308635
 20
131.4883640158
 10
143.1686552674
 20
131.0319442424
  0
LINE
  5
16F
330
1F
100
AcDbEntity
  8
0
  6
HIDDEN
 62
     7
370
     0
100
AcDbLine
 10
142.3204467133
 20
131.6268088418
 30
0.0
 11
142.1644771904
 21
132.8826675314
 31
0.0
  0
LINE
  5
170
330
1F
100
AcDbEntity
  8
0
  6
HIDDEN
 62
     7
370
     0
100
AcDbLine
 10
143.8027816326
 20
132.4903180945
 30
0.0
 11
142.1644771904
 21
132.8826675314
 31
0.0
  0
LINE
  5
171
330
1F
100
AcDbEntity
  8
0
  6
HIDDEN
 62
     7
370
     0
100
AcDbLine
 10
143.9587511554
 20
131.2344603363
 30
0.0
 11
143.8027816326
 21
132.4903180945
 31
0.0
  0
LINE
  5
172
330
1F
100
AcDbEntity
  8
0
  6
HIDDEN
 62
     7
370
     0
100
AcDbLine
 10
143.5727412313
 20
134.0131245676
 30
0.0
 11
142.7906249151
 21
134.0758249286
 31
0.0
  0
LINE
  5
173
330
1F
100
AcDbEntity
  8
0
  6
HIDDEN
 62
     7
370
     0
100
AcDbLine
 10
144.4289288916
 20
133.6834754917
 30
0.0
 11
142.7906249151
 21
134.0758249286
 31
0.0
  0
LINE
  5
174
330
1F
100
AcDbEntity
  8
0
  6
HIDDEN
 62
     7
370
     0
100
AcDbLine
 10
145.2110456735
 20
133.6207751307
 30
0.0
 11
144.4289288916
 21
133.6834754917
 31
0.0
  0
LINE
  5
175
330
1F
100
AcDbEntity
  8
0
  6
HIDDEN
 62
     7
370
     0
100
AcDbLine
 10
144.7408679374
 20
131.1717590439
 30
0.0
 11
143.1025634952
 21
131.5641084808
 31
0.0
  0
LINE
  5
176
330
1F
100
AcDbEntity
  8
0
  6
HIDDEN
 62
     7
370
     0
100
AcDbLine
 10
143.9587511554
 20
131.2344603363
 30
0.0
 11
142.3204467133
 21
131.6268088418
 31
0.0
  0
LINE
  5
177
330
1F
100
AcDbEntity
  8
0
  6
HIDDEN
 62
     7
370
     0
100
AcDbLine
 10
142.3204467133
 20
131.6268088418
 30
0.0
 11
143.1025634952
 21
131.5641084808
 31
0.0
  0
LINE
  5
178
330
1F
100
AcDbEntity
  8
0
  6
HIDDEN
 62
     7
370
     0
100
AcDbLine
 10
143.9587511554
 20
131.2344603363
 30
0.0
 11
144.7408679374
 21
131.1717590439
 31
0.0
  0
LINE
  5
179
330
1F
100
AcDbEntity
  8
0
  6
HIDDEN
 62
     7
370
     0
100
AcDbLine
 10
145.3670151964
 20
132.3649173725
 30
0.0
 11
143.7287107542
 21
132.7572668093
 31
0.0
  0
LINE
  5
17A
330
1F
100
AcDbEntity
  8
0
  6
HIDDEN
 62
     7
370
     0
100
AcDbLine
 10
143.7287107542
 20
132.7572668093
 30
0.0
 11
143.1025634952
 21
131.5641084808
 31
0.0
  0
LINE
  5
17B
330
1F
100
AcDbEntity
  8
0
  6
HIDDEN
 62
     7
370
     0
100
AcDbLine
 10
145.3670151964
 20
132.3649173725
 30
0.0
 11
144.7408679374
 21
131.1717590439
 31
0.0
  0
LINE
  5
17C
330
1F
100
AcDbEntity
  8
0
  6
HIDDEN
 62
     7
370
     0
100
AcDbLine
 10
145.2110456735
 20
133.6207751307
 30
0.0
 11
143.5727412313
 21
134.0131245676
 31
0.0
  0
LINE
  5
17D
330
1F
100
AcDbEntity
  8
0
  6
HIDDEN
 62
     7
370
     0
100
AcDbLine
 10
143.7287107542
 20
132.7572668093
 30
0.0
 11
143.5727412313
 21
134.0131245676
 31
0.0
  0
LINE
  5
17E
330
1F
100
AcDbEntity
  8
0
  6
HIDDEN
 62
     7
370
     0
100
AcDbLine
 10
145.3670151964
 20
132.3649173725
 30
0.0
 11
145.2110456735
 21
133.6207751307
 31
0.0
  0
LWPOLYLINE
  5
17F
330
1F
100
AcDbEntity
  8
0
  6
HIDDEN
 62
     7
370
     0
100
AcDbPolyline
 90
       18
 70
   128
 43
0.0
 10
143.1686552674
 20
106.7982696119
 10
142.735488756
 20
107.0132067549
 10
142.330833754
 20
106.9576338056
 10
142.0093402699
 20
106.6390553611
 10
141.8144284248
 20
106.1004966619
 10
141.7724215858
 20
105.4146940011
 10
141.8889933698
 20
104.6742692712
 10
142.1483997688
 20
103.9792195085
 10
142.5156072214
 20
103.4234155092
 10
142.9410214037
 20
103.0819228041
 10
143.3671885602
 20
103.0008604872
 10
143.736551559
 20
103.1911762553
 10
143.9992269002
 20
103.6271683994
 10
144.1197381787
 20
104.2499531183
 10
144.0818100669
 20
104.9754189449
 10
143.8905643731
 20
105.7055898133
 10
143.5718308635
 20
106.3418498385
 10
143.1686552674
 20
106.7982696119
  0
LWPOLYLINE
  5
180
330
1F
100
AcDbEntity
  8
0
  6
HIDDEN
 62
     7
370
     0
100
AcDbPolyline
 90
       20
 70
   128
 43
0.0
 10
143.4271983303
 20
107.2358580428
 10
142.9552985788
 20
107.4850585434
 10
142.5052616246
 20
107.4715357396
 10
142.1258566402
 20
107.1967564645
 10
141.8581973262
 20
106.6904960322
 10
141.731288793
 20
106.0076167929
 10
141.7588838808
 20
105.2221188444
 10
141.9379921131
 20
104.4191232073
 10
142.2492047273
 20
103.6856461438
 10
142.6587962046
 20
103.1011732417
 10
143.1223815739
 20
102.7290390926
 10
143.5897238985
 20
102.6095708954
 10
144.0101792537
 20
102.7557140338
 10
144.3381850109
 20
103.1516341615
 10
144.5381967783
 20
103.754424316
 10
144.5885403514
 20
104.4987652573
 10
144.4837591112
 20
105.3039942059
 10
144.2352091394
 20
106.0828536871
 10
143.8698238194
 20
106.75094073
 10
143.4271983303
 20
107.2358580428
  0
LWPOLYLINE
  5
181
330
1F
100
AcDbEntity
  8
0
  6
HIDDEN
 62
     7
370
     0
100
AcDbPolyline
 90
       20
 70
   128
 43
0.0
 10
145.8789851017
 20
107.8230243298
 10
145.4070853502
 20
108.0722248304
 10
144.9570488617
 20
108.0587020266
 10
144.5776434116
 20
107.7839227515
 10
144.3099840976
 20
107.2776623192
 10
144.1830755644
 20
106.5947830799
 10
144.2106706523
 20
105.8092851314
 10
144.3897793502
 20
105.0062894943
 10
144.7009914987
 20
104.2728124308
 10
145.1105829761
 20
103.6883385974
 10
145.5741683453
 20
103.3162044483
 10
146.0415102042
 20
103.1967362511
 10
146.4619660251
 20
103.3428803208
 10
146.7899722479
 20
103.7388004485
 10
146.9899840154
 20
104.3415915343
 10
147.0403266572
 20
105.0859315443
 10
146.9355463483
 20
105.8911604929
 10
146.6869959109
 20
106.6700199741
 10
146.3216110565
 20
107.338107017
 10
145.8789851017
 20
107.8230243298
  0
LINE
  5
182
330
1F
100
AcDbEntity
  8
0
  6
HIDDEN
 62
     7
370
     0
100
AcDbLine
 10
142.1644771904
 20
104.9475463229
 30
0.0
 11
142.7906249151
 21
103.7543889257
 31
0.0
  0
LINE
  5
183
330
1F
100
AcDbEntity
  8
0
  6
HIDDEN
 62
     7
370
     0
100
AcDbLine
 10
143.5727412313
 20
103.8170892867
 30
0.0
 11
142.7906249151
 21
103.7543889257
 31
0.0
  0
LINE
  5
184
330
1F
100
AcDbEntity
  8
0
  6
HIDDEN
 62
     7
370
     0
100
AcDbLine
 10
143.7287107542
 20
105.072947045
 30
0.0
 11
143.5727412313
 21
103.8170892867
 31
0.0
  0
LINE
  5
185
330
1F
100
AcDbEntity
  8
0
  6
HIDDEN
 62
     7
370
     0
100
AcDbLine
 10
143.7287107542
 20
105.072947045
 30
0.0
 11
143.1025634952
 21
106.2661053735
 31
0.0
  0
LINE
  5
186
330
1F
100
AcDbEntity
  8
0
  6
HIDDEN
 62
     7
370
     0
100
AcDbLine
 10
142.3204467133
 20
106.2034050125
 30
0.0
 11
143.1025634952
 21
106.2661053735
 31
0.0
  0
LINE
  5
187
330
1F
100
AcDbEntity
  8
0
  6
HIDDEN
 62
     7
370
     0
100
AcDbLine
 10
142.3204467133
 20
106.2034050125
 30
0.0
 11
142.1644771904
 21
104.9475463229
 31
0.0
  0
LINE
  5
188
330
1F
100
AcDbEntity
  8
0
  6
HIDDEN
 62
     7
370
     0
100
AcDbLine
 10
145.3670151964
 20
105.4652964818
 30
0.0
 11
143.7287107542
 21
105.072947045
 31
0.0
  0
LWPOLYLINE
  5
189
330
1F
100
AcDbEntity
  8
0
  6
HIDDEN
 62
     7
370
     0
100
AcDbPolyline
 90
       17
 70
   128
 43
0.0
 10
146.4123051115
 20
107.3175927746
 10
146.020667205
 20
107.5045129406
 10
145.6598635264
 20
107.4311675626
 10
145.3848225497
 20
107.1087222668
 10
145.2374174692
 20
106.586266135
 10
145.2400894337
 20
105.9433387715
 10
145.3924314551
 20
105.2778193849
 10
145.6712508075
 20
104.6910284209
 10
146.0340996705
 20
104.2722983408
 10
146.4257375769
 20
104.0853781748
 10
146.7865412556
 20
104.1587235528
 10
147.0615822323
 20
104.4811697799
 10
147.2089873128
 20
105.0036259118
 10
147.2063153483
 20
105.6465532753
 10
147.0539733268
 20
106.3120717305
 10
146.7751539745
 20
106.8988626945
 10
146.4123051115
 20
107.3175927746
  0
LINE
  5
18A
330
1F
100
AcDbEntity
  8
0
  6
HIDDEN
 62
     7
370
     0
100
AcDbLine
 10
144.7408679374
 20
106.6584548104
 30
0.0
 11
143.1025634952
 21
106.2661053735
 31
0.0
  0
LINE
  5
18B
330
1F
100
AcDbEntity
  8
0
  6
HIDDEN
 62
     7
370
     0
100
AcDbLine
 10
144.4289288916
 20
104.1467383626
 30
0.0
 11
142.7906249151
 21
103.7543889257
 31
0.0
  0
LINE
  5
18C
330
1F
100
AcDbEntity
  8
0
  6
HIDDEN
 62
     7
370
     0
100
AcDbLine
 10
145.2110456735
 20
104.2094387236
 30
0.0
 11
144.4289288916
 21
104.1467383626
 31
0.0
  0
LINE
  5
18D
330
1F
100
AcDbEntity
  8
0
  6
HIDDEN
 62
     7
370
     0
100
AcDbLine
 10
145.2110456735
 20
104.2094387236
 30
0.0
 11
143.5727412313
 21
103.8170892867
 31
0.0
  0
LINE
  5
18E
330
1F
100
AcDbEntity
  8
0
  6
HIDDEN
 62
     7
370
     0
100
AcDbLine
 10
143.8027816326
 20
105.3398957598
 30
0.0
 11
144.4289288916
 21
104.1467383626
 31
0.0
  0
LINE
  5
18F
330
1F
100
AcDbEntity
  8
0
  6
HIDDEN
 62
     7
370
     0
100
AcDbLine
 10
143.9587511554
 20
106.595753518
 30
0.0
 11
143.8027816326
 21
105.3398957598
 31
0.0
  0
LINE
  5
190
330
1F
100
AcDbEntity
  8
0
  6
HIDDEN
 62
     7
370
     0
100
AcDbLine
 10
143.9587511554
 20
106.595753518
 30
0.0
 11
144.7408679374
 21
106.6584548104
 31
0.0
  0
LINE
  5
191
330
1F
100
AcDbEntity
  8
0
  6
HIDDEN
 62
     7
370
     0
100
AcDbLine
 10
145.3670151964
 20
105.4652964818
 30
0.0
 11
145.2110456735
 21
104.2094387236
 31
0.0
  0
LINE
  5
192
330
1F
100
AcDbEntity
  8
0
  6
HIDDEN
 62
     7
370
     0
100
AcDbLine
 10
145.3670151964
 20
105.4652964818
 30
0.0
 11
144.7408679374
 21
106.6584548104
 31
0.0
  0
LINE
  5
193
330
1F
100
AcDbEntity
  8
0
  6
HIDDEN
 62
     7
370
     0
100
AcDbLine
 10
143.8027816326
 20
105.3398957598
 30
0.0
 11
142.1644771904
 21
104.9475463229
 31
0.0
  0
LINE
  5
194
330
1F
100
AcDbEntity
  8
0
  6
HIDDEN
 62
     7
370
     0
100
AcDbLine
 10
143.9587511554
 20
106.595753518
 30
0.0
 11
142.3204467133
 21
106.2034050125
 31
0.0
  0
LINE
  5
195
330
1F
100
AcDbEntity
  8
0
  6
HIDDEN
 62
     7
370
     0
100
AcDbLine
 10
154.5258644469
 20
102.2507937747
 30
0.0
 11
154.5258644469
 21
105.4070217657
 31
0.0
  0
LINE
  5
196
330
1F
100
AcDbEntity
  8
0
  6
HIDDEN
 62
     7
370
     0
100
AcDbLine
 10
149.5258645587
 20
105.4070217657
 30
0.0
 11
149.5258645587
 21
103.3533623564
 31
0.0
  0
LINE
  5
197
330
1F
100
AcDbEntity
  8
0
  6
HIDDEN
 62
     7
370
     0
100
AcDbLine
 10
141.0258647952
 20
101.4654299366
 30
0.0
 11
143.6452926569
 21
102.0927446085
 31
0.0
  0
LINE
  5
198
330
1F
100
AcDbEntity
  8
0
  6
HIDDEN
 62
     7
370
     0
100
AcDbLine
 10
142.2478957534
 20
107.9277496907
 30
0.0
 11
141.0258647952
 21
107.6350908849
 31
0.0
  0
LINE
  5
199
330
1F
100
AcDbEntity
  8
0
  6
HIDDEN
 62
     7
370
     0
100
AcDbLine
 10
143.7040153392
 20
103.0322572338
 30
0.0
 11
151.1731646456
 21
104.8210065934
 31
0.0
  0
LINE
  5
19A
330
1F
100
AcDbEntity
  8
0
  6
HIDDEN
 62
     7
370
     0
100
AcDbLine
 10
151.1731646456
 20
109.139769164
 30
0.0
 11
142.7258374602
 21
107.116760512
 31
0.0
  0
LINE
  5
19B
330
1F
100
AcDbEntity
  8
0
  6
HIDDEN
 62
     7
370
     0
100
AcDbLine
 10
154.1258651264
 20
105.4568158585
 30
0.0
 11
154.1258651264
 21
117.1743779565
 31
0.0
  0
LINE
  5
19C
330
1F
100
AcDbEntity
  8
0
  6
HIDDEN
 62
     7
370
     0
100
AcDbLine
 10
149.9258648105
 20
105.8048660058
 30
0.0
 11
149.9258648105
 21
105.4568158585
 31
0.0
  0
LINE
  5
19D
330
1F
100
AcDbEntity
  8
0
  6
HIDDEN
 62
     7
370
     0
100
AcDbLine
 10
149.9258648105
 20
117.1736668917
 30
0.0
 11
149.9258648105
 21
107.5584905344
 31
0.0
  0
ARC
  5
19E
330
1F
100
AcDbEntity
  8
0
  6
HIDDEN
 62
     7
370
     0
100
AcDbCircle
 10
256.8258648761
 20
133.9151069271
 30
0.0
 40
1.0
100
AcDbArc
 50
270.0
 51
0.0
  0
ARC
  5
19F
330
1F
100
AcDbEntity
  8
0
  6
HIDDEN
 62
     7
370
     0
100
AcDbCircle
 10
256.8258648761
 20
103.9151069271
 30
0.0
 40
1.0
100
AcDbArc
 50
0.0
 51
90.0
  0
LINE
  5
1A0
330
1F
100
AcDbEntity
  8
0
  6
HIDDEN
 62
     7
370
     0
100
AcDbLine
 10
232.1942109116
 20
133.4151065099
 30
0.0
 11
230.3258660682
 21
133.4151065099
 31
0.0
  0
LINE
  5
1A1
330
1F
100
AcDbEntity
  8
0
  6
HIDDEN
 62
     7
370
     0
100
AcDbLine
 10
230.3258660682
 20
104.4151073444
 30
0.0
 11
232.1942109116
 21
104.4151073444
 31
0.0
  0
ARC
  5
1A2
330
1F
100
AcDbEntity
  8
0
  6
HIDDEN
 62
     7
370
     0
100
AcDbCircle
 10
232.1942123785
 20
132.4151069271
 30
0.0
 40
1.0
100
AcDbArc
 50
75.0
 51
90.0
  0
ARC
  5
1A3
330
1F
100
AcDbEntity
  8
0
  6
HIDDEN
 62
     7
370
     0
100
AcDbCircle
 10
232.1942123785
 20
105.4151069271
 30
0.0
 40
1.0
100
AcDbArc
 50
270.0
 51
285.0
  0
ARC
  5
1A4
330
1F
100
AcDbEntity
  8
0
  6
HIDDEN
 62
     7
370
     0
100
AcDbCircle
 10
230.3258648761
 20
132.4151069271
 30
0.0
 40
1.0
100
AcDbArc
 50
90.0
 51
180.0
  0
ARC
  5
1A5
330
1F
100
AcDbEntity
  8
0
  6
HIDDEN
 62
     7
370
     0
100
AcDbCircle
 10
230.3258648761
 20
105.4151069271
 30
0.0
 40
1.0
100
AcDbArc
 50
180.0
 51
270.0
  0
LINE
  5
1A6
330
1F
100
AcDbEntity
  8
0
  6
HIDDEN
 62
     7
370
     0
100
AcDbLine
 10
232.4530291803
 20
104.4491807121
 30
0.0
 11
234.1918903835
 21
104.915106495
 31
0.0
  0
LINE
  5
1A7
330
1F
100
AcDbEntity
  8
0
  6
HIDDEN
 62
     7
370
     0
100
AcDbLine
 10
234.1918903835
 20
132.9151073593
 30
0.0
 11
232.4530291803
 21
133.3810331422
 31
0.0
  0
LINE
  5
1A8
330
1F
100
AcDbEntity
  8
0
  6
HIDDEN
 62
     7
370
     0
100
AcDbLine
 10
238.3399489768
 20
132.9151073593
 30
0.0
 11
234.1918903835
 21
132.9151073593
 31
0.0
  0
LINE
  5
1A9
330
1F
100
AcDbEntity
  8
0
  6
HIDDEN
 62
     7
370
     0
100
AcDbLine
 10
256.8258676179
 20
132.9151073593
 30
0.0
 11
249.2200020202
 21
132.9151073593
 31
0.0
  0
LINE
  5
1AA
330
1F
100
AcDbEntity
  8
0
  6
HIDDEN
 62
     7
370
     0
100
AcDbLine
 10
234.1918903835
 20
104.915106495
 30
0.0
 11
256.8258676179
 21
104.915106495
 31
0.0
  0
ARC
  5
1AB
330
1F
100
AcDbEntity
  8
0
  6
HIDDEN
 62
     7
370
     0
100
AcDbCircle
 10
37.4258648761
 20
105.2151069271
 30
0.0
 40
1.200000000000017
100
AcDbArc
 50
90.0
 51
180.0
  0
ARC
  5
1AC
330
1F
100
AcDbEntity
  8
0
  6
HIDDEN
 62
     7
370
     0
100
AcDbCircle
 10
37.4258648761
 20
132.6151069271
 30
0.0
 40
1.20000000000001
100
AcDbArc
 50
180.0
 51
270.0
  0
ARC
  5
1AD
330
1F
100
AcDbEntity
  8
0
  6
HIDDEN
 62
     7
370
     0
100
AcDbCircle
 10
47.1182373068
 20
106.5901069271
 30
0.0
 40
0.3999999999999923
100
AcDbArc
 50
255.0
 51
270.0
  0
ARC
  5
1AE
330
1F
100
AcDbEntity
  8
0
  6
HIDDEN
 62
     7
370
     0
100
AcDbCircle
 10
47.1182373068
 20
131.2401069271
 30
0.0
 40
0.4000000000000057
100
AcDbArc
 50
90.0
 51
105.0
  0
LINE
  5
1AF
330
1F
100
AcDbEntity
  8
0
  6
HIDDEN
 62
     7
370
     0
100
AcDbLine
 10
47.118234957
 20
106.1901066574
 30
0.0
 11
47.9949224241
 21
106.1901066574
 31
0.0
  0
LINE
  5
1B0
330
1F
100
AcDbEntity
  8
0
  6
HIDDEN
 62
     7
370
     0
100
AcDbLine
 10
47.9949224241
 20
131.6401071969
 30
0.0
 11
47.118234957
 21
131.6401071969
 31
0.0
  0
ARC
  5
1B1
330
1F
100
AcDbEntity
  8
0
  6
HIDDEN
 62
     7
370
     0
100
AcDbCircle
 10
47.9949247684
 20
106.5901069271
 30
0.0
 40
0.3999999999999936
100
AcDbArc
 50
270.0
 51
330.0
  0
ARC
  5
1B2
330
1F
100
AcDbEntity
  8
0
  6
HIDDEN
 62
     7
370
     0
100
AcDbCircle
 10
47.9949247684
 20
131.2401069271
 30
0.0
 40
0.3999999999999865
100
AcDbArc
 50
30.0
 51
90.0
  0
LINE
  5
1B3
330
1F
100
AcDbEntity
  8
0
  6
HIDDEN
 62
     7
370
     0
100
AcDbLine
 10
47.0147091396
 20
131.626477291
 30
0.0
 11
46.2258640178
 21
131.4151071134
 31
0.0
  0
LINE
  5
1B4
330
1F
100
AcDbEntity
  8
0
  6
HIDDEN
 62
     7
370
     0
100
AcDbLine
 10
46.2258640178
 20
106.4151067409
 30
0.0
 11
47.0147091396
 21
106.2037365633
 31
0.0
  0
LINE
  5
1B5
330
1F
100
AcDbEntity
  8
0
  6
HIDDEN
 62
     7
370
     0
100
AcDbLine
 10
48.341337169
 20
106.390107249
 30
0.0
 11
49.5104673751
 21
108.4151070687
 31
0.0
  0
LINE
  5
1B6
330
1F
100
AcDbEntity
  8
0
  6
HIDDEN
 62
     7
370
     0
100
AcDbLine
 10
49.5104673751
 20
129.4151067856
 30
0.0
 11
48.341337169
 21
131.4401066053
 31
0.0
  0
LINE
  5
1B7
330
1F
100
AcDbEntity
  8
0
  6
HIDDEN
 62
     7
370
     0
100
AcDbLine
 10
37.4258640655
 20
106.4151067409
 30
0.0
 11
46.2258640178
 21
106.4151067409
 31
0.0
  0
LINE
  5
1B8
330
1F
100
AcDbEntity
  8
0
  6
HIDDEN
 62
     7
370
     0
100
AcDbLine
 10
46.2258640178
 20
131.4151071134
 30
0.0
 11
37.4258640655
 21
131.4151071134
 31
0.0
  0
LINE
  5
1B9
330
1F
100
AcDbEntity
  8
0
  6
HIDDEN
 62
     7
370
     0
100
AcDbLine
 10
49.5104673751
 20
108.4151070687
 30
0.0
 11
98.2258650907
 21
108.4151070687
 31
0.0
  0
LINE
  5
1BA
330
1F
100
AcDbEntity
  8
0
  6
HIDDEN
 62
     7
370
     0
100
AcDbLine
 10
98.2258650907
 20
129.4151067856
 30
0.0
 11
49.5104673751
 21
129.4151067856
 31
0.0
  0
LINE
  5
1BB
330
1F
100
AcDbEntity
  8
0
  6
HIDDEN
 62
     7
370
     0
100
AcDbLine
 10
98.2258650907
 20
108.4151070687
 30
0.0
 11
101.4705109842
 21
113.8151067431
 31
0.0
  0
LINE
  5
1BC
330
1F
100
AcDbEntity
  8
0
  6
HIDDEN
 62
     7
370
     0
100
AcDbLine
 10
101.4705109842
 20
124.0151071112
 30
0.0
 11
98.2258650907
 21
129.4151067856
 31
0.0
  0
LINE
  5
1BD
330
1F
100
AcDbEntity
  8
0
  6
HIDDEN
 62
     7
370
     0
100
AcDbLine
 10
236.5258667119
 20
143.9151072997
 30
0.0
 11
238.2758665331
 21
142.1651074785
 31
0.0
  0
LINE
  5
1BE
330
1F
100
AcDbEntity
  8
0
  6
HIDDEN
 62
     7
370
     0
100
AcDbLine
 10
249.2758664735
 20
142.1651074785
 30
0.0
 11
251.0258662947
 21
143.9151072997
 31
0.0
  0
LINE
  5
1BF
330
1F
100
AcDbEntity
  8
0
  6
HIDDEN
 62
     7
370
     0
100
AcDbLine
 10
238.2758665331
 20
142.1651074785
 30
0.0
 11
238.2758665331
 21
132.8901777166
 31
0.0
  0
LINE
  5
1C0
330
1F
100
AcDbEntity
  8
0
  6
HIDDEN
 62
     7
370
     0
100
AcDbLine
 10
249.2758664735
 20
132.8935342032
 30
0.0
 11
249.2758664735
 21
142.1651074785
 31
0.0
  0
LINE
  5
1C1
330
1F
100
AcDbEntity
  8
0
  6
HIDDEN
 62
     7
370
     0
100
AcDbLine
 10
101.4705109842
 20
113.8151067431
 30
0.0
 11
229.3258640416
 21
113.8151067431
 31
0.0
  0
LINE
  5
1C2
330
1F
100
AcDbEntity
  8
0
  6
HIDDEN
 62
     7
370
     0
100
AcDbLine
 10
229.3258640416
 20
124.0151071112
 30
0.0
 11
101.4705109842
 21
124.0151071112
 31
0.0
  0
LINE
  5
1C3
330
1F
100
AcDbEntity
  8
0
  6
HIDDEN
 62
     7
370
     0
100
AcDbLine
 10
154.1258651264
 20
120.6565469625
 30
0.0
 11
154.1258651264
 21
132.3733979958
 31
0.0
  0
LINE
  5
1C4
330
1F
100
AcDbEntity
  8
0
  6
HIDDEN
 62
     7
370
     0
100
AcDbLine
 10
149.9258648105
 20
130.2717233199
 30
0.0
 11
149.9258648105
 21
120.6558358978
 31
0.0
  0
LINE
  5
1C5
330
1F
100
AcDbEntity
  8
0
  6
HIDDEN
 62
     7
370
     0
100
AcDbLine
 10
149.9258648105
 20
132.3733979958
 30
0.0
 11
149.9258648105
 21
132.0253478485
 31
0.0
  0
LINE
  5
1C6
330
1F
100
AcDbEntity
  8
0
  6
HIDDEN
 62
     7
370
     0
100
AcDbLine
 10
142.7258374602
 20
130.7134533423
 30
0.0
 11
151.1731646456
 21
128.6904446903
 31
0.0
  0
LINE
  5
1C7
330
1F
100
AcDbEntity
  8
0
  6
HIDDEN
 62
     7
370
     0
100
AcDbLine
 10
151.1731646456
 20
133.0092072609
 30
0.0
 11
143.7040153392
 21
134.7979566204
 31
0.0
  0
LINE
  5
1C8
330
1F
100
AcDbEntity
  8
0
  6
HIDDEN
 62
     7
370
     0
100
AcDbLine
 10
141.0258647952
 20
130.1951229694
 30
0.0
 11
142.2478957534
 21
129.9024641636
 31
0.0
  0
LINE
  5
1C9
330
1F
100
AcDbEntity
  8
0
  6
HIDDEN
 62
     7
370
     0
100
AcDbLine
 10
143.6452926569
 20
135.7374692458
 30
0.0
 11
141.0258647952
 21
136.3647839177
 31
0.0
  0
LINE
  5
1CA
330
1F
100
AcDbEntity
  8
0
  6
HIDDEN
 62
     7
370
     0
100
AcDbLine
 10
154.5258644469
 20
132.4231920886
 30
0.0
 11
154.5258644469
 21
135.5794200796
 31
0.0
  0
LINE
  5
1CB
330
1F
100
AcDbEntity
  8
0
  6
HIDDEN
 62
     7
370
     0
100
AcDbLine
 10
149.5258645587
 20
134.4768514979
 30
0.0
 11
149.5258645587
 21
132.4231920886
 31
0.0
  0
LINE
  5
1CC
330
1F
100
AcDbEntity
  8
0
  6
HIDDEN
 62
     7
370
     0
100
AcDbLine
 10
249.7758674868
 20
143.2151066261
 30
0.0
 11
249.3995312102
 21
143.5914373147
 31
0.0
  0
LINE
  5
1CD
330
1F
100
AcDbEntity
  8
0
  6
HIDDEN
 62
     7
370
     0
100
AcDbLine
 10
238.1507638343
 20
143.5900086659
 30
0.0
 11
237.7758655198
 21
143.2151066261
 31
0.0
  0
LINE
  5
1CE
330
1F
100
AcDbEntity
  8
0
  6
HIDDEN
 62
     7
370
     0
100
AcDbLine
 10
237.7758655198
 20
143.2151066261
 30
0.0
 11
237.7758655198
 21
135.8122209209
 31
0.0
  0
LINE
  5
1CF
330
1F
100
AcDbEntity
  8
0
  6
HIDDEN
 62
     7
370
     0
100
AcDbLine
 10
249.7758674868
 20
135.8122209209
 30
0.0
 11
249.7758674868
 21
143.2151066261
 31
0.0
  0
LINE
  5
1D0
330
1F
100
AcDbEntity
  8
0
  6
HIDDEN
 62
     7
370
     0
100
AcDbLine
 10
237.7758655198
 20
135.8122209209
 30
0.0
 11
239.9662840612
 21
127.6374615851
 31
0.0
  0
LINE
  5
1D1
330
1F
100
AcDbEntity
  8
0
  6
HIDDEN
 62
     7
370
     0
100
AcDbLine
 10
247.5854414947
 20
127.6374615851
 30
0.0
 11
249.7758674868
 21
135.8122209209
 31
0.0
  0
ARC
  5
1D2
330
1F
100
AcDbEntity
  8
0
  6
HIDDEN
 62
     7
370
     0
100
AcDbCircle
 10
240.2560629725
 20
127.7151069271
 30
0.0
 40
0.3000000000000241
100
AcDbArc
 50
195.0
 51
270.0
  0
ARC
  5
1D3
330
1F
100
AcDbEntity
  8
0
  6
HIDDEN
 62
     7
370
     0
100
AcDbCircle
 10
247.2956667797
 20
127.7151069271
 30
0.0
 40
0.2999999999999972
100
AcDbArc
 50
270.0
 51
345.0
  0
LINE
  5
1D4
330
1F
100
AcDbEntity
  8
0
  6
HIDDEN
 62
     7
370
     0
100
AcDbLine
 10
240.1758614428
 20
143.9151072997
 30
0.0
 11
240.5603635557
 21
143.5306089121
 31
0.0
  0
LINE
  5
1D5
330
1F
100
AcDbEntity
  8
0
  6
HIDDEN
 62
     7
370
     0
100
AcDbLine
 10
246.976177717
 20
143.5154171783
 30
0.0
 11
247.3758641131
 21
143.9151072997
 31
0.0
  0
LINE
  5
1D6
330
1F
100
AcDbEntity
  8
0
  6
HIDDEN
 62
     7
370
     0
100
AcDbLine
 10
240.7758641489
 20
136.9151061523
 30
0.0
 11
240.7758641489
 21
135.915107851
 31
0.0
  0
LINE
  5
1D7
330
1F
100
AcDbEntity
  8
0
  6
HIDDEN
 62
     7
370
     0
100
AcDbLine
 10
246.7758614071
 20
135.915107851
 30
0.0
 11
246.7758614071
 21
136.9151061523
 31
0.0
  0
LINE
  5
1D8
330
1F
100
AcDbEntity
  8
0
  6
HIDDEN
 62
     7
370
     0
100
AcDbLine
 10
240.7758641489
 20
135.915107851
 30
0.0
 11
243.775862778
 21
134.8231954622
 31
0.0
  0
LINE
  5
1D9
330
1F
100
AcDbEntity
  8
0
  6
HIDDEN
 62
     7
370
     0
100
AcDbLine
 10
243.775862778
 20
134.8231954622
 30
0.0
 11
246.7758614071
 21
135.915107851
 31
0.0
  0
LINE
  5
1DA
330
1F
100
AcDbEntity
  8
0
  6
HIDDEN
 62
     7
370
     0
100
AcDbLine
 10
154.5258644469
 20
132.4231920886
 30
0.0
 11
154.5258644469
 21
133.0217279616
 31
0.0
  0
LINE
  5
1DB
330
1F
100
AcDbEntity
  8
0
  6
HIDDEN
 62
     7
370
     0
100
AcDbLine
 10
149.5258645587
 20
133.0217279616
 30
0.0
 11
149.5258645587
 21
132.4231920886
 31
0.0
  0
LINE
  5
1DC
330
1F
100
AcDbEntity
  8
0
  6
HIDDEN
 62
     7
370
     0
100
AcDbLine
 10
154.0258652963
 20
132.7839212614
 30
0.0
 11
154.0258652963
 21
134.2016968998
 31
0.0
  0
LINE
  5
1DD
330
1F
100
AcDbEntity
  8
0
  6
HIDDEN
 62
     7
370
     0
100
AcDbLine
 10
150.0258646406
 20
134.2016968998
 30
0.0
 11
150.0258646406
 21
132.7839212614
 31
0.0
  0
LINE
  5
1DE
330
1F
100
AcDbEntity
  8
0
  6
HIDDEN
 62
     7
370
     0
100
AcDbLine
 10
154.5258644469
 20
133.9657034847
 30
0.0
 11
154.5258644469
 21
134.1538148123
 31
0.0
  0
LINE
  5
1DF
330
1F
100
AcDbEntity
  8
0
  6
HIDDEN
 62
     7
370
     0
100
AcDbLine
 10
149.5258645587
 20
134.1538148123
 30
0.0
 11
149.5258645587
 21
133.9657034847
 31
0.0
  0
LINE
  5
1E0
330
1F
100
AcDbEntity
  8
0
  6
HIDDEN
 62
     7
370
     0
100
AcDbLine
 10
149.5258645587
 20
103.8645103696
 30
0.0
 11
149.5258645587
 21
103.676399042
 31
0.0
  0
LINE
  5
1E1
330
1F
100
AcDbEntity
  8
0
  6
HIDDEN
 62
     7
370
     0
100
AcDbLine
 10
154.5258644469
 20
103.676399042
 30
0.0
 11
154.5258644469
 21
103.8645103696
 31
0.0
  0
LINE
  5
1E2
330
1F
100
AcDbEntity
  8
0
  6
HIDDEN
 62
     7
370
     0
100
AcDbLine
 10
150.0258646406
 20
105.0462925929
 30
0.0
 11
150.0258646406
 21
103.6285169545
 31
0.0
  0
LINE
  5
1E3
330
1F
100
AcDbEntity
  8
0
  6
HIDDEN
 62
     7
370
     0
100
AcDbLine
 10
154.0258652963
 20
103.6285169545
 30
0.0
 11
154.0258652963
 21
105.0462925929
 31
0.0
  0
LINE
  5
1E4
330
1F
100
AcDbEntity
  8
0
  6
HIDDEN
 62
     7
370
     0
100
AcDbLine
 10
149.5258645587
 20
105.4070217657
 30
0.0
 11
149.5258645587
 21
104.8084858927
 31
0.0
  0
LINE
  5
1E5
330
1F
100
AcDbEntity
  8
0
  6
HIDDEN
 62
     7
370
     0
100
AcDbLine
 10
154.5258644469
 20
104.8084858927
 30
0.0
 11
154.5258644469
 21
105.4070217657
 31
0.0
  0
CIRCLE
  5
1E6
330
1F
100
AcDbEntity
  8
0
  6
HIDDEN
 62
     7
370
     0
100
AcDbCircle
 10
152.0258648761
 20
133.3808488891
 30
0.0
 40
2.000000000000015
  0
ARC
  5
1E7
330
1F
100
AcDbEntity
  8
0
  6
HIDDEN
 62
     7
370
     0
100
AcDbCircle
 10
152.0258648761
 20
104.4493649652
 30
0.0
 40
2.00000000000002
100
AcDbArc
 50
53.212593149
 51
192.2156859342
  0
ARC
  5
1E8
330
1F
100
AcDbEntity
  8
0
  6
HIDDEN
 62
     7
370
     0
100
AcDbCircle
 10
152.0258648761
 20
104.4493649652
 30
0.0
 40
2.0
100
AcDbArc
 50
340.5387464665
 51
53.212593149
  0
LINE
  5
1E9
330
1F
100
AcDbEntity
  8
0
  6
HIDDEN
 62
     7
370
     0
100
AcDbLine
 10
145.9999108188
 20
130.1132438826
 30
0.0
 11
146.4969530203
 21
130.5868595961
 31
0.0
  0
LINE
  5
1EA
330
1F
100
AcDbEntity
  8
0
  6
HIDDEN
 62
     7
370
     0
100
AcDbLine
 10
147.1233698972
 20
133.2025414455
 30
0.0
 11
146.8947916724
 21
133.8499317068
 31
0.0
  0
LINE
  5
1EB
330
1F
100
AcDbEntity
  8
0
  6
HIDDEN
 62
     7
370
     0
100
AcDbLine
 10
142.5748030156
 20
130.3383138153
 30
0.0
 11
145.026589787
 21
129.7511475283
 31
0.0
  0
LINE
  5
1EC
330
1F
100
AcDbEntity
  8
0
  6
HIDDEN
 62
     7
370
     0
100
AcDbLine
 10
146.191087129
 20
134.6136516082
 30
0.0
 11
143.7392998919
 21
135.2008169639
 31
0.0
  0
LINE
  5
1ED
330
1F
100
AcDbEntity
  8
0
  6
HIDDEN
 62
     7
370
     0
100
AcDbLine
 10
143.7392998919
 20
102.6293968904
 30
0.0
 11
146.191087129
 21
103.2165622461
 31
0.0
  0
LINE
  5
1EE
330
1F
100
AcDbEntity
  8
0
  6
HIDDEN
 62
     7
370
     0
100
AcDbLine
 10
145.026589787
 20
108.079066326
 30
0.0
 11
142.5748030156
 21
107.491900039
 31
0.0
  0
LINE
  5
1EF
330
1F
100
AcDbEntity
  8
0
  6
HIDDEN
 62
     7
370
     0
100
AcDbLine
 10
146.8947916724
 20
103.9802821475
 30
0.0
 11
147.1233698972
 21
104.6276724088
 31
0.0
  0
LINE
  5
1F0
330
1F
100
AcDbEntity
  8
0
  6
HIDDEN
 62
     7
370
     0
100
AcDbLine
 10
146.4969530203
 20
107.2433542582
 30
0.0
 11
145.9999108188
 21
107.7169699716
 31
0.0
  0
DIMENSION
  5
1F1
330
1F
100
AcDbEntity
  8
VERMASSUNG
100
AcDbDimension
  2
_D
 10
26.2258648761
 20
167.6401069271
 30
0.0
 11
26.2258648761
 21
118.9151069271
 31
0.0
 70
   160
  1
ISO 50 %%c<>
 71
     2
 42
-1.0
  3
SLDDIMSTYLE0
100
AcDbAlignedDimension
 13
156.2758648761
 23
70.1901069271
 33
0.0
 14
156.2758648761
 24
167.6401069271
 34
0.0
 50
90.0
100
AcDbRotatedDimension
  0
DIMENSION
  5
1FE
330
1F
100
AcDbEntity
  8
VERMASSUNG
100
AcDbDimension
  2
_D_1
 10
257.8258648761
 20
185.4954685891
 30
0.0
 11
147.0258648761
 21
185.4954685891
 31
0.0
 70
   160
  1
<>
 71
     2
 42
-1.0
  3
SLDDIMSTYLE0
100
AcDbAlignedDimension
 13
36.2258648761
 23
137.2939514545
 33
0.0
 14
257.8258648761
 24
143.4151069271
 34
0.0
100
AcDbRotatedDimension
  0
DIMENSION
  5
208
330
1F
100
AcDbEntity
  8
VERMASSUNG
100
AcDbDimension
  2
_D_2
 10
257.8258648761
 20
179.4954685891
 30
0.0
 11
197.8258648761
 21
179.4954685891
 31
0.0
 70
   160
  1
<>
 71
     2
 42
-1.0
  3
SLDDIMSTYLE0
100
AcDbAlignedDimension
 13
137.8258648761
 23
153.8401069271
 33
0.0
 14
257.8258648761
 24
143.4151069271
 34
0.0
100
AcDbRotatedDimension
  0
DIMENSION
  5
212
330
1F
100
AcDbEntity
  8
VERMASSUNG
100
AcDbDimension
  2
_D_3
 10
257.8258648761
 20
173.4954685891
 30
0.0
 11
207.3508648761
 21
173.4954685891
 31
0.0
 70
   160
  1
<>
 71
     2
 42
-1.0
  3
SLDDIMSTYLE0
100
AcDbAlignedDimension
 13
156.8758648761
 23
156.6641880418
 33
0.0
 14
257.8258648761
 24
143.4151069271
 34
0.0
100
AcDbRotatedDimension
  0
DIMENSION
  5
21C
330
1F
100
AcDbEntity
  8
VERMASSUNG
100
AcDbDimension
  2
_D_4
 10
267.8258648761
 20
104.9151069271
 30
0.0
 11
267.8258648761
 21
118.9151069271
 31
0.0
 70
   160
  1
%%c<>
 71
     2
 42
-1.0
  3
SLDDIMSTYLE0
100
AcDbAlignedDimension
 13
256.8258648761
 23
132.9151069271
 33
0.0
 14
256.8258648761
 24
104.9151069271
 34
0.0
 50
90.0
100
AcDbRotatedDimension
  0
DIMENSION
  5
227
330
1F
100
AcDbEntity
  8
VERMASSUNG
100
AcDbDimension
  2
_D_5
 10
273.8258648761
 20
93.9151069271
 30
0.0
 11
273.8258648761
 21
118.9151069271
 31
0.0
 70
   160
  1
WH %%c<>
 71
     2
 42
-1.0
  3
SLDDIMSTYLE0
100
AcDbAlignedDimension
 13
257.3258648761
 23
143.9151069271
 33
0.0
 14
257.3258648761
 24
93.9151069271
 34
0.0
 50
90.0
100
AcDbRotatedDimension
  0
LINE
  5
233
330
1F
100
AcDbEntity
  8
VERMASSUNG
  6
CENTERX2
370
     0
100
AcDbLine
 10
153.619843098
 20
130.2638830324
 30
0.0
 11
142.9465941851
 21
132.8199669296
 31
0.0
  0
LINE
  5
234
330
1F
100
AcDbEntity
  8
VERMASSUNG
  6
CENTERX2
370
     0
100
AcDbLine
 10
142.9465941851
 20
132.8199669296
 30
0.0
 11
140.801592539
 21
133.333662826
 31
0.0
  0
LINE
  5
235
330
1F
100
AcDbEntity
  8
VERMASSUNG
  6
CENTERX2
370
     0
100
AcDbLine
 10
243.7758648761
 20
129.789502188
 30
0.0
 11
243.7758648761
 21
144.1651069271
 31
0.0
  0
LINE
  5
236
330
1F
100
AcDbEntity
  8
VERMASSUNG
  6
CENTERX2
370
     0
100
AcDbLine
 10
32.0780200485
 20
118.9151069271
 30
0.0
 11
261.9737097037
 21
118.9151069271
 31
0.0
  0
LINE
  5
237
330
1F
100
AcDbEntity
  8
0
  6
Continuous
 62
     7
370
    15
100
AcDbLine
 10
264.7591947612
 20
13.8245702272
 30
0.0
 11
264.9359430837
 21
13.9266380369
 31
0.0
  0
LINE
  5
238
330
1F
100
AcDbEntity
  8
0
  6
Continuous
 62
     7
370
    15
100
AcDbLine
 10
273.5965930986
 20
28.9289495532
 30
0.0
 11
273.5965930986
 21
29.1330519948
 31
0.0
  0
LINE
  5
239
330
1F
100
AcDbEntity
  8
0
  6
Continuous
 62
     7
370
    15
100
AcDbLine
 10
271.0072500938
 20
34.8561120604
 30
0.0
 11
236.5534737442
 21
54.745853782
 31
0.0
  0
LINE
  5
23A
330
1F
100
AcDbEntity
  8
0
  6
Continuous
 62
     7
370
    15
100
AcDbLine
 10
224.0544899605
 20
33.0946321009
 30
0.0
 11
258.5082663102
 21
13.2048903793
 31
0.0
  0
SPLINE
  5
23B
330
1F
100
AcDbEntity
  8
0
  6
Continuous
 62
     7
370
    15
100
AcDbSpline
210
0.0
220
0.0
230
1.0
 70
     8
 71
     3
 72
    24
 73
    20
 74
     0
 42
0.000000001
 43
0.00000001
 40
0.0
 40
0.0
 40
0.0
 40
0.0
 40
0.0215163057919296
 40
0.087634325654084
 40
0.1534672241144449
 40
0.2169378921480333
 40
0.2788029494181445
 40
0.3400298388112514
 40
0.40112832942109
 40
0.4622645980577048
 40
0.5235293141237288
 40
0.5849239734255837
 40
0.6464139802517824
 40
0.7079515574722446
 40
0.769482514135327
 40
0.830937401529217
 40
0.8922624581101886
 40
0.953408350300508
 40
1.0
 40
1.0
 40
1.0
 40
1.0
 10
261.2045813091974
 20
18.02267767700653
 30
0.0
 10
261.1479640569541
 20
18.04567865488733
 30
0.0
 10
260.9173661667444
 20
18.13935994039519
 30
0.0
 10
260.5910366802557
 20
18.43722476120447
 30
0.0
 10
260.2319911064736
 20
18.92222004257609
 30
0.0
 10
259.9724300439845
 20
19.53910813446979
 30
0.0
 10
259.8137942054959
 20
20.25391219566683
 30
0.0
 10
259.7600232777354
 20
21.05405984251257
 30
0.0
 10
259.8124161976197
 20
21.92333985029952
 30
0.0
 10
259.9714202634084
 20
22.84362846602626
 30
0.0
 10
260.2348599503997
 20
23.79424592504314
 30
0.0
 10
260.597917704186
 20
24.75349909768525
 30
0.0
 10
261.0530115119491
 20
25.69904175293252
 30
0.0
 10
261.5899914806292
 20
26.60881352651376
 30
0.0
 10
262.1963398597724
 20
27.46130714873853
 30
0.0
 10
262.8575805888494
 20
28.23745274503743
 30
0.0
 10
263.5572239273299
 20
28.916733286908
 30
0.0
 10
264.2222703288605
 20
29.449162013719
 30
0.0
 10
264.647199305474
 20
29.71054652764825
 30
0.0
 10
264.8309620095255
 20
29.82358359435912
 30
0.0
  0
SPLINE
  5
23C
330
1F
100
AcDbEntity
  8
0
  6
Continuous
 62
     7
370
    15
100
AcDbSpline
210
0.0
220
0.0
230
1.0
 70
     8
 71
     3
 72
    13
 73
     9
 74
     0
 42
0.000000001
 43
0.00000001
 40
0.0
 40
0.0
 40
0.0
 40
0.0
 40
0.0970872216280035
 40
0.2824264106114962
 40
0.4677051710704361
 40
0.6538945107235323
 40
0.843264811023006
 40
1.0
 40
1.0
 40
1.0
 40
1.0
 10
264.8309620095255
 20
29.82358359435912
 30
0.0
 10
264.9556773574624
 20
29.89227000546403
 30
0.0
 10
265.3184738972678
 20
30.092078551026
 30
0.0
 10
265.906084076135
 20
30.32479120094497
 30
0.0
 10
266.5671020463762
 20
30.47542449311464
 30
0.0
 10
267.1730578388926
 20
30.48968788095016
 30
0.0
 10
267.6888035153101
 20
30.3976506978191
 30
0.0
 10
267.9675268506926
 20
30.24353506620102
 30
0.0
 10
268.0937477746508
 20
30.17374321546653
 30
0.0
  0
SPLINE
  5
23D
330
1F
100
AcDbEntity
  8
0
  6
Continuous
 62
     7
370
    15
100
AcDbSpline
210
0.0
220
0.0
230
1.0
 70
     8
 71
     3
 72
    10
 73
     6
 74
     0
 42
0.000000001
 43
0.00000001
 40
0.0
 40
0.0
 40
0.0
 40
0.0
 40
0.134195124446517
 40
0.6045542330645128
 40
1.0
 40
1.0
 40
1.0
 40
1.0
 10
208.3006893765925
 20
47.57233503496276
 30
0.0
 10
208.2396575168436
 20
47.40192387114666
 30
0.0
 10
207.9647066248855
 20
46.6342149780599
 30
0.0
 10
207.5973009358564
 20
45.36406804305818
 30
0.0
 10
207.3455657545962
 20
44.27843792809139
 30
0.0
 10
207.230588795435
 20
43.78258967689408
 30
0.0
  0
SPLINE
  5
23E
330
1F
100
AcDbEntity
  8
0
  6
Continuous
 62
     7
370
    15
100
AcDbSpline
210
0.0
220
0.0
230
1.0
 70
     8
 71
     3
 72
    19
 73
    15
 74
     0
 42
0.000000001
 43
0.00000001
 40
0.0
 40
0.0
 40
0.0
 40
0.0
 40
0.0322518670420541
 40
0.1267981326814274
 40
0.2214319228444567
 40
0.3161097108905252
 40
0.4107995680169471
 40
0.5054797862936263
 40
0.6001421720025398
 40
0.6947836094698621
 40
0.7894041357995022
 40
0.884005857290241
 40
0.9785918871585876
 40
1.0
 40
1.0
 40
1.0
 40
1.0
 10
228.2314181500904
 20
69.45474014837013
 30
0.0
 10
228.0785422884647
 20
69.41857598323787
 30
0.0
 10
227.4775112299859
 20
69.27639666063382
 30
0.0
 10
226.4018859672843
 20
68.88268522856187
 30
0.0
 10
225.014898175477
 20
68.27653204550441
 30
0.0
 10
223.6188303790041
 20
67.52623691284718
 30
0.0
 10
222.2252507314769
 20
66.64936002470792
 30
0.0
 10
220.8426285811368
 20
65.64846332124485
 30
0.0
 10
219.4799131607292
 20
64.53126226747956
 30
0.0
 10
218.146261703267
 20
63.30435202858335
 30
0.0
 10
216.8483833173069
 20
61.97781659181828
 30
0.0
 10
215.60133299248
 20
60.55287377354514
 30
0.0
 10
214.7007005513657
 20
59.44967005829316
 30
0.0
 10
214.2385956160234
 20
58.80313954353026
 30
0.0
 10
214.1533085974785
 20
58.68381456821583
 30
0.0
  0
LINE
  5
23F
330
1F
100
AcDbEntity
  8
0
  6
Continuous
 62
     7
370
    15
100
AcDbLine
 10
222.4904724373
 20
66.7945082789
 30
0.0
 11
191.7291893882
 21
77.8796552849
 31
0.0
  0
LINE
  5
240
330
1F
100
AcDbEntity
  8
0
  6
Continuous
 62
     7
370
    15
100
AcDbLine
 10
181.6053300078
 20
60.3427168845
 30
0.0
 11
211.0728411263
 21
35.4605944463
 31
0.0
  0
SPLINE
  5
241
330
1F
100
AcDbEntity
  8
0
  6
Continuous
 62
     7
370
    15
100
AcDbSpline
210
0.0
220
0.0
230
1.0
 70
     8
 71
     3
 72
    14
 73
    10
 74
     0
 42
0.000000001
 43
0.00000001
 40
0.0
 40
0.0
 40
0.0
 40
0.0
 40
0.0718682301769682
 40
0.2310719587163526
 40
0.3904124157253073
 40
0.5498192464565831
 40
0.7092401407880957
 40
0.8686424675518253
 40
1.0
 40
1.0
 40
1.0
 40
1.0
 10
224.6750048402852
 20
22.85315775022591
 30
0.0
 10
224.8777974549077
 20
22.90326001705579
 30
0.0
 10
225.529819726204
 20
23.06434967940034
 30
0.0
 10
226.6573500457174
 20
23.48711493728274
 30
0.0
 10
228.0460129183599
 20
24.11219617655225
 30
0.0
 10
229.4424260693808
 20
24.87826727236636
 30
0.0
 10
230.8344916063492
 20
25.77384082022447
 30
0.0
 10
232.1363609961556
 20
26.7216584141543
 30
0.0
 10
232.9595777951704
 20
27.42251021067137
 30
0.0
 10
233.3314851405707
 20
27.73913631873141
 30
0.0
  0
LINE
  5
242
330
1F
100
AcDbEntity
  8
0
  6
Continuous
 62
     7
370
    15
100
AcDbLine
 10
215.3954070924
 20
24.3961502475
 30
0.0
 11
216.8509290786
 21
23.5558952902
 31
0.0
  0
LINE
  5
243
330
1F
100
AcDbEntity
  8
0
  6
Continuous
 62
     7
370
    15
100
AcDbLine
 10
211.671372144
 20
26.5459898626
 30
0.0
 11
213.1092168201
 21
25.7159397992
 31
0.0
  0
LINE
  5
244
330
1F
100
AcDbEntity
  8
0
  6
Continuous
 62
     7
370
    15
100
AcDbLine
 10
207.239489683
 20
32.6115706186
 30
0.0
 11
207.2838508874
 21
32.4657047931
 31
0.0
  0
LINE
  5
245
330
1F
100
AcDbEntity
  8
0
  6
Continuous
 62
     7
370
    15
100
AcDbLine
 10
245.65840672
 20
59.6429682083
 30
0.0
 11
245.6068137091
 21
59.8088232499
 31
0.0
  0
SPLINE
  5
246
330
1F
100
AcDbEntity
  8
0
  6
Continuous
 62
     7
370
    15
100
AcDbSpline
210
0.0
220
0.0
230
1.0
 70
     8
 71
     3
 72
    26
 73
    22
 74
     0
 42
0.000000001
 43
0.00000001
 40
0.0
 40
0.0
 40
0.0
 40
0.0
 40
0.0206098635346963
 40
0.0728944510643923
 40
0.1258585040611578
 40
0.1800156137396773
 40
0.2354401611125397
 40
0.2918299514627566
 40
0.3487416667418533
 40
0.4057939356565405
 40
0.4627674603426434
 40
0.5196158025351038
 40
0.5763503990457023
 40
0.6330092550266897
 40
0.6896415235028057
 40
0.7462991724022513
 40
0.8030217144057956
 40
0.8598660589598679
 40
0.9168873020481363
 40
0.9741306256673679
 40
1.0
 40
1.0
 40
1.0
 40
1.0
 10
191.7805255668087
 20
77.84085570677793
 30
0.0
 10
191.6836534381155
 20
77.88245752959737
 30
0.0
 10
191.3410291100773
 20
78.02959785551924
 30
0.0
 10
190.6889237090347
 20
78.13244242909649
 30
0.0
 10
189.8433805295579
 20
78.15086485723207
 30
0.0
 10
188.9564723687196
 20
78.01589064360815
 30
0.0
 10
188.042202208901
 20
77.73856207211892
 30
0.0
 10
187.1123025455451
 20
77.31733414587544
 30
0.0
 10
186.1834411559035
 20
76.7594173709792
 30
0.0
 10
185.2722572593832
 20
76.07515221077486
 30
0.0
 10
184.393940468781
 20
75.277660872476
 30
0.0
 10
183.5616994072737
 20
74.38095374786259
 30
0.0
 10
182.7872469893022
 20
73.39951121074223
 30
0.0
 10
182.0814275341492
 20
72.34843284729594
 30
0.0
 10
181.4543008368626
 20
71.24342109472835
 30
0.0
 10
180.915075244367
 20
70.10072865068493
 30
0.0
 10
180.4721600607064
 20
68.9369690443335
 30
0.0
 10
180.1323462849466
 20
67.76843159249918
 30
0.0
 10
179.9038048431819
 20
66.61231560486661
 30
0.0
 10
179.8068852893188
 20
65.68925709901653
 30
0.0
 10
179.7988199510944
 20
65.16215808128551
 30
0.0
 10
179.7963095614814
 20
64.9980950423508
 30
0.0
  0
SPLINE
  5
247
330
1F
100
AcDbEntity
  8
0
  6
Continuous
 62
     7
370
    15
100
AcDbSpline
210
0.0
220
0.0
230
1.0
 70
     8
 71
     3
 72
    13
 73
     9
 74
     0
 42
0.000000001
 43
0.00000001
 40
0.0
 40
0.0
 40
0.0
 40
0.0
 40
0.1013708038922181
 40
0.2925452651573772
 40
0.4837075735181394
 40
0.673017314708729
 40
0.8585816591153959
 40
1.0
 40
1.0
 40
1.0
 40
1.0
 10
179.7963095614814
 20
64.9980950423508
 30
0.0
 10
179.7997654692401
 20
64.80732886471736
 30
0.0
 10
179.8097388482881
 20
64.25679814111602
 30
0.0
 10
179.9215900581522
 20
63.39290562451488
 30
0.0
 10
180.1732112102599
 20
62.44407710170603
 30
0.0
 10
180.5550885918469
 20
61.59871573663369
 30
0.0
 10
181.0069418337523
 20
60.90865781258615
 30
0.0
 10
181.3796230813245
 20
60.56557347952603
 30
0.0
 10
181.5408058169288
 20
60.41719125824221
 30
0.0
  0
LINE
  5
248
330
1F
100
AcDbEntity
  8
0
  6
Continuous
 62
     7
370
    15
100
AcDbLine
 10
261.9119700633
 20
37.3290952596
 30
0.0
 11
261.841248804
 21
37.3699348535
 31
0.0
  0
LINE
  5
249
330
1F
100
AcDbEntity
  8
0
  6
Continuous
 62
     7
370
    15
100
AcDbLine
 10
258.0929727435
 20
37.3699355626
 30
0.0
 11
258.0222520119
 21
37.3290945626
 31
0.0
  0
LINE
  5
24A
330
1F
100
AcDbEntity
  8
0
  6
Continuous
 62
     7
370
    15
100
AcDbLine
 10
263.8055150265
 20
26.8523900203
 30
0.0
 11
266.3386515868
 21
27.3684964362
 31
0.0
  0
LWPOLYLINE
  5
24B
330
1F
100
AcDbEntity
  8
0
  6
Continuous
 62
     7
370
    15
100
AcDbPolyline
 90
       53
 70
   128
 43
0.0
 10
264.9345352556
 20
33.9310746831
 10
263.8904395269
 20
33.2554011365
 10
262.861569018
 20
32.443718704
 10
261.862927266
 20
31.5078651967
 10
260.9090762541
 20
30.4614866579
 10
260.0139255948
 20
29.3198411358
 10
259.1905282987
 20
28.0995773602
 10
258.450891937
 20
26.8184896066
 10
257.8058014934
 20
25.4952580139
 10
257.2646636174
 20
24.1491788258
 10
256.8353703064
 20
22.7998811303
 10
256.5241810261
 20
21.4670407469
 10
256.335633148
 20
20.1700926852
 10
256.2724774126
 20
18.9279504449
 10
256.335633148
 20
17.7587262646
 10
256.5241810261
 20
16.6794709493
 10
256.8353703064
 20
15.7059220612
 10
257.2646636174
 20
14.8522758723
 10
257.8058014934
 20
14.1309811769
 10
258.450891937
 20
13.5525551569
 10
259.1905282987
 20
13.1254333692
 10
260.0139255948
 20
12.855843876
 10
260.9090762541
 20
12.7477173061
 10
261.862927266
 20
12.802631704
 10
262.861569018
 20
13.0197854211
 10
263.8904395269
 20
13.3960115928
 10
264.9345352556
 20
13.9258253151
 10
265.9786309842
 20
14.6014988616
 10
267.0075014932
 20
15.4131812942
 10
268.0061432451
 20
16.3490348014
 10
268.959994257
 20
17.3954133402
 10
269.8551449164
 20
18.5370588623
 10
270.6785422125
 20
19.7573226379
 10
271.4181785741
 20
21.0384103915
 10
272.0632690178
 20
22.3616419842
 10
272.6044068938
 20
23.7077211723
 10
273.0337002047
 20
25.0570188678
 10
273.3448894851
 20
26.3898592512
 10
273.5334373632
 20
27.6868073129
 10
273.5965930986
 20
28.9289495532
 10
273.5334373632
 20
30.0981737335
 10
273.3448894851
 20
31.1774290489
 10
273.0337002047
 20
32.1509779369
 10
272.6044068938
 20
33.0046241258
 10
272.0632690178
 20
33.7259188212
 10
271.4181785741
 20
34.3043448412
 10
270.6785422125
 20
34.731466629
 10
269.8551449164
 20
35.0010561221
 10
268.959994257
 20
35.109182692
 10
268.0061432451
 20
35.0542682941
 10
267.0075014932
 20
34.837114577
 10
265.9786309842
 20
34.4608884053
 10
264.9345352556
 20
33.9310746831
  0
LWPOLYLINE
  5
24C
330
1F
100
AcDbEntity
  8
0
  6
Continuous
 62
     7
370
    15
100
AcDbPolyline
 90
       28
 70
   128
 43
0.0
 10
264.757758202
 20
34.2372615205
 10
263.7123611894
 20
33.5621265037
 10
262.6816391826
 20
32.7531881852
 10
261.6800616392
 20
31.8218026729
 10
260.7216877437
 20
30.7810436188
 10
259.8199717248
 20
29.6455229105
 10
258.9875714667
 20
28.4311790427
 10
258.2361715246
 20
27.1550585957
 10
257.5763211228
 20
25.8350774658
 10
257.0172820315
 20
24.4897638423
 10
256.5669021254
 20
23.1380027047
 10
256.2315034318
 20
21.7987700506
 10
256.0157952026
 20
20.4908664574
 10
255.9228054254
 20
19.2326518053
 10
255.9538380182
 20
18.0417878416
 10
256.1084590003
 20
16.9349926943
 10
256.3844971505
 20
15.9278030857
 10
256.7780775927
 20
15.0343572398
 10
257.2836751388
 20
14.2671977995
 10
257.8941919958
 20
13.6370932051
 10
258.6010585241
 20
13.1528899651
 10
259.3943521044
 20
12.8213839366
 10
260.2629357612
 20
12.6472296272
 10
261.1946168722
 20
12.632871358
 10
262.1763167436
 20
12.7785111186
 10
263.1942543435
 20
13.0821043666
 10
264.2341400795
 20
13.5393882425
 10
264.7591947612
 20
13.8245702272
  0
LWPOLYLINE
  5
24D
330
1F
100
AcDbEntity
  8
0
  6
Continuous
 62
     7
370
    15
100
AcDbPolyline
 90
       15
 70
   128
 43
0.0
 10
273.5965930986
 20
29.1330519948
 10
273.5927109787
 20
29.433271155
 10
273.4997212014
 20
30.5841220955
 10
273.2840129722
 20
31.6429742685
 10
272.9486142787
 20
32.5949638337
 10
272.4982343726
 20
33.4267274002
 10
271.9391952812
 20
34.1265882276
 10
271.2793448795
 20
34.6847223001
 10
270.5279449373
 20
35.0932948401
 10
269.6955446792
 20
35.3465698269
 10
268.7938286604
 20
35.4409913803
 10
267.8354547648
 20
35.3752354874
 10
266.8338772214
 20
35.1502241827
 10
265.8031552146
 20
34.769116203
 10
264.757758202
 20
34.2372615205
  0
SPLINE
  5
24E
330
1F
100
AcDbEntity
  8
0
  6
Continuous
 62
     7
370
    15
100
AcDbSpline
210
0.0
220
0.0
230
1.0
 70
    11
 71
     3
 72
    95
 73
    91
 74
     0
 42
0.000000001
 43
0.00000001
 40
0.0
 40
0.0
 40
0.0
 40
0.0
 40
0.0312499999999996
 40
0.0312499999999996
 40
0.0468749999999994
 40
0.0468749999999994
 40
0.0624999999999992
 40
0.0624999999999992
 40
0.0937499999999979
 40
0.0937499999999979
 40
0.1093749999999968
 40
0.1093749999999968
 40
0.1249999999999957
 40
0.1249999999999957
 40
0.1562499999999944
 40
0.1562499999999944
 40
0.1718749999999938
 40
0.1718749999999938
 40
0.1874999999999931
 40
0.1874999999999931
 40
0.2187499999999927
 40
0.2187499999999927
 40
0.2343749999999929
 40
0.2343749999999929
 40
0.2499999999999931
 40
0.2499999999999931
 40
0.2812499999999936
 40
0.2812499999999936
 40
0.296874999999994
 40
0.296874999999994
 40
0.3124999999999944
 40
0.3124999999999944
 40
0.3437499999999954
 40
0.3437499999999954
 40
0.3593749999999958
 40
0.3593749999999958
 40
0.3749999999999963
 40
0.3906249999999968
 40
0.3906249999999968
 40
0.4062499999999972
 40
0.4062499999999972
 40
0.4374999999999982
 40
0.4374999999999982
 40
0.4531249999999984
 40
0.4531249999999984
 40
0.4687499999999987
 40
0.4687499999999987
 40
0.4999999999999991
 40
0.4999999999999991
 40
0.5312499999999996
 40
0.5312499999999996
 40
0.5468749999999993
 40
0.5468749999999993
 40
0.5624999999999992
 40
0.5624999999999992
 40
0.5937499999999989
 40
0.5937499999999989
 40
0.6249999999999986
 40
0.6249999999999986
 40
0.6562499999999983
 40
0.6562499999999983
 40
0.687499999999998
 40
0.687499999999998
 40
0.7187499999999977
 40
0.7187499999999977
 40
0.7499999999999973
 40
0.7499999999999973
 40
0.7656249999999977
 40
0.7656249999999977
 40
0.7812499999999979
 40
0.7812499999999979
 40
0.8124999999999982
 40
0.8124999999999982
 40
0.8281249999999984
 40
0.8281249999999984
 40
0.8437499999999987
 40
0.8437499999999987
 40
0.874999999999999
 40
0.874999999999999
 40
0.8906249999999991
 40
0.8906249999999991
 40
0.9062499999999992
 40
0.9062499999999992
 40
0.9218749999999993
 40
0.9218749999999993
 40
0.9374999999999994
 40
0.9374999999999994
 40
0.9687499999999998
 40
0.9687499999999998
 40
1.0
 40
1.0
 40
1.0
 40
1.0
 10
259.9343046259476
 20
38.77710979543654
 30
0.0
 10
260.1575828613375
 20
38.74048115354612
 30
0.0
 10
260.3750270030644
 20
38.69292077321121
 30
0.0
 10
260.6934771929579
 20
38.60836353088909
 30
0.0
 10
260.7983288816958
 20
38.57794875631382
 30
0.0
 10
261.0054794153291
 20
38.51292714938916
 30
0.0
 10
261.1082352544616
 20
38.47814954885531
 30
0.0
 10
261.4090116612738
 20
38.36904578300032
 30
0.0
 10
261.5987373723759
 20
38.29044437873678
 30
0.0
 10
261.8679073613581
 20
38.16499916432912
 30
0.0
 10
261.9550430583203
 20
38.1219111602941
 30
0.0
 10
262.1240614016851
 20
38.03322021898553
 30
0.0
 10
262.2062066212852
 20
37.98744183894076
 30
0.0
 10
262.4403350694421
 20
37.84875240094058
 30
0.0
 10
262.5814150267371
 20
37.75391633630056
 30
0.0
 10
262.7708305688415
 20
37.60773974556957
 30
0.0
 10
262.8302457918441
 20
37.55835017746535
 30
0.0
 10
262.9413928402656
 20
37.45804954248209
 30
0.0
 10
262.9931936472318
 20
37.4070132410391
 30
0.0
 10
263.1338277445311
 20
37.25425706175743
 30
0.0
 10
263.2091567251254
 20
37.15198243946727
 30
0.0
 10
263.2939872299135
 20
36.99630584393873
 30
0.0
 10
263.3175392921566
 20
36.94403071694256
 30
0.0
 10
263.3546748078668
 20
36.83835417316425
 30
0.0
 10
263.3681913431951
 20
36.78490559854743
 30
0.0
 10
263.3923400457717
 20
36.62594474042188
 30
0.0
 10
263.3872614823426
 20
36.52061860611919
 30
0.0
 10
263.3458884170394
 20
36.36162682258366
 30
0.0
 10
263.3264303773889
 20
36.30846286874758
 30
0.0
 10
263.2752263173669
 20
36.20144936198208
 30
0.0
 10
263.2436291958009
 20
36.14806840252523
 30
0.0
 10
263.1323605353596
 20
35.99073427272658
 30
0.0
 10
263.035886116122
 20
35.8884002319594
 30
0.0
 10
262.855182724104
 20
35.73780460142205
 30
0.0
 10
262.7883275317805
 20
35.68775230510725
 30
0.0
 10
262.6455717288225
 20
35.59126558974922
 30
0.0
 10
262.4934868194758
 20
35.49798800786413
 30
0.0
 10
262.3231124977509
 20
35.41095445922124
 30
0.0
 10
262.1434818695009
 20
35.32713019952364
 30
0.0
 10
262.0484859640317
 20
35.28664323543994
 30
0.0
 10
261.7568682104243
 20
35.17325231407661
 30
0.0
 10
261.5519518936828
 20
35.1073403506097
 30
0.0
 10
261.2296057309501
 20
35.02337233829113
 30
0.0
 10
261.119964143462
 20
34.99801761366559
 30
0.0
 10
260.9005659780609
 20
34.95349469461134
 30
0.0
 10
260.7902272069408
 20
34.9341695320059
 30
0.0
 10
260.4573195934942
 20
34.88502699268776
 30
0.0
 10
260.2308728949697
 20
34.86399923237173
 30
0.0
 10
259.7875513535178
 20
34.84791669194836
 30
0.0
 10
259.5695700221263
 20
34.8524819249868
 30
0.0
 10
259.2476324822011
 20
34.87913923759921
 30
0.0
 10
259.1409413561099
 20
34.89141361312368
 30
0.0
 10
258.9329747901696
 20
34.92233893031784
 30
0.0
 10
258.8312316470277
 20
34.94101194330397
 30
0.0
 10
258.5324809376394
 20
35.00668032146267
 30
0.0
 10
258.3418954252854
 20
35.06326264744408
 30
0.0
 10
257.9780556648703
 20
35.20367072690647
 30
0.0
 10
257.8091017890114
 20
35.28592601511192
 30
0.0
 10
257.4984183960256
 20
35.47271799195718
 30
0.0
 10
257.3561515616349
 20
35.57751445458135
 30
0.0
 10
257.0997546569021
 20
35.80996049443625
 30
0.0
 10
256.9891481037196
 20
35.934364997222
 30
0.0
 10
256.8023156665792
 20
36.19792372319007
 30
0.0
 10
256.7259012010309
 20
36.33749772341463
 30
0.0
 10
256.6112021967568
 20
36.62903887940304
 30
0.0
 10
256.5743028588571
 20
36.7771666716153
 30
0.0
 10
256.5500717627662
 20
37.00130340607227
 30
0.0
 10
256.5472180439402
 20
37.07634228074902
 30
0.0
 10
256.5525375673814
 20
37.22682109080663
 30
0.0
 10
256.5607994588239
 20
37.30269818938648
 30
0.0
 10
256.6029760343973
 20
37.5272862980004
 30
0.0
 10
256.6534988517116
 20
37.67138535449803
 30
0.0
 10
256.7642972522705
 20
37.87719492870905
 30
0.0
 10
256.8071093157258
 20
37.94406678068864
 30
0.0
 10
256.9053506521141
 20
38.07388942373719
 30
0.0
 10
256.9609898959866
 20
38.13688564296769
 30
0.0
 10
257.1424378623547
 20
38.31371867023319
 30
0.0
 10
257.2839860907389
 20
38.41755894336725
 30
0.0
 10
257.5281017046655
 20
38.55126566961439
 30
0.0
 10
257.6152584626767
 20
38.59223601547244
 30
0.0
 10
257.7954410020305
 20
38.66446639598282
 30
0.0
 10
257.8889706155925
 20
38.69605944591838
 30
0.0
 10
258.0826773142371
 20
38.75063205319847
 30
0.0
 10
258.1828549454859
 20
38.77361065860508
 30
0.0
 10
258.3898541619162
 20
38.8111592269796
 30
0.0
 10
258.4961609003504
 20
38.82558093435666
 30
0.0
 10
258.8173954456765
 20
38.85606957449797
 30
0.0
 10
259.036828165018
 20
38.85990638498928
 30
0.0
 10
259.485952872899
 20
38.83867409204796
 30
0.0
 10
259.7110263905575
 20
38.81373843732697
 30
0.0
 10
259.9343046259476
 20
38.77710979543654
 30
0.0
  0
LINE
  5
24F
330
1F
100
AcDbEntity
  8
0
  6
Continuous
 62
     7
370
    15
100
AcDbLine
 10
261.0812681915
 20
18.0702086819
 30
0.0
 11
261.2155263189
 21
17.9984334824
 31
0.0
  0
SPLINE
  5
250
330
1F
100
AcDbEntity
  8
0
  6
Continuous
 62
     7
370
    15
100
AcDbSpline
210
0.0
220
0.0
230
1.0
 70
     8
 71
     3
 72
    15
 73
    11
 74
     0
 42
0.000000001
 43
0.00000001
 40
0.0
 40
0.0
 40
0.0
 40
0.0
 40
0.0876273829421531
 40
0.2439670221011658
 40
0.3929131237773493
 40
0.5338411531967495
 40
0.676950968800004
 40
0.8291726386934002
 40
0.9852849728679108
 40
0.9999999999999999
 40
0.9999999999999999
 40
0.9999999999999999
 40
0.9999999999999999
 10
266.0641633211583
 20
30.3410371755302
 30
0.0
 10
266.1810322055593
 20
30.20465951797678
 30
0.0
 10
266.5064117016285
 20
29.82496483947195
 30
0.0
 10
266.8170502058325
 20
29.12637204090324
 30
0.0
 10
266.903277488809
 20
28.35091475441338
 30
0.0
 10
266.6921618038755
 20
27.69163408526801
 30
0.0
 10
266.2417250572627
 20
27.19031888256216
 30
0.0
 10
265.6103420211171
 20
26.94446396582148
 30
0.0
 10
265.0822504178337
 20
26.90295768241001
 30
0.0
 10
264.8346131495822
 20
27.04543986838638
 30
0.0
 10
264.8132817358475
 20
27.05771324904651
 30
0.0
  0
LWPOLYLINE
  5
251
330
1F
100
AcDbEntity
  8
0
  6
Continuous
 62
     7
370
    15
100
AcDbPolyline
 90
       20
 70
   128
 43
0.0
 10
262.1073370875
 20
35.2914922872
 10
262.3486801083
 20
35.4945999912
 10
262.6234068906
 20
35.8774843162
 10
262.7171117648
 20
36.288369728
 10
262.6234070552
 20
36.6992560903
 10
262.3486813843
 20
37.0821405341
 10
261.911653962
 20
37.4109316836
 10
261.3421119089
 20
37.6632207236
 10
260.6788647346
 20
37.8218164776
 10
259.967111559
 20
37.8759110551
 10
259.2553573957
 20
37.8218179033
 10
258.5921104271
 20
37.6632215077
 10
258.0225680036
 20
37.4109309232
 10
257.5855405402
 20
37.0821410806
 10
257.3108137579
 20
36.6992567556
 10
257.2171115178
 20
36.2883698231
 10
257.3108162275
 20
35.8774834608
 10
257.5855418984
 20
35.494599017
 10
258.0225666865
 20
35.1658093882
 10
258.0225666865
 20
35.1658093882
  0
SPLINE
  5
252
330
1F
100
AcDbEntity
  8
0
  6
Continuous
 62
     7
370
    15
100
AcDbSpline
210
0.0
220
0.0
230
1.0
 70
     8
 71
     3
 72
    12
 73
     8
 74
     0
 42
0.000000001
 43
0.00000001
 40
0.0
 40
0.0
 40
0.0
 40
0.0
 40
0.2499999999999992
 40
0.2499999999999992
 40
0.4999999999999984
 40
0.4999999999999984
 40
1.0
 40
1.0
 40
1.0
 40
1.0
 10
212.5099013090749
 20
40.7525216580154
 30
0.0
 10
212.5438328013644
 20
40.73293342446392
 30
0.0
 10
212.5822645103917
 20
40.70574623552751
 30
0.0
 10
212.6564413630567
 20
40.64652230799168
 30
0.0
 10
212.6916576433121
 20
40.61508962897492
 30
0.0
 10
212.7867565605701
 20
40.52309691217294
 30
0.0
 10
212.835285717332
 20
40.46624024664829
 30
0.0
 10
212.868627313487
 20
40.41801144064596
 30
0.0
  0
ARC
  5
253
330
1F
100
AcDbEntity
  8
0
  6
Continuous
 62
     7
370
    15
100
AcDbCircle
 10
236.5851940694
 20
56.023040563
 30
0.0
 40
10.86942928536214
100
AcDbArc
 50
73.9805689162
 51
106.2233053919
  0
SPLINE
  5
254
330
1F
100
AcDbEntity
  8
0
  6
Continuous
 62
     7
370
    15
100
AcDbSpline
210
0.0
220
0.0
230
1.0
 70
     8
 71
     3
 72
    12
 73
     8
 74
     0
 42
0.000000001
 43
0.00000001
 40
0.0
 40
0.0
 40
0.0
 40
0.0
 40
0.5
 40
0.5
 40
0.75
 40
0.75
 40
1.0
 40
1.0
 40
1.0
 40
1.0
 10
239.7968901326854
 20
66.03682737885725
 30
0.0
 10
239.7968901326854
 20
66.10951037605007
 30
0.0
 10
239.7798733646152
 20
66.19309322279035
 30
0.0
 10
239.7254625387337
 20
66.31453740066604
 30
0.0
 10
239.7023173198118
 20
66.35425227834739
 30
0.0
 10
239.6480365079546
 20
66.4229820502132
 30
0.0
 10
239.6168005393971
 20
66.45189164611885
 30
0.0
 10
239.5847580983294
 20
66.47038935361245
 30
0.0
  0
LWPOLYLINE
  5
255
330
1F
100
AcDbEntity
  8
0
  6
Continuous
 62
     7
370
    15
100
AcDbPolyline
 90
       17
 70
   128
 43
0.0
 10
212.9488032805
 20
40.7819781405
 10
213.3227538281
 20
42.2739837917
 10
213.892979615
 20
44.1464256673
 10
214.5751500657
 20
46.0216844398
 10
215.3642865838
 20
47.8860821303
 10
216.2546374415
 20
49.7260252439
 10
217.2397080729
 20
51.5280945015
 10
218.312315733
 20
53.2791493978
 10
219.4646375716
 20
54.9664190731
 10
220.6882705608
 20
56.5776000261
 10
221.9742914225
 20
58.1009416611
 10
223.3133218244
 20
59.525335636
 10
224.6955968685
 20
60.840394944
 10
226.1110365433
 20
62.0365286223
 10
227.5493181636
 20
63.1050139894
 10
228.9999532969
 20
64.038059305
 10
229.4418127689
 20
64.2938115978
  0
LWPOLYLINE
  5
256
330
1F
100
AcDbEntity
  8
0
  6
Continuous
 62
     7
370
    15
100
AcDbPolyline
 90
       12
 70
   128
 43
0.0
 10
222.5208622907
 20
61.5945161811
 10
223.9712193124
 20
62.8671194917
 10
225.448851272
 20
64.0082685289
 10
226.9425770304
 20
65.0093275508
 10
228.4410935354
 20
65.8627220055
 10
229.933061268
 20
66.5619954626
 10
231.4071904294
 20
67.1018532843
 10
232.8523258517
 20
67.4782131643
 10
234.2575324033
 20
67.6882255335
 10
235.6121768955
 20
67.7303010716
 10
236.9060080951
 20
67.6041234374
 10
238.1292360794
 20
67.3106448885
  0
LINE
  5
257
330
1F
100
AcDbEntity
  8
0
  6
Continuous
 62
     7
370
    15
100
AcDbLine
 10
239.5847580657
 20
66.4703899312
 30
0.0
 11
238.1292360794
 21
67.3106448885
 31
0.0
  0
LINE
  5
258
330
1F
100
AcDbEntity
  8
0
  6
Continuous
 62
     7
370
    15
100
AcDbLine
 10
211.0543791603
 20
41.5927768005
 30
0.0
 11
212.5099011466
 21
40.7525218431
 31
0.0
  0
ARC
  5
259
330
1F
100
AcDbEntity
  8
0
  6
Continuous
 62
     7
370
    15
100
AcDbCircle
 10
250.387103032
 20
32.3616759356
 30
0.0
 40
40.40144044883839
100
AcDbArc
 50
136.9528122493
 51
166.7921386576
  0
SPLINE
  5
25A
330
1F
100
AcDbEntity
  8
0
  6
Continuous
 62
     7
370
    15
100
AcDbSpline
210
0.0
220
0.0
230
1.0
 70
     8
 71
     3
 72
    34
 73
    30
 74
     0
 42
0.000000001
 43
0.00000001
 40
0.0
 40
0.0
 40
0.0
 40
0.0
 40
0.0624999999999989
 40
0.0624999999999989
 40
0.1249999999999978
 40
0.1249999999999978
 40
0.1874999999999968
 40
0.1874999999999968
 40
0.2499999999999962
 40
0.2499999999999962
 40
0.3124999999999957
 40
0.3124999999999957
 40
0.3749999999999952
 40
0.3749999999999952
 40
0.499999999999995
 40
0.499999999999995
 40
0.6249999999999948
 40
0.6249999999999948
 40
0.6874999999999954
 40
0.6874999999999954
 40
0.749999999999996
 40
0.749999999999996
 40
0.8124999999999966
 40
0.8124999999999966
 40
0.8749999999999977
 40
0.8749999999999977
 40
0.9374999999999989
 40
0.9374999999999989
 40
1.0
 40
1.0
 40
1.0
 40
1.0
 10
220.8620629236071
 20
59.93971854904771
 30
0.0
 10
220.9211883372504
 20
59.91014106518948
 30
0.0
 10
220.9840010326809
 20
59.88646504299395
 30
0.0
 10
221.1167100356055
 20
59.85038553257422
 30
0.0
 10
221.1873217319767
 20
59.83793764243497
 30
0.0
 10
221.332569701954
 20
59.82522774870958
 30
0.0
 10
221.4065521317162
 20
59.82488556881225
 30
0.0
 10
221.557234196541
 20
59.83589191363487
 30
0.0
 10
221.6346822163412
 20
59.84747857762035
 30
0.0
 10
221.7866148023162
 20
59.88165312035915
 30
0.0
 10
221.8615708829008
 20
59.90416552274914
 30
0.0
 10
222.0095059498094
 20
59.9599775953472
 30
0.0
 10
222.0824346628998
 20
59.99342244155349
 30
0.0
 10
222.2890471889098
 20
60.10578470087281
 30
0.0
 10
222.4159723649591
 20
60.19982210189355
 30
0.0
 10
222.625079117586
 20
60.40842341706945
 30
0.0
 10
222.7096275007839
 20
60.52534751121316
 30
0.0
 10
222.7946010575579
 20
60.70387276118581
 30
0.0
 10
222.8165607581558
 20
60.7650893401125
 30
0.0
 10
222.8456718548956
 20
60.88589532262634
 30
0.0
 10
222.8530263176754
 20
60.9454958490715
 30
0.0
 10
222.8533692527197
 20
61.06323713920476
 30
0.0
 10
222.8461292098844
 20
61.12168852734186
 30
0.0
 10
222.8175173593624
 20
61.23245115173332
 30
0.0
 10
222.7962340178029
 20
61.28536359645595
 30
0.0
 10
222.7394058511959
 20
61.38628180376519
 30
0.0
 10
222.703948362222
 20
61.43379681839631
 30
0.0
 10
222.6215434093354
 20
61.52005679627973
 30
0.0
 10
222.5743385067596
 20
61.5593023486998
 30
0.0
 10
222.5208623608707
 20
61.59451547681342
 30
0.0
  0
LINE
  5
25B
330
1F
100
AcDbEntity
  8
0
  6
Continuous
 62
     7
370
    15
100
AcDbLine
 10
245.5067893594
 20
59.1675238226
 30
0.0
 11
245.6110711993
 21
59.3481456474
 31
0.0
  0
LINE
  5
25C
330
1F
100
AcDbEntity
  8
0
  6
Continuous
 62
     7
370
    15
100
AcDbLine
 10
243.2086810779
 20
57.8408541506
 30
0.0
 11
245.5067893594
 21
59.1675238226
 31
0.0
  0
ARC
  5
25D
330
1F
100
AcDbEntity
  8
0
  6
Continuous
 62
     7
370
    15
100
AcDbCircle
 10
244.0367841755
 20
56.5462518677
 30
0.0
 40
1.53679855912838
100
AcDbArc
 50
122.6053519586
 51
177.394632491
  0
LINE
  5
25E
330
1F
100
AcDbEntity
  8
0
  6
Continuous
 62
     7
370
    15
100
AcDbLine
 10
242.5015741808
 20
51.312089163
 30
0.0
 11
242.5015741808
 21
56.6161094623
 31
0.0
  0
LINE
  5
25F
330
1F
100
AcDbEntity
  8
0
  6
Continuous
 62
     7
370
    15
100
AcDbLine
 10
212.9141348634
 20
29.8596357785
 30
0.0
 11
212.8686268037
 21
29.7412671554
 31
0.0
  0
LINE
  5
260
330
1F
100
AcDbEntity
  8
0
  6
Continuous
 62
     7
370
    15
100
AcDbLine
 10
212.9141348634
 20
29.8596357785
 30
0.0
 11
216.0557793906
 21
31.6732685598
 31
0.0
  0
ARC
  5
261
330
1F
100
AcDbEntity
  8
0
  6
Continuous
 62
     7
370
    15
100
AcDbCircle
 10
215.227676293
 20
32.9678708428
 30
0.0
 40
1.536798559128381
100
AcDbArc
 50
302.6053519586
 51
357.394632491
  0
LINE
  5
262
330
1F
100
AcDbEntity
  8
0
  6
Continuous
 62
     7
370
    15
100
AcDbLine
 10
216.7628862877
 20
41.7574812165
 30
0.0
 11
216.7628862877
 21
32.8980132481
 31
0.0
  0
ARC
  5
263
330
1F
100
AcDbEntity
  8
0
  6
Continuous
 62
     7
370
    15
100
AcDbCircle
 10
216.3318128047
 20
41.8274097635
 30
0.0
 40
0.4367085406723399
100
AcDbArc
 50
350.7857695821
 51
129.2035248725
  0
LINE
  5
264
330
1F
100
AcDbEntity
  8
0
  6
Continuous
 62
     7
370
    15
100
AcDbLine
 10
216.0557793906
 20
42.1658176591
 30
0.0
 11
212.9141348634
 21
40.3521848778
 31
0.0
  0
LINE
  5
265
330
1F
100
AcDbEntity
  8
0
  6
Continuous
 62
     7
370
    15
100
AcDbLine
 10
212.8686268037
 20
40.4180110135
 30
0.0
 11
212.9141348634
 21
40.3521848778
 31
0.0
  0
LINE
  5
266
330
1F
100
AcDbEntity
  8
0
  6
Continuous
 62
     7
370
    15
100
AcDbLine
 10
239.7968903982
 20
62.8118665933
 30
0.0
 11
239.7968903982
 21
66.0368277363
 31
0.0
  0
LINE
  5
267
330
1F
100
AcDbEntity
  8
0
  6
Continuous
 62
     7
370
    15
100
AcDbLine
 10
242.5896373866
 20
64.4240851126
 30
0.0
 11
239.7968903982
 21
62.8118665933
 31
0.0
  0
SPLINE
  5
268
330
1F
100
AcDbEntity
  8
0
  6
Continuous
 62
     7
370
    15
100
AcDbSpline
210
0.0
220
0.0
230
1.0
 70
     8
 71
     3
 72
     8
 73
     4
 74
     0
 42
0.000000001
 43
0.00000001
 40
0.0
 40
0.0
 40
0.0
 40
0.0
 40
1.0
 40
1.0
 40
1.0
 40
1.0
 10
209.9818248368464
 20
42.68429058554688
 30
0.0
 10
209.6947577071741
 20
42.63683858582352
 30
0.0
 10
209.4076445885886
 20
42.58948115312073
 30
0.0
 10
209.120489762191
 20
42.54220948420866
 30
0.0
  0
SPLINE
  5
269
330
1F
100
AcDbEntity
  8
0
  6
Continuous
 62
     7
370
    15
100
AcDbSpline
210
0.0
220
0.0
230
1.0
 70
     8
 71
     3
 72
     8
 73
     4
 74
     0
 42
0.000000001
 43
0.00000001
 40
0.0
 40
0.0
 40
0.0
 40
0.0
 40
0.0011862984959113
 40
0.0011862984959113
 40
0.0011862984959113
 40
0.0011862984959113
 10
208.7681886749155
 20
42.91256638387084
 30
0.0
 10
208.8858995427601
 20
42.78901643275839
 30
0.0
 10
209.0033392931961
 20
42.66556138364311
 30
0.0
 10
209.120489762191
 20
42.54220948420866
 30
0.0
  0
LWPOLYLINE
  5
26A
330
1F
100
AcDbEntity
  8
0
  6
Continuous
 62
     7
370
    15
100
AcDbPolyline
 90
       23
 70
   128
 43
0.0
 10
208.768188888
 20
42.9125663522
 10
209.2629902554
 20
44.8589805875
 10
209.8827135646
 20
46.8206421691
 10
210.6225303674
 20
48.7822597821
 10
211.476673131
 20
50.7285441007
 10
212.4384826532
 20
52.6443229942
 10
213.5004633806
 20
54.5146647167
 10
214.6543374086
 20
56.3249881688
 10
215.8911103364
 20
58.0611853265
 10
217.2011410723
 20
59.7097208551
 10
218.5742188838
 20
61.2577450305
 10
219.999640447
 20
62.6931914516
 10
221.4662951282
 20
64.0048703791
 10
222.9627510886
 20
65.1825595079
 10
224.4773431178
 20
66.2170774856
 10
225.9982656531
 20
67.1003604259
 10
227.5136632469
 20
67.8255232597
 10
229.0117239156
 20
68.3869151449
 10
230.4807704304
 20
68.7801584795
 10
231.9093520194
 20
69.0021881515
 10
233.2863323657
 20
69.0512734419
 10
234.6009794986
 20
68.927033415
 10
235.8430458071
 20
68.6304344402
  0
LINE
  5
26B
330
1F
100
AcDbEntity
  8
0
  6
Continuous
 62
     7
370
    15
100
AcDbLine
 10
236.1534899443
 20
67.6536043092
 30
0.0
 11
235.8430458071
 21
68.6304344402
 31
0.0
  0
LWPOLYLINE
  5
26C
330
1F
100
AcDbEntity
  8
0
  6
Continuous
 62
     7
370
    15
100
AcDbPolyline
 90
       22
 70
   128
 43
0.0
 10
209.9818248423
 20
42.6842905599
 10
210.4563338192
 20
44.5812191964
 10
211.0557779089
 20
46.4941826373
 10
211.7752614914
 20
48.4075614343
 10
212.6089090328
 20
50.3057309075
 10
213.5499151341
 20
52.1731942224
 10
214.5905958979
 20
53.9947025375
 10
215.7224534659
 20
55.755383517
 10
216.9362464831
 20
57.4408603364
 10
218.2220645131
 20
59.037370688
 10
219.5694090394
 20
60.5318804625
 10
220.9672774296
 20
61.912185453
 10
222.4042571074
 20
63.167014389
 10
223.8686147854
 20
64.286123035
 10
225.3483934765
 20
65.2603745297
 10
226.8315109061
 20
66.081811406
 10
228.3058570578
 20
66.7437286345
 10
229.7593938617
 20
67.2407220458
 10
231.1802530285
 20
67.5687311214
 10
232.5568333089
 20
67.7250799302
 10
233.8778940068
 20
67.7084900482
 10
234.1728560919
 20
67.6801837979
  0
LINE
  5
26D
330
1F
100
AcDbEntity
  8
0
  6
Continuous
 62
     7
370
    15
100
AcDbLine
 10
207.330344212
 20
43.7426164155
 30
0.0
 11
208.768188888
 21
42.9125663522
 31
0.0
  0
ARC
  5
26E
330
1F
100
AcDbEntity
  8
0
  6
Continuous
 62
     7
370
    15
100
AcDbCircle
 10
231.4056422668
 20
59.0131742071
 30
0.0
 40
10.86939031458828
100
AcDbArc
 50
73.9805380809
 51
106.2228094608
  0
LINE
  5
26F
330
1F
100
AcDbEntity
  8
0
  6
Continuous
 62
     7
370
    15
100
AcDbLine
 10
235.8430458071
 20
68.6304344402
 30
0.0
 11
234.4052011311
 21
69.4604845036
 31
0.0
  0
LINE
  5
270
330
1F
100
AcDbEntity
  8
0
  6
Continuous
 62
     7
370
    15
100
AcDbLine
 10
211.2344156799
 20
42.3579485584
 30
0.0
 11
210.6083120622
 21
42.7193904833
 31
0.0
  0
SPLINE
  5
271
330
1F
100
AcDbEntity
  8
0
  6
Continuous
 62
     7
370
    15
100
AcDbSpline
210
0.0
220
0.0
230
1.0
 70
     8
 71
     3
 72
    11
 73
     7
 74
     0
 42
0.000000001
 43
0.00000001
 40
0.0
 40
0.0
 40
0.0
 40
0.0
 40
0.3165694752064712
 40
0.6331520400060429
 40
0.9494411625907934
 40
1.0
 40
1.0
 40
1.0
 40
1.0
 10
221.8288383677844
 20
60.70203723130059
 30
0.0
 10
221.6952481875806
 20
60.65485856838053
 30
0.0
 10
221.4280623034533
 20
60.56049929178536
 30
0.0
 10
221.1121121042546
 20
60.30068359259217
 30
0.0
 10
220.9314094132979
 20
60.07749220711969
 30
0.0
 10
220.8964744497479
 20
59.94874302962189
 30
0.0
 10
220.8916597272071
 20
59.93099887007474
 30
0.0
  0
SPLINE
  5
272
330
1F
100
AcDbEntity
  8
0
  6
Continuous
 62
     7
370
    15
100
AcDbSpline
210
0.0
220
0.0
230
1.0
 70
     8
 71
     3
 72
    14
 73
    10
 74
     0
 42
0.000000001
 43
0.00000001
 40
0.0
 40
0.0
 40
0.0
 40
0.0
 40
0.25
 40
0.25
 40
0.5
 40
0.5
 40
0.75
 40
0.75
 40
1.0
 40
1.0
 40
1.0
 40
1.0
 10
210.6083119495801
 20
42.71939065277892
 30
0.0
 10
210.570677956122
 20
42.74111629475896
 30
0.0
 10
210.5249039994329
 20
42.75832805587046
 30
0.0
 10
210.424968121923
 20
42.78073338950296
 30
0.0
 10
210.3705342530831
 20
42.78590827310279
 30
0.0
 10
210.2643186025911
 20
42.78396607878803
 30
0.0
 10
210.211002302641
 20
42.7768776758698
 30
0.0
 10
210.1135092353403
 20
42.75214423958511
 30
0.0
 10
210.0685975448107
 20
42.73438340359907
 30
0.0
 10
210.0308442792107
 20
42.71258890727707
 30
0.0
  0
LINE
  5
273
330
1F
100
AcDbEntity
  8
0
  6
Continuous
 62
     7
370
    15
100
AcDbLine
 10
210.0308442613
 20
42.7125888681
 30
0.0
 11
209.9818248423
 21
42.6842905599
 31
0.0
  0
SPLINE
  5
274
330
1F
100
AcDbEntity
  8
0
  6
Continuous
 62
     7
370
    15
100
AcDbSpline
210
0.0
220
0.0
230
1.0
 70
     8
 71
     3
 72
    10
 73
     6
 74
     0
 42
0.000000001
 43
0.00000001
 40
0.0
 40
0.0
 40
0.0
 40
0.0
 40
0.5
 40
0.5
 40
1.0
 40
1.0
 40
1.0
 40
1.0
 10
207.2283316465606
 20
43.77206459445556
 30
0.0
 10
207.2356479309828
 20
43.77643259434874
 30
0.0
 10
207.2474717911912
 20
43.776964646937
 30
0.0
 10
207.281623155469
 20
43.7677345972987
 30
0.0
 10
207.3038801188618
 20
43.7578937199824
 30
0.0
 10
207.3303441368834
 20
43.74261636756608
 30
0.0
  0
ARC
  5
275
330
1F
100
AcDbEntity
  8
0
  6
Continuous
 62
     7
370
    15
100
AcDbCircle
 10
247.0487054596
 20
34.2634418771
 30
0.0
 40
40.92045494687022
100
AcDbArc
 50
143.5835897407
 51
160.8037648338
  0
SPLINE
  5
276
330
1F
100
AcDbEntity
  8
0
  6
Continuous
 62
     7
370
    15
100
AcDbSpline
210
0.0
220
0.0
230
1.0
 70
     8
 71
     3
 72
    14
 73
    10
 74
     0
 42
0.000000001
 43
0.00000001
 40
0.0
 40
0.0
 40
0.0
 40
0.0
 40
0.25
 40
0.25
 40
0.5
 40
0.5
 40
0.75
 40
0.75
 40
1.0
 40
1.0
 40
1.0
 40
1.0
 10
222.24591722281
 20
61.00848904043883
 30
0.0
 10
222.2607581149392
 20
60.96997102160324
 30
0.0
 10
222.2601243470352
 20
60.93205238344977
 30
0.0
 10
222.2271887420748
 20
60.86611143368049
 30
0.0
 10
222.1950528967328
 20
60.83783787613854
 30
0.0
 10
222.1101503213284
 20
60.78991884995104
 30
0.0
 10
222.0577334088353
 20
60.7700417525033
 30
0.0
 10
221.9463977445402
 20
60.73418482648692
 30
0.0
 10
221.8882430678292
 20
60.7183128028035
 30
0.0
 10
221.8288381120978
 20
60.70203745724876
 30
0.0
  0
LINE
  5
277
330
1F
100
AcDbEntity
  8
0
  6
Continuous
 62
     7
370
    15
100
AcDbLine
 10
222.229790228
 20
61.050344883
 30
0.0
 11
222.2459173245
 21
61.0084893934
 31
0.0
  0
SPLINE
  5
278
330
1F
100
AcDbEntity
  8
0
  6
Continuous
 62
     7
370
    15
100
AcDbSpline
210
0.0
220
0.0
230
1.0
 70
     8
 71
     3
 72
    10
 73
     6
 74
     0
 42
0.000000001
 43
0.00000001
 40
0.0
 40
0.0
 40
0.0
 40
0.0
 40
0.5
 40
0.5
 40
1.0
 40
1.0
 40
1.0
 40
1.0
 10
222.5208623608707
 20
61.59451547681343
 30
0.0
 10
222.4928473111328
 20
61.52248937412539
 30
0.0
 10
222.455029422683
 20
61.44154288882194
 30
0.0
 10
222.359053674848
 20
61.26114785248203
 30
0.0
 10
222.3010218975485
 20
61.16182164550723
 30
0.0
 10
222.2297901599584
 20
61.05034518394316
 30
0.0
  0
LINE
  5
279
330
1F
100
AcDbEntity
  8
0
  6
Continuous
 62
     7
370
    15
100
AcDbLine
 10
212.9141348634
 20
40.3521848778
 30
0.0
 11
211.0862807027
 21
41.4073826243
 31
0.0
  0
SPLINE
  5
27A
330
1F
100
AcDbEntity
  8
0
  6
Continuous
 62
     7
370
    15
100
AcDbSpline
210
0.0
220
0.0
230
1.0
 70
     8
 71
     3
 72
     8
 73
     4
 74
     0
 42
0.000000001
 43
0.00000001
 40
0.0000000000000004
 40
0.0000000000000004
 40
0.0000000000000004
 40
0.0000000000000004
 40
0.0011862984959128
 40
0.0011862984959128
 40
0.0011862984959128
 40
0.0011862984959128
 10
211.086280435162
 20
41.40738268417013
 30
0.0
 10
211.0752182359043
 20
41.46949112908891
 30
0.0
 10
211.0645922293305
 20
41.53128391639053
 30
0.0
 10
211.0543791015132
 20
41.59277674310842
 30
0.0
  0
LINE
  5
27B
330
1F
100
AcDbEntity
  8
0
  6
Continuous
 62
     7
370
    15
100
AcDbLine
 10
211.159064935
 20
42.1925575195
 30
0.0
 11
211.1391716225
 21
41.963211763
 31
0.0
  0
ARC
  5
27C
330
1F
100
AcDbEntity
  8
0
  6
Continuous
 62
     7
370
    15
100
AcDbCircle
 10
227.141848097
 20
40.535911582
 30
0.0
 40
16.06296283249315
100
AcDbArc
 50
176.9225000953
 51
185.727139394
  0
LINE
  5
27D
330
1F
100
AcDbEntity
  8
0
  6
Continuous
 62
     7
370
    15
100
AcDbLine
 10
210.1602775624
 20
41.2924297086
 30
0.0
 11
210.2220503543
 21
42.7525758769
 31
0.0
  0
ARC
  5
27E
330
1F
100
AcDbEntity
  8
0
  6
Continuous
 62
     7
370
    15
100
AcDbCircle
 10
221.9952652841
 20
41.0175703257
 30
0.0
 40
11.83817900076385
100
AcDbArc
 50
178.6695844123
 51
203.7430473282
  0
LINE
  5
27F
330
1F
100
AcDbEntity
  8
0
  6
Continuous
 62
     7
370
    15
100
AcDbLine
 10
191.7291893882
 20
77.8796552849
 30
0.0
 11
191.7788880959
 21
77.8613194734
 31
0.0
  0
LINE
  5
280
330
1F
100
AcDbEntity
  8
0
  6
Continuous
 62
     7
370
    15
100
AcDbLine
 10
181.6053300078
 20
60.3427168845
 30
0.0
 11
181.5437126324
 21
60.3959824453
 31
0.0
  0
LINE
  5
281
330
1F
100
AcDbEntity
  8
0
  6
Continuous
 62
     7
370
    15
100
AcDbLine
 10
207.6638668769
 20
43.3831000716
 30
0.0
 11
207.2283310579
 21
43.7720642413
 31
0.0
  0
LINE
  5
282
330
1F
100
AcDbEntity
  8
0
  6
Continuous
 62
     7
370
    15
100
AcDbLine
 10
209.1204901142
 20
42.5422093755
 30
0.0
 11
207.6638668769
 21
43.3831000716
 31
0.0
  0
LINE
  5
283
330
1F
100
AcDbEntity
  8
0
  6
Continuous
 62
     7
370
    15
100
AcDbLine
 10
211.159064935
 20
42.1925575195
 30
0.0
 11
211.159064935
 21
42.0474076823
 31
0.0
  0
LINE
  5
284
330
1F
100
AcDbEntity
  8
0
  6
Continuous
 62
     7
370
    15
100
AcDbLine
 10
211.159064935
 20
41.3653644849
 30
0.0
 11
211.159064935
 21
38.9329713604
 31
0.0
  0
LINE
  5
285
330
1F
100
AcDbEntity
  8
0
  6
Continuous
 62
     7
370
    15
100
AcDbLine
 10
211.159064935
 20
42.4014471699
 30
0.0
 11
211.159064935
 21
42.1925575195
 31
0.0
  0
LINE
  5
286
330
1F
100
AcDbEntity
  8
0
  6
Continuous
 62
     7
370
    15
100
AcDbLine
 10
211.159064935
 20
38.9329713604
 30
0.0
 11
211.159064935
 21
36.0629823177
 31
0.0
  0
LINE
  5
287
330
1F
100
AcDbEntity
  8
0
  6
Continuous
 62
     7
370
    15
100
AcDbLine
 10
211.0862807027
 20
30.9148335249
 30
0.0
 11
212.9141348634
 21
29.8596357785
 31
0.0
  0
SPLINE
  5
288
330
1F
100
AcDbEntity
  8
0
  6
Continuous
 62
     7
370
    15
100
AcDbSpline
210
0.0
220
0.0
230
1.0
 70
     8
 71
     3
 72
    14
 73
    10
 74
     0
 42
0.000000001
 43
0.00000001
 40
0.0
 40
0.0
 40
0.0
 40
0.0
 40
0.25
 40
0.25
 40
0.5
 40
0.5
 40
0.75
 40
0.75
 40
1.0
 40
1.0
 40
1.0
 40
1.0
 10
212.868627313487
 20
29.74126750910946
 30
0.0
 10
212.8519524704206
 20
29.69789489100287
 30
0.0
 10
212.8316572275046
 20
29.65766456155702
 30
0.0
 10
212.7833602484343
 20
29.58389267388489
 30
0.0
 10
212.7551414006292
 20
29.55032306720777
 30
0.0
 10
212.692216052206
 20
29.49677166154515
 30
0.0
 10
212.657052876189
 20
29.4763156321855
 30
0.0
 10
212.5823698869806
 20
29.45888333867362
 30
0.0
 10
212.5438450117722
 20
29.46283064765852
 30
0.0
 10
212.5099013090749
 20
29.48242593012834
 30
0.0
  0
LINE
  5
289
330
1F
100
AcDbEntity
  8
0
  6
Continuous
 62
     7
370
    15
100
AcDbLine
 10
212.5099011466
 20
29.4824260537
 30
0.0
 11
211.0543791603
 21
30.3226810111
 31
0.0
  0
SPLINE
  5
28A
330
1F
100
AcDbEntity
  8
0
  6
Continuous
 62
     7
370
    15
100
AcDbSpline
210
0.0
220
0.0
230
1.0
 70
     8
 71
     3
 72
     8
 73
     4
 74
     0
 42
0.000000001
 43
0.00000001
 40
0.0
 40
0.0
 40
0.0
 40
0.0
 40
0.0011862984959113
 40
0.0011862984959113
 40
0.0011862984959113
 40
0.0011862984959113
 10
211.0543791015132
 20
30.32268101522136
 30
0.0
 10
211.0645922293305
 20
30.5200799171103
 30
0.0
 10
211.0752182359057
 20
30.71746575408709
 30
0.0
 10
211.0862804351634
 20
30.91483325143744
 30
0.0
  0
LWPOLYLINE
  5
28B
330
1F
100
AcDbEntity
  8
0
  6
Continuous
 62
     7
370
    15
100
AcDbPolyline
 90
       13
 70
   128
 43
0.0
 10
224.5369788505
 20
22.8564700954
 10
223.2709800467
 20
22.5817608311
 10
221.9025179737
 20
22.4298886759
 10
220.5863752862
 20
22.4411320423
 10
219.3322121736
 20
22.6154113159
 10
218.149232454
 20
22.9514450136
 10
217.0461190366
 20
23.4467688011
 10
216.0309674092
 20
24.0977457655
 10
215.1112296614
 20
24.8996002609
 10
214.2936532402
 20
25.8464441507
 10
213.5842414373
 20
26.9313308033
 10
212.9881993886
 20
28.146297684
 10
212.5364800029
 20
29.3948790717
  0
SPLINE
  5
28C
330
1F
100
AcDbEntity
  8
0
  6
Continuous
 62
     7
370
    15
100
AcDbSpline
210
0.0
220
0.0
230
1.0
 70
     8
 71
     3
 72
     8
 73
     4
 74
     0
 42
0.000000001
 43
0.00000001
 40
0.0
 40
0.0
 40
0.0
 40
0.0
 40
1.0
 40
1.0
 40
1.0
 40
1.0
 10
211.3323987889127
 20
31.4120714060243
 30
0.0
 10
211.250200608127
 20
31.24635107952082
 30
0.0
 10
211.1681662399751
 20
31.08060420418286
 30
0.0
 10
211.0862804351634
 20
30.91483325143744
 30
0.0
  0
LINE
  5
28D
330
1F
100
AcDbEntity
  8
0
  6
Continuous
 62
     7
370
    15
100
AcDbLine
 10
211.3814182899
 20
31.4403699778
 30
0.0
 11
211.3323988709
 21
31.4120716696
 31
0.0
  0
SPLINE
  5
28E
330
1F
100
AcDbEntity
  8
0
  6
Continuous
 62
     7
370
    15
100
AcDbSpline
210
0.0
220
0.0
230
1.0
 70
     8
 71
     3
 72
    12
 73
     8
 74
     0
 42
0.000000001
 43
0.00000001
 40
0.0
 40
0.0
 40
0.0
 40
0.0
 40
0.249999999999997
 40
0.249999999999997
 40
0.499999999999994
 40
0.499999999999994
 40
1.0
 40
1.0
 40
1.0
 40
1.0
 10
211.3932004766972
 20
31.77373471798543
 30
0.0
 10
211.4307992612718
 20
31.75202940166114
 30
0.0
 10
211.4609768205182
 20
31.72522753108796
 30
0.0
 10
211.4995665551992
 20
31.66760382625797
 30
0.0
 10
211.5084260403889
 20
31.6365557006866
 30
0.0
 10
211.5033786065506
 20
31.54436672428129
 30
0.0
 10
211.4566763194753
 20
31.48381529730644
 30
0.0
 10
211.381418231277
 20
31.44036972775449
 30
0.0
  0
LINE
  5
28F
330
1F
100
AcDbEntity
  8
0
  6
Continuous
 62
     7
370
    15
100
AcDbLine
 10
210.6083120622
 20
32.226841384
 30
0.0
 11
211.393200639
 21
31.7737348533
 31
0.0
  0
SPLINE
  5
290
330
1F
100
AcDbEntity
  8
0
  6
Continuous
 62
     7
370
    15
100
AcDbSpline
210
0.0
220
0.0
230
1.0
 70
     8
 71
     3
 72
    10
 73
     6
 74
     0
 42
0.000000001
 43
0.00000001
 40
0.0
 40
0.0
 40
0.0
 40
0.0
 40
0.5
 40
0.5
 40
1.0
 40
1.0
 40
1.0
 40
1.0
 10
210.0308442792107
 20
32.22003947454519
 30
0.0
 10
210.1069816695493
 20
32.2639926544179
 30
0.0
 10
210.2104894502336
 20
32.29047932059669
 30
0.0
 10
210.4249847423194
 20
32.29430739098402
 30
0.0
 10
210.5324149867376
 20
32.27065560408062
 30
0.0
 10
210.6083119495801
 20
32.22684122004703
 30
0.0
  0
LINE
  5
291
330
1F
100
AcDbEntity
  8
0
  6
Continuous
 62
     7
370
    15
100
AcDbLine
 10
209.9818248423
 20
32.1917414605
 30
0.0
 11
210.0308442613
 21
32.2200397688
 31
0.0
  0
SPLINE
  5
292
330
1F
100
AcDbEntity
  8
0
  6
Continuous
 62
     7
370
    15
100
AcDbSpline
210
0.0
220
0.0
230
1.0
 70
     8
 71
     3
 72
     8
 73
     4
 74
     0
 42
0.000000001
 43
0.00000001
 40
0.0
 40
0.0
 40
0.0
 40
0.0
 40
1.0
 40
1.0
 40
1.0
 40
1.0
 10
209.1204897621919
 20
32.04966005147693
 30
0.0
 10
209.4076445885892
 20
32.09693172038895
 30
0.0
 10
209.6947577071744
 20
32.14428915309168
 30
0.0
 10
209.9818248368464
 20
32.19174115281498
 30
0.0
  0
LINE
  5
293
330
1F
100
AcDbEntity
  8
0
  6
Continuous
 62
     7
370
    15
100
AcDbLine
 10
207.6638668769
 20
32.8905509722
 30
0.0
 11
209.1204901142
 21
32.0496602762
 31
0.0
  0
LINE
  5
294
330
1F
100
AcDbEntity
  8
0
  6
Continuous
 62
     7
370
    15
100
AcDbLine
 10
207.6638668769
 20
32.8905509722
 30
0.0
 11
210.8055114041
 21
34.7041837535
 31
0.0
  0
ARC
  5
295
330
1F
100
AcDbEntity
  8
0
  6
Continuous
 62
     7
370
    15
100
AcDbCircle
 10
220.5948013961
 20
32.7576796275
 30
0.0
 40
9.846261965767324
100
AcDbArc
 50
194.3179057184
 51
238.1256858466
  0
ELLIPSE
  5
296
330
1F
100
AcDbEntity
  8
0
  6
Continuous
 62
     7
370
    15
100
AcDbEllipse
 10
210.5126188852
 20
35.6898083978
 30
0.0
 11
-7.507462981948265E-5
 21
1.066811201853405
 31
0.0
210
0.0
220
0.0
230
1.0
 40
0.7174342186
 41
3.534193645557429
 42
5.104989972352381
  0
ARC
  5
297
330
1F
100
AcDbEntity
  8
0
  6
Continuous
 62
     7
370
    15
100
AcDbCircle
 10
220.6573330504
 20
35.1591982846
 30
0.0
 40
11.08026513689254
100
AcDbArc
 50
195.5342643695
 51
215.7345697398
  0
ARC
  5
298
330
1F
100
AcDbEntity
  8
0
  6
Continuous
 62
     7
370
    15
100
AcDbCircle
 10
218.0793714751
 20
33.9753825359
 30
0.0
 40
9.598989501195707
100
AcDbArc
 50
194.065870688
 51
246.8527503441
  0
SPLINE
  5
299
330
1F
100
AcDbEntity
  8
0
  6
Continuous
 62
     7
370
    15
100
AcDbSpline
210
0.0
220
0.0
230
1.0
 70
     8
 71
     3
 72
     8
 73
     4
 74
     0
 42
0.000000001
 43
0.00000001
 40
0.0000000000000004
 40
0.0000000000000004
 40
0.0000000000000004
 40
0.0000000000000004
 40
0.0011862984959128
 40
0.0011862984959128
 40
0.0011862984959128
 40
0.0011862984959128
 10
209.1204897621924
 20
32.04966005147597
 30
0.0
 10
209.0033392931973
 20
31.91353600864119
 30
0.0
 10
208.8858995427602
 20
31.77781243347826
 30
0.0
 10
208.7681886749155
 20
31.64247065598378
 30
0.0
  0
LINE
  5
29A
330
1F
100
AcDbEntity
  8
0
  6
Continuous
 62
     7
370
    15
100
AcDbLine
 10
207.2283310579
 20
32.6390692647
 30
0.0
 11
207.6638668769
 21
32.8905509722
 31
0.0
  0
LINE
  5
29B
330
1F
100
AcDbEntity
  8
0
  6
Continuous
 62
     7
370
    15
100
AcDbLine
 10
208.768188888
 20
31.6424705628
 30
0.0
 11
207.330344212
 21
32.4725206261
 31
0.0
  0
SPLINE
  5
29C
330
1F
100
AcDbEntity
  8
0
  6
Continuous
 62
     7
370
    15
100
AcDbSpline
210
0.0
220
0.0
230
1.0
 70
     8
 71
     3
 72
    10
 73
     6
 74
     0
 42
0.000000001
 43
0.00000001
 40
0.0
 40
0.0
 40
0.0
 40
0.0
 40
0.5
 40
0.5
 40
1.0
 40
1.0
 40
1.0
 40
1.0
 10
207.3303441368834
 20
32.47252063967902
 30
0.0
 10
207.3039347076028
 20
32.48776647868594
 30
0.0
 10
207.2816513033937
 20
32.5116239010982
 30
0.0
 10
207.2475441685722
 20
32.56954999283248
 30
0.0
 10
207.2356441385172
 20
32.60344852431335
 30
0.0
 10
207.2283316465605
 20
32.6390695667677
 30
0.0
  0
ARC
  5
29D
330
1F
100
AcDbEntity
  8
0
  6
Continuous
 62
     7
370
    15
100
AcDbCircle
 10
216.8668188996
 20
34.896841298
 30
0.0
 40
9.835109896964685
100
AcDbArc
 50
194.9325993597
 51
238.1123668138
  0
ELLIPSE
  5
29E
330
1F
100
AcDbEntity
  8
0
  6
Continuous
 62
     7
370
    15
100
AcDbEllipse
 10
210.4519587134
 20
35.6547786422
 30
0.0
 11
0.3250094736511642
 21
1.213179526238662
 31
0.0
210
0.0
220
0.0
230
1.0
 40
0.5176380889
 41
3.619174351347722
 42
5.189970678142632
  0
SPLINE
  5
29F
330
1F
100
AcDbEntity
  8
0
  6
Continuous
 62
     7
370
    15
100
AcDbSpline
210
0.0
220
0.0
230
1.0
 70
     8
 71
     3
 72
    12
 73
     8
 74
     0
 42
0.000000001
 43
0.00000001
 40
0.0
 40
0.0
 40
0.0
 40
0.0
 40
0.5000000000000003
 40
0.5000000000000003
 40
0.7500000000000001
 40
0.7500000000000001
 40
1.0
 40
1.0
 40
1.0
 40
1.0
 10
236.9858158024359
 20
67.6591019431885
 30
0.0
 10
237.0488756796654
 20
67.69550563543876
 30
0.0
 10
237.1288086328966
 20
67.72233694729036
 30
0.0
 10
237.2617878212032
 20
67.73609378880089
 30
0.0
 10
237.3074589903152
 20
67.73597265500194
 30
0.0
 10
237.3950968089527
 20
67.7231982733803
 30
0.0
 10
237.4358407198068
 20
67.71035828772555
 30
0.0
 10
237.4673544021454
 20
67.69216582614891
 30
0.0
  0
LINE
  5
2A0
330
1F
100
AcDbEntity
  8
0
  6
Continuous
 62
     7
370
    15
100
AcDbLine
 10
237.4673547264
 20
67.6921661977
 30
0.0
 11
238.1270230406
 21
67.3113477858
 31
0.0
  0
LINE
  5
2A1
330
1F
100
AcDbEntity
  8
0
  6
Continuous
 62
     7
370
    15
100
AcDbLine
 10
239.7968900689
 20
65.2365515692
 30
0.0
 11
241.1913896747
 21
65.5423265826
 31
0.0
  0
LINE
  5
2A2
330
1F
100
AcDbEntity
  8
0
  6
Continuous
 62
     7
370
    15
100
AcDbLine
 10
241.1913896747
 20
65.5423265826
 30
0.0
 11
242.646911661
 21
64.7020716253
 31
0.0
  0
SPLINE
  5
2A3
330
1F
100
AcDbEntity
  8
0
  6
Continuous
 62
     7
370
    15
100
AcDbSpline
210
0.0
220
0.0
230
1.0
 70
     8
 71
     3
 72
    12
 73
     8
 74
     0
 42
0.000000001
 43
0.00000001
 40
0.0
 40
0.0
 40
0.0
 40
0.0
 40
0.2499999999999946
 40
0.2499999999999946
 40
0.4999999999999892
 40
0.4999999999999892
 40
1.0
 40
1.0
 40
1.0
 40
1.0
 10
242.6469115743371
 20
64.70207111659812
 30
0.0
 10
242.6785677048372
 20
64.68379642144819
 30
0.0
 10
242.7008669818473
 20
64.6599723106499
 30
0.0
 10
242.7226875524393
 20
64.6099404082022
 30
0.0
 10
242.7229683147654
 20
64.58354919978831
 30
0.0
 10
242.6996009406446
 20
64.5074739697934
 30
0.0
 10
242.6525625378396
 20
64.46041091484298
 30
0.0
 10
242.5896370433393
 20
64.42408480009101
 30
0.0
  0
LINE
  5
2A4
330
1F
100
AcDbEntity
  8
0
  6
Continuous
 62
     7
370
    15
100
AcDbLine
 10
236.9858160339
 20
67.6591023203
 30
0.0
 11
236.8940254662
 21
67.6061127535
 31
0.0
  0
SPLINE
  5
2A5
330
1F
100
AcDbEntity
  8
0
  6
Continuous
 62
     7
370
    15
100
AcDbSpline
210
0.0
220
0.0
230
1.0
 70
     8
 71
     3
 72
    10
 73
     6
 74
     0
 42
0.000000001
 43
0.00000001
 40
0.0
 40
0.0
 40
0.0
 40
0.0
 40
0.403890055881665
 40
0.8088426875932694
 40
1.0
 40
1.0
 40
1.0
 40
1.0
 10
245.6110711993462
 20
59.34814564737953
 30
0.0
 10
245.6293119638579
 20
59.38690947347247
 30
0.0
 10
245.6658414816723
 20
59.46453910763111
 30
0.0
 10
245.679781995637
 20
59.5719190509174
 30
0.0
 10
245.6617334493912
 20
59.62517572594769
 30
0.0
 10
245.6559457392092
 20
59.64225378842082
 30
0.0
  0
ARC
  5
2A6
330
1F
100
AcDbEntity
  8
0
  6
Continuous
 62
     7
370
    15
100
AcDbCircle
 10
235.3178551489
 20
57.0348187727
 30
0.0
 40
10.60668825138473
100
AcDbArc
 50
15.7413341421
 51
46.2919137943
  0
LWPOLYLINE
  5
2A7
330
1F
100
AcDbEntity
  8
0
  6
Continuous
 62
     7
370
    15
100
AcDbPolyline
 90
        3
 70
   128
 43
0.0
 10
239.7968897397
 20
65.9175413557
 10
239.8353447877
 20
65.8700772583
 10
240.2156002404
 20
65.3637961078
  0
LWPOLYLINE
  5
2A8
330
1F
100
AcDbEntity
  8
0
  6
Continuous
 62
     7
370
    15
100
AcDbPolyline
 90
       20
 70
   128
 43
0.0
 10
261.9040110436
 20
35.2443061438
 10
262.1285274857
 20
35.4032567001
 10
262.4517071329
 20
35.7563599364
 10
262.6055660143
 20
36.1457185743
 10
262.5796182906
 20
36.5447987681
 10
262.3756326475
 20
36.9264038459
 10
262.007509231
 20
37.2645284455
 10
261.5003371051
 20
37.5361288683
 10
260.8886784965
 20
37.7226964599
 10
260.2142154861
 20
37.8115176818
 10
259.5229150566
 20
37.7965375243
 10
258.8618840903
 20
37.678779333
 10
258.2761731026
 20
37.4662666714
 10
257.805695797
 20
37.173482851
 10
257.4825161498
 20
36.8203796147
 10
257.3286572683
 20
36.4310209767
 10
257.3546049921
 20
36.031940783
 10
257.5585906351
 20
35.6503357051
 10
257.9267114175
 20
35.3122126263
 10
258.316426862
 20
35.0915952348
  0
LWPOLYLINE
  5
2A9
330
1F
100
AcDbEntity
  8
0
  6
Continuous
 62
     7
370
    15
100
AcDbPolyline
 90
       21
 70
   128
 43
0.0
 10
260.7178308954
 20
35.3439414429
 10
261.1866342787
 20
35.5240863741
 10
261.5360586789
 20
35.7790467861
 10
261.7319062965
 20
36.0838617405
 10
261.7550017816
 20
36.4086963693
 10
261.6030875821
 20
36.7217517266
 10
261.291030587
 20
36.9923859007
 10
260.8493809232
 20
37.1941050112
 10
260.3213669337
 20
37.3071654224
 10
259.758678271
 20
37.3204976395
 10
259.2163897531
 20
37.2327996289
 10
258.747589004
 20
37.052653177
 10
258.3981619696
 20
36.7976942856
 10
258.2023169862
 20
36.4928778106
 10
258.1792188669
 20
36.1680447025
 10
258.3311357006
 20
35.8549878245
 10
258.6431900615
 20
35.584355171
 10
259.0848397253
 20
35.3826360605
 10
259.6128537148
 20
35.2695756493
 10
260.1755450117
 20
35.2562419116
 10
260.7178308954
 20
35.3439414429
  0
SPLINE
  5
2AA
330
1F
100
AcDbEntity
  8
0
  6
Continuous
 62
     7
370
    15
100
AcDbSpline
210
0.0
220
0.0
230
1.0
 70
     8
 71
     3
 72
    10
 73
     6
 74
     0
 42
0.000000001
 43
0.00000001
 40
0.0
 40
0.0
 40
0.0
 40
0.0
 40
0.439128412975389
 40
0.7513762915433309
 40
1.0
 40
1.0
 40
1.0
 40
1.0
 10
261.3798213815991
 20
35.6543731546301
 30
0.0
 10
261.402942807265
 20
35.713007247347
 30
0.0
 10
261.4425050185878
 20
35.81333386216367
 30
0.0
 10
261.5000164048045
 20
36.23163633510876
 30
0.0
 10
261.5286416504866
 20
36.52144258249843
 30
0.0
 10
261.5413306775324
 20
36.64990818073308
 30
0.0
  0
SPLINE
  5
2AB
330
1F
100
AcDbEntity
  8
0
  6
Continuous
 62
     7
370
    15
100
AcDbSpline
210
0.0
220
0.0
230
1.0
 70
     8
 71
     3
 72
    10
 73
     6
 74
     0
 42
0.000000001
 43
0.00000001
 40
0.0
 40
0.0
 40
0.0
 40
0.0
 40
0.4391281499510109
 40
0.7513748048022787
 40
1.0
 40
1.0
 40
1.0
 40
1.0
 10
261.5413306775324
 20
36.64990818073308
 30
0.0
 10
261.3390844599288
 20
36.64884060955936
 30
0.0
 10
260.9930289581559
 20
36.64701393075875
 30
0.0
 10
260.4899830405616
 20
36.91682154109963
 30
0.0
 10
260.2396071029818
 20
37.1327185928221
 30
0.0
 10
260.1286195996008
 20
37.22842217755794
 30
0.0
  0
SPLINE
  5
2AC
330
1F
100
AcDbEntity
  8
0
  6
Continuous
 62
     7
370
    15
100
AcDbSpline
210
0.0
220
0.0
230
1.0
 70
     8
 71
     3
 72
    11
 73
     7
 74
     0
 42
0.000000001
 43
0.00000001
 40
0.0
 40
0.0
 40
0.0
 40
0.0
 40
0.1849305112154229
 40
0.5198462205729296
 40
0.871444103161717
 40
0.9999999999999999
 40
0.9999999999999999
 40
0.9999999999999999
 40
0.9999999999999999
 10
260.1286195996008
 20
37.22842217755794
 30
0.0
 10
260.0369928064316
 20
37.16593280658899
 30
0.0
 10
259.779426643773
 20
36.99027297030406
 30
0.0
 10
259.2986287884637
 20
36.78353608254396
 30
0.0
 10
258.8545891803429
 20
36.76310233393365
 30
0.0
 10
258.6177996856175
 20
36.80119954251033
 30
0.0
 10
258.554401901073
 20
36.81139965136181
 30
0.0
  0
SPLINE
  5
2AD
330
1F
100
AcDbEntity
  8
0
  6
Continuous
 62
     7
370
    15
100
AcDbSpline
210
0.0
220
0.0
230
1.0
 70
     8
 71
     3
 72
    10
 73
     6
 74
     0
 42
0.000000001
 43
0.00000001
 40
0.0
 40
0.0
 40
0.0
 40
0.0
 40
0.439127165855533
 40
0.7513750562609784
 40
1.0
 40
1.0
 40
1.0
 40
1.0
 10
258.554401901073
 20
36.81139965136181
 30
0.0
 10
258.5312794456071
 20
36.58498877405103
 30
0.0
 10
258.4917154249147
 20
36.197585081214
 30
0.0
 10
258.4342032982275
 20
35.90689742375187
 30
0.0
 10
258.4055805568864
 20
35.84382396625038
 30
0.0
 10
258.3928926051398
 20
35.81586462525884
 30
0.0
  0
LINE
  5
2AE
330
1F
100
AcDbEntity
  8
0
  6
Continuous
 62
     7
370
    15
100
AcDbLine
 10
258.3928926051
 20
35.8158646253
 30
0.0
 11
258.8924946796
 21
35.4606080483
 31
0.0
  0
SPLINE
  5
2AF
330
1F
100
AcDbEntity
  8
0
  6
Continuous
 62
     7
370
    15
100
AcDbSpline
210
0.0
220
0.0
230
1.0
 70
     8
 71
     3
 72
     9
 73
     5
 74
     0
 42
0.000000001
 43
0.00000001
 40
0.0
 40
0.0
 40
0.0
 40
0.0
 40
0.0084857330984872
 40
1.0
 40
1.0
 40
1.0
 40
1.0
 10
261.0986814682001
 20
35.47246237333628
 30
0.0
 10
261.0995336410053
 20
35.472817422846
 30
0.0
 10
261.1999578230189
 20
35.51465818139855
 30
0.0
 10
261.2902727966897
 20
35.58481332693458
 30
0.0
 10
261.3798213815992
 20
35.65437315463009
 30
0.0
  0
LINE
  5
2B0
330
1F
100
AcDbEntity
  8
0
  6
Continuous
 62
     7
370
    15
100
AcDbLine
 10
258.5544019011
 20
35.7010188863
 30
0.0
 11
258.5544019011
 21
36.8113996514
 31
0.0
  0
LINE
  5
2B1
330
1F
100
AcDbEntity
  8
0
  6
Continuous
 62
     7
370
    15
100
AcDbLine
 10
260.1286195996
 20
35.2534437748
 30
0.0
 11
260.1286195996
 21
37.2284221776
 31
0.0
  0
LWPOLYLINE
  5
2B2
330
1F
100
AcDbEntity
  8
0
  6
Continuous
 62
     7
370
    15
100
AcDbPolyline
 90
        8
 70
   128
 43
0.0
 10
264.3576703522
 20
27.4450481995
 10
264.3478896491
 20
27.4080571072
 10
264.1721372909
 20
27.0672422605
 10
263.886634539
 20
26.8741470608
 10
263.5193247543
 20
26.8476750075
 10
263.1061671009
 20
26.9904149535
 10
262.6876014799
 20
27.2883961423
 10
262.3636370947
 20
27.6354946199
  0
ARC
  5
2B3
330
1F
100
AcDbEntity
  8
0
  6
Continuous
 62
     7
370
    15
100
AcDbCircle
 10
222.3665901668
 20
58.9203679189
 30
0.0
 40
1.558644640560574
100
AcDbArc
 50
79.7256672347
 51
142.8337434383
  0
ARC
  5
2B4
330
1F
100
AcDbEntity
  8
0
  6
Continuous
 62
     7
370
    15
100
AcDbCircle
 10
222.3344196116
 20
59.0042339659
 30
0.0
 40
1.464307715661424
100
AcDbArc
 50
78.3846739141
 51
144.4240084376
  0
ARC
  5
2B5
330
1F
100
AcDbEntity
  8
0
  6
Continuous
 62
     7
370
    15
100
AcDbCircle
 10
222.3059286322
 20
59.0782270369
 30
0.0
 40
1.250090725119531
100
AcDbArc
 50
80.8569975695
 51
142.3541911595
  0
LWPOLYLINE
  5
2B6
330
1F
100
AcDbEntity
  8
0
  6
Continuous
 62
     7
370
     0
100
AcDbPolyline
 90
        8
 70
   128
 43
0.0
 10
221.4651469558
 20
38.8176921665
 10
221.5271857997
 20
37.6463205438
 10
221.7124317356
 20
36.5630210164
 10
222.0182841713
 20
35.5830010899
 10
222.440450055
 20
34.7200174657
 10
222.9730018278
 20
33.9861846836
 10
223.6084650093
 20
33.3918046753
 10
224.0544899605
 20
33.0946321009
  0
LWPOLYLINE
  5
2B7
330
1F
100
AcDbEntity
  8
0
  6
Continuous
 62
     7
370
     0
100
AcDbPolyline
 90
       21
 70
   128
 43
0.0
 10
236.5534737442
 20
54.745853782
 10
235.8732242677
 20
55.061091077
 10
235.0223584216
 20
55.2748990119
 10
234.1052571567
 20
55.3293131057
 10
233.1347940304
 20
55.2235688357
 10
232.1245928467
 20
54.9591507729
 10
231.0888341268
 20
54.5397705944
 10
230.0420577722
 20
53.9713147604
 10
228.9989582773
 20
53.2617650769
 10
227.9741784822
 20
52.4210803922
 10
226.9821039007
 20
51.461061895
 10
226.0366611851
 20
50.3951873406
 10
225.1511226414
 20
49.2384191119
 10
224.3379189557
 20
48.0069957276
 10
223.6084650093
 20
46.7182020085
 10
222.9730018278
 20
45.3901318278
 10
222.440450055
 20
44.0414278568
 10
222.0182841713
 20
42.6910218783
 10
221.7124317356
 20
41.3578722462
 10
221.5271857997
 20
40.0606923138
 10
221.4651469558
 20
38.8176921665
  0
LWPOLYLINE
  5
2B8
330
1F
100
AcDbEntity
  8
0
  6
Continuous
 62
     7
370
     0
100
AcDbPolyline
 90
       42
 70
   128
 43
0.0
 10
264.9345352556
 20
30.0525059513
 10
264.1249901962
 20
29.5133941892
 10
263.334420109
 20
28.8433762755
 10
262.581355531
 20
28.0581565493
 10
261.8834471836
 20
27.1761394555
 10
261.2570541356
 20
26.21800016
 10
260.7168579782
 20
25.2061952752
 10
260.2755205468
 20
24.1644409297
 10
259.9433865876
 20
23.1171555668
 10
259.7282407554
 20
22.0888860081
 10
259.635126184
 20
21.1037343428
 10
259.6662249605
 20
20.1847914653
 10
259.8208087349
 20
19.3535968661
 10
260.0952541951
 20
18.6296332555
 10
260.48312802
 20
18.0298692079
 10
260.9753390025
 20
17.568362923
 10
261.5603501015
 20
17.255931357
 10
262.2244494324
 20
17.0998981035
 10
262.9520708141
 20
17.1039204535
 10
263.7261595078
 20
17.2679039512
 10
264.5285715423
 20
17.5880051613
 10
265.3404989688
 20
18.0567208876
 10
266.1429110033
 20
18.6630648927
 10
266.9169996971
 20
19.3928251769
 10
267.6446210788
 20
20.2288965923
 10
268.3087204097
 20
21.1516826125
 10
268.8937315086
 20
22.1395536163
 10
269.3859424911
 20
23.1693546051
 10
269.773816316
 20
24.2169482385
 10
270.0482617762
 20
25.2577798328
 10
270.2028455506
 20
26.2674530588
 10
270.2339443272
 20
27.2223018194
 10
270.1408297557
 20
28.099945689
 10
269.9256839235
 20
28.8798131572
 10
269.5935499644
 20
29.5436248133
 10
269.1522125329
 20
30.0758218067
 10
268.6120163755
 20
30.463929484
 10
267.9856233275
 20
30.6988507604
 10
267.2877149801
 20
30.7750800279
 10
266.5346504021
 20
30.6908298996
 10
265.7440803149
 20
30.4480750195
 10
264.9345352556
 20
30.0525059513
  0
LWPOLYLINE
  5
2B9
330
1F
100
AcDbEntity
  8
0
  6
Continuous
 62
     7
370
     0
100
AcDbPolyline
 90
       22
 70
   128
 43
0.0
 10
261.2155263189
 20
17.9984334824
 10
261.2986942341
 20
17.9593985328
 10
261.9355128649
 20
17.7744277584
 10
262.6408481126
 20
17.7541289841
 10
263.3964317057
 20
17.8990281206
 10
264.1826945825
 20
18.2053723613
 10
264.9792729828
 20
18.6652272835
 10
265.7655358596
 20
19.2666828374
 10
266.5211194527
 20
19.9941619483
 10
267.2264547004
 20
20.8288234655
 10
267.8632733312
 20
21.7490493806
 10
268.4150825917
 20
22.7310067183
 10
268.8675909136
 20
23.7492636134
 10
269.2090781804
 20
24.7774473621
 10
269.4307001393
 20
25.7889286195
 10
269.5267169164
 20
26.7575104054
 10
269.4946421769
 20
27.6581073736
 10
269.3353060161
 20
28.4673941481
 10
269.0528352032
 20
29.1644106537
 10
268.6545461677
 20
29.7311046684
 10
268.1507536922
 20
30.1527993362
 10
268.1032993042
 20
30.1816768539
  0
LWPOLYLINE
  5
2BA
330
1F
100
AcDbEntity
  8
0
  6
Continuous
 62
     7
370
     0
100
AcDbPolyline
 90
       19
 70
   128
 43
0.0
 10
212.5099011466
 20
40.7525218431
 10
213.0047025139
 20
42.6989360785
 10
213.6244258232
 20
44.6605976601
 10
214.364242626
 20
46.6222152731
 10
215.2183853895
 20
48.5684995917
 10
216.1801949118
 20
50.4842784852
 10
217.2421756392
 20
52.3546202076
 10
218.3960496672
 20
54.1649436597
 10
219.632822595
 20
55.9011408175
 10
220.9428533309
 20
57.5496763461
 10
222.3159311424
 20
59.0977005215
 10
223.7413527055
 20
60.5331469425
 10
225.2080073867
 20
61.8448258701
 10
226.7044633471
 20
63.0225149988
 10
228.2190553764
 20
64.0570329766
 10
229.7399779116
 20
64.9403159169
 10
231.2553755054
 20
65.6654787506
 10
232.7534361742
 20
66.2268706359
 10
233.5484745681
 20
66.4596505327
  0
LINE
  5
2BB
330
1F
100
AcDbEntity
  8
0
  6
Continuous
 62
     7
370
     0
100
AcDbLine
 10
212.8686268037
 20
40.4180110135
 30
0.0
 11
212.9488032805
 21
40.7819781405
 31
0.0
  0
LWPOLYLINE
  5
2BC
330
1F
100
AcDbEntity
  8
0
  6
Continuous
 62
     7
370
     0
100
AcDbPolyline
 90
        9
 70
   128
 43
0.0
 10
229.4418127689
 20
64.2938115978
 10
230.4523632899
 20
64.8288595375
 10
231.8959562363
 20
65.4716499224
 10
233.3202049317
 20
65.9617418394
 10
234.7147226475
 20
66.2955604714
 10
236.0693401393
 20
66.47067101
 10
237.3741789103
 20
66.4857981352
 10
238.6197236509
 20
66.3408313322
 10
239.7968903982
 20
66.0368277363
  0
LWPOLYLINE
  5
2BD
330
1F
100
AcDbEntity
  8
0
  6
Continuous
 62
     7
370
     0
100
AcDbPolyline
 90
       19
 70
   128
 43
0.0
 10
233.2751548897
 20
27.7716553768
 10
232.153818558
 20
26.8543208628
 10
230.6976125087
 20
25.795980897
 10
229.2305756093
 20
24.8771828392
 10
227.7636337358
 20
24.1047694291
 10
226.3077118484
 20
23.4844923741
 10
224.8736528155
 20
23.0209700499
 10
223.4721370765
 20
22.7176563324
 10
222.1136025619
 20
22.5768095774
 10
220.808166491
 20
22.599479415
 10
219.5655516149
 20
22.7854961102
 10
218.3950124596
 20
23.1334736114
 10
217.3052661787
 20
23.6408228652
 10
216.3044286747
 20
24.3037620886
 10
215.3999546715
 20
25.1173574594
 10
214.5985784451
 20
26.0755466958
 10
213.9062703602
 20
27.1711953353
 10
213.3281841861
 20
28.3961431275
 10
212.8686268037
 20
29.7412671554
  0
ARC
  5
2BE
330
1F
100
AcDbEntity
  8
0
  6
Continuous
 62
     7
370
     0
100
AcDbCircle
 10
235.4309317966
 20
56.7256743529
 30
0.0
 40
10.51249703684828
100
AcDbArc
 50
14.4456939373
 51
47.0804331381
  0
LWPOLYLINE
  5
2BF
330
1F
100
AcDbEntity
  8
0
  6
Continuous
 62
     7
370
     0
100
AcDbPolyline
 90
       27
 70
   128
 43
0.0
 10
219.3438262645
 20
38.8176921665
 10
219.40607255
 20
40.1335560462
 10
219.5920277383
 20
41.504739788
 10
219.899353338
 20
42.91399964
 10
220.32418501
 20
44.3436140425
 10
220.8611793239
 20
45.7756042529
 10
221.5035848817
 20
47.1919623831
 10
222.243321342
 20
48.574876869
 10
223.0710874224
 20
49.9069564167
 10
223.976472522
 20
51.1714503365
 10
224.9480917232
 20
52.3524553758
 10
225.9737257328
 20
53.435121221
 10
227.0404766274
 20
54.4058316635
 10
228.1349297728
 20
55.2523802038
 10
229.2433215067
 20
55.9641208449
 10
230.3517132406
 20
56.5321020601
 10
231.4461663861
 20
56.9491822245
 10
232.5129172806
 20
57.2101161485
 10
233.5385512902
 20
57.311622125
 10
234.5101704915
 20
57.2524247372
 10
235.415555591
 20
57.0332662027
 10
236.2433216714
 20
56.6569050283
 10
236.9830581318
 20
56.12807208
 10
237.6254636895
 20
55.4534196191
 10
238.1624580035
 20
54.6414298464
 10
238.5872896754
 20
53.7023156518
 10
238.6454496921
 20
53.53818177
  0
LWPOLYLINE
  5
2C0
330
1F
100
AcDbEntity
  8
0
  6
Continuous
 62
     7
370
     0
100
AcDbPolyline
 90
       13
 70
   128
 43
0.0
 10
226.1464655793
 20
31.8869598988
 10
225.9737257328
 20
31.8549821029
 10
224.9480917232
 20
31.7534761264
 10
223.976472522
 20
31.8126735142
 10
223.0710874224
 20
32.0318320487
 10
222.243321342
 20
32.408193223
 10
221.5035848817
 20
32.9370261714
 10
220.8611793239
 20
33.6116786323
 10
220.32418501
 20
34.4236684049
 10
219.899353338
 20
35.3627825996
 10
219.5920277383
 20
36.4172118669
 10
219.40607255
 20
37.5736963182
 10
219.3438262645
 20
38.8176921665
  0
LWPOLYLINE
  5
2C1
330
1F
100
AcDbEntity
  8
0
  6
Continuous
 62
     7
370
     0
100
AcDbPolyline
 90
       19
 70
   128
 43
0.0
 10
207.330344212
 20
43.7426164155
 10
207.8251455793
 20
45.6890306508
 10
208.4448688886
 20
47.6506922325
 10
209.1846856914
 20
49.6123098455
 10
210.038828455
 20
51.5585941641
 10
211.0006379772
 20
53.4743730576
 10
212.0626187046
 20
55.34471478
 10
213.2164927326
 20
57.1550382321
 10
214.4532656604
 20
58.8912353899
 10
215.7632963963
 20
60.5397709185
 10
217.1363742078
 20
62.0877950938
 10
218.561795771
 20
63.5232415149
 10
220.0284504521
 20
64.8349204425
 10
221.5249064126
 20
66.0126095712
 10
223.0394984418
 20
67.047127549
 10
224.560420977
 20
67.9304104893
 10
226.0758185708
 20
68.655573323
 10
227.5738792396
 20
69.2169652082
 10
228.3690239885
 20
69.4497730421
  0
LWPOLYLINE
  5
2C2
330
1F
100
AcDbEntity
  8
0
  6
Continuous
 62
     7
370
     0
100
AcDbPolyline
 90
       19
 70
   128
 43
0.0
 10
210.6083120622
 20
42.7193904833
 10
211.0844950592
 20
44.5904366083
 10
211.6841986154
 20
46.4762773554
 10
212.4024704761
 20
48.361336628
 10
213.2333784723
 20
50.2300460259
 10
214.1700592533
 20
52.0669718383
 10
215.2047768966
 20
53.8569416552
 10
216.3289854701
 20
55.5851717393
 10
217.5334001549
 20
57.2373909744
 10
218.8080736362
 20
58.7999496048
 10
220.1424771044
 20
60.2599435632
 10
221.5255908049
 20
61.6053154136
 10
222.9459906369
 20
62.8249530135
 10
224.3919456179
 20
63.9087838018
 10
225.8515132077
 20
64.8478556843
 10
227.3126385022
 20
65.6344110269
 10
228.7632539203
 20
66.2619563712
 10
230.191378644
 20
66.7253076728
 10
230.6241885826
 20
66.8341539399
  0
LINE
  5
2C3
330
1F
100
AcDbEntity
  8
0
  6
Continuous
 62
     7
370
     0
100
AcDbLine
 10
221.8288383678
 20
60.7020372313
 30
0.0
 11
222.1890651771
 21
61.0405251972
 31
0.0
  0
LWPOLYLINE
  5
2C4
330
1F
100
AcDbEntity
  8
0
  6
Continuous
 62
     7
370
     0
100
AcDbPolyline
 90
       21
 70
   128
 43
0.0
 10
210.0308442613
 20
42.7125888681
 10
210.5055824117
 20
44.6058117475
 10
211.1050528431
 20
46.5148945438
 10
211.8243507162
 20
48.4242223723
 10
212.6575939112
 20
50.318181961
 10
213.5979691268
 20
52.1812840803
 10
214.6377845632
 20
53.9982905363
 10
215.768536435
 20
55.7543438227
 10
216.9809787773
 20
57.4350819443
 10
218.2651945686
 20
59.0267585639
 10
219.6106819993
 20
60.5163574433
 10
221.0064374495
 20
61.8916966193
 10
222.4410460378
 20
63.1415278255
 10
223.9027753
 20
64.2556316366
 10
225.3796709656
 20
65.2248925313
 10
226.8596548758
 20
66.0413873583
 10
228.330623435
 20
66.6984391294
 10
229.7805469698
 20
67.1906713365
 10
231.1975674807
 20
67.5140598194
 10
232.5700963953
 20
67.6659603005
 10
233.8703075741
 20
67.646500867
  0
LWPOLYLINE
  5
2C5
330
1F
100
AcDbEntity
  8
0
  6
Continuous
 62
     7
370
     0
100
AcDbPolyline
 90
        3
 70
   128
 43
0.0
 10
211.079968142
 20
40.6400855172
 10
211.0795163804
 20
40.7617644345
 10
211.0917811133
 20
41.4042078475
  0
LWPOLYLINE
  5
2C6
330
1F
100
AcDbEntity
  8
0
  6
Continuous
 62
     7
370
     0
100
AcDbPolyline
 90
       18
 70
   128
 43
0.0
 10
179.99456241
 20
64.6530709339
 10
180.0587830119
 20
65.7979635588
 10
180.2502996086
 20
66.9965736041
 10
180.5656936956
 20
68.2275111852
 10
180.9993373516
 20
69.4688105746
 10
181.54349202
 20
70.6983204045
 10
182.1884477913
 20
71.8941001402
 10
182.9226952832
 20
73.0348115126
 10
183.7331314356
 20
74.10009892
 10
184.6052942818
 20
75.0709508163
 10
185.5236201102
 20
75.9300432261
 10
186.471721123
 20
76.6620456619
 10
187.4326786328
 20
77.2538953272
 10
188.3893442845
 20
77.6950303241
 10
189.3246463201
 20
77.9775793844
 10
190.2218942791
 20
78.0964997455
 10
191.0650765572
 20
78.0496690796
 10
191.7291893882
 20
77.8796552849
  0
ARC
  5
2C7
330
1F
100
AcDbEntity
  8
0
  6
Continuous
 62
     7
370
     0
100
AcDbCircle
 10
185.3927525121
 20
64.2070555378
 30
0.0
 40
5.416584358434776
100
AcDbArc
 50
175.2767713466
 51
224.7160200036
  0
LINE
  5
2C8
330
1F
100
AcDbEntity
  8
0
  6
Continuous
 62
     7
370
     0
100
AcDbLine
 10
216.7628862877
 20
41.7574812165
 30
0.0
 11
216.0556648039
 21
42.1657514888
 31
0.0
  0
LINE
  5
2C9
330
1F
100
AcDbEntity
  8
0
  6
Continuous
 62
     7
370
     0
100
AcDbLine
 10
211.219725116
 20
36.0980120787
 30
0.0
 11
216.7628862877
 21
32.8980132481
 31
0.0
  0
LINE
  5
2CA
330
1F
100
AcDbEntity
  8
0
  6
Continuous
 62
     7
370
     0
100
AcDbLine
 10
211.159064935
 20
36.0629823177
 30
0.0
 11
211.219725116
 21
36.0980120787
 31
0.0
  0
LINE
  5
2CB
330
1F
100
AcDbEntity
  8
0
  6
Continuous
 62
     7
370
     0
100
AcDbLine
 10
212.5364800029
 20
29.3948790717
 30
0.0
 11
212.5099011466
 21
29.4824260537
 31
0.0
  0
LINE
  5
2CC
330
1F
100
AcDbEntity
  8
0
  6
Continuous
 62
     7
370
     0
100
AcDbLine
 10
216.0557793906
 20
31.6732685598
 30
0.0
 11
210.8055114041
 21
34.7041837535
 31
0.0
  0
LINE
  5
2CD
330
1F
100
AcDbEntity
  8
0
  6
Continuous
 62
     7
370
     0
100
AcDbLine
 10
211.4706467902
 20
31.5237079201
 30
0.0
 11
211.393200639
 21
31.7737348533
 31
0.0
  0
LWPOLYLINE
  5
2CE
330
1F
100
AcDbEntity
  8
0
  6
Continuous
 62
     7
370
     0
100
AcDbPolyline
 90
        3
 70
   128
 43
0.0
 10
211.0796652938
 20
30.916887658
 10
211.0707512353
 20
30.9378430494
 10
210.6083120622
 20
32.226841384
  0
ARC
  5
2CF
330
1F
100
AcDbEntity
  8
0
  6
Continuous
 62
     7
370
     0
100
AcDbCircle
 10
220.7694862111
 20
35.2278576053
 30
0.0
 40
11.15192355892152
100
AcDbArc
 50
195.6471844777
 51
214.1548056384
  0
LINE
  5
2D0
330
1F
100
AcDbEntity
  8
0
  6
Continuous
 62
     7
370
     0
100
AcDbLine
 10
207.3638443711
 20
32.3625047383
 30
0.0
 11
207.330344212
 21
32.4725206261
 31
0.0
  0
LWPOLYLINE
  5
2D1
330
1F
100
AcDbEntity
  8
0
  6
Continuous
 62
     7
370
     0
100
AcDbPolyline
 90
        3
 70
   128
 43
0.0
 10
264.3137507019
 20
28.3882085356
 10
264.396685163
 20
27.8632317291
 10
264.3576703522
 20
27.4450481995
  0
LWPOLYLINE
  5
2D2
330
1F
100
AcDbEntity
  8
0
  6
Continuous
 62
     7
370
     0
100
AcDbPolyline
 90
        3
 70
   128
 43
0.0
 10
263.9537033459
 20
29.2094217741
 10
264.1072021682
 20
28.9316004897
 10
264.3137507019
 20
28.3882085356
  0
LWPOLYLINE
  5
2D3
330
1F
100
AcDbEntity
  8
0
  6
Continuous
 62
     7
370
     0
100
AcDbPolyline
 90
        9
 70
   128
 43
0.0
 10
264.1390786858
 20
28.357135811
 10
264.2163786402
 20
27.8479547366
 10
264.1588666312
 20
27.412785914
 10
263.97277249
 20
27.0987880109
 10
263.6782634835
 20
26.9399870364
 10
263.3072526785
 20
26.9535922659
 10
262.8999481687
 20
27.1381277066
 10
262.5004856069
 20
27.4735970407
 10
262.3611718333
 20
27.6319537876
  0
LWPOLYLINE
  5
2D4
330
1F
100
AcDbEntity
  8
0
  6
Continuous
 62
     7
370
     0
100
AcDbPolyline
 90
        3
 70
   128
 43
0.0
 10
263.8160072869
 20
29.1002439495
 10
263.9353408201
 20
28.885152895
 10
264.1390786858
 20
28.357135811
  0
OLE2FRAME
  5
2D5
330
1F
100
AcDbEntity
  8
0
100
AcDbOle2Frame
 70
     2
  3
Paintbrush-Bild
 10
13.8511154363
 20
38.264191557
 30
0.0
 11
51.6290888628
 21
31.9806341108
 31
0.0
 71
     2
 72
     0
 73
     1
 90
    12928
310
80552BED0767C5B32B40DDAF6807D121434000000000000000006FFBDDFB85D0
310
4940DDAF6807D121434000000000000000006FFBDDFB85D04940416F4BD60AFB
310
3F4000000000000000002BED0767C5B32B40416F4BD60AFB3F40000000000000
310
0000000000000100000000010000010000000100000000000100000000320000
310
D0CF11E0A1B11AE1000000000000000000000000000000003E000300FEFF0900
310
0600000000000000000000000100000001000000000000000010000002000000
310
01000000FEFFFFFF0000000000000000FFFFFFFFFFFFFFFFFFFFFFFFFFFFFFFF
310
FFFFFFFFFFFFFFFFFFFFFFFFFFFFFFFFFFFFFFFFFFFFFFFFFFFFFFFFFFFFFFFF
310
FFFFFFFFFFFFFFFFFFFFFFFFFFFFFFFFFFFFFFFFFFFFFFFFFFFFFFFFFFFFFFFF
310
FFFFFFFFFFFFFFFFFFFFFFFFFFFFFFFFFFFFFFFFFFFFFFFFFFFFFFFFFFFFFFFF
310
FFFFFFFFFFFFFFFFFFFFFFFFFFFFFFFFFFFFFFFFFFFFFFFFFFFFFFFFFFFFFFFF
310
FFFFFFFFFFFFFFFFFFFFFFFFFFFFFFFFFFFFFFFFFFFFFFFFFFFFFFFFFFFFFFFF
310
FFFFFFFFFFFFFFFFFFFFFFFFFFFFFFFFFFFFFFFFFFFFFFFFFFFFFFFFFFFFFFFF
310
FFFFFFFFFFFFFFFFFFFFFFFFFFFFFFFFFFFFFFFFFFFFFFFFFFFFFFFFFFFFFFFF
310
FFFFFFFFFFFFFFFFFFFFFFFFFFFFFFFFFFFFFFFFFFFFFFFFFFFFFFFFFFFFFFFF
310
FFFFFFFFFFFFFFFFFFFFFFFFFFFFFFFFFFFFFFFFFFFFFFFFFFFFFFFFFFFFFFFF
310
FFFFFFFFFFFFFFFFFFFFFFFFFFFFFFFFFFFFFFFFFFFFFFFFFFFFFFFFFFFFFFFF
310
FFFFFFFFFFFFFFFFFFFFFFFFFFFFFFFFFFFFFFFFFFFFFFFFFFFFFFFFFFFFFFFF
310
FFFFFFFFFFFFFFFFFFFFFFFFFFFFFFFFFFFFFFFFFFFFFFFFFFFFFFFFFFFFFFFF
310
FFFFFFFFFFFFFFFFFFFFFFFFFFFFFFFFFFFFFFFFFFFFFFFFFFFFFFFFFFFFFFFF
310
FDFFFFFFFEFFFFFFFEFFFFFFFEFFFFFF05000000060000000700000008000000
310
090000000A0000000B0000000C0000000D0000000E0000000F00000010000000
310
11000000120000001300000014000000150000001600000017000000FEFFFFFF
310
FFFFFFFFFFFFFFFFFFFFFFFFFFFFFFFFFFFFFFFFFFFFFFFFFFFFFFFFFFFFFFFF
310
FFFFFFFFFFFFFFFFFFFFFFFFFFFFFFFFFFFFFFFFFFFFFFFFFFFFFFFFFFFFFFFF
310
FFFFFFFFFFFFFFFFFFFFFFFFFFFFFFFFFFFFFFFFFFFFFFFFFFFFFFFFFFFFFFFF
310
FFFFFFFFFFFFFFFFFFFFFFFFFFFFFFFFFFFFFFFFFFFFFFFFFFFFFFFFFFFFFFFF
310
FFFFFFFFFFFFFFFFFFFFFFFFFFFFFFFFFFFFFFFFFFFFFFFFFFFFFFFFFFFFFFFF
310
FFFFFFFFFFFFFFFFFFFFFFFFFFFFFFFFFFFFFFFFFFFFFFFFFFFFFFFFFFFFFFFF
310
FFFFFFFFFFFFFFFFFFFFFFFFFFFFFFFFFFFFFFFFFFFFFFFFFFFFFFFFFFFFFFFF
310
FFFFFFFFFFFFFFFFFFFFFFFFFFFFFFFFFFFFFFFFFFFFFFFFFFFFFFFFFFFFFFFF
310
FFFFFFFFFFFFFFFFFFFFFFFFFFFFFFFFFFFFFFFFFFFFFFFFFFFFFFFFFFFFFFFF
310
FFFFFFFFFFFFFFFFFFFFFFFFFFFFFFFFFFFFFFFFFFFFFFFFFFFFFFFFFFFFFFFF
310
FFFFFFFFFFFFFFFFFFFFFFFFFFFFFFFFFFFFFFFFFFFFFFFFFFFFFFFFFFFFFFFF
310
FFFFFFFFFFFFFFFFFFFFFFFFFFFFFFFFFFFFFFFFFFFFFFFFFFFFFFFFFFFFFFFF
310
FFFFFFFFFFFFFFFFFFFFFFFFFFFFFFFFFFFFFFFFFFFFFFFFFFFFFFFFFFFFFFFF
310
52006F006F007400200045006E00740072007900000000000000000000000000
310
0000000000000000000000000000000000000000000000000000000000000000
310
16000500FFFFFFFFFFFFFFFF020000000A00030000000000C000000000000046
310
000000000000000000000000F03CF9E69024D20103000000C000000000000000
310
01004F006C006500000000000000000000000000000000000000000000000000
310
0000000000000000000000000000000000000000000000000000000000000000
310
0A000200FFFFFFFFFFFFFFFFFFFFFFFF00000000000000000000000000000000
310
0000000000000000000000000000000000000000000000001400000000000000
310
010043006F006D0070004F0062006A0000000000000000000000000000000000
310
0000000000000000000000000000000000000000000000000000000000000000
310
120002010100000003000000FFFFFFFF00000000000000000000000000000000
310
0000000000000000000000000000000000000000010000004D00000000000000
310
01004F006C006500310030004E00610074006900760065000000000000000000
310
0000000000000000000000000000000000000000000000000000000000000000
310
1A000200FFFFFFFFFFFFFFFFFFFFFFFF00000000000000000000000000000000
310
0000000000000000000000000000000000000000040000002426000000000000
310
FEFFFFFF02000000FEFFFFFFFFFFFFFFFFFFFFFFFFFFFFFFFFFFFFFFFFFFFFFF
310
FFFFFFFFFFFFFFFFFFFFFFFFFFFFFFFFFFFFFFFFFFFFFFFFFFFFFFFFFFFFFFFF
310
FFFFFFFFFFFFFFFFFFFFFFFFFFFFFFFFFFFFFFFFFFFFFFFFFFFFFFFFFFFFFFFF
310
FFFFFFFFFFFFFFFFFFFFFFFFFFFFFFFFFFFFFFFFFFFFFFFFFFFFFFFFFFFFFFFF
310
FFFFFFFFFFFFFFFFFFFFFFFFFFFFFFFFFFFFFFFFFFFFFFFFFFFFFFFFFFFFFFFF
310
FFFFFFFFFFFFFFFFFFFFFFFFFFFFFFFFFFFFFFFFFFFFFFFFFFFFFFFFFFFFFFFF
310
FFFFFFFFFFFFFFFFFFFFFFFFFFFFFFFFFFFFFFFFFFFFFFFFFFFFFFFFFFFFFFFF
310
FFFFFFFFFFFFFFFFFFFFFFFFFFFFFFFFFFFFFFFFFFFFFFFFFFFFFFFFFFFFFFFF
310
FFFFFFFFFFFFFFFFFFFFFFFFFFFFFFFFFFFFFFFFFFFFFFFFFFFFFFFFFFFFFFFF
310
FFFFFFFFFFFFFFFFFFFFFFFFFFFFFFFFFFFFFFFFFFFFFFFFFFFFFFFFFFFFFFFF
310
FFFFFFFFFFFFFFFFFFFFFFFFFFFFFFFFFFFFFFFFFFFFFFFFFFFFFFFFFFFFFFFF
310
FFFFFFFFFFFFFFFFFFFFFFFFFFFFFFFFFFFFFFFFFFFFFFFFFFFFFFFFFFFFFFFF
310
FFFFFFFFFFFFFFFFFFFFFFFFFFFFFFFFFFFFFFFFFFFFFFFFFFFFFFFFFFFFFFFF
310
FFFFFFFFFFFFFFFFFFFFFFFFFFFFFFFFFFFFFFFFFFFFFFFFFFFFFFFFFFFFFFFF
310
FFFFFFFFFFFFFFFFFFFFFFFFFFFFFFFFFFFFFFFFFFFFFFFFFFFFFFFFFFFFFFFF
310
FFFFFFFFFFFFFFFFFFFFFFFFFFFFFFFFFFFFFFFFFFFFFFFFFFFFFFFFFFFFFFFF
310
0100000200000000000000000000000000000000000000000000000000000000
310
0000000000000000000000000000000000000000000000000000000000000000
310
0100FEFF030A0000FFFFFFFF0A00030000000000C00000000000004607000000
310
5042727573680007000000504272757368000700000050427275736800F439B2
310
7100000000000000000000000000000000000000000000000000000000000000
310
0000000000000000000000000000000000000000000000000000000000000000
310
0000000000000000000000000000000000000000000000000000000000000000
310
0000000000000000000000000000000000000000000000000000000000000000
310
0000000000000000000000000000000000000000000000000000000000000000
310
0000000000000000000000000000000000000000000000000000000000000000
310
0000000000000000000000000000000000000000000000000000000000000000
310
0000000000000000000000000000000000000000000000000000000000000000
310
0000000000000000000000000000000000000000000000000000000000000000
310
0000000000000000000000000000000000000000000000000000000000000000
310
0000000000000000000000000000000000000000000000000000000000000000
310
0000000000000000000000000000000000000000000000000000000000000000
310
20260000424D0E260000000000003E00000028000000B40200006E0000000100
310
01000000000000000000130B0000130B00000200000002000000000000FFFFFF
310
FFFFFFFFFFFFFFFFFFFFFFFFFFFFFFFFFFFFFFFFFFFFFFFFFFFFFFFFFFFFFFFF
310
FFFFFFFFFFFFFFFFFFFFFFFFFFFFFFFFFFFFFFFFFFFFFFFFFFFFFFFFFFFFFFFF
310
FFFFFFFFFFFFFFFFFFFFFFFFFFFFFFFFFFFFFFFFFFFFFFFFF000FFFFFFFFFFFF
310
FFFFFFFFFFFFFFFFFFFFFFFFFFFFFFFFFFFFFFFFFFFFFFFFFFFFFFFFFFFFFFFF
310
FFFFFFFFFFFFFFFFFFFFFFFFFFFFFFFFFFFFFFFFFFFFFFFFFFFFFFFFFFFFFFFF
310
FFFFFFFFFFFFFFFFFFFFFFFFFFFFFFFFF000FFFFFFFFFFFFFFFFFFFFFFFFFFFF
310
FFFFFFFFFFFFFFFFFFFFFFFFFFFFFFFFFFFFFFFFFFFFFFFFFFFFFFFFFFFFFFFF
310
FFFFFFFFFFFFFFFFFFFFFFFFFFFFFFFFFFFFFFFFFFFFFFFFFFFFFFFFFFFFFFFF
310
FFFFFFFFFFFFFFFFF000FFFFFFFFFFFFFFFFFFFFFFFFFFFFFFFFFFFFFFFFFFFF
310
FFFFFFFFFFFFFFFFFFFFFFFFFFFFFFFFFFFFFFFFFFFFFFFFFFFFFFFFFFFFFFFF
310
FFFFFFFFFFFFFFFFFFFFFFFFFFFFFFFFFFFFFFFFFFFFFFFFFFFFFFFFFFFFFFFF
310
F000FFFFFFFFFFFFFFFFFFFFFFFFFFFFFFFFFFFFFFFFFFFFFFFFFFFFFFFFFFFF
310
FFFFFFFFFFFFFFFFFFFFFFFFFFFFFFFFFFFFFFFFFFFFFFFFFFFFFFFFFFFFFFFF
310
FFFFFFFFFFFFFFFFFFFFFFFFFFFFFFFFFFFFFFFFFFFFFFFFF000FFFFFFFFFFFF
310
FFFFFFFFFFFFFFFFFFFFFFFFFFFFFFFFFFFFFFFFFFFFFFFFFFFFFFFFFFFFFFFF
310
FFFFFFFFFFFFFFFFFFFFFFFFFFFFFFFFFFFFFFFFFFFFFFFFFFFFFFFFFFFFFFFF
310
FFFFFFFFFFFFFFFFFFFFFFFFFFFFFFFFF000FFFFFFFFFFFFFFFFFFFFFFFFFFFF
310
FFFFFFFFFFFFFFFFFFFFFFFFFFFFFFFFFFFFFFFFFFFFFFFFFFFFFFFFFFFFFFFF
310
FFFFFFFFFFFFFFFFFFFFFFFFFFFFFFFFFFFFFFFFFFFFFFFFFFFFFFFFFFFFFFFF
310
FFFFFFFFFFFFFFFFF000FFFFFFFFFFFFFFFFFFFFFFFFFFFFFFFFFFFFFFFFFFFF
310
FFFFFFFFFFFFFFFFFFFFFFFFFFFFFFFFFFFFFFFFFFFFFFFFFFFFFFFFFFFFFFFF
310
FFFFFFFFFFFFFFFFFFFFFFFFFFFFFFFFFFFFFFFFFFFFFFFFFFFFFFFFFFFFFFFF
310
F000FFFFFFFFFFFFFFFFFFFFFFFFFFFFFFFFFFFFFFFFFFFFFFFFFFFFFFFFFFFF
310
FFFFFFFFFFFFFFFFFFFFFFFFFFFFFFFFFFFFFFFFFFFFFFFFFFFFFFFFFFFFFFFF
310
FFFFFFFFFFFFFFFFFFFFFFFFFFFFFFFFFFFFFFFFFFFFFFFFF000FFFFFFFFFFFF
310
FFFFFFFFFFFFFFFFFFFFFFFFFFFFFFFFFFFFFFFFFFFFFFFFFFFFFFFFFFFFFFFF
310
FFFFFFFFFFFFFFFFFFFFFFFFFFFFFFFFFFFFFFFFFFFFFFFFFFFFFFFFFFFFFFFF
310
FFFFFFFFFFFFFFFFFFFFFFFFFFFFFFFFF000FFFFFFFFFFFFFFFFFFFFFFFFFFFF
310
FFFFFFFFFFFFFFFFFFFFFFFFFFFFFFFFFFFFFFFFFFFFFFFFFFFFFFFFFFFFFFFF
310
FFFFFFFFFFFFFFFFFFFFFFFFFFFFFFFFFFFFFFFFFFFFFFFFFFFFFFFFFFFFFFFF
310
FFFFFFFFFFFFFFFFF000FFFFFFFFFFFFFFFFFFFFFFFFFFFFFFFFFFFFFFFFFFFF
310
FFFFFFFFFFFFFFFFFFFFFFFFFFFFFFFFFFFFFFFFFFFFFFFFFFFFFFFFFFFFFFFF
310
FFFFFFFFFFFFFFFFFFFFFFFFFFFFFFFFFFFFFFFFFFFFFFFFFFFFFFFFFFFFFFFF
310
F000FFFFFFFFFFFFFFFFFFFFFFFFFFFFFFFFFFFFFFFFFFFFFFFFFFFFFFFFFFFF
310
FFFFFFFFFFFFFFFFFFFFFFFFFFFFFFFFFFFFFFFFFFFFFFFFFFFFFFFFFFFFFFFF
310
FFFFFFFFFFFFFFFFFFFFFFFFFFFFFFFFFFFFFFFFFFFFFFFFF000FFFFFFFFFFFF
310
FFFFFFFFFFFFFFFFFFFFFFFFFFFFFFFFFFFFFFFFFFFFFFFFFFFFFFFFFFFFFFFF
310
FFFFFFFFFFFFFFFFFFFFFFFFFFFFFFFFFFFFFFFFFFFFFFFFFFFFFFFFFFFFFFFF
310
FFFFFFFFFFFFFFFFFFFFFFFFFFFFFFFFF000FFFFFFFFFFFFFFFFFFFFFFFFFFFF
310
FFFFFFFFFFFFFFFFFFFFFFFFFFFFFFFFFFFFFFFFFFFFFFFFFFFFFFFFFFFFFFFF
310
FFFFFFFFFFFFFFFFFFFFFFFFFFFFFFFFFFFFFFFFFFFFFFFFFFFFFFFFFFFFFFFF
310
FFFFFFFFFFFFFFFFF000FFFFFFFFFFFFFFFFFFFFFFFFFFFFFFFFFFFFFFFFFFFF
310
FFFFFFFFFFFFFFFFFFFFFFFFFFFFFFFFFFFFFFFFFFFFFFFFFFFFFFFFFFFFFFFF
310
FFFFFFFFFFFFFFFFFFFFFFFFFFFFFFFFFFFFFFFFFFFFFFFFFFFFFFFFFFFFFFFF
310
F000FFFFFFFFFFFFFFFFFFFFFFFFFFFFFFFFFFFFFFFFFFFFFFFFFFFFFFFFFFFF
310
FFFFFFFFFFFFFFFFFFFFFFFFFFFFFFFFFFFFFFFFFFFFFFFFFFFFFFFFFFFFFFFF
310
FFFFFFFFFFFFFFFFFFFFFFFFFFFFFFFFFFFFFFFFFFFFFFFFF000FFFFFFFFFFFF
310
FFFFFFFFFFFFFFFFFFFFFFFFFFFFFFFFFFFFFFFFFFFFFFFFFFFFFFFFFFFFFFFF
310
FFFFFFFFFFFFFFFFFFFFFFFFFFFFFFFFFFFFFFFFFFFFFFFFFFFFFFFFFFFFFFFF
310
FFFFFFFFFFFFFFFFFFFFFFFFFFFFFFFFF000FFFFFFFFFFFFFFFFFFFFFFFFFFFF
310
FFFFFFFFFFFFFFFFFFFFFFFFFFFFFFFFFFFFFFFFFFFFFFFFFFFFFFFFFFFFFFFF
310
FFFFFFFFFFFFFFFFFFFFFFFFFFFFFFFFFFFFFFFFFFFFFFFFFFFFFFFFFFFFFFFF
310
FFFFFFFFFFFFFFFFF000FFFFF80003FFFFFFFFFFFFFFFFFFFFFFFFFFFFFFFFFF
310
FFFFF00007FFFFFFFFFF00007FFFFFF800000000000000007FFFFFFFFFFFFFFF
310
FFFFFFFC001FFFFFFFFFFFFFFC001FFFFFFFFFFFFFFFFFFFFFFFFFFE0007FFFF
310
F000FFFF8000007FFFFFFFF8000FFFFFC0007FFFFF80007FFFFF0000007FFFFF
310
FFF8000007FFFFF800000000000000007FFFFFF0001FFFFFFFFFFFC00001FFFF
310
FFFFFFFFC00001FFFFFFFF000000000003FFFFE000007FFFF000FFFE0000000F
310
FFFFFFF0000FFFFF80007FFFFF80007FFFFC0000001FFFFFFFC0000001FFFFF8
310
00000000000000007FFFFFF0001FFFFFFFFFFE0000003FFFFFFFFFFE0000003F
310
FFFFFF000000000003FFFF0000000FFFF000FFF800000003FFFFFFF00007FFFF
310
80007FFFFF80007FFFF000000007FFFFFF000000003FFFF80000000000000000
310
7FFFFFF0001FFFFFFFFFF80000000FFFFFFFFFF80000000FFFFFFF0000000000
310
03FFFC00000003FFF000FFE000000000FFFFFFF00007FFFF80003FFFFF80007F
310
FFC000000001FFFFFC000000001FFFF800000000000000007FFFFFF0001FFFFF
310
FFFFE000000003FFFFFFFFE000000003FFFFFF000000000003FFF000000000FF
310
F000FF80000000007FFFFFF00007FFFF80003FFFFF80007FFF8000000000FFFF
310
F80000000007FFF800000000000000007FFFFFF0001FFFFFFFFFC000000001FF
310
FFFFFFC000000001FFFFFF000000000003FFC0000000007FF000FF0000000000
310
3FFFFFE00007FFFF00003FFFFF80007FFE00000000003FFFF00000000003FFF8
310
00000000000000007FFFFFF0001FFFFFFFFF8000000000FFFFFFFF8000000000
310
FFFFFF000000000003FF80000000003FF000FE00000000001FFFFFE00003FFFF
310
00003FFFFF80007FFC00000000001FFFE00000000001FFF8000001FFFE000000
310
7FFFFFF0001FFFFFFFFE00000000003FFFFFFE00000000003FFFFF0000000000
310
03FF00000000001FF000FC00000000000FFFFFE00003FFFF00001FFFFF80007F
310
F800000000001FFFC00000000000FFF8000001FFFE0000007FFFFFF0001FFFFF
310
FFFC00000000001FFFFFFC00000000001FFFFF000000000003FE00000000000F
310
F000F8000000000007FFFFE00003FFFF00001FFFFF80007FF800000000000FFF
310
800000000000FFF8000001FFFE0000007FFFFFF0001FFFFFFFF800000000000F
310
FFFFF800000000000FFFFF000000000003FC000000000007F000F80000000000
310
03FFFFC00003FFFE00001FFFFF80007FF0000000000007FF0000000000007FF8
310
000001FFFE0000007FFFFFF0001FFFFFFFF0000000000007FFFFF00000000000
310
07FFFF000000000003F8000000000003F000F0000000000003FFFFC00001FFFE
310
00001FFFFF80007FE0000000000007FE0000000000003FF8000001FFFE000000
310
7FFFFFF0001FFFFFFFF0000000000007FFFFF0000000000007FFFF0000000000
310
03F800001F800003F000E00001FFF00001FFFFC00001FFFE00000FFFFF80007F
310
E00001FFE00003FE00001FFF00003FF8000001FFFE0000007FFFFFF0001FFFFF
310
FFE000003E000003FFFFE000003E000003FFFF000000000003F00001FFF80001
310
F000E00007FFFC0001FFFFC00001FFFE00000FFFFF80007FC0000FFFFC0003FC
310
0000FFFFC0001FF8000001FFFE0000007FFFFFF0001FFFFFFFC00003FFE00001
310
FFFFC00003FFE00001FFFF0001FFFFFFFFF00007FFFE0001F000E0000FFFFF00
310
00FFFF800001FFFC00000FFFFF80007FC0001FFFFE0001FC0001FFFFE0001FF8
310
000001FFFE0000007FFFFFF0001FFFFFFF80000FFFF80000FFFF80000FFFF800
310
00FFFF0003FFFFFFFFE0000FFFFF8000F000C0003FFFFF8000FFFF800000FFFC
310
000007FFFF80007F80003FFFFF0001FC0003FFFFF0001FF8000001FFFE000000
310
7FFFFFF0001FFFFFFF80003FFFFE0000FFFF80003FFFFE0000FFFF0003FFFFFF
310
FFE0003FFFFF8000F000C0003FFFFF8000FFFF800000FFFC000007FFFF80007F
310
80007FFFFF8001F80007FFFFF8000FF8000001FFFE0000007FFFFFF0001FFFFF
310
FF00007FFFFF00007FFF00007FFFFF00007FFF0003FFFFFFFFE0003FFFFFC000
310
F000C0007FFFFFC000FFFF000000FFFC000007FFFF80007F8000FFFFFF8000F8
310
000FFFFFF8000FF8000001FFFE0000007FFFFFF0001FFFFFFF0000FFFFFF8000
310
7FFF0000FFFFFF80007FFF0003FFFFFFFFC0007FFFFFC00070008000FFFFFFC0
310
00FFFF000000FFF8000007FFFF80007F8000FFFFFF8000F8000FFFFFF8000FF8
310
000001FFFE0000007FFFFFF0001FFFFFFE0001FFFFFFC0003FFE0001FFFFFFC0
310
003FFF0003FFFFFFFFC0007FFFFFE00070008000FFFFFFC0007FFF0000007FF8
310
000003FFFF80007F0001FFFFFF8000F8000FFFFFF8000FF8000001FFFE000000
310
7FFFFFF0001FFFFFFE0001FFFFFFC0003FFE0001FFFFFFC0003FFF0003FFFFFF
310
FFC000FFFFFFE00070008000FFFFFFC0007FFF0000007FF8000003FFFF80007F
310
0001FFFFFF8000F8001FFFFFF8000FF8000001FFFE0000007FFFFFF0001FFFFF
310
FE0003FFFFFFE0003FFE0003FFFFFFE0003FFF0003FFFFFFFFC000FFFFFFE000
310
70008000FFFFFFC0007FFE0000007FF8000003FFFF80007F0001FFFFFF8000F0
310
001FFFFFF8000FF8000001FFFE0000007FFFFFF0001FFFFFFC0003FFFFFFE000
310
1FFC0003FFFFFFE0001FFF0003FFFFFFFFC000FFFFFFC00070008000FFFFFF80
310
007FFE0000007FF0000003FFFF80007F0001FFFFFF0000F0001FFFFFF8000FF8
310
000001FFFE0000007FFFFFF0001FFFFFFC0007FFFFFFF0001FFC0007FFFFFFF0
310
001FFF0003FFFFFFFFC000FFFFFFC00070008001FFFFFF0000FFFE0000003FF0
310
000001FFFF80007F0001FFFFFF0000F8001FFFFFF0000FF8000001FFFE000000
310
7FFFFFF0001FFFFFFC0007FFFFFFF0001FFC0007FFFFFFF0001FFF0003FFFFFF
310
FFC001FFFFFF80007000FFFFFFFFFE0000FFFE0008003FF0008001FFFF80007F
310
FFFFFFFFFC0000FFFFFFFFFFE0000FF8000001FFFE0000007FFFFFF0001FFFFF
310
F8000FFFFFFFF8000FF8000FFFFFFFF8000FFF0003FFFFFFFFFFFFFFFFFF0000
310
7000FFFFFFFFFC0000FFFC0008003FF0008001FFFF80007FFFFFFFFFF80001FF
310
FFFFFFFF80000FF8000001FFFE0000007FFFFFF0001FFFFFF8000FFFFFFFF800
310
0FF8000FFFFFFFF8000FFF0003FFFFFFFFFFFFFFFFFE0000F000FFFFFFFFE000
310
00FFFC000C003FE000C001FFFF80007FFFFFFFFFC00001FFFFFFFFFE00001FF8
310
000001FFFE0000007FFFFFF0001FFFFFF8000FFFFFFFF8000FF8000FFFFFFFF8
310
000FFF0003FFFFFFFFFFFFFFFFF00000F000FFFFFFFE000001FFFC000C001FE0
310
00C000FFFF80007FFFFFFFFE000001FFFFFFFFE000001FF80FFFFFFFFFFFFFC0
310
7FFFFFF0001FFFFFF8000FFFFFFFF8000FF8000FFFFFFFF8000FFF0003FFFFFF
310
FFFFFFFFFF800000F000FFFFFFC0000001FFFC001C001FE001C000FFFF80007F
310
FFFFFF80000003FFFFFFF80000001FF80FFFFFFFFFFFFFC07FFFFFF0001FFFFF
310
F8001FFFFFFFFC000FF8001FFFFFFFFC000FFF0003FFFFFFFFFFFFFFF0000001
310
F000FFFFF800000001FFF8001C001FE001C000FFFF80007FFFFFF800000003FF
310
FFFF800000003FF80FFFFFFFFFFFFFC07FFFFFF0001FFFFFF8001FFFFFFFFC00
310
0FF8001FFFFFFFFC000FFF0003FFFFFFFFFFFFFE00000001F000FFFFC0000000
310
03FFF8001E001FC001E000FFFF80007FFFFF8000000007FFFFFC000000003FF8
310
0FFFFFFFFFFFFFC07FFFFFF0001FFFFFF8001FFFFFFFFC000FF8001FFFFFFFFC
310
000FFF0003FFFFFFFFFFFFE000000003F000FFFE0000000007FFF8001E000FC0
310
01E0007FFF80007FFFFE0000000007FFFFE0000000007FF80FFFFFFFFFFFFFC0
310
7FFFFFF0001FFFFFF0001FFFFFFFFC0007F0001FFFFFFFFC0007FF0003FFFFFF
310
FFFFFF0000000003F000FFF80000000007FFF8001E000FC003E0007FFF80007F
310
FFF0000000000FFFFF8000000000FFF80FFFFFFFFFFFFFC07FFFFFF0001FFFFF
310
F0001FFFFFFFFC0007F0001FFFFFFFFC0007FF0003FFFFFFFFFFFC0000000007
310
F000FFE0000000000FFFF0003E000FC003E0007FFF80007FFFC0000000001FFF
310
FE0000000001FFF80FFFFFFFFFFFFFC07FFFFFF0001FFFFFF0001FFFFFFFFC00
310
07F0001FFFFFFFFC0007FF0003FFFFFFFFFFF0000000000FF000FFC000000000
310
1FFFF0003F000F8003F0003FFF80007FFF80000000003FFFF80000000003FFF8
310
0FFFFFFFFFFFFFC07FFFFFF0001FFFFFF0001FFFFFFFFC0007F0001FFFFFFFFC
310
0007FF0003FFFFFFFFFFE0000000001FF000FF00000000007FFFF0003F000780
310
03F0003FFF80007FFF00000000007FFFF00000000007FFF80FFFFFFFFFFFFFC0
310
7FFFFFF0001FFFFFF0001FFFFFFFFC0007F0001FFFFFFFFC0007FF0003FFFFFF
310
FFFF80000000007FF000FE0000000000FFFFE0003F00078007F0003FFF80007F
310
FE0000000001FFFFE0000000001FFFF80FFFFFFFFFFFFFC07FFFFFF0001FFFFF
310
F0001FFFFFFFFC0007F0001FFFFFFFFC0007FF0003FFFFFFFFFF0000000000FF
310
F000FC0000000003FFFFE0007F00078007F0003FFF80007FFC0000000007FFFF
310
C0000000007FFFF80FFFFFFFFFFFFFC07FFFFFF0001FFFFFF8001FFFFFFFFC00
310
0FF8001FFFFFFFFC000FFF0003FFFFFFFFFE0000000003FFF000FC000000000F
310
FFFFE0007F80070007F8001FFF80007FF8000000001FFFFF8000000001FFFFF8
310
0FFFFFFFFFFFFFC07FFFFFF0001FFFFFF8001FFFFFFFFC000FF8001FFFFFFFFC
310
000FFF0003FFFFFFFFFC000000000FFFF000F8000000007FFFFFE0007F800700
310
07F8001FFF80007FF000000000FFFFFF800000000FFFFFF80FFFFFFFFFFFFFC0
310
7FFFFFF0001FFFFFF8000FFFFFFFF8000FF8000FFFFFFFF8000FFF0003FFFFFF
310
FFFC000000007FFFF000F800000007FFFFFFC0007F8003000FF8001FFF80007F
310
F000000007FFFFFF000000007FFFFFF80FFFFFFFFFFFFFC07FFFFFF0001FFFFF
310
F8000FFFFFFFF8000FF8000FFFFFFFF8000FFF0003FFFFFFFFF80000000FFFFF
310
F000F0000000FFFFFFFFC000FF8003000FF8001FFF80007FE0000000FFFFFFFF
310
0000000FFFFFFFF8000001FFFE0000007FFFFFF0001FFFFFF8000FFFFFFFF800
310
0FF8000FFFFFFFF8000FFF0003FFFFFFFFF8000000FFFFFFF000F000000FFFFF
310
FFFFC000FFC002000FF8000FFF80007FE000001FFFFFFFFE000001FFFFFFFFF8
310
000001FFFE0000007FFFFFF0001FFFFFF8000FFFFFFFF8000FF8000FFFFFFFF8
310
000FFF0003FFFFFFFFF000001FFFFFFFF000E00000FFFFFFFFFFC000FFC00200
310
0FFC000FFF80007FE00001FFFFFFFFFE00001FFFFFFFFFF8000001FFFE000000
310
7FFFFFF0001FFFFFFC000FFFFFFFF8001FFC000FFFFFFFF8001FFF0003FFFFFF
310
FFF00001FFFFFFFFF000E00007FFFFFFFFFF8000FFC000001FFC000FFF80007F
310
C0000FFFFFFFFFFE0000FFFFFFFFFFF8000001FFFE0000007FFFFFF0001FFFFF
310
FC0007FFFFFFF0001FFC0007FFFFFFF0001FFF0003FFFFFFFFF00007FFFFFFFF
310
F000E0001FFFFFFFFFFF8000FFC000001FFC000FFF80007FC0003FFFFFFFFFFE
310
0001FFFFFFFFFFF8000001FFFE0000007FFFFFF0001FFFFFFC0007FFFFFFF000
310
1FFC0007FFFFFFF0001FFF0003FFFFFFFFF0001FFFFFFFFFF000E0003FFFFF00
310
03FF8001FFE000001FFC0007FF80007FC0007FFFFF0007FC0003FFFFF0003FF8
310
000001FFFE0000007FFFFFF0001FFFFFFC0003FFFFFFE0001FFC0003FFFFFFE0
310
001FFF0003FFFFFFFFF0003FFFFFFFFFF000E0003FFFFF0001FF8001FFE00000
310
1FFE0007FF80007FC0007FFFFE0003FC0007FFFFE0003FF8000001FFFE000000
310
7FFFFFF0001FFFFFFE0003FFFFFFE0003FFE0003FFFFFFE0003FFF0003FFFFFF
310
FFF0003FFFFF8001F000E0003FFFFF0001FF0001FFE000001FFE0007FF80007F
310
C0007FFFFE0003FC0007FFFFE0003FF8000001FFFE0000007FFFFFF0001FFFFF
310
FE0001FFFFFFC0003FFE0001FFFFFFC0003FFF0003FFFFFFFFF0003FFFFF0001
310
F000E0003FFFFF0003FF0001FFE000003FFE0007FF80007FC0007FFFFE0003FC
310
0007FFFFE0003FF8000001FFFE0000007FFFFFF0001FFFFFFF0001FFFFFFC000
310
7FFF0001FFFFFFC0007FFF0003FFFFFFFFF0003FFFFF0001F000E0003FFFFE00
310
03FF0003FFF000003FFE0003FF80007FC0007FFFFC0003FE0007FFFFE0003FF8
310
000001FFFE0000007FFFFFF0001FFFFFFF0000FFFFFF80007FFF0000FFFFFF80
310
007FFF0003FFFFFFFFF0003FFFFF0001F000E0003FFFFE0003FF0003FFF00000
310
3FFF0003FF80007FC0007FFFFC0007FE0007FFFFC0003FF8000001FFFE000000
310
7FFFFFF0001FFFFFFF80007FFFFF0000FFFF80007FFFFF0000FFFF0003FFFFFF
310
FFF0003FFFFF0003F000E0003FFFFC0003FE0003FFF000003FFF0003FF80007F
310
E0003FFFF80007FE0003FFFFC0007FF8000001FFFE0000007FFFFFF0001FFFFF
310
FF80003FFFFE0000FFFF80003FFFFE0000FFFF0003FFFFFFFFF0001FFFFE0003
310
F000F0001FFFF80003FE0003FFF000007FFF0001FF80007FE0003FFFF00007FE
310
0001FFFF80007FF8000001FFFE0000007FFFFFF0001FFFFFFFC0000FFFF80001
310
FFFFC0000FFFF80001FFFF0003FFFFFFFFF0001FFFFC0003F000F0000FFFF000
310
07FE0007FFF800007FFF0001FF80007FE0001FFFE00007FF0000FFFE00007FF8
310
000001FFFE0000007FFFFFF0001FFFFFFFC00003FFE00001FFFFC00003FFE000
310
01FFFF0003FFFFFFFFF8000FFFF80003F000F00003FFC00007FC0007FFF80000
310
7FFF8001FF80007FF00007FF80000FFF00007FF80000FFF8000001FFFE000000
310
7F80000000000001FFE000003E000003FFFFE000003E000003FFFF0003FFFFFF
310
FFF80003FFE00007F000F800000000000FFC0007FFF800007FFF8001FF80007F
310
F000000000000FFF000000000000FFF8000001FFFE0000007F80000000000001
310
FFF0000000000007FFFFF0000000000007FFFF0003FFFFFFFFFC00007E000007
310
F000F800000000000FFC0007FFF80000FFFF8000FF80007FF800000000001FFF
310
800000000001FFF8000001FFFE0000007F80000000000001FFF800000000000F
310
FFFFF800000000000FFFFF0003FFFFFFFFFC00000000000FF000FC0000000000
310
1FFC0007FFFC0000FFFF8000FF80007FF800000000003FFFC00000000001FFF8
310
000001FFFE0000007F80000000000001FFF800000000000FFFFFF80000000000
310
0FFFFF0003FFFFFFFFFE00000000001FF000FE00000000003FF8000FFFFC0000
310
FFFF8000FF80007FFC00000000003FFFC00000000003FFF8000001FFFE000000
310
7F80000000000001FFFC00000000001FFFFFFC00000000001FFFFF0003FFFFFF
310
FFFF00000000001FF000FF00000000003FF8000FFFFC0000FFFFC000FF80007F
310
FE00000000007FFFE00000000007FFF8000001FFFE0000007F80000000000001
310
FFFE00000000003FFFFFFE00000000003FFFFF0003FFFFFFFFFF80000000003F
310
F000FF80000000007FF8000FFFFC0001FFFFC0007F80007FFF0000000000FFFF
310
F0000000000FFFF800000000000000007F80000000000001FFFF8000000000FF
310
FFFFFF8000000000FFFFFF0003FFFFFFFFFFC0000000007FF000FFC000000000
310
FFF8000FFFFE0001FFFFC0007F80007FFF8000000001FFFFF8000000001FFFF8
310
00000000000000007F80000000000001FFFFC000000001FFFFFFFFC000000001
310
FFFFFF0003FFFFFFFFFFE000000000FFF000FFE000000003FFF0001FFFFE0001
310
FFFFC0007F80007FFFC000000007FFFFFE000000003FFFF80000000000000000
310
7F80000000000001FFFFE000000003FFFFFFFFE000000003FFFFFF0003FFFFFF
310
FFFFF000000003FFF000FFF80000000FFFF0001FFFFE0001FFFFE0007F80007F
310
FFF00000000FFFFFFF00000000FFFFF800000000000000007F80000000000001
310
FFFFF80000000FFFFFFFFFF80000000FFFFFFF0003FFFFFFFFFFFC0000000FFF
310
F000FFFE0000003FFFF0001FFFFE0003FFFFE0003F80007FFFFC0000003FFFFF
310
FFC0000003FFFFF800000000000000007F80000000000001FFFFFE0000003FFF
310
FFFFFFFE0000003FFFFFFF0003FFFFFFFFFFFF0000003FFFF000FFFF800000FF
310
FFF0001FFFFF0003FFFFE0003F80007FFFFF000001FFFFFFFFF800001FFFFFF8
310
00000000000000007F80000000000001FFFFFFC00001FFFFFFFFFFFFC00001FF
310
FFFFFF0003FFFFFFFFFFFFC00000FFFFF000FFFFF8000FFFFFFFFFFFFFFFFFFF
310
FFFFFFFFFFFFFFFFFFFFF0001FFFFFFFFFFF0000FFFFFFF80000000000000000
310
7FFFFFFFFFFFFFFFFFFFFFFC001FFFFFFFFFFFFFFC001FFFFFFFFFFFFFFFFFFF
310
FFFFFFFC001FFFFFF000FFFFFFFFFFFFFFFFFFFFFFFFFFFFFFFFFFFFFFFFFFFF
310
FFFFFFFFFFFFFFFFFFFFFFFFFFFFFFFFFFFFFFFFFFFFFFFFFFFFFFFFFFFFFFFF
310
FFFFFFFFFFFFFFFFFFFFFFFFFFFFFFFFFFFFFFFFFFFFFFFFFFFFFFFFFFFFFFFF
310
F000FFFFFFFFFFFFFFFFFFFFFFFFFFFFFFFFFFFFFFFFFFFFFFFFFFFFFFFFFFFF
310
FFFFFFFFFFFFFFFFFFFFFFFFFFFFFFFFFFFFFFFFFFFFFFFFFFFFFFFFFFFFFFFF
310
FFFFFFFFFFFFFFFFFFFFFFFFFFFFFFFFFFFFFFFFFFFFFFFFF000FFFFFFFFFFFF
310
FFFFFFFFFFFFFFFFFFFFFFFFFFFFFFFFFFFFFFFFFFFFFFFFFFFFFFFFFFFFFFFF
310
FFFFFFFFFFFFFFFFFFFFFFFFFFFFFFFFFFFFFFFFFFFFFFFFFFFFFFFFFFFFFFFF
310
FFFFFFFFFFFFFFFFFFFFFFFFFFFFFFFFF000FFFFFFFFFFFFFFFFFFFFFFFFFFFF
310
FFFFFFFFFFFFFFFFFFFFFFFFFFFFFFFFFFFFFFFFFFFFFFFFFFFFFFFFFFFFFFFF
310
FFFFFFFFFFFFFFFFFFFFFFFFFFFFFFFFFFFFFFFFFFFFFFFFFFFFFFFFFFFFFFFF
310
FFFFFFFFFFFFFFFFF000FFFFFFFFFFFFFFFFFFFFFFFFFFFFFFFFFFFFFFFFFFFF
310
FFFFFFFFFFFFFFFFFFFFFFFFFFFFFFFFFFFFFFFFFFFFFFFFFFFFFFFFFFFFFFFF
310
FFFFFFFFFFFFFFFFFFFFFFFFFFFFFFFFFFFFFFFFFFFFFFFFFFFFFFFFFFFFFFFF
310
F000FFFFFFFFFFFFFFFFFFFFFFFFFFFFFFFFFFFFFFFFFFFFFFFFFFFFFFFFFFFF
310
FFFFFFFFFFFFFFFFFFFFFFFFFFFFFFFFFFFFFFFFFFFFFFFFFFFFFFFFFFFFFFFF
310
FFFFFFFFFFFFFFFFFFFFFFFFFFFFFFFFFFFFFFFFFFFFFFFFF000FFFFFFFFFFFF
310
FFFFFFFFFFFFFFFFFFFFFFFFFFFFFFFFFFFFFFFFFFFFFFFFFFFFFFFFFFFFFFFF
310
FFFFFFFFFFFFFFFFFFFFFFFFFFFFFFFFFFFFFFFFFFFFFFFFFFFFFFFFFFFFFFFF
310
FFFFFFFFFFFFFFFFFFFFFFFFFFFFFFFFF000FFFFFFFFFFFFFFFFFFFFFFFFFFFF
310
FFFFFFFFFFFFFFFFFFFFFFFFFFFFFFFFFFFFFFFFFFFFFFFFFFFFFFFFFFFFFFFF
310
FFFFFFFFFFFFFFFFFFFFFFFFFFFFFFFFFFFFFFFFFFFFFFFFFFFFFFFFFFFFFFFF
310
FFFFFFFFFFFFFFFFF000FFFFFFFFFFFFFFFFFFFFFFFFFFFFFFFFFFFFFFFFFFFF
310
FFFFFFFFFFFFFFFFFFFFFFFFFFFFFFFFFFFFFFFFFFFFFFFFFFFFFFFFFFFFFFFF
310
FFFFFFFFFFFFFFFFFFFFFFFFFFFFFFFFFFFFFFFFFFFFFFFFFFFFFFFFFFFFFFFF
310
F000FFFFFFFFFFFFFFFFFFFFFFFFFFFFFFFFFFFFFFFFFFFFFFFFFFFFFFFFFFFF
310
FFFFFFFFFFFFFFFFFFFFFFFFFFFFFFFFFFFFFFFFFFFFFFFFFFFFFFFFFFFFFFFF
310
FFFFFFFFFFFFFFFFFFFFFFFFFFFFFFFFFFFFFFFFFFFFFFFFF000FFFFFFFFFFFF
310
FFFFFFFFFFFFFFFFFFFFFFFFFFFFFFFFFFFFFFFFFFFFFFFFFFFFFFFFFFFFFFFF
310
FFFFFFFFFFFFFFFFFFFFFFFFFFFFFFFFFFFFFFFFFFFFFFFFFFFFFFFFFFFFFFFF
310
FFFFFFFFFFFFFFFFFFFFFFFFFFFFFFFFF000FFFFFFFFFFFFFFFFFFFFFFFFFFFF
310
FFFFFFFFFFFFFFFFFFFFFFFFFFFFFFFFFFFFFFFFFFFFFFFFFFFFFFFFFFFFFFFF
310
FFFFFFFFFFFFFFFFFFFFFFFFFFFFFFFFFFFFFFFFFFFFFFFFFFFFFFFFFFFFFFFF
310
FFFFFFFFFFFFFFFFF000FFFFFFFFFFFFFFFFFFFFFFFFFFFFFFFFFFFFFFFFFFFF
310
FFFFFFFFFFFFFFFFFFFFFFFFFFFFFFFFFFFFFFFFFFFFFFFFFFFFFFFFFFFFFFFF
310
FFFFFFFFFFFFFFFFFFFFFFFFFFFFFFFFFFFFFFFFFFFFFFFFFFFFFFFFFFFFFFFF
310
F000FFFFFFFFFFFFFFFFFFFFFFFFFFFFFFFFFFFFFFFFFFFFFFFFFFFFFFFFFFFF
310
FFFFFFFFFFFFFFFFFFFFFFFFFFFFFFFFFFFFFFFFFFFFFFFFFFFFFFFFFFFFFFFF
310
FFFFFFFFFFFFFFFFFFFFFFFFFFFFFFFFFFFFFFFFFFFFFFFFF000FFFFFFFFFFFF
310
FFFFFFFFFFFFFFFFFFFFFFFFFFFFFFFFFFFFFFFFFFFFFFFFFFFFFFFFFFFFFFFF
310
FFFFFFFFFFFFFFFFFFFFFFFFFFFFFFFFFFFFFFFFFFFFFFFFFFFFFFFFFFFFFFFF
310
FFFFFFFFFFFFFFFFFFFFFFFFFFFFFFFFF000FFFFFFFFFFFFFFFFFFFFFFFFFFFF
310
FFFFFFFFFFFFFFFFFFFFFFFFFFFFFFFFFFFFFFFFFFFFFFFFFFFFFFFFFFFFFFFF
310
FFFFFFFFFFFFFFFFFFFFFFFFFFFFFFFFFFFFFFFFFFFFFFFFFFFFFFFFFFFFFFFF
310
FFFFFFFFFFFFFFFFF000FFFFFFFFFFFFFFFFFFFFFFFFFFFFFFFFFFFFFFFFFFFF
310
FFFFFFFFFFFFFFFFFFFFFFFFFFFFFFFFFFFFFFFFFFFFFFFFFFFFFFFFFFFFFFFF
310
FFFFFFFFFFFFFFFFFFFFFFFFFFFFFFFFFFFFFFFFFFFFFFFFFFFFFFFFFFFFFFFF
310
F000FFFFFFFFFFFFFFFFFFFFFFFFFFFFFFFFFFFFFFFFFFFFFFFFFFFFFFFFFFFF
310
FFFFFFFFFFFFFFFFFFFFFFFFFFFFFFFFFFFFFFFFFFFFFFFFFFFFFFFFFFFFFFFF
310
FFFFFFFFFFFFFFFFFFFFFFFFFFFFFFFFFFFFFFFFFFFFFFFFF000FFFFFFFFFFFF
310
FFFFFFFFFFFFFFFFFFFFFFFFFFFFFFFFFFFFFFFFFFFFFFFFFFFFFFFFFFFFFFFF
310
FFFFFFFFFFFFFFFFFFFFFFFFFFFFFFFFFFFFFFFFFFFFFFFFFFFFFFFFFFFFFFFF
310
FFFFFFFFFFFFFFFFFFFFFFFFFFFFFFFFF000FFFFFFFFFFFFFFFFFFFFFFFFFFFF
310
FFFFFFFFFFFFFFFFFFFFFFFFFFFFFFFFFFFFFFFFFFFFFFFFFFFFFFFFFFFFFFFF
310
FFFFFFFFFFFFFFFFFFFFFFFFFFFFFFFFFFFFFFFFFFFFFFFFFFFFFFFFFFFFFFFF
310
FFFFFFFFFFFFFFFFF000FFFFFFFFFFFFFFFFFFFFFFFFFFFFFFFFFFFFFFFFFFFF
310
FFFFFFFFFFFFFFFFFFFFFFFFFFFFFFFFFFFFFFFFFFFFFFFFFFFFFFFFFFFFFFFF
310
FFFFFFFFFFFFFFFFFFFFFFFFFFFFFFFFFFFFFFFFFFFFFFFFFFFFFFFFFFFFFFFF
310
F000FFFFFFFFFFFFFFFFFFFFFFFFFFFFFFFFFFFFFFFFFFFFFFFFFFFFFFFFFFFF
310
FFFFFFFFFFFFFFFFFFFFFFFFFFFFFFFFFFFFFFFFFFFFFFFFFFFFFFFFFFFFFFFF
310
FFFFFFFFFFFFFFFFFFFFFFFFFFFFFFFFFFFFFFFFFFFFFFFFF000FFFFFFFFFFFF
310
FFFFFFFFFFFFFFFFFFFFFFFFFFFFFFFFFFFFFFFFFFFFFFFFFFFFFFFFFFFFFFFF
310
FFFFFFFFFFFFFFFFFFFFFFFFFFFFFFFFFFFFFFFFFFFFFFFFFFFFFFFFFFFFFFFF
310
FFFFFFFFFFFFFFFFFFFFFFFFFFFFFFFFF0000000000000000000000000000000
310
0000000000000000000000000000000000000000000000000000000000000000
310
0000000000000000000000000000000000000000000000000000000000000000
310
0000000000000000000000000000000000000000000000000000000000000000
310
0000000000000000000000000000000000000000000000000000000000000000
310
0000000000000000000000000000000000000000000000000000000000000000
310
0000000000000000000000000000000000000000000000000000000000000000
310
0000000000000000000000000000000000000000000000000000000000000000
310
0000000000000000000000000000000000000000000000000000000000000000
310
0000000000000000000000000000000000000000000000000000000000000000
310
0000000000000000000000000000000000000000000000000000000000000000
310
0000000000000000000000000000000000000000000000000000000000000000
310
0000000000000000000000000000000000000000000000000000000000000000
310
0000000000000000000000000000000000000000000000000000000000000000
310
0000000000000000000000000000000000000000000000000000000000000000
310
0000000000000000000000000000000000000000000000000000000000000000
  1
OLE
  0
ENDSEC
  0
SECTION
  2
OBJECTS
  0
DICTIONARY
  5
C
330
0
100
AcDbDictionary
281
     1
  3
ACAD_GROUP
350
D
  3
ACAD_LAYOUT
350
1A
  3
ACAD_MLINESTYLE
350
17
  3
ACAD_PLOTSETTINGS
350
19
  3
ACAD_PLOTSTYLENAME
350
E
  3
ACAD_SCALELIST
350
47
  0
DICTIONARY
  5
D
102
{ACAD_REACTORS
330
C
102
}
330
C
100
AcDbDictionary
281
     1
  0
DICTIONARY
  5
1A
102
{ACAD_REACTORS
330
C
102
}
330
C
100
AcDbDictionary
281
     1
  3
Layout1
350
1E
  3
Layout2
350
26
  3
Model
350
22
  0
DICTIONARY
  5
17
102
{ACAD_REACTORS
330
C
102
}
330
C
100
AcDbDictionary
281
     1
  3
Standard
350
18
  0
DICTIONARY
  5
19
102
{ACAD_REACTORS
330
C
102
}
330
C
100
AcDbDictionary
281
     1
  0
ACDBDICTIONARYWDFLT
  5
E
102
{ACAD_REACTORS
330
C
102
}
330
C
100
AcDbDictionary
281
     1
  3
Normal
350
F
100
AcDbDictionaryWithDefault
340
F
  0
DICTIONARY
  5
47
102
{ACAD_REACTORS
330
C
102
}
330
C
100
AcDbDictionary
281
     1
  3
A0
350
48
  3
A1
350
49
  3
A2
350
4A
  3
A3
350
4B
  3
A4
350
4C
  3
A5
350
4D
  3
A6
350
4E
  3
A7
350
4F
  3
A8
350
50
  3
A9
350
51
  3
B0
350
52
  3
B1
350
53
  3
B2
350
54
  3
B3
350
55
  3
B4
350
56
  3
B5
350
57
  3
B6
350
58
  3
B7
350
59
  3
B8
350
5A
  3
B9
350
5B
  3
C0
350
5C
  3
C1
350
5D
  3
C2
350
5E
  3
C3
350
5F
  3
C4
350
60
  3
C5
350
61
  3
C6
350
62
  3
C7
350
63
  3
C8
350
64
  3
C9
350
65
  3
D0
350
66
  3
D1
350
67
  3
D2
350
68
  0
LAYOUT
  5
1E
102
{ACAD_REACTORS
330
1A
102
}
330
1A
100
AcDbPlotSettings
  1

  2
none_device
  4

  6

 40
0.0
 41
0.0
 42
0.0
 43
0.0
 44
0.0
 45
0.0
 46
0.0
 47
0.0
 48
0.0
 49
0.0
140
0.0
141
0.0
142
1.0
143
1.0
 70
   688
 72
     1
 73
     0
 74
     5
  7

 75
    16
147
1.0
148
0.0
149
0.0
100
AcDbLayout
  1
Layout1
 70
     1
 71
     1
 10
0.0
 20
0.0
 11
420.0
 21
297.0
 12
0.0
 22
0.0
 32
0.0
 14
1.0000000000E+20
 24
1.0000000000E+20
 34
1.0000000000E+20
 15
-1.0000000000E+20
 25
-1.0000000000E+20
 35
-1.0000000000E+20
146
0.0
 13
0.0
 23
0.0
 33
0.0
 16
1.0
 26
0.0
 36
0.0
 17
0.0
 27
1.0
 37
0.0
 76
     0
330
1B
  0
LAYOUT
  5
26
102
{ACAD_REACTORS
330
1A
102
}
330
1A
100
AcDbPlotSettings
  1

  2
none_device
  4

  6

 40
0.0
 41
0.0
 42
0.0
 43
0.0
 44
0.0
 45
0.0
 46
0.0
 47
0.0
 48
0.0
 49
0.0
140
0.0
141
0.0
142
1.0
143
1.0
 70
   688
 72
     1
 73
     0
 74
     5
  7

 75
    16
147
1.0
148
0.0
149
0.0
100
AcDbLayout
  1
Layout2
 70
     1
 71
     2
 10
0.0
 20
0.0
 11
0.0
 21
0.0
 12
0.0
 22
0.0
 32
0.0
 14
0.0
 24
0.0
 34
0.0
 15
0.0
 25
0.0
 35
0.0
146
0.0
 13
0.0
 23
0.0
 33
0.0
 16
1.0
 26
0.0
 36
0.0
 17
0.0
 27
1.0
 37
0.0
 76
     0
330
23
  0
LAYOUT
  5
22
102
{ACAD_REACTORS
330
1A
102
}
330
1A
100
AcDbPlotSettings
  1

  2
none_device
  4
Letter_(8.50_x_11.00_Inches)
  6

 40
6.35
 41
6.35
 42
6.35000508
 43
6.35000508
 44
215.9
 45
279.4
 46
0.0
 47
0.0
 48
0.0
 49
0.0
140
0.0
141
0.0
142
1.0
143
1.0
 70
  1712
 72
     1
 73
     0
 74
     0
  7

 75
     0
147
1.0
148
0.0
149
0.0
100
AcDbLayout
  1
Model
 70
     1
 71
     0
 10
0.0
 20
0.0
 11
297.0
 21
210.0
 12
0.0
 22
0.0
 32
0.0
 14
0.0
 24
0.0
 34
0.0
 15
297.0
 25
210.0
 35
0.0
146
0.0
 13
0.0
 23
0.0
 33
0.0
 16
1.0
 26
0.0
 36
0.0
 17
0.0
 27
1.0
 37
0.0
 76
     0
330
1F
331
29
  0
MLINESTYLE
  5
18
102
{ACAD_REACTORS
330
17
102
}
330
17
100
AcDbMlineStyle
  2
Standard
 70
     0
  3

 62
   256
 51
90.0
 52
90.0
 71
     2
 49
0.5
 62
   256
  6
BYLAYER
 49
-0.5
 62
   256
  6
BYLAYER
  0
ACDBPLACEHOLDER
  5
F
102
{ACAD_REACTORS
330
E
102
}
330
E
  0
SCALE
  5
48
102
{ACAD_REACTORS
330
47
102
}
330
47
100
AcDbScale
 70
     0
300
1:1
140
1.0
141
1.0
290
     1
  0
SCALE
  5
49
102
{ACAD_REACTORS
330
47
102
}
330
47
100
AcDbScale
 70
     0
300
1:2
140
1.0
141
2.0
290
     0
  0
SCALE
  5
4A
102
{ACAD_REACTORS
330
47
102
}
330
47
100
AcDbScale
 70
     0
300
1:4
140
1.0
141
4.0
290
     0
  0
SCALE
  5
4B
102
{ACAD_REACTORS
330
47
102
}
330
47
100
AcDbScale
 70
     0
300
1:5
140
1.0
141
5.0
290
     0
  0
SCALE
  5
4C
102
{ACAD_REACTORS
330
47
102
}
330
47
100
AcDbScale
 70
     0
300
1:8
140
1.0
141
8.0
290
     0
  0
SCALE
  5
4D
102
{ACAD_REACTORS
330
47
102
}
330
47
100
AcDbScale
 70
     0
300
1:10
140
1.0
141
10.0
290
     0
  0
SCALE
  5
4E
102
{ACAD_REACTORS
330
47
102
}
330
47
100
AcDbScale
 70
     0
300
1:16
140
1.0
141
16.0
290
     0
  0
SCALE
  5
4F
102
{ACAD_REACTORS
330
47
102
}
330
47
100
AcDbScale
 70
     0
300
1:20
140
1.0
141
20.0
290
     0
  0
SCALE
  5
50
102
{ACAD_REACTORS
330
47
102
}
330
47
100
AcDbScale
 70
     0
300
1:30
140
1.0
141
30.0
290
     0
  0
SCALE
  5
51
102
{ACAD_REACTORS
330
47
102
}
330
47
100
AcDbScale
 70
     0
300
1:40
140
1.0
141
40.0
290
     0
  0
SCALE
  5
52
102
{ACAD_REACTORS
330
47
102
}
330
47
100
AcDbScale
 70
     0
300
1:50
140
1.0
141
50.0
290
     0
  0
SCALE
  5
53
102
{ACAD_REACTORS
330
47
102
}
330
47
100
AcDbScale
 70
     0
300
1:100
140
1.0
141
100.0
290
     0
  0
SCALE
  5
54
102
{ACAD_REACTORS
330
47
102
}
330
47
100
AcDbScale
 70
     0
300
2:1
140
2.0
141
1.0
290
     0
  0
SCALE
  5
55
102
{ACAD_REACTORS
330
47
102
}
330
47
100
AcDbScale
 70
     0
300
4:1
140
4.0
141
1.0
290
     0
  0
SCALE
  5
56
102
{ACAD_REACTORS
330
47
102
}
330
47
100
AcDbScale
 70
     0
300
8:1
140
8.0
141
1.0
290
     0
  0
SCALE
  5
57
102
{ACAD_REACTORS
330
47
102
}
330
47
100
AcDbScale
 70
     0
300
10:1
140
10.0
141
1.0
290
     0
  0
SCALE
  5
58
102
{ACAD_REACTORS
330
47
102
}
330
47
100
AcDbScale
 70
     0
300
100:1
140
100.0
141
1.0
290
     0
  0
SCALE
  5
59
102
{ACAD_REACTORS
330
47
102
}
330
47
100
AcDbScale
 70
     0
300
1/128" = 1'-0"
140
0.0078125
141
12.0
290
     0
  0
SCALE
  5
5A
102
{ACAD_REACTORS
330
47
102
}
330
47
100
AcDbScale
 70
     0
300
1/64" = 1'-0"
140
0.015625
141
12.0
290
     0
  0
SCALE
  5
5B
102
{ACAD_REACTORS
330
47
102
}
330
47
100
AcDbScale
 70
     0
300
1/32" = 1'-0"
140
0.03125
141
12.0
290
     0
  0
SCALE
  5
5C
102
{ACAD_REACTORS
330
47
102
}
330
47
100
AcDbScale
 70
     0
300
1/16" = 1'-0"
140
0.0625
141
12.0
290
     0
  0
SCALE
  5
5D
102
{ACAD_REACTORS
330
47
102
}
330
47
100
AcDbScale
 70
     0
300
3/32" = 1'-0"
140
0.09375
141
12.0
290
     0
  0
SCALE
  5
5E
102
{ACAD_REACTORS
330
47
102
}
330
47
100
AcDbScale
 70
     0
300
1/8" = 1'-0"
140
0.125
141
12.0
290
     0
  0
SCALE
  5
5F
102
{ACAD_REACTORS
330
47
102
}
330
47
100
AcDbScale
 70
     0
300
3/16" = 1'-0"
140
0.1875
141
12.0
290
     0
  0
SCALE
  5
60
102
{ACAD_REACTORS
330
47
102
}
330
47
100
AcDbScale
 70
     0
300
1/4" = 1'-0"
140
0.25
141
12.0
290
     0
  0
SCALE
  5
61
102
{ACAD_REACTORS
330
47
102
}
330
47
100
AcDbScale
 70
     0
300
3/8" = 1'-0"
140
0.375
141
12.0
290
     0
  0
SCALE
  5
62
102
{ACAD_REACTORS
330
47
102
}
330
47
100
AcDbScale
 70
     0
300
1/2" = 1'-0"
140
0.5
141
12.0
290
     0
  0
SCALE
  5
63
102
{ACAD_REACTORS
330
47
102
}
330
47
100
AcDbScale
 70
     0
300
3/4" = 1'-0"
140
0.75
141
12.0
290
     0
  0
SCALE
  5
64
102
{ACAD_REACTORS
330
47
102
}
330
47
100
AcDbScale
 70
     0
300
1" = 1'-0"
140
1.0
141
12.0
290
     0
  0
SCALE
  5
65
102
{ACAD_REACTORS
330
47
102
}
330
47
100
AcDbScale
 70
     0
300
1-1/2" = 1'-0"
140
1.5
141
12.0
290
     0
  0
SCALE
  5
66
102
{ACAD_REACTORS
330
47
102
}
330
47
100
AcDbScale
 70
     0
300
3" = 1'-0"
140
3.0
141
12.0
290
     0
  0
SCALE
  5
67
102
{ACAD_REACTORS
330
47
102
}
330
47
100
AcDbScale
 70
     0
300
6" = 1'-0"
140
6.0
141
12.0
290
     0
  0
SCALE
  5
68
102
{ACAD_REACTORS
330
47
102
}
330
47
100
AcDbScale
 70
     0
300
1'-0" = 1'-0"
140
12.0
141
12.0
290
     0
  0
ENDSEC
  0
EOF
